  0
SECTION
  2
HEADER
  9
$ACADVER
  1
AC1015
  9
$ACADMAINTVER
 70
    20
  9
$DWGCODEPAGE
  3
ANSI_932
  9
$INSBASE
 10
0.0
 20
0.0
 30
0.0
  9
$EXTMIN
 10
4832.025352725743
 20
4829.310112058911
 30
0.0
  9
$EXTMAX
 10
10967.91860224378
 20
11560.63494689792
 30
0.0
  9
$LIMMIN
 10
0.0
 20
0.0
  9
$LIMMAX
 10
10000.0
 20
10000.0
  9
$ORTHOMODE
 70
     1
  9
$REGENMODE
 70
     1
  9
$FILLMODE
 70
     1
  9
$QTEXTMODE
 70
     0
  9
$MIRRTEXT
 70
     1
  9
$LTSCALE
 40
20.0
  9
$ATTMODE
 70
     1
  9
$TEXTSIZE
 40
3.0
  9
$TRACEWID
 40
1.0
  9
$TEXTSTYLE
  7
AD-STANDARD
  9
$CLAYER
  8
1
  9
$CELTYPE
  6
BYLAYER
  9
$CECOLOR
 62
   256
  9
$CELTSCALE
 40
1.0
  9
$DISPSILH
 70
     0
  9
$DIMSCALE
 40
4.0
  9
$DIMASZ
 40
2.5
  9
$DIMEXO
 40
1.0
  9
$DIMDLI
 40
0.38
  9
$DIMRND
 40
0.0
  9
$DIMDLE
 40
0.0
  9
$DIMEXE
 40
1.0
  9
$DIMTP
 40
0.0
  9
$DIMTM
 40
0.0
  9
$DIMTXT
 40
3.0
  9
$DIMCEN
 40
-2.0
  9
$DIMTSZ
 40
0.0
  9
$DIMTOL
 70
     0
  9
$DIMLIM
 70
     0
  9
$DIMTIH
 70
     0
  9
$DIMTOH
 70
     0
  9
$DIMSE1
 70
     0
  9
$DIMSE2
 70
     0
  9
$DIMTAD
 70
     1
  9
$DIMZIN
 70
     8
  9
$DIMBLK
  1

  9
$DIMASO
 70
     1
  9
$DIMSHO
 70
     1
  9
$DIMPOST
  1

  9
$DIMAPOST
  1

  9
$DIMALT
 70
     0
  9
$DIMALTD
 70
     2
  9
$DIMALTF
 40
25.4
  9
$DIMLFAC
 40
1.0
  9
$DIMTOFL
 70
     1
  9
$DIMTVP
 40
0.0
  9
$DIMTIX
 70
     0
  9
$DIMSOXD
 70
     0
  9
$DIMSAH
 70
     0
  9
$DIMBLK1
  1

  9
$DIMBLK2
  1

  9
$DIMSTYLE
  2
4
  9
$DIMCLRD
 70
     9
  9
$DIMCLRE
 70
     9
  9
$DIMCLRT
 70
     2
  9
$DIMTFAC
 40
1.0
  9
$DIMGAP
 40
0.5
  9
$DIMJUST
 70
     0
  9
$DIMSD1
 70
     0
  9
$DIMSD2
 70
     0
  9
$DIMTOLJ
 70
     1
  9
$DIMTZIN
 70
     8
  9
$DIMALTZ
 70
     0
  9
$DIMALTTZ
 70
     0
  9
$DIMUPT
 70
     0
  9
$DIMDEC
 70
     4
  9
$DIMTDEC
 70
     4
  9
$DIMALTU
 70
     2
  9
$DIMALTTD
 70
     2
  9
$DIMTXSTY
  7
AD-STANDARD
  9
$DIMAUNIT
 70
     0
  9
$DIMADEC
 70
     0
  9
$DIMALTRND
 40
0.0
  9
$DIMAZIN
 70
     0
  9
$DIMDSEP
 70
    46
  9
$DIMATFIT
 70
     3
  9
$DIMFRAC
 70
     0
  9
$DIMLDRBLK
  1

  9
$DIMLUNIT
 70
     2
  9
$DIMLWD
 70
    -2
  9
$DIMLWE
 70
    -2
  9
$DIMTMOVE
 70
     0
  9
$LUNITS
 70
     2
  9
$LUPREC
 70
     4
  9
$SKETCHINC
 40
1.0
  9
$FILLETRAD
 40
3.0
  9
$AUNITS
 70
     0
  9
$AUPREC
 70
     0
  9
$MENU
  1
.
  9
$ELEVATION
 40
0.0
  9
$PELEVATION
 40
0.0
  9
$THICKNESS
 40
0.0
  9
$LIMCHECK
 70
     0
  9
$CHAMFERA
 40
3.0
  9
$CHAMFERB
 40
3.0
  9
$CHAMFERC
 40
673.4006734006733
  9
$CHAMFERD
 40
0.0
  9
$SKPOLY
 70
     0
  9
$TDCREATE
 40
2451428.386184838
  9
$TDUCREATE
 40
2451428.011184838
  9
$TDUPDATE
 40
2457379.840746493
  9
$TDUUPDATE
 40
2457379.465746493
  9
$TDINDWG
 40
1.5644938310
  9
$TDUSRTIMER
 40
1.5644938310
  9
$USRTIMER
 70
     1
  9
$ANGBASE
 50
0.0
  9
$ANGDIR
 70
     0
  9
$PDMODE
 70
     0
  9
$PDSIZE
 40
0.0
  9
$PLINEWID
 40
0.0
  9
$SPLFRAME
 70
     0
  9
$SPLINETYPE
 70
     6
  9
$SPLINESEGS
 70
     8
  9
$HANDSEED
  5
3134
  9
$SURFTAB1
 70
     6
  9
$SURFTAB2
 70
     6
  9
$SURFTYPE
 70
     6
  9
$SURFU
 70
     6
  9
$SURFV
 70
     6
  9
$UCSBASE
  2

  9
$UCSNAME
  2

  9
$UCSORG
 10
0.0
 20
0.0
 30
0.0
  9
$UCSXDIR
 10
1.0
 20
0.0
 30
0.0
  9
$UCSYDIR
 10
0.0
 20
1.0
 30
0.0
  9
$UCSORTHOREF
  2

  9
$UCSORTHOVIEW
 70
     0
  9
$UCSORGTOP
 10
0.0
 20
0.0
 30
0.0
  9
$UCSORGBOTTOM
 10
0.0
 20
0.0
 30
0.0
  9
$UCSORGLEFT
 10
0.0
 20
0.0
 30
0.0
  9
$UCSORGRIGHT
 10
0.0
 20
0.0
 30
0.0
  9
$UCSORGFRONT
 10
0.0
 20
0.0
 30
0.0
  9
$UCSORGBACK
 10
0.0
 20
0.0
 30
0.0
  9
$PUCSBASE
  2

  9
$PUCSNAME
  2

  9
$PUCSORG
 10
0.0
 20
0.0
 30
0.0
  9
$PUCSXDIR
 10
1.0
 20
0.0
 30
0.0
  9
$PUCSYDIR
 10
0.0
 20
1.0
 30
0.0
  9
$PUCSORTHOREF
  2

  9
$PUCSORTHOVIEW
 70
     0
  9
$PUCSORGTOP
 10
0.0
 20
0.0
 30
0.0
  9
$PUCSORGBOTTOM
 10
0.0
 20
0.0
 30
0.0
  9
$PUCSORGLEFT
 10
0.0
 20
0.0
 30
0.0
  9
$PUCSORGRIGHT
 10
0.0
 20
0.0
 30
0.0
  9
$PUCSORGFRONT
 10
0.0
 20
0.0
 30
0.0
  9
$PUCSORGBACK
 10
0.0
 20
0.0
 30
0.0
  9
$USERI1
 70
     0
  9
$USERI2
 70
     0
  9
$USERI3
 70
     0
  9
$USERI4
 70
     0
  9
$USERI5
 70
     0
  9
$USERR1
 40
0.0
  9
$USERR2
 40
0.0
  9
$USERR3
 40
0.0
  9
$USERR4
 40
0.0
  9
$USERR5
 40
0.0
  9
$WORLDVIEW
 70
     1
  9
$SHADEDGE
 70
     3
  9
$SHADEDIF
 70
    70
  9
$TILEMODE
 70
     1
  9
$MAXACTVP
 70
    16
  9
$PINSBASE
 10
0.0
 20
0.0
 30
0.0
  9
$PLIMCHECK
 70
     0
  9
$PEXTMIN
 10
19.85000000000002
 20
8.931140188773319
 30
0.0
  9
$PEXTMAX
 10
405.1499999999999
 20
282.1499999999999
 30
0.0
  9
$PLIMMIN
 10
-2.443749713897704
 20
-2.443756389617919
  9
$PLIMMAX
 10
417.5875918388366
 20
294.6092526435852
  9
$UNITMODE
 70
     0
  9
$VISRETAIN
 70
     0
  9
$PLINEGEN
 70
     0
  9
$PSLTSCALE
 70
     0
  9
$TREEDEPTH
 70
  3020
  9
$CMLSTYLE
  2
STANDARD
  9
$CMLJUST
 70
     0
  9
$CMLSCALE
 40
1.0
  9
$PROXYGRAPHICS
 70
     1
  9
$MEASUREMENT
 70
     1
  9
$CELWEIGHT
370
    -1
  9
$ENDCAPS
280
     0
  9
$JOINSTYLE
280
     0
  9
$LWDISPLAY
290
     0
  9
$INSUNITS
 70
     0
  9
$HYPERLINKBASE
  1

  9
$STYLESHEET
  1

  9
$XEDIT
290
     1
  9
$CEPSNTYPE
380
     0
  9
$PSTYLEMODE
290
     1
  9
$FINGERPRINTGUID
  2
{CDFAE1C9-0B05-11D4-A8E9-00402655F364}
  9
$VERSIONGUID
  2
{7FA7EB5D-8EF4-44AA-885B-27B9A7A2149E}
  9
$EXTNAMES
290
     1
  9
$PSVPSCALE
 40
0.0
  9
$OLESTARTUP
290
     0
  0
ENDSEC
  0
SECTION
  2
CLASSES
  0
CLASS
  1
ACDBDICTIONARYWDFLT
  2
AcDbDictionaryWithDefault
  3
ObjectDBX Classes
 90
        0
280
     0
281
     0
  0
CLASS
  1
ACDBPLACEHOLDER
  2
AcDbPlaceHolder
  3
ObjectDBX Classes
 90
        0
280
     0
281
     0
  0
CLASS
  1
LAYOUT
  2
AcDbLayout
  3
ObjectDBX Classes
 90
        0
280
     0
281
     0
  0
CLASS
  1
PLOTSETTINGS
  2
AcDbPlotSettings
  3
ObjectDBX Classes
 90
        0
280
     0
281
     0
  0
CLASS
  1
DICTIONARYVAR
  2
AcDbDictionaryVar
  3
ObjectDBX Classes
 90
        0
280
     0
281
     0
  0
CLASS
  1
SORTENTSTABLE
  2
AcDbSortentsTable
  3
ObjectDBX Classes
 90
        0
280
     0
281
     0
  0
CLASS
  1
MATERIAL
  2
AcDbMaterial
  3
ObjectDBX Classes
 90
     1153
280
     0
281
     0
  0
CLASS
  1
VISUALSTYLE
  2
AcDbVisualStyle
  3
ObjectDBX Classes
 90
     4095
280
     0
281
     0
  0
CLASS
  1
TABLESTYLE
  2
AcDbTableStyle
  3
ObjectDBX Classes
 90
     4095
280
     0
281
     0
  0
CLASS
  1
SCALE
  2
AcDbScale
  3
ObjectDBX Classes
 90
     1153
280
     0
281
     0
  0
CLASS
  1
MLEADERSTYLE
  2
AcDbMLeaderStyle
  3
ACDB_MLEADERSTYLE_CLASS
 90
     4095
280
     0
281
     0
  0
CLASS
  1
CELLSTYLEMAP
  2
AcDbCellStyleMap
  3
ObjectDBX Classes
 90
     1152
280
     0
281
     0
  0
ENDSEC
  0
SECTION
  2
TABLES
  0
TABLE
  2
VPORT
  5
8
102
{ACAD_XDICTIONARY
360
3045
102
}
330
0
100
AcDbSymbolTable
 70
     1
  0
VPORT
  5
2E7A
330
8
100
AcDbSymbolTableRecord
100
AcDbViewportTableRecord
  2
*ACTIVE
 70
     0
 10
0.0
 20
0.0
 11
1.0
 21
1.0
 12
5104.960315170432
 22
5454.902564214269
 13
0.0
 23
0.0
 14
168.0
 24
168.0
 15
0.0
 25
0.0
 16
0.0
 26
0.0
 36
1.0
 17
0.0
 27
0.0
 37
0.0
 40
1018.524658250469
 41
1.605263157894736
 42
50.0
 43
0.0
 44
0.0
 50
0.0
 51
0.0
 71
     0
 72
   100
 73
     1
 74
     0
 75
     0
 76
     0
 77
     0
 78
     1
281
     0
 65
     1
110
0.0
120
0.0
130
0.0
111
1.0
121
0.0
131
0.0
112
0.0
122
1.0
132
0.0
 79
     0
146
0.0
1001
ACAD_NAV_VCDISPLAY
1070
     3
  0
ENDTAB
  0
TABLE
  2
LTYPE
  5
5
330
0
100
AcDbSymbolTable
 70
     4
  0
LTYPE
  5
14
330
5
100
AcDbSymbolTableRecord
100
AcDbLinetypeTableRecord
  2
BYBLOCK
 70
     0
  3

 72
    65
 73
     0
 40
0.0
  0
LTYPE
  5
15
330
5
100
AcDbSymbolTableRecord
100
AcDbLinetypeTableRecord
  2
BYLAYER
 70
     0
  3

 72
    65
 73
     0
 40
0.0
  0
LTYPE
  5
16
330
5
100
AcDbSymbolTableRecord
100
AcDbLinetypeTableRecord
  2
CONTINUOUS
 70
     0
  3
Solid line
 72
    65
 73
     0
 40
0.0
  0
LTYPE
  5
6E
330
5
100
AcDbSymbolTableRecord
100
AcDbLinetypeTableRecord
  2
CENTER
 70
     0
  3
____ _ ____ _ ____ _ ____ _ ____ _ ____ _ ____ 
 72
    65
 73
     4
 40
2.0
 49
1.25
 74
     0
 49
-0.25
 74
     0
 49
0.25
 74
     0
 49
-0.25
 74
     0
  0
LTYPE
  5
6F
330
5
100
AcDbSymbolTableRecord
100
AcDbLinetypeTableRecord
  2
HIDDEN
 70
     0
  3
__ __ __ __ __ __ __ __ __ __ __ __ __ __ __ __
 72
    65
 73
     2
 40
0.375
 49
0.25
 74
     0
 49
-0.125
 74
     0
  0
ENDTAB
  0
TABLE
  2
LAYER
  5
2
102
{ACAD_XDICTIONARY
360
30E1
102
}
330
0
100
AcDbSymbolTable
 70
     7
  0
LAYER
  5
F
102
{ACAD_XDICTIONARY
360
2FDE
102
}
330
2
100
AcDbSymbolTableRecord
100
AcDbLayerTableRecord
  2
0
 70
     0
 62
     7
  6
CONTINUOUS
370
    -3
390
2E98
  0
LAYER
  5
72
330
2
100
AcDbSymbolTableRecord
100
AcDbLayerTableRecord
  2
DEFPOINTS
 70
     0
 62
     7
  6
CONTINUOUS
290
     0
370
    -3
390
2E98
  0
LAYER
  5
74
102
{ACAD_XDICTIONARY
360
2FE2
102
}
330
2
100
AcDbSymbolTableRecord
100
AcDbLayerTableRecord
  2
CENTER
 70
     0
 62
     9
  6
CENTER
370
    -3
390
2E98
  0
LAYER
  5
17F1
102
{ACAD_XDICTIONARY
360
2FE6
102
}
330
2
100
AcDbSymbolTableRecord
100
AcDbLayerTableRecord
  2
4
 70
     0
 62
     3
  6
CONTINUOUS
370
    -3
390
2E98
  0
LAYER
  5
30EF
330
2
100
AcDbSymbolTableRecord
100
AcDbLayerTableRecord
  2
1
 70
     0
 62
     7
  6
CONTINUOUS
370
    -3
390
2E98
1001
AcAecLayerStandard
1000

1000

1001
AcCmTransparency
1071
        0
  0
ENDTAB
  0
TABLE
  2
STYLE
  5
3
330
0
100
AcDbSymbolTable
 70
     5
  0
STYLE
  5
10
330
3
100
AcDbSymbolTableRecord
100
AcDbTextStyleTableRecord
  2
STANDARD
 70
     0
 40
0.0
 41
0.8
 50
0.0
 71
     0
 42
84.17508417508416
  3
TXT
  4
bigfont.shx
  0
STYLE
  5
63
330
3
100
AcDbSymbolTableRecord
100
AcDbTextStyleTableRecord
  2
AD-STANDARD
 70
     0
 40
0.0
 41
0.8
 50
0.0
 71
     0
 42
3.0
  3
C:\Program Files\AutoCAD LT\romans.shx
  4
bigfont.shx
  0
ENDTAB
  0
TABLE
  2
VIEW
  5
6
330
0
100
AcDbSymbolTable
 70
     1
  0
ENDTAB
  0
TABLE
  2
UCS
  5
7
330
0
100
AcDbSymbolTable
 70
     0
  0
ENDTAB
  0
TABLE
  2
APPID
  5
9
330
0
100
AcDbSymbolTable
 70
    10
  0
APPID
  5
11
330
9
100
AcDbSymbolTableRecord
100
AcDbRegAppTableRecord
  2
ACAD
 70
     0
  0
APPID
  5
22A
330
9
100
AcDbSymbolTableRecord
100
AcDbRegAppTableRecord
  2
CONTENTTABDATA
 70
     0
  0
APPID
  5
22B
330
9
100
AcDbSymbolTableRecord
100
AcDbRegAppTableRecord
  2
CONTENTCURRENTTAB
 70
     0
  0
APPID
  5
232
330
9
100
AcDbSymbolTableRecord
100
AcDbRegAppTableRecord
  2
CONTENTBLOCKDESCRIPTION
 70
     0
  0
APPID
  5
233
330
9
100
AcDbSymbolTableRecord
100
AcDbRegAppTableRecord
  2
CONTENTBLOCKICON
 70
     0
  0
APPID
  5
2FD8
330
9
100
AcDbSymbolTableRecord
100
AcDbRegAppTableRecord
  2
ACAD_EXEMPT_FROM_CAD_STANDARDS
 70
     0
  0
APPID
  5
3087
330
9
100
AcDbSymbolTableRecord
100
AcDbRegAppTableRecord
  2
ACAD_MLEADERVER
 70
     0
  0
APPID
  5
30E8
330
9
100
AcDbSymbolTableRecord
100
AcDbRegAppTableRecord
  2
ACAD_NAV_VCDISPLAY
 70
     0
  0
APPID
  5
30F0
330
9
100
AcDbSymbolTableRecord
100
AcDbRegAppTableRecord
  2
AcAecLayerStandard
 70
     0
  0
APPID
  5
30F1
330
9
100
AcDbSymbolTableRecord
100
AcDbRegAppTableRecord
  2
AcCmTransparency
 70
     0
  0
ENDTAB
  0
TABLE
  2
DIMSTYLE
  5
A
330
0
100
AcDbSymbolTable
 70
     6
100
AcDbDimStyleTable
 71
     1
340
2C8E
  0
DIMSTYLE
105
1D
330
A
100
AcDbSymbolTableRecord
100
AcDbDimStyleTableRecord
  2
STANDARD
 70
     0
340
10
  0
DIMSTYLE
105
2569
102
{ACAD_REACTORS
330
2AAB
330
2B2B
330
2B56
330
2B6D
102
}
330
A
100
AcDbSymbolTableRecord
100
AcDbDimStyleTableRecord
  2
3
 70
     0
 40
3.0
 41
2.5
 42
1.0
 44
1.0
 73
     0
 74
     0
 77
     1
 78
     8
140
3.0
141
-2.0
147
0.5
172
     1
176
     9
177
     9
178
     2
284
     8
340
63
  0
DIMSTYLE
105
2C8E
330
A
100
AcDbSymbolTableRecord
100
AcDbDimStyleTableRecord
  2
4
 70
     0
 40
4.0
 41
2.5
 42
1.0
 44
1.0
 73
     0
 74
     0
 77
     1
 78
     8
140
3.0
141
-2.0
147
0.5
172
     1
176
     9
177
     9
178
     2
284
     8
340
63
  0
ENDTAB
  0
TABLE
  2
BLOCK_RECORD
  5
1
330
0
100
AcDbSymbolTable
 70
    24
  0
BLOCK_RECORD
  5
1A
102
{ACAD_XDICTIONARY
360
2F6F
102
}
330
1
100
AcDbSymbolTableRecord
100
AcDbBlockTableRecord
  2
*MODEL_SPACE
340
2E9B
  0
BLOCK_RECORD
  5
17
102
{ACAD_XDICTIONARY
360
2F12
102
}
330
1
100
AcDbSymbolTableRecord
100
AcDbBlockTableRecord
  2
*PAPER_SPACE
340
2E9C
  0
BLOCK_RECORD
  5
2A9F
330
1
100
AcDbSymbolTableRecord
100
AcDbBlockTableRecord
  2
*D10
340
0
  0
ENDTAB
  0
ENDSEC
  0
SECTION
  2
BLOCKS
  0
BLOCK
  5
1B
330
1A
100
AcDbEntity
  8
0
100
AcDbBlockBegin
  2
*MODEL_SPACE
 70
     0
 10
0.0
 20
0.0
 30
0.0
  3
*MODEL_SPACE
  1

  0
ENDBLK
  5
1C
330
1A
100
AcDbEntity
  8
0
100
AcDbBlockEnd
  0
BLOCK
  5
18
330
17
100
AcDbEntity
 67
     1
  8
0
100
AcDbBlockBegin
  2
*PAPER_SPACE
 70
     0
 10
0.0
 20
0.0
 30
0.0
  3
*PAPER_SPACE
  1

  0
ENDBLK
  5
19
330
17
100
AcDbEntity
 67
     1
  8
0
100
AcDbBlockEnd
  0
BLOCK
  5
2C32
330
2A9F
100
AcDbEntity
  8
0
100
AcDbBlockBegin
  2
*D10
 70
     1
 10
0.0
 20
0.0
 30
0.0
  3
*D10
  1

  0
LINE
  5
2C33
330
2A9F
100
AcDbEntity
  8
0
  6
ByBlock
 62
     9
100
AcDbLine
 10
5401.549822777208
 20
5536.124812742635
 30
0.0
 11
5401.549822777208
 21
5589.421022878227
 31
0.0
  0
LINE
  5
2C34
330
2A9F
100
AcDbEntity
  8
0
  6
ByBlock
 62
     9
100
AcDbLine
 10
5604.549822777207
 20
5536.124812742635
 30
0.0
 11
5604.549822777207
 21
5589.421022878227
 31
0.0
  0
LINE
  5
2C35
330
2A9F
100
AcDbEntity
  8
0
  6
ByBlock
 62
     9
100
AcDbLine
 10
5409.049822777208
 20
5586.421022878226
 30
0.0
 11
5597.049822777207
 21
5586.421022878226
 31
0.0
  0
SOLID
  5
2C36
330
2A9F
100
AcDbEntity
  8
0
  6
ByBlock
 62
     9
100
AcDbTrace
 10
5409.049822777208
 20
5587.671022878226
 30
0.0
 11
5409.049822777208
 21
5585.171022878227
 31
0.0
 12
5401.549822777208
 22
5586.421022878226
 32
0.0
 13
5401.549822777208
 23
5586.421022878226
 33
0.0
  0
SOLID
  5
2C37
330
2A9F
100
AcDbEntity
  8
0
  6
ByBlock
 62
     9
100
AcDbTrace
 10
5597.049822777207
 20
5587.671022878226
 30
0.0
 11
5597.049822777207
 21
5585.171022878227
 31
0.0
 12
5604.549822777207
 22
5586.421022878226
 32
0.0
 13
5604.549822777207
 23
5586.421022878226
 33
0.0
  0
MTEXT
  5
2C38
330
2A9F
100
AcDbEntity
  8
0
  6
ByBlock
 62
     2
100
AcDbMText
 10
5503.049822777207
 20
5592.421022878227
 30
0.0
 40
9.0
 41
0.0
 71
     5
 72
     1
  1
\A1;203
  7
AD-STANDARD
 73
     1
 44
1.0
1001
ACAD
1000
MTEXTBEGIN
1070
    73
1070
     1
1070
    44
1040
1.0
1070
    74
1070
     0
1000
MTEXTEND
  0
POINT
  5
2C39
330
2A9F
100
AcDbEntity
  8
DEFPOINTS
  6
ByBlock
 62
     0
100
AcDbPoint
 10
5401.549822777208
 20
5533.124812742635
 30
0.0
  0
POINT
  5
2C3A
330
2A9F
100
AcDbEntity
  8
DEFPOINTS
  6
ByBlock
 62
     0
100
AcDbPoint
 10
5604.549822777207
 20
5533.124812742635
 30
0.0
  0
POINT
  5
2C3B
330
2A9F
100
AcDbEntity
  8
DEFPOINTS
  6
ByBlock
 62
     0
100
AcDbPoint
 10
5604.549822777207
 20
5586.421022878226
 30
0.0
  0
ENDBLK
  5
2C3C
330
2A9F
100
AcDbEntity
  8
0
100
AcDbBlockEnd
  0
ENDSEC
  0
SECTION
  2
ENTITIES
  0
LINE
  5
15E2
330
1A
100
AcDbEntity
  8
4
  6
HIDDEN
 62
     9
 48
0.7
100
AcDbLine
 10
5102.775352725743
 20
5850.991123159797
 30
0.0
 11
5102.775352725743
 21
5835.991123159796
 31
0.0
  0
LINE
  5
15E3
330
1A
100
AcDbEntity
  8
4
  6
HIDDEN
 62
     9
 48
0.7
100
AcDbLine
 10
5113.275352725743
 20
5850.991123159797
 30
0.0
 11
5113.275352725743
 21
5835.991123159796
 31
0.0
  0
LINE
  5
15E5
330
1A
100
AcDbEntity
  8
4
100
AcDbLine
 10
5118.425352725743
 20
5838.964477046122
 30
0.0
 11
5118.425352725743
 21
5848.017769273471
 31
0.0
  0
LINE
  5
15E6
330
1A
100
AcDbEntity
  8
4
100
AcDbLine
 10
5097.625352725741
 20
5848.01776927347
 30
0.0
 11
5097.625352725743
 21
5838.964477046123
 31
0.0
  0
LINE
  5
15EB
330
1A
100
AcDbEntity
  8
4
100
AcDbLine
 10
5118.375352725743
 20
5875.810729568809
 30
0.0
 11
5097.675352725744
 21
5875.81072956881
 31
0.0
  0
LINE
  5
15EC
330
1A
100
AcDbEntity
  8
4
100
AcDbLine
 10
5102.775352725743
 20
5850.991123159797
 30
0.0
 11
5113.275352725743
 21
5850.991123159797
 31
0.0
  0
LINE
  5
15ED
330
1A
100
AcDbEntity
  8
4
100
AcDbLine
 10
5118.375352725742
 20
5848.04663678693
 30
0.0
 11
5113.275352725743
 21
5850.991123159797
 31
0.0
  0
LINE
  5
15EE
330
1A
100
AcDbEntity
  8
4
  6
HIDDEN
 62
     9
 48
0.7
100
AcDbLine
 10
5113.275352725743
 20
5881.810729568809
 30
0.0
 11
5113.275352725743
 21
5878.755215941676
 31
0.0
  0
LINE
  5
15EF
330
1A
100
AcDbEntity
  8
4
  6
HIDDEN
 62
     9
 48
0.7
100
AcDbLine
 10
5102.775352725744
 20
5881.810729568809
 30
0.0
 11
5102.775352725744
 21
5878.755215941676
 31
0.0
  0
LINE
  5
15F0
330
1A
100
AcDbEntity
  8
4
100
AcDbLine
 10
5097.675352725744
 20
5848.04663678693
 30
0.0
 11
5102.775352725743
 21
5850.991123159797
 31
0.0
  0
LINE
  5
15F1
330
1A
100
AcDbEntity
  8
4
100
AcDbLine
 10
5097.675352725744
 20
5875.81072956881
 30
0.0
 11
5097.675352725744
 21
5881.810729568809
 31
0.0
  0
LINE
  5
15F2
330
1A
100
AcDbEntity
  8
4
100
AcDbLine
 10
5118.375352725742
 20
5848.04663678693
 30
0.0
 11
5097.675352725742
 21
5848.04663678693
 31
0.0
  0
LINE
  5
15F3
330
1A
100
AcDbEntity
  8
4
100
AcDbLine
 10
5118.375352725743
 20
5881.810729568809
 30
0.0
 11
5118.375352725743
 21
5875.81072956881
 31
0.0
  0
LINE
  5
15F4
330
1A
100
AcDbEntity
  8
4
100
AcDbLine
 10
5097.675352725744
 20
5881.810729568809
 30
0.0
 11
5118.375352725743
 21
5881.810729568809
 31
0.0
  0
LINE
  5
15F5
330
1A
100
AcDbEntity
  8
4
  6
HIDDEN
 62
     9
 48
0.7
100
AcDbLine
 10
5113.275352725743
 20
5878.755215941676
 30
0.0
 11
5118.375352725743
 21
5875.810729568809
 31
0.0
  0
LINE
  5
15F6
330
1A
100
AcDbEntity
  8
4
  6
HIDDEN
 62
     9
 48
0.7
100
AcDbLine
 10
5102.775352725744
 20
5878.755215941676
 30
0.0
 11
5097.675352725744
 21
5875.810729568809
 31
0.0
  0
LINE
  5
15F7
330
1A
100
AcDbEntity
  8
4
  6
HIDDEN
 62
     9
 48
0.7
100
AcDbLine
 10
5102.775352725744
 20
5878.755215941676
 30
0.0
 11
5113.275352725743
 21
5878.755215941676
 31
0.0
  0
LINE
  5
15F9
330
1A
100
AcDbEntity
  8
4
100
AcDbLine
 10
5097.625352725743
 20
5838.964477046122
 30
0.0
 11
5118.425352725743
 21
5838.964477046122
 31
0.0
  0
LINE
  5
15FA
330
1A
100
AcDbEntity
  8
4
100
AcDbLine
 10
5102.775352725743
 20
5835.991123159796
 30
0.0
 11
5097.625352725742
 21
5838.964477046123
 31
0.0
  0
LINE
  5
15FB
330
1A
100
AcDbEntity
  8
4
100
AcDbLine
 10
5113.275352725743
 20
5835.991123159796
 30
0.0
 11
5118.425352725743
 21
5838.964477046123
 31
0.0
  0
LINE
  5
15FC
330
1A
100
AcDbEntity
  8
4
100
AcDbLine
 10
5102.775352725742
 20
5835.991123159796
 30
0.0
 11
5113.275352725743
 21
5835.991123159796
 31
0.0
  0
LINE
  5
1CFE
330
1A
100
AcDbEntity
  8
CENTER
100
AcDbLine
 10
5108.025352725743
 20
5870.810729568809
 30
0.0
 11
5108.025352725743
 21
5886.81072956881
 31
0.0
  0
LINE
  5
1D01
330
1A
100
AcDbEntity
  8
CENTER
100
AcDbLine
 10
5108.025352725742
 20
5830.991123159797
 30
0.0
 11
5108.025352725743
 21
5855.991123159796
 31
0.0
  0
LINE
  5
26F5
330
1A
100
AcDbEntity
  8
1
100
AcDbLine
 10
4852.025352725743
 20
5101.995529885325
 30
0.0
 11
4852.025352725742
 21
5041.495529885324
 31
0.0
  0
LINE
  5
26F7
330
1A
100
AcDbEntity
  8
1
100
AcDbLine
 10
5055.025352725741
 20
5041.495529885323
 30
0.0
 11
5055.025352725743
 21
5101.995529885325
 31
0.0
  0
LINE
  5
270D
330
1A
100
AcDbEntity
  8
1
 62
     9
100
AcDbLine
 10
4852.025352725743
 20
5101.995529885325
 30
0.0
 11
5055.025352725743
 21
5101.995529885325
 31
0.0
  0
LINE
  5
2710
330
1A
100
AcDbEntity
  8
1
100
AcDbLine
 10
4855.025352725742
 20
5038.495529885324
 30
0.0
 11
5052.025352725741
 21
5038.495529885323
 31
0.0
  0
ARC
  5
2711
330
1A
100
AcDbEntity
  8
1
100
AcDbCircle
 10
5041.025352725743
 20
5036.995529885325
 30
0.0
 40
1.5
100
AcDbArc
 50
90.0
 51
180.0
  0
ARC
  5
2712
330
1A
100
AcDbEntity
  8
1
100
AcDbCircle
 10
4866.025352725744
 20
5036.995529885324
 30
0.0
 40
1.5
100
AcDbArc
 50
0.0
 51
89.99999999999927
  0
ARC
  5
2713
330
1A
100
AcDbEntity
  8
1
100
AcDbCircle
 10
4855.025352725742
 20
5041.495529885324
 30
0.0
 40
3.0
100
AcDbArc
 50
179.9999999999992
 51
269.9999999999998
  0
ARC
  5
2715
330
1A
100
AcDbEntity
  8
1
100
AcDbCircle
 10
5052.025352725741
 20
5041.495529885323
 30
0.0
 40
3.0
100
AcDbArc
 50
270.0
 51
359.9999999999992
  0
LINE
  5
2716
330
1A
100
AcDbEntity
  8
CENTER
100
AcDbLine
 10
4953.525352725743
 20
5016.995529885324
 30
0.0
 11
4953.525352725743
 21
5416.995529885324
 31
0.0
  0
LINE
  5
271C
330
1A
100
AcDbEntity
  8
1
100
AcDbLine
 10
5000.704121034408
 20
5396.995529885323
 30
0.0
 11
4957.525352725744
 21
5396.995529885323
 31
0.0
  0
LINE
  5
2733
330
1A
100
AcDbEntity
  8
1
100
AcDbLine
 10
4949.525352725745
 20
5396.995529885325
 30
0.0
 11
4949.525352725744
 21
5390.995529885324
 31
0.0
  0
LINE
  5
2736
330
1A
100
AcDbEntity
  8
1
100
AcDbLine
 10
4957.525352725744
 20
5396.995529885325
 30
0.0
 11
4957.525352725743
 21
5390.995529885324
 31
0.0
  0
ARC
  5
2739
330
1A
100
AcDbEntity
  8
1
100
AcDbCircle
 10
4953.525352725743
 20
5390.995529885324
 30
0.0
 40
4.0
100
AcDbArc
 50
180.0
 51
0.0
  0
LINE
  5
273A
330
1A
100
AcDbEntity
  8
1
100
AcDbLine
 10
4949.525352725745
 20
5396.995529885323
 30
0.0
 11
4906.34658441708
 21
5396.995529885323
 31
0.0
  0
LINE
  5
273B
330
1A
100
AcDbEntity
  8
1
100
AcDbLine
 10
4903.878006687161
 20
5382.995529885325
 30
0.0
 11
4906.34658441708
 21
5396.995529885325
 31
0.0
  0
LINE
  5
273C
330
1A
100
AcDbEntity
  8
1
100
AcDbLine
 10
5003.172698764328
 20
5382.995529885325
 30
0.0
 11
5000.704121034408
 21
5396.995529885323
 31
0.0
  0
LINE
  5
273F
330
1A
100
AcDbEntity
  8
1
  6
HIDDEN
100
AcDbLine
 10
4923.525352725743
 20
5306.995529885323
 30
0.0
 11
4983.525352725743
 21
5306.995529885323
 31
0.0
  0
LINE
  5
2742
330
1A
100
AcDbEntity
  8
1
  6
HIDDEN
100
AcDbLine
 10
4953.525352725743
 20
5301.995529885324
 30
0.0
 11
4944.865098687897
 21
5306.995529885323
 31
0.0
  0
LINE
  5
2744
330
1A
100
AcDbEntity
  8
1
  6
HIDDEN
100
AcDbLine
 10
4983.525352725743
 20
5311.995529885324
 30
0.0
 11
4923.525352725743
 21
5311.995529885322
 31
0.0
  0
LINE
  5
2746
330
1A
100
AcDbEntity
  8
1
  6
HIDDEN
 62
     9
100
AcDbLine
 10
4921.52535272574
 20
5386.995529885325
 30
0.0
 11
4921.525352725743
 21
5310.995529885324
 31
0.0
  0
LINE
  5
2748
330
1A
100
AcDbEntity
  8
1
  6
HIDDEN
 62
     9
100
AcDbLine
 10
4985.525352725741
 20
5386.995529885325
 30
0.0
 11
4985.525352725743
 21
5310.995529885324
 31
0.0
  0
LINE
  5
274B
330
1A
100
AcDbEntity
  8
1
  6
HIDDEN
100
AcDbLine
 10
4923.149352725743
 20
5386.995529885325
 30
0.0
 11
4923.149352725743
 21
5311.967092953506
 31
0.0
  0
LINE
  5
274D
330
1A
100
AcDbEntity
  8
1
  6
HIDDEN
100
AcDbLine
 10
4983.901352725743
 20
5386.995529885325
 30
0.0
 11
4983.901352725743
 21
5311.967092953506
 31
0.0
  0
ARC
  5
2756
330
1A
100
AcDbEntity
  8
1
  6
HIDDEN
100
AcDbCircle
 10
4923.525352725743
 20
5309.495529885324
 30
0.0
 40
2.5
100
AcDbArc
 50
90.0
 51
270.0
  0
ARC
  5
2759
330
1A
100
AcDbEntity
  8
1
  6
HIDDEN
100
AcDbCircle
 10
4983.525352725743
 20
5309.495529885324
 30
0.0
 40
2.5
100
AcDbArc
 50
270.0
 51
90.0
  0
LINE
  5
2761
330
1A
100
AcDbEntity
  8
1
  6
HIDDEN
100
AcDbLine
 10
4953.525352725743
 20
5301.995529885324
 30
0.0
 11
4962.185606763587
 21
5306.995529885323
 31
0.0
  0
LINE
  5
2763
330
1A
100
AcDbEntity
  8
1
  6
HIDDEN
100
AcDbLine
 10
4919.525352725743
 20
5396.995529885323
 30
0.0
 11
4921.425352725743
 21
5393.704633350943
 31
0.0
  0
LINE
  5
2765
330
1A
100
AcDbEntity
  8
1
  6
HIDDEN
100
AcDbLine
 10
4987.525352725743
 20
5396.995529885323
 30
0.0
 11
4985.625352725743
 21
5393.704633350942
 31
0.0
  0
LINE
  5
2768
330
1A
100
AcDbEntity
  8
1
  6
HIDDEN
100
AcDbLine
 10
4921.425352725743
 20
5386.995529885325
 30
0.0
 11
4985.625352725744
 21
5386.995529885325
 31
0.0
  0
LINE
  5
276A
330
1A
100
AcDbEntity
  8
1
  6
HIDDEN
100
AcDbLine
 10
4985.625352725743
 20
5393.704633350943
 30
0.0
 11
4985.625352725743
 21
5386.995529885325
 31
0.0
  0
LINE
  5
276C
330
1A
100
AcDbEntity
  8
1
  6
HIDDEN
100
AcDbLine
 10
4921.425352725742
 20
5393.704633350943
 30
0.0
 11
4921.425352725743
 21
5386.995529885325
 31
0.0
  0
LINE
  5
276D
330
1A
100
AcDbEntity
  8
1
  6
HIDDEN
100
AcDbLine
 10
4921.425352725743
 20
5393.704633350943
 30
0.0
 11
4949.525352725744
 21
5393.704633350943
 31
0.0
  0
LINE
  5
2770
330
1A
100
AcDbEntity
  8
1
  6
HIDDEN
100
AcDbLine
 10
5002.291063860784
 20
5038.995529885323
 30
0.0
 11
4904.759641590704
 21
5038.995529885323
 31
0.0
  0
LINE
  5
278D
330
1A
100
AcDbEntity
  8
1
  6
HIDDEN
100
AcDbLine
 10
4985.625352725742
 20
5048.995529885321
 30
0.0
 11
4921.425352725742
 21
5048.995529885321
 31
0.0
  0
LINE
  5
278E
330
1A
100
AcDbEntity
  8
1
  6
HIDDEN
100
AcDbLine
 10
4983.525352725743
 20
5128.995529885323
 30
0.0
 11
4923.525352725743
 21
5128.995529885323
 31
0.0
  0
LINE
  5
278F
330
1A
100
AcDbEntity
  8
1
  6
HIDDEN
100
AcDbLine
 10
4923.525352725743
 20
5123.995529885323
 30
0.0
 11
4983.525352725743
 21
5123.995529885324
 31
0.0
  0
LINE
  5
2790
330
1A
100
AcDbEntity
  8
1
  6
HIDDEN
100
AcDbLine
 10
4985.625352725742
 20
5042.286426419704
 30
0.0
 11
4921.425352725742
 21
5042.286426419704
 31
0.0
  0
LINE
  5
2791
330
1A
100
AcDbEntity
  8
1
  6
HIDDEN
 62
     9
100
AcDbLine
 10
4985.525352725744
 20
5048.995529885323
 30
0.0
 11
4985.525352725743
 21
5124.995529885324
 31
0.0
  0
ARC
  5
2792
330
1A
100
AcDbEntity
  8
1
  6
HIDDEN
100
AcDbCircle
 10
4983.525352725743
 20
5126.495529885324
 30
0.0
 40
2.5
100
AcDbArc
 50
270.0
 51
90.0
  0
LINE
  5
2793
330
1A
100
AcDbEntity
  8
1
  6
HIDDEN
100
AcDbLine
 10
4983.901352725743
 20
5048.995529885323
 30
0.0
 11
4983.901352725743
 21
5124.023966817142
 31
0.0
  0
LINE
  5
2794
330
1A
100
AcDbEntity
  8
1
  6
HIDDEN
100
AcDbLine
 10
4987.525352725742
 20
5038.995529885323
 30
0.0
 11
4985.625352725742
 21
5042.286426419704
 31
0.0
  0
LINE
  5
2795
330
1A
100
AcDbEntity
  8
1
  6
HIDDEN
100
AcDbLine
 10
4985.625352725743
 20
5042.286426419704
 30
0.0
 11
4985.625352725742
 21
5048.995529885323
 31
0.0
  0
LINE
  5
2796
330
1A
100
AcDbEntity
  8
1
  6
HIDDEN
 62
     9
100
AcDbLine
 10
4921.525352725744
 20
5048.995529885323
 30
0.0
 11
4921.525352725743
 21
5124.995529885324
 31
0.0
  0
LINE
  5
2797
330
1A
100
AcDbEntity
  8
1
  6
HIDDEN
100
AcDbLine
 10
4923.149352725743
 20
5048.995529885323
 30
0.0
 11
4923.149352725743
 21
5124.023966817142
 31
0.0
  0
LINE
  5
2798
330
1A
100
AcDbEntity
  8
1
  6
HIDDEN
100
AcDbLine
 10
4919.525352725742
 20
5038.995529885323
 30
0.0
 11
4921.425352725742
 21
5042.286426419705
 31
0.0
  0
LINE
  5
2799
330
1A
100
AcDbEntity
  8
1
  6
HIDDEN
100
AcDbLine
 10
4921.425352725742
 20
5042.286426419704
 30
0.0
 11
4921.425352725742
 21
5048.995529885321
 31
0.0
  0
ARC
  5
279A
330
1A
100
AcDbEntity
  8
1
  6
HIDDEN
100
AcDbCircle
 10
4923.525352725743
 20
5126.495529885324
 30
0.0
 40
2.5
100
AcDbArc
 50
90.0
 51
270.0
  0
LINE
  5
279B
330
1A
100
AcDbEntity
  8
1
  6
HIDDEN
100
AcDbLine
 10
4953.525352725743
 20
5133.995529885324
 30
0.0
 11
4962.185606763588
 21
5128.995529885323
 31
0.0
  0
LINE
  5
279C
330
1A
100
AcDbEntity
  8
1
  6
HIDDEN
100
AcDbLine
 10
4953.525352725743
 20
5133.995529885324
 30
0.0
 11
4944.865098687898
 21
5128.995529885323
 31
0.0
  0
LINE
  5
27A0
330
1A
100
AcDbEntity
  8
1
  6
HIDDEN
100
AcDbLine
 10
4903.525352725743
 20
5037.495529885323
 30
0.0
 11
4904.759641590703
 21
5038.995529885323
 31
0.0
  0
LINE
  5
27A1
330
1A
100
AcDbEntity
  8
1
  6
HIDDEN
100
AcDbLine
 10
5003.525352725744
 20
5037.495529885323
 30
0.0
 11
5002.291063860784
 21
5038.995529885323
 31
0.0
  0
LINE
  5
27A2
330
1A
100
AcDbEntity
  8
1
  6
HIDDEN
100
AcDbLine
 10
4903.525352725743
 20
5037.495529885323
 30
0.0
 11
4903.025352725743
 21
5036.995529885324
 31
0.0
  0
LINE
  5
27A4
330
1A
100
AcDbEntity
  8
1
  6
HIDDEN
100
AcDbLine
 10
5003.525352725744
 20
5037.495529885323
 30
0.0
 11
5004.025352725744
 21
5036.995529885323
 31
0.0
  0
LINE
  5
27A5
330
1A
100
AcDbEntity
  8
1
100
AcDbLine
 10
4867.525352725744
 20
5036.995529885324
 30
0.0
 11
5039.525352725743
 21
5036.995529885325
 31
0.0
  0
LINE
  5
27BF
330
1A
100
AcDbEntity
  8
1
100
AcDbLine
 10
4852.025352725742
 20
5373.995529885323
 30
0.0
 11
4852.025352725743
 21
5107.995529885325
 31
0.0
  0
LINE
  5
27C1
330
1A
100
AcDbEntity
  8
1
100
AcDbLine
 10
5055.025352725742
 20
5373.995529885323
 30
0.0
 11
5055.025352725742
 21
5218.995398858035
 31
0.0
  0
LINE
  5
2A27
330
1A
100
AcDbEntity
  8
1
100
AcDbLine
 10
4852.025352725743
 20
5373.995529885323
 30
0.0
 11
5055.025352725742
 21
5373.995529885323
 31
0.0
  0
LINE
  5
2A8F
330
1A
100
AcDbEntity
  8
1
100
AcDbLine
 10
5013.525352725743
 20
5376.995529885324
 30
0.0
 11
4893.525352725743
 21
5376.995529885324
 31
0.0
  0
LINE
  5
2A90
330
1A
100
AcDbEntity
  8
1
100
AcDbLine
 10
4893.525352725743
 20
5382.995529885325
 30
0.0
 11
5013.525352725743
 21
5382.995529885325
 31
0.0
  0
LINE
  5
2A92
330
1A
100
AcDbEntity
  8
1
100
AcDbLine
 10
4893.525352725743
 20
5376.995529885324
 30
0.0
 11
4893.525352725743
 21
5382.995529885325
 31
0.0
  0
LINE
  5
2A93
330
1A
100
AcDbEntity
  8
1
100
AcDbLine
 10
4897.525352725743
 20
5376.995529885324
 30
0.0
 11
4897.525352725742
 21
5373.995529885323
 31
0.0
  0
LINE
  5
2A94
330
1A
100
AcDbEntity
  8
1
100
AcDbLine
 10
5009.525352725742
 20
5376.995529885324
 30
0.0
 11
5009.525352725742
 21
5373.995529885323
 31
0.0
  0
LINE
  5
2A95
330
1A
100
AcDbEntity
  8
1
100
AcDbLine
 10
5013.525352725743
 20
5382.995529885325
 30
0.0
 11
5013.525352725743
 21
5376.995529885324
 31
0.0
  0
LINE
  5
2A96
330
1A
100
AcDbEntity
  8
1
  6
HIDDEN
100
AcDbLine
 10
4957.525352725742
 20
5393.704633350943
 30
0.0
 11
4985.625352725743
 21
5393.704633350943
 31
0.0
  0
LINE
  5
2A97
330
1A
100
AcDbEntity
  8
1
 62
     9
100
AcDbLine
 10
4852.025352725743
 20
5107.995529885325
 30
0.0
 11
5055.025352725742
 21
5107.995529885325
 31
0.0
  0
ARC
  5
2A9C
330
1A
100
AcDbEntity
  8
1
100
AcDbCircle
 10
4856.025352725743
 20
5104.995529885325
 30
0.0
 40
5.0
100
AcDbArc
 50
143.130102354156
 51
216.869897645844
  0
ARC
  5
2A9D
330
1A
100
AcDbEntity
  8
1
100
AcDbCircle
 10
5051.025352725747
 20
5104.995529885322
 30
0.0
 40
4.999999999996907
100
AcDbArc
 50
323.1301023541476
 51
36.8698976458836
  0
LINE
  5
2A9E
330
1A
100
AcDbEntity
  8
CENTER
100
AcDbLine
 10
4953.525352725741
 20
5532.023252402986
 30
0.0
 11
4953.525539109714
 21
5858.023252402644
 31
0.0
  0
DIMENSION
  5
2AAB
330
1A
100
AcDbEntity
  8
0
100
AcDbDimension
  2
*D10
 10
10967.91860224378
 20
11550.13494689791
 30
0.0
 11
10866.41860224378
 21
11556.13494689792
 31
0.0
 12
5363.368779466573
 22
5963.71392401969
 32
0.0
 70
    32
 71
     5
 42
-1.0
  3
3
100
AcDbAlignedDimension
 13
10764.91860224378
 23
11496.83873676232
 33
0.0
 14
10967.91860224378
 24
11496.83873676232
 34
0.0
100
AcDbRotatedDimension
  0
CIRCLE
  5
2AAC
330
1A
100
AcDbEntity
  8
1
100
AcDbCircle
 10
4953.525352725743
 20
5695.023252402815
 30
0.0
 40
101.5
  0
LINE
  5
2AAD
330
1A
100
AcDbEntity
  8
CENTER
100
AcDbLine
 10
4832.025352725743
 20
5695.023252402815
 30
0.0
 11
5158.025352725743
 21
5695.023252402815
 31
0.0
  0
LINE
  5
2B2E
330
1A
100
AcDbEntity
  8
1
 62
     9
100
AcDbLine
 10
5100.814250174819
 20
5812.023212143622
 30
0.0
 11
5115.236455276668
 21
5802.023212143623
 31
0.0
  0
LINE
  5
2B2F
330
1A
100
AcDbEntity
  8
1
 62
     9
100
AcDbLine
 10
5115.236455276667
 20
5812.023212143624
 30
0.0
 11
5100.81425017482
 21
5802.023212143622
 31
0.0
  0
LINE
  5
2B30
330
1A
100
AcDbEntity
  8
1
 62
     9
100
AcDbLine
 10
5104.317253482196
 20
5773.023252402815
 30
0.0
 11
5111.73345196929
 21
5767.023252402815
 31
0.0
  0
LINE
  5
2B31
330
1A
100
AcDbEntity
  8
1
 62
     9
100
AcDbLine
 10
5111.73345196929
 20
5773.023252402815
 30
0.0
 11
5104.317253482196
 21
5767.023252402815
 31
0.0
  0
LINE
  5
2B32
330
1A
100
AcDbEntity
  8
1
100
AcDbLine
 10
5094.350558394567
 20
5782.023212143622
 30
0.0
 11
5121.700147056919
 21
5782.023212143623
 31
0.0
  0
LINE
  5
2B33
330
1A
100
AcDbEntity
  8
1
100
AcDbLine
 10
5094.350558394567
 20
5790.023212143622
 30
0.0
 11
5121.700147056919
 21
5790.023212143623
 31
0.0
  0
LINE
  5
2B34
330
1A
100
AcDbEntity
  8
1
100
AcDbLine
 10
5100.81425017482
 20
5802.023212143622
 30
0.0
 11
5115.236455276668
 21
5802.023212143623
 31
0.0
  0
LINE
  5
2B35
330
1A
100
AcDbEntity
  8
1
100
AcDbLine
 10
5094.025352725742
 20
5791.023212143622
 30
0.0
 11
5122.025352725742
 21
5791.023212143623
 31
0.0
  0
LINE
  5
2B36
330
1A
100
AcDbEntity
  8
1
100
AcDbLine
 10
5094.025352725741
 20
5812.023212143622
 30
0.0
 11
5122.025352725741
 21
5812.023212143623
 31
0.0
  0
LINE
  5
2B37
330
1A
100
AcDbEntity
  8
1
100
AcDbLine
 10
5094.025352725742
 20
5781.023212143622
 30
0.0
 11
5122.025352725742
 21
5781.023212143622
 31
0.0
  0
LINE
  5
2B38
330
1A
100
AcDbEntity
  8
1
100
AcDbLine
 10
5094.025352725742
 20
5776.023212143622
 30
0.0
 11
5122.025352725742
 21
5776.023212143623
 31
0.0
  0
LINE
  5
2B39
330
1A
100
AcDbEntity
  8
1
100
AcDbLine
 10
5094.025352725743
 20
5767.023252402815
 30
0.0
 11
5122.025352725742
 21
5767.023252402815
 31
0.0
  0
LINE
  5
2B3A
330
1A
100
AcDbEntity
  8
1
100
AcDbLine
 10
5094.025352725743
 20
5773.023252402815
 30
0.0
 11
5122.025352725742
 21
5773.023252402815
 31
0.0
  0
LINE
  5
2B3B
330
1A
100
AcDbEntity
  8
1
100
AcDbLine
 10
5094.025352725743
 20
5766.023252402814
 30
0.0
 11
5122.025352725742
 21
5766.023252402815
 31
0.0
  0
LINE
  5
2B3C
330
1A
100
AcDbEntity
  8
1
100
AcDbLine
 10
5130.025352725743
 20
5656.023252402814
 30
0.0
 11
5087.025352725743
 21
5656.023252402814
 31
0.0
  0
LINE
  5
2B3D
330
1A
100
AcDbEntity
  8
1
100
AcDbLine
 10
5087.025352725743
 20
5734.023252402814
 30
0.0
 11
5130.025352725743
 21
5734.023252402814
 31
0.0
  0
LINE
  5
2B3E
330
1A
100
AcDbEntity
  8
1
100
AcDbLine
 10
5097.303664889257
 20
5784.773212143623
 30
0.0
 11
5098.747040562232
 21
5784.773212143623
 31
0.0
  0
LINE
  5
2B3F
330
1A
100
AcDbEntity
  8
1
100
AcDbLine
 10
5097.303664889256
 20
5787.273212143623
 30
0.0
 11
5098.747040562233
 21
5787.273212143623
 31
0.0
  0
LINE
  5
2B40
330
1A
100
AcDbEntity
  8
1
100
AcDbLine
 10
5098.747040562232
 20
5784.773212143623
 30
0.0
 11
5099.468728398719
 21
5786.023212143621
 31
0.0
  0
LINE
  5
2B41
330
1A
100
AcDbEntity
  8
1
100
AcDbLine
 10
5096.581977052768
 20
5786.023212143623
 30
0.0
 11
5097.303664889256
 21
5787.273212143623
 31
0.0
  0
LINE
  5
2B42
330
1A
100
AcDbEntity
  8
1
100
AcDbLine
 10
5099.468728398718
 20
5786.023212143623
 30
0.0
 11
5098.747040562232
 21
5787.273212143623
 31
0.0
  0
LINE
  5
2B43
330
1A
100
AcDbEntity
  8
1
100
AcDbLine
 10
5097.303664889257
 20
5784.773212143623
 30
0.0
 11
5096.581977052771
 21
5786.023212143623
 31
0.0
  0
CIRCLE
  5
2B44
330
1A
100
AcDbEntity
  8
1
100
AcDbCircle
 10
5098.025352725743
 20
5786.023212143623
 30
0.0
 40
2.75
  0
LINE
  5
2B45
330
1A
100
AcDbEntity
  8
1
100
AcDbLine
 10
5101.025352725742
 20
5790.023212143623
 30
0.0
 11
5101.025352725742
 21
5782.023212143623
 31
0.0
  0
LINE
  5
2B46
330
1A
100
AcDbEntity
  8
1
100
AcDbLine
 10
5094.350558394567
 20
5790.023212143622
 30
0.0
 11
5094.350558394567
 21
5782.023212143622
 31
0.0
  0
LINE
  5
2B47
330
1A
100
AcDbEntity
  8
1
100
AcDbLine
 10
5100.814250174819
 20
5802.023212143623
 30
0.0
 11
5100.814250174819
 21
5812.023212143622
 31
0.0
  0
LINE
  5
2B48
330
1A
100
AcDbEntity
  8
1
 62
     8
100
AcDbLine
 10
5097.725352725742
 20
5776.023212143622
 30
0.0
 11
5097.725352725742
 21
5773.023252402815
 31
0.0
  0
LINE
  5
2B49
330
1A
100
AcDbEntity
  8
1
100
AcDbLine
 10
5097.025352725742
 20
5776.023212143622
 30
0.0
 11
5097.025352725743
 21
5773.023252402815
 31
0.0
  0
LINE
  5
2B4A
330
1A
100
AcDbEntity
  8
1
100
AcDbLine
 10
5094.025352725741
 20
5812.023212143622
 30
0.0
 11
5094.025352725742
 21
5776.023212143622
 31
0.0
  0
LINE
  5
2B4B
330
1A
100
AcDbEntity
  8
1
100
AcDbLine
 10
5104.317253482196
 20
5773.023252402815
 30
0.0
 11
5104.317253482196
 21
5767.023252402815
 31
0.0
  0
LINE
  5
2B4C
330
1A
100
AcDbEntity
  8
1
100
AcDbLine
 10
5094.525352725742
 20
5766.523252402814
 30
0.0
 11
5095.025352725743
 21
5767.023252402815
 31
0.0
  0
LINE
  5
2B4D
330
1A
100
AcDbEntity
  8
1
100
AcDbLine
 10
5094.025352725743
 20
5773.023252402815
 30
0.0
 11
5094.025352725743
 21
5767.023252402815
 31
0.0
  0
LINE
  5
2B4E
330
1A
100
AcDbEntity
  8
1
100
AcDbLine
 10
5095.025352725743
 20
5767.023252402815
 30
0.0
 11
5094.025352725743
 21
5766.023252402814
 31
0.0
  0
LINE
  5
2B4F
330
1A
100
AcDbEntity
  8
1
100
AcDbLine
 10
5094.025352725743
 20
5734.023252402813
 30
0.0
 11
5094.025352725743
 21
5766.023252402814
 31
0.0
  0
LINE
  5
2B50
330
1A
100
AcDbEntity
  8
1
100
AcDbLine
 10
5077.025352725743
 20
5734.023252402814
 30
0.0
 11
5077.025352725743
 21
5656.023252402814
 31
0.0
  0
LINE
  5
2B51
330
1A
100
AcDbEntity
  8
1
100
AcDbLine
 10
5087.025352725743
 20
5656.023252402814
 30
0.0
 11
5087.025352725743
 21
5734.023252402814
 31
0.0
  0
LINE
  5
2B52
330
1A
100
AcDbEntity
  8
1
100
AcDbLine
 10
5087.025352725743
 20
5656.023252402814
 30
0.0
 11
5077.025352725744
 21
5656.023252402814
 31
0.0
  0
LINE
  5
2B53
330
1A
100
AcDbEntity
  8
1
100
AcDbLine
 10
5077.025352725744
 20
5734.023252402814
 30
0.0
 11
5087.025352725743
 21
5734.023252402814
 31
0.0
  0
LINE
  5
2B54
330
1A
100
AcDbEntity
  8
1
100
AcDbLine
 10
5051.638807460555
 20
5721.023252402815
 30
0.0
 11
5077.025352725743
 21
5721.023252402814
 31
0.0
  0
LINE
  5
2B55
330
1A
100
AcDbEntity
  8
1
100
AcDbLine
 10
5051.638807460555
 20
5669.023252402815
 30
0.0
 11
5077.025352725743
 21
5669.023252402815
 31
0.0
  0
LINE
  5
2B57
330
1A
100
AcDbEntity
  8
1
100
AcDbLine
 10
5116.581977052769
 20
5786.023212143623
 30
0.0
 11
5117.303664889256
 21
5787.273212143623
 31
0.0
  0
LINE
  5
2B58
330
1A
100
AcDbEntity
  8
1
100
AcDbLine
 10
5117.303664889258
 20
5784.773212143623
 30
0.0
 11
5116.581977052772
 21
5786.023212143623
 31
0.0
  0
LINE
  5
2B59
330
1A
100
AcDbEntity
  8
1
100
AcDbLine
 10
5119.468728398718
 20
5786.023212143623
 30
0.0
 11
5118.747040562232
 21
5787.273212143623
 31
0.0
  0
LINE
  5
2B5A
330
1A
100
AcDbEntity
  8
1
100
AcDbLine
 10
5118.747040562232
 20
5784.773212143623
 30
0.0
 11
5119.468728398718
 21
5786.023212143621
 31
0.0
  0
LINE
  5
2B5B
330
1A
100
AcDbEntity
  8
1
100
AcDbLine
 10
5117.303664889256
 20
5787.273212143623
 30
0.0
 11
5118.747040562233
 21
5787.273212143623
 31
0.0
  0
LINE
  5
2B5C
330
1A
100
AcDbEntity
  8
1
100
AcDbLine
 10
5117.303664889258
 20
5784.773212143623
 30
0.0
 11
5118.747040562232
 21
5784.773212143623
 31
0.0
  0
CIRCLE
  5
2B5D
330
1A
100
AcDbEntity
  8
1
100
AcDbCircle
 10
5118.025352725743
 20
5786.023212143624
 30
0.0
 40
2.75
  0
LINE
  5
2B5E
330
1A
100
AcDbEntity
  8
1
100
AcDbLine
 10
5115.025352725742
 20
5790.023212143623
 30
0.0
 11
5115.025352725742
 21
5782.023212143623
 31
0.0
  0
LINE
  5
2B5F
330
1A
100
AcDbEntity
  8
1
100
AcDbLine
 10
5121.700147056919
 20
5790.023212143622
 30
0.0
 11
5121.700147056919
 21
5782.023212143622
 31
0.0
  0
LINE
  5
2B60
330
1A
100
AcDbEntity
  8
1
100
AcDbLine
 10
5115.236455276668
 20
5802.023212143623
 30
0.0
 11
5115.236455276667
 21
5812.023212143624
 31
0.0
  0
LINE
  5
2B61
330
1A
100
AcDbEntity
  8
1
 62
     8
100
AcDbLine
 10
5118.325352725742
 20
5776.023212143622
 30
0.0
 11
5118.325352725742
 21
5773.023252402816
 31
0.0
  0
LINE
  5
2B62
330
1A
100
AcDbEntity
  8
1
100
AcDbLine
 10
5119.025352725742
 20
5776.023212143622
 30
0.0
 11
5119.025352725742
 21
5773.023252402816
 31
0.0
  0
LINE
  5
2B63
330
1A
100
AcDbEntity
  8
1
100
AcDbLine
 10
5122.025352725741
 20
5812.023212143623
 30
0.0
 11
5122.025352725742
 21
5776.023212143623
 31
0.0
  0
LINE
  5
2B64
330
1A
100
AcDbEntity
  8
1
100
AcDbLine
 10
5111.73345196929
 20
5773.023252402815
 30
0.0
 11
5111.73345196929
 21
5767.023252402815
 31
0.0
  0
LINE
  5
2B65
330
1A
100
AcDbEntity
  8
1
100
AcDbLine
 10
5122.025352725742
 20
5773.023252402815
 30
0.0
 11
5122.025352725742
 21
5767.023252402815
 31
0.0
  0
LINE
  5
2B66
330
1A
100
AcDbEntity
  8
1
100
AcDbLine
 10
5121.025352725743
 20
5767.023252402815
 30
0.0
 11
5122.025352725742
 21
5766.023252402815
 31
0.0
  0
LINE
  5
2B67
330
1A
100
AcDbEntity
  8
CENTER
100
AcDbLine
 10
5108.025352725744
 20
5729.023252402814
 30
0.0
 11
5108.025352725742
 21
5817.023212143622
 31
0.0
  0
LINE
  5
2B68
330
1A
100
AcDbEntity
  8
1
100
AcDbLine
 10
5122.025352725742
 20
5766.023252402814
 30
0.0
 11
5122.025352725742
 21
5734.023252402813
 31
0.0
  0
LINE
  5
2B69
330
1A
100
AcDbEntity
  8
1
100
AcDbLine
 10
5138.025352725743
 20
5734.023252402814
 30
0.0
 11
5138.025352725743
 21
5656.023252402814
 31
0.0
  0
LINE
  5
2B6A
330
1A
100
AcDbEntity
  8
1
100
AcDbLine
 10
5130.025352725743
 20
5734.023252402814
 30
0.0
 11
5130.025352725743
 21
5656.023252402814
 31
0.0
  0
LINE
  5
2B6B
330
1A
100
AcDbEntity
  8
1
100
AcDbLine
 10
5138.025352725743
 20
5656.023252402814
 30
0.0
 11
5130.025352725743
 21
5656.023252402814
 31
0.0
  0
LINE
  5
2B6C
330
1A
100
AcDbEntity
  8
1
100
AcDbLine
 10
5130.025352725743
 20
5734.023252402814
 30
0.0
 11
5138.025352725743
 21
5734.023252402814
 31
0.0
  0
LINE
  5
2B6E
330
1A
100
AcDbEntity
  8
1
100
AcDbLine
 10
5138.825352725743
 20
5665.023252402814
 30
0.0
 11
5138.825352725743
 21
5725.023252402814
 31
0.0
  0
LINE
  5
2B6F
330
1A
100
AcDbEntity
  8
1
100
AcDbLine
 10
5141.625352725743
 20
5672.827815920185
 30
0.0
 11
5141.625352725743
 21
5678.327815920185
 31
0.0
  0
LINE
  5
2B70
330
1A
100
AcDbEntity
  8
1
100
AcDbLine
 10
5138.825352725744
 20
5672.827815920185
 30
0.0
 11
5141.625352725743
 21
5672.827815920185
 31
0.0
  0
LINE
  5
2B71
330
1A
100
AcDbEntity
  8
1
100
AcDbLine
 10
5138.825352725744
 20
5678.327815920185
 30
0.0
 11
5141.625352725743
 21
5678.327815920185
 31
0.0
  0
LINE
  5
2B72
330
1A
100
AcDbEntity
  8
1
100
AcDbLine
 10
5141.625352725743
 20
5672.827815920185
 30
0.0
 11
5141.825352725743
 21
5673.174226081699
 31
0.0
  0
LINE
  5
2B73
330
1A
100
AcDbEntity
  8
1
100
AcDbLine
 10
5141.625352725743
 20
5678.327815920185
 30
0.0
 11
5141.825352725743
 21
5677.98140575867
 31
0.0
  0
LINE
  5
2B74
330
1A
100
AcDbEntity
  8
1
100
AcDbLine
 10
5141.825352725743
 20
5673.1742260817
 30
0.0
 11
5141.825352725744
 21
5677.98140575867
 31
0.0
  0
LINE
  5
2B75
330
1A
100
AcDbEntity
  8
1
100
AcDbLine
 10
5138.825352725743
 20
5725.023252402814
 30
0.0
 11
5138.025352725743
 21
5725.023252402814
 31
0.0
  0
LINE
  5
2B76
330
1A
100
AcDbEntity
  8
1
100
AcDbLine
 10
5141.825352725743
 20
5716.872278723929
 30
0.0
 11
5141.825352725744
 21
5712.065099046959
 31
0.0
  0
LINE
  5
2B77
330
1A
100
AcDbEntity
  8
1
100
AcDbLine
 10
5141.625352725743
 20
5711.718688885444
 30
0.0
 11
5141.825352725743
 21
5712.065099046959
 31
0.0
  0
LINE
  5
2B78
330
1A
100
AcDbEntity
  8
1
100
AcDbLine
 10
5141.625352725743
 20
5717.218688885444
 30
0.0
 11
5141.825352725743
 21
5716.872278723929
 31
0.0
  0
LINE
  5
2B79
330
1A
100
AcDbEntity
  8
1
100
AcDbLine
 10
5138.825352725744
 20
5711.718688885444
 30
0.0
 11
5141.625352725743
 21
5711.718688885444
 31
0.0
  0
LINE
  5
2B7A
330
1A
100
AcDbEntity
  8
1
100
AcDbLine
 10
5138.825352725744
 20
5717.218688885444
 30
0.0
 11
5141.625352725743
 21
5717.218688885444
 31
0.0
  0
LINE
  5
2B7B
330
1A
100
AcDbEntity
  8
1
100
AcDbLine
 10
5141.625352725743
 20
5717.218688885444
 30
0.0
 11
5141.625352725743
 21
5711.718688885444
 31
0.0
  0
LINE
  5
2B7C
330
1A
100
AcDbEntity
  8
1
100
AcDbLine
 10
5138.825352725743
 20
5665.023252402814
 30
0.0
 11
5138.025352725743
 21
5665.023252402814
 31
0.0
  0
CIRCLE
  5
2BC2
330
1A
100
AcDbEntity
  8
1
100
AcDbCircle
 10
4953.525352725743
 20
5695.023252402815
 30
0.0
 40
98.0
  0
CIRCLE
  5
2BC4
330
1A
100
AcDbEntity
  8
1
100
AcDbCircle
 10
4953.525352725743
 20
5695.023252402815
 30
0.0
 40
60.0
  0
ARC
  5
2BC8
330
1A
100
AcDbEntity
  8
1
 62
     9
100
AcDbCircle
 10
4953.525352725743
 20
5695.023252402815
 30
0.0
 40
47.17876830866589
100
AcDbArc
 50
94.86359842527612
 51
175.1364015747205
  0
CIRCLE
  5
2BC9
330
1A
100
AcDbEntity
  8
1
100
AcDbCircle
 10
4953.525352725743
 20
5695.023252402815
 30
0.0
 40
49.64734603858506
  0
ARC
  5
2BCB
330
1A
100
AcDbEntity
  8
1
100
AcDbCircle
 10
4953.525352725743
 20
5695.023252402815
 30
0.0
 40
34.0
100
AcDbArc
 50
6.756327030581673
 51
173.2436729694122
  0
CIRCLE
  5
2BCC
330
1A
100
AcDbEntity
  8
1
100
AcDbCircle
 10
4953.525352725743
 20
5695.023252402815
 30
0.0
 40
32.0
  0
CIRCLE
  5
2BCD
330
1A
100
AcDbEntity
  8
1
100
AcDbCircle
 10
4953.525352725743
 20
5695.023252402815
 30
0.0
 40
30.376
  0
LINE
  5
2BD6
330
1A
100
AcDbEntity
  8
1
100
AcDbLine
 10
4957.525352725743
 20
5726.772268135589
 30
0.0
 11
4957.525352725743
 21
5744.509199586586
 31
0.0
  0
LINE
  5
2BD7
330
1A
100
AcDbEntity
  8
1
100
AcDbLine
 10
4949.525352725745
 20
5726.77226813559
 30
0.0
 11
4949.525352725745
 21
5744.509199586586
 31
0.0
  0
LINE
  5
2BD8
330
1A
100
AcDbEntity
  8
1
100
AcDbLine
 10
4921.776336992966
 20
5691.023252402818
 30
0.0
 11
4904.03940554197
 21
5691.023252402818
 31
0.0
  0
LINE
  5
2BD9
330
1A
100
AcDbEntity
  8
1
100
AcDbLine
 10
4921.776336992967
 20
5699.023252402814
 30
0.0
 11
4904.03940554197
 21
5699.023252402814
 31
0.0
  0
LINE
  5
2BDA
330
1A
100
AcDbEntity
  8
1
100
AcDbLine
 10
4957.52535272574
 20
5663.27423667004
 30
0.0
 11
4957.52535272574
 21
5645.537305219043
 31
0.0
  0
LINE
  5
2BDB
330
1A
100
AcDbEntity
  8
1
100
AcDbLine
 10
4949.525352725743
 20
5663.274236670041
 30
0.0
 11
4949.525352725743
 21
5645.537305219043
 31
0.0
  0
LINE
  5
2BDC
330
1A
100
AcDbEntity
  8
1
100
AcDbLine
 10
4985.274368458519
 20
5699.023252402811
 30
0.0
 11
5003.011299909514
 21
5699.023252402811
 31
0.0
  0
LINE
  5
2BDD
330
1A
100
AcDbEntity
  8
1
100
AcDbLine
 10
4985.274368458518
 20
5691.023252402814
 30
0.0
 11
5003.011299909514
 21
5691.023252402814
 31
0.0
  0
ARC
  5
2BE3
330
1A
100
AcDbEntity
  8
1
 62
     9
100
AcDbCircle
 10
4953.525352725743
 20
5695.023252402815
 30
0.0
 40
47.17876830866589
100
AcDbArc
 50
4.863598425275024
 51
85.13640157472057
  0
ARC
  5
2BE4
330
1A
100
AcDbEntity
  8
1
100
AcDbCircle
 10
4953.525352725743
 20
5695.023252402815
 30
0.0
 40
34.0
100
AcDbArc
 50
276.7563270305832
 51
353.2436729694122
  0
ARC
  5
2BE5
330
1A
100
AcDbEntity
  8
1
 62
     9
100
AcDbCircle
 10
4953.525352725743
 20
5695.023252402815
 30
0.0
 40
47.17876830866589
100
AcDbArc
 50
274.8635984252761
 51
355.1364015747206
  0
ARC
  5
2BE6
330
1A
100
AcDbEntity
  8
1
 62
     9
100
AcDbCircle
 10
4953.525352725743
 20
5695.023252402815
 30
0.0
 40
47.17876830866589
100
AcDbArc
 50
184.8635984252761
 51
265.1364015747206
  0
ARC
  5
2BE7
330
1A
100
AcDbEntity
  8
1
100
AcDbCircle
 10
4953.525352725743
 20
5695.023252402815
 30
0.0
 40
34.0
100
AcDbArc
 50
186.7563270305831
 51
263.2436729694122
  0
ARC
  5
2BFC
330
1A
100
AcDbEntity
  8
1
100
AcDbCircle
 10
4953.525352722696
 20
5324.995355352399
 30
0.0
 40
10.0
100
AcDbArc
 50
293.58
 51
66.42000000000004
  0
ARC
  5
2BFD
330
1A
100
AcDbEntity
  8
1
100
AcDbCircle
 10
4953.525352722696
 20
5308.495355352399
 30
0.0
 40
4.0
100
AcDbArc
 50
180.0
 51
0.0
  0
LINE
  5
2BFE
330
1A
100
AcDbEntity
  8
1
100
AcDbLine
 10
4957.525352722696
 20
5308.4953553524
 30
0.0
 11
4957.525352722696
 21
5341.4953553524
 31
0.0
  0
LINE
  5
2BFF
330
1A
100
AcDbEntity
  8
1
100
AcDbLine
 10
4949.525352722696
 20
5308.4953553524
 30
0.0
 11
4949.525352722696
 21
5341.4953553524
 31
0.0
  0
ARC
  5
2C00
330
1A
100
AcDbEntity
  8
1
100
AcDbCircle
 10
4953.525352722696
 20
5324.995355352399
 30
0.0
 40
10.0
100
AcDbArc
 50
113.578
 51
246.418
  0
ARC
  5
2C01
330
1A
100
AcDbEntity
  8
1
100
AcDbCircle
 10
4953.525352722696
 20
5341.4953553524
 30
0.0
 40
4.0
100
AcDbArc
 50
0.0
 51
180.0
  0
LINE
  5
2C02
330
1A
100
AcDbEntity
  8
CENTER
100
AcDbLine
 10
4938.525352728789
 20
5324.99563028355
 30
0.0
 11
4968.525352722696
 21
5324.995398858042
 31
0.0
  0
LINE
  5
2C3D
330
1A
100
AcDbEntity
  8
1
100
AcDbLine
 10
4949.525539109712
 20
5834.023252402643
 30
0.0
 11
4949.525539109712
 21
5797.023252402643
 31
0.0
  0
LINE
  5
2C3E
330
1A
100
AcDbEntity
  8
1
100
AcDbLine
 10
4957.525539109713
 20
5834.023252402643
 30
0.0
 11
4957.525539109713
 21
5797.023252402643
 31
0.0
  0
ARC
  5
2C47
330
1A
100
AcDbEntity
  8
1
100
AcDbCircle
 10
4944.725539109712
 20
5802.124852402644
 30
0.0
 40
1.199999999999999
100
AcDbArc
 50
100.79
 51
180.002
  0
LINE
  5
2C48
330
1A
100
AcDbEntity
  8
1
100
AcDbLine
 10
4943.525539109713
 20
5798.523252402637
 30
0.0
 11
4943.525539109713
 21
5802.124852402644
 31
0.0
  0
LINE
  5
2C4C
330
1A
100
AcDbEntity
  8
1
100
AcDbLine
 10
4949.525539109712
 20
5804.261052402644
 30
0.0
 11
4944.500539109713
 21
5803.303652402644
 31
0.0
  0
ARC
  5
2C4D
330
1A
100
AcDbEntity
  8
1
100
AcDbCircle
 10
4962.325539109713
 20
5802.124852402644
 30
0.0
 40
1.199999999999999
100
AcDbArc
 50
0.0
 51
79.212
  0
LINE
  5
2C51
330
1A
100
AcDbEntity
  8
1
100
AcDbLine
 10
4963.525539109713
 20
5798.523234394522
 30
0.0
 11
4963.525539109713
 21
5802.124852402644
 31
0.0
  0
LINE
  5
2C52
330
1A
100
AcDbEntity
  8
1
100
AcDbLine
 10
4957.525539109713
 20
5804.261052402644
 30
0.0
 11
4962.550539109712
 21
5803.303652402644
 31
0.0
  0
ARC
  5
2C53
330
1A
100
AcDbEntity
  8
1
100
AcDbCircle
 10
4953.525539109712
 20
5834.023252402643
 30
0.0
 40
4.0
100
AcDbArc
 50
0.0
 51
180.0
  0
ARC
  5
2C6D
330
1A
100
AcDbEntity
  8
1
100
AcDbCircle
 10
4966.67101541659
 20
5798.845990556082
 30
0.0
 40
3.161990055773315
100
AcDbArc
 50
185.8582703708911
 51
258.221068364885
  0
ARC
  5
2C72
330
1A
100
AcDbEntity
  8
1
100
AcDbCircle
 10
4940.380191376398
 20
5798.845926269301
 30
0.0
 40
3.161855592479135
100
AcDbArc
 50
281.7770597491426
 51
354.1426506761165
  0
LINE
  5
2C74
330
1A
100
AcDbEntity
  8
1
100
AcDbLine
 10
4963.525539109713
 20
5591.523270411107
 30
0.0
 11
4963.525539109713
 21
5587.921652402984
 31
0.0
  0
LINE
  5
2C75
330
1A
100
AcDbEntity
  8
1
100
AcDbLine
 10
4943.525539109713
 20
5591.523252402992
 30
0.0
 11
4943.525539109713
 21
5587.921652402984
 31
0.0
  0
ARC
  5
2C76
330
1A
100
AcDbEntity
  8
1
100
AcDbCircle
 10
4940.380191376398
 20
5591.200578536328
 30
0.0
 40
3.161855592479135
100
AcDbArc
 50
5.857349323883497
 51
78.22294025085748
  0
ARC
  5
2C77
330
1A
100
AcDbEntity
  8
1
100
AcDbCircle
 10
4966.67101541659
 20
5591.200514249546
 30
0.0
 40
3.161990055773315
100
AcDbArc
 50
101.7789316351149
 51
174.1417296291088
  0
ARC
  5
2C78
330
1A
100
AcDbEntity
  8
1
100
AcDbCircle
 10
4953.525539109712
 20
5556.023252402986
 30
0.0
 40
4.0
100
AcDbArc
 50
180.0
 51
0.0
  0
LINE
  5
2C79
330
1A
100
AcDbEntity
  8
1
100
AcDbLine
 10
4957.525539109713
 20
5585.785452402984
 30
0.0
 11
4962.550539109712
 21
5586.742852402984
 31
0.0
  0
ARC
  5
2C7A
330
1A
100
AcDbEntity
  8
1
100
AcDbCircle
 10
4962.325539109713
 20
5587.921652402984
 30
0.0
 40
1.199999999999999
100
AcDbArc
 50
280.788
 51
0.0
  0
LINE
  5
2C7B
330
1A
100
AcDbEntity
  8
1
100
AcDbLine
 10
4949.525539109712
 20
5585.785452402984
 30
0.0
 11
4944.500539109713
 21
5586.742852402984
 31
0.0
  0
ARC
  5
2C7C
330
1A
100
AcDbEntity
  8
1
100
AcDbCircle
 10
4944.725539109712
 20
5587.921652402984
 30
0.0
 40
1.199999999999999
100
AcDbArc
 50
179.998
 51
259.21
  0
LINE
  5
2C7D
330
1A
100
AcDbEntity
  8
1
100
AcDbLine
 10
4957.525539109713
 20
5556.023252402986
 30
0.0
 11
4957.525539109713
 21
5593.023252402986
 31
0.0
  0
LINE
  5
2C7E
330
1A
100
AcDbEntity
  8
1
100
AcDbLine
 10
4949.525539109712
 20
5556.023252402986
 30
0.0
 11
4949.525539109712
 21
5593.023252402986
 31
0.0
  0
LINE
  5
2D09
330
1A
100
AcDbEntity
  8
1
100
AcDbLine
 10
5055.025352725742
 20
5166.99539885805
 30
0.0
 11
5055.025352725742
 21
5107.995529885323
 31
0.0
  0
LINE
  5
2D5C
330
1A
100
AcDbEntity
  8
1
100
AcDbLine
 10
5138.025352725744
 20
5231.995529885324
 30
0.0
 11
5138.025352725744
 21
5153.995529885325
 31
0.0
  0
LINE
  5
2D5D
330
1A
100
AcDbEntity
  8
1
100
AcDbLine
 10
5130.025352725744
 20
5231.995529885324
 30
0.0
 11
5130.025352725744
 21
5153.995529885325
 31
0.0
  0
LINE
  5
2D5E
330
1A
100
AcDbEntity
  8
1
100
AcDbLine
 10
5077.025352725744
 20
5231.995529885324
 30
0.0
 11
5077.025352725744
 21
5153.995529885325
 31
0.0
  0
LINE
  5
2D5F
330
1A
100
AcDbEntity
  8
1
100
AcDbLine
 10
5087.025352725744
 20
5153.995529885325
 30
0.0
 11
5087.025352725744
 21
5231.995529885324
 31
0.0
  0
LINE
  5
2D60
330
1A
100
AcDbEntity
  8
1
100
AcDbLine
 10
5138.025352725744
 20
5153.995529885325
 30
0.0
 11
5130.025352725744
 21
5153.995529885325
 31
0.0
  0
LINE
  5
2D61
330
1A
100
AcDbEntity
  8
CENTER
100
AcDbLine
 10
5044.360641059665
 20
5192.995529885325
 30
0.0
 11
5148.025352725745
 21
5192.995529885325
 31
0.0
  0
LINE
  5
2D62
330
1A
100
AcDbEntity
  8
1
100
AcDbLine
 10
5055.025352725744
 20
5218.995529885325
 30
0.0
 11
5077.025352725744
 21
5218.995529885325
 31
0.0
  0
LINE
  5
2D63
330
1A
100
AcDbEntity
  8
1
100
AcDbLine
 10
5055.025352725745
 20
5166.995529885323
 30
0.0
 11
5077.025352725744
 21
5166.995529885324
 31
0.0
  0
ARC
  5
2D64
330
1A
100
AcDbEntity
  8
1
100
AcDbCircle
 10
5153.138807460517
 20
5192.995529885325
 30
0.0
 40
101.4999999999618
100
AcDbArc
 50
165.1578086851432
 51
194.8421913148626
  0
LINE
  5
2D65
330
1A
100
AcDbEntity
  8
CENTER
100
AcDbLine
 10
5108.025352725745
 20
5173.995529885324
 30
0.0
 11
5108.025352725745
 21
5211.995529885324
 31
0.0
  0
LINE
  5
2D66
330
1A
100
AcDbEntity
  8
CENTER
100
AcDbLine
 10
5108.025352725745
 20
5196.495529885325
 30
0.0
 11
5108.025352725745
 21
5211.995529885324
 31
0.0
  0
LINE
  5
2D67
330
1A
100
AcDbEntity
  8
1
100
AcDbLine
 10
5055.025352725745
 20
5146.940016258193
 30
0.0
 11
5055.025352725744
 21
5166.995529885323
 31
0.0
  0
LINE
  5
2D68
330
1A
100
AcDbEntity
  8
1
100
AcDbLine
 10
5087.025352725744
 20
5153.995529885325
 30
0.0
 11
5077.025352725744
 21
5153.995529885325
 31
0.0
  0
CIRCLE
  5
2D69
330
1A
100
AcDbEntity
  8
1
  6
HIDDEN
 62
     9
100
AcDbCircle
 10
5108.025352725745
 20
5192.995529885325
 30
0.0
 40
14.0
  0
CIRCLE
  5
2D6A
330
1A
100
AcDbEntity
  8
1
  6
HIDDEN
 62
     9
100
AcDbCircle
 10
5108.025352725745
 20
5192.995529885325
 30
0.0
 40
14.0
  0
LINE
  5
2D6B
330
1A
100
AcDbEntity
  8
1
100
AcDbLine
 10
5130.025352725744
 20
5153.995529885325
 30
0.0
 11
5087.025352725744
 21
5153.995529885325
 31
0.0
  0
LINE
  5
2D6C
330
1A
100
AcDbEntity
  8
1
100
AcDbLine
 10
5138.825352725744
 20
5162.995529885325
 30
0.0
 11
5138.825352725744
 21
5222.995529885325
 31
0.0
  0
LINE
  5
2D6D
330
1A
100
AcDbEntity
  8
1
100
AcDbLine
 10
5138.825352725744
 20
5162.995529885325
 30
0.0
 11
5138.025352725744
 21
5162.995529885325
 31
0.0
  0
LINE
  5
2D6E
330
1A
100
AcDbEntity
  8
1
100
AcDbLine
 10
5141.625352725744
 20
5170.800093402695
 30
0.0
 11
5141.625352725744
 21
5176.300093402694
 31
0.0
  0
LINE
  5
2D6F
330
1A
100
AcDbEntity
  8
1
100
AcDbLine
 10
5138.825352725745
 20
5170.800093402695
 30
0.0
 11
5141.625352725744
 21
5170.800093402695
 31
0.0
  0
LINE
  5
2D70
330
1A
100
AcDbEntity
  8
1
100
AcDbLine
 10
5138.825352725745
 20
5176.300093402696
 30
0.0
 11
5141.625352725744
 21
5176.300093402696
 31
0.0
  0
LINE
  5
2D71
330
1A
100
AcDbEntity
  8
1
100
AcDbLine
 10
5141.625352725744
 20
5170.800093402695
 30
0.0
 11
5141.825352725744
 21
5171.14650356421
 31
0.0
  0
LINE
  5
2D72
330
1A
100
AcDbEntity
  8
1
100
AcDbLine
 10
5141.625352725744
 20
5176.300093402694
 30
0.0
 11
5141.825352725744
 21
5175.95368324118
 31
0.0
  0
LINE
  5
2D73
330
1A
100
AcDbEntity
  8
1
100
AcDbLine
 10
5141.825352725744
 20
5171.146503564211
 30
0.0
 11
5141.825352725745
 21
5175.95368324118
 31
0.0
  0
LINE
  5
2D74
330
1A
100
AcDbEntity
  8
1
100
AcDbLine
 10
5138.825352725744
 20
5222.995529885325
 30
0.0
 11
5138.025352725744
 21
5222.995529885325
 31
0.0
  0
LINE
  5
2D75
330
1A
100
AcDbEntity
  8
1
100
AcDbLine
 10
5141.825352725744
 20
5214.844556206439
 30
0.0
 11
5141.825352725745
 21
5210.037376529469
 31
0.0
  0
LINE
  5
2D76
330
1A
100
AcDbEntity
  8
1
100
AcDbLine
 10
5141.625352725744
 20
5209.690966367954
 30
0.0
 11
5141.825352725744
 21
5210.037376529469
 31
0.0
  0
LINE
  5
2D77
330
1A
100
AcDbEntity
  8
1
100
AcDbLine
 10
5141.625352725744
 20
5215.190966367955
 30
0.0
 11
5141.825352725744
 21
5214.84455620644
 31
0.0
  0
LINE
  5
2D78
330
1A
100
AcDbEntity
  8
1
100
AcDbLine
 10
5138.825352725745
 20
5209.690966367953
 30
0.0
 11
5141.625352725744
 21
5209.690966367953
 31
0.0
  0
LINE
  5
2D79
330
1A
100
AcDbEntity
  8
1
100
AcDbLine
 10
5138.825352725745
 20
5215.190966367955
 30
0.0
 11
5141.625352725744
 21
5215.190966367955
 31
0.0
  0
LINE
  5
2D7A
330
1A
100
AcDbEntity
  8
1
100
AcDbLine
 10
5141.625352725744
 20
5215.190966367955
 30
0.0
 11
5141.625352725744
 21
5209.690966367954
 31
0.0
  0
LINE
  5
2D7B
330
1A
100
AcDbEntity
  8
1
100
AcDbLine
 10
5130.025352725744
 20
5231.995529885324
 30
0.0
 11
5138.025352725744
 21
5231.995529885324
 31
0.0
  0
LINE
  5
2D7C
330
1A
100
AcDbEntity
  8
1
100
AcDbLine
 10
5077.025352725744
 20
5231.995529885324
 30
0.0
 11
5087.025352725744
 21
5231.995529885324
 31
0.0
  0
LINE
  5
2D7D
330
1A
100
AcDbEntity
  8
1
100
AcDbLine
 10
5087.025352725744
 20
5231.995529885324
 30
0.0
 11
5130.025352725744
 21
5231.995529885324
 31
0.0
  0
VIEWPORT
  5
22
102
{ACAD_XDICTIONARY
360
30F7
102
}
330
17
100
AcDbEntity
 67
     1
  8
0
100
AcDbViewport
 10
308.0971172413983
 20
159.1711163235472
 30
0.0
 40
561.5231033423684
 41
349.8012774919672
 68
     1
 69
     1
 12
308.0971172413983
 22
159.1711163235472
 13
0.0
 23
0.0
 14
1.0
 24
1.0
 15
10.0
 25
10.0
 16
0.0
 26
0.0
 36
1.0
 17
0.0
 27
0.0
 37
0.0
 42
50.0
 43
0.0
 44
0.0
 45
349.8012774919672
 50
0.0
 51
0.0
 72
   100
 90
    32768
  1

281
     0
 71
     1
 74
     0
110
0.0
120
0.0
130
0.0
111
1.0
121
0.0
131
0.0
112
0.0
122
1.0
132
0.0
 79
     0
146
0.0
  0
VIEWPORT
  5
2CF
102
{ACAD_XDICTIONARY
360
30F9
102
}
330
17
100
AcDbEntity
 67
     1
  8
DEFPOINTS
100
AcDbViewport
 10
212.5
 20
149.4999999999999
 30
0.0
 40
384.9999999999999
 41
265.0
 68
     2
 69
     2
 12
5476.602239156313
 22
5356.395072266022
 13
0.0
 23
0.0
 14
168.0
 24
168.0
 15
0.0
 25
0.0
 16
0.0
 26
0.0
 36
1.0
 17
0.0
 27
0.0
 37
0.0
 42
50.0
 43
0.0
 44
0.0
 45
1059.999978933358
 50
0.0
 51
0.0
 72
   100
 90
    36864
  1

281
     0
 71
     1
 74
     0
110
0.0
120
0.0
130
0.0
111
1.0
121
0.0
131
0.0
112
0.0
122
1.0
132
0.0
 79
     0
146
0.0
  0
ENDSEC
  0
SECTION
  2
OBJECTS
  0
DICTIONARY
  5
C
330
0
100
AcDbDictionary
281
     1
  3
ACAD_CIP_PREVIOUS_PRODUCT_INFO
350
2FD5
  3
ACAD_COLOR
350
2FB6
  3
ACAD_GROUP
350
D
  3
ACAD_LAYOUT
350
2E99
  3
ACAD_MATERIAL
350
2F84
  3
ACAD_MLEADERSTYLE
350
2FCB
  3
ACAD_MLINESTYLE
350
E
  3
ACAD_PLOTSETTINGS
350
2E9A
  3
ACAD_PLOTSTYLENAME
350
2E97
  3
ACAD_SCALELIST
350
2FB9
  3
ACAD_TABLESTYLE
350
2FB7
  3
ACAD_VISUALSTYLE
350
2F9D
  3
ACDB_RECOMPOSE_DATA
350
30F5
  3
AcDbVariableDictionary
350
2F10
  3
CONTENTDICTIONARY
350
234
  3
DWGPROPS
350
30F6
  0
DICTIONARY
  5
3045
330
8
100
AcDbDictionary
280
     1
281
     1
  0
DICTIONARY
  5
30E1
330
2
100
AcDbDictionary
280
     1
281
     1
  3
ACAD_LAYERSTATES
360
30E2
  0
DICTIONARY
  5
2FDE
330
F
100
AcDbDictionary
280
     1
281
     1
  3
ADSK_XREC_LAYER_RECONCILED
360
2FDF
  0
DICTIONARY
  5
2FE2
330
74
100
AcDbDictionary
280
     1
281
     1
  3
ADSK_XREC_LAYER_RECONCILED
360
2FE3
  0
DICTIONARY
  5
2FE6
330
17F1
100
AcDbDictionary
280
     1
281
     1
  3
ADSK_XREC_LAYER_RECONCILED
360
2FE7
  0
DICTIONARY
  5
2F6F
330
1A
100
AcDbDictionary
280
     1
281
     1
  3
ACAD_LAYOUTSELFREF
360
2F70
  0
DICTIONARY
  5
2F12
330
17
100
AcDbDictionary
280
     1
281
     1
  3
ACAD_LAYOUTSELFREF
360
2F6E
  3
ACAD_SORTENTS
360
2F13
  0
DICTIONARY
  5
30F7
330
22
100
AcDbDictionary
280
     1
281
     1
  3
ACAD_XREC_ROUNDTRIP
360
30F8
  0
DICTIONARY
  5
30F9
330
2CF
100
AcDbDictionary
280
     1
281
     1
  3
ACAD_XREC_ROUNDTRIP
360
30FA
  0
XRECORD
  5
2FD5
102
{ACAD_REACTORS
330
C
102
}
330
C
100
AcDbXrecord
280
     1
300
ACDLT
300
2012
300
ACDLT_F_S
  0
DICTIONARY
  5
2FB6
102
{ACAD_REACTORS
330
C
102
}
330
C
100
AcDbDictionary
281
     1
  0
DICTIONARY
  5
D
102
{ACAD_REACTORS
330
C
102
}
330
C
100
AcDbDictionary
281
     1
  0
DICTIONARY
  5
2E99
102
{ACAD_REACTORS
330
C
102
}
330
C
100
AcDbDictionary
281
     1
  3
Model
350
2E9B
  3
ﾚｲｱｳﾄ1
350
2E9C
  0
DICTIONARY
  5
2F84
102
{ACAD_REACTORS
330
C
102
}
330
C
100
AcDbDictionary
281
     1
  3
ByBlock
350
2F8D
  3
ByLayer
350
2F85
  3
Global
350
2F95
  0
DICTIONARY
  5
2FCB
102
{ACAD_REACTORS
330
C
102
}
330
C
100
AcDbDictionary
281
     1
  3
Standard
350
2FCC
  0
DICTIONARY
  5
E
102
{ACAD_REACTORS
330
C
102
}
330
C
100
AcDbDictionary
281
     1
  3
STANDARD
350
13
  0
DICTIONARY
  5
2E9A
102
{ACAD_REACTORS
330
C
102
}
330
C
100
AcDbDictionary
281
     1
  3
A3formNX710
350
2F4B
  0
ACDBDICTIONARYWDFLT
  5
2E97
102
{ACAD_REACTORS
330
C
102
}
330
C
100
AcDbDictionary
281
     1
  3
Normal
350
2E98
100
AcDbDictionaryWithDefault
340
2E98
  0
DICTIONARY
  5
2FB9
102
{ACAD_REACTORS
330
C
102
}
330
C
100
AcDbDictionary
281
     1
  3
A0
350
2FBA
  3
A1
350
2FBB
  3
A2
350
2FBC
  3
A3
350
2FBD
  3
A4
350
2FBE
  3
A5
350
2FBF
  3
A6
350
2FC0
  3
A7
350
2FC1
  3
A8
350
2FC2
  3
A9
350
2FC3
  3
B0
350
2FC4
  3
B1
350
2FC5
  3
B2
350
2FC6
  3
B3
350
2FC7
  3
B4
350
2FC8
  3
B5
350
2FC9
  3
B6
350
2FCA
  0
DICTIONARY
  5
2FB7
102
{ACAD_REACTORS
330
C
102
}
330
C
100
AcDbDictionary
281
     1
  3
Standard
350
2FB8
  0
DICTIONARY
  5
2F9D
102
{ACAD_REACTORS
330
C
102
}
330
C
100
AcDbDictionary
281
     1
  3
2dWireframe
350
2FA3
  3
Basic
350
2FA2
  3
Brighten
350
2FA9
  3
ColorChange
350
2FAD
  3
Conceptual
350
2FA6
  3
Dim
350
2FA8
  3
EdgeColorOff
350
2FB5
  3
Facepattern
350
2FAC
  3
Flat
350
2F9E
  3
FlatWithEdges
350
2F9F
  3
Gouraud
350
2FA0
  3
GouraudWithEdges
350
2FA1
  3
Hidden
350
2FA5
  3
JitterOff
350
2FB3
  3
Linepattern
350
2FAB
  3
OverhangOff
350
2FB4
  3
Realistic
350
2FA7
  3
Shaded
350
2FB2
  3
Shaded with edges
350
2FB1
  3
Shades of Gray
350
2FAE
  3
Sketchy
350
2FAF
  3
Thicken
350
2FAA
  3
Wireframe
350
2FA4
  3
X-Ray
350
2FB0
  0
XRECORD
  5
30F5
102
{ACAD_REACTORS
330
C
102
}
330
C
100
AcDbXrecord
280
     1
 90
        1
330
2FB8
  0
DICTIONARY
  5
2F10
102
{ACAD_REACTORS
330
C
102
}
330
C
100
AcDbDictionary
281
     1
  3
CANNOSCALE
350
308A
  3
CMLEADERSTYLE
350
3089
  3
CTABLESTYLE
350
3088
  3
DIMASSOC
350
308C
  3
INDEXCTL
350
308B
  3
SORTENTS
350
2F11
  3
XCLIPFRAME
350
3097
  0
DICTIONARY
  5
234
102
{ACAD_REACTORS
330
C
102
}
330
C
100
AcDbDictionary
281
     1
  0
XRECORD
  5
30F6
102
{ACAD_REACTORS
330
C
102
}
330
C
100
AcDbXrecord
280
     1
  1
DWGPROPS COOKIE
  2

  3

  4

  6

  7

  8
ADJ-DV07-W11
  9

300
=
301
=
302
=
303
=
304
=
305
=
306
=
307
=
308
=
309
=
 40
1.564493483796296
 41
2451428.386184838
 42
2457379.840746493
  1

 90
        0
  0
DICTIONARY
  5
30E2
102
{ACAD_REACTORS
330
30E1
102
}
330
30E1
100
AcDbDictionary
281
     1
  0
XRECORD
  5
2FDF
102
{ACAD_REACTORS
330
2FDE
102
}
330
2FDE
100
AcDbXrecord
280
     1
290
     1
  0
XRECORD
  5
2FE3
102
{ACAD_REACTORS
330
2FE2
102
}
330
2FE2
100
AcDbXrecord
280
     1
290
     1
  0
XRECORD
  5
2FE7
102
{ACAD_REACTORS
330
2FE6
102
}
330
2FE6
100
AcDbXrecord
280
     1
290
     1
  0
XRECORD
  5
2F70
102
{ACAD_REACTORS
330
2F6F
102
}
330
2F6F
100
AcDbXrecord
280
     1
340
1A
  0
XRECORD
  5
2F6E
102
{ACAD_REACTORS
330
2F12
102
}
330
2F12
100
AcDbXrecord
280
     1
340
17
  0
SORTENTSTABLE
  5
2F13
102
{ACAD_REACTORS
330
2F12
102
}
330
2F12
100
AcDbSortentsTable
330
17
331
22
  5
22
331
2CF
  5
2CF
  0
XRECORD
  5
30F8
102
{ACAD_REACTORS
330
30F7
102
}
330
30F7
100
AcDbXrecord
280
     1
102
SHADEPLOT
 70
     0
  0
XRECORD
  5
30FA
102
{ACAD_REACTORS
330
30F9
102
}
330
30F9
100
AcDbXrecord
280
     1
102
SHADEPLOT
 70
     0
  0
LAYOUT
  5
2E9B
102
{ACAD_XDICTIONARY
360
30FB
102
}
102
{ACAD_REACTORS
330
2E99
102
}
330
2E99
100
AcDbPlotSettings
  1

  2
Laser Wind 2080W
  4

  6

 40
0.0
 41
0.0
 42
0.0
 43
0.0
 44
0.0
 45
0.0
 46
0.0
 47
0.0
 48
0.0
 49
0.0
140
0.0
141
0.0
142
1.0
143
1.0
 70
  1712
 72
     0
 73
     0
 74
     0
  7

 75
     0
147
1.0
148
0.0
149
0.0
100
AcDbLayout
  1
Model
 70
     1
 71
     0
 10
0.0
 20
0.0
 11
12.0
 21
9.0
 12
0.0
 22
0.0
 32
0.0
 14
0.0
 24
0.0
 34
0.0
 15
0.0
 25
0.0
 35
0.0
146
0.0
 13
0.0
 23
0.0
 33
0.0
 16
1.0
 26
0.0
 36
0.0
 17
0.0
 27
1.0
 37
0.0
 76
     0
330
1A
331
2E7A
  0
LAYOUT
  5
2E9C
102
{ACAD_XDICTIONARY
360
30E6
102
}
102
{ACAD_REACTORS
330
2E99
102
}
330
2E99
100
AcDbPlotSettings
  1

  2
Acrobat PDFWriter 3.0J.pc3
  4
A3
  6

 40
7.143749713897705
 41
7.143756389617919
 42
7.143768310546875
 43
7.14373779296875
 44
420.0313415527343
 45
297.0530090332031
 46
-4.7
 47
-4.7
 48
0.0
 49
0.0
140
0.0
141
0.0
142
1.0
143
1.0
 70
   688
 72
     1
 73
     0
 74
     5
  7
monochrome.ctb
 75
     0
147
1.0
148
0.0
149
0.0
100
AcDbLayout
  1
ﾚｲｱｳﾄ1
 70
     0
 71
     1
 10
-2.443749713897704
 20
-2.443756389617919
 11
417.5875918388366
 21
294.6092526435852
 12
0.0
 22
0.0
 32
0.0
 14
19.85000000000002
 24
8.931140188773319
 34
0.0
 15
405.1499999999999
 25
282.1499999999999
 35
0.0
146
0.0
 13
0.0
 23
0.0
 33
0.0
 16
1.0
 26
0.0
 36
0.0
 17
0.0
 27
1.0
 37
0.0
 76
     0
330
17
331
22
  0
MATERIAL
  5
2F8D
102
{ACAD_XDICTIONARY
360
2F8E
102
}
102
{ACAD_REACTORS
330
2F84
102
}
330
2F84
100
AcDbMaterial
  1
ByBlock
 72
     0
 43
0.0208333333333333
 43
0.0
 43
0.0
 43
0.0
 43
0.0
 43
0.0208333333333333
 43
0.0
 43
0.0
 43
0.0
 43
0.0
 43
1.0
 43
0.0
 43
0.0
 43
0.0
 43
0.0
 43
1.0
 77
     0
 47
0.0208333333333333
 47
0.0
 47
0.0
 47
0.0
 47
0.0
 47
0.0208333333333333
 47
0.0
 47
0.0
 47
0.0
 47
0.0
 47
1.0
 47
0.0
 47
0.0
 47
0.0
 47
0.0
 47
1.0
171
     0
 49
0.0208333333333333
 49
0.0
 49
0.0
 49
0.0
 49
0.0
 49
0.0208333333333333
 49
0.0
 49
0.0
 49
0.0
 49
0.0
 49
1.0
 49
0.0
 49
0.0
 49
0.0
 49
0.0
 49
1.0
175
     0
142
0.0208333333333333
142
0.0
142
0.0
142
0.0
142
0.0
142
0.0208333333333333
142
0.0
142
0.0
142
0.0
142
0.0
142
1.0
142
0.0
142
0.0
142
0.0
142
0.0
142
1.0
179
     0
144
0.0208333333333333
144
0.0
144
0.0
144
0.0
144
0.0
144
0.0208333333333333
144
0.0
144
0.0
144
0.0
144
0.0
144
1.0
144
0.0
144
0.0
144
0.0
144
0.0
144
1.0
147
0.0208333333333333
147
0.0
147
0.0
147
0.0
147
0.0
147
0.0208333333333333
147
0.0
147
0.0
147
0.0
147
0.0
147
1.0
147
0.0
147
0.0
147
0.0
147
0.0
147
1.0
  0
MATERIAL
  5
2F85
102
{ACAD_XDICTIONARY
360
2F86
102
}
102
{ACAD_REACTORS
330
2F84
102
}
330
2F84
100
AcDbMaterial
  1
ByLayer
 72
     0
 43
0.0208333333333333
 43
0.0
 43
0.0
 43
0.0
 43
0.0
 43
0.0208333333333333
 43
0.0
 43
0.0
 43
0.0
 43
0.0
 43
1.0
 43
0.0
 43
0.0
 43
0.0
 43
0.0
 43
1.0
 77
     0
 47
0.0208333333333333
 47
0.0
 47
0.0
 47
0.0
 47
0.0
 47
0.0208333333333333
 47
0.0
 47
0.0
 47
0.0
 47
0.0
 47
1.0
 47
0.0
 47
0.0
 47
0.0
 47
0.0
 47
1.0
171
     0
 49
0.0208333333333333
 49
0.0
 49
0.0
 49
0.0
 49
0.0
 49
0.0208333333333333
 49
0.0
 49
0.0
 49
0.0
 49
0.0
 49
1.0
 49
0.0
 49
0.0
 49
0.0
 49
0.0
 49
1.0
175
     0
142
0.0208333333333333
142
0.0
142
0.0
142
0.0
142
0.0
142
0.0208333333333333
142
0.0
142
0.0
142
0.0
142
0.0
142
1.0
142
0.0
142
0.0
142
0.0
142
0.0
142
1.0
179
     0
144
0.0208333333333333
144
0.0
144
0.0
144
0.0
144
0.0
144
0.0208333333333333
144
0.0
144
0.0
144
0.0
144
0.0
144
1.0
144
0.0
144
0.0
144
0.0
144
0.0
144
1.0
147
0.0208333333333333
147
0.0
147
0.0
147
0.0
147
0.0
147
0.0208333333333333
147
0.0
147
0.0
147
0.0
147
0.0
147
1.0
147
0.0
147
0.0
147
0.0
147
0.0
147
1.0
  0
MATERIAL
  5
2F95
102
{ACAD_XDICTIONARY
360
2F96
102
}
102
{ACAD_REACTORS
330
2F84
102
}
330
2F84
100
AcDbMaterial
  1
Global
 72
     0
 43
0.0208333333333333
 43
0.0
 43
0.0
 43
0.0
 43
0.0
 43
0.0208333333333333
 43
0.0
 43
0.0
 43
0.0
 43
0.0
 43
1.0
 43
0.0
 43
0.0
 43
0.0
 43
0.0
 43
1.0
 77
     0
 47
0.0208333333333333
 47
0.0
 47
0.0
 47
0.0
 47
0.0
 47
0.0208333333333333
 47
0.0
 47
0.0
 47
0.0
 47
0.0
 47
1.0
 47
0.0
 47
0.0
 47
0.0
 47
0.0
 47
1.0
171
     0
 49
0.0208333333333333
 49
0.0
 49
0.0
 49
0.0
 49
0.0
 49
0.0208333333333333
 49
0.0
 49
0.0
 49
0.0
 49
0.0
 49
1.0
 49
0.0
 49
0.0
 49
0.0
 49
0.0
 49
1.0
175
     0
142
0.0208333333333333
142
0.0
142
0.0
142
0.0
142
0.0
142
0.0208333333333333
142
0.0
142
0.0
142
0.0
142
0.0
142
1.0
142
0.0
142
0.0
142
0.0
142
0.0
142
1.0
179
     0
144
0.0208333333333333
144
0.0
144
0.0
144
0.0
144
0.0
144
0.0208333333333333
144
0.0
144
0.0
144
0.0
144
0.0
144
1.0
144
0.0
144
0.0
144
0.0
144
0.0
144
1.0
147
0.0208333333333333
147
0.0
147
0.0
147
0.0
147
0.0
147
0.0208333333333333
147
0.0
147
0.0
147
0.0
147
0.0
147
1.0
147
0.0
147
0.0
147
0.0
147
0.0
147
1.0
  0
MLEADERSTYLE
  5
2FCC
102
{ACAD_XDICTIONARY
360
30F3
102
}
102
{ACAD_REACTORS
330
2FCB
102
}
330
2FCB
100
AcDbMLeaderStyle
170
     2
171
     1
172
     0
 90
        2
 40
0.0
 41
0.0
173
     1
 91
-1056964608
340
14
 92
       -2
290
     1
 42
2.0
291
     1
 43
0.36
  3
Standard
 44
4.0
300

342
10
174
     1
178
     6
175
     1
176
     0
 93
-1056964608
 45
4.0
292
     0
297
     0
 46
4.0
 94
-1056964608
 47
1.0
 49
1.0
140
1.0
293
     1
141
0.0
294
     1
177
     0
142
1.0
295
     0
296
     0
143
0.125
1001
ACAD_MLEADERVER
1070
     2
  0
MLINESTYLE
  5
13
102
{ACAD_REACTORS
330
E
102
}
330
E
100
AcDbMlineStyle
  2
STANDARD
 70
     0
  3

 62
     0
 51
90.0
 52
90.0
 71
     2
 49
0.5
 62
   256
  6
BYLAYER
 49
-0.5
 62
   256
  6
BYLAYER
  0
PLOTSETTINGS
  5
2F4B
102
{ACAD_XDICTIONARY
360
30FE
102
}
102
{ACAD_REACTORS
330
2E9A
102
}
330
2E9A
100
AcDbPlotSettings
  1
A3formNX710
  2
RICOH IPSiO NX710
  4
A3
  6

 40
5.831416606903076
 41
4.307413101196289
 42
8.244415283203125
 43
5.789093017578125
 44
296.9683227539062
 45
419.9889831542968
 46
0.0
 47
0.0
 48
0.0
 49
0.0
140
0.0
141
0.0
142
1.0
143
0.999993956865126
 70
   688
 72
     1
 73
     1
 74
     2
  7
monochrome.ctb
 75
     0
147
1.000006043171393
148
0.0
149
0.0
  0
ACDBPLACEHOLDER
  5
2E98
102
{ACAD_REACTORS
330
2E97
102
}
330
2E97
  0
SCALE
  5
2FBA
102
{ACAD_REACTORS
330
2FB9
102
}
330
2FB9
100
AcDbScale
 70
     0
300
1:1
140
1.0
141
1.0
290
     1
  0
SCALE
  5
2FBB
102
{ACAD_REACTORS
330
2FB9
102
}
330
2FB9
100
AcDbScale
 70
     0
300
1:2
140
1.0
141
2.0
290
     0
  0
SCALE
  5
2FBC
102
{ACAD_REACTORS
330
2FB9
102
}
330
2FB9
100
AcDbScale
 70
     0
300
1:4
140
1.0
141
4.0
290
     0
  0
SCALE
  5
2FBD
102
{ACAD_REACTORS
330
2FB9
102
}
330
2FB9
100
AcDbScale
 70
     0
300
1:5
140
1.0
141
5.0
290
     0
  0
SCALE
  5
2FBE
102
{ACAD_REACTORS
330
2FB9
102
}
330
2FB9
100
AcDbScale
 70
     0
300
1:8
140
1.0
141
8.0
290
     0
  0
SCALE
  5
2FBF
102
{ACAD_REACTORS
330
2FB9
102
}
330
2FB9
100
AcDbScale
 70
     0
300
1:10
140
1.0
141
10.0
290
     0
  0
SCALE
  5
2FC0
102
{ACAD_REACTORS
330
2FB9
102
}
330
2FB9
100
AcDbScale
 70
     0
300
1:16
140
1.0
141
16.0
290
     0
  0
SCALE
  5
2FC1
102
{ACAD_REACTORS
330
2FB9
102
}
330
2FB9
100
AcDbScale
 70
     0
300
1:20
140
1.0
141
20.0
290
     0
  0
SCALE
  5
2FC2
102
{ACAD_REACTORS
330
2FB9
102
}
330
2FB9
100
AcDbScale
 70
     0
300
1:30
140
1.0
141
30.0
290
     0
  0
SCALE
  5
2FC3
102
{ACAD_REACTORS
330
2FB9
102
}
330
2FB9
100
AcDbScale
 70
     0
300
1:40
140
1.0
141
40.0
290
     0
  0
SCALE
  5
2FC4
102
{ACAD_REACTORS
330
2FB9
102
}
330
2FB9
100
AcDbScale
 70
     0
300
1:50
140
1.0
141
50.0
290
     0
  0
SCALE
  5
2FC5
102
{ACAD_REACTORS
330
2FB9
102
}
330
2FB9
100
AcDbScale
 70
     0
300
1:100
140
1.0
141
100.0
290
     0
  0
SCALE
  5
2FC6
102
{ACAD_REACTORS
330
2FB9
102
}
330
2FB9
100
AcDbScale
 70
     0
300
2:1
140
2.0
141
1.0
290
     0
  0
SCALE
  5
2FC7
102
{ACAD_REACTORS
330
2FB9
102
}
330
2FB9
100
AcDbScale
 70
     0
300
4:1
140
4.0
141
1.0
290
     0
  0
SCALE
  5
2FC8
102
{ACAD_REACTORS
330
2FB9
102
}
330
2FB9
100
AcDbScale
 70
     0
300
8:1
140
8.0
141
1.0
290
     0
  0
SCALE
  5
2FC9
102
{ACAD_REACTORS
330
2FB9
102
}
330
2FB9
100
AcDbScale
 70
     0
300
10:1
140
10.0
141
1.0
290
     0
  0
SCALE
  5
2FCA
102
{ACAD_REACTORS
330
2FB9
102
}
330
2FB9
100
AcDbScale
 70
     0
300
100:1
140
100.0
141
1.0
290
     0
  0
TABLESTYLE
  5
2FB8
102
{ACAD_XDICTIONARY
360
303F
102
}
102
{ACAD_REACTORS
330
2FB7
102
}
330
2FB7
100
AcDbTableStyle
  3
Standard
 70
     0
 71
     0
 40
1.5
 41
1.5
280
     0
281
     0
  7
STANDARD
140
4.5
170
     2
 62
     0
 63
     7
283
     0
274
    -2
284
     1
 64
     0
275
    -2
285
     1
 65
     0
276
    -2
286
     1
 66
     0
277
    -2
287
     1
 67
     0
278
    -2
288
     1
 68
     0
279
    -2
289
     1
 69
     0
  7
STANDARD
140
6.0
170
     5
 62
     0
 63
     7
283
     0
274
    -2
284
     1
 64
     0
275
    -2
285
     1
 65
     0
276
    -2
286
     1
 66
     0
277
    -2
287
     1
 67
     0
278
    -2
288
     1
 68
     0
279
    -2
289
     1
 69
     0
  7
STANDARD
140
4.5
170
     5
 62
     0
 63
     7
283
     0
274
    -2
284
     1
 64
     0
275
    -2
285
     1
 65
     0
276
    -2
286
     1
 66
     0
277
    -2
287
     1
 67
     0
278
    -2
288
     1
 68
     0
279
    -2
289
     1
 69
     0
  0
VISUALSTYLE
  5
2FA3
102
{ACAD_XDICTIONARY
360
310D
102
}
102
{ACAD_REACTORS
330
2F9D
102
}
330
2F9D
100
AcDbVisualStyle
  2
2dWireframe
 70
     4
 71
     0
 72
     2
 73
     0
 90
        0
 40
-0.6
 41
-30.0
 62
     5
 63
     7
 74
     1
 91
        4
 64
     7
 65
   257
 75
     1
175
     1
 42
1.0
 92
        0
 66
   257
 43
1.0
 76
     1
 77
     6
 78
     2
 67
     7
 79
     5
170
     0
171
     0
290
     0
174
     0
 93
        1
 44
0.0
173
     0
291
     0
 45
0.0
1001
ACAD
1000
AcDbSavedByObjectVersion
1070
     0
  0
VISUALSTYLE
  5
2FA2
102
{ACAD_XDICTIONARY
360
310B
102
}
102
{ACAD_REACTORS
330
2F9D
102
}
330
2F9D
100
AcDbVisualStyle
  2
Basic
 70
     7
 71
     1
 72
     0
 73
     1
 90
        0
 40
-0.6
 41
-30.0
 62
     5
 63
     7
 74
     0
 91
        4
 64
     7
 65
   257
 75
     1
175
     1
 42
1.0
 92
        8
 66
     7
 43
1.0
 76
     1
 77
     6
 78
     2
 67
     7
 79
     5
170
     0
171
     0
290
     0
174
     0
 93
        1
 44
0.0
173
     0
291
     1
 45
0.0
1001
ACAD
1000
AcDbSavedByObjectVersion
1070
     0
  0
VISUALSTYLE
  5
2FA9
102
{ACAD_XDICTIONARY
360
3119
102
}
102
{ACAD_REACTORS
330
2F9D
102
}
330
2F9D
100
AcDbVisualStyle
  2
Brighten
 70
    12
 71
     2
 72
     2
 73
     0
 90
        0
 40
-0.6
 41
-30.0
 62
     5
 63
     7
 74
     1
 91
        4
 64
     7
 65
   257
 75
     1
175
     1
 42
1.0
 92
        8
 66
     7
 43
1.0
 76
     1
 77
     6
 78
     2
 67
     7
 79
     5
170
     0
171
     0
290
     0
174
     0
 93
        1
 44
50.0
173
     0
291
     1
 45
0.0
1001
ACAD
1000
AcDbSavedByObjectVersion
1070
     0
  0
VISUALSTYLE
  5
2FAD
102
{ACAD_XDICTIONARY
360
3121
102
}
102
{ACAD_REACTORS
330
2F9D
102
}
330
2F9D
100
AcDbVisualStyle
  2
ColorChange
 70
    16
 71
     2
 72
     2
 73
     3
 90
        0
 40
-0.6
 41
-30.0
 62
     5
 63
     8
 74
     1
 91
        4
 64
     7
 65
   257
 75
     1
175
     1
 42
1.0
 92
        8
 66
     8
 43
1.0
 76
     1
 77
     6
 78
     2
 67
     7
 79
     5
170
     0
171
     0
290
     0
174
     0
 93
        1
 44
0.0
173
     0
291
     1
 45
0.0
1001
ACAD
1000
AcDbSavedByObjectVersion
1070
     0
  0
VISUALSTYLE
  5
2FA6
102
{ACAD_XDICTIONARY
360
3113
102
}
102
{ACAD_REACTORS
330
2F9D
102
}
330
2F9D
100
AcDbVisualStyle
  2
Conceptual
 70
     9
 71
     3
 72
     2
 73
     0
 90
        0
 40
-0.6
 41
-30.0
 62
     5
 63
     7
 74
     2
 91
        2
 64
     7
 65
   257
 75
     1
175
     1
 42
179.0
 92
        8
 66
     7
 43
1.0
 76
     1
 77
     6
 78
     2
 67
     7
 79
     3
170
     0
171
     0
290
     0
174
     0
 93
        1
 44
0.0
173
     0
291
     0
 45
0.0
1001
ACAD
1000
AcDbSavedByObjectVersion
1070
     0
  0
VISUALSTYLE
  5
2FA8
102
{ACAD_XDICTIONARY
360
3117
102
}
102
{ACAD_REACTORS
330
2F9D
102
}
330
2F9D
100
AcDbVisualStyle
  2
Dim
 70
    11
 71
     2
 72
     2
 73
     0
 90
        0
 40
-0.6
 41
-30.0
 62
     5
 63
     7
 74
     1
 91
        4
 64
     7
 65
   257
 75
     1
175
     1
 42
1.0
 92
        8
 66
     7
 43
1.0
 76
     1
 77
     6
 78
     2
 67
     7
 79
     5
170
     0
171
     0
290
     0
174
     0
 93
        1
 44
-50.0
173
     0
291
     1
 45
0.0
1001
ACAD
1000
AcDbSavedByObjectVersion
1070
     0
  0
VISUALSTYLE
  5
2FB5
102
{ACAD_XDICTIONARY
360
3131
102
}
102
{ACAD_REACTORS
330
2F9D
102
}
330
2F9D
100
AcDbVisualStyle
  2
EdgeColorOff
 70
    22
 71
     2
 72
     2
 73
     0
 90
        0
 40
-0.6
 41
-30.0
 62
     5
 63
     7
 74
     1
 91
        4
 64
     7
 65
   257
 75
     1
175
     1
 42
1.0
 92
        8
 66
     7
 43
1.0
 76
     1
 77
     6
 78
     2
 67
     7
 79
     5
170
     0
171
     0
290
     0
174
     0
 93
        1
 44
0.0
173
     0
291
     1
 45
0.0
1001
ACAD
1000
AcDbSavedByObjectVersion
1070
     0
  0
VISUALSTYLE
  5
2FAC
102
{ACAD_XDICTIONARY
360
311F
102
}
102
{ACAD_REACTORS
330
2F9D
102
}
330
2F9D
100
AcDbVisualStyle
  2
Facepattern
 70
    15
 71
     2
 72
     2
 73
     0
 90
        0
 40
-0.6
 41
-30.0
 62
     5
 63
     7
 74
     1
 91
        4
 64
     7
 65
   257
 75
     1
175
     1
 42
1.0
 92
        8
 66
     7
 43
1.0
 76
     1
 77
     6
 78
     2
 67
     7
 79
     5
170
     0
171
     0
290
     0
174
     0
 93
        1
 44
0.0
173
     0
291
     1
 45
0.0
1001
ACAD
1000
AcDbSavedByObjectVersion
1070
     0
  0
VISUALSTYLE
  5
2F9E
102
{ACAD_XDICTIONARY
360
3103
102
}
102
{ACAD_REACTORS
330
2F9D
102
}
330
2F9D
100
AcDbVisualStyle
  2
Flat
 70
     0
 71
     2
 72
     1
 73
     1
 90
        2
 40
-0.6
 41
30.0
 62
     5
 63
     7
 74
     0
 91
        0
 64
     7
 65
   257
 75
     1
175
     1
 42
1.0
 92
        8
 66
     7
 43
1.0
 76
     1
 77
     6
 78
     2
 67
     7
 79
     5
170
     0
171
     0
290
     0
174
     0
 93
       13
 44
0.0
173
     0
291
     1
 45
0.0
1001
ACAD
1000
AcDbSavedByObjectVersion
1070
     0
  0
VISUALSTYLE
  5
2F9F
102
{ACAD_XDICTIONARY
360
3105
102
}
102
{ACAD_REACTORS
330
2F9D
102
}
330
2F9D
100
AcDbVisualStyle
  2
FlatWithEdges
 70
     1
 71
     2
 72
     1
 73
     1
 90
        2
 40
-0.6
 41
30.0
 62
     5
 63
     7
 74
     1
 91
        0
 64
     7
 65
   257
 75
     1
175
     1
 42
1.0
 92
        0
 66
   257
 43
1.0
 76
     1
 77
     6
 78
     2
 67
     7
 79
     5
170
     0
171
     0
290
     0
174
     0
 93
       13
 44
0.0
173
     0
291
     1
 45
0.0
1001
ACAD
1000
AcDbSavedByObjectVersion
1070
     0
  0
VISUALSTYLE
  5
2FA0
102
{ACAD_XDICTIONARY
360
3107
102
}
102
{ACAD_REACTORS
330
2F9D
102
}
330
2F9D
100
AcDbVisualStyle
  2
Gouraud
 70
     2
 71
     2
 72
     2
 73
     1
 90
        2
 40
-0.6
 41
30.0
 62
     5
 63
     7
 74
     0
 91
        0
 64
     7
 65
   257
 75
     1
175
     1
 42
1.0
 92
        0
 66
     7
 43
1.0
 76
     1
 77
     6
 78
     2
 67
     7
 79
     5
170
     0
171
     0
290
     0
174
     0
 93
       13
 44
0.0
173
     0
291
     1
 45
0.0
1001
ACAD
1000
AcDbSavedByObjectVersion
1070
     0
  0
VISUALSTYLE
  5
2FA1
102
{ACAD_XDICTIONARY
360
3109
102
}
102
{ACAD_REACTORS
330
2F9D
102
}
330
2F9D
100
AcDbVisualStyle
  2
GouraudWithEdges
 70
     3
 71
     2
 72
     2
 73
     1
 90
        2
 40
-0.6
 41
30.0
 62
     5
 63
     7
 74
     1
 91
        0
 64
     7
 65
   257
 75
     1
175
     1
 42
1.0
 92
        0
 66
   257
 43
1.0
 76
     1
 77
     6
 78
     2
 67
     7
 79
     5
170
     0
171
     0
290
     0
174
     0
 93
       13
 44
0.0
173
     0
291
     1
 45
0.0
1001
ACAD
1000
AcDbSavedByObjectVersion
1070
     0
  0
VISUALSTYLE
  5
2FA5
102
{ACAD_XDICTIONARY
360
3111
102
}
102
{ACAD_REACTORS
330
2F9D
102
}
330
2F9D
100
AcDbVisualStyle
  2
Hidden
 70
     6
 71
     1
 72
     2
 73
     2
 90
        0
 40
-0.6
 41
-30.0
 62
     5
 63
     7
 74
     2
 91
        2
 64
     7
 65
   257
 75
     2
175
     1
 42
40.0
 92
        0
 66
   257
 43
1.0
 76
     1
 77
     6
 78
     2
 67
     7
 79
     3
170
     0
171
     0
290
     0
174
     0
 93
        1
 44
0.0
173
     0
291
     0
 45
0.0
1001
ACAD
1000
AcDbSavedByObjectVersion
1070
     0
  0
VISUALSTYLE
  5
2FB3
102
{ACAD_XDICTIONARY
360
312D
102
}
102
{ACAD_REACTORS
330
2F9D
102
}
330
2F9D
100
AcDbVisualStyle
  2
JitterOff
 70
    20
 71
     2
 72
     2
 73
     0
 90
        0
 40
-0.6
 41
-30.0
 62
     5
 63
     7
 74
     1
 91
        4
 64
     7
 65
   257
 75
     1
175
     1
 42
1.0
 92
       10
 66
     7
 43
1.0
 76
     1
 77
     6
 78
     2
 67
     7
 79
     5
170
     0
171
     0
290
     0
174
     0
 93
        1
 44
0.0
173
     0
291
     1
 45
0.0
1001
ACAD
1000
AcDbSavedByObjectVersion
1070
     0
  0
VISUALSTYLE
  5
2FAB
102
{ACAD_XDICTIONARY
360
311D
102
}
102
{ACAD_REACTORS
330
2F9D
102
}
330
2F9D
100
AcDbVisualStyle
  2
Linepattern
 70
    14
 71
     2
 72
     2
 73
     0
 90
        0
 40
-0.6
 41
-30.0
 62
     5
 63
     7
 74
     1
 91
        4
 64
     7
 65
   257
 75
     7
175
     7
 42
1.0
 92
        8
 66
     7
 43
1.0
 76
     1
 77
     6
 78
     2
 67
     7
 79
     5
170
     0
171
     0
290
     0
174
     0
 93
        1
 44
0.0
173
     0
291
     1
 45
0.0
1001
ACAD
1000
AcDbSavedByObjectVersion
1070
     0
  0
VISUALSTYLE
  5
2FB4
102
{ACAD_XDICTIONARY
360
312F
102
}
102
{ACAD_REACTORS
330
2F9D
102
}
330
2F9D
100
AcDbVisualStyle
  2
OverhangOff
 70
    21
 71
     2
 72
     2
 73
     0
 90
        0
 40
-0.6
 41
-30.0
 62
     5
 63
     7
 74
     1
 91
        4
 64
     7
 65
   257
 75
     1
175
     1
 42
1.0
 92
        9
 66
     7
 43
1.0
 76
     1
 77
     6
 78
     2
 67
     7
 79
     5
170
     0
171
     0
290
     0
174
     0
 93
        1
 44
0.0
173
     0
291
     1
 45
0.0
1001
ACAD
1000
AcDbSavedByObjectVersion
1070
     0
  0
VISUALSTYLE
  5
2FA7
102
{ACAD_XDICTIONARY
360
3115
102
}
102
{ACAD_REACTORS
330
2F9D
102
}
330
2F9D
100
AcDbVisualStyle
  2
Realistic
 70
     8
 71
     2
 72
     2
 73
     0
 90
        2
 40
-0.6
 41
30.0
 62
     5
 63
     7
 74
     0
 91
        0
 64
     7
 65
   257
 75
     1
175
     1
 42
1.0
 92
        8
 66
   257
 43
1.0
 76
     1
 77
     6
 78
     2
 67
     7
 79
     3
170
     0
171
     0
290
     0
174
     0
 93
       13
 44
0.0
173
     0
291
     0
 45
0.0
1001
ACAD
1000
AcDbSavedByObjectVersion
1070
     0
  0
VISUALSTYLE
  5
2FB2
102
{ACAD_XDICTIONARY
360
312B
102
}
102
{ACAD_REACTORS
330
2F9D
102
}
330
2F9D
100
AcDbVisualStyle
  2
Shaded
 70
    27
 71
     2
 72
     2
 73
     1
 90
        2
 40
-0.6
 41
30.0
 62
     5
 63
     7
 74
     0
 91
        4
 64
     7
 65
   257
 75
     1
175
     1
 42
1.0
 92
        8
 66
   257
 43
1.0
 76
     1
 77
     6
 78
     2
 67
     8
 79
     3
170
     0
171
     0
290
     0
174
     0
 93
        5
 44
0.0
173
     0
291
     0
 45
0.0
1001
ACAD
1000
AcDbSavedByObjectVersion
1070
     0
  0
VISUALSTYLE
  5
2FB1
102
{ACAD_XDICTIONARY
360
3129
102
}
102
{ACAD_REACTORS
330
2F9D
102
}
330
2F9D
100
AcDbVisualStyle
  2
Shaded with edges
 70
    26
 71
     2
 72
     2
 73
     1
 90
        2
 40
-0.6
 41
30.0
 62
     5
 63
     7
 74
     1
 91
       10
 64
     7
 65
   257
 75
     2
175
     1
 42
1.0
 92
        8
 66
   257
 43
1.0
 76
     1
 77
     6
 78
     2
 67
     7
 79
     3
170
     0
171
     0
290
     0
174
     0
 93
        5
 44
0.0
173
     0
291
     0
 45
0.0
1001
ACAD
1000
AcDbSavedByObjectVersion
1070
     0
  0
VISUALSTYLE
  5
2FAE
102
{ACAD_XDICTIONARY
360
3123
102
}
102
{ACAD_REACTORS
330
2F9D
102
}
330
2F9D
100
AcDbVisualStyle
  2
Shades of Gray
 70
    23
 71
     2
 72
     2
 73
     3
 90
        0
 40
-0.6
 41
-30.0
 62
     5
 63
     7
 74
     2
 91
        2
 64
     7
 65
     7
 75
     1
175
     1
 42
40.0
 92
        8
 66
     7
 43
1.0
 76
     1
 77
     6
 78
     2
 67
     7
 79
     3
170
     0
171
     0
290
     0
174
     0
 93
        1
 44
0.0
173
     0
291
     0
 45
0.0
1001
ACAD
1000
AcDbSavedByObjectVersion
1070
     0
  0
VISUALSTYLE
  5
2FAF
102
{ACAD_XDICTIONARY
360
3125
102
}
102
{ACAD_REACTORS
330
2F9D
102
}
330
2F9D
100
AcDbVisualStyle
  2
Sketchy
 70
    24
 71
     1
 72
     2
 73
     2
 90
        0
 40
-0.6
 41
-30.0
 62
     5
 63
     7
 74
     2
 91
        2
 64
     7
 65
     7
 75
     1
175
     1
 42
40.0
 92
       11
 66
     7
 43
1.0
 76
     1
 77
     6
 78
     2
 67
     7
 79
     6
170
     0
171
     0
290
     0
174
     0
 93
        1
 44
0.0
173
     0
291
     0
 45
0.0
1001
ACAD
1000
AcDbSavedByObjectVersion
1070
     0
  0
VISUALSTYLE
  5
2FAA
102
{ACAD_XDICTIONARY
360
311B
102
}
102
{ACAD_REACTORS
330
2F9D
102
}
330
2F9D
100
AcDbVisualStyle
  2
Thicken
 70
    13
 71
     2
 72
     2
 73
     0
 90
        0
 40
-0.6
 41
-30.0
 62
     5
 63
     7
 74
     1
 91
        4
 64
     7
 65
   257
 75
     1
175
     1
 42
1.0
 92
       12
 66
     7
 43
1.0
 76
     1
 77
     6
 78
     2
 67
     7
 79
     5
170
     0
171
     0
290
     0
174
     0
 93
        1
 44
0.0
173
     0
291
     1
 45
0.0
1001
ACAD
1000
AcDbSavedByObjectVersion
1070
     0
  0
VISUALSTYLE
  5
2FA4
102
{ACAD_XDICTIONARY
360
310F
102
}
102
{ACAD_REACTORS
330
2F9D
102
}
330
2F9D
100
AcDbVisualStyle
  2
Wireframe
 70
     5
 71
     0
 72
     2
 73
     0
 90
        0
 40
-0.6
 41
-30.0
 62
     5
 63
     7
 74
     1
 91
        4
 64
     7
 65
   257
 75
     1
175
     1
 42
1.0
 92
        0
 66
   257
 43
1.0
 76
     1
 77
     6
 78
     2
 67
     7
 79
     3
170
     0
171
     0
290
     0
174
     0
 93
        1
 44
0.0
173
     0
291
     0
 45
0.0
1001
ACAD
1000
AcDbSavedByObjectVersion
1070
     0
  0
VISUALSTYLE
  5
2FB0
102
{ACAD_XDICTIONARY
360
3127
102
}
102
{ACAD_REACTORS
330
2F9D
102
}
330
2F9D
100
AcDbVisualStyle
  2
X-Ray
 70
    25
 71
     2
 72
     2
 73
     1
 90
        1
 40
0.5
 41
-30.0
 62
     5
 63
     7
 74
     1
 91
        0
 64
     7
 65
   257
 75
     1
175
     1
 42
1.0
 92
        8
 66
     7
 43
1.0
 76
     1
 77
     6
 78
     2
 67
     7
 79
     3
170
     0
171
     0
290
     0
174
     0
 93
       13
 44
0.0
173
     0
291
     0
 45
0.0
1001
ACAD
1000
AcDbSavedByObjectVersion
1070
     0
  0
DICTIONARYVAR
  5
308A
102
{ACAD_REACTORS
330
2F10
102
}
330
2F10
100
DictionaryVariables
280
     0
  1
1:1
  0
DICTIONARYVAR
  5
3089
102
{ACAD_REACTORS
330
2F10
102
}
330
2F10
100
DictionaryVariables
280
     0
  1
STANDARD
  0
DICTIONARYVAR
  5
3088
102
{ACAD_REACTORS
330
2F10
102
}
330
2F10
100
DictionaryVariables
280
     0
  1
STANDARD
  0
DICTIONARYVAR
  5
308C
102
{ACAD_REACTORS
330
2F10
102
}
330
2F10
100
DictionaryVariables
280
     0
  1
1
  0
DICTIONARYVAR
  5
308B
102
{ACAD_REACTORS
330
2F10
102
}
330
2F10
100
DictionaryVariables
280
     0
  1
0
  0
DICTIONARYVAR
  5
2F11
102
{ACAD_REACTORS
330
2F10
102
}
330
2F10
100
DictionaryVariables
280
     0
  1
127
  0
DICTIONARYVAR
  5
3097
102
{ACAD_REACTORS
330
2F10
102
}
330
2F10
100
DictionaryVariables
280
     0
  1
2
  0
DICTIONARY
  5
30FB
330
2E9B
100
AcDbDictionary
280
     1
281
     1
  3
ACAD_XREC_ROUNDTRIP
360
30FC
  0
DICTIONARY
  5
30E6
330
2E9C
100
AcDbDictionary
280
     1
281
     1
  3
ACAD_XREC_ROUNDTRIP
360
30FD
  3
ADSK_XREC_LAYOUTTHUMBNAIL
360
30E7
  0
DICTIONARY
  5
2F8E
330
2F8D
100
AcDbDictionary
280
     1
281
     1
  3
ACAD_XREC_ROUNDTRIP
360
3101
  3
BUMPTILE
360
2F90
  3
DIFFUSETILE
360
2F8F
  3
OPACITYTILE
360
2F93
  3
REFLECTIONTILE
360
2F92
  3
REFRACTIONTILE
360
2F94
  3
SPECULARTILE
360
2F91
  0
DICTIONARY
  5
2F86
330
2F85
100
AcDbDictionary
280
     1
281
     1
  3
ACAD_XREC_ROUNDTRIP
360
3100
  3
BUMPTILE
360
2F88
  3
DIFFUSETILE
360
2F87
  3
OPACITYTILE
360
2F8B
  3
REFLECTIONTILE
360
2F8A
  3
REFRACTIONTILE
360
2F8C
  3
SPECULARTILE
360
2F89
  0
DICTIONARY
  5
2F96
330
2F95
100
AcDbDictionary
280
     1
281
     1
  3
ACAD_XREC_ROUNDTRIP
360
3102
  3
BUMPTILE
360
2F98
  3
DIFFUSETILE
360
2F97
  3
OPACITYTILE
360
2F9B
  3
REFLECTIONTILE
360
2F9A
  3
REFRACTIONTILE
360
2F9C
  3
SPECULARTILE
360
2F99
  0
DICTIONARY
  5
30F3
330
2FCC
100
AcDbDictionary
280
     1
281
     1
  3
ACAD_XREC_ROUNDTRIP
360
30F4
  0
DICTIONARY
  5
30FE
330
2F4B
100
AcDbDictionary
280
     1
281
     1
  3
ACAD_XREC_ROUNDTRIP
360
30FF
  0
DICTIONARY
  5
303F
330
2FB8
100
AcDbDictionary
280
     1
281
     1
  3
ACAD_ROUNDTRIP_2008_TABLESTYLE_CELLSTYLEMAP
360
30F2
  3
ACAD_XREC_ROUNDTRIP
360
3133
  0
DICTIONARY
  5
310D
330
2FA3
100
AcDbDictionary
280
     1
281
     1
  3
ACAD_XREC_ROUNDTRIP
360
310E
  0
DICTIONARY
  5
310B
330
2FA2
100
AcDbDictionary
280
     1
281
     1
  3
ACAD_XREC_ROUNDTRIP
360
310C
  0
DICTIONARY
  5
3119
330
2FA9
100
AcDbDictionary
280
     1
281
     1
  3
ACAD_XREC_ROUNDTRIP
360
311A
  0
DICTIONARY
  5
3121
330
2FAD
100
AcDbDictionary
280
     1
281
     1
  3
ACAD_XREC_ROUNDTRIP
360
3122
  0
DICTIONARY
  5
3113
330
2FA6
100
AcDbDictionary
280
     1
281
     1
  3
ACAD_XREC_ROUNDTRIP
360
3114
  0
DICTIONARY
  5
3117
330
2FA8
100
AcDbDictionary
280
     1
281
     1
  3
ACAD_XREC_ROUNDTRIP
360
3118
  0
DICTIONARY
  5
3131
330
2FB5
100
AcDbDictionary
280
     1
281
     1
  3
ACAD_XREC_ROUNDTRIP
360
3132
  0
DICTIONARY
  5
311F
330
2FAC
100
AcDbDictionary
280
     1
281
     1
  3
ACAD_XREC_ROUNDTRIP
360
3120
  0
DICTIONARY
  5
3103
330
2F9E
100
AcDbDictionary
280
     1
281
     1
  3
ACAD_XREC_ROUNDTRIP
360
3104
  0
DICTIONARY
  5
3105
330
2F9F
100
AcDbDictionary
280
     1
281
     1
  3
ACAD_XREC_ROUNDTRIP
360
3106
  0
DICTIONARY
  5
3107
330
2FA0
100
AcDbDictionary
280
     1
281
     1
  3
ACAD_XREC_ROUNDTRIP
360
3108
  0
DICTIONARY
  5
3109
330
2FA1
100
AcDbDictionary
280
     1
281
     1
  3
ACAD_XREC_ROUNDTRIP
360
310A
  0
DICTIONARY
  5
3111
330
2FA5
100
AcDbDictionary
280
     1
281
     1
  3
ACAD_XREC_ROUNDTRIP
360
3112
  0
DICTIONARY
  5
312D
330
2FB3
100
AcDbDictionary
280
     1
281
     1
  3
ACAD_XREC_ROUNDTRIP
360
312E
  0
DICTIONARY
  5
311D
330
2FAB
100
AcDbDictionary
280
     1
281
     1
  3
ACAD_XREC_ROUNDTRIP
360
311E
  0
DICTIONARY
  5
312F
330
2FB4
100
AcDbDictionary
280
     1
281
     1
  3
ACAD_XREC_ROUNDTRIP
360
3130
  0
DICTIONARY
  5
3115
330
2FA7
100
AcDbDictionary
280
     1
281
     1
  3
ACAD_XREC_ROUNDTRIP
360
3116
  0
DICTIONARY
  5
312B
330
2FB2
100
AcDbDictionary
280
     1
281
     1
  3
ACAD_XREC_ROUNDTRIP
360
312C
  0
DICTIONARY
  5
3129
330
2FB1
100
AcDbDictionary
280
     1
281
     1
  3
ACAD_XREC_ROUNDTRIP
360
312A
  0
DICTIONARY
  5
3123
330
2FAE
100
AcDbDictionary
280
     1
281
     1
  3
ACAD_XREC_ROUNDTRIP
360
3124
  0
DICTIONARY
  5
3125
330
2FAF
100
AcDbDictionary
280
     1
281
     1
  3
ACAD_XREC_ROUNDTRIP
360
3126
  0
DICTIONARY
  5
311B
330
2FAA
100
AcDbDictionary
280
     1
281
     1
  3
ACAD_XREC_ROUNDTRIP
360
311C
  0
DICTIONARY
  5
310F
330
2FA4
100
AcDbDictionary
280
     1
281
     1
  3
ACAD_XREC_ROUNDTRIP
360
3110
  0
DICTIONARY
  5
3127
330
2FB0
100
AcDbDictionary
280
     1
281
     1
  3
ACAD_XREC_ROUNDTRIP
360
3128
  0
XRECORD
  5
30FC
102
{ACAD_REACTORS
330
30FB
102
}
330
30FB
100
AcDbXrecord
280
     1
102
SHADEPLOT
 70
     0
102
SHADEPLOTRESLEVEL
 70
     2
102
SHADEPLOTCUSTOMDPI
 70
   300
  0
XRECORD
  5
30FD
102
{ACAD_REACTORS
330
30E6
102
}
330
30E6
100
AcDbXrecord
280
     1
102
SHADEPLOT
 70
     0
102
SHADEPLOTRESLEVEL
 70
     2
102
SHADEPLOTCUSTOMDPI
 70
   300
  0
XRECORD
  5
30E7
102
{ACAD_REACTORS
330
30E6
102
}
330
30E6
100
AcDbXrecord
280
     1
310
28000000B40000007F00000001000800000000004C590000000000000000000000010000000000000000000000000000C8C8C8000000000000000000000000000000000000000000000000000000000000000000330000006600000099000000CC000000FF00000000330000333300006633000099330000CC330000FF3300
310
0000660000336600006666000099660000CC660000FF66000000990000339900006699000099990000CC990000FF99000000CC000033CC000066CC000099CC0000CCCC0000FFCC000000FF000033FF000066FF000099FF0000CCFF0000FFFF000000003300330033006600330099003300CC003300FF003300003333003333
310
33006633330099333300CC333300FF33330000663300336633006666330099663300CC663300FF66330000993300339933006699330099993300CC993300FF99330000CC330033CC330066CC330099CC3300CCCC3300FFCC330000FF330033FF330066FF330099FF3300CCFF3300FFFF330000006600330066006600660099
310
006600CC006600FF00660000336600333366006633660099336600CC336600FF33660000666600336666006666660099666600CC666600FF66660000996600339966006699660099996600CC996600FF99660000CC660033CC660066CC660099CC6600CCCC6600FFCC660000FF660033FF660066FF660099FF6600CCFF6600
310
FFFF660000009900330099006600990099009900CC009900FF00990000339900333399006633990099339900CC339900FF33990000669900336699006666990099669900CC669900FF66990000999900339999006699990099999900CC999900FF99990000CC990033CC990066CC990099CC9900CCCC9900FFCC990000FF99
310
0033FF990066FF990099FF9900CCFF9900FFFF99000000CC003300CC006600CC009900CC00CC00CC00FF00CC000033CC003333CC006633CC009933CC00CC33CC00FF33CC000066CC003366CC006666CC009966CC00CC66CC00FF66CC000099CC003399CC006699CC009999CC00CC99CC00FF99CC0000CCCC0033CCCC0066CC
310
CC0099CCCC00CCCCCC00FFCCCC0000FFCC0033FFCC0066FFCC0099FFCC00CCFFCC00FFFFCC000000FF003300FF006600FF009900FF00CC00FF00FF00FF000033FF003333FF006633FF009933FF00CC33FF00FF33FF000066FF003366FF006666FF009966FF00CC66FF00FF66FF000099FF003399FF006699FF009999FF00CC
310
99FF00FF99FF0000CCFF0033CCFF0066CCFF0099CCFF00CCCCFF00FFCCFF0000FFFF0033FFFF0066FFFF0099FFFF00CCFFFF00FFFFFF00000000000D0D0D001A1A1A00282828003535350043434300505050005D5D5D006B6B6B00787878008686860093939300A1A1A100AEAEAE00BBBBBB00C9C9C900D6D6D600E4E4E400
310
F1F1F100FFFFFF0000000000000000000000000000000000000000000000000000000000000000000000000000000000F5F5F5F5F5F5F5F5F5F5F5F5F5F5F5F5F5F5F5F5F5F5F5F5F5F5F5F5F5F5F5F5F5F5F5F5F5F5F5F5F5F5F5F5F5F5F5F5F5F5F5F5F5F5F5F5F5F5F5F5F5F5F5F5F5F5F5F5F5F5F5F5F5F5F5F5F5F5F5
310
F5F5F5F5F5F5F5F5F5F5F5F5F5F5F5F5F5F5F5F5F5F5F5F5F5F5F5F5F5F5F5F5F5F5F5F5F5F5F5F5F5F5F5F5F5F5F5F5F5F5F5F5F5F5F5F5F5F5F5F5F5F5F5F5F5F5F5F5F5F5F5F5F5F5F5F5F5F5F5F5F5F5F5F5F5F5F5F5F5F5F5F5F5F5F5F5F5F5F5F5F5F500000000000000000000000000000000000000000000000000
310
00000000000000000000000000000000000000000000000000000000000000000000000000000000000000000000000000000000000000000000000000000000000000000000000000000000000000000000000000000000000000000000000000000000000000000000000000000000000000000000000000000000000000
310
00000000000000000000000000000000000000000000000000F5F5F5000000000000000000000000000000000000000000000000000000000000000000000000000000000000000000000000000000000000000000000000000000000000000000000000000000000000000000000000000000000000000000000000000000
310
000000000000000000000000000000000000000000000000000000000000000000000000000000000000000000000000000000000000000000000000000000000000000000000000000000000000F5F5F50000F5F5F5F5F5F5F5F5000000000000000000F5F5F5F5F5F5F5F5F5F5F5F5F5F5F5F5000000000000000000F5F5
310
F5F5F5F5F5F5F5F5F5F5F5F5F5F50000000000000000F5F5F5F5F5F5F5F5F5F5F5F5F5F5F5F5000000000000000000F5F5F5F5F5F5F5F5F5F5F5F5F5F5F5F50000000000000000F5F5F5F5F5F5F5F5F5F5F5F5F5F5F5F5000000000000000000F5F5F5F5F5F5F5F5F5F5F5F5F5F5F5F5000000000000000000F5F5F5F5F5F5
310
F5F50000F5F5F50000F5000000000000000000000000000000000000000000000000000000000000000000000000000000000000000000000000000000000000000000000000000000000000000000000000000000000000000000000000000000000000000000000000000000000000000000000000000000000000000000
310
000000000000000000000000000000000000000000000000000000000000000000000000000000000000000000000000000000000000F50000F5F5F50000F500000000000000000000000000000000000000000000000000000000000000000000000000000000000000000000000000000000000000000000000000000000
310
0000000000000000000000000000000000000000000000000000000000000000000000000000000000000000000000000000000000000000000000000000000000000000000000000000000000000000000000000000000000000000000000000000000000000000000000F50000F5F5F50000F50000000000000000000000
310
00000000000000000000000000000000000000000000000000000000000000000000000000000000000000000000000000000000000000000000000000000000000000000000000000000000000000000000000000000000000000000000000000000000000000000000000000000000000000000000000000000000000000
310
000000000000000000000000000000000000000000000000000000000000000000F50000F5F5F50000F500000000000000000000000000000000000000000000000000000000000000000000000000000000000000000000000000000000000000000000000000000000000000000000000000000000000000000000000000
310
0000000000000000000000000000000000000000000000000000000000000000000000000000000000000000000000000000000000000000000000000000000000000000000000000000000000000000000000000000F50000F5F5F50000F5000000000000F5F5F5F5F5F5F5F5F5F5F5F5F5F5F5F5F5F5F5F5F5F5F5F5F5F5
310
F5F5F5F5F5F5F5F5F5F5F5F5F5F5F5F5F5F5F5F5F5F5F5F5F5F5F5F5F5F5F5F5F5F5F5F5F5F5F5F5F5F5F5F5F5F5F5F5F5F5F5F5F5F5F5F5F5F5F5F5F5F5F5F5F5F5F5F5F5F5F5F5F5F5F5F5F5F5F5F5F5F5F5F5F5F5F5F5F5F5F5F5F5F5F5F5F5F5F5F5F5F5F5F5F5F5F5F5F5F5F5F5F5F5F5F5F5F5F5F5F5F5F5F5F5F5F5
310
F5F5F5F5F5F5F5F5F5F5F500F50000F5F5F50000F5000000000000F5000000000000000000000000000000000000000000000000000000000000DCDC0000DCDCDCDC0000DC00000000000000000000000000000000000000000000000000000000000000000000000000000000000000000000000000000000000000000000
310
000000000000000000000000000000000000000000000000000000000000000000000000000000000000000000000000000000000000000000000000000000F500F50000F5F5F50000F5000000000000F5000000000000000000000000000000000000000000000000000000000000DCDC0000DCDCDCDC0000DC0000000000
310
0000000000000000000000000000000000000000000000000000000000000000000000000000000000000000000000000000000000000000000000000000000000000000000000000000000000000000000000000000000000000000000000000000000000000000000000000000000000000000F500F50000F5F5F5000000
310
000000000000F5000000000000000000000000000000000000000000000000000000000000DCF0DCF0DCDCDCDCDCF0DC00000000000000000000000000000000000000000000000000000000000000000000000000000000000000000000000000000000000000000000000000000000000000000000000000000000000000
310
000000000000000000000000000000000000000000000000000000000000000000000000000000000000F500000000F5F5F5000000000000000000F500000000000000000000000000000000000000000000000000000000000000F0F0F0F0F000F02828F00000000000000000000000000000000000000000000000000000
310
0000000000000000000000000000000000000000000000000000000000000000000000000000000000000000000000000000000000000000000000000000000000000000000000000000000000000000000000000000000000000000000000F500000000F5F5F5000000000000000000F50000000000000000000000000000
310
0000000000000000000000000000000000F0F0F000F0F0F0F0F0F000000000000000000000000000000000000000000000000000000000000000000000000000000000000000000000000000000000000000000000000000000000000000000000000000000000000000000000000000000000000000000000000000000000
310
000000000000000000000000000000000000000000F500000000F5F5F5000000000000000000F500000000000000000000000000000000000000000000000000000000000000F0F0F0F0F0F0282828F00000000000000000000000000000000000000000000000000000000000000000000000000000000000000000000000
310
0000000000000000000000000000000000000000000000000000000000000000000000000000000000000000000000000000000000000000000000000000000000000000000000000000F500000000F5F5F5000000000000000000F500000000000000000000000000000000000000000000000000000000000000F0000000
310
0000F000000000000000000000000000000000000000000000000000000000000000000000000000000000000000000000000000000000000000000000000000000000000000000000000000000000000000000000000000000000000000000000000000000000000000000000000000000000000000000000000000000000
310
F500000000F5F5F5000000000000000000F500000000000000000000000000000000000000000000000000000000000000000000000000000000000000000000000000000000000000000000000000000000000000000000000000000000000000000000000000000000000000000000000000000000000000000000000000
310
0000000000000000000000000000000000000000000000000000000000000000000000000000000000000000000000000000000000F500000000F5F5F5000000000000000000F50000000000000000000000000000000000000000000000000000000000000000000000000000000000000000000000000000000000000000
310
00000000000000000000000000000000000000000000000000000000000000000000000000000000000000000000000000000000000000000000000000000000000000000000000000000000000000000000000000000000000000000000000000000000000000000000F500000000F5F5F5000000000000000000F5000000
310
00000000000000000000000000000000000000000000000000000000000000000000000000000000000000000000000000000000000000000000000000000000000000000000000000000000000000000000000000000000000000000000000000000000000000000000000000000000000000000000000000000000000000
310
0000000000000000000000000000000000000000000000000000000000000000F500000000F5F5F5000000000000000000F50000000000000000000000000000000000000000000000000000000000000000000000000000000000000000000000000000000000000000000000000000000000000000000000000000000000
310
00000000000000000000000000000000000000000000000000000000000000000000000000000000000000000000000000000000000000000000000000000000000000000000000000000000000000000000000000F500000000F5F5F50000F5000000000000F5000000000000000000000000000000000000000000000000
310
00000000000000000000000000000000000000000000000000000000000000000000000000000000000000000000000000000000000000000000000000000000000000000000000000000000000000000000000000000000000000000000000000000000000000000000000000000000000000000000000000000000000000
310
0000000000000000000000F500F50000F5F5F50000F5000000000000F500000000000000000000000000000000F0F0F0F0F0F0F0DCF0DCDCDCF0F0F0F0F0F0F0000000000000000000000000000000000000000000000000000000000000000000000000000000000000000000000000000000000000000000000000000000
310
00000000000000000000000000000000000000000000000000000000000000000000000000000000000000000000000000000000000000000000000000000000F500F50000F5F5F50000F5000000000000F500000000000000000000000000000000F0000000000000DCDCDCDCDC000000000000F000000000000000000000
310
000000000000000000000000000000000000000000000000000000000000000000000000000000000000000000000000000000000000000000000000000000000000000000000000000000000000000000000000000000000000000000000000000000000000000000000000000000000000000000F500F50000F5F5F50000
310
F5000000000000F500000000000000000000000000000000F0000000000000DC00DCDCDC000000000000F0000000000000000000000000000000000000000000000000000000000000000000000000000000000000000000000000000000000000000000000000000000000000000000000000000000000000000000000000
310
00000000000000000000000000000000000000000000000000000000000000000000000000000000000000F500F50000F5F5F50000F5000000000000F500000000000000000000000000000000F00000000000000000DC0000000000000000F000000000000000000000000000000000000000000000000000000000000000
310
000000000000000000000000000000000000000000000000000000000000000000000000000000000000000000000000000000000000000000000000000000000000000000000000000000000000000000000000000000000000000000000000F500F50000F5F5F50000F5000000000000F500000000000000000000000000
310
000000F000000000000000DC00DC00000000000000F0000000000000000000000000000000000000000000000000000000000000000000000000000000000000000000000000000000000000000000000000000000000000000000000000000000000000000000000000000000000000000000000000000000000000000000
310
00000000000000000000000000000000000000000000F500F50000F5F5F50000F5000000000000F500000000000000000000000000000000F0000000000000DCDCDCDC00000000000000F00000000000000000F000000000000000000000000000000000000000000000000000000000000000000000000000000000000000
310
000000000000000000000000000000000000000000000000000000000000000000000000000000000000000000000000000000000000000000000000000000000000000000000000000000F500F50000F5F5F50000F5000000000000F500000000000000000000000000000000F000000000000000DCDCDC00F0DCDCDCDCDC
310
DCDCDCDCDCDCDC00DCDC000000000000000000000000000000000000000000000000000000000000000000000000000000000000000000000000000000000000000000000000000000000000000000000000000000000000000000000000000000000000000000000000000000000000000000000000000000000000000000
310
00F500F50000F5F5F50000F5000000000000F500000000000000000000000000000000F000000000000000DCDCDCF000DC00DCDCDCDCDCDCDCDCDCDC00DCDC00000000000000000000000000000000000000000000000000000000000000000000000000000000000000000000000000000000000000000000000000000000
310
000000000000000000000000000000000000000000000000000000000000000000000000000000000000000000000000000000000000F500F50000F5F5F50000F5000000000000F500000000000000000000000000000000F00000000000000000F0F000000000000000F000000000000000DCDC0000000000000000000000
310
0000000000000000000000000000000000000000000000000000000000000000000000000000000000000000000000000000000000000000000000000000000000000000000000000000000000000000000000000000000000000000000000000000000000000000000000F500F50000F5F5F50000F5000000000000F50000
310
0000000000000000000000000000F00000000000000000F0F000000000000000F00000000000000000F000000000000000000000000000000000000000000000000000000000000000000000000000000000000000000000000000000000000000000000000000000000000000000000000000000000000000000000000000
310
000000000000000000000000000000000000000000000000000000000000000000F500F50000F5F5F50000F5000000000000F50000000000000000000000000000F5F5F0F5F5F5F5F5F5F5F5F0F5F5F5F5F5F5F5F5F0F0F0F0F0F0F0F0F0F0F0F0F0F0F0F0F0F0000000000000000000000000000000000000000000000000
310
0000000000000000000000000000000000000000000000000000000000000000000000000000000000000000000000000000000000000000000000000000000000000000000000000000000000000000000000000000F500F50000F5F5F50000F5000000000000F50000000000000000000000000000F5000000000000F5F5
310
F5F5F5F5F5F500000000000000F5000000000000F000000000F000F0F00000000000000000000000000000000000000000000000000000000000000000000000000000000000000000000000000000000000000000000000000000000000000000000000000000000000000000000000000000000000000000000000000000
310
000000000000000000000000F500F50000F5F5F50000F5000000000000F50000000000000000000000000000F500000000000000F50000F00000F500000000000000F5000000000000F000000000F000F000000000000000000000000000000000000000000000000000000000000000000000000000000000000000000000
310
0000000000000000000000000000000000000000000000000000000000000000000000000000000000000000000000000000000000000000000000000000000000F500F50000F5F5F50000F5000000000000F50000000000000000000000000000F500000000000000F50000F00000F500000000000000F500000000000000
310
00000000F000F0000000000000000000000000000000000000000000000000000000000000000000000000000000000000000000000000000000000000000000000000000000000000000000000000000000000000000000000000000000000000000000000000000000000000000000000000000000F500F50000F5F5F500
310
0000000000000000F50000000000000000000000000000F500000000000000F50000F00000F500000000000000F50000000000000000000000F000F000000000000000000000000000000000000000000000000000000000000000000000000000000000000000000000000000000000000000000000000000000000000000
310
0000000000000000000000000000000000000000000000000000000000000000000000000000000000000000F500000000F5F5F5000000000000000000F50000000000000000000000000000F500000000000000F50000F00000F500000000000000F50000000000000000000000F000F00000000000000000000000000000
310
00000000000000000000000000000000000000000000000000000000000000000000000000000000000000000000000000000000000000000000000000000000000000000000000000000000000000000000000000000000000000000000000000F500000000F5F5F5000000000000000000F5000000000000000000000000
310
0000F500000000000000F50000F00000F500000000000000F5000000000000000000DCDCF000F000000000000000000000000000000000000000000000000000000000000000000000000000000000000000000000000000000000000000000000000000000000000000000000000000000000000000000000000000000000
310
0000000000000000000000000000000000000000000000F500000000F5F5F5000000000000000000F50000000000000000000000000000F5F0F0F0F0F0F0F0F0F0F0F0F0F0F0F0F0F0F0F0F0F0F5000000000000000000DCDCF000F00000000000000000000000000000000000000000000000000000000000000000000000
310
00000000000000000000000000000000000000000000000000000000000000000000000000000000000000000000000000000000000000000000000000000000000000000000000000000000F500000000F5F5F5000000000000000000F50000000000000000000000000000F500000000000000F50000F00000F500000000
310
000000F5000000000000000000DCDCF000F000000000000000000000000000000000000000000000000000000000000000000000000000000000000000000000000000000000000000000000000000000000000000000000000000000000000000000000000000000000000000000000000000000000000000000000000000
310
0000F500000000F5F5F5000000000000000000F50000000000000000000000000000F5000000000000F5F5F5F5F5F5F5F500000000000000F5000000000000000000DCDCF000F00000000000000000000000000000000000000000000000000000000000000000000000000000000000000000000000000000000000000000
310
00000000000000000000000000000000000000000000000000000000000000000000000000000000000000000000000000000000000000F500000000F5F5F5000000000000000000F50000000000000000000000000000F500000000000000F5F5F5F5F5F5F500000000000000F5000000000000000000DCDCF000F0000000
310
000000000000000000000000000000000000000000000000000000000000000000000000000000000000000000000000000000000000000000000000000000000000000000000000000000000000000000000000000000000000000000000000000000000000000000000000F500000000F5F5F5000000000000000000F500
310
00000000000000000000000000F500000000000000000000F000000000000000000000F50000000000000000000000F000F00000000000000000000000000000000000000000000000000000000000000000000000000000000000000000000000000000000000000000000000000000000000000000000000000000000000
310
00000000000000000000000000000000000000000000000000000000000000000000F500000000F5F5F5000000000000000000F50000000000000000000000000000F500000000000000000000F000000000000000000000F500F5F5F5F5F5F5F5000000F000F0000000000000000000000000000000000000000000000000
310
000000000000000000000000000000000000000000000000000000000000000000000000000000000000000000000000000000000000000000000000000000000000000000000000000000000000000000000000000000F500000000F5F5F50000F5000000000000F50000000000000000000000000000F500000000000000
310
000000F000000000000000000000F500F5F5000000F5F5000000F000F00000000000000000000000000000000000000000000000000000000000000000000000000000000000000000000000000000000000000000000000000000000000000000000000000000000000000000000000000000000000000000000000000000
310
00000000000000000000000000F500F50000F5F5F50000F5000000000000F50000000000000000000000000000F500000000000000000000F000000000000000000000F5F5F5F500F000F5F5F50000F000F0000000000000000000000000000000000000000000000000000000000000000000000000000000000000000000
310
000000000000000000000000000000000000000000000000000000000000000000000000000000000000000000000000000000000000000000000000000000000000F500F50000F5F5F50000F5000000000000F50000000000000000000000000000F500000000000000000000F000000000000000000000F500F5F5F0F0F0
310
F5F5F50000F000F0000000000000000000000000000000000000000000000000000000000000000000000000000000000000000000000000000000000000000000000000000000000000000000000000000000000000000000000000000000000000000000000000000000000000000000000000000000F500F50000F5F5F5
310
0000F5000000000000F50000000000000000000000000000F500000000000000000000F00000000000000000F0F5F0F0F0F0F0F0F0F0F5F0F0F0F000F0000000000000000000000000000000000000000000000000000000000000000000000000000000000000000000000000000000000000000000000000000000000000
310
000000000000000000000000000000000000000000000000000000000000000000000000000000000000000000F500F50000F5F5F50000F5000000000000F50000000000000000000000000000F500000000000000000000F0000000000000000000F50000F5F5F0F0F0F5F50000000000F000000000000000000000000000
310
0000000000000000000000000000000000000000000000000000000000000000000000000000000000000000000000000000000000000000000000000000000000000000000000000000000000000000000000000000000000000000000000000000F500F50000F5F5F50000F5000000000000F50000000000000000000000
310
000000F500000000000000000000F000000000000000000000F500F5F5F0F0F0F5F5F5000000DCDC000000000000000000000000000000000000000000000000000000000000000000000000000000000000000000000000000000000000000000000000000000000000000000000000000000000000000000000000000000
310
000000000000000000000000000000000000000000000000F500F50000F5F5F50000F5000000000000F50000000000000000000000000000F500000000000000000000F000000000000000000000F5F5F5F5000000F5F5F5000000DCDC00000000000000000000000000000000000000000000000000000000000000000000
310
0000000000000000000000000000000000000000000000000000000000000000000000000000000000000000000000000000000000000000000000000000000000000000000000000000000000F500F50000F5F5F50000F5000000000000F50000000000000000000000000000F500000000000000000000F0000000000000
310
00000000F500F5F5F5F5F5F5F500000000DCDC000000000000000000000000000000000000000000000000000000000000000000000000000000000000000000000000000000000000000000000000000000000000000000000000000000000000000000000000000000000000000000000000000000000000000000000000
310
000000F500F50000F5F5F50000F5000000000000F50000000000000000000000000000F500000000000000000000F000000000000000000000F500000000000000000000000000F000000000000000000000000000000000000000000000000000000000000000000000000000000000000000000000000000000000000000
310
0000000000000000000000000000000000000000000000000000000000000000000000000000000000000000000000000000000000000000F500F50000F5F5F50000F5000000000000F50000000000000000000000000000F500000000000000000000F000000000000000000000F500000000000000000000000000F00000
310
00000000000000000000000000000000000000000000000000000000000000000000000000000000000000000000000000000000000000000000000000000000000000000000000000000000000000000000000000000000000000000000000000000000000000000000000000F500F50000F5F5F50000F5000000000000F5
310
0000000000000000000000000000F500000000000000000000F000000000000000000000F500000000000000000000000000F000000000000000000000000000000000000000000000000000000000000000000000000000000000000000000000000000000000000000000000000000000000000000000000000000000000
310
0000000000000000000000000000000000000000000000000000000000000000000000F500F50000F5F5F50000F5000000000000F50000000000000000000000000000F500000000000000000000F000000000000000000000F500000000000000000000000000F00000000000000000000000000000000000000000000000
310
00000000000000000000000000000000000000000000000000000000000000000000000000000000000000000000000000000000000000000000000000000000000000000000000000000000000000000000000000000000F500F50000F5F5F50000F5000000000000F50000000000000000000000000000F5000000000000
310
00000000F000000000000000000000F500000000000000000000000000F000000000000000000000000000000000000000000000000000000000000000000000000000000000000000000000000000000000000000000000000000000000000000000000000000000000000000000000000000000000000000000000000000
310
0000000000000000000000000000F500F50000F5F5F50000F5000000000000F50000000000000000000000000000F500000000000000000000F000000000000000000000F500000000000000000000000000F00000000000000000000000000000000000000000000000000000000000000000000000000000000000000000
310
00000000000000000000000000000000000000000000000000000000000000000000000000000000000000000000000000000000000000000000000000000000000000F500F50000F5F5F50000F5000000000000F50000000000000000000000000000F500000000000000000000F000000000000000000000F50000000000
310
0000000000000000F0000000000000000000000000000000000000000000000000000000000000000000000000000000000000000000000000000000000000000000000000000000000000000000000000000000000000000000000000000000000000000000000000000000000000000000000000000000F500F50000F5F5
310
F5000000000000000000F50000000000000000000000000000F500000000000000F5F5F5F5F5F5F500000000000000F500000000000000000000000000F00000000000000000000000000000000000000000000000000000000000000000000000000000000000000000000000000000000000000000000000000000000000
310
00000000000000000000000000000000000000000000000000000000000000000000000000000000000000000000F500000000F5F5F5000000000000000000F50000000000000000000000000000F5000000000000F5F5F5F5F5F5F5F500000000000000F500000000000000000000000000F0000000000000000000000000
310
000000000000000000000000000000000000000000000000000000000000000000000000000000000000000000000000000000000000000000000000000000000000000000000000000000000000000000000000000000000000000000000000000000F500000000F5F5F5000000000000000000F500000000000000000000
310
00000000F500000000000000F5F0F0F0F000F500000000000000F5000000000000000000DCDCF000F00000000000000000000000000000000000000000000000000000000000000000000000000000000000000000000000000000000000000000000000000000000000000000000000000000000000000000000000000000
310
00000000000000000000000000000000000000000000000000F500000000F5F5F5000000000000000000F50000000000000000000000000000F500000000000000F500F5F5F500F500000000000000F5000000000000000000DCDCF000F0000000000000000000000000000000000000000000000000000000000000000000
310
000000000000000000000000000000000000000000000000000000000000000000000000000000000000000000000000000000000000000000000000000000000000000000000000000000000000F500000000F5F5F5000000000000000000F50000000000000000000000000000F500000000000000F500F5F50000F50000
310
0000000000F5000000000000000000DCDCF000F00000000000000000000000000000000000000000000000000000000000000000000000000000000000000000000000000000000000000000000000000000000000000000000000000000000000000000000000000000000000000000000000000000000000000000000000
310
00000000F500000000F5F5F5000000000000000000F50000000000000000000000000000F500000000000000F50000F00000F500000000000000F5000000000000000000DCDCF000F0000000000000000000000000000000000000000000000000000000000000000000000000000000000000000000000000000000000000
310
000000000000000000000000000000000000000000000000000000000000000000000000000000000000000000000000000000000000000000F500000000F5F5F5000000000000000000F50000000000000000000000000000F500000000000000F50000F00000F500000000000000F50000000000000000000000F000F000
310
0000000000000000000000000000000000000000000000000000000000000000000000000000000000000000000000000000000000000000000000000000000000000000000000000000000000000000000000000000000000000000000000000000000000000000000000000000F500000000F5F5F5000000000000000000
310
F50000000000000000000000000000F0F5F5F5F5F5F5F5F5F5F5F5F5F5F5F5F5F5F5F5F5F5F0F0F0F0F0F0F0F0F0F0F0F0F000F0000000000000000000000000000000000000000000000000000000000000000000000000000000000000000000000000000000000000000000000000000000000000000000000000000000
310
000000000000000000000000000000000000000000000000000000000000000000000000F500000000F5F5F5000000000000000000F50000000000000000000000000000F000000000F5F5F5F5F5F5F5F5F5F5F5F5F500000000F00000000000000000000000F000F000000000000000000000000000000000000000000000
310
0000000000000000000000000000000000000000000000000000000000000000000000000000000000000000000000000000000000000000000000000000000000000000000000000000000000000000000000000000000000F500000000F5F5F50000F5000000000000F50000000000000000000000000000F00000000000
310
F5F5F5F5F5F5F5F5F500F50000000000F00000000000000000000000F000F0F00000000000000000000000000000000000000000000000000000000000000000000000000000000000000000000000000000000000000000000000000000000000000000000000000000000000000000000000000000000000000000000000
310
000000000000000000000000000000F500F50000F5F5F50000F5000000000000F50000000000000000000000000000F00000000000F5F5F5F5F5F5F5F5F5F5F0F0F0F0F0F0F0F0F0F0F0F0F0F0F0F0F0F0F0F0F0F0000000000000000000000000000000000000000000000000000000000000000000000000000000000000
310
0000000000000000000000000000000000000000000000000000000000000000000000000000000000000000000000000000000000000000000000000000000000000000F500F50000F5F5F50000F5000000000000F50000000000000000000000000000F000000000000000000000F000000000000000000000F000000000
310
00000000000000F00000000000000000000000000000000000000000000000000000000000000000000000000000000000000000000000000000000000000000000000000000000000000000000000000000000000000000000000000000000000000000000000000000000000000000000000000000000000F500F50000F5
310
F5F50000F5000000000000F50000000000000000000000000000F0000000000000000000DCDCDC000000000000000000F00000000000000000000000F0000000000000000000000000000000000000000000000000000000000000000000000000000000000000000000000000000000000000000000000000000000000000
310
0000000000000000000000000000000000000000000000000000000000000000000000000000000000000000000000F500F50000F5F5F50000F5000000000000F50000000000000000000000000000F0000000000000000000DCDCDC000000000000000000F000000000000000000000000000000000000000000000000000
310
00000000000000000000000000000000000000000000000000000000000000000000000000000000000000000000000000000000000000000000000000000000000000000000000000000000000000000000000000000000000000000000000000000000F500F50000F5F5F50000F5000000000000F5000000000000000000
310
0000000000F00000000000000000DCDC00DC000000000000000000F0000000000000000000000000000000000000000000000000000000000000000000000000000000000000000000000000000000000000000000000000000000000000000000000000000000000000000000000000000000000000000000000000000000
310
0000000000000000000000000000000000000000000000000000F500F50000F5F5F50000F5000000000000F50000000000000000000000000000F0000000000000000000DC00DC000000000000000000F000000000000000000000000000000000000000000000000000000000000000000000000000000000000000000000
310
00000000000000000000000000000000000000000000000000000000000000000000000000000000000000000000000000000000000000000000000000000000000000000000000000000000000000F500F50000F5F5F50000F5000000000000F50000000000000000000000000000F000000000000000000000DC00000000
310
000000000000F0000000000000000000000000000000000000000000000000000000000000000000000000000000000000000000000000000000000000000000000000000000000000000000000000000000000000000000000000000000000000000000000000000000000000000000000000000000000000000000000000
310
0000000000F500F50000F5F5F50000F5000000000000F50000000000000000000000000000F0000000000000000000000000000000000000000000F000000000000000000000000000000000000000000000000000000000000000000000000000000000000000000000000000000000000000000000000000000000000000
310
00000000000000000000000000000000000000000000000000000000000000000000000000000000000000000000000000000000000000000000F500F50000F5F5F50000F5000000000000F50000000000000000000000000000F0F0F0F0F0F0F0F0F0DCDCDCDCDCF0F0F0F0F0F0F0F0F00000000000000000000000000000
310
000000000000000000000000000000000000000000000000000000000000000000000000000000000000000000000000000000000000000000000000000000000000000000000000000000000000000000000000000000000000000000000000000000000000000000000000000000F500F50000F5F5F50000F50000000000
310
00F50000000000000000000000000000000000000000000000DCDCDCDCDC00000000000000000000000000000000000000000000000000000000000000000000000000000000000000000000000000000000000000000000000000000000000000000000000000000000000000000000000000000000000000000000000000
310
00000000000000000000000000000000000000000000000000000000000000000000000000F500F50000F5F5F50000F5000000000000F5000000000000000000000000000000000000000000000000000000000000000000000000000000000000000000000000000000000000000000000000000000000000000000000000
310
000000000000000000000000000000000000000000000000000000000000000000000000000000000000000000000000000000000000000000000000000000000000000000000000000000000000000000000000000000000000F500F50000F5F5F50000F5000000000000F500000000000000000000000000000000000000
310
00000000000000000000000000000000000000000000000000000000000000000000000000000000000000000000000000000000000000000000000000000000000000000000000000000000000000000000000000000000000000000000000000000000000000000000000000000000000000000000000000000000000000
310
00000000000000000000000000000000F500F50000F5F5F50000F5000000000000F50000000000000000000000000000F0F0F0F0F0F0F0F0F0F0F0F0F0F0F0F0F0F0F0F0F0F0F0F0F0F0F0F0F0F0F0000000000000000000000000000000000000000000000000000000000000000000000000000000000000000000000000
310
000000000000000000000000000000000000000000000000000000000000000000000000000000000000000000000000000000000000000000000000000000000000000000F500F50000F5F5F50000F5000000000000F50000000000000000000000000000F0F00000000000000000000000DCDCDCDCDC0000000000000000
310
000000F0F0000000000000000000000000000000000000000000000000000000000000000000000000000000000000000000000000000000000000000000000000000000000000000000000000000000000000000000000000000000000000000000000000000000000000000000000000000000000000000000F500F50000
310
F5F5F5000000000000000000F50000000000000000000000000000F000000000000000000000F000DCDCDCDCDC000000000000000000000000F0000000000000000000000000000000000000000000000000000000000000000000000000000000000000000000000000000000000000000000000000000000000000000000
310
000000000000000000000000000000000000000000000000000000000000000000000000000000000000000000000000F500000000F5F5F5000000000000000000F50000000000000000000000000000F000000000000000000000F00000DC0000DC000000000000000000000000F000000000000000000000000000000000
310
0000000000000000000000000000000000000000000000000000000000000000000000000000000000000000000000000000000000000000000000000000000000000000000000000000000000000000000000000000000000000000000000000000000000F500000000F5F5F5000000000000000000F50000000000000000
310
000000000000F0000000000000000000F5F5000000000000000000000000000000000000F0000000000000000000000000000000000000000000000000000000000000000000000000000000000000000000000000000000000000000000000000000000000000000000000000000000000000000000000000000000000000
310
000000000000000000000000000000000000000000000000000000F500000000F5F5F5000000000000000000F50000000000000000000000000000F0000000000000000000F5F5000000000000000000000000000000000000F000000000000000000000000000000000000000000000000000000000000000000000000000
310
0000000000000000000000000000000000000000000000000000000000000000000000000000000000000000000000000000000000000000000000000000000000000000000000000000000000000000F500000000F5F5F5000000000000000000F50000000000000000000000000000F0000000000000000000F5F5000000
310
000000000000000000000000000000F0000000000000000000000000000000000000000000000000000000000000000000000000000000000000000000000000000000000000000000000000000000000000000000000000000000000000000000000000000000000000000000000000000000000000000000000000000000
310
000000000000F500000000F5F5F5000000000000000000F50000000000000000000000000000F0000000000000000000F5F5000000000000000000000000000000000000F000000000000000000000000000000000000000000000000000000000000000000000000000000000000000000000000000000000000000000000
310
0000000000000000000000000000000000000000000000000000000000000000000000000000000000000000000000000000000000000000000000F500000000F5F5F5000000000000000000F50000000000000000000000000000F0000000000000000000F5F5F50000000000000000000000000000000000F00000000000
310
00000000000000000000000000000000000000000000000000000000000000000000000000000000000000000000000000000000000000000000000000000000000000000000000000000000000000000000000000000000000000000000000000000000000000000000000000000000F500000000F5F5F500000000000000
310
0000F50000000000000000000000000000F0000000000000F5F5F5F5F5F5F5F5F50000000000000000000000000000F000000000000000000000000000000000000000000000000000000000000000000000000000000000000000000000000000000000000000000000000000000000000000000000000000000000000000
310
0000000000000000000000000000000000000000000000000000000000000000000000000000F500000000F5F5F5000000000000000000F50000000000000000000000000000F000000000F5F5F5F50000F00000F5F5F5F500000000F0F0F0DCF0DCF0F0F00000000000000000000000000000000000000000000000000000
310
00000000000000000000000000000000000000000000000000000000000000000000000000000000000000000000000000000000000000000000000000000000000000000000000000000000000000000000000000000000000000F500000000F5F5F50000F5000000000000F50000000000000000000000000000F0000000
310
F5F50000000000F0000000000000F5000000F00000DCDCDC0000F000000000000000000000000000000000000000000000000000000000000000000000000000000000000000000000000000000000000000000000000000000000000000000000000000000000000000000000000000000000000000000000000000000000
310
0000000000000000000000000000000000F500F50000F5F5F50000F5000000000000F50000000000000000000000000000F00000F5F5000000000000F0000000000000F5000000F00000DCDCDC0000F00000000000000000000000000000000000000000000000000000000000000000000000000000000000000000000000
310
00000000000000000000000000000000000000000000000000000000000000000000000000000000000000000000000000000000000000000000000000000000000000000000F500F50000F5F5F50000F5000000000000F50000000000000000000000000000F000F5F500000000F5F5F5F5F5F50000000000F5F500F00000
310
0000000000F0000000000000000000000000000000000000000000000000000000000000000000000000000000000000000000000000000000000000000000000000000000000000000000000000000000000000000000000000000000000000000000000000000000000000000000000000000000000000000000F500F500
310
00F5F5F50000F5000000000000F50000000000000000000000000000F000F500000000F500F5F0F0F5F5F50000000000F5F5F000000000000000F00000000000000000000000000000000000000000000000000000000000000000000000000000000000000000000000000000000000000000000000000000000000000000
310
00000000000000000000000000000000000000000000000000000000000000000000000000000000000000000000000000F500F50000F5F5F50000F5000000000000F50000000000000000000000000000F0F500000000F5F5F5F0F5F5F0F0F5F500000000F5F5F000F5F5F5F5F5F5F0F0F0F0F0F0F0F00000000000000000
310
000000000000000000000000000000000000000000000000000000000000000000000000000000000000000000000000000000000000000000000000000000000000000000000000000000000000000000000000000000000000000000000000000000000000F500F50000F5F5F50000F5000000000000F500000000000000
310
00000000000000F0F500000000F5F0F0F5F5F5F500F000F500000000F5F5F5F5F5000000F5F5000000000000F000000000000000000000000000000000000000000000000000000000000000000000000000000000000000000000000000000000000000000000000000000000000000000000000000000000000000000000
310
00000000000000000000000000000000000000000000000000000000F500F50000F5F5F50000F5000000000000F50000000000000000000000000000F0F5000000F5F000F5F500F000F5F5F0F5F5000000F5F000F5F5000000F5F5F50000000000F00000000000000000000000000000000000000000000000000000000000
310
000000000000000000000000000000000000000000000000000000000000000000000000000000000000000000000000000000000000000000000000000000000000000000000000000000000000000000F500F50000F5F5F50000F5000000000000F50000000000000000000000000000F0F5000000F5F000F50000F00000
310
F500F0F5000000F5F000F5F5000000F5F50000000000DCDC00000000000000000000000000000000000000000000000000000000000000000000000000000000000000000000000000000000000000000000000000000000000000000000000000000000000000000000000000000000000000000000000000000000000000
310
00000000000000F500F50000F5F5F50000F5000000000000F5000000000000000000000000F0F0F0F5F0F0F0F5F0F5F5F0F0F0F0F0F5F5F0F5F0F0F0F5F0F0F5F5F0F0F0F5F5F0F0F0F0DCDCDCF0F0F0F000000000000000000000000000000000000000000000000000000000000000000000000000000000000000000000
310
000000000000000000000000000000000000000000000000000000000000000000000000000000000000000000000000000000000000000000000000F500F50000F5F5F50000F5000000000000F50000000000000000000000000000F5F5000000F5F500F50000F00000F500F0F5000000F5F500F5F5000000F5F500000000
310
DCDCDC000000F000000000000000000000000000000000000000000000000000000000000000000000000000000000000000000000000000000000000000000000000000000000000000000000000000000000000000000000000000000000000000000000000000000000000000000000F500F50000F5F5F50000F5000000
310
000000F50000000000000000000000000000F5F5000000F5F500F5F500F000F5F5F0F5F5000000F50000F5F5000000F5F5F50000000000F0000000F000000000000000000000000000000000000000000000000000000000000000000000000000000000000000000000000000000000000000000000000000000000000000
310
000000000000000000000000000000000000000000000000000000000000000000000000000000F500F50000F5F5F50000F5000000000000F5000000000000000000000000000000F5000000F500F5F5F5F5F5F5F500F0F500000000F5F5F5F5F5000000F5F5000000000000F0000000F00000000000000000000000000000
310
0000000000000000000000000000000000000000000000000000000000000000000000000000000000000000000000000000000000000000000000000000000000000000000000000000000000000000000000000000000000000000F500F50000F5F5F50000F5000000000000F5000000000000000000000000000000F500
310
000000F5F50000F5F50000F0F5F5000000F5F50000F5F5F5F0F5F5F0F0F0F0F0F0F0F000DCDCF000000000000000000000000000000000000000000000000000000000000000000000000000000000000000000000000000000000000000000000000000000000000000000000000000000000000000000000000000000000
310
000000000000000000000000000000000000F500F50000F5F5F50000F5000000000000F500000000000000000000000000000000F5000000F500F5F5F5F0F0F0F5F500000000F5F500000000F5F000F5000000000000000000DCDCDC0000000000000000000000000000000000000000000000000000000000000000000000
310
0000000000000000000000000000000000000000000000000000000000000000000000000000000000000000000000000000000000000000000000000000000000000000000000F500F50000F5F5F50000F5000000000000F500000000000000000000000000000000F500000000F5F5F5F5F5F5F5F500000000F5F5000000
310
0000F5F000F5000000000000000000DCDCF000000000000000000000000000000000000000000000000000000000000000000000000000000000000000000000000000000000000000000000000000000000000000000000000000000000000000000000000000000000000000000000000000000000000000000000F500F5
310
0000F5F5F5000000000000000000F50000000000000000000000000000000000F5F5000000000000F0000000000000F5F5000000000000F5F000F5000000000000000000DCDCF00000000000000000000000000000000000000000000000000000000000000000000000000000000000000000000000000000000000000000
310
0000000000000000000000000000000000000000000000000000000000000000000000000000000000000000000000000000F500000000F5F5F5000000000000000000F50000000000000000000000000000000000F500F50000000000F0000000000000F500000000000000F5F0F5F5000000000000000000DCDCDC000000
310
00000000000000000000000000000000000000000000000000000000000000000000000000000000000000000000000000000000000000000000000000000000000000000000000000000000000000000000000000000000000000000000000000000000000000F500000000F5F5F5000000000000000000F5000000000000
310
000000000000000000000000F5F50000000000F00000000000F50000000000000000F5F0F5F50000000000000000000000F00000000000000000000000000000000000000000000000000000000000000000000000000000000000000000000000000000000000000000000000000000000000000000000000000000000000
310
0000000000000000000000000000000000000000000000000000000000F500000000F5F5F5000000000000000000F50000000000000000000000000000000000000000F5F5F5F5F5F5F5F5F5F5F5000000000000000000F5F0F5F50000000000000000000000F0000000000000000000000000000000000000000000000000
310
00000000000000000000000000000000000000000000000000000000000000000000000000000000000000000000000000000000000000000000000000000000000000000000000000000000000000000000F500000000F5F5F5000000000000000000F500000000000000000000000000000000000000000000F5F5F5F5F5
310
F5F50000000000000000000000F5F0F5F50000000000000000000000F00000000000000000000000000000000000000000000000000000000000000000000000000000000000000000000000000000000000000000000000000000000000000000000000000000000000000000000000000000000000000000000000000000
310
0000000000000000F500000000F5F5F5000000000000000000F5000000000000000000000000000000000000000000000000F5F50000000000000000000000000000F5F0F5F5F0F0F0F0F0F0F0F0F0F0F0F0000000000000000000000000000000000000000000000000000000000000000000000000000000000000000000
310
00000000000000000000000000000000000000000000000000000000000000000000000000000000000000000000000000000000000000000000000000F500000000F5F5F5000000000000000000F5000000000000000000000000000000000000000000000000F5F5000000000000000000000000000000F0F00000000000
310
000000000000000000000000000000000000000000000000000000000000000000000000000000000000000000000000000000000000000000000000000000000000000000000000000000000000000000000000000000000000000000000000000000000000000000000000000000000000F500000000F5F5F50000000000
310
00000000F5000000000000000000000000000000000000000000000000F5F500000000000000000000000000000000F0F0F0F0F0F0F0F0F00000000000000000000000000000000000000000000000000000000000000000000000000000000000000000000000000000000000000000000000000000000000000000000000
310
00000000000000000000000000000000000000000000000000000000000000000000000000000000F500000000F5F5F5000000000000000000F5000000000000000000000000000000000000000000000000F5F50000000000000000000000000000000000DCDCDCDCDCDCDCDC000000000000000000000000000000000000
310
000000000000000000000000000000000000000000000000000000000000000000000000000000000000000000000000000000000000000000000000000000000000000000000000000000000000000000000000000000000000000000F500000000F5F5F50000F5000000000000F500000000000000000000000000000000
310
000000000000000000F00000000000000000000000000000000000DCDCDCDCDCDCDCDC0000000000000000000000000000000000000000000000000000000000000000000000000000000000000000000000000000000000000000000000000000000000000000000000000000000000000000000000000000000000000000
310
00000000000000000000000000000000000000F500F50000F5F5F50000F5000000000000F500000000000000000000000000000000000000000000000000F000000000000000000000000000000000000000000000000000000000000000000000000000000000000000000000000000000000000000000000000000000000
310
000000000000000000000000000000000000000000000000000000000000000000000000000000000000000000000000000000000000000000000000000000000000000000000000F500F50000F5F5F50000F5000000000000F500000000000000000000000000000000000000000000000000000000000000000000000000
310
0000000000000000000000000000000000000000000000000000000000000000000000000000000000000000000000000000000000000000000000000000000000000000000000000000000000000000000000000000000000000000000000000000000000000000000000000000000000000000000000000000000000F500
310
F50000F5F5F50000F5000000000000F5000000000000000000000000000000000000000000000000000000000000000000000000000000000000000000000000000000000000000000000000000000000000000000000000000000000000000000000000000000000000000000000000000000000000000000000000000000
310
000000000000000000000000000000000000000000000000000000000000000000000000000000000000000000000000000000F500F50000F5F5F50000F5000000000000F500000000000000000000000000000000000000000000000000000000000000000000000000000000000000000000000000000000000000000000
310
0000000000000000000000000000000000000000000000000000000000000000000000000000000000000000000000000000000000000000000000000000000000000000000000000000000000000000000000000000000000000000000000000000000000000000F500F50000F5F5F50000F5000000000000F5F5F5F5F5F5
310
F5F5F5F5F5F5F5F5F5F5F5F5F5F5F5F5F5F5F5F5F5F5F5F5F5F5F5F5F5F5F5F5F5F5F5F5F5F5F5F5F5F5F5F5F5F5F5F5F5F5F5F5F5F5F5F5F5F5F5F5F5F5F5F5F5F5F5F5F5F5F5F5F5F5F5F5F5F5F5F5F5F5F5F5F5F5F5F5F5F5F5F5F5F5F5F5F5F5F5F5F5F5F5F5F5F5F5F5F5F5F5F5F5F5F5F5F5F5F5F5F5F5F5F5F5F5F5
310
F5F5F5F5F5F5F5F5F5F5F5F5F5F5F5F5F5F5F5F5F5F5F5F5F5F5F5F5F5F5F500F50000F5F5F50000F50000000000000000000000000000000000000000000000000000000000000000000000000000000000000000000000000000000000000000000000000000000000000000000000000000000000000000000000000000
310
00000000000000000000000000000000000000000000000000000000000000000000000000000000000000000000000000000000000000000000000000000000000000000000000000000000000000000000000000F50000F5F5F50000F5F5F5F5F5F5F5F5000000000000000000F5F5F5F5F5F5F5F5F5F5F5F5F5F5F5F500
310
0000000000000000F5F5F5F5F5F5F5F5F5F5F5F5F5F5F5F50000000000000000F5F5F5F5F5F5F5F5F5F5F5F5F5F5F5F5000000000000000000F5F5F5F5F5F5F5F5F5F5F5F5F5F5F5F50000000000000000F5F5F5F5F5F5F5F5F5F5F5F5F5F5F5F5000000000000000000F5F5F5F5F5F5F5F5F5F5F5F5F5F5F5F50000000000
310
00000000F5F5F5F5F5F5F5F50000F5F5F50000000000000000000000000000000000000000000000000000000000000000000000000000000000000000000000000000000000000000000000000000000000000000000000000000000000000000000000000000000000000000000000000000000000000000000000000000
310
00000000000000000000000000000000000000000000000000000000000000000000000000000000000000000000000000000000000000000000000000000000000000F5F5F5000000000000000000000000000000000000000000000000000000000000000000000000000000000000000000000000000000000000000000
310
000000000000000000000000000000000000000000000000000000000000000000000000000000000000000000000000000000000000000000000000000000000000000000000000000000000000000000000000000000000000000000000000000000000000000000000000000000000000000000000000F5E1F5F5F5F5F5
310
F5F5F5F5F5F5F5F5F5F5F5F5F5F5F5F5F5F5F5F5F5F5F5F5F5F5F5F5F5F5F5F5F5F5F5F5F5F5F5F5F5F5F5F5F5F5F5F5F5F5F5F5F5F5F5F5F5F5F5F5F5F5F5F5F5F5F5F5F5F5F5F5F5F5F5F5F5F5F5F5F5F5F5F5F5F5F5F5F5F5F5F5F5F5F5F5F5F5F5F5F5F5F5F5F5F5F5F5F5F5F5F5F5F5F5F5F5F5F5F5F5F5F5F5F5F5F5
310
F5F5F5F5F5F5F5F5F5F5F5F5F5F5F5F5F5F5F5F5F5F5F5F5F5F5F5F5F5F5F5F5F5F5F5F5F5F5F5F5F5F5F5F5F5F5F5E1
  0
XRECORD
  5
3101
102
{ACAD_REACTORS
330
2F8E
102
}
330
2F8E
100
AcDbXrecord
280
     1
102
MATERIAL
148
0.0
149
0.0
149
0.0
 93
        0
 94
      127
282
     0
 72
     0
 77
     0
171
     0
175
     0
179
     0
273
     0
  0
XRECORD
  5
2F90
102
{ACAD_REACTORS
330
2F8E
102
}
330
2F8E
100
AcDbXrecord
280
     1
270
     1
271
     1
  0
XRECORD
  5
2F8F
102
{ACAD_REACTORS
330
2F8E
102
}
330
2F8E
100
AcDbXrecord
280
     1
270
     1
271
     1
  0
XRECORD
  5
2F93
102
{ACAD_REACTORS
330
2F8E
102
}
330
2F8E
100
AcDbXrecord
280
     1
270
     1
271
     1
  0
XRECORD
  5
2F92
102
{ACAD_REACTORS
330
2F8E
102
}
330
2F8E
100
AcDbXrecord
280
     1
270
     1
271
     1
  0
XRECORD
  5
2F94
102
{ACAD_REACTORS
330
2F8E
102
}
330
2F8E
100
AcDbXrecord
280
     1
270
     1
271
     1
  0
XRECORD
  5
2F91
102
{ACAD_REACTORS
330
2F8E
102
}
330
2F8E
100
AcDbXrecord
280
     1
270
     1
271
     1
  0
XRECORD
  5
3100
102
{ACAD_REACTORS
330
2F86
102
}
330
2F86
100
AcDbXrecord
280
     1
102
MATERIAL
148
0.0
149
0.0
149
0.0
 93
        0
 94
      127
282
     0
 72
     0
 77
     0
171
     0
175
     0
179
     0
273
     0
  0
XRECORD
  5
2F88
102
{ACAD_REACTORS
330
2F86
102
}
330
2F86
100
AcDbXrecord
280
     1
270
     1
271
     1
  0
XRECORD
  5
2F87
102
{ACAD_REACTORS
330
2F86
102
}
330
2F86
100
AcDbXrecord
280
     1
270
     1
271
     1
  0
XRECORD
  5
2F8B
102
{ACAD_REACTORS
330
2F86
102
}
330
2F86
100
AcDbXrecord
280
     1
270
     1
271
     1
  0
XRECORD
  5
2F8A
102
{ACAD_REACTORS
330
2F86
102
}
330
2F86
100
AcDbXrecord
280
     1
270
     1
271
     1
  0
XRECORD
  5
2F8C
102
{ACAD_REACTORS
330
2F86
102
}
330
2F86
100
AcDbXrecord
280
     1
270
     1
271
     1
  0
XRECORD
  5
2F89
102
{ACAD_REACTORS
330
2F86
102
}
330
2F86
100
AcDbXrecord
280
     1
270
     1
271
     1
  0
XRECORD
  5
3102
102
{ACAD_REACTORS
330
2F96
102
}
330
2F96
100
AcDbXrecord
280
     1
102
MATERIAL
148
0.0
149
0.0
149
0.0
 93
        0
 94
      127
282
     0
 72
     0
 77
     0
171
     0
175
     0
179
     0
273
     0
  0
XRECORD
  5
2F98
102
{ACAD_REACTORS
330
2F96
102
}
330
2F96
100
AcDbXrecord
280
     1
270
     1
271
     1
  0
XRECORD
  5
2F97
102
{ACAD_REACTORS
330
2F96
102
}
330
2F96
100
AcDbXrecord
280
     1
270
     1
271
     1
  0
XRECORD
  5
2F9B
102
{ACAD_REACTORS
330
2F96
102
}
330
2F96
100
AcDbXrecord
280
     1
270
     1
271
     1
  0
XRECORD
  5
2F9A
102
{ACAD_REACTORS
330
2F96
102
}
330
2F96
100
AcDbXrecord
280
     1
270
     1
271
     1
  0
XRECORD
  5
2F9C
102
{ACAD_REACTORS
330
2F96
102
}
330
2F96
100
AcDbXrecord
280
     1
270
     1
271
     1
  0
XRECORD
  5
2F99
102
{ACAD_REACTORS
330
2F96
102
}
330
2F96
100
AcDbXrecord
280
     1
270
     1
271
     1
  0
XRECORD
  5
30F4
102
{ACAD_REACTORS
330
30F3
102
}
330
30F3
100
AcDbXrecord
280
     1
102
ACAD_ROUNDTRIP_2012_MLEADER_STYLE
298
     1
  0
XRECORD
  5
30FF
102
{ACAD_REACTORS
330
30FE
102
}
330
30FE
100
AcDbXrecord
280
     1
102
SHADEPLOT
 70
     0
102
SHADEPLOTRESLEVEL
 70
     2
102
SHADEPLOTCUSTOMDPI
 70
   300
  0
CELLSTYLEMAP
  5
30F2
102
{ACAD_REACTORS
330
303F
102
}
330
303F
100
AcDbCellStyleMap
 90
        3
300
CELLSTYLE
  1
TABLEFORMAT_BEGIN
 90
        5
170
     1
 91
        0
 92
    32768
 62
   257
 93
        1
300
CONTENTFORMAT
  1
CONTENTFORMAT_BEGIN
 90
        0
 91
        0
 92
      512
 93
        0
300

 40
0.0
140
1.0
 94
        5
 62
     0
340
10
144
6.0
309
CONTENTFORMAT_END
171
     1
301
MARGIN
  1
CELLMARGIN_BEGIN
 40
1.5
 40
1.5
 40
1.5
 40
1.5
 40
4.5
 40
4.5
309
CELLMARGIN_END
 94
        6
 95
        1
302
GRIDFORMAT
  1
GRIDFORMAT_BEGIN
 90
        0
 91
        1
 62
     0
 92
       -2
340
0
 93
        0
 40
1.125
309
GRIDFORMAT_END
 95
        2
302
GRIDFORMAT
  1
GRIDFORMAT_BEGIN
 90
        0
 91
        1
 62
     0
 92
       -2
340
0
 93
        0
 40
1.125
309
GRIDFORMAT_END
 95
        4
302
GRIDFORMAT
  1
GRIDFORMAT_BEGIN
 90
        0
 91
        1
 62
     0
 92
       -2
340
0
 93
        0
 40
1.125
309
GRIDFORMAT_END
 95
        8
302
GRIDFORMAT
  1
GRIDFORMAT_BEGIN
 90
        0
 91
        1
 62
     0
 92
       -2
340
0
 93
        0
 40
1.125
309
GRIDFORMAT_END
 95
       16
302
GRIDFORMAT
  1
GRIDFORMAT_BEGIN
 90
        0
 91
        1
 62
     0
 92
       -2
340
0
 93
        0
 40
1.125
309
GRIDFORMAT_END
 95
       32
302
GRIDFORMAT
  1
GRIDFORMAT_BEGIN
 90
        0
 91
        1
 62
     0
 92
       -2
340
0
 93
        0
 40
1.125
309
GRIDFORMAT_END
309
TABLEFORMAT_END
  1
CELLSTYLE_BEGIN
 90
        1
 91
        1
300
_TITLE
309
CELLSTYLE_END
300
CELLSTYLE
  1
TABLEFORMAT_BEGIN
 90
        5
170
     1
 91
        0
 92
        0
 62
   257
 93
        1
300
CONTENTFORMAT
  1
CONTENTFORMAT_BEGIN
 90
        0
 91
        0
 92
      512
 93
        0
300

 40
0.0
140
1.0
 94
        5
 62
     0
340
10
144
4.5
309
CONTENTFORMAT_END
171
     1
301
MARGIN
  1
CELLMARGIN_BEGIN
 40
1.5
 40
1.5
 40
1.5
 40
1.5
 40
4.5
 40
4.5
309
CELLMARGIN_END
 94
        6
 95
        1
302
GRIDFORMAT
  1
GRIDFORMAT_BEGIN
 90
        0
 91
        1
 62
     0
 92
       -2
340
0
 93
        0
 40
1.125
309
GRIDFORMAT_END
 95
        2
302
GRIDFORMAT
  1
GRIDFORMAT_BEGIN
 90
        0
 91
        1
 62
     0
 92
       -2
340
0
 93
        0
 40
1.125
309
GRIDFORMAT_END
 95
        4
302
GRIDFORMAT
  1
GRIDFORMAT_BEGIN
 90
        0
 91
        1
 62
     0
 92
       -2
340
0
 93
        0
 40
1.125
309
GRIDFORMAT_END
 95
        8
302
GRIDFORMAT
  1
GRIDFORMAT_BEGIN
 90
        0
 91
        1
 62
     0
 92
       -2
340
0
 93
        0
 40
1.125
309
GRIDFORMAT_END
 95
       16
302
GRIDFORMAT
  1
GRIDFORMAT_BEGIN
 90
        0
 91
        1
 62
     0
 92
       -2
340
0
 93
        0
 40
1.125
309
GRIDFORMAT_END
 95
       32
302
GRIDFORMAT
  1
GRIDFORMAT_BEGIN
 90
        0
 91
        1
 62
     0
 92
       -2
340
0
 93
        0
 40
1.125
309
GRIDFORMAT_END
309
TABLEFORMAT_END
  1
CELLSTYLE_BEGIN
 90
        2
 91
        1
300
_HEADER
309
CELLSTYLE_END
300
CELLSTYLE
  1
TABLEFORMAT_BEGIN
 90
        5
170
     1
 91
        0
 92
        0
 62
   257
 93
        1
300
CONTENTFORMAT
  1
CONTENTFORMAT_BEGIN
 90
        0
 91
        0
 92
      512
 93
        0
300

 40
0.0
140
1.0
 94
        2
 62
     0
340
10
144
4.5
309
CONTENTFORMAT_END
171
     1
301
MARGIN
  1
CELLMARGIN_BEGIN
 40
1.5
 40
1.5
 40
1.5
 40
1.5
 40
4.5
 40
4.5
309
CELLMARGIN_END
 94
        6
 95
        1
302
GRIDFORMAT
  1
GRIDFORMAT_BEGIN
 90
        0
 91
        1
 62
     0
 92
       -2
340
0
 93
        0
 40
1.125
309
GRIDFORMAT_END
 95
        2
302
GRIDFORMAT
  1
GRIDFORMAT_BEGIN
 90
        0
 91
        1
 62
     0
 92
       -2
340
0
 93
        0
 40
1.125
309
GRIDFORMAT_END
 95
        4
302
GRIDFORMAT
  1
GRIDFORMAT_BEGIN
 90
        0
 91
        1
 62
     0
 92
       -2
340
0
 93
        0
 40
1.125
309
GRIDFORMAT_END
 95
        8
302
GRIDFORMAT
  1
GRIDFORMAT_BEGIN
 90
        0
 91
        1
 62
     0
 92
       -2
340
0
 93
        0
 40
1.125
309
GRIDFORMAT_END
 95
       16
302
GRIDFORMAT
  1
GRIDFORMAT_BEGIN
 90
        0
 91
        1
 62
     0
 92
       -2
340
0
 93
        0
 40
1.125
309
GRIDFORMAT_END
 95
       32
302
GRIDFORMAT
  1
GRIDFORMAT_BEGIN
 90
        0
 91
        1
 62
     0
 92
       -2
340
0
 93
        0
 40
1.125
309
GRIDFORMAT_END
309
TABLEFORMAT_END
  1
CELLSTYLE_BEGIN
 90
        3
 91
        2
300
_DATA
309
CELLSTYLE_END
  0
XRECORD
  5
3133
102
{ACAD_REACTORS
330
303F
102
}
330
303F
100
AcDbXrecord
280
     1
102
ACAD_ROUNDTRIP_PRE2007_TABLESTYLE
 90
      512
 91
        0
  1

 92
      512
 93
        0
  2

 94
      512
 95
        0
  3

  0
XRECORD
  5
310E
102
{ACAD_REACTORS
330
310D
102
}
330
310D
100
AcDbXrecord
280
     1
102
RTVSPropertyOp0
 70
     1
102
RTVSPropertyOp1
 70
     1
102
RTVSPropertyOp2
 70
     1
102
RTVSPropertyOp3
 70
     1
102
RTVSPropertyOp4
 70
     1
102
RTVSPropertyOp5
 70
     1
102
RTVSPropertyOp6
 70
     1
102
RTVSPropertyOp7
 70
     1
102
RTVSPropertyOp8
 70
     1
102
RTVSPropertyOp9
 70
     1
102
RTVSPropertyOp10
 70
     1
102
RTVSPropertyOp11
 70
     1
102
RTVSPropertyOp12
 70
     1
102
RTVSPropertyOp13
 70
     1
102
RTVSPropertyOp14
 70
     1
102
RTVSPropertyOp15
 70
     1
102
RTVSPropertyOp16
 70
     1
102
RTVSPropertyOp17
 70
     1
102
RTVSPropertyOp18
 70
     1
102
RTVSPropertyOp19
 70
     1
102
RTVSPropertyOp20
 70
     1
102
RTVSPropertyOp21
 70
     1
102
RTVSPropertyOp22
 70
     1
102
RTVSPropertyOp23
 70
     1
102
RTVSPropertyOp24
 70
     1
102
RTVSPropertyOp25
 70
     1
102
RTVSPropertyOp26
 70
     1
102
RTVSPropertyOp27
 70
     1
102
RTVSPropertyOp28
 70
     1
102
RTVSPropertyOp29
 70
     1
102
RTVSPropertyOp30
 70
     1
102
RTVSPropertyOp31
 70
     1
102
RTVSPropertyOp32
 70
     1
  0
XRECORD
  5
310C
102
{ACAD_REACTORS
330
310B
102
}
330
310B
100
AcDbXrecord
280
     1
102
RTVSPropertyOp0
 70
     1
102
RTVSPropertyOp1
 70
     1
102
RTVSPropertyOp2
 70
     1
102
RTVSPropertyOp3
 70
     1
102
RTVSPropertyOp4
 70
     1
102
RTVSPropertyOp5
 70
     1
102
RTVSPropertyOp6
 70
     1
102
RTVSPropertyOp7
 70
     1
102
RTVSPropertyOp8
 70
     1
102
RTVSPropertyOp9
 70
     1
102
RTVSPropertyOp10
 70
     1
102
RTVSPropertyOp11
 70
     1
102
RTVSPropertyOp12
 70
     1
102
RTVSPropertyOp13
 70
     1
102
RTVSPropertyOp14
 70
     1
102
RTVSPropertyOp15
 70
     1
102
RTVSPropertyOp16
 70
     1
102
RTVSPropertyOp17
 70
     1
102
RTVSPropertyOp18
 70
     1
102
RTVSPropertyOp19
 70
     1
102
RTVSPropertyOp20
 70
     1
102
RTVSPropertyOp21
 70
     1
102
RTVSPropertyOp22
 70
     1
102
RTVSPropertyOp23
 70
     1
102
RTVSPropertyOp24
 70
     1
102
RTVSPropertyOp25
 70
     1
102
RTVSPropertyOp26
 70
     1
102
RTVSPropertyOp27
 70
     1
102
RTVSPropertyOp28
 70
     1
102
RTVSPropertyOp29
 70
     1
102
RTVSPropertyOp30
 70
     1
102
RTVSPropertyOp31
 70
     1
102
RTVSPropertyOp32
 70
     1
  0
XRECORD
  5
311A
102
{ACAD_REACTORS
330
3119
102
}
330
3119
100
AcDbXrecord
280
     1
102
RTVSPropertyOp0
 70
     1
102
RTVSPropertyOp1
 70
     1
102
RTVSPropertyOp2
 70
     1
102
RTVSPropertyOp3
 70
     1
102
RTVSPropertyOp4
 70
     1
102
RTVSPropertyOp5
 70
     1
102
RTVSPropertyOp6
 70
     1
102
RTVSPropertyOp7
 70
     1
102
RTVSPropertyOp8
 70
     1
102
RTVSPropertyOp9
 70
     1
102
RTVSPropertyOp10
 70
     1
102
RTVSPropertyOp11
 70
     1
102
RTVSPropertyOp12
 70
     1
102
RTVSPropertyOp13
 70
     1
102
RTVSPropertyOp14
 70
     1
102
RTVSPropertyOp15
 70
     1
102
RTVSPropertyOp16
 70
     1
102
RTVSPropertyOp17
 70
     1
102
RTVSPropertyOp18
 70
     1
102
RTVSPropertyOp19
 70
     1
102
RTVSPropertyOp20
 70
     1
102
RTVSPropertyOp21
 70
     1
102
RTVSPropertyOp22
 70
     1
102
RTVSPropertyOp23
 70
     1
102
RTVSPropertyOp24
 70
     1
102
RTVSPropertyOp25
 70
     1
102
RTVSPropertyOp26
 70
     1
102
RTVSPropertyOp27
 70
     1
102
RTVSPropertyOp28
 70
     1
102
RTVSPropertyOp29
 70
     1
102
RTVSPropertyOp30
 70
     1
102
RTVSPropertyOp31
 70
     1
102
RTVSPropertyOp32
 70
     1
  0
XRECORD
  5
3122
102
{ACAD_REACTORS
330
3121
102
}
330
3121
100
AcDbXrecord
280
     1
102
RTVSPropertyOp0
 70
     1
102
RTVSPropertyOp1
 70
     1
102
RTVSPropertyOp2
 70
     1
102
RTVSPropertyOp3
 70
     1
102
RTVSPropertyOp4
 70
     1
102
RTVSPropertyOp5
 70
     1
102
RTVSPropertyOp6
 70
     1
102
RTVSPropertyOp7
 70
     1
102
RTVSPropertyOp8
 70
     1
102
RTVSPropertyOp9
 70
     1
102
RTVSPropertyOp10
 70
     1
102
RTVSPropertyOp11
 70
     1
102
RTVSPropertyOp12
 70
     1
102
RTVSPropertyOp13
 70
     1
102
RTVSPropertyOp14
 70
     1
102
RTVSPropertyOp15
 70
     1
102
RTVSPropertyOp16
 70
     1
102
RTVSPropertyOp17
 70
     1
102
RTVSPropertyOp18
 70
     1
102
RTVSPropertyOp19
 70
     1
102
RTVSPropertyOp20
 70
     1
102
RTVSPropertyOp21
 70
     1
102
RTVSPropertyOp22
 70
     1
102
RTVSPropertyOp23
 70
     1
102
RTVSPropertyOp24
 70
     1
102
RTVSPropertyOp25
 70
     1
102
RTVSPropertyOp26
 70
     1
102
RTVSPropertyOp27
 70
     1
102
RTVSPropertyOp28
 70
     1
102
RTVSPropertyOp29
 70
     1
102
RTVSPropertyOp30
 70
     1
102
RTVSPropertyOp31
 70
     1
102
RTVSPropertyOp32
 70
     1
  0
XRECORD
  5
3114
102
{ACAD_REACTORS
330
3113
102
}
330
3113
100
AcDbXrecord
280
     1
102
RTVSPropertyOp0
 70
     1
102
RTVSPropertyOp1
 70
     1
102
RTVSPropertyOp2
 70
     1
102
RTVSPropertyOp3
 70
     1
102
RTVSPropertyOp4
 70
     1
102
RTVSPropertyOp5
 70
     1
102
RTVSPropertyOp6
 70
     1
102
RTVSPropertyOp7
 70
     1
102
RTVSPropertyOp8
 70
     1
102
RTVSPropertyOp9
 70
     1
102
RTVSPropertyOp10
 70
     1
102
RTVSPropertyOp11
 70
     1
102
RTVSPropertyOp12
 70
     1
102
RTVSPropertyOp13
 70
     1
102
RTVSPropertyOp14
 70
     1
102
RTVSPropertyOp15
 70
     1
102
RTVSPropertyOp16
 70
     1
102
RTVSPropertyOp17
 70
     1
102
RTVSPropertyOp18
 70
     1
102
RTVSPropertyOp19
 70
     1
102
RTVSPropertyOp20
 70
     1
102
RTVSPropertyOp21
 70
     1
102
RTVSPropertyOp22
 70
     1
102
RTVSPropertyOp23
 70
     1
102
RTVSPropertyOp24
 70
     1
102
RTVSPropertyOp25
 70
     1
102
RTVSPropertyOp26
 70
     1
102
RTVSPropertyOp27
 70
     1
102
RTVSPropertyOp28
 70
     1
102
RTVSPropertyOp29
 70
     1
102
RTVSPropertyOp30
 70
     1
102
RTVSPropertyOp31
 70
     1
102
RTVSPropertyOp32
 70
     1
  0
XRECORD
  5
3118
102
{ACAD_REACTORS
330
3117
102
}
330
3117
100
AcDbXrecord
280
     1
102
RTVSPropertyOp0
 70
     1
102
RTVSPropertyOp1
 70
     1
102
RTVSPropertyOp2
 70
     1
102
RTVSPropertyOp3
 70
     1
102
RTVSPropertyOp4
 70
     1
102
RTVSPropertyOp5
 70
     1
102
RTVSPropertyOp6
 70
     1
102
RTVSPropertyOp7
 70
     1
102
RTVSPropertyOp8
 70
     1
102
RTVSPropertyOp9
 70
     1
102
RTVSPropertyOp10
 70
     1
102
RTVSPropertyOp11
 70
     1
102
RTVSPropertyOp12
 70
     1
102
RTVSPropertyOp13
 70
     1
102
RTVSPropertyOp14
 70
     1
102
RTVSPropertyOp15
 70
     1
102
RTVSPropertyOp16
 70
     1
102
RTVSPropertyOp17
 70
     1
102
RTVSPropertyOp18
 70
     1
102
RTVSPropertyOp19
 70
     1
102
RTVSPropertyOp20
 70
     1
102
RTVSPropertyOp21
 70
     1
102
RTVSPropertyOp22
 70
     1
102
RTVSPropertyOp23
 70
     1
102
RTVSPropertyOp24
 70
     1
102
RTVSPropertyOp25
 70
     1
102
RTVSPropertyOp26
 70
     1
102
RTVSPropertyOp27
 70
     1
102
RTVSPropertyOp28
 70
     1
102
RTVSPropertyOp29
 70
     1
102
RTVSPropertyOp30
 70
     1
102
RTVSPropertyOp31
 70
     1
102
RTVSPropertyOp32
 70
     1
  0
XRECORD
  5
3132
102
{ACAD_REACTORS
330
3131
102
}
330
3131
100
AcDbXrecord
280
     1
102
RTVSPropertyOp0
 70
     0
102
RTVSPropertyOp1
 70
     0
102
RTVSPropertyOp2
 70
     0
102
RTVSPropertyOp3
 70
     0
102
RTVSPropertyOp4
 70
     0
102
RTVSPropertyOp5
 70
     0
102
RTVSPropertyOp6
 70
     0
102
RTVSPropertyOp7
 70
     0
102
RTVSPropertyOp8
 70
     0
102
RTVSPropertyOp9
 70
     0
102
RTVSPropertyOp10
 70
     0
102
RTVSPropertyOp11
 70
     0
102
RTVSPropertyOp12
 70
     0
102
RTVSPropertyOp13
 70
     0
102
RTVSPropertyOp14
 70
     2
102
RTVSPropertyOp15
 70
     0
102
RTVSPropertyOp16
 70
     0
102
RTVSPropertyOp17
 70
     0
102
RTVSPropertyOp18
 70
     0
102
RTVSPropertyOp19
 70
     0
102
RTVSPropertyOp20
 70
     0
102
RTVSPropertyOp21
 70
     0
102
RTVSPropertyOp22
 70
     0
102
RTVSPropertyOp23
 70
     0
102
RTVSPropertyOp24
 70
     0
102
RTVSPropertyOp25
 70
     0
102
RTVSPropertyOp26
 70
     0
102
RTVSPropertyOp27
 70
     0
102
RTVSPropertyOp28
 70
     0
102
RTVSPropertyOp29
 70
     0
102
RTVSPropertyOp30
 70
     0
102
RTVSPropertyOp31
 70
     0
102
RTVSPropertyOp32
 70
     0
  0
XRECORD
  5
3120
102
{ACAD_REACTORS
330
311F
102
}
330
311F
100
AcDbXrecord
280
     1
102
RTVSPropertyOp0
 70
     1
102
RTVSPropertyOp1
 70
     1
102
RTVSPropertyOp2
 70
     1
102
RTVSPropertyOp3
 70
     1
102
RTVSPropertyOp4
 70
     1
102
RTVSPropertyOp5
 70
     1
102
RTVSPropertyOp6
 70
     1
102
RTVSPropertyOp7
 70
     1
102
RTVSPropertyOp8
 70
     1
102
RTVSPropertyOp9
 70
     1
102
RTVSPropertyOp10
 70
     1
102
RTVSPropertyOp11
 70
     1
102
RTVSPropertyOp12
 70
     1
102
RTVSPropertyOp13
 70
     1
102
RTVSPropertyOp14
 70
     1
102
RTVSPropertyOp15
 70
     1
102
RTVSPropertyOp16
 70
     1
102
RTVSPropertyOp17
 70
     1
102
RTVSPropertyOp18
 70
     1
102
RTVSPropertyOp19
 70
     1
102
RTVSPropertyOp20
 70
     1
102
RTVSPropertyOp21
 70
     1
102
RTVSPropertyOp22
 70
     1
102
RTVSPropertyOp23
 70
     1
102
RTVSPropertyOp24
 70
     1
102
RTVSPropertyOp25
 70
     1
102
RTVSPropertyOp26
 70
     1
102
RTVSPropertyOp27
 70
     1
102
RTVSPropertyOp28
 70
     1
102
RTVSPropertyOp29
 70
     1
102
RTVSPropertyOp30
 70
     1
102
RTVSPropertyOp31
 70
     1
102
RTVSPropertyOp32
 70
     1
  0
XRECORD
  5
3104
102
{ACAD_REACTORS
330
3103
102
}
330
3103
100
AcDbXrecord
280
     1
102
RTVSPropertyOp0
 70
     1
102
RTVSPropertyOp1
 70
     1
102
RTVSPropertyOp2
 70
     1
102
RTVSPropertyOp3
 70
     1
102
RTVSPropertyOp4
 70
     1
102
RTVSPropertyOp5
 70
     1
102
RTVSPropertyOp6
 70
     1
102
RTVSPropertyOp7
 70
     1
102
RTVSPropertyOp8
 70
     1
102
RTVSPropertyOp9
 70
     1
102
RTVSPropertyOp10
 70
     1
102
RTVSPropertyOp11
 70
     1
102
RTVSPropertyOp12
 70
     1
102
RTVSPropertyOp13
 70
     1
102
RTVSPropertyOp14
 70
     1
102
RTVSPropertyOp15
 70
     1
102
RTVSPropertyOp16
 70
     1
102
RTVSPropertyOp17
 70
     1
102
RTVSPropertyOp18
 70
     1
102
RTVSPropertyOp19
 70
     1
102
RTVSPropertyOp20
 70
     1
102
RTVSPropertyOp21
 70
     1
102
RTVSPropertyOp22
 70
     1
102
RTVSPropertyOp23
 70
     1
102
RTVSPropertyOp24
 70
     1
102
RTVSPropertyOp25
 70
     1
102
RTVSPropertyOp26
 70
     1
102
RTVSPropertyOp27
 70
     1
102
RTVSPropertyOp28
 70
     1
102
RTVSPropertyOp29
 70
     1
102
RTVSPropertyOp30
 70
     1
102
RTVSPropertyOp31
 70
     1
102
RTVSPropertyOp32
 70
     1
  0
XRECORD
  5
3106
102
{ACAD_REACTORS
330
3105
102
}
330
3105
100
AcDbXrecord
280
     1
102
RTVSPropertyOp0
 70
     1
102
RTVSPropertyOp1
 70
     1
102
RTVSPropertyOp2
 70
     1
102
RTVSPropertyOp3
 70
     1
102
RTVSPropertyOp4
 70
     1
102
RTVSPropertyOp5
 70
     1
102
RTVSPropertyOp6
 70
     1
102
RTVSPropertyOp7
 70
     1
102
RTVSPropertyOp8
 70
     1
102
RTVSPropertyOp9
 70
     1
102
RTVSPropertyOp10
 70
     1
102
RTVSPropertyOp11
 70
     1
102
RTVSPropertyOp12
 70
     1
102
RTVSPropertyOp13
 70
     1
102
RTVSPropertyOp14
 70
     1
102
RTVSPropertyOp15
 70
     1
102
RTVSPropertyOp16
 70
     1
102
RTVSPropertyOp17
 70
     1
102
RTVSPropertyOp18
 70
     1
102
RTVSPropertyOp19
 70
     1
102
RTVSPropertyOp20
 70
     1
102
RTVSPropertyOp21
 70
     1
102
RTVSPropertyOp22
 70
     1
102
RTVSPropertyOp23
 70
     1
102
RTVSPropertyOp24
 70
     1
102
RTVSPropertyOp25
 70
     1
102
RTVSPropertyOp26
 70
     1
102
RTVSPropertyOp27
 70
     1
102
RTVSPropertyOp28
 70
     1
102
RTVSPropertyOp29
 70
     1
102
RTVSPropertyOp30
 70
     1
102
RTVSPropertyOp31
 70
     1
102
RTVSPropertyOp32
 70
     1
  0
XRECORD
  5
3108
102
{ACAD_REACTORS
330
3107
102
}
330
3107
100
AcDbXrecord
280
     1
102
RTVSPropertyOp0
 70
     1
102
RTVSPropertyOp1
 70
     1
102
RTVSPropertyOp2
 70
     1
102
RTVSPropertyOp3
 70
     1
102
RTVSPropertyOp4
 70
     1
102
RTVSPropertyOp5
 70
     1
102
RTVSPropertyOp6
 70
     1
102
RTVSPropertyOp7
 70
     1
102
RTVSPropertyOp8
 70
     1
102
RTVSPropertyOp9
 70
     1
102
RTVSPropertyOp10
 70
     1
102
RTVSPropertyOp11
 70
     1
102
RTVSPropertyOp12
 70
     1
102
RTVSPropertyOp13
 70
     1
102
RTVSPropertyOp14
 70
     1
102
RTVSPropertyOp15
 70
     1
102
RTVSPropertyOp16
 70
     1
102
RTVSPropertyOp17
 70
     1
102
RTVSPropertyOp18
 70
     1
102
RTVSPropertyOp19
 70
     1
102
RTVSPropertyOp20
 70
     1
102
RTVSPropertyOp21
 70
     1
102
RTVSPropertyOp22
 70
     1
102
RTVSPropertyOp23
 70
     1
102
RTVSPropertyOp24
 70
     1
102
RTVSPropertyOp25
 70
     1
102
RTVSPropertyOp26
 70
     1
102
RTVSPropertyOp27
 70
     1
102
RTVSPropertyOp28
 70
     1
102
RTVSPropertyOp29
 70
     1
102
RTVSPropertyOp30
 70
     1
102
RTVSPropertyOp31
 70
     1
102
RTVSPropertyOp32
 70
     1
  0
XRECORD
  5
310A
102
{ACAD_REACTORS
330
3109
102
}
330
3109
100
AcDbXrecord
280
     1
102
RTVSPropertyOp0
 70
     1
102
RTVSPropertyOp1
 70
     1
102
RTVSPropertyOp2
 70
     1
102
RTVSPropertyOp3
 70
     1
102
RTVSPropertyOp4
 70
     1
102
RTVSPropertyOp5
 70
     1
102
RTVSPropertyOp6
 70
     1
102
RTVSPropertyOp7
 70
     1
102
RTVSPropertyOp8
 70
     1
102
RTVSPropertyOp9
 70
     1
102
RTVSPropertyOp10
 70
     1
102
RTVSPropertyOp11
 70
     1
102
RTVSPropertyOp12
 70
     1
102
RTVSPropertyOp13
 70
     1
102
RTVSPropertyOp14
 70
     1
102
RTVSPropertyOp15
 70
     1
102
RTVSPropertyOp16
 70
     1
102
RTVSPropertyOp17
 70
     1
102
RTVSPropertyOp18
 70
     1
102
RTVSPropertyOp19
 70
     1
102
RTVSPropertyOp20
 70
     1
102
RTVSPropertyOp21
 70
     1
102
RTVSPropertyOp22
 70
     1
102
RTVSPropertyOp23
 70
     1
102
RTVSPropertyOp24
 70
     1
102
RTVSPropertyOp25
 70
     1
102
RTVSPropertyOp26
 70
     1
102
RTVSPropertyOp27
 70
     1
102
RTVSPropertyOp28
 70
     1
102
RTVSPropertyOp29
 70
     1
102
RTVSPropertyOp30
 70
     1
102
RTVSPropertyOp31
 70
     1
102
RTVSPropertyOp32
 70
     1
  0
XRECORD
  5
3112
102
{ACAD_REACTORS
330
3111
102
}
330
3111
100
AcDbXrecord
280
     1
102
RTVSPropertyOp0
 70
     1
102
RTVSPropertyOp1
 70
     1
102
RTVSPropertyOp2
 70
     1
102
RTVSPropertyOp3
 70
     1
102
RTVSPropertyOp4
 70
     1
102
RTVSPropertyOp5
 70
     1
102
RTVSPropertyOp6
 70
     1
102
RTVSPropertyOp7
 70
     1
102
RTVSPropertyOp8
 70
     1
102
RTVSPropertyOp9
 70
     1
102
RTVSPropertyOp10
 70
     1
102
RTVSPropertyOp11
 70
     1
102
RTVSPropertyOp12
 70
     1
102
RTVSPropertyOp13
 70
     1
102
RTVSPropertyOp14
 70
     1
102
RTVSPropertyOp15
 70
     1
102
RTVSPropertyOp16
 70
     1
102
RTVSPropertyOp17
 70
     1
102
RTVSPropertyOp18
 70
     1
102
RTVSPropertyOp19
 70
     1
102
RTVSPropertyOp20
 70
     1
102
RTVSPropertyOp21
 70
     1
102
RTVSPropertyOp22
 70
     1
102
RTVSPropertyOp23
 70
     1
102
RTVSPropertyOp24
 70
     1
102
RTVSPropertyOp25
 70
     1
102
RTVSPropertyOp26
 70
     1
102
RTVSPropertyOp27
 70
     1
102
RTVSPropertyOp28
 70
     1
102
RTVSPropertyOp29
 70
     1
102
RTVSPropertyOp30
 70
     1
102
RTVSPropertyOp31
 70
     1
102
RTVSPropertyOp32
 70
     1
  0
XRECORD
  5
312E
102
{ACAD_REACTORS
330
312D
102
}
330
312D
100
AcDbXrecord
280
     1
102
RTVSPropertyOp0
 70
     0
102
RTVSPropertyOp1
 70
     0
102
RTVSPropertyOp2
 70
     0
102
RTVSPropertyOp3
 70
     0
102
RTVSPropertyOp4
 70
     0
102
RTVSPropertyOp5
 70
     0
102
RTVSPropertyOp6
 70
     0
102
RTVSPropertyOp7
 70
     0
102
RTVSPropertyOp8
 70
     0
102
RTVSPropertyOp9
 70
     0
102
RTVSPropertyOp10
 70
     0
102
RTVSPropertyOp11
 70
     0
102
RTVSPropertyOp12
 70
     0
102
RTVSPropertyOp13
 70
     0
102
RTVSPropertyOp14
 70
     2
102
RTVSPropertyOp15
 70
     0
102
RTVSPropertyOp16
 70
     0
102
RTVSPropertyOp17
 70
     0
102
RTVSPropertyOp18
 70
     0
102
RTVSPropertyOp19
 70
     0
102
RTVSPropertyOp20
 70
     0
102
RTVSPropertyOp21
 70
     0
102
RTVSPropertyOp22
 70
     0
102
RTVSPropertyOp23
 70
     0
102
RTVSPropertyOp24
 70
     0
102
RTVSPropertyOp25
 70
     0
102
RTVSPropertyOp26
 70
     0
102
RTVSPropertyOp27
 70
     0
102
RTVSPropertyOp28
 70
     0
102
RTVSPropertyOp29
 70
     0
102
RTVSPropertyOp30
 70
     0
102
RTVSPropertyOp31
 70
     0
102
RTVSPropertyOp32
 70
     0
  0
XRECORD
  5
311E
102
{ACAD_REACTORS
330
311D
102
}
330
311D
100
AcDbXrecord
280
     1
102
RTVSPropertyOp0
 70
     1
102
RTVSPropertyOp1
 70
     1
102
RTVSPropertyOp2
 70
     1
102
RTVSPropertyOp3
 70
     1
102
RTVSPropertyOp4
 70
     1
102
RTVSPropertyOp5
 70
     1
102
RTVSPropertyOp6
 70
     1
102
RTVSPropertyOp7
 70
     1
102
RTVSPropertyOp8
 70
     1
102
RTVSPropertyOp9
 70
     1
102
RTVSPropertyOp10
 70
     1
102
RTVSPropertyOp11
 70
     1
102
RTVSPropertyOp12
 70
     1
102
RTVSPropertyOp13
 70
     1
102
RTVSPropertyOp14
 70
     1
102
RTVSPropertyOp15
 70
     1
102
RTVSPropertyOp16
 70
     1
102
RTVSPropertyOp17
 70
     1
102
RTVSPropertyOp18
 70
     1
102
RTVSPropertyOp19
 70
     1
102
RTVSPropertyOp20
 70
     1
102
RTVSPropertyOp21
 70
     1
102
RTVSPropertyOp22
 70
     1
102
RTVSPropertyOp23
 70
     1
102
RTVSPropertyOp24
 70
     1
102
RTVSPropertyOp25
 70
     1
102
RTVSPropertyOp26
 70
     1
102
RTVSPropertyOp27
 70
     1
102
RTVSPropertyOp28
 70
     1
102
RTVSPropertyOp29
 70
     1
102
RTVSPropertyOp30
 70
     1
102
RTVSPropertyOp31
 70
     1
102
RTVSPropertyOp32
 70
     1
  0
XRECORD
  5
3130
102
{ACAD_REACTORS
330
312F
102
}
330
312F
100
AcDbXrecord
280
     1
102
RTVSPropertyOp0
 70
     0
102
RTVSPropertyOp1
 70
     0
102
RTVSPropertyOp2
 70
     0
102
RTVSPropertyOp3
 70
     0
102
RTVSPropertyOp4
 70
     0
102
RTVSPropertyOp5
 70
     0
102
RTVSPropertyOp6
 70
     0
102
RTVSPropertyOp7
 70
     0
102
RTVSPropertyOp8
 70
     0
102
RTVSPropertyOp9
 70
     0
102
RTVSPropertyOp10
 70
     0
102
RTVSPropertyOp11
 70
     0
102
RTVSPropertyOp12
 70
     0
102
RTVSPropertyOp13
 70
     0
102
RTVSPropertyOp14
 70
     2
102
RTVSPropertyOp15
 70
     0
102
RTVSPropertyOp16
 70
     0
102
RTVSPropertyOp17
 70
     0
102
RTVSPropertyOp18
 70
     0
102
RTVSPropertyOp19
 70
     0
102
RTVSPropertyOp20
 70
     0
102
RTVSPropertyOp21
 70
     0
102
RTVSPropertyOp22
 70
     0
102
RTVSPropertyOp23
 70
     0
102
RTVSPropertyOp24
 70
     0
102
RTVSPropertyOp25
 70
     0
102
RTVSPropertyOp26
 70
     0
102
RTVSPropertyOp27
 70
     0
102
RTVSPropertyOp28
 70
     0
102
RTVSPropertyOp29
 70
     0
102
RTVSPropertyOp30
 70
     0
102
RTVSPropertyOp31
 70
     0
102
RTVSPropertyOp32
 70
     0
  0
XRECORD
  5
3116
102
{ACAD_REACTORS
330
3115
102
}
330
3115
100
AcDbXrecord
280
     1
102
RTVSPropertyOp0
 70
     1
102
RTVSPropertyOp1
 70
     1
102
RTVSPropertyOp2
 70
     1
102
RTVSPropertyOp3
 70
     1
102
RTVSPropertyOp4
 70
     1
102
RTVSPropertyOp5
 70
     1
102
RTVSPropertyOp6
 70
     1
102
RTVSPropertyOp7
 70
     1
102
RTVSPropertyOp8
 70
     1
102
RTVSPropertyOp9
 70
     1
102
RTVSPropertyOp10
 70
     1
102
RTVSPropertyOp11
 70
     1
102
RTVSPropertyOp12
 70
     1
102
RTVSPropertyOp13
 70
     1
102
RTVSPropertyOp14
 70
     1
102
RTVSPropertyOp15
 70
     1
102
RTVSPropertyOp16
 70
     1
102
RTVSPropertyOp17
 70
     1
102
RTVSPropertyOp18
 70
     1
102
RTVSPropertyOp19
 70
     1
102
RTVSPropertyOp20
 70
     1
102
RTVSPropertyOp21
 70
     1
102
RTVSPropertyOp22
 70
     1
102
RTVSPropertyOp23
 70
     1
102
RTVSPropertyOp24
 70
     1
102
RTVSPropertyOp25
 70
     1
102
RTVSPropertyOp26
 70
     1
102
RTVSPropertyOp27
 70
     1
102
RTVSPropertyOp28
 70
     1
102
RTVSPropertyOp29
 70
     1
102
RTVSPropertyOp30
 70
     1
102
RTVSPropertyOp31
 70
     1
102
RTVSPropertyOp32
 70
     1
  0
XRECORD
  5
312C
102
{ACAD_REACTORS
330
312B
102
}
330
312B
100
AcDbXrecord
280
     1
102
RTVSPropertyOp0
 70
     1
102
RTVSPropertyOp1
 70
     1
102
RTVSPropertyOp2
 70
     1
102
RTVSPropertyOp3
 70
     1
102
RTVSPropertyOp4
 70
     1
102
RTVSPropertyOp5
 70
     1
102
RTVSPropertyOp6
 70
     1
102
RTVSPropertyOp7
 70
     1
102
RTVSPropertyOp8
 70
     1
102
RTVSPropertyOp9
 70
     1
102
RTVSPropertyOp10
 70
     1
102
RTVSPropertyOp11
 70
     1
102
RTVSPropertyOp12
 70
     1
102
RTVSPropertyOp13
 70
     1
102
RTVSPropertyOp14
 70
     1
102
RTVSPropertyOp15
 70
     1
102
RTVSPropertyOp16
 70
     1
102
RTVSPropertyOp17
 70
     1
102
RTVSPropertyOp18
 70
     1
102
RTVSPropertyOp19
 70
     1
102
RTVSPropertyOp20
 70
     1
102
RTVSPropertyOp21
 70
     1
102
RTVSPropertyOp22
 70
     1
102
RTVSPropertyOp23
 70
     1
102
RTVSPropertyOp24
 70
     1
102
RTVSPropertyOp25
 70
     1
102
RTVSPropertyOp26
 70
     1
102
RTVSPropertyOp27
 70
     1
102
RTVSPropertyOp28
 70
     1
102
RTVSPropertyOp29
 70
     1
102
RTVSPropertyOp30
 70
     1
102
RTVSPropertyOp31
 70
     1
102
RTVSPropertyOp32
 70
     1
  0
XRECORD
  5
312A
102
{ACAD_REACTORS
330
3129
102
}
330
3129
100
AcDbXrecord
280
     1
102
RTVSPropertyOp0
 70
     1
102
RTVSPropertyOp1
 70
     1
102
RTVSPropertyOp2
 70
     1
102
RTVSPropertyOp3
 70
     1
102
RTVSPropertyOp4
 70
     1
102
RTVSPropertyOp5
 70
     1
102
RTVSPropertyOp6
 70
     1
102
RTVSPropertyOp7
 70
     1
102
RTVSPropertyOp8
 70
     1
102
RTVSPropertyOp9
 70
     1
102
RTVSPropertyOp10
 70
     1
102
RTVSPropertyOp11
 70
     1
102
RTVSPropertyOp12
 70
     1
102
RTVSPropertyOp13
 70
     1
102
RTVSPropertyOp14
 70
     1
102
RTVSPropertyOp15
 70
     1
102
RTVSPropertyOp16
 70
     1
102
RTVSPropertyOp17
 70
     1
102
RTVSPropertyOp18
 70
     1
102
RTVSPropertyOp19
 70
     1
102
RTVSPropertyOp20
 70
     1
102
RTVSPropertyOp21
 70
     1
102
RTVSPropertyOp22
 70
     1
102
RTVSPropertyOp23
 70
     1
102
RTVSPropertyOp24
 70
     1
102
RTVSPropertyOp25
 70
     1
102
RTVSPropertyOp26
 70
     1
102
RTVSPropertyOp27
 70
     1
102
RTVSPropertyOp28
 70
     1
102
RTVSPropertyOp29
 70
     1
102
RTVSPropertyOp30
 70
     1
102
RTVSPropertyOp31
 70
     1
102
RTVSPropertyOp32
 70
     1
  0
XRECORD
  5
3124
102
{ACAD_REACTORS
330
3123
102
}
330
3123
100
AcDbXrecord
280
     1
102
RTVSPropertyOp0
 70
     1
102
RTVSPropertyOp1
 70
     1
102
RTVSPropertyOp2
 70
     1
102
RTVSPropertyOp3
 70
     1
102
RTVSPropertyOp4
 70
     1
102
RTVSPropertyOp5
 70
     1
102
RTVSPropertyOp6
 70
     1
102
RTVSPropertyOp7
 70
     1
102
RTVSPropertyOp8
 70
     1
102
RTVSPropertyOp9
 70
     1
102
RTVSPropertyOp10
 70
     1
102
RTVSPropertyOp11
 70
     1
102
RTVSPropertyOp12
 70
     1
102
RTVSPropertyOp13
 70
     1
102
RTVSPropertyOp14
 70
     1
102
RTVSPropertyOp15
 70
     1
102
RTVSPropertyOp16
 70
     1
102
RTVSPropertyOp17
 70
     1
102
RTVSPropertyOp18
 70
     1
102
RTVSPropertyOp19
 70
     1
102
RTVSPropertyOp20
 70
     1
102
RTVSPropertyOp21
 70
     1
102
RTVSPropertyOp22
 70
     1
102
RTVSPropertyOp23
 70
     1
102
RTVSPropertyOp24
 70
     1
102
RTVSPropertyOp25
 70
     1
102
RTVSPropertyOp26
 70
     1
102
RTVSPropertyOp27
 70
     1
102
RTVSPropertyOp28
 70
     1
102
RTVSPropertyOp29
 70
     1
102
RTVSPropertyOp30
 70
     1
102
RTVSPropertyOp31
 70
     1
102
RTVSPropertyOp32
 70
     1
  0
XRECORD
  5
3126
102
{ACAD_REACTORS
330
3125
102
}
330
3125
100
AcDbXrecord
280
     1
102
RTVSPropertyOp0
 70
     1
102
RTVSPropertyOp1
 70
     1
102
RTVSPropertyOp2
 70
     1
102
RTVSPropertyOp3
 70
     1
102
RTVSPropertyOp4
 70
     1
102
RTVSPropertyOp5
 70
     1
102
RTVSPropertyOp6
 70
     1
102
RTVSPropertyOp7
 70
     1
102
RTVSPropertyOp8
 70
     1
102
RTVSPropertyOp9
 70
     1
102
RTVSPropertyOp10
 70
     1
102
RTVSPropertyOp11
 70
     1
102
RTVSPropertyOp12
 70
     1
102
RTVSPropertyOp13
 70
     1
102
RTVSPropertyOp14
 70
     1
102
RTVSPropertyOp15
 70
     1
102
RTVSPropertyOp16
 70
     1
102
RTVSPropertyOp17
 70
     1
102
RTVSPropertyOp18
 70
     1
102
RTVSPropertyOp19
 70
     1
102
RTVSPropertyOp20
 70
     1
102
RTVSPropertyOp21
 70
     1
102
RTVSPropertyOp22
 70
     1
102
RTVSPropertyOp23
 70
     1
102
RTVSPropertyOp24
 70
     1
102
RTVSPropertyOp25
 70
     1
102
RTVSPropertyOp26
 70
     1
102
RTVSPropertyOp27
 70
     1
102
RTVSPropertyOp28
 70
     1
102
RTVSPropertyOp29
 70
     1
102
RTVSPropertyOp30
 70
     1
102
RTVSPropertyOp31
 70
     1
102
RTVSPropertyOp32
 70
     1
  0
XRECORD
  5
311C
102
{ACAD_REACTORS
330
311B
102
}
330
311B
100
AcDbXrecord
280
     1
102
RTVSPropertyOp0
 70
     1
102
RTVSPropertyOp1
 70
     1
102
RTVSPropertyOp2
 70
     1
102
RTVSPropertyOp3
 70
     1
102
RTVSPropertyOp4
 70
     1
102
RTVSPropertyOp5
 70
     1
102
RTVSPropertyOp6
 70
     1
102
RTVSPropertyOp7
 70
     1
102
RTVSPropertyOp8
 70
     1
102
RTVSPropertyOp9
 70
     1
102
RTVSPropertyOp10
 70
     1
102
RTVSPropertyOp11
 70
     1
102
RTVSPropertyOp12
 70
     1
102
RTVSPropertyOp13
 70
     1
102
RTVSPropertyOp14
 70
     1
102
RTVSPropertyOp15
 70
     1
102
RTVSPropertyOp16
 70
     1
102
RTVSPropertyOp17
 70
     1
102
RTVSPropertyOp18
 70
     1
102
RTVSPropertyOp19
 70
     1
102
RTVSPropertyOp20
 70
     1
102
RTVSPropertyOp21
 70
     1
102
RTVSPropertyOp22
 70
     1
102
RTVSPropertyOp23
 70
     1
102
RTVSPropertyOp24
 70
     1
102
RTVSPropertyOp25
 70
     1
102
RTVSPropertyOp26
 70
     1
102
RTVSPropertyOp27
 70
     1
102
RTVSPropertyOp28
 70
     1
102
RTVSPropertyOp29
 70
     1
102
RTVSPropertyOp30
 70
     1
102
RTVSPropertyOp31
 70
     1
102
RTVSPropertyOp32
 70
     1
  0
XRECORD
  5
3110
102
{ACAD_REACTORS
330
310F
102
}
330
310F
100
AcDbXrecord
280
     1
102
RTVSPropertyOp0
 70
     1
102
RTVSPropertyOp1
 70
     1
102
RTVSPropertyOp2
 70
     1
102
RTVSPropertyOp3
 70
     1
102
RTVSPropertyOp4
 70
     1
102
RTVSPropertyOp5
 70
     1
102
RTVSPropertyOp6
 70
     1
102
RTVSPropertyOp7
 70
     1
102
RTVSPropertyOp8
 70
     1
102
RTVSPropertyOp9
 70
     1
102
RTVSPropertyOp10
 70
     1
102
RTVSPropertyOp11
 70
     1
102
RTVSPropertyOp12
 70
     1
102
RTVSPropertyOp13
 70
     1
102
RTVSPropertyOp14
 70
     1
102
RTVSPropertyOp15
 70
     1
102
RTVSPropertyOp16
 70
     1
102
RTVSPropertyOp17
 70
     1
102
RTVSPropertyOp18
 70
     1
102
RTVSPropertyOp19
 70
     1
102
RTVSPropertyOp20
 70
     1
102
RTVSPropertyOp21
 70
     1
102
RTVSPropertyOp22
 70
     1
102
RTVSPropertyOp23
 70
     1
102
RTVSPropertyOp24
 70
     1
102
RTVSPropertyOp25
 70
     1
102
RTVSPropertyOp26
 70
     1
102
RTVSPropertyOp27
 70
     1
102
RTVSPropertyOp28
 70
     1
102
RTVSPropertyOp29
 70
     1
102
RTVSPropertyOp30
 70
     1
102
RTVSPropertyOp31
 70
     1
102
RTVSPropertyOp32
 70
     1
  0
XRECORD
  5
3128
102
{ACAD_REACTORS
330
3127
102
}
330
3127
100
AcDbXrecord
280
     1
102
RTVSPropertyOp0
 70
     1
102
RTVSPropertyOp1
 70
     1
102
RTVSPropertyOp2
 70
     1
102
RTVSPropertyOp3
 70
     1
102
RTVSPropertyOp4
 70
     1
102
RTVSPropertyOp5
 70
     1
102
RTVSPropertyOp6
 70
     1
102
RTVSPropertyOp7
 70
     1
102
RTVSPropertyOp8
 70
     1
102
RTVSPropertyOp9
 70
     1
102
RTVSPropertyOp10
 70
     1
102
RTVSPropertyOp11
 70
     1
102
RTVSPropertyOp12
 70
     1
102
RTVSPropertyOp13
 70
     1
102
RTVSPropertyOp14
 70
     1
102
RTVSPropertyOp15
 70
     1
102
RTVSPropertyOp16
 70
     1
102
RTVSPropertyOp17
 70
     1
102
RTVSPropertyOp18
 70
     1
102
RTVSPropertyOp19
 70
     1
102
RTVSPropertyOp20
 70
     1
102
RTVSPropertyOp21
 70
     1
102
RTVSPropertyOp22
 70
     1
102
RTVSPropertyOp23
 70
     1
102
RTVSPropertyOp24
 70
     1
102
RTVSPropertyOp25
 70
     1
102
RTVSPropertyOp26
 70
     1
102
RTVSPropertyOp27
 70
     1
102
RTVSPropertyOp28
 70
     1
102
RTVSPropertyOp29
 70
     1
102
RTVSPropertyOp30
 70
     1
102
RTVSPropertyOp31
 70
     1
102
RTVSPropertyOp32
 70
     1
  0
ENDSEC
  0
EOF
