  0
SECTION
  2
HEADER
  9
$ACADVER
  1
AC1015
  9
$ACADMAINTVER
 70
    20
  9
$DWGCODEPAGE
  3
ANSI_932
  9
$INSBASE
 10
378.8074096917408
 20
273.1221640806761
 30
0.0
  9
$EXTMIN
 10
114.8987050574469
 20
67.59645890863248
 30
-0.0000000349181948
  9
$EXTMAX
 10
1150.970471965811
 20
779.418957861395
 30
0.0000000814935747
  9
$LIMMIN
 10
0.0
 20
0.0
  9
$LIMMAX
 10
10000.0
 20
10000.0
  9
$ORTHOMODE
 70
     1
  9
$REGENMODE
 70
     1
  9
$FILLMODE
 70
     1
  9
$QTEXTMODE
 70
     0
  9
$MIRRTEXT
 70
     1
  9
$LTSCALE
 40
33.67003367003368
  9
$ATTMODE
 70
     1
  9
$TEXTSIZE
 40
84.17508417508415
  9
$TRACEWID
 40
1.0
  9
$TEXTSTYLE
  7
AD-STANDARD
  9
$CLAYER
  8
0
  9
$CELTYPE
  6
BYLAYER
  9
$CECOLOR
 62
   256
  9
$CELTSCALE
 40
0.1
  9
$DISPSILH
 70
     0
  9
$DIMSCALE
 40
3.0
  9
$DIMASZ
 40
2.5
  9
$DIMEXO
 40
1.0
  9
$DIMDLI
 40
0.38
  9
$DIMRND
 40
0.0
  9
$DIMDLE
 40
0.0
  9
$DIMEXE
 40
2.0
  9
$DIMTP
 40
0.0
  9
$DIMTM
 40
0.0
  9
$DIMTXT
 40
2.5
  9
$DIMCEN
 40
6.5
  9
$DIMTSZ
 40
0.0
  9
$DIMTOL
 70
     0
  9
$DIMLIM
 70
     0
  9
$DIMTIH
 70
     0
  9
$DIMTOH
 70
     0
  9
$DIMSE1
 70
     0
  9
$DIMSE2
 70
     0
  9
$DIMTAD
 70
     1
  9
$DIMZIN
 70
     8
  9
$DIMBLK
  1

  9
$DIMASO
 70
     1
  9
$DIMSHO
 70
     1
  9
$DIMPOST
  1

  9
$DIMAPOST
  1

  9
$DIMALT
 70
     0
  9
$DIMALTD
 70
     2
  9
$DIMALTF
 40
25.4
  9
$DIMLFAC
 40
1.0
  9
$DIMTOFL
 70
     1
  9
$DIMTVP
 40
0.0
  9
$DIMTIX
 70
     0
  9
$DIMSOXD
 70
     0
  9
$DIMSAH
 70
     0
  9
$DIMBLK1
  1

  9
$DIMBLK2
  1

  9
$DIMSTYLE
  2
AD-STANDARD
  9
$DIMCLRD
 70
     8
  9
$DIMCLRE
 70
     8
  9
$DIMCLRT
 70
     2
  9
$DIMTFAC
 40
1.0
  9
$DIMGAP
 40
0.5
  9
$DIMJUST
 70
     0
  9
$DIMSD1
 70
     0
  9
$DIMSD2
 70
     0
  9
$DIMTOLJ
 70
     1
  9
$DIMTZIN
 70
     8
  9
$DIMALTZ
 70
     0
  9
$DIMALTTZ
 70
     0
  9
$DIMUPT
 70
     0
  9
$DIMDEC
 70
     4
  9
$DIMTDEC
 70
     4
  9
$DIMALTU
 70
     2
  9
$DIMALTTD
 70
     2
  9
$DIMTXSTY
  7
AD-STANDARD
  9
$DIMAUNIT
 70
     0
  9
$DIMADEC
 70
     0
  9
$DIMALTRND
 40
0.0
  9
$DIMAZIN
 70
     0
  9
$DIMDSEP
 70
    46
  9
$DIMATFIT
 70
     3
  9
$DIMFRAC
 70
     0
  9
$DIMLDRBLK
  1

  9
$DIMLUNIT
 70
     2
  9
$DIMLWD
 70
    -2
  9
$DIMLWE
 70
    -2
  9
$DIMTMOVE
 70
     0
  9
$LUNITS
 70
     2
  9
$LUPREC
 70
     4
  9
$SKETCHINC
 40
1.0
  9
$FILLETRAD
 40
1.0
  9
$AUNITS
 70
     0
  9
$AUPREC
 70
     0
  9
$MENU
  1
.
  9
$ELEVATION
 40
0.0
  9
$PELEVATION
 40
0.0
  9
$THICKNESS
 40
0.0
  9
$LIMCHECK
 70
     0
  9
$CHAMFERA
 40
1.0
  9
$CHAMFERB
 40
1.0
  9
$CHAMFERC
 40
673.4006734006732
  9
$CHAMFERD
 40
0.0
  9
$SKPOLY
 70
     0
  9
$TDCREATE
 40
2450372.711178241
  9
$TDUCREATE
 40
2450372.336178241
  9
$TDUPDATE
 40
2459612.744639468
  9
$TDUUPDATE
 40
2459612.369639468
  9
$TDINDWG
 40
2.9481811806
  9
$TDUSRTIMER
 40
2.9481809954
  9
$USRTIMER
 70
     1
  9
$ANGBASE
 50
0.0
  9
$ANGDIR
 70
     0
  9
$PDMODE
 70
     0
  9
$PDSIZE
 40
0.0
  9
$PLINEWID
 40
0.0
  9
$SPLFRAME
 70
     0
  9
$SPLINETYPE
 70
     6
  9
$SPLINESEGS
 70
     8
  9
$HANDSEED
  5
10BBC
  9
$SURFTAB1
 70
     6
  9
$SURFTAB2
 70
     6
  9
$SURFTYPE
 70
     6
  9
$SURFU
 70
     6
  9
$SURFV
 70
     6
  9
$UCSBASE
  2

  9
$UCSNAME
  2

  9
$UCSORG
 10
0.0
 20
0.0
 30
0.0
  9
$UCSXDIR
 10
1.0
 20
0.0
 30
0.0
  9
$UCSYDIR
 10
0.0
 20
1.0
 30
0.0
  9
$UCSORTHOREF
  2

  9
$UCSORTHOVIEW
 70
     0
  9
$UCSORGTOP
 10
0.0
 20
0.0
 30
0.0
  9
$UCSORGBOTTOM
 10
0.0
 20
0.0
 30
0.0
  9
$UCSORGLEFT
 10
0.0
 20
0.0
 30
0.0
  9
$UCSORGRIGHT
 10
0.0
 20
0.0
 30
0.0
  9
$UCSORGFRONT
 10
0.0
 20
0.0
 30
0.0
  9
$UCSORGBACK
 10
0.0
 20
0.0
 30
0.0
  9
$PUCSBASE
  2

  9
$PUCSNAME
  2

  9
$PUCSORG
 10
0.0
 20
0.0
 30
0.0
  9
$PUCSXDIR
 10
1.0
 20
0.0
 30
0.0
  9
$PUCSYDIR
 10
0.0
 20
1.0
 30
0.0
  9
$PUCSORTHOREF
  2

  9
$PUCSORTHOVIEW
 70
     0
  9
$PUCSORGTOP
 10
0.0
 20
0.0
 30
0.0
  9
$PUCSORGBOTTOM
 10
0.0
 20
0.0
 30
0.0
  9
$PUCSORGLEFT
 10
0.0
 20
0.0
 30
0.0
  9
$PUCSORGRIGHT
 10
0.0
 20
0.0
 30
0.0
  9
$PUCSORGFRONT
 10
0.0
 20
0.0
 30
0.0
  9
$PUCSORGBACK
 10
0.0
 20
0.0
 30
0.0
  9
$USERI1
 70
     0
  9
$USERI2
 70
     0
  9
$USERI3
 70
     0
  9
$USERI4
 70
     0
  9
$USERI5
 70
     0
  9
$USERR1
 40
0.0
  9
$USERR2
 40
0.0
  9
$USERR3
 40
0.0
  9
$USERR4
 40
0.0
  9
$USERR5
 40
0.0
  9
$WORLDVIEW
 70
     1
  9
$SHADEDGE
 70
     3
  9
$SHADEDIF
 70
    70
  9
$TILEMODE
 70
     1
  9
$MAXACTVP
 70
    16
  9
$PINSBASE
 10
0.0
 20
0.0
 30
0.0
  9
$PLIMCHECK
 70
     0
  9
$PEXTMIN
 10
1.780799100725403
 20
1.506914200197796
 30
-0.0015258207003583
  9
$PEXTMAX
 10
411.3543862023944
 20
288.4497417456663
 30
0.0000000349246037
  9
$PLIMMIN
 10
-3.17498779296875
 20
-3.174999952316282
  9
$PLIMMAX
 10
416.9833374023435
 20
293.8568298816682
  9
$UNITMODE
 70
     0
  9
$VISRETAIN
 70
     0
  9
$PLINEGEN
 70
     0
  9
$PSLTSCALE
 70
     1
  9
$TREEDEPTH
 70
  3020
  9
$CMLSTYLE
  2
STANDARD
  9
$CMLJUST
 70
     0
  9
$CMLSCALE
 40
1.0
  9
$PROXYGRAPHICS
 70
     1
  9
$MEASUREMENT
 70
     0
  9
$CELWEIGHT
370
    -1
  9
$ENDCAPS
280
     0
  9
$JOINSTYLE
280
     0
  9
$LWDISPLAY
290
     0
  9
$INSUNITS
 70
     0
  9
$HYPERLINKBASE
  1

  9
$STYLESHEET
  1

  9
$XEDIT
290
     1
  9
$CEPSNTYPE
380
     0
  9
$PSTYLEMODE
290
     1
  9
$FINGERPRINTGUID
  2
{169A21A6-20C6-442E-B013-006BA091AFF2}
  9
$VERSIONGUID
  2
{DE08951C-58F0-4DB0-A43B-7DA7A2B454F6}
  9
$EXTNAMES
290
     1
  9
$PSVPSCALE
 40
0.0
  9
$OLESTARTUP
290
     0
  0
ENDSEC
  0
SECTION
  2
CLASSES
  0
CLASS
  1
ACDBDICTIONARYWDFLT
  2
AcDbDictionaryWithDefault
  3
ObjectDBX Classes
 90
        0
280
     0
281
     0
  0
CLASS
  1
TABLESTYLE
  2
AcDbTableStyle
  3
ObjectDBX Classes
 90
     4095
280
     0
281
     0
  0
CLASS
  1
DICTIONARYVAR
  2
AcDbDictionaryVar
  3
ObjectDBX Classes
 90
        0
280
     0
281
     0
  0
CLASS
  1
SORTENTSTABLE
  2
AcDbSortentsTable
  3
ObjectDBX Classes
 90
    32768
280
     0
281
     0
  0
CLASS
  1
PLOTSETTINGS
  2
AcDbPlotSettings
  3
ObjectDBX Classes
 90
    32768
280
     0
281
     0
  0
CLASS
  1
ACDBPLACEHOLDER
  2
AcDbPlaceHolder
  3
ObjectDBX Classes
 90
        0
280
     0
281
     0
  0
CLASS
  1
LAYOUT
  2
AcDbLayout
  3
ObjectDBX Classes
 90
        0
280
     0
281
     0
  0
CLASS
  1
MATERIAL
  2
AcDbMaterial
  3
ObjectDBX Classes
 90
     1153
280
     0
281
     0
  0
CLASS
  1
VISUALSTYLE
  2
AcDbVisualStyle
  3
ObjectDBX Classes
 90
     4095
280
     0
281
     0
  0
CLASS
  1
SCALE
  2
AcDbScale
  3
ObjectDBX Classes
 90
     1153
280
     0
281
     0
  0
CLASS
  1
MLEADERSTYLE
  2
AcDbMLeaderStyle
  3
ACDB_MLEADERSTYLE_CLASS
 90
     4095
280
     0
281
     0
  0
CLASS
  1
CELLSTYLEMAP
  2
AcDbCellStyleMap
  3
ObjectDBX Classes
 90
     1152
280
     0
281
     0
  0
ENDSEC
  0
SECTION
  2
TABLES
  0
TABLE
  2
VPORT
  5
12
330
0
100
AcDbSymbolTable
 70
     1
  0
VPORT
  5
10AC6
330
12
100
AcDbSymbolTableRecord
100
AcDbViewportTableRecord
  2
*Active
 70
     0
 10
0.0
 20
0.0
 11
1.0
 21
1.0
 12
632.9345885116291
 22
423.5077083850137
 13
0.0
 23
0.0
 14
168.0
 24
168.0
 15
0.0
 25
0.0
 16
0.0
 26
0.0
 36
1.0
 17
0.0
 27
0.0
 37
0.0
 40
716.3372293900949
 41
1.638095238095238
 42
50.0
 43
0.0
 44
0.0
 50
0.0
 51
0.0
 71
     0
 72
   100
 73
     1
 74
     0
 75
     0
 76
     0
 77
     0
 78
     1
281
     0
 65
     1
110
0.0
120
0.0
130
0.0
111
1.0
121
0.0
131
0.0
112
0.0
122
1.0
132
0.0
 79
     0
146
0.0
  0
ENDTAB
  0
TABLE
  2
LTYPE
  5
E
330
0
100
AcDbSymbolTable
 70
     2
  0
LTYPE
  5
F
330
E
100
AcDbSymbolTableRecord
100
AcDbLinetypeTableRecord
  2
BYBLOCK
 70
     0
  3

 72
    65
 73
     0
 40
0.0
  0
LTYPE
  5
6
330
E
100
AcDbSymbolTableRecord
100
AcDbLinetypeTableRecord
  2
BYLAYER
 70
     0
  3

 72
    65
 73
     0
 40
0.0
  0
LTYPE
  5
5
330
E
100
AcDbSymbolTableRecord
100
AcDbLinetypeTableRecord
  2
CONTINUOUS
 70
     0
  3
Solid line
 72
    65
 73
     0
 40
0.0
  0
LTYPE
  5
22
330
E
100
AcDbSymbolTableRecord
100
AcDbLinetypeTableRecord
  2
CENTER
 70
     0
  3
____ _ ____ _ ____ _ ____ _ ____ _ ____ _ ____ 
 72
    65
 73
     4
 40
2.0
 49
1.25
 74
     0
 49
-0.25
 74
     0
 49
0.25
 74
     0
 49
-0.25
 74
     0
  0
ENDTAB
  0
TABLE
  2
LAYER
  5
B
102
{ACAD_XDICTIONARY
360
10719
102
}
330
0
100
AcDbSymbolTable
 70
     4
  0
LAYER
  5
4
102
{ACAD_XDICTIONARY
360
10B8F
102
}
330
B
100
AcDbSymbolTableRecord
100
AcDbLayerTableRecord
  2
0
 70
     0
 62
     7
  6
CONTINUOUS
370
    -3
390
106FB
  0
LAYER
  5
3012
330
B
100
AcDbSymbolTableRecord
100
AcDbLayerTableRecord
  2
DEFPOINTS
 70
     0
 62
     7
  6
CONTINUOUS
290
     0
370
    -3
390
106FB
  0
LAYER
  5
1098F
102
{ACAD_XDICTIONARY
360
10B91
102
}
330
B
100
AcDbSymbolTableRecord
100
AcDbLayerTableRecord
  2
MEASURE
 70
     0
 62
     9
  6
CONTINUOUS
370
    -3
390
106FB
  0
ENDTAB
  0
TABLE
  2
STYLE
  5
C
330
0
100
AcDbSymbolTable
 70
     2
  0
STYLE
  5
D
330
C
100
AcDbSymbolTableRecord
100
AcDbTextStyleTableRecord
  2
STANDARD
 70
     0
 40
0.0
 41
0.8
 50
0.0
 71
     0
 42
84.17508417508415
  3
TXT
  4
bigfont.shx
  0
STYLE
  5
1C
330
C
100
AcDbSymbolTableRecord
100
AcDbTextStyleTableRecord
  2
AD-STANDARD
 70
     0
 40
0.0
 41
0.8
 50
0.0
 71
     0
 42
84.17508417508415
  3
C:\Program Files\AutoCAD LT\romans.shx
  4
bigfont.shx
  0
ENDTAB
  0
TABLE
  2
VIEW
  5
10
330
0
100
AcDbSymbolTable
 70
     0
  0
ENDTAB
  0
TABLE
  2
UCS
  5
11
330
0
100
AcDbSymbolTable
 70
     0
  0
ENDTAB
  0
TABLE
  2
APPID
  5
14
330
0
100
AcDbSymbolTable
 70
     9
  0
APPID
  5
15
330
14
100
AcDbSymbolTableRecord
100
AcDbRegAppTableRecord
  2
ACAD
 70
     0
  0
APPID
  5
E3B4
330
14
100
AcDbSymbolTableRecord
100
AcDbRegAppTableRecord
  2
CONTENTTABDATA
 70
     0
  0
APPID
  5
E3B5
330
14
100
AcDbSymbolTableRecord
100
AcDbRegAppTableRecord
  2
CONTENTCURRENTTAB
 70
     0
  0
APPID
  5
E456
330
14
100
AcDbSymbolTableRecord
100
AcDbRegAppTableRecord
  2
CONTENTBLOCKDESCRIPTION
 70
     0
  0
APPID
  5
E997
330
14
100
AcDbSymbolTableRecord
100
AcDbRegAppTableRecord
  2
CONTENTBLOCKICON
 70
     0
  0
APPID
  5
1070A
330
14
100
AcDbSymbolTableRecord
100
AcDbRegAppTableRecord
  2
ACAD_PSEXT
 70
     0
  0
APPID
  5
1084C
330
14
100
AcDbSymbolTableRecord
100
AcDbRegAppTableRecord
  2
AcAecLayerStandard
 70
     0
  0
APPID
  5
10958
330
14
100
AcDbSymbolTableRecord
100
AcDbRegAppTableRecord
  2
ACAD_EXEMPT_FROM_CAD_STANDARDS
 70
     0
  0
APPID
  5
10B68
330
14
100
AcDbSymbolTableRecord
100
AcDbRegAppTableRecord
  2
ACAD_MLEADERVER
 70
     0
  0
ENDTAB
  0
TABLE
  2
DIMSTYLE
  5
16
330
0
100
AcDbSymbolTable
 70
     2
100
AcDbDimStyleTable
 71
     1
340
1E
  0
DIMSTYLE
105
1E
102
{ACAD_REACTORS
330
1042D
330
1042E
330
1018B
330
101C6
330
10093
330
100A1
330
1007A
330
10204
330
101F5
102
}
330
16
100
AcDbSymbolTableRecord
100
AcDbDimStyleTableRecord
  2
AD-STANDARD
 70
     0
 41
2.5
 42
1.0
 44
2.0
 73
     0
 74
     0
 77
     1
 78
     8
140
3.5
141
-2.0
147
0.5
172
     1
176
     8
177
     8
178
     2
284
     8
340
1C
  0
DIMSTYLE
105
1072F
330
16
100
AcDbSymbolTableRecord
100
AcDbDimStyleTableRecord
  2
Standard
 70
     0
340
D
  0
ENDTAB
  0
TABLE
  2
BLOCK_RECORD
  5
1
330
0
100
AcDbSymbolTable
 70
     9
  0
BLOCK_RECORD
  5
2
330
1
100
AcDbSymbolTableRecord
100
AcDbBlockTableRecord
  2
*MODEL_SPACE
340
10702
  0
BLOCK_RECORD
  5
10819
330
1
100
AcDbSymbolTableRecord
100
AcDbBlockTableRecord
  2
*Paper_Space
340
1081A
  0
BLOCK_RECORD
  5
1006E
330
1
100
AcDbSymbolTableRecord
100
AcDbBlockTableRecord
  2
*D0
340
0
  0
BLOCK_RECORD
  5
10087
330
1
100
AcDbSymbolTableRecord
100
AcDbBlockTableRecord
  2
*D1
340
0
  0
BLOCK_RECORD
  5
10095
330
1
100
AcDbSymbolTableRecord
100
AcDbBlockTableRecord
  2
*D2
340
0
  0
BLOCK_RECORD
  5
1018C
330
1
100
AcDbSymbolTableRecord
100
AcDbBlockTableRecord
  2
*D3
340
0
  0
BLOCK_RECORD
  5
101BA
330
1
100
AcDbSymbolTableRecord
100
AcDbBlockTableRecord
  2
*D4
340
0
  0
BLOCK_RECORD
  5
101E9
330
1
100
AcDbSymbolTableRecord
100
AcDbBlockTableRecord
  2
*D5
340
0
  0
BLOCK_RECORD
  5
101F8
330
1
100
AcDbSymbolTableRecord
100
AcDbBlockTableRecord
  2
*D6
340
0
  0
BLOCK_RECORD
  5
105DC
330
1
100
AcDbSymbolTableRecord
100
AcDbBlockTableRecord
  2
*D7
340
0
  0
BLOCK_RECORD
  5
105E8
330
1
100
AcDbSymbolTableRecord
100
AcDbBlockTableRecord
  2
*D8
340
0
  0
ENDTAB
  0
ENDSEC
  0
SECTION
  2
BLOCKS
  0
BLOCK
  5
3
330
2
100
AcDbEntity
  8
0
100
AcDbBlockBegin
  2
*MODEL_SPACE
 70
     0
 10
0.0
 20
0.0
 30
0.0
  3
*MODEL_SPACE
  1

  0
ENDBLK
  5
7
330
2
100
AcDbEntity
  8
0
100
AcDbBlockEnd
  0
BLOCK
  5
1081B
330
10819
100
AcDbEntity
 67
     1
  8
0
 48
0.1
100
AcDbBlockBegin
  2
*Paper_Space
 70
     0
 10
0.0
 20
0.0
 30
0.0
  3
*Paper_Space
  1

  0
ENDBLK
  5
1081C
330
10819
100
AcDbEntity
 67
     1
  8
0
 48
0.1
100
AcDbBlockEnd
  0
BLOCK
  5
1007B
330
1006E
100
AcDbEntity
  8
0
 48
0.1
100
AcDbBlockBegin
  2
*D0
 70
     1
 10
0.0
 20
0.0
 30
0.0
  3
*D0
  1

  0
LINE
  5
10A8A
330
1006E
100
AcDbEntity
  8
MEASURE
 62
     8
370
    -2
100
AcDbLine
 10
493.2821295993708
 20
736.0407955706184
 30
0.0
 11
415.2821295993706
 21
736.0407955706184
 31
0.0
  0
LINE
  5
10A8B
330
1006E
100
AcDbEntity
  8
MEASURE
 62
     8
370
    -2
100
AcDbLine
 10
493.2821295993708
 20
446.0407955706187
 30
0.0
 11
415.2821295993706
 21
446.0407955706187
 31
0.0
  0
LINE
  5
10A8C
330
1006E
100
AcDbEntity
  8
MEASURE
 62
     8
370
    -2
100
AcDbLine
 10
421.2821295993706
 20
728.5407955706184
 30
0.0
 11
421.2821295993705
 21
453.5407955706187
 31
0.0
  0
SOLID
  5
10A8D
330
1006E
100
AcDbEntity
  8
MEASURE
 62
     8
100
AcDbTrace
 10
420.0321295993706
 20
728.5407955706184
 30
0.0
 11
422.5321295993706
 21
728.5407955706184
 31
0.0
 12
421.2821295993706
 22
736.0407955706184
 32
0.0
 13
421.2821295993706
 23
736.0407955706184
 33
0.0
  0
SOLID
  5
10A8E
330
1006E
100
AcDbEntity
  8
MEASURE
 62
     8
100
AcDbTrace
 10
420.0321295993703
 20
453.5407955706187
 30
0.0
 11
422.5321295993706
 21
453.5407955706187
 31
0.0
 12
421.2821295993705
 22
446.0407955706187
 32
0.0
 13
421.2821295993705
 23
446.0407955706187
 33
0.0
  0
MTEXT
  5
10A8F
330
1006E
100
AcDbEntity
  8
MEASURE
 62
     2
100
AcDbMText
 10
416.0321295993703
 20
591.0407955706188
 30
0.0
 40
7.5
 41
0.0
 71
     5
 72
     1
  1
\A1;290
  7
AD-STANDARD
 11
0.0000000000000001
 21
1.0
 31
0.0
 73
     1
 44
1.0
1001
ACAD
1000
MTEXTBEGIN
1070
    73
1070
     1
1070
    44
1040
1.0
1070
    74
1070
     0
1000
MTEXTEND
  0
POINT
  5
10A90
330
1006E
100
AcDbEntity
  8
DEFPOINTS
 62
     0
100
AcDbPoint
 10
496.2821295993708
 20
736.0407955706184
 30
0.0
  0
POINT
  5
10A91
330
1006E
100
AcDbEntity
  8
DEFPOINTS
 62
     0
100
AcDbPoint
 10
496.2821295993708
 20
446.0407955706187
 30
0.0
  0
POINT
  5
10A92
330
1006E
100
AcDbEntity
  8
DEFPOINTS
 62
     0
100
AcDbPoint
 10
421.2821295993705
 20
446.0407955706187
 30
0.0
  0
ENDBLK
  5
10085
330
1006E
100
AcDbEntity
  8
0
 48
0.1
100
AcDbBlockEnd
  0
BLOCK
  5
10088
330
10087
100
AcDbEntity
  8
0
 48
0.1
100
AcDbBlockBegin
  2
*D1
 70
     1
 10
0.0
 20
0.0
 30
0.0
  3
*D1
  1

  0
LINE
  5
10A78
330
10087
100
AcDbEntity
  8
MEASURE
 62
     8
370
    -2
100
AcDbLine
 10
496.2821295993708
 20
443.0407955706185
 30
0.0
 11
496.2821295993708
 21
381.7902870530738
 31
0.0
  0
LINE
  5
10A79
330
10087
100
AcDbEntity
  8
MEASURE
 62
     8
370
    -2
100
AcDbLine
 10
871.2821295993707
 20
443.0407955706185
 30
0.0
 11
871.2821295993707
 21
381.7902870530738
 31
0.0
  0
LINE
  5
10A7A
330
10087
100
AcDbEntity
  8
MEASURE
 62
     8
370
    -2
100
AcDbLine
 10
503.7821295993706
 20
387.7902870530738
 30
0.0
 11
863.7821295993706
 21
387.7902870530738
 31
0.0
  0
SOLID
  5
10A7B
330
10087
100
AcDbEntity
  8
MEASURE
 62
     8
100
AcDbTrace
 10
503.7821295993706
 20
389.0402870530738
 30
0.0
 11
503.7821295993706
 21
386.5402870530738
 31
0.0
 12
496.2821295993708
 22
387.7902870530738
 32
0.0
 13
496.2821295993708
 23
387.7902870530738
 33
0.0
  0
SOLID
  5
10A7C
330
10087
100
AcDbEntity
  8
MEASURE
 62
     8
100
AcDbTrace
 10
863.7821295993706
 20
389.0402870530738
 30
0.0
 11
863.7821295993706
 21
386.5402870530738
 31
0.0
 12
871.2821295993707
 22
387.7902870530738
 32
0.0
 13
871.2821295993707
 23
387.7902870530738
 33
0.0
  0
MTEXT
  5
10A7D
330
10087
100
AcDbEntity
  8
MEASURE
 62
     2
100
AcDbMText
 10
683.7821295993706
 20
393.0402870530739
 30
0.0
 40
7.5
 41
0.0
 71
     5
 72
     1
  1
\A1;375
  7
AD-STANDARD
 73
     1
 44
1.0
1001
ACAD
1000
MTEXTBEGIN
1070
    73
1070
     1
1070
    44
1040
1.0
1070
    74
1070
     0
1000
MTEXTEND
  0
POINT
  5
10A7E
330
10087
100
AcDbEntity
  8
DEFPOINTS
 62
     0
100
AcDbPoint
 10
496.2821295993708
 20
446.0407955706187
 30
0.0
  0
POINT
  5
10A7F
330
10087
100
AcDbEntity
  8
DEFPOINTS
 62
     0
100
AcDbPoint
 10
871.2821295993707
 20
446.0407955706187
 30
0.0
  0
POINT
  5
10A80
330
10087
100
AcDbEntity
  8
DEFPOINTS
 62
     0
100
AcDbPoint
 10
871.2821295993707
 20
387.7902870530738
 30
0.0
  0
ENDBLK
  5
10092
330
10087
100
AcDbEntity
  8
0
 48
0.1
100
AcDbBlockEnd
  0
BLOCK
  5
10096
330
10095
100
AcDbEntity
  8
0
 48
0.1
100
AcDbBlockBegin
  2
*D2
 70
     1
 10
0.0
 20
0.0
 30
0.0
  3
*D2
  1

  0
LINE
  5
10A81
330
10095
100
AcDbEntity
  8
MEASURE
 62
     8
370
    -2
100
AcDbLine
 10
871.2821295993707
 20
443.0407955706185
 30
0.0
 11
871.2821295993707
 21
381.7902870530738
 31
0.0
  0
LINE
  5
10A82
330
10095
100
AcDbEntity
  8
MEASURE
 62
     8
370
    -2
100
AcDbLine
 10
895.7821295993706
 20
580.5407955706185
 30
0.0
 11
895.7821295993706
 21
381.7902870530738
 31
0.0
  0
LINE
  5
10A83
330
10095
100
AcDbEntity
  8
MEASURE
 62
     8
370
    -2
100
AcDbLine
 10
878.7821295993706
 20
387.7902870530738
 30
0.0
 11
888.2821295993707
 21
387.7902870530738
 31
0.0
  0
SOLID
  5
10A84
330
10095
100
AcDbEntity
  8
MEASURE
 62
     8
100
AcDbTrace
 10
878.7821295993706
 20
389.0402870530738
 30
0.0
 11
878.7821295993706
 21
386.5402870530738
 31
0.0
 12
871.2821295993707
 22
387.7902870530738
 32
0.0
 13
871.2821295993707
 23
387.7902870530738
 33
0.0
  0
SOLID
  5
10A85
330
10095
100
AcDbEntity
  8
MEASURE
 62
     8
100
AcDbTrace
 10
888.2821295993707
 20
389.0402870530738
 30
0.0
 11
888.2821295993707
 21
386.5402870530738
 31
0.0
 12
895.7821295993706
 22
387.7902870530738
 32
0.0
 13
895.7821295993706
 23
387.7902870530738
 33
0.0
  0
MTEXT
  5
10A86
330
10095
100
AcDbEntity
  8
MEASURE
 62
     2
100
AcDbMText
 10
883.5321295993706
 20
393.0402870530739
 30
0.0
 40
7.5
 41
0.0
 71
     5
 72
     1
  1
\A1;24.5
  7
AD-STANDARD
 73
     1
 44
1.0
1001
ACAD
1000
MTEXTBEGIN
1070
    73
1070
     1
1070
    44
1040
1.0
1070
    74
1070
     0
1000
MTEXTEND
  0
POINT
  5
10A87
330
10095
100
AcDbEntity
  8
DEFPOINTS
 62
     0
100
AcDbPoint
 10
871.2821295993707
 20
446.0407955706187
 30
0.0
  0
POINT
  5
10A88
330
10095
100
AcDbEntity
  8
DEFPOINTS
 62
     0
100
AcDbPoint
 10
895.7821295993706
 20
583.5407955706187
 30
0.0
  0
POINT
  5
10A89
330
10095
100
AcDbEntity
  8
DEFPOINTS
 62
     0
100
AcDbPoint
 10
895.7821295993706
 20
387.7902870530738
 30
0.0
  0
ENDBLK
  5
100A0
330
10095
100
AcDbEntity
  8
0
 48
0.1
100
AcDbBlockEnd
  0
BLOCK
  5
106A7
330
1018C
100
AcDbEntity
  8
0
 48
0.1
100
AcDbBlockBegin
  2
*D3
 70
     1
 10
0.0
 20
0.0
 30
0.0
  3
*D3
  1

  0
LINE
  5
10A66
330
1018C
100
AcDbEntity
  8
MEASURE
 62
     8
370
    -2
100
AcDbLine
 10
531.282129599371
 20
134.1830142098001
 30
0.0
 11
531.282129599371
 21
67.8307134302172
 31
0.0
  0
LINE
  5
10A67
330
1018C
100
AcDbEntity
  8
MEASURE
 62
     8
370
    -2
100
AcDbLine
 10
836.2821295993711
 20
134.1830142098001
 30
0.0
 11
836.2821295993711
 21
67.8307134302172
 31
0.0
  0
LINE
  5
10A68
330
1018C
100
AcDbEntity
  8
MEASURE
 62
     8
370
    -2
100
AcDbLine
 10
538.782129599371
 20
73.8307134302172
 30
0.0
 11
828.7821295993712
 21
73.8307134302172
 31
0.0
  0
SOLID
  5
10A69
330
1018C
100
AcDbEntity
  8
MEASURE
 62
     8
100
AcDbTrace
 10
538.782129599371
 20
75.0807134302172
 30
0.0
 11
538.782129599371
 21
72.5807134302172
 31
0.0
 12
531.282129599371
 22
73.8307134302172
 32
0.0
 13
531.282129599371
 23
73.8307134302172
 33
0.0
  0
SOLID
  5
10A6A
330
1018C
100
AcDbEntity
  8
MEASURE
 62
     8
100
AcDbTrace
 10
828.7821295993712
 20
75.0807134302172
 30
0.0
 11
828.7821295993712
 21
72.5807134302172
 31
0.0
 12
836.2821295993711
 22
73.8307134302172
 32
0.0
 13
836.2821295993711
 23
73.8307134302172
 33
0.0
  0
MTEXT
  5
10A6B
330
1018C
100
AcDbEntity
  8
MEASURE
 62
     2
100
AcDbMText
 10
683.782129599371
 20
79.0807134302172
 30
0.0
 40
7.5
 41
0.0
 71
     5
 72
     1
  1
\A1;305
  7
AD-STANDARD
 73
     1
 44
1.0
1001
ACAD
1000
MTEXTBEGIN
1070
    73
1070
     1
1070
    44
1040
1.0
1070
    74
1070
     0
1000
MTEXTEND
  0
POINT
  5
10A6C
330
1018C
100
AcDbEntity
  8
DEFPOINTS
 62
     0
100
AcDbPoint
 10
531.282129599371
 20
137.1830142098001
 30
0.0
  0
POINT
  5
10A6D
330
1018C
100
AcDbEntity
  8
DEFPOINTS
 62
     0
100
AcDbPoint
 10
836.2821295993711
 20
137.1830142098001
 30
0.0
  0
POINT
  5
10A6E
330
1018C
100
AcDbEntity
  8
DEFPOINTS
 62
     0
100
AcDbPoint
 10
836.2821295993711
 20
73.8307134302172
 30
0.0
  0
ENDBLK
  5
106B1
330
1018C
100
AcDbEntity
  8
0
 48
0.1
100
AcDbBlockEnd
  0
BLOCK
  5
1069C
330
101BA
100
AcDbEntity
  8
0
 48
0.1
100
AcDbBlockBegin
  2
*D4
 70
     1
 10
0.0
 20
0.0
 30
0.0
  3
*D4
  1

  0
LINE
  5
10A6F
330
101BA
100
AcDbEntity
  8
MEASURE
 62
     8
370
    -2
100
AcDbLine
 10
813.7821295993706
 20
141.2934185420848
 30
0.0
 11
813.7821295993706
 21
87.97293466540216
 31
0.0
  0
LINE
  5
10A70
330
101BA
100
AcDbEntity
  8
MEASURE
 62
     8
370
    -2
100
AcDbLine
 10
858.7821295993711
 20
141.2934185420848
 30
0.0
 11
858.7821295993711
 21
87.97293466540216
 31
0.0
  0
LINE
  5
10A71
330
101BA
100
AcDbEntity
  8
MEASURE
 62
     8
370
    -2
100
AcDbLine
 10
821.2821295993705
 20
93.97293466540212
 30
0.0
 11
851.282129599371
 21
93.97293466540212
 31
0.0
  0
SOLID
  5
10A72
330
101BA
100
AcDbEntity
  8
MEASURE
 62
     8
100
AcDbTrace
 10
821.2821295993705
 20
95.22293466540212
 30
0.0
 11
821.2821295993705
 21
92.72293466540212
 31
0.0
 12
813.7821295993706
 22
93.97293466540212
 32
0.0
 13
813.7821295993706
 23
93.97293466540212
 33
0.0
  0
SOLID
  5
10A73
330
101BA
100
AcDbEntity
  8
MEASURE
 62
     8
100
AcDbTrace
 10
851.282129599371
 20
95.22293466540212
 30
0.0
 11
851.282129599371
 21
92.72293466540212
 31
0.0
 12
858.7821295993711
 22
93.97293466540212
 32
0.0
 13
858.7821295993711
 23
93.97293466540212
 33
0.0
  0
MTEXT
  5
10A74
330
101BA
100
AcDbEntity
  8
MEASURE
 62
     2
100
AcDbMText
 10
836.2821295993708
 20
99.22293466540217
 30
0.0
 40
7.5
 41
0.0
 71
     5
 72
     1
  1
\A1;φ45
  7
AD-STANDARD
 73
     1
 44
1.0
1001
ACAD
1000
MTEXTBEGIN
1070
    73
1070
     1
1070
    44
1040
1.0
1070
    74
1070
     0
1000
MTEXTEND
  0
POINT
  5
10A75
330
101BA
100
AcDbEntity
  8
DEFPOINTS
 62
     0
100
AcDbPoint
 10
813.7821295993706
 20
144.2934185420848
 30
0.0
  0
POINT
  5
10A76
330
101BA
100
AcDbEntity
  8
DEFPOINTS
 62
     0
100
AcDbPoint
 10
858.7821295993711
 20
144.2934185420848
 30
0.0
  0
POINT
  5
10A77
330
101BA
100
AcDbEntity
  8
DEFPOINTS
 62
     0
100
AcDbPoint
 10
858.7821295993711
 20
93.97293466540212
 30
0.0
  0
ENDBLK
  5
106A6
330
101BA
100
AcDbEntity
  8
0
 48
0.1
100
AcDbBlockEnd
  0
BLOCK
  5
10666
330
101E9
100
AcDbEntity
  8
0
 48
0.1
100
AcDbBlockBegin
  2
*D5
 70
     1
 10
0.0
 20
0.0
 30
0.0
  3
*D5
  1

  0
LINE
  5
10A9C
330
101E9
100
AcDbEntity
  8
MEASURE
 62
     8
370
    -2
100
AcDbLine
 10
148.7226318292194
 20
701.0407955706181
 30
0.0
 11
118.053035137948
 21
701.0407955706181
 31
0.0
  0
LINE
  5
10A9D
330
101E9
100
AcDbEntity
  8
MEASURE
 62
     8
370
    -2
100
AcDbLine
 10
148.7226318292194
 20
481.0407955706181
 30
0.0
 11
118.053035137948
 21
481.0407955706181
 31
0.0
  0
LINE
  5
10A9E
330
101E9
100
AcDbEntity
  8
MEASURE
 62
     8
370
    -2
100
AcDbLine
 10
124.053035137948
 20
693.5407955706181
 30
0.0
 11
124.0530351379479
 21
488.5407955706181
 31
0.0
  0
SOLID
  5
10A9F
330
101E9
100
AcDbEntity
  8
MEASURE
 62
     8
100
AcDbTrace
 10
122.803035137948
 20
693.5407955706181
 30
0.0
 11
125.303035137948
 21
693.5407955706181
 31
0.0
 12
124.053035137948
 22
701.0407955706181
 32
0.0
 13
124.053035137948
 23
701.0407955706181
 33
0.0
  0
SOLID
  5
10AA0
330
101E9
100
AcDbEntity
  8
MEASURE
 62
     8
100
AcDbTrace
 10
122.8030351379479
 20
488.5407955706181
 30
0.0
 11
125.303035137948
 21
488.5407955706181
 31
0.0
 12
124.0530351379479
 22
481.0407955706181
 32
0.0
 13
124.0530351379479
 23
481.0407955706181
 33
0.0
  0
MTEXT
  5
10AA1
330
101E9
100
AcDbEntity
  8
MEASURE
 62
     2
100
AcDbMText
 10
118.8030351379479
 20
591.0407955706181
 30
0.0
 40
7.5
 41
0.0
 71
     5
 72
     1
  1
\A1;220
  7
AD-STANDARD
 11
0.0000000000000001
 21
1.0
 31
0.0
 73
     1
 44
1.0
1001
ACAD
1000
MTEXTBEGIN
1070
    73
1070
     1
1070
    44
1040
1.0
1070
    74
1070
     0
1000
MTEXTEND
  0
POINT
  5
10AA2
330
101E9
100
AcDbEntity
  8
DEFPOINTS
 62
     0
100
AcDbPoint
 10
151.7226318292194
 20
701.0407955706181
 30
0.0
  0
POINT
  5
10AA3
330
101E9
100
AcDbEntity
  8
DEFPOINTS
 62
     0
100
AcDbPoint
 10
151.7226318292194
 20
481.0407955706181
 30
0.0
  0
POINT
  5
10AA4
330
101E9
100
AcDbEntity
  8
DEFPOINTS
 62
     0
100
AcDbPoint
 10
124.0530351379479
 20
481.0407955706181
 30
0.0
  0
ENDBLK
  5
10670
330
101E9
100
AcDbEntity
  8
0
 48
0.1
100
AcDbBlockEnd
  0
BLOCK
  5
101F9
330
101F8
100
AcDbEntity
  8
0
 48
0.1
100
AcDbBlockBegin
  2
*D6
 70
     1
 10
0.0
 20
0.0
 30
0.0
  3
*D6
  1

  0
LINE
  5
10A93
330
101F8
100
AcDbEntity
  8
MEASURE
 62
     8
370
    -2
100
AcDbLine
 10
299.9196129507288
 20
443.0407955706185
 30
0.0
 11
299.9196129507288
 21
381.9441594020169
 31
0.0
  0
LINE
  5
10A94
330
101F8
100
AcDbEntity
  8
MEASURE
 62
     8
370
    -2
100
AcDbLine
 10
194.9196129507284
 20
443.0407955706185
 30
0.0
 11
194.9196129507284
 21
381.9441594020169
 31
0.0
  0
LINE
  5
10A95
330
101F8
100
AcDbEntity
  8
MEASURE
 62
     8
370
    -2
100
AcDbLine
 10
292.4196129507288
 20
387.9441594020168
 30
0.0
 11
202.4196129507284
 21
387.9441594020168
 31
0.0
  0
SOLID
  5
10A96
330
101F8
100
AcDbEntity
  8
MEASURE
 62
     8
100
AcDbTrace
 10
292.4196129507288
 20
389.1941594020169
 30
0.0
 11
292.4196129507288
 21
386.6941594020169
 31
0.0
 12
299.9196129507288
 22
387.9441594020168
 32
0.0
 13
299.9196129507288
 23
387.9441594020168
 33
0.0
  0
SOLID
  5
10A97
330
101F8
100
AcDbEntity
  8
MEASURE
 62
     8
100
AcDbTrace
 10
202.4196129507284
 20
389.1941594020169
 30
0.0
 11
202.4196129507284
 21
386.6941594020169
 31
0.0
 12
194.9196129507284
 22
387.9441594020168
 32
0.0
 13
194.9196129507284
 23
387.9441594020168
 33
0.0
  0
MTEXT
  5
10A98
330
101F8
100
AcDbEntity
  8
MEASURE
 62
     2
100
AcDbMText
 10
247.4196129507286
 20
393.1941594020169
 30
0.0
 40
7.5
 41
0.0
 71
     5
 72
     1
  1
\A1;105
  7
AD-STANDARD
 73
     1
 44
1.0
1001
ACAD
1000
MTEXTBEGIN
1070
    73
1070
     1
1070
    44
1040
1.0
1070
    74
1070
     0
1000
MTEXTEND
  0
POINT
  5
10A99
330
101F8
100
AcDbEntity
  8
DEFPOINTS
 62
     0
100
AcDbPoint
 10
299.9196129507288
 20
446.0407955706186
 30
0.0
  0
POINT
  5
10A9A
330
101F8
100
AcDbEntity
  8
DEFPOINTS
 62
     0
100
AcDbPoint
 10
194.9196129507284
 20
446.0407955706187
 30
0.0
  0
POINT
  5
10A9B
330
101F8
100
AcDbEntity
  8
DEFPOINTS
 62
     0
100
AcDbPoint
 10
194.9196129507284
 20
387.9441594020168
 30
0.0
  0
ENDBLK
  5
10203
330
101F8
100
AcDbEntity
  8
0
 48
0.1
100
AcDbBlockEnd
  0
BLOCK
  5
10617
330
105DC
100
AcDbEntity
  8
0
 48
0.1
100
AcDbBlockBegin
  2
*D7
 70
     1
 10
0.0
 20
0.0
 30
0.0
  3
*D7
  1

  0
LINE
  5
10AA5
330
105DC
100
AcDbEntity
  8
MEASURE
 62
     8
370
    -2
100
AcDbLine
 10
505.782129599371
 20
144.2934185420848
 30
0.0
 11
415.0572731595802
 21
144.2934185420849
 31
0.0
  0
LINE
  5
10AA6
330
105DC
100
AcDbEntity
  8
MEASURE
 62
     8
370
    -2
100
AcDbLine
 10
493.282129599371
 20
274.7934185420849
 30
0.0
 11
415.0572731595802
 21
274.7934185420849
 31
0.0
  0
LINE
  5
10AA7
330
105DC
100
AcDbEntity
  8
MEASURE
 62
     8
370
    -2
100
AcDbLine
 10
421.0572731595801
 20
151.7934185420848
 30
0.0
 11
421.0572731595801
 21
267.2934185420849
 31
0.0
  0
SOLID
  5
10AA8
330
105DC
100
AcDbEntity
  8
MEASURE
 62
     8
100
AcDbTrace
 10
419.8072731595803
 20
151.7934185420848
 30
0.0
 11
422.3072731595801
 21
151.7934185420848
 31
0.0
 12
421.0572731595801
 22
144.2934185420849
 32
0.0
 13
421.0572731595801
 23
144.2934185420849
 33
0.0
  0
SOLID
  5
10AA9
330
105DC
100
AcDbEntity
  8
MEASURE
 62
     8
100
AcDbTrace
 10
419.8072731595803
 20
267.2934185420849
 30
0.0
 11
422.3072731595801
 21
267.2934185420849
 31
0.0
 12
421.0572731595801
 22
274.7934185420849
 32
0.0
 13
421.0572731595801
 23
274.7934185420849
 33
0.0
  0
MTEXT
  5
10AAA
330
105DC
100
AcDbEntity
  8
MEASURE
 62
     2
100
AcDbMText
 10
409.5572731595801
 20
209.5434185420849
 30
0.0
 40
7.5
 41
0.0
 71
     5
 72
     1
  1
\A1;160.5（最大）\P130.5（最小）
  7
AD-STANDARD
 11
0.0000000000000001
 21
1.0
 31
0.0
 73
     1
 44
1.0
1001
ACAD
1000
MTEXTBEGIN
1070
    73
1070
     1
1070
    44
1040
1.0
1070
    74
1070
     0
1000
MTEXTEND
  0
POINT
  5
10AAB
330
105DC
100
AcDbEntity
  8
DEFPOINTS
 62
     0
100
AcDbPoint
 10
508.782129599371
 20
144.2934185420848
 30
0.0
  0
POINT
  5
10AAC
330
105DC
100
AcDbEntity
  8
DEFPOINTS
 62
     0
100
AcDbPoint
 10
496.282129599371
 20
274.7934185420849
 30
0.0
  0
POINT
  5
10AAD
330
105DC
100
AcDbEntity
  8
DEFPOINTS
 62
     0
100
AcDbPoint
 10
421.0572731595801
 20
274.7934185420849
 30
0.0
  0
ENDBLK
  5
10621
330
105DC
100
AcDbEntity
  8
0
 48
0.1
100
AcDbBlockEnd
  0
BLOCK
  5
10622
330
105E8
100
AcDbEntity
  8
0
 48
0.1
100
AcDbBlockBegin
  2
*D8
 70
     1
 10
0.0
 20
0.0
 30
0.0
  3
*D8
  1

  0
LINE
  5
10A5C
330
105E8
100
AcDbEntity
  8
MEASURE
 62
     8
370
    -2
100
AcDbLine
 10
446.782129599371
 20
226.2934185420849
 30
0.0
 11
430.4806066149057
 21
226.2934185420849
 31
0.0
  0
LINE
  5
10A5D
330
105E8
100
AcDbEntity
  8
MEASURE
 62
     8
370
    -2
100
AcDbLine
 10
493.2821295993703
 20
274.7934185420849
 30
0.0
 11
430.4806066149057
 21
274.7934185420849
 31
0.0
  0
LINE
  5
10A5E
330
105E8
100
AcDbEntity
  8
MEASURE
 62
     8
370
    -2
100
AcDbLine
 10
436.4806066149056
 20
233.7934185420849
 30
0.0
 11
436.4806066149056
 21
267.2934185420849
 31
0.0
  0
LINE
  5
10A5F
330
105E8
100
AcDbEntity
  8
MEASURE
 62
     8
370
    -2
100
AcDbLine
 10
436.4806066149056
 20
274.7934185420849
 30
0.0
 11
436.4806066149056
 21
361.1791328277992
 31
0.0
  0
SOLID
  5
10A60
330
105E8
100
AcDbEntity
  8
MEASURE
 62
     8
100
AcDbTrace
 10
435.2306066149057
 20
233.7934185420849
 30
0.0
 11
437.7306066149056
 21
233.7934185420849
 31
0.0
 12
436.4806066149056
 22
226.2934185420849
 32
0.0
 13
436.4806066149056
 23
226.2934185420849
 33
0.0
  0
SOLID
  5
10A61
330
105E8
100
AcDbEntity
  8
MEASURE
 62
     8
100
AcDbTrace
 10
435.2306066149057
 20
267.2934185420849
 30
0.0
 11
437.7306066149056
 21
267.2934185420849
 31
0.0
 12
436.4806066149056
 22
274.7934185420849
 32
0.0
 13
436.4806066149056
 23
274.7934185420849
 33
0.0
  0
MTEXT
  5
10A62
330
105E8
100
AcDbEntity
  8
MEASURE
 62
     2
100
AcDbMText
 10
431.2306066149057
 20
321.7362756849421
 30
0.0
 40
7.5
 41
0.0
 71
     5
 72
     1
  1
\A1;48.5（ケーブル出口）
  7
AD-STANDARD
 11
0.0000000000000001
 21
1.0
 31
0.0
 73
     1
 44
1.0
1001
ACAD
1000
MTEXTBEGIN
1070
    73
1070
     1
1070
    44
1040
1.0
1070
    74
1070
     0
1000
MTEXTEND
  0
POINT
  5
10A63
330
105E8
100
AcDbEntity
  8
DEFPOINTS
 62
     0
100
AcDbPoint
 10
449.782129599371
 20
226.2934185420848
 30
0.0
  0
POINT
  5
10A64
330
105E8
100
AcDbEntity
  8
DEFPOINTS
 62
     0
100
AcDbPoint
 10
496.2821295993705
 20
274.7934185420849
 30
0.0
  0
POINT
  5
10A65
330
105E8
100
AcDbEntity
  8
DEFPOINTS
 62
     0
100
AcDbPoint
 10
436.4806066149056
 20
274.7934185420849
 30
0.0
  0
ENDBLK
  5
1062D
330
105E8
100
AcDbEntity
  8
0
 48
0.1
100
AcDbBlockEnd
  0
ENDSEC
  0
SECTION
  2
ENTITIES
  0
DIMENSION
  5
1007A
330
2
100
AcDbEntity
  8
MEASURE
100
AcDbDimension
  2
*D0
 10
421.2821295993705
 20
446.0407955706187
 30
0.0
 11
416.0321295993703
 21
591.0407955706188
 31
0.0
 70
    32
 71
     5
 42
289.9999999999998
  3
AD-STANDARD
100
AcDbAlignedDimension
 13
496.2821295993708
 23
736.0407955706184
 33
0.0
 14
496.2821295993708
 24
446.0407955706187
 34
0.0
 50
90.0
100
AcDbRotatedDimension
1001
ACAD
1000
DSTYLE
1002
{
1070
    40
1040
3.0
1070
   140
1040
2.5
1002
}
  0
DIMENSION
  5
10093
330
2
100
AcDbEntity
  8
MEASURE
100
AcDbDimension
  2
*D1
 10
871.2821295993707
 20
387.7902870530738
 30
0.0
 11
683.7821295993706
 21
393.0402870530739
 31
0.0
 70
    32
 71
     5
 42
375.0
  3
AD-STANDARD
100
AcDbAlignedDimension
 13
496.2821295993708
 23
446.0407955706187
 33
0.0
 14
871.2821295993707
 24
446.0407955706187
 34
0.0
100
AcDbRotatedDimension
1001
ACAD
1000
DSTYLE
1002
{
1070
    40
1040
3.0
1070
   140
1040
2.5
1002
}
  0
DIMENSION
  5
100A1
330
2
100
AcDbEntity
  8
MEASURE
100
AcDbDimension
  2
*D2
 10
895.7821295993706
 20
387.7902870530738
 30
0.0
 11
883.5321295993706
 21
393.0402870530739
 31
0.0
 70
    32
 71
     5
 42
24.5
  3
AD-STANDARD
100
AcDbAlignedDimension
 13
871.2821295993707
 23
446.0407955706187
 33
0.0
 14
895.7821295993706
 24
583.5407955706187
 34
0.0
100
AcDbRotatedDimension
1001
ACAD
1000
DSTYLE
1002
{
1070
    40
1040
3.0
1070
   140
1040
2.5
1002
}
  0
LEADER
  5
1014F
330
2
100
AcDbEntity
  8
MEASURE
 62
     8
100
AcDbLeader
  3
AD-STANDARD
 73
     0
 74
     0
 75
     1
 40
7.5
 41
21.6
 76
     3
 10
887.8129269720131
 20
598.0158280289955
 30
0.0
 10
901.7405817557525
 20
656.8455839975686
 30
0.0
 10
909.2405817557526
 20
656.8455839975686
 30
0.0
340
10150
1001
ACAD
1000
DSTYLE
1002
{
1070
   140
1040
2.5
1070
    40
1040
3.0
1070
   141
1040
6.5
1002
}
  0
MTEXT
  5
10150
102
{ACAD_REACTORS
330
1014F
102
}
330
2
100
AcDbEntity
  8
MEASURE
 62
     2
100
AcDbMText
 10
910.7405817557527
 20
662.0955839975684
 30
0.0
 40
7.5
 41
0.0
 71
     4
 72
     1
  1
\A1;水準器
  7
AD-STANDARD
 73
     1
 44
1.0
1001
ACAD
1000
MTEXTBEGIN
1070
    73
1070
     1
1070
    44
1040
1.0
1070
    74
1070
     0
1000
MTEXTEND
  0
LEADER
  5
10151
330
2
100
AcDbEntity
  8
MEASURE
 62
     8
100
AcDbLeader
  3
AD-STANDARD
 73
     0
 74
     0
 75
     1
 40
7.5
 41
63.14285714285711
 76
     3
 10
474.2821295993706
 20
231.1934185420845
 30
0.0
 10
485.2844876280467
 20
297.0778523344693
 30
0.0
 10
492.7844876280467
 20
297.0778523344693
 30
0.0
340
10152
1001
ACAD
1000
DSTYLE
1002
{
1070
   140
1040
2.5
1070
    40
1040
3.0
1070
   141
1040
6.5
1002
}
  0
MTEXT
  5
10152
102
{ACAD_REACTORS
330
10151
102
}
330
2
100
AcDbEntity
  8
MEASURE
 62
     2
100
AcDbMText
 10
557.4273447709038
 20
302.3278523344693
 30
0.0
 40
7.5
 41
0.0
 71
     6
 72
     1
  1
ケーブル長さ約6m
  7
AD-STANDARD
 73
     1
 44
1.0
1001
ACAD
1000
MTEXTBEGIN
1070
    73
1070
     1
1070
    44
1040
1.0
1070
    74
1070
     0
1000
MTEXTEND
  0
LEADER
  5
10153
330
2
100
AcDbEntity
  8
MEASURE
 62
     8
100
AcDbLeader
  3
AD-STANDARD
 73
     0
 74
     0
 75
     1
 40
7.5
 41
63.94285714285715
 76
     3
 10
686.5997945026882
 20
693.7826426041043
 30
0.0
 10
721.0332984993981
 20
770.181854527353
 30
0.0
 10
728.5332984993981
 20
770.181854527353
 30
0.0
340
10154
1001
ACAD
1000
DSTYLE
1002
{
1070
   140
1040
2.5
1070
    40
1040
3.0
1070
   141
1040
6.5
1002
}
  0
MTEXT
  5
10154
102
{ACAD_REACTORS
330
10153
102
}
330
2
100
AcDbEntity
  8
MEASURE
 62
     2
100
AcDbMText
 10
730.0332984993984
 20
775.431854527353
 30
0.0
 40
7.5
 41
0.0
 71
     4
 72
     1
  1
\A1;上皿（ステンレス）
  7
AD-STANDARD
 73
     1
 44
1.0
1001
ACAD
1000
MTEXTBEGIN
1070
    73
1070
     1
1070
    44
1040
1.0
1070
    74
1070
     0
1000
MTEXTEND
  0
LEADER
  5
10189
330
2
100
AcDbEntity
  8
MEASURE
 62
     8
100
AcDbLeader
  3
AD-STANDARD
 73
     0
 75
     1
 40
7.5
 41
63.54285714285715
 76
     3
 10
683.7821295993706
 20
156.5934185420847
 30
0.0
 10
663.7405057776312
 20
102.9885354032117
 30
0.0
 10
656.2405057776312
 20
102.9885354032117
 30
0.0
340
1018A
1001
ACAD
1000
DSTYLE
1002
{
1070
   140
1040
2.5
1070
    40
1040
3.0
1070
   141
1040
6.5
1002
}
  0
MTEXT
  5
1018A
102
{ACAD_REACTORS
330
10189
102
}
330
2
100
AcDbEntity
  8
MEASURE
 62
     2
100
AcDbMText
 10
654.7405057776312
 20
108.2385354032117
 30
0.0
 40
7.5
 41
0.0
 71
     6
 72
     1
  1
\A1;センターストッパー
  7
AD-STANDARD
 73
     1
 44
1.0
1001
ACAD
1000
MTEXTBEGIN
1070
    73
1070
     1
1070
    44
1040
1.0
1070
    74
1070
     0
1000
MTEXTEND
  0
DIMENSION
  5
1018B
330
2
100
AcDbEntity
  8
MEASURE
100
AcDbDimension
  2
*D3
 10
836.2821295993711
 20
73.8307134302172
 30
0.0
 11
683.782129599371
 21
79.0807134302172
 31
0.0
 70
    32
 71
     5
 42
305.0000000000001
  3
AD-STANDARD
100
AcDbAlignedDimension
 13
531.282129599371
 23
137.1830142098001
 33
0.0
 14
836.2821295993711
 24
137.1830142098001
 34
0.0
100
AcDbRotatedDimension
1001
ACAD
1000
DSTYLE
1002
{
1070
   140
1040
2.5
1070
    40
1040
3.0
1002
}
  0
DIMENSION
  5
101C6
330
2
100
AcDbEntity
  8
MEASURE
100
AcDbDimension
  2
*D4
 10
858.7821295993711
 20
93.97293466540212
 30
0.0
 11
836.2821295993708
 21
99.22293466540217
 31
0.0
 70
    32
  1
φ<>
 71
     5
 42
45.00000000000045
  3
AD-STANDARD
100
AcDbAlignedDimension
 13
813.7821295993706
 23
144.2934185420848
 33
0.0
 14
858.7821295993711
 24
144.2934185420848
 34
0.0
100
AcDbRotatedDimension
1001
ACAD
1000
DSTYLE
1002
{
1070
    40
1040
3.0
1070
   140
1040
2.5
1002
}
  0
DIMENSION
  5
101F5
330
2
100
AcDbEntity
  8
MEASURE
100
AcDbDimension
  2
*D5
 10
124.0530351379479
 20
481.0407955706181
 30
0.0
 11
118.8030351379479
 21
591.0407955706181
 31
0.0
 70
    32
 71
     5
 42
219.9999999999999
  3
AD-STANDARD
100
AcDbAlignedDimension
 13
151.7226318292194
 23
701.0407955706181
 33
0.0
 14
151.7226318292194
 24
481.0407955706181
 34
0.0
 50
90.0
100
AcDbRotatedDimension
1001
ACAD
1000
DSTYLE
1002
{
1070
    40
1040
3.0
1070
   140
1040
2.5
1002
}
  0
LEADER
  5
101F6
330
2
100
AcDbEntity
  8
MEASURE
 62
     8
100
AcDbLeader
  3
AD-STANDARD
 73
     0
 74
     0
 75
     1
 40
7.5
 41
106.4571428571428
 76
     3
 10
836.2821295993706
 20
149.0934185420847
 30
0.0
 10
899.1988454024696
 20
102.791261092443
 30
0.0
 10
906.6988454024695
 20
102.791261092443
 30
0.0
340
101F7
1001
ACAD
1000
DSTYLE
1002
{
1070
   140
1040
2.5
1070
    40
1040
3.0
1070
   141
1040
6.5
1002
}
  0
MTEXT
  5
101F7
102
{ACAD_REACTORS
330
101F6
102
}
330
2
100
AcDbEntity
  8
MEASURE
 62
     2
100
AcDbMText
 10
908.1988454024694
 20
108.041261092443
 30
0.0
 40
7.5
 41
0.0
 71
     4
 72
     1
  1
\A1;ステンレス製アジャスターフット
  7
AD-STANDARD
 73
     1
 44
1.0
1001
ACAD
1000
MTEXTBEGIN
1070
    73
1070
     1
1070
    44
1040
1.0
1070
    74
1070
     0
1000
MTEXTEND
  0
DIMENSION
  5
10204
330
2
100
AcDbEntity
  8
MEASURE
100
AcDbDimension
  2
*D6
 10
194.9196129507284
 20
387.9441594020168
 30
0.0
 11
247.4196129507286
 21
393.1941594020169
 31
0.0
 70
    32
 71
     5
 42
105.0000000000004
  3
AD-STANDARD
100
AcDbAlignedDimension
 13
299.9196129507288
 23
446.0407955706186
 33
0.0
 14
194.9196129507284
 24
446.0407955706187
 34
0.0
100
AcDbRotatedDimension
1001
ACAD
1000
DSTYLE
1002
{
1070
    40
1040
3.0
1070
   140
1040
2.5
1002
}
  0
LINE
  5
10425
330
2
100
AcDbEntity
  8
0
100
AcDbLine
 10
496.2821295993701
 20
169.793418542085
 30
0.0
 11
871.2821295993705
 21
169.7934185420848
 31
0.0
  0
LINE
  5
10426
330
2
100
AcDbEntity
  8
0
100
AcDbLine
 10
496.2821295993701
 20
274.7934185420846
 30
0.0
 11
871.2821295993705
 21
274.7934185420849
 31
0.0
  0
LINE
  5
10427
330
2
100
AcDbEntity
  8
0
100
AcDbLine
 10
512.782129599371
 20
169.2934185420848
 30
0.0
 11
854.782129599371
 21
169.2934185420848
 31
0.0
  0
LINE
  5
10428
330
2
100
AcDbEntity
  8
MEASURE
  6
CENTER
 48
0.5
100
AcDbLine
 10
449.782129599371
 20
226.2934185420848
 30
0.0
 11
535.282129599371
 21
226.2934185420848
 31
0.0
  0
LINE
  5
1042A
330
2
100
AcDbEntity
  8
0
100
AcDbLine
 10
452.282129599371
 20
221.3934185420848
 30
0.0
 11
496.2821295993705
 21
221.3934185420848
 31
0.0
  0
LINE
  5
1042C
330
2
100
AcDbEntity
  8
0
100
AcDbLine
 10
452.282129599371
 20
231.1934185420845
 30
0.0
 11
496.2821295993705
 21
231.1934185420845
 31
0.0
  0
DIMENSION
  5
1042D
330
2
100
AcDbEntity
  8
MEASURE
100
AcDbDimension
  2
*D7
 10
421.0572731595801
 20
274.7934185420849
 30
0.0
 11
409.5572731595801
 21
209.5434185420849
 31
0.0
 70
    32
  1
160.5（最大）\P<>（最小）
 71
     5
 42
130.5
  3
AD-STANDARD
100
AcDbAlignedDimension
 13
508.782129599371
 23
144.2934185420848
 33
0.0
 14
496.282129599371
 24
274.7934185420849
 34
0.0
 50
90.0
100
AcDbRotatedDimension
1001
ACAD
1000
DSTYLE
1002
{
1070
   140
1040
2.5
1070
    40
1040
3.0
1070
   141
1040
6.5
1002
}
  0
DIMENSION
  5
1042E
330
2
100
AcDbEntity
  8
MEASURE
100
AcDbDimension
  2
*D8
 10
436.4806066149056
 20
274.7934185420849
 30
0.0
 11
431.2306066149057
 21
321.7362756849421
 31
0.0
 70
    32
  1
<>（ケーブル出口）
 71
     5
 42
48.5
  3
AD-STANDARD
100
AcDbAlignedDimension
 13
449.782129599371
 23
226.2934185420848
 33
0.0
 14
496.2821295993705
 24
274.7934185420849
 34
0.0
 50
90.0
100
AcDbRotatedDimension
1001
ACAD
1000
DSTYLE
1002
{
1070
   140
1040
2.5
1070
    40
1040
3.0
1070
   141
1040
6.5
1002
}
  0
LINE
  5
1042F
330
2
100
AcDbEntity
  8
0
100
AcDbLine
 10
452.282129599371
 20
231.1934185420845
 30
0.0
 11
452.282129599371
 21
221.3934185420848
 31
0.0
  0
LINE
  5
10430
330
2
100
AcDbEntity
  8
0
100
AcDbLine
 10
496.2821295993705
 20
274.7934185420849
 30
0.0
 11
496.2821295993705
 21
169.793418542085
 31
0.0
  0
LINE
  5
10431
330
2
100
AcDbEntity
  8
0
100
AcDbLine
 10
522.782129599371
 20
153.2934185420848
 30
0.0
 11
512.3898247539576
 21
147.2934185420848
 31
0.0
  0
LINE
  5
10432
330
2
100
AcDbEntity
  8
0
100
AcDbLine
 10
522.782129599371
 20
154.2934185420848
 30
0.0
 11
521.4671750231475
 21
155.0526079206396
 31
0.0
  0
LINE
  5
10433
330
2
100
AcDbEntity
  8
0
100
AcDbLine
 10
522.782129599371
 20
161.2934185420848
 30
0.0
 11
521.4671750231469
 21
162.0526079206396
 31
0.0
  0
LINE
  5
10434
330
2
100
AcDbEntity
  8
0
100
AcDbLine
 10
508.782129599371
 20
147.2934185420848
 30
0.0
 11
553.782129599371
 21
147.2934185420848
 31
0.0
  0
LINE
  5
10435
330
2
100
AcDbEntity
  8
0
100
AcDbLine
 10
508.782129599371
 20
144.2934185420848
 30
0.0
 11
553.782129599371
 21
144.2934185420848
 31
0.0
  0
LINE
  5
10436
330
2
100
AcDbEntity
  8
0
100
AcDbLine
 10
521.4671750231475
 20
161.2934185420848
 30
0.0
 11
541.0970841755944
 21
161.2934185420848
 31
0.0
  0
LINE
  5
10438
330
2
100
AcDbEntity
  8
0
100
AcDbLine
 10
521.4671750231475
 20
155.0526079206396
 30
0.0
 11
521.4671750231475
 21
161.2934185420848
 31
0.0
  0
LINE
  5
10439
330
2
100
AcDbEntity
  8
0
100
AcDbLine
 10
508.782129599371
 20
147.2934185420848
 30
0.0
 11
508.782129599371
 21
144.2934185420848
 31
0.0
  0
LINE
  5
1043A
330
2
100
AcDbEntity
  8
0
100
AcDbLine
 10
521.4671750231469
 20
162.0526079206396
 30
0.0
 11
521.4671750231469
 21
169.2934185420848
 31
0.0
  0
LINE
  5
1043B
330
2
100
AcDbEntity
  8
0
100
AcDbLine
 10
491.782129599371
 20
216.2934185420848
 30
0.0
 11
491.782129599371
 21
221.3934185420848
 31
0.0
  0
LINE
  5
1043C
330
2
100
AcDbEntity
  8
0
100
AcDbLine
 10
483.782129599371
 20
221.3934185420848
 30
0.0
 11
483.782129599371
 21
216.793418542085
 31
0.0
  0
LINE
  5
1043D
330
2
100
AcDbEntity
  8
0
100
AcDbLine
 10
483.782129599371
 20
231.1934185420845
 30
0.0
 11
483.782129599371
 21
235.7934185420849
 31
0.0
  0
LINE
  5
1043E
330
2
100
AcDbEntity
  8
0
100
AcDbLine
 10
484.282129599371
 20
216.2934185420848
 30
0.0
 11
483.782129599371
 21
216.793418542085
 31
0.0
  0
LINE
  5
1043F
330
2
100
AcDbEntity
  8
0
100
AcDbLine
 10
484.282129599371
 20
216.2934185420848
 30
0.0
 11
491.782129599371
 21
216.2934185420848
 31
0.0
  0
LINE
  5
10440
330
2
100
AcDbEntity
  8
0
100
AcDbLine
 10
484.282129599371
 20
236.2934185420848
 30
0.0
 11
483.782129599371
 21
235.7934185420849
 31
0.0
  0
LINE
  5
10441
330
2
100
AcDbEntity
  8
0
100
AcDbLine
 10
541.0970841755944
 20
155.0526079206396
 30
0.0
 11
541.0970841755944
 21
161.2934185420848
 31
0.0
  0
LINE
  5
10442
330
2
100
AcDbEntity
  8
0
100
AcDbLine
 10
536.1896068874823
 20
155.0526079206396
 30
0.0
 11
536.1896068874823
 21
161.2934185420848
 31
0.0
  0
LINE
  5
10443
330
2
100
AcDbEntity
  8
0
100
AcDbLine
 10
526.3746523112588
 20
155.0526079206396
 30
0.0
 11
526.3746523112588
 21
161.2934185420848
 31
0.0
  0
LINE
  5
10444
330
2
100
AcDbEntity
  8
0
100
AcDbLine
 10
526.3746523112588
 20
155.0526079206396
 30
0.0
 11
526.3746523112588
 21
161.2934185420848
 31
0.0
  0
LINE
  5
10445
330
2
100
AcDbEntity
  8
0
100
AcDbLine
 10
539.782129599371
 20
153.2934185420848
 30
0.0
 11
539.782129599371
 21
154.2934185420848
 31
0.0
  0
LINE
  5
10446
330
2
100
AcDbEntity
  8
0
100
AcDbLine
 10
539.782129599371
 20
153.2934185420848
 30
0.0
 11
550.1744344447843
 21
147.2934185420848
 31
0.0
  0
LINE
  5
10447
330
2
100
AcDbEntity
  8
0
100
AcDbLine
 10
539.782129599371
 20
154.2934185420848
 30
0.0
 11
541.0970841755944
 21
155.0526079206396
 31
0.0
  0
ARC
  5
10448
330
2
100
AcDbEntity
  8
0
100
AcDbCircle
 10
539.782129599371
 20
163.1730132313621
 30
0.0
 40
8.879594689277416
100
AcDbArc
 50
246.1350745839488
 51
270.0
  0
LINE
  5
10449
330
2
100
AcDbEntity
  8
0
100
AcDbLine
 10
553.782129599371
 20
147.2934185420848
 30
0.0
 11
553.782129599371
 21
144.2934185420848
 31
0.0
  0
ARC
  5
1044A
330
2
100
AcDbEntity
  8
0
100
AcDbCircle
 10
531.282129599371
 20
170.5342291635298
 30
0.0
 40
16.24081062144506
100
AcDbArc
 50
252.4120462260064
 51
287.5879537739936
  0
ARC
  5
1044B
330
2
100
AcDbEntity
  8
0
100
AcDbCircle
 10
531.2821295993707
 20
177.5342291635295
 30
0.0
 40
16.24081062144506
100
AcDbArc
 50
252.4120462260064
 51
287.5879537739936
  0
ARC
  5
1044C
330
2
100
AcDbEntity
  8
0
100
AcDbCircle
 10
539.7821295993707
 20
170.173013231362
 30
0.0
 40
8.879594689277416
100
AcDbArc
 50
246.1350745839488
 51
270.0
  0
LINE
  5
1044D
330
2
100
AcDbEntity
  8
0
100
AcDbLine
 10
541.0970841755944
 20
162.0526079206396
 30
0.0
 11
541.0970841755944
 21
169.2934185420848
 31
0.0
  0
LINE
  5
1044E
330
2
100
AcDbEntity
  8
0
100
AcDbLine
 10
539.782129599371
 20
161.2934185420848
 30
0.0
 11
541.0970841755944
 21
162.0526079206396
 31
0.0
  0
LINE
  5
1044F
330
2
100
AcDbEntity
  8
0
100
AcDbLine
 10
536.1896068874823
 20
162.0526079206396
 30
0.0
 11
536.1896068874823
 21
169.2934185420848
 31
0.0
  0
LINE
  5
10450
330
2
100
AcDbEntity
  8
0
100
AcDbLine
 10
526.3746523112588
 20
162.0526079206396
 30
0.0
 11
526.3746523112588
 21
169.2934185420848
 31
0.0
  0
LINE
  5
10451
330
2
100
AcDbEntity
  8
0
100
AcDbLine
 10
526.3746523112588
 20
162.0526079206396
 30
0.0
 11
526.3746523112588
 21
169.2934185420848
 31
0.0
  0
LINE
  5
10452
330
2
100
AcDbEntity
  8
0
100
AcDbLine
 10
522.782129599371
 20
153.2934185420848
 30
0.0
 11
522.782129599371
 21
154.2934185420848
 31
0.0
  0
ARC
  5
10453
330
2
100
AcDbEntity
  8
0
100
AcDbCircle
 10
522.782129599371
 20
163.1730132313621
 30
0.0
 40
8.879594689277416
100
AcDbArc
 50
270.0
 51
293.8649254160512
  0
LINE
  5
10454
330
2
100
AcDbEntity
  8
0
100
AcDbLine
 10
522.782129599371
 20
153.2934185420848
 30
0.0
 11
539.782129599371
 21
153.2934185420848
 31
0.0
  0
LINE
  5
10455
330
2
100
AcDbEntity
  8
0
100
AcDbLine
 10
539.782129599371
 20
154.2934185420848
 30
0.0
 11
522.782129599371
 21
154.2934185420848
 31
0.0
  0
ARC
  5
10457
330
2
100
AcDbEntity
  8
0
100
AcDbCircle
 10
522.7821295993703
 20
170.173013231362
 30
0.0
 40
8.879594689277416
100
AcDbArc
 50
270.0
 51
293.8649254160512
  0
LINE
  5
10458
330
2
100
AcDbEntity
  8
0
100
AcDbLine
 10
512.782129599371
 20
169.793418542085
 30
0.0
 11
512.782129599371
 21
169.2934185420848
 31
0.0
  0
LINE
  5
10459
330
2
100
AcDbEntity
  8
0
100
AcDbLine
 10
484.282129599371
 20
236.2934185420848
 30
0.0
 11
496.2821295993705
 21
236.2934185420848
 31
0.0
  0
LINE
  5
1045A
330
2
100
AcDbEntity
  8
0
100
AcDbLine
 10
548.416104195586
 20
161.2934185420848
 30
0.0
 11
549.282129599371
 21
161.7934185420848
 31
0.0
  0
LINE
  5
1045B
330
2
100
AcDbEntity
  8
0
100
AcDbLine
 10
549.282129599371
 20
161.7934185420848
 30
0.0
 11
549.282129599371
 21
169.2934185420848
 31
0.0
  0
LINE
  5
1045C
330
2
100
AcDbEntity
  8
0
100
AcDbLine
 10
541.0970841755944
 20
161.2934185420848
 30
0.0
 11
548.416104195586
 21
161.2934185420848
 31
0.0
  0
LINE
  5
1045D
330
2
100
AcDbEntity
  8
0
100
AcDbLine
 10
540.6481550031553
 20
161.7934185420848
 30
0.0
 11
549.282129599371
 21
161.7934185420848
 31
0.0
  0
LINE
  5
1045E
330
2
100
AcDbEntity
  8
MEASURE
  6
CENTER
 48
0.5
100
AcDbLine
 10
531.282129599371
 20
137.1830142098001
 30
0.0
 11
531.282129599371
 21
176.6314275488725
 31
0.0
  0
LINE
  5
1045F
330
2
100
AcDbEntity
  8
0
100
AcDbLine
 10
895.782129599371
 20
169.2934185420846
 30
0.0
 11
800.7821295993711
 21
169.2934185420848
 31
0.0
  0
LINE
  5
10460
330
2
100
AcDbEntity
  8
0
100
AcDbLine
 10
844.782129599371
 20
153.2934185420848
 30
0.0
 11
855.1744344447845
 21
147.2934185420848
 31
0.0
  0
LINE
  5
10461
330
2
100
AcDbEntity
  8
0
100
AcDbLine
 10
844.782129599371
 20
154.2934185420848
 30
0.0
 11
846.0970841755946
 21
155.0526079206396
 31
0.0
  0
LINE
  5
10462
330
2
100
AcDbEntity
  8
0
100
AcDbLine
 10
844.782129599371
 20
161.2934185420848
 30
0.0
 11
846.0970841755946
 21
162.0526079206396
 31
0.0
  0
LINE
  5
10463
330
2
100
AcDbEntity
  8
0
100
AcDbLine
 10
813.782129599371
 20
147.2934185420848
 30
0.0
 11
858.7821295993711
 21
147.2934185420848
 31
0.0
  0
LINE
  5
10464
330
2
100
AcDbEntity
  8
0
100
AcDbLine
 10
813.782129599371
 20
144.2934185420848
 30
0.0
 11
858.7821295993711
 21
144.2934185420848
 31
0.0
  0
LINE
  5
10465
330
2
100
AcDbEntity
  8
0
100
AcDbLine
 10
826.4671750231475
 20
161.2934185420848
 30
0.0
 11
846.0970841755946
 21
161.2934185420848
 31
0.0
  0
LINE
  5
10467
330
2
100
AcDbEntity
  8
0
100
AcDbLine
 10
895.782129599371
 20
154.2934185420846
 30
0.0
 11
844.782129599371
 21
154.2934185420848
 31
0.0
  0
LINE
  5
10468
330
2
100
AcDbEntity
  8
0
100
AcDbLine
 10
690.282129599371
 20
159.2934185420848
 30
0.0
 11
677.282129599371
 21
159.2934185420848
 31
0.0
  0
LINE
  5
10469
330
2
100
AcDbEntity
  8
0
100
AcDbLine
 10
677.282129599371
 20
159.2934185420848
 30
0.0
 11
677.282129599371
 21
151.7934185420848
 31
0.0
  0
LINE
  5
1046A
330
2
100
AcDbEntity
  8
0
100
AcDbLine
 10
677.282129599371
 20
151.7934185420848
 30
0.0
 11
678.1481550031551
 21
151.2934185420848
 31
0.0
  0
LINE
  5
1046B
330
2
100
AcDbEntity
  8
0
100
AcDbLine
 10
678.1481550031551
 20
151.2934185420848
 30
0.0
 11
689.4161041955859
 21
151.2934185420848
 31
0.0
  0
LINE
  5
1046C
330
2
100
AcDbEntity
  8
0
100
AcDbLine
 10
689.4161041955859
 20
151.2934185420848
 30
0.0
 11
690.282129599371
 21
151.7934185420848
 31
0.0
  0
LINE
  5
1046D
330
2
100
AcDbEntity
  8
0
100
AcDbLine
 10
690.282129599371
 20
151.7934185420848
 30
0.0
 11
690.282129599371
 21
159.2934185420848
 31
0.0
  0
LINE
  5
1046E
330
2
100
AcDbEntity
  8
0
100
AcDbLine
 10
677.282129599371
 20
151.7934185420848
 30
0.0
 11
690.282129599371
 21
151.7934185420848
 31
0.0
  0
LINE
  5
1046F
330
2
100
AcDbEntity
  8
0
100
AcDbLine
 10
690.282129599371
 20
162.7934185420848
 30
0.0
 11
677.282129599371
 21
162.7934185420848
 31
0.0
  0
ARC
  5
10470
330
2
100
AcDbEntity
  8
0
100
AcDbCircle
 10
683.782129599371
 20
175.212861958484
 30
0.0
 40
12.41944341639924
100
AcDbArc
 50
252.4120462260064
 51
287.5879537739936
  0
LINE
  5
10472
330
2
100
AcDbEntity
  8
0
100
AcDbLine
 10
687.5349063491032
 20
163.3739751256856
 30
0.0
 11
687.5349063491032
 21
169.2934185420848
 31
0.0
  0
LINE
  5
10473
330
2
100
AcDbEntity
  8
0
100
AcDbLine
 10
691.2876830988359
 20
163.3739751256856
 30
0.0
 11
691.2876830988359
 21
169.2934185420848
 31
0.0
  0
ARC
  5
10474
330
2
100
AcDbEntity
  8
0
100
AcDbCircle
 10
690.282129599371
 20
169.5836968338852
 30
0.0
 40
6.790278291800357
100
AcDbArc
 50
246.1350745839488
 51
270.0
  0
LINE
  5
10475
330
2
100
AcDbEntity
  8
0
100
AcDbLine
 10
690.282129599371
 20
162.7934185420848
 30
0.0
 11
691.2876830988359
 21
163.3739751256856
 31
0.0
  0
LINE
  5
10476
330
2
100
AcDbEntity
  8
0
100
AcDbLine
 10
676.2765760999058
 20
163.3739751256856
 30
0.0
 11
676.2765760999058
 21
169.2934185420848
 31
0.0
  0
LINE
  5
10477
330
2
100
AcDbEntity
  8
0
100
AcDbLine
 10
680.0293528496379
 20
163.3739751256856
 30
0.0
 11
680.0293528496379
 21
169.2934185420848
 31
0.0
  0
ARC
  5
10478
330
2
100
AcDbEntity
  8
0
100
AcDbCircle
 10
677.282129599371
 20
169.5836968338852
 30
0.0
 40
6.790278291800357
100
AcDbArc
 50
270.0
 51
293.8649254160512
  0
LINE
  5
10479
330
2
100
AcDbEntity
  8
0
100
AcDbLine
 10
677.282129599371
 20
162.7934185420848
 30
0.0
 11
676.2765760999058
 21
163.3739751256856
 31
0.0
  0
LINE
  5
1047A
330
2
100
AcDbEntity
  8
0
 62
     8
100
AcDbLine
 10
687.1055970993705
 20
159.2934185420848
 30
0.0
 11
687.1055970993705
 21
162.7934185420848
 31
0.0
  0
LINE
  5
1047B
330
2
100
AcDbEntity
  8
0
100
AcDbLine
 10
687.782129599371
 20
162.7934185420849
 30
0.0
 11
687.782129599371
 21
159.2934185420848
 31
0.0
  0
LINE
  5
1047C
330
2
100
AcDbEntity
  8
0
 62
     8
100
AcDbLine
 10
680.4586620993707
 20
159.2934185420848
 30
0.0
 11
680.4586620993703
 21
162.7934185420848
 31
0.0
  0
LINE
  5
1047D
330
2
100
AcDbEntity
  8
0
100
AcDbLine
 10
679.782129599371
 20
159.2934185420848
 30
0.0
 11
679.7821295993712
 21
162.7934185420848
 31
0.0
  0
LINE
  5
1047E
330
2
100
AcDbEntity
  8
0
100
AcDbLine
 10
800.7821295993711
 20
169.2934185420848
 30
0.0
 11
800.7821295993711
 21
154.2934185420848
 31
0.0
  0
LINE
  5
1047F
330
2
100
AcDbEntity
  8
0
100
AcDbLine
 10
841.1896068874822
 20
155.0526079206396
 30
0.0
 11
841.1896068874822
 21
161.2934185420848
 31
0.0
  0
LINE
  5
10480
330
2
100
AcDbEntity
  8
0
100
AcDbLine
 10
831.3746523112587
 20
155.0526079206396
 30
0.0
 11
831.3746523112587
 21
161.2934185420848
 31
0.0
  0
LINE
  5
10481
330
2
100
AcDbEntity
  8
0
100
AcDbLine
 10
831.3746523112587
 20
155.0526079206396
 30
0.0
 11
831.3746523112587
 21
161.2934185420848
 31
0.0
  0
LINE
  5
10482
330
2
100
AcDbEntity
  8
0
100
AcDbLine
 10
844.782129599371
 20
153.2934185420848
 30
0.0
 11
844.782129599371
 21
154.2934185420848
 31
0.0
  0
ARC
  5
10483
330
2
100
AcDbEntity
  8
0
100
AcDbCircle
 10
844.782129599371
 20
163.1730132313621
 30
0.0
 40
8.879594689277416
100
AcDbArc
 50
246.1350745839488
 51
270.0
  0
ARC
  5
10484
330
2
100
AcDbEntity
  8
0
100
AcDbCircle
 10
836.2821295993709
 20
170.5342291635298
 30
0.0
 40
16.24081062144506
100
AcDbArc
 50
252.4120462260064
 51
287.5879537739936
  0
ARC
  5
10485
330
2
100
AcDbEntity
  8
0
100
AcDbCircle
 10
836.2821295993706
 20
177.5342291635295
 30
0.0
 40
16.24081062144506
100
AcDbArc
 50
252.4120462260064
 51
287.5879537739936
  0
ARC
  5
10486
330
2
100
AcDbEntity
  8
0
100
AcDbCircle
 10
844.7821295993705
 20
170.173013231362
 30
0.0
 40
8.879594689277416
100
AcDbArc
 50
246.1350745839488
 51
270.0
  0
LINE
  5
10487
330
2
100
AcDbEntity
  8
0
100
AcDbLine
 10
841.1896068874822
 20
162.0526079206396
 30
0.0
 11
841.1896068874822
 21
169.2934185420848
 31
0.0
  0
LINE
  5
10488
330
2
100
AcDbEntity
  8
0
100
AcDbLine
 10
831.3746523112587
 20
162.0526079206396
 30
0.0
 11
831.3746523112587
 21
169.2934185420848
 31
0.0
  0
LINE
  5
10489
330
2
100
AcDbEntity
  8
0
100
AcDbLine
 10
831.3746523112587
 20
162.0526079206396
 30
0.0
 11
831.3746523112587
 21
169.2934185420848
 31
0.0
  0
LINE
  5
1048A
330
2
100
AcDbEntity
  8
0
100
AcDbLine
 10
826.4671750231475
 20
155.0526079206396
 30
0.0
 11
826.4671750231475
 21
161.2934185420848
 31
0.0
  0
LINE
  5
1048B
330
2
100
AcDbEntity
  8
0
100
AcDbLine
 10
827.782129599371
 20
153.2934185420848
 30
0.0
 11
827.782129599371
 21
154.2934185420848
 31
0.0
  0
LINE
  5
1048C
330
2
100
AcDbEntity
  8
0
100
AcDbLine
 10
827.782129599371
 20
153.2934185420848
 30
0.0
 11
817.3898247539575
 21
147.2934185420848
 31
0.0
  0
LINE
  5
1048D
330
2
100
AcDbEntity
  8
0
100
AcDbLine
 10
827.782129599371
 20
154.2934185420848
 30
0.0
 11
826.4671750231475
 21
155.0526079206396
 31
0.0
  0
LINE
  5
1048E
330
2
100
AcDbEntity
  8
0
100
AcDbLine
 10
813.782129599371
 20
147.2934185420848
 30
0.0
 11
813.782129599371
 21
144.2934185420848
 31
0.0
  0
LINE
  5
1048F
330
2
100
AcDbEntity
  8
0
100
AcDbLine
 10
826.4671750231471
 20
162.0526079206396
 30
0.0
 11
826.4671750231471
 21
169.2934185420848
 31
0.0
  0
LINE
  5
10490
330
2
100
AcDbEntity
  8
0
100
AcDbLine
 10
827.782129599371
 20
161.2934185420848
 30
0.0
 11
826.4671750231471
 21
162.0526079206396
 31
0.0
  0
ARC
  5
10491
330
2
100
AcDbEntity
  8
0
100
AcDbCircle
 10
827.782129599371
 20
163.1730132313621
 30
0.0
 40
8.879594689277416
100
AcDbArc
 50
270.0
 51
293.8649254160512
  0
LINE
  5
10492
330
2
100
AcDbEntity
  8
0
100
AcDbLine
 10
827.782129599371
 20
153.2934185420848
 30
0.0
 11
844.782129599371
 21
153.2934185420848
 31
0.0
  0
LINE
  5
10493
330
2
100
AcDbEntity
  8
0
100
AcDbLine
 10
844.782129599371
 20
154.2934185420848
 30
0.0
 11
827.782129599371
 21
154.2934185420848
 31
0.0
  0
ARC
  5
10495
330
2
100
AcDbEntity
  8
0
100
AcDbCircle
 10
827.7821295993705
 20
170.173013231362
 30
0.0
 40
8.879594689277416
100
AcDbArc
 50
270.0
 51
293.8649254160512
  0
LINE
  5
10496
330
2
100
AcDbEntity
  8
0
100
AcDbLine
 10
827.7821295993712
 20
154.2934185420847
 30
0.0
 11
800.7821295993711
 21
154.2934185420848
 31
0.0
  0
LINE
  5
10497
330
2
100
AcDbEntity
  8
MEASURE
  6
CENTER
 48
0.5
100
AcDbLine
 10
836.2821295993711
 20
137.1830142098001
 30
0.0
 11
836.2821295993711
 21
176.6314275488725
 31
0.0
  0
LINE
  5
10498
330
2
100
AcDbEntity
  8
0
100
AcDbLine
 10
818.282129599371
 20
169.2934185420848
 30
0.0
 11
818.282129599371
 21
161.7934185420848
 31
0.0
  0
LINE
  5
10499
330
2
100
AcDbEntity
  8
0
100
AcDbLine
 10
818.282129599371
 20
161.7934185420848
 30
0.0
 11
819.148155003155
 21
161.2934185420848
 31
0.0
  0
LINE
  5
1049A
330
2
100
AcDbEntity
  8
0
100
AcDbLine
 10
819.148155003155
 20
161.2934185420848
 30
0.0
 11
826.4671750231475
 21
161.2934185420848
 31
0.0
  0
LINE
  5
1049D
330
2
100
AcDbEntity
  8
0
100
AcDbLine
 10
818.282129599371
 20
161.7934185420848
 30
0.0
 11
826.9161041955864
 21
161.7934185420848
 31
0.0
  0
LINE
  5
1049E
330
2
100
AcDbEntity
  8
0
100
AcDbLine
 10
871.2821295993705
 20
274.7934185420849
 30
0.0
 11
871.2821295993702
 21
169.7934185420848
 31
0.0
  0
LINE
  5
1049F
330
2
100
AcDbEntity
  8
0
100
AcDbLine
 10
846.0970841755946
 20
155.0526079206396
 30
0.0
 11
846.0970841755946
 21
161.2934185420848
 31
0.0
  0
LINE
  5
104A0
330
2
100
AcDbEntity
  8
0
100
AcDbLine
 10
858.7821295993711
 20
147.2934185420848
 30
0.0
 11
858.7821295993711
 21
144.2934185420848
 31
0.0
  0
LINE
  5
104A1
330
2
100
AcDbEntity
  8
0
100
AcDbLine
 10
846.0970841755946
 20
162.0526079206396
 30
0.0
 11
846.0970841755946
 21
169.2934185420848
 31
0.0
  0
LINE
  5
104A2
330
2
100
AcDbEntity
  8
0
100
AcDbLine
 10
895.782129599371
 20
169.2934185420846
 30
0.0
 11
895.782129599371
 21
154.2934185420846
 31
0.0
  0
LINE
  5
104A3
330
2
100
AcDbEntity
  8
0
100
AcDbLine
 10
890.7821295993711
 20
169.2934185420846
 30
0.0
 11
890.7821295993711
 21
154.2934185420846
 31
0.0
  0
LINE
  5
104A4
330
2
100
AcDbEntity
  8
0
100
AcDbLine
 10
848.282129599371
 20
169.7934185420848
 30
0.0
 11
848.282129599371
 21
169.2934185420848
 31
0.0
  0
LINE
  5
104A5
330
2
100
AcDbEntity
  8
0
100
AcDbLine
 10
871.2821295993707
 20
736.0407955706183
 30
0.0
 11
496.2821295993708
 21
736.0407955706183
 31
0.0
  0
LINE
  5
104A6
330
2
100
AcDbEntity
  8
0
100
AcDbLine
 10
496.2821295993708
 20
446.0407955706182
 30
0.0
 11
871.2821295993707
 21
446.0407955706182
 31
0.0
  0
LINE
  5
104A7
330
2
100
AcDbEntity
  8
0
100
AcDbLine
 10
299.9196129507288
 20
446.0407955706186
 30
0.0
 11
194.9196129507284
 21
446.0407955706187
 31
0.0
  0
LINE
  5
104A8
330
2
100
AcDbEntity
  8
0
100
AcDbLine
 10
254.9196129507288
 20
611.0407955706185
 30
0.0
 11
199.9196129507288
 21
611.0407955706185
 31
0.0
  0
LINE
  5
104A9
330
2
100
AcDbEntity
  8
0
100
AcDbLine
 10
254.9196129507288
 20
571.0407955706186
 30
0.0
 11
199.9196129507284
 21
571.0407955706186
 31
0.0
  0
LINE
  5
104AB
330
2
100
AcDbEntity
  8
MEASURE
  6
CENTER
 48
0.5
100
AcDbLine
 10
313.958574346228
 20
591.0407955706181
 30
0.0
 11
169.006589366129
 21
591.0407955706181
 31
0.0
  0
LINE
  5
104AC
330
2
100
AcDbEntity
  8
0
100
AcDbLine
 10
299.9196129507288
 20
736.0407955706184
 30
0.0
 11
194.9196129507284
 21
736.0407955706188
 31
0.0
  0
LINE
  5
104AD
330
2
100
AcDbEntity
  8
0
100
AcDbLine
 10
194.9196129507288
 20
736.0407955706183
 30
0.0
 11
194.9196129507288
 21
616.0407955706185
 31
0.0
  0
LINE
  5
104AE
330
2
100
AcDbEntity
  8
0
100
AcDbLine
 10
194.4196129507288
 20
719.5407955706176
 30
0.0
 11
194.4196129507288
 21
462.540795570618
 31
0.0
  0
LINE
  5
104AF
330
2
100
AcDbEntity
  8
0
100
AcDbLine
 10
187.1788023292836
 20
485.9482728587297
 30
0.0
 11
194.4196129507288
 21
485.9482728587297
 31
0.0
  0
LINE
  5
104B0
330
2
100
AcDbEntity
  8
0
100
AcDbLine
 10
187.1788023292836
 20
490.8557501468417
 30
0.0
 11
194.4196129507288
 21
490.8557501468417
 31
0.0
  0
LINE
  5
104B1
330
2
100
AcDbEntity
  8
0
100
AcDbLine
 10
187.1788023292836
 20
485.9482728587297
 30
0.0
 11
194.4196129507288
 21
485.9482728587297
 31
0.0
  0
LINE
  5
104B2
330
2
100
AcDbEntity
  8
0
100
AcDbLine
 10
187.1788023292836
 20
476.1333182825064
 30
0.0
 11
194.4196129507288
 21
476.1333182825064
 31
0.0
  0
LINE
  5
104B3
330
2
100
AcDbEntity
  8
0
100
AcDbLine
 10
187.1788023292836
 20
471.2258409943943
 30
0.0
 11
194.4196129507288
 21
471.2258409943943
 31
0.0
  0
LINE
  5
104B4
330
2
100
AcDbEntity
  8
0
100
AcDbLine
 10
194.4196129507288
 20
603.5407955706179
 30
0.0
 11
179.4196129507288
 21
603.5407955706179
 31
0.0
  0
LINE
  5
104B5
330
2
100
AcDbEntity
  8
0
100
AcDbLine
 10
194.4196129507288
 20
578.5407955706179
 30
0.0
 11
179.4196129507288
 21
578.5407955706179
 31
0.0
  0
LINE
  5
104B6
330
2
100
AcDbEntity
  8
0
100
AcDbLine
 10
194.4196129507288
 20
598.5407955706179
 30
0.0
 11
179.4196129507288
 21
598.5407955706179
 31
0.0
  0
LINE
  5
104B7
330
2
100
AcDbEntity
  8
0
100
AcDbLine
 10
194.4196129507288
 20
583.5407955706179
 30
0.0
 11
179.4196129507288
 21
583.5407955706179
 31
0.0
  0
LINE
  5
104BB
330
2
100
AcDbEntity
  8
0
100
AcDbLine
 10
184.4196129507288
 20
597.5407955706177
 30
0.0
 11
176.9196129507288
 21
597.5407955706177
 31
0.0
  0
LINE
  5
104BC
330
2
100
AcDbEntity
  8
0
100
AcDbLine
 10
176.9196129507288
 20
597.5407955706177
 30
0.0
 11
176.4196129507288
 21
596.6747701668332
 31
0.0
  0
LINE
  5
104BD
330
2
100
AcDbEntity
  8
0
100
AcDbLine
 10
176.4196129507288
 20
596.6747701668332
 30
0.0
 11
176.4196129507288
 21
585.4068209744024
 31
0.0
  0
LINE
  5
104BE
330
2
100
AcDbEntity
  8
0
100
AcDbLine
 10
176.4196129507288
 20
585.4068209744024
 30
0.0
 11
176.9196129507288
 21
584.5407955706177
 31
0.0
  0
LINE
  5
104BF
330
2
100
AcDbEntity
  8
0
100
AcDbLine
 10
176.9196129507288
 20
584.5407955706177
 30
0.0
 11
184.4196129507288
 21
584.5407955706177
 31
0.0
  0
LINE
  5
104C0
330
2
100
AcDbEntity
  8
0
100
AcDbLine
 10
176.9196129507288
 20
597.5407955706177
 30
0.0
 11
176.9196129507288
 21
584.5407955706177
 31
0.0
  0
LINE
  5
104C1
330
2
100
AcDbEntity
  8
0
100
AcDbLine
 10
184.4196129507288
 20
584.5407955706177
 30
0.0
 11
184.4196129507288
 21
597.5407955706177
 31
0.0
  0
LINE
  5
104C2
330
2
100
AcDbEntity
  8
0
100
AcDbLine
 10
186.4196129507288
 20
490.8557501468417
 30
0.0
 11
186.4196129507288
 21
471.2258409943943
 31
0.0
  0
LINE
  5
104C3
330
2
100
AcDbEntity
  8
0
100
AcDbLine
 10
186.4196129507288
 20
489.5407955706181
 30
0.0
 11
187.1788023292836
 21
490.8557501468417
 31
0.0
  0
ARC
  5
104C4
330
2
100
AcDbEntity
  8
0
100
AcDbCircle
 10
195.2992076400057
 20
489.5407955706181
 30
0.0
 40
8.879594689277416
100
AcDbArc
 50
180.0
 51
203.8649254160482
  0
LINE
  5
104C5
330
2
100
AcDbEntity
  8
0
100
AcDbLine
 10
186.4196129507288
 20
472.5407955706181
 30
0.0
 11
187.1788023292836
 21
471.2258409943943
 31
0.0
  0
ARC
  5
104C6
330
2
100
AcDbEntity
  8
0
100
AcDbCircle
 10
195.2992076400057
 20
472.5407955706181
 30
0.0
 40
8.879594689277416
100
AcDbArc
 50
156.1350745839517
 51
180.0
  0
ARC
  5
104C7
330
2
100
AcDbEntity
  8
0
100
AcDbCircle
 10
202.6604235721732
 20
481.0407955706181
 30
0.0
 40
16.24081062144506
100
AcDbArc
 50
162.4120462260085
 51
197.5879537739914
  0
LINE
  5
104C9
330
2
100
AcDbEntity
  8
0
100
AcDbLine
 10
178.4196129507288
 20
489.5407955706178
 30
0.0
 11
179.4196129507288
 21
489.5407955706181
 31
0.0
  0
LINE
  5
104CA
330
2
100
AcDbEntity
  8
0
100
AcDbLine
 10
178.4196129507288
 20
472.5407955706181
 30
0.0
 11
179.4196129507288
 21
472.5407955706181
 31
0.0
  0
LINE
  5
104CB
330
2
100
AcDbEntity
  8
0
100
AcDbLine
 10
178.4196129507288
 20
489.5407955706178
 30
0.0
 11
178.4196129507288
 21
472.5407955706178
 31
0.0
  0
LINE
  5
104CC
330
2
100
AcDbEntity
  8
0
100
AcDbLine
 10
178.4196129507288
 20
472.5407955706181
 30
0.0
 11
172.4196129507288
 21
462.1484907252048
 31
0.0
  0
LINE
  5
104CD
330
2
100
AcDbEntity
  8
0
100
AcDbLine
 10
178.4196129507288
 20
489.5407955706178
 30
0.0
 11
172.4196129507288
 21
499.933100416031
 31
0.0
  0
LINE
  5
104CE
330
2
100
AcDbEntity
  8
0
100
AcDbLine
 10
179.4196129507288
 20
489.5407955706181
 30
0.0
 11
180.1788023292836
 21
490.8557501468417
 31
0.0
  0
ARC
  5
104CF
330
2
100
AcDbEntity
  8
0
100
AcDbCircle
 10
188.2992076400056
 20
489.5407955706181
 30
0.0
 40
8.879594689277416
100
AcDbArc
 50
180.0
 51
203.8649254160482
  0
LINE
  5
104D0
330
2
100
AcDbEntity
  8
0
100
AcDbLine
 10
179.4196129507288
 20
472.5407955706181
 30
0.0
 11
180.1788023292836
 21
471.2258409943943
 31
0.0
  0
ARC
  5
104D1
330
2
100
AcDbEntity
  8
0
100
AcDbCircle
 10
188.2992076400056
 20
472.5407955706181
 30
0.0
 40
8.879594689277416
100
AcDbArc
 50
156.1350745839517
 51
180.0
  0
ARC
  5
104D2
330
2
100
AcDbEntity
  8
0
100
AcDbCircle
 10
195.6604235721732
 20
481.0407955706181
 30
0.0
 40
16.24081062144506
100
AcDbArc
 50
162.4120462260085
 51
197.5879537739914
  0
LINE
  5
104D3
330
2
100
AcDbEntity
  8
0
100
AcDbLine
 10
179.4196129507288
 20
472.5407955706181
 30
0.0
 11
179.4196129507288
 21
489.5407955706181
 31
0.0
  0
LINE
  5
104D4
330
2
100
AcDbEntity
  8
0
100
AcDbLine
 10
172.4196129507288
 20
458.5407955706179
 30
0.0
 11
169.4196129507288
 21
458.5407955706179
 31
0.0
  0
LINE
  5
104D5
330
2
100
AcDbEntity
  8
0
100
AcDbLine
 10
172.4196129507288
 20
503.5407955706181
 30
0.0
 11
169.4196129507288
 21
503.5407955706181
 31
0.0
  0
LINE
  5
104D6
330
2
100
AcDbEntity
  8
0
100
AcDbLine
 10
172.4196129507288
 20
503.5407955706181
 30
0.0
 11
172.4196129507288
 21
458.5407955706179
 31
0.0
  0
LINE
  5
104D7
330
2
100
AcDbEntity
  8
0
100
AcDbLine
 10
169.4196129507288
 20
503.5407955706181
 30
0.0
 11
169.4196129507288
 21
458.5407955706179
 31
0.0
  0
LINE
  5
104D8
330
2
100
AcDbEntity
  8
0
100
AcDbLine
 10
180.1788023292836
 20
471.2258409943943
 30
0.0
 11
186.4196129507288
 21
471.2258409943943
 31
0.0
  0
LINE
  5
104D9
330
2
100
AcDbEntity
  8
0
100
AcDbLine
 10
180.1788023292836
 20
476.1333182825064
 30
0.0
 11
186.4196129507288
 21
476.1333182825064
 31
0.0
  0
LINE
  5
104DA
330
2
100
AcDbEntity
  8
0
100
AcDbLine
 10
180.1788023292836
 20
485.9482728587297
 30
0.0
 11
186.4196129507288
 21
485.9482728587297
 31
0.0
  0
LINE
  5
104DB
330
2
100
AcDbEntity
  8
0
100
AcDbLine
 10
180.1788023292836
 20
485.9482728587297
 30
0.0
 11
186.4196129507288
 21
485.9482728587297
 31
0.0
  0
LINE
  5
104DC
330
2
100
AcDbEntity
  8
0
100
AcDbLine
 10
180.1788023292836
 20
490.8557501468417
 30
0.0
 11
186.4196129507288
 21
490.8557501468417
 31
0.0
  0
LINE
  5
104DD
330
2
100
AcDbEntity
  8
0
100
AcDbLine
 10
187.9196129507288
 20
584.5407955706177
 30
0.0
 11
187.9196129507288
 21
597.5407955706177
 31
0.0
  0
ARC
  5
104DE
330
2
100
AcDbEntity
  8
0
100
AcDbCircle
 10
200.339056367128
 20
591.0407955706179
 30
0.0
 40
12.41944341639924
100
AcDbArc
 50
162.4120462260085
 51
197.5879537739914
  0
LINE
  5
104E0
330
2
100
AcDbEntity
  8
0
100
AcDbLine
 10
188.5001695343296
 20
587.2880188208852
 30
0.0
 11
194.4196129507288
 21
587.2880188208852
 31
0.0
  0
LINE
  5
104E1
330
2
100
AcDbEntity
  8
0
100
AcDbLine
 10
188.5001695343296
 20
583.5352420711528
 30
0.0
 11
194.4196129507288
 21
583.5352420711528
 31
0.0
  0
ARC
  5
104E2
330
2
100
AcDbEntity
  8
0
100
AcDbCircle
 10
194.7098912425288
 20
584.5407955706177
 30
0.0
 40
6.790278291800357
100
AcDbArc
 50
156.1350745839517
 51
180.0
  0
LINE
  5
104E3
330
2
100
AcDbEntity
  8
0
100
AcDbLine
 10
187.9196129507288
 20
584.5407955706177
 30
0.0
 11
188.5001695343296
 21
583.5352420711528
 31
0.0
  0
LINE
  5
104E4
330
2
100
AcDbEntity
  8
0
100
AcDbLine
 10
188.5001695343296
 20
598.546349070083
 30
0.0
 11
194.4196129507288
 21
598.546349070083
 31
0.0
  0
LINE
  5
104E5
330
2
100
AcDbEntity
  8
0
100
AcDbLine
 10
188.5001695343296
 20
594.7935723203507
 30
0.0
 11
194.4196129507288
 21
594.7935723203507
 31
0.0
  0
ARC
  5
104E6
330
2
100
AcDbEntity
  8
0
100
AcDbCircle
 10
194.7098912425288
 20
597.5407955706177
 30
0.0
 40
6.790278291800357
100
AcDbArc
 50
180.0
 51
203.8649254160482
  0
LINE
  5
104E7
330
2
100
AcDbEntity
  8
0
100
AcDbLine
 10
187.9196129507288
 20
597.5407955706177
 30
0.0
 11
188.5001695343296
 21
598.546349070083
 31
0.0
  0
LINE
  5
104E8
330
2
100
AcDbEntity
  8
0
100
AcDbLine
 10
194.9196129507288
 20
616.0407955706185
 30
0.0
 11
199.9196129507288
 21
611.0407955706185
 31
0.0
  0
LINE
  5
104E9
330
2
100
AcDbEntity
  8
0
100
AcDbLine
 10
199.9196129507288
 20
571.0407955706186
 30
0.0
 11
194.9196129507288
 21
566.0407955706185
 31
0.0
  0
LINE
  5
104EA
330
2
100
AcDbEntity
  8
0
100
AcDbLine
 10
194.9196129507288
 20
566.0407955706185
 30
0.0
 11
194.9196129507288
 21
446.0407955706187
 31
0.0
  0
LINE
  5
104EC
330
2
100
AcDbEntity
  8
0
100
AcDbLine
 10
194.4196129507288
 20
578.5407955706179
 30
0.0
 11
194.4196129507288
 21
603.5407955706179
 31
0.0
  0
LINE
  5
104ED
330
2
100
AcDbEntity
  8
0
100
AcDbLine
 10
194.9196129507288
 20
462.540795570618
 30
0.0
 11
194.4196129507288
 21
462.540795570618
 31
0.0
  0
LINE
  5
104EE
330
2
100
AcDbEntity
  8
0
 62
     8
100
AcDbLine
 10
203.4196129507289
 20
587.7173280706179
 30
0.0
 11
211.9196129507288
 21
587.7173280706179
 31
0.0
  0
LINE
  5
104EF
330
2
100
AcDbEntity
  8
0
100
AcDbLine
 10
211.9196129507288
 20
587.0407955706179
 30
0.0
 11
203.4196129507289
 21
587.0407955706179
 31
0.0
  0
LINE
  5
104F0
330
2
100
AcDbEntity
  8
0
 62
     8
100
AcDbLine
 10
203.4196129507289
 20
594.3642630706177
 30
0.0
 11
211.9196129507288
 21
594.3642630706177
 31
0.0
  0
LINE
  5
104F1
330
2
100
AcDbEntity
  8
0
100
AcDbLine
 10
203.4196129507289
 20
595.0407955706179
 30
0.0
 11
211.9196129507288
 21
595.0407955706179
 31
0.0
  0
LINE
  5
104F2
330
2
100
AcDbEntity
  8
0
100
AcDbLine
 10
184.4196129507288
 20
595.0407955706179
 30
0.0
 11
187.9196129507288
 21
595.0407955706179
 31
0.0
  0
LINE
  5
104F3
330
2
100
AcDbEntity
  8
0
 62
     8
100
AcDbLine
 10
184.4196129507288
 20
594.3642630706177
 30
0.0
 11
187.9196129507288
 21
594.3642630706177
 31
0.0
  0
LINE
  5
104F4
330
2
100
AcDbEntity
  8
0
 62
     8
100
AcDbLine
 10
184.4196129507288
 20
587.7173280706179
 30
0.0
 11
187.9196129507288
 21
587.7173280706179
 31
0.0
  0
LINE
  5
104F5
330
2
100
AcDbEntity
  8
0
100
AcDbLine
 10
187.9196129507288
 20
587.0407955706179
 30
0.0
 11
184.4196129507288
 21
587.0407955706179
 31
0.0
  0
LINE
  5
104F6
330
2
100
AcDbEntity
  8
0
100
AcDbLine
 10
179.4196129507288
 20
578.5407955706179
 30
0.0
 11
179.4196129507288
 21
584.5407955706177
 31
0.0
  0
LINE
  5
104F7
330
2
100
AcDbEntity
  8
0
100
AcDbLine
 10
179.4196129507288
 20
597.5407955706177
 30
0.0
 11
179.4196129507288
 21
603.5407955706179
 31
0.0
  0
LINE
  5
104F8
330
2
100
AcDbEntity
  8
0
100
AcDbLine
 10
203.4196129507289
 20
571.0407955706186
 30
0.0
 11
203.4196129507289
 21
611.0407955706185
 31
0.0
  0
LINE
  5
104F9
330
2
100
AcDbEntity
  8
0
100
AcDbLine
 10
211.9196129507288
 20
611.0407955706185
 30
0.0
 11
211.9196129507284
 21
571.0407955706186
 31
0.0
  0
LINE
  5
104FA
330
2
100
AcDbEntity
  8
0
100
AcDbLine
 10
218.4196129507288
 20
611.0407955706185
 30
0.0
 11
218.4196129507288
 21
571.0407955706186
 31
0.0
  0
LINE
  5
104FB
330
2
100
AcDbEntity
  8
0
100
AcDbLine
 10
218.4196129507288
 20
611.0407955706185
 30
0.0
 11
218.4196129507288
 21
571.0407955706186
 31
0.0
  0
LINE
  5
104FC
330
2
100
AcDbEntity
  8
0
100
AcDbLine
 10
186.9196129507288
 20
509.0407955706176
 30
0.0
 11
186.9196129507288
 21
496.0407955706176
 31
0.0
  0
LINE
  5
104FD
330
2
100
AcDbEntity
  8
0
100
AcDbLine
 10
186.4196129507288
 20
508.1747701668331
 30
0.0
 11
186.4196129507288
 21
496.9068209744021
 31
0.0
  0
LINE
  5
104FE
330
2
100
AcDbEntity
  8
0
100
AcDbLine
 10
186.9196129507288
 20
509.0407955706176
 30
0.0
 11
186.4196129507288
 21
508.1747701668331
 31
0.0
  0
LINE
  5
104FF
330
2
100
AcDbEntity
  8
0
100
AcDbLine
 10
194.4196129507288
 20
509.0407955706176
 30
0.0
 11
186.9196129507288
 21
509.0407955706176
 31
0.0
  0
LINE
  5
10500
330
2
100
AcDbEntity
  8
0
100
AcDbLine
 10
186.9196129507288
 20
496.0407955706176
 30
0.0
 11
194.4196129507288
 21
496.0407955706176
 31
0.0
  0
LINE
  5
10501
330
2
100
AcDbEntity
  8
0
100
AcDbLine
 10
186.4196129507288
 20
496.9068209744021
 30
0.0
 11
186.9196129507288
 21
496.0407955706176
 31
0.0
  0
LINE
  5
10502
330
2
100
AcDbEntity
  8
MEASURE
  6
CENTER
 48
0.5
100
AcDbLine
 10
151.7226318292194
 20
481.0407955706181
 30
0.0
 11
201.049988731787
 21
481.0407955706181
 31
0.0
  0
LINE
  5
10503
330
2
100
AcDbEntity
  8
0
100
AcDbLine
 10
187.1788023292836
 20
705.9482728587298
 30
0.0
 11
194.4196129507288
 21
705.9482728587298
 31
0.0
  0
LINE
  5
10504
330
2
100
AcDbEntity
  8
0
100
AcDbLine
 10
187.1788023292836
 20
710.8557501468417
 30
0.0
 11
194.4196129507288
 21
710.8557501468417
 31
0.0
  0
LINE
  5
10505
330
2
100
AcDbEntity
  8
0
100
AcDbLine
 10
187.1788023292836
 20
705.9482728587298
 30
0.0
 11
194.4196129507288
 21
705.9482728587298
 31
0.0
  0
LINE
  5
10506
330
2
100
AcDbEntity
  8
0
100
AcDbLine
 10
187.1788023292836
 20
696.1333182825064
 30
0.0
 11
194.4196129507288
 21
696.1333182825064
 31
0.0
  0
LINE
  5
10507
330
2
100
AcDbEntity
  8
0
100
AcDbLine
 10
187.1788023292836
 20
691.2258409943944
 30
0.0
 11
194.4196129507288
 21
691.2258409943944
 31
0.0
  0
LINE
  5
10509
330
2
100
AcDbEntity
  8
0
100
AcDbLine
 10
186.4196129507288
 20
710.8557501468417
 30
0.0
 11
186.4196129507288
 21
691.2258409943944
 31
0.0
  0
LINE
  5
1050A
330
2
100
AcDbEntity
  8
0
100
AcDbLine
 10
186.4196129507288
 20
709.5407955706181
 30
0.0
 11
187.1788023292836
 21
710.8557501468417
 31
0.0
  0
ARC
  5
1050B
330
2
100
AcDbEntity
  8
0
100
AcDbCircle
 10
195.2992076400057
 20
709.5407955706181
 30
0.0
 40
8.879594689277416
100
AcDbArc
 50
180.0
 51
203.8649254160482
  0
LINE
  5
1050C
330
2
100
AcDbEntity
  8
0
100
AcDbLine
 10
186.4196129507288
 20
692.5407955706181
 30
0.0
 11
187.1788023292836
 21
691.2258409943944
 31
0.0
  0
ARC
  5
1050D
330
2
100
AcDbEntity
  8
0
100
AcDbCircle
 10
195.2992076400057
 20
692.5407955706181
 30
0.0
 40
8.879594689277416
100
AcDbArc
 50
156.1350745839517
 51
180.0
  0
ARC
  5
1050E
330
2
100
AcDbEntity
  8
0
100
AcDbCircle
 10
202.6604235721732
 20
701.0407955706181
 30
0.0
 40
16.24081062144506
100
AcDbArc
 50
162.4120462260085
 51
197.5879537739914
  0
LINE
  5
10510
330
2
100
AcDbEntity
  8
0
100
AcDbLine
 10
178.4196129507288
 20
709.5407955706177
 30
0.0
 11
179.4196129507288
 21
709.5407955706181
 31
0.0
  0
LINE
  5
10511
330
2
100
AcDbEntity
  8
0
100
AcDbLine
 10
178.4196129507288
 20
692.5407955706181
 30
0.0
 11
179.4196129507288
 21
692.5407955706181
 31
0.0
  0
LINE
  5
10512
330
2
100
AcDbEntity
  8
0
100
AcDbLine
 10
178.4196129507288
 20
709.5407955706177
 30
0.0
 11
178.4196129507288
 21
692.5407955706177
 31
0.0
  0
LINE
  5
10513
330
2
100
AcDbEntity
  8
0
100
AcDbLine
 10
178.4196129507288
 20
692.5407955706181
 30
0.0
 11
172.4196129507288
 21
682.1484907252047
 31
0.0
  0
LINE
  5
10514
330
2
100
AcDbEntity
  8
0
100
AcDbLine
 10
178.4196129507288
 20
709.5407955706177
 30
0.0
 11
172.4196129507288
 21
719.9331004160312
 31
0.0
  0
LINE
  5
10515
330
2
100
AcDbEntity
  8
0
100
AcDbLine
 10
179.4196129507288
 20
709.5407955706181
 30
0.0
 11
180.1788023292836
 21
710.8557501468417
 31
0.0
  0
ARC
  5
10516
330
2
100
AcDbEntity
  8
0
100
AcDbCircle
 10
188.2992076400056
 20
709.5407955706181
 30
0.0
 40
8.879594689277416
100
AcDbArc
 50
180.0
 51
203.8649254160482
  0
LINE
  5
10517
330
2
100
AcDbEntity
  8
0
100
AcDbLine
 10
179.4196129507288
 20
692.5407955706181
 30
0.0
 11
180.1788023292836
 21
691.2258409943944
 31
0.0
  0
ARC
  5
10518
330
2
100
AcDbEntity
  8
0
100
AcDbCircle
 10
188.2992076400056
 20
692.5407955706181
 30
0.0
 40
8.879594689277416
100
AcDbArc
 50
156.1350745839517
 51
180.0
  0
ARC
  5
10519
330
2
100
AcDbEntity
  8
0
100
AcDbCircle
 10
195.6604235721732
 20
701.0407955706181
 30
0.0
 40
16.24081062144506
100
AcDbArc
 50
162.4120462260085
 51
197.5879537739914
  0
LINE
  5
1051A
330
2
100
AcDbEntity
  8
0
100
AcDbLine
 10
179.4196129507288
 20
692.5407955706181
 30
0.0
 11
179.4196129507288
 21
709.5407955706181
 31
0.0
  0
LINE
  5
1051B
330
2
100
AcDbEntity
  8
0
100
AcDbLine
 10
172.4196129507288
 20
678.5407955706181
 30
0.0
 11
169.4196129507288
 21
678.5407955706181
 31
0.0
  0
LINE
  5
1051C
330
2
100
AcDbEntity
  8
0
100
AcDbLine
 10
172.4196129507288
 20
723.5407955706181
 30
0.0
 11
169.4196129507288
 21
723.5407955706181
 31
0.0
  0
LINE
  5
1051D
330
2
100
AcDbEntity
  8
0
100
AcDbLine
 10
172.4196129507288
 20
723.5407955706181
 30
0.0
 11
172.4196129507288
 21
678.5407955706181
 31
0.0
  0
LINE
  5
1051E
330
2
100
AcDbEntity
  8
0
100
AcDbLine
 10
169.4196129507288
 20
723.5407955706181
 30
0.0
 11
169.4196129507288
 21
678.5407955706181
 31
0.0
  0
LINE
  5
1051F
330
2
100
AcDbEntity
  8
0
100
AcDbLine
 10
180.1788023292836
 20
691.2258409943944
 30
0.0
 11
186.4196129507288
 21
691.2258409943944
 31
0.0
  0
LINE
  5
10520
330
2
100
AcDbEntity
  8
0
100
AcDbLine
 10
180.1788023292836
 20
696.1333182825064
 30
0.0
 11
186.4196129507288
 21
696.1333182825064
 31
0.0
  0
LINE
  5
10521
330
2
100
AcDbEntity
  8
0
100
AcDbLine
 10
180.1788023292836
 20
705.9482728587298
 30
0.0
 11
186.4196129507288
 21
705.9482728587298
 31
0.0
  0
LINE
  5
10522
330
2
100
AcDbEntity
  8
0
100
AcDbLine
 10
180.1788023292836
 20
705.9482728587298
 30
0.0
 11
186.4196129507288
 21
705.9482728587298
 31
0.0
  0
LINE
  5
10523
330
2
100
AcDbEntity
  8
0
100
AcDbLine
 10
180.1788023292836
 20
710.8557501468417
 30
0.0
 11
186.4196129507288
 21
710.8557501468417
 31
0.0
  0
LINE
  5
10525
330
2
100
AcDbEntity
  8
0
100
AcDbLine
 10
194.9196129507288
 20
719.5407955706176
 30
0.0
 11
194.4196129507288
 21
719.5407955706176
 31
0.0
  0
LINE
  5
10526
330
2
100
AcDbEntity
  8
0
100
AcDbLine
 10
186.9196129507288
 20
686.0407955706175
 30
0.0
 11
186.9196129507288
 21
673.0407955706176
 31
0.0
  0
LINE
  5
10527
330
2
100
AcDbEntity
  8
0
100
AcDbLine
 10
186.4196129507288
 20
685.1747701668331
 30
0.0
 11
186.4196129507288
 21
673.9068209744021
 31
0.0
  0
LINE
  5
10528
330
2
100
AcDbEntity
  8
0
100
AcDbLine
 10
186.9196129507288
 20
686.0407955706175
 30
0.0
 11
186.4196129507288
 21
685.1747701668331
 31
0.0
  0
LINE
  5
10529
330
2
100
AcDbEntity
  8
0
100
AcDbLine
 10
194.4196129507288
 20
686.0407955706175
 30
0.0
 11
186.9196129507288
 21
686.0407955706175
 31
0.0
  0
LINE
  5
1052A
330
2
100
AcDbEntity
  8
0
100
AcDbLine
 10
186.9196129507288
 20
673.0407955706176
 30
0.0
 11
194.4196129507288
 21
673.0407955706176
 31
0.0
  0
LINE
  5
1052B
330
2
100
AcDbEntity
  8
0
100
AcDbLine
 10
186.4196129507288
 20
673.9068209744021
 30
0.0
 11
186.9196129507288
 21
673.0407955706176
 31
0.0
  0
LINE
  5
1052C
330
2
100
AcDbEntity
  8
MEASURE
  6
CENTER
 48
0.5
100
AcDbLine
 10
151.7226318292194
 20
701.0407955706181
 30
0.0
 11
201.049988731787
 21
701.0407955706183
 31
0.0
  0
LINE
  5
1052E
330
2
100
AcDbEntity
  8
0
100
AcDbLine
 10
452.1821295993703
 20
595.9407955706181
 30
0.0
 11
496.2821295993708
 21
595.9407955706181
 31
0.0
  0
LINE
  5
10531
330
2
100
AcDbEntity
  8
0
100
AcDbLine
 10
452.1821295993703
 20
586.1407955706186
 30
0.0
 11
496.2821295993708
 21
586.1407955706186
 31
0.0
  0
LINE
  5
10532
330
2
100
AcDbEntity
  8
MEASURE
  6
CENTER
 48
0.5
100
AcDbLine
 10
439.6596398713621
 20
591.0407955706183
 30
0.0
 11
911.8009215936076
 21
591.0407955706183
 31
0.0
  0
LINE
  5
10533
330
2
100
AcDbEntity
  8
0
100
AcDbLine
 10
299.9196129507288
 20
736.0407955706184
 30
0.0
 11
299.9196129507288
 21
446.0407955706186
 31
0.0
  0
ARC
  5
10534
330
2
100
AcDbEntity
  8
0
100
AcDbCircle
 10
254.9196129507288
 20
591.0407955706183
 30
0.0
 40
20.00000000000023
100
AcDbArc
 50
270.0
 51
90.0
  0
CIRCLE
  5
10535
330
2
100
AcDbEntity
  8
0
100
AcDbCircle
 10
251.4196129507288
 20
591.0407955706181
 30
0.0
 40
4.9
  0
CIRCLE
  5
10536
330
2
100
AcDbEntity
  8
0
100
AcDbCircle
 10
251.4196129507288
 20
591.0407955706181
 30
0.0
 40
15.0
  0
LINE
  5
10537
330
2
100
AcDbEntity
  8
0
100
AcDbLine
 10
267.4196129507288
 20
606.6532905666146
 30
0.0
 11
267.4196129507288
 21
575.4283005746223
 31
0.0
  0
LINE
  5
10538
330
2
100
AcDbEntity
  8
0
100
AcDbLine
 10
273.9196129507288
 20
597.2857935690174
 30
0.0
 11
273.9196129507293
 21
584.7957975722204
 31
0.0
  0
LINE
  5
10539
330
2
100
AcDbEntity
  8
0
100
AcDbLine
 10
452.1821295993703
 20
595.9407955706181
 30
0.0
 11
452.1821295993703
 21
586.1407955706186
 31
0.0
  0
LINE
  5
1053A
330
2
100
AcDbEntity
  8
0
100
AcDbLine
 10
496.2821295993708
 20
736.0407955706184
 30
0.0
 11
496.2821295993708
 21
446.0407955706182
 31
0.0
  0
LINE
  5
1053D
330
2
100
AcDbEntity
  8
0
100
AcDbLine
 10
483.6821295993703
 20
595.9407955706181
 30
0.0
 11
483.6821295993703
 21
601.5407955706185
 31
0.0
  0
LINE
  5
1053E
330
2
100
AcDbEntity
  8
0
100
AcDbLine
 10
483.6821295993703
 20
580.5407955706185
 30
0.0
 11
484.1821295993703
 21
580.0407955706183
 31
0.0
  0
LINE
  5
1053F
330
2
100
AcDbEntity
  8
0
100
AcDbLine
 10
484.1821295993703
 20
602.0407955706183
 30
0.0
 11
483.6821295993703
 21
601.5407955706185
 31
0.0
  0
LINE
  5
10540
330
2
100
AcDbEntity
  8
0
100
AcDbLine
 10
483.6821295993703
 20
580.5407955706185
 30
0.0
 11
483.6821295993703
 21
586.1407955706186
 31
0.0
  0
POINT
  5
10547
330
2
100
AcDbEntity
  8
0
100
AcDbPoint
 10
491.6821295993703
 20
602.0407955706183
 30
0.0
  0
POINT
  5
10548
330
2
100
AcDbEntity
  8
0
100
AcDbPoint
 10
491.6821295993703
 20
601.5407955706185
 30
0.0
  0
POINT
  5
10549
330
2
100
AcDbEntity
  8
0
100
AcDbPoint
 10
483.6821295993703
 20
601.5407955706185
 30
0.0
  0
LINE
  5
1054A
330
2
100
AcDbEntity
  8
0
100
AcDbLine
 10
484.1821295993703
 20
602.0407955706183
 30
0.0
 11
496.2821295993708
 21
602.0407955706183
 31
0.0
  0
LINE
  5
1054B
330
2
100
AcDbEntity
  8
0
100
AcDbLine
 10
491.6821295993703
 20
595.9407955706181
 30
0.0
 11
496.2821295993708
 21
595.9407955706181
 31
0.0
  0
LINE
  5
1054C
330
2
100
AcDbEntity
  8
0
100
AcDbLine
 10
491.6821295993703
 20
586.1407955706186
 30
0.0
 11
496.2821295993708
 21
586.1407955706186
 31
0.0
  0
LINE
  5
1054D
330
2
100
AcDbEntity
  8
0
100
AcDbLine
 10
484.1821295993703
 20
580.0407955706183
 30
0.0
 11
496.2821295993708
 21
580.0407955706183
 31
0.0
  0
ARC
  5
1054E
330
2
100
AcDbEntity
  8
0
100
AcDbCircle
 10
496.6821295993703
 20
599.0407955706183
 30
0.0
 40
1.0
100
AcDbArc
 50
113.5781784781781
 51
246.4218215218219
  0
ARC
  5
1054F
330
2
100
AcDbEntity
  8
0
100
AcDbCircle
 10
496.6821295993703
 20
583.0407955706183
 30
0.0
 40
1.0
100
AcDbArc
 50
113.5781784781781
 51
246.4218215218219
  0
LINE
  5
10550
330
2
100
AcDbEntity
  8
0
100
AcDbLine
 10
1013.065188098727
 20
446.0407955706182
 30
0.0
 11
1118.065188098727
 21
446.0407955706187
 31
0.0
  0
LINE
  5
10551
330
2
100
AcDbEntity
  8
0
100
AcDbLine
 10
1013.065188098727
 20
736.0407955706184
 30
0.0
 11
1118.065188098727
 21
736.0407955706184
 31
0.0
  0
LINE
  5
10552
330
2
100
AcDbEntity
  8
0
100
AcDbLine
 10
871.2821295993707
 20
446.0407955706182
 30
0.0
 11
871.2821295993707
 21
736.0407955706184
 31
0.0
  0
LINE
  5
10553
330
2
100
AcDbEntity
  8
0
100
AcDbLine
 10
1013.065188098727
 20
736.0407955706184
 30
0.0
 11
1013.065188098727
 21
446.0407955706182
 31
0.0
  0
LINE
  5
10555
330
2
100
AcDbEntity
  8
0
100
AcDbLine
 10
895.7821295993706
 20
598.5407955706189
 30
0.0
 11
895.7821295993706
 21
583.5407955706187
 31
0.0
  0
LINE
  5
10556
330
2
100
AcDbEntity
  8
0
100
AcDbLine
 10
895.7821295993706
 20
583.5407955706187
 30
0.0
 11
890.7821295993707
 21
578.5407955706189
 31
0.0
  0
LINE
  5
10557
330
2
100
AcDbEntity
  8
0
100
AcDbLine
 10
895.7821295993706
 20
598.5407955706189
 30
0.0
 11
890.7821295993707
 21
603.5407955706189
 31
0.0
  0
CIRCLE
  5
1055A
330
2
100
AcDbEntity
  8
0
100
AcDbCircle
 10
882.7821295993707
 20
591.0407955706189
 30
0.0
 40
10.3
  0
CIRCLE
  5
1055B
330
2
100
AcDbEntity
  8
0
100
AcDbCircle
 10
882.7821295993707
 20
591.0407955706189
 30
0.0
 40
8.599999999999999
  0
LINE
  5
1055D
330
2
100
AcDbEntity
  8
0
100
AcDbLine
 10
871.2821295993707
 20
603.5407955706189
 30
0.0
 11
890.7821295993707
 21
603.5407955706189
 31
0.0
  0
LINE
  5
1055E
330
2
100
AcDbEntity
  8
0
100
AcDbLine
 10
871.2821295993707
 20
578.5407955706189
 30
0.0
 11
890.7821295993707
 21
578.5407955706189
 31
0.0
  0
LINE
  5
1055F
330
2
100
AcDbEntity
  8
0
100
AcDbLine
 10
1118.065188098727
 20
736.0407955706183
 30
0.0
 11
1118.065188098726
 21
612.0407955706188
 31
0.0
  0
LINE
  5
10560
330
2
100
AcDbEntity
  8
0
100
AcDbLine
 10
1118.565188098727
 20
719.5407955706176
 30
0.0
 11
1118.565188098727
 21
462.540795570618
 31
0.0
  0
LINE
  5
10561
330
2
100
AcDbEntity
  8
MEASURE
  6
CENTER
 48
0.5
100
AcDbLine
 10
999.8380237862823
 20
591.0407955706177
 30
0.0
 11
1142.786528968985
 21
591.0407955706177
 31
0.0
  0
LINE
  5
10563
330
2
100
AcDbEntity
  8
0
100
AcDbLine
 10
1118.065188098727
 20
462.540795570618
 30
0.0
 11
1118.565188098727
 21
462.540795570618
 31
0.0
  0
LINE
  5
10564
330
2
100
AcDbEntity
  8
MEASURE
  6
CENTER
 48
0.5
100
AcDbLine
 10
1150.424211346939
 20
481.040795570618
 30
0.0
 11
1107.825337557891
 21
481.040795570618
 31
0.0
  0
LINE
  5
10565
330
2
100
AcDbEntity
  8
0
100
AcDbLine
 10
1117.065188098727
 20
571.0407955706183
 30
0.0
 11
1118.065188098727
 21
570.0407955706183
 31
0.0
  0
LINE
  5
10566
330
2
100
AcDbEntity
  8
0
100
AcDbLine
 10
1117.065188098727
 20
611.0407955706185
 30
0.0
 11
1118.065188098726
 21
612.0407955706188
 31
0.0
  0
LINE
  5
10567
330
2
100
AcDbEntity
  8
0
100
AcDbLine
 10
1103.065188098727
 20
611.0407955706185
 30
0.0
 11
1117.065188098727
 21
611.0407955706185
 31
0.0
  0
LINE
  5
10568
330
2
100
AcDbEntity
  8
0
100
AcDbLine
 10
1103.065188098727
 20
571.0407955706183
 30
0.0
 11
1117.065188098727
 21
571.0407955706183
 31
0.0
  0
LINE
  5
10569
330
2
100
AcDbEntity
  8
0
100
AcDbLine
 10
1118.065188098727
 20
570.0407955706183
 30
0.0
 11
1118.065188098727
 21
446.0407955706187
 31
0.0
  0
LINE
  5
1056A
330
2
100
AcDbEntity
  8
0
100
AcDbLine
 10
1103.065188098727
 20
611.0407955706183
 30
0.0
 11
1103.065188098727
 21
571.0407955706183
 31
0.0
  0
LINE
  5
1056B
330
2
100
AcDbEntity
  8
0
100
AcDbLine
 10
1109.565188098727
 20
611.0407955706185
 30
0.0
 11
1109.565188098727
 21
571.0407955706183
 31
0.0
  0
LINE
  5
1056C
330
2
100
AcDbEntity
  8
0
100
AcDbLine
 10
1109.565188098727
 20
571.0407955706183
 30
0.0
 11
1109.565188098727
 21
611.0407955706185
 31
0.0
  0
LINE
  5
1056D
330
2
100
AcDbEntity
  8
0
100
AcDbLine
 10
1118.565188098727
 20
603.5407955706177
 30
0.0
 11
1133.565188098727
 21
603.5407955706177
 31
0.0
  0
LINE
  5
1056E
330
2
100
AcDbEntity
  8
0
100
AcDbLine
 10
1118.565188098727
 20
578.5407955706177
 30
0.0
 11
1133.565188098727
 21
578.5407955706177
 31
0.0
  0
LINE
  5
1056F
330
2
100
AcDbEntity
  8
0
100
AcDbLine
 10
1118.565188098727
 20
598.5407955706177
 30
0.0
 11
1133.565188098727
 21
598.5407955706177
 31
0.0
  0
LINE
  5
10570
330
2
100
AcDbEntity
  8
0
100
AcDbLine
 10
1118.565188098727
 20
583.5407955706178
 30
0.0
 11
1133.565188098727
 21
583.5407955706178
 31
0.0
  0
LINE
  5
10571
330
2
100
AcDbEntity
  8
0
100
AcDbLine
 10
1133.565188098727
 20
578.5407955706177
 30
0.0
 11
1133.565188098727
 21
603.5407955706177
 31
0.0
  0
LINE
  5
10573
330
2
100
AcDbEntity
  8
0
100
AcDbLine
 10
1126.565188098727
 20
490.8557501468417
 30
0.0
 11
1126.565188098727
 21
471.2258409943943
 31
0.0
  0
LINE
  5
10574
330
2
100
AcDbEntity
  8
0
100
AcDbLine
 10
1126.565188098727
 20
489.540795570618
 30
0.0
 11
1125.805998720172
 21
490.8557501468417
 31
0.0
  0
ARC
  5
10575
330
2
100
AcDbEntity
  8
0
100
AcDbCircle
 10
1117.68559340945
 20
489.540795570618
 30
0.0
 40
8.879594689277416
100
AcDbArc
 50
336.1350745839518
 51
0.0
  0
LINE
  5
10576
330
2
100
AcDbEntity
  8
0
100
AcDbLine
 10
1125.805998720172
 20
485.9482728587297
 30
0.0
 11
1118.565188098727
 21
485.9482728587297
 31
0.0
  0
LINE
  5
10577
330
2
100
AcDbEntity
  8
0
100
AcDbLine
 10
1125.805998720172
 20
490.8557501468417
 30
0.0
 11
1118.565188098727
 21
490.8557501468417
 31
0.0
  0
LINE
  5
10578
330
2
100
AcDbEntity
  8
0
100
AcDbLine
 10
1125.805998720172
 20
485.9482728587297
 30
0.0
 11
1118.565188098727
 21
485.9482728587297
 31
0.0
  0
LINE
  5
10579
330
2
100
AcDbEntity
  8
0
100
AcDbLine
 10
1125.805998720172
 20
476.1333182825062
 30
0.0
 11
1118.565188098727
 21
476.1333182825062
 31
0.0
  0
LINE
  5
1057A
330
2
100
AcDbEntity
  8
0
100
AcDbLine
 10
1126.565188098727
 20
472.540795570618
 30
0.0
 11
1125.805998720172
 21
471.2258409943943
 31
0.0
  0
LINE
  5
1057B
330
2
100
AcDbEntity
  8
0
100
AcDbLine
 10
1125.805998720172
 20
471.2258409943943
 30
0.0
 11
1118.565188098727
 21
471.2258409943943
 31
0.0
  0
ARC
  5
1057C
330
2
100
AcDbEntity
  8
0
100
AcDbCircle
 10
1117.68559340945
 20
472.540795570618
 30
0.0
 40
8.879594689277416
100
AcDbArc
 50
0.0
 51
23.86492541604821
  0
ARC
  5
1057E
330
2
100
AcDbEntity
  8
0
100
AcDbCircle
 10
1110.324377477282
 20
481.040795570618
 30
0.0
 40
16.24081062144506
100
AcDbArc
 50
342.4120462260086
 51
17.5879537739914
  0
LINE
  5
10580
330
2
100
AcDbEntity
  8
0
100
AcDbLine
 10
1134.565188098727
 20
489.5407955706176
 30
0.0
 11
1133.565188098727
 21
489.540795570618
 31
0.0
  0
LINE
  5
10581
330
2
100
AcDbEntity
  8
0
100
AcDbLine
 10
1134.565188098727
 20
472.540795570618
 30
0.0
 11
1133.565188098727
 21
472.540795570618
 31
0.0
  0
LINE
  5
10582
330
2
100
AcDbEntity
  8
0
100
AcDbLine
 10
1134.565188098727
 20
489.5407955706176
 30
0.0
 11
1134.565188098727
 21
472.5407955706176
 31
0.0
  0
LINE
  5
10583
330
2
100
AcDbEntity
  8
0
100
AcDbLine
 10
1134.565188098727
 20
472.540795570618
 30
0.0
 11
1140.565188098727
 21
462.1484907252046
 31
0.0
  0
LINE
  5
10584
330
2
100
AcDbEntity
  8
0
100
AcDbLine
 10
1134.565188098727
 20
489.5407955706176
 30
0.0
 11
1140.565188098727
 21
499.933100416031
 31
0.0
  0
LINE
  5
10585
330
2
100
AcDbEntity
  8
0
100
AcDbLine
 10
1133.565188098727
 20
489.540795570618
 30
0.0
 11
1132.805998720173
 21
490.8557501468417
 31
0.0
  0
ARC
  5
10586
330
2
100
AcDbEntity
  8
0
100
AcDbCircle
 10
1124.685593409449
 20
489.540795570618
 30
0.0
 40
8.879594689277416
100
AcDbArc
 50
336.1350745839518
 51
0.0
  0
LINE
  5
10587
330
2
100
AcDbEntity
  8
0
100
AcDbLine
 10
1133.565188098727
 20
472.540795570618
 30
0.0
 11
1132.805998720173
 21
471.2258409943943
 31
0.0
  0
ARC
  5
10588
330
2
100
AcDbEntity
  8
0
100
AcDbCircle
 10
1124.685593409449
 20
472.540795570618
 30
0.0
 40
8.879594689277416
100
AcDbArc
 50
0.0
 51
23.86492541604821
  0
ARC
  5
10589
330
2
100
AcDbEntity
  8
0
100
AcDbCircle
 10
1117.324377477282
 20
481.040795570618
 30
0.0
 40
16.24081062144506
100
AcDbArc
 50
342.4120462260086
 51
17.5879537739914
  0
LINE
  5
1058A
330
2
100
AcDbEntity
  8
0
100
AcDbLine
 10
1133.565188098727
 20
472.540795570618
 30
0.0
 11
1133.565188098727
 21
489.540795570618
 31
0.0
  0
LINE
  5
1058B
330
2
100
AcDbEntity
  8
0
100
AcDbLine
 10
1140.565188098727
 20
503.540795570618
 30
0.0
 11
1140.565188098727
 21
458.5407955706179
 31
0.0
  0
LINE
  5
1058C
330
2
100
AcDbEntity
  8
0
100
AcDbLine
 10
1132.805998720173
 20
471.2258409943943
 30
0.0
 11
1126.565188098727
 21
471.2258409943943
 31
0.0
  0
LINE
  5
1058D
330
2
100
AcDbEntity
  8
0
100
AcDbLine
 10
1132.805998720173
 20
476.1333182825062
 30
0.0
 11
1126.565188098727
 21
476.1333182825062
 31
0.0
  0
LINE
  5
1058E
330
2
100
AcDbEntity
  8
0
100
AcDbLine
 10
1132.805998720173
 20
485.9482728587297
 30
0.0
 11
1126.565188098727
 21
485.9482728587297
 31
0.0
  0
LINE
  5
1058F
330
2
100
AcDbEntity
  8
0
100
AcDbLine
 10
1132.805998720173
 20
485.9482728587297
 30
0.0
 11
1126.565188098727
 21
485.9482728587297
 31
0.0
  0
LINE
  5
10590
330
2
100
AcDbEntity
  8
0
100
AcDbLine
 10
1132.805998720173
 20
490.8557501468417
 30
0.0
 11
1126.565188098727
 21
490.8557501468417
 31
0.0
  0
LINE
  5
10591
330
2
100
AcDbEntity
  8
0
100
AcDbLine
 10
1143.565188098727
 20
503.540795570618
 30
0.0
 11
1143.565188098727
 21
458.5407955706179
 31
0.0
  0
LINE
  5
10592
330
2
100
AcDbEntity
  8
0
100
AcDbLine
 10
1140.565188098727
 20
458.5407955706179
 30
0.0
 11
1143.565188098727
 21
458.5407955706179
 31
0.0
  0
LINE
  5
10593
330
2
100
AcDbEntity
  8
0
100
AcDbLine
 10
1140.565188098727
 20
503.540795570618
 30
0.0
 11
1143.565188098727
 21
503.540795570618
 31
0.0
  0
LINE
  5
10594
330
2
100
AcDbEntity
  8
0
100
AcDbLine
 10
1126.065188098727
 20
496.0407955706175
 30
0.0
 11
1118.565188098727
 21
496.0407955706175
 31
0.0
  0
LINE
  5
10595
330
2
100
AcDbEntity
  8
0
100
AcDbLine
 10
1118.565188098727
 20
509.0407955706175
 30
0.0
 11
1126.065188098727
 21
509.0407955706175
 31
0.0
  0
LINE
  5
10596
330
2
100
AcDbEntity
  8
0
100
AcDbLine
 10
1126.565188098727
 20
496.9068209744021
 30
0.0
 11
1126.065188098727
 21
496.0407955706175
 31
0.0
  0
LINE
  5
10597
330
2
100
AcDbEntity
  8
0
100
AcDbLine
 10
1126.065188098727
 20
509.0407955706175
 30
0.0
 11
1126.565188098727
 21
508.1747701668328
 31
0.0
  0
LINE
  5
10598
330
2
100
AcDbEntity
  8
0
100
AcDbLine
 10
1126.565188098727
 20
508.1747701668328
 30
0.0
 11
1126.565188098727
 21
496.9068209744021
 31
0.0
  0
LINE
  5
10599
330
2
100
AcDbEntity
  8
0
100
AcDbLine
 10
1126.065188098727
 20
509.0407955706175
 30
0.0
 11
1126.065188098727
 21
496.0407955706175
 31
0.0
  0
LINE
  5
1059B
330
2
100
AcDbEntity
  8
0
100
AcDbLine
 10
1118.065188098727
 20
719.5407955706176
 30
0.0
 11
1118.565188098727
 21
719.5407955706176
 31
0.0
  0
LINE
  5
1059C
330
2
100
AcDbEntity
  8
MEASURE
  6
CENTER
 48
0.5
100
AcDbLine
 10
1150.424211346939
 20
701.0407955706181
 30
0.0
 11
1107.825337557891
 21
701.0407955706177
 31
0.0
  0
LINE
  5
1059D
330
2
100
AcDbEntity
  8
0
100
AcDbLine
 10
1126.565188098727
 20
710.8557501468417
 30
0.0
 11
1126.565188098727
 21
691.2258409943943
 31
0.0
  0
LINE
  5
1059E
330
2
100
AcDbEntity
  8
0
100
AcDbLine
 10
1126.565188098727
 20
709.5407955706177
 30
0.0
 11
1125.805998720172
 21
710.8557501468417
 31
0.0
  0
ARC
  5
1059F
330
2
100
AcDbEntity
  8
0
100
AcDbCircle
 10
1117.68559340945
 20
709.5407955706177
 30
0.0
 40
8.879594689277416
100
AcDbArc
 50
336.1350745839518
 51
0.0
  0
LINE
  5
105A0
330
2
100
AcDbEntity
  8
0
100
AcDbLine
 10
1125.805998720172
 20
705.9482728587298
 30
0.0
 11
1118.565188098727
 21
705.9482728587298
 31
0.0
  0
LINE
  5
105A1
330
2
100
AcDbEntity
  8
0
100
AcDbLine
 10
1125.805998720172
 20
710.8557501468417
 30
0.0
 11
1118.565188098727
 21
710.8557501468417
 31
0.0
  0
LINE
  5
105A2
330
2
100
AcDbEntity
  8
0
100
AcDbLine
 10
1125.805998720172
 20
705.9482728587298
 30
0.0
 11
1118.565188098727
 21
705.9482728587298
 31
0.0
  0
LINE
  5
105A3
330
2
100
AcDbEntity
  8
0
100
AcDbLine
 10
1125.805998720172
 20
696.1333182825062
 30
0.0
 11
1118.565188098727
 21
696.1333182825062
 31
0.0
  0
LINE
  5
105A4
330
2
100
AcDbEntity
  8
0
100
AcDbLine
 10
1126.565188098727
 20
692.5407955706177
 30
0.0
 11
1125.805998720172
 21
691.2258409943943
 31
0.0
  0
LINE
  5
105A5
330
2
100
AcDbEntity
  8
0
100
AcDbLine
 10
1125.805998720172
 20
691.2258409943943
 30
0.0
 11
1118.565188098727
 21
691.2258409943943
 31
0.0
  0
ARC
  5
105A6
330
2
100
AcDbEntity
  8
0
100
AcDbCircle
 10
1117.68559340945
 20
692.5407955706177
 30
0.0
 40
8.879594689277416
100
AcDbArc
 50
0.0
 51
23.86492541604821
  0
ARC
  5
105A8
330
2
100
AcDbEntity
  8
0
100
AcDbCircle
 10
1110.324377477282
 20
701.0407955706177
 30
0.0
 40
16.24081062144506
100
AcDbArc
 50
342.4120462260086
 51
17.5879537739914
  0
LINE
  5
105AA
330
2
100
AcDbEntity
  8
0
100
AcDbLine
 10
1134.565188098727
 20
709.5407955706177
 30
0.0
 11
1133.565188098727
 21
709.5407955706177
 31
0.0
  0
LINE
  5
105AB
330
2
100
AcDbEntity
  8
0
100
AcDbLine
 10
1134.565188098727
 20
692.5407955706177
 30
0.0
 11
1133.565188098727
 21
692.5407955706177
 31
0.0
  0
LINE
  5
105AC
330
2
100
AcDbEntity
  8
0
100
AcDbLine
 10
1134.565188098727
 20
709.5407955706177
 30
0.0
 11
1134.565188098727
 21
692.5407955706177
 31
0.0
  0
LINE
  5
105AD
330
2
100
AcDbEntity
  8
0
100
AcDbLine
 10
1134.565188098727
 20
692.5407955706177
 30
0.0
 11
1140.565188098727
 21
682.1484907252047
 31
0.0
  0
LINE
  5
105AE
330
2
100
AcDbEntity
  8
0
100
AcDbLine
 10
1134.565188098727
 20
709.5407955706177
 30
0.0
 11
1140.565188098727
 21
719.933100416031
 31
0.0
  0
LINE
  5
105AF
330
2
100
AcDbEntity
  8
0
100
AcDbLine
 10
1133.565188098727
 20
709.5407955706177
 30
0.0
 11
1132.805998720173
 21
710.8557501468417
 31
0.0
  0
ARC
  5
105B0
330
2
100
AcDbEntity
  8
0
100
AcDbCircle
 10
1124.685593409449
 20
709.5407955706177
 30
0.0
 40
8.879594689277416
100
AcDbArc
 50
336.1350745839518
 51
0.0
  0
LINE
  5
105B1
330
2
100
AcDbEntity
  8
0
100
AcDbLine
 10
1133.565188098727
 20
692.5407955706177
 30
0.0
 11
1132.805998720173
 21
691.2258409943943
 31
0.0
  0
ARC
  5
105B2
330
2
100
AcDbEntity
  8
0
100
AcDbCircle
 10
1124.685593409449
 20
692.5407955706177
 30
0.0
 40
8.879594689277416
100
AcDbArc
 50
0.0
 51
23.86492541604821
  0
ARC
  5
105B3
330
2
100
AcDbEntity
  8
0
100
AcDbCircle
 10
1117.324377477282
 20
701.0407955706177
 30
0.0
 40
16.24081062144506
100
AcDbArc
 50
342.4120462260086
 51
17.5879537739914
  0
LINE
  5
105B4
330
2
100
AcDbEntity
  8
0
100
AcDbLine
 10
1133.565188098727
 20
692.5407955706177
 30
0.0
 11
1133.565188098727
 21
709.5407955706177
 31
0.0
  0
LINE
  5
105B5
330
2
100
AcDbEntity
  8
0
100
AcDbLine
 10
1140.565188098727
 20
723.540795570618
 30
0.0
 11
1140.565188098727
 21
678.540795570618
 31
0.0
  0
LINE
  5
105B6
330
2
100
AcDbEntity
  8
0
100
AcDbLine
 10
1132.805998720173
 20
691.2258409943943
 30
0.0
 11
1126.565188098727
 21
691.2258409943943
 31
0.0
  0
LINE
  5
105B7
330
2
100
AcDbEntity
  8
0
100
AcDbLine
 10
1132.805998720173
 20
696.1333182825062
 30
0.0
 11
1126.565188098727
 21
696.1333182825062
 31
0.0
  0
LINE
  5
105B8
330
2
100
AcDbEntity
  8
0
100
AcDbLine
 10
1132.805998720173
 20
705.9482728587298
 30
0.0
 11
1126.565188098727
 21
705.9482728587298
 31
0.0
  0
LINE
  5
105B9
330
2
100
AcDbEntity
  8
0
100
AcDbLine
 10
1132.805998720173
 20
705.9482728587298
 30
0.0
 11
1126.565188098727
 21
705.9482728587298
 31
0.0
  0
LINE
  5
105BA
330
2
100
AcDbEntity
  8
0
100
AcDbLine
 10
1132.805998720173
 20
710.8557501468417
 30
0.0
 11
1126.565188098727
 21
710.8557501468417
 31
0.0
  0
LINE
  5
105BB
330
2
100
AcDbEntity
  8
0
100
AcDbLine
 10
1143.565188098727
 20
723.540795570618
 30
0.0
 11
1143.565188098727
 21
678.540795570618
 31
0.0
  0
LINE
  5
105BC
330
2
100
AcDbEntity
  8
0
100
AcDbLine
 10
1140.565188098727
 20
678.540795570618
 30
0.0
 11
1143.565188098727
 21
678.540795570618
 31
0.0
  0
LINE
  5
105BD
330
2
100
AcDbEntity
  8
0
100
AcDbLine
 10
1140.565188098727
 20
723.540795570618
 30
0.0
 11
1143.565188098727
 21
723.540795570618
 31
0.0
  0
LINE
  5
105BE
330
2
100
AcDbEntity
  8
0
100
AcDbLine
 10
1126.065188098727
 20
673.0407955706177
 30
0.0
 11
1118.565188098727
 21
673.0407955706177
 31
0.0
  0
LINE
  5
105BF
330
2
100
AcDbEntity
  8
0
100
AcDbLine
 10
1118.565188098727
 20
686.0407955706177
 30
0.0
 11
1126.065188098727
 21
686.0407955706177
 31
0.0
  0
LINE
  5
105C0
330
2
100
AcDbEntity
  8
0
100
AcDbLine
 10
1126.565188098727
 20
673.9068209744021
 30
0.0
 11
1126.065188098727
 21
673.0407955706177
 31
0.0
  0
LINE
  5
105C1
330
2
100
AcDbEntity
  8
0
100
AcDbLine
 10
1126.065188098727
 20
686.0407955706177
 30
0.0
 11
1126.565188098727
 21
685.1747701668332
 31
0.0
  0
LINE
  5
105C2
330
2
100
AcDbEntity
  8
0
100
AcDbLine
 10
1126.565188098727
 20
685.1747701668332
 30
0.0
 11
1126.565188098727
 21
673.9068209744021
 31
0.0
  0
LINE
  5
105C3
330
2
100
AcDbEntity
  8
0
100
AcDbLine
 10
1126.065188098727
 20
686.0407955706177
 30
0.0
 11
1126.065188098727
 21
673.0407955706177
 31
0.0
  0
LINE
  5
106B5
330
2
100
AcDbEntity
  8
0
100
AcDbLine
 10
1136.065188098727
 20
597.5407955706177
 30
0.0
 11
1136.065188098727
 21
584.5407955706177
 31
0.0
  0
LINE
  5
106B6
330
2
100
AcDbEntity
  8
0
100
AcDbLine
 10
1136.065188098727
 20
584.5407955706177
 30
0.0
 11
1133.565188098727
 21
584.5407955706177
 31
0.0
  0
LINE
  5
106B7
330
2
100
AcDbEntity
  8
0
100
AcDbLine
 10
1136.565188098727
 20
585.4068209744021
 30
0.0
 11
1136.065188098727
 21
584.5407955706177
 31
0.0
  0
LINE
  5
106B8
330
2
100
AcDbEntity
  8
0
100
AcDbLine
 10
1136.565188098727
 20
596.6747701668332
 30
0.0
 11
1136.565188098727
 21
585.4068209744021
 31
0.0
  0
LINE
  5
106B9
330
2
100
AcDbEntity
  8
0
100
AcDbLine
 10
1136.065188098727
 20
597.5407955706177
 30
0.0
 11
1136.565188098727
 21
596.6747701668332
 31
0.0
  0
LINE
  5
106BA
330
2
100
AcDbEntity
  8
0
100
AcDbLine
 10
1133.565188098727
 20
597.5407955706177
 30
0.0
 11
1136.065188098727
 21
597.5407955706177
 31
0.0
  0
VIEWPORT
  5
10827
102
{ACAD_XDICTIONARY
360
10BB8
102
}
330
10819
100
AcDbEntity
 67
     1
  8
0
 48
0.1
100
AcDbViewport
 10
206.56759265156
 20
144.9783279729321
 30
0.0
 40
473.0209035901056
 41
288.7627609125646
 68
     1
 69
     1
 12
206.56759265156
 22
144.9783279729321
 13
0.0
 23
0.0
 14
10.0
 24
10.0
 15
10.0
 25
10.0
 16
0.0
 26
0.0
 36
1.0
 17
0.0
 27
0.0
 37
0.0
 42
50.0
 43
0.0
 44
0.0
 45
288.7627609125646
 50
0.0
 51
0.0
 72
   100
 90
    32800
  1

281
     0
 71
     1
 74
     0
110
0.0
120
0.0
130
0.0
111
1.0
121
0.0
131
0.0
112
0.0
122
1.0
132
0.0
 79
     0
146
0.0
  0
VIEWPORT
  5
10829
102
{ACAD_XDICTIONARY
360
10BBA
102
}
330
10819
100
AcDbEntity
 67
     1
  8
DEFPOINTS
100
AcDbViewport
 10
206.5683842861381
 20
144.973721719071
 30
0.0
 40
409.5235520980986
 41
286.9241785310753
 68
     2
 69
     2
 12
630.4581703148803
 22
451.3205476719607
 13
0.0
 23
0.0
 14
10.0
 24
10.0
 15
10.0
 25
10.0
 16
0.0
 26
0.0
 36
1.0
 17
0.0
 27
0.0
 37
0.0
 42
50.0
 43
0.0
 44
0.0
 45
860.7725354833071
 50
0.0
 51
0.0
 72
   100
 90
    32800
  1

281
     0
 71
     1
 74
     0
110
0.0
120
0.0
130
0.0
111
1.0
121
0.0
131
0.0
112
0.0
122
1.0
132
0.0
 79
     0
146
0.0
  0
MTEXT
  5
10AEB
330
10819
100
AcDbEntity
 67
     1
  8
MEASURE
 62
     2
100
AcDbMText
 10
351.507110133047
 20
16.96094919963137
 30
0.0
 40
3.5
 41
47.87629211660287
 71
     1
 72
     5
  1
SB30/60K05-FP
  7
AD-STANDARD
 73
     1
 44
1.0
1001
ACAD
1000
MTEXTBEGIN
1070
    73
1070
     1
1070
    44
1040
1.0
1070
    74
1070
     0
1000
MTEXTEND
  0
ENDSEC
  0
SECTION
  2
OBJECTS
  0
DICTIONARY
  5
1A
330
0
100
AcDbDictionary
281
     1
  3
ACAD_COLOR
350
106FD
  3
ACAD_GROUP
350
18
  3
ACAD_LAYOUT
350
10700
  3
ACAD_MATERIAL
350
106FC
  3
ACAD_MLEADERSTYLE
350
10B66
  3
ACAD_MLINESTYLE
350
19
  3
ACAD_PLOTSETTINGS
350
10701
  3
ACAD_PLOTSTYLENAME
350
106FA
  3
ACAD_SCALELIST
350
10B44
  3
ACAD_TABLESTYLE
350
106FE
  3
ACAD_VISUALSTYLE
350
10B33
  3
ACDB_RECOMPOSE_DATA
350
10B9B
  3
AcDbVariableDictionary
350
10790
  3
CONTENTDICTIONARY
350
E3B3
  3
DWGPROPS
350
10BB3
  0
DICTIONARY
  5
10719
330
B
100
AcDbDictionary
280
     1
281
     1
  3
ACAD_LAYERFILTERS
360
10850
  3
ACAD_LAYERSTATES
360
1071A
  3
ACLYDICTIONARY
360
1084F
  0
DICTIONARY
  5
10B8F
330
4
100
AcDbDictionary
280
     1
281
     1
  3
ADSK_XREC_LAYER_RECONCILED
360
10B90
  0
DICTIONARY
  5
10B91
330
1098F
100
AcDbDictionary
280
     1
281
     1
  3
ADSK_XREC_LAYER_RECONCILED
360
10B92
  0
DICTIONARY
  5
10BB8
330
10827
100
AcDbDictionary
280
     1
281
     1
  3
ACAD_XREC_ROUNDTRIP
360
10BB9
  0
DICTIONARY
  5
10BBA
330
10829
100
AcDbDictionary
280
     1
281
     1
  3
ACAD_XREC_ROUNDTRIP
360
10BBB
  0
DICTIONARY
  5
106FD
102
{ACAD_REACTORS
330
1A
102
}
330
1A
100
AcDbDictionary
281
     1
  0
DICTIONARY
  5
18
102
{ACAD_REACTORS
330
1A
102
}
330
1A
100
AcDbDictionary
281
     1
  0
DICTIONARY
  5
10700
102
{ACAD_REACTORS
330
1A
102
}
330
1A
100
AcDbDictionary
281
     1
  3
Model
350
10702
  3
レイアウト
350
1081A
  0
DICTIONARY
  5
106FC
102
{ACAD_REACTORS
330
1A
102
}
330
1A
100
AcDbDictionary
281
     1
  3
ByBlock
350
10B23
  3
ByLayer
350
10B1B
  3
Global
350
10B2B
  0
DICTIONARY
  5
10B66
102
{ACAD_REACTORS
330
1A
102
}
330
1A
100
AcDbDictionary
281
     1
  3
Standard
350
10B67
  0
DICTIONARY
  5
19
102
{ACAD_REACTORS
330
1A
102
}
330
1A
100
AcDbDictionary
281
     1
  3
STANDARD
350
1D
  0
DICTIONARY
  5
10701
102
{ACAD_REACTORS
330
1A
102
}
330
1A
100
AcDbDictionary
281
     1
  0
ACDBDICTIONARYWDFLT
  5
106FA
102
{ACAD_REACTORS
330
1A
102
}
330
1A
100
AcDbDictionary
281
     1
  3
Normal
350
106FB
100
AcDbDictionaryWithDefault
340
106FB
  0
DICTIONARY
  5
10B44
102
{ACAD_REACTORS
330
1A
102
}
330
1A
100
AcDbDictionary
281
     1
  3
A0
350
10B45
  3
A1
350
10B46
  3
A2
350
10B47
  3
A3
350
10B48
  3
A4
350
10B49
  3
A5
350
10B4A
  3
A6
350
10B4B
  3
A7
350
10B4C
  3
A8
350
10B4D
  3
A9
350
10B4E
  3
B0
350
10B4F
  3
B1
350
10B50
  3
B2
350
10B51
  3
B3
350
10B52
  3
B4
350
10B53
  3
B5
350
10B54
  3
B6
350
10B55
  3
B7
350
10B56
  3
B8
350
10B57
  3
B9
350
10B58
  3
C0
350
10B59
  3
C1
350
10B5A
  3
C2
350
10B5B
  3
C3
350
10B5C
  3
C4
350
10B5D
  3
C5
350
10B5E
  3
C6
350
10B5F
  3
C7
350
10B60
  3
C8
350
10B61
  3
C9
350
10B62
  3
D0
350
10B63
  3
D1
350
10B64
  3
D2
350
10B65
  0
DICTIONARY
  5
106FE
102
{ACAD_REACTORS
330
1A
102
}
330
1A
100
AcDbDictionary
281
     1
  3
Standard
350
106FF
  0
DICTIONARY
  5
10B33
102
{ACAD_REACTORS
330
1A
102
}
330
1A
100
AcDbDictionary
281
     1
  3
2dWireframe
350
10B39
  3
3D Hidden
350
10B3B
  3
3dWireframe
350
10B3A
  3
Basic
350
10B38
  3
Brighten
350
10B3F
  3
ColorChange
350
10B43
  3
Conceptual
350
10B3C
  3
Dim
350
10B3E
  3
Facepattern
350
10B42
  3
Flat
350
10B34
  3
FlatWithEdges
350
10B35
  3
Gouraud
350
10B36
  3
GouraudWithEdges
350
10B37
  3
Linepattern
350
10B41
  3
Realistic
350
10B3D
  3
Thicken
350
10B40
  0
XRECORD
  5
10B9B
102
{ACAD_REACTORS
330
1A
102
}
330
1A
100
AcDbXrecord
280
     1
 90
        1
330
106FF
  0
DICTIONARY
  5
10790
102
{ACAD_REACTORS
330
1A
102
}
330
1A
100
AcDbDictionary
281
     1
  3
CANNOSCALE
350
10B96
  3
CMLEADERSTYLE
350
10B95
  3
CTABLESTYLE
350
10791
  3
DIMASSOC
350
10792
  3
INDEXCTL
350
10B98
  3
PROJECTNAME
350
10793
  3
SORTENTS
350
10B97
  0
DICTIONARY
  5
E3B3
102
{ACAD_REACTORS
330
1A
102
}
330
1A
100
AcDbDictionary
281
     1
  0
XRECORD
  5
10BB3
102
{ACAD_REACTORS
330
1A
102
}
330
1A
100
AcDbXrecord
280
     1
  1
DWGPROPS COOKIE
  2

  3

  4

  6

  7

  8
KOIKE-1345
  9

300
=
301
=
302
=
303
=
304
=
305
=
306
=
307
=
308
=
309
=
 40
2.948181180555555
 41
2450372.711178241
 42
2459612.744639468
  1

 90
        0
  0
DICTIONARY
  5
10850
102
{ACAD_REACTORS
330
10719
102
}
330
10719
100
AcDbDictionary
281
     1
  0
DICTIONARY
  5
1071A
102
{ACAD_REACTORS
330
10719
102
}
330
10719
100
AcDbDictionary
281
     1
  0
DICTIONARY
  5
1084F
102
{ACAD_REACTORS
330
10719
102
}
330
10719
100
AcDbDictionary
281
     1
1001
ACAD
1000
<All
  0
XRECORD
  5
10B90
102
{ACAD_REACTORS
330
10B8F
102
}
330
10B8F
100
AcDbXrecord
280
     1
290
     1
  0
XRECORD
  5
10B92
102
{ACAD_REACTORS
330
10B91
102
}
330
10B91
100
AcDbXrecord
280
     1
290
     1
  0
XRECORD
  5
10BB9
102
{ACAD_REACTORS
330
10BB8
102
}
330
10BB8
100
AcDbXrecord
280
     1
102
SHADEPLOT
 70
     0
  0
XRECORD
  5
10BBB
102
{ACAD_REACTORS
330
10BBA
102
}
330
10BBA
100
AcDbXrecord
280
     1
102
SHADEPLOT
 70
     0
  0
LAYOUT
  5
10702
102
{ACAD_XDICTIONARY
360
10BB5
102
}
102
{ACAD_REACTORS
330
10700
102
}
330
10700
100
AcDbPlotSettings
  1

  2
RICOH IPSiO CX9800 RPCS
  4

  6

 40
0.0
 41
0.0
 42
0.0
 43
0.0
 44
0.0
 45
0.0
 46
0.0
 47
0.0
 48
0.0
 49
0.0
140
0.0
141
0.0
142
1.0
143
1.0
 70
  1712
 72
     0
 73
     0
 74
     0
  7

 75
     0
147
1.0
148
0.0
149
0.0
100
AcDbLayout
  1
Model
 70
     1
 71
     0
 10
0.0
 20
0.0
 11
12.0
 21
9.0
 12
0.0
 22
0.0
 32
0.0
 14
0.0
 24
0.0
 34
0.0
 15
0.0
 25
0.0
 35
0.0
146
0.0
 13
0.0
 23
0.0
 33
0.0
 16
1.0
 26
0.0
 36
0.0
 17
0.0
 27
1.0
 37
0.0
 76
     0
330
2
331
10AC6
  0
LAYOUT
  5
1081A
102
{ACAD_XDICTIONARY
360
10836
102
}
102
{ACAD_REACTORS
330
10700
102
}
330
10700
100
AcDbPlotSettings
  1

  2
Adobe PDF
  4
A3
  6

 40
3.174999952316282
 41
3.174999952316282
 42
3.17498779296875
 43
3.17498779296875
 44
297.0318298339844
 45
420.1583251953125
 46
0.0
 47
0.0
 48
0.0
 49
0.0
140
0.0
141
0.0
142
1.0
143
1.0
 70
   688
 72
     1
 73
     1
 74
     5
  7
monochrome.ctb
 75
    16
147
1.0
148
0.0
149
0.0
100
AcDbLayout
  1
レイアウト
 70
     1
 71
     1
 10
-3.17498779296875
 20
-3.174999952316282
 11
416.9833374023435
 21
293.8568298816682
 12
0.0
 22
0.0
 32
0.0
 14
1.780799100725403
 24
1.506914200197796
 34
-0.0015258207003583
 15
411.3543862023944
 25
288.4497417456663
 35
0.0000000349246037
146
0.0
 13
0.0
 23
0.0
 33
0.0
 16
1.0
 26
0.0
 36
0.0
 17
0.0
 27
1.0
 37
0.0
 76
     0
330
10819
331
10827
1001
ACAD_PSEXT
1000
Adobe PDF
1000
Adobe PDF Converter
1000
Desktop
1000

1070
     0
  0
MATERIAL
  5
10B23
102
{ACAD_XDICTIONARY
360
10B24
102
}
102
{ACAD_REACTORS
330
106FC
102
}
330
106FC
100
AcDbMaterial
  1
ByBlock
 72
     0
 43
0.0208333333333333
 43
0.0
 43
0.0
 43
0.0
 43
0.0
 43
0.0208333333333333
 43
0.0
 43
0.0
 43
0.0
 43
0.0
 43
1.0
 43
0.0
 43
0.0
 43
0.0
 43
0.0
 43
1.0
 77
     0
 47
0.0208333333333333
 47
0.0
 47
0.0
 47
0.0
 47
0.0
 47
0.0208333333333333
 47
0.0
 47
0.0
 47
0.0
 47
0.0
 47
1.0
 47
0.0
 47
0.0
 47
0.0
 47
0.0
 47
1.0
171
     0
 49
0.0208333333333333
 49
0.0
 49
0.0
 49
0.0
 49
0.0
 49
0.0208333333333333
 49
0.0
 49
0.0
 49
0.0
 49
0.0
 49
1.0
 49
0.0
 49
0.0
 49
0.0
 49
0.0
 49
1.0
175
     0
142
0.0208333333333333
142
0.0
142
0.0
142
0.0
142
0.0
142
0.0208333333333333
142
0.0
142
0.0
142
0.0
142
0.0
142
1.0
142
0.0
142
0.0
142
0.0
142
0.0
142
1.0
179
     0
144
0.0208333333333333
144
0.0
144
0.0
144
0.0
144
0.0
144
0.0208333333333333
144
0.0
144
0.0
144
0.0
144
0.0
144
1.0
144
0.0
144
0.0
144
0.0
144
0.0
144
1.0
147
0.0208333333333333
147
0.0
147
0.0
147
0.0
147
0.0
147
0.0208333333333333
147
0.0
147
0.0
147
0.0
147
0.0
147
1.0
147
0.0
147
0.0
147
0.0
147
0.0
147
1.0
  0
MATERIAL
  5
10B1B
102
{ACAD_XDICTIONARY
360
10B1C
102
}
102
{ACAD_REACTORS
330
106FC
102
}
330
106FC
100
AcDbMaterial
  1
ByLayer
 72
     0
 43
0.0208333333333333
 43
0.0
 43
0.0
 43
0.0
 43
0.0
 43
0.0208333333333333
 43
0.0
 43
0.0
 43
0.0
 43
0.0
 43
1.0
 43
0.0
 43
0.0
 43
0.0
 43
0.0
 43
1.0
 77
     0
 47
0.0208333333333333
 47
0.0
 47
0.0
 47
0.0
 47
0.0
 47
0.0208333333333333
 47
0.0
 47
0.0
 47
0.0
 47
0.0
 47
1.0
 47
0.0
 47
0.0
 47
0.0
 47
0.0
 47
1.0
171
     0
 49
0.0208333333333333
 49
0.0
 49
0.0
 49
0.0
 49
0.0
 49
0.0208333333333333
 49
0.0
 49
0.0
 49
0.0
 49
0.0
 49
1.0
 49
0.0
 49
0.0
 49
0.0
 49
0.0
 49
1.0
175
     0
142
0.0208333333333333
142
0.0
142
0.0
142
0.0
142
0.0
142
0.0208333333333333
142
0.0
142
0.0
142
0.0
142
0.0
142
1.0
142
0.0
142
0.0
142
0.0
142
0.0
142
1.0
179
     0
144
0.0208333333333333
144
0.0
144
0.0
144
0.0
144
0.0
144
0.0208333333333333
144
0.0
144
0.0
144
0.0
144
0.0
144
1.0
144
0.0
144
0.0
144
0.0
144
0.0
144
1.0
147
0.0208333333333333
147
0.0
147
0.0
147
0.0
147
0.0
147
0.0208333333333333
147
0.0
147
0.0
147
0.0
147
0.0
147
1.0
147
0.0
147
0.0
147
0.0
147
0.0
147
1.0
  0
MATERIAL
  5
10B2B
102
{ACAD_XDICTIONARY
360
10B2C
102
}
102
{ACAD_REACTORS
330
106FC
102
}
330
106FC
100
AcDbMaterial
  1
Global
 72
     0
 43
0.0208333333333333
 43
0.0
 43
0.0
 43
0.0
 43
0.0
 43
0.0208333333333333
 43
0.0
 43
0.0
 43
0.0
 43
0.0
 43
1.0
 43
0.0
 43
0.0
 43
0.0
 43
0.0
 43
1.0
 77
     0
 47
0.0208333333333333
 47
0.0
 47
0.0
 47
0.0
 47
0.0
 47
0.0208333333333333
 47
0.0
 47
0.0
 47
0.0
 47
0.0
 47
1.0
 47
0.0
 47
0.0
 47
0.0
 47
0.0
 47
1.0
171
     0
 49
0.0208333333333333
 49
0.0
 49
0.0
 49
0.0
 49
0.0
 49
0.0208333333333333
 49
0.0
 49
0.0
 49
0.0
 49
0.0
 49
1.0
 49
0.0
 49
0.0
 49
0.0
 49
0.0
 49
1.0
175
     0
142
0.0208333333333333
142
0.0
142
0.0
142
0.0
142
0.0
142
0.0208333333333333
142
0.0
142
0.0
142
0.0
142
0.0
142
1.0
142
0.0
142
0.0
142
0.0
142
0.0
142
1.0
179
     0
144
0.0208333333333333
144
0.0
144
0.0
144
0.0
144
0.0
144
0.0208333333333333
144
0.0
144
0.0
144
0.0
144
0.0
144
1.0
144
0.0
144
0.0
144
0.0
144
0.0
144
1.0
147
0.0208333333333333
147
0.0
147
0.0
147
0.0
147
0.0
147
0.0208333333333333
147
0.0
147
0.0
147
0.0
147
0.0
147
1.0
147
0.0
147
0.0
147
0.0
147
0.0
147
1.0
  0
MLEADERSTYLE
  5
10B67
102
{ACAD_REACTORS
330
10B66
102
}
330
10B66
100
AcDbMLeaderStyle
170
     2
171
     1
172
     0
 90
        2
 40
0.0
 41
0.0
173
     1
 91
-1056964608
340
F
 92
       -2
290
     1
 42
0.09
291
     1
 43
0.36
  3
Standard
 44
0.18
300

342
D
174
     1
178
     6
175
     1
176
     0
 93
-1056964608
 45
0.18
292
     0
297
     0
 46
0.18
 94
-1056964608
 47
1.0
 49
1.0
140
1.0
293
     1
141
0.0
294
     1
177
     0
142
1.0
295
     0
296
     0
143
0.125
1001
ACAD_MLEADERVER
1070
     2
  0
MLINESTYLE
  5
1D
102
{ACAD_REACTORS
330
19
102
}
330
19
100
AcDbMlineStyle
  2
STANDARD
 70
     0
  3

 62
     0
 51
90.0
 52
90.0
 71
     2
 49
0.5
 62
   256
  6
BYLAYER
 49
-0.5
 62
   256
  6
BYLAYER
  0
ACDBPLACEHOLDER
  5
106FB
102
{ACAD_REACTORS
330
106FA
102
}
330
106FA
  0
SCALE
  5
10B45
102
{ACAD_REACTORS
330
10B44
102
}
330
10B44
100
AcDbScale
 70
     0
300
1:1
140
1.0
141
1.0
290
     1
  0
SCALE
  5
10B46
102
{ACAD_REACTORS
330
10B44
102
}
330
10B44
100
AcDbScale
 70
     0
300
1:2
140
1.0
141
2.0
290
     0
  0
SCALE
  5
10B47
102
{ACAD_REACTORS
330
10B44
102
}
330
10B44
100
AcDbScale
 70
     0
300
1:4
140
1.0
141
4.0
290
     0
  0
SCALE
  5
10B48
102
{ACAD_REACTORS
330
10B44
102
}
330
10B44
100
AcDbScale
 70
     0
300
1:5
140
1.0
141
5.0
290
     0
  0
SCALE
  5
10B49
102
{ACAD_REACTORS
330
10B44
102
}
330
10B44
100
AcDbScale
 70
     0
300
1:8
140
1.0
141
8.0
290
     0
  0
SCALE
  5
10B4A
102
{ACAD_REACTORS
330
10B44
102
}
330
10B44
100
AcDbScale
 70
     0
300
1:10
140
1.0
141
10.0
290
     0
  0
SCALE
  5
10B4B
102
{ACAD_REACTORS
330
10B44
102
}
330
10B44
100
AcDbScale
 70
     0
300
1:16
140
1.0
141
16.0
290
     0
  0
SCALE
  5
10B4C
102
{ACAD_REACTORS
330
10B44
102
}
330
10B44
100
AcDbScale
 70
     0
300
1:20
140
1.0
141
20.0
290
     0
  0
SCALE
  5
10B4D
102
{ACAD_REACTORS
330
10B44
102
}
330
10B44
100
AcDbScale
 70
     0
300
1:30
140
1.0
141
30.0
290
     0
  0
SCALE
  5
10B4E
102
{ACAD_REACTORS
330
10B44
102
}
330
10B44
100
AcDbScale
 70
     0
300
1:40
140
1.0
141
40.0
290
     0
  0
SCALE
  5
10B4F
102
{ACAD_REACTORS
330
10B44
102
}
330
10B44
100
AcDbScale
 70
     0
300
1:50
140
1.0
141
50.0
290
     0
  0
SCALE
  5
10B50
102
{ACAD_REACTORS
330
10B44
102
}
330
10B44
100
AcDbScale
 70
     0
300
1:100
140
1.0
141
100.0
290
     0
  0
SCALE
  5
10B51
102
{ACAD_REACTORS
330
10B44
102
}
330
10B44
100
AcDbScale
 70
     0
300
2:1
140
2.0
141
1.0
290
     0
  0
SCALE
  5
10B52
102
{ACAD_REACTORS
330
10B44
102
}
330
10B44
100
AcDbScale
 70
     0
300
4:1
140
4.0
141
1.0
290
     0
  0
SCALE
  5
10B53
102
{ACAD_REACTORS
330
10B44
102
}
330
10B44
100
AcDbScale
 70
     0
300
8:1
140
8.0
141
1.0
290
     0
  0
SCALE
  5
10B54
102
{ACAD_REACTORS
330
10B44
102
}
330
10B44
100
AcDbScale
 70
     0
300
10:1
140
10.0
141
1.0
290
     0
  0
SCALE
  5
10B55
102
{ACAD_REACTORS
330
10B44
102
}
330
10B44
100
AcDbScale
 70
     0
300
100:1
140
100.0
141
1.0
290
     0
  0
SCALE
  5
10B56
102
{ACAD_REACTORS
330
10B44
102
}
330
10B44
100
AcDbScale
 70
     0
300
1/128" = 1'-0"
140
0.0078125
141
12.0
290
     0
  0
SCALE
  5
10B57
102
{ACAD_REACTORS
330
10B44
102
}
330
10B44
100
AcDbScale
 70
     0
300
1/64" = 1'-0"
140
0.015625
141
12.0
290
     0
  0
SCALE
  5
10B58
102
{ACAD_REACTORS
330
10B44
102
}
330
10B44
100
AcDbScale
 70
     0
300
1/32" = 1'-0"
140
0.03125
141
12.0
290
     0
  0
SCALE
  5
10B59
102
{ACAD_REACTORS
330
10B44
102
}
330
10B44
100
AcDbScale
 70
     0
300
1/16" = 1'-0"
140
0.0625
141
12.0
290
     0
  0
SCALE
  5
10B5A
102
{ACAD_REACTORS
330
10B44
102
}
330
10B44
100
AcDbScale
 70
     0
300
3/32" = 1'-0"
140
0.09375
141
12.0
290
     0
  0
SCALE
  5
10B5B
102
{ACAD_REACTORS
330
10B44
102
}
330
10B44
100
AcDbScale
 70
     0
300
1/8" = 1'-0"
140
0.125
141
12.0
290
     0
  0
SCALE
  5
10B5C
102
{ACAD_REACTORS
330
10B44
102
}
330
10B44
100
AcDbScale
 70
     0
300
3/16" = 1'-0"
140
0.1875
141
12.0
290
     0
  0
SCALE
  5
10B5D
102
{ACAD_REACTORS
330
10B44
102
}
330
10B44
100
AcDbScale
 70
     0
300
1/4" = 1'-0"
140
0.25
141
12.0
290
     0
  0
SCALE
  5
10B5E
102
{ACAD_REACTORS
330
10B44
102
}
330
10B44
100
AcDbScale
 70
     0
300
3/8" = 1'-0"
140
0.375
141
12.0
290
     0
  0
SCALE
  5
10B5F
102
{ACAD_REACTORS
330
10B44
102
}
330
10B44
100
AcDbScale
 70
     0
300
1/2" = 1'-0"
140
0.5
141
12.0
290
     0
  0
SCALE
  5
10B60
102
{ACAD_REACTORS
330
10B44
102
}
330
10B44
100
AcDbScale
 70
     0
300
3/4" = 1'-0"
140
0.75
141
12.0
290
     0
  0
SCALE
  5
10B61
102
{ACAD_REACTORS
330
10B44
102
}
330
10B44
100
AcDbScale
 70
     0
300
1" = 1'-0"
140
1.0
141
12.0
290
     0
  0
SCALE
  5
10B62
102
{ACAD_REACTORS
330
10B44
102
}
330
10B44
100
AcDbScale
 70
     0
300
1-1/2" = 1'-0"
140
1.5
141
12.0
290
     0
  0
SCALE
  5
10B63
102
{ACAD_REACTORS
330
10B44
102
}
330
10B44
100
AcDbScale
 70
     0
300
3" = 1'-0"
140
3.0
141
12.0
290
     0
  0
SCALE
  5
10B64
102
{ACAD_REACTORS
330
10B44
102
}
330
10B44
100
AcDbScale
 70
     0
300
6" = 1'-0"
140
6.0
141
12.0
290
     0
  0
SCALE
  5
10B65
102
{ACAD_REACTORS
330
10B44
102
}
330
10B44
100
AcDbScale
 70
     0
300
1'-0" = 1'-0"
140
12.0
141
12.0
290
     0
  0
TABLESTYLE
  5
106FF
102
{ACAD_XDICTIONARY
360
10B99
102
}
102
{ACAD_REACTORS
330
106FE
102
}
330
106FE
100
AcDbTableStyle
  3
Standard
 70
     0
 71
     0
 40
0.06
 41
0.06
280
     0
281
     0
  7
STANDARD
140
0.18
170
     2
 62
     0
 63
     7
283
     0
274
    -2
284
     1
 64
     0
275
    -2
285
     1
 65
     0
276
    -2
286
     1
 66
     0
277
    -2
287
     1
 67
     0
278
    -2
288
     1
 68
     0
279
    -2
289
     1
 69
     0
  7
STANDARD
140
0.25
170
     5
 62
     0
 63
     7
283
     0
274
    -2
284
     1
 64
     0
275
    -2
285
     1
 65
     0
276
    -2
286
     1
 66
     0
277
    -2
287
     1
 67
     0
278
    -2
288
     1
 68
     0
279
    -2
289
     1
 69
     0
  7
STANDARD
140
0.18
170
     5
 62
     0
 63
     7
283
     0
274
    -2
284
     1
 64
     0
275
    -2
285
     1
 65
     0
276
    -2
286
     1
 66
     0
277
    -2
287
     1
 67
     0
278
    -2
288
     1
 68
     0
279
    -2
289
     1
 69
     0
  0
VISUALSTYLE
  5
10B39
102
{ACAD_REACTORS
330
10B33
102
}
330
10B33
100
AcDbVisualStyle
  2
2dWireframe
 70
     4
 71
     0
 72
     2
 73
     0
 90
        0
 40
-0.6
 41
-30.0
 62
     5
 63
     7
 74
     1
 91
        4
 64
     7
 65
   257
 75
     1
175
     1
 42
1.0
 92
        0
 66
   257
 43
1.0
 76
     1
 77
     6
 78
     2
 67
     7
 79
     5
170
     0
171
     0
290
     0
174
     0
 93
        1
 44
0.0
173
     0
291
     0
 45
0.0
1001
ACAD
1000
AcDbSavedByObjectVersion
1070
     0
1000
AcDbSavedByObjectVersion
1070
     0
  0
VISUALSTYLE
  5
10B3B
102
{ACAD_REACTORS
330
10B33
102
}
330
10B33
100
AcDbVisualStyle
  2
3D Hidden
 70
     6
 71
     1
 72
     2
 73
     2
 90
        0
 40
-0.6
 41
-30.0
 62
     5
 63
     7
 74
     2
 91
        2
 64
     7
 65
   257
 75
     2
175
     1
 42
40.0
 92
        0
 66
   257
 43
1.0
 76
     1
 77
     6
 78
     2
 67
     7
 79
     3
170
     0
171
     0
290
     0
174
     0
 93
        1
 44
0.0
173
     0
291
     0
 45
0.0
1001
ACAD
1000
AcDbSavedByObjectVersion
1070
     0
1000
AcDbSavedByObjectVersion
1070
     0
  0
VISUALSTYLE
  5
10B3A
102
{ACAD_REACTORS
330
10B33
102
}
330
10B33
100
AcDbVisualStyle
  2
3dWireframe
 70
     5
 71
     0
 72
     2
 73
     0
 90
        0
 40
-0.6
 41
-30.0
 62
     5
 63
     7
 74
     1
 91
        4
 64
     7
 65
   257
 75
     1
175
     1
 42
1.0
 92
        0
 66
   257
 43
1.0
 76
     1
 77
     6
 78
     2
 67
     7
 79
     5
170
     0
171
     0
290
     0
174
     0
 93
        1
 44
0.0
173
     0
291
     0
 45
0.0
1001
ACAD
1000
AcDbSavedByObjectVersion
1070
     0
1000
AcDbSavedByObjectVersion
1070
     0
  0
VISUALSTYLE
  5
10B38
102
{ACAD_REACTORS
330
10B33
102
}
330
10B33
100
AcDbVisualStyle
  2
Basic
 70
     7
 71
     1
 72
     0
 73
     1
 90
        0
 40
-0.6
 41
-30.0
 62
     5
 63
     7
 74
     0
 91
        4
 64
     7
 65
   257
 75
     1
175
     1
 42
1.0
 92
        8
 66
     7
 43
1.0
 76
     1
 77
     6
 78
     2
 67
     7
 79
     5
170
     0
171
     0
290
     0
174
     0
 93
        1
 44
0.0
173
     0
291
     1
 45
0.0
1001
ACAD
1000
AcDbSavedByObjectVersion
1070
     0
1000
AcDbSavedByObjectVersion
1070
     0
  0
VISUALSTYLE
  5
10B3F
102
{ACAD_REACTORS
330
10B33
102
}
330
10B33
100
AcDbVisualStyle
  2
Brighten
 70
    12
 71
     2
 72
     2
 73
     0
 90
        0
 40
-0.6
 41
-30.0
 62
     5
 63
     7
 74
     1
 91
        4
 64
     7
 65
   257
 75
     1
175
     1
 42
1.0
 92
        8
 66
     7
 43
1.0
 76
     1
 77
     6
 78
     2
 67
     7
 79
     5
170
     0
171
     0
290
     0
174
     0
 93
        1
 44
50.0
173
     0
291
     1
 45
0.0
1001
ACAD
1000
AcDbSavedByObjectVersion
1070
     0
1000
AcDbSavedByObjectVersion
1070
     0
  0
VISUALSTYLE
  5
10B43
102
{ACAD_REACTORS
330
10B33
102
}
330
10B33
100
AcDbVisualStyle
  2
ColorChange
 70
    16
 71
     2
 72
     2
 73
     3
 90
        0
 40
-0.6
 41
-30.0
 62
     5
 63
     8
 74
     1
 91
        4
 64
     7
 65
   257
 75
     1
175
     1
 42
1.0
 92
        8
 66
     8
 43
1.0
 76
     1
 77
     6
 78
     2
 67
     7
 79
     5
170
     0
171
     0
290
     0
174
     0
 93
        1
 44
0.0
173
     0
291
     1
 45
0.0
1001
ACAD
1000
AcDbSavedByObjectVersion
1070
     0
1000
AcDbSavedByObjectVersion
1070
     0
  0
VISUALSTYLE
  5
10B3C
102
{ACAD_REACTORS
330
10B33
102
}
330
10B33
100
AcDbVisualStyle
  2
Conceptual
 70
     9
 71
     3
 72
     2
 73
     0
 90
        0
 40
-0.6
 41
-30.0
 62
     5
 63
     7
 74
     2
 91
        2
 64
     7
 65
   257
 75
     1
175
     1
 42
40.0
 92
        8
 66
     7
 43
1.0
 76
     1
 77
     6
 78
     2
 67
     7
 79
     3
170
     0
171
     0
290
     0
174
     0
 93
        1
 44
0.0
173
     0
291
     0
 45
0.0
1001
ACAD
1000
AcDbSavedByObjectVersion
1070
     0
1000
AcDbSavedByObjectVersion
1070
     0
  0
VISUALSTYLE
  5
10B3E
102
{ACAD_REACTORS
330
10B33
102
}
330
10B33
100
AcDbVisualStyle
  2
Dim
 70
    11
 71
     2
 72
     2
 73
     0
 90
        0
 40
-0.6
 41
-30.0
 62
     5
 63
     7
 74
     1
 91
        4
 64
     7
 65
   257
 75
     1
175
     1
 42
1.0
 92
        8
 66
     7
 43
1.0
 76
     1
 77
     6
 78
     2
 67
     7
 79
     5
170
     0
171
     0
290
     0
174
     0
 93
        1
 44
-50.0
173
     0
291
     1
 45
0.0
1001
ACAD
1000
AcDbSavedByObjectVersion
1070
     0
1000
AcDbSavedByObjectVersion
1070
     0
  0
VISUALSTYLE
  5
10B42
102
{ACAD_REACTORS
330
10B33
102
}
330
10B33
100
AcDbVisualStyle
  2
Facepattern
 70
    15
 71
     2
 72
     2
 73
     0
 90
        0
 40
-0.6
 41
-30.0
 62
     5
 63
     7
 74
     1
 91
        4
 64
     7
 65
   257
 75
     1
175
     1
 42
1.0
 92
        8
 66
     7
 43
1.0
 76
     1
 77
     6
 78
     2
 67
     7
 79
     5
170
     0
171
     0
290
     0
174
     0
 93
        1
 44
0.0
173
     0
291
     1
 45
0.0
1001
ACAD
1000
AcDbSavedByObjectVersion
1070
     0
1000
AcDbSavedByObjectVersion
1070
     0
  0
VISUALSTYLE
  5
10B34
102
{ACAD_REACTORS
330
10B33
102
}
330
10B33
100
AcDbVisualStyle
  2
Flat
 70
     0
 71
     2
 72
     1
 73
     1
 90
        2
 40
-0.6
 41
30.0
 62
     5
 63
     7
 74
     0
 91
        4
 64
     7
 65
   257
 75
     1
175
     1
 42
1.0
 92
        8
 66
     7
 43
1.0
 76
     1
 77
     6
 78
     2
 67
     7
 79
     5
170
     0
171
     0
290
     0
174
     0
 93
       13
 44
0.0
173
     0
291
     1
 45
0.0
1001
ACAD
1000
AcDbSavedByObjectVersion
1070
     0
1000
AcDbSavedByObjectVersion
1070
     0
  0
VISUALSTYLE
  5
10B35
102
{ACAD_REACTORS
330
10B33
102
}
330
10B33
100
AcDbVisualStyle
  2
FlatWithEdges
 70
     1
 71
     2
 72
     1
 73
     1
 90
        2
 40
-0.6
 41
30.0
 62
     5
 63
     7
 74
     1
 91
        4
 64
     7
 65
   257
 75
     1
175
     1
 42
1.0
 92
        0
 66
   257
 43
1.0
 76
     1
 77
     6
 78
     2
 67
     7
 79
     5
170
     0
171
     0
290
     0
174
     0
 93
       13
 44
0.0
173
     0
291
     1
 45
0.0
1001
ACAD
1000
AcDbSavedByObjectVersion
1070
     0
1000
AcDbSavedByObjectVersion
1070
     0
  0
VISUALSTYLE
  5
10B36
102
{ACAD_REACTORS
330
10B33
102
}
330
10B33
100
AcDbVisualStyle
  2
Gouraud
 70
     2
 71
     2
 72
     2
 73
     1
 90
        2
 40
-0.6
 41
30.0
 62
     5
 63
     7
 74
     0
 91
        4
 64
     7
 65
   257
 75
     1
175
     1
 42
1.0
 92
        0
 66
     7
 43
1.0
 76
     1
 77
     6
 78
     2
 67
     7
 79
     5
170
     0
171
     0
290
     0
174
     0
 93
       13
 44
0.0
173
     0
291
     1
 45
0.0
1001
ACAD
1000
AcDbSavedByObjectVersion
1070
     0
1000
AcDbSavedByObjectVersion
1070
     0
  0
VISUALSTYLE
  5
10B37
102
{ACAD_REACTORS
330
10B33
102
}
330
10B33
100
AcDbVisualStyle
  2
GouraudWithEdges
 70
     3
 71
     2
 72
     2
 73
     1
 90
        2
 40
-0.6
 41
30.0
 62
     5
 63
     7
 74
     1
 91
        4
 64
     7
 65
   257
 75
     1
175
     1
 42
1.0
 92
        0
 66
   257
 43
1.0
 76
     1
 77
     6
 78
     2
 67
     7
 79
     5
170
     0
171
     0
290
     0
174
     0
 93
       13
 44
0.0
173
     0
291
     1
 45
0.0
1001
ACAD
1000
AcDbSavedByObjectVersion
1070
     0
1000
AcDbSavedByObjectVersion
1070
     0
  0
VISUALSTYLE
  5
10B41
102
{ACAD_REACTORS
330
10B33
102
}
330
10B33
100
AcDbVisualStyle
  2
Linepattern
 70
    14
 71
     2
 72
     2
 73
     0
 90
        0
 40
-0.6
 41
-30.0
 62
     5
 63
     7
 74
     1
 91
        4
 64
     7
 65
   257
 75
     7
175
     7
 42
1.0
 92
        8
 66
     7
 43
1.0
 76
     1
 77
     6
 78
     2
 67
     7
 79
     5
170
     0
171
     0
290
     0
174
     0
 93
        1
 44
0.0
173
     0
291
     1
 45
0.0
1001
ACAD
1000
AcDbSavedByObjectVersion
1070
     0
1000
AcDbSavedByObjectVersion
1070
     0
  0
VISUALSTYLE
  5
10B3D
102
{ACAD_REACTORS
330
10B33
102
}
330
10B33
100
AcDbVisualStyle
  2
Realistic
 70
     8
 71
     2
 72
     2
 73
     0
 90
        0
 40
-0.6
 41
-30.0
 62
     5
 63
     7
 74
     1
 91
        0
 64
     7
 65
   257
 75
     1
175
     1
 42
1.0
 92
        8
 66
     8
 43
1.0
 76
     1
 77
     6
 78
     2
 67
     7
 79
     5
170
     0
171
     0
290
     0
174
     0
 93
       13
 44
0.0
173
     0
291
     0
 45
0.0
1001
ACAD
1000
AcDbSavedByObjectVersion
1070
     0
1000
AcDbSavedByObjectVersion
1070
     0
  0
VISUALSTYLE
  5
10B40
102
{ACAD_REACTORS
330
10B33
102
}
330
10B33
100
AcDbVisualStyle
  2
Thicken
 70
    13
 71
     2
 72
     2
 73
     0
 90
        0
 40
-0.6
 41
-30.0
 62
     5
 63
     7
 74
     1
 91
        4
 64
     7
 65
   257
 75
     1
175
     1
 42
1.0
 92
       12
 66
     7
 43
1.0
 76
     1
 77
     6
 78
     2
 67
     7
 79
     5
170
     0
171
     0
290
     0
174
     0
 93
        1
 44
0.0
173
     0
291
     1
 45
0.0
1001
ACAD
1000
AcDbSavedByObjectVersion
1070
     0
1000
AcDbSavedByObjectVersion
1070
     0
  0
DICTIONARYVAR
  5
10B96
102
{ACAD_REACTORS
330
10790
102
}
330
10790
100
DictionaryVariables
280
     0
  1
1:1
  0
DICTIONARYVAR
  5
10B95
102
{ACAD_REACTORS
330
10790
102
}
330
10790
100
DictionaryVariables
280
     0
  1
STANDARD
  0
DICTIONARYVAR
  5
10791
102
{ACAD_REACTORS
330
10790
102
}
330
10790
100
DictionaryVariables
280
     0
  1
STANDARD
  0
DICTIONARYVAR
  5
10792
102
{ACAD_REACTORS
330
10790
102
}
330
10790
100
DictionaryVariables
280
     0
  1
1
  0
DICTIONARYVAR
  5
10B98
102
{ACAD_REACTORS
330
10790
102
}
330
10790
100
DictionaryVariables
280
     0
  1
0
  0
DICTIONARYVAR
  5
10793
102
{ACAD_REACTORS
330
10790
102
}
330
10790
100
DictionaryVariables
280
     0
  1

  0
DICTIONARYVAR
  5
10B97
102
{ACAD_REACTORS
330
10790
102
}
330
10790
100
DictionaryVariables
280
     0
  1
127
  0
DICTIONARY
  5
10BB5
330
10702
100
AcDbDictionary
280
     1
281
     1
  3
ACAD_XREC_ROUNDTRIP
360
10BB6
  0
DICTIONARY
  5
10836
330
1081A
100
AcDbDictionary
280
     1
281
     1
  3
ACAD_XREC_ROUNDTRIP
360
10BB7
  3
ADSK_XREC_LAYOUTTHUMBNAIL
360
10837
  0
DICTIONARY
  5
10B24
330
10B23
100
AcDbDictionary
280
     1
281
     1
  3
ACAD_XREC_ROUNDTRIP
360
10BA6
  3
BUMPTILE
360
10B26
  3
DIFFUSETILE
360
10B25
  3
OPACITYTILE
360
10B29
  3
REFLECTIONTILE
360
10B28
  3
REFRACTIONTILE
360
10B2A
  3
SPECULARTILE
360
10B27
  0
DICTIONARY
  5
10B1C
330
10B1B
100
AcDbDictionary
280
     1
281
     1
  3
ACAD_XREC_ROUNDTRIP
360
10BA5
  3
BUMPTILE
360
10B1E
  3
DIFFUSETILE
360
10B1D
  3
OPACITYTILE
360
10B21
  3
REFLECTIONTILE
360
10B20
  3
REFRACTIONTILE
360
10B22
  3
SPECULARTILE
360
10B1F
  0
DICTIONARY
  5
10B2C
330
10B2B
100
AcDbDictionary
280
     1
281
     1
  3
ACAD_XREC_ROUNDTRIP
360
10BA7
  3
BUMPTILE
360
10B2E
  3
DIFFUSETILE
360
10B2D
  3
OPACITYTILE
360
10B31
  3
REFLECTIONTILE
360
10B30
  3
REFRACTIONTILE
360
10B32
  3
SPECULARTILE
360
10B2F
  0
DICTIONARY
  5
10B99
330
106FF
100
AcDbDictionary
280
     1
281
     1
  3
ACAD_ROUNDTRIP_2008_TABLESTYLE_CELLSTYLEMAP
360
10BB2
  3
ACAD_XREC_ROUNDTRIP
360
10BB4
  0
XRECORD
  5
10BB6
102
{ACAD_REACTORS
330
10BB5
102
}
330
10BB5
100
AcDbXrecord
280
     1
102
SHADEPLOT
 70
     0
102
SHADEPLOTRESLEVEL
 70
     2
102
SHADEPLOTCUSTOMDPI
 70
   300
  0
XRECORD
  5
10BB7
102
{ACAD_REACTORS
330
10836
102
}
330
10836
100
AcDbXrecord
280
     1
102
SHADEPLOT
 70
     0
102
SHADEPLOTRESLEVEL
 70
     2
102
SHADEPLOTCUSTOMDPI
 70
   300
  0
XRECORD
  5
10837
102
{ACAD_REACTORS
330
10836
102
}
330
10836
100
AcDbXrecord
280
     1
310
28000000B40000007F00000001000800000000004C590000000000000000000000010000000000000000000000000000FFFFFF000000000000000000000000000000000000000000000000000000000000000000330000006600000099000000CC000000FF00000000330000333300006633000099330000CC330000FF3300
310
0000660000336600006666000099660000CC660000FF66000000990000339900006699000099990000CC990000FF99000000CC000033CC000066CC000099CC0000CCCC0000FFCC000000FF000033FF000066FF000099FF0000CCFF0000FFFF000000003300330033006600330099003300CC003300FF003300003333003333
310
33006633330099333300CC333300FF33330000663300336633006666330099663300CC663300FF66330000993300339933006699330099993300CC993300FF99330000CC330033CC330066CC330099CC3300CCCC3300FFCC330000FF330033FF330066FF330099FF3300CCFF3300FFFF330000006600330066006600660099
310
006600CC006600FF00660000336600333366006633660099336600CC336600FF33660000666600336666006666660099666600CC666600FF66660000996600339966006699660099996600CC996600FF99660000CC660033CC660066CC660099CC6600CCCC6600FFCC660000FF660033FF660066FF660099FF6600CCFF6600
310
FFFF660000009900330099006600990099009900CC009900FF00990000339900333399006633990099339900CC339900FF33990000669900336699006666990099669900CC669900FF66990000999900339999006699990099999900CC999900FF99990000CC990033CC990066CC990099CC9900CCCC9900FFCC990000FF99
310
0033FF990066FF990099FF9900CCFF9900FFFF99000000CC003300CC006600CC009900CC00CC00CC00FF00CC000033CC003333CC006633CC009933CC00CC33CC00FF33CC000066CC003366CC006666CC009966CC00CC66CC00FF66CC000099CC003399CC006699CC009999CC00CC99CC00FF99CC0000CCCC0033CCCC0066CC
310
CC0099CCCC00CCCCCC00FFCCCC0000FFCC0033FFCC0066FFCC0099FFCC00CCFFCC00FFFFCC000000FF003300FF006600FF009900FF00CC00FF00FF00FF000033FF003333FF006633FF009933FF00CC33FF00FF33FF000066FF003366FF006666FF009966FF00CC66FF00FF66FF000099FF003399FF006699FF009999FF00CC
310
99FF00FF99FF0000CCFF0033CCFF0066CCFF0099CCFF00CCCCFF00FFCCFF0000FFFF0033FFFF0066FFFF0099FFFF00CCFFFF00FFFFFF00000000000D0D0D001A1A1A00282828003535350043434300505050005D5D5D006B6B6B00787878008686860093939300A1A1A100AEAEAE00BBBBBB00C9C9C900D6D6D600E4E4E400
310
F1F1F100FFFFFF0000000000000000000000000000000000000000000000000000000000000000000000000000000000F5F5F5F5F5F5F5F5F5F5F5F5F5F5F5F5F5F5F5F5F5F5F5F5F5F5F5F5F5F5F5F5F5F5F5F5F5F5F5F5F5F5F5F5F5F5F5F5F5F5F5F5F5F5F5F5F5F5F5F5F5F5F5F5F5F5F5F5F5F5F5F5F5F5F5F5F5F5F5
310
F5F5F5F5F5F5F5F5F5F5F5F5F5F5F5F5F5F5F5F5F5F5F5F5F5F5F5F5F5F5F5F5F5F5F5F5F5F5F5F5F5F5F5F5F5F5F5F5F5F5F5F5F5F5F5F5F5F5F5F5F5F5F5F5F5F5F5F5F5F5F5F5F5F5F5F5F5F5F5F5F5F5F5F5F5F5F5F5F5F5F5F5F5F5F5F5F5F5F5F5F5F5E2F5F5F5F5F5F5F5F5E2E2E2E2E2E2E2E2E2F5F5F5F5F5F5F5
310
F5F5F5F5F5F5F5F5F5E2E2E2E2E2E2E2E2E2F5F5F5F5F5F5F5F5F5F5F5F5F5F5F5F5E2E2E2E2E2E2E2E2E2F5F5F5F5F5F5F5F5F5F5F5F5F5F5F5F5E2E2E2E2E2E2E2E2E2F5F5F5F5F5F5F5F5F5F5F5F5F5F5F5F5E2E2E2E2E2E2E2E2E2F5F5F5F5F5F5F5F5F5F5F5F5F5F5F5F5E2E2E2E2E2E2E2E2E2F5F5F5F5F5F5F5F5F5
310
F5F5F5F5F5F5F5E2E2E2E2E2E2E2E2E2F5F5F5F5F5F5F5F5E2F5F5F5E2F5F5F5F5F5F5F5F5F5F5F5F5F5F5F5F5F5F5F5F5F5F5F5F5F5F5F5F5F5F5F5F5F5F5F5F5F5F5F5F5F5F5F5F5F5F5F5F5F5F5F5F5F5F5F5F5F5F5F5F5F5F5F5F5F5F5F5F5F5F5F5F5F5F5F5F5F5F5F5F5F5F5F5F5F5F5F5F5F5F5F5F5F5F5F5F5F5F5
310
F5F5F5F5F5F5F5F5F5F5F5F5F5F5F5F5F5F5F5F5F5F5F5F5F5F5F5F5F5F5F5F5F5F5F5F5F5F5F5F5F5F5F5F5F5F5F5F5F5F5F5F5F5F5F5F5F5F5F5F5F5F5F5F5F5F5F5F5F5F5F5F5F5F5F5F5F5E2F5F5F5E2F5E2E2E2E2E2E2E2E2E2E2E2E2E2E2E2E2E2E2E2E2E2E2E2E2E2E2E2E2E2E2E2E2E2E2E2E2E2E2E2E2E2E2E2E2
310
E2E2E2E2E2E2E2E2E2E2E2E2E2E2E2E2E2E2E2E2E2E2E2E2E2E2E2E2E2E2E2E2E2E2E2E2E2E2E2E2E2E2E2E2E2E2E2E2E2E2E2E2E2E2E2E2E2E2E2E2E2E2E2E2E2E2E2E2E2E2E2E2E2E2E2E2E2E2E2E2E2E2E2E2E2E2E2E2E2E2E2E2E2E2E2E2E2E2E2E2E2E2E2E2E2E2E2E2E2E2E2E2E2E2E2E2E2E2E2E2E2E2E2E2E2E2E2
310
E2F5F5E2F5F5F5E2F5E2E2E2E2E2E2E2E2E2E2E2E2E2E2E2E2E2E2E2E2E2E2E2E2E2E2E2E2E2E2E2E2E2E2E2E2E2E2E2E2E2E2E2E2E2E2E2E2E2E2E2E2E2E2E2E2E2E2E2E2E2E2E2E2E2E2E2E2E2E2E2E2E2E2E2E2E2E2E2E2E2E2E2E2E2E2E2E2E2E2E2E2E2E2E2E2E2E2E2E2E2E2E2E2E2E2E2E2E2E2E2E2E2E2E2E2E2E2
310
E2E2E2E2E2E2E2E2E2E2E2E2E2E2E2E2E2E2E2E2E2E2E2E2E2E2E2E2E2E2E2E2E2E2E2E2E2E2E2E2E2E2E2E2E2E2E2E2E2E2E2E2E2E2F5F5E2F5F5F5E2F5E2E2E2E2E2E2E2E2E2E2E2E2E2E2E2E2E2E2E2E2E2E2E2E2E2E2E2E2E2E2E2E2E2E2E2E2E2E2E2E2E2E2E2E2E2E2E2E2E2E2E2E2E2E2E2E2E2E2E2E2E2E2E2E2E2
310
E2E2E2E2E2E2E2E2E2E2E2E2E2E2E2E2E2E2E2E2E2E2E2E2E2E2E2E2E2E2E2E2E2E2E2E2E2E2E2E2E2E2E2E2E2E2E2E2E2E2E2E2E2E2E2E2E2E2E2E2E2E2E2E2E2E2E2E2E2E2E2E2E2E2E2E2E2E2E2E2E2E2E2E2E2E2E2E2E2E2E2E2E2E2E2E2E2E2E2E2E2E2E2E2E2E2E2F5F5E2F5F5F5E2F5E2E2E2E2E2E2E2E2E2E2E2E2
310
E2E2E2E2E2E2E2E2E2E2E2E2E2E2E2E2E2E2E2E2E2E2E2E2E2E2E2E2E2E2E2E2E2E2E2E2E2E2E2E2E2E2E2E2E2E2E2E2E2E2E2E2E2E2E2E2E2E2E2E2E2E2E2E2E2E2E2E2E2E2E2E2E2E2E2E2E2E2E2E2E2E2E2E2E2E2E2E2E2E2E2E2E2E2E2E2E2E2E2E2E2E2E2E2E2E2E2E2E2E2E2E2E2E2E2E2E2E2E2E2E2E2E2E2E2E2E2
310
E2E2E2E2E2E2E2E2E2E2E2E2E2DCE2E2E2E2E2E2E2E2E2E2E2E2E2E2E2E2E2E2E2F5F5E2F5F5F5E2F5E2E2E2E2E2E2E2E2E2E2E2E2E2E2E2E2E2E2E2E2E2E2E2E2E2E2E2E2E2E2E2E2E2E2E2E2E2E2E2E2E2E2E2E2E2E2E2E2E2E2E2E2E2E2E2E2E2E2E2E2E2E2E2E2E2E2E2E2E2E2E2E2E2E2E2E2E2E2E2E2E2E2E2E2E2E2
310
E2E2E2E2E2E2E2E2E2E2E2E2E2E2E2E2E2E2E2E2E2E2E2E2E2E2E2E2E2E2E2E2E2E2E2E2E2E2E2E2E2E2E2E2E2E2E2E2E2E2E2E2E2E2E2E2E2E2E2E2E2DCDCDCDCDCDCDCDCDCDCDCDCE2DCDCE2E2E2E2E2E2E2E2E2E2F5F5E2F5F5F5E2F5E2E2E2E2E2E2E2E2E2E2E2E2E2E2E2E2E2E2E2E2E2E2E2E2E2E2E2E2E2E2E2E2E2
310
E2E2E2E2E2E2E2E2E2E2E2E2E2E2E2E2E2E2E2E2E2E2E2E2E2E2E2E2E2E2E2E2E2E2E2E2E2E2E2ECE2E2E2E2E2E2E2E2E2E2E2E2E2E2E2E2E2E2E2E2E2E2E2E2E2E2E2E2E2E2E2E2E2E2E2E2E2E2E2E2E2E2ECE2E2E2E2E2E2E2E2E2E2E2E2E2E2E2E2E2E2E2E2E2E2E2E2E2E2E2E2E2E2E2DCDCDCDCDCE2DCDCDCDCDCDCDC
310
DCDCDCE2E2E2E2E2E2E2E2E2F5F5E2F5F5F5E2F5E2E2E2E2E2E2E2E2E2E2E2E2E2E2E2E2E2E2E2E2E2E2E2E2E2E2E2E2E2E2E2E2E2E2E2E2E2E2E2E2E2E2E2E2E2E2E2E2E2E2E2E2E2E2E2E2E2E2E2E2E2E2E2E2E2E2E2E2E2E2E2E2ECECECECECECECECECECECECECECECECECECECECECECECECECECECECECECECECECECEC
310
ECECECECECECECECF0E2E2E2E2E2E2E2E2E2E2E2E2E2E2E2E2E2E2E2E2E2E2E2E2E2E2E2E2E2E2E2E2E2E2E2E2E2DCE2E2E2E2E2E2E2E2E2E2E2E2E2E2E2E2E2E2F5E2E2F5F5F5E2F5E2E2E2E2E2E2E2E2E2E2E2E2E2E2E2E2E2E2E2E2E2E2E2E2E2E2E2E2E2E2E2E2E2E2E2E2E2E2E2E2E2E2E2E2E2E2E2E2E2E2E2E2E2E2
310
E2E2E2E2E2E2E2E2E2E2E2E2E2E2E2E2E2E2ECE2E2E2E2E2E2E2E2E2E2E2E2E2E2E2E2E2E2E2DCDCDCE2E2E2E2E2E2E2E2E2E2E2E2E2E2E2E2E2E2E2E2ECE2E2E2E2E2E2E2E2E2E2E2E2E2E2E2E2E2E2E2E2E2E2E2E2E2E2E2E2E2E2E2E2E2E2E2E2E2E2E2E2E2E2E2E2E2E2E2E2E2E2E2E2E2E2E2E2F5E2E2F5F5F5E2F5E2
310
E2E2E2E2E2E2E2E2E2E2E2E2E2E2E2E2E2E2E2E2E2E2E2E2E2E2E2E2E2E2E2E2E2E2E2E2E2E2E2E2E2E2E2E2E2E2E2E2E2E2E2E2E2E2E2E2E2E2E2E2E2E2E2E2E2E2E2E2E2E2E2ECE2E2E2E2E2E2E2E2E2E2E2E2E2E2E2E2E2E2E2DCDCDCE2E2E2E2E2E2E2E2E2E2E2E2E2E2E2E2ECE2E2E2ECE2E2ECE2E2E2E2E2E2E2E2E2
310
E2E2E2E2E2E2E2E2E2E2E2E2E2E2E2E2E2E2E2E2E2E2E2E2E2E2E2E2E2E2E2E2E2E2E2E2E2E2E2E2E2E2E2E2F5E2E2F5F5F5E2F5E2E2E2E2E2E2E2E2E2E2E2E2E2E2E2E2E2E2E2E2E2E2E2E2E2E2E2E2E2E2E2E2E2E2E2E2E2E2E2E2E2E2E2E2E2E2E2E2E2E2E2E2E2E2E2E2E2E2E2E2E2E2E2E2E2E2E2E2E2E2E2E2ECE2E2
310
E2E2E2E2E2E2E2E2E2E2E2E2E2E2E2E2E2E2E2E2E2E2E2E2E2E2E2E2E2E2E2E2E2E2E2E2ECECECDCDCDCECF0E2E2E2E2E2E2E2E2E2E2E2E2E2E2E2E2E2E2E2E2E2E2E2E2E2E2E2E2E2E2E2E2E2E2E2E2E2E2E2E2E2E2E2E2E2E2E2E2E2E2E2E2E2F5E2E2F5F5F5E2F5E2E2E2E2E2E2E2E2E2E2E2E2E2E2E2E2E2E2E2E2E2E2
310
E2E2E2E2E2E2E2E2E2E2E2E2E2E2E2E2E2E2E2E2E2E2E2E2E2E2E2E2E2E2E2E2E2E2E2E2E2E2E2E2E2E2E2E2E2E2E2E2E2E2ECE2E2E2E2E2E2E2ECECECECECECECECECECECE2E2E2E2E2E2E2E2E2E2E2E2E2E2E2E2E2E2E2E2ECE2DCDCDCDCE2ECE2E2E2E2ECECECECECECECECECECECECECECECECECECE2E2E2E2E2E2E2E2
310
E2E2E2E2E2E2E2E2E2E2E2E2E2E2E2E2E2E2E2E2E2E2E2F5E2E2F5F5F5E2F5E2E2E2E2E2E2E2E2E2E2E2E2E2E2E2E2E2E2E2E2E2E2E2E2E2E2E2E2E2E2E2E2E2E2E2E2E2E2E2E2E2E2E2E2E2E2E2E2E2E2E2E2E2E2E2E2E2E2E2E2E2E2E2E2E2E2E2E2E2E2E2E2ECE2E2E2E2E2E2E2DCDCDCDCDCDCDCDCDCDCECE2E2E2E2E2
310
E2E2E2E2E2E2E2E2E2E2E2E2E2E2E2ECE2E2E2ECE2E2ECE2E2ECECE2E2DCDCDCDCDCDCDCDCDCDCDCDCDCDCDCE2E2E2E2E2E2E2E2E2E2E2E2E2E2E2E2E2E2E2E2E2E2E2E2E2E2E2E2E2E2E2E2F5E2E2F5F5F5E2F5E2E2E2E2E2E2E2E2E2E2E2E2E2E2E2E2E2E2E2E2E2E2E2E2E2E2E2E2E2E2E2E2E2E2E2E2E2E2E2E2E2E2E2
310
E2E2E2E2E2E2E2E2E2E2E2E2E2E2E2E2E2E2E2E2E2E2E2E2E2E2E2E2E2ECE2E2E2E2E2E2E2DCDCE2E2DCDCE2E2DCE2E2ECE2E2E2E2E2E2E2E2E2E2E2E2E2E2E2E2E2E2E2ECE2E2E2ECE2E2ECE2ECE2E2E2E2DCDCDCDCDCDCDCDCDCDCE2E2E2E2DCE2E2E2E2E2E2E2E2E2E2E2E2E2E2E2E2E2E2E2E2E2E2E2E2E2E2E2E2E2E2
310
E2E2F5E2E2F5F5F5E2F5E2E2E2E2E2E2E2E2E2E2E2E2E2E2E2E2E2E2E2E2E2E2E2E2E2E2E2E2E2E2E2E2E2E2E2E2E2E2E2E2E2E2E2E2E2E2E2E2E2E2E2E2E2E2E2E2E2E2E2E2E2E2E2E2E2E2E2E2E2E2E2E2ECE2E2E2E2E2E2E2E2E2E2E2E2E2E2E2E2E2E2ECE2E2E2E2E2E2E2E2E2E2E2E2E2E2E2E2E2E2E2ECE2E2E2ECE2
310
E2ECECE2E2E2E2E2E2E2E2E2E2E2E2E2E2E2E2E2E2E2E2E2E2E2E2E2E2E2E2E2E2E2E2E2E2E2E2E2E2E2E2E2E2E2E2E2E2E2E2E2E2E2E2F5E2E2F5F5F5E2F5E2E2E2E2E2E2E2E2E2E2E2E2E2E2E2E2E2E2E2E2E2E2E2E2E2E2E2E2E2E2E2E2E2E2E2E2E2E2E2E2E2E2E2E2E2E2E2E2E2E2E2E2E2E2E2E2E2E2E2E2E2E2E2E2
310
E2E2E2E2E2E2E2E2ECE2E2E2E2E2E2E2E2E2E2E2E2E2E2E2E2E2E2E2ECE2E2E2E2E2E2E2E2E2E2E2E2E2E2E2E2E2E2ECE2E2E2ECE2ECECE2E2E2E2E2E2E2E2E2E2E2E2E2E2E2E2E2E2E2E2E2E2E2E2E2E2E2E2E2E2E2E2E2E2E2E2E2E2E2E2E2E2E2E2E2E2E2E2E2E2E2E2E2F5E2E2F5F5F5E2F5E2E2E2E2E2E2E2E2E2E2E2
310
E2E2E2E2E2E2E2E2E2E2E2E2E2E2E2E2E2E2E2E2E2E2E2E2E2E2E2E2E2E2E2E2E2E2E2E2E2E2E2E2E2E2E2E2E2E2E2E2E2E2E2E2E2E2E2E2E2E2E2E2E2F0E2E2E2E2E2E2E2E2E2E2E2E2E2E2E2E2E2E2E2ECE2E2E2E2E2E2E2E2E2E2E2E2E2E2E2E2E2E2ECE2E2E2F0ECE2ECE2E2E2E2E2E2E2E2E2E2E2E2E2E2E2E2E2E2E2
310
E2E2E2E2E2E2E2E2E2E2E2E2E2E2E2E2E2E2E2E2E2E2E2E2E2E2E2E2E2E2E2E2E2E2F5F5E2F5F5F5E2F5E2E2E2E2E2E2E2E2E2E2E2E2E2E2E2E2E2E2E2E2E2E2E2E2E2E2E2E2E2E2E2E2E2E2E2E2E2E2E2E2E2E2E2E2E2E2E2E2E2E2E2E2E2E2E2ECECECECECECECECECECECECECF5F5F5F5F0F5F5F5E2E2E2E2E2E2E2E2E2
310
E2E2E2E2E2E2E2E2ECE2E2E2E2E2E2E2E2E2E2E2E2E2E2E2E2E2F5F5F5F5F0F5F5F5E2E2E2E2E2E2E2E2E2E2E2E2E2E2E2E2E2E2E2E2E2E2E2E2E2E2E2E2E2E2E2E2E2E2E2E2E2E2E2E2E2E2E2E2E2E2E2E2E2E2E2E2E2F5F5E2F5F5F5E2F5E2E2E2E2E2E2E2E2E2E2E2E2E2E2E2E2E2E2E2E2E2E2E2E2E2E2E2E2E2E2E2E2
310
E2E2E2E2E2E2E2E2E2E2E2E2E2E2E2E2E2E2E2E2E2E2E2E2ECE2E2E2E2E2E2E2E2E2E2E2F5F5F5F5F0F5F5F5E2E2E2E2E2E2E2E2E2E2E2E2E2E2E2E2F5F5F5E2E2E2E2E2E2E2E2E2E2E2E2E2E2E2E2F5F5F5F5F0F5F5F5E2E2E2E2E2E2E2E2E2E2E2E2E2E2E2E2E2E2E2E2E2E2E2E2E2E2E2E2E2E2E2E2E2E2E2E2E2E2E2E2
310
E2E2E2E2E2E2E2E2E2E2E2E2E2F5F5E2F5F5F5E2F5E2E2E2E2E2E2E2E2E2E2E2E2E2E2E2E2E2E2E2E2E2E2E2E2E2E2E2E2E2E2E2E2E2E2E2E2E2E2E2E2E2E2E2E2E2E2E2E2E2E2E2E2E2E2E2E2ECE2E2E2E2E2E2E2E2E2E2E2E2E2F5F5F0F5E2E2E2E2E2E2E2E2E2E2E2E2E2E2E2E2E2E2F5ECF5E2E2E2E2E2E2E2E2E2E2E2
310
E2E2E2E2F5F5F5F5F5F0F5F5F5F5F5F5F5F5E2E2E2E2E2E2E2E2E2E2E2E2E2E2E2E2E2E2E2E2E2E2E2E2E2E2E2E2E2E2E2E2E2E2E2E2E2E2E2E2E2E2E2E2E2E2E2E2F5F5E2F5F5F5E2F5E2E2E2E2E2E2E2E2E2E2E2E2E2E2E2E2E2E2E2E2E2E2E2E2E2E2E2E2E2E2E2E2E2E2E2E2E2E2E2E2E2E2E2E2E2E2E2E2E2E2E2E2E2
310
E2E2E2ECE2E2E2E2E2E2E2E2E2E2E2E2E2F5F5F0F5F5E2E2E2E2E2E2E2E2E2E2E2E2E2E2E2E2E2F5ECF5E2E2E2E2E2E2E2E2E2E2E2E2E2E2E2F5E2F5F5F5F0F5E2E2E2E2E2F5F5E2E2E2E2E2E2E2E2E2E2E2E2E2E2E2E2E2E2E2E2E2E2E2E2E2E2E2E2E2E2E2E2E2E2E2E2E2E2E2E2E2E2E2E2E2E2E2E2F5F5E2F5F5F5E2F5
310
E2E2E2E2E2E2E2E2E2E2E2E2E2E2E2E2E2E2E2E2E2E2E2E2E2E2E2E2E2E2E2E2E2E2E2E2E2E2E2E2E2E2E2E2E2E2E2E2E2E2E2E2E2E2E2E2ECE2E2E2E2E2E2E2E2E2E2F5F5F5F5F5F0F5F5F5F5F5F5F5F5F5F5F5F5F5F5F5F5F5F5F5F5F5F5F5F5F5F5F5F5F5F5F5F5F5F5F5F5F5F5F5F5F5F5F0F5F5F5F5F5F5F5F5E2E2E2
310
E2E2E2E2E2E2E2E2E2E2E2E2E2E2E2E2E2E2E2E2E2E2E2E2E2E2E2E2E2E2E2E2E2E2E2E2E2E2E2E2E2E2E2E2E2F5F5E2F5F5F5E2F5E2E2E2E2E2E2E2E2E2E2E2E2E2E2E2E2E2E2E2E2E2E2E2E2E2E2E2E2E2E2E2E2E2E2E2E2E2E2E2E2E2E2E2E2E2E2E2E2E2E2E2E2E2E2E2E2ECE2E2E2E2E2E2E2E2E2E2F5E2E2E2E2F0E2
310
E2E2E2E2E2E2E2E2E2E2E2E2E2E2E2E2E2E2E2E2E2E2E2E2E2E2E2E2E2E2E2E2E2E2E2E2E2E2E2E2E2F0E2E2E2F5E2E2E2E2E2E2E2E2E2E2E2E2E2E2E2E2E2E2E2E2E2E2E2E2E2E2E2E2E2E2E2E2E2E2E2E2E2E2E2E2E2E2E2E2E2E2E2E2E2E2E2E2F5F5E2F5F5F5E2F5E2E2E2E2E2E2E2E2E2E2E2E2E2E2E2E2E2E2E2E2E2
310
E2E2E2E2E2E2E2E2E2E2E2E2E2E2E2E2E2E2E2E2E2E2E2E2E2E2E2E2E2E2E2E2DCDCDCDCE2E2E2E2E2E2E2E2E2E2F5E2E2E2E2E2E2E2E2E2E2E2E2E2E2E2E2E2E2E2E2E2E2E2E2E2E2E2E2E2E2E2E2E2E2E2E2E2E2E2E2E2E2E2E2E2E2E2E2E2E2E2F5E2E2E2E2E2E2E2E2E2E2E2E2E2E2E2E2E2E2E2E2E2E2E2E2E2E2E2E2
310
E2E2E2E2E2E2E2E2E2E2E2E2E2E2E2E2E2E2E2E2E2E2E2E2F5F5E2F5F5F5E2F5E2E2E2E2E2E2E2E2E2E2E2E2E2E2E2E2E2E2E2E2E2E2E2E2E2E2E2E2E2E2E2E2E2E2E2E2E2E2E2E2E2E2E2E2E2E2E2E2E2E2E2E2E2DCDCDCDCE2E2E2E2E2E2E2E2E2E2F5E2E2E2E2E2E2E2E2E2E2E2E2E2E2E2E2E2E2E2E2E2E2E2E2E2E2E2
310
E2E2E2E2E2E2E2E2E2E2E2E2E2E2E2E2E2E2E2E2E2E2E2E2F5E2E2E2E2E2E2E2E2E2E2E2E2E2E2E2E2E2E2E2E2E2E2E2E2E2E2E2E2E2E2E2E2E2E2E2E2E2E2E2E2E2E2E2E2E2E2E2E2E2E2E2E2F5F5E2F5F5F5E2F5E2E2E2E2E2E2E2E2E2E2E2E2E2E2E2E2E2E2E2E2E2E2E2E2E2E2E2E2E2E2E2E2E2E2E2E2E2E2E2E2E2E2
310
E2E2E2E2E2E2E2E2E2E2E2DCDCDCDCE2E2E2E2E2E2E2E2E2E2F5E2E2E2E2E2E2E2E2E2E2E2E2E2E2E2E2E2E2E2E2E2E2E2E2E2E2E2E2E2E2E2E2E2E2E2E2E2E2E2E2E2E2E2E2E2E2E2E2E2E2E2F5E2E2E2E2E2E2E2E2E2E2E2E2E2E2E2E2E2E2E2E2E2E2E2E2E2E2E2E2E2E2E2E2E2E2E2E2E2E2E2E2E2E2E2E2E2E2E2E2E2
310
E2E2E2F5F5E2F5F5F5E2F5E2E2E2E2E2E2E2E2E2E2E2E2E2E2E2E2E2E2E2E2E2E2E2E2E2E2E2E2E2E2E2E2E2E2E2E2E2E2E2E2E2E2E2E2E2E2E2E2E2E2E2E2E2DCDCDCDCE2E2E2E2E2E2E2E2E2E2F5E2E2E2E2E2E2E2E2E2E2E2E2E2E2E2E2E2E2E2E2E2E2E2E2E2E2E2E2E2E2E2E2E2E2E2E2E2E2E2E2E2E2E2E2E2E2E2E2
310
E2E2E2F5E2E2E2E2E2E2E2E2E2E2E2E2E2E2E2E2E2E2E2E2E2E2E2E2E2E2E2E2E2E2E2E2E2E2E2E2E2E2E2E2E2E2E2E2E2E2E2E2E2E2E2E2F5F5E2F5F5F5E2F5E2E2E2E2E2E2E2E2E2E2E2E2E2E2E2E2E2E2E2E2E2E2E2E2E2E2E2E2E2E2E2E2E2E2E2E2E2E2E2E2E2E2E2E2E2E2E2E2E2E2E2E2E2DCDCDCDCE2E2E2E2E2E2
310
E2E2F5F5F5E2E2E2E2E2E2E2E2E2E2E2E2E2E2E2E2E2E2E2E2E2E2E2E2E2E2E2E2E2E2E2E2E2E2E2E2E2E2E2E2E2E2E2E2E2E2E2E2E2E2E2F5E2E2E2E2E2E2E2E2E2E2E2E2E2E2E2E2E2E2E2E2E2E2E2E2E2E2E2E2E2E2E2E2E2E2E2E2E2E2E2E2E2E2E2E2E2E2E2E2E2E2E2E2F5F5E2F5F5F5E2F5E2E2E2E2E2E2E2E2E2E2
310
E2E2E2E2E2E2E2E2E2E2E2E2E2E2E2E2E2E2E2E2E2E2E2E2E2E2E2E2E2E2E2E2E2E2E2E2E2E2E2E2E2E2E2DCDCDCDCE2E2E2F5F5F5F5F5F5F5F5E2E2E2E2E2E2E2E2E2E2E2E2E2E2E2E2E2E2E2E2E2E2E2E2E2E2E2E2E2E2E2E2E2E2E2E2E2E2E2E2E2E2E2E2E2E2E2E2E2E2E2F5E2E2E2E2E2E2E2E2E2E2E2E2E2E2E2E2E2
310
E2E2E2E2E2E2E2E2E2E2E2E2E2E2E2E2E2E2E2E2E2E2E2E2E2E2E2E2E2E2E2E2E2E2E2F5F5E2F5F5F5E2F5E2E2E2E2E2E2E2E2E2E2E2E2E2E2E2E2E2E2E2E2E2E2E2E2E2E2E2E2E2E2E2E2E2E2E2E2E2E2E2E2E2E2E2E2E2E2E2E2E2E2E2E2E2DCDCDCDCECECECF5F5F5F5F5F5F5F5F0F0F0F0F0E2E2E2E2E2E2E2E2E2E2E2
310
E2E2E2E2E2E2E2E2E2E2E2E2E2E2E2E2E2E2E2E2E2E2E2E2E2E2E2E2E2E2E2E2E2E2E2F5E2E2E2E2E2E2E2E2E2E2E2E2E2E2E2E2E2E2E2E2E2E2E2E2E2E2E2E2E2E2E2E2E2E2E2E2E2E2E2E2E2E2E2E2E2E2E2E2E2E2E2E2F5F5E2F5F5F5E2F5E2E2E2E2E2E2E2E2E2E2E2E2E2E2E2E2E2E2E2E2E2E2E2E2E2E2E2E2E2E2E2
310
E2E2E2E2E2E2E2E2E2E2E2E2E2E2E2E2E2E2E2E2E2E2DCDCDCDCE2ECE2E2E2E2ECECF5F5F5E2E2E2E2E2E2E2E2E2E2E2E2E2E2E2E2E2E2E2E2E2E2E2E2E2E2E2E2E2E2E2E2E2E2E2E2E2E2E2E2E2E2E2E2E2E2E2E2E2E2E2F5E2E2E2E2E2E2E2E2E2E2E2E2E2E2E2E2E2E2E2E2E2E2E2E2E2E2E2E2E2E2E2E2E2E2E2E2E2E2
310
E2E2E2E2E2E2E2E2E2E2E2E2E2E2F5F5E2F5F5F5E2F5E2E2E2E2E2E2E2E2E2E2E2E2E2E2E2E2E2E2E2E2E2E2E2E2E2E2E2E2E2E2E2E2E2E2E2E2E2E2E2E2E2E2E2E2E2E2E2E2E2E2E2E2E2E2E2E2ECE2ECE2E2E2E2ECECE2E2F5E2E2E2E2E2E2E2E2E2E2E2E2E2E2E2E2E2E2E2E2E2E2E2E2E2E2E2E2E2E2E2E2E2E2E2E2E2
310
E2E2E2E2E2E2E2E2E2E2E2E2E2E2F5E2E2E2E2E2E2E2E2E2E2E2E2E2E2E2E2E2E2E2E2E2E2E2E2E2E2E2E2E2E2E2E2E2E2E2E2E2E2E2E2E2E2E2E2E2E2E2E2E2E2E2E2F5F5E2F5F5F5E2F5E2E2E2E2E2E2E2E2E2E2E2E2E2E2E2E2E2E2E2E2E2E2E2E2E2E2E2E2E2E2E2E2E2E2E2E2E2E2E2E2E2E2E2E2E2E2E2E2E2E2E2E2
310
E2E2E2E2ECE2ECE2E2E2E2E2ECE2E2F5E2E2E2E2E2E2E2E2E2E2E2E2E2E2E2E2E2E2E2E2E2E2E2E2E2E2E2E2E2E2E2E2E2E2E2E2E2E2E2E2E2E2E2E2E2E2E2E2E2E2E2F5E2E2E2E2E2E2E2E2E2E2E2E2E2E2E2E2E2E2E2E2E2E2E2E2E2E2E2E2E2E2E2E2E2E2E2E2E2E2E2E2E2E2E2E2E2E2E2E2E2E2E2E2F5E2E2F5F5F5E2
310
F5E2E2E2E2E2E2E2E2E2E2E2E2E2E2E2E2E2E2E2E2E2E2E2E2E2E2E2E2E2E2E2E2E2E2E2E2E2E2E2E2E2E2E2E2E2E2E2E2E2E2E2E2E2E2E2E2ECE2ECE2E2E2E2E2ECE2E2F5E2E2E2E2E2E2E2E2E2E2E2E2E2E2E2E2E2E2E2E2E2E2E2E2E2E2E2E2E2E2E2E2E2E2E2E2E2E2E2E2E2E2E2E2E2E2E2E2E2E2E2F5E2E2E2E2E2E2
310
E2E2E2E2E2E2E2E2E2E2E2E2E2E2E2E2E2E2E2E2E2E2E2E2E2E2E2E2E2E2E2E2E2E2E2E2E2E2E2E2E2E2E2E2E2E2F5E2E2F5F5F5E2F5E2E2E2E2E2E2E2E2E2E2E2E2E2E2E2E2E2E2E2E2E2E2E2E2E2E2E2E2E2E2E2E2E2E2E2E2E2E2E2E2E2E2E2E2E2E2E2E2E2E2E2E2E2E2E2E2ECE2ECE2E2E2E2E2ECE2E2F5E2E2E2E2E2
310
E2E2E2E2E2E2E2E2E2E2E2E2E2E2E2E2E2E2E2E2E2E2E2E2E2E2E2E2E2E2E2E2E2E2E2E2E2E2E2E2E2E2E2E2E2E2F5E2E2E2E2E2E2E2E2E2E2E2E2E2E2E2E2E2E2E2E2E2E2E2E2E2E2E2E2E2E2E2E2E2E2E2E2E2E2E2E2E2E2E2E2E2E2E2E2E2E2E2E2F5E2E2F5F5F5E2F5E2E2E2E2E2E2E2E2E2E2E2E2E2E2E2E2E2E2E2E2
310
E2E2E2E2E2E2E2E2E2E2E2E2E2E2E2E2E2E2E2E2E2E2E2E2E2E2E2E2E2E2E2E2E2E2E2E2ECE2ECE2E2E2E2E2E2ECE2F5E2E2E2E2E2E2E2E2E2E2E2E2E2E2E2E2E2E2E2E2E2E2E2E2E2E2E2E2E2E2E2E2E2E2E2E2E2E2E2E2E2E2E2E2E2E2E2E2E2E2E2F5E2E2E2E2E2E2E2E2E2E2E2E2E2E2E2E2E2E2E2E2E2E2E2E2E2E2E2
310
E2E2E2E2E2E2E2E2E2E2E2E2E2E2E2E2E2E2E2E2E2E2E2E2E2F5E2E2F5F5F5E2F5E2E2E2E2E2E2E2E2E2E2E2E2E2E2E2E2E2E2E2E2E2E2E2E2E2E2E2E2E2E2E2E2E2E2E2E2E2E2E2E2E2E2E2E2E2E2E2E2E2E2E2E2E2E2E2ECF0ECF0ECECECECECECECECF5F5F5F5F5F5F5F5F5F5F5F5F5F5F5F5F5F5F5F5F5F5F5F5F5F5F5
310
F5F5F5F5F5F5F5F5F5F5F5F5F5F5F5F5F5F5F5F5F5F5F5F5F5F5E2E2E2E2E2E2E2E2E2E2E2E2E2E2E2E2E2E2E2E2E2E2E2E2E2E2E2E2E2E2E2E2E2E2E2E2E2E2E2E2E2E2E2E2E2E2E2E2E2E2E2E2F5E2E2F5F5F5E2F5E2E2E2E2E2E2E2E2E2E2E2E2E2E2E2E2E2E2E2E2E2E2E2E2E2E2E2E2E2E2E2E2E2E2E2E2E2E2E2E2E2
310
E2E2E2E2E2E2E2E2E2E2E2E2E2E2E2E2E2DCE2E2E2E2E2E2ECE2E2E2E2E2E2E2E2E2E2E2E2E2E2E2E2E2E2E2E2E2E2E2E2E2E2E2E2E2E2E2E2E2E2E2E2E2E2E2E2E2E2E2E2E2E2E2E2E2E2E2E2E2E2E2E2E2E2E2E2E2E2E2E2E2E2E2E2E2E2E2E2E2E2E2E2E2E2E2E2E2E2E2E2E2E2E2E2E2E2E2E2E2E2E2E2E2E2E2E2E2E2
310
E2E2E2E2F5E2E2F5F5F5E2F5E2E2E2E2E2E2E2E2E2E2E2E2E2E2E2E2E2E2E2E2E2E2E2E2E2E2E2E2E2E2E2E2E2E2E2E2E2E2E2E2E2E2E2E2E2E2E2E2E2E2E2E2E2E2E2E2E2DCDCE2E2E2E2E2E2ECE2E2E2E2E2E2E2E2E2E2E2E2E2E2E2E2E2E2E2E2E2E2E2E2E2E2E2E2E2E2E2E2E2E2E2E2E2E2E2E2E2E2E2E2E2E2E2E2E2
310
E2E2E2E2E2E2E2E2E2E2E2E2E2E2E2E2E2E2E2E2E2E2E2E2E2E2E2E2E2E2E2E2E2E2E2E2E2E2E2E2E2E2E2E2E2E2E2E2E2E2E2E2E2E2E2E2E2F5E2E2F5F5F5E2F5E2E2E2E2E2E2E2E2E2E2E2E2E2E2E2E2E2E2E2E2E2E2E2E2E2E2E2E2E2E2E2E2E2E2E2E2E2E2E2E2E2E2E2E2E2E2E2E2E2E2E2E2E2E2E2E2E2DCDCE2E2E2
310
E2E2E2ECDCDCDCDCDCDCDCDCDCDCE2E2E2E2E2E2E2E2E2E2E2E2E2E2E2E2E2E2E2E2E2E2E2E2E2E2E2E2E2E2E2E2E2E2E2E2E2E2E2E2E2E2E2E2E2E2E2E2E2E2E2E2E2E2E2E2E2E2E2E2E2E2E2E2E2E2E2E2E2E2E2E2E2E2E2E2E2E2E2E2E2E2E2E2E2E2E2E2E2E2E2E2E2E2E2E2F5E2E2F5F5F5E2F5E2E2E2E2E2E2E2E2E2
310
E2E2E2E2E2E2E2E2E2E2E2E2E2E2E2E2E2E2E2E2E2E2E2E2E2E2E2E2E2E2E2E2E2E2E2E2E2E2E2E2E2E2E2E2E2E2E2E2DCDCE2E2E2E2E2E2E2DCDCDCDCDCDCDCDCDCDCE2E2E2E2E2E2E2E2E2E2E2E2E2E2E2E2E2E2E2E2E2E2E2E2E2E2E2E2E2E2E2E2E2E2E2E2E2E2E2E2E2E2E2E2E2E2E2E2E2E2E2E2E2E2E2E2E2E2E2E2
310
E2E2E2E2E2E2E2E2E2E2E2E2E2E2E2E2E2E2E2E2E2E2E2E2E2E2E2E2E2E2E2E2E2E2E2E2F5E2E2F5F5F5E2F5E2E2E2E2E2E2E2E2E2E2E2E2E2E2E2E2E2E2E2E2E2E2E2E2E2E2E2E2E2E2E2E2E2E2E2E2E2E2E2E2E2E2E2E2E2E2E2E2E2E2E2E2E2E2E2E2E2DCDCE2E2E2E2E2E2E2E2E2E2E2E2E2E2E2E2E2E2E2E2E2E2E2E2
310
E2E2E2E2E2E2E2E2E2E2E2E2E2E2E2E2E2E2E2E2E2E2E2E2E2E2E2E2E2E2E2E2E2E2E2E2E2E2E2E2E2E2E2E2E2E2E2E2E2E2E2E2E2E2E2E2E2E2E2E2E2E2E2E2E2E2E2E2E2E2E2E2E2E2E2E2E2E2E2E2E2E2E2E2E2E2E2E2E2F5F5E2F5F5F5E2F5E2E2E2E2E2E2E2E2E2E2E2E2E2E2E2E2E2E2E2E2E2E2E2E2E2E2E2E2E2E2
310
E2E2E2E2E2E2E2E2E2E2E2E2E2E2E2E2E2E2E2E2E2E2E2E2E2E2E2DCECE2E2E2E2E2E2E2E2E2E2E2E2E2E2E2E2E2E2E2E2E2E2E2E2E2E2E2E2E2E2E2E2E2E2E2E2E2E2E2E2E2E2E2E2E2E2E2E2E2E2E2E2E2E2E2E2E2E2E2E2E2E2E2E2E2E2E2E2E2E2E2E2E2E2E2E2E2E2E2E2E2E2E2E2E2E2E2E2E2E2E2E2E2E2E2E2E2E2
310
E2E2E2E2E2E2E2E2E2E2E2E2E2E2E2F5F5E2F5F5F5E2F5E2E2E2E2E2E2E2E2E2E2E2E2E2E2E2E2E2E2E2E2E2E2E2E2E2E2E2E2E2E2E2E2E2E2E2E2E2E2E2E2E2E2E2E2E2E2E2E2E2E2E2E2E2E2E2E2E2DCDCE2E2E2E2E2E2E2E2E2E2E2E2E2E2E2E2E2E2E2E2E2E2E2E2E2E2E2E2E2E2E2E2E2E2E2E2E2E2E2E2E2E2E2E2E2
310
E2E2E2E2E2E2E2E2E2E2E2E2E2E2E2E2E2E2E2E2E2E2E2E2E2E2E2E2E2E2E2E2E2E2E2E2E2E2E2E2E2E2E2E2E2E2E2E2E2E2E2E2E2E2E2E2E2E2E2E2E2E2E2E2E2E2E2E2F5F5E2F5F5F5E2F5E2E2E2E2E2E2E2E2E2E2E2E2E2E2E2E2E2E2E2E2E2E2E2E2E2E2E2E2E2E2E2E2E2E2E2E2E2E2E2E2E2E2E2E2E2E2E2E2E2E2E2
310
E2E2E2E2E2E2DCDCE2E2E2E2E2E2E2E2E2E2E2E2E2E2E2E2E2E2E2E2E2E2E2E2E2E2E2E2E2E2E2E2E2E2E2E2E2E2E2E2E2E2E2E2E2E2E2E2E2E2E2E2E2E2E2E2E2E2E2E2E2E2E2E2E2E2E2E2E2E2E2E2E2E2E2E2E2E2E2E2E2E2E2E2E2E2E2E2E2E2E2E2E2E2E2E2E2E2E2E2E2E2E2E2E2E2E2E2E2E2E2E2E2F5F5E2F5F5F5
310
E2F5E2E2E2E2E2E2E2E2E2E2E2E2E2E2E2E2E2E2E2E2E2E2E2E2E2E2E2E2E2E2E2E2E2E2E2E2E2E2E2E2E2E2E2E2E2E2E2E2E2E2E2E2E2E2E2E2E2DCDCE2E2E2E2E2E2E2E2E2E2E2E2E2E2E2E2E2E2E2E2E2E2E2E2E2E2E2E2E2E2E2E2E2E2E2E2E2E2E2E2E2E2E2E2E2E2E2E2E2E2E2E2E2E2E2E2E2E2E2E2E2E2E2E2E2E2
310
E2E2E2E2E2E2E2E2E2E2E2E2E2E2E2E2E2E2E2E2E2E2E2E2E2E2E2E2E2E2E2E2E2E2E2E2E2E2E2E2E2E2E2E2E2E2E2F5F5E2F5F5F5E2F5E2E2E2E2E2E2E2E2E2E2E2E2E2E2E2E2E2E2E2E2E2E2E2E2E2E2E2E2E2E2E2E2E2E2E2E2E2E2E2E2E2E2E2E2E2E2E2E2E2E2E2E2E2E2E2E2E2DCDCE2E2E2E2E2E2E2E2E2E2E2E2E2
310
E2E2E2E2E2E2E2E2E2E2E2E2E2E2E2E2E2E2E2E2E2E2E2E2E2E2E2E2E2E2E2E2E2E2E2E2E2E2E2E2E2E2E2E2E2E2E2E2E2E2E2E2E2E2E2E2E2E2E2E2E2E2E2E2E2E2E2E2E2E2E2E2E2E2E2E2E2E2E2E2E2E2E2E2E2E2E2E2E2E2E2E2E2E2E2E2E2E2E2E2F5F5E2F5F5F5E2F5E2E2E2E2E2E2E2E2E2E2E2E2E2E2E2E2E2E2E2
310
E2E2E2E2E2E2E2E2E2E2E2E2E2E2E2E2E2E2E2E2E2E2E2E2E2E2E2E2E2E2E2E2E2E2E2E2E2E2DCDCE2E2E2E2E2E2E2E2E2E2E2E2E2E2E2E2E2E2E2E2E2E2E2E2E2E2E2E2E2E2E2E2E2E2E2E2E2E2E2E2E2E2E2E2E2E2E2E2E2E2E2E2E2E2E2E2E2E2E2E2E2E2E2E2E2E2E2E2E2E2E2E2E2E2E2E2E2E2E2E2E2E2E2E2E2E2E2
310
E2E2E2E2E2E2E2E2E2E2E2E2E2E2E2E2E2E2E2E2E2E2E2E2E2E2F5F5E2F5F5F5E2F5E2E2E2E2E2E2E2E2E2E2E2E2E2E2E2E2E2E2E2E2E2E2E2E2E2E2E2E2E2E2E2E2E2E2E2E2E2E2E2E2E2E2E2E2E2E2E2E2E2E2E2E2E2E2E2E2E2E2ECE2E2E2E2E2E2E2E2E2E2E2E2E2E2E2E2E2E2E2E2E2E2E2E2E2E2E2E2E2E2E2E2E2E2
310
E2E2E2E2E2E2E2E2E2E2E2E2E2E2E2E2E2E2E2E2E2E2E2E2E2E2E2E2E2E2E2E2E2E2E2E2E2E2E2E2E2E2E2E2E2E2E2E2E2E2E2E2E2E2E2E2E2E2E2E2E2E2E2E2E2E2E2E2E2E2E2E2E2E2E2E2E2E2E2F5F5E2F5F5F5E2F5E2E2E2E2E2E2E2E2E2E2E2E2E2E2E2E2E2E2E2E2E2E2E2E2E2E2E2E2E2E2E2E2E2E2E2E2E2E2E2E2
310
E2E2E2E2E2E2E2E2E2E2E2E2E2E2E2E2E2E2E2E2E2E2E2E2E2E2E2E2E2E2E2E2E2E2E2E2E2E2E2E2E2E2E2E2E2E2E2E2E2E2E2E2E2E2E2E2E2E2E2E2E2E2E2E2E2E2E2E2E2E2E2E2E2E2E2E2E2E2E2E2E2E2E2E2E2E2E2E2E2E2E2E2E2E2E2E2E2E2E2E2E2E2E2E2E2E2E2E2E2E2E2E2E2E2E2E2E2E2E2E2E2E2E2E2E2E2E2
310
E2E2E2E2E2F5F5E2F5F5F5E2F5E2E2E2E2E2E2E2E2E2E2E2E2E2E2E2E2E2E2E2E2E2E2E2E2E2E2E2E2E2E2E2E2E2E2E2E2E2E2E2E2E2E2E2E2E2E2E2E2E2E2E2E2E2E2E2E2E2E2E2E2E2E2E2E2E2E2E2E2E2E2E2E2E2E2E2E2E2E2E2E2E2E2E2E2E2E2E2E2E2E2E2E2E2E2E2E2E2E2E2E2E2E2E2E2E2E2E2E2E2E2E2E2E2E2
310
E2E2E2E2E2E2E2E2E2E2E2E2E2E2E2E2E2E2E2E2E2E2E2E2E2E2E2E2E2E2E2E2E2E2E2E2E2E2E2E2E2E2E2E2E2E2E2E2E2E2E2E2E2E2E2E2E2E2F5F5E2F5F5F5E2F5E2E2E2E2E2E2E2E2E2E2E2E2E2E2E2E2E2E2E2E2E2E2E2E2ECECE2E2E2E2E2E2E2E2E2E2E2E2ECECE2E2E2E2E2E2E2E2E2E2E2E2E2E2E2E2E2E2E2E2E2
310
E2E2E2E2E2E2ECECE2E2E2E2E2E2E2E2E2E2E2E2E2E2E2E2E2E2E2E2E2E2E2E2E2E2E2E2E2E2E2E2E2E2E2E2E2E2E2E2E2E2E2E2E2E2E2E2E2ECECE2ECECECE2E2E2E2E2E2E2E2E2E2E2E2E2E2E2E2E2E2E2E2E2E2E2E2E2E2E2E2E2E2E2E2E2E2E2E2E2E2E2E2E2E2E2E2E2E2E2E2F5F5E2F5F5F5E2F5E2E2E2E2E2E2E2E2
310
E2E2E2E2E2E2E2E2E2E2E2E2E2E2E2E2F0ECECECECECECDCDCDCECECECECECECE2E2E2E2E2E2E2E2E2E2E2E2E2E2E2E2E2E2E2E2E2E2E2E2E2E2E2ECECECECECECECECECECECECECECECECECECECECECECECECECDCDCDCECECECECECECECECECECECECECECECECECECECECECECECECECDCDCDCF0E2E2E2E2E2E2E2E2E2E2E2
310
E2E2E2E2E2E2E2E2E2E2E2E2E2E2E2E2E2E2E2E2E2E2E2E2E2E2E2E2E2E2E2E2E2E2E2E2E2F5F5E2F5F5F5E2F5E2E2E2E2E2E2E2E2E2E2E2E2E2E2E2E2E2E2E2E2E2E2E2E2ECE2E2E2E2E2DCDCDCE2E2E2E2E2E2ECE2E2E2E2E2E2E2E2E2E2E2E2E2E2E2E2E2E2E2E2E2E2E2E2E2E2E2ECE2E2E2E2E2E2E2E2E2E2E2E2E2E2
310
E2E2E2E2E2E2E2E2E2E2DCDCDCE2E2E2E2E2E2E2E2E2E2E2E2E2E2E2E2E2E2E2E2E2E2E2E2ECDCDCDCECE2E2E2E2E2E2E2E2E2E2E2E2E2E2E2E2E2E2E2E2E2E2E2E2E2E2E2E2E2E2E2E2E2E2E2E2E2E2E2E2E2E2E2E2E2E2E2E2F5F5E2F5F5F5E2F5E2E2E2E2E2E2E2E2E2E2E2E2E2E2E2E2E2E2E2E2E2E2E2E2ECE2E2E2E2
310
E2E2E2E2E2E2E2E2E2E2ECE2E2E2E2E2E2E2E2E2E2E2E2E2E2E2E2E2E2E2E2E2E2E2E2E2E2E2ECE2E2E2E2E2E2E2E2E2E2E2E2E2E2E2E2E2E2E2E2E2E2E2E2E2E2E2E2E2E2E2E2E2E2E2E2E2E2E2E2E2E2E2E2E2E2E2E2E2E2E2ECE2E2E2ECE2E2E2E2E2E2E2E2E2E2E2E2E2E2E2E2E2E2E2E2E2E2E2E2E2E2E2E2E2E2E2E2
310
E2E2E2E2E2E2E2E2E2E2E2E2E2E2E2E2F5F5E2F5F5F5E2F5E2E2E2E2E2E2E2E2E2E2E2E2E2E2E2E2E2E2E2E2E2E2E2E2ECE2E2E2E2E2E2E2E2E2E2E2E2E2E2ECE2E2E2E2E2E2E2E2E2E2E2E2E2E2E2E2E2E2E2E2E2E2E2E2E2E2E2ECE2E2E2E2E2E2E2E2E2E2E2E2E2E2E2E2E2E2E2E2E2E2E2E2E2E2E2E2E2E2E2E2E2E2E2
310
E2E2E2E2E2E2E2E2E2E2E2E2E2E2E2E2ECE2E2E2ECE2E2E2E2E2E2E2E2E2E2E2E2E2E2E2E2E2E2E2E2E2E2E2E2E2E2E2E2E2E2E2E2E2E2E2E2E2E2E2E2E2E2E2E2E2E2E2E2F5F5E2F5F5F5E2F5E2E2E2E2E2E2E2E2E2E2E2E2E2E2E2E2E2E2E2E2E2E2E2E2ECE2E2E2E2E2E2E2E2E2E2E2E2E2E2ECE2E2E2E2E2E2E2E2E2E2
310
E2E2E2E2E2E2E2E2E2E2E2E2E2E2E2E2E2ECE2E2E2E2E2E2E2E2E2E2E2E2E2E2E2E2E2E2E2E2E2E2E2E2E2E2E2E2E2E2E2E2E2E2E2E2E2E2E2E2E2E2E2E2E2E2E2E2E2E2E2ECE2E2E2ECE2E2E2E2E2E2E2E2E2E2E2E2E2E2E2E2E2E2E2E2E2E2E2E2E2E2E2E2E2E2E2E2E2E2E2E2E2E2E2E2E2E2E2E2E2E2E2E2F5F5E2F5F5
310
F5E2F5E2E2E2E2E2E2E2E2E2E2E2E2E2E2E2E2E2E2E2E2E2E2E2E2ECE2E2E2E2E2E2E2E2E2E2E2E2E2E2ECE2E2E2E2E2E2E2E2E2E2E2E2E2E2E2E2E2E2E2E2E2E2E2E2E2E2E2ECE2E2E2E2E2E2E2E2E2E2E2E2E2E2E2E2E2E2E2E2E2E2E2E2E2E2E2E2E2E2E2E2E2E2E2E2E2E2E2E2E2E2E2E2E2E2E2E2E2E2E2ECE2E2E2EC
310
E2E2E2E2E2E2E2E2E2E2E2E2E2E2E2E2E2E2E2E2E2E2E2E2E2E2E2E2E2E2E2E2E2E2E2E2E2E2E2E2E2E2E2E2E2E2E2E2F5E2E2F5F5F5E2F5E2E2E2E2E2E2E2E2E2E2E2E2E2E2E2E2E2E2E2E2E2E2E2E2ECE2E2E2E2E2E2E2E2E2E2E2E2E2E2ECE2E2E2E2E2E2E2E2E2E2E2E2E2E2E2E2E2E2E2E2E2E2E2E2E2E2E2ECE2E2E2
310
E2E2E2E2E2E2E2E2E2E2E2E2E2E2E2E2E2E2E2E2E2E2E2E2E2E2E2E2E2E2E2E2E2E2E2E2E2E2E2E2E2E2E2E2E2E2E2E2ECE2E2E2ECE2E2E2E2E2E2E2E2E2E2E2E2E2E2E2E2E2E2E2E2E2E2E2E2E2E2E2E2E2E2E2E2E2E2E2E2E2E2E2E2E2E2E2E2E2E2E2E2F5E2E2F5F5F5E2F5E2E2E2E2E2E2E2E2E2E2E2E2E2E2E2E2E2E2
310
E2E2E2E2E2E2ECE2E2E2E2E2E2E2E2E2E2E2E2E2E2ECE2E2E2E2E2E2E2E2E2E2E2E2E2E2E2E2E2E2E2E2E2E2E2E2E2E2E2ECE2E2E2E2E2E2E2E2E2E2E2E2E2E2E2E2E2E2E2E2E2E2E2E2E2E2E2E2E2E2E2E2E2E2E2E2E2E2E2E2E2E2E2E2E2E2E2E2E2E2E2ECE2E2E2ECE2E2E2E2E2E2E2E2E2E2E2E2E2E2E2E2E2E2E2E2E2
310
E2E2E2E2E2E2E2E2E2E2E2E2E2E2E2E2E2E2E2E2E2E2E2E2E2E2E2F5E2E2F5F5F5E2F5E2E2E2E2E2E2E2E2E2E2E2E2E2E2E2E2E2E2E2E2E2E2E2E2F5F5F5F5F5F5F5F5F5F5F5F5F5F5F5F5E2E2E2E2E2E2E2E2E2E2E2E2E2E2E2ECF0ECECECECECECECECECECF5F5F5F5F5F5F5F5F5F5F5F5F5F5F5F5F5F5F5F5F5F5F5F5F5
310
F5F5F5F5F5F5F5F5F5F5F5F5F5F5F5F5F5F5F5F5F5F5F5F5F5F5F5F5E2E2E2ECE2E2E2E2E2E2E2E2E2E2E2E2E2E2E2F5F5F5F5F5F5F5F5F5F5F5F5F5F5F5F5E2E2E2E2E2E2E2E2E2E2E2E2E2E2E2E2E2F5E2E2F5F5F5E2F5E2E2E2E2E2E2E2E2E2E2E2E2E2E2E2E2E2E2E2E2E2E2E2E2F5E2E2E2E2E2E2E2E2E2E2E2E2E2E2
310
F5E2E2E2E2E2E2E2E2E2E2E2E2E2E2E2E2ECE2E2E2E2E2E2E2E2E2E2F5E2E2E2E2E2E2E2E2E2E2E2E2E2E2E2E2E2E2E2E2E2E2E2E2E2E2E2E2E2E2E2E2E2E2E2E2E2E2E2E2E2E2E2E2E2E2E2E2E2E2E2F5E2E2E2ECE2E2E2E2E2E2E2E2E2E2E2E2E2E2E2F5E2E2E2E2E2E2E2E2E2E2E2E2E2E2F5E2E2E2E2E2E2E2E2E2E2E2
310
E2E2E2E2E2E2F5E2E2F5F5F5E2F5E2E2E2E2E2E2E2E2E2E2E2E2E2E2E2E2E2E2E2E2F5F5E2E2F5E2E2E2E2E2E2E2E2E2E2E2E2E2E2F5E2E2E2E2E2E2E2E2E2E2E2E2E2E2E2E2ECE2E2E2E2E2E2E2E2E2E2F5E2E2E2E2E2E2E2E2E2E2E2E2E2E2E2E2E2E2E2E2E2E2E2E2E2E2E2E2E2E2E2E2E2E2E2E2E2E2E2E2E2E2E2E2E2
310
E2E2E2E2E2E2F5E2E2E2ECE2E2E2E2E2E2E2E2E2E2E2E2E2E2E2F5E2E2E2E2E2E2E2E2E2E2E2E2E2E2F5E2E2F5F5E2E2E2E2E2E2E2E2E2E2E2E2E2F5E2E2F5F5F5E2F5E2E2E2E2E2E2E2E2E2E2E2E2E2E2E2E2E2E2E2E2F5F5F5F5F5E2E2E2E2E2E2E2E2E2E2E2E2E2E2F5E2E2E2E2E2E2E2E2E2E2E2E2E2E2E2E2ECE2E2E2
310
E2E2E2E2E2E2E2F5E2E2E2E2E2E2E2E2E2E2E2E2E2E2E2E2E2E2E2E2E2E2E2E2E2E2E2E2E2E2E2E2E2E2E2E2E2E2E2E2E2E2E2E2E2E2E2E2E2E2E2F5E2E2E2ECE2E2E2E2E2E2E2E2E2E2E2E2E2E2E2F5E2E2E2E2E2E2E2E2E2E2E2E2E2E2F5F5F5F5F5E2E2E2E2E2E2E2E2E2E2E2E2E2F5E2E2F5F5F5E2F5E2E2E2E2E2E2E2
310
E2E2E2E2E2E2E2E2E2E2E2E2E2F5F5F5F5F5E2E2E2E2E2E2E2E2E2E2E2E2E2E2F5E2E2E2E2E2E2E2E2E2E2E2E2E2E2E2E2ECE2E2E2E2E2E2E2E2E2E2F5E2E2E2E2E2E2E2E2E2E2E2E2E2E2E2E2E2E2E2E2E2E2E2E2E2E2E2E2E2E2E2E2E2E2E2E2E2E2E2E2E2E2E2E2E2E2E2E2E2E2E2F5E2E2E2ECE2E2E2E2E2E2E2E2E2E2
310
E2E2E2E2E2F5E2E2E2E2E2E2E2E2E2E2E2E2E2E2F5F5F5F5F5E2E2E2E2E2E2E2E2E2E2E2E2E2F5E2E2F5F5F5E2F5E2E2E2E2E2E2E2E2E2E2E2E2E2ECF0ECECECF0F0F0F0F0F0F0F0E2E2E2E2E2E2E2E2E2E2E2E2E2F5E2E2E2E2E2E2E2E2E2E2E2E2E2E2E2E2ECE2E2E2E2E2E2E2E2E2E2F5E2E2E2E2E2E2E2E2E2E2E2E2E2
310
E2E2E2E2E2E2E2E2E2E2E2E2E2E2E2E2E2E2E2E2E2E2E2E2E2E2E2E2E2E2E2E2E2E2E2E2E2E2F5E2E2E2ECE2E2E2E2E2E2E2E2E2E2E2E2E2E2E2F5E2E2E2E2E2E2E2E2E2E2E2E2E2F0F5F5F5F5F5F0E2E2E2E2E2E2E2E2E2E2E2E2F5E2E2F5F5F5E2F5E2E2E2E2E2E2E2E2E2E2E2E2E2E2ECE2E2E2E2E2F5F5F5F5F5E2E2E2
310
E2E2E2E2E2E2E2E2E2E2E2F5E2E2E2E2E2E2E2E2E2E2E2E2E2E2E2E2ECE2E2E2E2E2E2E2E2E2E2F5E2E2E2E2E2E2E2E2E2E2E2E2E2E2E2E2E2E2E2E2E2E2E2E2E2E2E2E2E2E2E2E2E2E2E2E2E2E2E2E2E2E2E2E2E2E2E2E2E2E2E2F5E2E2E2ECE2E2E2E2E2E2E2E2E2E2E2E2E2E2E2F5E2E2E2E2E2E2E2E2E2E2E2E2E2E2F5
310
F5F5F5F5E2E2E2E2E2E2E2E2E2E2E2E2E2F5F5E2F5F5F5E2F5E2E2E2E2E2E2E2E2E2E2E2E2E2E2ECE2E2E2E2E2F5F5E2F5F5E2E2E2E2E2E2E2E2E2E2E2E2E2E2F5E2E2E2E2E2E2E2E2E2E2E2E2E2E2E2E2ECE2E2E2E2E2E2E2E2E2E2F5E2E2E2E2E2E2E2E2E2E2E2E2E2E2E2E2E2E2E2E2E2E2E2E2E2E2E2E2E2E2E2E2E2E2
310
E2E2E2E2E2E2E2E2E2E2E2E2E2E2E2E2E2F5E2E2E2ECE2E2E2E2E2E2E2E2E2E2E2E2E2E2E2F5E2E2E2E2E2E2E2E2E2E2E2E2E2E2F5F5E2F5F5E2E2E2E2E2E2E2E2E2E2E2E2E2F5F5E2F5F5F5E2F5E2E2E2E2E2E2E2E2E2E2E2E2E2E2ECE2E2E2E2E2F5F5E2F5F5E2E2E2E2E2E2E2E2E2E2E2E2E2E2F5E2E2E2E2E2E2E2E2E2
310
E2E2E2E2E2E2E2ECE2E2E2E2E2E2E2E2E2E2F5E2E2E2E2E2E2E2E2E2E2E2E2E2E2E2E2E2E2E2E2E2E2E2E2E2E2E2E2E2E2E2E2E2E2E2E2E2E2E2E2E2E2E2E2E2E2E2E2E2E2E2F5E2E2E2ECE2E2E2E2E2E2E2E2E2E2E2E2E2E2E2F5E2E2E2E2E2E2E2E2E2E2E2E2E2E2F5F5E2F5F5E2E2E2E2E2E2E2E2E2E2E2E2E2F5F5E2F5
310
F5F5E2F5E2E2E2E2E2E2E2E2E2E2E2E2E2E2ECE2E2E2E2E2E2E2E2F5F5E2E2E2E2E2E2E2E2E2E2E2E2E2E2F5E2E2E2E2E2E2E2E2E2E2E2E2E2E2E2E2ECE2E2E2E2E2E2E2E2E2E2F5E2E2E2E2E2E2E2E2E2E2E2E2E2E2E2E2E2E2E2E2E2E2E2E2E2E2E2E2E2E2E2E2E2E2E2E2E2E2E2E2E2E2E2E2E2E2E2E2E2E2E2F5E2E2E2
310
ECE2E2E2E2E2E2E2E2E2E2E2E2E2E2E2F5E2E2E2E2E2E2E2E2E2E2E2E2E2E2F5F5E2E2E2E2E2E2E2E2E2E2E2E2E2E2E2E2F5F5E2F5F5F5E2F5E2E2E2E2E2E2E2E2E2E2E2E2E2E2ECE2E2E2E2E2E2E2E2E2F5E2E2E2E2E2E2E2E2E2E2E2E2E2E2F5E2E2E2E2E2E2E2E2E2E2E2E2E2E2E2E2ECE2E2E2E2E2E2E2E2E2E2F5E2E2
310
E2E2E2E2E2E2E2E2E2E2E2E2E2E2E2E2E2E2E2E2E2E2E2E2E2E2E2E2E2E2E2E2E2E2E2E2E2E2E2E2E2E2E2E2E2E2E2E2E2F5E2E2E2ECE2E2E2E2E2E2E2E2E2E2E2E2E2E2E2F5E2E2E2E2E2E2E2E2E2E2E2E2E2E2F5E2E2E2E2E2E2E2E2E2E2E2E2E2E2E2E2E2F5F5E2F5F5F5E2F5E2E2E2E2E2E2E2E2E2E2E2E2E2E2ECE2E2
310
E2E2E2E2E2E2E2F5E2E2E2E2E2E2E2E2E2E2E2E2E2E2F5E2E2E2E2E2E2E2E2E2E2E2E2E2E2E2E2ECE2E2E2E2E2E2E2E2E2E2F5E2E2E2E2E2E2E2E2E2E2E2E2E2E2E2E2E2E2E2E2E2E2E2E2E2E2E2E2E2E2E2E2E2E2E2E2E2E2E2E2E2E2E2E2E2E2E2E2E2E2E2F5E2E2E2ECE2E2E2E2E2E2E2E2E2E2E2E2E2E2E2F5E2E2E2E2
310
E2E2E2E2E2E2E2E2E2E2F5E2E2E2E2E2E2E2E2E2E2E2E2E2E2E2E2E2F5F5E2F5F5F5E2F5E2E2E2E2E2E2E2E2E2E2E2E2E2E2ECE2E2E2E2E2E2E2E2E2F5E2E2E2E2E2E2E2E2E2E2E2E2E2E2F5E2E2E2E2E2E2E2E2E2E2E2E2E2E2E2E2ECE2E2E2E2E2E2E2E2E2E2F5E2E2E2E2E2E2E2E2E2E2E2E2E2E2E2E2E2E2E2E2E2E2E2
310
E2E2E2E2E2E2E2E2E2E2E2E2E2E2E2E2E2E2E2E2E2E2E2E2E2E2E2E2F5E2E2E2ECE2E2E2E2E2E2E2E2E2E2E2E2E2E2E2F5E2E2E2E2E2E2E2E2E2E2E2E2E2E2F5E2E2E2E2E2E2E2E2E2E2E2E2E2E2E2E2E2F5F5E2F5F5F5E2F5E2E2E2E2E2E2E2E2E2E2E2E2E2E2ECE2E2E2E2E2E2E2E2E2F5E2E2E2E2E2E2E2E2E2E2E2E2E2
310
E2F5E2E2E2E2E2E2E2E2E2E2E2E2E2E2E2E2ECE2E2E2E2E2E2E2E2E2E2F5E2E2E2E2E2E2E2E2E2E2E2E2E2E2E2E2E2E2E2E2E2E2E2E2E2E2E2E2E2E2E2E2E2E2E2E2E2E2E2E2E2E2E2E2E2E2E2E2E2E2E2F5E2E2E2ECE2E2E2E2E2E2E2E2E2E2E2E2E2E2E2F5E2E2E2E2E2E2E2E2E2E2E2E2E2E2F5E2E2E2E2E2E2E2E2E2E2
310
E2E2E2E2E2E2E2F5F5E2F5F5F5E2F5E2E2E2E2E2E2E2E2E2E2E2E2E2E2ECE2E2E2E2E2E2E2E2E2F5E2E2E2E2E2E2E2E2E2E2E2E2E2E2F5E2E2E2E2E2E2E2E2E2E2E2E2E2E2E2E2ECE2E2E2E2E2E2E2E2E2E2F5E2E2E2E2E2E2E2E2E2E2E2E2E2E2E2E2E2E2E2E2E2E2E2E2E2E2E2E2E2E2E2E2E2E2E2E2E2E2E2E2E2E2E2E2
310
E2E2E2E2E2E2E2F5E2E2E2ECE2E2E2E2E2E2E2E2E2E2E2E2E2E2E2F5E2E2E2E2E2E2E2E2E2E2E2E2E2E2F5E2E2E2E2E2E2E2E2E2E2E2E2E2E2E2E2E2F5F5E2F5F5F5E2F5E2E2E2E2E2E2E2E2E2E2E2E2E2E2ECE2E2E2E2E2E2E2E2E2F5E2E2E2E2E2E2E2E2E2E2E2E2E2E2F5E2E2E2E2E2E2E2E2E2E2E2E2E2E2E2E2ECE2E2
310
E2E2E2E2E2E2E2E2F5E2E2E2E2E2E2E2E2E2E2E2E2E2E2E2E2E2E2E2E2E2E2E2E2E2E2E2E2E2E2E2E2E2E2E2E2E2E2E2E2E2E2E2E2E2E2E2E2E2E2E2F5E2E2E2ECE2E2E2E2E2E2E2E2E2E2E2E2E2E2E2F5E2E2E2E2E2E2E2E2E2E2E2E2E2E2F5E2E2E2E2E2E2E2E2E2E2E2E2E2E2E2E2E2F5F5E2F5F5F5E2F5E2E2E2E2E2E2
310
E2E2E2E2E2E2E2E2ECE2E2E2E2E2E2E2E2E2F5E2E2E2E2E2E2E2E2E2E2E2E2E2E2F5E2E2E2E2E2E2E2E2E2E2E2E2E2E2E2E2ECE2E2E2E2E2E2E2E2E2E2F5E2E2E2E2E2E2E2E2E2E2E2E2E2E2E2E2E2E2E2E2E2E2E2E2E2E2E2E2E2E2E2E2E2E2E2E2E2E2E2E2E2E2E2E2E2E2E2E2E2E2E2F5E2E2E2ECE2E2E2E2E2E2E2E2E2
310
E2E2E2E2E2E2F5E2E2E2E2E2E2E2E2E2E2E2E2E2E2F5E2E2E2E2E2E2E2E2E2E2E2E2E2E2E2E2E2F5F5E2F5F5F5E2F5E2E2E2E2E2E2E2E2E2E2E2E2E2E2ECE2E2E2E2E2E2E2E2E2F5F5F5F5F5F5F5F5F5F5E2E2E2E2E2F5E2E2E2E2E2E2E2E2E2E2E2E2E2E2E2E2ECE2E2E2E2E2E2E2E2E2E2F5E2E2E2E2E2E2E2E2E2E2E2E2
310
E2E2E2E2E2E2E2E2E2E2E2E2E2E2E2E2E2E2E2E2E2E2E2E2E2E2E2E2E2E2E2E2E2E2E2E2E2E2E2F5E2E2E2ECE2E2E2E2E2E2E2E2E2E2E2E2E2E2E2F5E2E2E2E2E2E2E2E2E2E2E2E2F5F5F5E2E2E2E2E2E2E2E2E2E2E2E2E2E2E2E2E2F5F5E2F5F5F5E2F5E2E2E2E2E2E2E2E2E2E2E2E2E2E2ECE2E2E2E2E2E2E2F5F5F5F5F5
310
F5E2E2E2F5F5F5F5F5E2E2E2F5E2E2E2E2E2E2E2E2E2E2E2E2E2E2E2E2ECE2E2E2E2E2E2E2E2E2E2F5E2E2E2E2E2E2E2E2E2E2E2E2E2E2E2E2E2E2E2E2E2E2E2E2E2E2E2E2E2E2E2E2E2E2E2E2E2E2E2E2E2E2E2E2E2E2E2E2E2E2E2F5F5F5F5ECE2E2E2E2E2E2E2E2E2E2E2E2E2E2E2F5E2E2E2E2E2E2E2E2E2E2E2E2F5F5
310
F5F5F5E2E2E2E2E2E2E2E2E2E2E2E2E2E2E2F5F5E2F5F5F5E2F5E2E2E2E2E2E2E2E2E2E2E2E2E2DCDCE2E2E2E2E2E2F5F5F5F5F5F5F5E2E2F5E2F5E2F5F5E2E2E2F5E2E2E2E2E2E2E2E2E2E2E2E2E2E2E2DCDCE2E2E2F5F5F5F5F5F5F5F5E2E2E2E2E2E2E2E2E2E2E2E2E2E2E2E2E2E2E2E2E2E2E2E2E2E2E2E2E2E2E2E2E2
310
E2E2E2E2E2E2E2E2E2E2E2E2E2E2E2E2E2E2F5F5F5F5F5E2E2E2E2E2E2E2E2E2E2E2E2E2E2E2F5E2E2E2E2E2E2E2E2E2E2E2E2F5F5F5F5F5F5E2E2E2E2E2E2E2E2E2E2E2E2E2E2F5F5E2F5F5F5E2F5E2E2E2E2E2E2E2E2E2E2E2E2E2DCDCE2E2E2E2E2F0F5F5F5F5F5F5F5F0E2F5F5F5F5F5F5F0F0F0F5F0F0E2E2E2E2E2E2
310
E2E2E2E2E2E2E2DCDCE2E2F0F5F0F0F0F0F0F0F5F0E2F0F0E2F0F0F0F0F0F0F0F0F0F0E2F0F0F0F0F0F0F0F0F0F0F0F0F0E2F0F0F0E2F0F0F0F0F0F0F0F0F0F0F0F0F0E2F0F0F0F5F5F0F5F5F0F0E2E2E2E2E2E2E2E2E2E2E2E2F0F0F0F0F0F0F0F0E2F0F0F0F0F0F5F5F0F0F5F5F0E2E2E2E2E2E2E2E2E2E2E2E2E2F5F5E2
310
F5F5F5E2F5E2E2E2E2E2E2E2E2E2E2E2E2E2DCDCE2E2E2E2E2E2F5F5ECF5F5F5F5E2E2F5E2F5F5F5F5E2E2E2F5E2E2E2E2E2E2E2E2E2E2E2E2E2E2E2DCDCE2E2E2F5F5F5F5F5F5F5F5E2E2E2E2E2E2E2E2E2E2E2E2E2E2E2E2E2E2E2E2E2E2E2E2E2E2E2E2E2E2E2E2E2E2E2E2E2E2E2E2E2E2E2E2E2E2E2E2E2E2E2F5F5F5
310
F5F5E2E2E2E2E2E2E2E2E2E2E2E2E2E2E2F5E2E2E2E2E2E2E2E2E2E2E2E2F5F5F5F5F5F5E2E2E2E2E2E2E2E2E2E2E2E2E2E2F5F5E2F5F5F5E2F5E2E2E2E2E2E2E2E2E2E2E2E2E2E2ECE2E2E2E2E2E2E2F5F5F5F5F5F5E2E2E2F5F5F5F5F5E2E2E2F5E2E2E2E2E2E2E2E2E2E2E2E2E2E2E2E2ECE2E2E2E2E2E2E2E2F5F5F5E2
310
E2E2E2E2E2E2E2E2E2E2E2E2E2E2E2E2E2E2E2E2E2E2E2E2E2E2E2E2E2E2E2E2E2E2E2E2E2E2E2E2E2E2E2E2E2E2E2E2E2E2F5F5F5F5E2E2E2E2E2E2E2E2E2E2E2E2E2E2E2E2F5E2E2E2E2E2E2E2E2E2E2E2E2F5F5F5F5F5E2E2E2E2E2E2E2E2E2E2E2E2E2E2E2F5E2E2F5F5F5E2F5E2E2E2E2E2E2E2E2E2E2E2E2E2E2ECE2
310
E2E2E2E2E2E2E2E2F5F5F5F5F5F5F5F5F5F5F5E2E2E2E2F5E2E2E2E2E2E2E2E2E2E2E2E2E2E2E2E2ECE2E2E2E2E2E2E2E2E2E2F5E2E2E2E2E2E2E2E2E2E2E2E2E2E2E2E2E2E2E2E2E2E2E2E2E2E2E2E2E2E2E2E2E2E2E2E2E2E2E2E2E2E2E2E2E2E2E2E2E2E2E2F5E2E2ECE2E2E2E2E2E2E2E2E2E2E2E2E2E2E2E2F5E2E2E2
310
E2E2E2E2E2E2E2E2E2F5F5F5E2E2E2E2E2E2E2E2E2E2E2E2E2E2E2E2E2F5E2E2F5F5F5E2F5E2E2E2E2E2E2E2E2E2E2E2E2E2E2ECE2E2E2E2E2E2E2E2E2F5E2E2E2E2E2E2E2E2E2E2E2E2E2E2F5E2E2E2E2E2E2E2E2E2E2E2E2E2E2E2E2ECE2E2E2E2E2E2E2E2E2E2F5E2E2E2E2E2E2E2E2E2E2E2E2E2E2E2E2E2E2E2E2E2E2
310
E2E2E2E2E2E2E2E2E2E2E2E2E2E2E2E2E2E2E2E2E2E2E2E2E2E2E2E2E2F5E2E2E2ECE2E2E2E2E2E2E2E2E2E2E2E2E2E2E2F5E2E2E2E2E2E2E2E2E2E2E2E2E2E2F5E2E2E2E2E2E2E2E2E2E2E2E2E2E2E2E2E2F5E2E2F5F5F5E2F5E2E2E2E2E2E2E2E2E2E2E2E2E2E2ECE2E2E2E2E2E2E2E2E2F5E2E2E2E2E2E2E2E2E2E2E2E2
310
E2E2F5E2E2E2E2E2E2E2E2E2E2E2E2E2E2E2E2ECE2E2E2E2E2E2E2E2E2E2F5E2E2E2E2E2E2E2E2E2E2E2E2E2E2E2E2E2E2E2E2E2E2E2E2E2E2E2E2E2E2E2E2E2E2E2E2E2E2E2E2E2E2E2E2E2E2E2E2E2E2E2F5E2E2E2ECE2E2E2E2E2E2E2E2E2E2E2E2E2E2E2F5E2E2E2E2E2E2E2E2E2E2E2E2E2E2F5E2E2E2E2E2E2E2E2E2
310
E2E2E2E2E2E2E2E2F5E2E2F5F5F5E2F5E2E2E2E2E2E2E2E2E2E2E2E2E2E2ECE2E2E2E2E2E2E2E2E2F5E2E2E2E2E2E2E2E2E2E2E2E2E2E2F5E2E2E2E2E2E2E2E2E2E2E2E2E2E2E2E2ECE2E2E2E2E2E2E2E2E2E2F5E2E2E2E2E2E2E2E2E2E2E2E2E2E2E2E2E2E2E2E2E2E2E2E2E2E2E2E2E2E2E2E2E2E2E2E2E2E2E2E2E2E2E2
310
E2E2E2E2E2E2E2E2F5E2E2E2ECE2E2E2E2E2E2E2E2E2E2E2E2E2E2E2F5E2E2E2E2E2E2E2E2E2E2E2E2E2E2F5E2E2E2E2E2E2E2E2E2E2E2E2E2E2E2E2E2F5E2E2F5F5F5E2F5E2E2E2E2E2E2E2E2E2E2E2E2E2E2ECE2E2E2E2E2E2E2E2E2F5E2E2E2E2E2E2E2E2E2E2E2E2E2E2F5E2E2E2E2E2E2E2E2E2E2E2E2E2E2E2E2ECE2
310
E2E2E2E2E2E2E2E2E2F5E2E2E2E2E2E2E2E2E2E2E2E2E2E2E2E2E2E2E2E2E2E2E2E2E2E2E2E2E2E2E2E2E2E2E2E2E2E2E2E2E2E2E2E2E2E2E2E2E2E2E2F5E2E2E2ECE2E2E2E2E2E2E2E2E2E2E2E2E2E2E2F5E2E2E2E2E2E2E2E2E2E2E2E2E2E2F5E2E2E2E2E2E2E2E2E2E2E2E2E2E2E2E2E2F5E2E2F5F5F5E2F5E2E2E2E2E2
310
E2E2E2E2E2E2E2E2E2ECE2E2E2E2E2E2E2E2E2F5E2E2E2E2E2E2E2E2E2E2E2E2E2E2F5E2E2E2E2E2E2E2E2E2E2E2E2E2E2E2E2ECE2E2E2E2E2E2E2E2E2E2F5E2E2E2E2E2E2E2E2E2E2E2E2E2E2E2E2E2E2E2E2E2E2E2E2E2E2E2E2E2E2E2E2E2E2E2E2E2E2E2E2E2E2E2E2E2E2E2E2E2E2E2F5E2E2E2E2ECE2E2E2E2E2E2E2
310
E2E2E2E2E2E2E2F5E2E2E2E2E2E2E2E2E2E2E2E2E2E2F5E2E2E2E2E2E2E2E2E2E2E2E2E2E2E2E2E2F5E2E2F5F5F5E2F5E2E2E2E2E2E2E2E2E2E2E2E2E2E2ECE2E2E2E2E2E2E2E2E2F5E2E2E2E2E2E2E2E2E2E2E2E2E2E2F5E2E2E2E2E2E2E2E2E2E2E2E2E2E2E2E2ECE2E2E2E2E2E2E2E2E2E2F5E2E2E2E2E2E2E2E2E2E2E2
310
E2E2E2E2E2E2E2E2E2E2E2E2E2E2E2E2E2E2E2E2E2E2E2E2E2E2E2E2E2E2E2E2E2E2E2E2E2E2E2E2F5E2E2E2E2ECECECECECE2E2E2E2E2E2E2E2E2E2F5E2E2E2E2E2E2E2E2E2E2E2E2E2E2F5E2E2E2E2E2E2E2E2E2E2E2E2E2E2E2E2E2F5E2E2F5F5F5E2F5E2E2E2E2E2E2E2E2E2E2E2E2E2E2ECE2E2E2E2E2E2E2E2E2F5E2
310
E2E2E2E2E2E2E2E2E2E2E2E2E2F5E2E2E2E2E2E2E2E2E2E2E2E2E2E2E2E2ECE2E2E2E2E2E2E2E2E2E2F5E2E2E2E2E2E2E2E2E2E2E2E2E2E2E2E2E2E2E2E2E2E2E2E2E2E2E2E2E2E2E2E2E2E2E2E2E2E2E2E2E2E2E2E2E2E2E2E2E2E2E2F5E2E2E2E2E2DCDCDCDCE2E2E2E2E2E2E2E2E2E2F5E2E2E2E2E2E2E2E2E2E2E2E2E2
310
E2F5E2E2E2E2E2E2E2E2E2E2E2E2E2E2E2E2E2F5E2E2F5F5F5E2F5E2E2E2E2E2E2E2E2E2E2E2E2E2E2ECE2E2E2E2E2E2E2E2E2F5E2E2E2E2E2E2E2E2E2E2E2E2E2E2F5E2E2E2E2E2E2E2E2E2E2E2E2E2E2E2E2ECE2E2E2E2E2E2E2E2E2E2F5E2E2E2E2E2E2E2E2E2E2E2E2E2E2E2E2E2E2E2E2E2E2E2E2E2E2E2E2E2E2E2E2
310
E2E2E2E2E2E2E2E2E2E2E2E2E2E2E2E2E2E2E2F5E2E2E2E2E2DCDCDCDCE2E2E2E2E2E2E2E2E2E2F5E2E2E2E2E2E2E2E2E2E2E2E2E2E2F5E2E2E2E2E2E2E2E2E2E2E2E2E2E2E2E2E2F5F5E2F5F5F5E2F5E2E2E2E2E2E2E2E2E2E2E2E2E2E2ECE2E2E2E2E2E2E2E2F5F5E2E2E2E2E2E2E2E2E2E2E2E2E2E2F5E2E2E2E2E2E2E2
310
E2E2E2E2E2E2E2E2E2ECE2E2E2E2E2E2E2E2E2E2F5E2E2E2E2E2E2E2E2E2E2E2E2E2E2E2E2E2E2E2E2E2E2E2E2E2E2E2E2E2E2E2E2E2E2E2E2E2E2E2E2E2E2E2E2E2E2E2E2E2E2E2F5E2E2E2E2E2E2E2E2E2E2E2E2E2E2E2E2E2E2E2F5E2E2E2E2E2E2E2E2E2E2E2E2E2E2F5F5E2E2E2E2E2E2E2E2E2E2E2E2E2E2E2E2F5F5
310
E2F5F5F5E2F5E2E2E2E2E2E2E2E2E2E2E2E2E2E2ECE2E2E2E2E2F5F5E2F5F5E2E2E2E2E2E2E2E2E2E2E2E2E2E2F5E2E2E2E2E2E2E2E2E2E2E2E2E2E2E2E2ECE2E2E2E2E2E2E2E2E2E2F5E2E2E2E2E2E2E2E2E2E2E2E2E2E2E2E2E2E2E2E2E2E2E2E2E2E2E2E2E2E2E2E2E2E2E2E2E2E2E2E2E2E2E2E2E2E2E2E2E2E2E2F5E2
310
E2E2E2E2E2E2E2E2E2E2E2E2E2E2E2E2E2E2F5E2E2E2E2E2E2E2E2E2E2E2E2E2E2F5F5E2F5F5E2E2E2E2E2E2E2E2E2E2E2E2E2F5F5E2F5F5F5E2F5E2E2E2E2E2E2E2E2E2E2E2E2E2E2ECE2E2E2E2E2F5F5F5F5F5E2E2E2E2E2E2E2E2E2E2E2E2E2E2F5E2E2E2E2E2E2E2E2E2E2E2E2E2E2E2E2ECE2E2E2E2E2E2E2E2E2E2F5
310
E2E2E2E2E2E2E2E2E2E2E2E2E2E2E2E2E2E2E2E2E2E2E2E2E2E2E2E2E2E2E2E2E2E2E2E2E2E2E2E2E2E2E2E2E2E2E2E2E2E2E2F5E2E2E2E2E2E2E2E2E2E2E2E2E2E2E2E2E2E2E2F5E2E2E2E2E2E2E2E2E2E2E2E2E2E2F5F5F5F5F5E2E2E2E2E2E2E2E2E2E2E2E2E2F5F5E2F5F5F5E2F5E2E2E2E2E2E2E2E2E2E2E2E2E2E2EC
310
E2E2E2E2E2F5F5F5F5F5E2E2E2E2E2E2E2E2E2E2E2E2E2E2F5E2E2E2E2E2E2E2E2E2E2E2E2E2E2E2E2ECE2E2E2E2E2E2E2E2E2E2F5E2E2E2E2E2E2E2E2E2E2E2E2E2E2E2E2E2E2E2E2E2E2E2E2E2ECE2E2E2E2E2E2E2E2E2E2E2E2E2E2E2E2E2E2E2E2E2E2E2E2E2F5E2E2E2E2E2E2E2E2E2E2E2E2E2E2E2E2E2E2E2F5E2E2
310
E2E2E2E2E2E2E2E2E2E2E2E2F5F5F5F5F5E2E2E2E2E2E2E2E2E2E2E2E2E2F5F5E2F5F5F5E2F5E2E2E2E2E2E2E2E2E2E2E2E2E2ECECECECECF0F0F0F0F0F0F0F0E2E2E2E2E2E2E2E2E2E2E2E2E2F5E2E2E2E2E2E2E2E2E2E2E2E2E2E2E2E2ECE2E2E2E2E2E2E2E2E2E2F5E2E2E2E2E2E2E2E2E2E2E2E2E2E2E2E2E2E2E2E2E2
310
E2E2E2E2E2ECE2E2E2E2E2E2E2E2E2E2E2E2E2E2E2E2E2E2E2E2E2E2E2E2F5E2E2E2E2E2E2E2E2E2E2E2E2E2E2E2E2E2E2E2F5E2E2E2E2E2E2E2E2E2E2E2E2E2F0F5F5F5F5F5F0E2E2E2E2E2E2E2E2E2E2E2E2F5F5E2F5F5F5E2F5E2E2E2E2E2E2E2E2E2E2E2E2E2E2E2E2E2E2E2E2F5F5F5F5F5E2E2E2E2E2E2E2E2E2E2E2
310
E2E2E2F5E2E2E2E2E2E2E2E2E2E2E2E2E2E2E2E2ECE2E2E2E2E2E2E2E2E2E2F5E2E2E2E2E2E2E2E2E2E2E2E2E2E2E2E2E2E2E2E2E2E2E2E2E2E2ECE2E2E2E2E2E2E2E2E2E2E2E2E2E2E2E2E2E2E2E2E2E2E2E2F5E2E2E2E2E2E2E2E2E2E2E2E2E2E2E2E2E2E2E2F5E2E2E2E2E2E2E2E2E2E2E2E2E2E2F5F5F5F5F5E2E2E2E2
310
E2E2E2E2E2E2E2E2E2F5F5E2F5F5F5E2F5E2E2E2E2E2E2E2E2E2E2E2E2E2E2E2E2E2E2E2E2F5F5E2E2F5E2E2E2E2E2E2E2E2E2E2E2E2E2E2F5E2E2E2E2E2E2E2E2E2E2E2E2E2E2E2E2ECE2E2E2E2E2E2E2E2E2E2F5E2E2E2E2E2E2E2E2E2E2E2E2E2E2E2E2E2E2E2E2E2E2E2E2E2E2E2ECE2E2E2E2E2E2E2E2E2E2E2E2E2E2
310
E2E2E2E2E2E2E2E2E2F5E2E2E2E2E2E2E2E2E2E2E2E2E2E2E2E2E2E2E2F5E2E2E2E2E2E2E2E2E2E2E2E2E2E2F5E2E2F5F5E2E2E2E2E2E2E2E2E2E2E2E2E2F5F5E2F5F5F5E2F5E2E2E2E2E2E2E2E2E2E2E2E2E2E2E2E2E2E2E2E2F5F5E2E2F5E2E2E2E2E2E2E2E2E2E2E2E2E2E2F5E2E2E2E2E2E2E2E2E2E2E2E2E2E2E2E2EC
310
E2E2E2E2E2E2E2E2E2E2F5E2E2E2E2E2E2E2E2E2E2E2E2E2E2E2E2E2E2E2E2E2E2E2E2E2E2E2ECE2E2E2E2E2E2E2E2E2E2E2E2E2E2E2E2E2E2E2E2E2E2E2F5E2E2E2E2E2E2E2E2E2E2E2E2E2E2E2E2E2E2E2F5E2E2E2E2E2E2E2E2E2E2E2E2E2E2F5E2E2F5F5E2E2E2E2E2E2E2E2E2E2E2E2E2F5F5E2F5F5F5E2F5E2E2E2E2
310
E2E2E2E2E2E2E2E2E2E2E2E2E2E2E2E2E2E2E2E2F5E2E2E2E2E2E2E2E2E2E2E2E2E2E2F5E2E2E2E2E2E2E2E2E2E2E2E2E2E2E2E2ECE2E2E2E2E2E2E2E2E2E2F5E2E2E2E2E2E2E2E2E2E2E2E2E2E2E2E2E2E2E2E2E2E2E2E2E2E2E2E2ECE2E2E2E2E2E2E2E2E2E2E2E2E2E2E2E2E2E2E2E2E2E2F5E2E2E2E2E2E2E2E2E2E2E2
310
E2E2E2E2E2E2E2E2F5E2E2E2E2E2E2E2E2E2E2E2E2E2E2F5E2E2E2E2E2E2E2E2E2E2E2E2E2E2E2E2E2F5F5E2F5F5F5E2F5E2E2E2E2E2E2E2E2E2E2E2E2E2E2E2E2E2E2E2E2E2E2E2E2F5F5F5F5F5F5F5F5F5F5F5F5F5F5F5F5E2E2E2E2E2E2E2E2E2E2E2E2E2E2E2ECECECECECECECECECECECECF5F5F5F5F5F5F5F5F5F5F5
310
F5F5F5F5F5F5F5F5F5F5F5F5F5F5F5F5F5F5F5F5F5F5F5F5F5F5F5F5F5F5F5F5F5F5F5F5F5F5F5F5F5F5E2E2E2E2E2E2E2E2E2E2E2E2E2E2E2E2E2E2E2F5F5F5F5F5F5F5F5F5F5F5F5F5F5F5F5E2E2E2E2E2E2E2E2E2E2E2E2E2E2E2E2E2F5F5E2F5F5F5E2F5E2E2E2E2E2E2E2E2E2E2E2E2E2E2E2E2E2E2E2E2E2E2E2E2E2
310
E2E2E2E2E2E2E2E2E2E2E2E2E2E2E2E2E2E2E2E2E2E2E2E2E2E2E2E2E2E2E2E2E2E2E2E2E2E2E2E2E2E2E2E2E2E2E2E2E2E2E2E2E2E2E2E2E2E2E2E2E2E2E2E2E2E2E2E2E2E2E2E2ECE2E2E2E2E2E2E2E2E2E2E2E2E2E2E2E2E2E2E2E2E2E2E2E2E2E2E2E2E2E2E2E2E2E2E2E2E2E2E2E2E2E2E2E2E2E2E2E2E2E2E2E2E2E2
310
E2E2E2E2E2E2E2E2E2E2E2E2E2E2E2E2E2E2E2E2F5F5E2F5F5F5E2F5E2E2E2E2E2E2E2E2E2E2E2E2E2E2E2E2E2E2E2E2E2E2E2E2E2E2E2E2E2E2E2E2E2E2E2E2E2E2E2E2E2E2E2E2E2E2E2E2E2E2E2E2E2E2E2E2E2E2E2E2E2E2E2E2E2E2E2E2E2E2E2E2E2E2E2E2E2E2E2E2E2E2E2E2E2E2E2E2E2E2E2E2E2E2E2E2E2ECE2
310
E2E2E2E2E2E2E2E2E2E2E2E2E2E2E2E2E2E2E2E2E2E2E2E2E2E2E2E2E2E2E2E2E2E2E2E2E2E2E2E2E2E2E2E2E2E2E2E2E2E2E2E2E2E2E2E2E2E2E2E2E2E2E2E2E2E2E2E2E2E2E2E2E2F5F5E2F5F5F5E2F5E2E2E2E2E2E2E2E2E2E2E2E2E2E2E2E2E2E2E2E2E2E2E2E2E2E2E2E2E2E2E2E2E2E2E2E2E2E2E2E2E2E2E2E2E2E2
310
E2E2E2E2E2E2E2E2E2E2E2E2E2E2E2E2E2E2E2E2E2E2E2E2E2E2E2E2E2E2E2E2E2E2E2E2E2E2E2E2E2E2E2E2E2E2E2E2E2E2E2E2ECE2E2E2E2E2E2E2E2E2E2E2E2E2E2E2E2E2E2E2E2E2E2E2E2E2E2E2E2E2E2E2E2E2E2E2E2E2E2E2E2E2E2E2E2E2E2E2E2E2E2E2E2E2E2E2E2E2E2E2E2E2E2E2E2E2E2E2E2E2E2E2E2E2F5
310
F5E2F5F5F5E2F5E2E2E2E2E2E2E2E2E2E2E2E2E2E2E2E2E2E2E2E2E2E2E2E2E2E2E2E2E2E2E2E2E2E2E2E2E2E2E2E2E2E2E2E2E2E2E2E2E2E2E2E2E2E2E2E2E2E2E2E2E2E2E2E2E2E2E2E2E2E2E2E2E2E2E2E2E2E2E2E2E2E2E2E2E2E2E2E2E2E2E2E2E2E2E2E2E2E2ECECECECECECECECECECECECE2E2E2E2E2E2E2E2E2E2
310
E2E2E2E2E2E2E2E2E2E2E2E2E2E2E2E2E2E2E2E2E2E2E2E2E2E2E2E2E2E2E2E2E2E2E2E2E2E2E2E2E2E2E2E2E2E2E2E2E2E2E2E2F5F5E2F5F5F5E2F5E2E2E2E2E2E2E2E2E2E2E2E2E2E2E2E2E2E2E2E2E2E2E2E2E2E2E2E2E2E2E2E2E2E2E2E2E2E2E2E2E2E2E2E2E2E2E2E2E2E2E2E2E2E2E2E2E2E2E2E2E2E2E2E2E2E2E2
310
E2E2E2E2E2E2E2E2E2E2E2E2E2E2E2E2E2E2E2E2E2E2E2E2E2E2E2E2E2E2E2E2E2DCDCDCDCDCDCDCDCDCE2E2E2E2E2E2E2E2E2E2E2E2E2E2E2E2E2E2E2E2E2E2E2E2E2E2E2E2E2E2E2E2E2E2E2E2E2E2E2E2E2E2E2E2E2E2E2E2E2E2E2E2E2E2E2E2E2E2E2E2E2E2E2F5F5E2F5F5F5E2F5E2E2E2E2E2E2E2E2E2E2E2E2E2E2
310
E2E2E2E2E2E2E2E2E2E2E2E2E2E2E2E2E2E2E2E2E2E2E2E2E2E2E2E2E2E2E2E2E2E2E2E2E2E2E2E2E2E2E2E2E2E2E2E2E2E2E2E2E2E2E2E2E2E2E2E2E2E2E2E2E2E2E2E2E2E2E2E2E2E2E2E2E2E2E2E2E2E2E2E2E2E2DCDCDCDCDCDCDCDCDCE2E2E2E2E2E2E2E2E2E2E2E2E2E2E2E2E2E2E2E2E2E2E2E2E2E2E2E2E2E2E2E2
310
E2E2E2E2E2E2E2E2E2E2E2E2E2E2E2E2E2E2E2E2E2E2E2E2E2E2E2E2E2E2E2F5E2E2F5F5F5E2F5E2E2E2E2E2E2E2E2E2E2E2E2E2E2E2E2E2E2E2E2E2E2E2E2E2E2E2E2E2E2E2E2E2E2E2E2E2E2E2E2E2E2E2E2E2E2E2E2E2E2E2E2E2E2E2E2E2E2E2E2E2E2E2E2E2E2E2E2E2E2E2E2E2E2E2E2E2E2E2E2E2E2E2E2E2E2E2E2
310
E2E2E2E2E2E2E2E2E2E2E2E2E2E2E2E2E2E2E2E2E2E2E2E2E2E2E2E2E2E2E2E2E2E2E2E2E2E2E2E2E2E2E2E2E2E2E2E2E2E2E2E2E2E2E2E2E2E2E2E2E2E2E2E2E2E2E2E2E2E2E2E2E2E2E2E2E2E2E2E2E2E2E2E2F5E2E2F5F5F5E2F5E2E2E2E2E2E2E2E2E2E2E2E2E2E2E2E2E2E2E2E2E2E2E2E2E2E2E2E2E2E2E2E2E2E2E2
310
E2E2E2E2E2E2E2E2E2E2E2E2E2E2E2E2E2E2E2E2E2E2E2E2E2E2E2E2E2E2E2E2E2E2E2E2E2E2E2E2E2E2E2E2E2E2E2E2E2E2E2E2E2E2E2E2E2E2E2E2E2E2E2E2E2E2E2E2E2E2E2E2E2E2E2E2E2E2E2E2E2E2E2E2E2E2E2E2E2E2E2E2E2E2E2E2E2E2E2E2E2E2E2E2E2E2E2E2E2E2E2E2E2E2E2E2E2E2E2E2E2E2E2E2E2E2E2
310
E2E2E2E2E2E2E2E2E2E2F5E2E2F5F5F5E2F5E2E2E2E2E2E2E2E2E2E2E2E2E2E2E2E2E2E2E2E2E2E2E2E2E2E2E2E2E2E2E2E2E2E2E2E2E2E2E2E2E2E2E2E2E2E2E2E2E2E2E2E2E2E2E2E2E2E2E2E2E2E2E2E2E2E2E2E2E2E2E2E2E2E2E2E2E2E2E2E2E2E2E2E2E2E2E2E2E2E2E2E2E2E2E2E2E2E2E2E2E2E2E2E2E2E2E2E2E2
310
E2E2E2E2E2E2E2E2E2E2E2E2E2E2E2E2E2E2E2E2E2E2E2E2E2E2E2E2E2E2E2E2E2E2E2E2E2E2E2E2E2E2E2E2E2E2E2E2E2E2E2E2E2E2E2E2E2E2E2E2E2E2E2F5E2E2F5F5F5E2F5E2E2E2E2E2E2E2E2E2E2E2E2E2E2E2E2E2E2E2E2E2E2E2E2E2E2E2E2E2E2E2E2E2E2E2E2E2E2E2E2E2E2E2E2E2E2E2E2E2E2E2E2E2E2E2E2
310
E2E2E2E2E2E2E2E2E2E2E2E2E2E2E2E2E2E2E2E2E2E2E2E2E2E2E2E2E2E2E2E2E2E2E2E2E2E2E2E2E2E2E2E2E2E2E2E2E2E2E2E2E2E2E2E2E2E2E2E2E2E2E2E2E2E2E2E2E2E2E2E2E2E2E2E2E2E2E2E2E2E2E2E2E2E2E2E2E2E2E2E2E2E2E2E2E2E2E2E2E2E2E2E2E2E2E2E2E2E2E2E2E2E2E2E2F5E2E2F5F5F5E2F5E2E2E2
310
E2E2E2E2E2E2E2E2E2E2E2E2E2E2E2E2E2E2E2E2E2E2E2E2E2E2E2E2E2E2E2E2E2E2E2E2E2E2E2E2E2E2E2E2E2E2E2E2E2E2E2E2E2E2E2E2E2E2E2E2E2E2E2E2E2E2E2E2E2E2E2E2E2E2E2E2E2E2E2E2E2E2E2E2E2E2E2E2E2E2E2E2E2E2E2E2E2E2E2E2E2E2E2E2E2E2E2E2E2E2E2E2E2E2E2E2E2E2E2E2E2E2E2E2E2E2E2
310
E2E2E2E2E2E2E2E2E2E2E2E2E2E2E2E2E2E2E2E2E2E2E2E2E2E2E2E2E2E2E2E2E2E2E2E2E2E2E2E2E2E2F5E2E2F5F5F5E2F5E2E2E2E2E2E2E2E2E2E2E2E2E2E2E2E2E2E2E2E2E2E2E2E2E2E2E2E2E2E2E2E2E2E2E2E2E2E2E2E2E2E2E2E2E2E2E2E2E2E2E2E2E2E2E2E2E2E2E2E2E2E2E2E2E2E2E2E2E2E2E2E2E2E2E2E2E2
310
E2E2E2E2E2E2E2E2E2E2E2E2E2E2E2E2E2E2E2E2E2E2E2E2E2E2E2E2E2E2E2E2E2E2E2E2E2E2E2E2E2E2E2E2E2E2E2E2E2E2E2E2E2E2E2E2E2E2E2E2E2E2E2E2E2E2E2E2E2E2E2E2E2E2E2E2E2E2E2E2E2E2E2E2E2E2E2E2E2E2E2E2E2E2E2F5E2E2F5F5F5E2F5E2E2E2E2E2E2E2E2E2E2E2E2E2E2E2E2E2E2E2E2E2E2E2E2
310
E2E2E2E2E2E2E2E2E2E2E2E2E2E2E2E2E2E2E2E2E2E2E2E2E2E2E2E2E2E2E2E2E2E2E2E2E2E2E2E2E2E2E2E2E2E2E2E2E2E2E2E2E2E2E2E2E2E2E2E2E2E2E2E2E2E2E2E2E2E2E2E2E2E2E2E2E2E2E2E2E2E2E2E2E2E2E2E2E2E2E2E2E2E2E2E2E2E2E2E2E2E2E2E2E2E2E2E2E2E2E2E2E2E2E2E2E2E2E2E2E2E2E2E2E2E2E2
310
E2E2E2E2E2E2E2E2E2E2E2E2E2E2E2E2E2E2E2E2E2F5E2E2F5F5F5E2F5E2E2E2E2E2E2E2E2E2E2E2E2E2E2E2E2E2E2E2E2E2E2E2E2E2E2E2E2E2E2E2E2E2E2E2E2E2E2E2E2E2E2E2E2E2E2E2E2E2E2E2E2E2E2E2E2E2E2E2E2E2E2E2E2E2E2E2E2E2E2E2E2E2E2E2E2E2E2E2E2E2E2E2E2E2E2E2E2E2E2E2E2E2E2E2E2E2E2
310
E2E2E2E2E2E2E2E2E2E2E2E2E2E2E2E2E2E2E2E2E2E2E2E2E2E2E2E2E2E2E2E2E2E2E2E2E2E2E2E2E2E2E2E2E2E2E2E2E2E2E2E2E2E2E2E2E2E2E2E2E2E2E2E2E2E2E2E2E2E2E2E2E2E2F5E2E2F5F5F5E2F5E2E2E2E2E2E2E2E2E2E2E2E2E2E2E2E2E2E2E2E2E2E2E2E2E2E2E2E2E2E2E2E2E2E2E2E2E2E2E2E2E2E2E2E2E2
310
E2E2E2E2E2E2E2E2E2E2E2E2E2E2E2E2E2E2E2E2E2E2E2E2E2E2E2E2E2E2E2E2E2E2E2E2E2E2E2E2E2E2E2E2E2E2E2E2E2E2E2E2E2E2E2E2E2E2E2E2E2E2E2E2E2E2E2E2E2E2E2E2E2E2E2E2E2E2E2E2E2E2E2E2E2E2E2E2E2E2E2E2E2E2E2E2E2E2E2E2E2E2E2E2E2E2E2E2E2E2E2E2E2E2E2E2E2E2E2E2E2E2E2E2E2E2E2
310
F5F5E2F5F5F5E2F5E2E2E2E2E2E2E2E2E2E2E2E2E2E2E2E2E2E2E2E2E2E2E2E2E2E2E2E2E2E2E2E2E2E2E2E2E2E2E2E2E2E2E2E2E2E2E2E2E2E2E2E2E2E2E2E2E2E2E2E2E2E2E2E2E2E2E2E2E2E2E2E2E2E2E2E2E2E2E2E2E2E2E2E2E2E2E2E2E2E2E2E2E2E2E2E2E2E2E2E2E2E2E2E2E2E2E2E2E2E2E2E2E2E2E2E2E2E2E2
310
E2E2E2E2E2E2E2E2E2E2E2E2E2E2E2E2E2E2E2E2E2E2E2E2E2E2E2E2E2E2E2E2E2E2E2E2E2E2E2E2E2E2E2E2E2E2E2E2E2E2E2E2E2F5F5E2F5F5F5E2F5E2E2E2E2E2E2E2E2E2E2E2E2E2E2E2E2E2E2E2E2E2E2E2E2E2E2E2E2E2E2E2E2E2E2E2E2E2E2E2E2E2E2E2E2E2E2E2E2E2E2E2E2E2E2E2E2E2E2E2E2E2E2E2E2E2E2
310
E2E2E2E2E2E2E2E2E2E2E2E2E2E2E2E2E2E2E2E2E2E2E2E2E2E2E2E2E2E2E2E2E2E2E2E2E2E2E2E2E2E2E2E2E2E2E2E2E2E2E2E2E2E2E2E2E2E2E2E2E2E2E2E2E2E2E2E2E2E2E2E2E2E2E2E2E2E2E2E2E2E2E2E2E2E2E2E2E2E2E2E2E2E2E2E2E2E2E2E2E2E2E2E2E2E2F5F5E2F5F5F5E2F5E2E2E2E2E2E2E2E2E2E2E2E2E2
310
E2E2E2E2E2E2E2E2E2E2E2E2E2E2E2E2E2E2E2E2E2E2E2E2E2E2E2E2E2E2E2E2E2E2E2E2E2E2E2E2E2E2E2E2E2E2E2E2E2E2E2E2E2E2E2E2E2E2E2E2E2E2E2E2E2E2E2E2E2E2E2E2E2E2E2E2E2E2E2E2E2E2E2E2E2E2E2E2E2E2E2E2E2E2E2E2E2E2E2E2E2E2E2E2E2E2E2E2E2E2E2E2E2E2E2E2E2E2E2E2E2E2E2E2E2E2E2
310
E2E2E2E2E2E2E2E2E2E2E2E2E2E2E2E2E2E2E2E2E2E2E2E2E2E2E2E2E2E2E2E2F5F5E2F5F5F5E2F5E2E2E2E2E2E2E2E2E2E2E2E2E2E2E2E2E2E2E2E2E2E2E2E2E2E2E2E2E2E2E2E2E2E2E2E2E2E2E2E2E2E2E2E2E2E2E2E2E2E2E2E2E2E2E2E2E2E2E2E2E2E2E2E2E2E2E2E2E2E2E2E2E2E2E2E2E2E2E2E2E2E2E2E2E2E2E2
310
E2E2E2E2E2E2E2E2E2E2E2E2E2E2E2E2E2E2E2E2E2E2E2E2E2E2E2E2E2E2E2E2E2E2E2E2E2E2E2E2E2E2E2E2E2E2E2E2E2E2E2E2E2E2E2E2E2E2E2E2E2E2E2E2E2E2E2E2E2E2E2E2E2E2E2E2E2E2E2E2E2E2E2E2E2F5F5E2F5F5F5E2F5E2E2E2E2E2E2E2E2E2E2E2E2E2E2E2E2E2E2E2E2E2E2E2E2E2E2E2E2E2E2E2E2E2E2
310
E2E2E2E2E2E2E2E2E2E2E2E2E2E2E2E2E2E2E2E2E2E2E2E2E2E2E2E2E2E2E2E2E2E2E2E2E2E2E2E2E2E2E2E2E2E2E2E2E2E2E2E2E2E2E2E2E2E2E2E2E2E2E2E2E2E2E2E2E2E2E2E2E2E2E2E2E2E2E2E2E2E2E2E2E2E2E2E2E2E2E2E2E2E2E2E2E2E2E2E2E2E2E2E2E2E2E2E2E2E2E2E2E2E2E2E2E2E2E2E2E2E2E2E2E2E2E2
310
E2E2E2E2E2E2E2E2E2E2E2F5F5E2F5F5F5E2F5F5F5F5F5F5F5F5F5F5F5F5F5F5F5F5F5F5F5F5F5F5F5F5F5F5F5F5F5F5F5F5F5F5F5F5F5F5F5F5F5F5F5F5F5F5F5F5F5F5F5F5F5F5F5F5F5F5F5F5F5F5F5F5F5F5F5F5F5F5F5F5F5F5F5F5F5F5F5F5F5F5F5F5F5F5F5F5F5F5F5F5F5F5F5F5F5F5F5F5F5F5F5F5F5F5F5F5F5
310
F5F5F5F5F5F5F5F5F5F5F5F5F5F5F5F5F5F5F5F5F5F5F5F5F5F5F5F5F5F5F5F5F5F5F5F5F5F5F5F5F5F5F5F5F5F5F5F5F5F5F5F5F5F5F5F5F5F5F5F5F5F5F5F5F5F5E2F5F5F5E2F5F5F5F5F5F5F5F5E2E2E2E2E2E2E2E2E2F5F5F5F5F5F5F5F5F5F5F5F5F5F5F5F5E2E2E2E2E2E2E2E2E2F5F5F5F5F5F5F5F5F5F5F5F5F5F5
310
F5F5E2E2E2E2E2E2E2E2E2F5F5F5F5F5F5F5F5F5F5F5F5F5F5F5F5E2E2E2E2E2E2E2E2E2F5F5F5F5F5F5F5F5F5F5F5F5F5F5F5F5E2E2E2E2E2E2E2E2E2F5F5F5F5F5F5F5F5F5F5F5F5F5F5F5F5E2E2E2E2E2E2E2E2E2F5F5F5F5F5F5F5F5F5F5F5F5F5F5F5F5E2E2E2E2E2E2E2E2E2F5F5F5F5F5F5F5F5E2F5EFF5F5F5F5F5
310
F5F5F5F5F5F5F5F5F5F5F5F5F5F5F5F5F5F5F5F5F5F5F5F5F5F5F5F5F5F5F5F5F5F5F5F5F5F5F5F5F5F5F5F5F5F5F5F5F5F5F5F5F5F5F5F5F5F5F5F5F5F5F5F5F5F5F5F5F5F5F5F5F5F5F5F5F5F5F5F5F5F5F5F5F5F5F5F5F5F5F5F5F5F5F5F5F5F5F5F5F5F5F5F5F5F5F5F5F5F5F5F5F5F5F5F5F5F5F5F5F5F5F5F5F5F5F5
310
F5F5F5F5F5F5F5F5F5F5F5F5F5F5F5F5F5F5F5F5F5F5F5F5F5F5F5F5F5F5F5F5F5F5F5F5F5F5F5F5F5F5F5F5F5F5F5EF
  0
XRECORD
  5
10BA6
102
{ACAD_REACTORS
330
10B24
102
}
330
10B24
100
AcDbXrecord
280
     1
102
MATERIAL
148
0.0
149
0.0
149
0.0
 93
        0
 94
      127
282
     0
 72
     0
 77
     0
171
     0
175
     0
179
     0
273
     0
  0
XRECORD
  5
10B26
102
{ACAD_REACTORS
330
10B24
102
}
330
10B24
100
AcDbXrecord
280
     1
270
     1
271
     1
  0
XRECORD
  5
10B25
102
{ACAD_REACTORS
330
10B24
102
}
330
10B24
100
AcDbXrecord
280
     1
270
     1
271
     1
  0
XRECORD
  5
10B29
102
{ACAD_REACTORS
330
10B24
102
}
330
10B24
100
AcDbXrecord
280
     1
270
     1
271
     1
  0
XRECORD
  5
10B28
102
{ACAD_REACTORS
330
10B24
102
}
330
10B24
100
AcDbXrecord
280
     1
270
     1
271
     1
  0
XRECORD
  5
10B2A
102
{ACAD_REACTORS
330
10B24
102
}
330
10B24
100
AcDbXrecord
280
     1
270
     1
271
     1
  0
XRECORD
  5
10B27
102
{ACAD_REACTORS
330
10B24
102
}
330
10B24
100
AcDbXrecord
280
     1
270
     1
271
     1
  0
XRECORD
  5
10BA5
102
{ACAD_REACTORS
330
10B1C
102
}
330
10B1C
100
AcDbXrecord
280
     1
102
MATERIAL
148
0.0
149
0.0
149
0.0
 93
        0
 94
      127
282
     0
 72
     0
 77
     0
171
     0
175
     0
179
     0
273
     0
  0
XRECORD
  5
10B1E
102
{ACAD_REACTORS
330
10B1C
102
}
330
10B1C
100
AcDbXrecord
280
     1
270
     1
271
     1
  0
XRECORD
  5
10B1D
102
{ACAD_REACTORS
330
10B1C
102
}
330
10B1C
100
AcDbXrecord
280
     1
270
     1
271
     1
  0
XRECORD
  5
10B21
102
{ACAD_REACTORS
330
10B1C
102
}
330
10B1C
100
AcDbXrecord
280
     1
270
     1
271
     1
  0
XRECORD
  5
10B20
102
{ACAD_REACTORS
330
10B1C
102
}
330
10B1C
100
AcDbXrecord
280
     1
270
     1
271
     1
  0
XRECORD
  5
10B22
102
{ACAD_REACTORS
330
10B1C
102
}
330
10B1C
100
AcDbXrecord
280
     1
270
     1
271
     1
  0
XRECORD
  5
10B1F
102
{ACAD_REACTORS
330
10B1C
102
}
330
10B1C
100
AcDbXrecord
280
     1
270
     1
271
     1
  0
XRECORD
  5
10BA7
102
{ACAD_REACTORS
330
10B2C
102
}
330
10B2C
100
AcDbXrecord
280
     1
102
MATERIAL
148
0.0
149
0.0
149
0.0
 93
        0
 94
      127
282
     0
 72
     0
 77
     0
171
     0
175
     0
179
     0
273
     0
  0
XRECORD
  5
10B2E
102
{ACAD_REACTORS
330
10B2C
102
}
330
10B2C
100
AcDbXrecord
280
     1
270
     1
271
     1
  0
XRECORD
  5
10B2D
102
{ACAD_REACTORS
330
10B2C
102
}
330
10B2C
100
AcDbXrecord
280
     1
270
     1
271
     1
  0
XRECORD
  5
10B31
102
{ACAD_REACTORS
330
10B2C
102
}
330
10B2C
100
AcDbXrecord
280
     1
270
     1
271
     1
  0
XRECORD
  5
10B30
102
{ACAD_REACTORS
330
10B2C
102
}
330
10B2C
100
AcDbXrecord
280
     1
270
     1
271
     1
  0
XRECORD
  5
10B32
102
{ACAD_REACTORS
330
10B2C
102
}
330
10B2C
100
AcDbXrecord
280
     1
270
     1
271
     1
  0
XRECORD
  5
10B2F
102
{ACAD_REACTORS
330
10B2C
102
}
330
10B2C
100
AcDbXrecord
280
     1
270
     1
271
     1
  0
CELLSTYLEMAP
  5
10BB2
102
{ACAD_REACTORS
330
10B99
102
}
330
10B99
100
AcDbCellStyleMap
 90
        3
300
CELLSTYLE
  1
TABLEFORMAT_BEGIN
 90
        5
170
     1
 91
        0
 92
    32768
 62
   257
 93
        1
300
CONTENTFORMAT
  1
CONTENTFORMAT_BEGIN
 90
        0
 91
        0
 92
        4
 93
        0
300

 40
0.0
140
1.0
 94
        5
 62
     0
340
D
144
0.25
309
CONTENTFORMAT_END
171
     1
301
MARGIN
  1
CELLMARGIN_BEGIN
 40
0.06
 40
0.06
 40
0.06
 40
0.06
 40
0.18
 40
0.18
309
CELLMARGIN_END
 94
        6
 95
        1
302
GRIDFORMAT
  1
GRIDFORMAT_BEGIN
 90
        0
 91
        1
 62
     0
 92
       -2
340
0
 93
        0
 40
0.045
309
GRIDFORMAT_END
 95
        2
302
GRIDFORMAT
  1
GRIDFORMAT_BEGIN
 90
        0
 91
        1
 62
     0
 92
       -2
340
0
 93
        0
 40
0.045
309
GRIDFORMAT_END
 95
        4
302
GRIDFORMAT
  1
GRIDFORMAT_BEGIN
 90
        0
 91
        1
 62
     0
 92
       -2
340
0
 93
        0
 40
0.045
309
GRIDFORMAT_END
 95
        8
302
GRIDFORMAT
  1
GRIDFORMAT_BEGIN
 90
        0
 91
        1
 62
     0
 92
       -2
340
0
 93
        0
 40
0.045
309
GRIDFORMAT_END
 95
       16
302
GRIDFORMAT
  1
GRIDFORMAT_BEGIN
 90
        0
 91
        1
 62
     0
 92
       -2
340
0
 93
        0
 40
0.045
309
GRIDFORMAT_END
 95
       32
302
GRIDFORMAT
  1
GRIDFORMAT_BEGIN
 90
        0
 91
        1
 62
     0
 92
       -2
340
0
 93
        0
 40
0.045
309
GRIDFORMAT_END
309
TABLEFORMAT_END
  1
CELLSTYLE_BEGIN
 90
        1
 91
        1
300
_TITLE
309
CELLSTYLE_END
300
CELLSTYLE
  1
TABLEFORMAT_BEGIN
 90
        5
170
     1
 91
        0
 92
        0
 62
   257
 93
        1
300
CONTENTFORMAT
  1
CONTENTFORMAT_BEGIN
 90
        0
 91
        0
 92
        4
 93
        0
300

 40
0.0
140
1.0
 94
        5
 62
     0
340
D
144
0.18
309
CONTENTFORMAT_END
171
     1
301
MARGIN
  1
CELLMARGIN_BEGIN
 40
0.06
 40
0.06
 40
0.06
 40
0.06
 40
0.18
 40
0.18
309
CELLMARGIN_END
 94
        6
 95
        1
302
GRIDFORMAT
  1
GRIDFORMAT_BEGIN
 90
        0
 91
        1
 62
     0
 92
       -2
340
0
 93
        0
 40
0.045
309
GRIDFORMAT_END
 95
        2
302
GRIDFORMAT
  1
GRIDFORMAT_BEGIN
 90
        0
 91
        1
 62
     0
 92
       -2
340
0
 93
        0
 40
0.045
309
GRIDFORMAT_END
 95
        4
302
GRIDFORMAT
  1
GRIDFORMAT_BEGIN
 90
        0
 91
        1
 62
     0
 92
       -2
340
0
 93
        0
 40
0.045
309
GRIDFORMAT_END
 95
        8
302
GRIDFORMAT
  1
GRIDFORMAT_BEGIN
 90
        0
 91
        1
 62
     0
 92
       -2
340
0
 93
        0
 40
0.045
309
GRIDFORMAT_END
 95
       16
302
GRIDFORMAT
  1
GRIDFORMAT_BEGIN
 90
        0
 91
        1
 62
     0
 92
       -2
340
0
 93
        0
 40
0.045
309
GRIDFORMAT_END
 95
       32
302
GRIDFORMAT
  1
GRIDFORMAT_BEGIN
 90
        0
 91
        1
 62
     0
 92
       -2
340
0
 93
        0
 40
0.045
309
GRIDFORMAT_END
309
TABLEFORMAT_END
  1
CELLSTYLE_BEGIN
 90
        2
 91
        1
300
_HEADER
309
CELLSTYLE_END
300
CELLSTYLE
  1
TABLEFORMAT_BEGIN
 90
        5
170
     1
 91
        0
 92
        0
 62
   257
 93
        1
300
CONTENTFORMAT
  1
CONTENTFORMAT_BEGIN
 90
        0
 91
        0
 92
        4
 93
        0
300

 40
0.0
140
1.0
 94
        2
 62
     0
340
D
144
0.18
309
CONTENTFORMAT_END
171
     1
301
MARGIN
  1
CELLMARGIN_BEGIN
 40
0.06
 40
0.06
 40
0.06
 40
0.06
 40
0.18
 40
0.18
309
CELLMARGIN_END
 94
        6
 95
        1
302
GRIDFORMAT
  1
GRIDFORMAT_BEGIN
 90
        0
 91
        1
 62
     0
 92
       -2
340
0
 93
        0
 40
0.045
309
GRIDFORMAT_END
 95
        2
302
GRIDFORMAT
  1
GRIDFORMAT_BEGIN
 90
        0
 91
        1
 62
     0
 92
       -2
340
0
 93
        0
 40
0.045
309
GRIDFORMAT_END
 95
        4
302
GRIDFORMAT
  1
GRIDFORMAT_BEGIN
 90
        0
 91
        1
 62
     0
 92
       -2
340
0
 93
        0
 40
0.045
309
GRIDFORMAT_END
 95
        8
302
GRIDFORMAT
  1
GRIDFORMAT_BEGIN
 90
        0
 91
        1
 62
     0
 92
       -2
340
0
 93
        0
 40
0.045
309
GRIDFORMAT_END
 95
       16
302
GRIDFORMAT
  1
GRIDFORMAT_BEGIN
 90
        0
 91
        1
 62
     0
 92
       -2
340
0
 93
        0
 40
0.045
309
GRIDFORMAT_END
 95
       32
302
GRIDFORMAT
  1
GRIDFORMAT_BEGIN
 90
        0
 91
        1
 62
     0
 92
       -2
340
0
 93
        0
 40
0.045
309
GRIDFORMAT_END
309
TABLEFORMAT_END
  1
CELLSTYLE_BEGIN
 90
        3
 91
        2
300
_DATA
309
CELLSTYLE_END
  0
XRECORD
  5
10BB4
102
{ACAD_REACTORS
330
10B99
102
}
330
10B99
100
AcDbXrecord
280
     1
102
ACAD_ROUNDTRIP_PRE2007_TABLESTYLE
 90
        4
 91
        0
  1

 92
        4
 93
        0
  2

 94
        4
 95
        0
  3

  0
ENDSEC
  0
EOF
