  0
SECTION
  2
HEADER
  9
$ACADVER
  1
AC1015
  9
$ACADMAINTVER
 70
    20
  9
$DWGCODEPAGE
  3
ANSI_932
  9
$INSBASE
 10
378.8074096917408
 20
273.1221640806761
 30
0.0
  9
$EXTMIN
 10
0.0
 20
0.0
 30
0.0
  9
$EXTMAX
 10
1680.0
 20
1188.0
 30
0.0
  9
$LIMMIN
 10
0.0
 20
0.0
  9
$LIMMAX
 10
10000.0
 20
10000.0
  9
$ORTHOMODE
 70
     1
  9
$REGENMODE
 70
     1
  9
$FILLMODE
 70
     1
  9
$QTEXTMODE
 70
     0
  9
$MIRRTEXT
 70
     1
  9
$LTSCALE
 40
33.67003367003367
  9
$ATTMODE
 70
     1
  9
$TEXTSIZE
 40
84.17508417508416
  9
$TRACEWID
 40
1.0
  9
$TEXTSTYLE
  7
AD-STANDARD
  9
$CLAYER
  8
SB150K-FP
  9
$CELTYPE
  6
BYLAYER
  9
$CECOLOR
 62
   256
  9
$CELTSCALE
 40
0.1
  9
$DISPSILH
 70
     0
  9
$DIMSCALE
 40
4.0
  9
$DIMASZ
 40
2.5
  9
$DIMEXO
 40
1.0
  9
$DIMDLI
 40
0.38
  9
$DIMRND
 40
0.0
  9
$DIMDLE
 40
0.0
  9
$DIMEXE
 40
2.0
  9
$DIMTP
 40
0.0
  9
$DIMTM
 40
0.0
  9
$DIMTXT
 40
2.5
  9
$DIMCEN
 40
30.0
  9
$DIMTSZ
 40
0.0
  9
$DIMTOL
 70
     0
  9
$DIMLIM
 70
     0
  9
$DIMTIH
 70
     0
  9
$DIMTOH
 70
     0
  9
$DIMSE1
 70
     0
  9
$DIMSE2
 70
     0
  9
$DIMTAD
 70
     1
  9
$DIMZIN
 70
     8
  9
$DIMBLK
  1

  9
$DIMASO
 70
     1
  9
$DIMSHO
 70
     1
  9
$DIMPOST
  1

  9
$DIMAPOST
  1

  9
$DIMALT
 70
     0
  9
$DIMALTD
 70
     2
  9
$DIMALTF
 40
25.4
  9
$DIMLFAC
 40
1.0
  9
$DIMTOFL
 70
     1
  9
$DIMTVP
 40
0.0
  9
$DIMTIX
 70
     0
  9
$DIMSOXD
 70
     0
  9
$DIMSAH
 70
     0
  9
$DIMBLK1
  1

  9
$DIMBLK2
  1

  9
$DIMSTYLE
  2
AD-STANDARD
  9
$DIMCLRD
 70
     8
  9
$DIMCLRE
 70
     8
  9
$DIMCLRT
 70
     2
  9
$DIMTFAC
 40
1.0
  9
$DIMGAP
 40
0.5
  9
$DIMJUST
 70
     0
  9
$DIMSD1
 70
     0
  9
$DIMSD2
 70
     0
  9
$DIMTOLJ
 70
     1
  9
$DIMTZIN
 70
     8
  9
$DIMALTZ
 70
     0
  9
$DIMALTTZ
 70
     0
  9
$DIMUPT
 70
     0
  9
$DIMDEC
 70
     4
  9
$DIMTDEC
 70
     4
  9
$DIMALTU
 70
     2
  9
$DIMALTTD
 70
     2
  9
$DIMTXSTY
  7
AD-STANDARD
  9
$DIMAUNIT
 70
     0
  9
$DIMADEC
 70
     0
  9
$DIMALTRND
 40
0.0
  9
$DIMAZIN
 70
     0
  9
$DIMDSEP
 70
    46
  9
$DIMATFIT
 70
     3
  9
$DIMFRAC
 70
     0
  9
$DIMLDRBLK
  1

  9
$DIMLUNIT
 70
     2
  9
$DIMLWD
 70
    -2
  9
$DIMLWE
 70
    -2
  9
$DIMTMOVE
 70
     0
  9
$LUNITS
 70
     2
  9
$LUPREC
 70
     4
  9
$SKETCHINC
 40
1.0
  9
$FILLETRAD
 40
5.0
  9
$AUNITS
 70
     0
  9
$AUPREC
 70
     0
  9
$MENU
  1
.
  9
$ELEVATION
 40
0.0
  9
$PELEVATION
 40
0.0
  9
$THICKNESS
 40
0.0
  9
$LIMCHECK
 70
     0
  9
$CHAMFERA
 40
1.0
  9
$CHAMFERB
 40
1.0
  9
$CHAMFERC
 40
673.4006734006733
  9
$CHAMFERD
 40
0.0
  9
$SKPOLY
 70
     0
  9
$TDCREATE
 40
2450372.711178241
  9
$TDUCREATE
 40
2450372.336178241
  9
$TDUPDATE
 40
2456381.467999769
  9
$TDUUPDATE
 40
2456381.092999769
  9
$TDINDWG
 40
1.8526818519
  9
$TDUSRTIMER
 40
1.8526818519
  9
$USRTIMER
 70
     1
  9
$ANGBASE
 50
0.0
  9
$ANGDIR
 70
     0
  9
$PDMODE
 70
     0
  9
$PDSIZE
 40
0.0
  9
$PLINEWID
 40
0.0
  9
$SPLFRAME
 70
     0
  9
$SPLINETYPE
 70
     6
  9
$SPLINESEGS
 70
     8
  9
$HANDSEED
  5
4A16
  9
$SURFTAB1
 70
     6
  9
$SURFTAB2
 70
     6
  9
$SURFTYPE
 70
     6
  9
$SURFU
 70
     6
  9
$SURFV
 70
     6
  9
$UCSBASE
  2

  9
$UCSNAME
  2

  9
$UCSORG
 10
0.0
 20
0.0
 30
0.0
  9
$UCSXDIR
 10
1.0
 20
0.0
 30
0.0
  9
$UCSYDIR
 10
0.0
 20
1.0
 30
0.0
  9
$UCSORTHOREF
  2

  9
$UCSORTHOVIEW
 70
     0
  9
$UCSORGTOP
 10
0.0
 20
0.0
 30
0.0
  9
$UCSORGBOTTOM
 10
0.0
 20
0.0
 30
0.0
  9
$UCSORGLEFT
 10
0.0
 20
0.0
 30
0.0
  9
$UCSORGRIGHT
 10
0.0
 20
0.0
 30
0.0
  9
$UCSORGFRONT
 10
0.0
 20
0.0
 30
0.0
  9
$UCSORGBACK
 10
0.0
 20
0.0
 30
0.0
  9
$PUCSBASE
  2

  9
$PUCSNAME
  2

  9
$PUCSORG
 10
0.0
 20
0.0
 30
0.0
  9
$PUCSXDIR
 10
1.0
 20
0.0
 30
0.0
  9
$PUCSYDIR
 10
0.0
 20
1.0
 30
0.0
  9
$PUCSORTHOREF
  2

  9
$PUCSORTHOVIEW
 70
     0
  9
$PUCSORGTOP
 10
0.0
 20
0.0
 30
0.0
  9
$PUCSORGBOTTOM
 10
0.0
 20
0.0
 30
0.0
  9
$PUCSORGLEFT
 10
0.0
 20
0.0
 30
0.0
  9
$PUCSORGRIGHT
 10
0.0
 20
0.0
 30
0.0
  9
$PUCSORGFRONT
 10
0.0
 20
0.0
 30
0.0
  9
$PUCSORGBACK
 10
0.0
 20
0.0
 30
0.0
  9
$USERI1
 70
     0
  9
$USERI2
 70
     0
  9
$USERI3
 70
     0
  9
$USERI4
 70
     0
  9
$USERI5
 70
     0
  9
$USERR1
 40
0.0
  9
$USERR2
 40
0.0
  9
$USERR3
 40
0.0
  9
$USERR4
 40
0.0
  9
$USERR5
 40
0.0
  9
$WORLDVIEW
 70
     1
  9
$SHADEDGE
 70
     3
  9
$SHADEDIF
 70
    70
  9
$TILEMODE
 70
     0
  9
$MAXACTVP
 70
    16
  9
$PINSBASE
 10
0.0
 20
0.0
 30
0.0
  9
$PLIMCHECK
 70
     0
  9
$PEXTMIN
 10
1.144333318462514
 20
0.8018333376862187
 30
0.0
  9
$PEXTMAX
 10
411.6090929927876
 20
288.8796390708766
 30
0.0
  9
$PLIMMIN
 10
-3.17498779296875
 20
-3.174999952316284
  9
$PLIMMAX
 10
416.9833374023437
 20
293.8568298816681
  9
$UNITMODE
 70
     0
  9
$VISRETAIN
 70
     0
  9
$PLINEGEN
 70
     0
  9
$PSLTSCALE
 70
     1
  9
$TREEDEPTH
 70
  3020
  9
$CMLSTYLE
  2
STANDARD
  9
$CMLJUST
 70
     0
  9
$CMLSCALE
 40
1.0
  9
$PROXYGRAPHICS
 70
     1
  9
$MEASUREMENT
 70
     0
  9
$CELWEIGHT
370
    -1
  9
$ENDCAPS
280
     0
  9
$JOINSTYLE
280
     0
  9
$LWDISPLAY
290
     0
  9
$INSUNITS
 70
     0
  9
$HYPERLINKBASE
  1

  9
$STYLESHEET
  1

  9
$XEDIT
290
     1
  9
$CEPSNTYPE
380
     0
  9
$PSTYLEMODE
290
     1
  9
$FINGERPRINTGUID
  2
{391B4240-3D9E-47A6-847F-F98822103D1A}
  9
$VERSIONGUID
  2
{242175CA-97AC-4EFA-8D56-8745102FCB1E}
  9
$EXTNAMES
290
     1
  9
$PSVPSCALE
 40
0.0
  9
$OLESTARTUP
290
     0
  0
ENDSEC
  0
SECTION
  2
CLASSES
  0
CLASS
  1
ACDBDICTIONARYWDFLT
  2
AcDbDictionaryWithDefault
  3
ObjectDBX Classes
 90
        0
280
     0
281
     0
  0
CLASS
  1
TABLESTYLE
  2
AcDbTableStyle
  3
ObjectDBX Classes
 90
     2047
280
     0
281
     0
  0
CLASS
  1
DICTIONARYVAR
  2
AcDbDictionaryVar
  3
ObjectDBX Classes
 90
        0
280
     0
281
     0
  0
CLASS
  1
SORTENTSTABLE
  2
AcDbSortentsTable
  3
ObjectDBX Classes
 90
        0
280
     0
281
     0
  0
CLASS
  1
PLOTSETTINGS
  2
AcDbPlotSettings
  3
ObjectDBX Classes
 90
        0
280
     0
281
     0
  0
CLASS
  1
ACDBPLACEHOLDER
  2
AcDbPlaceHolder
  3
ObjectDBX Classes
 90
        0
280
     0
281
     0
  0
CLASS
  1
LAYOUT
  2
AcDbLayout
  3
ObjectDBX Classes
 90
        0
280
     0
281
     0
  0
ENDSEC
  0
SECTION
  2
TABLES
  0
TABLE
  2
VPORT
  5
12
330
0
100
AcDbSymbolTable
 70
     9
  0
VPORT
  5
49EB
330
12
100
AcDbSymbolTableRecord
100
AcDbViewportTableRecord
  2
*Active
 70
     0
 10
0.0
 20
0.0
 11
1.0
 21
1.0
 12
831.7726377682131
 22
588.8931853061103
 13
0.0
 23
0.0
 14
168.0
 24
168.0
 15
0.0
 25
0.0
 16
0.0
 26
0.0
 36
1.0
 17
0.0
 27
0.0
 37
0.0
 40
1351.592886562607
 41
1.304177545691906
 42
50.0
 43
0.0
 44
0.0
 50
0.0
 51
0.0
 71
     0
 72
   100
 73
     1
 74
     0
 75
     0
 76
     0
 77
     0
 78
     1
281
     0
 65
     1
110
0.0
120
0.0
130
0.0
111
1.0
121
0.0
131
0.0
112
0.0
122
1.0
132
0.0
 79
     0
146
0.0
  0
ENDTAB
  0
TABLE
  2
LTYPE
  5
E
330
0
100
AcDbSymbolTable
 70
     3
  0
LTYPE
  5
F
330
E
100
AcDbSymbolTableRecord
100
AcDbLinetypeTableRecord
  2
BYBLOCK
 70
     0
  3

 72
    65
 73
     0
 40
0.0
  0
LTYPE
  5
6
330
E
100
AcDbSymbolTableRecord
100
AcDbLinetypeTableRecord
  2
BYLAYER
 70
     0
  3

 72
    65
 73
     0
 40
0.0
  0
LTYPE
  5
5
330
E
100
AcDbSymbolTableRecord
100
AcDbLinetypeTableRecord
  2
CONTINUOUS
 70
     0
  3
Solid line
 72
    65
 73
     0
 40
0.0
  0
LTYPE
  5
22
330
E
100
AcDbSymbolTableRecord
100
AcDbLinetypeTableRecord
  2
CENTER
 70
     0
  3
____ _ ____ _ ____ _ ____ _ ____ _ ____ _ ____ 
 72
    65
 73
     4
 40
2.0
 49
1.25
 74
     0
 49
-0.25
 74
     0
 49
0.25
 74
     0
 49
-0.25
 74
     0
  0
ENDTAB
  0
TABLE
  2
LAYER
  5
B
102
{ACAD_XDICTIONARY
360
4682
102
}
330
0
100
AcDbSymbolTable
 70
    14
  0
LAYER
  5
4
330
B
100
AcDbSymbolTableRecord
100
AcDbLayerTableRecord
  2
0
 70
     0
 62
     7
  6
CONTINUOUS
370
    -3
390
4658
  0
LAYER
  5
2F9A
330
B
100
AcDbSymbolTableRecord
100
AcDbLayerTableRecord
  2
DEFPOINTS
 70
     0
 62
     7
  6
CONTINUOUS
290
     0
370
    -3
390
4658
  0
LAYER
  5
413F
330
B
100
AcDbSymbolTableRecord
100
AcDbLayerTableRecord
  2
CENTER
 70
     0
 62
     8
  6
CENTER
370
    -3
390
4658
  0
LAYER
  5
467E
330
B
100
AcDbSymbolTableRecord
100
AcDbLayerTableRecord
  2
NOTE
 70
     0
 62
     2
  6
CONTINUOUS
370
    -3
390
4658
  0
LAYER
  5
48AA
330
B
100
AcDbSymbolTableRecord
100
AcDbLayerTableRecord
  2
SB150K-FP
 70
     0
 62
     7
  6
CONTINUOUS
370
    -3
390
4658
1001
AcAecLayerStandard
1000

1000

  0
LAYER
  5
48D3
330
B
100
AcDbSymbolTableRecord
100
AcDbLayerTableRecord
  2
MEASURE
 70
     0
 62
     9
  6
CONTINUOUS
370
    -3
390
4658
  0
ENDTAB
  0
TABLE
  2
STYLE
  5
C
330
0
100
AcDbSymbolTable
 70
     7
  0
STYLE
  5
D
330
C
100
AcDbSymbolTableRecord
100
AcDbTextStyleTableRecord
  2
STANDARD
 70
     0
 40
0.0
 41
0.8
 50
0.0
 71
     0
 42
84.17508417508416
  3
TXT
  4
bigfont.shx
  0
STYLE
  5
1C
330
C
100
AcDbSymbolTableRecord
100
AcDbTextStyleTableRecord
  2
AD-STANDARD
 70
     0
 40
0.0
 41
0.8
 50
0.0
 71
     0
 42
84.17508417508416
  3
C:\Program Files\AutoCAD LT\romans.shx
  4
bigfont.shx
  0
STYLE
  5
31BE
330
C
100
AcDbSymbolTableRecord
100
AcDbTextStyleTableRecord
  2
BIGFONT
 70
     0
 40
3.5
 41
0.8
 50
0.0
 71
     0
 42
3.5
  3
ROMANS.SHX
  4
BIGFONT.SHX
  0
STYLE
  5
31BF
330
C
100
AcDbSymbolTableRecord
100
AcDbTextStyleTableRecord
  2
ROMAND
 70
     0
 40
5.0
 41
1.0
 50
0.0
 71
     0
 42
4.5
  3
romand
  4

  0
STYLE
  5
31C0
330
C
100
AcDbSymbolTableRecord
100
AcDbTextStyleTableRecord
  2
FORM
 70
     0
 40
3.5
 41
0.8
 50
0.0
 71
     0
 42
3.5
  3
ROMANS.SHX
  4
BIGFONT.SHX
  0
ENDTAB
  0
TABLE
  2
VIEW
  5
10
330
0
100
AcDbSymbolTable
 70
    10
  0
ENDTAB
  0
TABLE
  2
UCS
  5
11
330
0
100
AcDbSymbolTable
 70
     0
  0
ENDTAB
  0
TABLE
  2
APPID
  5
14
330
0
100
AcDbSymbolTable
 70
     6
  0
APPID
  5
15
330
14
100
AcDbSymbolTableRecord
100
AcDbRegAppTableRecord
  2
ACAD
 70
     0
  0
APPID
  5
4413
330
14
100
AcDbSymbolTableRecord
100
AcDbRegAppTableRecord
  2
CONTENTTABDATA
 70
     0
  0
APPID
  5
4414
330
14
100
AcDbSymbolTableRecord
100
AcDbRegAppTableRecord
  2
CONTENTCURRENTTAB
 70
     0
  0
APPID
  5
4667
330
14
100
AcDbSymbolTableRecord
100
AcDbRegAppTableRecord
  2
ACAD_PSEXT
 70
     0
  0
APPID
  5
48AB
330
14
100
AcDbSymbolTableRecord
100
AcDbRegAppTableRecord
  2
AcAecLayerStandard
 70
     0
  0
APPID
  5
4968
330
14
100
AcDbSymbolTableRecord
100
AcDbRegAppTableRecord
  2
ACAD_EXEMPT_FROM_CAD_STANDARDS
 70
     0
  0
ENDTAB
  0
TABLE
  2
DIMSTYLE
  5
16
330
0
100
AcDbSymbolTable
 70
     5
100
AcDbDimStyleTable
 71
     1
340
1E
  0
DIMSTYLE
105
1E
102
{ACAD_REACTORS
330
443F
330
456B
330
45D9
330
4494
330
4487
330
4625
330
45B5
330
459D
330
44A3
102
}
330
16
100
AcDbSymbolTableRecord
100
AcDbDimStyleTableRecord
  2
AD-STANDARD
 70
     0
 41
2.5
 42
1.0
 44
2.0
 73
     0
 74
     0
 77
     1
 78
     8
140
3.5
141
-2.0
147
0.5
172
     1
176
     8
177
     8
178
     2
284
     8
340
1C
  0
DIMSTYLE
105
4681
330
16
100
AcDbSymbolTableRecord
100
AcDbDimStyleTableRecord
  2
Standard
 70
     0
340
D
  0
ENDTAB
  0
TABLE
  2
BLOCK_RECORD
  5
1
330
0
100
AcDbSymbolTable
 70
    20
  0
BLOCK_RECORD
  5
2
330
1
100
AcDbSymbolTableRecord
100
AcDbBlockTableRecord
  2
*MODEL_SPACE
340
465F
  0
BLOCK_RECORD
  5
47FF
330
1
100
AcDbSymbolTableRecord
100
AcDbBlockTableRecord
  2
*Paper_Space
340
4800
  0
BLOCK_RECORD
  5
4433
330
1
100
AcDbSymbolTableRecord
100
AcDbBlockTableRecord
  2
*D1
340
0
  0
BLOCK_RECORD
  5
447B
330
1
100
AcDbSymbolTableRecord
100
AcDbBlockTableRecord
  2
*D2
340
0
  0
BLOCK_RECORD
  5
4488
330
1
100
AcDbSymbolTableRecord
100
AcDbBlockTableRecord
  2
*D3
340
0
  0
BLOCK_RECORD
  5
4495
330
1
100
AcDbSymbolTableRecord
100
AcDbBlockTableRecord
  2
*D4
340
0
  0
BLOCK_RECORD
  5
455F
330
1
100
AcDbSymbolTableRecord
100
AcDbBlockTableRecord
  2
*D5
340
0
  0
BLOCK_RECORD
  5
4591
330
1
100
AcDbSymbolTableRecord
100
AcDbBlockTableRecord
  2
*D6
340
0
  0
BLOCK_RECORD
  5
45A9
330
1
100
AcDbSymbolTableRecord
100
AcDbBlockTableRecord
  2
*D7
340
0
  0
BLOCK_RECORD
  5
45CD
330
1
100
AcDbSymbolTableRecord
100
AcDbBlockTableRecord
  2
*D8
340
0
  0
BLOCK_RECORD
  5
4619
330
1
100
AcDbSymbolTableRecord
100
AcDbBlockTableRecord
  2
*D10
340
0
  0
ENDTAB
  0
ENDSEC
  0
SECTION
  2
BLOCKS
  0
BLOCK
  5
3
330
2
100
AcDbEntity
  8
0
100
AcDbBlockBegin
  2
*MODEL_SPACE
 70
     0
 10
0.0
 20
0.0
 30
0.0
  3
*MODEL_SPACE
  1

  0
ENDBLK
  5
7
330
2
100
AcDbEntity
  8
0
100
AcDbBlockEnd
  0
BLOCK
  5
4801
330
47FF
100
AcDbEntity
 67
     1
  8
0
 48
0.1
100
AcDbBlockBegin
  2
*Paper_Space
 70
     0
 10
0.0
 20
0.0
 30
0.0
  3
*Paper_Space
  1

  0
ENDBLK
  5
4802
330
47FF
100
AcDbEntity
 67
     1
  8
0
 48
0.1
100
AcDbBlockEnd
  0
BLOCK
  5
4631
330
4433
100
AcDbEntity
  8
0
 48
0.1
100
AcDbBlockBegin
  2
*D1
 70
     1
 10
0.0
 20
0.0
 30
0.0
  3
*D1
  1

  0
LINE
  5
49B7
330
4433
100
AcDbEntity
  8
MEASURE
 62
     8
370
    -2
100
AcDbLine
 10
652.7650973833265
 20
206.8604414517797
 30
0.0
 11
523.2175749330679
 21
206.8604414517797
 31
0.0
  0
LINE
  5
49B8
330
4433
100
AcDbEntity
  8
MEASURE
 62
     8
370
    -2
100
AcDbLine
 10
631.7650959740854
 20
369.3604414517797
 30
0.0
 11
523.2175749330681
 21
369.3604414517797
 31
0.0
  0
LINE
  5
49B9
330
4433
100
AcDbEntity
  8
MEASURE
 62
     8
370
    -2
100
AcDbLine
 10
531.217574933068
 20
216.8604414517798
 30
0.0
 11
531.2175749330681
 21
359.3604414517797
 31
0.0
  0
SOLID
  5
49BA
330
4433
100
AcDbEntity
  8
MEASURE
 62
     8
100
AcDbTrace
 10
529.5509082664014
 20
216.8604414517798
 30
0.0
 11
532.8842415997346
 21
216.8604414517798
 31
0.0
 12
531.217574933068
 22
206.8604414517797
 32
0.0
 13
531.217574933068
 23
206.8604414517797
 33
0.0
  0
SOLID
  5
49BB
330
4433
100
AcDbEntity
  8
MEASURE
 62
     8
100
AcDbTrace
 10
529.5509082664015
 20
359.3604414517797
 30
0.0
 11
532.8842415997347
 21
359.3604414517797
 31
0.0
 12
531.2175749330681
 22
369.3604414517797
 32
0.0
 13
531.2175749330681
 23
369.3604414517797
 33
0.0
  0
MTEXT
  5
49BC
330
4433
100
AcDbEntity
  8
MEASURE
 62
     2
100
AcDbMText
 10
524.217574933068
 20
288.1104414517798
 30
0.0
 40
10.0
 41
0.0
 71
     5
 72
     1
  1
\A1;182.5（最大）
  7
AD-STANDARD
 11
0.0000000000000001
 21
1.0
 31
0.0
 73
     1
 44
1.0
1001
ACAD
1000
MTEXTBEGIN
1070
    73
1070
     1
1070
    44
1040
1.0
1070
    74
1070
     0
1000
MTEXTEND
  0
POINT
  5
49BD
330
4433
100
AcDbEntity
  8
DEFPOINTS
 62
     0
100
AcDbPoint
 10
656.7650973833265
 20
206.8604414517797
 30
0.0
  0
POINT
  5
49BE
330
4433
100
AcDbEntity
  8
DEFPOINTS
 62
     0
100
AcDbPoint
 10
635.7650959740854
 20
369.3604414517797
 30
0.0
  0
POINT
  5
49BF
330
4433
100
AcDbEntity
  8
DEFPOINTS
 62
     0
100
AcDbPoint
 10
531.2175749330681
 20
369.3604414517797
 30
0.0
  0
ENDBLK
  5
463B
330
4433
100
AcDbEntity
  8
0
 48
0.1
100
AcDbBlockEnd
  0
BLOCK
  5
447C
330
447B
100
AcDbEntity
  8
0
 48
0.1
100
AcDbBlockBegin
  2
*D2
 70
     1
 10
0.0
 20
0.0
 30
0.0
  3
*D2
  1

  0
LINE
  5
490E
330
447B
100
AcDbEntity
  8
MEASURE
 62
     8
370
    -2
100
AcDbLine
 10
1164.265095974086
 20
595.2632432895827
 30
0.0
 11
1164.265095974086
 21
491.2632432895827
 31
0.0
  0
LINE
  5
490F
330
447B
100
AcDbEntity
  8
MEASURE
 62
     8
370
    -2
100
AcDbLine
 10
634.2650959740853
 20
595.2632432895827
 30
0.0
 11
634.2650959740853
 21
491.2632432895827
 31
0.0
  0
LINE
  5
4910
330
447B
100
AcDbEntity
  8
MEASURE
 62
     8
370
    -2
100
AcDbLine
 10
1154.265095974086
 20
499.2632432895828
 30
0.0
 11
644.2650959740854
 21
499.2632432895828
 31
0.0
  0
SOLID
  5
4911
330
447B
100
AcDbEntity
  8
MEASURE
 62
     8
100
AcDbTrace
 10
1154.265095974086
 20
500.9299099562494
 30
0.0
 11
1154.265095974086
 21
497.596576622916
 31
0.0
 12
1164.265095974086
 22
499.2632432895828
 32
0.0
 13
1164.265095974086
 23
499.2632432895828
 33
0.0
  0
SOLID
  5
4912
330
447B
100
AcDbEntity
  8
MEASURE
 62
     8
100
AcDbTrace
 10
644.2650959740854
 20
500.9299099562494
 30
0.0
 11
644.2650959740854
 21
497.596576622916
 31
0.0
 12
634.2650959740853
 22
499.2632432895828
 32
0.0
 13
634.2650959740853
 23
499.2632432895828
 33
0.0
  0
MTEXT
  5
4913
330
447B
100
AcDbEntity
  8
MEASURE
 62
     2
100
AcDbMText
 10
899.2650959740856
 20
506.2632432895827
 30
0.0
 40
10.0
 41
0.0
 71
     5
 72
     1
  1
\A1;530
  7
AD-STANDARD
 73
     1
 44
1.0
1001
ACAD
1000
MTEXTBEGIN
1070
    73
1070
     1
1070
    44
1040
1.0
1070
    74
1070
     0
1000
MTEXTEND
  0
POINT
  5
4914
330
447B
100
AcDbEntity
  8
DEFPOINTS
 62
     0
100
AcDbPoint
 10
1164.265095974086
 20
599.2632432895828
 30
0.0
  0
POINT
  5
4915
330
447B
100
AcDbEntity
  8
DEFPOINTS
 62
     0
100
AcDbPoint
 10
634.2650959740853
 20
599.2632432895828
 30
0.0
  0
POINT
  5
4916
330
447B
100
AcDbEntity
  8
DEFPOINTS
 62
     0
100
AcDbPoint
 10
634.2650959740853
 20
499.2632432895828
 30
0.0
  0
ENDBLK
  5
4486
330
447B
100
AcDbEntity
  8
0
 48
0.1
100
AcDbBlockEnd
  0
BLOCK
  5
4508
330
4488
100
AcDbEntity
  8
0
 48
0.1
100
AcDbBlockBegin
  2
*D3
 70
     1
 10
0.0
 20
0.0
 30
0.0
  3
*D3
  1

  0
LINE
  5
4989
330
4488
100
AcDbEntity
  8
MEASURE
 62
     8
370
    -2
100
AcDbLine
 10
630.2650959740853
 20
599.2632432895828
 30
0.0
 11
561.101652240717
 21
599.2632432895828
 31
0.0
  0
LINE
  5
498A
330
4488
100
AcDbEntity
  8
MEASURE
 62
     8
370
    -2
100
AcDbLine
 10
630.2650959740853
 20
989.2632432895828
 30
0.0
 11
561.1016522407171
 21
989.2632432895828
 31
0.0
  0
LINE
  5
498B
330
4488
100
AcDbEntity
  8
MEASURE
 62
     8
370
    -2
100
AcDbLine
 10
569.101652240717
 20
609.2632432895827
 30
0.0
 11
569.1016522407172
 21
979.2632432895826
 31
0.0
  0
SOLID
  5
498C
330
4488
100
AcDbEntity
  8
MEASURE
 62
     8
100
AcDbTrace
 10
567.4349855740504
 20
609.2632432895827
 30
0.0
 11
570.7683189073836
 21
609.2632432895827
 31
0.0
 12
569.101652240717
 22
599.2632432895828
 32
0.0
 13
569.101652240717
 23
599.2632432895828
 33
0.0
  0
SOLID
  5
498D
330
4488
100
AcDbEntity
  8
MEASURE
 62
     8
100
AcDbTrace
 10
567.4349855740505
 20
979.2632432895826
 30
0.0
 11
570.7683189073837
 21
979.2632432895826
 31
0.0
 12
569.1016522407172
 22
989.2632432895828
 32
0.0
 13
569.1016522407172
 23
989.2632432895828
 33
0.0
  0
MTEXT
  5
498E
330
4488
100
AcDbEntity
  8
MEASURE
 62
     2
100
AcDbMText
 10
562.1016522407169
 20
794.2632432895829
 30
0.0
 40
10.0
 41
0.0
 71
     5
 72
     1
  1
\A1;390
  7
AD-STANDARD
 11
0.0000000000000001
 21
1.0
 31
0.0
 73
     1
 44
1.0
1001
ACAD
1000
MTEXTBEGIN
1070
    73
1070
     1
1070
    44
1040
1.0
1070
    74
1070
     0
1000
MTEXTEND
  0
POINT
  5
498F
330
4488
100
AcDbEntity
  8
DEFPOINTS
 62
     0
100
AcDbPoint
 10
634.2650959740853
 20
599.2632432895828
 30
0.0
  0
POINT
  5
4990
330
4488
100
AcDbEntity
  8
DEFPOINTS
 62
     0
100
AcDbPoint
 10
634.2650959740853
 20
989.2632432895828
 30
0.0
  0
POINT
  5
4991
330
4488
100
AcDbEntity
  8
DEFPOINTS
 62
     0
100
AcDbPoint
 10
569.1016522407172
 20
989.2632432895828
 30
0.0
  0
ENDBLK
  5
4512
330
4488
100
AcDbEntity
  8
0
 48
0.1
100
AcDbBlockEnd
  0
BLOCK
  5
4496
330
4495
100
AcDbEntity
  8
0
 48
0.1
100
AcDbBlockBegin
  2
*D4
 70
     1
 10
0.0
 20
0.0
 30
0.0
  3
*D4
  1

  0
LINE
  5
4932
330
4495
100
AcDbEntity
  8
MEASURE
 62
     8
370
    -2
100
AcDbLine
 10
1164.265095974086
 20
595.2632432895827
 30
0.0
 11
1164.265095974086
 21
491.2632432895827
 31
0.0
  0
LINE
  5
4933
330
4495
100
AcDbEntity
  8
MEASURE
 62
     8
370
    -2
100
AcDbLine
 10
1187.265097383326
 20
827.7632356175599
 30
0.0
 11
1187.265097383326
 21
491.2632432895827
 31
0.0
  0
LINE
  5
4934
330
4495
100
AcDbEntity
  8
MEASURE
 62
     8
370
    -2
100
AcDbLine
 10
1154.265095974086
 20
499.2632432895828
 30
0.0
 11
1144.265095974086
 21
499.2632432895828
 31
0.0
  0
LINE
  5
4935
330
4495
100
AcDbEntity
  8
MEASURE
 62
     8
370
    -2
100
AcDbLine
 10
1197.265097383326
 20
499.2632432895828
 30
0.0
 11
1207.265097383326
 21
499.2632432895828
 31
0.0
  0
LINE
  5
4936
330
4495
100
AcDbEntity
  8
MEASURE
 62
     8
370
    -2
100
AcDbLine
 10
1164.265095974086
 20
499.2632432895828
 30
0.0
 11
1187.265097383326
 21
499.2632432895828
 31
0.0
  0
SOLID
  5
4937
330
4495
100
AcDbEntity
  8
MEASURE
 62
     8
100
AcDbTrace
 10
1154.265095974086
 20
500.9299099562494
 30
0.0
 11
1154.265095974086
 21
497.596576622916
 31
0.0
 12
1164.265095974086
 22
499.2632432895828
 32
0.0
 13
1164.265095974086
 23
499.2632432895828
 33
0.0
  0
SOLID
  5
4938
330
4495
100
AcDbEntity
  8
MEASURE
 62
     8
100
AcDbTrace
 10
1197.265097383326
 20
500.9299099562494
 30
0.0
 11
1197.265097383326
 21
497.596576622916
 31
0.0
 12
1187.265097383326
 22
499.2632432895828
 32
0.0
 13
1187.265097383326
 23
499.2632432895828
 33
0.0
  0
MTEXT
  5
4939
330
4495
100
AcDbEntity
  8
MEASURE
 62
     2
100
AcDbMText
 10
1175.765096678706
 20
506.2632432895827
 30
0.0
 40
10.0
 41
0.0
 71
     5
 72
     1
  1
\A1;23
  7
AD-STANDARD
 73
     1
 44
1.0
1001
ACAD
1000
MTEXTBEGIN
1070
    73
1070
     1
1070
    44
1040
1.0
1070
    74
1070
     0
1000
MTEXTEND
  0
POINT
  5
493A
330
4495
100
AcDbEntity
  8
DEFPOINTS
 62
     0
100
AcDbPoint
 10
1164.265095974086
 20
599.2632432895828
 30
0.0
  0
POINT
  5
493B
330
4495
100
AcDbEntity
  8
DEFPOINTS
 62
     0
100
AcDbPoint
 10
1187.265097383326
 20
831.76323561756
 30
0.0
  0
POINT
  5
493C
330
4495
100
AcDbEntity
  8
DEFPOINTS
 62
     0
100
AcDbPoint
 10
1187.265097383326
 20
499.2632432895828
 30
0.0
  0
ENDBLK
  5
44A2
330
4495
100
AcDbEntity
  8
0
 48
0.1
100
AcDbBlockEnd
  0
BLOCK
  5
456C
330
455F
100
AcDbEntity
  8
0
 48
0.1
100
AcDbBlockBegin
  2
*D5
 70
     1
 10
0.0
 20
0.0
 30
0.0
  3
*D5
  1

  0
LINE
  5
49A4
330
455F
100
AcDbEntity
  8
MEASURE
 62
     8
370
    -2
100
AcDbLine
 10
344.5998758170297
 20
750.2632509987535
 30
0.0
 11
344.5998758170297
 21
491.2632432895827
 31
0.0
  0
LINE
  5
49A5
330
455F
100
AcDbEntity
  8
MEASURE
 62
     8
370
    -2
100
AcDbLine
 10
411.0998758171461
 20
595.2632432895825
 30
0.0
 11
411.0998758171461
 21
491.2632432895827
 31
0.0
  0
LINE
  5
49A6
330
455F
100
AcDbEntity
  8
MEASURE
 62
     8
370
    -2
100
AcDbLine
 10
354.5998758170297
 20
499.2632432895828
 30
0.0
 11
401.099875817146
 21
499.2632432895828
 31
0.0
  0
LINE
  5
49A7
330
455F
100
AcDbEntity
  8
MEASURE
 62
     8
370
    -2
100
AcDbLine
 10
411.0998758171461
 20
499.2632432895828
 30
0.0
 11
525.8998758171461
 21
499.2632432895828
 31
0.0
  0
SOLID
  5
49A8
330
455F
100
AcDbEntity
  8
MEASURE
 62
     8
100
AcDbTrace
 10
354.5998758170297
 20
500.9299099562494
 30
0.0
 11
354.5998758170297
 21
497.596576622916
 31
0.0
 12
344.5998758170297
 22
499.2632432895828
 32
0.0
 13
344.5998758170297
 23
499.2632432895828
 33
0.0
  0
SOLID
  5
49A9
330
455F
100
AcDbEntity
  8
MEASURE
 62
     8
100
AcDbTrace
 10
401.099875817146
 20
500.9299099562494
 30
0.0
 11
401.099875817146
 21
497.596576622916
 31
0.0
 12
411.0998758171461
 22
499.2632432895828
 32
0.0
 13
411.0998758171461
 23
499.2632432895828
 33
0.0
  0
MTEXT
  5
49AA
330
455F
100
AcDbEntity
  8
MEASURE
 62
     2
100
AcDbMText
 10
473.4998758171461
 20
506.2632432895827
 30
0.0
 40
10.0
 41
0.0
 71
     5
 72
     1
  1
\A1;66.5（ケーブル出口）
  7
AD-STANDARD
 73
     1
 44
1.0
1001
ACAD
1000
MTEXTBEGIN
1070
    73
1070
     1
1070
    44
1040
1.0
1070
    74
1070
     0
1000
MTEXTEND
  0
POINT
  5
49AB
330
455F
100
AcDbEntity
  8
DEFPOINTS
 62
     0
100
AcDbPoint
 10
344.5998758170297
 20
754.2632509987535
 30
0.0
  0
POINT
  5
49AC
330
455F
100
AcDbEntity
  8
DEFPOINTS
 62
     0
100
AcDbPoint
 10
411.0998758171461
 20
599.2632432895825
 30
0.0
  0
POINT
  5
49AD
330
455F
100
AcDbEntity
  8
DEFPOINTS
 62
     0
100
AcDbPoint
 10
411.0998758171461
 20
499.2632432895828
 30
0.0
  0
ENDBLK
  5
4577
330
455F
100
AcDbEntity
  8
0
 48
0.1
100
AcDbBlockEnd
  0
BLOCK
  5
459E
330
4591
100
AcDbEntity
  8
0
 48
0.1
100
AcDbBlockBegin
  2
*D6
 70
     1
 10
0.0
 20
0.0
 30
0.0
  3
*D6
  1

  0
LINE
  5
49C0
330
4591
100
AcDbEntity
  8
MEASURE
 62
     8
370
    -2
100
AcDbLine
 10
1096.765097383326
 20
202.8604414517797
 30
0.0
 11
1096.765097383326
 21
142.8975978300109
 31
0.0
  0
LINE
  5
49C1
330
4591
100
AcDbEntity
  8
MEASURE
 62
     8
370
    -2
100
AcDbLine
 10
1141.765097383326
 20
202.8604414517797
 30
0.0
 11
1141.765097383326
 21
142.8975978300109
 31
0.0
  0
LINE
  5
49C2
330
4591
100
AcDbEntity
  8
MEASURE
 62
     8
370
    -2
100
AcDbLine
 10
1106.765097383326
 20
150.8975978300109
 30
0.0
 11
1131.765097383326
 21
150.8975978300109
 31
0.0
  0
SOLID
  5
49C3
330
4591
100
AcDbEntity
  8
MEASURE
 62
     8
100
AcDbTrace
 10
1106.765097383326
 20
152.5642644966775
 30
0.0
 11
1106.765097383326
 21
149.2309311633442
 31
0.0
 12
1096.765097383326
 22
150.8975978300109
 32
0.0
 13
1096.765097383326
 23
150.8975978300109
 33
0.0
  0
SOLID
  5
49C4
330
4591
100
AcDbEntity
  8
MEASURE
 62
     8
100
AcDbTrace
 10
1131.765097383326
 20
152.5642644966775
 30
0.0
 11
1131.765097383326
 21
149.2309311633442
 31
0.0
 12
1141.765097383326
 22
150.8975978300109
 32
0.0
 13
1141.765097383326
 23
150.8975978300109
 33
0.0
  0
MTEXT
  5
49C5
330
4591
100
AcDbEntity
  8
MEASURE
 62
     2
100
AcDbMText
 10
1119.265097383326
 20
157.8975978300109
 30
0.0
 40
10.0
 41
0.0
 71
     5
 72
     1
  1
\A1;φ45
  7
AD-STANDARD
 73
     1
 44
1.0
1001
ACAD
1000
MTEXTBEGIN
1070
    73
1070
     1
1070
    44
1040
1.0
1070
    74
1070
     0
1000
MTEXTEND
  0
POINT
  5
49C6
330
4591
100
AcDbEntity
  8
DEFPOINTS
 62
     0
100
AcDbPoint
 10
1096.765097383326
 20
206.8604414517797
 30
0.0
  0
POINT
  5
49C7
330
4591
100
AcDbEntity
  8
DEFPOINTS
 62
     0
100
AcDbPoint
 10
1141.765097383326
 20
206.8604414517797
 30
0.0
  0
POINT
  5
49C8
330
4591
100
AcDbEntity
  8
DEFPOINTS
 62
     0
100
AcDbPoint
 10
1141.765097383326
 20
150.8975978300109
 30
0.0
  0
ENDBLK
  5
45A8
330
4591
100
AcDbEntity
  8
0
 48
0.1
100
AcDbBlockEnd
  0
BLOCK
  5
45C1
330
45A9
100
AcDbEntity
  8
0
 48
0.1
100
AcDbBlockBegin
  2
*D7
 70
     1
 10
0.0
 20
0.0
 30
0.0
  3
*D7
  1

  0
LINE
  5
49C9
330
45A9
100
AcDbEntity
  8
MEASURE
 62
     8
370
    -2
100
AcDbLine
 10
1119.265097383326
 20
193.7820122937473
 30
0.0
 11
1119.265097383326
 21
120.6880429414254
 31
0.0
  0
LINE
  5
49CA
330
45A9
100
AcDbEntity
  8
MEASURE
 62
     8
370
    -2
100
AcDbLine
 10
679.2650973833265
 20
193.7820122937473
 30
0.0
 11
679.2650973833265
 21
120.6880429414254
 31
0.0
  0
LINE
  5
49CB
330
45A9
100
AcDbEntity
  8
MEASURE
 62
     8
370
    -2
100
AcDbLine
 10
1109.265097383326
 20
128.6880429414254
 30
0.0
 11
689.2650973833265
 21
128.6880429414254
 31
0.0
  0
SOLID
  5
49CC
330
45A9
100
AcDbEntity
  8
MEASURE
 62
     8
100
AcDbTrace
 10
1109.265097383326
 20
130.3547096080921
 30
0.0
 11
1109.265097383326
 21
127.0213762747588
 31
0.0
 12
1119.265097383326
 22
128.6880429414254
 32
0.0
 13
1119.265097383326
 23
128.6880429414254
 33
0.0
  0
SOLID
  5
49CD
330
45A9
100
AcDbEntity
  8
MEASURE
 62
     8
100
AcDbTrace
 10
689.2650973833265
 20
130.3547096080921
 30
0.0
 11
689.2650973833265
 21
127.0213762747588
 31
0.0
 12
679.2650973833265
 22
128.6880429414254
 32
0.0
 13
679.2650973833265
 23
128.6880429414254
 33
0.0
  0
MTEXT
  5
49CE
330
45A9
100
AcDbEntity
  8
MEASURE
 62
     2
100
AcDbMText
 10
899.2650973833265
 20
135.6880429414254
 30
0.0
 40
10.0
 41
0.0
 71
     5
 72
     1
  1
\A1;440
  7
AD-STANDARD
 73
     1
 44
1.0
1001
ACAD
1000
MTEXTBEGIN
1070
    73
1070
     1
1070
    44
1040
1.0
1070
    74
1070
     0
1000
MTEXTEND
  0
POINT
  5
49CF
330
45A9
100
AcDbEntity
  8
DEFPOINTS
 62
     0
100
AcDbPoint
 10
1119.265097383326
 20
197.7820122937473
 30
0.0
  0
POINT
  5
49D0
330
45A9
100
AcDbEntity
  8
DEFPOINTS
 62
     0
100
AcDbPoint
 10
679.2650973833265
 20
197.7820122937473
 30
0.0
  0
POINT
  5
49D1
330
45A9
100
AcDbEntity
  8
DEFPOINTS
 62
     0
100
AcDbPoint
 10
679.2650973833265
 20
128.6880429414254
 30
0.0
  0
ENDBLK
  5
45CB
330
45A9
100
AcDbEntity
  8
0
 48
0.1
100
AcDbBlockEnd
  0
BLOCK
  5
45CE
330
45CD
100
AcDbEntity
  8
0
 48
0.1
100
AcDbBlockBegin
  2
*D8
 70
     1
 10
0.0
 20
0.0
 30
0.0
  3
*D8
  1

  0
LINE
  5
49AE
330
45CD
100
AcDbEntity
  8
MEASURE
 62
     8
370
    -2
100
AcDbLine
 10
235.5214466589972
 20
944.26323561756
 30
0.0
 11
179.0424924373338
 21
944.26323561756
 31
0.0
  0
LINE
  5
49AF
330
45CD
100
AcDbEntity
  8
MEASURE
 62
     8
370
    -2
100
AcDbLine
 10
235.5214466589973
 20
644.2632356175599
 30
0.0
 11
179.0424924373337
 21
644.2632356175599
 31
0.0
  0
LINE
  5
49B0
330
45CD
100
AcDbEntity
  8
MEASURE
 62
     8
370
    -2
100
AcDbLine
 10
187.0424924373338
 20
934.2632356175599
 30
0.0
 11
187.0424924373337
 21
654.26323561756
 31
0.0
  0
SOLID
  5
49B1
330
45CD
100
AcDbEntity
  8
MEASURE
 62
     8
100
AcDbTrace
 10
185.3758257706671
 20
934.2632356175599
 30
0.0
 11
188.7091591040004
 21
934.2632356175599
 31
0.0
 12
187.0424924373338
 22
944.26323561756
 32
0.0
 13
187.0424924373338
 23
944.26323561756
 33
0.0
  0
SOLID
  5
49B2
330
45CD
100
AcDbEntity
  8
MEASURE
 62
     8
100
AcDbTrace
 10
185.3758257706671
 20
654.26323561756
 30
0.0
 11
188.7091591040004
 21
654.26323561756
 31
0.0
 12
187.0424924373337
 22
644.2632356175599
 32
0.0
 13
187.0424924373337
 23
644.2632356175599
 33
0.0
  0
MTEXT
  5
49B3
330
45CD
100
AcDbEntity
  8
MEASURE
 62
     2
100
AcDbMText
 10
180.0424924373336
 20
794.2632356175599
 30
0.0
 40
10.0
 41
0.0
 71
     5
 72
     1
  1
\A1;300
  7
AD-STANDARD
 11
0.0000000000000001
 21
1.0
 31
0.0
 73
     1
 44
1.0
1001
ACAD
1000
MTEXTBEGIN
1070
    73
1070
     1
1070
    44
1040
1.0
1070
    74
1070
     0
1000
MTEXTEND
  0
POINT
  5
49B4
330
45CD
100
AcDbEntity
  8
DEFPOINTS
 62
     0
100
AcDbPoint
 10
239.5214466589972
 20
944.26323561756
 30
0.0
  0
POINT
  5
49B5
330
45CD
100
AcDbEntity
  8
DEFPOINTS
 62
     0
100
AcDbPoint
 10
239.5214466589973
 20
644.2632356175599
 30
0.0
  0
POINT
  5
49B6
330
45CD
100
AcDbEntity
  8
DEFPOINTS
 62
     0
100
AcDbPoint
 10
187.0424924373337
 20
644.2632356175599
 30
0.0
  0
ENDBLK
  5
45D8
330
45CD
100
AcDbEntity
  8
0
 48
0.1
100
AcDbBlockEnd
  0
BLOCK
  5
461A
330
4619
100
AcDbEntity
  8
0
 48
0.1
100
AcDbBlockBegin
  2
*D10
 70
     1
 10
0.0
 20
0.0
 30
0.0
  3
*D10
  1

  0
LINE
  5
49D2
330
4619
100
AcDbEntity
  8
MEASURE
 62
     8
370
    -2
100
AcDbLine
 10
631.7650959740856
 20
237.3604414517797
 30
0.0
 11
561.101652240717
 21
237.3604414517797
 31
0.0
  0
LINE
  5
49D3
330
4619
100
AcDbEntity
  8
MEASURE
 62
     8
370
    -2
100
AcDbLine
 10
631.7650959740854
 20
369.3604414517797
 30
0.0
 11
561.1016522407171
 21
369.3604414517797
 31
0.0
  0
LINE
  5
49D4
330
4619
100
AcDbEntity
  8
MEASURE
 62
     8
370
    -2
100
AcDbLine
 10
569.101652240717
 20
247.3604414517797
 30
0.0
 11
569.1016522407172
 21
359.3604414517797
 31
0.0
  0
SOLID
  5
49D5
330
4619
100
AcDbEntity
  8
MEASURE
 62
     8
100
AcDbTrace
 10
567.4349855740504
 20
247.3604414517797
 30
0.0
 11
570.7683189073836
 21
247.3604414517797
 31
0.0
 12
569.101652240717
 22
237.3604414517797
 32
0.0
 13
569.101652240717
 23
237.3604414517797
 33
0.0
  0
SOLID
  5
49D6
330
4619
100
AcDbEntity
  8
MEASURE
 62
     8
100
AcDbTrace
 10
567.4349855740505
 20
359.3604414517797
 30
0.0
 11
570.7683189073837
 21
359.3604414517797
 31
0.0
 12
569.1016522407172
 22
369.3604414517797
 32
0.0
 13
569.1016522407172
 23
369.3604414517797
 33
0.0
  0
MTEXT
  5
49D7
330
4619
100
AcDbEntity
  8
MEASURE
 62
     2
100
AcDbMText
 10
562.101652240717
 20
303.3604414517798
 30
0.0
 40
10.0
 41
0.0
 71
     5
 72
     1
  1
\A1;132
  7
AD-STANDARD
 11
0.0000000000000001
 21
1.0
 31
0.0
 73
     1
 44
1.0
1001
ACAD
1000
MTEXTBEGIN
1070
    73
1070
     1
1070
    44
1040
1.0
1070
    74
1070
     0
1000
MTEXTEND
  0
POINT
  5
49D8
330
4619
100
AcDbEntity
  8
DEFPOINTS
 62
     0
100
AcDbPoint
 10
635.7650959740856
 20
237.3604414517797
 30
0.0
  0
POINT
  5
49D9
330
4619
100
AcDbEntity
  8
DEFPOINTS
 62
     0
100
AcDbPoint
 10
635.7650959740854
 20
369.3604414517797
 30
0.0
  0
POINT
  5
49DA
330
4619
100
AcDbEntity
  8
DEFPOINTS
 62
     0
100
AcDbPoint
 10
569.1016522407172
 20
369.3604414517797
 30
0.0
  0
ENDBLK
  5
4624
330
4619
100
AcDbEntity
  8
0
 48
0.1
100
AcDbBlockEnd
  0
ENDSEC
  0
SECTION
  2
ENTITIES
  0
LINE
  5
26
330
2
100
AcDbEntity
  8
SB150K-FP
100
AcDbLine
 10
279.0998758171461
 20
989.2632432895828
 30
0.0
 11
279.0998758171461
 21
819.2632509987534
 31
0.0
  0
LINE
  5
28
330
2
100
AcDbEntity
  8
SB150K-FP
100
AcDbLine
 10
411.0998758171461
 20
989.2632432895828
 30
0.0
 11
411.0998758171461
 21
599.2632432895825
 31
0.0
  0
LINE
  5
30
330
2
100
AcDbEntity
  8
SB150K-FP
100
AcDbLine
 10
277.5998758170297
 20
723.2632356175599
 30
0.0
 11
277.5998758170297
 21
679.2167560550296
 31
0.0
  0
LINE
  5
31
330
2
100
AcDbEntity
  8
SB150K-FP
100
AcDbLine
 10
274.5998758170297
 20
723.2632356175599
 30
0.0
 11
274.5998758170297
 21
676.2167560550296
 31
0.0
  0
LINE
  5
32
330
2
100
AcDbEntity
  8
SB150K-FP
100
AcDbLine
 10
1164.265095974085
 20
989.2632432895828
 30
0.0
 11
1164.265095974085
 21
599.2632432895828
 31
0.0
  0
LINE
  5
34
330
2
100
AcDbEntity
  8
SB150K-FP
100
AcDbLine
 10
634.2650959740853
 20
989.2632432895828
 30
0.0
 11
634.2650959740853
 21
599.2632432895828
 31
0.0
  0
LINE
  5
6A8
330
2
100
AcDbEntity
  8
SB150K-FP
100
AcDbLine
 10
277.5998758170297
 20
865.2632356175599
 30
0.0
 11
277.5998758170297
 21
909.3097151800902
 31
0.0
  0
LINE
  5
6A9
330
2
100
AcDbEntity
  8
SB150K-FP
100
AcDbLine
 10
274.5998758170297
 20
865.2632356175599
 30
0.0
 11
274.5998758170297
 21
912.3097151800903
 31
0.0
  0
LINE
  5
73F
330
2
100
AcDbEntity
  8
SB150K-FP
100
AcDbLine
 10
411.0998758171461
 20
989.263243289583
 30
0.0
 11
279.0998758171461
 21
989.2632432895828
 31
0.0
  0
ARC
  5
757
330
2
100
AcDbEntity
  8
SB150K-FP
100
AcDbCircle
 10
278.5998758170297
 20
909.3097151800902
 30
0.0
 40
1.0
100
AcDbArc
 50
90.0
 51
180.0
  0
LINE
  5
75A
330
2
100
AcDbEntity
  8
SB150K-FP
100
AcDbLine
 10
279.0998758171461
 20
910.3097151800904
 30
0.0
 11
278.5998758170297
 21
910.3097151800902
 31
0.0
  0
LINE
  5
75D
330
2
100
AcDbEntity
  8
SB150K-FP
100
AcDbLine
 10
279.0998758171461
 20
913.3097151800903
 30
0.0
 11
275.5998758170297
 21
913.3097151800903
 31
0.0
  0
ARC
  5
75E
330
2
100
AcDbEntity
  8
SB150K-FP
100
AcDbCircle
 10
275.5998758170297
 20
912.3097151800903
 30
0.0
 40
1.0
100
AcDbArc
 50
90.0
 51
180.0
  0
LINE
  5
769
330
2
100
AcDbEntity
  8
SB150K-FP
100
AcDbLine
 10
634.2650959740853
 20
989.2632432895828
 30
0.0
 11
1164.265095974085
 21
989.2632432895828
 31
0.0
  0
LINE
  5
81F
330
2
100
AcDbEntity
  8
SB150K-FP
100
AcDbLine
 10
360.5998758170297
 20
806.2632509987535
 30
0.0
 11
360.5998758170297
 21
782.2632509987536
 31
0.0
  0
LINE
  5
826
330
2
100
AcDbEntity
  8
SB150K-FP
100
AcDbLine
 10
292.5998758167968
 20
814.2632509987535
 30
0.0
 11
292.5998758167968
 21
774.2632509987536
 31
0.0
  0
LINE
  5
827
330
2
100
AcDbEntity
  8
SB150K-FP
100
AcDbLine
 10
304.5998758170297
 20
814.2632509987535
 30
0.0
 11
304.5998758170297
 21
774.2632509987536
 31
0.0
  0
LINE
  5
828
330
2
100
AcDbEntity
  8
SB150K-FP
100
AcDbLine
 10
298.0998758170297
 20
774.2632509987536
 30
0.0
 11
298.0998758170297
 21
814.2632509987535
 31
0.0
  0
LINE
  5
82B
330
2
100
AcDbEntity
  8
SB150K-FP
100
AcDbLine
 10
304.5998758170297
 20
814.2632509987535
 30
0.0
 11
304.5998758170297
 21
774.2632509987536
 31
0.0
  0
LINE
  5
82C
330
2
100
AcDbEntity
  8
SB150K-FP
100
AcDbLine
 10
360.5998758170297
 20
806.2632509987535
 30
0.0
 11
360.5998758170297
 21
782.2632509987536
 31
0.0
  0
LINE
  5
82D
330
2
100
AcDbEntity
  8
SB150K-FP
100
AcDbLine
 10
292.5998758170297
 20
814.2632509987535
 30
0.0
 11
292.5998758170297
 21
774.2632509987536
 31
0.0
  0
LINE
  5
82E
330
2
100
AcDbEntity
  8
SB150K-FP
100
AcDbLine
 10
284.5998758170297
 20
813.26323561756
 30
0.0
 11
284.5998758170297
 21
775.26323561756
 31
0.0
  0
ARC
  5
875
330
2
100
AcDbEntity
  8
SB150K-FP
100
AcDbCircle
 10
278.5998758170297
 20
860.26323561756
 30
0.0
 40
1.0
100
AcDbArc
 50
59.99999999229805
 51
90.0
  0
ARC
  5
877
330
2
100
AcDbEntity
  8
SB150K-FP
100
AcDbCircle
 10
273.5998758170297
 20
863.26323561756
 30
0.0
 40
1.0
100
AcDbArc
 50
90.0
 51
180.0
  0
LINE
  5
878
330
2
100
AcDbEntity
  8
SB150K-FP
100
AcDbLine
 10
272.5998758170297
 20
862.26323561756
 30
0.0
 11
272.5998758170297
 21
863.26323561756
 31
0.0
  0
LINE
  5
879
330
2
100
AcDbEntity
  8
SB150K-FP
100
AcDbLine
 10
273.5998758170297
 20
861.26323561756
 30
0.0
 11
278.5998758170297
 21
861.26323561756
 31
0.0
  0
ARC
  5
87A
330
2
100
AcDbEntity
  8
SB150K-FP
100
AcDbCircle
 10
273.5998758170297
 20
862.26323561756
 30
0.0
 40
1.0
100
AcDbArc
 50
180.0
 51
270.0
  0
LINE
  5
87B
330
2
100
AcDbEntity
  8
SB150K-FP
100
AcDbLine
 10
273.5998758170297
 20
864.2632356175599
 30
0.0
 11
273.5998758170297
 21
864.2632356175599
 31
0.0
  0
ARC
  5
87C
330
2
100
AcDbEntity
  8
SB150K-FP
100
AcDbCircle
 10
273.5998758170297
 20
865.2632356175599
 30
0.0
 40
1.0
100
AcDbArc
 50
270.0
 51
0.0
  0
LINE
  5
87D
330
2
100
AcDbEntity
  8
SB150K-FP
100
AcDbLine
 10
279.0998758171461
 20
864.2632356175599
 30
0.0
 11
278.5998758170297
 21
864.2632356175599
 31
0.0
  0
ARC
  5
87E
330
2
100
AcDbEntity
  8
SB150K-FP
100
AcDbCircle
 10
278.5998758170297
 20
865.2632356175599
 30
0.0
 40
1.0
100
AcDbArc
 50
180.0
 51
270.0
  0
ARC
  5
881
330
2
100
AcDbEntity
  8
SB150K-FP
100
AcDbCircle
 10
276.5998758170297
 20
854.26323561756
 30
0.0
 40
3.0
100
AcDbArc
 50
270.0
 51
326.4426902421021
  0
LINE
  5
882
330
2
100
AcDbEntity
  8
SB150K-FP
100
AcDbLine
 10
266.5998758170297
 20
851.2632356175599
 30
0.0
 11
276.5998758170297
 21
851.2632356175599
 31
0.0
  0
ARC
  5
8A0
330
2
100
AcDbEntity
  8
SB150K-FP
100
AcDbCircle
 10
281.5998758170297
 20
813.26323561756
 30
0.0
 40
3.0
100
AcDbArc
 50
0.0
 51
19.47153221343215
  0
ARC
  5
8A1
330
2
100
AcDbEntity
  8
SB150K-FP
100
AcDbCircle
 10
261.5998758170297
 20
817.2632356175599
 30
0.0
 40
1.0
100
AcDbArc
 50
180.0
 51
270.0
  0
ARC
  5
8A2
330
2
100
AcDbEntity
  8
SB150K-FP
100
AcDbCircle
 10
261.5998758170297
 20
821.26323561756
 30
0.0
 40
1.0
100
AcDbArc
 50
90.0
 51
180.0
  0
LINE
  5
8A3
330
2
100
AcDbEntity
  8
SB150K-FP
100
AcDbLine
 10
281.5998758170297
 20
816.2632356175599
 30
0.0
 11
261.5998758170297
 21
816.2632356175599
 31
0.0
  0
ARC
  5
8AB
330
2
100
AcDbEntity
  8
SB150K-FP
100
AcDbCircle
 10
266.5998758170297
 20
845.26323561756
 30
0.0
 40
1.0
100
AcDbArc
 50
180.0
 51
270.0
  0
ARC
  5
8AC
330
2
100
AcDbEntity
  8
SB150K-FP
100
AcDbCircle
 10
266.5998758170297
 20
850.2632356175599
 30
0.0
 40
1.0
100
AcDbArc
 50
90.0
 51
180.0
  0
LINE
  5
8AE
330
2
100
AcDbEntity
  8
SB150K-FP
100
AcDbLine
 10
279.0998758171461
 20
822.26323561756
 30
0.0
 11
261.5998758170297
 21
822.26323561756
 31
0.0
  0
LINE
  5
8AF
330
2
100
AcDbEntity
  8
SB150K-FP
100
AcDbLine
 10
265.5998758170297
 20
850.2632356175599
 30
0.0
 11
265.5998758170297
 21
845.26323561756
 31
0.0
  0
LINE
  5
8B0
330
2
100
AcDbEntity
  8
SB150K-FP
100
AcDbLine
 10
260.5998758170297
 20
821.26323561756
 30
0.0
 11
260.5998758170297
 21
767.2632356175601
 31
0.0
  0
LINE
  5
8B2
330
2
100
AcDbEntity
  8
SB150K-FP
100
AcDbLine
 10
279.0998758171461
 20
844.26323561756
 30
0.0
 11
266.5998758170297
 21
844.26323561756
 31
0.0
  0
ARC
  5
A50
330
2
100
AcDbEntity
  8
SB150K-FP
100
AcDbCircle
 10
278.5998758170297
 20
723.2632356175599
 30
0.0
 40
1.0
100
AcDbArc
 50
90.0
 51
180.0
  0
LINE
  5
A51
330
2
100
AcDbEntity
  8
SB150K-FP
100
AcDbLine
 10
279.0998758171461
 20
724.2632356175599
 30
0.0
 11
278.5998758170297
 21
724.2632356175599
 31
0.0
  0
ARC
  5
A52
330
2
100
AcDbEntity
  8
SB150K-FP
100
AcDbCircle
 10
273.5998758170297
 20
723.2632356175599
 30
0.0
 40
1.0
100
AcDbArc
 50
0.0
 51
90.0
  0
ARC
  5
A53
330
2
100
AcDbEntity
  8
SB150K-FP
100
AcDbCircle
 10
273.5998758170297
 20
726.26323561756
 30
0.0
 40
1.0
100
AcDbArc
 50
90.0
 51
180.0
  0
ARC
  5
A54
330
2
100
AcDbEntity
  8
SB150K-FP
100
AcDbCircle
 10
273.5998758170297
 20
725.26323561756
 30
0.0
 40
1.0
100
AcDbArc
 50
180.0
 51
270.0
  0
LINE
  5
A55
330
2
100
AcDbEntity
  8
SB150K-FP
100
AcDbLine
 10
272.5998758170297
 20
726.26323561756
 30
0.0
 11
272.5998758170297
 21
725.26323561756
 31
0.0
  0
LINE
  5
A57
330
2
100
AcDbEntity
  8
SB150K-FP
100
AcDbLine
 10
273.5998758170297
 20
724.2632356175599
 30
0.0
 11
273.5998758170297
 21
724.2632356175599
 31
0.0
  0
ARC
  5
A58
330
2
100
AcDbEntity
  8
SB150K-FP
100
AcDbCircle
 10
278.5998758170297
 20
728.2632356175599
 30
0.0
 40
1.0
100
AcDbArc
 50
270.0
 51
300.0000000077019
  0
LINE
  5
A59
330
2
100
AcDbEntity
  8
SB150K-FP
100
AcDbLine
 10
273.5998758170297
 20
727.2632356175599
 30
0.0
 11
278.5998758170297
 21
727.2632356175599
 31
0.0
  0
ARC
  5
A66
330
2
100
AcDbEntity
  8
SB150K-FP
100
AcDbCircle
 10
276.5998758170297
 20
734.26323561756
 30
0.0
 40
3.0
100
AcDbArc
 50
33.55730975789781
 51
90.0
  0
LINE
  5
A67
330
2
100
AcDbEntity
  8
SB150K-FP
100
AcDbLine
 10
266.5998758170297
 20
737.26323561756
 30
0.0
 11
276.5998758170297
 21
737.26323561756
 31
0.0
  0
ARC
  5
A80
330
2
100
AcDbEntity
  8
SB150K-FP
100
AcDbCircle
 10
281.5998758170297
 20
775.26323561756
 30
0.0
 40
3.0
100
AcDbArc
 50
270.0
 51
280.5838569093063
  0
ARC
  5
A81
330
2
100
AcDbEntity
  8
SB150K-FP
100
AcDbCircle
 10
261.5998758170297
 20
771.2632356175601
 30
0.0
 40
1.0
100
AcDbArc
 50
90.0
 51
180.0
  0
ARC
  5
A82
330
2
100
AcDbEntity
  8
SB150K-FP
100
AcDbCircle
 10
261.5998758170297
 20
767.2632356175601
 30
0.0
 40
1.0
100
AcDbArc
 50
180.0
 51
270.0
  0
LINE
  5
A84
330
2
100
AcDbEntity
  8
SB150K-FP
100
AcDbLine
 10
281.5998758170297
 20
772.26323561756
 30
0.0
 11
261.5998758170297
 21
772.26323561756
 31
0.0
  0
ARC
  5
A89
330
2
100
AcDbEntity
  8
SB150K-FP
100
AcDbCircle
 10
266.5998758170297
 20
743.26323561756
 30
0.0
 40
1.0
100
AcDbArc
 50
90.0
 51
180.0
  0
ARC
  5
A8A
330
2
100
AcDbEntity
  8
SB150K-FP
100
AcDbCircle
 10
266.5998758170297
 20
738.26323561756
 30
0.0
 40
1.0
100
AcDbArc
 50
180.0
 51
270.0
  0
LINE
  5
A8E
330
2
100
AcDbEntity
  8
SB150K-FP
100
AcDbLine
 10
279.0998758171461
 20
766.2632356175599
 30
0.0
 11
261.5998758170297
 21
766.2632356175601
 31
0.0
  0
LINE
  5
A90
330
2
100
AcDbEntity
  8
SB150K-FP
100
AcDbLine
 10
265.5998758170297
 20
743.26323561756
 30
0.0
 11
265.5998758170297
 21
738.26323561756
 31
0.0
  0
LINE
  5
A92
330
2
100
AcDbEntity
  8
SB150K-FP
100
AcDbLine
 10
279.0998758171461
 20
744.2632356175599
 30
0.0
 11
266.5998758170297
 21
744.2632356175599
 31
0.0
  0
ARC
  5
D27
330
2
100
AcDbEntity
  8
SB150K-FP
100
AcDbCircle
 10
275.5998758170297
 20
676.2167560550296
 30
0.0
 40
1.0
100
AcDbArc
 50
180.0
 51
270.0
  0
ARC
  5
D2A
330
2
100
AcDbEntity
  8
SB150K-FP
100
AcDbCircle
 10
278.5998758170297
 20
679.2167560550296
 30
0.0
 40
1.0
100
AcDbArc
 50
180.0
 51
270.0
  0
LINE
  5
D2B
330
2
100
AcDbEntity
  8
SB150K-FP
100
AcDbLine
 10
279.0998758171461
 20
678.2167560550297
 30
0.0
 11
278.5998758170297
 21
678.2167560550297
 31
0.0
  0
LINE
  5
D2C
330
2
100
AcDbEntity
  8
SB150K-FP
100
AcDbLine
 10
279.0998758171461
 20
675.2167560550296
 30
0.0
 11
275.5998758170297
 21
675.2167560550296
 31
0.0
  0
LINE
  5
DE0
330
2
100
AcDbEntity
  8
SB150K-FP
100
AcDbLine
 10
411.0998758171461
 20
599.2632432895825
 30
0.0
 11
279.0998758171461
 21
599.263243289582
 31
0.0
  0
LINE
  5
DEB
330
2
100
AcDbEntity
  8
SB150K-FP
100
AcDbLine
 10
634.2650959740853
 20
599.2632432895828
 30
0.0
 11
1164.265095974086
 21
599.2632432895828
 31
0.0
  0
LINE
  5
E56
330
2
100
AcDbEntity
  8
SB150K-FP
100
AcDbLine
 10
1165.765095974086
 20
369.3604414517797
 30
0.0
 11
1165.765095974086
 21
237.3604414517797
 31
0.0
  0
LINE
  5
E59
330
2
100
AcDbEntity
  8
SB150K-FP
100
AcDbLine
 10
635.7650959740854
 20
369.3604414517797
 30
0.0
 11
635.7650959740856
 21
237.3604414517797
 31
0.0
  0
LINE
  5
1060
330
2
100
AcDbEntity
  8
SB150K-FP
100
AcDbLine
 10
635.7650959740856
 20
369.3604414517797
 30
0.0
 11
1165.765095974086
 21
369.3604414517797
 31
0.0
  0
LINE
  5
11D0
330
2
100
AcDbEntity
  8
SB150K-FP
100
AcDbLine
 10
635.7650959740856
 20
237.3604414517797
 30
0.0
 11
1165.765095974086
 21
237.3604414517797
 31
0.0
  0
LINE
  5
1213
330
2
100
AcDbEntity
  8
SB150K-FP
100
AcDbLine
 10
265.5998758170297
 20
845.26323561756
 30
0.0
 11
260.6210721050451
 21
821.4680362362241
 31
0.0
  0
LINE
  5
1214
330
2
100
AcDbEntity
  8
SB150K-FP
100
AcDbLine
 10
265.5998758170297
 20
743.26323561756
 30
0.0
 11
260.6210721050451
 21
767.058434998896
 31
0.0
  0
LINE
  5
1215
330
2
100
AcDbEntity
  8
SB150K-FP
100
AcDbLine
 10
272.5998758170297
 20
863.26323561756
 30
0.0
 11
265.7234019675559
 21
850.7446850865479
 31
0.0
  0
LINE
  5
1216
330
2
100
AcDbEntity
  8
SB150K-FP
100
AcDbLine
 10
272.5998758170297
 20
725.26323561756
 30
0.0
 11
265.7234019675559
 21
737.7817861485721
 31
0.0
  0
LINE
  5
1236
330
2
100
AcDbEntity
  8
SB150K-FP
100
AcDbLine
 10
304.0998758170297
 20
814.2632509987535
 30
0.0
 11
304.0998758170297
 21
774.2632509987536
 31
0.0
  0
LINE
  5
1237
330
2
100
AcDbEntity
  8
SB150K-FP
100
AcDbLine
 10
293.0998758167969
 20
814.2632509987535
 30
0.0
 11
293.0998758167969
 21
774.2632509987536
 31
0.0
  0
LINE
  5
126B
330
2
100
AcDbEntity
  8
SB150K-FP
100
AcDbLine
 10
361.0998758170297
 20
805.5659055542109
 30
0.0
 11
361.0998758170297
 21
782.9605964432962
 31
0.0
  0
LINE
  5
179A
330
2
100
AcDbEntity
  8
SB150K-FP
100
AcDbLine
 10
658.2650973833265
 20
233.8604414516633
 30
0.0
 11
669.4501428071028
 21
233.8604414516633
 31
0.0
1001
ACAD
1000
ASC_BOUNDS
1002
{
1070
    19
1002
}
  0
LINE
  5
179D
330
2
100
AcDbEntity
  8
SB150K-FP
100
AcDbLine
 10
649.2650973833264
 20
230.8604414516633
 30
0.0
 11
649.2650973833264
 21
229.8604414516633
 31
0.0
1001
ACAD
1000
ASC_BOUNDS
1002
{
1070
    19
1002
}
  0
LINE
  5
179E
330
2
100
AcDbEntity
  8
SB150K-FP
100
AcDbLine
 10
650.2650973833265
 20
228.8604414516633
 30
0.0
 11
654.2650973833265
 21
228.8604414516633
 31
0.0
1001
ACAD
1000
ASC_BOUNDS
1002
{
1070
    19
1002
}
  0
LINE
  5
179F
330
2
100
AcDbEntity
  8
SB150K-FP
100
AcDbLine
 10
650.2650973833265
 20
231.8604414516633
 30
0.0
 11
651.2650973833265
 21
231.8604414516633
 31
0.0
1001
ACAD
1000
ASC_BOUNDS
1002
{
1070
    19
1002
}
  0
LINE
  5
17A0
330
2
100
AcDbEntity
  8
SB150K-FP
100
AcDbLine
 10
652.2650973833265
 20
232.8604414516633
 30
0.0
 11
652.2650973833265
 21
237.3604414517797
 31
0.0
1001
ACAD
1000
ASC_BOUNDS
1002
{
1070
    19
1002
}
  0
LINE
  5
17A3
330
2
100
AcDbEntity
  8
SB150K-FP
100
AcDbLine
 10
655.2650973833265
 20
229.8604414516633
 30
0.0
 11
655.2650973833265
 21
230.8604414516633
 31
0.0
1001
ACAD
1000
ASC_BOUNDS
1002
{
1070
    19
1002
}
  0
ARC
  5
17A6
330
2
100
AcDbEntity
  8
SB150K-FP
100
AcDbCircle
 10
650.2650973833265
 20
229.8604414516633
 30
0.0
 40
1.0
100
AcDbArc
 50
180.0
 51
270.0
1001
ACAD
1000
ASC_BOUNDS
1002
{
1070
    19
1002
}
  0
ARC
  5
17A7
330
2
100
AcDbEntity
  8
SB150K-FP
100
AcDbCircle
 10
650.2650973833265
 20
230.8604414516633
 30
0.0
 40
1.0
100
AcDbArc
 50
90.0
 51
180.0
1001
ACAD
1000
ASC_BOUNDS
1002
{
1070
    19
1002
}
  0
ARC
  5
17A8
330
2
100
AcDbEntity
  8
SB150K-FP
100
AcDbCircle
 10
651.2650973833265
 20
232.8604414516633
 30
0.0
 40
1.0
100
AcDbArc
 50
270.0
 51
0.0
1001
ACAD
1000
ASC_BOUNDS
1002
{
1070
    19
1002
}
  0
ARC
  5
17AB
330
2
100
AcDbEntity
  8
SB150K-FP
100
AcDbCircle
 10
654.2650973833265
 20
229.8604414516633
 30
0.0
 40
1.0
100
AcDbArc
 50
270.0000000000098
 51
0.0
1001
ACAD
1000
ASC_BOUNDS
1002
{
1070
    19
1002
}
  0
ARC
  5
17AC
330
2
100
AcDbEntity
  8
SB150K-FP
100
AcDbCircle
 10
658.2650973833265
 20
230.8604414516633
 30
0.0
 40
3.0
100
AcDbArc
 50
90.0
 51
180.0
  0
LINE
  5
17B4
330
2
100
AcDbEntity
  8
SB150K-FP
100
AcDbLine
 10
1044.384527382823
 20
218.8902989514211
 30
0.0
 11
1118.265097384258
 21
237.3604414517797
 31
0.0
  0
LINE
  5
17B5
330
2
100
AcDbEntity
  8
SB150K-FP
100
AcDbLine
 10
708.2650973833265
 20
218.8604414516633
 30
0.0
 11
899.7650973833264
 21
218.8604414516633
 31
0.0
1001
ACAD
1000
ASC_BOUNDS
1002
{
1070
    19
1002
}
  0
LINE
  5
17BF
330
2
100
AcDbEntity
  8
SB150K-FP
100
AcDbLine
 10
699.2650973833264
 20
233.8604414516633
 30
0.0
 11
708.2650973833265
 21
218.8604414516633
 31
0.0
  0
LINE
  5
1807
330
2
100
AcDbEntity
  8
SB150K-FP
100
AcDbLine
 10
933.7650973833264
 20
218.8604414516633
 30
0.0
 11
1044.141991757704
 21
218.8604414516633
 31
0.0
1001
ACAD
1000
ASC_BOUNDS
1002
{
1070
    19
1002
}
  0
LINE
  5
180B
330
2
100
AcDbEntity
  8
SB150K-FP
100
AcDbLine
 10
899.7650973833264
 20
218.8604414516633
 30
0.0
 11
899.7650973833264
 21
217.8604414516633
 31
0.0
1001
ACAD
1000
ASC_BOUNDS
1002
{
1070
    19
1002
}
  0
ARC
  5
180D
330
2
100
AcDbEntity
  8
SB150K-FP
100
AcDbCircle
 10
900.7650973833264
 20
217.8604414516633
 30
0.0
 40
1.0
100
AcDbArc
 50
180.0
 51
270.0
1001
ACAD
1000
ASC_BOUNDS
1002
{
1070
    19
1005
0
1005
0
1002
}
  0
LINE
  5
180F
330
2
100
AcDbEntity
  8
SB150K-FP
100
AcDbLine
 10
900.7650973833264
 20
216.8604414516633
 30
0.0
 11
932.7650973833264
 21
216.8604414516633
 31
0.0
1001
ACAD
1000
ASC_BOUNDS
1002
{
1070
    19
1002
}
  0
LINE
  5
1815
330
2
100
AcDbEntity
  8
SB150K-FP
100
AcDbLine
 10
933.7650973833264
 20
218.8604414516633
 30
0.0
 11
933.7650973833264
 21
217.8604414516633
 31
0.0
1001
ACAD
1000
ASC_BOUNDS
1002
{
1070
    19
1002
}
  0
ARC
  5
1817
330
2
100
AcDbEntity
  8
SB150K-FP
100
AcDbCircle
 10
932.7650973833264
 20
217.8604414516633
 30
0.0
 40
1.0
100
AcDbArc
 50
270.0
 51
0.0
1001
ACAD
1000
ASC_BOUNDS
1002
{
1070
    19
1002
}
  0
LINE
  5
203D
330
2
100
AcDbEntity
  8
SB150K-FP
100
AcDbLine
 10
1349.158895671838
 20
989.2632432895828
 30
0.0
 11
1349.158895671838
 21
599.2632432895825
 31
0.0
  0
LINE
  5
203E
330
2
100
AcDbEntity
  8
SB150K-FP
100
AcDbLine
 10
1349.158895671838
 20
599.2632432895825
 30
0.0
 11
1481.158895671838
 21
599.2632432895824
 31
0.0
  0
LINE
  5
2040
330
2
100
AcDbEntity
  8
SB150K-FP
100
AcDbLine
 10
1443.158895671839
 20
764.7632509987536
 30
0.0
 11
1450.658895671955
 21
764.7632509987536
 31
0.0
  0
LINE
  5
2041
330
2
100
AcDbEntity
  8
SB150K-FP
100
AcDbLine
 10
1443.158895671839
 20
824.7632509987536
 30
0.0
 11
1449.658895671955
 21
824.7632509987536
 31
0.0
  0
LINE
  5
2042
330
2
100
AcDbEntity
  8
SB150K-FP
100
AcDbLine
 10
1443.158895671839
 20
823.7632509987534
 30
0.0
 11
1450.658895671955
 21
823.7632509987536
 31
0.0
  0
LINE
  5
2044
330
2
100
AcDbEntity
  8
SB150K-FP
100
AcDbLine
 10
1443.158895671839
 20
766.2632509987536
 30
0.0
 11
1455.658895671955
 21
766.2632509987536
 31
0.0
  0
LINE
  5
2046
330
2
100
AcDbEntity
  8
SB150K-FP
100
AcDbLine
 10
1443.158895671839
 20
822.2632509987535
 30
0.0
 11
1455.658895671955
 21
822.2632509987535
 31
0.0
  0
LINE
  5
2048
330
2
100
AcDbEntity
  8
SB150K-FP
100
AcDbLine
 10
1443.158895671839
 20
763.7632509987536
 30
0.0
 11
1449.658895671955
 21
763.7632509987536
 31
0.0
  0
LINE
  5
2049
330
2
100
AcDbEntity
  8
SB150K-FP
100
AcDbLine
 10
1443.158895671839
 20
756.9950282644517
 30
0.0
 11
1462.158895671955
 21
756.9950282644517
 31
0.0
  0
LINE
  5
204F
330
2
100
AcDbEntity
  8
SB150K-FP
100
AcDbLine
 10
1467.158895672188
 20
822.26323561756
 30
0.0
 11
1467.158895672188
 21
766.2632356180256
 31
0.0
  0
LINE
  5
2050
330
2
100
AcDbEntity
  8
SB150K-FP
100
AcDbLine
 10
1456.158895671955
 20
822.26323561756
 30
0.0
 11
1456.158895671955
 21
766.2632356170943
 31
0.0
  0
LINE
  5
2051
330
2
100
AcDbEntity
  8
SB150K-FP
100
AcDbLine
 10
1499.658895671955
 20
821.26323561756
 30
0.0
 11
1499.658895671955
 21
767.2632356175601
 31
0.0
  0
LINE
  5
2052
330
2
100
AcDbEntity
  8
SB150K-FP
100
AcDbLine
 10
1475.658895671955
 20
813.26323561756
 30
0.0
 11
1475.658895671955
 21
775.26323561756
 31
0.0
  0
LINE
  5
2053
330
2
100
AcDbEntity
  8
SB150K-FP
100
AcDbLine
 10
1467.658895671955
 20
822.4348084928138
 30
0.0
 11
1467.658895671955
 21
766.0916627423062
 31
0.0
  0
LINE
  5
2054
330
2
100
AcDbEntity
  8
SB150K-FP
100
AcDbLine
 10
1455.658895671955
 20
822.2632509987535
 30
0.0
 11
1455.658895671955
 21
766.2632509987536
 31
0.0
  0
LINE
  5
2055
330
2
100
AcDbEntity
  8
SB150K-FP
100
AcDbLine
 10
1455.658895671955
 20
821.7632356175599
 30
0.0
 11
1455.658895671955
 21
766.7632356170943
 31
0.0
  0
LINE
  5
2056
330
2
100
AcDbEntity
  8
SB150K-FP
100
AcDbLine
 10
1467.658895672188
 20
821.7632356175599
 30
0.0
 11
1467.658895672188
 21
766.7632356180256
 31
0.0
  0
LINE
  5
2057
330
2
100
AcDbEntity
  8
SB150K-FP
100
AcDbLine
 10
1462.158895671955
 20
756.9950282644515
 30
0.0
 11
1462.158895671955
 21
826.7632356175599
 31
0.0
  0
LINE
  5
2059
330
2
100
AcDbEntity
  8
SB150K-FP
100
AcDbLine
 10
1456.158895671955
 20
766.2632356171408
 30
0.0
 11
1455.658895671955
 21
766.7632356170943
 31
0.0
  0
LINE
  5
205A
330
2
100
AcDbEntity
  8
SB150K-FP
100
AcDbLine
 10
1467.658895672188
 20
766.7632356180256
 30
0.0
 11
1467.158895672188
 21
766.263235617979
 31
0.0
  0
LINE
  5
205B
330
2
100
AcDbEntity
  8
SB150K-FP
100
AcDbLine
 10
1455.658895671955
 20
766.7632356170943
 30
0.0
 11
1467.658895672374
 21
766.7632356182118
 31
0.0
  0
LINE
  5
205C
330
2
100
AcDbEntity
  8
SB150K-FP
100
AcDbLine
 10
1478.658895671955
 20
766.2632356175599
 30
0.0
 11
1498.658895671955
 21
766.2632356175601
 31
0.0
  0
LINE
  5
205D
330
2
100
AcDbEntity
  8
SB150K-FP
100
AcDbLine
 10
1478.658895671955
 20
772.26323561756
 30
0.0
 11
1498.658895671955
 21
772.26323561756
 31
0.0
  0
ARC
  5
205E
330
2
100
AcDbEntity
  8
SB150K-FP
100
AcDbCircle
 10
1498.658895671955
 20
767.2632356175601
 30
0.0
 40
1.0
100
AcDbArc
 50
270.0
 51
0.0
  0
ARC
  5
205F
330
2
100
AcDbEntity
  8
SB150K-FP
100
AcDbCircle
 10
1498.658895671955
 20
771.2632356175601
 30
0.0
 40
1.0
100
AcDbArc
 50
0.0
 51
90.0
  0
ARC
  5
2060
330
2
100
AcDbEntity
  8
SB150K-FP
100
AcDbCircle
 10
1478.658895671955
 20
775.26323561756
 30
0.0
 40
3.0
100
AcDbArc
 50
180.0
 51
270.0
  0
LINE
  5
2061
330
2
100
AcDbEntity
  8
SB150K-FP
100
AcDbLine
 10
1449.908895671955
 20
764.0132509987536
 30
0.0
 11
1450.658895671955
 21
764.7632509987536
 31
0.0
  0
LINE
  5
2062
330
2
100
AcDbEntity
  8
SB150K-FP
100
AcDbLine
 10
1450.658895671955
 20
764.7632509987536
 30
0.0
 11
1450.658895671955
 21
766.2632509987536
 31
0.0
  0
LINE
  5
2066
330
2
100
AcDbEntity
  8
SB150K-FP
100
AcDbLine
 10
1456.158895671955
 20
766.2632356171408
 30
0.0
 11
1467.158895672374
 21
766.2632356181652
 31
0.0
  0
LINE
  5
2068
330
2
100
AcDbEntity
  8
SB150K-FP
100
AcDbLine
 10
1487.658895671955
 20
725.26323561756
 30
0.0
 11
1494.535369521428
 21
737.7817861485721
 31
0.0
  0
LINE
  5
2069
330
2
100
AcDbEntity
  8
SB150K-FP
100
AcDbLine
 10
1480.658895671955
 20
734.26323561756
 30
0.0
 11
1480.658895671955
 21
728.2632356175599
 31
0.0
  0
LINE
  5
206A
330
2
100
AcDbEntity
  8
SB150K-FP
100
AcDbLine
 10
1477.658895671955
 20
734.26323561756
 30
0.0
 11
1477.658895671955
 21
725.26323561756
 31
0.0
  0
LINE
  5
206B
330
2
100
AcDbEntity
  8
SB150K-FP
100
AcDbLine
 10
1450.658895671955
 20
737.26323561756
 30
0.0
 11
1474.658895671955
 21
737.26323561756
 31
0.0
  0
LINE
  5
206C
330
2
100
AcDbEntity
  8
SB150K-FP
100
AcDbLine
 10
1478.658895671955
 20
744.2632356175599
 30
0.0
 11
1493.658895671955
 21
744.2632356175599
 31
0.0
  0
LINE
  5
206D
330
2
100
AcDbEntity
  8
SB150K-FP
100
AcDbLine
 10
1449.658895671955
 20
743.26323561756
 30
0.0
 11
1449.658895671955
 21
738.26323561756
 31
0.0
  0
LINE
  5
206E
330
2
100
AcDbEntity
  8
SB150K-FP
100
AcDbLine
 10
1494.658895671955
 20
743.26323561756
 30
0.0
 11
1494.658895671955
 21
738.26323561756
 31
0.0
  0
LINE
  5
206F
330
2
100
AcDbEntity
  8
SB150K-FP
100
AcDbLine
 10
1475.658895671955
 20
763.26323561756
 30
0.0
 11
1475.658895671955
 21
747.26323561756
 31
0.0
  0
LINE
  5
2070
330
2
100
AcDbEntity
  8
SB150K-FP
100
AcDbLine
 10
1469.658895671955
 20
763.26323561756
 30
0.0
 11
1469.658895671955
 21
747.26323561756
 31
0.0
  0
ARC
  5
2071
330
2
100
AcDbEntity
  8
SB150K-FP
100
AcDbCircle
 10
1450.658895671955
 20
743.26323561756
 30
0.0
 40
1.0
100
AcDbArc
 50
90.0
 51
180.0
  0
ARC
  5
2072
330
2
100
AcDbEntity
  8
SB150K-FP
100
AcDbCircle
 10
1450.658895671955
 20
738.26323561756
 30
0.0
 40
1.0
100
AcDbArc
 50
180.0
 51
270.0
  0
ARC
  5
2073
330
2
100
AcDbEntity
  8
SB150K-FP
100
AcDbCircle
 10
1493.658895671955
 20
738.26323561756
 30
0.0
 40
1.0
100
AcDbArc
 50
270.0
 51
0.0
  0
ARC
  5
2074
330
2
100
AcDbEntity
  8
SB150K-FP
100
AcDbCircle
 10
1493.658895671955
 20
743.26323561756
 30
0.0
 40
1.0
100
AcDbArc
 50
0.0
 51
90.0
  0
ARC
  5
2075
330
2
100
AcDbEntity
  8
SB150K-FP
100
AcDbCircle
 10
1478.658895671955
 20
747.26323561756
 30
0.0
 40
3.0
100
AcDbArc
 50
180.0
 51
270.0
  0
LINE
  5
2076
330
2
100
AcDbEntity
  8
SB150K-FP
100
AcDbLine
 10
1450.658895671955
 20
744.2632356175599
 30
0.0
 11
1451.658895671955
 21
744.2632356175599
 31
0.0
  0
ARC
  5
2077
330
2
100
AcDbEntity
  8
SB150K-FP
100
AcDbCircle
 10
1466.658895671955
 20
747.26323561756
 30
0.0
 40
3.0
100
AcDbArc
 50
270.0
 51
0.0
  0
ARC
  5
2078
330
2
100
AcDbEntity
  8
SB150K-FP
100
AcDbCircle
 10
1451.658895671955
 20
747.26323561756
 30
0.0
 40
3.0
100
AcDbArc
 50
270.0
 51
0.0
  0
LINE
  5
2079
330
2
100
AcDbEntity
  8
SB150K-FP
100
AcDbLine
 10
1466.658895671955
 20
744.2632356175599
 30
0.0
 11
1450.658895671955
 21
744.2632356175599
 31
0.0
  0
LINE
  5
207A
330
2
100
AcDbEntity
  8
SB150K-FP
100
AcDbLine
 10
1454.658895671955
 20
747.26323561756
 30
0.0
 11
1469.658895671955
 21
761.2632356175599
 31
0.0
  0
ARC
  5
207B
330
2
100
AcDbEntity
  8
SB150K-FP
100
AcDbCircle
 10
1474.658895671955
 20
734.26323561756
 30
0.0
 40
3.0
100
AcDbArc
 50
0.0
 51
90.0
  0
LINE
  5
207C
330
2
100
AcDbEntity
  8
SB150K-FP
100
AcDbLine
 10
1493.658895671955
 20
737.26323561756
 30
0.0
 11
1483.658895671955
 21
737.26323561756
 31
0.0
  0
ARC
  5
207D
330
2
100
AcDbEntity
  8
SB150K-FP
100
AcDbCircle
 10
1483.658895671955
 20
734.26323561756
 30
0.0
 40
3.0
100
AcDbArc
 50
90.0
 51
180.0
  0
LINE
  5
2096
330
2
100
AcDbEntity
  8
SB150K-FP
100
AcDbLine
 10
1481.158895671839
 20
675.2167560550296
 30
0.0
 11
1484.658895671955
 21
675.2167560550296
 31
0.0
  0
LINE
  5
2097
330
2
100
AcDbEntity
  8
SB150K-FP
100
AcDbLine
 10
1481.158895671839
 20
678.2167560550297
 30
0.0
 11
1481.658895671955
 21
678.2167560550297
 31
0.0
  0
ARC
  5
2098
330
2
100
AcDbEntity
  8
SB150K-FP
100
AcDbCircle
 10
1481.658895671955
 20
679.2167560550296
 30
0.0
 40
1.0
100
AcDbArc
 50
270.0
 51
0.0
  0
ARC
  5
209B
330
2
100
AcDbEntity
  8
SB150K-FP
100
AcDbCircle
 10
1484.658895671955
 20
676.2167560550296
 30
0.0
 40
1.0
100
AcDbArc
 50
270.0
 51
0.0
  0
LINE
  5
20A5
330
2
100
AcDbEntity
  8
SB150K-FP
100
AcDbLine
 10
1486.658895671955
 20
727.2632356175599
 30
0.0
 11
1481.658895671955
 21
727.2632356175599
 31
0.0
  0
ARC
  5
20A6
330
2
100
AcDbEntity
  8
SB150K-FP
100
AcDbCircle
 10
1481.658895671955
 20
728.2632356175599
 30
0.0
 40
1.0
100
AcDbArc
 50
180.0
 51
270.0
  0
LINE
  5
20A7
330
2
100
AcDbEntity
  8
SB150K-FP
100
AcDbLine
 10
1486.658895671955
 20
724.2632356175599
 30
0.0
 11
1486.658895671955
 21
724.2632356175599
 31
0.0
  0
ARC
  5
20A8
330
2
100
AcDbEntity
  8
SB150K-FP
100
AcDbCircle
 10
1478.658895671955
 20
725.26323561756
 30
0.0
 40
1.0
100
AcDbArc
 50
180.0
 51
270.0
  0
LINE
  5
20A9
330
2
100
AcDbEntity
  8
SB150K-FP
100
AcDbLine
 10
1487.658895671955
 20
726.26323561756
 30
0.0
 11
1487.658895671955
 21
725.26323561756
 31
0.0
  0
ARC
  5
20AA
330
2
100
AcDbEntity
  8
SB150K-FP
100
AcDbCircle
 10
1486.658895671955
 20
725.26323561756
 30
0.0
 40
1.0
100
AcDbArc
 50
270.0
 51
0.0
  0
ARC
  5
20AB
330
2
100
AcDbEntity
  8
SB150K-FP
100
AcDbCircle
 10
1486.658895671955
 20
726.26323561756
 30
0.0
 40
1.0
100
AcDbArc
 50
0.0
 51
90.0
  0
ARC
  5
20AC
330
2
100
AcDbEntity
  8
SB150K-FP
100
AcDbCircle
 10
1486.658895671955
 20
723.2632356175599
 30
0.0
 40
1.0
100
AcDbArc
 50
90.0
 51
180.0
  0
LINE
  5
20AD
330
2
100
AcDbEntity
  8
SB150K-FP
100
AcDbLine
 10
1478.658895671955
 20
724.2632356175599
 30
0.0
 11
1481.658895671955
 21
724.2632356175599
 31
0.0
  0
ARC
  5
20AE
330
2
100
AcDbEntity
  8
SB150K-FP
100
AcDbCircle
 10
1481.658895671955
 20
723.2632356175599
 30
0.0
 40
1.0
100
AcDbArc
 50
0.0
 51
90.0
  0
LINE
  5
20AF
330
2
100
AcDbEntity
  8
SB150K-FP
100
AcDbLine
 10
1485.658895671955
 20
723.2632356175599
 30
0.0
 11
1485.658895671955
 21
676.2167560550296
 31
0.0
  0
LINE
  5
20B0
330
2
100
AcDbEntity
  8
SB150K-FP
100
AcDbLine
 10
1482.658895671955
 20
723.2632356175599
 30
0.0
 11
1482.658895671955
 21
679.2167560550296
 31
0.0
  0
LINE
  5
20DA
330
2
100
AcDbEntity
  8
SB150K-FP
100
AcDbLine
 10
1494.658895671955
 20
743.26323561756
 30
0.0
 11
1499.637699383939
 21
767.058434998896
 31
0.0
  0
ARC
  5
20DB
330
2
100
AcDbEntity
  8
SB150K-FP
100
AcDbCircle
 10
1478.658895671955
 20
763.26323561756
 30
0.0
 40
3.0
100
AcDbArc
 50
90.0
 51
180.0
  0
ARC
  5
20DC
330
2
100
AcDbEntity
  8
SB150K-FP
100
AcDbCircle
 10
1466.658895671955
 20
763.26323561756
 30
0.0
 40
3.0
100
AcDbArc
 50
0.0
 51
70.52877936551003
  0
LINE
  5
20DD
330
2
100
AcDbEntity
  8
SB150K-FP
100
AcDbLine
 10
1449.658895671955
 20
763.7632509987536
 30
0.0
 11
1449.908895671955
 21
764.0132509987536
 31
0.0
  0
LINE
  5
2107
330
2
100
AcDbEntity
  8
SB150K-FP
100
AcDbLine
 10
1494.658895671955
 20
845.26323561756
 30
0.0
 11
1499.637699383939
 21
821.4680362362241
 31
0.0
  0
LINE
  5
2108
330
2
100
AcDbEntity
  8
SB150K-FP
100
AcDbLine
 10
1475.658895671955
 20
841.2632356175599
 30
0.0
 11
1475.658895671955
 21
825.2632356175599
 31
0.0
  0
LINE
  5
2109
330
2
100
AcDbEntity
  8
SB150K-FP
100
AcDbLine
 10
1469.658895671955
 20
826.7632356175599
 30
0.0
 11
1469.658895671955
 21
825.2632356175599
 31
0.0
  0
LINE
  5
210A
330
2
100
AcDbEntity
  8
SB150K-FP
100
AcDbLine
 10
1454.658895671955
 20
841.2632356175599
 30
0.0
 11
1458.658895671955
 21
837.5299022842265
 31
0.0
  0
LINE
  5
210B
330
2
100
AcDbEntity
  8
SB150K-FP
100
AcDbLine
 10
1487.658895671955
 20
863.26323561756
 30
0.0
 11
1494.535369521428
 21
850.7446850865479
 31
0.0
  0
LINE
  5
210C
330
2
100
AcDbEntity
  8
SB150K-FP
100
AcDbLine
 10
1450.658895671955
 20
851.2632356175599
 30
0.0
 11
1458.658895671955
 21
851.2632356175599
 31
0.0
  0
LINE
  5
210D
330
2
100
AcDbEntity
  8
SB150K-FP
100
AcDbLine
 10
1478.658895671955
 20
844.26323561756
 30
0.0
 11
1493.658895671955
 21
844.26323561756
 31
0.0
  0
LINE
  5
210E
330
2
100
AcDbEntity
  8
SB150K-FP
100
AcDbLine
 10
1449.658895671955
 20
850.2632356175599
 30
0.0
 11
1449.658895671955
 21
845.26323561756
 31
0.0
  0
LINE
  5
210F
330
2
100
AcDbEntity
  8
SB150K-FP
100
AcDbLine
 10
1494.658895671955
 20
850.2632356175599
 30
0.0
 11
1494.658895671955
 21
845.26323561756
 31
0.0
  0
ARC
  5
2110
330
2
100
AcDbEntity
  8
SB150K-FP
100
AcDbCircle
 10
1450.658895671955
 20
850.2632356175599
 30
0.0
 40
1.0
100
AcDbArc
 50
90.0
 51
180.0
  0
ARC
  5
2111
330
2
100
AcDbEntity
  8
SB150K-FP
100
AcDbCircle
 10
1493.658895671955
 20
850.2632356175599
 30
0.0
 40
1.0
100
AcDbArc
 50
0.0
 51
90.0
  0
ARC
  5
2112
330
2
100
AcDbEntity
  8
SB150K-FP
100
AcDbCircle
 10
1493.658895671955
 20
845.26323561756
 30
0.0
 40
1.0
100
AcDbArc
 50
270.0
 51
0.0
  0
ARC
  5
2113
330
2
100
AcDbEntity
  8
SB150K-FP
100
AcDbCircle
 10
1450.658895671955
 20
845.26323561756
 30
0.0
 40
1.0
100
AcDbArc
 50
180.0
 51
270.0
  0
ARC
  5
2114
330
2
100
AcDbEntity
  8
SB150K-FP
100
AcDbCircle
 10
1478.658895671955
 20
841.2632356175599
 30
0.0
 40
3.0
100
AcDbArc
 50
90.0
 51
180.0
  0
LINE
  5
2115
330
2
100
AcDbEntity
  8
SB150K-FP
100
AcDbLine
 10
1450.658895671955
 20
844.26323561756
 30
0.0
 11
1458.658895671955
 21
844.26323561756
 31
0.0
  0
ARC
  5
2117
330
2
100
AcDbEntity
  8
SB150K-FP
100
AcDbCircle
 10
1451.658895671955
 20
841.2632356175599
 30
0.0
 40
3.0
100
AcDbArc
 50
0.0
 51
90.0
  0
LINE
  5
2119
330
2
100
AcDbEntity
  8
SB150K-FP
100
AcDbLine
 10
1443.158895671839
 20
830.9950282644516
 30
0.0
 11
1458.658895671955
 21
830.9950282644516
 31
0.0
  0
LINE
  5
211A
330
2
100
AcDbEntity
  8
SB150K-FP
100
AcDbLine
 10
1477.658895671955
 20
854.26323561756
 30
0.0
 11
1477.658895671955
 21
863.26323561756
 31
0.0
  0
LINE
  5
211B
330
2
100
AcDbEntity
  8
SB150K-FP
100
AcDbLine
 10
1480.658895671955
 20
854.26323561756
 30
0.0
 11
1480.658895671955
 21
860.26323561756
 31
0.0
  0
ARC
  5
211C
330
2
100
AcDbEntity
  8
SB150K-FP
100
AcDbCircle
 10
1474.658895671955
 20
854.26323561756
 30
0.0
 40
3.0
100
AcDbArc
 50
270.0
 51
0.0
  0
LINE
  5
211D
330
2
100
AcDbEntity
  8
SB150K-FP
100
AcDbLine
 10
1493.658895671955
 20
851.2632356175599
 30
0.0
 11
1483.658895671955
 21
851.2632356175599
 31
0.0
  0
ARC
  5
211E
330
2
100
AcDbEntity
  8
SB150K-FP
100
AcDbCircle
 10
1483.658895671955
 20
854.26323561756
 30
0.0
 40
3.0
100
AcDbArc
 50
180.0
 51
270.0
  0
ARC
  5
211F
330
2
100
AcDbEntity
  8
SB150K-FP
100
AcDbCircle
 10
1481.658895671955
 20
865.2632356175599
 30
0.0
 40
1.0
100
AcDbArc
 50
270.0
 51
0.0
  0
LINE
  5
2120
330
2
100
AcDbEntity
  8
SB150K-FP
100
AcDbLine
 10
1478.658895671955
 20
864.2632356175599
 30
0.0
 11
1481.658895671955
 21
864.2632356175599
 31
0.0
  0
ARC
  5
2121
330
2
100
AcDbEntity
  8
SB150K-FP
100
AcDbCircle
 10
1486.658895671955
 20
865.2632356175599
 30
0.0
 40
1.0
100
AcDbArc
 50
180.0
 51
270.0
  0
LINE
  5
2122
330
2
100
AcDbEntity
  8
SB150K-FP
100
AcDbLine
 10
1486.658895671955
 20
864.2632356175599
 30
0.0
 11
1486.658895671955
 21
864.2632356175599
 31
0.0
  0
ARC
  5
2123
330
2
100
AcDbEntity
  8
SB150K-FP
100
AcDbCircle
 10
1486.658895671955
 20
862.26323561756
 30
0.0
 40
1.0
100
AcDbArc
 50
270.0
 51
0.0
  0
LINE
  5
2124
330
2
100
AcDbEntity
  8
SB150K-FP
100
AcDbLine
 10
1486.658895671955
 20
861.26323561756
 30
0.0
 11
1481.658895671955
 21
861.26323561756
 31
0.0
  0
LINE
  5
2125
330
2
100
AcDbEntity
  8
SB150K-FP
100
AcDbLine
 10
1487.658895671955
 20
862.26323561756
 30
0.0
 11
1487.658895671955
 21
863.26323561756
 31
0.0
  0
ARC
  5
2126
330
2
100
AcDbEntity
  8
SB150K-FP
100
AcDbCircle
 10
1486.658895671955
 20
863.26323561756
 30
0.0
 40
1.0
100
AcDbArc
 50
0.0
 51
90.0
  0
ARC
  5
2127
330
2
100
AcDbEntity
  8
SB150K-FP
100
AcDbCircle
 10
1478.658895671955
 20
863.26323561756
 30
0.0
 40
1.0
100
AcDbArc
 50
90.0
 51
180.0
  0
ARC
  5
2128
330
2
100
AcDbEntity
  8
SB150K-FP
100
AcDbCircle
 10
1481.658895671955
 20
860.26323561756
 30
0.0
 40
1.0
100
AcDbArc
 50
90.0
 51
180.0
  0
ARC
  5
2129
330
2
100
AcDbEntity
  8
SB150K-FP
100
AcDbCircle
 10
1484.658895671955
 20
912.3097151800903
 30
0.0
 40
1.0
100
AcDbArc
 50
0.0
 51
90.0
  0
LINE
  5
212A
330
2
100
AcDbEntity
  8
SB150K-FP
100
AcDbLine
 10
1481.158895671839
 20
913.3097151800903
 30
0.0
 11
1484.658895671955
 21
913.3097151800903
 31
0.0
  0
LINE
  5
212C
330
2
100
AcDbEntity
  8
SB150K-FP
100
AcDbLine
 10
1481.158895671839
 20
910.3097151800902
 30
0.0
 11
1481.658895671955
 21
910.3097151800902
 31
0.0
  0
ARC
  5
212E
330
2
100
AcDbEntity
  8
SB150K-FP
100
AcDbCircle
 10
1481.658895671955
 20
909.3097151800902
 30
0.0
 40
1.0
100
AcDbArc
 50
0.0
 51
90.0
  0
LINE
  5
212F
330
2
100
AcDbEntity
  8
SB150K-FP
100
AcDbLine
 10
1485.658895671955
 20
865.2632356175599
 30
0.0
 11
1485.658895671955
 21
912.3097151800903
 31
0.0
  0
LINE
  5
2130
330
2
100
AcDbEntity
  8
SB150K-FP
100
AcDbLine
 10
1482.658895671955
 20
865.2632356175599
 30
0.0
 11
1482.658895671955
 21
909.3097151800902
 31
0.0
  0
LINE
  5
2131
330
2
100
AcDbEntity
  8
SB150K-FP
100
AcDbLine
 10
1467.658895672188
 20
821.7632356175599
 30
0.0
 11
1467.158895672188
 21
822.26323561756
 31
0.0
  0
LINE
  5
2132
330
2
100
AcDbEntity
  8
SB150K-FP
100
AcDbLine
 10
1455.658895671955
 20
821.7632356175599
 30
0.0
 11
1456.158895671955
 21
822.26323561756
 31
0.0
  0
LINE
  5
2133
330
2
100
AcDbEntity
  8
SB150K-FP
100
AcDbLine
 10
1455.658895671955
 20
821.7632356175599
 30
0.0
 11
1467.658895672188
 21
821.7632356175599
 31
0.0
  0
LINE
  5
2137
330
2
100
AcDbEntity
  8
SB150K-FP
100
AcDbLine
 10
1478.658895671955
 20
822.26323561756
 30
0.0
 11
1498.658895671955
 21
822.26323561756
 31
0.0
  0
ARC
  5
2138
330
2
100
AcDbEntity
  8
SB150K-FP
100
AcDbCircle
 10
1478.658895671955
 20
825.2632356175599
 30
0.0
 40
3.0
100
AcDbArc
 50
180.0
 51
270.0
  0
LINE
  5
2139
330
2
100
AcDbEntity
  8
SB150K-FP
100
AcDbLine
 10
1478.658895671955
 20
816.2632356175599
 30
0.0
 11
1498.658895671955
 21
816.2632356175599
 31
0.0
  0
ARC
  5
213A
330
2
100
AcDbEntity
  8
SB150K-FP
100
AcDbCircle
 10
1498.658895671955
 20
821.26323561756
 30
0.0
 40
1.0
100
AcDbArc
 50
0.0
 51
90.0
  0
ARC
  5
213B
330
2
100
AcDbEntity
  8
SB150K-FP
100
AcDbCircle
 10
1498.658895671955
 20
817.2632356175599
 30
0.0
 40
1.0
100
AcDbArc
 50
270.0
 51
0.0
  0
ARC
  5
213C
330
2
100
AcDbEntity
  8
SB150K-FP
100
AcDbCircle
 10
1478.658895671955
 20
813.26323561756
 30
0.0
 40
3.0
100
AcDbArc
 50
90.0
 51
180.0
  0
ARC
  5
213D
330
2
100
AcDbEntity
  8
SB150K-FP
100
AcDbCircle
 10
1466.658895671955
 20
825.2632356175599
 30
0.0
 40
3.0
100
AcDbArc
 50
289.47122063449
 51
0.0
  0
LINE
  5
213E
330
2
100
AcDbEntity
  8
SB150K-FP
100
AcDbLine
 10
1450.658895671955
 20
823.7632509987536
 30
0.0
 11
1450.658895671955
 21
822.2632509987535
 31
0.0
  0
LINE
  5
213F
330
2
100
AcDbEntity
  8
SB150K-FP
100
AcDbLine
 10
1449.658895671955
 20
824.7632509987536
 30
0.0
 11
1449.908895671955
 21
824.5132509987536
 31
0.0
  0
LINE
  5
2140
330
2
100
AcDbEntity
  8
SB150K-FP
100
AcDbLine
 10
1449.908895671955
 20
824.5132509987536
 30
0.0
 11
1450.658895671955
 21
823.7632509987536
 31
0.0
  0
LINE
  5
2142
330
2
100
AcDbEntity
  8
SB150K-FP
100
AcDbLine
 10
1456.158895671955
 20
822.26323561756
 30
0.0
 11
1467.158895672188
 21
822.2632356175598
 31
0.0
  0
LINE
  5
2254
330
2
100
AcDbEntity
  8
SB150K-FP
100
AcDbLine
 10
1349.158895671838
 20
989.263243289583
 30
0.0
 11
1481.15889567184
 21
989.2632432895826
 31
0.0
  0
LINE
  5
2B81
330
2
100
AcDbEntity
  8
SB150K-FP
100
AcDbLine
 10
1481.15889567184
 20
989.2632432895826
 30
0.0
 11
1481.158895671839
 21
865.2632432895824
 31
0.0
  0
LINE
  5
40B6
330
2
100
AcDbEntity
  8
SB150K-FP
100
AcDbLine
 10
344.5998758170297
 20
814.2632509987535
 30
0.0
 11
284.099875817146
 21
814.2632509987535
 31
0.0
  0
LINE
  5
40B7
330
2
100
AcDbEntity
  8
SB150K-FP
100
AcDbLine
 10
344.5998758170297
 20
774.2632509987536
 30
0.0
 11
284.0998758171461
 21
774.2632509987536
 31
0.0
  0
LINE
  5
40B8
330
2
100
AcDbEntity
  8
SB150K-FP
100
AcDbLine
 10
279.0998758171461
 20
769.2632509987536
 30
0.0
 11
279.0998758171461
 21
599.2632432895824
 31
0.0
  0
CIRCLE
  5
40BC
330
2
100
AcDbEntity
  8
SB150K-FP
100
AcDbCircle
 10
344.5998758170297
 20
794.2632509987536
 30
0.0
 40
4.9
  0
LINE
  5
412C
330
2
100
AcDbEntity
  8
SB150K-FP
100
AcDbLine
 10
279.0998758171461
 20
819.2632509987534
 30
0.0
 11
284.0998758171461
 21
814.2632509987535
 31
0.0
  0
LINE
  5
412D
330
2
100
AcDbEntity
  8
SB150K-FP
100
AcDbLine
 10
284.0998758171461
 20
774.2632509987536
 30
0.0
 11
279.0998758171461
 21
769.2632509987536
 31
0.0
  0
ARC
  5
412E
330
2
100
AcDbEntity
  8
SB150K-FP
100
AcDbCircle
 10
344.5998758170297
 20
794.2632509987536
 30
0.0
 40
20.0
100
AcDbArc
 50
270.0
 51
90.0
  0
LINE
  5
4184
330
2
100
AcDbEntity
  8
SB150K-FP
100
AcDbLine
 10
1511.658895671955
 20
921.7632356175599
 30
0.0
 11
1511.658895671955
 21
966.76323561756
 31
0.0
  0
LINE
  5
4185
330
2
100
AcDbEntity
  8
SB150K-FP
100
AcDbLine
 10
1508.658895671955
 20
921.7632356175599
 30
0.0
 11
1508.658895671955
 21
966.76323561756
 31
0.0
  0
LINE
  5
4186
330
2
100
AcDbEntity
  8
SB150K-FP
100
AcDbLine
 10
1508.658895671955
 20
921.7632356175599
 30
0.0
 11
1511.658895671955
 21
921.7632356175599
 31
0.0
  0
LINE
  5
4187
330
2
100
AcDbEntity
  8
SB150K-FP
100
AcDbLine
 10
1508.658895671955
 20
966.76323561756
 30
0.0
 11
1511.658895671955
 21
966.76323561756
 31
0.0
  0
LINE
  5
4188
330
2
100
AcDbEntity
  8
SB150K-FP
100
AcDbLine
 10
1501.658895671955
 20
952.7632356175599
 30
0.0
 11
1501.658895671955
 21
935.7632356175599
 31
0.0
  0
ARC
  5
4189
330
2
100
AcDbEntity
  8
SB150K-FP
100
AcDbCircle
 10
1485.41808505051
 20
944.2632356175598
 30
0.0
 40
16.24081062144507
100
AcDbArc
 50
342.4120462260054
 51
17.58795377399459
  0
ARC
  5
418A
330
2
100
AcDbEntity
  8
SB150K-FP
100
AcDbCircle
 10
1492.779300982677
 20
952.7632356175599
 30
0.0
 40
8.879594689277416
100
AcDbArc
 50
336.1350745839488
 51
0.0
  0
LINE
  5
418B
330
2
100
AcDbEntity
  8
SB150K-FP
100
AcDbLine
 10
1501.658895671955
 20
952.7632356175599
 30
0.0
 11
1500.8997062934
 21
954.0781901937837
 31
0.0
  0
ARC
  5
418C
330
2
100
AcDbEntity
  8
SB150K-FP
100
AcDbCircle
 10
1492.779300982677
 20
935.7632356175598
 30
0.0
 40
8.879594689277416
100
AcDbArc
 50
0.0
 51
23.8649254160512
  0
LINE
  5
418D
330
2
100
AcDbEntity
  8
SB150K-FP
100
AcDbLine
 10
1501.658895671955
 20
935.7632356175599
 30
0.0
 11
1500.8997062934
 21
934.4482810413362
 31
0.0
  0
LINE
  5
418E
330
2
100
AcDbEntity
  8
SB150K-FP
100
AcDbLine
 10
1500.8997062934
 20
934.4482810413362
 30
0.0
 11
1494.658895671955
 21
934.4482810413362
 31
0.0
  0
LINE
  5
418F
330
2
100
AcDbEntity
  8
SB150K-FP
100
AcDbLine
 10
1500.8997062934
 20
939.3557583294482
 30
0.0
 11
1494.658895671955
 21
939.3557583294482
 31
0.0
  0
LINE
  5
4190
330
2
100
AcDbEntity
  8
SB150K-FP
100
AcDbLine
 10
1500.8997062934
 20
939.3557583294482
 30
0.0
 11
1494.658895671955
 21
939.3557583294482
 31
0.0
  0
LINE
  5
4191
330
2
100
AcDbEntity
  8
SB150K-FP
100
AcDbLine
 10
1500.8997062934
 20
949.1707129056717
 30
0.0
 11
1494.658895671955
 21
949.1707129056717
 31
0.0
  0
LINE
  5
4192
330
2
100
AcDbEntity
  8
SB150K-FP
100
AcDbLine
 10
1500.8997062934
 20
954.0781901937837
 30
0.0
 11
1494.658895671955
 21
954.0781901937837
 31
0.0
  0
LINE
  5
4193
330
2
100
AcDbEntity
  8
SB150K-FP
100
AcDbLine
 10
1494.658895671955
 20
934.4482810413362
 30
0.0
 11
1494.658895671955
 21
954.0781901937837
 31
0.0
  0
LINE
  5
4194
330
2
100
AcDbEntity
  8
SB150K-FP
100
AcDbLine
 10
1502.658895671955
 20
935.7632356175601
 30
0.0
 11
1508.658895671955
 21
925.370930772147
 31
0.0
  0
LINE
  5
4195
330
2
100
AcDbEntity
  8
SB150K-FP
100
AcDbLine
 10
1502.658895671955
 20
952.7632356175599
 30
0.0
 11
1508.658895671955
 21
963.1555404629732
 31
0.0
  0
LINE
  5
4196
330
2
100
AcDbEntity
  8
SB150K-FP
100
AcDbLine
 10
1502.658895671955
 20
935.7632356175601
 30
0.0
 11
1502.658895671955
 21
952.7632356175601
 31
0.0
  0
LINE
  5
4197
330
2
100
AcDbEntity
  8
SB150K-FP
100
AcDbLine
 10
1502.658895671955
 20
952.7632356175599
 30
0.0
 11
1501.658895671955
 21
952.7632356175599
 31
0.0
  0
LINE
  5
4198
330
2
100
AcDbEntity
  8
SB150K-FP
100
AcDbLine
 10
1502.658895671955
 20
935.7632356175601
 30
0.0
 11
1501.658895671955
 21
935.7632356175599
 31
0.0
  0
ARC
  5
41A4
330
2
100
AcDbEntity
  8
SB150K-FP
100
AcDbCircle
 10
1473.41808505051
 20
944.2632356175598
 30
0.0
 40
16.24081062144507
100
AcDbArc
 50
342.4120462260054
 51
17.58795377399459
  0
LINE
  5
41A5
330
2
100
AcDbEntity
  8
SB150K-FP
100
AcDbLine
 10
1489.658895671955
 20
952.7632356175599
 30
0.0
 11
1489.658895671955
 21
935.7632356175599
 31
0.0
  0
LINE
  5
41A8
330
2
100
AcDbEntity
  8
SB150K-FP
100
AcDbLine
 10
1489.658895671955
 20
935.7632356175599
 30
0.0
 11
1488.8997062934
 21
934.4482810413362
 31
0.0
  0
ARC
  5
41A9
330
2
100
AcDbEntity
  8
SB150K-FP
100
AcDbCircle
 10
1480.779300982677
 20
935.7632356175598
 30
0.0
 40
8.879594689277416
100
AcDbArc
 50
0.0
 51
23.8649254160512
  0
LINE
  5
41AA
330
2
100
AcDbEntity
  8
SB150K-FP
100
AcDbLine
 10
1481.15889567184
 20
934.4482810413362
 30
0.0
 11
1488.8997062934
 21
934.4482810413362
 31
0.0
  0
LINE
  5
41AB
330
2
100
AcDbEntity
  8
SB150K-FP
100
AcDbLine
 10
1481.15889567184
 20
939.3557583294482
 30
0.0
 11
1488.8997062934
 21
939.3557583294482
 31
0.0
  0
LINE
  5
41AC
330
2
100
AcDbEntity
  8
SB150K-FP
100
AcDbLine
 10
1481.15889567184
 20
949.1707129056717
 30
0.0
 11
1487.658895671955
 21
949.1707129056717
 31
0.0
  0
LINE
  5
41AF
330
2
100
AcDbEntity
  8
SB150K-FP
100
AcDbLine
 10
1489.658895671955
 20
952.7632356175599
 30
0.0
 11
1488.8997062934
 21
954.0781901937837
 31
0.0
  0
ARC
  5
41B0
330
2
100
AcDbEntity
  8
SB150K-FP
100
AcDbCircle
 10
1480.779300982677
 20
952.7632356175599
 30
0.0
 40
8.879594689277416
100
AcDbArc
 50
336.1350745839488
 51
0.0
  0
LINE
  5
41B1
330
2
100
AcDbEntity
  8
SB150K-FP
100
AcDbLine
 10
1481.15889567184
 20
954.0781901937837
 30
0.0
 11
1488.8997062934
 21
954.0781901937837
 31
0.0
  0
LINE
  5
41B2
330
2
100
AcDbEntity
  8
SB150K-FP
100
AcDbLine
 10
1481.15889567184
 20
949.1707129056718
 30
0.0
 11
1488.8997062934
 21
949.1707129056715
 31
0.0
  0
LINE
  5
41B4
330
2
100
AcDbEntity
  8
SB150K-FP
100
AcDbLine
 10
1481.158895671839
 20
634.4482810413364
 30
0.0
 11
1488.8997062934
 21
634.4482810413364
 31
0.0
  0
LINE
  5
41B5
330
2
100
AcDbEntity
  8
SB150K-FP
100
AcDbLine
 10
1481.158895671838
 20
639.3557583294482
 30
0.0
 11
1488.8997062934
 21
639.3557583294483
 31
0.0
  0
LINE
  5
41B6
330
2
100
AcDbEntity
  8
SB150K-FP
100
AcDbLine
 10
1481.158895671838
 20
654.0781901937838
 30
0.0
 11
1488.8997062934
 21
654.0781901937838
 31
0.0
  0
LINE
  5
41B7
330
2
100
AcDbEntity
  8
SB150K-FP
100
AcDbLine
 10
1481.158895671838
 20
649.1707129056718
 30
0.0
 11
1488.8997062934
 21
649.1707129056716
 31
0.0
  0
LINE
  5
41C2
330
2
100
AcDbEntity
  8
SB150K-FP
100
AcDbLine
 10
1481.158895671839
 20
649.1707129056718
 30
0.0
 11
1487.658895671955
 21
649.1707129056718
 31
0.0
  0
LINE
  5
41C9
330
2
100
AcDbEntity
  8
SB150K-FP
100
AcDbLine
 10
1511.658895671955
 20
621.7632356175601
 30
0.0
 11
1511.658895671955
 21
666.7632356175601
 31
0.0
  0
LINE
  5
41CA
330
2
100
AcDbEntity
  8
SB150K-FP
100
AcDbLine
 10
1508.658895671955
 20
621.7632356175601
 30
0.0
 11
1508.658895671955
 21
666.7632356175601
 31
0.0
  0
LINE
  5
41CB
330
2
100
AcDbEntity
  8
SB150K-FP
100
AcDbLine
 10
1508.658895671955
 20
621.7632356175601
 30
0.0
 11
1511.658895671955
 21
621.7632356175601
 31
0.0
  0
LINE
  5
41CC
330
2
100
AcDbEntity
  8
SB150K-FP
100
AcDbLine
 10
1508.658895671955
 20
666.7632356175601
 30
0.0
 11
1511.658895671955
 21
666.7632356175601
 31
0.0
  0
LINE
  5
41CD
330
2
100
AcDbEntity
  8
SB150K-FP
100
AcDbLine
 10
1501.658895671955
 20
652.7632356175601
 30
0.0
 11
1501.658895671955
 21
635.76323561756
 31
0.0
  0
ARC
  5
41CE
330
2
100
AcDbEntity
  8
SB150K-FP
100
AcDbCircle
 10
1485.41808505051
 20
644.2632356175599
 30
0.0
 40
16.24081062144507
100
AcDbArc
 50
342.4120462260054
 51
17.58795377399459
  0
ARC
  5
41CF
330
2
100
AcDbEntity
  8
SB150K-FP
100
AcDbCircle
 10
1492.779300982677
 20
652.7632356175599
 30
0.0
 40
8.879594689277416
100
AcDbArc
 50
336.1350745839488
 51
0.0
  0
LINE
  5
41D0
330
2
100
AcDbEntity
  8
SB150K-FP
100
AcDbLine
 10
1501.658895671955
 20
652.7632356175601
 30
0.0
 11
1500.8997062934
 21
654.0781901937838
 31
0.0
  0
ARC
  5
41D1
330
2
100
AcDbEntity
  8
SB150K-FP
100
AcDbCircle
 10
1492.779300982677
 20
635.7632356175599
 30
0.0
 40
8.879594689277416
100
AcDbArc
 50
0.0
 51
23.8649254160512
  0
LINE
  5
41D2
330
2
100
AcDbEntity
  8
SB150K-FP
100
AcDbLine
 10
1501.658895671955
 20
635.76323561756
 30
0.0
 11
1500.8997062934
 21
634.4482810413364
 31
0.0
  0
LINE
  5
41D3
330
2
100
AcDbEntity
  8
SB150K-FP
100
AcDbLine
 10
1500.8997062934
 20
634.4482810413364
 30
0.0
 11
1494.658895671955
 21
634.4482810413364
 31
0.0
  0
LINE
  5
41D4
330
2
100
AcDbEntity
  8
SB150K-FP
100
AcDbLine
 10
1500.8997062934
 20
639.3557583294483
 30
0.0
 11
1494.658895671955
 21
639.3557583294483
 31
0.0
  0
LINE
  5
41D5
330
2
100
AcDbEntity
  8
SB150K-FP
100
AcDbLine
 10
1500.8997062934
 20
639.3557583294483
 30
0.0
 11
1494.658895671955
 21
639.3557583294483
 31
0.0
  0
LINE
  5
41D6
330
2
100
AcDbEntity
  8
SB150K-FP
100
AcDbLine
 10
1500.8997062934
 20
649.1707129056718
 30
0.0
 11
1494.658895671955
 21
649.1707129056718
 31
0.0
  0
LINE
  5
41D7
330
2
100
AcDbEntity
  8
SB150K-FP
100
AcDbLine
 10
1500.8997062934
 20
654.0781901937838
 30
0.0
 11
1494.658895671955
 21
654.0781901937838
 31
0.0
  0
LINE
  5
41D8
330
2
100
AcDbEntity
  8
SB150K-FP
100
AcDbLine
 10
1494.658895671955
 20
634.4482810413364
 30
0.0
 11
1494.658895671955
 21
654.0781901937838
 31
0.0
  0
LINE
  5
41D9
330
2
100
AcDbEntity
  8
SB150K-FP
100
AcDbLine
 10
1502.658895671955
 20
635.7632356175603
 30
0.0
 11
1508.658895671955
 21
625.3709307721471
 31
0.0
  0
LINE
  5
41DA
330
2
100
AcDbEntity
  8
SB150K-FP
100
AcDbLine
 10
1502.658895671955
 20
652.7632356175601
 30
0.0
 11
1508.658895671955
 21
663.1555404629733
 31
0.0
  0
LINE
  5
41DB
330
2
100
AcDbEntity
  8
SB150K-FP
100
AcDbLine
 10
1502.658895671955
 20
635.7632356175603
 30
0.0
 11
1502.658895671955
 21
652.7632356175603
 31
0.0
  0
LINE
  5
41DC
330
2
100
AcDbEntity
  8
SB150K-FP
100
AcDbLine
 10
1502.658895671955
 20
652.7632356175601
 30
0.0
 11
1501.658895671955
 21
652.7632356175601
 31
0.0
  0
LINE
  5
41DD
330
2
100
AcDbEntity
  8
SB150K-FP
100
AcDbLine
 10
1502.658895671955
 20
635.7632356175603
 30
0.0
 11
1501.658895671955
 21
635.76323561756
 31
0.0
  0
ARC
  5
41DE
330
2
100
AcDbEntity
  8
SB150K-FP
100
AcDbCircle
 10
1473.41808505051
 20
644.2632356175599
 30
0.0
 40
16.24081062144507
100
AcDbArc
 50
342.4120462260054
 51
17.58795377399459
  0
LINE
  5
41DF
330
2
100
AcDbEntity
  8
SB150K-FP
100
AcDbLine
 10
1489.658895671955
 20
652.7632356175601
 30
0.0
 11
1489.658895671955
 21
635.76323561756
 31
0.0
  0
LINE
  5
41E0
330
2
100
AcDbEntity
  8
SB150K-FP
100
AcDbLine
 10
1489.658895671955
 20
635.76323561756
 30
0.0
 11
1488.8997062934
 21
634.4482810413364
 31
0.0
  0
ARC
  5
41E1
330
2
100
AcDbEntity
  8
SB150K-FP
100
AcDbCircle
 10
1480.779300982677
 20
635.7632356175599
 30
0.0
 40
8.879594689277416
100
AcDbArc
 50
0.0
 51
23.8649254160512
  0
LINE
  5
41E2
330
2
100
AcDbEntity
  8
SB150K-FP
100
AcDbLine
 10
1489.658895671955
 20
652.7632356175601
 30
0.0
 11
1488.8997062934
 21
654.0781901937838
 31
0.0
  0
ARC
  5
41E3
330
2
100
AcDbEntity
  8
SB150K-FP
100
AcDbCircle
 10
1480.779300982677
 20
652.7632356175599
 30
0.0
 40
8.879594689277416
100
AcDbArc
 50
336.1350745839488
 51
0.0
  0
LINE
  5
41E4
330
2
100
AcDbEntity
  8
SB150K-FP
100
AcDbLine
 10
248.5998758170297
 20
666.76323561756
 30
0.0
 11
248.5998758170297
 21
621.76323561756
 31
0.0
  0
LINE
  5
41E5
330
2
100
AcDbEntity
  8
SB150K-FP
100
AcDbLine
 10
251.5998758170297
 20
666.76323561756
 30
0.0
 11
251.5998758170297
 21
621.76323561756
 31
0.0
  0
LINE
  5
41E6
330
2
100
AcDbEntity
  8
SB150K-FP
100
AcDbLine
 10
251.5998758170297
 20
666.76323561756
 30
0.0
 11
248.5998758170297
 21
666.76323561756
 31
0.0
  0
LINE
  5
41E7
330
2
100
AcDbEntity
  8
SB150K-FP
100
AcDbLine
 10
251.5998758170297
 20
621.76323561756
 30
0.0
 11
248.5998758170297
 21
621.76323561756
 31
0.0
  0
LINE
  5
41E8
330
2
100
AcDbEntity
  8
SB150K-FP
100
AcDbLine
 10
258.5998758170297
 20
635.7632356175599
 30
0.0
 11
258.5998758170297
 21
652.7632356175599
 31
0.0
  0
ARC
  5
41E9
330
2
100
AcDbEntity
  8
SB150K-FP
100
AcDbCircle
 10
274.8406864384747
 20
644.2632356175599
 30
0.0
 40
16.24081062144507
100
AcDbArc
 50
162.4120462260054
 51
197.5879537739946
  0
ARC
  5
41EA
330
2
100
AcDbEntity
  8
SB150K-FP
100
AcDbCircle
 10
267.479470506307
 20
635.7632356175599
 30
0.0
 40
8.879594689277416
100
AcDbArc
 50
156.1350745839487
 51
180.0
  0
LINE
  5
41EB
330
2
100
AcDbEntity
  8
SB150K-FP
100
AcDbLine
 10
258.5998758170297
 20
635.7632356175599
 30
0.0
 11
259.3590651955844
 21
634.4482810413362
 31
0.0
  0
ARC
  5
41EC
330
2
100
AcDbEntity
  8
SB150K-FP
100
AcDbCircle
 10
267.479470506307
 20
652.7632356175599
 30
0.0
 40
8.879594689277416
100
AcDbArc
 50
180.0
 51
203.8649254160512
  0
LINE
  5
41ED
330
2
100
AcDbEntity
  8
SB150K-FP
100
AcDbLine
 10
258.5998758170297
 20
652.7632356175599
 30
0.0
 11
259.3590651955844
 21
654.0781901937837
 31
0.0
  0
LINE
  5
41EE
330
2
100
AcDbEntity
  8
SB150K-FP
100
AcDbLine
 10
259.3590651955844
 20
654.0781901937837
 30
0.0
 11
265.5998758170297
 21
654.0781901937837
 31
0.0
  0
LINE
  5
41EF
330
2
100
AcDbEntity
  8
SB150K-FP
100
AcDbLine
 10
259.3590651955844
 20
649.1707129056717
 30
0.0
 11
265.5998758170297
 21
649.1707129056717
 31
0.0
  0
LINE
  5
41F0
330
2
100
AcDbEntity
  8
SB150K-FP
100
AcDbLine
 10
259.3590651955844
 20
649.1707129056717
 30
0.0
 11
265.5998758170297
 21
649.1707129056717
 31
0.0
  0
LINE
  5
41F1
330
2
100
AcDbEntity
  8
SB150K-FP
100
AcDbLine
 10
259.3590651955844
 20
639.3557583294482
 30
0.0
 11
265.5998758170297
 21
639.3557583294482
 31
0.0
  0
LINE
  5
41F2
330
2
100
AcDbEntity
  8
SB150K-FP
100
AcDbLine
 10
259.3590651955844
 20
634.4482810413362
 30
0.0
 11
265.5998758170297
 21
634.4482810413362
 31
0.0
  0
LINE
  5
41F3
330
2
100
AcDbEntity
  8
SB150K-FP
100
AcDbLine
 10
265.5998758170297
 20
654.0781901937837
 30
0.0
 11
265.5998758170297
 21
634.4482810413362
 31
0.0
  0
LINE
  5
41F4
330
2
100
AcDbEntity
  8
SB150K-FP
100
AcDbLine
 10
257.5998758170296
 20
652.7632356175598
 30
0.0
 11
251.5998758170297
 21
663.155540462973
 31
0.0
  0
LINE
  5
41F5
330
2
100
AcDbEntity
  8
SB150K-FP
100
AcDbLine
 10
257.5998758170296
 20
635.7632356175599
 30
0.0
 11
251.5998758170297
 21
625.3709307721467
 31
0.0
  0
LINE
  5
41F6
330
2
100
AcDbEntity
  8
SB150K-FP
100
AcDbLine
 10
257.5998758170296
 20
652.7632356175598
 30
0.0
 11
257.5998758170296
 21
635.7632356175598
 31
0.0
  0
LINE
  5
41F7
330
2
100
AcDbEntity
  8
SB150K-FP
100
AcDbLine
 10
257.5998758170296
 20
635.7632356175599
 30
0.0
 11
258.5998758170297
 21
635.7632356175599
 31
0.0
  0
LINE
  5
41F8
330
2
100
AcDbEntity
  8
SB150K-FP
100
AcDbLine
 10
257.5998758170296
 20
652.7632356175598
 30
0.0
 11
258.5998758170297
 21
652.7632356175599
 31
0.0
  0
ARC
  5
4204
330
2
100
AcDbEntity
  8
SB150K-FP
100
AcDbCircle
 10
286.8406864384747
 20
644.2632356175599
 30
0.0
 40
16.24081062144507
100
AcDbArc
 50
162.4120462260054
 51
197.5879537739946
  0
LINE
  5
4205
330
2
100
AcDbEntity
  8
SB150K-FP
100
AcDbLine
 10
270.5998758170297
 20
635.7632356175599
 30
0.0
 11
270.5998758170297
 21
652.7632356175599
 31
0.0
  0
LINE
  5
4208
330
2
100
AcDbEntity
  8
SB150K-FP
100
AcDbLine
 10
270.5998758170297
 20
652.7632356175599
 30
0.0
 11
271.3590651955846
 21
654.0781901937837
 31
0.0
  0
ARC
  5
4209
330
2
100
AcDbEntity
  8
SB150K-FP
100
AcDbCircle
 10
279.4794705063071
 20
652.7632356175599
 30
0.0
 40
8.879594689277416
100
AcDbArc
 50
180.0
 51
203.8649254160512
  0
LINE
  5
420A
330
2
100
AcDbEntity
  8
SB150K-FP
100
AcDbLine
 10
279.0998758171461
 20
654.0781901937837
 30
0.0
 11
271.3590651955846
 21
654.0781901937837
 31
0.0
  0
LINE
  5
420B
330
2
100
AcDbEntity
  8
SB150K-FP
100
AcDbLine
 10
279.0998758171461
 20
649.1707129056717
 30
0.0
 11
271.3590651955844
 21
649.1707129056717
 31
0.0
  0
LINE
  5
420C
330
2
100
AcDbEntity
  8
SB150K-FP
100
AcDbLine
 10
279.0998758171461
 20
639.3557583294482
 30
0.0
 11
272.5998758170297
 21
639.3557583294482
 31
0.0
  0
LINE
  5
420F
330
2
100
AcDbEntity
  8
SB150K-FP
100
AcDbLine
 10
270.5998758170297
 20
635.7632356175599
 30
0.0
 11
271.3590651955846
 21
634.4482810413362
 31
0.0
  0
ARC
  5
4210
330
2
100
AcDbEntity
  8
SB150K-FP
100
AcDbCircle
 10
279.4794705063071
 20
635.7632356175599
 30
0.0
 40
8.879594689277416
100
AcDbArc
 50
156.1350745839487
 51
180.0
  0
LINE
  5
4211
330
2
100
AcDbEntity
  8
SB150K-FP
100
AcDbLine
 10
279.0998758171461
 20
634.4482810413362
 30
0.0
 11
271.3590651955846
 21
634.4482810413362
 31
0.0
  0
LINE
  5
4212
330
2
100
AcDbEntity
  8
SB150K-FP
100
AcDbLine
 10
279.0998758171461
 20
639.3557583294482
 30
0.0
 11
271.3590651955846
 21
639.3557583294482
 31
0.0
  0
LINE
  5
4214
330
2
100
AcDbEntity
  8
SB150K-FP
100
AcDbLine
 10
248.5998758170296
 20
966.76323561756
 30
0.0
 11
248.5998758170296
 21
921.7632356175599
 31
0.0
  0
LINE
  5
4215
330
2
100
AcDbEntity
  8
SB150K-FP
100
AcDbLine
 10
251.5998758170296
 20
966.76323561756
 30
0.0
 11
251.5998758170296
 21
921.7632356175599
 31
0.0
  0
LINE
  5
4216
330
2
100
AcDbEntity
  8
SB150K-FP
100
AcDbLine
 10
251.5998758170296
 20
966.76323561756
 30
0.0
 11
248.5998758170296
 21
966.76323561756
 31
0.0
  0
LINE
  5
4217
330
2
100
AcDbEntity
  8
SB150K-FP
100
AcDbLine
 10
251.5998758170296
 20
921.7632356175599
 30
0.0
 11
248.5998758170296
 21
921.7632356175599
 31
0.0
  0
LINE
  5
4218
330
2
100
AcDbEntity
  8
SB150K-FP
100
AcDbLine
 10
258.5998758170295
 20
935.7632356175599
 30
0.0
 11
258.5998758170295
 21
952.7632356175599
 31
0.0
  0
ARC
  5
4219
330
2
100
AcDbEntity
  8
SB150K-FP
100
AcDbCircle
 10
274.8406864384747
 20
944.26323561756
 30
0.0
 40
16.24081062144507
100
AcDbArc
 50
162.4120462260054
 51
197.5879537739946
  0
ARC
  5
421A
330
2
100
AcDbEntity
  8
SB150K-FP
100
AcDbCircle
 10
267.479470506307
 20
935.7632356175599
 30
0.0
 40
8.879594689277416
100
AcDbArc
 50
156.1350745839487
 51
180.0
  0
LINE
  5
421B
330
2
100
AcDbEntity
  8
SB150K-FP
100
AcDbLine
 10
258.5998758170295
 20
935.7632356175599
 30
0.0
 11
259.3590651955844
 21
934.4482810413362
 31
0.0
  0
ARC
  5
421C
330
2
100
AcDbEntity
  8
SB150K-FP
100
AcDbCircle
 10
267.479470506307
 20
952.7632356175599
 30
0.0
 40
8.879594689277416
100
AcDbArc
 50
180.0
 51
203.8649254160512
  0
LINE
  5
421D
330
2
100
AcDbEntity
  8
SB150K-FP
100
AcDbLine
 10
258.5998758170295
 20
952.7632356175599
 30
0.0
 11
259.3590651955844
 21
954.0781901937837
 31
0.0
  0
LINE
  5
421E
330
2
100
AcDbEntity
  8
SB150K-FP
100
AcDbLine
 10
259.3590651955844
 20
954.0781901937837
 30
0.0
 11
265.5998758170296
 21
954.0781901937837
 31
0.0
  0
LINE
  5
421F
330
2
100
AcDbEntity
  8
SB150K-FP
100
AcDbLine
 10
259.3590651955844
 20
949.1707129056717
 30
0.0
 11
265.5998758170296
 21
949.1707129056717
 31
0.0
  0
LINE
  5
4220
330
2
100
AcDbEntity
  8
SB150K-FP
100
AcDbLine
 10
259.3590651955844
 20
949.1707129056717
 30
0.0
 11
265.5998758170296
 21
949.1707129056717
 31
0.0
  0
LINE
  5
4221
330
2
100
AcDbEntity
  8
SB150K-FP
100
AcDbLine
 10
259.3590651955844
 20
939.3557583294482
 30
0.0
 11
265.5998758170296
 21
939.3557583294482
 31
0.0
  0
LINE
  5
4222
330
2
100
AcDbEntity
  8
SB150K-FP
100
AcDbLine
 10
259.3590651955844
 20
934.4482810413362
 30
0.0
 11
265.5998758170296
 21
934.4482810413362
 31
0.0
  0
LINE
  5
4223
330
2
100
AcDbEntity
  8
SB150K-FP
100
AcDbLine
 10
265.5998758170296
 20
954.0781901937837
 30
0.0
 11
265.5998758170296
 21
934.4482810413362
 31
0.0
  0
LINE
  5
4224
330
2
100
AcDbEntity
  8
SB150K-FP
100
AcDbLine
 10
257.5998758170296
 20
952.7632356175598
 30
0.0
 11
251.5998758170296
 21
963.1555404629731
 31
0.0
  0
LINE
  5
4225
330
2
100
AcDbEntity
  8
SB150K-FP
100
AcDbLine
 10
257.5998758170296
 20
935.7632356175599
 30
0.0
 11
251.5998758170296
 21
925.3709307721466
 31
0.0
  0
LINE
  5
4226
330
2
100
AcDbEntity
  8
SB150K-FP
100
AcDbLine
 10
257.5998758170296
 20
952.7632356175598
 30
0.0
 11
257.5998758170296
 21
935.7632356175598
 31
0.0
  0
LINE
  5
4227
330
2
100
AcDbEntity
  8
SB150K-FP
100
AcDbLine
 10
257.5998758170296
 20
935.7632356175599
 30
0.0
 11
258.5998758170295
 21
935.7632356175599
 31
0.0
  0
LINE
  5
4228
330
2
100
AcDbEntity
  8
SB150K-FP
100
AcDbLine
 10
257.5998758170296
 20
952.7632356175598
 30
0.0
 11
258.5998758170295
 21
952.7632356175599
 31
0.0
  0
ARC
  5
4234
330
2
100
AcDbEntity
  8
SB150K-FP
100
AcDbCircle
 10
286.8406864384747
 20
944.26323561756
 30
0.0
 40
16.24081062144507
100
AcDbArc
 50
162.4120462260054
 51
197.5879537739946
  0
LINE
  5
4235
330
2
100
AcDbEntity
  8
SB150K-FP
100
AcDbLine
 10
270.5998758170296
 20
935.7632356175599
 30
0.0
 11
270.5998758170296
 21
952.7632356175599
 31
0.0
  0
LINE
  5
4238
330
2
100
AcDbEntity
  8
SB150K-FP
100
AcDbLine
 10
270.5998758170296
 20
952.7632356175599
 30
0.0
 11
271.3590651955844
 21
954.0781901937837
 31
0.0
  0
ARC
  5
4239
330
2
100
AcDbEntity
  8
SB150K-FP
100
AcDbCircle
 10
279.4794705063071
 20
952.7632356175599
 30
0.0
 40
8.879594689277416
100
AcDbArc
 50
180.0
 51
203.8649254160512
  0
LINE
  5
423A
330
2
100
AcDbEntity
  8
SB150K-FP
100
AcDbLine
 10
279.0998758171461
 20
954.0781901937837
 30
0.0
 11
271.3590651955844
 21
954.0781901937837
 31
0.0
  0
LINE
  5
423B
330
2
100
AcDbEntity
  8
SB150K-FP
100
AcDbLine
 10
279.0998758171461
 20
949.1707129056717
 30
0.0
 11
271.3590651955844
 21
949.1707129056718
 31
0.0
  0
LINE
  5
423C
330
2
100
AcDbEntity
  8
SB150K-FP
100
AcDbLine
 10
279.0998758171461
 20
939.3557583294482
 30
0.0
 11
272.5998758170296
 21
939.3557583294482
 31
0.0
  0
LINE
  5
423F
330
2
100
AcDbEntity
  8
SB150K-FP
100
AcDbLine
 10
270.5998758170296
 20
935.7632356175599
 30
0.0
 11
271.3590651955844
 21
934.4482810413362
 31
0.0
  0
ARC
  5
4240
330
2
100
AcDbEntity
  8
SB150K-FP
100
AcDbCircle
 10
279.4794705063071
 20
935.7632356175599
 30
0.0
 40
8.879594689277416
100
AcDbArc
 50
156.1350745839487
 51
180.0
  0
LINE
  5
4241
330
2
100
AcDbEntity
  8
SB150K-FP
100
AcDbLine
 10
279.0998758171461
 20
934.4482810413362
 30
0.0
 11
271.3590651955844
 21
934.4482810413362
 31
0.0
  0
LINE
  5
4242
330
2
100
AcDbEntity
  8
SB150K-FP
100
AcDbLine
 10
279.0998758171461
 20
939.3557583294482
 30
0.0
 11
271.3590651955844
 21
939.3557583294484
 31
0.0
  0
LINE
  5
4248
330
2
100
AcDbEntity
  8
SB150K-FP
100
AcDbLine
 10
1109.450142807103
 20
235.156702807491
 30
0.0
 11
1109.450142807103
 21
229.6196308303346
 31
0.0
  0
LINE
  5
4249
330
2
100
AcDbEntity
  8
SB150K-FP
100
AcDbLine
 10
1096.765097383326
 20
206.8604414517797
 30
0.0
 11
1141.765097383326
 21
206.8604414517797
 31
0.0
  0
LINE
  5
424A
330
2
100
AcDbEntity
  8
SB150K-FP
100
AcDbLine
 10
1096.765097383326
 20
209.8604414517797
 30
0.0
 11
1141.765097383326
 21
209.8604414517797
 31
0.0
  0
LINE
  5
424B
330
2
100
AcDbEntity
  8
SB150K-FP
100
AcDbLine
 10
1096.765097383326
 20
209.8604414517797
 30
0.0
 11
1096.765097383326
 21
206.8604414517797
 31
0.0
  0
LINE
  5
424C
330
2
100
AcDbEntity
  8
SB150K-FP
100
AcDbLine
 10
1141.765097383326
 20
209.8604414517797
 30
0.0
 11
1141.765097383326
 21
206.8604414517797
 31
0.0
  0
LINE
  5
424D
330
2
100
AcDbEntity
  8
SB150K-FP
100
AcDbLine
 10
1127.765097383326
 20
216.8604414517797
 30
0.0
 11
1110.765097383326
 21
216.8604414517797
 31
0.0
  0
ARC
  5
424E
330
2
100
AcDbEntity
  8
SB150K-FP
100
AcDbCircle
 10
1119.265097383326
 20
233.1012520732248
 30
0.0
 40
16.24081062144507
100
AcDbArc
 50
252.4120462260054
 51
287.5879537739946
  0
ARC
  5
424F
330
2
100
AcDbEntity
  8
SB150K-FP
100
AcDbCircle
 10
1127.765097383326
 20
225.7400361410571
 30
0.0
 40
8.879594689277416
100
AcDbArc
 50
246.1350745839488
 51
270.0
  0
LINE
  5
4250
330
2
100
AcDbEntity
  8
SB150K-FP
100
AcDbLine
 10
1127.765097383326
 20
216.8604414517797
 30
0.0
 11
1129.08005195955
 21
217.6196308303346
 31
0.0
  0
ARC
  5
4251
330
2
100
AcDbEntity
  8
SB150K-FP
100
AcDbCircle
 10
1110.765097383326
 20
225.7400361410571
 30
0.0
 40
8.879594689277416
100
AcDbArc
 50
270.0
 51
293.8649254160512
  0
LINE
  5
4252
330
2
100
AcDbEntity
  8
SB150K-FP
100
AcDbLine
 10
1110.765097383326
 20
216.8604414517797
 30
0.0
 11
1109.450142807103
 21
217.6196308303346
 31
0.0
  0
LINE
  5
4253
330
2
100
AcDbEntity
  8
SB150K-FP
100
AcDbLine
 10
1109.450142807103
 20
217.6196308303346
 30
0.0
 11
1109.450142807103
 21
223.8604414517798
 31
0.0
  0
LINE
  5
4254
330
2
100
AcDbEntity
  8
SB150K-FP
100
AcDbLine
 10
1114.357620095215
 20
217.6196308303346
 30
0.0
 11
1114.357620095215
 21
223.8604414517798
 31
0.0
  0
LINE
  5
4255
330
2
100
AcDbEntity
  8
SB150K-FP
100
AcDbLine
 10
1114.357620095215
 20
217.6196308303346
 30
0.0
 11
1114.357620095215
 21
223.8604414517798
 31
0.0
  0
LINE
  5
4256
330
2
100
AcDbEntity
  8
SB150K-FP
100
AcDbLine
 10
1124.172574671438
 20
217.6196308303346
 30
0.0
 11
1124.172574671438
 21
223.8604414517798
 31
0.0
  0
LINE
  5
4257
330
2
100
AcDbEntity
  8
SB150K-FP
100
AcDbLine
 10
1129.08005195955
 20
217.6196308303346
 30
0.0
 11
1129.08005195955
 21
223.8604414517798
 31
0.0
  0
LINE
  5
4258
330
2
100
AcDbEntity
  8
SB150K-FP
100
AcDbLine
 10
1109.450142807103
 20
223.8604414517798
 30
0.0
 11
1129.08005195955
 21
223.8604414517797
 31
0.0
  0
LINE
  5
4259
330
2
100
AcDbEntity
  8
SB150K-FP
100
AcDbLine
 10
1110.765097383326
 20
215.8604414517797
 30
0.0
 11
1100.372792537913
 21
209.8604414517797
 31
0.0
  0
LINE
  5
425A
330
2
100
AcDbEntity
  8
SB150K-FP
100
AcDbLine
 10
1127.765097383326
 20
215.8604414517797
 30
0.0
 11
1138.157402228739
 21
209.8604414517797
 31
0.0
  0
LINE
  5
425B
330
2
100
AcDbEntity
  8
SB150K-FP
100
AcDbLine
 10
1110.765097383326
 20
215.8604414517797
 30
0.0
 11
1127.765097383327
 21
215.8604414517797
 31
0.0
  0
LINE
  5
425C
330
2
100
AcDbEntity
  8
SB150K-FP
100
AcDbLine
 10
1127.765097383326
 20
215.8604414517797
 30
0.0
 11
1127.765097383326
 21
216.8604414517797
 31
0.0
  0
LINE
  5
425D
330
2
100
AcDbEntity
  8
SB150K-FP
100
AcDbLine
 10
1110.765097383326
 20
215.8604414517797
 30
0.0
 11
1110.765097383326
 21
216.8604414517797
 31
0.0
  0
ARC
  5
4269
330
2
100
AcDbEntity
  8
SB150K-FP
100
AcDbCircle
 10
1119.265097383326
 20
245.1012520732248
 30
0.0
 40
16.24081062144507
100
AcDbArc
 50
252.4120462260054
 51
287.5879537739946
  0
LINE
  5
426A
330
2
100
AcDbEntity
  8
SB150K-FP
100
AcDbLine
 10
1127.765097383326
 20
228.8604414517797
 30
0.0
 11
1110.765097383326
 21
228.8604414517797
 31
0.0
  0
LINE
  5
426D
330
2
100
AcDbEntity
  8
SB150K-FP
100
AcDbLine
 10
1110.765097383326
 20
228.8604414517797
 30
0.0
 11
1109.450142807103
 21
229.6196308303346
 31
0.0
  0
ARC
  5
426E
330
2
100
AcDbEntity
  8
SB150K-FP
100
AcDbCircle
 10
1110.765097383326
 20
237.7400361410571
 30
0.0
 40
8.879594689277416
100
AcDbArc
 50
270.0
 51
293.8649254160512
  0
LINE
  5
426F
330
2
100
AcDbEntity
  8
SB150K-FP
100
AcDbLine
 10
1114.357620095215
 20
236.3835721295189
 30
0.0
 11
1114.357620095215
 21
229.6196308303346
 31
0.0
  0
LINE
  5
4270
330
2
100
AcDbEntity
  8
SB150K-FP
100
AcDbLine
 10
1124.172574671438
 20
237.3604414517797
 30
0.0
 11
1124.172574671438
 21
230.8604414517797
 31
0.0
  0
LINE
  5
4273
330
2
100
AcDbEntity
  8
SB150K-FP
100
AcDbLine
 10
1127.765097383326
 20
228.8604414517797
 30
0.0
 11
1129.08005195955
 21
229.6196308303346
 31
0.0
  0
ARC
  5
4274
330
2
100
AcDbEntity
  8
SB150K-FP
100
AcDbCircle
 10
1127.765097383326
 20
237.7400361410571
 30
0.0
 40
8.879594689277416
100
AcDbArc
 50
246.1350745839488
 51
270.0
  0
LINE
  5
4275
330
2
100
AcDbEntity
  8
SB150K-FP
100
AcDbLine
 10
1129.08005195955
 20
237.3604414517797
 30
0.0
 11
1129.08005195955
 21
229.6196308303346
 31
0.0
  0
LINE
  5
4276
330
2
100
AcDbEntity
  8
SB150K-FP
100
AcDbLine
 10
1124.172574671438
 20
237.3604414517797
 30
0.0
 11
1124.172574671438
 21
229.6196308303346
 31
0.0
  0
LINE
  5
4278
330
2
100
AcDbEntity
  8
SB150K-FP
100
AcDbLine
 10
669.4501428071028
 20
237.3604414517797
 30
0.0
 11
669.4501428071028
 21
229.6196308303346
 31
0.0
  0
LINE
  5
4279
330
2
100
AcDbEntity
  8
SB150K-FP
100
AcDbLine
 10
656.7650973833265
 20
206.8604414517797
 30
0.0
 11
701.7650973833265
 21
206.8604414517797
 31
0.0
  0
LINE
  5
427A
330
2
100
AcDbEntity
  8
SB150K-FP
100
AcDbLine
 10
656.7650973833265
 20
209.8604414517797
 30
0.0
 11
701.7650973833265
 21
209.8604414517797
 31
0.0
  0
LINE
  5
427B
330
2
100
AcDbEntity
  8
SB150K-FP
100
AcDbLine
 10
656.7650973833265
 20
209.8604414517797
 30
0.0
 11
656.7650973833265
 21
206.8604414517797
 31
0.0
  0
LINE
  5
427C
330
2
100
AcDbEntity
  8
SB150K-FP
100
AcDbLine
 10
701.7650973833265
 20
209.8604414517797
 30
0.0
 11
701.7650973833265
 21
206.8604414517797
 31
0.0
  0
LINE
  5
427D
330
2
100
AcDbEntity
  8
SB150K-FP
100
AcDbLine
 10
687.7650973833265
 20
216.8604414517797
 30
0.0
 11
670.7650973833265
 21
216.8604414517797
 31
0.0
  0
ARC
  5
427E
330
2
100
AcDbEntity
  8
SB150K-FP
100
AcDbCircle
 10
679.2650973833265
 20
233.1012520732248
 30
0.0
 40
16.24081062144507
100
AcDbArc
 50
252.4120462260054
 51
287.5879537739946
  0
ARC
  5
427F
330
2
100
AcDbEntity
  8
SB150K-FP
100
AcDbCircle
 10
687.7650973833265
 20
225.7400361410571
 30
0.0
 40
8.879594689277416
100
AcDbArc
 50
246.1350745839488
 51
270.0
  0
LINE
  5
4280
330
2
100
AcDbEntity
  8
SB150K-FP
100
AcDbLine
 10
687.7650973833265
 20
216.8604414517797
 30
0.0
 11
689.0800519595502
 21
217.6196308303346
 31
0.0
  0
ARC
  5
4281
330
2
100
AcDbEntity
  8
SB150K-FP
100
AcDbCircle
 10
670.7650973833265
 20
225.7400361410571
 30
0.0
 40
8.879594689277416
100
AcDbArc
 50
270.0
 51
293.8649254160512
  0
LINE
  5
4282
330
2
100
AcDbEntity
  8
SB150K-FP
100
AcDbLine
 10
670.7650973833265
 20
216.8604414517797
 30
0.0
 11
669.4501428071028
 21
217.6196308303346
 31
0.0
  0
LINE
  5
4283
330
2
100
AcDbEntity
  8
SB150K-FP
100
AcDbLine
 10
669.4501428071028
 20
217.6196308303346
 30
0.0
 11
669.4501428071028
 21
223.8604414517798
 31
0.0
  0
LINE
  5
4284
330
2
100
AcDbEntity
  8
SB150K-FP
100
AcDbLine
 10
674.3576200952148
 20
217.6196308303346
 30
0.0
 11
674.3576200952148
 21
223.8604414517798
 31
0.0
  0
LINE
  5
4285
330
2
100
AcDbEntity
  8
SB150K-FP
100
AcDbLine
 10
674.3576200952148
 20
217.6196308303346
 30
0.0
 11
674.3576200952148
 21
223.8604414517798
 31
0.0
  0
LINE
  5
4286
330
2
100
AcDbEntity
  8
SB150K-FP
100
AcDbLine
 10
684.1725746714383
 20
217.6196308303346
 30
0.0
 11
684.1725746714383
 21
223.8604414517798
 31
0.0
  0
LINE
  5
4287
330
2
100
AcDbEntity
  8
SB150K-FP
100
AcDbLine
 10
689.0800519595502
 20
217.6196308303346
 30
0.0
 11
689.0800519595502
 21
223.8604414517798
 31
0.0
  0
LINE
  5
4288
330
2
100
AcDbEntity
  8
SB150K-FP
100
AcDbLine
 10
669.4501428071028
 20
223.8604414517798
 30
0.0
 11
689.0800519595502
 21
223.8604414517797
 31
0.0
  0
LINE
  5
4289
330
2
100
AcDbEntity
  8
SB150K-FP
100
AcDbLine
 10
670.7650973833267
 20
215.8604414517797
 30
0.0
 11
660.3727925379135
 21
209.8604414517797
 31
0.0
  0
LINE
  5
428A
330
2
100
AcDbEntity
  8
SB150K-FP
100
AcDbLine
 10
687.7650973833265
 20
215.8604414517797
 30
0.0
 11
698.1574022287397
 21
209.8604414517797
 31
0.0
  0
LINE
  5
428B
330
2
100
AcDbEntity
  8
SB150K-FP
100
AcDbLine
 10
670.7650973833267
 20
215.8604414517797
 30
0.0
 11
687.7650973833267
 21
215.8604414517797
 31
0.0
  0
LINE
  5
428C
330
2
100
AcDbEntity
  8
SB150K-FP
100
AcDbLine
 10
687.7650973833265
 20
215.8604414517797
 30
0.0
 11
687.7650973833265
 21
216.8604414517797
 31
0.0
  0
LINE
  5
428D
330
2
100
AcDbEntity
  8
SB150K-FP
100
AcDbLine
 10
670.7650973833267
 20
215.8604414517797
 30
0.0
 11
670.7650973833265
 21
216.8604414517797
 31
0.0
  0
ARC
  5
4298
330
2
100
AcDbEntity
  8
SB150K-FP
100
AcDbCircle
 10
679.2650973833265
 20
245.1012520732248
 30
0.0
 40
16.24081062144507
100
AcDbArc
 50
252.4120462260054
 51
287.5879537739946
  0
LINE
  5
4299
330
2
100
AcDbEntity
  8
SB150K-FP
100
AcDbLine
 10
687.7650973833265
 20
228.8604414517797
 30
0.0
 11
670.7650973833265
 21
228.8604414517797
 31
0.0
  0
LINE
  5
429C
330
2
100
AcDbEntity
  8
SB150K-FP
100
AcDbLine
 10
670.7650973833265
 20
228.8604414517797
 30
0.0
 11
669.4501428071028
 21
229.6196308303346
 31
0.0
  0
ARC
  5
429D
330
2
100
AcDbEntity
  8
SB150K-FP
100
AcDbCircle
 10
670.7650973833265
 20
237.7400361410571
 30
0.0
 40
8.879594689277416
100
AcDbArc
 50
270.0
 51
293.8649254160512
  0
LINE
  5
429E
330
2
100
AcDbEntity
  8
SB150K-FP
100
AcDbLine
 10
674.3576200952148
 20
237.3604414517797
 30
0.0
 11
674.3576200952148
 21
229.6196308303346
 31
0.0
  0
LINE
  5
429F
330
2
100
AcDbEntity
  8
SB150K-FP
100
AcDbLine
 10
684.1725746714383
 20
237.3604414517797
 30
0.0
 11
684.1725746714383
 21
230.8604414517797
 31
0.0
  0
LINE
  5
42A2
330
2
100
AcDbEntity
  8
SB150K-FP
100
AcDbLine
 10
687.7650973833265
 20
228.8604414517797
 30
0.0
 11
689.0800519595502
 21
229.6196308303346
 31
0.0
  0
ARC
  5
42A3
330
2
100
AcDbEntity
  8
SB150K-FP
100
AcDbCircle
 10
687.7650973833265
 20
237.7400361410571
 30
0.0
 40
8.879594689277416
100
AcDbArc
 50
246.1350745839488
 51
270.0
  0
LINE
  5
42A4
330
2
100
AcDbEntity
  8
SB150K-FP
100
AcDbLine
 10
689.0800519595502
 20
237.3604414517797
 30
0.0
 11
689.0800519595502
 21
229.6196308303346
 31
0.0
  0
LINE
  5
42A5
330
2
100
AcDbEntity
  8
SB150K-FP
100
AcDbLine
 10
684.1725746714383
 20
237.3604414517797
 30
0.0
 11
684.1725746714381
 21
229.6196308303346
 31
0.0
  0
LINE
  5
42A6
330
2
100
AcDbEntity
  8
CENTER
  6
CENTER
 48
0.5
100
AcDbLine
 10
679.2650973833265
 20
197.7820122937473
 30
0.0
 11
679.2650973833265
 21
248.4600256863778
 31
0.0
  0
LINE
  5
430B
330
2
100
AcDbEntity
  8
SB150K-FP
100
AcDbLine
 10
1164.265095974085
 20
826.7632356175599
 30
0.0
 11
1182.265097383326
 21
826.7632356175599
 31
0.0
  0
LINE
  5
430C
330
2
100
AcDbEntity
  8
SB150K-FP
100
AcDbLine
 10
1164.265095974085
 20
851.7632356175599
 30
0.0
 11
1182.265097383326
 21
851.7632356175599
 31
0.0
  0
LINE
  5
430D
330
2
100
AcDbEntity
  8
SB150K-FP
100
AcDbLine
 10
1187.265097383326
 20
846.7632356175599
 30
0.0
 11
1187.265097383326
 21
831.76323561756
 31
0.0
  0
LINE
  5
430E
330
2
100
AcDbEntity
  8
SB150K-FP
100
AcDbLine
 10
1187.265097383326
 20
831.76323561756
 30
0.0
 11
1182.265097383326
 21
826.7632356175599
 31
0.0
  0
LINE
  5
430F
330
2
100
AcDbEntity
  8
SB150K-FP
100
AcDbLine
 10
1187.265097383326
 20
846.7632356175599
 30
0.0
 11
1182.265097383326
 21
851.7632356175599
 31
0.0
  0
ARC
  5
4312
330
2
100
AcDbEntity
  8
SB150K-FP
100
AcDbCircle
 10
1174.265097383326
 20
839.2632356175599
 30
0.0
 40
10.3
100
AcDbArc
 50
193.8623993974554
 51
166.1376006025445
  0
CIRCLE
  5
4313
330
2
100
AcDbEntity
  8
SB150K-FP
100
AcDbCircle
 10
1174.265097383326
 20
839.2632356175599
 30
0.0
 40
8.599999999999999
  0
LINE
  5
4320
330
2
100
AcDbEntity
  8
SB150K-FP
100
AcDbLine
 10
1187.265097383326
 20
259.8604414517796
 30
0.0
 11
1187.265097383326
 21
244.8604414517796
 31
0.0
  0
LINE
  5
4321
330
2
100
AcDbEntity
  8
SB150K-FP
100
AcDbLine
 10
1187.265097383326
 20
244.8604414517796
 30
0.0
 11
1165.765095974086
 21
244.8604414517797
 31
0.0
  0
LINE
  5
4323
330
2
100
AcDbEntity
  8
SB150K-FP
100
AcDbLine
 10
1187.265097383326
 20
259.8604414517796
 30
0.0
 11
1165.765095974086
 21
259.8604414517797
 31
0.0
  0
LINE
  5
4324
330
2
100
AcDbEntity
  8
SB150K-FP
100
AcDbLine
 10
1182.265097383326
 20
259.8604414517796
 30
0.0
 11
1182.265097383326
 21
244.8604414517796
 31
0.0
  0
LINE
  5
4330
330
2
100
AcDbEntity
  8
SB150K-FP
100
AcDbLine
 10
1458.658895671955
 20
851.7632356175599
 30
0.0
 11
1473.658895671955
 21
851.7632356175599
 31
0.0
  0
LINE
  5
4331
330
2
100
AcDbEntity
  8
SB150K-FP
100
AcDbLine
 10
1473.658895671955
 20
851.7632356175599
 30
0.0
 11
1473.658895671955
 21
826.7632356175599
 31
0.0
  0
LINE
  5
4332
330
2
100
AcDbEntity
  8
SB150K-FP
100
AcDbLine
 10
1458.658895671955
 20
826.7632356175599
 30
0.0
 11
1473.658895671955
 21
826.7632356175599
 31
0.0
  0
LINE
  5
4333
330
2
100
AcDbEntity
  8
SB150K-FP
100
AcDbLine
 10
1458.658895671955
 20
851.7632356175599
 30
0.0
 11
1458.658895671955
 21
826.7632356175599
 31
0.0
  0
LINE
  5
4337
330
2
100
AcDbEntity
  8
SB150K-FP
100
AcDbLine
 10
1458.658895671955
 20
831.76323561756
 30
0.0
 11
1473.658895671955
 21
831.76323561756
 31
0.0
  0
LINE
  5
4338
330
2
100
AcDbEntity
  8
SB150K-FP
100
AcDbLine
 10
1458.658895671955
 20
846.7632356175599
 30
0.0
 11
1473.658895671955
 21
846.7632356175599
 31
0.0
  0
LINE
  5
43F9
330
2
100
AcDbEntity
  8
SB150K-FP
100
AcDbLine
 10
1443.158895671839
 20
859.2632432895827
 30
0.0
 11
1443.158895671839
 21
729.2632432895825
 31
0.0
  0
LINE
  5
43FB
330
2
100
AcDbEntity
  8
SB150K-FP
100
AcDbLine
 10
1480.158895671839
 20
864.2632432895824
 30
0.0
 11
1448.158895671839
 21
864.263243289583
 31
0.0
  0
LINE
  5
43FC
330
2
100
AcDbEntity
  8
SB150K-FP
100
AcDbLine
 10
1480.158895671839
 20
724.2632432895825
 30
0.0
 11
1448.158895671839
 21
724.2632432895825
 31
0.0
  0
LINE
  5
43FD
330
2
100
AcDbEntity
  8
SB150K-FP
100
AcDbLine
 10
1481.158895671839
 20
723.2632432895825
 30
0.0
 11
1481.158895671838
 21
599.2632432895824
 31
0.0
  0
ARC
  5
43FE
330
2
100
AcDbEntity
  8
SB150K-FP
100
AcDbCircle
 10
1448.158895671839
 20
859.2632432895827
 30
0.0
 40
5.0
100
AcDbArc
 50
90.0
 51
180.0
  0
ARC
  5
43FF
330
2
100
AcDbEntity
  8
SB150K-FP
100
AcDbCircle
 10
1448.158895671839
 20
729.2632432895825
 30
0.0
 40
5.0
100
AcDbArc
 50
180.0
 51
270.0
  0
LINE
  5
4400
330
2
100
AcDbEntity
  8
SB150K-FP
100
AcDbLine
 10
1480.158895671839
 20
864.2632432895824
 30
0.0
 11
1481.158895671839
 21
865.2632432895824
 31
0.0
  0
LINE
  5
4401
330
2
100
AcDbEntity
  8
SB150K-FP
100
AcDbLine
 10
1480.158895671839
 20
724.2632432895825
 30
0.0
 11
1481.158895671839
 21
723.2632432895825
 31
0.0
  0
DIMENSION
  5
443F
330
2
100
AcDbEntity
  8
MEASURE
100
AcDbDimension
  2
*D1
 10
531.2175749330681
 20
369.3604414517797
 30
0.0
 11
524.217574933068
 21
288.1104414517798
 31
0.0
 70
    32
  1
182.5（最大）
 71
     5
 42
162.5
  3
AD-STANDARD
100
AcDbAlignedDimension
 13
656.7650973833265
 23
206.8604414517797
 33
0.0
 14
635.7650959740854
 24
369.3604414517797
 34
0.0
 50
90.0
100
AcDbRotatedDimension
1001
ACAD
1000
DSTYLE
1002
{
1070
   140
1040
2.5
1070
    40
1040
4.0
1070
   141
1040
30.0
1002
}
  0
DIMENSION
  5
4487
330
2
100
AcDbEntity
  8
MEASURE
100
AcDbDimension
  2
*D2
 10
634.2650959740853
 20
499.2632432895828
 30
0.0
 11
899.2650959740856
 21
506.2632432895827
 31
0.0
 70
    32
 71
     5
 42
530.0000000000004
  3
AD-STANDARD
100
AcDbAlignedDimension
 13
1164.265095974086
 23
599.2632432895828
 33
0.0
 14
634.2650959740853
 24
599.2632432895828
 34
0.0
100
AcDbRotatedDimension
1001
ACAD
1000
DSTYLE
1002
{
1070
    40
1040
4.0
1070
   140
1040
2.5
1070
   141
1040
30.0
1002
}
  0
DIMENSION
  5
4494
330
2
100
AcDbEntity
  8
MEASURE
100
AcDbDimension
  2
*D3
 10
569.1016522407172
 20
989.2632432895828
 30
0.0
 11
562.1016522407169
 21
794.2632432895829
 31
0.0
 70
    32
 71
     5
 42
390.0
  3
AD-STANDARD
100
AcDbAlignedDimension
 13
634.2650959740853
 23
599.2632432895828
 33
0.0
 14
634.2650959740853
 24
989.2632432895828
 34
0.0
 50
90.0
100
AcDbRotatedDimension
1001
ACAD
1000
DSTYLE
1002
{
1070
    40
1040
4.0
1070
   140
1040
2.5
1070
   141
1040
30.0
1002
}
  0
DIMENSION
  5
44A3
330
2
100
AcDbEntity
  8
MEASURE
100
AcDbDimension
  2
*D4
 10
1187.265097383326
 20
499.2632432895828
 30
0.0
 11
1175.765096678706
 21
506.2632432895827
 31
0.0
 70
    32
 71
     5
 42
23.00000140924067
  3
AD-STANDARD
100
AcDbAlignedDimension
 13
1164.265095974086
 23
599.2632432895828
 33
0.0
 14
1187.265097383326
 24
831.76323561756
 34
0.0
100
AcDbRotatedDimension
1001
ACAD
1000
DSTYLE
1002
{
1070
    40
1040
4.0
1070
   140
1040
2.5
1070
   141
1040
30.0
1002
}
  0
LINE
  5
44B5
330
2
100
AcDbEntity
  8
SB150K-FP
100
AcDbLine
 10
1473.658895671954
 20
851.2632356175599
 30
0.0
 11
1474.658895671955
 21
851.2632356175599
 31
0.0
  0
ARC
  5
44B6
330
2
100
AcDbEntity
  8
SB150K-FP
100
AcDbCircle
 10
281.5998758170297
 20
813.26323561756
 30
0.0
 40
3.0
100
AcDbArc
 50
79.41540805447427
 51
90.0
  0
ARC
  5
44B7
330
2
100
AcDbEntity
  8
SB150K-FP
100
AcDbCircle
 10
281.5998758170297
 20
775.26323561756
 30
0.0
 40
3.0
100
AcDbArc
 50
340.5290909438511
 51
0.0
  0
LINE
  5
44D2
330
2
100
AcDbEntity
  8
SB150K-FP
100
AcDbLine
 10
689.0800519595502
 20
233.8604414516633
 30
0.0
 11
699.2650973833264
 21
233.8604414516633
 31
0.0
1001
ACAD
1000
ASC_BOUNDS
1002
{
1070
    19
1002
}
  0
LINE
  5
44DD
330
2
100
AcDbEntity
  8
CENTER
  6
CENTER
 48
0.5
100
AcDbLine
 10
1119.265097383326
 20
197.7820122937473
 30
0.0
 11
1119.265097383326
 21
248.4600256863778
 31
0.0
  0
LINE
  5
44E0
330
2
100
AcDbEntity
  8
CENTER
  6
CENTER
 48
0.5
100
AcDbLine
 10
239.5214466589973
 20
644.2632356175599
 30
0.0
 11
290.1994600516277
 21
644.2632356175599
 31
0.0
  0
LINE
  5
44F6
330
2
100
AcDbEntity
  8
CENTER
  6
CENTER
 48
0.5
100
AcDbLine
 10
239.5214466589972
 20
944.26323561756
 30
0.0
 11
290.1994600516276
 21
944.26323561756
 31
0.0
  0
LINE
  5
44F9
330
2
100
AcDbEntity
  8
SB150K-FP
100
AcDbLine
 10
684.2650973833265
 20
228.8604414517798
 30
0.0
 11
684.2650973833265
 21
223.8604414517797
 31
0.0
  0
LINE
  5
44FA
330
2
100
AcDbEntity
  8
SB150K-FP
100
AcDbLine
 10
674.2650973833264
 20
228.8604414517798
 30
0.0
 11
674.2650973833264
 21
223.8604414517797
 31
0.0
  0
LINE
  5
44FB
330
2
100
AcDbEntity
  8
SB150K-FP
 62
     8
100
AcDbLine
 10
683.7650973833265
 20
228.8604414517798
 30
0.0
 11
683.7650973833265
 21
223.8604414517797
 31
0.0
  0
LINE
  5
44FC
330
2
100
AcDbEntity
  8
SB150K-FP
 62
     8
100
AcDbLine
 10
674.7650973833265
 20
228.8604414517798
 30
0.0
 11
674.7650973833265
 21
223.8604414517797
 31
0.0
  0
LINE
  5
4513
330
2
100
AcDbEntity
  8
SB150K-FP
100
AcDbLine
 10
1124.265097383326
 20
228.8604414517797
 30
0.0
 11
1124.265097383326
 21
223.8604414517797
 31
0.0
  0
LINE
  5
4514
330
2
100
AcDbEntity
  8
SB150K-FP
100
AcDbLine
 10
1114.265097383326
 20
228.8604414517797
 30
0.0
 11
1114.265097383326
 21
223.8604414517797
 31
0.0
  0
LINE
  5
4515
330
2
100
AcDbEntity
  8
SB150K-FP
 62
     8
100
AcDbLine
 10
1123.765097383326
 20
228.8604414517797
 30
0.0
 11
1123.765097383326
 21
223.8604414517797
 31
0.0
  0
LINE
  5
4516
330
2
100
AcDbEntity
  8
SB150K-FP
 62
     8
100
AcDbLine
 10
1114.765097383326
 20
228.8604414517797
 30
0.0
 11
1114.765097383326
 21
223.8604414517797
 31
0.0
  0
LINE
  5
4517
330
2
100
AcDbEntity
  8
SB150K-FP
100
AcDbLine
 10
1494.658895671955
 20
649.2632356175601
 30
0.0
 11
1489.658895671955
 21
649.2632356175601
 31
0.0
  0
LINE
  5
4518
330
2
100
AcDbEntity
  8
SB150K-FP
100
AcDbLine
 10
1494.658895671955
 20
639.26323561756
 30
0.0
 11
1489.658895671955
 21
639.26323561756
 31
0.0
  0
LINE
  5
4519
330
2
100
AcDbEntity
  8
SB150K-FP
 62
     8
100
AcDbLine
 10
1494.658895671955
 20
639.76323561756
 30
0.0
 11
1489.658895671955
 21
639.76323561756
 31
0.0
  0
LINE
  5
451A
330
2
100
AcDbEntity
  8
SB150K-FP
 62
     8
100
AcDbLine
 10
1494.658895671955
 20
648.7632356175601
 30
0.0
 11
1489.658895671955
 21
648.7632356175601
 31
0.0
  0
LINE
  5
451B
330
2
100
AcDbEntity
  8
SB150K-FP
100
AcDbLine
 10
1489.658895671955
 20
949.2632356175599
 30
0.0
 11
1494.658895671955
 21
949.2632356175599
 31
0.0
  0
LINE
  5
451C
330
2
100
AcDbEntity
  8
SB150K-FP
100
AcDbLine
 10
1489.658895671955
 20
939.2632356175599
 30
0.0
 11
1494.658895671955
 21
939.2632356175599
 31
0.0
  0
LINE
  5
451D
330
2
100
AcDbEntity
  8
SB150K-FP
 62
     8
100
AcDbLine
 10
1489.658895671955
 20
939.76323561756
 30
0.0
 11
1494.658895671955
 21
939.76323561756
 31
0.0
  0
LINE
  5
451E
330
2
100
AcDbEntity
  8
SB150K-FP
 62
     8
100
AcDbLine
 10
1489.658895671955
 20
948.76323561756
 30
0.0
 11
1494.658895671955
 21
948.76323561756
 31
0.0
  0
LINE
  5
451F
330
2
100
AcDbEntity
  8
SB150K-FP
100
AcDbLine
 10
265.5998758170296
 20
949.2632356175599
 30
0.0
 11
270.5998758170296
 21
949.2632356175599
 31
0.0
  0
LINE
  5
4521
330
2
100
AcDbEntity
  8
SB150K-FP
100
AcDbLine
 10
265.5998758170296
 20
939.2632356175599
 30
0.0
 11
270.5998758170296
 21
939.2632356175599
 31
0.0
  0
LINE
  5
4522
330
2
100
AcDbEntity
  8
SB150K-FP
 62
     8
100
AcDbLine
 10
265.5998758170296
 20
948.76323561756
 30
0.0
 11
270.5998758170296
 21
948.76323561756
 31
0.0
  0
LINE
  5
4523
330
2
100
AcDbEntity
  8
SB150K-FP
 62
     8
100
AcDbLine
 10
265.5998758170296
 20
939.76323561756
 30
0.0
 11
270.5998758170296
 21
939.76323561756
 31
0.0
  0
LINE
  5
4524
330
2
100
AcDbEntity
  8
SB150K-FP
100
AcDbLine
 10
265.5998758170297
 20
649.2632356175599
 30
0.0
 11
270.5998758170296
 21
649.2632356175599
 31
0.0
  0
LINE
  5
4525
330
2
100
AcDbEntity
  8
SB150K-FP
100
AcDbLine
 10
265.5998758170297
 20
639.2632356175599
 30
0.0
 11
270.5998758170296
 21
639.2632356175599
 31
0.0
  0
LINE
  5
4526
330
2
100
AcDbEntity
  8
SB150K-FP
 62
     8
100
AcDbLine
 10
265.5998758170297
 20
639.7632356175599
 30
0.0
 11
270.5998758170296
 21
639.7632356175599
 31
0.0
  0
LINE
  5
4527
330
2
100
AcDbEntity
  8
SB150K-FP
 62
     8
100
AcDbLine
 10
265.5998758170297
 20
648.7632356175599
 30
0.0
 11
270.5998758170296
 21
648.7632356175599
 31
0.0
  0
LINE
  5
4529
330
2
100
AcDbEntity
  8
CENTER
  6
CENTER
 48
0.5
100
AcDbLine
 10
1520.737324829987
 20
644.26323561756
 30
0.0
 11
1470.059311437357
 21
644.26323561756
 31
0.0
  0
LINE
  5
452A
330
2
100
AcDbEntity
  8
CENTER
  6
CENTER
 48
0.5
100
AcDbLine
 10
1520.737324829987
 20
944.26323561756
 30
0.0
 11
1470.059311437357
 21
944.26323561756
 31
0.0
  0
MTEXT
  5
453D
330
2
100
AcDbEntity
  8
0
  6
ByBlock
 62
     2
 48
0.1
100
AcDbMText
 10
538.5805554406998
 20
288.1104414517797
 30
0.0
 40
10.0
 41
0.0
 71
     5
 72
     1
  1
\A1;162.5（最小）
  7
AD-STANDARD
 11
0.0000000000000001
 21
1.0
 31
0.0
 73
     1
 44
1.0
1001
ACAD
1000
MTEXTBEGIN
1070
    73
1070
     1
1070
    44
1040
1.0
1070
    74
1070
     0
1000
MTEXTEND
  0
LINE
  5
4557
330
2
100
AcDbEntity
  8
CENTER
  6
CENTER
 48
0.5
100
AcDbLine
 10
229.1889921353181
 20
794.2632509987536
 30
0.0
 11
1526.089646284736
 21
794.2632509987536
 31
0.0
  0
LINE
  5
455E
330
2
100
AcDbEntity
  8
CENTER
  6
CENTER
 48
0.5
100
AcDbLine
 10
344.5998758170297
 20
754.2632509987535
 30
0.0
 11
344.5998758170297
 21
834.2632509987536
 31
0.0
  0
DIMENSION
  5
456B
330
2
100
AcDbEntity
  8
MEASURE
100
AcDbDimension
  2
*D5
 10
411.0998758171461
 20
499.2632432895828
 30
0.0
 11
473.4998758171461
 21
506.2632432895827
 31
0.0
 70
    32
  1
<>（ケーブル出口）
 71
     5
 42
66.50000000011641
  3
AD-STANDARD
100
AcDbAlignedDimension
 13
344.5998758170297
 23
754.2632509987535
 33
0.0
 14
411.0998758171461
 24
599.2632432895825
 34
0.0
100
AcDbRotatedDimension
1001
ACAD
1000
DSTYLE
1002
{
1070
   140
1040
2.5
1070
    40
1040
4.0
1070
   141
1040
30.0
1002
}
  0
MTEXT
  5
458C
330
2
100
AcDbEntity
  8
0
  6
ByBlock
 62
     2
 48
0.1
100
AcDbMText
 10
473.7543223151026
 20
490.6531195306954
 30
0.0
 40
10.0
 41
0.0
 71
     5
 72
     1
  1
ケーブル長さ約6m
  7
AD-STANDARD
 73
     1
 44
1.0
1001
ACAD
1000
MTEXTBEGIN
1070
    73
1070
     1
1070
    44
1040
1.0
1070
    74
1070
     0
1000
MTEXTEND
  0
DIMENSION
  5
459D
330
2
100
AcDbEntity
  8
MEASURE
100
AcDbDimension
  2
*D6
 10
1141.765097383326
 20
150.8975978300109
 30
0.0
 11
1119.265097383326
 21
157.8975978300109
 31
0.0
 70
    32
  1
φ<>
 71
     5
 42
45.0
  3
AD-STANDARD
100
AcDbAlignedDimension
 13
1096.765097383326
 23
206.8604414517797
 33
0.0
 14
1141.765097383326
 24
206.8604414517797
 34
0.0
100
AcDbRotatedDimension
1001
ACAD
1000
DSTYLE
1002
{
1070
    40
1040
4.0
1070
   140
1040
2.5
1070
   141
1040
30.0
1002
}
  0
DIMENSION
  5
45B5
330
2
100
AcDbEntity
  8
MEASURE
100
AcDbDimension
  2
*D7
 10
679.2650973833265
 20
128.6880429414254
 30
0.0
 11
899.2650973833265
 21
135.6880429414254
 31
0.0
 70
    32
 71
     5
 42
440.0
  3
AD-STANDARD
100
AcDbAlignedDimension
 13
1119.265097383326
 23
197.7820122937473
 33
0.0
 14
679.2650973833265
 24
197.7820122937473
 34
0.0
100
AcDbRotatedDimension
1001
ACAD
1000
DSTYLE
1002
{
1070
    40
1040
4.0
1070
   140
1040
2.5
1070
   141
1040
30.0
1002
}
  0
DIMENSION
  5
45D9
330
2
100
AcDbEntity
  8
MEASURE
100
AcDbDimension
  2
*D8
 10
187.0424924373337
 20
644.2632356175599
 30
0.0
 11
180.0424924373336
 21
794.2632356175599
 31
0.0
 70
    32
 71
     5
 42
300.0
  3
AD-STANDARD
100
AcDbAlignedDimension
 13
239.5214466589972
 23
944.26323561756
 33
0.0
 14
239.5214466589973
 24
644.2632356175599
 34
0.0
 50
90.0
100
AcDbRotatedDimension
1001
ACAD
1000
DSTYLE
1002
{
1070
   140
1040
2.5
1070
    40
1040
4.0
1070
   141
1040
30.0
1002
}
  0
LEADER
  5
45DA
330
2
100
AcDbEntity
  8
MEASURE
 62
     8
100
AcDbLeader
  3
AD-STANDARD
 73
     0
 74
     0
 75
     1
 40
10.0
 41
28.80000000000001
 76
     3
 10
1181.683377918813
 20
846.4088016481012
 30
0.0
 10
1223.789524479755
 20
912.446268975872
 30
0.0
 10
1233.789524479755
 20
912.446268975872
 30
0.0
340
45DB
1001
ACAD
1000
DSTYLE
1002
{
1070
   140
1040
2.5
1070
    40
1040
4.0
1070
   141
1040
30.0
1002
}
  0
MTEXT
  5
45DB
102
{ACAD_REACTORS
330
45DA
102
}
330
2
100
AcDbEntity
  8
MEASURE
 62
     2
100
AcDbMText
 10
1235.789524479755
 20
919.446268975872
 30
0.0
 40
10.0
 41
0.0
 71
     4
 72
     1
  1
\A1;水準器
  7
AD-STANDARD
 73
     1
 44
1.0
1001
ACAD
1000
MTEXTBEGIN
1070
    73
1070
     1
1070
    44
1040
1.0
1070
    74
1070
     0
1000
MTEXTEND
  0
LEADER
  5
45E0
330
2
100
AcDbEntity
  8
MEASURE
 62
     8
100
AcDbLeader
  3
AD-STANDARD
 73
     0
 74
     0
 75
     1
 40
10.0
 41
85.25714285714288
 76
     3
 10
857.6898868044963
 20
655.4770053871784
 30
0.0
 10
926.2358459858869
 20
540.8404914631196
 30
0.0
 10
936.2358459858869
 20
540.8404914631196
 30
0.0
340
45E1
1001
ACAD
1000
DSTYLE
1002
{
1070
   140
1040
2.5
1070
    40
1040
4.0
1070
   141
1040
30.0
1002
}
  0
MTEXT
  5
45E1
102
{ACAD_REACTORS
330
45E0
102
}
330
2
100
AcDbEntity
  8
MEASURE
 62
     2
100
AcDbMText
 10
938.2358459858869
 20
547.8404914631196
 30
0.0
 40
10.0
 41
0.0
 71
     4
 72
     1
  1
\A1;上皿（ステンレス）
  7
AD-STANDARD
 73
     1
 44
1.0
1001
ACAD
1000
MTEXTBEGIN
1070
    73
1070
     1
1070
    44
1040
1.0
1070
    74
1070
     0
1000
MTEXTEND
  0
LEADER
  5
45E3
330
2
100
AcDbEntity
  8
MEASURE
 62
     8
100
AcDbLeader
  3
AD-STANDARD
 73
     0
 74
     0
 75
     1
 40
10.0
 41
141.942857142857
 76
     3
 10
1127.949098162491
 20
206.8604414517797
 30
0.0
 10
1196.401537005405
 20
150.7868709409549
 30
0.0
 10
1206.401537005405
 20
150.7868709409549
 30
0.0
340
45E4
1001
ACAD
1000
DSTYLE
1002
{
1070
   140
1040
2.5
1070
    40
1040
4.0
1070
   141
1040
30.0
1002
}
  0
MTEXT
  5
45E4
102
{ACAD_REACTORS
330
45E3
102
}
330
2
100
AcDbEntity
  8
MEASURE
 62
     2
100
AcDbMText
 10
1208.401537005405
 20
157.7868709409549
 30
0.0
 40
10.0
 41
0.0
 71
     4
 72
     1
  1
\A1;ステンレス製アジャスターフット
  7
AD-STANDARD
 73
     1
 44
1.0
1001
ACAD
1000
MTEXTBEGIN
1070
    73
1070
     1
1070
    44
1040
1.0
1070
    74
1070
     0
1000
MTEXTEND
  0
LINE
  5
4611
330
2
100
AcDbEntity
  8
SB150K-FP
100
AcDbLine
 10
604.2650959740853
 20
799.1632509987535
 30
0.0
 11
634.2650959740853
 21
799.1632509987535
 31
0.0
  0
LINE
  5
4612
330
2
100
AcDbEntity
  8
SB150K-FP
100
AcDbLine
 10
604.2650959740853
 20
789.3632509987537
 30
0.0
 11
634.2650959740853
 21
789.3632509987536
 31
0.0
  0
LINE
  5
4613
330
2
100
AcDbEntity
  8
SB150K-FP
100
AcDbLine
 10
604.2650959740853
 20
799.1632509987535
 30
0.0
 11
604.2650959740853
 21
789.3632509987537
 31
0.0
  0
LINE
  5
4614
330
2
100
AcDbEntity
  8
CENTER
  6
CENTER
 48
0.5
100
AcDbLine
 10
585.7650959740854
 20
302.8604414517797
 30
0.0
 11
655.7650959740855
 21
302.8604414517797
 31
0.0
  0
LINE
  5
4615
330
2
100
AcDbEntity
  8
SB150K-FP
100
AcDbLine
 10
605.7650959740854
 20
307.7604414517797
 30
0.0
 11
605.7650959740855
 21
297.9604414517798
 31
0.0
  0
LINE
  5
4616
330
2
100
AcDbEntity
  8
SB150K-FP
100
AcDbLine
 10
605.7650959740855
 20
307.7604414517797
 30
0.0
 11
635.7650959740855
 21
307.7604414517797
 31
0.0
  0
LINE
  5
4617
330
2
100
AcDbEntity
  8
SB150K-FP
100
AcDbLine
 10
605.7650959740855
 20
297.9604414517798
 30
0.0
 11
635.7650959740855
 21
297.9604414517798
 31
0.0
  0
DIMENSION
  5
4625
330
2
100
AcDbEntity
  8
MEASURE
100
AcDbDimension
  2
*D10
 10
569.1016522407172
 20
369.3604414517797
 30
0.0
 11
562.101652240717
 21
303.3604414517798
 31
0.0
 70
    32
 71
     5
 42
132.0
  3
AD-STANDARD
100
AcDbAlignedDimension
 13
635.7650959740856
 23
237.3604414517797
 33
0.0
 14
635.7650959740854
 24
369.3604414517797
 34
0.0
 50
90.0
100
AcDbRotatedDimension
1001
ACAD
1000
DSTYLE
1002
{
1070
    40
1040
4.0
1070
   140
1040
2.5
1070
   141
1040
30.0
1002
}
  0
LWPOLYLINE
  5
481F
330
2
100
AcDbEntity
  8
0
100
AcDbPolyline
 90
        4
 70
     1
 43
0.0
 10
0.0
 20
0.0
 10
1680.0
 20
0.0
 10
1680.0
 20
1188.0
 10
0.0
 20
1188.0
  0
VIEWPORT
  5
480D
102
{ACAD_XDICTIONARY
360
4A12
102
}
330
47FF
100
AcDbEntity
 67
     1
  8
0
 48
0.1
100
AcDbViewport
 10
207.9750712682908
 20
136.0292399733017
 30
0.0
 40
439.3020671892236
 41
336.8422256926379
 68
     1
 69
     1
 12
207.9750712682908
 22
136.0292399733017
 13
0.0
 23
0.0
 14
10.0
 24
10.0
 15
10.0
 25
10.0
 16
0.0
 26
0.0
 36
1.0
 17
0.0
 27
0.0
 37
0.0
 42
50.0
 43
0.0
 44
0.0
 45
336.8422256926379
 50
0.0
 51
0.0
 72
   100
 90
    32800
  1

281
     0
 71
     1
 74
     0
110
0.0
120
0.0
130
0.0
111
1.0
121
0.0
131
0.0
112
0.0
122
1.0
132
0.0
 79
     0
146
0.0
  0
VIEWPORT
  5
480F
102
{ACAD_XDICTIONARY
360
4A14
102
}
330
47FF
100
AcDbEntity
 67
     1
  8
DEFPOINTS
100
AcDbViewport
 10
206.3767131556251
 20
144.8407362042814
 30
0.0
 40
410.4647596743251
 41
288.0778057331903
 68
     2
 69
     2
 12
826.8839589307313
 22
589.8886953800348
 13
0.0
 23
0.0
 14
10.0
 24
10.0
 15
10.0
 25
10.0
 16
0.0
 26
0.0
 36
1.0
 17
0.0
 27
0.0
 37
0.0
 42
50.0
 43
0.0
 44
0.0
 45
1152.311225243528
 50
0.0
 51
0.0
 72
   100
 90
    32800
  1

281
     0
 71
     1
 74
     0
110
0.0
120
0.0
130
0.0
111
1.0
121
0.0
131
0.0
112
0.0
122
1.0
132
0.0
 79
     0
146
0.0
  0
MTEXT
  5
48B3
330
47FF
100
AcDbEntity
 67
     1
  8
NOTE
100
AcDbMText
 10
349.8224646261669
 20
17.52635822116132
 30
0.0
 40
3.5
 41
44.36795964133084
 71
     1
 72
     5
  1
SB150K06-FP
  7
AD-STANDARD
 73
     1
 44
1.0
1001
ACAD
1000
ACAD_MTEXT_DEFINED_HEIGHT_BEGIN
1070
    46
1040
0.0
1000
ACAD_MTEXT_DEFINED_HEIGHT_END
1000
MTEXTBEGIN
1070
    73
1070
     1
1070
    44
1040
1.0
1070
    74
1070
     0
1000
MTEXTEND
  0
ENDSEC
  0
SECTION
  2
OBJECTS
  0
DICTIONARY
  5
1A
330
0
100
AcDbDictionary
281
     1
  3
ACAD_COLOR
350
465A
  3
ACAD_GROUP
350
18
  3
ACAD_LAYOUT
350
465D
  3
ACAD_MATERIAL
350
4659
  3
ACAD_MLINESTYLE
350
19
  3
ACAD_PLOTSETTINGS
350
465E
  3
ACAD_PLOTSTYLENAME
350
4657
  3
ACAD_TABLESTYLE
350
465B
  3
ACDBHEADERROUNDTRIPXREC
350
4A08
  3
AcDbVariableDictionary
350
476F
  3
CONTENTDICTIONARY
350
4412
  0
DICTIONARY
  5
4682
330
B
100
AcDbDictionary
280
     1
281
     1
  3
ACAD_LAYERFILTERS
360
4966
  3
ACAD_LAYERSTATES
360
4683
  3
ACLYDICTIONARY
360
4965
  0
DICTIONARY
  5
4A12
330
480D
100
AcDbDictionary
280
     1
281
     1
  3
ACAD_XREC_ROUNDTRIP
360
4A13
  0
DICTIONARY
  5
4A14
330
480F
100
AcDbDictionary
280
     1
281
     1
  3
ACAD_XREC_ROUNDTRIP
360
4A15
  0
DICTIONARY
  5
465A
102
{ACAD_REACTORS
330
1A
102
}
330
1A
100
AcDbDictionary
281
     1
  0
DICTIONARY
  5
18
102
{ACAD_REACTORS
330
1A
102
}
330
1A
100
AcDbDictionary
281
     1
  0
DICTIONARY
  5
465D
102
{ACAD_REACTORS
330
1A
102
}
330
1A
100
AcDbDictionary
281
     1
  3
Model
350
465F
  3
レイアウト
350
4800
  0
DICTIONARY
  5
4659
102
{ACAD_REACTORS
330
1A
102
}
330
1A
100
AcDbDictionary
281
     1
  0
DICTIONARY
  5
19
102
{ACAD_REACTORS
330
1A
102
}
330
1A
100
AcDbDictionary
281
     1
  3
STANDARD
350
1D
  0
DICTIONARY
  5
465E
102
{ACAD_REACTORS
330
1A
102
}
330
1A
100
AcDbDictionary
281
     1
  0
ACDBDICTIONARYWDFLT
  5
4657
102
{ACAD_REACTORS
330
1A
102
}
330
1A
100
AcDbDictionary
281
     1
  3
Normal
350
4658
100
AcDbDictionaryWithDefault
340
4658
  0
DICTIONARY
  5
465B
102
{ACAD_REACTORS
330
1A
102
}
330
1A
100
AcDbDictionary
281
     1
  3
Standard
350
465C
  0
DICTIONARY
  5
4A08
102
{ACAD_REACTORS
330
1A
102
}
330
1A
100
AcDbDictionary
281
     1
  0
DICTIONARY
  5
476F
102
{ACAD_REACTORS
330
1A
102
}
330
1A
100
AcDbDictionary
281
     1
  3
CTABLESTYLE
350
4770
  3
DIMASSOC
350
4771
  3
PROJECTNAME
350
4772
  0
DICTIONARY
  5
4412
102
{ACAD_REACTORS
330
1A
102
}
330
1A
100
AcDbDictionary
281
     1
  0
DICTIONARY
  5
4966
102
{ACAD_REACTORS
330
4682
102
}
330
4682
100
AcDbDictionary
281
     1
  0
DICTIONARY
  5
4683
102
{ACAD_REACTORS
330
4682
102
}
330
4682
100
AcDbDictionary
281
     1
  0
DICTIONARY
  5
4965
102
{ACAD_REACTORS
330
4682
102
}
330
4682
100
AcDbDictionary
281
     1
1001
ACAD
1000
<All
  0
XRECORD
  5
4A13
102
{ACAD_REACTORS
330
4A12
102
}
330
4A12
100
AcDbXrecord
280
     1
102
SHADEPLOT
 70
     0
  0
XRECORD
  5
4A15
102
{ACAD_REACTORS
330
4A14
102
}
330
4A14
100
AcDbXrecord
280
     1
102
SHADEPLOT
 70
     0
  0
LAYOUT
  5
465F
102
{ACAD_XDICTIONARY
360
4A0D
102
}
102
{ACAD_REACTORS
330
465D
102
}
330
465D
100
AcDbPlotSettings
  1

  2
RICOH IPSiO CX9800 RPCS
  4

  6

 40
0.0
 41
0.0
 42
0.0
 43
0.0
 44
0.0
 45
0.0
 46
0.0
 47
0.0
 48
0.0
 49
0.0
140
0.0
141
0.0
142
1.0
143
1.0
 70
  1712
 72
     0
 73
     0
 74
     0
  7

 75
     0
147
1.0
148
0.0
149
0.0
100
AcDbLayout
  1
Model
 70
     1
 71
     0
 10
0.0
 20
0.0
 11
12.0
 21
9.0
 12
0.0
 22
0.0
 32
0.0
 14
0.0
 24
0.0
 34
0.0
 15
0.0
 25
0.0
 35
0.0
146
0.0
 13
0.0
 23
0.0
 33
0.0
 16
1.0
 26
0.0
 36
0.0
 17
0.0
 27
1.0
 37
0.0
 76
     0
330
2
  0
LAYOUT
  5
4800
102
{ACAD_XDICTIONARY
360
481C
102
}
102
{ACAD_REACTORS
330
465D
102
}
330
465D
100
AcDbPlotSettings
  1

  2
Adobe PDF
  4
A3
  6

 40
3.174999952316284
 41
3.174999952316284
 42
3.17498779296875
 43
3.17498779296875
 44
297.0318298339844
 45
420.1583251953125
 46
0.0
 47
0.0
 48
0.0
 49
0.0
140
0.0
141
0.0
142
1.0
143
1.0
 70
   688
 72
     1
 73
     1
 74
     5
  7
monochrome.ctb
 75
    16
147
1.0
148
0.0
149
0.0
100
AcDbLayout
  1
レイアウト
 70
     1
 71
     1
 10
-3.17498779296875
 20
-3.174999952316284
 11
416.9833374023437
 21
293.8568298816681
 12
0.0
 22
0.0
 32
0.0
 14
1.144333318462514
 24
0.8018333376862187
 34
0.0
 15
411.6090929927876
 25
288.8796390708766
 35
0.0
146
0.0
 13
0.0
 23
0.0
 33
0.0
 16
1.0
 26
0.0
 36
0.0
 17
0.0
 27
1.0
 37
0.0
 76
     0
330
47FF
331
480D
1001
ACAD_PSEXT
1000
Adobe PDF
1000
Adobe PDF Converter
1000
Desktop
1000

1070
     0
  0
MLINESTYLE
  5
1D
102
{ACAD_REACTORS
330
19
102
}
330
19
100
AcDbMlineStyle
  2
STANDARD
 70
     0
  3

 62
     0
 51
90.0
 52
90.0
 71
     2
 49
0.5
 62
   256
  6
BYLAYER
 49
-0.5
 62
   256
  6
BYLAYER
  0
ACDBPLACEHOLDER
  5
4658
102
{ACAD_REACTORS
330
4657
102
}
330
4657
  0
TABLESTYLE
  5
465C
102
{ACAD_REACTORS
330
465B
102
}
330
465B
100
AcDbTableStyle
  3
Standard
 70
     0
 71
     0
 40
0.06
 41
0.06
280
     0
281
     0
  7
STANDARD
140
0.18
170
     2
 62
     0
 63
     7
283
     0
274
    -2
284
     1
 64
     0
275
    -2
285
     1
 65
     0
276
    -2
286
     1
 66
     0
277
    -2
287
     1
 67
     0
278
    -2
288
     1
 68
     0
279
    -2
289
     1
 69
     0
  7
STANDARD
140
0.25
170
     5
 62
     0
 63
     7
283
     0
274
    -2
284
     1
 64
     0
275
    -2
285
     1
 65
     0
276
    -2
286
     1
 66
     0
277
    -2
287
     1
 67
     0
278
    -2
288
     1
 68
     0
279
    -2
289
     1
 69
     0
  7
STANDARD
140
0.18
170
     5
 62
     0
 63
     7
283
     0
274
    -2
284
     1
 64
     0
275
    -2
285
     1
 65
     0
276
    -2
286
     1
 66
     0
277
    -2
287
     1
 67
     0
278
    -2
288
     1
 68
     0
279
    -2
289
     1
 69
     0
  0
DICTIONARYVAR
  5
4770
102
{ACAD_REACTORS
330
476F
102
}
330
476F
100
DictionaryVariables
280
     0
  1
STANDARD
  0
DICTIONARYVAR
  5
4771
102
{ACAD_REACTORS
330
476F
102
}
330
476F
100
DictionaryVariables
280
     0
  1
1
  0
DICTIONARYVAR
  5
4772
102
{ACAD_REACTORS
330
476F
102
}
330
476F
100
DictionaryVariables
280
     0
  1

  0
DICTIONARY
  5
4A0D
330
465F
100
AcDbDictionary
280
     1
281
     1
  3
ACAD_XREC_ROUNDTRIP
360
4A0E
  0
DICTIONARY
  5
481C
330
4800
100
AcDbDictionary
280
     1
281
     1
  3
ACAD_XREC_ROUNDTRIP
360
4A11
  3
ADSK_XREC_LAYOUTTHUMBNAIL
360
481D
  0
XRECORD
  5
4A0E
102
{ACAD_REACTORS
330
4A0D
102
}
330
4A0D
100
AcDbXrecord
280
     1
102
SHADEPLOT
 70
     0
102
SHADEPLOTRESLEVEL
 70
     2
102
SHADEPLOTCUSTOMDPI
 70
   300
  0
XRECORD
  5
4A11
102
{ACAD_REACTORS
330
481C
102
}
330
481C
100
AcDbXrecord
280
     1
102
SHADEPLOT
 70
     0
102
SHADEPLOTRESLEVEL
 70
     2
102
SHADEPLOTCUSTOMDPI
 70
   300
  0
XRECORD
  5
481D
102
{ACAD_REACTORS
330
481C
102
}
330
481C
100
AcDbXrecord
280
     1
310
28000000B40000007F00000001000800000000004C590000000000000000000000010000000000000000000000000000FFFFFF000000000000000000000000000000000000000000000000000000000000000000330000006600000099000000CC000000FF00000000330000333300006633000099330000CC330000FF3300
310
0000660000336600006666000099660000CC660000FF66000000990000339900006699000099990000CC990000FF99000000CC000033CC000066CC000099CC0000CCCC0000FFCC000000FF000033FF000066FF000099FF0000CCFF0000FFFF000000003300330033006600330099003300CC003300FF003300003333003333
310
33006633330099333300CC333300FF33330000663300336633006666330099663300CC663300FF66330000993300339933006699330099993300CC993300FF99330000CC330033CC330066CC330099CC3300CCCC3300FFCC330000FF330033FF330066FF330099FF3300CCFF3300FFFF330000006600330066006600660099
310
006600CC006600FF00660000336600333366006633660099336600CC336600FF33660000666600336666006666660099666600CC666600FF66660000996600339966006699660099996600CC996600FF99660000CC660033CC660066CC660099CC6600CCCC6600FFCC660000FF660033FF660066FF660099FF6600CCFF6600
310
FFFF660000009900330099006600990099009900CC009900FF00990000339900333399006633990099339900CC339900FF33990000669900336699006666990099669900CC669900FF66990000999900339999006699990099999900CC999900FF99990000CC990033CC990066CC990099CC9900CCCC9900FFCC990000FF99
310
0033FF990066FF990099FF9900CCFF9900FFFF99000000CC003300CC006600CC009900CC00CC00CC00FF00CC000033CC003333CC006633CC009933CC00CC33CC00FF33CC000066CC003366CC006666CC009966CC00CC66CC00FF66CC000099CC003399CC006699CC009999CC00CC99CC00FF99CC0000CCCC0033CCCC0066CC
310
CC0099CCCC00CCCCCC00FFCCCC0000FFCC0033FFCC0066FFCC0099FFCC00CCFFCC00FFFFCC000000FF003300FF006600FF009900FF00CC00FF00FF00FF000033FF003333FF006633FF009933FF00CC33FF00FF33FF000066FF003366FF006666FF009966FF00CC66FF00FF66FF000099FF003399FF006699FF009999FF00CC
310
99FF00FF99FF0000CCFF0033CCFF0066CCFF0099CCFF00CCCCFF00FFCCFF0000FFFF0033FFFF0066FFFF0099FFFF00CCFFFF00FFFFFF00000000000D0D0D001A1A1A00282828003535350043434300505050005D5D5D006B6B6B00787878008686860093939300A1A1A100AEAEAE00BBBBBB00C9C9C900D6D6D600E4E4E400
310
F1F1F100FFFFFF0000000000000000000000000000000000000000000000000000000000000000000000000000000000EFEFF5F5F5F5F5F5F5F5F5F5F5F5F5F5F5F5F5F5F5F5F5F5F5F5F5F5F5F5F5F5F5F5F5F5F5F5F5F5F5F5F5F5F5F5F5F5F5F5F5F5F5F5F5F5F5F5F5F5F5F5F5F5F5F5F5F5F5F5F5F5F5F5F5F5F5F5F5
310
F5F5F5F5F5F5F5F5F5F5F5F5F5F5F5F5F5F5F5F5F5F5F5F5F5F5F5F5F5F5F5F5F5F5F5F5F5F5F5F5F5F5F5F5F5F5F5F5F5F5F5F5F5F5F5F5F5F5F5F5F5F5F5F5F5F5F5F5F5F5F5F5F5F5F5F5F5F5F5F5F5F5F5F5F5F5F5F5F5F5F5F5F5F5F5F5F5F5F5F5F5F5F5F5F5F5F5F5F5F5F5F5F5F5F5F5F5F5F5F5F5F5F5F5F5F5F5
310
F5F5F5F5F5F5F5F5F5F5F5F5F5F5F5F5F5F5F5F5F5F5F5F5F5F5F5F5F5F5F5F5F5F5F5F5F5F5F5F5F5F5F5F5F5F5F5F5F5F5F5F5F5F5F5F5F5F5F5F5F5F5F5F5F5F5F5F5F5F5F5F5F5F5F5F5F5F5F5F5F5F5F5F5F5F5F5F5F5F5F5F5F5F5F5F5F5F5F5F5F5F5F5F5F5F5F5F5F5F5F5F5F5F5F5F5F5F5F5F5F5F5F5F5F5F5F5
310
F5F5F5F5F5F5F5F5F5F5F5F5F5F5F5F5F5F5F5F5F5F5F5F5F5F5F5F5E2F5F5F5F5F5F5F5F5F5F5F5F5F5F5F5F5F5F5F5F5F5F5F5F5F5F5F5F5F5F5F5F5F5F5F5F5F5F5F5F5F5F5F5F5F5F5F5F5F5F5F5F5F5F5F5F5F5F5F5F5F5F5F5F5F5F5F5F5F5F5F5F5F5F5F5F5F5F5F5F5F5F5F5F5F5F5F5F5F5F5F5F5F5F5F5F5F5F5
310
F5F5F5F5F5F5F5F5F5F5F5F5F5F5F5F5F5F5F5F5F5F5F5F5F5F5F5F5F5F5F5F5F5F5F5F5F5F5F5F5F5F5F5F5F5F5F5F5F5F5F5F5F5F5F5F5F5F5F5F5F5F5F5F5F5F5F5F5F5F5F5F5F5F5F5F5F5E2F5F5F5E2F5E2E2E2E2E2E2E2E2E2E2E2E2E2E2E2E2E2E2E2E2E2E2E2E2E2E2E2E2E2E2E2E2E2E2E2E2E2E2E2E2E2E2E2E2
310
E2E2E2E2E2E2E2E2E2E2E2E2E2E2E2E2E2E2E2E2E2E2E2E2E2E2E2E2E2E2E2E2E2E2E2E2E2E2E2E2E2E2E2E2E2E2E2E2E2E2E2E2E2E2E2E2E2E2E2E2E2E2E2E2E2E2E2E2E2E2E2E2E2E2E2E2E2E2E2E2E2E2E2E2E2E2E2E2E2E2E2E2E2E2E2E2E2E2E2E2E2E2E2E2E2E2E2E2E2E2E2E2E2E2E2E2E2E2E2E2E2E2E2E2E2E2E2
310
E2F5F5E2F5F5F5E2F5E2E2E2E2E2E2E2E2E2E2E2E2E2E2E2E2E2E2E2E2E2E2E2E2E2E2E2E2E2E2E2E2E2E2E2E2E2E2E2E2E2E2E2E2E2E2E2E2E2E2E2E2E2E2E2E2E2E2E2E2E2E2E2E2E2E2E2E2E2E2E2E2E2E2E2E2E2E2E2E2E2E2E2E2E2E2E2E2E2E2E2E2E2E2E2E2E2E2E2E2E2E2E2E2E2E2E2E2E2E2E2E2E2E2E2E2E2E2
310
E2E2E2E2E2E2E2E2E2E2E2E2E2E2E2E2E2E2E2E2E2E2E2E2E2E2E2E2E2E2E2E2E2E2E2E2E2E2E2E2E2E2E2E2E2E2E2E2E2E2E2E2E2E2F5F5E2F5F5F5E2F5E2E2E2E2E2E2E2E2E2E2E2E2E2E2E2E2E2E2E2E2E2E2E2E2E2E2E2E2E2E2E2E2E2E2E2E2E2E2E2E2E2E2E2E2E2E2E2E2E2E2E2E2E2E2E2E2E2E2E2E2E2E2E2E2E2
310
E2E2E2E2E2E2E2E2E2E2E2E2E2E2E2E2E2E2E2E2E2E2E2E2E2E2E2E2E2E2E2E2E2E2E2E2E2E2E2E2E2E2E2E2E2E2E2E2E2E2E2E2E2E2E2E2E2E2E2E2E2E2E2E2E2E2E2E2E2E2E2E2E2E2E2E2E2E2E2E2E2E2E2E2E2E2E2E2E2E2E2E2E2E2E2E2E2E2E2E2E2E2E2E2E2E2E2F5F5E2F5F5F5E2F5E2E2E2E2E2E2E2E2E2E2E2E2
310
E2E2E2E2E2E2E2E2E2E2E2E2E2E2E2E2E2E2E2E2E2E2E2E2E2E2E2E2E2E2E2E2E2E2E2E2E2E2E2E2E2E2E2E2E2E2E2E2E2E2E2E2E2E2E2E2E2E2E2E2E2E2E2E2E2E2E2E2E2E2E2E2E2E2E2E2E2E2E2E2E2E2E2E2E2E2E2E2E2E2E2E2E2E2E2E2E2E2E2E2E2E2E2E2E2E2E2E2E2E2E2E2E2E2E2E2E2E2E2E2E2E2E2E2E2E2E2
310
E2E2E2E2E2E2E2E2E2E2E2E2E2E2E2E2E2E2E2E2E2E2E2E2E2E2E2E2E2E2E2E2E2F5F5E2F5F5F5E2F5E2E2E2E2E2E2E2E2E2E2E2E2E2E2E2E2E2E2E2E2E2E2E2E2E2E2E2E2E2E2E2E2E2E2E2E2E2E2E2E2E2E2E2E2E2E2E2E2E2E2E2E2E2E2E2E2E2E2E2E2E2E2E2E2E2E2E2E2E2E2E2E2E2E2E2E2E2E2E2E2E2E2E2E2E2E2
310
E2E2E2E2E2E2E2E2E2E2E2E2E2E2E2E2E2E2E2E2E2E2E2E2E2E2E2E2E2E2E2E2E2E2E2E2E2E2E2E2E2E2E2E2E2E2E2E2E2E2E2E2E2E2E2E2E2E2E2E2E2E2E2E2E2E2E2E2E2E2E2E2E2E2E2E2E2E2E2E2E2E2E2E2E2E2F5F5E2F5F5F5E2F5E2E2E2E2E2E2E2E2E2E2E2E2E2E2E2E2E2E2E2E2E2E2E2E2E2E2E2E2E2E2E2E2E2
310
E2E2E2E2E2E2E2E2E2E2E2E2E2E2E2E2E2E2E2E2E2E2E2E2E2E2E2E2E2E2E2E2E2E2E2E2E2E2E2E2E2E2E2E2E2E2E2E2E2E2E2E2E2E2E2E2E2E2E2E2E2E2E2E2E2E2E2E2E2E2E2E2E2E2E2E2E2E2E2E2E2E2E2E2E2E2E2E2E2E2E2E2E2E2E2E2E2E2E2E2E2E2E2E2E2E2E2E2E2E2E2E2E2DCDCDCDCDCDCDCDCDCDCE2DCDCE2
310
E2E2E2E2E2E2E2E2E2E2E2E2F5F5E2F5F5F5E2F5E2E2E2E2E2E2E2E2E2E2E2E2E2E2E2E2E2E2E2E2E2E2E2E2E2E2E2E2E2E2E2E2E2E2E2E2E2E2E2E2E2E2E2E2E2E2E2E2E2E2E2E2E2E2E2E2E2E2E2E2E2E2E2E2E2E2E2E2E2E2E2E2E2E2E2E2E2E2E2E2E2E2E2E2E2E2E2E2E2E2E2E2E2E2E2E2E2E2E2E2E2E2E2E2E2E2E2
310
E2E2E2E2E2E2E2E2E2E2E2E2E2E2E2E2E2E2E2E2E2E2E2E2E2E2E2E2E2E2E2E2E2E2E2E2E2E2E2DCDCDCDCDCDCDCDCDCDCDCDCDCDCE2E2E2E2E2E2E2E2E2E2E2E2F5F5E2F5F5F5E2F5E2E2E2E2E2E2E2E2E2E2E2E2E2E2E2E2E2E2E2E2E2E2E2E2E2E2E2E2E2E2E2E2E2E2E2E2E2E2E2E2E2E2E2E2E2E2E2E2E2E2E2E2E2E2
310
E2E2E2E2E2E2E2E2E2E2E2E2E2E2E2E2E2E2E2E2E2E2E2E2E2E2E2E2E2E2E2E2E2E2E2E2E2E2E2E2E2E2E2E2E2E2E2E2E2E2E2E2E2E2E2E2E2E2E2E2E2E2E2E2E2E2E2E2E2E2E2E2E2E2E2E2E2E2E2E2E2E2E2E2E2E2E2E2E2E2E2E2E2E2E2E2E2E2E2E2E2E2E2E2E2E2E2E2E2E2E2E2E2E2E2E2E2E2F5E2E2F5F5F5E2F5E2
310
E2E2E2E2E2E2E2E2E2E2E2E2E2E2E2E2E2E2E2E2E2E2E2E2E2E2E2E2E2E2E2E2E2E2E2E2E2E2E2E2E2E2E2E2E2E2E2E2E2E2E2E2E2E2E2E2E2E2E2E2E2E2E2E2E2E2E2E2E2E2E2E2E2E2E2E2E2E2E2E2E2E2E2E2E2E2E2E2E2E2E2E2E2E2E2E2E2E2E2E2E2E2E2E2E2E2E2E2E2E2E2E2E2E2E2E2E2E2E2E2E2E2E2E2E2E2E2
310
E2E2E2E2E2E2E2E2E2E2E2E2E2E2E2E2E2E2E2E2E2E2E2E2E2E2E2E2E2E2E2E2E2E2E2E2E2E2E2E2E2E2E2E2F5E2E2F5F5F5E2F5E2E2E2E2E2E2E2E2E2E2E2E2E2E2E2E2E2E2E2E2E2E2E2E2E2E2E2E2E2E2E2E2E2E2E2E2E2E2E2E2E2E2E2E2E2E2E2E2E2E2E2E2E2E2E2E2E2E2E2E2E2E2E2E2E2E2E2E2E2E2E2E2E2E2E2
310
E2E2E2E2E2E2E2E2E2E2E2E2E2E2E2E2E2E2E2E2E2E2E2E2E2E2E2E2E2E2E2E2E2E2E2E2E2E2E2E2E2E2E2E2E2E2E2E2E2E2E2E2E2E2E2E2E2E2E2E2E2E2E2E2E2E2E2E2E2E2E2E2E2E2E2E2E2E2E2E2E2E2E2E2E2E2E2E2E2E2E2E2E2E2E2E2E2F5E2E2F5F5F5E2F5E2E2E2E2E2E2E2E2E2E2E2E2E2E2E2E2E2E2E2E2E2E2
310
E2E2E2E2E2E2E2E2E2E2E2E2E2E2E2E2E2E2E2E2E2E2E2E2E2E2E2E2E2E2E2E2E2E2E2E2E2E2E2E2E2E2E2E2E2E2E2E2E2ECE2E2E2E2E2E2E2E2E2E2E2E2E2E2E2E2E2E2E2E2E2E2E2E2E2E2E2E2E2E2E2E2E2E2E2E2E2E2E2E2E2E2E2E2E2ECE2E2E2E2E2E2E2E2E2E2E2E2E2E2E2E2E2E2E2E2E2E2E2E2E2E2E2E2E2E2E2
310
E2E2E2E2E2E2E2E2E2E2E2E2E2E2E2E2E2E2E2E2E2E2E2F5E2E2F5F5F5E2F5E2E2E2E2E2E2E2E2E2E2E2E2E2E2E2E2E2E2E2E2E2E2E2E2E2E2E2E2E2E2E2E2E2E2E2E2E2E2E2E2E2E2E2E2E2E2E2E2E2E2E2E2E2E2E2E2E2E2E2E2E2E2E2E2E2E2E2E2E2E2E2F5ECECECECECECECECECECECECECECECECECECECECECDCDCEC
310
ECECECECECECECECECECECECECECECECECECECECECECE2E2E2E2E2E2E2E2E2E2E2E2E2E2E2E2E2E2E2E2E2E2E2E2E2E2E2E2E2E2E2E2E2E2E2E2E2E2E2E2E2E2E2E2E2E2E2E2E2E2E2E2E2E2F5E2E2F5F5F5E2F5E2E2E2E2E2E2E2E2E2E2E2E2E2E2E2E2E2E2E2E2E2E2E2E2E2E2E2E2E2E2E2E2E2E2E2E2E2E2E2E2E2E2E2
310
E2E2E2E2E2E2E2E2E2E2E2E2E2E2E2E2E2E2E2E2E2E2E2E2E2E2E2E2ECE2E2E2E2E2E2E2E2E2E2E2E2E2E2E2E2E2E2E2E2E2DCDCDCE2E2E2E2E2E2E2E2E2E2E2E2E2E2E2E2E2E2E2E2E2ECE2E2E2E2E2E2E2E2E2E2E2E2E2E2E2E2E2E2E2E2E2E2E2E2E2E2E2E2E2E2E2E2E2E2E2E2E2E2E2E2E2E2E2E2E2E2E2E2E2E2E2E2
310
E2E2F5E2E2F5F5F5E2F5E2E2E2E2E2E2E2E2E2E2E2E2E2E2E2E2E2E2E2E2E2E2E2E2E2E2E2E2E2E2E2E2E2E2E2E2E2E2E2E2E2E2E2E2E2E2E2E2E2E2E2E2E2E2E2E2E2E2E2E2E2E2E2E2E2E2E2E2E2E2E2ECE2E2E2E2E2E2E2E2E2E2E2E2E2E2E2E2E2E2E2E2E2DCDCE2E2E2E2E2E2E2E2E2E2E2E2E2E2E2E2E2E2E2E2E2E2
310
ECE2E2E2E2E2E2E2E2E2E2E2E2E2E2E2E2E2E2E2E2E2E2E2E2E2E2E2E2E2E2E2E2E2E2E2E2E2E2E2E2E2E2E2E2E2E2E2E2E2E2E2E2E2E2F5E2E2F5F5F5E2F5E2E2E2E2E2E2E2E2E2E2E2E2E2E2E2E2E2E2E2E2E2E2E2E2E2E2E2E2E2E2E2E2E2E2E2E2E2E2E2E2E2E2E2E2E2E2E2E2E2E2E2E2E2E2E2E2E2E2E2E2E2E2E2E2
310
E2E2E2E2E2E2E2ECE2E2E2E2E2E2E2E2E2E2E2E2E2E2E2E2E2E2E2E2E2E2E2E2E2E2E2E2E2E2E2E2E2E2E2E2E2E2E2E2E2E2ECECECECECF5E2E2E2E2E2E2E2E2E2E2E2E2E2E2E2E2E2E2E2E2E2E2E2E2E2E2E2E2E2E2E2E2E2E2E2E2E2E2E2E2E2E2E2E2E2E2E2E2E2E2E2E2F5E2E2F5F5F5E2F5E2E2E2E2E2E2E2E2E2E2E2
310
E2E2E2E2E2E2E2E2E2E2E2E2E2E2E2E2E2E2E2E2E2E2E2E2E2E2E2E2E2E2E2E2E2E2E2E2E2E2E2E2E2E2E2E2E2E2E2E2E2E2E2E2E2E2E2E2E2E2E2E2ECE2E2E2E2E2E2E2E2E2E2E2E2E2E2E2E2E2E2E2E2E2E2E2E2E2E2E2E2E2E2E2E2E2E2E2E2E2E2E2E2E2E2ECECDCECDCECE2E2E2E2E2E2E2E2E2E2E2E2E2E2E2E2E2E2
310
E2E2E2E2E2E2E2E2E2E2E2E2E2E2E2E2E2E2E2E2E2E2E2E2E2E2E2E2E2E2E2E2E2E2F5E2E2F5F5F5E2F5E2E2E2E2E2E2E2E2E2E2E2E2E2E2E2E2E2E2E2E2E2E2E2E2E2E2E2E2E2E2E2E2E2E2E2E2E2E2E2E2E2E2E2E2E2E2E2E2E2E2E2E2E2E2E2E2E2E2E2E2E2E2E2E2E2E2E2E2E2E2E2ECE2E2E2E2E2E2E2E2E2E2E2E2E2
310
E2E2E2E2E2E2E2E2E2E2E2E2E2E2E2E2E2E2E2E2E2E2E2E2E2E2E2E2E2ECE2DCECDCECE2E2E2E2E2E2E2E2E2E2E2E2E2E2E2E2E2E2E2E2E2E2E2E2E2E2E2E2E2E2E2E2E2E2E2E2E2E2E2E2E2E2E2E2E2E2E2E2E2E2E2E2F5F5E2F5F5F5E2F5E2E2E2E2E2E2E2E2E2E2E2E2E2E2E2E2E2E2E2E2E2E2E2E2E2E2E2E2E2E2E2E2
310
E2E2E2E2E2E2E2E2E2E2E2E2E2E2E2E2E2E2E2E2E2E2E2E2E2E2E2E2E2E2E2E2E2E2E2E2E2E2E2ECE2E2E2E2E2E2E2E2E2E2E2E2E2E2E2E2E2E2E2E2E2E2E2E2E2E2E2E2E2E2E2E2E2E2E2E2E2E2E2E2E2E2ECE2E2ECE2ECE2E2ECECDCDCDCDCDCDCDCDCDCDCDCDCDCDCDCE2E2E2E2E2E2E2E2E2E2E2E2E2E2E2E2E2E2E2E2
310
E2E2E2E2E2E2E2E2E2E2E2E2E2F5F5E2F5F5F5E2F5E2E2E2E2E2E2E2E2E2E2E2E2E2E2E2E2E2E2E2E2E2E2E2E2E2E2E2E2E2E2E2E2E2E2E2E2E2E2E2E2E2E2E2E2E2E2E2E2E2E2E2E2E2E2E2E2E2E2E2E2E2E2E2E2E2E2E2E2E2E2E2ECE2E2E2E2E2E2E2E2E2E2E2E2E2E2E2E2E2E2E2E2E2E2E2E2E2E2E2E2E2E2E2E2E2E2
310
E2E2E2E2E2E2E2E2ECE2E2ECE2ECE2ECE2E2DCDCDCDCDCDCDCDCDCDCDCE2DCDCDCE2E2E2E2E2E2E2E2E2E2E2E2E2E2E2E2E2E2E2E2E2E2E2E2E2E2E2E2E2E2E2E2E2F5F5E2F5F5F5E2F5E2E2E2E2E2E2E2E2E2E2E2E2E2E2E2E2E2E2E2E2E2E2E2E2E2E2E2E2E2E2E2E2E2E2E2E2E2E2E2E2E2E2E2E2E2E2E2E2E2E2E2E2E2
310
E2E2E2E2E2E2E2E2E2E2E2E2E2E2E2E2E2E2ECE2E2E2E2E2E2E2E2E2E2E2E2E2E2E2E2E2E2E2E2E2E2E2E2E2E2E2E2E2E2E2E2E2E2E2E2E2E2E2E2E2E2ECE2E2ECE2ECE2ECE2E2E2E2E2E2E2E2E2E2E2E2E2E2E2E2E2E2E2E2E2E2E2E2E2E2E2E2E2E2E2E2E2E2E2E2E2E2E2E2E2E2E2E2E2E2E2E2E2E2F5F5E2F5F5F5E2F5
310
E2E2E2E2E2E2E2E2E2E2E2E2E2E2E2E2E2E2E2E2E2E2E2E2E2E2E2E2E2E2E2E2E2E2E2E2E2E2E2E2E2E2E2E2E2E2E2E2E2E2E2E2E2E2E2E2E2E2E2E2E2E2E2E2E2E2E2E2E2E2E2ECE2E2E2E2E2E2E2E2E2E2E2E2E2E2E2E2E2E2E2E2E2E2E2E2E2E2E2E2E2E2E2E2E2E2E2E2E2E2E2E2E2E2ECE2E2ECE2ECECE2E2E2E2E2E2
310
E2E2E2E2E2E2E2E2E2E2E2E2E2E2E2E2E2E2E2E2E2E2E2E2E2E2E2E2E2E2E2E2E2E2E2E2E2E2E2E2E2E2E2E2E2F5F5E2F5F5F5E2F5E2E2E2E2E2E2E2E2E2E2E2E2E2E2E2E2E2E2E2E2E2E2E2E2E2E2E2E2E2E2E2E2E2E2E2E2E2E2E2E2E2E2E2E2E2E2E2E2E2E2E2E2E2E2E2E2E2E2E2E2E2E2E2E2E2E2E2E2E2E2E2ECE2E2
310
E2E2E2E2E2E2E2E2E2E2E2E2E2E2E2E2E2E2E2E2E2E2E2E2E2E2E2E2E2E2E2E2E2E2E2E2E2E2E2E2ECE2E2ECE2ECECE2E2E2E2E2E2E2E2E2E2E2E2E2E2E2E2E2E2E2E2E2E2E2E2E2E2E2E2E2E2E2E2E2E2E2E2E2E2E2E2E2E2E2E2E2E2E2E2E2E2E2F5F5E2F5F5F5E2F5E2E2E2E2E2E2E2E2E2E2E2E2E2E2E2E2E2E2E2E2E2
310
E2E2E2E2E2E2E2E2E2E2E2E2E2E2E2E2E2E2E2E2E2E2E2E2E2E2E2E2E2E2E2E2E2E2E2E2E2E2E2E2E2E2E2E2E2E2E2E2E2E2ECE2E2E2E2E2E2E2E2E2E2E2E2E2E2E2E2E2E2E2E2E2E2E2E2E2E2E2E2E2E2E2E2E2E2E2E2E2E2E2E2E2E2ECE2E2ECE2ECE2E2E2E2E2E2E2E2E2E2E2E2E2E2E2E2E2E2E2E2E2E2E2E2E2E2E2E2
310
E2E2E2E2E2E2E2E2E2E2E2E2E2E2E2E2E2E2E2E2E2E2E2E2F5F5E2F5F5F5E2F5E2E2E2E2E2E2E2E2E2E2E2E2E2E2E2E2E2E2E2E2E2E2E2E2E2E2E2E2E2E2E2E2E2E2E2E2E2E2E2E2E2E2E2E2E2E2E2E2E2E2E2E2E2E2E2E2E2E2E2E2E2E2E2E2E2E2E2E2E2E2E2ECE2E2E2E2E2E2E2E2E2E2E2E2E2E2E2E2E2E2E2E2E2E2E2
310
E2E2E2E2E2E2E2E2E2E2E2E2E2E2E2E2E2E2E2ECE2E2ECE2ECE2E2E2E2E2E2E2E2E2E2E2E2E2E2E2E2E2E2E2E2E2E2E2E2E2E2E2E2E2E2E2E2E2E2E2E2E2E2E2E2E2E2E2E2E2E2E2E2E2E2E2E2F5F5E2F5F5F5E2F5E2E2E2E2E2E2E2E2E2E2E2E2E2E2E2E2E2E2E2E2E2E2E2E2E2E2E2E2E2E2E2E2E2E2E2E2E2E2E2E2E2E2
310
E2E2E2E2E2E2E2E2E2E2E2E2E2E2E2E2E2E2E2E2E2E2E2E2E2E2E2E2E2F5E2E2E2E2E2E2E2E2E2E2E2E2E2E2E2E2E2E2E2E2E2E2E2E2E2E2E2E2E2E2E2E2E2E2E2E2E2E2E2E2E2E2ECE2E2F5ECECE2E2E2E2E2E2E2E2E2E2E2E2E2E2E2E2E2E2E2E2E2E2E2E2E2E2E2E2E2E2E2E2E2E2E2E2E2E2E2E2E2E2E2E2E2E2E2E2E2
310
E2E2E2F5F5E2F5F5F5E2F5E2E2E2E2E2E2E2E2E2E2E2E2E2E2E2E2E2E2E2E2E2E2E2E2E2E2E2E2E2E2E2E2E2E2E2E2E2E2E2E2E2E2E2E2E2E2E2E2E2E2ECECECECECECECECECECECECECECECECECECF5F5F5ECF5F5E2E2E2E2E2E2E2E2E2E2E2E2E2E2E2E2E2E2E2E2E2E2E2E2E2E2E2E2E2E2E2E2E2E2E2E2E2E2E2E2F5F5
310
F5ECECF5E2E2E2E2E2E2E2E2E2E2E2E2E2E2E2E2E2E2E2E2E2E2E2E2E2E2E2E2E2E2E2E2E2E2E2E2E2E2E2E2E2E2E2E2E2E2E2E2E2E2E2E2F5F5E2F5F5F5E2F5E2E2E2E2E2E2E2E2E2E2E2E2E2E2E2E2E2E2E2E2E2E2E2E2E2E2E2E2E2E2E2E2E2E2E2E2E2E2E2E2E2E2E2E2E2E2E2E2E2E2E2ECE2E2E2E2E2E2E2E2E2E2E2
310
E2E2E2E2E2E2F5F5ECF5E2F5F5F5F5F5F5F5F5F5F5F5F5F5F5F5F5F5F5F5F5F5F5F5F5F5F5F5F5F5F5F5F5F5F5F5F5F5E2E2E2E2E2F5ECF5E2E2E2E2E2E2E2E2E2E2E2E2E2E2E2E2E2E2E2E2E2E2E2E2E2E2E2E2E2E2E2E2E2E2E2E2E2E2E2E2E2E2E2E2E2E2E2E2E2E2E2E2E2F5F5E2F5F5F5E2F5E2E2E2E2E2E2E2E2E2E2
310
E2E2E2E2E2E2E2E2E2E2E2E2E2E2E2E2E2E2E2E2E2E2E2E2E2E2E2E2E2E2E2E2E2E2E2E2E2E2E2E2E2ECE2E2E2E2E2E2E2E2E2E2E2E2E2E2E2F5F5F5F5F5F5E2F5E2E2E2E2E2E2E2E2E2E2E2E2E2E2E2E2E2E2E2E2E2E2E2E2E2E2E2E2E2E2E2E2E2E2E2E2F5F5F5F5E2F5F5F5E2E2E2E2E2E2E2E2E2E2E2E2E2E2E2E2E2E2
310
E2E2E2E2E2E2E2E2E2E2E2E2E2E2E2E2E2E2E2E2E2E2E2E2E2E2E2E2E2E2E2E2E2E2E2F5F5E2F5F5F5E2F5E2E2E2E2E2E2E2E2E2E2E2E2E2E2E2E2E2E2E2E2E2E2E2E2E2E2E2E2E2E2E2E2E2E2E2E2E2E2E2E2E2E2E2E2E2E2E2E2E2E2E2ECE2E2E2ECECECECECECECECECECECF5F5F5F5F5ECF5F5F5F5F5F5F5F5F5F5F5F5
310
F5F5F5F5F5F5F5F5F5F5F5F5F5F5F5F5F5F5F5F5F5F5F5F5F5F5F5F5F5F5F5F5F5ECF5F5F5F5F5E2E2E2E2E2E2E2E2E2E2E2E2E2E2E2E2E2E2E2E2E2E2E2E2E2E2E2E2E2E2E2E2E2E2E2E2E2E2E2E2E2E2E2E2E2E2E2E2E2F5F5E2F5F5F5E2F5E2E2E2E2E2E2E2E2E2E2E2E2E2E2E2E2E2E2E2E2E2E2E2E2E2E2E2E2E2E2E2
310
E2E2E2E2E2E2E2E2E2E2E2E2E2E2E2E2E2E2E2E2ECE2E2E2ECECE2E2E2E2E2E2E2E2E2F5E2E2E2E2ECE2E2E2E2E2E2E2E2E2E2E2E2E2E2E2E2E2E2E2E2E2E2E2E2E2E2E2E2E2E2E2E2E2E2E2E2E2E2E2E2E2E2E2E2E2ECE2E2E2E2F5F5F5E2E2E2E2E2E2E2E2E2E2E2E2E2E2E2E2E2E2E2E2E2E2E2E2E2E2E2E2E2E2E2E2E2
310
E2E2E2E2E2E2E2E2E2E2E2E2E2E2F5F5E2F5F5F5E2F5E2E2E2E2E2E2E2E2E2E2E2E2E2E2E2E2E2E2E2E2E2E2E2E2E2E2E2E2E2E2E2E2E2E2E2E2E2E2E2E2E2E2E2E2E2E2E2E2E2E2DCDCDCDCE2ECE2E2E2E2E2E2E2E2E2E2F5E2E2E2E2E2E2E2E2E2E2E2E2E2E2E2E2E2E2E2E2E2E2E2E2E2E2E2E2E2E2E2E2E2E2E2E2E2E2
310
E2E2E2E2E2E2E2E2E2E2E2E2E2E2E2E2E2F5F5F5E2E2E2E2E2E2E2E2E2E2E2E2E2E2E2E2E2E2E2E2E2E2E2E2E2E2E2E2E2E2E2E2E2E2E2E2E2E2E2E2E2E2E2E2E2E2E2F5F5E2F5F5F5E2F5E2E2E2E2E2E2E2E2E2E2E2E2E2E2E2E2E2E2E2E2E2E2E2E2E2E2E2E2E2E2E2E2E2E2E2E2E2E2E2E2E2E2E2E2E2E2E2E2E2E2DCDC
310
DCDCE2ECE2E2E2E2E2E2E2E2E2E2F5E2E2E2E2E2E2E2E2E2E2E2E2E2E2E2E2E2E2E2E2E2E2E2E2E2E2E2E2E2E2E2E2E2E2E2E2E2E2E2E2E2E2E2E2E2E2E2E2E2E2E2E2E2E2E2F5F5F5E2E2E2E2E2E2E2E2E2E2E2E2E2E2E2E2E2E2E2E2E2E2E2E2E2E2E2E2E2E2E2E2E2E2E2E2E2E2E2E2E2E2E2E2E2E2E2F5F5E2F5F5F5E2
310
F5E2E2E2E2E2E2E2E2E2E2E2E2E2E2E2E2E2E2E2E2E2E2E2E2E2E2E2E2E2E2E2E2E2E2E2E2E2E2E2E2E2E2E2E2E2E2E2E2E2E2DCDCDCDCE2ECE2E2E2E2E2E2E2E2E2E2F5E2E2E2E2E2E2E2E2E2E2E2E2E2E2E2E2E2E2E2E2E2E2E2E2E2E2E2E2E2E2E2E2E2E2E2E2E2E2E2E2E2E2E2E2E2E2E2E2E2E2E2E2E2E2E2F5E2E2E2
310
E2E2E2E2E2E2E2E2E2E2E2E2E2E2E2E2E2E2E2E2E2E2E2E2E2E2E2E2E2E2E2E2E2E2E2E2E2E2E2E2E2E2E2E2E2E2F5E2E2F5F5F5E2F5E2E2E2E2E2E2E2E2E2E2E2E2E2E2E2E2E2E2E2E2E2E2E2E2E2E2E2E2E2E2E2E2E2E2E2E2E2E2E2E2E2E2E2E2E2E2E2E2E2E2DCDCDCDCE2ECE2E2E2E2E2E2E2E2E2E2F5E2E2E2E2E2E2
310
E2E2E2E2E2E2E2E2E2E2E2E2E2E2E2E2E2E2E2E2E2E2E2E2E2E2E2E2E2E2E2E2E2E2E2E2E2E2E2E2E2E2E2E2E2E2E2E2E2F5E2E2E2E2E2E2E2E2E2E2E2E2E2E2E2E2E2E2E2E2E2E2E2E2E2E2E2E2E2E2E2E2E2E2E2E2E2E2E2E2E2E2E2E2E2E2E2E2E2F5E2E2F5F5F5E2F5E2E2E2E2E2E2E2E2E2E2E2E2E2E2E2E2E2E2E2E2
310
E2E2E2E2E2E2E2E2E2E2E2E2E2E2E2E2E2E2E2E2E2E2E2E2E2E2E2E2E2E2DCDCDCDCDCDCE2E2E2E2E2E2E2E2E2E2F5E2E2E2E2E2E2E2E2E2E2E2E2E2E2E2E2E2E2E2E2E2E2E2E2E2E2E2E2E2E2E2E2E2E2E2E2E2E2E2E2E2E2E2E2E2E2E2E2E2E2E2E2E2E2E2F5E2E2E2E2E2E2E2E2E2E2E2E2E2E2E2E2E2E2E2E2E2E2E2E2
310
E2E2E2E2E2E2E2E2E2E2E2E2E2E2E2E2E2E2E2E2E2E2E2E2E2F5E2E2F5F5F5E2F5E2E2E2E2E2E2E2E2E2E2E2E2E2E2E2E2E2E2E2E2E2E2E2E2E2E2E2E2E2E2E2E2E2E2E2E2E2E2E2E2E2E2E2E2E2E2E2E2E2E2DCDCDCDCDCDCE2E2E2E2E2ECECF5F5F5F5ECECE2E2E2E2E2E2E2E2E2E2E2E2E2E2E2E2E2E2E2E2E2E2E2E2E2
310
E2E2E2E2E2E2E2E2E2E2E2E2E2E2E2E2E2E2E2E2E2E2E2E2E2E2E2E2F5E2E2E2E2E2E2E2E2E2E2E2E2E2E2E2E2E2E2E2E2E2E2E2E2E2E2E2E2E2E2E2E2E2E2E2E2E2E2E2E2E2E2E2E2E2E2E2E2E2F5E2E2F5F5F5E2F5E2E2E2E2E2E2E2E2E2E2E2E2E2E2E2E2E2E2E2E2E2E2E2E2E2E2E2E2E2E2E2E2E2E2E2E2E2E2E2E2E2
310
E2E2E2E2E2E2E2E2E2DCDCDCDCDCDCE2E2E2E2E2E2E2F5F5F5F5E2E2E2E2E2E2E2E2E2E2E2E2E2E2E2E2E2E2E2E2E2E2E2E2E2E2E2E2E2E2E2E2E2E2E2E2E2E2E2E2E2E2E2E2E2E2E2E2E2E2E2E2E2E2E2F5E2E2E2E2E2E2E2E2E2E2E2E2E2E2E2E2E2E2E2E2E2E2E2E2E2E2E2E2E2E2E2E2E2E2E2E2E2E2E2E2E2E2E2E2E2
310
E2E2E2E2F5E2E2F5F5F5E2F5E2E2E2E2E2E2E2E2E2E2E2E2E2E2E2E2E2E2E2E2E2E2E2E2E2E2E2E2E2E2E2E2E2E2E2E2E2E2E2E2E2E2E2E2E2E2E2E2E2E2DCDCDCE2E2ECE2E2E2E2E2E2E2E2E2E2F5E2E2E2E2E2E2E2E2E2E2E2E2E2E2E2E2E2E2E2E2E2E2E2E2E2E2E2E2E2E2E2E2E2E2E2E2E2E2E2E2E2E2E2E2E2E2E2E2
310
E2E2E2E2E2E2E2F5E2E2E2E2E2E2E2E2E2E2E2E2E2E2E2E2E2E2E2E2E2E2E2E2E2E2E2E2E2E2E2E2E2E2E2E2E2E2E2E2E2E2E2E2E2E2E2E2E2F5E2E2F5F5F5E2F5E2E2E2E2E2E2E2E2E2E2E2E2E2E2E2E2E2E2E2E2E2E2E2E2E2E2E2E2E2E2E2E2E2E2E2E2E2E2E2E2E2E2E2E2E2E2E2E2E2E2E2ECE2E2E2ECE2E2E2E2E2E2
310
E2E2E2E2F5E2E2E2E2E2E2E2E2E2E2E2E2E2E2E2E2E2E2E2E2E2E2E2E2E2E2E2E2E2E2E2E2E2E2E2E2E2E2E2E2E2E2E2E2E2E2E2E2E2E2E2E2E2E2E2F5E2E2E2E2E2E2E2E2E2E2E2E2E2E2E2E2E2E2E2E2E2E2E2E2E2E2E2E2E2E2E2E2E2E2E2E2E2E2E2E2E2E2E2E2E2E2E2E2E2F5E2E2F5F5F5E2F5E2E2E2E2E2E2E2E2E2
310
E2E2E2E2E2E2E2E2E2E2E2E2E2E2E2E2E2E2E2E2E2E2E2E2E2E2E2E2E2E2E2E2E2E2E2E2E2E2E2E2E2E2ECE2E2E2ECE2E2E2E2E2E2E2E2E2E2F5E2E2E2E2E2E2E2E2E2E2E2E2E2E2E2E2E2E2E2E2E2E2E2E2E2E2E2E2E2E2E2E2E2E2E2E2E2E2E2E2E2E2E2E2E2E2E2E2E2E2E2E2E2E2E2F5E2E2E2E2E2E2E2E2E2E2E2E2E2
310
E2E2E2E2E2E2E2E2E2E2E2E2E2E2E2E2E2E2E2E2E2E2E2E2E2E2E2E2E2E2E2E2E2E2E2E2F5E2E2F5F5F5E2F5E2E2E2E2E2E2E2E2E2E2E2E2E2E2E2E2E2E2E2E2E2E2E2E2E2E2E2E2E2E2E2E2E2E2E2E2E2E2E2E2E2E2E2E2E2E2E2E2E2E2E2ECE2E2E2ECE2E2E2E2E2E2E2E2E2E2F5E2E2E2E2E2E2E2E2E2E2E2E2E2E2E2E2
310
E2E2E2E2E2E2E2E2E2E2E2E2E2E2E2E2E2E2E2E2E2E2E2E2E2E2E2E2E2E2E2E2E2E2E2E2E2E2E2F5E2E2E2E2E2E2E2E2E2E2E2E2E2E2E2E2E2E2E2E2E2E2E2E2E2E2E2E2E2E2E2E2E2E2E2E2E2E2E2E2E2E2E2E2E2E2E2E2E2F5E2E2F5F5F5E2F5E2E2E2E2E2E2E2E2E2E2E2E2E2E2E2E2E2E2E2E2E2E2E2E2E2E2E2E2E2E2
310
E2E2E2E2E2E2E2E2E2E2E2E2E2E2E2E2E2E2E2E2E2ECE2E2E2ECECE2E2E2E2E2E2E2E2E2F5E2E2E2E2E2E2E2E2E2E2E2E2E2E2E2E2E2E2E2E2E2E2E2E2E2E2E2E2E2E2E2E2E2E2E2E2E2E2E2E2E2E2E2E2E2E2E2E2E2E2E2E2E2E2E2F5E2E2E2E2E2E2E2E2E2E2E2E2E2E2E2E2E2E2E2E2E2E2E2E2E2E2E2E2E2E2E2E2E2E2
310
E2E2E2E2E2E2E2E2E2E2E2E2E2E2E2F5F5E2F5F5F5E2F5E2E2E2E2E2E2E2E2E2E2E2E2E2E2E2E2E2E2E2E2E2E2E2E2E2E2E2E2E2E2E2E2E2E2E2E2E2E2E2E2E2E2E2E2E2E2E2E2E2E2ECF5ECECECF5ECECECECECECECECECECF5F5F5F5F5F5F5F5F5F5F5F5F5F5F5F5F5F5F5F5F5F5F5F5F5F5F5F5F5F5F5F5F5F5F5F5F5F5
310
F5F5F5F5F5F5F5F5F5F5F5F5F5F5F5F5F5F5F5E2E2E2E2E2E2E2E2E2E2E2E2E2E2E2E2E2E2E2E2E2E2E2E2E2E2E2E2E2E2E2E2E2E2E2E2E2E2E2E2E2E2E2E2E2E2E2E2E2F5F5E2F5F5F5E2F5E2E2E2E2E2E2E2E2E2E2E2E2E2E2E2E2E2E2E2E2E2E2E2E2E2E2E2E2E2E2E2E2E2E2E2E2E2E2E2E2E2E2E2E2E2E2E2E2E2E2E2
310
E2E2E2E2E2E2E2E2E2E2E2E2E2E2E2E2E2E2E2E2E2E2E2E2E2E2E2E2E2E2E2E2E2E2E2E2E2E2E2E2E2E2E2E2E2E2E2E2E2E2E2E2E2E2E2E2E2E2E2E2E2E2E2E2E2E2E2E2E2E2E2E2E2E2E2E2E2E2E2E2E2E2E2E2E2E2E2E2E2E2E2E2E2E2E2E2E2E2E2E2E2E2E2E2E2E2E2E2E2E2E2E2E2E2E2E2E2E2E2E2E2F5F5E2F5F5F5
310
E2F5E2E2E2E2E2E2E2E2E2E2E2E2E2E2E2E2E2E2E2E2E2E2E2E2E2E2E2E2E2E2E2E2E2E2E2E2E2E2E2E2E2E2E2E2E2E2E2E2E2E2E2E2E2E2E2E2E2E2E2E2E2E2E2E2E2E2E2E2E2E2E2E2E2E2E2E2E2E2E2E2E2E2E2E2E2E2E2E2E2E2E2E2E2E2E2E2E2E2E2E2E2E2E2E2E2E2E2E2E2E2E2E2E2E2E2E2E2E2E2E2E2E2E2E2E2
310
E2E2E2E2E2E2E2E2E2E2E2E2E2E2E2E2E2E2E2E2E2E2E2E2E2E2E2E2E2E2E2E2E2E2E2E2E2E2E2E2E2E2E2E2E2E2E2F5F5E2F5F5F5E2F5E2E2E2E2E2E2E2E2E2E2E2E2E2E2E2E2E2E2E2E2E2E2E2E2E2E2E2E2E2E2E2E2E2E2E2E2E2E2E2E2E2E2E2E2E2E2E2E2E2E2E2E2E2E2E2E2E2E2E2E2E2E2E2E2E2E2E2E2E2E2E2E2
310
E2E2E2E2E2E2E2E2E2E2E2E2E2E2E2E2E2E2E2E2E2E2E2E2E2E2E2E2E2E2E2E2E2E2E2E2E2E2E2E2E2E2E2E2E2E2E2E2E2E2E2E2E2E2E2E2E2E2E2E2E2E2E2E2E2E2E2E2E2E2E2E2E2E2E2E2E2E2E2E2E2E2E2E2E2E2E2E2E2E2E2E2E2E2E2E2E2E2E2E2F5F5E2F5F5F5E2F5E2E2E2E2E2E2E2E2E2E2E2E2E2E2E2E2E2E2E2
310
E2E2E2E2E2E2E2E2E2E2E2E2E2E2E2E2E2E2E2E2E2E2E2E2E2E2E2E2E2E2E2E2E2E2E2E2E2E2E2E2E2E2E2E2E2E2E2E2E2E2E2E2E2E2E2E2E2E2E2E2E2E2E2E2E2E2E2E2E2E2E2E2E2E2E2E2E2E2E2E2E2E2E2E2E2E2E2E2E2E2E2E2E2E2E2E2E2E2E2E2E2E2E2E2E2E2E2E2E2E2E2E2E2E2E2E2E2E2E2E2E2E2E2E2E2E2E2
310
E2E2E2E2E2E2E2E2E2E2E2E2E2E2E2E2E2E2E2E2E2E2E2E2E2E2F5F5E2F5F5F5E2F5E2E2E2E2E2E2E2E2E2E2E2E2E2E2E2E2E2E2E2E2E2E2E2E2E2E2E2E2E2E2E2E2E2E2E2E2E2E2E2E2E2E2E2E2E2E2E2E2E2E2E2E2E2E2E2E2E2E2E2E2E2E2E2E2E2E2E2E2E2E2E2E2E2E2E2E2E2E2E2E2E2E2E2E2E2E2E2E2E2E2E2E2E2
310
E2E2E2E2E2E2E2E2E2E2E2E2E2E2E2E2E2E2E2E2E2E2E2E2E2E2E2E2E2E2E2E2E2E2E2E2E2E2E2E2E2E2E2E2E2E2E2E2E2E2E2E2E2E2E2E2E2E2E2E2E2E2E2E2E2E2E2E2E2E2E2E2E2E2E2E2E2E2E2F5F5E2F5F5F5E2F5E2E2E2E2E2E2E2E2E2E2E2E2E2E2E2E2E2E2E2E2E2E2E2E2E2E2E2E2E2E2E2E2E2E2E2E2E2E2E2E2
310
E2E2E2E2E2E2E2E2E2E2E2E2E2E2E2E2E2E2E2E2E2E2E2E2E2E2E2E2E2E2E2E2E2E2E2E2E2E2E2E2E2E2E2E2E2E2E2E2E2E2E2E2E2E2E2E2E2E2E2E2E2E2E2E2E2E2E2E2E2E2E2E2E2E2E2E2E2E2E2E2E2E2E2E2E2E2E2E2E2E2E2E2E2E2E2E2E2E2E2E2E2E2E2E2E2E2E2E2E2E2E2E2E2E2E2E2E2E2E2E2E2E2E2E2E2E2E2
310
E2E2E2E2E2F5F5E2F5F5F5E2F5E2E2E2E2E2E2E2E2E2E2E2E2E2E2E2E2E2E2E2E2E2E2E2E2E2E2E2E2E2E2E2E2E2E2E2E2E2E2E2E2E2E2E2E2E2E2E2E2E2E2E2E2E2E2E2E2E2E2E2E2E2E2E2E2E2E2E2E2E2E2E2E2E2E2E2E2E2E2E2E2E2E2E2E2E2E2E2E2E2E2E2E2E2E2E2E2E2E2E2E2E2E2E2E2E2E2E2E2E2E2E2E2E2E2
310
E2E2E2E2E2E2E2E2E2E2E2E2E2E2E2E2E2E2E2E2E2E2E2E2E2E2E2E2E2E2E2E2E2E2E2E2E2E2E2E2E2E2E2E2E2E2E2E2E2E2E2E2E2E2E2E2E2E2F5F5E2F5F5F5E2F5E2E2E2E2E2E2E2E2E2E2E2E2E2E2E2E2E2E2E2E2E2E2E2E2E2E2E2E2E2E2E2E2E2E2E2E2E2E2E2E2ECE2E2E2E2E2E2ECE2DCDCDCDCDCDCDCDCDCDCE2E2
310
E2E2E2E2E2ECE2E2E2E2E2E2E2E2E2E2E2E2E2E2E2E2E2E2E2E2E2E2E2E2E2E2E2E2E2E2E2E2E2E2E2E2E2E2E2E2E2E2E2E2E2E2E2E2E2E2E2E2E2E2ECE2E2ECE2E2E2E2E2E2E2E2E2E2E2E2E2E2E2E2E2E2E2E2E2E2E2E2E2E2E2E2E2E2E2E2E2E2E2E2E2E2E2E2E2E2E2E2E2E2E2F5F5E2F5F5F5E2F5E2E2E2E2E2E2E2E2
310
E2E2E2E2E2E2E2E2E2E2E2E2E2E2E2E2E2E2E2E2E2E2E2E2E2E2E2E2E2E2E2E2ECECECECECECECF5DCDCDCDCDCDCDCDCDCDCDCECE2E2E2E2E2E2F5ECECECECECECECECECECECECECECECECECECECECECECECECECECDCDCDCECECECECECECECECECECECECECECECECECECECECECECECECECECDCDCF5ECECE2E2E2E2E2E2E2E2
310
E2E2E2E2E2E2E2E2E2E2E2E2E2E2E2E2E2E2E2E2E2E2E2E2E2E2E2E2E2E2E2E2E2E2E2E2E2F5F5E2F5F5F5E2F5E2E2E2E2E2E2E2E2E2E2E2E2E2E2E2E2E2E2E2E2E2E2E2E2E2E2E2E2E2E2E2E2E2E2E2E2E2E2E2E2ECE2E2E2E2E2E2ECDCDCDCDCDCDCDCDCDCDCDCE2E2E2E2E2E2E2ECE2E2E2E2E2E2E2E2E2E2E2E2E2E2E2
310
E2E2E2E2E2E2E2E2E2E2E2DCDCDCE2E2E2E2E2E2E2E2E2E2E2E2E2E2E2E2E2E2E2E2E2E2E2E2E2ECDCDCECE2E2E2E2E2E2E2E2E2E2E2E2E2E2E2E2E2E2E2E2E2E2E2E2E2E2E2E2E2E2E2E2E2E2E2E2E2E2E2E2E2E2E2E2E2E2E2F5F5E2F5F5F5E2F5E2E2E2E2E2E2E2E2E2E2E2E2E2E2E2E2E2E2E2E2E2E2E2E2E2E2E2E2E2
310
E2E2E2E2E2E2E2E2E2E2E2ECE2E2E2E2E2E2ECE2E2E2E2E2E2E2E2E2E2E2E2E2E2E2E2E2E2ECE2E2E2E2E2E2E2E2E2E2E2E2E2E2E2E2E2E2E2E2E2E2E2E2E2E2E2E2E2E2E2E2E2E2E2E2E2E2E2E2E2E2E2E2E2E2E2E2E2E2E2E2E2E2ECE2E2ECE2E2E2E2E2E2E2E2E2E2E2E2E2E2E2E2E2E2E2E2E2E2E2E2E2E2E2E2E2E2E2
310
E2E2E2E2E2E2E2E2E2E2E2E2E2E2E2E2F5F5E2F5F5F5E2F5E2E2E2E2E2E2E2E2E2E2E2E2E2E2E2E2E2E2E2E2E2E2E2E2E2E2E2E2E2E2E2E2E2E2E2E2E2E2E2E2ECE2E2E2E2E2E2ECE2E2E2E2E2E2E2E2E2E2E2E2E2E2E2E2E2E2ECE2E2E2E2E2E2E2E2E2E2E2E2E2E2E2E2E2E2E2E2E2E2E2E2E2E2E2E2E2E2E2E2E2E2E2E2
310
E2E2E2E2E2E2E2E2E2E2E2E2E2E2E2E2E2E2ECE2E2ECE2E2E2E2E2E2E2E2E2E2E2E2E2E2E2E2E2E2E2E2E2E2E2E2E2E2E2E2E2E2E2E2E2E2E2E2E2E2E2E2E2E2E2E2E2E2E2F5F5E2F5F5F5E2F5E2E2E2E2E2E2E2E2E2E2E2E2E2E2E2E2E2E2E2E2E2E2E2E2E2E2E2E2E2E2E2E2E2E2E2E2E2E2E2E2ECE2E2E2E2E2E2ECE2E2
310
E2E2E2E2E2E2E2E2E2E2E2E2E2E2E2E2ECE2E2E2E2E2E2E2E2E2E2E2E2E2E2E2E2E2E2E2E2E2E2E2E2E2E2E2E2E2E2E2E2E2E2E2E2E2E2E2E2E2E2E2E2E2E2E2E2E2E2E2E2E2E2ECE2E2ECE2E2E2E2E2E2E2E2E2E2E2E2E2E2E2E2E2E2E2E2E2E2E2E2E2E2E2E2E2E2E2E2E2E2E2E2E2E2E2E2E2E2E2E2E2E2E2F5F5E2F5F5
310
F5E2F5E2E2E2E2E2E2E2E2E2E2E2E2E2E2E2E2E2E2E2E2E2E2E2E2E2E2E2E2E2E2E2E2E2E2E2E2E2E2E2E2ECE2E2E2E2E2E2ECE2E2E2E2E2E2E2E2E2E2E2E2E2E2E2E2E2E2ECE2E2E2E2E2E2E2E2E2E2E2E2E2E2E2E2E2E2E2E2E2E2E2E2E2E2E2E2E2E2E2E2E2E2E2E2E2E2E2E2E2E2E2E2E2E2E2E2E2E2E2E2E2E2ECE2E2
310
ECE2E2E2E2E2E2E2E2E2E2E2E2E2E2E2E2E2E2E2E2E2E2E2E2E2E2E2E2E2E2E2E2E2E2E2E2E2E2E2E2E2E2E2E2E2E2E2F5F5E2F5F5F5E2F5E2E2E2E2E2E2E2E2E2E2E2E2E2E2E2E2E2E2E2E2E2E2E2E2E2E2E2E2E2E2E2E2E2E2E2E2E2E2E2E2ECE2E2E2E2E2E2ECE2E2E2E2E2E2E2E2E2E2E2E2E2E2E2E2E2E2ECE2E2E2E2
310
E2E2E2E2E2E2E2E2E2E2E2E2E2E2E2E2E2E2E2E2E2E2E2E2E2E2E2E2E2E2E2E2E2E2E2E2E2E2E2E2E2E2E2E2E2E2E2E2E2E2ECE2E2ECE2E2E2E2E2E2E2E2E2E2E2E2E2E2E2E2E2E2E2E2E2E2E2E2E2E2E2E2E2E2E2E2E2E2E2E2E2E2E2E2E2E2E2E2E2E2E2F5E2E2F5F5F5E2F5E2E2E2E2E2E2E2E2E2E2E2E2E2E2E2E2E2E2
310
E2E2E2E2E2E2E2E2E2E2E2E2E2E2E2E2E2E2E2E2E2E2ECE2E2E2E2E2E2ECE2E2E2E2E2E2E2E2E2E2E2E2E2E2E2E2E2E2ECE2E2E2E2E2E2E2E2E2E2E2E2E2E2E2E2E2E2E2E2E2E2E2E2E2E2E2ECDCDCDCDCDCDCDCDCDCECE2E2E2E2E2E2E2E2E2E2E2E2E2E2E2E2ECE2E2ECE2E2E2E2E2E2E2E2E2E2E2E2E2E2E2E2E2E2E2E2
310
E2E2E2E2E2E2E2E2E2E2E2E2E2E2E2E2E2E2E2E2E2E2E2E2E2E2E2F5E2E2F5F5F5E2F5E2E2E2E2E2E2E2E2E2E2E2E2E2E2E2E2E2E2E2E2E2E2E2E2E2E2E2E2E2E2E2E2E2E2E2E2E2E2E2E2ECE2E2E2E2E2E2ECE2E2E2E2E2E2E2E2E2E2E2E2E2E2E2E2E2E2ECE2E2E2E2E2E2E2E2E2E2E2E2E2E2E2E2E2E2E2E2E2E2E2E2E2
310
E2E2ECDCDCDCDCDCDCDCDCDCE2E2E2E2E2E2E2E2E2E2E2E2E2E2E2E2E2ECE2E2ECE2E2E2E2E2E2E2E2E2E2E2E2E2E2E2E2E2E2E2E2E2E2E2E2E2E2E2E2E2E2E2E2E2E2E2E2E2E2E2E2E2E2E2E2E2E2E2F5E2E2F5F5F5E2F5E2E2E2E2E2E2E2E2E2E2E2E2E2E2E2E2E2E2E2E2E2E2E2E2E2E2E2E2E2E2E2E2E2E2E2E2E2E2E2
310
E2ECE2E2E2E2E2E2ECE2E2E2E2E2E2E2E2E2E2E2E2E2E2E2E2E2E2ECE2E2E2E2E2E2E2E2E2E2E2E2E2E2E2E2E2E2E2E2E2E2E2E2E2E2ECE2E2E2E2E2E2E2E2E2E2E2E2E2E2E2E2E2E2E2E2E2E2E2E2E2E2E2ECE2E2ECE2E2E2E2E2E2E2E2E2E2E2E2E2E2E2E2E2E2E2E2E2E2E2E2E2E2E2E2E2E2E2E2E2E2E2E2E2E2E2E2E2
310
E2E2E2E2E2E2F5E2E2F5F5F5E2F5E2E2E2E2E2E2E2E2E2E2E2E2E2E2E2E2E2E2E2E2E2E2E2E2E2E2E2E2E2E2E2E2E2F5F5F5F5F5F5F5ECF5F5F5F5F5F5F5E2E2E2E2E2E2E2ECECECECECECECECECECECF5F5F5F5F5F5F5F5F5F5F5F5F5F5F5F5F5F5F5F5F5F5F5F5F5F5F5ECF5F5F5F5F5F5F5F5F5F5F5F5F5F5F5F5F5F5F5
310
F5F5F5F5F5F5F5F5F5E2E2ECE2E2E2E2E2E2E2E2E2E2E2F5F5F5F5F5F5F5F5F5F5F5F5F5F5F5E2E2E2E2E2E2E2E2E2E2E2E2E2E2E2E2E2E2E2E2E2F5E2E2F5F5F5E2F5E2E2E2E2E2E2E2E2E2E2E2E2E2E2E2E2E2E2E2E2E2E2E2E2E2E2E2E2E2E2E2E2E2F5E2E2E2E2E2E2ECE2E2E2E2E2E2F5E2E2E2E2E2E2E2ECECE2E2E2
310
E2E2E2E2E2E2F5E2E2E2E2E2E2E2E2E2E2E2E2E2E2E2E2E2E2E2E2E2E2E2E2E2ECE2E2E2E2E2E2E2E2E2E2E2E2E2E2E2E2E2E2E2E2E2E2E2E2E2E2E2E2F5E2E2ECE2E2E2E2E2E2E2E2E2E2E2F5E2E2E2E2E2E2E2E2E2E2E2E2E2F5E2E2E2E2E2E2E2E2E2E2E2E2E2E2E2E2E2E2E2E2E2F5E2E2F5F5F5E2F5E2E2E2E2E2E2E2
310
E2E2E2E2E2E2E2E2E2E2E2E2E2E2E2E2E2E2E2E2E2E2E2E2E2E2F5E2E2E2E2E2E2ECE2E2E2E2E2E2F5E2E2E2E2E2E2E2ECECE2E2E2E2E2E2E2E2E2F5E2E2E2E2E2E2E2E2E2E2E2E2E2E2E2E2E2E2E2E2E2E2E2E2E2ECE2E2E2E2E2E2E2E2E2E2E2E2E2E2E2E2E2E2E2E2E2E2E2E2E2E2E2E2F5E2E2ECE2E2E2E2E2E2E2E2E2
310
E2E2F5E2E2E2E2E2E2E2E2E2E2E2E2E2F5E2E2E2E2E2E2E2E2E2E2E2E2E2E2E2E2E2E2E2E2E2F5E2E2F5F5F5E2F5E2E2E2E2E2E2E2E2E2E2E2E2E2E2E2E2E2E2E2E2E2E2E2E2E2E2E2E2E2E2F5E2E2F5E2E2E2E2E2E2ECE2E2E2E2E2E2F5E2E2E2E2E2E2E2ECE2E2E2E2E2E2E2E2E2E2F5E2E2E2E2E2E2E2E2E2E2E2E2E2E2
310
E2E2E2E2E2E2E2E2E2E2ECE2E2E2E2E2E2E2E2E2E2E2E2E2E2E2E2E2E2E2E2E2E2E2E2E2E2E2E2E2F5E2E2ECE2E2E2E2E2E2E2E2E2E2E2F5E2E2E2E2E2E2E2E2E2E2E2E2E2F5E2E2F5E2E2E2E2E2E2E2E2E2E2E2E2E2E2E2E2E2E2F5E2E2F5F5F5E2F5E2E2E2E2E2E2E2E2E2E2E2E2E2E2E2E2E2E2E2E2E2E2E2E2E2E2E2E2
310
E2E2F5F5F5F5E2E2E2E2E2E2ECE2E2E2E2E2E2F5E2E2E2E2E2E2E2ECE2E2E2E2E2E2E2E2E2E2F5E2E2E2E2E2E2E2E2E2E2E2E2E2E2E2E2E2E2E2E2E2E2E2E2ECE2E2E2E2E2E2E2E2E2E2E2E2E2E2E2E2E2E2E2E2E2E2E2E2E2E2E2E2E2F5E2E2ECE2E2E2E2E2E2E2E2E2E2E2F5E2E2E2E2E2E2E2E2E2E2E2E2E2F5F5F5F5E2
310
E2E2E2E2E2E2E2E2E2E2E2E2E2E2E2E2E2F5F5E2F5F5F5E2F5E2E2E2E2E2E2E2E2E2E2E2E2E2E2E2E2E2E2ECF5ECECECECECECECECECF5ECECF5ECECE2E2E2E2E2ECE2E2E2E2E2E2F5E2E2E2E2E2E2E2ECE2E2E2E2E2E2E2E2E2E2F5E2E2E2E2E2E2E2E2E2E2E2E2E2E2E2E2E2E2E2E2E2E2E2ECE2E2E2E2E2E2E2E2E2E2E2
310
E2E2E2E2E2E2E2E2E2E2E2E2E2E2E2E2E2E2E2F5E2E2ECE2E2E2E2E2E2E2E2E2E2E2F5E2E2E2E2E2E2E2E2E2E2E2E2ECECECECECECE2E2E2E2E2E2E2E2E2E2E2E2E2E2E2E2E2F5F5E2F5F5F5E2F5E2E2E2E2E2E2E2E2E2E2E2E2E2E2E2E2E2E2E2ECE2E2E2E2E2E2E2E2E2E2F5F5F5F5E2E2E2E2E2E2ECE2E2E2E2E2E2F5E2
310
E2E2E2E2E2E2ECE2E2E2E2E2E2E2E2E2E2F5E2E2E2E2E2E2E2E2E2E2E2E2E2E2E2E2E2E2E2E2E2E2ECECE2E2E2E2E2E2E2E2E2E2E2E2E2E2E2E2E2E2E2E2E2E2E2E2E2E2E2E2E2E2F5E2E2ECE2E2E2E2E2E2E2E2E2E2E2F5E2E2E2E2E2E2E2E2E2E2E2E2E2F5F5F5F5E2E2E2E2E2E2E2E2E2E2E2E2E2E2E2E2E2E2F5F5E2F5
310
F5F5E2F5E2E2E2E2E2E2E2E2E2E2E2E2E2E2E2E2E2E2E2ECE2E2E2E2E2E2E2E2E2E2F5E2E2F5E2E2E2E2E2E2ECE2E2E2E2E2E2F5E2E2E2E2E2E2E2ECE2E2E2E2E2E2E2E2E2E2F5E2E2E2E2E2E2E2E2E2E2E2E2E2E2E2E2E2E2E2E2E2E2E2E2E2E2E2E2E2E2E2E2E2E2E2E2E2E2E2E2E2E2E2E2E2E2E2E2E2E2E2E2E2E2F5E2
310
E2ECE2E2E2E2E2E2E2E2E2E2E2F5E2E2E2E2E2E2E2E2E2E2E2E2E2F5E2E2F5E2E2E2E2E2E2E2E2E2E2E2E2E2E2E2E2E2E2F5F5E2F5F5F5E2F5E2E2E2E2E2E2E2E2E2E2E2E2E2E2E2E2E2E2E2ECE2E2E2E2E2E2E2E2E2E2F5E2E2F5E2E2E2E2E2E2ECE2E2E2E2E2E2F5E2E2E2E2E2E2E2ECE2E2E2E2E2E2E2E2E2E2F5E2E2E2
310
E2E2E2E2E2E2E2E2E2E2E2E2E2E2E2E2E2E2E2E2E2E2E2E2E2E2E2E2E2E2E2E2E2E2E2E2E2E2E2E2E2E2E2E2E2E2E2E2E2E2E2F5E2E2ECE2E2E2E2E2E2E2E2E2E2E2F5E2E2E2E2E2E2E2E2E2E2E2E2E2F5E2E2F5E2E2E2E2E2E2E2E2E2E2E2E2E2E2E2E2E2E2F5F5E2F5F5F5E2F5E2E2E2E2E2E2E2E2E2E2E2E2E2E2E2E2E2
310
E2E2ECE2E2E2E2E2E2E2E2E2E2E2E2E2F5E2E2E2E2E2E2ECE2E2E2E2E2E2F5E2E2E2E2E2E2E2ECE2E2E2E2E2E2E2E2E2E2F5E2E2E2E2E2E2E2E2E2E2E2E2E2E2E2E2E2E2E2E2E2E2E2E2E2E2E2E2E2E2E2E2E2E2E2E2E2E2E2E2E2E2E2E2E2E2E2E2E2E2E2E2E2E2F5E2E2ECE2E2E2E2E2E2E2E2E2E2E2F5E2E2E2E2E2E2E2
310
E2E2E2E2E2E2F5E2E2E2E2E2E2E2E2E2E2E2E2E2E2E2E2E2E2E2E2E2F5F5E2F5F5F5E2F5E2E2E2E2E2E2E2E2E2E2E2E2E2E2E2E2E2E2E2ECE2E2E2E2E2E2E2E2E2E2E2E2E2F5E2E2E2E2E2E2ECE2E2E2E2E2E2F5E2E2E2E2E2E2E2ECE2E2E2E2E2E2E2E2E2E2F5E2E2E2E2E2E2E2E2E2E2E2E2E2E2E2E2E2E2E2E2E2E2E2E2
310
E2E2E2E2E2E2E2E2E2E2E2E2E2E2E2E2E2E2E2E2E2E2E2E2E2E2E2E2E2E2F5E2E2ECE2E2E2E2E2E2E2E2E2E2E2F5E2E2E2E2E2E2E2E2E2E2E2E2E2F5E2E2E2E2E2E2E2E2E2E2E2E2E2E2E2E2E2E2E2E2E2F5F5E2F5F5F5E2F5E2E2E2E2E2E2E2E2E2E2E2E2E2E2E2E2E2E2E2ECE2E2E2E2E2E2E2E2E2E2E2E2E2F5E2E2E2E2
310
E2E2ECE2E2E2E2E2E2F5E2E2E2E2E2E2E2ECE2E2E2E2E2E2E2E2E2E2F5E2E2E2E2E2E2E2E2E2E2E2E2E2E2E2E2E2E2E2E2E2E2E2E2E2E2E2E2E2E2E2E2E2E2E2E2E2E2E2E2E2E2E2E2E2E2E2E2E2E2E2E2E2E2F5E2E2ECE2E2E2E2E2E2E2E2E2E2E2F5E2E2E2E2E2E2E2E2E2E2E2E2E2F5E2E2E2E2E2E2E2E2E2E2E2E2E2E2
310
E2E2E2E2E2E2E2F5F5E2F5F5F5E2F5E2E2E2E2E2E2E2E2E2E2E2E2E2E2E2E2E2E2E2ECE2E2E2E2E2E2E2E2E2E2E2E2E2F5E2E2E2E2E2E2ECE2E2E2E2E2E2F5E2E2E2E2E2E2E2ECE2E2E2E2E2E2E2E2E2E2F5E2E2E2E2E2E2E2E2E2E2E2E2E2E2E2E2E2E2E2E2E2E2E2E2E2E2E2E2E2E2E2E2E2E2E2E2E2E2E2E2E2E2E2E2E2
310
E2E2E2E2E2E2E2E2E2F5E2E2ECE2E2E2E2E2E2E2E2E2E2E2F5E2E2E2E2E2E2E2E2E2E2E2E2E2F5E2E2E2E2E2E2E2E2E2E2E2E2E2E2E2E2E2E2E2E2E2F5F5E2F5F5F5E2F5E2E2E2E2E2E2E2E2E2E2E2E2E2E2E2E2E2E2E2ECE2E2E2E2E2E2E2E2E2E2E2E2E2F5E2E2E2E2E2E2ECE2E2E2E2E2E2F5E2E2E2E2E2E2E2ECE2E2E2
310
E2E2E2E2E2E2E2F5E2E2E2E2E2E2E2E2E2E2E2E2E2E2E2E2E2E2E2E2E2E2E2E2E2E2E2E2E2E2E2E2E2E2E2E2E2E2E2E2E2E2E2E2E2E2E2E2E2E2E2E2E2E2F5E2E2ECE2E2E2E2E2E2E2E2E2E2E2F5E2E2E2E2E2E2E2E2E2E2E2E2E2F5E2E2E2E2E2E2E2E2E2E2E2E2E2E2E2E2E2E2E2E2E2F5F5E2F5F5F5E2F5E2E2E2E2E2E2
310
E2E2E2E2E2E2E2E2E2E2E2E2E2ECE2E2E2E2E2E2E2E2E2E2E2E2F5F5E2E2E2E2E2E2ECE2E2E2E2E2E2F5E2E2E2E2E2E2E2ECE2E2E2E2E2E2E2E2E2E2F5E2E2E2E2E2E2E2E2E2E2E2E2E2E2E2E2E2E2E2E2E2E2E2E2E2E2E2E2E2E2E2E2E2E2E2E2E2E2E2E2E2E2E2E2E2E2E2E2E2E2E2E2E2E2F5E2E2ECE2E2E2E2E2E2E2E2
310
E2E2E2F5E2E2E2E2E2E2E2E2E2F5F5F5F5F5F5E2E2E2E2E2E2E2E2E2E2E2E2E2E2E2E2E2E2E2E2F5F5E2F5F5F5E2F5E2E2E2E2E2E2E2E2E2E2E2E2E2E2E2E2E2E2E2ECE2E2E2E2E2E2E2E2E2E2E2E2F5F5E2E2E2E2E2E2ECE2E2E2E2E2E2F5E2E2E2E2E2E2E2ECE2E2E2E2E2E2E2E2E2E2F5E2E2E2E2E2E2E2E2E2E2E2E2E2
310
E2E2E2E2E2E2E2E2E2E2E2E2E2E2E2E2E2E2E2E2E2E2E2E2E2E2E2E2E2E2E2E2E2E2E2E2E2E2E2E2E2F5E2E2ECE2E2E2E2E2E2E2E2E2E2E2F5E2E2E2E2E2E2E2E2E2F5F5F5F5F5F5E2E2E2E2E2E2E2E2E2E2E2E2E2E2E2E2E2E2E2E2F5F5E2F5F5F5E2F5E2E2E2E2E2E2E2E2E2E2E2E2E2E2E2E2E2E2E2ECE2E2E2E2E2E2E2
310
E2E2E2E2E2F5F5E2E2E2E2E2E2ECE2E2E2E2E2E2F5E2E2E2E2E2E2E2ECE2E2E2E2E2E2E2E2E2E2F5E2E2E2E2E2E2E2E2E2E2E2E2E2E2E2E2E2E2E2E2E2E2E2E2E2E2E2E2E2E2E2E2E2E2E2E2E2E2E2E2E2E2E2E2E2E2E2E2E2E2E2E2E2E2F5E2E2ECE2E2E2E2E2E2E2E2E2E2E2F5E2E2E2E2E2E2E2E2E2F5F5F5F5F5F5E2E2
310
E2E2E2E2E2E2E2E2E2E2E2E2E2E2E2E2E2E2F5F5E2F5F5F5E2F5E2E2E2E2E2E2E2E2E2E2E2E2E2E2E2E2E2E2E2ECE2E2E2E2E2E2E2E2E2E2E2E2F5F5E2E2E2E2E2E2F5E2E2E2E2E2E2F5E2E2E2E2E2E2E2ECE2E2E2E2E2E2E2E2E2E2F5E2E2E2E2E2E2E2E2E2E2E2E2E2E2E2E2E2E2E2E2E2E2E2E2E2E2E2E2E2E2E2E2E2E2
310
E2E2E2E2E2E2E2E2E2E2E2E2E2E2E2E2E2E2E2E2F5E2E2ECE2E2E2E2E2E2E2E2E2E2E2F5E2E2E2E2E2E2E2E2E2F5F5F5F5E2E2F5E2E2E2E2E2E2E2E2E2E2E2E2E2E2E2E2E2E2E2F5F5E2F5F5F5E2F5E2E2E2E2E2E2E2E2E2E2E2E2E2E2E2E2E2E2E2ECE2E2E2E2E2E2E2E2E2E2E2F5F5F5E2E2E2E2E2E2ECE2E2E2E2E2E2F5
310
E2E2E2E2E2E2E2ECE2E2E2E2E2E2E2E2E2E2F5E2E2E2E2E2E2E2E2E2E2E2E2E2E2E2E2E2E2E2E2E2E2E2E2E2E2E2E2E2E2E2E2E2E2E2E2E2E2E2E2E2E2E2E2E2E2E2E2E2E2E2E2E2E2F5E2E2ECE2E2E2E2E2E2E2E2E2E2E2F5E2E2E2E2E2E2E2E2E2F5F5F5F5F5F5F5E2E2E2E2E2E2E2E2E2E2E2E2E2E2E2E2E2E2E2F5F5E2
310
F5F5F5E2F5E2E2E2E2E2E2E2E2E2E2E2E2E2E2E2E2E2E2E2ECE2E2E2E2E2E2E2E2E2E2E2F5F5F5F5F5F5F5F5F5ECF5E2E2E2E2E2F5E2E2E2E2E2E2E2ECE2E2E2E2E2E2E2E2E2E2F5E2E2E2E2E2E2E2E2E2E2E2E2E2E2E2E2E2E2E2E2E2E2E2E2E2E2E2E2E2E2E2E2E2E2E2E2E2E2E2E2E2E2E2E2E2E2E2E2E2E2E2E2E2E2F5
310
E2E2ECE2E2E2E2E2E2E2E2E2E2E2F5E2E2E2E2E2E2E2E2E2F5F5F5F5F5F5F5E2E2E2E2E2E2E2E2E2E2E2E2E2E2E2E2E2E2E2F5F5E2F5F5F5E2F5E2E2E2E2E2E2E2E2E2E2E2E2E2E2E2E2E2E2DCDCE2E2E2E2E2E2E2E2E2E2E2F5E2E2F5F5F5E2E2E2ECE2F5E2E2E2E2F5E2E2E2E2E2E2DCDCE2E2E2E2E2E2E2E2E2E2F5E2E2
310
E2E2E2E2E2E2E2E2E2E2E2E2E2E2E2E2E2E2E2E2E2E2E2E2E2E2E2E2E2E2E2E2E2E2E2E2E2E2E2E2E2E2E2E2E2E2E2E2E2E2E2E2F5E2E2ECE2E2E2E2E2E2E2E2E2E2E2F5E2E2E2E2E2E2E2E2E2F5F5F5F5E2E2F5E2E2E2E2E2E2E2E2E2E2E2E2E2E2E2E2E2E2E2F5E2E2F5F5F5E2F5E2E2E2E2E2E2E2E2E2E2E2E2E2E2E2E2
310
E2E2DCDCE2E2E2E2E2E2E2E2E2E2E2F5E2E2F5F5ECECECECECECECECECE2E2F5E2E2E2E2E2E2DCDCE2E2E2E2E2ECECF5F5F5F5ECECE2E2E2E2E2E2E2E2E2E2E2E2E2E2E2E2E2E2E2E2E2E2E2E2E2E2E2E2E2E2E2E2E2E2E2E2E2E2E2E2E2E2E2E2E2E2E2E2E2E2E2E2F5E2E2ECE2E2E2E2E2E2E2E2E2E2E2F5E2E2E2E2E2E2
310
E2E2E2F5F5F5F5E2E2F5E2E2E2E2E2E2E2E2E2E2E2E2E2E2E2E2E2E2E2F5E2E2F5F5F5E2F5E2E2E2E2E2E2E2E2E2E2E2E2E2E2E2E2E2E2DCDCE2E2E2E2E2E2E2E2E2E2E2F5E2E2F5F5F5E2E2E2ECE2F5E2E2E2E2F5E2E2E2E2E2E2DCDCE2E2E2E2E2E2E2F5F5F5F5E2E2E2E2E2E2E2E2E2E2E2E2E2E2E2E2E2E2E2E2E2E2E2
310
E2E2E2E2E2E2E2E2E2E2E2E2E2E2E2E2E2E2E2E2E2E2E2E2E2E2E2E2E2E2E2F5E2E2ECE2E2E2E2E2E2E2E2E2E2E2F5E2E2E2E2E2E2E2E2E2F5F5F5F5E2E2F5E2E2E2E2E2E2E2E2E2E2E2E2E2E2E2E2E2E2E2F5E2E2F5F5F5E2F5E2E2E2E2E2E2E2E2E2E2E2E2E2E2E2E2E2E2E2ECE2E2E2E2E2E2E2E2E2E2E2F5F5F5F5F5F5
310
F5F5F5ECF5E2E2E2E2E2F5E2E2E2E2E2E2E2ECE2E2E2E2E2E2E2E2E2E2F5E2E2E2E2E2E2E2E2E2E2E2E2E2E2E2E2E2E2E2E2E2E2E2E2E2E2E2E2E2E2E2E2E2E2E2E2E2E2E2E2E2E2E2E2E2E2E2E2E2E2E2E2E2E2F5E2E2ECE2E2E2E2E2E2E2E2E2E2E2F5E2E2E2E2E2E2E2E2E2F5F5F5F5F5F5F5E2E2E2E2E2E2E2E2E2E2E2
310
E2E2E2E2E2E2E2E2F5E2E2F5F5F5E2F5E2E2E2E2E2E2E2E2E2E2E2E2E2E2E2E2E2E2E2ECE2E2E2E2E2E2E2E2E2E2E2F5F5F5E2E2E2E2E2E2ECE2E2E2E2E2E2F5E2E2E2E2E2E2E2ECE2E2E2E2E2E2E2E2E2E2F5E2E2E2E2E2E2E2E2E2E2E2E2E2E2E2E2E2E2E2E2E2E2E2E2E2E2E2E2E2E2E2E2E2E2E2E2E2E2E2E2E2E2E2E2
310
E2E2E2E2E2E2E2E2E2E2F5F5F5ECE2E2E2E2E2E2E2E2E2E2E2F5E2E2E2E2E2E2E2E2E2F5F5F5F5F5F5F5E2E2E2E2E2E2E2E2E2E2E2E2E2E2E2E2E2E2E2F5E2E2F5F5F5E2F5E2E2E2E2E2E2E2E2E2E2E2E2E2E2E2E2E2E2E2ECE2E2E2E2E2E2E2E2E2E2E2E2F5F5E2E2E2E2E2E2ECE2E2E2E2E2E2F5E2E2E2E2E2E2E2ECE2E2
310
E2E2E2E2E2E2E2E2F5E2E2E2E2E2E2E2E2E2E2E2E2E2E2E2E2E2E2E2E2E2E2E2E2E2E2E2E2E2E2E2E2E2E2E2E2E2E2E2E2E2E2E2E2E2E2E2E2E2E2E2E2E2E2F5F5F5F5E2E2E2E2E2E2E2E2E2E2E2F5E2E2E2E2E2E2E2E2E2F5F5F5F5E2E2F5E2E2E2E2E2E2E2E2E2E2E2E2E2E2E2E2E2E2E2F5E2E2F5F5F5E2F5E2E2E2E2E2
310
E2E2E2E2E2E2E2E2E2E2E2E2E2E2ECE2E2E2E2E2E2E2E2E2E2E2E2F5F5E2E2E2E2E2E2E2E2E2E2E2E2E2F5E2E2E2E2E2E2E2ECE2E2E2E2E2E2E2E2E2E2F5E2E2E2E2E2E2E2E2E2E2E2E2E2E2E2E2E2E2E2E2E2E2E2E2E2E2E2E2E2E2E2E2E2E2E2E2E2E2E2E2E2E2E2E2E2E2E2E2E2E2E2E2E2E2F5F5F5F5E2E2E2E2E2E2E2
310
E2E2E2E2F5E2E2E2E2E2E2E2E2E2F5F5F5F5F5F5E2E2E2E2E2E2E2E2E2E2E2E2E2E2E2E2E2E2E2E2F5E2E2F5F5F5E2F5E2E2E2E2E2E2E2E2E2E2E2E2E2E2E2E2E2E2E2ECE2E2E2E2E2E2E2E2E2E2E2E2F5F5E2E2E2E2E2E2E2E2E2E2E2E2E2F5E2E2E2E2E2E2E2ECE2E2E2E2E2E2E2E2E2E2F5E2E2E2E2E2E2E2E2E2E2E2E2
310
E2E2E2E2E2E2E2E2E2E2E2E2E2E2E2E2E2E2E2E2E2E2E2E2E2E2E2E2E2E2E2E2E2E2E2E2E2E2E2E2E2E2F5F5ECECE2E2E2E2E2E2E2E2E2E2E2F5E2E2E2E2E2E2E2E2E2F5F5F5F5F5F5E2E2E2E2E2E2E2E2E2E2E2E2E2E2E2E2E2E2E2E2F5E2E2F5F5F5E2F5E2E2E2E2E2E2E2E2E2E2E2E2E2E2E2E2E2E2E2ECE2E2E2E2E2E2
310
E2E2E2E2E2E2F5F5E2E2E2E2E2E2E2E2E2E2E2E2E2F5E2E2E2E2E2E2E2ECE2E2E2E2E2E2E2E2E2E2F5E2E2E2E2E2E2E2E2E2E2E2E2E2E2E2E2E2E2E2E2E2E2E2E2E2E2E2E2E2E2E2E2E2E2E2E2E2E2E2E2E2E2E2E2E2E2E2E2E2E2E2E2E2E2F5E2E2ECECE2E2E2E2E2E2E2E2E2E2F5E2E2E2E2E2E2E2E2E2F5F5F5F5F5F5E2
310
E2E2E2E2E2E2E2E2E2E2E2E2E2E2E2E2E2E2E2F5E2E2F5F5F5E2F5E2E2E2E2E2E2E2E2E2E2E2E2E2E2E2E2E2E2E2ECE2E2E2E2E2E2E2E2E2E2E2E2E2F5E2E2E2E2E2E2E2E2E2E2E2E2E2F5E2E2E2E2E2E2E2ECE2E2E2E2E2E2E2E2E2E2F5E2E2E2E2E2E2E2E2E2E2E2E2E2E2E2E2E2E2E2E2E2E2E2E2E2E2E2E2E2E2E2E2E2
310
E2E2E2E2E2E2E2E2E2E2E2E2E2E2E2E2E2E2E2E2E2F5E2E2E2ECE2E2E2E2E2E2E2E2E2E2F5E2E2E2E2E2E2E2E2E2E2E2E2E2F5E2E2E2E2E2E2E2E2E2E2E2E2E2E2E2E2E2E2E2E2E2F5F5E2F5F5F5E2F5E2E2E2E2E2E2E2E2E2E2E2E2E2E2E2E2E2E2E2ECE2E2E2E2E2E2E2E2E2E2E2E2E2F5E2E2E2E2E2E2E2E2E2E2E2E2E2
310
F5E2E2E2E2E2E2E2ECE2E2E2E2E2E2E2E2E2E2F5E2E2E2E2E2E2E2E2E2E2E2E2E2E2E2E2E2E2E2E2E2E2E2E2E2E2E2E2E2E2E2E2E2E2E2E2E2E2E2E2E2E2E2E2E2E2E2E2E2E2E2E2E2E2F5E2E2E2E2ECE2E2E2E2E2E2E2E2E2F5E2E2E2E2E2E2E2E2E2E2E2E2E2F5E2E2E2E2E2E2E2E2E2E2E2E2E2E2E2E2E2E2E2E2E2F5F5
310
E2F5F5F5E2F5E2E2E2E2E2E2E2E2E2E2E2E2E2E2E2E2E2E2E2ECE2E2E2E2E2E2E2E2E2E2E2E2E2F5E2E2E2E2E2E2E2E2E2E2E2E2E2F5E2E2E2E2E2E2E2ECE2E2E2E2E2E2E2E2E2E2F5E2E2E2E2E2E2E2E2E2E2E2E2E2E2E2E2E2E2E2E2E2E2E2E2E2E2E2E2E2E2E2E2E2E2E2E2E2E2E2E2E2E2E2E2E2E2E2E2E2E2E2E2E2E2
310
F5E2E2E2E2E2ECE2E2E2E2E2E2E2E2F5E2E2E2E2E2E2E2E2E2E2E2E2E2F5E2E2E2E2E2E2E2E2E2E2E2E2E2E2E2E2E2E2E2E2E2F5F5E2F5F5F5E2F5E2E2E2E2E2E2E2E2E2E2E2E2E2E2E2E2E2E2E2ECE2E2E2E2E2E2E2E2E2E2E2E2E2F5E2E2E2E2E2E2E2E2E2E2E2E2E2F5E2E2E2E2E2E2E2ECE2E2E2E2E2E2E2E2E2E2F5E2
310
E2E2E2E2E2E2E2E2E2E2E2E2E2E2E2E2E2E2E2E2E2E2E2E2E2E2E2E2E2E2E2E2E2E2E2E2E2E2E2E2E2E2E2E2E2E2E2E2E2E2E2E2E2F5E2E2E2E2E2ECE2E2E2E2E2E2E2E2F5E2E2E2E2E2E2E2E2E2E2E2E2E2F5E2E2E2E2E2E2E2E2E2E2E2E2E2E2E2E2E2E2E2E2E2F5F5E2F5F5F5E2F5E2E2E2E2E2E2E2E2E2E2E2E2E2E2E2
310
E2E2E2E2ECE2E2E2E2E2E2E2E2E2E2E2E2E2F5E2E2E2E2E2E2E2E2E2E2E2E2E2F5E2E2E2E2E2E2E2ECE2E2E2E2E2E2E2E2E2E2F5E2E2E2E2E2E2E2E2E2E2E2E2E2E2E2E2E2E2E2E2E2E2E2E2E2E2E2E2E2E2E2E2E2E2E2E2E2E2E2E2E2E2E2E2E2E2E2E2E2E2E2E2E2E2F5E2E2E2E2E2E2ECECECECECE2E2E2F5E2E2E2E2E2
310
E2E2E2E2E2E2E2E2F5E2E2E2E2E2E2E2E2E2E2E2E2E2E2E2E2E2E2E2E2E2F5F5E2F5F5F5E2F5E2E2E2E2E2E2E2E2E2E2E2E2E2E2E2E2E2E2E2ECE2E2E2E2E2E2E2E2E2E2F5E2E2F5E2E2E2E2E2E2E2E2E2E2E2E2E2F5E2E2E2E2E2E2E2ECE2E2E2E2E2E2E2E2E2E2F5E2E2E2E2E2E2E2E2E2E2E2E2E2E2E2E2E2E2E2E2E2E2
310
E2E2E2E2E2E2E2E2E2E2E2E2E2E2E2E2E2E2E2E2E2E2E2E2E2E2E2E2E2E2E2E2F5E2E2E2E2E2E2E2DCDCDCDCE2E2E2F5E2E2E2E2E2E2E2E2E2E2E2E2E2F5E2E2F5E2E2E2E2E2E2E2E2E2E2E2E2E2E2E2E2E2E2F5F5E2F5F5F5E2F5E2E2E2E2E2E2E2E2E2E2E2E2E2E2E2E2E2E2E2ECE2E2E2E2E2E2E2E2E2E2F5E2E2F5E2E2
310
E2E2E2E2E2E2E2E2E2E2E2F5E2E2E2E2E2E2E2ECE2E2E2E2E2E2E2E2E2E2F5E2E2E2E2E2E2E2E2E2E2E2E2E2E2E2E2E2E2E2E2E2E2E2E2E2E2E2E2E2E2E2E2E2E2E2E2E2E2E2E2E2E2E2E2E2E2E2E2E2E2E2E2E2E2F5E2E2E2E2E2E2E2DCDCDCDCE2E2E2F5E2E2E2E2E2E2E2E2E2E2E2E2E2F5E2E2F5E2E2E2E2E2E2E2E2E2
310
E2E2E2E2E2E2E2E2E2F5F5E2F5F5F5E2F5E2E2E2E2E2E2E2E2E2E2E2E2E2E2E2E2E2E2E2ECE2E2E2E2E2E2E2E2E2E2F5F5F5F5E2E2E2E2E2E2E2E2E2E2E2E2E2F5E2E2E2E2E2E2E2ECE2E2E2E2E2E2E2E2E2E2F5E2E2E2E2E2E2E2E2E2E2E2E2E2E2E2E2E2E2E2E2E2E2E2E2E2E2E2E2E2E2E2E2E2E2E2E2E2E2E2E2E2E2E2
310
E2E2E2E2E2E2E2E2E2E2E2F5E2E2E2E2E2E2E2E2E2E2E2E2E2E2F5E2E2E2E2E2E2E2E2E2E2E2E2E2F5F5F5F5E2E2E2E2E2E2E2E2E2E2E2E2E2E2E2E2E2E2F5F5E2F5F5F5E2F5E2E2E2E2E2E2E2E2E2E2E2E2E2E2E2E2E2E2ECECECECECECECECECECECF5ECECF5ECECE2E2E2E2E2E2E2E2E2E2E2E2F5E2E2E2E2E2E2E2ECE2
310
E2E2E2E2E2E2E2E2E2F5E2E2E2E2E2E2E2E2E2E2E2E2E2E2E2E2E2E2E2E2E2E2E2E2E2E2E2E2E2E2E2E2E2E2E2E2E2E2E2E2E2E2E2E2E2E2E2E2E2E2E2E2E2E2F5E2E2E2E2E2E2E2E2E2E2E2E2E2E2F5E2E2E2E2E2E2E2E2E2E2E2E2ECECECECECECE2E2E2E2E2E2E2E2E2E2E2E2E2E2E2E2E2F5F5E2F5F5F5E2F5E2E2E2E2
310
E2E2E2E2E2E2E2E2E2E2E2E2E2E2E2E2E2E2E2E2E2E2E2E2E2E2F5F5F5F5E2E2E2E2E2E2E2E2E2E2E2E2E2F5E2E2E2E2E2E2E2ECE2E2E2E2E2E2E2E2E2E2F5E2E2E2E2E2E2E2E2E2E2E2E2E2E2E2E2E2E2E2E2E2E2E2E2E2E2E2E2E2E2E2E2E2E2E2E2E2E2E2E2E2E2E2E2E2E2E2E2E2E2E2E2E2E2F5E2E2E2E2E2E2E2E2E2
310
E2E2E2E2E2F5E2E2E2E2E2E2E2E2E2E2E2E2E2F5F5F5F5E2E2E2E2E2E2E2E2E2E2E2E2E2E2E2E2E2E2F5F5E2F5F5F5E2F5E2E2E2E2E2E2E2E2E2E2E2E2E2E2E2E2E2E2E2E2E2E2E2E2E2E2E2E2E2E2F5E2E2F5E2E2E2E2E2E2E2E2E2E2E2E2E2F5E2E2E2E2E2E2E2ECE2E2E2E2E2E2E2E2E2E2F5E2E2E2E2E2E2E2E2E2E2E2
310
E2E2E2E2E2E2E2E2E2E2E2E2E2E2E2E2E2E2E2E2E2E2E2E2E2E2E2E2E2E2E2E2E2E2E2E2E2E2E2E2E2E2E2F5E2E2E2E2E2E2E2E2E2E2E2E2E2E2F5E2E2E2E2E2E2E2E2E2E2E2E2E2F5E2E2F5E2E2E2E2E2E2E2E2E2E2E2E2E2E2E2E2E2E2F5F5E2F5F5F5E2F5E2E2E2E2E2E2E2E2E2E2E2E2E2E2E2E2E2E2E2E2E2E2E2E2E2
310
E2E2E2E2E2E2E2E2F5E2E2E2E2E2E2E2E2E2E2E2E2E2F5E2E2E2E2E2E2E2ECE2E2E2E2E2E2E2E2E2E2F5E2E2E2E2E2E2E2E2E2E2E2E2E2E2E2E2E2E2E2E2E2E2E2E2E2E2E2E2E2E2E2E2E2E2E2E2E2E2E2E2E2E2E2E2E2E2E2E2E2E2E2E2E2E2F5E2E2E2E2E2E2E2E2E2E2E2E2E2E2F5E2E2E2E2E2E2E2E2E2E2E2E2E2F5E2
310
E2E2E2E2E2E2E2E2E2E2E2E2E2E2E2E2E2E2E2E2F5F5E2F5F5F5E2F5E2E2E2E2E2E2E2E2E2E2E2E2E2E2E2E2E2E2E2E2E2E2E2E2E2E2E2E2E2E2E2E2E2F5E2E2E2E2E2E2E2E2E2E2E2E2E2F5E2E2E2E2E2E2E2ECECE2E2E2E2E2E2E2E2E2F5E2E2E2E2E2E2E2E2E2E2E2E2E2E2E2E2E2E2E2E2E2E2E2E2E2E2E2E2E2E2E2E2
310
E2E2E2E2E2E2E2E2E2E2E2E2E2E2E2E2E2E2E2E2E2E2F5E2E2E2E2E2E2E2E2E2E2E2E2E2E2F5E2E2E2E2E2E2E2E2E2E2E2E2E2F5E2E2E2E2E2E2E2E2E2E2E2E2E2E2E2E2E2E2E2E2E2F5F5E2F5F5F5E2F5E2E2E2E2E2E2E2E2E2E2E2E2E2E2E2E2E2E2E2E2E2E2E2E2E2E2E2E2E2E2E2E2E2F5F5F5F5F5F5F5F5F5F5F5F5F5
310
F5F5E2E2E2E2E2E2E2F5ECECECECECECECECECECF5F5F5F5F5F5F5F5F5F5F5F5F5F5F5F5F5F5F5F5F5F5F5F5F5F5F5F5F5F5F5F5F5F5F5F5F5F5F5F5F5F5F5F5F5F5F5F5F5F5F5F5F5F5F5F5E2E2E2E2E2E2E2E2E2E2E2E2E2E2F5F5F5F5F5F5F5F5F5F5F5F5F5F5F5E2E2E2E2E2E2E2E2E2E2E2E2E2E2E2E2E2E2E2E2E2F5
310
F5E2F5F5F5E2F5E2E2E2E2E2E2E2E2E2E2E2E2E2E2E2E2E2E2E2E2E2E2E2E2E2E2E2E2E2E2E2E2E2E2E2E2E2E2E2E2E2E2E2E2E2E2E2E2E2E2E2E2E2E2E2E2E2E2E2E2E2E2E2E2E2E2E2E2E2E2E2E2E2E2E2E2E2E2E2E2E2E2E2E2E2E2E2E2E2E2E2E2E2E2E2E2E2E2E2E2E2E2E2E2E2E2E2E2E2E2E2E2E2E2E2E2E2E2E2E2
310
E2E2E2E2E2E2E2E2E2E2E2E2E2E2E2E2E2E2E2E2E2E2E2E2E2E2E2E2E2E2E2E2E2E2E2E2E2E2E2E2E2E2E2E2E2E2E2E2E2E2E2E2F5F5E2F5F5F5E2F5E2E2E2E2E2E2E2E2E2E2E2E2E2E2E2E2E2E2E2E2E2E2E2E2E2E2E2E2E2E2E2E2E2E2E2E2E2E2E2E2E2E2E2E2E2E2E2E2E2E2E2E2E2E2E2E2E2E2E2E2E2E2E2E2E2E2E2
310
E2E2E2E2E2E2E2E2E2E2E2E2E2E2E2E2E2E2E2E2E2E2E2E2E2E2E2E2E2E2E2E2E2E2E2E2E2E2E2E2E2E2E2E2E2E2E2E2E2E2E2E2E2E2E2E2E2E2E2E2E2E2E2E2E2E2E2E2E2E2E2E2E2E2E2E2E2E2E2E2E2E2E2E2E2E2E2E2E2E2E2E2E2E2E2E2E2E2E2E2E2E2E2E2E2F5F5E2F5F5F5E2F5E2E2E2E2E2E2E2E2E2E2E2E2E2E2
310
E2E2E2E2E2E2E2E2E2E2E2E2E2E2E2E2E2E2E2E2E2E2E2E2E2E2E2E2E2E2E2E2E2E2E2E2E2E2E2E2E2E2E2E2E2E2E2E2E2E2E2E2E2E2E2E2E2E2E2E2E2E2E2E2E2E2E2E2E2E2E2E2E2E2E2E2E2E2E2E2E2E2E2E2E2E2E2E2E2E2E2E2E2E2E2E2E2E2E2E2E2E2E2E2E2E2E2E2E2E2E2E2E2E2E2E2E2E2E2E2E2E2E2E2E2E2E2
310
E2E2E2E2E2E2E2E2E2E2E2E2E2E2E2E2E2E2E2E2E2E2E2E2E2E2E2E2E2E2E2F5E2E2F5F5F5E2F5E2E2E2E2E2E2E2E2E2E2E2E2E2E2E2E2E2E2E2E2E2E2E2E2E2E2E2E2E2E2E2E2E2E2E2E2E2E2E2E2E2E2E2E2E2E2E2E2E2E2E2E2E2E2E2E2E2E2E2E2E2E2E2E2E2E2E2E2E2E2E2E2E2E2E2E2E2E2E2E2E2E2E2E2E2E2E2E2
310
E2E2E2E2E2E2E2E2E2E2E2E2E2E2E2E2E2E2E2E2E2E2E2E2E2E2E2E2E2E2E2E2E2E2E2E2E2E2E2E2E2E2E2E2E2E2E2E2E2E2E2E2E2E2E2E2E2E2E2E2E2E2E2E2E2E2E2E2E2E2E2E2E2E2E2E2E2E2E2E2E2E2E2E2F5E2E2F5F5F5E2F5E2E2E2E2E2E2E2E2E2E2E2E2E2E2E2E2E2E2E2E2E2E2E2E2E2E2E2E2E2E2E2E2E2E2E2
310
E2E2E2E2E2E2E2E2E2E2E2E2E2E2E2E2E2E2E2E2E2E2E2E2E2E2E2E2E2E2E2E2E2E2E2E2E2E2E2E2E2E2E2E2E2E2E2E2E2E2E2E2E2E2E2E2E2E2E2E2E2E2E2E2E2E2E2E2E2E2E2E2E2E2E2E2E2E2E2E2E2E2E2E2E2E2E2E2E2E2E2E2E2E2E2E2E2E2E2E2E2E2E2E2E2E2E2E2E2E2E2E2E2E2E2E2E2E2E2E2E2E2E2E2E2E2E2
310
E2E2E2E2E2E2E2E2E2E2F5E2E2F5F5F5E2F5E2E2E2E2E2E2E2E2E2E2E2E2E2E2E2E2E2E2E2E2E2E2E2E2E2E2E2E2E2E2E2E2E2E2E2E2E2E2E2E2E2E2E2E2E2E2E2E2E2E2E2E2E2E2E2E2E2E2E2E2E2E2E2E2E2E2E2E2E2E2E2E2E2E2E2E2E2E2E2E2E2E2E2E2E2E2E2E2E2E2E2E2E2E2E2E2E2E2E2E2E2E2E2E2E2E2E2E2E2
310
E2E2E2E2E2E2E2E2E2E2E2E2E2E2E2E2E2E2E2E2E2E2E2E2E2E2E2E2E2E2E2E2E2E2E2E2E2E2E2E2E2E2E2E2E2E2E2E2E2E2E2E2E2E2E2E2E2E2E2E2E2E2E2F5E2E2F5F5F5E2F5E2E2E2E2E2E2E2E2E2E2E2E2E2E2E2E2E2E2E2E2E2E2E2E2E2E2E2E2E2E2E2E2E2E2E2E2E2E2E2E2E2E2E2E2E2E2E2E2E2E2E2E2E2E2E2E2
310
E2E2E2E2E2E2E2E2E2E2E2E2E2E2E2E2E2E2E2E2E2E2E2E2E2E2E2E2E2E2E2E2E2E2E2E2E2E2E2E2E2E2E2E2E2E2E2E2E2E2E2E2E2E2E2E2E2E2E2E2E2E2E2E2E2E2E2E2E2E2E2E2E2E2E2E2E2E2E2E2E2E2E2E2E2E2E2E2E2E2E2E2E2E2E2E2E2E2E2E2E2E2E2E2E2E2E2E2E2E2E2E2E2E2E2E2F5E2E2F5F5F5E2F5E2E2E2
310
E2E2E2E2E2E2E2E2E2E2E2E2E2E2E2E2E2E2E2E2E2E2E2E2E2E2E2E2E2E2E2E2E2E2E2E2E2E2E2E2E2E2E2E2E2E2E2E2E2E2E2E2E2E2E2E2E2E2E2E2E2E2E2E2E2E2E2E2E2E2E2E2E2E2E2E2E2E2E2E2E2E2E2E2E2E2E2E2E2E2E2E2E2E2E2E2E2E2E2E2E2E2E2E2E2E2E2E2E2E2E2E2E2E2E2E2E2E2E2E2E2E2E2E2E2E2E2
310
E2E2E2E2E2E2E2E2E2E2E2E2E2E2E2E2E2E2E2E2E2E2E2E2E2E2E2E2E2E2E2E2E2E2E2E2E2E2E2E2E2E2F5E2E2F5F5F5E2F5E2E2E2E2E2E2E2E2E2E2E2E2E2E2E2E2E2E2E2E2E2E2E2E2E2E2E2E2E2E2E2E2E2E2E2E2E2E2E2E2E2E2E2E2E2E2E2E2E2E2E2E2E2E2E2E2E2E2E2E2E2E2E2E2E2E2E2E2E2E2E2E2E2E2E2E2E2
310
E2E2E2E2E2E2E2E2E2E2E2E2E2E2E2E2E2E2E2E2E2E2E2E2E2E2E2E2E2E2E2E2E2E2E2E2E2E2E2E2E2E2E2E2E2E2E2E2E2E2E2E2E2E2E2E2E2E2E2E2E2E2E2E2E2E2E2E2E2E2E2E2E2E2E2E2E2E2E2E2E2E2E2E2E2E2E2E2E2E2E2E2E2E2E2F5E2E2F5F5F5E2F5E2E2E2E2E2E2E2E2E2E2E2E2E2E2E2E2E2E2E2E2E2E2E2E2
310
E2E2E2E2E2E2E2E2E2E2E2E2E2E2E2E2E2E2E2E2E2E2E2E2E2E2E2E2E2E2E2E2E2E2E2E2E2E2E2E2E2E2E2E2E2E2E2E2E2E2E2E2E2E2E2E2E2E2E2E2E2E2E2E2E2E2E2E2E2E2E2E2E2E2E2E2E2E2E2E2E2E2E2E2E2E2E2E2E2E2E2E2E2E2E2E2E2E2E2E2E2E2E2E2E2E2E2E2E2E2E2E2E2E2E2E2E2E2E2E2E2E2E2E2E2E2E2
310
E2E2E2E2E2E2E2E2E2E2E2E2E2E2E2E2E2E2E2E2E2F5E2E2F5F5F5E2F5E2E2E2E2E2E2E2E2E2E2E2E2E2E2E2E2E2E2E2E2E2E2E2E2E2E2E2E2E2E2E2E2E2E2E2E2E2E2E2E2E2E2E2E2E2E2E2E2E2E2E2E2E2E2E2E2E2E2E2E2E2E2E2E2E2E2E2E2E2E2E2E2E2E2E2E2E2E2E2E2E2E2E2E2E2E2E2E2E2E2E2E2E2E2E2E2E2E2
310
E2E2E2E2E2E2E2E2E2E2E2E2E2E2E2E2E2E2E2E2E2E2E2E2E2E2E2E2E2E2E2E2E2E2E2E2E2E2E2E2E2E2E2E2E2E2E2E2E2E2E2E2E2E2E2E2E2E2E2E2E2E2E2E2E2E2E2E2E2E2E2E2E2E2F5E2E2F5F5F5E2F5E2E2E2E2E2E2E2E2E2E2E2E2E2E2E2E2E2E2E2E2E2E2E2E2E2E2E2E2E2E2E2E2E2E2E2E2E2E2E2E2E2E2E2E2E2
310
E2E2E2E2E2E2E2E2E2E2E2E2E2E2E2E2E2E2E2E2E2E2E2E2E2E2E2E2E2E2E2E2E2E2E2E2E2E2E2E2E2E2E2E2E2E2E2E2E2E2E2E2E2E2E2E2E2E2E2E2E2E2E2E2E2E2E2E2E2E2E2E2E2E2E2E2E2E2E2E2E2E2E2E2E2E2E2E2E2E2E2E2E2E2E2E2E2E2E2E2E2E2E2E2E2E2E2E2E2E2E2E2E2E2E2E2E2E2E2E2E2E2E2E2E2E2E2
310
F5F5E2F5F5F5E2F5E2E2E2E2E2E2E2E2E2E2E2E2E2E2E2E2E2E2E2E2E2E2E2E2E2E2E2E2E2E2E2E2E2E2E2E2E2E2E2E2E2E2E2E2E2E2E2E2E2E2E2E2E2E2E2E2E2E2E2E2E2E2E2E2E2E2E2E2E2E2E2E2E2E2E2E2E2E2E2E2E2E2E2E2E2E2E2E2E2E2E2E2E2E2E2E2E2E2E2E2E2E2E2E2E2E2E2E2E2E2E2E2E2E2E2E2E2E2E2
310
E2E2E2E2E2E2E2E2E2E2E2E2E2E2E2E2E2E2E2E2E2E2E2E2E2E2E2E2E2E2E2E2E2E2E2E2E2E2E2E2E2E2E2E2E2E2E2E2E2E2E2E2E2F5F5E2F5F5F5E2F5E2E2E2E2E2E2E2E2E2E2E2E2E2E2E2E2E2E2E2E2E2E2E2E2E2E2E2E2E2E2E2E2E2E2E2E2E2E2E2E2E2E2E2E2E2E2E2E2E2E2E2E2E2E2E2E2E2E2E2E2E2E2E2E2E2E2
310
E2E2E2E2E2E2E2E2E2E2E2E2E2E2E2E2E2E2E2E2E2E2E2E2E2E2E2E2E2E2E2E2E2E2E2E2E2E2E2E2E2E2E2E2E2E2E2E2E2E2E2E2E2E2E2E2E2E2E2E2E2E2E2E2E2E2E2E2E2E2E2E2E2E2E2E2E2E2E2E2E2E2E2E2E2E2E2E2E2E2E2E2E2E2E2E2E2E2E2E2E2E2E2E2E2E2F5F5E2F5F5F5E2F5E2E2E2E2E2E2E2E2E2E2E2E2E2
310
E2E2E2E2E2E2E2E2E2E2E2E2E2E2E2E2E2E2E2E2E2E2E2E2E2E2E2E2E2E2E2E2E2E2E2E2E2E2E2E2E2E2E2E2E2E2E2E2E2E2E2E2E2E2E2E2E2E2E2E2E2E2E2E2E2E2E2E2E2E2E2E2E2E2E2E2E2E2E2E2E2E2E2E2E2E2E2E2E2E2E2E2E2E2E2E2E2E2E2E2E2E2E2E2E2E2E2E2E2E2E2E2E2E2E2E2E2E2E2E2E2E2E2E2E2E2E2
310
E2E2E2E2E2E2E2E2E2E2E2E2E2E2E2E2E2E2E2E2E2E2E2E2E2E2E2E2E2E2E2E2F5F5E2F5F5F5E2F5E2E2E2E2E2E2E2E2E2E2E2E2E2E2E2E2E2E2E2E2E2E2E2E2E2E2E2E2E2E2E2E2E2E2E2E2E2E2E2E2E2E2E2E2E2E2E2E2E2E2E2E2E2E2E2E2E2E2E2E2E2E2E2E2E2E2E2E2E2E2E2E2E2E2E2E2E2E2E2E2E2E2E2E2E2E2E2
310
E2E2E2E2E2E2E2E2E2E2E2E2E2E2E2E2E2E2E2E2E2E2E2E2E2E2E2E2E2E2E2E2E2E2E2E2E2E2E2E2E2E2E2E2E2E2E2E2E2E2E2E2E2E2E2E2E2E2E2E2E2E2E2E2E2E2E2E2E2E2E2E2E2E2E2E2E2E2E2E2E2E2E2E2E2F5F5E2F5F5F5E2F5E2E2E2E2E2E2E2E2E2E2E2E2E2E2E2E2E2E2E2E2E2E2E2E2E2E2E2E2E2E2E2E2E2E2
310
E2E2E2E2E2E2E2E2E2E2E2E2E2E2E2E2E2E2E2E2E2E2E2E2E2E2E2E2E2E2E2E2E2E2E2E2E2E2E2E2E2E2E2E2E2E2E2E2E2E2E2E2E2E2E2E2E2E2E2E2E2E2E2E2E2E2E2E2E2E2E2E2E2E2E2E2E2E2E2E2E2E2E2E2E2E2E2E2E2E2E2E2E2E2E2E2E2E2E2E2E2E2E2E2E2E2E2E2E2E2E2E2E2E2E2E2E2E2E2E2E2E2E2E2E2E2E2
310
E2E2E2E2E2E2E2E2E2E2E2F5F5E2F5F5F5E2F5F5F5F5F5F5F5F5F5F5F5F5F5F5F5F5F5F5F5F5F5F5F5F5F5F5F5F5F5F5F5F5F5F5F5F5F5F5F5F5F5F5F5F5F5F5F5F5F5F5F5F5F5F5F5F5F5F5F5F5F5F5F5F5F5F5F5F5F5F5F5F5F5F5F5F5F5F5F5F5F5F5F5F5F5F5F5F5F5F5F5F5F5F5F5F5F5F5F5F5F5F5F5F5F5F5F5F5F5
310
F5F5F5F5F5F5F5F5F5F5F5F5F5F5F5F5F5F5F5F5F5F5F5F5F5F5F5F5F5F5F5F5F5F5F5F5F5F5F5F5F5F5F5F5F5F5F5F5F5F5F5F5F5F5F5F5F5F5F5F5F5F5F5F5F5F5E2F5F5F5E2F5F5F5F5F5F5F5F5E2E2E2E2E2E2E2E2E2F5F5F5F5F5F5F5F5F5F5F5F5F5F5F5F5E2E2E2E2E2E2E2E2E2F5F5F5F5F5F5F5F5F5F5F5F5F5F5
310
F5F5E2E2E2E2E2E2E2E2E2F5F5F5F5F5F5F5F5F5F5F5F5F5F5F5F5E2E2E2E2E2E2E2E2E2F5F5F5F5F5F5F5F5F5F5F5F5F5F5F5F5E2E2E2E2E2E2E2E2E2F5F5F5F5F5F5F5F5F5F5F5F5F5F5F5F5E2E2E2E2E2E2E2E2E2F5F5F5F5F5F5F5F5F5F5F5F5F5F5F5F5E2E2E2E2E2E2E2E2E2F5F5F5F5F5F5F5F5E2F5EFF5F5F5F5F5
310
F5F5F5F5F5F5F5F5F5F5F5F5F5F5F5F5F5F5F5F5F5F5F5F5F5F5F5F5F5F5F5F5F5F5F5F5F5F5F5F5F5F5F5F5F5F5F5F5F5F5F5F5F5F5F5F5F5F5F5F5F5F5F5F5F5F5F5F5F5F5F5F5F5F5F5F5F5F5F5F5F5F5F5F5F5F5F5F5F5F5F5F5F5F5F5F5F5F5F5F5F5F5F5F5F5F5F5F5F5F5F5F5F5F5F5F5F5F5F5F5F5F5F5F5F5F5F5
310
F5F5F5F5F5F5F5F5F5F5F5F5F5F5F5F5F5F5F5F5F5F5F5F5F5F5F5F5F5F5F5F5F5F5F5F5F5F5F5F5F5F5F5F5F5F5F5EF
  0
ENDSEC
  0
EOF
