  0
SECTION
  2
HEADER
  9
$ACADVER
  1
AC1015
  9
$ACADMAINTVER
 70
    20
  9
$DWGCODEPAGE
  3
ANSI_932
  9
$INSBASE
 10
0.0
 20
0.0
 30
0.0
  9
$EXTMIN
 10
-25.89248137310477
 20
-546.9354212725563
 30
0.0
  9
$EXTMAX
 10
1211.068330203623
 20
244.5251756994458
 30
0.0
  9
$LIMMIN
 10
0.0
 20
0.0
  9
$LIMMAX
 10
420.0
 20
297.0
  9
$ORTHOMODE
 70
     1
  9
$REGENMODE
 70
     1
  9
$FILLMODE
 70
     1
  9
$QTEXTMODE
 70
     0
  9
$MIRRTEXT
 70
     1
  9
$LTSCALE
 40
1.0
  9
$ATTMODE
 70
     1
  9
$TEXTSIZE
 40
1.5
  9
$TRACEWID
 40
1.0
  9
$TEXTSTYLE
  7
AD-STANDARD
  9
$CLAYER
  8
0
  9
$CELTYPE
  6
ByLayer
  9
$CECOLOR
 62
   256
  9
$CELTSCALE
 40
1.0
  9
$DISPSILH
 70
     0
  9
$DIMSCALE
 40
6.0
  9
$DIMASZ
 40
2.5
  9
$DIMEXO
 40
1.0
  9
$DIMDLI
 40
0.38
  9
$DIMRND
 40
0.0
  9
$DIMDLE
 40
0.0
  9
$DIMEXE
 40
2.0
  9
$DIMTP
 40
0.0
  9
$DIMTM
 40
0.0
  9
$DIMTXT
 40
3.0
  9
$DIMCEN
 40
-2.0
  9
$DIMTSZ
 40
0.0
  9
$DIMTOL
 70
     0
  9
$DIMLIM
 70
     0
  9
$DIMTIH
 70
     0
  9
$DIMTOH
 70
     0
  9
$DIMSE1
 70
     0
  9
$DIMSE2
 70
     0
  9
$DIMTAD
 70
     1
  9
$DIMZIN
 70
     8
  9
$DIMBLK
  1

  9
$DIMASO
 70
     1
  9
$DIMSHO
 70
     1
  9
$DIMPOST
  1

  9
$DIMAPOST
  1

  9
$DIMALT
 70
     0
  9
$DIMALTD
 70
     2
  9
$DIMALTF
 40
25.4
  9
$DIMLFAC
 40
1.0
  9
$DIMTOFL
 70
     1
  9
$DIMTVP
 40
0.0
  9
$DIMTIX
 70
     0
  9
$DIMSOXD
 70
     0
  9
$DIMSAH
 70
     0
  9
$DIMBLK1
  1

  9
$DIMBLK2
  1

  9
$DIMSTYLE
  2
s＝1／6
  9
$DIMCLRD
 70
     9
  9
$DIMCLRE
 70
     9
  9
$DIMCLRT
 70
     2
  9
$DIMTFAC
 40
1.0
  9
$DIMGAP
 40
0.5
  9
$DIMJUST
 70
     0
  9
$DIMSD1
 70
     0
  9
$DIMSD2
 70
     0
  9
$DIMTOLJ
 70
     1
  9
$DIMTZIN
 70
     8
  9
$DIMALTZ
 70
     0
  9
$DIMALTTZ
 70
     0
  9
$DIMUPT
 70
     0
  9
$DIMDEC
 70
     4
  9
$DIMTDEC
 70
     4
  9
$DIMALTU
 70
     2
  9
$DIMALTTD
 70
     2
  9
$DIMTXSTY
  7
AD-STANDARD
  9
$DIMAUNIT
 70
     0
  9
$DIMADEC
 70
     0
  9
$DIMALTRND
 40
0.0
  9
$DIMAZIN
 70
     0
  9
$DIMDSEP
 70
    46
  9
$DIMATFIT
 70
     3
  9
$DIMFRAC
 70
     0
  9
$DIMLDRBLK
  1

  9
$DIMLUNIT
 70
     2
  9
$DIMLWD
 70
    -2
  9
$DIMLWE
 70
    -2
  9
$DIMTMOVE
 70
     0
  9
$LUNITS
 70
     2
  9
$LUPREC
 70
     4
  9
$SKETCHINC
 40
1.0
  9
$FILLETRAD
 40
10.0
  9
$AUNITS
 70
     0
  9
$AUPREC
 70
     0
  9
$MENU
  1
.
  9
$ELEVATION
 40
0.0
  9
$PELEVATION
 40
0.0
  9
$THICKNESS
 40
0.0
  9
$LIMCHECK
 70
     0
  9
$CHAMFERA
 40
10.0
  9
$CHAMFERB
 40
10.0
  9
$CHAMFERC
 40
20.0
  9
$CHAMFERD
 40
0.0
  9
$SKPOLY
 70
     0
  9
$TDCREATE
 40
2455161.698396505
  9
$TDUCREATE
 40
2455161.323396505
  9
$TDUPDATE
 40
2458306.638315718
  9
$TDUUPDATE
 40
2458306.263315718
  9
$TDINDWG
 40
0.0191538426
  9
$TDUSRTIMER
 40
0.0191538426
  9
$USRTIMER
 70
     1
  9
$ANGBASE
 50
0.0
  9
$ANGDIR
 70
     0
  9
$PDMODE
 70
     0
  9
$PDSIZE
 40
0.0
  9
$PLINEWID
 40
0.0
  9
$SPLFRAME
 70
     0
  9
$SPLINETYPE
 70
     6
  9
$SPLINESEGS
 70
     8
  9
$HANDSEED
  5
881
  9
$SURFTAB1
 70
     6
  9
$SURFTAB2
 70
     6
  9
$SURFTYPE
 70
     6
  9
$SURFU
 70
     6
  9
$SURFV
 70
     6
  9
$UCSBASE
  2

  9
$UCSNAME
  2

  9
$UCSORG
 10
0.0
 20
0.0
 30
0.0
  9
$UCSXDIR
 10
1.0
 20
0.0
 30
0.0
  9
$UCSYDIR
 10
0.0
 20
1.0
 30
0.0
  9
$UCSORTHOREF
  2

  9
$UCSORTHOVIEW
 70
     0
  9
$UCSORGTOP
 10
0.0
 20
0.0
 30
0.0
  9
$UCSORGBOTTOM
 10
0.0
 20
0.0
 30
0.0
  9
$UCSORGLEFT
 10
0.0
 20
0.0
 30
0.0
  9
$UCSORGRIGHT
 10
0.0
 20
0.0
 30
0.0
  9
$UCSORGFRONT
 10
0.0
 20
0.0
 30
0.0
  9
$UCSORGBACK
 10
0.0
 20
0.0
 30
0.0
  9
$PUCSBASE
  2

  9
$PUCSNAME
  2

  9
$PUCSORG
 10
0.0
 20
0.0
 30
0.0
  9
$PUCSXDIR
 10
1.0
 20
0.0
 30
0.0
  9
$PUCSYDIR
 10
0.0
 20
1.0
 30
0.0
  9
$PUCSORTHOREF
  2

  9
$PUCSORTHOVIEW
 70
     0
  9
$PUCSORGTOP
 10
0.0
 20
0.0
 30
0.0
  9
$PUCSORGBOTTOM
 10
0.0
 20
0.0
 30
0.0
  9
$PUCSORGLEFT
 10
0.0
 20
0.0
 30
0.0
  9
$PUCSORGRIGHT
 10
0.0
 20
0.0
 30
0.0
  9
$PUCSORGFRONT
 10
0.0
 20
0.0
 30
0.0
  9
$PUCSORGBACK
 10
0.0
 20
0.0
 30
0.0
  9
$USERI1
 70
     0
  9
$USERI2
 70
     0
  9
$USERI3
 70
     0
  9
$USERI4
 70
     0
  9
$USERI5
 70
     0
  9
$USERR1
 40
0.0
  9
$USERR2
 40
0.0
  9
$USERR3
 40
0.0
  9
$USERR4
 40
0.0
  9
$USERR5
 40
0.0
  9
$WORLDVIEW
 70
     1
  9
$SHADEDGE
 70
     3
  9
$SHADEDIF
 70
    70
  9
$TILEMODE
 70
     0
  9
$MAXACTVP
 70
    64
  9
$PINSBASE
 10
0.0
 20
0.0
 30
0.0
  9
$PLIMCHECK
 70
     0
  9
$PEXTMIN
 10
3.365188236585595
 20
2.904237426699694
 30
-0.0000000000112498
  9
$PEXTMAX
 10
286.31955126548
 20
199.7267381874978
 30
0.0000000000002956
  9
$PLIMMIN
 10
-3.17498779296875
 20
-3.174999952316284
  9
$PLIMMAX
 10
293.8568420410156
 20
206.7348358631134
  9
$UNITMODE
 70
     0
  9
$VISRETAIN
 70
     1
  9
$PLINEGEN
 70
     0
  9
$PSLTSCALE
 70
     1
  9
$TREEDEPTH
 70
  3020
  9
$CMLSTYLE
  2
Standard
  9
$CMLJUST
 70
     0
  9
$CMLSCALE
 40
20.0
  9
$PROXYGRAPHICS
 70
     1
  9
$MEASUREMENT
 70
     1
  9
$CELWEIGHT
370
    -1
  9
$ENDCAPS
280
     0
  9
$JOINSTYLE
280
     0
  9
$LWDISPLAY
290
     0
  9
$INSUNITS
 70
     4
  9
$HYPERLINKBASE
  1

  9
$STYLESHEET
  1

  9
$XEDIT
290
     1
  9
$CEPSNTYPE
380
     0
  9
$PSTYLEMODE
290
     1
  9
$FINGERPRINTGUID
  2
{E7D64C6C-58D3-4097-B151-62B07A238EB1}
  9
$VERSIONGUID
  2
{F9402D7D-D1F8-4660-9A05-75E6188EA864}
  9
$EXTNAMES
290
     1
  9
$PSVPSCALE
 40
0.0
  9
$OLESTARTUP
290
     0
  0
ENDSEC
  0
SECTION
  2
CLASSES
  0
CLASS
  1
ACDBDICTIONARYWDFLT
  2
AcDbDictionaryWithDefault
  3
ObjectDBX Classes
 90
        0
280
     0
281
     0
  0
CLASS
  1
VISUALSTYLE
  2
AcDbVisualStyle
  3
ObjectDBX Classes
 90
     4095
280
     0
281
     0
  0
CLASS
  1
SCALE
  2
AcDbScale
  3
ObjectDBX Classes
 90
     1153
280
     0
281
     0
  0
CLASS
  1
DICTIONARYVAR
  2
AcDbDictionaryVar
  3
ObjectDBX Classes
 90
        0
280
     0
281
     0
  0
CLASS
  1
ACDBPLACEHOLDER
  2
AcDbPlaceHolder
  3
ObjectDBX Classes
 90
        0
280
     0
281
     0
  0
CLASS
  1
LAYOUT
  2
AcDbLayout
  3
ObjectDBX Classes
 90
        0
280
     0
281
     0
  0
CLASS
  1
TABLESTYLE
  2
AcDbTableStyle
  3
ObjectDBX Classes
 90
     4095
280
     0
281
     0
  0
CLASS
  1
MATERIAL
  2
AcDbMaterial
  3
ObjectDBX Classes
 90
     1153
280
     0
281
     0
  0
CLASS
  1
MLEADERSTYLE
  2
AcDbMLeaderStyle
  3
ACDB_MLEADERSTYLE_CLASS
 90
     4095
280
     0
281
     0
  0
CLASS
  1
SORTENTSTABLE
  2
AcDbSortentsTable
  3
ObjectDBX Classes
 90
        0
280
     0
281
     0
  0
CLASS
  1
CELLSTYLEMAP
  2
AcDbCellStyleMap
  3
ObjectDBX Classes
 90
     1152
280
     0
281
     0
  0
ENDSEC
  0
SECTION
  2
TABLES
  0
TABLE
  2
VPORT
  5
8
330
0
100
AcDbSymbolTable
 70
     1
  0
VPORT
  5
404
330
8
100
AcDbSymbolTableRecord
100
AcDbViewportTableRecord
  2
*Active
 70
     0
 10
0.0
 20
0.0
 11
1.0
 21
1.0
 12
592.5879272952829
 22
-151.1958496463203
 13
0.0
 23
0.0
 14
10.0
 24
10.0
 15
10.0
 25
10.0
 16
0.0
 26
0.0
 36
1.0
 17
0.0
 27
0.0
 37
0.0
 40
797.1907708740082
 41
2.273164861612515
 42
50.0
 43
0.0
 44
0.0
 50
0.0
 51
0.0
 71
     0
 72
   100
 73
     1
 74
     3
 75
     0
 76
     0
 77
     0
 78
     0
281
     0
 65
     1
110
0.0
120
0.0
130
0.0
111
1.0
121
0.0
131
0.0
112
0.0
122
1.0
132
0.0
 79
     0
146
0.0
  0
ENDTAB
  0
TABLE
  2
LTYPE
  5
5
330
0
100
AcDbSymbolTable
 70
     2
  0
LTYPE
  5
14
330
5
100
AcDbSymbolTableRecord
100
AcDbLinetypeTableRecord
  2
ByBlock
 70
     0
  3

 72
    65
 73
     0
 40
0.0
  0
LTYPE
  5
15
330
5
100
AcDbSymbolTableRecord
100
AcDbLinetypeTableRecord
  2
ByLayer
 70
     0
  3

 72
    65
 73
     0
 40
0.0
  0
LTYPE
  5
16
330
5
100
AcDbSymbolTableRecord
100
AcDbLinetypeTableRecord
  2
Continuous
 70
     0
  3
Solid line
 72
    65
 73
     0
 40
0.0
  0
ENDTAB
  0
TABLE
  2
LAYER
  5
2
102
{ACAD_XDICTIONARY
360
3AC
102
}
330
0
100
AcDbSymbolTable
 70
    19
  0
LAYER
  5
10
102
{ACAD_XDICTIONARY
360
6BD
102
}
330
2
100
AcDbSymbolTableRecord
100
AcDbLayerTableRecord
  2
0
 70
     0
 62
     7
  6
Continuous
370
    -3
390
F
  0
LAYER
  5
3A3
330
2
100
AcDbSymbolTableRecord
100
AcDbLayerTableRecord
  2
DEFPOINTS
 70
     0
 62
     7
  6
Continuous
290
     0
370
    -3
390
F
  0
LAYER
  5
6A3
102
{ACAD_XDICTIONARY
360
6A4
102
}
330
2
100
AcDbSymbolTableRecord
100
AcDbLayerTableRecord
  2
NOTE
 70
     0
 62
     2
  6
Continuous
370
    -3
390
F
  0
ENDTAB
  0
TABLE
  2
STYLE
  5
3
330
0
100
AcDbSymbolTable
 70
     6
  0
STYLE
  5
11
330
3
100
AcDbSymbolTableRecord
100
AcDbTextStyleTableRecord
  2
Standard
 70
     0
 40
0.0
 41
1.0
 50
0.0
 71
     0
 42
2.5
  3
txt
  4

  0
STYLE
  5
3A4
330
3
100
AcDbSymbolTableRecord
100
AcDbTextStyleTableRecord
  2
AD-STANDARD
 70
     0
 40
0.0
 41
0.8
 50
0.0
 71
     0
 42
1.5
  3
C:\Program Files\AutoCAD LT\romans.shx
  4
bigfont.shx
  0
ENDTAB
  0
TABLE
  2
VIEW
  5
6
330
0
100
AcDbSymbolTable
 70
     1
  0
ENDTAB
  0
TABLE
  2
UCS
  5
7
330
0
100
AcDbSymbolTable
 70
     0
  0
ENDTAB
  0
TABLE
  2
APPID
  5
9
330
0
100
AcDbSymbolTable
 70
     6
  0
APPID
  5
12
330
9
100
AcDbSymbolTableRecord
100
AcDbRegAppTableRecord
  2
ACAD
 70
     0
  0
APPID
  5
3AB
330
9
100
AcDbSymbolTableRecord
100
AcDbRegAppTableRecord
  2
ACAD_PSEXT
 70
     0
  0
APPID
  5
427
330
9
100
AcDbSymbolTableRecord
100
AcDbRegAppTableRecord
  2
ACAD_MLEADERVER
 70
     0
  0
APPID
  5
681
330
9
100
AcDbSymbolTableRecord
100
AcDbRegAppTableRecord
  2
ACAD_EXEMPT_FROM_CAD_STANDARDS
 70
     0
  0
APPID
  5
715
330
9
100
AcDbSymbolTableRecord
100
AcDbRegAppTableRecord
  2
ACAD_DSTYLE_DIMJAG
 70
     0
  0
APPID
  5
716
330
9
100
AcDbSymbolTableRecord
100
AcDbRegAppTableRecord
  2
ACAD_DSTYLE_DIMTALN
 70
     0
  0
ENDTAB
  0
TABLE
  2
DIMSTYLE
  5
A
330
0
100
AcDbSymbolTable
 70
     8
100
AcDbDimStyleTable
 71
     1
340
64D
  0
DIMSTYLE
105
292
330
A
100
AcDbSymbolTableRecord
100
AcDbDimStyleTableRecord
  2
Standard
 70
     0
340
11
  0
DIMSTYLE
105
64D
102
{ACAD_REACTORS
330
653
330
65D
330
72A
330
739
330
761
330
786
330
793
330
7A0
330
7B6
330
7C3
330
7D0
102
}
330
A
100
AcDbSymbolTableRecord
100
AcDbDimStyleTableRecord
  2
s＝1／6
 70
     0
 40
6.0
 41
2.5
 42
1.0
 44
2.0
 73
     0
 74
     0
 77
     1
 78
     8
140
3.0
141
-2.0
147
0.5
172
     1
176
     9
177
     9
178
     2
284
     8
340
3A4
1001
ACAD_DSTYLE_DIMJAG
1070
   388
1040
1.5
1001
ACAD_DSTYLE_DIMTALN
1070
   392
1070
     0
  0
ENDTAB
  0
TABLE
  2
BLOCK_RECORD
  5
1
330
0
100
AcDbSymbolTable
 70
    38
  0
BLOCK_RECORD
  5
1F
102
{ACAD_XDICTIONARY
360
514
102
}
330
1
100
AcDbSymbolTableRecord
100
AcDbBlockTableRecord
  2
*Model_Space
340
22
  0
BLOCK_RECORD
  5
1B
330
1
100
AcDbSymbolTableRecord
100
AcDbBlockTableRecord
  2
*Paper_Space
340
1E
  0
BLOCK_RECORD
  5
65E
330
1
100
AcDbSymbolTableRecord
100
AcDbBlockTableRecord
  2
*D22
340
0
  0
BLOCK_RECORD
  5
72B
330
1
100
AcDbSymbolTableRecord
100
AcDbBlockTableRecord
  2
*D27
340
0
  0
BLOCK_RECORD
  5
73A
330
1
100
AcDbSymbolTableRecord
100
AcDbBlockTableRecord
  2
*D28
340
0
  0
BLOCK_RECORD
  5
762
330
1
100
AcDbSymbolTableRecord
100
AcDbBlockTableRecord
  2
*D29
340
0
  0
BLOCK_RECORD
  5
787
330
1
100
AcDbSymbolTableRecord
100
AcDbBlockTableRecord
  2
*D30
340
0
  0
BLOCK_RECORD
  5
794
330
1
100
AcDbSymbolTableRecord
100
AcDbBlockTableRecord
  2
*D31
340
0
  0
BLOCK_RECORD
  5
7A1
330
1
100
AcDbSymbolTableRecord
100
AcDbBlockTableRecord
  2
*D32
340
0
  0
BLOCK_RECORD
  5
7B7
330
1
100
AcDbSymbolTableRecord
100
AcDbBlockTableRecord
  2
*D33
340
0
  0
BLOCK_RECORD
  5
7C4
330
1
100
AcDbSymbolTableRecord
100
AcDbBlockTableRecord
  2
*D34
340
0
  0
BLOCK_RECORD
  5
7D1
330
1
100
AcDbSymbolTableRecord
100
AcDbBlockTableRecord
  2
*D35
340
0
  0
ENDTAB
  0
ENDSEC
  0
SECTION
  2
BLOCKS
  0
BLOCK
  5
20
330
1F
100
AcDbEntity
  8
0
100
AcDbBlockBegin
  2
*Model_Space
 70
     0
 10
0.0
 20
0.0
 30
0.0
  3
*Model_Space
  1

  0
ENDBLK
  5
21
330
1F
100
AcDbEntity
  8
0
100
AcDbBlockEnd
  0
BLOCK
  5
1C
330
1B
100
AcDbEntity
 67
     1
  8
0
100
AcDbBlockBegin
  2
*Paper_Space
 70
     0
 10
0.0
 20
0.0
 30
0.0
  3
*Paper_Space
  1

  0
ENDBLK
  5
1D
330
1B
100
AcDbEntity
 67
     1
  8
0
100
AcDbBlockEnd
  0
BLOCK
  5
65F
330
65E
100
AcDbEntity
  8
0
100
AcDbBlockBegin
  2
*D22
 70
     1
 10
0.0
 20
0.0
 30
0.0
  3
*D22
  1

  0
LINE
  5
7DD
330
65E
100
AcDbEntity
  8
0
 62
     9
370
    -2
100
AcDbLine
 10
-25.89248137310472
 20
25.7855167167107
 30
0.0
 11
-25.89248137310471
 21
80.88436223074905
 31
0.0
  0
LINE
  5
7DE
330
65E
100
AcDbEntity
  8
0
 62
     9
370
    -2
100
AcDbLine
 10
109.7796006236516
 20
25.7855167167107
 30
0.0
 11
109.7796006236516
 21
80.88436223074905
 31
0.0
  0
LINE
  5
7DF
330
65E
100
AcDbEntity
  8
0
 62
     9
370
    -2
100
AcDbLine
 10
-10.89248137310471
 20
68.88436223074904
 30
0.0
 11
94.77960062365161
 21
68.88436223074904
 31
0.0
  0
SOLID
  5
7E0
330
65E
100
AcDbEntity
  8
0
 62
     9
100
AcDbTrace
 10
-10.89248137310471
 20
71.38436223074904
 30
0.0
 11
-10.89248137310471
 21
66.38436223074904
 31
0.0
 12
-25.89248137310471
 22
68.88436223074904
 32
0.0
 13
-25.89248137310471
 23
68.88436223074904
 33
0.0
  0
SOLID
  5
7E1
330
65E
100
AcDbEntity
  8
0
 62
     9
100
AcDbTrace
 10
94.77960062365161
 20
71.38436223074904
 30
0.0
 11
94.77960062365161
 21
66.38436223074904
 31
0.0
 12
109.7796006236516
 22
68.88436223074904
 32
0.0
 13
109.7796006236516
 23
68.88436223074904
 33
0.0
  0
MTEXT
  5
7E2
330
65E
100
AcDbEntity
  8
0
 62
     2
100
AcDbMText
 10
41.94355962527345
 20
80.88436223074905
 30
0.0
 40
18.0
 41
0.0
 71
     5
 72
     1
  1
\A1;Max. 1.5m
  7
AD-STANDARD
 73
     1
 44
1.0
1001
ACAD
1000
MTEXTBEGIN
1070
    73
1070
     1
1070
    44
1040
1.0
1070
    74
1070
     0
1000
MTEXTEND
  0
POINT
  5
7E3
330
65E
100
AcDbEntity
  8
DEFPOINTS
 62
     0
100
AcDbPoint
 10
-25.89248137310472
 20
19.7855167167107
 30
0.0
  0
POINT
  5
7E4
330
65E
100
AcDbEntity
  8
DEFPOINTS
 62
     0
100
AcDbPoint
 10
109.7796006236516
 20
19.7855167167107
 30
0.0
  0
POINT
  5
7E5
330
65E
100
AcDbEntity
  8
DEFPOINTS
 62
     0
100
AcDbPoint
 10
109.7796006236516
 20
68.88436223074904
 30
0.0
  0
ENDBLK
  5
660
330
65E
100
AcDbEntity
  8
0
100
AcDbBlockEnd
  0
BLOCK
  5
72C
330
72B
100
AcDbEntity
  8
0
100
AcDbBlockBegin
  2
*D27
 70
     1
 10
0.0
 20
0.0
 30
0.0
  3
*D27
  1

  0
LINE
  5
7E6
330
72B
100
AcDbEntity
  8
0
 62
     9
370
    -2
100
AcDbLine
 10
93.27960062365162
 20
-26.21448328328904
 30
0.0
 11
49.89932455769122
 21
-26.21448328328903
 31
0.0
  0
LINE
  5
7E7
330
72B
100
AcDbEntity
  8
0
 62
     9
370
    -2
100
AcDbLine
 10
93.2796006236515
 20
-46.21448328328892
 30
0.0
 11
49.89932455769122
 21
-46.21448328328892
 31
0.0
  0
LINE
  5
7E8
330
72B
100
AcDbEntity
  8
0
 62
     9
370
    -2
100
AcDbLine
 10
61.89932455769123
 20
-11.21448328328903
 30
0.0
 11
61.89932455769123
 21
3.785516716710969
 31
0.0
  0
LINE
  5
7E9
330
72B
100
AcDbEntity
  8
0
 62
     9
370
    -2
100
AcDbLine
 10
61.89932455769121
 20
-61.21448328328892
 30
0.0
 11
61.8993245576912
 21
-105.5287689975746
 31
0.0
  0
LINE
  5
7EA
330
72B
100
AcDbEntity
  8
0
 62
     9
370
    -2
100
AcDbLine
 10
61.89932455769122
 20
-26.21448328328903
 30
0.0
 11
61.89932455769122
 21
-46.21448328328892
 31
0.0
  0
SOLID
  5
7EB
330
72B
100
AcDbEntity
  8
0
 62
     9
100
AcDbTrace
 10
59.39932455769123
 20
-11.21448328328903
 30
0.0
 11
64.39932455769123
 21
-11.21448328328903
 31
0.0
 12
61.89932455769122
 22
-26.21448328328903
 32
0.0
 13
61.89932455769122
 23
-26.21448328328903
 33
0.0
  0
SOLID
  5
7EC
330
72B
100
AcDbEntity
  8
0
 62
     9
100
AcDbTrace
 10
59.39932455769121
 20
-61.21448328328892
 30
0.0
 11
64.39932455769121
 21
-61.21448328328892
 31
0.0
 12
61.89932455769122
 22
-46.21448328328892
 32
0.0
 13
61.89932455769122
 23
-46.21448328328892
 33
0.0
  0
MTEXT
  5
7ED
330
72B
100
AcDbEntity
  8
0
 62
     2
100
AcDbMText
 10
49.89932455769122
 20
-90.87162614043178
 30
0.0
 40
18.0
 41
0.0
 71
     5
 72
     1
  1
\A1;20
  7
AD-STANDARD
 11
0.0000000000000001
 21
1.0
 31
0.0
 73
     1
 44
1.0
1001
ACAD
1000
MTEXTBEGIN
1070
    73
1070
     1
1070
    44
1040
1.0
1070
    74
1070
     0
1000
MTEXTEND
  0
POINT
  5
7EE
330
72B
100
AcDbEntity
  8
DEFPOINTS
 62
     0
100
AcDbPoint
 10
99.27960062365162
 20
-26.21448328328904
 30
0.0
  0
POINT
  5
7EF
330
72B
100
AcDbEntity
  8
DEFPOINTS
 62
     0
100
AcDbPoint
 10
99.27960062365151
 20
-46.21448328328892
 30
0.0
  0
POINT
  5
7F0
330
72B
100
AcDbEntity
  8
DEFPOINTS
 62
     0
100
AcDbPoint
 10
61.89932455769122
 20
-46.21448328328892
 30
0.0
  0
ENDBLK
  5
72D
330
72B
100
AcDbEntity
  8
0
100
AcDbBlockEnd
  0
BLOCK
  5
73B
330
73A
100
AcDbEntity
  8
0
100
AcDbBlockBegin
  2
*D28
 70
     1
 10
0.0
 20
0.0
 30
0.0
  3
*D28
  1

  0
LINE
  5
7F1
330
73A
100
AcDbEntity
  8
0
 62
     9
370
    -2
100
AcDbLine
 10
101.7796006236515
 20
-36.21448328328904
 30
0.0
 11
17.3037239571918
 21
-36.21448328328902
 31
0.0
  0
LINE
  5
7F2
330
73A
100
AcDbEntity
  8
0
 62
     9
370
    -2
100
AcDbLine
 10
105.2721564089579
 20
-181.2144832832891
 30
0.0
 11
17.30372395719177
 21
-181.2144832832891
 31
0.0
  0
LINE
  5
7F3
330
73A
100
AcDbEntity
  8
0
 62
     9
370
    -2
100
AcDbLine
 10
29.30372395719179
 20
-51.21448328328902
 30
0.0
 11
29.30372395719177
 21
-166.2144832832891
 31
0.0
  0
SOLID
  5
7F4
330
73A
100
AcDbEntity
  8
0
 62
     9
100
AcDbTrace
 10
26.80372395719179
 20
-51.21448328328902
 30
0.0
 11
31.80372395719179
 21
-51.21448328328902
 31
0.0
 12
29.3037239571918
 22
-36.21448328328902
 32
0.0
 13
29.3037239571918
 23
-36.21448328328902
 33
0.0
  0
SOLID
  5
7F5
330
73A
100
AcDbEntity
  8
0
 62
     9
100
AcDbTrace
 10
26.80372395719177
 20
-166.2144832832891
 30
0.0
 11
31.80372395719177
 21
-166.2144832832891
 31
0.0
 12
29.30372395719177
 22
-181.2144832832891
 32
0.0
 13
29.30372395719177
 23
-181.2144832832891
 33
0.0
  0
MTEXT
  5
7F6
330
73A
100
AcDbEntity
  8
0
 62
     2
100
AcDbMText
 10
17.30372395719179
 20
-108.714483283289
 30
0.0
 40
18.0
 41
0.0
 71
     5
 72
     1
  1
\A1;145
  7
AD-STANDARD
 11
0.0000000000000001
 21
1.0
 31
0.0
 73
     1
 44
1.0
1001
ACAD
1000
MTEXTBEGIN
1070
    73
1070
     1
1070
    44
1040
1.0
1070
    74
1070
     0
1000
MTEXTEND
  0
POINT
  5
7F7
330
73A
100
AcDbEntity
  8
DEFPOINTS
 62
     0
100
AcDbPoint
 10
107.7796006236515
 20
-36.21448328328904
 30
0.0
  0
POINT
  5
7F8
330
73A
100
AcDbEntity
  8
DEFPOINTS
 62
     0
100
AcDbPoint
 10
111.2721564089579
 20
-181.2144832832891
 30
0.0
  0
POINT
  5
7F9
330
73A
100
AcDbEntity
  8
DEFPOINTS
 62
     0
100
AcDbPoint
 10
29.30372395719177
 20
-181.2144832832891
 30
0.0
  0
ENDBLK
  5
73C
330
73A
100
AcDbEntity
  8
0
100
AcDbBlockEnd
  0
BLOCK
  5
763
330
762
100
AcDbEntity
  8
0
100
AcDbBlockBegin
  2
*D29
 70
     1
 10
0.0
 20
0.0
 30
0.0
  3
*D29
  1

  0
LINE
  5
7FA
330
762
100
AcDbEntity
  8
0
 62
     9
370
    -2
100
AcDbLine
 10
89.27960062365162
 20
-42.21448328328904
 30
0.0
 11
89.2796006236516
 21
-247.7517584920715
 31
0.0
  0
LINE
  5
7FB
330
762
100
AcDbEntity
  8
0
 62
     9
370
    -2
100
AcDbLine
 10
109.7796006236516
 20
-185.7219274979704
 30
0.0
 11
109.7796006236516
 21
-247.7517584920715
 31
0.0
  0
LINE
  5
7FC
330
762
100
AcDbEntity
  8
0
 62
     9
370
    -2
100
AcDbLine
 10
124.7796006236516
 20
-235.7517584920715
 30
0.0
 11
139.7796006236516
 21
-235.7517584920715
 31
0.0
  0
LINE
  5
7FD
330
762
100
AcDbEntity
  8
0
 62
     9
370
    -2
100
AcDbLine
 10
74.2796006236516
 20
-235.7517584920715
 30
0.0
 11
9.393886337937324
 21
-235.7517584920715
 31
0.0
  0
LINE
  5
7FE
330
762
100
AcDbEntity
  8
0
 62
     9
370
    -2
100
AcDbLine
 10
109.7796006236516
 20
-235.7517584920715
 30
0.0
 11
89.2796006236516
 21
-235.7517584920715
 31
0.0
  0
SOLID
  5
7FF
330
762
100
AcDbEntity
  8
0
 62
     9
100
AcDbTrace
 10
124.7796006236516
 20
-233.2517584920715
 30
0.0
 11
124.7796006236516
 21
-238.2517584920715
 31
0.0
 12
109.7796006236516
 22
-235.7517584920715
 32
0.0
 13
109.7796006236516
 23
-235.7517584920715
 33
0.0
  0
SOLID
  5
800
330
762
100
AcDbEntity
  8
0
 62
     9
100
AcDbTrace
 10
74.2796006236516
 20
-233.2517584920715
 30
0.0
 11
74.2796006236516
 21
-238.2517584920715
 31
0.0
 12
89.2796006236516
 22
-235.7517584920715
 32
0.0
 13
89.2796006236516
 23
-235.7517584920715
 33
0.0
  0
MTEXT
  5
801
330
762
100
AcDbEntity
  8
0
 62
     2
100
AcDbMText
 10
34.33674348079447
 20
-223.7517584920715
 30
0.0
 40
18.0
 41
0.0
 71
     5
 72
     1
  1
\A1;20.5
  7
AD-STANDARD
 73
     1
 44
1.0
1001
ACAD
1000
MTEXTBEGIN
1070
    73
1070
     1
1070
    44
1040
1.0
1070
    74
1070
     0
1000
MTEXTEND
  0
POINT
  5
802
330
762
100
AcDbEntity
  8
DEFPOINTS
 62
     0
100
AcDbPoint
 10
89.27960062365162
 20
-36.21448328328904
 30
0.0
  0
POINT
  5
803
330
762
100
AcDbEntity
  8
DEFPOINTS
 62
     0
100
AcDbPoint
 10
109.7796006236516
 20
-179.7219274979704
 30
0.0
  0
POINT
  5
804
330
762
100
AcDbEntity
  8
DEFPOINTS
 62
     0
100
AcDbPoint
 10
109.7796006236516
 20
-235.7517584920715
 30
0.0
  0
ENDBLK
  5
764
330
762
100
AcDbEntity
  8
0
100
AcDbBlockEnd
  0
BLOCK
  5
788
330
787
100
AcDbEntity
  8
0
100
AcDbBlockBegin
  2
*D30
 70
     1
 10
0.0
 20
0.0
 30
0.0
  3
*D30
  1

  0
LINE
  5
805
330
787
100
AcDbEntity
  8
0
 62
     9
370
    -2
100
AcDbLine
 10
109.7796006236516
 20
-185.7219274979704
 30
0.0
 11
109.7796006236516
 21
-247.7517584920715
 31
0.0
  0
LINE
  5
806
330
787
100
AcDbEntity
  8
0
 62
     9
370
    -2
100
AcDbLine
 10
639.7796006236517
 20
-185.7219274979704
 30
0.0
 11
639.7796006236517
 21
-247.7517584920715
 31
0.0
  0
LINE
  5
807
330
787
100
AcDbEntity
  8
0
 62
     9
370
    -2
100
AcDbLine
 10
124.7796006236516
 20
-235.7517584920715
 30
0.0
 11
624.7796006236517
 21
-235.7517584920715
 31
0.0
  0
SOLID
  5
808
330
787
100
AcDbEntity
  8
0
 62
     9
100
AcDbTrace
 10
124.7796006236516
 20
-233.2517584920715
 30
0.0
 11
124.7796006236516
 21
-238.2517584920715
 31
0.0
 12
109.7796006236516
 22
-235.7517584920715
 32
0.0
 13
109.7796006236516
 23
-235.7517584920715
 33
0.0
  0
SOLID
  5
809
330
787
100
AcDbEntity
  8
0
 62
     9
100
AcDbTrace
 10
624.7796006236517
 20
-233.2517584920715
 30
0.0
 11
624.7796006236517
 21
-238.2517584920715
 31
0.0
 12
639.7796006236517
 22
-235.7517584920715
 32
0.0
 13
639.7796006236517
 23
-235.7517584920715
 33
0.0
  0
MTEXT
  5
80A
330
787
100
AcDbEntity
  8
0
 62
     2
100
AcDbMText
 10
374.7796006236517
 20
-223.7517584920715
 30
0.0
 40
18.0
 41
0.0
 71
     5
 72
     1
  1
\A1;530
  7
AD-STANDARD
 73
     1
 44
1.0
1001
ACAD
1000
MTEXTBEGIN
1070
    73
1070
     1
1070
    44
1040
1.0
1070
    74
1070
     0
1000
MTEXTEND
  0
POINT
  5
80B
330
787
100
AcDbEntity
  8
DEFPOINTS
 62
     0
100
AcDbPoint
 10
109.7796006236516
 20
-179.7219274979704
 30
0.0
  0
POINT
  5
80C
330
787
100
AcDbEntity
  8
DEFPOINTS
 62
     0
100
AcDbPoint
 10
639.7796006236517
 20
-179.7219274979704
 30
0.0
  0
POINT
  5
80D
330
787
100
AcDbEntity
  8
DEFPOINTS
 62
     0
100
AcDbPoint
 10
639.7796006236517
 20
-235.7517584920715
 30
0.0
  0
ENDBLK
  5
789
330
787
100
AcDbEntity
  8
0
100
AcDbBlockEnd
  0
BLOCK
  5
795
330
794
100
AcDbEntity
  8
0
100
AcDbBlockBegin
  2
*D31
 70
     1
 10
0.0
 20
0.0
 30
0.0
  3
*D31
  1

  0
LINE
  5
80E
330
794
100
AcDbEntity
  8
0
 62
     9
370
    -2
100
AcDbLine
 10
644.2870448383453
 20
-181.2144832832891
 30
0.0
 11
714.2220408430684
 21
-181.2144832832892
 31
0.0
  0
LINE
  5
80F
330
794
100
AcDbEntity
  8
0
 62
     9
370
    -2
100
AcDbLine
 10
644.2870448383451
 20
208.7855167167108
 30
0.0
 11
714.2220408430684
 21
208.7855167167108
 31
0.0
  0
LINE
  5
810
330
794
100
AcDbEntity
  8
0
 62
     9
370
    -2
100
AcDbLine
 10
702.2220408430684
 20
-166.2144832832891
 30
0.0
 11
702.2220408430684
 21
193.7855167167108
 31
0.0
  0
SOLID
  5
811
330
794
100
AcDbEntity
  8
0
 62
     9
100
AcDbTrace
 10
699.7220408430685
 20
-166.2144832832891
 30
0.0
 11
704.7220408430685
 21
-166.2144832832892
 31
0.0
 12
702.2220408430684
 22
-181.2144832832891
 32
0.0
 13
702.2220408430684
 23
-181.2144832832891
 33
0.0
  0
SOLID
  5
812
330
794
100
AcDbEntity
  8
0
 62
     9
100
AcDbTrace
 10
699.7220408430685
 20
193.7855167167108
 30
0.0
 11
704.7220408430685
 21
193.7855167167108
 31
0.0
 12
702.2220408430684
 22
208.7855167167108
 32
0.0
 13
702.2220408430684
 23
208.7855167167108
 33
0.0
  0
MTEXT
  5
813
330
794
100
AcDbEntity
  8
0
 62
     2
100
AcDbMText
 10
690.2220408430685
 20
13.78551671671094
 30
0.0
 40
18.0
 41
0.0
 71
     5
 72
     1
  1
\A1;390
  7
AD-STANDARD
 11
0.0000000000000001
 21
1.0
 31
0.0
 73
     1
 44
1.0
1001
ACAD
1000
MTEXTBEGIN
1070
    73
1070
     1
1070
    44
1040
1.0
1070
    74
1070
     0
1000
MTEXTEND
  0
POINT
  5
814
330
794
100
AcDbEntity
  8
DEFPOINTS
 62
     0
100
AcDbPoint
 10
638.2870448383453
 20
-181.2144832832891
 30
0.0
  0
POINT
  5
815
330
794
100
AcDbEntity
  8
DEFPOINTS
 62
     0
100
AcDbPoint
 10
638.287044838345
 20
208.7855167167108
 30
0.0
  0
POINT
  5
816
330
794
100
AcDbEntity
  8
DEFPOINTS
 62
     0
100
AcDbPoint
 10
702.2220408430684
 20
208.7855167167108
 30
0.0
  0
ENDBLK
  5
796
330
794
100
AcDbEntity
  8
0
100
AcDbBlockEnd
  0
BLOCK
  5
7A2
330
7A1
100
AcDbEntity
  8
0
100
AcDbBlockBegin
  2
*D32
 70
     1
 10
0.0
 20
0.0
 30
0.0
  3
*D32
  1

  0
LINE
  5
7A4
330
7A1
100
AcDbEntity
  8
0
 62
     9
370
    -2
100
AcDbLine
 10
134.2796006236515
 20
-493.3143167066576
 30
0.0
 11
134.2796006236515
 21
-546.9354212725563
 31
0.0
  0
LINE
  5
7A5
330
7A1
100
AcDbEntity
  8
0
 62
     9
370
    -2
100
AcDbLine
 10
615.2796006236513
 20
-493.3143167066576
 30
0.0
 11
615.2796006236513
 21
-546.9354212725563
 31
0.0
  0
LINE
  5
7A6
330
7A1
100
AcDbEntity
  8
0
 62
     9
370
    -2
100
AcDbLine
 10
149.2796006236515
 20
-534.9354212725564
 30
0.0
 11
600.2796006236514
 21
-534.9354212725564
 31
0.0
  0
SOLID
  5
7A7
330
7A1
100
AcDbEntity
  8
0
 62
     9
100
AcDbTrace
 10
149.2796006236515
 20
-532.4354212725563
 30
0.0
 11
149.2796006236515
 21
-537.4354212725563
 31
0.0
 12
134.2796006236515
 22
-534.9354212725564
 32
0.0
 13
134.2796006236515
 23
-534.9354212725564
 33
0.0
  0
SOLID
  5
7A8
330
7A1
100
AcDbEntity
  8
0
 62
     9
100
AcDbTrace
 10
600.2796006236514
 20
-532.4354212725563
 30
0.0
 11
600.2796006236514
 21
-537.4354212725563
 31
0.0
 12
615.2796006236513
 22
-534.9354212725564
 32
0.0
 13
615.2796006236513
 23
-534.9354212725564
 33
0.0
  0
MTEXT
  5
7A9
330
7A1
100
AcDbEntity
  8
0
 62
     2
100
AcDbMText
 10
374.7796006236514
 20
-522.9354212725564
 30
0.0
 40
18.0
 41
0.0
 71
     5
 72
     1
  1
\A1;481
  7
AD-STANDARD
 73
     1
 44
1.0
1001
ACAD
1000
MTEXTBEGIN
1070
    73
1070
     1
1070
    44
1040
1.0
1070
    74
1070
     0
1000
MTEXTEND
  0
POINT
  5
7AA
330
7A1
100
AcDbEntity
  8
DEFPOINTS
 62
     0
100
AcDbPoint
 10
134.2796006236515
 20
-487.3143167066577
 30
0.0
  0
POINT
  5
7AB
330
7A1
100
AcDbEntity
  8
DEFPOINTS
 62
     0
100
AcDbPoint
 10
615.2796006236513
 20
-487.3143167066577
 30
0.0
  0
POINT
  5
7AC
330
7A1
100
AcDbEntity
  8
DEFPOINTS
 62
     0
100
AcDbPoint
 10
615.2796006236513
 20
-534.9354212725564
 30
0.0
  0
ENDBLK
  5
7A3
330
7A1
100
AcDbEntity
  8
0
100
AcDbBlockEnd
  0
BLOCK
  5
7B8
330
7B7
100
AcDbEntity
  8
0
100
AcDbBlockBegin
  2
*D33
 70
     1
 10
0.0
 20
0.0
 30
0.0
  3
*D33
  1

  0
LINE
  5
7BA
330
7B7
100
AcDbEntity
  8
0
 62
     9
370
    -2
100
AcDbLine
 10
857.0683302036231
 20
-493.3143167066577
 30
0.0
 11
857.0683302036231
 21
-546.9354212725563
 31
0.0
  0
LINE
  5
7BB
330
7B7
100
AcDbEntity
  8
0
 62
     9
370
    -2
100
AcDbLine
 10
1175.068330203623
 20
-493.3143167066577
 30
0.0
 11
1175.068330203623
 21
-546.9354212725563
 31
0.0
  0
LINE
  5
7BC
330
7B7
100
AcDbEntity
  8
0
 62
     9
370
    -2
100
AcDbLine
 10
872.0683302036231
 20
-534.9354212725564
 30
0.0
 11
1160.068330203623
 21
-534.9354212725564
 31
0.0
  0
SOLID
  5
7BD
330
7B7
100
AcDbEntity
  8
0
 62
     9
100
AcDbTrace
 10
872.0683302036231
 20
-532.4354212725563
 30
0.0
 11
872.0683302036231
 21
-537.4354212725563
 31
0.0
 12
857.0683302036231
 22
-534.9354212725564
 32
0.0
 13
857.0683302036231
 23
-534.9354212725564
 33
0.0
  0
SOLID
  5
7BE
330
7B7
100
AcDbEntity
  8
0
 62
     9
100
AcDbTrace
 10
1160.068330203623
 20
-532.4354212725563
 30
0.0
 11
1160.068330203623
 21
-537.4354212725563
 31
0.0
 12
1175.068330203623
 22
-534.9354212725564
 32
0.0
 13
1175.068330203623
 23
-534.9354212725564
 33
0.0
  0
MTEXT
  5
7BF
330
7B7
100
AcDbEntity
  8
0
 62
     2
100
AcDbMText
 10
1016.068330203623
 20
-522.9354212725564
 30
0.0
 40
18.0
 41
0.0
 71
     5
 72
     1
  1
\A1;318
  7
AD-STANDARD
 73
     1
 44
1.0
1001
ACAD
1000
MTEXTBEGIN
1070
    73
1070
     1
1070
    44
1040
1.0
1070
    74
1070
     0
1000
MTEXTEND
  0
POINT
  5
7C0
330
7B7
100
AcDbEntity
  8
DEFPOINTS
 62
     0
100
AcDbPoint
 10
857.0683302036231
 20
-487.3143167066578
 30
0.0
  0
POINT
  5
7C1
330
7B7
100
AcDbEntity
  8
DEFPOINTS
 62
     0
100
AcDbPoint
 10
1175.068330203623
 20
-487.3143167066578
 30
0.0
  0
POINT
  5
7C2
330
7B7
100
AcDbEntity
  8
DEFPOINTS
 62
     0
100
AcDbPoint
 10
1175.068330203623
 20
-534.9354212725564
 30
0.0
  0
ENDBLK
  5
7B9
330
7B7
100
AcDbEntity
  8
0
100
AcDbBlockEnd
  0
BLOCK
  5
7C5
330
7C4
100
AcDbEntity
  8
0
100
AcDbBlockBegin
  2
*D34
 70
     1
 10
0.0
 20
0.0
 30
0.0
  3
*D34
  1

  0
LINE
  5
7C7
330
7C4
100
AcDbEntity
  8
0
 62
     9
370
    -2
100
AcDbLine
 10
639.4221192805253
 20
-360.8143167066577
 30
0.0
 11
714.2220408430683
 21
-360.8143167066578
 31
0.0
  0
LINE
  5
7C8
330
7C4
100
AcDbEntity
  8
0
 62
     9
370
    -2
100
AcDbLine
 10
645.7796006236517
 20
-410.8143167066577
 30
0.0
 11
714.2220408430683
 21
-410.8143167066577
 31
0.0
  0
LINE
  5
7C9
330
7C4
100
AcDbEntity
  8
0
 62
     9
370
    -2
100
AcDbLine
 10
702.2220408430683
 20
-375.8143167066577
 30
0.0
 11
702.2220408430683
 21
-395.8143167066578
 31
0.0
  0
SOLID
  5
7CA
330
7C4
100
AcDbEntity
  8
0
 62
     9
100
AcDbTrace
 10
699.7220408430684
 20
-375.8143167066577
 30
0.0
 11
704.7220408430684
 21
-375.8143167066577
 31
0.0
 12
702.2220408430683
 22
-360.8143167066578
 32
0.0
 13
702.2220408430683
 23
-360.8143167066578
 33
0.0
  0
SOLID
  5
7CB
330
7C4
100
AcDbEntity
  8
0
 62
     9
100
AcDbTrace
 10
699.7220408430684
 20
-395.8143167066578
 30
0.0
 11
704.7220408430684
 21
-395.8143167066578
 31
0.0
 12
702.2220408430683
 22
-410.8143167066577
 32
0.0
 13
702.2220408430683
 23
-410.8143167066577
 33
0.0
  0
MTEXT
  5
7CC
330
7C4
100
AcDbEntity
  8
0
 62
     2
100
AcDbMText
 10
690.2220408430685
 20
-385.8143167066576
 30
0.0
 40
18.0
 41
0.0
 71
     5
 72
     1
  1
\A1;50
  7
AD-STANDARD
 11
0.0000000000000001
 21
1.0
 31
0.0
 73
     1
 44
1.0
1001
ACAD
1000
MTEXTBEGIN
1070
    73
1070
     1
1070
    44
1040
1.0
1070
    74
1070
     0
1000
MTEXTEND
  0
POINT
  5
7CD
330
7C4
100
AcDbEntity
  8
DEFPOINTS
 62
     0
100
AcDbPoint
 10
633.4221192805252
 20
-360.8143167066577
 30
0.0
  0
POINT
  5
7CE
330
7C4
100
AcDbEntity
  8
DEFPOINTS
 62
     0
100
AcDbPoint
 10
639.7796006236517
 20
-410.8143167066576
 30
0.0
  0
POINT
  5
7CF
330
7C4
100
AcDbEntity
  8
DEFPOINTS
 62
     0
100
AcDbPoint
 10
702.2220408430683
 20
-410.8143167066577
 30
0.0
  0
ENDBLK
  5
7C6
330
7C4
100
AcDbEntity
  8
0
100
AcDbBlockEnd
  0
BLOCK
  5
7D2
330
7D1
100
AcDbEntity
  8
0
100
AcDbBlockBegin
  2
*D35
 70
     1
 10
0.0
 20
0.0
 30
0.0
  3
*D35
  1

  0
LINE
  5
7D4
330
7D1
100
AcDbEntity
  8
0
 62
     9
370
    -2
100
AcDbLine
 10
639.422119280525
 20
-360.8143167066577
 30
0.0
 11
761.1533583780792
 21
-360.8143167066578
 31
0.0
  0
LINE
  5
7D5
330
7D1
100
AcDbEntity
  8
0
 62
     9
370
    -2
100
AcDbLine
 10
632.7796006236512
 20
-487.3143167066577
 30
0.0
 11
761.1533583780792
 21
-487.3143167066577
 31
0.0
  0
LINE
  5
7D6
330
7D1
100
AcDbEntity
  8
0
 62
     9
370
    -2
100
AcDbLine
 10
749.1533583780793
 20
-375.8143167066577
 30
0.0
 11
749.1533583780793
 21
-472.3143167066577
 31
0.0
  0
SOLID
  5
7D7
330
7D1
100
AcDbEntity
  8
0
 62
     9
100
AcDbTrace
 10
746.6533583780792
 20
-375.8143167066577
 30
0.0
 11
751.6533583780792
 21
-375.8143167066577
 31
0.0
 12
749.1533583780793
 22
-360.8143167066578
 32
0.0
 13
749.1533583780793
 23
-360.8143167066578
 33
0.0
  0
SOLID
  5
7D8
330
7D1
100
AcDbEntity
  8
0
 62
     9
100
AcDbTrace
 10
746.6533583780792
 20
-472.3143167066577
 30
0.0
 11
751.6533583780792
 21
-472.3143167066577
 31
0.0
 12
749.1533583780793
 22
-487.3143167066577
 32
0.0
 13
749.1533583780793
 23
-487.3143167066577
 33
0.0
  0
MTEXT
  5
7D9
330
7D1
100
AcDbEntity
  8
0
 62
     2
100
AcDbMText
 10
737.1533583780793
 20
-424.0643167066576
 30
0.0
 40
18.0
 41
0.0
 71
     5
 72
     1
  1
\A1;126.5
  7
AD-STANDARD
 11
0.0000000000000001
 21
1.0
 31
0.0
 73
     1
 44
1.0
1001
ACAD
1000
MTEXTBEGIN
1070
    73
1070
     1
1070
    44
1040
1.0
1070
    74
1070
     0
1000
MTEXTEND
  0
POINT
  5
7DA
330
7D1
100
AcDbEntity
  8
DEFPOINTS
 62
     0
100
AcDbPoint
 10
633.4221192805251
 20
-360.8143167066577
 30
0.0
  0
POINT
  5
7DB
330
7D1
100
AcDbEntity
  8
DEFPOINTS
 62
     0
100
AcDbPoint
 10
626.7796006236513
 20
-487.3143167066577
 30
0.0
  0
POINT
  5
7DC
330
7D1
100
AcDbEntity
  8
DEFPOINTS
 62
     0
100
AcDbPoint
 10
749.1533583780793
 20
-487.3143167066577
 30
0.0
  0
ENDBLK
  5
7D3
330
7D1
100
AcDbEntity
  8
0
100
AcDbBlockEnd
  0
ENDSEC
  0
SECTION
  2
ENTITIES
  0
LINE
  5
42D
330
1F
100
AcDbEntity
  8
0
100
AcDbLine
 10
1160.168330203623
 20
-464.3143167066577
 30
0.0
 11
1189.968330203623
 21
-464.3143167066577
 31
0.0
  0
LINE
  5
42E
330
1F
100
AcDbEntity
  8
0
100
AcDbLine
 10
1160.371391746924
 20
-438.4143167066578
 30
0.0
 11
1190.068330203623
 21
-438.4143167066578
 31
0.0
  0
LINE
  5
42F
330
1F
100
AcDbEntity
  8
0
100
AcDbLine
 10
1190.068330203623
 20
-464.2143167066577
 30
0.0
 11
1160.068330203622
 21
-464.2143167066577
 31
0.0
  0
LINE
  5
430
330
1F
100
AcDbEntity
  8
0
100
AcDbLine
 10
1189.968330203623
 20
-438.3143167066577
 30
0.0
 11
1160.371391746924
 21
-438.3143167066577
 31
0.0
  0
LINE
  5
431
330
1F
100
AcDbEntity
  8
0
100
AcDbLine
 10
1190.068330203623
 20
-464.2143167066577
 30
0.0
 11
1190.068330203623
 21
-438.4143167066578
 31
0.0
  0
LINE
  5
432
330
1F
100
AcDbEntity
  8
0
100
AcDbLine
 10
1160.068330203622
 20
-458.3143167066578
 30
0.0
 11
1160.068330203622
 21
-464.2143167066577
 31
0.0
  0
LINE
  5
433
330
1F
100
AcDbEntity
  8
0
100
AcDbLine
 10
1160.068330203622
 20
-464.2143167066577
 30
0.0
 11
1160.168330203622
 21
-464.3143167066577
 31
0.0
  0
LINE
  5
434
330
1F
100
AcDbEntity
  8
0
100
AcDbLine
 10
1189.968330203623
 20
-464.3143167066577
 30
0.0
 11
1190.068330203623
 21
-464.2143167066577
 31
0.0
  0
LINE
  5
435
330
1F
100
AcDbEntity
  8
0
100
AcDbLine
 10
1190.068330203623
 20
-438.4143167066578
 30
0.0
 11
1189.968330203623
 21
-438.3143167066577
 31
0.0
  0
LINE
  5
436
330
1F
100
AcDbEntity
  8
0
100
AcDbLine
 10
842.168330203623
 20
-464.3143167066577
 30
0.0
 11
871.968330203623
 21
-464.3143167066577
 31
0.0
  0
LINE
  5
437
330
1F
100
AcDbEntity
  8
0
100
AcDbLine
 10
842.0683302036229
 20
-438.4143167066578
 30
0.0
 11
871.7652686603219
 21
-438.4143167066578
 31
0.0
  0
LINE
  5
438
330
1F
100
AcDbEntity
  8
0
100
AcDbLine
 10
872.0683302036229
 20
-464.2143167066577
 30
0.0
 11
842.0683302036229
 21
-464.2143167066577
 31
0.0
  0
LINE
  5
439
330
1F
100
AcDbEntity
  8
0
100
AcDbLine
 10
871.7652686603221
 20
-438.3143167066577
 30
0.0
 11
842.168330203623
 21
-438.3143167066577
 31
0.0
  0
LINE
  5
43A
330
1F
100
AcDbEntity
  8
0
100
AcDbLine
 10
872.0683302036229
 20
-464.2143167066577
 30
0.0
 11
872.0683302036229
 21
-458.3143167066578
 31
0.0
  0
LINE
  5
43B
330
1F
100
AcDbEntity
  8
0
100
AcDbLine
 10
842.0683302036229
 20
-438.4143167066578
 30
0.0
 11
842.0683302036229
 21
-464.2143167066577
 31
0.0
  0
LINE
  5
43C
330
1F
100
AcDbEntity
  8
0
100
AcDbLine
 10
842.0683302036229
 20
-464.2143167066578
 30
0.0
 11
842.1683302036228
 21
-464.3143167066577
 31
0.0
  0
LINE
  5
43D
330
1F
100
AcDbEntity
  8
0
100
AcDbLine
 10
871.968330203623
 20
-464.3143167066577
 30
0.0
 11
872.0683302036229
 21
-464.2143167066578
 31
0.0
  0
LINE
  5
43E
330
1F
100
AcDbEntity
  8
0
100
AcDbLine
 10
842.168330203623
 20
-438.3143167066577
 30
0.0
 11
842.0683302036232
 21
-438.4143167066578
 31
0.0
  0
LINE
  5
43F
330
1F
100
AcDbEntity
  8
0
100
AcDbLine
 10
871.7652686603221
 20
-458.3143167066578
 30
0.0
 11
1160.371391746924
 21
-458.3143167066578
 31
0.0
  0
LINE
  5
440
330
1F
100
AcDbEntity
  8
0
100
AcDbLine
 10
873.0683302036231
 20
-423.3143167066577
 30
0.0
 11
1159.068330203623
 21
-423.3143167066577
 31
0.0
  0
LINE
  5
441
330
1F
100
AcDbEntity
  8
0
100
AcDbLine
 10
1160.068330203623
 20
-424.3143167066578
 30
0.0
 11
1160.068330203623
 21
-438.3143167066577
 31
0.0
  0
LINE
  5
442
330
1F
100
AcDbEntity
  8
0
100
AcDbLine
 10
872.0683302036229
 20
-424.3143167066578
 30
0.0
 11
872.0683302036229
 21
-438.3143167066577
 31
0.0
  0
LINE
  5
443
330
1F
100
AcDbEntity
  8
0
100
AcDbLine
 10
873.0683302036231
 20
-423.3143167066577
 30
0.0
 11
872.0683302036231
 21
-424.3143167066578
 31
0.0
  0
LINE
  5
444
330
1F
100
AcDbEntity
  8
0
100
AcDbLine
 10
1160.068330203623
 20
-424.3143167066578
 30
0.0
 11
1159.068330203623
 21
-423.3143167066577
 31
0.0
  0
LINE
  5
445
330
1F
100
AcDbEntity
  8
0
100
AcDbLine
 10
1160.371391746924
 20
-438.3143167066577
 30
0.0
 11
1160.068330203623
 21
-438.3143167066577
 31
0.0
  0
LINE
  5
446
330
1F
100
AcDbEntity
  8
0
100
AcDbLine
 10
1160.371391746924
 20
-438.3143167066577
 30
0.0
 11
1160.371391746924
 21
-458.3143167066578
 31
0.0
  0
LINE
  5
447
330
1F
100
AcDbEntity
  8
0
100
AcDbLine
 10
871.7652686603221
 20
-438.3143167066577
 30
0.0
 11
871.7652686603221
 21
-458.3143167066578
 31
0.0
  0
LINE
  5
448
330
1F
100
AcDbEntity
  8
0
100
AcDbLine
 10
872.0683302036229
 20
-438.3143167066577
 30
0.0
 11
871.7652686603219
 21
-438.3143167066577
 31
0.0
  0
LINE
  5
449
330
1F
100
AcDbEntity
  8
0
100
AcDbLine
 10
956.0683302036229
 20
-458.3143167066578
 30
0.0
 11
956.0683302036229
 21
-464.3143167066577
 31
0.0
  0
LINE
  5
44A
330
1F
100
AcDbEntity
  8
0
100
AcDbLine
 10
976.0683302036232
 20
-458.3143167066577
 30
0.0
 11
976.0683302036232
 21
-464.3143167066577
 31
0.0
  0
LINE
  5
44B
330
1F
100
AcDbEntity
  8
0
100
AcDbLine
 10
976.0683302036232
 20
-467.3143167066577
 30
0.0
 11
956.0683302036231
 21
-467.3143167066577
 31
0.0
  0
LINE
  5
44C
330
1F
100
AcDbEntity
  8
0
100
AcDbLine
 10
956.0683302036229
 20
-467.3143167066577
 30
0.0
 11
956.0683302036229
 21
-464.3143167066577
 31
0.0
  0
LINE
  5
44D
330
1F
100
AcDbEntity
  8
0
100
AcDbLine
 10
956.0683302036229
 20
-464.3143167066577
 30
0.0
 11
976.0683302036229
 21
-464.3143167066577
 31
0.0
  0
LINE
  5
44E
330
1F
100
AcDbEntity
  8
0
100
AcDbLine
 10
976.0683302036232
 20
-464.3143167066577
 30
0.0
 11
976.0683302036232
 21
-467.3143167066577
 31
0.0
  0
LINE
  5
44F
330
1F
100
AcDbEntity
  8
0
100
AcDbLine
 10
835.6262920878739
 20
-478.3143167066578
 30
0.0
 11
878.5103683193725
 21
-478.3143167066578
 31
0.0
  0
LINE
  5
450
330
1F
100
AcDbEntity
  8
0
100
AcDbLine
 10
842.568330203623
 20
-475.3143167066577
 30
0.0
 11
871.5683302036232
 21
-475.3143167066577
 31
0.0
  0
LINE
  5
451
330
1F
100
AcDbEntity
  8
0
100
AcDbLine
 10
835.7600837962172
 20
-484.3143167066577
 30
0.0
 11
878.3765766110288
 21
-484.3143167066577
 31
0.0
  0
LINE
  5
452
330
1F
100
AcDbEntity
  8
0
100
AcDbLine
 10
879.3613843640413
 20
-483.1406685289908
 30
0.0
 11
834.7752760432051
 21
-483.1406685289908
 31
0.0
  0
LINE
  5
453
330
1F
100
AcDbEntity
  8
0
100
AcDbLine
 10
845.5683302036231
 20
-487.3143167066578
 30
0.0
 11
868.5683302036231
 21
-487.3143167066578
 31
0.0
  0
LINE
  5
454
330
1F
100
AcDbEntity
  8
0
100
AcDbLine
 10
869.5683302036231
 20
-486.3143167066578
 30
0.0
 11
844.5683302036231
 21
-486.3143167066578
 31
0.0
  0
LINE
  5
455
330
1F
100
AcDbEntity
  8
0
100
AcDbLine
 10
879.3613843640409
 20
-483.1406685289908
 30
0.0
 11
878.5103683193723
 21
-478.3143167066577
 31
0.0
  0
LINE
  5
456
330
1F
100
AcDbEntity
  8
0
100
AcDbLine
 10
835.6262920878739
 20
-478.3143167066578
 30
0.0
 11
834.7752760432051
 21
-483.1406685289908
 31
0.0
  0
LINE
  5
457
330
1F
100
AcDbEntity
  8
0
100
AcDbLine
 10
866.5683302036232
 20
-475.3143167066577
 30
0.0
 11
864.5683302036232
 21
-472.3143167066577
 31
0.0
  0
LINE
  5
458
330
1F
100
AcDbEntity
  8
0
100
AcDbLine
 10
849.568330203623
 20
-472.3143167066578
 30
0.0
 11
847.5683302036228
 21
-475.3143167066578
 31
0.0
  0
LINE
  5
459
330
1F
100
AcDbEntity
  8
0
100
AcDbLine
 10
878.5103683193723
 20
-478.3143167066578
 30
0.0
 11
871.5683302036227
 21
-475.3143167066578
 31
0.0
  0
LINE
  5
45A
330
1F
100
AcDbEntity
  8
0
100
AcDbLine
 10
842.568330203623
 20
-475.3143167066577
 30
0.0
 11
835.6262920878737
 21
-478.3143167066577
 31
0.0
  0
LINE
  5
45B
330
1F
100
AcDbEntity
  8
0
100
AcDbLine
 10
844.5683302036229
 20
-484.3143167066577
 30
0.0
 11
844.5683302036229
 21
-486.3143167066578
 31
0.0
  0
LINE
  5
45C
330
1F
100
AcDbEntity
  8
0
100
AcDbLine
 10
869.5683302036229
 20
-486.3143167066578
 30
0.0
 11
869.5683302036229
 21
-484.3143167066577
 31
0.0
  0
ARC
  5
45D
330
1F
100
AcDbEntity
  8
0
100
AcDbCircle
 10
878.3765766110288
 20
-483.3143167066578
 30
0.0
 40
1.000000000000001
100
AcDbArc
 50
270.0
 51
10.00000000000639
  0
ARC
  5
45E
330
1F
100
AcDbEntity
  8
0
100
AcDbCircle
 10
835.7600837962172
 20
-483.3143167066578
 30
0.0
 40
1.000000000000005
100
AcDbArc
 50
169.9999999999976
 51
270.0
  0
ARC
  5
45F
330
1F
100
AcDbEntity
  8
0
100
AcDbCircle
 10
868.5683302036229
 20
-486.3143167066578
 30
0.0
 40
1.000000000000001
100
AcDbArc
 50
270.0
 51
0.0
  0
ARC
  5
460
330
1F
100
AcDbEntity
  8
0
100
AcDbCircle
 10
845.5683302036231
 20
-486.3143167066578
 30
0.0
 40
1.000000000000001
100
AcDbArc
 50
180.0
 51
270.0
  0
LINE
  5
461
330
1F
100
AcDbEntity
  8
0
100
AcDbLine
 10
1153.626292087873
 20
-478.3143167066578
 30
0.0
 11
1196.510368319372
 21
-478.3143167066578
 31
0.0
  0
LINE
  5
462
330
1F
100
AcDbEntity
  8
0
100
AcDbLine
 10
1160.568330203623
 20
-475.3143167066577
 30
0.0
 11
1189.568330203623
 21
-475.3143167066577
 31
0.0
  0
LINE
  5
463
330
1F
100
AcDbEntity
  8
0
100
AcDbLine
 10
1153.760083796217
 20
-484.3143167066577
 30
0.0
 11
1196.376576611029
 21
-484.3143167066577
 31
0.0
  0
LINE
  5
464
330
1F
100
AcDbEntity
  8
0
100
AcDbLine
 10
1197.36138436404
 20
-483.1406685289908
 30
0.0
 11
1152.775276043205
 21
-483.1406685289908
 31
0.0
  0
LINE
  5
465
330
1F
100
AcDbEntity
  8
0
100
AcDbLine
 10
1163.568330203623
 20
-487.3143167066578
 30
0.0
 11
1186.568330203623
 21
-487.3143167066578
 31
0.0
  0
LINE
  5
466
330
1F
100
AcDbEntity
  8
0
100
AcDbLine
 10
1187.568330203623
 20
-486.3143167066578
 30
0.0
 11
1162.568330203623
 21
-486.3143167066578
 31
0.0
  0
LINE
  5
467
330
1F
100
AcDbEntity
  8
0
100
AcDbLine
 10
1197.361384364041
 20
-483.1406685289908
 30
0.0
 11
1196.510368319372
 21
-478.3143167066577
 31
0.0
  0
LINE
  5
468
330
1F
100
AcDbEntity
  8
0
100
AcDbLine
 10
1153.626292087873
 20
-478.3143167066578
 30
0.0
 11
1152.775276043205
 21
-483.1406685289908
 31
0.0
  0
LINE
  5
469
330
1F
100
AcDbEntity
  8
0
100
AcDbLine
 10
1184.568330203623
 20
-475.3143167066577
 30
0.0
 11
1182.568330203623
 21
-472.3143167066577
 31
0.0
  0
LINE
  5
46A
330
1F
100
AcDbEntity
  8
0
100
AcDbLine
 10
1167.568330203623
 20
-472.3143167066577
 30
0.0
 11
1165.568330203623
 21
-475.3143167066577
 31
0.0
  0
LINE
  5
46B
330
1F
100
AcDbEntity
  8
0
100
AcDbLine
 10
1196.510368319372
 20
-478.3143167066578
 30
0.0
 11
1189.568330203623
 21
-475.3143167066578
 31
0.0
  0
LINE
  5
46C
330
1F
100
AcDbEntity
  8
0
100
AcDbLine
 10
1160.568330203623
 20
-475.3143167066577
 30
0.0
 11
1153.626292087874
 21
-478.3143167066577
 31
0.0
  0
LINE
  5
46D
330
1F
100
AcDbEntity
  8
0
100
AcDbLine
 10
1162.568330203623
 20
-484.3143167066577
 30
0.0
 11
1162.568330203623
 21
-486.3143167066578
 31
0.0
  0
LINE
  5
46E
330
1F
100
AcDbEntity
  8
0
100
AcDbLine
 10
1187.568330203623
 20
-486.3143167066578
 30
0.0
 11
1187.568330203623
 21
-484.3143167066577
 31
0.0
  0
ARC
  5
46F
330
1F
100
AcDbEntity
  8
0
100
AcDbCircle
 10
1196.376576611029
 20
-483.3143167066578
 30
0.0
 40
1.000000000000001
100
AcDbArc
 50
270.0
 51
10.00000000000515
  0
ARC
  5
470
330
1F
100
AcDbEntity
  8
0
100
AcDbCircle
 10
1153.760083796217
 20
-483.3143167066578
 30
0.0
 40
1.000000000000005
100
AcDbArc
 50
169.9999999999936
 51
270.0
  0
ARC
  5
471
330
1F
100
AcDbEntity
  8
0
100
AcDbCircle
 10
1186.568330203623
 20
-486.3143167066578
 30
0.0
 40
1.000000000000001
100
AcDbArc
 50
270.0
 51
0.0
  0
ARC
  5
472
330
1F
100
AcDbEntity
  8
0
100
AcDbCircle
 10
1163.568330203623
 20
-486.3143167066578
 30
0.0
 40
1.000000000000001
100
AcDbArc
 50
180.0
 51
270.0
  0
LINE
  5
473
330
1F
100
AcDbEntity
  8
0
100
AcDbLine
 10
1170.449528050106
 20
-472.3143167066577
 30
0.0
 11
1179.68713235714
 21
-472.3143167066577
 31
0.0
  0
LINE
  5
474
330
1F
100
AcDbEntity
  8
0
100
AcDbLine
 10
1170.449528050106
 20
-465.028847886474
 30
0.0
 11
1170.449528050106
 21
-472.3143167066577
 31
0.0
  0
LINE
  5
475
330
1F
100
AcDbEntity
  8
0
100
AcDbLine
 10
1170.449528050106
 20
-472.3143167066577
 30
0.0
 11
1165.830725896589
 21
-472.3143167066577
 31
0.0
  0
LINE
  5
476
330
1F
100
AcDbEntity
  8
0
100
AcDbLine
 10
1165.830725896589
 20
-472.3143167066577
 30
0.0
 11
1165.830725896589
 21
-465.028847886474
 31
0.0
  0
LINE
  5
477
330
1F
100
AcDbEntity
  8
0
100
AcDbLine
 10
1184.305934510657
 20
-465.028847886474
 30
0.0
 11
1184.305934510657
 21
-472.3143167066577
 31
0.0
  0
LINE
  5
478
330
1F
100
AcDbEntity
  8
0
100
AcDbLine
 10
1179.68713235714
 20
-472.3143167066577
 30
0.0
 11
1179.68713235714
 21
-465.028847886474
 31
0.0
  0
LINE
  5
479
330
1F
100
AcDbEntity
  8
0
100
AcDbLine
 10
1179.68713235714
 20
-472.3143167066577
 30
0.0
 11
1184.305934510657
 21
-472.3143167066577
 31
0.0
  0
ARC
  5
47A
330
1F
100
AcDbEntity
  8
0
100
AcDbCircle
 10
1182.127660518411
 20
-468.8274425035271
 30
0.0
 40
4.515030317800831
100
AcDbArc
 50
91.66423801139986
 51
122.7200094566439
  0
ARC
  5
47B
330
1F
100
AcDbEntity
  8
0
100
AcDbCircle
 10
1181.83514296659
 20
-468.9252552943321
 30
0.0
 40
4.61376218960661
100
AcDbArc
 50
57.62038109429063
 51
87.99537143767016
  0
ARC
  5
47C
330
1F
100
AcDbEntity
  8
0
100
AcDbCircle
 10
1168.301517440656
 20
-468.9252552943323
 30
0.0
 40
4.613762189606719
100
AcDbArc
 50
92.00462856232983
 51
122.3796189057085
  0
ARC
  5
47D
330
1F
100
AcDbEntity
  8
0
100
AcDbCircle
 10
1168.008999888835
 20
-468.8274425035272
 30
0.0
 40
4.515030317800873
100
AcDbArc
 50
57.27999054335628
 51
88.33576198860013
  0
SPLINE
  5
47E
330
1F
100
AcDbEntity
  8
0
100
AcDbSpline
210
0.0
220
0.0
230
1.0
 70
     8
 71
     3
 72
    10
 73
     6
 74
     0
 42
0.0000000001
 43
0.0000000001
 40
0.0
 40
0.0
 40
0.0
 40
0.0
 40
0.5
 40
0.5
 40
1.0
 40
1.0
 40
1.0
 40
1.0
 10
1175.068330203623
 20
-464.3143167066577
 30
0.0
 10
1174.287364875465
 20
-464.3143167066577
 30
0.0
 10
1173.495780603447
 20
-464.3832612619128
 30
0.0
 10
1171.952993521356
 20
-464.6337098380493
 30
0.0
 10
1171.196362608221
 20
-464.8132553198902
 30
0.0
 10
1170.449528050106
 20
-465.028847886474
 30
0.0
  0
SPLINE
  5
47F
330
1F
100
AcDbEntity
  8
0
100
AcDbSpline
210
0.0
220
0.0
230
1.0
 70
     8
 71
     3
 72
    10
 73
     6
 74
     0
 42
0.0000000001
 43
0.0000000001
 40
0.0
 40
0.0
 40
0.0
 40
0.0
 40
0.5
 40
0.5
 40
1.0
 40
1.0
 40
1.0
 40
1.0
 10
1179.68713235714
 20
-465.028847886474
 30
0.0
 10
1178.935921606702
 20
-464.8119920219823
 30
0.0
 10
1178.166534429501
 20
-464.6301073838495
 30
0.0
 10
1176.624276714479
 20
-464.3814054088211
 30
0.0
 10
1175.848831808252
 20
-464.3143167066577
 30
0.0
 10
1175.068330203623
 20
-464.3143167066577
 30
0.0
  0
LINE
  5
480
330
1F
100
AcDbEntity
  8
0
100
AcDbLine
 10
1167.068330203623
 20
-464.3143167066577
 30
0.0
 11
1165.830725896588
 21
-465.028847886474
 31
0.0
  0
LINE
  5
481
330
1F
100
AcDbEntity
  8
0
100
AcDbLine
 10
1184.305934510657
 20
-465.028847886474
 30
0.0
 11
1183.068330203623
 21
-464.3143167066577
 31
0.0
  0
LINE
  5
482
330
1F
100
AcDbEntity
  8
0
100
AcDbLine
 10
852.4495280501062
 20
-472.3143167066578
 30
0.0
 11
861.6871323571402
 21
-472.3143167066578
 31
0.0
  0
LINE
  5
483
330
1F
100
AcDbEntity
  8
0
100
AcDbLine
 10
852.4495280501062
 20
-465.028847886474
 30
0.0
 11
852.4495280501062
 21
-472.3143167066577
 31
0.0
  0
LINE
  5
484
330
1F
100
AcDbEntity
  8
0
100
AcDbLine
 10
852.4495280501062
 20
-472.3143167066578
 30
0.0
 11
847.8307258965893
 21
-472.3143167066578
 31
0.0
  0
LINE
  5
485
330
1F
100
AcDbEntity
  8
0
100
AcDbLine
 10
847.8307258965889
 20
-472.3143167066578
 30
0.0
 11
847.8307258965889
 21
-465.0288478864741
 31
0.0
  0
LINE
  5
486
330
1F
100
AcDbEntity
  8
0
100
AcDbLine
 10
866.3059345106571
 20
-465.028847886474
 30
0.0
 11
866.3059345106571
 21
-472.3143167066577
 31
0.0
  0
LINE
  5
487
330
1F
100
AcDbEntity
  8
0
100
AcDbLine
 10
861.68713235714
 20
-472.3143167066578
 30
0.0
 11
861.68713235714
 21
-465.0288478864741
 31
0.0
  0
LINE
  5
488
330
1F
100
AcDbEntity
  8
0
100
AcDbLine
 10
861.68713235714
 20
-472.3143167066578
 30
0.0
 11
866.3059345106569
 21
-472.3143167066578
 31
0.0
  0
ARC
  5
489
330
1F
100
AcDbEntity
  8
0
100
AcDbCircle
 10
864.1276605184112
 20
-468.8274425035272
 30
0.0
 40
4.515030317800873
100
AcDbArc
 50
91.66423801140393
 51
122.7200094566468
  0
ARC
  5
48A
330
1F
100
AcDbEntity
  8
0
100
AcDbCircle
 10
863.8351429665901
 20
-468.9252552943322
 30
0.0
 40
4.61376218960661
100
AcDbArc
 50
57.62038109428752
 51
87.99537143767016
  0
ARC
  5
48B
330
1F
100
AcDbEntity
  8
0
100
AcDbCircle
 10
850.3015174406554
 20
-468.9252552943321
 30
0.0
 40
4.613762189606405
100
AcDbArc
 50
92.00462856232983
 51
122.3796189057105
  0
ARC
  5
48C
330
1F
100
AcDbEntity
  8
0
100
AcDbCircle
 10
850.008999888835
 20
-468.8274425035272
 30
0.0
 40
4.515030317800873
100
AcDbArc
 50
57.27999054335318
 51
88.33576198860013
  0
SPLINE
  5
48D
330
1F
100
AcDbEntity
  8
0
100
AcDbSpline
210
0.0
220
0.0
230
1.0
 70
     8
 71
     3
 72
    10
 73
     6
 74
     0
 42
0.0000000001
 43
0.0000000001
 40
0.0
 40
0.0
 40
0.0
 40
0.0
 40
0.5
 40
0.5
 40
1.0
 40
1.0
 40
1.0
 40
1.0
 10
857.0683302036229
 20
-464.3143167066577
 30
0.0
 10
856.2873648754651
 20
-464.3143167066577
 30
0.0
 10
855.4957806034474
 20
-464.3832612619129
 30
0.0
 10
853.9529935213559
 20
-464.6337098380493
 30
0.0
 10
853.1963626082211
 20
-464.8132553198902
 30
0.0
 10
852.4495280501062
 20
-465.028847886474
 30
0.0
  0
SPLINE
  5
48E
330
1F
100
AcDbEntity
  8
0
100
AcDbSpline
210
0.0
220
0.0
230
1.0
 70
     8
 71
     3
 72
    10
 73
     6
 74
     0
 42
0.0000000001
 43
0.0000000001
 40
0.0
 40
0.0
 40
0.0
 40
0.0
 40
0.5
 40
0.5
 40
1.0
 40
1.0
 40
1.0
 40
1.0
 10
861.68713235714
 20
-465.028847886474
 30
0.0
 10
860.9359216067023
 20
-464.8119920219823
 30
0.0
 10
860.166534429501
 20
-464.6301073838497
 30
0.0
 10
858.624276714479
 20
-464.3814054088211
 30
0.0
 10
857.848831808252
 20
-464.3143167066577
 30
0.0
 10
857.0683302036229
 20
-464.3143167066577
 30
0.0
  0
LINE
  5
48F
330
1F
100
AcDbEntity
  8
0
100
AcDbLine
 10
849.0683302036231
 20
-464.3143167066577
 30
0.0
 11
847.8307258965893
 21
-465.0288478864741
 31
0.0
  0
LINE
  5
490
330
1F
100
AcDbEntity
  8
0
100
AcDbLine
 10
866.3059345106571
 20
-465.028847886474
 30
0.0
 11
865.0683302036229
 21
-464.3143167066577
 31
0.0
  0
LINE
  5
491
330
1F
100
AcDbEntity
  8
0
100
AcDbLine
 10
1021.818330203623
 20
-461.2321464627795
 30
0.0
 11
1010.318330203623
 21
-461.2321464627795
 31
0.0
  0
LINE
  5
492
330
1F
100
AcDbEntity
  8
0
100
AcDbLine
 10
1022.568330203623
 20
-458.7337601230569
 30
0.0
 11
1022.568330203623
 21
-458.3143167066578
 31
0.0
  0
LINE
  5
493
330
1F
100
AcDbEntity
  8
0
100
AcDbLine
 10
1022.568330203623
 20
-458.7337601230569
 30
0.0
 11
1022.568330203623
 21
-459.3143167066577
 31
0.0
  0
LINE
  5
494
330
1F
100
AcDbEntity
  8
0
100
AcDbLine
 10
1009.568330203623
 20
-458.7337601230569
 30
0.0
 11
1009.568330203623
 21
-458.3143167066578
 31
0.0
  0
LINE
  5
495
330
1F
100
AcDbEntity
  8
0
100
AcDbLine
 10
1016.068330203623
 20
-458.7337601230569
 30
0.0
 11
1016.068330203623
 21
-458.3143167066578
 31
0.0
  0
LINE
  5
496
330
1F
100
AcDbEntity
  8
0
100
AcDbLine
 10
1009.568330203623
 20
-459.3143167066577
 30
0.0
 11
1009.568330203623
 21
-458.7337601230569
 31
0.0
  0
ARC
  5
497
330
1F
100
AcDbEntity
  8
0
100
AcDbCircle
 10
1012.958930440488
 20
-449.1400737301026
 30
0.0
 40
10.17521442391197
100
AcDbArc
 50
250.5355753442272
 51
269.2082666553591
  0
ARC
  5
498
330
1F
100
AcDbEntity
  8
0
100
AcDbCircle
 10
1012.704094862266
 20
-449.2876664244631
 30
0.0
 40
10.02730101246827
100
AcDbArc
 50
270.6527523719515
 51
289.603405628463
  0
ARC
  5
499
330
1F
100
AcDbEntity
  8
0
100
AcDbCircle
 10
1019.458930440488
 20
-449.1400737301026
 30
0.0
 40
10.17521442391202
100
AcDbArc
 50
250.5355753442255
 51
269.2082666553574
  0
ARC
  5
49A
330
1F
100
AcDbEntity
  8
0
100
AcDbCircle
 10
1019.204094862266
 20
-449.2876664244629
 30
0.0
 40
10.02730101246857
100
AcDbArc
 50
270.6527523719539
 51
289.6034056284648
  0
LINE
  5
49B
330
1F
100
AcDbEntity
  8
0
100
AcDbLine
 10
1009.568330203623
 20
-459.3143167066577
 30
0.0
 11
1012.818330203622
 21
-459.3143167066577
 31
0.0
  0
LINE
  5
49C
330
1F
100
AcDbEntity
  8
0
100
AcDbLine
 10
1012.818330203623
 20
-459.3143167066577
 30
0.0
 11
1019.318330203623
 21
-459.3143167066577
 31
0.0
  0
LINE
  5
49D
330
1F
100
AcDbEntity
  8
0
100
AcDbLine
 10
1019.318330203623
 20
-459.3143167066577
 30
0.0
 11
1022.568330203623
 21
-459.3143167066577
 31
0.0
  0
LINE
  5
49E
330
1F
100
AcDbEntity
  8
0
100
AcDbLine
 10
1010.318330203623
 20
-459.3143167066577
 30
0.0
 11
1010.318330203623
 21
-461.2321464627796
 31
0.0
  0
LINE
  5
49F
330
1F
100
AcDbEntity
  8
0
100
AcDbLine
 10
1021.818330203623
 20
-461.2321464627795
 30
0.0
 11
1021.818330203623
 21
-459.3143167066576
 31
0.0
  0
ARC
  5
4A0
330
1F
100
AcDbEntity
  8
0
100
AcDbCircle
 10
1015.782228653108
 20
-458.820616228287
 30
0.0
 40
6.5
100
AcDbArc
 50
272.5227244643237
 51
338.2224099150696
  0
ARC
  5
4A1
330
1F
100
AcDbEntity
  8
0
100
AcDbCircle
 10
1016.354431754137
 20
-458.820616228287
 30
0.0
 40
6.5
100
AcDbArc
 50
201.7775900849319
 51
267.4772755356787
  0
LINE
  5
4A2
330
1F
100
AcDbEntity
  8
0
100
AcDbLine
 10
849.321106953349
 20
-428.4143167066579
 30
0.0
 11
841.8155534538968
 21
-428.4143167066579
 31
0.0
  0
LINE
  5
4A3
330
1F
100
AcDbEntity
  8
0
100
AcDbLine
 10
841.8155534538971
 20
-428.4143167066579
 30
0.0
 11
838.0627767041906
 21
-428.4143167066579
 31
0.0
  0
LINE
  5
4A4
330
1F
100
AcDbEntity
  8
0
100
AcDbLine
 10
853.0738837030552
 20
-428.4143167066579
 30
0.0
 11
849.321106953349
 21
-428.4143167066579
 31
0.0
  0
LINE
  5
4A5
330
1F
100
AcDbEntity
  8
0
100
AcDbLine
 10
853.0738837030552
 20
-428.4143167066579
 30
0.0
 11
853.0738837030552
 21
-433.3337601230759
 31
0.0
  0
LINE
  5
4A6
330
1F
100
AcDbEntity
  8
0
100
AcDbLine
 10
838.0627767041906
 20
-428.4143167066579
 30
0.0
 11
838.0627767041906
 21
-433.3337601230759
 31
0.0
  0
LINE
  5
4A7
330
1F
100
AcDbEntity
  8
0
100
AcDbLine
 10
841.8155534538971
 20
-428.4143167066579
 30
0.0
 11
841.8155534538971
 21
-433.333760123059
 31
0.0
  0
LINE
  5
4A8
330
1F
100
AcDbEntity
  8
0
100
AcDbLine
 10
849.321106953349
 20
-428.4143167066579
 30
0.0
 11
849.321106953349
 21
-433.333760123059
 31
0.0
  0
LINE
  5
4A9
330
1F
100
AcDbEntity
  8
0
100
AcDbLine
 10
852.0683302036228
 20
-433.9143167066579
 30
0.0
 11
851.1974953282315
 21
-433.9143167066579
 31
0.0
  0
LINE
  5
4AA
330
1F
100
AcDbEntity
  8
0
100
AcDbLine
 10
839.0683302036228
 20
-433.9143167066579
 30
0.0
 11
839.9391650790141
 21
-433.9143167066579
 31
0.0
  0
LINE
  5
4AB
330
1F
100
AcDbEntity
  8
0
100
AcDbLine
 10
845.5683302036227
 20
-433.9143167066579
 30
0.0
 11
839.9391650790141
 21
-433.9143167066579
 31
0.0
  0
LINE
  5
4AC
330
1F
100
AcDbEntity
  8
0
100
AcDbLine
 10
851.1974953282315
 20
-433.9143167066579
 30
0.0
 11
845.5683302036227
 21
-433.9143167066579
 31
0.0
  0
ARC
  5
4AD
330
1F
100
AcDbEntity
  8
0
100
AcDbCircle
 10
840.0702948694799
 20
-430.1679289885806
 30
0.0
 40
3.748681895827808
100
AcDbArc
 50
237.6203815793124
 51
267.9953709529701
  0
ARC
  5
4AE
330
1F
100
AcDbEntity
  8
0
100
AcDbCircle
 10
839.8326243170449
 20
-430.2474019778801
 30
0.0
 40
3.668462152195197
100
AcDbArc
 50
271.6642380934592
 51
302.7200093741998
  0
SPLINE
  5
4AF
330
1F
100
AcDbEntity
  8
0
100
AcDbSpline
210
0.0
220
0.0
230
1.0
 70
     8
 71
     3
 72
    10
 73
     6
 74
     0
 42
0.0000000001
 43
0.0000000001
 40
0.0
 40
0.0
 40
0.0
 40
0.0
 40
0.5
 40
0.5
 40
1.0
 40
1.0
 40
1.0
 40
1.0
 10
841.8155534538971
 20
-433.333760123059
 30
0.0
 10
842.4224929412355
 20
-433.5089684612571
 30
0.0
 10
843.037163208276
 20
-433.6547958343779
 30
0.0
 10
844.2897312934402
 20
-433.8581738616493
 30
0.0
 10
844.9331341996687
 20
-433.9143167066579
 30
0.0
 10
845.5683302036227
 20
-433.9143167066579
 30
0.0
  0
SPLINE
  5
4B0
330
1F
100
AcDbEntity
  8
0
100
AcDbSpline
210
0.0
220
0.0
230
1.0
 70
     8
 71
     3
 72
    10
 73
     6
 74
     0
 42
0.0000000001
 43
0.0000000001
 40
0.0
 40
0.0
 40
0.0
 40
0.0
 40
0.5
 40
0.5
 40
1.0
 40
1.0
 40
1.0
 40
1.0
 10
845.5683302036227
 20
-433.9143167066579
 30
0.0
 10
846.2030711872966
 20
-433.9143167066579
 30
0.0
 10
846.8331327442323
 20
-433.8597179757759
 30
0.0
 10
848.08530749508
 20
-433.657780407578
 30
0.0
 10
848.7101786606244
 20
-433.5101199301889
 30
0.0
 10
849.321106953349
 20
-433.333760123059
 30
0.0
  0
ARC
  5
4B1
330
1F
100
AcDbEntity
  8
0
100
AcDbCircle
 10
851.3286251186675
 20
-430.1679289885662
 30
0.0
 40
3.748681895841203
100
AcDbArc
 50
237.6203815789123
 51
267.9953709534296
  0
ARC
  5
4B2
330
1F
100
AcDbEntity
  8
0
100
AcDbCircle
 10
851.0909545662302
 20
-430.2474019778877
 30
0.0
 40
3.668462152188518
100
AcDbArc
 50
271.6642380939601
 51
302.7200093737662
  0
LINE
  5
4B3
330
1F
100
AcDbEntity
  8
0
100
AcDbLine
 10
838.0627767041906
 20
-433.3337601230759
 30
0.0
 11
839.0683302036231
 21
-433.9143167066579
 31
0.0
  0
LINE
  5
4B4
330
1F
100
AcDbEntity
  8
0
100
AcDbLine
 10
852.0683302036228
 20
-433.9143167066579
 30
0.0
 11
853.0738837030552
 21
-433.3337601230759
 31
0.0
  0
LINE
  5
4B5
330
1F
100
AcDbEntity
  8
0
100
AcDbLine
 10
848.568330203623
 20
-428.4143167066579
 30
0.0
 11
848.568330203623
 21
-417.3143167066578
 31
0.0
  0
LINE
  5
4B6
330
1F
100
AcDbEntity
  8
0
100
AcDbLine
 10
842.5683302036228
 20
-417.3143167066578
 30
0.0
 11
842.5683302036228
 21
-428.4143167066579
 31
0.0
  0
LINE
  5
4B7
330
1F
100
AcDbEntity
  8
0
100
AcDbLine
 10
1190.321106953349
 20
-428.4143167066579
 30
0.0
 11
1182.815553453897
 21
-428.4143167066579
 31
0.0
  0
LINE
  5
4B8
330
1F
100
AcDbEntity
  8
0
100
AcDbLine
 10
1182.815553453896
 20
-428.4143167066579
 30
0.0
 11
1179.06277670419
 21
-428.4143167066579
 31
0.0
  0
LINE
  5
4B9
330
1F
100
AcDbEntity
  8
0
100
AcDbLine
 10
1194.073883703056
 20
-428.4143167066579
 30
0.0
 11
1190.321106953349
 21
-428.4143167066579
 31
0.0
  0
LINE
  5
4BA
330
1F
100
AcDbEntity
  8
0
100
AcDbLine
 10
1194.073883703056
 20
-428.4143167066579
 30
0.0
 11
1194.073883703056
 21
-433.3337601230759
 31
0.0
  0
LINE
  5
4BB
330
1F
100
AcDbEntity
  8
0
100
AcDbLine
 10
1179.06277670419
 20
-428.4143167066579
 30
0.0
 11
1179.06277670419
 21
-433.3337601230759
 31
0.0
  0
LINE
  5
4BC
330
1F
100
AcDbEntity
  8
0
100
AcDbLine
 10
1182.815553453896
 20
-428.4143167066579
 30
0.0
 11
1182.815553453896
 21
-433.333760123059
 31
0.0
  0
LINE
  5
4BD
330
1F
100
AcDbEntity
  8
0
100
AcDbLine
 10
1190.321106953349
 20
-428.4143167066579
 30
0.0
 11
1190.321106953349
 21
-433.333760123059
 31
0.0
  0
LINE
  5
4BE
330
1F
100
AcDbEntity
  8
0
100
AcDbLine
 10
1193.068330203623
 20
-433.9143167066579
 30
0.0
 11
1192.197495328231
 21
-433.9143167066579
 31
0.0
  0
LINE
  5
4BF
330
1F
100
AcDbEntity
  8
0
100
AcDbLine
 10
1180.068330203623
 20
-433.9143167066579
 30
0.0
 11
1180.939165079014
 21
-433.9143167066579
 31
0.0
  0
LINE
  5
4C0
330
1F
100
AcDbEntity
  8
0
100
AcDbLine
 10
1186.568330203623
 20
-433.9143167066579
 30
0.0
 11
1180.939165079014
 21
-433.9143167066579
 31
0.0
  0
LINE
  5
4C1
330
1F
100
AcDbEntity
  8
0
100
AcDbLine
 10
1192.197495328231
 20
-433.9143167066579
 30
0.0
 11
1186.568330203623
 21
-433.9143167066579
 31
0.0
  0
ARC
  5
4C2
330
1F
100
AcDbEntity
  8
0
100
AcDbCircle
 10
1181.07029486948
 20
-430.1679289885807
 30
0.0
 40
3.748681895827742
100
AcDbArc
 50
237.6203815793114
 51
267.9953709529701
  0
ARC
  5
4C3
330
1F
100
AcDbEntity
  8
0
100
AcDbCircle
 10
1180.832624317045
 20
-430.2474019778801
 30
0.0
 40
3.66846215219521
100
AcDbArc
 50
271.6642380934551
 51
302.7200093741913
  0
SPLINE
  5
4C4
330
1F
100
AcDbEntity
  8
0
100
AcDbSpline
210
0.0
220
0.0
230
1.0
 70
     8
 71
     3
 72
    10
 73
     6
 74
     0
 42
0.0000000001
 43
0.0000000001
 40
0.0
 40
0.0
 40
0.0
 40
0.0
 40
0.5
 40
0.5
 40
1.0
 40
1.0
 40
1.0
 40
1.0
 10
1182.815553453896
 20
-433.333760123059
 30
0.0
 10
1183.422492941235
 20
-433.5089684612571
 30
0.0
 10
1184.037163208276
 20
-433.6547958343779
 30
0.0
 10
1185.28973129344
 20
-433.8581738616493
 30
0.0
 10
1185.933134199669
 20
-433.9143167066579
 30
0.0
 10
1186.568330203623
 20
-433.9143167066579
 30
0.0
  0
SPLINE
  5
4C5
330
1F
100
AcDbEntity
  8
0
100
AcDbSpline
210
0.0
220
0.0
230
1.0
 70
     8
 71
     3
 72
    10
 73
     6
 74
     0
 42
0.0000000001
 43
0.0000000001
 40
0.0
 40
0.0
 40
0.0
 40
0.0
 40
0.5
 40
0.5
 40
1.0
 40
1.0
 40
1.0
 40
1.0
 10
1186.568330203623
 20
-433.9143167066579
 30
0.0
 10
1187.203071187296
 20
-433.9143167066579
 30
0.0
 10
1187.833132744232
 20
-433.8597179757759
 30
0.0
 10
1189.08530749508
 20
-433.657780407578
 30
0.0
 10
1189.710178660624
 20
-433.5101199301889
 30
0.0
 10
1190.321106953349
 20
-433.333760123059
 30
0.0
  0
ARC
  5
4C6
330
1F
100
AcDbEntity
  8
0
100
AcDbCircle
 10
1192.328625118667
 20
-430.1679289885662
 30
0.0
 40
3.748681895841203
100
AcDbArc
 50
237.6203815789171
 51
267.9953709534336
  0
ARC
  5
4C7
330
1F
100
AcDbEntity
  8
0
100
AcDbCircle
 10
1192.09095456623
 20
-430.2474019778877
 30
0.0
 40
3.668462152188511
100
AcDbArc
 50
271.6642380939601
 51
302.7200093737662
  0
LINE
  5
4C8
330
1F
100
AcDbEntity
  8
0
100
AcDbLine
 10
1179.06277670419
 20
-433.3337601230759
 30
0.0
 11
1180.068330203623
 21
-433.9143167066579
 31
0.0
  0
LINE
  5
4C9
330
1F
100
AcDbEntity
  8
0
100
AcDbLine
 10
1193.068330203623
 20
-433.9143167066579
 30
0.0
 11
1194.073883703056
 21
-433.3337601230759
 31
0.0
  0
LINE
  5
4CA
330
1F
100
AcDbEntity
  8
0
100
AcDbLine
 10
1189.568330203623
 20
-428.4143167066579
 30
0.0
 11
1189.568330203623
 21
-417.3143167066574
 31
0.0
  0
LINE
  5
4CB
330
1F
100
AcDbEntity
  8
0
100
AcDbLine
 10
1183.568330203623
 20
-417.3143167066574
 30
0.0
 11
1183.568330203623
 21
-428.4143167066579
 31
0.0
  0
LINE
  5
4CC
330
1F
100
AcDbEntity
  8
0
100
AcDbLine
 10
838.0627767041575
 20
-416.7337601230571
 30
0.0
 11
838.0627767041575
 21
-410.8143167066579
 31
0.0
  0
LINE
  5
4CD
330
1F
100
AcDbEntity
  8
0
100
AcDbLine
 10
853.0738837030881
 20
-416.7337601230571
 30
0.0
 11
853.0738837030881
 21
-410.8143167066579
 31
0.0
  0
LINE
  5
4CE
330
1F
100
AcDbEntity
  8
0
100
AcDbLine
 10
849.3211069533554
 20
-416.7337601230571
 30
0.0
 11
849.3211069533554
 21
-410.8143167066579
 31
0.0
  0
LINE
  5
4CF
330
1F
100
AcDbEntity
  8
0
100
AcDbLine
 10
841.8155534538902
 20
-416.7337601230571
 30
0.0
 11
841.8155534538902
 21
-410.8143167066579
 31
0.0
  0
LINE
  5
4D0
330
1F
100
AcDbEntity
  8
0
100
AcDbLine
 10
839.0683302036228
 20
-417.3143167066578
 30
0.0
 11
839.9391650790239
 21
-417.3143167066578
 31
0.0
  0
LINE
  5
4D1
330
1F
100
AcDbEntity
  8
0
100
AcDbLine
 10
845.5683302036227
 20
-417.3143167066578
 30
0.0
 11
839.9391650790239
 21
-417.3143167066578
 31
0.0
  0
LINE
  5
4D2
330
1F
100
AcDbEntity
  8
0
100
AcDbLine
 10
851.1974953282219
 20
-417.3143167066578
 30
0.0
 11
845.5683302036231
 21
-417.3143167066578
 31
0.0
  0
LINE
  5
4D3
330
1F
100
AcDbEntity
  8
0
100
AcDbLine
 10
852.0683302036228
 20
-417.3143167066578
 30
0.0
 11
851.1974953282216
 21
-417.3143167066578
 31
0.0
  0
ARC
  5
4D4
330
1F
100
AcDbEntity
  8
0
100
AcDbCircle
 10
851.0663655377102
 20
-413.5679289883892
 30
0.0
 40
3.748681896020825
100
AcDbArc
 50
272.0046290476304
 51
302.3796184204167
  0
ARC
  5
4D5
330
1F
100
AcDbEntity
  8
0
100
AcDbCircle
 10
851.3040360902794
 20
-413.64740197766
 30
0.0
 40
3.668462152417672
100
AcDbArc
 50
237.2799906266973
 51
268.3357619052644
  0
SPLINE
  5
4D6
330
1F
100
AcDbEntity
  8
0
100
AcDbSpline
210
0.0
220
0.0
230
1.0
 70
     8
 71
     3
 72
    10
 73
     6
 74
     0
 42
0.0000000001
 43
0.0000000001
 40
0.0
 40
0.0
 40
0.0
 40
0.0
 40
0.5
 40
0.5
 40
1.0
 40
1.0
 40
1.0
 40
1.0
 10
849.3211069533554
 20
-416.7337601230571
 30
0.0
 10
848.714303874887
 20
-416.9089290834064
 30
0.0
 10
848.099541257965
 20
-417.0548097874022
 30
0.0
 10
846.8460267537658
 20
-417.258299255513
 30
0.0
 10
846.2028645327508
 20
-417.3143167066578
 30
0.0
 10
845.5683302036227
 20
-417.3143167066578
 30
0.0
  0
SPLINE
  5
4D7
330
1F
100
AcDbEntity
  8
0
100
AcDbSpline
210
0.0
220
0.0
230
1.0
 70
     8
 71
     3
 72
    10
 73
     6
 74
     0
 42
0.0000000001
 43
0.0000000001
 40
0.0
 40
0.0
 40
0.0
 40
0.0
 40
0.5
 40
0.5
 40
1.0
 40
1.0
 40
1.0
 40
1.0
 10
845.5683302036227
 20
-417.3143167066578
 30
0.0
 10
844.9341726498614
 20
-417.3143167066578
 30
0.0
 10
844.3041236635522
 20
-417.2598071361502
 30
0.0
 10
843.0510392700966
 20
-417.0577367814395
 30
0.0
 10
842.4259121886207
 20
-416.9099555129567
 30
0.0
 10
841.8155534538902
 20
-416.7337601230571
 30
0.0
  0
ARC
  5
4D8
330
1F
100
AcDbEntity
  8
0
100
AcDbCircle
 10
839.8080352885131
 20
-413.5679289883906
 30
0.0
 40
3.748681896019341
100
AcDbArc
 50
272.0046290476231
 51
302.3796184204198
  0
ARC
  5
4D9
330
1F
100
AcDbEntity
  8
0
100
AcDbCircle
 10
840.0457058410816
 20
-413.6474019776604
 30
0.0
 40
3.668462152417437
100
AcDbArc
 50
237.2799906266953
 51
268.3357619052644
  0
LINE
  5
4DA
330
1F
100
AcDbEntity
  8
0
100
AcDbLine
 10
852.0683302036228
 20
-417.3143167066578
 30
0.0
 11
853.0738837030881
 21
-416.7337601230571
 31
0.0
  0
LINE
  5
4DB
330
1F
100
AcDbEntity
  8
0
100
AcDbLine
 10
838.0627767041575
 20
-416.7337601230571
 30
0.0
 11
839.0683302036228
 21
-417.3143167066578
 31
0.0
  0
LINE
  5
4DC
330
1F
100
AcDbEntity
  8
0
100
AcDbLine
 10
1194.073883703088
 20
-416.7337601230571
 30
0.0
 11
1194.073883703088
 21
-410.8143167066579
 31
0.0
  0
LINE
  5
4DD
330
1F
100
AcDbEntity
  8
0
100
AcDbLine
 10
1190.321106953355
 20
-416.7337601230571
 30
0.0
 11
1190.321106953355
 21
-410.8143167066577
 31
0.0
  0
LINE
  5
4DE
330
1F
100
AcDbEntity
  8
0
100
AcDbLine
 10
1182.81555345389
 20
-416.7337601230571
 30
0.0
 11
1182.81555345389
 21
-410.8143167066577
 31
0.0
  0
LINE
  5
4DF
330
1F
100
AcDbEntity
  8
0
100
AcDbLine
 10
1179.062776704157
 20
-416.7337601230571
 30
0.0
 11
1179.062776704157
 21
-410.8143167066579
 31
0.0
  0
LINE
  5
4E0
330
1F
100
AcDbEntity
  8
0
100
AcDbLine
 10
1192.197495328222
 20
-417.3143167066578
 30
0.0
 11
1193.068330203623
 21
-417.3143167066578
 31
0.0
  0
LINE
  5
4E1
330
1F
100
AcDbEntity
  8
0
100
AcDbLine
 10
1180.068330203623
 20
-417.3143167066578
 30
0.0
 11
1180.939165079024
 21
-417.3143167066578
 31
0.0
  0
LINE
  5
4E2
330
1F
100
AcDbEntity
  8
0
100
AcDbLine
 10
1186.568330203623
 20
-417.3143167066578
 30
0.0
 11
1180.939165079024
 21
-417.3143167066578
 31
0.0
  0
LINE
  5
4E3
330
1F
100
AcDbEntity
  8
0
100
AcDbLine
 10
1192.197495328222
 20
-417.3143167066578
 30
0.0
 11
1186.568330203623
 21
-417.3143167066578
 31
0.0
  0
ARC
  5
4E4
330
1F
100
AcDbEntity
  8
0
100
AcDbCircle
 10
1180.808035288513
 20
-413.5679289883905
 30
0.0
 40
3.748681896019506
100
AcDbArc
 50
272.0046290476271
 51
302.3796184204195
  0
ARC
  5
4E5
330
1F
100
AcDbEntity
  8
0
100
AcDbCircle
 10
1181.045705841082
 20
-413.6474019776601
 30
0.0
 40
3.668462152417582
100
AcDbArc
 50
237.2799906266924
 51
268.3357619052644
  0
SPLINE
  5
4E6
330
1F
100
AcDbEntity
  8
0
100
AcDbSpline
210
0.0
220
0.0
230
1.0
 70
     8
 71
     3
 72
    10
 73
     6
 74
     0
 42
0.0000000001
 43
0.0000000001
 40
0.0
 40
0.0
 40
0.0
 40
0.0
 40
0.5
 40
0.5
 40
1.0
 40
1.0
 40
1.0
 40
1.0
 10
1190.321106953355
 20
-416.7337601230571
 30
0.0
 10
1189.710748214584
 20
-416.909955514123
 30
0.0
 10
1189.085621128705
 20
-417.0577367831974
 30
0.0
 10
1187.83253673605
 20
-417.2598071369864
 30
0.0
 10
1187.202487752268
 20
-417.3143167066578
 30
0.0
 10
1186.568330203623
 20
-417.3143167066578
 30
0.0
  0
SPLINE
  5
4E7
330
1F
100
AcDbEntity
  8
0
100
AcDbSpline
210
0.0
220
0.0
230
1.0
 70
     8
 71
     3
 72
    10
 73
     6
 74
     0
 42
0.0000000001
 43
0.0000000001
 40
0.0
 40
0.0
 40
0.0
 40
0.0
 40
0.5
 40
0.5
 40
1.0
 40
1.0
 40
1.0
 40
1.0
 10
1186.568330203623
 20
-417.3143167066578
 30
0.0
 10
1185.933795886084
 20
-417.3143167066578
 30
0.0
 10
1185.290633668452
 20
-417.2582992575374
 30
0.0
 10
1184.037119150822
 20
-417.0548097880587
 30
0.0
 10
1183.42235653176
 20
-416.9089290832337
 30
0.0
 10
1182.81555345389
 20
-416.7337601230571
 30
0.0
  0
ARC
  5
4E8
330
1F
100
AcDbEntity
  8
0
100
AcDbCircle
 10
1192.06636553771
 20
-413.5679289883894
 30
0.0
 40
3.748681896020612
100
AcDbArc
 50
272.0046290476263
 51
302.3796184204177
  0
ARC
  5
4E9
330
1F
100
AcDbEntity
  8
0
100
AcDbCircle
 10
1192.304036090279
 20
-413.6474019776601
 30
0.0
 40
3.668462152417539
100
AcDbArc
 50
237.2799906266915
 51
268.3357619052602
  0
LINE
  5
4EA
330
1F
100
AcDbEntity
  8
0
100
AcDbLine
 10
1179.062776704157
 20
-416.7337601230571
 30
0.0
 11
1180.068330203623
 21
-417.3143167066578
 31
0.0
  0
LINE
  5
4EB
330
1F
100
AcDbEntity
  8
0
100
AcDbLine
 10
1193.068330203623
 20
-417.3143167066578
 30
0.0
 11
1194.073883703088
 21
-416.7337601230571
 31
0.0
  0
LINE
  5
4EC
330
1F
100
AcDbEntity
  8
0
100
AcDbLine
 10
1031.068330203623
 20
-423.3143167066577
 30
0.0
 11
1031.068330203623
 21
-410.8143167066577
 31
0.0
  0
LINE
  5
4ED
330
1F
100
AcDbEntity
  8
0
100
AcDbLine
 10
1001.068330203623
 20
-423.3143167066577
 30
0.0
 11
1001.068330203623
 21
-410.8143167066577
 31
0.0
  0
LINE
  5
4EE
330
1F
100
AcDbEntity
  8
0
100
AcDbLine
 10
822.5608859889415
 20
-410.8143167066577
 30
0.0
 11
1209.575774418304
 21
-410.8143167066577
 31
0.0
  0
LINE
  5
4EF
330
1F
100
AcDbEntity
  8
0
100
AcDbLine
 10
1204.710848860458
 20
-362.1650611280823
 30
0.0
 11
827.4258115467878
 21
-362.1650611280823
 31
0.0
  0
LINE
  5
4F0
330
1F
100
AcDbEntity
  8
0
100
AcDbLine
 10
827.4258115467878
 20
-362.1650611280823
 30
0.0
 11
822.5608859889419
 21
-410.8143167066577
 31
0.0
  0
LINE
  5
4F1
330
1F
100
AcDbEntity
  8
0
100
AcDbLine
 10
1209.575774418304
 20
-410.8143167066577
 30
0.0
 11
1204.710848860458
 21
-362.1650611280823
 31
0.0
  0
LINE
  5
4F2
330
1F
100
AcDbEntity
  8
0
100
AcDbLine
 10
1206.203404645773
 20
-362.1650611281252
 30
0.0
 11
1211.068330203623
 21
-410.8143167066577
 31
0.0
  0
LINE
  5
4F3
330
1F
100
AcDbEntity
  8
0
100
AcDbLine
 10
822.5608859889415
 20
-410.8143167066577
 30
0.0
 11
821.068330203623
 21
-410.8143167066577
 31
0.0
  0
LINE
  5
4F4
330
1F
100
AcDbEntity
  8
0
100
AcDbLine
 10
1211.068330203623
 20
-410.8143167066577
 30
0.0
 11
1209.575774418304
 21
-410.8143167066577
 31
0.0
  0
LINE
  5
4F5
330
1F
100
AcDbEntity
  8
0
100
AcDbLine
 10
827.4258115467878
 20
-360.8143167066578
 30
0.0
 11
1204.710848860458
 21
-360.8143167066578
 31
0.0
  0
LINE
  5
4F6
330
1F
100
AcDbEntity
  8
0
100
AcDbLine
 10
821.068330203623
 20
-410.8143167066577
 30
0.0
 11
825.9332557614731
 21
-362.1650611281252
 31
0.0
  0
ELLIPSE
  5
4F7
330
1F
100
AcDbEntity
  8
0
100
AcDbEllipse
 10
827.4258115467878
 20
-362.3143167066577
 30
0.0
 11
-1.492555785314875
 21
0.1492555785325492
 31
0.0
210
0.0
220
0.0
230
1.0
 40
0.0990147543269098
 41
4.722290132258855
 42
6.283185307179586
  0
ARC
  5
4F8
330
1F
100
AcDbEntity
  8
0
100
AcDbCircle
 10
827.4258115467878
 20
-362.3143167066578
 30
0.0
 40
1.500000000000001
100
AcDbArc
 50
90.0
 51
174.2894068624594
  0
LINE
  5
4F9
330
1F
100
AcDbEntity
  8
0
100
AcDbLine
 10
827.4258115467878
 20
-360.8143167066578
 30
0.0
 11
827.4258115467876
 21
-362.1650611280823
 31
0.0
  0
LINE
  5
4FA
330
1F
100
AcDbEntity
  8
0
100
AcDbLine
 10
1204.710848860458
 20
-360.8143167066577
 30
0.0
 11
1204.710848860458
 21
-362.1650611280821
 31
0.0
  0
ARC
  5
4FB
330
1F
100
AcDbEntity
  8
0
100
AcDbCircle
 10
1204.710848860458
 20
-362.3143167066578
 30
0.0
 40
1.499999999999994
100
AcDbArc
 50
5.710593137539282
 51
89.99999999998861
  0
ELLIPSE
  5
4FC
330
1F
100
AcDbEntity
  8
0
100
AcDbEllipse
 10
1204.710848860458
 20
-362.3143167066578
 30
0.0
 11
1.492555785314875
 21
0.1492555785325701
 31
0.0
210
0.0
220
0.0
230
1.0
 40
0.0990147543269115
 41
0.0
 42
1.560895174920922
  0
LINE
  5
4FD
330
1F
100
AcDbEntity
  8
0
100
AcDbLine
 10
1009.068330203623
 20
-461.3143167066576
 30
0.0
 11
1010.351810832892
 21
-461.3143167066576
 31
0.0
  0
LINE
  5
4FE
330
1F
100
AcDbEntity
  8
0
100
AcDbLine
 10
1021.784849574353
 20
-461.3143167066576
 30
0.0
 11
1023.068330203623
 21
-461.3143167066576
 31
0.0
  0
LINE
  5
4FF
330
1F
100
AcDbEntity
  8
0
100
AcDbLine
 10
1009.068330203623
 20
-462.3143167066576
 30
0.0
 11
1010.873185822104
 21
-462.3143167066576
 31
0.0
  0
LINE
  5
500
330
1F
100
AcDbEntity
  8
0
100
AcDbLine
 10
1021.263474585141
 20
-462.3143167066576
 30
0.0
 11
1023.068330203623
 21
-462.3143167066576
 31
0.0
  0
LINE
  5
501
330
1F
100
AcDbEntity
  8
0
100
AcDbLine
 10
1022.568330203622
 20
-460.6810010634871
 30
0.0
 11
1022.568330203621
 21
-459.3649267146576
 31
0.0
  0
LINE
  5
502
330
1F
100
AcDbEntity
  8
0
100
AcDbLine
 10
1023.568330203623
 20
-458.3143167066578
 30
0.0
 11
1023.568330203623
 21
-460.6810010634863
 31
0.0
  0
LINE
  5
503
330
1F
100
AcDbEntity
  8
0
100
AcDbLine
 10
1008.568330203623
 20
-460.6810010634866
 30
0.0
 11
1008.568330203623
 21
-458.3143167066578
 31
0.0
  0
LINE
  5
504
330
1F
100
AcDbEntity
  8
0
100
AcDbLine
 10
1009.568330203636
 20
-459.3649267146576
 30
0.0
 11
1009.568330203639
 21
-460.6810010634982
 31
0.0
  0
ARC
  5
505
330
1F
100
AcDbEntity
  8
0
100
AcDbCircle
 10
1009.898245797289
 20
-460.7688313708289
 30
0.0
 40
1.332812683449719
100
AcDbArc
 50
142.824268696959
 51
176.2215581048404
  0
ARC
  5
506
330
1F
100
AcDbEntity
  8
0
100
AcDbCircle
 10
1011.305978766388
 20
-458.1760078282955
 30
0.0
 40
3.048674078355233
100
AcDbArc
 50
215.8953069052672
 51
235.2519623147002
  0
LINE
  5
507
330
1F
100
AcDbEntity
  8
0
100
AcDbLine
 10
1023.568330203623
 20
-461.218374501975
 30
0.0
 11
1023.568330203623
 21
-460.6810010634864
 31
0.0
  0
SPLINE
  5
508
330
1F
100
AcDbEntity
  8
0
100
AcDbSpline
210
0.0
220
0.0
230
1.0
 70
     8
 71
     3
 72
    10
 73
     6
 74
     0
 42
0.0000000001
 43
0.0000000001
 40
0.0
 40
0.0
 40
0.0
 40
0.0
 40
0.125
 40
0.125
 40
0.1420994848464072
 40
0.1420994848464072
 40
0.1420994848464072
 40
0.1420994848464072
 10
1022.568330203622
 20
-460.6810010634871
 30
0.0
 10
1022.365151338499
 20
-460.8269046301781
 30
0.0
 10
1022.143105432607
 20
-460.9179028234929
 30
0.0
 10
1021.882439622939
 20
-460.9973554238425
 30
0.0
 10
1021.851012346359
 20
-461.0064471848429
 30
0.0
 10
1021.819533100056
 20
-461.0151024474026
 30
0.0
  0
SPLINE
  5
509
330
1F
100
AcDbEntity
  8
0
100
AcDbSpline
210
0.0
220
0.0
230
1.0
 70
     8
 71
     3
 72
    10
 73
     6
 74
     0
 42
0.0000000001
 43
0.0000000001
 40
0.8568114065090508
 40
0.8568114065090508
 40
0.8568114065090508
 40
0.8568114065090508
 40
0.8750000000000001
 40
0.8750000000000001
 40
1.0
 40
1.0
 40
1.0
 40
1.0
 10
1010.31778848197
 20
-461.0152756251792
 30
0.0
 10
1010.284498049307
 20
-461.0061352600313
 30
0.0
 10
1010.251315192176
 20
-460.9965187024886
 30
0.0
 10
1009.991087958255
 20
-460.9167859201552
 30
0.0
 10
1009.770730643214
 20
-460.8263456396436
 30
0.0
 10
1009.568330203639
 20
-460.6810010634983
 30
0.0
  0
LINE
  5
50A
330
1F
100
AcDbEntity
  8
0
100
AcDbLine
 10
1008.568330203623
 20
-461.218374501975
 30
0.0
 11
1008.568330203623
 21
-460.6810010634839
 31
0.0
  0
ARC
  5
50B
330
1F
100
AcDbEntity
  8
0
100
AcDbCircle
 10
1020.829870726665
 20
-458.1751805118954
 30
0.0
 40
3.049816058355503
100
AcDbArc
 50
304.7516965068084
 51
324.1010342735313
  0
ARC
  5
50C
330
1F
100
AcDbEntity
  8
0
100
AcDbCircle
 10
1022.23760287362
 20
-460.7691344966599
 30
0.0
 40
1.333642654108829
100
AcDbArc
 50
3.789138315963724
 51
37.16503488224772
  0
LINE
  5
50D
330
1F
100
AcDbEntity
  8
0
100
AcDbLine
 10
1012.068330203623
 20
-465.3143167066576
 30
0.0
 11
1020.068330203623
 21
-465.3143167066576
 31
0.0
  0
ARC
  5
50E
330
1F
100
AcDbEntity
  8
0
100
AcDbCircle
 10
1012.068330203623
 20
-462.3143167066576
 30
0.0
 40
3.0
100
AcDbArc
 50
180.0
 51
270.0
  0
ARC
  5
50F
330
1F
100
AcDbEntity
  8
0
100
AcDbCircle
 10
1020.068330203623
 20
-462.3143167066576
 30
0.0
 40
2.999999999999996
100
AcDbArc
 50
270.0
 51
0.0
  0
LINE
  5
510
330
1F
100
AcDbEntity
  8
0
100
AcDbLine
 10
1009.068330203623
 20
-461.3143167066576
 30
0.0
 11
1009.068330203623
 21
-462.3143167066577
 31
0.0
  0
LINE
  5
511
330
1F
100
AcDbEntity
  8
0
100
AcDbLine
 10
1023.068330203623
 20
-462.3143167066576
 30
0.0
 11
1023.068330203623
 21
-461.3143167066576
 31
0.0
  0
ARC
  5
512
330
1F
100
AcDbEntity
  8
0
100
AcDbCircle
 10
1009.068330203623
 20
-459.9634637455718
 30
0.0
 40
1.350852961085883
100
AcDbArc
 50
248.2985856088682
 51
270.0
  0
ARC
  5
513
330
1F
100
AcDbEntity
  8
0
100
AcDbCircle
 10
1023.068330203623
 20
-459.9634637455718
 30
0.0
 40
1.350852961085884
100
AcDbArc
 50
270.0
 51
291.7381680460625
  0
LINE
  5
516
330
1F
100
AcDbEntity
  8
0
100
AcDbLine
 10
600.3796006236516
 20
-464.3143167066577
 30
0.0
 11
630.1796006236513
 21
-464.3143167066577
 31
0.0
  0
LINE
  5
517
330
1F
100
AcDbEntity
  8
0
100
AcDbLine
 10
600.2796006236515
 20
-438.4143167066577
 30
0.0
 11
630.2796006236515
 21
-438.4143167066577
 31
0.0
  0
LINE
  5
518
330
1F
100
AcDbEntity
  8
0
100
AcDbLine
 10
630.2796006236515
 20
-464.2143167066576
 30
0.0
 11
600.2796006236515
 21
-464.2143167066576
 31
0.0
  0
LINE
  5
519
330
1F
100
AcDbEntity
  8
0
100
AcDbLine
 10
630.1796006236513
 20
-438.3143167066577
 30
0.0
 11
600.3796006236513
 21
-438.3143167066577
 31
0.0
  0
LINE
  5
51A
330
1F
100
AcDbEntity
  8
0
100
AcDbLine
 10
630.2796006236515
 20
-464.2143167066576
 30
0.0
 11
630.2796006236515
 21
-438.4143167066577
 31
0.0
  0
LINE
  5
51B
330
1F
100
AcDbEntity
  8
0
100
AcDbLine
 10
600.2796006236515
 20
-438.4143167066577
 30
0.0
 11
600.2796006236515
 21
-464.2143167066576
 31
0.0
  0
LINE
  5
51C
330
1F
100
AcDbEntity
  8
0
100
AcDbLine
 10
600.2796006236515
 20
-464.2143167066576
 30
0.0
 11
600.3796006236513
 21
-464.3143167066576
 31
0.0
  0
LINE
  5
51D
330
1F
100
AcDbEntity
  8
0
100
AcDbLine
 10
630.1796006236513
 20
-464.3143167066577
 30
0.0
 11
630.2796006236515
 21
-464.2143167066577
 31
0.0
  0
LINE
  5
51E
330
1F
100
AcDbEntity
  8
0
100
AcDbLine
 10
630.2796006236515
 20
-438.4143167066577
 30
0.0
 11
630.1796006236513
 21
-438.3143167066577
 31
0.0
  0
LINE
  5
51F
330
1F
100
AcDbEntity
  8
0
100
AcDbLine
 10
600.3796006236513
 20
-438.3143167066577
 30
0.0
 11
600.2796006236515
 21
-438.4143167066577
 31
0.0
  0
LINE
  5
520
330
1F
100
AcDbEntity
  8
0
100
AcDbLine
 10
119.3796006236515
 20
-464.3143167066576
 30
0.0
 11
149.1796006236513
 21
-464.3143167066576
 31
0.0
  0
LINE
  5
521
330
1F
100
AcDbEntity
  8
0
100
AcDbLine
 10
119.2796006236516
 20
-438.4143167066577
 30
0.0
 11
149.2796006236514
 21
-438.4143167066577
 31
0.0
  0
LINE
  5
522
330
1F
100
AcDbEntity
  8
0
100
AcDbLine
 10
149.2796006236514
 20
-464.2143167066576
 30
0.0
 11
119.2796006236516
 21
-464.2143167066576
 31
0.0
  0
LINE
  5
523
330
1F
100
AcDbEntity
  8
0
100
AcDbLine
 10
149.1796006236513
 20
-438.3143167066577
 30
0.0
 11
119.3796006236515
 21
-438.3143167066577
 31
0.0
  0
LINE
  5
524
330
1F
100
AcDbEntity
  8
0
100
AcDbLine
 10
149.2796006236515
 20
-464.2143167066576
 30
0.0
 11
149.2796006236515
 21
-438.4143167066577
 31
0.0
  0
LINE
  5
525
330
1F
100
AcDbEntity
  8
0
100
AcDbLine
 10
119.2796006236515
 20
-438.4143167066577
 30
0.0
 11
119.2796006236515
 21
-464.2143167066576
 31
0.0
  0
LINE
  5
526
330
1F
100
AcDbEntity
  8
0
100
AcDbLine
 10
119.2796006236515
 20
-464.2143167066576
 30
0.0
 11
119.3796006236515
 21
-464.3143167066576
 31
0.0
  0
LINE
  5
527
330
1F
100
AcDbEntity
  8
0
100
AcDbLine
 10
149.1796006236515
 20
-464.3143167066576
 30
0.0
 11
149.2796006236515
 21
-464.2143167066576
 31
0.0
  0
LINE
  5
528
330
1F
100
AcDbEntity
  8
0
100
AcDbLine
 10
149.2796006236515
 20
-438.4143167066577
 30
0.0
 11
149.1796006236515
 21
-438.3143167066577
 31
0.0
  0
LINE
  5
529
330
1F
100
AcDbEntity
  8
0
100
AcDbLine
 10
119.3796006236514
 20
-438.3143167066577
 30
0.0
 11
119.2796006236514
 21
-438.4143167066575
 31
0.0
  0
LINE
  5
52A
330
1F
100
AcDbEntity
  8
0
100
AcDbLine
 10
612.2796006236515
 20
-433.9143167066578
 30
0.0
 11
612.2796006236515
 21
-438.3143167066577
 31
0.0
  0
LINE
  5
52B
330
1F
100
AcDbEntity
  8
0
100
AcDbLine
 10
618.2796006236515
 20
-433.9143167066578
 30
0.0
 11
618.2796006236515
 21
-438.3143167066577
 31
0.0
  0
LINE
  5
52C
330
1F
100
AcDbEntity
  8
0
100
AcDbLine
 10
131.2796006236515
 20
-433.9143167066573
 30
0.0
 11
131.2796006236515
 21
-438.3143167066577
 31
0.0
  0
LINE
  5
52D
330
1F
100
AcDbEntity
  8
0
100
AcDbLine
 10
137.2796006236515
 20
-433.9143167066573
 30
0.0
 11
137.2796006236515
 21
-438.3143167066577
 31
0.0
  0
LINE
  5
52E
330
1F
100
AcDbEntity
  8
0
100
AcDbLine
 10
149.2796006236516
 20
-456.7143167066578
 30
0.0
 11
600.2796006236515
 21
-456.7143167066576
 31
0.0
  0
LINE
  5
52F
330
1F
100
AcDbEntity
  8
0
100
AcDbLine
 10
612.2796006236517
 20
-424.9143167066575
 30
0.0
 11
137.2796006236515
 21
-424.9143167066578
 31
0.0
  0
LINE
  5
530
330
1F
100
AcDbEntity
  8
0
100
AcDbLine
 10
119.2796006236515
 20
-458.3143167066577
 30
0.0
 11
99.27960062365151
 21
-458.3143167066577
 31
0.0
  0
LINE
  5
531
330
1F
100
AcDbEntity
  8
0
100
AcDbLine
 10
126.2796006236515
 20
-467.3143167066576
 30
0.0
 11
99.27960062365151
 21
-467.3143167066576
 31
0.0
  0
LINE
  5
532
330
1F
100
AcDbEntity
  8
0
100
AcDbLine
 10
89.27960062365162
 20
-467.3143167066576
 30
0.0
 11
99.27960062365162
 21
-467.3143167066576
 31
0.0
  0
LINE
  5
533
330
1F
100
AcDbEntity
  8
0
100
AcDbLine
 10
99.27960062365162
 20
-458.3143167066577
 30
0.0
 11
89.27960062365162
 21
-458.3143167066577
 31
0.0
  0
LINE
  5
534
330
1F
100
AcDbEntity
  8
0
100
AcDbLine
 10
99.27960062365151
 20
-458.3143167066577
 30
0.0
 11
99.27960062365151
 21
-467.3143167066577
 31
0.0
  0
LINE
  5
535
330
1F
100
AcDbEntity
  8
0
100
AcDbLine
 10
89.27960062365162
 20
-458.3143167066577
 30
0.0
 11
89.27960062365162
 21
-467.3143167066577
 31
0.0
  0
LINE
  5
536
330
1F
100
AcDbEntity
  8
0
100
AcDbLine
 10
593.8375625079022
 20
-478.3143167066577
 30
0.0
 11
636.7216387394005
 21
-478.3143167066577
 31
0.0
  0
LINE
  5
537
330
1F
100
AcDbEntity
  8
0
100
AcDbLine
 10
600.7796006236515
 20
-475.3143167066577
 30
0.0
 11
629.7796006236512
 21
-475.3143167066577
 31
0.0
  0
LINE
  5
538
330
1F
100
AcDbEntity
  8
0
100
AcDbLine
 10
593.9713542162458
 20
-484.3143167066577
 30
0.0
 11
636.5878470310569
 21
-484.3143167066577
 31
0.0
  0
LINE
  5
539
330
1F
100
AcDbEntity
  8
0
100
AcDbLine
 10
637.5726547840693
 20
-483.1406685289907
 30
0.0
 11
592.9865464632337
 21
-483.1406685289907
 31
0.0
  0
LINE
  5
53A
330
1F
100
AcDbEntity
  8
0
100
AcDbLine
 10
603.7796006236515
 20
-487.3143167066577
 30
0.0
 11
626.7796006236513
 21
-487.3143167066577
 31
0.0
  0
LINE
  5
53B
330
1F
100
AcDbEntity
  8
0
100
AcDbLine
 10
627.7796006236513
 20
-486.3143167066578
 30
0.0
 11
602.7796006236514
 21
-486.3143167066578
 31
0.0
  0
LINE
  5
53C
330
1F
100
AcDbEntity
  8
0
100
AcDbLine
 10
637.5726547840695
 20
-483.1406685289907
 30
0.0
 11
636.7216387394005
 21
-478.3143167066576
 31
0.0
  0
LINE
  5
53D
330
1F
100
AcDbEntity
  8
0
100
AcDbLine
 10
593.8375625079022
 20
-478.3143167066577
 30
0.0
 11
592.9865464632334
 21
-483.1406685289908
 31
0.0
  0
LINE
  5
53E
330
1F
100
AcDbEntity
  8
0
100
AcDbLine
 10
624.7796006236515
 20
-475.3143167066577
 30
0.0
 11
622.7796006236514
 21
-472.3143167066576
 31
0.0
  0
LINE
  5
53F
330
1F
100
AcDbEntity
  8
0
100
AcDbLine
 10
607.7796006236515
 20
-472.3143167066576
 30
0.0
 11
605.7796006236515
 21
-475.3143167066577
 31
0.0
  0
LINE
  5
540
330
1F
100
AcDbEntity
  8
0
100
AcDbLine
 10
636.7216387394007
 20
-478.3143167066577
 30
0.0
 11
629.7796006236515
 21
-475.3143167066577
 31
0.0
  0
LINE
  5
541
330
1F
100
AcDbEntity
  8
0
100
AcDbLine
 10
600.7796006236515
 20
-475.3143167066577
 30
0.0
 11
593.8375625079022
 21
-478.3143167066576
 31
0.0
  0
LINE
  5
542
330
1F
100
AcDbEntity
  8
0
100
AcDbLine
 10
602.7796006236514
 20
-484.3143167066577
 30
0.0
 11
602.7796006236514
 21
-486.3143167066578
 31
0.0
  0
LINE
  5
543
330
1F
100
AcDbEntity
  8
0
100
AcDbLine
 10
627.7796006236514
 20
-486.3143167066578
 30
0.0
 11
627.7796006236514
 21
-484.3143167066577
 31
0.0
  0
ARC
  5
544
330
1F
100
AcDbEntity
  8
0
100
AcDbCircle
 10
636.5878470310572
 20
-483.3143167066577
 30
0.0
 40
1.000000000000001
100
AcDbArc
 50
270.0
 51
10.00000000000246
  0
ARC
  5
545
330
1F
100
AcDbEntity
  8
0
100
AcDbCircle
 10
593.9713542162455
 20
-483.3143167066577
 30
0.0
 40
1.000000000000005
100
AcDbArc
 50
169.9999999999961
 51
270.0
  0
ARC
  5
546
330
1F
100
AcDbEntity
  8
0
100
AcDbCircle
 10
626.7796006236515
 20
-486.3143167066578
 30
0.0
 40
1.000000000000001
100
AcDbArc
 50
270.0
 51
0.0
  0
ARC
  5
547
330
1F
100
AcDbEntity
  8
0
100
AcDbCircle
 10
603.7796006236512
 20
-486.3143167066578
 30
0.0
 40
1.000000000000001
100
AcDbArc
 50
180.0
 51
270.0
  0
LINE
  5
548
330
1F
100
AcDbEntity
  8
0
100
AcDbLine
 10
623.2796006236514
 20
-465.028847886474
 30
0.0
 11
623.2796006236514
 21
-472.3143167066576
 31
0.0
  0
LINE
  5
549
330
1F
100
AcDbEntity
  8
0
100
AcDbLine
 10
623.2796006236514
 20
-472.3143167066576
 30
0.0
 11
615.2796006236514
 21
-472.3143167066576
 31
0.0
  0
LINE
  5
54A
330
1F
100
AcDbEntity
  8
0
100
AcDbLine
 10
615.2796006236514
 20
-472.3143167066576
 30
0.0
 11
615.2796006236514
 21
-465.028847886474
 31
0.0
  0
LINE
  5
54B
330
1F
100
AcDbEntity
  8
0
100
AcDbLine
 10
615.2796006236514
 20
-472.3143167066576
 30
0.0
 11
607.2796006236515
 21
-472.3143167066576
 31
0.0
  0
LINE
  5
54C
330
1F
100
AcDbEntity
  8
0
100
AcDbLine
 10
607.2796006236515
 20
-472.3143167066576
 30
0.0
 11
607.2796006236515
 21
-465.028847886474
 31
0.0
  0
ARC
  5
54D
330
1F
100
AcDbEntity
  8
0
100
AcDbCircle
 10
619.4526470217493
 20
-476.8364616439248
 30
0.0
 40
12.52334056415534
100
AcDbArc
 50
90.79173314510638
 51
109.4644248553088
  0
ARC
  5
54E
330
1F
100
AcDbEntity
  8
0
100
AcDbCircle
 10
619.1390032882175
 20
-476.6548093181444
 30
0.0
 40
12.3412935101994
100
AcDbArc
 50
70.39659433774589
 51
89.34724766183737
  0
ARC
  5
54F
330
1F
100
AcDbEntity
  8
0
100
AcDbCircle
 10
611.4526470217494
 20
-476.8364616439253
 30
0.0
 40
12.52334056415577
100
AcDbArc
 50
90.79173314510768
 51
109.4644248553088
  0
ARC
  5
550
330
1F
100
AcDbEntity
  8
0
100
AcDbCircle
 10
611.1390032882177
 20
-476.6548093181442
 30
0.0
 40
12.34129351019918
100
AcDbArc
 50
70.39659433774589
 51
89.34724766183801
  0
LINE
  5
551
330
1F
100
AcDbEntity
  8
0
100
AcDbLine
 10
623.2796006236514
 20
-464.3143167066577
 30
0.0
 11
623.2796006236514
 21
-465.028847886474
 31
0.0
  0
LINE
  5
552
330
1F
100
AcDbEntity
  8
0
100
AcDbLine
 10
607.2796006236515
 20
-464.3143167066577
 30
0.0
 11
607.2796006236515
 21
-465.028847886474
 31
0.0
  0
LINE
  5
553
330
1F
100
AcDbEntity
  8
0
100
AcDbLine
 10
142.2796006236515
 20
-465.028847886474
 30
0.0
 11
142.2796006236515
 21
-472.3143167066576
 31
0.0
  0
LINE
  5
554
330
1F
100
AcDbEntity
  8
0
100
AcDbLine
 10
142.2796006236515
 20
-472.3143167066576
 30
0.0
 11
134.2796006236514
 21
-472.3143167066576
 31
0.0
  0
LINE
  5
555
330
1F
100
AcDbEntity
  8
0
100
AcDbLine
 10
134.2796006236515
 20
-472.3143167066576
 30
0.0
 11
134.2796006236515
 21
-465.028847886474
 31
0.0
  0
LINE
  5
556
330
1F
100
AcDbEntity
  8
0
100
AcDbLine
 10
134.2796006236515
 20
-472.3143167066576
 30
0.0
 11
126.2796006236515
 21
-472.3143167066576
 31
0.0
  0
LINE
  5
557
330
1F
100
AcDbEntity
  8
0
100
AcDbLine
 10
126.2796006236515
 20
-472.3143167066576
 30
0.0
 11
126.2796006236515
 21
-465.028847886474
 31
0.0
  0
ARC
  5
558
330
1F
100
AcDbEntity
  8
0
100
AcDbCircle
 10
138.4526470217494
 20
-476.8364616439248
 30
0.0
 40
12.52334056415534
100
AcDbArc
 50
90.79173314510706
 51
109.4644248553088
  0
ARC
  5
559
330
1F
100
AcDbEntity
  8
0
100
AcDbCircle
 10
138.1390032882176
 20
-476.6548093181444
 30
0.0
 40
12.3412935101994
100
AcDbArc
 50
70.39659433774651
 51
89.34724766183737
  0
ARC
  5
55A
330
1F
100
AcDbEntity
  8
0
100
AcDbCircle
 10
130.4526470217494
 20
-476.8364616439248
 30
0.0
 40
12.52334056415534
100
AcDbArc
 50
90.79173314510706
 51
109.4644248553094
  0
ARC
  5
55B
330
1F
100
AcDbEntity
  8
0
100
AcDbCircle
 10
130.1390032882177
 20
-476.654809318144
 30
0.0
 40
12.34129351019907
100
AcDbArc
 50
70.39659433774589
 51
89.34724766183737
  0
LINE
  5
55C
330
1F
100
AcDbEntity
  8
0
100
AcDbLine
 10
142.2796006236515
 20
-464.3143167066576
 30
0.0
 11
142.2796006236515
 21
-465.028847886474
 31
0.0
  0
LINE
  5
55D
330
1F
100
AcDbEntity
  8
0
100
AcDbLine
 10
126.2796006236515
 20
-464.3143167066576
 30
0.0
 11
126.2796006236515
 21
-465.028847886474
 31
0.0
  0
LINE
  5
55E
330
1F
100
AcDbEntity
  8
0
100
AcDbLine
 10
444.0296006236516
 20
-461.2321464627795
 30
0.0
 11
432.5296006236515
 21
-461.2321464627795
 31
0.0
  0
LINE
  5
55F
330
1F
100
AcDbEntity
  8
0
100
AcDbLine
 10
430.7740471241864
 20
-458.7337601230569
 30
0.0
 11
430.7740471241864
 21
-456.7143167066576
 31
0.0
  0
LINE
  5
560
330
1F
100
AcDbEntity
  8
0
100
AcDbLine
 10
434.5268238739189
 20
-458.7337601230569
 30
0.0
 11
434.5268238739189
 21
-456.7143167066576
 31
0.0
  0
LINE
  5
561
330
1F
100
AcDbEntity
  8
0
100
AcDbLine
 10
442.0323773733842
 20
-458.7337601230569
 30
0.0
 11
442.0323773733842
 21
-456.7143167066576
 31
0.0
  0
LINE
  5
562
330
1F
100
AcDbEntity
  8
0
100
AcDbLine
 10
445.7851541231166
 20
-458.7337601230569
 30
0.0
 11
445.7851541231166
 21
-456.7143167066576
 31
0.0
  0
ARC
  5
563
330
1F
100
AcDbEntity
  8
0
100
AcDbCircle
 10
432.543894736995
 20
-455.64740197766
 30
0.0
 40
3.668462152417522
100
AcDbArc
 50
271.6642380947355
 51
302.7200093733021
  0
SPLINE
  5
564
330
1F
100
AcDbEntity
  8
0
100
AcDbSpline
210
0.0
220
0.0
230
1.0
 70
     8
 71
     3
 72
    10
 73
     6
 74
     0
 42
0.0000000001
 43
0.0000000001
 40
0.0
 40
0.0
 40
0.0
 40
0.0
 40
0.5
 40
0.5
 40
1.0
 40
1.0
 40
1.0
 40
1.0
 10
434.5268238739189
 20
-458.7337601230569
 30
0.0
 10
435.1373001721856
 20
-458.9099894506261
 30
0.0
 10
435.7624010650351
 20
-459.0577510717618
 30
0.0
 10
437.0152846557131
 20
-459.2597899346302
 30
0.0
 10
437.6453296921095
 20
-459.3143167066576
 30
0.0
 10
438.2796006236514
 20
-459.3143167066576
 30
0.0
  0
SPLINE
  5
565
330
1F
100
AcDbEntity
  8
0
100
AcDbSpline
210
0.0
220
0.0
230
1.0
 70
     8
 71
     3
 72
    10
 73
     6
 74
     0
 42
0.0000000001
 43
0.0000000001
 40
0.0
 40
0.0
 40
0.0
 40
0.0
 40
0.5
 40
0.5
 40
1.0
 40
1.0
 40
1.0
 40
1.0
 10
438.2796006236514
 20
-459.3143167066576
 30
0.0
 10
438.9142632915035
 20
-459.3143167066576
 30
0.0
 10
439.5574997631753
 20
-459.2582713425673
 30
0.0
 10
440.8108113476328
 20
-459.0548048657958
 30
0.0
 10
441.4255507066335
 20
-458.9089358927568
 30
0.0
 10
442.0323773733842
 20
-458.7337601230569
 30
0.0
  0
ARC
  5
566
330
1F
100
AcDbEntity
  8
0
100
AcDbCircle
 10
444.0398955387616
 20
-455.567928988389
 30
0.0
 40
3.748681896020578
100
AcDbArc
 50
237.6203815795866
 51
267.9953709523734
  0
ARC
  5
567
330
1F
100
AcDbEntity
  8
0
100
AcDbCircle
 10
443.8022249861928
 20
-455.64740197766
 30
0.0
 40
3.668462152417415
100
AcDbArc
 50
271.6642380947355
 51
302.7200093733025
  0
ARC
  5
568
330
1F
100
AcDbEntity
  8
0
100
AcDbCircle
 10
432.7815652895639
 20
-455.567928988389
 30
0.0
 40
3.748681896020615
100
AcDbArc
 50
237.6203815795873
 51
267.9953709523734
  0
LINE
  5
569
330
1F
100
AcDbEntity
  8
0
100
AcDbLine
 10
432.6504354990525
 20
-459.3143167066576
 30
0.0
 11
431.7796006236514
 21
-459.3143167066576
 31
0.0
  0
LINE
  5
56A
330
1F
100
AcDbEntity
  8
0
100
AcDbLine
 10
432.6504354990525
 20
-459.3143167066576
 30
0.0
 11
438.2796006236515
 21
-459.3143167066576
 31
0.0
  0
LINE
  5
56B
330
1F
100
AcDbEntity
  8
0
100
AcDbLine
 10
438.2796006236514
 20
-459.3143167066576
 30
0.0
 11
443.9087657482502
 21
-459.3143167066576
 31
0.0
  0
LINE
  5
56C
330
1F
100
AcDbEntity
  8
0
100
AcDbLine
 10
443.9087657482502
 20
-459.3143167066576
 30
0.0
 11
444.7796006236514
 21
-459.3143167066576
 31
0.0
  0
LINE
  5
56D
330
1F
100
AcDbEntity
  8
0
100
AcDbLine
 10
432.5296006236515
 20
-459.3143167066576
 30
0.0
 11
432.5296006236515
 21
-461.2321464627795
 31
0.0
  0
LINE
  5
56E
330
1F
100
AcDbEntity
  8
0
100
AcDbLine
 10
444.0296006236516
 20
-461.2321464627795
 30
0.0
 11
444.0296006236516
 21
-459.3143167066576
 31
0.0
  0
ARC
  5
56F
330
1F
100
AcDbEntity
  8
0
100
AcDbCircle
 10
437.9934990731365
 20
-458.8206162282869
 30
0.0
 40
6.5
100
AcDbArc
 50
272.5227244643239
 51
338.2224099150696
  0
ARC
  5
570
330
1F
100
AcDbEntity
  8
0
100
AcDbCircle
 10
438.5657021741663
 20
-458.8206162282869
 30
0.0
 40
6.499999999999995
100
AcDbArc
 50
201.7775900849319
 51
267.4772755356761
  0
LINE
  5
571
330
1F
100
AcDbEntity
  8
0
100
AcDbLine
 10
444.7796006236516
 20
-459.3143167066576
 30
0.0
 11
445.7851541231169
 21
-458.7337601230569
 31
0.0
  0
LINE
  5
572
330
1F
100
AcDbEntity
  8
0
100
AcDbLine
 10
430.7740471241864
 20
-458.7337601230569
 30
0.0
 11
431.7796006236516
 21
-459.3143167066576
 31
0.0
  0
LINE
  5
573
330
1F
100
AcDbEntity
  8
0
100
AcDbLine
 10
112.8375625079025
 20
-478.3143167066577
 30
0.0
 11
155.7216387394004
 21
-478.3143167066577
 31
0.0
  0
LINE
  5
574
330
1F
100
AcDbEntity
  8
0
100
AcDbLine
 10
119.7796006236515
 20
-475.3143167066577
 30
0.0
 11
148.7796006236512
 21
-475.3143167066576
 31
0.0
  0
LINE
  5
575
330
1F
100
AcDbEntity
  8
0
100
AcDbLine
 10
112.9713542162459
 20
-484.3143167066577
 30
0.0
 11
155.5878470310571
 21
-484.3143167066576
 31
0.0
  0
LINE
  5
576
330
1F
100
AcDbEntity
  8
0
100
AcDbLine
 10
156.5726547840693
 20
-483.1406685289907
 30
0.0
 11
111.9865464632337
 21
-483.1406685289907
 31
0.0
  0
LINE
  5
577
330
1F
100
AcDbEntity
  8
0
100
AcDbLine
 10
122.7796006236516
 20
-487.3143167066577
 30
0.0
 11
145.7796006236514
 21
-487.3143167066577
 31
0.0
  0
LINE
  5
578
330
1F
100
AcDbEntity
  8
0
100
AcDbLine
 10
146.7796006236514
 20
-486.3143167066576
 30
0.0
 11
121.7796006236516
 21
-486.3143167066576
 31
0.0
  0
LINE
  5
579
330
1F
100
AcDbEntity
  8
0
100
AcDbLine
 10
156.5726547840695
 20
-483.1406685289907
 30
0.0
 11
155.7216387394006
 21
-478.3143167066576
 31
0.0
  0
LINE
  5
57A
330
1F
100
AcDbEntity
  8
0
100
AcDbLine
 10
112.8375625079023
 20
-478.3143167066577
 30
0.0
 11
111.9865464632335
 21
-483.1406685289908
 31
0.0
  0
LINE
  5
57B
330
1F
100
AcDbEntity
  8
0
100
AcDbLine
 10
143.7796006236514
 20
-475.3143167066577
 30
0.0
 11
141.7796006236514
 21
-472.3143167066575
 31
0.0
  0
LINE
  5
57C
330
1F
100
AcDbEntity
  8
0
100
AcDbLine
 10
126.7796006236515
 20
-472.3143167066576
 30
0.0
 11
124.7796006236515
 21
-475.3143167066577
 31
0.0
  0
LINE
  5
57D
330
1F
100
AcDbEntity
  8
0
100
AcDbLine
 10
155.7216387394006
 20
-478.3143167066577
 30
0.0
 11
148.7796006236515
 21
-475.3143167066577
 31
0.0
  0
LINE
  5
57E
330
1F
100
AcDbEntity
  8
0
100
AcDbLine
 10
119.7796006236514
 20
-475.3143167066577
 30
0.0
 11
112.8375625079022
 21
-478.3143167066576
 31
0.0
  0
LINE
  5
57F
330
1F
100
AcDbEntity
  8
0
100
AcDbLine
 10
121.7796006236515
 20
-484.3143167066576
 30
0.0
 11
121.7796006236515
 21
-486.3143167066576
 31
0.0
  0
LINE
  5
580
330
1F
100
AcDbEntity
  8
0
100
AcDbLine
 10
146.7796006236515
 20
-486.3143167066576
 30
0.0
 11
146.7796006236515
 21
-484.3143167066576
 31
0.0
  0
ARC
  5
581
330
1F
100
AcDbEntity
  8
0
100
AcDbCircle
 10
155.5878470310573
 20
-483.3143167066577
 30
0.0
 40
1.000000000000001
100
AcDbArc
 50
270.0
 51
10.00000000000246
  0
ARC
  5
582
330
1F
100
AcDbEntity
  8
0
100
AcDbCircle
 10
112.9713542162457
 20
-483.3143167066577
 30
0.0
 40
0.9999999999999776
100
AcDbArc
 50
169.9999999999961
 51
270.0
  0
ARC
  5
583
330
1F
100
AcDbEntity
  8
0
100
AcDbCircle
 10
145.7796006236515
 20
-486.3143167066576
 30
0.0
 40
1.000000000000001
100
AcDbArc
 50
270.0
 51
0.0
  0
ARC
  5
584
330
1F
100
AcDbEntity
  8
0
100
AcDbCircle
 10
122.7796006236515
 20
-486.3143167066576
 30
0.0
 40
1.000000000000001
100
AcDbArc
 50
180.0
 51
270.0
  0
LINE
  5
585
330
1F
100
AcDbEntity
  8
0
100
AcDbLine
 10
90.7796006236515
 20
-457.8143167066577
 30
0.0
 11
107.7796006236515
 21
-457.8143167066577
 31
0.0
  0
LINE
  5
586
330
1F
100
AcDbEntity
  8
0
100
AcDbLine
 10
107.2796006236515
 20
-457.3143167066576
 30
0.0
 11
91.27960062365151
 21
-457.3143167066576
 31
0.0
  0
LINE
  5
587
330
1F
100
AcDbEntity
  8
0
100
AcDbLine
 10
107.7796006236515
 20
-458.3143167066577
 30
0.0
 11
107.7796006236515
 21
-457.8143167066577
 31
0.0
  0
LINE
  5
588
330
1F
100
AcDbEntity
  8
0
100
AcDbLine
 10
90.7796006236515
 20
-457.8143167066577
 30
0.0
 11
90.7796006236515
 21
-458.3143167066577
 31
0.0
  0
LINE
  5
589
330
1F
100
AcDbEntity
  8
0
100
AcDbLine
 10
107.7796006236515
 20
-457.8143167066577
 30
0.0
 11
107.2796006236515
 21
-457.3143167066576
 31
0.0
  0
LINE
  5
58A
330
1F
100
AcDbEntity
  8
0
100
AcDbLine
 10
91.27960062365151
 20
-457.3143167066576
 30
0.0
 11
90.7796006236515
 21
-457.8143167066576
 31
0.0
  0
LINE
  5
58B
330
1F
100
AcDbEntity
  8
0
100
AcDbLine
 10
621.7796006236512
 20
-428.4143167066578
 30
0.0
 11
615.2796006236513
 21
-428.4143167066578
 31
0.0
  0
LINE
  5
58C
330
1F
100
AcDbEntity
  8
0
100
AcDbLine
 10
615.2796006236513
 20
-428.4143167066578
 30
0.0
 11
608.7796006236512
 21
-428.4143167066578
 31
0.0
  0
LINE
  5
58D
330
1F
100
AcDbEntity
  8
0
100
AcDbLine
 10
608.7796006236512
 20
-428.4143167066578
 30
0.0
 11
608.7796006236512
 21
-433.3337601230589
 31
0.0
  0
LINE
  5
58E
330
1F
100
AcDbEntity
  8
0
100
AcDbLine
 10
615.2796006236513
 20
-428.4143167066578
 30
0.0
 11
615.2796006236513
 21
-433.3337601230759
 31
0.0
  0
LINE
  5
58F
330
1F
100
AcDbEntity
  8
0
100
AcDbLine
 10
621.7796006236512
 20
-428.4143167066578
 30
0.0
 11
621.7796006236512
 21
-433.3337601230589
 31
0.0
  0
LINE
  5
590
330
1F
100
AcDbEntity
  8
0
100
AcDbLine
 10
612.0296006236681
 20
-433.9143167066579
 30
0.0
 11
608.7796006236512
 21
-433.9143167066579
 31
0.0
  0
LINE
  5
591
330
1F
100
AcDbEntity
  8
0
100
AcDbLine
 10
618.5296006236342
 20
-433.9143167066579
 30
0.0
 11
612.0296006236681
 21
-433.9143167066579
 31
0.0
  0
LINE
  5
592
330
1F
100
AcDbEntity
  8
0
100
AcDbLine
 10
621.7796006236512
 20
-433.9143167066579
 30
0.0
 11
618.5296006236342
 21
-433.9143167066579
 31
0.0
  0
ARC
  5
593
330
1F
100
AcDbEntity
  8
0
100
AcDbCircle
 10
611.9153652824377
 20
-423.8876664249611
 30
0.0
 40
10.02730101196897
100
AcDbArc
 50
270.6527523712633
 51
289.603405628612
  0
ARC
  5
594
330
1F
100
AcDbEntity
  8
0
100
AcDbCircle
 10
618.6702008603916
 20
-423.7400737304933
 30
0.0
 40
10.17521442351997
100
AcDbArc
 50
250.5355753441913
 51
269.2082666559335
  0
ARC
  5
595
330
1F
100
AcDbEntity
  8
0
100
AcDbCircle
 10
618.4153652823788
 20
-423.8876664249018
 30
0.0
 40
10.02730101202848
100
AcDbArc
 50
270.652752371402
 51
289.6034056288469
  0
LINE
  5
596
330
1F
100
AcDbEntity
  8
0
100
AcDbLine
 10
621.7796006236512
 20
-433.3337601230589
 30
0.0
 11
621.7796006236512
 21
-433.9143167066579
 31
0.0
  0
LINE
  5
597
330
1F
100
AcDbEntity
  8
0
100
AcDbLine
 10
608.7796006236512
 20
-433.9143167066579
 30
0.0
 11
608.7796006236512
 21
-433.3337601230589
 31
0.0
  0
ARC
  5
598
330
1F
100
AcDbEntity
  8
0
100
AcDbCircle
 10
612.1702008604513
 20
-423.7400737304319
 30
0.0
 40
10.17521442358176
100
AcDbArc
 50
250.5355753439583
 51
269.2082666557935
  0
LINE
  5
599
330
1F
100
AcDbEntity
  8
0
100
AcDbLine
 10
618.2796006236513
 20
-428.4143167066578
 30
0.0
 11
618.2796006236513
 21
-417.3143167066577
 31
0.0
  0
LINE
  5
59A
330
1F
100
AcDbEntity
  8
0
100
AcDbLine
 10
612.2796006236512
 20
-417.3143167066577
 30
0.0
 11
612.2796006236512
 21
-428.4143167066578
 31
0.0
  0
LINE
  5
59B
330
1F
100
AcDbEntity
  8
0
100
AcDbLine
 10
140.7796006236514
 20
-428.4143167066575
 30
0.0
 11
134.2796006236514
 21
-428.4143167066575
 31
0.0
  0
LINE
  5
59C
330
1F
100
AcDbEntity
  8
0
100
AcDbLine
 10
134.2796006236514
 20
-428.4143167066575
 30
0.0
 11
127.7796006236514
 21
-428.4143167066575
 31
0.0
  0
LINE
  5
59D
330
1F
100
AcDbEntity
  8
0
100
AcDbLine
 10
127.7796006236514
 20
-428.4143167066573
 30
0.0
 11
127.7796006236514
 21
-433.3337601230584
 31
0.0
  0
LINE
  5
59E
330
1F
100
AcDbEntity
  8
0
100
AcDbLine
 10
134.2796006236514
 20
-428.4143167066575
 30
0.0
 11
134.2796006236514
 21
-433.3337601230755
 31
0.0
  0
LINE
  5
59F
330
1F
100
AcDbEntity
  8
0
100
AcDbLine
 10
140.7796006236514
 20
-428.4143167066575
 30
0.0
 11
140.7796006236514
 21
-433.3337601230586
 31
0.0
  0
LINE
  5
5A0
330
1F
100
AcDbEntity
  8
0
100
AcDbLine
 10
131.0296006236683
 20
-433.9143167066573
 30
0.0
 11
127.7796006236514
 21
-433.9143167066573
 31
0.0
  0
LINE
  5
5A1
330
1F
100
AcDbEntity
  8
0
100
AcDbLine
 10
137.5296006236344
 20
-433.9143167066573
 30
0.0
 11
131.0296006236683
 21
-433.9143167066573
 31
0.0
  0
LINE
  5
5A2
330
1F
100
AcDbEntity
  8
0
100
AcDbLine
 10
140.7796006236514
 20
-433.9143167066573
 30
0.0
 11
137.5296006236344
 21
-433.9143167066573
 31
0.0
  0
ARC
  5
5A3
330
1F
100
AcDbEntity
  8
0
100
AcDbCircle
 10
130.9153652824377
 20
-423.8876664249604
 30
0.0
 40
10.0273010119693
100
AcDbArc
 50
270.6527523712639
 51
289.6034056286114
  0
ARC
  5
5A4
330
1F
100
AcDbEntity
  8
0
100
AcDbCircle
 10
137.6702008603918
 20
-423.740073730493
 30
0.0
 40
10.17521442351972
100
AcDbArc
 50
250.5355753441903
 51
269.2082666559335
  0
ARC
  5
5A5
330
1F
100
AcDbEntity
  8
0
100
AcDbCircle
 10
137.4153652823789
 20
-423.8876664249012
 30
0.0
 40
10.02730101202872
100
AcDbArc
 50
270.6527523714013
 51
289.6034056288469
  0
LINE
  5
5A6
330
1F
100
AcDbEntity
  8
0
100
AcDbLine
 10
140.7796006236514
 20
-433.3337601230584
 30
0.0
 11
140.7796006236514
 21
-433.9143167066573
 31
0.0
  0
LINE
  5
5A7
330
1F
100
AcDbEntity
  8
0
100
AcDbLine
 10
127.7796006236514
 20
-433.9143167066573
 30
0.0
 11
127.7796006236514
 21
-433.3337601230584
 31
0.0
  0
ARC
  5
5A8
330
1F
100
AcDbEntity
  8
0
100
AcDbCircle
 10
131.1702008604515
 20
-423.7400737304315
 30
0.0
 40
10.17521442358172
100
AcDbArc
 50
250.5355753439577
 51
269.2082666557935
  0
LINE
  5
5A9
330
1F
100
AcDbEntity
  8
0
100
AcDbLine
 10
137.2796006236515
 20
-428.4143167066575
 30
0.0
 11
137.2796006236515
 21
-417.3143167066574
 31
0.0
  0
LINE
  5
5AA
330
1F
100
AcDbEntity
  8
0
100
AcDbLine
 10
131.2796006236514
 20
-417.3143167066574
 30
0.0
 11
131.2796006236514
 21
-428.4143167066573
 31
0.0
  0
LINE
  5
5AB
330
1F
100
AcDbEntity
  8
0
100
AcDbLine
 10
615.2796006236513
 20
-416.733760123057
 30
0.0
 11
615.2796006236513
 21
-410.8143167066577
 31
0.0
  0
LINE
  5
5AC
330
1F
100
AcDbEntity
  8
0
100
AcDbLine
 10
608.779600623651
 20
-416.733760123057
 30
0.0
 11
608.779600623651
 21
-410.8143167066577
 31
0.0
  0
LINE
  5
5AD
330
1F
100
AcDbEntity
  8
0
100
AcDbLine
 10
621.7796006236512
 20
-416.733760123057
 30
0.0
 11
621.7796006236512
 21
-410.8143167066577
 31
0.0
  0
LINE
  5
5AE
330
1F
100
AcDbEntity
  8
0
100
AcDbLine
 10
618.5296006236512
 20
-417.3143167066577
 30
0.0
 11
612.0296006236513
 21
-417.3143167066577
 31
0.0
  0
LINE
  5
5AF
330
1F
100
AcDbEntity
  8
0
100
AcDbLine
 10
621.7796006236512
 20
-417.3143167066577
 30
0.0
 11
618.5296006236512
 21
-417.3143167066577
 31
0.0
  0
LINE
  5
5B0
330
1F
100
AcDbEntity
  8
0
100
AcDbLine
 10
612.029600623651
 20
-417.3143167066577
 30
0.0
 11
608.7796006236512
 21
-417.3143167066577
 31
0.0
  0
LINE
  5
5B1
330
1F
100
AcDbEntity
  8
0
100
AcDbLine
 10
621.7796006236512
 20
-417.3143167066577
 30
0.0
 11
621.7796006236512
 21
-416.733760123057
 31
0.0
  0
LINE
  5
5B2
330
1F
100
AcDbEntity
  8
0
100
AcDbLine
 10
608.779600623651
 20
-416.733760123057
 30
0.0
 11
608.7796006236512
 21
-417.3143167066577
 31
0.0
  0
ARC
  5
5B3
330
1F
100
AcDbEntity
  8
0
100
AcDbCircle
 10
618.3890003867861
 20
-407.140073730104
 30
0.0
 40
10.17521442391068
100
AcDbArc
 50
270.7917333446424
 51
289.4644246557751
  0
ARC
  5
5B4
330
1F
100
AcDbEntity
  8
0
100
AcDbCircle
 10
618.6438359650078
 20
-407.2876664244634
 30
0.0
 40
10.0273010124681
100
AcDbArc
 50
250.3965943715359
 51
269.3472476280488
  0
ARC
  5
5B5
330
1F
100
AcDbEntity
  8
0
100
AcDbCircle
 10
611.8890003867859
 20
-407.1400737301027
 30
0.0
 40
10.175214423912
100
AcDbArc
 50
270.7917333446424
 51
289.4644246557744
  0
ARC
  5
5B6
330
1F
100
AcDbEntity
  8
0
100
AcDbCircle
 10
612.1438359650078
 20
-407.2876664244634
 30
0.0
 40
10.02730101246815
100
AcDbArc
 50
250.3965943715352
 51
269.3472476280482
  0
LINE
  5
5B7
330
1F
100
AcDbEntity
  8
0
100
AcDbLine
 10
140.7796006236514
 20
-416.7337601230566
 30
0.0
 11
140.7796006236514
 21
-410.8143167066576
 31
0.0
  0
LINE
  5
5B8
330
1F
100
AcDbEntity
  8
0
100
AcDbLine
 10
134.2796006236514
 20
-416.7337601230566
 30
0.0
 11
134.2796006236514
 21
-410.8143167066576
 31
0.0
  0
LINE
  5
5B9
330
1F
100
AcDbEntity
  8
0
100
AcDbLine
 10
127.7796006236513
 20
-416.7337601230566
 30
0.0
 11
127.7796006236513
 21
-410.8143167066576
 31
0.0
  0
LINE
  5
5BA
330
1F
100
AcDbEntity
  8
0
100
AcDbLine
 10
131.0296006236512
 20
-417.3143167066573
 30
0.0
 11
127.7796006236514
 21
-417.3143167066573
 31
0.0
  0
LINE
  5
5BB
330
1F
100
AcDbEntity
  8
0
100
AcDbLine
 10
137.5296006236514
 20
-417.3143167066574
 30
0.0
 11
131.0296006236512
 21
-417.3143167066574
 31
0.0
  0
LINE
  5
5BC
330
1F
100
AcDbEntity
  8
0
100
AcDbLine
 10
140.7796006236514
 20
-417.3143167066574
 30
0.0
 11
137.5296006236514
 21
-417.3143167066574
 31
0.0
  0
ARC
  5
5BD
330
1F
100
AcDbEntity
  8
0
100
AcDbCircle
 10
130.8890003867859
 20
-407.1400737301011
 30
0.0
 40
10.17521442391307
100
AcDbArc
 50
270.7917333446437
 51
289.4644246557728
  0
ARC
  5
5BE
330
1F
100
AcDbEntity
  8
0
100
AcDbCircle
 10
131.143835965008
 20
-407.2876664244627
 30
0.0
 40
10.02730101246832
100
AcDbArc
 50
250.3965943715352
 51
269.3472476280482
  0
ARC
  5
5BF
330
1F
100
AcDbEntity
  8
0
100
AcDbCircle
 10
137.3890003867864
 20
-407.1400737301034
 30
0.0
 40
10.17521442391094
100
AcDbArc
 50
270.7917333446418
 51
289.4644246557744
  0
ARC
  5
5C0
330
1F
100
AcDbEntity
  8
0
100
AcDbCircle
 10
137.6438359650083
 20
-407.2876664244623
 30
0.0
 40
10.02730101246874
100
AcDbArc
 50
250.3965943715359
 51
269.3472476280469
  0
LINE
  5
5C1
330
1F
100
AcDbEntity
  8
0
100
AcDbLine
 10
127.7796006236513
 20
-416.7337601230566
 30
0.0
 11
127.7796006236513
 21
-417.3143167066573
 31
0.0
  0
LINE
  5
5C2
330
1F
100
AcDbEntity
  8
0
100
AcDbLine
 10
140.7796006236514
 20
-417.3143167066574
 30
0.0
 11
140.7796006236514
 21
-416.7337601230566
 31
0.0
  0
LINE
  5
5C3
330
1F
100
AcDbEntity
  8
0
100
AcDbLine
 10
454.2796006236516
 20
-424.9143167066576
 30
0.0
 11
454.2796006236516
 21
-410.8143167066576
 31
0.0
  0
LINE
  5
5C4
330
1F
100
AcDbEntity
  8
0
100
AcDbLine
 10
304.2796006236516
 20
-410.8143167066576
 30
0.0
 11
304.2796006236516
 21
-424.9143167066576
 31
0.0
  0
LINE
  5
5C5
330
1F
100
AcDbEntity
  8
0
100
AcDbLine
 10
356.2796006236518
 20
-410.8143167066577
 30
0.0
 11
356.2796006236518
 21
-424.1893167066576
 31
0.0
  0
ARC
  5
5C6
330
1F
100
AcDbEntity
  8
0
100
AcDbCircle
 10
359.2796006236515
 20
-428.1893167066576
 30
0.0
 40
4.999999999999999
100
AcDbArc
 50
126.8698976458422
 51
139.0803500451136
  0
ARC
  5
5C7
330
1F
100
AcDbEntity
  8
0
100
AcDbCircle
 10
359.2796006236515
 20
-428.1893167066576
 30
0.0
 40
5.000000000000001
100
AcDbArc
 50
96.19497607046811
 51
126.8698976458422
  0
LINE
  5
5C8
330
1F
100
AcDbEntity
  8
0
100
AcDbLine
 10
402.2796006236514
 20
-424.1893167066576
 30
0.0
 11
402.2796006236514
 21
-410.8143167066576
 31
0.0
  0
ARC
  5
5C9
330
1F
100
AcDbEntity
  8
0
100
AcDbCircle
 10
399.2796006236516
 20
-428.1893167066576
 30
0.0
 40
5.0
100
AcDbArc
 50
40.91964995488632
 51
53.13010235415781
  0
ARC
  5
5CA
330
1F
100
AcDbEntity
  8
0
100
AcDbCircle
 10
363.2796006236515
 20
-425.3143167066577
 30
0.0
 40
4.999999999999999
100
AcDbArc
 50
87.81843826987616
 51
155.2184067307386
  0
ARC
  5
5CB
330
1F
100
AcDbEntity
  8
0
100
AcDbCircle
 10
399.2796006236516
 20
-428.1893167066576
 30
0.0
 40
4.999999999999999
100
AcDbArc
 50
53.13010235415781
 51
83.80502392953188
  0
ARC
  5
5CC
330
1F
100
AcDbEntity
  8
0
100
AcDbCircle
 10
395.2796006236516
 20
-425.3143167066577
 30
0.0
 40
4.999999999999998
100
AcDbArc
 50
24.78159326926255
 51
92.18156173012319
  0
ARC
  5
5CD
330
1F
100
AcDbEntity
  8
0
100
AcDbCircle
 10
379.2796006236516
 20
-412.8143167066575
 30
0.0
 40
11.0
100
AcDbArc
 50
169.5243183036104
 51
0.0
  0
ARC
  5
5CE
330
1F
100
AcDbEntity
  8
0
100
AcDbCircle
 10
379.2796006236516
 20
-412.8143167066575
 30
0.0
 40
11.0
100
AcDbArc
 50
0.0
 51
10.47568169638957
  0
ARC
  5
5CF
330
1F
100
AcDbEntity
  8
0
100
AcDbCircle
 10
345.2796006236516
 20
-412.8143167066577
 30
0.0
 40
9.000000000000001
100
AcDbArc
 50
167.1604115930962
 51
0.0
  0
ARC
  5
5D0
330
1F
100
AcDbEntity
  8
0
100
AcDbCircle
 10
345.2796006236516
 20
-412.8143167066577
 30
0.0
 40
9.000000000000001
100
AcDbArc
 50
0.0
 51
12.83958840690379
  0
LINE
  5
5D1
330
1F
100
AcDbEntity
  8
0
100
AcDbLine
 10
391.2918873376564
 20
-422.2980039329723
 30
0.0
 11
388.6755745639709
 21
-424.9143167066576
 31
0.0
  0
ARC
  5
5D2
330
1F
100
AcDbEntity
  8
0
100
AcDbCircle
 10
379.2796006236516
 20
-412.8143167066575
 30
0.0
 40
17.50000000000001
100
AcDbArc
 50
334.6099337897773
 51
6.562427868633954
  0
ARC
  5
5D3
330
1F
100
AcDbEntity
  8
0
100
AcDbCircle
 10
379.2796006236516
 20
-412.8143167066575
 30
0.0
 40
17.5
100
AcDbArc
 50
173.437572131366
 51
205.3900662102228
  0
ARC
  5
5D4
330
1F
100
AcDbEntity
  8
0
100
AcDbCircle
 10
363.2796006236515
 20
-425.3143167066577
 30
0.0
 40
5.000000000000001
100
AcDbArc
 50
37.44411709728664
 51
87.81843826987616
  0
ARC
  5
5D5
330
1F
100
AcDbEntity
  8
0
100
AcDbCircle
 10
395.2796006236516
 20
-425.3143167066577
 30
0.0
 40
5.000000000000003
100
AcDbArc
 50
92.18156173012319
 51
142.8960799871865
  0
LINE
  5
5D6
330
1F
100
AcDbEntity
  8
0
100
AcDbLine
 10
369.8892709357805
 20
-424.9143167066576
 30
0.0
 11
367.2493341866986
 21
-422.2743799575758
 31
0.0
  0
ARC
  5
5D7
330
1F
100
AcDbEntity
  8
0
100
AcDbCircle
 10
379.2796006236516
 20
-412.8143167066575
 30
0.0
 40
11.3
100
AcDbArc
 50
169.8054483672298
 51
0.0
  0
ARC
  5
5D8
330
1F
100
AcDbEntity
  8
0
100
AcDbCircle
 10
379.2796006236516
 20
-412.8143167066575
 30
0.0
 40
11.3
100
AcDbArc
 50
0.0
 51
10.19455163277016
  0
SPLINE
  5
5D9
330
1F
100
AcDbEntity
  8
0
100
AcDbSpline
210
0.0
220
0.0
230
1.0
 70
     8
 71
     3
 72
    16
 73
    12
 74
     0
 42
0.0000000001
 43
0.0000000001
 40
0.0
 40
0.0
 40
0.0
 40
0.0
 40
0.2499999999999996
 40
0.2499999999999996
 40
0.4999999999999992
 40
0.4999999999999992
 40
0.6249999999999991
 40
0.6249999999999991
 40
0.749999999999999
 40
0.749999999999999
 40
1.0
 40
1.0
 40
1.0
 40
1.0
 10
336.4832236669902
 20
-410.9107010846598
 30
0.0
 10
336.6082032827485
 20
-411.212397796346
 30
0.0
 10
336.720703715434
 20
-411.5187439383523
 30
0.0
 10
336.8881547806409
 20
-412.1528778331034
 30
0.0
 10
336.9402598040207
 20
-412.4846454321912
 30
0.0
 10
336.9406891393593
 20
-412.974778831977
 30
0.0
 10
336.9286406645329
 20
-413.1379103557852
 30
0.0
 10
336.8823689206429
 20
-413.4637254615159
 30
0.0
 10
336.8479974934333
 20
-413.6269830748877
 30
0.0
 10
336.7222743965087
 20
-414.1055868341476
 30
0.0
 10
336.609106406206
 20
-414.4140555064312
 30
0.0
 10
336.4832236669902
 20
-414.7179323286556
 30
0.0
  0
LINE
  5
5DA
330
1F
100
AcDbEntity
  8
0
100
AcDbLine
 10
294.8154990085138
 20
-416.2784183217954
 30
0.0
 11
303.7437022387893
 21
-416.2784183217954
 31
0.0
  0
LINE
  5
5DB
330
1F
100
AcDbEntity
  8
0
100
AcDbLine
 10
294.8154990085138
 20
-419.7425199369331
 30
0.0
 11
303.7437022387893
 21
-419.7425199369331
 31
0.0
  0
LINE
  5
5DC
330
1F
100
AcDbEntity
  8
0
100
AcDbLine
 10
294.2796006236515
 20
-418.0104691293642
 30
0.0
 11
294.2796006236515
 21
-418.8143167066575
 31
0.0
  0
LINE
  5
5DD
330
1F
100
AcDbEntity
  8
0
100
AcDbLine
 10
294.2796006236515
 20
-412.8143167066575
 30
0.0
 11
294.2796006236515
 21
-410.8143167066576
 31
0.0
  0
LINE
  5
5DE
330
1F
100
AcDbEntity
  8
0
100
AcDbLine
 10
294.2796006236515
 20
-418.0104691293642
 30
0.0
 11
294.2796006236515
 21
-412.8143167066577
 31
0.0
  0
SPLINE
  5
5DF
330
1F
100
AcDbEntity
  8
0
100
AcDbSpline
210
0.0
220
0.0
230
1.0
 70
     8
 71
     3
 72
    10
 73
     6
 74
     0
 42
0.0000000001
 43
0.0000000001
 40
0.0
 40
0.0
 40
0.0
 40
0.0
 40
0.5000000000000001
 40
0.5000000000000001
 40
1.0
 40
1.0
 40
1.0
 40
1.0
 10
294.8154990085138
 20
-416.2784183217954
 30
0.0
 10
294.6528571101449
 20
-415.715010258967
 30
0.0
 10
294.5164436315454
 20
-415.1379698760663
 30
0.0
 10
294.329917150274
 20
-413.9812765897998
 30
0.0
 10
294.2796006236515
 20
-413.3996929101295
 30
0.0
 10
294.2796006236515
 20
-412.8143167066575
 30
0.0
  0
SPLINE
  5
5E0
330
1F
100
AcDbEntity
  8
0
100
AcDbSpline
210
0.0
220
0.0
230
1.0
 70
     8
 71
     3
 72
    10
 73
     6
 74
     0
 42
0.0000000001
 43
0.0000000001
 40
0.0
 40
0.0
 40
0.0
 40
0.0
 40
0.5
 40
0.5
 40
0.5703944924145655
 40
0.5703944924145655
 40
0.5703944924145655
 40
0.5703944924145655
 10
294.2796006236515
 20
-412.8143167066575
 30
0.0
 10
294.2796006236515
 20
-412.2285927105394
 30
0.0
 10
294.331309040093
 20
-411.6349045065259
 30
0.0
 10
294.4384499064388
 20
-410.974906565581
 30
0.0
 10
294.4524801039487
 20
-410.8936732439157
 30
0.0
 10
294.4672796011336
 20
-410.8126489913827
 30
0.0
  0
ARC
  5
5E1
330
1F
100
AcDbEntity
  8
0
100
AcDbCircle
 10
297.7552350769331
 20
-417.8840332595392
 30
0.0
 40
3.477933421159235
100
AcDbArc
 50
182.0833746510092
 51
212.3008728170319
  0
ARC
  5
5E2
330
1F
100
AcDbEntity
  8
0
100
AcDbCircle
 10
297.6644449966912
 20
-418.1088144506035
 30
0.0
 40
3.386272763955733
100
AcDbArc
 50
147.2799906637321
 51
178.3357618682259
  0
SPLINE
  5
5E3
330
1F
100
AcDbEntity
  8
0
100
AcDbSpline
210
0.0
220
0.0
230
1.0
 70
     8
 71
     3
 72
    10
 73
     6
 74
     0
 42
0.0000000001
 43
0.0000000001
 40
0.0
 40
0.0
 40
0.0
 40
0.0
 40
0.5
 40
0.5
 40
0.5703944924145663
 40
0.5703944924145663
 40
0.5703944924145663
 40
0.5703944924145663
 10
304.2796006236515
 20
-412.8143167066575
 30
0.0
 10
304.2796006236515
 20
-412.2285927105394
 30
0.0
 10
304.2278922072102
 20
-411.6349045065259
 30
0.0
 10
304.1207513408642
 20
-410.974906565581
 30
0.0
 10
304.1067211433543
 20
-410.8936732439157
 30
0.0
 10
304.0919216461694
 20
-410.8126489913827
 30
0.0
  0
ARC
  5
5E4
330
1F
100
AcDbEntity
  8
0
100
AcDbCircle
 10
300.8039661703697
 20
-417.8840332595391
 30
0.0
 40
3.477933421159384
100
AcDbArc
 50
327.6991271829695
 51
357.9166253489895
  0
ARC
  5
5E5
330
1F
100
AcDbEntity
  8
0
100
AcDbCircle
 10
300.8947562506116
 20
-418.1088144506035
 30
0.0
 40
3.386272763955857
100
AcDbArc
 50
1.664238131774084
 51
32.72000933626605
  0
SPLINE
  5
5E6
330
1F
100
AcDbEntity
  8
0
100
AcDbSpline
210
0.0
220
0.0
230
1.0
 70
     8
 71
     3
 72
    10
 73
     6
 74
     0
 42
0.0000000001
 43
0.0000000001
 40
0.0
 40
0.0
 40
0.0
 40
0.0
 40
0.5
 40
0.5
 40
1.0
 40
1.0
 40
1.0
 40
1.0
 10
303.7437022387893
 20
-416.2784183217954
 30
0.0
 10
303.9063441371582
 20
-415.715010258967
 30
0.0
 10
304.0427576157576
 20
-415.1379698760663
 30
0.0
 10
304.2292840970291
 20
-413.9812765897998
 30
0.0
 10
304.2796006236515
 20
-413.3996929101295
 30
0.0
 10
304.2796006236515
 20
-412.8143167066575
 30
0.0
  0
LINE
  5
5E7
330
1F
100
AcDbEntity
  8
0
100
AcDbLine
 10
294.2796006236515
 20
-418.8143167066576
 30
0.0
 11
294.8154990085137
 21
-419.7425199369332
 31
0.0
  0
LINE
  5
5E8
330
1F
100
AcDbEntity
  8
0
100
AcDbLine
 10
303.7437022387893
 20
-419.7425199369331
 30
0.0
 11
304.2796006236515
 21
-418.8143167066575
 31
0.0
  0
LINE
  5
5E9
330
1F
100
AcDbEntity
  8
0
100
AcDbLine
 10
284.2796006236515
 20
-415.5643167066576
 30
0.0
 11
284.2796006236515
 21
-410.8143167066576
 31
0.0
  0
LINE
  5
5EA
330
1F
100
AcDbEntity
  8
0
100
AcDbLine
 10
284.2796006236515
 20
-415.5643167066576
 30
0.0
 11
294.2796006236515
 21
-415.5643167066576
 31
0.0
  0
ARC
  5
5EB
330
1F
100
AcDbEntity
  8
0
100
AcDbCircle
 10
284.2796006236515
 20
-450.3143167066575
 30
0.0
 40
34.74999999999997
100
AcDbArc
 50
90.0
 51
133.03514308719
  0
ARC
  5
5EC
330
1F
100
AcDbEntity
  8
0
100
AcDbCircle
 10
284.2796006236515
 20
-450.3143167066575
 30
0.0
 40
40.24999999999997
100
AcDbArc
 50
101.0780164460964
 51
140.8719319976941
  0
LINE
  5
5ED
330
1F
100
AcDbEntity
  8
0
100
AcDbLine
 10
634.9146750658357
 20
-362.1650611280821
 30
0.0
 11
639.7796006236517
 21
-410.8143167066576
 31
0.0
  0
LINE
  5
5EE
330
1F
100
AcDbEntity
  8
0
100
AcDbLine
 10
111.2721564089579
 20
-410.8143167066576
 30
0.0
 11
638.2870448383453
 21
-410.8143167066576
 31
0.0
  0
LINE
  5
5EF
330
1F
100
AcDbEntity
  8
0
100
AcDbLine
 10
111.2721564089579
 20
-410.8143167066576
 30
0.0
 11
109.7796006236516
 21
-410.8143167066576
 31
0.0
  0
LINE
  5
5F0
330
1F
100
AcDbEntity
  8
0
100
AcDbLine
 10
639.7796006236517
 20
-410.8143167066576
 30
0.0
 11
638.2870448383455
 21
-410.8143167066576
 31
0.0
  0
LINE
  5
5F1
330
1F
100
AcDbEntity
  8
0
100
AcDbLine
 10
109.7796006236516
 20
-410.8143167066576
 30
0.0
 11
114.6445261814675
 21
-362.1650611280821
 31
0.0
  0
LINE
  5
5F2
330
1F
100
AcDbEntity
  8
0
100
AcDbLine
 10
116.137081966778
 20
-360.8143167066577
 30
0.0
 11
633.4221192805252
 21
-360.8143167066577
 31
0.0
  0
LINE
  5
5F3
330
1F
100
AcDbEntity
  8
0
100
AcDbLine
 10
633.4221192805252
 20
-362.1650611281252
 30
0.0
 11
116.137081966778
 21
-362.1650611281252
 31
0.0
  0
LINE
  5
5F4
330
1F
100
AcDbEntity
  8
0
100
AcDbLine
 10
116.137081966778
 20
-362.1650611281252
 30
0.0
 11
111.272156408958
 21
-410.8143167066577
 31
0.0
  0
LINE
  5
5F5
330
1F
100
AcDbEntity
  8
0
100
AcDbLine
 10
638.2870448383455
 20
-410.8143167066576
 30
0.0
 11
633.4221192805252
 21
-362.1650611281251
 31
0.0
  0
ELLIPSE
  5
5F6
330
1F
100
AcDbEntity
  8
0
100
AcDbEllipse
 10
116.137081966778
 20
-362.3143167066577
 30
0.0
 11
-1.492555785310601
 21
0.1492555785755981
 31
0.0
210
0.0
220
0.0
230
1.0
 40
0.0990147542980008
 41
4.722290132258939
 42
6.283185307179586
  0
LINE
  5
5F7
330
1F
100
AcDbEntity
  8
0
100
AcDbLine
 10
116.137081966778
 20
-360.8143167066577
 30
0.0
 11
116.1370819667779
 21
-362.1650611281252
 31
0.0
  0
ARC
  5
5F8
330
1F
100
AcDbEntity
  8
0
100
AcDbCircle
 10
116.137081966778
 20
-362.3143167066577
 30
0.0
 40
1.500000000000026
100
AcDbArc
 50
90.0
 51
174.2894068608072
  0
ELLIPSE
  5
5F9
330
1F
100
AcDbEntity
  8
0
100
AcDbEllipse
 10
633.4221192805252
 20
-362.3143167066577
 30
0.0
 11
-1.492555785310545
 21
-0.1492555785755842
 31
0.0
210
0.0
220
0.0
230
0.9999999999999998
 40
0.0990147542980771
 41
3.141592653590317
 42
4.702487828510525
  0
LINE
  5
5FA
330
1F
100
AcDbEntity
  8
0
100
AcDbLine
 10
633.4221192805252
 20
-360.8143167066577
 30
0.0
 11
633.4221192805252
 21
-362.1650611281251
 31
0.0
  0
ARC
  5
5FB
330
1F
100
AcDbEntity
  8
0
100
AcDbCircle
 10
633.4221192805251
 20
-362.3143167066577
 30
0.0
 40
1.500000000000001
100
AcDbArc
 50
5.710593139192791
 51
89.99999999999479
  0
LINE
  5
5FC
330
1F
100
AcDbEntity
  8
0
100
AcDbLine
 10
206.2796006236515
 20
-461.3143167066576
 30
0.0
 11
192.2796006236516
 21
-461.3143167066576
 31
0.0
  0
LINE
  5
5FD
330
1F
100
AcDbEntity
  8
0
100
AcDbLine
 10
206.2796006236515
 20
-462.3143167066576
 30
0.0
 11
192.2796006236516
 21
-462.3143167066576
 31
0.0
  0
LINE
  5
5FE
330
1F
100
AcDbEntity
  8
0
100
AcDbLine
 10
191.1966968549969
 20
-456.7143167066578
 30
0.0
 11
191.196696854997
 21
-460.6810010634868
 31
0.0
  0
LINE
  5
5FF
330
1F
100
AcDbEntity
  8
0
100
AcDbLine
 10
207.3625043923059
 20
-460.6810010634871
 30
0.0
 11
207.3625043923041
 21
-456.7143167066578
 31
0.0
  0
LINE
  5
600
330
1F
100
AcDbEntity
  8
0
100
AcDbLine
 10
194.3721233355396
 20
-460.6810010634865
 30
0.0
 11
194.3721233355396
 21
-456.7143167066578
 31
0.0
  0
LINE
  5
601
330
1F
100
AcDbEntity
  8
0
100
AcDbLine
 10
196.1041741431128
 20
-456.7143167066578
 30
0.0
 11
196.1041741431044
 21
-460.6810010634838
 31
0.0
  0
LINE
  5
602
330
1F
100
AcDbEntity
  8
0
100
AcDbLine
 10
202.4550271041944
 20
-460.6810010634865
 30
0.0
 11
202.4550271041944
 21
-456.7143167066578
 31
0.0
  0
LINE
  5
603
330
1F
100
AcDbEntity
  8
0
100
AcDbLine
 10
204.187077911768
 20
-456.7143167066578
 30
0.0
 11
204.1870779117728
 21
-460.6810010634982
 31
0.0
  0
ARC
  5
604
330
1F
100
AcDbEntity
  8
0
100
AcDbCircle
 10
197.5621547501891
 20
-452.8064249066305
 30
0.0
 40
9.270876416106048
100
AcDbArc
 50
301.8547745300429
 51
309.4669276249115
  0
ARC
  5
605
330
1F
100
AcDbEntity
  8
0
100
AcDbCircle
 10
200.0659046296075
 20
-464.1533349385261
 30
0.0
 40
5.38898615337797
100
AcDbArc
 50
40.11613300598677
 51
51.03113621344609
  0
SPLINE
  5
606
330
1F
100
AcDbEntity
  8
0
100
AcDbSpline
210
0.0
220
0.0
230
1.0
 70
     8
 71
     3
 72
    18
 73
    14
 74
     0
 42
0.0000000001
 43
0.0000000001
 40
0.0
 40
0.0
 40
0.0
 40
0.0
 40
0.1250000000000001
 40
0.1250000000000001
 40
0.2500000000000002
 40
0.2500000000000002
 40
0.5000000000000001
 40
0.5000000000000001
 40
0.75
 40
0.75
 40
0.875
 40
0.875
 40
1.0
 40
1.0
 40
1.0
 40
1.0
 10
194.3721233355396
 20
-460.6810010634865
 30
0.0
 10
194.2548179630669
 20
-460.8269046301781
 30
0.0
 10
194.126619699527
 20
-460.9179028234931
 30
0.0
 10
193.8618483748039
 20
-461.0576862302306
 30
0.0
 10
193.7276066035784
 20
-461.1025080270241
 30
0.0
 10
193.3248548405133
 20
-461.2000126578269
 30
0.0
 10
193.0546400843365
 20
-461.2184136901722
 30
0.0
 10
192.512854535918
 20
-461.2183373846785
 30
0.0
 10
192.2409025445618
 20
-461.1997086366258
 30
0.0
 10
191.8377226247437
 20
-461.1014400336518
 30
0.0
 10
191.7030915075269
 20
-461.0559953019703
 30
0.0
 10
191.4407761584264
 20
-460.916785920149
 30
0.0
 10
191.3135528032693
 20
-460.8263456396358
 30
0.0
 10
191.1966968549969
 20
-460.6810010634868
 30
0.0
  0
SPLINE
  5
607
330
1F
100
AcDbEntity
  8
0
100
AcDbSpline
210
0.0
220
0.0
230
1.0
 70
     8
 71
     3
 72
    18
 73
    14
 74
     0
 42
0.0000000001
 43
0.0000000001
 40
0.0
 40
0.0
 40
0.0
 40
0.0
 40
0.1250000000000001
 40
0.1250000000000001
 40
0.2500000000000002
 40
0.2500000000000002
 40
0.5000000000000001
 40
0.5000000000000001
 40
0.7500000000000002
 40
0.7500000000000002
 40
0.8750000000000001
 40
0.8750000000000001
 40
1.0
 40
1.0
 40
1.0
 40
1.0
 10
207.3625043923059
 20
-460.6810010634871
 30
0.0
 10
207.2451990198333
 20
-460.8269046301781
 30
0.0
 10
207.1170007562941
 20
-460.9179028234928
 30
0.0
 10
206.852229431572
 20
-461.05768623023
 30
0.0
 10
206.7179876603468
 20
-461.1025080270235
 30
0.0
 10
206.3152358972831
 20
-461.2000126578265
 30
0.0
 10
206.0450211411072
 20
-461.218413690172
 30
0.0
 10
205.5032355926907
 20
-461.2183373846789
 30
0.0
 10
205.2312836013355
 20
-461.1997086366265
 30
0.0
 10
204.8281036815183
 20
-461.1014400336544
 30
0.0
 10
204.6934725643022
 20
-461.0559953019737
 30
0.0
 10
204.4311572152022
 20
-460.9167859201551
 30
0.0
 10
204.3039338600453
 20
-460.8263456396435
 30
0.0
 10
204.1870779117728
 20
-460.6810010634982
 30
0.0
  0
SPLINE
  5
608
330
1F
100
AcDbEntity
  8
0
100
AcDbSpline
210
0.0
220
0.0
230
1.0
 70
     8
 71
     3
 72
    24
 73
    20
 74
     0
 42
0.0000000001
 43
0.0000000001
 40
0.0
 40
0.0
 40
0.0
 40
0.0
 40
0.0624999999999999
 40
0.0624999999999999
 40
0.1249999999999997
 40
0.1249999999999997
 40
0.2499999999999998
 40
0.2499999999999998
 40
0.3749999999999998
 40
0.3749999999999998
 40
0.4375
 40
0.4375
 40
0.5
 40
0.5
 40
0.75
 40
0.75
 40
0.875
 40
0.875
 40
1.0
 40
1.0
 40
1.0
 40
1.0
 10
202.4550271041944
 20
-460.6810010634865
 30
0.0
 10
202.3379555146159
 20
-460.7538074581029
 30
0.0
 10
202.211416508571
 20
-460.8138062870383
 30
0.0
 10
201.9554243196515
 20
-460.9140494771943
 30
0.0
 10
201.8248698974862
 20
-460.9548541786011
 30
0.0
 10
201.428161905986
 20
-461.0588964509558
 30
0.0
 10
201.1561561056544
 20
-461.1041661966078
 30
0.0
 10
200.6098338797431
 20
-461.1693371947087
 30
0.0
 10
200.335906306143
 20
-461.1889796660902
 30
0.0
 10
199.9243738529354
 20
-461.2076174005434
 30
0.0
 10
199.7870847841305
 20
-461.2119456810241
 30
0.0
 10
199.5123203334174
 20
-461.2174560195767
 30
0.0
 10
199.372332916137
 20
-461.2186238110082
 30
0.0
 10
198.7025970782289
 20
-461.2171570462647
 30
0.0
 10
198.1689451050058
 20
-461.1977493409124
 30
0.0
 10
197.3765359860599
 20
-461.0997793502979
 30
0.0
 10
197.1137962280707
 20
-461.0552041571171
 30
0.0
 10
196.5940425517078
 20
-460.9171902045257
 30
0.0
 10
196.3343407436093
 20
-460.8241408329559
 30
0.0
 10
196.1041741431042
 20
-460.6810010634838
 30
0.0
  0
ARC
  5
609
330
1F
100
AcDbEntity
  8
0
100
AcDbCircle
 10
192.0630453676863
 20
-459.9486828169198
 30
0.0
 40
1.134394005490928
100
AcDbArc
 50
180.746573756723
 51
220.207599441497
  0
ARC
  5
60A
330
1F
100
AcDbEntity
  8
0
100
AcDbCircle
 10
198.490997291515
 20
-464.1509891043186
 30
0.0
 40
5.38571626329581
100
AcDbArc
 50
128.9655402460487
 51
139.8871905343212
  0
ARC
  5
60B
330
1F
100
AcDbEntity
  8
0
100
AcDbCircle
 10
200.9965702771174
 20
-452.8070885933612
 30
0.0
 40
9.270061354665271
100
AcDbArc
 50
230.5327372362105
 51
238.1455606088033
  0
ARC
  5
60C
330
1F
100
AcDbEntity
  8
0
100
AcDbCircle
 10
206.4959286539151
 20
-459.9485979642694
 30
0.0
 40
1.13462232047089
100
AcDbArc
 50
319.796535546848
 51
359.2492912549133
  0
LINE
  5
60D
330
1F
100
AcDbEntity
  8
0
100
AcDbLine
 10
203.2796006236515
 20
-465.3143167066576
 30
0.0
 11
195.2796006236516
 21
-465.3143167066576
 31
0.0
  0
ARC
  5
60E
330
1F
100
AcDbEntity
  8
0
100
AcDbCircle
 10
195.2796006236516
 20
-462.3143167066575
 30
0.0
 40
3.000000000000003
100
AcDbArc
 50
180.0
 51
270.0
  0
ARC
  5
60F
330
1F
100
AcDbEntity
  8
0
100
AcDbCircle
 10
203.2796006236515
 20
-462.3143167066575
 30
0.0
 40
2.999999999999996
100
AcDbArc
 50
270.0
 51
0.0
  0
LINE
  5
610
330
1F
100
AcDbEntity
  8
0
100
AcDbLine
 10
192.2796006236515
 20
-461.3143167066576
 30
0.0
 11
192.2796006236515
 21
-462.3143167066576
 31
0.0
  0
LINE
  5
611
330
1F
100
AcDbEntity
  8
0
100
AcDbLine
 10
206.2796006236515
 20
-462.3143167066575
 30
0.0
 11
206.2796006236515
 21
-461.3143167066575
 31
0.0
  0
LINE
  5
612
330
1F
100
AcDbEntity
  8
0
100
AcDbLine
 10
190.9287476625657
 20
-456.7143167066576
 30
0.0
 11
190.9287476625657
 21
-459.9634637455716
 31
0.0
  0
LINE
  5
613
330
1F
100
AcDbEntity
  8
0
100
AcDbLine
 10
207.6304535847373
 20
-459.9634637455717
 30
0.0
 11
207.6304535847373
 21
-456.7143167066578
 31
0.0
  0
ARC
  5
614
330
1F
100
AcDbEntity
  8
0
100
AcDbCircle
 10
192.2796006236515
 20
-459.9634637455717
 30
0.0
 40
1.350852961085867
100
AcDbArc
 50
180.0476481277986
 51
270.0
  0
ARC
  5
615
330
1F
100
AcDbEntity
  8
0
100
AcDbCircle
 10
206.2796006236515
 20
-459.9634637455717
 30
0.0
 40
1.350852961085884
100
AcDbArc
 50
270.0
 51
0.0260569119591061
  0
LINE
  5
616
330
1F
100
AcDbEntity
  8
0
100
AcDbLine
 10
109.7796006236517
 20
-46.21448328328904
 30
0.0
 11
99.27960062365151
 21
-46.21448328328892
 31
0.0
  0
LINE
  5
617
330
1F
100
AcDbEntity
  8
0
100
AcDbLine
 10
99.27960062365162
 20
-26.21448328328904
 30
0.0
 11
109.7796006236516
 21
-26.21448328328904
 31
0.0
  0
ARC
  5
618
330
1F
100
AcDbEntity
  8
0
100
AcDbCircle
 10
99.27960062365162
 20
-36.21448328328904
 30
0.0
 40
10.0
100
AcDbArc
 50
90.0
 51
269.9999999999994
  0
CIRCLE
  5
619
330
1F
100
AcDbEntity
  8
0
100
AcDbCircle
 10
99.27960062365151
 20
-36.21448328328904
 30
0.0
 40
8.5
  0
CIRCLE
  5
61A
330
1F
100
AcDbEntity
  8
0
100
AcDbCircle
 10
99.27960062365151
 20
-36.21448328328904
 30
0.0
 40
8.0
  0
CIRCLE
  5
61B
330
1F
100
AcDbEntity
  8
0
100
AcDbCircle
 10
99.27960062365151
 20
-36.21448328328904
 30
0.0
 40
3.5
  0
LINE
  5
61C
330
1F
100
AcDbEntity
  8
0
100
AcDbLine
 10
639.7796006236517
 20
-179.7219274979704
 30
0.0
 11
639.7796006236517
 21
207.2929609313921
 31
0.0
  0
LINE
  5
61D
330
1F
100
AcDbEntity
  8
0
100
AcDbLine
 10
634.9146750658356
 20
202.4280353735457
 30
0.0
 11
634.9146750658357
 21
-174.8570019401245
 31
0.0
  0
LINE
  5
61E
330
1F
100
AcDbEntity
  8
0
100
AcDbLine
 10
634.9146750658357
 20
-174.8570019401245
 30
0.0
 11
639.7796006236517
 21
-179.7219274979707
 31
0.0
  0
LINE
  5
61F
330
1F
100
AcDbEntity
  8
0
100
AcDbLine
 10
639.7796006236517
 20
207.2929609313921
 30
0.0
 11
634.9146750658356
 21
202.4280353735457
 31
0.0
  0
LINE
  5
620
330
1F
100
AcDbEntity
  8
0
100
AcDbLine
 10
638.287044838345
 20
208.7855167167108
 30
0.0
 11
111.272156408958
 21
208.7855167167108
 31
0.0
  0
LINE
  5
621
330
1F
100
AcDbEntity
  8
0
100
AcDbLine
 10
116.1370819667779
 20
203.9205911588608
 30
0.0
 11
633.4221192805248
 21
203.9205911588608
 31
0.0
  0
LINE
  5
622
330
1F
100
AcDbEntity
  8
0
100
AcDbLine
 10
111.2721564089579
 20
208.7855167167106
 30
0.0
 11
116.1370819667779
 21
203.9205911588606
 31
0.0
  0
LINE
  5
623
330
1F
100
AcDbEntity
  8
0
100
AcDbLine
 10
633.4221192805245
 20
203.9205911588608
 30
0.0
 11
638.287044838345
 21
208.7855167167108
 31
0.0
  0
LINE
  5
624
330
1F
100
AcDbEntity
  8
0
100
AcDbLine
 10
111.2721564089579
 20
-181.2144832832891
 30
0.0
 11
638.2870448383453
 21
-181.2144832832891
 31
0.0
  0
LINE
  5
625
330
1F
100
AcDbEntity
  8
0
100
AcDbLine
 10
109.7796006236516
 20
207.2929609313921
 30
0.0
 11
109.7796006236516
 21
-179.7219274979704
 31
0.0
  0
SPLINE
  5
626
330
1F
100
AcDbEntity
  8
0
100
AcDbSpline
210
0.0
220
0.0
230
1.0
 70
     8
 71
     3
 72
    18
 73
    14
 74
     0
 42
0.0000000001
 43
0.0000000001
 40
0.0
 40
0.0
 40
0.0
 40
0.0
 40
0.1250000000000063
 40
0.1250000000000063
 40
0.2500000000000126
 40
0.2500000000000126
 40
0.3750000000000189
 40
0.3750000000000189
 40
0.5000000000000253
 40
0.5000000000000253
 40
0.7500000000000126
 40
0.7500000000000126
 40
1.0
 40
1.0
 40
1.0
 40
1.0
 10
111.2721564089579
 20
-181.2144832832891
 30
0.0
 10
111.173572403037
 20
-181.2144832832882
 30
0.0
 10
111.0766133610877
 20
-181.2049045547044
 30
0.0
 10
110.8858307318851
 20
-181.1672644295863
 30
0.0
 10
110.7910213269879
 20
-181.1387497317557
 30
0.0
 10
110.6101481217765
 20
-181.0641557923263
 30
0.0
 10
110.5243630919505
 20
-181.0184660114076
 30
0.0
 10
110.3620335981249
 20
-180.9104137394828
 30
0.0
 10
110.2851457951971
 20
-180.8474412872897
 30
0.0
 10
110.0785211202076
 20
-180.640975177403
 30
0.0
 10
109.9674349772488
 20
-180.4744155349782
 30
0.0
 10
109.8188638392946
 20
-180.115092927965
 30
0.0
 10
109.7796006236509
 20
-179.9191026051621
 30
0.0
 10
109.7796006236516
 20
-179.7219274979704
 30
0.0
  0
SPLINE
  5
627
330
1F
100
AcDbEntity
  8
0
100
AcDbSpline
210
0.0
220
0.0
230
1.0
 70
     8
 71
     3
 72
    18
 73
    14
 74
     0
 42
0.0000000001
 43
0.0000000001
 40
0.0
 40
0.0
 40
0.0
 40
0.0
 40
0.1249999999999811
 40
0.1249999999999811
 40
0.2499999999999622
 40
0.2499999999999622
 40
0.3749999999999432
 40
0.3749999999999432
 40
0.4999999999999245
 40
0.4999999999999245
 40
0.7499999999999622
 40
0.7499999999999622
 40
1.0
 40
1.0
 40
1.0
 40
1.0
 10
639.7796006236517
 20
-179.7219274979704
 30
0.0
 10
639.7796006236526
 20
-179.8205115038918
 30
0.0
 10
639.7700218950669
 20
-179.9174705458408
 30
0.0
 10
639.7323817699498
 20
-180.1082531750439
 30
0.0
 10
639.7038670721197
 20
-180.2030625799412
 30
0.0
 10
639.6292731326918
 20
-180.3839357851532
 30
0.0
 10
639.5835833517742
 20
-180.4697208149798
 30
0.0
 10
639.4755310798509
 20
-180.6320503088064
 30
0.0
 10
639.4125586276591
 20
-180.7089381117354
 30
0.0
 10
639.2060925177747
 20
-180.9155627867274
 30
0.0
 10
639.0395328753514
 20
-181.026648929688
 30
0.0
 10
638.6802102683396
 20
-181.1752200676451
 30
0.0
 10
638.4842199455367
 20
-181.2144832832882
 30
0.0
 10
638.2870448383455
 20
-181.2144832832891
 30
0.0
  0
SPLINE
  5
628
330
1F
100
AcDbEntity
  8
0
100
AcDbSpline
210
0.0
220
0.0
230
1.0
 70
     8
 71
     3
 72
    18
 73
    14
 74
     0
 42
0.0000000001
 43
0.0000000001
 40
0.0
 40
0.0
 40
0.0
 40
0.0
 40
0.1250000000000189
 40
0.1250000000000189
 40
0.2500000000000378
 40
0.2500000000000378
 40
0.3750000000000567
 40
0.3750000000000567
 40
0.5000000000000756
 40
0.5000000000000756
 40
0.7500000000000378
 40
0.7500000000000378
 40
1.0
 40
1.0
 40
1.0
 40
1.0
 10
109.7796006236516
 20
207.2929609313921
 30
0.0
 10
109.7796006236508
 20
207.3915449373132
 30
0.0
 10
109.7891793522361
 20
207.4885039792625
 30
0.0
 10
109.8268194773535
 20
207.6792866084654
 30
0.0
 10
109.8553341751835
 20
207.7740960133628
 30
0.0
 10
109.9299281146113
 20
207.9549692185747
 30
0.0
 10
109.975617895529
 20
208.0407542484015
 30
0.0
 10
110.0836701674525
 20
208.203083742228
 30
0.0
 10
110.1466426196441
 20
208.279971545157
 30
0.0
 10
110.3531087295284
 20
208.4865962201488
 30
0.0
 10
110.5196683719521
 20
208.5976823631097
 30
0.0
 10
110.8789909789637
 20
208.7462535010666
 30
0.0
 10
111.0749813017668
 20
208.7855167167099
 30
0.0
 10
111.2721564089579
 20
208.7855167167106
 30
0.0
  0
SPLINE
  5
629
330
1F
100
AcDbEntity
  8
0
100
AcDbSpline
210
0.0
220
0.0
230
1.0
 70
     8
 71
     3
 72
    18
 73
    14
 74
     0
 42
0.0000000001
 43
0.0000000001
 40
0.0
 40
0.0
 40
0.0
 40
0.0
 40
0.125
 40
0.125
 40
0.25
 40
0.25
 40
0.375
 40
0.375
 40
0.5
 40
0.5
 40
0.75
 40
0.75
 40
1.0
 40
1.0
 40
1.0
 40
1.0
 10
638.287044838345
 20
208.7855167167108
 30
0.0
 10
638.3856288442662
 20
208.7855167167099
 30
0.0
 10
638.4825878862154
 20
208.7759379881263
 30
0.0
 10
638.6733705154181
 20
208.7382978630076
 30
0.0
 10
638.7681799203155
 20
208.7097831651772
 30
0.0
 10
638.9490531255265
 20
208.635189225748
 30
0.0
 10
639.0348381553526
 20
208.5894994448295
 30
0.0
 10
639.197167649178
 20
208.4814471729044
 30
0.0
 10
639.2740554521062
 20
208.4184747207114
 30
0.0
 10
639.4806801270956
 20
208.2120086108248
 30
0.0
 10
639.5917662700544
 20
208.0454489683998
 30
0.0
 10
639.7403374080083
 20
207.6861263613864
 30
0.0
 10
639.7796006236524
 20
207.4901360385839
 30
0.0
 10
639.7796006236517
 20
207.2929609313921
 30
0.0
  0
LINE
  5
62A
330
1F
100
AcDbEntity
  8
0
100
AcDbLine
 10
114.6445261814675
 20
-174.8570019401245
 30
0.0
 11
114.6445261814673
 21
202.4280353735457
 31
0.0
  0
LINE
  5
62B
330
1F
100
AcDbEntity
  8
0
100
AcDbLine
 10
109.7796006236516
 20
-179.7219274979704
 30
0.0
 11
114.6445261814675
 21
-174.8570019401244
 31
0.0
  0
LINE
  5
62C
330
1F
100
AcDbEntity
  8
0
100
AcDbLine
 10
114.6445261814673
 20
202.428035373546
 30
0.0
 11
109.7796006236516
 21
207.2929609313921
 31
0.0
  0
LINE
  5
62D
330
1F
100
AcDbEntity
  8
0
100
AcDbLine
 10
116.137081966778
 20
-174.8570019401244
 30
0.0
 11
633.4221192805252
 21
-174.8570019401243
 31
0.0
  0
LINE
  5
62E
330
1F
100
AcDbEntity
  8
0
100
AcDbLine
 10
116.137081966778
 20
202.428035373546
 30
0.0
 11
116.1370819667781
 21
-174.8570019401243
 31
0.0
  0
LINE
  5
62F
330
1F
100
AcDbEntity
  8
0
100
AcDbLine
 10
633.4221192805252
 20
-174.8570019401243
 30
0.0
 11
633.4221192805251
 21
202.428035373546
 31
0.0
  0
LINE
  5
630
330
1F
100
AcDbEntity
  8
0
100
AcDbLine
 10
633.4221192805251
 20
202.428035373546
 30
0.0
 11
116.1370819667781
 21
202.428035373546
 31
0.0
  0
LINE
  5
631
330
1F
100
AcDbEntity
  8
0
100
AcDbLine
 10
633.4221192805252
 20
-176.3495577254391
 30
0.0
 11
116.137081966778
 21
-176.3495577254392
 31
0.0
  0
LINE
  5
632
330
1F
100
AcDbEntity
  8
0
100
AcDbLine
 10
116.137081966778
 20
-176.3495577254393
 30
0.0
 11
111.272156408958
 21
-181.2144832832892
 31
0.0
  0
LINE
  5
633
330
1F
100
AcDbEntity
  8
0
100
AcDbLine
 10
638.2870448383455
 20
-181.2144832832891
 30
0.0
 11
633.4221192805252
 21
-176.3495577254391
 31
0.0
  0
ELLIPSE
  5
634
330
1F
100
AcDbEntity
  8
0
100
AcDbEllipse
 10
116.137081966778
 20
-174.8570019401244
 30
0.0
 11
-1.060660171623428
 21
1.060660171936261
 31
0.0
210
0.0
220
0.0
230
1.0
 40
0.9901475429737505
 41
0.7903487394821144
 42
2.351243914402684
  0
LINE
  5
635
330
1F
100
AcDbEntity
  8
0
100
AcDbLine
 10
116.137081966778
 20
-174.8570019401244
 30
0.0
 11
116.1370819667779
 21
-176.3495577254393
 31
0.0
  0
LINE
  5
636
330
1F
100
AcDbEntity
  8
0
100
AcDbLine
 10
114.6445261814673
 20
-174.8570019401245
 30
0.0
 11
116.1370819667779
 21
-174.8570019401245
 31
0.0
  0
ELLIPSE
  5
637
330
1F
100
AcDbEntity
  8
0
100
AcDbEllipse
 10
633.4221192805252
 20
-174.8570019401243
 30
0.0
 11
-1.060660171623539
 21
-1.060660171936095
 31
0.0
210
0.0
220
0.0
230
1.0
 40
0.9901475429737306
 41
0.7903487391871652
 42
2.35124391410774
  0
LINE
  5
638
330
1F
100
AcDbEntity
  8
0
100
AcDbLine
 10
633.4221192805252
 20
-174.8570019401243
 30
0.0
 11
633.4221192805252
 21
-176.3495577254391
 31
0.0
  0
LINE
  5
639
330
1F
100
AcDbEntity
  8
0
100
AcDbLine
 10
114.6445261814673
 20
202.428035373546
 30
0.0
 11
116.137081966778
 21
202.428035373546
 31
0.0
  0
ELLIPSE
  5
63A
330
1F
100
AcDbEntity
  8
0
100
AcDbEllipse
 10
116.137081966778
 20
202.428035373546
 30
0.0
 11
1.060660171625593
 21
1.060660171934041
 31
0.0
210
0.0
220
0.0
230
1.0
 40
0.990147542973716
 41
0.7903487391891768
 42
2.351243914109846
  0
LINE
  5
63B
330
1F
100
AcDbEntity
  8
0
100
AcDbLine
 10
633.4221192805252
 20
-174.8570019401243
 30
0.0
 11
634.9146750658357
 21
-174.8570019401245
 31
0.0
  0
LINE
  5
63C
330
1F
100
AcDbEntity
  8
0
100
AcDbLine
 10
116.1370819667779
 20
203.9205911588608
 30
0.0
 11
116.1370819667777
 21
202.428035373546
 31
0.0
  0
LINE
  5
63D
330
1F
100
AcDbEntity
  8
0
100
AcDbLine
 10
633.4221192805251
 20
202.428035373546
 30
0.0
 11
634.9146750658356
 21
202.4280353735457
 31
0.0
  0
LINE
  5
63E
330
1F
100
AcDbEntity
  8
0
100
AcDbLine
 10
633.4221192805245
 20
203.9205911588608
 30
0.0
 11
633.4221192805251
 21
202.428035373546
 31
0.0
  0
ELLIPSE
  5
63F
330
1F
100
AcDbEntity
  8
0
100
AcDbEllipse
 10
633.4221192805251
 20
202.428035373546
 30
0.0
 11
-1.060660171624594
 21
1.060660171935068
 31
0.0
210
0.0
220
0.0
230
1.0
 40
0.9901475429737065
 41
3.931941393070698
 42
5.492836567991624
  0
HATCH
  5
659
330
1F
100
AcDbEntity
  8
0
 62
     9
100
AcDbHatch
 10
0.0
 20
0.0
 30
0.0
210
0.0
220
0.0
230
1.0
  2
ANSI31
 70
     0
 71
     0
 91
        1
 92
        5
 93
        4
 72
     4
 94
        3
 73
     0
 74
     0
 95
       10
 96
        6
 40
0.0
 40
0.0
 40
0.0
 40
0.0
 40
0.1736813798367858
 40
0.5385865053348369
 40
1.0
 40
1.0
 40
1.0
 40
1.0
 10
109.7796006236516
 20
19.7855167167107
 10
101.534341512738
 20
23.17325238860732
 10
78.36557799390044
 20
33.43786650971547
 10
33.714424358668
 20
-1.084505576594466
 10
-3.080200979224059
 20
13.4273600670584
 10
-25.89248137310472
 20
19.7855167167107
 72
     1
 10
-25.89248137310477
 20
19.78551671671076
 11
-25.89248137310477
 21
13.78551671671076
 72
     4
 94
        3
 73
     0
 74
     0
 95
       10
 96
        6
 40
0.0
 40
0.0
 40
0.0
 40
0.0
 40
0.4614134946651632
 40
0.8263186201632141
 40
1.0
 40
1.0
 40
1.0
 40
1.0
 10
-25.89248137310472
 20
13.7855167167107
 10
-3.080200979224059
 20
7.427360067058401
 10
33.714424358668
 20
-7.084505576594466
 10
78.36557799390044
 20
27.43786650971546
 10
101.534341512738
 20
17.17325238860732
 10
109.7796006236516
 20
13.7855167167107
 72
     1
 10
109.7796006236516
 20
13.78551671671076
 11
109.7796006236516
 21
19.7855167167107
 97
        0
 75
     0
 76
     1
 52
0.0
 41
0.5
 77
     0
 78
     1
 53
45.0
 43
372.6631420712956
 44
-311.4383433606831
 45
-1.122532015133643
 46
1.122532015133644
 79
     0
 47
0.235627126008759
 98
        1
 10
91.90755015400283
 20
22.71600154866476
1001
ACAD
1010
0.0
1020
0.0
1030
0.0
  0
SPLINE
  5
65A
330
1F
100
AcDbEntity
  8
0
100
AcDbSpline
210
0.0
220
0.0
230
1.0
 70
     8
 71
     3
 72
    10
 73
     6
 74
     0
 42
0.0000000001
 43
0.0000000001
 40
0.0
 40
0.0
 40
0.0
 40
0.0
 40
0.1736813798367858
 40
0.5385865053348369
 40
1.0
 40
1.0
 40
1.0
 40
1.0
 10
109.7796006236516
 20
13.7855167167107
 30
0.0
 10
101.534341512738
 20
17.17325238860732
 30
0.0
 10
78.36557799390044
 20
27.43786650971546
 30
0.0
 10
33.714424358668
 20
-7.084505576594466
 30
0.0
 10
-3.080200979224059
 20
7.427360067058401
 30
0.0
 10
-25.89248137310472
 20
13.7855167167107
 30
0.0
  0
SPLINE
  5
65B
330
1F
100
AcDbEntity
  8
0
100
AcDbSpline
210
0.0
220
0.0
230
1.0
 70
     8
 71
     3
 72
    10
 73
     6
 74
     0
 42
0.0000000001
 43
0.0000000001
 40
0.0
 40
0.0
 40
0.0
 40
0.0
 40
0.1736813798367858
 40
0.5385865053348369
 40
1.0
 40
1.0
 40
1.0
 40
1.0
 10
109.7796006236516
 20
19.7855167167107
 30
0.0
 10
101.534341512738
 20
23.17325238860732
 30
0.0
 10
78.36557799390044
 20
33.43786650971547
 30
0.0
 10
33.714424358668
 20
-1.084505576594466
 30
0.0
 10
-3.080200979224059
 20
13.4273600670584
 30
0.0
 10
-25.89248137310472
 20
19.7855167167107
 30
0.0
  0
LINE
  5
65C
330
1F
100
AcDbEntity
  8
0
100
AcDbLine
 10
-25.89248137310472
 20
19.7855167167107
 30
0.0
 11
-25.89248137310472
 21
13.7855167167107
 31
0.0
  0
DIMENSION
  5
65D
330
1F
100
AcDbEntity
  8
0
100
AcDbDimension
  2
*D22
 10
109.7796006236516
 20
68.88436223074904
 30
0.0
 11
41.94355962527345
 21
68.88436223074904
 31
0.0
 70
   160
  1
Max. 1.5m
 71
     5
 42
135.6720819967563
  3
s＝1／6
100
AcDbAlignedDimension
 13
-25.89248137310472
 23
19.7855167167107
 33
0.0
 14
109.7796006236516
 24
19.7855167167107
 34
0.0
100
AcDbRotatedDimension
  0
DIMENSION
  5
72A
330
1F
100
AcDbEntity
  8
0
100
AcDbDimension
  2
*D27
 10
61.89932455769122
 20
-46.21448328328892
 30
0.0
 11
49.89932455769122
 21
-90.87162614043178
 31
0.0
 70
    32
 71
     5
 42
19.99999999999988
  3
s＝1／6
100
AcDbAlignedDimension
 13
99.27960062365162
 23
-26.21448328328904
 33
0.0
 14
99.27960062365151
 24
-46.21448328328892
 34
0.0
 50
90.0
100
AcDbRotatedDimension
  0
DIMENSION
  5
739
330
1F
100
AcDbEntity
  8
0
100
AcDbDimension
  2
*D28
 10
29.30372395719177
 20
-181.2144832832891
 30
0.0
 11
17.30372395719179
 21
-108.714483283289
 31
0.0
 70
    32
 71
     5
 42
145.0000000000001
  3
s＝1／6
100
AcDbAlignedDimension
 13
107.7796006236515
 23
-36.21448328328904
 33
0.0
 14
111.2721564089579
 24
-181.2144832832891
 34
0.0
 50
90.0
100
AcDbRotatedDimension
  0
DIMENSION
  5
761
330
1F
100
AcDbEntity
  8
0
100
AcDbDimension
  2
*D29
 10
109.7796006236516
 20
-235.7517584920715
 30
0.0
 11
34.33674348079447
 21
-235.7517584920715
 31
0.0
 70
   160
 71
     5
 42
20.5
  3
s＝1／6
100
AcDbAlignedDimension
 13
89.27960062365162
 23
-36.21448328328904
 33
0.0
 14
109.7796006236516
 24
-179.7219274979704
 34
0.0
100
AcDbRotatedDimension
  0
DIMENSION
  5
786
330
1F
100
AcDbEntity
  8
0
100
AcDbDimension
  2
*D30
 10
639.7796006236517
 20
-235.7517584920715
 30
0.0
 11
374.7796006236517
 21
-223.7517584920715
 31
0.0
 70
    32
 71
     5
 42
530.0000000000001
  3
s＝1／6
100
AcDbAlignedDimension
 13
109.7796006236516
 23
-179.7219274979704
 33
0.0
 14
639.7796006236517
 24
-179.7219274979704
 34
0.0
100
AcDbRotatedDimension
  0
DIMENSION
  5
793
330
1F
100
AcDbEntity
  8
0
100
AcDbDimension
  2
*D31
 10
702.2220408430684
 20
208.7855167167108
 30
0.0
 11
702.2220408430684
 21
13.78551671671094
 31
0.0
 70
   160
 71
     5
 42
390.0
  3
s＝1／6
100
AcDbAlignedDimension
 13
638.2870448383453
 23
-181.2144832832891
 33
0.0
 14
638.287044838345
 24
208.7855167167108
 34
0.0
 50
90.0
100
AcDbRotatedDimension
  0
DIMENSION
  5
7A0
330
1F
100
AcDbEntity
  8
0
100
AcDbDimension
  2
*D32
 10
615.2796006236513
 20
-534.9354212725564
 30
0.0
 11
374.7796006236514
 21
-522.9354212725564
 31
0.0
 70
    32
 71
     5
 42
480.9999999999998
  3
s＝1／6
100
AcDbAlignedDimension
 13
134.2796006236515
 23
-487.3143167066577
 33
0.0
 14
615.2796006236513
 24
-487.3143167066577
 34
0.0
100
AcDbRotatedDimension
  0
DIMENSION
  5
7B6
330
1F
100
AcDbEntity
  8
0
100
AcDbDimension
  2
*D33
 10
1175.068330203623
 20
-534.9354212725564
 30
0.0
 11
1016.068330203623
 21
-522.9354212725564
 31
0.0
 70
    32
 71
     5
 42
318.0
  3
s＝1／6
100
AcDbAlignedDimension
 13
857.0683302036231
 23
-487.3143167066578
 33
0.0
 14
1175.068330203623
 24
-487.3143167066578
 34
0.0
100
AcDbRotatedDimension
  0
DIMENSION
  5
7C3
330
1F
100
AcDbEntity
  8
0
100
AcDbDimension
  2
*D34
 10
702.2220408430683
 20
-410.8143167066577
 30
0.0
 11
690.2220408430685
 21
-385.8143167066576
 31
0.0
 70
    32
 71
     5
 42
50.0
  3
s＝1／6
100
AcDbAlignedDimension
 13
633.4221192805252
 23
-360.8143167066577
 33
0.0
 14
639.7796006236517
 24
-410.8143167066576
 34
0.0
 50
90.0
100
AcDbRotatedDimension
  0
DIMENSION
  5
7D0
330
1F
100
AcDbEntity
  8
0
100
AcDbDimension
  2
*D35
 10
749.1533583780793
 20
-487.3143167066577
 30
0.0
 11
737.1533583780793
 21
-424.0643167066576
 31
0.0
 70
    32
 71
     5
 42
126.5
  3
s＝1／6
100
AcDbAlignedDimension
 13
633.4221192805251
 23
-360.8143167066577
 33
0.0
 14
626.7796006236513
 24
-487.3143167066577
 34
0.0
 50
90.0
100
AcDbRotatedDimension
  0
VIEWPORT
  5
694
102
{ACAD_XDICTIONARY
360
695
102
}
330
1B
100
AcDbEntity
 67
     1
  8
0
100
AcDbViewport
 10
144.8423697510327
 20
101.3154878070988
 30
0.0
 40
450.6365070746116
 41
198.2418937951308
 68
     1
 69
     1
 12
144.8423697510327
 22
101.3154878070988
 13
0.0
 23
0.0
 14
10.0
 24
10.0
 15
10.0
 25
10.0
 16
0.0
 26
0.0
 36
1.0
 17
0.0
 27
0.0
 37
0.0
 42
50.0
 43
0.0
 44
0.0
 45
198.2418937951308
 50
0.0
 51
0.0
 72
   100
 90
   557088
  1

281
     0
 71
     1
 74
     0
110
0.0
120
0.0
130
0.0
111
1.0
121
0.0
131
0.0
112
0.0
122
1.0
132
0.0
 79
     0
146
0.0
  0
VIEWPORT
  5
698
102
{ACAD_XDICTIONARY
360
699
102
}
330
1B
100
AcDbEntity
 67
     1
  8
0
100
AcDbViewport
 10
144.8400588857378
 20
101.31739641709
 30
0.0
 40
282.9489182831371
 41
196.8064133956161
 68
     2
 69
     2
 12
608.4673938809446
 22
-180.4275051348963
 13
0.0
 23
0.0
 14
10.0
 24
10.0
 15
10.0
 25
10.0
 16
0.0
 26
0.0
 36
1.0
 17
0.0
 27
0.0
 37
0.0
 42
50.0
 43
0.0
 44
0.0
 45
984.0320673933929
 50
0.0
 51
0.0
 72
   100
 90
   819296
  1

281
     0
 71
     1
 74
     0
110
0.0
120
0.0
130
0.0
111
1.0
121
0.0
131
0.0
112
0.0
122
1.0
132
0.0
 79
     0
146
0.0
  0
MTEXT
  5
6B4
330
1B
100
AcDbEntity
 67
     1
  8
0
100
AcDbMText
 10
256.206327611079
 20
15.68577911243926
 30
0.0
 40
4.0
 41
27.49667609257949
 71
     1
 72
     5
  1
単位：mm
  7
AD-STANDARD
 73
     1
 44
1.0
1001
ACAD
1000
MTEXTBEGIN
1070
    73
1070
     1
1070
    44
1040
1.0
1070
    74
1070
     0
1000
MTEXTEND
  0
MTEXT
  5
6B5
330
1B
100
AcDbEntity
 67
     1
  8
0
100
AcDbMText
 10
240.718110326622
 20
189.5160109986239
 30
0.0
 40
4.0
 41
27.49667609257949
 71
     4
 72
     5
  1
SB-60K15SW
  7
AD-STANDARD
 73
     1
 44
1.0
1001
ACAD
1000
MTEXTBEGIN
1070
    73
1070
     1
1070
    44
1040
1.0
1070
    74
1070
     0
1000
MTEXTEND
  0
LINE
  5
6B6
330
1B
100
AcDbEntity
 67
     1
  8
NOTE
 62
     9
100
AcDbLine
 10
237.8147864192016
 20
186.565355406442
 30
0.0
 11
279.1022257371789
 21
186.565355406442
 31
0.0
  0
MTEXT
  5
6B7
330
1B
100
AcDbEntity
 67
     1
  8
0
100
AcDbMText
 10
240.718110326622
 20
182.5160109986239
 30
0.0
 40
4.0
 41
27.49667609257949
 71
     4
 72
     5
  1
SB-150K15SW
  7
AD-STANDARD
 73
     1
 44
1.0
1001
ACAD
1000
MTEXTBEGIN
1070
    73
1070
     1
1070
    44
1040
1.0
1070
    74
1070
     0
1000
MTEXTEND
  0
LINE
  5
6B8
330
1B
100
AcDbEntity
 67
     1
  8
NOTE
 62
     9
100
AcDbLine
 10
237.8147864192016
 20
179.565355406442
 30
0.0
 11
279.1022257371789
 21
179.565355406442
 31
0.0
  0
ENDSEC
  0
SECTION
  2
OBJECTS
  0
DICTIONARY
  5
C
330
0
100
AcDbDictionary
281
     1
  3
ACAD_COLOR
350
391
  3
ACAD_GROUP
350
D
  3
ACAD_LAYOUT
350
1A
  3
ACAD_MATERIAL
350
390
  3
ACAD_MLEADERSTYLE
350
38C
  3
ACAD_MLINESTYLE
350
17
  3
ACAD_PLOTSETTINGS
350
19
  3
ACAD_PLOTSTYLENAME
350
E
  3
ACAD_SCALELIST
350
3B
  3
ACAD_TABLESTYLE
350
38B
  3
ACAD_VISUALSTYLE
350
2A
  3
ACDB_RECOMPOSE_DATA
350
876
  3
AcDbVariableDictionary
350
389
  3
DWGPROPS
350
877
  0
DICTIONARY
  5
3AC
330
2
100
AcDbDictionary
280
     1
281
     1
  3
ACAD_LAYERSTATES
360
3AD
  0
DICTIONARY
  5
6BD
330
10
100
AcDbDictionary
280
     1
281
     1
  3
ADSK_XREC_LAYER_RECONCILED
360
6BE
  0
DICTIONARY
  5
6A4
330
6A3
100
AcDbDictionary
280
     1
281
     1
  3
ADSK_XREC_LAYER_RECONCILED
360
6DF
  0
DICTIONARY
  5
514
330
1F
100
AcDbDictionary
280
     1
281
     1
  3
ACAD_SORTENTS
360
515
  0
DICTIONARY
  5
695
330
694
100
AcDbDictionary
280
     1
281
     1
  3
ACAD_XREC_ROUNDTRIP
360
87F
  3
ASDK_XREC_ANNOTATION_SCALE_INFO
360
696
  0
DICTIONARY
  5
699
330
698
100
AcDbDictionary
280
     1
281
     1
  3
ACAD_XREC_ROUNDTRIP
360
880
  3
ASDK_XREC_ANNOTATION_SCALE_INFO
360
69A
  0
DICTIONARY
  5
391
102
{ACAD_REACTORS
330
C
102
}
330
C
100
AcDbDictionary
281
     1
  0
DICTIONARY
  5
D
102
{ACAD_REACTORS
330
C
102
}
330
C
100
AcDbDictionary
281
     1
  3
*A1
350
688
  0
DICTIONARY
  5
1A
102
{ACAD_REACTORS
330
C
102
}
330
C
100
AcDbDictionary
281
     1
  3
Layout1
350
1E
  3
Model
350
22
  0
DICTIONARY
  5
390
102
{ACAD_REACTORS
330
C
102
}
330
C
100
AcDbDictionary
281
     1
  3
ByBlock
350
416
  3
ByLayer
350
40E
  3
Global
350
41E
  0
DICTIONARY
  5
38C
102
{ACAD_REACTORS
330
C
102
}
330
C
100
AcDbDictionary
281
     1
  3
Standard
350
426
  0
DICTIONARY
  5
17
102
{ACAD_REACTORS
330
C
102
}
330
C
100
AcDbDictionary
281
     1
  3
Standard
350
18
  0
DICTIONARY
  5
19
102
{ACAD_REACTORS
330
C
102
}
330
C
100
AcDbDictionary
281
     1
  0
ACDBDICTIONARYWDFLT
  5
E
102
{ACAD_REACTORS
330
C
102
}
330
C
100
AcDbDictionary
281
     1
  3
Normal
350
F
100
AcDbDictionaryWithDefault
340
F
  0
DICTIONARY
  5
3B
102
{ACAD_REACTORS
330
C
102
}
330
C
100
AcDbDictionary
281
     1
  3
A0
350
3C
  3
A1
350
3D
  3
A2
350
3E
  3
A3
350
3F
  3
A4
350
40
  3
A5
350
41
  3
A6
350
42
  3
A7
350
43
  3
A8
350
44
  3
A9
350
45
  3
B0
350
46
  3
B1
350
47
  3
B2
350
48
  3
B3
350
49
  3
B4
350
4A
  3
B5
350
4B
  3
B6
350
4C
  3
B7
350
4D
  3
B8
350
4E
  3
B9
350
4F
  3
C0
350
50
  3
C1
350
51
  3
C2
350
52
  3
C3
350
53
  3
C4
350
54
  3
C5
350
55
  3
C6
350
56
  3
C7
350
57
  3
C8
350
58
  3
C9
350
59
  3
D0
350
5A
  3
D1
350
5B
  3
D2
350
5C
  0
DICTIONARY
  5
38B
102
{ACAD_REACTORS
330
C
102
}
330
C
100
AcDbDictionary
281
     1
  3
Standard
350
392
  0
DICTIONARY
  5
2A
102
{ACAD_REACTORS
330
C
102
}
330
C
100
AcDbDictionary
281
     1
  3
2dWireframe
350
2F
  3
3D Hidden
350
31
  3
3dWireframe
350
30
  3
Basic
350
32
  3
Brighten
350
36
  3
ColorChange
350
3A
  3
Conceptual
350
34
  3
Dim
350
35
  3
Facepattern
350
39
  3
Flat
350
2B
  3
FlatWithEdges
350
2C
  3
Gouraud
350
2D
  3
GouraudWithEdges
350
2E
  3
Linepattern
350
38
  3
Realistic
350
33
  3
Thicken
350
37
  0
XRECORD
  5
876
102
{ACAD_REACTORS
330
C
102
}
330
C
100
AcDbXrecord
280
     1
 90
        1
330
392
  0
DICTIONARY
  5
389
102
{ACAD_REACTORS
330
C
102
}
330
C
100
AcDbDictionary
281
     1
  3
CANNOSCALE
350
38A
  3
CMLEADERSTYLE
350
86F
  3
CTABLESTYLE
350
40A
  3
DIMASSOC
350
40B
  3
INDEXCTL
350
871
  3
PROJECTNAME
350
40C
  3
PSOLHEIGHT
350
873
  3
PSOLWIDTH
350
872
  3
SORTENTS
350
870
  0
XRECORD
  5
877
102
{ACAD_REACTORS
330
C
102
}
330
C
100
AcDbXrecord
280
     1
  1
DWGPROPS COOKIE
  2

  3

  4

  6

  7

  8
HAMANO-1047
  9

300
=
301
=
302
=
303
=
304
=
305
=
306
=
307
=
308
=
309
=
 40
0.0191538425925926
 41
2455161.698396505
 42
2458306.638315718
  1

 90
        0
  0
DICTIONARY
  5
3AD
102
{ACAD_REACTORS
330
3AC
102
}
330
3AC
100
AcDbDictionary
281
     1
  0
XRECORD
  5
6BE
102
{ACAD_REACTORS
330
6BD
102
}
330
6BD
100
AcDbXrecord
280
     1
290
     1
  0
XRECORD
  5
6DF
102
{ACAD_REACTORS
330
6A4
102
}
330
6A4
100
AcDbXrecord
280
     1
290
     1
  0
SORTENTSTABLE
  5
515
102
{ACAD_REACTORS
330
514
102
}
330
514
100
AcDbSortentsTable
330
1F
331
458
  5
585
331
569
  5
4AB
331
47A
  5
5A7
331
49C
  5
5C9
331
444
  5
571
331
58B
  5
4CD
331
63A
  5
451
331
4BE
  5
5EB
331
5AD
  5
4EF
331
4D8
  5
605
331
4FA
  5
627
331
5E9
  5
52D
331
51C
  5
45E
331
469
  5
596
331
558
  5
49A
331
53E
  5
480
331
48B
  5
5B8
331
433
  5
560
331
57A
  5
4BC
331
62D
  5
444
331
60B
  5
54F
331
4AD
  5
5DA
331
455
  5
582
331
59C
  5
4DE
331
5C7
  5
509
331
4CF
  5
5FC
331
4E9
  5
616
331
5D8
  5
51C
331
50B
  5
638
331
5FA
  5
53E
331
52D
  5
46F
331
61C
  5
433
331
5BE
  5
500
331
478
  5
5A5
331
638
  5
44F
331
49A
  5
5C7
331
442
  5
56F
331
589
  5
4CB
331
4BC
  5
5E9
331
5AB
  5
4ED
331
4D6
  5
603
331
4F8
  5
625
331
5E7
  5
52B
331
51A
  5
45C
331
467
  5
594
331
556
  5
498
331
53C
  5
47E
331
489
  5
5B6
331
431
  5
55E
331
578
  5
4BA
331
62B
  5
442
331
609
  5
54D
331
4AB
  5
5D8
331
453
  5
580
331
59A
  5
4DC
331
5C5
  5
507
331
4CD
  5
5FA
331
4E7
  5
614
331
5D6
  5
51A
331
509
  5
636
331
5F8
  5
53C
331
567
  5
4A9
331
52B
  5
46D
331
61A
  5
431
331
5BC
  5
4FE
331
498
  5
5C5
331
440
  5
56D
331
4BA
  5
5E7
331
5A9
  5
4EB
331
4D4
  5
601
331
4F6
  5
623
331
5E5
  5
529
331
518
  5
45A
331
465
  5
592
331
554
  5
496
331
53A
  5
47C
331
487
  5
5B4
331
42F
  5
55C
331
576
  5
4B8
331
629
  5
440
331
607
  5
54B
331
5C3
  5
505
331
4A9
  5
5D6
331
451
  5
57E
331
598
  5
4DA
331
4CB
  5
5F8
331
4E5
  5
612
331
5D4
  5
518
331
507
  5
634
331
5F6
  5
53A
331
476
  5
5A3
331
565
  5
4A7
331
529
  5
46B
331
587
  5
4C9
331
618
  5
42F
331
5BA
  5
4FC
331
4B8
  5
5E5
331
4D2
  5
5FF
331
5C1
  5
503
331
4F4
  5
621
331
5E3
  5
527
331
516
  5
458
331
463
  5
590
331
552
  5
494
331
538
  5
47A
331
485
  5
5B2
331
42D
  5
55A
331
574
  5
4B6
331
627
  5
43E
331
605
  5
549
331
4A7
  5
5D4
331
44F
  5
57C
331
596
  5
4D8
331
4C9
  5
5F6
331
4E3
  5
610
331
5D2
  5
516
331
505
  5
632
331
5F4
  5
538
331
474
  5
5A1
331
563
  5
4A5
331
527
  5
469
331
496
  5
5C3
331
43E
  5
56B
331
585
  5
4C7
331
616
  5
42D
331
5A7
  5
4E9
331
5B8
  5
4FA
331
4D0
  5
5FD
331
4F2
  5
61F
331
5E1
  5
525
331
603
  5
547
331
461
  5
58E
331
550
  5
492
331
536
  5
478
331
483
  5
5B0
331
572
  5
4B4
331
625
  5
43C
331
4A5
  5
5D2
331
44D
  5
57A
331
4C7
  5
5F4
331
5B6
  5
4F8
331
594
  5
4D6
331
4E1
  5
60E
331
503
  5
630
331
5F2
  5
536
331
525
  5
467
331
472
  5
59F
331
561
  5
4A3
331
547
  5
489
331
494
  5
5C1
331
43C
  5
569
331
583
  5
4C5
331
636
  5
44D
331
614
  5
558
331
4B6
  5
5E3
331
5A5
  5
4E7
331
5D0
  5
512
331
4F0
  5
61D
331
512
  5
63F
331
601
  5
545
331
45F
  5
58C
331
54E
  5
490
331
534
  5
476
331
623
  5
43A
331
481
  5
5AE
331
570
  5
4B2
331
4A3
  5
5D0
331
44B
  5
578
331
4C5
  5
5F2
331
5B4
  5
4F6
331
592
  5
4D4
331
4DF
  5
60C
331
501
  5
62E
331
5F0
  5
534
331
523
  5
465
331
470
  5
59D
331
55F
  5
4A1
331
545
  5
487
331
492
  5
5BF
331
43A
  5
567
331
581
  5
4C3
331
634
  5
44B
331
612
  5
556
331
4B4
  5
5E1
331
5A3
  5
4E5
331
5CE
  5
510
331
5DF
  5
523
331
510
  5
63D
331
45D
  5
58A
331
54C
  5
48E
331
532
  5
474
331
621
  5
438
331
56E
  5
4B0
331
47F
  5
5AC
331
4A1
  5
5CE
331
449
  5
576
331
590
  5
4D2
331
4C3
  5
5F0
331
5B2
  5
4F4
331
63F
  5
456
331
4DD
  5
60A
331
4FF
  5
62C
331
5EE
  5
532
331
521
  5
463
331
46E
  5
59B
331
55D
  5
49F
331
543
  5
485
331
490
  5
5BD
331
438
  5
565
331
57F
  5
4C1
331
632
  5
449
331
610
  5
554
331
4B2
  5
5DF
331
5A1
  5
4E3
331
5CC
  5
50E
331
4EE
  5
61B
331
5FF
  5
543
331
5DD
  5
521
331
45B
  5
588
331
54A
  5
48C
331
530
  5
472
331
56C
  5
4AE
331
47D
  5
5AA
331
49F
  5
5CC
331
447
  5
574
331
58E
  5
4D0
331
4C1
  5
5EE
331
5B0
  5
4F2
331
63D
  5
454
331
4DB
  5
608
331
4FD
  5
62A
331
5EC
  5
530
331
51F
  5
461
331
46C
  5
599
331
55B
  5
49D
331
541
  5
483
331
48E
  5
5BB
331
436
  5
563
331
57D
  5
4BF
331
630
  5
447
331
60E
  5
552
331
4B0
  5
5DD
331
59F
  5
4E1
331
5CA
  5
50C
331
4EC
  5
619
331
50E
  5
63B
331
5FD
  5
541
331
61F
  5
436
331
5DB
  5
51F
331
459
  5
586
331
548
  5
48A
331
56A
  5
4AC
331
47B
  5
5A8
331
49D
  5
5CA
331
445
  5
572
331
58C
  5
4CE
331
4BF
  5
5EC
331
5AE
  5
4F0
331
63B
  5
452
331
4D9
  5
606
331
4FB
  5
628
331
5EA
  5
52E
331
51D
  5
45F
331
46A
  5
597
331
559
  5
49B
331
53F
  5
481
331
48C
  5
5B9
331
434
  5
561
331
57B
  5
4BD
331
62E
  5
445
331
60C
  5
550
331
4AE
  5
5DB
331
456
  5
583
331
59D
  5
4DF
331
5C8
  5
50A
331
4EA
  5
617
331
5D9
  5
51D
331
50C
  5
639
331
52E
  5
470
331
61D
  5
434
331
5FB
  5
53F
331
5BF
  5
501
331
568
  5
4AA
331
479
  5
5A6
331
639
  5
450
331
49B
  5
5C8
331
443
  5
570
331
58A
  5
4CC
331
4BD
  5
5EA
331
5AC
  5
4EE
331
4D7
  5
604
331
5E8
  5
52C
331
5C6
  5
508
331
4F9
  5
626
331
60A
  5
54E
331
51B
  5
45D
331
468
  5
595
331
557
  5
499
331
53D
  5
47F
331
48A
  5
5B7
331
432
  5
55F
331
579
  5
4BB
331
62C
  5
443
331
4AC
  5
5D9
331
454
  5
581
331
59B
  5
4DD
331
4CE
  5
5FB
331
4E8
  5
615
331
5D7
  5
51B
331
50A
  5
637
331
5F9
  5
53D
331
52C
  5
46E
331
61B
  5
432
331
5BD
  5
4FF
331
499
  5
5C6
331
441
  5
56E
331
588
  5
4CA
331
4BB
  5
5E8
331
5AA
  5
4EC
331
4D5
  5
602
331
4F7
  5
624
331
5E6
  5
52A
331
519
  5
45B
331
466
  5
593
331
555
  5
497
331
53B
  5
47D
331
488
  5
5B5
331
430
  5
55D
331
577
  5
4B9
331
62A
  5
441
331
608
  5
54C
331
4AA
  5
5D7
331
452
  5
57F
331
599
  5
4DB
331
5C4
  5
506
331
4CC
  5
5F9
331
4E6
  5
613
331
5D5
  5
519
331
508
  5
635
331
5F7
  5
53B
331
477
  5
5A4
331
566
  5
4A8
331
52A
  5
46C
331
619
  5
430
331
5BB
  5
4FD
331
4B9
  5
5E6
331
5A8
  5
4EA
331
4D3
  5
600
331
5C2
  5
504
331
4F5
  5
622
331
606
  5
54A
331
464
  5
591
331
553
  5
495
331
539
  5
47B
331
628
  5
43F
331
486
  5
5B3
331
42E
  5
55B
331
575
  5
4B7
331
517
  5
459
331
5E4
  5
528
331
4A8
  5
5D5
331
450
  5
57D
331
597
  5
4D9
331
4CA
  5
5F7
331
4E4
  5
611
331
5D3
  5
517
331
506
  5
633
331
5F5
  5
539
331
475
  5
5A2
331
564
  5
4A6
331
528
  5
46A
331
497
  5
5C4
331
43F
  5
56C
331
586
  5
4C8
331
617
  5
42E
331
5B9
  5
4FB
331
4D1
  5
5FE
331
5C0
  5
502
331
4F3
  5
620
331
5E2
  5
526
331
462
  5
58F
331
551
  5
493
331
537
  5
479
331
626
  5
43D
331
484
  5
5B1
331
573
  5
4B5
331
604
  5
548
331
4A6
  5
5D3
331
44E
  5
57B
331
4C8
  5
5F5
331
5B7
  5
4F9
331
595
  5
4D7
331
4E2
  5
60F
331
504
  5
631
331
5F3
  5
537
331
526
  5
468
331
473
  5
5A0
331
562
  5
4A4
331
495
  5
5C2
331
43D
  5
56A
331
584
  5
4C6
331
637
  5
44E
331
615
  5
559
331
4B7
  5
5E4
331
5A6
  5
4E8
331
5D1
  5
513
331
4F1
  5
61E
331
5E0
  5
524
331
513
  5
640
331
602
  5
546
331
460
  5
58D
331
54F
  5
491
331
535
  5
477
331
482
  5
5AF
331
571
  5
4B3
331
624
  5
43B
331
4A4
  5
5D1
331
44C
  5
579
331
4C6
  5
5F3
331
5B5
  5
4F7
331
593
  5
4D5
331
4E0
  5
60D
331
502
  5
62F
331
5F1
  5
535
331
524
  5
466
331
471
  5
59E
331
560
  5
4A2
331
546
  5
488
331
493
  5
5C0
331
43B
  5
568
331
582
  5
4C4
331
635
  5
44C
331
613
  5
557
331
4B5
  5
5E2
331
5A4
  5
4E6
331
5CF
  5
511
331
511
  5
63E
331
600
  5
544
331
45E
  5
58B
331
54D
  5
48F
331
533
  5
475
331
622
  5
439
331
480
  5
5AD
331
4A2
  5
5CF
331
44A
  5
577
331
591
  5
4D3
331
4C4
  5
5F1
331
5B3
  5
4F5
331
4DE
  5
60B
331
500
  5
62D
331
5EF
  5
533
331
522
  5
464
331
46F
  5
59C
331
55E
  5
4A0
331
544
  5
486
331
491
  5
5BE
331
439
  5
566
331
580
  5
4C2
331
633
  5
44A
331
611
  5
555
331
4B3
  5
5E0
331
5A2
  5
4E4
331
5CD
  5
50F
331
4EF
  5
61C
331
5DE
  5
522
331
56F
  5
4B1
331
45C
  5
589
331
54B
  5
48D
331
531
  5
473
331
620
  5
437
331
56D
  5
4AF
331
47E
  5
5AB
331
4A0
  5
5CD
331
448
  5
575
331
58F
  5
4D1
331
4C2
  5
5EF
331
5B1
  5
4F3
331
63E
  5
455
331
4DC
  5
609
331
4FE
  5
62B
331
5ED
  5
531
331
520
  5
462
331
46D
  5
59A
331
55C
  5
49E
331
542
  5
484
331
48F
  5
5BC
331
437
  5
564
331
57E
  5
4C0
331
631
  5
448
331
60F
  5
553
331
4B1
  5
5DE
331
5A0
  5
4E2
331
5CB
  5
50D
331
4ED
  5
61A
331
50F
  5
63C
331
5FE
  5
542
331
5DC
  5
520
331
45A
  5
587
331
549
  5
48B
331
56B
  5
4AD
331
47C
  5
5A9
331
49E
  5
5CB
331
446
  5
573
331
58D
  5
4CF
331
4C0
  5
5ED
331
5AF
  5
4F1
331
63C
  5
453
331
4DA
  5
607
331
4FC
  5
629
331
5EB
  5
52F
331
51E
  5
460
331
46B
  5
598
331
55A
  5
49C
331
540
  5
482
331
48D
  5
5BA
331
435
  5
562
331
57C
  5
4BE
331
62F
  5
446
331
60D
  5
551
331
4AF
  5
5DC
331
457
  5
584
331
59E
  5
4E0
331
5C9
  5
50B
331
4EB
  5
618
331
50D
  5
63A
331
5FC
  5
540
331
52F
  5
471
331
61E
  5
435
331
5DA
  5
51E
  0
XRECORD
  5
87F
102
{ACAD_REACTORS
330
695
102
}
330
695
100
AcDbXrecord
280
     1
102
SHADEPLOT
 70
     0
  0
XRECORD
  5
696
102
{ACAD_REACTORS
330
695
102
}
330
695
100
AcDbXrecord
280
     1
 90
        1
340
3C
  0
XRECORD
  5
880
102
{ACAD_REACTORS
330
699
102
}
330
699
100
AcDbXrecord
280
     1
102
SHADEPLOT
 70
     0
  0
XRECORD
  5
69A
102
{ACAD_REACTORS
330
699
102
}
330
699
100
AcDbXrecord
280
     1
 90
        1
340
3C
  0
GROUP
  5
688
102
{ACAD_REACTORS
330
D
102
}
330
D
100
AcDbGroup
300

 70
     1
 71
     1
  0
LAYOUT
  5
1E
102
{ACAD_XDICTIONARY
360
727
102
}
102
{ACAD_REACTORS
330
1A
102
}
330
1A
100
AcDbPlotSettings
  1

  2
CubePDF
  4
A4
  6

 40
3.174999952316284
 41
3.174999952316284
 42
3.175003051757812
 43
3.17498779296875
 44
209.9098358154297
 45
297.0318298339844
 46
0.0
 47
0.0
 48
0.0
 49
0.0
140
0.0
141
0.0
142
1.0
143
1.0
 70
   688
 72
     1
 73
     1
 74
     5
  7
monochrome.ctb
 75
    16
147
1.0
148
0.0
149
0.0
100
AcDbLayout
  1
Layout1
 70
     1
 71
     1
 10
-3.17498779296875
 20
-3.174999952316284
 11
293.8568420410156
 21
206.7348358631134
 12
0.0
 22
0.0
 32
0.0
 14
3.365188236585595
 24
2.904237426699694
 34
-0.0000000000112498
 15
286.31955126548
 25
199.7267381874978
 35
0.0000000000002956
146
0.0
 13
0.0
 23
0.0
 33
0.0
 16
1.0
 26
0.0
 36
0.0
 17
0.0
 27
1.0
 37
0.0
 76
     0
330
1B
331
694
1001
ACAD_PSEXT
1000
CubePDF
1000
CubePDF
1000
CubePDF:
1000
CubePDF
1070
     0
  0
LAYOUT
  5
22
102
{ACAD_XDICTIONARY
360
879
102
}
102
{ACAD_REACTORS
330
1A
102
}
330
1A
100
AcDbPlotSettings
  1

  2
none_device
  4

  6

 40
0.0
 41
0.0
 42
0.0
 43
0.0
 44
0.0
 45
0.0
 46
0.0
 47
0.0
 48
0.0
 49
0.0
140
0.0
141
0.0
142
1.0
143
1.0
 70
  1712
 72
     0
 73
     0
 74
     0
  7

 75
     0
147
1.0
148
0.0
149
0.0
100
AcDbLayout
  1
Model
 70
     1
 71
     0
 10
0.0
 20
0.0
 11
420.0
 21
297.0
 12
0.0
 22
0.0
 32
0.0
 14
0.0
 24
0.0
 34
0.0
 15
420.0
 25
297.0
 35
0.0
146
0.0
 13
0.0
 23
0.0
 33
0.0
 16
1.0
 26
0.0
 36
0.0
 17
0.0
 27
1.0
 37
0.0
 76
     0
330
1F
  0
MATERIAL
  5
416
102
{ACAD_XDICTIONARY
360
417
102
}
102
{ACAD_REACTORS
330
390
102
}
330
390
100
AcDbMaterial
  1
ByBlock
 72
     0
 43
0.0008202099737533
 43
0.0
 43
0.0
 43
0.0
 43
0.0
 43
0.0008202099737533
 43
0.0
 43
0.0
 43
0.0
 43
0.0
 43
1.0
 43
0.0
 43
0.0
 43
0.0
 43
0.0
 43
1.0
 77
     0
 47
0.0008202099737533
 47
0.0
 47
0.0
 47
0.0
 47
0.0
 47
0.0008202099737533
 47
0.0
 47
0.0
 47
0.0
 47
0.0
 47
1.0
 47
0.0
 47
0.0
 47
0.0
 47
0.0
 47
1.0
171
     0
 49
0.0008202099737533
 49
0.0
 49
0.0
 49
0.0
 49
0.0
 49
0.0008202099737533
 49
0.0
 49
0.0
 49
0.0
 49
0.0
 49
1.0
 49
0.0
 49
0.0
 49
0.0
 49
0.0
 49
1.0
175
     0
142
0.0008202099737533
142
0.0
142
0.0
142
0.0
142
0.0
142
0.0008202099737533
142
0.0
142
0.0
142
0.0
142
0.0
142
1.0
142
0.0
142
0.0
142
0.0
142
0.0
142
1.0
179
     0
144
0.0008202099737533
144
0.0
144
0.0
144
0.0
144
0.0
144
0.0008202099737533
144
0.0
144
0.0
144
0.0
144
0.0
144
1.0
144
0.0
144
0.0
144
0.0
144
0.0
144
1.0
147
0.0008202099737533
147
0.0
147
0.0
147
0.0
147
0.0
147
0.0008202099737533
147
0.0
147
0.0
147
0.0
147
0.0
147
1.0
147
0.0
147
0.0
147
0.0
147
0.0
147
1.0
  0
MATERIAL
  5
40E
102
{ACAD_XDICTIONARY
360
40F
102
}
102
{ACAD_REACTORS
330
390
102
}
330
390
100
AcDbMaterial
  1
ByLayer
 72
     0
 43
0.0008202099737533
 43
0.0
 43
0.0
 43
0.0
 43
0.0
 43
0.0008202099737533
 43
0.0
 43
0.0
 43
0.0
 43
0.0
 43
1.0
 43
0.0
 43
0.0
 43
0.0
 43
0.0
 43
1.0
 77
     0
 47
0.0008202099737533
 47
0.0
 47
0.0
 47
0.0
 47
0.0
 47
0.0008202099737533
 47
0.0
 47
0.0
 47
0.0
 47
0.0
 47
1.0
 47
0.0
 47
0.0
 47
0.0
 47
0.0
 47
1.0
171
     0
 49
0.0008202099737533
 49
0.0
 49
0.0
 49
0.0
 49
0.0
 49
0.0008202099737533
 49
0.0
 49
0.0
 49
0.0
 49
0.0
 49
1.0
 49
0.0
 49
0.0
 49
0.0
 49
0.0
 49
1.0
175
     0
142
0.0008202099737533
142
0.0
142
0.0
142
0.0
142
0.0
142
0.0008202099737533
142
0.0
142
0.0
142
0.0
142
0.0
142
1.0
142
0.0
142
0.0
142
0.0
142
0.0
142
1.0
179
     0
144
0.0008202099737533
144
0.0
144
0.0
144
0.0
144
0.0
144
0.0008202099737533
144
0.0
144
0.0
144
0.0
144
0.0
144
1.0
144
0.0
144
0.0
144
0.0
144
0.0
144
1.0
147
0.0008202099737533
147
0.0
147
0.0
147
0.0
147
0.0
147
0.0008202099737533
147
0.0
147
0.0
147
0.0
147
0.0
147
1.0
147
0.0
147
0.0
147
0.0
147
0.0
147
1.0
  0
MATERIAL
  5
41E
102
{ACAD_XDICTIONARY
360
41F
102
}
102
{ACAD_REACTORS
330
390
102
}
330
390
100
AcDbMaterial
  1
Global
 72
     0
 43
0.0008202099737533
 43
0.0
 43
0.0
 43
0.0
 43
0.0
 43
0.0008202099737533
 43
0.0
 43
0.0
 43
0.0
 43
0.0
 43
1.0
 43
0.0
 43
0.0
 43
0.0
 43
0.0
 43
1.0
 77
     0
 47
0.0008202099737533
 47
0.0
 47
0.0
 47
0.0
 47
0.0
 47
0.0008202099737533
 47
0.0
 47
0.0
 47
0.0
 47
0.0
 47
1.0
 47
0.0
 47
0.0
 47
0.0
 47
0.0
 47
1.0
171
     0
 49
0.0008202099737533
 49
0.0
 49
0.0
 49
0.0
 49
0.0
 49
0.0008202099737533
 49
0.0
 49
0.0
 49
0.0
 49
0.0
 49
1.0
 49
0.0
 49
0.0
 49
0.0
 49
0.0
 49
1.0
175
     0
142
0.0008202099737533
142
0.0
142
0.0
142
0.0
142
0.0
142
0.0008202099737533
142
0.0
142
0.0
142
0.0
142
0.0
142
1.0
142
0.0
142
0.0
142
0.0
142
0.0
142
1.0
179
     0
144
0.0008202099737533
144
0.0
144
0.0
144
0.0
144
0.0
144
0.0008202099737533
144
0.0
144
0.0
144
0.0
144
0.0
144
1.0
144
0.0
144
0.0
144
0.0
144
0.0
144
1.0
147
0.0008202099737533
147
0.0
147
0.0
147
0.0
147
0.0
147
0.0008202099737533
147
0.0
147
0.0
147
0.0
147
0.0
147
1.0
147
0.0
147
0.0
147
0.0
147
0.0
147
1.0
  0
MLEADERSTYLE
  5
426
102
{ACAD_REACTORS
330
38C
102
}
330
38C
100
AcDbMLeaderStyle
170
     2
171
     1
172
     0
 90
        2
 40
0.0
 41
0.0
173
     1
 91
-1056964608
340
14
 92
       -2
290
     1
 42
2.0
291
     1
 43
0.36
  3
Standard
 44
4.0
300

342
11
174
     1
178
     6
175
     1
176
     0
 93
-1056964608
 45
4.0
292
     0
297
     0
 46
4.0
 94
-1056964608
 47
1.0
 49
1.0
140
1.0
293
     1
141
0.0
294
     1
177
     0
142
1.0
295
     0
296
     0
143
0.125
1001
ACAD_MLEADERVER
1070
     2
  0
MLINESTYLE
  5
18
102
{ACAD_REACTORS
330
17
102
}
330
17
100
AcDbMlineStyle
  2
STANDARD
 70
     0
  3

 62
   256
 51
90.0
 52
90.0
 71
     2
 49
0.5
 62
   256
  6
BYLAYER
 49
-0.5
 62
   256
  6
BYLAYER
  0
ACDBPLACEHOLDER
  5
F
102
{ACAD_REACTORS
330
E
102
}
330
E
  0
SCALE
  5
3C
102
{ACAD_REACTORS
330
3B
102
}
330
3B
100
AcDbScale
 70
     0
300
1:1
140
1.0
141
1.0
290
     1
1001
ACAD
1000
AcRTDxfName
1000
SCALE
  0
SCALE
  5
3D
102
{ACAD_REACTORS
330
3B
102
}
330
3B
100
AcDbScale
 70
     0
300
1:2
140
1.0
141
2.0
290
     0
1001
ACAD
1000
AcRTDxfName
1000
SCALE
  0
SCALE
  5
3E
102
{ACAD_REACTORS
330
3B
102
}
330
3B
100
AcDbScale
 70
     0
300
1:4
140
1.0
141
4.0
290
     0
1001
ACAD
1000
AcRTDxfName
1000
SCALE
  0
SCALE
  5
3F
102
{ACAD_REACTORS
330
3B
102
}
330
3B
100
AcDbScale
 70
     0
300
1:5
140
1.0
141
5.0
290
     0
1001
ACAD
1000
AcRTDxfName
1000
SCALE
  0
SCALE
  5
40
102
{ACAD_REACTORS
330
3B
102
}
330
3B
100
AcDbScale
 70
     0
300
1:8
140
1.0
141
8.0
290
     0
1001
ACAD
1000
AcRTDxfName
1000
SCALE
  0
SCALE
  5
41
102
{ACAD_REACTORS
330
3B
102
}
330
3B
100
AcDbScale
 70
     0
300
1:10
140
1.0
141
10.0
290
     0
1001
ACAD
1000
AcRTDxfName
1000
SCALE
  0
SCALE
  5
42
102
{ACAD_REACTORS
330
3B
102
}
330
3B
100
AcDbScale
 70
     0
300
1:16
140
1.0
141
16.0
290
     0
1001
ACAD
1000
AcRTDxfName
1000
SCALE
  0
SCALE
  5
43
102
{ACAD_REACTORS
330
3B
102
}
330
3B
100
AcDbScale
 70
     0
300
1:20
140
1.0
141
20.0
290
     0
1001
ACAD
1000
AcRTDxfName
1000
SCALE
  0
SCALE
  5
44
102
{ACAD_REACTORS
330
3B
102
}
330
3B
100
AcDbScale
 70
     0
300
1:30
140
1.0
141
30.0
290
     0
1001
ACAD
1000
AcRTDxfName
1000
SCALE
  0
SCALE
  5
45
102
{ACAD_REACTORS
330
3B
102
}
330
3B
100
AcDbScale
 70
     0
300
1:40
140
1.0
141
40.0
290
     0
1001
ACAD
1000
AcRTDxfName
1000
SCALE
  0
SCALE
  5
46
102
{ACAD_REACTORS
330
3B
102
}
330
3B
100
AcDbScale
 70
     0
300
1:50
140
1.0
141
50.0
290
     0
1001
ACAD
1000
AcRTDxfName
1000
SCALE
  0
SCALE
  5
47
102
{ACAD_REACTORS
330
3B
102
}
330
3B
100
AcDbScale
 70
     0
300
1:100
140
1.0
141
100.0
290
     0
1001
ACAD
1000
AcRTDxfName
1000
SCALE
  0
SCALE
  5
48
102
{ACAD_REACTORS
330
3B
102
}
330
3B
100
AcDbScale
 70
     0
300
2:1
140
2.0
141
1.0
290
     0
1001
ACAD
1000
AcRTDxfName
1000
SCALE
  0
SCALE
  5
49
102
{ACAD_REACTORS
330
3B
102
}
330
3B
100
AcDbScale
 70
     0
300
4:1
140
4.0
141
1.0
290
     0
1001
ACAD
1000
AcRTDxfName
1000
SCALE
  0
SCALE
  5
4A
102
{ACAD_REACTORS
330
3B
102
}
330
3B
100
AcDbScale
 70
     0
300
8:1
140
8.0
141
1.0
290
     0
1001
ACAD
1000
AcRTDxfName
1000
SCALE
  0
SCALE
  5
4B
102
{ACAD_REACTORS
330
3B
102
}
330
3B
100
AcDbScale
 70
     0
300
10:1
140
10.0
141
1.0
290
     0
1001
ACAD
1000
AcRTDxfName
1000
SCALE
  0
SCALE
  5
4C
102
{ACAD_REACTORS
330
3B
102
}
330
3B
100
AcDbScale
 70
     0
300
100:1
140
100.0
141
1.0
290
     0
1001
ACAD
1000
AcRTDxfName
1000
SCALE
  0
SCALE
  5
4D
102
{ACAD_REACTORS
330
3B
102
}
330
3B
100
AcDbScale
 70
     0
300
1/128" = 1'-0"
140
0.0078125
141
12.0
290
     0
1001
ACAD
1000
AcRTDxfName
1000
SCALE
  0
SCALE
  5
4E
102
{ACAD_REACTORS
330
3B
102
}
330
3B
100
AcDbScale
 70
     0
300
1/64" = 1'-0"
140
0.015625
141
12.0
290
     0
1001
ACAD
1000
AcRTDxfName
1000
SCALE
  0
SCALE
  5
4F
102
{ACAD_REACTORS
330
3B
102
}
330
3B
100
AcDbScale
 70
     0
300
1/32" = 1'-0"
140
0.03125
141
12.0
290
     0
1001
ACAD
1000
AcRTDxfName
1000
SCALE
  0
SCALE
  5
50
102
{ACAD_REACTORS
330
3B
102
}
330
3B
100
AcDbScale
 70
     0
300
1/16" = 1'-0"
140
0.0625
141
12.0
290
     0
1001
ACAD
1000
AcRTDxfName
1000
SCALE
  0
SCALE
  5
51
102
{ACAD_REACTORS
330
3B
102
}
330
3B
100
AcDbScale
 70
     0
300
3/32" = 1'-0"
140
0.09375
141
12.0
290
     0
1001
ACAD
1000
AcRTDxfName
1000
SCALE
  0
SCALE
  5
52
102
{ACAD_REACTORS
330
3B
102
}
330
3B
100
AcDbScale
 70
     0
300
1/8" = 1'-0"
140
0.125
141
12.0
290
     0
1001
ACAD
1000
AcRTDxfName
1000
SCALE
  0
SCALE
  5
53
102
{ACAD_REACTORS
330
3B
102
}
330
3B
100
AcDbScale
 70
     0
300
3/16" = 1'-0"
140
0.1875
141
12.0
290
     0
1001
ACAD
1000
AcRTDxfName
1000
SCALE
  0
SCALE
  5
54
102
{ACAD_REACTORS
330
3B
102
}
330
3B
100
AcDbScale
 70
     0
300
1/4" = 1'-0"
140
0.25
141
12.0
290
     0
1001
ACAD
1000
AcRTDxfName
1000
SCALE
  0
SCALE
  5
55
102
{ACAD_REACTORS
330
3B
102
}
330
3B
100
AcDbScale
 70
     0
300
3/8" = 1'-0"
140
0.375
141
12.0
290
     0
1001
ACAD
1000
AcRTDxfName
1000
SCALE
  0
SCALE
  5
56
102
{ACAD_REACTORS
330
3B
102
}
330
3B
100
AcDbScale
 70
     0
300
1/2" = 1'-0"
140
0.5
141
12.0
290
     0
1001
ACAD
1000
AcRTDxfName
1000
SCALE
  0
SCALE
  5
57
102
{ACAD_REACTORS
330
3B
102
}
330
3B
100
AcDbScale
 70
     0
300
3/4" = 1'-0"
140
0.75
141
12.0
290
     0
1001
ACAD
1000
AcRTDxfName
1000
SCALE
  0
SCALE
  5
58
102
{ACAD_REACTORS
330
3B
102
}
330
3B
100
AcDbScale
 70
     0
300
1" = 1'-0"
140
1.0
141
12.0
290
     0
1001
ACAD
1000
AcRTDxfName
1000
SCALE
  0
SCALE
  5
59
102
{ACAD_REACTORS
330
3B
102
}
330
3B
100
AcDbScale
 70
     0
300
1-1/2" = 1'-0"
140
1.5
141
12.0
290
     0
1001
ACAD
1000
AcRTDxfName
1000
SCALE
  0
SCALE
  5
5A
102
{ACAD_REACTORS
330
3B
102
}
330
3B
100
AcDbScale
 70
     0
300
3" = 1'-0"
140
3.0
141
12.0
290
     0
1001
ACAD
1000
AcRTDxfName
1000
SCALE
  0
SCALE
  5
5B
102
{ACAD_REACTORS
330
3B
102
}
330
3B
100
AcDbScale
 70
     0
300
6" = 1'-0"
140
6.0
141
12.0
290
     0
1001
ACAD
1000
AcRTDxfName
1000
SCALE
  0
SCALE
  5
5C
102
{ACAD_REACTORS
330
3B
102
}
330
3B
100
AcDbScale
 70
     0
300
1'-0" = 1'-0"
140
12.0
141
12.0
290
     0
1001
ACAD
1000
AcRTDxfName
1000
SCALE
  0
TABLESTYLE
  5
392
102
{ACAD_XDICTIONARY
360
874
102
}
102
{ACAD_REACTORS
330
38B
102
}
330
38B
100
AcDbTableStyle
  3
Standard
 70
     0
 71
     0
 40
1.5
 41
1.5
280
     0
281
     0
  7
Standard
140
4.5
170
     2
 62
     0
 63
     7
283
     0
274
    -2
284
     1
 64
     0
275
    -2
285
     1
 65
     0
276
    -2
286
     1
 66
     0
277
    -2
287
     1
 67
     0
278
    -2
288
     1
 68
     0
279
    -2
289
     1
 69
     0
  7
Standard
140
6.0
170
     5
 62
     0
 63
     7
283
     0
274
    -2
284
     1
 64
     0
275
    -2
285
     1
 65
     0
276
    -2
286
     1
 66
     0
277
    -2
287
     1
 67
     0
278
    -2
288
     1
 68
     0
279
    -2
289
     1
 69
     0
  7
Standard
140
4.5
170
     5
 62
     0
 63
     7
283
     0
274
    -2
284
     1
 64
     0
275
    -2
285
     1
 65
     0
276
    -2
286
     1
 66
     0
277
    -2
287
     1
 67
     0
278
    -2
288
     1
 68
     0
279
    -2
289
     1
 69
     0
  0
VISUALSTYLE
  5
2F
102
{ACAD_REACTORS
330
2A
102
}
330
2A
100
AcDbVisualStyle
  2
2dWireframe
 70
     4
 71
     0
 72
     2
 73
     0
 90
        0
 40
-0.6
 41
-30.0
 62
     5
 63
     7
 74
     1
 91
        4
 64
     7
 65
   257
 75
     1
175
     1
 42
1.0
 92
        0
 66
   257
 43
1.0
 76
     1
 77
     6
 78
     2
 67
     7
 79
     5
170
     0
171
     0
290
     0
174
     0
 93
        1
 44
0.0
173
     0
291
     0
 45
0.0
1001
ACAD
1000
AcRTDxfName
1000
VISUALSTYLE
1000
AcDbSavedByObjectVersion
1070
     0
  0
VISUALSTYLE
  5
31
102
{ACAD_REACTORS
330
2A
102
}
330
2A
100
AcDbVisualStyle
  2
3D Hidden
 70
     6
 71
     1
 72
     2
 73
     2
 90
        0
 40
-0.6
 41
-30.0
 62
     5
 63
     7
 74
     2
 91
        2
 64
     7
 65
   257
 75
     2
175
     1
 42
40.0
 92
        0
 66
   257
 43
1.0
 76
     1
 77
     6
 78
     2
 67
     7
 79
     3
170
     0
171
     0
290
     0
174
     0
 93
        1
 44
0.0
173
     0
291
     0
 45
0.0
1001
ACAD
1000
AcRTDxfName
1000
VISUALSTYLE
1000
AcDbSavedByObjectVersion
1070
     0
  0
VISUALSTYLE
  5
30
102
{ACAD_REACTORS
330
2A
102
}
330
2A
100
AcDbVisualStyle
  2
3dWireframe
 70
     5
 71
     0
 72
     2
 73
     0
 90
        0
 40
-0.6
 41
-30.0
 62
     5
 63
     7
 74
     1
 91
        4
 64
     7
 65
   257
 75
     1
175
     1
 42
1.0
 92
        0
 66
   257
 43
1.0
 76
     1
 77
     6
 78
     2
 67
     7
 79
     5
170
     0
171
     0
290
     0
174
     0
 93
        1
 44
0.0
173
     0
291
     0
 45
0.0
1001
ACAD
1000
AcRTDxfName
1000
VISUALSTYLE
1000
AcDbSavedByObjectVersion
1070
     0
  0
VISUALSTYLE
  5
32
102
{ACAD_REACTORS
330
2A
102
}
330
2A
100
AcDbVisualStyle
  2
Basic
 70
     7
 71
     1
 72
     0
 73
     1
 90
        0
 40
-0.6
 41
-30.0
 62
     5
 63
     7
 74
     0
 91
        4
 64
     7
 65
   257
 75
     1
175
     1
 42
1.0
 92
        8
 66
     7
 43
1.0
 76
     1
 77
     6
 78
     2
 67
     7
 79
     5
170
     0
171
     0
290
     0
174
     0
 93
        1
 44
0.0
173
     0
291
     1
 45
0.0
1001
ACAD
1000
AcRTDxfName
1000
VISUALSTYLE
1000
AcDbSavedByObjectVersion
1070
     0
  0
VISUALSTYLE
  5
36
102
{ACAD_REACTORS
330
2A
102
}
330
2A
100
AcDbVisualStyle
  2
Brighten
 70
    12
 71
     2
 72
     2
 73
     0
 90
        0
 40
-0.6
 41
-30.0
 62
     5
 63
     7
 74
     1
 91
        4
 64
     7
 65
   257
 75
     1
175
     1
 42
1.0
 92
        8
 66
     7
 43
1.0
 76
     1
 77
     6
 78
     2
 67
     7
 79
     5
170
     0
171
     0
290
     0
174
     0
 93
        1
 44
50.0
173
     0
291
     1
 45
0.0
1001
ACAD
1000
AcRTDxfName
1000
VISUALSTYLE
1000
AcDbSavedByObjectVersion
1070
     0
  0
VISUALSTYLE
  5
3A
102
{ACAD_REACTORS
330
2A
102
}
330
2A
100
AcDbVisualStyle
  2
ColorChange
 70
    16
 71
     2
 72
     2
 73
     3
 90
        0
 40
-0.6
 41
-30.0
 62
     5
 63
     8
 74
     1
 91
        4
 64
     7
 65
   257
 75
     1
175
     1
 42
1.0
 92
        8
 66
     8
 43
1.0
 76
     1
 77
     6
 78
     2
 67
     7
 79
     5
170
     0
171
     0
290
     0
174
     0
 93
        1
 44
0.0
173
     0
291
     1
 45
0.0
1001
ACAD
1000
AcRTDxfName
1000
VISUALSTYLE
1000
AcDbSavedByObjectVersion
1070
     0
  0
VISUALSTYLE
  5
34
102
{ACAD_REACTORS
330
2A
102
}
330
2A
100
AcDbVisualStyle
  2
Conceptual
 70
     9
 71
     3
 72
     2
 73
     0
 90
        0
 40
-0.6
 41
-30.0
 62
     5
 63
     7
 74
     2
 91
        2
 64
     7
 65
   257
 75
     1
175
     1
 42
40.0
 92
        8
 66
     7
 43
1.0
 76
     1
 77
     6
 78
     2
 67
     7
 79
     3
170
     0
171
     0
290
     0
174
     0
 93
        1
 44
0.0
173
     0
291
     0
 45
0.0
1001
ACAD
1000
AcRTDxfName
1000
VISUALSTYLE
1000
AcDbSavedByObjectVersion
1070
     0
  0
VISUALSTYLE
  5
35
102
{ACAD_REACTORS
330
2A
102
}
330
2A
100
AcDbVisualStyle
  2
Dim
 70
    11
 71
     2
 72
     2
 73
     0
 90
        0
 40
-0.6
 41
-30.0
 62
     5
 63
     7
 74
     1
 91
        4
 64
     7
 65
   257
 75
     1
175
     1
 42
1.0
 92
        8
 66
     7
 43
1.0
 76
     1
 77
     6
 78
     2
 67
     7
 79
     5
170
     0
171
     0
290
     0
174
     0
 93
        1
 44
-50.0
173
     0
291
     1
 45
0.0
1001
ACAD
1000
AcRTDxfName
1000
VISUALSTYLE
1000
AcDbSavedByObjectVersion
1070
     0
  0
VISUALSTYLE
  5
39
102
{ACAD_REACTORS
330
2A
102
}
330
2A
100
AcDbVisualStyle
  2
Facepattern
 70
    15
 71
     2
 72
     2
 73
     0
 90
        0
 40
-0.6
 41
-30.0
 62
     5
 63
     7
 74
     1
 91
        4
 64
     7
 65
   257
 75
     1
175
     1
 42
1.0
 92
        8
 66
     7
 43
1.0
 76
     1
 77
     6
 78
     2
 67
     7
 79
     5
170
     0
171
     0
290
     0
174
     0
 93
        1
 44
0.0
173
     0
291
     1
 45
0.0
1001
ACAD
1000
AcRTDxfName
1000
VISUALSTYLE
1000
AcDbSavedByObjectVersion
1070
     0
  0
VISUALSTYLE
  5
2B
102
{ACAD_REACTORS
330
2A
102
}
330
2A
100
AcDbVisualStyle
  2
Flat
 70
     0
 71
     2
 72
     1
 73
     1
 90
        2
 40
-0.6
 41
30.0
 62
     5
 63
     7
 74
     0
 91
        4
 64
     7
 65
   257
 75
     1
175
     1
 42
1.0
 92
        8
 66
     7
 43
1.0
 76
     1
 77
     6
 78
     2
 67
     7
 79
     5
170
     0
171
     0
290
     0
174
     0
 93
       13
 44
0.0
173
     0
291
     1
 45
0.0
1001
ACAD
1000
AcRTDxfName
1000
VISUALSTYLE
1000
AcDbSavedByObjectVersion
1070
     0
  0
VISUALSTYLE
  5
2C
102
{ACAD_REACTORS
330
2A
102
}
330
2A
100
AcDbVisualStyle
  2
FlatWithEdges
 70
     1
 71
     2
 72
     1
 73
     1
 90
        2
 40
-0.6
 41
30.0
 62
     5
 63
     7
 74
     1
 91
        4
 64
     7
 65
   257
 75
     1
175
     1
 42
1.0
 92
        0
 66
   257
 43
1.0
 76
     1
 77
     6
 78
     2
 67
     7
 79
     5
170
     0
171
     0
290
     0
174
     0
 93
       13
 44
0.0
173
     0
291
     1
 45
0.0
1001
ACAD
1000
AcRTDxfName
1000
VISUALSTYLE
1000
AcDbSavedByObjectVersion
1070
     0
  0
VISUALSTYLE
  5
2D
102
{ACAD_REACTORS
330
2A
102
}
330
2A
100
AcDbVisualStyle
  2
Gouraud
 70
     2
 71
     2
 72
     2
 73
     1
 90
        2
 40
-0.6
 41
30.0
 62
     5
 63
     7
 74
     0
 91
        4
 64
     7
 65
   257
 75
     1
175
     1
 42
1.0
 92
        0
 66
     7
 43
1.0
 76
     1
 77
     6
 78
     2
 67
     7
 79
     5
170
     0
171
     0
290
     0
174
     0
 93
       13
 44
0.0
173
     0
291
     1
 45
0.0
1001
ACAD
1000
AcRTDxfName
1000
VISUALSTYLE
1000
AcDbSavedByObjectVersion
1070
     0
  0
VISUALSTYLE
  5
2E
102
{ACAD_REACTORS
330
2A
102
}
330
2A
100
AcDbVisualStyle
  2
GouraudWithEdges
 70
     3
 71
     2
 72
     2
 73
     1
 90
        2
 40
-0.6
 41
30.0
 62
     5
 63
     7
 74
     1
 91
        4
 64
     7
 65
   257
 75
     1
175
     1
 42
1.0
 92
        0
 66
   257
 43
1.0
 76
     1
 77
     6
 78
     2
 67
     7
 79
     5
170
     0
171
     0
290
     0
174
     0
 93
       13
 44
0.0
173
     0
291
     1
 45
0.0
1001
ACAD
1000
AcRTDxfName
1000
VISUALSTYLE
1000
AcDbSavedByObjectVersion
1070
     0
  0
VISUALSTYLE
  5
38
102
{ACAD_REACTORS
330
2A
102
}
330
2A
100
AcDbVisualStyle
  2
Linepattern
 70
    14
 71
     2
 72
     2
 73
     0
 90
        0
 40
-0.6
 41
-30.0
 62
     5
 63
     7
 74
     1
 91
        4
 64
     7
 65
   257
 75
     7
175
     7
 42
1.0
 92
        8
 66
     7
 43
1.0
 76
     1
 77
     6
 78
     2
 67
     7
 79
     5
170
     0
171
     0
290
     0
174
     0
 93
        1
 44
0.0
173
     0
291
     1
 45
0.0
1001
ACAD
1000
AcRTDxfName
1000
VISUALSTYLE
1000
AcDbSavedByObjectVersion
1070
     0
  0
VISUALSTYLE
  5
33
102
{ACAD_REACTORS
330
2A
102
}
330
2A
100
AcDbVisualStyle
  2
Realistic
 70
     8
 71
     2
 72
     2
 73
     0
 90
        0
 40
-0.6
 41
-30.0
 62
     5
 63
     7
 74
     1
 91
        0
 64
     7
 65
   257
 75
     1
175
     1
 42
1.0
 92
        8
 66
     8
 43
1.0
 76
     1
 77
     6
 78
     2
 67
     7
 79
     5
170
     0
171
     0
290
     0
174
     0
 93
       13
 44
0.0
173
     0
291
     0
 45
0.0
1001
ACAD
1000
AcRTDxfName
1000
VISUALSTYLE
1000
AcDbSavedByObjectVersion
1070
     0
  0
VISUALSTYLE
  5
37
102
{ACAD_REACTORS
330
2A
102
}
330
2A
100
AcDbVisualStyle
  2
Thicken
 70
    13
 71
     2
 72
     2
 73
     0
 90
        0
 40
-0.6
 41
-30.0
 62
     5
 63
     7
 74
     1
 91
        4
 64
     7
 65
   257
 75
     1
175
     1
 42
1.0
 92
       12
 66
     7
 43
1.0
 76
     1
 77
     6
 78
     2
 67
     7
 79
     5
170
     0
171
     0
290
     0
174
     0
 93
        1
 44
0.0
173
     0
291
     1
 45
0.0
1001
ACAD
1000
AcRTDxfName
1000
VISUALSTYLE
1000
AcDbSavedByObjectVersion
1070
     0
  0
DICTIONARYVAR
  5
38A
102
{ACAD_REACTORS
330
389
102
}
330
389
100
DictionaryVariables
280
     0
  1
1:1
  0
DICTIONARYVAR
  5
86F
102
{ACAD_REACTORS
330
389
102
}
330
389
100
DictionaryVariables
280
     0
  1
STANDARD
  0
DICTIONARYVAR
  5
40A
102
{ACAD_REACTORS
330
389
102
}
330
389
100
DictionaryVariables
280
     0
  1
STANDARD
  0
DICTIONARYVAR
  5
40B
102
{ACAD_REACTORS
330
389
102
}
330
389
100
DictionaryVariables
280
     0
  1
1
  0
DICTIONARYVAR
  5
871
102
{ACAD_REACTORS
330
389
102
}
330
389
100
DictionaryVariables
280
     0
  1
0
  0
DICTIONARYVAR
  5
40C
102
{ACAD_REACTORS
330
389
102
}
330
389
100
DictionaryVariables
280
     0
  1

  0
DICTIONARYVAR
  5
873
102
{ACAD_REACTORS
330
389
102
}
330
389
100
DictionaryVariables
280
     0
  1
80.000000
  0
DICTIONARYVAR
  5
872
102
{ACAD_REACTORS
330
389
102
}
330
389
100
DictionaryVariables
280
     0
  1
5.000000
  0
DICTIONARYVAR
  5
870
102
{ACAD_REACTORS
330
389
102
}
330
389
100
DictionaryVariables
280
     0
  1
127
  0
DICTIONARY
  5
727
330
1E
100
AcDbDictionary
280
     1
281
     1
  3
ACAD_XREC_ROUNDTRIP
360
878
  3
ADSK_XREC_LAYOUTTHUMBNAIL
360
728
  0
DICTIONARY
  5
879
330
22
100
AcDbDictionary
280
     1
281
     1
  3
ACAD_XREC_ROUNDTRIP
360
87A
  0
DICTIONARY
  5
417
330
416
100
AcDbDictionary
280
     1
281
     1
  3
ACAD_XREC_ROUNDTRIP
360
87D
  3
BUMPTILE
360
419
  3
DIFFUSETILE
360
418
  3
OPACITYTILE
360
41C
  3
REFLECTIONTILE
360
41B
  3
REFRACTIONTILE
360
41D
  3
SPECULARTILE
360
41A
  0
DICTIONARY
  5
40F
330
40E
100
AcDbDictionary
280
     1
281
     1
  3
ACAD_XREC_ROUNDTRIP
360
87C
  3
BUMPTILE
360
411
  3
DIFFUSETILE
360
410
  3
OPACITYTILE
360
414
  3
REFLECTIONTILE
360
413
  3
REFRACTIONTILE
360
415
  3
SPECULARTILE
360
412
  0
DICTIONARY
  5
41F
330
41E
100
AcDbDictionary
280
     1
281
     1
  3
ACAD_XREC_ROUNDTRIP
360
87E
  3
BUMPTILE
360
421
  3
DIFFUSETILE
360
420
  3
OPACITYTILE
360
424
  3
REFLECTIONTILE
360
423
  3
REFRACTIONTILE
360
425
  3
SPECULARTILE
360
422
  0
DICTIONARY
  5
874
330
392
100
AcDbDictionary
280
     1
281
     1
  3
ACAD_ROUNDTRIP_2008_TABLESTYLE_CELLSTYLEMAP
360
875
  3
ACAD_XREC_ROUNDTRIP
360
87B
  0
XRECORD
  5
878
102
{ACAD_REACTORS
330
727
102
}
330
727
100
AcDbXrecord
280
     1
102
SHADEPLOT
 70
     0
102
SHADEPLOTRESLEVEL
 70
     2
102
SHADEPLOTCUSTOMDPI
 70
   300
  0
XRECORD
  5
728
102
{ACAD_REACTORS
330
727
102
}
330
727
100
AcDbXrecord
280
     1
310
28000000B40000007F00000001000800000000004C590000000000000000000000010000000000000000000000FF0000000000000000000000000000000000000000000000000000000000000000000000000000330000006600000099000000CC000000FF00000000330000333300006633000099330000CC330000FF3300
310
0000660000336600006666000099660000CC660000FF66000000990000339900006699000099990000CC990000FF99000000CC000033CC000066CC000099CC0000CCCC0000FFCC000000FF000033FF000066FF000099FF0000CCFF0000FFFF000000003300330033006600330099003300CC003300FF003300003333003333
310
33006633330099333300CC333300FF33330000663300336633006666330099663300CC663300FF66330000993300339933006699330099993300CC993300FF99330000CC330033CC330066CC330099CC3300CCCC3300FFCC330000FF330033FF330066FF330099FF3300CCFF3300FFFF330000006600330066006600660099
310
006600CC006600FF00660000336600333366006633660099336600CC336600FF33660000666600336666006666660099666600CC666600FF66660000996600339966006699660099996600CC996600FF99660000CC660033CC660066CC660099CC6600CCCC6600FFCC660000FF660033FF660066FF660099FF6600CCFF6600
310
FFFF660000009900330099006600990099009900CC009900FF00990000339900333399006633990099339900CC339900FF33990000669900336699006666990099669900CC669900FF66990000999900339999006699990099999900CC999900FF99990000CC990033CC990066CC990099CC9900CCCC9900FFCC990000FF99
310
0033FF990066FF990099FF9900CCFF9900FFFF99000000CC003300CC006600CC009900CC00CC00CC00FF00CC000033CC003333CC006633CC009933CC00CC33CC00FF33CC000066CC003366CC006666CC009966CC00CC66CC00FF66CC000099CC003399CC006699CC009999CC00CC99CC00FF99CC0000CCCC0033CCCC0066CC
310
CC0099CCCC00CCCCCC00FFCCCC0000FFCC0033FFCC0066FFCC0099FFCC00CCFFCC00FFFFCC000000FF003300FF006600FF009900FF00CC00FF00FF00FF000033FF003333FF006633FF009933FF00CC33FF00FF33FF000066FF003366FF006666FF009966FF00CC66FF00FF66FF000099FF003399FF006699FF009999FF00CC
310
99FF00FF99FF0000CCFF0033CCFF0066CCFF0099CCFF00CCCCFF00FFCCFF0000FFFF0033FFFF0066FFFF0099FFFF00CCFFFF00FFFFFF00000000000D0D0D001A1A1A00282828003535350043434300505050005D5D5D006B6B6B00787878008686860093939300A1A1A100AEAEAE00BBBBBB00C9C9C900D6D6D600E4E4E400
310
F1F1F100FFFFFF0000000000000000000000000000000000000000000000000000000000000000000000000000000000F5F5F5F5F5F5F5F5F5F5F5F5F5F5F5F5F5F5F5F5F5F5F5F5F5F5F5F5F5F5F5F5F5F5F5F5F5F5F5F5F5F5F5F5F5F5F5F5F5F5F5F5F5F5F5F5F5F5F5F5F5F5F5F5F5F5F5F5F5F5F5F5F5F5F5F5F5F5F5
310
F5F5F5F5F5F5F5F5F5F5F5F5F5F5F5F5F5F5F5F5F5F5F5F5F5F5F5F5F5F5F5F5F5F5F5F5F5F5F5F5F5F5F5F5F5F5F5F5F5F5F5F5F5F5F5F5F5F5F5F5F5F5F5F5F5F5F5F5F5F5F5F5F5F5F5F5F5F5F5F5F5F5F5F5F5F5F5F5F5F5F5F5F5F5F5F5F5F5F5F5F5F5E2E2E2E2E2E2E2E2E2E2E2E2E2E2E2E2E2E2E2E2E2E2E2E2E2
310
E2E2E2E2E2E2E2E2E2E2E2E2E2E2E2E2E2E2E2E2E2E2E2E2E2E2E2E2E2E2E2E2E2E2E2E2E2E2E2E2E2E2E2E2E2E2E2E2E2E2E2E2E2E2E2E2E2E2E2E2E2E2E2E2E2E2E2E2E2E2E2E2E2E2E2E2E2E2E2E2E2E2E2E2E2E2E2E2E2E2E2E2E2E2E2E2E2E2E2E2E2E2E2E2E2E2E2E2E2E2E2E2E2E2E2E2E2E2E2E2E2E2E2E2E2E2E2
310
E2E2E2E2E2E2E2E2E2E2E2E2E2E2E2E2E2E2E2E2E2E2E2E2E2E2F5F5E2F5F5F5F5F5F5F5F5F5E2E2E2E2E2E2E2E2E2F5F5F5F5F5F5F5F5F5F5F5F5F5F5F5F5E2E2E2E2E2E2E2E2E2F5F5F5F5F5F5F5F5F5F5F5F5F5F5F5F5E2E2E2E2E2E2E2E2E2F5F5F5F5F5F5F5F5F5F5F5F5F5F5F5F5E2E2E2E2E2E2E2E2E2F5F5F5F5F5
310
F5F5F5F5F5F5F5F5F5F5F5E2E2E2E2E2E2E2E2E2F5F5F5F5F5F5F5F5F5F5F5F5F5F5F5F5E2E2E2E2E2E2E2E2E2F5F5F5F5F5F5F5F5F5F5F5F5F5F5F5F5E2E2E2E2E2E2E2E2E2F5F5F5F5F5F5F5F5E2F5F5E2F5E2E2E2E2E2E2E2E2E2E2E2E2E2E2E2E2E2E2E2E2E2E2E2E2E2E2E2E2E2E2E2E2E2E2E2E2E2E2E2E2E2E2E2E2
310
E2E2E2E2E2E2E2E2E2E2E2E2E2E2E2E2E2E2E2E2E2E2E2E2E2E2E2E2E2E2E2E2E2E2E2E2E2E2E2E2E2E2E2E2E2E2E2E2E2E2E2E2E2E2E2E2E2E2E2E2E2E2E2E2E2E2E2E2E2E2E2E2E2E2E2E2E2E2E2E2E2E2E2E2E2E2E2E2E2E2E2E2E2E2E2E2E2E2E2E2E2E2E2E2E2E2E2E2E2E2E2E2E2E2E2E2E2E2E2E2E2E2E2E2E2E2E2
310
E2E2E2F5E2F5F5E2F5E2F5F5F5F5F5F5F5F5F5F5F5F5F5F5F5F5F5F5F5F5F5F5F5F5F5F5F5F5F5F5F5F5F5F5F5F5F5F5F5F5F5F5F5F5F5F5F5F5F5F5F5F5F5F5F5F5F5F5F5F5F5F5F5F5F5F5F5F5F5F5F5F5F5F5F5F5F5F5F5F5F5F5F5F5F5F5F5F5F5F5F5F5F5F5F5F5F5F5F5F5F5F5F5F5F5F5F5F5F5F5F5F5F5F5F5F5F5
310
F5F5F5F5F5F5F5F5F5F5F5F5F5F5F5F5F5F5F5F5F5F5F5F5F5F5F5F5F5F5F5F5F5F5F5F5F5F5F5F5F5F5F5F5F5F5F5F5F5F5F5F5F5F5E2E2F5E2F5F5E2F5E2F5E2E2E2E2E2E2E2E2E2E2E2E2E2E2E2E2E2E2E2E2E2E2E2E2E2E2E2E2E2E2E2E2E2E2E2E2E2E2E2E2E2E2E2E2E2E2E2E2E2E2E2E2E2E2E2E2E2E2E2E2E2E2E2
310
E2E2E2E2E2E2E2E2E2E2E2E2E2E2E2E2E2E2E2E2E2E2E2E2E2E2E2E2E2E2E2E2E2E2E2E2E2E2E2E2E2E2E2E2E2E2E2E2E2E2E2E2E2E2E2E2E2E2E2E2E2E2E2E2E2E2E2E2E2E2E2E2E2E2E2E2E2E2E2E2E2E2E2E2E2E2E2E2E2E2E2E2E2E2E2E2E2E2E2E2E2E2E2E2E2E2F5E2E2F5E2F5F5E2F5E2F5E2E2E2E2E2E2E2E2E2E2
310
E2E2E2E2E2E2E2E2E2E2E2E2E2E2E2E2E2E2E2E2E2E2E2E2E2E2E2E2E2E2E2E2E2E2E2E2E2E2E2E2E2E2E2E2E2E2E2E2E2E2E2E2E2E2E2E2E2E2E2E2E2E2E2E2E2E2E2E2E2E2E2E2E2E2E2E2E2E2E2E2E2E2E2E2E2E2E2E2E2E2E2E2E2E2E2E2E2E2E2E2E2E2E2E2E2E2E2E2E2E2E2E2E2E2E2E2E2E2E2E2E2E2E2E2E2E2E2
310
E2E2E2E2E2E2E2E2E2E2E2E2E2E2E2E2E2E2E2E2E2E2E2E2E2E2E2E2E2E2E2E2F5E2E2F5E2F5F5E2F5E2F5E2E2E2E2E2E2E2E2E2E2E2E2E2E2E2E2E2E2E2E2E2E2E2E2E2E2E2E2E2E2E2E2E2E2E2E2E2E2E2E2E2E2E2E2E2E2E2E2E2E2E2E2E2E2E2E2E2E2E2E2E2E2E2E2E2E2E2E2E2E2E2E2E2E2E2E2E2E2E2E2E2E2E2E2
310
E2E2E2E2E2E2E2E2E2E2E2E2E2E2E2E2E2E2E2E2E2E2E2E2E2E2E2E2E2E2E2E2E2E2E2E2E2E2E2E2E2E2E2E2E2E2E2E2E2E2E2E2E2E2E2E2E2E2E2E2E2E2E2E2E2E2E2E2E2E2E2E2E2E2E2E2E2E2E2E2E2E2E2E2E2F5E2E2F5E2F5F5E2F5E2F5E2E2E2E2E2E2E2E2E2E2E2E2E2E2E2E2E2E2E2E2E2E2E2E2E2E2E2E2E2E2E2
310
E2E2E2E2E2E2E2E2E2E2E2E2E2E2E2E2E2E2E2E2E2E2E2E2E2E2E2E2E2E2E2E2E2E2E2E2E2E2E2E2E2E2E2E2E2E2E2E2E2E2E2E2E2E2E2E2E2E2E2E2E2E2E2E2E2E2E2E2E2E2E2E2E2E2E2E2E2E2E2E2E2E2E2E2E2E2E2E2E2E2E2E2E2E2E2E2E2E2E2E2E2E2E2E2E2E2E2E2E2E2E2E2E2E2E2E2E2E2E2E2E2E2E2E2E2E2E2
310
E2E2E2E2E2E2E2E2E2E2E2F5E2E2F5E2F5F5E2F5E2F5E2E2E2E2E2E2E2E2E2E2E2E2E2E2E2E2E2E2E2E2E2E2E2E2E2E2E2E2E2E2E2E2E2E2E2E2E2E2E2E2E2E2E2E2E2E2E2E2E2E2E2E2E2E2E2E2E2E2E2E2E2E2E2E2E2E2E2E2E2E2E2E2E2E2E2E2E2E2E2E2E2E2E2E2E2E2E2E2E2E2E2E2E2E2E2E2E2E2E2E2E2E2E2E2E2
310
E2E2E2E2E2E2E2E2E2E2E2E2E2E2E2E2E2E2E2E2E2E2E2E2E2E2E2E2E2E2E2E2E2E2E2E2E2E2E2E2E2E2E2E2E2E2F5F5F5F5F5E2F5F5F5F5F5F5F5E2E2E2E2E2F5E2E2F5E2F5F5E2E2E2F5E2E2E2E2E2E2E2E2E2E2E2E2E2E2E2E2E2E2E2E2E2E2E2E2E2E2E2E2E2E2E2E2E2E2E2E2E2E2E2E2E2E2E2E2E2E2E2E2E2E2E2E2
310
E2E2E2E2E2E2E2E2E2E2E2E2E2E2E2E2E2E2E2E2E2E2E2E2E2E2E2E2E2E2E2E2E2E2E2E2E2E2E2E2E2E2E2E2E2E2E2E2E2E2E2E2E2E2E2E2E2E2E2E2E2E2E2E2E2E2E2E2E2E2E2E2E2E2E2E2E2E2E2E2E2E2E2E2E2E2E2E2E2E2E2E2E2E2E2E2E2E2E2F5F5F5F5F5F5F5F5F5F5F5F5F5E2E2E2E2E2F5E2E2E2E2F5F5E2E2E2
310
F5E2E2E2E2E2E2E2E2E2E2E2E2E2E2E2E2E2E2E2E2E2E2E2E2E2E2E2E2E2E2E2E2E2E2E2E2E2E2E2E2E2E2E2E2E2E2E2E2E2E2E2E2E2E2E2E2E2E2E2E2E2E2E2E2E2E2E2E2E2E2E2E2E2E2E2E2E2E2E2E2E2E2E2E2E2E2E2E2E2E2E2E2E2E2E2E2E2E2E2E2E2E2E2E2E2E2E2E2E2E2E2E2E2E2E2E2E2E2E2E2E2E2E2E2E2E2
310
E2E2E2E2E2E2E2E2E2E2E2E2E2E2E2E2E2E2E2E2E2E2E2E2E2F5F5F5F5F5F5F5F5F5F5F5F5F5E2E2E2E2E2F5E2E2E2E2F5F5E2E2E2F5E2E2E2E2E2E2E2E2E2E2E2E2E2E2E2E2E2E2E2E2E2E2E2E2E2E2E2E2E2E2E2E2E2E2E2E2E2E2E2E2E2E2E2E2E2E2E2E2E2E2E2E2E2E2E2E2E2E2E2E2E2E2E2E2E2E2E2E2E2E2E2E2E2
310
E2E2E2E2E2E2E2E2E2E2E2E2E2E2E2E2E2E2E2E2E2E2E2E2E2E2E2E2E2E2E2E2E2E2E2E2E2E2E2E2E2E2E2E2E2E2E2E2E2E2E2E2E2E2E2E2E2E2E2E2E2E2E2E2E2E2E2E2E2E2E2E2E2E2E2E2E2E2E2E2E2E2E2E2E2E2E2E2E2E2E2E2E2E2E2E2F5E2E2E2E2F5F5E2E2E2F5E2E2E2E2E2E2E2E2E2E2E2E2E2E2E2E2E2E2E2E2
310
E2E2E2E2E2E2E2E2E2E2E2E2E2E2E2E2E2E2E2E2E2E2E2E2E2E2E2E2E2E2E2E2E2E2E2E2E2E2E2E2E2E2E2E2E2E2E2E2E2E2E2E2E2E2E2E2E2E2E2E2E2E2E2E2E2E2E2E2E2E2E2E2E2E2E2E2E2E2E2E2E2E2E2E2E2E2E2E2E2E2E2E2E2E2E2E2E2E2E2E2E2E2E2E2E2E2E2E2E2E2E2E2E2E2E2E2E2E2E2E2E2E2E2E2E2E2E2
310
E2E2E2E2E2E2E2E2E2E2E2E2E2E2E2E2E2E2E2E2E2E2F5E2E2E2E2F5F5E2E2E2F5E2E2E2E2E2E2E2E2E2E2E2E2E2E2E2E2E2E2E2E2E2E2E2E2E2E2E2E2E2E2E2E2E2E2E2E2E2E2E2E2E2E2E2E2E2E2E2E2E2E2E2E2E2E2E2E2E2E2E2E2E2E2E2E2E2E2E2E2E2E2E2E2E2E2E2E2E2E2E2E2E2E2E2E2E2E2E2E2E2E2E2E2E2E2
310
E2E2E2E2E2E2E2E2E2E2E2E2E2E2E2E2E2E2E2E2E2E2E2E2E2E2E2E2E2E2E2E2E2E2E2E2E2E2E2E2E2E2E2E2E2E2E2E2E2E2E2E2E2E2E2E2E2E2E2E2E2E2E2E2E2E2E2E2E2E2E2E2E2E2E2F5E2E2E2E2F5F5E2E2E2F5E2E2E2E2E2E2E2E2E2E2E2E2E2E2E2E2E2E2E2E2E2E2E2E2E2E2E2E2E2E2E2E2E2E2E2E2E2E2E2E2E2
310
E2E2E2E2E2E2E2E2E2E2E2E2E2E2E2E2E2E2E2E2E2E2E2E2E2E2E2E2E2E2E2E2E2E2E2E2E2E2E2E2E2E2E2E2E2E2E2E2E2E2E2E2E2E2E2E2E2E2E2E2E2E2E2E2E2E2E2E2E2E2E2E2E2E2E2E2E2E2E2E2E2E2E2E2E2E2E2E2E2E2E2E2E2E2E2E2E2E2E2E2E2E2E2E2E2E2E2E2E2E2E2E2E2E2E2E2E2E2E2E2E2E2E2E2E2E2E2
310
E2F5E2E2E2E2F5F5E2E2E2F5E2E2E2E2E2E2E2E2E2E2E2E2E2E2E2E2E2E2E2E2E2E2E2E2E2E2E2E2E2E2E2E2E2E2E2E2E2E2E2E2E2E2E2E2E2E2E2E2E2E2E2E2E2E2E2E2E2E2E2E2E2E2E2E2E2E2E2E2E2E2E2E2E2E2E2E2E2E2E2E2E2E2E2E2E2E2E2E2E2E2E2E2E2E2E2E2E2E2E2E2E2E2E2E2E2E2E2E2E2E2E2E2E2E2E2
310
E2E2E2E2E2E2E2E2E2E2E2E2E2E2E2E2E2E2E2E2E2E2E2E2E2E2E2E2E2E2E2E2E2E2E2E2E2E2E2E2E2E2E2E2E2E2E2E2E2E2E2E2E2E2F5E2E2E2E2F5F5E2E2E2F5E2E2E2E2E2E2E2E2E2E2E2E2E2E2E2E2E2E2E2E2E2E2E2E2E2E2E2E2E2E2E2E2E2E2E2E2E2E2E2E2E2E2E2E2E2E2E2E2E2E2E2E2E2E2E2E2E2E2E2E2E2E2
310
E2E2E2E2E2E2E2E2E2E2E2E2E2E2E2E2E2E2E2E2E2E2E2E2E2E2E2E2E2E2E2E2E2E2E2E2E2E2E2E2E2E2E2E2E2E2E2E2E2E2E2E2E2E2E2E2E2E2E2E2E2E2E2E2E2E2E2E2E2E2E2E2E2E2E2E2E2E2E2E2E2E2E2E2E2E2E2E2E2E2E2E2E2E2E2E2E2E2E2E2E2E2E2E2E2E2E2F5E2E2E2E2F5F5E2E2E2F5E2E2E2E2E2E2E2E2E2
310
E2E2E2E2E2E2E2E2E2E2E2E2E2E2E2E2E2E2E2E2E2E2E2E2E2E2E2E2E2E2E2E2E2E2E2E2E2E2E2E2E2E2E2E2E2E2E2E2E2E2E2E2E2E2E2E2E2E2E2E2E2E2E2E2E2E2E2E2E2E2E2E2E2E2E2E2E2E2E2E2E2E2E2E2E2E2E2E2E2E2E2E2E2E2E2E2E2E2E2E2E2E2E2E2E2E2E2E2E2E2E2E2E2E2E2E2E2E2E2E2E2E2E2E2E2E2E2
310
E2E2E2E2E2E2E2E2E2E2E2E2E2E2E2E2E2E2E2E2E2E2E2E2E2E2E2E2E2E2E2E2E2F5E2E2E2E2F5F5E2F5E2F5E2E2E2E2E2E2E2E2E2E2E2E2E2E2E2E2E2E2E2E2E2E2E2E2F5F5F5F5F5F5E2E2E2E2E2E2E2E2E2E2E2E2E2E2E2E2E2E2E2E2E2E2E2E2E2E2E2E2E2E2E2E2E2E2E2E2E2E2E2E2E2E2E2E2E2E2E2E2E2E2E2E2F5
310
F5F5F5F5F5E2E2E2E2E2E2E2E2E2E2E2E2E2E2E2E2E2E2E2E2E2E2E2F5F5F5F5F5F5E2E2E2E2E2E2E2E2E2E2E2E2E2E2E2E2E2E2E2E2E2E2E2E2E2E2E2E2E2E2E2E2F5F5F5F5F5F5F5E2E2E2E2E2E2E2E2E2E2E2E2E2F5E2E2F5E2F5F5E2F5E2F5E2E2E2E2E2E2E2E2E2E2E2E2E2E2E2E2E2E2E2E2E2E2E2E2F5F5F5F5F5F5
310
E2E2E2E2E2E2E2E2E2E2E2E2E2E2E2E2E2E2E2E2E2E2E2E2E2E2E2E2E2E2E2E2E2E2E2E2E2E2E2E2E2E2E2E2E2E2E2E2E2E2E2E2F5F5F5F5F5F5E2E2E2E2E2E2E2E2E2E2E2E2E2E2E2E2E2E2E2E2E2E2E2F5F5F5F5F5F5E2E2E2E2E2E2E2E2E2E2E2E2E2E2E2E2E2E2E2E2E2E2E2E2E2E2E2E2E2E2E2E2F5F5F5F5F5F5F5E2
310
E2E2E2E2E2E2E2E2E2E2E2E2F5E2E2F5E2F5F5E2F5E2F5E2E2E2E2E2E2E2E2E2E2E2E2E2E2E2E2E2E2E2E2E2F5F5F5F5F5F5F5F5E2E2E2E2E2F5F5E2E2E2E2E2E2E2E2E2E2E2E2E2E2E2E2E2E2E2E2E2E2E2E2E2E2E2F5E2E2E2E2E2E2E2E2E2E2E2E2E2E2E2E2E2E2E2E2F5F5F5E2E2E2E2E2E2E2E2E2E2E2E2E2E2E2E2E2
310
E2E2E2E2E2E2E2E2E2F5F5F5E2E2E2E2E2E2E2E2E2E2F5F5F5E2E2E2F5F5E2E2E2E2E2E2E2E2E2E2E2E2E2E2E2E2E2F5F5F5E2E2E2E2E2E2E2E2E2E2E2E2E2E2E2F5E2E2F5E2F5F5E2F5E2F5E2E2E2E2E2E2E2E2E2E2E2E2E2E2E2E2E2E2E2E2E2F5F5F5F5F5F5F5F5F5F5F5F5F5F5F5F5F5F5F5F5F5F5F5F5F5F5F5F5F5F5
310
F5F5F5F5F5F5F5F5F5F5F5F5F5F5F5F5F5F5F5F5F5F5F5F5F5F5F5F5F5F5F5F5F5F5F5F5E2E2E2E2E2E2E2E2E2E2E2E2E2E2E2E2E2E2E2E2E2E2E2E2E2F5F5F5F5F5F5F5F5F5F5F5F5F5F5F5F5F5F5F5F5F5F5F5F5F5F5F5F5F5F5F5F5F5F5F5F5F5F5F5F5F5F5F5E2E2E2E2E2E2E2E2E2E2E2E2E2E2F5E2E2F5E2F5F5E2F5
310
E2F5E2E2E2E2E2E2E2E2E2E2E2E2E2E2E2E2E2E2E2E2E2E2E2E2E2F5E2E2E2F5E2E2E2E2E2E2E2E2E2E2E2E2E2E2E2E2E2E2E2E2E2E2E2E2E2E2E2E2E2E2E2E2E2E2E2E2E2E2E2E2E2E2E2E2E2E2E2E2E2E2E2E2E2F5E2E2F5E2E2E2E2E2E2E2E2E2E2E2E2E2E2E2E2E2E2E2E2E2E2E2E2E2F5E2E2E2F5E2E2E2E2E2E2E2E2
310
E2E2E2E2E2E2E2E2E2E2E2E2E2E2E2E2E2E2E2E2E2E2E2E2E2F5E2E2E2F5E2E2E2E2E2E2E2E2E2E2E2E2E2E2F5E2E2F5E2F5F5E2F5E2F5E2E2E2E2E2E2E2E2E2E2E2E2E2E2E2E2E2E2E2E2E2E2E2E2E2F5E2E2E2F5E2E2E2E2E2E2E2E2E2E2E2E2E2E2E2E2E2E2E2E2E2E2E2E2E2E2E2E2E2E2E2E2E2E2E2E2E2E2E2E2E2E2
310
E2E2E2E2E2E2E2E2E2E2E2F5E2E2F5E2E2E2E2E2E2E2E2E2E2E2E2E2E2E2E2E2E2E2E2E2E2E2E2E2F5E2E2E2F5E2E2E2E2E2E2E2E2E2E2E2E2E2E2E2E2E2E2E2E2E2E2E2E2E2E2E2E2E2E2E2E2E2F5E2E2E2F5E2E2E2E2E2E2E2E2E2E2E2E2E2E2F5E2E2F5E2F5F5E2F5E2F5E2E2E2E2E2E2E2E2E2E2E2E2E2E2E2E2E2E2E2
310
E2E2E2E2E2E2F5F5F5F5F5E2E2E2E2E2E2E2E2E2E2E2E2E2E2E2E2E2E2E2E2E2E2E2E2E2E2E2E2E2E2E2E2E2E2E2E2E2E2E2E2E2E2E2E2E2E2E2E2E2E2E2E2E2F5F5F5F5E2E2E2E2E2E2E2E2E2E2E2E2E2E2E2E2E2E2E2E2E2E2E2E2F5F5F5F5F5F5E2E2E2E2E2E2E2E2E2E2E2E2E2E2E2E2E2E2E2E2E2E2E2E2E2E2E2E2E2
310
E2E2E2E2F5F5F5F5F5E2E2E2E2E2E2E2E2E2E2E2E2E2E2F5E2E2F5E2F5F5E2F5E2F5E2E2E2E2E2E2E2E2E2E2E2E2E2E2E2E2E2E2E2E2E2E2E2E2E2E2F5F5F5F5F5F5F5F5F5F5F5F5F5F5F5F5F5F5F5F5F5F5F5F5F5F5F5F5F5F5F5F5F5F5F5F5F5F5F5F5F5F5F5F5F5F5F5F5F5F5F5F5F5F5F5F5F5F5F5F5E2E2E2E2E2E2E2
310
E2E2E2E2E2E2E2E2E2E2E2E2E2E2E2E2E2E2F5F5F5E2E2F5F5F5F5F5F5F5F5F5F5F5F5F5F5F5F5F5F5F5F5F5F5F5F5F5F5F5F5F5F5F5F5F5F5F5E2E2F5F5E2E2E2E2E2E2E2E2E2E2E2E2E2E2F5E2E2F5E2F5F5E2F5E2F5E2E2E2E2E2E2E2E2E2E2E2E2E2E2E2E2E2E2E2E2E2E2E2E2E2E2F5F5F5E2E2E2E2E2E2E2E2E2E2E2
310
E2E2F5F5F5F5F5F5E2E2E2F5F5F5F5F5E2F5F5F5E2E2E2E2E2F5E2E2E2E2E2E2E2E2E2E2E2E2E2E2E2E2E2E2F5F5E2E2E2E2E2E2E2E2E2E2E2E2E2E2E2E2E2E2E2E2E2E2E2E2E2F5F5F5E2E2E2E2E2E2E2E2E2E2E2E2E2E2E2E2E2F5E2E2E2F5E2E2E2E2E2E2E2E2E2E2E2E2E2E2E2E2E2F5F5E2E2E2E2E2E2E2E2E2E2E2E2
310
E2E2F5E2E2F5E2F5F5E2F5E2F5E2E2E2E2E2E2E2E2E2E2E2E2E2E2E2E2E2E2E2E2E2E2E2E2F5F5F5F5F5F5F5F5F5F5F5F5F5F5F5F5F5F5F5F5F5F5F5F5F5F5F5F5F5F5F5F5F5F5F5F5F5F5F5F5F5F5F5F5F5F5F5F5F5F5F5F5F5F5F5F5F5F5F5F5F5F5F5F5F5E2E2E2E2E2E2E2E2E2E2E2E2E2E2E2E2E2E2E2E2F5F5F5F5F5
310
F5F5F5F5F5F5F5F5F5F5F5F5F5F5F5F5F5F5F5F5F5F5F5F5F5F5F5F5F5F5F5F5F5F5F5F5F5F5F5F5F5F5F5E2E2E2E2E2E2E2E2E2E2E2E2F5E2E2F5E2F5F5E2F5E2F5E2E2E2E2E2E2E2E2E2E2E2E2E2E2E2E2E2E2E2E2E2E2E2E2F5E2E2E2E2E2E2E2E2E2E2E2E2E2E2E2E2E2E2E2E2E2E2E2E2E2E2E2E2E2E2E2E2E2E2E2E2
310
E2E2E2E2E2E2E2E2E2E2E2E2E2E2E2E2E2E2E2E2E2E2E2E2E2E2F5F5E2E2E2E2E2E2E2E2E2E2E2E2E2E2E2E2E2E2E2E2F5F5E2E2E2E2E2E2E2E2E2E2E2E2E2E2E2E2E2E2E2E2E2E2E2E2E2E2E2E2E2E2E2E2E2E2E2E2E2E2E2E2E2E2E2E2E2F5E2E2E2E2E2E2E2E2E2E2E2E2F5E2E2F5E2F5F5E2F5E2F5E2E2E2E2E2E2E2E2
310
E2E2E2E2E2E2E2E2E2E2E2E2E2E2E2E2F5E2E2E2E2E2E2E2E2E2E2E2E2E2E2E2E2E2E2E2E2E2E2E2E2E2E2E2E2E2E2E2E2E2E2E2E2E2E2E2E2E2E2E2E2E2E2E2E2E2E2E2E2E2E2E2E2E2E2E2E2E2E2F5F5E2E2E2E2E2E2E2E2E2E2E2E2E2E2E2E2E2E2E2E2F5F5E2E2E2E2E2E2E2E2E2E2E2E2E2E2E2E2E2E2E2E2E2E2E2E2
310
E2E2E2E2E2E2E2E2E2E2E2E2E2E2E2E2E2E2E2E2E2F5E2E2E2E2E2E2E2E2E2E2E2E2F5E2E2F5E2F5F5E2F5E2F5E2E2E2E2E2E2E2E2E2E2E2E2E2E2E2E2E2E2E2E2E2E2E2E2F5E2E2E2E2E2E2E2E2E2E2E2E2E2E2E2E2E2E2E2E2E2E2E2E2E2E2E2E2E2E2E2E2E2E2E2E2E2E2E2E2E2E2E2E2E2E2E2E2E2E2E2E2E2E2E2E2E2
310
E2E2E2E2E2F5E2E2E2E2E2E2E2E2E2E2E2E2E2E2E2E2E2E2E2E2E2F5F5E2E2E2E2E2E2E2E2E2E2E2E2E2E2E2E2E2E2E2E2E2E2E2E2E2E2E2E2E2E2E2E2E2E2E2E2E2E2E2E2E2E2E2E2E2F5E2E2E2E2E2E2E2E2E2E2E2E2F5E2E2F5E2F5F5E2F5E2F5E2E2E2E2E2E2E2E2E2E2E2E2E2E2E2E2E2E2E2E2E2E2E2E2F5F5E2E2E2
310
E2E2E2E2E2E2E2E2E2E2E2E2E2E2E2E2E2E2E2E2E2E2E2E2E2E2E2E2E2E2E2E2E2E2E2E2E2E2E2E2E2E2E2E2E2E2E2E2E2E2E2E2E2E2E2E2E2E2F5E2E2E2E2E2E2E2E2E2E2E2E2E2E2E2E2E2E2E2E2E2E2F5E2E2E2E2E2E2E2E2E2E2E2E2E2E2E2E2E2E2E2E2E2E2E2E2E2E2E2E2E2E2E2E2E2E2E2E2E2E2E2E2E2E2E2E2E2
310
F5E2E2E2E2E2E2E2E2E2E2E2E2F5E2E2F5E2F5F5E2F5E2F5E2E2E2E2E2E2E2E2E2E2E2E2E2E2E2E2E2E2E2E2E2E2E2E2F5F5E2E2E2E2E2E2E2E2E2E2E2E2E2E2E2E2E2E2E2E2E2E2E2E2E2E2E2E2E2E2E2E2E2E2E2E2E2E2E2E2E2E2E2E2E2E2E2E2E2E2E2E2E2E2E2E2E2E2E2E2E2F5E2E2E2E2E2E2E2E2E2E2E2E2E2E2E2
310
E2E2E2E2E2E2E2F5E2E2E2E2E2E2E2E2E2E2E2E2E2E2E2E2E2E2E2E2E2E2E2E2E2E2E2E2E2E2E2E2E2E2E2E2E2E2E2E2E2E2E2E2E2F5E2E2E2E2E2E2E2E2E2E2E2E2F5E2E2F5E2F5F5E2F5E2F5E2E2E2E2E2E2E2E2E2E2E2E2E2E2E2E2E2E2E2E2E2E2E2E2F5F5F5F5F5F5F5F5F5F5F5F5F5F5F5F5F5F5F5F5F5F5F5F5F5F5
310
F5F5F5F5F5F5F5F5F5F5F5F5F5F5F5F5F5F5F5F5F5F5F5F5F5F5F5F5F5F5F5F5F5F5F5F5F5F5E2E2E2E2E2E2E2E2E2E2E2E2E2E2E2E2E2E2E2E2E2E2F5F5F5F5F5F5F5F5F5F5F5F5F5F5F5F5F5F5F5F5F5F5F5F5F5F5F5F5F5F5F5F5F5F5F5F5F5F5F5F5F5F5F5F5F5F5F5E2E2E2E2E2E2E2E2E2E2E2E2F5E2E2F5E2F5F5E2
310
E2E2F5E2E2E2E2E2E2E2E2E2E2E2E2E2E2E2E2E2E2E2E2E2E2E2E2E2E2E2E2E2E2E2E2E2E2E2E2E2E2E2E2E2E2E2E2E2E2E2E2E2E2E2E2E2E2E2E2E2E2E2E2E2E2E2E2E2E2E2E2E2E2E2E2E2E2E2E2E2E2E2E2E2E2E2E2E2E2E2E2E2E2E2E2E2E2E2E2E2E2E2E2E2E2E2E2E2E2E2E2E2E2E2E2E2E2E2E2E2E2E2E2E2E2E2E2
310
E2E2E2E2E2E2E2E2E2E2E2E2E2E2E2E2E2E2E2E2E2E2E2E2E2E2E2E2E2E2E2E2E2E2E2E2E2E2E2E2E2E2E2E2E2F5E2E2E2E2F5F5E2E2E2F5E2E2E2E2E2E2E2E2E2E2E2E2E2E2E2E2E2E2E2E2E2E2E2E2E2E2E2E2E2E2E2E2E2E2E2E2E2E2E2E2E2E2E2E2E2E2E2E2E2E2E2E2E2E2E2E2E2E2E2E2E2E2E2E2E2E2E2E2E2E2E2
310
E2E2E2E2E2E2E2E2E2E2E2E2E2E2E2E2E2E2E2E2E2E2E2E2E2E2E2E2E2E2E2E2E2E2E2E2E2E2E2E2E2E2E2E2E2E2E2E2E2E2E2E2E2E2E2E2E2E2E2E2E2E2E2E2E2E2E2E2E2E2E2E2E2E2E2E2E2E2E2E2E2E2E2E2E2E2E2E2E2E2E2E2E2E2E2E2E2E2F5E2E2E2E2F5F5E2E2E2F5E2E2E2E2E2E2E2E2E2E2E2E2E2E2E2E2E2E2
310
E2E2E2E2E2E2E2E2E2E2E2E2E2E2E2E2E2E2E2E2E2E2E2E2E2E2E2E2E2E2E2E2E2E2E2E2E2E2E2E2E2E2E2E2E2E2E2E2E2E2E2E2E2E2E2E2E2E2E2E2E2E2E2E2E2E2E2E2E2E2E2E2E2E2E2E2E2E2E2E2E2E2E2E2E2E2E2E2E2E2E2E2E2E2E2E2E2E2E2E2E2E2E2E2E2E2E2E2E2E2E2E2E2E2E2E2E2E2E2E2E2E2E2E2E2E2E2
310
E2E2E2E2E2E2E2E2E2E2E2E2E2E2E2E2E2E2E2E2E2E2E2E2F5E2E2E2E2F5F5E2E2E2F5E2E2E2E2E2E2E2E2E2E2E2E2E2E2E2E2E2E2E2E2E2E2E2E2E2E2E2E2E2E2E2E2E2E2E2E2E2E2E2E2E2E2E2E2E2E2E2E2E2E2E2E2E2E2E2E2E2E2E2E2E2E2E2E2E2E2E2E2E2E2E2E2E2E2E2E2E2E2E2E2E2E2E2E2E2E2E2E2E2E2E2E2
310
E2E2E2E2E2E2E2E2E2E2E2E2E2E2E2E2E2E2E2E2E2E2E2E2E2E2E2E2E2E2E2E2E2E2E2E2E2E2E2E2E2E2E2E2E2E2E2E2E2E2E2E2E2E2E2E2E2E2E2E2E2E2E2E2E2E2E2E2E2E2E2E2E2E2E2E2E2F5E2E2E2E2F5F5E2E2E2F5E2E2E2E2E2E2E2E2E2E2E2E2E2E2E2E2E2E2E2E2E2E2E2E2E2E2E2E2E2E2E2E2E2E2E2E2E2E2E2
310
E2E2E2E2E2E2E2E2E2E2E2E2E2E2E2E2E2E2E2E2E2E2E2E2E2E2E2E2E2E2E2E2E2E2E2E2E2E2E2E2E2E2E2E2E2E2E2E2E2E2E2E2E2E2E2E2E2E2E2E2E2E2E2E2E2E2E2E2E2E2E2E2E2E2E2E2E2E2E2E2E2E2E2E2E2E2E2E2E2E2E2E2E2E2E2E2E2E2E2E2E2E2E2E2E2E2E2E2E2E2E2E2E2E2E2E2E2E2E2E2E2E2E2E2E2E2E2
310
E2E2E2F5E2E2E2E2F5F5E2E2E2F5E2E2E2E2E2E2E2E2E2E2E2E2E2E2E2E2E2E2E2E2E2E2E2E2E2E2E2E2E2E2E2E2E2E2E2E2E2E2E2E2E2E2E2E2E2E2E2E2E2E2E2E2E2E2E2E2E2E2E2E2E2E2E2E2E2E2E2E2E2E2E2E2E2E2E2E2E2E2E2E2E2E2E2E2E2E2E2E2E2E2E2E2E2E2E2E2E2E2E2E2E2E2E2E2E2E2E2E2E2E2E2E2E2
310
E2E2E2E2E2E2E2E2E2E2E2E2E2E2E2E2E2E2E2E2E2E2E2E2E2E2E2E2E2E2E2E2E2E2E2E2E2E2E2E2E2E2E2E2E2E2E2E2E2E2E2E2E2E2E2E2F5E2E2E2E2F5F5E2E2E2F5E2E2E2E2E2E2E2E2E2E2E2E2E2E2E2E2E2E2E2E2E2E2E2E2E2E2E2E2E2E2E2E2E2E2E2E2E2E2E2E2E2E2E2E2E2E2E2E2E2E2E2E2E2E2E2E2E2E2E2E2
310
E2E2E2E2E2E2E2E2E2E2E2E2E2E2E2E2E2E2E2E2E2E2E2E2E2E2E2E2E2E2E2E2E2E2E2E2E2E2E2E2E2E2E2E2E2E2E2E2E2E2E2E2E2E2E2E2E2E2E2E2E2E2E2E2E2E2E2E2E2E2E2E2E2E2E2E2E2E2E2E2E2E2E2E2E2E2E2E2E2E2E2E2E2E2E2E2E2E2E2E2E2E2E2E2E2E2E2E2E2F5E2E2E2E2F5F5E2E2E2F5E2E2E2E2E2E2E2
310
E2E2E2E2E2E2E2E2E2E2E2E2E2E2E2E2E2E2E2E2E2E2E2E2E2E2E2E2E2E2E2E2E2E2E2E2E2E2E2E2E2E2E2E2E2E2E2E2E2E2E2E2E2E2E2E2E2E2E2E2E2E2E2E2E2E2E2E2E2E2E2E2E2E2E2E2E2E2E2E2E2E2E2E2E2E2E2E2E2E2E2E2E2E2E2E2E2E2E2E2E2E2E2E2E2E2E2E2E2E2E2E2E2E2E2E2E2E2E2E2E2E2E2E2E2E2E2
310
E2E2E2E2E2E2E2E2E2E2E2E2E2E2E2E2E2E2E2E2E2E2E2E2E2E2E2E2E2E2E2E2E2E2E2F5E2E2E2E2F5F5E2F5E2F5E2E2E2E2E2E2E2E2E2E2E2E2E2E2E2E2E2E2E2E2E2E2E2E2E2E2E2E2E2E2E2E2E2E2E2E2E2E2E2E2E2E2E2E2E2E2E2E2E2E2E2E2E2E2E2E2E2E2E2E2E2E2E2E2E2E2E2E2E2E2E2E2E2E2E2E2E2E2E2E2E2
310
E2E2E2E2E2E2E2E2E2E2E2E2E2E2E2E2E2E2E2E2E2E2E2E2E2E2E2E2E2E2E2E2E2E2E2E2E2E2E2E2E2E2E2E2E2E2E2E2E2E2E2E2E2E2E2E2E2E2E2E2E2E2E2E2E2E2E2E2E2E2E2E2E2E2E2E2E2E2E2E2E2E2E2E2E2E2E2E2F5E2E2F5E2F5F5E2F5E2F5E2E2E2E2E2E2E2E2E2E2E2E2E2E2E2E2E2E2E2E2E2E2E2E2E2E2E2E2
310
E2E2E2E2E2E2E2E2E2E2E2E2E2E2E2E2E2E2E2E2E2E2E2E2E2E2E2E2E2E2E2E2E2E2E2E2E2E2E2E2E2E2E2E2E2E2E2E2E2E2E2E2E2E2E2E2E2E2E2E2E2E2E2E2E2E2E2E2E2E2E2E2E2E2E2E2E2E2E2E2E2E2E2E2E2E2E2E2E2E2E2E2E2E2E2E2E2E2E2E2E2E2E2E2E2E2E2E2E2E2E2E2E2E2E2E2E2E2E2E2E2E2E2E2E2E2E2
310
E2E2E2E2E2E2E2E2E2E2E2E2E2E2F5E2E2F5E2F5F5E2F5E2F5E2E2E2E2E2E2E2E2E2E2E2E2E2E2E2E2E2E2E2E2E2E2E2E2E2E2E2E2E2E2E2E2E2E2E2E2E2E2E2E2E2E2E2E2E2E2E2E2E2E2E2E2E2E2E2E2E2E2E2E2E2E2E2E2E2E2E2E2E2E2E2E2E2E2E2E2E2E2E2E2E2E2E2E2E2E2E2E2E2E2E2E2E2E2E2E2E2E2E2E2E2E2
310
E2E2E2E2E2E2E2E2E2E2E2E2E2E2E2E2E2E2E2E2E2E2E2E2E2E2E2E2E2E2E2E2E2E2E2E2E2E2E2E2E2E2E2E2E2E2E2E2E2E2E2E2E2E2E2E2E2E2E2E2E2E2E2E2E2E2E2F5E2E2F5E2F5F5E2F5E2F5E2E2E2E2E2E2E2E2E2E2E2E2E2E2E2E2E2E2E2E2E2E2E2E2E2E2E2E2E2E2E2E2E2E2E2E2E2E2E2E2E2E2E2E2E2E2E2E2E2
310
E2E2E2E2E2E2E2E2E2E2E2E2E2E2E2E2E2E2E2E2E2E2E2E2E2E2E2E2E2E2E2E2E2E2E2E2E2E2E2E2E2E2E2E2E2E2E2E2E2E2E2E2E2E2E2E2E2E2E2E2E2E2E2E2E2E2E2E2E2E2E2E2E2E2E2E2E2E2E2E2E2E2E2E2E2E2E2E2E2E2E2E2E2E2E2E2E2E2E2E2E2E2E2E2E2E2E2E2E2E2E2E2E2E2E2E2E2E2E2E2F5E2E2F5E2F5F5
310
E2F5E2F5E2E2E2E2E2E2E2E2E2E2E2E2E2E2E2E2E2E2E2E2E2E2E2E2E2E2E2E2E2E2E2E2E2E2E2E2E2E2E2E2E2E2E2E2E2E2E2E2E2E2E2E2E2E2E2E2E2E2E2E2E2E2E2E2E2E2E2E2E2E2E2E2E2E2E2E2E2E2E2E2E2E2E2E2E2E2E2E2E2E2E2E2E2E2E2E2E2E2E2E2E2E2E2E2E2E2E2E2E2E2E2E2E2E2E2E2E2E2E2E2E2E2E2
310
E2E2E2E2E2E2E2E2E2E2E2E2E2E2E2E2E2E2E2E2E2E2E2E2E2E2E2E2E2E2E2E2E2E2E2E2E2E2E2E2E2E2E2E2E2E2F5E2E2F5E2F5F5E2F5E2F5E2E2E2E2E2E2E2E2E2E2E2E2E2E2E2E2E2E2E2E2E2E2E2E2E2E2E2E2E2E2E2E2E2E2E2E2E2E2E2E2E2E2E2E2E2E2E2E2E2E2E2E2E2E2E2E2E2E2E2E2E2E2E2E2E2E2E2E2E2E2
310
E2E2E2E2E2E2E2E2E2E2E2E2E2E2E2E2E2E2E2E2E2E2E2E2E2E2E2E2E2E2E2E2E2E2E2E2E2E2E2E2E2E2E2E2E2E2E2E2E2E2E2E2E2E2E2E2E2E2E2E2E2E2E2E2E2E2E2E2E2E2E2E2E2E2E2E2E2E2E2E2E2E2E2E2E2E2E2E2E2E2E2E2E2E2E2E2E2E2E2F5E2E2F5E2F5F5E2F5E2F5E2E2E2E2E2E2E2E2E2E2E2E2E2E2E2E2E2
310
E2E2E2E2E2E2E2E2E2E2E2E2E2E2E2E2E2E2E2E2E2E2E2E2E2E2E2E2E2E2E2E2E2E2E2E2E2E2E2E2E2E2E2E2E2E2E2E2E2E2E2E2E2E2E2E2E2E2E2E2E2E2E2E2E2E2E2E2E2E2E2E2E2E2E2E2E2E2E2E2E2E2E2E2E2E2E2E2E2E2E2E2E2E2E2E2E2E2E2E2E2E2E2E2E2E2E2E2E2E2E2E2E2E2E2E2E2E2E2E2E2E2E2E2E2E2E2
310
E2E2E2E2E2E2E2E2E2E2E2E2E2E2E2E2E2E2E2E2E2E2E2E2E2F5E2E2F5E2F5F5E2F5E2F5E2E2E2E2E2E2E2E2E2E2E2E2E2E2E2E2E2E2E2E2E2E2E2E2E2E2E2E2E2E2E2E2E2E2E2E2E2E2E2E2E2E2E2E2E2E2E2E2E2E2E2E2E2E2E2E2E2E2E2E2E2E2E2E2E2E2E2E2E2E2E2E2E2E2E2E2E2E2E2E2E2E2E2E2E2E2E2E2E2E2E2
310
E2E2E2E2E2E2E2E2E2E2E2E2E2E2E2E2E2E2E2E2E2E2E2E2E2E2E2E2E2E2E2E2E2E2E2E2E2E2E2E2E2E2E2E2E2E2E2E2E2E2E2E2E2E2E2E2E2E2E2E2E2E2E2E2E2E2E2E2E2E2E2E2E2E2E2E2E2E2F5E2E2F5E2F5F5E2F5E2F5E2E2E2E2E2E2E2E2E2E2E2E2E2E2E2E2E2E2E2E2E2E2E2E2E2E2E2E2E2E2E2E2E2E2E2E2E2E2
310
E2E2E2E2E2E2E2E2E2E2E2E2E2E2E2E2E2E2E2E2E2E2E2E2E2E2E2E2E2E2E2E2E2E2E2E2E2E2E2E2E2E2E2E2E2E2E2E2E2E2E2E2E2E2E2E2E2E2E2E2E2E2E2E2E2E2E2E2E2E2E2E2E2E2E2E2E2E2E2E2E2E2E2E2E2E2E2E2E2E2E2E2E2E2E2E2E2E2E2E2E2E2E2E2E2E2E2E2E2E2E2E2E2E2E2E2E2E2E2E2E2E2E2E2E2E2E2
310
E2E2E2E2F5E2E2F5E2F5F5E2F5E2F5E2E2E2E2E2E2E2E2E2E2E2E2E2E2E2E2E2E2E2E2E2E2E2E2E2E2E2E2E2E2E2E2E2E2E2E2E2E2E2E2E2E2E2E2E2E2E2E2E2E2E2E2E2E2E2E2E2E2E2E2E2E2E2E2E2E2E2E2E2E2E2E2E2E2E2E2E2E2E2E2E2E2E2E2E2E2E2E2E2E2E2E2E2E2E2E2E2E2E2E2E2E2E2E2E2E2E2E2E2E2E2E2
310
E2E2E2E2E2E2E2E2E2E2E2E2E2E2E2E2E2E2E2E2E2E2E2E2E2E2E2E2E2E2E2E2E2E2E2E2E2E2E2E2E2E2E2E2E2E2E2E2E2E2E2E2E2E2E2E2E2F5E2E2F5E2F5F5E2F5E2F5E2E2E2E2E2E2E2E2E2E2E2E2E2E2E2E2E2E2E2E2E2E2E2E2E2E2E2E2E2E2E2E2E2E2E2E2E2E2E2E2E2E2E2E2E2E2E2E2E2E2E2E2E2E2E2E2E2E2E2
310
E2E2E2E2E2E2E2E2E2E2E2E2E2E2E2E2E2E2E2E2E2E2E2E2E2E2E2E2E2E2E2E2E2E2E2E2E2E2E2E2E2E2E2E2E2E2E2E2E2E2E2E2E2E2E2E2E2E2E2E2E2E2E2E2E2E2E2E2E2E2E2E2E2E2E2E2E2E2E2E2E2E2E2E2E2E2E2E2E2E2E2E2E2E2E2E2E2E2E2E2E2E2E2E2E2E2E2E2E2E2F5E2E2F5E2F5F5E2F5E2F5E2E2E2E2E2E2
310
E2E2E2E2E2E2E2E2E2E2E2E2E2E2E2E2E2E2E2E2E2E2E2E2E2E2E2E2E2E2E2E2E2E2E2E2E2E2E2E2E2E2E2E2E2E2E2E2E2E2E2E2E2E2E2E2E2E2E2E2E2E2E2E2E2E2E2E2E2E2E2E2E2E2E2E2E2E2E2E2E2E2E2E2E2E2E2E2E2E2E2E2E2E2E2E2E2E2E2E2E2E2E2E2E2E2E2E2E2E2E2E2E2E2E2E2E2E2E2E2E2E2E2E2E2E2E2
310
E2E2E2E2E2E2E2E2E2E2E2E2E2E2E2E2E2E2E2E2E2E2E2E2E2E2E2E2E2E2E2E2E2E2E2E2F5E2E2F5E2F5F5E2F5E2F5E2E2E2E2E2E2E2E2E2E2E2E2E2E2E2E2E2E2E2E2E2E2E2E2E2E2E2E2E2E2E2E2E2E2E2E2E2E2E2E2E2E2E2E2E2E2E2E2E2E2E2E2E2E2E2E2E2E2E2E2E2E2E2E2E2E2E2E2E2E2E2E2E2E2E2E2E2E2E2E2
310
E2E2E2E2E2E2E2E2E2E2E2E2E2E2E2E2E2E2E2E2E2E2E2E2E2E2E2E2E2E2E2E2E2E2E2E2E2E2E2E2E2E2E2E2E2E2E2E2E2E2E2E2E2E2E2E2E2E2E2E2E2E2E2E2E2E2E2E2E2E2E2E2E2E2E2E2E2E2E2E2E2E2E2E2E2E2E2E2E2F5E2E2F5E2F5F5E2F5E2F5E2E2E2E2E2E2E2E2E2E2E2E2E2E2E2E2E2E2E2E2E2E2E2E2E2E2E2
310
E2E2E2E2E2E2E2E2E2E2E2E2E2E2E2E2E2E2E2E2E2E2E2E2E2E2E2E2E2E2E2E2E2E2E2E2E2E2E2E2E2E2E2E2E2E2E2E2E2E2E2E2E2E2E2E2E2E2E2E2E2E2E2E2E2E2E2E2E2E2E2E2E2E2E2E2E2E2E2E2E2E2E2E2E2E2E2E2E2E2E2E2E2E2E2E2E2E2E2E2E2E2E2E2E2E2E2E2E2E2E2E2E2E2E2E2E2E2E2E2E2E2E2E2E2E2E2
310
E2E2E2E2E2E2E2E2E2E2E2E2E2E2E2F5E2E2F5E2F5F5E2F5E2F5E2E2E2E2E2E2E2E2E2E2E2E2E2E2E2E2E2E2E2E2E2E2E2E2E2E2E2E2E2E2E2E2E2E2E2E2E2E2E2E2E2E2E2E2E2E2E2E2E2E2E2E2E2E2E2E2E2E2E2E2E2E2E2E2E2E2E2E2E2E2E2E2E2E2E2E2E2E2E2E2E2E2E2E2E2E2E2E2E2E2E2E2E2E2E2E2E2E2E2E2E2
310
E2E2E2E2E2E2E2E2E2E2E2E2E2E2E2E2E2E2E2E2E2E2E2E2E2E2E2E2E2E2E2E2E2E2E2E2E2E2E2E2E2E2E2E2E2E2E2E2E2E2E2E2E2E2E2E2E2E2E2E2E2E2E2E2E2E2E2E2F5E2E2F5E2F5F5E2F5E2F5E2E2E2E2E2E2E2E2E2E2E2E2E2E2E2E2E2E2E2E2E2E2E2E2E2E2E2E2E2E2E2E2E2E2E2E2E2E2E2E2E2E2E2E2E2E2E2E2
310
E2E2E2E2E2E2E2E2E2E2E2E2E2E2E2E2E2E2E2E2E2E2E2E2E2E2E2E2E2E2E2E2E2E2E2E2E2E2E2E2E2E2E2E2E2E2E2E2E2E2E2E2E2E2E2E2E2E2E2E2E2E2E2E2E2E2E2E2E2E2E2E2E2E2E2E2E2E2E2E2E2E2E2E2E2E2E2E2E2E2E2E2E2E2E2E2E2E2E2E2E2E2E2E2E2E2E2E2E2E2E2E2E2E2E2E2E2E2E2E2E2F5E2E2F5E2F5
310
F5E2E2E2F5E2E2E2E2E2E2E2E2E2E2E2E2E2E2E2E2E2E2E2E2E2E2E2E2E2E2E2E2E2E2E2E2E2E2E2E2E2E2E2E2E2E2E2E2E2E2E2E2E2E2E2E2E2E2E2E2E2E2E2E2E2E2E2E2E2E2E2E2E2E2E2E2E2E2E2E2E2E2E2E2E2E2E2E2E2E2E2E2E2E2E2E2E2E2E2E2E2E2E2E2E2E2E2E2E2E2E2E2E2E2E2E2E2E2E2E2E2E2E2E2E2E2
310
E2E2E2E2E2E2E2E2E2E2E2E2E2E2E2E2E2E2E2E2E2E2E2E2E2E2E2E2E2E2E2E2E2E2E2E2E2E2E2E2E2E2E2E2E2E2E2F5E2E2E2E2F5F5E2E2E2F5E2E2E2E2E2E2E2E2E2E2E2E2E2E2E2E2E2E2E2E2E2E2E2E2F5F5F5F5F5F5F5F5F5F5F5F5F5F5F5F5F5F5F5F5F5F5F5F5F5F5F5F5F5F5F5F5F5F5F5F5F5F5F5F5F5F5F5F5F5
310
F5F5F5F5F5F5F5F5F5F5F5F5F5F5F5F5F5F5F5F5E2E2E2E2E2E2E2E2E2E2E2E2E2E2E2E2E2E2E2E2E2E2E2E2E2E2E2E2E2E2E2E2E2E2E2E2E2E2E2E2E2E2E2E2E2E2E2E2E2E2E2E2E2E2E2E2E2E2E2E2E2E2E2E2E2E2E2E2E2E2E2E2E2E2E2E2E2E2E2E2F5E2E2E2E2F5F5E2E2E2F5E2E2E2E2E2E2E2E2E2E2E2E2E2E2E2E2
310
E2E2E2E2E2E2E2E2F5F5F5F5F5F5F5F5F5F5F5F5F5F5F5F5F5F5F5F5F5F5F5F5F5F5F5F5F5F5F5F5F5F5F5F5F5F5F5F5F5F5F5F5F5F5F5F5F5F5F5F5F5F5F5F5F5F5F5F5F5F5F5F5F5E2E2E2E2E2E2E2E2E2E2E2E2E2E2E2E2E2E2E2E2E2E2E2E2E2E2E2E2E2E2E2E2E2E2E2E2E2E2E2E2E2E2E2E2E2E2E2E2E2E2E2E2E2E2
310
E2E2E2E2E2E2E2E2E2E2E2E2E2E2E2E2E2E2E2E2E2E2E2E2E2E2F5E2E2E2E2F5F5E2E2E2F5E2E2E2E2E2E2E2E2E2E2E2E2E2E2E2E2E2E2E2E2E2E2E2E2F5F5E2E2E2E2E2E2E2E2E2E2E2E2E2E2E2E2E2E2E2E2E2E2E2E2E2E2E2E2E2E2E2E2E2E2E2E2E2E2E2E2E2E2E2E2E2E2E2E2E2E2E2E2E2E2E2E2E2E2E2E2E2F5F5E2
310
E2E2E2E2E2E2E2E2E2E2E2E2E2E2E2E2E2E2E2E2E2E2E2E2E2E2E2E2E2E2E2E2E2E2E2E2E2E2E2E2E2E2E2E2E2E2E2E2E2E2E2E2E2E2E2E2E2E2E2E2E2E2E2E2E2E2E2E2E2E2E2E2E2E2E2E2E2E2E2F5E2E2E2E2F5F5E2E2E2F5E2E2E2E2E2E2E2E2E2E2E2E2E2E2E2E2E2E2E2E2E2E2E2E2F5F5E2E2E2E2E2E2E2E2E2E2E2
310
E2E2E2E2E2E2E2E2E2E2E2E2E2E2E2E2E2E2E2E2E2E2E2E2E2E2E2E2E2E2E2E2E2E2E2E2E2E2E2E2E2E2E2E2E2E2E2E2E2E2F5F5E2E2E2E2E2E2E2E2E2E2E2E2E2E2E2E2E2E2E2E2E2E2E2E2E2E2E2E2E2E2E2E2E2E2E2E2E2E2E2E2E2E2E2E2E2E2E2E2E2E2E2E2E2E2E2E2E2E2E2E2E2E2E2E2E2E2E2E2E2E2E2E2E2E2E2
310
E2E2E2E2E2F5E2E2E2E2F5F5E2E2E2F5E2E2E2E2E2E2E2E2E2E2E2E2E2E2E2E2E2E2E2E2E2E2E2E2F5F5E2E2E2E2E2E2E2E2E2E2E2E2E2E2E2E2E2E2E2E2E2E2E2E2E2E2E2E2E2E2E2E2E2E2E2E2E2E2E2E2E2E2E2E2E2E2E2E2E2E2E2E2E2E2E2E2E2E2E2E2E2F5F5E2E2E2E2E2E2E2E2E2E2E2E2E2E2E2E2E2E2E2E2E2E2
310
E2E2E2E2E2E2E2E2E2E2E2E2E2E2E2E2E2E2E2E2E2E2E2E2E2E2E2E2E2E2E2E2E2E2E2E2E2E2E2E2E2E2E2E2E2E2E2E2E2E2E2E2E2E2E2E2E2E2F5E2E2E2E2F5F5E2E2E2F5E2E2E2E2E2E2E2E2E2E2E2E2E2E2E2E2E2E2E2E2E2E2E2E2F5F5E2E2E2E2E2E2E2E2E2E2E2E2E2E2E2E2E2E2E2E2E2E2E2E2E2E2E2E2E2E2E2E2
310
E2E2E2E2E2E2E2E2E2E2E2E2E2E2E2E2E2E2E2E2E2E2E2E2E2E2E2E2E2F5F5E2E2E2E2E2E2E2E2E2E2E2E2E2E2E2E2E2E2E2E2E2E2E2E2E2E2E2E2E2E2E2E2E2E2E2E2E2E2E2E2E2E2E2E2E2E2E2E2E2E2E2E2E2E2E2E2E2E2E2E2E2E2E2E2E2E2E2E2E2E2E2E2E2E2E2E2E2E2E2E2F5E2E2E2E2F5F5E2E2E2F5E2E2E2E2E2
310
E2E2E2E2E2E2E2E2E2E2E2E2E2E2E2E2E2E2E2F5F5E2E2E2E2E2E2E2E2E2E2E2E2E2E2E2E2E2E2E2E2E2E2E2E2E2E2E2E2E2E2E2E2E2E2E2E2E2E2E2E2E2E2E2E2E2E2E2E2E2E2E2E2E2E2E2E2E2E2E2E2E2F5F5E2E2E2E2E2E2E2E2E2E2E2E2E2E2E2E2E2E2E2E2E2E2E2E2E2E2E2E2E2E2E2E2E2E2E2E2E2E2E2E2E2E2E2
310
E2E2E2E2E2E2E2E2E2E2E2E2E2E2E2E2E2E2E2E2E2E2E2E2E2E2E2E2E2E2E2E2E2E2E2E2E2F5E2E2E2E2F5F5E2E2E2F5E2E2E2E2E2E2E2E2E2E2E2E2E2E2E2E2E2E2E2E2E2E2E2E2F5F5E2E2E2E2E2E2E2E2E2E2E2E2E2E2E2E2E2E2E2E2E2E2E2E2E2E2E2E2E2E2E2E2E2E2E2E2E2E2E2E2E2E2E2E2E2E2E2E2E2E2E2E2E2
310
E2E2E2E2E2E2E2E2F5F5E2E2E2E2E2E2E2E2E2E2E2E2E2E2E2E2E2E2E2E2E2E2E2E2E2E2E2E2E2E2E2E2E2E2E2E2E2E2E2E2E2E2E2E2E2E2E2E2E2E2E2E2E2E2E2E2E2E2E2E2E2E2E2E2E2E2E2E2E2E2E2E2E2E2E2E2E2E2E2E2F5E2E2E2E2F5F5E2F5E2F5E2E2E2E2E2E2E2E2E2E2E2E2E2E2E2E2E2E2E2E2E2E2E2E2F5F5
310
E2E2E2E2E2E2E2E2E2E2E2E2E2E2E2E2E2E2E2E2E2E2E2E2E2E2E2E2E2E2E2E2E2E2E2E2E2E2E2E2E2E2E2E2E2E2E2E2E2E2E2E2E2E2E2E2E2E2E2E2E2F5F5E2E2E2E2E2E2E2E2E2E2E2E2E2E2E2E2E2E2E2E2E2E2E2E2E2E2E2E2E2E2E2E2E2E2E2E2E2E2E2E2E2E2E2E2E2E2E2E2E2E2E2E2E2E2E2E2E2E2E2E2E2E2E2E2
310
E2E2E2E2E2E2E2E2E2E2E2E2E2E2E2E2F5E2E2F5E2F5F5E2F5E2F5E2E2E2E2E2E2E2E2E2E2E2E2E2E2E2E2E2E2E2E2E2E2E2E2F5F5E2E2E2E2E2E2E2E2E2E2E2E2E2E2E2E2E2E2E2E2E2E2E2E2E2E2E2E2E2E2E2E2E2E2E2E2E2E2E2E2E2E2E2E2E2E2E2E2E2E2E2E2E2E2E2E2E2E2E2E2E2F5F5E2E2E2E2E2E2E2E2E2E2E2
310
E2E2E2E2E2E2E2E2E2E2E2E2E2E2E2E2E2E2E2E2E2E2E2E2E2E2E2E2E2E2E2E2E2E2E2E2E2E2E2E2E2E2E2E2E2E2E2E2E2E2E2E2E2E2E2E2E2E2E2E2E2E2E2E2E2E2E2E2E2F5E2E2F5E2F5F5E2F5E2F5E2E2E2E2E2E2E2E2E2E2E2E2E2E2E2E2E2E2E2E2E2E2E2E2F5F5E2E2E2E2E2E2E2E2E2E2E2E2E2E2E2E2E2E2E2E2E2
310
E2E2E2E2E2E2E2E2E2E2E2E2E2E2E2E2E2E2E2E2E2E2E2E2E2E2E2E2E2E2E2E2E2E2E2E2E2E2E2E2F5F5E2E2E2E2E2E2E2E2E2E2E2E2E2E2E2E2E2E2E2E2E2E2E2E2E2E2E2E2E2E2E2E2E2E2E2E2E2E2E2E2E2E2E2E2E2E2E2E2E2E2E2E2E2E2E2E2E2E2E2E2E2E2E2E2E2E2E2E2E2E2E2E2E2E2E2E2E2E2E2E2F5E2E2F5E2
310
F5F5E2F5E2F5E2E2E2E2E2E2E2E2E2E2E2E2E2E2E2E2E2E2E2E2E2E2E2E2F5F5E2E2E2E2E2E2E2E2E2E2E2E2E2E2E2E2E2E2E2E2E2E2E2E2E2E2E2E2E2E2E2E2E2E2E2E2E2E2E2E2E2E2E2E2E2E2E2E2E2E2E2E2E2E2E2E2E2E2E2E2E2F5F5E2E2E2E2E2E2E2E2E2E2E2E2E2E2E2E2E2E2E2E2E2E2E2E2E2E2E2E2E2E2E2E2
310
E2E2E2E2E2E2E2E2E2E2E2E2E2E2E2E2E2E2E2E2E2E2E2E2E2E2E2E2E2E2E2E2E2E2E2E2E2E2E2E2E2E2E2E2E2E2E2E2F5E2E2F5E2F5F5E2F5E2F5E2E2E2E2E2E2E2E2E2E2E2E2E2E2E2E2E2E2E2E2E2E2E2E2F5F5E2E2E2E2E2E2E2E2E2E2E2E2E2E2E2E2E2E2E2E2E2E2E2E2E2E2E2E2E2E2E2E2E2E2E2E2E2E2E2E2E2E2
310
E2E2E2E2E2E2E2E2E2E2E2E2E2E2E2E2E2E2E2F5F5E2E2E2E2E2E2E2E2E2E2E2E2E2E2E2E2E2E2E2E2E2E2E2E2E2E2E2E2E2E2E2E2E2E2E2E2E2E2E2E2E2E2E2E2E2E2E2E2E2E2E2E2E2E2E2E2E2E2E2E2E2E2E2E2E2E2E2E2E2E2E2E2E2E2E2E2E2E2E2E2F5E2E2F5E2F5F5E2F5E2F5E2E2E2E2E2E2E2E2E2E2E2E2E2E2E2
310
E2E2E2E2E2E2E2E2E2F5F5E2E2E2E2E2E2E2E2E2E2E2E2E2E2E2E2E2E2E2E2E2E2E2E2E2E2E2E2E2E2E2E2E2E2E2E2E2E2E2E2E2E2E2E2E2E2E2E2E2E2E2E2E2E2E2E2E2E2E2E2E2F5F5E2E2E2E2E2E2E2E2E2E2E2E2E2E2E2E2E2E2E2E2E2E2E2E2E2E2E2E2E2E2E2E2E2E2E2E2E2E2E2E2E2E2E2E2E2E2E2E2E2E2E2E2E2
310
E2E2E2E2E2E2E2E2E2E2E2E2E2E2E2E2E2E2E2E2E2E2E2E2E2E2E2F5E2E2F5E2F5F5E2F5E2F5E2E2E2E2E2E2E2E2E2E2E2E2E2E2E2E2E2E2E2E2E2E2E2E2F5F5E2E2E2E2E2E2E2E2E2E2E2E2E2E2E2E2E2E2E2E2E2E2E2E2E2E2E2E2E2E2E2E2E2E2E2E2E2E2E2E2E2E2E2E2E2E2E2E2E2E2E2E2E2E2E2E2E2E2E2E2E2F5F5
310
E2E2E2E2E2E2E2E2E2E2E2E2E2E2E2E2E2E2E2E2E2E2E2E2E2E2E2E2E2E2E2E2E2E2E2E2E2E2E2E2E2E2E2E2E2E2E2E2E2E2E2E2E2E2E2E2E2E2E2E2E2E2E2E2E2E2E2E2E2E2E2E2E2E2E2E2E2E2E2E2F5E2E2F5E2F5F5E2F5E2F5E2E2E2E2E2E2E2E2E2E2E2E2E2E2E2E2E2E2E2E2E2E2E2E2F5F5E2E2E2E2E2E2E2E2E2E2
310
E2E2E2E2E2E2E2E2E2E2E2E2E2E2E2E2E2E2E2E2E2E2E2E2E2E2E2E2E2E2E2E2E2E2E2E2E2E2E2E2E2E2E2E2E2E2E2E2E2E2E2F5F5E2E2E2E2E2E2E2E2E2E2E2E2E2E2E2E2E2E2E2E2E2E2E2E2E2E2E2E2E2E2E2E2E2E2E2E2E2E2E2E2E2E2E2E2E2E2E2E2E2E2E2E2E2E2E2E2E2E2E2E2E2E2E2E2E2E2E2E2E2E2E2E2E2E2
310
E2E2E2E2E2E2F5E2E2F5E2F5F5E2F5E2F5E2E2E2E2E2E2E2E2E2E2E2E2E2E2E2E2E2E2E2E2E2E2F5F5F5F5E2E2E2E2E2E2E2E2E2E2E2E2E2E2E2E2E2E2E2E2E2E2E2E2E2E2E2E2E2E2E2E2E2E2E2E2E2E2E2E2E2E2E2E2E2E2E2E2E2E2E2E2E2E2E2E2E2E2E2E2E2F5F5E2E2E2E2E2E2E2E2E2E2E2E2E2E2E2E2E2E2E2E2E2
310
E2E2E2E2E2E2E2E2E2E2E2E2E2E2E2E2E2E2E2E2E2E2E2E2E2E2E2E2E2E2E2E2E2E2E2E2E2E2E2E2E2E2E2E2E2E2E2E2E2E2E2E2E2E2E2E2E2E2E2F5E2E2F5E2F5F5E2F5E2F5E2E2E2E2E2E2E2E2E2E2E2E2E2E2E2E2E2E2E2E2E2F5F5F5F5F5E2E2E2E2E2E2E2E2E2E2E2E2E2E2E2E2E2E2E2E2E2E2E2E2E2E2E2E2E2E2E2
310
E2E2E2E2E2E2E2E2E2E2E2E2E2E2E2E2E2E2E2E2E2E2E2E2E2E2E2E2E2E2F5F5E2E2E2E2E2E2E2E2E2E2E2E2E2E2E2E2E2E2E2E2E2E2E2E2E2E2E2E2E2E2E2E2E2E2E2E2E2E2E2E2E2E2E2E2E2E2E2E2E2E2E2E2E2E2E2E2E2E2E2E2E2E2E2E2E2E2E2E2E2E2E2E2E2E2E2E2E2E2E2E2F5E2E2F5E2F5F5E2F5E2F5E2E2E2E2
310
E2E2E2E2E2E2E2E2E2E2E2E2E2E2E2E2E2E2F5F5F5F5E2E2E2E2E2E2E2E2E2E2E2E2E2E2E2E2E2E2E2E2E2E2E2E2E2E2E2E2E2E2E2E2E2E2E2E2E2E2E2E2E2E2E2E2E2E2E2E2E2E2E2E2E2E2E2E2E2E2E2E2E2F5F5E2E2E2E2E2E2E2E2E2E2E2E2E2E2E2E2E2E2E2E2E2E2E2E2E2E2E2E2E2E2E2E2E2E2E2E2E2E2E2E2E2E2
310
E2E2E2E2E2E2E2E2E2E2E2E2E2E2E2E2E2E2E2E2E2E2E2E2E2E2E2E2E2E2E2E2E2E2E2E2E2E2F5E2E2F5E2F5F5E2F5E2F5E2E2E2E2E2E2E2E2E2E2E2E2E2E2E2E2E2E2E2E2E2E2E2F5F5F5E2E2E2E2E2E2E2E2E2E2E2E2E2E2E2E2E2E2E2E2E2E2E2E2E2E2E2E2E2E2E2E2E2E2E2E2E2E2E2E2E2E2E2E2E2E2E2E2E2E2E2E2
310
E2E2E2E2E2E2E2E2E2F5F5E2E2E2E2E2E2E2E2E2E2E2E2E2E2E2E2E2E2E2E2E2E2E2E2E2E2E2E2E2E2E2E2E2E2E2E2E2E2E2E2E2E2E2E2E2E2E2E2E2E2E2E2E2E2E2E2E2E2E2E2E2E2E2E2E2E2E2E2E2E2E2E2E2E2E2E2E2E2E2E2F5E2E2F5E2F5F5E2F5E2F5E2E2E2E2E2E2E2E2E2E2E2E2E2E2E2E2E2E2E2E2E2E2E2E2F5
310
F5E2E2E2E2E2E2E2E2E2E2E2E2E2E2E2E2E2E2E2E2E2E2E2E2E2E2E2E2E2E2E2E2E2E2E2E2E2E2E2E2E2E2E2E2E2E2E2E2E2E2E2E2E2E2E2E2E2E2E2E2E2F5F5E2E2E2E2E2E2E2E2E2E2E2E2E2E2E2E2E2E2E2E2E2E2E2E2E2E2E2E2E2E2E2E2E2E2E2E2E2E2E2E2E2E2E2E2E2E2E2E2E2E2E2E2E2E2E2E2E2E2E2E2E2E2E2
310
E2E2E2E2E2E2E2E2E2E2E2E2E2E2E2E2E2F5E2E2F5E2F5F5E2F5E2F5E2E2E2E2E2E2E2E2E2E2E2E2E2E2E2E2E2E2E2E2E2E2E2E2F5F5E2E2E2E2E2E2E2E2E2E2E2E2E2E2E2E2E2E2E2E2E2E2E2E2E2E2E2E2E2E2E2E2E2E2E2E2E2E2E2E2E2E2E2E2E2E2E2E2E2E2E2E2E2E2E2E2E2E2E2E2E2F5F5E2E2E2E2E2E2E2E2E2E2
310
E2E2E2E2E2E2E2E2E2E2E2E2E2E2E2E2E2E2E2E2E2E2E2E2E2E2E2E2E2E2E2E2E2E2E2E2E2E2E2E2E2E2E2E2E2E2E2E2E2E2E2E2E2E2E2E2E2E2E2E2E2E2E2E2E2E2E2E2E2E2F5E2E2F5E2F5F5E2F5E2F5E2E2E2E2E2E2E2E2E2E2E2F5F5F5F5F5F5E2E2E2E2E2E2E2F5F5E2E2E2E2E2E2E2E2E2E2E2E2E2E2E2E2E2E2E2E2
310
E2E2E2E2E2E2E2E2E2E2E2E2E2E2E2E2E2E2E2E2E2E2E2E2E2E2E2E2E2E2E2E2E2E2E2E2E2E2E2E2E2F5F5E2E2E2E2E2E2E2E2E2E2E2E2E2E2E2E2E2E2E2E2E2E2E2E2E2E2E2E2E2E2E2E2E2E2E2E2E2E2E2E2E2E2E2E2E2E2E2E2E2E2E2E2E2E2E2E2E2E2E2E2E2E2E2E2E2E2E2E2E2E2E2E2E2E2E2E2E2E2E2E2F5E2E2F5
310
E2F5F5E2F5E2F5E2E2E2E2E2E2E2F5F5F5F5F5F5F5F5F5F5F5F5E2E2E2E2F0F5F5E2E2E2E2E2E2E2E2E2E2E2E2E2E2E2E2E2E2E2E2E2E2E2E2E2E2E2E2E2E2E2E2E2E2E2E2E2E2E2E2E2E2E2E2E2E2E2E2E2E2E2E2E2E2E2E2E2E2E2E2E2F5F5E2E2E2E2E2E2E2E2E2E2E2E2E2E2E2E2E2E2E2E2E2E2E2E2E2E2E2E2E2E2E2
310
E2E2E2E2E2E2E2E2E2E2E2E2E2E2E2E2E2E2E2E2E2E2E2E2E2E2E2E2E2E2E2E2E2E2E2E2E2E2E2E2E2E2E2E2E2E2E2E2E2F5E2E2F5E2F5F5E2E2E2F5E2E2E2E2E2E2E2F5F5F5E2E2E2E2E2E2E2F5F5F5F5F5F5F5F5F5E2E2E2E2E2E2E2E2E2E2E2E2E2E2E2E2E2E2E2E2E2E2E2E2E2E2E2E2E2E2E2E2E2E2E2E2E2E2E2E2E2
310
E2E2E2E2E2E2E2E2E2E2E2E2E2E2E2E2E2E2E2E2F5F5E2E2E2E2E2E2E2E2E2E2E2E2E2E2E2E2E2E2E2E2E2E2E2E2E2E2E2E2E2E2E2E2E2E2E2E2E2E2E2E2E2E2E2E2E2E2E2E2E2E2E2E2E2E2E2E2E2E2E2E2E2E2E2E2E2E2E2E2E2E2E2E2E2E2E2E2E2E2E2E2F5E2E2E2E2F5F5E2E2E2F5E2E2E2E2E2E2E2F0E2E2E2E2E2E2
310
E2E2E2E2E2F5F5F5F5F0F0F5E2E2E2E2E2E2E2E2E2E2E2E2E2E2E2E2E2E2E2E2E2E2E2E2E2E2E2E2E2E2E2E2E2E2E2E2E2E2E2E2E2E2E2E2E2E2E2E2E2E2E2E2E2E2E2E2E2E2E2E2E2F5F5E2E2E2E2E2E2E2E2E2E2E2E2E2E2E2E2E2E2E2E2E2E2E2E2E2E2E2E2E2E2E2E2E2E2E2E2E2E2E2E2E2E2E2E2E2E2E2E2E2E2E2E2
310
E2E2E2E2E2E2E2E2E2E2E2E2E2E2E2E2E2E2E2E2E2E2E2E2E2E2E2E2F5E2E2E2E2F5F5E2E2E2F5E2E2E2E2E2E2E2F0E2E2E2E2E2E2E2E2E2E2E2E2E2E2E2E2F0F5E2E2E2E2E2E2E2E2E2E2E2E2E2E2E2E2E2E2E2E2E2E2E2E2E2E2E2E2E2E2E2E2E2E2E2E2E2E2E2E2E2E2E2E2E2E2E2E2E2E2E2E2E2E2E2E2E2E2E2E2E2F5
310
F5E2E2E2E2E2E2E2E2E2E2E2E2E2E2E2E2E2E2E2E2E2E2E2E2E2E2E2E2E2E2E2E2E2E2E2E2E2E2E2E2E2E2E2E2E2E2E2E2E2E2E2E2E2E2E2E2E2E2E2E2E2E2E2E2E2E2E2E2E2E2E2E2E2E2E2E2E2E2E2E2F5E2E2E2E2F5F5E2E2E2F5E2E2E2E2E2E2E2F0E2E2E2E2E2E2E2E2E2E2E2E2E2E2E2E2F0F5E2E2E2E2E2E2E2E2E2
310
E2E2E2E2E2E2E2E2E2E2E2E2E2E2E2E2E2E2E2E2E2E2E2E2E2E2E2E2E2E2E2E2E2E2E2E2E2E2E2E2E2E2E2E2E2E2E2E2E2E2E2E2F5F5E2E2E2E2E2E2E2E2E2E2E2E2E2E2E2E2E2E2E2E2E2E2E2E2E2E2E2E2E2E2E2E2E2E2E2E2E2E2E2E2E2E2E2E2E2E2E2E2E2E2E2E2E2E2E2E2E2E2E2E2E2E2E2E2E2E2E2E2E2E2E2E2E2
310
E2E2E2E2E2E2E2F5E2E2E2E2F5F5E2E2E2F5E2E2E2E2E2E2E2F0E2F0E2E2E2E2E2E2E2E2E2E2E2E2F0E2F0F5E2E2E2E2E2E2E2E2E2E2E2E2E2E2E2E2E2E2E2E2E2E2E2E2E2E2E2E2E2E2E2E2E2E2E2E2E2E2E2E2E2E2E2E2E2E2E2E2E2E2E2E2E2E2E2E2E2E2E2E2E2F5F5E2E2E2E2E2E2E2E2E2E2E2E2E2E2E2E2E2E2E2E2
310
E2E2E2E2E2E2E2E2E2E2E2E2E2E2E2E2E2E2E2E2E2E2E2E2E2E2E2E2E2E2E2E2E2E2E2E2E2E2E2E2E2E2E2E2E2E2E2E2E2E2E2E2E2E2E2E2E2E2E2E2F5E2E2E2E2F5F5E2E2E2F5E2E2E2E2E2E2E2F0F0DCDCDCDCDCDCF0F0DCDCDCDCDCDCF0F5F5E2E2E2E2E2E2E2E2E2E2E2E2E2E2E2E2E2E2E2E2E2E2E2E2E2E2E2E2E2E2
310
E2E2E2E2E2E2E2E2E2E2E2E2E2E2E2E2E2E2E2E2E2E2E2E2E2E2E2E2E2E2E2F5F5E2E2E2E2E2E2E2E2E2E2E2E2E2E2E2E2E2E2E2E2E2E2E2E2E2E2E2E2E2E2E2E2E2E2E2E2E2E2E2E2E2E2E2E2E2E2E2E2E2E2E2E2E2E2E2E2E2E2E2E2E2E2E2E2E2E2E2E2E2E2E2E2E2E2E2E2E2E2E2E2F5E2E2E2E2F5F5E2E2E2F5E2E2E2
310
E2E2E2E2F0E2DCDCDCDCDCDCE2E2DCE2DCDCDCDCE2F0F5E2E2E2E2E2E2E2E2E2E2E2E2E2E2E2E2E2E2E2E2E2E2E2E2E2E2E2E2E2E2E2E2E2E2E2E2E2E2E2E2E2E2E2E2E2E2E2E2E2E2E2E2E2E2E2E2E2E2E2E2E2F5F5E2E2E2E2E2E2E2E2E2E2E2E2E2E2E2E2E2E2E2E2E2E2E2E2E2E2E2E2E2E2E2E2E2E2E2E2E2E2E2E2E2
310
E2E2E2E2E2E2E2E2E2E2E2E2E2E2E2E2E2E2E2E2E2E2E2E2E2E2E2E2E2E2E2E2E2E2E2E2E2E2E2F5E2E2E2E2F5F5E2E2E2F5E2E2E2E2E2E2E2E2E2DCE2DCE2E2E2E2DCDCE2DCE2E2E2E2F5F5E2E2E2E2E2E2E2E2E2E2E2E2E2E2E2E2E2E2E2E2E2E2E2E2E2E2E2E2E2E2E2E2E2E2E2E2E2E2E2E2E2E2E2E2E2E2E2E2E2E2E2
310
E2E2E2E2E2E2E2E2E2E2F5F5E2E2E2E2E2E2E2E2E2E2E2E2E2E2E2E2E2E2E2E2E2E2E2E2E2E2E2E2E2E2E2E2E2E2E2E2E2E2E2E2E2E2E2E2E2E2E2E2E2E2E2E2E2E2E2E2E2E2E2E2E2E2E2E2E2E2E2E2E2E2E2E2E2E2E2E2E2E2E2E2F5E2E2E2E2F5F5E2F5E2F5E2E2E2E2E2E2E2E2E2E2E2E2E2E2E2E2E2E2E2E2E2E2E2E2
310
F5F5E2E2E2E2E2E2E2E2E2E2E2E2E2E2E2E2E2E2E2E2E2E2E2E2E2E2E2E2E2E2E2E2E2E2E2E2E2E2E2E2E2E2E2E2E2E2E2E2E2E2E2E2E2E2E2E2E2E2E2E2E2F5F5E2E2E2E2E2E2E2E2E2E2E2E2E2E2E2E2E2E2E2E2E2E2E2E2E2E2E2E2E2E2E2E2E2E2E2E2E2E2E2E2E2E2E2E2E2E2E2E2E2E2E2E2E2E2E2E2E2E2E2E2E2E2
310
E2E2E2E2E2E2E2E2E2E2E2E2E2E2E2E2E2E2F5E2E2F5E2F5F5E2F5E2F5E2E2E2E2E2E2E2E2E2E2E2E2E2E2E2E2E2E2E2E2E2E2E2E2F5F5E2E2E2E2E2E2E2E2E2E2E2E2E2E2E2E2E2E2E2E2E2E2E2E2E2E2E2E2E2E2E2E2E2E2E2E2E2E2E2E2E2E2E2E2E2E2E2E2E2E2E2E2E2E2E2E2E2E2E2E2E2F5F5E2E2E2E2E2E2E2E2E2
310
E2E2E2E2E2E2E2E2E2E2E2E2E2E2E2E2E2E2E2E2E2E2E2E2E2E2E2E2E2E2E2E2E2E2E2E2E2E2E2E2E2E2E2E2E2E2E2E2E2E2E2E2E2E2E2E2E2E2E2E2E2E2E2E2E2E2E2E2E2E2E2F5E2E2F5E2F5F5E2F5E2F5E2E2E2E2E2E2E2E2E2E2E2E2E2E2E2E2E2E2E2E2E2E2E2E2F5F5E2E2E2E2E2E2E2E2E2E2E2E2E2E2E2E2E2E2E2
310
E2E2E2E2E2E2E2E2E2E2E2E2E2E2E2E2E2E2E2E2E2E2E2E2E2E2E2E2E2E2E2E2E2E2E2E2E2E2E2E2E2E2F5F5E2E2E2E2E2E2E2E2E2E2E2E2E2E2E2E2E2E2E2E2E2E2E2E2E2E2E2E2E2E2E2E2E2E2E2E2E2E2E2E2E2E2E2E2E2E2E2E2E2E2E2E2E2E2E2E2E2E2E2E2E2E2E2E2E2E2E2E2E2E2E2E2E2E2E2E2E2E2E2E2F5E2E2
310
F5E2F5F5E2F5E2F5E2E2E2E2E2E2E2E2E2E2E2E2E2E2E2E2E2E2E2E2E2E2E2E2F5F5E2E2E2E2E2E2E2E2E2E2E2E2E2E2E2E2E2E2E2E2E2E2E2E2E2E2E2E2E2E2E2E2E2E2E2E2E2E2E2E2E2E2E2E2E2E2E2E2E2E2E2E2E2E2E2E2E2E2E2E2E2F5F5E2E2E2E2E2E2E2E2E2E2E2E2E2E2E2E2E2E2E2E2E2E2E2E2E2E2E2E2E2E2
310
E2E2E2E2E2E2E2E2E2E2E2E2E2E2E2E2E2E2E2E2E2E2E2E2E2E2E2E2E2E2E2E2E2E2E2E2E2E2E2E2E2E2E2E2E2E2E2E2E2E2F5E2E2F5E2F5F5E2F5E2F5E2E2E2E2E2E2E2E2E2E2E2E2E2E2E2E2E2E2E2E2E2E2E2E2F5F5E2E2E2E2E2E2E2E2E2E2E2E2E2E2E2E2E2E2E2E2E2E2E2E2E2E2E2E2E2E2E2E2E2E2E2E2E2E2E2E2
310
E2E2E2E2E2E2E2E2E2E2E2E2E2E2E2E2E2E2E2E2E2F5F5E2E2E2E2E2E2E2E2E2E2E2E2E2E2E2E2E2E2E2E2E2E2E2E2E2E2E2E2E2E2E2E2E2E2E2E2E2E2E2E2E2E2E2E2E2E2E2E2E2E2E2E2E2E2E2E2E2E2E2E2E2E2E2E2E2E2E2E2E2E2E2E2E2E2E2E2E2E2E2E2F5E2E2F5E2F5F5E2F5E2F5E2E2E2E2E2E2E2E2E2E2E2E2E2
310
E2E2E2E2E2E2E2E2E2E2E2F5F5E2E2E2E2E2E2E2E2E2E2E2E2E2E2E2E2E2E2E2E2E2E2E2E2E2E2E2E2E2E2E2E2E2E2E2E2E2E2E2E2E2E2E2E2E2E2E2E2E2E2E2E2E2E2E2E2E2E2E2E2E2F5F5E2E2E2E2E2E2E2E2E2E2E2E2E2E2E2E2E2E2E2E2E2E2E2E2E2E2E2E2E2E2E2E2E2E2E2E2E2E2E2E2E2E2E2E2E2E2E2E2E2E2E2
310
E2E2E2E2E2E2E2E2E2E2E2E2E2E2E2E2E2E2E2E2E2E2E2E2E2E2E2E2E2F5E2E2F5E2F5F5E2F5E2F5E2E2E2E2E2E2E2E2E2E2E2E2E2E2E2E2E2E2E2E2E2E2E2E2F5F5E2E2E2E2E2E2E2E2E2E2E2E2E2E2E2E2E2E2E2E2E2E2E2E2E2E2E2E2E2E2E2E2E2E2E2E2E2E2E2E2E2E2E2E2E2E2E2E2E2E2E2E2E2E2E2E2E2E2E2E2E2
310
F5F5E2E2E2E2E2E2E2E2E2E2E2E2E2E2E2E2E2E2E2E2E2E2E2E2E2E2E2E2E2E2E2E2E2E2E2E2E2E2E2E2E2E2E2E2E2E2E2E2E2E2E2E2E2E2E2E2E2E2E2E2E2E2E2E2E2E2E2E2E2E2E2E2E2E2E2E2E2E2E2E2F5E2E2F5E2F5F5E2F5E2F5E2E2E2E2E2E2E2E2E2E2E2E2E2E2E2E2E2E2E2E2E2E2E2E2F5F5E2E2E2E2E2E2E2E2
310
E2E2E2E2E2E2E2E2E2E2E2E2E2E2E2E2E2E2E2E2E2E2E2E2E2E2E2E2E2E2E2E2E2E2E2E2E2E2E2E2E2E2E2E2E2E2E2E2E2E2E2E2E2F5F5E2E2E2E2E2E2E2E2E2E2E2E2E2E2E2E2E2E2E2E2E2E2E2E2E2E2E2E2E2E2E2E2E2E2E2E2E2E2E2E2E2E2E2E2E2E2E2E2E2E2E2E2E2E2E2E2E2E2E2E2E2E2E2E2E2E2E2E2E2E2E2E2
310
E2E2E2E2E2E2E2E2F5E2E2F5E2F5F5E2F5E2F5E2E2E2E2E2E2E2E2E2E2E2E2E2E2E2E2E2E2E2E2E2E2E2E2F5F5E2E2E2E2E2E2E2E2E2E2E2E2E2E2E2E2E2E2E2E2E2E2E2E2E2E2E2E2E2E2E2E2E2E2E2E2E2E2E2E2E2E2E2E2E2E2E2E2E2E2E2E2E2E2E2E2E2E2E2E2E2F5F5E2E2E2E2E2E2E2E2E2E2E2E2E2E2E2E2E2E2E2
310
E2E2E2E2E2E2E2E2E2E2E2E2E2E2E2E2E2E2E2E2E2E2E2E2E2E2E2E2E2E2E2E2E2E2E2E2E2E2E2E2E2E2E2E2E2E2E2E2E2E2E2E2E2E2E2E2E2E2E2E2E2F5E2E2F5E2F5F5E2F5E2F5E2E2E2E2E2E2E2E2E2E2E2E2E2E2E2E2E2E2E2E2E2E2E2E2F5F5E2E2E2E2E2E2E2E2E2E2E2E2E2E2E2E2E2E2E2E2E2E2E2E2E2E2E2E2E2
310
E2E2E2E2E2E2E2E2E2E2E2E2E2E2E2E2E2E2E2E2E2E2E2E2E2E2E2E2E2E2E2E2F5F5E2E2E2E2E2E2E2E2E2E2E2E2E2E2E2E2E2E2E2E2E2E2E2E2E2E2E2E2E2E2E2E2E2E2E2E2E2E2E2E2E2E2E2E2E2E2E2E2E2E2E2E2E2E2E2E2E2E2E2E2E2E2E2E2E2E2E2E2E2E2E2E2E2E2E2E2E2E2E2E2F5E2E2F5E2F5F5E2F5E2F5E2E2
310
E2E2E2E2E2E2E2E2E2E2E2E2E2E2E2E2E2E2E2E2E2E2F5F5E2E2E2E2E2E2E2E2E2E2E2E2E2E2E2E2E2E2E2E2E2E2E2E2E2E2E2E2E2E2E2E2E2E2E2E2E2E2E2E2E2E2E2E2E2E2E2E2E2E2E2E2E2E2E2E2E2E2E2E2E2F5F5E2E2E2E2E2E2E2E2E2E2E2E2E2E2E2E2E2E2E2E2E2E2E2E2E2E2E2E2E2E2E2E2E2E2E2E2E2E2E2E2
310
E2E2E2E2E2E2E2E2E2E2E2E2E2E2E2E2E2E2E2E2E2E2E2E2E2E2E2E2E2E2E2E2E2E2E2E2E2E2E2E2F5E2E2F5E2F5F5E2F5E2F5E2E2E2E2E2E2E2E2E2E2E2E2E2E2E2E2E2E2E2E2E2E2E2E2F5F5E2E2E2E2E2E2E2E2E2E2E2E2E2E2E2E2E2E2E2E2E2E2E2E2E2E2E2E2E2E2E2E2E2E2E2E2E2E2E2E2E2E2E2E2E2E2E2E2E2E2
310
E2E2E2E2E2E2E2E2E2E2E2F5F5E2E2E2E2E2E2E2E2E2E2E2E2E2E2E2E2E2E2E2E2E2E2E2E2E2E2E2E2E2E2E2E2E2E2E2E2E2E2E2E2E2E2E2E2E2E2E2E2E2E2E2E2E2E2E2E2E2E2E2E2E2E2E2E2E2E2E2E2E2E2E2E2E2E2E2E2E2E2E2E2F5E2E2F5E2F5F5E2F5E2F5E2E2E2E2E2E2E2E2E2E2E2E2E2E2E2E2E2E2E2E2E2E2E2
310
E2F5F5E2E2E2E2E2E2E2E2E2E2E2E2E2E2E2E2E2E2E2E2E2E2E2E2E2E2E2E2E2E2E2E2E2E2E2E2E2E2E2E2E2E2E2E2E2E2E2E2E2E2E2E2E2E2E2E2E2E2E2E2E2F5F5E2E2E2E2E2E2E2E2E2E2E2E2E2E2E2E2E2E2E2E2E2E2E2E2E2E2E2E2E2E2E2E2E2E2E2E2E2E2E2E2E2E2E2E2E2E2E2E2E2E2E2E2E2E2E2E2E2E2E2E2E2
310
E2E2E2E2E2E2E2E2E2E2E2E2E2E2E2E2E2E2E2F5E2E2F5E2F5F5E2F5E2F5E2E2E2E2E2E2E2E2E2E2E2E2E2E2E2E2E2E2E2E2E2E2E2E2F5F5E2E2E2E2E2E2E2E2E2E2E2E2E2E2E2E2E2E2E2E2E2E2E2E2E2E2E2E2E2E2E2E2E2E2E2E2E2E2E2E2E2E2E2E2E2E2E2E2E2E2E2E2E2E2E2E2E2E2E2E2E2F5F5E2E2E2E2E2E2E2E2
310
E2E2E2E2E2E2E2E2E2E2E2E2E2E2E2E2E2E2E2E2E2E2E2E2E2E2E2E2E2E2E2E2E2E2E2E2E2E2E2E2E2E2E2E2E2E2E2E2E2E2E2E2E2E2E2E2E2E2E2E2E2E2E2E2E2E2E2E2E2E2E2E2F5E2E2F5E2F5F5E2F5E2F5E2E2E2E2E2E2E2E2E2E2E2E2E2E2E2E2E2E2E2E2E2E2E2E2F5F5F5F5F5F5F5F5F5F5F5F5F5F5F5F5F5F5F5F5
310
F5F5F5F5F5F5F5F5F5F5F5F5F5F5F5F5F5F5F5F5F5F5F5F5F5F5F5F5F5F5F5F5F5F5F5F5F5F5F5F5F5F5F5F5F5E2E2E2E2E2E2E2E2E2E2E2E2E2E2E2E2E2E2E2E2E2E2E2E2E2E2E2E2E2E2E2E2E2E2E2E2E2E2E2E2E2E2E2E2E2E2E2E2E2E2E2E2E2E2E2E2E2E2E2E2E2E2E2E2E2E2E2E2E2E2E2E2E2E2E2E2E2E2E2E2F5E2
310
E2F5E2F5F5E2F5E2F5E2E2E2E2E2E2E2E2E2E2E2E2E2E2E2E2E2E2E2E2E2E2E2E2F5F5F5F5F5F5F5F5F5F5F5F5F5F5F5F5F5F5F5F5F5F5F5F5F5F5F5F5F5F5F5F5F5F5F5F5F5F5F5F5F5F5F5F5F5F5F5F5F5F5F5F5F5F5F5F5F5F5F5F5F5F5F5F5F5E2E2E2E2E2E2E2E2E2E2E2E2E2E2E2E2E2E2E2E2E2E2E2E2E2E2E2E2E2
310
E2E2E2E2E2E2E2E2E2E2E2E2E2E2E2E2E2E2E2E2E2E2E2E2E2E2E2E2E2E2E2E2E2E2E2E2E2E2E2E2E2E2E2E2E2E2E2E2E2E2E2F5E2E2F5E2F5F5E2E2E2F5E2E2E2E2E2E2E2E2E2E2E2E2E2E2E2E2E2E2E2E2E2E2E2E2E2E2E2E2E2E2E2E2E2E2E2E2E2E2E2E2E2E2E2E2E2E2E2E2E2E2E2E2E2E2E2E2E2E2E2E2E2E2E2E2E2
310
E2E2E2E2E2E2E2E2E2E2E2E2E2E2E2E2E2E2E2E2E2E2E2E2E2E2E2E2E2E2E2E2E2E2E2E2E2E2E2E2E2E2E2E2E2E2E2E2E2E2E2E2E2E2E2E2E2E2E2E2E2E2E2E2E2E2E2E2E2E2E2E2E2E2E2E2E2E2E2E2E2E2E2E2E2E2E2E2E2E2E2E2E2E2E2E2E2E2E2E2E2E2E2E2F5E2E2E2E2F5F5E2E2E2F5E2E2E2E2E2E2E2E2E2E2E2E2
310
E2E2E2E2E2E2E2E2E2E2E2E2E2E2E2E2E2E2E2E2E2E2E2E2E2E2E2E2E2E2E2E2E2E2E2E2E2E2E2E2E2E2E2E2E2E2E2E2E2E2E2E2E2E2E2E2E2E2E2E2E2E2E2E2E2E2E2E2E2E2E2E2E2E2E2E2E2E2E2E2E2E2E2E2E2E2E2E2E2E2E2E2E2E2E2E2E2E2E2E2E2E2E2E2E2E2E2E2E2E2E2E2E2E2E2E2E2E2E2E2E2E2E2E2E2E2E2
310
E2E2E2E2E2E2E2E2E2E2E2E2E2E2E2E2E2E2E2E2E2E2E2E2E2E2E2E2E2E2F5E2E2E2E2F5F5E2E2E2F5E2E2E2E2E2E2E2E2E2E2E2E2E2E2E2E2E2E2E2E2E2E2E2E2E2E2E2E2E2E2E2E2E2E2E2E2E2E2E2E2E2E2E2E2E2E2E2E2E2E2E2E2E2E2E2E2E2E2E2E2E2E2E2E2E2E2E2E2E2E2E2E2E2E2E2E2E2E2E2E2E2E2E2E2E2E2
310
E2E2E2E2E2E2E2E2E2E2E2E2E2E2E2E2E2E2E2E2E2E2E2E2E2E2E2E2E2E2E2E2E2E2E2E2E2E2E2E2E2E2E2E2E2E2E2E2E2E2E2E2E2E2F0F0F0F0F0F0F0F0F0F0F0F0F0F0F0F0F0F0F0F0F0F0F0F0F0F0E2E2E2F5E2E2E2E2F5F5E2E2E2F5E2E2E2E2E2E2E2E2E2E2E2E2E2E2E2E2E2E2E2E2E2E2E2E2E2E2E2E2E2E2E2E2E2
310
E2E2E2E2E2E2E2E2E2E2E2E2E2E2E2E2E2E2E2E2E2E2E2E2E2E2E2E2E2E2E2E2E2E2E2E2E2E2E2E2E2E2E2E2E2E2E2E2E2E2E2E2E2E2E2E2E2E2E2E2E2E2E2E2E2E2E2E2E2E2E2E2E2E2E2E2E2E2E2E2E2E2E2E2E2E2E2E2E2E2E2E2E2E2E2E2E2E2E2E2E2E2E2E2E2E2E2E2E2E2F5F5F5F5F5E2F5F5F5F5F5F5F5F5F5F5E2
310
F5F5F5E2E2E2E2E2E2F5E2E2E2E2F5F5E2E2E2F5E2E2E2E2E2E2E2E2E2E2E2E2E2E2E2E2E2E2E2E2E2E2E2E2E2E2E2E2E2E2E2E2E2E2E2E2E2E2E2E2E2E2E2E2E2E2E2E2E2E2E2E2E2E2E2E2E2E2E2E2E2E2E2E2E2E2E2E2E2E2E2E2E2E2E2E2E2E2E2E2E2E2E2E2E2E2E2E2E2E2E2E2E2E2E2E2E2E2E2E2E2E2E2E2E2E2E2
310
E2E2E2E2E2E2E2E2E2E2E2E2E2E2E2E2E2E2E2E2E2E2E2E2E2E2E2E2E2E2E2E2E2E2E2F5F5F5F5E2E2F5F5F5F5F5F5F5F5F5F5F5F5F5F5F5F5E2E2E2E2E2F5E2E2E2E2F5F5E2E2E2F5E2E2E2E2E2E2E2E2E2E2E2E2E2E2E2E2E2E2E2E2E2E2E2E2E2E2E2E2E2E2E2E2E2E2E2E2E2E2E2E2E2E2E2E2E2E2E2E2E2E2E2E2E2E2
310
E2E2E2E2E2E2E2E2E2E2E2E2E2E2E2E2E2E2E2E2E2E2E2E2E2E2E2E2E2E2E2E2E2E2E2E2E2E2E2E2E2E2E2E2E2E2E2E2E2E2E2E2E2E2E2E2E2E2E2E2E2E2E2E2E2E2E2E2E2E2E2E2E2E2E2E2E2E2E2E2E2E2E2E2E2E2E2E2F5F5F5F5E2E2E2F5F5F5F5E2F5F5F5F5F5F5F5F5F5F5E2E2E2E2E2F5E2E2E2E2F5F5E2E2E2F5E2
310
E2E2E2E2E2E2E2E2E2E2E2E2E2E2E2E2E2E2E2E2E2E2E2E2E2E2E2E2E2E2E2E2E2E2E2E2E2E2E2E2E2E2E2E2E2E2E2E2E2E2E2E2E2E2E2E2E2E2E2E2E2E2E2E2E2E2E2E2E2E2E2E2E2E2E2E2E2E2E2E2E2E2E2E2E2E2E2E2E2E2E2E2E2E2E2E2E2E2E2E2E2E2E2E2E2E2E2E2E2E2E2E2E2E2E2E2E2E2E2E2E2E2E2E2E2E2E2
310
E2E2E2E2E2E2E2E2E2E2E2E2F0F0F0F0F0F0F0F0F0F0F0F0F0F0F0F0F0F0F0F0F0F0F0F0F0F0E2E2E2F5E2E2E2E2F5F5E2E2E2F5E2E2E2E2E2E2E2E2E2E2E2E2E2E2E2E2E2E2E2E2E2E2E2E2E2E2E2E2E2E2E2E2E2E2E2E2E2E2E2E2E2E2E2E2E2E2E2E2E2E2E2E2E2E2E2E2E2E2E2E2E2E2E2E2E2E2E2E2E2E2E2E2E2E2E2
310
E2E2E2E2E2E2E2E2E2E2E2E2E2E2E2E2E2E2E2E2E2E2E2E2E2E2E2E2E2E2E2E2E2E2E2E2E2E2E2E2E2E2E2E2E2E2E2E2E2E2E2E2E2E2E2E2E2E2E2E2E2E2E2E2E2E2E2F5F5F5F5F5F5F5F5F5F5F5F5F5F5E2F5F5F5F5E2E2E2E2E2E2E2E2F5E2E2E2E2F5F5E2E2E2F5E2E2E2E2E2E2E2E2E2E2E2E2E2E2E2E2E2E2E2E2E2E2
310
E2E2E2E2E2E2E2E2E2E2E2E2E2E2E2E2E2E2E2E2E2E2E2E2E2E2E2E2E2E2E2E2E2E2E2E2E2E2E2E2E2E2E2E2E2E2E2E2E2E2E2E2E2E2E2E2E2E2E2E2E2E2E2E2E2E2E2E2E2E2E2E2E2E2E2E2E2E2E2E2E2E2E2E2E2E2E2E2E2E2E2E2E2E2E2E2E2E2E2E2E2E2E2E2E2E2E2E2E2E2E2E2E2E2E2E2E2E2E2E2F5F5F5F5E2E2F5
310
F5F5F5F5F5F5F5F5F5F5F5F5F5E2E2E2E2E2E2E2F5E2E2E2E2F5F5E2F5E2F5E2E2E2E2E2E2E2E2E2E2E2E2E2E2E2E2E2E2E2E2E2E2E2E2E2E2E2E2E2E2E2E2E2E2E2E2E2E2E2E2E2E2E2E2E2E2E2E2E2E2E2E2E2E2E2E2E2E2E2E2E2E2E2E2E2E2E2E2E2E2E2E2E2E2E2E2E2E2E2E2E2E2E2E2E2E2E2E2E2E2E2E2E2E2E2E2
310
E2E2E2E2E2E2E2E2E2E2E2E2E2E2E2E2E2E2E2E2E2E2E2E2E2E2E2E2E2E2E2E2E2E2E2E2E2E2E2E2E2E2E2E2E2E2F5F5F5F5E2E2F5F5F5F5F5F5F5E2F5F5F5F5F5F5E2E2E2E2E2E2E2F5E2E2F5E2F5F5E2F5E2F5E2E2E2E2E2E2E2E2E2E2E2E2E2E2E2E2E2E2E2E2E2E2E2E2E2E2E2E2E2E2E2E2E2E2E2E2E2E2E2E2E2E2E2
310
E2E2E2E2E2E2E2E2E2E2E2E2E2E2E2E2E2E2E2E2E2E2E2E2E2E2E2E2E2E2E2E2E2E2E2E2E2E2E2E2E2E2E2E2E2E2E2E2E2E2E2E2E2E2E2E2E2E2E2E2E2E2E2E2E2E2E2E2E2E2E2E2E2E2E2E2E2E2E2E2E2E2E2E2E2E2E2E2E2E2E2E2E2E2E2E2E2E2E2E2E2E2E2E2E2E2E2E2E2E2E2E2E2E2E2E2E2E2E2E2E2E2E2E2E2E2F5
310
E2E2F5E2F5F5E2F5E2F5E2E2E2E2E2E2E2E2E2E2E2E2E2E2E2E2E2E2E2E2E2E2E2E2E2E2E2E2E2E2E2E2E2E2E2E2E2E2E2E2E2E2E2E2E2E2E2E2E2E2E2E2E2E2E2E2E2E2E2E2E2E2E2E2E2E2E2E2E2E2E2E2E2E2E2E2E2E2E2E2E2E2E2E2E2E2E2E2E2E2E2E2E2E2E2E2E2E2E2E2E2E2E2E2E2E2E2E2E2E2E2E2E2E2E2E2E2
310
E2E2E2E2E2E2E2E2E2E2E2E2E2E2E2E2E2E2E2E2E2E2E2E2E2E2E2E2E2E2E2E2E2E2E2E2E2E2E2E2E2E2E2E2E2E2E2E2E2E2E2E2F5E2E2F5E2F5F5E2F5E2F5E2E2E2E2E2E2E2E2E2E2E2E2E2E2E2E2E2E2E2E2E2E2E2E2E2E2E2E2E2E2E2E2E2E2E2E2E2E2E2E2E2E2E2E2E2E2E2E2E2E2E2E2E2E2E2E2E2E2E2E2E2E2E2E2
310
E2E2E2E2E2E2E2E2E2E2E2E2E2E2E2E2E2E2E2E2E2E2E2E2E2E2E2E2E2E2E2E2E2E2E2E2E2E2E2E2E2E2E2E2E2E2E2E2E2E2E2E2E2E2E2E2E2E2E2E2E2E2E2E2E2E2E2E2E2E2E2E2E2E2E2E2E2E2E2E2E2E2E2E2E2E2E2E2E2E2E2E2E2E2E2E2E2E2E2E2E2E2E2E2E2F5E2E2F5E2F5F5E2F5E2F5E2E2E2E2E2E2E2E2E2E2E2
310
E2E2E2E2E2E2E2E2E2E2E2E2E2E2E2E2E2E2E2E2E2E2E2E2E2E2E2E2E2E2E2E2E2E2E2E2E2E2E2E2E2E2E2E2E2E2E2E2E2E2E2E2E2E2E2E2E2E2E2E2E2E2E2E2E2E2E2E2E2E2E2E2E2E2E2E2E2E2E2E2E2E2E2E2E2E2E2E2E2E2E2E2E2E2E2E2E2E2E2E2E2E2E2E2E2E2E2E2E2E2E2E2E2E2E2E2E2E2E2E2E2E2E2E2E2E2E2
310
E2E2E2E2E2E2E2E2E2E2E2E2E2E2E2E2E2E2E2E2E2E2E2E2E2E2E2E2E2E2E2F5E2E2F5E2F5F5E2F5E2F5F5F5F5F5F5F5F5F5F5F5F5F5F5F5F5F5F5F5F5F5F5F5F5F5F5F5F5F5F5F5F5F5F5F5F5F5F5F5F5F5F5F5F5F5F5F5F5F5F5F5F5F5F5F5F5F5F5F5F5F5F5F5F5F5F5F5F5F5F5F5F5F5F5F5F5F5F5F5F5F5F5F5F5F5F5
310
F5F5F5F5F5F5F5F5F5F5F5F5F5F5F5F5F5F5F5F5F5F5F5F5F5F5F5F5F5F5F5F5F5F5F5F5F5F5F5F5F5F5F5F5F5F5F5F5F5F5F5F5F5F5F5F5F5F5F5F5F5F5F5F5F5F5F5F5F5F5F5F5F5F5F5F5F5F5F5F5F5F5F5F5F5E2E2F5E2F5F5E2F5E2E2E2E2E2E2E2E2E2E2E2E2E2E2E2E2E2E2E2E2E2E2E2E2E2E2E2E2E2E2E2E2E2E2
310
E2E2E2E2E2E2E2E2E2E2E2E2E2E2E2E2E2E2E2E2E2E2E2E2E2E2E2E2E2E2E2E2E2E2E2E2E2E2E2E2E2E2E2E2E2E2E2E2E2E2E2E2E2E2E2E2E2E2E2E2E2E2E2E2E2E2E2E2E2E2E2E2E2E2E2E2E2E2E2E2E2E2E2E2E2E2E2E2E2E2E2E2E2E2E2E2E2E2E2E2E2E2E2E2E2E2E2E2E2E2E2E2E2E2E2E2E2E2E2E2E2E2E2E2E2E2E2
310
E2E2E2E2E2E2E2E2E2E2E2E2E2F5E2F5F5E2F5F5F5F5F5F5F5F5F5E2E2E2E2E2E2E2E2E2F5F5F5F5F5F5F5F5F5F5F5F5F5F5F5F5E2E2E2E2E2E2E2E2E2F5F5F5F5F5F5F5F5F5F5F5F5F5F5F5F5E2E2E2E2E2E2E2E2E2F5F5F5F5F5F5F5F5F5F5F5F5F5F5F5F5E2E2E2E2E2E2E2E2E2F5F5F5F5F5F5F5F5F5F5F5F5F5F5F5F5
310
E2E2E2E2E2E2E2E2E2F5F5F5F5F5F5F5F5F5F5F5F5F5F5F5F5E2E2E2E2E2E2E2E2E2F5F5F5F5F5F5F5F5F5F5F5F5F5F5F5F5E2E2E2E2E2E2E2E2E2F5F5F5F5F5F5F5F5E2F5F5E2E2E2E2E2E2E2E2E2E2E2E2E2E2E2E2E2E2E2E2E2E2E2E2E2E2E2E2E2E2E2E2E2E2E2E2E2E2E2E2E2E2E2E2E2E2E2E2E2E2E2E2E2E2E2E2E2
310
E2E2E2E2E2E2E2E2E2E2E2E2E2E2E2E2E2E2E2E2E2E2E2E2E2E2E2E2E2E2E2E2E2E2E2E2E2E2E2E2E2E2E2E2E2E2E2E2E2E2E2E2E2E2E2E2E2E2E2E2E2E2E2E2E2E2E2E2E2E2E2E2E2E2E2E2E2E2E2E2E2E2E2E2E2E2E2E2E2E2E2E2E2E2E2E2E2E2E2E2E2E2E2E2E2E2E2E2E2E2E2E2E2E2E2E2E2E2E2E2E2F5F5F5F5F5F5
310
F5F5F5F5F5F5F5F5F5F5F5F5F5F5F5F5F5F5F5F5F5F5F5F5F5F5F5F5F5F5F5F5F5F5F5F5F5F5F5F5F5F5F5F5F5F5F5F5F5F5F5F5F5F5F5F5F5F5F5F5F5F5F5F5F5F5F5F5F5F5F5F5F5F5F5F5F5F5F5F5F5F5F5F5F5F5F5F5F5F5F5F5F5F5F5F5F5F5F5F5F5F5F5F5F5F5F5F5F5F5F5F5F5F5F5F5F5F5F5F5F5F5F5F5F5F5F5
310
F5F5F5F5F5F5F5F5F5F5F5F5F5F5F5F5F5F5F5F5F5F5F5F5F5F5F5F5F5F5F5F5F5F5F5F5F5F5F5F5F5F5F5F5F5F5F5F5
  0
XRECORD
  5
87A
102
{ACAD_REACTORS
330
879
102
}
330
879
100
AcDbXrecord
280
     1
102
SHADEPLOT
 70
     0
102
SHADEPLOTRESLEVEL
 70
     2
102
SHADEPLOTCUSTOMDPI
 70
   300
  0
XRECORD
  5
87D
102
{ACAD_REACTORS
330
417
102
}
330
417
100
AcDbXrecord
280
     1
102
MATERIAL
148
0.0
149
0.0
149
0.0
 93
        0
 94
      127
282
     0
 72
     0
 77
     0
171
     0
175
     0
179
     0
273
     0
  0
XRECORD
  5
419
102
{ACAD_REACTORS
330
417
102
}
330
417
100
AcDbXrecord
280
     1
270
     1
271
     1
  0
XRECORD
  5
418
102
{ACAD_REACTORS
330
417
102
}
330
417
100
AcDbXrecord
280
     1
270
     1
271
     1
  0
XRECORD
  5
41C
102
{ACAD_REACTORS
330
417
102
}
330
417
100
AcDbXrecord
280
     1
270
     1
271
     1
  0
XRECORD
  5
41B
102
{ACAD_REACTORS
330
417
102
}
330
417
100
AcDbXrecord
280
     1
270
     1
271
     1
  0
XRECORD
  5
41D
102
{ACAD_REACTORS
330
417
102
}
330
417
100
AcDbXrecord
280
     1
270
     1
271
     1
  0
XRECORD
  5
41A
102
{ACAD_REACTORS
330
417
102
}
330
417
100
AcDbXrecord
280
     1
270
     1
271
     1
  0
XRECORD
  5
87C
102
{ACAD_REACTORS
330
40F
102
}
330
40F
100
AcDbXrecord
280
     1
102
MATERIAL
148
0.0
149
0.0
149
0.0
 93
        0
 94
      127
282
     0
 72
     0
 77
     0
171
     0
175
     0
179
     0
273
     0
  0
XRECORD
  5
411
102
{ACAD_REACTORS
330
40F
102
}
330
40F
100
AcDbXrecord
280
     1
270
     1
271
     1
  0
XRECORD
  5
410
102
{ACAD_REACTORS
330
40F
102
}
330
40F
100
AcDbXrecord
280
     1
270
     1
271
     1
  0
XRECORD
  5
414
102
{ACAD_REACTORS
330
40F
102
}
330
40F
100
AcDbXrecord
280
     1
270
     1
271
     1
  0
XRECORD
  5
413
102
{ACAD_REACTORS
330
40F
102
}
330
40F
100
AcDbXrecord
280
     1
270
     1
271
     1
  0
XRECORD
  5
415
102
{ACAD_REACTORS
330
40F
102
}
330
40F
100
AcDbXrecord
280
     1
270
     1
271
     1
  0
XRECORD
  5
412
102
{ACAD_REACTORS
330
40F
102
}
330
40F
100
AcDbXrecord
280
     1
270
     1
271
     1
  0
XRECORD
  5
87E
102
{ACAD_REACTORS
330
41F
102
}
330
41F
100
AcDbXrecord
280
     1
102
MATERIAL
148
0.0
149
0.0
149
0.0
 93
        0
 94
      127
282
     0
 72
     0
 77
     0
171
     0
175
     0
179
     0
273
     0
  0
XRECORD
  5
421
102
{ACAD_REACTORS
330
41F
102
}
330
41F
100
AcDbXrecord
280
     1
270
     1
271
     1
  0
XRECORD
  5
420
102
{ACAD_REACTORS
330
41F
102
}
330
41F
100
AcDbXrecord
280
     1
270
     1
271
     1
  0
XRECORD
  5
424
102
{ACAD_REACTORS
330
41F
102
}
330
41F
100
AcDbXrecord
280
     1
270
     1
271
     1
  0
XRECORD
  5
423
102
{ACAD_REACTORS
330
41F
102
}
330
41F
100
AcDbXrecord
280
     1
270
     1
271
     1
  0
XRECORD
  5
425
102
{ACAD_REACTORS
330
41F
102
}
330
41F
100
AcDbXrecord
280
     1
270
     1
271
     1
  0
XRECORD
  5
422
102
{ACAD_REACTORS
330
41F
102
}
330
41F
100
AcDbXrecord
280
     1
270
     1
271
     1
  0
CELLSTYLEMAP
  5
875
102
{ACAD_REACTORS
330
874
102
}
330
874
100
AcDbCellStyleMap
 90
        3
300
CELLSTYLE
  1
TABLEFORMAT_BEGIN
 90
        5
170
     1
 91
        0
 92
    32768
 62
   257
 93
        1
300
CONTENTFORMAT
  1
CONTENTFORMAT_BEGIN
 90
        0
 91
        0
 92
        4
 93
        0
300

 40
0.0
140
1.0
 94
        5
 62
     0
340
11
144
6.0
309
CONTENTFORMAT_END
171
     1
301
MARGIN
  1
CELLMARGIN_BEGIN
 40
1.5
 40
1.5
 40
1.5
 40
1.5
 40
0.18
 40
0.18
309
CELLMARGIN_END
 94
        6
 95
        1
302
GRIDFORMAT
  1
GRIDFORMAT_BEGIN
 90
        0
 91
        1
 62
     0
 92
       -2
340
0
 93
        0
 40
0.045
309
GRIDFORMAT_END
 95
        2
302
GRIDFORMAT
  1
GRIDFORMAT_BEGIN
 90
        0
 91
        1
 62
     0
 92
       -2
340
0
 93
        0
 40
0.045
309
GRIDFORMAT_END
 95
        4
302
GRIDFORMAT
  1
GRIDFORMAT_BEGIN
 90
        0
 91
        1
 62
     0
 92
       -2
340
0
 93
        0
 40
0.045
309
GRIDFORMAT_END
 95
        8
302
GRIDFORMAT
  1
GRIDFORMAT_BEGIN
 90
        0
 91
        1
 62
     0
 92
       -2
340
0
 93
        0
 40
0.045
309
GRIDFORMAT_END
 95
       16
302
GRIDFORMAT
  1
GRIDFORMAT_BEGIN
 90
        0
 91
        1
 62
     0
 92
       -2
340
0
 93
        0
 40
0.045
309
GRIDFORMAT_END
 95
       32
302
GRIDFORMAT
  1
GRIDFORMAT_BEGIN
 90
        0
 91
        1
 62
     0
 92
       -2
340
0
 93
        0
 40
0.045
309
GRIDFORMAT_END
309
TABLEFORMAT_END
  1
CELLSTYLE_BEGIN
 90
        1
 91
        1
300
_TITLE
309
CELLSTYLE_END
300
CELLSTYLE
  1
TABLEFORMAT_BEGIN
 90
        5
170
     1
 91
        0
 92
        0
 62
   257
 93
        1
300
CONTENTFORMAT
  1
CONTENTFORMAT_BEGIN
 90
        0
 91
        0
 92
        4
 93
        0
300

 40
0.0
140
1.0
 94
        5
 62
     0
340
11
144
4.5
309
CONTENTFORMAT_END
171
     1
301
MARGIN
  1
CELLMARGIN_BEGIN
 40
1.5
 40
1.5
 40
1.5
 40
1.5
 40
0.18
 40
0.18
309
CELLMARGIN_END
 94
        6
 95
        1
302
GRIDFORMAT
  1
GRIDFORMAT_BEGIN
 90
        0
 91
        1
 62
     0
 92
       -2
340
0
 93
        0
 40
0.045
309
GRIDFORMAT_END
 95
        2
302
GRIDFORMAT
  1
GRIDFORMAT_BEGIN
 90
        0
 91
        1
 62
     0
 92
       -2
340
0
 93
        0
 40
0.045
309
GRIDFORMAT_END
 95
        4
302
GRIDFORMAT
  1
GRIDFORMAT_BEGIN
 90
        0
 91
        1
 62
     0
 92
       -2
340
0
 93
        0
 40
0.045
309
GRIDFORMAT_END
 95
        8
302
GRIDFORMAT
  1
GRIDFORMAT_BEGIN
 90
        0
 91
        1
 62
     0
 92
       -2
340
0
 93
        0
 40
0.045
309
GRIDFORMAT_END
 95
       16
302
GRIDFORMAT
  1
GRIDFORMAT_BEGIN
 90
        0
 91
        1
 62
     0
 92
       -2
340
0
 93
        0
 40
0.045
309
GRIDFORMAT_END
 95
       32
302
GRIDFORMAT
  1
GRIDFORMAT_BEGIN
 90
        0
 91
        1
 62
     0
 92
       -2
340
0
 93
        0
 40
0.045
309
GRIDFORMAT_END
309
TABLEFORMAT_END
  1
CELLSTYLE_BEGIN
 90
        2
 91
        1
300
_HEADER
309
CELLSTYLE_END
300
CELLSTYLE
  1
TABLEFORMAT_BEGIN
 90
        5
170
     1
 91
        0
 92
        0
 62
   257
 93
        1
300
CONTENTFORMAT
  1
CONTENTFORMAT_BEGIN
 90
        0
 91
        0
 92
        4
 93
        0
300

 40
0.0
140
1.0
 94
        2
 62
     0
340
11
144
4.5
309
CONTENTFORMAT_END
171
     1
301
MARGIN
  1
CELLMARGIN_BEGIN
 40
1.5
 40
1.5
 40
1.5
 40
1.5
 40
0.18
 40
0.18
309
CELLMARGIN_END
 94
        6
 95
        1
302
GRIDFORMAT
  1
GRIDFORMAT_BEGIN
 90
        0
 91
        1
 62
     0
 92
       -2
340
0
 93
        0
 40
0.045
309
GRIDFORMAT_END
 95
        2
302
GRIDFORMAT
  1
GRIDFORMAT_BEGIN
 90
        0
 91
        1
 62
     0
 92
       -2
340
0
 93
        0
 40
0.045
309
GRIDFORMAT_END
 95
        4
302
GRIDFORMAT
  1
GRIDFORMAT_BEGIN
 90
        0
 91
        1
 62
     0
 92
       -2
340
0
 93
        0
 40
0.045
309
GRIDFORMAT_END
 95
        8
302
GRIDFORMAT
  1
GRIDFORMAT_BEGIN
 90
        0
 91
        1
 62
     0
 92
       -2
340
0
 93
        0
 40
0.045
309
GRIDFORMAT_END
 95
       16
302
GRIDFORMAT
  1
GRIDFORMAT_BEGIN
 90
        0
 91
        1
 62
     0
 92
       -2
340
0
 93
        0
 40
0.045
309
GRIDFORMAT_END
 95
       32
302
GRIDFORMAT
  1
GRIDFORMAT_BEGIN
 90
        0
 91
        1
 62
     0
 92
       -2
340
0
 93
        0
 40
0.045
309
GRIDFORMAT_END
309
TABLEFORMAT_END
  1
CELLSTYLE_BEGIN
 90
        3
 91
        2
300
_DATA
309
CELLSTYLE_END
  0
XRECORD
  5
87B
102
{ACAD_REACTORS
330
874
102
}
330
874
100
AcDbXrecord
280
     1
102
ACAD_ROUNDTRIP_PRE2007_TABLESTYLE
 90
        4
 91
        0
  1

 92
        4
 93
        0
  2

 94
        4
 95
        0
  3

  0
ENDSEC
  0
EOF
