  0
SECTION
  2
HEADER
  9
$ACADVER
  1
AC1015
  9
$ACADMAINTVER
 70
    20
  9
$DWGCODEPAGE
  3
ANSI_932
  9
$INSBASE
 10
0.0
 20
0.0
 30
0.0
  9
$EXTMIN
 10
-297.3112890915885
 20
-145.0691141023562
 30
0.0
  9
$EXTMAX
 10
698.318177862121
 20
462.3808388514245
 30
0.0
  9
$LIMMIN
 10
0.0
 20
0.0
  9
$LIMMAX
 10
420.0
 20
297.0
  9
$ORTHOMODE
 70
     1
  9
$REGENMODE
 70
     1
  9
$FILLMODE
 70
     1
  9
$QTEXTMODE
 70
     0
  9
$MIRRTEXT
 70
     1
  9
$LTSCALE
 40
1.0
  9
$ATTMODE
 70
     1
  9
$TEXTSIZE
 40
1.5
  9
$TRACEWID
 40
1.0
  9
$TEXTSTYLE
  7
AD-STANDARD
  9
$CLAYER
  8
0
  9
$CELTYPE
  6
ByLayer
  9
$CECOLOR
 62
   256
  9
$CELTSCALE
 40
1.0
  9
$DISPSILH
 70
     0
  9
$DIMSCALE
 40
5.0
  9
$DIMASZ
 40
2.5
  9
$DIMEXO
 40
1.0
  9
$DIMDLI
 40
0.38
  9
$DIMRND
 40
0.0
  9
$DIMDLE
 40
0.0
  9
$DIMEXE
 40
2.0
  9
$DIMTP
 40
0.0
  9
$DIMTM
 40
0.0
  9
$DIMTXT
 40
3.0
  9
$DIMCEN
 40
-2.0
  9
$DIMTSZ
 40
0.0
  9
$DIMTOL
 70
     0
  9
$DIMLIM
 70
     0
  9
$DIMTIH
 70
     0
  9
$DIMTOH
 70
     0
  9
$DIMSE1
 70
     0
  9
$DIMSE2
 70
     0
  9
$DIMTAD
 70
     1
  9
$DIMZIN
 70
     8
  9
$DIMBLK
  1

  9
$DIMASO
 70
     1
  9
$DIMSHO
 70
     1
  9
$DIMPOST
  1

  9
$DIMAPOST
  1

  9
$DIMALT
 70
     0
  9
$DIMALTD
 70
     2
  9
$DIMALTF
 40
25.4
  9
$DIMLFAC
 40
1.0
  9
$DIMTOFL
 70
     1
  9
$DIMTVP
 40
0.0
  9
$DIMTIX
 70
     0
  9
$DIMSOXD
 70
     0
  9
$DIMSAH
 70
     0
  9
$DIMBLK1
  1

  9
$DIMBLK2
  1

  9
$DIMSTYLE
  2
09)　s＝1／5
  9
$DIMCLRD
 70
     9
  9
$DIMCLRE
 70
     9
  9
$DIMCLRT
 70
     2
  9
$DIMTFAC
 40
1.0
  9
$DIMGAP
 40
0.5
  9
$DIMJUST
 70
     0
  9
$DIMSD1
 70
     0
  9
$DIMSD2
 70
     0
  9
$DIMTOLJ
 70
     1
  9
$DIMTZIN
 70
     8
  9
$DIMALTZ
 70
     0
  9
$DIMALTTZ
 70
     0
  9
$DIMUPT
 70
     0
  9
$DIMDEC
 70
     4
  9
$DIMTDEC
 70
     4
  9
$DIMALTU
 70
     2
  9
$DIMALTTD
 70
     2
  9
$DIMTXSTY
  7
AD-STANDARD
  9
$DIMAUNIT
 70
     0
  9
$DIMADEC
 70
     0
  9
$DIMALTRND
 40
0.0
  9
$DIMAZIN
 70
     0
  9
$DIMDSEP
 70
    46
  9
$DIMATFIT
 70
     3
  9
$DIMFRAC
 70
     0
  9
$DIMLDRBLK
  1

  9
$DIMLUNIT
 70
     2
  9
$DIMLWD
 70
    -2
  9
$DIMLWE
 70
    -2
  9
$DIMTMOVE
 70
     0
  9
$LUNITS
 70
     2
  9
$LUPREC
 70
     4
  9
$SKETCHINC
 40
1.0
  9
$FILLETRAD
 40
10.0
  9
$AUNITS
 70
     0
  9
$AUPREC
 70
     0
  9
$MENU
  1
.
  9
$ELEVATION
 40
0.0
  9
$PELEVATION
 40
0.0
  9
$THICKNESS
 40
0.0
  9
$LIMCHECK
 70
     0
  9
$CHAMFERA
 40
10.0
  9
$CHAMFERB
 40
10.0
  9
$CHAMFERC
 40
20.0
  9
$CHAMFERD
 40
0.0
  9
$SKPOLY
 70
     0
  9
$TDCREATE
 40
2455161.698628657
  9
$TDUCREATE
 40
2455161.323628658
  9
$TDUPDATE
 40
2458306.620312454
  9
$TDUUPDATE
 40
2458306.245312454
  9
$TDINDWG
 40
0.0129096181
  9
$TDUSRTIMER
 40
0.0129096181
  9
$USRTIMER
 70
     1
  9
$ANGBASE
 50
0.0
  9
$ANGDIR
 70
     0
  9
$PDMODE
 70
     0
  9
$PDSIZE
 40
0.0
  9
$PLINEWID
 40
0.0
  9
$SPLFRAME
 70
     0
  9
$SPLINETYPE
 70
     6
  9
$SPLINESEGS
 70
     8
  9
$HANDSEED
  5
7D2
  9
$SURFTAB1
 70
     6
  9
$SURFTAB2
 70
     6
  9
$SURFTYPE
 70
     6
  9
$SURFU
 70
     6
  9
$SURFV
 70
     6
  9
$UCSBASE
  2

  9
$UCSNAME
  2

  9
$UCSORG
 10
0.0
 20
0.0
 30
0.0
  9
$UCSXDIR
 10
1.0
 20
0.0
 30
0.0
  9
$UCSYDIR
 10
0.0
 20
1.0
 30
0.0
  9
$UCSORTHOREF
  2

  9
$UCSORTHOVIEW
 70
     0
  9
$UCSORGTOP
 10
0.0
 20
0.0
 30
0.0
  9
$UCSORGBOTTOM
 10
0.0
 20
0.0
 30
0.0
  9
$UCSORGLEFT
 10
0.0
 20
0.0
 30
0.0
  9
$UCSORGRIGHT
 10
0.0
 20
0.0
 30
0.0
  9
$UCSORGFRONT
 10
0.0
 20
0.0
 30
0.0
  9
$UCSORGBACK
 10
0.0
 20
0.0
 30
0.0
  9
$PUCSBASE
  2

  9
$PUCSNAME
  2

  9
$PUCSORG
 10
0.0
 20
0.0
 30
0.0
  9
$PUCSXDIR
 10
1.0
 20
0.0
 30
0.0
  9
$PUCSYDIR
 10
0.0
 20
1.0
 30
0.0
  9
$PUCSORTHOREF
  2

  9
$PUCSORTHOVIEW
 70
     0
  9
$PUCSORGTOP
 10
0.0
 20
0.0
 30
0.0
  9
$PUCSORGBOTTOM
 10
0.0
 20
0.0
 30
0.0
  9
$PUCSORGLEFT
 10
0.0
 20
0.0
 30
0.0
  9
$PUCSORGRIGHT
 10
0.0
 20
0.0
 30
0.0
  9
$PUCSORGFRONT
 10
0.0
 20
0.0
 30
0.0
  9
$PUCSORGBACK
 10
0.0
 20
0.0
 30
0.0
  9
$USERI1
 70
     0
  9
$USERI2
 70
     0
  9
$USERI3
 70
     0
  9
$USERI4
 70
     0
  9
$USERI5
 70
     0
  9
$USERR1
 40
0.0
  9
$USERR2
 40
0.0
  9
$USERR3
 40
0.0
  9
$USERR4
 40
0.0
  9
$USERR5
 40
0.0
  9
$WORLDVIEW
 70
     1
  9
$SHADEDGE
 70
     3
  9
$SHADEDIF
 70
    70
  9
$TILEMODE
 70
     0
  9
$MAXACTVP
 70
    64
  9
$PINSBASE
 10
0.0
 20
0.0
 30
0.0
  9
$PLIMCHECK
 70
     0
  9
$PEXTMIN
 10
3.365188236585595
 20
3.144460169993237
 30
-0.0000000349181948
  9
$PEXTMAX
 10
286.2515660748566
 20
200.4153767182727
 30
0.0000000814935746
  9
$PLIMMIN
 10
-3.17498779296875
 20
-3.174999952316284
  9
$PLIMMAX
 10
293.8568420410156
 20
206.7348358631134
  9
$UNITMODE
 70
     0
  9
$VISRETAIN
 70
     1
  9
$PLINEGEN
 70
     0
  9
$PSLTSCALE
 70
     1
  9
$TREEDEPTH
 70
  3020
  9
$CMLSTYLE
  2
Standard
  9
$CMLJUST
 70
     0
  9
$CMLSCALE
 40
20.0
  9
$PROXYGRAPHICS
 70
     1
  9
$MEASUREMENT
 70
     1
  9
$CELWEIGHT
370
    -1
  9
$ENDCAPS
280
     0
  9
$JOINSTYLE
280
     0
  9
$LWDISPLAY
290
     0
  9
$INSUNITS
 70
     4
  9
$HYPERLINKBASE
  1

  9
$STYLESHEET
  1

  9
$XEDIT
290
     1
  9
$CEPSNTYPE
380
     0
  9
$PSTYLEMODE
290
     1
  9
$FINGERPRINTGUID
  2
{F87C7C9B-F6C6-445F-85ED-E84259EDD442}
  9
$VERSIONGUID
  2
{493EE0E3-8B59-4C3D-9E3A-4781D0317A0E}
  9
$EXTNAMES
290
     1
  9
$PSVPSCALE
 40
0.0
  9
$OLESTARTUP
290
     0
  0
ENDSEC
  0
SECTION
  2
CLASSES
  0
CLASS
  1
ACDBDICTIONARYWDFLT
  2
AcDbDictionaryWithDefault
  3
ObjectDBX Classes
 90
        0
280
     0
281
     0
  0
CLASS
  1
VISUALSTYLE
  2
AcDbVisualStyle
  3
ObjectDBX Classes
 90
     4095
280
     0
281
     0
  0
CLASS
  1
SCALE
  2
AcDbScale
  3
ObjectDBX Classes
 90
     1153
280
     0
281
     0
  0
CLASS
  1
DICTIONARYVAR
  2
AcDbDictionaryVar
  3
ObjectDBX Classes
 90
        0
280
     0
281
     0
  0
CLASS
  1
ACDBPLACEHOLDER
  2
AcDbPlaceHolder
  3
ObjectDBX Classes
 90
        0
280
     0
281
     0
  0
CLASS
  1
LAYOUT
  2
AcDbLayout
  3
ObjectDBX Classes
 90
        0
280
     0
281
     0
  0
CLASS
  1
TABLESTYLE
  2
AcDbTableStyle
  3
ObjectDBX Classes
 90
     4095
280
     0
281
     0
  0
CLASS
  1
MATERIAL
  2
AcDbMaterial
  3
ObjectDBX Classes
 90
     1153
280
     0
281
     0
  0
CLASS
  1
MLEADERSTYLE
  2
AcDbMLeaderStyle
  3
ACDB_MLEADERSTYLE_CLASS
 90
     4095
280
     0
281
     0
  0
CLASS
  1
SORTENTSTABLE
  2
AcDbSortentsTable
  3
ObjectDBX Classes
 90
        0
280
     0
281
     0
  0
CLASS
  1
CELLSTYLEMAP
  2
AcDbCellStyleMap
  3
ObjectDBX Classes
 90
     1152
280
     0
281
     0
  0
ENDSEC
  0
SECTION
  2
TABLES
  0
TABLE
  2
VPORT
  5
8
330
0
100
AcDbSymbolTable
 70
     1
  0
VPORT
  5
3FC
330
8
100
AcDbSymbolTableRecord
100
AcDbViewportTableRecord
  2
*Active
 70
     0
 10
0.0
 20
0.0
 11
1.0
 21
1.0
 12
191.7840179609484
 22
158.6578091785771
 13
0.0
 23
0.0
 14
10.0
 24
10.0
 15
10.0
 25
10.0
 16
0.0
 26
0.0
 36
1.0
 17
0.0
 27
0.0
 37
0.0
 40
611.8981243804671
 41
2.273164861612515
 42
50.0
 43
0.0
 44
0.0
 50
0.0
 51
0.0
 71
     0
 72
   100
 73
     1
 74
     3
 75
     0
 76
     0
 77
     0
 78
     0
281
     0
 65
     1
110
0.0
120
0.0
130
0.0
111
1.0
121
0.0
131
0.0
112
0.0
122
1.0
132
0.0
 79
     0
146
0.0
  0
ENDTAB
  0
TABLE
  2
LTYPE
  5
5
330
0
100
AcDbSymbolTable
 70
     2
  0
LTYPE
  5
14
330
5
100
AcDbSymbolTableRecord
100
AcDbLinetypeTableRecord
  2
ByBlock
 70
     0
  3

 72
    65
 73
     0
 40
0.0
  0
LTYPE
  5
15
330
5
100
AcDbSymbolTableRecord
100
AcDbLinetypeTableRecord
  2
ByLayer
 70
     0
  3

 72
    65
 73
     0
 40
0.0
  0
LTYPE
  5
16
330
5
100
AcDbSymbolTableRecord
100
AcDbLinetypeTableRecord
  2
Continuous
 70
     0
  3
Solid line
 72
    65
 73
     0
 40
0.0
  0
ENDTAB
  0
TABLE
  2
LAYER
  5
2
102
{ACAD_XDICTIONARY
360
3A5
102
}
330
0
100
AcDbSymbolTable
 70
    20
  0
LAYER
  5
10
102
{ACAD_XDICTIONARY
360
785
102
}
330
2
100
AcDbSymbolTableRecord
100
AcDbLayerTableRecord
  2
0
 70
     0
 62
     7
  6
Continuous
370
    -3
390
F
  0
LAYER
  5
39C
330
2
100
AcDbSymbolTableRecord
100
AcDbLayerTableRecord
  2
DEFPOINTS
 70
     0
 62
     7
  6
Continuous
290
     0
370
    -3
390
F
  0
LAYER
  5
436
102
{ACAD_XDICTIONARY
360
437
102
}
330
2
100
AcDbSymbolTableRecord
100
AcDbLayerTableRecord
  2
NOTE
 70
     0
 62
     2
  6
Continuous
370
    -3
390
F
  0
ENDTAB
  0
TABLE
  2
STYLE
  5
3
330
0
100
AcDbSymbolTable
 70
     5
  0
STYLE
  5
11
330
3
100
AcDbSymbolTableRecord
100
AcDbTextStyleTableRecord
  2
Standard
 70
     0
 40
0.0
 41
1.0
 50
0.0
 71
     0
 42
2.5
  3
txt
  4

  0
STYLE
  5
39D
330
3
100
AcDbSymbolTableRecord
100
AcDbTextStyleTableRecord
  2
AD-STANDARD
 70
     0
 40
0.0
 41
0.8
 50
0.0
 71
     0
 42
1.5
  3
C:\Program Files\AutoCAD LT\romans.shx
  4
bigfont.shx
  0
ENDTAB
  0
TABLE
  2
VIEW
  5
6
330
0
100
AcDbSymbolTable
 70
     1
  0
ENDTAB
  0
TABLE
  2
UCS
  5
7
330
0
100
AcDbSymbolTable
 70
     0
  0
ENDTAB
  0
TABLE
  2
APPID
  5
9
330
0
100
AcDbSymbolTable
 70
     4
  0
APPID
  5
12
330
9
100
AcDbSymbolTableRecord
100
AcDbRegAppTableRecord
  2
ACAD
 70
     0
  0
APPID
  5
3A4
330
9
100
AcDbSymbolTableRecord
100
AcDbRegAppTableRecord
  2
ACAD_PSEXT
 70
     0
  0
APPID
  5
41F
330
9
100
AcDbSymbolTableRecord
100
AcDbRegAppTableRecord
  2
ACAD_MLEADERVER
 70
     0
  0
APPID
  5
6DA
330
9
100
AcDbSymbolTableRecord
100
AcDbRegAppTableRecord
  2
ACAD_EXEMPT_FROM_CAD_STANDARDS
 70
     0
  0
ENDTAB
  0
TABLE
  2
DIMSTYLE
  5
A
330
0
100
AcDbSymbolTable
 70
     7
100
AcDbDimStyleTable
 71
     1
340
438
  0
DIMSTYLE
105
28B
330
A
100
AcDbSymbolTableRecord
100
AcDbDimStyleTableRecord
  2
Standard
 70
     0
340
11
  0
DIMSTYLE
105
438
102
{ACAD_REACTORS
330
6C2
330
6EB
330
6FA
330
707
330
721
330
72E
330
73B
330
748
330
755
330
762
102
}
330
A
100
AcDbSymbolTableRecord
100
AcDbDimStyleTableRecord
  2
09)　s＝1／5
 70
     0
 40
5.0
 41
2.5
 42
1.0
 44
2.0
 73
     0
 74
     0
 77
     1
 78
     8
140
3.0
141
-2.0
147
0.5
172
     1
176
     9
177
     9
178
     2
284
     8
340
39D
  0
ENDTAB
  0
TABLE
  2
BLOCK_RECORD
  5
1
330
0
100
AcDbSymbolTable
 70
    40
  0
BLOCK_RECORD
  5
1F
102
{ACAD_XDICTIONARY
360
4C6
102
}
330
1
100
AcDbSymbolTableRecord
100
AcDbBlockTableRecord
  2
*Model_Space
340
22
  0
BLOCK_RECORD
  5
1B
330
1
100
AcDbSymbolTableRecord
100
AcDbBlockTableRecord
  2
*Paper_Space
340
1E
  0
BLOCK_RECORD
  5
6C3
330
1
100
AcDbSymbolTableRecord
100
AcDbBlockTableRecord
  2
*D28
340
0
  0
BLOCK_RECORD
  5
6EC
330
1
100
AcDbSymbolTableRecord
100
AcDbBlockTableRecord
  2
*D30
340
0
  0
BLOCK_RECORD
  5
6FB
330
1
100
AcDbSymbolTableRecord
100
AcDbBlockTableRecord
  2
*D31
340
0
  0
BLOCK_RECORD
  5
708
330
1
100
AcDbSymbolTableRecord
100
AcDbBlockTableRecord
  2
*D32
340
0
  0
BLOCK_RECORD
  5
722
330
1
100
AcDbSymbolTableRecord
100
AcDbBlockTableRecord
  2
*D33
340
0
  0
BLOCK_RECORD
  5
72F
330
1
100
AcDbSymbolTableRecord
100
AcDbBlockTableRecord
  2
*D34
340
0
  0
BLOCK_RECORD
  5
73C
330
1
100
AcDbSymbolTableRecord
100
AcDbBlockTableRecord
  2
*D35
340
0
  0
BLOCK_RECORD
  5
749
330
1
100
AcDbSymbolTableRecord
100
AcDbBlockTableRecord
  2
*D36
340
0
  0
BLOCK_RECORD
  5
756
330
1
100
AcDbSymbolTableRecord
100
AcDbBlockTableRecord
  2
*D37
340
0
  0
BLOCK_RECORD
  5
763
330
1
100
AcDbSymbolTableRecord
100
AcDbBlockTableRecord
  2
*D38
340
0
  0
ENDTAB
  0
ENDSEC
  0
SECTION
  2
BLOCKS
  0
BLOCK
  5
20
330
1F
100
AcDbEntity
  8
0
100
AcDbBlockBegin
  2
*Model_Space
 70
     0
 10
0.0
 20
0.0
 30
0.0
  3
*Model_Space
  1

  0
ENDBLK
  5
21
330
1F
100
AcDbEntity
  8
0
100
AcDbBlockEnd
  0
BLOCK
  5
1C
330
1B
100
AcDbEntity
 67
     1
  8
0
100
AcDbBlockBegin
  2
*Paper_Space
 70
     0
 10
0.0
 20
0.0
 30
0.0
  3
*Paper_Space
  1

  0
ENDBLK
  5
1D
330
1B
100
AcDbEntity
 67
     1
  8
0
100
AcDbBlockEnd
  0
BLOCK
  5
6C4
330
6C3
100
AcDbEntity
  8
0
100
AcDbBlockBegin
  2
*D28
 70
     1
 10
0.0
 20
0.0
 30
0.0
  3
*D28
  1

  0
LINE
  5
6E2
330
6C3
100
AcDbEntity
  8
0
 62
     9
370
    -2
100
AcDbLine
 10
-297.3112890915885
 20
323.3808388514253
 30
0.0
 11
-297.3112890915885
 21
366.8526685987341
 31
0.0
  0
LINE
  5
6E3
330
6C3
100
AcDbEntity
  8
0
 62
     9
370
    -2
100
AcDbLine
 10
-161.6392070948321
 20
323.3808388514253
 30
0.0
 11
-161.6392070948321
 21
366.8526685987341
 31
0.0
  0
LINE
  5
6E4
330
6C3
100
AcDbEntity
  8
0
 62
     9
370
    -2
100
AcDbLine
 10
-284.8112890915885
 20
356.8526685987341
 30
0.0
 11
-174.1392070948321
 21
356.8526685987341
 31
0.0
  0
SOLID
  5
6E5
330
6C3
100
AcDbEntity
  8
0
 62
     9
100
AcDbTrace
 10
-284.8112890915885
 20
358.9360019320674
 30
0.0
 11
-284.8112890915885
 21
354.7693352654008
 31
0.0
 12
-297.3112890915885
 22
356.8526685987341
 32
0.0
 13
-297.3112890915885
 23
356.8526685987341
 33
0.0
  0
SOLID
  5
6E6
330
6C3
100
AcDbEntity
  8
0
 62
     9
100
AcDbTrace
 10
-174.1392070948321
 20
358.9360019320674
 30
0.0
 11
-174.1392070948321
 21
354.7693352654008
 31
0.0
 12
-161.6392070948321
 22
356.8526685987341
 32
0.0
 13
-161.6392070948321
 23
356.8526685987341
 33
0.0
  0
MTEXT
  5
6E7
330
6C3
100
AcDbEntity
  8
0
 62
     2
100
AcDbMText
 10
-229.4752480932103
 20
366.8526685987341
 30
0.0
 40
15.0
 41
0.0
 71
     5
 72
     1
  1
\A1;Max. 1.5m
  7
AD-STANDARD
 73
     1
 44
1.0
1001
ACAD
1000
MTEXTBEGIN
1070
    73
1070
     1
1070
    44
1040
1.0
1070
    74
1070
     0
1000
MTEXTEND
  0
POINT
  5
6E8
330
6C3
100
AcDbEntity
  8
DEFPOINTS
 62
     0
100
AcDbPoint
 10
-297.3112890915885
 20
318.3808388514253
 30
0.0
  0
POINT
  5
6E9
330
6C3
100
AcDbEntity
  8
DEFPOINTS
 62
     0
100
AcDbPoint
 10
-161.6392070948321
 20
318.3808388514253
 30
0.0
  0
POINT
  5
6EA
330
6C3
100
AcDbEntity
  8
DEFPOINTS
 62
     0
100
AcDbPoint
 10
-161.6392070948321
 20
356.8526685987341
 30
0.0
  0
ENDBLK
  5
6C5
330
6C3
100
AcDbEntity
  8
0
100
AcDbBlockEnd
  0
BLOCK
  5
6ED
330
6EC
100
AcDbEntity
  8
0
100
AcDbBlockBegin
  2
*D30
 70
     1
 10
0.0
 20
0.0
 30
0.0
  3
*D30
  1

  0
LINE
  5
6EF
330
6EC
100
AcDbEntity
  8
0
 62
     9
370
    -2
100
AcDbLine
 10
-177.139207094832
 20
272.3808388514257
 30
0.0
 11
-219.3084818422794
 21
272.3808388514257
 31
0.0
  0
LINE
  5
6F0
330
6EC
100
AcDbEntity
  8
0
 62
     9
370
    -2
100
AcDbLine
 10
-177.139207094832
 20
252.3808388514257
 30
0.0
 11
-219.3084818422794
 21
252.3808388514257
 31
0.0
  0
LINE
  5
6F1
330
6EC
100
AcDbEntity
  8
0
 62
     9
370
    -2
100
AcDbLine
 10
-209.3084818422795
 20
284.8808388514257
 30
0.0
 11
-209.3084818422795
 21
297.3808388514257
 31
0.0
  0
LINE
  5
6F2
330
6EC
100
AcDbEntity
  8
0
 62
     9
370
    -2
100
AcDbLine
 10
-209.3084818422795
 20
239.8808388514257
 30
0.0
 11
-209.3084818422795
 21
202.9522674228543
 31
0.0
  0
LINE
  5
6F3
330
6EC
100
AcDbEntity
  8
0
 62
     9
370
    -2
100
AcDbLine
 10
-209.3084818422795
 20
272.3808388514257
 30
0.0
 11
-209.3084818422795
 21
252.3808388514257
 31
0.0
  0
SOLID
  5
6F4
330
6EC
100
AcDbEntity
  8
0
 62
     9
100
AcDbTrace
 10
-211.3918151756128
 20
284.8808388514257
 30
0.0
 11
-207.2251485089461
 21
284.8808388514257
 31
0.0
 12
-209.3084818422795
 22
272.3808388514257
 32
0.0
 13
-209.3084818422795
 23
272.3808388514257
 33
0.0
  0
SOLID
  5
6F5
330
6EC
100
AcDbEntity
  8
0
 62
     9
100
AcDbTrace
 10
-211.3918151756128
 20
239.8808388514257
 30
0.0
 11
-207.2251485089461
 21
239.8808388514257
 31
0.0
 12
-209.3084818422795
 22
252.3808388514257
 32
0.0
 13
-209.3084818422795
 23
252.3808388514257
 33
0.0
  0
MTEXT
  5
6F6
330
6EC
100
AcDbEntity
  8
0
 62
     2
100
AcDbMText
 10
-219.3084818422795
 20
215.16655313714
 30
0.0
 40
15.0
 41
0.0
 71
     5
 72
     1
  1
\A1;20
  7
AD-STANDARD
 11
0.0000000000000001
 21
1.0
 31
0.0
 73
     1
 44
1.0
1001
ACAD
1000
MTEXTBEGIN
1070
    73
1070
     1
1070
    44
1040
1.0
1070
    74
1070
     0
1000
MTEXTEND
  0
POINT
  5
6F7
330
6EC
100
AcDbEntity
  8
DEFPOINTS
 62
     0
100
AcDbPoint
 10
-172.139207094832
 20
272.3808388514257
 30
0.0
  0
POINT
  5
6F8
330
6EC
100
AcDbEntity
  8
DEFPOINTS
 62
     0
100
AcDbPoint
 10
-172.139207094832
 20
252.3808388514257
 30
0.0
  0
POINT
  5
6F9
330
6EC
100
AcDbEntity
  8
DEFPOINTS
 62
     0
100
AcDbPoint
 10
-209.3084818422795
 20
252.3808388514257
 30
0.0
  0
ENDBLK
  5
6EE
330
6EC
100
AcDbEntity
  8
0
100
AcDbBlockEnd
  0
BLOCK
  5
6FC
330
6FB
100
AcDbEntity
  8
0
100
AcDbBlockBegin
  2
*D31
 70
     1
 10
0.0
 20
0.0
 30
0.0
  3
*D31
  1

  0
LINE
  5
6FE
330
6FB
100
AcDbEntity
  8
0
 62
     9
370
    -2
100
AcDbLine
 10
-165.1466513095277
 20
162.380838851426
 30
0.0
 11
-247.7692478492682
 21
162.3808388514261
 31
0.0
  0
LINE
  5
6FF
330
6FB
100
AcDbEntity
  8
0
 62
     9
370
    -2
100
AcDbLine
 10
-169.1392070948321
 20
262.3808388514257
 30
0.0
 11
-247.7692478492681
 21
262.3808388514257
 31
0.0
  0
LINE
  5
700
330
6FB
100
AcDbEntity
  8
0
 62
     9
370
    -2
100
AcDbLine
 10
-237.7692478492682
 20
174.8808388514261
 30
0.0
 11
-237.7692478492682
 21
249.8808388514257
 31
0.0
  0
SOLID
  5
701
330
6FB
100
AcDbEntity
  8
0
 62
     9
100
AcDbTrace
 10
-239.8525811826015
 20
174.8808388514261
 30
0.0
 11
-235.6859145159348
 21
174.8808388514261
 31
0.0
 12
-237.7692478492682
 22
162.3808388514261
 32
0.0
 13
-237.7692478492682
 23
162.3808388514261
 33
0.0
  0
SOLID
  5
702
330
6FB
100
AcDbEntity
  8
0
 62
     9
100
AcDbTrace
 10
-239.8525811826015
 20
249.8808388514257
 30
0.0
 11
-235.6859145159348
 21
249.8808388514257
 31
0.0
 12
-237.7692478492682
 22
262.3808388514257
 32
0.0
 13
-237.7692478492682
 23
262.3808388514257
 33
0.0
  0
MTEXT
  5
703
330
6FB
100
AcDbEntity
  8
0
 62
     2
100
AcDbMText
 10
-247.7692478492682
 20
212.3808388514258
 30
0.0
 40
15.0
 41
0.0
 71
     5
 72
     1
  1
\A1;100
  7
AD-STANDARD
 11
0.0000000000000001
 21
1.0
 31
0.0
 73
     1
 44
1.0
1001
ACAD
1000
MTEXTBEGIN
1070
    73
1070
     1
1070
    44
1040
1.0
1070
    74
1070
     0
1000
MTEXTEND
  0
POINT
  5
704
330
6FB
100
AcDbEntity
  8
DEFPOINTS
 62
     0
100
AcDbPoint
 10
-160.1466513095277
 20
162.380838851426
 30
0.0
  0
POINT
  5
705
330
6FB
100
AcDbEntity
  8
DEFPOINTS
 62
     0
100
AcDbPoint
 10
-164.1392070948321
 20
262.3808388514257
 30
0.0
  0
POINT
  5
706
330
6FB
100
AcDbEntity
  8
DEFPOINTS
 62
     0
100
AcDbPoint
 10
-237.7692478492682
 20
262.3808388514257
 30
0.0
  0
ENDBLK
  5
6FD
330
6FB
100
AcDbEntity
  8
0
100
AcDbBlockEnd
  0
BLOCK
  5
709
330
708
100
AcDbEntity
  8
0
100
AcDbBlockBegin
  2
*D32
 70
     1
 10
0.0
 20
0.0
 30
0.0
  3
*D32
  1

  0
LINE
  5
716
330
708
100
AcDbEntity
  8
0
 62
     9
370
    -2
100
AcDbLine
 10
-182.139207094832
 20
257.3808388514257
 30
0.0
 11
-182.139207094832
 21
110.257626749968
 31
0.0
  0
LINE
  5
717
330
708
100
AcDbEntity
  8
0
 62
     9
370
    -2
100
AcDbLine
 10
-161.639207094832
 20
158.8733946367345
 30
0.0
 11
-161.639207094832
 21
110.257626749968
 31
0.0
  0
LINE
  5
718
330
708
100
AcDbEntity
  8
0
 62
     9
370
    -2
100
AcDbLine
 10
-149.139207094832
 20
120.257626749968
 30
0.0
 11
-136.639207094832
 21
120.257626749968
 31
0.0
  0
LINE
  5
719
330
708
100
AcDbEntity
  8
0
 62
     9
370
    -2
100
AcDbLine
 10
-194.639207094832
 20
120.257626749968
 30
0.0
 11
-248.7106356662605
 21
120.257626749968
 31
0.0
  0
LINE
  5
71A
330
708
100
AcDbEntity
  8
0
 62
     9
370
    -2
100
AcDbLine
 10
-161.639207094832
 20
120.257626749968
 30
0.0
 11
-182.139207094832
 21
120.257626749968
 31
0.0
  0
SOLID
  5
71B
330
708
100
AcDbEntity
  8
0
 62
     9
100
AcDbTrace
 10
-149.139207094832
 20
122.3409600833013
 30
0.0
 11
-149.139207094832
 21
118.1742934166347
 31
0.0
 12
-161.639207094832
 22
120.257626749968
 32
0.0
 13
-161.639207094832
 23
120.257626749968
 33
0.0
  0
SOLID
  5
71C
330
708
100
AcDbEntity
  8
0
 62
     9
100
AcDbTrace
 10
-194.639207094832
 20
122.3409600833013
 30
0.0
 11
-194.639207094832
 21
118.1742934166347
 31
0.0
 12
-182.139207094832
 22
120.257626749968
 32
0.0
 13
-182.139207094832
 23
120.257626749968
 33
0.0
  0
MTEXT
  5
71D
330
708
100
AcDbEntity
  8
0
 62
     2
100
AcDbMText
 10
-227.9249213805463
 20
130.257626749968
 30
0.0
 40
15.0
 41
0.0
 71
     5
 72
     1
  1
\A1;20.5
  7
AD-STANDARD
 73
     1
 44
1.0
1001
ACAD
1000
MTEXTBEGIN
1070
    73
1070
     1
1070
    44
1040
1.0
1070
    74
1070
     0
1000
MTEXTEND
  0
POINT
  5
71E
330
708
100
AcDbEntity
  8
DEFPOINTS
 62
     0
100
AcDbPoint
 10
-182.139207094832
 20
262.3808388514257
 30
0.0
  0
POINT
  5
71F
330
708
100
AcDbEntity
  8
DEFPOINTS
 62
     0
100
AcDbPoint
 10
-161.639207094832
 20
163.8733946367345
 30
0.0
  0
POINT
  5
720
330
708
100
AcDbEntity
  8
DEFPOINTS
 62
     0
100
AcDbPoint
 10
-161.639207094832
 20
120.257626749968
 30
0.0
  0
ENDBLK
  5
70A
330
708
100
AcDbEntity
  8
0
100
AcDbBlockEnd
  0
BLOCK
  5
723
330
722
100
AcDbEntity
  8
0
100
AcDbBlockBegin
  2
*D33
 70
     1
 10
0.0
 20
0.0
 30
0.0
  3
*D33
  1

  0
LINE
  5
725
330
722
100
AcDbEntity
  8
0
 62
     9
370
    -2
100
AcDbLine
 10
-161.639207094832
 20
158.8733946367345
 30
0.0
 11
-161.639207094832
 21
110.257626749968
 31
0.0
  0
LINE
  5
726
330
722
100
AcDbEntity
  8
0
 62
     9
370
    -2
100
AcDbLine
 10
218.3607929051657
 20
158.8733946367346
 30
0.0
 11
218.3607929051657
 21
110.257626749968
 31
0.0
  0
LINE
  5
727
330
722
100
AcDbEntity
  8
0
 62
     9
370
    -2
100
AcDbLine
 10
-149.139207094832
 20
120.257626749968
 30
0.0
 11
205.8607929051657
 21
120.257626749968
 31
0.0
  0
SOLID
  5
728
330
722
100
AcDbEntity
  8
0
 62
     9
100
AcDbTrace
 10
-149.139207094832
 20
122.3409600833013
 30
0.0
 11
-149.139207094832
 21
118.1742934166347
 31
0.0
 12
-161.639207094832
 22
120.257626749968
 32
0.0
 13
-161.639207094832
 23
120.257626749968
 33
0.0
  0
SOLID
  5
729
330
722
100
AcDbEntity
  8
0
 62
     9
100
AcDbTrace
 10
205.8607929051657
 20
122.3409600833013
 30
0.0
 11
205.8607929051657
 21
118.1742934166347
 31
0.0
 12
218.3607929051657
 22
120.257626749968
 32
0.0
 13
218.3607929051657
 23
120.257626749968
 33
0.0
  0
MTEXT
  5
72A
330
722
100
AcDbEntity
  8
0
 62
     2
100
AcDbMText
 10
28.36079290516685
 20
130.257626749968
 30
0.0
 40
15.0
 41
0.0
 71
     5
 72
     1
  1
\A1;380
  7
AD-STANDARD
 73
     1
 44
1.0
1001
ACAD
1000
MTEXTBEGIN
1070
    73
1070
     1
1070
    44
1040
1.0
1070
    74
1070
     0
1000
MTEXTEND
  0
POINT
  5
72B
330
722
100
AcDbEntity
  8
DEFPOINTS
 62
     0
100
AcDbPoint
 10
-161.639207094832
 20
163.8733946367345
 30
0.0
  0
POINT
  5
72C
330
722
100
AcDbEntity
  8
DEFPOINTS
 62
     0
100
AcDbPoint
 10
218.3607929051657
 20
163.8733946367346
 30
0.0
  0
POINT
  5
72D
330
722
100
AcDbEntity
  8
DEFPOINTS
 62
     0
100
AcDbPoint
 10
218.3607929051657
 20
120.257626749968
 30
0.0
  0
ENDBLK
  5
724
330
722
100
AcDbEntity
  8
0
100
AcDbBlockEnd
  0
BLOCK
  5
730
330
72F
100
AcDbEntity
  8
0
100
AcDbBlockBegin
  2
*D34
 70
     1
 10
0.0
 20
0.0
 30
0.0
  3
*D34
  1

  0
LINE
  5
732
330
72F
100
AcDbEntity
  8
0
 62
     9
370
    -2
100
AcDbLine
 10
221.8682371198615
 20
162.380838851426
 30
0.0
 11
272.8149733204336
 21
162.380838851426
 31
0.0
  0
LINE
  5
733
330
72F
100
AcDbEntity
  8
0
 62
     9
370
    -2
100
AcDbLine
 10
221.8682371198615
 20
462.3808388514245
 30
0.0
 11
272.8149733204337
 21
462.3808388514245
 31
0.0
  0
LINE
  5
734
330
72F
100
AcDbEntity
  8
0
 62
     9
370
    -2
100
AcDbLine
 10
262.8149733204336
 20
174.880838851426
 30
0.0
 11
262.8149733204337
 21
449.8808388514245
 31
0.0
  0
SOLID
  5
735
330
72F
100
AcDbEntity
  8
0
 62
     9
100
AcDbTrace
 10
260.7316399871003
 20
174.880838851426
 30
0.0
 11
264.8983066537669
 21
174.880838851426
 31
0.0
 12
262.8149733204336
 22
162.380838851426
 32
0.0
 13
262.8149733204336
 23
162.380838851426
 33
0.0
  0
SOLID
  5
736
330
72F
100
AcDbEntity
  8
0
 62
     9
100
AcDbTrace
 10
260.7316399871004
 20
449.8808388514245
 30
0.0
 11
264.898306653767
 21
449.8808388514245
 31
0.0
 12
262.8149733204337
 22
462.3808388514245
 32
0.0
 13
262.8149733204337
 23
462.3808388514245
 33
0.0
  0
MTEXT
  5
737
330
72F
100
AcDbEntity
  8
0
 62
     2
100
AcDbMText
 10
252.8149733204336
 20
312.3808388514253
 30
0.0
 40
15.0
 41
0.0
 71
     5
 72
     1
  1
\A1;300
  7
AD-STANDARD
 11
0.0000000000000001
 21
1.0
 31
0.0
 73
     1
 44
1.0
1001
ACAD
1000
MTEXTBEGIN
1070
    73
1070
     1
1070
    44
1040
1.0
1070
    74
1070
     0
1000
MTEXTEND
  0
POINT
  5
738
330
72F
100
AcDbEntity
  8
DEFPOINTS
 62
     0
100
AcDbPoint
 10
216.8682371198615
 20
162.380838851426
 30
0.0
  0
POINT
  5
739
330
72F
100
AcDbEntity
  8
DEFPOINTS
 62
     0
100
AcDbPoint
 10
216.8682371198615
 20
462.3808388514245
 30
0.0
  0
POINT
  5
73A
330
72F
100
AcDbEntity
  8
DEFPOINTS
 62
     0
100
AcDbPoint
 10
262.8149733204337
 20
462.3808388514245
 30
0.0
  0
ENDBLK
  5
731
330
72F
100
AcDbEntity
  8
0
100
AcDbBlockEnd
  0
BLOCK
  5
73D
330
73C
100
AcDbEntity
  8
0
100
AcDbBlockBegin
  2
*D35
 70
     1
 10
0.0
 20
0.0
 30
0.0
  3
*D35
  1

  0
LINE
  5
73F
330
73C
100
AcDbEntity
  8
0
 62
     9
370
    -2
100
AcDbLine
 10
-137.1392070948322
 20
-99.51848252513498
 30
0.0
 11
-137.1392070948322
 21
-145.0691141023562
 31
0.0
  0
LINE
  5
740
330
73C
100
AcDbEntity
  8
0
 62
     9
370
    -2
100
AcDbLine
 10
193.860792905166
 20
-99.51848252513514
 30
0.0
 11
193.860792905166
 21
-145.0691141023562
 31
0.0
  0
LINE
  5
741
330
73C
100
AcDbEntity
  8
0
 62
     9
370
    -2
100
AcDbLine
 10
-124.6392070948322
 20
-135.0691141023562
 30
0.0
 11
181.360792905166
 21
-135.0691141023562
 31
0.0
  0
SOLID
  5
742
330
73C
100
AcDbEntity
  8
0
 62
     9
100
AcDbTrace
 10
-124.6392070948322
 20
-132.9857807690229
 30
0.0
 11
-124.6392070948322
 21
-137.1524474356896
 31
0.0
 12
-137.1392070948322
 22
-135.0691141023562
 32
0.0
 13
-137.1392070948322
 23
-135.0691141023562
 33
0.0
  0
SOLID
  5
743
330
73C
100
AcDbEntity
  8
0
 62
     9
100
AcDbTrace
 10
181.360792905166
 20
-132.9857807690229
 30
0.0
 11
181.360792905166
 21
-137.1524474356896
 31
0.0
 12
193.860792905166
 22
-135.0691141023562
 32
0.0
 13
193.860792905166
 23
-135.0691141023562
 33
0.0
  0
MTEXT
  5
744
330
73C
100
AcDbEntity
  8
0
 62
     2
100
AcDbMText
 10
28.36079290516691
 20
-125.0691141023562
 30
0.0
 40
15.0
 41
0.0
 71
     5
 72
     1
  1
\A1;331
  7
AD-STANDARD
 73
     1
 44
1.0
1001
ACAD
1000
MTEXTBEGIN
1070
    73
1070
     1
1070
    44
1040
1.0
1070
    74
1070
     0
1000
MTEXTEND
  0
POINT
  5
745
330
73C
100
AcDbEntity
  8
DEFPOINTS
 62
     0
100
AcDbPoint
 10
-137.1392070948322
 20
-94.51848252513498
 30
0.0
  0
POINT
  5
746
330
73C
100
AcDbEntity
  8
DEFPOINTS
 62
     0
100
AcDbPoint
 10
193.860792905166
 20
-94.51848252513514
 30
0.0
  0
POINT
  5
747
330
73C
100
AcDbEntity
  8
DEFPOINTS
 62
     0
100
AcDbPoint
 10
193.860792905166
 20
-135.0691141023562
 30
0.0
  0
ENDBLK
  5
73E
330
73C
100
AcDbEntity
  8
0
100
AcDbBlockEnd
  0
BLOCK
  5
74A
330
749
100
AcDbEntity
  8
0
100
AcDbBlockBegin
  2
*D36
 70
     1
 10
0.0
 20
0.0
 30
0.0
  3
*D36
  1

  0
LINE
  5
74C
330
749
100
AcDbEntity
  8
0
 62
     9
370
    -2
100
AcDbLine
 10
217.0033115620015
 20
22.98151747486438
 30
0.0
 11
272.8149733204336
 21
22.98151747486437
 31
0.0
  0
LINE
  5
74D
330
749
100
AcDbEntity
  8
0
 62
     9
370
    -2
100
AcDbLine
 10
223.3607929051657
 20
-27.01848252513531
 30
0.0
 11
272.8149733204336
 21
-27.01848252513533
 31
0.0
  0
LINE
  5
74E
330
749
100
AcDbEntity
  8
0
 62
     9
370
    -2
100
AcDbLine
 10
262.8149733204336
 20
10.48151747486437
 30
0.0
 11
262.8149733204336
 21
-14.51848252513532
 31
0.0
  0
SOLID
  5
74F
330
749
100
AcDbEntity
  8
0
 62
     9
100
AcDbTrace
 10
260.7316399871002
 20
10.48151747486437
 30
0.0
 11
264.8983066537669
 21
10.48151747486437
 31
0.0
 12
262.8149733204336
 22
22.98151747486437
 32
0.0
 13
262.8149733204336
 23
22.98151747486437
 33
0.0
  0
SOLID
  5
750
330
749
100
AcDbEntity
  8
0
 62
     9
100
AcDbTrace
 10
260.7316399871002
 20
-14.51848252513532
 30
0.0
 11
264.8983066537669
 21
-14.51848252513532
 31
0.0
 12
262.8149733204336
 22
-27.01848252513532
 32
0.0
 13
262.8149733204336
 23
-27.01848252513532
 33
0.0
  0
MTEXT
  5
751
330
749
100
AcDbEntity
  8
0
 62
     2
100
AcDbMText
 10
252.8149733204336
 20
-2.018482525135435
 30
0.0
 40
15.0
 41
0.0
 71
     5
 72
     1
  1
\A1;50
  7
AD-STANDARD
 11
0.0000000000000001
 21
1.0
 31
0.0
 73
     1
 44
1.0
1001
ACAD
1000
MTEXTBEGIN
1070
    73
1070
     1
1070
    44
1040
1.0
1070
    74
1070
     0
1000
MTEXTEND
  0
POINT
  5
752
330
749
100
AcDbEntity
  8
DEFPOINTS
 62
     0
100
AcDbPoint
 10
212.0033115620016
 20
22.98151747486438
 30
0.0
  0
POINT
  5
753
330
749
100
AcDbEntity
  8
DEFPOINTS
 62
     0
100
AcDbPoint
 10
218.3607929051657
 20
-27.01848252513531
 30
0.0
  0
POINT
  5
754
330
749
100
AcDbEntity
  8
DEFPOINTS
 62
     0
100
AcDbPoint
 10
262.8149733204336
 20
-27.01848252513532
 30
0.0
  0
ENDBLK
  5
74B
330
749
100
AcDbEntity
  8
0
100
AcDbBlockEnd
  0
BLOCK
  5
757
330
756
100
AcDbEntity
  8
0
100
AcDbBlockBegin
  2
*D37
 70
     1
 10
0.0
 20
0.0
 30
0.0
  3
*D37
  1

  0
LINE
  5
759
330
756
100
AcDbEntity
  8
0
 62
     9
370
    -2
100
AcDbLine
 10
210.360792905166
 20
-94.51848252513514
 30
0.0
 11
311.9166130769299
 21
-94.51848252513517
 31
0.0
  0
LINE
  5
75A
330
756
100
AcDbEntity
  8
0
 62
     9
370
    -2
100
AcDbLine
 10
217.0033115620015
 20
22.9815174748644
 30
0.0
 11
311.9166130769299
 21
22.98151747486437
 31
0.0
  0
LINE
  5
75B
330
756
100
AcDbEntity
  8
0
 62
     9
370
    -2
100
AcDbLine
 10
301.91661307693
 20
-82.01848252513517
 30
0.0
 11
301.91661307693
 21
10.48151747486437
 31
0.0
  0
SOLID
  5
75C
330
756
100
AcDbEntity
  8
0
 62
     9
100
AcDbTrace
 10
299.8332797435966
 20
-82.01848252513517
 30
0.0
 11
303.9999464102633
 21
-82.01848252513517
 31
0.0
 12
301.91661307693
 22
-94.51848252513517
 32
0.0
 13
301.91661307693
 23
-94.51848252513517
 33
0.0
  0
SOLID
  5
75D
330
756
100
AcDbEntity
  8
0
 62
     9
100
AcDbTrace
 10
299.8332797435966
 20
10.48151747486437
 30
0.0
 11
303.9999464102633
 21
10.48151747486437
 31
0.0
 12
301.91661307693
 22
22.98151747486437
 32
0.0
 13
301.91661307693
 23
22.98151747486437
 33
0.0
  0
MTEXT
  5
75E
330
756
100
AcDbEntity
  8
0
 62
     2
100
AcDbMText
 10
291.9166130769299
 20
-35.76848252513535
 30
0.0
 40
15.0
 41
0.0
 71
     5
 72
     1
  1
\A1;117.5
  7
AD-STANDARD
 11
0.0000000000000001
 21
1.0
 31
0.0
 73
     1
 44
1.0
1001
ACAD
1000
MTEXTBEGIN
1070
    73
1070
     1
1070
    44
1040
1.0
1070
    74
1070
     0
1000
MTEXTEND
  0
POINT
  5
75F
330
756
100
AcDbEntity
  8
DEFPOINTS
 62
     0
100
AcDbPoint
 10
205.360792905166
 20
-94.51848252513514
 30
0.0
  0
POINT
  5
760
330
756
100
AcDbEntity
  8
DEFPOINTS
 62
     0
100
AcDbPoint
 10
212.0033115620016
 20
22.98151747486441
 30
0.0
  0
POINT
  5
761
330
756
100
AcDbEntity
  8
DEFPOINTS
 62
     0
100
AcDbPoint
 10
301.91661307693
 20
22.98151747486437
 30
0.0
  0
ENDBLK
  5
758
330
756
100
AcDbEntity
  8
0
100
AcDbBlockEnd
  0
BLOCK
  5
764
330
763
100
AcDbEntity
  8
0
100
AcDbBlockBegin
  2
*D38
 70
     1
 10
0.0
 20
0.0
 30
0.0
  3
*D38
  1

  0
LINE
  5
778
330
763
100
AcDbEntity
  8
0
 62
     9
370
    -2
100
AcDbLine
 10
434.3181778621224
 20
-99.51848252513514
 30
0.0
 11
434.3181778621224
 21
-145.0691141023562
 31
0.0
  0
LINE
  5
779
330
763
100
AcDbEntity
  8
0
 62
     9
370
    -2
100
AcDbLine
 10
662.3181778621212
 20
-99.51848252513514
 30
0.0
 11
662.3181778621212
 21
-145.0691141023562
 31
0.0
  0
LINE
  5
77A
330
763
100
AcDbEntity
  8
0
 62
     9
370
    -2
100
AcDbLine
 10
446.8181778621224
 20
-135.0691141023562
 30
0.0
 11
649.8181778621212
 21
-135.0691141023562
 31
0.0
  0
SOLID
  5
77B
330
763
100
AcDbEntity
  8
0
 62
     9
100
AcDbTrace
 10
446.8181778621224
 20
-132.9857807690229
 30
0.0
 11
446.8181778621224
 21
-137.1524474356896
 31
0.0
 12
434.3181778621224
 22
-135.0691141023562
 32
0.0
 13
434.3181778621224
 23
-135.0691141023562
 33
0.0
  0
SOLID
  5
77C
330
763
100
AcDbEntity
  8
0
 62
     9
100
AcDbTrace
 10
649.8181778621212
 20
-132.9857807690229
 30
0.0
 11
649.8181778621212
 21
-137.1524474356896
 31
0.0
 12
662.3181778621212
 22
-135.0691141023562
 32
0.0
 13
662.3181778621212
 23
-135.0691141023562
 33
0.0
  0
MTEXT
  5
77D
330
763
100
AcDbEntity
  8
0
 62
     2
100
AcDbMText
 10
548.3181778621218
 20
-125.0691141023562
 30
0.0
 40
15.0
 41
0.0
 71
     5
 72
     1
  1
\A1;228
  7
AD-STANDARD
 73
     1
 44
1.0
1001
ACAD
1000
MTEXTBEGIN
1070
    73
1070
     1
1070
    44
1040
1.0
1070
    74
1070
     0
1000
MTEXTEND
  0
POINT
  5
77E
330
763
100
AcDbEntity
  8
DEFPOINTS
 62
     0
100
AcDbPoint
 10
434.3181778621224
 20
-94.51848252513514
 30
0.0
  0
POINT
  5
77F
330
763
100
AcDbEntity
  8
DEFPOINTS
 62
     0
100
AcDbPoint
 10
662.3181778621212
 20
-94.51848252513514
 30
0.0
  0
POINT
  5
780
330
763
100
AcDbEntity
  8
DEFPOINTS
 62
     0
100
AcDbPoint
 10
662.3181778621212
 20
-135.0691141023562
 30
0.0
  0
ENDBLK
  5
765
330
763
100
AcDbEntity
  8
0
100
AcDbBlockEnd
  0
ENDSEC
  0
SECTION
  2
ENTITIES
  0
LINE
  5
49B
330
1F
100
AcDbEntity
  8
0
100
AcDbLine
 10
-161.639207094832
 20
252.3808388514257
 30
0.0
 11
-172.139207094832
 21
252.3808388514257
 31
0.0
  0
LINE
  5
49C
330
1F
100
AcDbEntity
  8
0
100
AcDbLine
 10
-172.139207094832
 20
272.3808388514257
 30
0.0
 11
-161.639207094832
 21
272.3808388514257
 31
0.0
  0
ARC
  5
49D
330
1F
100
AcDbEntity
  8
0
100
AcDbCircle
 10
-172.139207094832
 20
262.3808388514257
 30
0.0
 40
9.999999999999946
100
AcDbArc
 50
90.0
 51
270.0
  0
CIRCLE
  5
49E
330
1F
100
AcDbEntity
  8
0
100
AcDbCircle
 10
-172.1392070948321
 20
262.3808388514257
 30
0.0
 40
8.499999999999953
  0
CIRCLE
  5
49F
330
1F
100
AcDbEntity
  8
0
100
AcDbCircle
 10
-172.1392070948321
 20
262.3808388514257
 30
0.0
 40
7.999999999999955
  0
CIRCLE
  5
4A0
330
1F
100
AcDbEntity
  8
0
100
AcDbCircle
 10
-172.1392070948321
 20
262.3808388514257
 30
0.0
 40
3.49999999999998
  0
LINE
  5
4A1
330
1F
100
AcDbEntity
  8
0
100
AcDbLine
 10
-161.6392070948321
 20
460.8882830661162
 30
0.0
 11
-161.639207094832
 21
163.8733946367345
 31
0.0
  0
LINE
  5
4A2
330
1F
100
AcDbEntity
  8
0
100
AcDbLine
 10
-156.7742815369824
 20
168.7383201945027
 30
0.0
 11
-156.7742815369825
 21
456.0233575083478
 31
0.0
  0
LINE
  5
4A3
330
1F
100
AcDbEntity
  8
0
100
AcDbLine
 10
-156.7742815369825
 20
456.0233575083478
 30
0.0
 11
-161.6392070948321
 21
460.8882830661161
 31
0.0
  0
LINE
  5
4A4
330
1F
100
AcDbEntity
  8
0
100
AcDbLine
 10
-161.639207094832
 20
163.8733946367345
 30
0.0
 11
-156.7742815369824
 21
168.7383201945028
 31
0.0
  0
LINE
  5
4A5
330
1F
100
AcDbEntity
  8
0
100
AcDbLine
 10
-160.1466513095277
 20
162.380838851426
 30
0.0
 11
216.8682371198615
 21
162.380838851426
 31
0.0
  0
LINE
  5
4A6
330
1F
100
AcDbEntity
  8
0
100
AcDbLine
 10
212.0033115620016
 20
167.2457644091968
 30
0.0
 11
-155.2817257516678
 21
167.2457644091968
 31
0.0
  0
LINE
  5
4A7
330
1F
100
AcDbEntity
  8
0
100
AcDbLine
 10
216.8682371198615
 20
162.380838851426
 30
0.0
 11
212.0033115620016
 21
167.2457644091968
 31
0.0
  0
LINE
  5
4A8
330
1F
100
AcDbEntity
  8
0
100
AcDbLine
 10
-155.2817257516678
 20
167.2457644091968
 30
0.0
 11
-160.1466513095277
 21
162.380838851426
 31
0.0
  0
LINE
  5
4A9
330
1F
100
AcDbEntity
  8
0
100
AcDbLine
 10
216.8682371198615
 20
462.3808388514245
 30
0.0
 11
-160.1466513095278
 21
462.3808388514245
 31
0.0
  0
LINE
  5
4AA
330
1F
100
AcDbEntity
  8
0
100
AcDbLine
 10
218.3607929051657
 20
163.8733946367346
 30
0.0
 11
218.3607929051657
 21
460.8882830661162
 31
0.0
  0
SPLINE
  5
4AB
330
1F
100
AcDbEntity
  8
0
100
AcDbSpline
210
0.0
220
0.0
230
1.0
 70
     8
 71
     3
 72
    18
 73
    14
 74
     0
 42
0.0000000001
 43
0.0000000001
 40
0.0
 40
0.0
 40
0.0
 40
0.0
 40
0.1250000000000063
 40
0.1250000000000063
 40
0.2500000000000126
 40
0.2500000000000126
 40
0.3750000000000189
 40
0.3750000000000189
 40
0.5000000000000253
 40
0.5000000000000253
 40
0.7500000000000126
 40
0.7500000000000126
 40
1.0
 40
1.0
 40
1.0
 40
1.0
 10
216.8682371198615
 20
462.3808388514245
 30
0.0
 10
216.9668211257821
 20
462.3808388514243
 30
0.0
 10
217.0637801677308
 20
462.3712601228398
 30
0.0
 10
217.2545627969332
 20
462.3336199977223
 30
0.0
 10
217.34937220183
 20
462.3051052998921
 30
0.0
 10
217.5302454070406
 20
462.2305113604642
 30
0.0
 10
217.6160304368669
 20
462.1848215795461
 30
0.0
 10
217.778359930692
 20
462.0767693076224
 30
0.0
 10
217.8552477336201
 20
462.0137968554297
 30
0.0
 10
218.0618724086095
 20
461.8073307455449
 30
0.0
 10
218.1729585515685
 20
461.6407711031213
 30
0.0
 10
218.3215296895226
 20
461.2814484961092
 30
0.0
 10
218.3607929051662
 20
461.0854581733071
 30
0.0
 10
218.3607929051657
 20
460.8882830661162
 30
0.0
  0
SPLINE
  5
4AC
330
1F
100
AcDbEntity
  8
0
100
AcDbSpline
210
0.0
220
0.0
230
1.0
 70
     8
 71
     3
 72
    18
 73
    14
 74
     0
 42
0.0000000001
 43
0.0000000001
 40
0.0
 40
0.0
 40
0.0
 40
0.0
 40
0.125
 40
0.125
 40
0.25
 40
0.25
 40
0.375
 40
0.375
 40
0.5
 40
0.5
 40
0.75
 40
0.75
 40
1.0
 40
1.0
 40
1.0
 40
1.0
 10
-161.6392070948321
 20
460.8882830661162
 30
0.0
 10
-161.6392070948323
 20
460.9868670720368
 30
0.0
 10
-161.6296283662474
 20
461.0838261139855
 30
0.0
 10
-161.5919882411301
 20
461.2746087431878
 30
0.0
 10
-161.5634735433003
 20
461.3694181480848
 30
0.0
 10
-161.4888796038727
 20
461.5502913532958
 30
0.0
 10
-161.4431898229549
 20
461.6360763831222
 30
0.0
 10
-161.3351375510317
 20
461.7984058769478
 30
0.0
 10
-161.2721650988395
 20
461.8752936798761
 30
0.0
 10
-161.0656989889553
 20
462.0819183548666
 30
0.0
 10
-160.8991393465319
 20
462.193004497826
 30
0.0
 10
-160.5398167395207
 20
462.3415756357809
 30
0.0
 10
-160.3438264167186
 20
462.3808388514243
 30
0.0
 10
-160.1466513095278
 20
462.3808388514245
 30
0.0
  0
SPLINE
  5
4AD
330
1F
100
AcDbEntity
  8
0
100
AcDbSpline
210
0.0
220
0.0
230
1.0
 70
     8
 71
     3
 72
    18
 73
    14
 74
     0
 42
0.0000000001
 43
0.0000000001
 40
0.0
 40
0.0
 40
0.0
 40
0.0
 40
0.1249999999999937
 40
0.1249999999999937
 40
0.2499999999999874
 40
0.2499999999999874
 40
0.3749999999999811
 40
0.3749999999999811
 40
0.4999999999999748
 40
0.4999999999999748
 40
0.7499999999999874
 40
0.7499999999999874
 40
1.0
 40
1.0
 40
1.0
 40
1.0
 10
218.3607929051657
 20
163.8733946367346
 30
0.0
 10
218.3607929051662
 20
163.7748106308138
 30
0.0
 10
218.3512141765814
 20
163.6778515888649
 30
0.0
 10
218.3135740514642
 20
163.4870689596627
 30
0.0
 10
218.2850593536342
 20
163.3922595547659
 30
0.0
 10
218.2104654142063
 20
163.2113863495547
 30
0.0
 10
218.1647756332888
 20
163.1256013197285
 30
0.0
 10
218.0567233613656
 20
162.9632718259028
 30
0.0
 10
217.9937509091733
 20
162.8863840229746
 30
0.0
 10
217.7872847992891
 20
162.6797593479842
 30
0.0
 10
217.6207251568657
 20
162.5686732050247
 30
0.0
 10
217.2614025498545
 20
162.4201020670696
 30
0.0
 10
217.0654122270524
 20
162.3808388514264
 30
0.0
 10
216.8682371198615
 20
162.380838851426
 30
0.0
  0
SPLINE
  5
4AE
330
1F
100
AcDbEntity
  8
0
100
AcDbSpline
210
0.0
220
0.0
230
1.0
 70
     8
 71
     3
 72
    18
 73
    14
 74
     0
 42
0.0000000001
 43
0.0000000001
 40
0.0
 40
0.0
 40
0.0
 40
0.0
 40
0.125
 40
0.125
 40
0.25
 40
0.25
 40
0.375
 40
0.375
 40
0.5
 40
0.5
 40
0.75
 40
0.75
 40
1.0
 40
1.0
 40
1.0
 40
1.0
 10
-160.1466513095277
 20
162.380838851426
 30
0.0
 10
-160.2452353154482
 20
162.3808388514264
 30
0.0
 10
-160.3421943573972
 20
162.3904175800107
 30
0.0
 10
-160.5329769865992
 20
162.4280577051282
 30
0.0
 10
-160.6277863914962
 20
162.4565724029582
 30
0.0
 10
-160.808659596707
 20
162.5311663423864
 30
0.0
 10
-160.8944446265331
 20
162.5768561233044
 30
0.0
 10
-161.0567741203583
 20
162.6849083952282
 30
0.0
 10
-161.1336619232863
 20
162.7478808474207
 30
0.0
 10
-161.3402865982757
 20
162.9543469573056
 30
0.0
 10
-161.4513727412345
 20
163.1209065997293
 30
0.0
 10
-161.5999438791888
 20
163.4802292067413
 30
0.0
 10
-161.6392070948323
 20
163.6762195295436
 30
0.0
 10
-161.639207094832
 20
163.8733946367345
 30
0.0
  0
LINE
  5
4AF
330
1F
100
AcDbEntity
  8
0
100
AcDbLine
 10
213.4958673473163
 20
456.0233575083478
 30
0.0
 11
213.4958673473163
 21
168.7383201945027
 31
0.0
  0
LINE
  5
4B0
330
1F
100
AcDbEntity
  8
0
100
AcDbLine
 10
218.3607929051657
 20
460.8882830661162
 30
0.0
 11
213.4958673473162
 21
456.0233575083478
 31
0.0
  0
LINE
  5
4B1
330
1F
100
AcDbEntity
  8
0
100
AcDbLine
 10
213.4958673473163
 20
168.7383201945027
 30
0.0
 11
218.3607929051657
 21
163.8733946367346
 31
0.0
  0
LINE
  5
4B2
330
1F
100
AcDbEntity
  8
0
100
AcDbLine
 10
212.0033115620014
 20
456.0233575083478
 30
0.0
 11
-155.2817257516679
 21
456.0233575083478
 31
0.0
  0
LINE
  5
4B3
330
1F
100
AcDbEntity
  8
0
100
AcDbLine
 10
212.0033115620016
 20
168.7383201945027
 30
0.0
 11
212.0033115620016
 21
456.0233575083478
 31
0.0
  0
LINE
  5
4B4
330
1F
100
AcDbEntity
  8
0
100
AcDbLine
 10
-155.2817257516679
 20
456.0233575083478
 30
0.0
 11
-155.2817257516677
 21
168.7383201945027
 31
0.0
  0
LINE
  5
4B5
330
1F
100
AcDbEntity
  8
0
100
AcDbLine
 10
-155.2817257516677
 20
168.7383201945027
 30
0.0
 11
212.0033115620016
 21
168.7383201945027
 31
0.0
  0
LINE
  5
4B6
330
1F
100
AcDbEntity
  8
0
100
AcDbLine
 10
-155.2817257516679
 20
457.5159132936536
 30
0.0
 11
212.0033115620014
 21
457.5159132936536
 31
0.0
  0
LINE
  5
4B7
330
1F
100
AcDbEntity
  8
0
100
AcDbLine
 10
212.0033115620014
 20
457.5159132936536
 30
0.0
 11
216.8682371198615
 21
462.3808388514245
 31
0.0
  0
LINE
  5
4B8
330
1F
100
AcDbEntity
  8
0
100
AcDbLine
 10
-160.1466513095278
 20
462.3808388514245
 30
0.0
 11
-155.2817257516679
 21
457.5159132936536
 31
0.0
  0
ELLIPSE
  5
4B9
330
1F
100
AcDbEntity
  8
0
100
AcDbEllipse
 10
212.0033115620016
 20
456.0233575083478
 30
0.0
 11
1.060660172102539
 21
-1.060660171457083
 31
0.0
210
0.0
220
0.0
230
0.9999999999999998
 40
0.9901475429705167
 41
0.7903487390318436
 42
2.351243913949684
  0
LINE
  5
4BA
330
1F
100
AcDbEntity
  8
0
100
AcDbLine
 10
212.0033115620014
 20
456.0233575083478
 30
0.0
 11
212.0033115620013
 21
457.5159132936535
 31
0.0
  0
LINE
  5
4BB
330
1F
100
AcDbEntity
  8
0
100
AcDbLine
 10
213.4958673473163
 20
456.0233575083478
 30
0.0
 11
212.0033115620016
 21
456.0233575083478
 31
0.0
  0
ELLIPSE
  5
4BC
330
1F
100
AcDbEntity
  8
0
100
AcDbEllipse
 10
-155.2817257516679
 20
456.0233575083478
 30
0.0
 11
1.06066017210104
 21
1.060660171458637
 31
0.0
210
0.0
220
0.0
230
1.0
 40
0.9901475429705072
 41
0.7903487396389299
 42
2.351243914556435
  0
LINE
  5
4BD
330
1F
100
AcDbEntity
  8
0
100
AcDbLine
 10
-155.2817257516679
 20
456.0233575083478
 30
0.0
 11
-155.2817257516679
 21
457.5159132936535
 31
0.0
  0
LINE
  5
4BE
330
1F
100
AcDbEntity
  8
0
100
AcDbLine
 10
213.4958673473163
 20
168.7383201945027
 30
0.0
 11
212.0033115620016
 21
168.7383201945027
 31
0.0
  0
ELLIPSE
  5
4BF
330
1F
100
AcDbEntity
  8
0
100
AcDbEllipse
 10
212.0033115620016
 20
168.7383201945027
 30
0.0
 11
-1.06066017210104
 21
-1.060660171458665
 31
0.0
210
0.0
220
0.0
230
0.9999999999999998
 40
0.9901475429705072
 41
0.7903487396389614
 42
2.351243914556598
  0
LINE
  5
4C0
330
1F
100
AcDbEntity
  8
0
100
AcDbLine
 10
-155.2817257516679
 20
456.0233575083478
 30
0.0
 11
-156.7742815369826
 21
456.0233575083478
 31
0.0
  0
LINE
  5
4C1
330
1F
100
AcDbEntity
  8
0
100
AcDbLine
 10
212.0033115620016
 20
167.2457644091968
 30
0.0
 11
212.0033115620016
 21
168.7383201945027
 31
0.0
  0
LINE
  5
4C2
330
1F
100
AcDbEntity
  8
0
100
AcDbLine
 10
-155.2817257516677
 20
168.7383201945027
 30
0.0
 11
-156.7742815369824
 21
168.7383201945027
 31
0.0
  0
LINE
  5
4C3
330
1F
100
AcDbEntity
  8
0
100
AcDbLine
 10
-155.2817257516678
 20
167.2457644091968
 30
0.0
 11
-155.2817257516677
 21
168.7383201945026
 31
0.0
  0
ELLIPSE
  5
4C4
330
1F
100
AcDbEntity
  8
0
100
AcDbEllipse
 10
-155.2817257516677
 20
168.7383201945027
 30
0.0
 11
1.06066017210043
 21
-1.060660171459221
 31
0.0
210
0.0
220
0.0
230
1.0
 40
0.9901475429705129
 41
3.931941392623694
 42
5.492836567541132
  0
LINE
  5
4C8
330
1F
100
AcDbEntity
  8
0
100
AcDbLine
 10
563.3181778621219
 20
-35.51848252513554
 30
0.0
 11
563.3181778621219
 21
-27.01848252513531
 31
0.0
  0
LINE
  5
4C9
330
1F
100
AcDbEntity
  8
0
100
AcDbLine
 10
533.3181778621222
 20
-35.51848252513554
 30
0.0
 11
533.3181778621222
 21
-27.01848252513531
 31
0.0
  0
LINE
  5
4CA
330
1F
100
AcDbEntity
  8
0
100
AcDbLine
 10
647.4181778621214
 20
-71.51848252513525
 30
0.0
 11
677.2181778621209
 21
-71.51848252513525
 31
0.0
  0
LINE
  5
4CB
330
1F
100
AcDbEntity
  8
0
100
AcDbLine
 10
647.6212394054223
 20
-45.61848252513539
 30
0.0
 11
677.318177862121
 21
-45.61848252513539
 31
0.0
  0
LINE
  5
4CC
330
1F
100
AcDbEntity
  8
0
100
AcDbLine
 10
677.3181778621208
 20
-71.41848252513523
 30
0.0
 11
647.3181778621213
 21
-71.41848252513523
 31
0.0
  0
LINE
  5
4CD
330
1F
100
AcDbEntity
  8
0
100
AcDbLine
 10
677.2181778621209
 20
-45.51848252513543
 30
0.0
 11
647.6212394054223
 21
-45.51848252513543
 31
0.0
  0
LINE
  5
4CE
330
1F
100
AcDbEntity
  8
0
100
AcDbLine
 10
677.318177862121
 20
-71.41848252513523
 30
0.0
 11
677.318177862121
 21
-45.61848252513539
 31
0.0
  0
LINE
  5
4CF
330
1F
100
AcDbEntity
  8
0
100
AcDbLine
 10
647.3181778621213
 20
-65.51848252513531
 30
0.0
 11
647.3181778621213
 21
-71.41848252513518
 31
0.0
  0
LINE
  5
4D0
330
1F
100
AcDbEntity
  8
0
100
AcDbLine
 10
647.3181778621213
 20
-71.41848252513523
 30
0.0
 11
647.4181778621211
 21
-71.51848252513525
 31
0.0
  0
LINE
  5
4D1
330
1F
100
AcDbEntity
  8
0
100
AcDbLine
 10
677.2181778621211
 20
-71.51848252513525
 30
0.0
 11
677.318177862121
 21
-71.41848252513523
 31
0.0
  0
LINE
  5
4D2
330
1F
100
AcDbEntity
  8
0
100
AcDbLine
 10
677.318177862121
 20
-45.61848252513539
 30
0.0
 11
677.2181778621211
 21
-45.51848252513536
 31
0.0
  0
LINE
  5
4D3
330
1F
100
AcDbEntity
  8
0
100
AcDbLine
 10
419.4181778621226
 20
-71.51848252513525
 30
0.0
 11
449.2181778621222
 21
-71.51848252513525
 31
0.0
  0
LINE
  5
4D4
330
1F
100
AcDbEntity
  8
0
100
AcDbLine
 10
419.3181778621227
 20
-45.61848252513539
 30
0.0
 11
449.0151163188214
 21
-45.61848252513539
 31
0.0
  0
LINE
  5
4D5
330
1F
100
AcDbEntity
  8
0
100
AcDbLine
 10
449.3181778621222
 20
-71.41848252513523
 30
0.0
 11
419.3181778621227
 21
-71.41848252513523
 31
0.0
  0
LINE
  5
4D6
330
1F
100
AcDbEntity
  8
0
100
AcDbLine
 10
449.0151163188216
 20
-45.51848252513543
 30
0.0
 11
419.4181778621227
 21
-45.51848252513543
 31
0.0
  0
LINE
  5
4D7
330
1F
100
AcDbEntity
  8
0
100
AcDbLine
 10
449.3181778621225
 20
-71.41848252513523
 30
0.0
 11
449.3181778621225
 21
-65.51848252513531
 31
0.0
  0
LINE
  5
4D8
330
1F
100
AcDbEntity
  8
0
100
AcDbLine
 10
419.3181778621224
 20
-45.61848252513539
 30
0.0
 11
419.3181778621224
 21
-71.41848252513529
 31
0.0
  0
LINE
  5
4D9
330
1F
100
AcDbEntity
  8
0
100
AcDbLine
 10
419.3181778621224
 20
-71.41848252513523
 30
0.0
 11
419.4181778621223
 21
-71.51848252513525
 31
0.0
  0
LINE
  5
4DA
330
1F
100
AcDbEntity
  8
0
100
AcDbLine
 10
449.2181778621225
 20
-71.51848252513525
 30
0.0
 11
449.3181778621225
 21
-71.41848252513523
 31
0.0
  0
LINE
  5
4DB
330
1F
100
AcDbEntity
  8
0
100
AcDbLine
 10
419.4181778621226
 20
-45.51848252513543
 30
0.0
 11
419.3181778621227
 21
-45.61848252513539
 31
0.0
  0
LINE
  5
4DC
330
1F
100
AcDbEntity
  8
0
100
AcDbLine
 10
449.0151163188216
 20
-65.51848252513536
 30
0.0
 11
647.6212394054223
 21
-65.51848252513536
 31
0.0
  0
LINE
  5
4DD
330
1F
100
AcDbEntity
  8
0
100
AcDbLine
 10
450.3181778621224
 20
-35.51848252513554
 30
0.0
 11
646.3181778621212
 21
-35.51848252513554
 31
0.0
  0
LINE
  5
4DE
330
1F
100
AcDbEntity
  8
0
100
AcDbLine
 10
647.3181778621213
 20
-36.51848252513554
 30
0.0
 11
647.3181778621213
 21
-45.51848252513548
 31
0.0
  0
LINE
  5
4DF
330
1F
100
AcDbEntity
  8
0
100
AcDbLine
 10
449.3181778621225
 20
-36.51848252513548
 30
0.0
 11
449.3181778621225
 21
-45.51848252513548
 31
0.0
  0
LINE
  5
4E0
330
1F
100
AcDbEntity
  8
0
100
AcDbLine
 10
647.3181778621213
 20
-36.51848252513554
 30
0.0
 11
646.3181778621212
 21
-35.51848252513554
 31
0.0
  0
LINE
  5
4E1
330
1F
100
AcDbEntity
  8
0
100
AcDbLine
 10
450.3181778621224
 20
-35.51848252513554
 30
0.0
 11
449.3181778621225
 21
-36.51848252513548
 31
0.0
  0
LINE
  5
4E2
330
1F
100
AcDbEntity
  8
0
100
AcDbLine
 10
647.6212394054223
 20
-45.51848252513548
 30
0.0
 11
647.3181778621214
 21
-45.51848252513548
 31
0.0
  0
LINE
  5
4E3
330
1F
100
AcDbEntity
  8
0
100
AcDbLine
 10
647.6212394054223
 20
-45.51848252513548
 30
0.0
 11
647.6212394054223
 21
-65.51848252513536
 31
0.0
  0
LINE
  5
4E4
330
1F
100
AcDbEntity
  8
0
100
AcDbLine
 10
449.0151163188216
 20
-45.51848252513543
 30
0.0
 11
449.0151163188216
 21
-65.51848252513531
 31
0.0
  0
LINE
  5
4E5
330
1F
100
AcDbEntity
  8
0
100
AcDbLine
 10
449.3181778621225
 20
-45.51848252513543
 30
0.0
 11
449.0151163188216
 21
-45.51848252513543
 31
0.0
  0
LINE
  5
4E6
330
1F
100
AcDbEntity
  8
0
100
AcDbLine
 10
488.3181778621223
 20
-65.51848252513519
 30
0.0
 11
488.3181778621223
 21
-71.51848252513514
 31
0.0
  0
LINE
  5
4E7
330
1F
100
AcDbEntity
  8
0
100
AcDbLine
 10
508.3181778621222
 20
-65.51848252513519
 30
0.0
 11
508.3181778621222
 21
-71.51848252513514
 31
0.0
  0
LINE
  5
4E8
330
1F
100
AcDbEntity
  8
0
100
AcDbLine
 10
508.3181778621222
 20
-74.51848252513508
 30
0.0
 11
488.3181778621223
 21
-74.51848252513508
 31
0.0
  0
LINE
  5
4E9
330
1F
100
AcDbEntity
  8
0
100
AcDbLine
 10
488.3181778621223
 20
-74.51848252513508
 30
0.0
 11
488.3181778621223
 21
-71.51848252513508
 31
0.0
  0
LINE
  5
4EA
330
1F
100
AcDbEntity
  8
0
100
AcDbLine
 10
488.3181778621223
 20
-71.51848252513514
 30
0.0
 11
508.3181778621222
 21
-71.51848252513514
 31
0.0
  0
LINE
  5
4EB
330
1F
100
AcDbEntity
  8
0
100
AcDbLine
 10
508.3181778621222
 20
-71.51848252513514
 30
0.0
 11
508.3181778621222
 21
-74.51848252513514
 31
0.0
  0
LINE
  5
4EC
330
1F
100
AcDbEntity
  8
0
100
AcDbLine
 10
412.8761397463735
 20
-85.51848252513526
 30
0.0
 11
455.7602159778713
 21
-85.51848252513526
 31
0.0
  0
LINE
  5
4ED
330
1F
100
AcDbEntity
  8
0
100
AcDbLine
 10
419.8181778621229
 20
-82.5184825251352
 30
0.0
 11
448.8181778621226
 21
-82.5184825251352
 31
0.0
  0
LINE
  5
4EE
330
1F
100
AcDbEntity
  8
0
100
AcDbLine
 10
413.009931454717
 20
-91.5184825251352
 30
0.0
 11
455.6264242695282
 21
-91.5184825251352
 31
0.0
  0
LINE
  5
4EF
330
1F
100
AcDbEntity
  8
0
100
AcDbLine
 10
456.6112320225403
 20
-90.34483434746817
 30
0.0
 11
412.025123701705
 21
-90.34483434746817
 31
0.0
  0
LINE
  5
4F0
330
1F
100
AcDbEntity
  8
0
100
AcDbLine
 10
422.8181778621227
 20
-94.51848252513514
 30
0.0
 11
445.8181778621222
 21
-94.51848252513514
 31
0.0
  0
LINE
  5
4F1
330
1F
100
AcDbEntity
  8
0
100
AcDbLine
 10
446.8181778621222
 20
-93.51848252513509
 30
0.0
 11
421.8181778621225
 21
-93.51848252513509
 31
0.0
  0
LINE
  5
4F2
330
1F
100
AcDbEntity
  8
0
100
AcDbLine
 10
456.6112320225404
 20
-90.34483434746817
 30
0.0
 11
455.7602159778717
 21
-85.5184825251352
 31
0.0
  0
LINE
  5
4F3
330
1F
100
AcDbEntity
  8
0
100
AcDbLine
 10
412.8761397463734
 20
-85.51848252513526
 30
0.0
 11
412.0251237017046
 21
-90.34483434746823
 31
0.0
  0
LINE
  5
4F4
330
1F
100
AcDbEntity
  8
0
100
AcDbLine
 10
443.8181778621223
 20
-82.5184825251352
 30
0.0
 11
441.8181778621224
 21
-79.5184825251352
 31
0.0
  0
LINE
  5
4F5
330
1F
100
AcDbEntity
  8
0
100
AcDbLine
 10
426.8181778621225
 20
-79.5184825251352
 30
0.0
 11
424.8181778621225
 21
-82.51848252513525
 31
0.0
  0
LINE
  5
4F6
330
1F
100
AcDbEntity
  8
0
100
AcDbLine
 10
455.7602159778717
 20
-85.5184825251352
 30
0.0
 11
448.8181778621226
 21
-82.5184825251352
 31
0.0
  0
LINE
  5
4F7
330
1F
100
AcDbEntity
  8
0
100
AcDbLine
 10
419.8181778621226
 20
-82.5184825251352
 30
0.0
 11
412.8761397463735
 21
-85.5184825251352
 31
0.0
  0
LINE
  5
4F8
330
1F
100
AcDbEntity
  8
0
100
AcDbLine
 10
421.8181778621225
 20
-91.5184825251352
 30
0.0
 11
421.8181778621225
 21
-93.51848252513514
 31
0.0
  0
LINE
  5
4F9
330
1F
100
AcDbEntity
  8
0
100
AcDbLine
 10
446.8181778621224
 20
-93.51848252513509
 30
0.0
 11
446.8181778621224
 21
-91.51848252513515
 31
0.0
  0
ARC
  5
4FA
330
1F
100
AcDbEntity
  8
0
100
AcDbCircle
 10
455.6264242695282
 20
-90.51848252513513
 30
0.0
 40
0.9999999999999953
100
AcDbArc
 50
270.0
 51
9.999999999999825
  0
ARC
  5
4FB
330
1F
100
AcDbEntity
  8
0
100
AcDbCircle
 10
413.009931454717
 20
-90.5184825251352
 30
0.0
 40
0.9999999999999994
100
AcDbArc
 50
169.9999999999971
 51
270.0
  0
ARC
  5
4FC
330
1F
100
AcDbEntity
  8
0
100
AcDbCircle
 10
445.8181778621224
 20
-93.51848252513509
 30
0.0
 40
0.9999999999999953
100
AcDbArc
 50
270.0
 51
0.0
  0
ARC
  5
4FD
330
1F
100
AcDbEntity
  8
0
100
AcDbCircle
 10
422.8181778621224
 20
-93.51848252513514
 30
0.0
 40
0.9999999999999953
100
AcDbArc
 50
180.0
 51
270.0
  0
LINE
  5
4FE
330
1F
100
AcDbEntity
  8
0
100
AcDbLine
 10
640.8761397463725
 20
-85.5184825251352
 30
0.0
 11
683.76021597787
 21
-85.5184825251352
 31
0.0
  0
LINE
  5
4FF
330
1F
100
AcDbEntity
  8
0
100
AcDbLine
 10
647.8181778621213
 20
-82.5184825251352
 30
0.0
 11
676.8181778621208
 21
-82.5184825251352
 31
0.0
  0
LINE
  5
500
330
1F
100
AcDbEntity
  8
0
100
AcDbLine
 10
641.0099314547157
 20
-91.5184825251352
 30
0.0
 11
683.6264242695267
 21
-91.5184825251352
 31
0.0
  0
LINE
  5
501
330
1F
100
AcDbEntity
  8
0
100
AcDbLine
 10
684.6112320225388
 20
-90.34483434746817
 30
0.0
 11
640.0251237017035
 21
-90.34483434746817
 31
0.0
  0
LINE
  5
502
330
1F
100
AcDbEntity
  8
0
100
AcDbLine
 10
650.8181778621215
 20
-94.51848252513514
 30
0.0
 11
673.8181778621211
 21
-94.51848252513514
 31
0.0
  0
LINE
  5
503
330
1F
100
AcDbEntity
  8
0
100
AcDbLine
 10
674.818177862121
 20
-93.51848252513509
 30
0.0
 11
649.8181778621212
 21
-93.51848252513509
 31
0.0
  0
LINE
  5
504
330
1F
100
AcDbEntity
  8
0
100
AcDbLine
 10
684.611232022539
 20
-90.34483434746817
 30
0.0
 11
683.7602159778703
 21
-85.5184825251352
 31
0.0
  0
LINE
  5
505
330
1F
100
AcDbEntity
  8
0
100
AcDbLine
 10
640.8761397463722
 20
-85.5184825251352
 30
0.0
 11
640.0251237017035
 21
-90.34483434746817
 31
0.0
  0
LINE
  5
506
330
1F
100
AcDbEntity
  8
0
100
AcDbLine
 10
671.818177862121
 20
-82.5184825251352
 30
0.0
 11
669.8181778621211
 21
-79.5184825251352
 31
0.0
  0
LINE
  5
507
330
1F
100
AcDbEntity
  8
0
100
AcDbLine
 10
654.8181778621213
 20
-79.5184825251352
 30
0.0
 11
652.8181778621212
 21
-82.51848252513525
 31
0.0
  0
LINE
  5
508
330
1F
100
AcDbEntity
  8
0
100
AcDbLine
 10
683.7602159778703
 20
-85.5184825251352
 30
0.0
 11
676.818177862121
 21
-82.5184825251352
 31
0.0
  0
LINE
  5
509
330
1F
100
AcDbEntity
  8
0
100
AcDbLine
 10
647.8181778621213
 20
-82.5184825251352
 30
0.0
 11
640.8761397463722
 21
-85.5184825251352
 31
0.0
  0
LINE
  5
50A
330
1F
100
AcDbEntity
  8
0
100
AcDbLine
 10
649.8181778621212
 20
-91.5184825251352
 30
0.0
 11
649.8181778621212
 21
-93.51848252513514
 31
0.0
  0
LINE
  5
50B
330
1F
100
AcDbEntity
  8
0
100
AcDbLine
 10
674.8181778621212
 20
-93.51848252513509
 30
0.0
 11
674.8181778621212
 21
-91.51848252513515
 31
0.0
  0
ARC
  5
50C
330
1F
100
AcDbEntity
  8
0
100
AcDbCircle
 10
683.6264242695269
 20
-90.51848252513513
 30
0.0
 40
0.9999999999999953
100
AcDbArc
 50
270.0
 51
10.00000000000193
  0
ARC
  5
50D
330
1F
100
AcDbEntity
  8
0
100
AcDbCircle
 10
641.0099314547156
 20
-90.51848252513513
 30
0.0
 40
0.9999999999999969
100
AcDbArc
 50
169.999999999998
 51
270.0
  0
ARC
  5
50E
330
1F
100
AcDbEntity
  8
0
100
AcDbCircle
 10
673.8181778621212
 20
-93.51848252513509
 30
0.0
 40
0.9999999999999953
100
AcDbArc
 50
270.0
 51
0.0
  0
ARC
  5
50F
330
1F
100
AcDbEntity
  8
0
100
AcDbCircle
 10
650.8181778621215
 20
-93.51848252513509
 30
0.0
 40
0.9999999999999953
100
AcDbArc
 50
180.0
 51
270.0
  0
LINE
  5
510
330
1F
100
AcDbEntity
  8
0
100
AcDbLine
 10
657.6993757086043
 20
-79.5184825251352
 30
0.0
 11
666.9369800156382
 21
-79.5184825251352
 31
0.0
  0
LINE
  5
511
330
1F
100
AcDbEntity
  8
0
100
AcDbLine
 10
657.6993757086043
 20
-72.23301370495159
 30
0.0
 11
657.6993757086043
 21
-79.5184825251352
 31
0.0
  0
LINE
  5
512
330
1F
100
AcDbEntity
  8
0
100
AcDbLine
 10
657.6993757086043
 20
-79.5184825251352
 30
0.0
 11
653.0805735550873
 21
-79.5184825251352
 31
0.0
  0
LINE
  5
513
330
1F
100
AcDbEntity
  8
0
100
AcDbLine
 10
653.0805735550873
 20
-79.5184825251352
 30
0.0
 11
653.0805735550873
 21
-72.23301370495159
 31
0.0
  0
LINE
  5
514
330
1F
100
AcDbEntity
  8
0
100
AcDbLine
 10
671.5557821691552
 20
-72.23301370495159
 30
0.0
 11
671.5557821691552
 21
-79.5184825251352
 31
0.0
  0
LINE
  5
515
330
1F
100
AcDbEntity
  8
0
100
AcDbLine
 10
666.9369800156382
 20
-79.5184825251352
 30
0.0
 11
666.9369800156382
 21
-72.23301370495159
 31
0.0
  0
LINE
  5
516
330
1F
100
AcDbEntity
  8
0
100
AcDbLine
 10
666.9369800156382
 20
-79.5184825251352
 30
0.0
 11
671.5557821691552
 21
-79.5184825251352
 31
0.0
  0
ARC
  5
517
330
1F
100
AcDbEntity
  8
0
100
AcDbCircle
 10
669.377508176909
 20
-76.03160832200467
 30
0.0
 40
4.515030317800865
100
AcDbArc
 50
91.66423801140108
 51
122.7200094566416
  0
ARC
  5
518
330
1F
100
AcDbEntity
  8
0
100
AcDbCircle
 10
669.0849906250885
 20
-76.12942111280972
 30
0.0
 40
4.613762189606585
100
AcDbArc
 50
57.62038109428834
 51
87.99537143766956
  0
ARC
  5
519
330
1F
100
AcDbEntity
  8
0
100
AcDbCircle
 10
655.5513650991541
 20
-76.12942111280972
 30
0.0
 40
4.613762189606585
100
AcDbArc
 50
92.00462856233246
 51
122.3796189057116
  0
ARC
  5
51A
330
1F
100
AcDbEntity
  8
0
100
AcDbCircle
 10
655.2588475473332
 20
-76.03160832200472
 30
0.0
 40
4.515030317800956
100
AcDbArc
 50
57.27999054335569
 51
88.33576198860075
  0
SPLINE
  5
51B
330
1F
100
AcDbEntity
  8
0
100
AcDbSpline
210
0.0
220
0.0
230
1.0
 70
     8
 71
     3
 72
    10
 73
     6
 74
     0
 42
0.0000000001
 43
0.0000000001
 40
0.0
 40
0.0
 40
0.0
 40
0.0
 40
0.5
 40
0.5
 40
1.0
 40
1.0
 40
1.0
 40
1.0
 10
662.318177862121
 20
-71.51848252513525
 30
0.0
 10
661.5372125339636
 20
-71.51848252513525
 30
0.0
 10
660.7456282619454
 20
-71.5874270803904
 30
0.0
 10
659.2028411798541
 20
-71.83787565652676
 30
0.0
 10
658.4462102667191
 20
-72.01742113836769
 30
0.0
 10
657.6993757086043
 20
-72.23301370495159
 30
0.0
  0
SPLINE
  5
51C
330
1F
100
AcDbEntity
  8
0
100
AcDbSpline
210
0.0
220
0.0
230
1.0
 70
     8
 71
     3
 72
    10
 73
     6
 74
     0
 42
0.0000000001
 43
0.0000000001
 40
0.0
 40
0.0
 40
0.0
 40
0.0
 40
0.5
 40
0.5
 40
1.0
 40
1.0
 40
1.0
 40
1.0
 10
666.9369800156382
 20
-72.23301370495159
 30
0.0
 10
666.1857692652004
 20
-72.01615784045987
 30
0.0
 10
665.4163820879993
 20
-71.83427320232715
 30
0.0
 10
663.8741243729771
 20
-71.5855712272986
 30
0.0
 10
663.0986794667503
 20
-71.51848252513525
 30
0.0
 10
662.318177862121
 20
-71.51848252513525
 30
0.0
  0
LINE
  5
51D
330
1F
100
AcDbEntity
  8
0
100
AcDbLine
 10
654.3181778621215
 20
-71.51848252513525
 30
0.0
 11
653.0805735550873
 21
-72.23301370495159
 31
0.0
  0
LINE
  5
51E
330
1F
100
AcDbEntity
  8
0
100
AcDbLine
 10
671.5557821691552
 20
-72.23301370495159
 30
0.0
 11
670.3181778621212
 21
-71.51848252513525
 31
0.0
  0
LINE
  5
51F
330
1F
100
AcDbEntity
  8
0
100
AcDbLine
 10
429.6993757086055
 20
-79.5184825251352
 30
0.0
 11
438.9369800156395
 21
-79.5184825251352
 31
0.0
  0
LINE
  5
520
330
1F
100
AcDbEntity
  8
0
100
AcDbLine
 10
429.6993757086055
 20
-72.23301370495159
 30
0.0
 11
429.6993757086055
 21
-79.5184825251352
 31
0.0
  0
LINE
  5
521
330
1F
100
AcDbEntity
  8
0
100
AcDbLine
 10
429.6993757086055
 20
-79.5184825251352
 30
0.0
 11
425.0805735550886
 21
-79.5184825251352
 31
0.0
  0
LINE
  5
522
330
1F
100
AcDbEntity
  8
0
100
AcDbLine
 10
425.0805735550886
 20
-79.5184825251352
 30
0.0
 11
425.0805735550886
 21
-72.23301370495159
 31
0.0
  0
LINE
  5
523
330
1F
100
AcDbEntity
  8
0
100
AcDbLine
 10
443.5557821691564
 20
-72.23301370495159
 30
0.0
 11
443.5557821691564
 21
-79.5184825251352
 31
0.0
  0
LINE
  5
524
330
1F
100
AcDbEntity
  8
0
100
AcDbLine
 10
438.9369800156395
 20
-79.5184825251352
 30
0.0
 11
438.9369800156395
 21
-72.23301370495159
 31
0.0
  0
LINE
  5
525
330
1F
100
AcDbEntity
  8
0
100
AcDbLine
 10
438.9369800156395
 20
-79.5184825251352
 30
0.0
 11
443.5557821691564
 21
-79.5184825251352
 31
0.0
  0
ARC
  5
526
330
1F
100
AcDbEntity
  8
0
100
AcDbCircle
 10
441.3775081769105
 20
-76.03160832200479
 30
0.0
 40
4.515030317800992
100
AcDbArc
 50
91.66423801140108
 51
122.7200094566438
  0
ARC
  5
527
330
1F
100
AcDbEntity
  8
0
100
AcDbCircle
 10
441.0849906250898
 20
-76.12942111280978
 30
0.0
 40
4.613762189606589
100
AcDbArc
 50
57.62038109429052
 51
87.99537143766956
  0
ARC
  5
528
330
1F
100
AcDbEntity
  8
0
100
AcDbCircle
 10
427.5513650991552
 20
-76.12942111280972
 30
0.0
 40
4.613762189606585
100
AcDbArc
 50
92.00462856233246
 51
122.3796189057095
  0
ARC
  5
529
330
1F
100
AcDbEntity
  8
0
100
AcDbCircle
 10
427.2588475473345
 20
-76.03160832200479
 30
0.0
 40
4.515030317800986
100
AcDbArc
 50
57.27999054335618
 51
88.33576198860075
  0
SPLINE
  5
52A
330
1F
100
AcDbEntity
  8
0
100
AcDbSpline
210
0.0
220
0.0
230
1.0
 70
     8
 71
     3
 72
    10
 73
     6
 74
     0
 42
0.0000000001
 43
0.0000000001
 40
0.0
 40
0.0
 40
0.0
 40
0.0
 40
0.5
 40
0.5
 40
1.0
 40
1.0
 40
1.0
 40
1.0
 10
434.3181778621225
 20
-71.51848252513525
 30
0.0
 10
433.5372125339648
 20
-71.51848252513525
 30
0.0
 10
432.7456282619468
 20
-71.5874270803904
 30
0.0
 10
431.2028411798556
 20
-71.83787565652676
 30
0.0
 10
430.4462102667204
 20
-72.01742113836769
 30
0.0
 10
429.6993757086055
 20
-72.23301370495159
 30
0.0
  0
SPLINE
  5
52B
330
1F
100
AcDbEntity
  8
0
100
AcDbSpline
210
0.0
220
0.0
230
1.0
 70
     8
 71
     3
 72
    10
 73
     6
 74
     0
 42
0.0000000001
 43
0.0000000001
 40
0.0
 40
0.0
 40
0.0
 40
0.0
 40
0.5
 40
0.5
 40
1.0
 40
1.0
 40
1.0
 40
1.0
 10
438.9369800156395
 20
-72.23301370495159
 30
0.0
 10
438.1857692652017
 20
-72.01615784045987
 30
0.0
 10
437.4163820880008
 20
-71.83427320232715
 30
0.0
 10
435.8741243729786
 20
-71.58557122729866
 30
0.0
 10
435.0986794667516
 20
-71.51848252513525
 30
0.0
 10
434.3181778621225
 20
-71.51848252513525
 30
0.0
  0
LINE
  5
52C
330
1F
100
AcDbEntity
  8
0
100
AcDbLine
 10
426.3181778621227
 20
-71.51848252513525
 30
0.0
 11
425.0805735550886
 21
-72.23301370495159
 31
0.0
  0
LINE
  5
52D
330
1F
100
AcDbEntity
  8
0
100
AcDbLine
 10
443.5557821691564
 20
-72.23301370495159
 30
0.0
 11
442.3181778621224
 21
-71.51848252513525
 31
0.0
  0
LINE
  5
52E
330
1F
100
AcDbEntity
  8
0
100
AcDbLine
 10
554.0681778621219
 20
-69.93631228125702
 30
0.0
 11
542.5681778621219
 21
-69.93631228125702
 31
0.0
  0
LINE
  5
52F
330
1F
100
AcDbEntity
  8
0
100
AcDbLine
 10
554.8181778621217
 20
-67.43792594153444
 30
0.0
 11
554.8181778621217
 21
-65.51848252513536
 31
0.0
  0
LINE
  5
530
330
1F
100
AcDbEntity
  8
0
100
AcDbLine
 10
554.8181778621217
 20
-67.43792594153444
 30
0.0
 11
554.8181778621217
 21
-68.01848252513519
 31
0.0
  0
LINE
  5
531
330
1F
100
AcDbEntity
  8
0
100
AcDbLine
 10
541.8181778621219
 20
-67.43792594153444
 30
0.0
 11
541.8181778621219
 21
-65.51848252513531
 31
0.0
  0
LINE
  5
532
330
1F
100
AcDbEntity
  8
0
100
AcDbLine
 10
548.318177862122
 20
-67.43792594153444
 30
0.0
 11
548.318177862122
 21
-65.51848252513531
 31
0.0
  0
LINE
  5
533
330
1F
100
AcDbEntity
  8
0
100
AcDbLine
 10
541.8181778621219
 20
-68.01848252513526
 30
0.0
 11
541.8181778621219
 21
-67.4379259415345
 31
0.0
  0
ARC
  5
534
330
1F
100
AcDbEntity
  8
0
100
AcDbCircle
 10
545.2087780989868
 20
-57.84423954858045
 30
0.0
 40
10.17521442391166
100
AcDbArc
 50
250.5355753442266
 51
269.2082666553578
  0
ARC
  5
535
330
1F
100
AcDbEntity
  8
0
100
AcDbCircle
 10
544.9539425207651
 20
-57.99183224294063
 30
0.0
 40
10.02730101246831
100
AcDbArc
 50
270.6527523719511
 51
289.6034056284642
  0
ARC
  5
536
330
1F
100
AcDbEntity
  8
0
100
AcDbCircle
 10
551.7087780989871
 20
-57.84423954857993
 30
0.0
 40
10.17521442391222
100
AcDbArc
 50
250.5355753442266
 51
269.2082666553578
  0
ARC
  5
537
330
1F
100
AcDbEntity
  8
0
100
AcDbCircle
 10
551.4539425207651
 20
-57.99183224294075
 30
0.0
 40
10.02730101246818
100
AcDbArc
 50
270.6527523719521
 51
289.6034056284642
  0
LINE
  5
538
330
1F
100
AcDbEntity
  8
0
100
AcDbLine
 10
541.8181778621219
 20
-68.01848252513526
 30
0.0
 11
545.0681778621219
 21
-68.01848252513526
 31
0.0
  0
LINE
  5
539
330
1F
100
AcDbEntity
  8
0
100
AcDbLine
 10
545.0681778621217
 20
-68.01848252513526
 30
0.0
 11
551.5681778621217
 21
-68.01848252513526
 31
0.0
  0
LINE
  5
53A
330
1F
100
AcDbEntity
  8
0
100
AcDbLine
 10
551.5681778621219
 20
-68.01848252513526
 30
0.0
 11
554.8181778621219
 21
-68.01848252513526
 31
0.0
  0
LINE
  5
53B
330
1F
100
AcDbEntity
  8
0
100
AcDbLine
 10
542.5681778621219
 20
-68.01848252513526
 30
0.0
 11
542.5681778621219
 21
-69.93631228125702
 31
0.0
  0
LINE
  5
53C
330
1F
100
AcDbEntity
  8
0
100
AcDbLine
 10
554.0681778621219
 20
-69.93631228125702
 30
0.0
 11
554.0681778621219
 21
-68.01848252513526
 31
0.0
  0
ARC
  5
53D
330
1F
100
AcDbEntity
  8
0
100
AcDbCircle
 10
548.0320763116067
 20
-67.52478204676441
 30
0.0
 40
6.499999999999962
100
AcDbArc
 50
272.5227244643246
 51
338.2224099150686
  0
ARC
  5
53E
330
1F
100
AcDbEntity
  8
0
100
AcDbCircle
 10
548.6042794126367
 20
-67.52478204676441
 30
0.0
 40
6.499999999999965
100
AcDbArc
 50
201.7775900849322
 51
267.4772755356764
  0
LINE
  5
53F
330
1F
100
AcDbEntity
  8
0
100
AcDbLine
 10
430.323731361555
 20
-38.9184825251354
 30
0.0
 11
426.5709546118486
 21
-38.9184825251354
 31
0.0
  0
LINE
  5
540
330
1F
100
AcDbEntity
  8
0
100
AcDbLine
 10
426.5709546118486
 20
-38.9184825251354
 30
0.0
 11
419.0654011123966
 21
-38.9184825251354
 31
0.0
  0
LINE
  5
541
330
1F
100
AcDbEntity
  8
0
100
AcDbLine
 10
419.0654011123966
 20
-38.9184825251354
 30
0.0
 11
415.3126243626902
 21
-38.9184825251354
 31
0.0
  0
LINE
  5
542
330
1F
100
AcDbEntity
  8
0
100
AcDbLine
 10
415.3126243626902
 20
-38.9184825251354
 30
0.0
 11
415.3126243626902
 21
-43.83792594155346
 31
0.0
  0
LINE
  5
543
330
1F
100
AcDbEntity
  8
0
100
AcDbLine
 10
419.0654011123966
 20
-38.9184825251354
 30
0.0
 11
419.0654011123966
 21
-43.83792594153646
 31
0.0
  0
LINE
  5
544
330
1F
100
AcDbEntity
  8
0
100
AcDbLine
 10
426.5709546118486
 20
-38.9184825251354
 30
0.0
 11
426.5709546118486
 21
-43.83792594153646
 31
0.0
  0
LINE
  5
545
330
1F
100
AcDbEntity
  8
0
100
AcDbLine
 10
430.323731361555
 20
-38.9184825251354
 30
0.0
 11
430.323731361555
 21
-43.83792594155346
 31
0.0
  0
LINE
  5
546
330
1F
100
AcDbEntity
  8
0
100
AcDbLine
 10
416.3181778621226
 20
-44.41848252513534
 30
0.0
 11
417.189012737514
 21
-44.41848252513534
 31
0.0
  0
LINE
  5
547
330
1F
100
AcDbEntity
  8
0
100
AcDbLine
 10
422.8181778621227
 20
-44.41848252513534
 30
0.0
 11
417.189012737514
 21
-44.41848252513534
 31
0.0
  0
LINE
  5
548
330
1F
100
AcDbEntity
  8
0
100
AcDbLine
 10
428.4473429867312
 20
-44.41848252513534
 30
0.0
 11
422.8181778621227
 21
-44.41848252513534
 31
0.0
  0
LINE
  5
549
330
1F
100
AcDbEntity
  8
0
100
AcDbLine
 10
429.3181778621225
 20
-44.41848252513534
 30
0.0
 11
428.4473429867312
 21
-44.41848252513534
 31
0.0
  0
ARC
  5
54A
330
1F
100
AcDbEntity
  8
0
100
AcDbCircle
 10
428.3408022247299
 20
-40.75156779636512
 30
0.0
 40
3.668462152188534
100
AcDbArc
 50
271.66423809396
 51
302.7200093737655
  0
SPLINE
  5
54B
330
1F
100
AcDbEntity
  8
0
100
AcDbSpline
210
0.0
220
0.0
230
1.0
 70
     8
 71
     3
 72
    10
 73
     6
 74
     0
 42
0.0000000001
 43
0.0000000001
 40
0.0
 40
0.0
 40
0.0
 40
0.0
 40
0.5
 40
0.5
 40
1.0
 40
1.0
 40
1.0
 40
1.0
 10
422.8181778621227
 20
-44.41848252513534
 30
0.0
 10
423.4533738660767
 20
-44.41848252513534
 30
0.0
 10
424.096776772305
 20
-44.36233968012681
 30
0.0
 10
425.3493448574692
 20
-44.15896165285539
 30
0.0
 10
425.96401512451
 20
-44.01313427973457
 30
0.0
 10
426.5709546118486
 20
-43.83792594153646
 30
0.0
  0
ARC
  5
54C
330
1F
100
AcDbEntity
  8
0
100
AcDbCircle
 10
428.5784727771672
 20
-40.67209480704349
 30
0.0
 40
3.748681895841383
100
AcDbArc
 50
237.6203815789153
 51
267.9953709534282
  0
ARC
  5
54D
330
1F
100
AcDbEntity
  8
0
100
AcDbCircle
 10
417.0824719755445
 20
-40.75156779635761
 30
0.0
 40
3.668462152195113
100
AcDbArc
 50
271.6642380934565
 51
302.7200093742
  0
SPLINE
  5
54E
330
1F
100
AcDbEntity
  8
0
100
AcDbSpline
210
0.0
220
0.0
230
1.0
 70
     8
 71
     3
 72
    10
 73
     6
 74
     0
 42
0.0000000001
 43
0.0000000001
 40
0.0
 40
0.0
 40
0.0
 40
0.0
 40
0.5
 40
0.5
 40
1.0
 40
1.0
 40
1.0
 40
1.0
 10
419.0654011123966
 20
-43.83792594153646
 30
0.0
 10
419.676329405121
 20
-44.01428574866634
 30
0.0
 10
420.3012005706653
 20
-44.16194622605547
 30
0.0
 10
421.553375321513
 20
-44.36388379425335
 30
0.0
 10
422.1834368784492
 20
-44.41848252513534
 30
0.0
 10
422.8181778621227
 20
-44.41848252513534
 30
0.0
  0
ARC
  5
54F
330
1F
100
AcDbEntity
  8
0
100
AcDbCircle
 10
417.3201425279797
 20
-40.67209480705844
 30
0.0
 40
3.748681895827565
100
AcDbArc
 50
237.6203815793096
 51
267.9953709529658
  0
LINE
  5
550
330
1F
100
AcDbEntity
  8
0
100
AcDbLine
 10
429.3181778621225
 20
-44.41848252513534
 30
0.0
 11
430.323731361555
 21
-43.8379259415534
 31
0.0
  0
LINE
  5
551
330
1F
100
AcDbEntity
  8
0
100
AcDbLine
 10
415.3126243626902
 20
-43.83792594155346
 30
0.0
 11
416.3181778621226
 21
-44.41848252513534
 31
0.0
  0
LINE
  5
552
330
1F
100
AcDbEntity
  8
0
100
AcDbLine
 10
425.8181778621228
 20
-38.9184825251354
 30
0.0
 11
425.8181778621228
 21
-28.51848252513543
 31
0.0
  0
LINE
  5
553
330
1F
100
AcDbEntity
  8
0
100
AcDbLine
 10
419.8181778621226
 20
-28.51848252513543
 30
0.0
 11
419.8181778621226
 21
-38.9184825251354
 31
0.0
  0
LINE
  5
554
330
1F
100
AcDbEntity
  8
0
100
AcDbLine
 10
677.5709546118473
 20
-38.61848252513534
 30
0.0
 11
676.8181778621213
 21
-38.61848252513534
 31
0.0
  0
LINE
  5
555
330
1F
100
AcDbEntity
  8
0
100
AcDbLine
 10
670.8181778621212
 20
-38.61848252513534
 30
0.0
 11
670.0654011123951
 21
-38.61848252513534
 31
0.0
  0
LINE
  5
556
330
1F
100
AcDbEntity
  8
0
100
AcDbLine
 10
670.0654011123951
 20
-38.61848252513534
 30
0.0
 11
666.3126243626889
 21
-38.61848252513534
 31
0.0
  0
LINE
  5
557
330
1F
100
AcDbEntity
  8
0
100
AcDbLine
 10
681.3237313615538
 20
-38.61848252513534
 30
0.0
 11
677.5709546118473
 21
-38.61848252513534
 31
0.0
  0
LINE
  5
558
330
1F
100
AcDbEntity
  8
0
100
AcDbLine
 10
681.3237313615538
 20
-38.61848252513534
 30
0.0
 11
681.3237313615538
 21
-38.91848252513535
 31
0.0
  0
LINE
  5
559
330
1F
100
AcDbEntity
  8
0
100
AcDbLine
 10
666.3126243626889
 20
-38.61848252513534
 30
0.0
 11
666.3126243626889
 21
-38.91848252513535
 31
0.0
  0
LINE
  5
55A
330
1F
100
AcDbEntity
  8
0
100
AcDbLine
 10
670.0654011123951
 20
-38.61848252513534
 30
0.0
 11
670.0654011123951
 21
-38.91848252513535
 31
0.0
  0
LINE
  5
55B
330
1F
100
AcDbEntity
  8
0
100
AcDbLine
 10
677.5709546118473
 20
-38.61848252513534
 30
0.0
 11
677.5709546118473
 21
-38.91848252513535
 31
0.0
  0
LINE
  5
55C
330
1F
100
AcDbEntity
  8
0
100
AcDbLine
 10
426.5709546118485
 20
-38.61848252513534
 30
0.0
 11
425.8181778621225
 21
-38.61848252513534
 31
0.0
  0
LINE
  5
55D
330
1F
100
AcDbEntity
  8
0
100
AcDbLine
 10
419.8181778621226
 20
-38.61848252513534
 30
0.0
 11
419.0654011123966
 21
-38.61848252513534
 31
0.0
  0
LINE
  5
55E
330
1F
100
AcDbEntity
  8
0
100
AcDbLine
 10
419.0654011123964
 20
-38.61848252513534
 30
0.0
 11
415.3126243626901
 21
-38.61848252513534
 31
0.0
  0
LINE
  5
55F
330
1F
100
AcDbEntity
  8
0
100
AcDbLine
 10
430.3237313615548
 20
-38.61848252513534
 30
0.0
 11
426.5709546118485
 21
-38.61848252513534
 31
0.0
  0
LINE
  5
560
330
1F
100
AcDbEntity
  8
0
100
AcDbLine
 10
430.3237313615548
 20
-38.61848252513534
 30
0.0
 11
430.3237313615548
 21
-38.91848252513546
 31
0.0
  0
LINE
  5
561
330
1F
100
AcDbEntity
  8
0
100
AcDbLine
 10
415.3126243626901
 20
-38.61848252513534
 30
0.0
 11
415.3126243626901
 21
-38.91848252513546
 31
0.0
  0
LINE
  5
562
330
1F
100
AcDbEntity
  8
0
100
AcDbLine
 10
419.0654011123964
 20
-38.61848252513534
 30
0.0
 11
419.0654011123964
 21
-38.9184825251354
 31
0.0
  0
LINE
  5
563
330
1F
100
AcDbEntity
  8
0
100
AcDbLine
 10
426.5709546118485
 20
-38.61848252513534
 30
0.0
 11
426.5709546118485
 21
-38.91848252513546
 31
0.0
  0
LINE
  5
564
330
1F
100
AcDbEntity
  8
0
100
AcDbLine
 10
677.5709546118473
 20
-38.91848252513529
 30
0.0
 11
670.0654011123954
 21
-38.91848252513529
 31
0.0
  0
LINE
  5
565
330
1F
100
AcDbEntity
  8
0
100
AcDbLine
 10
670.0654011123954
 20
-38.91848252513529
 30
0.0
 11
666.3126243626889
 21
-38.91848252513529
 31
0.0
  0
LINE
  5
566
330
1F
100
AcDbEntity
  8
0
100
AcDbLine
 10
681.3237313615538
 20
-38.91848252513529
 30
0.0
 11
677.5709546118473
 21
-38.91848252513529
 31
0.0
  0
LINE
  5
567
330
1F
100
AcDbEntity
  8
0
100
AcDbLine
 10
681.3237313615538
 20
-38.91848252513529
 30
0.0
 11
681.3237313615538
 21
-43.8379259415534
 31
0.0
  0
LINE
  5
568
330
1F
100
AcDbEntity
  8
0
100
AcDbLine
 10
666.3126243626889
 20
-38.91848252513529
 30
0.0
 11
666.3126243626889
 21
-43.8379259415534
 31
0.0
  0
LINE
  5
569
330
1F
100
AcDbEntity
  8
0
100
AcDbLine
 10
670.0654011123954
 20
-38.91848252513529
 30
0.0
 11
670.0654011123954
 21
-43.83792594153635
 31
0.0
  0
LINE
  5
56A
330
1F
100
AcDbEntity
  8
0
100
AcDbLine
 10
677.5709546118473
 20
-38.91848252513529
 30
0.0
 11
677.5709546118473
 21
-43.83792594153635
 31
0.0
  0
LINE
  5
56B
330
1F
100
AcDbEntity
  8
0
100
AcDbLine
 10
679.44734298673
 20
-44.41848252513523
 30
0.0
 11
680.3181778621213
 21
-44.41848252513523
 31
0.0
  0
LINE
  5
56C
330
1F
100
AcDbEntity
  8
0
100
AcDbLine
 10
667.3181778621213
 20
-44.41848252513523
 30
0.0
 11
668.1890127375127
 21
-44.41848252513523
 31
0.0
  0
LINE
  5
56D
330
1F
100
AcDbEntity
  8
0
100
AcDbLine
 10
673.8181778621215
 20
-44.41848252513523
 30
0.0
 11
668.1890127375127
 21
-44.41848252513523
 31
0.0
  0
LINE
  5
56E
330
1F
100
AcDbEntity
  8
0
100
AcDbLine
 10
679.44734298673
 20
-44.41848252513523
 30
0.0
 11
673.8181778621215
 21
-44.41848252513523
 31
0.0
  0
ARC
  5
56F
330
1F
100
AcDbEntity
  8
0
100
AcDbCircle
 10
668.3201425279785
 20
-40.67209480705827
 30
0.0
 40
3.748681895827625
100
AcDbArc
 50
237.6203815793096
 51
267.9953709529689
  0
ARC
  5
570
330
1F
100
AcDbEntity
  8
0
100
AcDbCircle
 10
668.0824719755433
 20
-40.75156779635745
 30
0.0
 40
3.668462152195208
100
AcDbArc
 50
271.6642380934594
 51
302.7200093741981
  0
SPLINE
  5
571
330
1F
100
AcDbEntity
  8
0
100
AcDbSpline
210
0.0
220
0.0
230
1.0
 70
     8
 71
     3
 72
    10
 73
     6
 74
     0
 42
0.0000000001
 43
0.0000000001
 40
0.0
 40
0.0
 40
0.0
 40
0.0
 40
0.5
 40
0.5
 40
1.0
 40
1.0
 40
1.0
 40
1.0
 10
670.0654011123954
 20
-43.83792594153635
 30
0.0
 10
670.6723405997338
 20
-44.01313427973451
 30
0.0
 10
671.2870108667743
 20
-44.15896165285533
 30
0.0
 10
672.5395789519389
 20
-44.36233968012669
 30
0.0
 10
673.1829818581671
 20
-44.41848252513523
 30
0.0
 10
673.8181778621215
 20
-44.41848252513523
 30
0.0
  0
SPLINE
  5
572
330
1F
100
AcDbEntity
  8
0
100
AcDbSpline
210
0.0
220
0.0
230
1.0
 70
     8
 71
     3
 72
    10
 73
     6
 74
     0
 42
0.0000000001
 43
0.0000000001
 40
0.0
 40
0.0
 40
0.0
 40
0.0
 40
0.5
 40
0.5
 40
1.0
 40
1.0
 40
1.0
 40
1.0
 10
673.8181778621215
 20
-44.41848252513523
 30
0.0
 10
674.452918845795
 20
-44.41848252513523
 30
0.0
 10
675.0829804027307
 20
-44.36388379425335
 30
0.0
 10
676.3351551535784
 20
-44.16194622605536
 30
0.0
 10
676.9600263191228
 20
-44.01428574866616
 30
0.0
 10
677.5709546118473
 20
-43.83792594153635
 30
0.0
  0
ARC
  5
573
330
1F
100
AcDbEntity
  8
0
100
AcDbCircle
 10
679.5784727771659
 20
-40.67209480704349
 30
0.0
 40
3.748681895841292
100
AcDbArc
 50
237.6203815789139
 51
267.9953709534312
  0
ARC
  5
574
330
1F
100
AcDbEntity
  8
0
100
AcDbCircle
 10
679.340802224729
 20
-40.75156779636517
 30
0.0
 40
3.668462152188392
100
AcDbArc
 50
271.6642380939571
 51
302.7200093737633
  0
LINE
  5
575
330
1F
100
AcDbEntity
  8
0
100
AcDbLine
 10
666.3126243626889
 20
-43.8379259415534
 30
0.0
 11
667.3181778621215
 21
-44.41848252513529
 31
0.0
  0
LINE
  5
576
330
1F
100
AcDbEntity
  8
0
100
AcDbLine
 10
680.3181778621213
 20
-44.41848252513523
 30
0.0
 11
681.3237313615538
 21
-43.83792594155335
 31
0.0
  0
LINE
  5
577
330
1F
100
AcDbEntity
  8
0
100
AcDbLine
 10
676.8181778621213
 20
-38.91848252513529
 30
0.0
 11
676.8181778621213
 21
-28.51848252513531
 31
0.0
  0
LINE
  5
578
330
1F
100
AcDbEntity
  8
0
100
AcDbLine
 10
670.8181778621212
 20
-28.51848252513531
 30
0.0
 11
670.8181778621212
 21
-38.91848252513529
 31
0.0
  0
LINE
  5
579
330
1F
100
AcDbEntity
  8
0
100
AcDbLine
 10
415.3126243626574
 20
-27.93792594153468
 30
0.0
 11
415.3126243626574
 21
-27.01848252513531
 31
0.0
  0
LINE
  5
57A
330
1F
100
AcDbEntity
  8
0
100
AcDbLine
 10
430.3237313615878
 20
-27.93792594153468
 30
0.0
 11
430.3237313615878
 21
-27.01848252513531
 31
0.0
  0
LINE
  5
57B
330
1F
100
AcDbEntity
  8
0
100
AcDbLine
 10
426.5709546118551
 20
-27.93792594153468
 30
0.0
 11
426.5709546118551
 21
-27.01848252513531
 31
0.0
  0
LINE
  5
57C
330
1F
100
AcDbEntity
  8
0
100
AcDbLine
 10
419.06540111239
 20
-27.93792594153468
 30
0.0
 11
419.06540111239
 21
-27.01848252513531
 31
0.0
  0
LINE
  5
57D
330
1F
100
AcDbEntity
  8
0
100
AcDbLine
 10
416.3181778621226
 20
-28.51848252513543
 30
0.0
 11
417.1890127375239
 21
-28.51848252513543
 31
0.0
  0
LINE
  5
57E
330
1F
100
AcDbEntity
  8
0
100
AcDbLine
 10
422.8181778621227
 20
-28.51848252513543
 30
0.0
 11
417.1890127375239
 21
-28.51848252513543
 31
0.0
  0
LINE
  5
57F
330
1F
100
AcDbEntity
  8
0
100
AcDbLine
 10
428.4473429867214
 20
-28.51848252513543
 30
0.0
 11
422.8181778621227
 21
-28.51848252513543
 31
0.0
  0
LINE
  5
580
330
1F
100
AcDbEntity
  8
0
100
AcDbLine
 10
428.4473429867214
 20
-28.51848252513543
 30
0.0
 11
429.3181778621225
 21
-28.51848252513543
 31
0.0
  0
ARC
  5
581
330
1F
100
AcDbEntity
  8
0
100
AcDbCircle
 10
428.31621319621
 20
-24.77209480686662
 30
0.0
 40
3.748681896020908
100
AcDbArc
 50
272.0046290476267
 51
302.3796184204149
  0
ARC
  5
582
330
1F
100
AcDbEntity
  8
0
100
AcDbCircle
 10
428.5538837487793
 20
-24.85156779613783
 30
0.0
 40
3.668462152417486
100
AcDbArc
 50
237.279990626693
 51
268.335761905259
  0
SPLINE
  5
583
330
1F
100
AcDbEntity
  8
0
100
AcDbSpline
210
0.0
220
0.0
230
1.0
 70
     8
 71
     3
 72
    10
 73
     6
 74
     0
 42
0.0000000001
 43
0.0000000001
 40
0.0
 40
0.0
 40
0.0
 40
0.0
 40
0.5
 40
0.5
 40
1.0
 40
1.0
 40
1.0
 40
1.0
 10
426.5709546118551
 20
-27.93792594153468
 30
0.0
 10
425.9641515333867
 20
-28.1130949018841
 30
0.0
 10
425.3493889164643
 20
-28.25897560587987
 30
0.0
 10
424.0958744122655
 20
-28.4624650739907
 30
0.0
 10
423.4527121912507
 20
-28.51848252513548
 30
0.0
 10
422.8181778621227
 20
-28.51848252513543
 30
0.0
  0
SPLINE
  5
584
330
1F
100
AcDbEntity
  8
0
100
AcDbSpline
210
0.0
220
0.0
230
1.0
 70
     8
 71
     3
 72
    10
 73
     6
 74
     0
 42
0.0000000001
 43
0.0000000001
 40
0.0
 40
0.0
 40
0.0
 40
0.0
 40
0.5
 40
0.5
 40
1.0
 40
1.0
 40
1.0
 40
1.0
 10
422.8181778621227
 20
-28.51848252513543
 30
0.0
 10
422.1840203083614
 20
-28.51848252513548
 30
0.0
 10
421.553971322052
 20
-28.46397295462777
 30
0.0
 10
420.3008869285965
 20
-28.26190259991711
 30
0.0
 10
419.6757598471207
 20
-28.11412133143426
 30
0.0
 10
419.06540111239
 20
-27.93792594153468
 30
0.0
  0
ARC
  5
585
330
1F
100
AcDbEntity
  8
0
100
AcDbCircle
 10
417.0578829470128
 20
-24.77209480686821
 30
0.0
 40
3.748681896019325
100
AcDbArc
 50
272.0046290476208
 51
302.3796184204207
  0
ARC
  5
586
330
1F
100
AcDbEntity
  8
0
100
AcDbCircle
 10
417.2955534995814
 20
-24.85156779613783
 30
0.0
 40
3.668462152417425
100
AcDbArc
 50
237.2799906266954
 51
268.3357619052619
  0
LINE
  5
587
330
1F
100
AcDbEntity
  8
0
100
AcDbLine
 10
429.3181778621225
 20
-28.51848252513543
 30
0.0
 11
430.3237313615877
 21
-27.93792594153462
 31
0.0
  0
LINE
  5
588
330
1F
100
AcDbEntity
  8
0
100
AcDbLine
 10
415.3126243626574
 20
-27.93792594153468
 30
0.0
 11
416.3181778621225
 21
-28.51848252513548
 31
0.0
  0
LINE
  5
589
330
1F
100
AcDbEntity
  8
0
100
AcDbLine
 10
681.3237313615863
 20
-27.93792594153456
 30
0.0
 11
681.3237313615863
 21
-27.01848252513531
 31
0.0
  0
LINE
  5
58A
330
1F
100
AcDbEntity
  8
0
100
AcDbLine
 10
677.5709546118537
 20
-27.93792594153456
 30
0.0
 11
677.5709546118537
 21
-27.01848252513531
 31
0.0
  0
LINE
  5
58B
330
1F
100
AcDbEntity
  8
0
100
AcDbLine
 10
670.0654011123885
 20
-27.93792594153456
 30
0.0
 11
670.0654011123885
 21
-27.01848252513531
 31
0.0
  0
LINE
  5
58C
330
1F
100
AcDbEntity
  8
0
100
AcDbLine
 10
666.3126243626561
 20
-27.93792594153456
 30
0.0
 11
666.3126243626561
 21
-27.01848252513531
 31
0.0
  0
LINE
  5
58D
330
1F
100
AcDbEntity
  8
0
100
AcDbLine
 10
679.44734298672
 20
-28.51848252513531
 30
0.0
 11
680.3181778621213
 21
-28.51848252513531
 31
0.0
  0
LINE
  5
58E
330
1F
100
AcDbEntity
  8
0
100
AcDbLine
 10
668.1890127375226
 20
-28.51848252513531
 30
0.0
 11
667.3181778621215
 21
-28.51848252513531
 31
0.0
  0
LINE
  5
58F
330
1F
100
AcDbEntity
  8
0
100
AcDbLine
 10
673.8181778621215
 20
-28.51848252513531
 30
0.0
 11
668.1890127375226
 21
-28.51848252513531
 31
0.0
  0
LINE
  5
590
330
1F
100
AcDbEntity
  8
0
100
AcDbLine
 10
679.44734298672
 20
-28.51848252513531
 30
0.0
 11
673.8181778621215
 21
-28.51848252513531
 31
0.0
  0
ARC
  5
591
330
1F
100
AcDbEntity
  8
0
100
AcDbCircle
 10
668.0578829470114
 20
-24.77209480686793
 30
0.0
 40
3.748681896019511
100
AcDbArc
 50
272.0046290476267
 51
302.3796184204207
  0
ARC
  5
592
330
1F
100
AcDbEntity
  8
0
100
AcDbCircle
 10
668.2955534995801
 20
-24.85156779613766
 30
0.0
 40
3.668462152417587
100
AcDbArc
 50
237.2799906266963
 51
268.3357619052648
  0
SPLINE
  5
593
330
1F
100
AcDbEntity
  8
0
100
AcDbSpline
210
0.0
220
0.0
230
1.0
 70
     8
 71
     3
 72
    10
 73
     6
 74
     0
 42
0.0000000001
 43
0.0000000001
 40
0.0
 40
0.0
 40
0.0
 40
0.0
 40
0.5
 40
0.5
 40
1.0
 40
1.0
 40
1.0
 40
1.0
 10
677.5709546118537
 20
-27.93792594153456
 30
0.0
 10
676.9605958730828
 20
-28.11412133260052
 30
0.0
 10
676.3354687872033
 20
-28.26190260167493
 30
0.0
 10
675.0823843945489
 20
-28.46397295546387
 30
0.0
 10
674.4523354107668
 20
-28.51848252513537
 30
0.0
 10
673.8181778621215
 20
-28.51848252513531
 30
0.0
  0
SPLINE
  5
594
330
1F
100
AcDbEntity
  8
0
100
AcDbSpline
210
0.0
220
0.0
230
1.0
 70
     8
 71
     3
 72
    10
 73
     6
 74
     0
 42
0.0000000001
 43
0.0000000001
 40
0.0
 40
0.0
 40
0.0
 40
0.0
 40
0.5
 40
0.5
 40
1.0
 40
1.0
 40
1.0
 40
1.0
 10
673.8181778621215
 20
-28.51848252513531
 30
0.0
 10
673.1836435445821
 20
-28.51848252513537
 30
0.0
 10
672.5404813269508
 20
-28.4624650760149
 30
0.0
 10
671.2869668093201
 20
-28.25897560653613
 30
0.0
 10
670.6722041902585
 20
-28.11309490171118
 30
0.0
 10
670.0654011123885
 20
-27.93792594153456
 30
0.0
  0
ARC
  5
595
330
1F
100
AcDbEntity
  8
0
100
AcDbCircle
 10
679.3162131962088
 20
-24.77209480686691
 30
0.0
 40
3.748681896020591
100
AcDbArc
 50
272.0046290476267
 51
302.3796184204149
  0
ARC
  5
596
330
1F
100
AcDbEntity
  8
0
100
AcDbCircle
 10
679.5538837487779
 20
-24.85156779613766
 30
0.0
 40
3.668462152417597
100
AcDbArc
 50
237.2799906266934
 51
268.3357619052619
  0
LINE
  5
597
330
1F
100
AcDbEntity
  8
0
100
AcDbLine
 10
666.3126243626561
 20
-27.93792594153456
 30
0.0
 11
667.3181778621213
 21
-28.51848252513537
 31
0.0
  0
LINE
  5
598
330
1F
100
AcDbEntity
  8
0
100
AcDbLine
 10
680.3181778621213
 20
-28.51848252513531
 30
0.0
 11
681.3237313615863
 21
-27.93792594153456
 31
0.0
  0
LINE
  5
599
330
1F
100
AcDbEntity
  8
0
100
AcDbLine
 10
398.3181778621227
 20
-27.01848252513531
 30
0.0
 11
403.1831034198933
 21
21.63077305348759
 31
0.0
  0
LINE
  5
59A
330
1F
100
AcDbEntity
  8
0
100
AcDbLine
 10
399.8107336474312
 20
-27.01848252513531
 30
0.0
 11
696.8256220768125
 21
-27.01848252513531
 31
0.0
  0
LINE
  5
59B
330
1F
100
AcDbEntity
  8
0
100
AcDbLine
 10
698.318177862121
 20
-27.01848252513531
 30
0.0
 11
696.8256220768128
 21
-27.01848252513531
 31
0.0
  0
LINE
  5
59C
330
1F
100
AcDbEntity
  8
0
100
AcDbLine
 10
399.8107336474312
 20
-27.01848252513531
 30
0.0
 11
398.3181778621227
 21
-27.01848252513531
 31
0.0
  0
LINE
  5
59D
330
1F
100
AcDbEntity
  8
0
100
AcDbLine
 10
691.9606965190443
 20
21.63077305339806
 30
0.0
 11
404.6756592051994
 21
21.630773053398
 31
0.0
  0
LINE
  5
59E
330
1F
100
AcDbEntity
  8
0
100
AcDbLine
 10
696.8256220768128
 20
-27.01848252513531
 30
0.0
 11
691.9606965190446
 21
21.630773053398
 31
0.0
  0
LINE
  5
59F
330
1F
100
AcDbEntity
  8
0
100
AcDbLine
 10
404.6756592051994
 20
21.630773053398
 30
0.0
 11
399.8107336474312
 21
-27.01848252513531
 31
0.0
  0
LINE
  5
5A0
330
1F
100
AcDbEntity
  8
0
100
AcDbLine
 10
404.6756592051994
 20
22.98151747486441
 30
0.0
 11
691.9606965190443
 21
22.98151747486441
 31
0.0
  0
LINE
  5
5A1
330
1F
100
AcDbEntity
  8
0
100
AcDbLine
 10
693.4532523043503
 20
21.63077305348753
 30
0.0
 11
698.318177862121
 21
-27.01848252513531
 31
0.0
  0
ELLIPSE
  5
5A2
330
1F
100
AcDbEntity
  8
0
100
AcDbEllipse
 10
691.9606965190443
 20
21.48151747486446
 30
0.0
 11
-1.49255578530579
 21
-0.1492555786231288
 31
0.0
210
0.0
220
0.0
230
1.0
 40
0.099014754298451
 41
3.141592653589793
 42
4.7024878285073
  0
ARC
  5
5A3
330
1F
100
AcDbEntity
  8
0
100
AcDbCircle
 10
691.9606965190443
 20
21.48151747486441
 30
0.0
 40
1.500000000000027
100
AcDbArc
 50
5.710593141016931
 51
90.0
  0
LINE
  5
5A4
330
1F
100
AcDbEntity
  8
0
100
AcDbLine
 10
691.9606965190443
 20
21.63077305339806
 30
0.0
 11
691.9606965190443
 21
22.98151747486446
 31
0.0
  0
LINE
  5
5A5
330
1F
100
AcDbEntity
  8
0
100
AcDbLine
 10
404.6756592051994
 20
21.630773053398
 30
0.0
 11
404.6756592051994
 21
22.98151747486441
 31
0.0
  0
ELLIPSE
  5
5A6
330
1F
100
AcDbEntity
  8
0
100
AcDbEllipse
 10
404.6756592051994
 20
21.48151747486446
 30
0.0
 11
-1.492555785305845
 21
0.1492555786231494
 31
0.0
210
0.0
220
0.0
230
1.0
 40
0.09901475429845
 41
4.722290132262079
 42
6.283185307179586
  0
ARC
  5
5A7
330
1F
100
AcDbEntity
  8
0
100
AcDbCircle
 10
404.6756592051994
 20
21.48151747486441
 30
0.0
 40
1.500000000000029
100
AcDbArc
 50
90.0
 51
174.289406858982
  0
LINE
  5
5A8
330
1F
100
AcDbEntity
  8
0
100
AcDbLine
 10
541.3181778621219
 20
-66.51848252513514
 30
0.0
 11
541.8181778621219
 21
-66.51848252513514
 31
0.0
  0
LINE
  5
5A9
330
1F
100
AcDbEntity
  8
0
100
AcDbLine
 10
554.8181778621217
 20
-66.51848252513514
 30
0.0
 11
555.3181778621219
 21
-66.51848252513514
 31
0.0
  0
ARC
  5
5AA
330
1F
100
AcDbEntity
  8
0
100
AcDbCircle
 10
544.3181778621219
 20
-66.5184825251352
 30
0.0
 40
2.999999999999983
100
AcDbArc
 50
180.0
 51
234.3146652873488
  0
ARC
  5
5AB
330
1F
100
AcDbEntity
  8
0
100
AcDbCircle
 10
552.318177862122
 20
-66.5184825251352
 30
0.0
 40
2.999999999999979
100
AcDbArc
 50
305.6853347126467
 51
0.0
  0
LINE
  5
5AC
330
1F
100
AcDbEntity
  8
0
100
AcDbLine
 10
541.3181778621219
 20
-65.51848252513519
 30
0.0
 11
541.3181778621219
 21
-66.5184825251352
 31
0.0
  0
LINE
  5
5AD
330
1F
100
AcDbEntity
  8
0
100
AcDbLine
 10
555.3181778621219
 20
-66.5184825251352
 30
0.0
 11
555.3181778621219
 21
-65.51848252513519
 31
0.0
  0
ARC
  5
5AE
330
1F
100
AcDbEntity
  8
0
100
AcDbCircle
 10
528.3181778621221
 20
-38.26848252513531
 30
0.0
 40
4.249999999999969
100
AcDbArc
 50
40.32021506996854
 51
139.6797849300314
  0
ARC
  5
5AF
330
1F
100
AcDbEntity
  8
0
100
AcDbCircle
 10
568.3181778621219
 20
-38.26848252513531
 30
0.0
 40
4.249999999999969
100
AcDbArc
 50
40.32021506996854
 51
139.6797849300345
  0
LINE
  5
5B0
330
1F
100
AcDbEntity
  8
0
100
AcDbLine
 10
118.3607929051663
 20
-37.81848252513538
 30
0.0
 11
118.3607929051663
 21
-27.01848252513531
 31
0.0
  0
LINE
  5
5B1
330
1F
100
AcDbEntity
  8
0
100
AcDbLine
 10
-31.63920709483284
 20
-27.01848252513526
 30
0.0
 11
-31.63920709483284
 21
-37.81848252513532
 31
0.0
  0
LINE
  5
5B2
330
1F
100
AcDbEntity
  8
0
100
AcDbLine
 10
20.36079290516688
 20
-27.01848252513531
 30
0.0
 11
20.36079290516688
 21
-34.39348252513537
 31
0.0
  0
ARC
  5
5B3
330
1F
100
AcDbEntity
  8
0
100
AcDbCircle
 10
23.36079290516687
 20
-38.39348252513537
 30
0.0
 40
4.99999999999997
100
AcDbArc
 50
126.8698976458444
 51
173.3963749512662
  0
ARC
  5
5B4
330
1F
100
AcDbEntity
  8
0
100
AcDbCircle
 10
23.36079290516687
 20
-38.39348252513537
 30
0.0
 40
4.999999999999973
100
AcDbArc
 50
96.19497607046696
 51
126.8698976458444
  0
LINE
  5
5B5
330
1F
100
AcDbEntity
  8
0
100
AcDbLine
 10
66.36079290516665
 20
-34.39348252513537
 30
0.0
 11
66.36079290516665
 21
-27.01848252513531
 31
0.0
  0
ARC
  5
5B6
330
1F
100
AcDbEntity
  8
0
100
AcDbCircle
 10
63.36079290516676
 20
-38.39348252513537
 30
0.0
 40
4.999999999999972
100
AcDbArc
 50
6.603625048733774
 51
53.13010235415696
  0
ARC
  5
5B7
330
1F
100
AcDbEntity
  8
0
100
AcDbCircle
 10
27.36079290516688
 20
-35.51848252513537
 30
0.0
 40
4.99999999999997
100
AcDbArc
 50
87.81843826987842
 51
155.2184067307373
  0
ARC
  5
5B8
330
1F
100
AcDbEntity
  8
0
100
AcDbCircle
 10
63.36079290516676
 20
-38.39348252513537
 30
0.0
 40
4.999999999999971
100
AcDbArc
 50
53.13010235415696
 51
83.80502392953305
  0
ARC
  5
5B9
330
1F
100
AcDbEntity
  8
0
100
AcDbCircle
 10
59.36079290516665
 20
-35.51848252513537
 30
0.0
 40
4.999999999999969
100
AcDbArc
 50
24.78159326926265
 51
92.18156173012157
  0
ARC
  5
5BA
330
1F
100
AcDbEntity
  8
0
100
AcDbCircle
 10
43.36079290516687
 20
-23.01848252513543
 30
0.0
 40
10.99999999999994
100
AcDbArc
 50
201.3236862634977
 51
338.6763137365023
  0
ARC
  5
5BB
330
1F
100
AcDbEntity
  8
0
100
AcDbCircle
 10
9.360792905166988
 20
-23.01848252513543
 30
0.0
 40
8.99999999999995
100
AcDbArc
 50
206.3877999612418
 51
333.6122000387582
  0
LINE
  5
5BC
330
1F
100
AcDbEntity
  8
0
100
AcDbLine
 10
55.3730796191715
 20
-32.50216975145003
 30
0.0
 11
50.05676684548615
 21
-37.81848252513532
 31
0.0
  0
ARC
  5
5BD
330
1F
100
AcDbEntity
  8
0
100
AcDbCircle
 10
43.36079290516687
 20
-23.01848252513543
 30
0.0
 40
17.4999999999999
100
AcDbArc
 50
334.6099337897783
 51
346.7870196398413
  0
ARC
  5
5BE
330
1F
100
AcDbEntity
  8
0
100
AcDbCircle
 10
43.36079290516687
 20
-23.01848252513543
 30
0.0
 40
17.4999999999999
100
AcDbArc
 50
193.2129803601577
 51
205.3900662102217
  0
ARC
  5
5BF
330
1F
100
AcDbEntity
  8
0
100
AcDbCircle
 10
27.36079290516688
 20
-35.51848252513537
 30
0.0
 40
4.999999999999973
100
AcDbArc
 50
37.44411709728755
 51
87.81843826987842
  0
ARC
  5
5C0
330
1F
100
AcDbEntity
  8
0
100
AcDbCircle
 10
59.36079290516665
 20
-35.51848252513537
 30
0.0
 40
4.999999999999973
100
AcDbArc
 50
92.18156173012157
 51
142.8960799871848
  0
LINE
  5
5C1
330
1F
100
AcDbEntity
  8
0
100
AcDbLine
 10
36.67046321729567
 20
-37.81848252513538
 30
0.0
 11
31.33052646821392
 21
-32.47854577605364
 31
0.0
  0
ARC
  5
5C2
330
1F
100
AcDbEntity
  8
0
100
AcDbCircle
 10
43.36079290516687
 20
-23.01848252513543
 30
0.0
 40
11.29999999999994
100
AcDbArc
 50
200.7310848447424
 51
339.2689151552576
  0
LINE
  5
5C3
330
1F
100
AcDbEntity
  8
0
100
AcDbLine
 10
-41.10330870997052
 20
-29.9466857554109
 30
0.0
 11
-32.17510547969505
 21
-29.9466857554109
 31
0.0
  0
LINE
  5
5C4
330
1F
100
AcDbEntity
  8
0
100
AcDbLine
 10
-41.63920709483278
 20
-28.214634947842
 30
0.0
 11
-41.63920709483278
 21
-29.01848252513543
 31
0.0
  0
LINE
  5
5C5
330
1F
100
AcDbEntity
  8
0
100
AcDbLine
 10
-41.63920709483278
 20
-28.214634947842
 30
0.0
 11
-41.63920709483278
 21
-27.01848252513531
 31
0.0
  0
ARC
  5
5C6
330
1F
100
AcDbEntity
  8
0
100
AcDbCircle
 10
-38.16357264155119
 20
-28.08819907801694
 30
0.0
 40
3.477933421159216
100
AcDbArc
 50
182.0833746510092
 51
212.3008728170322
  0
ARC
  5
5C7
330
1F
100
AcDbEntity
  8
0
100
AcDbCircle
 10
-38.25436272179303
 20
-28.31298026908127
 30
0.0
 40
3.386272763955716
100
AcDbArc
 50
157.4235996870523
 51
178.3357618682252
  0
ARC
  5
5C8
330
1F
100
AcDbEntity
  8
0
100
AcDbCircle
 10
-35.11484154811439
 20
-28.08819907801689
 30
0.0
 40
3.477933421159252
100
AcDbArc
 50
327.6991271829678
 51
357.9166253489898
  0
ARC
  5
5C9
330
1F
100
AcDbEntity
  8
0
100
AcDbCircle
 10
-35.02405146787265
 20
-28.31298026908132
 30
0.0
 40
3.386272763955785
100
AcDbArc
 50
1.664238131774744
 51
22.57640031294774
  0
LINE
  5
5CA
330
1F
100
AcDbEntity
  8
0
100
AcDbLine
 10
-41.63920709483278
 20
-29.01848252513543
 30
0.0
 11
-41.10330870997052
 21
-29.9466857554109
 31
0.0
  0
LINE
  5
5CB
330
1F
100
AcDbEntity
  8
0
100
AcDbLine
 10
-32.17510547969505
 20
-29.9466857554109
 30
0.0
 11
-31.63920709483284
 21
-29.01848252513543
 31
0.0
  0
LINE
  5
5CF
330
1F
100
AcDbEntity
  8
0
100
AcDbLine
 10
178.960792905166
 20
-71.51848252513525
 30
0.0
 11
208.7607929051658
 21
-71.51848252513525
 31
0.0
  0
LINE
  5
5D0
330
1F
100
AcDbEntity
  8
0
100
AcDbLine
 10
178.8607929051659
 20
-45.61848252513539
 30
0.0
 11
208.8607929051658
 21
-45.61848252513539
 31
0.0
  0
LINE
  5
5D1
330
1F
100
AcDbEntity
  8
0
100
AcDbLine
 10
208.860792905166
 20
-71.41848252513523
 30
0.0
 11
178.8607929051661
 21
-71.41848252513523
 31
0.0
  0
LINE
  5
5D2
330
1F
100
AcDbEntity
  8
0
100
AcDbLine
 10
208.7607929051658
 20
-45.51848252513543
 30
0.0
 11
178.960792905166
 21
-45.51848252513543
 31
0.0
  0
LINE
  5
5D3
330
1F
100
AcDbEntity
  8
0
100
AcDbLine
 10
208.8607929051658
 20
-71.41848252513523
 30
0.0
 11
208.8607929051658
 21
-45.61848252513539
 31
0.0
  0
LINE
  5
5D4
330
1F
100
AcDbEntity
  8
0
100
AcDbLine
 10
178.8607929051661
 20
-45.61848252513539
 30
0.0
 11
178.8607929051661
 21
-71.41848252513529
 31
0.0
  0
LINE
  5
5D5
330
1F
100
AcDbEntity
  8
0
100
AcDbLine
 10
178.8607929051659
 20
-71.41848252513523
 30
0.0
 11
178.960792905166
 21
-71.51848252513525
 31
0.0
  0
LINE
  5
5D6
330
1F
100
AcDbEntity
  8
0
100
AcDbLine
 10
208.7607929051658
 20
-71.51848252513525
 30
0.0
 11
208.8607929051658
 21
-71.41848252513523
 31
0.0
  0
LINE
  5
5D7
330
1F
100
AcDbEntity
  8
0
100
AcDbLine
 10
208.860792905166
 20
-45.61848252513539
 30
0.0
 11
208.7607929051659
 21
-45.51848252513543
 31
0.0
  0
LINE
  5
5D8
330
1F
100
AcDbEntity
  8
0
100
AcDbLine
 10
178.960792905166
 20
-45.51848252513543
 30
0.0
 11
178.8607929051659
 21
-45.61848252513539
 31
0.0
  0
LINE
  5
5D9
330
1F
100
AcDbEntity
  8
0
100
AcDbLine
 10
-152.0392070948321
 20
-71.51848252513514
 30
0.0
 11
-122.2392070948323
 21
-71.51848252513514
 31
0.0
  0
LINE
  5
5DA
330
1F
100
AcDbEntity
  8
0
100
AcDbLine
 10
-152.1392070948321
 20
-45.61848252513522
 30
0.0
 11
-122.1392070948322
 21
-45.61848252513522
 31
0.0
  0
LINE
  5
5DB
330
1F
100
AcDbEntity
  8
0
100
AcDbLine
 10
-122.1392070948322
 20
-71.41848252513511
 30
0.0
 11
-152.1392070948321
 21
-71.41848252513511
 31
0.0
  0
LINE
  5
5DC
330
1F
100
AcDbEntity
  8
0
100
AcDbLine
 10
-122.2392070948323
 20
-45.51848252513525
 30
0.0
 11
-152.0392070948321
 21
-45.51848252513525
 31
0.0
  0
LINE
  5
5DD
330
1F
100
AcDbEntity
  8
0
100
AcDbLine
 10
-122.1392070948323
 20
-71.41848252513511
 30
0.0
 11
-122.1392070948322
 21
-45.61848252513522
 31
0.0
  0
LINE
  5
5DE
330
1F
100
AcDbEntity
  8
0
100
AcDbLine
 10
-152.1392070948321
 20
-45.61848252513522
 30
0.0
 11
-152.1392070948321
 21
-71.41848252513511
 31
0.0
  0
LINE
  5
5DF
330
1F
100
AcDbEntity
  8
0
100
AcDbLine
 10
-152.1392070948321
 20
-71.41848252513511
 30
0.0
 11
-152.0392070948321
 21
-71.51848252513508
 31
0.0
  0
LINE
  5
5E0
330
1F
100
AcDbEntity
  8
0
100
AcDbLine
 10
-122.2392070948323
 20
-71.51848252513514
 30
0.0
 11
-122.1392070948323
 21
-71.41848252513518
 31
0.0
  0
LINE
  5
5E1
330
1F
100
AcDbEntity
  8
0
100
AcDbLine
 10
-122.1392070948322
 20
-45.61848252513527
 30
0.0
 11
-122.2392070948322
 21
-45.51848252513525
 31
0.0
  0
LINE
  5
5E2
330
1F
100
AcDbEntity
  8
0
100
AcDbLine
 10
-152.0392070948321
 20
-45.51848252513525
 30
0.0
 11
-152.1392070948321
 21
-45.61848252513527
 31
0.0
  0
LINE
  5
5E3
330
1F
100
AcDbEntity
  8
0
100
AcDbLine
 10
196.8607929051659
 20
-44.41848252513534
 30
0.0
 11
196.8607929051659
 21
-45.51848252513548
 31
0.0
  0
LINE
  5
5E4
330
1F
100
AcDbEntity
  8
0
100
AcDbLine
 10
190.860792905166
 20
-44.41848252513534
 30
0.0
 11
190.860792905166
 21
-45.51848252513548
 31
0.0
  0
LINE
  5
5E5
330
1F
100
AcDbEntity
  8
0
100
AcDbLine
 10
-134.1392070948322
 20
-44.11848252513528
 30
0.0
 11
-134.1392070948322
 21
-45.51848252513525
 31
0.0
  0
LINE
  5
5E6
330
1F
100
AcDbEntity
  8
0
100
AcDbLine
 10
-140.1392070948322
 20
-44.11848252513528
 30
0.0
 11
-140.1392070948322
 21
-45.51848252513525
 31
0.0
  0
LINE
  5
5E7
330
1F
100
AcDbEntity
  8
0
100
AcDbLine
 10
-122.1392070948323
 20
-63.21848252513524
 30
0.0
 11
178.8607929051659
 21
-63.21848252513524
 31
0.0
  0
LINE
  5
5E8
330
1F
100
AcDbEntity
  8
0
100
AcDbLine
 10
190.860792905166
 20
-37.81848252513538
 30
0.0
 11
-134.1392070948322
 21
-37.81848252513538
 31
0.0
  0
LINE
  5
5E9
330
1F
100
AcDbEntity
  8
0
100
AcDbLine
 10
-152.1392070948321
 20
-65.51848252513519
 30
0.0
 11
-172.139207094832
 21
-65.51848252513519
 31
0.0
  0
LINE
  5
5EA
330
1F
100
AcDbEntity
  8
0
100
AcDbLine
 10
-145.1392070948321
 20
-74.51848252513508
 30
0.0
 11
-172.139207094832
 21
-74.51848252513508
 31
0.0
  0
LINE
  5
5EB
330
1F
100
AcDbEntity
  8
0
100
AcDbLine
 10
-172.139207094832
 20
-74.51848252513508
 30
0.0
 11
-182.139207094832
 21
-74.51848252513508
 31
0.0
  0
LINE
  5
5EC
330
1F
100
AcDbEntity
  8
0
100
AcDbLine
 10
-172.139207094832
 20
-65.51848252513514
 30
0.0
 11
-182.139207094832
 21
-65.51848252513514
 31
0.0
  0
LINE
  5
5ED
330
1F
100
AcDbEntity
  8
0
100
AcDbLine
 10
-172.139207094832
 20
-65.51848252513514
 30
0.0
 11
-172.139207094832
 21
-74.51848252513508
 31
0.0
  0
LINE
  5
5EE
330
1F
100
AcDbEntity
  8
0
100
AcDbLine
 10
-182.1392070948319
 20
-65.51848252513514
 30
0.0
 11
-182.139207094832
 21
-74.51848252513508
 31
0.0
  0
LINE
  5
5EF
330
1F
100
AcDbEntity
  8
0
100
AcDbLine
 10
172.4187547894168
 20
-85.5184825251352
 30
0.0
 11
215.3028310209151
 21
-85.51848252513526
 31
0.0
  0
LINE
  5
5F0
330
1F
100
AcDbEntity
  8
0
100
AcDbLine
 10
179.360792905166
 20
-82.5184825251352
 30
0.0
 11
208.3607929051658
 21
-82.5184825251352
 31
0.0
  0
LINE
  5
5F1
330
1F
100
AcDbEntity
  8
0
100
AcDbLine
 10
172.5525464977603
 20
-91.5184825251352
 30
0.0
 11
215.1690393125717
 21
-91.51848252513525
 31
0.0
  0
LINE
  5
5F2
330
1F
100
AcDbEntity
  8
0
100
AcDbLine
 10
216.1538470655839
 20
-90.34483434746817
 30
0.0
 11
171.567738744748
 21
-90.34483434746817
 31
0.0
  0
LINE
  5
5F3
330
1F
100
AcDbEntity
  8
0
100
AcDbLine
 10
182.3607929051661
 20
-94.51848252513514
 30
0.0
 11
205.360792905166
 21
-94.51848252513514
 31
0.0
  0
LINE
  5
5F4
330
1F
100
AcDbEntity
  8
0
100
AcDbLine
 10
206.3607929051658
 20
-93.51848252513509
 30
0.0
 11
181.3607929051659
 21
-93.51848252513509
 31
0.0
  0
LINE
  5
5F5
330
1F
100
AcDbEntity
  8
0
100
AcDbLine
 10
216.1538470655839
 20
-90.34483434746823
 30
0.0
 11
215.3028310209151
 21
-85.51848252513526
 31
0.0
  0
LINE
  5
5F6
330
1F
100
AcDbEntity
  8
0
100
AcDbLine
 10
172.4187547894168
 20
-85.5184825251352
 30
0.0
 11
171.567738744748
 21
-90.34483434746817
 31
0.0
  0
LINE
  5
5F7
330
1F
100
AcDbEntity
  8
0
100
AcDbLine
 10
203.3607929051659
 20
-82.5184825251352
 30
0.0
 11
201.3607929051659
 21
-79.5184825251352
 31
0.0
  0
LINE
  5
5F8
330
1F
100
AcDbEntity
  8
0
100
AcDbLine
 10
186.3607929051659
 20
-79.5184825251352
 30
0.0
 11
184.3607929051659
 21
-82.51848252513525
 31
0.0
  0
LINE
  5
5F9
330
1F
100
AcDbEntity
  8
0
100
AcDbLine
 10
215.3028310209151
 20
-85.51848252513526
 30
0.0
 11
208.3607929051658
 21
-82.51848252513525
 31
0.0
  0
LINE
  5
5FA
330
1F
100
AcDbEntity
  8
0
100
AcDbLine
 10
179.360792905166
 20
-82.5184825251352
 30
0.0
 11
172.4187547894168
 21
-85.5184825251352
 31
0.0
  0
LINE
  5
5FB
330
1F
100
AcDbEntity
  8
0
100
AcDbLine
 10
181.3607929051659
 20
-91.5184825251352
 30
0.0
 11
181.3607929051659
 21
-93.51848252513514
 31
0.0
  0
LINE
  5
5FC
330
1F
100
AcDbEntity
  8
0
100
AcDbLine
 10
206.3607929051658
 20
-93.51848252513514
 30
0.0
 11
206.3607929051658
 21
-91.5184825251352
 31
0.0
  0
ARC
  5
5FD
330
1F
100
AcDbEntity
  8
0
100
AcDbCircle
 10
215.1690393125715
 20
-90.5184825251352
 30
0.0
 40
0.9999999999999953
100
AcDbArc
 50
270.0
 51
10.00000000000096
  0
ARC
  5
5FE
330
1F
100
AcDbEntity
  8
0
100
AcDbCircle
 10
172.5525464977603
 20
-90.51848252513513
 30
0.0
 40
1.000000000000026
100
AcDbArc
 50
169.999999999999
 51
270.0
  0
ARC
  5
5FF
330
1F
100
AcDbEntity
  8
0
100
AcDbCircle
 10
205.3607929051659
 20
-93.51848252513514
 30
0.0
 40
0.9999999999999953
100
AcDbArc
 50
270.0
 51
0.0
  0
ARC
  5
600
330
1F
100
AcDbEntity
  8
0
100
AcDbCircle
 10
182.3607929051661
 20
-93.51848252513509
 30
0.0
 40
0.9999999999999953
100
AcDbArc
 50
180.0
 51
270.0
  0
LINE
  5
601
330
1F
100
AcDbEntity
  8
0
100
AcDbLine
 10
201.860792905166
 20
-72.23301370495159
 30
0.0
 11
201.860792905166
 21
-79.5184825251352
 31
0.0
  0
LINE
  5
602
330
1F
100
AcDbEntity
  8
0
100
AcDbLine
 10
201.860792905166
 20
-79.5184825251352
 30
0.0
 11
193.8607929051659
 21
-79.5184825251352
 31
0.0
  0
LINE
  5
603
330
1F
100
AcDbEntity
  8
0
100
AcDbLine
 10
193.8607929051659
 20
-79.5184825251352
 30
0.0
 11
193.8607929051659
 21
-72.23301370495159
 31
0.0
  0
LINE
  5
604
330
1F
100
AcDbEntity
  8
0
100
AcDbLine
 10
193.8607929051659
 20
-79.5184825251352
 30
0.0
 11
185.8607929051661
 21
-79.5184825251352
 31
0.0
  0
LINE
  5
605
330
1F
100
AcDbEntity
  8
0
100
AcDbLine
 10
185.8607929051661
 20
-79.5184825251352
 30
0.0
 11
185.8607929051661
 21
-72.23301370495159
 31
0.0
  0
ARC
  5
606
330
1F
100
AcDbEntity
  8
0
100
AcDbCircle
 10
198.0338393032638
 20
-84.04062746240231
 30
0.0
 40
12.52334056415526
100
AcDbArc
 50
90.79173314510706
 51
109.4644248553095
  0
ARC
  5
607
330
1F
100
AcDbEntity
  8
0
100
AcDbCircle
 10
197.7201955697321
 20
-83.858975136622
 30
0.0
 40
12.34129351019944
100
AcDbArc
 50
70.39659433774639
 51
89.34724766183704
  0
ARC
  5
608
330
1F
100
AcDbEntity
  8
0
100
AcDbCircle
 10
190.0338393032639
 20
-84.04062746240208
 30
0.0
 40
12.52334056415508
100
AcDbArc
 50
90.79173314510706
 51
109.4644248553095
  0
ARC
  5
609
330
1F
100
AcDbEntity
  8
0
100
AcDbCircle
 10
189.7201955697322
 20
-83.85897513662149
 30
0.0
 40
12.34129351019889
100
AcDbArc
 50
70.39659433774547
 51
89.34724766183801
  0
LINE
  5
60A
330
1F
100
AcDbEntity
  8
0
100
AcDbLine
 10
201.860792905166
 20
-71.51848252513525
 30
0.0
 11
201.860792905166
 21
-72.23301370495159
 31
0.0
  0
LINE
  5
60B
330
1F
100
AcDbEntity
  8
0
100
AcDbLine
 10
185.8607929051661
 20
-71.51848252513525
 30
0.0
 11
185.8607929051661
 21
-72.23301370495159
 31
0.0
  0
LINE
  5
60C
330
1F
100
AcDbEntity
  8
0
100
AcDbLine
 10
-129.1392070948322
 20
-72.23301370495142
 30
0.0
 11
-129.1392070948323
 21
-79.51848252513508
 31
0.0
  0
LINE
  5
60D
330
1F
100
AcDbEntity
  8
0
100
AcDbLine
 10
-129.1392070948322
 20
-79.51848252513508
 30
0.0
 11
-137.1392070948322
 21
-79.51848252513508
 31
0.0
  0
LINE
  5
60E
330
1F
100
AcDbEntity
  8
0
100
AcDbLine
 10
-137.1392070948322
 20
-79.51848252513508
 30
0.0
 11
-137.1392070948322
 21
-72.23301370495142
 31
0.0
  0
LINE
  5
60F
330
1F
100
AcDbEntity
  8
0
100
AcDbLine
 10
-137.1392070948322
 20
-79.51848252513508
 30
0.0
 11
-145.1392070948321
 21
-79.51848252513508
 31
0.0
  0
LINE
  5
610
330
1F
100
AcDbEntity
  8
0
100
AcDbLine
 10
-145.1392070948321
 20
-79.51848252513508
 30
0.0
 11
-145.1392070948321
 21
-72.23301370495142
 31
0.0
  0
ARC
  5
611
330
1F
100
AcDbEntity
  8
0
100
AcDbCircle
 10
-132.9661606967343
 20
-84.04062746240214
 30
0.0
 40
12.52334056415526
100
AcDbArc
 50
90.79173314510706
 51
109.4644248553095
  0
ARC
  5
612
330
1F
100
AcDbEntity
  8
0
100
AcDbCircle
 10
-133.2798044302661
 20
-83.8589751366219
 30
0.0
 40
12.34129351019944
100
AcDbArc
 50
70.39659433774672
 51
89.34724766183704
  0
ARC
  5
613
330
1F
100
AcDbEntity
  8
0
100
AcDbCircle
 10
-140.9661606967343
 20
-84.04062746240198
 30
0.0
 40
12.52334056415508
100
AcDbArc
 50
90.79173314510706
 51
109.4644248553095
  0
ARC
  5
614
330
1F
100
AcDbEntity
  8
0
100
AcDbCircle
 10
-141.2798044302659
 20
-83.85897513662138
 30
0.0
 40
12.34129351019889
100
AcDbArc
 50
70.39659433774547
 51
89.34724766183704
  0
LINE
  5
615
330
1F
100
AcDbEntity
  8
0
100
AcDbLine
 10
-129.1392070948322
 20
-71.51848252513514
 30
0.0
 11
-129.1392070948322
 21
-72.23301370495147
 31
0.0
  0
LINE
  5
616
330
1F
100
AcDbEntity
  8
0
100
AcDbLine
 10
-145.1392070948321
 20
-71.51848252513514
 30
0.0
 11
-145.1392070948321
 21
-72.23301370495147
 31
0.0
  0
LINE
  5
617
330
1F
100
AcDbEntity
  8
0
100
AcDbLine
 10
96.61079290516642
 20
-69.93631228125707
 30
0.0
 11
108.1107929051662
 21
-69.93631228125707
 31
0.0
  0
LINE
  5
618
330
1F
100
AcDbEntity
  8
0
100
AcDbLine
 10
94.8552394057013
 20
-67.43792594153444
 30
0.0
 11
94.8552394057013
 21
-63.21848252513524
 31
0.0
  0
LINE
  5
619
330
1F
100
AcDbEntity
  8
0
100
AcDbLine
 10
98.60801615543387
 20
-67.43792594153444
 30
0.0
 11
98.60801615543387
 21
-63.21848252513524
 31
0.0
  0
LINE
  5
61A
330
1F
100
AcDbEntity
  8
0
100
AcDbLine
 10
106.1135696548989
 20
-67.43792594153444
 30
0.0
 11
106.1135696548989
 21
-63.21848252513524
 31
0.0
  0
LINE
  5
61B
330
1F
100
AcDbEntity
  8
0
100
AcDbLine
 10
109.8663464046315
 20
-67.43792594153444
 30
0.0
 11
109.8663464046315
 21
-63.21848252513524
 31
0.0
  0
ARC
  5
61C
330
1F
100
AcDbEntity
  8
0
100
AcDbCircle
 10
96.62508701850988
 20
-64.35156779613771
 30
0.0
 40
3.668462152417382
100
AcDbArc
 50
271.664238094738
 51
302.7200093733059
  0
SPLINE
  5
61D
330
1F
100
AcDbEntity
  8
0
100
AcDbSpline
210
0.0
220
0.0
230
1.0
 70
     8
 71
     3
 72
    10
 73
     6
 74
     0
 42
0.0000000001
 43
0.0000000001
 40
0.0
 40
0.0
 40
0.0
 40
0.0
 40
0.5
 40
0.5
 40
1.0
 40
1.0
 40
1.0
 40
1.0
 10
98.60801615543387
 20
-67.43792594153444
 30
0.0
 10
99.21849245370067
 20
-67.61415526910361
 30
0.0
 10
99.8435933465501
 20
-67.76191689023938
 30
0.0
 10
101.096476937228
 20
-67.96395575310777
 30
0.0
 10
101.7265219736244
 20
-68.01848252513526
 30
0.0
 10
102.3607929051665
 20
-68.01848252513526
 30
0.0
  0
SPLINE
  5
61E
330
1F
100
AcDbEntity
  8
0
100
AcDbSpline
210
0.0
220
0.0
230
1.0
 70
     8
 71
     3
 72
    10
 73
     6
 74
     0
 42
0.0000000001
 43
0.0000000001
 40
0.0
 40
0.0
 40
0.0
 40
0.0
 40
0.5
 40
0.5
 40
1.0
 40
1.0
 40
1.0
 40
1.0
 10
102.3607929051665
 20
-68.01848252513526
 30
0.0
 10
102.9954555730184
 20
-68.01848252513526
 30
0.0
 10
103.6386920446901
 20
-67.96243716104488
 30
0.0
 10
104.8920036291478
 20
-67.75897068427344
 30
0.0
 10
105.5067429881484
 20
-67.61310171123444
 30
0.0
 10
106.1135696548989
 20
-67.43792594153444
 30
0.0
  0
ARC
  5
61F
330
1F
100
AcDbEntity
  8
0
100
AcDbCircle
 10
108.1210878202765
 20
-64.27209480686684
 30
0.0
 40
3.748681896020464
100
AcDbArc
 50
237.6203815795837
 51
267.9953709523753
  0
ARC
  5
620
330
1F
100
AcDbEntity
  8
0
100
AcDbCircle
 10
107.8834172677075
 20
-64.35156779613766
 30
0.0
 40
3.668462152417446
100
AcDbArc
 50
271.664238094738
 51
302.720009373305
  0
ARC
  5
621
330
1F
100
AcDbEntity
  8
0
100
AcDbCircle
 10
96.86275757107893
 20
-64.27209480686679
 30
0.0
 40
3.748681896020502
100
AcDbArc
 50
237.6203815795829
 51
267.9953709523734
  0
LINE
  5
622
330
1F
100
AcDbEntity
  8
0
100
AcDbLine
 10
96.73162778056763
 20
-68.01848252513526
 30
0.0
 11
95.86079290516641
 21
-68.01848252513526
 31
0.0
  0
LINE
  5
623
330
1F
100
AcDbEntity
  8
0
100
AcDbLine
 10
96.73162778056763
 20
-68.01848252513526
 30
0.0
 11
102.3607929051665
 21
-68.01848252513526
 31
0.0
  0
LINE
  5
624
330
1F
100
AcDbEntity
  8
0
100
AcDbLine
 10
102.3607929051665
 20
-68.01848252513526
 30
0.0
 11
107.9899580297653
 21
-68.01848252513526
 31
0.0
  0
LINE
  5
625
330
1F
100
AcDbEntity
  8
0
100
AcDbLine
 10
107.9899580297653
 20
-68.01848252513526
 30
0.0
 11
108.8607929051665
 21
-68.01848252513526
 31
0.0
  0
LINE
  5
626
330
1F
100
AcDbEntity
  8
0
100
AcDbLine
 10
96.61079290516642
 20
-68.01848252513526
 30
0.0
 11
96.61079290516642
 21
-69.93631228125702
 31
0.0
  0
LINE
  5
627
330
1F
100
AcDbEntity
  8
0
100
AcDbLine
 10
108.1107929051664
 20
-69.93631228125702
 30
0.0
 11
108.1107929051664
 21
-68.01848252513526
 31
0.0
  0
ARC
  5
628
330
1F
100
AcDbEntity
  8
0
100
AcDbCircle
 10
102.0746913546515
 20
-67.52478204676441
 30
0.0
 40
6.499999999999962
100
AcDbArc
 50
272.5227244643236
 51
338.2224099150686
  0
ARC
  5
629
330
1F
100
AcDbEntity
  8
0
100
AcDbCircle
 10
102.6468944556813
 20
-67.52478204676441
 30
0.0
 40
6.499999999999966
100
AcDbArc
 50
201.7775900849314
 51
267.4772755356764
  0
LINE
  5
62A
330
1F
100
AcDbEntity
  8
0
100
AcDbLine
 10
108.8607929051664
 20
-68.01848252513526
 30
0.0
 11
109.8663464046314
 21
-67.4379259415345
 31
0.0
  0
LINE
  5
62B
330
1F
100
AcDbEntity
  8
0
100
AcDbLine
 10
94.8552394057013
 20
-67.43792594153444
 30
0.0
 11
95.86079290516641
 21
-68.01848252513519
 31
0.0
  0
LINE
  5
62C
330
1F
100
AcDbEntity
  8
0
100
AcDbLine
 10
-158.5812452105813
 20
-85.51848252513503
 30
0.0
 11
-115.6971689790831
 21
-85.51848252513508
 31
0.0
  0
LINE
  5
62D
330
1F
100
AcDbEntity
  8
0
100
AcDbLine
 10
-151.6392070948321
 20
-82.51848252513509
 30
0.0
 11
-122.6392070948323
 21
-82.51848252513509
 31
0.0
  0
LINE
  5
62E
330
1F
100
AcDbEntity
  8
0
100
AcDbLine
 10
-158.4474535022378
 20
-91.51848252513497
 30
0.0
 11
-115.8309606874265
 21
-91.51848252513502
 31
0.0
  0
LINE
  5
62F
330
1F
100
AcDbEntity
  8
0
100
AcDbLine
 10
-114.8461529344143
 20
-90.34483434746807
 30
0.0
 11
-159.4322612552501
 21
-90.34483434746807
 31
0.0
  0
LINE
  5
630
330
1F
100
AcDbEntity
  8
0
100
AcDbLine
 10
-148.6392070948321
 20
-94.51848252513498
 30
0.0
 11
-125.6392070948322
 21
-94.51848252513498
 31
0.0
  0
LINE
  5
631
330
1F
100
AcDbEntity
  8
0
100
AcDbLine
 10
-124.6392070948323
 20
-93.51848252513509
 30
0.0
 11
-149.6392070948321
 21
-93.51848252513509
 31
0.0
  0
LINE
  5
632
330
1F
100
AcDbEntity
  8
0
100
AcDbLine
 10
-114.8461529344143
 20
-90.34483434746812
 30
0.0
 11
-115.6971689790831
 21
-85.51848252513508
 31
0.0
  0
LINE
  5
633
330
1F
100
AcDbEntity
  8
0
100
AcDbLine
 10
-158.5812452105813
 20
-85.51848252513503
 30
0.0
 11
-159.4322612552501
 21
-90.34483434746812
 31
0.0
  0
LINE
  5
634
330
1F
100
AcDbEntity
  8
0
100
AcDbLine
 10
-127.6392070948322
 20
-82.51848252513509
 30
0.0
 11
-129.6392070948322
 21
-79.51848252513508
 31
0.0
  0
LINE
  5
635
330
1F
100
AcDbEntity
  8
0
100
AcDbLine
 10
-144.6392070948322
 20
-79.51848252513508
 30
0.0
 11
-146.6392070948322
 21
-82.51848252513509
 31
0.0
  0
LINE
  5
636
330
1F
100
AcDbEntity
  8
0
100
AcDbLine
 10
-115.6971689790831
 20
-85.51848252513503
 30
0.0
 11
-122.6392070948323
 21
-82.51848252513502
 31
0.0
  0
LINE
  5
637
330
1F
100
AcDbEntity
  8
0
100
AcDbLine
 10
-151.6392070948321
 20
-82.51848252513509
 30
0.0
 11
-158.5812452105813
 21
-85.51848252513503
 31
0.0
  0
LINE
  5
638
330
1F
100
AcDbEntity
  8
0
100
AcDbLine
 10
-149.6392070948322
 20
-91.51848252513502
 30
0.0
 11
-149.6392070948322
 21
-93.51848252513503
 31
0.0
  0
LINE
  5
639
330
1F
100
AcDbEntity
  8
0
100
AcDbLine
 10
-124.6392070948323
 20
-93.51848252513509
 30
0.0
 11
-124.6392070948323
 21
-91.51848252513508
 31
0.0
  0
ARC
  5
63A
330
1F
100
AcDbEntity
  8
0
100
AcDbCircle
 10
-115.8309606874265
 20
-90.51848252513503
 30
0.0
 40
0.9999999999999953
100
AcDbArc
 50
270.0
 51
9.99999999999887
  0
ARC
  5
63B
330
1F
100
AcDbEntity
  8
0
100
AcDbCircle
 10
-158.4474535022378
 20
-90.51848252513503
 30
0.0
 40
1.000000000000024
100
AcDbArc
 50
169.999999999999
 51
270.0
  0
ARC
  5
63C
330
1F
100
AcDbEntity
  8
0
100
AcDbCircle
 10
-125.6392070948322
 20
-93.51848252513509
 30
0.0
 40
0.9999999999999953
100
AcDbArc
 50
270.0
 51
0.0
  0
ARC
  5
63D
330
1F
100
AcDbEntity
  8
0
100
AcDbCircle
 10
-148.6392070948321
 20
-93.51848252513509
 30
0.0
 40
0.9999999999999953
100
AcDbArc
 50
179.999999999997
 51
270.0000000000029
  0
LINE
  5
63E
330
1F
100
AcDbEntity
  8
0
100
AcDbLine
 10
-180.639207094832
 20
-65.01848252513514
 30
0.0
 11
-163.6392070948321
 21
-65.01848252513514
 31
0.0
  0
LINE
  5
63F
330
1F
100
AcDbEntity
  8
0
100
AcDbLine
 10
-164.1392070948321
 20
-64.51848252513514
 30
0.0
 11
-180.139207094832
 21
-64.51848252513514
 31
0.0
  0
LINE
  5
640
330
1F
100
AcDbEntity
  8
0
100
AcDbLine
 10
-163.6392070948321
 20
-65.51848252513514
 30
0.0
 11
-163.6392070948321
 21
-65.01848252513514
 31
0.0
  0
LINE
  5
641
330
1F
100
AcDbEntity
  8
0
100
AcDbLine
 10
-180.639207094832
 20
-65.01848252513514
 30
0.0
 11
-180.639207094832
 21
-65.51848252513514
 31
0.0
  0
LINE
  5
642
330
1F
100
AcDbEntity
  8
0
100
AcDbLine
 10
-163.6392070948321
 20
-65.01848252513514
 30
0.0
 11
-164.1392070948321
 21
-64.51848252513514
 31
0.0
  0
LINE
  5
643
330
1F
100
AcDbEntity
  8
0
100
AcDbLine
 10
-180.139207094832
 20
-64.51848252513514
 30
0.0
 11
-180.639207094832
 21
-65.0184825251352
 31
0.0
  0
LINE
  5
644
330
1F
100
AcDbEntity
  8
0
100
AcDbLine
 10
-130.6392070948322
 20
-27.93792594153456
 30
0.0
 11
-130.6392070948322
 21
-27.01848252513531
 31
0.0
  0
LINE
  5
645
330
1F
100
AcDbEntity
  8
0
100
AcDbLine
 10
-137.1392070948322
 20
-27.93792594153456
 30
0.0
 11
-137.1392070948322
 21
-27.01848252513531
 31
0.0
  0
LINE
  5
646
330
1F
100
AcDbEntity
  8
0
100
AcDbLine
 10
-143.6392070948322
 20
-27.93792594153456
 30
0.0
 11
-143.6392070948322
 21
-27.01848252513531
 31
0.0
  0
LINE
  5
647
330
1F
100
AcDbEntity
  8
0
100
AcDbLine
 10
-140.3892070948322
 20
-28.51848252513531
 30
0.0
 11
-143.6392070948322
 21
-28.51848252513531
 31
0.0
  0
LINE
  5
648
330
1F
100
AcDbEntity
  8
0
100
AcDbLine
 10
-133.8892070948322
 20
-28.51848252513531
 30
0.0
 11
-140.3892070948322
 21
-28.51848252513531
 31
0.0
  0
LINE
  5
649
330
1F
100
AcDbEntity
  8
0
100
AcDbLine
 10
-130.6392070948322
 20
-28.51848252513531
 30
0.0
 11
-133.8892070948321
 21
-28.51848252513531
 31
0.0
  0
ARC
  5
64A
330
1F
100
AcDbEntity
  8
0
100
AcDbCircle
 10
-140.5298073316976
 20
-18.34423954857919
 30
0.0
 40
10.17521442391311
100
AcDbArc
 50
270.7917333446441
 51
289.4644246557724
  0
ARC
  5
64B
330
1F
100
AcDbEntity
  8
0
100
AcDbCircle
 10
-140.2749717534755
 20
-18.49183224294074
 30
0.0
 40
10.02730101246828
100
AcDbArc
 50
250.3965943715359
 51
269.3472476280478
  0
ARC
  5
64C
330
1F
100
AcDbEntity
  8
0
100
AcDbCircle
 10
-134.0298073316973
 20
-18.34423954858124
 30
0.0
 40
10.17521442391106
100
AcDbArc
 50
270.7917333446431
 51
289.4644246557746
  0
ARC
  5
64D
330
1F
100
AcDbEntity
  8
0
100
AcDbCircle
 10
-133.7749717534753
 20
-18.4918322429404
 30
0.0
 40
10.02730101246864
100
AcDbArc
 50
250.3965943715359
 51
269.3472476280478
  0
LINE
  5
64E
330
1F
100
AcDbEntity
  8
0
100
AcDbLine
 10
-143.6392070948322
 20
-27.93792594153456
 30
0.0
 11
-143.6392070948322
 21
-28.51848252513537
 31
0.0
  0
LINE
  5
64F
330
1F
100
AcDbEntity
  8
0
100
AcDbLine
 10
-130.6392070948322
 20
-28.51848252513531
 30
0.0
 11
-130.6392070948322
 21
-27.93792594153456
 31
0.0
  0
LINE
  5
650
330
1F
100
AcDbEntity
  8
0
100
AcDbLine
 10
200.3607929051658
 20
-38.9184825251354
 30
0.0
 11
193.8607929051659
 21
-38.9184825251354
 31
0.0
  0
LINE
  5
651
330
1F
100
AcDbEntity
  8
0
100
AcDbLine
 10
193.8607929051658
 20
-38.9184825251354
 30
0.0
 11
187.3607929051658
 21
-38.9184825251354
 31
0.0
  0
LINE
  5
652
330
1F
100
AcDbEntity
  8
0
100
AcDbLine
 10
193.8607929051658
 20
-38.9184825251354
 30
0.0
 11
193.8607929051658
 21
-43.83792594155346
 31
0.0
  0
LINE
  5
653
330
1F
100
AcDbEntity
  8
0
100
AcDbLine
 10
200.3607929051658
 20
-38.9184825251354
 30
0.0
 11
200.3607929051658
 21
-43.83792594153646
 31
0.0
  0
LINE
  5
654
330
1F
100
AcDbEntity
  8
0
100
AcDbLine
 10
187.3607929051659
 20
-38.9184825251354
 30
0.0
 11
187.3607929051659
 21
-43.83792594153646
 31
0.0
  0
LINE
  5
655
330
1F
100
AcDbEntity
  8
0
100
AcDbLine
 10
197.1107929051488
 20
-44.41848252513534
 30
0.0
 11
190.6107929051828
 21
-44.41848252513534
 31
0.0
  0
LINE
  5
656
330
1F
100
AcDbEntity
  8
0
100
AcDbLine
 10
200.3607929051658
 20
-44.41848252513534
 30
0.0
 11
197.1107929051488
 21
-44.41848252513534
 31
0.0
  0
LINE
  5
657
330
1F
100
AcDbEntity
  8
0
100
AcDbLine
 10
190.6107929051829
 20
-44.41848252513534
 30
0.0
 11
187.3607929051658
 21
-44.41848252513534
 31
0.0
  0
LINE
  5
658
330
1F
100
AcDbEntity
  8
0
100
AcDbLine
 10
187.3607929051659
 20
-44.41848252513534
 30
0.0
 11
187.3607929051659
 21
-43.83792594153653
 31
0.0
  0
ARC
  5
659
330
1F
100
AcDbEntity
  8
0
100
AcDbCircle
 10
190.7513931419659
 20
-34.24423954890978
 30
0.0
 40
10.17521442358143
100
AcDbArc
 50
250.5355753439581
 51
269.2082666557947
  0
ARC
  5
65A
330
1F
100
AcDbEntity
  8
0
100
AcDbCircle
 10
190.4965575639524
 20
-34.39183224343839
 30
0.0
 40
10.02730101196923
100
AcDbArc
 50
270.6527523712633
 51
289.6034056286103
  0
ARC
  5
65B
330
1F
100
AcDbEntity
  8
0
100
AcDbCircle
 10
196.9965575638934
 20
-34.39183224337933
 30
0.0
 40
10.02730101202862
100
AcDbArc
 50
270.652752371402
 51
289.6034056288467
  0
LINE
  5
65C
330
1F
100
AcDbEntity
  8
0
100
AcDbLine
 10
200.3607929051658
 20
-43.83792594153646
 30
0.0
 11
200.3607929051658
 21
-44.41848252513534
 31
0.0
  0
ARC
  5
65D
330
1F
100
AcDbEntity
  8
0
100
AcDbCircle
 10
197.2513931419062
 20
-34.24423954897128
 30
0.0
 40
10.17521442351955
100
AcDbArc
 50
250.5355753441902
 51
269.2082666559344
  0
LINE
  5
65E
330
1F
100
AcDbEntity
  8
0
100
AcDbLine
 10
196.8607929051659
 20
-38.9184825251354
 30
0.0
 11
196.8607929051659
 21
-28.51848252513543
 31
0.0
  0
LINE
  5
65F
330
1F
100
AcDbEntity
  8
0
100
AcDbLine
 10
190.860792905166
 20
-28.51848252513543
 30
0.0
 11
190.860792905166
 21
-38.9184825251354
 31
0.0
  0
LINE
  5
660
330
1F
100
AcDbEntity
  8
0
100
AcDbLine
 10
-130.6392070948322
 20
-38.61848252513534
 30
0.0
 11
-137.1392070948322
 21
-38.61848252513534
 31
0.0
  0
LINE
  5
661
330
1F
100
AcDbEntity
  8
0
100
AcDbLine
 10
-137.1392070948322
 20
-38.61848252513534
 30
0.0
 11
-143.6392070948322
 21
-38.61848252513534
 31
0.0
  0
LINE
  5
662
330
1F
100
AcDbEntity
  8
0
100
AcDbLine
 10
-143.6392070948322
 20
-38.61848252513534
 30
0.0
 11
-143.6392070948322
 21
-43.5379259415364
 31
0.0
  0
LINE
  5
663
330
1F
100
AcDbEntity
  8
0
100
AcDbLine
 10
-137.1392070948322
 20
-38.61848252513534
 30
0.0
 11
-137.1392070948322
 21
-43.53792594155339
 31
0.0
  0
LINE
  5
664
330
1F
100
AcDbEntity
  8
0
100
AcDbLine
 10
-130.6392070948322
 20
-38.61848252513534
 30
0.0
 11
-130.6392070948322
 21
-43.5379259415364
 31
0.0
  0
LINE
  5
665
330
1F
100
AcDbEntity
  8
0
100
AcDbLine
 10
-140.3892070948152
 20
-44.11848252513528
 30
0.0
 11
-143.6392070948322
 21
-44.11848252513528
 31
0.0
  0
LINE
  5
666
330
1F
100
AcDbEntity
  8
0
100
AcDbLine
 10
-133.8892070948492
 20
-44.11848252513528
 30
0.0
 11
-140.3892070948152
 21
-44.11848252513528
 31
0.0
  0
LINE
  5
667
330
1F
100
AcDbEntity
  8
0
100
AcDbLine
 10
-130.6392070948322
 20
-44.11848252513528
 30
0.0
 11
-133.8892070948492
 21
-44.11848252513528
 31
0.0
  0
ARC
  5
668
330
1F
100
AcDbEntity
  8
0
100
AcDbCircle
 10
-140.5034424360458
 20
-34.09183224343844
 30
0.0
 40
10.02730101196912
100
AcDbArc
 50
270.6527523712642
 51
289.6034056286112
  0
ARC
  5
669
330
1F
100
AcDbEntity
  8
0
100
AcDbCircle
 10
-133.7486068580918
 20
-33.94423954897093
 30
0.0
 40
10.1752144235198
100
AcDbArc
 50
250.5355753441902
 51
269.2082666559335
  0
ARC
  5
66A
330
1F
100
AcDbEntity
  8
0
100
AcDbCircle
 10
-134.0034424361046
 20
-34.0918322433792
 30
0.0
 40
10.02730101202869
100
AcDbArc
 50
270.652752371402
 51
289.6034056288467
  0
LINE
  5
66B
330
1F
100
AcDbEntity
  8
0
100
AcDbLine
 10
-130.6392070948322
 20
-43.5379259415364
 30
0.0
 11
-130.6392070948322
 21
-44.11848252513528
 31
0.0
  0
LINE
  5
66C
330
1F
100
AcDbEntity
  8
0
100
AcDbLine
 10
-143.6392070948322
 20
-44.11848252513528
 30
0.0
 11
-143.6392070948322
 21
-43.5379259415364
 31
0.0
  0
ARC
  5
66D
330
1F
100
AcDbEntity
  8
0
100
AcDbCircle
 10
-140.248606858032
 20
-33.94423954890897
 30
0.0
 40
10.17521442358212
100
AcDbArc
 50
250.5355753439581
 51
269.2082666557927
  0
LINE
  5
66E
330
1F
100
AcDbEntity
  8
0
100
AcDbLine
 10
-134.1392070948322
 20
-38.61848252513534
 30
0.0
 11
-134.1392070948322
 21
-28.51848252513537
 31
0.0
  0
LINE
  5
66F
330
1F
100
AcDbEntity
  8
0
100
AcDbLine
 10
-140.1392070948322
 20
-28.51848252513537
 30
0.0
 11
-140.1392070948322
 21
-38.61848252513534
 31
0.0
  0
LINE
  5
670
330
1F
100
AcDbEntity
  8
0
100
AcDbLine
 10
193.8607929051658
 20
-27.93792594153468
 30
0.0
 11
193.8607929051658
 21
-27.01848252513531
 31
0.0
  0
LINE
  5
671
330
1F
100
AcDbEntity
  8
0
100
AcDbLine
 10
187.3607929051658
 20
-27.93792594153468
 30
0.0
 11
187.3607929051658
 21
-27.01848252513531
 31
0.0
  0
LINE
  5
672
330
1F
100
AcDbEntity
  8
0
100
AcDbLine
 10
200.3607929051658
 20
-27.93792594153468
 30
0.0
 11
200.3607929051658
 21
-27.01848252513531
 31
0.0
  0
LINE
  5
673
330
1F
100
AcDbEntity
  8
0
100
AcDbLine
 10
197.110792905166
 20
-28.51848252513543
 30
0.0
 11
190.6107929051659
 21
-28.51848252513543
 31
0.0
  0
LINE
  5
674
330
1F
100
AcDbEntity
  8
0
100
AcDbLine
 10
200.3607929051658
 20
-28.51848252513543
 30
0.0
 11
197.1107929051658
 21
-28.51848252513543
 31
0.0
  0
LINE
  5
675
330
1F
100
AcDbEntity
  8
0
100
AcDbLine
 10
190.6107929051658
 20
-28.51848252513543
 30
0.0
 11
187.3607929051658
 21
-28.51848252513543
 31
0.0
  0
LINE
  5
676
330
1F
100
AcDbEntity
  8
0
100
AcDbLine
 10
200.3607929051658
 20
-28.51848252513543
 30
0.0
 11
200.3607929051657
 21
-27.93792594153462
 31
0.0
  0
LINE
  5
677
330
1F
100
AcDbEntity
  8
0
100
AcDbLine
 10
187.3607929051658
 20
-27.93792594153468
 30
0.0
 11
187.3607929051659
 21
-28.51848252513548
 31
0.0
  0
ARC
  5
678
330
1F
100
AcDbEntity
  8
0
100
AcDbCircle
 10
196.9701926683008
 20
-18.34423954858192
 30
0.0
 40
10.17521442391044
100
AcDbArc
 50
270.7917333446421
 51
289.4644246557755
  0
ARC
  5
679
330
1F
100
AcDbEntity
  8
0
100
AcDbCircle
 10
197.2250282465227
 20
-18.49183224294114
 30
0.0
 40
10.02730101246803
100
AcDbArc
 50
250.3965943715349
 51
269.3472476280478
  0
ARC
  5
67A
330
1F
100
AcDbEntity
  8
0
100
AcDbCircle
 10
190.4701926683006
 20
-18.34423954858027
 30
0.0
 40
10.17521442391212
100
AcDbArc
 50
270.7917333446431
 51
289.4644246557733
  0
ARC
  5
67B
330
1F
100
AcDbEntity
  8
0
100
AcDbCircle
 10
190.7250282465226
 20
-18.49183224294074
 30
0.0
 40
10.02730101246842
100
AcDbArc
 50
250.3965943715359
 51
269.3472476280478
  0
LINE
  5
67C
330
1F
100
AcDbEntity
  8
0
100
AcDbLine
 10
-161.639207094832
 20
-27.01848252513531
 30
0.0
 11
-156.7742815369824
 21
21.630773053398
 31
0.0
  0
LINE
  5
67D
330
1F
100
AcDbEntity
  8
0
100
AcDbLine
 10
-160.1466513095277
 20
-27.01848252513531
 30
0.0
 11
216.8682371198615
 21
-27.01848252513531
 31
0.0
  0
LINE
  5
67E
330
1F
100
AcDbEntity
  8
0
100
AcDbLine
 10
212.0033115620016
 20
21.63077305348759
 30
0.0
 11
-155.2817257516678
 21
21.63077305348759
 31
0.0
  0
LINE
  5
67F
330
1F
100
AcDbEntity
  8
0
100
AcDbLine
 10
216.8682371198615
 20
-27.01848252513531
 30
0.0
 11
212.0033115620016
 21
21.63077305348759
 31
0.0
  0
LINE
  5
680
330
1F
100
AcDbEntity
  8
0
100
AcDbLine
 10
-155.2817257516678
 20
21.63077305348759
 30
0.0
 11
-160.1466513095277
 21
-27.01848252513531
 31
0.0
  0
LINE
  5
681
330
1F
100
AcDbEntity
  8
0
100
AcDbLine
 10
218.3607929051657
 20
-27.01848252513531
 30
0.0
 11
216.8682371198615
 21
-27.01848252513531
 31
0.0
  0
LINE
  5
682
330
1F
100
AcDbEntity
  8
0
100
AcDbLine
 10
-160.1466513095277
 20
-27.01848252513531
 30
0.0
 11
-161.639207094832
 21
-27.01848252513531
 31
0.0
  0
LINE
  5
683
330
1F
100
AcDbEntity
  8
0
100
AcDbLine
 10
213.4958673473163
 20
21.630773053398
 30
0.0
 11
218.3607929051657
 21
-27.01848252513531
 31
0.0
  0
LINE
  5
684
330
1F
100
AcDbEntity
  8
0
100
AcDbLine
 10
-155.2817257516677
 20
22.98151747486441
 30
0.0
 11
212.0033115620016
 21
22.98151747486441
 31
0.0
  0
ARC
  5
685
330
1F
100
AcDbEntity
  8
0
100
AcDbCircle
 10
212.0033115620016
 20
21.48151747486441
 30
0.0
 40
1.49999999999998
100
AcDbArc
 50
5.710593137578197
 51
90.0
  0
ELLIPSE
  5
686
330
1F
100
AcDbEntity
  8
0
100
AcDbEllipse
 10
212.0033115620016
 20
21.48151747486446
 30
0.0
 11
-1.492555785314783
 21
-0.1492555785335892
 31
0.0
210
0.0
220
0.0
230
1.0
 40
0.0990147543584601
 41
3.141592653589805
 42
4.702487828507301
  0
LINE
  5
687
330
1F
100
AcDbEntity
  8
0
100
AcDbLine
 10
212.0033115620016
 20
21.63077305348759
 30
0.0
 11
212.0033115620016
 21
22.98151747486446
 31
0.0
  0
ARC
  5
688
330
1F
100
AcDbEntity
  8
0
100
AcDbCircle
 10
-155.2817257516677
 20
21.48151747486441
 30
0.0
 40
1.499999999999992
100
AcDbArc
 50
90.0
 51
174.2894068624198
  0
LINE
  5
689
330
1F
100
AcDbEntity
  8
0
100
AcDbLine
 10
-155.2817257516678
 20
21.63077305348759
 30
0.0
 11
-155.2817257516677
 21
22.98151747486441
 31
0.0
  0
ELLIPSE
  5
68A
330
1F
100
AcDbEntity
  8
0
100
AcDbEllipse
 10
-155.2817257516677
 20
21.48151747486441
 30
0.0
 11
1.492555785314755
 21
-0.1492555785335961
 31
0.0
210
0.0
220
0.0
230
1.0
 40
0.0990147543584898
 41
1.580697478672382
 42
3.141592653589793
  0
LINE
  5
68B
330
1F
100
AcDbEntity
  8
0
100
AcDbLine
 10
-65.13920709483267
 20
-65.51848252513519
 30
0.0
 11
-79.13920709483244
 21
-65.51848252513519
 31
0.0
  0
LINE
  5
68C
330
1F
100
AcDbEntity
  8
0
100
AcDbLine
 10
-65.13920709483267
 20
-66.5184825251352
 30
0.0
 11
-79.13920709483244
 21
-66.5184825251352
 31
0.0
  0
LINE
  5
68D
330
1F
100
AcDbEntity
  8
0
100
AcDbLine
 10
-64.05630332617829
 20
-64.88516688196466
 30
0.0
 11
-64.05630332617824
 21
-63.21848252513524
 31
0.0
  0
LINE
  5
68E
330
1F
100
AcDbEntity
  8
0
100
AcDbLine
 10
-68.96378061428959
 20
-64.88516688196398
 30
0.0
 11
-68.96378061428959
 21
-63.21848252513524
 31
0.0
  0
LINE
  5
68F
330
1F
100
AcDbEntity
  8
0
100
AcDbLine
 10
-67.2317298067133
 20
-63.21848252513524
 30
0.0
 11
-67.23172980671131
 21
-64.88516688197575
 31
0.0
  0
LINE
  5
690
330
1F
100
AcDbEntity
  8
0
100
AcDbLine
 10
-77.04668438294482
 20
-64.88516688196466
 30
0.0
 11
-77.04668438294556
 21
-63.21848252513524
 31
0.0
  0
LINE
  5
691
330
1F
100
AcDbEntity
  8
0
100
AcDbLine
 10
-75.31463357537564
 20
-63.21848252513524
 30
0.0
 11
-75.31463357537564
 21
-64.88516688196392
 31
0.0
  0
LINE
  5
692
330
1F
100
AcDbEntity
  8
0
100
AcDbLine
 10
-80.22211086347988
 20
-63.21848252513524
 30
0.0
 11
-80.22211086347779
 21
-64.88516688197581
 31
0.0
  0
SPLINE
  5
693
330
1F
100
AcDbEntity
  8
0
100
AcDbSpline
210
0.0
220
0.0
230
1.0
 70
     8
 71
     3
 72
    14
 73
    10
 74
     0
 42
0.0000000001
 43
0.0000000001
 40
0.0
 40
0.0
 40
0.0
 40
0.0
 40
0.2499999999999999
 40
0.2499999999999999
 40
0.4999999999999999
 40
0.4999999999999999
 40
0.75
 40
0.75
 40
1.0
 40
1.0
 40
1.0
 40
1.0
 10
-64.05630332617829
 20
-64.88516688196466
 30
0.0
 10
-64.29091407112315
 20
-65.17697401534661
 30
0.0
 10
-64.56656947044939
 20
-65.27417230190014
 30
0.0
 10
-65.103571821201
 20
-65.40417847630408
 30
0.0
 10
-65.37378657737685
 20
-65.4225795086495
 30
0.0
 10
-65.91557212579352
 20
-65.42250320315639
 30
0.0
 10
-66.18752411714877
 20
-65.40387445510413
 30
0.0
 10
-66.72509734357129
 20
-65.2728496511412
 30
0.0
 10
-66.9980179101662
 20
-65.17585603426653
 30
0.0
 10
-67.23172980671131
 20
-64.88516688197569
 30
0.0
  0
SPLINE
  5
694
330
1F
100
AcDbEntity
  8
0
100
AcDbSpline
210
0.0
220
0.0
230
1.0
 70
     8
 71
     3
 72
    14
 73
    10
 74
     0
 42
0.0000000001
 43
0.0000000001
 40
0.0
 40
0.0
 40
0.0
 40
0.0
 40
0.25
 40
0.25
 40
0.5000000000000001
 40
0.5000000000000001
 40
0.75
 40
0.75
 40
1.0
 40
1.0
 40
1.0
 40
1.0
 10
-68.96378061428959
 20
-64.88516688196398
 30
0.0
 10
-69.43206697260297
 20
-65.17639246042938
 30
0.0
 10
-69.989490499873
 20
-65.27574651603476
 30
0.0
 10
-71.08213495169525
 20
-65.40608851223669
 30
0.0
 10
-71.6446332996004
 20
-65.42366968833192
 30
0.0
 10
-72.71621064025243
 20
-65.42132286474236
 30
0.0
 10
-73.2498626134751
 20
-65.40191515939017
 30
0.0
 10
-74.30640810540217
 20
-65.27128850523803
 30
0.0
 10
-74.85430037436493
 20
-65.17144642090682
 30
0.0
 10
-75.31463357537575
 20
-64.88516688196387
 30
0.0
  0
SPLINE
  5
695
330
1F
100
AcDbEntity
  8
0
100
AcDbSpline
210
0.0
220
0.0
230
1.0
 70
     8
 71
     3
 72
    14
 73
    10
 74
     0
 42
0.0000000001
 43
0.0000000001
 40
0.0
 40
0.0
 40
0.0
 40
0.0
 40
0.25
 40
0.25
 40
0.5
 40
0.5
 40
0.75
 40
0.75
 40
1.0
 40
1.0
 40
1.0
 40
1.0
 10
-77.04668438294482
 20
-64.88516688196466
 30
0.0
 10
-77.28129512788973
 20
-65.17697401534661
 30
0.0
 10
-77.55695052721597
 20
-65.27417230190014
 30
0.0
 10
-78.09395287796741
 20
-65.40417847630408
 30
0.0
 10
-78.36416763414337
 20
-65.4225795086495
 30
0.0
 10
-78.90595318255998
 20
-65.42250320315639
 30
0.0
 10
-79.17790517391529
 20
-65.40387445510413
 30
0.0
 10
-79.71547840033776
 20
-65.27284965114126
 30
0.0
 10
-79.98839896693261
 20
-65.17585603426653
 30
0.0
 10
-80.22211086347779
 20
-64.88516688197575
 30
0.0
  0
ARC
  5
696
330
1F
100
AcDbEntity
  8
0
100
AcDbCircle
 10
-64.92287906456863
 20
-64.15276378274706
 30
0.0
 40
1.134622320470715
100
AcDbArc
 50
319.7965355468399
 51
359.2492912549166
  0
ARC
  5
697
330
1F
100
AcDbEntity
  8
0
100
AcDbCircle
 10
-79.35576235079446
 20
-64.15284863539676
 30
0.0
 40
1.134394005494245
100
AcDbArc
 50
180.7465737567536
 51
220.2075994421599
  0
ARC
  5
698
330
1F
100
AcDbEntity
  8
0
100
AcDbCircle
 10
-72.92781042696964
 20
-68.3551549227953
 30
0.0
 40
5.385716263294786
100
AcDbArc
 50
128.9655402460492
 51
139.8871905343319
  0
ARC
  5
699
330
1F
100
AcDbEntity
  8
0
100
AcDbCircle
 10
-70.4222374413693
 20
-57.01125441184263
 30
0.0
 40
9.270061354660603
100
AcDbArc
 50
230.5327372362072
 51
238.1455606088342
  0
ARC
  5
69A
330
1F
100
AcDbEntity
  8
0
100
AcDbCircle
 10
-73.85665296829734
 20
-57.01059072510503
 30
0.0
 40
9.270876416110034
100
AcDbArc
 50
301.8547745300465
 51
309.4669276249099
  0
ARC
  5
69B
330
1F
100
AcDbEntity
  8
0
100
AcDbCircle
 10
-71.35290308887562
 20
-68.3575007570027
 30
0.0
 40
5.388986153376612
100
AcDbArc
 50
40.11613300598585
 51
51.03113621344961
  0
LINE
  5
69C
330
1F
100
AcDbEntity
  8
0
100
AcDbLine
 10
-68.13920709483267
 20
-69.5184825251352
 30
0.0
 11
-76.13920709483256
 21
-69.5184825251352
 31
0.0
  0
ARC
  5
69D
330
1F
100
AcDbEntity
  8
0
100
AcDbCircle
 10
-76.13920709483244
 20
-66.5184825251352
 30
0.0
 40
2.999999999999985
100
AcDbArc
 50
180.0
 51
270.0
  0
ARC
  5
69E
330
1F
100
AcDbEntity
  8
0
100
AcDbCircle
 10
-68.13920709483255
 20
-66.5184825251352
 30
0.0
 40
2.999999999999979
100
AcDbArc
 50
270.0
 51
0.0
  0
LINE
  5
69F
330
1F
100
AcDbEntity
  8
0
100
AcDbLine
 10
-79.13920709483244
 20
-65.51848252513519
 30
0.0
 11
-79.13920709483244
 21
-66.5184825251352
 31
0.0
  0
LINE
  5
6A0
330
1F
100
AcDbEntity
  8
0
100
AcDbLine
 10
-65.13920709483255
 20
-66.5184825251352
 30
0.0
 11
-65.13920709483255
 21
-65.51848252513519
 31
0.0
  0
LINE
  5
6A1
330
1F
100
AcDbEntity
  8
0
100
AcDbLine
 10
-63.78835413374668
 20
-64.16762956404932
 30
0.0
 11
-63.78835413374668
 21
-63.21848252513524
 31
0.0
  0
LINE
  5
6A2
330
1F
100
AcDbEntity
  8
0
100
AcDbLine
 10
-80.49006005591833
 20
-63.21848252513524
 30
0.0
 11
-80.49006005591833
 21
-64.16762956404932
 31
0.0
  0
ARC
  5
6A3
330
1F
100
AcDbEntity
  8
0
100
AcDbCircle
 10
-79.13920709483244
 20
-64.16762956404932
 30
0.0
 40
1.350852961085874
100
AcDbArc
 50
180.0476481278071
 51
270.0
  0
ARC
  5
6A4
330
1F
100
AcDbEntity
  8
0
100
AcDbCircle
 10
-65.13920709483255
 20
-64.16762956404932
 30
0.0
 40
1.350852961085876
100
AcDbArc
 50
270.0
 51
0.0272668501014233
  0
ARC
  5
6A5
330
1F
100
AcDbEntity
  8
0
100
AcDbCircle
 10
-92.13920709483238
 20
-38.26848252513531
 30
0.0
 40
4.24999999999998
100
AcDbArc
 50
6.078005058495212
 51
173.9219949415038
  0
ARC
  5
6A6
330
1F
100
AcDbEntity
  8
0
100
AcDbCircle
 10
-52.13920709483261
 20
-38.26848252513531
 30
0.0
 40
4.24999999999998
100
AcDbArc
 50
6.078005058496183
 51
173.9219949415048
  0
HATCH
  5
6BE
330
1F
100
AcDbEntity
  8
0
 62
     9
100
AcDbHatch
 10
0.0
 20
0.0
 30
0.0
210
0.0
220
0.0
230
1.0
  2
ANSI31
 70
     0
 71
     0
 91
        1
 92
        5
 93
        4
 72
     4
 94
        3
 73
     0
 74
     0
 95
       10
 96
        6
 40
0.0
 40
0.0
 40
0.0
 40
0.0
 40
0.1736813798367858
 40
0.5385865053348369
 40
1.0
 40
1.0
 40
1.0
 40
1.0
 10
-161.6392070948321
 20
318.3808388514253
 10
-169.8844662057457
 20
321.7685745233219
 10
-193.0532297245832
 20
332.03318864443
 10
-237.7043833598157
 20
297.5108165581201
 10
-274.4990086977078
 20
312.022682201773
 10
-297.3112890915885
 20
318.3808388514253
 72
     1
 10
-297.3112890915885
 20
318.3808388514253
 11
-297.3112890915885
 21
312.3808388514253
 72
     4
 94
        3
 73
     0
 74
     0
 95
       10
 96
        6
 40
0.0
 40
0.0
 40
0.0
 40
0.0
 40
0.4614134946651632
 40
0.8263186201632141
 40
1.0
 40
1.0
 40
1.0
 40
1.0
 10
-297.3112890915885
 20
312.3808388514253
 10
-274.4990086977078
 20
306.0226822017729
 10
-237.7043833598157
 20
291.5108165581201
 10
-193.0532297245832
 20
326.03318864443
 10
-169.8844662057457
 20
315.7685745233219
 10
-161.6392070948321
 20
312.3808388514253
 72
     1
 10
-161.6392070948321
 20
312.3808388514253
 11
-161.6392070948321
 21
318.3808388514253
 97
        0
 75
     0
 76
     1
 52
0.0
 41
0.5
 77
     0
 78
     1
 53
45.0
 43
101.2443343528119
 44
-12.84302122596853
 45
-1.122532015133643
 46
1.122532015133644
 79
     0
 47
0.235627126008759
 98
        1
 10
-179.5112575644809
 20
321.3113236833793
1001
ACAD
1010
0.0
1020
0.0
1030
0.0
  0
SPLINE
  5
6BF
330
1F
100
AcDbEntity
  8
0
100
AcDbSpline
210
0.0
220
0.0
230
1.0
 70
     8
 71
     3
 72
    10
 73
     6
 74
     0
 42
0.0000000001
 43
0.0000000001
 40
0.0
 40
0.0
 40
0.0
 40
0.0
 40
0.1736813798367858
 40
0.5385865053348369
 40
1.0
 40
1.0
 40
1.0
 40
1.0
 10
-161.6392070948321
 20
312.3808388514253
 30
0.0
 10
-169.8844662057457
 20
315.7685745233219
 30
0.0
 10
-193.0532297245832
 20
326.03318864443
 30
0.0
 10
-237.7043833598157
 20
291.5108165581201
 30
0.0
 10
-274.4990086977078
 20
306.0226822017729
 30
0.0
 10
-297.3112890915885
 20
312.3808388514253
 30
0.0
  0
SPLINE
  5
6C0
330
1F
100
AcDbEntity
  8
0
100
AcDbSpline
210
0.0
220
0.0
230
1.0
 70
     8
 71
     3
 72
    10
 73
     6
 74
     0
 42
0.0000000001
 43
0.0000000001
 40
0.0
 40
0.0
 40
0.0
 40
0.0
 40
0.1736813798367858
 40
0.5385865053348369
 40
1.0
 40
1.0
 40
1.0
 40
1.0
 10
-161.6392070948321
 20
318.3808388514253
 30
0.0
 10
-169.8844662057457
 20
321.7685745233219
 30
0.0
 10
-193.0532297245832
 20
332.03318864443
 30
0.0
 10
-237.7043833598157
 20
297.5108165581201
 30
0.0
 10
-274.4990086977078
 20
312.022682201773
 30
0.0
 10
-297.3112890915885
 20
318.3808388514253
 30
0.0
  0
LINE
  5
6C1
330
1F
100
AcDbEntity
  8
0
100
AcDbLine
 10
-297.3112890915885
 20
318.3808388514253
 30
0.0
 11
-297.3112890915885
 21
312.3808388514253
 31
0.0
  0
DIMENSION
  5
6C2
330
1F
100
AcDbEntity
  8
0
100
AcDbDimension
  2
*D28
 10
-161.6392070948321
 20
356.8526685987341
 30
0.0
 11
-229.4752480932103
 21
366.8526685987341
 31
0.0
 70
    32
  1
Max. 1.5m
 71
     5
 42
135.6720819967563
  3
09)　s＝1／5
100
AcDbAlignedDimension
 13
-297.3112890915885
 23
318.3808388514253
 33
0.0
 14
-161.6392070948321
 24
318.3808388514253
 34
0.0
100
AcDbRotatedDimension
  0
DIMENSION
  5
6EB
330
1F
100
AcDbEntity
  8
0
100
AcDbDimension
  2
*D30
 10
-209.3084818422795
 20
252.3808388514257
 30
0.0
 11
-219.3084818422795
 21
215.16655313714
 31
0.0
 70
    32
 71
     5
 42
19.99999999999991
  3
09)　s＝1／5
100
AcDbAlignedDimension
 13
-172.139207094832
 23
272.3808388514257
 33
0.0
 14
-172.139207094832
 24
252.3808388514257
 34
0.0
 50
90.0
100
AcDbRotatedDimension
  0
DIMENSION
  5
6FA
330
1F
100
AcDbEntity
  8
0
100
AcDbDimension
  2
*D31
 10
-237.7692478492682
 20
262.3808388514257
 30
0.0
 11
-247.7692478492682
 21
212.3808388514258
 31
0.0
 70
    32
 71
     5
 42
99.99999999999964
  3
09)　s＝1／5
100
AcDbAlignedDimension
 13
-160.1466513095277
 23
162.380838851426
 33
0.0
 14
-164.1392070948321
 24
262.3808388514257
 34
0.0
 50
90.0
100
AcDbRotatedDimension
  0
DIMENSION
  5
707
330
1F
100
AcDbEntity
  8
0
100
AcDbDimension
  2
*D32
 10
-161.639207094832
 20
120.257626749968
 30
0.0
 11
-227.9249213805463
 21
120.257626749968
 31
0.0
 70
   160
 71
     5
 42
20.49999999999994
  3
09)　s＝1／5
100
AcDbAlignedDimension
 13
-182.139207094832
 23
262.3808388514257
 33
0.0
 14
-161.639207094832
 24
163.8733946367345
 34
0.0
100
AcDbRotatedDimension
  0
DIMENSION
  5
721
330
1F
100
AcDbEntity
  8
0
100
AcDbDimension
  2
*D33
 10
218.3607929051657
 20
120.257626749968
 30
0.0
 11
28.36079290516685
 21
130.257626749968
 31
0.0
 70
    32
 71
     5
 42
379.9999999999978
  3
09)　s＝1／5
100
AcDbAlignedDimension
 13
-161.639207094832
 23
163.8733946367345
 33
0.0
 14
218.3607929051657
 24
163.8733946367346
 34
0.0
100
AcDbRotatedDimension
  0
DIMENSION
  5
72E
330
1F
100
AcDbEntity
  8
0
100
AcDbDimension
  2
*D34
 10
262.8149733204337
 20
462.3808388514245
 30
0.0
 11
252.8149733204336
 21
312.3808388514253
 31
0.0
 70
    32
 71
     5
 42
299.9999999999984
  3
09)　s＝1／5
100
AcDbAlignedDimension
 13
216.8682371198615
 23
162.380838851426
 33
0.0
 14
216.8682371198615
 24
462.3808388514245
 34
0.0
 50
90.0
100
AcDbRotatedDimension
  0
DIMENSION
  5
73B
330
1F
100
AcDbEntity
  8
0
100
AcDbDimension
  2
*D35
 10
193.860792905166
 20
-135.0691141023562
 30
0.0
 11
28.36079290516691
 21
-125.0691141023562
 31
0.0
 70
    32
 71
     5
 42
330.9999999999982
  3
09)　s＝1／5
100
AcDbAlignedDimension
 13
-137.1392070948322
 23
-94.51848252513498
 33
0.0
 14
193.860792905166
 24
-94.51848252513514
 34
0.0
100
AcDbRotatedDimension
  0
DIMENSION
  5
748
330
1F
100
AcDbEntity
  8
0
100
AcDbDimension
  2
*D36
 10
262.8149733204336
 20
-27.01848252513532
 30
0.0
 11
252.8149733204336
 21
-2.018482525135435
 31
0.0
 70
    32
 71
     5
 42
49.99999999999968
  3
09)　s＝1／5
100
AcDbAlignedDimension
 13
212.0033115620016
 23
22.98151747486438
 33
0.0
 14
218.3607929051657
 24
-27.01848252513531
 34
0.0
 50
90.0
100
AcDbRotatedDimension
  0
DIMENSION
  5
755
330
1F
100
AcDbEntity
  8
0
100
AcDbDimension
  2
*D37
 10
301.91661307693
 20
22.98151747486437
 30
0.0
 11
291.9166130769299
 21
-35.76848252513535
 31
0.0
 70
    32
 71
     5
 42
117.4999999999995
  3
09)　s＝1／5
100
AcDbAlignedDimension
 13
205.360792905166
 23
-94.51848252513514
 33
0.0
 14
212.0033115620016
 24
22.98151747486441
 34
0.0
 50
90.0
100
AcDbRotatedDimension
  0
DIMENSION
  5
762
330
1F
100
AcDbEntity
  8
0
100
AcDbDimension
  2
*D38
 10
662.3181778621212
 20
-135.0691141023562
 30
0.0
 11
548.3181778621218
 21
-125.0691141023562
 31
0.0
 70
    32
 71
     5
 42
227.9999999999988
  3
09)　s＝1／5
100
AcDbAlignedDimension
 13
434.3181778621224
 23
-94.51848252513514
 33
0.0
 14
662.3181778621212
 24
-94.51848252513514
 34
0.0
100
AcDbRotatedDimension
  0
VIEWPORT
  5
427
102
{ACAD_XDICTIONARY
360
428
102
}
330
1B
100
AcDbEntity
 67
     1
  8
0
100
AcDbViewport
 10
144.8083771557211
 20
101.7799184441329
 30
0.0
 40
451.6631809732083
 41
198.6935433503102
 68
     1
 69
     1
 12
144.8083771557211
 22
101.7799184441329
 13
0.0
 23
0.0
 14
10.0
 24
10.0
 15
10.0
 25
10.0
 16
0.0
 26
0.0
 36
1.0
 17
0.0
 27
0.0
 37
0.0
 42
50.0
 43
0.0
 44
0.0
 45
198.6935433503102
 50
0.0
 51
0.0
 72
   100
 90
   557088
  1

281
     0
 71
     1
 74
     0
110
0.0
120
0.0
130
0.0
111
1.0
121
0.0
131
0.0
112
0.0
122
1.0
132
0.0
 79
     0
146
0.0
  0
VIEWPORT
  5
42B
102
{ACAD_XDICTIONARY
360
42C
102
}
330
1B
100
AcDbEntity
 67
     1
  8
0
100
AcDbViewport
 10
144.8067108269277
 20
101.7799181430878
 30
0.0
 40
282.8678234750289
 41
197.2602459902508
 68
     2
 69
     2
 12
207.2212423344543
 22
157.2944755822454
 13
0.0
 23
0.0
 14
10.0
 24
10.0
 15
10.0
 25
10.0
 16
0.0
 26
0.0
 36
1.0
 17
0.0
 27
0.0
 37
0.0
 42
50.0
 43
0.0
 44
0.0
 45
789.0409830081928
 50
0.0
 51
0.0
 72
   100
 90
   819296
  1

281
     0
 71
     1
 74
     0
110
0.0
120
0.0
130
0.0
111
1.0
121
0.0
131
0.0
112
0.0
122
1.0
132
0.0
 79
     0
146
0.0
  0
MTEXT
  5
444
330
1B
100
AcDbEntity
 67
     1
  8
0
100
AcDbMText
 10
256.206327611079
 20
15.68577911243926
 30
0.0
 40
4.0
 41
27.49667609257949
 71
     1
 72
     5
  1
単位：mm
  7
AD-STANDARD
 73
     1
 44
1.0
1001
ACAD
1000
MTEXTBEGIN
1070
    73
1070
     1
1070
    44
1040
1.0
1070
    74
1070
     0
1000
MTEXTEND
  0
MTEXT
  5
445
330
1B
100
AcDbEntity
 67
     1
  8
0
100
AcDbMText
 10
240.718110326622
 20
189.5160109986239
 30
0.0
 40
4.0
 41
27.49667609257949
 71
     4
 72
     5
  1
SB-15K14SW
  7
AD-STANDARD
 73
     1
 44
1.0
1001
ACAD
1000
MTEXTBEGIN
1070
    73
1070
     1
1070
    44
1040
1.0
1070
    74
1070
     0
1000
MTEXTEND
  0
LINE
  5
446
330
1B
100
AcDbEntity
 67
     1
  8
NOTE
 62
     9
100
AcDbLine
 10
237.8147864192016
 20
186.565355406442
 30
0.0
 11
279.1022257371789
 21
186.565355406442
 31
0.0
  0
MTEXT
  5
447
330
1B
100
AcDbEntity
 67
     1
  8
0
100
AcDbMText
 10
240.718110326622
 20
182.5160109986239
 30
0.0
 40
4.0
 41
27.49667609257949
 71
     4
 72
     5
  1
SB-30K14SW
  7
AD-STANDARD
 73
     1
 44
1.0
1001
ACAD
1000
MTEXTBEGIN
1070
    73
1070
     1
1070
    44
1040
1.0
1070
    74
1070
     0
1000
MTEXTEND
  0
LINE
  5
448
330
1B
100
AcDbEntity
 67
     1
  8
NOTE
 62
     9
100
AcDbLine
 10
237.8147864192016
 20
179.565355406442
 30
0.0
 11
279.1022257371789
 21
179.565355406442
 31
0.0
  0
MTEXT
  5
781
330
1B
100
AcDbEntity
 67
     1
  8
0
100
AcDbMText
 10
240.718110326622
 20
175.5160109986239
 30
0.0
 40
4.0
 41
27.49667609257949
 71
     4
 72
     5
  1
SB-60K14SW
  7
AD-STANDARD
 73
     1
 44
1.0
1001
ACAD
1000
MTEXTBEGIN
1070
    73
1070
     1
1070
    44
1040
1.0
1070
    74
1070
     0
1000
MTEXTEND
  0
LINE
  5
782
330
1B
100
AcDbEntity
 67
     1
  8
NOTE
 62
     9
100
AcDbLine
 10
237.8147864192016
 20
172.565355406442
 30
0.0
 11
279.1022257371789
 21
172.565355406442
 31
0.0
  0
MTEXT
  5
783
330
1B
100
AcDbEntity
 67
     1
  8
0
100
AcDbMText
 10
240.718110326622
 20
168.5160109986239
 30
0.0
 40
4.0
 41
27.49667609257949
 71
     4
 72
     5
  1
SB-150K14SW
  7
AD-STANDARD
 73
     1
 44
1.0
1001
ACAD
1000
MTEXTBEGIN
1070
    73
1070
     1
1070
    44
1040
1.0
1070
    74
1070
     0
1000
MTEXTEND
  0
LINE
  5
784
330
1B
100
AcDbEntity
 67
     1
  8
NOTE
 62
     9
100
AcDbLine
 10
237.8147864192016
 20
165.565355406442
 30
0.0
 11
279.1022257371789
 21
165.565355406442
 31
0.0
  0
ENDSEC
  0
SECTION
  2
OBJECTS
  0
DICTIONARY
  5
C
330
0
100
AcDbDictionary
281
     1
  3
ACAD_COLOR
350
38A
  3
ACAD_GROUP
350
D
  3
ACAD_LAYOUT
350
1A
  3
ACAD_MATERIAL
350
389
  3
ACAD_MLEADERSTYLE
350
385
  3
ACAD_MLINESTYLE
350
17
  3
ACAD_PLOTSETTINGS
350
19
  3
ACAD_PLOTSTYLENAME
350
E
  3
ACAD_SCALELIST
350
3B
  3
ACAD_TABLESTYLE
350
384
  3
ACAD_VISUALSTYLE
350
2A
  3
ACDB_RECOMPOSE_DATA
350
7C7
  3
AcDbVariableDictionary
350
382
  3
DWGPROPS
350
7C8
  0
DICTIONARY
  5
3A5
330
2
100
AcDbDictionary
280
     1
281
     1
  3
ACAD_LAYERSTATES
360
3A6
  0
DICTIONARY
  5
785
330
10
100
AcDbDictionary
280
     1
281
     1
  3
ADSK_XREC_LAYER_RECONCILED
360
786
  0
DICTIONARY
  5
437
330
436
100
AcDbDictionary
280
     1
281
     1
  3
ADSK_XREC_LAYER_RECONCILED
360
787
  0
DICTIONARY
  5
4C6
330
1F
100
AcDbDictionary
280
     1
281
     1
  3
ACAD_SORTENTS
360
4C7
  0
DICTIONARY
  5
428
330
427
100
AcDbDictionary
280
     1
281
     1
  3
ACAD_XREC_ROUNDTRIP
360
7D0
  3
ASDK_XREC_ANNOTATION_SCALE_INFO
360
429
  0
DICTIONARY
  5
42C
330
42B
100
AcDbDictionary
280
     1
281
     1
  3
ACAD_XREC_ROUNDTRIP
360
7D1
  3
ASDK_XREC_ANNOTATION_SCALE_INFO
360
42D
  0
DICTIONARY
  5
38A
102
{ACAD_REACTORS
330
C
102
}
330
C
100
AcDbDictionary
281
     1
  0
DICTIONARY
  5
D
102
{ACAD_REACTORS
330
C
102
}
330
C
100
AcDbDictionary
281
     1
  3
*A1
350
6E1
  0
DICTIONARY
  5
1A
102
{ACAD_REACTORS
330
C
102
}
330
C
100
AcDbDictionary
281
     1
  3
Layout1
350
1E
  3
Model
350
22
  0
DICTIONARY
  5
389
102
{ACAD_REACTORS
330
C
102
}
330
C
100
AcDbDictionary
281
     1
  3
ByBlock
350
40E
  3
ByLayer
350
406
  3
Global
350
416
  0
DICTIONARY
  5
385
102
{ACAD_REACTORS
330
C
102
}
330
C
100
AcDbDictionary
281
     1
  3
Standard
350
41E
  0
DICTIONARY
  5
17
102
{ACAD_REACTORS
330
C
102
}
330
C
100
AcDbDictionary
281
     1
  3
Standard
350
18
  0
DICTIONARY
  5
19
102
{ACAD_REACTORS
330
C
102
}
330
C
100
AcDbDictionary
281
     1
  0
ACDBDICTIONARYWDFLT
  5
E
102
{ACAD_REACTORS
330
C
102
}
330
C
100
AcDbDictionary
281
     1
  3
Normal
350
F
100
AcDbDictionaryWithDefault
340
F
  0
DICTIONARY
  5
3B
102
{ACAD_REACTORS
330
C
102
}
330
C
100
AcDbDictionary
281
     1
  3
A0
350
3C
  3
A1
350
3D
  3
A2
350
3E
  3
A3
350
3F
  3
A4
350
40
  3
A5
350
41
  3
A6
350
42
  3
A7
350
43
  3
A8
350
44
  3
A9
350
45
  3
B0
350
46
  3
B1
350
47
  3
B2
350
48
  3
B3
350
49
  3
B4
350
4A
  3
B5
350
4B
  3
B6
350
4C
  3
B7
350
4D
  3
B8
350
4E
  3
B9
350
4F
  3
C0
350
50
  3
C1
350
51
  3
C2
350
52
  3
C3
350
53
  3
C4
350
54
  3
C5
350
55
  3
C6
350
56
  3
C7
350
57
  3
C8
350
58
  3
C9
350
59
  3
D0
350
5A
  3
D1
350
5B
  3
D2
350
5C
  0
DICTIONARY
  5
384
102
{ACAD_REACTORS
330
C
102
}
330
C
100
AcDbDictionary
281
     1
  3
Standard
350
38B
  0
DICTIONARY
  5
2A
102
{ACAD_REACTORS
330
C
102
}
330
C
100
AcDbDictionary
281
     1
  3
2dWireframe
350
2F
  3
3D Hidden
350
31
  3
3dWireframe
350
30
  3
Basic
350
32
  3
Brighten
350
36
  3
ColorChange
350
3A
  3
Conceptual
350
34
  3
Dim
350
35
  3
Facepattern
350
39
  3
Flat
350
2B
  3
FlatWithEdges
350
2C
  3
Gouraud
350
2D
  3
GouraudWithEdges
350
2E
  3
Linepattern
350
38
  3
Realistic
350
33
  3
Thicken
350
37
  0
XRECORD
  5
7C7
102
{ACAD_REACTORS
330
C
102
}
330
C
100
AcDbXrecord
280
     1
 90
        1
330
38B
  0
DICTIONARY
  5
382
102
{ACAD_REACTORS
330
C
102
}
330
C
100
AcDbDictionary
281
     1
  3
CANNOSCALE
350
383
  3
CMLEADERSTYLE
350
7C0
  3
CTABLESTYLE
350
402
  3
DIMASSOC
350
403
  3
INDEXCTL
350
7C2
  3
PROJECTNAME
350
404
  3
PSOLHEIGHT
350
7C4
  3
PSOLWIDTH
350
7C3
  3
SORTENTS
350
7C1
  0
XRECORD
  5
7C8
102
{ACAD_REACTORS
330
C
102
}
330
C
100
AcDbXrecord
280
     1
  1
DWGPROPS COOKIE
  2

  3

  4

  6

  7

  8
HAMANO-1047
  9

300
=
301
=
302
=
303
=
304
=
305
=
306
=
307
=
308
=
309
=
 40
0.0129095023148148
 41
2455161.698628657
 42
2458306.620312454
  1

 90
        0
  0
DICTIONARY
  5
3A6
102
{ACAD_REACTORS
330
3A5
102
}
330
3A5
100
AcDbDictionary
281
     1
  0
XRECORD
  5
786
102
{ACAD_REACTORS
330
785
102
}
330
785
100
AcDbXrecord
280
     1
290
     1
  0
XRECORD
  5
787
102
{ACAD_REACTORS
330
437
102
}
330
437
100
AcDbXrecord
280
     1
290
     1
  0
SORTENTSTABLE
  5
4C7
102
{ACAD_REACTORS
330
4C6
102
}
330
4C6
100
AcDbSortentsTable
330
1F
331
6A1
  5
5B9
331
5B0
  5
4C8
331
4DB
  5
5D2
331
5CA
  5
4E2
331
4FD
  5
5F4
331
51F
  5
616
331
60E
  5
526
331
55B
  5
652
331
541
  5
638
331
57D
  5
674
331
59F
  5
696
331
66E
  5
586
331
690
  5
5A8
331
64C
  5
564
331
630
  5
548
331
5EC
  5
504
331
4C1
  5
4BF
331
4D2
  5
5C9
331
5C1
  5
4D9
331
4EC
  5
5E3
331
50E
  5
605
331
5FD
  5
515
331
56C
  5
663
331
530
  5
627
331
58E
  5
685
331
67F
  5
597
331
65D
  5
575
331
61F
  5
537
331
5DB
  5
4F3
331
4B0
  5
4AE
331
49F
  5
49D
331
4D9
  5
5D0
331
5C8
  5
4E0
331
4FB
  5
5F2
331
51D
  5
614
331
60C
  5
524
331
559
  5
650
331
53F
  5
636
331
57B
  5
672
331
59D
  5
694
331
66C
  5
584
331
68E
  5
5A6
331
64A
  5
562
331
62E
  5
546
331
5EA
  5
502
331
4D0
  5
5C7
331
5BF
  5
4D7
331
4EA
  5
5E1
331
50C
  5
603
331
5FB
  5
513
331
52E
  5
625
331
56A
  5
661
331
63F
  5
557
331
58C
  5
683
331
67D
  5
595
331
65B
  5
573
331
61D
  5
535
331
5D9
  5
4F1
331
4AE
  5
4AC
331
5AE
  5
6A5
331
69F
  5
5B7
331
4BF
  5
4BD
331
49D
  5
49B
331
4F9
  5
5F0
331
5E8
  5
500
331
51B
  5
612
331
557
  5
64E
331
53D
  5
634
331
62C
  5
544
331
579
  5
670
331
59B
  5
692
331
66A
  5
582
331
68C
  5
5A4
331
648
  5
560
331
60A
  5
522
331
4CE
  5
5C5
331
5BD
  5
4D5
331
4E8
  5
5DF
331
50A
  5
601
331
5F9
  5
511
331
52C
  5
623
331
568
  5
65F
331
54E
  5
645
331
63D
  5
555
331
58A
  5
681
331
67B
  5
593
331
659
  5
571
331
61B
  5
533
331
5D7
  5
4EF
331
4AC
  5
4AA
331
5AC
  5
6A3
331
69D
  5
5B5
331
4BD
  5
4BB
331
49B
  5
9B
331
519
  5
610
331
608
  5
520
331
555
  5
64C
331
53B
  5
632
331
577
  5
66E
331
599
  5
690
331
668
  5
580
331
68A
  5
5A2
331
646
  5
55E
331
62A
  5
542
331
4CC
  5
5C3
331
5BB
  5
4D3
331
4E6
  5
5DD
331
508
  5
5FF
331
5F7
  5
50F
331
52A
  5
621
331
566
  5
65D
331
54C
  5
643
331
63B
  5
553
331
588
  5
67F
331
5AA
  5
6A1
331
679
  5
591
331
69B
  5
5B3
331
657
  5
56F
331
619
  5
531
331
5D5
  5
4ED
331
4F7
  5
5EE
331
5E6
  5
4FE
331
4BB
  5
4B9
331
4AA
  5
4A8
331
553
  5
64A
331
539
  5
630
331
628
  5
540
331
575
  5
66C
331
597
  5
68E
331
666
  5
57E
331
688
  5
5A0
331
644
  5
55C
331
4CA
  5
5C1
331
5B9
  5
4D1
331
4E4
  5
5DB
331
506
  5
5FD
331
5F5
  5
50D
331
528
  5
61F
331
564
  5
65B
331
54A
  5
641
331
639
  5
551
331
586
  5
67D
331
5A8
  5
69F
331
677
  5
58F
331
699
  5
5B1
331
655
  5
56D
331
617
  5
52F
331
5D3
  5
4EB
331
4F5
  5
5EC
331
5E4
  5
4FC
331
517
  5
60E
331
606
  5
51E
331
4B9
  5
4B7
331
4A8
  5
4A6
331
551
  5
648
331
573
  5
66A
331
642
  5
55A
331
595
  5
68C
331
686
  5
59E
331
664
  5
57C
331
4C8
  5
5BF
331
5B7
  5
4CF
331
4E2
  5
5D9
331
504
  5
5FB
331
5F3
  5
50B
331
526
  5
61D
331
562
  5
659
331
548
  5
63F
331
637
  5
54F
331
584
  5
67B
331
5A6
  5
69D
331
675
  5
58D
331
697
  5
5AF
331
653
  5
56B
331
615
  5
52D
331
5D1
  5
4E9
331
4F3
  5
5EA
331
5E2
  5
4FA
331
515
  5
60C
331
537
  5
62E
331
626
  5
53E
331
604
  5
51C
331
4B7
  5
4B5
331
4A6
  5
4A4
331
571
  5
668
331
640
  5
558
331
593
  5
68A
331
684
  5
59C
331
662
  5
57A
331
6A6
  5
5BE
331
5B5
  5
4CD
331
4E0
  5
5D7
331
5CF
  5
4E7
331
502
  5
5F9
331
524
  5
61B
331
613
  5
52B
331
560
  5
657
331
546
  5
63D
331
582
  5
679
331
5A4
  5
69B
331
673
  5
58B
331
695
  5
5AD
331
651
  5
569
331
635
  5
54D
331
5F1
  5
509
331
4D7
  5
5CE
331
5C6
  5
4DE
331
4F1
  5
5E8
331
513
  5
60A
331
602
  5
51A
331
535
  5
62C
331
624
  5
53C
331
5E0
  5
4F8
331
4B5
  5
4B3
331
4A4
  5
4A2
331
591
  5
688
331
660
  5
578
331
682
  5
59A
331
6A4
  5
5BC
331
5B3
  5
4CB
331
4DE
  5
5D5
331
500
  5
5F7
331
522
  5
619
331
611
  5
529
331
55E
  5
655
331
544
  5
63B
331
580
  5
677
331
5A2
  5
699
331
671
  5
589
331
693
  5
5AB
331
64F
  5
567
331
633
  5
54B
331
5EF
  5
507
331
4C4
  5
4C2
331
4A2
  5
4A0
331
4D5
  5
5CC
331
5C4
  5
4DC
331
4EF
  5
5E6
331
511
  5
608
331
600
  5
518
331
56F
  5
666
331
533
  5
62A
331
622
  5
53A
331
5DE
  5
4F6
331
4B3
  5
4B1
331
680
  5
598
331
6A2
  5
5BA
331
5B1
  5
4C9
331
4DC
  5
5D3
331
5CB
  5
4E3
331
4FE
  5
5F5
331
520
  5
617
331
60F
  5
527
331
55C
  5
653
331
542
  5
639
331
57E
  5
675
331
5A0
  5
697
331
66F
  5
587
331
691
  5
5A9
331
64D
  5
565
331
631
  5
549
331
5ED
  5
505
331
4C2
  5
4C0
331
4A0
  5
49E
331
4D3
  5
5CA
331
5C2
  5
4DA
331
4ED
  5
5E4
331
50F
  5
606
331
5FE
  5
516
331
56D
  5
664
331
531
  5
628
331
58F
  5
686
331
65E
  5
576
331
620
  5
538
331
5DC
  5
4F4
331
4B1
  5
4AF
331
6A0
  5
5B8
331
4DA
  5
5D1
331
5C9
  5
4E1
331
4FC
  5
5F3
331
51E
  5
615
331
60D
  5
525
331
55A
  5
651
331
540
  5
637
331
57C
  5
673
331
59E
  5
695
331
66D
  5
585
331
68F
  5
5A7
331
64B
  5
563
331
62F
  5
547
331
5EB
  5
503
331
4C0
  5
4BE
331
4D1
  5
5C8
331
5C0
  5
4D8
331
4EB
  5
5E2
331
50D
  5
604
331
5FC
  5
514
331
56B
  5
662
331
52F
  5
626
331
58D
  5
684
331
67E
  5
596
331
65C
  5
574
331
61E
  5
536
331
5DA
  5
4F2
331
4AF
  5
4AD
331
5AF
  5
6A6
331
49E
  5
49C
331
4D8
  5
5CF
331
4FA
  5
5F1
331
5E9
  5
501
331
51C
  5
613
331
558
  5
64F
331
53E
  5
635
331
62D
  5
545
331
57A
  5
671
331
59C
  5
693
331
66B
  5
583
331
68D
  5
5A5
331
649
  5
561
331
60B
  5
523
331
4CF
  5
5C6
331
5BE
  5
4D6
331
4E9
  5
5E0
331
50B
  5
602
331
5FA
  5
512
331
52D
  5
624
331
569
  5
660
331
54F
  5
646
331
63E
  5
556
331
58B
  5
682
331
67C
  5
594
331
65A
  5
572
331
61C
  5
534
331
5D8
  5
4F0
331
4AD
  5
4AB
331
5AD
  5
6A4
331
69E
  5
5B6
331
4BE
  5
4BC
331
49C
  5
1A0
331
4F8
  5
5EF
331
51A
  5
611
331
609
  5
521
331
556
  5
64D
331
53C
  5
633
331
578
  5
66F
331
59A
  5
691
331
669
  5
581
331
68B
  5
5A3
331
647
  5
55F
331
62B
  5
543
331
4CD
  5
5C4
331
5BC
  5
4D4
331
4E7
  5
5DE
331
509
  5
600
331
5F8
  5
510
331
52B
  5
622
331
567
  5
65E
331
54D
  5
644
331
63C
  5
554
331
589
  5
680
331
5AB
  5
6A2
331
67A
  5
592
331
69C
  5
5B4
331
658
  5
570
331
61A
  5
532
331
5D6
  5
4EE
331
5E7
  5
4FF
331
4BC
  5
4BA
331
4AB
  5
4A9
331
518
  5
60F
331
554
  5
64B
331
53A
  5
631
331
629
  5
541
331
576
  5
66D
331
598
  5
68F
331
667
  5
57F
331
689
  5
5A1
331
645
  5
55D
331
4CB
  5
5C2
331
5BA
  5
4D2
331
4E5
  5
5DC
331
507
  5
5FE
331
5F6
  5
50E
331
529
  5
620
331
565
  5
65C
331
54B
  5
642
331
63A
  5
552
331
587
  5
67E
331
5A9
  5
6A0
331
678
  5
590
331
69A
  5
5B2
331
656
  5
56E
331
618
  5
530
331
5D4
  5
4EC
331
4F6
  5
5ED
331
5E5
  5
4FD
331
607
  5
51F
331
4BA
  5
4B8
331
4A9
  5
4A7
331
552
  5
649
331
538
  5
62F
331
574
  5
66B
331
596
  5
68D
331
665
  5
57D
331
687
  5
59F
331
643
  5
55B
331
4C9
  5
5C0
331
5B8
  5
4D0
331
4E3
  5
5DA
331
505
  5
5FC
331
5F4
  5
50C
331
527
  5
61E
331
563
  5
65A
331
549
  5
640
331
638
  5
550
331
585
  5
67C
331
5A7
  5
69E
331
676
  5
58E
331
698
  5
5B0
331
654
  5
56C
331
616
  5
52E
331
5D2
  5
4EA
331
4F4
  5
5EB
331
5E3
  5
4FB
331
516
  5
60D
331
627
  5
53F
331
605
  5
51D
331
4B8
  5
4B6
331
4A7
  5
4A5
331
550
  5
647
331
572
  5
669
331
641
  5
559
331
594
  5
68B
331
685
  5
59D
331
663
  5
57B
331
4E1
  5
5D8
331
5D0
  5
4E8
331
5B6
  5
4CE
331
503
  5
5FA
331
525
  5
61C
331
614
  5
52C
331
561
  5
658
331
547
  5
63E
331
583
  5
67A
331
5A5
  5
69C
331
674
  5
58C
331
696
  5
5AE
331
652
  5
56A
331
636
  5
54E
331
5F2
  5
50A
331
4A5
  5
4A3
331
4F2
  5
5E9
331
5E1
  5
4F9
331
5C7
  5
4DF
331
514
  5
60B
331
536
  5
62D
331
625
  5
53D
331
603
  5
51B
331
4B6
  5
4B4
331
570
  5
667
331
592
  5
689
331
661
  5
579
331
683
  5
59B
331
6A5
  5
5BD
331
5B4
  5
4CC
331
4DF
  5
5D6
331
501
  5
5F8
331
523
  5
61A
331
612
  5
52A
331
55F
  5
656
331
545
  5
63C
331
581
  5
678
331
5A3
  5
69A
331
672
  5
58A
331
694
  5
5AC
331
650
  5
568
331
634
  5
54C
331
5F0
  5
508
331
4A3
  5
4A1
331
4D6
  5
5CD
331
5C5
  5
4DD
331
4F0
  5
5E7
331
512
  5
609
331
601
  5
519
331
534
  5
62B
331
623
  5
53B
331
5DF
  5
4F7
331
4B4
  5
4B2
331
590
  5
687
331
681
  5
599
331
6A3
  5
5BB
331
5B2
  5
4CA
331
4A1
  5
49F
331
4DD
  5
5D4
331
4FF
  5
5F6
331
521
  5
618
331
610
  5
528
331
55D
  5
654
331
543
  5
63A
331
57F
  5
676
331
5A1
  5
698
331
670
  5
588
331
692
  5
5AA
331
64E
  5
566
331
632
  5
54A
331
5EE
  5
506
331
4D4
  5
5CB
331
5C3
  5
4DB
331
4EE
  5
5E5
331
510
  5
607
331
5FF
  5
517
331
56E
  5
665
331
532
  5
629
331
65F
  5
577
331
621
  5
539
331
5DD
  5
4F5
331
4B2
  5
4B0
331
4C3
  5
4C1
  0
XRECORD
  5
7D0
102
{ACAD_REACTORS
330
428
102
}
330
428
100
AcDbXrecord
280
     1
102
SHADEPLOT
 70
     0
  0
XRECORD
  5
429
102
{ACAD_REACTORS
330
428
102
}
330
428
100
AcDbXrecord
280
     1
 90
        1
340
3C
  0
XRECORD
  5
7D1
102
{ACAD_REACTORS
330
42C
102
}
330
42C
100
AcDbXrecord
280
     1
102
SHADEPLOT
 70
     0
  0
XRECORD
  5
42D
102
{ACAD_REACTORS
330
42C
102
}
330
42C
100
AcDbXrecord
280
     1
 90
        1
340
3C
  0
GROUP
  5
6E1
102
{ACAD_REACTORS
330
D
102
}
330
D
100
AcDbGroup
300

 70
     1
 71
     1
  0
LAYOUT
  5
1E
102
{ACAD_XDICTIONARY
360
450
102
}
102
{ACAD_REACTORS
330
1A
102
}
330
1A
100
AcDbPlotSettings
  1

  2
CubePDF
  4
A4
  6

 40
3.174999952316284
 41
3.174999952316284
 42
3.175003051757812
 43
3.17498779296875
 44
209.9098358154297
 45
297.0318298339844
 46
0.0
 47
0.0
 48
0.0
 49
0.0
140
0.0
141
0.0
142
1.0
143
1.0
 70
   688
 72
     1
 73
     1
 74
     5
  7
monochrome.ctb
 75
    16
147
1.0
148
0.0
149
0.0
100
AcDbLayout
  1
Layout1
 70
     1
 71
     1
 10
-3.17498779296875
 20
-3.174999952316284
 11
293.8568420410156
 21
206.7348358631134
 12
0.0
 22
0.0
 32
0.0
 14
3.365188236585595
 24
3.144460169993237
 34
-0.0000000349181948
 15
286.2515660748566
 25
200.4153767182727
 35
0.0000000814935746
146
0.0
 13
0.0
 23
0.0
 33
0.0
 16
1.0
 26
0.0
 36
0.0
 17
0.0
 27
1.0
 37
0.0
 76
     0
330
1B
331
427
1001
ACAD_PSEXT
1000
CubePDF
1000
CubePDF
1000
CubePDF:
1000
CubePDF
1070
     0
  0
LAYOUT
  5
22
102
{ACAD_XDICTIONARY
360
7CA
102
}
102
{ACAD_REACTORS
330
1A
102
}
330
1A
100
AcDbPlotSettings
  1

  2
none_device
  4

  6

 40
0.0
 41
0.0
 42
0.0
 43
0.0
 44
0.0
 45
0.0
 46
0.0
 47
0.0
 48
0.0
 49
0.0
140
0.0
141
0.0
142
1.0
143
1.0
 70
  1712
 72
     0
 73
     0
 74
     0
  7

 75
     0
147
1.0
148
0.0
149
0.0
100
AcDbLayout
  1
Model
 70
     1
 71
     0
 10
0.0
 20
0.0
 11
420.0
 21
297.0
 12
0.0
 22
0.0
 32
0.0
 14
0.0
 24
0.0
 34
0.0
 15
420.0
 25
297.0
 35
0.0
146
0.0
 13
0.0
 23
0.0
 33
0.0
 16
1.0
 26
0.0
 36
0.0
 17
0.0
 27
1.0
 37
0.0
 76
     0
330
1F
  0
MATERIAL
  5
40E
102
{ACAD_XDICTIONARY
360
40F
102
}
102
{ACAD_REACTORS
330
389
102
}
330
389
100
AcDbMaterial
  1
ByBlock
 72
     0
 43
0.0008202099737533
 43
0.0
 43
0.0
 43
0.0
 43
0.0
 43
0.0008202099737533
 43
0.0
 43
0.0
 43
0.0
 43
0.0
 43
1.0
 43
0.0
 43
0.0
 43
0.0
 43
0.0
 43
1.0
 77
     0
 47
0.0008202099737533
 47
0.0
 47
0.0
 47
0.0
 47
0.0
 47
0.0008202099737533
 47
0.0
 47
0.0
 47
0.0
 47
0.0
 47
1.0
 47
0.0
 47
0.0
 47
0.0
 47
0.0
 47
1.0
171
     0
 49
0.0008202099737533
 49
0.0
 49
0.0
 49
0.0
 49
0.0
 49
0.0008202099737533
 49
0.0
 49
0.0
 49
0.0
 49
0.0
 49
1.0
 49
0.0
 49
0.0
 49
0.0
 49
0.0
 49
1.0
175
     0
142
0.0008202099737533
142
0.0
142
0.0
142
0.0
142
0.0
142
0.0008202099737533
142
0.0
142
0.0
142
0.0
142
0.0
142
1.0
142
0.0
142
0.0
142
0.0
142
0.0
142
1.0
179
     0
144
0.0008202099737533
144
0.0
144
0.0
144
0.0
144
0.0
144
0.0008202099737533
144
0.0
144
0.0
144
0.0
144
0.0
144
1.0
144
0.0
144
0.0
144
0.0
144
0.0
144
1.0
147
0.0008202099737533
147
0.0
147
0.0
147
0.0
147
0.0
147
0.0008202099737533
147
0.0
147
0.0
147
0.0
147
0.0
147
1.0
147
0.0
147
0.0
147
0.0
147
0.0
147
1.0
  0
MATERIAL
  5
406
102
{ACAD_XDICTIONARY
360
407
102
}
102
{ACAD_REACTORS
330
389
102
}
330
389
100
AcDbMaterial
  1
ByLayer
 72
     0
 43
0.0008202099737533
 43
0.0
 43
0.0
 43
0.0
 43
0.0
 43
0.0008202099737533
 43
0.0
 43
0.0
 43
0.0
 43
0.0
 43
1.0
 43
0.0
 43
0.0
 43
0.0
 43
0.0
 43
1.0
 77
     0
 47
0.0008202099737533
 47
0.0
 47
0.0
 47
0.0
 47
0.0
 47
0.0008202099737533
 47
0.0
 47
0.0
 47
0.0
 47
0.0
 47
1.0
 47
0.0
 47
0.0
 47
0.0
 47
0.0
 47
1.0
171
     0
 49
0.0008202099737533
 49
0.0
 49
0.0
 49
0.0
 49
0.0
 49
0.0008202099737533
 49
0.0
 49
0.0
 49
0.0
 49
0.0
 49
1.0
 49
0.0
 49
0.0
 49
0.0
 49
0.0
 49
1.0
175
     0
142
0.0008202099737533
142
0.0
142
0.0
142
0.0
142
0.0
142
0.0008202099737533
142
0.0
142
0.0
142
0.0
142
0.0
142
1.0
142
0.0
142
0.0
142
0.0
142
0.0
142
1.0
179
     0
144
0.0008202099737533
144
0.0
144
0.0
144
0.0
144
0.0
144
0.0008202099737533
144
0.0
144
0.0
144
0.0
144
0.0
144
1.0
144
0.0
144
0.0
144
0.0
144
0.0
144
1.0
147
0.0008202099737533
147
0.0
147
0.0
147
0.0
147
0.0
147
0.0008202099737533
147
0.0
147
0.0
147
0.0
147
0.0
147
1.0
147
0.0
147
0.0
147
0.0
147
0.0
147
1.0
  0
MATERIAL
  5
416
102
{ACAD_XDICTIONARY
360
417
102
}
102
{ACAD_REACTORS
330
389
102
}
330
389
100
AcDbMaterial
  1
Global
 72
     0
 43
0.0008202099737533
 43
0.0
 43
0.0
 43
0.0
 43
0.0
 43
0.0008202099737533
 43
0.0
 43
0.0
 43
0.0
 43
0.0
 43
1.0
 43
0.0
 43
0.0
 43
0.0
 43
0.0
 43
1.0
 77
     0
 47
0.0008202099737533
 47
0.0
 47
0.0
 47
0.0
 47
0.0
 47
0.0008202099737533
 47
0.0
 47
0.0
 47
0.0
 47
0.0
 47
1.0
 47
0.0
 47
0.0
 47
0.0
 47
0.0
 47
1.0
171
     0
 49
0.0008202099737533
 49
0.0
 49
0.0
 49
0.0
 49
0.0
 49
0.0008202099737533
 49
0.0
 49
0.0
 49
0.0
 49
0.0
 49
1.0
 49
0.0
 49
0.0
 49
0.0
 49
0.0
 49
1.0
175
     0
142
0.0008202099737533
142
0.0
142
0.0
142
0.0
142
0.0
142
0.0008202099737533
142
0.0
142
0.0
142
0.0
142
0.0
142
1.0
142
0.0
142
0.0
142
0.0
142
0.0
142
1.0
179
     0
144
0.0008202099737533
144
0.0
144
0.0
144
0.0
144
0.0
144
0.0008202099737533
144
0.0
144
0.0
144
0.0
144
0.0
144
1.0
144
0.0
144
0.0
144
0.0
144
0.0
144
1.0
147
0.0008202099737533
147
0.0
147
0.0
147
0.0
147
0.0
147
0.0008202099737533
147
0.0
147
0.0
147
0.0
147
0.0
147
1.0
147
0.0
147
0.0
147
0.0
147
0.0
147
1.0
  0
MLEADERSTYLE
  5
41E
102
{ACAD_REACTORS
330
385
102
}
330
385
100
AcDbMLeaderStyle
170
     2
171
     1
172
     0
 90
        2
 40
0.0
 41
0.0
173
     1
 91
-1056964608
340
14
 92
       -2
290
     1
 42
2.0
291
     1
 43
0.36
  3
Standard
 44
4.0
300

342
11
174
     1
178
     6
175
     1
176
     0
 93
-1056964608
 45
4.0
292
     0
297
     0
 46
4.0
 94
-1056964608
 47
1.0
 49
1.0
140
1.0
293
     1
141
0.0
294
     1
177
     0
142
1.0
295
     0
296
     0
143
0.125
1001
ACAD_MLEADERVER
1070
     2
  0
MLINESTYLE
  5
18
102
{ACAD_REACTORS
330
17
102
}
330
17
100
AcDbMlineStyle
  2
STANDARD
 70
     0
  3

 62
   256
 51
90.0
 52
90.0
 71
     2
 49
0.5
 62
   256
  6
BYLAYER
 49
-0.5
 62
   256
  6
BYLAYER
  0
ACDBPLACEHOLDER
  5
F
102
{ACAD_REACTORS
330
E
102
}
330
E
  0
SCALE
  5
3C
102
{ACAD_REACTORS
330
3B
102
}
330
3B
100
AcDbScale
 70
     0
300
1:1
140
1.0
141
1.0
290
     1
1001
ACAD
1000
AcRTDxfName
1000
SCALE
  0
SCALE
  5
3D
102
{ACAD_REACTORS
330
3B
102
}
330
3B
100
AcDbScale
 70
     0
300
1:2
140
1.0
141
2.0
290
     0
1001
ACAD
1000
AcRTDxfName
1000
SCALE
  0
SCALE
  5
3E
102
{ACAD_REACTORS
330
3B
102
}
330
3B
100
AcDbScale
 70
     0
300
1:4
140
1.0
141
4.0
290
     0
1001
ACAD
1000
AcRTDxfName
1000
SCALE
  0
SCALE
  5
3F
102
{ACAD_REACTORS
330
3B
102
}
330
3B
100
AcDbScale
 70
     0
300
1:5
140
1.0
141
5.0
290
     0
1001
ACAD
1000
AcRTDxfName
1000
SCALE
  0
SCALE
  5
40
102
{ACAD_REACTORS
330
3B
102
}
330
3B
100
AcDbScale
 70
     0
300
1:8
140
1.0
141
8.0
290
     0
1001
ACAD
1000
AcRTDxfName
1000
SCALE
  0
SCALE
  5
41
102
{ACAD_REACTORS
330
3B
102
}
330
3B
100
AcDbScale
 70
     0
300
1:10
140
1.0
141
10.0
290
     0
1001
ACAD
1000
AcRTDxfName
1000
SCALE
  0
SCALE
  5
42
102
{ACAD_REACTORS
330
3B
102
}
330
3B
100
AcDbScale
 70
     0
300
1:16
140
1.0
141
16.0
290
     0
1001
ACAD
1000
AcRTDxfName
1000
SCALE
  0
SCALE
  5
43
102
{ACAD_REACTORS
330
3B
102
}
330
3B
100
AcDbScale
 70
     0
300
1:20
140
1.0
141
20.0
290
     0
1001
ACAD
1000
AcRTDxfName
1000
SCALE
  0
SCALE
  5
44
102
{ACAD_REACTORS
330
3B
102
}
330
3B
100
AcDbScale
 70
     0
300
1:30
140
1.0
141
30.0
290
     0
1001
ACAD
1000
AcRTDxfName
1000
SCALE
  0
SCALE
  5
45
102
{ACAD_REACTORS
330
3B
102
}
330
3B
100
AcDbScale
 70
     0
300
1:40
140
1.0
141
40.0
290
     0
1001
ACAD
1000
AcRTDxfName
1000
SCALE
  0
SCALE
  5
46
102
{ACAD_REACTORS
330
3B
102
}
330
3B
100
AcDbScale
 70
     0
300
1:50
140
1.0
141
50.0
290
     0
1001
ACAD
1000
AcRTDxfName
1000
SCALE
  0
SCALE
  5
47
102
{ACAD_REACTORS
330
3B
102
}
330
3B
100
AcDbScale
 70
     0
300
1:100
140
1.0
141
100.0
290
     0
1001
ACAD
1000
AcRTDxfName
1000
SCALE
  0
SCALE
  5
48
102
{ACAD_REACTORS
330
3B
102
}
330
3B
100
AcDbScale
 70
     0
300
2:1
140
2.0
141
1.0
290
     0
1001
ACAD
1000
AcRTDxfName
1000
SCALE
  0
SCALE
  5
49
102
{ACAD_REACTORS
330
3B
102
}
330
3B
100
AcDbScale
 70
     0
300
4:1
140
4.0
141
1.0
290
     0
1001
ACAD
1000
AcRTDxfName
1000
SCALE
  0
SCALE
  5
4A
102
{ACAD_REACTORS
330
3B
102
}
330
3B
100
AcDbScale
 70
     0
300
8:1
140
8.0
141
1.0
290
     0
1001
ACAD
1000
AcRTDxfName
1000
SCALE
  0
SCALE
  5
4B
102
{ACAD_REACTORS
330
3B
102
}
330
3B
100
AcDbScale
 70
     0
300
10:1
140
10.0
141
1.0
290
     0
1001
ACAD
1000
AcRTDxfName
1000
SCALE
  0
SCALE
  5
4C
102
{ACAD_REACTORS
330
3B
102
}
330
3B
100
AcDbScale
 70
     0
300
100:1
140
100.0
141
1.0
290
     0
1001
ACAD
1000
AcRTDxfName
1000
SCALE
  0
SCALE
  5
4D
102
{ACAD_REACTORS
330
3B
102
}
330
3B
100
AcDbScale
 70
     0
300
1/128" = 1'-0"
140
0.0078125
141
12.0
290
     0
1001
ACAD
1000
AcRTDxfName
1000
SCALE
  0
SCALE
  5
4E
102
{ACAD_REACTORS
330
3B
102
}
330
3B
100
AcDbScale
 70
     0
300
1/64" = 1'-0"
140
0.015625
141
12.0
290
     0
1001
ACAD
1000
AcRTDxfName
1000
SCALE
  0
SCALE
  5
4F
102
{ACAD_REACTORS
330
3B
102
}
330
3B
100
AcDbScale
 70
     0
300
1/32" = 1'-0"
140
0.03125
141
12.0
290
     0
1001
ACAD
1000
AcRTDxfName
1000
SCALE
  0
SCALE
  5
50
102
{ACAD_REACTORS
330
3B
102
}
330
3B
100
AcDbScale
 70
     0
300
1/16" = 1'-0"
140
0.0625
141
12.0
290
     0
1001
ACAD
1000
AcRTDxfName
1000
SCALE
  0
SCALE
  5
51
102
{ACAD_REACTORS
330
3B
102
}
330
3B
100
AcDbScale
 70
     0
300
3/32" = 1'-0"
140
0.09375
141
12.0
290
     0
1001
ACAD
1000
AcRTDxfName
1000
SCALE
  0
SCALE
  5
52
102
{ACAD_REACTORS
330
3B
102
}
330
3B
100
AcDbScale
 70
     0
300
1/8" = 1'-0"
140
0.125
141
12.0
290
     0
1001
ACAD
1000
AcRTDxfName
1000
SCALE
  0
SCALE
  5
53
102
{ACAD_REACTORS
330
3B
102
}
330
3B
100
AcDbScale
 70
     0
300
3/16" = 1'-0"
140
0.1875
141
12.0
290
     0
1001
ACAD
1000
AcRTDxfName
1000
SCALE
  0
SCALE
  5
54
102
{ACAD_REACTORS
330
3B
102
}
330
3B
100
AcDbScale
 70
     0
300
1/4" = 1'-0"
140
0.25
141
12.0
290
     0
1001
ACAD
1000
AcRTDxfName
1000
SCALE
  0
SCALE
  5
55
102
{ACAD_REACTORS
330
3B
102
}
330
3B
100
AcDbScale
 70
     0
300
3/8" = 1'-0"
140
0.375
141
12.0
290
     0
1001
ACAD
1000
AcRTDxfName
1000
SCALE
  0
SCALE
  5
56
102
{ACAD_REACTORS
330
3B
102
}
330
3B
100
AcDbScale
 70
     0
300
1/2" = 1'-0"
140
0.5
141
12.0
290
     0
1001
ACAD
1000
AcRTDxfName
1000
SCALE
  0
SCALE
  5
57
102
{ACAD_REACTORS
330
3B
102
}
330
3B
100
AcDbScale
 70
     0
300
3/4" = 1'-0"
140
0.75
141
12.0
290
     0
1001
ACAD
1000
AcRTDxfName
1000
SCALE
  0
SCALE
  5
58
102
{ACAD_REACTORS
330
3B
102
}
330
3B
100
AcDbScale
 70
     0
300
1" = 1'-0"
140
1.0
141
12.0
290
     0
1001
ACAD
1000
AcRTDxfName
1000
SCALE
  0
SCALE
  5
59
102
{ACAD_REACTORS
330
3B
102
}
330
3B
100
AcDbScale
 70
     0
300
1-1/2" = 1'-0"
140
1.5
141
12.0
290
     0
1001
ACAD
1000
AcRTDxfName
1000
SCALE
  0
SCALE
  5
5A
102
{ACAD_REACTORS
330
3B
102
}
330
3B
100
AcDbScale
 70
     0
300
3" = 1'-0"
140
3.0
141
12.0
290
     0
1001
ACAD
1000
AcRTDxfName
1000
SCALE
  0
SCALE
  5
5B
102
{ACAD_REACTORS
330
3B
102
}
330
3B
100
AcDbScale
 70
     0
300
6" = 1'-0"
140
6.0
141
12.0
290
     0
1001
ACAD
1000
AcRTDxfName
1000
SCALE
  0
SCALE
  5
5C
102
{ACAD_REACTORS
330
3B
102
}
330
3B
100
AcDbScale
 70
     0
300
1'-0" = 1'-0"
140
12.0
141
12.0
290
     0
1001
ACAD
1000
AcRTDxfName
1000
SCALE
  0
TABLESTYLE
  5
38B
102
{ACAD_XDICTIONARY
360
7C5
102
}
102
{ACAD_REACTORS
330
384
102
}
330
384
100
AcDbTableStyle
  3
Standard
 70
     0
 71
     0
 40
1.5
 41
1.5
280
     0
281
     0
  7
Standard
140
4.5
170
     2
 62
     0
 63
     7
283
     0
274
    -2
284
     1
 64
     0
275
    -2
285
     1
 65
     0
276
    -2
286
     1
 66
     0
277
    -2
287
     1
 67
     0
278
    -2
288
     1
 68
     0
279
    -2
289
     1
 69
     0
  7
Standard
140
6.0
170
     5
 62
     0
 63
     7
283
     0
274
    -2
284
     1
 64
     0
275
    -2
285
     1
 65
     0
276
    -2
286
     1
 66
     0
277
    -2
287
     1
 67
     0
278
    -2
288
     1
 68
     0
279
    -2
289
     1
 69
     0
  7
Standard
140
4.5
170
     5
 62
     0
 63
     7
283
     0
274
    -2
284
     1
 64
     0
275
    -2
285
     1
 65
     0
276
    -2
286
     1
 66
     0
277
    -2
287
     1
 67
     0
278
    -2
288
     1
 68
     0
279
    -2
289
     1
 69
     0
  0
VISUALSTYLE
  5
2F
102
{ACAD_REACTORS
330
2A
102
}
330
2A
100
AcDbVisualStyle
  2
2dWireframe
 70
     4
 71
     0
 72
     2
 73
     0
 90
        0
 40
-0.6
 41
-30.0
 62
     5
 63
     7
 74
     1
 91
        4
 64
     7
 65
   257
 75
     1
175
     1
 42
1.0
 92
        0
 66
   257
 43
1.0
 76
     1
 77
     6
 78
     2
 67
     7
 79
     5
170
     0
171
     0
290
     0
174
     0
 93
        1
 44
0.0
173
     0
291
     0
 45
0.0
1001
ACAD
1000
AcRTDxfName
1000
VISUALSTYLE
1000
AcDbSavedByObjectVersion
1070
     0
  0
VISUALSTYLE
  5
31
102
{ACAD_REACTORS
330
2A
102
}
330
2A
100
AcDbVisualStyle
  2
3D Hidden
 70
     6
 71
     1
 72
     2
 73
     2
 90
        0
 40
-0.6
 41
-30.0
 62
     5
 63
     7
 74
     2
 91
        2
 64
     7
 65
   257
 75
     2
175
     1
 42
40.0
 92
        0
 66
   257
 43
1.0
 76
     1
 77
     6
 78
     2
 67
     7
 79
     3
170
     0
171
     0
290
     0
174
     0
 93
        1
 44
0.0
173
     0
291
     0
 45
0.0
1001
ACAD
1000
AcRTDxfName
1000
VISUALSTYLE
1000
AcDbSavedByObjectVersion
1070
     0
  0
VISUALSTYLE
  5
30
102
{ACAD_REACTORS
330
2A
102
}
330
2A
100
AcDbVisualStyle
  2
3dWireframe
 70
     5
 71
     0
 72
     2
 73
     0
 90
        0
 40
-0.6
 41
-30.0
 62
     5
 63
     7
 74
     1
 91
        4
 64
     7
 65
   257
 75
     1
175
     1
 42
1.0
 92
        0
 66
   257
 43
1.0
 76
     1
 77
     6
 78
     2
 67
     7
 79
     5
170
     0
171
     0
290
     0
174
     0
 93
        1
 44
0.0
173
     0
291
     0
 45
0.0
1001
ACAD
1000
AcRTDxfName
1000
VISUALSTYLE
1000
AcDbSavedByObjectVersion
1070
     0
  0
VISUALSTYLE
  5
32
102
{ACAD_REACTORS
330
2A
102
}
330
2A
100
AcDbVisualStyle
  2
Basic
 70
     7
 71
     1
 72
     0
 73
     1
 90
        0
 40
-0.6
 41
-30.0
 62
     5
 63
     7
 74
     0
 91
        4
 64
     7
 65
   257
 75
     1
175
     1
 42
1.0
 92
        8
 66
     7
 43
1.0
 76
     1
 77
     6
 78
     2
 67
     7
 79
     5
170
     0
171
     0
290
     0
174
     0
 93
        1
 44
0.0
173
     0
291
     1
 45
0.0
1001
ACAD
1000
AcRTDxfName
1000
VISUALSTYLE
1000
AcDbSavedByObjectVersion
1070
     0
  0
VISUALSTYLE
  5
36
102
{ACAD_REACTORS
330
2A
102
}
330
2A
100
AcDbVisualStyle
  2
Brighten
 70
    12
 71
     2
 72
     2
 73
     0
 90
        0
 40
-0.6
 41
-30.0
 62
     5
 63
     7
 74
     1
 91
        4
 64
     7
 65
   257
 75
     1
175
     1
 42
1.0
 92
        8
 66
     7
 43
1.0
 76
     1
 77
     6
 78
     2
 67
     7
 79
     5
170
     0
171
     0
290
     0
174
     0
 93
        1
 44
50.0
173
     0
291
     1
 45
0.0
1001
ACAD
1000
AcRTDxfName
1000
VISUALSTYLE
1000
AcDbSavedByObjectVersion
1070
     0
  0
VISUALSTYLE
  5
3A
102
{ACAD_REACTORS
330
2A
102
}
330
2A
100
AcDbVisualStyle
  2
ColorChange
 70
    16
 71
     2
 72
     2
 73
     3
 90
        0
 40
-0.6
 41
-30.0
 62
     5
 63
     8
 74
     1
 91
        4
 64
     7
 65
   257
 75
     1
175
     1
 42
1.0
 92
        8
 66
     8
 43
1.0
 76
     1
 77
     6
 78
     2
 67
     7
 79
     5
170
     0
171
     0
290
     0
174
     0
 93
        1
 44
0.0
173
     0
291
     1
 45
0.0
1001
ACAD
1000
AcRTDxfName
1000
VISUALSTYLE
1000
AcDbSavedByObjectVersion
1070
     0
  0
VISUALSTYLE
  5
34
102
{ACAD_REACTORS
330
2A
102
}
330
2A
100
AcDbVisualStyle
  2
Conceptual
 70
     9
 71
     3
 72
     2
 73
     0
 90
        0
 40
-0.6
 41
-30.0
 62
     5
 63
     7
 74
     2
 91
        2
 64
     7
 65
   257
 75
     1
175
     1
 42
40.0
 92
        8
 66
     7
 43
1.0
 76
     1
 77
     6
 78
     2
 67
     7
 79
     3
170
     0
171
     0
290
     0
174
     0
 93
        1
 44
0.0
173
     0
291
     0
 45
0.0
1001
ACAD
1000
AcRTDxfName
1000
VISUALSTYLE
1000
AcDbSavedByObjectVersion
1070
     0
  0
VISUALSTYLE
  5
35
102
{ACAD_REACTORS
330
2A
102
}
330
2A
100
AcDbVisualStyle
  2
Dim
 70
    11
 71
     2
 72
     2
 73
     0
 90
        0
 40
-0.6
 41
-30.0
 62
     5
 63
     7
 74
     1
 91
        4
 64
     7
 65
   257
 75
     1
175
     1
 42
1.0
 92
        8
 66
     7
 43
1.0
 76
     1
 77
     6
 78
     2
 67
     7
 79
     5
170
     0
171
     0
290
     0
174
     0
 93
        1
 44
-50.0
173
     0
291
     1
 45
0.0
1001
ACAD
1000
AcRTDxfName
1000
VISUALSTYLE
1000
AcDbSavedByObjectVersion
1070
     0
  0
VISUALSTYLE
  5
39
102
{ACAD_REACTORS
330
2A
102
}
330
2A
100
AcDbVisualStyle
  2
Facepattern
 70
    15
 71
     2
 72
     2
 73
     0
 90
        0
 40
-0.6
 41
-30.0
 62
     5
 63
     7
 74
     1
 91
        4
 64
     7
 65
   257
 75
     1
175
     1
 42
1.0
 92
        8
 66
     7
 43
1.0
 76
     1
 77
     6
 78
     2
 67
     7
 79
     5
170
     0
171
     0
290
     0
174
     0
 93
        1
 44
0.0
173
     0
291
     1
 45
0.0
1001
ACAD
1000
AcRTDxfName
1000
VISUALSTYLE
1000
AcDbSavedByObjectVersion
1070
     0
  0
VISUALSTYLE
  5
2B
102
{ACAD_REACTORS
330
2A
102
}
330
2A
100
AcDbVisualStyle
  2
Flat
 70
     0
 71
     2
 72
     1
 73
     1
 90
        2
 40
-0.6
 41
30.0
 62
     5
 63
     7
 74
     0
 91
        4
 64
     7
 65
   257
 75
     1
175
     1
 42
1.0
 92
        8
 66
     7
 43
1.0
 76
     1
 77
     6
 78
     2
 67
     7
 79
     5
170
     0
171
     0
290
     0
174
     0
 93
       13
 44
0.0
173
     0
291
     1
 45
0.0
1001
ACAD
1000
AcRTDxfName
1000
VISUALSTYLE
1000
AcDbSavedByObjectVersion
1070
     0
  0
VISUALSTYLE
  5
2C
102
{ACAD_REACTORS
330
2A
102
}
330
2A
100
AcDbVisualStyle
  2
FlatWithEdges
 70
     1
 71
     2
 72
     1
 73
     1
 90
        2
 40
-0.6
 41
30.0
 62
     5
 63
     7
 74
     1
 91
        4
 64
     7
 65
   257
 75
     1
175
     1
 42
1.0
 92
        0
 66
   257
 43
1.0
 76
     1
 77
     6
 78
     2
 67
     7
 79
     5
170
     0
171
     0
290
     0
174
     0
 93
       13
 44
0.0
173
     0
291
     1
 45
0.0
1001
ACAD
1000
AcRTDxfName
1000
VISUALSTYLE
1000
AcDbSavedByObjectVersion
1070
     0
  0
VISUALSTYLE
  5
2D
102
{ACAD_REACTORS
330
2A
102
}
330
2A
100
AcDbVisualStyle
  2
Gouraud
 70
     2
 71
     2
 72
     2
 73
     1
 90
        2
 40
-0.6
 41
30.0
 62
     5
 63
     7
 74
     0
 91
        4
 64
     7
 65
   257
 75
     1
175
     1
 42
1.0
 92
        0
 66
     7
 43
1.0
 76
     1
 77
     6
 78
     2
 67
     7
 79
     5
170
     0
171
     0
290
     0
174
     0
 93
       13
 44
0.0
173
     0
291
     1
 45
0.0
1001
ACAD
1000
AcRTDxfName
1000
VISUALSTYLE
1000
AcDbSavedByObjectVersion
1070
     0
  0
VISUALSTYLE
  5
2E
102
{ACAD_REACTORS
330
2A
102
}
330
2A
100
AcDbVisualStyle
  2
GouraudWithEdges
 70
     3
 71
     2
 72
     2
 73
     1
 90
        2
 40
-0.6
 41
30.0
 62
     5
 63
     7
 74
     1
 91
        4
 64
     7
 65
   257
 75
     1
175
     1
 42
1.0
 92
        0
 66
   257
 43
1.0
 76
     1
 77
     6
 78
     2
 67
     7
 79
     5
170
     0
171
     0
290
     0
174
     0
 93
       13
 44
0.0
173
     0
291
     1
 45
0.0
1001
ACAD
1000
AcRTDxfName
1000
VISUALSTYLE
1000
AcDbSavedByObjectVersion
1070
     0
  0
VISUALSTYLE
  5
38
102
{ACAD_REACTORS
330
2A
102
}
330
2A
100
AcDbVisualStyle
  2
Linepattern
 70
    14
 71
     2
 72
     2
 73
     0
 90
        0
 40
-0.6
 41
-30.0
 62
     5
 63
     7
 74
     1
 91
        4
 64
     7
 65
   257
 75
     7
175
     7
 42
1.0
 92
        8
 66
     7
 43
1.0
 76
     1
 77
     6
 78
     2
 67
     7
 79
     5
170
     0
171
     0
290
     0
174
     0
 93
        1
 44
0.0
173
     0
291
     1
 45
0.0
1001
ACAD
1000
AcRTDxfName
1000
VISUALSTYLE
1000
AcDbSavedByObjectVersion
1070
     0
  0
VISUALSTYLE
  5
33
102
{ACAD_REACTORS
330
2A
102
}
330
2A
100
AcDbVisualStyle
  2
Realistic
 70
     8
 71
     2
 72
     2
 73
     0
 90
        0
 40
-0.6
 41
-30.0
 62
     5
 63
     7
 74
     1
 91
        0
 64
     7
 65
   257
 75
     1
175
     1
 42
1.0
 92
        8
 66
     8
 43
1.0
 76
     1
 77
     6
 78
     2
 67
     7
 79
     5
170
     0
171
     0
290
     0
174
     0
 93
       13
 44
0.0
173
     0
291
     0
 45
0.0
1001
ACAD
1000
AcRTDxfName
1000
VISUALSTYLE
1000
AcDbSavedByObjectVersion
1070
     0
  0
VISUALSTYLE
  5
37
102
{ACAD_REACTORS
330
2A
102
}
330
2A
100
AcDbVisualStyle
  2
Thicken
 70
    13
 71
     2
 72
     2
 73
     0
 90
        0
 40
-0.6
 41
-30.0
 62
     5
 63
     7
 74
     1
 91
        4
 64
     7
 65
   257
 75
     1
175
     1
 42
1.0
 92
       12
 66
     7
 43
1.0
 76
     1
 77
     6
 78
     2
 67
     7
 79
     5
170
     0
171
     0
290
     0
174
     0
 93
        1
 44
0.0
173
     0
291
     1
 45
0.0
1001
ACAD
1000
AcRTDxfName
1000
VISUALSTYLE
1000
AcDbSavedByObjectVersion
1070
     0
  0
DICTIONARYVAR
  5
383
102
{ACAD_REACTORS
330
382
102
}
330
382
100
DictionaryVariables
280
     0
  1
1:1
  0
DICTIONARYVAR
  5
7C0
102
{ACAD_REACTORS
330
382
102
}
330
382
100
DictionaryVariables
280
     0
  1
STANDARD
  0
DICTIONARYVAR
  5
402
102
{ACAD_REACTORS
330
382
102
}
330
382
100
DictionaryVariables
280
     0
  1
STANDARD
  0
DICTIONARYVAR
  5
403
102
{ACAD_REACTORS
330
382
102
}
330
382
100
DictionaryVariables
280
     0
  1
1
  0
DICTIONARYVAR
  5
7C2
102
{ACAD_REACTORS
330
382
102
}
330
382
100
DictionaryVariables
280
     0
  1
0
  0
DICTIONARYVAR
  5
404
102
{ACAD_REACTORS
330
382
102
}
330
382
100
DictionaryVariables
280
     0
  1

  0
DICTIONARYVAR
  5
7C4
102
{ACAD_REACTORS
330
382
102
}
330
382
100
DictionaryVariables
280
     0
  1
80.000000
  0
DICTIONARYVAR
  5
7C3
102
{ACAD_REACTORS
330
382
102
}
330
382
100
DictionaryVariables
280
     0
  1
5.000000
  0
DICTIONARYVAR
  5
7C1
102
{ACAD_REACTORS
330
382
102
}
330
382
100
DictionaryVariables
280
     0
  1
127
  0
DICTIONARY
  5
450
330
1E
100
AcDbDictionary
280
     1
281
     1
  3
ACAD_XREC_ROUNDTRIP
360
7C9
  3
ADSK_XREC_LAYOUTTHUMBNAIL
360
451
  0
DICTIONARY
  5
7CA
330
22
100
AcDbDictionary
280
     1
281
     1
  3
ACAD_XREC_ROUNDTRIP
360
7CB
  0
DICTIONARY
  5
40F
330
40E
100
AcDbDictionary
280
     1
281
     1
  3
ACAD_XREC_ROUNDTRIP
360
7CE
  3
BUMPTILE
360
411
  3
DIFFUSETILE
360
410
  3
OPACITYTILE
360
414
  3
REFLECTIONTILE
360
413
  3
REFRACTIONTILE
360
415
  3
SPECULARTILE
360
412
  0
DICTIONARY
  5
407
330
406
100
AcDbDictionary
280
     1
281
     1
  3
ACAD_XREC_ROUNDTRIP
360
7CD
  3
BUMPTILE
360
409
  3
DIFFUSETILE
360
408
  3
OPACITYTILE
360
40C
  3
REFLECTIONTILE
360
40B
  3
REFRACTIONTILE
360
40D
  3
SPECULARTILE
360
40A
  0
DICTIONARY
  5
417
330
416
100
AcDbDictionary
280
     1
281
     1
  3
ACAD_XREC_ROUNDTRIP
360
7CF
  3
BUMPTILE
360
419
  3
DIFFUSETILE
360
418
  3
OPACITYTILE
360
41C
  3
REFLECTIONTILE
360
41B
  3
REFRACTIONTILE
360
41D
  3
SPECULARTILE
360
41A
  0
DICTIONARY
  5
7C5
330
38B
100
AcDbDictionary
280
     1
281
     1
  3
ACAD_ROUNDTRIP_2008_TABLESTYLE_CELLSTYLEMAP
360
7C6
  3
ACAD_XREC_ROUNDTRIP
360
7CC
  0
XRECORD
  5
7C9
102
{ACAD_REACTORS
330
450
102
}
330
450
100
AcDbXrecord
280
     1
102
SHADEPLOT
 70
     0
102
SHADEPLOTRESLEVEL
 70
     2
102
SHADEPLOTCUSTOMDPI
 70
   300
  0
XRECORD
  5
451
102
{ACAD_REACTORS
330
450
102
}
330
450
100
AcDbXrecord
280
     1
310
28000000B40000007F00000001000800000000004C590000000000000000000000010000000000000000000000FF0000000000000000000000000000000000000000000000000000000000000000000000000000330000006600000099000000CC000000FF00000000330000333300006633000099330000CC330000FF3300
310
0000660000336600006666000099660000CC660000FF66000000990000339900006699000099990000CC990000FF99000000CC000033CC000066CC000099CC0000CCCC0000FFCC000000FF000033FF000066FF000099FF0000CCFF0000FFFF000000003300330033006600330099003300CC003300FF003300003333003333
310
33006633330099333300CC333300FF33330000663300336633006666330099663300CC663300FF66330000993300339933006699330099993300CC993300FF99330000CC330033CC330066CC330099CC3300CCCC3300FFCC330000FF330033FF330066FF330099FF3300CCFF3300FFFF330000006600330066006600660099
310
006600CC006600FF00660000336600333366006633660099336600CC336600FF33660000666600336666006666660099666600CC666600FF66660000996600339966006699660099996600CC996600FF99660000CC660033CC660066CC660099CC6600CCCC6600FFCC660000FF660033FF660066FF660099FF6600CCFF6600
310
FFFF660000009900330099006600990099009900CC009900FF00990000339900333399006633990099339900CC339900FF33990000669900336699006666990099669900CC669900FF66990000999900339999006699990099999900CC999900FF99990000CC990033CC990066CC990099CC9900CCCC9900FFCC990000FF99
310
0033FF990066FF990099FF9900CCFF9900FFFF99000000CC003300CC006600CC009900CC00CC00CC00FF00CC000033CC003333CC006633CC009933CC00CC33CC00FF33CC000066CC003366CC006666CC009966CC00CC66CC00FF66CC000099CC003399CC006699CC009999CC00CC99CC00FF99CC0000CCCC0033CCCC0066CC
310
CC0099CCCC00CCCCCC00FFCCCC0000FFCC0033FFCC0066FFCC0099FFCC00CCFFCC00FFFFCC000000FF003300FF006600FF009900FF00CC00FF00FF00FF000033FF003333FF006633FF009933FF00CC33FF00FF33FF000066FF003366FF006666FF009966FF00CC66FF00FF66FF000099FF003399FF006699FF009999FF00CC
310
99FF00FF99FF0000CCFF0033CCFF0066CCFF0099CCFF00CCCCFF00FFCCFF0000FFFF0033FFFF0066FFFF0099FFFF00CCFFFF00FFFFFF00000000000D0D0D001A1A1A00282828003535350043434300505050005D5D5D006B6B6B00787878008686860093939300A1A1A100AEAEAE00BBBBBB00C9C9C900D6D6D600E4E4E400
310
F1F1F100FFFFFF0000000000000000000000000000000000000000000000000000000000000000000000000000000000F5F5F5F5F5F5F5F5F5F5F5F5F5F5F5F5F5F5F5F5F5F5F5F5F5F5F5F5F5F5F5F5F5F5F5F5F5F5F5F5F5F5F5F5F5F5F5F5F5F5F5F5F5F5F5F5F5F5F5F5F5F5F5F5F5F5F5F5F5F5F5F5F5F5F5F5F5F5F5
310
F5F5F5F5F5F5F5F5F5F5F5F5F5F5F5F5F5F5F5F5F5F5F5F5F5F5F5F5F5F5F5F5F5F5F5F5F5F5F5F5F5F5F5F5F5F5F5F5F5F5F5F5F5F5F5F5F5F5F5F5F5F5F5F5F5F5F5F5F5F5F5F5F5F5F5F5F5F5F5F5F5F5F5F5F5F5F5F5F5F5F5F5F5F5F5F5F5F5F5F5F5F5E2E2E2E2E2E2E2E2E2E2E2E2E2E2E2E2E2E2E2E2E2E2E2E2E2
310
E2E2E2E2E2E2E2E2E2E2E2E2E2E2E2E2E2E2E2E2E2E2E2E2E2E2E2E2E2E2E2E2E2E2E2E2E2E2E2E2E2E2E2E2E2E2E2E2E2E2E2E2E2E2E2E2E2E2E2E2E2E2E2E2E2E2E2E2E2E2E2E2E2E2E2E2E2E2E2E2E2E2E2E2E2E2E2E2E2E2E2E2E2E2E2E2E2E2E2E2E2E2E2E2E2E2E2E2E2E2E2E2E2E2E2E2E2E2E2E2E2E2E2E2E2E2E2
310
E2E2E2E2E2E2E2E2E2E2E2E2E2E2E2E2E2E2E2E2E2E2E2E2E2E2F5F5E2F5F5F5F5F5F5F5F5F5E2E2E2E2E2E2E2E2E2F5F5F5F5F5F5F5F5F5F5F5F5F5F5F5F5E2E2E2E2E2E2E2E2E2F5F5F5F5F5F5F5F5F5F5F5F5F5F5F5F5E2E2E2E2E2E2E2E2E2F5F5F5F5F5F5F5F5F5F5F5F5F5F5F5F5E2E2E2E2E2E2E2E2E2F5F5F5F5F5
310
F5F5F5F5F5F5F5F5F5F5F5E2E2E2E2E2E2E2E2E2F5F5F5F5F5F5F5F5F5F5F5F5F5F5F5F5E2E2E2E2E2E2E2E2E2F5F5F5F5F5F5F5F5F5F5F5F5F5F5F5F5E2E2E2E2E2E2E2E2E2F5F5F5F5F5F5F5F5E2F5F5E2F5E2E2E2E2E2E2E2E2E2E2E2E2E2E2E2E2E2E2E2E2E2E2E2E2E2E2E2E2E2E2E2E2E2E2E2E2E2E2E2E2E2E2E2E2
310
E2E2E2E2E2E2E2E2E2E2E2E2E2E2E2E2E2E2E2E2E2E2E2E2E2E2E2E2E2E2E2E2E2E2E2E2E2E2E2E2E2E2E2E2E2E2E2E2E2E2E2E2E2E2E2E2E2E2E2E2E2E2E2E2E2E2E2E2E2E2E2E2E2E2E2E2E2E2E2E2E2E2E2E2E2E2E2E2E2E2E2E2E2E2E2E2E2E2E2E2E2E2E2E2E2E2E2E2E2E2E2E2E2E2E2E2E2E2E2E2E2E2E2E2E2E2E2
310
E2E2E2F5E2F5F5E2F5E2F5F5F5F5F5F5F5F5F5F5F5F5F5F5F5F5F5F5F5F5F5F5F5F5F5F5F5F5F5F5F5F5F5F5F5F5F5F5F5F5F5F5F5F5F5F5F5F5F5F5F5F5F5F5F5F5F5F5F5F5F5F5F5F5F5F5F5F5F5F5F5F5F5F5F5F5F5F5F5F5F5F5F5F5F5F5F5F5F5F5F5F5F5F5F5F5F5F5F5F5F5F5F5F5F5F5F5F5F5F5F5F5F5F5F5F5F5
310
F5F5F5F5F5F5F5F5F5F5F5F5F5F5F5F5F5F5F5F5F5F5F5F5F5F5F5F5F5F5F5F5F5F5F5F5F5F5F5F5F5F5F5F5F5F5F5F5F5F5F5F5F5F5E2E2F5E2F5F5E2F5E2F5E2E2E2E2E2E2E2E2E2E2E2E2E2E2E2E2E2E2E2E2E2E2E2E2E2E2E2E2E2E2E2E2E2E2E2E2E2E2E2E2E2E2E2E2E2E2E2E2E2E2E2E2E2E2E2E2E2E2E2E2E2E2E2
310
E2E2E2E2E2E2E2E2E2E2E2E2E2E2E2E2E2E2E2E2E2E2E2E2E2E2E2E2E2E2E2E2E2E2E2E2E2E2E2E2E2E2E2E2E2E2E2E2E2E2E2E2E2E2E2E2E2E2E2E2E2E2E2E2E2E2E2E2E2E2E2E2E2E2E2E2E2E2E2E2E2E2E2E2E2E2E2E2E2E2E2E2E2E2E2E2E2E2E2E2E2E2E2E2E2E2F5E2E2F5E2F5F5E2F5E2F5E2E2E2E2E2E2E2E2E2E2
310
E2E2E2E2E2E2E2E2E2E2E2E2E2E2E2E2E2E2E2E2E2E2E2E2E2E2E2E2E2E2E2E2E2E2E2E2E2E2E2E2E2E2E2E2E2E2E2E2E2E2E2E2E2E2E2E2E2E2E2E2E2E2E2E2E2E2E2E2E2E2E2E2E2E2E2E2E2E2E2E2E2E2E2E2E2E2E2E2E2E2E2E2E2E2E2E2E2E2E2E2E2E2E2E2E2E2E2E2E2E2E2E2E2E2E2E2E2E2E2E2E2E2E2E2E2E2E2
310
E2E2E2E2E2E2E2E2E2E2E2E2E2E2E2E2E2E2E2E2E2E2E2E2E2E2E2E2E2E2E2E2F5E2E2F5E2F5F5E2F5E2F5E2E2E2E2E2E2E2E2E2E2E2E2E2E2E2E2E2E2E2E2E2E2E2E2E2E2E2E2E2E2E2E2E2E2E2E2E2E2E2E2E2E2E2E2E2E2E2E2E2E2E2E2E2E2E2E2E2E2E2E2E2E2E2E2E2E2E2E2E2E2E2E2E2E2E2E2E2E2E2E2E2E2E2E2
310
E2E2E2E2E2E2E2E2E2E2E2E2E2E2E2E2E2E2E2E2E2E2E2E2E2E2E2E2E2E2E2E2E2E2E2E2E2E2E2E2E2E2E2E2E2E2E2E2E2E2E2E2E2E2E2E2E2E2E2E2E2E2E2E2E2E2E2E2E2E2E2E2E2E2E2E2E2E2E2E2E2E2E2E2E2F5E2E2F5E2F5F5E2F5E2F5E2E2E2E2E2E2E2E2E2E2E2E2E2E2E2E2E2E2E2E2E2E2E2E2E2E2E2E2E2E2E2
310
E2E2E2E2E2E2E2E2E2E2E2E2E2E2E2E2E2E2E2E2E2E2E2E2E2E2E2E2E2E2E2E2E2E2E2E2E2E2E2E2E2E2E2E2E2E2E2E2E2E2E2E2E2E2E2E2E2E2E2E2E2E2E2E2E2E2E2E2E2E2E2E2E2E2E2E2E2E2E2E2E2E2E2E2E2E2E2E2E2E2E2E2E2E2E2E2E2E2E2E2E2E2E2E2E2E2E2E2E2E2E2E2E2E2E2E2E2E2E2E2E2E2E2E2E2E2E2
310
E2E2E2E2E2E2E2E2E2E2E2F5E2E2F5E2F5F5E2F5E2F5E2E2E2E2E2E2E2E2E2E2E2E2E2E2E2E2E2E2E2E2E2E2E2E2E2E2E2E2E2E2E2E2E2E2E2E2E2E2E2E2E2E2E2E2E2E2E2E2E2E2E2E2E2E2E2E2E2E2E2E2E2E2E2E2E2E2E2E2E2E2E2E2E2E2E2E2E2E2E2E2E2E2E2E2E2E2E2E2E2E2E2E2E2E2E2E2E2E2E2E2E2E2E2E2E2
310
E2E2E2E2E2E2E2E2E2E2E2E2E2E2E2E2E2E2E2E2E2E2E2E2E2E2E2E2E2E2E2E2E2E2E2E2E2E2E2E2E2E2E2E2E2E2F5F5F5F5F5E2F5F5F5F5F5F5F5E2E2E2E2E2F5E2E2F5E2F5F5E2E2E2F5E2E2E2E2E2E2E2E2E2E2E2E2E2E2E2E2E2E2E2E2E2E2E2E2E2E2E2E2E2E2E2E2E2E2E2E2E2E2E2E2E2E2E2E2E2E2E2E2E2E2E2E2
310
E2E2E2E2E2E2E2E2E2E2E2E2E2E2E2E2E2E2E2E2E2E2E2E2E2E2E2E2E2E2E2E2E2E2E2E2E2E2E2E2E2E2E2E2E2E2E2E2E2E2E2E2E2E2E2E2E2E2E2E2E2E2E2E2E2E2E2E2E2E2E2E2E2E2E2E2E2E2E2E2E2E2E2E2E2E2E2E2E2E2E2E2E2E2E2E2E2E2E2F5F5F5F5F5F5F5F5F5F5F5F5F5E2E2E2E2E2F5E2E2E2E2F5F5E2E2E2
310
F5E2E2E2E2E2E2E2E2E2E2E2E2E2E2E2E2E2E2E2E2E2E2E2E2E2E2E2E2E2E2E2E2E2E2E2E2E2E2E2E2E2E2E2E2E2E2E2E2E2E2E2E2E2E2E2E2E2E2E2E2E2E2E2E2E2E2E2E2E2E2E2E2E2E2E2E2E2E2E2E2E2E2E2E2E2E2E2E2E2E2E2E2E2E2E2E2E2E2E2E2E2E2E2E2E2E2E2E2E2E2E2E2E2E2E2E2E2E2E2E2E2E2E2E2E2E2
310
E2E2E2E2E2E2E2E2E2E2E2E2E2E2E2E2E2E2E2E2E2E2E2E2E2F5F5F5F5F5F5F5F5F5F5F5F5F5E2E2E2E2E2F5E2E2E2E2F5F5E2E2E2F5E2E2E2E2E2E2E2E2E2E2E2E2E2E2E2E2E2E2E2E2E2E2E2E2E2E2E2E2E2E2E2E2E2E2E2E2E2E2E2E2E2E2E2E2E2E2E2E2E2E2E2E2E2E2E2E2E2E2E2E2E2E2E2E2E2E2E2E2E2E2E2E2E2
310
E2E2E2E2E2E2E2E2E2E2E2E2E2E2E2E2E2E2E2E2E2E2E2E2E2E2E2E2E2E2E2E2E2E2E2E2E2E2E2E2E2E2E2E2E2E2E2E2E2E2E2E2E2E2E2E2E2E2E2E2E2E2E2E2E2E2E2E2E2E2E2E2E2E2E2E2E2E2E2E2E2E2E2E2E2E2E2E2E2E2E2E2E2E2E2E2F5E2E2E2E2F5F5E2E2E2F5E2E2E2E2E2E2E2E2E2E2E2E2E2E2E2E2E2E2E2E2
310
E2E2E2E2E2E2E2E2E2E2E2E2E2E2E2E2E2E2E2E2E2E2E2E2E2E2E2E2E2E2E2E2E2E2E2E2E2E2E2E2E2E2E2E2E2E2E2E2E2E2E2E2E2E2E2E2E2E2E2E2E2E2E2E2E2E2E2E2E2E2E2E2E2E2E2E2E2E2E2E2E2E2E2E2E2E2E2E2E2E2E2E2E2E2E2E2E2E2E2E2E2E2E2E2E2E2E2E2E2E2E2E2E2E2E2E2E2E2E2E2E2E2E2E2E2E2E2
310
E2E2E2E2E2E2E2E2E2E2E2E2E2E2E2E2E2E2E2E2E2E2F5E2E2E2E2F5F5E2E2E2F5E2E2E2E2E2E2E2E2E2E2E2E2E2E2E2E2E2E2E2E2E2E2E2E2E2E2E2E2E2E2E2E2E2E2E2E2E2E2E2E2E2E2E2E2E2E2E2E2E2E2E2E2E2E2E2E2E2E2E2E2E2E2E2E2E2E2E2E2E2E2E2E2E2E2E2E2E2E2E2E2E2E2E2E2E2E2E2E2E2E2E2E2E2E2
310
E2E2E2E2E2E2E2E2E2E2E2E2E2E2E2E2E2E2E2E2E2E2E2E2E2E2E2E2E2E2E2E2E2E2E2E2E2E2E2E2E2E2E2E2E2E2E2E2E2E2E2E2E2E2E2E2E2E2E2E2E2E2E2E2E2E2E2E2E2E2E2E2E2E2E2F5E2E2E2E2F5F5E2E2E2F5E2E2E2E2E2E2E2E2E2E2E2E2E2E2E2E2E2E2E2E2E2E2E2E2E2E2E2E2E2E2E2E2E2E2E2E2E2E2E2E2E2
310
E2E2E2E2E2E2E2E2E2E2E2E2E2E2E2E2E2E2E2E2E2E2E2E2E2E2E2E2E2E2E2E2E2E2E2E2E2E2E2E2E2E2E2E2E2E2E2E2E2E2E2E2E2E2E2E2E2E2E2E2E2E2E2E2E2E2E2E2E2E2E2E2E2E2E2E2E2E2E2E2E2E2E2E2E2E2E2E2E2E2E2E2E2E2E2E2E2E2E2E2E2E2E2E2E2E2E2E2E2E2E2E2E2E2E2E2E2E2E2E2E2E2E2E2E2E2E2
310
E2F5E2E2E2E2F5F5E2E2E2F5E2E2E2E2E2E2E2E2E2E2E2E2E2E2E2E2E2E2E2E2E2E2E2E2E2E2E2E2E2E2E2E2E2E2E2E2E2E2E2E2E2E2E2E2E2E2E2E2E2E2E2E2E2E2E2E2E2E2E2E2E2E2E2E2E2E2E2E2E2E2E2E2E2E2E2E2E2E2E2E2E2E2E2E2E2E2E2E2E2E2E2E2E2E2E2E2E2E2E2E2E2E2E2E2E2E2E2E2E2E2E2E2E2E2E2
310
E2E2E2E2E2E2E2E2E2E2E2E2E2E2E2E2E2E2E2E2E2E2E2E2E2E2E2E2E2E2E2E2E2E2E2E2E2E2E2E2E2E2E2E2E2E2E2E2E2E2E2E2E2E2F5E2E2E2E2F5F5E2E2E2F5E2E2E2E2E2E2E2E2E2E2E2E2E2E2E2E2E2E2E2E2E2E2E2E2E2E2E2E2E2E2E2E2E2E2E2E2E2E2E2E2E2E2E2E2E2E2E2E2E2E2E2E2E2E2E2E2E2E2E2E2E2E2
310
E2E2E2E2E2E2E2E2E2E2E2E2E2E2E2E2E2E2E2E2E2E2E2E2E2E2E2E2E2E2E2E2E2E2E2E2E2E2E2E2E2E2E2E2E2E2E2E2E2E2E2E2E2E2E2E2E2E2E2E2E2E2E2E2E2E2E2E2E2E2E2E2E2E2E2E2E2E2E2E2E2E2E2E2E2E2E2E2E2E2E2E2E2E2E2E2E2E2E2E2E2E2E2E2E2E2E2F5E2E2E2E2F5F5E2E2E2F5E2E2E2E2E2E2E2E2E2
310
E2E2E2E2E2E2E2E2E2E2E2E2E2E2E2E2E2E2E2E2E2E2E2E2E2E2E2E2E2E2E2E2E2E2E2E2E2E2E2E2E2E2E2E2E2E2E2E2E2E2E2E2E2E2E2E2E2E2E2E2E2E2E2E2E2E2E2E2E2E2E2E2E2E2E2E2E2E2E2E2E2E2E2E2E2E2E2E2E2E2E2E2E2E2E2E2E2E2E2E2E2E2E2E2E2E2E2E2E2E2E2E2E2E2E2E2E2E2E2E2E2E2E2E2E2E2E2
310
E2E2E2E2E2E2E2E2E2E2E2E2E2E2E2E2E2E2E2E2E2E2E2E2E2E2E2E2E2E2E2E2E2F5E2E2E2E2F5F5E2F5E2F5E2E2E2E2E2E2E2E2E2E2E2E2E2E2E2E2E2E2E2E2E2E2E2E2E2E2E2E2E2E2E2E2E2E2E2E2E2E2E2E2E2E2E2E2E2E2E2E2E2E2E2E2E2E2E2E2E2E2E2E2E2E2E2E2E2E2E2E2E2E2E2E2E2E2E2E2E2E2E2E2E2E2E2
310
E2E2E2E2E2E2E2E2E2E2E2E2E2E2E2E2E2E2E2E2E2E2E2E2E2E2E2E2E2E2E2E2E2E2E2E2E2E2E2E2E2E2E2E2E2E2E2E2E2E2E2E2E2E2E2E2E2E2E2E2E2E2E2E2E2E2E2E2E2E2E2E2E2E2E2E2E2E2E2E2E2E2E2E2E2E2F5E2E2F5E2F5F5E2F5E2F5E2E2E2E2E2E2E2E2E2E2E2E2E2E2E2E2E2E2E2E2E2E2E2E2E2E2E2E2E2E2
310
E2E2E2E2E2E2E2E2E2E2E2E2E2E2E2E2E2E2E2E2E2E2E2E2E2E2E2E2E2E2E2E2E2E2E2E2E2E2E2E2E2E2E2E2E2E2E2E2E2E2E2E2E2E2E2E2E2E2E2E2E2E2E2E2E2E2E2E2E2E2E2E2E2E2E2E2E2E2E2E2E2E2E2E2E2E2E2E2E2E2E2E2E2E2E2E2E2E2E2E2E2E2E2E2E2E2E2E2E2E2E2E2E2E2E2E2E2E2E2E2E2E2E2E2E2E2E2
310
E2E2E2E2E2E2E2E2E2E2E2E2F5E2E2F5E2F5F5E2F5E2F5E2E2E2E2E2E2E2E2E2E2E2E2E2E2E2E2E2E2E2E2E2E2E2E2E2E2E2E2E2E2E2E2E2E2E2E2E2E2E2E2E2E2E2E2E2E2E2E2E2E2E2E2E2E2E2E2E2E2E2E2E2E2E2E2E2E2E2E2E2E2E2E2E2E2E2E2E2E2E2E2E2E2E2E2E2E2E2E2E2E2E2E2E2E2E2E2E2E2E2E2E2E2E2E2
310
E2E2E2E2E2E2E2E2E2E2E2E2E2E2E2E2E2E2E2E2E2E2E2E2E2E2E2E2E2E2E2E2E2E2E2E2E2E2E2E2E2E2E2E2E2E2E2E2E2E2E2E2E2E2E2E2E2E2E2E2E2E2E2E2E2F5E2E2F5E2F5F5E2F5E2F5E2E2E2E2E2E2E2E2E2E2E2E2E2E2E2E2E2E2E2E2E2E2E2E2E2E2E2E2E2E2E2E2E2E2E2E2E2E2E2E2E2E2E2E2E2E2E2E2E2E2E2
310
E2E2E2E2E2E2E2E2E2E2E2E2E2E2E2E2E2E2E2E2E2E2E2E2E2E2E2E2E2E2E2E2E2E2E2E2E2E2E2E2E2E2E2E2E2E2E2E2E2E2E2E2E2E2E2E2E2E2E2E2E2E2E2E2E2E2E2E2E2E2E2E2E2E2E2E2E2E2E2E2E2E2E2E2E2E2E2E2E2E2E2E2E2E2E2E2E2E2E2E2E2E2E2E2E2E2E2E2E2E2E2E2E2E2E2E2E2E2F5E2E2F5E2F5F5E2F5
310
E2F5E2E2E2E2E2E2E2E2E2E2E2E2E2E2E2E2E2E2E2E2E2E2E2E2E2E2E2E2E2E2E2E2E2E2E2E2E2E2E2E2E2E2E2E2E2E2E2E2E2E2E2E2E2E2E2E2E2E2E2E2E2E2E2E2E2E2E2E2E2E2E2E2E2E2E2E2E2E2E2E2E2E2E2E2E2E2E2E2E2E2E2E2E2E2E2E2E2E2E2E2E2E2E2E2E2E2E2E2E2E2E2E2E2E2E2E2E2E2E2E2E2E2E2E2E2
310
E2E2E2E2E2E2E2E2E2E2E2E2E2E2E2E2E2E2E2E2E2E2E2E2E2E2E2E2E2E2E2E2E2E2E2E2E2E2E2E2E2E2E2E2F5E2E2F5E2F5F5E2F5E2F5E2E2E2E2E2E2E2E2E2E2E2E2E2E2E2E2E2E2E2E2E2E2E2E2E2E2E2E2E2E2E2E2E2E2E2E2E2E2E2E2E2E2E2E2E2E2E2E2E2E2E2E2E2E2E2E2E2E2E2E2E2E2E2E2E2E2E2E2E2E2E2E2
310
E2E2E2E2E2E2E2E2E2E2E2E2E2E2E2E2E2E2E2E2E2E2E2E2E2E2E2E2E2E2E2E2E2E2E2E2E2E2E2E2E2E2E2E2E2E2E2E2E2E2E2E2E2E2E2E2E2E2E2E2E2E2E2E2E2E2E2E2E2E2E2E2E2E2E2E2E2E2E2E2E2E2E2E2E2E2E2E2E2E2E2E2E2E2E2E2E2F5E2E2F5E2F5F5E2F5E2F5E2E2E2E2E2E2E2E2E2E2E2E2E2E2E2E2E2E2E2
310
E2E2E2E2E2E2E2E2E2E2E2F5F5F5F5F5F5F5E2E2E2E2E2E2E2E2E2E2E2E2E2E2E2E2E2E2E2E2E2E2E2E2E2E2E2E2E2E2E2E2E2E2E2E2F5F5F5F5F5F5F5E2E2E2E2E2E2E2E2E2E2E2E2E2E2E2E2E2E2E2F5F5F5F5F5F5F5E2E2E2E2E2E2E2E2E2E2E2E2E2E2E2E2E2E2E2E2E2E2F5F5F5F5F5F5F5E2E2E2E2E2E2E2E2E2E2E2
310
E2E2E2E2E2E2E2E2E2E2E2E2E2E2E2E2E2E2E2E2E2E2E2F5E2E2F5E2F5F5E2F5E2F5E2E2E2E2E2E2E2E2E2E2E2E2E2E2E2E2E2E2E2E2E2E2E2E2E2E2E2E2E2E2E2F5F5F5F5F5F5E2E2E2E2E2E2E2E2E2E2E2E2E2E2E2E2E2E2E2E2E2E2E2E2E2E2E2E2E2E2E2E2E2E2E2E2F5F5F5F5F5F5E2E2E2E2E2E2E2E2E2E2E2E2E2E2
310
E2E2E2E2E2E2F5F5F5F5F5F5F5E2E2E2E2E2E2E2E2E2E2E2E2E2E2E2E2E2E2E2E2E2E2F5F5F5F5F5F5F5E2E2E2E2E2E2E2E2E2E2E2E2E2E2E2E2E2E2E2E2E2E2E2E2E2E2E2E2E2E2E2E2E2E2F5E2E2F5E2F5F5E2F5E2F5E2E2E2E2E2E2E2E2E2E2E2E2E2E2E2E2E2E2E2E2E2E2E2E2E2E2E2E2F5F5F5F5F5F5F5E2E2E2E2E2
310
E2E2E2E2E2E2E2E2E2E2E2E2E2E2E2E2E2E2E2E2E2E2E2E2E2E2E2E2E2E2E2E2E2E2E2F5F5F5E2E2E2E2E2E2E2E2E2E2E2E2E2E2E2E2E2E2E2E2E2E2E2F5F5F5E2E2E2E2E2F5F5F5E2E2E2E2E2E2E2E2E2E2E2E2E2E2E2E2E2E2F5F5F5E2E2E2E2E2E2E2E2E2E2E2E2E2E2E2E2E2E2E2E2E2E2E2E2E2E2E2E2E2E2E2E2E2E2
310
E2E2F5E2E2F5E2F5F5E2F5E2F5E2E2E2E2E2E2E2E2E2E2E2E2E2E2E2E2E2E2E2E2E2E2E2E2E2E2E2E2F5F5E2F5F5F5F5F5E2E2E2E2E2F5F5F5E2E2E2E2E2E2E2E2E2E2E2E2E2E2E2E2E2E2E2F5F5F5E2E2E2E2E2E2E2E2F5F5F5F5F5E2E2E2E2E2E2E2E2E2E2E2E2E2E2E2E2E2E2E2E2E2F5F5F5F5F5E2E2E2E2F5F5F5E2E2
310
E2F5F5F5E2E2E2E2E2E2E2E2E2E2E2F5F5F5F5F5E2E2E2E2E2E2E2E2E2E2E2E2E2E2E2E2E2E2E2E2E2E2E2E2E2E2E2E2E2E2E2E2E2E2E2F5E2E2F5E2F5F5E2F5E2F5E2E2E2E2E2E2E2E2E2E2E2E2E2E2E2E2E2E2E2E2E2E2E2E2E2E2E2E2F5F5F5F5E2E2E2F5F5F5F5F5F5F5F5F5F5F5F5F5F5F5F5F5F5F5F5F5F5F5F5F5F5
310
F5F5F5F5F5F5F5F5F5F5F5F5F5F5E2E2E2F5E2E2E2E2E2E2E2E2E2E2E2E2E2E2E2E2E2E2E2E2E2F5E2E2E2F5F5F5F5F5F5F5F5F5F5F5F5F5F5F5F5F5F5F5F5F5F5F5F5F5F5E2E2E2F5E2E2E2E2E2E2E2E2E2E2E2E2E2E2E2E2E2E2E2E2E2E2E2E2E2E2E2E2E2E2E2E2E2E2E2F5E2E2F5E2F5F5E2F5E2F5E2E2E2E2E2E2E2E2
310
E2E2E2E2E2E2E2E2E2E2E2E2E2E2E2E2E2E2E2E2E2E2E2F5E2E2E2F5E2E2E2E2E2E2E2E2E2E2E2E2E2E2E2E2E2E2E2E2E2E2E2E2E2E2E2E2E2E2E2E2E2E2E2E2E2E2F5E2E2E2F5E2E2E2E2E2E2E2E2E2E2E2E2E2E2E2E2E2E2E2E2E2F5E2E2E2F5E2E2E2E2E2E2E2E2E2E2E2E2E2E2E2E2E2E2E2E2E2E2E2E2F5E2E2E2F5E2
310
E2E2E2E2E2E2E2E2E2E2E2E2E2E2E2E2E2E2E2E2E2E2E2E2E2E2E2E2E2E2E2E2E2E2F5E2E2F5E2F5F5E2F5E2F5E2E2E2E2E2E2E2E2E2E2E2E2E2E2E2E2E2E2E2E2E2E2E2E2E2E2E2E2E2E2E2F5F5F5F5F5E2E2E2E2E2E2E2E2E2E2E2E2E2E2E2E2E2E2E2E2E2E2E2E2E2E2E2E2E2E2E2E2E2E2E2E2E2E2F5F5F5F5F5E2E2E2
310
E2E2E2E2E2E2E2E2E2E2E2E2E2E2E2E2E2F5F5F5F5F5F5E2E2E2E2E2E2E2E2E2E2E2E2E2E2E2E2E2E2E2E2E2E2E2E2F5F5F5F5F5E2E2E2E2E2E2E2E2E2E2E2E2E2E2E2E2E2E2E2E2E2E2E2E2E2E2E2E2E2E2E2E2E2E2E2F5E2E2F5E2F5F5E2F5E2F5E2E2E2E2E2E2E2E2E2E2E2E2E2E2E2E2E2E2E2E2E2E2E2E2E2E2E2E2E2
310
E2E2E2F5F5F5F5F5F5F5F5F5F5F5F5F5F5F5F5F5F5F5F5F5F5F5F5F5F5F5F5F5F5F5F5F5F5F5F5F5F5F5F5F5F5F5F5F5F5E2E2E2E2E2E2E2E2E2E2E2E2E2E2E2E2E2E2E2E2E2F5F5F5E2E2F5F5F5F5F5F5F5F5F5F5F5F5F5F5F5F5F5F5F5F5F5F5F5F5F5F5E2F5F5F5E2E2E2E2E2E2E2E2E2E2E2E2E2E2E2E2E2E2E2E2E2E2
310
E2E2E2E2E2E2E2E2E2E2E2E2E2F5E2E2F5E2F5F5E2F5E2F5E2E2E2E2E2E2E2E2E2E2E2E2E2E2E2E2E2E2E2E2E2E2E2E2E2E2E2E2E2E2E2E2F5F5F5E2E2E2E2F5E2F5F5E2F5E2F5F5E2E2E2E2F5F5F5F5F5F5F5F5E2E2E2E2E2E2F5E2E2E2E2E2E2E2E2F5F5F5E2E2E2E2E2E2E2E2E2E2E2E2E2E2E2E2E2E2E2E2E2F5F5F5E2
310
E2E2E2E2E2E2E2E2E2E2E2F5E2E2E2F5F5E2E2E2E2E2E2E2E2E2E2E2F5F5F5E2E2E2E2E2E2E2E2E2E2E2E2E2E2E2E2E2E2E2E2E2E2E2E2E2E2E2E2E2E2E2E2E2E2E2F5E2E2F5E2F5F5E2F5E2F5E2E2E2E2E2E2E2E2E2E2E2E2E2E2E2E2E2E2E2E2E2E2E2E2E2E2E2E2E2E2F5F5F5F5F5F5F5F5F5F5F5F5F5F5F5F5F5F5F5F5
310
F5F5F5F5F5F5F5F5F5F5F5F5F5F5F5F5F5F5F5F5F5F5F5F5F5F5F5F5F5F5E2E2E2E2E2E2E2E2E2E2E2E2E2E2E2E2E2F5F5F5F5F5F5F5F5F5F5F5F5F5F5F5F5F5F5F5F5F5F5F5F5F5F5F5F5F5F5F5F5F5F5F5F5F5F5F5F5E2E2E2E2E2E2E2E2E2E2E2E2E2E2E2E2E2E2E2E2E2E2E2E2E2E2E2E2E2E2E2E2F5E2E2F5E2F5F5E2
310
E2E2F5E2E2E2E2E2E2E2E2E2E2E2E2E2E2E2E2E2E2E2E2E2E2E2E2E2E2E2E2E2E2F5E2E2E2E2E2E2E2E2E2E2E2E2E2E2E2E2E2E2E2E2E2E2E2E2E2E2E2E2E2E2E2E2E2E2E2E2E2E2E2E2E2E2E2E2E2E2E2E2F5E2E2E2E2E2E2E2E2E2E2E2E2E2E2E2E2E2F5E2E2E2E2E2E2E2E2E2E2E2E2E2E2E2E2E2E2E2E2E2E2E2E2E2E2
310
E2E2E2E2E2E2E2E2E2E2E2F5F5E2E2E2E2E2E2E2E2E2E2E2E2E2E2E2E2E2E2E2E2E2E2E2E2E2E2E2E2E2E2E2E2F5E2E2E2E2F5F5E2E2E2F5E2E2E2E2E2E2E2E2E2E2E2E2E2E2E2E2E2E2E2E2E2E2E2E2E2E2E2E2E2E2F5E2E2E2E2E2E2E2E2E2E2E2E2E2E2E2E2E2E2E2E2E2E2E2E2E2E2E2E2E2E2E2E2E2E2E2E2E2E2E2E2
310
E2E2E2E2E2E2E2E2F5E2E2E2E2E2E2E2E2E2E2E2E2E2E2E2E2E2F5E2E2E2E2E2E2E2E2E2E2E2E2E2E2E2E2E2E2E2E2E2E2E2E2E2E2E2E2E2E2E2E2E2E2E2E2E2F5F5E2E2E2E2E2E2E2E2E2E2E2E2E2E2E2E2E2E2E2E2E2E2E2E2E2E2E2E2E2E2E2E2F5E2E2E2E2F5F5E2E2E2F5E2E2E2E2E2E2E2E2E2E2E2E2E2E2E2E2E2E2
310
E2E2E2E2E2E2E2E2E2E2E2E2F5E2E2E2E2E2E2E2E2E2E2E2E2E2E2E2E2E2E2E2E2E2E2E2E2E2E2E2E2E2E2E2E2E2E2E2E2E2E2E2E2E2E2E2E2E2E2E2F5F5E2E2E2E2E2E2E2E2E2E2E2E2E2E2E2E2E2F5E2E2E2E2E2E2E2E2E2E2E2E2E2E2E2E2E2E2E2E2E2E2E2E2E2E2E2E2E2E2E2E2E2E2E2E2E2F5E2E2E2E2E2E2E2E2E2
310
E2E2E2E2E2E2E2E2E2E2E2E2E2E2E2E2E2E2E2E2E2E2E2E2F5E2E2E2E2F5F5E2E2E2F5E2E2E2E2E2E2E2E2E2E2E2E2E2E2E2E2E2E2E2E2E2E2E2E2E2E2E2E2E2E2E2F5E2E2E2E2E2E2E2E2E2E2E2E2E2E2E2E2E2E2E2E2E2E2E2E2E2E2E2E2E2E2E2E2E2E2E2E2E2E2E2E2E2E2E2E2E2E2F5E2E2E2E2E2E2E2E2E2E2E2E2E2
310
E2E2E2E2E2E2F5E2E2E2E2E2E2E2E2E2E2E2E2E2E2E2E2E2E2E2E2E2E2E2E2E2E2E2E2E2E2E2E2E2E2E2E2F5E2E2E2E2E2E2E2E2E2E2E2E2E2E2E2E2E2E2E2E2E2E2E2E2E2E2E2E2E2E2E2E2E2F5E2E2E2E2F5F5E2E2E2F5E2E2E2E2E2E2E2E2E2E2E2E2E2E2E2E2E2E2E2E2E2E2E2E2E2E2E2E2E2E2E2F5E2E2E2E2E2E2E2
310
E2E2E2E2E2E2E2E2E2E2E2E2E2E2E2E2E2E2E2E2E2E2E2E2E2E2E2E2E2E2E2E2E2E2E2E2E2E2E2F5E2E2E2E2E2E2E2E2E2E2E2E2E2E2E2E2E2E2E2F5E2E2E2E2E2E2E2E2E2E2E2E2E2E2E2E2E2E2E2E2E2E2E2E2E2E2E2E2E2E2E2E2E2E2E2E2F5E2E2E2E2E2E2E2E2E2E2E2E2E2E2E2E2E2E2E2E2E2E2E2E2E2E2E2E2E2E2
310
E2E2E2F5E2E2E2E2F5F5E2E2E2F5E2E2E2E2E2E2E2E2E2E2E2E2E2E2E2E2E2E2E2E2E2E2E2E2E2E2E2E2E2E2E2F5F5F5F5F5F5F5F5F5F5F5F5F5F5F5F5F5F5F5F5F5F5F5F5F5F5F5F5F5F5F5F5F5F5F5F5F5F5F5F5F5F5F5F5F5F5F5F5E2E2E2E2E2E2E2E2E2E2E2E2E2E2E2E2E2E2E2F5F5F5F5F5F5F5F5F5F5F5F5F5F5F5
310
F5F5F5F5F5F5F5F5F5F5F5F5F5F5F5F5F5F5F5F5F5F5F5E2E2E2E2E2E2E2E2E2E2E2E2E2E2E2E2E2E2E2E2E2E2E2E2E2E2E2E2E2E2E2E2E2F5E2E2E2E2F5F5E2E2E2F5E2E2E2E2E2E2E2E2E2E2E2E2E2E2E2E2E2E2E2E2E2E2E2E2E2E2E2E2E2E2E2E2E2E2E2E2E2E2E2E2E2E2E2E2E2E2E2E2E2E2E2E2E2E2E2E2E2E2E2E2
310
E2E2E2E2E2E2E2E2E2E2E2E2E2E2E2E2E2E2E2E2E2E2E2E2E2E2E2E2E2E2E2E2E2E2E2E2E2E2E2E2E2E2E2E2E2E2E2E2E2E2E2E2E2E2E2E2E2E2E2E2E2E2E2E2E2E2E2E2E2E2E2E2E2E2E2E2E2E2E2E2E2E2E2E2E2E2E2E2E2E2E2E2E2E2E2E2E2E2E2E2E2E2E2E2E2E2E2E2E2F5E2E2E2E2F5F5E2E2E2F5E2E2E2E2E2E2E2
310
E2E2E2E2E2E2E2E2E2E2E2E2E2E2E2E2E2E2E2E2E2E2E2E2E2E2E2E2E2E2E2E2E2E2E2E2E2E2E2E2E2E2E2E2E2E2E2E2E2E2E2E2E2E2E2E2E2E2E2E2E2E2E2E2E2E2E2E2E2E2E2E2E2E2E2E2E2E2E2E2E2E2E2E2E2E2E2E2E2E2E2E2E2E2E2E2E2E2E2E2E2E2E2E2E2E2E2E2E2E2E2E2E2E2E2E2E2E2E2E2E2E2E2E2E2E2E2
310
E2E2E2E2E2E2E2E2E2E2E2E2E2E2E2E2E2E2E2E2E2E2E2E2E2E2E2E2E2E2E2E2E2E2E2F5E2E2E2E2F5F5E2F5E2F5E2E2E2E2E2E2E2E2E2E2E2E2E2E2E2E2E2E2E2E2E2E2E2E2E2E2E2E2E2E2E2E2E2E2E2E2E2E2E2E2E2E2E2E2E2E2E2E2E2E2E2E2E2E2E2E2E2E2E2E2E2E2E2E2E2E2E2E2E2E2E2E2E2E2E2E2E2E2E2E2E2
310
E2E2E2E2E2E2E2E2E2E2E2E2E2E2E2E2E2E2E2E2E2E2E2E2E2E2E2E2E2E2E2E2E2E2E2E2E2E2E2E2E2E2E2E2E2E2E2E2E2E2E2E2E2E2E2E2E2E2E2E2E2E2E2E2E2E2E2E2E2E2E2E2E2E2E2E2E2E2E2E2E2E2E2E2E2E2E2E2F5E2E2F5E2F5F5E2F5E2F5E2E2E2E2E2E2E2E2E2E2E2E2E2E2E2E2E2E2E2E2E2E2E2E2E2E2E2E2
310
E2E2E2E2E2E2E2E2E2E2E2E2E2E2E2E2E2E2E2E2E2E2E2E2E2E2E2E2E2E2E2E2E2E2E2E2E2E2E2E2E2E2E2E2E2E2E2E2E2E2E2E2E2E2E2E2E2E2E2E2E2E2E2E2E2E2E2E2E2E2E2E2E2E2E2E2E2E2E2E2E2E2E2E2E2E2E2E2E2E2E2E2E2E2E2E2E2E2E2E2E2E2E2E2E2E2E2E2E2E2E2E2E2E2E2E2E2E2E2E2E2E2E2E2E2E2E2
310
E2E2E2E2E2E2E2E2E2E2E2E2E2E2F5E2E2F5E2F5F5E2F5E2F5E2E2E2E2E2E2E2E2E2E2E2E2E2E2E2E2E2E2E2E2E2E2E2E2E2E2E2E2E2E2E2E2E2E2E2E2E2E2E2E2E2E2E2E2E2E2E2E2E2E2E2E2E2E2E2E2E2E2E2E2E2E2E2E2E2E2E2E2E2E2E2E2E2E2E2E2E2E2E2E2E2E2E2E2E2E2E2E2E2E2E2E2E2E2E2E2E2E2E2E2E2E2
310
E2E2E2E2E2E2E2E2E2E2E2E2E2E2E2E2E2E2E2E2E2E2E2E2E2E2E2E2E2E2E2E2E2E2E2E2E2E2E2E2E2E2E2E2E2E2E2E2E2E2E2E2E2E2E2E2E2E2E2E2E2E2E2E2E2E2E2F5E2E2F5E2F5F5E2F5E2F5E2E2E2E2E2E2E2E2E2E2E2E2E2E2E2E2E2E2E2E2E2E2E2E2E2E2E2E2E2E2E2E2E2E2E2E2E2E2E2E2E2E2E2E2E2E2E2E2E2
310
E2E2E2E2E2E2E2E2E2E2E2E2E2E2E2E2E2E2E2E2E2E2E2E2E2E2E2E2E2E2E2E2E2E2E2E2E2E2E2E2E2E2E2E2E2E2E2E2E2E2E2E2E2E2E2E2E2E2E2E2E2E2E2E2E2E2E2E2E2E2E2E2E2E2E2E2E2E2E2E2E2E2E2E2E2E2E2E2E2E2E2E2E2E2E2E2E2E2E2E2E2E2E2E2E2E2E2E2E2E2E2E2E2E2E2E2E2E2E2E2F5E2E2F5E2F5F5
310
E2F5E2F5E2E2E2E2E2E2E2E2E2E2E2E2E2E2E2E2E2E2E2E2E2E2E2E2E2E2E2E2E2E2E2E2E2E2E2E2E2E2E2E2E2E2E2E2E2E2E2E2E2E2E2E2E2E2E2E2E2E2E2E2E2E2E2E2E2E2E2E2E2E2E2E2E2E2E2E2E2E2E2E2E2E2E2E2E2E2E2E2E2E2E2E2E2E2E2E2E2E2E2E2E2E2E2E2E2E2E2E2E2E2E2E2E2E2E2E2E2E2E2E2E2E2E2
310
E2E2E2E2E2E2E2E2E2E2E2E2E2E2E2E2E2E2E2E2E2E2E2E2E2E2E2E2E2E2E2E2E2E2E2E2E2E2E2E2E2E2E2E2E2E2F5E2E2F5E2F5F5E2F5E2F5E2E2E2E2E2E2E2E2E2E2E2E2E2E2E2E2E2E2E2E2E2E2E2E2E2E2E2E2E2E2E2E2E2E2E2E2E2E2E2E2E2E2E2E2E2E2E2E2E2E2E2E2E2E2E2E2E2E2E2E2E2E2E2E2E2E2E2E2E2E2
310
E2E2E2E2E2E2E2E2E2E2E2E2E2E2E2E2E2E2E2E2E2E2E2E2E2E2E2E2E2E2E2E2E2E2E2E2E2E2E2E2E2E2E2E2E2E2E2E2E2E2E2E2E2E2E2E2E2E2E2E2E2E2E2E2E2E2E2E2E2E2E2E2E2E2E2E2E2E2E2E2E2E2E2E2E2E2E2E2E2E2E2E2E2E2E2E2E2E2E2F5E2E2F5E2F5F5E2F5E2F5E2E2E2E2E2E2E2E2E2E2E2E2E2E2E2E2E2
310
E2E2E2E2E2E2E2E2E2E2E2E2E2E2E2E2E2E2E2E2E2E2E2E2E2E2E2E2E2E2E2E2E2E2E2E2E2E2E2E2E2E2E2E2E2E2E2E2E2E2E2E2E2E2E2E2E2E2E2E2E2E2E2E2E2E2E2E2E2E2E2E2E2E2E2E2E2E2E2E2E2E2E2E2E2E2E2E2E2E2E2E2E2E2E2E2E2E2E2E2E2E2E2E2E2E2E2E2E2E2E2E2E2E2E2E2E2E2E2E2E2E2E2E2E2E2E2
310
E2E2E2E2E2E2E2E2E2E2E2E2E2E2E2E2E2E2E2E2E2E2E2E2E2F5E2E2F5E2F5F5E2F5E2F5E2E2E2E2E2E2E2E2E2E2E2E2E2E2E2E2E2E2E2E2E2E2E2E2E2E2E2E2E2E2E2E2E2E2E2E2E2E2E2E2E2E2E2E2E2E2E2E2E2E2E2E2E2E2E2E2E2E2E2E2E2E2E2E2E2E2E2E2E2E2E2E2E2E2E2E2E2E2E2E2E2E2E2E2E2E2E2E2E2E2E2
310
E2E2E2E2E2E2E2E2E2E2E2E2E2E2E2E2E2E2E2E2E2E2E2E2E2E2E2E2E2E2E2E2E2E2E2E2E2E2E2E2E2E2E2E2E2E2E2E2E2E2E2E2E2E2E2E2E2E2E2E2E2E2E2E2E2E2E2E2E2E2E2E2E2E2E2E2E2E2F5E2E2F5E2F5F5E2F5E2F5E2E2E2E2E2E2E2E2E2E2E2E2E2E2E2E2E2E2E2E2E2E2E2E2E2E2E2E2E2E2E2E2E2E2E2E2E2E2
310
E2E2E2E2E2E2E2E2E2E2E2E2E2E2E2E2E2E2E2E2E2E2E2E2E2E2E2E2E2E2E2E2E2E2E2E2E2E2E2E2E2E2E2E2E2E2E2E2E2E2E2E2E2E2E2E2E2E2E2E2E2E2E2E2E2E2E2E2E2E2E2E2E2E2E2E2E2E2E2E2E2E2E2E2E2E2E2E2E2E2E2E2E2E2E2E2E2E2E2E2E2E2E2E2E2E2E2E2E2E2E2E2E2E2E2E2E2E2E2E2E2E2E2E2E2E2E2
310
E2E2E2E2F5E2E2F5E2F5F5E2F5E2F5E2E2E2E2E2E2E2E2E2E2E2E2E2E2E2E2E2E2E2E2E2E2E2E2E2E2E2E2E2E2E2E2E2E2E2E2E2E2E2E2E2E2E2E2E2E2E2E2E2E2E2E2E2E2E2E2E2E2E2E2E2E2E2E2E2E2E2E2E2E2E2E2E2E2E2E2E2E2E2E2E2E2E2E2E2E2E2E2E2E2E2E2E2E2E2E2E2E2E2E2E2E2E2E2E2E2E2E2E2E2E2E2
310
E2E2E2E2E2E2E2E2E2E2E2E2E2E2E2E2E2E2E2E2E2E2E2E2E2E2E2E2E2E2E2E2E2E2E2E2E2E2E2E2E2E2E2E2E2E2E2E2E2E2E2E2E2E2E2E2E2F5E2E2F5E2F5F5E2F5E2F5E2E2E2E2E2E2E2E2E2E2E2E2E2E2E2E2E2E2E2E2E2E2E2E2E2E2E2E2E2E2E2E2E2E2E2E2E2E2E2E2E2E2E2E2E2E2E2E2E2E2E2E2E2E2E2E2E2E2E2
310
E2E2E2E2E2E2E2E2E2E2E2E2E2E2E2E2E2E2E2E2E2E2E2E2E2E2E2E2E2E2E2E2E2E2E2E2E2E2E2E2E2E2E2E2E2E2E2E2E2E2E2E2E2E2E2E2E2E2E2E2E2E2E2E2E2E2E2E2E2E2E2E2E2E2E2E2E2E2E2E2E2E2E2E2E2E2E2E2E2E2E2E2E2E2E2E2E2E2E2E2E2E2E2E2E2E2E2E2E2E2F5E2E2F5E2F5F5E2F5E2F5E2E2E2E2E2E2
310
E2E2E2E2E2E2E2E2E2E2E2E2E2E2E2E2E2E2E2E2E2E2E2E2E2E2E2E2E2E2E2E2E2E2E2E2E2E2E2E2E2E2E2E2E2E2E2E2E2E2E2E2E2E2E2E2E2E2E2E2E2E2E2E2E2E2E2E2E2E2E2E2E2E2E2E2E2E2E2E2E2E2E2E2E2E2E2E2E2E2E2E2E2E2E2E2E2E2E2E2E2E2E2E2E2E2E2E2E2E2E2E2E2E2E2E2E2E2E2E2E2E2E2E2E2E2E2
310
E2E2E2E2E2E2E2E2E2E2E2E2E2E2E2E2E2E2E2E2E2E2E2E2E2E2E2E2E2E2E2E2E2E2E2E2F5E2E2F5E2F5F5E2F5E2F5E2E2E2E2E2E2E2E2E2E2E2E2E2E2E2E2E2E2E2E2E2E2E2E2E2E2E2E2E2E2E2E2E2E2E2E2E2E2E2E2E2E2E2E2E2E2E2E2E2E2E2E2E2E2E2E2E2E2E2E2E2E2E2E2E2E2E2E2E2E2E2E2E2E2E2E2E2E2E2E2
310
E2E2E2E2E2E2E2E2E2E2E2E2E2E2E2E2E2E2E2E2E2E2E2E2E2E2E2E2E2E2E2E2E2E2E2E2E2E2E2E2E2E2E2E2E2E2E2E2E2E2E2E2E2E2E2E2E2E2E2E2E2E2E2E2E2E2E2E2E2E2E2E2E2E2E2E2E2E2E2E2E2E2E2E2E2E2E2E2E2F5E2E2F5E2F5F5E2F5E2F5E2E2E2E2E2E2E2E2E2E2E2E2E2E2E2E2E2E2E2E2E2E2E2E2E2E2E2
310
E2E2E2E2E2E2E2E2E2E2E2E2E2E2E2E2E2E2E2E2E2E2E2E2E2E2E2E2E2E2E2E2E2E2E2E2E2E2E2E2E2E2E2E2E2E2E2E2E2E2E2E2E2E2E2E2E2E2E2E2E2E2E2E2E2E2E2E2E2E2E2E2E2E2E2E2E2E2E2E2E2E2E2E2E2E2E2E2E2E2E2E2E2E2E2E2E2E2E2E2E2E2E2E2E2E2E2E2E2E2E2E2E2E2E2E2E2E2E2E2E2E2E2E2E2E2E2
310
E2E2E2E2E2E2E2E2E2E2E2E2E2E2E2F5E2E2F5E2F5F5E2F5E2F5E2E2E2E2E2E2E2E2E2E2E2E2E2E2E2E2E2E2E2E2E2E2E2E2E2E2E2E2E2E2E2E2E2E2E2E2E2E2E2E2E2E2E2E2E2E2E2E2E2E2E2E2E2E2E2E2E2E2E2E2E2E2E2E2E2E2E2E2E2E2E2E2E2E2E2E2E2E2E2E2E2E2E2E2E2E2E2E2E2E2E2E2E2E2E2E2E2E2E2E2E2
310
E2E2E2E2E2E2E2E2E2E2E2E2E2E2E2E2E2E2E2E2E2E2E2E2E2E2E2E2E2E2E2E2E2E2E2E2E2E2E2E2E2E2E2E2E2E2E2E2E2E2E2E2E2E2E2E2E2E2E2E2E2E2E2E2E2E2E2E2F5E2E2F5E2F5F5E2F5E2F5E2E2E2E2E2E2E2E2E2E2E2E2E2E2E2E2E2E2E2E2E2E2E2E2E2E2E2E2E2E2F5F5F5F5F5F5F5F5F5F5F5F5F5F5F5F5F5F5
310
F5F5F5F5F5F5F5F5F5F5F5F5F5F5F5F5F5F5F5F5F5F5F5F5F5F5F5F5F5F5F5F5E2E2E2E2E2E2E2E2E2E2E2E2E2E2E2E2E2E2E2E2E2E2E2E2E2E2E2E2E2E2E2E2E2E2E2E2E2E2E2E2E2E2E2E2E2E2E2E2E2E2E2E2E2E2E2E2E2E2E2E2E2E2E2E2E2E2E2E2E2E2E2E2E2E2E2E2E2E2E2E2E2E2E2E2E2E2E2E2E2F5E2E2F5E2F5
310
F5E2E2E2F5E2E2E2E2E2E2E2E2E2E2E2E2E2E2E2E2E2E2E2E2E2E2E2E2E2E2E2E2E2E2F5F5E2E2E2E2E2E2E2E2E2E2E2E2E2E2E2E2E2E2E2E2E2E2E2E2E2E2E2E2E2E2E2E2E2E2E2E2E2E2E2E2E2E2E2E2E2E2F5F5E2E2E2E2E2E2E2E2E2E2E2E2E2E2E2E2E2E2E2E2E2E2E2E2E2E2E2E2E2E2E2E2E2E2E2E2E2E2E2E2E2E2
310
E2E2E2E2E2E2E2E2E2E2E2E2E2E2E2E2E2E2E2E2E2E2E2E2E2E2E2E2E2E2E2E2E2E2E2E2E2E2E2E2E2E2E2E2E2E2E2F5E2E2E2E2F5F5E2E2E2F5E2E2E2E2E2E2E2E2E2E2E2E2E2E2E2E2E2E2E2E2E2E2E2E2E2E2E2E2E2E2F5F5E2E2E2E2E2E2E2E2E2E2E2E2E2E2E2E2E2E2E2E2E2E2E2E2E2E2E2E2E2E2E2E2E2E2E2E2E2
310
E2E2E2E2E2E2E2E2E2F5F5E2E2E2E2E2E2E2E2E2E2E2E2E2E2E2E2E2E2E2E2E2E2E2E2E2E2E2E2E2E2E2E2E2E2E2E2E2E2E2E2E2E2E2E2E2E2E2E2E2E2E2E2E2E2E2E2E2E2E2E2E2E2E2E2E2E2E2E2E2E2E2E2E2E2E2E2E2E2E2E2E2E2E2E2E2E2E2E2E2F5E2E2E2E2F5F5E2E2E2F5E2E2E2E2E2E2E2E2E2E2E2E2E2E2E2E2
310
E2E2E2E2E2E2E2E2E2E2E2E2E2E2F5F5E2E2E2E2E2E2E2E2E2E2E2E2E2E2E2E2E2E2E2E2E2E2E2E2E2E2E2E2E2E2E2E2E2E2E2E2E2E2E2E2E2E2E2E2E2E2F5F5E2E2E2E2E2E2E2E2E2E2E2E2E2E2E2E2E2E2E2E2E2E2E2E2E2E2E2E2E2E2E2E2E2E2E2E2E2E2E2E2E2E2E2E2E2E2E2E2E2E2E2E2E2E2E2E2E2E2E2E2E2E2E2
310
E2E2E2E2E2E2E2E2E2E2E2E2E2E2E2E2E2E2E2E2E2E2E2E2E2E2F5E2E2E2E2F5F5E2E2E2F5E2E2E2E2E2E2E2E2E2E2E2E2E2E2E2E2E2E2E2E2E2E2E2E2E2E2E2E2E2E2F5F5E2E2E2E2E2E2E2E2E2E2E2E2E2E2E2E2E2E2E2E2E2E2E2E2E2E2E2E2E2E2E2E2E2E2E2E2E2E2E2E2E2E2E2E2E2E2F5F5E2E2E2E2E2E2E2E2E2E2
310
E2E2E2E2E2E2E2E2E2E2E2E2E2E2E2E2E2E2E2E2E2E2E2E2E2E2E2E2E2E2E2E2E2E2E2E2E2E2E2E2E2E2E2E2E2E2E2E2E2E2E2E2E2E2E2E2E2E2E2E2E2E2E2E2E2E2E2E2E2E2E2E2E2E2E2E2E2E2E2F5E2E2E2E2F5F5E2E2E2F5E2E2E2E2E2E2E2E2E2E2E2E2E2E2E2E2E2E2E2E2E2E2E2E2E2E2E2E2E2E2F5F5E2E2E2E2E2
310
E2E2E2E2E2E2E2E2E2E2E2E2E2E2E2E2E2E2E2E2E2E2E2E2E2E2E2E2E2E2E2E2E2E2E2E2E2E2E2E2E2F5F5E2E2E2E2E2E2E2E2E2E2E2E2E2E2E2E2E2E2E2E2E2E2E2E2E2E2E2E2E2E2E2E2E2E2E2E2E2E2E2E2E2E2E2E2E2E2E2E2E2E2E2E2E2E2E2E2E2E2E2E2E2E2E2E2E2E2E2E2E2E2E2E2E2E2E2E2E2E2E2E2E2E2E2E2
310
E2E2E2E2E2F5E2E2E2E2F5F5E2E2E2F5E2E2E2E2E2E2E2E2E2E2E2E2E2E2E2E2E2E2E2E2E2E2E2E2E2E2E2E2E2E2F5F5E2E2E2E2E2E2E2E2E2E2E2E2E2E2E2E2E2E2E2E2E2E2E2E2E2E2E2E2E2E2E2E2E2E2E2E2E2E2E2E2E2E2E2E2E2E2F5F5E2E2E2E2E2E2E2E2E2E2E2E2E2E2E2E2E2E2E2E2E2E2E2E2E2E2E2E2E2E2E2
310
E2E2E2E2E2E2E2E2E2E2E2E2E2E2E2E2E2E2E2E2E2E2E2E2E2E2E2E2E2E2E2E2E2E2E2E2E2E2E2E2E2E2E2E2E2E2E2E2E2E2E2E2E2E2E2E2E2E2F5E2E2E2E2F5F5E2E2E2F5E2E2E2E2E2E2E2E2E2E2E2E2E2E2E2E2E2E2E2E2E2E2E2E2E2E2E2E2E2E2F5F5E2E2E2E2E2E2E2E2E2E2E2E2E2E2E2E2E2E2E2E2E2E2E2E2E2E2
310
E2E2E2E2E2E2E2E2E2E2E2E2E2E2E2E2E2E2E2E2F5F5E2E2E2E2E2E2E2E2E2E2E2E2E2E2E2E2E2E2E2E2E2E2E2E2E2E2E2E2E2E2E2E2E2E2E2E2E2E2E2E2E2E2E2E2E2E2E2E2E2E2E2E2E2E2E2E2E2E2E2E2E2E2E2E2E2E2E2E2E2E2E2E2E2E2E2E2E2E2E2E2E2E2E2E2E2E2E2E2E2F5E2E2E2E2F5F5E2E2E2F5E2E2E2E2E2
310
E2E2E2E2E2E2E2E2E2E2E2E2E2E2E2E2E2E2E2E2E2E2E2E2E2F5F5E2E2E2E2E2E2E2E2E2E2E2E2E2E2E2E2E2E2E2E2E2E2E2E2E2E2E2E2E2E2E2E2E2E2E2E2E2E2E2E2E2E2E2E2E2E2F5F5E2E2E2E2E2E2E2E2E2E2E2E2E2E2E2E2E2E2E2E2E2E2E2E2E2E2E2E2E2E2E2E2E2E2E2E2E2E2E2E2E2E2E2E2E2E2E2E2E2E2E2E2
310
E2E2E2E2E2E2E2E2E2E2E2E2E2E2E2E2E2E2E2E2E2E2E2E2E2E2E2E2E2E2E2E2E2E2E2E2E2F5E2E2E2E2F5F5E2E2E2F5E2E2E2E2E2E2E2E2E2E2E2E2E2E2E2E2E2E2E2E2E2E2E2E2E2E2E2E2E2E2F5F5E2E2E2E2E2E2E2E2E2E2E2E2E2E2E2E2E2E2E2E2E2E2E2E2E2E2E2E2E2E2E2E2E2E2E2E2E2E2E2E2E2E2E2E2E2E2F5
310
F5E2E2E2E2E2E2E2E2E2E2E2E2E2E2E2E2E2E2E2E2E2E2E2E2E2E2E2E2E2E2E2E2E2E2E2E2E2E2E2E2E2E2E2E2E2E2E2E2E2E2E2E2E2E2E2E2E2E2E2E2E2E2E2E2E2E2E2E2E2E2E2E2E2E2E2E2E2E2E2E2E2E2E2E2E2E2E2E2E2F5E2E2E2E2F5F5E2F5E2F5E2E2E2E2E2E2E2E2E2E2E2E2E2E2E2E2E2E2E2E2E2E2E2E2E2E2
310
E2E2E2E2F5F5E2E2E2E2E2E2E2E2E2E2E2E2E2E2E2E2E2E2E2E2E2E2E2E2E2E2E2E2E2E2E2E2E2E2E2E2E2E2E2E2E2E2E2E2E2E2F5F5E2E2E2E2E2E2E2E2E2E2E2E2E2E2E2E2E2E2E2E2E2E2E2E2E2E2E2E2E2E2E2E2E2E2E2E2E2E2E2E2E2E2E2E2E2E2E2E2E2E2E2E2E2E2E2E2E2E2E2E2E2E2E2E2E2E2E2E2E2E2E2E2E2
310
E2E2E2E2E2E2E2E2E2E2E2E2E2E2E2E2F5E2E2F5E2F5F5E2F5E2F5E2E2E2E2E2E2E2E2E2E2E2E2E2E2E2E2E2E2E2E2E2E2E2E2E2E2E2E2E2F5F5F5E2E2E2E2E2E2E2E2E2E2E2E2E2E2E2E2E2E2E2E2E2E2E2E2E2E2E2E2E2E2E2E2E2E2E2E2E2E2E2E2E2E2E2E2E2E2F5F5E2E2E2E2E2E2E2E2E2E2E2E2E2E2E2E2E2E2E2E2
310
E2E2E2E2E2E2E2E2E2E2E2E2E2E2E2E2E2E2E2E2E2E2E2E2E2E2E2E2E2E2E2E2E2E2E2E2E2E2E2E2E2E2E2E2E2E2E2E2E2E2E2E2E2E2E2E2E2E2E2E2E2E2E2E2E2E2E2E2E2F5E2E2F5E2F5F5E2F5E2F5E2E2E2E2E2E2E2E2E2E2E2E2E2E2E2E2E2E2E2E2E2E2E2E2E2E2E2E2F5F5F5F5E2E2E2E2E2E2E2E2E2E2E2E2E2E2E2
310
E2E2E2E2E2E2E2E2E2E2E2E2E2E2E2E2E2E2E2E2E2E2E2E2E2E2E2E2E2E2E2F5F5E2E2E2E2E2E2E2E2E2E2E2E2E2E2E2E2E2E2E2E2E2E2E2E2E2E2E2E2E2E2E2E2E2E2E2E2E2E2E2E2E2E2E2E2E2E2E2E2E2E2E2E2E2E2E2E2E2E2E2E2E2E2E2E2E2E2E2E2E2E2E2E2E2E2E2E2E2E2E2E2E2E2E2E2E2E2E2E2E2F5E2E2F5E2
310
F5F5E2F5E2F5E2E2E2E2E2E2E2E2E2E2E2E2E2E2E2E2E2E2E2E2E2E2E2E2E2E2E2E2F5F5F5F5E2E2E2E2E2E2E2E2E2E2E2E2E2E2E2E2E2E2E2E2E2E2E2E2E2E2E2E2E2E2E2E2E2E2E2E2E2E2E2E2E2E2E2E2E2E2F5F5E2E2E2E2E2E2E2E2E2E2E2E2E2E2E2E2E2E2E2E2E2E2E2E2E2E2E2E2E2E2E2E2E2E2E2E2E2E2E2E2E2
310
E2E2E2E2E2E2E2E2E2E2E2E2E2E2E2E2E2E2E2E2E2E2E2E2E2E2E2E2E2E2E2E2E2E2E2E2E2E2E2E2E2E2E2E2E2E2E2E2F5E2E2F5E2F5F5E2F5E2F5E2E2E2E2E2E2E2E2E2E2E2E2E2E2E2E2E2E2E2E2E2E2E2E2E2E2E2E2E2F5F5F5E2E2E2E2E2E2E2E2E2E2E2E2E2E2E2E2E2E2E2E2E2E2E2E2E2E2E2E2E2E2E2E2E2E2E2E2
310
E2E2E2E2E2E2E2E2E2E2F5F5E2E2E2E2E2E2E2E2E2E2E2E2E2E2E2E2E2E2E2E2E2E2E2E2E2E2E2E2E2E2E2E2E2E2E2E2E2E2E2E2E2E2E2E2E2E2E2E2E2E2E2E2E2E2E2E2E2E2E2E2E2E2E2E2E2E2E2E2E2E2E2E2E2E2E2E2E2E2E2E2E2E2E2E2E2E2E2E2E2F5E2E2F5E2F5F5E2F5E2F5E2E2E2E2E2E2E2E2E2E2E2E2E2E2E2
310
E2E2E2E2E2E2E2E2E2E2E2E2E2E2E2F5F5E2E2E2E2E2E2E2E2E2E2E2E2E2E2E2E2E2E2E2E2E2E2E2E2E2E2E2E2E2E2E2E2E2E2E2E2E2E2E2E2E2E2E2E2E2E2F5F5E2E2E2E2E2E2E2E2E2E2E2E2E2E2E2E2E2E2E2E2E2E2E2E2E2E2E2E2E2E2E2E2E2E2E2E2E2E2E2E2E2E2E2E2E2E2E2E2E2E2E2E2E2E2E2E2E2E2E2E2E2E2
310
E2E2E2E2E2E2E2E2E2E2E2E2E2E2E2E2E2E2E2E2E2E2E2E2E2E2E2F5E2E2F5E2F5F5E2F5E2F5E2E2E2E2E2E2E2E2E2E2E2E2E2E2E2E2E2E2E2E2E2E2E2E2E2E2E2E2E2E2F5F5E2E2E2E2E2E2E2E2E2E2E2E2E2E2E2E2E2E2E2E2E2E2E2E2E2E2E2E2E2E2E2E2E2E2E2E2E2E2E2E2E2E2E2E2E2E2F5F5E2E2E2E2E2E2E2E2E2
310
E2E2E2E2E2E2E2E2E2E2E2E2E2E2E2E2E2E2E2E2E2E2E2E2E2E2E2E2E2E2E2E2E2E2E2E2E2E2E2E2E2E2E2E2E2E2E2E2E2E2E2E2E2E2E2E2E2E2E2E2E2E2E2E2E2E2E2E2E2E2E2E2E2E2E2E2E2E2E2E2F5E2E2F5E2F5F5E2F5E2F5E2E2E2E2E2E2E2E2E2E2E2E2E2E2E2E2E2E2E2F5E2E2E2E2E2E2E2E2E2E2F5F5E2E2E2E2
310
E2E2E2E2E2E2E2E2E2E2E2E2E2E2E2E2E2E2E2E2E2E2E2E2E2E2E2E2E2E2E2E2E2E2E2E2E2E2E2E2E2E2F5F5E2E2E2E2E2E2E2E2E2E2E2E2E2E2E2E2E2E2E2E2E2E2E2E2E2E2E2E2E2E2E2E2E2E2E2E2E2E2E2E2E2E2E2E2E2E2E2E2E2E2E2E2E2E2E2E2E2E2E2E2E2E2E2E2E2E2E2E2E2E2E2E2E2E2E2E2E2E2E2E2E2E2E2
310
E2E2E2E2E2E2F5E2E2F5E2F5F5E2F5E2F5E2E2E2E2E2E2E2E2E2E2E2E2E2E2E2F5F5F5F5E2F5F5F5E2E2E2E2E2E2E2F5F5E2E2E2E2E2E2E2E2E2E2E2E2E2E2E2E2E2E2E2E2E2E2E2E2E2E2E2E2E2E2E2E2E2E2E2E2E2E2E2E2E2E2E2E2E2E2F5F5E2E2E2E2E2E2E2E2E2E2E2E2E2E2E2E2E2E2E2E2E2E2E2E2E2E2E2E2E2E2
310
E2E2E2E2E2E2E2E2E2E2E2E2E2E2E2E2E2E2E2E2E2E2E2E2E2E2E2E2E2E2E2E2E2E2E2E2E2E2E2E2E2E2E2E2E2E2E2E2E2E2E2E2E2E2E2E2E2E2E2F5E2E2F5E2F5F5E2F5E2F5E2E2E2E2E2E2E2E2E2E2E2E2E2F5F5E2E2E2E2E2E2E2E2F5F5E2E2E2E2E2F5F5E2E2E2E2E2E2E2E2E2E2E2E2E2E2E2E2E2E2E2E2E2E2E2E2E2
310
E2E2E2E2E2E2E2E2E2E2E2E2E2E2E2E2E2E2E2E2E2F5F5E2E2E2E2E2E2E2E2E2E2E2E2E2E2E2E2E2E2E2E2E2E2E2E2E2E2E2E2E2E2E2E2E2E2E2E2E2E2E2E2E2E2E2E2E2E2E2E2E2E2E2E2E2E2E2E2E2E2E2E2E2E2E2E2E2E2E2E2E2E2E2E2E2E2E2E2E2E2E2E2E2E2E2E2E2E2E2E2E2F5E2E2F5E2F5F5E2F5E2F5E2E2E2E2
310
E2E2E2E2E2E2E2E2E2E2E2E2E2E2E2E2E2E2E2E2E2F5F5F5F5F5F5F5E2E2E2E2E2E2E2E2E2E2E2E2E2E2E2E2E2E2E2E2E2E2E2E2E2E2E2E2E2E2E2E2E2E2E2E2E2E2E2E2E2E2E2E2E2E2F5F5E2E2E2E2E2E2E2E2E2E2E2E2E2E2E2E2E2E2E2E2E2E2E2E2E2E2E2E2E2E2E2E2E2E2E2E2E2E2E2E2E2E2E2E2E2E2E2E2E2E2E2
310
E2E2E2E2E2E2E2E2E2E2E2E2E2E2E2E2E2E2E2E2E2E2E2E2E2E2E2E2E2E2E2E2E2E2E2E2E2E2F5E2E2F5E2F5F5E2F5E2F5E2E2E2E2E2E2E2E2E2E2E2E2E2E2E2E2E2E2E2E2E2E2E2E2E2E2E2E2E2E2F5F5E2E2E2E2E2E2E2E2E2E2E2E2E2E2E2E2E2E2E2E2E2E2E2E2E2E2E2E2E2E2E2E2E2E2E2E2E2E2E2E2E2E2E2E2E2E2
310
F5F5E2E2E2E2E2E2E2E2E2E2E2E2E2E2E2E2E2E2E2E2E2E2E2E2E2E2E2E2E2E2E2E2E2E2E2E2E2E2E2E2E2E2E2E2E2E2E2E2E2E2E2E2E2E2E2E2E2E2E2E2E2E2E2E2E2E2E2E2E2E2E2E2E2E2E2E2E2E2E2E2E2E2E2E2E2E2E2E2E2F5E2E2F5E2F5F5E2F5E2F5E2E2E2E2E2E2E2E2E2E2E2E2E2E2E2E2E2E2E2E2E2E2E2E2E2
310
E2E2E2E2E2F5F5E2E2E2E2E2E2E2E2E2E2E2E2E2E2E2E2E2E2E2E2E2E2E2E2E2E2E2E2E2E2E2E2E2E2E2E2E2E2E2E2E2E2E2E2E2E2F5F5E2E2E2E2E2E2E2E2E2E2E2E2E2E2E2E2E2E2E2E2E2E2E2E2E2E2E2E2E2E2E2E2E2E2E2E2E2E2E2E2E2E2E2E2E2E2E2E2E2E2E2E2E2E2E2E2E2E2E2E2E2E2E2E2E2E2E2E2E2E2E2E2
310
E2E2E2E2E2E2E2E2E2E2E2E2E2E2E2E2E2F5E2E2F5E2F5F5E2F5E2F5E2E2E2E2E2E2E2E2E2E2E2E2E2E2E2E2E2E2E2E2E2E2E2E2E2E2E2E2E2E2F5F5E2E2E2E2E2E2E2E2E2E2E2E2E2E2E2E2E2E2E2E2E2E2E2E2E2E2E2E2E2E2E2E2E2E2E2E2E2E2E2E2E2E2E2E2E2E2F5F5E2E2E2E2E2E2E2E2E2E2E2E2E2E2E2E2E2E2E2
310
E2E2E2E2E2E2E2E2E2E2E2E2E2E2E2E2E2E2E2E2E2E2E2E2E2E2E2E2E2E2E2E2E2E2E2E2E2E2E2E2E2E2E2E2E2E2E2E2E2E2E2E2E2E2E2E2E2E2E2E2E2E2E2E2E2E2E2E2E2E2F5E2E2F5E2F5F5E2F5E2F5E2E2E2E2E2E2E2E2E2E2E2E2E2E2E2E2E2E2E2E2E2E2E2E2E2E2E2E2E2E2F5F5E2E2E2E2E2E2E2E2E2E2E2E2E2E2
310
E2E2E2E2E2E2E2E2E2E2E2E2E2E2E2E2E2E2E2E2E2E2E2E2E2E2E2E2E2E2E2E2F5F5E2E2E2E2E2E2E2E2E2E2E2E2E2E2E2E2E2E2E2E2E2E2E2E2E2E2E2E2E2E2E2E2E2E2E2E2E2E2E2E2E2E2E2E2E2E2E2E2E2E2E2E2E2E2E2E2E2E2E2E2E2E2E2E2E2E2E2E2E2E2E2E2E2E2E2E2E2E2E2E2E2E2E2E2E2E2E2E2E2F5E2E2F5
310
E2F5F5E2F5E2F5E2E2E2E2E2E2E2E2E2E2E2E2E2E2E2E2E2E2E2E2E2E2E2E2E2E2E2E2E2E2F5F5E2E2E2E2E2E2E2E2E2E2E2E2E2E2E2E2E2E2E2E2E2E2E2E2E2E2E2E2E2E2E2E2E2E2E2E2E2E2E2E2E2E2E2E2E2E2F5F5E2E2E2E2E2E2E2E2E2E2E2E2E2E2E2E2E2E2E2E2E2E2E2E2E2E2E2E2E2E2E2E2E2E2E2E2E2E2E2E2
310
E2E2E2E2E2E2E2E2E2E2E2E2E2E2E2E2E2E2E2E2E2E2E2E2E2E2E2E2E2E2E2E2E2E2E2E2E2E2E2E2E2E2E2E2E2E2E2E2E2F5E2E2F5E2F5F5E2E2E2F5E2E2E2E2E2E2E2E2E2E2E2E2E2E2E2E2E2E2E2E2E2E2E2E2E2E2E2E2E2E2F5F5E2E2E2E2E2E2E2E2E2E2E2E2E2E2E2E2E2E2E2E2E2E2E2E2E2E2E2E2E2E2E2E2E2E2E2
310
E2E2E2E2E2E2E2E2E2E2E2F5F5E2E2E2E2E2E2E2E2E2E2E2E2E2E2E2E2E2E2E2E2E2E2E2E2E2E2E2E2E2E2E2E2E2E2E2E2E2E2E2E2E2E2E2E2E2E2E2E2E2E2E2E2E2E2E2E2E2E2E2E2E2E2E2E2E2E2E2E2E2E2E2E2E2E2E2E2E2E2E2E2E2E2E2E2E2E2E2E2E2F5E2E2E2E2F5F5E2E2E2F5E2E2E2E2E2E2E2E2E2E2E2E2E2E2
310
E2E2E2E2E2E2E2E2E2E2E2E2E2E2E2E2F5F5E2E2E2E2E2E2E2E2E2E2E2E2E2E2E2E2E2E2E2E2E2E2E2E2E2E2E2E2E2E2E2E2E2E2E2E2E2E2E2E2E2E2E2E2E2E2F5F5E2E2E2E2E2E2E2E2E2E2E2E2E2E2E2E2E2E2E2E2E2E2E2E2E2E2E2E2E2E2E2E2E2E2E2E2E2E2E2E2E2E2E2E2E2E2E2E2E2E2E2E2E2E2E2E2E2E2E2E2E2
310
E2E2E2E2E2E2E2E2E2E2E2E2E2E2E2E2E2E2E2E2E2E2E2E2E2E2E2E2F5E2E2E2E2F5F5E2E2E2F5E2E2E2E2E2E2E2E2E2E2E2E2E2E2E2E2E2E2E2E2E2E2E2E2E2E2E2E2E2E2F5F5E2E2E2E2E2E2E2E2E2E2E2E2E2E2E2E2E2E2E2E2E2E2E2E2E2E2E2E2E2E2E2E2E2E2E2E2E2E2E2E2E2E2E2E2E2E2F5F5E2E2E2E2E2E2E2E2
310
E2E2E2E2E2E2E2E2E2E2E2E2E2E2E2E2E2E2E2E2E2E2E2E2E2E2E2E2E2E2E2E2E2E2E2E2E2E2E2E2E2E2E2E2E2E2E2E2E2E2E2E2E2E2E2E2E2E2E2E2E2E2E2E2E2E2E2E2E2E2E2E2E2E2E2E2E2E2E2E2E2F5E2E2E2E2F5F5E2E2E2F5E2E2E2E2E2E2E2E2E2E2E2E2E2E2E2E2E2E2E2E2E2E2E2E2E2E2E2E2E2E2F5F5E2E2E2
310
E2E2E2E2E2E2E2E2E2E2E2E2E2E2E2E2E2E2E2E2E2E2E2E2E2E2E2E2E2E2E2E2E2E2E2E2E2E2E2E2E2E2E2F5F5E2E2E2E2E2E2E2E2E2E2E2E2E2E2E2E2E2E2E2E2E2E2E2E2E2E2E2E2E2E2E2E2E2E2E2E2E2E2E2E2E2E2E2E2E2E2E2E2E2E2E2E2E2E2E2E2E2E2E2E2E2E2E2E2E2E2E2E2E2E2E2E2E2E2E2E2E2E2E2E2E2E2
310
E2E2E2E2E2E2E2F5E2E2E2E2F5F5E2E2E2F5E2E2E2E2E2E2E2E2E2E2E2E2E2E2E2E2E2E2E2E2E2E2E2E2E2E2E2E2E2E2F5F5E2E2E2E2E2E2E2E2E2E2E2E2E2E2E2E2E2E2E2E2E2E2E2E2E2E2E2E2E2E2E2E2E2E2E2E2E2E2E2E2E2E2E2E2E2E2F5F5E2E2E2E2E2E2E2E2E2E2E2E2E2E2E2E2E2E2E2E2E2E2E2E2E2E2E2E2E2
310
E2E2E2E2E2E2E2E2E2E2E2E2E2E2E2E2E2E2E2E2E2E2E2E2E2E2E2E2E2E2E2E2E2E2E2E2E2E2E2E2E2E2E2E2E2E2E2E2E2E2E2E2E2E2E2E2E2E2E2E2F5E2E2E2E2F5F5E2E2E2F5E2E2E2E2E2E2E2E2E2E2E2E2E2E2E2E2E2E2E2E2E2E2E2E2E2E2E2E2E2E2F5F5E2E2E2E2E2E2E2E2E2E2E2E2E2E2E2E2E2E2E2E2E2E2E2E2
310
E2E2E2E2E2E2E2E2E2E2E2E2E2E2E2E2E2E2E2E2E2E2F5F5E2E2E2E2E2E2E2E2E2E2E2E2E2E2E2E2E2E2E2E2E2E2E2E2E2E2E2E2E2E2E2E2E2E2E2E2E2E2E2E2E2E2E2E2E2E2E2E2E2E2E2E2E2E2E2E2E2E2E2E2E2E2E2E2E2E2E2E2E2E2E2E2E2E2E2E2E2E2E2E2E2E2E2E2E2E2E2E2E2F5E2E2E2E2F5F5E2E2E2F5E2E2E2
310
E2E2E2E2E2E2E2E2E2E2E2E2E2E2E2E2E2E2E2E2E2E2E2E2E2E2E2F5F5E2E2E2E2E2E2E2E2E2E2E2E2E2E2E2E2E2E2E2E2E2E2E2E2E2E2E2E2E2E2E2E2E2E2E2E2E2E2E2E2E2E2E2E2E2E2F5F5E2E2E2E2E2E2E2E2E2E2E2E2E2E2E2E2E2E2E2E2E2E2E2E2E2E2E2E2E2E2E2E2E2E2E2E2E2E2E2E2E2E2E2E2E2E2E2E2E2E2
310
E2E2E2E2E2E2E2E2E2E2E2E2E2E2E2E2E2E2E2E2E2E2E2E2E2E2E2E2E2E2E2E2E2E2E2E2E2E2E2F5E2E2E2E2F5F5E2E2E2F5E2E2E2E2E2E2E2E2E2E2E2E2E2E2E2E2E2E2E2E2E2E2E2E2E2E2E2E2E2E2F5F5E2E2E2E2E2E2E2E2E2E2E2E2E2E2E2E2E2E2E2E2E2E2E2E2E2E2E2E2E2E2E2E2E2E2E2E2E2E2E2E2E2E2E2E2E2
310
E2F5F5E2E2E2E2E2E2E2E2E2E2E2E2E2E2E2E2E2E2E2E2E2E2E2E2E2E2E2E2E2E2E2E2E2E2E2E2E2E2E2E2E2E2E2E2E2E2E2E2E2E2E2E2E2E2E2E2E2E2E2E2E2E2E2E2E2E2E2E2E2E2E2E2E2E2E2E2E2E2E2E2E2E2E2E2E2E2E2E2E2F5E2E2E2E2F5F5E2F5E2F5E2E2E2E2E2E2E2E2E2E2E2E2E2E2E2E2E2E2E2E2E2E2E2E2
310
E2E2E2E2E2E2F5F5E2E2E2E2E2E2E2E2E2E2E2E2E2E2E2E2E2E2E2E2E2E2E2E2E2E2E2E2E2E2E2E2E2E2E2E2E2E2E2E2E2E2E2E2E2E2F5F5E2E2E2E2E2E2E2E2E2E2E2E2E2E2E2E2E2E2E2E2E2E2E2E2E2E2E2E2E2E2E2E2E2E2E2E2E2E2E2E2E2E2E2E2E2E2E2E2E2E2E2E2E2E2E2E2E2E2E2E2E2E2E2E2E2E2E2E2E2E2E2
310
E2E2E2E2E2E2E2E2E2E2E2E2E2E2E2E2E2E2F5E2E2F5E2F5F5E2F5E2F5E2E2E2E2E2E2E2E2E2E2E2E2E2E2E2E2E2E2E2E2E2E2E2E2E2E2E2E2E2E2F5F5E2E2E2E2E2E2E2E2E2E2E2E2E2E2E2E2E2E2E2E2E2E2E2E2E2E2E2E2E2E2E2E2E2E2E2E2E2E2E2E2E2E2E2E2E2E2F5F5E2E2E2E2E2E2E2E2E2E2E2E2E2E2E2E2E2E2
310
E2E2E2E2E2E2E2E2E2E2E2E2E2E2E2E2E2E2E2E2E2E2E2E2E2E2E2E2E2E2E2E2E2E2E2E2E2E2E2E2E2E2E2E2E2E2E2E2E2E2E2E2E2E2E2E2E2E2E2E2E2E2E2E2E2E2E2E2E2E2E2F5E2E2F5E2F5F5E2F5E2F5E2E2E2E2E2E2E2E2E2E2E2E2E2E2E2E2E2E2E2E2E2E2E2E2E2E2E2E2E2E2F5F5E2E2E2E2E2E2E2E2E2E2E2E2E2
310
E2E2E2E2E2E2E2E2E2E2E2E2E2E2E2E2E2E2E2E2E2E2E2E2E2E2E2E2E2E2E2E2E2F5F5E2E2E2E2E2E2E2E2E2E2E2E2E2E2E2E2E2E2E2E2E2E2E2E2E2E2E2E2E2E2E2E2E2E2E2E2E2E2E2E2E2E2E2E2E2E2E2E2E2E2E2E2E2E2E2E2E2E2E2E2E2E2E2E2E2E2E2E2E2E2E2E2E2E2E2E2E2E2E2E2E2E2E2E2E2E2E2E2E2F5E2E2
310
F5E2F5F5E2F5E2F5E2E2E2E2E2E2E2E2E2E2E2E2E2E2E2E2E2E2E2E2E2E2E2E2E2E2E2E2E2E2F5F5F5F5F5F5F5F5F5F5F5F5F5F5F5F5F5F5F5F5F5F5F5F5F5F5F5F5F5F5F5F5F5F5F5F5F5F5F5F5F5F5F5F5F5F5F5F5F5F5E2E2E2E2E2E2E2E2E2E2E2E2E2E2E2E2E2E2E2E2E2E2E2E2E2E2E2E2E2E2E2E2E2E2E2E2E2E2E2
310
E2E2E2E2E2E2E2E2E2E2E2E2E2E2E2E2E2E2E2E2E2E2E2E2E2E2E2E2E2E2E2E2E2E2E2E2E2E2E2E2E2E2E2E2E2E2E2E2E2E2F5E2E2F5E2F5F5E2F5E2F5E2E2E2E2E2E2E2E2E2E2E2E2E2E2E2E2E2E2E2E2E2E2E2E2E2E2E2E2E2E2F5F5F5F5F5F5F5F5F5F5F5F5F5F5F5F5F5F5F5F5F5F5F5F5F5F5F5F5F5F5F5F5F5F5F5F5
310
F5F5F5F5F5F5F5F5F5F5F5F5F5F5E2E2E2E2E2E2E2E2E2E2E2E2E2E2E2E2E2E2E2E2E2E2E2E2E2E2E2E2E2E2E2E2E2E2E2E2E2E2E2E2E2E2E2E2E2E2E2E2E2E2E2E2E2E2E2E2E2E2E2E2E2E2E2E2E2E2E2E2E2E2E2E2E2E2E2E2E2E2E2E2E2E2E2E2E2E2E2E2E2F5E2E2F5E2F5F5E2F5E2F5E2E2E2E2E2E2E2E2E2E2E2E2E2
310
E2E2E2E2E2E2E2E2E2E2E2E2E2E2E2E2E2E2E2E2E2E2E2E2E2E2E2E2E2E2E2E2E2E2E2E2E2E2E2E2E2E2E2E2E2E2E2E2E2E2E2E2E2E2E2E2E2E2E2E2E2E2E2E2E2E2E2E2E2E2E2E2E2E2E2E2E2E2E2E2E2E2E2E2E2E2E2E2E2E2E2E2E2E2E2E2E2E2E2E2E2E2E2E2E2E2E2E2E2E2E2E2E2E2E2E2E2E2E2E2E2E2E2E2E2E2E2
310
E2E2E2E2E2E2E2E2E2E2E2E2E2E2E2E2E2E2E2E2E2E2E2E2E2E2E2E2E2F5E2E2F5E2F5F5E2F5E2F5E2E2E2E2E2E2E2E2E2E2E2E2E2E2E2E2E2E2E2E2E2E2E2E2E2E2E2E2E2E2E2E2E2E2E2E2E2E2E2E2E2E2E2E2E2E2E2E2E2E2E2E2E2E2E2E2E2E2E2E2E2E2E2E2E2E2E2E2E2E2E2E2E2E2E2E2E2E2E2E2E2E2E2E2E2E2E2
310
E2E2E2E2E2E2E2E2E2E2E2E2E2E2E2E2E2E2E2E2E2E2E2E2E2E2E2E2E2E2E2E2E2E2E2E2E2E2E2E2E2E2E2E2E2E2E2E2E2E2E2E2E2E2E2E2E2E2E2E2E2E2E2E2E2E2E2E2E2E2E2E2E2E2E2E2E2E2E2E2E2E2F5E2E2F5E2F5F5E2F5E2F5E2E2E2E2E2E2E2E2E2E2E2E2E2E2E2E2E2E2E2E2E2E2E2E2E2E2E2E2E2E2E2E2E2E2
310
E2E2E2E2E2E2E2E2E2E2E2E2E2E2E2E2E2E2E2E2E2E2E2E2E2E2E2E2E2E2E2E2E2E2E2E2E2E2E2E2E2E2E2E2E2E2E2E2E2E2E2E2E2E2E2E2E2E2E2E2E2E2E2E2E2E2E2E2E2E2E2E2E2E2E2E2E2E2E2E2E2E2E2E2E2E2E2E2E2E2E2E2E2E2E2E2E2E2E2E2E2E2E2E2E2E2E2E2E2E2E2E2E2E2E2E2E2E2E2E2E2E2E2E2E2E2E2
310
E2E2E2E2E2E2E2E2F5E2E2F5E2F5F5E2F5E2F5E2E2E2E2E2E2E2E2E2E2E2E2E2E2E2E2E2E2E2E2E2E2E2E2E2E2E2E2E2E2E2E2E2E2E2E2E2E2E2E2E2E2E2E2E2E2E2E2E2E2E2E2E2E2E2E2E2E2E2E2E2E2E2E2E2E2E2E2E2E2E2E2E2E2E2E2E2E2E2E2E2E2E2E2E2E2E2E2E2E2E2E2E2E2E2E2E2E2E2E2E2E2E2E2E2E2E2E2
310
E2E2E2E2E2E2E2E2E2E2E2E2E2E2E2E2E2E2E2E2E2E2E2E2E2E2E2E2E2E2E2E2E2E2E2E2E2E2E2E2E2E2E2E2E2E2E2E2E2E2E2E2E2E2E2E2E2E2E2E2E2F5E2E2F5E2F5F5E2F5E2F5E2E2E2E2E2E2E2E2E2E2E2E2E2E2E2E2E2E2E2E2E2E2E2E2E2E2E2E2E2E2E2E2E2E2E2E2E2E2E2E2E2E2E2E2E2E2E2E2E2E2E2E2E2E2E2
310
E2E2E2E2E2E2E2E2E2E2E2E2E2E2E2E2E2E2E2E2E2E2E2E2E2E2E2E2E2E2E2E2E2E2E2E2E2E2E2E2E2E2E2E2E2E2E2E2E2E2E2E2E2E2E2E2E2E2E2E2E2E2E2E2E2E2E2E2E2E2E2E2E2E2E2E2E2E2E2E2E2E2E2E2E2E2E2E2E2E2E2E2E2E2E2E2E2E2E2E2E2E2E2E2E2E2E2E2E2E2E2E2E2E2F5E2E2F5E2F5F5E2F5E2F5E2E2
310
E2E2E2E2E2E2E2E2E2E2E2E2E2E2E2E2E2E2E2E2E2E2E2E2E2E2E2E2E2E2E2E2E2E2E2E2E2E2E2E2E2E2E2E2E2E2E2E2E2E2E2E2E2E2E2E2E2E2E2E2E2E2E2E2E2E2E2E2E2E2E2E2E2E2E2E2E2E2E2E2E2E2E2E2E2E2E2E2E2E2E2E2E2E2E2E2E2E2E2E2E2E2E2E2E2E2E2E2E2E2E2E2E2E2E2E2E2E2E2E2E2E2E2E2E2E2E2
310
E2E2E2E2E2E2E2E2E2E2E2E2E2E2E2E2E2E2E2E2E2E2E2E2E2E2E2E2E2E2E2E2E2E2E2E2E2E2E2E2F5E2E2F5E2F5F5E2F5E2F5E2E2E2E2E2E2E2E2E2E2E2E2E2E2E2E2E2E2E2E2E2E2E2E2E2E2E2E2E2E2E2E2E2E2E2E2E2E2E2E2E2E2E2E2E2E2E2E2E2E2E2E2E2E2E2E2E2E2E2E2E2E2E2E2E2E2E2E2E2E2E2E2E2E2E2E2
310
E2E2E2E2E2E2E2E2E2E2E2E2E2E2E2E2E2E2E2E2E2E2E2E2E2E2E2E2E2E2E2E2E2E2E2E2E2E2E2E2E2E2E2E2E2E2E2E2E2E2E2E2E2E2E2E2E2E2E2E2E2E2E2E2E2E2E2E2E2E2E2E2E2E2E2E2E2E2E2E2E2E2E2E2E2E2E2E2E2E2E2E2E2F5E2E2F5E2F5F5E2F5E2F5E2E2E2E2E2E2E2E2E2E2E2E2E2E2E2E2E2E2E2E2E2E2E2
310
E2E2E2E2E2E2E2E2E2E2E2E2E2E2E2E2E2E2E2E2E2E2E2E2E2E2E2E2E2E2E2E2E2E2E2E2E2E2E2E2E2E2E2E2E2E2E2E2E2E2E2E2E2E2E2E2E2E2E2E2E2E2E2E2E2E2E2E2E2E2E2E2E2E2E2E2E2E2E2E2E2E2E2E2E2E2E2E2E2E2E2E2E2E2E2E2E2E2E2E2E2E2E2E2E2E2E2E2E2E2E2E2E2E2E2E2E2E2E2E2E2E2E2E2E2E2E2
310
E2E2E2E2E2E2E2E2E2E2E2E2E2E2E2E2E2E2E2F5E2E2F5E2F5F5E2F5E2F5E2E2E2E2E2E2E2E2E2E2E2E2E2E2E2E2E2E2E2E2E2E2E2E2E2E2E2E2E2E2E2E2E2E2E2E2E2E2E2E2E2E2E2E2E2E2E2E2E2E2E2E2E2E2E2E2E2E2E2E2E2E2E2E2E2E2E2E2E2E2E2E2E2E2E2E2E2E2E2E2E2E2E2E2E2E2E2E2E2E2E2E2E2E2E2E2E2
310
E2E2E2E2E2E2E2E2E2E2E2E2E2E2E2E2E2E2E2E2E2E2E2E2E2E2E2E2E2E2E2E2E2E2E2E2E2E2E2E2E2E2E2E2E2E2E2E2E2E2E2E2E2E2E2E2E2E2E2E2E2E2E2E2E2E2E2E2E2E2E2E2F5E2E2F5E2F5F5E2F5E2F5E2E2E2E2E2E2E2E2E2E2E2E2E2E2E2E2E2E2E2E2E2E2E2E2E2E2E2E2E2E2E2E2E2E2E2E2E2E2E2E2E2E2E2E2
310
E2E2E2E2E2E2E2E2E2E2E2E2E2E2E2E2E2E2E2E2E2E2E2E2E2E2E2E2E2E2E2E2E2E2E2E2E2E2E2E2E2E2E2E2E2E2E2E2E2E2E2E2E2E2E2E2E2E2E2E2E2E2E2E2E2E2E2E2E2E2E2E2E2E2E2E2E2E2E2E2E2E2E2E2E2E2E2E2E2E2E2E2E2E2E2E2E2E2E2E2E2E2E2E2E2E2E2E2E2E2E2E2E2E2E2E2E2E2E2E2E2E2E2E2E2F5E2
310
E2F5E2F5F5E2F5E2F5E2E2E2E2E2E2E2E2E2E2E2E2E2E2E2E2E2E2E2E2E2E2E2E2E2E2E2E2E2E2E2E2E2E2E2E2E2E2E2E2E2E2E2E2E2E2E2E2E2E2E2E2E2E2E2E2E2E2E2E2E2E2E2E2E2E2E2E2E2E2E2E2E2E2E2E2E2E2E2E2E2E2E2E2E2E2E2E2E2E2E2E2E2E2E2E2E2E2E2E2E2E2E2E2E2E2E2E2E2E2E2E2E2E2E2E2E2E2
310
E2E2E2E2E2E2E2E2E2E2E2E2E2E2E2E2E2E2E2E2E2E2E2E2E2E2E2E2E2E2E2E2E2E2E2E2E2E2E2E2E2E2E2E2E2E2E2E2E2E2E2F5E2E2F5E2F5F5E2E2E2F5E2E2E2E2E2E2E2E2E2E2E2E2E2E2E2E2E2E2E2E2E2E2E2E2E2E2E2E2E2E2E2E2E2E2E2E2E2E2E2E2E2E2E2E2E2E2E2E2E2E2E2E2E2E2E2E2E2E2E2E2E2E2E2E2E2
310
E2E2E2E2E2E2E2E2E2E2E2E2E2E2E2E2E2E2E2E2E2E2E2E2E2E2E2E2E2E2E2E2E2E2E2E2E2E2E2E2E2E2E2E2E2E2E2E2E2E2E2E2E2E2E2E2E2E2E2E2E2E2E2E2E2E2E2E2E2E2E2E2E2E2E2E2E2E2E2E2E2E2E2E2E2E2E2E2E2E2E2E2E2E2E2E2E2E2E2E2E2E2E2E2F5E2E2E2E2F5F5E2E2E2F5E2E2E2E2E2E2E2E2E2E2E2E2
310
E2E2E2E2E2E2E2E2E2E2E2E2E2E2E2E2E2E2E2E2E2E2E2E2E2E2E2E2E2E2E2E2E2E2E2E2E2E2E2E2E2E2E2E2E2E2E2E2E2E2E2E2E2E2E2E2E2E2E2E2E2E2E2E2E2E2E2E2E2E2E2E2E2E2E2E2E2E2E2E2E2E2E2E2E2E2E2E2E2E2E2E2E2E2E2E2E2E2E2E2E2E2E2E2E2E2E2E2E2E2E2E2E2E2E2E2E2E2E2E2E2E2E2E2E2E2E2
310
E2E2E2E2E2E2E2E2E2E2E2E2E2E2E2E2E2E2E2E2E2E2E2E2E2E2E2E2E2E2F5E2E2E2E2F5F5E2E2E2F5E2E2E2E2E2E2E2E2E2E2E2E2E2E2E2E2E2E2E2E2E2E2E2E2E2E2E2E2E2E2E2E2E2E2E2E2E2E2E2E2E2E2E2E2E2E2E2E2E2E2E2E2E2E2E2E2E2E2E2E2E2E2E2E2E2E2E2E2E2E2E2E2E2E2E2E2E2E2E2E2E2E2E2E2E2E2
310
E2E2E2E2E2E2E2E2E2E2E2E2E2E2E2E2E2E2E2E2E2E2E2E2E2E2E2E2E2E2E2E2E2E2E2E2E2E2E2E2E2E2E2E2E2E2E2E2E2E2E2E2E2E2E2E2F0F0F0F0F0F0F0F0F0F0F0F0F0F0F0F0F0F0F0F0F0F0F0F0E2E2E2F5E2E2E2E2F5F5E2E2E2F5E2E2E2E2E2E2E2E2E2E2E2E2E2E2E2E2E2E2E2E2E2E2E2E2E2E2E2E2E2E2E2E2E2
310
E2E2E2E2E2E2E2E2E2E2E2E2E2E2E2E2E2E2E2E2E2E2E2E2E2E2E2E2E2E2E2E2E2E2E2E2E2E2E2E2E2E2E2E2E2E2E2E2E2E2E2E2E2E2E2E2E2E2E2E2E2E2E2E2E2E2E2E2E2E2E2E2E2E2E2E2E2E2E2E2E2E2E2E2E2E2E2E2E2E2E2E2E2E2E2E2E2E2E2E2E2E2E2E2E2E2E2E2E2E2E2E2F5F5F5F5F5E2F5F5F5F5F5F5F5E2F5
310
F5F5F5E2E2E2E2E2E2F5E2E2E2E2F5F5E2E2E2F5E2E2E2E2E2E2E2E2E2E2E2E2E2E2E2E2E2E2E2E2E2E2E2E2E2E2E2E2E2E2E2E2E2E2E2E2E2E2E2E2E2E2E2E2E2E2E2E2E2E2E2E2E2E2E2E2E2E2E2E2E2E2E2E2E2E2E2E2E2E2E2E2E2E2E2E2E2E2E2E2E2E2E2E2E2E2E2E2E2E2E2E2E2E2E2E2E2E2E2E2E2E2E2E2E2E2E2
310
E2E2E2E2E2E2E2E2E2E2E2E2E2E2E2E2E2E2E2E2E2E2E2E2E2E2E2E2E2E2E2E2E2E2E2E2E2F5F5F5F5E2E2F5F5F5F5F5F5F5E2F5F5F5F5F5F5E2E2E2E2E2F5E2E2E2E2F5F5E2E2E2F5E2E2E2E2E2E2E2E2E2E2E2E2E2E2E2E2E2E2E2E2E2E2E2E2E2E2E2E2E2E2E2E2E2E2E2E2E2E2E2E2E2E2E2E2E2E2E2E2E2E2E2E2E2E2
310
E2E2E2E2E2E2E2E2E2E2E2E2E2E2E2E2E2E2E2E2E2E2E2E2E2E2E2E2E2E2E2E2E2E2E2E2E2E2E2E2E2E2E2E2E2E2E2E2E2E2E2E2E2E2E2E2E2E2E2E2E2E2E2E2E2E2E2E2E2E2E2E2E2E2E2E2E2E2E2E2E2E2E2E2E2E2E2E2E2E2F5F5F5F5E2E2E2F5F5F5F5F5F5E2F5F5F5F5F5F5E2E2E2E2E2F5E2E2E2E2F5F5E2E2E2F5E2
310
E2E2E2E2E2E2E2E2E2E2E2E2E2E2E2E2E2E2E2E2E2E2E2E2E2E2E2E2E2E2E2E2E2E2E2E2E2E2E2E2E2E2E2E2E2E2E2E2E2E2E2E2E2E2E2E2E2E2E2E2E2E2E2E2E2E2E2E2E2E2E2E2E2E2E2E2E2E2E2E2E2E2E2E2E2E2E2E2E2E2E2E2E2E2E2E2E2E2E2E2E2E2E2E2E2E2E2E2E2E2E2E2E2E2E2E2E2E2E2E2E2E2E2E2E2E2E2
310
E2E2E2E2E2E2E2E2E2E2E2E2E2E2F0F0F0F0F0F0F0F0F0F0F0F0F0F0F0F0F0F0F0F0F0F0F0F0E2E2E2F5E2E2E2E2F5F5E2E2E2F5E2E2E2E2E2E2E2E2E2E2E2E2E2E2E2E2E2E2E2E2E2E2E2E2E2E2E2E2E2E2E2E2E2E2E2E2E2E2E2E2E2E2E2E2E2E2E2E2E2E2E2E2E2E2E2E2E2E2E2E2E2E2E2E2E2E2E2E2E2E2E2E2E2E2E2
310
E2E2E2E2E2E2E2E2E2E2E2E2E2E2E2E2E2E2E2E2E2E2E2E2E2E2E2E2E2E2E2E2E2E2E2E2E2E2E2E2E2E2E2E2E2E2E2E2E2E2E2E2E2E2E2E2E2E2E2E2E2E2E2E2E2E2E2E2E2F5F5F5F5F5F5F5F5F5F5E2F5F5F5F5F5F5F5E2E2E2E2E2E2E2F5E2E2E2E2F5F5E2E2E2F5E2E2E2E2E2E2E2E2E2E2E2E2E2E2E2E2E2E2E2E2E2E2
310
E2E2E2E2E2E2E2E2E2E2E2E2E2E2E2E2E2E2E2E2E2E2E2E2E2E2E2E2E2E2E2E2E2E2E2E2E2E2E2E2E2E2E2E2E2E2E2E2E2E2E2E2E2E2E2E2E2E2E2E2E2E2E2E2E2E2E2E2E2E2E2E2E2E2E2E2E2E2E2E2E2E2E2E2E2E2E2E2E2E2E2E2E2E2E2E2E2E2E2E2E2E2E2E2E2E2E2E2E2E2E2E2E2E2E2E2E2E2E2E2E2E2F5F5F5F5E2
310
E2F5F5F5F5F5F5F5F5F5F5F5F5E2E2E2E2E2E2E2F5E2E2E2E2F5F5E2F5E2F5E2E2E2E2E2E2E2E2E2E2E2E2E2E2E2E2E2E2E2E2E2E2E2E2E2E2E2E2E2E2E2E2E2E2E2E2E2E2E2E2E2E2E2E2E2E2E2E2E2E2E2E2E2E2E2E2E2E2E2E2E2E2E2E2E2E2E2E2E2E2E2E2E2E2E2E2E2E2E2E2E2E2E2E2E2E2E2E2E2E2E2E2E2E2E2E2
310
E2E2E2E2E2E2E2E2E2E2E2E2E2E2E2E2E2E2E2E2E2E2E2E2E2E2E2E2E2E2E2E2E2E2E2E2E2E2E2E2E2E2E2E2E2E2E2E2F5F5F5F5E2E2F5F5F5F5E2F5F5F5F5F5F5F5E2E2E2E2E2E2E2F5E2E2F5E2F5F5E2F5E2F5E2E2E2E2E2E2E2E2E2E2E2E2E2E2E2E2E2E2E2E2E2E2E2E2E2E2E2E2E2E2E2E2E2E2E2E2E2E2E2E2E2E2E2
310
E2E2E2E2E2E2E2E2E2E2E2E2E2E2E2E2E2E2E2E2E2E2E2E2E2E2E2E2E2E2E2E2E2E2E2E2E2E2E2E2E2E2E2E2E2E2E2E2E2E2E2E2E2E2E2E2E2E2E2E2E2E2E2E2E2E2E2E2E2E2E2E2E2E2E2E2E2E2E2E2E2E2E2E2E2E2E2E2E2E2E2E2E2E2E2E2E2E2E2E2E2E2E2E2E2E2E2E2E2E2E2E2E2E2E2E2E2E2E2E2E2E2E2E2E2E2F5
310
E2E2F5E2F5F5E2F5E2F5E2E2E2E2E2E2E2E2E2E2E2E2E2E2E2E2E2E2E2E2E2E2E2E2E2E2E2E2E2E2E2E2E2E2E2E2E2E2E2E2E2E2E2E2E2E2E2E2E2E2E2E2E2E2E2E2E2E2E2E2E2E2E2E2E2E2E2E2E2E2E2E2E2E2E2E2E2E2E2E2E2E2E2E2E2E2E2E2E2E2E2E2E2E2E2E2E2E2E2E2E2E2E2E2E2E2E2E2E2E2E2E2E2E2E2E2E2
310
E2E2E2E2E2E2E2E2E2E2E2E2E2E2E2E2E2E2E2E2E2E2E2E2E2E2E2E2E2E2E2E2E2E2E2E2E2E2E2E2E2E2E2E2E2E2E2E2E2E2E2E2F5E2E2F5E2F5F5E2F5E2F5E2E2E2E2E2E2E2E2E2E2E2E2E2E2E2E2E2E2E2E2E2E2E2E2E2E2E2E2E2E2E2E2E2E2E2E2E2E2E2E2E2E2E2E2E2E2E2E2E2E2E2E2E2E2E2E2E2E2E2E2E2E2E2E2
310
E2E2E2E2E2E2E2E2E2E2E2E2E2E2E2E2E2E2E2E2E2E2E2E2E2E2E2E2E2E2E2E2E2E2E2E2E2E2E2E2E2E2E2E2E2E2E2E2E2E2E2E2E2E2E2E2E2E2E2E2E2E2E2E2E2E2E2E2E2E2E2E2E2E2E2E2E2E2E2E2E2E2E2E2E2E2E2E2E2E2E2E2E2E2E2E2E2E2E2E2E2E2E2E2E2F5E2E2F5E2F5F5E2F5E2F5E2E2E2E2E2E2E2E2E2E2E2
310
E2E2E2E2E2E2E2E2E2E2E2E2E2E2E2E2E2E2E2E2E2E2E2E2E2E2E2E2E2E2E2E2E2E2E2E2E2E2E2E2E2E2E2E2E2E2E2E2E2E2E2E2E2E2E2E2E2E2E2E2E2E2E2E2E2E2E2E2E2E2E2E2E2E2E2E2E2E2E2E2E2E2E2E2E2E2E2E2E2E2E2E2E2E2E2E2E2E2E2E2E2E2E2E2E2E2E2E2E2E2E2E2E2E2E2E2E2E2E2E2E2E2E2E2E2E2E2
310
E2E2E2E2E2E2E2E2E2E2E2E2E2E2E2E2E2E2E2E2E2E2E2E2E2E2E2E2E2E2E2F5E2E2F5E2F5F5E2F5E2F5F5F5F5F5F5F5F5F5F5F5F5F5F5F5F5F5F5F5F5F5F5F5F5F5F5F5F5F5F5F5F5F5F5F5F5F5F5F5F5F5F5F5F5F5F5F5F5F5F5F5F5F5F5F5F5F5F5F5F5F5F5F5F5F5F5F5F5F5F5F5F5F5F5F5F5F5F5F5F5F5F5F5F5F5F5
310
F5F5F5F5F5F5F5F5F5F5F5F5F5F5F5F5F5F5F5F5F5F5F5F5F5F5F5F5F5F5F5F5F5F5F5F5F5F5F5F5F5F5F5F5F5F5F5F5F5F5F5F5F5F5F5F5F5F5F5F5F5F5F5F5F5F5F5F5F5F5F5F5F5F5F5F5F5F5F5F5F5F5F5F5F5E2E2F5E2F5F5E2F5E2E2E2E2E2E2E2E2E2E2E2E2E2E2E2E2E2E2E2E2E2E2E2E2E2E2E2E2E2E2E2E2E2E2
310
E2E2E2E2E2E2E2E2E2E2E2E2E2E2E2E2E2E2E2E2E2E2E2E2E2E2E2E2E2E2E2E2E2E2E2E2E2E2E2E2E2E2E2E2E2E2E2E2E2E2E2E2E2E2E2E2E2E2E2E2E2E2E2E2E2E2E2E2E2E2E2E2E2E2E2E2E2E2E2E2E2E2E2E2E2E2E2E2E2E2E2E2E2E2E2E2E2E2E2E2E2E2E2E2E2E2E2E2E2E2E2E2E2E2E2E2E2E2E2E2E2E2E2E2E2E2E2
310
E2E2E2E2E2E2E2E2E2E2E2E2E2F5E2F5F5E2F5F5F5F5F5F5F5F5F5E2E2E2E2E2E2E2E2E2F5F5F5F5F5F5F5F5F5F5F5F5F5F5F5F5E2E2E2E2E2E2E2E2E2F5F5F5F5F5F5F5F5F5F5F5F5F5F5F5F5E2E2E2E2E2E2E2E2E2F5F5F5F5F5F5F5F5F5F5F5F5F5F5F5F5E2E2E2E2E2E2E2E2E2F5F5F5F5F5F5F5F5F5F5F5F5F5F5F5F5
310
E2E2E2E2E2E2E2E2E2F5F5F5F5F5F5F5F5F5F5F5F5F5F5F5F5E2E2E2E2E2E2E2E2E2F5F5F5F5F5F5F5F5F5F5F5F5F5F5F5F5E2E2E2E2E2E2E2E2E2F5F5F5F5F5F5F5F5E2F5F5E2E2E2E2E2E2E2E2E2E2E2E2E2E2E2E2E2E2E2E2E2E2E2E2E2E2E2E2E2E2E2E2E2E2E2E2E2E2E2E2E2E2E2E2E2E2E2E2E2E2E2E2E2E2E2E2E2
310
E2E2E2E2E2E2E2E2E2E2E2E2E2E2E2E2E2E2E2E2E2E2E2E2E2E2E2E2E2E2E2E2E2E2E2E2E2E2E2E2E2E2E2E2E2E2E2E2E2E2E2E2E2E2E2E2E2E2E2E2E2E2E2E2E2E2E2E2E2E2E2E2E2E2E2E2E2E2E2E2E2E2E2E2E2E2E2E2E2E2E2E2E2E2E2E2E2E2E2E2E2E2E2E2E2E2E2E2E2E2E2E2E2E2E2E2E2E2E2E2E2F5F5F5F5F5F5
310
F5F5F5F5F5F5F5F5F5F5F5F5F5F5F5F5F5F5F5F5F5F5F5F5F5F5F5F5F5F5F5F5F5F5F5F5F5F5F5F5F5F5F5F5F5F5F5F5F5F5F5F5F5F5F5F5F5F5F5F5F5F5F5F5F5F5F5F5F5F5F5F5F5F5F5F5F5F5F5F5F5F5F5F5F5F5F5F5F5F5F5F5F5F5F5F5F5F5F5F5F5F5F5F5F5F5F5F5F5F5F5F5F5F5F5F5F5F5F5F5F5F5F5F5F5F5F5
310
F5F5F5F5F5F5F5F5F5F5F5F5F5F5F5F5F5F5F5F5F5F5F5F5F5F5F5F5F5F5F5F5F5F5F5F5F5F5F5F5F5F5F5F5F5F5F5F5
  0
XRECORD
  5
7CB
102
{ACAD_REACTORS
330
7CA
102
}
330
7CA
100
AcDbXrecord
280
     1
102
SHADEPLOT
 70
     0
102
SHADEPLOTRESLEVEL
 70
     2
102
SHADEPLOTCUSTOMDPI
 70
   300
  0
XRECORD
  5
7CE
102
{ACAD_REACTORS
330
40F
102
}
330
40F
100
AcDbXrecord
280
     1
102
MATERIAL
148
0.0
149
0.0
149
0.0
 93
        0
 94
      127
282
     0
 72
     0
 77
     0
171
     0
175
     0
179
     0
273
     0
  0
XRECORD
  5
411
102
{ACAD_REACTORS
330
40F
102
}
330
40F
100
AcDbXrecord
280
     1
270
     1
271
     1
  0
XRECORD
  5
410
102
{ACAD_REACTORS
330
40F
102
}
330
40F
100
AcDbXrecord
280
     1
270
     1
271
     1
  0
XRECORD
  5
414
102
{ACAD_REACTORS
330
40F
102
}
330
40F
100
AcDbXrecord
280
     1
270
     1
271
     1
  0
XRECORD
  5
413
102
{ACAD_REACTORS
330
40F
102
}
330
40F
100
AcDbXrecord
280
     1
270
     1
271
     1
  0
XRECORD
  5
415
102
{ACAD_REACTORS
330
40F
102
}
330
40F
100
AcDbXrecord
280
     1
270
     1
271
     1
  0
XRECORD
  5
412
102
{ACAD_REACTORS
330
40F
102
}
330
40F
100
AcDbXrecord
280
     1
270
     1
271
     1
  0
XRECORD
  5
7CD
102
{ACAD_REACTORS
330
407
102
}
330
407
100
AcDbXrecord
280
     1
102
MATERIAL
148
0.0
149
0.0
149
0.0
 93
        0
 94
      127
282
     0
 72
     0
 77
     0
171
     0
175
     0
179
     0
273
     0
  0
XRECORD
  5
409
102
{ACAD_REACTORS
330
407
102
}
330
407
100
AcDbXrecord
280
     1
270
     1
271
     1
  0
XRECORD
  5
408
102
{ACAD_REACTORS
330
407
102
}
330
407
100
AcDbXrecord
280
     1
270
     1
271
     1
  0
XRECORD
  5
40C
102
{ACAD_REACTORS
330
407
102
}
330
407
100
AcDbXrecord
280
     1
270
     1
271
     1
  0
XRECORD
  5
40B
102
{ACAD_REACTORS
330
407
102
}
330
407
100
AcDbXrecord
280
     1
270
     1
271
     1
  0
XRECORD
  5
40D
102
{ACAD_REACTORS
330
407
102
}
330
407
100
AcDbXrecord
280
     1
270
     1
271
     1
  0
XRECORD
  5
40A
102
{ACAD_REACTORS
330
407
102
}
330
407
100
AcDbXrecord
280
     1
270
     1
271
     1
  0
XRECORD
  5
7CF
102
{ACAD_REACTORS
330
417
102
}
330
417
100
AcDbXrecord
280
     1
102
MATERIAL
148
0.0
149
0.0
149
0.0
 93
        0
 94
      127
282
     0
 72
     0
 77
     0
171
     0
175
     0
179
     0
273
     0
  0
XRECORD
  5
419
102
{ACAD_REACTORS
330
417
102
}
330
417
100
AcDbXrecord
280
     1
270
     1
271
     1
  0
XRECORD
  5
418
102
{ACAD_REACTORS
330
417
102
}
330
417
100
AcDbXrecord
280
     1
270
     1
271
     1
  0
XRECORD
  5
41C
102
{ACAD_REACTORS
330
417
102
}
330
417
100
AcDbXrecord
280
     1
270
     1
271
     1
  0
XRECORD
  5
41B
102
{ACAD_REACTORS
330
417
102
}
330
417
100
AcDbXrecord
280
     1
270
     1
271
     1
  0
XRECORD
  5
41D
102
{ACAD_REACTORS
330
417
102
}
330
417
100
AcDbXrecord
280
     1
270
     1
271
     1
  0
XRECORD
  5
41A
102
{ACAD_REACTORS
330
417
102
}
330
417
100
AcDbXrecord
280
     1
270
     1
271
     1
  0
CELLSTYLEMAP
  5
7C6
102
{ACAD_REACTORS
330
7C5
102
}
330
7C5
100
AcDbCellStyleMap
 90
        3
300
CELLSTYLE
  1
TABLEFORMAT_BEGIN
 90
        5
170
     1
 91
        0
 92
    32768
 62
   257
 93
        1
300
CONTENTFORMAT
  1
CONTENTFORMAT_BEGIN
 90
        0
 91
        0
 92
        4
 93
        0
300

 40
0.0
140
1.0
 94
        5
 62
     0
340
11
144
6.0
309
CONTENTFORMAT_END
171
     1
301
MARGIN
  1
CELLMARGIN_BEGIN
 40
1.5
 40
1.5
 40
1.5
 40
1.5
 40
0.18
 40
0.18
309
CELLMARGIN_END
 94
        6
 95
        1
302
GRIDFORMAT
  1
GRIDFORMAT_BEGIN
 90
        0
 91
        1
 62
     0
 92
       -2
340
0
 93
        0
 40
0.045
309
GRIDFORMAT_END
 95
        2
302
GRIDFORMAT
  1
GRIDFORMAT_BEGIN
 90
        0
 91
        1
 62
     0
 92
       -2
340
0
 93
        0
 40
0.045
309
GRIDFORMAT_END
 95
        4
302
GRIDFORMAT
  1
GRIDFORMAT_BEGIN
 90
        0
 91
        1
 62
     0
 92
       -2
340
0
 93
        0
 40
0.045
309
GRIDFORMAT_END
 95
        8
302
GRIDFORMAT
  1
GRIDFORMAT_BEGIN
 90
        0
 91
        1
 62
     0
 92
       -2
340
0
 93
        0
 40
0.045
309
GRIDFORMAT_END
 95
       16
302
GRIDFORMAT
  1
GRIDFORMAT_BEGIN
 90
        0
 91
        1
 62
     0
 92
       -2
340
0
 93
        0
 40
0.045
309
GRIDFORMAT_END
 95
       32
302
GRIDFORMAT
  1
GRIDFORMAT_BEGIN
 90
        0
 91
        1
 62
     0
 92
       -2
340
0
 93
        0
 40
0.045
309
GRIDFORMAT_END
309
TABLEFORMAT_END
  1
CELLSTYLE_BEGIN
 90
        1
 91
        1
300
_TITLE
309
CELLSTYLE_END
300
CELLSTYLE
  1
TABLEFORMAT_BEGIN
 90
        5
170
     1
 91
        0
 92
        0
 62
   257
 93
        1
300
CONTENTFORMAT
  1
CONTENTFORMAT_BEGIN
 90
        0
 91
        0
 92
        4
 93
        0
300

 40
0.0
140
1.0
 94
        5
 62
     0
340
11
144
4.5
309
CONTENTFORMAT_END
171
     1
301
MARGIN
  1
CELLMARGIN_BEGIN
 40
1.5
 40
1.5
 40
1.5
 40
1.5
 40
0.18
 40
0.18
309
CELLMARGIN_END
 94
        6
 95
        1
302
GRIDFORMAT
  1
GRIDFORMAT_BEGIN
 90
        0
 91
        1
 62
     0
 92
       -2
340
0
 93
        0
 40
0.045
309
GRIDFORMAT_END
 95
        2
302
GRIDFORMAT
  1
GRIDFORMAT_BEGIN
 90
        0
 91
        1
 62
     0
 92
       -2
340
0
 93
        0
 40
0.045
309
GRIDFORMAT_END
 95
        4
302
GRIDFORMAT
  1
GRIDFORMAT_BEGIN
 90
        0
 91
        1
 62
     0
 92
       -2
340
0
 93
        0
 40
0.045
309
GRIDFORMAT_END
 95
        8
302
GRIDFORMAT
  1
GRIDFORMAT_BEGIN
 90
        0
 91
        1
 62
     0
 92
       -2
340
0
 93
        0
 40
0.045
309
GRIDFORMAT_END
 95
       16
302
GRIDFORMAT
  1
GRIDFORMAT_BEGIN
 90
        0
 91
        1
 62
     0
 92
       -2
340
0
 93
        0
 40
0.045
309
GRIDFORMAT_END
 95
       32
302
GRIDFORMAT
  1
GRIDFORMAT_BEGIN
 90
        0
 91
        1
 62
     0
 92
       -2
340
0
 93
        0
 40
0.045
309
GRIDFORMAT_END
309
TABLEFORMAT_END
  1
CELLSTYLE_BEGIN
 90
        2
 91
        1
300
_HEADER
309
CELLSTYLE_END
300
CELLSTYLE
  1
TABLEFORMAT_BEGIN
 90
        5
170
     1
 91
        0
 92
        0
 62
   257
 93
        1
300
CONTENTFORMAT
  1
CONTENTFORMAT_BEGIN
 90
        0
 91
        0
 92
        4
 93
        0
300

 40
0.0
140
1.0
 94
        2
 62
     0
340
11
144
4.5
309
CONTENTFORMAT_END
171
     1
301
MARGIN
  1
CELLMARGIN_BEGIN
 40
1.5
 40
1.5
 40
1.5
 40
1.5
 40
0.18
 40
0.18
309
CELLMARGIN_END
 94
        6
 95
        1
302
GRIDFORMAT
  1
GRIDFORMAT_BEGIN
 90
        0
 91
        1
 62
     0
 92
       -2
340
0
 93
        0
 40
0.045
309
GRIDFORMAT_END
 95
        2
302
GRIDFORMAT
  1
GRIDFORMAT_BEGIN
 90
        0
 91
        1
 62
     0
 92
       -2
340
0
 93
        0
 40
0.045
309
GRIDFORMAT_END
 95
        4
302
GRIDFORMAT
  1
GRIDFORMAT_BEGIN
 90
        0
 91
        1
 62
     0
 92
       -2
340
0
 93
        0
 40
0.045
309
GRIDFORMAT_END
 95
        8
302
GRIDFORMAT
  1
GRIDFORMAT_BEGIN
 90
        0
 91
        1
 62
     0
 92
       -2
340
0
 93
        0
 40
0.045
309
GRIDFORMAT_END
 95
       16
302
GRIDFORMAT
  1
GRIDFORMAT_BEGIN
 90
        0
 91
        1
 62
     0
 92
       -2
340
0
 93
        0
 40
0.045
309
GRIDFORMAT_END
 95
       32
302
GRIDFORMAT
  1
GRIDFORMAT_BEGIN
 90
        0
 91
        1
 62
     0
 92
       -2
340
0
 93
        0
 40
0.045
309
GRIDFORMAT_END
309
TABLEFORMAT_END
  1
CELLSTYLE_BEGIN
 90
        3
 91
        2
300
_DATA
309
CELLSTYLE_END
  0
XRECORD
  5
7CC
102
{ACAD_REACTORS
330
7C5
102
}
330
7C5
100
AcDbXrecord
280
     1
102
ACAD_ROUNDTRIP_PRE2007_TABLESTYLE
 90
        4
 91
        0
  1

 92
        4
 93
        0
  2

 94
        4
 95
        0
  3

  0
ENDSEC
  0
EOF
