  0
SECTION
  2
HEADER
  9
$ACADVER
  1
AC1015
  9
$ACADMAINTVER
 70
    20
  9
$DWGCODEPAGE
  3
ANSI_932
  9
$INSBASE
 10
0.0
 20
0.0
 30
0.0
  9
$EXTMIN
 10
-398.5556234444004
 20
-95.94783534912824
 30
0.0
  9
$EXTMAX
 10
430.9097929529425
 20
450.2238600773942
 30
0.0
  9
$LIMMIN
 10
0.0
 20
0.0
  9
$LIMMAX
 10
420.0
 20
297.0
  9
$ORTHOMODE
 70
     1
  9
$REGENMODE
 70
     1
  9
$FILLMODE
 70
     1
  9
$QTEXTMODE
 70
     0
  9
$MIRRTEXT
 70
     1
  9
$LTSCALE
 40
1.0
  9
$ATTMODE
 70
     1
  9
$TEXTSIZE
 40
1.5
  9
$TRACEWID
 40
1.0
  9
$TEXTSTYLE
  7
AD-STANDARD
  9
$CLAYER
  8
0
  9
$CELTYPE
  6
ByLayer
  9
$CECOLOR
 62
   256
  9
$CELTSCALE
 40
1.0
  9
$DISPSILH
 70
     0
  9
$DIMSCALE
 40
5.0
  9
$DIMASZ
 40
2.5
  9
$DIMEXO
 40
1.0
  9
$DIMDLI
 40
0.38
  9
$DIMRND
 40
0.0
  9
$DIMDLE
 40
0.0
  9
$DIMEXE
 40
2.0
  9
$DIMTP
 40
0.0
  9
$DIMTM
 40
0.0
  9
$DIMTXT
 40
3.0
  9
$DIMCEN
 40
-2.0
  9
$DIMTSZ
 40
0.0
  9
$DIMTOL
 70
     0
  9
$DIMLIM
 70
     0
  9
$DIMTIH
 70
     0
  9
$DIMTOH
 70
     0
  9
$DIMSE1
 70
     0
  9
$DIMSE2
 70
     0
  9
$DIMTAD
 70
     1
  9
$DIMZIN
 70
     8
  9
$DIMBLK
  1

  9
$DIMASO
 70
     1
  9
$DIMSHO
 70
     1
  9
$DIMPOST
  1

  9
$DIMAPOST
  1

  9
$DIMALT
 70
     0
  9
$DIMALTD
 70
     2
  9
$DIMALTF
 40
25.4
  9
$DIMLFAC
 40
1.0
  9
$DIMTOFL
 70
     1
  9
$DIMTVP
 40
0.0
  9
$DIMTIX
 70
     0
  9
$DIMSOXD
 70
     0
  9
$DIMSAH
 70
     0
  9
$DIMBLK1
  1

  9
$DIMBLK2
  1

  9
$DIMSTYLE
  2
09)　s＝1／5
  9
$DIMCLRD
 70
     9
  9
$DIMCLRE
 70
     9
  9
$DIMCLRT
 70
     2
  9
$DIMTFAC
 40
1.0
  9
$DIMGAP
 40
0.5
  9
$DIMJUST
 70
     0
  9
$DIMSD1
 70
     0
  9
$DIMSD2
 70
     0
  9
$DIMTOLJ
 70
     1
  9
$DIMTZIN
 70
     8
  9
$DIMALTZ
 70
     0
  9
$DIMALTTZ
 70
     0
  9
$DIMUPT
 70
     0
  9
$DIMDEC
 70
     4
  9
$DIMTDEC
 70
     4
  9
$DIMALTU
 70
     2
  9
$DIMALTTD
 70
     2
  9
$DIMTXSTY
  7
AD-STANDARD
  9
$DIMAUNIT
 70
     0
  9
$DIMADEC
 70
     0
  9
$DIMALTRND
 40
0.0
  9
$DIMAZIN
 70
     0
  9
$DIMDSEP
 70
    46
  9
$DIMATFIT
 70
     3
  9
$DIMFRAC
 70
     0
  9
$DIMLDRBLK
  1

  9
$DIMLUNIT
 70
     2
  9
$DIMLWD
 70
    -2
  9
$DIMLWE
 70
    -2
  9
$DIMTMOVE
 70
     0
  9
$LUNITS
 70
     2
  9
$LUPREC
 70
     4
  9
$SKETCHINC
 40
1.0
  9
$FILLETRAD
 40
10.0
  9
$AUNITS
 70
     0
  9
$AUPREC
 70
     0
  9
$MENU
  1
.
  9
$ELEVATION
 40
0.0
  9
$PELEVATION
 40
0.0
  9
$THICKNESS
 40
0.0
  9
$LIMCHECK
 70
     0
  9
$CHAMFERA
 40
10.0
  9
$CHAMFERB
 40
10.0
  9
$CHAMFERC
 40
20.0
  9
$CHAMFERD
 40
0.0
  9
$SKPOLY
 70
     0
  9
$TDCREATE
 40
2455161.698818322
  9
$TDUCREATE
 40
2455161.323818322
  9
$TDUPDATE
 40
2458306.609241875
  9
$TDUUPDATE
 40
2458306.234241875
  9
$TDINDWG
 40
0.1133006481
  9
$TDUSRTIMER
 40
0.1133006481
  9
$USRTIMER
 70
     1
  9
$ANGBASE
 50
0.0
  9
$ANGDIR
 70
     0
  9
$PDMODE
 70
     0
  9
$PDSIZE
 40
0.0
  9
$PLINEWID
 40
0.0
  9
$SPLFRAME
 70
     0
  9
$SPLINETYPE
 70
     6
  9
$SPLINESEGS
 70
     8
  9
$HANDSEED
  5
8F3
  9
$SURFTAB1
 70
     6
  9
$SURFTAB2
 70
     6
  9
$SURFTYPE
 70
     6
  9
$SURFU
 70
     6
  9
$SURFV
 70
     6
  9
$UCSBASE
  2

  9
$UCSNAME
  2

  9
$UCSORG
 10
0.0
 20
0.0
 30
0.0
  9
$UCSXDIR
 10
1.0
 20
0.0
 30
0.0
  9
$UCSYDIR
 10
0.0
 20
1.0
 30
0.0
  9
$UCSORTHOREF
  2

  9
$UCSORTHOVIEW
 70
     0
  9
$UCSORGTOP
 10
0.0
 20
0.0
 30
0.0
  9
$UCSORGBOTTOM
 10
0.0
 20
0.0
 30
0.0
  9
$UCSORGLEFT
 10
0.0
 20
0.0
 30
0.0
  9
$UCSORGRIGHT
 10
0.0
 20
0.0
 30
0.0
  9
$UCSORGFRONT
 10
0.0
 20
0.0
 30
0.0
  9
$UCSORGBACK
 10
0.0
 20
0.0
 30
0.0
  9
$PUCSBASE
  2

  9
$PUCSNAME
  2

  9
$PUCSORG
 10
0.0
 20
0.0
 30
0.0
  9
$PUCSXDIR
 10
1.0
 20
0.0
 30
0.0
  9
$PUCSYDIR
 10
0.0
 20
1.0
 30
0.0
  9
$PUCSORTHOREF
  2

  9
$PUCSORTHOVIEW
 70
     0
  9
$PUCSORGTOP
 10
0.0
 20
0.0
 30
0.0
  9
$PUCSORGBOTTOM
 10
0.0
 20
0.0
 30
0.0
  9
$PUCSORGLEFT
 10
0.0
 20
0.0
 30
0.0
  9
$PUCSORGRIGHT
 10
0.0
 20
0.0
 30
0.0
  9
$PUCSORGFRONT
 10
0.0
 20
0.0
 30
0.0
  9
$PUCSORGBACK
 10
0.0
 20
0.0
 30
0.0
  9
$USERI1
 70
     0
  9
$USERI2
 70
     0
  9
$USERI3
 70
     0
  9
$USERI4
 70
     0
  9
$USERI5
 70
     0
  9
$USERR1
 40
0.0
  9
$USERR2
 40
0.0
  9
$USERR3
 40
0.0
  9
$USERR4
 40
0.0
  9
$USERR5
 40
0.0
  9
$WORLDVIEW
 70
     1
  9
$SHADEDGE
 70
     3
  9
$SHADEDIF
 70
    70
  9
$TILEMODE
 70
     0
  9
$MAXACTVP
 70
    64
  9
$PINSBASE
 10
0.0
 20
0.0
 30
0.0
  9
$PLIMCHECK
 70
     0
  9
$PEXTMIN
 10
7.110466497472998
 20
4.950401959195573
 30
0.0
  9
$PEXTMAX
 10
287.4896162216101
 20
199.4823277776433
 30
0.0
  9
$PLIMMIN
 10
-3.17498779296875
 20
-3.174999952316284
  9
$PLIMMAX
 10
293.8568420410156
 20
206.7348358631134
  9
$UNITMODE
 70
     0
  9
$VISRETAIN
 70
     1
  9
$PLINEGEN
 70
     0
  9
$PSLTSCALE
 70
     1
  9
$TREEDEPTH
 70
  3020
  9
$CMLSTYLE
  2
Standard
  9
$CMLJUST
 70
     0
  9
$CMLSCALE
 40
20.0
  9
$PROXYGRAPHICS
 70
     1
  9
$MEASUREMENT
 70
     1
  9
$CELWEIGHT
370
    -1
  9
$ENDCAPS
280
     0
  9
$JOINSTYLE
280
     0
  9
$LWDISPLAY
290
     0
  9
$INSUNITS
 70
     4
  9
$HYPERLINKBASE
  1

  9
$STYLESHEET
  1

  9
$XEDIT
290
     1
  9
$CEPSNTYPE
380
     0
  9
$PSTYLEMODE
290
     1
  9
$FINGERPRINTGUID
  2
{53EE7CD0-B123-4EEA-9A9C-233E691B09EA}
  9
$VERSIONGUID
  2
{B3A613B4-0DEF-4B56-BC42-64CBCE97A479}
  9
$EXTNAMES
290
     1
  9
$PSVPSCALE
 40
0.0
  9
$OLESTARTUP
290
     0
  0
ENDSEC
  0
SECTION
  2
CLASSES
  0
CLASS
  1
ACDBDICTIONARYWDFLT
  2
AcDbDictionaryWithDefault
  3
ObjectDBX Classes
 90
        0
280
     0
281
     0
  0
CLASS
  1
VISUALSTYLE
  2
AcDbVisualStyle
  3
ObjectDBX Classes
 90
     4095
280
     0
281
     0
  0
CLASS
  1
SCALE
  2
AcDbScale
  3
ObjectDBX Classes
 90
     1153
280
     0
281
     0
  0
CLASS
  1
DICTIONARYVAR
  2
AcDbDictionaryVar
  3
ObjectDBX Classes
 90
        0
280
     0
281
     0
  0
CLASS
  1
ACDBPLACEHOLDER
  2
AcDbPlaceHolder
  3
ObjectDBX Classes
 90
        0
280
     0
281
     0
  0
CLASS
  1
LAYOUT
  2
AcDbLayout
  3
ObjectDBX Classes
 90
        0
280
     0
281
     0
  0
CLASS
  1
TABLESTYLE
  2
AcDbTableStyle
  3
ObjectDBX Classes
 90
     4095
280
     0
281
     0
  0
CLASS
  1
MATERIAL
  2
AcDbMaterial
  3
ObjectDBX Classes
 90
     1153
280
     0
281
     0
  0
CLASS
  1
MLEADERSTYLE
  2
AcDbMLeaderStyle
  3
ACDB_MLEADERSTYLE_CLASS
 90
     4095
280
     0
281
     0
  0
CLASS
  1
SORTENTSTABLE
  2
AcDbSortentsTable
  3
ObjectDBX Classes
 90
        0
280
     0
281
     0
  0
CLASS
  1
CELLSTYLEMAP
  2
AcDbCellStyleMap
  3
ObjectDBX Classes
 90
     1152
280
     0
281
     0
  0
ENDSEC
  0
SECTION
  2
TABLES
  0
TABLE
  2
VPORT
  5
8
102
{ACAD_XDICTIONARY
360
8B6
102
}
330
0
100
AcDbSymbolTable
 70
     1
  0
VPORT
  5
439
330
8
100
AcDbSymbolTableRecord
100
AcDbViewportTableRecord
  2
*Active
 70
     0
 10
0.0
 20
0.0
 11
1.0
 21
1.0
 12
16.17708668552097
 22
177.1323497253095
 13
0.0
 23
0.0
 14
10.0
 24
10.0
 15
10.0
 25
10.0
 16
0.0
 26
0.0
 36
1.0
 17
0.0
 27
0.0
 37
0.0
 40
550.1525755443865
 41
2.273164861612515
 42
50.0
 43
0.0
 44
0.0
 50
0.0
 51
0.0
 71
     0
 72
   100
 73
     1
 74
     3
 75
     0
 76
     0
 77
     0
 78
     0
281
     0
 65
     1
110
0.0
120
0.0
130
0.0
111
1.0
121
0.0
131
0.0
112
0.0
122
1.0
132
0.0
 79
     0
146
0.0
  0
ENDTAB
  0
TABLE
  2
LTYPE
  5
5
330
0
100
AcDbSymbolTable
 70
     1
  0
LTYPE
  5
14
330
5
100
AcDbSymbolTableRecord
100
AcDbLinetypeTableRecord
  2
ByBlock
 70
     0
  3

 72
    65
 73
     0
 40
0.0
  0
LTYPE
  5
15
330
5
100
AcDbSymbolTableRecord
100
AcDbLinetypeTableRecord
  2
ByLayer
 70
     0
  3

 72
    65
 73
     0
 40
0.0
  0
LTYPE
  5
16
330
5
100
AcDbSymbolTableRecord
100
AcDbLinetypeTableRecord
  2
Continuous
 70
     0
  3
Solid line
 72
    65
 73
     0
 40
0.0
  0
ENDTAB
  0
TABLE
  2
LAYER
  5
2
102
{ACAD_XDICTIONARY
360
3E2
102
}
330
0
100
AcDbSymbolTable
 70
     3
  0
LAYER
  5
10
102
{ACAD_XDICTIONARY
360
88F
102
}
330
2
100
AcDbSymbolTableRecord
100
AcDbLayerTableRecord
  2
0
 70
     0
 62
     7
  6
Continuous
370
    -3
390
F
  0
LAYER
  5
3D9
330
2
100
AcDbSymbolTableRecord
100
AcDbLayerTableRecord
  2
DEFPOINTS
 70
     0
 62
     7
  6
Continuous
290
     0
370
    -3
390
F
  0
LAYER
  5
812
102
{ACAD_XDICTIONARY
360
813
102
}
330
2
100
AcDbSymbolTableRecord
100
AcDbLayerTableRecord
  2
NOTE
 70
     0
 62
     2
  6
Continuous
370
    -3
390
F
  0
ENDTAB
  0
TABLE
  2
STYLE
  5
3
330
0
100
AcDbSymbolTable
 70
     2
  0
STYLE
  5
11
330
3
100
AcDbSymbolTableRecord
100
AcDbTextStyleTableRecord
  2
Standard
 70
     0
 40
0.0
 41
1.0
 50
0.0
 71
     0
 42
2.5
  3
txt
  4

  0
STYLE
  5
3DA
330
3
100
AcDbSymbolTableRecord
100
AcDbTextStyleTableRecord
  2
AD-STANDARD
 70
     0
 40
0.0
 41
0.8
 50
0.0
 71
     0
 42
1.5
  3
C:\Program Files\AutoCAD LT\romans.shx
  4
bigfont.shx
  0
ENDTAB
  0
TABLE
  2
VIEW
  5
6
330
0
100
AcDbSymbolTable
 70
     0
  0
ENDTAB
  0
TABLE
  2
UCS
  5
7
330
0
100
AcDbSymbolTable
 70
     0
  0
ENDTAB
  0
TABLE
  2
APPID
  5
9
330
0
100
AcDbSymbolTable
 70
     6
  0
APPID
  5
12
330
9
100
AcDbSymbolTableRecord
100
AcDbRegAppTableRecord
  2
ACAD
 70
     0
  0
APPID
  5
3E1
330
9
100
AcDbSymbolTableRecord
100
AcDbRegAppTableRecord
  2
ACAD_PSEXT
 70
     0
  0
APPID
  5
45C
330
9
100
AcDbSymbolTableRecord
100
AcDbRegAppTableRecord
  2
ACAD_MLEADERVER
 70
     0
  0
APPID
  5
463
330
9
100
AcDbSymbolTableRecord
100
AcDbRegAppTableRecord
  2
ACAD_EXEMPT_FROM_CAD_STANDARDS
 70
     0
  0
APPID
  5
70B
330
9
100
AcDbSymbolTableRecord
100
AcDbRegAppTableRecord
  2
AcAecLayerStandard
 70
     0
  0
APPID
  5
815
330
9
100
AcDbSymbolTableRecord
100
AcDbRegAppTableRecord
  2
ACAD_NAV_VCDISPLAY
 70
     0
  0
ENDTAB
  0
TABLE
  2
DIMSTYLE
  5
A
330
0
100
AcDbSymbolTable
 70
     2
100
AcDbDimStyleTable
 71
     2
340
71D
340
2C8
  0
DIMSTYLE
105
2C8
330
A
100
AcDbSymbolTableRecord
100
AcDbDimStyleTableRecord
  2
Standard
 70
     0
340
11
  0
DIMSTYLE
105
71D
102
{ACAD_REACTORS
330
763
330
782
330
791
330
7A0
330
7AD
330
833
330
852
330
85F
330
875
330
882
102
}
330
A
100
AcDbSymbolTableRecord
100
AcDbDimStyleTableRecord
  2
09)　s＝1／5
 70
     0
 40
5.0
 41
2.5
 42
1.0
 44
2.0
 73
     0
 74
     0
 77
     1
 78
     8
140
3.0
141
-2.0
147
0.5
172
     1
176
     9
177
     9
178
     2
284
     8
340
3DA
  0
ENDTAB
  0
TABLE
  2
BLOCK_RECORD
  5
1
330
0
100
AcDbSymbolTable
 70
    10
  0
BLOCK_RECORD
  5
1F
102
{ACAD_XDICTIONARY
360
4ED
102
}
330
1
100
AcDbSymbolTableRecord
100
AcDbBlockTableRecord
  2
*Model_Space
340
22
  0
BLOCK_RECORD
  5
1B
330
1
100
AcDbSymbolTableRecord
100
AcDbBlockTableRecord
  2
*Paper_Space
340
1E
  0
BLOCK_RECORD
  5
764
330
1
100
AcDbSymbolTableRecord
100
AcDbBlockTableRecord
  2
*D0
340
0
  0
BLOCK_RECORD
  5
783
330
1
100
AcDbSymbolTableRecord
100
AcDbBlockTableRecord
  2
*D1
340
0
  0
BLOCK_RECORD
  5
792
330
1
100
AcDbSymbolTableRecord
100
AcDbBlockTableRecord
  2
*D2
340
0
  0
BLOCK_RECORD
  5
7A1
330
1
100
AcDbSymbolTableRecord
100
AcDbBlockTableRecord
  2
*D3
340
0
  0
BLOCK_RECORD
  5
7AE
330
1
100
AcDbSymbolTableRecord
100
AcDbBlockTableRecord
  2
*D4
340
0
  0
BLOCK_RECORD
  5
834
330
1
100
AcDbSymbolTableRecord
100
AcDbBlockTableRecord
  2
*D5
340
0
  0
BLOCK_RECORD
  5
853
330
1
100
AcDbSymbolTableRecord
100
AcDbBlockTableRecord
  2
*D6
340
0
  0
BLOCK_RECORD
  5
860
330
1
100
AcDbSymbolTableRecord
100
AcDbBlockTableRecord
  2
*D7
340
0
  0
BLOCK_RECORD
  5
876
330
1
100
AcDbSymbolTableRecord
100
AcDbBlockTableRecord
  2
*D8
340
0
  0
BLOCK_RECORD
  5
883
330
1
100
AcDbSymbolTableRecord
100
AcDbBlockTableRecord
  2
*D9
340
0
  0
ENDTAB
  0
ENDSEC
  0
SECTION
  2
BLOCKS
  0
BLOCK
  5
20
330
1F
100
AcDbEntity
  8
0
100
AcDbBlockBegin
  2
*Model_Space
 70
     0
 10
0.0
 20
0.0
 30
0.0
  3
*Model_Space
  1

  0
ENDBLK
  5
21
330
1F
100
AcDbEntity
  8
0
100
AcDbBlockEnd
  0
BLOCK
  5
1C
330
1B
100
AcDbEntity
 67
     1
  8
0
100
AcDbBlockBegin
  2
*Paper_Space
 70
     0
 10
0.0
 20
0.0
 30
0.0
  3
*Paper_Space
  1

  0
ENDBLK
  5
1D
330
1B
100
AcDbEntity
 67
     1
  8
0
100
AcDbBlockEnd
  0
BLOCK
  5
765
330
764
100
AcDbEntity
  8
0
100
AcDbBlockBegin
  2
*D0
 70
     1
 10
0.0
 20
0.0
 30
0.0
  3
*D0
  1

  0
LINE
  5
779
330
764
100
AcDbEntity
  8
0
 62
     9
370
    -2
100
AcDbLine
 10
-12.88354144764344
 20
196.2161379541025
 30
0.0
 11
-12.88354144764344
 21
154.0498375507466
 31
0.0
  0
LINE
  5
77A
330
764
100
AcDbEntity
  8
0
 62
     9
370
    -2
100
AcDbLine
 10
-262.883541447644
 20
196.2161379541024
 30
0.0
 11
-262.883541447644
 21
154.0498375507466
 31
0.0
  0
LINE
  5
77B
330
764
100
AcDbEntity
  8
0
 62
     9
370
    -2
100
AcDbLine
 10
-25.38354144764344
 20
164.0498375507466
 30
0.0
 11
-250.383541447644
 21
164.0498375507466
 31
0.0
  0
SOLID
  5
77C
330
764
100
AcDbEntity
  8
0
 62
     9
100
AcDbTrace
 10
-25.38354144764344
 20
166.1331708840799
 30
0.0
 11
-25.38354144764344
 21
161.9665042174132
 31
0.0
 12
-12.88354144764344
 22
164.0498375507466
 32
0.0
 13
-12.88354144764344
 23
164.0498375507466
 33
0.0
  0
SOLID
  5
77D
330
764
100
AcDbEntity
  8
0
 62
     9
100
AcDbTrace
 10
-250.383541447644
 20
166.1331708840799
 30
0.0
 11
-250.383541447644
 21
161.9665042174132
 31
0.0
 12
-262.883541447644
 22
164.0498375507466
 32
0.0
 13
-262.883541447644
 23
164.0498375507466
 33
0.0
  0
MTEXT
  5
77E
330
764
100
AcDbEntity
  8
0
 62
     2
100
AcDbMText
 10
-137.8835414476437
 20
174.0498375507466
 30
0.0
 40
15.0
 41
0.0
 71
     5
 72
     1
  1
\A1;250
  7
AD-STANDARD
 73
     1
 44
1.0
1001
ACAD
1000
MTEXTBEGIN
1070
    73
1070
     1
1070
    44
1040
1.0
1070
    74
1070
     0
1000
MTEXTEND
  0
POINT
  5
77F
330
764
100
AcDbEntity
  8
DEFPOINTS
 62
     0
100
AcDbPoint
 10
-12.88354144764344
 20
201.2161379541025
 30
0.0
  0
POINT
  5
780
330
764
100
AcDbEntity
  8
DEFPOINTS
 62
     0
100
AcDbPoint
 10
-262.883541447644
 20
201.2161379541024
 30
0.0
  0
POINT
  5
781
330
764
100
AcDbEntity
  8
DEFPOINTS
 62
     0
100
AcDbPoint
 10
-262.883541447644
 20
164.0498375507466
 30
0.0
  0
ENDBLK
  5
766
330
764
100
AcDbEntity
  8
0
100
AcDbBlockEnd
  0
BLOCK
  5
784
330
783
100
AcDbEntity
  8
0
100
AcDbBlockBegin
  2
*D1
 70
     1
 10
0.0
 20
0.0
 30
0.0
  3
*D1
  1

  0
LINE
  5
786
330
783
100
AcDbEntity
  8
0
 62
     9
370
    -2
100
AcDbLine
 10
-262.883541447644
 20
196.2161379541025
 30
0.0
 11
-262.883541447644
 21
154.0498375507466
 31
0.0
  0
LINE
  5
787
330
783
100
AcDbEntity
  8
0
 62
     9
370
    -2
100
AcDbLine
 10
-283.3835414476441
 20
270.2238600773936
 30
0.0
 11
-283.3835414476441
 21
154.0498375507466
 31
0.0
  0
LINE
  5
788
330
783
100
AcDbEntity
  8
0
 62
     9
370
    -2
100
AcDbLine
 10
-250.383541447644
 20
164.0498375507466
 30
0.0
 11
-237.883541447644
 21
164.0498375507466
 31
0.0
  0
LINE
  5
789
330
783
100
AcDbEntity
  8
0
 62
     9
370
    -2
100
AcDbLine
 10
-295.8835414476441
 20
164.0498375507466
 30
0.0
 11
-349.9549700190727
 21
164.0498375507466
 31
0.0
  0
LINE
  5
78A
330
783
100
AcDbEntity
  8
0
 62
     9
370
    -2
100
AcDbLine
 10
-262.883541447644
 20
164.0498375507466
 30
0.0
 11
-283.3835414476441
 21
164.0498375507466
 31
0.0
  0
SOLID
  5
78B
330
783
100
AcDbEntity
  8
0
 62
     9
100
AcDbTrace
 10
-250.383541447644
 20
166.1331708840799
 30
0.0
 11
-250.383541447644
 21
161.9665042174132
 31
0.0
 12
-262.883541447644
 22
164.0498375507466
 32
0.0
 13
-262.883541447644
 23
164.0498375507466
 33
0.0
  0
SOLID
  5
78C
330
783
100
AcDbEntity
  8
0
 62
     9
100
AcDbTrace
 10
-295.8835414476441
 20
166.1331708840799
 30
0.0
 11
-295.8835414476441
 21
161.9665042174132
 31
0.0
 12
-283.3835414476441
 22
164.0498375507466
 32
0.0
 13
-283.3835414476441
 23
164.0498375507466
 33
0.0
  0
MTEXT
  5
78D
330
783
100
AcDbEntity
  8
0
 62
     2
100
AcDbMText
 10
-329.1692557333584
 20
174.0498375507466
 30
0.0
 40
15.0
 41
0.0
 71
     5
 72
     1
  1
\A1;20.5
  7
AD-STANDARD
 73
     1
 44
1.0
1001
ACAD
1000
MTEXTBEGIN
1070
    73
1070
     1
1070
    44
1040
1.0
1070
    74
1070
     0
1000
MTEXTEND
  0
POINT
  5
78E
330
783
100
AcDbEntity
  8
DEFPOINTS
 62
     0
100
AcDbPoint
 10
-262.883541447644
 20
201.2161379541025
 30
0.0
  0
POINT
  5
78F
330
783
100
AcDbEntity
  8
DEFPOINTS
 62
     0
100
AcDbPoint
 10
-283.3835414476441
 20
275.2238600773936
 30
0.0
  0
POINT
  5
790
330
783
100
AcDbEntity
  8
DEFPOINTS
 62
     0
100
AcDbPoint
 10
-283.3835414476441
 20
164.0498375507466
 30
0.0
  0
ENDBLK
  5
785
330
783
100
AcDbEntity
  8
0
100
AcDbBlockEnd
  0
BLOCK
  5
793
330
792
100
AcDbEntity
  8
0
100
AcDbBlockBegin
  2
*D2
 70
     1
 10
0.0
 20
0.0
 30
0.0
  3
*D2
  1

  0
LINE
  5
795
330
792
100
AcDbEntity
  8
0
 62
     9
370
    -2
100
AcDbLine
 10
-278.3835414476441
 20
285.2238600773937
 30
0.0
 11
-338.8340222252009
 21
285.2238600773937
 31
0.0
  0
LINE
  5
796
330
792
100
AcDbEntity
  8
0
 62
     9
370
    -2
100
AcDbLine
 10
-278.383541447644
 20
265.2238600773936
 30
0.0
 11
-338.8340222252009
 21
265.2238600773936
 31
0.0
  0
LINE
  5
797
330
792
100
AcDbEntity
  8
0
 62
     9
370
    -2
100
AcDbLine
 10
-328.8340222252009
 20
297.7238600773937
 30
0.0
 11
-328.8340222252009
 21
310.2238600773937
 31
0.0
  0
LINE
  5
798
330
792
100
AcDbEntity
  8
0
 62
     9
370
    -2
100
AcDbLine
 10
-328.8340222252009
 20
252.7238600773936
 30
0.0
 11
-328.8340222252009
 21
215.7952886488222
 31
0.0
  0
LINE
  5
799
330
792
100
AcDbEntity
  8
0
 62
     9
370
    -2
100
AcDbLine
 10
-328.8340222252009
 20
285.2238600773937
 30
0.0
 11
-328.8340222252009
 21
265.2238600773936
 31
0.0
  0
SOLID
  5
79A
330
792
100
AcDbEntity
  8
0
 62
     9
100
AcDbTrace
 10
-330.9173555585342
 20
297.7238600773937
 30
0.0
 11
-326.7506888918676
 21
297.7238600773937
 31
0.0
 12
-328.8340222252009
 22
285.2238600773937
 32
0.0
 13
-328.8340222252009
 23
285.2238600773937
 33
0.0
  0
SOLID
  5
79B
330
792
100
AcDbEntity
  8
0
 62
     9
100
AcDbTrace
 10
-330.9173555585342
 20
252.7238600773936
 30
0.0
 11
-326.7506888918676
 21
252.7238600773936
 31
0.0
 12
-328.8340222252009
 22
265.2238600773936
 32
0.0
 13
-328.8340222252009
 23
265.2238600773936
 33
0.0
  0
MTEXT
  5
79C
330
792
100
AcDbEntity
  8
0
 62
     2
100
AcDbMText
 10
-338.834022225201
 20
228.0095743631078
 30
0.0
 40
15.0
 41
0.0
 71
     5
 72
     1
  1
\A1;20
  7
AD-STANDARD
 11
0.0000000000000001
 21
1.0
 31
0.0
 73
     1
 44
1.0
1001
ACAD
1000
MTEXTBEGIN
1070
    73
1070
     1
1070
    44
1040
1.0
1070
    74
1070
     0
1000
MTEXTEND
  0
POINT
  5
79D
330
792
100
AcDbEntity
  8
DEFPOINTS
 62
     0
100
AcDbPoint
 10
-273.3835414476441
 20
285.2238600773937
 30
0.0
  0
POINT
  5
79E
330
792
100
AcDbEntity
  8
DEFPOINTS
 62
     0
100
AcDbPoint
 10
-273.383541447644
 20
265.2238600773936
 30
0.0
  0
POINT
  5
79F
330
792
100
AcDbEntity
  8
DEFPOINTS
 62
     0
100
AcDbPoint
 10
-328.8340222252009
 20
265.2238600773936
 30
0.0
  0
ENDBLK
  5
794
330
792
100
AcDbEntity
  8
0
100
AcDbBlockEnd
  0
BLOCK
  5
7A2
330
7A1
100
AcDbEntity
  8
0
100
AcDbBlockBegin
  2
*D3
 70
     1
 10
0.0
 20
0.0
 30
0.0
  3
*D3
  1

  0
LINE
  5
7A4
330
7A1
100
AcDbEntity
  8
0
 62
     9
370
    -2
100
AcDbLine
 10
-266.891263570935
 20
200.2238600773933
 30
0.0
 11
-369.4526291826069
 21
200.2238600773934
 31
0.0
  0
LINE
  5
7A5
330
7A1
100
AcDbEntity
  8
0
 62
     9
370
    -2
100
AcDbLine
 10
-269.8835414476441
 20
275.2238600773936
 30
0.0
 11
-369.4526291826069
 21
275.2238600773936
 31
0.0
  0
LINE
  5
7A6
330
7A1
100
AcDbEntity
  8
0
 62
     9
370
    -2
100
AcDbLine
 10
-359.4526291826069
 20
212.7238600773934
 30
0.0
 11
-359.4526291826069
 21
262.7238600773936
 31
0.0
  0
SOLID
  5
7A7
330
7A1
100
AcDbEntity
  8
0
 62
     9
100
AcDbTrace
 10
-361.5359625159402
 20
212.7238600773934
 30
0.0
 11
-357.3692958492736
 21
212.7238600773934
 31
0.0
 12
-359.4526291826069
 22
200.2238600773934
 32
0.0
 13
-359.4526291826069
 23
200.2238600773934
 33
0.0
  0
SOLID
  5
7A8
330
7A1
100
AcDbEntity
  8
0
 62
     9
100
AcDbTrace
 10
-361.5359625159402
 20
262.7238600773936
 30
0.0
 11
-357.3692958492736
 21
262.7238600773936
 31
0.0
 12
-359.4526291826069
 22
275.2238600773936
 32
0.0
 13
-359.4526291826069
 23
275.2238600773936
 33
0.0
  0
MTEXT
  5
7A9
330
7A1
100
AcDbEntity
  8
0
 62
     2
100
AcDbMText
 10
-369.4526291826069
 20
237.7238600773934
 30
0.0
 40
15.0
 41
0.0
 71
     5
 72
     1
  1
\A1;75
  7
AD-STANDARD
 11
0.0000000000000001
 21
1.0
 31
0.0
 73
     1
 44
1.0
1001
ACAD
1000
MTEXTBEGIN
1070
    73
1070
     1
1070
    44
1040
1.0
1070
    74
1070
     0
1000
MTEXTEND
  0
POINT
  5
7AA
330
7A1
100
AcDbEntity
  8
DEFPOINTS
 62
     0
100
AcDbPoint
 10
-261.891263570935
 20
200.2238600773933
 30
0.0
  0
POINT
  5
7AB
330
7A1
100
AcDbEntity
  8
DEFPOINTS
 62
     0
100
AcDbPoint
 10
-264.8835414476441
 20
275.2238600773936
 30
0.0
  0
POINT
  5
7AC
330
7A1
100
AcDbEntity
  8
DEFPOINTS
 62
     0
100
AcDbPoint
 10
-359.4526291826069
 20
275.2238600773936
 30
0.0
  0
ENDBLK
  5
7A3
330
7A1
100
AcDbEntity
  8
0
100
AcDbBlockEnd
  0
BLOCK
  5
7AF
330
7AE
100
AcDbEntity
  8
0
100
AcDbBlockBegin
  2
*D4
 70
     1
 10
0.0
 20
0.0
 30
0.0
  3
*D4
  1

  0
LINE
  5
7B1
330
7AE
100
AcDbEntity
  8
0
 62
     9
370
    -2
100
AcDbLine
 10
-8.875819324352391
 20
200.2238600773933
 30
0.0
 11
41.27095961850862
 21
200.2238600773933
 31
0.0
  0
LINE
  5
7B2
330
7AE
100
AcDbEntity
  8
0
 62
     9
370
    -2
100
AcDbLine
 10
-8.875819324352391
 20
450.2238600773942
 30
0.0
 11
41.27095961850868
 21
450.2238600773942
 31
0.0
  0
LINE
  5
7B3
330
7AE
100
AcDbEntity
  8
0
 62
     9
370
    -2
100
AcDbLine
 10
31.27095961850863
 20
212.7238600773933
 30
0.0
 11
31.27095961850868
 21
437.7238600773942
 31
0.0
  0
SOLID
  5
7B4
330
7AE
100
AcDbEntity
  8
0
 62
     9
100
AcDbTrace
 10
29.1876262851753
 20
212.7238600773933
 30
0.0
 11
33.35429295184197
 21
212.7238600773933
 31
0.0
 12
31.27095961850863
 22
200.2238600773933
 32
0.0
 13
31.27095961850863
 23
200.2238600773933
 33
0.0
  0
SOLID
  5
7B5
330
7AE
100
AcDbEntity
  8
0
 62
     9
100
AcDbTrace
 10
29.18762628517534
 20
437.7238600773942
 30
0.0
 11
33.35429295184201
 21
437.7238600773942
 31
0.0
 12
31.27095961850868
 22
450.2238600773942
 32
0.0
 13
31.27095961850868
 23
450.2238600773942
 33
0.0
  0
MTEXT
  5
7B6
330
7AE
100
AcDbEntity
  8
0
 62
     2
100
AcDbMText
 10
21.2709596185086
 20
325.2238600773938
 30
0.0
 40
15.0
 41
0.0
 71
     5
 72
     1
  1
\A1;250
  7
AD-STANDARD
 11
0.0000000000000001
 21
1.0
 31
0.0
 73
     1
 44
1.0
1001
ACAD
1000
MTEXTBEGIN
1070
    73
1070
     1
1070
    44
1040
1.0
1070
    74
1070
     0
1000
MTEXTEND
  0
POINT
  5
7B7
330
7AE
100
AcDbEntity
  8
DEFPOINTS
 62
     0
100
AcDbPoint
 10
-13.87581932435239
 20
200.2238600773933
 30
0.0
  0
POINT
  5
7B8
330
7AE
100
AcDbEntity
  8
DEFPOINTS
 62
     0
100
AcDbPoint
 10
-13.87581932435239
 20
450.2238600773942
 30
0.0
  0
POINT
  5
7B9
330
7AE
100
AcDbEntity
  8
DEFPOINTS
 62
     0
100
AcDbPoint
 10
31.27095961850868
 20
450.2238600773942
 30
0.0
  0
ENDBLK
  5
7B0
330
7AE
100
AcDbEntity
  8
0
100
AcDbBlockEnd
  0
BLOCK
  5
835
330
834
100
AcDbEntity
  8
0
100
AcDbBlockBegin
  2
*D5
 70
     1
 10
0.0
 20
0.0
 30
0.0
  3
*D5
  1

  0
LINE
  5
849
330
834
100
AcDbEntity
  8
0
 62
     9
370
    -2
100
AcDbLine
 10
-398.5556234444004
 20
336.2238600773938
 30
0.0
 11
-398.5556234444004
 21
379.6956898247026
 31
0.0
  0
LINE
  5
84A
330
834
100
AcDbEntity
  8
0
 62
     9
370
    -2
100
AcDbLine
 10
-262.883541447644
 20
336.2238600773938
 30
0.0
 11
-262.883541447644
 21
379.6956898247026
 31
0.0
  0
LINE
  5
84B
330
834
100
AcDbEntity
  8
0
 62
     9
370
    -2
100
AcDbLine
 10
-386.0556234444004
 20
369.6956898247027
 30
0.0
 11
-275.383541447644
 21
369.6956898247027
 31
0.0
  0
SOLID
  5
84C
330
834
100
AcDbEntity
  8
0
 62
     9
100
AcDbTrace
 10
-386.0556234444004
 20
371.779023158036
 30
0.0
 11
-386.0556234444004
 21
367.6123564913693
 31
0.0
 12
-398.5556234444004
 22
369.6956898247027
 32
0.0
 13
-398.5556234444004
 23
369.6956898247027
 33
0.0
  0
SOLID
  5
84D
330
834
100
AcDbEntity
  8
0
 62
     9
100
AcDbTrace
 10
-275.383541447644
 20
371.779023158036
 30
0.0
 11
-275.383541447644
 21
367.6123564913693
 31
0.0
 12
-262.883541447644
 22
369.6956898247027
 32
0.0
 13
-262.883541447644
 23
369.6956898247027
 33
0.0
  0
MTEXT
  5
84E
330
834
100
AcDbEntity
  8
0
 62
     2
100
AcDbMText
 10
-330.7195824460222
 20
379.6956898247026
 30
0.0
 40
15.0
 41
0.0
 71
     5
 72
     1
  1
\A1;Max. 1.5m
  7
AD-STANDARD
 73
     1
 44
1.0
1001
ACAD
1000
MTEXTBEGIN
1070
    73
1070
     1
1070
    44
1040
1.0
1070
    74
1070
     0
1000
MTEXTEND
  0
POINT
  5
84F
330
834
100
AcDbEntity
  8
DEFPOINTS
 62
     0
100
AcDbPoint
 10
-398.5556234444004
 20
331.2238600773938
 30
0.0
  0
POINT
  5
850
330
834
100
AcDbEntity
  8
DEFPOINTS
 62
     0
100
AcDbPoint
 10
-262.883541447644
 20
331.2238600773938
 30
0.0
  0
POINT
  5
851
330
834
100
AcDbEntity
  8
DEFPOINTS
 62
     0
100
AcDbPoint
 10
-262.883541447644
 20
369.6956898247027
 30
0.0
  0
ENDBLK
  5
836
330
834
100
AcDbEntity
  8
0
100
AcDbBlockEnd
  0
BLOCK
  5
854
330
853
100
AcDbEntity
  8
0
100
AcDbBlockBegin
  2
*D6
 70
     1
 10
0.0
 20
0.0
 30
0.0
  3
*D6
  1

  0
LINE
  5
856
330
853
100
AcDbEntity
  8
0
 62
     9
370
    -2
100
AcDbLine
 10
-7.883541447643438
 20
8.305554552308249
 30
0.0
 11
41.27095961850858
 21
8.305554552308235
 31
0.0
  0
LINE
  5
857
330
853
100
AcDbEntity
  8
0
 62
     9
370
    -2
100
AcDbLine
 10
-13.76632366616536
 20
48.30555455230841
 30
0.0
 11
41.2709596185086
 21
48.3055545523084
 31
0.0
  0
LINE
  5
858
330
853
100
AcDbEntity
  8
0
 62
     9
370
    -2
100
AcDbLine
 10
31.27095961850859
 20
20.80555455230824
 30
0.0
 11
31.27095961850859
 21
35.80555455230841
 31
0.0
  0
SOLID
  5
859
330
853
100
AcDbEntity
  8
0
 62
     9
100
AcDbTrace
 10
29.18762628517525
 20
20.80555455230824
 30
0.0
 11
33.35429295184192
 21
20.80555455230824
 31
0.0
 12
31.27095961850859
 22
8.305554552308237
 32
0.0
 13
31.27095961850859
 23
8.305554552308237
 33
0.0
  0
SOLID
  5
85A
330
853
100
AcDbEntity
  8
0
 62
     9
100
AcDbTrace
 10
29.18762628517526
 20
35.80555455230841
 30
0.0
 11
33.35429295184192
 21
35.80555455230841
 31
0.0
 12
31.27095961850859
 22
48.3055545523084
 32
0.0
 13
31.27095961850859
 23
48.3055545523084
 33
0.0
  0
MTEXT
  5
85B
330
853
100
AcDbEntity
  8
0
 62
     2
100
AcDbMText
 10
21.27095961850858
 20
28.30555455230833
 30
0.0
 40
15.0
 41
0.0
 71
     5
 72
     1
  1
\A1;40
  7
AD-STANDARD
 11
0.0000000000000001
 21
1.0
 31
0.0
 73
     1
 44
1.0
1001
ACAD
1000
MTEXTBEGIN
1070
    73
1070
     1
1070
    44
1040
1.0
1070
    74
1070
     0
1000
MTEXTEND
  0
POINT
  5
85C
330
853
100
AcDbEntity
  8
DEFPOINTS
 62
     0
100
AcDbPoint
 10
-12.88354144764344
 20
8.305554552308251
 30
0.0
  0
POINT
  5
85D
330
853
100
AcDbEntity
  8
DEFPOINTS
 62
     0
100
AcDbPoint
 10
-18.76632366616536
 20
48.30555455230842
 30
0.0
  0
POINT
  5
85E
330
853
100
AcDbEntity
  8
DEFPOINTS
 62
     0
100
AcDbPoint
 10
31.27095961850859
 20
48.3055545523084
 30
0.0
  0
ENDBLK
  5
855
330
853
100
AcDbEntity
  8
0
100
AcDbBlockEnd
  0
BLOCK
  5
861
330
860
100
AcDbEntity
  8
0
100
AcDbBlockBegin
  2
*D7
 70
     1
 10
0.0
 20
0.0
 30
0.0
  3
*D7
  1

  0
LINE
  5
86C
330
860
100
AcDbEntity
  8
0
 62
     9
370
    -2
100
AcDbLine
 10
-20.38354144764332
 20
-49.69444544769192
 30
0.0
 11
75.69486795385135
 21
-49.69444544769196
 31
0.0
  0
LINE
  5
86D
330
860
100
AcDbEntity
  8
0
 62
     9
370
    -2
100
AcDbLine
 10
-13.76632366616547
 20
48.30555455230841
 30
0.0
 11
75.69486795385138
 21
48.3055545523084
 31
0.0
  0
LINE
  5
86E
330
860
100
AcDbEntity
  8
0
 62
     9
370
    -2
100
AcDbLine
 10
65.69486795385135
 20
-37.19444544769196
 30
0.0
 11
65.69486795385138
 21
35.8055545523084
 31
0.0
  0
SOLID
  5
86F
330
860
100
AcDbEntity
  8
0
 62
     9
100
AcDbTrace
 10
63.61153462051802
 20
-37.19444544769196
 30
0.0
 11
67.77820128718468
 21
-37.19444544769196
 31
0.0
 12
65.69486795385135
 22
-49.69444544769196
 32
0.0
 13
65.69486795385135
 23
-49.69444544769196
 33
0.0
  0
SOLID
  5
870
330
860
100
AcDbEntity
  8
0
 62
     9
100
AcDbTrace
 10
63.61153462051804
 20
35.8055545523084
 30
0.0
 11
67.77820128718471
 21
35.8055545523084
 31
0.0
 12
65.69486795385138
 22
48.3055545523084
 32
0.0
 13
65.69486795385138
 23
48.3055545523084
 33
0.0
  0
MTEXT
  5
871
330
860
100
AcDbEntity
  8
0
 62
     2
100
AcDbMText
 10
55.69486795385137
 20
-0.6944454476917677
 30
0.0
 40
15.0
 41
0.0
 71
     5
 72
     1
  1
\A1;98
  7
AD-STANDARD
 11
0.0000000000000001
 21
1.0
 31
0.0
 73
     1
 44
1.0
1001
ACAD
1000
MTEXTBEGIN
1070
    73
1070
     1
1070
    44
1040
1.0
1070
    74
1070
     0
1000
MTEXTEND
  0
POINT
  5
872
330
860
100
AcDbEntity
  8
DEFPOINTS
 62
     0
100
AcDbPoint
 10
-25.38354144764332
 20
-49.69444544769192
 30
0.0
  0
POINT
  5
873
330
860
100
AcDbEntity
  8
DEFPOINTS
 62
     0
100
AcDbPoint
 10
-18.76632366616547
 20
48.30555455230842
 30
0.0
  0
POINT
  5
874
330
860
100
AcDbEntity
  8
DEFPOINTS
 62
     0
100
AcDbPoint
 10
65.69486795385138
 20
48.3055545523084
 30
0.0
  0
ENDBLK
  5
862
330
860
100
AcDbEntity
  8
0
100
AcDbBlockEnd
  0
BLOCK
  5
877
330
876
100
AcDbEntity
  8
0
100
AcDbBlockBegin
  2
*D8
 70
     1
 10
0.0
 20
0.0
 30
0.0
  3
*D8
  1

  0
LINE
  5
879
330
876
100
AcDbEntity
  8
0
 62
     9
370
    -2
100
AcDbLine
 10
-238.8835131812148
 20
-54.69444544769186
 30
0.0
 11
-238.8835131812148
 21
-95.94783534912824
 31
0.0
  0
LINE
  5
87A
330
876
100
AcDbEntity
  8
0
 62
     9
370
    -2
100
AcDbLine
 10
-36.88351318121426
 20
-54.69444544769192
 30
0.0
 11
-36.88351318121426
 21
-95.94783534912824
 31
0.0
  0
LINE
  5
87B
330
876
100
AcDbEntity
  8
0
 62
     9
370
    -2
100
AcDbLine
 10
-226.3835131812148
 20
-85.94783534912824
 30
0.0
 11
-49.38351318121426
 21
-85.94783534912824
 31
0.0
  0
SOLID
  5
87C
330
876
100
AcDbEntity
  8
0
 62
     9
100
AcDbTrace
 10
-226.3835131812148
 20
-83.8645020157949
 30
0.0
 11
-226.3835131812148
 21
-88.03116868246156
 31
0.0
 12
-238.8835131812148
 22
-85.94783534912824
 32
0.0
 13
-238.8835131812148
 23
-85.94783534912824
 33
0.0
  0
SOLID
  5
87D
330
876
100
AcDbEntity
  8
0
 62
     9
100
AcDbTrace
 10
-49.38351318121426
 20
-83.8645020157949
 30
0.0
 11
-49.38351318121426
 21
-88.03116868246156
 31
0.0
 12
-36.88351318121426
 22
-85.94783534912824
 32
0.0
 13
-36.88351318121426
 23
-85.94783534912824
 33
0.0
  0
MTEXT
  5
87E
330
876
100
AcDbEntity
  8
0
 62
     2
100
AcDbMText
 10
-137.8835131812145
 20
-75.94783534912824
 30
0.0
 40
15.0
 41
0.0
 71
     5
 72
     1
  1
\A1;202
  7
AD-STANDARD
 73
     1
 44
1.0
1001
ACAD
1000
MTEXTBEGIN
1070
    73
1070
     1
1070
    44
1040
1.0
1070
    74
1070
     0
1000
MTEXTEND
  0
POINT
  5
87F
330
876
100
AcDbEntity
  8
DEFPOINTS
 62
     0
100
AcDbPoint
 10
-238.8835131812148
 20
-49.69444544769186
 30
0.0
  0
POINT
  5
880
330
876
100
AcDbEntity
  8
DEFPOINTS
 62
     0
100
AcDbPoint
 10
-36.88351318121426
 20
-49.69444544769192
 30
0.0
  0
POINT
  5
881
330
876
100
AcDbEntity
  8
DEFPOINTS
 62
     0
100
AcDbPoint
 10
-36.88351318121426
 20
-85.94783534912824
 30
0.0
  0
ENDBLK
  5
878
330
876
100
AcDbEntity
  8
0
100
AcDbBlockEnd
  0
BLOCK
  5
884
330
883
100
AcDbEntity
  8
0
100
AcDbBlockBegin
  2
*D9
 70
     1
 10
0.0
 20
0.0
 30
0.0
  3
*D9
  1

  0
LINE
  5
886
330
883
100
AcDbEntity
  8
0
 62
     9
370
    -2
100
AcDbLine
 10
216.409792952942
 20
-54.69444544769192
 30
0.0
 11
216.409792952942
 21
-95.94783534912824
 31
0.0
  0
LINE
  5
887
330
883
100
AcDbEntity
  8
0
 62
     9
370
    -2
100
AcDbLine
 10
395.4097929529424
 20
-54.69444544769192
 30
0.0
 11
395.4097929529424
 21
-95.94783534912824
 31
0.0
  0
LINE
  5
888
330
883
100
AcDbEntity
  8
0
 62
     9
370
    -2
100
AcDbLine
 10
228.909792952942
 20
-85.94783534912824
 30
0.0
 11
382.9097929529424
 21
-85.94783534912824
 31
0.0
  0
SOLID
  5
889
330
883
100
AcDbEntity
  8
0
 62
     9
100
AcDbTrace
 10
228.909792952942
 20
-83.8645020157949
 30
0.0
 11
228.909792952942
 21
-88.03116868246156
 31
0.0
 12
216.409792952942
 22
-85.94783534912824
 32
0.0
 13
216.409792952942
 23
-85.94783534912824
 33
0.0
  0
SOLID
  5
88A
330
883
100
AcDbEntity
  8
0
 62
     9
100
AcDbTrace
 10
382.9097929529424
 20
-83.8645020157949
 30
0.0
 11
382.9097929529424
 21
-88.03116868246156
 31
0.0
 12
395.4097929529424
 22
-85.94783534912824
 32
0.0
 13
395.4097929529424
 23
-85.94783534912824
 33
0.0
  0
MTEXT
  5
88B
330
883
100
AcDbEntity
  8
0
 62
     2
100
AcDbMText
 10
305.9097929529422
 20
-75.94783534912824
 30
0.0
 40
15.0
 41
0.0
 71
     5
 72
     1
  1
\A1;179
  7
AD-STANDARD
 73
     1
 44
1.0
1001
ACAD
1000
MTEXTBEGIN
1070
    73
1070
     1
1070
    44
1040
1.0
1070
    74
1070
     0
1000
MTEXTEND
  0
POINT
  5
88C
330
883
100
AcDbEntity
  8
DEFPOINTS
 62
     0
100
AcDbPoint
 10
216.409792952942
 20
-49.69444544769192
 30
0.0
  0
POINT
  5
88D
330
883
100
AcDbEntity
  8
DEFPOINTS
 62
     0
100
AcDbPoint
 10
395.4097929529424
 20
-49.69444544769192
 30
0.0
  0
POINT
  5
88E
330
883
100
AcDbEntity
  8
DEFPOINTS
 62
     0
100
AcDbPoint
 10
395.4097929529424
 20
-85.94783534912824
 30
0.0
  0
ENDBLK
  5
885
330
883
100
AcDbEntity
  8
0
100
AcDbBlockEnd
  0
ENDSEC
  0
SECTION
  2
ENTITIES
  0
LINE
  5
4C2
330
1F
100
AcDbEntity
  8
0
100
AcDbLine
 10
-262.883541447644
 20
265.2238600773936
 30
0.0
 11
-273.383541447644
 21
265.2238600773936
 31
0.0
  0
ARC
  5
4C3
330
1F
100
AcDbEntity
  8
0
100
AcDbCircle
 10
-273.3835414476441
 20
275.2238600773936
 30
0.0
 40
10.00000000000003
100
AcDbArc
 50
90.0
 51
270.0
  0
LINE
  5
4C4
330
1F
100
AcDbEntity
  8
0
100
AcDbLine
 10
-273.3835414476441
 20
285.2238600773937
 30
0.0
 11
-262.883541447644
 21
285.2238600773937
 31
0.0
  0
CIRCLE
  5
4C5
330
1F
100
AcDbEntity
  8
0
100
AcDbCircle
 10
-273.3835414476441
 20
275.2238600773936
 30
0.0
 40
8.500000000000024
  0
CIRCLE
  5
4C6
330
1F
100
AcDbEntity
  8
0
100
AcDbCircle
 10
-273.3835414476441
 20
275.2238600773936
 30
0.0
 40
8.000000000000023
  0
CIRCLE
  5
4C7
330
1F
100
AcDbEntity
  8
0
100
AcDbCircle
 10
-273.3835414476441
 20
275.2238600773936
 30
0.0
 40
3.50000000000001
  0
LINE
  5
4C8
330
1F
100
AcDbEntity
  8
0
100
AcDbLine
 10
-13.87581932435239
 20
450.2238600773942
 30
0.0
 11
-261.891263570935
 21
450.2238600773942
 31
0.0
  0
LINE
  5
4C9
330
1F
100
AcDbEntity
  8
0
100
AcDbLine
 10
-257.0007592291219
 20
445.3333557355837
 30
0.0
 11
-18.76632366616559
 21
445.3333557355837
 31
0.0
  0
LINE
  5
4CA
330
1F
100
AcDbEntity
  8
0
100
AcDbLine
 10
-18.76632366616547
 20
445.3333557355837
 30
0.0
 11
-13.87581932435239
 21
450.2238600773941
 31
0.0
  0
LINE
  5
4CB
330
1F
100
AcDbEntity
  8
0
100
AcDbLine
 10
-261.891263570935
 20
450.2238600773942
 30
0.0
 11
-257.0007592291219
 21
445.3333557355839
 31
0.0
  0
LINE
  5
4CC
102
{ACAD_REACTORS
330
7C8
102
}
330
1F
100
AcDbEntity
  8
0
100
AcDbLine
 10
-262.8835414476441
 20
449.231582200685
 30
0.0
 11
-262.883541447644
 21
201.2161379541024
 31
0.0
  0
LINE
  5
4CD
330
1F
100
AcDbEntity
  8
0
100
AcDbLine
 10
-257.9930371058337
 20
206.1066422959156
 30
0.0
 11
-257.9930371058338
 21
444.341077858872
 31
0.0
  0
LINE
  5
4CE
330
1F
100
AcDbEntity
  8
0
100
AcDbLine
 10
-262.883541447644
 20
201.2161379541025
 30
0.0
 11
-257.9930371058337
 21
206.1066422959156
 31
0.0
  0
LINE
  5
4CF
330
1F
100
AcDbEntity
  8
0
100
AcDbLine
 10
-257.9930371058337
 20
444.341077858872
 30
0.0
 11
-262.8835414476441
 21
449.2315822006851
 31
0.0
  0
LINE
  5
4D0
330
1F
100
AcDbEntity
  8
0
100
AcDbLine
 10
-12.88354144764344
 20
201.2161379541025
 30
0.0
 11
-12.88354144764344
 21
449.2315822006851
 31
0.0
  0
LINE
  5
4D1
330
1F
100
AcDbEntity
  8
0
100
AcDbLine
 10
-261.891263570935
 20
200.2238600773933
 30
0.0
 11
-13.87581932435239
 21
200.2238600773933
 31
0.0
  0
SPLINE
  5
4D2
330
1F
100
AcDbEntity
  8
0
100
AcDbSpline
210
0.0
220
0.0
230
1.0
 70
     8
 71
     3
 72
    14
 73
    10
 74
     0
 42
0.0000000001
 43
0.0000000001
 40
0.0
 40
0.0
 40
0.0
 40
0.0
 40
0.25
 40
0.25
 40
0.5
 40
0.5
 40
0.75
 40
0.75
 40
1.0
 40
1.0
 40
1.0
 40
1.0
 10
-12.88354144764344
 20
201.2161379541025
 30
0.0
 10
-12.88354144764332
 20
201.0850316020231
 30
0.0
 10
-12.90897129585778
 20
200.9563215619504
 30
0.0
 10
-13.00797750737399
 20
200.7156779634481
 30
0.0
 10
-13.08144282948126
 20
200.6054555869208
 30
0.0
 10
-13.26450880685729
 20
200.4222435989843
 30
0.0
 10
-13.3753162521059
 20
200.3484430497005
 30
0.0
 10
-13.61435790058397
 20
200.2498384498713
 30
0.0
 10
-13.74470556800611
 20
200.2238600773933
 30
0.0
 10
-13.87581932435239
 20
200.2238600773933
 30
0.0
  0
SPLINE
  5
4D3
330
1F
100
AcDbEntity
  8
0
100
AcDbSpline
210
0.0
220
0.0
230
1.0
 70
     8
 71
     3
 72
    14
 73
    10
 74
     0
 42
0.0000000001
 43
0.0000000001
 40
0.0
 40
0.0
 40
0.0
 40
0.0
 40
0.25
 40
0.25
 40
0.5
 40
0.5
 40
0.75
 40
0.75
 40
1.0
 40
1.0
 40
1.0
 40
1.0
 10
-13.87581932435239
 20
450.2238600773942
 30
0.0
 10
-13.74471297227296
 20
450.2238600773942
 30
0.0
 10
-13.61600293220021
 20
450.1984302291795
 30
0.0
 10
-13.37535933369804
 20
450.0994240176633
 30
0.0
 10
-13.26513695717062
 20
450.0259586955562
 30
0.0
 10
-13.08192496923425
 20
449.8428927181802
 30
0.0
 10
-13.0081244199506
 20
449.7320852729315
 30
0.0
 10
-12.9095198201212
 20
449.4930436244537
 30
0.0
 10
-12.88354144764332
 20
449.3626959570313
 30
0.0
 10
-12.88354144764344
 20
449.231582200685
 30
0.0
  0
SPLINE
  5
4D4
330
1F
100
AcDbEntity
  8
0
100
AcDbSpline
210
0.0
220
0.0
230
1.0
 70
     8
 71
     3
 72
    14
 73
    10
 74
     0
 42
0.0000000001
 43
0.0000000001
 40
0.0
 40
0.0
 40
0.0
 40
0.0
 40
0.25
 40
0.25
 40
0.5
 40
0.5
 40
0.75
 40
0.75
 40
1.0
 40
1.0
 40
1.0
 40
1.0
 10
-261.891263570935
 20
200.2238600773933
 30
0.0
 10
-262.0223699230144
 20
200.2238600773933
 30
0.0
 10
-262.1510799630871
 20
200.249289925608
 30
0.0
 10
-262.3917235615894
 20
200.3482961371243
 30
0.0
 10
-262.5019459381168
 20
200.4217614592313
 30
0.0
 10
-262.6851579260531
 20
200.6048274366073
 30
0.0
 10
-262.7589584753369
 20
200.7156348818559
 30
0.0
 10
-262.8575630751661
 20
200.9546765303339
 30
0.0
 10
-262.883541447644
 20
201.0850241977562
 30
0.0
 10
-262.883541447644
 20
201.2161379541025
 30
0.0
  0
SPLINE
  5
4D5
330
1F
100
AcDbEntity
  8
0
100
AcDbSpline
210
0.0
220
0.0
230
1.0
 70
     8
 71
     3
 72
    14
 73
    10
 74
     0
 42
0.0000000001
 43
0.0000000001
 40
0.0
 40
0.0
 40
0.0
 40
0.0
 40
0.25
 40
0.25
 40
0.5
 40
0.5
 40
0.75
 40
0.75
 40
1.0
 40
1.0
 40
1.0
 40
1.0
 10
-262.8835414476441
 20
449.231582200685
 30
0.0
 10
-262.8835414476441
 20
449.3626885527644
 30
0.0
 10
-262.8581115994295
 20
449.4913985928372
 30
0.0
 10
-262.7591053879134
 20
449.7320421913394
 30
0.0
 10
-262.6856400658061
 20
449.8422645678668
 30
0.0
 10
-262.5025740884301
 20
450.0254765558032
 30
0.0
 10
-262.3917666431815
 20
450.0992771050869
 30
0.0
 10
-262.1527249947036
 20
450.1978817049162
 30
0.0
 10
-262.0223773272812
 20
450.2238600773942
 30
0.0
 10
-261.891263570935
 20
450.2238600773942
 30
0.0
  0
LINE
  5
4D6
330
1F
100
AcDbEntity
  8
0
100
AcDbLine
 10
-18.76632366616559
 20
205.1143644192037
 30
0.0
 11
-257.0007592291219
 21
205.1143644192037
 31
0.0
  0
LINE
  5
4D7
330
1F
100
AcDbEntity
  8
0
100
AcDbLine
 10
-13.87581932435239
 20
200.2238600773933
 30
0.0
 11
-18.76632366616559
 21
205.1143644192037
 31
0.0
  0
LINE
  5
4D8
330
1F
100
AcDbEntity
  8
0
100
AcDbLine
 10
-257.0007592291219
 20
205.1143644192037
 30
0.0
 11
-261.891263570935
 21
200.2238600773933
 31
0.0
  0
LINE
  5
4D9
330
1F
100
AcDbEntity
  8
0
100
AcDbLine
 10
-18.76632366616547
 20
206.1066422959154
 30
0.0
 11
-18.76632366616547
 21
444.341077858872
 31
0.0
  0
LINE
  5
4DA
330
1F
100
AcDbEntity
  8
0
100
AcDbLine
 10
-257.0007592291219
 20
206.1066422959154
 30
0.0
 11
-18.76632366616536
 21
206.1066422959154
 31
0.0
  0
LINE
  5
4DB
330
1F
100
AcDbEntity
  8
0
100
AcDbLine
 10
-18.76632366616547
 20
444.3410778588722
 30
0.0
 11
-257.000759229122
 21
444.3410778588722
 31
0.0
  0
LINE
  5
4DC
330
1F
100
AcDbEntity
  8
0
100
AcDbLine
 10
-257.000759229122
 20
444.3410778588722
 30
0.0
 11
-257.0007592291219
 21
206.1066422959156
 31
0.0
  0
LINE
  5
4DD
330
1F
100
AcDbEntity
  8
0
100
AcDbLine
 10
-17.77404578945368
 20
444.3410778588719
 30
0.0
 11
-17.77404578945368
 21
206.1066422959156
 31
0.0
  0
LINE
  5
4DE
330
1F
100
AcDbEntity
  8
0
100
AcDbLine
 10
-17.77404578945368
 20
206.1066422959155
 30
0.0
 11
-12.88354144764332
 21
201.2161379541024
 31
0.0
  0
LINE
  5
4DF
330
1F
100
AcDbEntity
  8
0
100
AcDbLine
 10
-12.88354144764344
 20
449.231582200685
 30
0.0
 11
-17.77404578945379
 21
444.3410778588718
 31
0.0
  0
ELLIPSE
  5
4E0
330
1F
100
AcDbEntity
  8
0
100
AcDbEllipse
 10
-18.76632366616559
 20
206.1066422959154
 30
0.0
 11
-0.707106781186422
 21
-0.7071067811866581
 31
0.0
210
0.0
220
0.0
230
1.0
 40
0.9847319278308722
 41
0.7930907745679632
 42
2.348501879021877
  0
LINE
  5
4E1
330
1F
100
AcDbEntity
  8
0
100
AcDbLine
 10
-18.76632366616547
 20
206.1066422959154
 30
0.0
 11
-17.77404578945368
 21
206.1066422959155
 31
0.0
  0
LINE
  5
4E2
330
1F
100
AcDbEntity
  8
0
100
AcDbLine
 10
-18.76632366616559
 20
205.1143644192037
 30
0.0
 11
-18.76632366616547
 21
206.1066422959154
 31
0.0
  0
ELLIPSE
  5
4E3
330
1F
100
AcDbEntity
  8
0
100
AcDbEllipse
 10
-18.76632366616547
 20
444.3410778588719
 30
0.0
 11
0.7071067811866581
 21
-0.707106781186422
 31
0.0
210
0.0
220
0.0
230
1.0
 40
0.9847319278308722
 41
0.7930907745678693
 42
2.348501879021689
  0
LINE
  5
4E4
330
1F
100
AcDbEntity
  8
0
100
AcDbLine
 10
-18.76632366616547
 20
444.3410778588722
 30
0.0
 11
-17.77404578945368
 21
444.341077858872
 31
0.0
  0
LINE
  5
4E5
330
1F
100
AcDbEntity
  8
0
100
AcDbLine
 10
-257.0007592291219
 20
205.1143644192037
 30
0.0
 11
-257.0007592291219
 21
206.1066422959155
 31
0.0
  0
ELLIPSE
  5
4E6
330
1F
100
AcDbEntity
  8
0
100
AcDbEllipse
 10
-257.0007592291219
 20
206.1066422959154
 30
0.0
 11
-0.7071067811868525
 21
0.7071067811862141
 31
0.0
210
0.0
220
0.0
230
1.0
 40
0.9847319278308763
 41
0.7930907745675794
 42
2.348501879021184
  0
LINE
  5
4E7
330
1F
100
AcDbEntity
  8
0
100
AcDbLine
 10
-18.76632366616547
 20
444.3410778588722
 30
0.0
 11
-18.76632366616559
 21
445.3333557355839
 31
0.0
  0
LINE
  5
4E8
330
1F
100
AcDbEntity
  8
0
100
AcDbLine
 10
-257.9930371058337
 20
206.1066422959156
 30
0.0
 11
-257.0007592291219
 21
206.1066422959155
 31
0.0
  0
LINE
  5
4E9
330
1F
100
AcDbEntity
  8
0
100
AcDbLine
 10
-257.000759229122
 20
444.3410778588722
 30
0.0
 11
-257.0007592291219
 21
445.3333557355839
 31
0.0
  0
LINE
  5
4EA
330
1F
100
AcDbEntity
  8
0
100
AcDbLine
 10
-257.9930371058337
 20
444.341077858872
 30
0.0
 11
-257.0007592291219
 21
444.3410778588722
 31
0.0
  0
ELLIPSE
  5
4EB
330
1F
100
AcDbEntity
  8
0
100
AcDbEllipse
 10
-257.0007592291219
 20
444.3410778588722
 30
0.0
 11
-0.7071067811869633
 21
-0.7071067811861445
 31
0.0
210
0.0
220
0.0
230
1.0
 40
0.9847319278308752
 41
3.934683428158603
 42
5.49009453261215
  0
SPLINE
  5
4EC
102
{ACAD_REACTORS
330
7C8
102
}
330
1F
100
AcDbEntity
  8
0
100
AcDbSpline
210
0.0
220
0.0
230
1.0
 70
     8
 71
     3
 72
    10
 73
     6
 74
     0
 42
0.0000000001
 43
0.0000000001
 40
0.0
 40
0.0
 40
0.0
 40
0.0
 40
0.1736813798367858
 40
0.5385865053348369
 40
1.0
 40
1.0
 40
1.0
 40
1.0
 10
-262.883541447644
 20
325.2238600773938
 30
0.0
 10
-271.1288005585576
 20
328.6115957492904
 30
0.0
 10
-294.2975640773952
 20
338.8762098703986
 30
0.0
 10
-338.9487177126276
 20
304.3538377840886
 30
0.0
 10
-375.7433430505197
 20
318.8657034277415
 30
0.0
 10
-398.5556234444004
 20
325.2238600773938
 30
0.0
  0
LINE
  5
4EF
330
1F
100
AcDbEntity
  8
0
100
AcDbLine
 10
315.9097929529422
 20
-0.6944454476917486
 30
0.0
 11
315.9097929529422
 21
8.305554552308308
 31
0.0
  0
LINE
  5
4F0
330
1F
100
AcDbEntity
  8
0
100
AcDbLine
 10
295.909792952942
 20
-0.6944454476917486
 30
0.0
 11
295.909792952942
 21
8.305554552308308
 31
0.0
  0
LINE
  5
4F2
330
1F
100
AcDbEntity
  8
0
100
AcDbLine
 10
409.9097929529425
 20
-0.6944454476917486
 30
0.0
 11
380.9097929529425
 21
-0.6944454476917486
 31
0.0
  0
LINE
  5
4F3
330
1F
100
AcDbEntity
  8
0
100
AcDbLine
 10
410.4097929529423
 20
-26.19444544769186
 30
0.0
 11
380.4097929529426
 21
-26.19444544769186
 31
0.0
  0
LINE
  5
4F4
330
1F
100
AcDbEntity
  8
0
100
AcDbLine
 10
380.7128544962436
 20
-1.194445447691805
 30
0.0
 11
410.4097929529423
 21
-1.194445447691805
 31
0.0
  0
LINE
  5
4F5
330
1F
100
AcDbEntity
  8
0
100
AcDbLine
 10
380.9097929529425
 20
-26.69444544769187
 30
0.0
 11
409.9097929529425
 21
-26.69444544769187
 31
0.0
  0
LINE
  5
4F6
330
1F
100
AcDbEntity
  8
0
100
AcDbLine
 10
410.4097929529425
 20
-26.19444544769186
 30
0.0
 11
410.4097929529425
 21
-1.194445447691805
 31
0.0
  0
LINE
  5
4F7
330
1F
100
AcDbEntity
  8
0
100
AcDbLine
 10
380.4097929529426
 20
-20.69444544769181
 30
0.0
 11
380.4097929529426
 21
-26.19444544769186
 31
0.0
  0
LINE
  5
4F8
330
1F
100
AcDbEntity
  8
0
100
AcDbLine
 10
410.4097929529425
 20
-1.194445447691805
 30
0.0
 11
409.9097929529425
 21
-0.6944454476917486
 31
0.0
  0
LINE
  5
4F9
330
1F
100
AcDbEntity
  8
0
100
AcDbLine
 10
380.9097929529423
 20
-0.6944454476917486
 30
0.0
 11
380.7128544962434
 21
-0.8913839043908069
 31
0.0
  0
LINE
  5
4FA
330
1F
100
AcDbEntity
  8
0
100
AcDbLine
 10
380.4097929529426
 20
-26.19444544769186
 30
0.0
 11
380.9097929529423
 21
-26.69444544769187
 31
0.0
  0
LINE
  5
4FB
330
1F
100
AcDbEntity
  8
0
100
AcDbLine
 10
409.9097929529425
 20
-26.69444544769187
 30
0.0
 11
410.4097929529423
 21
-26.1944454476918
 31
0.0
  0
LINE
  5
4FC
330
1F
100
AcDbEntity
  8
0
100
AcDbLine
 10
230.9097929529418
 20
-0.6944454476917486
 30
0.0
 11
201.909792952942
 21
-0.6944454476917486
 31
0.0
  0
LINE
  5
4FD
330
1F
100
AcDbEntity
  8
0
100
AcDbLine
 10
231.4097929529418
 20
-26.19444544769186
 30
0.0
 11
201.4097929529419
 21
-26.19444544769186
 31
0.0
  0
LINE
  5
4FE
330
1F
100
AcDbEntity
  8
0
100
AcDbLine
 10
201.409792952942
 20
-1.194445447691805
 30
0.0
 11
231.1067314096411
 21
-1.194445447691805
 31
0.0
  0
LINE
  5
4FF
330
1F
100
AcDbEntity
  8
0
100
AcDbLine
 10
201.909792952942
 20
-26.69444544769187
 30
0.0
 11
230.9097929529418
 21
-26.69444544769187
 31
0.0
  0
LINE
  5
500
330
1F
100
AcDbEntity
  8
0
100
AcDbLine
 10
231.4097929529419
 20
-26.19444544769186
 30
0.0
 11
231.4097929529419
 21
-20.69444544769181
 31
0.0
  0
LINE
  5
501
330
1F
100
AcDbEntity
  8
0
100
AcDbLine
 10
201.4097929529419
 20
-1.194445447691805
 30
0.0
 11
201.4097929529419
 21
-26.19444544769186
 31
0.0
  0
LINE
  5
502
330
1F
100
AcDbEntity
  8
0
100
AcDbLine
 10
231.1067314096411
 20
-0.8913839043908069
 30
0.0
 11
230.909792952942
 21
-0.6944454476917486
 31
0.0
  0
LINE
  5
503
330
1F
100
AcDbEntity
  8
0
100
AcDbLine
 10
201.9097929529418
 20
-0.6944454476917486
 30
0.0
 11
201.4097929529419
 21
-1.194445447691805
 31
0.0
  0
LINE
  5
504
330
1F
100
AcDbEntity
  8
0
100
AcDbLine
 10
201.4097929529419
 20
-26.19444544769186
 30
0.0
 11
201.9097929529418
 21
-26.69444544769187
 31
0.0
  0
LINE
  5
505
330
1F
100
AcDbEntity
  8
0
100
AcDbLine
 10
230.909792952942
 20
-26.69444544769187
 30
0.0
 11
231.4097929529419
 21
-26.1944454476918
 31
0.0
  0
LINE
  5
506
330
1F
100
AcDbEntity
  8
0
100
AcDbLine
 10
231.1067314096411
 20
-0.6944454476917486
 30
0.0
 11
380.7128544962434
 21
-0.6944454476917486
 31
0.0
  0
LINE
  5
507
330
1F
100
AcDbEntity
  8
0
100
AcDbLine
 10
231.1067314096411
 20
-20.69444544769181
 30
0.0
 11
380.7128544962434
 21
-20.69444544769181
 31
0.0
  0
LINE
  5
508
330
1F
100
AcDbEntity
  8
0
100
AcDbLine
 10
380.7128544962434
 20
-0.6944454476917486
 30
0.0
 11
380.7128544962434
 21
-20.69444544769181
 31
0.0
  0
LINE
  5
509
330
1F
100
AcDbEntity
  8
0
100
AcDbLine
 10
231.1067314096411
 20
-0.6944454476917486
 30
0.0
 11
231.1067314096411
 21
-20.69444544769181
 31
0.0
  0
LINE
  5
50A
330
1F
100
AcDbEntity
  8
0
100
AcDbLine
 10
245.9097929529419
 20
-20.69444544769181
 30
0.0
 11
245.9097929529419
 21
-26.69444544769181
 31
0.0
  0
LINE
  5
50B
330
1F
100
AcDbEntity
  8
0
100
AcDbLine
 10
265.9097929529419
 20
-20.69444544769181
 30
0.0
 11
265.9097929529419
 21
-26.69444544769181
 31
0.0
  0
LINE
  5
50C
330
1F
100
AcDbEntity
  8
0
100
AcDbLine
 10
265.9097929529419
 20
-29.69444544769186
 30
0.0
 11
245.9097929529419
 21
-29.69444544769186
 31
0.0
  0
LINE
  5
50D
330
1F
100
AcDbEntity
  8
0
100
AcDbLine
 10
245.9097929529419
 20
-29.69444544769186
 30
0.0
 11
245.9097929529419
 21
-26.69444544769187
 31
0.0
  0
LINE
  5
50E
330
1F
100
AcDbEntity
  8
0
100
AcDbLine
 10
245.9097929529419
 20
-26.69444544769187
 30
0.0
 11
265.9097929529419
 21
-26.69444544769187
 31
0.0
  0
LINE
  5
50F
330
1F
100
AcDbEntity
  8
0
100
AcDbLine
 10
265.9097929529419
 20
-26.69444544769181
 30
0.0
 11
265.9097929529419
 21
-29.69444544769181
 31
0.0
  0
LINE
  5
510
330
1F
100
AcDbEntity
  8
0
100
AcDbLine
 10
194.9677548371929
 20
-40.69444544769192
 30
0.0
 11
237.8518310686912
 21
-40.69444544769192
 31
0.0
  0
LINE
  5
511
330
1F
100
AcDbEntity
  8
0
100
AcDbLine
 10
201.909792952942
 20
-37.69444544769186
 30
0.0
 11
230.9097929529418
 21
-37.69444544769186
 31
0.0
  0
LINE
  5
512
330
1F
100
AcDbEntity
  8
0
100
AcDbLine
 10
195.1015465455362
 20
-46.69444544769191
 30
0.0
 11
237.7180393603475
 21
-46.69444544769191
 31
0.0
  0
LINE
  5
513
330
1F
100
AcDbEntity
  8
0
100
AcDbLine
 10
238.7028471133598
 20
-45.52079727002495
 30
0.0
 11
194.1167387925242
 21
-45.52079727002495
 31
0.0
  0
LINE
  5
514
330
1F
100
AcDbEntity
  8
0
100
AcDbLine
 10
204.9097929529421
 20
-49.69444544769192
 30
0.0
 11
227.9097929529419
 21
-49.69444544769192
 31
0.0
  0
LINE
  5
515
330
1F
100
AcDbEntity
  8
0
100
AcDbLine
 10
228.9097929529419
 20
-48.69444544769186
 30
0.0
 11
203.909792952942
 21
-48.69444544769186
 31
0.0
  0
LINE
  5
516
330
1F
100
AcDbEntity
  8
0
100
AcDbLine
 10
238.70284711336
 20
-45.52079727002495
 30
0.0
 11
237.8518310686912
 21
-40.69444544769186
 31
0.0
  0
LINE
  5
517
330
1F
100
AcDbEntity
  8
0
100
AcDbLine
 10
194.9677548371927
 20
-40.69444544769186
 30
0.0
 11
194.1167387925239
 21
-45.52079727002495
 31
0.0
  0
LINE
  5
518
330
1F
100
AcDbEntity
  8
0
100
AcDbLine
 10
225.909792952942
 20
-37.69444544769186
 30
0.0
 11
223.9097929529419
 21
-34.69444544769181
 31
0.0
  0
LINE
  5
519
330
1F
100
AcDbEntity
  8
0
100
AcDbLine
 10
208.9097929529421
 20
-34.69444544769186
 30
0.0
 11
206.909792952942
 21
-37.69444544769192
 31
0.0
  0
LINE
  5
51A
330
1F
100
AcDbEntity
  8
0
100
AcDbLine
 10
237.8518310686912
 20
-40.69444544769186
 30
0.0
 11
230.909792952942
 21
-37.69444544769186
 31
0.0
  0
LINE
  5
51B
330
1F
100
AcDbEntity
  8
0
100
AcDbLine
 10
201.9097929529418
 20
-37.69444544769186
 30
0.0
 11
194.9677548371926
 21
-40.69444544769186
 31
0.0
  0
LINE
  5
51C
330
1F
100
AcDbEntity
  8
0
100
AcDbLine
 10
203.909792952942
 20
-46.69444544769191
 30
0.0
 11
203.909792952942
 21
-48.69444544769192
 31
0.0
  0
LINE
  5
51D
330
1F
100
AcDbEntity
  8
0
100
AcDbLine
 10
228.9097929529421
 20
-48.69444544769186
 30
0.0
 11
228.9097929529421
 21
-46.69444544769191
 31
0.0
  0
ARC
  5
51E
330
1F
100
AcDbEntity
  8
0
100
AcDbCircle
 10
237.7180393603478
 20
-45.69444544769192
 30
0.0
 40
0.9999999999999966
100
AcDbArc
 50
270.0
 51
10.00000000000193
  0
ARC
  5
51F
330
1F
100
AcDbEntity
  8
0
100
AcDbCircle
 10
195.1015465455359
 20
-45.69444544769192
 30
0.0
 40
1.000000000000006
100
AcDbArc
 50
169.9999999999952
 51
270.0
  0
ARC
  5
520
330
1F
100
AcDbEntity
  8
0
100
AcDbCircle
 10
227.9097929529421
 20
-48.69444544769186
 30
0.0
 40
1.000000000000003
100
AcDbArc
 50
270.0
 51
0.0
  0
ARC
  5
521
330
1F
100
AcDbEntity
  8
0
100
AcDbCircle
 10
204.9097929529419
 20
-48.69444544769186
 30
0.0
 40
1.000000000000003
100
AcDbArc
 50
180.0
 51
270.0
  0
LINE
  5
522
330
1F
100
AcDbEntity
  8
0
100
AcDbLine
 10
373.9677548371935
 20
-40.69444544769192
 30
0.0
 11
416.8518310686915
 21
-40.69444544769192
 31
0.0
  0
LINE
  5
523
330
1F
100
AcDbEntity
  8
0
100
AcDbLine
 10
380.9097929529425
 20
-37.69444544769192
 30
0.0
 11
409.9097929529425
 21
-37.69444544769192
 31
0.0
  0
LINE
  5
524
330
1F
100
AcDbEntity
  8
0
100
AcDbLine
 10
374.1015465455368
 20
-46.69444544769191
 30
0.0
 11
416.718039360348
 21
-46.69444544769191
 31
0.0
  0
LINE
  5
525
330
1F
100
AcDbEntity
  8
0
100
AcDbLine
 10
417.7028471133603
 20
-45.52079727002501
 30
0.0
 11
373.1167387925245
 21
-45.52079727002501
 31
0.0
  0
LINE
  5
526
330
1F
100
AcDbEntity
  8
0
100
AcDbLine
 10
383.9097929529426
 20
-49.69444544769192
 30
0.0
 11
406.9097929529423
 21
-49.69444544769192
 31
0.0
  0
LINE
  5
527
330
1F
100
AcDbEntity
  8
0
100
AcDbLine
 10
407.9097929529421
 20
-48.69444544769192
 30
0.0
 11
382.9097929529423
 21
-48.69444544769192
 31
0.0
  0
LINE
  5
528
330
1F
100
AcDbEntity
  8
0
100
AcDbLine
 10
417.7028471133605
 20
-45.52079727002501
 30
0.0
 11
416.8518310686915
 21
-40.69444544769192
 31
0.0
  0
LINE
  5
529
330
1F
100
AcDbEntity
  8
0
100
AcDbLine
 10
373.9677548371933
 20
-40.69444544769192
 30
0.0
 11
373.1167387925243
 21
-45.52079727002501
 31
0.0
  0
LINE
  5
52A
330
1F
100
AcDbEntity
  8
0
100
AcDbLine
 10
404.9097929529425
 20
-37.69444544769192
 30
0.0
 11
402.9097929529423
 21
-34.69444544769186
 31
0.0
  0
LINE
  5
52B
330
1F
100
AcDbEntity
  8
0
100
AcDbLine
 10
387.9097929529423
 20
-34.69444544769192
 30
0.0
 11
385.9097929529423
 21
-37.69444544769198
 31
0.0
  0
LINE
  5
52C
330
1F
100
AcDbEntity
  8
0
100
AcDbLine
 10
416.8518310686915
 20
-40.69444544769192
 30
0.0
 11
409.9097929529425
 21
-37.69444544769192
 31
0.0
  0
LINE
  5
52D
330
1F
100
AcDbEntity
  8
0
100
AcDbLine
 10
380.9097929529423
 20
-37.69444544769192
 30
0.0
 11
373.9677548371933
 21
-40.69444544769186
 31
0.0
  0
LINE
  5
52E
330
1F
100
AcDbEntity
  8
0
100
AcDbLine
 10
382.9097929529423
 20
-46.69444544769191
 30
0.0
 11
382.9097929529423
 21
-48.69444544769192
 31
0.0
  0
LINE
  5
52F
330
1F
100
AcDbEntity
  8
0
100
AcDbLine
 10
407.9097929529423
 20
-48.69444544769192
 30
0.0
 11
407.9097929529423
 21
-46.69444544769191
 31
0.0
  0
ARC
  5
530
330
1F
100
AcDbEntity
  8
0
100
AcDbCircle
 10
416.7180393603482
 20
-45.69444544769197
 30
0.0
 40
1.000000000000003
100
AcDbArc
 50
270.0
 51
10.00000000000193
  0
ARC
  5
531
330
1F
100
AcDbEntity
  8
0
100
AcDbCircle
 10
374.1015465455366
 20
-45.69444544769197
 30
0.0
 40
1.000000000000007
100
AcDbArc
 50
169.999999999998
 51
270.0
  0
ARC
  5
532
330
1F
100
AcDbEntity
  8
0
100
AcDbCircle
 10
406.9097929529423
 20
-48.69444544769192
 30
0.0
 40
1.000000000000003
100
AcDbArc
 50
270.0
 51
0.0
  0
ARC
  5
533
330
1F
100
AcDbEntity
  8
0
100
AcDbCircle
 10
383.9097929529423
 20
-48.69444544769192
 30
0.0
 40
1.000000000000003
100
AcDbArc
 50
180.0
 51
270.0
  0
LINE
  5
534
330
1F
100
AcDbEntity
  8
0
100
AcDbLine
 10
390.7909907994254
 20
-34.69444544769192
 30
0.0
 11
400.0285951064593
 21
-34.69444544769192
 31
0.0
  0
LINE
  5
535
330
1F
100
AcDbEntity
  8
0
100
AcDbLine
 10
390.7909907994254
 20
-27.4089766275082
 30
0.0
 11
390.7909907994254
 21
-34.69444544769186
 31
0.0
  0
LINE
  5
536
330
1F
100
AcDbEntity
  8
0
100
AcDbLine
 10
390.7909907994254
 20
-34.69444544769192
 30
0.0
 11
386.1721886459084
 21
-34.69444544769192
 31
0.0
  0
LINE
  5
537
330
1F
100
AcDbEntity
  8
0
100
AcDbLine
 10
386.1721886459084
 20
-34.69444544769192
 30
0.0
 11
386.1721886459084
 21
-27.4089766275082
 31
0.0
  0
LINE
  5
538
330
1F
100
AcDbEntity
  8
0
100
AcDbLine
 10
404.6473972599764
 20
-27.4089766275082
 30
0.0
 11
404.6473972599764
 21
-34.69444544769186
 31
0.0
  0
LINE
  5
539
330
1F
100
AcDbEntity
  8
0
100
AcDbLine
 10
400.0285951064593
 20
-34.69444544769192
 30
0.0
 11
400.0285951064593
 21
-27.4089766275082
 31
0.0
  0
LINE
  5
53A
330
1F
100
AcDbEntity
  8
0
100
AcDbLine
 10
400.0285951064593
 20
-34.69444544769192
 30
0.0
 11
404.6473972599763
 21
-34.69444544769192
 31
0.0
  0
ARC
  5
53B
330
1F
100
AcDbEntity
  8
0
100
AcDbCircle
 10
402.4691232677302
 20
-31.20757124456134
 30
0.0
 40
4.515030317800936
100
AcDbArc
 50
91.66423801139824
 51
122.7200094566438
  0
ARC
  5
53C
330
1F
100
AcDbEntity
  8
0
100
AcDbCircle
 10
402.1766057159097
 20
-31.30538403536628
 30
0.0
 40
4.613762189606527
100
AcDbArc
 50
57.62038109428839
 51
87.99537143766659
  0
ARC
  5
53D
330
1F
100
AcDbEntity
  8
0
100
AcDbCircle
 10
388.6429801899751
 20
-31.30538403536645
 30
0.0
 40
4.613762189606725
100
AcDbArc
 50
92.00462856232951
 51
122.3796189057116
  0
ARC
  5
53E
330
1F
100
AcDbEntity
  8
0
100
AcDbCircle
 10
388.3504626381546
 20
-31.20757124456139
 30
0.0
 40
4.515030317800982
100
AcDbArc
 50
57.27999054335838
 51
88.33576198859786
  0
SPLINE
  5
53F
330
1F
100
AcDbEntity
  8
0
100
AcDbSpline
210
0.0
220
0.0
230
1.0
 70
     8
 71
     3
 72
    10
 73
     6
 74
     0
 42
0.0000000001
 43
0.0000000001
 40
0.0
 40
0.0
 40
0.0
 40
0.0
 40
0.5
 40
0.5
 40
1.0
 40
1.0
 40
1.0
 40
1.0
 10
395.4097929529425
 20
-26.69444544769187
 30
0.0
 10
394.6288276247849
 20
-26.69444544769187
 30
0.0
 10
393.8372433527668
 20
-26.76339000294701
 30
0.0
 10
392.2944562706755
 20
-27.01383857908337
 30
0.0
 10
391.5378253575405
 20
-27.19338406092436
 30
0.0
 10
390.7909907994254
 20
-27.4089766275082
 30
0.0
  0
SPLINE
  5
540
330
1F
100
AcDbEntity
  8
0
100
AcDbSpline
210
0.0
220
0.0
230
1.0
 70
     8
 71
     3
 72
    10
 73
     6
 74
     0
 42
0.0000000001
 43
0.0000000001
 40
0.0
 40
0.0
 40
0.0
 40
0.0
 40
0.5
 40
0.5
 40
1.0
 40
1.0
 40
1.0
 40
1.0
 10
400.0285951064593
 20
-27.4089766275082
 30
0.0
 10
399.2773843560215
 20
-27.19212076301648
 30
0.0
 10
398.5079971788207
 20
-27.01023612488376
 30
0.0
 10
396.9657394637986
 20
-26.76153414985521
 30
0.0
 10
396.1902945575714
 20
-26.69444544769187
 30
0.0
 10
395.4097929529425
 20
-26.69444544769187
 30
0.0
  0
LINE
  5
541
330
1F
100
AcDbEntity
  8
0
100
AcDbLine
 10
387.4097929529424
 20
-26.69444544769187
 30
0.0
 11
386.1721886459084
 21
-27.4089766275082
 31
0.0
  0
LINE
  5
542
330
1F
100
AcDbEntity
  8
0
100
AcDbLine
 10
404.6473972599764
 20
-27.4089766275082
 30
0.0
 11
403.4097929529425
 21
-26.69444544769187
 31
0.0
  0
LINE
  5
543
330
1F
100
AcDbEntity
  8
0
100
AcDbLine
 10
211.7909907994251
 20
-34.69444544769186
 30
0.0
 11
221.0285951064591
 21
-34.69444544769186
 31
0.0
  0
LINE
  5
544
330
1F
100
AcDbEntity
  8
0
100
AcDbLine
 10
211.7909907994251
 20
-27.4089766275082
 30
0.0
 11
211.7909907994251
 21
-34.69444544769186
 31
0.0
  0
LINE
  5
545
330
1F
100
AcDbEntity
  8
0
100
AcDbLine
 10
211.7909907994251
 20
-34.69444544769186
 30
0.0
 11
207.1721886459081
 21
-34.69444544769186
 31
0.0
  0
LINE
  5
546
330
1F
100
AcDbEntity
  8
0
100
AcDbLine
 10
207.1721886459079
 20
-34.69444544769186
 30
0.0
 11
207.1721886459079
 21
-27.4089766275082
 31
0.0
  0
LINE
  5
547
330
1F
100
AcDbEntity
  8
0
100
AcDbLine
 10
225.6473972599758
 20
-27.4089766275082
 30
0.0
 11
225.6473972599758
 21
-34.69444544769186
 31
0.0
  0
LINE
  5
548
330
1F
100
AcDbEntity
  8
0
100
AcDbLine
 10
221.0285951064591
 20
-34.69444544769186
 30
0.0
 11
221.0285951064591
 21
-27.4089766275082
 31
0.0
  0
LINE
  5
549
330
1F
100
AcDbEntity
  8
0
100
AcDbLine
 10
221.0285951064591
 20
-34.69444544769186
 30
0.0
 11
225.647397259976
 21
-34.69444544769186
 31
0.0
  0
ARC
  5
54A
330
1F
100
AcDbEntity
  8
0
100
AcDbCircle
 10
223.46912326773
 20
-31.20757124456134
 30
0.0
 40
4.515030317800936
100
AcDbArc
 50
91.66423801140217
 51
122.7200094566416
  0
ARC
  5
54B
330
1F
100
AcDbEntity
  8
0
100
AcDbCircle
 10
223.1766057159092
 20
-31.30538403536628
 30
0.0
 40
4.613762189606527
100
AcDbArc
 50
57.62038109429056
 51
87.9953714376705
  0
ARC
  5
54C
330
1F
100
AcDbEntity
  8
0
100
AcDbCircle
 10
209.6429801899748
 20
-31.30538403536645
 30
0.0
 40
4.613762189606725
100
AcDbArc
 50
92.0046285623334
 51
122.3796189057116
  0
ARC
  5
54D
330
1F
100
AcDbEntity
  8
0
100
AcDbCircle
 10
209.350462638154
 20
-31.20757124456139
 30
0.0
 40
4.515030317800982
100
AcDbArc
 50
57.2799905433562
 51
88.33576198860177
  0
SPLINE
  5
54E
330
1F
100
AcDbEntity
  8
0
100
AcDbSpline
210
0.0
220
0.0
230
1.0
 70
     8
 71
     3
 72
    10
 73
     6
 74
     0
 42
0.0000000001
 43
0.0000000001
 40
0.0
 40
0.0
 40
0.0
 40
0.0
 40
0.5
 40
0.5
 40
1.0
 40
1.0
 40
1.0
 40
1.0
 10
216.4097929529419
 20
-26.69444544769187
 30
0.0
 10
215.6288276247843
 20
-26.69444544769187
 30
0.0
 10
214.8372433527663
 20
-26.76339000294701
 30
0.0
 10
213.2944562706749
 20
-27.01383857908337
 30
0.0
 10
212.5378253575398
 20
-27.1933840609243
 30
0.0
 10
211.7909907994251
 20
-27.4089766275082
 30
0.0
  0
SPLINE
  5
54F
330
1F
100
AcDbEntity
  8
0
100
AcDbSpline
210
0.0
220
0.0
230
1.0
 70
     8
 71
     3
 72
    10
 73
     6
 74
     0
 42
0.0000000001
 43
0.0000000001
 40
0.0
 40
0.0
 40
0.0
 40
0.0
 40
0.5
 40
0.5
 40
1.0
 40
1.0
 40
1.0
 40
1.0
 10
221.0285951064591
 20
-27.4089766275082
 30
0.0
 10
220.2773843560213
 20
-27.19212076301642
 30
0.0
 10
219.50799717882
 20
-27.0102361248837
 30
0.0
 10
217.9657394637979
 20
-26.76153414985521
 30
0.0
 10
217.1902945575712
 20
-26.69444544769187
 30
0.0
 10
216.4097929529419
 20
-26.69444544769187
 30
0.0
  0
LINE
  5
550
330
1F
100
AcDbEntity
  8
0
100
AcDbLine
 10
208.409792952942
 20
-26.69444544769187
 30
0.0
 11
207.1721886459079
 21
-27.4089766275082
 31
0.0
  0
LINE
  5
551
330
1F
100
AcDbEntity
  8
0
100
AcDbLine
 10
225.6473972599758
 20
-27.4089766275082
 30
0.0
 11
224.4097929529419
 21
-26.69444544769187
 31
0.0
  0
LINE
  5
552
330
1F
100
AcDbEntity
  8
0
100
AcDbLine
 10
311.6597929529423
 20
-30.61227520381368
 30
0.0
 11
300.1597929529423
 21
-30.61227520381368
 31
0.0
  0
LINE
  5
553
330
1F
100
AcDbEntity
  8
0
100
AcDbLine
 10
312.4097929529422
 20
-28.11388886409111
 30
0.0
 11
312.4097929529422
 21
-22.77500203129267
 31
0.0
  0
LINE
  5
554
330
1F
100
AcDbEntity
  8
0
100
AcDbLine
 10
312.4097929529422
 20
-28.11388886409111
 30
0.0
 11
312.4097929529422
 21
-28.69444544769186
 31
0.0
  0
LINE
  5
555
330
1F
100
AcDbEntity
  8
0
100
AcDbLine
 10
299.4097929529422
 20
-28.11388886409111
 30
0.0
 11
299.4097929529422
 21
-22.77500203129267
 31
0.0
  0
LINE
  5
556
330
1F
100
AcDbEntity
  8
0
100
AcDbLine
 10
305.9097929529422
 20
-28.11388886409111
 30
0.0
 11
305.9097929529422
 21
-22.77500203129267
 31
0.0
  0
LINE
  5
557
330
1F
100
AcDbEntity
  8
0
100
AcDbLine
 10
299.4097929529422
 20
-28.69444544769186
 30
0.0
 11
299.4097929529422
 21
-28.11388886409111
 31
0.0
  0
ARC
  5
558
330
1F
100
AcDbEntity
  8
0
100
AcDbCircle
 10
302.8003931898072
 20
-18.52020247113677
 30
0.0
 40
10.17521442391201
100
AcDbArc
 50
250.5355753442276
 51
269.208266655357
  0
ARC
  5
559
330
1F
100
AcDbEntity
  8
0
100
AcDbCircle
 10
302.5455576115853
 20
-18.66779516549718
 30
0.0
 40
10.02730101246842
100
AcDbArc
 50
270.6527523719531
 51
289.6034056284642
  0
ARC
  5
55A
330
1F
100
AcDbEntity
  8
0
100
AcDbCircle
 10
309.3003931898075
 20
-18.52020247113648
 30
0.0
 40
10.17521442391229
100
AcDbArc
 50
250.5355753442258
 51
269.208266655357
  0
ARC
  5
55B
330
1F
100
AcDbEntity
  8
0
100
AcDbCircle
 10
309.0455576115854
 20
-18.66779516549741
 30
0.0
 40
10.02730101246815
100
AcDbArc
 50
270.6527523719512
 51
289.6034056284637
  0
LINE
  5
55C
330
1F
100
AcDbEntity
  8
0
100
AcDbLine
 10
299.4097929529422
 20
-28.69444544769186
 30
0.0
 11
302.6597929529423
 21
-28.69444544769186
 31
0.0
  0
LINE
  5
55D
330
1F
100
AcDbEntity
  8
0
100
AcDbLine
 10
302.6597929529421
 20
-28.69444544769186
 30
0.0
 11
309.1597929529421
 21
-28.69444544769186
 31
0.0
  0
LINE
  5
55E
330
1F
100
AcDbEntity
  8
0
100
AcDbLine
 10
309.1597929529421
 20
-28.69444544769186
 30
0.0
 11
312.4097929529422
 21
-28.69444544769186
 31
0.0
  0
LINE
  5
55F
330
1F
100
AcDbEntity
  8
0
100
AcDbLine
 10
312.4097929529422
 20
-22.19444544769186
 30
0.0
 11
312.4097929529422
 21
-22.77500203129262
 31
0.0
  0
ARC
  5
560
330
1F
100
AcDbEntity
  8
0
100
AcDbCircle
 10
309.019192716077
 20
-32.36868842424724
 30
0.0
 40
10.17521442391233
100
AcDbArc
 50
70.53557534422759
 51
89.20826665535695
  0
LINE
  5
561
330
1F
100
AcDbEntity
  8
0
100
AcDbLine
 10
302.6597929529421
 20
-22.19444544769186
 30
0.0
 11
309.1597929529421
 21
-22.19444544769186
 31
0.0
  0
ARC
  5
562
330
1F
100
AcDbEntity
  8
0
100
AcDbCircle
 10
309.2740282942991
 20
-32.22109572988677
 30
0.0
 40
10.02730101246866
100
AcDbArc
 50
90.6527523719531
 51
109.6034056284638
  0
ARC
  5
563
330
1F
100
AcDbEntity
  8
0
100
AcDbCircle
 10
302.519192716077
 20
-32.36868842424707
 30
0.0
 40
10.17521442391211
100
AcDbArc
 50
70.53557534422577
 51
89.20826665535695
  0
ARC
  5
564
330
1F
100
AcDbEntity
  8
0
100
AcDbCircle
 10
302.774028294299
 20
-32.22109572988649
 30
0.0
 40
10.02730101246832
100
AcDbArc
 50
90.6527523719531
 51
109.6034056284638
  0
LINE
  5
565
330
1F
100
AcDbEntity
  8
0
100
AcDbLine
 10
299.4097929529422
 20
-22.77500203129262
 30
0.0
 11
299.4097929529422
 21
-22.19444544769186
 31
0.0
  0
LINE
  5
566
330
1F
100
AcDbEntity
  8
0
100
AcDbLine
 10
300.1597929529421
 20
-28.69444544769186
 30
0.0
 11
300.1597929529421
 21
-30.61227520381368
 31
0.0
  0
LINE
  5
567
330
1F
100
AcDbEntity
  8
0
100
AcDbLine
 10
311.6597929529423
 20
-30.61227520381368
 30
0.0
 11
311.6597929529423
 21
-28.69444544769186
 31
0.0
  0
ARC
  5
568
330
1F
100
AcDbEntity
  8
0
100
AcDbCircle
 10
305.6236914024273
 20
-28.20074496932108
 30
0.0
 40
6.500000000000016
100
AcDbArc
 50
272.5227244643227
 51
338.222409915069
  0
ARC
  5
569
330
1F
100
AcDbEntity
  8
0
100
AcDbCircle
 10
306.1958945034571
 20
-28.20074496932108
 30
0.0
 40
6.500000000000018
100
AcDbArc
 50
201.777590084931
 51
267.4772755356774
  0
LINE
  5
56A
330
1F
100
AcDbEntity
  8
0
100
AcDbLine
 10
312.4097929529422
 20
-20.69444544769181
 30
0.0
 11
312.4097929529422
 21
-22.19444544769186
 31
0.0
  0
LINE
  5
56B
330
1F
100
AcDbEntity
  8
0
100
AcDbLine
 10
312.4097929529422
 20
-22.19444544769186
 30
0.0
 11
305.9097929529422
 21
-22.19444544769186
 31
0.0
  0
LINE
  5
56C
330
1F
100
AcDbEntity
  8
0
100
AcDbLine
 10
305.9097929529422
 20
-22.19444544769186
 30
0.0
 11
305.9097929529422
 21
-20.69444544769186
 31
0.0
  0
LINE
  5
56D
330
1F
100
AcDbEntity
  8
0
100
AcDbLine
 10
305.9097929529422
 20
-22.19444544769186
 30
0.0
 11
299.4097929529422
 21
-22.19444544769186
 31
0.0
  0
LINE
  5
56E
330
1F
100
AcDbEntity
  8
0
100
AcDbLine
 10
299.4097929529422
 20
-22.19444544769186
 30
0.0
 11
299.4097929529422
 21
-20.69444544769186
 31
0.0
  0
LINE
  5
56F
330
1F
100
AcDbEntity
  8
0
100
AcDbLine
 10
409.7965442988854
 20
5.00555455230824
 30
0.0
 11
409.1597929529423
 21
5.00555455230824
 31
0.0
  0
LINE
  5
570
330
1F
100
AcDbEntity
  8
0
100
AcDbLine
 10
404.6597929529423
 20
5.00555455230824
 30
0.0
 11
404.0230416069992
 21
5.00555455230824
 31
0.0
  0
LINE
  5
571
330
1F
100
AcDbEntity
  8
0
100
AcDbLine
 10
404.0230416069993
 20
5.005554552308296
 30
0.0
 11
401.1362902610715
 21
5.005554552308296
 31
0.0
  0
LINE
  5
572
330
1F
100
AcDbEntity
  8
0
100
AcDbLine
 10
412.6832956448133
 20
5.005554552308296
 30
0.0
 11
409.7965442988854
 21
5.005554552308296
 31
0.0
  0
LINE
  5
573
330
1F
100
AcDbEntity
  8
0
100
AcDbLine
 10
412.6832956448133
 20
5.005554552308296
 30
0.0
 11
412.6832956448133
 21
4.505554552308296
 31
0.0
  0
LINE
  5
574
330
1F
100
AcDbEntity
  8
0
100
AcDbLine
 10
401.1362902610712
 20
5.005554552308296
 30
0.0
 11
401.1362902610712
 21
4.505554552308296
 31
0.0
  0
LINE
  5
575
330
1F
100
AcDbEntity
  8
0
100
AcDbLine
 10
404.0230416069993
 20
5.005554552308296
 30
0.0
 11
404.0230416069993
 21
4.505554552308296
 31
0.0
  0
LINE
  5
576
330
1F
100
AcDbEntity
  8
0
100
AcDbLine
 10
409.7965442988854
 20
5.00555455230824
 30
0.0
 11
409.7965442988854
 21
4.50555455230824
 31
0.0
  0
LINE
  5
577
330
1F
100
AcDbEntity
  8
0
100
AcDbLine
 10
409.7965442988854
 20
4.50555455230824
 30
0.0
 11
404.0230416069992
 21
4.50555455230824
 31
0.0
  0
LINE
  5
578
330
1F
100
AcDbEntity
  8
0
100
AcDbLine
 10
404.0230416069992
 20
4.50555455230824
 30
0.0
 11
401.1362902610712
 21
4.50555455230824
 31
0.0
  0
LINE
  5
579
330
1F
100
AcDbEntity
  8
0
100
AcDbLine
 10
412.6832956448133
 20
4.50555455230824
 30
0.0
 11
409.7965442988854
 21
4.50555455230824
 31
0.0
  0
LINE
  5
57A
330
1F
100
AcDbEntity
  8
0
100
AcDbLine
 10
412.6832956448133
 20
4.50555455230824
 30
0.0
 11
412.6832956448133
 21
0.9521365396789178
 31
0.0
  0
LINE
  5
57B
330
1F
100
AcDbEntity
  8
0
100
AcDbLine
 10
401.1362902610712
 20
4.50555455230824
 30
0.0
 11
401.1362902610712
 21
0.9521365396789178
 31
0.0
  0
LINE
  5
57C
330
1F
100
AcDbEntity
  8
0
100
AcDbLine
 10
404.0230416069992
 20
4.50555455230824
 30
0.0
 11
404.0230416069992
 21
0.9521365396919918
 31
0.0
  0
LINE
  5
57D
330
1F
100
AcDbEntity
  8
0
100
AcDbLine
 10
409.7965442988854
 20
4.50555455230824
 30
0.0
 11
409.7965442988854
 21
0.9521365396919918
 31
0.0
  0
LINE
  5
57E
330
1F
100
AcDbEntity
  8
0
100
AcDbLine
 10
411.2399199718722
 20
0.5055545523082401
 30
0.0
 11
411.9097929529425
 21
0.5055545523082401
 31
0.0
  0
LINE
  5
57F
330
1F
100
AcDbEntity
  8
0
100
AcDbLine
 10
402.5796659340128
 20
0.5055545523082401
 30
0.0
 11
401.9097929529425
 21
0.5055545523082401
 31
0.0
  0
LINE
  5
580
330
1F
100
AcDbEntity
  8
0
100
AcDbLine
 10
406.9097929529423
 20
0.5055545523082401
 30
0.0
 11
402.5796659340126
 21
0.5055545523082401
 31
0.0
  0
LINE
  5
581
330
1F
100
AcDbEntity
  8
0
100
AcDbLine
 10
411.2399199718722
 20
0.5055545523082401
 30
0.0
 11
406.9097929529425
 21
0.5055545523082401
 31
0.0
  0
ARC
  5
582
330
1F
100
AcDbEntity
  8
0
100
AcDbCircle
 10
402.6850290766694
 20
3.401916331009942
 30
0.0
 40
2.898277582453849
100
AcDbArc
 50
237.6991257503612
 51
267.9166267819206
  0
ARC
  5
583
330
1F
100
AcDbEntity
  8
0
100
AcDbCircle
 10
402.4977114944785
 20
3.326258213262292
 30
0.0
 40
2.82189398686042
100
AcDbArc
 50
271.6642382267857
 51
302.7200092408727
  0
SPLINE
  5
584
330
1F
100
AcDbEntity
  8
0
100
AcDbSpline
210
0.0
220
0.0
230
1.0
 70
     8
 71
     3
 72
    10
 73
     6
 74
     0
 42
0.0000000001
 43
0.0000000001
 40
0.0
 40
0.0
 40
0.0
 40
0.0
 40
0.5
 40
0.5
 40
1.0
 40
1.0
 40
1.0
 40
1.0
 10
404.0230416069993
 20
0.9521365396919918
 30
0.0
 10
404.4898964813944
 20
0.8173671459899765
 30
0.0
 10
404.9627293695675
 20
0.7051855171564512
 30
0.0
 10
405.9263662965308
 20
0.5487257705260049
 30
0.0
 10
406.4212759772947
 20
0.5055545523082401
 30
0.0
 10
406.9097929529423
 20
0.5055545523082401
 30
0.0
  0
SPLINE
  5
585
330
1F
100
AcDbEntity
  8
0
100
AcDbSpline
210
0.0
220
0.0
230
1.0
 70
     8
 71
     3
 72
    10
 73
     6
 74
     0
 42
0.0000000001
 43
0.0000000001
 40
0.0
 40
0.0
 40
0.0
 40
0.0
 40
0.5
 40
0.5
 40
1.0
 40
1.0
 40
1.0
 40
1.0
 10
406.9097929529423
 20
0.5055545523082401
 30
0.0
 10
407.3979714100032
 20
0.5055545523082401
 30
0.0
 10
407.8826280257583
 20
0.5475406793091225
 30
0.0
 10
408.8459538617209
 20
0.7028925123599948
 30
0.0
 10
409.3266766020958
 20
0.8164974190797238
 30
0.0
 10
409.7965442988854
 20
0.9521365396919918
 30
0.0
  0
ARC
  5
586
330
1F
100
AcDbEntity
  8
0
100
AcDbCircle
 10
411.3452831145137
 20
3.401916331045811
 30
0.0
 40
2.898277582489094
100
AcDbArc
 50
237.6991257501021
 51
267.9166267822471
  0
ARC
  5
587
330
1F
100
AcDbEntity
  8
0
100
AcDbCircle
 10
411.1579655323136
 20
3.32625821325638
 30
0.0
 40
2.821893986855167
100
AcDbArc
 50
271.6642382272822
 51
302.7200092404337
  0
LINE
  5
588
330
1F
100
AcDbEntity
  8
0
100
AcDbLine
 10
401.1362902610712
 20
0.9521365396789747
 30
0.0
 11
401.9097929529423
 21
0.505554552308297
 31
0.0
  0
LINE
  5
589
330
1F
100
AcDbEntity
  8
0
100
AcDbLine
 10
411.9097929529423
 20
0.5055545523082401
 30
0.0
 11
412.6832956448133
 21
0.9521365396789178
 31
0.0
  0
LINE
  5
58A
330
1F
100
AcDbEntity
  8
0
100
AcDbLine
 10
409.1597929529426
 20
4.50555455230824
 30
0.0
 11
409.1597929529426
 21
8.305554552308308
 31
0.0
  0
LINE
  5
58B
330
1F
100
AcDbEntity
  8
0
100
AcDbLine
 10
404.6597929529425
 20
8.305554552308308
 30
0.0
 11
404.6597929529425
 21
4.50555455230824
 31
0.0
  0
LINE
  5
58C
330
1F
100
AcDbEntity
  8
0
100
AcDbLine
 10
210.683295644813
 20
4.50555455230824
 30
0.0
 11
207.796544298885
 21
4.50555455230824
 31
0.0
  0
LINE
  5
58D
330
1F
100
AcDbEntity
  8
0
100
AcDbLine
 10
207.796544298885
 20
4.50555455230824
 30
0.0
 11
202.0230416069987
 21
4.50555455230824
 31
0.0
  0
LINE
  5
58E
330
1F
100
AcDbEntity
  8
0
100
AcDbLine
 10
202.0230416069987
 20
4.50555455230824
 30
0.0
 11
199.1362902610707
 21
4.50555455230824
 31
0.0
  0
LINE
  5
58F
330
1F
100
AcDbEntity
  8
0
100
AcDbLine
 10
199.1362902610707
 20
4.50555455230824
 30
0.0
 11
199.1362902610707
 21
0.9521365396789178
 31
0.0
  0
LINE
  5
590
330
1F
100
AcDbEntity
  8
0
100
AcDbLine
 10
202.0230416069987
 20
4.50555455230824
 30
0.0
 11
202.0230416069987
 21
0.9521365396919918
 31
0.0
  0
LINE
  5
591
330
1F
100
AcDbEntity
  8
0
100
AcDbLine
 10
207.796544298885
 20
4.50555455230824
 30
0.0
 11
207.796544298885
 21
0.9521365396919918
 31
0.0
  0
LINE
  5
592
330
1F
100
AcDbEntity
  8
0
100
AcDbLine
 10
210.683295644813
 20
4.50555455230824
 30
0.0
 11
210.683295644813
 21
0.9521365396789178
 31
0.0
  0
LINE
  5
593
330
1F
100
AcDbEntity
  8
0
100
AcDbLine
 10
200.579665934012
 20
0.5055545523082401
 30
0.0
 11
199.9097929529416
 21
0.5055545523082401
 31
0.0
  0
LINE
  5
594
330
1F
100
AcDbEntity
  8
0
100
AcDbLine
 10
204.9097929529419
 20
0.5055545523082401
 30
0.0
 11
200.5796659340122
 21
0.5055545523082401
 31
0.0
  0
LINE
  5
595
330
1F
100
AcDbEntity
  8
0
100
AcDbLine
 10
209.2399199718713
 20
0.505554552308297
 30
0.0
 11
204.9097929529416
 21
0.505554552308297
 31
0.0
  0
LINE
  5
596
330
1F
100
AcDbEntity
  8
0
100
AcDbLine
 10
209.2399199718713
 20
0.505554552308297
 30
0.0
 11
209.9097929529417
 21
0.505554552308297
 31
0.0
  0
ARC
  5
597
330
1F
100
AcDbEntity
  8
0
100
AcDbCircle
 10
209.1579655323128
 20
3.326258213256437
 30
0.0
 40
2.821893986855203
100
AcDbArc
 50
271.6642382272822
 51
302.7200092404407
  0
SPLINE
  5
598
330
1F
100
AcDbEntity
  8
0
100
AcDbSpline
210
0.0
220
0.0
230
1.0
 70
     8
 71
     3
 72
    10
 73
     6
 74
     0
 42
0.0000000001
 43
0.0000000001
 40
0.0
 40
0.0
 40
0.0
 40
0.0
 40
0.5
 40
0.5
 40
1.0
 40
1.0
 40
1.0
 40
1.0
 10
204.9097929529419
 20
0.5055545523082401
 30
0.0
 10
205.3983099285893
 20
0.5055545523082401
 30
0.0
 10
205.8932196093532
 20
0.5487257705260049
 30
0.0
 10
206.8568565363167
 20
0.7051855171564512
 30
0.0
 10
207.3296894244899
 20
0.8173671459899765
 30
0.0
 10
207.796544298885
 20
0.9521365396919918
 30
0.0
  0
ARC
  5
599
330
1F
100
AcDbEntity
  8
0
100
AcDbCircle
 10
209.3452831145132
 20
3.401916331045811
 30
0.0
 40
2.898277582489169
100
AcDbArc
 50
237.6991257501021
 51
267.9166267822394
  0
ARC
  5
59A
330
1F
100
AcDbEntity
  8
0
100
AcDbCircle
 10
200.4977114944779
 20
3.326258213262235
 30
0.0
 40
2.821893986860352
100
AcDbArc
 50
271.6642382267818
 51
302.7200092408727
  0
SPLINE
  5
59B
330
1F
100
AcDbEntity
  8
0
100
AcDbSpline
210
0.0
220
0.0
230
1.0
 70
     8
 71
     3
 72
    10
 73
     6
 74
     0
 42
0.0000000001
 43
0.0000000001
 40
0.0
 40
0.0
 40
0.0
 40
0.0
 40
0.5000000000000001
 40
0.5000000000000001
 40
1.0
 40
1.0
 40
1.0
 40
1.0
 10
202.0230416069987
 20
0.9521365396919918
 30
0.0
 10
202.4929093037883
 20
0.8164974190796669
 30
0.0
 10
202.9736320441632
 20
0.7028925123599948
 30
0.0
 10
203.9369578801258
 20
0.5475406793091225
 30
0.0
 10
204.4216144958808
 20
0.5055545523082401
 30
0.0
 10
204.9097929529419
 20
0.5055545523082401
 30
0.0
  0
ARC
  5
59C
330
1F
100
AcDbEntity
  8
0
100
AcDbCircle
 10
200.685029076669
 20
3.401916331009999
 30
0.0
 40
2.898277582453859
100
AcDbArc
 50
237.6991257503612
 51
267.9166267819148
  0
LINE
  5
59D
330
1F
100
AcDbEntity
  8
0
100
AcDbLine
 10
209.9097929529419
 20
0.505554552308297
 30
0.0
 11
210.683295644813
 21
0.9521365396789747
 31
0.0
  0
LINE
  5
59E
330
1F
100
AcDbEntity
  8
0
100
AcDbLine
 10
199.1362902610707
 20
0.9521365396789747
 30
0.0
 11
199.9097929529418
 21
0.505554552308297
 31
0.0
  0
LINE
  5
59F
330
1F
100
AcDbEntity
  8
0
100
AcDbLine
 10
207.1597929529418
 20
4.50555455230824
 30
0.0
 11
207.1597929529418
 21
8.305554552308251
 31
0.0
  0
LINE
  5
5A0
330
1F
100
AcDbEntity
  8
0
100
AcDbLine
 10
202.6597929529416
 20
8.305554552308308
 30
0.0
 11
202.6597929529416
 21
4.50555455230824
 31
0.0
  0
LINE
  5
5A1
330
1F
100
AcDbEntity
  8
0
100
AcDbLine
 10
207.796544298885
 20
5.005554552308296
 30
0.0
 11
207.159792952942
 21
5.005554552308296
 31
0.0
  0
LINE
  5
5A2
330
1F
100
AcDbEntity
  8
0
100
AcDbLine
 10
202.6597929529418
 20
5.005554552308296
 30
0.0
 11
202.0230416069987
 21
5.005554552308296
 31
0.0
  0
LINE
  5
5A3
330
1F
100
AcDbEntity
  8
0
100
AcDbLine
 10
202.023041606999
 20
5.005554552308296
 30
0.0
 11
199.1362902610709
 21
5.005554552308296
 31
0.0
  0
LINE
  5
5A4
330
1F
100
AcDbEntity
  8
0
100
AcDbLine
 10
210.683295644813
 20
5.005554552308296
 30
0.0
 11
207.796544298885
 21
5.005554552308296
 31
0.0
  0
LINE
  5
5A5
330
1F
100
AcDbEntity
  8
0
100
AcDbLine
 10
210.683295644813
 20
5.005554552308296
 30
0.0
 11
210.683295644813
 21
4.50555455230824
 31
0.0
  0
LINE
  5
5A6
330
1F
100
AcDbEntity
  8
0
100
AcDbLine
 10
199.1362902610707
 20
5.005554552308296
 30
0.0
 11
199.1362902610707
 21
4.50555455230824
 31
0.0
  0
LINE
  5
5A7
330
1F
100
AcDbEntity
  8
0
100
AcDbLine
 10
202.023041606999
 20
5.005554552308296
 30
0.0
 11
202.023041606999
 21
4.50555455230824
 31
0.0
  0
LINE
  5
5A8
330
1F
100
AcDbEntity
  8
0
100
AcDbLine
 10
207.796544298885
 20
5.005554552308296
 30
0.0
 11
207.796544298885
 21
4.50555455230824
 31
0.0
  0
LINE
  5
5A9
330
1F
100
AcDbEntity
  8
0
100
AcDbLine
 10
426.0192886111322
 20
47.42958928691308
 30
0.0
 11
430.9097929529425
 21
8.305554552308308
 31
0.0
  0
LINE
  5
5AA
330
1F
100
AcDbEntity
  8
0
100
AcDbLine
 10
181.9020708296507
 20
8.305554552308251
 30
0.0
 11
429.9175150762332
 21
8.305554552308251
 31
0.0
  0
LINE
  5
5AB
330
1F
100
AcDbEntity
  8
0
100
AcDbLine
 10
181.9020708296507
 20
8.305554552308251
 30
0.0
 11
180.9097929529416
 21
8.305554552308251
 31
0.0
  0
LINE
  5
5AC
330
1F
100
AcDbEntity
  8
0
100
AcDbLine
 10
430.9097929529423
 20
8.305554552308308
 30
0.0
 11
429.9175150762332
 21
8.305554552308308
 31
0.0
  0
LINE
  5
5AD
330
1F
100
AcDbEntity
  8
0
100
AcDbLine
 10
180.9097929529418
 20
8.305554552308251
 30
0.0
 11
185.8002972947522
 21
47.42958928691296
 31
0.0
  0
LINE
  5
5AE
330
1F
100
AcDbEntity
  8
0
100
AcDbLine
 10
186.7925751714638
 20
48.30555455230842
 30
0.0
 11
425.0270107344204
 21
48.30555455230842
 31
0.0
  0
LINE
  5
5AF
330
1F
100
AcDbEntity
  8
0
100
AcDbLine
 10
425.0270107344204
 20
47.42958928691308
 30
0.0
 11
186.792575171464
 21
47.42958928691308
 31
0.0
  0
LINE
  5
5B0
330
1F
100
AcDbEntity
  8
0
100
AcDbLine
 10
186.7925751714638
 20
47.42958928691308
 30
0.0
 11
181.9020708296507
 21
8.305554552308308
 31
0.0
  0
LINE
  5
5B1
330
1F
100
AcDbEntity
  8
0
100
AcDbLine
 10
429.9175150762335
 20
8.305554552308308
 30
0.0
 11
425.0270107344204
 21
47.42958928691303
 31
0.0
  0
ELLIPSE
  5
5B2
330
1F
100
AcDbEntity
  8
0
100
AcDbEllipse
 10
186.7925751714638
 20
47.3055545523083
 30
0.0
 11
-0.9922778767117195
 21
0.1240347346046641
 31
0.0
210
0.0
220
0.0
230
1.0
 40
0.1230914909945038
 41
4.72777420272598
 42
6.283185307179586
  0
LINE
  5
5B3
330
1F
100
AcDbEntity
  8
0
100
AcDbLine
 10
186.7925751714638
 20
48.30555455230842
 30
0.0
 11
186.7925751714638
 21
47.42958928691308
 31
0.0
  0
ARC
  5
5B4
330
1F
100
AcDbEntity
  8
0
100
AcDbCircle
 10
186.7925751714638
 20
47.30555455230836
 30
0.0
 40
0.9999999999999824
100
AcDbArc
 50
90.0
 51
172.8749836502045
  0
ELLIPSE
  5
5B5
330
1F
100
AcDbEntity
  8
0
100
AcDbEllipse
 10
425.0270107344204
 20
47.30555455230836
 30
0.0
 11
-0.9922778767117335
 21
-0.1240347346047267
 31
0.0
210
0.0
220
0.0
230
1.0
 40
0.12309149099444
 41
3.141592653589793
 42
4.697003758043397
  0
LINE
  5
5B6
330
1F
100
AcDbEntity
  8
0
100
AcDbLine
 10
425.0270107344204
 20
48.30555455230842
 30
0.0
 11
425.0270107344201
 21
47.42958928691303
 31
0.0
  0
ARC
  5
5B7
330
1F
100
AcDbEntity
  8
0
100
AcDbCircle
 10
425.0270107344204
 20
47.30555455230842
 30
0.0
 40
1.000000000000003
100
AcDbArc
 50
7.125016349794484
 51
90.0
  0
LINE
  5
5B8
330
1F
100
AcDbEntity
  8
0
100
AcDbLine
 10
298.9097929529419
 20
-25.69444544769181
 30
0.0
 11
299.409792952942
 21
-25.69444544769181
 31
0.0
  0
LINE
  5
5B9
330
1F
100
AcDbEntity
  8
0
100
AcDbLine
 10
312.4097929529422
 20
-25.69444544769181
 30
0.0
 11
312.9097929529419
 21
-25.69444544769181
 31
0.0
  0
LINE
  5
5BA
330
1F
100
AcDbEntity
  8
0
100
AcDbLine
 10
298.9097929529419
 20
-26.69444544769187
 30
0.0
 11
299.409792952942
 21
-26.69444544769187
 31
0.0
  0
LINE
  5
5BB
330
1F
100
AcDbEntity
  8
0
100
AcDbLine
 10
312.4097929529422
 20
-26.69444544769187
 30
0.0
 11
312.9097929529419
 21
-26.69444544769187
 31
0.0
  0
LINE
  5
5BC
330
1F
100
AcDbEntity
  8
0
100
AcDbLine
 10
298.409792952942
 20
-25.06112980452065
 30
0.0
 11
298.409792952942
 21
-20.69444544769181
 31
0.0
  0
LINE
  5
5BD
330
1F
100
AcDbEntity
  8
0
100
AcDbLine
 10
313.409792952942
 20
-20.69444544769181
 30
0.0
 11
313.409792952942
 21
-25.06112980451798
 31
0.0
  0
LINE
  5
5BE
330
1F
100
AcDbEntity
  8
0
100
AcDbLine
 10
298.409792952942
 20
-25.59851340902532
 30
0.0
 11
298.409792952942
 21
-25.06112980452054
 31
0.0
  0
LINE
  5
5BF
330
1F
100
AcDbEntity
  8
0
100
AcDbLine
 10
313.409792952942
 20
-25.59851340902532
 30
0.0
 11
313.409792952942
 21
-25.06112980451809
 31
0.0
  0
ARC
  5
5C0
330
1F
100
AcDbEntity
  8
0
100
AcDbCircle
 10
310.6713334759839
 20
-22.55530925292953
 30
0.0
 40
3.049816058355382
100
AcDbArc
 50
304.7516965068315
 51
324.1010342735383
  0
ARC
  5
5C1
330
1F
100
AcDbEntity
  8
0
100
AcDbCircle
 10
312.0790656229376
 20
-25.1492632376951
 30
0.0
 40
1.333642654111161
100
AcDbArc
 50
3.789138316114843
 51
37.16503488222762
  0
ARC
  5
5C2
330
1F
100
AcDbEntity
  8
0
100
AcDbCircle
 10
299.7397085466082
 20
-25.14896011186301
 30
0.0
 40
1.332812683449717
100
AcDbArc
 50
142.8242686969617
 51
176.2215581048342
  0
ARC
  5
5C3
330
1F
100
AcDbEntity
  8
0
100
AcDbCircle
 10
301.1474415157075
 20
-22.55613656932968
 30
0.0
 40
3.048674078355235
100
AcDbArc
 50
215.89530690527
 51
235.2519623147021
  0
ARC
  5
5C4
330
1F
100
AcDbEntity
  8
0
100
AcDbCircle
 10
301.9097929529421
 20
-26.69444544769187
 30
0.0
 40
3.000000000000008
100
AcDbArc
 50
180.0
 51
212.4297483102505
  0
ARC
  5
5C5
330
1F
100
AcDbEntity
  8
0
100
AcDbCircle
 10
301.9097929529421
 20
-26.69444544769187
 30
0.0
 40
3.000000000000008
100
AcDbArc
 50
221.8103148957757
 51
234.3146652873503
  0
ARC
  5
5C6
330
1F
100
AcDbEntity
  8
0
100
AcDbCircle
 10
309.909792952942
 20
-26.69444544769187
 30
0.0
 40
3.000000000000003
100
AcDbArc
 50
305.6853347126574
 51
318.1896851042243
  0
ARC
  5
5C7
330
1F
100
AcDbEntity
  8
0
100
AcDbCircle
 10
309.909792952942
 20
-26.69444544769187
 30
0.0
 40
3.000000000000003
100
AcDbArc
 50
326.7037003277919
 51
0.0
  0
LINE
  5
5C8
330
1F
100
AcDbEntity
  8
0
100
AcDbLine
 10
298.9097929529419
 20
-25.69444544769181
 30
0.0
 11
298.9097929529419
 21
-26.69444544769181
 31
0.0
  0
LINE
  5
5C9
330
1F
100
AcDbEntity
  8
0
100
AcDbLine
 10
312.9097929529421
 20
-26.69444544769187
 30
0.0
 11
312.9097929529421
 21
-25.69444544769186
 31
0.0
  0
ARC
  5
5CA
330
1F
100
AcDbEntity
  8
0
100
AcDbCircle
 10
298.9097929529419
 20
-24.34359248660593
 30
0.0
 40
1.350852961085896
100
AcDbArc
 50
248.298780795158
 51
270.0
  0
ARC
  5
5CB
330
1F
100
AcDbEntity
  8
0
100
AcDbCircle
 10
312.9097929529421
 20
-24.34359248660593
 30
0.0
 40
1.350852961085894
100
AcDbArc
 50
270.0
 51
291.7380844041422
  0
LINE
  5
5CC
330
1F
100
AcDbEntity
  8
0
100
AcDbLine
 10
290.1597929529419
 20
1.555554552308251
 30
0.0
 11
281.6597929529418
 21
1.555554552308251
 31
0.0
  0
LINE
  5
5CD
330
1F
100
AcDbEntity
  8
0
100
AcDbLine
 10
288.79654429889
 20
0.8589725649230217
 30
0.0
 11
288.79654429889
 21
-0.6944454476917486
 31
0.0
  0
LINE
  5
5CE
330
1F
100
AcDbEntity
  8
0
100
AcDbLine
 10
283.0230416069929
 20
0.8589725649235901
 30
0.0
 11
283.0230416069929
 21
-0.6944454476917486
 31
0.0
  0
SPLINE
  5
5CF
330
1F
100
AcDbEntity
  8
0
100
AcDbSpline
210
0.0
220
0.0
230
1.0
 70
     8
 71
     3
 72
    10
 73
     6
 74
     0
 42
0.0000000001
 43
0.0000000001
 40
0.0
 40
0.0
 40
0.0
 40
0.0
 40
0.5
 40
0.5
 40
1.0
 40
1.0
 40
1.0
 40
1.0
 10
285.909792952942
 20
1.305554552308251
 30
0.0
 10
285.421678414102
 20
1.305554552308251
 30
0.0
 10
284.9370252720081
 20
1.263578234374506
 30
0.0
 10
283.9736076617007
 20
1.108213719104924
 30
0.0
 10
283.4928491708243
 20
0.9945943266455401
 30
0.0
 10
283.0230416069929
 20
0.8589725649235901
 30
0.0
  0
SPLINE
  5
5D0
330
1F
100
AcDbEntity
  8
0
100
AcDbSpline
210
0.0
220
0.0
230
1.0
 70
     8
 71
     3
 72
    10
 73
     6
 74
     0
 42
0.0000000001
 43
0.0000000001
 40
0.0
 40
0.0
 40
0.0
 40
0.0
 40
0.5
 40
0.5
 40
1.0
 40
1.0
 40
1.0
 40
1.0
 10
288.79654429889
 20
0.8589725649230217
 30
0.0
 10
288.3297053389485
 20
0.9937373645183242
 30
0.0
 10
287.8568640874018
 20
1.105924385496507
 30
0.0
 10
286.8931297307556
 20
1.262395902888329
 30
0.0
 10
286.3982373445375
 20
1.305554552308251
 30
0.0
 10
285.909792952942
 20
1.305554552308251
 30
0.0
  0
LINE
  5
5D1
330
1F
100
AcDbEntity
  8
0
100
AcDbLine
 10
280.1362902610458
 20
0.8589725649230217
 30
0.0
 11
280.1362902610458
 21
-0.6944454476917486
 31
0.0
  0
LINE
  5
5D2
330
1F
100
AcDbEntity
  8
0
100
AcDbLine
 10
291.6832956448382
 20
0.8589725649230217
 30
0.0
 11
291.6832956448382
 21
-0.6944454476917486
 31
0.0
  0
ARC
  5
5D3
330
1F
100
AcDbEntity
  8
0
100
AcDbCircle
 10
290.1345568291754
 20
-1.590807226530216
 30
0.0
 40
2.898277582591699
100
AcDbArc
 50
57.69912575057589
 51
87.91662678138678
  0
ARC
  5
5D4
330
1F
100
AcDbEntity
  8
0
100
AcDbCircle
 10
281.661620373622
 20
-1.515149108814796
 30
0.0
 40
2.821893987031362
100
AcDbArc
 50
91.6642382280642
 51
122.7200092399783
  0
ARC
  5
5D5
330
1F
100
AcDbEntity
  8
0
100
AcDbCircle
 10
290.3218744114664
 20
-1.515149108814796
 30
0.0
 40
2.821893987031327
100
AcDbArc
 50
91.66423822806812
 51
122.7200092399827
  0
LINE
  5
5D6
330
1F
100
AcDbEntity
  8
0
100
AcDbLine
 10
281.5796659340199
 20
1.305554552308251
 30
0.0
 11
280.9097929529421
 21
1.305554552308251
 31
0.0
  0
LINE
  5
5D7
330
1F
100
AcDbEntity
  8
0
100
AcDbLine
 10
290.909792952942
 20
1.305554552308251
 30
0.0
 11
290.2399199718641
 21
1.305554552308251
 31
0.0
  0
LINE
  5
5D8
330
1F
100
AcDbEntity
  8
0
100
AcDbLine
 10
290.2399199718641
 20
1.305554552308251
 30
0.0
 11
285.909792952942
 21
1.305554552308251
 31
0.0
  0
LINE
  5
5D9
330
1F
100
AcDbEntity
  8
0
100
AcDbLine
 10
285.909792952942
 20
1.305554552308251
 30
0.0
 11
281.5796659340197
 21
1.305554552308251
 31
0.0
  0
ARC
  5
5DA
330
1F
100
AcDbEntity
  8
0
100
AcDbCircle
 10
281.4743027913312
 20
-1.590807226529591
 30
0.0
 40
2.898277582591078
100
AcDbArc
 50
57.69912575059215
 51
87.91662678138678
  0
ARC
  5
5DB
330
1F
100
AcDbEntity
  8
0
100
AcDbCircle
 10
285.909792952942
 20
1.555554552308251
 30
0.0
 40
4.250000000000005
100
AcDbArc
 50
0.0
 51
180.0
  0
LINE
  5
5DC
330
1F
100
AcDbEntity
  8
0
100
AcDbLine
 10
290.1597929529419
 20
1.305554552308251
 30
0.0
 11
290.1597929529419
 21
1.555554552308251
 31
0.0
  0
LINE
  5
5DD
330
1F
100
AcDbEntity
  8
0
100
AcDbLine
 10
281.659792952942
 20
1.555554552308251
 30
0.0
 11
281.659792952942
 21
1.305554552308251
 31
0.0
  0
LINE
  5
5DE
330
1F
100
AcDbEntity
  8
0
100
AcDbLine
 10
291.6832956448382
 20
0.8589725649230217
 30
0.0
 11
290.9097929529417
 21
1.305554552308251
 31
0.0
  0
LINE
  5
5DF
330
1F
100
AcDbEntity
  8
0
100
AcDbLine
 10
280.909792952942
 20
1.305554552308251
 30
0.0
 11
280.1362902610456
 21
0.8589725649230217
 31
0.0
  0
LINE
  5
5E0
330
1F
100
AcDbEntity
  8
0
100
AcDbLine
 10
330.159792952942
 20
1.555554552308251
 30
0.0
 11
321.659792952942
 21
1.555554552308251
 31
0.0
  0
LINE
  5
5E1
330
1F
100
AcDbEntity
  8
0
100
AcDbLine
 10
328.7965442988904
 20
0.8589725649230217
 30
0.0
 11
328.7965442988904
 21
-0.6944454476917486
 31
0.0
  0
LINE
  5
5E2
330
1F
100
AcDbEntity
  8
0
100
AcDbLine
 10
323.0230416069931
 20
0.8589725649235901
 30
0.0
 11
323.0230416069931
 21
-0.6944454476917486
 31
0.0
  0
SPLINE
  5
5E3
330
1F
100
AcDbEntity
  8
0
100
AcDbSpline
210
0.0
220
0.0
230
1.0
 70
     8
 71
     3
 72
    10
 73
     6
 74
     0
 42
0.0000000001
 43
0.0000000001
 40
0.0
 40
0.0
 40
0.0
 40
0.0
 40
0.5
 40
0.5
 40
1.0
 40
1.0
 40
1.0
 40
1.0
 10
325.9097929529422
 20
1.305554552308251
 30
0.0
 10
325.4216784141021
 20
1.305554552308251
 30
0.0
 10
324.9370252720084
 20
1.263578234374563
 30
0.0
 10
323.9736076617008
 20
1.108213719104924
 30
0.0
 10
323.4928491708245
 20
0.9945943266455401
 30
0.0
 10
323.0230416069931
 20
0.8589725649235901
 30
0.0
  0
SPLINE
  5
5E4
330
1F
100
AcDbEntity
  8
0
100
AcDbSpline
210
0.0
220
0.0
230
1.0
 70
     8
 71
     3
 72
    10
 73
     6
 74
     0
 42
0.0000000001
 43
0.0000000001
 40
0.0
 40
0.0
 40
0.0
 40
0.0
 40
0.5
 40
0.5
 40
1.0
 40
1.0
 40
1.0
 40
1.0
 10
328.7965442988904
 20
0.8589725649230217
 30
0.0
 10
328.3297053389487
 20
0.9937373645183242
 30
0.0
 10
327.856864087402
 20
1.105924385496507
 30
0.0
 10
326.8931297307557
 20
1.262395902888385
 30
0.0
 10
326.3982373445377
 20
1.305554552308251
 30
0.0
 10
325.9097929529422
 20
1.305554552308251
 30
0.0
  0
LINE
  5
5E5
330
1F
100
AcDbEntity
  8
0
100
AcDbLine
 10
320.1362902610459
 20
0.8589725649230217
 30
0.0
 11
320.1362902610459
 21
-0.6944454476917486
 31
0.0
  0
LINE
  5
5E6
330
1F
100
AcDbEntity
  8
0
100
AcDbLine
 10
331.6832956448384
 20
0.8589725649230217
 30
0.0
 11
331.6832956448384
 21
-0.6944454476917486
 31
0.0
  0
ARC
  5
5E7
330
1F
100
AcDbEntity
  8
0
100
AcDbCircle
 10
330.1345568291755
 20
-1.590807226530216
 30
0.0
 40
2.898277582591676
100
AcDbArc
 50
57.69912575057154
 51
87.91662678138287
  0
ARC
  5
5E8
330
1F
100
AcDbEntity
  8
0
100
AcDbCircle
 10
321.6616203736221
 20
-1.515149108814796
 30
0.0
 40
2.821893987031373
100
AcDbArc
 50
91.6642382280642
 51
122.7200092399783
  0
ARC
  5
5E9
330
1F
100
AcDbEntity
  8
0
100
AcDbCircle
 10
330.3218744114665
 20
-1.515149108814853
 30
0.0
 40
2.821893987031375
100
AcDbArc
 50
91.6642382280642
 51
122.7200092399783
  0
LINE
  5
5EA
330
1F
100
AcDbEntity
  8
0
100
AcDbLine
 10
320.9097929529422
 20
1.305554552308251
 30
0.0
 11
321.5796659340201
 21
1.305554552308251
 31
0.0
  0
LINE
  5
5EB
330
1F
100
AcDbEntity
  8
0
100
AcDbLine
 10
330.2399199718644
 20
1.305554552308251
 30
0.0
 11
330.9097929529423
 21
1.305554552308251
 31
0.0
  0
LINE
  5
5EC
330
1F
100
AcDbEntity
  8
0
100
AcDbLine
 10
330.2399199718644
 20
1.305554552308251
 30
0.0
 11
325.9097929529422
 21
1.305554552308251
 31
0.0
  0
LINE
  5
5ED
330
1F
100
AcDbEntity
  8
0
100
AcDbLine
 10
325.9097929529422
 20
1.305554552308251
 30
0.0
 11
321.57966593402
 21
1.305554552308251
 31
0.0
  0
ARC
  5
5EE
330
1F
100
AcDbEntity
  8
0
100
AcDbCircle
 10
321.4743027913313
 20
-1.590807226529648
 30
0.0
 40
2.8982775825911
100
AcDbArc
 50
57.69912575059215
 51
87.91662678138678
  0
ARC
  5
5EF
330
1F
100
AcDbEntity
  8
0
100
AcDbCircle
 10
325.9097929529422
 20
1.555554552308251
 30
0.0
 40
4.250000000000005
100
AcDbArc
 50
0.0
 51
180.0
  0
LINE
  5
5F0
330
1F
100
AcDbEntity
  8
0
100
AcDbLine
 10
330.159792952942
 20
1.305554552308251
 30
0.0
 11
330.159792952942
 21
1.555554552308251
 31
0.0
  0
LINE
  5
5F1
330
1F
100
AcDbEntity
  8
0
100
AcDbLine
 10
321.6597929529421
 20
1.555554552308251
 30
0.0
 11
321.6597929529421
 21
1.305554552308251
 31
0.0
  0
LINE
  5
5F2
330
1F
100
AcDbEntity
  8
0
100
AcDbLine
 10
331.6832956448384
 20
0.8589725649230217
 30
0.0
 11
330.9097929529421
 21
1.305554552308251
 31
0.0
  0
LINE
  5
5F3
330
1F
100
AcDbEntity
  8
0
100
AcDbLine
 10
320.9097929529422
 20
1.305554552308251
 30
0.0
 11
320.1362902610459
 21
0.8589725649230217
 31
0.0
  0
LINE
  5
5F4
330
1F
100
AcDbEntity
  8
0
100
AcDbLine
 10
-47.88354144764343
 20
-0.6944454476917486
 30
0.0
 11
-47.88354144764343
 21
8.305554552308308
 31
0.0
  0
LINE
  5
5F5
330
1F
100
AcDbEntity
  8
0
100
AcDbLine
 10
-197.8835414476439
 20
8.305554552308308
 30
0.0
 11
-197.8835414476439
 21
5.532047982454969
 31
0.0
  0
ARC
  5
5F6
330
1F
100
AcDbEntity
  8
0
100
AcDbCircle
 10
-156.8835414476438
 20
11.30555455230831
 30
0.0
 40
9.000000000000026
100
AcDbArc
 50
199.4712206344912
 51
340.5287793655088
  0
ARC
  5
5F7
330
1F
100
AcDbEntity
  8
0
100
AcDbCircle
 10
-142.8835414476436
 20
0.3055545523082515
 30
0.0
 40
5.000000000000014
100
AcDbArc
 50
126.8698976458438
 51
218.3161344736654
  0
ARC
  5
5F8
330
1F
100
AcDbEntity
  8
0
100
AcDbCircle
 10
-102.8835414476436
 20
0.3055545523082515
 30
0.0
 40
5.000000000000014
100
AcDbArc
 50
321.6838655263346
 51
53.13010235415402
  0
ARC
  5
5F9
330
1F
100
AcDbEntity
  8
0
100
AcDbCircle
 10
-102.8835414476436
 20
0.3055545523082515
 30
0.0
 40
5.000000000000014
100
AcDbArc
 50
53.13010235415402
 51
118.0026467195295
  0
ARC
  5
5FA
330
1F
100
AcDbEntity
  8
0
100
AcDbCircle
 10
-108.8835414476436
 20
1.305554552308251
 30
0.0
 40
5.000000000000014
100
AcDbArc
 50
43.07270886441889
 51
82.45442381794067
  0
ARC
  5
5FB
330
1F
100
AcDbEntity
  8
0
100
AcDbCircle
 10
-136.8835414476438
 20
1.305554552308251
 30
0.0
 40
5.000000000000011
100
AcDbArc
 50
97.54557618205737
 51
136.9272911355811
  0
ARC
  5
5FC
330
1F
100
AcDbEntity
  8
0
100
AcDbCircle
 10
-142.8835414476436
 20
0.3055545523082515
 30
0.0
 40
5.000000000000014
100
AcDbArc
 50
61.99735328047045
 51
126.8698976458438
  0
LINE
  5
5FD
330
1F
100
AcDbEntity
  8
0
100
AcDbLine
 10
-145.8835414476437
 20
8.305554552308365
 30
0.0
 11
-145.8835414476437
 21
4.305554552308308
 31
0.0
  0
LINE
  5
5FE
330
1F
100
AcDbEntity
  8
0
100
AcDbLine
 10
-99.88354144764356
 20
4.305554552308251
 30
0.0
 11
-99.88354144764356
 21
8.305554552308308
 31
0.0
  0
ARC
  5
5FF
330
1F
100
AcDbEntity
  8
0
100
AcDbCircle
 10
-122.8835414476436
 20
11.30555455230831
 30
0.0
 40
11.00000000000003
100
AcDbArc
 50
195.8266201318717
 51
344.1733798681273
  0
ARC
  5
600
330
1F
100
AcDbEntity
  8
0
100
AcDbCircle
 10
-122.8835414476436
 20
11.30555455230831
 30
0.0
 40
11.50000000000003
100
AcDbArc
 50
195.1216653149089
 51
344.8783346850911
  0
LINE
  5
601
330
1F
100
AcDbEntity
  8
0
100
AcDbLine
 10
-119.1301359867041
 20
-2.194445447691748
 30
0.0
 11
-113.3155480877662
 21
3.620142451246124
 31
0.0
  0
ARC
  5
602
330
1F
100
AcDbEntity
  8
0
100
AcDbCircle
 10
-108.8835414476436
 20
1.305554552308251
 30
0.0
 40
5.000000000000015
100
AcDbArc
 50
82.45442381794067
 51
152.4244655679963
  0
ARC
  5
603
330
1F
100
AcDbEntity
  8
0
100
AcDbCircle
 10
-136.8835414476438
 20
1.305554552308251
 30
0.0
 40
5.000000000000011
100
AcDbArc
 50
27.57553443175631
 51
97.54557618205737
  0
ARC
  5
604
330
1F
100
AcDbEntity
  8
0
100
AcDbCircle
 10
-122.8835414476436
 20
11.30555455230831
 30
0.0
 40
15.50000000000004
100
AcDbArc
 50
341.0117671479889
 51
348.8400631278149
  0
ARC
  5
605
330
1F
100
AcDbEntity
  8
0
100
AcDbCircle
 10
-122.8835414476436
 20
11.30555455230831
 30
0.0
 40
15.50000000000004
100
AcDbArc
 50
191.159936872185
 51
198.988232852011
  0
LINE
  5
606
330
1F
100
AcDbEntity
  8
0
100
AcDbLine
 10
-119.1301359867041
 20
-2.194445447691748
 30
0.0
 11
-126.6369469085923
 21
-2.194445447691748
 31
0.0
  0
LINE
  5
607
330
1F
100
AcDbEntity
  8
0
100
AcDbLine
 10
-126.6369469085923
 20
-2.194445447691748
 30
0.0
 11
-132.4515348075111
 21
3.620142451227081
 31
0.0
  0
ARC
  5
608
330
1F
100
AcDbEntity
  8
0
100
AcDbCircle
 10
-122.8835414476436
 20
11.30555455230831
 30
0.0
 40
12.00000000000003
100
AcDbArc
 50
194.4775121859295
 51
345.5224878140705
  0
LINE
  5
609
330
1F
100
AcDbEntity
  8
0
100
AcDbLine
 10
-207.3476430627817
 20
7.841452937170458
 30
0.0
 11
-198.4194398325061
 21
7.841452937170458
 31
0.0
  0
LINE
  5
60A
330
1F
100
AcDbEntity
  8
0
100
AcDbLine
 10
-207.3476430627817
 20
4.377351322032723
 30
0.0
 11
-199.5615853413578
 21
4.377351322032723
 31
0.0
  0
LINE
  5
60B
330
1F
100
AcDbEntity
  8
0
100
AcDbLine
 10
-207.883541447644
 20
6.109402129601619
 30
0.0
 11
-207.883541447644
 21
8.305554552308308
 31
0.0
  0
LINE
  5
60C
330
1F
100
AcDbEntity
  8
0
100
AcDbLine
 10
-207.883541447644
 20
5.305554552308308
 30
0.0
 11
-207.883541447644
 21
6.109402129601676
 31
0.0
  0
ARC
  5
60D
330
1F
100
AcDbEntity
  8
0
100
AcDbCircle
 10
-204.4079069943622
 20
6.235837999426792
 30
0.0
 40
3.477933421159436
100
AcDbArc
 50
182.0833746510112
 51
212.3008728170322
  0
ARC
  5
60E
330
1F
100
AcDbEntity
  8
0
100
AcDbCircle
 10
-204.498697074604
 20
6.011056808362241
 30
0.0
 40
3.386272763955976
100
AcDbArc
 50
147.2799906637337
 51
178.3357618682243
  0
SPLINE
  5
60F
330
1F
100
AcDbEntity
  8
0
100
AcDbSpline
210
0.0
220
0.0
230
1.0
 70
     8
 71
     3
 72
     8
 73
     4
 74
     0
 42
0.0000000001
 43
0.0000000001
 40
0.0
 40
0.0
 40
0.0
 40
0.0
 40
0.1366632883746677
 40
0.1366632883746677
 40
0.1366632883746677
 40
0.1366632883746677
 10
-207.3476430627817
 20
7.841452937170458
 30
0.0
 10
-207.3918384464294
 20
7.994550237046212
 30
0.0
 10
-207.4340140916184
 20
8.148196432210738
 30
0.0
 10
-207.4738901369106
 20
8.30246757935555
 30
0.0
  0
ARC
  5
610
330
1F
100
AcDbEntity
  8
0
100
AcDbCircle
 10
-201.3591759009257
 20
6.235837999426735
 30
0.0
 40
3.477933421159423
100
AcDbArc
 50
347.5746002346201
 51
357.9166253489898
  0
ARC
  5
611
330
1F
100
AcDbEntity
  8
0
100
AcDbCircle
 10
-201.2683858206839
 20
6.011056808362241
 30
0.0
 40
3.386272763956021
100
AcDbArc
 50
1.664238131775692
 51
32.72000933626549
  0
SPLINE
  5
612
330
1F
100
AcDbEntity
  8
0
100
AcDbSpline
210
0.0
220
0.0
230
1.0
 70
     8
 71
     3
 72
     8
 73
     4
 74
     0
 42
0.0000000001
 43
0.0000000001
 40
0.0
 40
0.0
 40
0.0
 40
0.0
 40
0.1366632883746669
 40
0.1366632883746669
 40
0.1366632883746669
 40
0.1366632883746669
 10
-198.4194398325061
 20
7.841452937170458
 30
0.0
 10
-198.3752444488585
 20
7.994550237046212
 30
0.0
 10
-198.3330688036694
 20
8.148196432210738
 30
0.0
 10
-198.2931927583771
 20
8.302467579355493
 30
0.0
  0
LINE
  5
613
330
1F
100
AcDbEntity
  8
0
100
AcDbLine
 10
-207.883541447644
 20
5.305554552308308
 30
0.0
 11
-207.3476430627817
 21
4.377351322032779
 31
0.0
  0
LINE
  5
61B
330
1F
100
AcDbEntity
  8
0
100
AcDbLine
 10
-22.38354144764344
 20
-0.6944454476917486
 30
0.0
 11
-51.38354144764344
 21
-0.6944454476917486
 31
0.0
  0
LINE
  5
61C
330
1F
100
AcDbEntity
  8
0
100
AcDbLine
 10
-21.88354144764332
 20
-26.19444544769186
 30
0.0
 11
-51.88354144764343
 21
-26.19444544769186
 31
0.0
  0
LINE
  5
61D
330
1F
100
AcDbEntity
  8
0
100
AcDbLine
 10
-51.88354144764355
 20
-1.194445447691748
 30
0.0
 11
-21.88354144764344
 21
-1.194445447691748
 31
0.0
  0
LINE
  5
61E
330
1F
100
AcDbEntity
  8
0
100
AcDbLine
 10
-51.38354144764344
 20
-26.69444544769187
 30
0.0
 11
-22.38354144764333
 21
-26.69444544769187
 31
0.0
  0
LINE
  5
61F
330
1F
100
AcDbEntity
  8
0
100
AcDbLine
 10
-21.88354144764332
 20
-26.19444544769186
 30
0.0
 11
-21.88354144764332
 21
-1.194445447691805
 31
0.0
  0
LINE
  5
620
330
1F
100
AcDbEntity
  8
0
100
AcDbLine
 10
-51.88354144764355
 20
-1.194445447691748
 30
0.0
 11
-51.88354144764355
 21
-26.1944454476918
 31
0.0
  0
LINE
  5
621
330
1F
100
AcDbEntity
  8
0
100
AcDbLine
 10
-21.88354144764332
 20
-1.194445447691805
 30
0.0
 11
-22.38354144764333
 21
-0.6944454476917486
 31
0.0
  0
LINE
  5
622
330
1F
100
AcDbEntity
  8
0
100
AcDbLine
 10
-51.38354144764344
 20
-0.6944454476917486
 30
0.0
 11
-51.88354144764355
 21
-1.194445447691805
 31
0.0
  0
LINE
  5
623
330
1F
100
AcDbEntity
  8
0
100
AcDbLine
 10
-51.88354144764355
 20
-26.19444544769186
 30
0.0
 11
-51.38354144764344
 21
-26.69444544769187
 31
0.0
  0
LINE
  5
624
330
1F
100
AcDbEntity
  8
0
100
AcDbLine
 10
-22.38354144764344
 20
-26.69444544769187
 30
0.0
 11
-21.88354144764344
 21
-26.1944454476918
 31
0.0
  0
LINE
  5
625
330
1F
100
AcDbEntity
  8
0
100
AcDbLine
 10
-224.3835414476439
 20
-0.6944454476917486
 30
0.0
 11
-253.383541447644
 21
-0.6944454476917486
 31
0.0
  0
LINE
  5
626
330
1F
100
AcDbEntity
  8
0
100
AcDbLine
 10
-223.8835414476439
 20
-26.1944454476918
 30
0.0
 11
-253.883541447644
 21
-26.1944454476918
 31
0.0
  0
LINE
  5
627
330
1F
100
AcDbEntity
  8
0
100
AcDbLine
 10
-253.883541447644
 20
-1.194445447691748
 30
0.0
 11
-223.883541447644
 21
-1.194445447691748
 31
0.0
  0
LINE
  5
628
330
1F
100
AcDbEntity
  8
0
100
AcDbLine
 10
-253.3835414476441
 20
-26.69444544769187
 30
0.0
 11
-224.383541447644
 21
-26.69444544769187
 31
0.0
  0
LINE
  5
629
330
1F
100
AcDbEntity
  8
0
100
AcDbLine
 10
-223.8835414476439
 20
-26.1944454476918
 30
0.0
 11
-223.8835414476439
 21
-1.194445447691748
 31
0.0
  0
LINE
  5
62A
330
1F
100
AcDbEntity
  8
0
100
AcDbLine
 10
-253.883541447644
 20
-1.194445447691748
 30
0.0
 11
-253.8835414476441
 21
-26.1944454476918
 31
0.0
  0
LINE
  5
62B
330
1F
100
AcDbEntity
  8
0
100
AcDbLine
 10
-223.8835414476439
 20
-1.194445447691748
 30
0.0
 11
-224.3835414476439
 21
-0.6944454476917486
 31
0.0
  0
LINE
  5
62C
330
1F
100
AcDbEntity
  8
0
100
AcDbLine
 10
-253.3835414476441
 20
-0.6944454476917486
 30
0.0
 11
-253.8835414476441
 21
-1.194445447691748
 31
0.0
  0
LINE
  5
62D
330
1F
100
AcDbEntity
  8
0
100
AcDbLine
 10
-253.883541447644
 20
-26.1944454476918
 30
0.0
 11
-253.383541447644
 21
-26.69444544769187
 31
0.0
  0
LINE
  5
62E
330
1F
100
AcDbEntity
  8
0
100
AcDbLine
 10
-224.3835414476439
 20
-26.69444544769187
 30
0.0
 11
-223.8835414476439
 21
-26.1944454476918
 31
0.0
  0
LINE
  5
62F
330
1F
100
AcDbEntity
  8
0
100
AcDbLine
 10
-223.883541447644
 20
-18.59444544769184
 30
0.0
 11
-51.88354144764355
 21
-18.59444544769178
 31
0.0
  0
LINE
  5
630
330
1F
100
AcDbEntity
  8
0
100
AcDbLine
 10
-51.88354144764355
 20
-2.794445447691714
 30
0.0
 11
-223.883541447644
 21
-2.794445447691771
 31
0.0
  0
LINE
  5
631
330
1F
100
AcDbEntity
  8
0
100
AcDbLine
 10
-253.883541447644
 20
-20.69444544769181
 30
0.0
 11
-273.383541447644
 21
-20.69444544769175
 31
0.0
  0
LINE
  5
632
330
1F
100
AcDbEntity
  8
0
100
AcDbLine
 10
-246.883541447644
 20
-29.69444544769186
 30
0.0
 11
-273.383541447644
 21
-29.69444544769181
 31
0.0
  0
LINE
  5
633
330
1F
100
AcDbEntity
  8
0
100
AcDbLine
 10
-273.3835414476441
 20
-20.69444544769181
 30
0.0
 11
-273.3835414476441
 21
-29.69444544769181
 31
0.0
  0
LINE
  5
634
330
1F
100
AcDbEntity
  8
0
100
AcDbLine
 10
-273.3835414476441
 20
-29.69444544769181
 30
0.0
 11
-283.3835414476441
 21
-29.69444544769181
 31
0.0
  0
LINE
  5
635
330
1F
100
AcDbEntity
  8
0
100
AcDbLine
 10
-273.3835414476441
 20
-20.69444544769181
 30
0.0
 11
-283.3835414476441
 21
-20.69444544769181
 31
0.0
  0
LINE
  5
636
330
1F
100
AcDbEntity
  8
0
100
AcDbLine
 10
-283.3835414476441
 20
-20.69444544769175
 30
0.0
 11
-283.3835414476441
 21
-29.69444544769175
 31
0.0
  0
LINE
  5
637
330
1F
100
AcDbEntity
  8
0
100
AcDbLine
 10
-58.32557956339269
 20
-40.69444544769186
 30
0.0
 11
-15.44150333189418
 21
-40.69444544769186
 31
0.0
  0
LINE
  5
638
330
1F
100
AcDbEntity
  8
0
100
AcDbLine
 10
-51.38354144764344
 20
-37.69444544769186
 30
0.0
 11
-22.38354144764344
 21
-37.69444544769186
 31
0.0
  0
LINE
  5
639
330
1F
100
AcDbEntity
  8
0
100
AcDbLine
 10
-58.19178785504925
 20
-46.69444544769191
 30
0.0
 11
-15.5752950402375
 21
-46.69444544769191
 31
0.0
  0
LINE
  5
63A
330
1F
100
AcDbEntity
  8
0
100
AcDbLine
 10
-14.5904872872253
 20
-45.52079727002495
 30
0.0
 11
-59.17659560806135
 21
-45.52079727002495
 31
0.0
  0
LINE
  5
63B
330
1F
100
AcDbEntity
  8
0
100
AcDbLine
 10
-48.38348491478519
 20
-49.69444544769192
 30
0.0
 11
-25.38354144764332
 21
-49.69444544769192
 31
0.0
  0
LINE
  5
63C
330
1F
100
AcDbEntity
  8
0
100
AcDbLine
 10
-24.38354144764332
 20
-48.69444544769186
 30
0.0
 11
-49.38354144764343
 21
-48.69444544769186
 31
0.0
  0
LINE
  5
63D
330
1F
100
AcDbEntity
  8
0
100
AcDbLine
 10
-14.5904872872253
 20
-45.52079727002495
 30
0.0
 11
-15.44150333189418
 21
-40.69444544769186
 31
0.0
  0
LINE
  5
63E
330
1F
100
AcDbEntity
  8
0
100
AcDbLine
 10
-58.32557956339269
 20
-40.69444544769186
 30
0.0
 11
-59.17659560806146
 21
-45.52079727002495
 31
0.0
  0
LINE
  5
63F
330
1F
100
AcDbEntity
  8
0
100
AcDbLine
 10
-27.38354144764333
 20
-37.69444544769186
 30
0.0
 11
-29.38354144764332
 21
-34.69444544769181
 31
0.0
  0
LINE
  5
640
330
1F
100
AcDbEntity
  8
0
100
AcDbLine
 10
-44.38354144764343
 20
-34.69444544769186
 30
0.0
 11
-46.38354144764332
 21
-37.69444544769192
 31
0.0
  0
LINE
  5
641
330
1F
100
AcDbEntity
  8
0
100
AcDbLine
 10
-15.44150333189418
 20
-40.69444544769186
 30
0.0
 11
-22.38354144764333
 21
-37.69444544769186
 31
0.0
  0
LINE
  5
642
330
1F
100
AcDbEntity
  8
0
100
AcDbLine
 10
-51.38354144764344
 20
-37.69444544769186
 30
0.0
 11
-58.32557956339269
 21
-40.69444544769186
 31
0.0
  0
LINE
  5
643
330
1F
100
AcDbEntity
  8
0
100
AcDbLine
 10
-49.38354144764355
 20
-46.69444544769191
 30
0.0
 11
-49.38354144764355
 21
-48.69444544769192
 31
0.0
  0
LINE
  5
644
330
1F
100
AcDbEntity
  8
0
100
AcDbLine
 10
-24.38354144764332
 20
-48.69444544769186
 30
0.0
 11
-24.38354144764332
 21
-46.69444544769191
 31
0.0
  0
ARC
  5
645
330
1F
100
AcDbEntity
  8
0
100
AcDbCircle
 10
-15.5752950402375
 20
-45.69444544769192
 30
0.0
 40
1.000000000000003
100
AcDbArc
 50
270.0
 51
10.00000000000096
  0
ARC
  5
646
330
1F
100
AcDbEntity
  8
0
100
AcDbCircle
 10
-58.19178785504925
 20
-45.69444544769192
 30
0.0
 40
1.000000000000006
100
AcDbArc
 50
169.999999999999
 51
270.0
  0
ARC
  5
647
330
1F
100
AcDbEntity
  8
0
100
AcDbCircle
 10
-25.38354144764332
 20
-48.69444544769186
 30
0.0
 40
1.000000000000003
100
AcDbArc
 50
270.0
 51
0.0
  0
ARC
  5
648
330
1F
100
AcDbEntity
  8
0
100
AcDbCircle
 10
-48.38354144764332
 20
-48.69444544769186
 30
0.0
 40
1.000000000000003
100
AcDbArc
 50
180.0
 51
270.0
  0
LINE
  5
649
330
1F
100
AcDbEntity
  8
0
100
AcDbLine
 10
-28.88354144764333
 20
-27.4089766275082
 30
0.0
 11
-28.88354144764333
 21
-34.69444544769186
 31
0.0
  0
LINE
  5
64A
330
1F
100
AcDbEntity
  8
0
100
AcDbLine
 10
-28.88354144764333
 20
-34.69444544769186
 30
0.0
 11
-36.88354144764332
 21
-34.69444544769186
 31
0.0
  0
LINE
  5
64B
330
1F
100
AcDbEntity
  8
0
100
AcDbLine
 10
-36.88354144764344
 20
-34.69444544769186
 30
0.0
 11
-36.88354144764344
 21
-27.4089766275082
 31
0.0
  0
LINE
  5
64C
330
1F
100
AcDbEntity
  8
0
100
AcDbLine
 10
-36.88354144764344
 20
-34.69444544769186
 30
0.0
 11
-44.88354144764355
 21
-34.69444544769186
 31
0.0
  0
LINE
  5
64D
330
1F
100
AcDbEntity
  8
0
100
AcDbLine
 10
-44.88354144764343
 20
-34.69444544769186
 30
0.0
 11
-44.88354144764343
 21
-27.4089766275082
 31
0.0
  0
ARC
  5
64E
330
1F
100
AcDbEntity
  8
0
100
AcDbCircle
 10
-32.71049504954556
 20
-39.21659038495887
 30
0.0
 40
12.5233405641552
100
AcDbArc
 50
90.79173314510702
 51
109.4644248553101
  0
ARC
  5
64F
330
1F
100
AcDbEntity
  8
0
100
AcDbCircle
 10
-33.02413878307721
 20
-39.0349380591785
 30
0.0
 40
12.34129351019926
100
AcDbArc
 50
70.39659433774672
 51
89.34724766183801
  0
ARC
  5
650
330
1F
100
AcDbEntity
  8
0
100
AcDbCircle
 10
-40.71049504954555
 20
-39.21659038495898
 30
0.0
 40
12.52334056415537
100
AcDbArc
 50
90.79173314510702
 51
109.4644248553101
  0
ARC
  5
651
330
1F
100
AcDbEntity
  8
0
100
AcDbCircle
 10
-41.02413878307721
 20
-39.03493805917845
 30
0.0
 40
12.34129351019925
100
AcDbArc
 50
70.39659433774672
 51
89.34724766183801
  0
LINE
  5
652
330
1F
100
AcDbEntity
  8
0
100
AcDbLine
 10
-28.88354144764333
 20
-26.69444544769187
 30
0.0
 11
-28.88354144764333
 21
-27.4089766275082
 31
0.0
  0
LINE
  5
653
330
1F
100
AcDbEntity
  8
0
100
AcDbLine
 10
-44.88354144764343
 20
-26.69444544769187
 30
0.0
 11
-44.88354144764343
 21
-27.4089766275082
 31
0.0
  0
LINE
  5
654
330
1F
100
AcDbEntity
  8
0
100
AcDbLine
 10
-230.883541447644
 20
-27.40897662750814
 30
0.0
 11
-230.883541447644
 21
-34.69444544769181
 31
0.0
  0
LINE
  5
655
330
1F
100
AcDbEntity
  8
0
100
AcDbLine
 10
-230.883541447644
 20
-34.69444544769181
 30
0.0
 11
-238.883541447644
 21
-34.69444544769181
 31
0.0
  0
LINE
  5
656
330
1F
100
AcDbEntity
  8
0
100
AcDbLine
 10
-238.883541447644
 20
-34.69444544769181
 30
0.0
 11
-238.883541447644
 21
-27.40897662750814
 31
0.0
  0
LINE
  5
657
330
1F
100
AcDbEntity
  8
0
100
AcDbLine
 10
-238.883541447644
 20
-34.69444544769181
 30
0.0
 11
-246.883541447644
 21
-34.69444544769181
 31
0.0
  0
LINE
  5
658
330
1F
100
AcDbEntity
  8
0
100
AcDbLine
 10
-246.883541447644
 20
-34.69444544769181
 30
0.0
 11
-246.883541447644
 21
-27.40897662750814
 31
0.0
  0
ARC
  5
659
330
1F
100
AcDbEntity
  8
0
100
AcDbCircle
 10
-234.7104950495461
 20
-39.21659038495881
 30
0.0
 40
12.5233405641552
100
AcDbArc
 50
90.79173314510702
 51
109.4644248553082
  0
ARC
  5
65A
330
1F
100
AcDbEntity
  8
0
100
AcDbCircle
 10
-235.0241387830778
 20
-39.03493805917845
 30
0.0
 40
12.34129351019926
100
AcDbArc
 50
70.39659433774672
 51
89.34724766183801
  0
ARC
  5
65B
330
1F
100
AcDbEntity
  8
0
100
AcDbCircle
 10
-242.7104950495461
 20
-39.21659038495892
 30
0.0
 40
12.52334056415537
100
AcDbArc
 50
90.79173314510702
 51
109.4644248553101
  0
ARC
  5
65C
330
1F
100
AcDbEntity
  8
0
100
AcDbCircle
 10
-243.0241387830778
 20
-39.0349380591785
 30
0.0
 40
12.34129351019935
100
AcDbArc
 50
70.39659433774672
 51
89.34724766183801
  0
LINE
  5
65D
330
1F
100
AcDbEntity
  8
0
100
AcDbLine
 10
-230.883541447644
 20
-26.69444544769181
 30
0.0
 11
-230.883541447644
 21
-27.40897662750814
 31
0.0
  0
LINE
  5
65E
330
1F
100
AcDbEntity
  8
0
100
AcDbLine
 10
-246.883541447644
 20
-26.69444544769181
 30
0.0
 11
-246.883541447644
 21
-27.40897662750814
 31
0.0
  0
LINE
  5
65F
330
1F
100
AcDbEntity
  8
0
100
AcDbLine
 10
-65.63354144764343
 20
-30.61227520381368
 30
0.0
 11
-54.13354144764355
 21
-30.61227520381368
 31
0.0
  0
LINE
  5
660
330
1F
100
AcDbEntity
  8
0
100
AcDbLine
 10
-67.38909494710867
 20
-28.11388886409111
 30
0.0
 11
-67.38909494710867
 21
-22.77500203129267
 31
0.0
  0
LINE
  5
661
330
1F
100
AcDbEntity
  8
0
100
AcDbLine
 10
-63.63631819737611
 20
-28.11388886409111
 30
0.0
 11
-63.63631819737611
 21
-22.77500203129267
 31
0.0
  0
LINE
  5
662
330
1F
100
AcDbEntity
  8
0
100
AcDbLine
 10
-56.13076469791088
 20
-28.11388886409111
 30
0.0
 11
-56.13076469791088
 21
-22.77500203129267
 31
0.0
  0
LINE
  5
663
330
1F
100
AcDbEntity
  8
0
100
AcDbLine
 10
-52.37798794817831
 20
-28.11388886409111
 30
0.0
 11
-52.37798794817831
 21
-22.77500203129267
 31
0.0
  0
ARC
  5
664
330
1F
100
AcDbEntity
  8
0
100
AcDbCircle
 10
-65.6192473343001
 20
-25.02753071869421
 30
0.0
 40
3.66846215241749
100
AcDbArc
 50
271.664238094738
 51
302.7200093733037
  0
SPLINE
  5
665
330
1F
100
AcDbEntity
  8
0
100
AcDbSpline
210
0.0
220
0.0
230
1.0
 70
     8
 71
     3
 72
    10
 73
     6
 74
     0
 42
0.0000000001
 43
0.0000000001
 40
0.0
 40
0.0
 40
0.0
 40
0.0
 40
0.5
 40
0.5
 40
1.0
 40
1.0
 40
1.0
 40
1.0
 10
-63.63631819737611
 20
-28.11388886409111
 30
0.0
 10
-63.0258418991093
 20
-28.29011819166021
 30
0.0
 10
-62.40074100625986
 20
-28.43787981279604
 30
0.0
 10
-61.14785741558183
 20
-28.63991867566449
 30
0.0
 10
-60.51781237918544
 20
-28.69444544769186
 30
0.0
 10
-59.88354144764343
 20
-28.69444544769186
 30
0.0
  0
SPLINE
  5
666
330
1F
100
AcDbEntity
  8
0
100
AcDbSpline
210
0.0
220
0.0
230
1.0
 70
     8
 71
     3
 72
    10
 73
     6
 74
     0
 42
0.0000000001
 43
0.0000000001
 40
0.0
 40
0.0
 40
0.0
 40
0.0
 40
0.5
 40
0.5
 40
1.0
 40
1.0
 40
1.0
 40
1.0
 10
-59.88354144764343
 20
-28.69444544769186
 30
0.0
 10
-59.24887877979154
 20
-28.69444544769186
 30
0.0
 10
-58.60564230811963
 20
-28.63840008360154
 30
0.0
 10
-57.35233072366202
 20
-28.43493360683004
 30
0.0
 10
-56.73759136466151
 20
-28.28906463379104
 30
0.0
 10
-56.13076469791088
 20
-28.11388886409111
 30
0.0
  0
ARC
  5
667
330
1F
100
AcDbEntity
  8
0
100
AcDbCircle
 10
-54.12324653253325
 20
-24.9480577294234
 30
0.0
 40
3.748681896020588
100
AcDbArc
 50
237.6203815795829
 51
267.9953709523734
  0
ARC
  5
668
330
1F
100
AcDbEntity
  8
0
100
AcDbCircle
 10
-54.3609170851023
 20
-25.02753071869421
 30
0.0
 40
3.668462152417477
100
AcDbArc
 50
271.664238094738
 51
302.7200093733053
  0
ARC
  5
669
330
1F
100
AcDbEntity
  8
0
100
AcDbCircle
 10
-65.38157678173104
 20
-24.94805772942334
 30
0.0
 40
3.748681896020625
100
AcDbArc
 50
237.6203815795856
 51
267.9953709523734
  0
LINE
  5
66A
330
1F
100
AcDbEntity
  8
0
100
AcDbLine
 10
-65.51270657224233
 20
-28.69444544769186
 30
0.0
 11
-66.38354144764355
 21
-28.69444544769186
 31
0.0
  0
LINE
  5
66B
330
1F
100
AcDbEntity
  8
0
100
AcDbLine
 10
-65.51270657224233
 20
-28.69444544769186
 30
0.0
 11
-59.88354144764343
 21
-28.69444544769186
 31
0.0
  0
LINE
  5
66C
330
1F
100
AcDbEntity
  8
0
100
AcDbLine
 10
-59.88354144764343
 20
-28.69444544769186
 30
0.0
 11
-54.25437632304454
 21
-28.69444544769186
 31
0.0
  0
LINE
  5
66D
330
1F
100
AcDbEntity
  8
0
100
AcDbLine
 10
-54.25437632304454
 20
-28.69444544769186
 30
0.0
 11
-53.38354144764344
 21
-28.69444544769186
 31
0.0
  0
LINE
  5
66E
330
1F
100
AcDbEntity
  8
0
100
AcDbLine
 10
-54.25437632304454
 20
-22.19444544769186
 30
0.0
 11
-53.38354144764344
 21
-22.19444544769186
 31
0.0
  0
ARC
  5
66F
330
1F
100
AcDbEntity
  8
0
100
AcDbCircle
 10
-54.38550611355594
 20
-25.94083316596039
 30
0.0
 40
3.748681896020654
100
AcDbArc
 50
57.62038157958346
 51
87.99537095237141
  0
LINE
  5
670
330
1F
100
AcDbEntity
  8
0
100
AcDbLine
 10
-59.88354144764343
 20
-22.19444544769186
 30
0.0
 11
-54.25437632304454
 21
-22.19444544769186
 31
0.0
  0
ARC
  5
671
330
1F
100
AcDbEntity
  8
0
100
AcDbCircle
 10
-54.14783556098689
 20
-25.86136017668946
 30
0.0
 40
3.668462152417476
100
AcDbArc
 50
91.66423809473611
 51
122.7200093733053
  0
SPLINE
  5
672
330
1F
100
AcDbEntity
  8
0
100
AcDbSpline
210
0.0
220
0.0
230
1.0
 70
     8
 71
     3
 72
    10
 73
     6
 74
     0
 42
0.0000000001
 43
0.0000000001
 40
0.0
 40
0.0
 40
0.0
 40
0.0
 40
0.5
 40
0.5
 40
1.0
 40
1.0
 40
1.0
 40
1.0
 10
-56.13076469791088
 20
-22.77500203129262
 30
0.0
 10
-56.73759136466151
 20
-22.59982626159268
 30
0.0
 10
-57.35233072366202
 20
-22.45395728855368
 30
0.0
 10
-58.60564230811963
 20
-22.25049081178219
 30
0.0
 10
-59.24887877979154
 20
-22.19444544769186
 30
0.0
 10
-59.88354144764343
 20
-22.19444544769186
 30
0.0
  0
LINE
  5
673
330
1F
100
AcDbEntity
  8
0
100
AcDbLine
 10
-65.51270657224233
 20
-22.19444544769186
 30
0.0
 11
-59.88354144764343
 21
-22.19444544769186
 31
0.0
  0
SPLINE
  5
674
330
1F
100
AcDbEntity
  8
0
100
AcDbSpline
210
0.0
220
0.0
230
1.0
 70
     8
 71
     3
 72
    10
 73
     6
 74
     0
 42
0.0000000001
 43
0.0000000001
 40
0.0
 40
0.0
 40
0.0
 40
0.0
 40
0.5
 40
0.5
 40
1.0
 40
1.0
 40
1.0
 40
1.0
 10
-59.88354144764343
 20
-22.19444544769186
 30
0.0
 10
-60.51781237918544
 20
-22.19444544769186
 30
0.0
 10
-61.14785741558183
 20
-22.24897221971923
 30
0.0
 10
-62.40074100625986
 20
-22.45101108258769
 30
0.0
 10
-63.0258418991093
 20
-22.59877270372346
 30
0.0
 10
-63.63631819737611
 20
-22.77500203129262
 30
0.0
  0
ARC
  5
675
330
1F
100
AcDbEntity
  8
0
100
AcDbCircle
 10
-65.64383636275363
 20
-25.94083316596027
 30
0.0
 40
3.748681896020565
100
AcDbArc
 50
57.6203815795851
 51
87.99537095237338
  0
LINE
  5
676
330
1F
100
AcDbEntity
  8
0
100
AcDbLine
 10
-65.51270657224233
 20
-22.19444544769186
 30
0.0
 11
-66.38354144764355
 21
-22.19444544769186
 31
0.0
  0
ARC
  5
677
330
1F
100
AcDbEntity
  8
0
100
AcDbCircle
 10
-65.40616581018468
 20
-25.8613601766894
 30
0.0
 40
3.66846215241743
100
AcDbArc
 50
91.66423809473611
 51
122.7200093733031
  0
LINE
  5
678
330
1F
100
AcDbEntity
  8
0
100
AcDbLine
 10
-65.63354144764343
 20
-28.69444544769186
 30
0.0
 11
-65.63354144764343
 21
-30.61227520381368
 31
0.0
  0
LINE
  5
679
330
1F
100
AcDbEntity
  8
0
100
AcDbLine
 10
-54.13354144764344
 20
-30.61227520381368
 30
0.0
 11
-54.13354144764344
 21
-28.69444544769186
 31
0.0
  0
ARC
  5
67A
330
1F
100
AcDbEntity
  8
0
100
AcDbCircle
 10
-60.16964299815845
 20
-28.20074496932108
 30
0.0
 40
6.500000000000016
100
AcDbArc
 50
272.5227244643246
 51
338.222409915069
  0
ARC
  5
67B
330
1F
100
AcDbEntity
  8
0
100
AcDbCircle
 10
-59.59743989712854
 20
-28.20074496932108
 30
0.0
 40
6.500000000000027
100
AcDbArc
 50
201.777590084931
 51
267.4772755356774
  0
LINE
  5
67C
330
1F
100
AcDbEntity
  8
0
100
AcDbLine
 10
-53.38354144764344
 20
-28.69444544769186
 30
0.0
 11
-52.37798794817843
 21
-28.11388886409111
 31
0.0
  0
LINE
  5
67D
330
1F
100
AcDbEntity
  8
0
100
AcDbLine
 10
-67.38909494710867
 20
-28.11388886409111
 30
0.0
 11
-66.38354144764344
 21
-28.69444544769186
 31
0.0
  0
LINE
  5
67E
330
1F
100
AcDbEntity
  8
0
100
AcDbLine
 10
-52.37798794817831
 20
-22.77500203129262
 30
0.0
 11
-53.38354144764344
 21
-22.19444544769186
 31
0.0
  0
LINE
  5
67F
330
1F
100
AcDbEntity
  8
0
100
AcDbLine
 10
-66.38354144764355
 20
-22.19444544769186
 30
0.0
 11
-67.38909494710867
 21
-22.77500203129262
 31
0.0
  0
LINE
  5
680
330
1F
100
AcDbEntity
  8
0
100
AcDbLine
 10
-260.3255795633933
 20
-40.69444544769186
 30
0.0
 11
-217.4415033318947
 21
-40.69444544769186
 31
0.0
  0
LINE
  5
681
330
1F
100
AcDbEntity
  8
0
100
AcDbLine
 10
-253.3835414476441
 20
-37.69444544769186
 30
0.0
 11
-224.383541447644
 21
-37.69444544769186
 31
0.0
  0
LINE
  5
682
330
1F
100
AcDbEntity
  8
0
100
AcDbLine
 10
-260.1917878550498
 20
-46.69444544769191
 30
0.0
 11
-217.5752950402382
 21
-46.69444544769191
 31
0.0
  0
LINE
  5
683
330
1F
100
AcDbEntity
  8
0
100
AcDbLine
 10
-216.5904872872259
 20
-45.52079727002495
 30
0.0
 11
-261.1765956080621
 21
-45.52079727002495
 31
0.0
  0
LINE
  5
684
330
1F
100
AcDbEntity
  8
0
100
AcDbLine
 10
-250.3834849147857
 20
-49.69444544769186
 30
0.0
 11
-227.3835414476439
 21
-49.69444544769186
 31
0.0
  0
LINE
  5
685
330
1F
100
AcDbEntity
  8
0
100
AcDbLine
 10
-226.3835414476439
 20
-48.69444544769186
 30
0.0
 11
-251.383541447644
 21
-48.69444544769186
 31
0.0
  0
LINE
  5
686
330
1F
100
AcDbEntity
  8
0
100
AcDbLine
 10
-216.5904872872259
 20
-45.52079727002495
 30
0.0
 11
-217.4415033318947
 21
-40.69444544769186
 31
0.0
  0
LINE
  5
687
330
1F
100
AcDbEntity
  8
0
100
AcDbLine
 10
-260.3255795633933
 20
-40.69444544769186
 30
0.0
 11
-261.1765956080621
 21
-45.52079727002495
 31
0.0
  0
LINE
  5
688
330
1F
100
AcDbEntity
  8
0
100
AcDbLine
 10
-229.3835414476439
 20
-37.69444544769186
 30
0.0
 11
-231.3835414476439
 21
-34.69444544769181
 31
0.0
  0
LINE
  5
689
330
1F
100
AcDbEntity
  8
0
100
AcDbLine
 10
-246.383541447644
 20
-34.69444544769181
 30
0.0
 11
-248.383541447644
 21
-37.69444544769186
 31
0.0
  0
LINE
  5
68A
330
1F
100
AcDbEntity
  8
0
100
AcDbLine
 10
-217.4415033318947
 20
-40.69444544769186
 30
0.0
 11
-224.3835414476439
 21
-37.69444544769186
 31
0.0
  0
LINE
  5
68B
330
1F
100
AcDbEntity
  8
0
100
AcDbLine
 10
-253.3835414476441
 20
-37.69444544769186
 30
0.0
 11
-260.3255795633933
 21
-40.69444544769186
 31
0.0
  0
LINE
  5
68C
330
1F
100
AcDbEntity
  8
0
100
AcDbLine
 10
-251.383541447644
 20
-46.69444544769191
 30
0.0
 11
-251.383541447644
 21
-48.69444544769186
 31
0.0
  0
LINE
  5
68D
330
1F
100
AcDbEntity
  8
0
100
AcDbLine
 10
-226.3835414476439
 20
-48.69444544769186
 30
0.0
 11
-226.3835414476439
 21
-46.69444544769191
 31
0.0
  0
ARC
  5
68E
330
1F
100
AcDbEntity
  8
0
100
AcDbCircle
 10
-217.5752950402382
 20
-45.69444544769192
 30
0.0
 40
1.000000000000003
100
AcDbArc
 50
270.0
 51
10.00000000000096
  0
ARC
  5
68F
330
1F
100
AcDbEntity
  8
0
100
AcDbCircle
 10
-260.1917878550498
 20
-45.69444544769186
 30
0.0
 40
1.000000000000007
100
AcDbArc
 50
170.0000000000013
 51
270.0
  0
ARC
  5
690
330
1F
100
AcDbEntity
  8
0
100
AcDbCircle
 10
-227.383541447644
 20
-48.69444544769186
 30
0.0
 40
1.000000000000003
100
AcDbArc
 50
270.0
 51
0.0
  0
ARC
  5
691
330
1F
100
AcDbEntity
  8
0
100
AcDbCircle
 10
-250.383541447644
 20
-48.69444544769186
 30
0.0
 40
1.000000000000003
100
AcDbArc
 50
180.0
 51
270.0
  0
LINE
  5
692
330
1F
100
AcDbEntity
  8
0
100
AcDbLine
 10
-52.37798794817831
 20
-22.19444544769186
 30
0.0
 11
-52.37798794817831
 21
-18.59444544769178
 31
0.0
  0
LINE
  5
693
330
1F
100
AcDbEntity
  8
0
100
AcDbLine
 10
-52.37798794817831
 20
-22.19444544769186
 30
0.0
 11
-56.13076469791088
 21
-22.19444544769186
 31
0.0
  0
LINE
  5
694
330
1F
100
AcDbEntity
  8
0
100
AcDbLine
 10
-56.13076469791088
 20
-22.19444544769186
 30
0.0
 11
-56.13076469791088
 21
-18.59444544769178
 31
0.0
  0
LINE
  5
695
330
1F
100
AcDbEntity
  8
0
100
AcDbLine
 10
-56.13076469791088
 20
-22.19444544769186
 30
0.0
 11
-63.63631819737611
 21
-22.19444544769186
 31
0.0
  0
LINE
  5
696
330
1F
100
AcDbEntity
  8
0
100
AcDbLine
 10
-63.63631819737611
 20
-22.19444544769186
 30
0.0
 11
-63.63631819737611
 21
-18.59444544769178
 31
0.0
  0
LINE
  5
697
330
1F
100
AcDbEntity
  8
0
100
AcDbLine
 10
-67.38909494710867
 20
-22.19444544769186
 30
0.0
 11
-63.63631819737611
 21
-22.19444544769186
 31
0.0
  0
LINE
  5
698
330
1F
100
AcDbEntity
  8
0
100
AcDbLine
 10
-67.38909494710867
 20
-18.59444544769178
 30
0.0
 11
-67.38909494710867
 21
-22.19444544769186
 31
0.0
  0
LINE
  5
699
330
1F
100
AcDbEntity
  8
0
100
AcDbLine
 10
-281.8835414476441
 20
-20.1944454476918
 30
0.0
 11
-264.883541447644
 21
-20.1944454476918
 31
0.0
  0
LINE
  5
69A
330
1F
100
AcDbEntity
  8
0
100
AcDbLine
 10
-265.3835414476439
 20
-19.6944454476918
 30
0.0
 11
-281.3835414476441
 21
-19.6944454476918
 31
0.0
  0
LINE
  5
69B
330
1F
100
AcDbEntity
  8
0
100
AcDbLine
 10
-264.883541447644
 20
-20.69444544769181
 30
0.0
 11
-264.883541447644
 21
-20.19444544769175
 31
0.0
  0
LINE
  5
69C
330
1F
100
AcDbEntity
  8
0
100
AcDbLine
 10
-281.8835414476441
 20
-20.1944454476918
 30
0.0
 11
-281.8835414476441
 21
-20.69444544769181
 31
0.0
  0
LINE
  5
69D
330
1F
100
AcDbEntity
  8
0
100
AcDbLine
 10
-264.883541447644
 20
-20.1944454476918
 30
0.0
 11
-265.383541447644
 21
-19.6944454476918
 31
0.0
  0
LINE
  5
69E
330
1F
100
AcDbEntity
  8
0
100
AcDbLine
 10
-281.3835414476441
 20
-19.6944454476918
 30
0.0
 11
-281.8835414476441
 21
-20.19444544769175
 31
0.0
  0
LINE
  5
69F
330
1F
100
AcDbEntity
  8
0
100
AcDbLine
 10
-31.88354144764367
 20
4.50555455230824
 30
0.0
 11
-36.88354144764367
 21
4.50555455230824
 31
0.0
  0
LINE
  5
6A0
330
1F
100
AcDbEntity
  8
0
100
AcDbLine
 10
-36.88354144764367
 20
4.50555455230824
 30
0.0
 11
-41.88354144764367
 21
4.50555455230824
 31
0.0
  0
LINE
  5
6A1
330
1F
100
AcDbEntity
  8
0
100
AcDbLine
 10
-36.88354144764367
 20
4.50555455230824
 30
0.0
 11
-36.88354144764367
 21
0.9521365396789178
 31
0.0
  0
LINE
  5
6A2
330
1F
100
AcDbEntity
  8
0
100
AcDbLine
 10
-31.88354144764367
 20
4.50555455230824
 30
0.0
 11
-31.88354144764367
 21
0.9521365396919918
 31
0.0
  0
LINE
  5
6A3
330
1F
100
AcDbEntity
  8
0
100
AcDbLine
 10
-41.88354144764367
 20
4.50555455230824
 30
0.0
 11
-41.88354144764367
 21
0.9521365396919918
 31
0.0
  0
LINE
  5
6A4
330
1F
100
AcDbEntity
  8
0
100
AcDbLine
 10
-34.38354144765663
 20
0.5055545523082401
 30
0.0
 11
-39.38354144763048
 21
0.5055545523082401
 31
0.0
  0
LINE
  5
6A5
330
1F
100
AcDbEntity
  8
0
100
AcDbLine
 10
-31.88354144764367
 20
0.5055545523082401
 30
0.0
 11
-34.38354144765674
 21
0.5055545523082401
 31
0.0
  0
LINE
  5
6A6
330
1F
100
AcDbEntity
  8
0
100
AcDbLine
 10
-39.38354144763059
 20
0.5055545523082401
 30
0.0
 11
-41.88354144764367
 21
0.5055545523082401
 31
0.0
  0
LINE
  5
6A7
330
1F
100
AcDbEntity
  8
0
100
AcDbLine
 10
-41.88354144764367
 20
0.5055545523082401
 30
0.0
 11
-41.88354144764367
 21
0.9521365396919918
 31
0.0
  0
ARC
  5
6A8
330
1F
100
AcDbEntity
  8
0
100
AcDbCircle
 10
-39.26752991404078
 20
8.375882216725017
 30
0.0
 40
7.871182644381291
100
AcDbArc
 50
250.5883417691506
 51
269.1555002306011
  0
ARC
  5
6A9
330
1F
100
AcDbEntity
  8
0
100
AcDbCircle
 10
-39.47141479481241
 20
8.218362504823573
 30
0.0
 40
7.713308514348962
100
AcDbArc
 50
270.652752425322
 51
289.603405574553
  0
ARC
  5
6AA
330
1F
100
AcDbEntity
  8
0
100
AcDbCircle
 10
-34.47141479485754
 20
8.218362504869048
 30
0.0
 40
7.713308514394672
100
AcDbArc
 50
270.6527524254588
 51
289.6034055747876
  0
LINE
  5
6AB
330
1F
100
AcDbEntity
  8
0
100
AcDbLine
 10
-31.88354144764367
 20
0.9521365396919918
 30
0.0
 11
-31.88354144764367
 21
0.5055545523082401
 31
0.0
  0
ARC
  5
6AC
330
1F
100
AcDbEntity
  8
0
100
AcDbCircle
 10
-34.26752991408193
 20
8.375882216704326
 30
0.0
 40
7.871182644360398
100
AcDbArc
 50
250.5883417694157
 51
269.1555002307087
  0
LINE
  5
6AD
330
1F
100
AcDbEntity
  8
0
100
AcDbLine
 10
-34.63354144764366
 20
4.50555455230824
 30
0.0
 11
-34.63354144764366
 21
8.305554552308251
 31
0.0
  0
LINE
  5
6AE
330
1F
100
AcDbEntity
  8
0
100
AcDbLine
 10
-39.13354144764355
 20
8.305554552308308
 30
0.0
 11
-39.13354144764355
 21
4.50555455230824
 31
0.0
  0
LINE
  5
6AF
330
1F
100
AcDbEntity
  8
0
100
AcDbLine
 10
-233.8835414476439
 20
5.005554552308296
 30
0.0
 11
-238.883541447644
 21
5.005554552308296
 31
0.0
  0
LINE
  5
6B0
330
1F
100
AcDbEntity
  8
0
100
AcDbLine
 10
-238.883541447644
 20
5.005554552308296
 30
0.0
 11
-243.8835414476439
 21
5.005554552308296
 31
0.0
  0
LINE
  5
6B1
330
1F
100
AcDbEntity
  8
0
100
AcDbLine
 10
-243.883541447644
 20
5.005554552308296
 30
0.0
 11
-243.883541447644
 21
1.452136539691991
 31
0.0
  0
LINE
  5
6B2
330
1F
100
AcDbEntity
  8
0
100
AcDbLine
 10
-238.883541447644
 20
5.005554552308296
 30
0.0
 11
-238.883541447644
 21
1.452136539678917
 31
0.0
  0
LINE
  5
6B3
330
1F
100
AcDbEntity
  8
0
100
AcDbLine
 10
-233.8835414476439
 20
5.005554552308296
 30
0.0
 11
-233.8835414476439
 21
1.452136539691991
 31
0.0
  0
LINE
  5
6B4
330
1F
100
AcDbEntity
  8
0
100
AcDbLine
 10
-241.3835414476309
 20
1.00555455230824
 30
0.0
 11
-243.883541447644
 21
1.00555455230824
 31
0.0
  0
LINE
  5
6B5
330
1F
100
AcDbEntity
  8
0
100
AcDbLine
 10
-236.383541447657
 20
1.00555455230824
 30
0.0
 11
-241.3835414476309
 21
1.00555455230824
 31
0.0
  0
LINE
  5
6B6
330
1F
100
AcDbEntity
  8
0
100
AcDbLine
 10
-233.8835414476439
 20
1.00555455230824
 30
0.0
 11
-236.383541447657
 21
1.00555455230824
 31
0.0
  0
ARC
  5
6B7
330
1F
100
AcDbEntity
  8
0
100
AcDbCircle
 10
-241.4714147948128
 20
8.718362504823858
 30
0.0
 40
7.713308514349215
100
AcDbArc
 50
270.652752425322
 51
289.6034055745534
  0
ARC
  5
6B8
330
1F
100
AcDbEntity
  8
0
100
AcDbCircle
 10
-236.2675299140823
 20
8.875882216704326
 30
0.0
 40
7.871182644360412
100
AcDbArc
 50
250.5883417694157
 51
269.1555002307087
  0
ARC
  5
6B9
330
1F
100
AcDbEntity
  8
0
100
AcDbCircle
 10
-236.4714147948579
 20
8.718362504869332
 30
0.0
 40
7.713308514394907
100
AcDbArc
 50
270.6527524254607
 51
289.6034055747895
  0
LINE
  5
6BA
330
1F
100
AcDbEntity
  8
0
100
AcDbLine
 10
-233.8835414476439
 20
1.452136539692048
 30
0.0
 11
-233.8835414476439
 21
1.005554552308296
 31
0.0
  0
LINE
  5
6BB
330
1F
100
AcDbEntity
  8
0
100
AcDbLine
 10
-243.883541447644
 20
1.00555455230824
 30
0.0
 11
-243.883541447644
 21
1.452136539691991
 31
0.0
  0
ARC
  5
6BC
330
1F
100
AcDbEntity
  8
0
100
AcDbCircle
 10
-241.2675299140411
 20
8.875882216725131
 30
0.0
 40
7.871182644381446
100
AcDbArc
 50
250.5883417691506
 51
269.1555002306011
  0
LINE
  5
6BD
330
1F
100
AcDbEntity
  8
0
100
AcDbLine
 10
-236.633541447644
 20
5.005554552308296
 30
0.0
 11
-236.633541447644
 21
8.305554552308308
 31
0.0
  0
LINE
  5
6BE
330
1F
100
AcDbEntity
  8
0
100
AcDbLine
 10
-241.133541447644
 20
8.305554552308251
 30
0.0
 11
-241.133541447644
 21
5.00555455230824
 31
0.0
  0
LINE
  5
6BF
330
1F
100
AcDbEntity
  8
0
100
AcDbLine
 10
-262.883541447644
 20
8.305554552308251
 30
0.0
 11
-257.9930371058337
 21
47.42958928691303
 31
0.0
  0
LINE
  5
6C0
330
1F
100
AcDbEntity
  8
0
100
AcDbLine
 10
-261.891263570935
 20
8.305554552308251
 30
0.0
 11
-13.87581932435239
 21
8.305554552308251
 31
0.0
  0
LINE
  5
6C1
330
1F
100
AcDbEntity
  8
0
100
AcDbLine
 10
-12.88354144764344
 20
8.305554552308251
 30
0.0
 11
-13.8758193243525
 21
8.305554552308251
 31
0.0
  0
LINE
  5
6C2
330
1F
100
AcDbEntity
  8
0
100
AcDbLine
 10
-261.891263570935
 20
8.305554552308251
 30
0.0
 11
-262.883541447644
 21
8.305554552308251
 31
0.0
  0
LINE
  5
6C3
330
1F
100
AcDbEntity
  8
0
100
AcDbLine
 10
-18.76632366616559
 20
47.42958928691303
 30
0.0
 11
-257.0007592291219
 21
47.42958928691303
 31
0.0
  0
LINE
  5
6C4
330
1F
100
AcDbEntity
  8
0
100
AcDbLine
 10
-13.87581932435239
 20
8.305554552308251
 30
0.0
 11
-18.76632366616559
 21
47.42958928691303
 31
0.0
  0
LINE
  5
6C5
330
1F
100
AcDbEntity
  8
0
100
AcDbLine
 10
-257.0007592291219
 20
47.42958928691308
 30
0.0
 11
-261.891263570935
 21
8.305554552308308
 31
0.0
  0
LINE
  5
6C6
330
1F
100
AcDbEntity
  8
0
100
AcDbLine
 10
-257.0007592291219
 20
48.30555455230842
 30
0.0
 11
-18.76632366616536
 21
48.30555455230842
 31
0.0
  0
LINE
  5
6C7
330
1F
100
AcDbEntity
  8
0
100
AcDbLine
 10
-17.77404578945368
 20
47.42958928691308
 30
0.0
 11
-12.88354144764332
 21
8.305554552308308
 31
0.0
  0
ELLIPSE
  5
6C8
330
1F
100
AcDbEntity
  8
0
100
AcDbEllipse
 10
-18.76632366616559
 20
47.3055545523083
 30
0.0
 11
-0.9922778767117195
 21
-0.1240347346047266
 31
0.0
210
0.0
220
0.0
230
1.0
 40
0.1230914909944435
 41
3.141592653589988
 42
4.697003758043397
  0
ARC
  5
6C9
330
1F
100
AcDbEntity
  8
0
100
AcDbCircle
 10
-18.76632366616547
 20
47.30555455230836
 30
0.0
 40
1.000000000000003
100
AcDbArc
 50
7.125016349796423
 51
90.0
  0
LINE
  5
6CA
330
1F
100
AcDbEntity
  8
0
100
AcDbLine
 10
-18.76632366616559
 20
47.42958928691303
 30
0.0
 11
-18.76632366616547
 21
48.30555455230836
 31
0.0
  0
LINE
  5
6CB
330
1F
100
AcDbEntity
  8
0
100
AcDbLine
 10
-257.0007592291219
 20
47.42958928691308
 30
0.0
 11
-257.0007592291219
 21
48.30555455230842
 31
0.0
  0
ELLIPSE
  5
6CC
330
1F
100
AcDbEntity
  8
0
100
AcDbEllipse
 10
-257.0007592291219
 20
47.30555455230842
 30
0.0
 11
-0.9922778767117197
 21
0.1240347346046364
 31
0.0
210
0.0
220
0.0
230
1.0
 40
0.1230914909944379
 41
4.727774202725924
 42
6.283185307179586
  0
ARC
  5
6CD
330
1F
100
AcDbEntity
  8
0
100
AcDbCircle
 10
-257.0007592291219
 20
47.30555455230836
 30
0.0
 40
0.9999999999999838
100
AcDbArc
 50
90.0
 51
172.8749836502025
  0
LINE
  5
6CE
330
1F
100
AcDbEntity
  8
0
100
AcDbLine
 10
-216.8835414476439
 20
-25.69444544769181
 30
0.0
 11
-223.8835414476439
 21
-25.69444544769181
 31
0.0
  0
LINE
  5
6CF
330
1F
100
AcDbEntity
  8
0
100
AcDbLine
 10
-216.8835414476439
 20
-26.69444544769187
 30
0.0
 11
-224.3835414476439
 21
-26.69444544769187
 31
0.0
  0
LINE
  5
6D0
330
1F
100
AcDbEntity
  8
0
100
AcDbLine
 10
-215.8006376789896
 20
-25.06112980452133
 30
0.0
 11
-215.8006376789892
 21
-18.59444544769184
 31
0.0
  0
LINE
  5
6D1
330
1F
100
AcDbEntity
  8
0
100
AcDbLine
 10
-220.708114967101
 20
-25.06112980452065
 30
0.0
 11
-220.708114967101
 21
-18.59444544769178
 31
0.0
  0
LINE
  5
6D2
330
1F
100
AcDbEntity
  8
0
100
AcDbLine
 10
-218.9760641595304
 20
-18.59444544769184
 30
0.0
 11
-218.9760641595227
 21
-25.06112980453242
 31
0.0
  0
SPLINE
  5
6D3
330
1F
100
AcDbEntity
  8
0
100
AcDbSpline
210
0.0
220
0.0
230
1.0
 70
     8
 71
     3
 72
    14
 73
    10
 74
     0
 42
0.0000000001
 43
0.0000000001
 40
0.0
 40
0.0
 40
0.0
 40
0.0
 40
0.2500000000000001
 40
0.2500000000000001
 40
0.5000000000000002
 40
0.5000000000000002
 40
0.7500000000000001
 40
0.7500000000000001
 40
1.0
 40
1.0
 40
1.0
 40
1.0
 10
-215.8006376789896
 20
-25.06112980452133
 30
0.0
 10
-216.0352484239346
 20
-25.35293693790328
 30
0.0
 10
-216.3109038232608
 20
-25.4501352244568
 30
0.0
 10
-216.8479061740122
 20
-25.58014139886075
 30
0.0
 10
-217.1181209301882
 20
-25.59854243120617
 30
0.0
 10
-217.6599064786049
 20
-25.59846612571301
 30
0.0
 10
-217.9318584699601
 20
-25.57983737766074
 30
0.0
 10
-218.4694316963826
 20
-25.44881257369786
 30
0.0
 10
-218.7423522629774
 20
-25.35181895682314
 30
0.0
 10
-218.9760641595226
 20
-25.06112980453236
 30
0.0
  0
SPLINE
  5
6D4
330
1F
100
AcDbEntity
  8
0
100
AcDbSpline
210
0.0
220
0.0
230
1.0
 70
     8
 71
     3
 72
    10
 73
     6
 74
     0
 42
0.0000000001
 43
0.0000000001
 40
0.0
 40
0.0
 40
0.0
 40
0.0
 40
0.25
 40
0.25
 40
0.4935977490488466
 40
0.4935977490488466
 40
0.4935977490488466
 40
0.4935977490488466
 10
-220.708114967101
 20
-25.06112980452065
 30
0.0
 10
-221.1764013254144
 20
-25.35235538298611
 30
0.0
 10
-221.7338248526843
 20
-25.45170943859142
 30
0.0
 10
-222.8124785365446
 20
-25.58038247045505
 30
0.0
 10
-223.3601682163903
 20
-25.59870092766937
 30
0.0
 10
-223.8835414504024
 20
-25.59851196556758
 30
0.0
  0
ARC
  5
6D5
330
1F
100
AcDbEntity
  8
0
100
AcDbCircle
 10
-216.6672134173801
 20
-24.32872670530367
 30
0.0
 40
1.134622320470777
100
AcDbArc
 50
319.7965355468427
 51
359.2492912549166
  0
ARC
  5
6D6
330
1F
100
AcDbEntity
  8
0
100
AcDbCircle
 10
-225.6009873211083
 20
-17.18655364766221
 30
0.0
 40
9.270876416109354
100
AcDbArc
 50
301.8547745300444
 51
309.4669276249099
  0
ARC
  5
6D7
330
1F
100
AcDbEntity
  8
0
100
AcDbCircle
 10
-223.0972374416869
 20
-28.53346367955925
 30
0.0
 40
5.388986153376466
100
AcDbArc
 50
40.11613300598585
 51
51.03113621344824
  0
LINE
  5
6D8
330
1F
100
AcDbEntity
  8
0
100
AcDbLine
 10
-219.883541447644
 20
-29.69444544769186
 30
0.0
 11
-228.0188218918072
 21
-29.69139376246592
 31
0.0
  0
ARC
  5
6D9
330
1F
100
AcDbEntity
  8
0
100
AcDbCircle
 10
-227.8835414476439
 20
-26.69444544769187
 30
0.0
 40
3.00000000000001
100
AcDbArc
 50
180.0
 51
267.4154574167728
  0
ARC
  5
6DA
330
1F
100
AcDbEntity
  8
0
100
AcDbCircle
 10
-219.8835414476439
 20
-26.69444544769187
 30
0.0
 40
3.000000000000003
100
AcDbArc
 50
270.0
 51
0.0
  0
LINE
  5
6DB
330
1F
100
AcDbEntity
  8
0
100
AcDbLine
 10
-216.8835414476439
 20
-26.69444544769187
 30
0.0
 11
-216.8835414476439
 21
-25.69444544769186
 31
0.0
  0
LINE
  5
6DC
330
1F
100
AcDbEntity
  8
0
100
AcDbLine
 10
-215.5326884865579
 20
-24.34359248660593
 30
0.0
 11
-215.5326884865579
 21
-18.59444544769184
 31
0.0
  0
ARC
  5
6DD
330
1F
100
AcDbEntity
  8
0
100
AcDbCircle
 10
-216.8835414476439
 20
-24.34359248660593
 30
0.0
 40
1.350852961085894
100
AcDbArc
 50
270.0
 51
0.0298529935928308
  0
LINE
  5
6DE
330
1F
100
AcDbEntity
  8
0
100
AcDbLine
 10
-215.3835414476439
 20
-2.794445447691771
 30
0.0
 11
-215.3835414476439
 21
-0.1944454476917485
 31
0.0
  0
LINE
  5
6DF
330
1F
100
AcDbEntity
  8
0
100
AcDbLine
 10
-216.4737352827027
 20
-0.1944454476918054
 30
0.0
 11
-216.4737352827027
 21
-2.794445447691828
 31
0.0
  0
LINE
  5
6E0
330
1F
100
AcDbEntity
  8
0
100
AcDbLine
 10
-232.383541447644
 20
-0.1944454476918054
 30
0.0
 11
-232.383541447644
 21
-0.6944454476917486
 31
0.0
  0
LINE
  5
6E1
330
1F
100
AcDbEntity
  8
0
100
AcDbLine
 10
-232.383541447644
 20
-0.1944454476918054
 30
0.0
 11
-231.3835414476439
 21
-0.1944454476918054
 31
0.0
  0
LINE
  5
6E2
330
1F
100
AcDbEntity
  8
0
100
AcDbLine
 10
-216.4737352827027
 20
-0.1944454476918054
 30
0.0
 11
-215.3835414476438
 21
-0.1944454476918054
 31
0.0
  0
LINE
  5
6E3
330
1F
100
AcDbEntity
  8
0
100
AcDbLine
 10
-232.383541447644
 20
0.3055545523082515
 30
0.0
 11
-231.3835414476439
 21
0.3055545523082515
 31
0.0
  0
LINE
  5
6E4
330
1F
100
AcDbEntity
  8
0
100
AcDbLine
 10
-221.3835414476439
 20
0.3055545523082515
 30
0.0
 11
-219.6335414476438
 21
0.3055545523082515
 31
0.0
  0
LINE
  5
6E5
330
1F
100
AcDbEntity
  8
0
100
AcDbLine
 10
-219.6335414476438
 20
0.3055545523082515
 30
0.0
 11
-215.3835414476438
 21
0.3055545523082515
 31
0.0
  0
ARC
  5
6E6
330
1F
100
AcDbEntity
  8
0
100
AcDbCircle
 10
-219.5372013607347
 20
-10.53765244878525
 30
0.0
 40
10.84363497545492
100
AcDbArc
 50
90.50905005661169
 51
99.81018301069441
  0
ARC
  5
6E7
330
1F
100
AcDbEntity
  8
0
100
AcDbCircle
 10
-219.7030731493641
 20
-10.36823384720014
 30
0.0
 40
10.67401487047043
100
AcDbArc
 50
72.38965397269662
 51
89.62676637845763
  0
LINE
  5
6E8
330
1F
100
AcDbEntity
  8
0
100
AcDbLine
 10
-215.3835414476439
 20
-0.1944454476918054
 30
0.0
 11
-215.3835414476439
 21
0.3055545523081946
 31
0.0
  0
LINE
  5
6E9
330
1F
100
AcDbEntity
  8
0
100
AcDbLine
 10
-232.383541447644
 20
0.3055545523082515
 30
0.0
 11
-232.383541447644
 21
-0.1944454476917485
 31
0.0
  0
LINE
  5
6EA
330
1F
100
AcDbEntity
  8
0
100
AcDbLine
 10
-222.133541447644
 20
1.555554552308251
 30
0.0
 11
-230.633541447644
 21
1.555554552308251
 31
0.0
  0
LINE
  5
6EB
330
1F
100
AcDbEntity
  8
0
100
AcDbLine
 10
-221.3835414476439
 20
0.8589725649235901
 30
0.0
 11
-221.3835414476439
 21
-2.794445447691771
 31
0.0
  0
LINE
  5
6EC
330
1F
100
AcDbEntity
  8
0
100
AcDbLine
 10
-221.3835414476439
 20
1.305554552308251
 30
0.0
 11
-221.3835414476439
 21
0.8589725649235901
 31
0.0
  0
LINE
  5
6ED
330
1F
100
AcDbEntity
  8
0
100
AcDbLine
 10
-226.3835414476439
 20
0.8589725649230217
 30
0.0
 11
-226.3835414476439
 21
-0.6944454476917486
 31
0.0
  0
LINE
  5
6EE
330
1F
100
AcDbEntity
  8
0
100
AcDbLine
 10
-231.3835414476439
 20
0.8589725649230217
 30
0.0
 11
-231.3835414476439
 21
-0.6944454476917486
 31
0.0
  0
ARC
  5
6EF
330
1F
100
AcDbEntity
  8
0
100
AcDbCircle
 10
-228.7956681003649
 20
-6.407253400590207
 30
0.0
 40
7.713308514733173
100
AcDbArc
 50
90.65275242600986
 51
109.6034055744059
  0
LINE
  5
6F0
330
1F
100
AcDbEntity
  8
0
100
AcDbLine
 10
-231.3835414476439
 20
0.8589725649230217
 30
0.0
 11
-231.3835414476439
 21
1.305554552308251
 31
0.0
  0
ARC
  5
6F1
330
1F
100
AcDbEntity
  8
0
100
AcDbCircle
 10
-228.9995529812878
 20
-6.564773112310319
 30
0.0
 40
7.871182644583866
100
AcDbArc
 50
70.58834176935362
 51
89.15550023022984
  0
ARC
  5
6F2
330
1F
100
AcDbEntity
  8
0
100
AcDbCircle
 10
-223.7956681003649
 20
-6.407253400590036
 30
0.0
 40
7.713308514733015
100
AcDbArc
 50
90.65275242600986
 51
109.6034055744059
  0
LINE
  5
6F3
330
1F
100
AcDbEntity
  8
0
100
AcDbLine
 10
-223.8835414476439
 20
1.305554552308251
 30
0.0
 11
-228.8835414476439
 21
1.305554552308251
 31
0.0
  0
LINE
  5
6F4
330
1F
100
AcDbEntity
  8
0
100
AcDbLine
 10
-228.8835414476439
 20
1.305554552308251
 30
0.0
 11
-231.3835414476439
 21
1.305554552308251
 31
0.0
  0
LINE
  5
6F5
330
1F
100
AcDbEntity
  8
0
100
AcDbLine
 10
-221.3835414476439
 20
1.305554552308251
 30
0.0
 11
-223.8835414476439
 21
1.305554552308251
 31
0.0
  0
ARC
  5
6F6
330
1F
100
AcDbEntity
  8
0
100
AcDbCircle
 10
-223.9995529812887
 20
-6.564773112325099
 30
0.0
 40
7.871182644598706
100
AcDbArc
 50
70.58834176938451
 51
89.15550023022397
  0
ARC
  5
6F7
330
1F
100
AcDbEntity
  8
0
100
AcDbCircle
 10
-226.3835414476439
 20
1.555554552308251
 30
0.0
 40
4.250000000000015
100
AcDbArc
 50
0.0
 51
180.0
  0
LINE
  5
6F8
330
1F
100
AcDbEntity
  8
0
100
AcDbLine
 10
-222.133541447644
 20
1.305554552308251
 30
0.0
 11
-222.133541447644
 21
1.555554552308251
 31
0.0
  0
LINE
  5
6F9
330
1F
100
AcDbEntity
  8
0
100
AcDbLine
 10
-230.633541447644
 20
1.555554552308251
 30
0.0
 11
-230.633541447644
 21
1.305554552308251
 31
0.0
  0
LINE
  5
6FA
330
1F
100
AcDbEntity
  8
0
100
AcDbLine
 10
-200.6335414476438
 20
1.555554552308251
 30
0.0
 11
-192.1335414476439
 21
1.555554552308251
 31
0.0
  0
LINE
  5
6FB
330
1F
100
AcDbEntity
  8
0
100
AcDbLine
 10
-191.3835414476437
 20
0.8589725649235901
 30
0.0
 11
-191.3835414476437
 21
-2.794445447691771
 31
0.0
  0
LINE
  5
6FC
330
1F
100
AcDbEntity
  8
0
100
AcDbLine
 10
-191.3835414476437
 20
1.305554552308251
 30
0.0
 11
-191.3835414476437
 21
0.8589725649235901
 31
0.0
  0
LINE
  5
6FD
330
1F
100
AcDbEntity
  8
0
100
AcDbLine
 10
-196.3835414476438
 20
0.8589725649230217
 30
0.0
 11
-196.3835414476438
 21
-2.794445447691771
 31
0.0
  0
LINE
  5
6FE
330
1F
100
AcDbEntity
  8
0
100
AcDbLine
 10
-201.3835414476438
 20
0.8589725649230217
 30
0.0
 11
-201.3835414476438
 21
-2.794445447691771
 31
0.0
  0
ARC
  5
6FF
330
1F
100
AcDbEntity
  8
0
100
AcDbCircle
 10
-198.795668100365
 20
-6.407253400590093
 30
0.0
 40
7.713308514733062
100
AcDbArc
 50
90.65275242600986
 51
109.6034055744059
  0
LINE
  5
700
330
1F
100
AcDbEntity
  8
0
100
AcDbLine
 10
-201.3835414476438
 20
0.8589725649230217
 30
0.0
 11
-201.3835414476438
 21
1.305554552308251
 31
0.0
  0
ARC
  5
701
330
1F
100
AcDbEntity
  8
0
100
AcDbCircle
 10
-198.9995529812876
 20
-6.564773112310206
 30
0.0
 40
7.871182644583777
100
AcDbArc
 50
70.58834176935362
 51
89.15550023022984
  0
ARC
  5
702
330
1F
100
AcDbEntity
  8
0
100
AcDbCircle
 10
-193.7956681003649
 20
-6.407253400589979
 30
0.0
 40
7.713308514732961
100
AcDbArc
 50
90.65275242600986
 51
109.6034055744059
  0
LINE
  5
703
330
1F
100
AcDbEntity
  8
0
100
AcDbLine
 10
-193.8835414476438
 20
1.305554552308251
 30
0.0
 11
-198.8835414476438
 21
1.305554552308251
 31
0.0
  0
LINE
  5
704
330
1F
100
AcDbEntity
  8
0
100
AcDbLine
 10
-198.8835414476438
 20
1.305554552308251
 30
0.0
 11
-201.3835414476438
 21
1.305554552308251
 31
0.0
  0
LINE
  5
705
330
1F
100
AcDbEntity
  8
0
100
AcDbLine
 10
-191.3835414476437
 20
1.305554552308251
 30
0.0
 11
-193.8835414476438
 21
1.305554552308251
 31
0.0
  0
ARC
  5
706
330
1F
100
AcDbEntity
  8
0
100
AcDbCircle
 10
-193.9995529812886
 20
-6.564773112325099
 30
0.0
 40
7.871182644598659
100
AcDbArc
 50
70.58834176938451
 51
89.15550023022397
  0
ARC
  5
707
330
1F
100
AcDbEntity
  8
0
100
AcDbCircle
 10
-196.3835414476438
 20
1.555554552308251
 30
0.0
 40
4.250000000000015
100
AcDbArc
 50
0.0
 51
180.0
  0
LINE
  5
708
330
1F
100
AcDbEntity
  8
0
100
AcDbLine
 10
-192.1335414476438
 20
1.305554552308251
 30
0.0
 11
-192.1335414476438
 21
1.555554552308251
 31
0.0
  0
LINE
  5
709
330
1F
100
AcDbEntity
  8
0
100
AcDbLine
 10
-200.6335414476438
 20
1.555554552308251
 30
0.0
 11
-200.6335414476438
 21
1.305554552308251
 31
0.0
  0
DIMENSION
  5
763
330
1F
100
AcDbEntity
  8
0
100
AcDbDimension
  2
*D0
 10
-262.883541447644
 20
164.0498375507466
 30
0.0
 11
-137.8835414476437
 21
174.0498375507466
 31
0.0
 70
    32
 71
     5
 42
250.0000000000006
  3
09)　s＝1／5
100
AcDbAlignedDimension
 13
-12.88354144764344
 23
201.2161379541025
 33
0.0
 14
-262.883541447644
 24
201.2161379541024
 34
0.0
100
AcDbRotatedDimension
  0
DIMENSION
  5
782
330
1F
100
AcDbEntity
  8
0
100
AcDbDimension
  2
*D1
 10
-283.3835414476441
 20
164.0498375507466
 30
0.0
 11
-329.1692557333584
 21
174.0498375507466
 31
0.0
 70
    32
 71
     5
 42
20.50000000000011
  3
09)　s＝1／5
100
AcDbAlignedDimension
 13
-262.883541447644
 23
201.2161379541025
 33
0.0
 14
-283.3835414476441
 24
275.2238600773936
 34
0.0
100
AcDbRotatedDimension
  0
DIMENSION
  5
791
330
1F
100
AcDbEntity
  8
0
100
AcDbDimension
  2
*D2
 10
-328.8340222252009
 20
265.2238600773936
 30
0.0
 11
-338.834022225201
 21
228.0095743631078
 31
0.0
 70
    32
 71
     5
 42
20.00000000000011
  3
09)　s＝1／5
100
AcDbAlignedDimension
 13
-273.3835414476441
 23
285.2238600773937
 33
0.0
 14
-273.383541447644
 24
265.2238600773936
 34
0.0
 50
90.0
100
AcDbRotatedDimension
  0
DIMENSION
  5
7A0
330
1F
100
AcDbEntity
  8
0
100
AcDbDimension
  2
*D3
 10
-359.4526291826069
 20
275.2238600773936
 30
0.0
 11
-369.4526291826069
 21
237.7238600773934
 31
0.0
 70
    32
 71
     5
 42
75.00000000000023
  3
09)　s＝1／5
100
AcDbAlignedDimension
 13
-261.891263570935
 23
200.2238600773933
 33
0.0
 14
-264.8835414476441
 24
275.2238600773936
 34
0.0
 50
90.0
100
AcDbRotatedDimension
  0
DIMENSION
  5
7AD
330
1F
100
AcDbEntity
  8
0
100
AcDbDimension
  2
*D4
 10
31.27095961850868
 20
450.2238600773942
 30
0.0
 11
21.2709596185086
 21
325.2238600773938
 31
0.0
 70
    32
 71
     5
 42
250.0000000000009
  3
09)　s＝1／5
100
AcDbAlignedDimension
 13
-13.87581932435239
 23
200.2238600773933
 33
0.0
 14
-13.87581932435239
 24
450.2238600773942
 34
0.0
 50
90.0
100
AcDbRotatedDimension
  0
SPLINE
  5
7BA
102
{ACAD_REACTORS
330
7C8
102
}
330
1F
100
AcDbEntity
  8
0
100
AcDbSpline
210
0.0
220
0.0
230
1.0
 70
     8
 71
     3
 72
    10
 73
     6
 74
     0
 42
0.0000000001
 43
0.0000000001
 40
0.0
 40
0.0
 40
0.0
 40
0.0
 40
0.1736813798367858
 40
0.5385865053348369
 40
1.0
 40
1.0
 40
1.0
 40
1.0
 10
-262.883541447644
 20
331.2238600773938
 30
0.0
 10
-271.1288005585576
 20
334.6115957492904
 30
0.0
 10
-294.2975640773952
 20
344.8762098703986
 30
0.0
 10
-338.9487177126276
 20
310.3538377840886
 30
0.0
 10
-375.7433430505197
 20
324.8657034277415
 30
0.0
 10
-398.5556234444004
 20
331.2238600773938
 30
0.0
  0
LINE
  5
7BB
102
{ACAD_REACTORS
330
7C8
102
}
330
1F
100
AcDbEntity
  8
0
100
AcDbLine
 10
-398.5556234444004
 20
331.2238600773938
 30
0.0
 11
-398.5556234444004
 21
325.2238600773938
 31
0.0
  0
HATCH
  5
7C8
330
1F
100
AcDbEntity
  8
0
 62
     9
100
AcDbHatch
 10
0.0
 20
0.0
 30
0.0
210
0.0
220
0.0
230
1.0
  2
ANSI31
 70
     0
 71
     1
 91
        1
 92
        5
 93
        4
 72
     4
 94
        3
 73
     0
 74
     0
 95
       10
 96
        6
 40
0.0
 40
0.0
 40
0.0
 40
0.0
 40
0.1736813798367858
 40
0.5385865053348369
 40
1.0
 40
1.0
 40
1.0
 40
1.0
 10
-262.883541447644
 20
331.2238600773938
 10
-271.1288005585576
 20
334.6115957492904
 10
-294.2975640773952
 20
344.8762098703986
 10
-338.9487177126276
 20
310.3538377840886
 10
-375.7433430505197
 20
324.8657034277415
 10
-398.5556234444004
 20
331.2238600773938
 72
     1
 10
-398.5556234444004
 20
331.2238600773938
 11
-398.5556234444004
 21
325.2238600773939
 72
     4
 94
        3
 73
     0
 74
     0
 95
       10
 96
        6
 40
0.0
 40
0.0
 40
0.0
 40
0.0
 40
0.4614134946651632
 40
0.8263186201632141
 40
1.0
 40
1.0
 40
1.0
 40
1.0
 10
-398.5556234444004
 20
325.2238600773938
 10
-375.7433430505197
 20
318.8657034277415
 10
-338.9487177126276
 20
304.3538377840886
 10
-294.2975640773952
 20
338.8762098703986
 10
-271.1288005585576
 20
328.6115957492904
 10
-262.883541447644
 20
325.2238600773938
 72
     1
 10
-262.883541447644
 20
325.2238600773939
 11
-262.883541447644
 21
331.2238600773938
 97
        4
330
7BA
330
7BB
330
4EC
330
4CC
 75
     0
 76
     1
 52
0.0
 41
0.5
 77
     0
 78
     1
 53
45.0
 43
0.0
 44
0.0
 45
-1.122532015133643
 46
1.122532015133644
 79
     0
 47
0.235627126008759
 98
        1
 10
-280.7555919172928
 20
334.1543449093479
1001
ACAD
1010
0.0
1020
0.0
1030
0.0
  0
DIMENSION
  5
833
330
1F
100
AcDbEntity
  8
0
100
AcDbDimension
  2
*D5
 10
-262.883541447644
 20
369.6956898247027
 30
0.0
 11
-330.7195824460222
 21
379.6956898247026
 31
0.0
 70
    32
  1
Max. 1.5m
 71
     5
 42
135.6720819967563
  3
09)　s＝1／5
100
AcDbAlignedDimension
 13
-398.5556234444004
 23
331.2238600773938
 33
0.0
 14
-262.883541447644
 24
331.2238600773938
 34
0.0
100
AcDbRotatedDimension
  0
DIMENSION
  5
852
330
1F
100
AcDbEntity
  8
0
100
AcDbDimension
  2
*D6
 10
31.27095961850859
 20
48.3055545523084
 30
0.0
 11
21.27095961850858
 21
28.30555455230833
 31
0.0
 70
    32
 71
     5
 42
40.00000000000016
  3
09)　s＝1／5
100
AcDbAlignedDimension
 13
-12.88354144764344
 23
8.305554552308251
 33
0.0
 14
-18.76632366616536
 24
48.30555455230842
 34
0.0
 50
90.0
100
AcDbRotatedDimension
  0
DIMENSION
  5
85F
330
1F
100
AcDbEntity
  8
0
100
AcDbDimension
  2
*D7
 10
65.69486795385138
 20
48.3055545523084
 30
0.0
 11
65.69486795385137
 21
-0.6944454476917689
 31
0.0
 70
   160
 71
     5
 42
98.00000000000034
  3
09)　s＝1／5
100
AcDbAlignedDimension
 13
-25.38354144764332
 23
-49.69444544769192
 33
0.0
 14
-18.76632366616547
 24
48.30555455230842
 34
0.0
 50
90.0
100
AcDbRotatedDimension
  0
DIMENSION
  5
875
330
1F
100
AcDbEntity
  8
0
100
AcDbDimension
  2
*D8
 10
-36.88351318121426
 20
-85.94783534912824
 30
0.0
 11
-137.8835131812145
 21
-75.94783534912824
 31
0.0
 70
    32
 71
     5
 42
202.0000000000006
  3
09)　s＝1／5
100
AcDbAlignedDimension
 13
-238.8835131812148
 23
-49.69444544769186
 33
0.0
 14
-36.88351318121426
 24
-49.69444544769192
 34
0.0
100
AcDbRotatedDimension
  0
DIMENSION
  5
882
330
1F
100
AcDbEntity
  8
0
100
AcDbDimension
  2
*D9
 10
395.4097929529424
 20
-85.94783534912824
 30
0.0
 11
305.9097929529422
 21
-75.94783534912824
 31
0.0
 70
    32
 71
     5
 42
179.0000000000004
  3
09)　s＝1／5
100
AcDbAlignedDimension
 13
216.409792952942
 23
-49.69444544769192
 33
0.0
 14
395.4097929529424
 24
-49.69444544769192
 34
0.0
100
AcDbRotatedDimension
  0
VIEWPORT
  5
7FB
102
{ACAD_XDICTIONARY
360
7FC
102
}
330
1B
100
AcDbEntity
 67
     1
  8
0
100
AcDbViewport
 10
147.30116747858
 20
102.2123193820613
 30
0.0
 40
445.4298037317276
 41
195.9513853367208
 68
     1
 69
     1
 12
147.30116747858
 22
102.2123193820613
 13
0.0
 23
0.0
 14
10.0
 24
10.0
 15
10.0
 25
10.0
 16
0.0
 26
0.0
 36
1.0
 17
0.0
 27
0.0
 37
0.0
 42
50.0
 43
0.0
 44
0.0
 45
195.9513853367208
 50
0.0
 51
0.0
 72
   100
 90
   557088
  1

281
     0
 71
     1
 74
     0
110
0.0
120
0.0
130
0.0
111
1.0
121
0.0
131
0.0
112
0.0
122
1.0
132
0.0
 79
     0
146
0.0
  0
VIEWPORT
  5
7FF
102
{ACAD_XDICTIONARY
360
800
102
}
330
1B
100
AcDbEntity
 67
     1
  8
0
100
AcDbViewport
 10
147.3000413595415
 20
102.2163648684194
 30
0.0
 40
280.3791497241371
 41
194.5319258184477
 68
     2
 69
     2
 12
64.3352752638896
 22
180.770864217384
 13
0.0
 23
0.0
 14
10.0
 24
10.0
 15
10.0
 25
10.0
 16
0.0
 26
0.0
 36
1.0
 17
0.0
 27
0.0
 37
0.0
 42
50.0
 43
0.0
 44
0.0
 45
778.1277032737907
 50
0.0
 51
0.0
 72
   100
 90
   819296
  1

281
     0
 71
     1
 74
     0
110
0.0
120
0.0
130
0.0
111
1.0
121
0.0
131
0.0
112
0.0
122
1.0
132
0.0
 79
     0
146
0.0
  0
MTEXT
  5
821
330
1B
100
AcDbEntity
 67
     1
  8
0
100
AcDbMText
 10
258.2356538588182
 20
16.56992684278452
 30
0.0
 40
4.0
 41
27.49667609257949
 71
     1
 72
     5
  1
単位：mm
  7
AD-STANDARD
 73
     1
 44
1.0
1001
ACAD
1000
MTEXTBEGIN
1070
    73
1070
     1
1070
    44
1040
1.0
1070
    74
1070
     0
1000
MTEXTEND
  0
MTEXT
  5
822
330
1B
100
AcDbEntity
 67
     1
  8
0
100
AcDbMText
 10
246.3051659107356
 20
190.4001587289691
 30
0.0
 40
4.0
 41
27.49667609257949
 71
     4
 72
     5
  1
SB-6K13SW
  7
AD-STANDARD
 73
     1
 44
1.0
1001
ACAD
1000
MTEXTBEGIN
1070
    73
1070
     1
1070
    44
1040
1.0
1070
    74
1070
     0
1000
MTEXTEND
  0
LINE
  5
823
330
1B
100
AcDbEntity
 67
     1
  8
NOTE
 62
     9
100
AcDbLine
 10
243.4018420033152
 20
187.4495031367873
 30
0.0
 11
281.1315519849181
 21
187.4495031367873
 31
0.0
  0
MTEXT
  5
824
330
1B
100
AcDbEntity
 67
     1
  8
0
100
AcDbMText
 10
246.3051659107356
 20
183.4001587289692
 30
0.0
 40
4.0
 41
27.49667609257949
 71
     4
 72
     5
  1
SB-15K13SW
  7
AD-STANDARD
 73
     1
 44
1.0
1001
ACAD
1000
MTEXTBEGIN
1070
    73
1070
     1
1070
    44
1040
1.0
1070
    74
1070
     0
1000
MTEXTEND
  0
LINE
  5
825
330
1B
100
AcDbEntity
 67
     1
  8
NOTE
 62
     9
100
AcDbLine
 10
243.4018420033152
 20
180.4495031367873
 30
0.0
 11
281.1315519849181
 21
180.4495031367873
 31
0.0
  0
ENDSEC
  0
SECTION
  2
OBJECTS
  0
DICTIONARY
  5
C
330
0
100
AcDbDictionary
281
     1
  3
ACAD_COLOR
350
3C7
  3
ACAD_GROUP
350
D
  3
ACAD_LAYOUT
350
1A
  3
ACAD_MATERIAL
350
3C6
  3
ACAD_MLEADERSTYLE
350
3C2
  3
ACAD_MLINESTYLE
350
17
  3
ACAD_PLOTSETTINGS
350
19
  3
ACAD_PLOTSTYLENAME
350
E
  3
ACAD_SCALELIST
350
3B
  3
ACAD_TABLESTYLE
350
3C1
  3
ACAD_VISUALSTYLE
350
2A
  3
ACDB_RECOMPOSE_DATA
350
8B4
  3
AcDbVariableDictionary
350
3BF
  3
DWGPROPS
350
8E9
  0
DICTIONARY
  5
8B6
330
8
100
AcDbDictionary
280
     1
281
     1
  0
DICTIONARY
  5
3E2
330
2
100
AcDbDictionary
280
     1
281
     1
  3
ACAD_LAYERFILTERS
360
70D
  3
ACAD_LAYERSTATES
360
3E3
  3
ACLYDICTIONARY
360
70C
  0
DICTIONARY
  5
88F
330
10
100
AcDbDictionary
280
     1
281
     1
  3
ADSK_XREC_LAYER_RECONCILED
360
890
  0
DICTIONARY
  5
813
330
812
100
AcDbDictionary
280
     1
281
     1
  3
ADSK_XREC_LAYER_RECONCILED
360
891
  0
DICTIONARY
  5
4ED
330
1F
100
AcDbDictionary
280
     1
281
     1
  3
ACAD_SORTENTS
360
4EE
  0
DICTIONARY
  5
7FC
330
7FB
100
AcDbDictionary
280
     1
281
     1
  3
ACAD_XREC_ROUNDTRIP
360
8F1
  3
ASDK_XREC_ANNOTATION_SCALE_INFO
360
7FD
  0
DICTIONARY
  5
800
330
7FF
100
AcDbDictionary
280
     1
281
     1
  3
ACAD_XREC_ROUNDTRIP
360
8F2
  3
ASDK_XREC_ANNOTATION_SCALE_INFO
360
801
  0
DICTIONARY
  5
3C7
102
{ACAD_REACTORS
330
C
102
}
330
C
100
AcDbDictionary
281
     1
  0
DICTIONARY
  5
D
102
{ACAD_REACTORS
330
C
102
}
330
C
100
AcDbDictionary
281
     1
  0
DICTIONARY
  5
1A
102
{ACAD_REACTORS
330
C
102
}
330
C
100
AcDbDictionary
281
     1
  3
Layout1
350
1E
  3
Model
350
22
  0
DICTIONARY
  5
3C6
102
{ACAD_REACTORS
330
C
102
}
330
C
100
AcDbDictionary
281
     1
  3
ByBlock
350
44B
  3
ByLayer
350
443
  3
Global
350
453
  0
DICTIONARY
  5
3C2
102
{ACAD_REACTORS
330
C
102
}
330
C
100
AcDbDictionary
281
     1
  3
Standard
350
45B
  0
DICTIONARY
  5
17
102
{ACAD_REACTORS
330
C
102
}
330
C
100
AcDbDictionary
281
     1
  3
Standard
350
18
  0
DICTIONARY
  5
19
102
{ACAD_REACTORS
330
C
102
}
330
C
100
AcDbDictionary
281
     1
  0
ACDBDICTIONARYWDFLT
  5
E
102
{ACAD_REACTORS
330
C
102
}
330
C
100
AcDbDictionary
281
     1
  3
Normal
350
F
100
AcDbDictionaryWithDefault
340
F
  0
DICTIONARY
  5
3B
102
{ACAD_REACTORS
330
C
102
}
330
C
100
AcDbDictionary
281
     1
  3
A0
350
3C
  3
A1
350
3D
  3
A2
350
3E
  3
A3
350
3F
  3
A4
350
40
  3
A5
350
41
  3
A6
350
42
  3
A7
350
43
  3
A8
350
44
  3
A9
350
45
  3
B0
350
46
  3
B1
350
47
  3
B2
350
48
  3
B3
350
49
  3
B4
350
4A
  3
B5
350
4B
  3
B6
350
4C
  3
B7
350
4D
  3
B8
350
4E
  3
B9
350
4F
  3
C0
350
50
  3
C1
350
51
  3
C2
350
52
  3
C3
350
53
  3
C4
350
54
  3
C5
350
55
  3
C6
350
56
  3
C7
350
57
  3
C8
350
58
  3
C9
350
59
  3
D0
350
5A
  3
D1
350
5B
  3
D2
350
5C
  0
DICTIONARY
  5
3C1
102
{ACAD_REACTORS
330
C
102
}
330
C
100
AcDbDictionary
281
     1
  3
Standard
350
3C8
  0
DICTIONARY
  5
2A
102
{ACAD_REACTORS
330
C
102
}
330
C
100
AcDbDictionary
281
     1
  3
2dWireframe
350
2F
  3
3D Hidden
350
31
  3
3dWireframe
350
30
  3
Basic
350
32
  3
Brighten
350
36
  3
ColorChange
350
3A
  3
Conceptual
350
34
  3
Dim
350
35
  3
Facepattern
350
39
  3
Flat
350
2B
  3
FlatWithEdges
350
2C
  3
Gouraud
350
2D
  3
GouraudWithEdges
350
2E
  3
Linepattern
350
38
  3
Realistic
350
33
  3
Thicken
350
37
  0
XRECORD
  5
8B4
102
{ACAD_REACTORS
330
C
102
}
330
C
100
AcDbXrecord
280
     1
 90
        1
330
3C8
  0
DICTIONARY
  5
3BF
102
{ACAD_REACTORS
330
C
102
}
330
C
100
AcDbDictionary
281
     1
  3
CANNOSCALE
350
3C0
  3
CMLEADERSTYLE
350
8C5
  3
CTABLESTYLE
350
43F
  3
DIMASSOC
350
440
  3
INDEXCTL
350
8C7
  3
PROJECTNAME
350
441
  3
PSOLHEIGHT
350
8E7
  3
PSOLWIDTH
350
8E6
  3
SORTENTS
350
8C6
  0
XRECORD
  5
8E9
102
{ACAD_REACTORS
330
C
102
}
330
C
100
AcDbXrecord
280
     1
  1
DWGPROPS COOKIE
  2

  3

  4

  6

  7

  8
HAMANO-1047
  9

300
=
301
=
302
=
303
=
304
=
305
=
306
=
307
=
308
=
309
=
 40
0.1133005324074074
 41
2455161.698818322
 42
2458306.609241875
  1

 90
        0
  0
DICTIONARY
  5
70D
102
{ACAD_REACTORS
330
3E2
102
}
330
3E2
100
AcDbDictionary
281
     1
  0
DICTIONARY
  5
3E3
102
{ACAD_REACTORS
330
3E2
102
}
330
3E2
100
AcDbDictionary
281
     1
  0
DICTIONARY
  5
70C
102
{ACAD_REACTORS
330
3E2
102
}
330
3E2
100
AcDbDictionary
281
     1
1001
ACAD
1000
<All
  0
XRECORD
  5
890
102
{ACAD_REACTORS
330
88F
102
}
330
88F
100
AcDbXrecord
280
     1
290
     1
  0
XRECORD
  5
891
102
{ACAD_REACTORS
330
813
102
}
330
813
100
AcDbXrecord
280
     1
290
     1
  0
SORTENTSTABLE
  5
4EE
102
{ACAD_REACTORS
330
4ED
102
}
330
4ED
100
AcDbSortentsTable
330
1F
331
601
  5
4FE
331
5CA
  5
6E4
331
58B
  5
6A5
331
515
  5
62F
331
4DE
  5
4DE
331
554
  5
66E
331
640
  5
53F
331
6F5
  5
5F4
331
67F
  5
57E
331
648
  5
547
331
609
  5
506
331
593
  5
6AD
331
51D
  5
637
331
4E6
  5
4E6
331
55C
  5
676
331
5D2
  5
6EC
331
6BE
  5
5BD
331
6FD
  5
5FC
331
6C6
  5
5C5
331
650
  5
54F
331
611
  5
50E
331
59B
  5
6B5
331
525
  5
63F
331
564
  5
67E
331
5DA
  5
6F4
331
687
  5
586
331
705
  5
604
331
6CE
  5
5CD
331
5A3
  5
6BD
331
52D
  5
647
331
68F
  5
58E
331
697
  5
596
331
621
  5
520
331
5E2
  5
6FC
331
56C
  5
686
331
535
  5
64F
331
4F6
  5
610
331
5AB
  5
6C5
331
658
  5
557
331
69F
  5
59E
331
660
  5
55F
331
5EA
  5
704
331
5B3
  5
6CD
331
53D
  5
657
331
4C7
  5
4C5
331
4FE
  5
618
331
574
  5
68E
331
629
  5
528
331
6D6
  5
5D5
331
6A7
  5
5A6
331
668
  5
567
331
5F2
  5
791
331
5BB
  5
6D5
331
545
  5
65F
331
506
  5
620
331
4CF
  5
4CF
331
57C
  5
696
331
631
  5
530
331
6DE
  5
5DD
331
6E6
  5
5E5
331
670
  5
56F
331
639
  5
538
331
5FA
  5
4F7
331
584
  5
69E
331
50E
  5
628
331
4D7
  5
4D7
331
54D
  5
667
331
5C3
  5
6DD
331
6AF
  5
5AE
331
6EE
  5
5ED
331
6B7
  5
5B6
331
641
  5
540
331
602
  5
4FF
331
58C
  5
6A6
331
555
  5
66F
331
4DF
  5
4DF
331
516
  5
630
331
5CB
  5
6E5
331
678
  5
577
331
6BF
  5
5BE
331
680
  5
57F
331
60A
  5
507
331
594
  5
6AE
331
55D
  5
677
331
51E
  5
638
331
4E7
  5
4E7
331
5D3
  5
6ED
331
649
  5
548
331
6F6
  5
5F5
331
6FE
  5
5FD
331
688
  5
587
331
612
  5
510
331
5DB
  5
6F5
331
59C
  5
6B6
331
526
  5
640
331
4EF
  5
609
331
565
  5
67F
331
651
  5
550
331
6C7
  5
5C6
331
706
  5
605
331
690
  5
58F
331
52E
  5
648
331
5A4
  5
6BE
331
6CF
  5
5CE
331
659
  5
558
331
622
  5
521
331
5AC
  5
6C6
331
536
  5
650
331
4F7
  5
611
331
56D
  5
687
331
5E3
  5
6FD
331
698
  5
597
331
6D7
  5
5D6
331
661
  5
560
331
62A
  5
529
331
5B4
  5
6CE
331
575
  5
68F
331
4FF
  5
619
331
4C8
  5
4C6
331
53E
  5
658
331
5EB
  5
705
331
6A0
  5
59F
331
6DF
  5
5DE
331
6A8
  5
5A7
331
632
  5
531
331
5F3
  5
7A0
331
57D
  5
697
331
546
  5
660
331
4D0
  5
4D0
331
507
  5
621
331
5BC
  5
6D6
331
669
  5
568
331
7AD
  5
7BE
331
6B0
  5
5AF
331
671
  5
570
331
5FB
  5
4F8
331
5C4
  5
6DE
331
54E
  5
668
331
50F
  5
629
331
585
  5
69F
331
63A
  5
539
331
6E7
  5
5E6
331
6EF
  5
5EE
331
4D8
  5
4D8
331
679
  5
578
331
603
  5
500
331
5CC
  5
6E6
331
58D
  5
6A7
331
517
  5
631
331
4E0
  5
4E0
331
556
  5
670
331
642
  5
541
331
6B8
  5
5B7
331
6F7
  5
5F6
331
681
  5
580
331
64A
  5
549
331
60B
  5
508
331
595
  5
6AF
331
51F
  5
639
331
4E8
  5
4E8
331
55E
  5
678
331
5D4
  5
6EE
331
6C0
  5
5BF
331
6FF
  5
5FE
331
6C8
  5
5C7
331
652
  5
551
331
613
  5
511
331
59D
  5
6B7
331
566
  5
680
331
527
  5
641
331
5DC
  5
6F6
331
689
  5
588
331
5A5
  5
6BF
331
52F
  5
649
331
61B
  5
51A
331
691
  5
590
331
707
  5
606
331
4F0
  5
60A
331
6D0
  5
5CF
331
699
  5
598
331
623
  5
522
331
5E4
  5
6FE
331
56E
  5
688
331
537
  5
651
331
4F8
  5
612
331
5AD
  5
6C7
331
65A
  5
559
331
6A1
  5
5A0
331
662
  5
561
331
5EC
  5
706
331
5B5
  5
6CF
331
53F
  5
659
331
500
  5
61A
331
4C9
  5
4C7
331
576
  5
690
331
62B
  5
52A
331
6D8
  5
5D7
331
6E0
  5
5DF
331
66A
  5
569
331
633
  5
532
331
5BD
  5
6D7
331
547
  5
661
331
508
  5
622
331
4D1
  5
4D1
331
57E
  5
698
331
5F4
  5
4F1
331
6A9
  5
5A8
331
6E8
  5
5E7
331
672
  5
571
331
63B
  5
53A
331
5FC
  5
4F9
331
586
  5
6A0
331
54F
  5
669
331
5C5
  5
6DF
331
6B1
  5
5B0
331
510
  5
62A
331
4D9
  5
4D9
331
6F0
  5
5EF
331
6B9
  5
5B8
331
67A
  5
579
331
604
  5
501
331
58E
  5
6A8
331
557
  5
671
331
4E1
  5
4E1
331
518
  5
632
331
5CD
  5
6E7
331
643
  5
542
331
6C1
  5
5C0
331
682
  5
581
331
60C
  5
509
331
5D5
  5
6EF
331
55F
  5
679
331
520
  5
63A
331
4E9
  5
4E9
331
596
  5
6B0
331
64B
  5
54A
331
6F8
  5
5F7
331
700
  5
5FF
331
68A
  5
589
331
5DD
  5
6F7
331
59E
  5
6B8
331
528
  5
642
331
567
  5
681
331
653
  5
552
331
6C9
  5
5C8
331
692
  5
591
331
5A6
  5
6C0
331
61C
  5
51B
331
708
  5
607
331
530
  5
64A
331
6D1
  5
5D0
331
65B
  5
55A
331
624
  5
523
331
5AE
  5
6C8
331
56F
  5
689
331
4F9
  5
613
331
4C2
  5
9B
331
538
  5
652
331
5E5
  5
6FF
331
69A
  5
599
331
6D9
  5
5D8
331
663
  5
562
331
62C
  5
52B
331
5B6
  5
6D0
331
577
  5
691
331
501
  5
61B
331
4CA
  5
4C8
331
540
  5
65A
331
5ED
  5
707
331
6A2
  5
5A1
331
6E1
  5
5E0
331
6AA
  5
5A9
331
634
  5
533
331
5F5
  5
4F2
331
57F
  5
699
331
548
  5
662
331
509
  5
623
331
4D2
  5
4D2
331
5BE
  5
6D8
331
66B
  5
56A
331
6E9
  5
5E8
331
673
  5
572
331
5FD
  5
4FA
331
5C6
  5
6E0
331
587
  5
6A1
331
63C
  5
53B
331
6B2
  5
5B1
331
550
  5
66A
331
511
  5
62B
331
4DA
  5
4DA
331
6F1
  5
5F0
331
67B
  5
57A
331
644
  5
543
331
5CE
  5
6E8
331
58F
  5
6A9
331
519
  5
633
331
4E2
  5
4E2
331
558
  5
672
331
605
  5
502
331
6BA
  5
5B9
331
6F9
  5
5F8
331
683
  5
582
331
64C
  5
54B
331
60D
  5
50A
331
597
  5
6B1
331
521
  5
63B
331
4EA
  5
4EA
331
560
  5
67A
331
5D6
  5
6F0
331
6C2
  5
5C1
331
701
  5
600
331
6CA
  5
5C9
331
68B
  5
58A
331
59F
  5
6B9
331
529
  5
643
331
5DE
  5
6F8
331
654
  5
553
331
61D
  5
51C
331
5A7
  5
6C1
331
693
  5
592
331
709
  5
608
331
568
  5
682
331
4F2
  5
60C
331
531
  5
64B
331
6D2
  5
5D1
331
69B
  5
59A
331
625
  5
524
331
5E6
  5
700
331
570
  5
68A
331
539
  5
653
331
4C3
  5
1C0
331
4FA
  5
614
331
5AF
  5
6C9
331
65C
  5
55B
331
7A0
  5
7BD
331
6A3
  5
5A2
331
664
  5
563
331
5EE
  5
708
331
5B7
  5
6D1
331
541
  5
65B
331
502
  5
61C
331
4CB
  5
4C9
331
578
  5
692
331
62D
  5
52C
331
6DA
  5
5D9
331
6E2
  5
5E1
331
66C
  5
56B
331
635
  5
534
331
5BF
  5
6D9
331
580
  5
69A
331
50A
  5
624
331
4D3
  5
4D3
331
549
  5
663
331
5F6
  5
4F3
331
6AB
  5
5AA
331
6EA
  5
5E9
331
674
  5
573
331
63D
  5
53C
331
5FE
  5
4FB
331
5C7
  5
6E1
331
6B3
  5
5B2
331
588
  5
6A2
331
512
  5
62C
331
4DB
  5
4DB
331
551
  5
66B
331
6F2
  5
5F1
331
6BB
  5
5BA
331
67C
  5
57B
331
606
  5
503
331
590
  5
6AA
331
559
  5
673
331
51A
  5
634
331
4E3
  5
4E3
331
5CF
  5
6E9
331
645
  5
544
331
7C8
  5
4CB
331
791
  5
7BB
331
6FA
  5
5F9
331
684
  5
583
331
60E
  5
50B
331
5D7
  5
6F1
331
561
  5
67B
331
522
  5
63C
331
4EB
  5
4EF
331
598
  5
6B2
331
64D
  5
54C
331
6C3
  5
5C2
331
702
  5
601
331
68C
  5
58B
331
5DF
  5
6F9
331
52A
  5
644
331
5A0
  5
6BA
331
655
  5
554
331
6CB
  5
5CA
331
694
  5
593
331
61E
  5
51D
331
5A8
  5
6C2
331
532
  5
64C
331
4F3
  5
60D
331
569
  5
683
331
6D3
  5
5D2
331
65D
  5
55C
331
626
  5
525
331
5B0
  5
6CA
331
571
  5
68B
331
4FB
  5
615
331
4C4
  5
4C2
331
53A
  5
654
331
5E7
  5
701
331
69C
  5
59B
331
6DB
  5
5DA
331
6A4
  5
5A3
331
62E
  5
52D
331
5EF
  5
709
331
579
  5
693
331
503
  5
61D
331
4CC
  5
4CC
331
542
  5
65C
331
5B8
  5
6D2
331
665
  5
564
331
6E3
  5
5E2
331
6AC
  5
5AB
331
636
  5
535
331
5F7
  5
4F4
331
581
  5
69B
331
54A
  5
664
331
50B
  5
625
331
4D4
  5
4D4
331
5C0
  5
6DA
331
66D
  5
56C
331
782
  5
7BA
331
6EB
  5
5EA
331
675
  5
574
331
5FF
  5
4FC
331
63E
  5
53D
331
6B4
  5
5B3
331
5C8
  5
6E2
331
589
  5
6A3
331
513
  5
62D
331
4DC
  5
4DC
331
552
  5
66C
331
6F3
  5
5F2
331
67D
  5
57C
331
646
  5
545
331
5D0
  5
6EA
331
591
  5
6AB
331
51B
  5
635
331
4E4
  5
4E4
331
55A
  5
674
331
607
  5
504
331
6BC
  5
5BB
331
6FB
  5
5FA
331
685
  5
584
331
64E
  5
54D
331
60F
  5
50C
331
599
  5
6B3
331
523
  5
63D
331
4EC
  5
4F0
331
562
  5
67C
331
5D8
  5
6F2
331
6C4
  5
5C3
331
703
  5
602
331
6CC
  5
5CB
331
68D
  5
58C
331
5A1
  5
6BB
331
52B
  5
645
331
656
  5
555
331
61F
  5
51E
331
695
  5
594
331
5E0
  5
6FA
331
56A
  5
684
331
533
  5
64D
331
4F4
  5
60E
331
5A9
  5
6C3
331
69D
  5
59C
331
65E
  5
55D
331
5E8
  5
702
331
572
  5
68C
331
53B
  5
655
331
4C5
  5
4C3
331
4FC
  5
616
331
5B1
  5
6CB
331
627
  5
526
331
6D4
  5
5D3
331
763
  5
7AD
331
6A5
  5
5A4
331
666
  5
565
331
5F0
  5
763
331
5B9
  5
6D3
331
543
  5
65D
331
504
  5
61E
331
4CD
  5
4CD
331
57A
  5
694
331
62F
  5
52E
331
6DC
  5
5DB
331
6E4
  5
5E3
331
66E
  5
56D
331
637
  5
536
331
5F8
  5
4F5
331
582
  5
69C
331
50C
  5
626
331
4D5
  5
4D5
331
54B
  5
665
331
5C1
  5
6DB
331
6AD
  5
5AC
331
6EC
  5
5EB
331
6B5
  5
5B4
331
63F
  5
53E
331
676
  5
575
331
7BA
  5
7BF
331
600
  5
4FD
331
58A
  5
6A4
331
514
  5
62E
331
4DD
  5
4DD
331
553
  5
66D
331
5C9
  5
6E3
331
6F4
  5
5F3
331
6BD
  5
5BC
331
67E
  5
57D
331
608
  5
505
331
592
  5
6AC
331
55B
  5
675
331
51C
  5
636
331
4E5
  5
4E5
331
5D1
  5
6EB
331
647
  5
546
331
6FC
  5
5FB
331
686
  5
585
331
610
  5
50D
331
5D9
  5
6F3
331
59A
  5
6B4
331
524
  5
63E
331
563
  5
67D
331
64F
  5
54E
331
6C5
  5
5C4
331
704
  5
603
331
68E
  5
58D
331
657
  5
556
331
52C
  5
646
331
5A2
  5
6BC
331
6CD
  5
5CC
331
696
  5
595
331
5E1
  5
6FB
331
5AA
  5
6C4
331
534
  5
64E
331
4F5
  5
60F
331
56B
  5
685
331
620
  5
51F
331
6D5
  5
5D4
331
65F
  5
55E
331
628
  5
527
331
5B2
  5
6CC
331
573
  5
68D
331
4FD
  5
617
331
4C6
  5
4C4
331
53C
  5
656
331
5E9
  5
703
331
69E
  5
59D
331
6DD
  5
5DC
331
6A6
  5
5A5
331
630
  5
52F
331
5F1
  5
782
331
57B
  5
695
331
544
  5
65E
331
4CE
  5
4CE
331
505
  5
61F
331
5BA
  5
6D4
331
667
  5
566
331
6AE
  5
5AD
331
66F
  5
56E
331
5F9
  5
4F6
331
583
  5
69D
331
54C
  5
666
331
50D
  5
627
331
4D6
  5
4D6
331
5C2
  5
6DC
331
638
  5
537
331
6E5
  5
5E4
331
7BB
  5
7C0
331
6ED
  5
5EC
331
677
  5
576
331
6B6
  5
5B5
  0
XRECORD
  5
8F1
102
{ACAD_REACTORS
330
7FC
102
}
330
7FC
100
AcDbXrecord
280
     1
102
SHADEPLOT
 70
     0
  0
XRECORD
  5
7FD
102
{ACAD_REACTORS
330
7FC
102
}
330
7FC
100
AcDbXrecord
280
     1
 90
        1
340
3C
  0
XRECORD
  5
8F2
102
{ACAD_REACTORS
330
800
102
}
330
800
100
AcDbXrecord
280
     1
102
SHADEPLOT
 70
     0
  0
XRECORD
  5
801
102
{ACAD_REACTORS
330
800
102
}
330
800
100
AcDbXrecord
280
     1
 90
        1
340
3C
  0
LAYOUT
  5
1E
102
{ACAD_XDICTIONARY
360
830
102
}
102
{ACAD_REACTORS
330
1A
102
}
330
1A
100
AcDbPlotSettings
  1

  2
CubePDF
  4
A4
  6

 40
3.174999952316284
 41
3.174999952316284
 42
3.175003051757812
 43
3.17498779296875
 44
209.9098358154297
 45
297.0318298339844
 46
0.0
 47
0.0
 48
0.0
 49
0.0
140
0.0
141
0.0
142
1.0
143
1.0
 70
   688
 72
     1
 73
     1
 74
     5
  7
monochrome.ctb
 75
    16
147
1.0
148
0.0
149
0.0
100
AcDbLayout
  1
Layout1
 70
     1
 71
     1
 10
-3.17498779296875
 20
-3.174999952316284
 11
293.8568420410156
 21
206.7348358631134
 12
0.0
 22
0.0
 32
0.0
 14
7.110466497472998
 24
4.950401959195573
 34
0.0
 15
287.4896162216101
 25
199.4823277776433
 35
0.0
146
0.0
 13
0.0
 23
0.0
 33
0.0
 16
1.0
 26
0.0
 36
0.0
 17
0.0
 27
1.0
 37
0.0
 76
     0
330
1B
331
7FB
1001
ACAD_PSEXT
1000
CubePDF
1000
CubePDF
1000
CubePDF:
1000
CubePDF
1070
     0
  0
LAYOUT
  5
22
102
{ACAD_XDICTIONARY
360
8EB
102
}
102
{ACAD_REACTORS
330
1A
102
}
330
1A
100
AcDbPlotSettings
  1

  2
none_device
  4

  6

 40
0.0
 41
0.0
 42
0.0
 43
0.0
 44
0.0
 45
0.0
 46
0.0
 47
0.0
 48
0.0
 49
0.0
140
0.0
141
0.0
142
1.0
143
1.0
 70
  1712
 72
     0
 73
     0
 74
     0
  7

 75
     0
147
1.0
148
0.0
149
0.0
100
AcDbLayout
  1
Model
 70
     1
 71
     0
 10
0.0
 20
0.0
 11
420.0
 21
297.0
 12
0.0
 22
0.0
 32
0.0
 14
0.0
 24
0.0
 34
0.0
 15
420.0
 25
297.0
 35
0.0
146
0.0
 13
0.0
 23
0.0
 33
0.0
 16
1.0
 26
0.0
 36
0.0
 17
0.0
 27
1.0
 37
0.0
 76
     0
330
1F
  0
MATERIAL
  5
44B
102
{ACAD_XDICTIONARY
360
44C
102
}
102
{ACAD_REACTORS
330
3C6
102
}
330
3C6
100
AcDbMaterial
  1
ByBlock
 72
     0
 43
0.0008202099737533
 43
0.0
 43
0.0
 43
0.0
 43
0.0
 43
0.0008202099737533
 43
0.0
 43
0.0
 43
0.0
 43
0.0
 43
1.0
 43
0.0
 43
0.0
 43
0.0
 43
0.0
 43
1.0
 77
     0
 47
0.0008202099737533
 47
0.0
 47
0.0
 47
0.0
 47
0.0
 47
0.0008202099737533
 47
0.0
 47
0.0
 47
0.0
 47
0.0
 47
1.0
 47
0.0
 47
0.0
 47
0.0
 47
0.0
 47
1.0
171
     0
 49
0.0008202099737533
 49
0.0
 49
0.0
 49
0.0
 49
0.0
 49
0.0008202099737533
 49
0.0
 49
0.0
 49
0.0
 49
0.0
 49
1.0
 49
0.0
 49
0.0
 49
0.0
 49
0.0
 49
1.0
175
     0
142
0.0008202099737533
142
0.0
142
0.0
142
0.0
142
0.0
142
0.0008202099737533
142
0.0
142
0.0
142
0.0
142
0.0
142
1.0
142
0.0
142
0.0
142
0.0
142
0.0
142
1.0
179
     0
144
0.0008202099737533
144
0.0
144
0.0
144
0.0
144
0.0
144
0.0008202099737533
144
0.0
144
0.0
144
0.0
144
0.0
144
1.0
144
0.0
144
0.0
144
0.0
144
0.0
144
1.0
147
0.0008202099737533
147
0.0
147
0.0
147
0.0
147
0.0
147
0.0008202099737533
147
0.0
147
0.0
147
0.0
147
0.0
147
1.0
147
0.0
147
0.0
147
0.0
147
0.0
147
1.0
  0
MATERIAL
  5
443
102
{ACAD_XDICTIONARY
360
444
102
}
102
{ACAD_REACTORS
330
3C6
102
}
330
3C6
100
AcDbMaterial
  1
ByLayer
 72
     0
 43
0.0008202099737533
 43
0.0
 43
0.0
 43
0.0
 43
0.0
 43
0.0008202099737533
 43
0.0
 43
0.0
 43
0.0
 43
0.0
 43
1.0
 43
0.0
 43
0.0
 43
0.0
 43
0.0
 43
1.0
 77
     0
 47
0.0008202099737533
 47
0.0
 47
0.0
 47
0.0
 47
0.0
 47
0.0008202099737533
 47
0.0
 47
0.0
 47
0.0
 47
0.0
 47
1.0
 47
0.0
 47
0.0
 47
0.0
 47
0.0
 47
1.0
171
     0
 49
0.0008202099737533
 49
0.0
 49
0.0
 49
0.0
 49
0.0
 49
0.0008202099737533
 49
0.0
 49
0.0
 49
0.0
 49
0.0
 49
1.0
 49
0.0
 49
0.0
 49
0.0
 49
0.0
 49
1.0
175
     0
142
0.0008202099737533
142
0.0
142
0.0
142
0.0
142
0.0
142
0.0008202099737533
142
0.0
142
0.0
142
0.0
142
0.0
142
1.0
142
0.0
142
0.0
142
0.0
142
0.0
142
1.0
179
     0
144
0.0008202099737533
144
0.0
144
0.0
144
0.0
144
0.0
144
0.0008202099737533
144
0.0
144
0.0
144
0.0
144
0.0
144
1.0
144
0.0
144
0.0
144
0.0
144
0.0
144
1.0
147
0.0008202099737533
147
0.0
147
0.0
147
0.0
147
0.0
147
0.0008202099737533
147
0.0
147
0.0
147
0.0
147
0.0
147
1.0
147
0.0
147
0.0
147
0.0
147
0.0
147
1.0
  0
MATERIAL
  5
453
102
{ACAD_XDICTIONARY
360
454
102
}
102
{ACAD_REACTORS
330
3C6
102
}
330
3C6
100
AcDbMaterial
  1
Global
 72
     0
 43
0.0008202099737533
 43
0.0
 43
0.0
 43
0.0
 43
0.0
 43
0.0008202099737533
 43
0.0
 43
0.0
 43
0.0
 43
0.0
 43
1.0
 43
0.0
 43
0.0
 43
0.0
 43
0.0
 43
1.0
 77
     0
 47
0.0008202099737533
 47
0.0
 47
0.0
 47
0.0
 47
0.0
 47
0.0008202099737533
 47
0.0
 47
0.0
 47
0.0
 47
0.0
 47
1.0
 47
0.0
 47
0.0
 47
0.0
 47
0.0
 47
1.0
171
     0
 49
0.0008202099737533
 49
0.0
 49
0.0
 49
0.0
 49
0.0
 49
0.0008202099737533
 49
0.0
 49
0.0
 49
0.0
 49
0.0
 49
1.0
 49
0.0
 49
0.0
 49
0.0
 49
0.0
 49
1.0
175
     0
142
0.0008202099737533
142
0.0
142
0.0
142
0.0
142
0.0
142
0.0008202099737533
142
0.0
142
0.0
142
0.0
142
0.0
142
1.0
142
0.0
142
0.0
142
0.0
142
0.0
142
1.0
179
     0
144
0.0008202099737533
144
0.0
144
0.0
144
0.0
144
0.0
144
0.0008202099737533
144
0.0
144
0.0
144
0.0
144
0.0
144
1.0
144
0.0
144
0.0
144
0.0
144
0.0
144
1.0
147
0.0008202099737533
147
0.0
147
0.0
147
0.0
147
0.0
147
0.0008202099737533
147
0.0
147
0.0
147
0.0
147
0.0
147
1.0
147
0.0
147
0.0
147
0.0
147
0.0
147
1.0
  0
MLEADERSTYLE
  5
45B
102
{ACAD_REACTORS
330
3C2
102
}
330
3C2
100
AcDbMLeaderStyle
170
     2
171
     1
172
     0
 90
        2
 40
0.0
 41
0.0
173
     1
 91
-1056964608
340
14
 92
       -2
290
     1
 42
2.0
291
     1
 43
0.36
  3
Standard
 44
4.0
300

342
11
174
     1
178
     6
175
     1
176
     0
 93
-1056964608
 45
4.0
292
     0
297
     0
 46
4.0
 94
-1056964608
 47
1.0
 49
1.0
140
1.0
293
     1
141
0.0
294
     1
177
     0
142
1.0
295
     0
296
     0
143
0.125
1001
ACAD_MLEADERVER
1070
     2
  0
MLINESTYLE
  5
18
102
{ACAD_REACTORS
330
17
102
}
330
17
100
AcDbMlineStyle
  2
STANDARD
 70
     0
  3

 62
   256
 51
90.0
 52
90.0
 71
     2
 49
0.5
 62
   256
  6
BYLAYER
 49
-0.5
 62
   256
  6
BYLAYER
  0
ACDBPLACEHOLDER
  5
F
102
{ACAD_REACTORS
330
E
102
}
330
E
  0
SCALE
  5
3C
102
{ACAD_REACTORS
330
3B
102
}
330
3B
100
AcDbScale
 70
     0
300
1:1
140
1.0
141
1.0
290
     1
1001
ACAD
1000
AcRTDxfName
1000
SCALE
  0
SCALE
  5
3D
102
{ACAD_REACTORS
330
3B
102
}
330
3B
100
AcDbScale
 70
     0
300
1:2
140
1.0
141
2.0
290
     0
1001
ACAD
1000
AcRTDxfName
1000
SCALE
  0
SCALE
  5
3E
102
{ACAD_REACTORS
330
3B
102
}
330
3B
100
AcDbScale
 70
     0
300
1:4
140
1.0
141
4.0
290
     0
1001
ACAD
1000
AcRTDxfName
1000
SCALE
  0
SCALE
  5
3F
102
{ACAD_REACTORS
330
3B
102
}
330
3B
100
AcDbScale
 70
     0
300
1:5
140
1.0
141
5.0
290
     0
1001
ACAD
1000
AcRTDxfName
1000
SCALE
  0
SCALE
  5
40
102
{ACAD_REACTORS
330
3B
102
}
330
3B
100
AcDbScale
 70
     0
300
1:8
140
1.0
141
8.0
290
     0
1001
ACAD
1000
AcRTDxfName
1000
SCALE
  0
SCALE
  5
41
102
{ACAD_REACTORS
330
3B
102
}
330
3B
100
AcDbScale
 70
     0
300
1:10
140
1.0
141
10.0
290
     0
1001
ACAD
1000
AcRTDxfName
1000
SCALE
  0
SCALE
  5
42
102
{ACAD_REACTORS
330
3B
102
}
330
3B
100
AcDbScale
 70
     0
300
1:16
140
1.0
141
16.0
290
     0
1001
ACAD
1000
AcRTDxfName
1000
SCALE
  0
SCALE
  5
43
102
{ACAD_REACTORS
330
3B
102
}
330
3B
100
AcDbScale
 70
     0
300
1:20
140
1.0
141
20.0
290
     0
1001
ACAD
1000
AcRTDxfName
1000
SCALE
  0
SCALE
  5
44
102
{ACAD_REACTORS
330
3B
102
}
330
3B
100
AcDbScale
 70
     0
300
1:30
140
1.0
141
30.0
290
     0
1001
ACAD
1000
AcRTDxfName
1000
SCALE
  0
SCALE
  5
45
102
{ACAD_REACTORS
330
3B
102
}
330
3B
100
AcDbScale
 70
     0
300
1:40
140
1.0
141
40.0
290
     0
1001
ACAD
1000
AcRTDxfName
1000
SCALE
  0
SCALE
  5
46
102
{ACAD_REACTORS
330
3B
102
}
330
3B
100
AcDbScale
 70
     0
300
1:50
140
1.0
141
50.0
290
     0
1001
ACAD
1000
AcRTDxfName
1000
SCALE
  0
SCALE
  5
47
102
{ACAD_REACTORS
330
3B
102
}
330
3B
100
AcDbScale
 70
     0
300
1:100
140
1.0
141
100.0
290
     0
1001
ACAD
1000
AcRTDxfName
1000
SCALE
  0
SCALE
  5
48
102
{ACAD_REACTORS
330
3B
102
}
330
3B
100
AcDbScale
 70
     0
300
2:1
140
2.0
141
1.0
290
     0
1001
ACAD
1000
AcRTDxfName
1000
SCALE
  0
SCALE
  5
49
102
{ACAD_REACTORS
330
3B
102
}
330
3B
100
AcDbScale
 70
     0
300
4:1
140
4.0
141
1.0
290
     0
1001
ACAD
1000
AcRTDxfName
1000
SCALE
  0
SCALE
  5
4A
102
{ACAD_REACTORS
330
3B
102
}
330
3B
100
AcDbScale
 70
     0
300
8:1
140
8.0
141
1.0
290
     0
1001
ACAD
1000
AcRTDxfName
1000
SCALE
  0
SCALE
  5
4B
102
{ACAD_REACTORS
330
3B
102
}
330
3B
100
AcDbScale
 70
     0
300
10:1
140
10.0
141
1.0
290
     0
1001
ACAD
1000
AcRTDxfName
1000
SCALE
  0
SCALE
  5
4C
102
{ACAD_REACTORS
330
3B
102
}
330
3B
100
AcDbScale
 70
     0
300
100:1
140
100.0
141
1.0
290
     0
1001
ACAD
1000
AcRTDxfName
1000
SCALE
  0
SCALE
  5
4D
102
{ACAD_REACTORS
330
3B
102
}
330
3B
100
AcDbScale
 70
     0
300
1/128" = 1'-0"
140
0.0078125
141
12.0
290
     0
1001
ACAD
1000
AcRTDxfName
1000
SCALE
  0
SCALE
  5
4E
102
{ACAD_REACTORS
330
3B
102
}
330
3B
100
AcDbScale
 70
     0
300
1/64" = 1'-0"
140
0.015625
141
12.0
290
     0
1001
ACAD
1000
AcRTDxfName
1000
SCALE
  0
SCALE
  5
4F
102
{ACAD_REACTORS
330
3B
102
}
330
3B
100
AcDbScale
 70
     0
300
1/32" = 1'-0"
140
0.03125
141
12.0
290
     0
1001
ACAD
1000
AcRTDxfName
1000
SCALE
  0
SCALE
  5
50
102
{ACAD_REACTORS
330
3B
102
}
330
3B
100
AcDbScale
 70
     0
300
1/16" = 1'-0"
140
0.0625
141
12.0
290
     0
1001
ACAD
1000
AcRTDxfName
1000
SCALE
  0
SCALE
  5
51
102
{ACAD_REACTORS
330
3B
102
}
330
3B
100
AcDbScale
 70
     0
300
3/32" = 1'-0"
140
0.09375
141
12.0
290
     0
1001
ACAD
1000
AcRTDxfName
1000
SCALE
  0
SCALE
  5
52
102
{ACAD_REACTORS
330
3B
102
}
330
3B
100
AcDbScale
 70
     0
300
1/8" = 1'-0"
140
0.125
141
12.0
290
     0
1001
ACAD
1000
AcRTDxfName
1000
SCALE
  0
SCALE
  5
53
102
{ACAD_REACTORS
330
3B
102
}
330
3B
100
AcDbScale
 70
     0
300
3/16" = 1'-0"
140
0.1875
141
12.0
290
     0
1001
ACAD
1000
AcRTDxfName
1000
SCALE
  0
SCALE
  5
54
102
{ACAD_REACTORS
330
3B
102
}
330
3B
100
AcDbScale
 70
     0
300
1/4" = 1'-0"
140
0.25
141
12.0
290
     0
1001
ACAD
1000
AcRTDxfName
1000
SCALE
  0
SCALE
  5
55
102
{ACAD_REACTORS
330
3B
102
}
330
3B
100
AcDbScale
 70
     0
300
3/8" = 1'-0"
140
0.375
141
12.0
290
     0
1001
ACAD
1000
AcRTDxfName
1000
SCALE
  0
SCALE
  5
56
102
{ACAD_REACTORS
330
3B
102
}
330
3B
100
AcDbScale
 70
     0
300
1/2" = 1'-0"
140
0.5
141
12.0
290
     0
1001
ACAD
1000
AcRTDxfName
1000
SCALE
  0
SCALE
  5
57
102
{ACAD_REACTORS
330
3B
102
}
330
3B
100
AcDbScale
 70
     0
300
3/4" = 1'-0"
140
0.75
141
12.0
290
     0
1001
ACAD
1000
AcRTDxfName
1000
SCALE
  0
SCALE
  5
58
102
{ACAD_REACTORS
330
3B
102
}
330
3B
100
AcDbScale
 70
     0
300
1" = 1'-0"
140
1.0
141
12.0
290
     0
1001
ACAD
1000
AcRTDxfName
1000
SCALE
  0
SCALE
  5
59
102
{ACAD_REACTORS
330
3B
102
}
330
3B
100
AcDbScale
 70
     0
300
1-1/2" = 1'-0"
140
1.5
141
12.0
290
     0
1001
ACAD
1000
AcRTDxfName
1000
SCALE
  0
SCALE
  5
5A
102
{ACAD_REACTORS
330
3B
102
}
330
3B
100
AcDbScale
 70
     0
300
3" = 1'-0"
140
3.0
141
12.0
290
     0
1001
ACAD
1000
AcRTDxfName
1000
SCALE
  0
SCALE
  5
5B
102
{ACAD_REACTORS
330
3B
102
}
330
3B
100
AcDbScale
 70
     0
300
6" = 1'-0"
140
6.0
141
12.0
290
     0
1001
ACAD
1000
AcRTDxfName
1000
SCALE
  0
SCALE
  5
5C
102
{ACAD_REACTORS
330
3B
102
}
330
3B
100
AcDbScale
 70
     0
300
1'-0" = 1'-0"
140
12.0
141
12.0
290
     0
1001
ACAD
1000
AcRTDxfName
1000
SCALE
  0
TABLESTYLE
  5
3C8
102
{ACAD_XDICTIONARY
360
8B2
102
}
102
{ACAD_REACTORS
330
3C1
102
}
330
3C1
100
AcDbTableStyle
  3
Standard
 70
     0
 71
     0
 40
1.5
 41
1.5
280
     0
281
     0
  7
Standard
140
4.5
170
     2
 62
     0
 63
     7
283
     0
274
    -2
284
     1
 64
     0
275
    -2
285
     1
 65
     0
276
    -2
286
     1
 66
     0
277
    -2
287
     1
 67
     0
278
    -2
288
     1
 68
     0
279
    -2
289
     1
 69
     0
  7
Standard
140
6.0
170
     5
 62
     0
 63
     7
283
     0
274
    -2
284
     1
 64
     0
275
    -2
285
     1
 65
     0
276
    -2
286
     1
 66
     0
277
    -2
287
     1
 67
     0
278
    -2
288
     1
 68
     0
279
    -2
289
     1
 69
     0
  7
Standard
140
4.5
170
     5
 62
     0
 63
     7
283
     0
274
    -2
284
     1
 64
     0
275
    -2
285
     1
 65
     0
276
    -2
286
     1
 66
     0
277
    -2
287
     1
 67
     0
278
    -2
288
     1
 68
     0
279
    -2
289
     1
 69
     0
  0
VISUALSTYLE
  5
2F
102
{ACAD_REACTORS
330
2A
102
}
330
2A
100
AcDbVisualStyle
  2
2dWireframe
 70
     4
 71
     0
 72
     2
 73
     0
 90
        0
 40
-0.6
 41
-30.0
 62
     5
 63
     7
 74
     1
 91
        4
 64
     7
 65
   257
 75
     1
175
     1
 42
1.0
 92
        0
 66
   257
 43
1.0
 76
     1
 77
     6
 78
     2
 67
     7
 79
     5
170
     0
171
     0
290
     0
174
     0
 93
        1
 44
0.0
173
     0
291
     0
 45
0.0
1001
ACAD
1000
AcRTDxfName
1000
VISUALSTYLE
1000
AcDbSavedByObjectVersion
1070
     0
  0
VISUALSTYLE
  5
31
102
{ACAD_REACTORS
330
2A
102
}
330
2A
100
AcDbVisualStyle
  2
3D Hidden
 70
     6
 71
     1
 72
     2
 73
     2
 90
        0
 40
-0.6
 41
-30.0
 62
     5
 63
     7
 74
     2
 91
        2
 64
     7
 65
   257
 75
     2
175
     1
 42
40.0
 92
        0
 66
   257
 43
1.0
 76
     1
 77
     6
 78
     2
 67
     7
 79
     3
170
     0
171
     0
290
     0
174
     0
 93
        1
 44
0.0
173
     0
291
     0
 45
0.0
1001
ACAD
1000
AcRTDxfName
1000
VISUALSTYLE
1000
AcDbSavedByObjectVersion
1070
     0
  0
VISUALSTYLE
  5
30
102
{ACAD_REACTORS
330
2A
102
}
330
2A
100
AcDbVisualStyle
  2
3dWireframe
 70
     5
 71
     0
 72
     2
 73
     0
 90
        0
 40
-0.6
 41
-30.0
 62
     5
 63
     7
 74
     1
 91
        4
 64
     7
 65
   257
 75
     1
175
     1
 42
1.0
 92
        0
 66
   257
 43
1.0
 76
     1
 77
     6
 78
     2
 67
     7
 79
     5
170
     0
171
     0
290
     0
174
     0
 93
        1
 44
0.0
173
     0
291
     0
 45
0.0
1001
ACAD
1000
AcRTDxfName
1000
VISUALSTYLE
1000
AcDbSavedByObjectVersion
1070
     0
  0
VISUALSTYLE
  5
32
102
{ACAD_REACTORS
330
2A
102
}
330
2A
100
AcDbVisualStyle
  2
Basic
 70
     7
 71
     1
 72
     0
 73
     1
 90
        0
 40
-0.6
 41
-30.0
 62
     5
 63
     7
 74
     0
 91
        4
 64
     7
 65
   257
 75
     1
175
     1
 42
1.0
 92
        8
 66
     7
 43
1.0
 76
     1
 77
     6
 78
     2
 67
     7
 79
     5
170
     0
171
     0
290
     0
174
     0
 93
        1
 44
0.0
173
     0
291
     1
 45
0.0
1001
ACAD
1000
AcRTDxfName
1000
VISUALSTYLE
1000
AcDbSavedByObjectVersion
1070
     0
  0
VISUALSTYLE
  5
36
102
{ACAD_REACTORS
330
2A
102
}
330
2A
100
AcDbVisualStyle
  2
Brighten
 70
    12
 71
     2
 72
     2
 73
     0
 90
        0
 40
-0.6
 41
-30.0
 62
     5
 63
     7
 74
     1
 91
        4
 64
     7
 65
   257
 75
     1
175
     1
 42
1.0
 92
        8
 66
     7
 43
1.0
 76
     1
 77
     6
 78
     2
 67
     7
 79
     5
170
     0
171
     0
290
     0
174
     0
 93
        1
 44
50.0
173
     0
291
     1
 45
0.0
1001
ACAD
1000
AcRTDxfName
1000
VISUALSTYLE
1000
AcDbSavedByObjectVersion
1070
     0
  0
VISUALSTYLE
  5
3A
102
{ACAD_REACTORS
330
2A
102
}
330
2A
100
AcDbVisualStyle
  2
ColorChange
 70
    16
 71
     2
 72
     2
 73
     3
 90
        0
 40
-0.6
 41
-30.0
 62
     5
 63
     8
 74
     1
 91
        4
 64
     7
 65
   257
 75
     1
175
     1
 42
1.0
 92
        8
 66
     8
 43
1.0
 76
     1
 77
     6
 78
     2
 67
     7
 79
     5
170
     0
171
     0
290
     0
174
     0
 93
        1
 44
0.0
173
     0
291
     1
 45
0.0
1001
ACAD
1000
AcRTDxfName
1000
VISUALSTYLE
1000
AcDbSavedByObjectVersion
1070
     0
  0
VISUALSTYLE
  5
34
102
{ACAD_REACTORS
330
2A
102
}
330
2A
100
AcDbVisualStyle
  2
Conceptual
 70
     9
 71
     3
 72
     2
 73
     0
 90
        0
 40
-0.6
 41
-30.0
 62
     5
 63
     7
 74
     2
 91
        2
 64
     7
 65
   257
 75
     1
175
     1
 42
40.0
 92
        8
 66
     7
 43
1.0
 76
     1
 77
     6
 78
     2
 67
     7
 79
     3
170
     0
171
     0
290
     0
174
     0
 93
        1
 44
0.0
173
     0
291
     0
 45
0.0
1001
ACAD
1000
AcRTDxfName
1000
VISUALSTYLE
1000
AcDbSavedByObjectVersion
1070
     0
  0
VISUALSTYLE
  5
35
102
{ACAD_REACTORS
330
2A
102
}
330
2A
100
AcDbVisualStyle
  2
Dim
 70
    11
 71
     2
 72
     2
 73
     0
 90
        0
 40
-0.6
 41
-30.0
 62
     5
 63
     7
 74
     1
 91
        4
 64
     7
 65
   257
 75
     1
175
     1
 42
1.0
 92
        8
 66
     7
 43
1.0
 76
     1
 77
     6
 78
     2
 67
     7
 79
     5
170
     0
171
     0
290
     0
174
     0
 93
        1
 44
-50.0
173
     0
291
     1
 45
0.0
1001
ACAD
1000
AcRTDxfName
1000
VISUALSTYLE
1000
AcDbSavedByObjectVersion
1070
     0
  0
VISUALSTYLE
  5
39
102
{ACAD_REACTORS
330
2A
102
}
330
2A
100
AcDbVisualStyle
  2
Facepattern
 70
    15
 71
     2
 72
     2
 73
     0
 90
        0
 40
-0.6
 41
-30.0
 62
     5
 63
     7
 74
     1
 91
        4
 64
     7
 65
   257
 75
     1
175
     1
 42
1.0
 92
        8
 66
     7
 43
1.0
 76
     1
 77
     6
 78
     2
 67
     7
 79
     5
170
     0
171
     0
290
     0
174
     0
 93
        1
 44
0.0
173
     0
291
     1
 45
0.0
1001
ACAD
1000
AcRTDxfName
1000
VISUALSTYLE
1000
AcDbSavedByObjectVersion
1070
     0
  0
VISUALSTYLE
  5
2B
102
{ACAD_REACTORS
330
2A
102
}
330
2A
100
AcDbVisualStyle
  2
Flat
 70
     0
 71
     2
 72
     1
 73
     1
 90
        2
 40
-0.6
 41
30.0
 62
     5
 63
     7
 74
     0
 91
        4
 64
     7
 65
   257
 75
     1
175
     1
 42
1.0
 92
        8
 66
     7
 43
1.0
 76
     1
 77
     6
 78
     2
 67
     7
 79
     5
170
     0
171
     0
290
     0
174
     0
 93
       13
 44
0.0
173
     0
291
     1
 45
0.0
1001
ACAD
1000
AcRTDxfName
1000
VISUALSTYLE
1000
AcDbSavedByObjectVersion
1070
     0
  0
VISUALSTYLE
  5
2C
102
{ACAD_REACTORS
330
2A
102
}
330
2A
100
AcDbVisualStyle
  2
FlatWithEdges
 70
     1
 71
     2
 72
     1
 73
     1
 90
        2
 40
-0.6
 41
30.0
 62
     5
 63
     7
 74
     1
 91
        4
 64
     7
 65
   257
 75
     1
175
     1
 42
1.0
 92
        0
 66
   257
 43
1.0
 76
     1
 77
     6
 78
     2
 67
     7
 79
     5
170
     0
171
     0
290
     0
174
     0
 93
       13
 44
0.0
173
     0
291
     1
 45
0.0
1001
ACAD
1000
AcRTDxfName
1000
VISUALSTYLE
1000
AcDbSavedByObjectVersion
1070
     0
  0
VISUALSTYLE
  5
2D
102
{ACAD_REACTORS
330
2A
102
}
330
2A
100
AcDbVisualStyle
  2
Gouraud
 70
     2
 71
     2
 72
     2
 73
     1
 90
        2
 40
-0.6
 41
30.0
 62
     5
 63
     7
 74
     0
 91
        4
 64
     7
 65
   257
 75
     1
175
     1
 42
1.0
 92
        0
 66
     7
 43
1.0
 76
     1
 77
     6
 78
     2
 67
     7
 79
     5
170
     0
171
     0
290
     0
174
     0
 93
       13
 44
0.0
173
     0
291
     1
 45
0.0
1001
ACAD
1000
AcRTDxfName
1000
VISUALSTYLE
1000
AcDbSavedByObjectVersion
1070
     0
  0
VISUALSTYLE
  5
2E
102
{ACAD_REACTORS
330
2A
102
}
330
2A
100
AcDbVisualStyle
  2
GouraudWithEdges
 70
     3
 71
     2
 72
     2
 73
     1
 90
        2
 40
-0.6
 41
30.0
 62
     5
 63
     7
 74
     1
 91
        4
 64
     7
 65
   257
 75
     1
175
     1
 42
1.0
 92
        0
 66
   257
 43
1.0
 76
     1
 77
     6
 78
     2
 67
     7
 79
     5
170
     0
171
     0
290
     0
174
     0
 93
       13
 44
0.0
173
     0
291
     1
 45
0.0
1001
ACAD
1000
AcRTDxfName
1000
VISUALSTYLE
1000
AcDbSavedByObjectVersion
1070
     0
  0
VISUALSTYLE
  5
38
102
{ACAD_REACTORS
330
2A
102
}
330
2A
100
AcDbVisualStyle
  2
Linepattern
 70
    14
 71
     2
 72
     2
 73
     0
 90
        0
 40
-0.6
 41
-30.0
 62
     5
 63
     7
 74
     1
 91
        4
 64
     7
 65
   257
 75
     7
175
     7
 42
1.0
 92
        8
 66
     7
 43
1.0
 76
     1
 77
     6
 78
     2
 67
     7
 79
     5
170
     0
171
     0
290
     0
174
     0
 93
        1
 44
0.0
173
     0
291
     1
 45
0.0
1001
ACAD
1000
AcRTDxfName
1000
VISUALSTYLE
1000
AcDbSavedByObjectVersion
1070
     0
  0
VISUALSTYLE
  5
33
102
{ACAD_REACTORS
330
2A
102
}
330
2A
100
AcDbVisualStyle
  2
Realistic
 70
     8
 71
     2
 72
     2
 73
     0
 90
        0
 40
-0.6
 41
-30.0
 62
     5
 63
     7
 74
     1
 91
        0
 64
     7
 65
   257
 75
     1
175
     1
 42
1.0
 92
        8
 66
     8
 43
1.0
 76
     1
 77
     6
 78
     2
 67
     7
 79
     5
170
     0
171
     0
290
     0
174
     0
 93
       13
 44
0.0
173
     0
291
     0
 45
0.0
1001
ACAD
1000
AcRTDxfName
1000
VISUALSTYLE
1000
AcDbSavedByObjectVersion
1070
     0
  0
VISUALSTYLE
  5
37
102
{ACAD_REACTORS
330
2A
102
}
330
2A
100
AcDbVisualStyle
  2
Thicken
 70
    13
 71
     2
 72
     2
 73
     0
 90
        0
 40
-0.6
 41
-30.0
 62
     5
 63
     7
 74
     1
 91
        4
 64
     7
 65
   257
 75
     1
175
     1
 42
1.0
 92
       12
 66
     7
 43
1.0
 76
     1
 77
     6
 78
     2
 67
     7
 79
     5
170
     0
171
     0
290
     0
174
     0
 93
        1
 44
0.0
173
     0
291
     1
 45
0.0
1001
ACAD
1000
AcRTDxfName
1000
VISUALSTYLE
1000
AcDbSavedByObjectVersion
1070
     0
  0
DICTIONARYVAR
  5
3C0
102
{ACAD_REACTORS
330
3BF
102
}
330
3BF
100
DictionaryVariables
280
     0
  1
1:1
  0
DICTIONARYVAR
  5
8C5
102
{ACAD_REACTORS
330
3BF
102
}
330
3BF
100
DictionaryVariables
280
     0
  1
STANDARD
  0
DICTIONARYVAR
  5
43F
102
{ACAD_REACTORS
330
3BF
102
}
330
3BF
100
DictionaryVariables
280
     0
  1
STANDARD
  0
DICTIONARYVAR
  5
440
102
{ACAD_REACTORS
330
3BF
102
}
330
3BF
100
DictionaryVariables
280
     0
  1
1
  0
DICTIONARYVAR
  5
8C7
102
{ACAD_REACTORS
330
3BF
102
}
330
3BF
100
DictionaryVariables
280
     0
  1
0
  0
DICTIONARYVAR
  5
441
102
{ACAD_REACTORS
330
3BF
102
}
330
3BF
100
DictionaryVariables
280
     0
  1

  0
DICTIONARYVAR
  5
8E7
102
{ACAD_REACTORS
330
3BF
102
}
330
3BF
100
DictionaryVariables
280
     0
  1
80.000000
  0
DICTIONARYVAR
  5
8E6
102
{ACAD_REACTORS
330
3BF
102
}
330
3BF
100
DictionaryVariables
280
     0
  1
5.000000
  0
DICTIONARYVAR
  5
8C6
102
{ACAD_REACTORS
330
3BF
102
}
330
3BF
100
DictionaryVariables
280
     0
  1
127
  0
DICTIONARY
  5
830
330
1E
100
AcDbDictionary
280
     1
281
     1
  3
ACAD_XREC_ROUNDTRIP
360
8EA
  3
ADSK_XREC_LAYOUTTHUMBNAIL
360
831
  0
DICTIONARY
  5
8EB
330
22
100
AcDbDictionary
280
     1
281
     1
  3
ACAD_XREC_ROUNDTRIP
360
8EC
  0
DICTIONARY
  5
44C
330
44B
100
AcDbDictionary
280
     1
281
     1
  3
ACAD_XREC_ROUNDTRIP
360
8EF
  3
BUMPTILE
360
44E
  3
DIFFUSETILE
360
44D
  3
OPACITYTILE
360
451
  3
REFLECTIONTILE
360
450
  3
REFRACTIONTILE
360
452
  3
SPECULARTILE
360
44F
  0
DICTIONARY
  5
444
330
443
100
AcDbDictionary
280
     1
281
     1
  3
ACAD_XREC_ROUNDTRIP
360
8EE
  3
BUMPTILE
360
446
  3
DIFFUSETILE
360
445
  3
OPACITYTILE
360
449
  3
REFLECTIONTILE
360
448
  3
REFRACTIONTILE
360
44A
  3
SPECULARTILE
360
447
  0
DICTIONARY
  5
454
330
453
100
AcDbDictionary
280
     1
281
     1
  3
ACAD_XREC_ROUNDTRIP
360
8F0
  3
BUMPTILE
360
456
  3
DIFFUSETILE
360
455
  3
OPACITYTILE
360
459
  3
REFLECTIONTILE
360
458
  3
REFRACTIONTILE
360
45A
  3
SPECULARTILE
360
457
  0
DICTIONARY
  5
8B2
330
3C8
100
AcDbDictionary
280
     1
281
     1
  3
ACAD_ROUNDTRIP_2008_TABLESTYLE_CELLSTYLEMAP
360
8E8
  3
ACAD_XREC_ROUNDTRIP
360
8ED
  0
XRECORD
  5
8EA
102
{ACAD_REACTORS
330
830
102
}
330
830
100
AcDbXrecord
280
     1
102
SHADEPLOT
 70
     0
102
SHADEPLOTRESLEVEL
 70
     2
102
SHADEPLOTCUSTOMDPI
 70
   300
  0
XRECORD
  5
831
102
{ACAD_REACTORS
330
830
102
}
330
830
100
AcDbXrecord
280
     1
310
28000000B40000007F00000001000800000000004C590000000000000000000000010000000000000000000000FF0000000000000000000000000000000000000000000000000000000000000000000000000000330000006600000099000000CC000000FF00000000330000333300006633000099330000CC330000FF3300
310
0000660000336600006666000099660000CC660000FF66000000990000339900006699000099990000CC990000FF99000000CC000033CC000066CC000099CC0000CCCC0000FFCC000000FF000033FF000066FF000099FF0000CCFF0000FFFF000000003300330033006600330099003300CC003300FF003300003333003333
310
33006633330099333300CC333300FF33330000663300336633006666330099663300CC663300FF66330000993300339933006699330099993300CC993300FF99330000CC330033CC330066CC330099CC3300CCCC3300FFCC330000FF330033FF330066FF330099FF3300CCFF3300FFFF330000006600330066006600660099
310
006600CC006600FF00660000336600333366006633660099336600CC336600FF33660000666600336666006666660099666600CC666600FF66660000996600339966006699660099996600CC996600FF99660000CC660033CC660066CC660099CC6600CCCC6600FFCC660000FF660033FF660066FF660099FF6600CCFF6600
310
FFFF660000009900330099006600990099009900CC009900FF00990000339900333399006633990099339900CC339900FF33990000669900336699006666990099669900CC669900FF66990000999900339999006699990099999900CC999900FF99990000CC990033CC990066CC990099CC9900CCCC9900FFCC990000FF99
310
0033FF990066FF990099FF9900CCFF9900FFFF99000000CC003300CC006600CC009900CC00CC00CC00FF00CC000033CC003333CC006633CC009933CC00CC33CC00FF33CC000066CC003366CC006666CC009966CC00CC66CC00FF66CC000099CC003399CC006699CC009999CC00CC99CC00FF99CC0000CCCC0033CCCC0066CC
310
CC0099CCCC00CCCCCC00FFCCCC0000FFCC0033FFCC0066FFCC0099FFCC00CCFFCC00FFFFCC000000FF003300FF006600FF009900FF00CC00FF00FF00FF000033FF003333FF006633FF009933FF00CC33FF00FF33FF000066FF003366FF006666FF009966FF00CC66FF00FF66FF000099FF003399FF006699FF009999FF00CC
310
99FF00FF99FF0000CCFF0033CCFF0066CCFF0099CCFF00CCCCFF00FFCCFF0000FFFF0033FFFF0066FFFF0099FFFF00CCFFFF00FFFFFF00000000000D0D0D001A1A1A00282828003535350043434300505050005D5D5D006B6B6B00787878008686860093939300A1A1A100AEAEAE00BBBBBB00C9C9C900D6D6D600E4E4E400
310
F1F1F100FFFFFF0000000000000000000000000000000000000000000000000000000000000000000000000000000000F5F5F5F5F5F5F5F5F5F5F5F5F5F5F5F5F5F5F5F5F5F5F5F5F5F5F5F5F5F5F5F5F5F5F5F5F5F5F5F5F5F5F5F5F5F5F5F5F5F5F5F5F5F5F5F5F5F5F5F5F5F5F5F5F5F5F5F5F5F5F5F5F5F5F5F5F5F5F5
310
F5F5F5F5F5F5F5F5F5F5F5F5F5F5F5F5F5F5F5F5F5F5F5F5F5F5F5F5F5F5F5F5F5F5F5F5F5F5F5F5F5F5F5F5F5F5F5F5F5F5F5F5F5F5F5F5F5F5F5F5F5F5F5F5F5F5F5F5F5F5F5F5F5F5F5F5F5F5F5F5F5F5F5F5F5F5F5F5F5F5F5F5F5F5F5F5F5F5F5F5F5F5E2E2E2E2E2E2E2E2E2E2E2E2E2E2E2E2E2E2E2E2E2E2E2E2E2
310
E2E2E2E2E2E2E2E2E2E2E2E2E2E2E2E2E2E2E2E2E2E2E2E2E2E2E2E2E2E2E2E2E2E2E2E2E2E2E2E2E2E2E2E2E2E2E2E2E2E2E2E2E2E2E2E2E2E2E2E2E2E2E2E2E2E2E2E2E2E2E2E2E2E2E2E2E2E2E2E2E2E2E2E2E2E2E2E2E2E2E2E2E2E2E2E2E2E2E2E2E2E2E2E2E2E2E2E2E2E2E2E2E2E2E2E2E2E2E2E2E2E2E2E2E2E2E2
310
E2E2E2E2E2E2E2E2E2E2E2E2E2E2E2E2E2E2E2E2E2E2E2E2E2E2F5F5E2F5F5F5F5F5F5F5F5F5E2E2E2E2E2E2E2E2E2F5F5F5F5F5F5F5F5F5F5F5F5F5F5F5F5E2E2E2E2E2E2E2E2E2F5F5F5F5F5F5F5F5F5F5F5F5F5F5F5F5E2E2E2E2E2E2E2E2E2F5F5F5F5F5F5F5F5F5F5F5F5F5F5F5F5E2E2E2E2E2E2E2E2E2F5F5F5F5F5
310
F5F5F5F5F5F5F5F5F5F5F5E2E2E2E2E2E2E2E2E2F5F5F5F5F5F5F5F5F5F5F5F5F5F5F5F5E2E2E2E2E2E2E2E2E2F5F5F5F5F5F5F5F5F5F5F5F5F5F5F5F5E2E2E2E2E2E2E2E2E2F5F5F5F5F5F5F5F5E2F5F5E2F5E2E2E2E2E2E2E2E2E2E2E2E2E2E2E2E2E2E2E2E2E2E2E2E2E2E2E2E2E2E2E2E2E2E2E2E2E2E2E2E2E2E2E2E2
310
E2E2E2E2E2E2E2E2E2E2E2E2E2E2E2E2E2E2E2E2E2E2E2E2E2E2E2E2E2E2E2E2E2E2E2E2E2E2E2E2E2E2E2E2E2E2E2E2E2E2E2E2E2E2E2E2E2E2E2E2E2E2E2E2E2E2E2E2E2E2E2E2E2E2E2E2E2E2E2E2E2E2E2E2E2E2E2E2E2E2E2E2E2E2E2E2E2E2E2E2E2E2E2E2E2E2E2E2E2E2E2E2E2E2E2E2E2E2E2E2E2E2E2E2E2E2E2
310
E2E2E2F5E2F5F5E2F5E2E2E2E2E2E2E2E2E2E2E2E2E2E2E2E2E2E2E2E2E2E2E2E2E2E2E2E2E2E2E2E2E2E2E2E2E2E2E2E2E2E2E2E2E2E2E2E2E2E2E2E2E2E2E2E2E2E2E2E2E2E2E2E2E2E2E2E2E2E2E2E2E2E2E2E2E2E2E2E2E2E2E2E2E2E2E2E2E2E2E2E2E2E2E2E2E2E2E2E2E2E2E2E2E2E2E2E2E2E2E2E2E2E2E2E2E2E2
310
E2E2E2E2E2E2E2E2E2E2E2E2E2E2E2E2E2E2E2E2E2E2E2E2E2E2E2E2E2E2E2E2E2E2E2E2E2E2E2E2E2E2E2E2E2E2E2E2E2E2E2E2E2E2E2E2F5E2F5F5E2F5E2E2E2F5F5F5F5F5F5F5F5F5F5F5F5F5F5F5F5F5F5F5F5F5F5F5F5F5F5F5F5F5F5F5F5F5F5F5F5F5F5F5F5F5F5F5F5F5F5F5F5F5F5F5F5F5F5F5F5F5F5F5F5F5F5
310
F5F5F5F5F5F5F5F5F5F5F5F5F5F5F5F5F5F5F5F5F5F5F5F5F5F5F5F5F5F5F5F5F5F5F5F5F5F5F5F5F5F5F5F5F5F5F5F5F5F5F5F5F5F5F5F5F5F5F5F5F5F5F5F5F5F5F5F5F5F5F5F5F5F5F5F5F5F5F5F5F5F5F5F5F5F5F5F5F5F5F5F5F5F5F5F5F5F5F5F5F5F5F5F5F5F5F5F5E2F5E2F5F5E2F5E2E2E2F5E2E2E2E2E2E2E2E2
310
E2E2E2E2E2E2E2E2E2E2E2E2E2E2E2E2E2E2E2E2E2E2E2E2E2E2E2E2E2E2E2E2E2E2E2E2E2E2E2E2E2E2E2E2E2E2E2E2E2E2E2E2E2E2E2E2E2E2E2E2E2E2E2E2E2E2E2E2E2E2E2E2E2E2E2E2E2E2E2E2E2E2E2E2E2E2E2E2E2E2E2E2E2E2E2E2E2E2E2E2E2E2E2E2E2E2E2E2E2E2E2E2E2E2E2E2E2E2E2E2E2E2E2E2E2E2E2
310
E2E2E2E2E2E2E2E2E2E2E2E2E2E2E2E2E2E2E2E2E2E2E2E2E2E2E2E2E2E2E2E2E2F5E2F5E2F5F5E2F5E2E2E2F5E2E2E2E2E2E2E2E2E2E2E2E2E2E2E2E2E2E2E2E2E2E2E2E2E2E2E2E2E2E2E2E2E2E2E2E2E2E2E2E2E2E2E2E2E2E2E2E2E2E2E2E2E2E2E2E2E2E2E2E2E2E2E2E2E2E2E2E2E2E2E2E2E2E2E2E2E2E2E2E2E2E2
310
E2E2E2E2E2E2E2E2E2E2E2E2E2E2E2E2E2E2E2E2E2E2E2E2E2E2E2E2E2E2E2E2E2E2E2E2E2E2E2E2E2E2E2E2E2E2E2E2E2E2E2E2E2E2E2E2E2E2E2E2E2E2E2E2E2E2E2E2E2E2E2E2E2E2E2E2E2E2E2E2E2E2E2E2E2E2F5E2F5E2F5F5E2F5E2E2E2F5E2E2E2E2E2E2E2E2E2E2E2E2E2E2E2E2E2E2E2E2E2E2E2E2E2E2E2E2E2
310
E2E2E2E2E2E2E2E2E2E2E2E2E2E2E2E2E2E2E2E2E2E2E2E2E2E2E2E2E2E2E2E2E2E2E2E2E2E2E2E2E2E2E2E2E2E2E2E2E2E2E2E2E2E2E2E2E2E2E2E2E2E2E2E2E2E2E2E2E2E2E2E2E2E2E2E2E2E2E2E2E2E2E2E2E2E2E2E2E2E2E2E2E2E2E2E2E2E2E2E2E2E2E2E2E2E2E2E2E2E2E2E2E2E2E2E2E2E2E2E2E2E2E2E2E2E2E2
310
E2E2E2E2E2E2E2E2E2E2E2E2F5E2F5E2F5F5E2F5E2E2E2F5E2E2E2E2E2E2E2E2E2E2E2E2E2E2E2E2E2E2E2E2E2E2E2E2E2E2E2E2E2E2E2E2E2E2E2E2E2E2E2E2E2E2E2E2E2E2E2E2E2E2E2E2E2E2E2E2E2E2E2E2E2E2E2E2E2E2E2E2E2E2E2E2E2E2E2E2E2E2E2E2E2E2E2E2E2E2E2E2E2E2E2E2E2E2E2E2E2E2E2E2E2E2E2
310
E2E2E2E2E2E2E2E2E2E2E2E2E2E2E2E2E2E2E2E2E2E2E2E2E2E2E2E2E2E2E2E2E2E2E2E2E2E2E2E2E2E2E2E2E2E2E2E2E2E2E2E2E2E2E2E2E2E2E2E2E2E2E2E2E2F5E2F5E2F5F5E2E2E2E2E2F5E2E2E2E2E2E2E2E2E2E2E2E2E2E2E2E2E2E2E2E2E2E2E2E2E2E2E2E2E2E2E2E2E2E2E2E2E2E2E2E2E2E2E2E2E2E2E2E2E2E2
310
E2E2E2E2E2E2E2E2E2E2E2E2E2E2E2E2E2E2E2E2E2E2E2E2E2E2E2E2E2E2E2E2E2E2E2E2E2E2E2E2E2E2E2E2E2E2E2E2E2E2E2E2E2E2E2E2E2E2E2E2E2E2E2E2E2E2E2E2E2E2E2E2E2E2E2E2E2E2E2E2E2E2E2E2E2E2E2E2E2E2E2E2E2E2E2E2E2E2E2E2E2E2E2E2E2E2E2E2E2E2E2E2E2E2E2E2E2E2F5E2E2E2F5F5E2E2E2
310
E2E2F5E2E2E2E2E2E2E2E2E2E2E2E2E2E2E2E2E2E2E2E2E2E2E2E2E2E2E2E2E2E2E2E2E2E2E2E2E2E2E2E2E2E2E2E2E2E2E2E2E2E2E2E2E2E2E2E2E2E2E2E2E2E2E2E2E2E2E2E2E2E2E2E2E2E2E2E2E2E2E2E2E2E2E2E2E2E2E2E2E2E2E2E2E2E2E2E2E2E2E2E2E2E2E2E2E2E2E2E2E2E2E2E2E2E2E2E2E2E2E2E2E2E2E2E2
310
E2E2E2E2E2E2E2E2E2E2E2E2E2E2E2E2E2E2E2E2E2E2F5F5F5F5F5F5E2F5E2F5F5F5F5E2F5F5E2E2E2E2E2E2F5E2E2E2F5F5E2E2E2E2E2F5E2E2E2E2E2E2E2E2E2E2E2E2E2E2E2E2E2E2E2E2E2E2E2E2E2E2E2E2E2E2E2E2E2E2E2E2E2E2E2E2E2E2E2E2E2E2E2E2E2E2E2E2E2E2E2E2E2E2E2E2E2E2E2E2E2E2E2E2E2E2E2
310
E2E2E2E2E2E2E2E2E2E2E2E2E2E2E2E2E2E2E2E2E2E2E2E2E2E2E2E2E2E2E2E2E2E2E2E2E2E2E2E2E2E2E2E2E2E2E2E2E2E2E2E2E2E2E2E2E2E2E2E2E2E2E2E2E2E2E2E2E2E2E2E2E2E2E2F5F5F5F5F5F5E2F5E2F5F5F5F5E2F5F5E2E2E2E2E2E2F5E2E2E2F5F5E2E2E2E2E2F5E2E2E2E2E2E2E2E2E2E2E2E2E2E2E2E2E2E2
310
E2E2E2E2E2E2E2E2E2E2E2E2E2E2E2E2E2E2E2E2E2E2E2E2E2E2E2E2E2E2E2E2E2E2E2E2E2E2E2E2E2E2E2E2E2E2E2E2E2E2E2E2E2E2E2E2E2E2E2E2E2E2E2E2E2E2E2E2E2E2E2E2E2E2E2E2E2E2E2E2E2E2E2E2E2E2E2E2E2E2E2E2E2E2E2E2E2E2E2E2E2E2E2E2E2E2E2E2E2E2E2E2E2E2E2E2E2E2E2E2E2E2E2E2E2E2E2
310
E2F5F5F5F5F5F5E2F5E2F5F5F5F5F5F5F5E2E2E2E2E2E2F5E2E2E2F5F5E2E2E2E2E2F5E2E2E2E2E2E2E2E2E2E2E2E2E2E2E2E2E2E2E2E2E2E2E2E2E2E2E2E2E2E2E2E2E2E2E2E2E2E2E2E2E2E2E2E2E2E2E2E2E2E2E2E2E2E2E2E2E2E2E2E2E2E2E2E2E2E2E2E2E2E2E2E2E2E2E2E2E2E2E2E2E2E2E2E2E2E2E2E2E2E2E2E2
310
E2E2E2E2E2E2E2E2E2E2E2E2E2E2E2E2E2E2E2E2E2E2E2E2E2E2E2E2E2E2E2E2E2E2E2E2E2E2E2E2E2E2E2E2E2E2E2E2E2E2E2E2E2E2F5F5F5F5F5E2E2E2E2E2E2E2E2E2E2E2E2E2E2E2E2E2F5E2E2E2F5F5E2E2E2E2E2F5E2E2E2E2E2E2E2E2E2E2E2E2E2E2E2E2E2E2E2E2E2E2E2E2E2E2E2E2E2E2E2E2E2E2E2E2E2E2E2
310
E2E2E2E2E2E2E2E2E2E2E2E2E2E2E2E2E2E2E2E2E2E2E2E2E2E2E2E2E2E2E2E2E2E2E2E2E2E2E2E2E2E2E2E2E2E2E2E2E2E2E2E2E2E2E2E2E2E2E2E2E2E2E2E2E2E2E2E2E2E2E2E2E2E2E2E2E2E2E2E2E2E2E2E2E2E2E2E2E2E2E2E2E2E2E2E2E2E2E2E2E2E2E2E2E2E2E2E2E2E2E2E2E2E2E2E2E2E2E2E2E2E2E2E2E2E2E2
310
E2E2F5E2E2E2F5F5E2E2E2E2E2F5E2E2E2E2E2E2E2E2E2E2E2E2E2E2E2E2E2E2E2E2E2E2E2E2E2E2E2E2E2E2E2E2E2E2E2E2E2E2E2E2E2E2E2E2E2E2E2E2E2E2E2E2E2E2E2E2E2E2E2E2E2E2E2E2E2E2E2E2E2E2E2E2E2E2E2E2E2E2E2E2E2E2E2E2E2E2E2E2E2E2E2E2E2E2E2E2E2E2E2E2E2E2E2E2E2E2E2E2E2E2E2E2E2
310
E2E2E2E2E2E2E2E2E2E2E2E2E2E2E2E2E2E2E2E2E2E2E2E2E2E2E2E2E2E2E2E2E2E2E2E2E2E2E2E2E2E2E2E2E2E2E2E2E2E2E2E2E2E2E2F5E2E2E2F5F5E2E2E2E2E2F5E2E2E2E2E2E2E2E2E2E2E2E2E2E2E2E2E2E2E2E2E2E2E2E2E2E2E2E2E2E2E2E2E2E2E2E2E2E2E2E2E2E2E2E2E2E2E2E2E2E2E2E2E2E2E2E2E2E2E2E2
310
E2E2E2E2E2E2E2E2E2E2E2E2E2E2E2E2E2E2E2E2E2E2E2E2E2E2E2E2E2E2E2E2E2E2E2E2E2E2E2E2E2E2E2E2E2E2E2E2E2E2E2E2E2E2E2E2E2E2E2E2E2E2E2E2E2E2E2E2E2E2E2E2E2E2E2E2E2E2E2E2E2E2E2E2E2E2E2E2E2E2E2E2E2E2E2E2E2E2E2E2E2E2E2E2E2E2E2E2F5E2E2E2F5F5E2E2E2E2E2F5E2E2E2E2E2E2E2
310
E2E2E2E2E2E2E2E2E2E2E2E2E2E2E2E2E2E2E2E2E2E2E2E2E2E2E2E2E2E2E2E2E2E2E2E2E2E2E2E2E2E2E2E2E2E2E2E2E2E2E2E2E2E2E2E2E2E2E2E2E2E2E2E2E2E2E2E2E2E2E2E2E2E2E2E2E2E2E2E2E2E2E2E2E2E2E2E2E2E2E2E2E2E2E2E2E2E2E2E2E2E2E2E2E2E2E2E2E2E2E2E2E2E2E2E2E2E2E2E2E2E2E2E2E2E2E2
310
E2E2E2E2E2E2E2E2E2E2E2E2E2E2E2E2E2E2E2E2E2E2E2E2E2E2E2E2E2E2E2E2E2E2F5E2E2E2F5F5E2F5E2E2E2F5E2E2E2E2E2E2E2E2E2E2E2E2E2E2E2E2E2E2E2E2E2E2E2E2E2E2E2E2E2E2E2E2E2E2E2E2E2E2E2E2E2E2E2E2E2E2E2E2E2E2E2E2E2E2E2E2E2E2E2E2E2E2E2E2E2E2E2E2E2E2E2E2E2E2E2E2E2E2E2E2E2
310
E2E2E2E2E2E2E2E2E2E2E2E2E2E2E2E2E2E2E2E2E2E2E2E2E2E2E2E2E2E2E2E2E2E2E2E2E2E2E2E2E2E2E2E2E2E2E2E2E2E2E2E2E2E2E2E2E2E2E2E2E2E2E2E2E2E2E2E2E2E2E2E2E2E2E2E2E2E2E2E2E2E2E2E2E2E2E2F5E2F5E2F5F5E2F5E2E2E2F5E2E2E2E2E2E2E2E2E2E2E2E2E2E2E2E2E2E2E2E2E2E2E2E2E2E2E2E2
310
E2E2E2E2E2E2E2E2E2E2E2E2E2E2E2E2E2E2E2E2E2E2E2E2E2E2E2E2E2E2E2E2E2E2E2E2E2E2E2E2E2E2E2E2E2E2E2E2E2E2E2E2E2E2E2E2E2E2E2E2E2E2E2E2E2E2E2E2E2E2E2E2E2E2E2E2E2E2E2E2E2E2E2E2E2E2E2E2E2E2E2E2E2E2E2E2E2E2E2E2E2E2E2E2E2E2E2E2E2E2E2E2E2E2E2E2E2E2E2E2E2E2E2E2E2E2E2
310
E2E2E2E2E2E2E2E2E2E2E2E2E2F5E2F5E2F5F5E2F5E2E2E2F5E2E2E2E2E2E2E2E2E2E2E2E2E2E2E2E2E2E2E2E2E2E2E2E2E2E2E2E2E2E2E2E2E2E2E2E2E2E2E2E2E2E2E2E2E2E2E2E2E2E2E2E2E2E2E2E2E2E2E2E2E2E2E2E2E2E2E2E2E2E2E2E2E2E2E2E2E2E2E2E2E2E2E2E2E2E2E2E2E2E2E2E2E2E2E2E2E2E2E2E2E2E2
310
E2E2E2E2E2E2E2E2E2E2E2E2E2E2E2E2E2E2E2E2E2E2E2E2E2E2E2E2E2E2E2E2E2E2E2E2E2E2E2E2E2E2E2E2E2E2E2E2E2E2E2E2E2E2E2E2E2E2E2E2E2E2E2E2E2E2F5E2F5E2F5F5E2F5E2E2E2F5E2E2E2E2E2E2E2E2E2E2E2E2E2E2E2E2E2E2E2E2E2E2E2E2E2E2E2E2E2E2E2E2E2E2E2E2E2E2E2E2E2E2E2E2E2E2E2E2E2
310
E2E2E2E2E2E2E2E2E2E2E2E2E2E2E2E2E2E2E2E2E2E2E2E2E2E2E2E2E2E2E2E2E2E2E2E2E2E2E2E2E2E2E2E2E2E2E2E2E2E2E2E2E2E2E2E2E2E2E2E2E2E2E2E2E2E2E2E2E2E2E2E2E2E2E2E2E2E2E2E2E2E2E2E2E2E2E2E2E2E2E2E2E2E2E2E2E2E2E2E2E2E2E2E2E2E2E2E2E2E2E2E2E2E2E2E2E2E2E2F5E2F5E2F5F5E2F5
310
E2E2E2F5E2E2E2E2E2E2E2E2E2E2E2E2E2E2E2E2E2E2E2E2E2E2E2E2E2E2E2E2E2E2E2E2E2E2E2E2E2E2E2E2E2E2E2E2E2E2E2E2E2E2E2E2E2E2E2E2E2E2E2E2E2E2E2E2E2E2E2E2E2E2E2E2E2E2E2E2E2E2E2E2E2E2E2E2E2E2E2E2E2E2E2E2E2E2E2E2E2E2E2E2E2E2E2E2E2E2E2E2E2E2E2E2E2E2E2E2E2E2E2E2E2E2E2
310
E2E2E2E2E2E2E2E2E2E2E2E2E2E2E2E2E2E2E2E2E2E2E2E2E2E2E2E2E2E2E2E2E2E2E2E2E2E2E2E2E2E2E2E2E2F5E2F5E2F5F5E2F5E2E2E2F5E2E2E2E2E2E2E2E2E2E2E2E2E2E2E2E2E2E2E2E2E2E2E2E2E2E2E2E2E2E2E2E2E2E2E2E2E2E2E2E2E2E2E2E2E2E2E2E2E2E2E2E2E2E2E2E2E2E2E2E2E2E2E2E2E2E2E2E2E2E2
310
E2E2E2E2E2E2E2E2E2E2E2E2E2E2E2E2E2E2E2E2E2E2E2E2E2E2E2E2E2E2E2E2E2E2E2E2E2E2E2E2E2E2E2E2E2E2E2E2E2E2E2E2E2E2E2E2E2E2E2E2E2E2E2E2E2E2E2E2E2E2E2E2E2E2E2E2E2E2E2E2E2E2E2E2E2E2E2E2E2E2E2E2E2E2E2E2E2E2F5E2F5E2F5F5E2F5E2E2E2F5E2E2E2E2E2E2E2E2E2E2E2E2E2E2E2E2E2
310
E2E2E2E2E2E2E2E2E2E2E2E2E2E2E2E2E2E2E2E2E2E2E2E2E2E2E2E2E2E2E2E2E2E2E2E2E2E2E2E2E2E2E2E2E2E2E2E2E2E2E2E2E2E2E2E2E2E2E2E2E2E2E2E2E2E2E2E2E2E2E2E2E2E2E2E2E2E2E2E2E2E2E2E2E2E2E2E2E2E2E2E2E2E2E2E2E2E2E2E2E2E2E2E2E2E2E2E2E2E2E2E2E2E2E2E2E2E2E2E2E2E2E2E2E2E2E2
310
E2E2E2E2E2E2E2E2E2E2E2E2E2E2E2E2E2E2E2E2E2E2E2E2F5E2F5E2F5F5E2F5E2E2E2F5E2E2E2E2E2E2E2E2E2E2E2E2E2E2E2E2E2E2E2E2E2E2E2E2E2E2E2E2E2E2E2E2E2E2F5F5F5F5F5F5F5F5E2E2E2E2E2E2E2E2E2E2E2E2E2E2E2E2E2E2E2E2E2E2E2F5F5F5F5F5F5F5E2E2E2E2E2E2E2E2E2E2E2E2E2E2E2E2E2E2E2
310
E2E2E2E2E2E2E2E2E2E2E2E2F5F5F5F5F5F5F5E2E2E2E2E2E2E2E2E2E2E2E2E2E2E2E2E2E2E2E2F5F5F5F5F5F5F5E2E2E2E2E2E2E2E2E2E2E2E2E2E2E2E2E2E2E2E2E2E2E2E2E2E2E2E2E2E2E2F5E2F5E2F5F5E2F5E2E2E2F5E2E2E2E2E2E2E2E2E2E2E2E2E2E2E2E2E2E2E2E2E2E2E2E2E2E2E2E2E2E2E2E2E2E2E2F5F5F5
310
F5F5F5F5E2E2E2E2E2E2E2E2E2E2E2E2E2E2E2E2E2E2E2E2E2E2E2F5F5F5F5F5F5F5E2E2E2E2E2E2E2E2E2E2E2E2E2E2E2E2E2E2E2E2E2E2E2E2E2E2E2E2E2E2E2F5F5F5F5F5F5F5E2E2E2E2E2E2E2E2E2E2E2E2E2E2E2E2E2E2E2E2F5F5F5F5F5F5F5E2E2E2E2E2E2E2E2E2E2E2E2E2E2E2E2E2E2E2E2E2E2E2E2E2E2E2E2
310
E2E2E2F5E2F5E2F5F5E2F5E2E2E2F5E2E2E2E2E2E2E2E2E2E2E2E2E2E2E2E2E2E2E2E2E2E2E2E2E2E2E2E2E2E2E2E2E2E2E2E2F5F5F5F5F5E2E2E2E2E2E2E2E2E2E2E2E2E2E2E2E2E2E2E2E2E2E2E2E2F5F5F5F5F5F5E2E2E2E2E2E2E2E2E2E2E2E2E2E2E2E2E2E2E2E2E2E2E2E2E2E2E2E2E2E2E2E2E2F5F5F5F5F5E2E2E2
310
E2E2E2E2E2E2E2E2F5E2E2E2E2E2E2E2E2E2E2F5F5F5F5F5E2E2E2E2E2E2E2E2E2E2E2E2E2E2E2E2E2E2E2E2E2E2E2E2E2E2E2E2E2E2E2E2F5E2F5E2F5F5E2F5E2E2E2F5E2E2E2E2E2E2E2E2E2E2E2E2E2E2E2E2E2E2E2E2E2E2E2E2E2E2E2E2E2E2E2F5F5F5F5F5F5F5F5F5F5F5E2E2E2E2E2E2E2E2E2E2E2E2E2E2E2E2E2
310
E2E2E2E2E2F5F5F5F5F5F5F5E2E2E2E2E2E2E2E2E2E2E2E2E2E2E2E2E2E2E2E2E2E2E2E2E2E2E2E2E2E2E2E2E2F5F5F5F5F5E2E2F5F5F5F5E2E2E2F5F5F5F5E2E2E2E2E2E2E2E2E2F5F5F5F5F5E2E2E2E2E2E2E2E2E2E2E2E2E2E2E2E2E2E2E2E2E2E2E2E2E2E2E2E2E2E2E2E2F5E2F5E2F5F5E2F5E2E2E2F5E2E2E2E2E2E2
310
E2E2E2E2E2E2E2E2E2E2E2E2E2E2E2E2E2E2E2E2E2E2E2E2E2F5F5F5F5F5F5E2E2E2F5F5E2E2E2E2E2E2E2E2E2E2E2E2E2E2E2E2E2E2E2E2E2E2F5F5F5E2E2E2F5E2E2E2E2E2E2E2E2E2E2E2E2E2E2E2E2E2E2E2E2E2E2E2E2E2E2E2E2E2E2E2E2E2F5E2E2E2F5F5F5F5F5F5F5F5F5F5F5F5F5F5F5F5F5F5F5F5F5F5F5F5E2
310
E2E2F5E2E2E2E2E2E2E2E2E2E2E2E2E2E2E2E2E2E2E2E2E2E2E2E2E2E2E2E2E2E2E2E2F5E2F5E2F5F5E2F5E2E2E2F5E2E2E2E2E2E2E2E2E2E2E2E2E2E2E2E2E2E2E2E2E2E2E2E2E2E2E2E2E2E2E2E2E2E2E2E2F5E2E2E2F5F5F5F5F5F5F5F5F5F5F5F5F5F5F5F5F5F5F5F5F5F5F5F5F5F5F5E2E2E2F5E2E2E2E2E2E2E2E2E2
310
E2E2E2E2E2E2E2E2E2E2E2E2E2E2E2E2E2E2E2E2E2E2E2E2F5E2E2E2F5E2E2E2E2E2E2E2E2E2E2E2E2E2E2E2E2E2E2E2E2E2E2F5E2E2E2F5E2E2E2E2E2E2E2E2E2E2E2E2E2E2E2E2E2E2E2E2E2E2E2E2E2E2E2E2E2E2E2E2F5E2F5E2F5F5E2F5E2E2E2F5E2E2E2E2E2E2E2E2E2E2E2E2E2E2E2E2E2E2E2E2E2E2E2E2E2E2E2
310
E2E2E2E2E2E2E2E2E2F5E2E2E2F5E2E2E2E2E2E2E2E2E2E2E2E2E2E2E2E2E2E2E2E2E2E2E2E2E2F5E2E2E2F5E2E2E2E2E2E2E2E2E2E2E2E2E2E2E2E2E2E2E2E2E2E2E2E2E2E2E2E2E2E2E2E2E2F5E2E2E2F5E2E2E2E2E2E2E2E2E2E2E2E2E2E2E2E2E2E2E2E2E2E2F5E2E2E2F5E2E2E2E2E2E2E2E2E2E2E2E2E2E2E2E2E2E2
310
E2E2E2E2E2E2E2E2E2E2E2E2E2E2F5E2F5E2F5F5E2F5E2E2E2F5E2E2E2E2E2E2E2E2E2E2E2E2E2E2E2E2E2E2E2E2E2E2E2E2E2E2E2E2E2E2E2E2E2E2E2E2F5F5F5F5F5F5F5F5F5F5F5F5F5F5F5F5F5F5F5F5F5F5F5F5F5F5F5F5F5F5F5F5F5F5F5E2E2E2E2E2E2E2E2E2E2E2E2E2E2E2E2E2E2E2E2E2E2E2E2E2E2E2E2E2E2
310
E2E2E2F5F5F5F5F5F5F5F5F5F5F5F5F5F5F5F5F5F5F5F5F5F5F5F5F5F5F5F5F5F5F5F5F5E2E2E2E2E2E2E2E2E2E2E2E2E2E2E2E2E2E2E2E2E2E2E2E2E2E2E2E2E2E2E2F5E2F5E2F5F5E2F5E2E2E2F5E2E2E2E2E2E2E2E2E2E2E2E2E2E2E2E2E2E2E2E2E2E2E2E2E2E2E2E2E2E2E2E2E2E2E2E2E2F5F5F5F5E2F5F5F5F5E2E2
310
E2F5F5F5F5F5F5E2F5F5F5F5E2E2E2E2E2E2F5F5F5F5E2E2E2E2E2E2E2E2E2E2E2E2E2E2E2E2E2E2E2E2E2E2E2E2E2E2E2E2E2E2E2E2E2E2F5F5E2E2E2E2E2E2E2E2E2E2F5F5F5E2E2F5F5F5E2E2E2E2E2E2E2E2E2E2F5F5F5E2E2E2E2E2E2E2E2E2E2E2E2E2E2E2E2E2E2E2E2E2E2E2E2E2E2E2E2E2E2E2F5E2F5E2F5F5E2
310
E2E2E2E2F5E2E2E2E2E2E2E2E2E2E2E2E2E2E2E2E2E2E2E2E2E2E2E2E2E2E2E2E2E2E2E2E2E2E2F5F5F5F5F5F5F5F5F5F5F5F5F5F5F5F5F5F5F5F5F5F5F5F5F5F5F5F5F5F5F5F5F5F5F5F5F5F5F5E2E2E2E2E2E2E2E2E2E2E2E2E2E2E2E2E2E2E2E2E2E2E2E2E2E2E2E2F5F5F5F5F5F5F5F5F5F5F5F5F5F5F5F5F5F5F5F5F5
310
F5F5F5F5F5F5F5F5F5F5F5F5F5F5F5F5F5E2E2E2E2E2E2E2E2E2E2E2E2E2E2E2E2E2E2E2E2E2E2E2E2E2E2E2E2E2F5E2E2E2F5F5E2E2E2E2E2F5E2E2E2E2E2E2E2E2E2E2E2E2E2E2E2E2E2E2E2E2E2E2E2E2E2E2E2E2E2E2E2E2E2E2F5E2E2E2E2E2E2E2E2E2E2E2E2E2E2E2E2E2E2E2E2E2E2E2E2E2E2E2E2E2E2E2E2E2E2
310
E2E2E2F5E2E2E2E2E2E2E2E2E2E2E2E2E2E2E2E2E2E2E2E2E2E2E2E2E2E2E2E2F5E2E2E2E2E2E2E2E2E2E2E2E2E2E2E2E2E2E2E2E2E2E2E2E2E2E2E2E2E2E2E2E2E2E2E2E2F5E2E2E2E2E2E2E2E2E2E2E2E2E2E2E2E2E2E2E2E2E2E2E2E2E2E2E2E2E2F5E2E2E2F5F5E2E2E2E2E2F5E2E2E2E2E2E2E2E2E2E2E2E2E2E2E2E2
310
E2E2E2E2E2E2E2E2E2E2E2E2E2E2E2E2E2E2F5E2E2E2E2E2E2E2E2E2E2E2E2E2E2E2E2E2E2E2E2E2E2E2E2E2E2E2E2E2E2E2E2E2E2E2E2E2F5E2E2E2E2E2E2E2E2E2E2E2E2E2E2E2E2E2E2E2E2E2E2E2E2E2E2E2E2F5E2E2E2E2E2E2E2E2E2E2E2E2E2E2E2E2E2E2E2E2E2E2E2E2E2E2E2E2E2E2E2E2E2E2E2E2F5E2E2E2E2
310
E2E2E2E2E2E2E2E2E2E2E2E2E2E2E2E2E2E2E2E2E2E2E2E2E2F5E2E2E2F5F5E2E2E2E2E2F5E2E2E2E2E2E2E2E2E2E2E2E2E2E2E2E2E2E2E2E2E2E2E2E2E2E2E2E2E2E2E2E2E2E2E2F5E2E2E2E2E2E2E2E2E2E2E2E2E2E2E2E2E2E2E2E2E2E2E2E2E2E2E2E2E2E2E2E2E2E2E2F5E2E2E2E2E2E2E2E2E2E2E2E2E2E2E2E2E2E2
310
E2E2E2E2E2E2E2E2E2E2E2E2F5E2E2E2E2E2E2E2E2E2E2E2E2E2E2E2E2E2E2E2E2E2E2E2E2E2E2E2E2E2E2E2E2E2E2F5F5E2E2E2E2E2E2E2E2E2E2E2E2E2E2E2E2E2E2E2E2E2E2E2E2E2E2E2E2E2F5E2E2E2F5F5E2E2E2E2E2F5E2E2E2E2E2E2E2E2E2E2E2E2E2E2E2E2E2E2E2E2E2E2E2E2E2E2E2E2E2E2E2E2E2E2E2F5E2
310
E2E2E2E2E2E2E2E2E2E2E2E2E2E2E2E2E2E2E2E2E2E2E2E2E2E2E2E2E2E2E2E2E2E2F5E2E2E2E2E2E2E2E2E2E2E2E2E2E2E2E2E2E2E2E2E2E2E2E2E2E2E2E2E2E2F5E2E2E2E2E2E2E2E2E2E2E2E2E2E2E2E2E2E2E2E2E2E2E2E2E2E2E2E2E2E2E2E2E2E2F5F5E2E2E2E2E2E2E2E2E2E2E2E2E2E2E2E2E2E2E2E2E2E2E2E2E2
310
E2E2E2E2F5E2E2E2F5F5E2E2E2E2E2F5E2E2E2E2E2E2E2E2E2E2E2E2E2E2E2E2E2E2E2E2E2E2E2E2E2E2E2E2E2E2E2E2E2E2E2F5F5F5F5F5F5F5F5F5F5F5F5F5F5F5F5F5F5F5F5F5F5F5F5F5F5F5F5F5F5F5F5F5F5F5F5F5E2E2E2E2E2E2E2E2E2E2E2E2E2E2E2E2E2E2E2E2E2E2E2E2E2E2E2E2E2E2F5F5F5F5F5F5F5F5F5
310
F5F5F5F5F5F5F5F5F5F5F5F5F5F5F5F5F5F5F5F5F5F5F5F5F5F5F5F5E2E2E2E2E2E2E2E2E2E2E2E2E2E2E2E2E2E2E2E2E2E2E2E2E2E2E2E2E2F5E2E2E2F5F5E2E2E2E2E2F5E2E2E2E2E2E2E2E2E2E2E2E2E2E2E2E2E2E2E2E2E2E2E2E2E2E2E2E2E2E2E2E2E2E2E2F5F5F5F5F5F5F5F5F5F5F5F5F5F5F5F5F5F5F5F5F5F5F5
310
F5F5F5F5F5F5F5F5F5F5F5F5F5F5E2E2E2E2E2E2E2E2E2E2E2E2E2E2E2E2E2E2E2E2E2E2E2E2E2E2E2E2E2E2F5F5F5F5F5F5F5F5F5F5F5F5F5F5F5F5F5F5F5F5F5F5F5F5F5F5F5F5F5F5F5F5F5F5F5F5E2E2E2E2E2E2E2E2E2E2E2E2E2E2E2E2E2E2E2E2E2E2E2E2E2E2E2E2E2E2F5E2E2E2F5F5E2E2E2E2E2F5E2E2E2E2E2
310
E2E2E2E2E2E2E2E2E2E2E2E2E2E2E2E2E2E2E2E2E2E2E2E2E2E2E2E2E2E2E2E2E2E2E2E2E2E2E2E2E2E2E2E2E2E2E2E2E2E2E2E2E2E2E2E2E2E2E2E2E2E2E2E2E2E2E2E2E2E2E2E2E2E2E2E2E2E2E2E2E2E2E2E2E2E2E2E2E2E2E2E2E2E2E2E2E2E2E2E2E2E2E2E2E2E2E2E2E2E2E2E2E2E2E2E2E2E2E2E2E2E2E2E2E2E2E2
310
E2E2E2E2E2E2E2E2E2E2E2E2E2E2E2E2E2E2E2E2E2E2E2E2E2E2E2E2E2E2E2E2E2E2E2E2F5E2E2E2F5F5E2F5E2E2E2F5E2E2E2E2E2E2E2E2E2E2E2E2E2E2E2E2E2E2E2E2E2E2E2E2E2E2E2E2E2E2E2E2E2E2E2E2E2E2E2E2E2E2E2E2E2E2E2E2E2E2E2E2E2E2E2E2E2E2E2E2E2E2E2E2E2E2E2E2E2E2E2E2E2E2E2E2E2E2E2
310
E2E2E2E2E2E2E2E2E2E2E2E2E2E2E2E2E2E2E2E2E2E2E2E2E2E2E2E2E2E2E2E2E2E2E2E2E2E2E2E2E2E2E2E2E2E2E2E2E2E2E2E2E2E2E2E2E2E2E2E2E2E2E2E2E2E2E2E2E2E2E2E2E2E2E2E2E2E2E2E2E2E2E2E2E2E2E2E2E2F5E2F5E2F5F5E2F5E2E2E2F5E2E2E2E2E2E2E2E2E2E2E2E2E2E2E2E2E2E2E2E2E2E2E2E2E2E2
310
E2E2E2E2E2E2E2E2E2E2E2E2E2E2E2E2E2E2E2E2E2E2E2E2E2E2E2E2E2E2E2E2E2E2E2E2E2E2E2E2E2E2E2E2E2E2E2E2E2E2E2E2E2E2E2E2E2E2E2E2E2E2E2E2E2E2E2E2E2E2E2E2E2E2E2E2E2E2E2E2E2E2E2E2E2E2E2E2E2E2E2E2E2E2E2E2E2E2E2E2E2E2E2E2E2E2E2E2E2E2E2E2E2E2E2E2E2E2E2E2E2E2E2E2E2E2E2
310
E2E2E2E2E2E2E2E2E2E2E2E2E2E2E2F5E2F5E2F5F5E2F5E2E2E2F5E2E2E2E2E2E2E2E2E2E2E2E2E2E2E2E2E2E2E2E2E2E2E2E2E2E2E2E2E2E2E2E2E2E2E2E2E2E2E2E2E2E2E2E2E2E2E2E2E2E2E2E2E2E2E2E2E2E2E2E2E2E2E2E2E2E2E2E2E2E2E2E2E2E2E2E2E2E2E2E2E2E2E2E2E2E2E2E2E2E2E2E2E2E2E2E2E2E2E2E2
310
E2E2E2E2E2E2E2E2E2E2E2E2E2E2E2E2E2E2E2E2E2E2E2E2E2E2E2E2E2E2E2E2E2E2E2E2E2E2E2E2E2E2E2E2E2E2E2E2E2E2E2E2E2E2E2E2E2E2E2E2E2E2E2E2E2E2E2E2F5E2F5E2F5F5E2F5E2E2E2F5E2E2E2E2E2E2E2E2E2E2E2E2E2E2E2E2E2E2E2E2E2E2E2E2E2E2E2E2E2E2E2E2E2E2E2E2E2E2E2E2E2E2E2E2E2E2E2
310
E2E2E2E2E2E2E2E2E2E2E2E2E2E2E2E2E2E2E2E2E2E2E2E2E2E2E2E2E2E2E2E2E2E2E2E2E2E2E2E2E2E2E2E2E2E2E2E2E2E2E2E2E2E2E2E2E2E2E2E2E2E2E2E2E2E2E2E2E2E2E2E2E2E2E2E2E2E2E2E2E2E2E2E2E2E2E2E2E2E2E2E2E2E2E2E2E2E2E2E2E2E2E2E2E2E2E2E2E2E2E2E2E2E2E2E2E2E2E2E2E2F5E2F5E2F5F5
310
E2F5E2E2E2F5E2E2E2E2E2E2E2E2E2E2E2E2E2E2E2E2E2E2E2E2E2E2E2E2E2E2E2E2E2E2E2E2E2E2E2E2E2E2E2E2E2E2E2E2E2E2E2E2E2E2E2E2E2E2E2E2E2E2E2E2E2E2E2E2E2E2E2E2E2E2E2E2E2E2E2E2E2E2E2E2E2E2E2E2E2E2E2E2E2E2E2E2E2E2E2E2E2E2E2E2E2E2E2E2E2E2E2E2E2E2E2E2E2E2E2E2E2E2E2E2E2
310
E2E2E2E2E2E2E2E2E2E2E2E2E2E2E2E2E2E2E2E2E2E2E2E2E2E2E2E2E2E2E2E2E2E2E2E2E2E2E2E2E2E2E2E2E2E2E2F5E2F5E2F5F5E2F5E2E2E2F5E2E2E2E2E2E2E2E2E2E2E2E2E2E2E2E2E2E2E2E2E2E2E2E2E2E2E2E2E2E2E2E2E2E2E2E2E2E2E2E2E2E2E2E2E2E2E2E2E2E2E2E2E2E2E2E2E2E2E2E2E2E2E2E2E2E2E2E2
310
E2E2E2E2E2E2E2E2E2E2E2E2E2E2E2E2E2E2E2E2E2E2E2E2E2E2E2E2E2E2E2E2E2E2E2E2E2E2E2E2E2E2E2E2E2E2E2E2E2E2E2E2E2E2E2E2E2E2E2E2E2E2E2E2E2E2E2E2E2E2E2E2E2E2E2E2E2E2E2E2E2E2E2E2E2E2E2E2E2E2E2E2E2E2E2E2E2E2E2E2F5E2F5E2F5F5E2F5E2E2E2F5E2E2E2E2E2E2E2E2E2E2E2E2E2E2E2
310
E2E2E2E2E2E2E2E2E2E2E2E2E2E2E2E2E2E2E2E2E2E2E2E2E2E2E2E2E2E2E2E2E2E2E2E2E2E2E2E2E2E2E2E2E2E2E2E2E2E2E2E2E2E2E2E2E2E2E2E2E2E2E2E2E2E2E2E2E2E2E2E2E2E2E2E2E2E2E2E2E2E2E2E2E2E2E2E2E2E2E2E2E2E2E2E2E2E2E2E2E2E2E2E2E2E2E2E2E2E2E2E2E2E2E2E2E2E2E2E2E2E2E2E2E2E2E2
310
E2E2E2E2E2E2E2E2E2E2E2E2E2E2E2E2E2E2E2E2E2E2E2E2E2E2F5E2F5E2F5F5E2F5E2E2E2F5E2E2E2E2E2E2E2E2E2E2E2E2E2E2E2E2E2E2E2E2E2E2E2E2E2E2E2E2E2E2E2E2E2E2E2E2E2E2E2E2E2E2E2E2E2E2E2E2E2E2E2E2E2E2E2E2E2E2E2E2E2E2E2E2E2E2E2E2E2E2E2E2E2E2E2E2E2E2E2E2E2E2E2E2E2E2E2E2E2
310
E2E2E2E2E2E2E2E2E2E2E2E2E2E2E2E2E2E2E2E2E2E2E2E2E2E2E2E2E2E2E2E2E2E2E2E2E2E2E2E2E2E2E2E2E2E2E2E2E2E2E2E2E2E2E2E2E2E2E2E2E2E2E2E2E2E2E2E2E2E2E2E2E2E2E2E2E2E2E2F5E2F5E2F5F5E2F5E2E2E2F5E2E2E2E2E2E2E2E2E2E2E2E2E2E2E2E2E2E2E2E2E2E2E2E2E2E2E2E2E2E2E2E2E2E2E2E2
310
E2E2E2E2E2E2E2E2E2E2E2E2E2E2E2E2E2E2E2E2E2E2E2E2E2E2E2E2E2E2E2E2E2E2E2E2E2E2E2E2E2E2E2E2E2E2E2E2E2E2E2E2E2E2E2E2E2E2E2E2E2E2E2E2E2E2E2E2E2E2E2E2E2E2E2E2E2E2E2E2E2E2E2E2E2E2E2E2E2E2E2E2E2E2E2E2E2E2E2E2E2E2E2E2E2E2E2E2E2E2E2E2E2E2E2E2E2E2E2E2E2E2E2E2E2E2E2
310
E2E2E2E2E2F5E2F5E2F5F5E2F5E2E2E2F5E2E2E2E2E2E2E2E2E2E2E2E2E2E2E2E2E2E2E2E2E2E2E2E2E2E2E2E2E2E2E2E2E2E2E2E2E2E2E2E2E2E2E2E2E2E2E2E2E2E2E2E2E2E2E2E2E2E2E2E2E2E2E2E2E2E2E2E2E2E2E2E2E2E2E2E2E2E2E2E2E2E2E2E2E2E2E2E2E2E2E2E2E2E2E2E2E2E2E2E2E2E2E2E2E2E2E2E2E2E2
310
E2E2E2E2E2E2E2E2E2E2E2E2E2E2E2E2E2E2E2E2E2E2E2E2E2E2E2E2E2E2E2E2E2E2E2E2E2E2E2E2E2E2E2E2E2E2E2E2E2E2E2E2E2E2E2E2E2E2F5E2F5E2F5F5E2F5E2E2E2F5E2E2E2E2E2E2E2E2E2E2E2E2E2E2E2E2E2E2E2E2E2E2E2E2E2E2E2E2E2E2E2E2E2E2E2E2E2E2E2E2E2E2E2E2E2E2E2E2E2E2E2E2E2E2E2E2E2
310
E2E2E2E2E2E2E2E2E2E2E2E2E2E2E2E2E2E2E2E2E2E2E2E2E2E2E2E2E2E2E2E2E2E2E2E2E2E2E2E2E2E2E2E2E2E2E2E2E2E2E2E2E2E2E2E2E2E2E2E2E2E2E2E2E2E2E2E2E2E2E2E2E2E2E2E2E2E2E2E2E2E2E2E2E2E2E2E2E2E2E2E2E2E2E2E2E2E2E2E2E2E2E2E2E2E2E2E2E2E2E2F5E2F5E2F5F5E2F5E2E2E2F5E2E2E2E2
310
E2E2E2E2E2E2E2E2E2E2E2E2E2E2E2E2E2E2E2E2E2E2E2E2E2E2E2E2E2E2E2E2E2E2E2E2E2E2E2E2E2E2E2E2E2E2E2E2E2E2E2E2E2E2E2E2E2E2E2E2E2E2E2E2E2E2E2E2E2E2E2E2E2E2E2E2E2E2E2E2E2E2E2E2E2E2E2E2E2E2E2E2E2E2E2E2E2E2E2E2E2E2E2E2E2E2E2E2E2E2E2E2E2E2E2E2E2E2E2E2E2E2E2E2E2E2E2
310
E2E2E2E2E2E2E2E2E2E2E2E2E2E2E2E2E2E2E2E2E2E2E2E2E2E2E2E2E2E2E2E2E2E2E2E2E2F5E2F5E2F5F5E2F5E2E2E2F5E2E2E2E2E2E2E2E2E2E2E2E2E2E2E2E2E2E2E2E2E2E2E2E2E2E2E2E2E2E2E2E2E2E2E2E2E2E2E2E2E2E2E2E2E2E2E2E2E2E2E2E2E2E2E2E2E2E2E2E2E2E2E2E2E2E2E2E2E2E2E2E2E2E2E2E2E2E2
310
E2E2E2E2E2E2E2E2E2E2E2E2E2E2E2E2E2E2E2E2E2E2E2E2E2E2E2E2E2E2E2E2E2E2E2E2E2E2E2E2E2E2E2E2E2E2E2E2E2E2E2E2E2E2E2E2E2E2E2E2E2E2E2E2E2E2E2E2E2E2E2E2E2E2E2E2E2E2E2E2E2E2E2E2E2E2E2E2E2E2F5E2F5E2F5F5E2F5E2E2E2F5E2E2E2E2E2E2E2E2E2E2E2E2E2E2E2E2E2E2E2E2E2E2E2E2E2
310
E2E2E2E2E2E2F0E2E2F0E2E2E2E2E2E2E2E2E2E2E2E2E2E2E2E2E2E2E2E2E2E2E2E2E2E2E2E2E2E2E2E2E2E2E2E2E2F0E2E2E2E2E2E2E2E2E2E2E2E2E2E2E2E2E2E2E2E2E2E2E2E2E2E2E2E2E2E2E2E2E2E2E2E2E2E2E2E2E2E2E2E2E2E2E2E2E2E2E2E2E2E2E2E2E2E2E2E2E2E2E2E2E2E2E2E2E2E2E2E2E2E2E2E2E2E2E2
310
E2E2E2E2E2E2E2E2E2E2E2E2E2E2E2E2F5E2F5E2F5F5E2F5E2E2E2F5E2E2E2E2E2E2E2E2E2E2E2E2E2E2E2E2E2E2E2E2E2E2E2E2E2E2E2E2E2E2E2F0E2E2F0E2E2E2E2E2E2E2E2E2E2E2E2E2E2E2E2E2E2E2E2E2E2E2E2E2E2E2E2E2E2E2E2E2E2E2E2E2F0E2E2E2E2E2E2E2E2E2E2E2E2E2E2E2E2E2E2E2E2E2E2E2E2E2E2
310
E2E2E2E2E2E2E2E2E2E2E2E2E2E2E2E2E2E2E2E2E2E2E2E2E2E2E2E2E2E2E2E2E2E2E2E2E2E2E2E2E2E2E2E2E2E2E2E2E2E2E2E2E2E2E2E2E2E2E2E2E2E2E2E2E2E2E2E2E2F5E2F5E2F5F5E2F5E2E2E2F5E2E2E2E2E2E2E2E2E2E2E2E2E2E2E2E2E2E2E2E2E2DCDCDCDCDCDCDCF0F0F0F5F0F0F0F0F0F0F0F0F0F0F0F0F0F0
310
F0F0F0F0F0DCDCDCDCDCF0F0F0F0F0F0F0F0F0F0F0F0F0F0F0F0F0E2E2E2E2E2E2E2E2E2E2E2E2E2E2E2E2E2E2E2E2E2E2E2E2E2E2E2E2E2E2E2E2E2E2E2E2E2E2E2E2E2E2E2E2E2E2E2E2E2E2E2E2E2E2E2E2E2E2E2E2E2E2E2E2E2E2E2E2E2E2E2E2E2E2E2E2E2E2E2E2E2E2E2E2E2E2E2E2E2E2E2E2E2E2E2F5E2F5E2F5
310
F5E2E2E2E2E2F5E2E2E2E2E2E2E2E2E2E2E2E2E2E2E2E2E2E2E2E2E2E2DCDCDCE2DCDCE2E2E2F0E2E2F0E2E2E2E2E2E2E2E2E2E2E2E2E2E2E2E2DCDCDCDCDCE2E2E2E2E2E2E2E2E2E2E2E2E2E2E2E2F0E2E2E2E2E2E2E2E2E2E2E2E2E2E2E2E2E2E2E2E2E2E2E2E2E2E2E2E2E2E2E2E2E2E2E2E2E2E2E2E2E2E2E2E2E2E2E2
310
E2E2E2E2E2E2E2E2E2E2E2E2E2E2E2E2E2E2E2E2E2E2E2E2E2E2E2E2E2E2E2E2E2E2E2E2E2E2E2E2E2E2E2E2E2E2E2E2F5E2E2E2F5F5E2E2E2E2E2F5E2E2E2E2E2E2E2E2E2E2E2E2E2E2E2E2E2E2E2E2E2E2DCDCDCE2DCDCE2E2E2F0E2E2F0E2E2E2E2E2E2E2E2E2E2E2E2E2E2E2E2DCDCDCDCDCE2E2E2E2E2E2E2E2E2E2E2
310
E2E2E2E2E2F0E2E2E2E2E2E2E2E2E2E2E2E2E2E2E2E2E2E2E2E2E2E2E2E2E2E2E2E2E2E2E2E2E2E2E2E2E2E2E2E2E2E2E2E2E2E2E2E2E2E2E2E2E2E2E2E2E2E2E2E2E2E2E2E2E2E2E2E2E2E2E2E2E2E2E2E2E2E2E2E2E2E2E2E2E2E2E2E2E2E2E2E2E2E2E2F5E2E2E2F5F5E2E2E2E2E2F5E2E2E2E2E2E2E2E2E2E2E2E2E2E2
310
E2E2E2E2E2E2E2E2E2E2E2E2E2E2E2E2E2F0E2E2F0E2E2E2E2E2E2E2E2E2E2E2E2E2E2E2E2E2E2E2E2E2E2E2E2E2E2E2E2E2E2E2E2E2E2E2E2E2F0E2E2E2E2E2E2E2E2E2E2E2E2E2E2E2E2E2E2E2E2E2E2E2E2E2E2E2E2E2E2E2E2E2E2E2E2E2E2E2E2E2E2E2E2E2E2E2E2E2E2E2E2E2E2E2E2E2E2E2E2E2E2E2E2E2E2E2E2
310
E2E2E2E2E2E2E2E2E2E2E2E2E2E2E2E2E2E2E2E2E2E2E2E2E2E2E2F5E2E2E2F5F5E2E2E2E2E2F5E2E2E2E2E2E2E2E2E2E2E2E2E2E2E2E2E2E2E2E2E2E2E2E2E2E2E2E2E2E2E2F0E2E2F0E2E2E2E2E2E2E2E2E2E2E2E2E2E2E2E2E2E2E2E2E2E2E2E2E2E2E2E2E2E2E2E2E2E2E2E2E2F0E2E2E2E2E2E2E2E2E2E2E2E2E2E2E2
310
E2E2E2E2E2E2E2E2E2E2E2E2E2E2E2E2E2E2E2E2E2E2E2E2E2E2E2E2E2E2E2E2E2E2E2E2E2E2E2E2E2E2E2E2E2E2E2E2E2E2E2E2E2E2E2E2E2E2E2E2E2E2E2E2E2E2E2E2E2E2E2E2E2E2E2E2E2E2E2E2F5E2E2E2F5F5E2E2E2E2E2F5E2E2E2E2E2E2E2E2E2E2E2E2E2E2E2E2E2E2F0F0F0F0F0F0F0F0F0F0F0F0F0F0F0F0F5
310
F5F5F5F5F5F5F5F5F5F5F5F5F5F5F5F5F5F5F5F5F5F5F5F5F5F5F5F5F5F5F5F5F5F5F5F5F5F5F0F0F0F0F0F0F0F0E2E2E2E2E2E2E2E2E2E2E2E2E2E2E2E2E2E2E2E2E2E2E2E2E2E2E2E2E2E2E2E2E2E2E2E2E2E2E2E2E2E2E2E2E2E2E2E2E2E2E2E2E2E2E2E2E2E2E2E2E2E2E2E2E2E2E2E2E2E2E2E2E2E2E2E2E2E2E2E2E2
310
E2E2E2E2E2E2F5E2E2E2F5F5E2E2E2E2E2F5E2E2E2E2E2E2E2E2E2E2E2E2E2E2E2E2E2E2E2E2F0E2E2E2E2E2E2E2E2E2E2F0E2E2F5F5F5F5F5F5F5F5F5F5F5F5F5F5F5F5F5F5F5F5F5F5F5F5F5F5F5F5F5F5F5F5F5F5F5F5F5F5F5E2E2E2E2E2F0F0E2E2E2E2E2E2E2E2E2E2E2E2E2E2E2E2E2E2E2E2E2E2E2E2E2E2E2E2E2
310
E2E2E2E2E2E2E2E2E2E2E2E2E2E2E2E2E2E2E2E2E2E2E2E2E2E2E2E2E2E2E2E2E2E2E2E2E2E2E2E2E2E2E2E2E2E2E2E2E2E2E2E2E2E2E2E2E2E2E2F5E2E2E2F5F5E2E2E2E2E2F5E2E2E2E2E2E2E2E2E2E2E2E2E2E2E2E2E2E2E2F0F0E2E2E2E2E2E2E2E2E2E2F0E2E2F5F5E2E2E2E2E2E2E2E2E2E2E2E2E2E2E2E2E2E2E2E2
310
E2E2E2E2E2E2E2E2E2E2E2E2E2E2E2F5F5E2E2E2E2E2F0F0E2E2E2E2E2E2E2E2E2E2E2E2E2E2E2E2E2E2E2E2E2E2E2E2E2E2E2E2E2E2E2E2E2E2E2E2E2E2E2E2E2E2E2E2E2E2E2E2E2E2E2E2E2E2E2E2E2E2E2E2E2E2E2E2E2E2E2E2E2E2E2E2E2E2E2E2E2E2E2E2E2E2E2E2E2E2E2E2F5E2E2E2F5F5E2E2E2E2E2F5E2E2E2
310
E2E2E2E2E2E2E2E2E2E2E2E2E2E2E2E2E2F0E2DCE2DCE2E2E2E2E2E2F0E2E2F5F5E2E2E2E2E2E2E2E2E2E2E2E2E2E2E2E2E2E2E2E2E2E2E2E2E2E2E2E2E2E2E2E2E2E2E2F5F5E2E2E2E2E2F0E2E2E2E2E2E2E2E2E2E2E2E2E2E2E2E2E2E2E2E2E2E2E2E2E2E2E2E2E2E2E2E2E2E2E2E2E2E2E2E2E2E2E2E2E2E2E2E2E2E2E2
310
E2E2E2E2E2E2E2E2E2E2E2E2E2E2E2E2E2E2E2E2E2E2E2E2E2E2E2E2E2E2E2E2E2E2E2E2E2E2F5E2E2E2F5F5E2E2E2E2E2F5E2E2E2E2E2E2E2E2E2E2E2E2E2E2E2E2E2DCE2E2F0E2DCDCDCE2E2E2E2E2E2F0E2E2F5F5E2E2E2E2E2E2E2E2E2E2E2E2E2E2E2E2E2E2E2E2E2E2E2E2E2E2E2E2E2E2E2E2E2E2E2F5F5E2E2E2E2
310
E2F0E2E2E2E2E2E2E2E2E2E2E2E2E2E2E2E2E2E2E2E2E2E2E2E2E2E2E2E2E2E2E2E2E2E2E2E2E2E2E2E2E2E2E2E2E2E2E2E2E2E2E2E2E2E2E2E2E2E2E2E2E2E2E2E2E2E2E2E2E2E2E2E2E2E2E2E2E2E2E2E2E2E2E2E2E2E2E2E2E2F5E2E2E2F5F5E2F5E2E2E2F5E2E2E2E2E2E2E2E2E2E2E2E2E2E2E2E2E2DCE2DCF0E2DCDC
310
DCE2E2E2E2E2E2F0E2E2F5F5E2E2E2E2E2E2E2E2E2E2E2E2E2E2E2E2E2E2E2E2E2E2E2E2E2E2E2E2E2E2E2E2E2E2E2F5F5E2E2E2E2E2F0E2E2E2E2E2E2E2E2E2E2E2E2E2E2E2E2E2E2E2E2E2E2E2E2E2E2E2E2E2E2E2E2E2E2E2E2E2E2E2E2E2E2E2E2E2E2E2E2E2E2E2E2E2E2E2E2E2E2E2E2E2E2E2E2E2E2E2E2E2E2E2E2
310
E2E2E2E2E2E2E2E2E2E2E2E2E2E2E2E2E2F5E2F5E2F5F5E2F5E2E2E2F5E2E2E2E2E2E2E2E2E2E2E2E2E2E2E2E2E2DCDCDCF0E2DCDCDCE2E2E2E2E2E2F0E2E2F5F5E2E2E2E2E2E2E2E2E2E2E2E2E2E2E2E2E2E2E2E2E2E2E2E2E2E2E2E2E2E2E2E2E2E2E2F5F5E2E2E2E2E2F0E2E2E2E2E2E2E2E2E2E2E2E2E2E2E2E2E2E2E2
310
E2E2E2E2E2E2E2E2E2E2E2E2E2E2E2E2E2E2E2E2E2E2E2E2E2E2E2E2E2E2E2E2E2E2E2E2E2E2E2E2E2E2E2E2E2E2E2E2E2E2E2E2E2E2E2E2E2E2E2E2E2E2E2E2E2E2E2E2E2E2F5E2F5E2F5F5E2F5E2E2E2F5E2E2E2E2E2E2E2E2E2E2E2E2E2E2E2E2E2DCDCDCF0E2E2E2F0E2E2E2E2E2E2F0E2E2F5F5E2E2E2E2E2E2E2E2E2
310
E2E2E2E2E2E2E2E2E2E2E2E2E2E2E2E2E2E2E2E2E2E2E2E2E2E2F5F5E2E2E2E2E2F0E2E2E2E2E2E2E2E2E2E2E2E2E2E2E2E2E2E2E2E2E2E2E2E2E2E2E2E2E2E2E2E2E2E2E2E2E2E2E2E2E2E2E2E2E2E2E2E2E2E2E2E2E2E2E2E2E2E2E2E2E2E2E2E2E2E2E2E2E2E2E2E2E2E2E2E2E2E2E2E2E2E2E2E2E2E2E2E2E2F5E2F5E2
310
F5F5E2F5E2E2E2F5E2E2E2E2E2E2E2E2E2E2E2E2E2E2E2E2E2E2E2E2F0E2E2E2F0F0E2E2E2E2E2F0E2E2F5F5E2E2E2E2E2E2E2E2E2E2E2E2E2E2E2E2E2E2E2E2E2E2E2E2E2E2E2E2E2E2E2E2E2E2E2F5F5E2E2E2E2E2F0E2E2E2E2E2E2E2E2E2E2E2E2E2E2E2E2E2E2E2E2E2E2E2E2E2E2E2E2E2E2E2E2E2E2E2E2E2E2E2E2
310
E2E2E2E2E2E2E2E2E2E2E2E2E2E2E2E2E2E2E2E2E2E2E2E2E2E2E2E2E2E2E2E2E2E2E2E2E2E2E2E2E2E2E2E2E2E2E2E2E2F5E2F5E2F5F5E2F5E2E2E2F5E2E2E2E2E2E2E2E2E2E2E2E2E2E2E2E2E2E2E2E2F0E2E2E2F0F0E2E2E2E2E2F0E2E2F5F5E2E2E2E2E2E2E2E2E2E2E2E2E2E2E2E2E2E2E2E2E2E2E2E2E2E2E2E2E2E2
310
E2E2E2E2E2F5F5E2E2E2E2E2F0E2E2E2E2E2E2E2E2E2E2E2E2E2E2E2E2E2E2E2E2E2E2E2E2E2E2E2E2E2E2E2E2E2E2E2E2E2E2E2E2E2E2E2E2E2E2E2E2E2E2E2E2E2E2E2E2E2E2E2E2E2E2E2E2E2E2E2E2E2E2E2E2E2E2E2E2E2E2E2E2E2E2E2E2E2E2E2E2E2F5E2F5E2F5F5E2F5E2E2E2F5E2E2E2E2E2E2E2E2E2E2E2E2E2
310
E2E2E2E2E2E2F0F0E2E2F0F5F0F0F0F0F0F0F0F0F5F5F5E2E2E2E2E2E2E2E2E2E2E2E2E2E2E2E2E2E2E2E2E2E2E2E2E2E2E2E2E2E2E2E2E2E2E2F5F5E2E2E2E2E2F0E2E2E2E2E2E2E2E2E2E2E2E2E2E2E2E2E2E2E2E2E2E2E2E2E2E2E2E2E2E2E2E2E2E2E2E2E2E2E2E2E2E2E2E2E2E2E2E2E2E2E2E2E2E2E2E2E2E2E2E2E2
310
E2E2E2E2E2E2E2E2E2E2E2E2E2E2E2E2E2E2E2E2E2E2E2E2E2E2E2E2F5E2F5E2F5F5E2F5E2E2E2F5E2E2E2E2E2E2E2E2E2E2E2E2E2E2E2E2E2E2F0F0F5F0F0F0F0F0F0F0F0F0F0F0F0F0F5F5E2E2E2E2E2E2E2E2E2E2E2E2E2E2E2E2E2E2E2E2E2E2E2E2E2E2E2E2E2E2E2E2E2E2E2F5F5E2E2E2E2E2F0E2E2E2E2E2E2E2E2
310
E2E2E2E2E2E2E2E2E2E2E2E2E2E2E2E2E2E2E2E2E2E2E2E2E2E2E2E2E2E2E2E2E2E2E2E2E2E2E2E2E2E2E2E2E2E2E2E2E2E2E2E2E2E2E2E2E2E2E2E2E2E2E2E2E2E2E2E2E2E2E2E2E2E2E2E2E2E2E2E2E2F5E2F5E2F5F5E2F5E2E2E2F5E2E2E2E2E2E2E2E2E2E2E2E2E2E2E2E2E2E2E2E2E2E2E2E2F0E2E2E2E2E2E2F5F5F5
310
F5F5E2E2E2E2E2E2E2E2E2E2E2E2E2E2E2E2E2E2E2E2E2E2E2E2E2E2E2E2E2E2E2E2E2E2E2F5F5E2E2E2E2E2F0E2E2E2E2E2E2E2E2E2E2E2E2E2E2E2E2E2E2E2E2E2E2E2E2E2E2E2E2E2E2E2E2E2E2E2E2E2E2E2E2E2E2E2E2E2E2E2E2E2E2E2E2E2E2E2E2E2E2E2E2E2E2E2E2E2E2E2E2E2E2E2E2E2E2E2E2E2E2E2E2E2E2
310
E2E2E2E2E2E2E2F5E2F5E2F5F5E2F5E2E2E2F5E2E2E2E2E2E2E2E2E2E2E2E2E2E2E2E2E2E2E2E2E2E2E2F0F0F0F0F0F0F0F0F0F0F5F5F5E2E2E2E2E2E2E2E2E2E2E2E2E2E2E2E2E2E2E2E2E2E2E2E2E2E2E2E2E2E2E2E2E2E2E2F5F5E2E2E2E2E2F0E2E2E2E2E2E2E2E2E2E2E2E2E2E2E2E2E2E2E2E2E2E2E2E2E2E2E2E2E2
310
E2E2E2E2E2E2E2E2E2E2E2E2E2E2E2E2E2E2E2E2E2E2E2E2E2E2E2E2E2E2E2E2E2E2E2E2E2E2E2E2E2E2E2E2E2E2E2E2E2E2E2E2E2E2E2E2E2E2E2E2F5E2F5E2F5F5E2F5E2E2E2F5E2E2E2E2E2E2E2E2E2E2E2E2E2E2E2E2E2E2E2E2E2E2E2E2F0F0E2E2E2E2E2E2E2E2F5F5E2E2E2E2E2E2E2E2E2E2E2E2E2E2E2E2E2E2E2
310
E2E2E2E2E2E2E2E2E2E2E2E2E2E2E2E2F5F5E2E2E2E2E2F0E2E2E2E2E2E2E2E2E2E2E2E2E2E2E2E2E2E2E2E2E2E2E2E2E2E2E2E2E2E2E2E2E2E2E2E2E2E2E2E2E2E2E2E2E2E2E2E2E2E2E2E2E2E2E2E2E2E2E2E2E2E2E2E2E2E2E2E2E2E2E2E2E2E2E2E2E2E2E2E2E2E2E2E2E2E2E2E2E2F5E2F5E2F5F5E2F5E2E2E2F5E2E2
310
E2E2E2E2E2E2E2E2E2E2E2E2E2E2E2E2E2E2E2E2E2E2F0F0E2E2E2E2E2E2E2E2F5F5E2E2E2E2E2E2E2E2E2E2E2E2E2E2E2E2E2E2E2E2E2E2E2E2E2E2E2E2E2E2E2E2E2E2E2F5F5E2E2E2E2E2F0E2E2E2E2E2E2E2E2E2E2E2E2E2E2E2E2E2E2E2E2E2E2E2E2E2E2E2E2E2E2E2E2E2E2E2E2E2E2E2E2E2E2E2E2E2E2E2E2E2E2
310
E2E2E2E2E2E2E2E2E2E2E2E2E2E2E2E2E2E2E2E2E2E2E2E2E2E2E2E2E2E2E2E2E2E2E2E2E2E2E2F5E2F5E2F5F5E2F5E2E2E2F5E2E2E2E2E2E2E2E2E2E2E2E2E2E2E2E2E2E2E2E2E2E2E2E2F0E2E2E2E2E2E2E2E2E2F5F5E2E2E2E2E2E2E2E2E2E2E2E2E2E2E2E2E2E2E2E2E2E2E2E2E2E2E2E2E2E2E2E2E2E2E2F5F5E2E2E2
310
E2E2F0E2E2E2E2E2E2E2E2E2E2E2E2E2E2E2E2E2E2E2E2E2E2E2E2E2E2E2E2E2E2E2E2E2E2E2E2E2E2E2E2E2E2E2E2E2E2E2E2E2E2E2E2E2E2E2E2E2E2E2E2E2E2E2E2E2E2E2E2E2E2E2E2E2E2E2E2E2E2E2E2E2E2E2E2E2E2E2E2E2F5E2F5E2F5F5E2F5E2E2E2F5E2E2E2E2E2E2E2E2E2E2E2E2E2E2E2E2E2E2E2F5F5F5F5
310
F5F0E2E2E2E2E2E2E2E2E2F5F5E2E2E2E2E2E2E2E2E2E2E2E2E2E2E2E2E2E2E2E2E2E2E2E2E2E2E2E2E2E2E2E2E2E2E2F5F5E2E2E2DCDCDCE2E2E2E2E2E2E2E2E2E2E2E2E2E2E2E2E2E2E2E2E2E2E2E2E2E2E2E2E2E2E2E2E2E2E2E2E2E2E2E2E2E2E2E2E2E2E2E2E2E2E2E2E2E2E2E2E2E2E2E2E2E2E2E2E2E2E2E2E2E2E2
310
E2E2E2E2E2E2E2E2E2E2E2E2E2E2E2E2E2E2F5E2F5E2F5F5E2F5E2E2E2F5E2E2E2E2E2E2E2E2E2E2E2E2E2E2E2F0F5F5F5F5F5F5F5F5F5F5F5E2E2E2E2E2E2E2F5F5E2E2E2E2E2E2E2E2E2E2E2E2E2E2E2E2E2E2E2E2E2E2E2E2E2E2E2E2E2E2E2E2E2E2E2F5F5E2E2E2DCDCDCE2E2E2E2E2E2E2E2E2E2E2E2E2E2E2E2E2E2
310
E2E2E2E2E2E2E2E2E2E2E2E2E2E2E2E2E2E2E2E2E2E2E2E2E2E2E2E2E2E2E2E2E2E2E2E2E2E2E2E2E2E2E2E2E2E2E2E2E2E2E2E2E2E2E2E2E2E2E2E2E2E2E2E2E2E2E2E2E2E2E2F5E2F5E2F5F5E2F5E2E2E2F5E2E2E2E2E2E2E2E2E2E2E2E2E2E2F5F5F5F5F5F0E2E2E2E2F5F5F5F5F5E2E2E2E2F5F5F5E2E2E2E2E2E2E2E2
310
E2E2E2E2E2E2E2E2E2E2E2E2E2E2E2E2E2E2E2E2E2E2E2E2E2E2E2F5F5E2E2E2DCDCDCE2E2E2E2E2E2E2E2E2E2E2E2E2E2E2E2E2E2E2E2E2E2E2E2E2E2E2E2E2E2E2E2E2E2E2E2E2E2E2E2E2E2E2E2E2E2E2E2E2E2E2E2E2E2E2E2E2E2E2E2E2E2E2E2E2E2E2E2E2E2E2E2E2E2E2E2E2E2E2E2E2E2E2E2E2E2E2E2E2F5E2F5
310
E2F5F5E2F5E2E2E2F5E2E2E2E2E2E2E2E2E2E2E2E2E2E2F5F5E2E2E2E2E2E2E2E2E2E2F0F5F5F5F5F5F5F5F5F5E2E2E2E2E2E2E2E2E2E2E2E2E2E2E2E2E2E2E2E2E2E2E2E2E2E2E2E2E2E2E2E2E2E2E2F5F5E2E2E2DCDCDCE2E2E2E2E2E2E2E2E2E2E2E2E2E2E2E2E2E2E2E2E2E2E2E2E2E2E2E2E2E2E2E2E2E2E2E2E2E2E2
310
E2E2E2E2E2E2E2E2E2E2E2E2E2E2E2E2E2E2E2E2E2E2E2E2E2E2E2E2E2E2E2E2E2E2E2E2E2E2E2E2E2E2E2E2E2E2E2E2E2E2F5E2F5E2F5F5E2E2E2E2E2F5E2E2E2E2E2E2E2E2E2E2E2E2E2E2E2E2E2E2E2E2E2E2E2E2E2E2E2E2E2F5F5F5F5E2F5F5E2E2E2E2E2E2E2E2E2E2E2E2E2E2E2E2E2E2E2E2E2E2E2E2E2E2E2E2E2
310
E2E2E2E2E2E2F5F5E2E2E2DCDCDCE2E2E2E2E2E2E2E2E2E2E2E2E2E2E2E2E2E2E2E2E2E2E2E2E2E2E2E2E2E2E2E2E2E2E2E2E2E2E2E2E2E2E2E2E2E2E2E2E2E2E2E2E2E2E2E2E2E2E2E2E2E2E2E2E2E2E2E2E2E2E2E2E2E2E2E2E2E2E2E2E2E2E2E2E2E2E2E2E2F5E2E2E2F5F5E2E2E2E2E2F5E2E2E2E2E2E2E2E2E2E2E2E2
310
E2E2E2E2E2E2E2E2E2E2E2E2E2E2E2E2E2E2E2E2E2E2F5F5E2E2E2E2E2E2E2E2E2E2E2E2E2E2E2E2E2E2E2E2E2E2E2E2E2E2E2E2E2E2E2E2E2E2E2F5F5E2E2E2E2E2F0E2E2E2E2E2E2E2E2E2E2E2E2E2E2E2E2E2E2E2E2E2E2E2E2E2E2E2E2E2E2E2E2E2E2E2E2E2E2E2E2E2E2E2E2E2E2E2E2E2E2E2E2E2E2E2E2E2E2E2E2
310
E2E2E2E2E2E2E2E2E2E2E2E2E2E2E2E2E2E2E2E2E2E2E2E2E2E2E2E2E2F5E2E2E2F5F5E2E2E2E2E2F5E2E2E2E2E2E2E2E2E2E2E2E2E2E2E2E2E2E2E2E2E2E2E2E2E2E2E2E2E2E2E2E2E2E2F5F5E2E2E2E2E2E2E2E2E2E2E2E2E2E2E2E2E2E2E2E2E2E2E2E2E2E2E2E2E2E2E2E2E2E2E2F5F5E2E2E2E2E2F0E2E2E2E2E2E2E2
310
E2E2E2E2E2E2E2E2E2E2E2E2E2E2E2E2E2E2E2E2E2E2E2E2E2E2E2E2E2E2E2E2E2E2E2E2E2E2E2E2E2E2E2E2E2E2E2E2E2E2E2E2E2E2E2E2E2E2E2E2E2E2E2E2E2E2E2E2E2E2E2E2E2E2E2E2E2E2E2E2E2E2F5E2E2E2F5F5E2E2E2E2E2F5E2E2E2E2E2E2E2E2E2E2E2E2E2E2E2E2E2E2E2E2E2E2E2E2E2E2E2E2E2E2E2E2E2
310
E2F5F5E2E2E2E2E2E2E2E2E2E2E2E2E2E2E2E2E2E2E2E2E2E2E2E2E2E2E2E2E2E2E2E2E2E2E2F5F5E2E2E2E2E2F0E2E2E2E2E2E2E2E2E2E2E2E2E2E2E2E2E2E2E2E2E2E2E2E2E2E2E2E2E2E2E2E2E2E2E2E2E2E2E2E2E2E2E2E2E2E2E2E2E2E2E2E2E2E2E2E2E2E2E2E2E2E2E2E2E2E2E2E2E2E2E2E2E2E2E2E2E2E2E2E2E2
310
E2E2E2E2E2E2E2E2F5E2E2E2F5F5E2E2E2E2E2F5E2E2E2E2E2E2E2E2E2E2E2E2E2E2E2E2E2E2E2E2E2E2E2E2E2E2E2E2E2E2E2E2E2E2F5F5E2E2E2E2E2E2E2E2E2E2E2E2E2E2E2E2E2E2E2E2E2E2E2E2E2E2E2E2E2E2E2E2E2E2E2F5F5E2E2E2E2E2F0E2E2E2E2E2E2E2E2E2E2E2E2E2E2E2E2E2E2E2E2E2E2E2E2E2E2E2E2
310
E2E2E2E2E2E2E2E2E2E2E2E2E2E2E2E2E2E2E2E2E2E2E2E2E2E2E2E2E2E2E2E2E2E2E2E2E2E2E2E2E2E2E2E2E2E2E2E2E2E2E2E2E2E2E2E2E2E2E2E2E2F5E2E2E2F5F5E2E2E2E2E2F5E2E2E2E2E2E2E2E2E2E2E2E2E2E2E2E2E2E2E2E2E2E2E2E2E2E2E2E2E2E2E2E2E2E2F5F5E2E2E2E2E2E2E2E2E2E2E2E2E2E2E2E2E2E2
310
E2E2E2E2E2E2E2E2E2E2E2E2E2E2E2E2E2F5F5E2E2E2E2E2F0E2E2E2E2E2E2E2E2E2E2E2E2E2E2E2E2E2E2E2E2E2E2E2E2E2E2E2E2E2E2E2E2E2E2E2E2E2E2E2E2E2E2E2E2E2E2E2E2E2E2E2E2E2E2E2E2E2E2E2E2E2E2E2E2E2E2E2E2E2E2E2E2E2E2E2E2E2E2E2E2E2E2E2E2E2E2E2E2E2F5E2E2E2F5F5E2E2E2E2E2F5E2
310
E2E2E2E2E2E2E2E2E2E2E2E2E2E2E2E2E2E2E2E2E2E2E2E2E2E2E2E2E2E2E2E2E2F5F5E2E2E2E2E2E2E2E2E2E2E2E2E2E2E2E2E2E2E2E2E2E2E2E2E2E2E2E2E2E2E2E2E2E2E2F5F5E2E2E2E2E2F0E2E2E2E2E2E2E2E2E2E2E2E2E2E2E2E2E2E2E2E2E2E2E2E2E2E2E2E2E2E2E2E2E2E2E2E2E2E2E2E2E2E2E2E2E2E2E2E2E2
310
E2E2E2E2E2E2E2E2E2E2E2E2E2E2E2E2E2E2E2E2E2E2E2E2E2E2E2E2E2E2E2E2E2E2E2E2E2E2E2E2F5E2E2E2F5F5E2E2E2E2E2F5E2E2E2E2E2E2E2E2E2E2E2E2E2E2E2E2E2E2E2E2E2E2E2E2E2E2E2E2E2E2E2E2E2E2F5F5E2E2E2E2E2E2E2E2E2E2E2E2E2E2E2E2E2E2E2E2E2E2E2E2E2E2E2E2E2E2E2E2E2E2E2F5F5E2E2
310
E2E2E2F0E2E2E2E2E2E2E2E2E2E2E2E2E2E2E2E2E2E2E2E2E2E2E2E2E2E2E2E2E2E2E2E2E2E2E2E2E2E2E2E2E2E2E2E2E2E2E2E2E2E2E2E2E2E2E2E2E2E2E2E2E2E2E2E2E2E2E2E2E2E2E2E2E2E2E2E2E2E2E2E2E2E2E2E2E2E2E2E2E2F5E2E2E2F5F5E2F5E2E2E2F5E2E2E2E2E2E2E2E2E2E2E2E2E2E2E2E2E2E2E2E2E2E2
310
E2E2E2E2E2E2E2E2E2E2E2E2F5F5E2E2E2E2E2E2E2E2E2E2E2E2E2E2E2E2E2E2E2E2E2E2E2E2E2E2E2E2E2E2E2E2E2E2E2F5F5E2E2E2E2E2F0E2E2E2E2E2E2E2E2E2E2E2E2E2E2E2E2E2E2E2E2E2E2E2E2E2E2E2E2E2E2E2E2E2E2E2E2E2E2E2E2E2E2E2E2E2E2E2E2E2E2E2E2E2E2E2E2E2E2E2E2E2E2E2E2E2E2E2E2E2E2
310
E2E2E2E2E2E2E2E2E2E2E2E2E2E2E2E2E2E2E2F5E2F5E2F5F5E2F5E2E2E2F5E2E2E2E2E2E2E2E2E2E2E2E2E2E2E2E2E2E2E2E2E2E2E2E2E2E2E2E2E2E2E2E2E2E2F5F5E2E2E2E2E2E2E2E2E2E2E2E2E2E2E2E2E2E2E2E2E2E2E2E2E2E2E2E2E2E2E2E2E2E2E2F5F5E2E2E2E2E2F0E2E2E2E2E2E2E2E2E2E2E2E2E2E2E2E2E2
310
E2E2E2E2E2E2E2E2E2E2E2E2E2E2E2E2E2E2E2E2E2E2E2E2E2E2E2E2E2E2E2E2E2E2E2E2E2E2E2E2E2E2E2E2E2E2E2E2E2E2E2E2E2E2E2E2E2E2E2E2E2E2E2E2E2E2E2E2E2E2E2E2F5E2F5E2F5F5E2F5E2E2E2F5E2E2E2E2E2E2E2E2E2E2E2E2E2E2E2E2E2E2E2E2E2E2E2E2E2E2E2E2E2E2E2E2E2E2F5F5E2E2E2E2E2E2E2
310
E2E2E2E2E2E2E2E2E2E2E2E2E2E2E2E2E2E2E2E2E2E2E2E2E2E2E2E2F5F5E2E2E2E2E2F0E2E2E2E2E2E2E2E2E2E2E2E2E2E2E2E2E2E2E2E2E2E2E2E2E2E2E2E2E2E2E2E2E2E2E2E2E2E2E2E2E2E2E2E2E2E2E2E2E2E2E2E2E2E2E2E2E2E2E2E2E2E2E2E2E2E2E2E2E2E2E2E2E2E2E2E2E2E2E2E2E2E2E2E2E2E2E2E2E2F5E2
310
F5E2F5F5E2F5E2E2E2F5E2E2E2E2E2E2E2E2E2E2E2E2E2E2E2E2E2E2E2E2E2E2E2E2E2E2E2E2E2E2E2E2E2E2F5F5E2E2E2E2E2E2E2E2E2E2E2E2E2E2E2E2E2E2E2E2E2E2E2E2E2E2E2E2E2E2E2E2E2E2E2F5F5E2E2E2E2E2F0E2E2E2E2E2E2E2E2E2E2E2E2E2E2E2E2E2E2E2E2E2E2E2E2E2E2E2E2E2E2E2E2E2E2E2E2E2E2
310
E2E2E2E2E2E2E2E2E2E2E2E2E2E2E2E2E2E2E2E2E2E2E2E2E2E2E2E2E2E2E2E2E2E2E2E2E2E2E2E2E2E2E2E2E2E2E2E2E2E2E2F5E2F5E2F5F5E2F5E2E2E2F5E2E2E2E2E2E2E2E2E2E2E2E2E2E2E2E2E2E2E2E2E2E2E2E2E2E2E2E2E2E2E2E2E2E2F5F5E2E2E2E2E2E2E2E2E2E2E2E2E2E2E2E2E2E2E2E2E2E2E2E2E2E2E2E2
310
E2E2E2E2E2E2E2F5F5E2E2E2E2E2F0E2E2E2E2E2E2E2E2E2E2E2E2E2E2E2E2E2E2E2E2E2E2E2E2E2E2E2E2E2E2E2E2E2E2E2E2E2E2E2E2E2E2E2E2E2E2E2E2E2E2E2E2E2E2E2E2E2E2E2E2E2E2E2E2E2E2E2E2E2E2E2E2E2E2E2E2E2E2E2E2E2E2E2E2E2E2E2E2E2F5E2F5E2F5F5E2F5E2E2E2F5E2E2E2E2E2E2E2E2E2E2E2
310
E2E2E2E2E2E2E2E2E2E2E2E2E2E2E2E2E2E2E2E2E2E2E2F5F5E2E2E2E2E2E2E2E2E2E2E2E2E2E2E2E2E2E2E2E2E2E2E2E2E2E2E2E2E2E2E2E2E2E2E2F5F5E2E2E2E2E2F0E2E2E2E2E2E2E2E2E2E2E2E2E2E2E2E2E2E2E2E2E2E2E2E2E2E2E2E2E2E2E2E2E2E2E2E2E2E2E2E2E2E2E2E2E2E2E2E2E2E2E2E2E2E2E2E2E2E2E2
310
E2E2E2E2E2E2E2E2E2E2E2E2E2E2E2E2E2E2E2E2E2E2E2E2E2E2E2E2E2E2F5E2F5E2F5F5E2F5E2E2E2F5E2E2E2E2E2E2E2E2E2E2E2E2E2E2E2E2E2E2E2E2E2E2E2E2E2E2E2E2E2E2E2E2E2E2F5F5E2E2E2E2E2E2E2E2E2E2E2E2E2E2E2E2E2E2E2E2E2E2E2E2E2E2E2E2E2E2E2E2E2E2E2F5F5E2E2E2E2E2F0E2E2E2E2E2E2
310
E2E2E2E2E2E2E2E2E2E2E2E2E2E2E2E2E2E2E2E2E2E2E2E2E2E2E2E2E2E2E2E2E2E2E2E2E2E2E2E2E2E2E2E2E2E2E2E2E2E2E2E2E2E2E2E2E2E2E2E2E2E2E2E2E2E2E2E2E2E2E2E2E2E2E2E2E2E2E2E2E2E2E2F5E2F5E2F5F5E2F5E2E2E2F5E2E2E2E2E2E2E2E2E2E2E2E2E2E2E2E2E2E2E2E2E2E2E2E2E2E2E2E2E2E2E2E2
310
E2E2F5F5E2E2E2E2E2E2E2E2E2E2E2E2E2E2E2E2E2E2E2E2E2E2E2E2E2E2E2E2E2E2E2E2E2E2E2F5F5E2E2E2E2E2F0F0E2E2E2E2E2E2E2E2E2E2E2E2E2E2E2E2E2E2E2E2E2E2E2E2E2E2E2E2E2E2E2E2E2E2E2E2E2E2E2E2E2E2E2E2E2E2E2E2E2E2E2E2E2E2E2E2E2E2E2E2E2E2E2E2E2E2E2E2E2E2E2E2E2E2E2E2E2E2E2
310
E2E2E2E2E2E2E2E2E2F5E2F5E2F5F5E2F5E2E2E2F5E2E2E2E2E2E2E2E2E2E2E2E2E2E2E2E2E2E2E2E2E2E2E2E2E2E2E2E2E2E2E2E2E2E2F5F5F5F5F5F5F5F5F5F5F5F5F5F5F5F5F5F5F5F5F5F5F5F5F5F5F5F5F5F5F5F5F5F5F5F5F5F5F5E2E2E2E2E2F0F0E2E2E2E2E2E2E2E2E2E2E2E2E2E2E2E2E2E2E2E2E2E2E2E2E2E2
310
E2E2E2E2E2E2E2E2E2E2E2E2E2E2E2E2E2E2E2E2E2E2E2E2E2E2E2E2E2E2E2E2E2E2E2E2E2E2E2E2E2E2E2E2E2E2E2E2E2E2E2E2E2E2E2E2E2E2E2E2E2E2F5E2F5E2F5F5E2F5E2E2E2F5E2E2E2E2E2E2E2E2E2E2E2E2E2E2E2E2E2E2E2E2E2E2E2E2E2E2E2E2E2E2E2E2E2E2F5F5F5F5F5F5F5F5F5F5F5F5F5F5F5F5F5F5F5
310
F5F5F5F5F5F5F5F5F5F5F5F5F5F5F5F5F5F5F5F5F0F0F0F0F0F5F0F0E2E2E2E2E2E2E2E2E2E2E2E2E2E2E2E2E2E2E2E2E2E2E2E2E2E2E2E2E2E2E2E2E2E2E2E2E2E2E2E2E2E2E2E2E2E2E2E2E2E2E2E2E2E2E2E2E2E2E2E2E2E2E2E2E2E2E2E2E2E2E2E2E2E2E2E2E2E2E2E2E2E2E2E2E2E2E2F5E2F5E2F5F5E2F5E2E2E2F5
310
E2E2E2E2E2E2E2E2E2E2E2E2E2E2E2E2E2E2E2E2E2E2E2E2E2E2E2E2E2E2E2E2E2E2E2E2E2E2E2E2E2E2E2E2E2E2E2E2E2E2E2E2E2E2E2E2E2E2E2E2E2E2E2E2E2E2E2E2E2E2E2E2E2E2E2E2E2E2E2E2E2E2E2E2E2E2E2E2E2E2E2E2E2E2E2E2E2E2E2E2E2E2E2E2E2E2E2E2E2E2E2E2E2E2E2E2E2E2E2E2E2E2E2E2E2E2E2
310
E2E2E2E2E2E2E2E2E2E2E2E2E2E2E2E2E2E2E2E2E2E2E2E2E2E2E2E2E2E2E2E2E2E2E2E2E2E2E2E2E2F5E2F5E2F5F5E2F5E2E2E2F5E2E2E2E2E2E2E2E2E2E2E2E2E2E2E2E2E2E2E2E2E2E2E2E2E2E2E2E2E2E2E2E2E2E2E2E2E2E2E2E2E2E2E2E2E2E2E2E2E2E2E2E2E2E2E2E2E2E2E2E2E2E2E2E2E2E2E2E2E2E2E2E2E2E2
310
E2E2E2E2E2E2E2E2E2E2E2E2E2E2E2E2E2E2E2E2E2E2E2E2E2E2E2E2E2E2E2E2E2E2E2E2E2E2E2E2E2E2E2E2E2E2E2E2E2E2E2E2E2E2E2E2E2E2E2E2E2E2E2E2E2E2E2E2E2E2E2E2E2E2E2E2E2E2E2E2E2E2E2E2E2E2E2E2E2E2E2E2E2E2F5E2F5E2F5F5E2F5E2E2E2F5E2E2E2E2E2E2E2E2E2E2E2E2E2E2E2E2E2E2E2E2E2
310
E2E2E2E2E2E2E2E2E2E2E2E2E2E2E2E2E2E2E2E2E2E2E2E2E2E2E2E2E2E2E2E2E2E2E2E2E2E2E2E2E2E2E2E2E2E2E2E2E2E2E2E2E2E2E2E2E2E2E2E2E2E2E2E2E2E2E2E2E2E2E2E2E2E2E2E2E2E2E2E2E2E2E2E2E2E2E2E2E2E2E2E2E2E2E2E2E2E2E2E2E2E2E2E2E2E2E2E2E2E2E2E2E2E2E2E2E2E2E2E2E2E2F0F0F5F5F5
310
F5F5F5F0F0F0F5F5F5F5F0F5F5F5F0F5F0F0F0E2F5E2F5E2F5F5E2F5E2E2E2F5E2E2E2E2E2E2E2E2E2E2E2E2E2E2E2E2E2E2E2E2E2E2E2E2E2E2E2E2E2E2E2E2E2E2E2E2E2E2E2E2E2E2E2E2E2E2E2E2E2E2E2E2E2E2E2E2E2E2E2E2E2E2E2E2E2E2E2E2E2E2E2E2E2E2E2E2E2E2E2E2E2E2E2E2E2E2E2E2E2E2E2E2E2E2E2
310
E2E2E2E2E2E2E2E2E2E2E2E2E2E2E2E2E2E2E2E2E2E2E2E2E2E2E2E2E2E2E2E2E2E2E2E2E2E2E2E2E2E2E2E2E2E2E2E2E2E2F5F5F5F5F5F5F5F5E2F5F5F5F5F5F5F5F5E2F5E2E2E2E2F5E2F5E2F5F5E2F5E2E2E2F5E2E2E2E2E2E2E2E2E2E2E2E2E2E2E2E2E2E2E2E2E2E2E2E2E2E2E2E2E2E2E2E2E2E2E2E2E2E2E2E2E2E2
310
E2E2E2E2E2E2E2E2E2E2E2E2E2E2E2E2E2E2E2E2E2E2E2E2E2E2E2E2E2E2E2E2E2E2E2E2E2E2E2E2E2E2E2E2E2E2E2E2E2E2E2E2E2E2E2E2E2E2E2E2E2E2E2E2E2E2E2E2E2E2E2E2E2E2E2E2E2E2E2E2E2E2E2E2E2E2E2E2E2E2E2E2E2E2E2E2E2E2E2E2E2E2E2F5F5F5F5F5F5E2E2F5F5F5F5F5F5F5F5F5E2E2F5E2E2E2F5
310
E2F5E2F5F5E2F5E2E2E2F5E2E2E2E2E2E2E2E2E2E2E2E2E2E2E2E2E2E2E2E2E2E2E2E2E2E2E2E2E2E2E2E2E2E2E2E2E2E2E2E2E2E2E2E2E2E2E2E2E2E2E2E2E2E2E2E2E2E2E2E2E2E2E2E2E2E2E2E2E2E2E2E2E2E2E2E2E2E2E2E2E2E2E2E2E2E2E2E2E2E2E2E2E2E2E2E2E2E2E2E2E2E2E2E2E2E2E2E2E2E2E2E2E2E2E2E2
310
E2E2E2E2E2E2E2E2E2E2E2E2E2E2E2E2E2E2E2E2E2E2E2E2E2E2E2E2E2F5F5F5F5F5F5E2E2E2F5F5F5F5F5F5F5F5F5F5F5E2E2E2F5E2F5E2F5F5E2E2E2E2E2F5E2E2E2E2E2E2E2E2E2E2E2E2E2E2E2E2E2E2E2E2E2E2E2E2E2E2E2E2E2E2E2E2E2E2E2E2E2E2E2E2E2E2E2E2E2E2E2E2E2E2E2E2E2E2E2E2E2E2E2E2E2E2E2
310
E2E2E2E2E2E2E2E2E2E2E2E2E2E2E2E2E2E2E2E2E2E2E2E2E2E2E2E2E2E2E2E2E2E2E2E2E2E2E2E2E2E2E2E2E2E2E2E2E2E2E2E2E2E2E2E2E2E2E2E2E2E2E2E2E2E2E2E2E2E2E2E2E2E2E2E2E2E2E2E2F0F0F0F0F0F0F0F0F0F0F0F0F0F0F0F0F0F0F0F0F0F0F0F0E2F5E2E2E2F5F5E2E2E2E2E2F5E2E2E2E2E2E2E2E2E2E2
310
E2E2E2E2E2E2E2E2E2E2E2E2E2E2E2E2E2E2E2E2E2E2E2E2E2E2E2E2E2E2E2E2E2E2E2E2E2E2E2E2E2E2E2E2E2E2E2E2E2E2E2E2E2E2E2E2E2E2E2E2E2E2E2E2E2E2E2E2E2E2E2E2E2E2E2E2E2E2E2E2E2E2E2E2E2E2E2E2E2E2E2E2E2E2E2E2E2E2E2E2E2E2E2E2E2E2E2E2E2E2E2E2E2E2E2E2E2E2E2E2E2E2E2E2E2E2E2
310
E2E2E2E2E2E2E2E2F5F5F5F5F5F5E2E2F5F5F5F5F5F5F5E2F5E2E2E2E2E2E2F5E2E2E2F5F5E2E2E2E2E2F5E2E2E2E2E2E2E2E2E2E2E2E2E2E2E2E2E2E2E2E2E2E2E2E2E2E2E2E2E2E2E2E2E2E2E2E2E2E2E2E2E2E2E2E2E2E2E2E2E2E2E2E2E2E2E2E2E2E2E2E2E2E2E2E2E2E2E2E2E2E2E2E2E2E2E2E2E2E2E2E2E2E2E2E2
310
E2E2E2E2E2E2E2E2E2E2E2E2E2E2E2E2E2E2E2E2E2E2E2E2E2E2E2E2E2E2E2E2E2E2E2E2E2E2E2E2E2E2E2E2E2E2E2E2E2E2E2E2E2E2E2E2E2E2E2E2E2F5F5F5F5F5F5F5F5F5F5F5F5F5F5F5E2E2F5E2E2E2E2E2F5E2E2E2F5F5E2E2E2E2E2F5E2E2E2E2E2E2E2E2E2E2E2E2E2E2E2E2E2E2E2E2E2E2E2E2E2E2E2E2E2E2E2
310
E2E2E2E2E2E2E2E2E2E2E2E2E2E2E2E2E2E2E2E2E2E2E2E2E2E2E2E2E2E2E2E2E2E2E2E2E2E2E2E2E2E2E2E2E2E2E2E2E2E2E2E2E2E2E2E2E2E2E2E2E2E2E2E2E2E2E2E2E2E2E2E2E2E2E2E2E2E2E2E2E2E2E2E2E2E2E2E2E2E2E2E2E2E2E2E2E2E2E2E2E2E2E2E2E2E2E2E2E2E2E2E2E2E2F5F5F5F5F5F5E2E2F5F5F5F5F5
310
F5F5F5F5F5E2E2E2E2E2F5E2E2E2F5F5E2E2E2E2E2F5E2E2E2E2E2E2E2E2E2E2E2E2E2E2E2E2E2E2E2E2E2E2E2E2E2E2E2E2E2E2E2E2E2E2E2E2E2E2E2E2E2E2E2E2E2E2E2E2E2E2E2E2E2E2E2E2E2E2E2E2E2E2E2E2E2E2E2E2E2E2E2E2E2E2E2E2E2E2E2E2E2E2E2E2E2E2E2E2E2E2E2E2E2E2E2E2E2E2E2E2E2E2E2E2E2
310
E2E2E2E2E2E2E2E2E2E2E2E2E2E2E2E2E2E2E2E2E2E2E2E2E2E2E2E2E2E2E2E2E2E2E2E2E2E2F0F0F0F0F0F0F0F0F0F0F0F0F0F0F0F0F0F0F0F0F0F0F0F0E2F5E2E2E2F5F5E2E2E2E2E2F5E2E2E2E2E2E2E2E2E2E2E2E2E2E2E2E2E2E2E2E2E2E2E2E2E2E2E2E2E2E2E2E2E2E2E2E2E2E2E2E2E2E2E2E2E2E2E2E2E2E2E2E2
310
E2E2E2E2E2E2E2E2E2E2E2E2E2E2E2E2E2E2E2E2E2E2E2E2E2E2E2E2E2E2E2E2E2E2E2E2E2E2E2E2E2E2E2E2E2E2E2E2E2E2E2E2E2E2E2E2E2E2E2E2E2E2E2E2E2E2E2E2E2E2E2E2E2E2E2E2E2E2E2E2E2E2E2E2E2E2E2E2E2E2E2E2E2F5F5F5F5F5F5E2E2F5F5F5F5F5F5F5E2F5E2E2E2E2E2E2F5E2E2E2F5F5E2E2E2E2E2
310
F5E2E2E2E2E2E2E2E2E2E2E2E2E2E2E2E2E2E2E2E2E2E2E2E2E2E2E2E2E2E2E2E2E2E2E2E2E2E2E2E2E2E2E2E2E2E2E2E2E2E2E2E2E2E2E2E2E2E2E2E2E2E2E2E2E2E2E2E2E2E2E2E2E2E2E2E2E2E2E2E2E2E2E2E2E2E2E2E2E2E2E2E2E2E2E2E2E2E2E2E2E2E2E2E2E2E2E2E2E2E2E2E2E2E2E2E2E2E2E2E2E2E2E2E2E2E2
310
E2E2E2E2E2E2E2E2E2E2E2E2E2E2E2E2E2E2E2F5F5F5E2F5F5F5F5E2F5F5F5F5E2F5E2E2F5E2E2E2E2E2F5E2E2E2F5F5E2E2E2E2E2F5E2E2E2E2E2E2E2E2E2E2E2E2E2E2E2E2E2E2E2E2E2E2E2E2E2E2E2E2E2E2E2E2E2E2E2E2E2E2E2E2E2E2E2E2E2E2E2E2E2E2E2E2E2E2E2E2E2E2E2E2E2E2E2E2E2E2E2E2E2E2E2E2E2
310
E2E2E2E2E2E2E2E2E2E2E2E2E2E2E2E2E2E2E2E2E2E2E2E2E2E2E2E2E2E2E2E2E2E2E2E2E2E2E2E2E2E2E2E2E2E2E2E2E2E2E2E2E2E2E2E2E2E2E2E2E2E2E2E2E2E2E2E2E2E2E2E2F5F5F5F5F5F5E2E2F5F5F5F5F5F5F5F5F5F5E2E2E2E2E2F5E2E2E2F5F5E2E2E2E2E2F5E2E2E2E2E2E2E2E2E2E2E2E2E2E2E2E2E2E2E2E2
310
E2E2E2E2E2E2E2E2E2E2E2E2E2E2E2E2E2E2E2E2E2E2E2E2E2E2E2E2E2E2E2E2E2E2E2E2E2E2E2E2E2E2E2E2E2E2E2E2E2E2E2E2E2E2E2E2E2E2E2E2E2E2E2E2E2E2E2E2E2E2E2E2E2E2E2E2E2E2E2E2E2E2E2E2E2E2E2E2E2E2E2E2E2E2E2E2E2E2E2E2E2E2E2E2E2E2E2E2E2E2E2E2E2E2E2E2E2E2E2E2E2E2E2E2E2E2E2
310
E2E2E2E2E2E2E2E2E2E2E2E2E2E2E2E2E2E2E2E2E2F5E2E2E2F5F5E2F5E2E2E2F5E2E2E2E2E2E2E2E2E2E2E2E2E2E2E2E2E2E2E2E2E2E2E2E2E2E2E2E2E2E2E2E2E2E2E2E2E2E2E2E2E2E2E2E2E2E2E2E2E2E2E2E2E2E2E2E2E2E2E2E2E2E2E2E2E2E2E2E2E2E2E2E2E2E2E2E2E2E2E2E2E2E2E2E2E2E2E2E2E2E2E2E2E2E2
310
E2E2E2E2E2E2E2E2E2E2E2E2E2E2E2E2E2E2E2E2E2E2E2E2E2E2E2E2E2E2E2E2E2E2E2E2E2E2E2E2E2E2E2E2E2E2E2E2E2E2E2E2E2E2E2E2E2E2E2E2E2E2E2E2E2E2E2E2E2E2E2E2E2E2F5E2F5E2F5F5E2F5E2E2E2F5E2E2E2E2E2E2E2E2E2E2E2E2E2E2E2E2E2E2E2E2E2E2E2E2E2E2E2E2E2E2E2E2E2E2E2E2E2E2E2E2E2
310
E2E2E2E2E2E2E2E2E2E2E2E2E2E2E2E2E2E2E2E2E2E2E2E2E2E2E2E2E2E2E2E2E2E2E2E2E2E2E2E2E2E2E2E2E2E2E2E2E2E2E2E2E2E2E2E2E2E2E2E2E2E2E2E2E2E2E2E2E2E2E2E2E2E2E2E2E2E2E2E2E2E2E2E2E2E2E2E2E2E2E2E2E2E2E2E2E2E2E2E2E2E2E2E2E2E2E2E2E2E2E2E2E2E2E2E2E2E2E2E2E2E2E2E2E2E2E2
310
F5E2F5E2F5F5E2F5E2E2E2F5E2E2E2E2E2E2E2E2E2E2E2E2E2E2E2E2E2E2E2E2E2E2E2E2E2E2E2E2E2E2E2E2E2E2E2E2E2E2E2E2E2E2E2E2E2E2E2E2E2E2E2E2E2E2E2E2E2E2E2E2E2E2E2E2E2E2E2E2E2E2E2E2E2E2E2E2E2E2E2E2E2E2E2E2E2E2E2E2E2E2E2E2E2E2E2E2E2E2E2E2E2E2E2E2E2E2E2E2E2E2E2E2E2E2E2
310
E2E2E2E2E2E2E2E2E2E2E2E2E2E2E2E2E2E2E2E2E2E2E2E2E2E2E2E2E2E2E2E2E2E2E2E2E2E2E2E2E2E2E2E2E2E2E2E2E2E2E2E2E2F5E2F5E2F5F5E2F5E2E2E2F5E2E2E2E2E2E2E2E2E2E2E2E2E2E2E2E2E2E2E2E2E2E2E2E2E2E2E2E2E2E2E2E2E2E2E2E2E2E2E2E2E2E2E2E2E2E2E2E2E2E2E2E2E2E2E2E2E2E2E2E2E2E2
310
E2E2E2E2E2E2E2E2E2E2E2E2E2E2E2E2E2E2E2E2E2E2E2E2E2E2E2E2E2E2E2E2E2E2E2E2E2E2E2E2E2E2E2E2E2E2E2E2E2E2E2E2E2E2E2E2E2E2E2E2E2E2E2E2E2E2E2E2E2E2E2E2E2E2E2E2E2E2E2E2E2E2E2E2E2E2E2E2E2E2E2E2E2E2E2E2E2E2E2E2E2E2E2E2E2E2F5E2F5E2F5F5E2F5E2E2E2F5E2E2E2E2E2E2E2E2E2
310
E2E2E2E2E2E2E2E2E2E2E2E2E2E2E2E2E2E2E2E2E2E2E2E2E2E2E2E2E2E2E2E2E2E2E2E2E2E2E2E2E2E2E2E2E2E2E2E2E2E2E2E2E2E2E2E2E2E2E2E2E2E2E2E2E2E2E2E2E2E2E2E2E2E2E2E2E2E2E2E2E2E2E2E2E2E2E2E2E2E2E2E2E2E2E2E2E2E2E2E2E2E2E2E2E2E2E2E2E2E2E2E2E2E2E2E2E2E2E2E2E2E2E2E2E2E2E2
310
E2E2E2E2E2E2E2E2E2E2E2E2E2E2E2E2E2E2E2E2E2E2E2E2E2E2E2E2E2E2E2E2F5E2F5E2F5F5E2F5E2E2E2F5F5F5F5F5F5F5F5F5F5F5F5F5F5F5F5F5F5F5F5F5F5F5F5F5F5F5F5F5F5F5F5F5F5F5F5F5F5F5F5F5F5F5F5F5F5F5F5F5F5F5F5F5F5F5F5F5F5F5F5F5F5F5F5F5F5F5F5F5F5F5F5F5F5F5F5F5F5F5F5F5F5F5F5
310
F5F5F5F5F5F5F5F5F5F5F5F5F5F5F5F5F5F5F5F5F5F5F5F5F5F5F5F5F5F5F5F5F5F5F5F5F5F5F5F5F5F5F5F5F5F5F5F5F5F5F5F5F5F5F5F5F5F5F5F5F5F5F5F5F5F5F5F5F5F5F5F5F5F5F5F5F5F5F5F5F5F5F5F5F5F5E2F5E2F5F5E2F5E2E2E2E2E2E2E2E2E2E2E2E2E2E2E2E2E2E2E2E2E2E2E2E2E2E2E2E2E2E2E2E2E2E2
310
E2E2E2E2E2E2E2E2E2E2E2E2E2E2E2E2E2E2E2E2E2E2E2E2E2E2E2E2E2E2E2E2E2E2E2E2E2E2E2E2E2E2E2E2E2E2E2E2E2E2E2E2E2E2E2E2E2E2E2E2E2E2E2E2E2E2E2E2E2E2E2E2E2E2E2E2E2E2E2E2E2E2E2E2E2E2E2E2E2E2E2E2E2E2E2E2E2E2E2E2E2E2E2E2E2E2E2E2E2E2E2E2E2E2E2E2E2E2E2E2E2E2E2E2E2E2E2
310
E2E2E2E2E2E2E2E2E2E2E2E2E2F5E2F5F5E2F5F5F5F5F5F5F5F5F5E2E2E2E2E2E2E2E2E2F5F5F5F5F5F5F5F5F5F5F5F5F5F5F5F5E2E2E2E2E2E2E2E2E2F5F5F5F5F5F5F5F5F5F5F5F5F5F5F5F5E2E2E2E2E2E2E2E2E2F5F5F5F5F5F5F5F5F5F5F5F5F5F5F5F5E2E2E2E2E2E2E2E2E2F5F5F5F5F5F5F5F5F5F5F5F5F5F5F5F5
310
E2E2E2E2E2E2E2E2E2F5F5F5F5F5F5F5F5F5F5F5F5F5F5F5F5E2E2E2E2E2E2E2E2E2F5F5F5F5F5F5F5F5F5F5F5F5F5F5F5F5E2E2E2E2E2E2E2E2E2F5F5F5F5F5F5F5F5E2F5F5E2E2E2E2E2E2E2E2E2E2E2E2E2E2E2E2E2E2E2E2E2E2E2E2E2E2E2E2E2E2E2E2E2E2E2E2E2E2E2E2E2E2E2E2E2E2E2E2E2E2E2E2E2E2E2E2E2
310
E2E2E2E2E2E2E2E2E2E2E2E2E2E2E2E2E2E2E2E2E2E2E2E2E2E2E2E2E2E2E2E2E2E2E2E2E2E2E2E2E2E2E2E2E2E2E2E2E2E2E2E2E2E2E2E2E2E2E2E2E2E2E2E2E2E2E2E2E2E2E2E2E2E2E2E2E2E2E2E2E2E2E2E2E2E2E2E2E2E2E2E2E2E2E2E2E2E2E2E2E2E2E2E2E2E2E2E2E2E2E2E2E2E2E2E2E2E2E2E2E2F5F5F5F5F5F5
310
F5F5F5F5F5F5F5F5F5F5F5F5F5F5F5F5F5F5F5F5F5F5F5F5F5F5F5F5F5F5F5F5F5F5F5F5F5F5F5F5F5F5F5F5F5F5F5F5F5F5F5F5F5F5F5F5F5F5F5F5F5F5F5F5F5F5F5F5F5F5F5F5F5F5F5F5F5F5F5F5F5F5F5F5F5F5F5F5F5F5F5F5F5F5F5F5F5F5F5F5F5F5F5F5F5F5F5F5F5F5F5F5F5F5F5F5F5F5F5F5F5F5F5F5F5F5F5
310
F5F5F5F5F5F5F5F5F5F5F5F5F5F5F5F5F5F5F5F5F5F5F5F5F5F5F5F5F5F5F5F5F5F5F5F5F5F5F5F5F5F5F5F5F5F5F5F5
  0
XRECORD
  5
8EC
102
{ACAD_REACTORS
330
8EB
102
}
330
8EB
100
AcDbXrecord
280
     1
102
SHADEPLOT
 70
     0
102
SHADEPLOTRESLEVEL
 70
     2
102
SHADEPLOTCUSTOMDPI
 70
   300
  0
XRECORD
  5
8EF
102
{ACAD_REACTORS
330
44C
102
}
330
44C
100
AcDbXrecord
280
     1
102
MATERIAL
148
0.0
149
0.0
149
0.0
 93
        0
 94
      127
282
     0
 72
     0
 77
     0
171
     0
175
     0
179
     0
273
     0
  0
XRECORD
  5
44E
102
{ACAD_REACTORS
330
44C
102
}
330
44C
100
AcDbXrecord
280
     1
270
     1
271
     1
  0
XRECORD
  5
44D
102
{ACAD_REACTORS
330
44C
102
}
330
44C
100
AcDbXrecord
280
     1
270
     1
271
     1
  0
XRECORD
  5
451
102
{ACAD_REACTORS
330
44C
102
}
330
44C
100
AcDbXrecord
280
     1
270
     1
271
     1
  0
XRECORD
  5
450
102
{ACAD_REACTORS
330
44C
102
}
330
44C
100
AcDbXrecord
280
     1
270
     1
271
     1
  0
XRECORD
  5
452
102
{ACAD_REACTORS
330
44C
102
}
330
44C
100
AcDbXrecord
280
     1
270
     1
271
     1
  0
XRECORD
  5
44F
102
{ACAD_REACTORS
330
44C
102
}
330
44C
100
AcDbXrecord
280
     1
270
     1
271
     1
  0
XRECORD
  5
8EE
102
{ACAD_REACTORS
330
444
102
}
330
444
100
AcDbXrecord
280
     1
102
MATERIAL
148
0.0
149
0.0
149
0.0
 93
        0
 94
      127
282
     0
 72
     0
 77
     0
171
     0
175
     0
179
     0
273
     0
  0
XRECORD
  5
446
102
{ACAD_REACTORS
330
444
102
}
330
444
100
AcDbXrecord
280
     1
270
     1
271
     1
  0
XRECORD
  5
445
102
{ACAD_REACTORS
330
444
102
}
330
444
100
AcDbXrecord
280
     1
270
     1
271
     1
  0
XRECORD
  5
449
102
{ACAD_REACTORS
330
444
102
}
330
444
100
AcDbXrecord
280
     1
270
     1
271
     1
  0
XRECORD
  5
448
102
{ACAD_REACTORS
330
444
102
}
330
444
100
AcDbXrecord
280
     1
270
     1
271
     1
  0
XRECORD
  5
44A
102
{ACAD_REACTORS
330
444
102
}
330
444
100
AcDbXrecord
280
     1
270
     1
271
     1
  0
XRECORD
  5
447
102
{ACAD_REACTORS
330
444
102
}
330
444
100
AcDbXrecord
280
     1
270
     1
271
     1
  0
XRECORD
  5
8F0
102
{ACAD_REACTORS
330
454
102
}
330
454
100
AcDbXrecord
280
     1
102
MATERIAL
148
0.0
149
0.0
149
0.0
 93
        0
 94
      127
282
     0
 72
     0
 77
     0
171
     0
175
     0
179
     0
273
     0
  0
XRECORD
  5
456
102
{ACAD_REACTORS
330
454
102
}
330
454
100
AcDbXrecord
280
     1
270
     1
271
     1
  0
XRECORD
  5
455
102
{ACAD_REACTORS
330
454
102
}
330
454
100
AcDbXrecord
280
     1
270
     1
271
     1
  0
XRECORD
  5
459
102
{ACAD_REACTORS
330
454
102
}
330
454
100
AcDbXrecord
280
     1
270
     1
271
     1
  0
XRECORD
  5
458
102
{ACAD_REACTORS
330
454
102
}
330
454
100
AcDbXrecord
280
     1
270
     1
271
     1
  0
XRECORD
  5
45A
102
{ACAD_REACTORS
330
454
102
}
330
454
100
AcDbXrecord
280
     1
270
     1
271
     1
  0
XRECORD
  5
457
102
{ACAD_REACTORS
330
454
102
}
330
454
100
AcDbXrecord
280
     1
270
     1
271
     1
  0
CELLSTYLEMAP
  5
8E8
102
{ACAD_REACTORS
330
8B2
102
}
330
8B2
100
AcDbCellStyleMap
 90
        3
300
CELLSTYLE
  1
TABLEFORMAT_BEGIN
 90
        5
170
     1
 91
        0
 92
    32768
 62
   257
 93
        1
300
CONTENTFORMAT
  1
CONTENTFORMAT_BEGIN
 90
        0
 91
        0
 92
        4
 93
        0
300

 40
0.0
140
1.0
 94
        5
 62
     0
340
11
144
6.0
309
CONTENTFORMAT_END
171
     1
301
MARGIN
  1
CELLMARGIN_BEGIN
 40
1.5
 40
1.5
 40
1.5
 40
1.5
 40
0.18
 40
0.18
309
CELLMARGIN_END
 94
        6
 95
        1
302
GRIDFORMAT
  1
GRIDFORMAT_BEGIN
 90
        0
 91
        1
 62
     0
 92
       -2
340
0
 93
        0
 40
0.045
309
GRIDFORMAT_END
 95
        2
302
GRIDFORMAT
  1
GRIDFORMAT_BEGIN
 90
        0
 91
        1
 62
     0
 92
       -2
340
0
 93
        0
 40
0.045
309
GRIDFORMAT_END
 95
        4
302
GRIDFORMAT
  1
GRIDFORMAT_BEGIN
 90
        0
 91
        1
 62
     0
 92
       -2
340
0
 93
        0
 40
0.045
309
GRIDFORMAT_END
 95
        8
302
GRIDFORMAT
  1
GRIDFORMAT_BEGIN
 90
        0
 91
        1
 62
     0
 92
       -2
340
0
 93
        0
 40
0.045
309
GRIDFORMAT_END
 95
       16
302
GRIDFORMAT
  1
GRIDFORMAT_BEGIN
 90
        0
 91
        1
 62
     0
 92
       -2
340
0
 93
        0
 40
0.045
309
GRIDFORMAT_END
 95
       32
302
GRIDFORMAT
  1
GRIDFORMAT_BEGIN
 90
        0
 91
        1
 62
     0
 92
       -2
340
0
 93
        0
 40
0.045
309
GRIDFORMAT_END
309
TABLEFORMAT_END
  1
CELLSTYLE_BEGIN
 90
        1
 91
        1
300
_TITLE
309
CELLSTYLE_END
300
CELLSTYLE
  1
TABLEFORMAT_BEGIN
 90
        5
170
     1
 91
        0
 92
        0
 62
   257
 93
        1
300
CONTENTFORMAT
  1
CONTENTFORMAT_BEGIN
 90
        0
 91
        0
 92
        4
 93
        0
300

 40
0.0
140
1.0
 94
        5
 62
     0
340
11
144
4.5
309
CONTENTFORMAT_END
171
     1
301
MARGIN
  1
CELLMARGIN_BEGIN
 40
1.5
 40
1.5
 40
1.5
 40
1.5
 40
0.18
 40
0.18
309
CELLMARGIN_END
 94
        6
 95
        1
302
GRIDFORMAT
  1
GRIDFORMAT_BEGIN
 90
        0
 91
        1
 62
     0
 92
       -2
340
0
 93
        0
 40
0.045
309
GRIDFORMAT_END
 95
        2
302
GRIDFORMAT
  1
GRIDFORMAT_BEGIN
 90
        0
 91
        1
 62
     0
 92
       -2
340
0
 93
        0
 40
0.045
309
GRIDFORMAT_END
 95
        4
302
GRIDFORMAT
  1
GRIDFORMAT_BEGIN
 90
        0
 91
        1
 62
     0
 92
       -2
340
0
 93
        0
 40
0.045
309
GRIDFORMAT_END
 95
        8
302
GRIDFORMAT
  1
GRIDFORMAT_BEGIN
 90
        0
 91
        1
 62
     0
 92
       -2
340
0
 93
        0
 40
0.045
309
GRIDFORMAT_END
 95
       16
302
GRIDFORMAT
  1
GRIDFORMAT_BEGIN
 90
        0
 91
        1
 62
     0
 92
       -2
340
0
 93
        0
 40
0.045
309
GRIDFORMAT_END
 95
       32
302
GRIDFORMAT
  1
GRIDFORMAT_BEGIN
 90
        0
 91
        1
 62
     0
 92
       -2
340
0
 93
        0
 40
0.045
309
GRIDFORMAT_END
309
TABLEFORMAT_END
  1
CELLSTYLE_BEGIN
 90
        2
 91
        1
300
_HEADER
309
CELLSTYLE_END
300
CELLSTYLE
  1
TABLEFORMAT_BEGIN
 90
        5
170
     1
 91
        0
 92
        0
 62
   257
 93
        1
300
CONTENTFORMAT
  1
CONTENTFORMAT_BEGIN
 90
        0
 91
        0
 92
        4
 93
        0
300

 40
0.0
140
1.0
 94
        2
 62
     0
340
11
144
4.5
309
CONTENTFORMAT_END
171
     1
301
MARGIN
  1
CELLMARGIN_BEGIN
 40
1.5
 40
1.5
 40
1.5
 40
1.5
 40
0.18
 40
0.18
309
CELLMARGIN_END
 94
        6
 95
        1
302
GRIDFORMAT
  1
GRIDFORMAT_BEGIN
 90
        0
 91
        1
 62
     0
 92
       -2
340
0
 93
        0
 40
0.045
309
GRIDFORMAT_END
 95
        2
302
GRIDFORMAT
  1
GRIDFORMAT_BEGIN
 90
        0
 91
        1
 62
     0
 92
       -2
340
0
 93
        0
 40
0.045
309
GRIDFORMAT_END
 95
        4
302
GRIDFORMAT
  1
GRIDFORMAT_BEGIN
 90
        0
 91
        1
 62
     0
 92
       -2
340
0
 93
        0
 40
0.045
309
GRIDFORMAT_END
 95
        8
302
GRIDFORMAT
  1
GRIDFORMAT_BEGIN
 90
        0
 91
        1
 62
     0
 92
       -2
340
0
 93
        0
 40
0.045
309
GRIDFORMAT_END
 95
       16
302
GRIDFORMAT
  1
GRIDFORMAT_BEGIN
 90
        0
 91
        1
 62
     0
 92
       -2
340
0
 93
        0
 40
0.045
309
GRIDFORMAT_END
 95
       32
302
GRIDFORMAT
  1
GRIDFORMAT_BEGIN
 90
        0
 91
        1
 62
     0
 92
       -2
340
0
 93
        0
 40
0.045
309
GRIDFORMAT_END
309
TABLEFORMAT_END
  1
CELLSTYLE_BEGIN
 90
        3
 91
        2
300
_DATA
309
CELLSTYLE_END
  0
XRECORD
  5
8ED
102
{ACAD_REACTORS
330
8B2
102
}
330
8B2
100
AcDbXrecord
280
     1
102
ACAD_ROUNDTRIP_PRE2007_TABLESTYLE
 90
        4
 91
        0
  1

 92
        4
 93
        0
  2

 94
        4
 95
        0
  3

  0
ENDSEC
  0
EOF
