  0
SECTION
  2
HEADER
  9
$ACADVER
  1
AC1015
  9
$ACADMAINTVER
 70
    20
  9
$DWGCODEPAGE
  3
ANSI_932
  9
$INSBASE
 10
0.0
 20
0.0
 30
0.0
  9
$EXTMIN
 10
2321.349129627463
 20
76.72035842355967
 30
-0.0000000000000568
  9
$EXTMAX
 10
4113.465686793873
 20
1086.202125244778
 30
0.0
  9
$LIMMIN
 10
0.0
 20
0.0
  9
$LIMMAX
 10
409.8899999999999
 20
282.89
  9
$ORTHOMODE
 70
     1
  9
$REGENMODE
 70
     1
  9
$FILLMODE
 70
     1
  9
$QTEXTMODE
 70
     0
  9
$MIRRTEXT
 70
     1
  9
$LTSCALE
 40
10.0
  9
$ATTMODE
 70
     1
  9
$TEXTSIZE
 40
3.5
  9
$TRACEWID
 40
1.0
  9
$TEXTSTYLE
  7
AD-STANDARD
  9
$CLAYER
  8
MEASURE
  9
$CELTYPE
  6
BYLAYER
  9
$CECOLOR
 62
   256
  9
$CELTSCALE
 40
1.0
  9
$DISPSILH
 70
     0
  9
$DIMSCALE
 40
5.0
  9
$DIMASZ
 40
2.5
  9
$DIMEXO
 40
1.0
  9
$DIMDLI
 40
0.38
  9
$DIMRND
 40
0.0
  9
$DIMDLE
 40
0.0
  9
$DIMEXE
 40
2.0
  9
$DIMTP
 40
0.0
  9
$DIMTM
 40
0.0
  9
$DIMTXT
 40
3.5
  9
$DIMCEN
 40
-2.0
  9
$DIMTSZ
 40
0.0
  9
$DIMTOL
 70
     0
  9
$DIMLIM
 70
     0
  9
$DIMTIH
 70
     0
  9
$DIMTOH
 70
     0
  9
$DIMSE1
 70
     0
  9
$DIMSE2
 70
     0
  9
$DIMTAD
 70
     1
  9
$DIMZIN
 70
     8
  9
$DIMBLK
  1

  9
$DIMASO
 70
     1
  9
$DIMSHO
 70
     1
  9
$DIMPOST
  1

  9
$DIMAPOST
  1

  9
$DIMALT
 70
     0
  9
$DIMALTD
 70
     2
  9
$DIMALTF
 40
25.4
  9
$DIMLFAC
 40
1.0
  9
$DIMTOFL
 70
     1
  9
$DIMTVP
 40
0.0
  9
$DIMTIX
 70
     0
  9
$DIMSOXD
 70
     0
  9
$DIMSAH
 70
     0
  9
$DIMBLK1
  1

  9
$DIMBLK2
  1

  9
$DIMSTYLE
  2
AD-STANDARD
  9
$DIMCLRD
 70
     9
  9
$DIMCLRE
 70
     9
  9
$DIMCLRT
 70
     2
  9
$DIMTFAC
 40
1.0
  9
$DIMGAP
 40
0.5
  9
$DIMJUST
 70
     0
  9
$DIMSD1
 70
     0
  9
$DIMSD2
 70
     0
  9
$DIMTOLJ
 70
     1
  9
$DIMTZIN
 70
     8
  9
$DIMALTZ
 70
     0
  9
$DIMALTTZ
 70
     0
  9
$DIMUPT
 70
     0
  9
$DIMDEC
 70
     4
  9
$DIMTDEC
 70
     4
  9
$DIMALTU
 70
     2
  9
$DIMALTTD
 70
     2
  9
$DIMTXSTY
  7
AD-STANDARD
  9
$DIMAUNIT
 70
     0
  9
$DIMADEC
 70
     0
  9
$DIMALTRND
 40
0.0
  9
$DIMAZIN
 70
     0
  9
$DIMDSEP
 70
    46
  9
$DIMATFIT
 70
     3
  9
$DIMFRAC
 70
     0
  9
$DIMLDRBLK
  1

  9
$DIMLUNIT
 70
     2
  9
$DIMLWD
 70
    -2
  9
$DIMLWE
 70
    -2
  9
$DIMTMOVE
 70
     0
  9
$LUNITS
 70
     2
  9
$LUPREC
 70
     4
  9
$SKETCHINC
 40
1.0
  9
$FILLETRAD
 40
0.0
  9
$AUNITS
 70
     0
  9
$AUPREC
 70
     0
  9
$MENU
  1
.
  9
$ELEVATION
 40
0.0
  9
$PELEVATION
 40
0.0
  9
$THICKNESS
 40
0.0
  9
$LIMCHECK
 70
     0
  9
$CHAMFERA
 40
0.0
  9
$CHAMFERB
 40
0.0
  9
$CHAMFERC
 40
673.4006734006733
  9
$CHAMFERD
 40
0.0
  9
$SKPOLY
 70
     0
  9
$TDCREATE
 40
2454826.828500578
  9
$TDUCREATE
 40
2454826.453500579
  9
$TDUPDATE
 40
2459044.570756690
  9
$TDUUPDATE
 40
2459044.195756690
  9
$TDINDWG
 40
0.1575744213
  9
$TDUSRTIMER
 40
0.1575742361
  9
$USRTIMER
 70
     1
  9
$ANGBASE
 50
0.0
  9
$ANGDIR
 70
     0
  9
$PDMODE
 70
     0
  9
$PDSIZE
 40
0.0
  9
$PLINEWID
 40
0.0
  9
$SPLFRAME
 70
     0
  9
$SPLINETYPE
 70
     6
  9
$SPLINESEGS
 70
     8
  9
$HANDSEED
  5
3503
  9
$SURFTAB1
 70
     6
  9
$SURFTAB2
 70
     6
  9
$SURFTYPE
 70
     6
  9
$SURFU
 70
     6
  9
$SURFV
 70
     6
  9
$UCSBASE
  2

  9
$UCSNAME
  2

  9
$UCSORG
 10
0.0
 20
0.0
 30
0.0
  9
$UCSXDIR
 10
1.0
 20
0.0
 30
0.0
  9
$UCSYDIR
 10
0.0
 20
1.0
 30
0.0
  9
$UCSORTHOREF
  2

  9
$UCSORTHOVIEW
 70
     0
  9
$UCSORGTOP
 10
0.0
 20
0.0
 30
0.0
  9
$UCSORGBOTTOM
 10
0.0
 20
0.0
 30
0.0
  9
$UCSORGLEFT
 10
0.0
 20
0.0
 30
0.0
  9
$UCSORGRIGHT
 10
0.0
 20
0.0
 30
0.0
  9
$UCSORGFRONT
 10
0.0
 20
0.0
 30
0.0
  9
$UCSORGBACK
 10
0.0
 20
0.0
 30
0.0
  9
$PUCSBASE
  2

  9
$PUCSNAME
  2

  9
$PUCSORG
 10
0.0
 20
0.0
 30
0.0
  9
$PUCSXDIR
 10
1.0
 20
0.0
 30
0.0
  9
$PUCSYDIR
 10
0.0
 20
1.0
 30
0.0
  9
$PUCSORTHOREF
  2

  9
$PUCSORTHOVIEW
 70
     0
  9
$PUCSORGTOP
 10
0.0
 20
0.0
 30
0.0
  9
$PUCSORGBOTTOM
 10
0.0
 20
0.0
 30
0.0
  9
$PUCSORGLEFT
 10
0.0
 20
0.0
 30
0.0
  9
$PUCSORGRIGHT
 10
0.0
 20
0.0
 30
0.0
  9
$PUCSORGFRONT
 10
0.0
 20
0.0
 30
0.0
  9
$PUCSORGBACK
 10
0.0
 20
0.0
 30
0.0
  9
$USERI1
 70
     0
  9
$USERI2
 70
     0
  9
$USERI3
 70
     0
  9
$USERI4
 70
     0
  9
$USERI5
 70
     0
  9
$USERR1
 40
0.0
  9
$USERR2
 40
0.0
  9
$USERR3
 40
0.0
  9
$USERR4
 40
0.0
  9
$USERR5
 40
0.0
  9
$WORLDVIEW
 70
     1
  9
$SHADEDGE
 70
     3
  9
$SHADEDIF
 70
    70
  9
$TILEMODE
 70
     0
  9
$MAXACTVP
 70
    16
  9
$PINSBASE
 10
0.0
 20
0.0
 30
0.0
  9
$PLIMCHECK
 70
     0
  9
$PEXTMIN
 10
-49.64137794033433
 20
-30.68052761783207
 30
0.0
  9
$PEXTMAX
 10
333.4830284773126
 20
235.5293952376656
 30
0.0
  9
$PLIMMIN
 10
-68.05250284506678
 20
-46.03856410344383
  9
$PLIMMAX
 10
351.8941524283707
 20
250.887430769603
  9
$UNITMODE
 70
     0
  9
$VISRETAIN
 70
     0
  9
$PLINEGEN
 70
     0
  9
$PSLTSCALE
 70
     1
  9
$TREEDEPTH
 70
  3020
  9
$CMLSTYLE
  2
STANDARD
  9
$CMLJUST
 70
     0
  9
$CMLSCALE
 40
1.0
  9
$PROXYGRAPHICS
 70
     1
  9
$MEASUREMENT
 70
     1
  9
$CELWEIGHT
370
    -1
  9
$ENDCAPS
280
     0
  9
$JOINSTYLE
280
     0
  9
$LWDISPLAY
290
     0
  9
$INSUNITS
 70
     0
  9
$HYPERLINKBASE
  1

  9
$STYLESHEET
  1

  9
$XEDIT
290
     1
  9
$CEPSNTYPE
380
     0
  9
$PSTYLEMODE
290
     1
  9
$FINGERPRINTGUID
  2
{799F3624-358E-46F1-8628-F9B8950B4580}
  9
$VERSIONGUID
  2
{2F1B8F40-11B5-47E9-B07E-F33BC83C54ED}
  9
$EXTNAMES
290
     1
  9
$PSVPSCALE
 40
0.0
  9
$OLESTARTUP
290
     0
  0
ENDSEC
  0
SECTION
  2
CLASSES
  0
CLASS
  1
ACDBDICTIONARYWDFLT
  2
AcDbDictionaryWithDefault
  3
ObjectDBX Classes
 90
        0
280
     0
281
     0
  0
CLASS
  1
ACDBPLACEHOLDER
  2
AcDbPlaceHolder
  3
ObjectDBX Classes
 90
        0
280
     0
281
     0
  0
CLASS
  1
LAYOUT
  2
AcDbLayout
  3
ObjectDBX Classes
 90
        0
280
     0
281
     0
  0
CLASS
  1
PLOTSETTINGS
  2
AcDbPlotSettings
  3
ObjectDBX Classes
 90
        0
280
     0
281
     0
  0
CLASS
  1
DICTIONARYVAR
  2
AcDbDictionaryVar
  3
ObjectDBX Classes
 90
        0
280
     0
281
     0
  0
CLASS
  1
TABLESTYLE
  2
AcDbTableStyle
  3
ObjectDBX Classes
 90
     4095
280
     0
281
     0
  0
CLASS
  1
SORTENTSTABLE
  2
AcDbSortentsTable
  3
ObjectDBX Classes
 90
        0
280
     0
281
     0
  0
CLASS
  1
MATERIAL
  2
AcDbMaterial
  3
ObjectDBX Classes
 90
     1153
280
     0
281
     0
  0
CLASS
  1
VISUALSTYLE
  2
AcDbVisualStyle
  3
ObjectDBX Classes
 90
     4095
280
     0
281
     0
  0
CLASS
  1
SCALE
  2
AcDbScale
  3
ObjectDBX Classes
 90
     1153
280
     0
281
     0
  0
CLASS
  1
MLEADERSTYLE
  2
AcDbMLeaderStyle
  3
ACDB_MLEADERSTYLE_CLASS
 90
     4095
280
     0
281
     0
  0
CLASS
  1
CELLSTYLEMAP
  2
AcDbCellStyleMap
  3
ObjectDBX Classes
 90
     1152
280
     0
281
     0
  0
ENDSEC
  0
SECTION
  2
TABLES
  0
TABLE
  2
VPORT
  5
8
102
{ACAD_XDICTIONARY
360
3262
102
}
330
0
100
AcDbSymbolTable
 70
     1
  0
VPORT
  5
2A3A
330
8
100
AcDbSymbolTableRecord
100
AcDbViewportTableRecord
  2
*Active
 70
     0
 10
0.0
 20
0.0
 11
1.0
 21
1.0
 12
3217.442452302818
 22
581.4701740818959
 13
0.0
 23
0.0
 14
168.0
 24
168.0
 15
0.0
 25
0.0
 16
0.0
 26
0.0
 36
1.0
 17
0.0
 27
0.0
 37
0.0
 40
1016.854485911665
 41
2.286924939467312
 42
50.0
 43
0.0
 44
0.0
 50
0.0
 51
0.0
 71
     0
 72
   100
 73
     1
 74
     0
 75
     0
 76
     0
 77
     0
 78
     1
281
     0
 65
     1
110
0.0
120
0.0
130
0.0
111
1.0
121
0.0
131
0.0
112
0.0
122
1.0
132
0.0
 79
     0
146
0.0
  0
ENDTAB
  0
TABLE
  2
LTYPE
  5
5
330
0
100
AcDbSymbolTable
 70
     1
  0
LTYPE
  5
14
330
5
100
AcDbSymbolTableRecord
100
AcDbLinetypeTableRecord
  2
BYBLOCK
 70
     0
  3

 72
    65
 73
     0
 40
0.0
  0
LTYPE
  5
15
330
5
100
AcDbSymbolTableRecord
100
AcDbLinetypeTableRecord
  2
BYLAYER
 70
     0
  3

 72
    65
 73
     0
 40
0.0
  0
LTYPE
  5
16
330
5
100
AcDbSymbolTableRecord
100
AcDbLinetypeTableRecord
  2
CONTINUOUS
 70
     0
  3
Solid line
 72
    65
 73
     0
 40
0.0
  0
ENDTAB
  0
TABLE
  2
LAYER
  5
2
102
{ACAD_XDICTIONARY
360
432
102
}
330
0
100
AcDbSymbolTable
 70
     3
  0
LAYER
  5
F
102
{ACAD_XDICTIONARY
360
3255
102
}
330
2
100
AcDbSymbolTableRecord
100
AcDbLayerTableRecord
  2
0
 70
     0
 62
     7
  6
CONTINUOUS
370
    -3
390
2C1
  0
LAYER
  5
71
102
{ACAD_XDICTIONARY
360
3257
102
}
330
2
100
AcDbSymbolTableRecord
100
AcDbLayerTableRecord
  2
MEASURE
 70
     0
 62
     9
  6
CONTINUOUS
370
    -3
390
2C1
  0
LAYER
  5
72
330
2
100
AcDbSymbolTableRecord
100
AcDbLayerTableRecord
  2
DEFPOINTS
 70
     0
 62
     7
  6
CONTINUOUS
290
     0
370
    -3
390
2C1
  0
ENDTAB
  0
TABLE
  2
STYLE
  5
3
330
0
100
AcDbSymbolTable
 70
     2
  0
STYLE
  5
10
330
3
100
AcDbSymbolTableRecord
100
AcDbTextStyleTableRecord
  2
STANDARD
 70
     0
 40
0.0
 41
0.8
 50
0.0
 71
     0
 42
84.17508417508416
  3
TXT
  4
bigfont.shx
  0
STYLE
  5
63
330
3
100
AcDbSymbolTableRecord
100
AcDbTextStyleTableRecord
  2
AD-STANDARD
 70
     0
 40
0.0
 41
0.8
 50
0.0
 71
     0
 42
3.5
  3
C:\Program Files\AutoCAD LT\romans.shx
  4
bigfont.shx
  0
ENDTAB
  0
TABLE
  2
VIEW
  5
6
330
0
100
AcDbSymbolTable
 70
     0
  0
ENDTAB
  0
TABLE
  2
UCS
  5
7
330
0
100
AcDbSymbolTable
 70
     0
  0
ENDTAB
  0
TABLE
  2
APPID
  5
9
330
0
100
AcDbSymbolTable
 70
    18
  0
APPID
  5
11
330
9
100
AcDbSymbolTableRecord
100
AcDbRegAppTableRecord
  2
ACAD
 70
     0
  0
APPID
  5
22A
330
9
100
AcDbSymbolTableRecord
100
AcDbRegAppTableRecord
  2
CONTENTTABDATA
 70
     0
  0
APPID
  5
22B
330
9
100
AcDbSymbolTableRecord
100
AcDbRegAppTableRecord
  2
CONTENTCURRENTTAB
 70
     0
  0
APPID
  5
232
330
9
100
AcDbSymbolTableRecord
100
AcDbRegAppTableRecord
  2
CONTENTBLOCKDESCRIPTION
 70
     0
  0
APPID
  5
233
330
9
100
AcDbSymbolTableRecord
100
AcDbRegAppTableRecord
  2
CONTENTBLOCKICON
 70
     0
  0
APPID
  5
42E
330
9
100
AcDbSymbolTableRecord
100
AcDbRegAppTableRecord
  2
ACAD_PSEXT
 70
     0
  0
APPID
  5
947
330
9
100
AcDbSymbolTableRecord
100
AcDbRegAppTableRecord
  2
ACAD_DSTYLE_DIMTEXT_FILL
 70
     0
  0
APPID
  5
948
330
9
100
AcDbSymbolTableRecord
100
AcDbRegAppTableRecord
  2
ACAD_DSTYLE_DIMEXT_LENGTH
 70
     0
  0
APPID
  5
949
330
9
100
AcDbSymbolTableRecord
100
AcDbRegAppTableRecord
  2
ACAD_DSTYLE_DIMEXT_ENABLED
 70
     0
  0
APPID
  5
94A
330
9
100
AcDbSymbolTableRecord
100
AcDbRegAppTableRecord
  2
ACAD_DSTYLE_DIM_LINETYPE
 70
     0
  0
APPID
  5
94B
330
9
100
AcDbSymbolTableRecord
100
AcDbRegAppTableRecord
  2
ACAD_DSTYLE_DIM_EXT1_LINETYPE
 70
     0
  0
APPID
  5
94C
330
9
100
AcDbSymbolTableRecord
100
AcDbRegAppTableRecord
  2
ACAD_DSTYLE_DIM_EXT2_LINETYPE
 70
     0
  0
APPID
  5
A08
330
9
100
AcDbSymbolTableRecord
100
AcDbRegAppTableRecord
  2
ACAD_DSTYLE_DIMJOGGED_JOGANGLE_SYMBOL
 70
     0
  0
APPID
  5
B2C
330
9
100
AcDbSymbolTableRecord
100
AcDbRegAppTableRecord
  2
ACAD_DSTYLE_DIMARC_LENGTH_SYMBOL
 70
     0
  0
APPID
  5
1240
330
9
100
AcDbSymbolTableRecord
100
AcDbRegAppTableRecord
  2
ACAD_EXEMPT_FROM_CAD_STANDARDS
 70
     0
  0
APPID
  5
2AB6
330
9
100
AcDbSymbolTableRecord
100
AcDbRegAppTableRecord
  2
ACAD_MLEADERVER
 70
     0
  0
APPID
  5
2BE0
330
9
100
AcDbSymbolTableRecord
100
AcDbRegAppTableRecord
  2
ACAD_DSTYLE_DIMJAG
 70
     0
  0
APPID
  5
2BE1
330
9
100
AcDbSymbolTableRecord
100
AcDbRegAppTableRecord
  2
ACAD_DSTYLE_DIMTALN
 70
     0
  0
ENDTAB
  0
TABLE
  2
DIMSTYLE
  5
A
330
0
100
AcDbSymbolTable
 70
     3
100
AcDbDimStyleTable
 71
     1
340
68
  0
DIMSTYLE
105
1D
330
A
100
AcDbSymbolTableRecord
100
AcDbDimStyleTableRecord
  2
STANDARD
 70
     0
340
10
  0
DIMSTYLE
105
68
102
{ACAD_REACTORS
330
31AA
102
}
330
A
100
AcDbSymbolTableRecord
100
AcDbDimStyleTableRecord
  2
AD-STANDARD
 70
     0
 40
5.0
 41
2.5
 42
1.0
 44
2.0
 73
     0
 74
     0
 77
     1
 78
     8
140
3.5
141
-2.0
147
0.5
172
     1
176
     9
177
     9
178
     2
284
     8
340
63
1001
ACAD_DSTYLE_DIMEXT_LENGTH
1070
   378
1040
2.0
1001
ACAD_DSTYLE_DIMJOGGED_JOGANGLE_SYMBOL
1070
   384
1040
1.570796326794896
  0
DIMSTYLE
105
2BDF
102
{ACAD_REACTORS
330
2FD1
330
2FD2
330
2FD3
330
2FD4
330
2FD5
330
2FD6
330
2FD7
330
2FD8
330
2FD9
330
2FDA
330
2FDB
330
2FDC
330
2FDD
330
2FF0
330
2FF1
102
}
330
A
100
AcDbSymbolTableRecord
100
AcDbDimStyleTableRecord
  2
s＝1／6
 70
     0
 40
6.0
 41
2.5
 42
1.0
 44
2.0
 73
     0
 74
     0
 77
     1
 78
     8
140
3.0
141
-2.0
147
0.5
172
     1
176
     9
177
     9
178
     2
284
     8
340
63
1001
ACAD_DSTYLE_DIMJAG
1070
   388
1040
1.5
1001
ACAD_DSTYLE_DIMTALN
1070
   392
1070
     0
  0
ENDTAB
  0
TABLE
  2
BLOCK_RECORD
  5
1
330
0
100
AcDbSymbolTable
 70
    16
  0
BLOCK_RECORD
  5
1A
102
{ACAD_XDICTIONARY
360
D6F
102
}
330
1
100
AcDbSymbolTableRecord
100
AcDbBlockTableRecord
  2
*MODEL_SPACE
340
2C4
  0
BLOCK_RECORD
  5
3299
330
1
100
AcDbSymbolTableRecord
100
AcDbBlockTableRecord
  2
*Paper_Space
340
329A
  0
BLOCK_RECORD
  5
3040
330
1
100
AcDbSymbolTableRecord
100
AcDbBlockTableRecord
  2
*D0
340
0
  0
BLOCK_RECORD
  5
304C
330
1
100
AcDbSymbolTableRecord
100
AcDbBlockTableRecord
  2
*D1
340
0
  0
BLOCK_RECORD
  5
3058
330
1
100
AcDbSymbolTableRecord
100
AcDbBlockTableRecord
  2
*D2
340
0
  0
BLOCK_RECORD
  5
3064
330
1
100
AcDbSymbolTableRecord
100
AcDbBlockTableRecord
  2
*D3
340
0
  0
BLOCK_RECORD
  5
3070
330
1
100
AcDbSymbolTableRecord
100
AcDbBlockTableRecord
  2
*D4
340
0
  0
BLOCK_RECORD
  5
307C
330
1
100
AcDbSymbolTableRecord
100
AcDbBlockTableRecord
  2
*D5
340
0
  0
BLOCK_RECORD
  5
3088
330
1
100
AcDbSymbolTableRecord
100
AcDbBlockTableRecord
  2
*D6
340
0
  0
BLOCK_RECORD
  5
3096
330
1
100
AcDbSymbolTableRecord
100
AcDbBlockTableRecord
  2
*D7
340
0
  0
BLOCK_RECORD
  5
30A2
330
1
100
AcDbSymbolTableRecord
100
AcDbBlockTableRecord
  2
*D8
340
0
  0
BLOCK_RECORD
  5
30AE
330
1
100
AcDbSymbolTableRecord
100
AcDbBlockTableRecord
  2
*D9
340
0
  0
BLOCK_RECORD
  5
30BA
330
1
100
AcDbSymbolTableRecord
100
AcDbBlockTableRecord
  2
*D10
340
0
  0
BLOCK_RECORD
  5
30C6
330
1
100
AcDbSymbolTableRecord
100
AcDbBlockTableRecord
  2
*D11
340
0
  0
BLOCK_RECORD
  5
30D4
330
1
100
AcDbSymbolTableRecord
100
AcDbBlockTableRecord
  2
*D12
340
0
  0
BLOCK_RECORD
  5
30E2
330
1
100
AcDbSymbolTableRecord
100
AcDbBlockTableRecord
  2
*D13
340
0
  0
BLOCK_RECORD
  5
30EE
330
1
100
AcDbSymbolTableRecord
100
AcDbBlockTableRecord
  2
*D14
340
0
  0
BLOCK_RECORD
  5
31AB
330
1
100
AcDbSymbolTableRecord
100
AcDbBlockTableRecord
  2
*D15
340
0
  0
ENDTAB
  0
ENDSEC
  0
SECTION
  2
BLOCKS
  0
BLOCK
  5
1B
330
1A
100
AcDbEntity
  8
0
100
AcDbBlockBegin
  2
*MODEL_SPACE
 70
     0
 10
0.0
 20
0.0
 30
0.0
  3
*MODEL_SPACE
  1

  0
ENDBLK
  5
1C
330
1A
100
AcDbEntity
  8
0
100
AcDbBlockEnd
  0
BLOCK
  5
329B
330
3299
100
AcDbEntity
 67
     1
  8
0
100
AcDbBlockBegin
  2
*Paper_Space
 70
     0
 10
0.0
 20
0.0
 30
0.0
  3
*Paper_Space
  1

  0
ENDBLK
  5
329C
330
3299
100
AcDbEntity
 67
     1
  8
0
100
AcDbBlockEnd
  0
BLOCK
  5
3041
330
3040
100
AcDbEntity
  8
0
100
AcDbBlockBegin
  2
*D0
 70
     1
 10
0.0
 20
0.0
 30
0.0
  3
*D0
  1

  0
LINE
  5
34B2
330
3040
100
AcDbEntity
  8
0
 62
     9
370
    -2
100
AcDbLine
 10
2356.34912962746
 20
673.3384454793736
 30
0.0
 11
2356.34912962746
 21
732.5730638847742
 31
0.0
  0
LINE
  5
34B3
330
3040
100
AcDbEntity
  8
0
 62
     9
370
    -2
100
AcDbLine
 10
2540.266437225765
 20
680.338445479372
 30
0.0
 11
2540.266437225765
 21
732.5730638847742
 31
0.0
  0
LINE
  5
34B4
330
3040
100
AcDbEntity
  8
0
 62
     9
370
    -2
100
AcDbLine
 10
2371.34912962746
 20
720.5730638847742
 30
0.0
 11
2525.266437225765
 21
720.5730638847742
 31
0.0
  0
SOLID
  5
34B5
330
3040
100
AcDbEntity
  8
0
 62
     9
100
AcDbTrace
 10
2371.34912962746
 20
723.0730638847742
 30
0.0
 11
2371.34912962746
 21
718.0730638847742
 31
0.0
 12
2356.34912962746
 22
720.5730638847742
 32
0.0
 13
2356.34912962746
 23
720.5730638847742
 33
0.0
  0
SOLID
  5
34B6
330
3040
100
AcDbEntity
  8
0
 62
     9
100
AcDbTrace
 10
2525.266437225765
 20
723.0730638847742
 30
0.0
 11
2525.266437225765
 21
718.0730638847742
 31
0.0
 12
2540.266437225765
 22
720.5730638847742
 32
0.0
 13
2540.266437225765
 23
720.5730638847742
 33
0.0
  0
MTEXT
  5
34B7
330
3040
100
AcDbEntity
  8
0
 62
     2
100
AcDbMText
 10
2448.307783426612
 20
732.5730638847742
 30
0.0
 40
18.0
 41
0.0
 71
     5
 72
     1
  1
\A1;ケーブル　約 5m
  7
AD-STANDARD
 73
     1
 44
1.0
1001
ACAD
1000
MTEXTBEGIN
1070
    73
1070
     1
1070
    44
1040
1.0
1070
    74
1070
     0
1000
MTEXTEND
  0
POINT
  5
34B8
330
3040
100
AcDbEntity
  8
DEFPOINTS
 62
     0
100
AcDbPoint
 10
2356.34912962746
 20
667.3384454793736
 30
-0.0000000000000284
  0
POINT
  5
34B9
330
3040
100
AcDbEntity
  8
DEFPOINTS
 62
     0
100
AcDbPoint
 10
2540.266437225765
 20
674.3384454793719
 30
-0.0000000000000284
  0
POINT
  5
34BA
330
3040
100
AcDbEntity
  8
DEFPOINTS
 62
     0
100
AcDbPoint
 10
2540.266437225765
 20
720.5730638847742
 30
0.0
  0
ENDBLK
  5
3042
330
3040
100
AcDbEntity
  8
0
100
AcDbBlockEnd
  0
BLOCK
  5
304D
330
304C
100
AcDbEntity
  8
0
100
AcDbBlockBegin
  2
*D1
 70
     1
 10
0.0
 20
0.0
 30
0.0
  3
*D1
  1

  0
LINE
  5
34A9
330
304C
100
AcDbEntity
  8
0
 62
     9
370
    -2
100
AcDbLine
 10
2587.266437225776
 20
130.642843485992
 30
0.0
 11
2587.266437225776
 21
76.72035842355967
 31
0.0
  0
LINE
  5
34AA
330
304C
100
AcDbEntity
  8
0
 62
     9
370
    -2
100
AcDbLine
 10
3193.266437225776
 20
130.642843485992
 30
0.0
 11
3193.266437225776
 21
76.72035842355967
 31
0.0
  0
LINE
  5
34AB
330
304C
100
AcDbEntity
  8
0
 62
     9
370
    -2
100
AcDbLine
 10
2602.266437225776
 20
88.72035842355968
 30
0.0
 11
3178.266437225776
 21
88.72035842355968
 31
0.0
  0
SOLID
  5
34AC
330
304C
100
AcDbEntity
  8
0
 62
     9
100
AcDbTrace
 10
2602.266437225776
 20
91.22035842355968
 30
0.0
 11
2602.266437225776
 21
86.22035842355968
 31
0.0
 12
2587.266437225776
 22
88.72035842355968
 32
0.0
 13
2587.266437225776
 23
88.72035842355968
 33
0.0
  0
SOLID
  5
34AD
330
304C
100
AcDbEntity
  8
0
 62
     9
100
AcDbTrace
 10
3178.266437225776
 20
91.22035842355968
 30
0.0
 11
3178.266437225776
 21
86.22035842355968
 31
0.0
 12
3193.266437225776
 22
88.72035842355968
 32
0.0
 13
3193.266437225776
 23
88.72035842355968
 33
0.0
  0
MTEXT
  5
34AE
330
304C
100
AcDbEntity
  8
0
 62
     2
100
AcDbMText
 10
2890.266437225776
 20
100.7203584235597
 30
0.0
 40
18.0
 41
0.0
 71
     5
 72
     1
  1
\A1;606
  7
AD-STANDARD
 73
     1
 44
1.0
1001
ACAD
1000
MTEXTBEGIN
1070
    73
1070
     1
1070
    44
1040
1.0
1070
    74
1070
     0
1000
MTEXTEND
  0
POINT
  5
34AF
330
304C
100
AcDbEntity
  8
DEFPOINTS
 62
     0
100
AcDbPoint
 10
2587.266437225776
 20
136.642843485992
 30
-0.0000000000000284
  0
POINT
  5
34B0
330
304C
100
AcDbEntity
  8
DEFPOINTS
 62
     0
100
AcDbPoint
 10
3193.266437225776
 20
136.642843485992
 30
-0.0000000000000284
  0
POINT
  5
34B1
330
304C
100
AcDbEntity
  8
DEFPOINTS
 62
     0
100
AcDbPoint
 10
3193.266437225776
 20
88.72035842355968
 30
0.0
  0
ENDBLK
  5
304E
330
304C
100
AcDbEntity
  8
0
100
AcDbBlockEnd
  0
BLOCK
  5
3059
330
3058
100
AcDbEntity
  8
0
100
AcDbBlockBegin
  2
*D2
 70
     1
 10
0.0
 20
0.0
 30
0.0
  3
*D2
  1

  0
LINE
  5
34A0
330
3058
100
AcDbEntity
  8
0
 62
     9
370
    -2
100
AcDbLine
 10
2540.266437225765
 20
965.3384454793647
 30
0.0
 11
2540.266437225765
 21
1045.184055572025
 31
0.0
  0
LINE
  5
34A1
330
3058
100
AcDbEntity
  8
0
 62
     9
370
    -2
100
AcDbLine
 10
3240.266437225773
 20
965.3384454793647
 30
0.0
 11
3240.266437225773
 21
1045.184055572025
 31
0.0
  0
LINE
  5
34A2
330
3058
100
AcDbEntity
  8
0
 62
     9
370
    -2
100
AcDbLine
 10
2555.266437225765
 20
1033.184055572025
 30
0.0
 11
3225.266437225773
 21
1033.184055572025
 31
0.0
  0
SOLID
  5
34A3
330
3058
100
AcDbEntity
  8
0
 62
     9
100
AcDbTrace
 10
2555.266437225765
 20
1035.684055572025
 30
0.0
 11
2555.266437225765
 21
1030.684055572026
 31
0.0
 12
2540.266437225765
 22
1033.184055572025
 32
0.0
 13
2540.266437225765
 23
1033.184055572025
 33
0.0
  0
SOLID
  5
34A4
330
3058
100
AcDbEntity
  8
0
 62
     9
100
AcDbTrace
 10
3225.266437225773
 20
1035.684055572025
 30
0.0
 11
3225.266437225773
 21
1030.684055572026
 31
0.0
 12
3240.266437225773
 22
1033.184055572025
 32
0.0
 13
3240.266437225773
 23
1033.184055572025
 33
0.0
  0
MTEXT
  5
34A5
330
3058
100
AcDbEntity
  8
0
 62
     2
100
AcDbMText
 10
2890.266437225769
 20
1045.184055572025
 30
0.0
 40
18.0
 41
0.0
 71
     5
 72
     1
  1
\A1;700
  7
AD-STANDARD
 73
     1
 44
1.0
1001
ACAD
1000
MTEXTBEGIN
1070
    73
1070
     1
1070
    44
1040
1.0
1070
    74
1070
     0
1000
MTEXTEND
  0
POINT
  5
34A6
330
3058
100
AcDbEntity
  8
DEFPOINTS
 62
     0
100
AcDbPoint
 10
2540.266437225765
 20
959.3384454793648
 30
-0.0000000000000284
  0
POINT
  5
34A7
330
3058
100
AcDbEntity
  8
DEFPOINTS
 62
     0
100
AcDbPoint
 10
3240.266437225773
 20
959.3384454793648
 30
-0.0000000000000284
  0
POINT
  5
34A8
330
3058
100
AcDbEntity
  8
DEFPOINTS
 62
     0
100
AcDbPoint
 10
3240.266437225773
 20
1033.184055572025
 30
0.0
  0
ENDBLK
  5
305A
330
3058
100
AcDbEntity
  8
0
100
AcDbBlockEnd
  0
BLOCK
  5
3065
330
3064
100
AcDbEntity
  8
0
100
AcDbBlockBegin
  2
*D3
 70
     1
 10
0.0
 20
0.0
 30
0.0
  3
*D3
  1

  0
LINE
  5
3497
330
3064
100
AcDbEntity
  8
0
 62
     9
370
    -2
100
AcDbLine
 10
3241.266437225772
 20
964.3384454793737
 30
0.0
 11
3333.173476934425
 21
964.3384454793737
 31
0.0
  0
LINE
  5
3498
330
3064
100
AcDbEntity
  8
0
 62
     9
370
    -2
100
AcDbLine
 10
3241.266437225775
 20
364.3384454793738
 30
0.0
 11
3333.173476934425
 21
364.3384454793738
 31
0.0
  0
LINE
  5
3499
330
3064
100
AcDbEntity
  8
0
 62
     9
370
    -2
100
AcDbLine
 10
3321.173476934425
 20
949.3384454793739
 30
0.0
 11
3321.173476934425
 21
379.3384454793738
 31
0.0
  0
SOLID
  5
349A
330
3064
100
AcDbEntity
  8
0
 62
     9
100
AcDbTrace
 10
3318.673476934425
 20
949.3384454793739
 30
0.0
 11
3323.673476934425
 21
949.3384454793739
 31
0.0
 12
3321.173476934425
 22
964.3384454793737
 32
0.0
 13
3321.173476934425
 23
964.3384454793737
 33
0.0
  0
SOLID
  5
349B
330
3064
100
AcDbEntity
  8
0
 62
     9
100
AcDbTrace
 10
3318.673476934425
 20
379.3384454793738
 30
0.0
 11
3323.673476934425
 21
379.3384454793738
 31
0.0
 12
3321.173476934425
 22
364.3384454793738
 32
0.0
 13
3321.173476934425
 23
364.3384454793738
 33
0.0
  0
MTEXT
  5
349C
330
3064
100
AcDbEntity
  8
0
 62
     2
100
AcDbMText
 10
3309.173476934425
 20
664.3384454793743
 30
0.0
 40
18.0
 41
0.0
 71
     5
 72
     1
  1
\A1;600
  7
AD-STANDARD
 11
0.0000000000000001
 21
1.0
 31
0.0
 73
     1
 44
1.0
1001
ACAD
1000
MTEXTBEGIN
1070
    73
1070
     1
1070
    44
1040
1.0
1070
    74
1070
     0
1000
MTEXTEND
  0
POINT
  5
349D
330
3064
100
AcDbEntity
  8
DEFPOINTS
 62
     0
100
AcDbPoint
 10
3235.266437225772
 20
964.3384454793737
 30
-0.0000000000000284
  0
POINT
  5
349E
330
3064
100
AcDbEntity
  8
DEFPOINTS
 62
     0
100
AcDbPoint
 10
3235.266437225774
 20
364.3384454793738
 30
-0.0000000000000284
  0
POINT
  5
349F
330
3064
100
AcDbEntity
  8
DEFPOINTS
 62
     0
100
AcDbPoint
 10
3321.173476934425
 20
364.3384454793738
 30
0.0
  0
ENDBLK
  5
3066
330
3064
100
AcDbEntity
  8
0
100
AcDbBlockEnd
  0
BLOCK
  5
3071
330
3070
100
AcDbEntity
  8
0
100
AcDbBlockBegin
  2
*D4
 70
     1
 10
0.0
 20
0.0
 30
0.0
  3
*D4
  1

  0
LINE
  5
348E
330
3070
100
AcDbEntity
  8
0
 62
     9
370
    -2
100
AcDbLine
 10
2532.766437225772
 20
969.8384454793737
 30
0.0
 11
2532.766437225772
 21
1077.202125244778
 31
0.0
  0
LINE
  5
348F
330
3070
100
AcDbEntity
  8
0
 62
     9
370
    -2
100
AcDbLine
 10
3247.766437225772
 20
969.8384454793737
 30
0.0
 11
3247.766437225772
 21
1077.202125244778
 31
0.0
  0
LINE
  5
3490
330
3070
100
AcDbEntity
  8
0
 62
     9
370
    -2
100
AcDbLine
 10
2547.766437225773
 20
1065.202125244778
 30
0.0
 11
3232.766437225772
 21
1065.202125244778
 31
0.0
  0
SOLID
  5
3491
330
3070
100
AcDbEntity
  8
0
 62
     9
100
AcDbTrace
 10
2547.766437225773
 20
1067.702125244778
 30
0.0
 11
2547.766437225773
 21
1062.702125244777
 31
0.0
 12
2532.766437225772
 22
1065.202125244778
 32
0.0
 13
2532.766437225772
 23
1065.202125244778
 33
0.0
  0
SOLID
  5
3492
330
3070
100
AcDbEntity
  8
0
 62
     9
100
AcDbTrace
 10
3232.766437225772
 20
1067.702125244778
 30
0.0
 11
3232.766437225772
 21
1062.702125244777
 31
0.0
 12
3247.766437225772
 22
1065.202125244778
 32
0.0
 13
3247.766437225772
 23
1065.202125244778
 33
0.0
  0
MTEXT
  5
3493
330
3070
100
AcDbEntity
  8
0
 62
     2
100
AcDbMText
 10
2890.266437225772
 20
1077.202125244778
 30
0.0
 40
18.0
 41
0.0
 71
     5
 72
     1
  1
\A1;715
  7
AD-STANDARD
 73
     1
 44
1.0
1001
ACAD
1000
MTEXTBEGIN
1070
    73
1070
     1
1070
    44
1040
1.0
1070
    74
1070
     0
1000
MTEXTEND
  0
POINT
  5
3494
330
3070
100
AcDbEntity
  8
DEFPOINTS
 62
     0
100
AcDbPoint
 10
2532.766437225772
 20
963.8384454793738
 30
-0.0000000000000284
  0
POINT
  5
3495
330
3070
100
AcDbEntity
  8
DEFPOINTS
 62
     0
100
AcDbPoint
 10
3247.766437225772
 20
963.8384454793738
 30
-0.0000000000000284
  0
POINT
  5
3496
330
3070
100
AcDbEntity
  8
DEFPOINTS
 62
     0
100
AcDbPoint
 10
3247.766437225772
 20
1065.202125244778
 30
0.0
  0
ENDBLK
  5
3072
330
3070
100
AcDbEntity
  8
0
100
AcDbBlockEnd
  0
BLOCK
  5
307D
330
307C
100
AcDbEntity
  8
0
100
AcDbBlockBegin
  2
*D5
 70
     1
 10
0.0
 20
0.0
 30
0.0
  3
*D5
  1

  0
LINE
  5
3485
330
307C
100
AcDbEntity
  8
0
 62
     9
370
    -2
100
AcDbLine
 10
3245.766437225773
 20
971.8384454793739
 30
0.0
 11
3370.825631003686
 21
971.8384454793737
 31
0.0
  0
LINE
  5
3486
330
307C
100
AcDbEntity
  8
0
 62
     9
370
    -2
100
AcDbLine
 10
3245.766437225773
 20
356.838445479372
 30
0.0
 11
3370.825631003686
 21
356.838445479372
 31
0.0
  0
LINE
  5
3487
330
307C
100
AcDbEntity
  8
0
 62
     9
370
    -2
100
AcDbLine
 10
3358.825631003686
 20
956.8384454793736
 30
0.0
 11
3358.825631003686
 21
371.838445479372
 31
0.0
  0
SOLID
  5
3488
330
307C
100
AcDbEntity
  8
0
 62
     9
100
AcDbTrace
 10
3356.325631003687
 20
956.8384454793736
 30
0.0
 11
3361.325631003686
 21
956.8384454793736
 31
0.0
 12
3358.825631003686
 22
971.8384454793737
 32
0.0
 13
3358.825631003686
 23
971.8384454793737
 33
0.0
  0
SOLID
  5
3489
330
307C
100
AcDbEntity
  8
0
 62
     9
100
AcDbTrace
 10
3356.325631003687
 20
371.838445479372
 30
0.0
 11
3361.325631003686
 21
371.838445479372
 31
0.0
 12
3358.825631003686
 22
356.838445479372
 32
0.0
 13
3358.825631003686
 23
356.838445479372
 33
0.0
  0
MTEXT
  5
348A
330
307C
100
AcDbEntity
  8
0
 62
     2
100
AcDbMText
 10
3346.825631003686
 20
664.3384454793733
 30
0.0
 40
18.0
 41
0.0
 71
     5
 72
     1
  1
\A1;615
  7
AD-STANDARD
 11
0.0000000000000001
 21
1.0
 31
0.0
 73
     1
 44
1.0
1001
ACAD
1000
MTEXTBEGIN
1070
    73
1070
     1
1070
    44
1040
1.0
1070
    74
1070
     0
1000
MTEXTEND
  0
POINT
  5
348B
330
307C
100
AcDbEntity
  8
DEFPOINTS
 62
     0
100
AcDbPoint
 10
3239.766437225772
 20
971.8384454793739
 30
-0.0000000000000284
  0
POINT
  5
348C
330
307C
100
AcDbEntity
  8
DEFPOINTS
 62
     0
100
AcDbPoint
 10
3239.766437225772
 20
356.838445479372
 30
-0.0000000000000284
  0
POINT
  5
348D
330
307C
100
AcDbEntity
  8
DEFPOINTS
 62
     0
100
AcDbPoint
 10
3358.825631003686
 20
356.838445479372
 30
0.0
  0
ENDBLK
  5
307E
330
307C
100
AcDbEntity
  8
0
100
AcDbBlockEnd
  0
BLOCK
  5
3089
330
3088
100
AcDbEntity
  8
0
100
AcDbBlockBegin
  2
*D6
 70
     1
 10
0.0
 20
0.0
 30
0.0
  3
*D6
  1

  0
LINE
  5
347A
330
3088
100
AcDbEntity
  8
0
 62
     9
370
    -2
100
AcDbLine
 10
2520.266437225767
 20
589.3384454793743
 30
0.0
 11
2520.266437225767
 21
517.699324862203
 31
0.0
  0
LINE
  5
347B
330
3088
100
AcDbEntity
  8
0
 62
     9
370
    -2
100
AcDbLine
 10
2540.266437225765
 20
589.3384454793743
 30
0.0
 11
2540.266437225765
 21
517.699324862203
 31
0.0
  0
LINE
  5
347C
330
3088
100
AcDbEntity
  8
0
 62
     9
370
    -2
100
AcDbLine
 10
2555.266437225765
 20
529.6993248622029
 30
0.0
 11
2570.266437225765
 21
529.6993248622029
 31
0.0
  0
LINE
  5
347D
330
3088
100
AcDbEntity
  8
0
 62
     9
370
    -2
100
AcDbLine
 10
2505.266437225767
 20
529.6993248622029
 30
0.0
 11
2460.952151511481
 21
529.6993248622029
 31
0.0
  0
LINE
  5
347E
330
3088
100
AcDbEntity
  8
0
 62
     9
370
    -2
100
AcDbLine
 10
2540.266437225765
 20
529.6993248622029
 30
0.0
 11
2520.266437225767
 21
529.6993248622029
 31
0.0
  0
SOLID
  5
347F
330
3088
100
AcDbEntity
  8
0
 62
     9
100
AcDbTrace
 10
2555.266437225765
 20
532.1993248622029
 30
0.0
 11
2555.266437225765
 21
527.1993248622029
 31
0.0
 12
2540.266437225765
 22
529.6993248622029
 32
0.0
 13
2540.266437225765
 23
529.6993248622029
 33
0.0
  0
SOLID
  5
3480
330
3088
100
AcDbEntity
  8
0
 62
     9
100
AcDbTrace
 10
2505.266437225767
 20
532.1993248622029
 30
0.0
 11
2505.266437225767
 21
527.1993248622029
 31
0.0
 12
2520.266437225767
 22
529.6993248622029
 32
0.0
 13
2520.266437225767
 23
529.6993248622029
 33
0.0
  0
MTEXT
  5
3481
330
3088
100
AcDbEntity
  8
0
 62
     2
100
AcDbMText
 10
2475.609294368624
 20
541.6993248622029
 30
0.0
 40
18.0
 41
0.0
 71
     5
 72
     1
  1
\A1;20
  7
AD-STANDARD
 73
     1
 44
1.0
1001
ACAD
1000
MTEXTBEGIN
1070
    73
1070
     1
1070
    44
1040
1.0
1070
    74
1070
     0
1000
MTEXTEND
  0
POINT
  5
3482
330
3088
100
AcDbEntity
  8
DEFPOINTS
 62
     0
100
AcDbPoint
 10
2520.266437225767
 20
595.3384454793742
 30
0.0
  0
POINT
  5
3483
330
3088
100
AcDbEntity
  8
DEFPOINTS
 62
     0
100
AcDbPoint
 10
2540.266437225765
 20
595.3384454793742
 30
-0.0000000000000284
  0
POINT
  5
3484
330
3088
100
AcDbEntity
  8
DEFPOINTS
 62
     0
100
AcDbPoint
 10
2540.266437225765
 20
529.6993248622029
 30
0.0
  0
ENDBLK
  5
308A
330
3088
100
AcDbEntity
  8
0
100
AcDbBlockEnd
  0
BLOCK
  5
3097
330
3096
100
AcDbEntity
  8
0
100
AcDbBlockBegin
  2
*D7
 70
     1
 10
0.0
 20
0.0
 30
0.0
  3
*D7
  1

  0
LINE
  5
3471
330
3096
100
AcDbEntity
  8
0
 62
     9
370
    -2
100
AcDbLine
 10
3245.266437225775
 20
280.6428434859959
 30
0.0
 11
3333.173476934425
 21
280.6428434859959
 31
0.0
  0
LINE
  5
3472
330
3096
100
AcDbEntity
  8
0
 62
     9
370
    -2
100
AcDbLine
 10
3253.766437225773
 20
190.6428434859813
 30
0.0
 11
3333.173476934425
 21
190.6428434859813
 31
0.0
  0
LINE
  5
3473
330
3096
100
AcDbEntity
  8
0
 62
     9
370
    -2
100
AcDbLine
 10
3321.173476934425
 20
265.6428434859959
 30
0.0
 11
3321.173476934425
 21
205.6428434859813
 31
0.0
  0
SOLID
  5
3474
330
3096
100
AcDbEntity
  8
0
 62
     9
100
AcDbTrace
 10
3318.673476934425
 20
265.6428434859959
 30
0.0
 11
3323.673476934425
 21
265.6428434859959
 31
0.0
 12
3321.173476934425
 22
280.6428434859959
 32
0.0
 13
3321.173476934425
 23
280.6428434859959
 33
0.0
  0
SOLID
  5
3475
330
3096
100
AcDbEntity
  8
0
 62
     9
100
AcDbTrace
 10
3318.673476934425
 20
205.6428434859813
 30
0.0
 11
3323.673476934425
 21
205.6428434859813
 31
0.0
 12
3321.173476934425
 22
190.6428434859813
 32
0.0
 13
3321.173476934425
 23
190.6428434859813
 33
0.0
  0
MTEXT
  5
3476
330
3096
100
AcDbEntity
  8
0
 62
     2
100
AcDbMText
 10
3309.173476934425
 20
235.6428434859891
 30
0.0
 40
18.0
 41
0.0
 71
     5
 72
     1
  1
\A1;90
  7
AD-STANDARD
 11
0.0000000000000001
 21
1.0
 31
0.0
 73
     1
 44
1.0
1001
ACAD
1000
MTEXTBEGIN
1070
    73
1070
     1
1070
    44
1040
1.0
1070
    74
1070
     0
1000
MTEXTEND
  0
POINT
  5
3477
330
3096
100
AcDbEntity
  8
DEFPOINTS
 62
     0
100
AcDbPoint
 10
3239.266437225774
 20
280.6428434859959
 30
-0.0000000000000284
  0
POINT
  5
3478
330
3096
100
AcDbEntity
  8
DEFPOINTS
 62
     0
100
AcDbPoint
 10
3247.766437225772
 20
190.6428434859813
 30
-0.0000000000000284
  0
POINT
  5
3479
330
3096
100
AcDbEntity
  8
DEFPOINTS
 62
     0
100
AcDbPoint
 10
3321.173476934425
 20
190.6428434859813
 30
0.0
  0
ENDBLK
  5
3098
330
3096
100
AcDbEntity
  8
0
100
AcDbBlockEnd
  0
BLOCK
  5
30A3
330
30A2
100
AcDbEntity
  8
0
100
AcDbBlockBegin
  2
*D8
 70
     1
 10
0.0
 20
0.0
 30
0.0
  3
*D8
  1

  0
LINE
  5
3468
330
30A2
100
AcDbEntity
  8
0
 62
     9
370
    -2
100
AcDbLine
 10
3245.266437225775
 20
280.6428434859959
 30
0.0
 11
3370.825631003686
 21
280.6428434859959
 31
0.0
  0
LINE
  5
3469
330
30A2
100
AcDbEntity
  8
0
 62
     9
370
    -2
100
AcDbLine
 10
3211.266437225776
 20
131.642843485992
 30
0.0
 11
3370.825631003686
 21
131.6428434859919
 31
0.0
  0
LINE
  5
346A
330
30A2
100
AcDbEntity
  8
0
 62
     9
370
    -2
100
AcDbLine
 10
3358.825631003686
 20
265.6428434859959
 30
0.0
 11
3358.825631003686
 21
146.6428434859919
 31
0.0
  0
SOLID
  5
346B
330
30A2
100
AcDbEntity
  8
0
 62
     9
100
AcDbTrace
 10
3356.325631003687
 20
265.6428434859959
 30
0.0
 11
3361.325631003686
 21
265.6428434859959
 31
0.0
 12
3358.825631003686
 22
280.6428434859959
 32
0.0
 13
3358.825631003686
 23
280.6428434859959
 33
0.0
  0
SOLID
  5
346C
330
30A2
100
AcDbEntity
  8
0
 62
     9
100
AcDbTrace
 10
3356.325631003687
 20
146.6428434859919
 30
0.0
 11
3361.325631003686
 21
146.6428434859919
 31
0.0
 12
3358.825631003686
 22
131.6428434859919
 32
0.0
 13
3358.825631003686
 23
131.6428434859919
 33
0.0
  0
MTEXT
  5
346D
330
30A2
100
AcDbEntity
  8
0
 62
     2
100
AcDbMText
 10
3346.825631003686
 20
206.1428434859958
 30
0.0
 40
18.0
 41
0.0
 71
     5
 72
     1
  1
\A1;149
  7
AD-STANDARD
 11
0.0000000000000001
 21
1.0
 31
0.0
 73
     1
 44
1.0
1001
ACAD
1000
MTEXTBEGIN
1070
    73
1070
     1
1070
    44
1040
1.0
1070
    74
1070
     0
1000
MTEXTEND
  0
POINT
  5
346E
330
30A2
100
AcDbEntity
  8
DEFPOINTS
 62
     0
100
AcDbPoint
 10
3239.266437225774
 20
280.6428434859959
 30
-0.0000000000000284
  0
POINT
  5
346F
330
30A2
100
AcDbEntity
  8
DEFPOINTS
 62
     0
100
AcDbPoint
 10
3205.266437225776
 20
131.642843485992
 30
-0.0000000000000284
  0
POINT
  5
3470
330
30A2
100
AcDbEntity
  8
DEFPOINTS
 62
     0
100
AcDbPoint
 10
3358.825631003686
 20
131.6428434859919
 30
0.0
  0
ENDBLK
  5
30A4
330
30A2
100
AcDbEntity
  8
0
100
AcDbBlockEnd
  0
BLOCK
  5
30AF
330
30AE
100
AcDbEntity
  8
0
100
AcDbBlockBegin
  2
*D9
 70
     1
 10
0.0
 20
0.0
 30
0.0
  3
*D9
  1

  0
LINE
  5
345F
330
30AE
100
AcDbEntity
  8
0
 62
     9
370
    -2
100
AcDbLine
 10
3548.465686793877
 20
130.6428434859902
 30
0.0
 11
3548.465686793877
 21
76.72035842355967
 31
0.0
  0
LINE
  5
3460
330
30AE
100
AcDbEntity
  8
0
 62
     9
370
    -2
100
AcDbLine
 10
4054.465686793877
 20
130.6428434859902
 30
0.0
 11
4054.465686793877
 21
76.72035842355967
 31
0.0
  0
LINE
  5
3461
330
30AE
100
AcDbEntity
  8
0
 62
     9
370
    -2
100
AcDbLine
 10
3563.465686793877
 20
88.72035842355968
 30
0.0
 11
4039.465686793876
 21
88.72035842355968
 31
0.0
  0
SOLID
  5
3462
330
30AE
100
AcDbEntity
  8
0
 62
     9
100
AcDbTrace
 10
3563.465686793877
 20
91.22035842355968
 30
0.0
 11
3563.465686793877
 21
86.22035842355968
 31
0.0
 12
3548.465686793877
 22
88.72035842355968
 32
0.0
 13
3548.465686793877
 23
88.72035842355968
 33
0.0
  0
SOLID
  5
3463
330
30AE
100
AcDbEntity
  8
0
 62
     9
100
AcDbTrace
 10
4039.465686793876
 20
91.22035842355968
 30
0.0
 11
4039.465686793876
 21
86.22035842355968
 31
0.0
 12
4054.465686793877
 22
88.72035842355968
 32
0.0
 13
4054.465686793877
 23
88.72035842355968
 33
0.0
  0
MTEXT
  5
3464
330
30AE
100
AcDbEntity
  8
0
 62
     2
100
AcDbMText
 10
3801.465686793877
 20
100.7203584235597
 30
0.0
 40
18.0
 41
0.0
 71
     5
 72
     1
  1
\A1;506
  7
AD-STANDARD
 73
     1
 44
1.0
1001
ACAD
1000
MTEXTBEGIN
1070
    73
1070
     1
1070
    44
1040
1.0
1070
    74
1070
     0
1000
MTEXTEND
  0
POINT
  5
3465
330
30AE
100
AcDbEntity
  8
DEFPOINTS
 62
     0
100
AcDbPoint
 10
3548.465686793877
 20
136.6428434859901
 30
-0.0000000000000284
  0
POINT
  5
3466
330
30AE
100
AcDbEntity
  8
DEFPOINTS
 62
     0
100
AcDbPoint
 10
4054.465686793877
 20
136.6428434859901
 30
-0.0000000000000284
  0
POINT
  5
3467
330
30AE
100
AcDbEntity
  8
DEFPOINTS
 62
     0
100
AcDbPoint
 10
4054.465686793877
 20
88.72035842355968
 30
0.0
  0
ENDBLK
  5
30B0
330
30AE
100
AcDbEntity
  8
0
100
AcDbBlockEnd
  0
BLOCK
  5
30BB
330
30BA
100
AcDbEntity
  8
0
100
AcDbBlockBegin
  2
*D10
 70
     1
 10
0.0
 20
0.0
 30
0.0
  3
*D10
  1

  0
LINE
  5
3456
330
30BA
100
AcDbEntity
  8
0
 62
     9
370
    -2
100
AcDbLine
 10
3193.266437225776
 20
130.642843485992
 30
0.0
 11
3193.266437225776
 21
76.72035842355967
 31
0.0
  0
LINE
  5
3457
330
30BA
100
AcDbEntity
  8
0
 62
     9
370
    -2
100
AcDbLine
 10
3232.266437225769
 20
161.142843485992
 30
0.0
 11
3232.266437225769
 21
76.72035842355967
 31
0.0
  0
LINE
  5
3458
330
30BA
100
AcDbEntity
  8
0
 62
     9
370
    -2
100
AcDbLine
 10
3208.266437225776
 20
88.72035842355968
 30
0.0
 11
3217.266437225769
 21
88.72035842355968
 31
0.0
  0
SOLID
  5
3459
330
30BA
100
AcDbEntity
  8
0
 62
     9
100
AcDbTrace
 10
3208.266437225776
 20
91.22035842355968
 30
0.0
 11
3208.266437225776
 21
86.22035842355968
 31
0.0
 12
3193.266437225776
 22
88.72035842355968
 32
0.0
 13
3193.266437225776
 23
88.72035842355968
 33
0.0
  0
SOLID
  5
345A
330
30BA
100
AcDbEntity
  8
0
 62
     9
100
AcDbTrace
 10
3217.266437225769
 20
91.22035842355968
 30
0.0
 11
3217.266437225769
 21
86.22035842355968
 31
0.0
 12
3232.266437225769
 22
88.72035842355968
 32
0.0
 13
3232.266437225769
 23
88.72035842355968
 33
0.0
  0
MTEXT
  5
345B
330
30BA
100
AcDbEntity
  8
0
 62
     2
100
AcDbMText
 10
3212.766437225773
 20
100.7203584235597
 30
0.0
 40
18.0
 41
0.0
 71
     5
 72
     1
  1
\A1;39
  7
AD-STANDARD
 73
     1
 44
1.0
1001
ACAD
1000
MTEXTBEGIN
1070
    73
1070
     1
1070
    44
1040
1.0
1070
    74
1070
     0
1000
MTEXTEND
  0
POINT
  5
345C
330
30BA
100
AcDbEntity
  8
DEFPOINTS
 62
     0
100
AcDbPoint
 10
3193.266437225776
 20
136.642843485992
 30
-0.0000000000000284
  0
POINT
  5
345D
330
30BA
100
AcDbEntity
  8
DEFPOINTS
 62
     0
100
AcDbPoint
 10
3232.266437225769
 20
167.142843485992
 30
-0.0000000000000284
  0
POINT
  5
345E
330
30BA
100
AcDbEntity
  8
DEFPOINTS
 62
     0
100
AcDbPoint
 10
3232.266437225769
 20
88.72035842355968
 30
0.0
  0
ENDBLK
  5
30BC
330
30BA
100
AcDbEntity
  8
0
100
AcDbBlockEnd
  0
BLOCK
  5
30C7
330
30C6
100
AcDbEntity
  8
0
100
AcDbBlockBegin
  2
*D11
 70
     1
 10
0.0
 20
0.0
 30
0.0
  3
*D11
  1

  0
LINE
  5
344B
330
30C6
100
AcDbEntity
  8
0
 62
     9
370
    -2
100
AcDbLine
 10
4054.465686793877
 20
130.6428434859902
 30
0.0
 11
4054.465686793877
 21
76.72035842355967
 31
0.0
  0
LINE
  5
344C
330
30C6
100
AcDbEntity
  8
0
 62
     9
370
    -2
100
AcDbLine
 10
4083.465686793873
 20
161.1428434859883
 30
0.0
 11
4083.465686793873
 21
76.72035842355967
 31
0.0
  0
LINE
  5
344D
330
30C6
100
AcDbEntity
  8
0
 62
     9
370
    -2
100
AcDbLine
 10
4039.465686793876
 20
88.72035842355968
 30
0.0
 11
4024.465686793877
 21
88.72035842355968
 31
0.0
  0
LINE
  5
344E
330
30C6
100
AcDbEntity
  8
0
 62
     9
370
    -2
100
AcDbLine
 10
4098.465686793873
 20
88.72035842355968
 30
0.0
 11
4113.465686793873
 21
88.72035842355968
 31
0.0
  0
LINE
  5
344F
330
30C6
100
AcDbEntity
  8
0
 62
     9
370
    -2
100
AcDbLine
 10
4054.465686793877
 20
88.72035842355968
 30
0.0
 11
4083.465686793873
 21
88.72035842355968
 31
0.0
  0
SOLID
  5
3450
330
30C6
100
AcDbEntity
  8
0
 62
     9
100
AcDbTrace
 10
4039.465686793876
 20
91.22035842355968
 30
0.0
 11
4039.465686793876
 21
86.22035842355968
 31
0.0
 12
4054.465686793877
 22
88.72035842355968
 32
0.0
 13
4054.465686793877
 23
88.72035842355968
 33
0.0
  0
SOLID
  5
3451
330
30C6
100
AcDbEntity
  8
0
 62
     9
100
AcDbTrace
 10
4098.465686793873
 20
91.22035842355968
 30
0.0
 11
4098.465686793873
 21
86.22035842355968
 31
0.0
 12
4083.465686793873
 22
88.72035842355968
 32
0.0
 13
4083.465686793873
 23
88.72035842355968
 33
0.0
  0
MTEXT
  5
3452
330
30C6
100
AcDbEntity
  8
0
 62
     2
100
AcDbMText
 10
4068.965686793875
 20
100.7203584235597
 30
0.0
 40
18.0
 41
0.0
 71
     5
 72
     1
  1
\A1;29
  7
AD-STANDARD
 73
     1
 44
1.0
1001
ACAD
1000
MTEXTBEGIN
1070
    73
1070
     1
1070
    44
1040
1.0
1070
    74
1070
     0
1000
MTEXTEND
  0
POINT
  5
3453
330
30C6
100
AcDbEntity
  8
DEFPOINTS
 62
     0
100
AcDbPoint
 10
4054.465686793877
 20
136.6428434859901
 30
-0.0000000000000284
  0
POINT
  5
3454
330
30C6
100
AcDbEntity
  8
DEFPOINTS
 62
     0
100
AcDbPoint
 10
4083.465686793873
 20
167.1428434859883
 30
-0.0000000000000284
  0
POINT
  5
3455
330
30C6
100
AcDbEntity
  8
DEFPOINTS
 62
     0
100
AcDbPoint
 10
4083.465686793873
 20
88.72035842355968
 30
0.0
  0
ENDBLK
  5
30C8
330
30C6
100
AcDbEntity
  8
0
100
AcDbBlockEnd
  0
BLOCK
  5
30D5
330
30D4
100
AcDbEntity
  8
0
100
AcDbBlockBegin
  2
*D12
 70
     1
 10
0.0
 20
0.0
 30
0.0
  3
*D12
  1

  0
LINE
  5
3440
330
30D4
100
AcDbEntity
  8
0
 62
     9
370
    -2
100
AcDbLine
 10
3548.465686793877
 20
130.6428434859902
 30
0.0
 11
3548.465686793877
 21
76.72035842355967
 31
0.0
  0
LINE
  5
3441
330
30D4
100
AcDbEntity
  8
0
 62
     9
370
    -2
100
AcDbLine
 10
3519.465686793862
 20
161.1428434859883
 30
0.0
 11
3519.465686793862
 21
76.72035842355967
 31
0.0
  0
LINE
  5
3442
330
30D4
100
AcDbEntity
  8
0
 62
     9
370
    -2
100
AcDbLine
 10
3563.465686793877
 20
88.72035842355968
 30
0.0
 11
3578.465686793876
 21
88.72035842355968
 31
0.0
  0
LINE
  5
3443
330
30D4
100
AcDbEntity
  8
0
 62
     9
370
    -2
100
AcDbLine
 10
3504.465686793862
 20
88.72035842355968
 30
0.0
 11
3489.465686793862
 21
88.72035842355968
 31
0.0
  0
LINE
  5
3444
330
30D4
100
AcDbEntity
  8
0
 62
     9
370
    -2
100
AcDbLine
 10
3548.465686793877
 20
88.72035842355968
 30
0.0
 11
3519.465686793862
 21
88.72035842355968
 31
0.0
  0
SOLID
  5
3445
330
30D4
100
AcDbEntity
  8
0
 62
     9
100
AcDbTrace
 10
3563.465686793877
 20
91.22035842355968
 30
0.0
 11
3563.465686793877
 21
86.22035842355968
 31
0.0
 12
3548.465686793877
 22
88.72035842355968
 32
0.0
 13
3548.465686793877
 23
88.72035842355968
 33
0.0
  0
SOLID
  5
3446
330
30D4
100
AcDbEntity
  8
0
 62
     9
100
AcDbTrace
 10
3504.465686793862
 20
91.22035842355968
 30
0.0
 11
3504.465686793862
 21
86.22035842355968
 31
0.0
 12
3519.465686793862
 22
88.72035842355968
 32
0.0
 13
3519.465686793862
 23
88.72035842355968
 33
0.0
  0
MTEXT
  5
3447
330
30D4
100
AcDbEntity
  8
0
 62
     2
100
AcDbMText
 10
3533.96568679387
 20
100.7203584235597
 30
0.0
 40
18.0
 41
0.0
 71
     5
 72
     1
  1
\A1;29
  7
AD-STANDARD
 73
     1
 44
1.0
1001
ACAD
1000
MTEXTBEGIN
1070
    73
1070
     1
1070
    44
1040
1.0
1070
    74
1070
     0
1000
MTEXTEND
  0
POINT
  5
3448
330
30D4
100
AcDbEntity
  8
DEFPOINTS
 62
     0
100
AcDbPoint
 10
3548.465686793877
 20
136.6428434859901
 30
-0.0000000000000284
  0
POINT
  5
3449
330
30D4
100
AcDbEntity
  8
DEFPOINTS
 62
     0
100
AcDbPoint
 10
3519.465686793862
 20
167.1428434859883
 30
-0.0000000000000284
  0
POINT
  5
344A
330
30D4
100
AcDbEntity
  8
DEFPOINTS
 62
     0
100
AcDbPoint
 10
3519.465686793862
 20
88.72035842355968
 30
0.0
  0
ENDBLK
  5
30D6
330
30D4
100
AcDbEntity
  8
0
100
AcDbBlockEnd
  0
BLOCK
  5
30E3
330
30E2
100
AcDbEntity
  8
0
100
AcDbBlockBegin
  2
*D13
 70
     1
 10
0.0
 20
0.0
 30
0.0
  3
*D13
  1

  0
LINE
  5
3437
330
30E2
100
AcDbEntity
  8
0
 62
     9
370
    -2
100
AcDbLine
 10
2514.266437225767
 20
633.3384454793742
 30
0.0
 11
2459.755272695941
 21
633.3384454793742
 31
0.0
  0
LINE
  5
3438
330
30E2
100
AcDbEntity
  8
0
 62
     9
370
    -2
100
AcDbLine
 10
2514.266437225767
 20
595.3384454793742
 30
0.0
 11
2459.755272695941
 21
595.3384454793742
 31
0.0
  0
LINE
  5
3439
330
30E2
100
AcDbEntity
  8
0
 62
     9
370
    -2
100
AcDbLine
 10
2471.755272695941
 20
618.3384454793743
 30
0.0
 11
2471.755272695941
 21
610.3384454793743
 31
0.0
  0
SOLID
  5
343A
330
30E2
100
AcDbEntity
  8
0
 62
     9
100
AcDbTrace
 10
2469.255272695941
 20
618.3384454793743
 30
0.0
 11
2474.255272695942
 21
618.3384454793743
 31
0.0
 12
2471.755272695941
 22
633.3384454793742
 32
0.0
 13
2471.755272695941
 23
633.3384454793742
 33
0.0
  0
SOLID
  5
343B
330
30E2
100
AcDbEntity
  8
0
 62
     9
100
AcDbTrace
 10
2469.255272695941
 20
610.3384454793743
 30
0.0
 11
2474.255272695942
 21
610.3384454793743
 31
0.0
 12
2471.755272695941
 22
595.3384454793742
 32
0.0
 13
2471.755272695941
 23
595.3384454793742
 33
0.0
  0
MTEXT
  5
343C
330
30E2
100
AcDbEntity
  8
0
 62
     2
100
AcDbMText
 10
2459.755272695941
 20
614.3384454793747
 30
0.0
 40
18.0
 41
0.0
 71
     5
 72
     1
  1
\A1;38
  7
AD-STANDARD
 11
0.0000000000000001
 21
1.0
 31
0.0
 73
     1
 44
1.0
1001
ACAD
1000
MTEXTBEGIN
1070
    73
1070
     1
1070
    44
1040
1.0
1070
    74
1070
     0
1000
MTEXTEND
  0
POINT
  5
343D
330
30E2
100
AcDbEntity
  8
DEFPOINTS
 62
     0
100
AcDbPoint
 10
2520.266437225767
 20
633.3384454793742
 30
0.0
  0
POINT
  5
343E
330
30E2
100
AcDbEntity
  8
DEFPOINTS
 62
     0
100
AcDbPoint
 10
2520.266437225767
 20
595.3384454793742
 30
0.0
  0
POINT
  5
343F
330
30E2
100
AcDbEntity
  8
DEFPOINTS
 62
     0
100
AcDbPoint
 10
2471.755272695941
 20
595.3384454793742
 30
0.0
  0
ENDBLK
  5
30E4
330
30E2
100
AcDbEntity
  8
0
100
AcDbBlockEnd
  0
BLOCK
  5
30EF
330
30EE
100
AcDbEntity
  8
0
100
AcDbBlockBegin
  2
*D14
 70
     1
 10
0.0
 20
0.0
 30
0.0
  3
*D14
  1

  0
LINE
  5
342E
330
30EE
100
AcDbEntity
  8
0
 62
     9
370
    -2
100
AcDbLine
 10
2514.266437225767
 20
614.3384454793743
 30
0.0
 11
2418.780993101396
 21
614.3384454793743
 31
0.0
  0
LINE
  5
342F
330
30EE
100
AcDbEntity
  8
0
 62
     9
370
    -2
100
AcDbLine
 10
2539.266437225772
 20
364.338445479372
 30
0.0
 11
2418.780993101396
 21
364.3384454793721
 31
0.0
  0
LINE
  5
3430
330
30EE
100
AcDbEntity
  8
0
 62
     9
370
    -2
100
AcDbLine
 10
2430.780993101395
 20
599.3384454793742
 30
0.0
 11
2430.780993101395
 21
379.338445479372
 31
0.0
  0
SOLID
  5
3431
330
30EE
100
AcDbEntity
  8
0
 62
     9
100
AcDbTrace
 10
2428.280993101396
 20
599.3384454793742
 30
0.0
 11
2433.280993101396
 21
599.3384454793742
 31
0.0
 12
2430.780993101395
 22
614.3384454793743
 32
0.0
 13
2430.780993101395
 23
614.3384454793743
 33
0.0
  0
SOLID
  5
3432
330
30EE
100
AcDbEntity
  8
0
 62
     9
100
AcDbTrace
 10
2428.280993101396
 20
379.338445479372
 30
0.0
 11
2433.280993101396
 21
379.338445479372
 31
0.0
 12
2430.780993101395
 22
364.3384454793721
 32
0.0
 13
2430.780993101395
 23
364.3384454793721
 33
0.0
  0
MTEXT
  5
3433
330
30EE
100
AcDbEntity
  8
0
 62
     2
100
AcDbMText
 10
2418.780993101396
 20
489.3384454793735
 30
0.0
 40
18.0
 41
0.0
 71
     5
 72
     1
  1
\A1;250
  7
AD-STANDARD
 11
0.0000000000000001
 21
1.0
 31
0.0
 73
     1
 44
1.0
1001
ACAD
1000
MTEXTBEGIN
1070
    73
1070
     1
1070
    44
1040
1.0
1070
    74
1070
     0
1000
MTEXTEND
  0
POINT
  5
3434
330
30EE
100
AcDbEntity
  8
DEFPOINTS
 62
     0
100
AcDbPoint
 10
2520.266437225767
 20
614.3384454793743
 30
0.0
  0
POINT
  5
3435
330
30EE
100
AcDbEntity
  8
DEFPOINTS
 62
     0
100
AcDbPoint
 10
2545.266437225772
 20
364.338445479372
 30
-0.0000000000000284
  0
POINT
  5
3436
330
30EE
100
AcDbEntity
  8
DEFPOINTS
 62
     0
100
AcDbPoint
 10
2430.780993101395
 20
364.3384454793721
 30
0.0
  0
ENDBLK
  5
30F0
330
30EE
100
AcDbEntity
  8
0
100
AcDbBlockEnd
  0
BLOCK
  5
31AC
330
31AB
100
AcDbEntity
  8
0
100
AcDbBlockBegin
  2
*D15
 70
     1
 10
0.0
 20
0.0
 30
0.0
  3
*D15
  1

  0
LINE
  5
3425
330
31AB
100
AcDbEntity
  8
0
 62
     9
370
    -2
100
AcDbLine
 10
2587.266437225776
 20
131.642843485992
 30
0.0
 11
2587.266437225776
 21
78.72035842355967
 31
0.0
  0
LINE
  5
3426
330
31AB
100
AcDbEntity
  8
0
 62
     9
370
    -2
100
AcDbLine
 10
2548.266437225769
 20
162.142843485992
 30
0.0
 11
2548.266437225769
 21
78.72035842355967
 31
0.0
  0
LINE
  5
3427
330
31AB
100
AcDbEntity
  8
0
 62
     9
370
    -2
100
AcDbLine
 10
2574.766437225776
 20
88.72035842355968
 30
0.0
 11
2560.766437225769
 21
88.72035842355968
 31
0.0
  0
SOLID
  5
3428
330
31AB
100
AcDbEntity
  8
0
 62
     9
100
AcDbTrace
 10
2574.766437225776
 20
90.803691756893
 30
0.0
 11
2574.766437225776
 21
86.63702509022634
 31
0.0
 12
2587.266437225776
 22
88.72035842355968
 32
0.0
 13
2587.266437225776
 23
88.72035842355968
 33
0.0
  0
SOLID
  5
3429
330
31AB
100
AcDbEntity
  8
0
 62
     9
100
AcDbTrace
 10
2560.766437225769
 20
90.803691756893
 30
0.0
 11
2560.766437225769
 21
86.63702509022634
 31
0.0
 12
2548.266437225769
 22
88.72035842355968
 32
0.0
 13
2548.266437225769
 23
88.72035842355968
 33
0.0
  0
MTEXT
  5
342A
330
31AB
100
AcDbEntity
  8
0
 62
     2
100
AcDbMText
 10
2567.766437225773
 20
99.97035842355968
 30
0.0
 40
17.5
 41
0.0
 71
     5
 72
     1
  1
\A1;39
  7
AD-STANDARD
 73
     1
 44
1.0
1001
ACAD
1000
MTEXTBEGIN
1070
    73
1070
     1
1070
    44
1040
1.0
1070
    74
1070
     0
1000
MTEXTEND
  0
POINT
  5
342B
330
31AB
100
AcDbEntity
  8
DEFPOINTS
 62
     0
100
AcDbPoint
 10
2587.266437225776
 20
136.642843485992
 30
-0.0000000000000284
  0
POINT
  5
342C
330
31AB
100
AcDbEntity
  8
DEFPOINTS
 62
     0
100
AcDbPoint
 10
2548.266437225769
 20
167.142843485992
 30
-0.0000000000000284
  0
POINT
  5
342D
330
31AB
100
AcDbEntity
  8
DEFPOINTS
 62
     0
100
AcDbPoint
 10
2548.266437225769
 20
88.72035842355968
 30
0.0
  0
ENDBLK
  5
31AD
330
31AB
100
AcDbEntity
  8
0
100
AcDbBlockEnd
  0
ENDSEC
  0
SECTION
  2
ENTITIES
  0
LWPOLYLINE
  5
2E14
330
1A
100
AcDbEntity
  8
0
100
AcDbPolyline
 90
        3
 70
     0
 43
0.0
 10
2520.266437225767
 20
633.3384454793742
 10
2520.266437225767
 20
595.3384454793742
 10
2540.266437225773
 20
595.3384454793742
  0
LWPOLYLINE
  5
2E15
330
1A
100
AcDbEntity
  8
0
100
AcDbPolyline
 90
        2
 70
     0
 43
0.0
 10
2540.266437225773
 20
633.3384454793742
 10
2520.266437225767
 20
633.3384454793742
  0
HATCH
  5
2E16
330
1A
100
AcDbEntity
  8
0
100
AcDbHatch
 10
0.0
 20
0.0
 30
-0.0000000000000568
210
0.0
220
0.0
230
1.0
  2
SOLID
 70
     1
 71
     1
 91
        2
 92
        1
 93
        1
 72
     2
 10
2534.266437225767
 20
614.3384454793743
 40
3.400000000000005
 50
0.0
 51
360.0
 73
     1
 97
        1
330
2E17
 92
       16
 93
        1
 72
     2
 10
2534.266437225767
 20
614.3384454793743
 40
3.0
 50
0.0
 51
360.0
 73
     1
 97
        1
330
2E18
 75
     0
 76
     1
 98
        1
 10
2370.143175547254
 20
699.9294207930927
  0
CIRCLE
  5
2E17
102
{ACAD_REACTORS
330
2E16
102
}
330
1A
100
AcDbEntity
  8
0
100
AcDbCircle
 10
2534.266437225767
 20
614.3384454793743
 30
-0.0000000000000568
 40
3.400000000000005
  0
CIRCLE
  5
2E18
102
{ACAD_REACTORS
330
2E16
102
}
330
1A
100
AcDbEntity
  8
0
100
AcDbCircle
 10
2534.266437225767
 20
614.3384454793743
 30
-0.0000000000000568
 40
3.0
  0
ARC
  5
2E19
330
1A
100
AcDbEntity
  8
0
100
AcDbCircle
 10
2534.266437225767
 20
614.3384454793743
 30
-0.0000000000000568
 40
8.5
100
AcDbArc
 50
45.09912784393766
 51
314.9008721560625
  0
ARC
  5
2E1A
330
1A
100
AcDbEntity
  8
0
100
AcDbCircle
 10
2534.266437225767
 20
614.3384454793743
 30
-0.0000000000000568
 40
8.0
100
AcDbArc
 50
41.40962210924198
 51
318.590377890758
  0
CIRCLE
  5
2E1B
330
1A
100
AcDbEntity
  8
0
100
AcDbCircle
 10
2534.266437225767
 20
614.3384454793743
 30
-0.0000000000000568
 40
1.5
  0
LINE
  5
2E1C
330
1A
100
AcDbEntity
  8
0
100
AcDbLine
 10
3108.266437225769
 20
167.3428434859927
 30
-0.0000000000000284
 11
2672.266437225769
 21
167.3428434859886
 31
-0.0000000000000284
  0
LINE
  5
2E1D
330
1A
100
AcDbEntity
  8
0
100
AcDbLine
 10
3203.081391801993
 20
159.142843485992
 30
-0.0000000000000284
 11
3183.451482649546
 21
159.142843485992
 31
-0.0000000000000284
  0
LINE
  5
2E1E
330
1A
100
AcDbEntity
  8
0
100
AcDbLine
 10
3178.266437225769
 20
159.142843485992
 30
-0.0000000000000284
 11
3208.266437225769
 21
159.142843485992
 31
-0.0000000000000284
  0
LINE
  5
2E1F
330
1A
100
AcDbEntity
  8
0
100
AcDbLine
 10
3111.266437225769
 20
164.142843485992
 30
-0.0000000000000284
 11
3229.266437225769
 21
164.142843485992
 31
-0.0000000000000284
  0
LINE
  5
2E20
330
1A
100
AcDbEntity
  8
0
100
AcDbLine
 10
3208.266437225769
 20
159.142843485992
 30
-0.0000000000000284
 11
3208.266437225769
 21
164.142843485992
 31
-0.0000000000000284
  0
ARC
  5
2E21
330
1A
100
AcDbEntity
  8
0
100
AcDbCircle
 10
3229.266437225769
 20
167.1428434859902
 30
-0.0000000000000284
 40
3.0
100
AcDbArc
 50
270.0
 51
0.0
  0
LINE
  5
2E22
330
1A
100
AcDbEntity
  8
0
100
AcDbLine
 10
3232.266437225769
 20
167.142843485992
 30
-0.0000000000000284
 11
3232.266437225771
 21
190.6428434859956
 31
-0.0000000000000284
  0
LINE
  5
2E23
330
1A
100
AcDbEntity
  8
0
100
AcDbLine
 10
3178.266437225769
 20
159.142843485992
 30
-0.0000000000000284
 11
3178.266437225769
 21
164.142843485992
 31
-0.0000000000000284
  0
ARC
  5
2E24
330
1A
100
AcDbEntity
  8
0
100
AcDbCircle
 10
3111.266437225769
 20
167.1428434859902
 30
-0.0000000000000284
 40
3.0
100
AcDbArc
 50
180.0
 51
270.0
  0
LINE
  5
2E25
330
1A
100
AcDbEntity
  8
0
100
AcDbLine
 10
3108.266437225769
 20
190.6428434859956
 30
-0.0000000000000284
 11
3108.266437225769
 21
167.142843485992
 31
-0.0000000000000284
  0
LINE
  5
2E26
330
1A
100
AcDbEntity
  8
0
100
AcDbLine
 10
2669.266437225769
 20
164.142843485992
 30
-0.0000000000000284
 11
2551.266437225769
 21
164.142843485992
 31
-0.0000000000000284
  0
ARC
  5
2E27
330
1A
100
AcDbEntity
  8
0
100
AcDbCircle
 10
2669.266437225769
 20
167.1428434859902
 30
-0.0000000000000284
 40
3.0
100
AcDbArc
 50
270.0
 51
0.0
  0
LINE
  5
2E28
330
1A
100
AcDbEntity
  8
0
100
AcDbLine
 10
2672.266437225769
 20
190.6428434859956
 30
-0.0000000000000284
 11
2672.266437225769
 21
167.142843485992
 31
-0.0000000000000284
  0
ARC
  5
2E29
330
1A
100
AcDbEntity
  8
0
100
AcDbCircle
 10
2551.266437225769
 20
167.1428434859902
 30
-0.0000000000000284
 40
3.0
100
AcDbArc
 50
180.0
 51
270.0
  0
LINE
  5
2E2A
330
1A
100
AcDbEntity
  8
0
100
AcDbLine
 10
2548.266437225769
 20
167.142843485992
 30
-0.0000000000000284
 11
2548.266437225769
 21
190.6428434859956
 31
-0.0000000000000284
  0
LINE
  5
2E2B
330
1A
100
AcDbEntity
  8
0
100
AcDbLine
 10
3801.465686793873
 20
164.1428434859883
 30
-0.0000000000000284
 11
3522.465686793873
 21
164.1428434859883
 31
-0.0000000000000284
  0
LINE
  5
2E2C
330
1A
100
AcDbEntity
  8
0
100
AcDbLine
 10
3522.465686793873
 20
164.1428434859883
 30
-0.0000000000000284
 11
4080.465686793873
 21
164.1428434859902
 31
-0.0000000000000284
  0
LINE
  5
2E2D
330
1A
100
AcDbEntity
  8
0
100
AcDbLine
 10
3563.465686793877
 20
159.1428434859901
 30
-0.0000000000000284
 11
3563.465686793877
 21
164.1428434859902
 31
-0.0000000000000284
  0
LINE
  5
2E2E
330
1A
100
AcDbEntity
  8
0
100
AcDbLine
 10
3533.465686793877
 20
159.1428434859901
 30
-0.0000000000000284
 11
3533.465686793877
 21
164.1428434859902
 31
-0.0000000000000284
  0
LINE
  5
2E2F
330
1A
100
AcDbEntity
  8
0
100
AcDbLine
 10
3563.465686793877
 20
159.1428434859901
 30
-0.0000000000000284
 11
3533.465686793877
 21
159.1428434859901
 31
-0.0000000000000284
  0
LINE
  5
2E30
330
1A
100
AcDbEntity
  8
0
100
AcDbLine
 10
3558.280641370097
 20
159.1428434859901
 30
-0.0000000000000284
 11
3538.650732217652
 21
159.1428434859901
 31
-0.0000000000000284
  0
LINE
  5
2E31
330
1A
100
AcDbEntity
  8
0
100
AcDbLine
 10
3519.465686793862
 20
167.1428434859883
 30
-0.0000000000000284
 11
3519.465686793862
 21
190.642843485992
 31
-0.0000000000000284
  0
ARC
  5
2E32
330
1A
100
AcDbEntity
  8
0
100
AcDbCircle
 10
3522.465686793873
 20
167.1428434859883
 30
-0.0000000000000284
 40
3.0
100
AcDbArc
 50
180.0
 51
270.0
  0
LINE
  5
2E33
330
1A
100
AcDbEntity
  8
0
100
AcDbLine
 10
4069.465686793873
 20
159.1428434859901
 30
-0.0000000000000284
 11
4069.465686793873
 21
164.1428434859902
 31
-0.0000000000000284
  0
LINE
  5
2E34
330
1A
100
AcDbEntity
  8
0
100
AcDbLine
 10
4039.465686793873
 20
159.1428434859901
 30
-0.0000000000000284
 11
4039.465686793873
 21
164.1428434859902
 31
-0.0000000000000284
  0
LINE
  5
2E35
330
1A
100
AcDbEntity
  8
0
100
AcDbLine
 10
4039.465686793873
 20
159.1428434859901
 30
-0.0000000000000284
 11
4069.465686793873
 21
159.1428434859901
 31
-0.0000000000000284
  0
LINE
  5
2E36
330
1A
100
AcDbEntity
  8
0
100
AcDbLine
 10
4044.650732217649
 20
159.1428434859901
 30
-0.0000000000000284
 11
4064.280641370094
 21
159.1428434859901
 31
-0.0000000000000284
  0
ARC
  5
2E37
330
1A
100
AcDbEntity
  8
0
100
AcDbCircle
 10
4080.465686793873
 20
167.1428434859883
 30
-0.0000000000000284
 40
3.0
100
AcDbArc
 50
270.0
 51
0.0
  0
LINE
  5
2E38
330
1A
100
AcDbEntity
  8
0
100
AcDbLine
 10
4083.465686793862
 20
167.1428434859883
 30
-0.0000000000000284
 11
4083.465686793862
 21
190.6428434859901
 31
-0.0000000000000284
  0
LWPOLYLINE
  5
2E39
330
1A
100
AcDbEntity
  8
0
100
AcDbPolyline
 90
        6
 70
     0
 43
0.0
 10
3732.465686793862
 20
149.1428434859892
 10
3732.465686793862
 20
161.2428434859896
 42
-0.4142135623730944
 10
3735.365686793862
 20
164.1428434859892
 10
3767.565686793863
 20
164.1428434859892
 42
-0.4142135623730951
 10
3770.465686793862
 20
161.2428434859896
 10
3770.465686793862
 20
149.1428434859892
  0
LWPOLYLINE
  5
2E3A
330
1A
100
AcDbEntity
  8
0
100
AcDbPolyline
 90
        6
 70
     0
 43
0.0
 10
3735.365686793862
 20
149.1428434859892
 10
3735.365686793862
 20
160.9428434859885
 42
-0.4142135623730907
 10
3735.665686793863
 20
161.2428434859896
 10
3767.265686793864
 20
161.2428434859896
 42
-0.4142135623730839
 10
3767.565686793863
 20
160.9428434859885
 10
3767.565686793863
 20
149.1428434859892
  0
LWPOLYLINE
  5
2E3B
330
1A
100
AcDbEntity
  8
0
100
AcDbPolyline
 90
        2
 70
     0
 43
0.0
 10
3732.465686793862
 20
149.1428434859892
 10
3735.365686793862
 20
149.1428434859892
  0
LWPOLYLINE
  5
2E3C
330
1A
100
AcDbEntity
  8
0
100
AcDbPolyline
 90
        2
 70
     0
 43
0.0
 10
3767.565686793863
 20
149.1428434859892
 10
3770.465686793862
 20
149.1428434859892
  0
LWPOLYLINE
  5
2E3D
330
1A
100
AcDbEntity
  8
0
100
AcDbPolyline
 90
        2
 70
     0
 43
0.0
 10
3732.465686793862
 20
154.1428434859892
 10
3735.365686793862
 20
154.1428434859892
  0
LWPOLYLINE
  5
2E3E
330
1A
100
AcDbEntity
  8
0
100
AcDbPolyline
 90
        2
 70
     0
 43
0.0
 10
3767.565686793863
 20
154.1428434859892
 10
3770.465686793862
 20
154.1428434859892
  0
LINE
  5
2E3F
330
1A
100
AcDbEntity
  8
0
100
AcDbLine
 10
3758.465686793862
 20
161.2428434859896
 30
0.0
 11
3758.465686793862
 21
157.6428434859892
 31
0.0
  0
LINE
  5
2E40
330
1A
100
AcDbEntity
  8
0
100
AcDbLine
 10
3744.465686793862
 20
161.2428434859896
 30
0.0
 11
3744.465686793862
 21
157.6428434859892
 31
0.0
  0
LINE
  5
2E41
330
1A
100
AcDbEntity
  8
0
100
AcDbLine
 10
3744.465686793862
 20
157.6428434859892
 30
0.0
 11
3758.465686793862
 21
157.6428434859892
 31
0.0
  0
LINE
  5
2E42
330
1A
100
AcDbEntity
  8
0
100
AcDbLine
 10
3235.266437225772
 20
964.3384454793737
 30
-0.0000000000000284
 11
2545.266437225772
 21
964.3384454793729
 31
-0.0000000000000284
  0
LINE
  5
2E43
330
1A
100
AcDbEntity
  8
0
100
AcDbLine
 10
3235.266437225772
 20
364.3384454793738
 30
-0.0000000000000284
 11
2545.266437225772
 21
364.3384454793729
 31
-0.0000000000000284
  0
LINE
  5
2E44
330
1A
100
AcDbEntity
  8
0
100
AcDbLine
 10
2540.266437225765
 20
369.3384454793784
 30
-0.0000000000000284
 11
2540.266437225765
 21
959.3384454793657
 31
-0.0000000000000284
  0
LINE
  5
2E45
330
1A
100
AcDbEntity
  8
0
100
AcDbLine
 10
3240.266437225773
 20
369.338445479372
 30
-0.0000000000000284
 11
3240.266437225773
 21
959.3384454793719
 31
-0.0000000000000284
  0
LINE
  5
2E46
330
1A
100
AcDbEntity
  8
0
100
AcDbLine
 10
3240.266437225773
 20
959.3384454793719
 30
-0.0000000000000284
 11
3235.266437225772
 21
959.3384454793719
 31
-0.0000000000000284
  0
LINE
  5
2E47
330
1A
100
AcDbEntity
  8
0
100
AcDbLine
 10
2545.266437225772
 20
959.3384454793719
 30
-0.0000000000000284
 11
2540.266437225773
 21
959.3384454793719
 31
-0.0000000000000284
  0
LINE
  5
2E48
330
1A
100
AcDbEntity
  8
0
100
AcDbLine
 10
2545.266437225772
 20
964.338445479372
 30
-0.0000000000000284
 11
2545.266437225772
 21
959.3384454793719
 31
-0.0000000000000284
  0
LINE
  5
2E49
330
1A
100
AcDbEntity
  8
0
100
AcDbLine
 10
2545.266437225772
 20
369.338445479372
 30
-0.0000000000000284
 11
2545.266437225772
 21
364.338445479372
 31
-0.0000000000000284
  0
LINE
  5
2E4A
330
1A
100
AcDbEntity
  8
0
100
AcDbLine
 10
3235.266437225772
 20
964.338445479372
 30
-0.0000000000000284
 11
3235.266437225772
 21
959.3384454793719
 31
-0.0000000000000284
  0
LINE
  5
2E4B
330
1A
100
AcDbEntity
  8
0
100
AcDbLine
 10
3235.266437225772
 20
369.338445479372
 30
-0.0000000000000284
 11
3235.266437225772
 21
364.338445479372
 31
-0.0000000000000284
  0
LINE
  5
2E4C
330
1A
100
AcDbEntity
  8
0
100
AcDbLine
 10
3240.266437225773
 20
369.338445479372
 30
-0.0000000000000284
 11
3235.266437225772
 21
369.338445479372
 31
-0.0000000000000284
  0
LINE
  5
2E4D
330
1A
100
AcDbEntity
  8
0
100
AcDbLine
 10
2545.266437225772
 20
369.338445479372
 30
-0.0000000000000284
 11
2540.266437225773
 21
369.338445479372
 31
-0.0000000000000284
  0
LINE
  5
2E4E
330
1A
100
AcDbEntity
  8
0
100
AcDbLine
 10
2540.266437225773
 20
391.338445479372
 30
-0.0000000000000284
 11
2540.266437225773
 21
369.338445479372
 31
-0.0000000000000284
  0
LINE
  5
2E4F
330
1A
100
AcDbEntity
  8
0
100
AcDbLine
 10
2537.266437225773
 20
391.338445479372
 30
-0.0000000000000284
 11
2537.266437225771
 21
370.5810861664911
 31
-0.0000000000000284
  0
LINE
  5
2E50
330
1A
100
AcDbEntity
  8
0
100
AcDbLine
 10
2532.766437225772
 20
364.838445479372
 30
-0.0000000000000284
 11
2532.766437225772
 21
391.338445479372
 31
-0.0000000000000284
  0
LINE
  5
2E51
330
1A
100
AcDbEntity
  8
0
100
AcDbLine
 10
2567.266437225772
 20
356.838445479372
 30
-0.0000000000000284
 11
2567.266437225772
 21
364.338445479372
 31
-0.0000000000000284
  0
LINE
  5
2E52
330
1A
100
AcDbEntity
  8
0
100
AcDbLine
 10
2567.266437225772
 20
364.338445479372
 30
-0.0000000000000284
 11
2545.266437225772
 21
364.3384454793729
 31
-0.0000000000000284
  0
LINE
  5
2E53
330
1A
100
AcDbEntity
  8
0
100
AcDbLine
 10
2567.266437225772
 20
361.338445479372
 30
-0.0000000000000284
 11
2546.509077912889
 21
361.3384454793739
 31
-0.0000000000000284
  0
ARC
  5
2E54
330
1A
100
AcDbEntity
  8
0
100
AcDbCircle
 10
2546.509077912889
 20
367.3384454793738
 30
-0.0000000000000284
 40
6.0
100
AcDbArc
 50
224.9999999999905
 51
270.0
  0
ARC
  5
2E55
330
1A
100
AcDbEntity
  8
0
100
AcDbCircle
 10
2540.766437225773
 20
364.838445479372
 30
-0.0000000000000284
 40
8.0
100
AcDbArc
 50
180.0
 51
270.0
  0
LINE
  5
2E56
330
1A
100
AcDbEntity
  8
0
100
AcDbLine
 10
2540.766437225773
 20
356.838445479372
 30
-0.0000000000000284
 11
2567.266437225772
 21
356.838445479372
 31
-0.0000000000000284
  0
LINE
  5
2E57
330
1A
100
AcDbEntity
  8
0
100
AcDbLine
 10
2532.766437225772
 20
391.338445479372
 30
-0.0000000000000284
 11
2540.266437225773
 21
391.338445479372
 31
-0.0000000000000284
  0
LINE
  5
2E58
330
1A
100
AcDbEntity
  8
0
100
AcDbLine
 10
3240.266437225773
 20
391.338445479372
 30
-0.0000000000000284
 11
3240.266437225773
 21
369.338445479372
 31
-0.0000000000000284
  0
LINE
  5
2E59
330
1A
100
AcDbEntity
  8
0
100
AcDbLine
 10
3243.266437225773
 20
391.338445479372
 30
-0.0000000000000284
 11
3243.266437225773
 21
370.581086166492
 31
-0.0000000000000284
  0
ARC
  5
2E5A
330
1A
100
AcDbEntity
  8
0
100
AcDbCircle
 10
3237.266437225772
 20
370.581086166492
 30
-0.0000000000000284
 40
6.0
100
AcDbArc
 50
315.0000000000095
 51
0.0
  0
LINE
  5
2E5B
330
1A
100
AcDbEntity
  8
0
100
AcDbLine
 10
3247.766437225772
 20
364.838445479372
 30
-0.0000000000000284
 11
3247.766437225772
 21
391.338445479372
 31
-0.0000000000000284
  0
LINE
  5
2E5C
330
1A
100
AcDbEntity
  8
0
100
AcDbLine
 10
3213.266437225772
 20
356.838445479372
 30
-0.0000000000000284
 11
3213.266437225772
 21
364.338445479372
 31
-0.0000000000000284
  0
LINE
  5
2E5D
330
1A
100
AcDbEntity
  8
0
100
AcDbLine
 10
3213.266437225772
 20
364.338445479372
 30
-0.0000000000000284
 11
3235.266437225772
 21
364.338445479372
 31
-0.0000000000000284
  0
LINE
  5
2E5E
330
1A
100
AcDbEntity
  8
0
100
AcDbLine
 10
3213.266437225772
 20
361.338445479372
 30
-0.0000000000000284
 11
3234.023796538652
 21
361.338445479372
 31
-0.0000000000000284
  0
LINE
  5
2E5F
330
1A
100
AcDbEntity
  8
0
100
AcDbLine
 10
3239.766437225772
 20
356.838445479372
 30
-0.0000000000000284
 11
3213.266437225772
 21
356.838445479372
 31
-0.0000000000000284
  0
ARC
  5
2E60
330
1A
100
AcDbEntity
  8
0
100
AcDbCircle
 10
3239.766437225772
 20
364.838445479372
 30
-0.0000000000000284
 40
8.0
100
AcDbArc
 50
270.0
 51
0.0
  0
LINE
  5
2E61
330
1A
100
AcDbEntity
  8
0
100
AcDbLine
 10
3247.766437225772
 20
391.338445479372
 30
-0.0000000000000284
 11
3240.266437225773
 21
391.338445479372
 31
-0.0000000000000284
  0
LINE
  5
2E62
330
1A
100
AcDbEntity
  8
0
100
AcDbLine
 10
2540.766437225773
 20
971.8384454793739
 30
-0.0000000000000284
 11
2567.266437225772
 21
971.8384454793739
 31
-0.0000000000000284
  0
LINE
  5
2E63
330
1A
100
AcDbEntity
  8
0
100
AcDbLine
 10
2532.766437225772
 20
937.3384454793738
 30
-0.0000000000000284
 11
2540.266437225773
 21
937.3384454793738
 31
-0.0000000000000284
  0
LINE
  5
2E64
330
1A
100
AcDbEntity
  8
0
100
AcDbLine
 10
2567.266437225772
 20
964.3384454793737
 30
-0.0000000000000284
 11
2545.266437225772
 21
964.3384454793729
 31
-0.0000000000000284
  0
LINE
  5
2E65
330
1A
100
AcDbEntity
  8
0
100
AcDbLine
 10
2567.266437225772
 20
967.3384454793739
 30
-0.0000000000000284
 11
2546.509077912892
 21
967.338445479373
 31
-0.0000000000000284
  0
ARC
  5
2E66
330
1A
100
AcDbEntity
  8
0
100
AcDbCircle
 10
2546.509077912892
 20
961.3384454793729
 30
-0.0000000000000284
 40
6.0
100
AcDbArc
 50
90.0
 51
135.0000000000095
  0
LINE
  5
2E67
330
1A
100
AcDbEntity
  8
0
100
AcDbLine
 10
2532.766437225772
 20
963.8384454793738
 30
-0.0000000000000284
 11
2532.766437225772
 21
937.3384454793738
 31
-0.0000000000000284
  0
LINE
  5
2E68
330
1A
100
AcDbEntity
  8
0
100
AcDbLine
 10
2540.266437225773
 20
937.3384454793738
 30
-0.0000000000000284
 11
2540.266437225773
 21
959.3384454793719
 31
-0.0000000000000284
  0
LINE
  5
2E69
330
1A
100
AcDbEntity
  8
0
100
AcDbLine
 10
2537.266437225773
 20
937.3384454793738
 30
-0.0000000000000284
 11
2537.266437225773
 21
958.0958047922537
 31
-0.0000000000000284
  0
ARC
  5
2E6A
330
1A
100
AcDbEntity
  8
0
100
AcDbCircle
 10
2543.266437225772
 20
958.0958047922537
 30
-0.0000000000000284
 40
6.0
100
AcDbArc
 50
135.0000000000095
 51
180.0
  0
LINE
  5
2E6B
330
1A
100
AcDbEntity
  8
0
100
AcDbLine
 10
2567.266437225772
 20
971.8384454793739
 30
-0.0000000000000284
 11
2567.266437225772
 21
964.3384454793737
 31
-0.0000000000000284
  0
ARC
  5
2E6C
330
1A
100
AcDbEntity
  8
0
100
AcDbCircle
 10
2540.766437225773
 20
963.8384454793738
 30
-0.0000000000000284
 40
8.0
100
AcDbArc
 50
90.0
 51
180.0
  0
LINE
  5
2E6D
330
1A
100
AcDbEntity
  8
0
100
AcDbLine
 10
3239.766437225772
 20
971.8384454793739
 30
-0.0000000000000284
 11
3213.266437225772
 21
971.8384454793739
 31
-0.0000000000000284
  0
LINE
  5
2E6E
330
1A
100
AcDbEntity
  8
0
100
AcDbLine
 10
3247.766437225772
 20
937.3384454793738
 30
-0.0000000000000284
 11
3240.266437225773
 21
937.3384454793738
 31
-0.0000000000000284
  0
LINE
  5
2E6F
330
1A
100
AcDbEntity
  8
0
100
AcDbLine
 10
3213.266437225772
 20
964.3384454793737
 30
-0.0000000000000284
 11
3235.266437225772
 21
964.3384454793737
 31
-0.0000000000000284
  0
LINE
  5
2E70
330
1A
100
AcDbEntity
  8
0
100
AcDbLine
 10
3213.266437225772
 20
967.3384454793739
 30
-0.0000000000000284
 11
3234.023796538652
 21
967.3384454793739
 31
-0.0000000000000284
  0
LINE
  5
2E71
330
1A
100
AcDbEntity
  8
0
100
AcDbLine
 10
3240.266437225773
 20
937.3384454793738
 30
-0.0000000000000284
 11
3240.266437225773
 21
959.338445479373
 31
-0.0000000000000284
  0
LINE
  5
2E72
330
1A
100
AcDbEntity
  8
0
100
AcDbLine
 10
3243.266437225773
 20
937.3384454793738
 30
-0.0000000000000284
 11
3243.266437225773
 21
958.0958047922548
 31
-0.0000000000000284
  0
ARC
  5
2E73
330
1A
100
AcDbEntity
  8
0
100
AcDbCircle
 10
3237.266437225772
 20
958.0958047922548
 30
-0.0000000000000284
 40
6.0
100
AcDbArc
 50
0.0
 51
44.9999999999905
  0
LINE
  5
2E74
330
1A
100
AcDbEntity
  8
0
100
AcDbLine
 10
3247.766437225772
 20
963.8384454793738
 30
-0.0000000000000284
 11
3247.766437225772
 21
937.3384454793738
 31
-0.0000000000000284
  0
LINE
  5
2E75
330
1A
100
AcDbEntity
  8
0
100
AcDbLine
 10
3213.266437225772
 20
971.8384454793739
 30
-0.0000000000000284
 11
3213.266437225772
 21
964.3384454793737
 31
-0.0000000000000284
  0
ARC
  5
2E76
330
1A
100
AcDbEntity
  8
0
100
AcDbCircle
 10
3239.766437225772
 20
963.8384454793738
 30
-0.0000000000000284
 40
8.0
100
AcDbArc
 50
0.0
 51
90.0
  0
LINE
  5
2E77
330
1A
100
AcDbEntity
  8
0
100
AcDbLine
 10
2540.266437225773
 20
369.338445479372
 30
-0.0000000000000284
 11
2545.266437225772
 21
364.3384454793729
 31
-0.0000000000000284
  0
LINE
  5
2E78
330
1A
100
AcDbEntity
  8
0
100
AcDbLine
 10
2539.023796538652
 20
366.3384454793711
 30
-0.0000000000000284
 11
2542.266437225771
 21
363.0958047922529
 31
-0.0000000000000284
  0
ARC
  5
2E79
330
1A
100
AcDbEntity
  8
0
100
AcDbCircle
 10
2543.266437225771
 20
370.5810861664911
 30
-0.0000000000000284
 40
6.0
100
AcDbArc
 50
180.0
 51
224.9999999999905
  0
LINE
  5
2E7A
330
1A
100
AcDbEntity
  8
0
100
AcDbLine
 10
2540.266437225773
 20
959.3384454793719
 30
-0.0000000000000284
 11
2545.266437225772
 21
964.338445479372
 31
-0.0000000000000284
  0
LINE
  5
2E7B
330
1A
100
AcDbEntity
  8
0
100
AcDbLine
 10
2539.023796538652
 20
962.3384454793729
 30
-0.0000000000000284
 11
2542.266437225773
 21
965.5810861664919
 31
-0.0000000000000284
  0
LINE
  5
2E7C
330
1A
100
AcDbEntity
  8
0
100
AcDbLine
 10
3235.266437225772
 20
964.338445479372
 30
-0.0000000000000284
 11
3240.266437225773
 21
959.3384454793719
 31
-0.0000000000000284
  0
LINE
  5
2E7D
330
1A
100
AcDbEntity
  8
0
100
AcDbLine
 10
3238.266437225772
 20
965.581086166493
 30
-0.0000000000000284
 11
3241.509077912889
 21
962.3384454793738
 31
-0.0000000000000284
  0
ARC
  5
2E7E
330
1A
100
AcDbEntity
  8
0
100
AcDbCircle
 10
3234.023796538652
 20
961.3384454793738
 30
-0.0000000000000284
 40
6.0
100
AcDbArc
 50
44.9999999999905
 51
90.0
  0
LINE
  5
2E7F
330
1A
100
AcDbEntity
  8
0
100
AcDbLine
 10
3235.266437225772
 20
364.3384454793729
 30
-0.0000000000000284
 11
3240.266437225773
 21
369.338445479372
 31
-0.0000000000000284
  0
LINE
  5
2E80
330
1A
100
AcDbEntity
  8
0
100
AcDbLine
 10
3238.266437225772
 20
363.095804792252
 30
-0.0000000000000284
 11
3241.509077912893
 21
366.3384454793729
 31
-0.0000000000000284
  0
ARC
  5
2E81
330
1A
100
AcDbEntity
  8
0
100
AcDbCircle
 10
3234.023796538652
 20
367.338445479372
 30
-0.0000000000000284
 40
6.0
100
AcDbArc
 50
270.0
 51
315.0000000000095
  0
SPLINE
  5
2E82
330
1A
100
AcDbEntity
  8
0
100
AcDbSpline
210
0.0
220
0.0
230
1.0
 70
     8
 71
     3
 72
    10
 73
     6
 74
     4
 42
0.0000000001
 43
0.0000000001
 44
0.0000000001
 40
0.0
 40
0.0
 40
0.0
 40
0.0
 40
9.952095468721948
 40
24.51455873364353
 40
31.57815796472113
 40
31.57815796472113
 40
31.57815796472113
 40
31.57815796472113
 10
2486.463738263051
 20
649.4457985670767
 30
-0.0000000000000284
 10
2488.101355679429
 20
652.6457748805783
 30
-0.0000000000000284
 10
2492.135226582619
 20
660.5281356889276
 30
-0.0000000000000284
 10
2482.36200800396
 20
669.8218587331894
 30
-0.0000000000000284
 10
2484.324060935006
 20
677.052312881337
 30
-0.0000000000000284
 10
2484.964915255002
 20
679.4139554767305
 30
-0.0000000000000284
 11
2486.463738263051
 21
649.4457985670767
 31
-0.0000000000000284
 11
2489.461352614316
 21
658.9357149218001
 31
-0.0000000000000284
 11
2483.965715748721
 21
672.4213855311433
 31
-0.0000000000000284
 11
2484.964915255002
 21
679.4139554767305
 31
-0.0000000000000284
  0
SPLINE
  5
2E83
330
1A
100
AcDbEntity
  8
0
100
AcDbSpline
210
0.0
220
0.0
230
1.0
 70
     8
 71
     3
 72
    10
 73
     6
 74
     4
 42
0.0000000001
 43
0.0000000001
 44
0.0000000001
 40
0.0
 40
0.0
 40
0.0
 40
0.0
 40
9.952095468721948
 40
24.51455873364353
 40
31.57815796472113
 40
31.57815796472113
 40
31.57815796472113
 40
31.57815796472113
 10
2479.968886058753
 20
649.4457985670767
 30
-0.0000000000000284
 10
2481.606503475131
 20
652.6457748805783
 30
-0.0000000000000284
 10
2485.640374378321
 20
660.5281356889276
 30
-0.0000000000000284
 10
2475.867155799662
 20
669.8218587331894
 30
-0.0000000000000284
 10
2477.829208730708
 20
677.052312881337
 30
-0.0000000000000284
 10
2478.470063050704
 20
679.4139554767305
 30
-0.0000000000000284
 11
2479.968886058753
 21
649.4457985670767
 31
-0.0000000000000284
 11
2482.966500410018
 21
658.9357149218001
 31
-0.0000000000000284
 11
2477.470863544423
 21
672.4213855311433
 31
-0.0000000000000284
 11
2478.470063050704
 21
679.4139554767305
 31
-0.0000000000000284
  0
LWPOLYLINE
  5
2E84
330
1A
100
AcDbEntity
  8
0
100
AcDbPolyline
 90
        6
 70
     1
 43
0.0
 10
2525.26643722577
 20
149.142843485992
 10
2565.26643722577
 20
149.142843485992
 10
2570.26643722577
 20
154.142843485992
 10
2570.26643722577
 20
164.142843485992
 10
2520.266437225771
 20
164.142843485992
 10
2520.266437225771
 20
154.142843485992
  0
LINE
  5
2E85
330
1A
100
AcDbEntity
  8
0
100
AcDbLine
 10
2525.766437225771
 20
165.142843485992
 30
0.0
 11
2542.766437225771
 21
165.142843485992
 31
0.0
  0
LINE
  5
2E86
330
1A
100
AcDbEntity
  8
0
100
AcDbLine
 10
2526.266437225771
 20
165.642843485992
 30
0.0
 11
2542.266437225771
 21
165.642843485992
 31
0.0
  0
LINE
  5
2E87
330
1A
100
AcDbEntity
  8
0
100
AcDbLine
 10
2525.766437225771
 20
164.142843485992
 30
0.0
 11
2542.766437225771
 21
164.142843485992
 31
0.0
  0
LINE
  5
2E88
330
1A
100
AcDbEntity
  8
0
100
AcDbLine
 10
2525.766437225771
 20
165.142843485992
 30
0.0
 11
2525.766437225771
 21
164.142843485992
 31
0.0
  0
LINE
  5
2E89
330
1A
100
AcDbEntity
  8
0
100
AcDbLine
 10
2526.266437225771
 20
165.642843485992
 30
0.0
 11
2525.766437225771
 21
165.142843485992
 31
0.0
  0
LINE
  5
2E8A
330
1A
100
AcDbEntity
  8
0
100
AcDbLine
 10
2542.766437225771
 20
165.142843485992
 30
0.0
 11
2542.766437225771
 21
164.142843485992
 31
0.0
  0
LINE
  5
2E8B
330
1A
100
AcDbEntity
  8
0
100
AcDbLine
 10
2542.266437225771
 20
165.642843485992
 30
0.0
 11
2542.766437225771
 21
165.142843485992
 31
0.0
  0
LINE
  5
2E8C
330
1A
100
AcDbEntity
  8
0
100
AcDbLine
 10
2577.451482649552
 20
159.142843485992
 30
-0.0000000000000284
 11
2597.081391801999
 21
159.142843485992
 31
-0.0000000000000284
  0
LINE
  5
2E8D
330
1A
100
AcDbEntity
  8
0
100
AcDbLine
 10
2602.266437225776
 20
159.142843485992
 30
-0.0000000000000284
 11
2572.266437225776
 21
159.142843485992
 31
-0.0000000000000284
  0
LINE
  5
2E8E
330
1A
100
AcDbEntity
  8
0
100
AcDbLine
 10
2572.266437225776
 20
159.142843485992
 30
-0.0000000000000284
 11
2572.266437225776
 21
164.142843485992
 31
-0.0000000000000284
  0
LINE
  5
2E8F
330
1A
100
AcDbEntity
  8
0
100
AcDbLine
 10
2602.266437225776
 20
159.142843485992
 30
-0.0000000000000284
 11
2602.266437225776
 21
164.142843485992
 31
-0.0000000000000284
  0
LINE
  5
2E90
330
1A
100
AcDbEntity
  8
0
100
AcDbLine
 10
3243.266437225773
 20
232.1428434859813
 30
-0.0000000000000284
 11
3243.266437225773
 21
274.1428434859813
 31
-0.0000000000000284
  0
LINE
  5
2E91
330
1A
100
AcDbEntity
  8
0
100
AcDbLine
 10
3230.516437225772
 20
275.6428434859813
 30
-0.0000000000000284
 11
3213.266437225772
 21
210.6428434859813
 31
-0.0000000000000284
  0
LINE
  5
2E92
330
1A
100
AcDbEntity
  8
0
100
AcDbLine
 10
3236.506437225772
 20
231.6428434859813
 30
-0.0000000000000284
 11
3236.506437225772
 21
274.1428434859813
 31
-0.0000000000000284
  0
LINE
  5
2E93
330
1A
100
AcDbEntity
  8
0
100
AcDbLine
 10
3231.616437225773
 20
274.1428434859813
 30
-0.0000000000000284
 11
3220.336437225774
 21
231.6428434859813
 31
-0.0000000000000284
  0
LINE
  5
2E94
330
1A
100
AcDbEntity
  8
0
100
AcDbLine
 10
3246.766437225772
 20
220.6428434859813
 30
-0.0000000000000284
 11
3217.286437225773
 21
220.6428434859813
 31
-0.0000000000000284
  0
LINE
  5
2E95
330
1A
100
AcDbEntity
  8
0
100
AcDbLine
 10
3246.766437225772
 20
216.6428434859813
 30
-0.0000000000000284
 11
3216.486437225772
 21
216.6428434859813
 31
-0.0000000000000284
  0
LINE
  5
2E96
330
1A
100
AcDbEntity
  8
0
100
AcDbLine
 10
3246.766437225772
 20
205.6428434859813
 30
-0.0000000000000284
 11
3214.766437225772
 21
205.6428434859813
 31
-0.0000000000000284
  0
LINE
  5
2E97
330
1A
100
AcDbEntity
  8
0
100
AcDbLine
 10
3246.766437225772
 20
198.6428434859813
 30
-0.0000000000000284
 11
3214.266437225773
 21
198.6428434859813
 31
-0.0000000000000284
  0
LINE
  5
2E98
330
1A
100
AcDbEntity
  8
0
100
AcDbLine
 10
3246.766437225772
 20
209.6428434859813
 30
-0.0000000000000284
 11
3214.766437225772
 21
209.6428434859813
 31
-0.0000000000000284
  0
LINE
  5
2E99
330
1A
100
AcDbEntity
  8
0
100
AcDbLine
 10
3247.766437225772
 20
190.6428434859813
 30
-0.0000000000000284
 11
3213.266437225772
 21
190.6428434859813
 31
-0.0000000000000284
  0
LINE
  5
2E9A
330
1A
100
AcDbEntity
  8
0
100
AcDbLine
 10
3246.766437225772
 20
231.6428434859813
 30
-0.0000000000000284
 11
3220.206437225773
 21
231.6428434859813
 31
-0.0000000000000284
  0
LINE
  5
2E9B
330
1A
100
AcDbEntity
  8
0
100
AcDbLine
 10
3246.766437225772
 20
227.6428434859813
 30
-0.0000000000000284
 11
3219.406437225774
 21
227.6428434859813
 31
-0.0000000000000284
  0
ARC
  5
2E9C
330
1A
100
AcDbEntity
  8
0
100
AcDbCircle
 10
3216.486437225772
 20
217.1428434859813
 30
-0.0000000000000284
 40
0.5
100
AcDbArc
 50
165.1389999999849
 51
270.0
  0
LINE
  5
2E9D
330
1A
100
AcDbEntity
  8
0
100
AcDbLine
 10
3216.806437225772
 20
220.2728434859805
 30
-0.0000000000000284
 11
3216.006437225772
 21
217.2728434859805
 31
-0.0000000000000284
  0
LINE
  5
2E9E
330
1A
100
AcDbEntity
  8
0
100
AcDbLine
 10
3214.766437225772
 20
210.6428434859813
 30
-0.0000000000000284
 11
3214.766437225772
 21
209.6428434859813
 31
-0.0000000000000284
  0
LINE
  5
2E9F
330
1A
100
AcDbEntity
  8
0
100
AcDbLine
 10
3216.356437225773
 20
216.6428434859813
 30
-0.0000000000000284
 11
3214.766437225772
 21
210.6428434859813
 31
-0.0000000000000284
  0
ARC
  5
2EA0
330
1A
100
AcDbEntity
  8
0
100
AcDbCircle
 10
3214.766437225771
 20
209.1428434859813
 30
-0.0000000000000284
 40
0.5
100
AcDbArc
 50
90.0
 51
180.0
  0
ARC
  5
2EA1
330
1A
100
AcDbEntity
  8
0
100
AcDbCircle
 10
3214.766437225771
 20
206.1428434859813
 30
-0.0000000000000284
 40
0.5
100
AcDbArc
 50
180.0
 51
270.0
  0
LINE
  5
2EA2
330
1A
100
AcDbEntity
  8
0
100
AcDbLine
 10
3214.266437225773
 20
206.1428434859813
 30
-0.0000000000000284
 11
3214.266437225773
 21
209.1428434859813
 31
-0.0000000000000284
  0
LINE
  5
2EA3
330
1A
100
AcDbEntity
  8
0
100
AcDbLine
 10
3214.766437225772
 20
210.6428434859813
 30
-0.0000000000000284
 11
3213.266437225772
 21
210.6428434859813
 31
-0.0000000000000284
  0
LINE
  5
2EA4
330
1A
100
AcDbEntity
  8
0
100
AcDbLine
 10
3214.766437225772
 20
198.6428434859813
 30
-0.0000000000000284
 11
3214.766437225772
 21
205.6428434859813
 31
-0.0000000000000284
  0
ARC
  5
2EA5
330
1A
100
AcDbEntity
  8
0
100
AcDbCircle
 10
3217.286437225771
 20
220.1428434859813
 30
-0.0000000000000284
 40
0.5
100
AcDbArc
 50
90.0
 51
165.1389999999849
  0
ARC
  5
2EA6
330
1A
100
AcDbEntity
  8
0
100
AcDbCircle
 10
3214.26643722577
 20
197.6428434859813
 30
-0.0000000000000284
 40
1.0
100
AcDbArc
 50
90.0
 51
180.0
  0
LINE
  5
2EA7
330
1A
100
AcDbEntity
  8
0
100
AcDbLine
 10
3213.266437225772
 20
190.6428434859813
 30
-0.0000000000000284
 11
3213.266437225772
 21
210.6428434859813
 31
-0.0000000000000284
  0
ARC
  5
2EA8
330
1A
100
AcDbEntity
  8
0
100
AcDbCircle
 10
3219.406437225774
 20
228.1428434859813
 30
-0.0000000000000284
 40
0.5
100
AcDbArc
 50
165.1389999999849
 51
270.0
  0
LINE
  5
2EA9
330
1A
100
AcDbEntity
  8
0
100
AcDbLine
 10
3219.726437225773
 20
231.2728434859805
 30
-0.0000000000000284
 11
3218.926437225773
 21
228.2728434859805
 31
-0.0000000000000284
  0
LINE
  5
2EAA
330
1A
100
AcDbEntity
  8
0
100
AcDbLine
 10
3219.276437225773
 20
227.6428434859813
 30
-0.0000000000000284
 11
3217.416437225772
 21
220.6428434859813
 31
-0.0000000000000284
  0
CIRCLE
  5
2EAB
330
1A
100
AcDbEntity
  8
0
100
AcDbCircle
 10
3228.266437225771
 20
202.1428434859813
 30
-0.0000000000000284
 40
3.25
  0
ARC
  5
2EAC
330
1A
100
AcDbEntity
  8
0
100
AcDbCircle
 10
3220.206437225773
 20
231.1428434859813
 30
-0.0000000000000284
 40
0.5
100
AcDbArc
 50
90.0
 51
165.1389999999849
  0
ARC
  5
2EAD
330
1A
100
AcDbEntity
  8
0
100
AcDbCircle
 10
3246.766437225771
 20
206.6428434859813
 30
-0.0000000000000284
 40
1.0
100
AcDbArc
 50
270.0
 51
0.0
  0
ARC
  5
2EAE
330
1A
100
AcDbEntity
  8
0
100
AcDbCircle
 10
3243.766437225771
 20
227.1428434859813
 30
-0.0000000000000284
 40
0.5
100
AcDbArc
 50
90.0
 51
180.0
  0
ARC
  5
2EAF
330
1A
100
AcDbEntity
  8
0
100
AcDbCircle
 10
3243.766437225771
 20
205.1428434859813
 30
-0.0000000000000284
 40
0.5
100
AcDbArc
 50
90.0
 51
180.0
  0
LINE
  5
2EB0
330
1A
100
AcDbEntity
  8
0
100
AcDbLine
 10
3243.266437225773
 20
221.1428434859813
 30
-0.0000000000000284
 11
3243.266437225773
 21
227.1428434859813
 31
-0.0000000000000284
  0
LINE
  5
2EB1
330
1A
100
AcDbEntity
  8
0
100
AcDbLine
 10
3243.266437225773
 20
210.1428434859813
 30
-0.0000000000000284
 11
3243.266437225773
 21
216.1428434859813
 31
-0.0000000000000284
  0
LINE
  5
2EB2
330
1A
100
AcDbEntity
  8
0
100
AcDbLine
 10
3243.266437225773
 20
199.1428434859813
 30
-0.0000000000000284
 11
3243.266437225773
 21
205.1428434859813
 31
-0.0000000000000284
  0
ARC
  5
2EB3
330
1A
100
AcDbEntity
  8
0
100
AcDbCircle
 10
3243.766437225771
 20
199.1428434859813
 30
-0.0000000000000284
 40
0.5
100
AcDbArc
 50
180.0
 51
270.0
  0
ARC
  5
2EB4
330
1A
100
AcDbEntity
  8
0
100
AcDbCircle
 10
3243.766437225771
 20
210.1428434859813
 30
-0.0000000000000284
 40
0.5
100
AcDbArc
 50
180.0
 51
270.0
  0
ARC
  5
2EB5
330
1A
100
AcDbEntity
  8
0
100
AcDbCircle
 10
3246.766437225771
 20
228.6428434859813
 30
-0.0000000000000284
 40
1.0
100
AcDbArc
 50
270.0
 51
0.0
  0
ARC
  5
2EB6
330
1A
100
AcDbEntity
  8
0
100
AcDbCircle
 10
3246.766437225771
 20
230.6428434859813
 30
-0.0000000000000284
 40
1.0
100
AcDbArc
 50
0.0
 51
90.0
  0
ARC
  5
2EB7
330
1A
100
AcDbEntity
  8
0
100
AcDbCircle
 10
3246.766437225771
 20
219.6428434859813
 30
-0.0000000000000284
 40
1.0
100
AcDbArc
 50
0.0
 51
90.0
  0
ARC
  5
2EB8
330
1A
100
AcDbEntity
  8
0
100
AcDbCircle
 10
3246.766437225771
 20
208.6428434859813
 30
-0.0000000000000284
 40
1.0
100
AcDbArc
 50
0.0
 51
90.0
  0
ARC
  5
2EB9
330
1A
100
AcDbEntity
  8
0
100
AcDbCircle
 10
3246.766437225771
 20
197.6428434859813
 30
-0.0000000000000284
 40
1.0
100
AcDbArc
 50
0.0
 51
90.0
  0
LINE
  5
2EBA
330
1A
100
AcDbEntity
  8
0
100
AcDbLine
 10
3247.766437225772
 20
228.6428434859813
 30
-0.0000000000000284
 11
3247.766437225772
 21
230.6428434859813
 31
-0.0000000000000284
  0
LINE
  5
2EBB
330
1A
100
AcDbEntity
  8
0
100
AcDbLine
 10
3247.766437225772
 20
217.6428434859813
 30
-0.0000000000000284
 11
3247.766437225772
 21
219.6428434859813
 31
-0.0000000000000284
  0
LINE
  5
2EBC
330
1A
100
AcDbEntity
  8
0
100
AcDbLine
 10
3247.766437225772
 20
206.6428434859813
 30
-0.0000000000000284
 11
3247.766437225772
 21
208.6428434859813
 31
-0.0000000000000284
  0
LINE
  5
2EBD
330
1A
100
AcDbEntity
  8
0
100
AcDbLine
 10
3247.766437225772
 20
190.6428434859813
 30
-0.0000000000000284
 11
3247.766437225772
 21
197.6428434859813
 31
-0.0000000000000284
  0
LINE
  5
2EBE
330
1A
100
AcDbEntity
  8
0
100
AcDbLine
 10
3236.506437225772
 20
220.6428434859813
 30
-0.0000000000000284
 11
3236.506437225772
 21
227.6428434859813
 31
-0.0000000000000284
  0
LINE
  5
2EBF
330
1A
100
AcDbEntity
  8
0
100
AcDbLine
 10
3236.506437225772
 20
209.6428434859813
 30
-0.0000000000000284
 11
3236.506437225772
 21
216.6428434859813
 31
-0.0000000000000284
  0
LINE
  5
2EC0
330
1A
100
AcDbEntity
  8
0
100
AcDbLine
 10
3236.506437225772
 20
198.6428434859813
 30
-0.0000000000000284
 11
3236.506437225772
 21
205.6428434859813
 31
-0.0000000000000284
  0
ARC
  5
2EC1
330
1A
100
AcDbEntity
  8
0
100
AcDbCircle
 10
3243.766437225771
 20
232.1428434859813
 30
-0.0000000000000284
 40
0.5
100
AcDbArc
 50
180.0
 51
270.0
  0
ARC
  5
2EC2
330
1A
100
AcDbEntity
  8
0
100
AcDbCircle
 10
3243.766437225771
 20
221.1428434859813
 30
-0.0000000000000284
 40
0.5
100
AcDbArc
 50
180.0
 51
270.0
  0
ARC
  5
2EC3
330
1A
100
AcDbEntity
  8
0
100
AcDbCircle
 10
3243.766437225771
 20
216.1428434859813
 30
-0.0000000000000284
 40
0.5
100
AcDbArc
 50
90.0
 51
180.0
  0
ARC
  5
2EC4
330
1A
100
AcDbEntity
  8
0
100
AcDbCircle
 10
3246.766437225771
 20
217.6428434859813
 30
-0.0000000000000284
 40
1.0
100
AcDbArc
 50
270.0
 51
0.0
  0
LINE
  5
2EC5
330
1A
100
AcDbEntity
  8
0
100
AcDbLine
 10
3241.766437225773
 20
275.6428434859813
 30
-0.0000000000000284
 11
3230.516437225772
 21
275.6428434859813
 31
-0.0000000000000284
  0
LINE
  5
2EC6
330
1A
100
AcDbEntity
  8
0
100
AcDbLine
 10
3243.266437225773
 20
274.1428434859813
 30
-0.0000000000000284
 11
3231.616437225773
 21
274.1428434859813
 31
-0.0000000000000284
  0
LINE
  5
2EC7
330
1A
100
AcDbEntity
  8
0
100
AcDbLine
 10
3230.516437225772
 20
275.6428434859813
 30
-0.0000000000000284
 11
3231.616437225773
 21
274.1428434859813
 31
-0.0000000000000284
  0
LINE
  5
2EC8
330
1A
100
AcDbEntity
  8
0
100
AcDbLine
 10
3243.266437225773
 20
274.1428434859813
 30
-0.0000000000000284
 11
3241.766437225773
 21
275.6428434859813
 31
-0.0000000000000284
  0
ARC
  5
2EC9
330
1A
100
AcDbEntity
  8
0
100
AcDbCircle
 10
3239.266437225774
 20
279.6428434859958
 30
-0.0000000000000284
 40
1.0
100
AcDbArc
 50
0.0
 51
90.0
  0
LINE
  5
2ECA
330
1A
100
AcDbEntity
  8
0
100
AcDbLine
 10
3240.266437225774
 20
279.642843485994
 30
-0.0000000000000284
 11
3240.266437225774
 21
275.6428434859813
 31
-0.0000000000000284
  0
LINE
  5
2ECB
330
1A
100
AcDbEntity
  8
0
100
AcDbLine
 10
3235.266437225774
 20
280.642843485994
 30
-0.0000000000000284
 11
3235.266437225774
 21
275.6428434859813
 31
-0.0000000000000284
  0
LINE
  5
2ECC
330
1A
100
AcDbEntity
  8
0
100
AcDbLine
 10
3236.506437225772
 20
274.1428434859813
 30
-0.0000000000000284
 11
3235.266437225772
 21
275.6428434859813
 31
-0.0000000000000284
  0
LINE
  5
2ECD
330
1A
100
AcDbEntity
  8
0
100
AcDbLine
 10
2537.266437225767
 20
232.1428434859949
 30
-0.0000000000000284
 11
2537.266437225767
 21
274.1428434859949
 31
-0.0000000000000284
  0
LINE
  5
2ECE
330
1A
100
AcDbEntity
  8
0
100
AcDbLine
 10
2550.016437225767
 20
275.6428434859949
 30
-0.0000000000000284
 11
2567.266437225767
 21
210.642843485995
 31
-0.0000000000000284
  0
LINE
  5
2ECF
330
1A
100
AcDbEntity
  8
0
100
AcDbLine
 10
2548.916437225769
 20
274.1428434859949
 30
-0.0000000000000284
 11
2560.186437225769
 21
231.6428434859949
 31
-0.0000000000000284
  0
LINE
  5
2ED0
330
1A
100
AcDbEntity
  8
0
100
AcDbLine
 10
2544.016437225767
 20
231.6428434859949
 30
-0.0000000000000284
 11
2544.016437225767
 21
274.1428434859949
 31
-0.0000000000000284
  0
LINE
  5
2ED1
330
1A
100
AcDbEntity
  8
0
100
AcDbLine
 10
2532.766437225767
 20
190.6428434859949
 30
-0.0000000000000284
 11
2567.266437225767
 21
190.6428434859949
 31
-0.0000000000000284
  0
LINE
  5
2ED2
330
1A
100
AcDbEntity
  8
0
100
AcDbLine
 10
2567.266437225767
 20
190.6428434859949
 30
-0.0000000000000284
 11
2567.266437225767
 21
210.642843485995
 31
-0.0000000000000284
  0
LINE
  5
2ED3
330
1A
100
AcDbEntity
  8
0
100
AcDbLine
 10
2532.766437225767
 20
190.6428434859949
 30
-0.0000000000000284
 11
2532.766437225767
 21
197.6428434859949
 31
-0.0000000000000284
  0
LINE
  5
2ED4
330
1A
100
AcDbEntity
  8
0
100
AcDbLine
 10
2532.766437225767
 20
206.6428434859949
 30
-0.0000000000000284
 11
2532.766437225767
 21
208.6428434859949
 31
-0.0000000000000284
  0
LINE
  5
2ED5
330
1A
100
AcDbEntity
  8
0
100
AcDbLine
 10
2532.766437225767
 20
217.6428434859949
 30
-0.0000000000000284
 11
2532.766437225767
 21
219.6428434859949
 31
-0.0000000000000284
  0
LINE
  5
2ED6
330
1A
100
AcDbEntity
  8
0
100
AcDbLine
 10
2532.766437225767
 20
228.6428434859949
 30
-0.0000000000000284
 11
2532.766437225767
 21
230.6428434859949
 31
-0.0000000000000284
  0
ARC
  5
2ED7
330
1A
100
AcDbEntity
  8
0
100
AcDbCircle
 10
2533.766437225767
 20
197.6428434859949
 30
-0.0000000000000284
 40
1.0
100
AcDbArc
 50
90.0
 51
180.0
  0
ARC
  5
2ED8
330
1A
100
AcDbEntity
  8
0
100
AcDbCircle
 10
2533.766437225767
 20
208.6428434859949
 30
-0.0000000000000284
 40
1.0
100
AcDbArc
 50
90.0
 51
180.0
  0
ARC
  5
2ED9
330
1A
100
AcDbEntity
  8
0
100
AcDbCircle
 10
2533.766437225767
 20
219.6428434859949
 30
-0.0000000000000284
 40
1.0
100
AcDbArc
 50
90.0
 51
180.0
  0
ARC
  5
2EDA
330
1A
100
AcDbEntity
  8
0
100
AcDbCircle
 10
2533.766437225767
 20
230.6428434859949
 30
-0.0000000000000284
 40
1.0
100
AcDbArc
 50
90.0
 51
180.0
  0
ARC
  5
2EDB
330
1A
100
AcDbEntity
  8
0
100
AcDbCircle
 10
2533.766437225767
 20
228.6428434859949
 30
-0.0000000000000284
 40
1.0
100
AcDbArc
 50
180.0
 51
270.0
  0
LINE
  5
2EDC
330
1A
100
AcDbEntity
  8
0
100
AcDbLine
 10
2533.766437225767
 20
209.6428434859949
 30
-0.0000000000000284
 11
2565.766437225767
 21
209.6428434859949
 31
-0.0000000000000284
  0
ARC
  5
2EDD
330
1A
100
AcDbEntity
  8
0
100
AcDbCircle
 10
2536.766437225767
 20
210.142843485995
 30
-0.0000000000000284
 40
0.5
100
AcDbArc
 50
270.0
 51
0.0
  0
LINE
  5
2EDE
330
1A
100
AcDbEntity
  8
0
100
AcDbLine
 10
2533.766437225767
 20
198.6428434859949
 30
-0.0000000000000284
 11
2566.266437225767
 21
198.6428434859949
 31
-0.0000000000000284
  0
ARC
  5
2EDF
330
1A
100
AcDbEntity
  8
0
100
AcDbCircle
 10
2536.766437225767
 20
199.1428434859949
 30
-0.0000000000000284
 40
0.5
100
AcDbArc
 50
270.0
 51
0.0
  0
ARC
  5
2EE0
330
1A
100
AcDbEntity
  8
0
100
AcDbCircle
 10
2566.266437225767
 20
197.6428434859949
 30
-0.0000000000000284
 40
1.0
100
AcDbArc
 50
0.0
 51
90.0
  0
LINE
  5
2EE1
330
1A
100
AcDbEntity
  8
0
100
AcDbLine
 10
2537.266437225767
 20
199.1428434859949
 30
-0.0000000000000284
 11
2537.266437225767
 21
205.1428434859949
 31
-0.0000000000000284
  0
LINE
  5
2EE2
330
1A
100
AcDbEntity
  8
0
100
AcDbLine
 10
2537.266437225767
 20
210.142843485995
 30
-0.0000000000000284
 11
2537.266437225767
 21
216.1428434859949
 31
-0.0000000000000284
  0
LINE
  5
2EE3
330
1A
100
AcDbEntity
  8
0
100
AcDbLine
 10
2537.266437225767
 20
221.1428434859949
 30
-0.0000000000000284
 11
2537.266437225767
 21
227.142843485995
 31
-0.0000000000000284
  0
ARC
  5
2EE4
330
1A
100
AcDbEntity
  8
0
100
AcDbCircle
 10
2536.766437225767
 20
205.1428434859949
 30
-0.0000000000000284
 40
0.5
100
AcDbArc
 50
0.0
 51
90.0
  0
ARC
  5
2EE5
330
1A
100
AcDbEntity
  8
0
100
AcDbCircle
 10
2536.766437225767
 20
227.142843485995
 30
-0.0000000000000284
 40
0.5
100
AcDbArc
 50
0.0
 51
90.0
  0
LINE
  5
2EE6
330
1A
100
AcDbEntity
  8
0
100
AcDbLine
 10
2533.766437225767
 20
205.6428434859949
 30
-0.0000000000000284
 11
2565.766437225767
 21
205.6428434859949
 31
-0.0000000000000284
  0
ARC
  5
2EE7
330
1A
100
AcDbEntity
  8
0
100
AcDbCircle
 10
2533.766437225767
 20
206.6428434859949
 30
-0.0000000000000284
 40
1.0
100
AcDbArc
 50
180.0
 51
270.0
  0
LINE
  5
2EE8
330
1A
100
AcDbEntity
  8
0
100
AcDbLine
 10
2533.766437225767
 20
216.642843485995
 30
-0.0000000000000284
 11
2564.036437225767
 21
216.642843485995
 31
-0.0000000000000284
  0
ARC
  5
2EE9
330
1A
100
AcDbEntity
  8
0
100
AcDbCircle
 10
2533.766437225767
 20
217.6428434859949
 30
-0.0000000000000284
 40
1.0
100
AcDbArc
 50
180.0
 51
270.0
  0
ARC
  5
2EEA
330
1A
100
AcDbEntity
  8
0
100
AcDbCircle
 10
2536.766437225767
 20
216.1428434859949
 30
-0.0000000000000284
 40
0.5
100
AcDbArc
 50
0.0
 51
90.0
  0
LINE
  5
2EEB
330
1A
100
AcDbEntity
  8
0
100
AcDbLine
 10
2533.766437225767
 20
220.642843485995
 30
-0.0000000000000284
 11
2563.246437225767
 21
220.642843485995
 31
-0.0000000000000284
  0
ARC
  5
2EEC
330
1A
100
AcDbEntity
  8
0
100
AcDbCircle
 10
2536.766437225767
 20
221.1428434859949
 30
-0.0000000000000284
 40
0.5
100
AcDbArc
 50
270.0
 51
0.0
  0
ARC
  5
2EED
330
1A
100
AcDbEntity
  8
0
100
AcDbCircle
 10
2563.246437225767
 20
220.1428434859949
 30
-0.0000000000000284
 40
0.5
100
AcDbArc
 50
14.86100000000322
 51
90.0
  0
LINE
  5
2EEE
330
1A
100
AcDbEntity
  8
0
100
AcDbLine
 10
2533.766437225767
 20
227.6428434859949
 30
-0.0000000000000284
 11
2561.116437225767
 21
227.6428434859949
 31
-0.0000000000000284
  0
LINE
  5
2EEF
330
1A
100
AcDbEntity
  8
0
100
AcDbLine
 10
2533.766437225767
 20
231.6428434859949
 30
-0.0000000000000284
 11
2560.326437225768
 21
231.6428434859949
 31
-0.0000000000000284
  0
ARC
  5
2EF0
330
1A
100
AcDbEntity
  8
0
100
AcDbCircle
 10
2536.766437225767
 20
232.1428434859949
 30
-0.0000000000000284
 40
0.5
100
AcDbArc
 50
270.0
 51
0.0
  0
LINE
  5
2EF1
330
1A
100
AcDbEntity
  8
0
100
AcDbLine
 10
2565.766437225767
 20
198.6428434859949
 30
-0.0000000000000284
 11
2565.766437225767
 21
205.6428434859949
 31
-0.0000000000000284
  0
LINE
  5
2EF2
330
1A
100
AcDbEntity
  8
0
100
AcDbLine
 10
2565.766437225767
 20
210.642843485995
 30
-0.0000000000000284
 11
2567.266437225767
 21
210.642843485995
 31
-0.0000000000000284
  0
LINE
  5
2EF3
330
1A
100
AcDbEntity
  8
0
100
AcDbLine
 10
2566.266437225767
 20
206.142843485995
 30
-0.0000000000000284
 11
2566.266437225767
 21
209.1428434859949
 31
-0.0000000000000284
  0
ARC
  5
2EF4
330
1A
100
AcDbEntity
  8
0
100
AcDbCircle
 10
2565.766437225767
 20
206.142843485995
 30
-0.0000000000000284
 40
0.5
100
AcDbArc
 50
270.0
 51
0.0
  0
ARC
  5
2EF5
330
1A
100
AcDbEntity
  8
0
100
AcDbCircle
 10
2565.766437225767
 20
209.1428434859949
 30
-0.0000000000000284
 40
0.5
100
AcDbArc
 50
0.0
 51
90.0
  0
LINE
  5
2EF6
330
1A
100
AcDbEntity
  8
0
100
AcDbLine
 10
2561.256437225769
 20
227.6428434859949
 30
-0.0000000000000284
 11
2563.106437225767
 21
220.642843485995
 31
-0.0000000000000284
  0
LINE
  5
2EF7
330
1A
100
AcDbEntity
  8
0
100
AcDbLine
 10
2564.166437225769
 20
216.642843485995
 30
-0.0000000000000284
 11
2565.766437225767
 21
210.642843485995
 31
-0.0000000000000284
  0
LINE
  5
2EF8
330
1A
100
AcDbEntity
  8
0
100
AcDbLine
 10
2565.766437225767
 20
210.642843485995
 30
-0.0000000000000284
 11
2565.766437225767
 21
209.6428434859949
 31
-0.0000000000000284
  0
LINE
  5
2EF9
330
1A
100
AcDbEntity
  8
0
100
AcDbLine
 10
2563.726437225768
 20
220.2728434859951
 30
-0.0000000000000284
 11
2564.526437225767
 21
217.272843485995
 31
-0.0000000000000284
  0
ARC
  5
2EFA
330
1A
100
AcDbEntity
  8
0
100
AcDbCircle
 10
2564.036437225767
 20
217.1428434859949
 30
-0.0000000000000284
 40
0.5
100
AcDbArc
 50
270.0
 51
14.86100000000322
  0
LINE
  5
2EFB
330
1A
100
AcDbEntity
  8
0
100
AcDbLine
 10
2560.806437225768
 20
231.2728434859951
 30
-0.0000000000000284
 11
2561.606437225767
 21
228.2728434859951
 31
-0.0000000000000284
  0
ARC
  5
2EFC
330
1A
100
AcDbEntity
  8
0
100
AcDbCircle
 10
2561.116437225767
 20
228.1428434859949
 30
-0.0000000000000284
 40
0.5
100
AcDbArc
 50
270.0
 51
14.86100000000322
  0
ARC
  5
2EFD
330
1A
100
AcDbEntity
  8
0
100
AcDbCircle
 10
2560.326437225768
 20
231.142843485995
 30
-0.0000000000000284
 40
0.5
100
AcDbArc
 50
14.86100000000322
 51
90.0
  0
LINE
  5
2EFE
330
1A
100
AcDbEntity
  8
0
100
AcDbLine
 10
2544.016437225767
 20
198.6428434859949
 30
-0.0000000000000284
 11
2544.016437225767
 21
205.6428434859949
 31
-0.0000000000000284
  0
LINE
  5
2EFF
330
1A
100
AcDbEntity
  8
0
100
AcDbLine
 10
2544.016437225767
 20
209.6428434859949
 30
-0.0000000000000284
 11
2544.016437225767
 21
216.642843485995
 31
-0.0000000000000284
  0
LINE
  5
2F00
330
1A
100
AcDbEntity
  8
0
100
AcDbLine
 10
2544.016437225767
 20
220.642843485995
 30
-0.0000000000000284
 11
2544.016437225767
 21
227.6428434859949
 31
-0.0000000000000284
  0
CIRCLE
  5
2F01
330
1A
100
AcDbEntity
  8
0
100
AcDbCircle
 10
2552.266437225767
 20
202.142843485995
 30
-0.0000000000000284
 40
3.25
  0
LINE
  5
2F02
330
1A
100
AcDbEntity
  8
0
100
AcDbLine
 10
2540.266437225767
 20
279.6428434860077
 30
-0.0000000000000284
 11
2540.266437225767
 21
275.6428434859949
 31
-0.0000000000000284
  0
LINE
  5
2F03
330
1A
100
AcDbEntity
  8
0
100
AcDbLine
 10
2545.266437225767
 20
280.6428434860077
 30
-0.0000000000000284
 11
2545.266437225767
 21
275.6428434859949
 31
-0.0000000000000284
  0
LINE
  5
2F04
330
1A
100
AcDbEntity
  8
0
100
AcDbLine
 10
2538.766437225767
 20
275.6428434859949
 30
-0.0000000000000284
 11
2550.016437225767
 21
275.6428434859949
 31
-0.0000000000000284
  0
LINE
  5
2F05
330
1A
100
AcDbEntity
  8
0
100
AcDbLine
 10
2537.266437225767
 20
274.1428434859949
 30
-0.0000000000000284
 11
2538.766437225767
 21
275.6428434859949
 31
-0.0000000000000284
  0
LINE
  5
2F06
330
1A
100
AcDbEntity
  8
0
100
AcDbLine
 10
2550.016437225767
 20
275.6428434859949
 30
-0.0000000000000284
 11
2548.916437225769
 21
274.1428434859949
 31
-0.0000000000000284
  0
LINE
  5
2F07
330
1A
100
AcDbEntity
  8
0
100
AcDbLine
 10
2537.266437225767
 20
274.1428434859949
 30
-0.0000000000000284
 11
2548.916437225769
 21
274.1428434859949
 31
-0.0000000000000284
  0
LINE
  5
2F08
330
1A
100
AcDbEntity
  8
0
100
AcDbLine
 10
2544.016437225767
 20
274.1428434859949
 30
-0.0000000000000284
 11
2545.266437225767
 21
275.6428434859949
 31
-0.0000000000000284
  0
ARC
  5
2F09
330
1A
100
AcDbEntity
  8
0
100
AcDbCircle
 10
2541.266437225767
 20
279.6428434860077
 30
-0.0000000000000284
 40
1.0
100
AcDbArc
 50
90.0
 51
180.0
  0
LINE
  5
2F0A
330
1A
100
AcDbEntity
  8
0
100
AcDbLine
 10
2541.26643722577
 20
280.6428434859949
 30
-0.0000000000000284
 11
3239.266437225774
 21
280.642843485994
 31
-0.0000000000000284
  0
LINE
  5
2F0B
330
1A
100
AcDbEntity
  8
0
100
AcDbLine
 10
2567.266437225767
 20
190.6428434859949
 30
-0.0000000000000284
 11
3235.266437225771
 21
190.642843485994
 31
-0.0000000000000284
  0
ARC
  5
2F0C
330
1A
100
AcDbEntity
  8
0
100
AcDbCircle
 10
2541.26643722577
 20
279.6428434859949
 30
-0.0000000000000284
 40
1.0
100
AcDbArc
 50
90.0
 51
180.0
  0
LINE
  5
2F0D
330
1A
100
AcDbEntity
  8
0
100
AcDbLine
 10
2540.266437225771
 20
279.6428434859949
 30
-0.0000000000000284
 11
2540.266437225771
 21
275.6428434859949
 31
-0.0000000000000284
  0
LINE
  5
2F0E
330
1A
100
AcDbEntity
  8
0
100
AcDbLine
 10
2545.26643722577
 20
280.6428434859949
 30
-0.0000000000000284
 11
2545.26643722577
 21
275.6428434859949
 31
-0.0000000000000284
  0
ARC
  5
2F0F
330
1A
100
AcDbEntity
  8
0
100
AcDbCircle
 10
3239.266437225774
 20
279.642843485994
 30
-0.0000000000000284
 40
1.0
100
AcDbArc
 50
0.0
 51
90.0
  0
LINE
  5
2F10
330
1A
100
AcDbEntity
  8
0
100
AcDbLine
 10
3240.266437225774
 20
279.642843485994
 30
-0.0000000000000284
 11
3240.266437225776
 21
275.6428434859804
 31
-0.0000000000000284
  0
LINE
  5
2F11
330
1A
100
AcDbEntity
  8
0
100
AcDbLine
 10
3235.266437225774
 20
280.642843485994
 30
-0.0000000000000284
 11
3235.266437225774
 21
275.6428434859813
 31
-0.0000000000000284
  0
LINE
  5
2F14
330
1A
100
AcDbEntity
  8
0
100
AcDbLine
 10
4108.965686793862
 20
190.6428434859792
 30
-0.0000000000000284
 11
4074.465686793862
 21
190.6428434859792
 31
-0.0000000000000284
  0
LINE
  5
2F15
330
1A
100
AcDbEntity
  8
0
100
AcDbLine
 10
4107.965686793862
 20
209.6428434859793
 30
-0.0000000000000284
 11
4075.965686793862
 21
209.6428434859793
 31
-0.0000000000000284
  0
LINE
  5
2F16
330
1A
100
AcDbEntity
  8
0
100
AcDbLine
 10
4107.965686793862
 20
198.6428434859792
 30
-0.0000000000000284
 11
4075.465686793862
 21
198.6428434859792
 31
-0.0000000000000284
  0
LINE
  5
2F17
330
1A
100
AcDbEntity
  8
0
100
AcDbLine
 10
4107.965686793862
 20
205.6428434859792
 30
-0.0000000000000284
 11
4075.965686793862
 21
205.6428434859792
 31
-0.0000000000000284
  0
LINE
  5
2F18
330
1A
100
AcDbEntity
  8
0
100
AcDbLine
 10
4107.965686793862
 20
216.6428434859792
 30
-0.0000000000000284
 11
4077.685686793861
 21
216.6428434859792
 31
-0.0000000000000284
  0
LINE
  5
2F19
330
1A
100
AcDbEntity
  8
0
100
AcDbLine
 10
4107.965686793862
 20
220.6428434859792
 30
-0.0000000000000284
 11
4078.485686793862
 21
220.6428434859792
 31
-0.0000000000000284
  0
LINE
  5
2F1A
330
1A
100
AcDbEntity
  8
0
100
AcDbLine
 10
4091.715686793862
 20
275.6428434859793
 30
-0.0000000000000284
 11
4074.465686793862
 21
210.6428434859793
 31
-0.0000000000000284
  0
LINE
  5
2F1B
330
1A
100
AcDbEntity
  8
0
100
AcDbLine
 10
4080.47568679386
 20
227.6428434859793
 30
-0.0000000000000284
 11
4078.615686793861
 21
220.6428434859792
 31
-0.0000000000000284
  0
LINE
  5
2F1C
330
1A
100
AcDbEntity
  8
0
100
AcDbLine
 10
4080.925686793861
 20
231.2728434859784
 30
-0.0000000000000284
 11
4080.125686793862
 21
228.2728434859785
 31
-0.0000000000000284
  0
ARC
  5
2F1D
330
1A
100
AcDbEntity
  8
0
100
AcDbCircle
 10
4080.605686793862
 20
228.1428434859793
 30
-0.0000000000000284
 40
0.5
100
AcDbArc
 50
165.1389999999732
 51
270.0
  0
LINE
  5
2F1E
330
1A
100
AcDbEntity
  8
0
100
AcDbLine
 10
4074.465686793862
 20
190.6428434859792
 30
-0.0000000000000284
 11
4074.465686793862
 21
210.6428434859793
 31
-0.0000000000000284
  0
ARC
  5
2F1F
330
1A
100
AcDbEntity
  8
0
100
AcDbCircle
 10
4075.465686793862
 20
197.6428434859792
 30
-0.0000000000000284
 40
1.0
100
AcDbArc
 50
90.0
 51
180.0
  0
ARC
  5
2F20
330
1A
100
AcDbEntity
  8
0
100
AcDbCircle
 10
4078.485686793862
 20
220.1428434859793
 30
-0.0000000000000284
 40
0.5
100
AcDbArc
 50
90.0
 51
165.1389999999732
  0
LINE
  5
2F21
330
1A
100
AcDbEntity
  8
0
100
AcDbLine
 10
4075.965686793862
 20
198.6428434859792
 30
-0.0000000000000284
 11
4075.965686793862
 21
205.6428434859792
 31
-0.0000000000000284
  0
LINE
  5
2F22
330
1A
100
AcDbEntity
  8
0
100
AcDbLine
 10
4075.965686793862
 20
210.6428434859793
 30
-0.0000000000000284
 11
4074.465686793862
 21
210.6428434859793
 31
-0.0000000000000284
  0
LINE
  5
2F23
330
1A
100
AcDbEntity
  8
0
100
AcDbLine
 10
4075.465686793862
 20
206.1428434859792
 30
-0.0000000000000284
 11
4075.465686793862
 21
209.1428434859793
 31
-0.0000000000000284
  0
ARC
  5
2F24
330
1A
100
AcDbEntity
  8
0
100
AcDbCircle
 10
4075.965686793862
 20
206.1428434859792
 30
-0.0000000000000284
 40
0.5
100
AcDbArc
 50
180.0
 51
270.0
  0
ARC
  5
2F25
330
1A
100
AcDbEntity
  8
0
100
AcDbCircle
 10
4075.965686793862
 20
209.1428434859793
 30
-0.0000000000000284
 40
0.5
100
AcDbArc
 50
90.0
 51
180.0
  0
LINE
  5
2F26
330
1A
100
AcDbEntity
  8
0
100
AcDbLine
 10
4077.555686793862
 20
216.6428434859792
 30
-0.0000000000000284
 11
4075.965686793862
 21
210.6428434859793
 31
-0.0000000000000284
  0
LINE
  5
2F27
330
1A
100
AcDbEntity
  8
0
100
AcDbLine
 10
4075.965686793862
 20
210.6428434859793
 30
-0.0000000000000284
 11
4075.965686793862
 21
209.6428434859793
 31
-0.0000000000000284
  0
LINE
  5
2F28
330
1A
100
AcDbEntity
  8
0
100
AcDbLine
 10
4078.00568679386
 20
220.2728434859785
 30
-0.0000000000000284
 11
4077.20568679386
 21
217.2728434859784
 31
-0.0000000000000284
  0
ARC
  5
2F29
330
1A
100
AcDbEntity
  8
0
100
AcDbCircle
 10
4077.685686793863
 20
217.1428434859793
 30
-0.0000000000000284
 40
0.5
100
AcDbArc
 50
165.1389999999732
 51
270.0
  0
LINE
  5
2F2A
330
1A
100
AcDbEntity
  8
0
100
AcDbLine
 10
4108.965686793862
 20
190.6428434859792
 30
-0.0000000000000284
 11
4108.965686793862
 21
197.6428434859792
 31
-0.0000000000000284
  0
LINE
  5
2F2B
330
1A
100
AcDbEntity
  8
0
100
AcDbLine
 10
4108.965686793862
 20
206.6428434859793
 30
-0.0000000000000284
 11
4108.965686793862
 21
208.6428434859793
 31
-0.0000000000000284
  0
LINE
  5
2F2C
330
1A
100
AcDbEntity
  8
0
100
AcDbLine
 10
4108.965686793862
 20
217.6428434859793
 30
-0.0000000000000284
 11
4108.965686793862
 21
219.6428434859793
 31
-0.0000000000000284
  0
LINE
  5
2F2D
330
1A
100
AcDbEntity
  8
0
100
AcDbLine
 10
4108.965686793862
 20
228.6428434859792
 30
-0.0000000000000284
 11
4108.965686793862
 21
230.6428434859792
 31
-0.0000000000000284
  0
ARC
  5
2F2E
330
1A
100
AcDbEntity
  8
0
100
AcDbCircle
 10
4107.965686793862
 20
197.6428434859792
 30
-0.0000000000000284
 40
1.0
100
AcDbArc
 50
0.0
 51
90.0
  0
ARC
  5
2F2F
330
1A
100
AcDbEntity
  8
0
100
AcDbCircle
 10
4107.965686793862
 20
208.6428434859793
 30
-0.0000000000000284
 40
1.0
100
AcDbArc
 50
0.0
 51
90.0
  0
ARC
  5
2F30
330
1A
100
AcDbEntity
  8
0
100
AcDbCircle
 10
4107.965686793862
 20
219.6428434859793
 30
-0.0000000000000284
 40
1.0
100
AcDbArc
 50
0.0
 51
90.0
  0
ARC
  5
2F31
330
1A
100
AcDbEntity
  8
0
100
AcDbCircle
 10
4107.965686793862
 20
230.6428434859792
 30
-0.0000000000000284
 40
1.0
100
AcDbArc
 50
0.0
 51
90.0
  0
ARC
  5
2F32
330
1A
100
AcDbEntity
  8
0
100
AcDbCircle
 10
4107.965686793862
 20
228.6428434859792
 30
-0.0000000000000284
 40
1.0
100
AcDbArc
 50
270.0
 51
0.0
  0
ARC
  5
2F33
330
1A
100
AcDbEntity
  8
0
100
AcDbCircle
 10
4104.965686793862
 20
210.1428434859792
 30
-0.0000000000000284
 40
0.5
100
AcDbArc
 50
180.0
 51
270.0
  0
LINE
  5
2F34
330
1A
100
AcDbEntity
  8
0
100
AcDbLine
 10
4102.965686793861
 20
275.6428434859793
 30
-0.0000000000000284
 11
4091.715686793862
 21
275.6428434859793
 31
-0.0000000000000284
  0
ARC
  5
2F35
330
1A
100
AcDbEntity
  8
0
100
AcDbCircle
 10
4104.965686793862
 20
199.1428434859792
 30
-0.0000000000000284
 40
0.5
100
AcDbArc
 50
180.0
 51
270.0
  0
LINE
  5
2F36
330
1A
100
AcDbEntity
  8
0
100
AcDbLine
 10
4104.465686793862
 20
199.1428434859792
 30
-0.0000000000000284
 11
4104.465686793862
 21
205.1428434859793
 31
-0.0000000000000284
  0
LINE
  5
2F37
330
1A
100
AcDbEntity
  8
0
100
AcDbLine
 10
4104.465686793862
 20
210.1428434859792
 30
-0.0000000000000284
 11
4104.465686793862
 21
216.1428434859792
 31
-0.0000000000000284
  0
LINE
  5
2F38
330
1A
100
AcDbEntity
  8
0
100
AcDbLine
 10
4104.465686793862
 20
221.1428434859793
 30
-0.0000000000000284
 11
4104.465686793862
 21
227.1428434859792
 31
-0.0000000000000284
  0
LINE
  5
2F39
330
1A
100
AcDbEntity
  8
0
100
AcDbLine
 10
4104.465686793862
 20
232.1428434859793
 30
-0.0000000000000284
 11
4104.465686793862
 21
274.1428434859793
 31
-0.0000000000000284
  0
ARC
  5
2F3A
330
1A
100
AcDbEntity
  8
0
100
AcDbCircle
 10
4104.965686793862
 20
205.1428434859793
 30
-0.0000000000000284
 40
0.5
100
AcDbArc
 50
90.0
 51
180.0
  0
ARC
  5
2F3B
330
1A
100
AcDbEntity
  8
0
100
AcDbCircle
 10
4104.965686793862
 20
227.1428434859792
 30
-0.0000000000000284
 40
0.5
100
AcDbArc
 50
90.0
 51
180.0
  0
LINE
  5
2F3C
330
1A
100
AcDbEntity
  8
0
100
AcDbLine
 10
4104.465686793862
 20
274.1428434859793
 30
-0.0000000000000284
 11
4102.965686793861
 21
275.6428434859793
 31
-0.0000000000000284
  0
ARC
  5
2F3D
330
1A
100
AcDbEntity
  8
0
100
AcDbCircle
 10
4107.965686793862
 20
206.6428434859793
 30
-0.0000000000000284
 40
1.0
100
AcDbArc
 50
270.0
 51
0.0
  0
ARC
  5
2F3E
330
1A
100
AcDbEntity
  8
0
100
AcDbCircle
 10
4107.965686793862
 20
217.6428434859793
 30
-0.0000000000000284
 40
1.0
100
AcDbArc
 50
270.0
 51
0.0
  0
ARC
  5
2F3F
330
1A
100
AcDbEntity
  8
0
100
AcDbCircle
 10
4104.965686793862
 20
216.1428434859792
 30
-0.0000000000000284
 40
0.5
100
AcDbArc
 50
90.0
 51
180.0
  0
ARC
  5
2F40
330
1A
100
AcDbEntity
  8
0
100
AcDbCircle
 10
4104.965686793862
 20
221.1428434859793
 30
-0.0000000000000284
 40
0.5
100
AcDbArc
 50
180.0
 51
270.0
  0
LINE
  5
2F41
330
1A
100
AcDbEntity
  8
0
100
AcDbLine
 10
4107.965686793862
 20
227.6428434859793
 30
-0.0000000000000284
 11
4080.605686793862
 21
227.6428434859793
 31
-0.0000000000000284
  0
LINE
  5
2F42
330
1A
100
AcDbEntity
  8
0
100
AcDbLine
 10
4107.965686793862
 20
231.6428434859793
 30
-0.0000000000000284
 11
4081.405686793861
 21
231.6428434859793
 31
-0.0000000000000284
  0
ARC
  5
2F43
330
1A
100
AcDbEntity
  8
0
100
AcDbCircle
 10
4104.965686793862
 20
232.1428434859793
 30
-0.0000000000000284
 40
0.5
100
AcDbArc
 50
180.0
 51
270.0
  0
LINE
  5
2F44
330
1A
100
AcDbEntity
  8
0
100
AcDbLine
 10
4091.715686793862
 20
275.6428434859793
 30
-0.0000000000000284
 11
4092.81568679386
 21
274.1428434859793
 31
-0.0000000000000284
  0
LINE
  5
2F45
330
1A
100
AcDbEntity
  8
0
100
AcDbLine
 10
4104.465686793862
 20
274.1428434859793
 30
-0.0000000000000284
 11
4092.81568679386
 21
274.1428434859793
 31
-0.0000000000000284
  0
LINE
  5
2F46
330
1A
100
AcDbEntity
  8
0
100
AcDbLine
 10
4092.81568679386
 20
274.1428434859793
 30
-0.0000000000000284
 11
4081.535686793862
 21
231.6428434859793
 31
-0.0000000000000284
  0
ARC
  5
2F47
330
1A
100
AcDbEntity
  8
0
100
AcDbCircle
 10
4081.405686793861
 20
231.1428434859792
 30
-0.0000000000000284
 40
0.5
100
AcDbArc
 50
90.0
 51
165.1389999999732
  0
LINE
  5
2F48
330
1A
100
AcDbEntity
  8
0
100
AcDbLine
 10
4097.70568679386
 20
198.6428434859792
 30
-0.0000000000000284
 11
4097.70568679386
 21
205.6428434859792
 31
-0.0000000000000284
  0
LINE
  5
2F49
330
1A
100
AcDbEntity
  8
0
100
AcDbLine
 10
4097.70568679386
 20
209.6428434859793
 30
-0.0000000000000284
 11
4097.70568679386
 21
216.6428434859792
 31
-0.0000000000000284
  0
LINE
  5
2F4A
330
1A
100
AcDbEntity
  8
0
100
AcDbLine
 10
4097.70568679386
 20
220.6428434859792
 30
-0.0000000000000284
 11
4097.70568679386
 21
227.6428434859793
 31
-0.0000000000000284
  0
LINE
  5
2F4B
330
1A
100
AcDbEntity
  8
0
100
AcDbLine
 10
4097.70568679386
 20
231.6428434859793
 30
-0.0000000000000284
 11
4097.70568679386
 21
274.1428434859793
 31
-0.0000000000000284
  0
LINE
  5
2F4C
330
1A
100
AcDbEntity
  8
0
100
AcDbLine
 10
4097.70568679386
 20
274.1428434859793
 30
-0.0000000000000284
 11
4096.465686793862
 21
275.6428434859793
 31
-0.0000000000000284
  0
CIRCLE
  5
2F4D
330
1A
100
AcDbEntity
  8
0
100
AcDbCircle
 10
4089.465686793862
 20
202.1428434859792
 30
-0.0000000000000284
 40
3.25
  0
LINE
  5
2F4E
330
1A
100
AcDbEntity
  8
0
100
AcDbLine
 10
4096.465686793862
 20
280.642843485992
 30
-0.0000000000000284
 11
4096.465686793862
 21
275.6428434859793
 31
-0.0000000000000284
  0
LINE
  5
2F4F
330
1A
100
AcDbEntity
  8
0
100
AcDbLine
 10
4101.465686793861
 20
279.642843485992
 30
-0.0000000000000284
 11
4101.465686793861
 21
275.6428434859793
 31
-0.0000000000000284
  0
ARC
  5
2F50
330
1A
100
AcDbEntity
  8
0
100
AcDbCircle
 10
4100.465686793862
 20
279.6428434859938
 30
-0.0000000000000284
 40
1.0
100
AcDbArc
 50
0.0
 51
90.0
  0
LINE
  5
2F51
330
1A
100
AcDbEntity
  8
0
100
AcDbLine
 10
3502.96568679386
 20
190.642843485992
 30
-0.0000000000000284
 11
3501.465686793859
 21
190.642843485992
 31
-0.0000000000000284
  0
ARC
  5
2F52
330
1A
100
AcDbEntity
  8
0
100
AcDbCircle
 10
3502.465686793858
 20
279.642843485992
 30
-0.0000000000000284
 40
1.0
100
AcDbArc
 50
90.0
 51
180.0
  0
CIRCLE
  5
2F53
330
1A
100
AcDbEntity
  8
0
100
AcDbCircle
 10
3513.465686793863
 20
202.1428434859792
 30
-0.0000000000000284
 40
3.25
  0
LINE
  5
2F54
330
1A
100
AcDbEntity
  8
0
100
AcDbLine
 10
3505.21568679386
 20
274.1428434859793
 30
-0.0000000000000284
 11
3506.46568679386
 21
275.6428434859793
 31
-0.0000000000000284
  0
LINE
  5
2F55
330
1A
100
AcDbEntity
  8
0
100
AcDbLine
 10
3505.21568679386
 20
231.6428434859793
 30
-0.0000000000000284
 11
3505.21568679386
 21
274.1428434859793
 31
-0.0000000000000284
  0
LINE
  5
2F56
330
1A
100
AcDbEntity
  8
0
100
AcDbLine
 10
3505.21568679386
 20
220.6428434859792
 30
-0.0000000000000284
 11
3505.21568679386
 21
227.6428434859793
 31
-0.0000000000000284
  0
LINE
  5
2F57
330
1A
100
AcDbEntity
  8
0
100
AcDbLine
 10
3505.21568679386
 20
209.6428434859793
 30
-0.0000000000000284
 11
3505.21568679386
 21
216.6428434859792
 31
-0.0000000000000284
  0
LINE
  5
2F58
330
1A
100
AcDbEntity
  8
0
100
AcDbLine
 10
3505.21568679386
 20
198.6428434859792
 30
-0.0000000000000284
 11
3505.21568679386
 21
205.6428434859792
 31
-0.0000000000000284
  0
ARC
  5
2F59
330
1A
100
AcDbEntity
  8
0
100
AcDbCircle
 10
3521.52568679386
 20
231.1428434859792
 30
-0.0000000000000284
 40
0.5
100
AcDbArc
 50
14.86100000002683
 51
90.0
  0
ARC
  5
2F5A
330
1A
100
AcDbEntity
  8
0
100
AcDbCircle
 10
3522.315686793861
 20
228.1428434859793
 30
-0.0000000000000284
 40
0.5
100
AcDbArc
 50
270.0
 51
14.86100000002683
  0
LINE
  5
2F5B
330
1A
100
AcDbEntity
  8
0
100
AcDbLine
 10
3522.00568679386
 20
231.2728434859784
 30
-0.0000000000000284
 11
3522.805686793859
 21
228.2728434859785
 31
-0.0000000000000284
  0
ARC
  5
2F5C
330
1A
100
AcDbEntity
  8
0
100
AcDbCircle
 10
3525.235686793861
 20
217.1428434859793
 30
-0.0000000000000284
 40
0.5
100
AcDbArc
 50
270.0
 51
14.86100000002683
  0
LINE
  5
2F5D
330
1A
100
AcDbEntity
  8
0
100
AcDbLine
 10
3524.925686793861
 20
220.2728434859785
 30
-0.0000000000000284
 11
3525.725686793861
 21
217.2728434859784
 31
-0.0000000000000284
  0
LINE
  5
2F5E
330
1A
100
AcDbEntity
  8
0
100
AcDbLine
 10
3526.96568679386
 20
210.6428434859793
 30
-0.0000000000000284
 11
3526.96568679386
 21
209.6428434859793
 31
-0.0000000000000284
  0
LINE
  5
2F5F
330
1A
100
AcDbEntity
  8
0
100
AcDbLine
 10
3525.36568679386
 20
216.6428434859792
 30
-0.0000000000000284
 11
3526.96568679386
 21
210.6428434859793
 31
-0.0000000000000284
  0
LINE
  5
2F60
330
1A
100
AcDbEntity
  8
0
100
AcDbLine
 10
3522.45568679386
 20
227.6428434859793
 30
-0.0000000000000284
 11
3524.305686793859
 21
220.6428434859792
 31
-0.0000000000000284
  0
LINE
  5
2F61
330
1A
100
AcDbEntity
  8
0
100
AcDbLine
 10
3510.11568679386
 20
274.1428434859793
 30
-0.0000000000000284
 11
3521.38568679386
 21
231.6428434859793
 31
-0.0000000000000284
  0
LINE
  5
2F62
330
1A
100
AcDbEntity
  8
0
100
AcDbLine
 10
3498.46568679386
 20
274.1428434859793
 30
-0.0000000000000284
 11
3510.11568679386
 21
274.1428434859793
 31
-0.0000000000000284
  0
ARC
  5
2F63
330
1A
100
AcDbEntity
  8
0
100
AcDbCircle
 10
3526.965686793862
 20
209.1428434859793
 30
-0.0000000000000284
 40
0.5
100
AcDbArc
 50
0.0
 51
90.0
  0
ARC
  5
2F64
330
1A
100
AcDbEntity
  8
0
100
AcDbCircle
 10
3526.965686793862
 20
206.1428434859792
 30
-0.0000000000000284
 40
0.5
100
AcDbArc
 50
270.0
 51
0.0
  0
LINE
  5
2F65
330
1A
100
AcDbEntity
  8
0
100
AcDbLine
 10
3527.46568679386
 20
206.1428434859792
 30
-0.0000000000000284
 11
3527.46568679386
 21
209.1428434859793
 31
-0.0000000000000284
  0
LINE
  5
2F66
330
1A
100
AcDbEntity
  8
0
100
AcDbLine
 10
3511.21568679386
 20
275.6428434859793
 30
-0.0000000000000284
 11
3528.46568679386
 21
210.6428434859793
 31
-0.0000000000000284
  0
LINE
  5
2F67
330
1A
100
AcDbEntity
  8
0
100
AcDbLine
 10
3511.21568679386
 20
275.6428434859793
 30
-0.0000000000000284
 11
3510.11568679386
 21
274.1428434859793
 31
-0.0000000000000284
  0
LINE
  5
2F68
330
1A
100
AcDbEntity
  8
0
100
AcDbLine
 10
3526.96568679386
 20
210.6428434859793
 30
-0.0000000000000284
 11
3528.46568679386
 21
210.6428434859793
 31
-0.0000000000000284
  0
LINE
  5
2F69
330
1A
100
AcDbEntity
  8
0
100
AcDbLine
 10
3526.96568679386
 20
198.6428434859792
 30
-0.0000000000000284
 11
3526.96568679386
 21
205.6428434859792
 31
-0.0000000000000284
  0
ARC
  5
2F6A
330
1A
100
AcDbEntity
  8
0
100
AcDbCircle
 10
3497.965686793862
 20
232.1428434859793
 30
-0.0000000000000284
 40
0.5
100
AcDbArc
 50
270.0
 51
0.0
  0
LINE
  5
2F6B
330
1A
100
AcDbEntity
  8
0
100
AcDbLine
 10
3494.96568679386
 20
231.6428434859793
 30
-0.0000000000000284
 11
3521.52568679386
 21
231.6428434859793
 31
-0.0000000000000284
  0
LINE
  5
2F6C
330
1A
100
AcDbEntity
  8
0
100
AcDbLine
 10
3494.96568679386
 20
227.6428434859793
 30
-0.0000000000000284
 11
3522.315686793861
 21
227.6428434859793
 31
-0.0000000000000284
  0
ARC
  5
2F6D
330
1A
100
AcDbEntity
  8
0
100
AcDbCircle
 10
3524.445686793862
 20
220.1428434859793
 30
-0.0000000000000284
 40
0.5
100
AcDbArc
 50
14.86100000002683
 51
90.0
  0
ARC
  5
2F6E
330
1A
100
AcDbEntity
  8
0
100
AcDbCircle
 10
3497.965686793862
 20
221.1428434859793
 30
-0.0000000000000284
 40
0.5
100
AcDbArc
 50
270.0
 51
0.0
  0
LINE
  5
2F6F
330
1A
100
AcDbEntity
  8
0
100
AcDbLine
 10
3494.96568679386
 20
220.6428434859792
 30
-0.0000000000000284
 11
3524.44568679386
 21
220.6428434859792
 31
-0.0000000000000284
  0
ARC
  5
2F70
330
1A
100
AcDbEntity
  8
0
100
AcDbCircle
 10
3497.965686793862
 20
216.1428434859792
 30
-0.0000000000000284
 40
0.5
100
AcDbArc
 50
0.0
 51
90.0
  0
ARC
  5
2F71
330
1A
100
AcDbEntity
  8
0
100
AcDbCircle
 10
3494.965686793862
 20
217.6428434859793
 30
-0.0000000000000284
 40
1.0
100
AcDbArc
 50
180.0
 51
270.0
  0
LINE
  5
2F72
330
1A
100
AcDbEntity
  8
0
100
AcDbLine
 10
3494.96568679386
 20
216.6428434859792
 30
-0.0000000000000284
 11
3525.235686793859
 21
216.6428434859792
 31
-0.0000000000000284
  0
ARC
  5
2F73
330
1A
100
AcDbEntity
  8
0
100
AcDbCircle
 10
3494.965686793862
 20
206.6428434859793
 30
-0.0000000000000284
 40
1.0
100
AcDbArc
 50
180.0
 51
270.0
  0
LINE
  5
2F74
330
1A
100
AcDbEntity
  8
0
100
AcDbLine
 10
3494.96568679386
 20
205.6428434859792
 30
-0.0000000000000284
 11
3526.96568679386
 21
205.6428434859792
 31
-0.0000000000000284
  0
LINE
  5
2F75
330
1A
100
AcDbEntity
  8
0
100
AcDbLine
 10
3498.46568679386
 20
274.1428434859793
 30
-0.0000000000000284
 11
3499.96568679386
 21
275.6428434859793
 31
-0.0000000000000284
  0
ARC
  5
2F76
330
1A
100
AcDbEntity
  8
0
100
AcDbCircle
 10
3497.965686793862
 20
227.1428434859792
 30
-0.0000000000000284
 40
0.5
100
AcDbArc
 50
0.0
 51
90.0
  0
ARC
  5
2F77
330
1A
100
AcDbEntity
  8
0
100
AcDbCircle
 10
3497.965686793862
 20
205.1428434859793
 30
-0.0000000000000284
 40
0.5
100
AcDbArc
 50
0.0
 51
90.0
  0
LINE
  5
2F78
330
1A
100
AcDbEntity
  8
0
100
AcDbLine
 10
3498.46568679386
 20
232.1428434859793
 30
-0.0000000000000284
 11
3498.46568679386
 21
274.1428434859793
 31
-0.0000000000000284
  0
LINE
  5
2F79
330
1A
100
AcDbEntity
  8
0
100
AcDbLine
 10
3498.46568679386
 20
221.1428434859793
 30
-0.0000000000000284
 11
3498.46568679386
 21
227.1428434859792
 31
-0.0000000000000284
  0
LINE
  5
2F7A
330
1A
100
AcDbEntity
  8
0
100
AcDbLine
 10
3498.46568679386
 20
210.1428434859792
 30
-0.0000000000000284
 11
3498.46568679386
 21
216.1428434859792
 31
-0.0000000000000284
  0
LINE
  5
2F7B
330
1A
100
AcDbEntity
  8
0
100
AcDbLine
 10
3498.46568679386
 20
199.1428434859792
 30
-0.0000000000000284
 11
3498.46568679386
 21
205.1428434859793
 31
-0.0000000000000284
  0
ARC
  5
2F7C
330
1A
100
AcDbEntity
  8
0
100
AcDbCircle
 10
3527.465686793862
 20
197.6428434859792
 30
-0.0000000000000284
 40
1.0
100
AcDbArc
 50
0.0
 51
90.0
  0
ARC
  5
2F7D
330
1A
100
AcDbEntity
  8
0
100
AcDbCircle
 10
3497.965686793862
 20
199.1428434859792
 30
-0.0000000000000284
 40
0.5
100
AcDbArc
 50
270.0
 51
0.0
  0
LINE
  5
2F7E
330
1A
100
AcDbEntity
  8
0
100
AcDbLine
 10
3494.96568679386
 20
198.6428434859792
 30
-0.0000000000000284
 11
3527.46568679386
 21
198.6428434859792
 31
-0.0000000000000284
  0
LINE
  5
2F7F
330
1A
100
AcDbEntity
  8
0
100
AcDbLine
 10
3499.96568679386
 20
275.6428434859793
 30
-0.0000000000000284
 11
3511.21568679386
 21
275.6428434859793
 31
-0.0000000000000284
  0
ARC
  5
2F80
330
1A
100
AcDbEntity
  8
0
100
AcDbCircle
 10
3497.965686793862
 20
210.1428434859792
 30
-0.0000000000000284
 40
0.5
100
AcDbArc
 50
270.0
 51
0.0
  0
LINE
  5
2F81
330
1A
100
AcDbEntity
  8
0
100
AcDbLine
 10
3494.96568679386
 20
209.6428434859793
 30
-0.0000000000000284
 11
3526.96568679386
 21
209.6428434859793
 31
-0.0000000000000284
  0
ARC
  5
2F82
330
1A
100
AcDbEntity
  8
0
100
AcDbCircle
 10
3494.965686793862
 20
228.6428434859792
 30
-0.0000000000000284
 40
1.0
100
AcDbArc
 50
180.0
 51
270.0
  0
ARC
  5
2F83
330
1A
100
AcDbEntity
  8
0
100
AcDbCircle
 10
3494.965686793862
 20
230.6428434859792
 30
-0.0000000000000284
 40
1.0
100
AcDbArc
 50
90.0
 51
180.0
  0
ARC
  5
2F84
330
1A
100
AcDbEntity
  8
0
100
AcDbCircle
 10
3494.965686793862
 20
219.6428434859793
 30
-0.0000000000000284
 40
1.0
100
AcDbArc
 50
90.0
 51
180.0
  0
ARC
  5
2F85
330
1A
100
AcDbEntity
  8
0
100
AcDbCircle
 10
3494.965686793862
 20
208.6428434859793
 30
-0.0000000000000284
 40
1.0
100
AcDbArc
 50
90.0
 51
180.0
  0
ARC
  5
2F86
330
1A
100
AcDbEntity
  8
0
100
AcDbCircle
 10
3494.965686793862
 20
197.6428434859792
 30
-0.0000000000000284
 40
1.0
100
AcDbArc
 50
90.0
 51
180.0
  0
LINE
  5
2F87
330
1A
100
AcDbEntity
  8
0
100
AcDbLine
 10
3493.96568679386
 20
228.6428434859792
 30
-0.0000000000000284
 11
3493.96568679386
 21
230.6428434859792
 31
-0.0000000000000284
  0
LINE
  5
2F88
330
1A
100
AcDbEntity
  8
0
100
AcDbLine
 10
3493.96568679386
 20
217.6428434859793
 30
-0.0000000000000284
 11
3493.96568679386
 21
219.6428434859793
 31
-0.0000000000000284
  0
LINE
  5
2F89
330
1A
100
AcDbEntity
  8
0
100
AcDbLine
 10
3493.96568679386
 20
206.6428434859793
 30
-0.0000000000000284
 11
3493.96568679386
 21
208.6428434859793
 31
-0.0000000000000284
  0
LINE
  5
2F8A
330
1A
100
AcDbEntity
  8
0
100
AcDbLine
 10
3493.96568679386
 20
190.6428434859792
 30
-0.0000000000000284
 11
3493.96568679386
 21
197.6428434859792
 31
-0.0000000000000284
  0
LINE
  5
2F8B
330
1A
100
AcDbEntity
  8
0
100
AcDbLine
 10
3528.46568679386
 20
190.6428434859792
 30
-0.0000000000000284
 11
3528.46568679386
 21
210.6428434859793
 31
-0.0000000000000284
  0
LINE
  5
2F8C
330
1A
100
AcDbEntity
  8
0
100
AcDbLine
 10
3493.96568679386
 20
190.6428434859792
 30
-0.0000000000000284
 11
3528.46568679386
 21
190.6428434859792
 31
-0.0000000000000284
  0
LINE
  5
2F8D
330
1A
100
AcDbEntity
  8
0
100
AcDbLine
 10
3506.465686793859
 20
280.642843485992
 30
-0.0000000000000284
 11
3506.465686793859
 21
275.6428434859793
 31
-0.0000000000000284
  0
LINE
  5
2F8E
330
1A
100
AcDbEntity
  8
0
100
AcDbLine
 10
3501.465686793859
 20
279.642843485992
 30
-0.0000000000000284
 11
3501.465686793859
 21
275.6428434859793
 31
-0.0000000000000284
  0
LINE
  5
2F8F
330
1A
100
AcDbEntity
  8
0
100
AcDbLine
 10
3502.465686793863
 20
280.6428434859938
 30
-0.0000000000000284
 11
4100.465686793862
 21
280.642843485992
 31
-0.0000000000000284
  0
LINE
  5
2F90
330
1A
100
AcDbEntity
  8
0
100
AcDbLine
 10
3506.46568679386
 20
190.642843485992
 30
-0.0000000000000284
 11
4074.465686793862
 21
190.6428434859901
 31
-0.0000000000000284
  0
LINE
  5
2F91
330
1A
100
AcDbEntity
  8
0
100
AcDbLine
 10
3501.465686793862
 20
190.642843485992
 30
-0.0000000000000284
 11
3502.965686793862
 21
190.6428434859938
 31
-0.0000000000000284
  0
LINE
  5
2F92
330
1A
100
AcDbEntity
  8
0
100
AcDbLine
 10
3501.465686793862
 20
190.6428434859938
 30
-0.0000000000000284
 11
3502.965686793862
 21
190.6428434859938
 31
-0.0000000000000284
  0
ARC
  5
2F93
330
1A
100
AcDbEntity
  8
0
100
AcDbCircle
 10
3502.465686793863
 20
279.6428434859938
 30
-0.0000000000000284
 40
1.0
100
AcDbArc
 50
90.0
 51
180.0
  0
LINE
  5
2F94
330
1A
100
AcDbEntity
  8
0
100
AcDbLine
 10
3501.465686793862
 20
279.6428434859938
 30
-0.0000000000000284
 11
3501.465686793862
 21
275.6428434859793
 31
-0.0000000000000284
  0
LINE
  5
2F95
330
1A
100
AcDbEntity
  8
0
100
AcDbLine
 10
3506.465686793863
 20
280.6428434859938
 30
-0.0000000000000284
 11
3506.465686793863
 21
275.6428434859793
 31
-0.0000000000000284
  0
CIRCLE
  5
2F96
330
1A
100
AcDbEntity
  8
0
100
AcDbCircle
 10
3601.465686793862
 20
238.3428434859945
 30
-0.0000000000000284
 40
8.0
  0
CIRCLE
  5
2F97
330
1A
100
AcDbEntity
  8
0
100
AcDbCircle
 10
3601.465686793862
 20
238.3428434859945
 30
-0.0000000000000284
 40
12.0
  0
CIRCLE
  5
2F98
330
1A
100
AcDbEntity
  8
0
100
AcDbCircle
 10
4001.465686793862
 20
238.3428434859945
 30
-0.0000000000000284
 40
12.0
  0
CIRCLE
  5
2F99
330
1A
100
AcDbEntity
  8
0
100
AcDbCircle
 10
4001.465686793862
 20
238.3428434859945
 30
-0.0000000000000284
 40
8.0
  0
ARC
  5
2F9A
330
1A
100
AcDbEntity
  8
0
100
AcDbCircle
 10
4100.465686793862
 20
279.6428434859938
 30
-0.0000000000000284
 40
1.0
100
AcDbArc
 50
0.0
 51
90.0
  0
LINE
  5
2F9B
330
1A
100
AcDbEntity
  8
0
100
AcDbLine
 10
4101.465686793861
 20
279.642843485992
 30
-0.0000000000000284
 11
4101.465686793861
 21
275.6428434859793
 31
-0.0000000000000284
  0
LINE
  5
2F9C
330
1A
100
AcDbEntity
  8
0
100
AcDbLine
 10
4096.465686793862
 20
280.642843485992
 30
-0.0000000000000284
 11
4096.465686793862
 21
275.6428434859774
 31
-0.0000000000000284
  0
LINE
  5
2F9D
330
1A
100
AcDbEntity
  8
0
100
AcDbLine
 10
4003.865686793863
 20
238.8228434859959
 30
-0.0000000000000284
 11
4003.865686793863
 21
237.862843485995
 31
-0.0000000000000284
  0
LINE
  5
2F9E
330
1A
100
AcDbEntity
  8
0
100
AcDbLine
 10
3999.065686793864
 20
238.8228434859959
 30
-0.0000000000000284
 11
3999.065686793862
 21
237.862843485995
 31
-0.0000000000000284
  0
CIRCLE
  5
2F9F
330
1A
100
AcDbEntity
  8
0
100
AcDbCircle
 10
4001.465686793862
 20
238.3428434859945
 30
-0.0000000000000284
 40
5.5
  0
LINE
  5
2FA0
330
1A
100
AcDbEntity
  8
0
100
AcDbLine
 10
4000.649686793862
 20
239.1588434859952
 30
-0.0000000000000284
 11
3999.833686793864
 21
238.8228434859959
 31
-0.0000000000000284
  0
LINE
  5
2FA1
330
1A
100
AcDbEntity
  8
0
100
AcDbLine
 10
3999.833686793864
 20
238.8228434859959
 30
-0.0000000000000284
 11
3999.065686793864
 21
238.8228434859959
 31
-0.0000000000000284
  0
LINE
  5
2FA2
330
1A
100
AcDbEntity
  8
0
100
AcDbLine
 10
4001.945686793863
 20
240.742843485996
 30
-0.0000000000000284
 11
4000.985686793862
 21
240.742843485996
 31
-0.0000000000000284
  0
LINE
  5
2FA3
330
1A
100
AcDbEntity
  8
0
100
AcDbLine
 10
4000.985686793862
 20
240.742843485996
 30
-0.0000000000000284
 11
4000.985686793862
 21
239.974843485996
 31
-0.0000000000000284
  0
LINE
  5
2FA4
330
1A
100
AcDbEntity
  8
0
100
AcDbLine
 10
4000.985686793862
 20
239.974843485996
 30
-0.0000000000000284
 11
4000.649686793862
 21
239.1588434859952
 31
-0.0000000000000284
  0
LINE
  5
2FA5
330
1A
100
AcDbEntity
  8
0
100
AcDbLine
 10
4003.865686793863
 20
238.8228434859959
 30
-0.0000000000000284
 11
4003.097686793863
 21
238.8228434859959
 31
-0.0000000000000284
  0
LINE
  5
2FA6
330
1A
100
AcDbEntity
  8
0
100
AcDbLine
 10
4003.097686793863
 20
238.8228434859959
 30
-0.0000000000000284
 11
4002.281686793863
 21
239.1588434859952
 31
-0.0000000000000284
  0
LINE
  5
2FA7
330
1A
100
AcDbEntity
  8
0
100
AcDbLine
 10
4002.281686793863
 20
239.1588434859952
 30
-0.0000000000000284
 11
4001.945686793863
 21
239.974843485996
 31
-0.0000000000000284
  0
LINE
  5
2FA8
330
1A
100
AcDbEntity
  8
0
100
AcDbLine
 10
4001.945686793863
 20
239.974843485996
 30
-0.0000000000000284
 11
4001.945686793863
 21
240.742843485996
 31
-0.0000000000000284
  0
LINE
  5
2FA9
330
1A
100
AcDbEntity
  8
0
100
AcDbLine
 10
3999.833686793863
 20
237.862843485995
 30
-0.0000000000000284
 11
4000.649686793862
 21
237.5268434859957
 31
-0.0000000000000284
  0
LINE
  5
2FAA
330
1A
100
AcDbEntity
  8
0
100
AcDbLine
 10
3999.065686793862
 20
237.862843485995
 30
-0.0000000000000284
 11
3999.833686793863
 21
237.862843485995
 31
-0.0000000000000284
  0
LINE
  5
2FAB
330
1A
100
AcDbEntity
  8
0
100
AcDbLine
 10
4001.945686793863
 20
235.9428434859949
 30
-0.0000000000000284
 11
4000.985686793862
 21
235.9428434859949
 31
-0.0000000000000284
  0
LINE
  5
2FAC
330
1A
100
AcDbEntity
  8
0
100
AcDbLine
 10
4000.649686793862
 20
237.5268434859957
 30
-0.0000000000000284
 11
4000.985686793862
 21
236.7108434859949
 31
-0.0000000000000284
  0
LINE
  5
2FAD
330
1A
100
AcDbEntity
  8
0
100
AcDbLine
 10
4003.097686793863
 20
237.862843485995
 30
-0.0000000000000284
 11
4003.865686793863
 21
237.862843485995
 31
-0.0000000000000284
  0
LINE
  5
2FAE
330
1A
100
AcDbEntity
  8
0
100
AcDbLine
 10
4002.281686793863
 20
237.5268434859957
 30
-0.0000000000000284
 11
4003.097686793863
 21
237.862843485995
 31
-0.0000000000000284
  0
LINE
  5
2FAF
330
1A
100
AcDbEntity
  8
0
100
AcDbLine
 10
4001.945686793863
 20
236.7108434859949
 30
-0.0000000000000284
 11
4002.281686793863
 21
237.5268434859957
 31
-0.0000000000000284
  0
LINE
  5
2FB0
330
1A
100
AcDbEntity
  8
0
100
AcDbLine
 10
4000.985686793862
 20
236.7108434859949
 30
-0.0000000000000284
 11
4000.985686793862
 21
235.9428434859949
 31
-0.0000000000000284
  0
LINE
  5
2FB1
330
1A
100
AcDbEntity
  8
0
100
AcDbLine
 10
4001.945686793863
 20
235.9428434859949
 30
-0.0000000000000284
 11
4001.945686793863
 21
236.7108434859949
 31
-0.0000000000000284
  0
LINE
  5
2FB2
330
1A
100
AcDbEntity
  8
0
100
AcDbLine
 10
3603.865686793866
 20
238.8228434859959
 30
-0.0000000000000284
 11
3603.865686793863
 21
237.862843485995
 31
-0.0000000000000284
  0
LINE
  5
2FB3
330
1A
100
AcDbEntity
  8
0
100
AcDbLine
 10
3599.065686793864
 20
238.8228434859959
 30
-0.0000000000000284
 11
3599.065686793864
 21
237.862843485995
 31
-0.0000000000000284
  0
CIRCLE
  5
2FB4
330
1A
100
AcDbEntity
  8
0
100
AcDbCircle
 10
3601.465686793865
 20
238.3428434859945
 30
-0.0000000000000284
 40
5.5
  0
LINE
  5
2FB5
330
1A
100
AcDbEntity
  8
0
100
AcDbLine
 10
3600.649686793865
 20
239.1588434859952
 30
-0.0000000000000284
 11
3599.833686793864
 21
238.8228434859959
 31
-0.0000000000000284
  0
LINE
  5
2FB6
330
1A
100
AcDbEntity
  8
0
100
AcDbLine
 10
3599.833686793864
 20
238.8228434859959
 30
-0.0000000000000284
 11
3599.065686793864
 21
238.8228434859959
 31
-0.0000000000000284
  0
LINE
  5
2FB7
330
1A
100
AcDbEntity
  8
0
100
AcDbLine
 10
3601.945686793865
 20
240.742843485996
 30
-0.0000000000000284
 11
3600.985686793864
 21
240.742843485996
 31
-0.0000000000000284
  0
LINE
  5
2FB8
330
1A
100
AcDbEntity
  8
0
100
AcDbLine
 10
3600.985686793864
 20
240.742843485996
 30
-0.0000000000000284
 11
3600.985686793864
 21
239.974843485996
 31
-0.0000000000000284
  0
LINE
  5
2FB9
330
1A
100
AcDbEntity
  8
0
100
AcDbLine
 10
3600.985686793864
 20
239.974843485996
 30
-0.0000000000000284
 11
3600.649686793865
 21
239.1588434859952
 31
-0.0000000000000284
  0
LINE
  5
2FBA
330
1A
100
AcDbEntity
  8
0
100
AcDbLine
 10
3603.865686793866
 20
238.8228434859959
 30
-0.0000000000000284
 11
3603.097686793863
 21
238.8228434859959
 31
-0.0000000000000284
  0
LINE
  5
2FBB
330
1A
100
AcDbEntity
  8
0
100
AcDbLine
 10
3603.097686793863
 20
238.8228434859959
 30
-0.0000000000000284
 11
3602.281686793864
 21
239.1588434859952
 31
-0.0000000000000284
  0
LINE
  5
2FBC
330
1A
100
AcDbEntity
  8
0
100
AcDbLine
 10
3602.281686793864
 20
239.1588434859952
 30
-0.0000000000000284
 11
3601.945686793865
 21
239.974843485996
 31
-0.0000000000000284
  0
LINE
  5
2FBD
330
1A
100
AcDbEntity
  8
0
100
AcDbLine
 10
3601.945686793865
 20
239.974843485996
 30
-0.0000000000000284
 11
3601.945686793865
 21
240.742843485996
 31
-0.0000000000000284
  0
LINE
  5
2FBE
330
1A
100
AcDbEntity
  8
0
100
AcDbLine
 10
3599.833686793864
 20
237.862843485995
 30
-0.0000000000000284
 11
3600.649686793865
 21
237.5268434859957
 31
-0.0000000000000284
  0
LINE
  5
2FBF
330
1A
100
AcDbEntity
  8
0
100
AcDbLine
 10
3599.065686793864
 20
237.862843485995
 30
-0.0000000000000284
 11
3599.833686793864
 21
237.862843485995
 31
-0.0000000000000284
  0
LINE
  5
2FC0
330
1A
100
AcDbEntity
  8
0
100
AcDbLine
 10
3601.945686793865
 20
235.9428434859949
 30
-0.0000000000000284
 11
3600.985686793864
 21
235.9428434859949
 31
-0.0000000000000284
  0
LINE
  5
2FC1
330
1A
100
AcDbEntity
  8
0
100
AcDbLine
 10
3600.649686793865
 20
237.5268434859957
 30
-0.0000000000000284
 11
3600.985686793864
 21
236.7108434859949
 31
-0.0000000000000284
  0
LINE
  5
2FC2
330
1A
100
AcDbEntity
  8
0
100
AcDbLine
 10
3603.097686793863
 20
237.862843485995
 30
-0.0000000000000284
 11
3603.865686793863
 21
237.862843485995
 31
-0.0000000000000284
  0
LINE
  5
2FC3
330
1A
100
AcDbEntity
  8
0
100
AcDbLine
 10
3602.281686793864
 20
237.5268434859957
 30
-0.0000000000000284
 11
3603.097686793863
 21
237.862843485995
 31
-0.0000000000000284
  0
LINE
  5
2FC4
330
1A
100
AcDbEntity
  8
0
100
AcDbLine
 10
3601.945686793865
 20
236.7108434859949
 30
-0.0000000000000284
 11
3602.281686793864
 21
237.5268434859957
 31
-0.0000000000000284
  0
LINE
  5
2FC5
330
1A
100
AcDbEntity
  8
0
100
AcDbLine
 10
3600.985686793864
 20
236.7108434859949
 30
-0.0000000000000284
 11
3600.985686793864
 21
235.9428434859949
 31
-0.0000000000000284
  0
LINE
  5
2FC6
330
1A
100
AcDbEntity
  8
0
100
AcDbLine
 10
3601.945686793865
 20
235.9428434859949
 30
-0.0000000000000284
 11
3601.945686793865
 21
236.7108434859949
 31
-0.0000000000000284
  0
DIMENSION
  5
2FD1
330
1A
100
AcDbEntity
  8
0
100
AcDbDimension
  2
*D0
 10
2540.266437225765
 20
720.5730638847742
 30
0.0
 11
2448.307783426612
 21
720.5730638847742
 31
0.0
 70
   160
  1
ケーブル　約 5m
 71
     5
 42
183.9173075983053
  3
s＝1／6
100
AcDbAlignedDimension
 13
2356.34912962746
 23
667.3384454793736
 33
-0.0000000000000284
 14
2540.266437225765
 24
674.3384454793719
 34
-0.0000000000000284
100
AcDbRotatedDimension
  0
DIMENSION
  5
2FD2
330
1A
100
AcDbEntity
  8
0
100
AcDbDimension
  2
*D1
 10
3193.266437225776
 20
88.72035842355968
 30
0.0
 11
2890.266437225776
 21
100.7203584235597
 31
0.0
 70
    32
 71
     5
 42
606.0
  3
s＝1／6
100
AcDbAlignedDimension
 13
2587.266437225776
 23
136.642843485992
 33
-0.0000000000000284
 14
3193.266437225776
 24
136.642843485992
 34
-0.0000000000000284
100
AcDbRotatedDimension
  0
DIMENSION
  5
2FD3
330
1A
100
AcDbEntity
  8
0
100
AcDbDimension
  2
*D2
 10
3240.266437225773
 20
1033.184055572025
 30
0.0
 11
2890.266437225769
 21
1045.184055572025
 31
0.0
 70
    32
 71
     5
 42
700.0000000000072
  3
s＝1／6
100
AcDbAlignedDimension
 13
2540.266437225765
 23
959.3384454793648
 33
-0.0000000000000284
 14
3240.266437225773
 24
959.3384454793648
 34
-0.0000000000000284
100
AcDbRotatedDimension
  0
DIMENSION
  5
2FD4
330
1A
100
AcDbEntity
  8
0
100
AcDbDimension
  2
*D3
 10
3321.173476934425
 20
364.3384454793738
 30
0.0
 11
3309.173476934425
 21
664.3384454793743
 31
0.0
 70
    32
 71
     5
 42
600.0
  3
s＝1／6
100
AcDbAlignedDimension
 13
3235.266437225772
 23
964.3384454793737
 33
-0.0000000000000284
 14
3235.266437225774
 24
364.3384454793738
 34
-0.0000000000000284
 50
90.0
100
AcDbRotatedDimension
  0
DIMENSION
  5
2FD5
330
1A
100
AcDbEntity
  8
0
100
AcDbDimension
  2
*D4
 10
3247.766437225772
 20
1065.202125244778
 30
0.0
 11
2890.266437225772
 21
1077.202125244778
 31
0.0
 70
    32
 71
     5
 42
715.0
  3
s＝1／6
100
AcDbAlignedDimension
 13
2532.766437225772
 23
963.8384454793738
 33
-0.0000000000000284
 14
3247.766437225772
 24
963.8384454793738
 34
-0.0000000000000284
100
AcDbRotatedDimension
  0
DIMENSION
  5
2FD6
330
1A
100
AcDbEntity
  8
0
100
AcDbDimension
  2
*D5
 10
3358.825631003686
 20
356.838445479372
 30
0.0
 11
3346.825631003686
 21
664.3384454793733
 31
0.0
 70
    32
 71
     5
 42
615.0000000000018
  3
s＝1／6
100
AcDbAlignedDimension
 13
3239.766437225772
 23
971.8384454793739
 33
-0.0000000000000284
 14
3239.766437225772
 24
356.838445479372
 34
-0.0000000000000284
 50
90.0
100
AcDbRotatedDimension
  0
DIMENSION
  5
2FD7
330
1A
100
AcDbEntity
  8
0
100
AcDbDimension
  2
*D6
 10
2540.266437225765
 20
529.6993248622029
 30
0.0
 11
2475.609294368624
 21
529.6993248622029
 31
0.0
 70
   160
 71
     5
 42
19.99999999999818
  3
s＝1／6
100
AcDbAlignedDimension
 13
2520.266437225767
 23
595.3384454793742
 33
0.0
 14
2540.266437225765
 24
595.3384454793742
 34
-0.0000000000000284
100
AcDbRotatedDimension
  0
DIMENSION
  5
2FD8
330
1A
100
AcDbEntity
  8
0
100
AcDbDimension
  2
*D7
 10
3321.173476934425
 20
190.6428434859813
 30
0.0
 11
3309.173476934425
 21
235.6428434859891
 31
0.0
 70
    32
 71
     5
 42
90.00000000001458
  3
s＝1／6
100
AcDbAlignedDimension
 13
3239.266437225774
 23
280.6428434859959
 33
-0.0000000000000284
 14
3247.766437225772
 24
190.6428434859813
 34
-0.0000000000000284
 50
90.0
100
AcDbRotatedDimension
  0
DIMENSION
  5
2FD9
330
1A
100
AcDbEntity
  8
0
100
AcDbDimension
  2
*D8
 10
3358.825631003686
 20
131.6428434859919
 30
0.0
 11
3358.825631003686
 21
206.1428434859958
 31
0.0
 70
   160
 71
     5
 42
149.0000000000039
  3
s＝1／6
100
AcDbAlignedDimension
 13
3239.266437225774
 23
280.6428434859959
 33
-0.0000000000000284
 14
3205.266437225776
 24
131.642843485992
 34
-0.0000000000000284
 50
90.0
100
AcDbRotatedDimension
  0
DIMENSION
  5
2FDA
330
1A
100
AcDbEntity
  8
0
100
AcDbDimension
  2
*D9
 10
4054.465686793877
 20
88.72035842355968
 30
0.0
 11
3801.465686793877
 21
100.7203584235597
 31
0.0
 70
    32
 71
     5
 42
506.0
  3
s＝1／6
100
AcDbAlignedDimension
 13
3548.465686793877
 23
136.6428434859901
 33
-0.0000000000000284
 14
4054.465686793877
 24
136.6428434859901
 34
-0.0000000000000284
100
AcDbRotatedDimension
  0
DIMENSION
  5
2FDB
330
1A
100
AcDbEntity
  8
0
100
AcDbDimension
  2
*D10
 10
3232.266437225769
 20
88.72035842355968
 30
0.0
 11
3212.766437225773
 21
100.7203584235597
 31
0.0
 70
    32
 71
     5
 42
38.99999999999272
  3
s＝1／6
100
AcDbAlignedDimension
 13
3193.266437225776
 23
136.642843485992
 33
-0.0000000000000284
 14
3232.266437225769
 24
167.142843485992
 34
-0.0000000000000284
100
AcDbRotatedDimension
  0
DIMENSION
  5
2FDC
330
1A
100
AcDbEntity
  8
0
100
AcDbDimension
  2
*D11
 10
4083.465686793873
 20
88.72035842355968
 30
0.0
 11
4068.965686793875
 21
100.7203584235597
 31
0.0
 70
    32
 71
     5
 42
28.99999999999636
  3
s＝1／6
100
AcDbAlignedDimension
 13
4054.465686793877
 23
136.6428434859901
 33
-0.0000000000000284
 14
4083.465686793873
 24
167.1428434859883
 34
-0.0000000000000284
100
AcDbRotatedDimension
  0
DIMENSION
  5
2FDD
330
1A
100
AcDbEntity
  8
0
100
AcDbDimension
  2
*D12
 10
3519.465686793862
 20
88.72035842355968
 30
0.0
 11
3533.96568679387
 21
100.7203584235597
 31
0.0
 70
    32
 71
     5
 42
29.00000000001455
  3
s＝1／6
100
AcDbAlignedDimension
 13
3548.465686793877
 23
136.6428434859901
 33
-0.0000000000000284
 14
3519.465686793862
 24
167.1428434859883
 34
-0.0000000000000284
100
AcDbRotatedDimension
  0
DIMENSION
  5
2FF0
330
1A
100
AcDbEntity
  8
0
100
AcDbDimension
  2
*D13
 10
2471.755272695941
 20
595.3384454793742
 30
0.0
 11
2459.755272695941
 21
614.3384454793747
 31
0.0
 70
    32
 71
     5
 42
38.0
  3
s＝1／6
100
AcDbAlignedDimension
 13
2520.266437225767
 23
633.3384454793742
 33
0.0
 14
2520.266437225767
 24
595.3384454793742
 34
0.0
 50
90.0
100
AcDbRotatedDimension
  0
DIMENSION
  5
2FF1
330
1A
100
AcDbEntity
  8
0
100
AcDbDimension
  2
*D14
 10
2430.780993101395
 20
364.3384454793721
 30
0.0
 11
2418.780993101396
 21
489.3384454793735
 31
0.0
 70
    32
 71
     5
 42
250.0000000000023
  3
s＝1／6
100
AcDbAlignedDimension
 13
2520.266437225767
 23
614.3384454793743
 33
0.0
 14
2545.266437225772
 24
364.338445479372
 34
-0.0000000000000284
 50
90.0
100
AcDbRotatedDimension
  0
LINE
  5
2FF2
330
1A
100
AcDbEntity
  8
0
100
AcDbLine
 10
2321.349129627463
 20
669.7915511099315
 30
-0.0000000000000284
 11
2321.349129627463
 21
668.8915511099314
 31
-0.0000000000000284
  0
LINE
  5
2FF3
330
1A
100
AcDbEntity
  8
0
100
AcDbLine
 10
2321.349129627463
 20
670.8915511099315
 30
-0.0000000000000284
 11
2321.349129627463
 21
669.7915511099315
 31
-0.0000000000000284
  0
LINE
  5
2FF4
330
1A
100
AcDbEntity
  8
0
100
AcDbLine
 10
2321.349129627463
 20
671.5415511099315
 30
-0.0000000000000284
 11
2321.349129627463
 21
670.8915511099315
 31
-0.0000000000000284
  0
LINE
  5
2FF5
330
1A
100
AcDbEntity
  8
0
100
AcDbLine
 10
2321.349129627463
 20
657.7915511099315
 30
-0.0000000000000284
 11
2321.349129627463
 21
657.1415511099314
 31
-0.0000000000000284
  0
LINE
  5
2FF6
330
1A
100
AcDbEntity
  8
0
100
AcDbLine
 10
2321.349129627463
 20
658.8915511099314
 30
-0.0000000000000284
 11
2321.349129627463
 21
657.7915511099315
 31
-0.0000000000000284
  0
LINE
  5
2FF7
330
1A
100
AcDbEntity
  8
0
100
AcDbLine
 10
2321.349129627463
 20
659.7915511099316
 30
-0.0000000000000284
 11
2321.349129627463
 21
658.8915511099314
 31
-0.0000000000000284
  0
LINE
  5
2FF8
330
1A
100
AcDbEntity
  8
0
100
AcDbLine
 10
2321.349129627463
 20
661.3915511099314
 30
-0.0000000000000284
 11
2321.349129627463
 21
659.7915511099316
 31
-0.0000000000000284
  0
LINE
  5
2FF9
330
1A
100
AcDbEntity
  8
0
100
AcDbLine
 10
2321.349129627463
 20
662.2915511099315
 30
-0.0000000000000284
 11
2321.349129627463
 21
661.3915511099314
 31
-0.0000000000000284
  0
LINE
  5
2FFA
330
1A
100
AcDbEntity
  8
0
100
AcDbLine
 10
2321.349129627463
 20
663.8915511099314
 30
-0.0000000000000284
 11
2321.349129627463
 21
662.2915511099315
 31
-0.0000000000000284
  0
LINE
  5
2FFB
330
1A
100
AcDbEntity
  8
0
100
AcDbLine
 10
2321.349129627463
 20
664.7915511099315
 30
-0.0000000000000284
 11
2321.349129627463
 21
663.8915511099314
 31
-0.0000000000000284
  0
LINE
  5
2FFC
330
1A
100
AcDbEntity
  8
0
100
AcDbLine
 10
2321.349129627463
 20
666.3915511099315
 30
-0.0000000000000284
 11
2321.349129627463
 21
664.7915511099315
 31
-0.0000000000000284
  0
LINE
  5
2FFD
330
1A
100
AcDbEntity
  8
0
100
AcDbLine
 10
2321.349129627463
 20
667.2915511099315
 30
-0.0000000000000284
 11
2321.349129627463
 21
666.3915511099315
 31
-0.0000000000000284
  0
LINE
  5
2FFE
330
1A
100
AcDbEntity
  8
0
100
AcDbLine
 10
2321.349129627463
 20
667.2915511099315
 30
-0.0000000000000284
 11
2321.349129627463
 21
668.8915511099314
 31
-0.0000000000000284
  0
LINE
  5
2FFF
330
1A
100
AcDbEntity
  8
0
100
AcDbLine
 10
2331.649129627463
 20
668.8915511099314
 30
-0.0000000000000284
 11
2321.349129627463
 21
668.8915511099314
 31
-0.0000000000000284
  0
LINE
  5
3000
330
1A
100
AcDbEntity
  8
0
100
AcDbLine
 10
2326.249129627463
 20
669.7915511099315
 30
-0.0000000000000284
 11
2326.249129627463
 21
668.8915511099314
 31
-0.0000000000000284
  0
LINE
  5
3001
330
1A
100
AcDbEntity
  8
0
100
AcDbLine
 10
2331.649129627463
 20
670.8915511099315
 30
-0.0000000000000284
 11
2321.349129627463
 21
670.8915511099315
 31
-0.0000000000000284
  0
LINE
  5
3002
330
1A
100
AcDbEntity
  8
0
100
AcDbLine
 10
2321.349129627463
 20
669.7915511099315
 30
-0.0000000000000284
 11
2326.249129627463
 21
669.7915511099315
 31
-0.0000000000000284
  0
LINE
  5
3003
330
1A
100
AcDbEntity
  8
0
100
AcDbLine
 10
2326.249129627463
 20
667.2915511099315
 30
-0.0000000000000284
 11
2326.249129627463
 21
666.3915511099315
 31
-0.0000000000000284
  0
LINE
  5
3004
330
1A
100
AcDbEntity
  8
0
100
AcDbLine
 10
2321.349129627463
 20
666.3915511099315
 30
-0.0000000000000284
 11
2326.249129627463
 21
666.3915511099315
 31
-0.0000000000000284
  0
LINE
  5
3005
330
1A
100
AcDbEntity
  8
0
100
AcDbLine
 10
2321.349129627463
 20
664.7915511099315
 30
-0.0000000000000284
 11
2326.249129627463
 21
664.7915511099315
 31
-0.0000000000000284
  0
LINE
  5
3006
330
1A
100
AcDbEntity
  8
0
100
AcDbLine
 10
2326.249129627463
 20
664.7915511099315
 30
-0.0000000000000284
 11
2326.249129627463
 21
663.8915511099314
 31
-0.0000000000000284
  0
LINE
  5
3007
330
1A
100
AcDbEntity
  8
0
100
AcDbLine
 10
2321.349129627463
 20
663.8915511099314
 30
-0.0000000000000284
 11
2326.249129627463
 21
663.8915511099314
 31
-0.0000000000000284
  0
LINE
  5
3008
330
1A
100
AcDbEntity
  8
0
100
AcDbLine
 10
2321.349129627463
 20
662.2915511099315
 30
-0.0000000000000284
 11
2326.249129627463
 21
662.2915511099315
 31
-0.0000000000000284
  0
LINE
  5
3009
330
1A
100
AcDbEntity
  8
0
100
AcDbLine
 10
2326.249129627463
 20
662.2915511099315
 30
-0.0000000000000284
 11
2326.249129627463
 21
661.3915511099314
 31
-0.0000000000000284
  0
LINE
  5
300A
330
1A
100
AcDbEntity
  8
0
100
AcDbLine
 10
2321.349129627463
 20
661.3915511099314
 30
-0.0000000000000284
 11
2326.249129627463
 21
661.3915511099314
 31
-0.0000000000000284
  0
LINE
  5
300B
330
1A
100
AcDbEntity
  8
0
100
AcDbLine
 10
2321.349129627463
 20
659.7915511099316
 30
-0.0000000000000284
 11
2326.249129627463
 21
659.7915511099316
 31
-0.0000000000000284
  0
LINE
  5
300C
330
1A
100
AcDbEntity
  8
0
100
AcDbLine
 10
2326.249129627463
 20
659.7915511099316
 30
-0.0000000000000284
 11
2326.249129627463
 21
658.8915511099314
 31
-0.0000000000000284
  0
LINE
  5
300D
330
1A
100
AcDbEntity
  8
0
100
AcDbLine
 10
2321.349129627463
 20
658.8915511099314
 30
-0.0000000000000284
 11
2326.249129627463
 21
658.8915511099314
 31
-0.0000000000000284
  0
LINE
  5
300E
330
1A
100
AcDbEntity
  8
0
100
AcDbLine
 10
2331.649129627463
 20
657.7915511099315
 30
-0.0000000000000284
 11
2321.349129627463
 21
657.7915511099315
 31
-0.0000000000000284
  0
LINE
  5
300F
330
1A
100
AcDbEntity
  8
0
100
AcDbLine
 10
2335.349129627463
 20
670.8915511099315
 30
-0.0000000000000284
 11
2331.649129627463
 21
670.8915511099315
 31
-0.0000000000000284
  0
LINE
  5
3010
330
1A
100
AcDbEntity
  8
0
100
AcDbLine
 10
2335.349129627463
 20
671.5415511099315
 30
-0.0000000000000284
 11
2335.349129627463
 21
670.8915511099315
 31
-0.0000000000000284
  0
LINE
  5
3011
330
1A
100
AcDbEntity
  8
0
100
AcDbLine
 10
2335.349129627463
 20
670.8915511099315
 30
-0.0000000000000284
 11
2335.349129627463
 21
657.7915511099315
 31
-0.0000000000000284
  0
LINE
  5
3012
330
1A
100
AcDbEntity
  8
0
100
AcDbLine
 10
2335.349129627463
 20
657.7915511099315
 30
-0.0000000000000284
 11
2335.349129627463
 21
657.1415511099314
 31
-0.0000000000000284
  0
LINE
  5
3013
330
1A
100
AcDbEntity
  8
0
100
AcDbLine
 10
2335.349129627463
 20
657.1415511099314
 30
-0.0000000000000284
 11
2321.349129627463
 21
657.1415511099314
 31
-0.0000000000000284
  0
LINE
  5
3014
330
1A
100
AcDbEntity
  8
0
100
AcDbLine
 10
2335.349129627463
 20
657.7915511099315
 30
-0.0000000000000284
 11
2331.649129627463
 21
657.7915511099315
 31
-0.0000000000000284
  0
LINE
  5
3015
330
1A
100
AcDbEntity
  8
0
100
AcDbLine
 10
2331.649129627463
 20
670.8915511099315
 30
-0.0000000000000284
 11
2331.649129627463
 21
668.8915511099314
 31
-0.0000000000000284
  0
LINE
  5
3016
330
1A
100
AcDbEntity
  8
0
100
AcDbLine
 10
2331.649129627463
 20
667.2915511099315
 30
-0.0000000000000284
 11
2331.649129627463
 21
657.7915511099315
 31
-0.0000000000000284
  0
LINE
  5
3017
330
1A
100
AcDbEntity
  8
0
100
AcDbLine
 10
2331.649129627463
 20
667.2915511099315
 30
-0.0000000000000284
 11
2321.349129627463
 21
667.2915511099315
 31
-0.0000000000000284
  0
LINE
  5
3018
330
1A
100
AcDbEntity
  8
0
100
AcDbLine
 10
2335.349129627463
 20
671.5415511099315
 30
-0.0000000000000284
 11
2321.349129627463
 21
671.5415511099315
 31
-0.0000000000000284
  0
ARC
  5
3019
330
1A
100
AcDbEntity
  8
0
100
AcDbCircle
 10
2364.235438723875
 20
448.8091612904615
 30
-0.0000000000000284
 40
214.0352872758673
100
AcDbArc
 50
92.11158886789929
 51
93.67277639467237
  0
ARC
  5
301A
330
1A
100
AcDbEntity
  8
0
100
AcDbCircle
 10
2364.181547114055
 20
17.34997784382767
 30
-0.0000000000000284
 40
646.4926276091691
100
AcDbArc
 50
90.69416946940981
 51
91.23860968905999
  0
ARC
  5
301B
330
1A
100
AcDbEntity
  8
0
100
AcDbCircle
 10
2364.187666679031
 20
1321.615789933508
 30
-0.0000000000000284
 40
656.7752658089893
100
AcDbArc
 50
268.7714938072144
 51
269.3161652444167
  0
ARC
  5
301C
330
1A
100
AcDbEntity
  8
0
100
AcDbCircle
 10
2364.18778916537
 20
883.4225287976487
 30
-0.0000000000000284
 40
217.584076998325
100
AcDbArc
 50
266.3154075138686
 51
267.9354219228782
  0
SPLINE
  5
301D
330
1A
100
AcDbEntity
  8
0
100
AcDbSpline
210
0.0
220
0.0
230
1.0
 70
     8
 71
     3
 72
    36
 73
    32
 74
     0
 42
0.0000000001
 43
0.0000000001
 40
0.0
 40
0.0
 40
0.0
 40
0.0
 40
0.0668356865135403
 40
0.1417916185763536
 40
0.2393171516070045
 40
0.3377801196760128
 40
0.4352478833480805
 40
0.5329889564012114
 40
0.5980812980986699
 40
0.6618354816035962
 40
0.7230347569567086
 40
0.7357657235220673
 40
0.748354467325202
 40
0.7607988505531101
 40
0.7738566735335906
 40
0.7892393023373069
 40
0.806793958769369
 40
0.8262643861965615
 40
0.8541701240121163
 40
0.8843857202316099
 40
0.9165042564691697
 40
0.9386654215528837
 40
0.961661174362193
 40
0.9827362565919827
 40
0.9851606416990874
 40
0.9875982359171285
 40
0.9900494666963151
 40
0.9925147825974503
 40
0.9949946502886904
 40
0.9974895546820947
 40
1.0
 40
1.0
 40
1.0
 40
1.0
 10
2350.523683110979
 20
662.404254897666
 30
-0.0000000000000284
 10
2350.160383257305
 20
662.3698942229423
 30
-0.0000000000000284
 10
2349.509889097456
 20
662.3078076558597
 30
-0.0000000000000284
 10
2348.305502400712
 20
662.1762058301749
 30
-0.0000000000000284
 10
2346.979071827361
 20
662.0121877323897
 30
-0.0000000000000284
 10
2345.534508637177
 20
661.8063622580855
 30
-0.0000000000000284
 10
2344.096488656874
 20
661.571162677621
 30
-0.0000000000000284
 10
2342.826101117892
 20
661.3340909089281
 30
-0.0000000000000284
 10
2341.724645380949
 20
661.1066002167876
 30
-0.0000000000000284
 10
2340.803600516919
 20
660.9026837569261
 30
-0.0000000000000284
 10
2340.138019051593
 20
660.7475661609453
 30
-0.0000000000000284
 10
2339.720053860776
 20
660.6489279099427
 30
-0.0000000000000284
 10
2339.537638151524
 20
660.6057926373469
 30
-0.0000000000000284
 10
2339.353643385429
 20
660.5622850234688
 30
-0.0000000000000284
 10
2339.156126805671
 20
660.5156970712571
 30
-0.0000000000000284
 10
2338.933851162331
 20
660.4635879973772
 30
-0.0000000000000284
 10
2338.680422073764
 20
660.4049151010058
 30
-0.0000000000000284
 10
2338.366081802059
 20
660.3337609091809
 30
-0.0000000000000284
 10
2337.989681901999
 20
660.2521433275613
 30
-0.0000000000000284
 10
2337.550319064772
 20
660.1648629960962
 30
-0.0000000000000284
 10
2337.136706288501
 20
660.0948416756816
 30
-0.0000000000000284
 10
2336.756442128916
 20
660.0441476242017
 30
-0.0000000000000284
 10
2336.429159796248
 20
660.0122690331995
 30
-0.0000000000000284
 10
2336.198670028157
 20
659.9991801128983
 30
-0.0000000000000284
 10
2336.070001640845
 20
659.9949227874533
 30
-0.0000000000000284
 10
2336.033712330774
 20
659.9939006994527
 30
-0.0000000000000284
 10
2335.997232490854
 20
659.9930550004603
 30
-0.0000000000000284
 10
2335.96047413876
 20
659.9923886995041
 30
-0.0000000000000284
 10
2335.923740505296
 20
659.9919105928145
 30
-0.0000000000000284
 10
2335.885860453699
 20
659.9916081643364
 30
-0.0000000000000284
 10
2335.862836582889
 20
659.9915691750955
 30
-0.0000000000000284
 10
2335.849129627463
 20
659.9915511099315
 30
-0.0000000000000284
  0
SPLINE
  5
301E
330
1A
100
AcDbEntity
  8
0
100
AcDbSpline
210
0.0
220
0.0
230
1.0
 70
     8
 71
     3
 72
    57
 73
    53
 74
     0
 42
0.0000000001
 43
0.0000000001
 40
0.0
 40
0.0
 40
0.0
 40
0.0
 40
0.0021785716618119
 40
0.0043315429892078
 40
0.0064594823023321
 40
0.0085629277608491
 40
0.0106423910557722
 40
0.0126983563944413
 40
0.0147312757351584
 40
0.0167415767934954
 40
0.0288831005207669
 40
0.0390464059117169
 40
0.048609898543856
 40
0.0592371403751354
 40
0.0690452443066586
 40
0.0780205795524313
 40
0.0864957219915774
 40
0.0939710158870487
 40
0.1006906999901418
 40
0.1073996181444345
 40
0.1141391019666724
 40
0.1209130943745626
 40
0.1277238792932606
 40
0.1345724707139842
 40
0.1784301614326906
 40
0.2182516634284698
 40
0.2579132640023482
 40
0.2865133240648093
 40
0.3152829992038688
 40
0.3439396381122874
 40
0.372173083666573
 40
0.3996431693507778
 40
0.4198153417749911
 40
0.4392157446204884
 40
0.4577052644133707
 40
0.4681196824072811
 40
0.4781442750675934
 40
0.4880843852538835
 40
0.4988881262249277
 40
0.5109037448856241
 40
0.5239680157253335
 40
0.5381327956010748
 40
0.5534544697985119
 40
0.5699939232145105
 40
0.587817085511834
 40
0.6069952272812524
 40
0.6230281125670809
 40
0.6399804359542191
 40
0.657893986294988
 40
0.6768129354966252
 40
0.6967839352731572
 40
0.6972121577244432
 40
0.6972121577244432
 40
0.6972121577244432
 40
0.6972121577244432
 10
2335.849129627463
 20
658.6915511099316
 30
-0.0000000000000284
 10
2335.87288075865
 20
658.6915969832291
 30
-0.0000000000000284
 10
2335.912661728014
 20
658.6916955655149
 30
-0.0000000000000284
 10
2335.977929476026
 20
658.6924568725715
 30
-0.0000000000000284
 10
2336.040865135005
 20
658.6936494125493
 30
-0.0000000000000284
 10
2336.103478047116
 20
658.6952958395893
 30
-0.0000000000000284
 10
2336.165254994013
 20
658.6973655243334
 30
-0.0000000000000284
 10
2336.226346220391
 20
658.6998422802862
 30
-0.0000000000000284
 10
2336.2867267641
 20
658.7027068864192
 30
-0.0000000000000284
 10
2336.446901134629
 20
658.7113854484584
 30
-0.0000000000000284
 10
2336.687237415695
 20
658.7300284748849
 30
-0.0000000000000284
 10
2337.001195017077
 20
658.7648926163208
 30
-0.0000000000000284
 10
2337.2992581146
 20
658.805891873113
 30
-0.0000000000000284
 10
2337.592805509962
 20
658.8532692279875
 30
-0.0000000000000284
 10
2337.879623170929
 20
658.9053347880662
 30
-0.0000000000000284
 10
2338.144699507556
 20
658.9575447253221
 30
-0.0000000000000284
 10
2338.386534700338
 20
659.0080121458065
 30
-0.0000000000000284
 10
2338.606098709005
 20
659.0557178427634
 30
-0.0000000000000284
 10
2338.808297055134
 20
659.1008809920174
 30
-0.0000000000000284
 10
2339.003187831034
 20
659.1452962431738
 30
-0.0000000000000284
 10
2339.19845821728
 20
659.1904624990856
 30
-0.0000000000000284
 10
2339.394605298524
 20
659.2363155329382
 30
-0.0000000000000284
 10
2339.591734465325
 20
659.2827169234354
 30
-0.0000000000000284
 10
2340.146510172417
 20
659.4138154435893
 30
-0.0000000000000284
 10
2341.019726611962
 20
659.6200565499373
 30
-0.0000000000000284
 10
2342.213656086476
 20
659.8828108143248
 30
-0.0000000000000284
 10
2343.263976865292
 20
660.0937217264984
 30
-0.0000000000000284
 10
2344.209844971599
 20
660.2675709786433
 30
-0.0000000000000284
 10
2345.050423208065
 20
660.4104720979969
 30
-0.0000000000000284
 10
2345.889172685583
 20
660.5420146187111
 30
-0.0000000000000284
 10
2346.716689971086
 20
660.6616333072822
 30
-0.0000000000000284
 10
2347.462122000073
 20
660.7609865478064
 30
-0.0000000000000284
 10
2348.121521058848
 20
660.8429218798394
 30
-0.0000000000000284
 10
2348.693076328092
 20
660.9098621008968
 30
-0.0000000000000284
 10
2349.168925762385
 20
660.9624905507859
 30
-0.0000000000000284
 10
2349.552606727885
 20
661.0030996725136
 30
-0.0000000000000284
 10
2349.852125750446
 20
661.0338181077854
 30
-0.0000000000000284
 10
2350.155578128334
 20
661.0639901800625
 30
-0.0000000000000284
 10
2350.478766461473
 20
661.0950979852623
 30
-0.0000000000000284
 10
2350.832889328992
 20
661.1279768846165
 30
-0.0000000000000284
 10
2351.220308521341
 20
661.162536563151
 30
-0.0000000000000284
 10
2351.640504470491
 20
661.1984079952655
 30
-0.0000000000000284
 10
2352.095169924912
 20
661.2353934220436
 30
-0.0000000000000284
 10
2352.586137275432
 20
661.2732673342281
 30
-0.0000000000000284
 10
2353.115385909133
 20
661.3117787740641
 30
-0.0000000000000284
 10
2353.639794110949
 20
661.3475603455128
 30
-0.0000000000000284
 10
2354.155731420057
 20
661.3806257095914
 30
-0.0000000000000284
 10
2354.659278230492
 20
661.4110056495348
 30
-0.0000000000000284
 10
2355.191496046455
 20
661.4410737641865
 30
-0.0000000000000284
 10
2355.753704219925
 20
661.4706376435854
 30
-0.0000000000000284
 10
2356.142930933279
 20
661.4895562876199
 30
-0.0000000000000284
 10
2356.344890073316
 20
661.4989667981856
 30
-0.0000000000000284
 10
2356.349129627462
 20
661.4991641662292
 30
-0.0000000000000284
  0
LINE
  5
301F
330
1A
100
AcDbEntity
  8
0
100
AcDbLine
 10
2335.349129627463
 20
658.6915511099316
 30
-0.0000000000000284
 11
2335.849129627463
 21
658.6915511099316
 31
-0.0000000000000284
  0
LINE
  5
3020
330
1A
100
AcDbEntity
  8
0
100
AcDbLine
 10
2335.849129627463
 20
659.9915511099315
 30
-0.0000000000000284
 11
2335.349129627463
 21
659.9915511099315
 31
-0.0000000000000284
  0
LINE
  5
3021
330
1A
100
AcDbEntity
  8
0
100
AcDbLine
 10
2335.849129627463
 20
662.4915511099316
 30
-0.0000000000000284
 11
2335.349129627463
 21
662.4915511099316
 31
-0.0000000000000284
  0
LINE
  5
3022
330
1A
100
AcDbEntity
  8
0
100
AcDbLine
 10
2335.349129627463
 20
661.1915511099316
 30
-0.0000000000000284
 11
2335.849129627463
 21
661.1915511099316
 31
-0.0000000000000284
  0
SPLINE
  5
3023
330
1A
100
AcDbEntity
  8
0
100
AcDbSpline
210
0.0
220
0.0
230
1.0
 70
     8
 71
     3
 72
    43
 73
    39
 74
     0
 42
0.0000000001
 43
0.0000000001
 40
0.0
 40
0.0
 40
0.0
 40
0.0
 40
0.0037712466187931
 40
0.0075023915939522
 40
0.0111943293880734
 40
0.0148479070825573
 40
0.0184639272566101
 40
0.0220431492103391
 40
0.0255862851348747
 40
0.0290940014994673
 40
0.0503681231360397
 40
0.0682990585407962
 40
0.0852825603478616
 40
0.1089746808752493
 40
0.1305701042827999
 40
0.1499644744402939
 40
0.1669915529287229
 40
0.1817123124877548
 40
0.196070985076058
 40
0.2105139364076516
 40
0.2250459885195007
 40
0.2712862078195148
 40
0.318259680451392
 40
0.403568157712888
 40
0.488642268818871
 40
0.5499934811899321
 40
0.6117989312315863
 40
0.673262481578418
 40
0.7336175811351567
 40
0.7921652489727659
 40
0.8321590249002111
 40
0.8705343722270747
 40
0.9070072278400171
 40
0.927498394980067
 40
0.9472112587989867
 40
0.9677690831264978
 40
0.9901677994201019
 40
1.0
 40
1.0
 40
1.0
 40
1.0
 10
2335.849129627463
 20
661.1915511099316
 30
-0.0000000000000284
 10
2335.869498041208
 20
661.191571653588
 30
-0.0000000000000284
 10
2335.903632799441
 20
661.1916157870198
 30
-0.0000000000000284
 10
2335.959670331607
 20
661.191956610309
 30
-0.0000000000000284
 10
2336.013770647877
 20
661.1924908190296
 30
-0.0000000000000284
 10
2336.067661398779
 20
661.1932289455178
 30
-0.0000000000000284
 10
2336.120901203908
 20
661.1941576290303
 30
-0.0000000000000284
 10
2336.173620008783
 20
661.195270001248
 30
-0.0000000000000284
 10
2336.225796357855
 20
661.1965577654789
 30
-0.0000000000000284
 10
2336.364817122188
 20
661.2004748282238
 30
-0.0000000000000284
 10
2336.574381480007
 20
661.2089247564533
 30
-0.0000000000000284
 10
2336.849819244305
 20
661.2247840696684
 30
-0.0000000000000284
 10
2337.136856805932
 20
661.2452224260557
 30
-0.0000000000000284
 10
2337.441518469371
 20
661.2711254531222
 30
-0.0000000000000284
 10
2337.757623135977
 20
661.3018247824272
 30
-0.0000000000000284
 10
2338.040911858207
 20
661.3317414827556
 30
-0.0000000000000284
 10
2338.290478305801
 20
661.3595239095018
 30
-0.0000000000000284
 10
2338.515376862936
 20
661.3854011881628
 30
-0.0000000000000284
 10
2338.727608275168
 20
661.410362176505
 30
-0.0000000000000284
 10
2338.938875829766
 20
661.4355826021462
 30
-0.0000000000000284
 10
2339.305527523043
 20
661.4797751162812
 30
-0.0000000000000284
 10
2339.83068336286
 20
661.5436795342709
 30
-0.0000000000000284
 10
2340.701039642544
 20
661.6476249594998
 30
-0.0000000000000284
 10
2341.761534260265
 20
661.767359150743
 30
-0.0000000000000284
 10
2342.893523813424
 20
661.8825329283929
 30
-0.0000000000000284
 10
2343.911620093149
 20
661.9764443814367
 30
-0.0000000000000284
 10
2344.814881000147
 20
662.0528916531857
 30
-0.0000000000000284
 10
2345.713782654783
 20
662.1225613702304
 30
-0.0000000000000284
 10
2346.597162651005
 20
662.1852534786232
 30
-0.0000000000000284
 10
2347.37569682975
 20
662.2359045058865
 30
-0.0000000000000284
 10
2348.04673737473
 20
662.2765132239292
 30
-0.0000000000000284
 10
2348.609668284086
 20
662.3086463346544
 30
-0.0000000000000284
 10
2349.077181177273
 20
662.333872009666
 30
-0.0000000000000284
 10
2349.452992044405
 20
662.3532943503598
 30
-0.0000000000000284
 10
2349.75148432868
 20
662.3682578125547
 30
-0.0000000000000284
 10
2350.056724738218
 20
662.3830719752977
 30
-0.0000000000000284
 10
2350.322585264507
 20
662.3956335262907
 30
-0.0000000000000284
 10
2350.470585915365
 20
662.4023075694474
 30
-0.0000000000000284
 10
2350.523635645152
 20
662.4046969018307
 30
-0.0000000000000284
  0
SPLINE
  5
3024
330
1A
100
AcDbEntity
  8
0
100
AcDbSpline
210
0.0
220
0.0
230
1.0
 70
     8
 71
     3
 72
    37
 73
    33
 74
     0
 42
0.0000000001
 43
0.0000000001
 40
0.0
 40
0.0
 40
0.0
 40
0.0
 40
0.0479964728493571
 40
0.1248100011882146
 40
0.2246300883163105
 40
0.3256229273508673
 40
0.4256916805179797
 40
0.5255650414658943
 40
0.5756677481024634
 40
0.6251968006308721
 40
0.6736010385194838
 40
0.7204259455121353
 40
0.7334833040556307
 40
0.7463912907474982
 40
0.7591475383114822
 40
0.7719456798238018
 40
0.7867984382814855
 40
0.8040328246569304
 40
0.823372164655241
 40
0.8513532025995605
 40
0.8818859625996561
 40
0.9145429536378117
 40
0.9371708440123903
 40
0.9607100927388923
 40
0.9823104622254859
 40
0.9847953700416415
 40
0.9872936716141984
 40
0.9898057473095869
 40
0.9923319950610004
 40
0.9948728295870072
 40
0.9974286818403989
 40
1.0
 40
1.0
 40
1.0
 40
1.0
 10
2350.207191392087
 20
663.6908728317742
 30
-0.0000000000000284
 10
2349.953810892535
 20
663.6791222103163
 30
-0.0000000000000284
 10
2349.395163891982
 20
663.6530362739613
 30
-0.0000000000000284
 10
2348.292859318953
 20
663.5940118348734
 30
-0.0000000000000284
 10
2346.970971161974
 20
663.5143576362525
 30
-0.0000000000000284
 10
2345.52609658936
 20
663.4137255147386
 30
-0.0000000000000284
 10
2344.085634480142
 20
663.2982281559955
 30
-0.0000000000000284
 10
2342.889156437372
 20
663.1882212932796
 30
-0.0000000000000284
 10
2341.93556976952
 20
663.0914846126966
 30
-0.0000000000000284
 10
2341.228429790782
 20
663.0153098601726
 30
-0.0000000000000284
 10
2340.537395595414
 20
662.9368331380653
 30
-0.0000000000000284
 10
2340.020751384692
 20
662.8756740715759
 30
-0.0000000000000284
 10
2339.673540755265
 20
662.8339194616926
 30
-0.0000000000000284
 10
2339.488850867317
 20
662.8116018836897
 30
-0.0000000000000284
 10
2339.305404872787
 20
662.7893718011703
 30
-0.0000000000000284
 10
2339.112684729375
 20
662.7660059172374
 30
-0.0000000000000284
 10
2338.898599024446
 20
662.7401105511228
 30
-0.0000000000000284
 10
2338.653288449458
 20
662.7106551521497
 30
-0.0000000000000284
 10
2338.345284921213
 20
662.6742628158788
 30
-0.0000000000000284
 10
2337.97366100604
 20
662.6318292779169
 30
-0.0000000000000284
 10
2337.538067934774
 20
662.5857201516612
 30
-0.0000000000000284
 10
2337.127458674527
 20
662.5481370522749
 30
-0.0000000000000284
 10
2336.749744364478
 20
662.5205668978865
 30
-0.0000000000000284
 10
2336.424612095288
 20
662.5030482620022
 30
-0.0000000000000284
 10
2336.195895215968
 20
662.4957950670252
 30
-0.0000000000000284
 10
2336.068202113774
 20
662.4934284706771
 30
-0.0000000000000284
 10
2336.032192780208
 20
662.4928599144961
 30
-0.0000000000000284
 10
2335.99600046248
 20
662.4923891814963
 30
-0.0000000000000284
 10
2335.959538238266
 20
662.4920180692452
 30
-0.0000000000000284
 10
2335.923107209196
 20
662.4917516171449
 30
-0.0000000000000284
 10
2335.885546257328
 20
662.4915829543024
 30
-0.0000000000000284
 10
2335.862718582896
 20
662.4915611983194
 30
-0.0000000000000284
 10
2335.849129627463
 20
662.4915511099316
 30
-0.0000000000000284
  0
LINE
  5
3025
330
1A
100
AcDbEntity
  8
0
100
AcDbLine
 10
2350.103978533454
 20
664.9915511099315
 30
-0.0000000000000284
 11
2335.349129627463
 21
664.9915511099315
 31
-0.0000000000000284
  0
LINE
  5
3026
330
1A
100
AcDbEntity
  8
0
100
AcDbLine
 10
2335.349129627463
 20
663.6915511099316
 30
-0.0000000000000284
 11
2350.207158890779
 21
663.6915511099316
 31
-0.0000000000000284
  0
SPLINE
  5
3027
330
1A
100
AcDbEntity
  8
0
100
AcDbSpline
210
0.0
220
0.0
230
1.0
 70
     8
 71
     3
 72
    28
 73
    24
 74
     0
 42
0.0000000001
 43
0.0000000001
 40
0.0008183403735265
 40
0.0008183403735265
 40
0.0008183403735265
 40
0.0008183403735265
 40
0.0481005417746158
 40
0.1247290904876707
 40
0.2363163975919032
 40
0.3491514710542693
 40
0.4604072662119444
 40
0.5721726373157093
 40
0.6207694947600172
 40
0.6682106996664251
 40
0.7139758056933128
 40
0.7579586888749642
 40
0.7711096682353498
 40
0.7866226747805419
 40
0.8044342198827605
 40
0.8243025946680589
 40
0.8459964624551933
 40
0.8693197205851422
 40
0.8926813040335716
 40
0.917334499711697
 40
0.9433241794966281
 40
0.9707876286572341
 40
1.0
 40
1.0
 40
1.0
 40
1.0
 10
2350.190386689753
 20
666.2896058571407
 30
-0.0000000000000284
 10
2349.942108739941
 20
666.3010145735113
 30
-0.0000000000000284
 10
2349.387233993427
 20
666.3267123037797
 30
-0.0000000000000284
 10
2348.232307184256
 20
666.3879965714586
 30
-0.0000000000000284
 10
2346.799695518093
 20
666.4743264794473
 30
-0.0000000000000284
 10
2345.188093464692
 20
666.5886620891433
 30
-0.0000000000000284
 10
2343.581270182974
 20
666.7223371081209
 30
-0.0000000000000284
 10
2342.282470452782
 20
666.8484745617468
 30
-0.0000000000000284
 10
2341.290106612113
 20
666.955472174868
 30
-0.0000000000000284
 10
2340.613360894193
 20
667.0325902534052
 30
-0.0000000000000284
 10
2339.959034723704
 20
667.1105676097747
 30
-0.0000000000000284
 10
2339.468460062843
 20
667.1707382762117
 30
-0.0000000000000284
 10
2339.122129837601
 20
667.2133486439575
 30
-0.0000000000000284
 10
2338.900559920469
 20
667.2405559168043
 30
-0.0000000000000284
 10
2338.646938253741
 20
667.271472219422
 30
-0.0000000000000284
 10
2338.36377708601
 20
667.3054271800508
 30
-0.0000000000000284
 10
2338.05420367533
 20
667.3413923541684
 30
-0.0000000000000284
 10
2337.727696835839
 20
667.3772874673281
 30
-0.0000000000000284
 10
2337.38687073828
 20
667.4115632919181
 30
-0.0000000000000284
 10
2337.032287047402
 20
667.4426227704612
 30
-0.0000000000000284
 10
2336.659877893389
 20
667.4685121946638
 30
-0.0000000000000284
 10
2336.255572549177
 20
667.487561396889
 30
-0.0000000000000284
 10
2336.003469779666
 20
667.4902034398908
 30
-0.0000000000000284
 10
2335.849129627463
 20
667.4915511099316
 30
-0.0000000000000284
  0
SPLINE
  5
3028
330
1A
100
AcDbEntity
  8
0
100
AcDbSpline
210
0.0
220
0.0
230
1.0
 70
     8
 71
     3
 72
    33
 73
    29
 74
     0
 42
0.0000000001
 43
0.0000000001
 40
0.0
 40
0.0
 40
0.0
 40
0.0
 40
0.0279777261683172
 40
0.0540382637095771
 40
0.078420907226653
 40
0.1011378526403634
 40
0.1220266202477904
 40
0.1405120517447314
 40
0.1566998993747625
 40
0.1708004987105414
 40
0.1847847691806917
 40
0.2355579093269096
 40
0.2871280831909458
 40
0.3494423454392493
 40
0.4124655953706398
 40
0.4748924710267777
 40
0.5423315098194869
 40
0.6103884648878501
 40
0.6780573721522419
 40
0.7443995018178592
 40
0.8085902631237008
 40
0.8495982157842929
 40
0.8889088881416952
 40
0.9262363810960637
 40
0.9471929339587397
 40
0.9674901244638633
 40
0.989074643084395
 40
1.0
 40
1.0
 40
1.0
 40
1.0
 10
2335.849129627463
 20
666.1915511099316
 30
-0.0000000000000284
 10
2335.995926963161
 20
666.1901900396924
 30
-0.0000000000000284
 10
2336.234610249666
 20
666.187558019352
 30
-0.0000000000000284
 10
2336.61545645855
 20
666.1687943915056
 30
-0.0000000000000284
 10
2336.961839133389
 20
666.1440049827322
 30
-0.0000000000000284
 10
2337.285307324838
 20
666.1152470930171
 30
-0.0000000000000284
 10
2337.579897782799
 20
666.0854863790393
 30
-0.0000000000000284
 10
2337.843397598493
 20
666.0567412956273
 30
-0.0000000000000284
 10
2338.074546109995
 20
666.0303140304879
 30
-0.0000000000000284
 10
2338.284287142141
 20
666.0056290272746
 30
-0.0000000000000284
 10
2338.657771441095
 20
665.9608079477968
 30
-0.0000000000000284
 10
2339.208487470019
 20
665.8927883825442
 30
-0.0000000000000284
 10
2339.98811287282
 20
665.7973839015428
 30
-0.0000000000000284
 10
2340.826236844175
 20
665.6989714694812
 30
-0.0000000000000284
 10
2341.716555639979
 20
665.6011810620484
 30
-0.0000000000000284
 10
2342.631954060253
 20
665.508092691607
 30
-0.0000000000000284
 10
2343.571999534918
 20
665.4203396452717
 30
-0.0000000000000284
 10
2344.537644328807
 20
665.3381502658592
 30
-0.0000000000000284
 10
2345.498668216679
 20
665.263697866138
 30
-0.0000000000000284
 10
2346.441779903115
 20
665.1971811453748
 30
-0.0000000000000284
 10
2347.258385156395
 20
665.1446641596842
 30
-0.0000000000000284
 10
2347.946462605401
 20
665.1035931124904
 30
-0.0000000000000284
 10
2348.506858590333
 20
665.0720231444865
 30
-0.0000000000000284
 10
2348.97145606221
 20
665.0472677707949
 30
-0.0000000000000284
 10
2349.346435113213
 20
665.0281154869901
 30
-0.0000000000000284
 10
2349.643855364203
 20
665.0133953719668
 30
-0.0000000000000284
 10
2349.901916756536
 20
665.0009517881526
 30
-0.0000000000000284
 10
2350.04671550137
 20
664.9942584670455
 30
-0.0000000000000284
 10
2350.103981623755
 20
664.9916148113036
 30
-0.0000000000000284
  0
LINE
  5
3029
330
1A
100
AcDbEntity
  8
0
100
AcDbLine
 10
2335.349129627463
 20
666.1915511099316
 30
-0.0000000000000284
 11
2335.849129627463
 21
666.1915511099316
 31
-0.0000000000000284
  0
LINE
  5
302A
330
1A
100
AcDbEntity
  8
0
100
AcDbLine
 10
2335.849129627463
 20
667.4915511099316
 30
-0.0000000000000284
 11
2335.349129627463
 21
667.4915511099316
 31
-0.0000000000000284
  0
SPLINE
  5
302B
330
1A
100
AcDbEntity
  8
0
100
AcDbSpline
210
0.0
220
0.0
230
1.0
 70
     8
 71
     3
 72
    42
 73
    38
 74
     0
 42
0.0000000001
 43
0.0000000001
 40
0.3027492805108221
 40
0.3027492805108221
 40
0.3027492805108221
 40
0.3027492805108221
 40
0.3189648054231164
 40
0.3385961350061732
 40
0.3569460928864852
 40
0.3740756103691273
 40
0.3900415470633792
 40
0.4048968686521831
 40
0.4186908157322014
 40
0.4314914720376394
 40
0.4441051144419955
 40
0.4569039226943511
 40
0.4698689350842672
 40
0.4829810805340412
 40
0.4962213229523022
 40
0.5331366959572405
 40
0.5704819725688676
 40
0.6139402650341436
 40
0.6578974623613988
 40
0.7016174114688787
 40
0.7449162906831406
 40
0.7884667489496851
 40
0.812103415880186
 40
0.8350915507781239
 40
0.8572182368366283
 40
0.8784919965264002
 40
0.8853469208572402
 40
0.8933329926415909
 40
0.902352472751127
 40
0.9123105055194827
 40
0.9231193064172812
 40
0.9347100872732871
 40
0.9463203239494122
 40
0.9585973008890855
 40
0.971577538460002
 40
0.9853325242799593
 40
1.0
 40
1.0
 40
1.0
 40
1.0
 10
2356.349129627462
 20
667.1777267925169
 30
-0.0000000000000284
 10
2356.188561679353
 20
667.1849551543041
 30
-0.0000000000000284
 10
2355.833626700182
 20
667.2014805432061
 30
-0.0000000000000284
 10
2355.297091452428
 20
667.2283459964017
 30
-0.0000000000000284
 10
2354.751617389132
 20
667.2577681568888
 30
-0.0000000000000284
 10
2354.242528724005
 20
667.287134585609
 30
-0.0000000000000284
 10
2353.768123766827
 20
667.316216287955
 30
-0.0000000000000284
 10
2353.326816104479
 20
667.3448054330492
 30
-0.0000000000000284
 10
2352.916908171389
 20
667.3727289422518
 30
-0.0000000000000284
 10
2352.529254648914
 20
667.4003738205885
 30
-0.0000000000000284
 10
2352.151525976927
 20
667.428495519249
 30
-0.0000000000000284
 10
2351.772265117604
 20
667.4579543406553
 30
-0.0000000000000284
 10
2351.388179680297
 20
667.4890792317082
 30
-0.0000000000000284
 10
2350.999844642037
 20
667.5219086617476
 30
-0.0000000000000284
 10
2350.375149818253
 20
667.5769998949377
 30
-0.0000000000000284
 10
2349.511726415866
 20
667.6593293722353
 30
-0.0000000000000284
 10
2348.351469725133
 20
667.783408764818
 30
-0.0000000000000284
 10
2347.123697346088
 20
667.9317040635839
 30
-0.0000000000000284
 10
2345.835919586146
 20
668.1087992037459
 30
-0.0000000000000284
 10
2344.55316436529
 20
668.309318834969
 30
-0.0000000000000284
 10
2343.278671056173
 20
668.5349574472295
 30
-0.0000000000000284
 10
2342.204596570679
 20
668.7492793933367
 30
-0.0000000000000284
 10
2341.331125020256
 20
668.9390387771791
 30
-0.0000000000000284
 10
2340.666792694109
 20
669.0909786622369
 30
-0.0000000000000284
 10
2340.026608141988
 20
669.2433063816854
 30
-0.0000000000000284
 10
2339.542597555127
 20
669.3611010183865
 30
-0.0000000000000284
 10
2339.194750061865
 20
669.4456449601005
 30
-0.0000000000000284
 10
2338.964871874331
 20
669.5012530187559
 30
-0.0000000000000284
 10
2338.704943574444
 20
669.5634525261757
 30
-0.0000000000000284
 10
2338.417475682022
 20
669.630791689731
 30
-0.0000000000000284
 10
2338.1046026554
 20
669.7013521635828
 30
-0.0000000000000284
 10
2337.774764195755
 20
669.7712116120503
 30
-0.0000000000000284
 10
2337.429513122647
 20
669.8375647983332
 30
-0.0000000000000284
 10
2337.068487971569
 20
669.8975140851187
 30
-0.0000000000000284
 10
2336.686887062161
 20
669.9473423598304
 30
-0.0000000000000284
 10
2336.269991015536
 20
669.9839152280024
 30
-0.0000000000000284
 10
2336.009033543683
 20
669.9889803326794
 30
-0.0000000000000284
 10
2335.849129627463
 20
669.9915511099316
 30
-0.0000000000000284
  0
SPLINE
  5
302C
330
1A
100
AcDbEntity
  8
0
100
AcDbSpline
210
0.0
220
0.0
230
1.0
 70
     8
 71
     3
 72
    33
 73
    29
 74
     0
 42
0.0000000001
 43
0.0000000001
 40
0.0
 40
0.0
 40
0.0
 40
0.0
 40
0.0270059365606202
 40
0.052307914960535
 40
0.0761696787260862
 40
0.0985840229087206
 40
0.1193300221868696
 40
0.1377740623459128
 40
0.1539765863758963
 40
0.1680592063281708
 40
0.1819964164704549
 40
0.2326564644525189
 40
0.2840689676154264
 40
0.346014015015808
 40
0.4086784665393019
 40
0.4707808768821061
 40
0.5376270600466821
 40
0.6050858006480599
 40
0.672256074693757
 40
0.7382121622766778
 40
0.8020661991085288
 40
0.8429036086153793
 40
0.8821029459036592
 40
0.9193909913832985
 40
0.9403625526886646
 40
0.960552973887191
 40
0.9815823561013344
 40
1.0
 40
1.0
 40
1.0
 40
1.0
 10
2335.849129627463
 20
668.6915511099316
 30
-0.0000000000000284
 10
2335.99341717396
 20
668.6889846579354
 30
-0.0000000000000284
 10
2336.228800571746
 20
668.6840024784028
 30
-0.0000000000000284
 10
2336.604463605175
 20
668.6482739660248
 30
-0.0000000000000284
 10
2336.947225377259
 20
668.6007400301414
 30
-0.0000000000000284
 10
2337.26852156525
 20
668.5452360862577
 30
-0.0000000000000284
 10
2337.562061097065
 20
668.487405669136
 30
-0.0000000000000284
 10
2337.825262477924
 20
668.4312771886245
 30
-0.0000000000000284
 10
2338.056257216706
 20
668.379541780532
 30
-0.0000000000000284
 10
2338.265575196953
 20
668.3311970444383
 30
-0.0000000000000284
 10
2338.637582836814
 20
668.2434457766774
 30
-0.0000000000000284
 10
2339.185115316
 20
668.1099798095458
 30
-0.0000000000000284
 10
2339.959399612713
 20
667.9220043528869
 30
-0.0000000000000284
 10
2340.791996622814
 20
667.7270756685682
 30
-0.0000000000000284
 10
2341.677868318614
 20
667.532195868139
 30
-0.0000000000000284
 10
2342.589885127513
 20
667.345819100168
 30
-0.0000000000000284
 10
2343.527604871089
 20
667.1694464974648
 30
-0.0000000000000284
 10
2344.492246997325
 20
667.003700514979
 30
-0.0000000000000284
 10
2345.454963664636
 20
666.852939004681
 30
-0.0000000000000284
 10
2346.402299329741
 20
666.7177864747848
 30
-0.0000000000000284
 10
2347.224381958261
 20
666.6108156615141
 30
-0.0000000000000284
 10
2347.918322389171
 20
666.5270143710119
 30
-0.0000000000000284
 10
2348.484688781601
 20
666.4624774548713
 30
-0.0000000000000284
 10
2348.955171010633
 20
666.4117867480301
 30
-0.0000000000000284
 10
2349.334780123252
 20
666.3726046217528
 30
-0.0000000000000284
 10
2349.633770936428
 20
666.3426859754222
 30
-0.0000000000000284
 10
2349.928154428987
 20
666.3140691726446
 30
-0.0000000000000284
 10
2350.1052931561
 20
666.2975358313579
 30
-0.0000000000000284
 10
2350.203286558285
 20
666.2884089946258
 30
-0.0000000000000284
  0
LINE
  5
302D
330
1A
100
AcDbEntity
  8
0
100
AcDbLine
 10
2335.349129627463
 20
668.6915511099316
 30
-0.0000000000000284
 11
2335.849129627463
 21
668.6915511099316
 31
-0.0000000000000284
  0
LINE
  5
302E
330
1A
100
AcDbEntity
  8
0
100
AcDbLine
 10
2335.849129627463
 20
669.9915511099316
 30
-0.0000000000000284
 11
2335.349129627463
 21
669.9915511099316
 31
-0.0000000000000284
  0
LINE
  5
302F
330
1A
100
AcDbEntity
  8
0
100
AcDbLine
 10
2540.266437225769
 20
667.3384454793713
 30
-0.0000000000000284
 11
2485.827833481119
 21
667.3384454793717
 31
-0.0000000000000284
  0
LINE
  5
3030
330
1A
100
AcDbEntity
  8
0
100
AcDbLine
 10
2479.332981276822
 20
667.3384454793717
 30
-0.0000000000000284
 11
2366.34912962746
 21
667.3384454793724
 31
-0.0000000000000284
  0
LINE
  5
3031
330
1A
100
AcDbEntity
  8
0
100
AcDbLine
 10
2361.34912962746
 20
667.3384454793724
 30
-0.0000000000000284
 11
2356.34912962746
 21
667.3384454793726
 31
-0.0000000000000284
  0
LINE
  5
3032
330
1A
100
AcDbEntity
  8
0
100
AcDbLine
 10
2540.266437225767
 20
661.3384454793727
 30
-0.0000000000000284
 11
2488.897315772309
 21
661.3384454793727
 31
-0.0000000000000284
  0
LINE
  5
3033
330
1A
100
AcDbEntity
  8
0
100
AcDbLine
 10
2482.402463568014
 20
661.3384454793727
 30
-0.0000000000000284
 11
2366.34912962746
 21
661.3384454793727
 31
-0.0000000000000284
  0
LINE
  5
3034
330
1A
100
AcDbEntity
  8
0
100
AcDbLine
 10
2361.34912962746
 20
661.3384454793727
 30
-0.0000000000000284
 11
2356.34912962746
 21
661.3384454793727
 31
-0.0000000000000284
  0
LINE
  5
3035
330
1A
100
AcDbEntity
  8
0
100
AcDbLine
 10
2356.34912962746
 20
661.3384454793727
 30
-0.0000000000000284
 11
2356.34912962746
 21
667.3384454793736
 31
-0.0000000000000284
  0
LINE
  5
3036
330
1A
100
AcDbEntity
  8
0
100
AcDbLine
 10
2356.34912962746
 20
667.3384454793736
 30
-0.0000000000000284
 11
2361.34912962746
 21
667.3384454793736
 31
-0.0000000000000284
  0
LINE
  5
3037
330
1A
100
AcDbEntity
  8
0
100
AcDbLine
 10
2361.34912962746
 20
667.3384454793736
 30
-0.0000000000000284
 11
2361.34912962746
 21
667.8384454793736
 31
-0.0000000000000284
  0
LINE
  5
3038
330
1A
100
AcDbEntity
  8
0
100
AcDbLine
 10
2361.34912962746
 20
667.8384454793736
 30
-0.0000000000000284
 11
2366.34912962746
 21
667.8384454793736
 31
-0.0000000000000284
  0
LINE
  5
3039
330
1A
100
AcDbEntity
  8
0
100
AcDbLine
 10
2366.34912962746
 20
667.8384454793736
 30
-0.0000000000000284
 11
2366.34912962746
 21
660.8384454793736
 31
-0.0000000000000284
  0
LINE
  5
303A
330
1A
100
AcDbEntity
  8
0
100
AcDbLine
 10
2366.34912962746
 20
660.8384454793736
 30
-0.0000000000000284
 11
2361.34912962746
 21
660.8384454793736
 31
-0.0000000000000284
  0
LINE
  5
303B
330
1A
100
AcDbEntity
  8
0
100
AcDbLine
 10
2361.34912962746
 20
660.8384454793736
 30
-0.0000000000000284
 11
2361.34912962746
 21
661.3384454793727
 31
-0.0000000000000284
  0
LINE
  5
303C
330
1A
100
AcDbEntity
  8
0
100
AcDbLine
 10
2540.266437225765
 20
667.338445479372
 30
-0.0000000000000284
 11
2540.266437225765
 21
661.3384454793719
 31
-0.0000000000000284
  0
DIMENSION
  5
31AA
330
1A
100
AcDbEntity
  8
0
100
AcDbDimension
  2
*D15
 10
2548.266437225769
 20
88.72035842355968
 30
0.0
 11
2567.766437225773
 21
99.97035842355968
 31
0.0
 70
    32
 71
     5
 42
39.00000000000728
  3
AD-STANDARD
100
AcDbAlignedDimension
 13
2587.266437225776
 23
136.642843485992
 33
-0.0000000000000284
 14
2548.266437225769
 24
167.142843485992
 34
-0.0000000000000284
100
AcDbRotatedDimension
  0
LINE
  5
32ED
330
1A
100
AcDbEntity
  8
0
100
AcDbLine
 10
2576.266437225776
 20
152.642843485992
 30
-0.0000000000000284
 11
2598.266437225776
 21
152.642843485992
 31
-0.0000000000000284
  0
ARC
  5
32EE
330
1A
100
AcDbEntity
  8
0
100
AcDbCircle
 10
2575.266437225776
 20
133.642843485992
 30
-0.0000000000000284
 40
2.0
100
AcDbArc
 50
180.0
 51
270.0
  0
LINE
  5
32EF
330
1A
100
AcDbEntity
  8
0
100
AcDbLine
 10
2576.266437225776
 20
152.642843485992
 30
-0.0000000000000284
 11
2573.266437225776
 21
148.642843485992
 31
-0.0000000000000284
  0
LINE
  5
32F0
330
1A
100
AcDbEntity
  8
0
100
AcDbLine
 10
2559.255080753477
 20
148.642843485992
 30
-0.0000000000000284
 11
2550.677053071476
 21
144.642843485992
 31
-0.0000000000000284
  0
LINE
  5
32F1
330
1A
100
AcDbEntity
  8
0
100
AcDbLine
 10
2573.266437225776
 20
136.642843485992
 30
-0.0000000000000284
 11
2573.266437225776
 21
133.642843485992
 31
-0.0000000000000284
  0
LINE
  5
32F2
330
1A
100
AcDbEntity
  8
0
100
AcDbLine
 10
2573.266437225776
 20
133.642843485992
 30
-0.0000000000000284
 11
2601.266437225776
 21
133.642843485992
 31
-0.0000000000000284
  0
ARC
  5
32F3
330
1A
100
AcDbEntity
  8
0
100
AcDbCircle
 10
2599.266437225776
 20
133.642843485992
 30
-0.0000000000000284
 40
2.0
100
AcDbArc
 50
270.0
 51
0.0
  0
LINE
  5
32F4
330
1A
100
AcDbEntity
  8
0
100
AcDbLine
 10
2601.266437225776
 20
148.642843485992
 30
-0.0000000000000284
 11
2598.266437225776
 21
152.642843485992
 31
-0.0000000000000284
  0
LINE
  5
32F5
330
1A
100
AcDbEntity
  8
0
100
AcDbLine
 10
2623.855821380076
 20
144.642843485992
 30
-0.0000000000000284
 11
2615.277793698076
 21
148.642843485992
 31
-0.0000000000000284
  0
LINE
  5
32F6
330
1A
100
AcDbEntity
  8
0
100
AcDbLine
 10
2550.677053071476
 20
144.642843485992
 30
-0.0000000000000284
 11
2549.266437225776
 21
136.642843485992
 31
-0.0000000000000284
  0
LINE
  5
32F7
330
1A
100
AcDbEntity
  8
0
100
AcDbLine
 10
2625.266437225776
 20
136.642843485992
 30
-0.0000000000000284
 11
2623.855821380076
 21
144.642843485992
 31
-0.0000000000000284
  0
LINE
  5
32F8
330
1A
100
AcDbEntity
  8
0
100
AcDbLine
 10
2601.266437225776
 20
133.642843485992
 30
-0.0000000000000284
 11
2601.266437225776
 21
136.642843485992
 31
-0.0000000000000284
  0
LINE
  5
32F9
330
1A
100
AcDbEntity
  8
0
100
AcDbLine
 10
2550.677053071476
 20
144.642843485992
 30
-0.0000000000000284
 11
2550.990697168977
 21
144.642843485992
 31
-0.0000000000000284
  0
LINE
  5
32FA
330
1A
100
AcDbEntity
  8
0
100
AcDbLine
 10
2623.855821380076
 20
144.642843485992
 30
-0.0000000000000284
 11
2623.542177282575
 21
144.642843485992
 31
-0.0000000000000284
  0
LINE
  5
32FB
330
1A
100
AcDbEntity
  8
0
100
AcDbLine
 10
2556.832817352776
 20
136.642843485992
 30
-0.0000000000000284
 11
2549.656329529375
 21
136.642843485992
 31
-0.0000000000000284
  0
LINE
  5
32FC
330
1A
100
AcDbEntity
  8
0
100
AcDbLine
 10
2624.876544922177
 20
136.642843485992
 30
-0.0000000000000284
 11
2625.266437225776
 21
136.642843485992
 31
-0.0000000000000284
  0
LINE
  5
32FD
330
1A
100
AcDbEntity
  8
0
100
AcDbLine
 10
2610.021541739377
 20
136.642843485992
 30
-0.0000000000000284
 11
2617.700057098776
 21
136.642843485992
 31
-0.0000000000000284
  0
ARC
  5
32FE
330
1A
100
AcDbEntity
  8
0
100
AcDbCircle
 10
2573.740930108176
 20
120.393375043692
 30
-0.0000000000000284
 40
25.7781087156
100
AcDbArc
 50
70.16945679557551
 51
109.8305432044245
  0
SPLINE
  5
32FF
330
1A
100
AcDbEntity
  8
0
100
AcDbSpline
210
0.0
220
0.0
230
1.0
 70
     8
 71
     3
 72
    14
 73
    10
 74
     0
 42
0.0000000001
 43
0.0000000001
 40
0.0
 40
0.0
 40
0.0
 40
0.0
 40
0.25
 40
0.25
 40
0.5
 40
0.5
 40
0.75
 40
0.75
 40
1.0
 40
1.0
 40
1.0
 40
1.0
 10
2558.235251840049
 20
144.6428434860415
 30
-0.0000000000000284
 10
2558.27608049101
 20
145.1110296552384
 30
-0.0000000000000284
 10
2558.158801411827
 20
145.4917531698878
 30
-0.0000000000000284
 10
2557.579771976965
 20
146.022816948196
 30
-0.0000000000000284
 10
2557.109916882396
 20
146.1670250425775
 30
-0.0000000000000284
 10
2555.855427736674
 20
146.1671636320737
 30
-0.0000000000000284
 10
2555.05274566387
 20
146.0235645310969
 30
-0.0000000000000284
 10
2553.195406731527
 20
145.4921259079757
 30
-0.0000000000000284
 10
2552.14848888422
 20
145.1110824404595
 30
-0.0000000000000284
 10
2550.990697168944
 20
144.6428434860415
 30
-0.0000000000000284
  0
LINE
  5
3300
330
1A
100
AcDbEntity
  8
0
100
AcDbLine
 10
2624.876544922177
 20
136.642843485992
 30
-0.0000000000000284
 11
2617.700057098776
 21
136.642843485992
 31
-0.0000000000000284
  0
SPLINE
  5
3301
330
1A
100
AcDbEntity
  8
0
100
AcDbSpline
210
0.0
220
0.0
230
1.0
 70
     8
 71
     3
 72
    14
 73
    10
 74
     0
 42
0.0000000001
 43
0.0000000001
 40
0.0
 40
0.0
 40
0.0
 40
0.0
 40
0.2500000000000001
 40
0.2500000000000001
 40
0.5000000000000001
 40
0.5000000000000001
 40
0.75
 40
0.75
 40
1.0
 40
1.0
 40
1.0
 40
1.0
 10
2623.542177282604
 20
144.6428434860415
 30
-0.0000000000000284
 10
2622.384516086778
 20
145.1110296552384
 30
-0.0000000000000284
 10
2621.338366871413
 20
145.4917531698878
 30
-0.0000000000000284
 10
2619.483144225101
 20
146.022816948196
 30
-0.0000000000000284
 10
2618.678552691438
 20
146.1670250425775
 30
-0.0000000000000284
 10
2617.423738492321
 20
146.1671636320737
 30
-0.0000000000000284
 10
2616.954342364433
 20
146.0235645310969
 30
-0.0000000000000284
 10
2616.374055552443
 20
145.4921259079757
 30
-0.0000000000000284
 10
2616.25678935735
 20
145.1110824404595
 30
-0.0000000000000284
 10
2616.297622611498
 20
144.6428434860415
 30
-0.0000000000000284
  0
ARC
  5
3302
330
1A
100
AcDbEntity
  8
0
100
AcDbCircle
 10
2600.791944343376
 20
120.393959126492
 30
-0.0000000000000284
 40
25.7775592697
100
AcDbArc
 50
70.16901638125332
 51
109.8309836187467
  0
ARC
  5
3303
330
1A
100
AcDbEntity
  8
0
100
AcDbCircle
 10
-481.770075008124
 20
-46.64565729510775
 30
-0.0000000000000284
 40
3097.2197332299
100
AcDbArc
 50
3.392654614607776
 51
3.540918781507271
  0
LINE
  5
3304
330
1A
100
AcDbEntity
  8
0
100
AcDbLine
 10
2610.021541739377
 20
136.642843485992
 30
-0.0000000000000284
 11
2592.695967505876
 21
136.642843485992
 31
-0.0000000000000284
  0
ARC
  5
3305
330
1A
100
AcDbEntity
  8
0
100
AcDbCircle
 10
-5107.371201487925
 20
1484.333774103293
 30
-0.0000000000000284
 40
7781.792472617199
100
AcDbArc
 50
350.0269374223036
 51
350.0867380565079
  0
LINE
  5
3306
330
1A
100
AcDbEntity
  8
0
100
AcDbLine
 10
2549.656329529375
 20
136.642843485992
 30
-0.0000000000000284
 11
2550.990697168977
 21
144.642843485992
 31
-0.0000000000000284
  0
ARC
  5
3307
330
1A
100
AcDbEntity
  8
0
100
AcDbCircle
 10
-5019.047360249425
 20
-1134.221460285707
 30
-0.0000000000000284
 40
7748.8495111633
100
AcDbArc
 50
9.439544516696495
 51
9.499514528300293
  0
LINE
  5
3308
330
1A
100
AcDbEntity
  8
0
100
AcDbLine
 10
2564.511332712176
 20
136.642843485992
 30
-0.0000000000000284
 11
2564.995979037976
 21
144.642843485992
 31
-0.0000000000000284
  0
LINE
  5
3309
330
1A
100
AcDbEntity
  8
0
100
AcDbLine
 10
2617.700057098776
 20
136.642843485992
 30
-0.0000000000000284
 11
2616.297622611476
 21
144.642843485992
 31
-0.0000000000000284
  0
LINE
  5
330A
330
1A
100
AcDbEntity
  8
0
100
AcDbLine
 10
2616.297622611476
 20
144.642843485992
 30
-0.0000000000000284
 11
2609.536895413576
 21
144.642843485992
 31
-0.0000000000000284
  0
LINE
  5
330B
330
1A
100
AcDbEntity
  8
0
100
AcDbLine
 10
2592.046993273175
 20
144.642843485992
 30
-0.0000000000000284
 11
2582.485881178377
 21
144.642843485992
 31
-0.0000000000000284
  0
LINE
  5
330C
330
1A
100
AcDbEntity
  8
0
100
AcDbLine
 10
2564.995979037976
 20
144.642843485992
 30
-0.0000000000000284
 11
2558.235251840076
 21
144.642843485992
 31
-0.0000000000000284
  0
ARC
  5
330D
330
1A
100
AcDbEntity
  8
0
100
AcDbCircle
 10
-518.3547735875245
 20
392.1622310825922
 30
-0.0000000000000284
 40
3110.7038774987
100
AcDbArc
 50
355.2883022971907
 51
355.4361376759071
  0
LINE
  5
330E
330
1A
100
AcDbEntity
  8
0
100
AcDbLine
 10
2581.836906945676
 20
136.642843485992
 30
-0.0000000000000284
 11
2592.695967505876
 21
136.642843485992
 31
-0.0000000000000284
  0
LINE
  5
330F
330
1A
100
AcDbEntity
  8
0
100
AcDbLine
 10
2581.836906945676
 20
136.642843485992
 30
-0.0000000000000284
 11
2564.511332712176
 21
136.642843485992
 31
-0.0000000000000284
  0
LINE
  5
3310
330
1A
100
AcDbEntity
  8
0
100
AcDbLine
 10
2556.832817352776
 20
136.642843485992
 30
-0.0000000000000284
 11
2564.511332712176
 21
136.642843485992
 31
-0.0000000000000284
  0
LINE
  5
3311
330
1A
100
AcDbEntity
  8
0
100
AcDbLine
 10
2549.266437225776
 20
136.642843485992
 30
-0.0000000000000284
 11
2549.656329529375
 21
136.642843485992
 31
-0.0000000000000284
  0
LINE
  5
3312
330
1A
100
AcDbEntity
  8
0
100
AcDbLine
 10
2559.255080753477
 20
148.642843485992
 30
-0.0000000000000284
 11
2615.277793698076
 21
148.642843485992
 31
-0.0000000000000284
  0
LINE
  5
3313
330
1A
100
AcDbEntity
  8
0
100
AcDbLine
 10
2575.266437225776
 20
131.642843485992
 30
-0.0000000000000284
 11
2599.266437225776
 21
131.642843485992
 31
-0.0000000000000284
  0
LINE
  5
3314
330
1A
100
AcDbEntity
  8
0
100
AcDbLine
 10
2592.695967505876
 20
136.642843485992
 30
-0.0000000000000284
 11
2592.046993273175
 21
144.642843485992
 31
-0.0000000000000284
  0
LINE
  5
3315
330
1A
100
AcDbEntity
  8
0
100
AcDbLine
 10
2592.266437225783
 20
152.642843485992
 30
-0.0000000000000284
 11
2592.266437225783
 21
153.1428434859918
 31
-0.0000000000000284
  0
LINE
  5
3316
330
1A
100
AcDbEntity
  8
0
100
AcDbLine
 10
2582.266437225783
 20
153.1428434859918
 30
-0.0000000000000284
 11
2582.266437225783
 21
152.642843485992
 31
-0.0000000000000284
  0
LINE
  5
3317
330
1A
100
AcDbEntity
  8
0
100
AcDbLine
 10
2583.186437225784
 20
152.642843485992
 30
-0.0000000000000284
 11
2583.186437225784
 21
153.1428434859918
 31
-0.0000000000000284
  0
LINE
  5
3318
330
1A
100
AcDbEntity
  8
0
100
AcDbLine
 10
2591.346437225783
 20
152.642843485992
 30
-0.0000000000000284
 11
2591.346437225783
 21
153.1428434859918
 31
-0.0000000000000284
  0
LINE
  5
3319
330
1A
100
AcDbEntity
  8
0
100
AcDbLine
 10
2578.766437225776
 20
159.142843485992
 30
-0.0000000000000284
 11
2595.766437225776
 21
159.142843485992
 31
-0.0000000000000284
  0
ARC
  5
331A
330
1A
100
AcDbEntity
  8
0
100
AcDbCircle
 10
2587.266437225776
 20
142.9020328645476
 30
-0.0000000000000284
 40
16.24081062144507
100
AcDbArc
 50
72.41204622603634
 51
107.5879537739636
  0
ARC
  5
331B
330
1A
100
AcDbEntity
  8
0
100
AcDbCircle
 10
2578.766437225776
 20
150.263248796715
 30
-0.0000000000000284
 40
8.879594689277416
100
AcDbArc
 50
66.13507458388106
 51
90.0
  0
LINE
  5
331C
330
1A
100
AcDbEntity
  8
0
100
AcDbLine
 10
2577.451482649552
 20
158.3836541074372
 30
-0.0000000000000284
 11
2577.451482649552
 21
153.9020328645476
 31
-0.0000000000000284
  0
LINE
  5
331D
330
1A
100
AcDbEntity
  8
0
100
AcDbLine
 10
2578.766437225776
 20
159.142843485992
 30
-0.0000000000000284
 11
2577.451482649552
 21
158.3836541074372
 31
-0.0000000000000284
  0
LINE
  5
331E
330
1A
100
AcDbEntity
  8
0
100
AcDbLine
 10
2582.358959937664
 20
158.3836541074372
 30
-0.0000000000000284
 11
2582.358959937664
 21
153.9020328645476
 31
-0.0000000000000284
  0
LINE
  5
331F
330
1A
100
AcDbEntity
  8
0
100
AcDbLine
 10
2592.173914513888
 20
158.3836541074372
 30
-0.0000000000000284
 11
2592.173914513888
 21
153.9020328645476
 31
-0.0000000000000284
  0
LINE
  5
3320
330
1A
100
AcDbEntity
  8
0
100
AcDbLine
 10
2597.081391801999
 20
158.3836541074372
 30
-0.0000000000000284
 11
2597.081391801999
 21
153.9020328645476
 31
-0.0000000000000284
  0
LINE
  5
3321
330
1A
100
AcDbEntity
  8
0
100
AcDbLine
 10
2592.173914513888
 20
158.3836541074372
 30
-0.0000000000000284
 11
2592.173914513888
 21
153.9020328645476
 31
-0.0000000000000284
  0
ARC
  5
3322
330
1A
100
AcDbEntity
  8
0
100
AcDbCircle
 10
2595.766437225776
 20
150.263248796715
 30
-0.0000000000000284
 40
8.879594689277416
100
AcDbArc
 50
90.0
 51
113.8649254161189
  0
LINE
  5
3323
330
1A
100
AcDbEntity
  8
0
100
AcDbLine
 10
2595.766437225776
 20
159.142843485992
 30
-0.0000000000000284
 11
2597.081391801999
 21
158.3836541074372
 31
-0.0000000000000284
  0
LINE
  5
3324
330
1A
100
AcDbEntity
  8
0
100
AcDbLine
 10
2578.766437225776
 20
153.142843485992
 30
-0.0000000000000284
 11
2595.766437225776
 21
153.142843485992
 31
-0.0000000000000284
  0
ARC
  5
3325
330
1A
100
AcDbEntity
  8
0
100
AcDbCircle
 10
2587.266437225776
 20
169.3836541074372
 30
-0.0000000000000284
 40
16.24081062144507
100
AcDbArc
 50
252.4120462260364
 51
287.5879537739637
  0
ARC
  5
3326
330
1A
100
AcDbEntity
  8
0
100
AcDbCircle
 10
2578.766437225776
 20
162.0224381752698
 30
-0.0000000000000284
 40
8.879594689277416
100
AcDbArc
 50
270.0
 51
293.8649254161189
  0
LINE
  5
3327
330
1A
100
AcDbEntity
  8
0
100
AcDbLine
 10
2578.766437225776
 20
153.142843485992
 30
-0.0000000000000284
 11
2577.451482649552
 21
153.9020328645476
 31
-0.0000000000000284
  0
ARC
  5
3328
330
1A
100
AcDbEntity
  8
0
100
AcDbCircle
 10
2595.766437225776
 20
162.0224381752698
 30
-0.0000000000000284
 40
8.879594689277416
100
AcDbArc
 50
246.1350745838811
 51
270.0
  0
LINE
  5
3329
330
1A
100
AcDbEntity
  8
0
100
AcDbLine
 10
2595.766437225776
 20
153.142843485992
 30
-0.0000000000000284
 11
2597.081391801999
 21
153.9020328645476
 31
-0.0000000000000284
  0
LINE
  5
332A
330
1A
100
AcDbEntity
  8
0
100
AcDbLine
 10
3182.266437225776
 20
152.642843485992
 30
-0.0000000000000284
 11
3204.266437225776
 21
152.642843485992
 31
-0.0000000000000284
  0
ARC
  5
332B
330
1A
100
AcDbEntity
  8
0
100
AcDbCircle
 10
3181.266437225776
 20
133.642843485992
 30
-0.0000000000000284
 40
2.0
100
AcDbArc
 50
180.0
 51
270.0
  0
LINE
  5
332C
330
1A
100
AcDbEntity
  8
0
100
AcDbLine
 10
3182.266437225776
 20
152.642843485992
 30
-0.0000000000000284
 11
3179.266437225776
 21
148.642843485992
 31
-0.0000000000000284
  0
LINE
  5
332D
330
1A
100
AcDbEntity
  8
0
100
AcDbLine
 10
3165.255080753476
 20
148.642843485992
 30
-0.0000000000000284
 11
3156.677053071476
 21
144.642843485992
 31
-0.0000000000000284
  0
LINE
  5
332E
330
1A
100
AcDbEntity
  8
0
100
AcDbLine
 10
3179.266437225776
 20
136.642843485992
 30
-0.0000000000000284
 11
3179.266437225776
 21
133.642843485992
 31
-0.0000000000000284
  0
LINE
  5
332F
330
1A
100
AcDbEntity
  8
0
100
AcDbLine
 10
3179.266437225776
 20
133.642843485992
 30
-0.0000000000000284
 11
3207.266437225776
 21
133.642843485992
 31
-0.0000000000000284
  0
ARC
  5
3330
330
1A
100
AcDbEntity
  8
0
100
AcDbCircle
 10
3205.266437225776
 20
133.642843485992
 30
-0.0000000000000284
 40
2.0
100
AcDbArc
 50
270.0
 51
0.0
  0
LINE
  5
3331
330
1A
100
AcDbEntity
  8
0
100
AcDbLine
 10
3207.266437225776
 20
148.642843485992
 30
-0.0000000000000284
 11
3204.266437225776
 21
152.642843485992
 31
-0.0000000000000284
  0
LINE
  5
3332
330
1A
100
AcDbEntity
  8
0
100
AcDbLine
 10
3229.855821380076
 20
144.642843485992
 30
-0.0000000000000284
 11
3221.277793698076
 21
148.642843485992
 31
-0.0000000000000284
  0
LINE
  5
3333
330
1A
100
AcDbEntity
  8
0
100
AcDbLine
 10
3156.677053071476
 20
144.642843485992
 30
-0.0000000000000284
 11
3155.266437225776
 21
136.642843485992
 31
-0.0000000000000284
  0
LINE
  5
3334
330
1A
100
AcDbEntity
  8
0
100
AcDbLine
 10
3231.266437225776
 20
136.642843485992
 30
-0.0000000000000284
 11
3229.855821380076
 21
144.642843485992
 31
-0.0000000000000284
  0
LINE
  5
3335
330
1A
100
AcDbEntity
  8
0
100
AcDbLine
 10
3207.266437225776
 20
133.642843485992
 30
-0.0000000000000284
 11
3207.266437225776
 21
136.642843485992
 31
-0.0000000000000284
  0
LINE
  5
3336
330
1A
100
AcDbEntity
  8
0
100
AcDbLine
 10
3156.677053071476
 20
144.642843485992
 30
-0.0000000000000284
 11
3156.990697168977
 21
144.642843485992
 31
-0.0000000000000284
  0
LINE
  5
3337
330
1A
100
AcDbEntity
  8
0
100
AcDbLine
 10
3229.855821380076
 20
144.642843485992
 30
-0.0000000000000284
 11
3229.542177282575
 21
144.642843485992
 31
-0.0000000000000284
  0
LINE
  5
3338
330
1A
100
AcDbEntity
  8
0
100
AcDbLine
 10
3162.832817352776
 20
136.642843485992
 30
-0.0000000000000284
 11
3155.656329529376
 21
136.642843485992
 31
-0.0000000000000284
  0
LINE
  5
3339
330
1A
100
AcDbEntity
  8
0
100
AcDbLine
 10
3230.876544922177
 20
136.642843485992
 30
-0.0000000000000284
 11
3231.266437225776
 21
136.642843485992
 31
-0.0000000000000284
  0
LINE
  5
333A
330
1A
100
AcDbEntity
  8
0
100
AcDbLine
 10
3216.021541739376
 20
136.642843485992
 30
-0.0000000000000284
 11
3223.700057098776
 21
136.642843485992
 31
-0.0000000000000284
  0
ARC
  5
333B
330
1A
100
AcDbEntity
  8
0
100
AcDbCircle
 10
3179.740930108176
 20
120.393375043692
 30
-0.0000000000000284
 40
25.7781087156
100
AcDbArc
 50
70.16945679557551
 51
109.8305432044245
  0
SPLINE
  5
333C
330
1A
100
AcDbEntity
  8
0
100
AcDbSpline
210
0.0
220
0.0
230
1.0
 70
     8
 71
     3
 72
    14
 73
    10
 74
     0
 42
0.0000000001
 43
0.0000000001
 40
0.0
 40
0.0
 40
0.0
 40
0.0
 40
0.25
 40
0.25
 40
0.5
 40
0.5
 40
0.75
 40
0.75
 40
1.0
 40
1.0
 40
1.0
 40
1.0
 10
3164.235251840049
 20
144.6428434860415
 30
-0.0000000000000284
 10
3164.27608049101
 20
145.1110296552384
 30
-0.0000000000000284
 10
3164.158801411827
 20
145.4917531698878
 30
-0.0000000000000284
 10
3163.579771976964
 20
146.022816948196
 30
-0.0000000000000284
 10
3163.109916882396
 20
146.1670250425775
 30
-0.0000000000000284
 10
3161.855427736674
 20
146.1671636320737
 30
-0.0000000000000284
 10
3161.052745663869
 20
146.0235645310969
 30
-0.0000000000000284
 10
3159.195406731527
 20
145.4921259079757
 30
-0.0000000000000284
 10
3158.14848888422
 20
145.1110824404595
 30
-0.0000000000000284
 10
3156.990697168945
 20
144.6428434860415
 30
-0.0000000000000284
  0
LINE
  5
333D
330
1A
100
AcDbEntity
  8
0
100
AcDbLine
 10
3230.876544922177
 20
136.642843485992
 30
-0.0000000000000284
 11
3223.700057098776
 21
136.642843485992
 31
-0.0000000000000284
  0
SPLINE
  5
333E
330
1A
100
AcDbEntity
  8
0
100
AcDbSpline
210
0.0
220
0.0
230
1.0
 70
     8
 71
     3
 72
    14
 73
    10
 74
     0
 42
0.0000000001
 43
0.0000000001
 40
0.0
 40
0.0
 40
0.0
 40
0.0
 40
0.2500000000000001
 40
0.2500000000000001
 40
0.5000000000000001
 40
0.5000000000000001
 40
0.75
 40
0.75
 40
1.0
 40
1.0
 40
1.0
 40
1.0
 10
3229.542177282604
 20
144.6428434860415
 30
-0.0000000000000284
 10
3228.384516086778
 20
145.1110296552384
 30
-0.0000000000000284
 10
3227.338366871413
 20
145.4917531698878
 30
-0.0000000000000284
 10
3225.483144225101
 20
146.022816948196
 30
-0.0000000000000284
 10
3224.678552691438
 20
146.1670250425775
 30
-0.0000000000000284
 10
3223.423738492321
 20
146.1671636320737
 30
-0.0000000000000284
 10
3222.954342364433
 20
146.0235645310969
 30
-0.0000000000000284
 10
3222.374055552443
 20
145.4921259079757
 30
-0.0000000000000284
 10
3222.25678935735
 20
145.1110824404595
 30
-0.0000000000000284
 10
3222.297622611498
 20
144.6428434860415
 30
-0.0000000000000284
  0
ARC
  5
333F
330
1A
100
AcDbEntity
  8
0
100
AcDbCircle
 10
3206.791944343376
 20
120.393959126492
 30
-0.0000000000000284
 40
25.7775592697
100
AcDbArc
 50
70.16901638125332
 51
109.8309836187467
  0
ARC
  5
3340
330
1A
100
AcDbEntity
  8
0
100
AcDbCircle
 10
124.229924991876
 20
-46.64565729510775
 30
-0.0000000000000284
 40
3097.2197332299
100
AcDbArc
 50
3.392654614607776
 51
3.540918781507271
  0
LINE
  5
3341
330
1A
100
AcDbEntity
  8
0
100
AcDbLine
 10
3216.021541739376
 20
136.642843485992
 30
-0.0000000000000284
 11
3198.695967505876
 21
136.642843485992
 31
-0.0000000000000284
  0
ARC
  5
3342
330
1A
100
AcDbEntity
  8
0
100
AcDbCircle
 10
-4501.371201487924
 20
1484.333774103293
 30
-0.0000000000000284
 40
7781.792472617199
100
AcDbArc
 50
350.0269374223036
 51
350.0867380565079
  0
LINE
  5
3343
330
1A
100
AcDbEntity
  8
0
100
AcDbLine
 10
3155.656329529376
 20
136.642843485992
 30
-0.0000000000000284
 11
3156.990697168977
 21
144.642843485992
 31
-0.0000000000000284
  0
ARC
  5
3344
330
1A
100
AcDbEntity
  8
0
100
AcDbCircle
 10
-4413.047360249424
 20
-1134.221460285707
 30
-0.0000000000000284
 40
7748.8495111633
100
AcDbArc
 50
9.439544516696495
 51
9.499514528300293
  0
LINE
  5
3345
330
1A
100
AcDbEntity
  8
0
100
AcDbLine
 10
3170.511332712175
 20
136.642843485992
 30
-0.0000000000000284
 11
3170.995979037976
 21
144.642843485992
 31
-0.0000000000000284
  0
LINE
  5
3346
330
1A
100
AcDbEntity
  8
0
100
AcDbLine
 10
3223.700057098776
 20
136.642843485992
 30
-0.0000000000000284
 11
3222.297622611476
 21
144.642843485992
 31
-0.0000000000000284
  0
LINE
  5
3347
330
1A
100
AcDbEntity
  8
0
100
AcDbLine
 10
3222.297622611476
 20
144.642843485992
 30
-0.0000000000000284
 11
3215.536895413577
 21
144.642843485992
 31
-0.0000000000000284
  0
LINE
  5
3348
330
1A
100
AcDbEntity
  8
0
100
AcDbLine
 10
3198.046993273175
 20
144.642843485992
 30
-0.0000000000000284
 11
3188.485881178377
 21
144.642843485992
 31
-0.0000000000000284
  0
LINE
  5
3349
330
1A
100
AcDbEntity
  8
0
100
AcDbLine
 10
3170.995979037976
 20
144.642843485992
 30
-0.0000000000000284
 11
3164.235251840076
 21
144.642843485992
 31
-0.0000000000000284
  0
ARC
  5
334A
330
1A
100
AcDbEntity
  8
0
100
AcDbCircle
 10
87.6452264124755
 20
392.1622310825922
 30
-0.0000000000000284
 40
3110.7038774987
100
AcDbArc
 50
355.2883022971907
 51
355.4361376759071
  0
LINE
  5
334B
330
1A
100
AcDbEntity
  8
0
100
AcDbLine
 10
3187.836906945676
 20
136.642843485992
 30
-0.0000000000000284
 11
3198.695967505876
 21
136.642843485992
 31
-0.0000000000000284
  0
LINE
  5
334C
330
1A
100
AcDbEntity
  8
0
100
AcDbLine
 10
3187.836906945676
 20
136.642843485992
 30
-0.0000000000000284
 11
3170.511332712175
 21
136.642843485992
 31
-0.0000000000000284
  0
LINE
  5
334D
330
1A
100
AcDbEntity
  8
0
100
AcDbLine
 10
3162.832817352776
 20
136.642843485992
 30
-0.0000000000000284
 11
3170.511332712175
 21
136.642843485992
 31
-0.0000000000000284
  0
LINE
  5
334E
330
1A
100
AcDbEntity
  8
0
100
AcDbLine
 10
3155.266437225776
 20
136.642843485992
 30
-0.0000000000000284
 11
3155.656329529376
 21
136.642843485992
 31
-0.0000000000000284
  0
LINE
  5
334F
330
1A
100
AcDbEntity
  8
0
100
AcDbLine
 10
3165.255080753476
 20
148.642843485992
 30
-0.0000000000000284
 11
3221.277793698076
 21
148.642843485992
 31
-0.0000000000000284
  0
LINE
  5
3350
330
1A
100
AcDbEntity
  8
0
100
AcDbLine
 10
3181.266437225776
 20
131.642843485992
 30
-0.0000000000000284
 11
3205.266437225776
 21
131.642843485992
 31
-0.0000000000000284
  0
LINE
  5
3351
330
1A
100
AcDbEntity
  8
0
100
AcDbLine
 10
3198.695967505876
 20
136.642843485992
 30
-0.0000000000000284
 11
3198.046993273175
 21
144.642843485992
 31
-0.0000000000000284
  0
LINE
  5
3352
330
1A
100
AcDbEntity
  8
0
100
AcDbLine
 10
3198.266437225783
 20
152.642843485992
 30
-0.0000000000000284
 11
3198.266437225783
 21
153.1428434859918
 31
-0.0000000000000284
  0
LINE
  5
3353
330
1A
100
AcDbEntity
  8
0
100
AcDbLine
 10
3188.266437225783
 20
153.1428434859918
 30
-0.0000000000000284
 11
3188.266437225783
 21
152.642843485992
 31
-0.0000000000000284
  0
LINE
  5
3354
330
1A
100
AcDbEntity
  8
0
100
AcDbLine
 10
3189.186437225783
 20
152.642843485992
 30
-0.0000000000000284
 11
3189.186437225783
 21
153.1428434859918
 31
-0.0000000000000284
  0
LINE
  5
3355
330
1A
100
AcDbEntity
  8
0
100
AcDbLine
 10
3197.346437225784
 20
152.642843485992
 30
-0.0000000000000284
 11
3197.346437225784
 21
153.1428434859918
 31
-0.0000000000000284
  0
LINE
  5
3356
330
1A
100
AcDbEntity
  8
0
100
AcDbLine
 10
3184.766437225769
 20
159.142843485992
 30
-0.0000000000000284
 11
3201.766437225769
 21
159.142843485992
 31
-0.0000000000000284
  0
ARC
  5
3357
330
1A
100
AcDbEntity
  8
0
100
AcDbCircle
 10
3193.266437225769
 20
142.9020328645476
 30
-0.0000000000000284
 40
16.24081062144507
100
AcDbArc
 50
72.41204622603634
 51
107.5879537739636
  0
ARC
  5
3358
330
1A
100
AcDbEntity
  8
0
100
AcDbCircle
 10
3184.766437225769
 20
150.263248796715
 30
-0.0000000000000284
 40
8.879594689277416
100
AcDbArc
 50
66.13507458388106
 51
90.0
  0
LINE
  5
3359
330
1A
100
AcDbEntity
  8
0
100
AcDbLine
 10
3183.451482649545
 20
158.3836541074372
 30
-0.0000000000000284
 11
3183.451482649545
 21
153.9020328645476
 31
-0.0000000000000284
  0
LINE
  5
335A
330
1A
100
AcDbEntity
  8
0
100
AcDbLine
 10
3184.766437225769
 20
159.142843485992
 30
-0.0000000000000284
 11
3183.451482649545
 21
158.3836541074372
 31
-0.0000000000000284
  0
LINE
  5
335B
330
1A
100
AcDbEntity
  8
0
100
AcDbLine
 10
3188.358959937657
 20
158.3836541074372
 30
-0.0000000000000284
 11
3188.358959937657
 21
153.9020328645476
 31
-0.0000000000000284
  0
LINE
  5
335C
330
1A
100
AcDbEntity
  8
0
100
AcDbLine
 10
3198.173914513881
 20
158.3836541074372
 30
-0.0000000000000284
 11
3198.173914513881
 21
153.9020328645476
 31
-0.0000000000000284
  0
LINE
  5
335D
330
1A
100
AcDbEntity
  8
0
100
AcDbLine
 10
3203.081391801992
 20
158.3836541074372
 30
-0.0000000000000284
 11
3203.081391801992
 21
153.9020328645476
 31
-0.0000000000000284
  0
LINE
  5
335E
330
1A
100
AcDbEntity
  8
0
100
AcDbLine
 10
3198.173914513881
 20
158.3836541074372
 30
-0.0000000000000284
 11
3198.173914513881
 21
153.9020328645476
 31
-0.0000000000000284
  0
ARC
  5
335F
330
1A
100
AcDbEntity
  8
0
100
AcDbCircle
 10
3201.766437225769
 20
150.263248796715
 30
-0.0000000000000284
 40
8.879594689277416
100
AcDbArc
 50
90.0
 51
113.8649254161189
  0
LINE
  5
3360
330
1A
100
AcDbEntity
  8
0
100
AcDbLine
 10
3201.766437225769
 20
159.142843485992
 30
-0.0000000000000284
 11
3203.081391801992
 21
158.3836541074372
 31
-0.0000000000000284
  0
LINE
  5
3361
330
1A
100
AcDbEntity
  8
0
100
AcDbLine
 10
3184.766437225769
 20
153.142843485992
 30
-0.0000000000000284
 11
3201.766437225769
 21
153.142843485992
 31
-0.0000000000000284
  0
ARC
  5
3362
330
1A
100
AcDbEntity
  8
0
100
AcDbCircle
 10
3193.266437225769
 20
169.3836541074372
 30
-0.0000000000000284
 40
16.24081062144507
100
AcDbArc
 50
252.4120462260364
 51
287.5879537739637
  0
ARC
  5
3363
330
1A
100
AcDbEntity
  8
0
100
AcDbCircle
 10
3184.766437225769
 20
162.0224381752698
 30
-0.0000000000000284
 40
8.879594689277416
100
AcDbArc
 50
270.0
 51
293.8649254161189
  0
LINE
  5
3364
330
1A
100
AcDbEntity
  8
0
100
AcDbLine
 10
3184.766437225769
 20
153.142843485992
 30
-0.0000000000000284
 11
3183.451482649545
 21
153.9020328645476
 31
-0.0000000000000284
  0
ARC
  5
3365
330
1A
100
AcDbEntity
  8
0
100
AcDbCircle
 10
3201.766437225769
 20
162.0224381752698
 30
-0.0000000000000284
 40
8.879594689277416
100
AcDbArc
 50
246.1350745838811
 51
270.0
  0
LINE
  5
3366
330
1A
100
AcDbEntity
  8
0
100
AcDbLine
 10
3201.766437225769
 20
153.142843485992
 30
-0.0000000000000284
 11
3203.081391801992
 21
153.9020328645476
 31
-0.0000000000000284
  0
LINE
  5
3367
330
1A
100
AcDbEntity
  8
0
100
AcDbLine
 10
3537.465686793877
 20
152.6428434859901
 30
-0.0000000000000284
 11
3559.465686793877
 21
152.6428434859901
 31
-0.0000000000000284
  0
ARC
  5
3368
330
1A
100
AcDbEntity
  8
0
100
AcDbCircle
 10
3536.465686793877
 20
133.6428434859902
 30
-0.0000000000000284
 40
2.0
100
AcDbArc
 50
180.0
 51
270.0
  0
LINE
  5
3369
330
1A
100
AcDbEntity
  8
0
100
AcDbLine
 10
3537.465686793877
 20
152.6428434859901
 30
-0.0000000000000284
 11
3534.465686793877
 21
148.6428434859901
 31
-0.0000000000000284
  0
LINE
  5
336A
330
1A
100
AcDbEntity
  8
0
100
AcDbLine
 10
3520.454330321577
 20
148.6428434859901
 30
-0.0000000000000284
 11
3511.876302639576
 21
144.6428434859901
 31
-0.0000000000000284
  0
LINE
  5
336B
330
1A
100
AcDbEntity
  8
0
100
AcDbLine
 10
3534.465686793877
 20
136.6428434859901
 30
-0.0000000000000284
 11
3534.465686793877
 21
133.6428434859902
 31
-0.0000000000000284
  0
LINE
  5
336C
330
1A
100
AcDbEntity
  8
0
100
AcDbLine
 10
3534.465686793877
 20
133.6428434859902
 30
-0.0000000000000284
 11
3562.465686793877
 21
133.6428434859902
 31
-0.0000000000000284
  0
ARC
  5
336D
330
1A
100
AcDbEntity
  8
0
100
AcDbCircle
 10
3560.465686793877
 20
133.6428434859902
 30
-0.0000000000000284
 40
2.0
100
AcDbArc
 50
270.0
 51
0.0
  0
LINE
  5
336E
330
1A
100
AcDbEntity
  8
0
100
AcDbLine
 10
3562.465686793877
 20
148.6428434859901
 30
-0.0000000000000284
 11
3559.465686793877
 21
152.6428434859901
 31
-0.0000000000000284
  0
LINE
  5
336F
330
1A
100
AcDbEntity
  8
0
100
AcDbLine
 10
3585.055070948177
 20
144.6428434859901
 30
-0.0000000000000284
 11
3576.477043266176
 21
148.6428434859901
 31
-0.0000000000000284
  0
LINE
  5
3370
330
1A
100
AcDbEntity
  8
0
100
AcDbLine
 10
3511.876302639576
 20
144.6428434859901
 30
-0.0000000000000284
 11
3510.465686793877
 21
136.6428434859901
 31
-0.0000000000000284
  0
LINE
  5
3371
330
1A
100
AcDbEntity
  8
0
100
AcDbLine
 10
3586.465686793877
 20
136.6428434859901
 30
-0.0000000000000284
 11
3585.055070948177
 21
144.6428434859901
 31
-0.0000000000000284
  0
LINE
  5
3372
330
1A
100
AcDbEntity
  8
0
100
AcDbLine
 10
3562.465686793877
 20
133.6428434859902
 30
-0.0000000000000284
 11
3562.465686793877
 21
136.6428434859901
 31
-0.0000000000000284
  0
LINE
  5
3373
330
1A
100
AcDbEntity
  8
0
100
AcDbLine
 10
3511.876302639576
 20
144.6428434859901
 30
-0.0000000000000284
 11
3512.189946737077
 21
144.6428434859901
 31
-0.0000000000000284
  0
LINE
  5
3374
330
1A
100
AcDbEntity
  8
0
100
AcDbLine
 10
3585.055070948177
 20
144.6428434859901
 30
-0.0000000000000284
 11
3584.741426850675
 21
144.6428434859901
 31
-0.0000000000000284
  0
LINE
  5
3375
330
1A
100
AcDbEntity
  8
0
100
AcDbLine
 10
3518.032066920877
 20
136.6428434859901
 30
-0.0000000000000284
 11
3510.855579097476
 21
136.6428434859901
 31
-0.0000000000000284
  0
LINE
  5
3376
330
1A
100
AcDbEntity
  8
0
100
AcDbLine
 10
3586.075794490277
 20
136.6428434859901
 30
-0.0000000000000284
 11
3586.465686793877
 21
136.6428434859901
 31
-0.0000000000000284
  0
LINE
  5
3377
330
1A
100
AcDbEntity
  8
0
100
AcDbLine
 10
3571.220791307477
 20
136.6428434859901
 30
-0.0000000000000284
 11
3578.899306666877
 21
136.6428434859901
 31
-0.0000000000000284
  0
ARC
  5
3378
330
1A
100
AcDbEntity
  8
0
100
AcDbCircle
 10
3534.940179676277
 20
120.3933750436902
 30
-0.0000000000000284
 40
25.7781087156
100
AcDbArc
 50
70.16945679557551
 51
109.8305432044245
  0
SPLINE
  5
3379
330
1A
100
AcDbEntity
  8
0
100
AcDbSpline
210
0.0
220
0.0
230
1.0
 70
     8
 71
     3
 72
    14
 73
    10
 74
     0
 42
0.0000000001
 43
0.0000000001
 40
0.0
 40
0.0
 40
0.0
 40
0.0
 40
0.25
 40
0.25
 40
0.5
 40
0.5
 40
0.75
 40
0.75
 40
1.0
 40
1.0
 40
1.0
 40
1.0
 10
3519.434501408149
 20
144.6428434860397
 30
-0.0000000000000284
 10
3519.475330059111
 20
145.1110296552366
 30
-0.0000000000000284
 10
3519.358050979928
 20
145.491753169886
 30
-0.0000000000000284
 10
3518.779021545066
 20
146.0228169481942
 30
-0.0000000000000284
 10
3518.309166450496
 20
146.1670250425757
 30
-0.0000000000000284
 10
3517.054677304775
 20
146.1671636320719
 30
-0.0000000000000284
 10
3516.25199523197
 20
146.0235645310951
 30
-0.0000000000000284
 10
3514.394656299627
 20
145.4921259079739
 30
-0.0000000000000284
 10
3513.347738452321
 20
145.1110824404577
 30
-0.0000000000000284
 10
3512.189946737045
 20
144.6428434860397
 30
-0.0000000000000284
  0
LINE
  5
337A
330
1A
100
AcDbEntity
  8
0
100
AcDbLine
 10
3586.075794490277
 20
136.6428434859901
 30
-0.0000000000000284
 11
3578.899306666877
 21
136.6428434859901
 31
-0.0000000000000284
  0
SPLINE
  5
337B
330
1A
100
AcDbEntity
  8
0
100
AcDbSpline
210
0.0
220
0.0
230
1.0
 70
     8
 71
     3
 72
    14
 73
    10
 74
     0
 42
0.0000000001
 43
0.0000000001
 40
0.0
 40
0.0
 40
0.0
 40
0.0
 40
0.2500000000000001
 40
0.2500000000000001
 40
0.5000000000000001
 40
0.5000000000000001
 40
0.75
 40
0.75
 40
1.0
 40
1.0
 40
1.0
 40
1.0
 10
3584.741426850705
 20
144.6428434860397
 30
-0.0000000000000284
 10
3583.583765654879
 20
145.1110296552366
 30
-0.0000000000000284
 10
3582.537616439514
 20
145.491753169886
 30
-0.0000000000000284
 10
3580.682393793202
 20
146.0228169481942
 30
-0.0000000000000284
 10
3579.877802259539
 20
146.1670250425757
 30
-0.0000000000000284
 10
3578.622988060422
 20
146.1671636320719
 30
-0.0000000000000284
 10
3578.153591932534
 20
146.0235645310951
 30
-0.0000000000000284
 10
3577.573305120544
 20
145.4921259079739
 30
-0.0000000000000284
 10
3577.456038925451
 20
145.1110824404577
 30
-0.0000000000000284
 10
3577.496872179599
 20
144.6428434860397
 30
-0.0000000000000284
  0
ARC
  5
337C
330
1A
100
AcDbEntity
  8
0
100
AcDbCircle
 10
3561.991193911477
 20
120.3939591264902
 30
-0.0000000000000284
 40
25.7775592697
100
AcDbArc
 50
70.16901638125332
 51
109.8309836187467
  0
ARC
  5
337D
330
1A
100
AcDbEntity
  8
0
100
AcDbCircle
 10
479.4291745599767
 20
-46.64565729510957
 30
-0.0000000000000284
 40
3097.2197332299
100
AcDbArc
 50
3.392654614607776
 51
3.540918781507271
  0
LINE
  5
337E
330
1A
100
AcDbEntity
  8
0
100
AcDbLine
 10
3571.220791307477
 20
136.6428434859901
 30
-0.0000000000000284
 11
3553.895217073977
 21
136.6428434859901
 31
-0.0000000000000284
  0
ARC
  5
337F
330
1A
100
AcDbEntity
  8
0
100
AcDbCircle
 10
-4146.171951919824
 20
1484.333774103291
 30
-0.0000000000000284
 40
7781.792472617199
100
AcDbArc
 50
350.0269374223036
 51
350.0867380565079
  0
LINE
  5
3380
330
1A
100
AcDbEntity
  8
0
100
AcDbLine
 10
3510.855579097476
 20
136.6428434859901
 30
-0.0000000000000284
 11
3512.189946737077
 21
144.6428434859901
 31
-0.0000000000000284
  0
ARC
  5
3381
330
1A
100
AcDbEntity
  8
0
100
AcDbCircle
 10
-4057.848110681324
 20
-1134.221460285709
 30
-0.0000000000000284
 40
7748.8495111633
100
AcDbArc
 50
9.439544516696495
 51
9.499514528300293
  0
LINE
  5
3382
330
1A
100
AcDbEntity
  8
0
100
AcDbLine
 10
3525.710582280277
 20
136.6428434859901
 30
-0.0000000000000284
 11
3526.195228606076
 21
144.6428434859901
 31
-0.0000000000000284
  0
LINE
  5
3383
330
1A
100
AcDbEntity
  8
0
100
AcDbLine
 10
3578.899306666877
 20
136.6428434859901
 30
-0.0000000000000284
 11
3577.496872179577
 21
144.6428434859901
 31
-0.0000000000000284
  0
LINE
  5
3384
330
1A
100
AcDbEntity
  8
0
100
AcDbLine
 10
3577.496872179577
 20
144.6428434859901
 30
-0.0000000000000284
 11
3570.736144981677
 21
144.6428434859901
 31
-0.0000000000000284
  0
LINE
  5
3385
330
1A
100
AcDbEntity
  8
0
100
AcDbLine
 10
3553.246242841276
 20
144.6428434859901
 30
-0.0000000000000284
 11
3543.685130746478
 21
144.6428434859901
 31
-0.0000000000000284
  0
LINE
  5
3386
330
1A
100
AcDbEntity
  8
0
100
AcDbLine
 10
3526.195228606076
 20
144.6428434859901
 30
-0.0000000000000284
 11
3519.434501408176
 21
144.6428434859901
 31
-0.0000000000000284
  0
ARC
  5
3387
330
1A
100
AcDbEntity
  8
0
100
AcDbCircle
 10
442.8444759805761
 20
392.1622310825904
 30
-0.0000000000000284
 40
3110.7038774987
100
AcDbArc
 50
355.2883022971907
 51
355.4361376759071
  0
LINE
  5
3388
330
1A
100
AcDbEntity
  8
0
100
AcDbLine
 10
3543.036156513777
 20
136.6428434859901
 30
-0.0000000000000284
 11
3553.895217073977
 21
136.6428434859901
 31
-0.0000000000000284
  0
LINE
  5
3389
330
1A
100
AcDbEntity
  8
0
100
AcDbLine
 10
3543.036156513777
 20
136.6428434859901
 30
-0.0000000000000284
 11
3525.710582280277
 21
136.6428434859901
 31
-0.0000000000000284
  0
LINE
  5
338A
330
1A
100
AcDbEntity
  8
0
100
AcDbLine
 10
3518.032066920877
 20
136.6428434859901
 30
-0.0000000000000284
 11
3525.710582280277
 21
136.6428434859901
 31
-0.0000000000000284
  0
LINE
  5
338B
330
1A
100
AcDbEntity
  8
0
100
AcDbLine
 10
3510.465686793877
 20
136.6428434859901
 30
-0.0000000000000284
 11
3510.855579097476
 21
136.6428434859901
 31
-0.0000000000000284
  0
LINE
  5
338C
330
1A
100
AcDbEntity
  8
0
100
AcDbLine
 10
3520.454330321577
 20
148.6428434859901
 30
-0.0000000000000284
 11
3576.477043266176
 21
148.6428434859901
 31
-0.0000000000000284
  0
LINE
  5
338D
330
1A
100
AcDbEntity
  8
0
100
AcDbLine
 10
3536.465686793877
 20
131.6428434859902
 30
-0.0000000000000284
 11
3560.465686793877
 21
131.6428434859902
 31
-0.0000000000000284
  0
LINE
  5
338E
330
1A
100
AcDbEntity
  8
0
100
AcDbLine
 10
3553.895217073977
 20
136.6428434859901
 30
-0.0000000000000284
 11
3553.246242841276
 21
144.6428434859901
 31
-0.0000000000000284
  0
LINE
  5
338F
330
1A
100
AcDbEntity
  8
0
100
AcDbLine
 10
3553.465686793884
 20
152.6428434859901
 30
-0.0000000000000284
 11
3553.465686793884
 21
153.14284348599
 31
-0.0000000000000284
  0
LINE
  5
3390
330
1A
100
AcDbEntity
  8
0
100
AcDbLine
 10
3543.465686793884
 20
153.14284348599
 30
-0.0000000000000284
 11
3543.465686793884
 21
152.6428434859901
 31
-0.0000000000000284
  0
LINE
  5
3391
330
1A
100
AcDbEntity
  8
0
100
AcDbLine
 10
3544.385686793884
 20
152.6428434859901
 30
-0.0000000000000284
 11
3544.385686793884
 21
153.14284348599
 31
-0.0000000000000284
  0
LINE
  5
3392
330
1A
100
AcDbEntity
  8
0
100
AcDbLine
 10
3552.545686793884
 20
152.6428434859901
 30
-0.0000000000000284
 11
3552.545686793884
 21
153.14284348599
 31
-0.0000000000000284
  0
ARC
  5
3393
330
1A
100
AcDbEntity
  8
0
100
AcDbCircle
 10
3552.715686793876
 20
146.8673368475868
 30
-0.0000000000000284
 40
12.27550663840318
100
AcDbArc
 50
69.74384199955526
 51
110.2561580004447
  0
LINE
  5
3394
330
1A
100
AcDbEntity
  8
0
100
AcDbLine
 10
3556.965686793877
 20
159.1428434859901
 30
-0.0000000000000284
 11
3539.965686793877
 21
159.1428434859901
 31
-0.0000000000000284
  0
ARC
  5
3395
330
1A
100
AcDbEntity
  8
0
100
AcDbCircle
 10
3544.215686793876
 20
146.8673368475868
 30
-0.0000000000000284
 40
12.27550663840318
100
AcDbArc
 50
69.74384199955526
 51
110.2561580004447
  0
LINE
  5
3396
330
1A
100
AcDbEntity
  8
0
100
AcDbLine
 10
3539.965686793877
 20
159.1428434859901
 30
-0.0000000000000284
 11
3539.965686793877
 21
153.1428434859901
 31
-0.0000000000000284
  0
LINE
  5
3397
330
1A
100
AcDbEntity
  8
0
100
AcDbLine
 10
3548.465686793877
 20
158.3836541074363
 30
-0.0000000000000284
 11
3548.465686793877
 21
153.902032864544
 31
-0.0000000000000284
  0
LINE
  5
3398
330
1A
100
AcDbEntity
  8
0
100
AcDbLine
 10
3556.965686793877
 20
159.1428434859901
 30
-0.0000000000000284
 11
3556.965686793877
 21
153.1428434859901
 31
-0.0000000000000284
  0
ARC
  5
3399
330
1A
100
AcDbEntity
  8
0
100
AcDbCircle
 10
3552.715686793876
 20
165.4183501243935
 30
-0.0000000000000284
 40
12.27550663840318
100
AcDbArc
 50
249.7438419995553
 51
290.2561580004448
  0
LINE
  5
339A
330
1A
100
AcDbEntity
  8
0
100
AcDbLine
 10
3556.965686793877
 20
153.1428434859901
 30
-0.0000000000000284
 11
3539.965686793877
 21
153.1428434859901
 31
-0.0000000000000284
  0
ARC
  5
339B
330
1A
100
AcDbEntity
  8
0
100
AcDbCircle
 10
3544.215686793876
 20
165.4183501243935
 30
-0.0000000000000284
 40
12.27550663840318
100
AcDbArc
 50
249.7438419995553
 51
290.2561580004448
  0
LINE
  5
339C
330
1A
100
AcDbEntity
  8
0
100
AcDbLine
 10
4043.465686793876
 20
152.6428434859901
 30
-0.0000000000000284
 11
4065.465686793877
 21
152.6428434859901
 31
-0.0000000000000284
  0
ARC
  5
339D
330
1A
100
AcDbEntity
  8
0
100
AcDbCircle
 10
4042.465686793876
 20
133.6428434859902
 30
-0.0000000000000284
 40
2.0
100
AcDbArc
 50
180.0
 51
270.0
  0
LINE
  5
339E
330
1A
100
AcDbEntity
  8
0
100
AcDbLine
 10
4043.465686793876
 20
152.6428434859901
 30
-0.0000000000000284
 11
4040.465686793877
 21
148.6428434859901
 31
-0.0000000000000284
  0
LINE
  5
339F
330
1A
100
AcDbEntity
  8
0
100
AcDbLine
 10
4026.454330321576
 20
148.6428434859901
 30
-0.0000000000000284
 11
4017.876302639576
 21
144.6428434859901
 31
-0.0000000000000284
  0
LINE
  5
33A0
330
1A
100
AcDbEntity
  8
0
100
AcDbLine
 10
4040.465686793877
 20
136.6428434859901
 30
-0.0000000000000284
 11
4040.465686793877
 21
133.6428434859902
 31
-0.0000000000000284
  0
LINE
  5
33A1
330
1A
100
AcDbEntity
  8
0
100
AcDbLine
 10
4040.465686793877
 20
133.6428434859902
 30
-0.0000000000000284
 11
4068.465686793876
 21
133.6428434859902
 31
-0.0000000000000284
  0
ARC
  5
33A2
330
1A
100
AcDbEntity
  8
0
100
AcDbCircle
 10
4066.465686793876
 20
133.6428434859902
 30
-0.0000000000000284
 40
2.0
100
AcDbArc
 50
270.0
 51
0.0
  0
LINE
  5
33A3
330
1A
100
AcDbEntity
  8
0
100
AcDbLine
 10
4068.465686793876
 20
148.6428434859901
 30
-0.0000000000000284
 11
4065.465686793877
 21
152.6428434859901
 31
-0.0000000000000284
  0
LINE
  5
33A4
330
1A
100
AcDbEntity
  8
0
100
AcDbLine
 10
4091.055070948176
 20
144.6428434859901
 30
-0.0000000000000284
 11
4082.477043266176
 21
148.6428434859901
 31
-0.0000000000000284
  0
LINE
  5
33A5
330
1A
100
AcDbEntity
  8
0
100
AcDbLine
 10
4017.876302639576
 20
144.6428434859901
 30
-0.0000000000000284
 11
4016.465686793877
 21
136.6428434859901
 31
-0.0000000000000284
  0
LINE
  5
33A6
330
1A
100
AcDbEntity
  8
0
100
AcDbLine
 10
4092.465686793876
 20
136.6428434859901
 30
-0.0000000000000284
 11
4091.055070948176
 21
144.6428434859901
 31
-0.0000000000000284
  0
LINE
  5
33A7
330
1A
100
AcDbEntity
  8
0
100
AcDbLine
 10
4068.465686793876
 20
133.6428434859902
 30
-0.0000000000000284
 11
4068.465686793876
 21
136.6428434859901
 31
-0.0000000000000284
  0
LINE
  5
33A8
330
1A
100
AcDbEntity
  8
0
100
AcDbLine
 10
4017.876302639576
 20
144.6428434859901
 30
-0.0000000000000284
 11
4018.189946737077
 21
144.6428434859901
 31
-0.0000000000000284
  0
LINE
  5
33A9
330
1A
100
AcDbEntity
  8
0
100
AcDbLine
 10
4091.055070948176
 20
144.6428434859901
 30
-0.0000000000000284
 11
4090.741426850676
 21
144.6428434859901
 31
-0.0000000000000284
  0
LINE
  5
33AA
330
1A
100
AcDbEntity
  8
0
100
AcDbLine
 10
4024.032066920876
 20
136.6428434859901
 30
-0.0000000000000284
 11
4016.855579097476
 21
136.6428434859901
 31
-0.0000000000000284
  0
LINE
  5
33AB
330
1A
100
AcDbEntity
  8
0
100
AcDbLine
 10
4092.075794490277
 20
136.6428434859901
 30
-0.0000000000000284
 11
4092.465686793876
 21
136.6428434859901
 31
-0.0000000000000284
  0
LINE
  5
33AC
330
1A
100
AcDbEntity
  8
0
100
AcDbLine
 10
4077.220791307477
 20
136.6428434859901
 30
-0.0000000000000284
 11
4084.899306666875
 21
136.6428434859901
 31
-0.0000000000000284
  0
ARC
  5
33AD
330
1A
100
AcDbEntity
  8
0
100
AcDbCircle
 10
4040.940179676277
 20
120.3933750436902
 30
-0.0000000000000284
 40
25.7781087156
100
AcDbArc
 50
70.16945679557551
 51
109.8305432044245
  0
SPLINE
  5
33AE
330
1A
100
AcDbEntity
  8
0
100
AcDbSpline
210
0.0
220
0.0
230
1.0
 70
     8
 71
     3
 72
    14
 73
    10
 74
     0
 42
0.0000000001
 43
0.0000000001
 40
0.0
 40
0.0
 40
0.0
 40
0.0
 40
0.25
 40
0.25
 40
0.5
 40
0.5
 40
0.75
 40
0.75
 40
1.0
 40
1.0
 40
1.0
 40
1.0
 10
4025.434501408149
 20
144.6428434860397
 30
-0.0000000000000284
 10
4025.47533005911
 20
145.1110296552366
 30
-0.0000000000000284
 10
4025.358050979927
 20
145.491753169886
 30
-0.0000000000000284
 10
4024.779021545064
 20
146.0228169481942
 30
-0.0000000000000284
 10
4024.309166450496
 20
146.1670250425757
 30
-0.0000000000000284
 10
4023.054677304775
 20
146.1671636320719
 30
-0.0000000000000284
 10
4022.25199523197
 20
146.0235645310951
 30
-0.0000000000000284
 10
4020.394656299627
 20
145.4921259079739
 30
-0.0000000000000284
 10
4019.34773845232
 20
145.1110824404577
 30
-0.0000000000000284
 10
4018.189946737044
 20
144.6428434860397
 30
-0.0000000000000284
  0
LINE
  5
33AF
330
1A
100
AcDbEntity
  8
0
100
AcDbLine
 10
4092.075794490277
 20
136.6428434859901
 30
-0.0000000000000284
 11
4084.899306666875
 21
136.6428434859901
 31
-0.0000000000000284
  0
SPLINE
  5
33B0
330
1A
100
AcDbEntity
  8
0
100
AcDbSpline
210
0.0
220
0.0
230
1.0
 70
     8
 71
     3
 72
    14
 73
    10
 74
     0
 42
0.0000000001
 43
0.0000000001
 40
0.0
 40
0.0
 40
0.0
 40
0.0
 40
0.2500000000000001
 40
0.2500000000000001
 40
0.5000000000000001
 40
0.5000000000000001
 40
0.75
 40
0.75
 40
1.0
 40
1.0
 40
1.0
 40
1.0
 10
4090.741426850704
 20
144.6428434860397
 30
-0.0000000000000284
 10
4089.583765654878
 20
145.1110296552366
 30
-0.0000000000000284
 10
4088.537616439514
 20
145.491753169886
 30
-0.0000000000000284
 10
4086.682393793201
 20
146.0228169481942
 30
-0.0000000000000284
 10
4085.877802259538
 20
146.1670250425757
 30
-0.0000000000000284
 10
4084.622988060421
 20
146.1671636320719
 30
-0.0000000000000284
 10
4084.153591932532
 20
146.0235645310951
 30
-0.0000000000000284
 10
4083.573305120544
 20
145.4921259079739
 30
-0.0000000000000284
 10
4083.45603892545
 20
145.1110824404577
 30
-0.0000000000000284
 10
4083.496872179599
 20
144.6428434860397
 30
-0.0000000000000284
  0
ARC
  5
33B1
330
1A
100
AcDbEntity
  8
0
100
AcDbCircle
 10
4067.991193911477
 20
120.3939591264902
 30
-0.0000000000000284
 40
25.7775592697
100
AcDbArc
 50
70.16901638125332
 51
109.8309836187467
  0
ARC
  5
33B2
330
1A
100
AcDbEntity
  8
0
100
AcDbCircle
 10
985.4291745599766
 20
-46.64565729510957
 30
-0.0000000000000284
 40
3097.2197332299
100
AcDbArc
 50
3.392654614607776
 51
3.540918781507271
  0
LINE
  5
33B3
330
1A
100
AcDbEntity
  8
0
100
AcDbLine
 10
4077.220791307477
 20
136.6428434859901
 30
-0.0000000000000284
 11
4059.895217073977
 21
136.6428434859901
 31
-0.0000000000000284
  0
ARC
  5
33B4
330
1A
100
AcDbEntity
  8
0
100
AcDbCircle
 10
-3640.171951919825
 20
1484.333774103291
 30
-0.0000000000000284
 40
7781.792472617199
100
AcDbArc
 50
350.0269374223036
 51
350.0867380565079
  0
LINE
  5
33B5
330
1A
100
AcDbEntity
  8
0
100
AcDbLine
 10
4016.855579097476
 20
136.6428434859901
 30
-0.0000000000000284
 11
4018.189946737077
 21
144.6428434859901
 31
-0.0000000000000284
  0
ARC
  5
33B6
330
1A
100
AcDbEntity
  8
0
100
AcDbCircle
 10
-3551.848110681324
 20
-1134.221460285709
 30
-0.0000000000000284
 40
7748.8495111633
100
AcDbArc
 50
9.439544516696495
 51
9.499514528300293
  0
LINE
  5
33B7
330
1A
100
AcDbEntity
  8
0
100
AcDbLine
 10
4031.710582280275
 20
136.6428434859901
 30
-0.0000000000000284
 11
4032.195228606076
 21
144.6428434859901
 31
-0.0000000000000284
  0
LINE
  5
33B8
330
1A
100
AcDbEntity
  8
0
100
AcDbLine
 10
4084.899306666875
 20
136.6428434859901
 30
-0.0000000000000284
 11
4083.496872179576
 21
144.6428434859901
 31
-0.0000000000000284
  0
LINE
  5
33B9
330
1A
100
AcDbEntity
  8
0
100
AcDbLine
 10
4083.496872179576
 20
144.6428434859901
 30
-0.0000000000000284
 11
4076.736144981677
 21
144.6428434859901
 31
-0.0000000000000284
  0
LINE
  5
33BA
330
1A
100
AcDbEntity
  8
0
100
AcDbLine
 10
4059.246242841275
 20
144.6428434859901
 30
-0.0000000000000284
 11
4049.685130746477
 21
144.6428434859901
 31
-0.0000000000000284
  0
LINE
  5
33BB
330
1A
100
AcDbEntity
  8
0
100
AcDbLine
 10
4032.195228606076
 20
144.6428434859901
 30
-0.0000000000000284
 11
4025.434501408176
 21
144.6428434859901
 31
-0.0000000000000284
  0
ARC
  5
33BC
330
1A
100
AcDbEntity
  8
0
100
AcDbCircle
 10
948.844475980576
 20
392.1622310825904
 30
-0.0000000000000284
 40
3110.7038774987
100
AcDbArc
 50
355.2883022971907
 51
355.4361376759071
  0
LINE
  5
33BD
330
1A
100
AcDbEntity
  8
0
100
AcDbLine
 10
4049.036156513777
 20
136.6428434859901
 30
-0.0000000000000284
 11
4059.895217073977
 21
136.6428434859901
 31
-0.0000000000000284
  0
LINE
  5
33BE
330
1A
100
AcDbEntity
  8
0
100
AcDbLine
 10
4049.036156513777
 20
136.6428434859901
 30
-0.0000000000000284
 11
4031.710582280275
 21
136.6428434859901
 31
-0.0000000000000284
  0
LINE
  5
33BF
330
1A
100
AcDbEntity
  8
0
100
AcDbLine
 10
4024.032066920876
 20
136.6428434859901
 30
-0.0000000000000284
 11
4031.710582280275
 21
136.6428434859901
 31
-0.0000000000000284
  0
LINE
  5
33C0
330
1A
100
AcDbEntity
  8
0
100
AcDbLine
 10
4016.465686793877
 20
136.6428434859901
 30
-0.0000000000000284
 11
4016.855579097476
 21
136.6428434859901
 31
-0.0000000000000284
  0
LINE
  5
33C1
330
1A
100
AcDbEntity
  8
0
100
AcDbLine
 10
4026.454330321576
 20
148.6428434859901
 30
-0.0000000000000284
 11
4082.477043266176
 21
148.6428434859901
 31
-0.0000000000000284
  0
LINE
  5
33C2
330
1A
100
AcDbEntity
  8
0
100
AcDbLine
 10
4042.465686793876
 20
131.6428434859902
 30
-0.0000000000000284
 11
4066.465686793876
 21
131.6428434859902
 31
-0.0000000000000284
  0
LINE
  5
33C3
330
1A
100
AcDbEntity
  8
0
100
AcDbLine
 10
4059.895217073977
 20
136.6428434859901
 30
-0.0000000000000284
 11
4059.246242841275
 21
144.6428434859901
 31
-0.0000000000000284
  0
LINE
  5
33C4
330
1A
100
AcDbEntity
  8
0
100
AcDbLine
 10
4059.465686793884
 20
152.6428434859901
 30
-0.0000000000000284
 11
4059.465686793884
 21
153.14284348599
 31
-0.0000000000000284
  0
LINE
  5
33C5
330
1A
100
AcDbEntity
  8
0
100
AcDbLine
 10
4049.465686793883
 20
153.14284348599
 30
-0.0000000000000284
 11
4049.465686793883
 21
152.6428434859901
 31
-0.0000000000000284
  0
LINE
  5
33C6
330
1A
100
AcDbEntity
  8
0
100
AcDbLine
 10
4050.385686793884
 20
152.6428434859901
 30
-0.0000000000000284
 11
4050.385686793884
 21
153.14284348599
 31
-0.0000000000000284
  0
LINE
  5
33C7
330
1A
100
AcDbEntity
  8
0
100
AcDbLine
 10
4058.545686793883
 20
152.6428434859901
 30
-0.0000000000000284
 11
4058.545686793883
 21
153.14284348599
 31
-0.0000000000000284
  0
ARC
  5
33C8
330
1A
100
AcDbEntity
  8
0
100
AcDbCircle
 10
4058.715686793873
 20
146.8673368475868
 30
-0.0000000000000284
 40
12.27550663840318
100
AcDbArc
 50
69.74384199955526
 51
110.2561580004447
  0
LINE
  5
33C9
330
1A
100
AcDbEntity
  8
0
100
AcDbLine
 10
4062.965686793872
 20
159.1428434859901
 30
-0.0000000000000284
 11
4045.965686793873
 21
159.1428434859901
 31
-0.0000000000000284
  0
ARC
  5
33CA
330
1A
100
AcDbEntity
  8
0
100
AcDbCircle
 10
4050.215686793873
 20
146.8673368475868
 30
-0.0000000000000284
 40
12.27550663840318
100
AcDbArc
 50
69.74384199955526
 51
110.2561580004447
  0
LINE
  5
33CB
330
1A
100
AcDbEntity
  8
0
100
AcDbLine
 10
4045.965686793873
 20
159.1428434859901
 30
-0.0000000000000284
 11
4045.965686793873
 21
153.1428434859901
 31
-0.0000000000000284
  0
LINE
  5
33CC
330
1A
100
AcDbEntity
  8
0
100
AcDbLine
 10
4054.465686793872
 20
158.3836541074363
 30
-0.0000000000000284
 11
4054.465686793872
 21
153.902032864544
 31
-0.0000000000000284
  0
LINE
  5
33CD
330
1A
100
AcDbEntity
  8
0
100
AcDbLine
 10
4062.965686793872
 20
159.1428434859901
 30
-0.0000000000000284
 11
4062.965686793872
 21
153.1428434859901
 31
-0.0000000000000284
  0
ARC
  5
33CE
330
1A
100
AcDbEntity
  8
0
100
AcDbCircle
 10
4058.715686793873
 20
165.4183501243935
 30
-0.0000000000000284
 40
12.27550663840318
100
AcDbArc
 50
249.7438419995553
 51
290.2561580004448
  0
LINE
  5
33CF
330
1A
100
AcDbEntity
  8
0
100
AcDbLine
 10
4062.965686793872
 20
153.1428434859901
 30
-0.0000000000000284
 11
4045.965686793873
 21
153.1428434859901
 31
-0.0000000000000284
  0
ARC
  5
33D0
330
1A
100
AcDbEntity
  8
0
100
AcDbCircle
 10
4050.215686793873
 20
165.4183501243935
 30
-0.0000000000000284
 40
12.27550663840318
100
AcDbArc
 50
249.7438419995553
 51
290.2561580004448
  0
CIRCLE
  5
33D1
330
1A
100
AcDbEntity
  8
0
100
AcDbCircle
 10
3228.266437225773
 20
202.1428434859812
 30
-0.0000000000000284
 40
2.75
  0
LINE
  5
33D2
330
1A
100
AcDbEntity
  8
0
100
AcDbLine
 10
3226.516437225773
 20
202.4928434859815
 30
-0.0000000000000284
 11
3226.516437225772
 21
201.7928434859811
 31
-0.0000000000000284
  0
LINE
  5
33D3
330
1A
100
AcDbEntity
  8
0
100
AcDbLine
 10
3230.016437225773
 20
202.4928434859813
 30
-0.0000000000000284
 11
3230.016437225773
 21
201.7928434859807
 31
-0.0000000000000284
  0
LINE
  5
33D4
330
1A
100
AcDbEntity
  8
0
100
AcDbLine
 10
3227.916437225772
 20
200.3928434859812
 30
-0.0000000000000284
 11
3228.616437225773
 21
200.3928434859808
 31
-0.0000000000000284
  0
LINE
  5
33D5
330
1A
100
AcDbEntity
  8
0
100
AcDbLine
 10
3228.616437225773
 20
200.3928434859808
 30
-0.0000000000000284
 11
3228.616437225773
 21
200.9528434859811
 31
-0.0000000000000284
  0
LINE
  5
33D6
330
1A
100
AcDbEntity
  8
0
100
AcDbLine
 10
3228.616437225773
 20
200.9528434859811
 30
-0.0000000000000284
 11
3228.861437225773
 21
201.5478434859812
 31
-0.0000000000000284
  0
LINE
  5
33D7
330
1A
100
AcDbEntity
  8
0
100
AcDbLine
 10
3228.861437225773
 20
201.5478434859812
 30
-0.0000000000000284
 11
3229.456437225773
 21
201.7928434859807
 31
-0.0000000000000284
  0
LINE
  5
33D8
330
1A
100
AcDbEntity
  8
0
100
AcDbLine
 10
3229.456437225773
 20
201.7928434859807
 30
-0.0000000000000284
 11
3230.016437225773
 21
201.7928434859807
 31
-0.0000000000000284
  0
LINE
  5
33D9
330
1A
100
AcDbEntity
  8
0
100
AcDbLine
 10
3226.516437225772
 20
201.7928434859811
 30
-0.0000000000000284
 11
3227.076437225773
 21
201.7928434859811
 31
-0.0000000000000284
  0
LINE
  5
33DA
330
1A
100
AcDbEntity
  8
0
100
AcDbLine
 10
3227.076437225773
 20
201.7928434859811
 30
-0.0000000000000284
 11
3227.671437225773
 21
201.5478434859813
 31
-0.0000000000000284
  0
LINE
  5
33DB
330
1A
100
AcDbEntity
  8
0
100
AcDbLine
 10
3227.671437225773
 20
201.5478434859813
 30
-0.0000000000000284
 11
3227.916437225772
 21
200.9528434859813
 31
-0.0000000000000284
  0
LINE
  5
33DC
330
1A
100
AcDbEntity
  8
0
100
AcDbLine
 10
3227.916437225772
 20
200.9528434859813
 30
-0.0000000000000284
 11
3227.916437225772
 21
200.3928434859812
 31
-0.0000000000000284
  0
LINE
  5
33DD
330
1A
100
AcDbEntity
  8
0
100
AcDbLine
 10
3227.916437225773
 20
203.8928434859814
 30
-0.0000000000000284
 11
3228.616437225773
 21
203.8928434859812
 31
-0.0000000000000284
  0
LINE
  5
33DE
330
1A
100
AcDbEntity
  8
0
100
AcDbLine
 10
3227.916437225773
 20
203.8928434859814
 30
-0.0000000000000284
 11
3227.916437225773
 21
203.3328434859811
 31
-0.0000000000000284
  0
LINE
  5
33DF
330
1A
100
AcDbEntity
  8
0
100
AcDbLine
 10
3227.916437225773
 20
203.3328434859811
 30
-0.0000000000000284
 11
3227.671437225773
 21
202.737843485981
 31
-0.0000000000000284
  0
LINE
  5
33E0
330
1A
100
AcDbEntity
  8
0
100
AcDbLine
 10
3227.671437225773
 20
202.737843485981
 30
-0.0000000000000284
 11
3227.076437225773
 21
202.4928434859815
 31
-0.0000000000000284
  0
LINE
  5
33E1
330
1A
100
AcDbEntity
  8
0
100
AcDbLine
 10
3227.076437225773
 20
202.4928434859815
 30
-0.0000000000000284
 11
3226.516437225773
 21
202.4928434859815
 31
-0.0000000000000284
  0
LINE
  5
33E2
330
1A
100
AcDbEntity
  8
0
100
AcDbLine
 10
3228.616437225773
 20
203.3328434859811
 30
-0.0000000000000284
 11
3228.616437225773
 21
203.8928434859812
 31
-0.0000000000000284
  0
LINE
  5
33E3
330
1A
100
AcDbEntity
  8
0
100
AcDbLine
 10
3228.861437225773
 20
202.737843485981
 30
-0.0000000000000284
 11
3228.616437225773
 21
203.3328434859811
 31
-0.0000000000000284
  0
LINE
  5
33E4
330
1A
100
AcDbEntity
  8
0
100
AcDbLine
 10
3229.456437225773
 20
202.4928434859813
 30
-0.0000000000000284
 11
3228.861437225773
 21
202.737843485981
 31
-0.0000000000000284
  0
LINE
  5
33E5
330
1A
100
AcDbEntity
  8
0
100
AcDbLine
 10
3230.016437225773
 20
202.4928434859813
 30
-0.0000000000000284
 11
3229.456437225773
 21
202.4928434859813
 31
-0.0000000000000284
  0
CIRCLE
  5
33E6
330
1A
100
AcDbEntity
  8
0
100
AcDbCircle
 10
2552.266437225767
 20
202.1428434859948
 30
-0.0000000000000284
 40
2.75
  0
LINE
  5
33E7
330
1A
100
AcDbEntity
  8
0
100
AcDbLine
 10
2550.516437225768
 20
202.4928434859951
 30
-0.0000000000000284
 11
2550.516437225767
 21
201.7928434859947
 31
-0.0000000000000284
  0
LINE
  5
33E8
330
1A
100
AcDbEntity
  8
0
100
AcDbLine
 10
2554.016437225767
 20
202.4928434859949
 30
-0.0000000000000284
 11
2554.016437225767
 21
201.7928434859943
 31
-0.0000000000000284
  0
LINE
  5
33E9
330
1A
100
AcDbEntity
  8
0
100
AcDbLine
 10
2551.916437225767
 20
200.3928434859948
 30
-0.0000000000000284
 11
2552.616437225767
 21
200.3928434859944
 31
-0.0000000000000284
  0
LINE
  5
33EA
330
1A
100
AcDbEntity
  8
0
100
AcDbLine
 10
2552.616437225767
 20
200.3928434859944
 30
-0.0000000000000284
 11
2552.616437225767
 21
200.9528434859947
 31
-0.0000000000000284
  0
LINE
  5
33EB
330
1A
100
AcDbEntity
  8
0
100
AcDbLine
 10
2552.616437225767
 20
200.9528434859947
 30
-0.0000000000000284
 11
2552.861437225767
 21
201.5478434859948
 31
-0.0000000000000284
  0
LINE
  5
33EC
330
1A
100
AcDbEntity
  8
0
100
AcDbLine
 10
2552.861437225767
 20
201.5478434859948
 30
-0.0000000000000284
 11
2553.456437225767
 21
201.7928434859943
 31
-0.0000000000000284
  0
LINE
  5
33ED
330
1A
100
AcDbEntity
  8
0
100
AcDbLine
 10
2553.456437225767
 20
201.7928434859943
 30
-0.0000000000000284
 11
2554.016437225767
 21
201.7928434859943
 31
-0.0000000000000284
  0
LINE
  5
33EE
330
1A
100
AcDbEntity
  8
0
100
AcDbLine
 10
2550.516437225767
 20
201.7928434859947
 30
-0.0000000000000284
 11
2551.076437225767
 21
201.7928434859947
 31
-0.0000000000000284
  0
LINE
  5
33EF
330
1A
100
AcDbEntity
  8
0
100
AcDbLine
 10
2551.076437225767
 20
201.7928434859947
 30
-0.0000000000000284
 11
2551.671437225767
 21
201.547843485995
 31
-0.0000000000000284
  0
LINE
  5
33F0
330
1A
100
AcDbEntity
  8
0
100
AcDbLine
 10
2551.671437225767
 20
201.547843485995
 30
-0.0000000000000284
 11
2551.916437225767
 21
200.9528434859949
 31
-0.0000000000000284
  0
LINE
  5
33F1
330
1A
100
AcDbEntity
  8
0
100
AcDbLine
 10
2551.916437225767
 20
200.9528434859949
 30
-0.0000000000000284
 11
2551.916437225767
 21
200.3928434859948
 31
-0.0000000000000284
  0
LINE
  5
33F2
330
1A
100
AcDbEntity
  8
0
100
AcDbLine
 10
2551.916437225767
 20
203.8928434859951
 30
-0.0000000000000284
 11
2552.616437225768
 21
203.8928434859948
 31
-0.0000000000000284
  0
LINE
  5
33F3
330
1A
100
AcDbEntity
  8
0
100
AcDbLine
 10
2551.916437225767
 20
203.8928434859951
 30
-0.0000000000000284
 11
2551.916437225767
 21
203.3328434859948
 31
-0.0000000000000284
  0
LINE
  5
33F4
330
1A
100
AcDbEntity
  8
0
100
AcDbLine
 10
2551.916437225767
 20
203.3328434859948
 30
-0.0000000000000284
 11
2551.671437225767
 21
202.7378434859947
 31
-0.0000000000000284
  0
LINE
  5
33F5
330
1A
100
AcDbEntity
  8
0
100
AcDbLine
 10
2551.671437225767
 20
202.7378434859947
 30
-0.0000000000000284
 11
2551.076437225767
 21
202.4928434859951
 31
-0.0000000000000284
  0
LINE
  5
33F6
330
1A
100
AcDbEntity
  8
0
100
AcDbLine
 10
2551.076437225767
 20
202.4928434859951
 30
-0.0000000000000284
 11
2550.516437225768
 21
202.4928434859951
 31
-0.0000000000000284
  0
LINE
  5
33F7
330
1A
100
AcDbEntity
  8
0
100
AcDbLine
 10
2552.616437225768
 20
203.3328434859948
 30
-0.0000000000000284
 11
2552.616437225768
 21
203.8928434859948
 31
-0.0000000000000284
  0
LINE
  5
33F8
330
1A
100
AcDbEntity
  8
0
100
AcDbLine
 10
2552.861437225767
 20
202.7378434859947
 30
-0.0000000000000284
 11
2552.616437225768
 21
203.3328434859948
 31
-0.0000000000000284
  0
LINE
  5
33F9
330
1A
100
AcDbEntity
  8
0
100
AcDbLine
 10
2553.456437225767
 20
202.4928434859949
 30
-0.0000000000000284
 11
2552.861437225767
 21
202.7378434859947
 31
-0.0000000000000284
  0
LINE
  5
33FA
330
1A
100
AcDbEntity
  8
0
100
AcDbLine
 10
2554.016437225767
 20
202.4928434859949
 30
-0.0000000000000284
 11
2553.456437225767
 21
202.4928434859949
 31
-0.0000000000000284
  0
CIRCLE
  5
33FB
330
1A
100
AcDbEntity
  8
0
100
AcDbCircle
 10
3513.465686793863
 20
202.1428434859788
 30
-0.0000000000000284
 40
2.75
  0
LINE
  5
33FC
330
1A
100
AcDbEntity
  8
0
100
AcDbLine
 10
3513.815686793863
 20
203.8928434859788
 30
-0.0000000000000284
 11
3513.115686793862
 21
203.892843485979
 31
-0.0000000000000284
  0
LINE
  5
33FD
330
1A
100
AcDbEntity
  8
0
100
AcDbLine
 10
3513.815686793862
 20
200.3928434859787
 30
-0.0000000000000284
 11
3513.115686793862
 21
200.3928434859788
 31
-0.0000000000000284
  0
LINE
  5
33FE
330
1A
100
AcDbEntity
  8
0
100
AcDbLine
 10
3511.715686793862
 20
202.4928434859791
 30
-0.0000000000000284
 11
3511.715686793862
 21
201.7928434859788
 31
-0.0000000000000284
  0
LINE
  5
33FF
330
1A
100
AcDbEntity
  8
0
100
AcDbLine
 10
3511.715686793862
 20
201.7928434859788
 30
-0.0000000000000284
 11
3512.275686793862
 21
201.7928434859788
 31
-0.0000000000000284
  0
LINE
  5
3400
330
1A
100
AcDbEntity
  8
0
100
AcDbLine
 10
3512.275686793862
 20
201.7928434859788
 30
-0.0000000000000284
 11
3512.870686793862
 21
201.547843485979
 31
-0.0000000000000284
  0
LINE
  5
3401
330
1A
100
AcDbEntity
  8
0
100
AcDbLine
 10
3512.870686793862
 20
201.547843485979
 30
-0.0000000000000284
 11
3513.115686793862
 21
200.9528434859789
 31
-0.0000000000000284
  0
LINE
  5
3402
330
1A
100
AcDbEntity
  8
0
100
AcDbLine
 10
3513.115686793862
 20
200.9528434859789
 30
-0.0000000000000284
 11
3513.115686793862
 21
200.3928434859788
 31
-0.0000000000000284
  0
LINE
  5
3403
330
1A
100
AcDbEntity
  8
0
100
AcDbLine
 10
3513.115686793862
 20
203.892843485979
 30
-0.0000000000000284
 11
3513.115686793862
 21
203.3328434859787
 31
-0.0000000000000284
  0
LINE
  5
3404
330
1A
100
AcDbEntity
  8
0
100
AcDbLine
 10
3513.115686793862
 20
203.3328434859787
 30
-0.0000000000000284
 11
3512.870686793863
 21
202.7378434859787
 31
-0.0000000000000284
  0
LINE
  5
3405
330
1A
100
AcDbEntity
  8
0
100
AcDbLine
 10
3512.870686793863
 20
202.7378434859787
 30
-0.0000000000000284
 11
3512.275686793862
 21
202.4928434859791
 31
-0.0000000000000284
  0
LINE
  5
3406
330
1A
100
AcDbEntity
  8
0
100
AcDbLine
 10
3512.275686793862
 20
202.4928434859791
 30
-0.0000000000000284
 11
3511.715686793862
 21
202.4928434859791
 31
-0.0000000000000284
  0
LINE
  5
3407
330
1A
100
AcDbEntity
  8
0
100
AcDbLine
 10
3515.215686793862
 20
202.4928434859789
 30
-0.0000000000000284
 11
3515.215686793862
 21
201.7928434859785
 31
-0.0000000000000284
  0
LINE
  5
3408
330
1A
100
AcDbEntity
  8
0
100
AcDbLine
 10
3515.215686793862
 20
202.4928434859789
 30
-0.0000000000000284
 11
3514.655686793862
 21
202.4928434859789
 31
-0.0000000000000284
  0
LINE
  5
3409
330
1A
100
AcDbEntity
  8
0
100
AcDbLine
 10
3514.655686793862
 20
202.4928434859789
 30
-0.0000000000000284
 11
3514.060686793862
 21
202.7378434859787
 31
-0.0000000000000284
  0
LINE
  5
340A
330
1A
100
AcDbEntity
  8
0
100
AcDbLine
 10
3514.060686793862
 20
202.7378434859787
 30
-0.0000000000000284
 11
3513.815686793863
 21
203.3328434859787
 31
-0.0000000000000284
  0
LINE
  5
340B
330
1A
100
AcDbEntity
  8
0
100
AcDbLine
 10
3513.815686793863
 20
203.3328434859787
 30
-0.0000000000000284
 11
3513.815686793863
 21
203.8928434859788
 31
-0.0000000000000284
  0
LINE
  5
340C
330
1A
100
AcDbEntity
  8
0
100
AcDbLine
 10
3514.655686793862
 20
201.7928434859785
 30
-0.0000000000000284
 11
3515.215686793862
 21
201.7928434859785
 31
-0.0000000000000284
  0
LINE
  5
340D
330
1A
100
AcDbEntity
  8
0
100
AcDbLine
 10
3514.060686793862
 20
201.547843485979
 30
-0.0000000000000284
 11
3514.655686793862
 21
201.7928434859785
 31
-0.0000000000000284
  0
LINE
  5
340E
330
1A
100
AcDbEntity
  8
0
100
AcDbLine
 10
3513.815686793862
 20
200.9528434859789
 30
-0.0000000000000284
 11
3514.060686793862
 21
201.547843485979
 31
-0.0000000000000284
  0
LINE
  5
340F
330
1A
100
AcDbEntity
  8
0
100
AcDbLine
 10
3513.815686793862
 20
200.3928434859787
 30
-0.0000000000000284
 11
3513.815686793862
 21
200.9528434859789
 31
-0.0000000000000284
  0
CIRCLE
  5
3410
330
1A
100
AcDbEntity
  8
0
100
AcDbCircle
 10
4089.465686793862
 20
202.1428434859788
 30
-0.0000000000000284
 40
2.75
  0
LINE
  5
3411
330
1A
100
AcDbEntity
  8
0
100
AcDbLine
 10
4089.815686793862
 20
203.8928434859788
 30
-0.0000000000000284
 11
4089.115686793862
 21
203.892843485979
 31
-0.0000000000000284
  0
LINE
  5
3412
330
1A
100
AcDbEntity
  8
0
100
AcDbLine
 10
4089.815686793861
 20
200.3928434859787
 30
-0.0000000000000284
 11
4089.115686793862
 21
200.3928434859788
 31
-0.0000000000000284
  0
LINE
  5
3413
330
1A
100
AcDbEntity
  8
0
100
AcDbLine
 10
4087.715686793862
 20
202.4928434859791
 30
-0.0000000000000284
 11
4087.715686793861
 21
201.7928434859788
 31
-0.0000000000000284
  0
LINE
  5
3414
330
1A
100
AcDbEntity
  8
0
100
AcDbLine
 10
4087.715686793861
 20
201.7928434859788
 30
-0.0000000000000284
 11
4088.275686793862
 21
201.7928434859788
 31
-0.0000000000000284
  0
LINE
  5
3415
330
1A
100
AcDbEntity
  8
0
100
AcDbLine
 10
4088.275686793862
 20
201.7928434859788
 30
-0.0000000000000284
 11
4088.870686793861
 21
201.547843485979
 31
-0.0000000000000284
  0
LINE
  5
3416
330
1A
100
AcDbEntity
  8
0
100
AcDbLine
 10
4088.870686793861
 20
201.547843485979
 30
-0.0000000000000284
 11
4089.115686793862
 21
200.9528434859789
 31
-0.0000000000000284
  0
LINE
  5
3417
330
1A
100
AcDbEntity
  8
0
100
AcDbLine
 10
4089.115686793862
 20
200.9528434859789
 30
-0.0000000000000284
 11
4089.115686793862
 21
200.3928434859788
 31
-0.0000000000000284
  0
LINE
  5
3418
330
1A
100
AcDbEntity
  8
0
100
AcDbLine
 10
4089.115686793862
 20
203.892843485979
 30
-0.0000000000000284
 11
4089.115686793862
 21
203.3328434859787
 31
-0.0000000000000284
  0
LINE
  5
3419
330
1A
100
AcDbEntity
  8
0
100
AcDbLine
 10
4089.115686793862
 20
203.3328434859787
 30
-0.0000000000000284
 11
4088.870686793862
 21
202.7378434859787
 31
-0.0000000000000284
  0
LINE
  5
341A
330
1A
100
AcDbEntity
  8
0
100
AcDbLine
 10
4088.870686793862
 20
202.7378434859787
 30
-0.0000000000000284
 11
4088.275686793862
 21
202.4928434859791
 31
-0.0000000000000284
  0
LINE
  5
341B
330
1A
100
AcDbEntity
  8
0
100
AcDbLine
 10
4088.275686793862
 20
202.4928434859791
 30
-0.0000000000000284
 11
4087.715686793862
 21
202.4928434859791
 31
-0.0000000000000284
  0
LINE
  5
341C
330
1A
100
AcDbEntity
  8
0
100
AcDbLine
 10
4091.215686793861
 20
202.4928434859789
 30
-0.0000000000000284
 11
4091.215686793861
 21
201.7928434859785
 31
-0.0000000000000284
  0
LINE
  5
341D
330
1A
100
AcDbEntity
  8
0
100
AcDbLine
 10
4091.215686793861
 20
202.4928434859789
 30
-0.0000000000000284
 11
4090.655686793861
 21
202.4928434859789
 31
-0.0000000000000284
  0
LINE
  5
341E
330
1A
100
AcDbEntity
  8
0
100
AcDbLine
 10
4090.655686793861
 20
202.4928434859789
 30
-0.0000000000000284
 11
4090.060686793862
 21
202.7378434859787
 31
-0.0000000000000284
  0
LINE
  5
341F
330
1A
100
AcDbEntity
  8
0
100
AcDbLine
 10
4090.060686793862
 20
202.7378434859787
 30
-0.0000000000000284
 11
4089.815686793862
 21
203.3328434859787
 31
-0.0000000000000284
  0
LINE
  5
3420
330
1A
100
AcDbEntity
  8
0
100
AcDbLine
 10
4089.815686793862
 20
203.3328434859787
 30
-0.0000000000000284
 11
4089.815686793862
 21
203.8928434859788
 31
-0.0000000000000284
  0
LINE
  5
3421
330
1A
100
AcDbEntity
  8
0
100
AcDbLine
 10
4090.655686793861
 20
201.7928434859785
 30
-0.0000000000000284
 11
4091.215686793861
 21
201.7928434859785
 31
-0.0000000000000284
  0
LINE
  5
3422
330
1A
100
AcDbEntity
  8
0
100
AcDbLine
 10
4090.060686793862
 20
201.547843485979
 30
-0.0000000000000284
 11
4090.655686793861
 21
201.7928434859785
 31
-0.0000000000000284
  0
LINE
  5
3423
330
1A
100
AcDbEntity
  8
0
100
AcDbLine
 10
4089.815686793861
 20
200.9528434859789
 30
-0.0000000000000284
 11
4090.060686793862
 21
201.547843485979
 31
-0.0000000000000284
  0
LINE
  5
3424
330
1A
100
AcDbEntity
  8
0
100
AcDbLine
 10
4089.815686793861
 20
200.3928434859787
 30
-0.0000000000000284
 11
4089.815686793861
 21
200.9528434859789
 31
-0.0000000000000284
  0
VIEWPORT
  5
32A0
102
{ACAD_XDICTIONARY
360
32A1
102
}
330
3299
100
AcDbEntity
 67
     1
  8
0
100
AcDbViewport
 10
141.9208257694165
 20
102.4244340244143
 30
0.0
 40
613.2555385440761
 41
268.1572656629999
 68
     1
 69
     1
 12
141.9208257694165
 22
102.4244340244143
 13
0.0
 23
0.0
 14
10.0
 24
10.0
 15
10.0
 25
10.0
 16
0.0
 26
0.0
 36
1.0
 17
0.0
 27
0.0
 37
0.0
 42
50.0
 43
0.0
 44
0.0
 45
268.1572656629999
 50
0.0
 51
0.0
 72
   100
 90
   557088
  1

281
     0
 71
     1
 74
     0
110
0.0
120
0.0
130
0.0
111
1.0
121
0.0
131
0.0
112
0.0
122
1.0
132
0.0
 79
     0
146
0.0
  0
VIEWPORT
  5
32A4
102
{ACAD_XDICTIONARY
360
32A5
102
}
330
3299
100
AcDbEntity
 67
     1
  8
DEFPOINTS
100
AcDbViewport
 10
141.9208252684891
 20
102.4244338099167
 30
0.0
 40
383.1244064176469
 41
266.2099228554977
 68
     2
 69
     2
 12
3210.85087936577
 22
633.5050926790174
 13
0.0
 23
0.0
 14
168.0
 24
168.0
 15
0.0
 25
0.0
 16
0.0
 26
0.0
 36
1.0
 17
0.0
 27
0.0
 37
0.0
 42
50.0
 43
0.0
 44
0.0
 45
1331.049614277488
 50
0.0
 51
0.0
 72
   100
 90
   823296
  1

281
     0
 71
     1
 74
     0
110
0.0
120
0.0
130
0.0
111
1.0
121
0.0
131
0.0
112
0.0
122
1.0
132
0.0
 79
     0
146
0.0
  0
MTEXT
  5
32E2
330
3299
100
AcDbEntity
 67
     1
  8
0
100
AcDbMText
 10
272.5308910718175
 20
219.4876574151027
 30
0.0
 40
5.0
 41
37.65073420756767
 71
     1
 72
     5
  1
{\fMS PGothic|b0|i0|c128|p50;\W1;FW300KB4\PFW600KB4}
  7
AD-STANDARD
 73
     1
 44
1.0
1001
ACAD
1000
MTEXTBEGIN
1070
    73
1070
     1
1070
    44
1040
1.0
1070
    74
1070
     0
1000
MTEXTEND
  0
MTEXT
  5
32E4
330
3299
100
AcDbEntity
 67
     1
  8
0
100
AcDbMText
 10
272.5308910718175
 20
180.6814310774618
 30
0.0
 40
4.0
 41
37.65073420756767
 71
     1
 72
     5
  1
{\fMS PGothic|b0|i0|c128|p50;\W1;単位　：　mm}
  7
AD-STANDARD
 73
     1
 44
1.0
1001
ACAD
1000
MTEXTBEGIN
1070
    73
1070
     1
1070
    44
1040
1.0
1070
    74
1070
     0
1000
MTEXTEND
  0
ENDSEC
  0
SECTION
  2
OBJECTS
  0
DICTIONARY
  5
C
330
0
100
AcDbDictionary
281
     1
  3
ACAD_2007HEADERVARS_RT
350
34F5
  3
ACAD_COLOR
350
41C
  3
ACAD_GROUP
350
D
  3
ACAD_LAYOUT
350
2C2
  3
ACAD_MATERIAL
350
41B
  3
ACAD_MLEADERSTYLE
350
2AB4
  3
ACAD_MLINESTYLE
350
E
  3
ACAD_PLOTSETTINGS
350
2C3
  3
ACAD_PLOTSTYLENAME
350
2C0
  3
ACAD_SCALELIST
350
2A92
  3
ACAD_TABLESTYLE
350
41D
  3
ACAD_VISUALSTYLE
350
2A81
  3
AcadDim
350
2FC
  3
ACDB_RECOMPOSE_DATA
350
325D
  3
AcDbVariableDictionary
350
407
  3
CONTENTDICTIONARY
350
234
  3
DWGPROPS
350
34F4
  0
DICTIONARY
  5
3262
330
8
100
AcDbDictionary
280
     1
281
     1
  0
DICTIONARY
  5
432
330
2
100
AcDbDictionary
280
     1
281
     1
  3
ACAD_LAYERSTATES
360
433
  0
DICTIONARY
  5
3255
330
F
100
AcDbDictionary
280
     1
281
     1
  3
ADSK_XREC_LAYER_RECONCILED
360
3256
  0
DICTIONARY
  5
3257
330
71
100
AcDbDictionary
280
     1
281
     1
  3
ADSK_XREC_LAYER_RECONCILED
360
3258
  0
DICTIONARY
  5
D6F
330
1A
100
AcDbDictionary
280
     1
281
     1
  3
ACAD_SORTENTS
360
D70
  0
DICTIONARY
  5
32A1
330
32A0
100
AcDbDictionary
280
     1
281
     1
  3
ACAD_XREC_ROUNDTRIP
360
3501
  3
ASDK_XREC_ANNOTATION_SCALE_INFO
360
32A2
  0
DICTIONARY
  5
32A5
330
32A4
100
AcDbDictionary
280
     1
281
     1
  3
ACAD_XREC_ROUNDTRIP
360
3502
  3
ASDK_XREC_ANNOTATION_SCALE_INFO
360
32A6
  0
DICTIONARY
  5
34F5
102
{ACAD_REACTORS
330
C
102
}
330
C
100
AcDbDictionary
281
     1
  3
DIMFXL
350
34F6
  3
DIMJOGANG
350
34F7
  0
DICTIONARY
  5
41C
102
{ACAD_REACTORS
330
C
102
}
330
C
100
AcDbDictionary
281
     1
  0
DICTIONARY
  5
D
102
{ACAD_REACTORS
330
C
102
}
330
C
100
AcDbDictionary
281
     1
  0
DICTIONARY
  5
2C2
102
{ACAD_REACTORS
330
C
102
}
330
C
100
AcDbDictionary
281
     1
  3
Model
350
2C4
  3
レイアウト1
350
329A
  0
DICTIONARY
  5
41B
102
{ACAD_REACTORS
330
C
102
}
330
C
100
AcDbDictionary
281
     1
  3
ByBlock
350
2A71
  3
ByLayer
350
2A69
  3
Global
350
2A79
  0
DICTIONARY
  5
2AB4
102
{ACAD_REACTORS
330
C
102
}
330
C
100
AcDbDictionary
281
     1
  3
Standard
350
2AB5
  0
DICTIONARY
  5
E
102
{ACAD_REACTORS
330
C
102
}
330
C
100
AcDbDictionary
281
     1
  3
STANDARD
350
13
  0
DICTIONARY
  5
2C3
102
{ACAD_REACTORS
330
C
102
}
330
C
100
AcDbDictionary
281
     1
  3
A3form102A
350
411
  0
ACDBDICTIONARYWDFLT
  5
2C0
102
{ACAD_REACTORS
330
C
102
}
330
C
100
AcDbDictionary
281
     1
  3
Normal
350
2C1
100
AcDbDictionaryWithDefault
340
2C1
  0
DICTIONARY
  5
2A92
102
{ACAD_REACTORS
330
C
102
}
330
C
100
AcDbDictionary
281
     1
  3
A0
350
2A93
  3
A1
350
2A94
  3
A2
350
2A95
  3
A3
350
2A96
  3
A4
350
2A97
  3
A5
350
2A98
  3
A6
350
2A99
  3
A7
350
2A9A
  3
A8
350
2A9B
  3
A9
350
2A9C
  3
B0
350
2A9D
  3
B1
350
2A9E
  3
B2
350
2A9F
  3
B3
350
2AA0
  3
B4
350
2AA1
  3
B5
350
2AA2
  3
B6
350
2AA3
  3
B7
350
2AA4
  3
B8
350
2AA5
  3
B9
350
2AA6
  3
C0
350
2AA7
  3
C1
350
2AA8
  3
C2
350
2AA9
  3
C3
350
2AAA
  3
C4
350
2AAB
  3
C5
350
2AAC
  3
C6
350
2AAD
  3
C7
350
2AAE
  3
C8
350
2AAF
  3
C9
350
2AB0
  3
D0
350
2AB1
  3
D1
350
2AB2
  3
D2
350
2AB3
  0
DICTIONARY
  5
41D
102
{ACAD_REACTORS
330
C
102
}
330
C
100
AcDbDictionary
281
     1
  3
Standard
350
41E
  0
DICTIONARY
  5
2A81
102
{ACAD_REACTORS
330
C
102
}
330
C
100
AcDbDictionary
281
     1
  3
2dWireframe
350
2A87
  3
3D Hidden
350
2A89
  3
3dWireframe
350
2A88
  3
Basic
350
2A86
  3
Brighten
350
2A8D
  3
ColorChange
350
2A91
  3
Conceptual
350
2A8A
  3
Dim
350
2A8C
  3
Facepattern
350
2A90
  3
Flat
350
2A82
  3
FlatWithEdges
350
2A83
  3
Gouraud
350
2A84
  3
GouraudWithEdges
350
2A85
  3
Linepattern
350
2A8F
  3
Realistic
350
2A8B
  3
Thicken
350
2A8E
  0
XRECORD
  5
2FC
102
{ACAD_REACTORS
330
C
102
}
330
C
100
AcDbXrecord
280
     1
 90
   990106
  3

 60
     0
 61
     0
 62
     4
 63
     4
 64
     1
 65
     0
 66
     0
 67
     3
 68
     1
 69
     0
 70
     0
 71
     0
 72
     0
 40
0.0
170
     2
340
0
  0
XRECORD
  5
325D
102
{ACAD_REACTORS
330
C
102
}
330
C
100
AcDbXrecord
280
     1
 90
        1
330
41E
  0
DICTIONARY
  5
407
102
{ACAD_REACTORS
330
C
102
}
330
C
100
AcDbDictionary
281
     1
  3
CANNOSCALE
350
3277
  3
CMLEADERSTYLE
350
3276
  3
CTABLESTYLE
350
438
  3
DIMASSOC
350
408
  3
INDEXCTL
350
3279
  3
PROJECTNAME
350
28D7
  3
SORTENTS
350
3278
  0
DICTIONARY
  5
234
102
{ACAD_REACTORS
330
C
102
}
330
C
100
AcDbDictionary
281
     1
  0
XRECORD
  5
34F4
102
{ACAD_REACTORS
330
C
102
}
330
C
100
AcDbXrecord
280
     1
  1
DWGPROPS COOKIE
  2

  3

  4

  6

  7

  8
HAMANO-1047
  9

300
=
301
=
302
=
303
=
304
=
305
=
306
=
307
=
308
=
309
=
 40
0.1575743055555555
 41
2454826.828500578
 42
2459044.57075669
  1

 90
        0
  0
DICTIONARY
  5
433
102
{ACAD_REACTORS
330
432
102
}
330
432
100
AcDbDictionary
281
     1
  0
XRECORD
  5
3256
102
{ACAD_REACTORS
330
3255
102
}
330
3255
100
AcDbXrecord
280
     1
290
     1
  0
XRECORD
  5
3258
102
{ACAD_REACTORS
330
3257
102
}
330
3257
100
AcDbXrecord
280
     1
290
     1
  0
SORTENTSTABLE
  5
D70
102
{ACAD_REACTORS
330
D6F
102
}
330
D6F
100
AcDbSortentsTable
330
1A
331
2EA2
  5
2EA2
331
2ED9
  5
2ED9
331
2E2C
  5
2E2C
331
2E63
  5
2E63
331
2F18
  5
2F42
331
2FD5
  5
33CE
331
3024
  5
340B
331
2F20
  5
2F4A
331
2F57
  5
2F81
331
2E6B
  5
2E6B
331
2EAA
  5
2EAA
331
2E34
  5
2E34
331
2EE1
  5
2EE1
331
2F96
  5
2FC0
331
33C4
  5
33C6
331
33FB
  5
3020
331
330F
  5
333B
331
334E
  5
336A
331
3385
  5
3390
331
2F9E
  5
2FC8
331
2FDD
  5
33D6
331
2F28
  5
2F52
331
2F5F
  5
2F89
331
302C
  5
3413
331
2E73
  5
2E73
331
2EB2
  5
2EB2
331
2E3C
  5
2E3C
331
2EE9
  5
2EE9
331
33CC
  5
3314
331
3403
  5
3028
331
3356
  5
32F5
331
3034
  5
341B
331
3317
  5
3344
331
2FA6
  5
2FD2
331
2FF5
  5
33DC
331
2EF1
  5
2EF1
331
2E7B
  5
2E7B
331
2F67
  5
2F91
331
338D
  5
3398
331
335E
  5
32FD
331
331F
  5
303B
331
2FFD
  5
33E4
331
2F6F
  5
2F99
331
3395
  5
3308
331
33D4
  5
2F16
331
340B
  5
3030
331
3413
  5
300D
331
3327
  5
32F2
331
339D
  5
339F
331
2EF9
  5
2EF9
331
2F30
  5
2F5A
331
2E44
  5
2E44
331
2E83
  5
2E83
331
2EBA
  5
2EBA
331
3005
  5
33EC
331
303C
  5
3423
331
2F77
  5
2FA1
331
2FAE
  5
2FDA
331
2EC2
  5
2EC2
331
2F01
  5
2F01
331
2F38
  5
2F62
331
2E15
  5
2E15
331
2E4C
  5
2E4C
331
2E8B
  5
2E8B
331
33DC
  5
2F1E
331
341B
  5
3015
331
332F
  5
334B
331
32F0
  5
331C
331
3366
  5
3305
331
300D
  5
33F4
331
2F40
  5
2F6A
331
2F7F
  5
2FA9
331
2FB6
  5
2FF5
331
2E93
  5
2E93
331
2ECA
  5
2ECA
331
2E1D
  5
2E1D
331
2E54
  5
2E54
331
2F09
  5
2F09
331
33A5
  5
33A7
331
33AD
  5
33AF
331
33E4
  5
2F26
331
3337
  5
3353
331
32F8
  5
3324
331
336E
  5
3379
331
3015
  5
33FC
331
3423
  5
301E
331
2F11
  5
2F11
331
2F48
  5
2F72
331
2E5C
  5
2E5C
331
2E9B
  5
2E9B
331
2E25
  5
2E25
331
2ED2
  5
2ED2
331
2F87
  5
2FB1
331
2FBE
  5
2FFD
331
33B5
  5
33B7
331
33EC
  5
2F2F
331
333F
  5
335B
331
301D
  5
3404
331
2F8F
  5
2FB9
331
2FC6
  5
3006
331
3300
  5
332C
331
3376
  5
3381
331
337E
  5
3389
331
33BD
  5
33BF
331
33F4
  5
2F37
331
3347
  5
3363
331
2EDA
  5
2EDA
331
2F19
  5
2F43
331
2E64
  5
2E64
331
2EA3
  5
2EA3
331
2F50
  5
2F7A
331
2E2D
  5
2E2D
331
3025
  5
340C
331
3308
  5
3334
331
2F97
  5
2FC1
331
2FD6
  5
33CF
331
2EE2
  5
2EE2
331
2F21
  5
2F4B
331
2E35
  5
2E35
331
2E6C
  5
2E6C
331
2EAB
  5
2EAB
331
2F58
  5
2F82
331
334F
  5
336B
331
3310
  5
333C
331
3386
  5
3391
331
302D
  5
3414
331
31AA
  5
3424
331
2F60
  5
2F8A
331
2F9F
  5
2FCA
331
2EB3
  5
2EB3
331
2EEA
  5
2EEA
331
2E3D
  5
2E3D
331
2E74
  5
2E74
331
2F29
  5
2F53
331
33C5
  5
33C7
331
33FC
  5
3021
331
33CD
  5
3315
331
3404
  5
3029
331
3357
  5
32F6
331
3318
  5
3345
331
338E
  5
3399
331
2FF6
  5
33DD
331
3035
  5
341C
331
2F68
  5
2F92
331
2E7C
  5
2E7C
331
2EF2
  5
2EF2
331
2FA7
  5
2FD3
331
33D5
  5
2F17
331
340C
  5
3031
331
335F
  5
32FE
331
3320
  5
303C
331
2FFE
  5
33E5
331
3396
  5
3309
331
3414
  5
300E
331
339E
  5
33A0
331
2F31
  5
2F5B
331
2F70
  5
2F9A
331
2E84
  5
2E84
331
2EBB
  5
2EBB
331
2E45
  5
2E45
331
2EFA
  5
2EFA
331
3328
  5
32F3
331
2FAF
  5
2FDB
331
3006
  5
33ED
331
2F02
  5
2F02
331
2F39
  5
2F63
331
2E8C
  5
2E8C
331
2EC3
  5
2EC3
331
2E16
  5
2E16
331
2E4D
  5
2E4D
331
2F78
  5
2FA2
331
341C
  5
3016
331
33A6
  5
33A8
331
33DD
  5
2F1F
331
3330
  5
334C
331
300E
  5
33F5
331
2F80
  5
2FAA
331
2FB7
  5
2FF6
331
2F0A
  5
2F0A
331
2F41
  5
2F6B
331
32F1
  5
331D
331
3367
  5
3372
331
2E1E
  5
2E1E
331
2E55
  5
2E55
331
2E94
  5
2E94
331
2ECB
  5
2ECB
331
3424
  5
301F
331
336F
  5
337A
331
33AE
  5
33B0
331
33E5
  5
2F27
331
3338
  5
3354
331
3016
  5
33FD
331
2F49
  5
2F73
331
2ED3
  5
2ED3
331
2F88
  5
2FB2
331
2FBF
  5
2FFE
331
2E26
  5
2E26
331
2E5D
  5
2E5D
331
2E9C
  5
2E9C
331
32F9
  5
3325
331
33ED
  5
2F30
331
3340
  5
335C
331
3301
  5
332D
331
3377
  5
3382
331
301E
  5
3405
331
33B6
  5
33B8
331
33BE
  5
33C0
331
33F5
  5
2F38
331
337F
  5
338A
331
2F51
  5
2F7B
331
2F90
  5
2FBA
331
2EA4
  5
2EA4
331
2EDB
  5
2EDB
331
2E2E
  5
2E2E
331
2E65
  5
2E65
331
2F1A
  5
2F44
331
3309
  5
3335
331
3348
  5
3364
331
2FD7
  5
33D0
331
3026
  5
340D
331
2F22
  5
2F4C
331
2F59
  5
2F83
331
2E6D
  5
2E6D
331
2EAC
  5
2EAC
331
2E36
  5
2E36
331
2EE3
  5
2EE3
331
2F98
  5
2FC2
331
33C6
  5
33C8
331
33FD
  5
3022
331
3350
  5
336C
331
302E
  5
3415
331
2FA0
  5
2FCB
331
3311
  5
333D
331
2EEB
  5
2EEB
331
2F2A
  5
2F54
331
2E75
  5
2E75
331
2EB4
  5
2EB4
331
2F61
  5
2F8B
331
3387
  5
3392
331
2E3E
  5
2E3E
331
338F
  5
339A
331
33CE
  5
3316
331
3405
  5
302A
331
3358
  5
32F7
331
3036
  5
341D
331
3319
  5
3035
331
2FF7
  5
33DE
331
2EF3
  5
2EF3
331
2E7D
  5
2E7D
331
2F69
  5
2F93
331
3321
  5
31AA
331
2FFF
  5
33E6
331
3397
  5
330B
331
33D6
  5
2F18
331
340D
  5
3032
331
3415
  5
300F
331
339F
  5
33A1
331
2F71
  5
2F9B
331
2FA8
  5
2FD4
331
2EFB
  5
2EFB
331
2F32
  5
2F5C
331
2E46
  5
2E46
331
2E85
  5
2E85
331
2EBC
  5
2EBC
331
3329
  5
32F4
331
3360
  5
32FF
331
3007
  5
33EE
331
2F79
  5
2FA3
331
2FB0
  5
2FDD
331
2E8D
  5
2E8D
331
2EC4
  5
2EC4
331
2E17
  5
2E17
331
2E4E
  5
2E4E
331
2F03
  5
2F03
331
2F3A
  5
2F64
331
33DE
  5
2F20
331
341D
  5
3017
331
3331
  5
334D
331
32F2
  5
331E
331
3368
  5
3373
331
300F
  5
33F6
331
2F42
  5
2F6C
331
2F81
  5
2FAB
331
2FB8
  5
2FF7
331
2E95
  5
2E95
331
2ECC
  5
2ECC
331
2E1F
  5
2E1F
331
2E56
  5
2E56
331
2F0B
  5
2F0B
331
33A7
  5
33A9
331
33AF
  5
33B1
331
33E6
  5
2F29
331
3339
  5
3355
331
32FA
  5
3326
331
3370
  5
337B
331
2FC0
  5
2FFF
331
3017
  5
33FE
331
2F4A
  5
2F74
331
2E5E
  5
2E5E
331
2E9D
  5
2E9D
331
2E27
  5
2E27
331
2ED4
  5
2ED4
331
2F89
  5
2FB3
331
33B7
  5
33B9
331
33EE
  5
2F31
331
3341
  5
335D
331
301F
  5
3406
331
3302
  5
332E
331
3378
  5
3383
331
33BF
  5
33C1
331
33F6
  5
2F39
331
2F91
  5
2FBB
331
2EDC
  5
2EDC
331
2F1B
  5
2F45
331
2E2F
  5
2E2F
331
2E66
  5
2E66
331
2EA5
  5
2EA5
331
2F52
  5
2F7C
331
3380
  5
338B
331
3027
  5
340E
331
330A
  5
3336
331
2F5A
  5
2F84
331
2F99
  5
2FC3
331
2EE4
  5
2EE4
331
2F23
  5
2F4D
331
2E37
  5
2E37
331
2E6E
  5
2E6E
331
2EAD
  5
2EAD
331
2FD8
  5
33D1
331
3349
  5
3365
331
33FE
  5
3023
331
3351
  5
336D
331
3312
  5
333E
331
3388
  5
3393
331
2FF0
  5
33D7
331
302F
  5
3416
331
2F62
  5
2F8C
331
2FA1
  5
2FCC
331
2EB5
  5
2EB5
331
2EEC
  5
2EEC
331
2E3F
  5
2E3F
331
2E76
  5
2E76
331
2F2B
  5
2F55
331
33C7
  5
33C9
331
33CF
  5
3317
331
3406
  5
302B
331
3359
  5
32F8
331
331A
  5
3036
331
3390
  5
339B
331
2FF8
  5
33DF
331
2F6A
  5
2F94
331
3037
  5
341E
331
2E7E
  5
2E7E
331
2EF4
  5
2EF4
331
33D7
  5
2F19
331
340E
  5
3033
331
3322
  5
32ED
331
3398
  5
330C
331
3416
  5
3010
331
3000
  5
33E7
331
2EFC
  5
2EFC
331
2F33
  5
2F5D
331
2E86
  5
2E86
331
2EBD
  5
2EBD
331
2E47
  5
2E47
331
2F72
  5
2F9C
331
2FA9
  5
2FD5
331
33A0
  5
33A2
331
332A
  5
3346
331
3361
  5
3300
331
2FB1
  5
2FF0
331
3008
  5
33EF
331
2F04
  5
2F04
331
2F3B
  5
2F65
331
2E8E
  5
2E8E
331
2EC5
  5
2EC5
331
2E18
  5
2E18
331
2E4F
  5
2E4F
331
2F7A
  5
2FA4
331
341E
  5
3018
331
33A8
  5
33AA
331
33DF
  5
2F21
331
3332
  5
334E
331
3010
  5
33F7
331
2F82
  5
2FAC
331
2FB9
  5
2FF8
331
2F0C
  5
2F0C
331
2F43
  5
2F6D
331
32F3
  5
331F
331
2E20
  5
2E20
331
2E57
  5
2E57
331
2E96
  5
2E96
331
2ECD
  5
2ECD
331
3369
  5
3374
331
333A
  5
3356
331
32FB
  5
3327
331
3371
  5
337C
331
3018
  5
33FF
331
33B0
  5
33B2
331
2F4B
  5
2F75
331
2F8A
  5
2FB4
331
2E9E
  5
2E9E
331
2ED5
  5
2ED5
331
2E5F
  5
2E5F
331
2F14
  5
2F3E
331
2FC1
  5
3001
331
33E7
  5
2F2A
331
33EF
  5
2F32
331
3342
  5
335E
331
3303
  5
332F
331
3379
  5
3384
331
33B8
  5
33BA
331
33F7
  5
2F3A
331
2E28
  5
2E28
331
2FD1
  5
33CA
331
3020
  5
3407
331
2F53
  5
2F7D
331
2F92
  5
2FBC
331
2EA6
  5
2EA6
331
2EDD
  5
2EDD
331
2E30
  5
2E30
331
2E67
  5
2E67
331
2F1C
  5
2F46
331
33C0
  5
33C2
331
330B
  5
3337
331
334A
  5
3366
331
3381
  5
338C
331
2FD9
  5
33D2
331
3028
  5
340F
331
2F24
  5
2F4E
331
2F5B
  5
2F85
331
2E6F
  5
2E6F
331
2EAE
  5
2EAE
331
2E38
  5
2E38
331
2EE5
  5
2EE5
331
2F9A
  5
2FC4
331
33C8
  5
3310
331
33FF
  5
3024
331
3352
  5
336E
331
3030
  5
3417
331
3313
  5
333F
331
2FA2
  5
2FCE
331
2FF1
  5
33D8
331
2EED
  5
2EED
331
2F2C
  5
2F56
331
2E77
  5
2E77
331
2EB6
  5
2EB6
331
2F63
  5
2F8D
331
3389
  5
3394
331
3391
  5
339C
331
33D0
  5
3318
331
3407
  5
302C
331
335A
  5
32F9
331
331B
  5
3037
331
2F6B
  5
2F95
331
2EF5
  5
2EF5
331
2E7F
  5
2E7F
331
2FF9
  5
33E0
331
340F
  5
3034
331
3323
  5
32EE
331
3399
  5
330D
331
3417
  5
3011
331
2E40
  5
2E40
331
3001
  5
33E8
331
3038
  5
341F
331
2F73
  5
2F9D
331
2FAA
  5
2FD6
331
2EFD
  5
2EFD
331
2F34
  5
2F5E
331
2E48
  5
2E48
331
2E87
  5
2E87
331
2EBE
  5
2EBE
331
332B
  5
3347
331
3362
  5
3301
331
3009
  5
33F0
331
2F7B
  5
2FA5
331
2FB2
  5
2FF1
331
33A1
  5
33A3
331
33D8
  5
2F1A
331
2E8F
  5
2E8F
331
2EC6
  5
2EC6
331
2E19
  5
2E19
331
2E50
  5
2E50
331
2F05
  5
2F05
331
2F3C
  5
2F66
331
33A9
  5
33AB
331
33E0
  5
2F22
331
3333
  5
334F
331
32F4
  5
3320
331
336A
  5
3375
331
3011
  5
33F8
331
341F
  5
3019
331
2F0D
  5
2F0D
331
2F44
  5
2F6E
331
2E97
  5
2E97
331
2ECE
  5
2ECE
331
2F83
  5
2FAD
331
2FBA
  5
2FF9
331
2E21
  5
2E21
331
2E58
  5
2E58
331
33B1
  5
33B3
331
33E8
  5
2F2B
331
333B
  5
3357
331
32FC
  5
3328
331
3372
  5
337D
331
2FC2
  5
3002
331
3019
  5
3400
331
2F15
  5
2F3F
331
2F4C
  5
2F76
331
2E9F
  5
2E9F
331
2ED6
  5
2ED6
331
2F8B
  5
2FB5
331
33B9
  5
33BB
331
33F0
  5
2F33
331
3343
  5
335F
331
3304
  5
3330
331
337A
  5
3385
331
2E60
  5
2E60
331
2E29
  5
2E29
331
3021
  5
3408
331
2F93
  5
2FBD
331
2FD2
  5
33CB
331
2EDE
  5
2EDE
331
2F1D
  5
2F47
331
2E31
  5
2E31
331
2E68
  5
2E68
331
2EA7
  5
2EA7
331
2F54
  5
2F7E
331
330C
  5
3338
331
334B
  5
3367
331
3382
  5
338D
331
2FDA
  5
33D3
331
3029
  5
3410
331
2F5C
  5
2F86
331
2F9B
  5
2FC5
331
2EAF
  5
2EAF
331
2EE6
  5
2EE6
331
2E39
  5
2E39
331
2E70
  5
2E70
331
2F25
  5
2F4F
331
33C1
  5
33C3
331
33F8
  5
2F3B
331
3400
  5
3025
331
3353
  5
336F
331
3314
  5
3341
331
338A
  5
3395
331
2FF2
  5
33D9
331
3031
  5
3418
331
2F64
  5
2F8E
331
2FA3
  5
2FCF
331
2EB7
  5
2EB7
331
2EEE
  5
2EEE
331
2E78
  5
2E78
331
2F2D
  5
2F57
331
33C9
  5
3311
331
33D1
  5
2F13
331
3408
  5
302D
331
335B
  5
32FA
331
331C
  5
3038
331
2FFA
  5
33E1
331
2F6C
  5
2F96
331
3392
  5
339D
331
2EF6
  5
2EF6
331
3410
  5
3009
331
3324
  5
32EF
331
339A
  5
330E
331
2E80
  5
2E80
331
2E41
  5
2E41
331
3002
  5
33E9
331
3039
  5
3420
331
2EFE
  5
2EFE
331
2F35
  5
2F5F
331
2E88
  5
2E88
331
2EBF
  5
2EBF
331
2E49
  5
2E49
331
2F74
  5
2F9E
331
2FAB
  5
2FD7
331
3418
  5
3012
331
33A2
  5
33A4
331
33D9
  5
2F1B
331
32ED
  5
3319
331
332C
  5
3348
331
3363
  5
3302
331
2F7C
  5
2FA6
331
2FB3
  5
2FF2
331
2F06
  5
2F06
331
2F3D
  5
2F67
331
2E51
  5
2E51
331
2E90
  5
2E90
331
2EC7
  5
2EC7
331
2E1A
  5
2E1A
331
300A
  5
33F1
331
3420
  5
301A
331
33AA
  5
33AC
331
33E1
  5
2F23
331
3334
  5
3350
331
3012
  5
33F9
331
2F84
  5
2FAE
331
2FBB
  5
2FFA
331
2F0E
  5
2F0E
331
2F45
  5
2F6F
331
32F5
  5
3321
331
2E22
  5
2E22
331
2E59
  5
2E59
331
2E98
  5
2E98
331
2ECF
  5
2ECF
331
336B
  5
3376
331
333C
  5
3358
331
32FD
  5
3329
331
3373
  5
337E
331
301A
  5
3401
331
33B2
  5
33B4
331
2F4D
  5
2F77
331
2F8C
  5
2FB6
331
2ED7
  5
2ED7
331
2F16
  5
2F40
331
2FC3
  5
3003
331
33E9
  5
2F2C
331
33BA
  5
33BC
331
33F1
  5
2F34
331
3344
  5
3360
331
3305
  5
3331
331
337B
  5
3386
331
2EA0
  5
2EA0
331
2E2A
  5
2E2A
331
2E61
  5
2E61
331
2FD3
  5
33CC
331
3022
  5
3409
331
2F1E
  5
2F48
331
2F55
  5
2F7F
331
2EA8
  5
2EA8
331
2EDF
  5
2EDF
331
2F94
  5
2FBE
331
2E32
  5
2E32
331
2E69
  5
2E69
331
33C2
  5
33C4
331
33F9
  5
2F3C
331
330D
  5
3339
331
334C
  5
3368
331
3383
  5
338E
331
2FDB
  5
33D4
331
302A
  5
3411
331
2F26
  5
2F50
331
2F5D
  5
2F87
331
2E71
  5
2E71
331
2EB0
  5
2EB0
331
2E3A
  5
2E3A
331
2EE7
  5
2EE7
331
2F9C
  5
2FC6
331
33CA
  5
3312
331
3401
  5
3026
331
3354
  5
3370
331
3032
  5
3419
331
3315
  5
3342
331
2FA4
  5
2FD0
331
2FF3
  5
33DA
331
2EEF
  5
2EEF
331
2E79
  5
2E79
331
2F2E
  5
2F58
331
2F65
  5
2F8F
331
338B
  5
3396
331
335C
  5
32FB
331
331D
  5
3039
331
2FFB
  5
33E2
331
2F6D
  5
2F97
331
3393
  5
3306
331
2EF7
  5
2EF7
331
33D2
  5
2F14
331
3409
  5
302E
331
3411
  5
300B
331
3325
  5
32F0
331
339B
  5
330F
331
2E42
  5
2E42
331
2E81
  5
2E81
331
2EB8
  5
2EB8
331
3003
  5
33EA
331
303A
  5
3421
331
2F75
  5
2F9F
331
2FAC
  5
2FD8
331
2EC0
  5
2EC0
331
2EFF
  5
2EFF
331
2F36
  5
2F60
331
2E4A
  5
2E4A
331
2E89
  5
2E89
331
3419
  5
3013
331
32EE
  5
331A
331
332D
  5
3349
331
3364
  5
3303
331
300B
  5
33F2
331
2F7D
  5
2FA7
331
2FB4
  5
2FF3
331
33A3
  5
33A5
331
33DA
  5
2F1C
331
2E91
  5
2E91
331
2EC8
  5
2EC8
331
2E1B
  5
2E1B
331
2E52
  5
2E52
331
2F07
  5
2F07
331
2F3E
  5
2F68
331
33AB
  5
33AD
331
33E2
  5
2F24
331
3335
  5
3351
331
32F6
  5
3322
331
336C
  5
3377
331
3013
  5
33FA
331
3421
  5
301B
331
2F0F
  5
2F0F
331
2F46
  5
2F70
331
2E5A
  5
2E5A
331
2E99
  5
2E99
331
2E23
  5
2E23
331
2ED0
  5
2ED0
331
2F85
  5
2FAF
331
2FBC
  5
2FFB
331
33B3
  5
33B5
331
33EA
  5
2F2D
331
333D
  5
3359
331
32FE
  5
332A
331
3374
  5
337F
331
2F8D
  5
2FB7
331
2FC4
  5
3004
331
2F17
  5
2F41
331
2F4E
  5
2F78
331
301B
  5
3402
331
33BB
  5
33BD
331
33F2
  5
2F35
331
3345
  5
3361
331
3306
  5
3332
331
337C
  5
3387
331
2E62
  5
2E62
331
2EA1
  5
2EA1
331
2E2B
  5
2E2B
331
2ED8
  5
2ED8
331
3023
  5
340A
331
2F95
  5
2FBF
331
2FD4
  5
33CD
331
2EE0
  5
2EE0
331
2F1F
  5
2F49
331
2E33
  5
2E33
331
2E6A
  5
2E6A
331
2EA9
  5
2EA9
331
2F56
  5
2F80
331
330E
  5
333A
331
334D
  5
3369
331
3384
  5
338F
331
2FDC
  5
33D5
331
302B
  5
3412
331
2F5E
  5
2F88
331
2F9D
  5
2FC7
331
2EB1
  5
2EB1
331
2EE8
  5
2EE8
331
2E3B
  5
2E3B
331
2E72
  5
2E72
331
2F27
  5
2F51
331
33C3
  5
33C5
331
33FA
  5
2F3D
331
33CB
  5
3313
331
3402
  5
3027
331
3355
  5
3371
331
3316
  5
3343
331
338C
  5
3397
331
2FF4
  5
33DB
331
3033
  5
341A
331
2F2F
  5
2F59
331
2F66
  5
2F90
331
2EF0
  5
2EF0
331
2FA5
  5
2FD1
331
2E7A
  5
2E7A
331
33D3
  5
2F15
331
340A
  5
302F
331
335D
  5
32FC
331
331E
  5
303A
331
2FFC
  5
33E3
331
2F6E
  5
2F98
331
3394
  5
3307
331
3412
  5
300C
331
3326
  5
32F1
331
339C
  5
339E
331
2E82
  5
2E82
331
2EB9
  5
2EB9
331
2E43
  5
2E43
331
2EF8
  5
2EF8
331
3004
  5
33EB
331
303B
  5
3422
331
2F00
  5
2F00
331
2F37
  5
2F61
331
2E8A
  5
2E8A
331
2EC1
  5
2EC1
331
2E14
  5
2E14
331
2E4B
  5
2E4B
331
2F76
  5
2FA0
331
2FAD
  5
2FD9
331
341A
  5
3014
331
33A4
  5
33A6
331
33DB
  5
2F1D
331
300C
  5
33F3
331
2F7E
  5
2FA8
331
2FB5
  5
2FF4
331
2F08
  5
2F08
331
2F3F
  5
2F69
331
32EF
  5
331B
331
332E
  5
334A
331
3365
  5
3304
331
2E53
  5
2E53
331
2E92
  5
2E92
331
2EC9
  5
2EC9
331
2E1C
  5
2E1C
331
3422
  5
301C
331
336D
  5
3378
331
33AC
  5
33AE
331
33E3
  5
2F25
331
3336
  5
3352
331
3014
  5
33FB
331
2F86
  5
2FB0
331
2FBD
  5
2FFC
331
2ED1
  5
2ED1
331
2F10
  5
2F10
331
2F47
  5
2F71
331
2E24
  5
2E24
331
2E5B
  5
2E5B
331
2E9A
  5
2E9A
331
32F7
  5
3323
331
333E
  5
335A
331
32FF
  5
332B
331
3375
  5
3380
331
301C
  5
3403
331
33B4
  5
33B6
331
2F4F
  5
2F79
331
2F8E
  5
2FB8
331
2FC5
  5
3005
331
33EB
  5
2F2E
331
33BC
  5
33BE
331
33F3
  5
2F36
331
3346
  5
3362
331
3307
  5
3333
331
337D
  5
3388
  0
XRECORD
  5
3501
102
{ACAD_REACTORS
330
32A1
102
}
330
32A1
100
AcDbXrecord
280
     1
102
SHADEPLOT
 70
     0
  0
XRECORD
  5
32A2
102
{ACAD_REACTORS
330
32A1
102
}
330
32A1
100
AcDbXrecord
280
     1
 90
        1
340
2A93
  0
XRECORD
  5
3502
102
{ACAD_REACTORS
330
32A5
102
}
330
32A5
100
AcDbXrecord
280
     1
102
SHADEPLOT
 70
     0
  0
XRECORD
  5
32A6
102
{ACAD_REACTORS
330
32A5
102
}
330
32A5
100
AcDbXrecord
280
     1
 90
        1
340
2A93
  0
XRECORD
  5
34F6
102
{ACAD_REACTORS
330
34F5
102
}
330
34F5
100
AcDbXrecord
280
     1
 40
2.0
  0
XRECORD
  5
34F7
102
{ACAD_REACTORS
330
34F5
102
}
330
34F5
100
AcDbXrecord
280
     1
 40
1.570796326794896
  0
LAYOUT
  5
2C4
102
{ACAD_XDICTIONARY
360
34F8
102
}
102
{ACAD_REACTORS
330
2C2
102
}
330
2C2
100
AcDbPlotSettings
  1

  2
Laser Wind 2080W
  4

  6

 40
0.0
 41
0.0
 42
0.0
 43
0.0
 44
0.0
 45
0.0
 46
0.0
 47
0.0
 48
0.0
 49
0.0
140
0.0
141
0.0
142
1.0
143
1.0
 70
  1712
 72
     0
 73
     0
 74
     0
  7

 75
     0
147
1.0
148
0.0
149
0.0
100
AcDbLayout
  1
Model
 70
     1
 71
     0
 10
0.0
 20
0.0
 11
12.0
 21
9.0
 12
0.0
 22
0.0
 32
0.0
 14
0.0
 24
0.0
 34
0.0
 15
0.0
 25
0.0
 35
0.0
146
0.0
 13
0.0
 23
0.0
 33
0.0
 16
1.0
 26
0.0
 36
0.0
 17
0.0
 27
1.0
 37
0.0
 76
     0
330
1A
  0
LAYOUT
  5
329A
102
{ACAD_XDICTIONARY
360
32AE
102
}
102
{ACAD_REACTORS
330
2C2
102
}
330
2C2
100
AcDbPlotSettings
  1

  2
ADJ-DV10-Q01
  4
A3
  6

 40
5.873749732971191
 41
5.873747825622558
 42
5.873748779296875
 43
5.873748779296875
 44
296.9259948730469
 45
419.9466552734374
 46
9.484286752640571
 47
12.53737612543557
 48
-49.64137794033433
 49
-30.68052761783207
140
333.4830284773126
141
235.5293952376656
142
1.0
143
1.0
 70
   676
 72
     1
 73
     1
 74
     4
  7
monochrome.ctb
 75
     0
147
1.451486313938036
148
49.64137794033433
149
30.68052761783207
100
AcDbLayout
  1
レイアウト1
 70
     1
 71
     1
 10
-68.05250284506678
 20
-46.03856410344383
 11
351.8941524283707
 21
250.887430769603
 12
0.0
 22
0.0
 32
0.0
 14
-49.64137794033433
 24
-30.68052761783207
 34
0.0
 15
333.4830284773126
 25
235.5293952376656
 35
0.0
146
0.0
 13
0.0
 23
0.0
 33
0.0
 16
1.0
 26
0.0
 36
0.0
 17
0.0
 27
1.0
 37
0.0
 76
     0
330
3299
331
32A0
1001
ACAD_PSEXT
1000
ADJ-DV10-Q01
1000
RICOH MP C4503 JPN RPCS
1000
TCP_172.16.140.81
1000

1070
     0
  0
MATERIAL
  5
2A71
102
{ACAD_XDICTIONARY
360
2A72
102
}
102
{ACAD_REACTORS
330
41B
102
}
330
41B
100
AcDbMaterial
  1
ByBlock
 72
     0
 43
0.0208333333333333
 43
0.0
 43
0.0
 43
0.0
 43
0.0
 43
0.0208333333333333
 43
0.0
 43
0.0
 43
0.0
 43
0.0
 43
1.0
 43
0.0
 43
0.0
 43
0.0
 43
0.0
 43
1.0
 77
     0
 47
0.0208333333333333
 47
0.0
 47
0.0
 47
0.0
 47
0.0
 47
0.0208333333333333
 47
0.0
 47
0.0
 47
0.0
 47
0.0
 47
1.0
 47
0.0
 47
0.0
 47
0.0
 47
0.0
 47
1.0
171
     0
 49
0.0208333333333333
 49
0.0
 49
0.0
 49
0.0
 49
0.0
 49
0.0208333333333333
 49
0.0
 49
0.0
 49
0.0
 49
0.0
 49
1.0
 49
0.0
 49
0.0
 49
0.0
 49
0.0
 49
1.0
175
     0
142
0.0208333333333333
142
0.0
142
0.0
142
0.0
142
0.0
142
0.0208333333333333
142
0.0
142
0.0
142
0.0
142
0.0
142
1.0
142
0.0
142
0.0
142
0.0
142
0.0
142
1.0
179
     0
144
0.0208333333333333
144
0.0
144
0.0
144
0.0
144
0.0
144
0.0208333333333333
144
0.0
144
0.0
144
0.0
144
0.0
144
1.0
144
0.0
144
0.0
144
0.0
144
0.0
144
1.0
147
0.0208333333333333
147
0.0
147
0.0
147
0.0
147
0.0
147
0.0208333333333333
147
0.0
147
0.0
147
0.0
147
0.0
147
1.0
147
0.0
147
0.0
147
0.0
147
0.0
147
1.0
  0
MATERIAL
  5
2A69
102
{ACAD_XDICTIONARY
360
2A6A
102
}
102
{ACAD_REACTORS
330
41B
102
}
330
41B
100
AcDbMaterial
  1
ByLayer
 72
     0
 43
0.0208333333333333
 43
0.0
 43
0.0
 43
0.0
 43
0.0
 43
0.0208333333333333
 43
0.0
 43
0.0
 43
0.0
 43
0.0
 43
1.0
 43
0.0
 43
0.0
 43
0.0
 43
0.0
 43
1.0
 77
     0
 47
0.0208333333333333
 47
0.0
 47
0.0
 47
0.0
 47
0.0
 47
0.0208333333333333
 47
0.0
 47
0.0
 47
0.0
 47
0.0
 47
1.0
 47
0.0
 47
0.0
 47
0.0
 47
0.0
 47
1.0
171
     0
 49
0.0208333333333333
 49
0.0
 49
0.0
 49
0.0
 49
0.0
 49
0.0208333333333333
 49
0.0
 49
0.0
 49
0.0
 49
0.0
 49
1.0
 49
0.0
 49
0.0
 49
0.0
 49
0.0
 49
1.0
175
     0
142
0.0208333333333333
142
0.0
142
0.0
142
0.0
142
0.0
142
0.0208333333333333
142
0.0
142
0.0
142
0.0
142
0.0
142
1.0
142
0.0
142
0.0
142
0.0
142
0.0
142
1.0
179
     0
144
0.0208333333333333
144
0.0
144
0.0
144
0.0
144
0.0
144
0.0208333333333333
144
0.0
144
0.0
144
0.0
144
0.0
144
1.0
144
0.0
144
0.0
144
0.0
144
0.0
144
1.0
147
0.0208333333333333
147
0.0
147
0.0
147
0.0
147
0.0
147
0.0208333333333333
147
0.0
147
0.0
147
0.0
147
0.0
147
1.0
147
0.0
147
0.0
147
0.0
147
0.0
147
1.0
  0
MATERIAL
  5
2A79
102
{ACAD_XDICTIONARY
360
2A7A
102
}
102
{ACAD_REACTORS
330
41B
102
}
330
41B
100
AcDbMaterial
  1
Global
 72
     0
 43
0.0208333333333333
 43
0.0
 43
0.0
 43
0.0
 43
0.0
 43
0.0208333333333333
 43
0.0
 43
0.0
 43
0.0
 43
0.0
 43
1.0
 43
0.0
 43
0.0
 43
0.0
 43
0.0
 43
1.0
 77
     0
 47
0.0208333333333333
 47
0.0
 47
0.0
 47
0.0
 47
0.0
 47
0.0208333333333333
 47
0.0
 47
0.0
 47
0.0
 47
0.0
 47
1.0
 47
0.0
 47
0.0
 47
0.0
 47
0.0
 47
1.0
171
     0
 49
0.0208333333333333
 49
0.0
 49
0.0
 49
0.0
 49
0.0
 49
0.0208333333333333
 49
0.0
 49
0.0
 49
0.0
 49
0.0
 49
1.0
 49
0.0
 49
0.0
 49
0.0
 49
0.0
 49
1.0
175
     0
142
0.0208333333333333
142
0.0
142
0.0
142
0.0
142
0.0
142
0.0208333333333333
142
0.0
142
0.0
142
0.0
142
0.0
142
1.0
142
0.0
142
0.0
142
0.0
142
0.0
142
1.0
179
     0
144
0.0208333333333333
144
0.0
144
0.0
144
0.0
144
0.0
144
0.0208333333333333
144
0.0
144
0.0
144
0.0
144
0.0
144
1.0
144
0.0
144
0.0
144
0.0
144
0.0
144
1.0
147
0.0208333333333333
147
0.0
147
0.0
147
0.0
147
0.0
147
0.0208333333333333
147
0.0
147
0.0
147
0.0
147
0.0
147
1.0
147
0.0
147
0.0
147
0.0
147
0.0
147
1.0
  0
MLEADERSTYLE
  5
2AB5
102
{ACAD_REACTORS
330
2AB4
102
}
330
2AB4
100
AcDbMLeaderStyle
170
     2
171
     1
172
     0
 90
        2
 40
0.0
 41
0.0
173
     1
 91
-1056964608
340
14
 92
       -2
290
     1
 42
2.0
291
     1
 43
0.36
  3
Standard
 44
4.0
300

342
10
174
     1
178
     6
175
     1
176
     0
 93
-1056964608
 45
4.0
292
     0
297
     0
 46
4.0
 94
-1056964608
 47
1.0
 49
1.0
140
1.0
293
     1
141
0.0
294
     1
177
     0
142
1.0
295
     0
296
     0
143
0.125
1001
ACAD_MLEADERVER
1070
     2
  0
MLINESTYLE
  5
13
102
{ACAD_REACTORS
330
E
102
}
330
E
100
AcDbMlineStyle
  2
STANDARD
 70
     0
  3

 62
     0
 51
90.0
 52
90.0
 71
     2
 49
0.5
 62
   256
  6
BYLAYER
 49
-0.5
 62
   256
  6
BYLAYER
  0
PLOTSETTINGS
  5
411
102
{ACAD_XDICTIONARY
360
34FA
102
}
102
{ACAD_REACTORS
330
2C3
102
}
330
2C3
100
AcDbPlotSettings
  1
A3form102A
  2
RICOH IPSiO CX9000 RPCS
  4
A3
  6

 40
5.873749732971191
 41
5.873747825622558
 42
5.873748779296875
 43
5.873748779296875
 44
296.9259948730469
 45
419.9466552734374
 46
0.0
 47
0.0
 48
0.0
 49
0.0
140
0.0
141
0.0
142
1.0
143
1.0
 70
  2736
 72
     1
 73
     1
 74
     5
  7
monochrome.ctb
 75
    16
147
1.0
148
0.0
149
0.0
1001
ACAD_PSEXT
1000
RICOH IPSiO CX9000 RPCS
1000
RICOH IPSiO CX9000 RPCS
1000
172.16.140.56@IPSiO_C4100:
1000
RPCS Driver (Windows 2000/XP/Server 2003)
1070
     0
  0
ACDBPLACEHOLDER
  5
2C1
102
{ACAD_REACTORS
330
2C0
102
}
330
2C0
  0
SCALE
  5
2A93
102
{ACAD_REACTORS
330
2A92
102
}
330
2A92
100
AcDbScale
 70
     0
300
1:1
140
1.0
141
1.0
290
     1
  0
SCALE
  5
2A94
102
{ACAD_REACTORS
330
2A92
102
}
330
2A92
100
AcDbScale
 70
     0
300
1:2
140
1.0
141
2.0
290
     0
  0
SCALE
  5
2A95
102
{ACAD_REACTORS
330
2A92
102
}
330
2A92
100
AcDbScale
 70
     0
300
1:4
140
1.0
141
4.0
290
     0
  0
SCALE
  5
2A96
102
{ACAD_REACTORS
330
2A92
102
}
330
2A92
100
AcDbScale
 70
     0
300
1:5
140
1.0
141
5.0
290
     0
  0
SCALE
  5
2A97
102
{ACAD_REACTORS
330
2A92
102
}
330
2A92
100
AcDbScale
 70
     0
300
1:8
140
1.0
141
8.0
290
     0
  0
SCALE
  5
2A98
102
{ACAD_REACTORS
330
2A92
102
}
330
2A92
100
AcDbScale
 70
     0
300
1:10
140
1.0
141
10.0
290
     0
  0
SCALE
  5
2A99
102
{ACAD_REACTORS
330
2A92
102
}
330
2A92
100
AcDbScale
 70
     0
300
1:16
140
1.0
141
16.0
290
     0
  0
SCALE
  5
2A9A
102
{ACAD_REACTORS
330
2A92
102
}
330
2A92
100
AcDbScale
 70
     0
300
1:20
140
1.0
141
20.0
290
     0
  0
SCALE
  5
2A9B
102
{ACAD_REACTORS
330
2A92
102
}
330
2A92
100
AcDbScale
 70
     0
300
1:30
140
1.0
141
30.0
290
     0
  0
SCALE
  5
2A9C
102
{ACAD_REACTORS
330
2A92
102
}
330
2A92
100
AcDbScale
 70
     0
300
1:40
140
1.0
141
40.0
290
     0
  0
SCALE
  5
2A9D
102
{ACAD_REACTORS
330
2A92
102
}
330
2A92
100
AcDbScale
 70
     0
300
1:50
140
1.0
141
50.0
290
     0
  0
SCALE
  5
2A9E
102
{ACAD_REACTORS
330
2A92
102
}
330
2A92
100
AcDbScale
 70
     0
300
1:100
140
1.0
141
100.0
290
     0
  0
SCALE
  5
2A9F
102
{ACAD_REACTORS
330
2A92
102
}
330
2A92
100
AcDbScale
 70
     0
300
2:1
140
2.0
141
1.0
290
     0
  0
SCALE
  5
2AA0
102
{ACAD_REACTORS
330
2A92
102
}
330
2A92
100
AcDbScale
 70
     0
300
4:1
140
4.0
141
1.0
290
     0
  0
SCALE
  5
2AA1
102
{ACAD_REACTORS
330
2A92
102
}
330
2A92
100
AcDbScale
 70
     0
300
8:1
140
8.0
141
1.0
290
     0
  0
SCALE
  5
2AA2
102
{ACAD_REACTORS
330
2A92
102
}
330
2A92
100
AcDbScale
 70
     0
300
10:1
140
10.0
141
1.0
290
     0
  0
SCALE
  5
2AA3
102
{ACAD_REACTORS
330
2A92
102
}
330
2A92
100
AcDbScale
 70
     0
300
100:1
140
100.0
141
1.0
290
     0
  0
SCALE
  5
2AA4
102
{ACAD_REACTORS
330
2A92
102
}
330
2A92
100
AcDbScale
 70
     0
300
1/128" = 1'-0"
140
0.0078125
141
12.0
290
     0
  0
SCALE
  5
2AA5
102
{ACAD_REACTORS
330
2A92
102
}
330
2A92
100
AcDbScale
 70
     0
300
1/64" = 1'-0"
140
0.015625
141
12.0
290
     0
  0
SCALE
  5
2AA6
102
{ACAD_REACTORS
330
2A92
102
}
330
2A92
100
AcDbScale
 70
     0
300
1/32" = 1'-0"
140
0.03125
141
12.0
290
     0
  0
SCALE
  5
2AA7
102
{ACAD_REACTORS
330
2A92
102
}
330
2A92
100
AcDbScale
 70
     0
300
1/16" = 1'-0"
140
0.0625
141
12.0
290
     0
  0
SCALE
  5
2AA8
102
{ACAD_REACTORS
330
2A92
102
}
330
2A92
100
AcDbScale
 70
     0
300
3/32" = 1'-0"
140
0.09375
141
12.0
290
     0
  0
SCALE
  5
2AA9
102
{ACAD_REACTORS
330
2A92
102
}
330
2A92
100
AcDbScale
 70
     0
300
1/8" = 1'-0"
140
0.125
141
12.0
290
     0
  0
SCALE
  5
2AAA
102
{ACAD_REACTORS
330
2A92
102
}
330
2A92
100
AcDbScale
 70
     0
300
3/16" = 1'-0"
140
0.1875
141
12.0
290
     0
  0
SCALE
  5
2AAB
102
{ACAD_REACTORS
330
2A92
102
}
330
2A92
100
AcDbScale
 70
     0
300
1/4" = 1'-0"
140
0.25
141
12.0
290
     0
  0
SCALE
  5
2AAC
102
{ACAD_REACTORS
330
2A92
102
}
330
2A92
100
AcDbScale
 70
     0
300
3/8" = 1'-0"
140
0.375
141
12.0
290
     0
  0
SCALE
  5
2AAD
102
{ACAD_REACTORS
330
2A92
102
}
330
2A92
100
AcDbScale
 70
     0
300
1/2" = 1'-0"
140
0.5
141
12.0
290
     0
  0
SCALE
  5
2AAE
102
{ACAD_REACTORS
330
2A92
102
}
330
2A92
100
AcDbScale
 70
     0
300
3/4" = 1'-0"
140
0.75
141
12.0
290
     0
  0
SCALE
  5
2AAF
102
{ACAD_REACTORS
330
2A92
102
}
330
2A92
100
AcDbScale
 70
     0
300
1" = 1'-0"
140
1.0
141
12.0
290
     0
  0
SCALE
  5
2AB0
102
{ACAD_REACTORS
330
2A92
102
}
330
2A92
100
AcDbScale
 70
     0
300
1-1/2" = 1'-0"
140
1.5
141
12.0
290
     0
  0
SCALE
  5
2AB1
102
{ACAD_REACTORS
330
2A92
102
}
330
2A92
100
AcDbScale
 70
     0
300
3" = 1'-0"
140
3.0
141
12.0
290
     0
  0
SCALE
  5
2AB2
102
{ACAD_REACTORS
330
2A92
102
}
330
2A92
100
AcDbScale
 70
     0
300
6" = 1'-0"
140
6.0
141
12.0
290
     0
  0
SCALE
  5
2AB3
102
{ACAD_REACTORS
330
2A92
102
}
330
2A92
100
AcDbScale
 70
     0
300
1'-0" = 1'-0"
140
12.0
141
12.0
290
     0
  0
TABLESTYLE
  5
41E
102
{ACAD_XDICTIONARY
360
325B
102
}
102
{ACAD_REACTORS
330
41D
102
}
330
41D
100
AcDbTableStyle
  3
Standard
 70
     0
 71
     0
 40
1.5
 41
1.5
280
     0
281
     0
  7
STANDARD
140
4.5
170
     2
 62
     0
 63
     7
283
     0
274
    -2
284
     1
 64
     0
275
    -2
285
     1
 65
     0
276
    -2
286
     1
 66
     0
277
    -2
287
     1
 67
     0
278
    -2
288
     1
 68
     0
279
    -2
289
     1
 69
     0
  7
STANDARD
140
6.0
170
     5
 62
     0
 63
     7
283
     0
274
    -2
284
     1
 64
     0
275
    -2
285
     1
 65
     0
276
    -2
286
     1
 66
     0
277
    -2
287
     1
 67
     0
278
    -2
288
     1
 68
     0
279
    -2
289
     1
 69
     0
  7
STANDARD
140
4.5
170
     5
 62
     0
 63
     7
283
     0
274
    -2
284
     1
 64
     0
275
    -2
285
     1
 65
     0
276
    -2
286
     1
 66
     0
277
    -2
287
     1
 67
     0
278
    -2
288
     1
 68
     0
279
    -2
289
     1
 69
     0
  0
VISUALSTYLE
  5
2A87
102
{ACAD_REACTORS
330
2A81
102
}
330
2A81
100
AcDbVisualStyle
  2
2dWireframe
 70
     4
 71
     0
 72
     2
 73
     0
 90
        0
 40
-0.6
 41
-30.0
 62
     5
 63
     7
 74
     1
 91
        4
 64
     7
 65
   257
 75
     1
175
     1
 42
1.0
 92
        0
 66
   257
 43
1.0
 76
     1
 77
     6
 78
     2
 67
     7
 79
     5
170
     0
171
     0
290
     0
174
     0
 93
        1
 44
0.0
173
     0
291
     0
 45
0.0
1001
ACAD
1000
AcDbSavedByObjectVersion
1070
     0
  0
VISUALSTYLE
  5
2A89
102
{ACAD_REACTORS
330
2A81
102
}
330
2A81
100
AcDbVisualStyle
  2
3D Hidden
 70
     6
 71
     1
 72
     2
 73
     2
 90
        0
 40
-0.6
 41
-30.0
 62
     5
 63
     7
 74
     2
 91
        2
 64
     7
 65
   257
 75
     2
175
     1
 42
40.0
 92
        0
 66
   257
 43
1.0
 76
     1
 77
     6
 78
     2
 67
     7
 79
     3
170
     0
171
     0
290
     0
174
     0
 93
        1
 44
0.0
173
     0
291
     0
 45
0.0
1001
ACAD
1000
AcDbSavedByObjectVersion
1070
     0
  0
VISUALSTYLE
  5
2A88
102
{ACAD_REACTORS
330
2A81
102
}
330
2A81
100
AcDbVisualStyle
  2
3dWireframe
 70
     5
 71
     0
 72
     2
 73
     0
 90
        0
 40
-0.6
 41
-30.0
 62
     5
 63
     7
 74
     1
 91
        4
 64
     7
 65
   257
 75
     1
175
     1
 42
1.0
 92
        0
 66
   257
 43
1.0
 76
     1
 77
     6
 78
     2
 67
     7
 79
     5
170
     0
171
     0
290
     0
174
     0
 93
        1
 44
0.0
173
     0
291
     0
 45
0.0
1001
ACAD
1000
AcDbSavedByObjectVersion
1070
     0
  0
VISUALSTYLE
  5
2A86
102
{ACAD_REACTORS
330
2A81
102
}
330
2A81
100
AcDbVisualStyle
  2
Basic
 70
     7
 71
     1
 72
     0
 73
     1
 90
        0
 40
-0.6
 41
-30.0
 62
     5
 63
     7
 74
     0
 91
        4
 64
     7
 65
   257
 75
     1
175
     1
 42
1.0
 92
        8
 66
     7
 43
1.0
 76
     1
 77
     6
 78
     2
 67
     7
 79
     5
170
     0
171
     0
290
     0
174
     0
 93
        1
 44
0.0
173
     0
291
     1
 45
0.0
1001
ACAD
1000
AcDbSavedByObjectVersion
1070
     0
  0
VISUALSTYLE
  5
2A8D
102
{ACAD_REACTORS
330
2A81
102
}
330
2A81
100
AcDbVisualStyle
  2
Brighten
 70
    12
 71
     2
 72
     2
 73
     0
 90
        0
 40
-0.6
 41
-30.0
 62
     5
 63
     7
 74
     1
 91
        4
 64
     7
 65
   257
 75
     1
175
     1
 42
1.0
 92
        8
 66
     7
 43
1.0
 76
     1
 77
     6
 78
     2
 67
     7
 79
     5
170
     0
171
     0
290
     0
174
     0
 93
        1
 44
50.0
173
     0
291
     1
 45
0.0
1001
ACAD
1000
AcDbSavedByObjectVersion
1070
     0
  0
VISUALSTYLE
  5
2A91
102
{ACAD_REACTORS
330
2A81
102
}
330
2A81
100
AcDbVisualStyle
  2
ColorChange
 70
    16
 71
     2
 72
     2
 73
     3
 90
        0
 40
-0.6
 41
-30.0
 62
     5
 63
     8
 74
     1
 91
        4
 64
     7
 65
   257
 75
     1
175
     1
 42
1.0
 92
        8
 66
     8
 43
1.0
 76
     1
 77
     6
 78
     2
 67
     7
 79
     5
170
     0
171
     0
290
     0
174
     0
 93
        1
 44
0.0
173
     0
291
     1
 45
0.0
1001
ACAD
1000
AcDbSavedByObjectVersion
1070
     0
  0
VISUALSTYLE
  5
2A8A
102
{ACAD_REACTORS
330
2A81
102
}
330
2A81
100
AcDbVisualStyle
  2
Conceptual
 70
     9
 71
     3
 72
     2
 73
     0
 90
        0
 40
-0.6
 41
-30.0
 62
     5
 63
     7
 74
     2
 91
        2
 64
     7
 65
   257
 75
     1
175
     1
 42
40.0
 92
        8
 66
     7
 43
1.0
 76
     1
 77
     6
 78
     2
 67
     7
 79
     3
170
     0
171
     0
290
     0
174
     0
 93
        1
 44
0.0
173
     0
291
     0
 45
0.0
1001
ACAD
1000
AcDbSavedByObjectVersion
1070
     0
  0
VISUALSTYLE
  5
2A8C
102
{ACAD_REACTORS
330
2A81
102
}
330
2A81
100
AcDbVisualStyle
  2
Dim
 70
    11
 71
     2
 72
     2
 73
     0
 90
        0
 40
-0.6
 41
-30.0
 62
     5
 63
     7
 74
     1
 91
        4
 64
     7
 65
   257
 75
     1
175
     1
 42
1.0
 92
        8
 66
     7
 43
1.0
 76
     1
 77
     6
 78
     2
 67
     7
 79
     5
170
     0
171
     0
290
     0
174
     0
 93
        1
 44
-50.0
173
     0
291
     1
 45
0.0
1001
ACAD
1000
AcDbSavedByObjectVersion
1070
     0
  0
VISUALSTYLE
  5
2A90
102
{ACAD_REACTORS
330
2A81
102
}
330
2A81
100
AcDbVisualStyle
  2
Facepattern
 70
    15
 71
     2
 72
     2
 73
     0
 90
        0
 40
-0.6
 41
-30.0
 62
     5
 63
     7
 74
     1
 91
        4
 64
     7
 65
   257
 75
     1
175
     1
 42
1.0
 92
        8
 66
     7
 43
1.0
 76
     1
 77
     6
 78
     2
 67
     7
 79
     5
170
     0
171
     0
290
     0
174
     0
 93
        1
 44
0.0
173
     0
291
     1
 45
0.0
1001
ACAD
1000
AcDbSavedByObjectVersion
1070
     0
  0
VISUALSTYLE
  5
2A82
102
{ACAD_REACTORS
330
2A81
102
}
330
2A81
100
AcDbVisualStyle
  2
Flat
 70
     0
 71
     2
 72
     1
 73
     1
 90
        2
 40
-0.6
 41
30.0
 62
     5
 63
     7
 74
     0
 91
        4
 64
     7
 65
   257
 75
     1
175
     1
 42
1.0
 92
        8
 66
     7
 43
1.0
 76
     1
 77
     6
 78
     2
 67
     7
 79
     5
170
     0
171
     0
290
     0
174
     0
 93
       13
 44
0.0
173
     0
291
     1
 45
0.0
1001
ACAD
1000
AcDbSavedByObjectVersion
1070
     0
  0
VISUALSTYLE
  5
2A83
102
{ACAD_REACTORS
330
2A81
102
}
330
2A81
100
AcDbVisualStyle
  2
FlatWithEdges
 70
     1
 71
     2
 72
     1
 73
     1
 90
        2
 40
-0.6
 41
30.0
 62
     5
 63
     7
 74
     1
 91
        4
 64
     7
 65
   257
 75
     1
175
     1
 42
1.0
 92
        0
 66
   257
 43
1.0
 76
     1
 77
     6
 78
     2
 67
     7
 79
     5
170
     0
171
     0
290
     0
174
     0
 93
       13
 44
0.0
173
     0
291
     1
 45
0.0
1001
ACAD
1000
AcDbSavedByObjectVersion
1070
     0
  0
VISUALSTYLE
  5
2A84
102
{ACAD_REACTORS
330
2A81
102
}
330
2A81
100
AcDbVisualStyle
  2
Gouraud
 70
     2
 71
     2
 72
     2
 73
     1
 90
        2
 40
-0.6
 41
30.0
 62
     5
 63
     7
 74
     0
 91
        4
 64
     7
 65
   257
 75
     1
175
     1
 42
1.0
 92
        0
 66
     7
 43
1.0
 76
     1
 77
     6
 78
     2
 67
     7
 79
     5
170
     0
171
     0
290
     0
174
     0
 93
       13
 44
0.0
173
     0
291
     1
 45
0.0
1001
ACAD
1000
AcDbSavedByObjectVersion
1070
     0
  0
VISUALSTYLE
  5
2A85
102
{ACAD_REACTORS
330
2A81
102
}
330
2A81
100
AcDbVisualStyle
  2
GouraudWithEdges
 70
     3
 71
     2
 72
     2
 73
     1
 90
        2
 40
-0.6
 41
30.0
 62
     5
 63
     7
 74
     1
 91
        4
 64
     7
 65
   257
 75
     1
175
     1
 42
1.0
 92
        0
 66
   257
 43
1.0
 76
     1
 77
     6
 78
     2
 67
     7
 79
     5
170
     0
171
     0
290
     0
174
     0
 93
       13
 44
0.0
173
     0
291
     1
 45
0.0
1001
ACAD
1000
AcDbSavedByObjectVersion
1070
     0
  0
VISUALSTYLE
  5
2A8F
102
{ACAD_REACTORS
330
2A81
102
}
330
2A81
100
AcDbVisualStyle
  2
Linepattern
 70
    14
 71
     2
 72
     2
 73
     0
 90
        0
 40
-0.6
 41
-30.0
 62
     5
 63
     7
 74
     1
 91
        4
 64
     7
 65
   257
 75
     7
175
     7
 42
1.0
 92
        8
 66
     7
 43
1.0
 76
     1
 77
     6
 78
     2
 67
     7
 79
     5
170
     0
171
     0
290
     0
174
     0
 93
        1
 44
0.0
173
     0
291
     1
 45
0.0
1001
ACAD
1000
AcDbSavedByObjectVersion
1070
     0
  0
VISUALSTYLE
  5
2A8B
102
{ACAD_REACTORS
330
2A81
102
}
330
2A81
100
AcDbVisualStyle
  2
Realistic
 70
     8
 71
     2
 72
     2
 73
     0
 90
        0
 40
-0.6
 41
-30.0
 62
     5
 63
     7
 74
     1
 91
        0
 64
     7
 65
   257
 75
     1
175
     1
 42
1.0
 92
        8
 66
     8
 43
1.0
 76
     1
 77
     6
 78
     2
 67
     7
 79
     5
170
     0
171
     0
290
     0
174
     0
 93
       13
 44
0.0
173
     0
291
     0
 45
0.0
1001
ACAD
1000
AcDbSavedByObjectVersion
1070
     0
  0
VISUALSTYLE
  5
2A8E
102
{ACAD_REACTORS
330
2A81
102
}
330
2A81
100
AcDbVisualStyle
  2
Thicken
 70
    13
 71
     2
 72
     2
 73
     0
 90
        0
 40
-0.6
 41
-30.0
 62
     5
 63
     7
 74
     1
 91
        4
 64
     7
 65
   257
 75
     1
175
     1
 42
1.0
 92
       12
 66
     7
 43
1.0
 76
     1
 77
     6
 78
     2
 67
     7
 79
     5
170
     0
171
     0
290
     0
174
     0
 93
        1
 44
0.0
173
     0
291
     1
 45
0.0
1001
ACAD
1000
AcDbSavedByObjectVersion
1070
     0
  0
DICTIONARYVAR
  5
3277
102
{ACAD_REACTORS
330
407
102
}
330
407
100
DictionaryVariables
280
     0
  1
1:1
  0
DICTIONARYVAR
  5
3276
102
{ACAD_REACTORS
330
407
102
}
330
407
100
DictionaryVariables
280
     0
  1
STANDARD
  0
DICTIONARYVAR
  5
438
102
{ACAD_REACTORS
330
407
102
}
330
407
100
DictionaryVariables
280
     0
  1
STANDARD
  0
DICTIONARYVAR
  5
408
102
{ACAD_REACTORS
330
407
102
}
330
407
100
DictionaryVariables
280
     0
  1
1
  0
DICTIONARYVAR
  5
3279
102
{ACAD_REACTORS
330
407
102
}
330
407
100
DictionaryVariables
280
     0
  1
0
  0
DICTIONARYVAR
  5
28D7
102
{ACAD_REACTORS
330
407
102
}
330
407
100
DictionaryVariables
280
     0
  1

  0
DICTIONARYVAR
  5
3278
102
{ACAD_REACTORS
330
407
102
}
330
407
100
DictionaryVariables
280
     0
  1
127
  0
DICTIONARY
  5
34F8
330
2C4
100
AcDbDictionary
280
     1
281
     1
  3
ACAD_XREC_ROUNDTRIP
360
34F9
  0
DICTIONARY
  5
32AE
330
329A
100
AcDbDictionary
280
     1
281
     1
  3
ACAD_XREC_ROUNDTRIP
360
3500
  3
ADSK_XREC_LAYOUTTHUMBNAIL
360
32AF
  0
DICTIONARY
  5
2A72
330
2A71
100
AcDbDictionary
280
     1
281
     1
  3
ACAD_XREC_ROUNDTRIP
360
34FE
  3
BUMPTILE
360
2A74
  3
DIFFUSETILE
360
2A73
  3
OPACITYTILE
360
2A77
  3
REFLECTIONTILE
360
2A76
  3
REFRACTIONTILE
360
2A78
  3
SPECULARTILE
360
2A75
  0
DICTIONARY
  5
2A6A
330
2A69
100
AcDbDictionary
280
     1
281
     1
  3
ACAD_XREC_ROUNDTRIP
360
34FD
  3
BUMPTILE
360
2A6C
  3
DIFFUSETILE
360
2A6B
  3
OPACITYTILE
360
2A6F
  3
REFLECTIONTILE
360
2A6E
  3
REFRACTIONTILE
360
2A70
  3
SPECULARTILE
360
2A6D
  0
DICTIONARY
  5
2A7A
330
2A79
100
AcDbDictionary
280
     1
281
     1
  3
ACAD_XREC_ROUNDTRIP
360
34FF
  3
BUMPTILE
360
2A7C
  3
DIFFUSETILE
360
2A7B
  3
OPACITYTILE
360
2A7F
  3
REFLECTIONTILE
360
2A7E
  3
REFRACTIONTILE
360
2A80
  3
SPECULARTILE
360
2A7D
  0
DICTIONARY
  5
34FA
330
411
100
AcDbDictionary
280
     1
281
     1
  3
ACAD_XREC_ROUNDTRIP
360
34FB
  0
DICTIONARY
  5
325B
330
41E
100
AcDbDictionary
280
     1
281
     1
  3
ACAD_ROUNDTRIP_2008_TABLESTYLE_CELLSTYLEMAP
360
34F3
  3
ACAD_XREC_ROUNDTRIP
360
34FC
  0
XRECORD
  5
34F9
102
{ACAD_REACTORS
330
34F8
102
}
330
34F8
100
AcDbXrecord
280
     1
102
SHADEPLOT
 70
     0
102
SHADEPLOTRESLEVEL
 70
     2
102
SHADEPLOTCUSTOMDPI
 70
   300
  0
XRECORD
  5
3500
102
{ACAD_REACTORS
330
32AE
102
}
330
32AE
100
AcDbXrecord
280
     1
102
SHADEPLOT
 70
     0
102
SHADEPLOTRESLEVEL
 70
     2
102
SHADEPLOTCUSTOMDPI
 70
   300
  0
XRECORD
  5
32AF
102
{ACAD_REACTORS
330
32AE
102
}
330
32AE
100
AcDbXrecord
280
     1
310
28000000B40000007F00000001000800000000004C590000000000000000000000010000000000000000000000FF0000000000000000000000000000000000000000000000000000000000000000000000000000330000006600000099000000CC000000FF00000000330000333300006633000099330000CC330000FF3300
310
0000660000336600006666000099660000CC660000FF66000000990000339900006699000099990000CC990000FF99000000CC000033CC000066CC000099CC0000CCCC0000FFCC000000FF000033FF000066FF000099FF0000CCFF0000FFFF000000003300330033006600330099003300CC003300FF003300003333003333
310
33006633330099333300CC333300FF33330000663300336633006666330099663300CC663300FF66330000993300339933006699330099993300CC993300FF99330000CC330033CC330066CC330099CC3300CCCC3300FFCC330000FF330033FF330066FF330099FF3300CCFF3300FFFF330000006600330066006600660099
310
006600CC006600FF00660000336600333366006633660099336600CC336600FF33660000666600336666006666660099666600CC666600FF66660000996600339966006699660099996600CC996600FF99660000CC660033CC660066CC660099CC6600CCCC6600FFCC660000FF660033FF660066FF660099FF6600CCFF6600
310
FFFF660000009900330099006600990099009900CC009900FF00990000339900333399006633990099339900CC339900FF33990000669900336699006666990099669900CC669900FF66990000999900339999006699990099999900CC999900FF99990000CC990033CC990066CC990099CC9900CCCC9900FFCC990000FF99
310
0033FF990066FF990099FF9900CCFF9900FFFF99000000CC003300CC006600CC009900CC00CC00CC00FF00CC000033CC003333CC006633CC009933CC00CC33CC00FF33CC000066CC003366CC006666CC009966CC00CC66CC00FF66CC000099CC003399CC006699CC009999CC00CC99CC00FF99CC0000CCCC0033CCCC0066CC
310
CC0099CCCC00CCCCCC00FFCCCC0000FFCC0033FFCC0066FFCC0099FFCC00CCFFCC00FFFFCC000000FF003300FF006600FF009900FF00CC00FF00FF00FF000033FF003333FF006633FF009933FF00CC33FF00FF33FF000066FF003366FF006666FF009966FF00CC66FF00FF66FF000099FF003399FF006699FF009999FF00CC
310
99FF00FF99FF0000CCFF0033CCFF0066CCFF0099CCFF00CCCCFF00FFCCFF0000FFFF0033FFFF0066FFFF0099FFFF00CCFFFF00FFFFFF00000000000D0D0D001A1A1A00282828003535350043434300505050005D5D5D006B6B6B00787878008686860093939300A1A1A100AEAEAE00BBBBBB00C9C9C900D6D6D600E4E4E400
310
F1F1F100FFFFFF0000000000000000000000000000000000000000000000000000000000000000000000000000000000F5F5F5F5F5F5F5F5F5F5F5F5F5F5F5F5F5F5F5F5F5F5F5F5F5F5F5F5F5F5F5F5F5F5F5F5F5F5F5F5F5F5F5F5F5F5F5F5F5F5F5F5F5F5F5F5F5F5F5F5F5F5F5F5F5F5F5F5F5F5F5F5F5F5F5F5F5F5F5
310
F5F5F5F5F5F5F5F5F5F5F5F5F5F5F5F5F5F5F5F5F5F5F5F5F5F5F5F5F5F5F5F5F5F5F5F5F5F5F5F5F5F5F5F5F5F5F5F5F5F5F5F5F5F5F5F5F5F5F5F5F5F5F5F5F5F5F5F5F5F5F5F5F5F5F5F5F5F5F5F5F5F5F5F5F5F5F5F5F5F5F5F5F5F5F5F5F5F5F5F5F5F5E2E2E2E2E2E2E2E2E2E2E2E2E2E2E2E2E2E2E2E2E2E2E2E2E2
310
E2E2E2E2E2E2E2E2E2E2E2E2E2E2E2E2E2E2E2E2E2E2E2E2E2E2E2E2E2E2E2E2E2E2E2E2E2E2E2E2E2E2E2E2E2E2E2E2E2E2E2E2E2E2E2E2E2E2E2E2E2E2E2E2E2E2E2E2E2E2E2E2E2E2E2E2E2E2E2E2E2E2E2E2E2E2E2E2E2E2E2E2E2E2E2E2E2E2E2E2E2E2E2E2E2E2E2E2E2E2E2E2E2E2E2E2E2E2E2E2E2E2E2E2E2E2E2
310
E2E2E2E2E2E2E2E2E2E2E2E2E2E2E2E2E2E2E2E2E2E2E2E2E2F5F5F5E2E2E2E2E2E2E2E2E2E2E2E2E2E2E2E2E2E2E2E2E2E2E2E2E2E2E2E2E2E2E2E2E2E2E2E2E2E2E2E2E2E2E2E2E2E2E2E2E2E2E2E2E2E2E2E2E2E2E2E2E2E2E2E2E2E2E2E2E2E2E2E2E2E2E2E2E2E2E2E2E2E2E2E2E2E2E2E2E2E2E2E2E2E2E2E2E2E2E2
310
E2E2E2E2E2E2E2E2E2E2E2E2E2E2E2E2E2E2E2E2E2E2E2E2E2E2E2E2E2E2E2E2E2E2E2E2E2E2E2E2E2E2E2E2E2E2E2E2E2E2E2E2E2E2E2E2E2E2E2E2E2E2E2E2E2E2E2E2E2E2E2E2E2E2E2E2E2E2F5F5F5E2E2F5F5F5F5F5F5F5F5E2E2E2E2E2E2E2E2E2F5F5F5F5F5F5F5F5F5F5F5F5F5F5F5F5E2E2E2E2E2E2E2E2E2F5F5
310
F5F5F5F5F5F5F5F5F5F5F5F5F5F5E2E2E2E2E2E2E2E2F5F5F5F5F5F5F5F5F5F5F5F5F5F5F5F5E2E2E2E2E2E2E2E2E2F5F5F5F5F5F5F5F5F5F5F5F5F5F5F5F5E2E2E2E2E2E2E2E2F5F5F5F5F5F5F5F5F5F5F5F5F5F5F5F5E2E2E2E2E2E2E2E2E2F5F5F5F5F5F5F5F5F5F5F5F5F5F5F5F5E2E2E2E2E2E2E2E2E2F5F5F5F5F5F5
310
F5F5E2E2F5F5F5E2E2F5E2E2E2E2E2E2E2E2E2E2E2E2E2E2E2E2E2E2E2E2E2E2E2E2E2E2E2E2E2E2E2E2E2E2E2E2E2E2E2E2E2E2E2E2E2E2E2E2E2E2E2E2E2E2E2E2E2E2E2E2E2E2E2E2E2E2E2E2E2E2E2E2E2E2E2E2E2E2E2E2E2E2E2E2E2E2E2E2E2E2E2E2E2E2E2E2E2E2E2E2E2E2E2E2E2E2E2E2E2E2E2E2E2E2E2E2E2
310
E2E2E2E2E2E2E2E2E2E2E2E2E2E2E2E2E2E2E2E2E2E2E2E2E2E2E2E2E2E2E2E2E2E2E2E2E2E2E2E2E2E2E2E2E2E2E2E2E2E2E2E2E2E2F5E2E2F5F5F5E2E2F5E2E2E2E2E2E2E2E2E2E2E2E2E2E2E2E2E2E2E2E2E2E2E2E2E2E2E2E2E2E2E2E2E2E2E2E2E2E2E2E2E2E2E2E2E2E2E2E2E2E2E2E2E2E2E2E2E2E2E2E2E2E2E2E2
310
E2E2E2E2E2E2E2E2E2E2E2E2E2E2E2E2E2E2E2E2E2E2E2E2E2E2E2E2E2E2E2E2E2E2E2E2E2E2E2E2E2E2E2E2E2E2E2E2E2E2E2E2E2E2E2E2E2E2E2E2E2E2E2E2E2E2E2E2E2E2E2E2E2E2E2E2E2E2E2E2E2E2E2E2E2E2E2E2E2E2E2E2E2E2E2E2E2E2E2E2E2E2E2E2E2E2E2F5E2E2F5F5F5E2E2F5E2E2E2E2E2E2E2E2E2E2E2
310
E2E2E2E2E2E2E2E2E2E2E2E2E2E2E2E2E2E2E2E2E2E2E2E2E2E2E2E2E2E2E2E2E2E2E2E2E2E2E2E2E2E2E2E2E2E2E2E2E2E2E2E2E2E2E2E2E2E2E2E2E2E2E2E2E2E2E2E2E2E2E2E2E2E2E2E2E2E2E2E2E2E2E2E2E2E2E2E2E2E2E2E2E2E2E2E2E2E2E2E2E2E2E2E2E2E2E2E2E2E2E2E2E2E2E2E2E2E2E2E2E2E2E2E2E2E2E2
310
E2E2E2E2E2E2E2E2E2E2E2E2E2E2E2E2E2E2E2E2E2E2E2E2E2E2E2E2E2E2E2E2E2F5E2E2F5F5F5E2E2F5E2E2E2E2F5F5F5F5F5F5F5F5F5F5F5F5F5F5F5F5F5F5F5F5F5F5F5F5F5F5F5F5F5F5F5F5F5F5F5F5F5F5F5F5F5F5F5F5F5F5F5F5F5F5F5F5F5F5F5F5F5F5F5F5F5F5F5F5F5F5F5F5F5F5F5F5F5F5F5F5F5F5F5F5F5
310
F5F5F5F5F5F5F5F5F5F5F5F5F5F5F5F5F5F5F5F5F5F5F5F5F5F5F5F5F5F5F5F5F5F5F5F5F5F5F5F5F5F5F5F5F5F5F5F5F5F5F5F5F5F5F5F5F5F5F5F5F5F5F5F5F5F5F5F5F5F5F5F5F5F5F5F5F5F5F5F5F5F5E2E2E2E2F5E2E2F5F5F5E2E2F5E2E2E2E2F5E2E2E2E2E2E2E2E2E2E2E2E2E2E2E2E2E2E2E2E2E2E2E2E2E2E2E2
310
E2E2E2E2E2E2E2E2E2E2E2E2E2E2E2E2E2E2E2E2E2E2E2E2E2E2E2E2E2E2E2E2E2E2E2E2E2E2E2E2E2E2E2E2E2E2E2E2E2E2E2E2E2E2E2E2E2E2E2E2E2E2E2E2E2E2E2E2E2E2E2E2E2E2E2E2E2E2E2E2E2E2E2E2E2E2E2E2E2E2E2E2E2E2E2E2E2E2E2E2E2E2E2E2E2E2E2E2E2E2E2E2E2E2E2E2E2E2E2E2E2E2E2E2E2E2E2
310
E2E2E2E2E2E2E2F5E2E2E2E2F5E2E2F5F5F5E2E2F5E2E2E2E2F5E2E2E2E2E2E2E2E2E2E2E2E2E2E2E2E2E2E2E2E2E2E2E2E2E2E2E2E2E2E2E2E2E2E2E2E2E2E2E2E2E2E2E2E2E2E2E2E2E2E2E2E2E2E2E2E2E2E2E2E2E2E2E2E2E2E2E2E2E2E2E2E2E2E2E2E2E2E2E2E2E2E2E2E2E2E2E2E2E2E2E2E2E2E2E2E2E2E2E2E2E2
310
E2E2E2E2E2E2E2E2E2E2E2E2E2E2E2E2E2E2E2E2E2E2E2E2E2E2E2E2E2E2E2E2E2E2E2E2E2E2E2E2E2E2E2E2E2E2E2E2E2E2E2E2E2E2E2E2E2E2E2E2F5E2E2E2E2F5E2E2F5F5F5E2E2F5E2E2E2E2F5E2E2E2E2E2E2E2E2E2E2E2E2E2E2E2E2E2E2E2E2E2E2E2E2E2E2E2E2E2E2E2E2E2E2E2E2E2E2E2E2E2E2E2E2E2E2E2E2
310
E2E2E2E2E2E2E2E2E2E2E2E2E2E2E2E2E2E2E2E2E2E2E2E2E2E2E2E2E2E2E2E2E2E2E2E2E2E2E2E2E2E2E2E2E2E2E2E2E2E2E2E2E2E2E2E2E2E2E2E2E2E2E2E2E2E2E2E2E2E2E2E2E2E2E2E2E2E2E2E2E2E2E2E2E2E2E2E2E2E2E2E2E2E2E2E2E2E2E2E2E2E2E2E2E2E2E2E2E2E2E2E2E2F5E2E2E2E2F5E2E2F5F5F5E2E2E2
310
E2E2E2E2F5E2E2E2E2E2E2E2E2E2E2E2E2E2E2E2E2E2E2E2E2E2E2E2E2E2E2E2E2E2E2E2E2E2E2E2E2E2E2E2E2E2E2E2E2E2E2E2E2E2E2E2E2E2E2E2E2E2E2E2E2E2E2E2E2E2E2E2E2E2E2E2E2E2E2E2E2E2E2E2E2E2E2E2E2E2E2E2E2E2E2E2E2E2E2E2E2E2E2E2E2E2E2E2E2E2E2E2E2E2E2E2E2E2E2E2E2E2E2E2E2E2E2
310
E2E2E2E2E2E2E2E2E2E2E2E2E2E2E2E2E2E2E2E2E2E2E2E2E2E2E2E2E2E2E2E2E2E2E2E2E2E2E2F5E2E2E2E2E2E2E2F5F5F5E2E2E2E2E2E2E2F5E2E2E2E2E2E2E2E2E2E2E2E2E2E2E2E2E2E2E2E2E2E2E2E2E2E2E2E2E2E2E2E2E2E2E2E2E2E2E2E2E2E2E2E2E2E2E2E2E2E2E2E2E2E2E2E2E2E2E2E2E2E2E2E2E2E2E2E2E2
310
E2E2E2E2E2E2E2E2E2E2E2E2E2E2E2E2E2E2E2E2E2E2E2E2E2E2E2E2E2E2E2E2E2E2E2E2E2E2E2E2E2E2E2E2E2E2E2E2E2E2E2E2E2E2E2E2E2E2E2E2E2E2E2E2E2E2E2E2E2E2E2E2E2E2E2E2E2E2E2E2E2E2E2E2E2E2E2E2E2E2E2E2F5E2E2E2E2E2E2E2F5F5F5E2E2E2E2E2E2E2F5E2E2E2E2E2E2E2E2E2E2E2E2E2E2E2E2
310
E2E2E2E2E2E2E2E2E2E2E2E2E2E2E2E2E2E2E2E2E2E2E2E2E2E2E2E2E2E2E2E2E2E2E2E2E2E2E2E2E2E2E2E2E2E2E2E2E2E2E2E2E2E2E2E2E2E2E2E2E2E2E2E2E2E2E2E2E2E2E2E2E2E2E2E2E2E2E2E2E2E2E2E2E2E2E2E2E2E2E2E2E2E2E2E2E2E2E2E2E2E2E2E2E2E2E2E2E2E2E2E2E2E2E2E2E2E2E2E2E2E2E2E2E2E2E2
310
E2E2E2E2E2E2E2E2E2E2E2E2E2E2E2E2E2E2F5E2E2E2E2E2E2E2F5F5F5E2E2E2E2E2E2E2F5E2E2E2E2E2E2E2E2E2E2E2E2E2E2E2E2E2E2E2E2E2E2E2E2E2E2E2E2E2E2E2E2E2E2E2E2E2E2E2E2E2E2E2E2E2E2E2E2E2E2E2E2E2E2E2E2E2E2E2E2E2E2E2E2E2E2E2E2E2E2E2E2E2E2E2E2E2E2E2E2E2E2E2E2E2E2E2E2E2E2
310
E2E2E2E2E2E2E2E2E2E2E2E2E2E2E2E2E2E2E2E2E2E2E2E2E2E2E2E2E2E2E2E2E2E2E2E2E2E2E2E2E2E2E2E2E2E2E2E2E2E2E2E2E2E2E2E2E2E2E2E2E2E2E2E2E2E2E2E2E2E2E2F5E2E2E2E2E2E2E2F5F5F5E2E2E2E2E2E2E2F5E2E2E2E2E2E2E2E2E2E2E2E2E2E2E2E2E2E2E2E2E2E2E2E2E2E2E2E2E2E2E2E2E2E2E2E2E2
310
E2E2E2E2E2E2E2E2E2E2E2E2E2E2E2E2E2E2E2E2E2E2E2E2E2E2E2E2E2E2E2E2E2E2E2E2E2E2E2E2E2E2E2E2E2E2E2E2E2E2E2E2E2E2E2E2E2E2E2E2E2E2E2E2E2E2E2E2E2E2E2E2E2E2E2E2E2E2E2E2E2E2E2E2E2E2E2E2E2E2E2E2E2E2E2E2E2E2E2E2E2E2E2E2E2E2E2E2E2E2E2E2E2E2E2E2E2E2E2E2E2E2E2E2F5E2E2
310
E2E2E2E2E2F5F5F5E2E2E2E2E2E2E2F5E2E2E2E2E2E2E2E2E2E2E2E2E2E2E2E2E2E2E2E2E2E2E2E2F0E2E2F0E2E2E2E2E2E2E2E2E2E2E2E2E2E2E2E2E2E2E2E2E2E2E2E2E2E2E2E2E2E2E2E2E2E2E2E2E2E2E2E2E2E2E2E2E2E2E2E2E2E2E2F0E2E2F0E2E2E2E2E2E2E2E2E2E2E2E2E2E2E2E2E2E2E2E2E2E2E2F0E2E2F0E2
310
E2E2E2E2E2E2E2E2E2E2E2E2E2E2E2E2E2E2E2E2E2E2E2E2E2E2E2E2E2E2E2E2E2E2E2E2E2E2E2E2F0E2E2F0E2E2E2E2E2E2F5E2E2E2E2E2E2E2F5F5F5E2E2E2E2E2E2E2F5E2E2E2E2E2E2E2E2E2E2E2E2E2E2E2E2E2E2E2E2E2E2E2E2F0DCDCF0F0F0F0F0F0F0F0F0F0F0F0F0F0F0F0F0F0F0F0F0F0F0F0DCDCDCDCF0F0F0
310
F0F0F0F0F0F0F0F0F0F0F0F0F0F0F0F0F0F0F0F0F0DCDCDCF0E2E2E2E2E2E2E2E2E2E2E2E2E2E2E2E2E2E2E2E2E2F0F0F0DCDCF0F0F0F0F0F0F0F0F0F0F0F0F0F0F0F0F0F0F0F0DCDCDCDCF0F0F0F0F0F0F0F0F0F0F0F0F0F0F0F0F0F0F0DCDCF0F0F0E2E2E2E2F5E2E2E2E2E2E2E2F5F5F5E2E2E2E2E2E2E2F5E2E2E2E2E2
310
E2E2E2E2E2E2E2E2E2E2E2E2E2E2E2E2E2E2E2F0DCDCF0E2E2E2E2E2E2E2E2E2E2E2E2E2E2E2E2E2E2E2E2E2E2E2DCDCDCDCE2E2E2E2E2E2E2E2E2E2E2E2E2E2E2E2E2E2E2E2E2E2E2E2DCDCDCF0E2E2E2E2E2E2E2E2E2E2E2E2E2E2E2E2E2E2E2E2E2E2E2DCDCDCF0E2E2E2E2E2E2E2E2E2E2E2E2E2E2E2E2E2E2DCDCDCDC
310
DCE2E2E2E2E2E2E2E2E2E2E2E2E2E2E2E2E2E2F0DCDCDCE2E2E2E2E2E2F5E2E2E2E2E2E2E2F5F5F5E2E2E2E2E2E2E2F5E2E2E2E2E2E2E2E2E2E2E2E2E2E2E2E2E2E2E2E2E2E2E2E2F0DCDCF0E2E2E2E2E2E2E2E2E2E2E2E2E2E2E2E2E2E2E2E2E2E2E2DCDCDCDCE2E2E2E2E2E2E2E2E2E2E2E2E2E2E2E2E2E2E2E2E2E2E2E2
310
DCDCDCF0E2E2E2E2E2E2E2E2E2E2E2E2E2E2E2E2E2E2E2E2E2E2E2DCDCDCF0E2E2E2E2E2E2E2E2E2E2E2E2E2E2E2E2E2E2E2DCDCDCDCE2E2E2E2E2E2E2E2E2E2E2E2E2E2E2E2E2E2F0DCDCDCE2E2E2E2E2E2F5E2E2E2E2E2E2E2F5F5F5E2E2F5E2E2E2E2F5E2E2E2E2E2E2E2E2E2E2E2E2E2E2E2E2E2E2E2E2E2E2E2E2F0E2
310
E2F0E2E2E2E2E2E2E2E2E2E2E2E2E2E2E2E2E2E2E2E2E2E2E2E2E2E2E2E2E2E2E2E2E2E2E2E2E2E2E2E2E2E2E2E2E2E2E2E2E2E2E2F0E2E2F0E2E2E2E2E2E2E2E2E2E2E2E2E2E2E2E2E2E2E2E2E2E2E2F0E2E2F0E2E2E2E2E2E2E2E2E2E2E2E2E2E2E2E2E2E2E2E2E2E2E2E2E2E2E2E2E2E2E2E2E2E2E2E2E2E2E2E2E2F0E2
310
E2F0E2E2E2E2E2E2F5E2E2E2E2F5E2E2F5F5F5E2E2F5E2E2E2E2F5E2E2E2E2E2E2E2E2E2E2E2E2E2E2E2E2E2E2E2E2E2E2E2E2F0BEBEF0BEBEBEE2E2E2E2E2E2E2E2E2E2E2E2E2E2E2E2E2E2E2E2E2E2E2E2E2E2E2E2E2E2E2E2E2E2E2E2E2E2E2E2E2E2E2E2BEBEBEBEF0F0F0F0F0F0F0F0F0F0F0F0F0F0F0F0E2E2E2E2E2
310
E2E2E2E2E2BEF0BEBEF0BEBEBEE2E2E2E2E2E2E2E2E2E2E2E2E2E2E2E2E2E2E2E2E2E2E2E2E2E2E2E2E2E2E2E2E2E2E2BEBEBEF0BEBEF0BEE2E2E2E2E2F5E2E2E2E2F5E2E2F5F5F5E2E2F5E2E2E2E2F5E2E2E2E2E2E2E2E2E2E2E2E2E2E2E2E2E2E2E2E2E2E22D2DF0BEBEBEBEBEBEE2E2E2E2E2E2E2E2E2E2E2E2E2E2E2E2
310
E2E2E2E2E2E2E2E2E2E2E2E2E2E2E2E2E2E2E2E2E2E2E2E2E2E2E2E2BEBEBEBEBEBEBEF0E2E2E2E2E2E2E2E2E2F0F0E2E2E2E2E2E2E2E2E2E2E2E2F0BEBEBEBEBEBEE2E2E2E2E2E2E2E2E2E2E22DE2E22DE2E2E2E2E2E2E2E2E2E2E2E2E2E2E2E2E2E2E2E2BEBEBEBEBEBEF0BEE2E2E2E2E2F5E2E2E2E2F5E2E2F5F5F5E2E2
310
F5E2E2E2E2F5E2E2E2E2E2E2E2E2E2E2E2E2E2E2E2E2E2E2E2E2E22D2D2DF02D282828CACACACACACAE2E2E2E2E2E2E2E2E2E2E2E2E2E2E2E2E2E2E2E2E2E2E2E2E2E2E2E2E2E2E2E2E2E2E2E2CACACACACACACA2828CACAF0E2E2E2E2E2E2E2E2E2E2F0E2E2E2E2E2E2E2E2E2E2E2E2F0CA2828CACACACACACACACACACACA
310
CACACA2D2D2D2DCACACACACACACACACACACACACACACACACACACACACACACA2828CAF0E2E2E2E2E2E2F5E2E2E2E2F5E2E2F5F5F5E2E2F5E2E2E2E2F5E2E2E2E2E2E2E2E2E2E2E2E2E2E2E2E2E2E2E2E2E2E22D2DF0E2E2E2E2E2E2E2E2E2CACACACACACACACACACACACACACACACACACACACACACACACACACACACACACACACACACA
310
CACACACAE2E2E2E2E2E2E2E2E2E2F0E2E2E2E2E2E2E2E2E2E2F0E2E2E2E2E2E2E2E2E2E2E2E2F0E2E2E2E2E2E2E2E2E2E2E2E2E2E2E2E2E2E2E2E2E2E2E2E2E2E2E2E2E2E2E2E2E2E2E2E2E2E2E2E2E2E2E2E2E2E2E2F0E2E2E2E2E2E2F5E2E2E2E2F5E2E2F5F5F5E2E2F5E2E2E2E2F5E2E2E2E2E2E2E2E2E2E2E2E2E2E2E2
310
E2E2E2E2E2E2E2E2E2CAE2E2E2E2E2E2E2E2E2CAE2E2E2E2E2E2E2E2E2E2E2E2E2E2E2E2E2E2E2E2E2E2E2E2E2E2E2E2E2E2E2E2E2E2E2E2CAE2E2E2E2E2E2E2E2E2E2CAE2E2E2E2E2E2E2E2DCE2F0E2E2E2E2E2E2E2E2E2E2E2E2CAE2E2E2E2E2E2E2E2E2E2E2E2E2E2E2E2E2E2E2E2E2E2E2E2E2E2E2E2E2E2E2E2E2E2E2
310
E2E2E2E2E2E2E2E2E2E2E2E2CAE2E2E2E2E2E2F5E2E2E2E2F5E2E2F5F5F5E2E2F5E2E2E2E2F5E2E2E2E2E2E2E2E2E2E2E2E2E2E2E2E2E2E2E2E2E2E2E2F5F0F5F5F5F5F5F5F5F5F5F5F5F5F5F5F5F5F5F5F5F5F5F5F5F5F5F5F5F5F5F5F5F5F5F5F5F5F5F5F5F5F5F5F5F5F5F5F5F5F5F5F5F5F5F5F5F5F0F0F0F0F0F0F0F0
310
F0F0DCDCF0E2E2E2E2E2E2E2E2E2E2F5F0F0F5F5F5F5F5F5F5F5F5F5F5F5F5F5F5F5F5F5F5F5F5F5F5F5F5F5F5F5F5F5F5F5F5F5F5F5F5F5F5F5F5F5F5F5F5F5F5F0F0F5E2E2E2E2F5E2E2E2E2F5E2E2F5F5F5E2E2F5E2E2E2E2F5E2E2E2E2E2E2E2E2E2E2E2E2E2E2E2E2E2E2E2E2E2E2E2F5F0F5E2E2E2E2E2E2E2E2E2E2
310
E2E2E2E2E2E2E2E2E2E2E2E2E2E2E2E2E2E2E2E2E2E2E2E2E2E2E2E2E2E2E2E2E2E2E2E2E2E2E2E2E2E2E2E2F5F0F0F5E2E2E2E2E2F0F0DCDCF0E2E2E2E2E2E2E2E2E2E2F5F0F0F5E2E2E2E2E2E2E2E2E2E2E2E2E2E2E2E2E2E2E2E2E2E2E2E2E2E2E2E2E2E2E2E2E2E2E2E2E2E2E2E2E2E2E2E2E2F5F0F0F5E2E2E2E2F5E2
310
E2E2E2F5E2E2F5F5F5E2E2F5E2E2E2E2F5E2E2E2E2E2E2E2E2E2E2E2E2E2E2E2E2E2E2E2E2E2E2E2F5F5F5E2E2E2E2E2E2E2E2E2E2E2E2E2E2E2E2E2E2E2E2E2E2E2E2E2E2E2E2E2E2E2E2E2E2E2E2E2E2E2E2E2E2E2E2E2E2E2E2E2E2E2E2E2E2F5F5F5F5E2E2E2E2DCF0E2DCDCF0E2E2E2E2E2E2E2E2E2E2F5F5F5F5E2E2
310
E2E2E2E2E2E2E2E2E2E2E2E2E2E2E2E2E2E2E2E2E2E2E2E2E2E2E2E2E2E2E2E2E2E2E2E2E2E2E2E2E2E2E2F5F5F5F5E2E2E2E2F5E2E2E2E2F5E2E2F5F5F5E2E2F5E2E2E2E2F5E2E2E2E2E2E2E2E2E2E2E2E2E2E2E2E2E2E2E2E2E2E2E2F5F5F5E2E2E2E2E2E2E2E2E2E2E2E2E2E2E2E2E2E2E2E2E2E2E2E2E2E2E2E2E2E2E2
310
E2E2E2E2E2E2E2E2E2E2E2E2E2E2E2E2E2E2E2E2E2E2E2E2F5F5F5E2E2E2E2DCDCE2E2E2F0E2E2E2E2E2E2E2E2E2E2F5F5F5E2E2E2E2E2F5F5F5E2E2E2E2E2E2E2E2E2E2E2E2E2E2E2E2E2E2E2E2E2E2E2E2E2E2E2E2E2E2E2F5F5F5E2E2E2E2E2F5F5F5E2E2E2E2F5E2E2E2E2F5E2E2F5F5F5E2E2F5E2E2E2E2F5E2E2E2E2
310
E2E2E2E2E2E2E2E2E2E2E2E2E2E2E2E2E2E2E2F5F5F5E2E2E2E2E2E2E2E2E2E2E2E2E2E2E2E2E2E2E2E2E2E2E2E2E2E2E2E2E2E2E2E2E2E2E2E2E2E2E2E2E2E2E2E2E2E2E2E2E2E2E2E2E2E2E2F5F5F5E2E2E2E2DCDCE2E2E2F0E2E2E2E2E2E2E2E2E2E2F5F5F5E2E2E2E2E2F5F5F5E2E2E2E2E2E2E2E2E2E2E2E2E2E2E2E2
310
E2E2E2E2E2E2E2E2E2E2E2E2E2E2E2F5F5F5E2E2E2E2E2F5F5F5E2E2E2E2F5E2E2E2E2F5E2E2F5F5F5E2E2F5E2E2E2E2F5E2E2E2E2E2E2E2E2E2E2E2E2E2E2E2E2E2E2E2E2E2E2E2F5F5F5E2E2E2E2E2E2E2E2E2E2E2E2E2E2E2E2E2E2E2E2E2E2E2E2E2E2E2E2E2E2E2E2E2E2E2E2E2E2E2E2E2E2E2E2E2E2E2E2E2E2E2E2
310
E2E2E2F5F5F5E2E2E2E2E2F0E2E2E2F0E2E2E2E2E2E2E2E2E2E2F5F5F5E2E2E2E2E2E2F5E2E2E2E2E2E2E2E2E2E2E2E2E2E2E2E2E2E2E2E2E2E2E2E2E2E2E2E2E2E2E2E2E2F5E2E2E2E2E2E2F5F5F5E2E2E2E2F5E2E2E2E2F5E2E2F5F5F5E2E2F5E2E2E2E2F5E2E2E2E2E2E2E2E2E2E2E2E2E2E2E2E2E2E2E2E2E2E2E2F5F5
310
E2E2E2E2E2E2E2E2E2E2E2E2E2E2E2E2E2E2E2E2E2E2E2E2E2E2E2E2E2E2E2E2E2E2E2E2E2E2E2E2E2E2E2E2E2E2E2E2E2E2E2E2E2E2E2E2E2F5F5E2E2E2E2E2F0F0E2F0F0E2E2E2E2E2E2E2E2E2E2F5F5E2E2E2E2E2E2E2E2E2E2E2E2E2E2E2E2E2E2E2E2E2E2E2E2E2E2E2E2E2E2E2E2E2E2E2E2E2E2E2E2E2E2E2E2E2E2
310
E2E2E2F5F5E2E2E2E2F5E2E2E2E2F5E2E2F5F5F5E2E2F5E2E2E2E2F5E2E2E2E2E2E2E2E2E2E2E2E2E2E2E2E2E2E2E2E2E2E2E2F5F5F5F5F5F5F5F5F5F5F5F5F5F5F5F5F5F5F5F5F5F5F5F5F5F5F5F5F5F5F5F5F5F5F5F5F5F5F5F5F5F5F5F5F5F5F5F5F5F5F5F5F5F5F5F5F5F5F5F0F0F0F0F0F0F0F0F0F0F0F0F0E2E2E2E2
310
E2E2E2E2E2F5F5F5F5F5F5F5F5F5F5F5F5F5F5F5F5F5F5F5F5F5F5F5F5F5F5F5F5F5F5F5F5F5F5F5F5F5F5F5F5F5F5F5F5F5F5F5F5F5F5F5F5F5E2E2E2E2F5E2E2E2E2F5E2E2F5F5F5E2E2F5E2E2E2E2F5E2E2E2E2E2E2E2E2E2E2E2E2E2E2E2E2E2E2E2E2E2E2E2E2E2E2E2E2E2E2E2E2E2E2E2E2E2E2E2E2E2E2E2E2E2E2
310
E2E2E2E2E2E2E2E2E2E2E2E2E2E2E2E2E2E2E2E2E2E2E2E2E2E2E2E2E2E2E2E2E2E2E2E2E2E2E2E2E2E2E2E2E2E2E2E2E2E2E2E2E2E2E2E2E2E2E2E2E2E2E2E2E2E2E2E2E2E2E2E2E2E2E2E2E2E2E2E2E2E2E2E2E2E2E2E2E2E2E2E2E2E2E2E2E2E2E2E2E2E2E2E2E2E2E2E2E2E2E2E2E2E2E2F5E2E2E2E2F5E2E2F5F5F5E2
310
E2E2E2E2E2E2F5E2E2E2E2E2E2E2E2E2E2E2E2E2E2E2E2E2E2E2E2E2E2E2E2E2E2E2E2E2E2E2E2E2E2E2E2E2E2E2E2E2E2E2E2E2E2E2E2E2E2E2E2E2E2E2E2E2E2E2E2E2E2E2E2E2E2E2E2E2E2E2E2E2E2E2E2E2E2E2E2E2E2E2E2E2E2E2E2E2E2E2E2E2E2E2E2E2E2E2E2E2E2E2E2E2E2E2E2E2E2E2E2E2E2E2E2E2E2E2E2
310
E2E2E2E2E2E2E2E2E2E2E2E2E2E2E2E2E2E2E2E2E2E2E2E2E2E2E2E2E2E2E2E2E2E2E2E2E2E2E2E2E2F5E2E2E2E2E2E2E2F5F5F5E2E2E2E2E2E2E2F5E2E2E2E2E2E2E2E2E2E2E2E2E2E2E2E2E2E2E2E2E2E2E2E2E2E2E2E2E2E2E2E2E2E2E2E2E2E2E2E2E2E2E2E2E2E2E2E2E2E2E2E2E2E2E2E2E2E2E2E2E2E2E2E2E2E2E2
310
E2E2E2E2E2E2E2E2E2E2E2E2E2E2E2E2E2E2E2E2E2E2E2E2E2E2E2E2E2E2E2E2E2E2E2E2E2E2E2E2E2E2E2E2E2E2E2E2E2E2E2E2E2E2E2E2E2E2E2E2E2E2E2E2E2E2E2E2E2E2E2E2E2E2E2E2E2E2E2E2E2E2E2E2E2E2E2E2E2E2E2E2E2E2F5E2E2E2E2E2E2E2F5F5F5E2E2E2E2E2E2E2F5E2E2E2E2E2E2E2E2E2E2E2E2E2E2
310
E2E2E2E2E2E2E2E2E2E2E2E2E2E2E2E2E2E2E2E2E2E2E2E2E2E2E2E2E2E2E2E2E2E2E2E2E2E2E2E2E2E2E2E2E2E2E2E2E2E2E2E2E2E2E2E2E2E2E2E2E2E2E2E2E2E2E2E2E2E2E2E2E2E2E2E2E2E2E2E2E2E2E2E2E2E2E2E2E2E2E2E2E2E2E2E2E2E2E2E2E2E2E2E2E2E2E2E2E2E2E2E2E2E2E2E2E2E2E2E2E2E2E2E2E2E2E2
310
E2E2E2E2E2E2E2E2E2E2E2E2E2E2E2E2E2E2E2E2F5E2E2E2E2E2E2E2F5F5F5E2E2E2E2E2E2E2F5E2E2E2E2E2E2E2E2E2E2E2E2E2E2E2E2E2E2E2E2E2E2E2E2E2E2E2E2E2E2E2E2E2E2E2E2E2E2E2E2E2E2E2E2E2E2E2E2E2E2E2E2E2E2E2E2E2E2E2E2E2E2E2E2E2E2E2E2E2E2E2E2E2E2E2E2E2E2E2E2E2E2E2E2E2E2E2E2
310
E2E2E2E2E2E2E2E2E2E2E2E2E2E2E2E2E2E2E2E2E2E2E2E2E2E2E2E2E2E2E2E2E2E2E2E2E2E2E2E2E2E2E2E2E2E2E2E2E2E2E2E2E2E2E2E2E2E2E2E2E2E2E2E2E2E2E2E2E2E2E2E2E2F5E2E2E2E2E2E2E2F5F5F5E2E2E2E2E2E2E2F5E2E2E2E2E2E2E2E2E2E2E2E2E2E2E2E2E2E2E2E2E2E2E2E2E2E2E2E2E2E2E2E2E2E2E2
310
E2E2E2E2E2E2E2E2E2E2E2E2E2E2E2E2E2E2E2E2E2E2E2E2E2E2E2E2E2E2E2E2E2E2E2E2E2E2E2E2E2E2E2E2E2E2E2E2E2E2E2E2E2E2E2E2E2E2E2E2E2E2E2E2E2E2E2E2E2E2E2E2E2E2E2E2E2E2E2E2E2E2E2E2E2E2E2E2E2E2E2E2E2E2E2E2E2E2E2E2E2E2E2E2E2E2E2E2E2E2E2E2E2E2E2E2E2E2E2E2E2E2E2E2E2E2F5
310
E2E2E2E2E2E2E2F5F5F5E2E2E2E2E2E2E2F5E2E2E2E2E2E2E2E2E2E2E2E2E2F0F0F0F0F0F0F0F0F0F0F0F0F5F5F5F5F5F5F5F5F5F5F5F5F5F5F5F5F5F5F5F5F5F5F5F5F5F5F5F5F5F5F5F5F5F5F5F5F5F5F5F5F5F5F5F5F5F5F5F5F5F5F5F5F5F5F5F5F5F0F0F0F0F0F0F0F0F0F0F0F0F0E2E2E2E2E2E2E2E2E2E2E2E2E2E2
310
E2E2E2E2E2E2E2E2E2E2E2E2E2E2E2E2E2E2E2E2E2E2E2E2E2E2E2E2E2E2E2E2E2E2E2E2E2E2E2E2E2E2E2E2E2E2E2E2E2E2E2E2F5E2E2E2E2E2E2E2F5F5F5E2E2E2E2E2E2E2F5E2E2E2E2E2E2E2E2E2E2E2E2E2E2F0E2E2E2E2E2E2E2E2F5F5E2E2E2E2E2E2E2E2E2E2E2E2E2E2E2E2E2E2E2E2E2E2E2E2E2E2E2E2E2E2E2
310
E2E2E2E2E2E2E2E2E2E2E2E2E2E2E2E2E2E2E2E2E2E2E2E2E2E2F5F5E2E2E2E2E2F0F0E2F0F0E2E2E2E2E2E2E2E2E2E2E2E2E2E2E2E2E2E2E2E2E2E2E2E2E2E2E2E2E2E2E2E2E2E2E2E2E2E2E2E2E2E2E2E2E2E2E2E2E2E2E2E2E2E2E2E2E2E2E2E2E2E2E2E2E2E2E2F5E2E2E2E2E2E2E2F5F5F5E2E2E2E2E2E2E2F5E2E2E2
310
E2E2E2E2E2E2E2E2E2E2E2F0E2E2E2E2E2E2E2E2F5E2E2E2E2E2E2E2E2E2E2E2E2E2E2E2E2E2E2E2E2E2E2E2E2E2E2E2E2E2E2E2E2E2E2E2E2E2E2E2E2E2E2E2E2E2E2E2E2E2E2E2E2E2E2E2E2E2E2F5F5E2E2E2E2E2F0F0E2E2F0E2E2E2E2E2E2E2E2E2E2E2E2E2E2E2E2E2E2E2E2E2E2E2E2E2E2E2E2E2E2E2E2E2E2E2E2
310
E2E2E2E2E2E2E2E2E2E2E2E2E2E2E2E2E2E2E2E2E2E2E2E2E2E2E2E2E2E2E2F5E2E2E2E2E2E2E2F5F5F5E2E2E2E2E2E2E2F5E2E2E2E2E2E2E2E2E2E2E2E2E2E2F0E2E2E2E2E2E2E2E2F5E2E2E2E2E2E2E2E2E2E2E2E2E2E2E2E2E2E2E2E2E2E2E2E2E2E2E2E2E2E2E2E2E2E2E2E2E2E2E2E2E2E2E2E2E2E2E2E2E2E2E2E2E2
310
E2E2E2E2E2F5F5E2E2E2E2E2F0E2E2E2F0E2E2E2E2E2E2E2E2E2E2E2E2E2E2E2E2E2E2E2E2E2E2E2E2E2E2E2E2E2E2E2E2E2E2E2E2E2E2E2E2E2E2E2E2E2E2E2E2E2E2E2E2E2E2E2E2E2E2E2E2E2E2E2E2E2E2E2F5E2E2E2E2E2E2E2F5F5F5E2E2F5E2E2E2E2F5E2E2E2E2E2E2E2E2E2E2E2E2E2E2F0E2E2E2E2E2E2E2E2F5
310
E2E2E2E2E2E2E2E2E2E2E2E2E2E2E2E2E2E2E2E2E2E2E2E2E2E2E2E2E2E2E2E2E2E2E2E2E2E2E2E2E2E2E2E2E2E2E2E2E2E2E2E2E2E2E2E2E2E2F5E2E2E2E2E2E2F0E2E2E2F0E2E2E2E2E2E2E2E2E2E2E2E2E2E2E2E2E2E2E2E2E2E2E2E2E2E2E2E2E2E2E2E2E2E2E2E2E2E2E2E2E2E2E2E2E2E2E2E2E2E2E2E2E2E2E2E2E2
310
E2E2E2E2E2E2E2E2E2E2F5E2E2E2E2F5E2E2F5F5F5E2E2F5E2E2E2E2F5E2E2E2E2E2E2E2E2E2E2E2E2E2E2F0E2E2E2E2E2E2E2E2F5E2E2E2E2E2E2E2E2E2E2E2E2E2E2E2E2E2E2E2E2E2E2E2E2E2E2E2E2E2E2E2E2E2E2E2E2E2E2E2E2E2E2E2E2E2E2E2E2E2E2E2E2E2E2E2E2E2E2F5E2E2E2E2E2E2F0E2E2E2F0E2E2E2E2
310
E2E2E2E2E2E2E2E2E2E2E2E2E2E2E2E2E2E2E2E2E2E2E2E2E2E2E2E2E2E2E2E2E2E2E2E2E2E2E2E2E2E2E2E2E2E2E2E2E2E2E2E2E2E2E2E2E2E2E2E2E2E2E2F5E2E2E2E2F5E2E2F5F5F5E2E2F5E2E2E2E2F5E2E2E2E2E2E2E2E2E2E2E2E2E2E2F0E2E2E2E2E2E2E2E2F5E2E2E2E2E2E2E2E2E2E2E2E2E2E2E2E2E2E2E2E2E2
310
E2E2E2E2E2E2E2E2E2E2E2E2E2E2E2E2E2E2E2E2E2E2E2E2E2E2E2E2E2E2E2E2E2E2E2E2E2F5E2E2E2E2E2E2F0E2E2E2F0E2E2E2E2E2E2E2E2E2E2E2E2E2E2E2E2E2E2E2E2E2E2E2E2E2E2E2E2E2E2E2E2E2E2E2E2E2E2E2E2E2E2E2E2E2E2E2E2E2E2E2E2E2E2E2E2E2E2E2E2E2E2E2E2E2E2E2F5E2E2E2E2F5E2E2F5F5F5
310
E2E2F5E2E2E2E2F5E2E2E2E2E2E2E2E2E2E2E2E2E2E2F0E2E2E2E2E2E2E2E2F5E2E2E2E2E2E2E2E2E2E2E2E2E2E2E2E2E2E2E2E2E2E2E2E2E2E2E2E2E2E2E2E2E2E2E2E2E2E2E2E2E2E2E2E2E2E2E2E2E2E2E2E2E2E2E2E2E2E2F5E2E2E2E2E2E2F0E2E2E2F0E2E2E2E2E2E2E2E2E2E2E2E2E2E2E2E2E2E2E2E2E2E2E2E2E2
310
E2E2E2E2E2E2E2E2E2E2E2E2E2E2E2E2E2E2E2E2E2E2E2E2E2E2E2E2E2E2E2E2E2E2E2E2E2E2E2E2E2E2F5E2E2E2E2F5E2E2F5F5F5E2E2F5E2E2E2E2F5E2E2E2E2E2E2E2E2E2E2E2E2E2E2F0E2E2E2E2E2E2E2E2F5E2E2E2E2E2E2E2E2E2E2E2E2E2E2E2E2E2E2E2E2E2E2E2E2E2E2E2E2E2E2E2E2E2E2E2E2E2E2E2E2E2E2
310
E2E2E2E2E2E2E2E2E2E2E2E2E2E2E2E2F5E2E2E2E2E2E2F0E2E2E2F0E2E2E2E2E2E2E2E2E2E2E2E2E2E2E2E2E2E2E2E2E2E2E2E2E2E2E2E2E2E2E2E2E2E2E2E2E2E2E2E2E2E2E2E2E2E2E2E2E2E2E2E2E2E2E2E2E2E2E2E2E2E2E2E2E2E2E2F5E2E2E2E2F5E2E2F5F5F5E2E2F5E2E2E2E2F5E2E2E2E2E2E2E2E2E2E2E2E2DC
310
E2DCE2E2E2E2E2E2E2E2F5E2E2E2E2E2E2E2E2E2E2E2E2E2E2E2E2E2E2E2E2E2E2E2E2E2E2E2E2E2E2E2E2E2E2E2E2E2E2E2E2E2E2E2E2E2E2E2E2E2E2E2E2E2E2E2E2E2E2F5E2E2E2E2E2E2F0E2E2E2F0E2E2E2E2E2E2E2E2E2E2E2E2E2E2E2E2E2E2E2E2E2E2E2E2E2E2E2E2E2E2E2E2E2E2E2E2E2E2E2E2E2E2E2E2E2E2
310
E2E2E2E2E2E2E2E2E2E2E2E2E2E2E2E2E2E2E2E2E2F5E2E2E2E2F5E2E2F5F5F5E2E2F5E2E2E2E2F5E2E2E2E2E2E2E2E2E2E2E2E2DCDCDCE2E2E2E2E2E2E2E2F5E2E2E2E2E2E2E2E2E2E2E2E2E2E2E2E2E2E2E2E2E2E2E2E2E2E2E2E2E2E2E2E2E2E2E2E2E2E2E2E2E2E2E2E2E2E2E2E2E2E2E2E2E2E2E2E2E2E2F5E2E2E2E2
310
E2E2F0E2E2E2F0E2E2E2E2E2E2E2E2E2E2E2E2E2E2E2E2E2E2E2E2E2E2E2E2E2E2E2E2E2E2E2E2E2E2E2E2E2E2E2E2E2E2E2E2E2E2E2E2E2E2E2E2E2E2E2E2E2E2E2E2E2E2E2E2E2E2E2F5E2E2E2E2F5E2E2F5F5F5E2E2F5E2E2E2E2F5E2E2E2E2E2E2E2E2E2E2E2E2DCDCDCE2E2E2E2E2E2E2E2F5E2E2E2E2E2E2E2E2E2E2
310
E2E2E2E2E2E2E2E2E2E2E2E2E2E2E2E2E2E2E2E2E2E2E2E2E2E2E2E2E2E2E2E2E2E2E2E2E2E2E2E2E2E2E2E2E2E2E2E2F5E2E2E2E2E2E2F0E2E2E2F0E2E2E2E2E2E2E2E2E2E2E2E2E2E2E2E2E2E2E2E2E2E2E2E2E2E2E2E2E2E2E2E2E2E2E2E2E2E2E2E2E2E2E2E2E2E2E2E2E2E2E2E2E2E2E2E2E2E2E2E2E2E2E2E2E2E2E2
310
F5E2E2E2E2F5E2E2F5F5F5E2E2F5E2E2E2E2F5E2E2E2E2E2E2E2E2E2E2E2E2DCDCDCE2E2E2E2E2E2E2E2F5E2E2E2E2E2E2E2E2E2E2E2E2E2E2E2E2E2E2E2E2E2E2E2E2E2E2E2E2E2E2E2E2E2E2E2E2E2E2E2E2E2E2E2E2E2E2E2E2E2E2E2E2E2E2E2E2E2E2F5E2E2E2E2E2E2F0E2E2E2F0E2E2E2E2E2E2E2E2E2E2E2E2E2E2
310
E2E2E2E2E2E2E2E2E2E2E2E2E2E2E2E2E2E2E2E2E2E2E2E2E2E2E2E2E2E2E2E2E2E2E2E2E2E2E2E2E2E2E2E2E2E2E2E2E2E2E2E2E2F5E2E2E2E2F5E2E2F5F5F5E2E2F5E2E2E2E2F5E2E2E2E2E2E2E2E2E2E2E2E2E2E2F0E2E2E2E2E2E2F0E2F0E2E2E2E2E2E2E2E2E2E2E2E2E2E2E2E2E2E2E2E2E2E2E2E2E2E2E2E2E2E2E2
310
E2E2E2E2E2E2E2E2E2E2E2E2E2E2E2E2E2E2E2E2E2E2E2E2E2E2E2F5E2E2E2E2E2E2F0E2E2E2F0E2E2E2E2E2E2E2E2E2E2E2E2E2E2E2E2E2E2E2E2E2E2E2E2E2E2E2E2E2E2E2E2E2E2E2E2E2E2E2E2E2E2E2E2E2E2E2E2E2E2E2E2E2E2E2E2E2E2E2E2E2E2E2E2E2E2E2F5E2E2E2E2F5E2E2F5F5F5E2E2F5E2E2E2E2F5E2E2
310
E2E2E2E2E2E2E2E2E2E2E2E2F0E2F0DCDCF0F0F0F0F0F0F0F0E2E2E2E2E2E2E2E2E2E2E2E2E2E2E2E2E2E2E2E2E2E2E2E2E2E2E2E2E2E2E2E2E2E2E2E2E2E2E2E2E2E2E2E2E2E2E2E2E2E2E2E2E2E2E2F5E2E2E2E2E2E2F0E2E2E2F0E2E2E2E2E2E2E2E2E2E2E2E2E2E2E2E2E2E2E2E2E2E2E2E2E2E2E2E2E2E2E2E2E2E2E2
310
E2E2E2E2E2E2E2E2E2E2E2E2E2E2E2E2E2E2E2E2E2E2E2E2E2E2E2E2E2E2E2E2F5E2E2E2E2F5E2E2F5F5F5E2E2F5E2E2E2E2F5E2E2E2E2E2E2E2E2E2E2E2E2E2E2F0E2E2DCDCDCE2F0E2F0E2E2E2E2E2E2E2E2E2E2E2E2E2E2E2E2E2E2E2E2E2E2E2E2E2E2E2E2E2E2E2E2E2E2E2E2E2E2E2E2E2E2E2E2E2E2E2E2E2E2E2E2
310
E2E2E2E2E2E2F5E2E2E2E2E2E2F0E2E2E2F0E2E2E2E2E2E2E2E2E2E2E2E2E2E2E2E2E2E2E2E2E2E2E2E2E2E2E2E2E2E2E2E2E2E2E2E2E2E2E2E2E2E2E2E2E2E2E2E2E2E2E2E2E2E2E2E2E2E2E2E2E2E2E2E2E2E2E2F5E2E2E2E2F5E2E2F5F5F5E2E2F5E2E2E2E2F5E2E2E2E2E2E2E2E2E2E2E2E2E2E2F0E2E2DCDCDCE2F0E2
310
F0E2E2E2E2E2E2E2E2E2E2E2E2E2E2E2E2E2E2E2E2E2E2E2E2E2E2E2E2E2E2E2E2E2E2E2E2E2E2E2E2E2E2E2E2E2E2E2E2E2E2E2E2E2E2E2E2E2E2F5E2E2E2E2E2E2F0E2E2E2F0E2E2E2E2E2E2E2E2E2E2E2E2E2E2E2E2E2E2E2E2E2E2E2E2E2E2E2E2E2E2E2E2E2E2E2E2E2E2E2E2E2E2E2E2E2E2E2E2E2E2E2E2E2E2E2E2
310
E2E2E2E2E2E2E2E2E2E2E2F5E2E2E2E2F5E2E2F5F5F5E2E2F5E2E2E2E2F5E2E2E2E2E2E2E2E2E2E2E2E2E2E2F0E2E2E2E2E2E2F0E2F0E2E2E2E2E2E2E2E2E2E2E2E2E2E2E2E2E2E2E2E2E2E2E2E2E2E2E2E2E2E2E2E2E2E2E2E2E2E2E2E2E2E2E2E2E2E2E2E2E2E2E2E2E2E2E2E2E2E2F5E2E2E2E2E2E2F0E2E2E2F0E2E2E2
310
E2E2E2E2E2E2E2E2E2E2E2E2E2E2E2E2E2E2E2E2E2E2E2E2E2E2E2E2E2E2E2E2E2E2E2E2E2E2E2E2E2E2E2E2E2E2E2E2E2E2E2E2E2E2E2E2E2E2E2E2E2E2E2E2F5E2E2E2E2F5E2E2F5F5F5E2E2F5E2E2E2E2F5E2E2E2E2E2E2E2E2E2E2E2E2E2E2F0E2E2E2E2E2E2F0E2F0E2E2E2E2E2E2E2E2E2E2E2E2E2E2E2E2E2E2E2E2
310
E2E2E2E2E2E2E2E2E2E2E2E2E2E2E2E2E2E2E2E2E2E2E2E2E2E2E2E2E2E2E2E2E2E2E2E2E2E2F5E2E2E2E2E2E2F0E2E2E2F0E2E2E2E2E2E2E2E2E2E2E2E2E2E2E2E2E2E2E2E2E2E2E2E2E2E2E2E2E2E2E2E2E2E2E2E2E2E2E2E2E2E2E2E2E2E2E2E2E2E2E2E2E2E2E2E2E2E2E2E2E2E2E2E2E2E2E2F5E2E2E2E2F5E2E2F5F5
310
F5E2E2E2E2E2E2E2F5E2E2E2E2E2E2E2E2E2E2E2E2E2E2F0E2E2E2E2E2E2F0E2F0E2E2E2E2E2E2E2E2E2E2E2E2E2E2E2E2E2E2E2E2E2E2E2E2E2E2E2E2E2E2E2E2E2E2E2E2E2E2E2E2E2E2E2E2E2E2E2E2E2E2E2E2E2E2E2E2E2E2F5E2E2E2E2E2E2F0E2E2E2F0E2E2E2E2E2E2E2E2E2E2E2E2E2E2E2E2E2E2E2E2E2E2E2E2
310
E2E2E2E2E2E2E2E2E2E2E2E2E2E2E2E2E2E2E2E2E2E2E2E2E2E2E2E2E2E2E2E2E2E2E2E2E2E2E2E2E2E2E2F5E2E2E2E2E2E2E2F5F5F5E2E2E2E2E2E2E2F5E2E2E2E2E2E2E2E2E2E2E2E2E2E2F0E2F0F0F0F0F0F02DF0E2E2E2E2E2E2E2E2E2E2E2E2E2E2E2E2E2E2E2E2E2E2E2E2E2E2E2E2E2E2E2E2E2E2E2E2E2E2E2E2E2
310
E2E2E2E2E2E2E2E2E2E2E2E2E2E2E2E2E2F5E2E2E2E2E2E2F0E2E2E2F0E2E2E2E2E2E2E2E2E2E2E2E2E2E2E2E2E2E2E2E2E2E2E2E2E2E2E2E2E2E2E2E2E2E2E2E2E2E2E2E2E2E2E2E2E2E2E2E2E2E2E2E2E2E2E2E2E2E2E2E2E2E2E2E2E2E2E2F5E2E2E2E2E2E2E2F5F5F5E2E2E2E2E2E2E2F5E2E2E2E2E2E2E2E2E2E2E2E2
310
E2F0F0F0F0F0F0F0F0F02DF5E2E2E2E2E2E2E2E2E2E2E2E2E2E2E2E2E2E2E2E2E2E2E2E2E2E2E2E2E2E2E2E2E2E2E2E2E2E2E2E2E2E2E2E2E2E2E2E2E2E2E2E2E2E2E2E2E2E2F5E2E2E2E2E2E2F0E2E2E2F0E2E2E2E2E2E2E2E2E2E2E2E2E2E2E2E2E2E2E2E2E2E2E2E2E2E2E2E2E2E2E2E2E2E2E2E2E2E2E2E2E2E2E2E2E2
310
E2E2E2E2E2E2E2E2E2E2E2E2E2E2E2E2E2E2E2E2E2E2F5E2E2E2E2E2E2E2F5F5F5E2E2E2E2E2E2E2F5E2E2E2E2E2E2E2E2E2E2E2E2E2E2E2E2DCDCF0E2E22D2DF5E2E2E2E2E2E2E2E2E2E2E2E2E2E2E2E2E2E2E2E2E2E2E2E2E2E2E2E2E2E2E2E2E2E2E2E2E2E2E2E2E2E2E2E2E2E2E2E2E2E2E2E2E2E2E2E2E2E2F5E2E2E2
310
E2E2E2F0E2E2E2F0E2E2E2E2E2E2E2E2E2E2E2E2E2E2E2E2E2E2E2E2E2E2E2E2E2E2E2E2E2E2E2E2E2E2E2E2E2E2E2E2E2E2E2E2E2E2E2E2E2E2E2E2E2E2E2E2E2E2E2E2E2E2E2E2E2E2E2F5E2E2E2E2E2E2E2F5F5F5E2E2E2E2E2E2E2F5E2E2E2E2E2E2E2E2E2E2E2E2E2E2E2E2F0F0F0F0F0F02DF5E2E2E2E2E2E2E2E2E2
310
E2E2E2E2E2E2E2E2E2E2E2E2E2E2E2E2E2E2E2E2E2E2E2E2E2E2E2E2E2E2E2E2E2E2E2E2E2E2E2E2E2E2E2E2E2E2E2E2E2F5E2E2E2E2E2E2F0E2E2E2F0E2E2E2E2E2E2E2E2E2E2E2E2E2E2E2E2E2E2E2E2E2E2E2E2E2E2E2E2E2E2E2E2E2E2E2E2E2E2E2E2E2E2E2E2E2E2E2E2E2E2E2E2E2E2E2E2E2E2E2E2E2E2E2E2E2E2
310
E2F5E2E2E2E2E2E2E2F5F5F5E2E2E2E2E2E2E2F5E2E2E2E2E2E2E2E2E2E2E2E2E2E2E2E2E2E2F0F0E2E2E2F5E2E2E2E2E2E2E2E2E2E2E2E2E2E2E2E2E2E2E2E2E2E2E2E2E2E2E2E2E2E2E2E2E2E2E2E2E2E2E2E2E2E2E2E2E2E2E2E2E2E2E2E2E2E2E2E2E2E2F5E2E2E2E2E2DCDCE2DCDCF0E2E2E2E2E2E2E2E2E2E2E2E2E2
310
E2E2E2E2E2E2E2E2E2E2E2E2E2E2E2E2E2E2E2E2E2E2E2E2E2E2E2E2E2E2E2E2E2E2E2E2E2E2E2E2E2E2E2E2E2E2E2E2E2E2E2E2E2E2F5E2E2E2E2E2E2E2F5F5F5E2E2E2E2E2E2E2F5E2E2E2E2E2DCDCDCF5F5F5F5F5F5F5F5F5F5F5F5F5F5F5F5E2E2E2E2E2E2E2E2E2E2E2E2E2E2E2E2E2E2E2E2E2E2E2E2E2E2E2E2E2E2
310
E2E2E2E2E2E2E2E2E2E2E2E2E2E2E2E2E2E2E2E2E2E2E2E2E2E2E2E2F5E2E2E2E2E2DCDCE2DCDCF0E2E2E2E2E2E2E2E2E2E2E2E2E2E2E2E2E2E2E2E2E2E2E2E2E2E2E2E2E2E2E2E2E2E2E2E2E2E2E2E2E2E2E2E2E2E2E2E2E2E2E2E2E2E2E2E2E2E2E2E2E2E2E2E2E2E2E2F5E2E2E2E2E2E2E2F5F5F5E2E2E2E2E2E2E2F5E2
310
E2E2E2E2DCDCDCF5F5F5F5F5F5F5F5F5F5F5F5F5F5F5F5E2E2E2E2E2E2E2E2E2E2E2E2E2E2E2E2E2E2E2E2E2E2E2E2E2E2E2E2E2E2E2E2E2E2E2E2E2E2E2E2E2E2E2E2E2E2E2E2E2E2E2E2E2E2E2E2E2E2F5E2E2E2E2E2DCDCE2DCDCF0E2E2E2E2E2E2E2E2E2E2E2E2E2E2E2E2E2E2E2E2E2E2E2E2E2E2E2E2E2E2E2E2E2E2
310
E2E2E2E2E2E2E2E2E2E2E2E2E2E2E2E2E2E2E2E2E2E2E2E2E2E2E2E2E2E2E2E2E2F5E2E2E2E2E2E2E2F5F5F5E2E2E2E2E2E2E2F5E2E2E2E2E2E2E2E2F0E2E2E2E2E2E2E2E2E2F0E2E2E2E2F0E2E2E2E2E2E2E2E2E2E2E2E2E2E2E2E2E2E2E2E2E2E2E2E2E2E2E2E2E2E2E2E2E2E2E2E2E2E2E2E2E2E2E2E2E2E2E2E2E2E2E2
310
E2E2E2E2E2E2E2F5E2E2E2E2E2DCDCE2DCDCF0E2E2E2E2E2E2E2E2E2E2E2E2E2E2E2E2E2E2E2E2E2E2E2E2E2E2E2E2E2E2E2E2E2E2E2E2E2E2E2E2E2E2E2E2E2E2E2E2E2E2E2E2E2E2E2E2E2E2E2E2E2E2E2E2E2E2E2F5E2E2E2E2E2E2E2F5F5F5E2E2F5E2E2E2E2F5E2E2E2E2E2E2E2E2F0E2E2E2E2E2E2E2E2E2E2E2E2E2
310
E2F0E2E2E2E2E2E2E2E2E2E2E2E2E2E2E2E2E2E2E2E2E2E2E2E2E2E2E2E2E2E2E2E2E2E2E2E2E2E2E2E2E2E2E2E2E2E2E2E2E2E2E2E2E2E2E2E2E2E2F5E2E2E2E2E2E2F0E2E2E2F0E2E2E2E2E2E2E2E2E2E2E2E2E2E2E2E2E2E2E2E2E2E2E2E2E2E2E2E2E2E2E2E2E2E2E2E2E2E2E2E2E2E2E2E2E2E2E2E2E2E2E2E2E2E2E2
310
E2E2E2E2E2E2E2E2E2E2E2E2F5E2E2E2E2F5E2E2F5F5F5E2E2F5E2E2E2E2F5E2E2E2E2E2E2E2E2F0E2E2E2E2E2E2E2E2E2E2E2E2E2E2F0E2E2E2E2E2E2E2E2E2E2E2E2E2E2E2E2E2E2E2E2E2E2E2E2E2E2E2E2E2E2E2E2E2E2E2E2E2E2E2E2E2E2E2E2E2E2E2E2E2E2E2E2E2E2E2E2E2E2F5E2E2E2E2E2E2F0E2E2E2F0E2E2
310
E2E2E2E2E2E2E2E2E2E2E2E2E2E2E2E2E2E2E2E2E2E2E2E2E2E2E2E2E2E2E2E2E2E2E2E2E2E2E2E2E2E2E2E2E2E2E2E2E2E2E2E2E2E2E2E2E2E2E2E2E2E2E2E2E2F5E2E2E2E2F5E2E2F5F5F5E2E2F5E2E2E2E2F5E2E2E2E2E2E2E2E2F0F0F0F0F0F0F0F0F0F0F0F0F0F0F0F0E2E2E2E2E2E2E2E2E2E2E2E2E2E2E2E2E2E2E2
310
E2E2E2E2E2E2E2E2E2E2E2E2E2E2E2E2E2E2E2E2E2E2E2E2E2E2E2E2E2E2E2E2E2E2E2E2E2E2E2F5E2E2E2E2E2E2F0E2E2E2F0E2E2E2E2E2E2E2E2E2E2E2E2E2E2E2E2E2E2E2E2E2E2E2E2E2E2E2E2E2E2E2E2E2E2E2E2E2E2E2E2E2E2E2E2E2E2E2E2E2E2E2E2E2E2E2E2E2E2E2E2E2E2E2E2E2E2E2F5E2E2E2E2F5E2E2F5
310
F5F5E2E2F5E2E2E2E2F5E2E2E2E2E2E2E2E2F0DCDCDCDCDCDCDCE2DCDCDCDCDCF0F0E2E2E2E2E2E2E2E2E2E2E2E2E2E2E2E2E2E2E2E2E2E2E2E2E2E2E2E2E2E2E2E2E2E2E2E2E2E2E2E2E2E2E2E2E2E2E2E2E2E2E2E2E2E2E2E2E2E2F5E2E2E2E2E2E2F0E2E2E2F0E2E2E2E2E2E2E2E2E2E2E2E2E2E2E2E2E2E2E2E2E2E2E2
310
E2E2E2E2E2E2E2E2E2E2E2E2E2E2E2E2E2E2E2E2E2E2E2E2E2E2E2E2E2E2E2E2E2E2E2E2E2E2E2E2E2E2E2E2F5E2E2E2E2F5E2E2F5F5F5E2E2F5E2E2E2E2F5E2E2E2E2E2E2E2E2E2DCDCDCDCDCDCDCE2DCDCDCDCDCE2F5E2E2E2E2E2E2E2E2E2E2E2E2E2E2E2E2E2E2E2E2E2E2E2E2E2E2E2E2E2E2E2E2E2E2E2E2E2E2E2E2
310
E2E2E2E2E2E2E2E2E2E2E2E2E2E2E2E2E2E2F5E2E2E2E2E2E2F0E2E2E2F0E2E2E2E2E2E2E2E2E2E2E2E2E2E2E2E2E2E2E2E2E2E2E2E2E2E2E2E2E2E2E2E2E2E2E2E2E2E2E2E2E2E2E2E2E2E2E2E2E2E2E2E2E2E2E2E2E2E2E2E2E2E2E2E2E2E2E2F5E2E2E2E2F5E2E2F5F5F5E2E2F5E2E2E2E2F5E2E2E2E2E2E2E2E2E2E2E2
310
E2E2E2E2E2E2E2E2E2E2E2E2F5E2E2E2E2E2E2E2E2E2E2E2E2E2E2E2E2E2E2E2E2E2E2E2E2E2E2E2E2E2E2E2E2E2E2E2E2E2E2E2E2E2E2E2E2E2E2E2E2E2E2E2E2E2E2E2E2E2E2F5E2E2E2E2E2E2F0E2E2E2F0E2E2E2E2E2E2E2E2E2E2E2E2E2E2E2E2E2E2E2E2E2E2E2E2E2E2E2E2E2E2E2E2E2E2E2E2E2E2E2E2E2E2E2E2
310
E2E2E2E2E2E2E2E2E2E2E2E2E2E2E2E2E2E2E2E2E2E2E2F5E2E2E2E2F5E2E2F5F5F5E2E2F5E2E2E2E2F5E2E2E2E2E2E2E2E2E2E2E2E2E2E2E2E2E2E2E2E2E2E2E2F5E2E2E2E2E2E2E2E2E2E2E2E2E2E2E2E2E2E2E2E2E2E2E2E2E2E2E2E2E2E2E2E2E2E2E2E2E2E2E2E2E2E2E2E2E2E2E2E2E2E2E2E2E2E2E2E2E2E2F5E2E2
310
E2E2E2E2F0E2E2E2F0E2E2E2E2E2E2E2E2E2E2E2E2E2E2E2E2E2E2E2E2E2E2E2E2E2E2E2E2E2E2E2E2E2E2E2E2E2E2E2E2E2E2E2E2E2E2E2E2E2E2E2E2E2E2E2E2E2E2E2E2E2E2E2E2E2E2E2F5E2E2E2E2F5E2E2F5F5F5E2E2F5E2E2E2E2F5E2E2E2E2E2E2E2E2E2E2E2E2E2E2E2E2E2E2E2E2E2E2E2F5E2E2E2E2E2E2E2E2
310
E2E2E2E2E2E2E2E2E2E2E2E2E2E2E2E2E2E2E2E2E2E2E2E2E2E2E2E2E2E2E2E2E2E2E2E2E2E2E2E2E2E2E2E2E2E2E2E2E2E2F5E2E2E2E2E2E2F0E2E2E2F0E2E2E2E2E2E2E2E2E2E2E2E2E2E2E2E2E2E2E2E2E2E2E2E2E2E2E2E2E2E2E2E2E2E2E2E2E2E2E2E2E2E2E2E2E2E2E2E2E2E2E2E2E2E2E2E2E2E2E2E2E2E2E2E2E2
310
E2E2F5E2E2E2E2F5E2E2F5F5F5E2E2F5E2E2E2E2F5E2E2E2E2E2E2E2E2E2E2E2E2E2E2E2E2E2E2E2E2E2E2E2F5E2E2E2E2E2E2E2E2E2E2E2E2E2E2E2E2E2E2E2E2E2E2E2E2E2E2E2E2E2E2E2E2E2E2E2E2E2E2E2E2E2E2E2E2E2E2E2E2E2E2E2E2E2E2E2E2E2E2F5E2E2E2E2E2E2F0E2E2E2F0E2E2E2E2E2E2E2E2E2E2E2E2
310
E2E2E2E2E2E2E2E2E2E2E2E2E2E2E2E2E2E2E2E2E2E2E2E2E2E2E2E2E2E2E2E2E2E2E2E2E2E2E2E2E2E2E2E2E2E2E2E2E2E2E2E2E2E2E2F5E2E2E2E2F5E2E2F5F5F5E2E2F5E2E2E2E2F5E2E2E2E2E2E2E2E2E2E2E2E2E2E2E2E2E2E2E2E2E2E2E2F5E2E2E2E2E2E2E2E2E2E2E2E2E2E2E2E2E2E2E2E2E2E2E2E2E2E2E2E2E2
310
E2E2E2E2E2E2E2E2E2E2E2E2E2E2E2E2E2E2E2E2E2E2E2E2E2E2E2E2E2F5E2E2E2E2E2E2F0E2E2E2F0E2E2E2E2E2E2E2E2E2E2E2E2E2E2E2E2E2E2E2E2E2E2E2E2E2E2E2E2E2E2E2E2E2E2E2E2E2E2E2E2E2E2E2E2E2E2E2E2E2E2E2E2E2E2E2E2E2E2E2E2E2E2E2E2E2E2E2F5E2E2E2E2F5E2E2F5F5F5E2E2F5E2E2E2E2F5
310
E2E2E2E2E2E2E2E2E2E2E2E2E2E2E2E2E2E2E2E2E2E2E2F5E2E2E2E2E2E2E2E2E2E2E2E2E2E2E2E2E2E2E2E2E2E2E2E2E2E2E2E2E2E2E2E2E2E2E2E2E2E2E2E2E2E2E2E2E2E2E2E2E2E2E2E2E2E2E2E2E2E2F5E2E2E2E2E2E2F0E2E2E2F0E2E2E2E2E2E2E2E2E2E2E2E2E2E2E2E2E2E2E2E2E2E2E2E2E2E2E2E2E2E2E2E2E2
310
E2E2E2E2E2E2E2E2E2E2E2E2E2E2E2E2E2E2E2E2E2E2E2E2E2E2E2E2E2E2E2E2E2E2F5E2E2E2E2F5E2E2F5F5F5E2E2F5E2E2E2E2F5E2E2E2E2E2E2E2E2E2E2E2E2E2E2E2E2E2E2E2E2E2E2E2F5E2E2E2E2E2E2E2E2E2E2E2E2E2E2E2E2E2E2E2E2E2E2E2E2E2E2E2E2E2E2E2E2E2E2E2E2E2E2E2E2E2E2E2E2E2E2E2E2E2E2
310
E2E2E2E2E2E2E2E2F5E2E2E2E2E2E2F0E2E2E2F0E2E2E2E2E2E2E2E2E2E2E2E2E2E2E2E2E2E2E2E2E2E2E2E2E2E2E2E2E2E2E2E2E2E2E2E2E2E2E2E2E2E2E2E2E2E2E2E2E2E2E2E2E2E2E2E2E2E2E2E2E2E2E2E2E2E2E2F5E2E2E2E2F5E2E2F5F5F5E2E2F5E2E2E2E2F5E2E2E2E2E2E2E2E2E2E2E2E2E2E2E2E2E2E2E2E2E2
310
E2E2F5E2E2E2E2E2E2E2E2E2E2E2E2E2E2E2E2E2E2E2E2E2E2E2E2E2E2E2E2E2E2E2E2E2E2E2E2E2E2E2E2E2E2E2E2E2E2E2E2E2E2E2E2E2E2E2E2E2E2F5E2E2E2E2E2E2F0E2E2E2F0E2E2E2E2E2E2E2E2E2E2E2E2E2E2E2E2E2E2E2E2E2E2E2E2E2E2E2E2E2E2E2E2E2E2E2E2E2E2E2E2E2E2E2E2E2E2E2E2E2E2E2E2E2E2
310
E2E2E2E2E2E2E2E2E2E2E2E2E2F5E2E2E2E2F5E2E2F5F5F5E2E2F5E2E2E2E2F5E2E2E2E2E2E2E2E2E2E2E2E2E2E2E2E2E2E2E2E2E2E2E2F5E2E2E2E2E2E2E2E2E2E2E2E2E2E2E2E2E2E2E2E2E2E2E2E2E2E2E2E2E2E2E2E2E2E2E2E2E2E2E2E2E2E2E2E2E2E2E2E2E2E2E2E2E2E2E2E2E2E2F5E2E2E2E2E2E2F0E2E2E2F0E2
310
E2E2E2E2E2E2E2E2E2E2E2E2E2E2E2E2E2E2E2E2E2E2E2E2E2E2E2E2E2E2E2E2E2E2E2E2E2E2E2E2E2E2E2E2E2E2E2E2E2E2E2E2E2E2E2E2E2E2E2E2E2E2E2E2E2E2F5E2E2E2E2F5E2E2F5F5F5E2E2F5E2E2E2E2F5E2E2E2E2E2E2E2E2E2E2E2E2E2E2E2E2E2E2E2E2E2E2E2F5E2E2E2E2E2E2E2E2E2E2E2E2E2E2E2E2E2E2
310
E2E2E2E2E2E2E2E2E2E2E2E2E2E2E2E2E2E2E2E2E2E2E2E2E2E2E2E2E2E2E2E2E2E2E2E2E2E2E2E2F5E2E2E2E2E2E2F0E2E2E2F0E2E2E2E2E2E2E2E2E2E2E2E2E2E2E2E2E2E2E2E2E2E2E2E2E2E2E2E2E2E2E2E2E2E2E2E2E2E2E2E2E2E2E2E2E2E2E2E2E2E2E2E2E2E2E2E2E2E2E2E2E2E2E2E2E2E2E2F5E2E2E2E2F5E2E2
310
F5F5F5E2E2E2E2E2E2E2F5E2E2E2E2E2E2E2E2E2E2E2E2E2E2E2E2E2E2E2E2E2E2E2F5E2E2E2E2E2E2E2E2E2E2E2E2E2E2E2E2E2E2E2E2E2E2E2E2E2E2E2E2E2E2E2E2E2E2E2E2E2E2E2E2E2E2E2E2E2E2E2E2E2E2E2E2E2E2E2E2E2E2F5E2E2E2E2E2E2F0E2E2E2F0E2E2E2E2E2E2E2E2E2E2E2E2E2E2E2E2E2E2E2E2E2E2
310
E2E2E2E2E2E2E2E2E2E2E2E2E2E2E2E2E2E2E2E2E2E2E2E2E2E2E2E2E2E2E2E2E2E2E2E2E2E2E2E2E2E2E2E2E2F5E2E2E2E2E2E2E2F5F5F5E2E2E2E2E2E2E2F5E2E2E2E2E2E2E2E2E2E2E2E2E2E2E2E2E2E2E2E2E2E2E2F5E2E2E2E2E2E2E2E2E2E2E2E2E2E2E2E2E2E2E2E2E2E2E2E2E2E2E2E2E2E2E2E2E2E2E2E2E2E2E2
310
E2E2E2E2E2E2E2E2E2E2E2E2E2E2E2E2E2E2E2F5E2E2E2E2E2E2F0E2E2E2F0E2E2E2E2E2E2E2E2E2E2E2E2E2E2E2E2E2E2E2E2E2E2E2E2E2E2E2E2E2E2E2E2E2E2E2E2E2E2E2E2E2E2E2E2E2E2E2E2E2E2E2E2E2E2E2E2E2E2E2E2E2E2E2E2E2E2E2F5E2E2E2E2E2E2E2F5F5F5E2E2E2E2E2E2E2F5E2E2E2E2E2E2E2E2E2E2
310
E2E2E2E2E2E2E2E2E2E2E2E2E2F5E2E2E2E2E2E2E2E2E2E2E2E2E2E2E2E2E2E2E2E2E2E2E2E2E2E2E2E2E2E2E2E2E2E2E2E2E2E2E2E2E2E2E2E2E2E2E2E2E2E2E2E2E2E2E2E2E2E2F5E2E2E2E2E2E2F0E2E2E2F0E2E2E2E2E2E2E2E2E2E2E2E2E2E2E2E2E2E2E2E2E2E2E2E2E2E2E2E2E2E2E2E2E2E2E2E2E2E2E2E2E2E2E2
310
E2E2E2E2E2E2E2E2E2E2E2E2E2E2E2E2E2E2E2E2E2E2E2E2F5E2E2E2E2E2E2E2F5F5F5E2E2E2E2E2E2E2F5E2E2E2E2E2E2E2E2E2E2E2E2E2E2E2E2E2E2E2E2E2E2E2F5E2E2E2E2E2E2E2E2E2E2E2E2E2E2E2E2E2E2E2E2E2E2E2E2E2E2E2E2E2E2E2E2E2E2E2E2E2E2E2E2E2E2E2E2E2E2E2E2E2E2E2E2E2E2E2E2E2E2F5E2
310
E2E2E2E2E2F0E2E2E2F0E2E2E2E2E2E2E2E2E2E2E2E2E2E2E2E2E2E2E2E2E2E2E2E2E2E2E2E2E2E2E2E2E2E2E2E2E2E2E2E2E2E2E2E2E2E2E2E2E2E2E2E2E2E2E2E2E2E2E2E2E2E2E2E2E2E2E2F5E2E2E2E2E2E2E2F5F5F5E2E2E2E2E2E2E2F5E2E2E2E2E2E2E2E2E2E2E2E2E2E2E2E2E2E2E2E2E2E2E2F5E2E2E2E2E2E2E2
310
E2E2E2E2E2E2E2E2E2E2E2E2E2E2E2E2E2E2E2E2E2E2E2E2E2E2E2E2E2E2E2E2E2E2E2E2E2E2E2E2E2E2E2E2E2E2E2E2E2E2E2F5E2E2E2E2E2E2F0E2E2E2F0E2E2E2E2E2E2E2E2E2E2E2E2E2E2E2E2E2E2E2E2E2E2E2E2E2E2E2E2E2E2E2E2E2E2E2E2E2E2E2E2E2E2E2E2E2E2E2E2E2E2E2E2E2E2E2E2E2E2E2E2E2E2E2E2
310
E2E2E2F5E2E2E2E2E2E2E2F5F5F5E2E2E2E2E2E2E2F5E2E2E2E2E2E2E2E2E2E2E2E2E2E2E2E2E2E2E2E2E2E2E2F5E2E2E2E2E2E2E2E2E2E2E2E2E2E2E2E2E2E2E2E2E2E2E2E2E2E2E2E2E2E2E2E2E2E2E2E2E2E2E2E2E2E2E2E2E2E2E2E2E2E2E2E2E2E2E2E2E2E2F5E2E2E2E2E2E2F0E2E2E2F0E2E2E2E2E2E2E2E2E2E2E2
310
E2E2E2E2E2E2E2E2E2E2E2E2E2E2E2E2E2E2E2E2E2E2E2E2E2E2E2E2E2E2E2E2E2E2E2E2E2E2E2E2E2E2E2E2E2E2E2E2E2E2E2E2E2E2E2E2F5E2E2E2E2E2E2E2F5F5F5E2E2E2E2E2E2E2F5E2E2E2E2E2E2E2E2E2E2E2E2E2E2E2E2E2E2E2E2E2E2E2F5E2E2E2E2E2E2E2E2E2E2E2E2E2E2E2E2E2E2E2E2E2E2E2E2E2E2E2E2
310
E2E2E2E2E2E2E2E2E2E2E2E2E2E2E2E2E2E2E2E2E2E2E2E2E2E2E2E2E2E2F5F5E2E2E2E2E2F0E2E2E2F0E2E2E2E2E2E2E2E2E2E2E2E2E2E2E2E2E2E2E2E2E2E2E2E2E2E2E2E2E2E2E2E2E2E2E2E2E2E2E2E2E2E2E2E2E2E2E2E2E2E2E2E2E2E2E2E2E2E2E2E2E2E2E2E2E2E2E2F5E2E2E2E2E2E2E2F5F5F5E2E2E2E2E2E2E2
310
F5E2E2E2E2E2E2E2E2E2E2E2E2E2E2E2E2E2E2E2E2E2E2E2F0F5E2E2E2E2E2E2E2E2E2E2E2E2E2E2E2E2E2E2E2E2E2E2E2E2E2E2E2E2E2E2E2E2E2E2E2E2E2E2E2E2E2E2E2E2E2E2E2E2E2E2E2E2E2E2E2E2E2F0F5E2E2E2E2E2F0F0E2F0F0E2E2E2E2E2E2E2E2E2E2E2E2E2E2E2E2E2E2E2E2E2E2E2E2E2E2E2E2E2E2E2E2
310
E2E2E2E2E2E2E2E2E2E2E2E2E2E2E2E2E2E2E2E2E2E2E2E2E2E2E2E2E2E2E2E2E2E2E2F5E2E2E2E2E2E2E2F5F5F5E2E2E2E2E2E2E2F5E2E2E2E2E2E2E2E2E2E2E2E2E2E2E2E2E2E2E2E2E2E2E2F0F5F5F5F5F5F5F5F5F5F5F5F5F5F5F5F5F5F5F5F5F5F5F5F5F5F5F5F5F5F5F5F5F5F5F5F5F5F5F5F5F5F5F5F5F5F5F5F5F5
310
F5F5F5F5F5F5F5F5F5F0F0F0F0F0F0F0F0F0E2E2F0E2E2E2E2E2E2E2E2E2E2E2E2E2E2E2E2E2E2E2E2E2E2E2E2E2E2E2E2E2E2E2E2E2E2E2E2E2E2E2E2E2E2E2E2E2E2E2E2E2E2E2E2E2E2E2E2E2E2E2E2E2E2E2E2E2E2E2F5E2E2E2E2E2E2E2F5F5F5E2E2F5E2E2E2E2F5E2E2E2E2E2E2E2E2E2E2E2E2E2E2E2E2E2E2E2E2
310
E2E2E2F0F5F5E2E2E2E2E2E2E2E2E2E2E2E2E2E2E2E2E2E2E2E2E2E2E2E2E2E2E2E2E2E2E2E2E2E2E2E2E2E2E2E2E2E2E2E2E2E2E2E2E2E2E2E2E2E2F5F5F0F0F0F0F0F0F0F0F0F0F0F0F0E2E2E2E2E2E2E2E2E2E2E2E2E2E2E2E2E2E2E2E2E2E2E2E2E2E2E2E2E2E2E2E2E2E2E2E2E2E2E2E2E2E2E2E2E2E2E2E2E2E2E2E2
310
E2E2E2E2E2E2E2E2E2E2E2E2E2E2F5E2E2E2E2F5E2E2F5F5F5E2E2F5E2E2E2E2F5E2E2E2E2E2E2E2E2E2E2E2E2E2E2E2E2E2E2E2E2E2E2E2F0E2E2E2E2E2E2E2E2E2E2E2E2E2E2E2E2E2E2E2E2E2E2E2E2E2E2E2E2E2E2E2E2E2E2E2E2E2E2E2E2E2E2E2E2E2E2E2E2E2E2E2E2E2E2E2E2E2E2F0F0E2E2E2E2E2E2E2E2E2E2
310
E2E2E2E2E2E2E2E2E2E2E2E2E2E2E2E2E2E2E2E2E2E2E2E2E2E2E2E2E2E2E2E2E2E2E2E2E2E2E2E2E2E2E2E2E2E2E2E2E2E2E2E2E2E2E2E2E2E2E2E2E2E2E2E2E2E2E2F5E2E2E2E2F5E2E2F5F5F5E2E2F5E2E2E2E2F5E2E2E2E2E2E2E2E2E2E2E2E2E2E2E2E2E2E2E2E2E2E2E2F0E2E2E2E2E2E2E2E2E2E2E2E2E2E2E2E2E2
310
E2E2E2E2E2E2E2E2E2E2E2E2E2E2E2E2E2E2E2E2E2E2E2E2E2E2E2E2E2E2E2E2E2E2E2E2E2E2E2E2E2F0F0E2E2E2E2E2E2E2E2E2E2E2E2E2E2E2E2E2E2E2E2E2E2E2E2E2E2E2E2E2E2E2E2E2E2E2E2E2E2E2E2E2E2E2E2E2E2E2E2E2E2E2F5F5F5F5F5F5F5F5F5F5F5F5F5E2E2E2E2E2E2E2E2E2E2E2E2E2F5E2E2E2E2F5E2
310
E2F5F5F5E2E2F5E2E2E2E2F5E2E2E2E2E2E2E2E2E2E2E2E2E2E2E2E2E2E2E2E2E2E2E2F0E2E2E2E2E2E2E2E2E2E2E2E2E2E2E2E2E2E2E2E2E2E2E2E2E2E2E2E2E2E2E2E2E2E2E2E2E2E2E2E2E2E2E2E2E2E2E2E2E2E2E2E2E2E2E2E2E2E2F0F0E2E2E2E2E2E2E2E2E2E2E2E2E2E2E2E2E2E2E2E2E2E2E2E2E2E2E2E2E2E2E2
310
E2E2E2E2E2E2E2E2E2E2E2E2E2E2E2E2E2E2E2E2F5F5F5F5F5F5F5F5F5F5F5F5F5E2E2E2E2E2E2E2E2E2E2E2E2E2F5E2E2E2E2F5E2E2F5F5F5E2E2F5E2E2E2E2F5E2E2E2E2E2E2E2E2E2E2E2E2E2E2E2E2E2E2E2E2E2E2E2F0E2E2E2E2E2E2E2E2E2E2E2E2E2E2E2E2E2E2E2E2E2E2E2E2E2E2E2E2E2E2E2E2E2E2E2E2E2E2
310
E2E2E2E2E2E2E2E2E2E2E2E2E2E2E2E2E2E2E2E2F0F0E2E2E2E2E2E2E2E2E2E2E2E2E2E2E2E2E2E2E2E2E2E2E2E2E2E2E2E2E2E2E2E2E2E2E2E2E2E2E2E2E2E2E2E2E2E2E2E2E2E2E2E2E2E2E2E2E2E2E2E2E2E2E2E2E2E2E2E2E2E2E2E2E2E2E2E2E2F5E2E2E2E2F5E2E2F5F5F5E2E2F5E2E2E2E2F5E2E2E2E2E2E2E2E2E2
310
E2E2E2E2E2E2E2E2E2E2E2E2E2E2F0F0F0F0F0F0F0F0F0F0F0F0F0F0F0F0F0F0F0F0F0F0F0F0F0F0F0F0DCDCDCDCF0F0F0F0F0F0F0F0F0F0F0F0F0F0F0F0F0F0F0F0F0F0F0F0F0F0F0F0F0E2E2E2E2E2E2E2E2E2E2E2E2E2E2E2E2E2E2E2E2E2E2E2E2E2E2E2E2E2E2E2E2E2E2E2E2E2E2E2E2E2E2E2E2E2E2E2E2E2E2E2E2
310
E2E2E2E2E2E2E2E2E2E2E2E2E2E2E2E2E2E2E2E2E2E2E2E2E2F5E2E2E2E2F5E2E2F5F5F5E2E2F5E2E2E2E2F5E2E2E2E2E2E2E2E2E2E2E2E2E2E2E2E2E2E2E2E2E2E2E2F0E2E2E2E2E2E2E2E2E2E2E2E2E2E2E2E2E2E2E2E2E2E2E2E2E2E2E2DCDCDCDCE2E2E2E2E2E2E2E2E2E2E2E2E2E2E2E2E2E2E2E2E2E2E2E2E2E2E2F0
310
F0E2E2E2E2E2E2E2E2E2E2E2E2E2E2E2E2E2E2E2E2E2E2E2E2E2E2E2E2E2E2E2E2E2E2E2E2E2E2E2E2E2E2E2E2E2E2E2E2E2E2E2E2E2E2E2E2E2E2E2E2E2E2E2E2E2E2E2E2E2E2E2E2E2E2E2E2E2F5E2E2E2E2F5E2E2F5F5F5E2E2F5E2E2E2E2F5E2E2E2E2E2E2E2E2E2E2E2E2E2E2E2E2E2E2E2E2E2E2E2F0F0F0F0F0F0F0
310
F0F0F0F0F0F0F0F0F0F0F0F0F0F0F0F0F0F0F0F0F0F0F0F0F0F0F0F0F0F0F0F0F0F0F0F0F0F0F0F0F0F0F0F0F0F0F0F0F0F0F0F0F0F0E2E2E2E2E2E2E2E2E2E2E2E2E2E2E2E2E2E2E2E2E2E2E2E2E2E2E2E2E2E2E2E2E2E2E2E2E2E2E2E2E2E2E2E2E2E2E2E2E2E2E2E2E2E2E2E2E2E2E2E2E2E2E2E2E2E2E2E2E2E2E2E2E2
310
E2E2E2E2F5E2E2E2E2F5E2E2F5F5F5E2E2F5E2E2E2E2F5E2E2E2E2E2E2E2E2E2E2E2E2E2E2E2E2E2E2E2E2E2E2E2F0F0E2E2E2E2E2E2E2E2E2E2E2E2E2E2E2E2E2E2E2E2E2E2E2E2E2E2DCE2DCDCE2E2E2E2E2E2E2E2E2E2E2E2E2E2E2E2E2E2E2E2E2E2E2E2E2E2E2F0F0E2E2E2E2E2E2E2E2E2E2E2E2E2E2E2E2E2E2E2E2
310
E2E2E2E2E2E2E2E2E2E2E2E2E2E2E2E2E2E2E2E2E2E2E2E2E2E2E2E2E2E2E2E2E2E2E2E2E2E2E2E2E2E2E2E2E2E2E2E2E2E2E2E2E2E2E2E2E2F5E2E2E2E2F5E2E2F5F5F5E2E2F5E2E2E2E2F5E2E2E2E2E2E2E2E2E2E2E2E2E2E2E2E2E2E2E2E2E2E2E2E2E2E2E2E2E2E2E2E2E2E2E2E2E2E2E2E2E2E2E2E2E2E2E2E2E2E2E2
310
DCDCDCDCE2E2E2E2E2E2E2E2E2E2E2E2E2E2E2E2E2E2E2E2E2E2E2E2E2E2E2E2E2E2E2E2E2E2E2E2E2E2E2E2E2E2E2E2E2E2E2E2E2E2E2E2E2E2E2E2E2E2E2E2E2E2E2E2E2E2E2E2E2E2E2E2E2E2E2E2E2E2E2E2E2E2E2E2E2E2E2E2E2E2E2E2E2E2E2E2E2E2E2E2E2E2E2E2E2E2F5E2E2E2E2F5E2E2F5F5F5E2E2F5E2E2E2
310
E2F5E2E2E2E2E2E2E2E2E2E2E2E2E2E2E2E2E2E2E2E2E2E2E2E2E2E2E2E2E2E2E2E2E2E2E2E2E2E2E2E2E2E2E2E2E2E2E2E2E2E2E2E2E2E2E2E2E2E2E2E2E2E2E2E2E2E2E2E2E2E2E2E2E2E2E2E2E2E2E2E2E2E2E2E2E2E2E2E2E2E2E2E2E2E2E2E2E2E2E2E2E2E2E2E2E2E2E2E2E2E2E2E2E2E2E2E2E2E2E2E2E2E2E2E2E2
310
E2E2E2E2E2E2E2E2E2E2E2E2E2E2E2E2E2E2E2E2E2E2E2E2E2E2E2E2E2E2E2E2E2E2E2E2F5E2E2E2E2F5E2E2F5F5F5E2E2F5E2E2E2E2F5E2E2E2E2E2E2E2E2E2E2E2E2E2E2E2E2E2E2E2E2E2E2E2E2E2E2E2E2E2E2E2E2E2E2E2E2E2E2E2E2E2E2E2E2E2E2E2E2E2E2E2E2E2E2E2E2E2E2E2E2E2E2E2E2E2E2E2E2E2E2E2E2
310
E2E2E2E2E2E2E2E2E2E2E2E2E2E2E2E2E2E2E2E2E2E2E2E2E2E2E2E2E2E2E2E2E2E2E2E2E2E2E2E2E2E2E2E2E2E2E2E2E2E2E2E2E2E2E2E2E2E2E2E2E2E2E2E2E2E2E2E2E2E2E2E2E2E2E2E2E2E2E2E2E2E2E2E2E2E2E2E2E2F5E2E2E2E2F5E2E2F5F5F5E2E2F5E2E2E2E2F5E2E2E2E2E2E2E2E2E2E2E2E2E2E2E2E2E2E2E2
310
E2E2E2E2E2E2E2E2E2E2E2E2E2E2E2E2E2E2E2E2E2E2E2E2E2E2E2E2E2E2E2E2E2E2E2E2E2E2E2E2E2E2E2E2E2E2E2E2E2E2E2E2E2E2E2E2E2E2E2E2E2E2E2E2E2E2E2E2E2E2E2E2E2E2E2E2E2E2E2E2E2E2E2E2E2E2E2E2E2E2E2E2E2E2E2E2E2E2E2E2E2E2E2E2E2E2E2E2E2E2E2E2E2E2E2E2E2E2E2E2E2E2E2E2E2E2E2
310
E2E2E2E2E2E2E2E2E2E2E2E2E2E2E2F5E2E2E2E2F5E2E2F5F5F5E2E2F5E2E2E2E2F5E2E2E2E2E2E2E2E2E2E2E2E2E2E2E2E2E2E2E2E2E2E2E2E2E2E2E2E2E2E2E2E2E2E2E2E2E2E2E2E2E2E2E2E2E2E2E2E2E2E2E2E2E2E2E2E2E2E2E2E2E2E2E2E2E2E2E2E2E2E2E2E2E2E2E2E2E2E2E2E2E2E2E2E2E2E2E2E2E2E2E2E2E2
310
E2E2E2E2E2E2E2E2E2E2E2E2E2E2E2E2E2E2E2E2E2E2E2E2E2E2E2E2E2E2E2E2E2E2E2E2E2E2E2E2E2E2E2E2E2E2E2E2E2E2E2E2E2E2E2E2E2E2E2E2E2E2E2E2E2E2E2E2F5E2E2E2E2F5E2E2F5F5F5E2E2F5E2E2E2E2F5E2E2E2E2E2E2E2E2E2E2E2E2E2E2E2E2E2E2E2E2E2E2E2E2E2E2E2E2E2E2E2E2E2E2E2E2E2E2E2E2
310
E2E2E2E2E2E2E2E2E2E2E2E2E2E2E2E2E2E2E2E2E2E2E2E2E2E2E2E2E2E2E2E2E2E2E2E2E2E2E2E2E2E2E2E2E2E2E2E2E2E2E2E2E2E2E2E2E2E2E2E2E2E2E2E2E2E2E2E2E2E2E2E2E2E2E2E2E2E2E2E2E2E2E2E2E2E2E2E2E2E2E2E2E2E2E2F5F5F5F5F5F5F5F5F5F5F5F5F5F5E2E2E2E2E2E2E2E2E2E2E2E2F5E2E2E2E2F5
310
E2E2F5F5F5E2E2E2E2E2E2E2F5E2E2E2E2E2E2E2E2E2E2E2E2E2E2E2E2E2E2E2E2E2E2E2E2E2E2E2E2E2E2E2E2E2E2E2E2E2E2E2E2E2E2E2E2E2E2E2E2E2E2E2E2E2E2E2E2E2E2E2E2E2E2E2E2E2E2E2E2E2E2E2E2E2E2E2E2E2E2E2E2E2E2E2E2E2E2E2E2E2E2E2E2E2E2E2E2E2E2E2E2E2E2E2E2E2E2E2E2E2E2E2E2E2E2
310
E2E2E2E2E2E2E2E2E2E2E2E2E2E2E2E2E2E2E2E2E2F5F5F5F5F5F5F5F5F5F5F5F5F5F5E2E2E2E2E2E2E2E2E2E2E2E2F5E2E2E2E2E2E2E2F5F5F5E2E2E2E2E2E2E2F5E2E2E2E2E2E2E2E2E2E2E2E2E2E2E2E2E2E2E2E2E2E2E2E2E2E2E2E2E2E2E2E2E2E2E2E2E2E2E2E2E2E2E2E2E2E2E2E2E2E2E2E2E2E2E2E2E2E2E2E2E2
310
E2E2E2E2E2E2E2E2E2E2E2E2E2E2E2E2E2E2E2E2E2E2E2E2E2E2E2E2E2E2E2E2E2E2E2E2E2E2E2E2E2E2E2E2E2E2E2E2E2E2E2E2E2E2E2E2E2E2E2E2E2E2E2E2E2E2E2E2E2E2E2E2E2E2F5F5F5F5F5F5F5F5F5F5F5F5F5F5E2E2E2E2E2E2E2E2E2E2E2E2F5E2E2E2E2E2E2E2F5F5F5E2E2E2E2E2E2E2F5E2E2E2E2E2E2E2E2
310
E2E2E2E2E2E2E2E2E2E2E2E2E2E2E2E2E2E2E2E2E2E2E2E2E2E2E2E2E2E2E2E2E2E2E2E2E2E2E2E2E2E2E2E2E2E2E2E2E2E2E2E2E2E2E2E2E2E2E2E2E2E2E2E2E2E2E2E2E2E2E2E2E2E2E2E2E2E2E2E2E2E2E2E2E2E2E2E2E2E2E2E2E2E2E2E2E2E2E2E2E2E2E2E2E2E2E2E2E2E2E2E2E2E2E2E2E2E2E2E2E2E2E2E2E2E2E2
310
F5F5F5F5F5F5F5F5F5F5F5F5F5F5E2E2E2E2E2E2E2E2E2E2E2E2F5E2E2E2E2E2E2E2F5F5F5E2E2E2E2E2E2E2F5E2E2E2E2E2E2E2E2E2E2E2E2E2E2E2E2E2E2E2E2E2E2E2E2E2E2E2E2E2E2E2E2E2E2E2E2E2E2E2E2E2E2E2E2E2E2E2E2E2E2E2E2E2E2E2E2E2E2E2E2E2E2E2E2E2E2E2E2E2E2E2E2E2E2E2E2E2E2E2E2E2E2
310
E2E2E2E2E2E2E2E2E2E2E2E2E2E2E2E2E2E2E2E2E2E2E2E2E2E2E2E2E2E2E2E2E2E2E2E2E2E2E2E2E2E2E2E2E2E2E2E2E2E2E2E2E2F5F5F5F5F5F5F5F5F5F5F5F5F5F5E2E2E2E2E2E2E2E2E2E2E2E2F5E2E2E2E2E2E2E2F5F5F5E2E2E2E2E2E2E2F5E2E2E2E2E2E2E2E2E2E2E2E2E2E2E2E2E2E2E2E2E2E2E2E2E2E2E2E2E2
310
E2E2E2E2E2E2E2E2E2E2E2E2E2E2E2E2E2E2E2E2E2E2E2E2E2E2E2E2E2E2E2E2E2E2E2E2E2E2E2E2E2E2E2E2E2E2E2E2E2E2E2E2E2E2E2E2E2E2E2E2E2E2E2E2E2E2E2E2E2E2E2E2E2E2E2E2E2E2E2E2E2E2E2E2E2E2E2E2E2E2E2E2E2E2E2E2E2E2E2E2E2E2E2E2E2E2F5F5F5F5F5F5F5F5F5F5F5F5F5F5E2E2E2E2E2E2E2
310
E2E2E2E2E2F5E2E2E2E2E2E2E2F5F5F5E2E2E2E2E2E2E2F5E2E2E2E2E2E2E2E2E2E2E2E2E2E2E2E2E2E2E2E2E2E2E2E2E2E2E2E2E2E2E2E2E2E2E2E2E2E2E2E2E2E2E2E2E2E2E2E2E2E2E2E2E2E2E2E2E2E2E2E2E2E2E2E2E2E2E2E2E2E2E2E2E2E2E2E2E2E2E2E2E2E2E2E2E2E2E2E2E2E2E2E2E2E2E2E2E2E2E2E2E2E2E2
310
E2E2E2E2E2E2E2E2E2E2E2E2E2E2E2E2E2E2E2E2E2E2E2E2E2E2E2E2E2E2E2E2F5F5F5F5F5F5F5F5F5F5F5F5F5F5E2E2E2E2E2E2E2E2E2E2E2E2F5E2E2E2E2E2E2E2F5F5F5E2E2E2E2E2E2E2F5E2E2E2E2E2E2E2E2E2E2E2E2E2E2E2E2E2E2E2E2E2E2E2E2E2E2E2E2E2E2E2E2E2E2E2E2E2E2E2E2E2E2E2E2E2E2E2E2E2E2
310
E2E2E2E2E2E2E2E2E2E2E2E2E2E2E2E2E2E2E2E2E2E2E2E2E2E2E2E2E2E2E2E2E2E2E2E2E2E2E2E2E2E2E2E2E2E2E2E2E2E2E2E2E2E2E2E2E2E2E2E2E2E2E2E2E2E2E2E2E2E2E2E2E2E2E2E2E2E2E2E2E2E2E2E2E2E2E2E2E2E2E2E2E2E2E2E2E2E2E2E2E2E2E2E2E2E2E2E2E2E2E2F5E2E2E2E2E2E2E2F5F5F5E2E2E2E2E2
310
E2E2F5E2E2E2E2E2E2E2E2E2E2E2E2E2E2E2E2E2E2E2E2E2E2E2E2E2E2E2E2E2E2E2E2E2E2E2E2E2E2E2E2E2E2E2E2E2E2E2E2E2E2E2E2E2E2E2E2E2E2E2E2E2E2E2E2E2E2E2E2E2E2E2E2E2E2E2E2E2E2E2E2E2E2E2E2E2E2E2E2E2E2E2E2E2E2E2E2E2E2E2E2E2E2E2E2E2E2E2E2E2E2E2E2E2E2E2E2E2E2E2E2E2E2E2E2
310
E2E2E2E2E2E2E2E2E2E2E2E2E2E2E2E2E2E2E2E2E2E2E2E2E2E2E2E2E2E2E2E2E2E2E2E2E2F5E2E2E2E2E2E2E2F5F5F5E2E2E2E2E2E2E2F5E2E2E2E2E2E2E2E2E2E2E2E2E2E2E2E2E2E2E2E2E2E2E2E2E2E2E2E2E2E2E2E2E2E2E2E2E2E2E2E2E2E2E2E2E2E2E2E2E2E2E2E2E2E2E2E2E2E2E2E2E2E2E2E2E2E2E2E2E2E2E2
310
E2E2E2E2E2E2E2E2E2E2E2E2E2E2E2E2E2E2E2E2E2E2E2E2E2E2E2E2E2E2E2E2E2E2E2E2E2E2E2E2E2E2E2E2E2E2E2E2E2E2E2E2E2E2E2E2E2E2E2E2E2E2E2E2E2E2E2E2E2E2E2E2E2E2E2E2E2E2E2E2E2E2E2E2E2E2E2E2E2E2F5E2E2E2E2E2E2E2F5F5F5E2E2F5E2E2E2E2F5E2E2E2E2E2E2E2E2E2E2E2E2E2E2E2E2E2E2
310
E2E2E2E2E2E2E2E2E2E2E2E2E2E2E2E2E2E2E2E2E2E2E2E2E2E2E2E2E2E2E2E2E2E2E2E2E2E2E2E2E2E2E2E2E2E2E2E2E2E2E2E2E2E2E2E2E2E2E2E2E2E2E2E2E2E2E2E2E2E2E2E2E2E2E2E2E2E2E2E2E2E2E2E2E2E2E2E2E2E2E2E2E2E2E2E2E2E2E2E2E2E2E2E2E2E2E2E2E2E2E2E2E2E2E2E2E2E2E2E2E2E2E2E2E2E2E2
310
E2E2E2E2E2E2E2E2E2E2E2E2E2E2E2E2F5E2E2E2E2F5E2E2F5F5F5E2E2F5E2E2E2E2F5E2E2E2E2E2E2E2E2E2E2E2E2E2E2E2E2E2E2E2E2E2E2E2E2E2E2E2E2E2E2E2E2E2E2E2E2E2E2E2E2E2E2E2E2E2E2E2E2E2E2E2E2E2E2E2E2E2E2E2E2E2E2E2E2E2E2E2E2E2E2E2E2E2E2E2E2E2E2E2E2E2E2E2E2E2E2E2E2E2E2E2E2
310
E2E2E2E2E2E2E2E2E2E2E2E2E2E2E2E2E2E2E2E2E2E2E2E2E2E2E2E2E2E2E2E2E2E2E2E2E2E2E2E2E2E2E2E2E2E2E2E2E2E2E2E2E2E2E2E2E2E2E2E2E2E2E2E2E2E2E2E2E2F5E2E2E2E2F5E2E2F5F5F5E2E2F5E2E2E2E2F5E2E2E2E2E2E2E2E2E2E2E2E2E2E2E2E2E2E2E2E2E2E2E2E2E2E2E2E2E2E2E2E2E2E2E2E2E2E2E2
310
E2E2E2E2E2E2E2E2E2E2E2E2E2E2E2E2E2E2E2E2E2E2E2E2E2E2E2E2E2E2E2E2E2E2E2E2E2E2E2E2E2E2E2E2E2E2E2E2E2E2E2E2E2E2E2E2E2E2E2E2E2E2E2E2E2E2E2E2E2E2E2E2E2E2E2E2E2E2E2E2E2E2E2E2E2E2E2E2E2E2E2E2E2E2E2E2E2E2E2E2E2E2E2E2E2E2E2E2E2E2E2E2E2E2E2E2E2E2E2E2E2E2F5E2E2E2E2
310
F5E2E2F5F5F5E2E2F5E2E2E2E2F5F5F5F5F5F5F5F5F5F5F5F5F5F5F5F5F5F5F5F5F5F5F5F5F5F5F5F5F5F5F5F5F5F5F5F5F5F5F5F5F5F5F5F5F5F5F5F5F5F5F5F5F5F5F5F5F5F5F5F5F5F5F5F5F5F5F5F5F5F5F5F5F5F5F5F5F5F5F5F5F5F5F5F5F5F5F5F5F5F5F5F5F5F5F5F5F5F5F5F5F5F5F5F5F5F5F5F5F5F5F5F5F5F5
310
F5F5F5F5F5F5F5F5F5F5F5F5F5F5F5F5F5F5F5F5F5F5F5F5F5F5F5F5F5F5F5F5F5F5F5F5F5F5F5F5F5F5F5F5F5F5F5F5F5E2E2E2E2F5E2E2F5F5F5E2E2F5E2E2E2E2E2E2E2E2E2E2E2E2E2E2E2E2E2E2E2E2E2E2E2E2E2E2E2E2E2E2E2E2E2E2E2E2E2E2E2E2E2E2E2E2E2E2E2E2E2E2E2E2E2E2E2E2E2E2E2E2E2E2E2E2E2
310
E2E2E2E2E2E2E2E2E2E2E2E2E2E2E2E2E2E2E2E2E2E2E2E2E2E2E2E2E2E2E2E2E2E2E2E2E2E2E2E2E2E2E2E2E2E2E2E2E2E2E2E2E2E2E2E2E2E2E2E2E2E2E2E2E2E2E2E2E2E2E2E2E2E2E2E2E2E2E2E2E2E2E2E2E2E2E2E2E2E2E2E2E2E2E2E2E2E2E2E2E2E2E2E2E2E2F5E2E2F5F5F5E2E2F5E2E2E2E2E2E2E2E2E2E2E2E2
310
E2E2E2E2E2E2E2E2E2E2E2E2E2E2E2E2E2E2E2E2E2E2E2E2E2E2E2E2E2E2E2E2E2E2E2E2E2E2E2E2E2E2E2E2E2E2E2E2E2E2E2E2E2E2E2E2E2E2E2E2E2E2E2E2E2E2E2E2E2E2E2E2E2E2E2E2E2E2E2E2E2E2E2E2E2E2E2E2E2E2E2E2E2E2E2E2E2E2E2E2E2E2E2E2E2E2E2E2E2E2E2E2E2E2E2E2E2E2E2E2E2E2E2E2E2E2E2
310
E2E2E2E2E2E2E2E2E2E2E2E2E2E2E2E2E2E2E2E2E2E2E2E2E2E2E2E2E2E2E2E2F5E2E2F5F5F5E2E2F5E2E2E2E2E2E2E2E2E2E2E2E2E2E2E2E2E2E2E2E2E2E2E2E2E2E2E2E2E2E2E2E2E2E2E2E2E2E2E2E2E2E2E2E2E2E2E2E2E2E2E2E2E2E2E2E2E2E2E2E2E2E2E2E2E2E2E2E2E2E2E2E2E2E2E2E2E2E2E2E2E2E2E2E2E2E2
310
E2E2E2E2E2E2E2E2E2E2E2E2E2E2E2E2E2E2E2E2E2E2E2E2E2E2E2E2E2E2E2E2E2E2E2E2E2E2E2E2E2E2E2E2E2E2E2E2E2E2E2E2E2E2E2E2E2E2E2E2E2E2E2E2E2E2E2E2E2E2E2E2E2E2E2E2E2E2E2E2E2E2E2E2E2F5E2E2F5F5F5E2E2F5F5F5F5F5F5F5F5E2E2E2E2E2E2E2E2E2F5F5F5F5F5F5F5F5F5F5F5F5F5F5F5F5E2
310
E2E2E2E2E2E2E2E2F5F5F5F5F5F5F5F5F5F5F5F5F5F5F5F5E2E2E2E2E2E2E2E2F5F5F5F5F5F5F5F5F5F5F5F5F5F5F5F5E2E2E2E2E2E2E2E2E2F5F5F5F5F5F5F5F5F5F5F5F5F5F5F5F5E2E2E2E2E2E2E2E2F5F5F5F5F5F5F5F5F5F5F5F5F5F5F5F5E2E2E2E2E2E2E2E2E2F5F5F5F5F5F5F5F5F5F5F5F5F5F5F5F5E2E2E2E2E2
310
E2E2E2E2F5F5F5F5F5F5F5F5E2E2F5F5F5E2E2E2E2E2E2E2E2E2E2E2E2E2E2E2E2E2E2E2E2E2E2E2E2E2E2E2E2E2E2E2E2E2E2E2E2E2E2E2E2E2E2E2E2E2E2E2E2E2E2E2E2E2E2E2E2E2E2E2E2E2E2E2E2E2E2E2E2E2E2E2E2E2E2E2E2E2E2E2E2E2E2E2E2E2E2E2E2E2E2E2E2E2E2E2E2E2E2E2E2E2E2E2E2E2E2E2E2E2E2
310
E2E2E2E2E2E2E2E2E2E2E2E2E2E2E2E2E2E2E2E2E2E2E2E2E2E2E2E2E2E2E2E2E2E2E2E2E2E2E2E2E2E2E2E2E2E2E2E2E2E2E2E2E2E2E2E2E2E2E2E2E2E2E2E2E2E2E2F5F5F5E2E2E2E2E2E2E2E2E2E2E2E2E2E2E2E2E2E2E2E2E2E2E2E2E2E2E2E2E2E2E2E2E2E2E2E2E2E2E2E2E2E2E2E2E2E2E2E2E2E2E2E2E2E2E2E2E2
310
E2E2E2E2E2E2E2E2E2E2E2E2E2E2E2E2E2E2E2E2E2E2E2E2E2E2E2E2E2E2E2E2E2E2E2E2E2E2E2E2E2E2E2E2E2E2E2E2E2E2E2E2E2E2E2E2E2E2E2E2E2E2E2E2E2E2E2E2E2E2E2E2E2E2E2E2E2E2E2E2E2E2E2E2E2E2E2E2E2E2E2E2E2E2E2E2E2E2E2E2E2E2E2E2E2E2E2E2E2E2E2E2E2E2E2E2E2E2E2E2F5EFF5F5F5F5F5
310
F5F5F5F5F5F5F5F5F5F5F5F5F5F5F5F5F5F5F5F5F5F5F5F5F5F5F5F5F5F5F5F5F5F5F5F5F5F5F5F5F5F5F5F5F5F5F5F5F5F5F5F5F5F5F5F5F5F5F5F5F5F5F5F5F5F5F5F5F5F5F5F5F5F5F5F5F5F5F5F5F5F5F5F5F5F5F5F5F5F5F5F5F5F5F5F5F5F5F5F5F5F5F5F5F5F5F5F5F5F5F5F5F5F5F5F5F5F5F5F5F5F5F5F5F5F5F5
310
F5F5F5F5F5F5F5F5F5F5F5F5F5F5F5F5F5F5F5F5F5F5F5F5F5F5F5F5F5F5F5F5F5F5F5F5F5F5F5F5F5F5F5F5F5F5F5EF
  0
XRECORD
  5
34FE
102
{ACAD_REACTORS
330
2A72
102
}
330
2A72
100
AcDbXrecord
280
     1
102
MATERIAL
148
0.0
149
0.0
149
0.0
 93
        0
 94
      127
282
     0
 72
     0
 77
     0
171
     0
175
     0
179
     0
273
     0
  0
XRECORD
  5
2A74
102
{ACAD_REACTORS
330
2A72
102
}
330
2A72
100
AcDbXrecord
280
     1
270
     1
271
     1
  0
XRECORD
  5
2A73
102
{ACAD_REACTORS
330
2A72
102
}
330
2A72
100
AcDbXrecord
280
     1
270
     1
271
     1
  0
XRECORD
  5
2A77
102
{ACAD_REACTORS
330
2A72
102
}
330
2A72
100
AcDbXrecord
280
     1
270
     1
271
     1
  0
XRECORD
  5
2A76
102
{ACAD_REACTORS
330
2A72
102
}
330
2A72
100
AcDbXrecord
280
     1
270
     1
271
     1
  0
XRECORD
  5
2A78
102
{ACAD_REACTORS
330
2A72
102
}
330
2A72
100
AcDbXrecord
280
     1
270
     1
271
     1
  0
XRECORD
  5
2A75
102
{ACAD_REACTORS
330
2A72
102
}
330
2A72
100
AcDbXrecord
280
     1
270
     1
271
     1
  0
XRECORD
  5
34FD
102
{ACAD_REACTORS
330
2A6A
102
}
330
2A6A
100
AcDbXrecord
280
     1
102
MATERIAL
148
0.0
149
0.0
149
0.0
 93
        0
 94
      127
282
     0
 72
     0
 77
     0
171
     0
175
     0
179
     0
273
     0
  0
XRECORD
  5
2A6C
102
{ACAD_REACTORS
330
2A6A
102
}
330
2A6A
100
AcDbXrecord
280
     1
270
     1
271
     1
  0
XRECORD
  5
2A6B
102
{ACAD_REACTORS
330
2A6A
102
}
330
2A6A
100
AcDbXrecord
280
     1
270
     1
271
     1
  0
XRECORD
  5
2A6F
102
{ACAD_REACTORS
330
2A6A
102
}
330
2A6A
100
AcDbXrecord
280
     1
270
     1
271
     1
  0
XRECORD
  5
2A6E
102
{ACAD_REACTORS
330
2A6A
102
}
330
2A6A
100
AcDbXrecord
280
     1
270
     1
271
     1
  0
XRECORD
  5
2A70
102
{ACAD_REACTORS
330
2A6A
102
}
330
2A6A
100
AcDbXrecord
280
     1
270
     1
271
     1
  0
XRECORD
  5
2A6D
102
{ACAD_REACTORS
330
2A6A
102
}
330
2A6A
100
AcDbXrecord
280
     1
270
     1
271
     1
  0
XRECORD
  5
34FF
102
{ACAD_REACTORS
330
2A7A
102
}
330
2A7A
100
AcDbXrecord
280
     1
102
MATERIAL
148
0.0
149
0.0
149
0.0
 93
        0
 94
      127
282
     0
 72
     0
 77
     0
171
     0
175
     0
179
     0
273
     0
  0
XRECORD
  5
2A7C
102
{ACAD_REACTORS
330
2A7A
102
}
330
2A7A
100
AcDbXrecord
280
     1
270
     1
271
     1
  0
XRECORD
  5
2A7B
102
{ACAD_REACTORS
330
2A7A
102
}
330
2A7A
100
AcDbXrecord
280
     1
270
     1
271
     1
  0
XRECORD
  5
2A7F
102
{ACAD_REACTORS
330
2A7A
102
}
330
2A7A
100
AcDbXrecord
280
     1
270
     1
271
     1
  0
XRECORD
  5
2A7E
102
{ACAD_REACTORS
330
2A7A
102
}
330
2A7A
100
AcDbXrecord
280
     1
270
     1
271
     1
  0
XRECORD
  5
2A80
102
{ACAD_REACTORS
330
2A7A
102
}
330
2A7A
100
AcDbXrecord
280
     1
270
     1
271
     1
  0
XRECORD
  5
2A7D
102
{ACAD_REACTORS
330
2A7A
102
}
330
2A7A
100
AcDbXrecord
280
     1
270
     1
271
     1
  0
XRECORD
  5
34FB
102
{ACAD_REACTORS
330
34FA
102
}
330
34FA
100
AcDbXrecord
280
     1
102
SHADEPLOT
 70
     0
102
SHADEPLOTRESLEVEL
 70
     2
102
SHADEPLOTCUSTOMDPI
 70
   300
  0
CELLSTYLEMAP
  5
34F3
102
{ACAD_REACTORS
330
325B
102
}
330
325B
100
AcDbCellStyleMap
 90
        3
300
CELLSTYLE
  1
TABLEFORMAT_BEGIN
 90
        5
170
     1
 91
        0
 92
    32768
 62
   257
 93
        1
300
CONTENTFORMAT
  1
CONTENTFORMAT_BEGIN
 90
        0
 91
        0
 92
        4
 93
        0
300

 40
0.0
140
1.0
 94
        5
 62
     0
340
10
144
6.0
309
CONTENTFORMAT_END
171
     1
301
MARGIN
  1
CELLMARGIN_BEGIN
 40
1.5
 40
1.5
 40
1.5
 40
1.5
 40
0.18
 40
0.18
309
CELLMARGIN_END
 94
        6
 95
        1
302
GRIDFORMAT
  1
GRIDFORMAT_BEGIN
 90
        0
 91
        1
 62
     0
 92
       -2
340
0
 93
        0
 40
0.045
309
GRIDFORMAT_END
 95
        2
302
GRIDFORMAT
  1
GRIDFORMAT_BEGIN
 90
        0
 91
        1
 62
     0
 92
       -2
340
0
 93
        0
 40
0.045
309
GRIDFORMAT_END
 95
        4
302
GRIDFORMAT
  1
GRIDFORMAT_BEGIN
 90
        0
 91
        1
 62
     0
 92
       -2
340
0
 93
        0
 40
0.045
309
GRIDFORMAT_END
 95
        8
302
GRIDFORMAT
  1
GRIDFORMAT_BEGIN
 90
        0
 91
        1
 62
     0
 92
       -2
340
0
 93
        0
 40
0.045
309
GRIDFORMAT_END
 95
       16
302
GRIDFORMAT
  1
GRIDFORMAT_BEGIN
 90
        0
 91
        1
 62
     0
 92
       -2
340
0
 93
        0
 40
0.045
309
GRIDFORMAT_END
 95
       32
302
GRIDFORMAT
  1
GRIDFORMAT_BEGIN
 90
        0
 91
        1
 62
     0
 92
       -2
340
0
 93
        0
 40
0.045
309
GRIDFORMAT_END
309
TABLEFORMAT_END
  1
CELLSTYLE_BEGIN
 90
        1
 91
        1
300
_TITLE
309
CELLSTYLE_END
300
CELLSTYLE
  1
TABLEFORMAT_BEGIN
 90
        5
170
     1
 91
        0
 92
        0
 62
   257
 93
        1
300
CONTENTFORMAT
  1
CONTENTFORMAT_BEGIN
 90
        0
 91
        0
 92
        4
 93
        0
300

 40
0.0
140
1.0
 94
        5
 62
     0
340
10
144
4.5
309
CONTENTFORMAT_END
171
     1
301
MARGIN
  1
CELLMARGIN_BEGIN
 40
1.5
 40
1.5
 40
1.5
 40
1.5
 40
0.18
 40
0.18
309
CELLMARGIN_END
 94
        6
 95
        1
302
GRIDFORMAT
  1
GRIDFORMAT_BEGIN
 90
        0
 91
        1
 62
     0
 92
       -2
340
0
 93
        0
 40
0.045
309
GRIDFORMAT_END
 95
        2
302
GRIDFORMAT
  1
GRIDFORMAT_BEGIN
 90
        0
 91
        1
 62
     0
 92
       -2
340
0
 93
        0
 40
0.045
309
GRIDFORMAT_END
 95
        4
302
GRIDFORMAT
  1
GRIDFORMAT_BEGIN
 90
        0
 91
        1
 62
     0
 92
       -2
340
0
 93
        0
 40
0.045
309
GRIDFORMAT_END
 95
        8
302
GRIDFORMAT
  1
GRIDFORMAT_BEGIN
 90
        0
 91
        1
 62
     0
 92
       -2
340
0
 93
        0
 40
0.045
309
GRIDFORMAT_END
 95
       16
302
GRIDFORMAT
  1
GRIDFORMAT_BEGIN
 90
        0
 91
        1
 62
     0
 92
       -2
340
0
 93
        0
 40
0.045
309
GRIDFORMAT_END
 95
       32
302
GRIDFORMAT
  1
GRIDFORMAT_BEGIN
 90
        0
 91
        1
 62
     0
 92
       -2
340
0
 93
        0
 40
0.045
309
GRIDFORMAT_END
309
TABLEFORMAT_END
  1
CELLSTYLE_BEGIN
 90
        2
 91
        1
300
_HEADER
309
CELLSTYLE_END
300
CELLSTYLE
  1
TABLEFORMAT_BEGIN
 90
        5
170
     1
 91
        0
 92
        0
 62
   257
 93
        1
300
CONTENTFORMAT
  1
CONTENTFORMAT_BEGIN
 90
        0
 91
        0
 92
        4
 93
        0
300

 40
0.0
140
1.0
 94
        2
 62
     0
340
10
144
4.5
309
CONTENTFORMAT_END
171
     1
301
MARGIN
  1
CELLMARGIN_BEGIN
 40
1.5
 40
1.5
 40
1.5
 40
1.5
 40
0.18
 40
0.18
309
CELLMARGIN_END
 94
        6
 95
        1
302
GRIDFORMAT
  1
GRIDFORMAT_BEGIN
 90
        0
 91
        1
 62
     0
 92
       -2
340
0
 93
        0
 40
0.045
309
GRIDFORMAT_END
 95
        2
302
GRIDFORMAT
  1
GRIDFORMAT_BEGIN
 90
        0
 91
        1
 62
     0
 92
       -2
340
0
 93
        0
 40
0.045
309
GRIDFORMAT_END
 95
        4
302
GRIDFORMAT
  1
GRIDFORMAT_BEGIN
 90
        0
 91
        1
 62
     0
 92
       -2
340
0
 93
        0
 40
0.045
309
GRIDFORMAT_END
 95
        8
302
GRIDFORMAT
  1
GRIDFORMAT_BEGIN
 90
        0
 91
        1
 62
     0
 92
       -2
340
0
 93
        0
 40
0.045
309
GRIDFORMAT_END
 95
       16
302
GRIDFORMAT
  1
GRIDFORMAT_BEGIN
 90
        0
 91
        1
 62
     0
 92
       -2
340
0
 93
        0
 40
0.045
309
GRIDFORMAT_END
 95
       32
302
GRIDFORMAT
  1
GRIDFORMAT_BEGIN
 90
        0
 91
        1
 62
     0
 92
       -2
340
0
 93
        0
 40
0.045
309
GRIDFORMAT_END
309
TABLEFORMAT_END
  1
CELLSTYLE_BEGIN
 90
        3
 91
        2
300
_DATA
309
CELLSTYLE_END
  0
XRECORD
  5
34FC
102
{ACAD_REACTORS
330
325B
102
}
330
325B
100
AcDbXrecord
280
     1
102
ACAD_ROUNDTRIP_PRE2007_TABLESTYLE
 90
        4
 91
        0
  1

 92
        4
 93
        0
  2

 94
        4
 95
        0
  3

  0
ENDSEC
  0
EOF

