  0
SECTION
  2
HEADER
  9
$ACADVER
  1
AC1015
  9
$ACADMAINTVER
 70
    20
  9
$DWGCODEPAGE
  3
ANSI_932
  9
$INSBASE
 10
0.0
 20
0.0
 30
0.0
  9
$EXTMIN
 10
4811.456631236455
 20
4530.050716411585
 30
0.0
  9
$EXTMAX
 10
11498.18699113414
 20
11720.22424523856
 30
0.0
  9
$LIMMIN
 10
0.0
 20
0.0
  9
$LIMMAX
 10
10000.0
 20
10000.0
  9
$ORTHOMODE
 70
     1
  9
$REGENMODE
 70
     1
  9
$FILLMODE
 70
     1
  9
$QTEXTMODE
 70
     0
  9
$MIRRTEXT
 70
     1
  9
$LTSCALE
 40
20.0
  9
$ATTMODE
 70
     1
  9
$TEXTSIZE
 40
3.0
  9
$TRACEWID
 40
1.0
  9
$TEXTSTYLE
  7
AD-STANDARD
  9
$CLAYER
  8
1
  9
$CELTYPE
  6
BYLAYER
  9
$CECOLOR
 62
   256
  9
$CELTSCALE
 40
1.0
  9
$DISPSILH
 70
     0
  9
$DIMSCALE
 40
1.0
  9
$DIMASZ
 40
0.18
  9
$DIMEXO
 40
0.0625
  9
$DIMDLI
 40
0.38
  9
$DIMRND
 40
0.0
  9
$DIMDLE
 40
0.0
  9
$DIMEXE
 40
0.18
  9
$DIMTP
 40
0.0
  9
$DIMTM
 40
0.0
  9
$DIMTXT
 40
0.18
  9
$DIMCEN
 40
0.09
  9
$DIMTSZ
 40
0.0
  9
$DIMTOL
 70
     0
  9
$DIMLIM
 70
     0
  9
$DIMTIH
 70
     1
  9
$DIMTOH
 70
     1
  9
$DIMSE1
 70
     0
  9
$DIMSE2
 70
     0
  9
$DIMTAD
 70
     0
  9
$DIMZIN
 70
     0
  9
$DIMBLK
  1

  9
$DIMASO
 70
     1
  9
$DIMSHO
 70
     1
  9
$DIMPOST
  1

  9
$DIMAPOST
  1

  9
$DIMALT
 70
     0
  9
$DIMALTD
 70
     2
  9
$DIMALTF
 40
25.4
  9
$DIMLFAC
 40
1.0
  9
$DIMTOFL
 70
     0
  9
$DIMTVP
 40
0.0
  9
$DIMTIX
 70
     0
  9
$DIMSOXD
 70
     0
  9
$DIMSAH
 70
     0
  9
$DIMBLK1
  1

  9
$DIMBLK2
  1

  9
$DIMSTYLE
  2
STANDARD
  9
$DIMCLRD
 70
     0
  9
$DIMCLRE
 70
     0
  9
$DIMCLRT
 70
     0
  9
$DIMTFAC
 40
1.0
  9
$DIMGAP
 40
0.09
  9
$DIMJUST
 70
     0
  9
$DIMSD1
 70
     0
  9
$DIMSD2
 70
     0
  9
$DIMTOLJ
 70
     1
  9
$DIMTZIN
 70
     0
  9
$DIMALTZ
 70
     0
  9
$DIMALTTZ
 70
     0
  9
$DIMUPT
 70
     0
  9
$DIMDEC
 70
     4
  9
$DIMTDEC
 70
     4
  9
$DIMALTU
 70
     2
  9
$DIMALTTD
 70
     2
  9
$DIMTXSTY
  7
STANDARD
  9
$DIMAUNIT
 70
     0
  9
$DIMADEC
 70
     0
  9
$DIMALTRND
 40
0.0
  9
$DIMAZIN
 70
     0
  9
$DIMDSEP
 70
    46
  9
$DIMATFIT
 70
     3
  9
$DIMFRAC
 70
     0
  9
$DIMLDRBLK
  1

  9
$DIMLUNIT
 70
     2
  9
$DIMLWD
 70
    -2
  9
$DIMLWE
 70
    -2
  9
$DIMTMOVE
 70
     0
  9
$LUNITS
 70
     2
  9
$LUPREC
 70
     4
  9
$SKETCHINC
 40
1.0
  9
$FILLETRAD
 40
2.0
  9
$AUNITS
 70
     0
  9
$AUPREC
 70
     0
  9
$MENU
  1
.
  9
$ELEVATION
 40
0.0
  9
$PELEVATION
 40
0.0
  9
$THICKNESS
 40
0.0
  9
$LIMCHECK
 70
     0
  9
$CHAMFERA
 40
0.5
  9
$CHAMFERB
 40
0.5
  9
$CHAMFERC
 40
673.4006734006733
  9
$CHAMFERD
 40
0.0
  9
$SKPOLY
 70
     0
  9
$TDCREATE
 40
2451428.386184838
  9
$TDUCREATE
 40
2451428.011184838
  9
$TDUPDATE
 40
2457379.829558681
  9
$TDUUPDATE
 40
2457379.454558681
  9
$TDINDWG
 40
1.3607042593
  9
$TDUSRTIMER
 40
1.3607042593
  9
$USRTIMER
 70
     1
  9
$ANGBASE
 50
0.0
  9
$ANGDIR
 70
     0
  9
$PDMODE
 70
     0
  9
$PDSIZE
 40
0.0
  9
$PLINEWID
 40
0.0
  9
$SPLFRAME
 70
     0
  9
$SPLINETYPE
 70
     6
  9
$SPLINESEGS
 70
     8
  9
$HANDSEED
  5
37FD
  9
$SURFTAB1
 70
     6
  9
$SURFTAB2
 70
     6
  9
$SURFTYPE
 70
     6
  9
$SURFU
 70
     6
  9
$SURFV
 70
     6
  9
$UCSBASE
  2

  9
$UCSNAME
  2

  9
$UCSORG
 10
0.0
 20
0.0
 30
0.0
  9
$UCSXDIR
 10
1.0
 20
0.0
 30
0.0
  9
$UCSYDIR
 10
0.0
 20
1.0
 30
0.0
  9
$UCSORTHOREF
  2

  9
$UCSORTHOVIEW
 70
     0
  9
$UCSORGTOP
 10
0.0
 20
0.0
 30
0.0
  9
$UCSORGBOTTOM
 10
0.0
 20
0.0
 30
0.0
  9
$UCSORGLEFT
 10
0.0
 20
0.0
 30
0.0
  9
$UCSORGRIGHT
 10
0.0
 20
0.0
 30
0.0
  9
$UCSORGFRONT
 10
0.0
 20
0.0
 30
0.0
  9
$UCSORGBACK
 10
0.0
 20
0.0
 30
0.0
  9
$PUCSBASE
  2

  9
$PUCSNAME
  2

  9
$PUCSORG
 10
0.0
 20
0.0
 30
0.0
  9
$PUCSXDIR
 10
1.0
 20
0.0
 30
0.0
  9
$PUCSYDIR
 10
0.0
 20
1.0
 30
0.0
  9
$PUCSORTHOREF
  2

  9
$PUCSORTHOVIEW
 70
     0
  9
$PUCSORGTOP
 10
0.0
 20
0.0
 30
0.0
  9
$PUCSORGBOTTOM
 10
0.0
 20
0.0
 30
0.0
  9
$PUCSORGLEFT
 10
0.0
 20
0.0
 30
0.0
  9
$PUCSORGRIGHT
 10
0.0
 20
0.0
 30
0.0
  9
$PUCSORGFRONT
 10
0.0
 20
0.0
 30
0.0
  9
$PUCSORGBACK
 10
0.0
 20
0.0
 30
0.0
  9
$USERI1
 70
     0
  9
$USERI2
 70
     0
  9
$USERI3
 70
     0
  9
$USERI4
 70
     0
  9
$USERI5
 70
     0
  9
$USERR1
 40
0.0
  9
$USERR2
 40
0.0
  9
$USERR3
 40
0.0
  9
$USERR4
 40
0.0
  9
$USERR5
 40
0.0
  9
$WORLDVIEW
 70
     1
  9
$SHADEDGE
 70
     3
  9
$SHADEDIF
 70
    70
  9
$TILEMODE
 70
     1
  9
$MAXACTVP
 70
    16
  9
$PINSBASE
 10
0.0
 20
0.0
 30
0.0
  9
$PLIMCHECK
 70
     0
  9
$PEXTMIN
 10
19.85000000000002
 20
8.931140188773319
 30
0.0
  9
$PEXTMAX
 10
405.1499999999999
 20
282.1499999999999
 30
0.0
  9
$PLIMMIN
 10
13.3161828306503
 20
2.41278493518225
  9
$PLIMMAX
 10
418.1544263498966
 20
288.6731432318041
  9
$UNITMODE
 70
     0
  9
$VISRETAIN
 70
     0
  9
$PLINEGEN
 70
     0
  9
$PSLTSCALE
 70
     0
  9
$TREEDEPTH
 70
  3020
  9
$CMLSTYLE
  2
STANDARD
  9
$CMLJUST
 70
     0
  9
$CMLSCALE
 40
1.0
  9
$PROXYGRAPHICS
 70
     1
  9
$MEASUREMENT
 70
     1
  9
$CELWEIGHT
370
    -1
  9
$ENDCAPS
280
     0
  9
$JOINSTYLE
280
     0
  9
$LWDISPLAY
290
     0
  9
$INSUNITS
 70
     0
  9
$HYPERLINKBASE
  1

  9
$STYLESHEET
  1

  9
$XEDIT
290
     1
  9
$CEPSNTYPE
380
     0
  9
$PSTYLEMODE
290
     1
  9
$FINGERPRINTGUID
  2
{9E61C4A8-0B00-11D4-A8E9-00402655F364}
  9
$VERSIONGUID
  2
{958F4C02-E27A-420A-B575-DB3B0C59E2FF}
  9
$EXTNAMES
290
     1
  9
$PSVPSCALE
 40
0.0
  9
$OLESTARTUP
290
     0
  0
ENDSEC
  0
SECTION
  2
CLASSES
  0
CLASS
  1
ACDBDICTIONARYWDFLT
  2
AcDbDictionaryWithDefault
  3
ObjectDBX Classes
 90
        0
280
     0
281
     0
  0
CLASS
  1
ACDBPLACEHOLDER
  2
AcDbPlaceHolder
  3
ObjectDBX Classes
 90
        0
280
     0
281
     0
  0
CLASS
  1
LAYOUT
  2
AcDbLayout
  3
ObjectDBX Classes
 90
        0
280
     0
281
     0
  0
CLASS
  1
PLOTSETTINGS
  2
AcDbPlotSettings
  3
ObjectDBX Classes
 90
        0
280
     0
281
     0
  0
CLASS
  1
DICTIONARYVAR
  2
AcDbDictionaryVar
  3
ObjectDBX Classes
 90
        0
280
     0
281
     0
  0
CLASS
  1
SORTENTSTABLE
  2
AcDbSortentsTable
  3
ObjectDBX Classes
 90
        0
280
     0
281
     0
  0
CLASS
  1
MATERIAL
  2
AcDbMaterial
  3
ObjectDBX Classes
 90
     1153
280
     0
281
     0
  0
CLASS
  1
VISUALSTYLE
  2
AcDbVisualStyle
  3
ObjectDBX Classes
 90
     4095
280
     0
281
     0
  0
CLASS
  1
TABLESTYLE
  2
AcDbTableStyle
  3
ObjectDBX Classes
 90
     4095
280
     0
281
     0
  0
CLASS
  1
SCALE
  2
AcDbScale
  3
ObjectDBX Classes
 90
     1153
280
     0
281
     0
  0
CLASS
  1
MLEADERSTYLE
  2
AcDbMLeaderStyle
  3
ACDB_MLEADERSTYLE_CLASS
 90
     4095
280
     0
281
     0
  0
CLASS
  1
CELLSTYLEMAP
  2
AcDbCellStyleMap
  3
ObjectDBX Classes
 90
     1152
280
     0
281
     0
  0
ENDSEC
  0
SECTION
  2
TABLES
  0
TABLE
  2
VPORT
  5
8
102
{ACAD_XDICTIONARY
360
3710
102
}
330
0
100
AcDbSymbolTable
 70
     1
  0
VPORT
  5
349E
330
8
100
AcDbSymbolTableRecord
100
AcDbViewportTableRecord
  2
*ACTIVE
 70
     0
 10
0.0
 20
0.0
 11
1.0
 21
1.0
 12
5126.373688242927
 22
5417.650403195971
 13
0.0
 23
0.0
 14
168.0
 24
168.0
 15
0.0
 25
0.0
 16
0.0
 26
0.0
 36
1.0
 17
0.0
 27
0.0
 37
0.0
 40
1543.771424485652
 41
1.605263157894736
 42
50.0
 43
0.0
 44
0.0
 50
0.0
 51
0.0
 71
     0
 72
   100
 73
     1
 74
     0
 75
     0
 76
     0
 77
     0
 78
     1
281
     0
 65
     1
110
0.0
120
0.0
130
0.0
111
1.0
121
0.0
131
0.0
112
0.0
122
1.0
132
0.0
 79
     0
146
0.0
1001
ACAD_NAV_VCDISPLAY
1070
     3
  0
ENDTAB
  0
TABLE
  2
LTYPE
  5
5
330
0
100
AcDbSymbolTable
 70
     4
  0
LTYPE
  5
14
330
5
100
AcDbSymbolTableRecord
100
AcDbLinetypeTableRecord
  2
BYBLOCK
 70
     0
  3

 72
    65
 73
     0
 40
0.0
  0
LTYPE
  5
15
330
5
100
AcDbSymbolTableRecord
100
AcDbLinetypeTableRecord
  2
BYLAYER
 70
     0
  3

 72
    65
 73
     0
 40
0.0
  0
LTYPE
  5
16
330
5
100
AcDbSymbolTableRecord
100
AcDbLinetypeTableRecord
  2
CONTINUOUS
 70
     0
  3
Solid line
 72
    65
 73
     0
 40
0.0
  0
LTYPE
  5
6E
330
5
100
AcDbSymbolTableRecord
100
AcDbLinetypeTableRecord
  2
CENTER
 70
     0
  3
____ _ ____ _ ____ _ ____ _ ____ _ ____ _ ____ 
 72
    65
 73
     4
 40
2.0
 49
1.25
 74
     0
 49
-0.25
 74
     0
 49
0.25
 74
     0
 49
-0.25
 74
     0
  0
LTYPE
  5
6F
330
5
100
AcDbSymbolTableRecord
100
AcDbLinetypeTableRecord
  2
HIDDEN
 70
     0
  3
__ __ __ __ __ __ __ __ __ __ __ __ __ __ __ __
 72
    65
 73
     2
 40
0.375
 49
0.25
 74
     0
 49
-0.125
 74
     0
  0
ENDTAB
  0
TABLE
  2
LAYER
  5
2
102
{ACAD_XDICTIONARY
360
37B0
102
}
330
0
100
AcDbSymbolTable
 70
     9
  0
LAYER
  5
F
102
{ACAD_XDICTIONARY
360
36A3
102
}
330
2
100
AcDbSymbolTableRecord
100
AcDbLayerTableRecord
  2
0
 70
     0
 62
     7
  6
CONTINUOUS
370
    -3
390
34A1
  0
LAYER
  5
72
330
2
100
AcDbSymbolTableRecord
100
AcDbLayerTableRecord
  2
DEFPOINTS
 70
     0
 62
     7
  6
CONTINUOUS
290
     0
370
    -3
390
34A1
  0
LAYER
  5
74
102
{ACAD_XDICTIONARY
360
36A7
102
}
330
2
100
AcDbSymbolTableRecord
100
AcDbLayerTableRecord
  2
CENTER
 70
     0
 62
     9
  6
CENTER
370
    -3
390
34A1
  0
LAYER
  5
17F1
102
{ACAD_XDICTIONARY
360
36AB
102
}
330
2
100
AcDbSymbolTableRecord
100
AcDbLayerTableRecord
  2
4
 70
     0
 62
     3
  6
CONTINUOUS
370
    -3
390
34A1
  0
LAYER
  5
1CF6
102
{ACAD_XDICTIONARY
360
36AD
102
}
330
2
100
AcDbSymbolTableRecord
100
AcDbLayerTableRecord
  2
2
 70
     0
 62
     6
  6
CONTINUOUS
370
    -3
390
34A1
  0
LAYER
  5
1CF7
102
{ACAD_XDICTIONARY
360
36AF
102
}
330
2
100
AcDbSymbolTableRecord
100
AcDbLayerTableRecord
  2
3
 70
     0
 62
     4
  6
CONTINUOUS
370
    -3
390
34A1
  0
LAYER
  5
37B8
330
2
100
AcDbSymbolTableRecord
100
AcDbLayerTableRecord
  2
1
 70
     0
 62
     7
  6
CONTINUOUS
370
    -3
390
34A1
1001
AcAecLayerStandard
1000

1000

1001
AcCmTransparency
1071
        0
  0
ENDTAB
  0
TABLE
  2
STYLE
  5
3
330
0
100
AcDbSymbolTable
 70
     5
  0
STYLE
  5
10
330
3
100
AcDbSymbolTableRecord
100
AcDbTextStyleTableRecord
  2
STANDARD
 70
     0
 40
0.0
 41
0.8
 50
0.0
 71
     0
 42
84.17508417508416
  3
TXT
  4
bigfont.shx
  0
STYLE
  5
63
330
3
100
AcDbSymbolTableRecord
100
AcDbTextStyleTableRecord
  2
AD-STANDARD
 70
     0
 40
0.0
 41
0.8
 50
0.0
 71
     0
 42
3.0
  3
C:\Program Files\AutoCAD LT\romans.shx
  4
bigfont.shx
  0
ENDTAB
  0
TABLE
  2
VIEW
  5
6
330
0
100
AcDbSymbolTable
 70
     1
  0
ENDTAB
  0
TABLE
  2
UCS
  5
7
330
0
100
AcDbSymbolTable
 70
     0
  0
ENDTAB
  0
TABLE
  2
APPID
  5
9
330
0
100
AcDbSymbolTable
 70
    10
  0
APPID
  5
11
330
9
100
AcDbSymbolTableRecord
100
AcDbRegAppTableRecord
  2
ACAD
 70
     0
  0
APPID
  5
22A
330
9
100
AcDbSymbolTableRecord
100
AcDbRegAppTableRecord
  2
CONTENTTABDATA
 70
     0
  0
APPID
  5
22B
330
9
100
AcDbSymbolTableRecord
100
AcDbRegAppTableRecord
  2
CONTENTCURRENTTAB
 70
     0
  0
APPID
  5
232
330
9
100
AcDbSymbolTableRecord
100
AcDbRegAppTableRecord
  2
CONTENTBLOCKDESCRIPTION
 70
     0
  0
APPID
  5
233
330
9
100
AcDbSymbolTableRecord
100
AcDbRegAppTableRecord
  2
CONTENTBLOCKICON
 70
     0
  0
APPID
  5
369D
330
9
100
AcDbSymbolTableRecord
100
AcDbRegAppTableRecord
  2
ACAD_EXEMPT_FROM_CAD_STANDARDS
 70
     0
  0
APPID
  5
3754
330
9
100
AcDbSymbolTableRecord
100
AcDbRegAppTableRecord
  2
ACAD_MLEADERVER
 70
     0
  0
APPID
  5
37B7
330
9
100
AcDbSymbolTableRecord
100
AcDbRegAppTableRecord
  2
ACAD_NAV_VCDISPLAY
 70
     0
  0
APPID
  5
37B9
330
9
100
AcDbSymbolTableRecord
100
AcDbRegAppTableRecord
  2
AcAecLayerStandard
 70
     0
  0
APPID
  5
37BA
330
9
100
AcDbSymbolTableRecord
100
AcDbRegAppTableRecord
  2
AcCmTransparency
 70
     0
  0
ENDTAB
  0
TABLE
  2
DIMSTYLE
  5
A
330
0
100
AcDbSymbolTable
 70
     5
100
AcDbDimStyleTable
 71
     0
  0
DIMSTYLE
105
1D
330
A
100
AcDbSymbolTableRecord
100
AcDbDimStyleTableRecord
  2
STANDARD
 70
     0
340
10
  0
DIMSTYLE
105
26DC
102
{ACAD_REACTORS
330
2EBE
102
}
330
A
100
AcDbSymbolTableRecord
100
AcDbDimStyleTableRecord
  2
3
 70
     0
 40
3.0
 41
2.5
 42
1.0
 44
1.0
 47
0.5
 48
0.5
 73
     0
 74
     0
 77
     1
 78
     8
140
3.0
141
-2.0
146
0.7
147
0.5
172
     1
176
     9
177
     9
178
     2
283
     2
284
     8
340
63
  0
ENDTAB
  0
TABLE
  2
BLOCK_RECORD
  5
1
330
0
100
AcDbSymbolTable
 70
    34
  0
BLOCK_RECORD
  5
1A
102
{ACAD_XDICTIONARY
360
34F0
102
}
330
1
100
AcDbSymbolTableRecord
100
AcDbBlockTableRecord
  2
*MODEL_SPACE
340
34A4
  0
BLOCK_RECORD
  5
17
102
{ACAD_XDICTIONARY
360
34EE
102
}
330
1
100
AcDbSymbolTableRecord
100
AcDbBlockTableRecord
  2
*PAPER_SPACE
340
34A5
  0
BLOCK_RECORD
  5
2F8E
330
1
100
AcDbSymbolTableRecord
100
AcDbBlockTableRecord
  2
*D24
340
0
  0
ENDTAB
  0
ENDSEC
  0
SECTION
  2
BLOCKS
  0
BLOCK
  5
1B
330
1A
100
AcDbEntity
  8
0
100
AcDbBlockBegin
  2
*MODEL_SPACE
 70
     0
 10
0.0
 20
0.0
 30
0.0
  3
*MODEL_SPACE
  1

  0
ENDBLK
  5
1C
330
1A
100
AcDbEntity
  8
0
100
AcDbBlockEnd
  0
BLOCK
  5
18
330
17
100
AcDbEntity
 67
     1
  8
0
100
AcDbBlockBegin
  2
*PAPER_SPACE
 70
     0
 10
0.0
 20
0.0
 30
0.0
  3
*PAPER_SPACE
  1

  0
ENDBLK
  5
19
330
17
100
AcDbEntity
 67
     1
  8
0
100
AcDbBlockEnd
  0
BLOCK
  5
31F3
330
2F8E
100
AcDbEntity
  8
0
100
AcDbBlockBegin
  2
*D24
 70
     1
 10
0.0
 20
0.0
 30
0.0
  3
*D24
  1

  0
LINE
  5
31F4
330
2F8E
100
AcDbEntity
  8
0
  6
ByBlock
 62
     9
100
AcDbLine
 10
11295.18699113415
 20
11659.42803510297
 30
0.0
 11
11295.18699113415
 21
11712.72424523856
 31
0.0
  0
LINE
  5
31F5
330
2F8E
100
AcDbEntity
  8
0
  6
ByBlock
 62
     9
100
AcDbLine
 10
11498.18699113414
 20
11659.42803510297
 30
0.0
 11
11498.18699113414
 21
11712.72424523856
 31
0.0
  0
LINE
  5
31F6
330
2F8E
100
AcDbEntity
  8
0
  6
ByBlock
 62
     9
100
AcDbLine
 10
11302.68699113415
 20
11709.72424523856
 30
0.0
 11
11490.68699113414
 21
11709.72424523856
 31
0.0
  0
SOLID
  5
31F7
330
2F8E
100
AcDbEntity
  8
0
  6
ByBlock
 62
     9
100
AcDbTrace
 10
11302.68699113415
 20
11710.97424523856
 30
0.0
 11
11302.68699113415
 21
11708.47424523856
 31
0.0
 12
11295.18699113415
 22
11709.72424523856
 32
0.0
 13
11295.18699113415
 23
11709.72424523856
 33
0.0
  0
SOLID
  5
31F8
330
2F8E
100
AcDbEntity
  8
0
  6
ByBlock
 62
     9
100
AcDbTrace
 10
11490.68699113414
 20
11710.97424523856
 30
0.0
 11
11490.68699113414
 21
11708.47424523856
 31
0.0
 12
11498.18699113414
 22
11709.72424523856
 32
0.0
 13
11498.18699113414
 23
11709.72424523856
 33
0.0
  0
MTEXT
  5
31F9
330
2F8E
100
AcDbEntity
  8
0
  6
ByBlock
 62
     2
100
AcDbMText
 10
11396.68699113415
 20
11715.72424523856
 30
0.0
 40
9.0
 41
0.0
 71
     5
 72
     1
  1
\A2;203
  7
AD-STANDARD
 73
     1
 44
1.0
1001
ACAD
1000
MTEXTBEGIN
1070
    73
1070
     1
1070
    44
1040
1.0
1070
    74
1070
     0
1000
MTEXTEND
  0
POINT
  5
31FA
330
2F8E
100
AcDbEntity
  8
DEFPOINTS
  6
ByBlock
 62
     0
100
AcDbPoint
 10
11295.18699113415
 20
11656.42803510297
 30
0.0
  0
POINT
  5
31FB
330
2F8E
100
AcDbEntity
  8
DEFPOINTS
  6
ByBlock
 62
     0
100
AcDbPoint
 10
11498.18699113414
 20
11656.42803510297
 30
0.0
  0
POINT
  5
31FC
330
2F8E
100
AcDbEntity
  8
DEFPOINTS
  6
ByBlock
 62
     0
100
AcDbPoint
 10
11498.18699113414
 20
11709.72424523856
 30
0.0
  0
ENDBLK
  5
31FD
330
2F8E
100
AcDbEntity
  8
0
100
AcDbBlockEnd
  0
ENDSEC
  0
SECTION
  2
ENTITIES
  0
LINE
  5
15E2
330
1A
100
AcDbEntity
  8
4
  6
HIDDEN
 62
     9
 48
0.7
100
AcDbLine
 10
5083.360298289232
 20
5962.454382085032
 30
0.0
 11
5083.360298289232
 21
5947.454382085031
 31
0.0
  0
LINE
  5
15E3
330
1A
100
AcDbEntity
  8
4
  6
HIDDEN
 62
     9
 48
0.7
100
AcDbLine
 10
5093.860298289232
 20
5962.454382085032
 30
0.0
 11
5093.860298289232
 21
5947.454382085031
 31
0.0
  0
LINE
  5
15E5
330
1A
100
AcDbEntity
  8
4
100
AcDbLine
 10
5099.010298289232
 20
5950.427735971357
 30
0.0
 11
5099.010298289232
 21
5959.481028198705
 31
0.0
  0
LINE
  5
15E6
330
1A
100
AcDbEntity
  8
4
100
AcDbLine
 10
5078.21029828923
 20
5959.481028198705
 30
0.0
 11
5078.210298289231
 21
5950.427735971357
 31
0.0
  0
LINE
  5
15EB
330
1A
100
AcDbEntity
  8
4
100
AcDbLine
 10
5098.960298289231
 20
5981.27554079245
 30
0.0
 11
5078.260298289231
 21
5981.27554079245
 31
0.0
  0
LINE
  5
15EC
330
1A
100
AcDbEntity
  8
4
100
AcDbLine
 10
5083.360298289232
 20
5962.454382085032
 30
0.0
 11
5093.860298289232
 21
5962.454382085032
 31
0.0
  0
LINE
  5
15ED
330
1A
100
AcDbEntity
  8
4
100
AcDbLine
 10
5098.960298289231
 20
5959.509895712166
 30
0.0
 11
5093.860298289232
 21
5962.454382085032
 31
0.0
  0
LINE
  5
15EE
330
1A
100
AcDbEntity
  8
4
  6
HIDDEN
 62
     9
 48
0.7
100
AcDbLine
 10
5093.860298289232
 20
5987.275540792451
 30
0.0
 11
5093.860298289232
 21
5984.220027165317
 31
0.0
  0
LINE
  5
15EF
330
1A
100
AcDbEntity
  8
4
  6
HIDDEN
 62
     9
 48
0.7
100
AcDbLine
 10
5083.360298289232
 20
5987.275540792451
 30
0.0
 11
5083.360298289232
 21
5984.220027165317
 31
0.0
  0
LINE
  5
15F0
330
1A
100
AcDbEntity
  8
4
100
AcDbLine
 10
5078.260298289232
 20
5959.509895712166
 30
0.0
 11
5083.360298289232
 21
5962.454382085032
 31
0.0
  0
LINE
  5
15F1
330
1A
100
AcDbEntity
  8
4
100
AcDbLine
 10
5078.260298289231
 20
5981.27554079245
 30
0.0
 11
5078.260298289231
 21
5987.275540792451
 31
0.0
  0
LINE
  5
15F2
330
1A
100
AcDbEntity
  8
4
100
AcDbLine
 10
5098.960298289231
 20
5959.509895712166
 30
0.0
 11
5078.260298289231
 21
5959.509895712166
 31
0.0
  0
LINE
  5
15F3
330
1A
100
AcDbEntity
  8
4
100
AcDbLine
 10
5098.960298289231
 20
5987.275540792451
 30
0.0
 11
5098.960298289231
 21
5981.27554079245
 31
0.0
  0
LINE
  5
15F4
330
1A
100
AcDbEntity
  8
4
100
AcDbLine
 10
5078.260298289231
 20
5987.275540792451
 30
0.0
 11
5098.960298289231
 21
5987.275540792451
 31
0.0
  0
LINE
  5
15F5
330
1A
100
AcDbEntity
  8
4
  6
HIDDEN
 62
     9
 48
0.7
100
AcDbLine
 10
5093.860298289232
 20
5984.220027165316
 30
0.0
 11
5098.960298289231
 21
5981.27554079245
 31
0.0
  0
LINE
  5
15F6
330
1A
100
AcDbEntity
  8
4
  6
HIDDEN
 62
     9
 48
0.7
100
AcDbLine
 10
5083.360298289232
 20
5984.220027165316
 30
0.0
 11
5078.260298289231
 21
5981.27554079245
 31
0.0
  0
LINE
  5
15F7
330
1A
100
AcDbEntity
  8
4
  6
HIDDEN
 62
     9
 48
0.7
100
AcDbLine
 10
5083.360298289233
 20
5984.220027165317
 30
0.0
 11
5093.860298289232
 21
5984.220027165316
 31
0.0
  0
LINE
  5
15F9
330
1A
100
AcDbEntity
  8
4
100
AcDbLine
 10
5078.210298289231
 20
5950.427735971357
 30
0.0
 11
5099.010298289232
 21
5950.427735971357
 31
0.0
  0
LINE
  5
15FA
330
1A
100
AcDbEntity
  8
4
100
AcDbLine
 10
5083.360298289232
 20
5947.454382085031
 30
0.0
 11
5078.210298289231
 21
5950.427735971357
 31
0.0
  0
LINE
  5
15FB
330
1A
100
AcDbEntity
  8
4
100
AcDbLine
 10
5093.860298289232
 20
5947.454382085031
 30
0.0
 11
5099.010298289233
 21
5950.427735971357
 31
0.0
  0
LINE
  5
15FC
330
1A
100
AcDbEntity
  8
4
100
AcDbLine
 10
5083.360298289231
 20
5947.454382085031
 30
0.0
 11
5093.860298289232
 21
5947.45438208503
 31
0.0
  0
LINE
  5
1E26
330
1A
100
AcDbEntity
  8
2
100
AcDbLine
 10
4913.325688598404
 20
4820.755300324105
 30
0.0
 11
4923.717993443817
 21
4802.755300324104
 31
0.0
  0
LINE
  5
1E27
330
1A
100
AcDbEntity
  8
2
100
AcDbLine
 10
4913.325688598404
 20
4820.755300324105
 30
0.0
 11
4923.717993443817
 21
4838.755300324104
 31
0.0
  0
LINE
  5
1E31
330
1A
100
AcDbEntity
  8
2
100
AcDbLine
 10
4944.502603134644
 20
4838.755300324106
 30
0.0
 11
4923.717993443817
 21
4838.755300324105
 31
0.0
  0
LINE
  5
1E32
330
1A
100
AcDbEntity
  8
2
100
AcDbLine
 10
4944.502603134644
 20
4838.755300324106
 30
0.0
 11
4954.894907980058
 21
4820.755300324106
 31
0.0
  0
LINE
  5
1E33
330
1A
100
AcDbEntity
  8
2
100
AcDbLine
 10
4944.502603134644
 20
4802.755300324103
 30
0.0
 11
4923.717993443817
 21
4802.755300324104
 31
0.0
  0
LINE
  5
1E34
330
1A
100
AcDbEntity
  8
2
100
AcDbLine
 10
4944.502603134644
 20
4802.755300324103
 30
0.0
 11
4954.894907980058
 21
4820.755300324104
 31
0.0
  0
LINE
  5
1E35
330
1A
100
AcDbEntity
  8
CENTER
100
AcDbLine
 10
4879.431735967293
 20
4820.755300324104
 30
0.0
 11
4989.431735967293
 21
4820.755300324105
 31
0.0
  0
LINE
  5
1E36
330
1A
100
AcDbEntity
  8
CENTER
100
AcDbLine
 10
4934.110298289231
 20
4765.756448362981
 30
0.0
 11
4934.110298289231
 21
4875.754152285228
 31
0.0
  0
CIRCLE
  5
1E37
330
1A
100
AcDbEntity
  8
2
100
AcDbCircle
 10
4934.110298289231
 20
4820.755300324105
 30
0.0
 40
18.00000000000182
  0
LINE
  5
1E3D
330
1A
100
AcDbEntity
  8
2
100
AcDbLine
 10
4913.325688598405
 20
4922.006690140435
 30
0.0
 11
4913.325688598404
 21
4930.39899498585
 31
0.0
  0
LINE
  5
1E3E
330
1A
100
AcDbEntity
  8
2
100
AcDbLine
 10
4954.894907980061
 20
4922.006690140435
 30
0.0
 11
4954.894907980058
 21
4930.39899498585
 31
0.0
  0
LINE
  5
1E40
330
1A
100
AcDbEntity
  8
2
100
AcDbLine
 10
4952.110298289234
 20
4920.398994985849
 30
0.0
 11
4916.11029828923
 21
4920.398994985849
 31
0.0
  0
LINE
  5
1E42
330
1A
100
AcDbEntity
  8
2
100
AcDbLine
 10
4923.717993443818
 20
4922.006690140436
 30
0.0
 11
4923.717993443819
 21
4930.39899498585
 31
0.0
  0
LINE
  5
1E44
330
1A
100
AcDbEntity
  8
2
100
AcDbLine
 10
4944.502603134644
 20
4922.006690140438
 30
0.0
 11
4944.502603134644
 21
4930.39899498585
 31
0.0
  0
LINE
  5
1E47
330
1A
100
AcDbEntity
  8
2
100
AcDbLine
 10
4916.11029828923
 20
4920.398994985849
 30
0.0
 11
4913.325688598405
 21
4922.006690140435
 31
0.0
  0
LINE
  5
1E48
330
1A
100
AcDbEntity
  8
2
100
AcDbLine
 10
4952.110298289234
 20
4920.398994985849
 30
0.0
 11
4954.894907980062
 21
4922.006690140436
 31
0.0
  0
ARC
  5
1E4A
330
1A
100
AcDbEntity
  8
2
100
AcDbCircle
 10
4934.110298289227
 20
4954.791299831232
 30
0.0
 40
34.39230484538292
100
AcDbArc
 50
252.4120462260333
 51
287.5879537739682
  0
ARC
  5
1E4D
330
1A
100
AcDbEntity
  8
2
100
AcDbCircle
 10
4949.698755557352
 20
4929.599956880166
 30
0.0
 40
9.200961894315526
100
AcDbArc
 50
235.6157525319188
 51
304.384247468087
  0
ARC
  5
1E4F
330
1A
100
AcDbEntity
  8
2
100
AcDbCircle
 10
4918.521841021109
 20
4929.599956880169
 30
0.0
 40
9.200961894319753
100
AcDbArc
 50
235.6157525319293
 51
304.3842474680754
  0
LINE
  5
1E64
330
1A
100
AcDbEntity
  8
CENTER
100
AcDbLine
 10
5088.610298289231
 20
5976.275540792451
 30
0.0
 11
5088.610298289231
 21
5992.275540792451
 31
0.0
  0
LINE
  5
1E6A
330
1A
100
AcDbEntity
  8
CENTER
100
AcDbLine
 10
5088.610298289231
 20
5942.454382085032
 30
0.0
 11
5088.610298289231
 21
5967.454382085032
 31
0.0
  0
LINE
  5
1E74
330
1A
100
AcDbEntity
  8
CENTER
100
AcDbLine
 10
4934.110298289231
 20
4910.398994985849
 30
0.0
 11
4934.110298289231
 21
5048.398994985849
 31
0.0
  0
LINE
  5
238E
330
1A
100
AcDbEntity
  8
2
100
AcDbLine
 10
4979.110298289231
 20
4930.39899498585
 30
0.0
 11
4979.110298289231
 21
4938.398994985849
 31
0.0
  0
LINE
  5
2390
330
1A
100
AcDbEntity
  8
2
100
AcDbLine
 10
4889.110298289232
 20
4938.398994985849
 30
0.0
 11
4889.110298289232
 21
4930.39899498585
 31
0.0
  0
LINE
  5
2391
330
1A
100
AcDbEntity
  8
2
100
AcDbLine
 10
4889.110298289232
 20
4930.39899498585
 30
0.0
 11
4979.110298289231
 21
4930.39899498585
 31
0.0
  0
LINE
  5
2B20
330
1A
100
AcDbEntity
  8
2
100
AcDbLine
 10
4902.110298289231
 20
5036.77499498585
 30
0.0
 11
4902.110298289231
 21
4940.39899498585
 31
0.0
  0
LINE
  5
2B23
330
1A
100
AcDbEntity
  8
2
100
AcDbLine
 10
4966.110298289232
 20
5036.774994985849
 30
0.0
 11
4966.110298289232
 21
4940.398994985851
 31
0.0
  0
ARC
  5
2B4B
330
1A
100
AcDbEntity
  8
2
100
AcDbCircle
 10
4900.110298289232
 20
4940.39899498585
 30
0.0
 40
2.0
100
AcDbArc
 50
270.0
 51
0.0
  0
ARC
  5
2B4D
330
1A
100
AcDbEntity
  8
2
100
AcDbCircle
 10
4968.110298289232
 20
4940.398994985851
 30
0.0
 40
2.0
100
AcDbArc
 50
180.0
 51
270.0
  0
LINE
  5
2B4E
330
1A
100
AcDbEntity
  8
2
100
AcDbLine
 10
4889.110298289232
 20
4938.398994985849
 30
0.0
 11
4979.110298289231
 21
4938.398994985849
 31
0.0
  0
LINE
  5
2E13
330
1A
100
AcDbEntity
  8
1
100
AcDbLine
 10
5067.610298289232
 20
5301.060310772468
 30
0.0
 11
5110.610298289232
 21
5301.060310772468
 31
0.0
  0
LINE
  5
2E14
330
1A
100
AcDbEntity
  8
1
100
AcDbLine
 10
5057.610298289233
 20
5301.060310772468
 30
0.0
 11
5067.610298289232
 21
5301.060310772468
 31
0.0
  0
LINE
  5
2E15
330
1A
100
AcDbEntity
  8
1
100
AcDbLine
 10
5110.610298289232
 20
5301.060310772468
 30
0.0
 11
5118.610298289233
 21
5301.060310772468
 31
0.0
  0
LINE
  5
2E16
330
1A
100
AcDbEntity
  8
1
100
AcDbLine
 10
5122.210298289233
 20
5284.255747255098
 30
0.0
 11
5122.210298289233
 21
5278.755747255098
 31
0.0
  0
LINE
  5
2E17
330
1A
100
AcDbEntity
  8
1
100
AcDbLine
 10
5119.410298289234
 20
5284.255747255098
 30
0.0
 11
5122.210298289233
 21
5284.255747255098
 31
0.0
  0
LINE
  5
2E18
330
1A
100
AcDbEntity
  8
1
100
AcDbLine
 10
5119.410298289234
 20
5278.755747255097
 30
0.0
 11
5122.210298289233
 21
5278.755747255097
 31
0.0
  0
LINE
  5
2E19
330
1A
100
AcDbEntity
  8
1
100
AcDbLine
 10
5122.210298289233
 20
5284.255747255098
 30
0.0
 11
5122.410298289232
 21
5283.909337093583
 31
0.0
  0
LINE
  5
2E1A
330
1A
100
AcDbEntity
  8
1
100
AcDbLine
 10
5122.210298289233
 20
5278.755747255098
 30
0.0
 11
5122.410298289232
 21
5279.102157416613
 31
0.0
  0
LINE
  5
2E1B
330
1A
100
AcDbEntity
  8
1
100
AcDbLine
 10
5122.410298289232
 20
5283.909337093582
 30
0.0
 11
5122.410298289234
 21
5279.102157416613
 31
0.0
  0
LINE
  5
2E1C
330
1A
100
AcDbEntity
  8
1
100
AcDbLine
 10
5119.410298289233
 20
5292.060310772468
 30
0.0
 11
5118.610298289233
 21
5292.060310772468
 31
0.0
  0
LINE
  5
2E1D
330
1A
100
AcDbEntity
  8
1
100
AcDbLine
 10
5122.410298289232
 20
5240.211284451354
 30
0.0
 11
5122.410298289234
 21
5245.018464128325
 31
0.0
  0
LINE
  5
2E1E
330
1A
100
AcDbEntity
  8
1
100
AcDbLine
 10
5122.210298289233
 20
5245.364874289839
 30
0.0
 11
5122.410298289232
 21
5245.018464128325
 31
0.0
  0
LINE
  5
2E1F
330
1A
100
AcDbEntity
  8
1
100
AcDbLine
 10
5122.210298289233
 20
5239.864874289839
 30
0.0
 11
5122.410298289232
 21
5240.211284451353
 31
0.0
  0
LINE
  5
2E20
330
1A
100
AcDbEntity
  8
1
100
AcDbLine
 10
5119.410298289234
 20
5245.364874289839
 30
0.0
 11
5122.210298289233
 21
5245.364874289839
 31
0.0
  0
LINE
  5
2E21
330
1A
100
AcDbEntity
  8
1
100
AcDbLine
 10
5119.410298289234
 20
5239.864874289839
 30
0.0
 11
5122.210298289233
 21
5239.864874289839
 31
0.0
  0
LINE
  5
2E22
330
1A
100
AcDbEntity
  8
1
100
AcDbLine
 10
5122.210298289233
 20
5239.864874289839
 30
0.0
 11
5122.210298289233
 21
5245.364874289839
 31
0.0
  0
LINE
  5
2E23
330
1A
100
AcDbEntity
  8
1
100
AcDbLine
 10
5119.410298289233
 20
5232.060310772468
 30
0.0
 11
5118.610298289233
 21
5232.060310772468
 31
0.0
  0
LINE
  5
2E24
330
1A
100
AcDbEntity
  8
1
100
AcDbLine
 10
5119.410298289233
 20
5232.060310772468
 30
0.0
 11
5119.410298289233
 21
5292.060310772468
 31
0.0
  0
LINE
  5
2E25
330
1A
100
AcDbEntity
  8
1
100
AcDbLine
 10
5110.610298289232
 20
5223.060310772468
 30
0.0
 11
5067.610298289232
 21
5223.060310772468
 31
0.0
  0
CIRCLE
  5
2E26
330
1A
100
AcDbEntity
  8
1
  6
HIDDEN
 62
     9
100
AcDbCircle
 10
5088.610298289235
 20
5262.060310772469
 30
0.0
 40
14.0
  0
CIRCLE
  5
2E27
330
1A
100
AcDbEntity
  8
1
  6
HIDDEN
 62
     9
100
AcDbCircle
 10
5088.610298289234
 20
5262.060310772469
 30
0.0
 40
14.0
  0
LINE
  5
2E28
330
1A
100
AcDbEntity
  8
1
100
AcDbLine
 10
5067.610298289232
 20
5223.060310772468
 30
0.0
 11
5057.610298289233
 21
5223.060310772468
 31
0.0
  0
LINE
  5
2E29
330
1A
100
AcDbEntity
  8
1
100
AcDbLine
 10
5035.610298289234
 20
5216.004797145337
 30
0.0
 11
5035.610298289232
 21
5236.060310772466
 31
0.0
  0
LINE
  5
2E2A
330
1A
100
AcDbEntity
  8
CENTER
100
AcDbLine
 10
5088.610298289234
 20
5265.560310772468
 30
0.0
 11
5088.610298289235
 21
5281.060310772468
 31
0.0
  0
LINE
  5
2E2B
330
1A
100
AcDbEntity
  8
CENTER
100
AcDbLine
 10
5088.610298289234
 20
5243.060310772467
 30
0.0
 11
5088.610298289234
 21
5281.060310772468
 31
0.0
  0
ARC
  5
2E2C
330
1A
100
AcDbEntity
  8
1
100
AcDbCircle
 10
5133.723753024005
 20
5262.060310772469
 30
0.0
 40
101.4999999999618
100
AcDbArc
 50
165.1578086851432
 51
194.8421913148626
  0
LINE
  5
2E2D
330
1A
100
AcDbEntity
  8
1
100
AcDbLine
 10
5035.610298289234
 20
5236.060310772466
 30
0.0
 11
5057.610298289233
 21
5236.060310772469
 31
0.0
  0
LINE
  5
2E2E
330
1A
100
AcDbEntity
  8
1
100
AcDbLine
 10
5035.610298289232
 20
5288.060310772468
 30
0.0
 11
5057.610298289233
 21
5288.060310772468
 31
0.0
  0
LINE
  5
2E2F
330
1A
100
AcDbEntity
  8
CENTER
100
AcDbLine
 10
5024.945586623153
 20
5262.060310772469
 30
0.0
 11
5128.610298289234
 21
5262.060310772469
 31
0.0
  0
LINE
  5
2E30
330
1A
100
AcDbEntity
  8
1
100
AcDbLine
 10
5118.610298289233
 20
5223.060310772468
 30
0.0
 11
5110.610298289232
 21
5223.060310772468
 31
0.0
  0
LINE
  5
2E31
330
1A
100
AcDbEntity
  8
1
100
AcDbLine
 10
5067.610298289232
 20
5223.060310772468
 30
0.0
 11
5067.610298289232
 21
5301.060310772468
 31
0.0
  0
LINE
  5
2E32
330
1A
100
AcDbEntity
  8
1
100
AcDbLine
 10
5057.610298289233
 20
5301.060310772468
 30
0.0
 11
5057.610298289233
 21
5223.060310772468
 31
0.0
  0
LINE
  5
2E33
330
1A
100
AcDbEntity
  8
1
100
AcDbLine
 10
5110.610298289232
 20
5301.060310772468
 30
0.0
 11
5110.610298289232
 21
5223.060310772468
 31
0.0
  0
LINE
  5
2E34
330
1A
100
AcDbEntity
  8
1
100
AcDbLine
 10
5118.610298289233
 20
5301.060310772468
 30
0.0
 11
5118.610298289233
 21
5223.060310772468
 31
0.0
  0
LINE
  5
2E37
330
1A
100
AcDbEntity
  8
1
100
AcDbLine
 10
5035.610298289231
 20
5236.060179745193
 30
0.0
 11
5035.610298289231
 21
5177.060310772468
 31
0.0
  0
LINE
  5
2E39
330
1A
100
AcDbEntity
  8
1
100
AcDbLine
 10
4930.110484673202
 20
5672.633263636977
 30
0.0
 11
4930.110484673202
 21
5709.633263636977
 31
0.0
  0
LINE
  5
2E3A
330
1A
100
AcDbEntity
  8
1
100
AcDbLine
 10
4938.110484673202
 20
5672.633263636977
 30
0.0
 11
4938.110484673202
 21
5709.633263636977
 31
0.0
  0
ARC
  5
2E3B
330
1A
100
AcDbEntity
  8
1
100
AcDbCircle
 10
4925.310484673201
 20
5704.531663636976
 30
0.0
 40
1.199999999999999
100
AcDbArc
 50
179.998
 51
259.21
  0
LINE
  5
2E3C
330
1A
100
AcDbEntity
  8
1
100
AcDbLine
 10
4930.110484673202
 20
5702.395463636976
 30
0.0
 11
4925.085484673202
 21
5703.352863636976
 31
0.0
  0
ARC
  5
2E3D
330
1A
100
AcDbEntity
  8
1
100
AcDbCircle
 10
4942.910484673202
 20
5704.531663636976
 30
0.0
 40
1.199999999999999
100
AcDbArc
 50
280.788
 51
0.0
  0
LINE
  5
2E3E
330
1A
100
AcDbEntity
  8
1
100
AcDbLine
 10
4938.110484673202
 20
5702.395463636976
 30
0.0
 11
4943.135484673201
 21
5703.352863636976
 31
0.0
  0
ARC
  5
2E3F
330
1A
100
AcDbEntity
  8
1
100
AcDbCircle
 10
4934.110484673201
 20
5672.633263636977
 30
0.0
 40
4.0
100
AcDbArc
 50
180.0
 51
0.0
  0
ARC
  5
2E40
330
1A
100
AcDbEntity
  8
1
100
AcDbCircle
 10
4947.255960980078
 20
5707.810525483538
 30
0.0
 40
3.161990055773315
100
AcDbArc
 50
101.7789316351149
 51
174.1417296291088
  0
ARC
  5
2E41
330
1A
100
AcDbEntity
  8
1
100
AcDbCircle
 10
4920.965136939887
 20
5707.81058977032
 30
0.0
 40
3.161855592479135
100
AcDbArc
 50
5.857349323883497
 51
78.22294025085748
  0
LINE
  5
2E42
330
1A
100
AcDbEntity
  8
1
100
AcDbLine
 10
4924.110484673201
 20
5708.133263636984
 30
0.0
 11
4924.110484673201
 21
5704.531663636976
 31
0.0
  0
LINE
  5
2E43
330
1A
100
AcDbEntity
  8
1
100
AcDbLine
 10
4944.110484673202
 20
5708.133281645099
 30
0.0
 11
4944.110484673202
 21
5704.531663636976
 31
0.0
  0
ARC
  5
2E44
330
1A
100
AcDbEntity
  8
1
100
AcDbCircle
 10
4920.965136939887
 20
5915.455937503292
 30
0.0
 40
3.161855592479135
100
AcDbArc
 50
281.7770597491426
 51
354.1426506761165
  0
ARC
  5
2E45
330
1A
100
AcDbEntity
  8
1
100
AcDbCircle
 10
4947.255960980078
 20
5915.456001790074
 30
0.0
 40
3.161990055773315
100
AcDbArc
 50
185.8582703708911
 51
258.221068364885
  0
ARC
  5
2E46
330
1A
100
AcDbEntity
  8
1
100
AcDbCircle
 10
4934.110484673201
 20
5950.633263636635
 30
0.0
 40
4.0
100
AcDbArc
 50
0.0
 51
180.0
  0
LINE
  5
2E47
330
1A
100
AcDbEntity
  8
1
100
AcDbLine
 10
4938.110484673202
 20
5920.871063636636
 30
0.0
 11
4943.135484673201
 21
5919.913663636635
 31
0.0
  0
LINE
  5
2E48
330
1A
100
AcDbEntity
  8
1
100
AcDbLine
 10
4944.110484673202
 20
5915.133245628513
 30
0.0
 11
4944.110484673202
 21
5918.734863636636
 31
0.0
  0
ARC
  5
2E49
330
1A
100
AcDbEntity
  8
1
100
AcDbCircle
 10
4942.910484673202
 20
5918.734863636636
 30
0.0
 40
1.199999999999999
100
AcDbArc
 50
0.0
 51
79.212
  0
LINE
  5
2E4A
330
1A
100
AcDbEntity
  8
1
100
AcDbLine
 10
4930.110484673202
 20
5920.871063636636
 30
0.0
 11
4925.085484673202
 21
5919.913663636635
 31
0.0
  0
LINE
  5
2E4B
330
1A
100
AcDbEntity
  8
1
100
AcDbLine
 10
4924.110484673201
 20
5915.133263636629
 30
0.0
 11
4924.110484673201
 21
5918.734863636636
 31
0.0
  0
ARC
  5
2E4C
330
1A
100
AcDbEntity
  8
1
100
AcDbCircle
 10
4925.310484673201
 20
5918.734863636636
 30
0.0
 40
1.199999999999999
100
AcDbArc
 50
100.79
 51
180.002
  0
LINE
  5
2E4D
330
1A
100
AcDbEntity
  8
1
100
AcDbLine
 10
4938.110484673202
 20
5950.633263636635
 30
0.0
 11
4938.110484673202
 21
5913.633263636635
 31
0.0
  0
LINE
  5
2E4E
330
1A
100
AcDbEntity
  8
1
100
AcDbLine
 10
4930.110484673202
 20
5950.633263636635
 30
0.0
 11
4930.110484673202
 21
5913.633263636635
 31
0.0
  0
LINE
  5
2E4F
330
1A
100
AcDbEntity
  8
CENTER
100
AcDbLine
 10
4919.110298292278
 20
5394.060411170693
 30
0.0
 11
4949.110298286185
 21
5394.060179745186
 31
0.0
  0
ARC
  5
2E50
330
1A
100
AcDbEntity
  8
1
100
AcDbCircle
 10
4934.110298286185
 20
5410.560136239542
 30
0.0
 40
4.0
100
AcDbArc
 50
0.0
 51
180.0
  0
ARC
  5
2E51
330
1A
100
AcDbEntity
  8
1
100
AcDbCircle
 10
4934.110298286185
 20
5394.060136239542
 30
0.0
 40
10.0
100
AcDbArc
 50
113.578
 51
246.418
  0
LINE
  5
2E52
330
1A
100
AcDbEntity
  8
1
100
AcDbLine
 10
4930.110298286185
 20
5377.560136239543
 30
0.0
 11
4930.110298286185
 21
5410.560136239542
 31
0.0
  0
LINE
  5
2E53
330
1A
100
AcDbEntity
  8
1
100
AcDbLine
 10
4938.110298286185
 20
5377.560136239543
 30
0.0
 11
4938.110298286185
 21
5410.560136239542
 31
0.0
  0
ARC
  5
2E54
330
1A
100
AcDbEntity
  8
1
100
AcDbCircle
 10
4934.110298286185
 20
5377.560136239543
 30
0.0
 40
4.0
100
AcDbArc
 50
180.0
 51
0.0
  0
ARC
  5
2E55
330
1A
100
AcDbEntity
  8
1
100
AcDbCircle
 10
4934.110298286185
 20
5394.060136239542
 30
0.0
 40
10.0
100
AcDbArc
 50
293.58
 51
66.42000000000004
  0
ARC
  5
2E56
330
1A
100
AcDbEntity
  8
1
100
AcDbCircle
 10
4934.110298289231
 20
5811.633263636807
 30
0.0
 40
34.0
100
AcDbArc
 50
238.5328204177834
 51
263.2436729694122
  0
ARC
  5
2E57
330
1A
100
AcDbEntity
  8
1
 62
     9
100
AcDbCircle
 10
4934.110298289231
 20
5811.633263636807
 30
0.0
 40
47.17876830866589
100
AcDbArc
 50
184.8635984252761
 51
265.1364015747206
  0
ARC
  5
2E58
330
1A
100
AcDbEntity
  8
1
 62
     9
100
AcDbCircle
 10
4934.110298289231
 20
5811.633263636807
 30
0.0
 40
47.17876830866589
100
AcDbArc
 50
274.8635984252761
 51
355.1364015747206
  0
ARC
  5
2E59
330
1A
100
AcDbEntity
  8
1
100
AcDbCircle
 10
4934.110298289231
 20
5811.633263636807
 30
0.0
 40
34.0
100
AcDbArc
 50
276.7563270305832
 51
301.4671795822165
  0
ARC
  5
2E5A
330
1A
100
AcDbEntity
  8
1
 62
     9
100
AcDbCircle
 10
4934.110298289231
 20
5811.633263636807
 30
0.0
 40
47.17876830866589
100
AcDbArc
 50
4.863598425275024
 51
85.13640157472057
  0
LINE
  5
2E5B
330
1A
100
AcDbEntity
  8
1
100
AcDbLine
 10
4968.881068782645
 20
5807.633263636806
 30
0.0
 11
4983.596245473004
 21
5807.633263636806
 31
0.0
  0
LINE
  5
2E5C
330
1A
100
AcDbEntity
  8
1
100
AcDbLine
 10
4968.881068782645
 20
5815.633263636803
 30
0.0
 11
4983.596245473004
 21
5815.633263636803
 31
0.0
  0
LINE
  5
2E5D
330
1A
100
AcDbEntity
  8
1
100
AcDbLine
 10
4930.110298289232
 20
5779.884247904032
 30
0.0
 11
4930.110298289232
 21
5762.147316453035
 31
0.0
  0
LINE
  5
2E5E
330
1A
100
AcDbEntity
  8
1
100
AcDbLine
 10
4938.110298289228
 20
5779.884247904032
 30
0.0
 11
4938.110298289228
 21
5762.147316453035
 31
0.0
  0
LINE
  5
2E5F
330
1A
100
AcDbEntity
  8
1
100
AcDbLine
 10
4899.33971417979
 20
5815.633263636807
 30
0.0
 11
4884.624351105459
 21
5815.633263636806
 31
0.0
  0
LINE
  5
2E60
330
1A
100
AcDbEntity
  8
1
100
AcDbLine
 10
4899.339714179788
 20
5807.63326363681
 30
0.0
 11
4884.624351105459
 21
5807.633263636809
 31
0.0
  0
LINE
  5
2E61
330
1A
100
AcDbEntity
  8
1
100
AcDbLine
 10
4930.110298289235
 20
5843.382279369581
 30
0.0
 11
4930.110298289235
 21
5861.119210820578
 31
0.0
  0
LINE
  5
2E62
330
1A
100
AcDbEntity
  8
1
100
AcDbLine
 10
4938.110298289231
 20
5843.382279369581
 30
0.0
 11
4938.110298289231
 21
5861.119210820578
 31
0.0
  0
ARC
  5
2E63
330
1A
100
AcDbEntity
  8
1
100
AcDbCircle
 10
4934.110298289231
 20
5811.633263636807
 30
0.0
 40
30.376
100
AcDbArc
 50
72.68809823539777
 51
107.3119017646022
  0
ARC
  5
2E64
330
1A
100
AcDbEntity
  8
1
100
AcDbCircle
 10
4934.110298289231
 20
5811.633263636807
 30
0.0
 40
32.0
100
AcDbArc
 50
64.99190005329147
 51
115.0080999467085
  0
ARC
  5
2E65
330
1A
100
AcDbEntity
  8
1
100
AcDbCircle
 10
4934.110298289231
 20
5811.633263636807
 30
0.0
 40
34.0
100
AcDbArc
 50
58.53282041778344
 51
121.4671795822165
  0
CIRCLE
  5
2E66
330
1A
100
AcDbEntity
  8
1
100
AcDbCircle
 10
4934.110298289231
 20
5811.633263636807
 30
0.0
 40
49.64734603858506
  0
ARC
  5
2E67
330
1A
100
AcDbEntity
  8
1
 62
     9
100
AcDbCircle
 10
4934.110298289231
 20
5811.633263636807
 30
0.0
 40
47.17876830866589
100
AcDbArc
 50
94.86359842527612
 51
175.1364015747205
  0
CIRCLE
  5
2E68
330
1A
100
AcDbEntity
  8
1
100
AcDbCircle
 10
4934.110298289231
 20
5811.633263636807
 30
0.0
 40
60.0
  0
CIRCLE
  5
2E69
330
1A
100
AcDbEntity
  8
1
100
AcDbCircle
 10
4934.110298289231
 20
5811.633263636807
 30
0.0
 40
98.0
  0
LINE
  5
2E6A
330
1A
100
AcDbEntity
  8
1
100
AcDbLine
 10
5119.410298289231
 20
5781.633263636805
 30
0.0
 11
5118.610298289231
 21
5781.633263636805
 31
0.0
  0
LINE
  5
2E6B
330
1A
100
AcDbEntity
  8
1
100
AcDbLine
 10
5122.210298289232
 20
5833.828700119436
 30
0.0
 11
5122.210298289232
 21
5828.328700119436
 31
0.0
  0
LINE
  5
2E6C
330
1A
100
AcDbEntity
  8
1
100
AcDbLine
 10
5119.410298289233
 20
5833.828700119436
 30
0.0
 11
5122.210298289232
 21
5833.828700119436
 31
0.0
  0
LINE
  5
2E6D
330
1A
100
AcDbEntity
  8
1
100
AcDbLine
 10
5119.410298289233
 20
5828.328700119435
 30
0.0
 11
5122.210298289232
 21
5828.328700119435
 31
0.0
  0
LINE
  5
2E6E
330
1A
100
AcDbEntity
  8
1
100
AcDbLine
 10
5122.210298289232
 20
5833.828700119436
 30
0.0
 11
5122.410298289231
 21
5833.482289957921
 31
0.0
  0
LINE
  5
2E6F
330
1A
100
AcDbEntity
  8
1
100
AcDbLine
 10
5122.210298289232
 20
5828.328700119436
 30
0.0
 11
5122.410298289231
 21
5828.675110280951
 31
0.0
  0
LINE
  5
2E70
330
1A
100
AcDbEntity
  8
1
100
AcDbLine
 10
5122.410298289231
 20
5833.48228995792
 30
0.0
 11
5122.410298289232
 21
5828.675110280951
 31
0.0
  0
LINE
  5
2E71
330
1A
100
AcDbEntity
  8
1
100
AcDbLine
 10
5119.410298289231
 20
5841.633263636806
 30
0.0
 11
5118.610298289231
 21
5841.633263636806
 31
0.0
  0
LINE
  5
2E72
330
1A
100
AcDbEntity
  8
1
100
AcDbLine
 10
5122.410298289231
 20
5789.784237315692
 30
0.0
 11
5122.410298289232
 21
5794.591416992662
 31
0.0
  0
LINE
  5
2E73
330
1A
100
AcDbEntity
  8
1
100
AcDbLine
 10
5122.210298289232
 20
5794.937827154177
 30
0.0
 11
5122.410298289231
 21
5794.591416992662
 31
0.0
  0
LINE
  5
2E74
330
1A
100
AcDbEntity
  8
1
100
AcDbLine
 10
5122.210298289232
 20
5789.437827154177
 30
0.0
 11
5122.410298289231
 21
5789.784237315691
 31
0.0
  0
LINE
  5
2E75
330
1A
100
AcDbEntity
  8
1
100
AcDbLine
 10
5119.410298289233
 20
5794.937827154178
 30
0.0
 11
5122.210298289232
 21
5794.937827154178
 31
0.0
  0
LINE
  5
2E76
330
1A
100
AcDbEntity
  8
1
100
AcDbLine
 10
5119.410298289233
 20
5789.437827154177
 30
0.0
 11
5122.210298289232
 21
5789.437827154177
 31
0.0
  0
LINE
  5
2E77
330
1A
100
AcDbEntity
  8
1
100
AcDbLine
 10
5122.210298289232
 20
5789.437827154177
 30
0.0
 11
5122.210298289232
 21
5794.937827154177
 31
0.0
  0
LINE
  5
2E78
330
1A
100
AcDbEntity
  8
1
100
AcDbLine
 10
5119.410298289231
 20
5781.633263636805
 30
0.0
 11
5119.410298289231
 21
5841.633263636806
 31
0.0
  0
LINE
  5
2E7A
330
1A
100
AcDbEntity
  8
1
100
AcDbLine
 10
5110.610298289231
 20
5850.633263636806
 30
0.0
 11
5118.610298289231
 21
5850.633263636806
 31
0.0
  0
LINE
  5
2E7B
330
1A
100
AcDbEntity
  8
1
100
AcDbLine
 10
5118.610298289231
 20
5772.633263636806
 30
0.0
 11
5110.610298289231
 21
5772.633263636806
 31
0.0
  0
LINE
  5
2E7C
330
1A
100
AcDbEntity
  8
1
100
AcDbLine
 10
5110.610298289231
 20
5850.633263636806
 30
0.0
 11
5110.610298289231
 21
5772.633263636806
 31
0.0
  0
LINE
  5
2E7D
330
1A
100
AcDbEntity
  8
1
100
AcDbLine
 10
5118.610298289231
 20
5850.633263636806
 30
0.0
 11
5118.610298289231
 21
5772.633263636806
 31
0.0
  0
LINE
  5
2E7E
330
1A
100
AcDbEntity
  8
1
100
AcDbLine
 10
5102.610298289231
 20
5882.633263636806
 30
0.0
 11
5102.610298289231
 21
5850.633263636805
 31
0.0
  0
LINE
  5
2E7F
330
1A
100
AcDbEntity
  8
CENTER
100
AcDbLine
 10
5088.610298289232
 20
5845.633263636806
 30
0.0
 11
5088.610298289231
 21
5933.633223377614
 31
0.0
  0
LINE
  5
2E80
330
1A
100
AcDbEntity
  8
1
100
AcDbLine
 10
5101.610298289232
 20
5883.633263636807
 30
0.0
 11
5102.610298289231
 21
5882.633263636807
 31
0.0
  0
LINE
  5
2E81
330
1A
100
AcDbEntity
  8
1
100
AcDbLine
 10
5102.610298289231
 20
5889.633263636807
 30
0.0
 11
5102.610298289231
 21
5883.633263636807
 31
0.0
  0
LINE
  5
2E82
330
1A
100
AcDbEntity
  8
1
100
AcDbLine
 10
5092.318397532779
 20
5889.633263636807
 30
0.0
 11
5092.318397532779
 21
5883.633263636806
 31
0.0
  0
LINE
  5
2E83
330
1A
100
AcDbEntity
  8
1
100
AcDbLine
 10
5102.61029828923
 20
5928.633223377615
 30
0.0
 11
5102.610298289231
 21
5892.633223377615
 31
0.0
  0
LINE
  5
2E84
330
1A
100
AcDbEntity
  8
1
100
AcDbLine
 10
5099.610298289231
 20
5892.633223377614
 30
0.0
 11
5099.610298289231
 21
5889.633263636808
 31
0.0
  0
LINE
  5
2E85
330
1A
100
AcDbEntity
  8
1
 62
     8
100
AcDbLine
 10
5098.910298289231
 20
5892.633223377614
 30
0.0
 11
5098.910298289231
 21
5889.633263636808
 31
0.0
  0
LINE
  5
2E86
330
1A
100
AcDbEntity
  8
1
100
AcDbLine
 10
5095.821400840157
 20
5918.633223377614
 30
0.0
 11
5095.821400840155
 21
5928.633223377616
 31
0.0
  0
LINE
  5
2E87
330
1A
100
AcDbEntity
  8
1
100
AcDbLine
 10
5102.285092620407
 20
5906.633223377614
 30
0.0
 11
5102.285092620407
 21
5898.633223377614
 31
0.0
  0
LINE
  5
2E88
330
1A
100
AcDbEntity
  8
1
100
AcDbLine
 10
5095.610298289232
 20
5906.633223377615
 30
0.0
 11
5095.610298289232
 21
5898.633223377615
 31
0.0
  0
CIRCLE
  5
2E89
330
1A
100
AcDbEntity
  8
1
100
AcDbCircle
 10
5098.610298289232
 20
5902.633223377616
 30
0.0
 40
2.75
  0
LINE
  5
2E8A
330
1A
100
AcDbEntity
  8
1
100
AcDbLine
 10
5097.888610452747
 20
5901.383223377615
 30
0.0
 11
5099.33198612572
 21
5901.383223377615
 31
0.0
  0
LINE
  5
2E8B
330
1A
100
AcDbEntity
  8
1
100
AcDbLine
 10
5097.888610452745
 20
5903.883223377615
 30
0.0
 11
5099.331986125721
 21
5903.883223377615
 31
0.0
  0
LINE
  5
2E8C
330
1A
100
AcDbEntity
  8
1
100
AcDbLine
 10
5099.33198612572
 20
5901.383223377615
 30
0.0
 11
5100.053673962207
 21
5902.633223377613
 31
0.0
  0
LINE
  5
2E8D
330
1A
100
AcDbEntity
  8
1
100
AcDbLine
 10
5100.053673962207
 20
5902.633223377614
 30
0.0
 11
5099.33198612572
 21
5903.883223377615
 31
0.0
  0
LINE
  5
2E8E
330
1A
100
AcDbEntity
  8
1
100
AcDbLine
 10
5097.888610452747
 20
5901.383223377615
 30
0.0
 11
5097.16692261626
 21
5902.633223377614
 31
0.0
  0
LINE
  5
2E8F
330
1A
100
AcDbEntity
  8
1
100
AcDbLine
 10
5097.166922616257
 20
5902.633223377614
 30
0.0
 11
5097.888610452745
 21
5903.883223377615
 31
0.0
  0
LINE
  5
2E91
330
1A
100
AcDbEntity
  8
1
100
AcDbLine
 10
5032.223753024044
 20
5785.633263636806
 30
0.0
 11
5057.610298289231
 21
5785.633263636806
 31
0.0
  0
LINE
  5
2E92
330
1A
100
AcDbEntity
  8
1
100
AcDbLine
 10
5032.223753024044
 20
5837.633263636806
 30
0.0
 11
5057.610298289231
 21
5837.633263636806
 31
0.0
  0
LINE
  5
2E93
330
1A
100
AcDbEntity
  8
1
100
AcDbLine
 10
5057.610298289233
 20
5850.633263636806
 30
0.0
 11
5067.610298289231
 21
5850.633263636806
 31
0.0
  0
LINE
  5
2E94
330
1A
100
AcDbEntity
  8
1
100
AcDbLine
 10
5067.610298289231
 20
5772.633263636806
 30
0.0
 11
5057.610298289233
 21
5772.633263636806
 31
0.0
  0
LINE
  5
2E95
330
1A
100
AcDbEntity
  8
1
100
AcDbLine
 10
5067.610298289231
 20
5772.633263636806
 30
0.0
 11
5067.610298289231
 21
5850.633263636806
 31
0.0
  0
LINE
  5
2E96
330
1A
100
AcDbEntity
  8
1
100
AcDbLine
 10
5057.610298289231
 20
5850.633263636806
 30
0.0
 11
5057.610298289231
 21
5772.633263636806
 31
0.0
  0
LINE
  5
2E97
330
1A
100
AcDbEntity
  8
1
100
AcDbLine
 10
5074.610298289232
 20
5850.633263636805
 30
0.0
 11
5074.610298289232
 21
5882.633263636806
 31
0.0
  0
LINE
  5
2E98
330
1A
100
AcDbEntity
  8
1
100
AcDbLine
 10
5075.610298289231
 20
5883.633263636806
 30
0.0
 11
5074.610298289232
 21
5882.633263636806
 31
0.0
  0
LINE
  5
2E99
330
1A
100
AcDbEntity
  8
1
100
AcDbLine
 10
5074.610298289232
 20
5889.633263636806
 30
0.0
 11
5074.610298289232
 21
5883.633263636806
 31
0.0
  0
LINE
  5
2E9A
330
1A
100
AcDbEntity
  8
1
100
AcDbLine
 10
5075.110298289231
 20
5883.133263636806
 30
0.0
 11
5075.610298289231
 21
5883.633263636806
 31
0.0
  0
LINE
  5
2E9B
330
1A
100
AcDbEntity
  8
1
100
AcDbLine
 10
5084.902199045684
 20
5889.633263636807
 30
0.0
 11
5084.902199045684
 21
5883.633263636806
 31
0.0
  0
LINE
  5
2E9C
330
1A
100
AcDbEntity
  8
1
100
AcDbLine
 10
5074.610298289229
 20
5928.633223377613
 30
0.0
 11
5074.610298289231
 21
5892.633223377614
 31
0.0
  0
LINE
  5
2E9D
330
1A
100
AcDbEntity
  8
1
100
AcDbLine
 10
5077.610298289231
 20
5892.633223377614
 30
0.0
 11
5077.610298289232
 21
5889.633263636806
 31
0.0
  0
LINE
  5
2E9E
330
1A
100
AcDbEntity
  8
1
 62
     8
100
AcDbLine
 10
5078.310298289231
 20
5892.633223377614
 30
0.0
 11
5078.310298289231
 21
5889.633263636806
 31
0.0
  0
LINE
  5
2E9F
330
1A
100
AcDbEntity
  8
1
100
AcDbLine
 10
5081.399195738308
 20
5918.633223377614
 30
0.0
 11
5081.399195738308
 21
5928.633223377613
 31
0.0
  0
LINE
  5
2EA0
330
1A
100
AcDbEntity
  8
1
100
AcDbLine
 10
5074.935503958056
 20
5906.633223377614
 30
0.0
 11
5074.935503958056
 21
5898.633223377614
 31
0.0
  0
LINE
  5
2EA1
330
1A
100
AcDbEntity
  8
1
100
AcDbLine
 10
5081.610298289231
 20
5906.633223377615
 30
0.0
 11
5081.610298289231
 21
5898.633223377615
 31
0.0
  0
CIRCLE
  5
2EA2
330
1A
100
AcDbEntity
  8
1
100
AcDbCircle
 10
5078.610298289231
 20
5902.633223377614
 30
0.0
 40
2.75
  0
LINE
  5
2EA3
330
1A
100
AcDbEntity
  8
1
100
AcDbLine
 10
5077.888610452746
 20
5901.383223377615
 30
0.0
 11
5077.16692261626
 21
5902.633223377614
 31
0.0
  0
LINE
  5
2EA4
330
1A
100
AcDbEntity
  8
1
100
AcDbLine
 10
5080.053673962207
 20
5902.633223377614
 30
0.0
 11
5079.33198612572
 21
5903.883223377615
 31
0.0
  0
LINE
  5
2EA5
330
1A
100
AcDbEntity
  8
1
100
AcDbLine
 10
5077.166922616258
 20
5902.633223377614
 30
0.0
 11
5077.888610452744
 21
5903.883223377615
 31
0.0
  0
LINE
  5
2EA6
330
1A
100
AcDbEntity
  8
1
100
AcDbLine
 10
5079.33198612572
 20
5901.383223377615
 30
0.0
 11
5080.053673962208
 21
5902.633223377613
 31
0.0
  0
LINE
  5
2EA7
330
1A
100
AcDbEntity
  8
1
100
AcDbLine
 10
5077.888610452744
 20
5903.883223377615
 30
0.0
 11
5079.331986125722
 21
5903.883223377615
 31
0.0
  0
LINE
  5
2EA8
330
1A
100
AcDbEntity
  8
1
100
AcDbLine
 10
5077.888610452746
 20
5901.383223377615
 30
0.0
 11
5079.33198612572
 21
5901.383223377615
 31
0.0
  0
LINE
  5
2EA9
330
1A
100
AcDbEntity
  8
1
100
AcDbLine
 10
5067.610298289231
 20
5850.633263636806
 30
0.0
 11
5110.610298289231
 21
5850.633263636806
 31
0.0
  0
LINE
  5
2EAA
330
1A
100
AcDbEntity
  8
1
100
AcDbLine
 10
5110.610298289231
 20
5772.633263636806
 30
0.0
 11
5067.610298289231
 21
5772.633263636806
 31
0.0
  0
LINE
  5
2EAB
330
1A
100
AcDbEntity
  8
1
100
AcDbLine
 10
5074.610298289232
 20
5882.633263636806
 30
0.0
 11
5102.610298289231
 21
5882.633263636807
 31
0.0
  0
LINE
  5
2EAC
330
1A
100
AcDbEntity
  8
1
100
AcDbLine
 10
5074.610298289232
 20
5889.633263636806
 30
0.0
 11
5102.610298289231
 21
5889.633263636807
 31
0.0
  0
LINE
  5
2EAD
330
1A
100
AcDbEntity
  8
1
100
AcDbLine
 10
5074.610298289232
 20
5883.633263636806
 30
0.0
 11
5102.610298289231
 21
5883.633263636806
 31
0.0
  0
LINE
  5
2EAE
330
1A
100
AcDbEntity
  8
1
100
AcDbLine
 10
5074.610298289231
 20
5892.633223377614
 30
0.0
 11
5102.610298289231
 21
5892.633223377615
 31
0.0
  0
LINE
  5
2EAF
330
1A
100
AcDbEntity
  8
1
100
AcDbLine
 10
5074.610298289231
 20
5897.633223377614
 30
0.0
 11
5102.610298289231
 21
5897.633223377614
 31
0.0
  0
LINE
  5
2EB0
330
1A
100
AcDbEntity
  8
1
100
AcDbLine
 10
5074.610298289229
 20
5928.633223377613
 30
0.0
 11
5102.61029828923
 21
5928.633223377615
 31
0.0
  0
LINE
  5
2EB1
330
1A
100
AcDbEntity
  8
1
100
AcDbLine
 10
5074.610298289231
 20
5907.633223377614
 30
0.0
 11
5102.610298289231
 21
5907.633223377615
 31
0.0
  0
LINE
  5
2EB2
330
1A
100
AcDbEntity
  8
1
100
AcDbLine
 10
5081.399195738309
 20
5918.633223377614
 30
0.0
 11
5095.821400840157
 21
5918.633223377614
 31
0.0
  0
LINE
  5
2EB3
330
1A
100
AcDbEntity
  8
1
100
AcDbLine
 10
5074.935503958056
 20
5906.633223377614
 30
0.0
 11
5102.285092620407
 21
5906.633223377615
 31
0.0
  0
LINE
  5
2EB4
330
1A
100
AcDbEntity
  8
1
100
AcDbLine
 10
5074.935503958056
 20
5898.633223377614
 30
0.0
 11
5102.285092620407
 21
5898.633223377615
 31
0.0
  0
LINE
  5
2EB5
330
1A
100
AcDbEntity
  8
1
 62
     9
100
AcDbLine
 10
5092.318397532779
 20
5889.633263636807
 30
0.0
 11
5084.902199045684
 21
5883.633263636806
 31
0.0
  0
LINE
  5
2EB6
330
1A
100
AcDbEntity
  8
1
 62
     9
100
AcDbLine
 10
5084.902199045684
 20
5889.633263636807
 30
0.0
 11
5092.318397532779
 21
5883.633263636806
 31
0.0
  0
LINE
  5
2EB7
330
1A
100
AcDbEntity
  8
1
 62
     9
100
AcDbLine
 10
5095.821400840155
 20
5928.633223377616
 30
0.0
 11
5081.399195738309
 21
5918.633223377614
 31
0.0
  0
LINE
  5
2EB8
330
1A
100
AcDbEntity
  8
1
 62
     9
100
AcDbLine
 10
5081.399195738308
 20
5928.633223377613
 30
0.0
 11
5095.821400840157
 21
5918.633223377614
 31
0.0
  0
LINE
  5
2EBC
330
1A
100
AcDbEntity
  8
CENTER
100
AcDbLine
 10
4812.610298289232
 20
5811.633263636807
 30
0.0
 11
5138.610298289232
 21
5811.633263636807
 31
0.0
  0
CIRCLE
  5
2EBD
330
1A
100
AcDbEntity
  8
1
100
AcDbCircle
 10
4934.110298289231
 20
5811.633263636807
 30
0.0
 40
101.5
  0
DIMENSION
  5
2EBE
330
1A
100
AcDbEntity
  8
0
100
AcDbDimension
  2
*D24
 10
11498.18699113414
 20
11709.72424523856
 30
0.0
 11
11396.68699113415
 21
11715.72424523856
 31
0.0
 70
    32
 71
     5
 42
-1.0
  3
3
100
AcDbAlignedDimension
 13
11295.18699113415
 23
11656.42803510297
 33
0.0
 14
11498.18699113414
 24
11656.42803510297
 34
0.0
100
AcDbRotatedDimension
  0
LINE
  5
2EBF
330
1A
100
AcDbEntity
  8
CENTER
100
AcDbLine
 10
4934.110298289231
 20
5648.633263636977
 30
0.0
 11
4934.110484673202
 21
5974.633263636636
 31
0.0
  0
ARC
  5
2EC0
330
1A
100
AcDbEntity
  8
1
100
AcDbCircle
 10
5031.610298289235
 20
5174.060310772467
 30
0.0
 40
4.999999999996907
100
AcDbArc
 50
323.1301023541476
 51
36.8698976458836
  0
ARC
  5
2EC1
330
1A
100
AcDbEntity
  8
1
100
AcDbCircle
 10
4836.610298289231
 20
5174.060310772468
 30
0.0
 40
5.0
100
AcDbArc
 50
143.130102354156
 51
216.869897645844
  0
LINE
  5
2EC2
330
1A
100
AcDbEntity
  8
1
 62
     9
100
AcDbLine
 10
4832.610298289232
 20
5177.060310772468
 30
0.0
 11
5035.610298289231
 21
5177.060310772468
 31
0.0
  0
LINE
  5
2EC4
330
1A
100
AcDbEntity
  8
1
100
AcDbLine
 10
4994.110298289232
 20
5452.060310772468
 30
0.0
 11
4994.110298289232
 21
5446.060310772469
 31
0.0
  0
LINE
  5
2EC5
330
1A
100
AcDbEntity
  8
1
100
AcDbLine
 10
4990.110298289232
 20
5446.060310772469
 30
0.0
 11
4990.110298289232
 21
5443.060310772467
 31
0.0
  0
LINE
  5
2EC6
330
1A
100
AcDbEntity
  8
1
100
AcDbLine
 10
4878.110298289232
 20
5446.060310772469
 30
0.0
 11
4878.110298289231
 21
5443.060310772467
 31
0.0
  0
LINE
  5
2EC7
330
1A
100
AcDbEntity
  8
1
100
AcDbLine
 10
4874.110298289231
 20
5446.060310772469
 30
0.0
 11
4874.110298289231
 21
5452.060310772468
 31
0.0
  0
LINE
  5
2EC8
330
1A
100
AcDbEntity
  8
1
100
AcDbLine
 10
4874.110298289231
 20
5452.060310772468
 30
0.0
 11
4994.110298289232
 21
5452.060310772468
 31
0.0
  0
LINE
  5
2EC9
330
1A
100
AcDbEntity
  8
1
100
AcDbLine
 10
4994.110298289232
 20
5446.060310772469
 30
0.0
 11
4874.110298289231
 21
5446.060310772469
 31
0.0
  0
LINE
  5
2ECA
330
1A
100
AcDbEntity
  8
1
100
AcDbLine
 10
4832.610298289232
 20
5443.060310772467
 30
0.0
 11
5035.610298289231
 21
5443.060310772467
 31
0.0
  0
LINE
  5
2ECB
330
1A
100
AcDbEntity
  8
1
100
AcDbLine
 10
5035.610298289231
 20
5443.060310772467
 30
0.0
 11
5035.610298289231
 21
5288.060179745179
 31
0.0
  0
LINE
  5
2ECC
330
1A
100
AcDbEntity
  8
1
100
AcDbLine
 10
4832.610298289231
 20
5443.060310772467
 30
0.0
 11
4832.610298289232
 21
5177.060310772468
 31
0.0
  0
LINE
  5
2ECD
330
1A
100
AcDbEntity
  8
1
100
AcDbLine
 10
4848.110298289232
 20
5106.060310772467
 30
0.0
 11
5020.110298289232
 21
5106.060310772468
 31
0.0
  0
LINE
  5
2ECE
330
1A
100
AcDbEntity
  8
1
  6
HIDDEN
100
AcDbLine
 10
4984.110298289232
 20
5106.560310772466
 30
0.0
 11
4984.610298289233
 21
5106.060310772466
 31
0.0
  0
LINE
  5
2ECF
330
1A
100
AcDbEntity
  8
1
  6
HIDDEN
100
AcDbLine
 10
4884.110298289232
 20
5106.560310772468
 30
0.0
 11
4883.610298289232
 21
5106.060310772467
 31
0.0
  0
LINE
  5
2ED0
330
1A
100
AcDbEntity
  8
1
  6
HIDDEN
100
AcDbLine
 10
4984.110298289232
 20
5106.560310772466
 30
0.0
 11
4982.876009424273
 21
5108.060310772468
 31
0.0
  0
LINE
  5
2ED1
330
1A
100
AcDbEntity
  8
1
  6
HIDDEN
100
AcDbLine
 10
4884.110298289232
 20
5106.560310772468
 30
0.0
 11
4885.344587154191
 21
5108.060310772468
 31
0.0
  0
LINE
  5
2ED2
330
1A
100
AcDbEntity
  8
1
  6
HIDDEN
100
AcDbLine
 10
4934.110298289231
 20
5203.060310772468
 30
0.0
 11
4925.450044251387
 21
5198.060310772468
 31
0.0
  0
LINE
  5
2ED3
330
1A
100
AcDbEntity
  8
1
  6
HIDDEN
100
AcDbLine
 10
4934.110298289231
 20
5203.060310772468
 30
0.0
 11
4942.770552327077
 21
5198.060310772468
 31
0.0
  0
ARC
  5
2ED4
330
1A
100
AcDbEntity
  8
1
  6
HIDDEN
100
AcDbCircle
 10
4904.110298289232
 20
5195.560310772467
 30
0.0
 40
2.5
100
AcDbArc
 50
90.0
 51
270.0
  0
LINE
  5
2ED5
330
1A
100
AcDbEntity
  8
1
  6
HIDDEN
100
AcDbLine
 10
4902.010298289231
 20
5111.351207306848
 30
0.0
 11
4902.010298289231
 21
5118.060310772466
 31
0.0
  0
LINE
  5
2ED6
330
1A
100
AcDbEntity
  8
1
  6
HIDDEN
100
AcDbLine
 10
4900.110298289232
 20
5108.060310772468
 30
0.0
 11
4902.010298289231
 21
5111.351207306848
 31
0.0
  0
LINE
  5
2ED7
330
1A
100
AcDbEntity
  8
1
  6
HIDDEN
100
AcDbLine
 10
4903.734298289231
 20
5118.060310772467
 30
0.0
 11
4903.734298289231
 21
5193.088747704285
 31
0.0
  0
LINE
  5
2ED8
330
1A
100
AcDbEntity
  8
1
  6
HIDDEN
 62
     9
100
AcDbLine
 10
4902.110298289233
 20
5118.060310772467
 30
0.0
 11
4902.110298289231
 21
5194.060310772467
 31
0.0
  0
LINE
  5
2ED9
330
1A
100
AcDbEntity
  8
1
  6
HIDDEN
100
AcDbLine
 10
4966.210298289232
 20
5111.351207306848
 30
0.0
 11
4966.210298289231
 21
5118.060310772467
 31
0.0
  0
LINE
  5
2EDA
330
1A
100
AcDbEntity
  8
1
  6
HIDDEN
100
AcDbLine
 10
4968.11029828923
 20
5108.060310772468
 30
0.0
 11
4966.210298289231
 21
5111.351207306848
 31
0.0
  0
LINE
  5
2EDB
330
1A
100
AcDbEntity
  8
1
  6
HIDDEN
100
AcDbLine
 10
4964.486298289232
 20
5118.060310772467
 30
0.0
 11
4964.486298289232
 21
5193.088747704285
 31
0.0
  0
ARC
  5
2EDC
330
1A
100
AcDbEntity
  8
1
  6
HIDDEN
100
AcDbCircle
 10
4964.110298289232
 20
5195.560310772467
 30
0.0
 40
2.5
100
AcDbArc
 50
270.0
 51
90.0
  0
LINE
  5
2EDD
330
1A
100
AcDbEntity
  8
1
  6
HIDDEN
 62
     9
100
AcDbLine
 10
4966.110298289233
 20
5118.060310772467
 30
0.0
 11
4966.110298289232
 21
5194.060310772467
 31
0.0
  0
LINE
  5
2EDE
330
1A
100
AcDbEntity
  8
1
  6
HIDDEN
100
AcDbLine
 10
4966.210298289231
 20
5111.351207306848
 30
0.0
 11
4902.010298289231
 21
5111.351207306848
 31
0.0
  0
LINE
  5
2EDF
330
1A
100
AcDbEntity
  8
1
  6
HIDDEN
100
AcDbLine
 10
4904.110298289232
 20
5193.060310772467
 30
0.0
 11
4964.110298289232
 21
5193.060310772469
 31
0.0
  0
LINE
  5
2EE0
330
1A
100
AcDbEntity
  8
1
  6
HIDDEN
100
AcDbLine
 10
4964.110298289232
 20
5198.060310772468
 30
0.0
 11
4904.110298289232
 21
5198.060310772468
 31
0.0
  0
LINE
  5
2EE1
330
1A
100
AcDbEntity
  8
1
  6
HIDDEN
100
AcDbLine
 10
4966.210298289231
 20
5118.060310772466
 30
0.0
 11
4902.01029828923
 21
5118.060310772466
 31
0.0
  0
LINE
  5
2EE2
330
1A
100
AcDbEntity
  8
1
  6
HIDDEN
100
AcDbLine
 10
4982.876009424273
 20
5108.060310772468
 30
0.0
 11
4885.344587154193
 21
5108.060310772468
 31
0.0
  0
LINE
  5
2EF3
330
1A
100
AcDbEntity
  8
1
100
AcDbLine
 10
4983.757644327816
 20
5452.060310772468
 30
0.0
 11
4981.289066597898
 21
5466.060310772467
 31
0.0
  0
LINE
  5
2EF4
330
1A
100
AcDbEntity
  8
1
100
AcDbLine
 10
4884.46295225065
 20
5452.060310772468
 30
0.0
 11
4886.931529980568
 21
5466.060310772468
 31
0.0
  0
LINE
  5
2EF5
330
1A
100
AcDbEntity
  8
1
100
AcDbLine
 10
4930.110298289234
 20
5466.060310772467
 30
0.0
 11
4886.931529980568
 21
5466.060310772467
 31
0.0
  0
ARC
  5
2EF6
330
1A
100
AcDbEntity
  8
1
100
AcDbCircle
 10
4934.110298289231
 20
5460.060310772467
 30
0.0
 40
4.0
100
AcDbArc
 50
180.0
 51
0.0
  0
LINE
  5
2EF7
330
1A
100
AcDbEntity
  8
1
100
AcDbLine
 10
4938.110298289233
 20
5466.060310772468
 30
0.0
 11
4938.110298289231
 21
5460.060310772467
 31
0.0
  0
LINE
  5
2EF8
330
1A
100
AcDbEntity
  8
1
100
AcDbLine
 10
4930.110298289234
 20
5466.060310772468
 30
0.0
 11
4930.110298289232
 21
5460.060310772467
 31
0.0
  0
LINE
  5
2EF9
330
1A
100
AcDbEntity
  8
1
100
AcDbLine
 10
4981.289066597898
 20
5466.060310772467
 30
0.0
 11
4938.110298289233
 21
5466.060310772467
 31
0.0
  0
LINE
  5
2EFA
330
1A
100
AcDbEntity
  8
CENTER
100
AcDbLine
 10
4934.110298289231
 20
5086.060310772467
 30
0.0
 11
4934.110298289232
 21
5526.060310772468
 31
0.0
  0
ARC
  5
2EFB
330
1A
100
AcDbEntity
  8
1
100
AcDbCircle
 10
5032.61029828923
 20
5110.560310772466
 30
0.0
 40
3.0
100
AcDbArc
 50
270.0
 51
359.9999999999992
  0
ARC
  5
2EFC
330
1A
100
AcDbEntity
  8
1
100
AcDbCircle
 10
4835.610298289231
 20
5110.560310772467
 30
0.0
 40
3.0
100
AcDbArc
 50
179.9999999999992
 51
269.9999999999998
  0
ARC
  5
2EFD
330
1A
100
AcDbEntity
  8
1
100
AcDbCircle
 10
4846.610298289232
 20
5106.060310772467
 30
0.0
 40
1.5
100
AcDbArc
 50
0.0
 51
89.99999999999927
  0
ARC
  5
2EFE
330
1A
100
AcDbEntity
  8
1
100
AcDbCircle
 10
5021.610298289232
 20
5106.060310772468
 30
0.0
 40
1.5
100
AcDbArc
 50
90.0
 51
180.0
  0
LINE
  5
2EFF
330
1A
100
AcDbEntity
  8
1
100
AcDbLine
 10
4835.610298289231
 20
5107.560310772467
 30
0.0
 11
5032.61029828923
 21
5107.560310772466
 31
0.0
  0
LINE
  5
2F00
330
1A
100
AcDbEntity
  8
1
 62
     9
100
AcDbLine
 10
4832.610298289232
 20
5171.060310772468
 30
0.0
 11
5035.610298289231
 21
5171.060310772468
 31
0.0
  0
LINE
  5
2F01
330
1A
100
AcDbEntity
  8
1
100
AcDbLine
 10
5035.61029828923
 20
5110.560310772466
 30
0.0
 11
5035.610298289231
 21
5171.060310772468
 31
0.0
  0
LINE
  5
2F02
330
1A
100
AcDbEntity
  8
1
100
AcDbLine
 10
4832.610298289232
 20
5171.060310772468
 30
0.0
 11
4832.610298289231
 21
5110.560310772467
 31
0.0
  0
LINE
  5
310B
330
1A
100
AcDbEntity
  8
3
 62
     9
100
AcDbLine
 10
4953.706216231498
 20
5504.011649081259
 30
0.0
 11
4969.110298289233
 21
5504.011649081259
 31
0.0
  0
LINE
  5
310D
330
1A
100
AcDbEntity
  8
3
 62
     9
100
AcDbLine
 10
4969.110298289233
 20
5469.060310772468
 30
0.0
 11
4953.706216231498
 21
5469.060310772468
 31
0.0
  0
ARC
  5
310E
330
1A
100
AcDbEntity
  8
3
100
AcDbCircle
 10
4934.110298289232
 20
5206.060310772468
 30
0.0
 40
300.0
100
AcDbArc
 50
83.30023482223998
 51
96.69976517776021
  0
LINE
  5
3110
330
1A
100
AcDbEntity
  8
3
 62
     9
100
AcDbLine
 10
4899.110298289233
 20
5504.011649081259
 30
0.0
 11
4914.514380346967
 21
5504.011649081259
 31
0.0
  0
LINE
  5
3111
330
1A
100
AcDbEntity
  8
3
100
AcDbLine
 10
4953.706216231498
 20
5469.060310772468
 30
0.0
 11
4953.706216231497
 21
5505.419626645551
 31
0.0
  0
LINE
  5
3112
330
1A
100
AcDbEntity
  8
3
100
AcDbLine
 10
4914.514380346967
 20
5469.060310772468
 30
0.0
 11
4914.514380346967
 21
5505.419626645551
 31
0.0
  0
LINE
  5
3114
330
1A
100
AcDbEntity
  8
3
100
AcDbLine
 10
4917.808260273385
 20
5466.060310772467
 30
0.0
 11
4914.514380346967
 21
5469.060310772468
 31
0.0
  0
LINE
  5
3115
330
1A
100
AcDbEntity
  8
3
100
AcDbLine
 10
4950.412336305079
 20
5466.060310772467
 30
0.0
 11
4953.706216231498
 21
5469.060310772468
 31
0.0
  0
CIRCLE
  5
3118
330
1A
100
AcDbEntity
  8
3
100
AcDbCircle
 10
4934.110298289232
 20
5465.060310772468
 30
0.0
 40
2.458499999999999
  0
CIRCLE
  5
3119
330
1A
100
AcDbEntity
  8
3
 62
     9
100
AcDbCircle
 10
4934.110298289232
 20
5465.060310772468
 30
0.0
 40
3.0
  0
LINE
  5
311A
330
1A
100
AcDbEntity
  8
3
100
AcDbLine
 10
4899.110298289233
 20
5504.011649081259
 30
0.0
 11
4899.110298289233
 21
5469.060310772468
 31
0.0
  0
LINE
  5
311B
330
1A
100
AcDbEntity
  8
3
100
AcDbLine
 10
4899.110298289233
 20
5469.060310772468
 30
0.0
 11
4900.842349096802
 21
5466.060310772467
 31
0.0
  0
LINE
  5
311D
330
1A
100
AcDbEntity
  8
3
100
AcDbLine
 10
4969.110298289233
 20
5469.060310772468
 30
0.0
 11
4969.110298289233
 21
5504.011649081259
 31
0.0
  0
LINE
  5
311E
330
1A
100
AcDbEntity
  8
3
100
AcDbLine
 10
4969.110298289233
 20
5469.060310772468
 30
0.0
 11
4967.378247481663
 21
5466.060310772467
 31
0.0
  0
LINE
  5
3314
330
1A
100
AcDbEntity
  8
2
 62
     9
100
AcDbLine
 10
4903.734298289231
 20
5038.39899498585
 30
0.0
 11
4903.734298289231
 21
4948.398994985851
 31
0.0
  0
LINE
  5
3316
330
1A
100
AcDbEntity
  8
2
 62
     9
100
AcDbLine
 10
4964.486298289232
 20
5038.39899498585
 30
0.0
 11
4964.486298289232
 21
4948.398994985851
 31
0.0
  0
LINE
  5
3317
330
1A
100
AcDbEntity
  8
2
 62
     9
100
AcDbLine
 10
4902.110298289231
 20
4948.398994985851
 30
0.0
 11
4966.110298289232
 21
4948.398994985851
 31
0.0
  0
LINE
  5
3323
330
1A
100
AcDbEntity
  8
2
100
AcDbLine
 10
4964.486298289232
 20
5038.39899498585
 30
0.0
 11
4903.734298289231
 21
5038.39899498585
 31
0.0
  0
LINE
  5
3324
330
1A
100
AcDbEntity
  8
2
100
AcDbLine
 10
4903.734298289231
 20
5038.398994985849
 30
0.0
 11
4902.110298289231
 21
5036.774994985847
 31
0.0
  0
LINE
  5
3325
330
1A
100
AcDbEntity
  8
2
100
AcDbLine
 10
4964.486298289232
 20
5038.398994985849
 30
0.0
 11
4966.110298289232
 21
5036.774994985849
 31
0.0
  0
LINE
  5
3326
330
1A
100
AcDbEntity
  8
2
 62
     9
100
AcDbLine
 10
4966.110298289232
 20
5036.774994985847
 30
0.0
 11
4902.110298289231
 21
5036.774994985847
 31
0.0
  0
LINE
  5
3348
330
1A
100
AcDbEntity
  8
2
 62
     9
100
AcDbLine
 10
4903.734298289231
 20
4948.398994985851
 30
0.0
 11
4902.110298289231
 21
4945.58614447436
 31
0.0
  0
LINE
  5
3349
330
1A
100
AcDbEntity
  8
2
 62
     9
100
AcDbLine
 10
4964.486298289232
 20
4948.398994985851
 30
0.0
 11
4966.110298289232
 21
4945.58614447436
 31
0.0
  0
CIRCLE
  5
334A
330
1A
100
AcDbEntity
  8
2
100
AcDbCircle
 10
4934.431735967292
 20
4820.755300324105
 30
0.0
 40
45.0
  0
LINE
  5
33F0
330
1A
100
AcDbEntity
  8
3
 62
     9
100
AcDbLine
 10
4914.514380346967
 20
5505.419626645551
 30
0.0
 11
4953.706216231498
 21
5469.060310772468
 31
0.0
  0
LINE
  5
33F1
330
1A
100
AcDbEntity
  8
3
 62
     9
100
AcDbLine
 10
4953.706216231497
 20
5505.419626645551
 30
0.0
 11
4914.514380346967
 21
5469.060310772468
 31
0.0
  0
LINE
  5
33F2
330
1A
100
AcDbEntity
  8
3
 62
     9
100
AcDbLine
 10
4914.514380346967
 20
5469.060310772468
 30
0.0
 11
4899.110298289233
 21
5469.060310772468
 31
0.0
  0
ARC
  5
346E
330
1A
100
AcDbEntity
  8
3
100
AcDbCircle
 10
4934.110391481216
 20
5811.633263636807
 30
0.0
 40
35.0
100
AcDbArc
 50
124.0479164911333
 51
235.9520835088654
  0
LINE
  5
3490
330
1A
100
AcDbEntity
  8
3
100
AcDbLine
 10
4914.514380346967
 20
5840.633200664779
 30
0.0
 11
4953.706402615465
 21
5840.633200664779
 31
0.0
  0
LINE
  5
3491
330
1A
100
AcDbEntity
  8
3
100
AcDbLine
 10
4914.514380346967
 20
5782.633326608833
 30
0.0
 11
4953.706402615466
 21
5782.633326608833
 31
0.0
  0
ARC
  5
3492
330
1A
100
AcDbEntity
  8
3
100
AcDbCircle
 10
4934.110391481216
 20
5811.633263636807
 30
0.0
 40
35.0
100
AcDbArc
 50
304.0479164911346
 51
55.95208350886668
  0
ARC
  5
349C
330
1A
100
AcDbEntity
  8
1
100
AcDbCircle
 10
4934.110298289231
 20
5811.633263636807
 30
0.0
 40
32.0
100
AcDbArc
 50
244.9919000532915
 51
295.0080999467085
  0
ARC
  5
349D
330
1A
100
AcDbEntity
  8
1
100
AcDbCircle
 10
4934.110298289231
 20
5811.633263636807
 30
0.0
 40
30.376
100
AcDbArc
 50
252.6880982353978
 51
287.3119017646022
  0
VIEWPORT
  5
22
102
{ACAD_XDICTIONARY
360
37C0
102
}
330
17
100
AcDbEntity
 67
     1
  8
0
100
AcDbViewport
 10
233.9220173910892
 20
149.2787982285731
 30
0.0
 40
474.8804908456731
 41
295.8271910186161
 68
     1
 69
     1
 12
233.9220173910892
 22
149.2787982285731
 13
0.0
 23
0.0
 14
1.0
 24
1.0
 15
10.0
 25
10.0
 16
0.0
 26
0.0
 36
1.0
 17
0.0
 27
0.0
 37
0.0
 42
50.0
 43
0.0
 44
0.0
 45
295.8271910186161
 50
0.0
 51
0.0
 72
   100
 90
    32768
  1

281
     0
 71
     1
 74
     0
110
0.0
120
0.0
130
0.0
111
1.0
121
0.0
131
0.0
112
0.0
122
1.0
132
0.0
 79
     0
146
0.0
  0
VIEWPORT
  5
2CF
102
{ACAD_XDICTIONARY
360
37C2
102
}
330
17
100
AcDbEntity
 67
     1
  8
DEFPOINTS
100
AcDbViewport
 10
212.5
 20
149.4999999999999
 30
0.0
 40
384.9999999999999
 41
265.0
 68
     2
 69
     2
 12
5472.172031489985
 22
5460.179354295362
 13
0.0
 23
0.0
 14
168.0
 24
168.0
 15
0.0
 25
0.0
 16
0.0
 26
0.0
 36
1.0
 17
0.0
 27
0.0
 37
0.0
 42
50.0
 43
0.0
 44
0.0
 45
1060.00000790846
 50
0.0
 51
0.0
 72
   100
 90
    36864
  1

281
     0
 71
     1
 74
     0
110
0.0
120
0.0
130
0.0
111
1.0
121
0.0
131
0.0
112
0.0
122
1.0
132
0.0
 79
     0
146
0.0
  0
ENDSEC
  0
SECTION
  2
OBJECTS
  0
DICTIONARY
  5
C
330
0
100
AcDbDictionary
281
     1
  3
ACAD_CIP_PREVIOUS_PRODUCT_INFO
350
3699
  3
ACAD_COLOR
350
367B
  3
ACAD_GROUP
350
D
  3
ACAD_LAYOUT
350
34A2
  3
ACAD_MATERIAL
350
3649
  3
ACAD_MLEADERSTYLE
350
3690
  3
ACAD_MLINESTYLE
350
E
  3
ACAD_PLOTSETTINGS
350
34A3
  3
ACAD_PLOTSTYLENAME
350
34A0
  3
ACAD_SCALELIST
350
367E
  3
ACAD_TABLESTYLE
350
367C
  3
ACAD_VISUALSTYLE
350
3662
  3
ACDB_RECOMPOSE_DATA
350
37BE
  3
AcDbVariableDictionary
350
355B
  3
CONTENTDICTIONARY
350
234
  3
DWGPROPS
350
37BF
  0
DICTIONARY
  5
3710
330
8
100
AcDbDictionary
280
     1
281
     1
  0
DICTIONARY
  5
37B0
330
2
100
AcDbDictionary
280
     1
281
     1
  3
ACAD_LAYERSTATES
360
37B1
  0
DICTIONARY
  5
36A3
330
F
100
AcDbDictionary
280
     1
281
     1
  3
ADSK_XREC_LAYER_RECONCILED
360
36A4
  0
DICTIONARY
  5
36A7
330
74
100
AcDbDictionary
280
     1
281
     1
  3
ADSK_XREC_LAYER_RECONCILED
360
36A8
  0
DICTIONARY
  5
36AB
330
17F1
100
AcDbDictionary
280
     1
281
     1
  3
ADSK_XREC_LAYER_RECONCILED
360
36AC
  0
DICTIONARY
  5
36AD
330
1CF6
100
AcDbDictionary
280
     1
281
     1
  3
ADSK_XREC_LAYER_RECONCILED
360
36AE
  0
DICTIONARY
  5
36AF
330
1CF7
100
AcDbDictionary
280
     1
281
     1
  3
ADSK_XREC_LAYER_RECONCILED
360
36B0
  0
DICTIONARY
  5
34F0
330
1A
100
AcDbDictionary
280
     1
281
     1
  3
ACAD_LAYOUTSELFREF
360
3633
  0
DICTIONARY
  5
34EE
330
17
100
AcDbDictionary
280
     1
281
     1
  3
ACAD_LAYOUTSELFREF
360
3632
  3
ACAD_SORTENTS
360
355D
  0
DICTIONARY
  5
37C0
330
22
100
AcDbDictionary
280
     1
281
     1
  3
ACAD_XREC_ROUNDTRIP
360
37C1
  0
DICTIONARY
  5
37C2
330
2CF
100
AcDbDictionary
280
     1
281
     1
  3
ACAD_XREC_ROUNDTRIP
360
37C3
  0
XRECORD
  5
3699
102
{ACAD_REACTORS
330
C
102
}
330
C
100
AcDbXrecord
280
     1
300
ACDLT
300
2012
300
ACDLT_F_S
  0
DICTIONARY
  5
367B
102
{ACAD_REACTORS
330
C
102
}
330
C
100
AcDbDictionary
281
     1
  0
DICTIONARY
  5
D
102
{ACAD_REACTORS
330
C
102
}
330
C
100
AcDbDictionary
281
     1
  0
DICTIONARY
  5
34A2
102
{ACAD_REACTORS
330
C
102
}
330
C
100
AcDbDictionary
281
     1
  3
Model
350
34A4
  3
ﾚｲｱｳﾄ1
350
34A5
  0
DICTIONARY
  5
3649
102
{ACAD_REACTORS
330
C
102
}
330
C
100
AcDbDictionary
281
     1
  3
ByBlock
350
3652
  3
ByLayer
350
364A
  3
Global
350
365A
  0
DICTIONARY
  5
3690
102
{ACAD_REACTORS
330
C
102
}
330
C
100
AcDbDictionary
281
     1
  3
Standard
350
3691
  0
DICTIONARY
  5
E
102
{ACAD_REACTORS
330
C
102
}
330
C
100
AcDbDictionary
281
     1
  3
STANDARD
350
13
  0
DICTIONARY
  5
34A3
102
{ACAD_REACTORS
330
C
102
}
330
C
100
AcDbDictionary
281
     1
  3
A3formNX710
350
355E
  0
ACDBDICTIONARYWDFLT
  5
34A0
102
{ACAD_REACTORS
330
C
102
}
330
C
100
AcDbDictionary
281
     1
  3
Normal
350
34A1
100
AcDbDictionaryWithDefault
340
34A1
  0
DICTIONARY
  5
367E
102
{ACAD_REACTORS
330
C
102
}
330
C
100
AcDbDictionary
281
     1
  3
A0
350
367F
  3
A1
350
3680
  3
A2
350
3681
  3
A3
350
3682
  3
A4
350
3683
  3
A5
350
3684
  3
A6
350
3685
  3
A7
350
3686
  3
A8
350
3687
  3
A9
350
3688
  3
B0
350
3689
  3
B1
350
368A
  3
B2
350
368B
  3
B3
350
368C
  3
B4
350
368D
  3
B5
350
368E
  3
B6
350
368F
  0
DICTIONARY
  5
367C
102
{ACAD_REACTORS
330
C
102
}
330
C
100
AcDbDictionary
281
     1
  3
Standard
350
367D
  0
DICTIONARY
  5
3662
102
{ACAD_REACTORS
330
C
102
}
330
C
100
AcDbDictionary
281
     1
  3
2dWireframe
350
3668
  3
Basic
350
3667
  3
Brighten
350
366E
  3
ColorChange
350
3672
  3
Conceptual
350
366B
  3
Dim
350
366D
  3
EdgeColorOff
350
367A
  3
Facepattern
350
3671
  3
Flat
350
3663
  3
FlatWithEdges
350
3664
  3
Gouraud
350
3665
  3
GouraudWithEdges
350
3666
  3
Hidden
350
366A
  3
JitterOff
350
3678
  3
Linepattern
350
3670
  3
OverhangOff
350
3679
  3
Realistic
350
366C
  3
Shaded
350
3677
  3
Shaded with edges
350
3676
  3
Shades of Gray
350
3673
  3
Sketchy
350
3674
  3
Thicken
350
366F
  3
Wireframe
350
3669
  3
X-Ray
350
3675
  0
XRECORD
  5
37BE
102
{ACAD_REACTORS
330
C
102
}
330
C
100
AcDbXrecord
280
     1
 90
        1
330
367D
  0
DICTIONARY
  5
355B
102
{ACAD_REACTORS
330
C
102
}
330
C
100
AcDbDictionary
281
     1
  3
CANNOSCALE
350
3757
  3
CMLEADERSTYLE
350
3756
  3
CTABLESTYLE
350
3755
  3
DIMASSOC
350
3759
  3
INDEXCTL
350
3758
  3
SORTENTS
350
355C
  3
XCLIPFRAME
350
3764
  0
DICTIONARY
  5
234
102
{ACAD_REACTORS
330
C
102
}
330
C
100
AcDbDictionary
281
     1
  0
XRECORD
  5
37BF
102
{ACAD_REACTORS
330
C
102
}
330
C
100
AcDbXrecord
280
     1
  1
DWGPROPS COOKIE
  2

  3

  4

  6

  7

  8
ADJ-DV07-W11
  9

300
=
301
=
302
=
303
=
304
=
305
=
306
=
307
=
308
=
309
=
 40
1.360703912037037
 41
2451428.386184838
 42
2457379.829558681
  1

 90
        0
  0
DICTIONARY
  5
37B1
102
{ACAD_REACTORS
330
37B0
102
}
330
37B0
100
AcDbDictionary
281
     1
  0
XRECORD
  5
36A4
102
{ACAD_REACTORS
330
36A3
102
}
330
36A3
100
AcDbXrecord
280
     1
290
     1
  0
XRECORD
  5
36A8
102
{ACAD_REACTORS
330
36A7
102
}
330
36A7
100
AcDbXrecord
280
     1
290
     1
  0
XRECORD
  5
36AC
102
{ACAD_REACTORS
330
36AB
102
}
330
36AB
100
AcDbXrecord
280
     1
290
     1
  0
XRECORD
  5
36AE
102
{ACAD_REACTORS
330
36AD
102
}
330
36AD
100
AcDbXrecord
280
     1
290
     1
  0
XRECORD
  5
36B0
102
{ACAD_REACTORS
330
36AF
102
}
330
36AF
100
AcDbXrecord
280
     1
290
     1
  0
XRECORD
  5
3633
102
{ACAD_REACTORS
330
34F0
102
}
330
34F0
100
AcDbXrecord
280
     1
340
1A
  0
XRECORD
  5
3632
102
{ACAD_REACTORS
330
34EE
102
}
330
34EE
100
AcDbXrecord
280
     1
340
17
  0
SORTENTSTABLE
  5
355D
102
{ACAD_REACTORS
330
34EE
102
}
330
34EE
100
AcDbSortentsTable
330
17
331
22
  5
22
331
2CF
  5
2CF
  0
XRECORD
  5
37C1
102
{ACAD_REACTORS
330
37C0
102
}
330
37C0
100
AcDbXrecord
280
     1
102
SHADEPLOT
 70
     0
  0
XRECORD
  5
37C3
102
{ACAD_REACTORS
330
37C2
102
}
330
37C2
100
AcDbXrecord
280
     1
102
SHADEPLOT
 70
     0
  0
LAYOUT
  5
34A4
102
{ACAD_XDICTIONARY
360
37C4
102
}
102
{ACAD_REACTORS
330
34A2
102
}
330
34A2
100
AcDbPlotSettings
  1

  2
Laser Wind 2080W
  4

  6

 40
0.0
 41
0.0
 42
0.0
 43
0.0
 44
0.0
 45
0.0
 46
0.0
 47
0.0
 48
0.0
 49
0.0
140
0.0
141
0.0
142
1.0
143
1.0
 70
  1712
 72
     0
 73
     0
 74
     0
  7

 75
     0
147
1.0
148
0.0
149
0.0
100
AcDbLayout
  1
Model
 70
     1
 71
     0
 10
0.0
 20
0.0
 11
12.0
 21
9.0
 12
0.0
 22
0.0
 32
0.0
 14
0.0
 24
0.0
 34
0.0
 15
0.0
 25
0.0
 35
0.0
146
0.0
 13
0.0
 23
0.0
 33
0.0
 16
1.0
 26
0.0
 36
0.0
 17
0.0
 27
1.0
 37
0.0
 76
     0
330
1A
331
349E
  0
LAYOUT
  5
34A5
102
{ACAD_XDICTIONARY
360
37B5
102
}
102
{ACAD_REACTORS
330
34A2
102
}
330
34A2
100
AcDbPlotSettings
  1

  2
Laser Wind 2080W.pc3
  4
A3
  6

 40
4.773083209991455
 41
4.773059368133544
 42
4.7730712890625
 43
4.7730712890625
 44
297.0106506347656
 45
419.9889831542968
 46
0.0
 47
0.0
 48
0.0
 49
0.0
140
0.0
141
0.0
142
1.0
143
1.0
 70
   688
 72
     1
 73
     1
 74
     5
  7
monochrome.ctb
 75
     0
147
1.0
148
0.0
149
0.0
100
AcDbLayout
  1
ﾚｲｱｳﾄ1
 70
     0
 71
     1
 10
13.3161828306503
 20
2.41278493518225
 11
418.1544263498966
 21
288.6731432318041
 12
0.0
 22
0.0
 32
0.0
 14
19.85000000000002
 24
8.931140188773319
 34
0.0
 15
405.1499999999999
 25
282.1499999999999
 35
0.0
146
0.0
 13
0.0
 23
0.0
 33
0.0
 16
1.0
 26
0.0
 36
0.0
 17
0.0
 27
1.0
 37
0.0
 76
     0
330
17
331
22
  0
MATERIAL
  5
3652
102
{ACAD_XDICTIONARY
360
3653
102
}
102
{ACAD_REACTORS
330
3649
102
}
330
3649
100
AcDbMaterial
  1
ByBlock
 72
     0
 43
0.0208333333333333
 43
0.0
 43
0.0
 43
0.0
 43
0.0
 43
0.0208333333333333
 43
0.0
 43
0.0
 43
0.0
 43
0.0
 43
1.0
 43
0.0
 43
0.0
 43
0.0
 43
0.0
 43
1.0
 77
     0
 47
0.0208333333333333
 47
0.0
 47
0.0
 47
0.0
 47
0.0
 47
0.0208333333333333
 47
0.0
 47
0.0
 47
0.0
 47
0.0
 47
1.0
 47
0.0
 47
0.0
 47
0.0
 47
0.0
 47
1.0
171
     0
 49
0.0208333333333333
 49
0.0
 49
0.0
 49
0.0
 49
0.0
 49
0.0208333333333333
 49
0.0
 49
0.0
 49
0.0
 49
0.0
 49
1.0
 49
0.0
 49
0.0
 49
0.0
 49
0.0
 49
1.0
175
     0
142
0.0208333333333333
142
0.0
142
0.0
142
0.0
142
0.0
142
0.0208333333333333
142
0.0
142
0.0
142
0.0
142
0.0
142
1.0
142
0.0
142
0.0
142
0.0
142
0.0
142
1.0
179
     0
144
0.0208333333333333
144
0.0
144
0.0
144
0.0
144
0.0
144
0.0208333333333333
144
0.0
144
0.0
144
0.0
144
0.0
144
1.0
144
0.0
144
0.0
144
0.0
144
0.0
144
1.0
147
0.0208333333333333
147
0.0
147
0.0
147
0.0
147
0.0
147
0.0208333333333333
147
0.0
147
0.0
147
0.0
147
0.0
147
1.0
147
0.0
147
0.0
147
0.0
147
0.0
147
1.0
  0
MATERIAL
  5
364A
102
{ACAD_XDICTIONARY
360
364B
102
}
102
{ACAD_REACTORS
330
3649
102
}
330
3649
100
AcDbMaterial
  1
ByLayer
 72
     0
 43
0.0208333333333333
 43
0.0
 43
0.0
 43
0.0
 43
0.0
 43
0.0208333333333333
 43
0.0
 43
0.0
 43
0.0
 43
0.0
 43
1.0
 43
0.0
 43
0.0
 43
0.0
 43
0.0
 43
1.0
 77
     0
 47
0.0208333333333333
 47
0.0
 47
0.0
 47
0.0
 47
0.0
 47
0.0208333333333333
 47
0.0
 47
0.0
 47
0.0
 47
0.0
 47
1.0
 47
0.0
 47
0.0
 47
0.0
 47
0.0
 47
1.0
171
     0
 49
0.0208333333333333
 49
0.0
 49
0.0
 49
0.0
 49
0.0
 49
0.0208333333333333
 49
0.0
 49
0.0
 49
0.0
 49
0.0
 49
1.0
 49
0.0
 49
0.0
 49
0.0
 49
0.0
 49
1.0
175
     0
142
0.0208333333333333
142
0.0
142
0.0
142
0.0
142
0.0
142
0.0208333333333333
142
0.0
142
0.0
142
0.0
142
0.0
142
1.0
142
0.0
142
0.0
142
0.0
142
0.0
142
1.0
179
     0
144
0.0208333333333333
144
0.0
144
0.0
144
0.0
144
0.0
144
0.0208333333333333
144
0.0
144
0.0
144
0.0
144
0.0
144
1.0
144
0.0
144
0.0
144
0.0
144
0.0
144
1.0
147
0.0208333333333333
147
0.0
147
0.0
147
0.0
147
0.0
147
0.0208333333333333
147
0.0
147
0.0
147
0.0
147
0.0
147
1.0
147
0.0
147
0.0
147
0.0
147
0.0
147
1.0
  0
MATERIAL
  5
365A
102
{ACAD_XDICTIONARY
360
365B
102
}
102
{ACAD_REACTORS
330
3649
102
}
330
3649
100
AcDbMaterial
  1
Global
 72
     0
 43
0.0208333333333333
 43
0.0
 43
0.0
 43
0.0
 43
0.0
 43
0.0208333333333333
 43
0.0
 43
0.0
 43
0.0
 43
0.0
 43
1.0
 43
0.0
 43
0.0
 43
0.0
 43
0.0
 43
1.0
 77
     0
 47
0.0208333333333333
 47
0.0
 47
0.0
 47
0.0
 47
0.0
 47
0.0208333333333333
 47
0.0
 47
0.0
 47
0.0
 47
0.0
 47
1.0
 47
0.0
 47
0.0
 47
0.0
 47
0.0
 47
1.0
171
     0
 49
0.0208333333333333
 49
0.0
 49
0.0
 49
0.0
 49
0.0
 49
0.0208333333333333
 49
0.0
 49
0.0
 49
0.0
 49
0.0
 49
1.0
 49
0.0
 49
0.0
 49
0.0
 49
0.0
 49
1.0
175
     0
142
0.0208333333333333
142
0.0
142
0.0
142
0.0
142
0.0
142
0.0208333333333333
142
0.0
142
0.0
142
0.0
142
0.0
142
1.0
142
0.0
142
0.0
142
0.0
142
0.0
142
1.0
179
     0
144
0.0208333333333333
144
0.0
144
0.0
144
0.0
144
0.0
144
0.0208333333333333
144
0.0
144
0.0
144
0.0
144
0.0
144
1.0
144
0.0
144
0.0
144
0.0
144
0.0
144
1.0
147
0.0208333333333333
147
0.0
147
0.0
147
0.0
147
0.0
147
0.0208333333333333
147
0.0
147
0.0
147
0.0
147
0.0
147
1.0
147
0.0
147
0.0
147
0.0
147
0.0
147
1.0
  0
MLEADERSTYLE
  5
3691
102
{ACAD_XDICTIONARY
360
37BC
102
}
102
{ACAD_REACTORS
330
3690
102
}
330
3690
100
AcDbMLeaderStyle
170
     2
171
     1
172
     0
 90
        2
 40
0.0
 41
0.0
173
     1
 91
-1056964608
340
14
 92
       -2
290
     1
 42
2.0
291
     1
 43
0.36
  3
Standard
 44
4.0
300

342
10
174
     1
178
     6
175
     1
176
     0
 93
-1056964608
 45
4.0
292
     0
297
     0
 46
4.0
 94
-1056964608
 47
1.0
 49
1.0
140
1.0
293
     1
141
0.0
294
     1
177
     0
142
1.0
295
     0
296
     0
143
0.125
1001
ACAD_MLEADERVER
1070
     2
  0
MLINESTYLE
  5
13
102
{ACAD_REACTORS
330
E
102
}
330
E
100
AcDbMlineStyle
  2
STANDARD
 70
     0
  3

 62
     0
 51
90.0
 52
90.0
 71
     2
 49
0.5
 62
   256
  6
BYLAYER
 49
-0.5
 62
   256
  6
BYLAYER
  0
PLOTSETTINGS
  5
355E
102
{ACAD_XDICTIONARY
360
37C7
102
}
102
{ACAD_REACTORS
330
34A3
102
}
330
34A3
100
AcDbPlotSettings
  1
A3formNX710
  2
RICOH IPSiO NX710
  4
A3
  6

 40
5.831416606903076
 41
4.307413101196289
 42
8.244415283203125
 43
5.789093017578125
 44
296.9683227539062
 45
419.9889831542968
 46
0.0
 47
0.0
 48
0.0
 49
0.0
140
0.0
141
0.0
142
1.0
143
0.999993956865126
 70
   688
 72
     1
 73
     1
 74
     2
  7
monochrome.ctb
 75
     0
147
1.000006043171393
148
0.0
149
0.0
  0
ACDBPLACEHOLDER
  5
34A1
102
{ACAD_REACTORS
330
34A0
102
}
330
34A0
  0
SCALE
  5
367F
102
{ACAD_REACTORS
330
367E
102
}
330
367E
100
AcDbScale
 70
     0
300
1:1
140
1.0
141
1.0
290
     1
  0
SCALE
  5
3680
102
{ACAD_REACTORS
330
367E
102
}
330
367E
100
AcDbScale
 70
     0
300
1:2
140
1.0
141
2.0
290
     0
  0
SCALE
  5
3681
102
{ACAD_REACTORS
330
367E
102
}
330
367E
100
AcDbScale
 70
     0
300
1:4
140
1.0
141
4.0
290
     0
  0
SCALE
  5
3682
102
{ACAD_REACTORS
330
367E
102
}
330
367E
100
AcDbScale
 70
     0
300
1:5
140
1.0
141
5.0
290
     0
  0
SCALE
  5
3683
102
{ACAD_REACTORS
330
367E
102
}
330
367E
100
AcDbScale
 70
     0
300
1:8
140
1.0
141
8.0
290
     0
  0
SCALE
  5
3684
102
{ACAD_REACTORS
330
367E
102
}
330
367E
100
AcDbScale
 70
     0
300
1:10
140
1.0
141
10.0
290
     0
  0
SCALE
  5
3685
102
{ACAD_REACTORS
330
367E
102
}
330
367E
100
AcDbScale
 70
     0
300
1:16
140
1.0
141
16.0
290
     0
  0
SCALE
  5
3686
102
{ACAD_REACTORS
330
367E
102
}
330
367E
100
AcDbScale
 70
     0
300
1:20
140
1.0
141
20.0
290
     0
  0
SCALE
  5
3687
102
{ACAD_REACTORS
330
367E
102
}
330
367E
100
AcDbScale
 70
     0
300
1:30
140
1.0
141
30.0
290
     0
  0
SCALE
  5
3688
102
{ACAD_REACTORS
330
367E
102
}
330
367E
100
AcDbScale
 70
     0
300
1:40
140
1.0
141
40.0
290
     0
  0
SCALE
  5
3689
102
{ACAD_REACTORS
330
367E
102
}
330
367E
100
AcDbScale
 70
     0
300
1:50
140
1.0
141
50.0
290
     0
  0
SCALE
  5
368A
102
{ACAD_REACTORS
330
367E
102
}
330
367E
100
AcDbScale
 70
     0
300
1:100
140
1.0
141
100.0
290
     0
  0
SCALE
  5
368B
102
{ACAD_REACTORS
330
367E
102
}
330
367E
100
AcDbScale
 70
     0
300
2:1
140
2.0
141
1.0
290
     0
  0
SCALE
  5
368C
102
{ACAD_REACTORS
330
367E
102
}
330
367E
100
AcDbScale
 70
     0
300
4:1
140
4.0
141
1.0
290
     0
  0
SCALE
  5
368D
102
{ACAD_REACTORS
330
367E
102
}
330
367E
100
AcDbScale
 70
     0
300
8:1
140
8.0
141
1.0
290
     0
  0
SCALE
  5
368E
102
{ACAD_REACTORS
330
367E
102
}
330
367E
100
AcDbScale
 70
     0
300
10:1
140
10.0
141
1.0
290
     0
  0
SCALE
  5
368F
102
{ACAD_REACTORS
330
367E
102
}
330
367E
100
AcDbScale
 70
     0
300
100:1
140
100.0
141
1.0
290
     0
  0
TABLESTYLE
  5
367D
102
{ACAD_XDICTIONARY
360
370A
102
}
102
{ACAD_REACTORS
330
367C
102
}
330
367C
100
AcDbTableStyle
  3
Standard
 70
     0
 71
     0
 40
1.5
 41
1.5
280
     0
281
     0
  7
STANDARD
140
4.5
170
     2
 62
     0
 63
     7
283
     0
274
    -2
284
     1
 64
     0
275
    -2
285
     1
 65
     0
276
    -2
286
     1
 66
     0
277
    -2
287
     1
 67
     0
278
    -2
288
     1
 68
     0
279
    -2
289
     1
 69
     0
  7
STANDARD
140
6.0
170
     5
 62
     0
 63
     7
283
     0
274
    -2
284
     1
 64
     0
275
    -2
285
     1
 65
     0
276
    -2
286
     1
 66
     0
277
    -2
287
     1
 67
     0
278
    -2
288
     1
 68
     0
279
    -2
289
     1
 69
     0
  7
STANDARD
140
4.5
170
     5
 62
     0
 63
     7
283
     0
274
    -2
284
     1
 64
     0
275
    -2
285
     1
 65
     0
276
    -2
286
     1
 66
     0
277
    -2
287
     1
 67
     0
278
    -2
288
     1
 68
     0
279
    -2
289
     1
 69
     0
  0
VISUALSTYLE
  5
3668
102
{ACAD_XDICTIONARY
360
37D6
102
}
102
{ACAD_REACTORS
330
3662
102
}
330
3662
100
AcDbVisualStyle
  2
2dWireframe
 70
     4
 71
     0
 72
     2
 73
     0
 90
        0
 40
-0.6
 41
-30.0
 62
     5
 63
     7
 74
     1
 91
        4
 64
     7
 65
   257
 75
     1
175
     1
 42
1.0
 92
        0
 66
   257
 43
1.0
 76
     1
 77
     6
 78
     2
 67
     7
 79
     5
170
     0
171
     0
290
     0
174
     0
 93
        1
 44
0.0
173
     0
291
     0
 45
0.0
1001
ACAD
1000
AcDbSavedByObjectVersion
1070
     0
  0
VISUALSTYLE
  5
3667
102
{ACAD_XDICTIONARY
360
37D4
102
}
102
{ACAD_REACTORS
330
3662
102
}
330
3662
100
AcDbVisualStyle
  2
Basic
 70
     7
 71
     1
 72
     0
 73
     1
 90
        0
 40
-0.6
 41
-30.0
 62
     5
 63
     7
 74
     0
 91
        4
 64
     7
 65
   257
 75
     1
175
     1
 42
1.0
 92
        8
 66
     7
 43
1.0
 76
     1
 77
     6
 78
     2
 67
     7
 79
     5
170
     0
171
     0
290
     0
174
     0
 93
        1
 44
0.0
173
     0
291
     1
 45
0.0
1001
ACAD
1000
AcDbSavedByObjectVersion
1070
     0
  0
VISUALSTYLE
  5
366E
102
{ACAD_XDICTIONARY
360
37E2
102
}
102
{ACAD_REACTORS
330
3662
102
}
330
3662
100
AcDbVisualStyle
  2
Brighten
 70
    12
 71
     2
 72
     2
 73
     0
 90
        0
 40
-0.6
 41
-30.0
 62
     5
 63
     7
 74
     1
 91
        4
 64
     7
 65
   257
 75
     1
175
     1
 42
1.0
 92
        8
 66
     7
 43
1.0
 76
     1
 77
     6
 78
     2
 67
     7
 79
     5
170
     0
171
     0
290
     0
174
     0
 93
        1
 44
50.0
173
     0
291
     1
 45
0.0
1001
ACAD
1000
AcDbSavedByObjectVersion
1070
     0
  0
VISUALSTYLE
  5
3672
102
{ACAD_XDICTIONARY
360
37EA
102
}
102
{ACAD_REACTORS
330
3662
102
}
330
3662
100
AcDbVisualStyle
  2
ColorChange
 70
    16
 71
     2
 72
     2
 73
     3
 90
        0
 40
-0.6
 41
-30.0
 62
     5
 63
     8
 74
     1
 91
        4
 64
     7
 65
   257
 75
     1
175
     1
 42
1.0
 92
        8
 66
     8
 43
1.0
 76
     1
 77
     6
 78
     2
 67
     7
 79
     5
170
     0
171
     0
290
     0
174
     0
 93
        1
 44
0.0
173
     0
291
     1
 45
0.0
1001
ACAD
1000
AcDbSavedByObjectVersion
1070
     0
  0
VISUALSTYLE
  5
366B
102
{ACAD_XDICTIONARY
360
37DC
102
}
102
{ACAD_REACTORS
330
3662
102
}
330
3662
100
AcDbVisualStyle
  2
Conceptual
 70
     9
 71
     3
 72
     2
 73
     0
 90
        0
 40
-0.6
 41
-30.0
 62
     5
 63
     7
 74
     2
 91
        2
 64
     7
 65
   257
 75
     1
175
     1
 42
179.0
 92
        8
 66
     7
 43
1.0
 76
     1
 77
     6
 78
     2
 67
     7
 79
     3
170
     0
171
     0
290
     0
174
     0
 93
        1
 44
0.0
173
     0
291
     0
 45
0.0
1001
ACAD
1000
AcDbSavedByObjectVersion
1070
     0
  0
VISUALSTYLE
  5
366D
102
{ACAD_XDICTIONARY
360
37E0
102
}
102
{ACAD_REACTORS
330
3662
102
}
330
3662
100
AcDbVisualStyle
  2
Dim
 70
    11
 71
     2
 72
     2
 73
     0
 90
        0
 40
-0.6
 41
-30.0
 62
     5
 63
     7
 74
     1
 91
        4
 64
     7
 65
   257
 75
     1
175
     1
 42
1.0
 92
        8
 66
     7
 43
1.0
 76
     1
 77
     6
 78
     2
 67
     7
 79
     5
170
     0
171
     0
290
     0
174
     0
 93
        1
 44
-50.0
173
     0
291
     1
 45
0.0
1001
ACAD
1000
AcDbSavedByObjectVersion
1070
     0
  0
VISUALSTYLE
  5
367A
102
{ACAD_XDICTIONARY
360
37FA
102
}
102
{ACAD_REACTORS
330
3662
102
}
330
3662
100
AcDbVisualStyle
  2
EdgeColorOff
 70
    22
 71
     2
 72
     2
 73
     0
 90
        0
 40
-0.6
 41
-30.0
 62
     5
 63
     7
 74
     1
 91
        4
 64
     7
 65
   257
 75
     1
175
     1
 42
1.0
 92
        8
 66
     7
 43
1.0
 76
     1
 77
     6
 78
     2
 67
     7
 79
     5
170
     0
171
     0
290
     0
174
     0
 93
        1
 44
0.0
173
     0
291
     1
 45
0.0
1001
ACAD
1000
AcDbSavedByObjectVersion
1070
     0
  0
VISUALSTYLE
  5
3671
102
{ACAD_XDICTIONARY
360
37E8
102
}
102
{ACAD_REACTORS
330
3662
102
}
330
3662
100
AcDbVisualStyle
  2
Facepattern
 70
    15
 71
     2
 72
     2
 73
     0
 90
        0
 40
-0.6
 41
-30.0
 62
     5
 63
     7
 74
     1
 91
        4
 64
     7
 65
   257
 75
     1
175
     1
 42
1.0
 92
        8
 66
     7
 43
1.0
 76
     1
 77
     6
 78
     2
 67
     7
 79
     5
170
     0
171
     0
290
     0
174
     0
 93
        1
 44
0.0
173
     0
291
     1
 45
0.0
1001
ACAD
1000
AcDbSavedByObjectVersion
1070
     0
  0
VISUALSTYLE
  5
3663
102
{ACAD_XDICTIONARY
360
37CC
102
}
102
{ACAD_REACTORS
330
3662
102
}
330
3662
100
AcDbVisualStyle
  2
Flat
 70
     0
 71
     2
 72
     1
 73
     1
 90
        2
 40
-0.6
 41
30.0
 62
     5
 63
     7
 74
     0
 91
        0
 64
     7
 65
   257
 75
     1
175
     1
 42
1.0
 92
        8
 66
     7
 43
1.0
 76
     1
 77
     6
 78
     2
 67
     7
 79
     5
170
     0
171
     0
290
     0
174
     0
 93
       13
 44
0.0
173
     0
291
     1
 45
0.0
1001
ACAD
1000
AcDbSavedByObjectVersion
1070
     0
  0
VISUALSTYLE
  5
3664
102
{ACAD_XDICTIONARY
360
37CE
102
}
102
{ACAD_REACTORS
330
3662
102
}
330
3662
100
AcDbVisualStyle
  2
FlatWithEdges
 70
     1
 71
     2
 72
     1
 73
     1
 90
        2
 40
-0.6
 41
30.0
 62
     5
 63
     7
 74
     1
 91
        0
 64
     7
 65
   257
 75
     1
175
     1
 42
1.0
 92
        0
 66
   257
 43
1.0
 76
     1
 77
     6
 78
     2
 67
     7
 79
     5
170
     0
171
     0
290
     0
174
     0
 93
       13
 44
0.0
173
     0
291
     1
 45
0.0
1001
ACAD
1000
AcDbSavedByObjectVersion
1070
     0
  0
VISUALSTYLE
  5
3665
102
{ACAD_XDICTIONARY
360
37D0
102
}
102
{ACAD_REACTORS
330
3662
102
}
330
3662
100
AcDbVisualStyle
  2
Gouraud
 70
     2
 71
     2
 72
     2
 73
     1
 90
        2
 40
-0.6
 41
30.0
 62
     5
 63
     7
 74
     0
 91
        0
 64
     7
 65
   257
 75
     1
175
     1
 42
1.0
 92
        0
 66
     7
 43
1.0
 76
     1
 77
     6
 78
     2
 67
     7
 79
     5
170
     0
171
     0
290
     0
174
     0
 93
       13
 44
0.0
173
     0
291
     1
 45
0.0
1001
ACAD
1000
AcDbSavedByObjectVersion
1070
     0
  0
VISUALSTYLE
  5
3666
102
{ACAD_XDICTIONARY
360
37D2
102
}
102
{ACAD_REACTORS
330
3662
102
}
330
3662
100
AcDbVisualStyle
  2
GouraudWithEdges
 70
     3
 71
     2
 72
     2
 73
     1
 90
        2
 40
-0.6
 41
30.0
 62
     5
 63
     7
 74
     1
 91
        0
 64
     7
 65
   257
 75
     1
175
     1
 42
1.0
 92
        0
 66
   257
 43
1.0
 76
     1
 77
     6
 78
     2
 67
     7
 79
     5
170
     0
171
     0
290
     0
174
     0
 93
       13
 44
0.0
173
     0
291
     1
 45
0.0
1001
ACAD
1000
AcDbSavedByObjectVersion
1070
     0
  0
VISUALSTYLE
  5
366A
102
{ACAD_XDICTIONARY
360
37DA
102
}
102
{ACAD_REACTORS
330
3662
102
}
330
3662
100
AcDbVisualStyle
  2
Hidden
 70
     6
 71
     1
 72
     2
 73
     2
 90
        0
 40
-0.6
 41
-30.0
 62
     5
 63
     7
 74
     2
 91
        2
 64
     7
 65
   257
 75
     2
175
     1
 42
40.0
 92
        0
 66
   257
 43
1.0
 76
     1
 77
     6
 78
     2
 67
     7
 79
     3
170
     0
171
     0
290
     0
174
     0
 93
        1
 44
0.0
173
     0
291
     0
 45
0.0
1001
ACAD
1000
AcDbSavedByObjectVersion
1070
     0
  0
VISUALSTYLE
  5
3678
102
{ACAD_XDICTIONARY
360
37F6
102
}
102
{ACAD_REACTORS
330
3662
102
}
330
3662
100
AcDbVisualStyle
  2
JitterOff
 70
    20
 71
     2
 72
     2
 73
     0
 90
        0
 40
-0.6
 41
-30.0
 62
     5
 63
     7
 74
     1
 91
        4
 64
     7
 65
   257
 75
     1
175
     1
 42
1.0
 92
       10
 66
     7
 43
1.0
 76
     1
 77
     6
 78
     2
 67
     7
 79
     5
170
     0
171
     0
290
     0
174
     0
 93
        1
 44
0.0
173
     0
291
     1
 45
0.0
1001
ACAD
1000
AcDbSavedByObjectVersion
1070
     0
  0
VISUALSTYLE
  5
3670
102
{ACAD_XDICTIONARY
360
37E6
102
}
102
{ACAD_REACTORS
330
3662
102
}
330
3662
100
AcDbVisualStyle
  2
Linepattern
 70
    14
 71
     2
 72
     2
 73
     0
 90
        0
 40
-0.6
 41
-30.0
 62
     5
 63
     7
 74
     1
 91
        4
 64
     7
 65
   257
 75
     7
175
     7
 42
1.0
 92
        8
 66
     7
 43
1.0
 76
     1
 77
     6
 78
     2
 67
     7
 79
     5
170
     0
171
     0
290
     0
174
     0
 93
        1
 44
0.0
173
     0
291
     1
 45
0.0
1001
ACAD
1000
AcDbSavedByObjectVersion
1070
     0
  0
VISUALSTYLE
  5
3679
102
{ACAD_XDICTIONARY
360
37F8
102
}
102
{ACAD_REACTORS
330
3662
102
}
330
3662
100
AcDbVisualStyle
  2
OverhangOff
 70
    21
 71
     2
 72
     2
 73
     0
 90
        0
 40
-0.6
 41
-30.0
 62
     5
 63
     7
 74
     1
 91
        4
 64
     7
 65
   257
 75
     1
175
     1
 42
1.0
 92
        9
 66
     7
 43
1.0
 76
     1
 77
     6
 78
     2
 67
     7
 79
     5
170
     0
171
     0
290
     0
174
     0
 93
        1
 44
0.0
173
     0
291
     1
 45
0.0
1001
ACAD
1000
AcDbSavedByObjectVersion
1070
     0
  0
VISUALSTYLE
  5
366C
102
{ACAD_XDICTIONARY
360
37DE
102
}
102
{ACAD_REACTORS
330
3662
102
}
330
3662
100
AcDbVisualStyle
  2
Realistic
 70
     8
 71
     2
 72
     2
 73
     0
 90
        2
 40
-0.6
 41
30.0
 62
     5
 63
     7
 74
     0
 91
        0
 64
     7
 65
   257
 75
     1
175
     1
 42
1.0
 92
        8
 66
   257
 43
1.0
 76
     1
 77
     6
 78
     2
 67
     7
 79
     3
170
     0
171
     0
290
     0
174
     0
 93
       13
 44
0.0
173
     0
291
     0
 45
0.0
1001
ACAD
1000
AcDbSavedByObjectVersion
1070
     0
  0
VISUALSTYLE
  5
3677
102
{ACAD_XDICTIONARY
360
37F4
102
}
102
{ACAD_REACTORS
330
3662
102
}
330
3662
100
AcDbVisualStyle
  2
Shaded
 70
    27
 71
     2
 72
     2
 73
     1
 90
        2
 40
-0.6
 41
30.0
 62
     5
 63
     7
 74
     0
 91
        4
 64
     7
 65
   257
 75
     1
175
     1
 42
1.0
 92
        8
 66
   257
 43
1.0
 76
     1
 77
     6
 78
     2
 67
     8
 79
     3
170
     0
171
     0
290
     0
174
     0
 93
        5
 44
0.0
173
     0
291
     0
 45
0.0
1001
ACAD
1000
AcDbSavedByObjectVersion
1070
     0
  0
VISUALSTYLE
  5
3676
102
{ACAD_XDICTIONARY
360
37F2
102
}
102
{ACAD_REACTORS
330
3662
102
}
330
3662
100
AcDbVisualStyle
  2
Shaded with edges
 70
    26
 71
     2
 72
     2
 73
     1
 90
        2
 40
-0.6
 41
30.0
 62
     5
 63
     7
 74
     1
 91
       10
 64
     7
 65
   257
 75
     2
175
     1
 42
1.0
 92
        8
 66
   257
 43
1.0
 76
     1
 77
     6
 78
     2
 67
     7
 79
     3
170
     0
171
     0
290
     0
174
     0
 93
        5
 44
0.0
173
     0
291
     0
 45
0.0
1001
ACAD
1000
AcDbSavedByObjectVersion
1070
     0
  0
VISUALSTYLE
  5
3673
102
{ACAD_XDICTIONARY
360
37EC
102
}
102
{ACAD_REACTORS
330
3662
102
}
330
3662
100
AcDbVisualStyle
  2
Shades of Gray
 70
    23
 71
     2
 72
     2
 73
     3
 90
        0
 40
-0.6
 41
-30.0
 62
     5
 63
     7
 74
     2
 91
        2
 64
     7
 65
     7
 75
     1
175
     1
 42
40.0
 92
        8
 66
     7
 43
1.0
 76
     1
 77
     6
 78
     2
 67
     7
 79
     3
170
     0
171
     0
290
     0
174
     0
 93
        1
 44
0.0
173
     0
291
     0
 45
0.0
1001
ACAD
1000
AcDbSavedByObjectVersion
1070
     0
  0
VISUALSTYLE
  5
3674
102
{ACAD_XDICTIONARY
360
37EE
102
}
102
{ACAD_REACTORS
330
3662
102
}
330
3662
100
AcDbVisualStyle
  2
Sketchy
 70
    24
 71
     1
 72
     2
 73
     2
 90
        0
 40
-0.6
 41
-30.0
 62
     5
 63
     7
 74
     2
 91
        2
 64
     7
 65
     7
 75
     1
175
     1
 42
40.0
 92
       11
 66
     7
 43
1.0
 76
     1
 77
     6
 78
     2
 67
     7
 79
     6
170
     0
171
     0
290
     0
174
     0
 93
        1
 44
0.0
173
     0
291
     0
 45
0.0
1001
ACAD
1000
AcDbSavedByObjectVersion
1070
     0
  0
VISUALSTYLE
  5
366F
102
{ACAD_XDICTIONARY
360
37E4
102
}
102
{ACAD_REACTORS
330
3662
102
}
330
3662
100
AcDbVisualStyle
  2
Thicken
 70
    13
 71
     2
 72
     2
 73
     0
 90
        0
 40
-0.6
 41
-30.0
 62
     5
 63
     7
 74
     1
 91
        4
 64
     7
 65
   257
 75
     1
175
     1
 42
1.0
 92
       12
 66
     7
 43
1.0
 76
     1
 77
     6
 78
     2
 67
     7
 79
     5
170
     0
171
     0
290
     0
174
     0
 93
        1
 44
0.0
173
     0
291
     1
 45
0.0
1001
ACAD
1000
AcDbSavedByObjectVersion
1070
     0
  0
VISUALSTYLE
  5
3669
102
{ACAD_XDICTIONARY
360
37D8
102
}
102
{ACAD_REACTORS
330
3662
102
}
330
3662
100
AcDbVisualStyle
  2
Wireframe
 70
     5
 71
     0
 72
     2
 73
     0
 90
        0
 40
-0.6
 41
-30.0
 62
     5
 63
     7
 74
     1
 91
        4
 64
     7
 65
   257
 75
     1
175
     1
 42
1.0
 92
        0
 66
   257
 43
1.0
 76
     1
 77
     6
 78
     2
 67
     7
 79
     3
170
     0
171
     0
290
     0
174
     0
 93
        1
 44
0.0
173
     0
291
     0
 45
0.0
1001
ACAD
1000
AcDbSavedByObjectVersion
1070
     0
  0
VISUALSTYLE
  5
3675
102
{ACAD_XDICTIONARY
360
37F0
102
}
102
{ACAD_REACTORS
330
3662
102
}
330
3662
100
AcDbVisualStyle
  2
X-Ray
 70
    25
 71
     2
 72
     2
 73
     1
 90
        1
 40
0.5
 41
-30.0
 62
     5
 63
     7
 74
     1
 91
        0
 64
     7
 65
   257
 75
     1
175
     1
 42
1.0
 92
        8
 66
     7
 43
1.0
 76
     1
 77
     6
 78
     2
 67
     7
 79
     3
170
     0
171
     0
290
     0
174
     0
 93
       13
 44
0.0
173
     0
291
     0
 45
0.0
1001
ACAD
1000
AcDbSavedByObjectVersion
1070
     0
  0
DICTIONARYVAR
  5
3757
102
{ACAD_REACTORS
330
355B
102
}
330
355B
100
DictionaryVariables
280
     0
  1
1:1
  0
DICTIONARYVAR
  5
3756
102
{ACAD_REACTORS
330
355B
102
}
330
355B
100
DictionaryVariables
280
     0
  1
STANDARD
  0
DICTIONARYVAR
  5
3755
102
{ACAD_REACTORS
330
355B
102
}
330
355B
100
DictionaryVariables
280
     0
  1
STANDARD
  0
DICTIONARYVAR
  5
3759
102
{ACAD_REACTORS
330
355B
102
}
330
355B
100
DictionaryVariables
280
     0
  1
1
  0
DICTIONARYVAR
  5
3758
102
{ACAD_REACTORS
330
355B
102
}
330
355B
100
DictionaryVariables
280
     0
  1
0
  0
DICTIONARYVAR
  5
355C
102
{ACAD_REACTORS
330
355B
102
}
330
355B
100
DictionaryVariables
280
     0
  1
127
  0
DICTIONARYVAR
  5
3764
102
{ACAD_REACTORS
330
355B
102
}
330
355B
100
DictionaryVariables
280
     0
  1
2
  0
DICTIONARY
  5
37C4
330
34A4
100
AcDbDictionary
280
     1
281
     1
  3
ACAD_XREC_ROUNDTRIP
360
37C5
  0
DICTIONARY
  5
37B5
330
34A5
100
AcDbDictionary
280
     1
281
     1
  3
ACAD_XREC_ROUNDTRIP
360
37C6
  3
ADSK_XREC_LAYOUTTHUMBNAIL
360
37B6
  0
DICTIONARY
  5
3653
330
3652
100
AcDbDictionary
280
     1
281
     1
  3
ACAD_XREC_ROUNDTRIP
360
37CA
  3
BUMPTILE
360
3655
  3
DIFFUSETILE
360
3654
  3
OPACITYTILE
360
3658
  3
REFLECTIONTILE
360
3657
  3
REFRACTIONTILE
360
3659
  3
SPECULARTILE
360
3656
  0
DICTIONARY
  5
364B
330
364A
100
AcDbDictionary
280
     1
281
     1
  3
ACAD_XREC_ROUNDTRIP
360
37C9
  3
BUMPTILE
360
364D
  3
DIFFUSETILE
360
364C
  3
OPACITYTILE
360
3650
  3
REFLECTIONTILE
360
364F
  3
REFRACTIONTILE
360
3651
  3
SPECULARTILE
360
364E
  0
DICTIONARY
  5
365B
330
365A
100
AcDbDictionary
280
     1
281
     1
  3
ACAD_XREC_ROUNDTRIP
360
37CB
  3
BUMPTILE
360
365D
  3
DIFFUSETILE
360
365C
  3
OPACITYTILE
360
3660
  3
REFLECTIONTILE
360
365F
  3
REFRACTIONTILE
360
3661
  3
SPECULARTILE
360
365E
  0
DICTIONARY
  5
37BC
330
3691
100
AcDbDictionary
280
     1
281
     1
  3
ACAD_XREC_ROUNDTRIP
360
37BD
  0
DICTIONARY
  5
37C7
330
355E
100
AcDbDictionary
280
     1
281
     1
  3
ACAD_XREC_ROUNDTRIP
360
37C8
  0
DICTIONARY
  5
370A
330
367D
100
AcDbDictionary
280
     1
281
     1
  3
ACAD_ROUNDTRIP_2008_TABLESTYLE_CELLSTYLEMAP
360
37BB
  3
ACAD_XREC_ROUNDTRIP
360
37FC
  0
DICTIONARY
  5
37D6
330
3668
100
AcDbDictionary
280
     1
281
     1
  3
ACAD_XREC_ROUNDTRIP
360
37D7
  0
DICTIONARY
  5
37D4
330
3667
100
AcDbDictionary
280
     1
281
     1
  3
ACAD_XREC_ROUNDTRIP
360
37D5
  0
DICTIONARY
  5
37E2
330
366E
100
AcDbDictionary
280
     1
281
     1
  3
ACAD_XREC_ROUNDTRIP
360
37E3
  0
DICTIONARY
  5
37EA
330
3672
100
AcDbDictionary
280
     1
281
     1
  3
ACAD_XREC_ROUNDTRIP
360
37EB
  0
DICTIONARY
  5
37DC
330
366B
100
AcDbDictionary
280
     1
281
     1
  3
ACAD_XREC_ROUNDTRIP
360
37DD
  0
DICTIONARY
  5
37E0
330
366D
100
AcDbDictionary
280
     1
281
     1
  3
ACAD_XREC_ROUNDTRIP
360
37E1
  0
DICTIONARY
  5
37FA
330
367A
100
AcDbDictionary
280
     1
281
     1
  3
ACAD_XREC_ROUNDTRIP
360
37FB
  0
DICTIONARY
  5
37E8
330
3671
100
AcDbDictionary
280
     1
281
     1
  3
ACAD_XREC_ROUNDTRIP
360
37E9
  0
DICTIONARY
  5
37CC
330
3663
100
AcDbDictionary
280
     1
281
     1
  3
ACAD_XREC_ROUNDTRIP
360
37CD
  0
DICTIONARY
  5
37CE
330
3664
100
AcDbDictionary
280
     1
281
     1
  3
ACAD_XREC_ROUNDTRIP
360
37CF
  0
DICTIONARY
  5
37D0
330
3665
100
AcDbDictionary
280
     1
281
     1
  3
ACAD_XREC_ROUNDTRIP
360
37D1
  0
DICTIONARY
  5
37D2
330
3666
100
AcDbDictionary
280
     1
281
     1
  3
ACAD_XREC_ROUNDTRIP
360
37D3
  0
DICTIONARY
  5
37DA
330
366A
100
AcDbDictionary
280
     1
281
     1
  3
ACAD_XREC_ROUNDTRIP
360
37DB
  0
DICTIONARY
  5
37F6
330
3678
100
AcDbDictionary
280
     1
281
     1
  3
ACAD_XREC_ROUNDTRIP
360
37F7
  0
DICTIONARY
  5
37E6
330
3670
100
AcDbDictionary
280
     1
281
     1
  3
ACAD_XREC_ROUNDTRIP
360
37E7
  0
DICTIONARY
  5
37F8
330
3679
100
AcDbDictionary
280
     1
281
     1
  3
ACAD_XREC_ROUNDTRIP
360
37F9
  0
DICTIONARY
  5
37DE
330
366C
100
AcDbDictionary
280
     1
281
     1
  3
ACAD_XREC_ROUNDTRIP
360
37DF
  0
DICTIONARY
  5
37F4
330
3677
100
AcDbDictionary
280
     1
281
     1
  3
ACAD_XREC_ROUNDTRIP
360
37F5
  0
DICTIONARY
  5
37F2
330
3676
100
AcDbDictionary
280
     1
281
     1
  3
ACAD_XREC_ROUNDTRIP
360
37F3
  0
DICTIONARY
  5
37EC
330
3673
100
AcDbDictionary
280
     1
281
     1
  3
ACAD_XREC_ROUNDTRIP
360
37ED
  0
DICTIONARY
  5
37EE
330
3674
100
AcDbDictionary
280
     1
281
     1
  3
ACAD_XREC_ROUNDTRIP
360
37EF
  0
DICTIONARY
  5
37E4
330
366F
100
AcDbDictionary
280
     1
281
     1
  3
ACAD_XREC_ROUNDTRIP
360
37E5
  0
DICTIONARY
  5
37D8
330
3669
100
AcDbDictionary
280
     1
281
     1
  3
ACAD_XREC_ROUNDTRIP
360
37D9
  0
DICTIONARY
  5
37F0
330
3675
100
AcDbDictionary
280
     1
281
     1
  3
ACAD_XREC_ROUNDTRIP
360
37F1
  0
XRECORD
  5
37C5
102
{ACAD_REACTORS
330
37C4
102
}
330
37C4
100
AcDbXrecord
280
     1
102
SHADEPLOT
 70
     0
102
SHADEPLOTRESLEVEL
 70
     2
102
SHADEPLOTCUSTOMDPI
 70
   300
  0
XRECORD
  5
37C6
102
{ACAD_REACTORS
330
37B5
102
}
330
37B5
100
AcDbXrecord
280
     1
102
SHADEPLOT
 70
     0
102
SHADEPLOTRESLEVEL
 70
     2
102
SHADEPLOTCUSTOMDPI
 70
   300
  0
XRECORD
  5
37B6
102
{ACAD_REACTORS
330
37B5
102
}
330
37B5
100
AcDbXrecord
280
     1
310
28000000B40000007F00000001000800000000004C590000000000000000000000010000000000000000000000000000C8C8C8000000000000000000000000000000000000000000000000000000000000000000330000006600000099000000CC000000FF00000000330000333300006633000099330000CC330000FF3300
310
0000660000336600006666000099660000CC660000FF66000000990000339900006699000099990000CC990000FF99000000CC000033CC000066CC000099CC0000CCCC0000FFCC000000FF000033FF000066FF000099FF0000CCFF0000FFFF000000003300330033006600330099003300CC003300FF003300003333003333
310
33006633330099333300CC333300FF33330000663300336633006666330099663300CC663300FF66330000993300339933006699330099993300CC993300FF99330000CC330033CC330066CC330099CC3300CCCC3300FFCC330000FF330033FF330066FF330099FF3300CCFF3300FFFF330000006600330066006600660099
310
006600CC006600FF00660000336600333366006633660099336600CC336600FF33660000666600336666006666660099666600CC666600FF66660000996600339966006699660099996600CC996600FF99660000CC660033CC660066CC660099CC6600CCCC6600FFCC660000FF660033FF660066FF660099FF6600CCFF6600
310
FFFF660000009900330099006600990099009900CC009900FF00990000339900333399006633990099339900CC339900FF33990000669900336699006666990099669900CC669900FF66990000999900339999006699990099999900CC999900FF99990000CC990033CC990066CC990099CC9900CCCC9900FFCC990000FF99
310
0033FF990066FF990099FF9900CCFF9900FFFF99000000CC003300CC006600CC009900CC00CC00CC00FF00CC000033CC003333CC006633CC009933CC00CC33CC00FF33CC000066CC003366CC006666CC009966CC00CC66CC00FF66CC000099CC003399CC006699CC009999CC00CC99CC00FF99CC0000CCCC0033CCCC0066CC
310
CC0099CCCC00CCCCCC00FFCCCC0000FFCC0033FFCC0066FFCC0099FFCC00CCFFCC00FFFFCC000000FF003300FF006600FF009900FF00CC00FF00FF00FF000033FF003333FF006633FF009933FF00CC33FF00FF33FF000066FF003366FF006666FF009966FF00CC66FF00FF66FF000099FF003399FF006699FF009999FF00CC
310
99FF00FF99FF0000CCFF0033CCFF0066CCFF0099CCFF00CCCCFF00FFCCFF0000FFFF0033FFFF0066FFFF0099FFFF00CCFFFF00FFFFFF00000000000D0D0D001A1A1A00282828003535350043434300505050005D5D5D006B6B6B00787878008686860093939300A1A1A100AEAEAE00BBBBBB00C9C9C900D6D6D600E4E4E400
310
F1F1F100FFFFFF000000000000000000000000000000000000000000000000000000000000000000000000000000000000000000000000000000000000000000000000000000000000000000000000000000000000000000000000000000000000000000000000000000000000000000000000000000000000000000000000
310
000000000000000000000000000000000000000000000000000000000000000000000000000000000000000000000000000000000000000000000000000000000000000000000000000000000000000000000000000000000000000000000000F500F5F5E10000000000000000000000000000000000000000000000000000
310
00000000000000000000000000000000000000000000000000000000000000000000000000000000000000000000000000000000000000000000000000000000000000000000000000000000000000000000000000000000000000000000000000000000000000000000000000000000000000000000000000000000000000
310
00000000000000000000000000000000000000000000F500F5F5E100000000000000000000000000000000000000000000000000000000000000000000000000000000000000000000000000000000000000000000000000000000000000000000000000000000000000000000000000000000000000000000000000000000
310
000000000000000000000000000000000000000000000000000000000000000000000000000000000000000000000000000000000000000000000000000000000000000000000000000000F500F5F5E10000000000000000000000000000000000000000000000000000000000000000000000000000000000000000000000
310
00000000000000000000000000000000000000000000000000000000000000000000000000000000000000000000000000000000000000000000000000000000000000000000000000000000000000000000000000000000000000000000000000000000000000000000000000000000000000000000000000000000000000
310
00F500F5F5E100000000000000000000000000000000000000000000000000000000000000000000000000000000000000000000000000000000000000000000000000000000000000000000000000000000000000000000000000000000000000000000000000000000000000000000000000000000000000000000000000
310
000000000000000000000000000000000000000000000000000000000000000000000000000000000000000000000000000000000000F500F5F5E10000000000000000000000000000000000000000000000000000000000000000000000000000000000000000000000000000000000000000000000000000000000000000
310
0000000000000000000000000000000000000000000000000000000000000000000000000000000000000000000000000000000000000000000000000000000000000000000000000000000000000000000000000000000000000000000000000000000000000000000000F500F5F5E1000000000000000000000000000000
310
00000000000000000000000000000000000000000000000000000000000000000000000000000000000000000000000000000000000000000000000000000000000000000000000000000000000000000000000000000000000000000000000000000000000000000000000000000000000000000000000000000000000000
310
000000000000000000000000000000000000000000000000000000000000000000F500F5F5E1000000F5F5F5F5F5F5F5F5F5F5F5F5F5F5F5F5F5F5F5F5F5F5F5F5F5F5F5F5F5F5F5F5F5F5F5F5F5F5F5F5F5F5F5F5F5F5F5F5F5F5F5F5F5F5F5F5F5F5F5F5F5F5F5F5F5F5F5F5F5F5F5F5F5F5F5F5F5F5F5F5F5F5F5F5F5F5
310
F5F5F5F5F5F5F5F5F5F5F5F5F5F5F5F5F5F5F5F5F5F5F5F5F5F5F5F5F5F5F5F5F5F5F5F5F5F5F5F5F5F5F5F5F5F5F5F5F5F5F5F5F5F5F5F5F5F5F5F5F5F5F5F5F5F5F5F5F5F5F5F5F5F5F5F5F5F5F5F5F5F5F5F50000F500F5F5E1000000F50000000000000000000000000000000000000000000000000000000000000000
310
00000000000000000000000000000000000000000000000000000000000000000000000000000000000000000000000000000000000000000000000000000000000000000000000000000000000000000000000000000000000000000000000000000000000000000000000000000000000000000000000000000000000000
310
000000000000000000F500000000F5F5E1000000F500000000000000000000000000000000000000000000000000000000000000000000000000000000000000000000000000000000000000000000000000000000000000000000000000000000000000000000000000000000000000000000000000000000000000000000
310
0000000000000000000000000000000000000000000000000000000000000000000000000000000000000000000000000000000000000000000000000000F500000000F5F5E1000000F50000000000000000000000000000000000000000000000000000000000000000DCF00000DCDC0000DC0000DCDC0000000000000000
310
00000000000000000000000000000000000000000000000000000000000000000000000000000000000000000000000000000000000000000000000000000000000000000000000000000000000000000000000000000000000000000000000000000000000000000000000000000000000000F500000000F5F5E1000000F5
310
0000000000000000000000000000000000000000000000000000000000000000DCF0F0F0DCDC0000DCF0F0DCDC00000000000000000000000000000000000000000000000000000000000000000000000000000000000000000000000000000000000000000000000000000000000000000000000000000000000000000000
310
0000000000000000000000000000000000000000000000000000000000000000000000000000000000F500000000F5F5E1000000F50000000000000000000000000000000000000000000000000000000000000000DCF0DCF0DCDC0000DCF0DCDCDC0000000000000000000000000000000000000000000000000000000000
310
00000000000000000000000000000000000000000000000000000000000000000000000000000000000000000000000000000000000000000000000000000000000000000000000000000000000000000000000000000000000000000000F500000000F5F5E1000000F5000000000000000000000000000000000000000000
310
0000000000000000000000F0F0F0F0F0F00000F0282828F000000000000000000000000000000000000000000000000000000000000000000000000000000000000000000000000000000000000000000000000000000000000000000000000000000000000000000000000000000000000000000000000000000000000000
310
0000000000000000000000000000000000000000F500000000F5F5E1000000F50000000000000000000000000000000000000000000000000000000000000000F0F0F0F000F00000F0F0F0F0F00000000000000000000000000000000000000000000000000000000000000000000000000000000000000000000000000000
310
00000000000000000000000000000000000000000000000000000000000000000000000000000000000000000000000000000000000000000000000000000000000000000000000000F500000000F5F5E1000000F50000000000000000000000000000000000000000000000000000000000000000F0F0F0F0F0F00000F028
310
28F0F0000000000000000000000000000000000000000000000000000000000000000000000000000000000000000000000000000000000000000000000000000000000000000000000000000000000000000000000000000000000000000000000000000000000000000000000000000000000000000000000000000000F5
310
00000000F5F5E1000000F5000000000000000000000000000000000000000000000000000000000000000000F0000000000000F0000000000000000000000000000000000000000000000000000000000000000000000000000000000000000000000000000000000000000000000000000000000000000000000000000000
310
00000000000000000000000000000000000000000000000000000000000000000000000000000000000000000000000000000000F500000000F5F5E1000000F5000000000000000000000000000000000000000000000000000000000000000000000000000000000000000000000000000000000000000000000000000000
310
000000000000000000000000000000000000000000000000000000000000000000000000000000000000000000000000000000000000000000000000000000000000000000000000000000000000000000000000000000000000000000000000000000000000000000F50000F500F5F5E1000000F500000000000000000000
310
0000000000F0000000000000000000000000000000000000F0000000000000000000000000000000000000000000000000000000000000000000000000000000000000000000000000000000000000000000000000000000000000000000000000000000000000000000000000000000000000000000000000000000000000
310
00000000000000000000000000000000000000000000000000000000000000F50000F500F5F5E1000000F5000000000000000000000000000000F0F0F0F0F0F0F0DCDCDCDCDCF0F0F0F0F0F0F0F000000000000000000000000000000000000000000000000000000000000000000000000000000000000000000000000000
310
000000000000000000000000000000000000000000000000000000000000000000000000000000000000000000000000000000000000000000000000000000000000000000000000000000000000000000000000F50000F500F5F5E1000000F5000000000000000000000000000000F0000000000000DCDCDCDCDC00000000
310
000000F0000000000000000000000000000000000000000000000000000000000000000000000000000000000000000000000000000000000000000000000000000000000000000000000000000000000000000000000000000000000000000000000000000000000000000000000000000000000000000000000000000000
310
00000000000000000000F50000F500F5F5E1000000F5000000000000000000000000000000F0000000000000000000000000000000000000F0000000000000F0000000000000000000000000000000000000000000000000000000000000000000000000000000000000000000000000000000000000000000000000000000
310
000000000000000000000000000000000000000000000000000000000000000000000000000000000000000000000000000000000000000000000000000000F50000F500F5F5E1000000F50000000000000000000000DCDCDCDCF0F000000000000000000000F0F0F0F0F0F0F0F0F0F0F00000DCDC00000000000000000000
310
0000000000000000000000000000000000000000000000000000000000000000000000000000000000000000000000000000000000000000000000000000000000000000000000000000000000000000000000000000000000000000000000000000000000000000000000000000000000000000F50000F500F5F5E1000000
310
F50000000000000000000000DCDCDCDCF0F0000000000000000000F000DCDCDCDCDCDCF0DCDCDC0000DCDC000000000000000000000000000000000000000000000000000000000000000000000000000000000000000000000000000000000000000000000000000000000000000000000000000000000000000000000000
310
000000000000000000000000000000000000000000000000000000000000000000000000000000000000F50000F500F5F5E1000000F5000000000000000000000000000000F000F0000000000000F000F000000000000000F00000000000DCDC00000000000000000000000000000000000000000000000000000000000000
310
0000000000000000000000000000000000000000000000000000000000000000000000000000000000000000000000000000000000000000000000000000000000000000000000000000000000000000000000000000000000000000000000F50000F500F5F5E1000000F5000000000000000000000000000000F000F00000
310
00000000F0F00000000000000000F0000000000000F0F00000000000000000000000000000000000000000000000000000000000000000000000000000000000000000000000000000000000000000000000000000000000000000000000000000000000000000000000000000000000000000000000000000000000000000
310
000000000000000000000000000000000000000000F50000F500F5F5E1000000F500000000000000000000000000F5F5F5F5F5F0F5F5F5F5F5F5F5F5F5F5F5F5F5F5F5F0F0F0F0F0F0F0F0F0F0F0F0F0F0F0F0F0F0F0F0F0F00000000000000000000000000000000000000000000000000000000000000000000000000000
310
0000000000000000000000000000000000000000000000000000000000000000000000000000000000000000000000000000000000000000000000000000000000000000000000000000F50000F500F5F5E1000000F500000000000000000000000000F500000000000000F5F5F5F0F5F5F5F500000000000000F500000000
310
F0F00000000000F00000F00000F00000000000000000000000000000000000000000000000000000000000000000000000000000000000000000000000000000000000000000000000000000000000000000000000000000000000000000000000000000000000000000000000000000000000000000000000000000000000
310
F50000F500F5F5E1000000F500000000000000000000000000F500000000000000F00000F0000000F000000000000000F500000000F0000000000000F00000F00000F0000000000000000000000000000000000000000000000000000000000000000000000000000000000000000000000000000000000000000000000000
310
0000000000000000000000000000000000000000000000000000000000000000000000000000000000000000000000000000000000F50000F500F5F5E1000000F500000000000000000000000000F500000000000000F00000F0000000F000000000000000F500000000F0000000000000F00000F00000F000000000000000
310
00000000000000000000000000000000000000000000000000000000000000000000000000000000000000000000000000000000000000000000000000000000000000000000000000000000000000000000000000000000000000000000000000000000000000000000F50000F500F5F5E1000000F5000000000000000000
310
00000000F500000000000000F00000F0000000F000000000000000F50000000000000000000000F00000F00000F0000000000000000000000000000000000000000000000000000000000000000000000000000000000000000000000000000000000000000000000000000000000000000000000000000000000000000000
310
0000000000000000000000000000000000000000000000000000000000000000F50000F500F5F5E1000000F500000000000000000000000000F500000000000000F00000F0000000F000000000000000F50000000000000000000000F00000F00000F000000000000000000000000000000000000000000000000000000000
310
00000000000000000000000000000000000000000000000000000000000000000000000000000000000000000000000000000000000000000000000000000000000000000000000000000000000000000000000000F50000F500F5F5E1000000F500000000000000000000000000F500000000000000F00000F0000000F000
310
000000000000F50000000000000000000000F00000F00000F0000000000000000000000000000000000000000000000000000000000000000000000000000000000000000000000000000000000000000000000000000000000000000000000000000000000000000000000000000000000000000000000000000000000000
310
0000000000000000000000F50000F500F5F5E1000000F500000000000000000000000000F5F0F0F0F0F0F0F0F0F0F0F0F0F0F0F0F0F0F0F0F0F0F0F5000000000000000000DCDCDC0000F00000F000000000000000000000000000000000000000000000000000000000000000000000000000000000000000000000000000
310
00000000000000000000000000000000000000000000000000000000000000000000000000000000000000000000000000000000000000000000000000000000F500000000F5F5E1000000F500000000000000000000000000F5F0F0F0F0F0F0F0F0F0F0F0F0F0F0F0F0F0F0F0F0F0F0F0000000000000000000DCDCF00000
310
F00000F00000000000000000000000000000000000000000000000000000000000000000000000000000000000000000000000000000000000000000000000000000000000000000000000000000000000000000000000000000000000000000000000000000000000000000000000000000000000F500000000F5F5E10000
310
00F500000000000000000000000000F500000000000000F00000F0000000F000000000000000F5000000000000000000DCDCF00000F00000F000000000000000000000000000000000000000000000000000000000000000000000000000000000000000000000000000000000000000000000000000000000000000000000
310
00000000000000000000000000000000000000000000000000000000000000000000000000000000000000F500000000F5F5E1000000F500000000000000000000000000F500000000000000F5F5F5F0F5F5F5F500000000000000F5000000000000000000DCDCDC0000F00000F00000000000000000000000000000000000
310
000000000000000000000000000000000000000000000000000000000000000000000000000000000000000000000000000000000000000000000000000000000000000000000000000000000000000000000000000000000000000000000000F500000000F5F5E1000000F500000000000000000000000000F50000000000
310
0000000000F0F500000000000000000000F5000000000000000000DCDCDC0000F00000F000000000000000000000000000000000000000000000000000000000000000000000000000000000000000000000000000000000000000000000000000000000000000000000000000000000000000000000000000000000000000
310
00000000000000000000000000000000000000000000F500000000F5F5E1000000F500000000000000000000000000F500000000000000000000F00000000000000000000000F50000000000000000000000F00000F00000F00000000000000000000000000000000000000000000000000000000000000000000000000000
310
000000000000000000000000000000000000000000000000000000000000000000000000000000000000000000000000000000000000000000000000000000000000000000000000000000F500000000F5F5E1000000F500000000000000000000000000F500000000000000000000F00000000000000000000000F500F5F5
310
F5F5F5F5F5F50000F00000F00000F000000000000000000000000000000000000000000000000000000000000000000000000000000000000000000000000000000000000000000000000000000000000000000000000000000000000000000000000000000000000000000000000000000000000000000000000000000000
310
00F500000000F5F5E1000000F500000000000000000000000000F500000000000000000000F00000000000000000000000F5F5F5F500000000F5F50000F00000F00000F00000000000000000000000000000000000000000000000000000000000000000000000000000000000000000000000000000000000000000000000
310
000000000000000000000000000000000000000000000000000000000000000000000000000000000000000000000000000000000000F500000000F5F5E1000000F500000000000000000000000000F500000000000000000000F00000000000000000000000F500F5F500F00000F5F50000F00000F00000F0000000000000
310
0000000000000000000000000000000000000000000000000000000000000000000000000000000000000000000000000000000000000000000000000000000000000000000000000000000000000000000000000000000000000000000000000000000000000000000000F500000000F5F5E1000000F50000000000000000
310
0000000000F500000000000000000000F000000000000000000000F50000F5F5F0F0F000F5F50000F00000F00000F00000000000000000000000000000000000000000000000000000000000000000000000000000000000000000000000000000000000000000000000000000000000000000000000000000000000000000
310
000000000000000000000000000000000000000000000000000000000000000000F50000F500F5F5E1000000F500000000000000000000000000F500000000000000000000F0000000000000000000F0F0F0F0F5F5F0F0F0F0F5F5F0F0F0F000F00000F0000000000000000000000000000000000000000000000000000000
310
0000000000000000000000000000000000000000000000000000000000000000000000000000000000000000000000000000000000000000000000000000000000000000000000000000000000000000000000000000F50000F500F5F5E1000000F500000000000000000000000000F500000000000000000000F000000000
310
000000000000F50000F5F5F0F0F0F0F5F50000000000F00000F00000000000000000000000000000000000000000000000000000000000000000000000000000000000000000000000000000000000000000000000000000000000000000000000000000000000000000000000000000000000000000000000000000000000
310
000000000000000000000000F50000F500F5F5E1000000F500000000000000000000000000F500000000000000000000F00000000000000000000000F500F5F500F0F000F5F500000000DCDC0000F0000000000000000000000000000000000000000000000000000000000000000000000000000000000000000000000000
310
0000000000000000000000000000000000000000000000000000000000000000000000000000000000000000000000000000000000000000000000000000000000F50000F500F5F5E1000000F500000000000000000000000000F500000000000000000000F00000000000000000000000F5F5F5F500000000F5F500000000
310
DCDCDCDCDC0000000000000000000000000000000000000000000000000000000000000000000000000000000000000000000000000000000000000000000000000000000000000000000000000000000000000000000000000000000000000000000000000000000000000000000000000000000000F50000F500F5F5E100
310
0000F500000000000000000000000000F500000000000000000000F00000000000000000000000F500F5F500000000F5F500000000DCDCDCDCF0000000000000000000000000000000000000000000000000000000000000000000000000000000000000000000000000000000000000000000000000000000000000000000
310
0000000000000000000000000000000000000000000000000000000000000000000000000000000000000000F50000F500F5F5E1000000F500000000000000000000000000F500000000000000000000F00000000000000000000000F500F5F5F5F5F5F5F5F50000000000F0DCDCF000000000000000000000000000000000
310
00000000000000000000000000000000000000000000000000000000000000000000000000000000000000000000000000000000000000000000000000000000000000000000000000000000000000000000000000000000000000000000000000F50000F500F5F5E1000000F500000000000000000000000000F500000000
310
000000000000F00000000000000000000000F50000000000000000000000000000F0DCDCF0000000000000000000000000000000000000000000000000000000000000000000000000000000000000000000000000000000000000000000000000000000000000000000000000000000000000000000000000000000000000
310
0000000000000000000000000000000000000000000000F50000F500F5F5E1000000F500000000000000000000000000F500000000000000000000F00000000000000000000000F50000000000000000000000000000F0DCDCDC00000000000000000000000000000000000000000000000000000000000000000000000000
310
00000000000000000000000000000000000000000000000000000000000000000000000000000000000000000000000000000000000000000000000000000000000000000000000000000000F50000F500F5F5E1000000F500000000000000000000000000F500000000000000000000F00000000000000000000000F50000
310
000000000000000000000000F00000F0000000000000000000000000000000000000000000000000000000000000000000000000000000000000000000000000000000000000000000000000000000000000000000000000000000000000000000000000000000000000000000000000000000000000000000000000000000
310
0000F50000F500F5F5E1000000F500000000000000000000000000F500000000000000000000F00000000000000000000000F50000000000000000000000000000F00000F000000000000000000000000000000000000000000000000000000000000000000000000000000000000000000000000000000000000000000000
310
00000000000000000000000000000000000000000000000000000000000000000000000000000000000000000000000000000000000000F50000F500F5F5E1000000F500000000000000000000000000F50000000000F000000000F00000000000000000000000F50000000000000000000000000000F00000F00000000000
310
000000000000000000000000000000000000000000000000000000000000000000000000000000000000000000000000000000000000000000000000000000000000000000000000000000000000000000000000000000000000000000000000000000000000000000000000F50000F500F5F5E1000000F500000000000000
310
000000000000F50000000000DCDCDC0000F00000000000000000000000F50000000000000000000000000000F00000F000000000000000000000000000000000000000000000000000000000000000000000000000000000000000000000000000000000000000000000000000000000000000000000000000000000000000
310
00000000000000000000000000000000000000000000000000000000000000000000F50000F500F5F5E1000000F500000000000000000000000000F50000000000DCDCDC0000F00000000000000000000000F50000000000000000000000000000F00000F00000000000000000000000000000000000000000000000000000
310
000000000000000000000000000000000000000000000000000000000000000000000000000000000000000000000000000000000000000000000000000000000000000000000000000000000000000000000000000000F50000F500F5F5E1000000F500000000000000000000000000F500000000F0DCDC000000F0F50000
310
0000000000000000F50000000000000000000000000000F00000F000000000000000000000000000000000000000000000000000000000000000000000000000000000000000000000000000000000000000000000000000000000000000000000000000000000000000000000000000000000000000000000000000000000
310
00000000000000000000000000F50000F500F5F5E1000000F500000000000000000000000000F500000000DCDCDC0000F5F0F500000000000000000000F50000000000000000000000F00000F00000F00000000000000000000000000000000000000000000000000000000000000000000000000000000000000000000000
310
000000000000000000000000000000000000000000000000000000000000000000000000000000000000000000000000000000000000000000000000000000000000F50000F500F5F5E1000000F500000000000000000000000000F500000000DCDCDC0000F5F0F5F0000000000000000000F5000000000000000000DCDCDC
310
0000F00000F00000000000000000000000000000000000000000000000000000000000000000000000000000000000000000000000000000000000000000000000000000000000000000000000000000000000000000000000000000000000000000000000000000000000000000000000000000000000F500000000F5F5E1
310
000000F500000000000000000000000000F500000000F0DC00000000F0F500000000000000000000F5000000000000000000DCDCF00000F00000F00000000000000000000000000000000000000000000000000000000000000000000000000000000000000000000000000000000000000000000000000000000000000000
310
000000000000000000000000000000000000000000000000000000000000000000000000000000000000000000F500000000F5F5E1000000F500000000000000000000000000F5000000F0000000000000F0F500000000000000000000F5000000000000000000DCDCDC0000F00000F0000000000000000000000000000000
310
0000000000000000000000000000000000000000000000000000000000000000000000000000000000000000000000000000000000000000000000000000000000000000000000000000000000000000000000000000000000000000000000000000F500000000F5F5E1000000F500000000000000000000000000F5000000
310
F0000000000000F00000000000000000000000F5000000000000000000DCDCF00000F00000F00000000000000000000000000000000000000000000000000000000000000000000000000000000000000000000000000000000000000000000000000000000000000000000000000000000000000000000000000000000000
310
000000000000000000000000000000000000000000000000F500000000F5F5E1000000F500000000000000000000000000F5000000F0000000000000F00000000000000000000000F50000000000000000000000F00000F00000F0000000000000000000000000000000000000000000000000000000000000000000000000
310
0000000000000000000000000000000000000000000000000000000000000000000000000000000000000000000000000000000000000000000000000000000000000000000000000000000000F500000000F5F5E1000000F500000000000000000000000000F5F5F5F5F0F5F5F5F5F5F5F0F5F5F5F5F5F5F5F5F5F5F5F0F0
310
F0F0F0F0F0F0F0F0F0F0F0F000F00000F00000000000000000000000000000000000000000000000000000000000000000000000000000000000000000000000000000000000000000000000000000000000000000000000000000000000000000000000000000000000000000000000000000000000000000000000000000
310
000000F500000000F5F5E1000000F500000000000000000000000000F00000F000F5F5F5F5F5F5F0F5F5F5F5F5F5F500000000F00000000000000000000000F00000F00000F0000000000000000000000000000000000000000000000000000000000000000000000000000000000000000000000000000000000000000000
310
0000000000000000000000000000000000000000000000000000000000000000000000000000000000000000000000000000000000000000F500000000F5F5E1000000F500000000000000000000000000F00000F00000F500000000F0F000000000F50000000000F00000000000000000000000F00000F00000F000000000
310
00000000000000000000000000000000000000000000000000000000000000000000000000000000000000000000000000000000000000000000000000000000000000000000000000000000000000000000000000000000000000000000000000000000000000000000000000F500000000F5F5E1000000F5000000000000
310
00000000000000F00000F00000F5F5F0F02DF0F02DF02DF5F0F0F0F0F0F0F0F0F0F0F0F0F0F0F0F0F0F0F0F0F0F00000F0000000000000000000000000000000000000000000000000000000000000000000000000000000000000000000000000000000000000000000000000000000000000000000000000000000000000
310
0000000000000000000000000000000000000000000000000000000000000000000000F500000000F5F5E1000000F500000000000000000000000000F000F0F0000000002D2DF0F000F02D2D00000000000000F00000000000000000000000F00000F00000F000000000000000000000000000000000000000000000000000
310
00000000000000000000000000000000000000000000000000000000000000000000000000000000000000000000000000000000000000000000000000000000000000000000000000000000000000000000000000000000F50000F500F5F5E1000000F500000000000000000000000000F0F0F000000000002D2D00F0F000
310
2D2D00000000000000F00000000000000000000000F00000F00000F0000000000000000000000000000000000000000000000000000000000000000000000000000000000000000000000000000000000000000000000000000000000000000000000000000000000000000000000000000000000000000000000000000000
310
0000000000000000000000000000F50000F500F5F5E1000000F500000000000000000000000000F000F0F0F0F0F0002D2DF0F000F02D2D00000000000000F00000000000000000000000000000F00000F000000000000000000000000000000000000000000000000000000000000000000000000000000000000000000000
310
00000000000000000000000000000000000000000000000000000000000000000000000000000000000000000000000000000000000000000000000000000000000000F50000F500F5F5E1000000F500000000000000000000000000F00000000000F0F0F0F02DF0F0F0F0F0F0F0F0F0F0F0F0F0F0F0F0F0F0F0F0F0F0F0F0
310
F0F0F0F0F0F0F0F000000000000000000000000000000000000000000000000000000000000000000000000000000000000000000000000000000000000000000000000000000000000000000000000000000000000000000000000000000000000000000000000000000000000000000000000000000000F50000F500F5F5
310
E1000000F500000000000000000000000000F000000000000000F00000F0000000F000000000000000F000000000000000000000000000DCF000000000000000000000000000000000000000000000000000000000000000000000000000000000000000000000000000000000000000000000000000000000000000000000
310
00000000000000000000000000000000000000000000000000000000000000000000000000000000000000000000F50000F500F5F5E1000000F500000000000000000000000000F000000000000000F00000F0000000F000000000000000F0000000000000000000000000DCDCDC0000000000000000000000000000000000
310
000000000000000000000000000000000000000000000000000000000000000000000000000000000000000000000000000000000000000000000000000000000000000000000000000000000000000000000000000000000000000000000000000000F50000F500F5F5E1000000F500000000000000000000000000F00000
310
0000000000F00000DC000000F000000000000000F0000000000000000000000000DCDCDC00000000000000000000000000000000000000000000000000000000000000000000000000000000000000000000000000000000000000000000000000000000000000000000000000000000000000000000000000000000000000
310
00000000000000000000000000000000000000000000000000F50000F500F5F5E1000000F500000000000000000000000000F000000000000000F00000DCDC0000F000000000000000F0000000000000000000000000DCDCF00000000000000000000000000000000000000000000000000000000000000000000000000000
310
000000000000000000000000000000000000000000000000000000000000000000000000000000000000000000000000000000000000000000000000000000000000000000000000000000000000F50000F500F5F5E1000000F500000000000000000000000000F000000000000000F000DCDCDCDC00F000000000000000F0
310
000000000000000000000000DCDCF000000000000000000000000000000000000000000000000000000000000000000000000000000000000000000000000000000000000000000000000000000000000000000000000000000000000000000000000000000000000000000000000000000000000000000000000000000000
310
00000000F50000F500F5F5E1000000F500000000000000000000000000F000000000000000F000DCDCDC0000F000000000000000F0000000000000000000000000DCDCF00000000000000000000000000000000000000000000000000000000000000000000000000000000000000000000000000000000000000000000000
310
000000000000000000000000000000000000000000000000000000000000000000000000000000000000000000000000000000000000000000F50000F500F5F5E1000000F500000000000000000000000000F000000000000000F000DCDCDC0000F000000000000000F0000000000000000000000000000000000000000000
310
0000000000000000000000000000000000000000000000000000000000000000000000000000000000000000000000000000000000000000000000000000000000000000000000000000000000000000000000000000000000000000000000000000000000000000000000000000F50000F500F5F5E1000000F50000000000
310
0000000000000000F000000000000000F0000000000000F000000000000000F00000000000000000000000000000000000000000000000000000000000000000000000000000000000000000000000000000000000000000000000000000000000000000000000000000000000000000000000000000000000000000000000
310
000000000000000000000000000000000000000000000000000000000000000000000000F50000F500F5F5E1000000F500000000000000000000000000F000000000000000F0F0DCDCDCDCF0F000000000000000F0000000000000000000000000000000000000000000000000000000000000000000000000000000000000
310
0000000000000000000000000000000000000000000000000000000000000000000000000000000000000000000000000000000000000000000000000000000000000000000000000000000000000000000000000000000000F50000F500F5F5E1000000F500000000000000000000000000F0000000000000000000DCDCDC
310
DC000000000000000000F00000000000000000000000000000000000000000000000000000000000000000000000000000000000000000000000000000000000000000000000000000000000000000000000000000000000000000000000000000000000000000000000000000000000000000000000000000000000000000
310
000000000000000000000000000000F50000F500F5F5E1000000F500000000000000000000000000F0F0000000000000000000DCDCDC00000000000000F000F0000000000000000000000000000000000000000000000000000000000000000000000000000000000000000000000000000000000000000000000000000000
310
0000000000000000000000000000000000000000000000000000000000000000000000000000000000000000000000000000000000000000000000000000000000000000F50000F500F5F5E1000000F500000000000000000000000000F0F0F0F0F0F0F0F0F0DCDCDCDCDCF0F0F0F0F0F0F0F0F0F000000000000000000000
310
00000000000000000000000000000000000000000000000000000000000000000000000000000000000000000000000000000000000000000000000000000000000000000000000000000000000000000000000000000000000000000000000000000000000000000000000000000000000000000000000000F50000F500F5
310
F5E1000000F50000000000000000000000000000000000000000000000DCDCDCDC00000000000000000000000000000000000000000000000000000000000000000000000000000000000000000000000000000000000000000000000000000000000000000000000000000000000000000000000000000000000000000000
310
0000000000000000000000000000000000000000000000000000000000000000000000000000000000000000000000F500000000F5F5E1000000F500000000000000000000000000F0F0F0F0F0F0F0F0F0F0F0F0F0F0DCF0F0F0DCF0F0F0F0F0F0F0F0F0F0F0F0F0F000000000000000000000000000000000000000000000
310
00000000000000000000000000000000000000000000000000000000000000000000000000000000000000000000000000000000000000000000000000000000000000000000000000000000000000000000000000000000000000000000000000000000F500000000F5F5E1000000F500000000000000000000000000F000
310
000000000000000000000000DCDCDCDCDC00000000000000000000000000F0000000000000000000000000000000000000000000000000000000000000000000000000000000000000000000000000000000000000000000000000000000000000000000000000000000000000000000000000000000000000000000000000
310
0000000000000000000000000000000000000000000000000000F500000000F5F5E1000000F500000000000000000000000000F000000000000000000000F00000DCDCDCDCDC00000000000000000000000000F000000000000000000000000000000000000000000000000000000000000000000000000000000000000000
310
00000000000000000000000000000000000000000000000000000000000000000000000000000000000000000000000000000000000000000000000000000000000000000000000000000000000000F500000000F5F5E1000000F500000000000000000000000000F000000000000000000000F00000000000000000000000
310
000000000000000000F0000000000000000000000000000000000000000000000000000000000000000000000000000000000000000000000000000000000000000000000000000000000000000000000000000000000000000000000000000000000000000000000000000000000000000000000000000000000000000000
310
0000000000F500000000F5F5E1000000F500000000000000000000000000F000000000000000000000F0F500000000000000000000000000000000000000F000000000000000000000000000000000000000000000000000000000000000000000000000000000000000000000000000000000000000000000000000000000
310
00000000000000000000000000000000000000000000000000000000000000000000000000000000000000000000000000000000000000000000F500000000F5F5E1000000F500000000000000000000000000F000000000000000000000F0F500000000000000000000000000000000000000F00000000000000000000000
310
000000000000000000000000000000000000000000000000000000000000000000000000000000000000000000000000000000000000000000000000000000000000000000000000000000000000000000000000000000000000000000000000000000000000000000000000000000F500000000F5F5E1000000F500000000
310
000000000000000000F000000000000000000000F0F500000000000000000000000000000000000000F000000000000000000000000000000000000000000000000000000000000000000000000000000000000000000000000000000000000000000000000000000000000000000000000000000000000000000000000000
310
00000000000000000000000000000000000000000000000000000000000000000000000000F500000000F5F5E1000000F500000000000000000000000000F000000000000000000000F0F500000000000000000000000000000000000000F00000000000000000000000000000000000000000000000000000000000000000
310
000000000000000000000000000000000000000000000000000000000000000000000000000000000000000000000000000000000000000000000000000000000000000000000000000000000000000000000000000000000000F500000000F5F5E1000000F500000000000000000000000000F0000000000000000000F5F0
310
F5F5000000000000000000000000000000000000F000000000000000000000000000000000000000000000000000000000000000000000000000000000000000000000000000000000000000000000000000000000000000000000000000000000000000000000000000000000000000000000000000000000000000000000
310
00000000000000000000000000000000F50000F500F5F5E1000000F500000000000000000000000000F0000000000000F5F5F5F5F0F5F5F5F5F5000000000000000000000000000000F00000000000000000000000000000000000000000000000000000000000000000000000000000000000000000000000000000000000
310
000000000000000000000000000000000000000000000000000000000000000000000000000000000000000000000000000000000000000000000000000000000000000000F50000F500F5F5E1000000F500000000000000000000000000F000000000F5F5F5F50000F00000F5F500F5F500000000F0F0F0DCF0DCF0F0F0F0
310
0000000000000000000000000000000000000000000000000000000000000000000000000000000000000000000000000000000000000000000000000000000000000000000000000000000000000000000000000000000000000000000000000000000000000000000000000000000000000000000000000000F50000F500
310
F5F5E1000000F500000000000000000000000000F0000000F5F5F500000000F000000000F5F500F5000000F00000DCDCDCDC0000F00000000000000000000000000000000000000000000000000000000000000000000000000000000000000000000000000000000000000000000000000000000000000000000000000000
310
000000000000000000000000000000000000000000000000000000000000000000000000000000000000000000000000F50000F500F5F5E1000000F500000000000000000000000000F00000F5F5000000000000F0000000000000F5F5000000F00000DCDCDCDC0000F0000000000000000000000000000000000000000000
310
0000000000000000000000000000000000000000000000000000000000000000000000000000000000000000000000000000000000000000000000000000000000000000000000000000000000000000000000000000000000000000000000000000000000F50000F500F5F5E1000000F500000000000000000000000000F0
310
00F5F50000000000F5F5F0F5F5F50000000000F5F500F00000000000000000F00000000000000000000000000000000000000000000000000000000000000000000000000000000000000000000000000000000000000000000000000000000000000000000000000000000000000000000000000000000000000000000000
310
000000000000000000000000000000000000000000000000000000F50000F500F5F5E1000000F500000000000000000000000000F000F50000000000F50000F0F50000F500000000F500F5F00000000000000000F0000000000000000000000000000000000000000000000000000000000000000000000000000000000000
310
0000000000000000000000000000000000000000000000000000000000000000000000000000000000000000000000000000000000000000000000000000000000000000000000000000000000000000F50000F500F5F5E1000000F500000000000000000000000000F0F50000000000F500F5F5F0F5F5F000F500000000F5
310
F5F000F5F5F5F5F5F5F5F0F0F0F0F0F0F0F000000000000000000000000000000000000000000000000000000000000000000000000000000000000000000000000000000000000000000000000000000000000000000000000000000000000000000000000000000000000000000000000000000000000000000000000000
310
000000000000F50000F500F5F5E1000000F500000000000000000000000000F0F500000000F5F5F52DF5F5F5F52DF500F500000000F5F000F5F500000000F5F50000000000F0F00000000000000000000000000000000000000000000000000000000000000000000000000000000000000000000000000000000000000000
310
0000000000000000000000000000000000000000000000000000000000000000000000000000000000000000000000000000000000000000000000F50000F500F5F5E1000000F500000000000000000000000000F5F5000000F5F5F0002D00F00000002DF5F500000000F5F0F5F5F500000000F5F5000000000000F0000000
310
00000000000000000000000000000000000000000000000000000000000000000000000000000000000000000000000000000000000000000000000000000000000000000000000000000000000000000000000000000000000000000000000000000000000000000000000000000000F50000F500F5F5E1000000F5000000
310
00000000000000000000F5F5000000F5F5F02D0000F00000002DF5F0F5000000F5F000F5F500000000F5F500000000DCDCF00000000000000000000000000000000000000000000000000000000000000000000000000000000000000000000000000000000000000000000000000000000000000000000000000000000000
310
0000000000000000000000000000000000000000000000000000000000000000000000000000F50000F500F5F5E1000000F500000000000000000000000000F5F5000000F5F5F52D0000F00000002DF5F5F5000000F5F500F5F500000000F5F500000000DCDCF0000000000000000000000000000000000000000000000000
310
00000000000000000000000000000000000000000000000000000000000000000000000000000000000000000000000000000000000000000000000000000000000000000000000000000000000000000000000000000000000000F50000F500F5F5E1000000F50000000000000000000000F0F0F5F0F0F0F0F0F0F02DF0F0
310
F0F0F0F02DF0F0F0F0F0F0F0F5F0F0F0F0F0F0F0F0F0F0F0F0F0F0F0F0F0F0F0F000000000000000000000000000000000000000000000000000000000000000000000000000000000000000000000000000000000000000000000000000000000000000000000000000000000000000000000000000000000000000000000
310
0000000000000000000000000000000000F50000F500F5F5E1000000F500000000000000000000000000F5F5000000F5F5F02D0000F00000002D00F5F5000000F5F500F5F500000000F5F500000000DCDCF0000000F00000000000000000000000000000000000000000000000000000000000000000000000000000000000
310
00000000000000000000000000000000000000000000000000000000000000000000000000000000000000000000000000000000000000000000000000000000000000000000F50000F500F5F5E1000000F500000000000000000000000000F5F5000000F5F5F0002D00F00000002DF5F500000000F5F5F5F5F500000000F5
310
F5000000000000F0000000F0000000000000000000000000000000000000000000000000000000000000000000000000000000000000000000000000000000000000000000000000000000000000000000000000000000000000000000000000000000000000000000000000000000000000000000000000000000F50000F5
310
00F5F5E1000000F50000000000000000000000000000F500000000F5F5F02D2D2D2D2D2DF500F500000000F50000F5F500F00000F5F50000000000F0F0000000F00000000000000000000000000000000000000000000000000000000000000000000000000000000000000000000000000000000000000000000000000000
310
00000000000000000000000000000000000000000000000000000000000000000000000000000000000000000000000000F50000F500F5F5E1000000F50000000000000000000000000000F50000000000F5F5F000F0F500F500F500000000F5F50000F5F5F5F5F5F5F5F5F0F0F0F0F0F0F0DCDCDCF0000000000000000000
310
000000000000000000000000000000000000000000000000000000000000000000000000000000000000000000000000000000000000000000000000000000000000000000000000000000000000000000000000000000000000000000000000000000000000F500000000F5F5E1000000F500000000000000000000000000
310
0000F50000000000F5F5F0F0F5F500F50000000000F5F500000000F5F000F500000000000000000000DCDCF00000000000000000000000000000000000000000000000000000000000000000000000000000000000000000000000000000000000000000000000000000000000000000000000000000000000000000000000
310
00000000000000000000000000000000000000000000000000000000F500000000F5F5E1000000F5000000000000000000000000000000F5000000000000F5F5F0F5F5F50000000000F5F50000000000F5F000F500000000000000000000DCDCF0000000000000000000000000000000000000000000000000000000000000
310
000000000000000000000000000000000000000000000000000000000000000000000000000000000000000000000000000000000000000000000000000000000000000000000000000000000000000000F500000000F5F5E1000000F500000000000000000000000000000000F5F5000000000000F000000000000000F5F5
310
000000000000F5F0F0F500000000000000000000DCDCF00000000000000000000000000000000000000000000000000000000000000000000000000000000000000000000000000000000000000000000000000000000000000000000000000000000000000000000000000000000000000000000000000000000000000000
310
00000000000000F500000000F5F5E1000000F50000000000000000000000000000000000F5F50000000000F00000000000F5F5F500000000000000F5F0F0F5000000000000000000DCDCDCF0000000000000000000000000000000000000000000000000000000000000000000000000000000000000000000000000000000
310
000000000000000000000000000000000000000000000000000000000000000000000000000000000000000000000000000000000000000000000000F500000000F5F5E1000000F5000000000000000000000000000000000000F5F5F5000000F0000000F5F500F50000000000000000F5F5F5F50000000000000000000000
310
00F0000000000000000000000000000000000000000000000000000000000000000000000000000000000000000000000000000000000000000000000000000000000000000000000000000000000000000000000000000000000000000000000000000000000000000000000000000000F500000000F5F5E1000000F50000
310
0000000000000000000000000000000000F5F5F5F5F5F0F5F5F5F5F5F5000000000000000000F5F5F5F5000000000000000000000000F0000000000000000000000000000000000000000000000000000000000000000000000000000000000000000000000000000000000000000000000000000000000000000000000000
310
000000000000000000000000000000000000000000000000000000000000000000000000000000F500000000F5F5E1000000F50000000000000000000000000000000000000000000000F5F0F5F500000000000000000000000000F5F0F0F5000000000000000000000000F000000000000000000000000000000000000000
310
0000000000000000000000000000000000000000000000000000000000000000000000000000000000000000000000000000000000000000000000000000000000000000000000000000000000000000000000000000000000000000F500000000F5F5E1000000F50000000000000000000000000000000000000000000000
310
00F0F50000000000000000000000000000F5F0F0F5F0F0F0F0F0F0F0F0F0F0F0F0F0000000000000000000000000000000000000000000000000000000000000000000000000000000000000000000000000000000000000000000000000000000000000000000000000000000000000000000000000000000000000000000
310
000000000000000000000000000000000000F500000000F5F5E1000000F5000000000000000000000000000000000000000000000000F0F5000000000000000000000000000000F0F0000000000000000000000000000000000000000000000000000000000000000000000000000000000000000000000000000000000000
310
0000000000000000000000000000000000000000000000000000000000000000000000000000000000000000000000000000000000000000000000000000000000000000000000F50000F500F5F5E1000000F5000000000000000000000000000000000000000000000000F0F50000000000000000000000000000000000F0
310
00000000000000000000000000000000000000000000000000000000000000000000000000000000000000000000000000000000000000000000000000000000000000000000000000000000000000000000000000000000000000000000000000000000000000000000000000000000000000000000000000000000F50000
310
F500F5F5E1000000F5000000000000000000000000000000000000000000000000F0F50000000000000000000000000000000000F0F0F0F0F0F0F0F0F0000000000000000000000000000000000000000000000000000000000000000000000000000000000000000000000000000000000000000000000000000000000000
310
0000000000000000000000000000000000000000000000000000000000000000000000000000000000000000000000000000F50000F500F5F5E1000000F5000000000000000000000000000000000000000000000000F0000000000000000000000000000000000000DCDCDCDCDCDCDCDC0000000000000000000000000000
310
00000000000000000000000000000000000000000000000000000000000000000000000000000000000000000000000000000000000000000000000000000000000000000000000000000000000000000000000000000000000000000000000000000000000000F50000F500F5F5E1000000F5000000000000000000000000
310
000000000000000000000000F0000000000000000000000000000000000000000000000000000000000000000000000000000000000000000000000000000000000000000000000000000000000000000000000000000000000000000000000000000000000000000000000000000000000000000000000000000000000000
310
0000000000000000000000000000000000000000000000000000000000F50000F500F5F5E1000000F50000000000000000000000000000000000000000000000000000000000000000000000000000000000000000000000000000000000000000000000000000000000000000000000000000000000000000000000000000
310
00000000000000000000000000000000000000000000000000000000000000000000000000000000000000000000000000000000000000000000000000000000000000000000000000000000000000000000F50000F500F5F5E1000000F5F5F5F5F5F5F5F5F5F5F5F5F5F5F5F5F5F5F5F5F5F5F5F5F5F5F5F5F5F5F5F5F5F5
310
F5F5F5F5F5F5F5F5F5F5F5F5F5F5F5F5F5F5F5F5F5F5F5F5F5F5F5F5F5F5F5F5F5F5F5F5F5F5F5F5F5F5F5F5F5F5F5F5F5F5F5F5F5F5F5F5F5F5F5F5F5F5F5F5F5F5F5F5F5F5F5F5F5F5F5F5F5F5F5F5F5F5F5F5F5F5F5F5F5F5F5F5F5F5F5F5F5F5F5F5F5F5F5F5F5F5F5F5F5F5F5F5F5F5F5F5F5F5F5F5F5F5F5F5F5F5F5
310
F5F5F5F5F5F5F5F5F50000F500F5F5E1000000000000000000000000000000000000000000000000000000000000000000000000000000000000000000000000000000000000000000000000000000000000000000000000000000000000000000000000000000000000000000000000000000000000000000000000000000
310
00000000000000000000000000000000000000000000000000000000000000000000000000000000000000000000000000000000000000000000000000000000F500F5F5E1F5F5F5000000000000000000F5F5F5F5F5F5F5F5F5F5F5F5F5F5F5F5F5000000000000000000F5F5F5F5F5F5F5F5F5F5F5F5F5F5F5F500000000
310
000000000000F5F5F5F5F5F5F5F5F5F5F5F5F5F5F5F500000000000000000000F5F5F5F5F5F5F5F5F5F5F5F5F5F5F5F500000000000000000000F5F5F5F5F5F5F5F5F5F5F5F5F5F5F5F5000000000000000000F5F5F5F5F5F5F5F5F5F5F5F5F5F5F5F5F5000000000000000000F5F5F5F5F5F5F5F5F500F5F5E10000000000
310
00000000000000000000000000000000000000000000000000000000000000000000000000000000000000000000000000000000000000000000000000000000000000000000000000000000000000000000000000000000000000000000000000000000000000000000000000000000000000000000000000000000000000
310
000000000000000000000000000000000000000000000000000000000000000000000000000000000000000000F5E1E1
  0
XRECORD
  5
37CA
102
{ACAD_REACTORS
330
3653
102
}
330
3653
100
AcDbXrecord
280
     1
102
MATERIAL
148
0.0
149
0.0
149
0.0
 93
        0
 94
      127
282
     0
 72
     0
 77
     0
171
     0
175
     0
179
     0
273
     0
  0
XRECORD
  5
3655
102
{ACAD_REACTORS
330
3653
102
}
330
3653
100
AcDbXrecord
280
     1
270
     1
271
     1
  0
XRECORD
  5
3654
102
{ACAD_REACTORS
330
3653
102
}
330
3653
100
AcDbXrecord
280
     1
270
     1
271
     1
  0
XRECORD
  5
3658
102
{ACAD_REACTORS
330
3653
102
}
330
3653
100
AcDbXrecord
280
     1
270
     1
271
     1
  0
XRECORD
  5
3657
102
{ACAD_REACTORS
330
3653
102
}
330
3653
100
AcDbXrecord
280
     1
270
     1
271
     1
  0
XRECORD
  5
3659
102
{ACAD_REACTORS
330
3653
102
}
330
3653
100
AcDbXrecord
280
     1
270
     1
271
     1
  0
XRECORD
  5
3656
102
{ACAD_REACTORS
330
3653
102
}
330
3653
100
AcDbXrecord
280
     1
270
     1
271
     1
  0
XRECORD
  5
37C9
102
{ACAD_REACTORS
330
364B
102
}
330
364B
100
AcDbXrecord
280
     1
102
MATERIAL
148
0.0
149
0.0
149
0.0
 93
        0
 94
      127
282
     0
 72
     0
 77
     0
171
     0
175
     0
179
     0
273
     0
  0
XRECORD
  5
364D
102
{ACAD_REACTORS
330
364B
102
}
330
364B
100
AcDbXrecord
280
     1
270
     1
271
     1
  0
XRECORD
  5
364C
102
{ACAD_REACTORS
330
364B
102
}
330
364B
100
AcDbXrecord
280
     1
270
     1
271
     1
  0
XRECORD
  5
3650
102
{ACAD_REACTORS
330
364B
102
}
330
364B
100
AcDbXrecord
280
     1
270
     1
271
     1
  0
XRECORD
  5
364F
102
{ACAD_REACTORS
330
364B
102
}
330
364B
100
AcDbXrecord
280
     1
270
     1
271
     1
  0
XRECORD
  5
3651
102
{ACAD_REACTORS
330
364B
102
}
330
364B
100
AcDbXrecord
280
     1
270
     1
271
     1
  0
XRECORD
  5
364E
102
{ACAD_REACTORS
330
364B
102
}
330
364B
100
AcDbXrecord
280
     1
270
     1
271
     1
  0
XRECORD
  5
37CB
102
{ACAD_REACTORS
330
365B
102
}
330
365B
100
AcDbXrecord
280
     1
102
MATERIAL
148
0.0
149
0.0
149
0.0
 93
        0
 94
      127
282
     0
 72
     0
 77
     0
171
     0
175
     0
179
     0
273
     0
  0
XRECORD
  5
365D
102
{ACAD_REACTORS
330
365B
102
}
330
365B
100
AcDbXrecord
280
     1
270
     1
271
     1
  0
XRECORD
  5
365C
102
{ACAD_REACTORS
330
365B
102
}
330
365B
100
AcDbXrecord
280
     1
270
     1
271
     1
  0
XRECORD
  5
3660
102
{ACAD_REACTORS
330
365B
102
}
330
365B
100
AcDbXrecord
280
     1
270
     1
271
     1
  0
XRECORD
  5
365F
102
{ACAD_REACTORS
330
365B
102
}
330
365B
100
AcDbXrecord
280
     1
270
     1
271
     1
  0
XRECORD
  5
3661
102
{ACAD_REACTORS
330
365B
102
}
330
365B
100
AcDbXrecord
280
     1
270
     1
271
     1
  0
XRECORD
  5
365E
102
{ACAD_REACTORS
330
365B
102
}
330
365B
100
AcDbXrecord
280
     1
270
     1
271
     1
  0
XRECORD
  5
37BD
102
{ACAD_REACTORS
330
37BC
102
}
330
37BC
100
AcDbXrecord
280
     1
102
ACAD_ROUNDTRIP_2012_MLEADER_STYLE
298
     1
  0
XRECORD
  5
37C8
102
{ACAD_REACTORS
330
37C7
102
}
330
37C7
100
AcDbXrecord
280
     1
102
SHADEPLOT
 70
     0
102
SHADEPLOTRESLEVEL
 70
     2
102
SHADEPLOTCUSTOMDPI
 70
   300
  0
CELLSTYLEMAP
  5
37BB
102
{ACAD_REACTORS
330
370A
102
}
330
370A
100
AcDbCellStyleMap
 90
        3
300
CELLSTYLE
  1
TABLEFORMAT_BEGIN
 90
        5
170
     1
 91
        0
 92
    32768
 62
   257
 93
        1
300
CONTENTFORMAT
  1
CONTENTFORMAT_BEGIN
 90
        0
 91
        0
 92
      512
 93
        0
300

 40
0.0
140
1.0
 94
        5
 62
     0
340
10
144
6.0
309
CONTENTFORMAT_END
171
     1
301
MARGIN
  1
CELLMARGIN_BEGIN
 40
1.5
 40
1.5
 40
1.5
 40
1.5
 40
4.5
 40
4.5
309
CELLMARGIN_END
 94
        6
 95
        1
302
GRIDFORMAT
  1
GRIDFORMAT_BEGIN
 90
        0
 91
        1
 62
     0
 92
       -2
340
0
 93
        0
 40
1.125
309
GRIDFORMAT_END
 95
        2
302
GRIDFORMAT
  1
GRIDFORMAT_BEGIN
 90
        0
 91
        1
 62
     0
 92
       -2
340
0
 93
        0
 40
1.125
309
GRIDFORMAT_END
 95
        4
302
GRIDFORMAT
  1
GRIDFORMAT_BEGIN
 90
        0
 91
        1
 62
     0
 92
       -2
340
0
 93
        0
 40
1.125
309
GRIDFORMAT_END
 95
        8
302
GRIDFORMAT
  1
GRIDFORMAT_BEGIN
 90
        0
 91
        1
 62
     0
 92
       -2
340
0
 93
        0
 40
1.125
309
GRIDFORMAT_END
 95
       16
302
GRIDFORMAT
  1
GRIDFORMAT_BEGIN
 90
        0
 91
        1
 62
     0
 92
       -2
340
0
 93
        0
 40
1.125
309
GRIDFORMAT_END
 95
       32
302
GRIDFORMAT
  1
GRIDFORMAT_BEGIN
 90
        0
 91
        1
 62
     0
 92
       -2
340
0
 93
        0
 40
1.125
309
GRIDFORMAT_END
309
TABLEFORMAT_END
  1
CELLSTYLE_BEGIN
 90
        1
 91
        1
300
_TITLE
309
CELLSTYLE_END
300
CELLSTYLE
  1
TABLEFORMAT_BEGIN
 90
        5
170
     1
 91
        0
 92
        0
 62
   257
 93
        1
300
CONTENTFORMAT
  1
CONTENTFORMAT_BEGIN
 90
        0
 91
        0
 92
      512
 93
        0
300

 40
0.0
140
1.0
 94
        5
 62
     0
340
10
144
4.5
309
CONTENTFORMAT_END
171
     1
301
MARGIN
  1
CELLMARGIN_BEGIN
 40
1.5
 40
1.5
 40
1.5
 40
1.5
 40
4.5
 40
4.5
309
CELLMARGIN_END
 94
        6
 95
        1
302
GRIDFORMAT
  1
GRIDFORMAT_BEGIN
 90
        0
 91
        1
 62
     0
 92
       -2
340
0
 93
        0
 40
1.125
309
GRIDFORMAT_END
 95
        2
302
GRIDFORMAT
  1
GRIDFORMAT_BEGIN
 90
        0
 91
        1
 62
     0
 92
       -2
340
0
 93
        0
 40
1.125
309
GRIDFORMAT_END
 95
        4
302
GRIDFORMAT
  1
GRIDFORMAT_BEGIN
 90
        0
 91
        1
 62
     0
 92
       -2
340
0
 93
        0
 40
1.125
309
GRIDFORMAT_END
 95
        8
302
GRIDFORMAT
  1
GRIDFORMAT_BEGIN
 90
        0
 91
        1
 62
     0
 92
       -2
340
0
 93
        0
 40
1.125
309
GRIDFORMAT_END
 95
       16
302
GRIDFORMAT
  1
GRIDFORMAT_BEGIN
 90
        0
 91
        1
 62
     0
 92
       -2
340
0
 93
        0
 40
1.125
309
GRIDFORMAT_END
 95
       32
302
GRIDFORMAT
  1
GRIDFORMAT_BEGIN
 90
        0
 91
        1
 62
     0
 92
       -2
340
0
 93
        0
 40
1.125
309
GRIDFORMAT_END
309
TABLEFORMAT_END
  1
CELLSTYLE_BEGIN
 90
        2
 91
        1
300
_HEADER
309
CELLSTYLE_END
300
CELLSTYLE
  1
TABLEFORMAT_BEGIN
 90
        5
170
     1
 91
        0
 92
        0
 62
   257
 93
        1
300
CONTENTFORMAT
  1
CONTENTFORMAT_BEGIN
 90
        0
 91
        0
 92
      512
 93
        0
300

 40
0.0
140
1.0
 94
        2
 62
     0
340
10
144
4.5
309
CONTENTFORMAT_END
171
     1
301
MARGIN
  1
CELLMARGIN_BEGIN
 40
1.5
 40
1.5
 40
1.5
 40
1.5
 40
4.5
 40
4.5
309
CELLMARGIN_END
 94
        6
 95
        1
302
GRIDFORMAT
  1
GRIDFORMAT_BEGIN
 90
        0
 91
        1
 62
     0
 92
       -2
340
0
 93
        0
 40
1.125
309
GRIDFORMAT_END
 95
        2
302
GRIDFORMAT
  1
GRIDFORMAT_BEGIN
 90
        0
 91
        1
 62
     0
 92
       -2
340
0
 93
        0
 40
1.125
309
GRIDFORMAT_END
 95
        4
302
GRIDFORMAT
  1
GRIDFORMAT_BEGIN
 90
        0
 91
        1
 62
     0
 92
       -2
340
0
 93
        0
 40
1.125
309
GRIDFORMAT_END
 95
        8
302
GRIDFORMAT
  1
GRIDFORMAT_BEGIN
 90
        0
 91
        1
 62
     0
 92
       -2
340
0
 93
        0
 40
1.125
309
GRIDFORMAT_END
 95
       16
302
GRIDFORMAT
  1
GRIDFORMAT_BEGIN
 90
        0
 91
        1
 62
     0
 92
       -2
340
0
 93
        0
 40
1.125
309
GRIDFORMAT_END
 95
       32
302
GRIDFORMAT
  1
GRIDFORMAT_BEGIN
 90
        0
 91
        1
 62
     0
 92
       -2
340
0
 93
        0
 40
1.125
309
GRIDFORMAT_END
309
TABLEFORMAT_END
  1
CELLSTYLE_BEGIN
 90
        3
 91
        2
300
_DATA
309
CELLSTYLE_END
  0
XRECORD
  5
37FC
102
{ACAD_REACTORS
330
370A
102
}
330
370A
100
AcDbXrecord
280
     1
102
ACAD_ROUNDTRIP_PRE2007_TABLESTYLE
 90
      512
 91
        0
  1

 92
      512
 93
        0
  2

 94
      512
 95
        0
  3

  0
XRECORD
  5
37D7
102
{ACAD_REACTORS
330
37D6
102
}
330
37D6
100
AcDbXrecord
280
     1
102
RTVSPropertyOp0
 70
     1
102
RTVSPropertyOp1
 70
     1
102
RTVSPropertyOp2
 70
     1
102
RTVSPropertyOp3
 70
     1
102
RTVSPropertyOp4
 70
     1
102
RTVSPropertyOp5
 70
     1
102
RTVSPropertyOp6
 70
     1
102
RTVSPropertyOp7
 70
     1
102
RTVSPropertyOp8
 70
     1
102
RTVSPropertyOp9
 70
     1
102
RTVSPropertyOp10
 70
     1
102
RTVSPropertyOp11
 70
     1
102
RTVSPropertyOp12
 70
     1
102
RTVSPropertyOp13
 70
     1
102
RTVSPropertyOp14
 70
     1
102
RTVSPropertyOp15
 70
     1
102
RTVSPropertyOp16
 70
     1
102
RTVSPropertyOp17
 70
     1
102
RTVSPropertyOp18
 70
     1
102
RTVSPropertyOp19
 70
     1
102
RTVSPropertyOp20
 70
     1
102
RTVSPropertyOp21
 70
     1
102
RTVSPropertyOp22
 70
     1
102
RTVSPropertyOp23
 70
     1
102
RTVSPropertyOp24
 70
     1
102
RTVSPropertyOp25
 70
     1
102
RTVSPropertyOp26
 70
     1
102
RTVSPropertyOp27
 70
     1
102
RTVSPropertyOp28
 70
     1
102
RTVSPropertyOp29
 70
     1
102
RTVSPropertyOp30
 70
     1
102
RTVSPropertyOp31
 70
     1
102
RTVSPropertyOp32
 70
     1
  0
XRECORD
  5
37D5
102
{ACAD_REACTORS
330
37D4
102
}
330
37D4
100
AcDbXrecord
280
     1
102
RTVSPropertyOp0
 70
     1
102
RTVSPropertyOp1
 70
     1
102
RTVSPropertyOp2
 70
     1
102
RTVSPropertyOp3
 70
     1
102
RTVSPropertyOp4
 70
     1
102
RTVSPropertyOp5
 70
     1
102
RTVSPropertyOp6
 70
     1
102
RTVSPropertyOp7
 70
     1
102
RTVSPropertyOp8
 70
     1
102
RTVSPropertyOp9
 70
     1
102
RTVSPropertyOp10
 70
     1
102
RTVSPropertyOp11
 70
     1
102
RTVSPropertyOp12
 70
     1
102
RTVSPropertyOp13
 70
     1
102
RTVSPropertyOp14
 70
     1
102
RTVSPropertyOp15
 70
     1
102
RTVSPropertyOp16
 70
     1
102
RTVSPropertyOp17
 70
     1
102
RTVSPropertyOp18
 70
     1
102
RTVSPropertyOp19
 70
     1
102
RTVSPropertyOp20
 70
     1
102
RTVSPropertyOp21
 70
     1
102
RTVSPropertyOp22
 70
     1
102
RTVSPropertyOp23
 70
     1
102
RTVSPropertyOp24
 70
     1
102
RTVSPropertyOp25
 70
     1
102
RTVSPropertyOp26
 70
     1
102
RTVSPropertyOp27
 70
     1
102
RTVSPropertyOp28
 70
     1
102
RTVSPropertyOp29
 70
     1
102
RTVSPropertyOp30
 70
     1
102
RTVSPropertyOp31
 70
     1
102
RTVSPropertyOp32
 70
     1
  0
XRECORD
  5
37E3
102
{ACAD_REACTORS
330
37E2
102
}
330
37E2
100
AcDbXrecord
280
     1
102
RTVSPropertyOp0
 70
     1
102
RTVSPropertyOp1
 70
     1
102
RTVSPropertyOp2
 70
     1
102
RTVSPropertyOp3
 70
     1
102
RTVSPropertyOp4
 70
     1
102
RTVSPropertyOp5
 70
     1
102
RTVSPropertyOp6
 70
     1
102
RTVSPropertyOp7
 70
     1
102
RTVSPropertyOp8
 70
     1
102
RTVSPropertyOp9
 70
     1
102
RTVSPropertyOp10
 70
     1
102
RTVSPropertyOp11
 70
     1
102
RTVSPropertyOp12
 70
     1
102
RTVSPropertyOp13
 70
     1
102
RTVSPropertyOp14
 70
     1
102
RTVSPropertyOp15
 70
     1
102
RTVSPropertyOp16
 70
     1
102
RTVSPropertyOp17
 70
     1
102
RTVSPropertyOp18
 70
     1
102
RTVSPropertyOp19
 70
     1
102
RTVSPropertyOp20
 70
     1
102
RTVSPropertyOp21
 70
     1
102
RTVSPropertyOp22
 70
     1
102
RTVSPropertyOp23
 70
     1
102
RTVSPropertyOp24
 70
     1
102
RTVSPropertyOp25
 70
     1
102
RTVSPropertyOp26
 70
     1
102
RTVSPropertyOp27
 70
     1
102
RTVSPropertyOp28
 70
     1
102
RTVSPropertyOp29
 70
     1
102
RTVSPropertyOp30
 70
     1
102
RTVSPropertyOp31
 70
     1
102
RTVSPropertyOp32
 70
     1
  0
XRECORD
  5
37EB
102
{ACAD_REACTORS
330
37EA
102
}
330
37EA
100
AcDbXrecord
280
     1
102
RTVSPropertyOp0
 70
     1
102
RTVSPropertyOp1
 70
     1
102
RTVSPropertyOp2
 70
     1
102
RTVSPropertyOp3
 70
     1
102
RTVSPropertyOp4
 70
     1
102
RTVSPropertyOp5
 70
     1
102
RTVSPropertyOp6
 70
     1
102
RTVSPropertyOp7
 70
     1
102
RTVSPropertyOp8
 70
     1
102
RTVSPropertyOp9
 70
     1
102
RTVSPropertyOp10
 70
     1
102
RTVSPropertyOp11
 70
     1
102
RTVSPropertyOp12
 70
     1
102
RTVSPropertyOp13
 70
     1
102
RTVSPropertyOp14
 70
     1
102
RTVSPropertyOp15
 70
     1
102
RTVSPropertyOp16
 70
     1
102
RTVSPropertyOp17
 70
     1
102
RTVSPropertyOp18
 70
     1
102
RTVSPropertyOp19
 70
     1
102
RTVSPropertyOp20
 70
     1
102
RTVSPropertyOp21
 70
     1
102
RTVSPropertyOp22
 70
     1
102
RTVSPropertyOp23
 70
     1
102
RTVSPropertyOp24
 70
     1
102
RTVSPropertyOp25
 70
     1
102
RTVSPropertyOp26
 70
     1
102
RTVSPropertyOp27
 70
     1
102
RTVSPropertyOp28
 70
     1
102
RTVSPropertyOp29
 70
     1
102
RTVSPropertyOp30
 70
     1
102
RTVSPropertyOp31
 70
     1
102
RTVSPropertyOp32
 70
     1
  0
XRECORD
  5
37DD
102
{ACAD_REACTORS
330
37DC
102
}
330
37DC
100
AcDbXrecord
280
     1
102
RTVSPropertyOp0
 70
     1
102
RTVSPropertyOp1
 70
     1
102
RTVSPropertyOp2
 70
     1
102
RTVSPropertyOp3
 70
     1
102
RTVSPropertyOp4
 70
     1
102
RTVSPropertyOp5
 70
     1
102
RTVSPropertyOp6
 70
     1
102
RTVSPropertyOp7
 70
     1
102
RTVSPropertyOp8
 70
     1
102
RTVSPropertyOp9
 70
     1
102
RTVSPropertyOp10
 70
     1
102
RTVSPropertyOp11
 70
     1
102
RTVSPropertyOp12
 70
     1
102
RTVSPropertyOp13
 70
     1
102
RTVSPropertyOp14
 70
     1
102
RTVSPropertyOp15
 70
     1
102
RTVSPropertyOp16
 70
     1
102
RTVSPropertyOp17
 70
     1
102
RTVSPropertyOp18
 70
     1
102
RTVSPropertyOp19
 70
     1
102
RTVSPropertyOp20
 70
     1
102
RTVSPropertyOp21
 70
     1
102
RTVSPropertyOp22
 70
     1
102
RTVSPropertyOp23
 70
     1
102
RTVSPropertyOp24
 70
     1
102
RTVSPropertyOp25
 70
     1
102
RTVSPropertyOp26
 70
     1
102
RTVSPropertyOp27
 70
     1
102
RTVSPropertyOp28
 70
     1
102
RTVSPropertyOp29
 70
     1
102
RTVSPropertyOp30
 70
     1
102
RTVSPropertyOp31
 70
     1
102
RTVSPropertyOp32
 70
     1
  0
XRECORD
  5
37E1
102
{ACAD_REACTORS
330
37E0
102
}
330
37E0
100
AcDbXrecord
280
     1
102
RTVSPropertyOp0
 70
     1
102
RTVSPropertyOp1
 70
     1
102
RTVSPropertyOp2
 70
     1
102
RTVSPropertyOp3
 70
     1
102
RTVSPropertyOp4
 70
     1
102
RTVSPropertyOp5
 70
     1
102
RTVSPropertyOp6
 70
     1
102
RTVSPropertyOp7
 70
     1
102
RTVSPropertyOp8
 70
     1
102
RTVSPropertyOp9
 70
     1
102
RTVSPropertyOp10
 70
     1
102
RTVSPropertyOp11
 70
     1
102
RTVSPropertyOp12
 70
     1
102
RTVSPropertyOp13
 70
     1
102
RTVSPropertyOp14
 70
     1
102
RTVSPropertyOp15
 70
     1
102
RTVSPropertyOp16
 70
     1
102
RTVSPropertyOp17
 70
     1
102
RTVSPropertyOp18
 70
     1
102
RTVSPropertyOp19
 70
     1
102
RTVSPropertyOp20
 70
     1
102
RTVSPropertyOp21
 70
     1
102
RTVSPropertyOp22
 70
     1
102
RTVSPropertyOp23
 70
     1
102
RTVSPropertyOp24
 70
     1
102
RTVSPropertyOp25
 70
     1
102
RTVSPropertyOp26
 70
     1
102
RTVSPropertyOp27
 70
     1
102
RTVSPropertyOp28
 70
     1
102
RTVSPropertyOp29
 70
     1
102
RTVSPropertyOp30
 70
     1
102
RTVSPropertyOp31
 70
     1
102
RTVSPropertyOp32
 70
     1
  0
XRECORD
  5
37FB
102
{ACAD_REACTORS
330
37FA
102
}
330
37FA
100
AcDbXrecord
280
     1
102
RTVSPropertyOp0
 70
     0
102
RTVSPropertyOp1
 70
     0
102
RTVSPropertyOp2
 70
     0
102
RTVSPropertyOp3
 70
     0
102
RTVSPropertyOp4
 70
     0
102
RTVSPropertyOp5
 70
     0
102
RTVSPropertyOp6
 70
     0
102
RTVSPropertyOp7
 70
     0
102
RTVSPropertyOp8
 70
     0
102
RTVSPropertyOp9
 70
     0
102
RTVSPropertyOp10
 70
     0
102
RTVSPropertyOp11
 70
     0
102
RTVSPropertyOp12
 70
     0
102
RTVSPropertyOp13
 70
     0
102
RTVSPropertyOp14
 70
     2
102
RTVSPropertyOp15
 70
     0
102
RTVSPropertyOp16
 70
     0
102
RTVSPropertyOp17
 70
     0
102
RTVSPropertyOp18
 70
     0
102
RTVSPropertyOp19
 70
     0
102
RTVSPropertyOp20
 70
     0
102
RTVSPropertyOp21
 70
     0
102
RTVSPropertyOp22
 70
     0
102
RTVSPropertyOp23
 70
     0
102
RTVSPropertyOp24
 70
     0
102
RTVSPropertyOp25
 70
     0
102
RTVSPropertyOp26
 70
     0
102
RTVSPropertyOp27
 70
     0
102
RTVSPropertyOp28
 70
     0
102
RTVSPropertyOp29
 70
     0
102
RTVSPropertyOp30
 70
     0
102
RTVSPropertyOp31
 70
     0
102
RTVSPropertyOp32
 70
     0
  0
XRECORD
  5
37E9
102
{ACAD_REACTORS
330
37E8
102
}
330
37E8
100
AcDbXrecord
280
     1
102
RTVSPropertyOp0
 70
     1
102
RTVSPropertyOp1
 70
     1
102
RTVSPropertyOp2
 70
     1
102
RTVSPropertyOp3
 70
     1
102
RTVSPropertyOp4
 70
     1
102
RTVSPropertyOp5
 70
     1
102
RTVSPropertyOp6
 70
     1
102
RTVSPropertyOp7
 70
     1
102
RTVSPropertyOp8
 70
     1
102
RTVSPropertyOp9
 70
     1
102
RTVSPropertyOp10
 70
     1
102
RTVSPropertyOp11
 70
     1
102
RTVSPropertyOp12
 70
     1
102
RTVSPropertyOp13
 70
     1
102
RTVSPropertyOp14
 70
     1
102
RTVSPropertyOp15
 70
     1
102
RTVSPropertyOp16
 70
     1
102
RTVSPropertyOp17
 70
     1
102
RTVSPropertyOp18
 70
     1
102
RTVSPropertyOp19
 70
     1
102
RTVSPropertyOp20
 70
     1
102
RTVSPropertyOp21
 70
     1
102
RTVSPropertyOp22
 70
     1
102
RTVSPropertyOp23
 70
     1
102
RTVSPropertyOp24
 70
     1
102
RTVSPropertyOp25
 70
     1
102
RTVSPropertyOp26
 70
     1
102
RTVSPropertyOp27
 70
     1
102
RTVSPropertyOp28
 70
     1
102
RTVSPropertyOp29
 70
     1
102
RTVSPropertyOp30
 70
     1
102
RTVSPropertyOp31
 70
     1
102
RTVSPropertyOp32
 70
     1
  0
XRECORD
  5
37CD
102
{ACAD_REACTORS
330
37CC
102
}
330
37CC
100
AcDbXrecord
280
     1
102
RTVSPropertyOp0
 70
     1
102
RTVSPropertyOp1
 70
     1
102
RTVSPropertyOp2
 70
     1
102
RTVSPropertyOp3
 70
     1
102
RTVSPropertyOp4
 70
     1
102
RTVSPropertyOp5
 70
     1
102
RTVSPropertyOp6
 70
     1
102
RTVSPropertyOp7
 70
     1
102
RTVSPropertyOp8
 70
     1
102
RTVSPropertyOp9
 70
     1
102
RTVSPropertyOp10
 70
     1
102
RTVSPropertyOp11
 70
     1
102
RTVSPropertyOp12
 70
     1
102
RTVSPropertyOp13
 70
     1
102
RTVSPropertyOp14
 70
     1
102
RTVSPropertyOp15
 70
     1
102
RTVSPropertyOp16
 70
     1
102
RTVSPropertyOp17
 70
     1
102
RTVSPropertyOp18
 70
     1
102
RTVSPropertyOp19
 70
     1
102
RTVSPropertyOp20
 70
     1
102
RTVSPropertyOp21
 70
     1
102
RTVSPropertyOp22
 70
     1
102
RTVSPropertyOp23
 70
     1
102
RTVSPropertyOp24
 70
     1
102
RTVSPropertyOp25
 70
     1
102
RTVSPropertyOp26
 70
     1
102
RTVSPropertyOp27
 70
     1
102
RTVSPropertyOp28
 70
     1
102
RTVSPropertyOp29
 70
     1
102
RTVSPropertyOp30
 70
     1
102
RTVSPropertyOp31
 70
     1
102
RTVSPropertyOp32
 70
     1
  0
XRECORD
  5
37CF
102
{ACAD_REACTORS
330
37CE
102
}
330
37CE
100
AcDbXrecord
280
     1
102
RTVSPropertyOp0
 70
     1
102
RTVSPropertyOp1
 70
     1
102
RTVSPropertyOp2
 70
     1
102
RTVSPropertyOp3
 70
     1
102
RTVSPropertyOp4
 70
     1
102
RTVSPropertyOp5
 70
     1
102
RTVSPropertyOp6
 70
     1
102
RTVSPropertyOp7
 70
     1
102
RTVSPropertyOp8
 70
     1
102
RTVSPropertyOp9
 70
     1
102
RTVSPropertyOp10
 70
     1
102
RTVSPropertyOp11
 70
     1
102
RTVSPropertyOp12
 70
     1
102
RTVSPropertyOp13
 70
     1
102
RTVSPropertyOp14
 70
     1
102
RTVSPropertyOp15
 70
     1
102
RTVSPropertyOp16
 70
     1
102
RTVSPropertyOp17
 70
     1
102
RTVSPropertyOp18
 70
     1
102
RTVSPropertyOp19
 70
     1
102
RTVSPropertyOp20
 70
     1
102
RTVSPropertyOp21
 70
     1
102
RTVSPropertyOp22
 70
     1
102
RTVSPropertyOp23
 70
     1
102
RTVSPropertyOp24
 70
     1
102
RTVSPropertyOp25
 70
     1
102
RTVSPropertyOp26
 70
     1
102
RTVSPropertyOp27
 70
     1
102
RTVSPropertyOp28
 70
     1
102
RTVSPropertyOp29
 70
     1
102
RTVSPropertyOp30
 70
     1
102
RTVSPropertyOp31
 70
     1
102
RTVSPropertyOp32
 70
     1
  0
XRECORD
  5
37D1
102
{ACAD_REACTORS
330
37D0
102
}
330
37D0
100
AcDbXrecord
280
     1
102
RTVSPropertyOp0
 70
     1
102
RTVSPropertyOp1
 70
     1
102
RTVSPropertyOp2
 70
     1
102
RTVSPropertyOp3
 70
     1
102
RTVSPropertyOp4
 70
     1
102
RTVSPropertyOp5
 70
     1
102
RTVSPropertyOp6
 70
     1
102
RTVSPropertyOp7
 70
     1
102
RTVSPropertyOp8
 70
     1
102
RTVSPropertyOp9
 70
     1
102
RTVSPropertyOp10
 70
     1
102
RTVSPropertyOp11
 70
     1
102
RTVSPropertyOp12
 70
     1
102
RTVSPropertyOp13
 70
     1
102
RTVSPropertyOp14
 70
     1
102
RTVSPropertyOp15
 70
     1
102
RTVSPropertyOp16
 70
     1
102
RTVSPropertyOp17
 70
     1
102
RTVSPropertyOp18
 70
     1
102
RTVSPropertyOp19
 70
     1
102
RTVSPropertyOp20
 70
     1
102
RTVSPropertyOp21
 70
     1
102
RTVSPropertyOp22
 70
     1
102
RTVSPropertyOp23
 70
     1
102
RTVSPropertyOp24
 70
     1
102
RTVSPropertyOp25
 70
     1
102
RTVSPropertyOp26
 70
     1
102
RTVSPropertyOp27
 70
     1
102
RTVSPropertyOp28
 70
     1
102
RTVSPropertyOp29
 70
     1
102
RTVSPropertyOp30
 70
     1
102
RTVSPropertyOp31
 70
     1
102
RTVSPropertyOp32
 70
     1
  0
XRECORD
  5
37D3
102
{ACAD_REACTORS
330
37D2
102
}
330
37D2
100
AcDbXrecord
280
     1
102
RTVSPropertyOp0
 70
     1
102
RTVSPropertyOp1
 70
     1
102
RTVSPropertyOp2
 70
     1
102
RTVSPropertyOp3
 70
     1
102
RTVSPropertyOp4
 70
     1
102
RTVSPropertyOp5
 70
     1
102
RTVSPropertyOp6
 70
     1
102
RTVSPropertyOp7
 70
     1
102
RTVSPropertyOp8
 70
     1
102
RTVSPropertyOp9
 70
     1
102
RTVSPropertyOp10
 70
     1
102
RTVSPropertyOp11
 70
     1
102
RTVSPropertyOp12
 70
     1
102
RTVSPropertyOp13
 70
     1
102
RTVSPropertyOp14
 70
     1
102
RTVSPropertyOp15
 70
     1
102
RTVSPropertyOp16
 70
     1
102
RTVSPropertyOp17
 70
     1
102
RTVSPropertyOp18
 70
     1
102
RTVSPropertyOp19
 70
     1
102
RTVSPropertyOp20
 70
     1
102
RTVSPropertyOp21
 70
     1
102
RTVSPropertyOp22
 70
     1
102
RTVSPropertyOp23
 70
     1
102
RTVSPropertyOp24
 70
     1
102
RTVSPropertyOp25
 70
     1
102
RTVSPropertyOp26
 70
     1
102
RTVSPropertyOp27
 70
     1
102
RTVSPropertyOp28
 70
     1
102
RTVSPropertyOp29
 70
     1
102
RTVSPropertyOp30
 70
     1
102
RTVSPropertyOp31
 70
     1
102
RTVSPropertyOp32
 70
     1
  0
XRECORD
  5
37DB
102
{ACAD_REACTORS
330
37DA
102
}
330
37DA
100
AcDbXrecord
280
     1
102
RTVSPropertyOp0
 70
     1
102
RTVSPropertyOp1
 70
     1
102
RTVSPropertyOp2
 70
     1
102
RTVSPropertyOp3
 70
     1
102
RTVSPropertyOp4
 70
     1
102
RTVSPropertyOp5
 70
     1
102
RTVSPropertyOp6
 70
     1
102
RTVSPropertyOp7
 70
     1
102
RTVSPropertyOp8
 70
     1
102
RTVSPropertyOp9
 70
     1
102
RTVSPropertyOp10
 70
     1
102
RTVSPropertyOp11
 70
     1
102
RTVSPropertyOp12
 70
     1
102
RTVSPropertyOp13
 70
     1
102
RTVSPropertyOp14
 70
     1
102
RTVSPropertyOp15
 70
     1
102
RTVSPropertyOp16
 70
     1
102
RTVSPropertyOp17
 70
     1
102
RTVSPropertyOp18
 70
     1
102
RTVSPropertyOp19
 70
     1
102
RTVSPropertyOp20
 70
     1
102
RTVSPropertyOp21
 70
     1
102
RTVSPropertyOp22
 70
     1
102
RTVSPropertyOp23
 70
     1
102
RTVSPropertyOp24
 70
     1
102
RTVSPropertyOp25
 70
     1
102
RTVSPropertyOp26
 70
     1
102
RTVSPropertyOp27
 70
     1
102
RTVSPropertyOp28
 70
     1
102
RTVSPropertyOp29
 70
     1
102
RTVSPropertyOp30
 70
     1
102
RTVSPropertyOp31
 70
     1
102
RTVSPropertyOp32
 70
     1
  0
XRECORD
  5
37F7
102
{ACAD_REACTORS
330
37F6
102
}
330
37F6
100
AcDbXrecord
280
     1
102
RTVSPropertyOp0
 70
     0
102
RTVSPropertyOp1
 70
     0
102
RTVSPropertyOp2
 70
     0
102
RTVSPropertyOp3
 70
     0
102
RTVSPropertyOp4
 70
     0
102
RTVSPropertyOp5
 70
     0
102
RTVSPropertyOp6
 70
     0
102
RTVSPropertyOp7
 70
     0
102
RTVSPropertyOp8
 70
     0
102
RTVSPropertyOp9
 70
     0
102
RTVSPropertyOp10
 70
     0
102
RTVSPropertyOp11
 70
     0
102
RTVSPropertyOp12
 70
     0
102
RTVSPropertyOp13
 70
     0
102
RTVSPropertyOp14
 70
     2
102
RTVSPropertyOp15
 70
     0
102
RTVSPropertyOp16
 70
     0
102
RTVSPropertyOp17
 70
     0
102
RTVSPropertyOp18
 70
     0
102
RTVSPropertyOp19
 70
     0
102
RTVSPropertyOp20
 70
     0
102
RTVSPropertyOp21
 70
     0
102
RTVSPropertyOp22
 70
     0
102
RTVSPropertyOp23
 70
     0
102
RTVSPropertyOp24
 70
     0
102
RTVSPropertyOp25
 70
     0
102
RTVSPropertyOp26
 70
     0
102
RTVSPropertyOp27
 70
     0
102
RTVSPropertyOp28
 70
     0
102
RTVSPropertyOp29
 70
     0
102
RTVSPropertyOp30
 70
     0
102
RTVSPropertyOp31
 70
     0
102
RTVSPropertyOp32
 70
     0
  0
XRECORD
  5
37E7
102
{ACAD_REACTORS
330
37E6
102
}
330
37E6
100
AcDbXrecord
280
     1
102
RTVSPropertyOp0
 70
     1
102
RTVSPropertyOp1
 70
     1
102
RTVSPropertyOp2
 70
     1
102
RTVSPropertyOp3
 70
     1
102
RTVSPropertyOp4
 70
     1
102
RTVSPropertyOp5
 70
     1
102
RTVSPropertyOp6
 70
     1
102
RTVSPropertyOp7
 70
     1
102
RTVSPropertyOp8
 70
     1
102
RTVSPropertyOp9
 70
     1
102
RTVSPropertyOp10
 70
     1
102
RTVSPropertyOp11
 70
     1
102
RTVSPropertyOp12
 70
     1
102
RTVSPropertyOp13
 70
     1
102
RTVSPropertyOp14
 70
     1
102
RTVSPropertyOp15
 70
     1
102
RTVSPropertyOp16
 70
     1
102
RTVSPropertyOp17
 70
     1
102
RTVSPropertyOp18
 70
     1
102
RTVSPropertyOp19
 70
     1
102
RTVSPropertyOp20
 70
     1
102
RTVSPropertyOp21
 70
     1
102
RTVSPropertyOp22
 70
     1
102
RTVSPropertyOp23
 70
     1
102
RTVSPropertyOp24
 70
     1
102
RTVSPropertyOp25
 70
     1
102
RTVSPropertyOp26
 70
     1
102
RTVSPropertyOp27
 70
     1
102
RTVSPropertyOp28
 70
     1
102
RTVSPropertyOp29
 70
     1
102
RTVSPropertyOp30
 70
     1
102
RTVSPropertyOp31
 70
     1
102
RTVSPropertyOp32
 70
     1
  0
XRECORD
  5
37F9
102
{ACAD_REACTORS
330
37F8
102
}
330
37F8
100
AcDbXrecord
280
     1
102
RTVSPropertyOp0
 70
     0
102
RTVSPropertyOp1
 70
     0
102
RTVSPropertyOp2
 70
     0
102
RTVSPropertyOp3
 70
     0
102
RTVSPropertyOp4
 70
     0
102
RTVSPropertyOp5
 70
     0
102
RTVSPropertyOp6
 70
     0
102
RTVSPropertyOp7
 70
     0
102
RTVSPropertyOp8
 70
     0
102
RTVSPropertyOp9
 70
     0
102
RTVSPropertyOp10
 70
     0
102
RTVSPropertyOp11
 70
     0
102
RTVSPropertyOp12
 70
     0
102
RTVSPropertyOp13
 70
     0
102
RTVSPropertyOp14
 70
     2
102
RTVSPropertyOp15
 70
     0
102
RTVSPropertyOp16
 70
     0
102
RTVSPropertyOp17
 70
     0
102
RTVSPropertyOp18
 70
     0
102
RTVSPropertyOp19
 70
     0
102
RTVSPropertyOp20
 70
     0
102
RTVSPropertyOp21
 70
     0
102
RTVSPropertyOp22
 70
     0
102
RTVSPropertyOp23
 70
     0
102
RTVSPropertyOp24
 70
     0
102
RTVSPropertyOp25
 70
     0
102
RTVSPropertyOp26
 70
     0
102
RTVSPropertyOp27
 70
     0
102
RTVSPropertyOp28
 70
     0
102
RTVSPropertyOp29
 70
     0
102
RTVSPropertyOp30
 70
     0
102
RTVSPropertyOp31
 70
     0
102
RTVSPropertyOp32
 70
     0
  0
XRECORD
  5
37DF
102
{ACAD_REACTORS
330
37DE
102
}
330
37DE
100
AcDbXrecord
280
     1
102
RTVSPropertyOp0
 70
     1
102
RTVSPropertyOp1
 70
     1
102
RTVSPropertyOp2
 70
     1
102
RTVSPropertyOp3
 70
     1
102
RTVSPropertyOp4
 70
     1
102
RTVSPropertyOp5
 70
     1
102
RTVSPropertyOp6
 70
     1
102
RTVSPropertyOp7
 70
     1
102
RTVSPropertyOp8
 70
     1
102
RTVSPropertyOp9
 70
     1
102
RTVSPropertyOp10
 70
     1
102
RTVSPropertyOp11
 70
     1
102
RTVSPropertyOp12
 70
     1
102
RTVSPropertyOp13
 70
     1
102
RTVSPropertyOp14
 70
     1
102
RTVSPropertyOp15
 70
     1
102
RTVSPropertyOp16
 70
     1
102
RTVSPropertyOp17
 70
     1
102
RTVSPropertyOp18
 70
     1
102
RTVSPropertyOp19
 70
     1
102
RTVSPropertyOp20
 70
     1
102
RTVSPropertyOp21
 70
     1
102
RTVSPropertyOp22
 70
     1
102
RTVSPropertyOp23
 70
     1
102
RTVSPropertyOp24
 70
     1
102
RTVSPropertyOp25
 70
     1
102
RTVSPropertyOp26
 70
     1
102
RTVSPropertyOp27
 70
     1
102
RTVSPropertyOp28
 70
     1
102
RTVSPropertyOp29
 70
     1
102
RTVSPropertyOp30
 70
     1
102
RTVSPropertyOp31
 70
     1
102
RTVSPropertyOp32
 70
     1
  0
XRECORD
  5
37F5
102
{ACAD_REACTORS
330
37F4
102
}
330
37F4
100
AcDbXrecord
280
     1
102
RTVSPropertyOp0
 70
     1
102
RTVSPropertyOp1
 70
     1
102
RTVSPropertyOp2
 70
     1
102
RTVSPropertyOp3
 70
     1
102
RTVSPropertyOp4
 70
     1
102
RTVSPropertyOp5
 70
     1
102
RTVSPropertyOp6
 70
     1
102
RTVSPropertyOp7
 70
     1
102
RTVSPropertyOp8
 70
     1
102
RTVSPropertyOp9
 70
     1
102
RTVSPropertyOp10
 70
     1
102
RTVSPropertyOp11
 70
     1
102
RTVSPropertyOp12
 70
     1
102
RTVSPropertyOp13
 70
     1
102
RTVSPropertyOp14
 70
     1
102
RTVSPropertyOp15
 70
     1
102
RTVSPropertyOp16
 70
     1
102
RTVSPropertyOp17
 70
     1
102
RTVSPropertyOp18
 70
     1
102
RTVSPropertyOp19
 70
     1
102
RTVSPropertyOp20
 70
     1
102
RTVSPropertyOp21
 70
     1
102
RTVSPropertyOp22
 70
     1
102
RTVSPropertyOp23
 70
     1
102
RTVSPropertyOp24
 70
     1
102
RTVSPropertyOp25
 70
     1
102
RTVSPropertyOp26
 70
     1
102
RTVSPropertyOp27
 70
     1
102
RTVSPropertyOp28
 70
     1
102
RTVSPropertyOp29
 70
     1
102
RTVSPropertyOp30
 70
     1
102
RTVSPropertyOp31
 70
     1
102
RTVSPropertyOp32
 70
     1
  0
XRECORD
  5
37F3
102
{ACAD_REACTORS
330
37F2
102
}
330
37F2
100
AcDbXrecord
280
     1
102
RTVSPropertyOp0
 70
     1
102
RTVSPropertyOp1
 70
     1
102
RTVSPropertyOp2
 70
     1
102
RTVSPropertyOp3
 70
     1
102
RTVSPropertyOp4
 70
     1
102
RTVSPropertyOp5
 70
     1
102
RTVSPropertyOp6
 70
     1
102
RTVSPropertyOp7
 70
     1
102
RTVSPropertyOp8
 70
     1
102
RTVSPropertyOp9
 70
     1
102
RTVSPropertyOp10
 70
     1
102
RTVSPropertyOp11
 70
     1
102
RTVSPropertyOp12
 70
     1
102
RTVSPropertyOp13
 70
     1
102
RTVSPropertyOp14
 70
     1
102
RTVSPropertyOp15
 70
     1
102
RTVSPropertyOp16
 70
     1
102
RTVSPropertyOp17
 70
     1
102
RTVSPropertyOp18
 70
     1
102
RTVSPropertyOp19
 70
     1
102
RTVSPropertyOp20
 70
     1
102
RTVSPropertyOp21
 70
     1
102
RTVSPropertyOp22
 70
     1
102
RTVSPropertyOp23
 70
     1
102
RTVSPropertyOp24
 70
     1
102
RTVSPropertyOp25
 70
     1
102
RTVSPropertyOp26
 70
     1
102
RTVSPropertyOp27
 70
     1
102
RTVSPropertyOp28
 70
     1
102
RTVSPropertyOp29
 70
     1
102
RTVSPropertyOp30
 70
     1
102
RTVSPropertyOp31
 70
     1
102
RTVSPropertyOp32
 70
     1
  0
XRECORD
  5
37ED
102
{ACAD_REACTORS
330
37EC
102
}
330
37EC
100
AcDbXrecord
280
     1
102
RTVSPropertyOp0
 70
     1
102
RTVSPropertyOp1
 70
     1
102
RTVSPropertyOp2
 70
     1
102
RTVSPropertyOp3
 70
     1
102
RTVSPropertyOp4
 70
     1
102
RTVSPropertyOp5
 70
     1
102
RTVSPropertyOp6
 70
     1
102
RTVSPropertyOp7
 70
     1
102
RTVSPropertyOp8
 70
     1
102
RTVSPropertyOp9
 70
     1
102
RTVSPropertyOp10
 70
     1
102
RTVSPropertyOp11
 70
     1
102
RTVSPropertyOp12
 70
     1
102
RTVSPropertyOp13
 70
     1
102
RTVSPropertyOp14
 70
     1
102
RTVSPropertyOp15
 70
     1
102
RTVSPropertyOp16
 70
     1
102
RTVSPropertyOp17
 70
     1
102
RTVSPropertyOp18
 70
     1
102
RTVSPropertyOp19
 70
     1
102
RTVSPropertyOp20
 70
     1
102
RTVSPropertyOp21
 70
     1
102
RTVSPropertyOp22
 70
     1
102
RTVSPropertyOp23
 70
     1
102
RTVSPropertyOp24
 70
     1
102
RTVSPropertyOp25
 70
     1
102
RTVSPropertyOp26
 70
     1
102
RTVSPropertyOp27
 70
     1
102
RTVSPropertyOp28
 70
     1
102
RTVSPropertyOp29
 70
     1
102
RTVSPropertyOp30
 70
     1
102
RTVSPropertyOp31
 70
     1
102
RTVSPropertyOp32
 70
     1
  0
XRECORD
  5
37EF
102
{ACAD_REACTORS
330
37EE
102
}
330
37EE
100
AcDbXrecord
280
     1
102
RTVSPropertyOp0
 70
     1
102
RTVSPropertyOp1
 70
     1
102
RTVSPropertyOp2
 70
     1
102
RTVSPropertyOp3
 70
     1
102
RTVSPropertyOp4
 70
     1
102
RTVSPropertyOp5
 70
     1
102
RTVSPropertyOp6
 70
     1
102
RTVSPropertyOp7
 70
     1
102
RTVSPropertyOp8
 70
     1
102
RTVSPropertyOp9
 70
     1
102
RTVSPropertyOp10
 70
     1
102
RTVSPropertyOp11
 70
     1
102
RTVSPropertyOp12
 70
     1
102
RTVSPropertyOp13
 70
     1
102
RTVSPropertyOp14
 70
     1
102
RTVSPropertyOp15
 70
     1
102
RTVSPropertyOp16
 70
     1
102
RTVSPropertyOp17
 70
     1
102
RTVSPropertyOp18
 70
     1
102
RTVSPropertyOp19
 70
     1
102
RTVSPropertyOp20
 70
     1
102
RTVSPropertyOp21
 70
     1
102
RTVSPropertyOp22
 70
     1
102
RTVSPropertyOp23
 70
     1
102
RTVSPropertyOp24
 70
     1
102
RTVSPropertyOp25
 70
     1
102
RTVSPropertyOp26
 70
     1
102
RTVSPropertyOp27
 70
     1
102
RTVSPropertyOp28
 70
     1
102
RTVSPropertyOp29
 70
     1
102
RTVSPropertyOp30
 70
     1
102
RTVSPropertyOp31
 70
     1
102
RTVSPropertyOp32
 70
     1
  0
XRECORD
  5
37E5
102
{ACAD_REACTORS
330
37E4
102
}
330
37E4
100
AcDbXrecord
280
     1
102
RTVSPropertyOp0
 70
     1
102
RTVSPropertyOp1
 70
     1
102
RTVSPropertyOp2
 70
     1
102
RTVSPropertyOp3
 70
     1
102
RTVSPropertyOp4
 70
     1
102
RTVSPropertyOp5
 70
     1
102
RTVSPropertyOp6
 70
     1
102
RTVSPropertyOp7
 70
     1
102
RTVSPropertyOp8
 70
     1
102
RTVSPropertyOp9
 70
     1
102
RTVSPropertyOp10
 70
     1
102
RTVSPropertyOp11
 70
     1
102
RTVSPropertyOp12
 70
     1
102
RTVSPropertyOp13
 70
     1
102
RTVSPropertyOp14
 70
     1
102
RTVSPropertyOp15
 70
     1
102
RTVSPropertyOp16
 70
     1
102
RTVSPropertyOp17
 70
     1
102
RTVSPropertyOp18
 70
     1
102
RTVSPropertyOp19
 70
     1
102
RTVSPropertyOp20
 70
     1
102
RTVSPropertyOp21
 70
     1
102
RTVSPropertyOp22
 70
     1
102
RTVSPropertyOp23
 70
     1
102
RTVSPropertyOp24
 70
     1
102
RTVSPropertyOp25
 70
     1
102
RTVSPropertyOp26
 70
     1
102
RTVSPropertyOp27
 70
     1
102
RTVSPropertyOp28
 70
     1
102
RTVSPropertyOp29
 70
     1
102
RTVSPropertyOp30
 70
     1
102
RTVSPropertyOp31
 70
     1
102
RTVSPropertyOp32
 70
     1
  0
XRECORD
  5
37D9
102
{ACAD_REACTORS
330
37D8
102
}
330
37D8
100
AcDbXrecord
280
     1
102
RTVSPropertyOp0
 70
     1
102
RTVSPropertyOp1
 70
     1
102
RTVSPropertyOp2
 70
     1
102
RTVSPropertyOp3
 70
     1
102
RTVSPropertyOp4
 70
     1
102
RTVSPropertyOp5
 70
     1
102
RTVSPropertyOp6
 70
     1
102
RTVSPropertyOp7
 70
     1
102
RTVSPropertyOp8
 70
     1
102
RTVSPropertyOp9
 70
     1
102
RTVSPropertyOp10
 70
     1
102
RTVSPropertyOp11
 70
     1
102
RTVSPropertyOp12
 70
     1
102
RTVSPropertyOp13
 70
     1
102
RTVSPropertyOp14
 70
     1
102
RTVSPropertyOp15
 70
     1
102
RTVSPropertyOp16
 70
     1
102
RTVSPropertyOp17
 70
     1
102
RTVSPropertyOp18
 70
     1
102
RTVSPropertyOp19
 70
     1
102
RTVSPropertyOp20
 70
     1
102
RTVSPropertyOp21
 70
     1
102
RTVSPropertyOp22
 70
     1
102
RTVSPropertyOp23
 70
     1
102
RTVSPropertyOp24
 70
     1
102
RTVSPropertyOp25
 70
     1
102
RTVSPropertyOp26
 70
     1
102
RTVSPropertyOp27
 70
     1
102
RTVSPropertyOp28
 70
     1
102
RTVSPropertyOp29
 70
     1
102
RTVSPropertyOp30
 70
     1
102
RTVSPropertyOp31
 70
     1
102
RTVSPropertyOp32
 70
     1
  0
XRECORD
  5
37F1
102
{ACAD_REACTORS
330
37F0
102
}
330
37F0
100
AcDbXrecord
280
     1
102
RTVSPropertyOp0
 70
     1
102
RTVSPropertyOp1
 70
     1
102
RTVSPropertyOp2
 70
     1
102
RTVSPropertyOp3
 70
     1
102
RTVSPropertyOp4
 70
     1
102
RTVSPropertyOp5
 70
     1
102
RTVSPropertyOp6
 70
     1
102
RTVSPropertyOp7
 70
     1
102
RTVSPropertyOp8
 70
     1
102
RTVSPropertyOp9
 70
     1
102
RTVSPropertyOp10
 70
     1
102
RTVSPropertyOp11
 70
     1
102
RTVSPropertyOp12
 70
     1
102
RTVSPropertyOp13
 70
     1
102
RTVSPropertyOp14
 70
     1
102
RTVSPropertyOp15
 70
     1
102
RTVSPropertyOp16
 70
     1
102
RTVSPropertyOp17
 70
     1
102
RTVSPropertyOp18
 70
     1
102
RTVSPropertyOp19
 70
     1
102
RTVSPropertyOp20
 70
     1
102
RTVSPropertyOp21
 70
     1
102
RTVSPropertyOp22
 70
     1
102
RTVSPropertyOp23
 70
     1
102
RTVSPropertyOp24
 70
     1
102
RTVSPropertyOp25
 70
     1
102
RTVSPropertyOp26
 70
     1
102
RTVSPropertyOp27
 70
     1
102
RTVSPropertyOp28
 70
     1
102
RTVSPropertyOp29
 70
     1
102
RTVSPropertyOp30
 70
     1
102
RTVSPropertyOp31
 70
     1
102
RTVSPropertyOp32
 70
     1
  0
ENDSEC
  0
EOF
