  0
SECTION
  2
HEADER
  9
$ACADVER
  1
AC1015
  9
$ACADMAINTVER
 70
    20
  9
$DWGCODEPAGE
  3
ANSI_932
  9
$INSBASE
 10
0.0
 20
0.0
 30
0.0
  9
$EXTMIN
 10
90.66205182320732
 20
-4.187131610858159
 30
-0.0015258207003583
  9
$EXTMAX
 10
772.3657144745438
 20
633.4511216288904
 30
0.0000000349246037
  9
$LIMMIN
 10
0.0
 20
0.0
  9
$LIMMAX
 10
0.0
 20
0.0
  9
$ORTHOMODE
 70
     1
  9
$REGENMODE
 70
     1
  9
$FILLMODE
 70
     1
  9
$QTEXTMODE
 70
     0
  9
$MIRRTEXT
 70
     1
  9
$LTSCALE
 40
1.0
  9
$ATTMODE
 70
     1
  9
$TEXTSIZE
 40
0.0
  9
$TRACEWID
 40
0.05
  9
$TEXTSTYLE
  7
STANDARD
  9
$CLAYER
  8
MEASURE
  9
$CELTYPE
  6
CONTINUOUS
  9
$CECOLOR
 62
   256
  9
$CELTSCALE
 40
1.0
  9
$DISPSILH
 70
     0
  9
$DIMSCALE
 40
4.0
  9
$DIMASZ
 40
2.5
  9
$DIMEXO
 40
1.0
  9
$DIMDLI
 40
0.38
  9
$DIMRND
 40
0.0
  9
$DIMDLE
 40
0.0
  9
$DIMEXE
 40
1.0
  9
$DIMTP
 40
0.0
  9
$DIMTM
 40
0.0
  9
$DIMTXT
 40
3.0
  9
$DIMCEN
 40
-2.0
  9
$DIMTSZ
 40
0.0
  9
$DIMTOL
 70
     0
  9
$DIMLIM
 70
     0
  9
$DIMTIH
 70
     0
  9
$DIMTOH
 70
     0
  9
$DIMSE1
 70
     0
  9
$DIMSE2
 70
     0
  9
$DIMTAD
 70
     1
  9
$DIMZIN
 70
     8
  9
$DIMBLK
  1

  9
$DIMASO
 70
     1
  9
$DIMSHO
 70
     1
  9
$DIMPOST
  1

  9
$DIMAPOST
  1

  9
$DIMALT
 70
     0
  9
$DIMALTD
 70
     2
  9
$DIMALTF
 40
25.4
  9
$DIMLFAC
 40
1.0
  9
$DIMTOFL
 70
     1
  9
$DIMTVP
 40
0.0
  9
$DIMTIX
 70
     0
  9
$DIMSOXD
 70
     0
  9
$DIMSAH
 70
     0
  9
$DIMBLK1
  1

  9
$DIMBLK2
  1

  9
$DIMSTYLE
  2
S＝1／4
  9
$DIMCLRD
 70
     9
  9
$DIMCLRE
 70
     9
  9
$DIMCLRT
 70
   132
  9
$DIMTFAC
 40
1.0
  9
$DIMGAP
 40
0.5
  9
$DIMJUST
 70
     0
  9
$DIMSD1
 70
     0
  9
$DIMSD2
 70
     0
  9
$DIMTOLJ
 70
     1
  9
$DIMTZIN
 70
     8
  9
$DIMALTZ
 70
     0
  9
$DIMALTTZ
 70
     0
  9
$DIMUPT
 70
     0
  9
$DIMDEC
 70
     4
  9
$DIMTDEC
 70
     4
  9
$DIMALTU
 70
     2
  9
$DIMALTTD
 70
     2
  9
$DIMTXSTY
  7
AD-STANDARD
  9
$DIMAUNIT
 70
     0
  9
$DIMADEC
 70
     4
  9
$DIMALTRND
 40
0.0
  9
$DIMAZIN
 70
     2
  9
$DIMDSEP
 70
    46
  9
$DIMATFIT
 70
     3
  9
$DIMFRAC
 70
     0
  9
$DIMLDRBLK
  1

  9
$DIMLUNIT
 70
     2
  9
$DIMLWD
 70
    -2
  9
$DIMLWE
 70
    -2
  9
$DIMTMOVE
 70
     0
  9
$LUNITS
 70
     2
  9
$LUPREC
 70
     4
  9
$SKETCHINC
 40
0.1
  9
$FILLETRAD
 40
0.0
  9
$AUNITS
 70
     0
  9
$AUPREC
 70
     0
  9
$MENU
  1
acad
  9
$ELEVATION
 40
0.0
  9
$PELEVATION
 40
0.0
  9
$THICKNESS
 40
0.0
  9
$LIMCHECK
 70
     0
  9
$CHAMFERA
 40
0.0
  9
$CHAMFERB
 40
0.0
  9
$CHAMFERC
 40
0.0
  9
$CHAMFERD
 40
0.0
  9
$SKPOLY
 70
     0
  9
$TDCREATE
 40
2314168.288031782
  9
$TDUCREATE
 40
2314167.913031782
  9
$TDUPDATE
 40
2459529.410792129
  9
$TDUUPDATE
 40
2459529.035792130
  9
$TDINDWG
 40
0.0108921875
  9
$TDUSRTIMER
 40
0.0108887384
  9
$USRTIMER
 70
     1
  9
$ANGBASE
 50
0.0
  9
$ANGDIR
 70
     0
  9
$PDMODE
 70
     0
  9
$PDSIZE
 40
0.0
  9
$PLINEWID
 40
0.0
  9
$SPLFRAME
 70
     0
  9
$SPLINETYPE
 70
     6
  9
$SPLINESEGS
 70
     8
  9
$HANDSEED
  5
4FA
  9
$SURFTAB1
 70
     6
  9
$SURFTAB2
 70
     6
  9
$SURFTYPE
 70
     6
  9
$SURFU
 70
     6
  9
$SURFV
 70
     6
  9
$UCSBASE
  2

  9
$UCSNAME
  2

  9
$UCSORG
 10
0.0
 20
0.0
 30
0.0
  9
$UCSXDIR
 10
1.0
 20
0.0
 30
0.0
  9
$UCSYDIR
 10
0.0
 20
1.0
 30
0.0
  9
$UCSORTHOREF
  2

  9
$UCSORTHOVIEW
 70
     0
  9
$UCSORGTOP
 10
0.0
 20
0.0
 30
0.0
  9
$UCSORGBOTTOM
 10
0.0
 20
0.0
 30
0.0
  9
$UCSORGLEFT
 10
0.0
 20
0.0
 30
0.0
  9
$UCSORGRIGHT
 10
0.0
 20
0.0
 30
0.0
  9
$UCSORGFRONT
 10
0.0
 20
0.0
 30
0.0
  9
$UCSORGBACK
 10
0.0
 20
0.0
 30
0.0
  9
$PUCSBASE
  2

  9
$PUCSNAME
  2

  9
$PUCSORG
 10
0.0
 20
0.0
 30
0.0
  9
$PUCSXDIR
 10
1.0
 20
0.0
 30
0.0
  9
$PUCSYDIR
 10
0.0
 20
1.0
 30
0.0
  9
$PUCSORTHOREF
  2

  9
$PUCSORTHOVIEW
 70
     0
  9
$PUCSORGTOP
 10
0.0
 20
0.0
 30
0.0
  9
$PUCSORGBOTTOM
 10
0.0
 20
0.0
 30
0.0
  9
$PUCSORGLEFT
 10
0.0
 20
0.0
 30
0.0
  9
$PUCSORGRIGHT
 10
0.0
 20
0.0
 30
0.0
  9
$PUCSORGFRONT
 10
0.0
 20
0.0
 30
0.0
  9
$PUCSORGBACK
 10
0.0
 20
0.0
 30
0.0
  9
$USERI1
 70
     0
  9
$USERI2
 70
     0
  9
$USERI3
 70
     0
  9
$USERI4
 70
     0
  9
$USERI5
 70
     0
  9
$USERR1
 40
11.0
  9
$USERR2
 40
0.0
  9
$USERR3
 40
0.0
  9
$USERR4
 40
0.0
  9
$USERR5
 40
0.0
  9
$WORLDVIEW
 70
     1
  9
$SHADEDGE
 70
     3
  9
$SHADEDIF
 70
    70
  9
$TILEMODE
 70
     1
  9
$MAXACTVP
 70
    16
  9
$PINSBASE
 10
0.0
 20
0.0
 30
0.0
  9
$PLIMCHECK
 70
     0
  9
$PEXTMIN
 10
28.51784982681273
 20
19.82258291244505
 30
0.0
  9
$PEXTMAX
 10
256.6606484413147
 20
178.4032462120056
 30
0.0
  9
$PLIMMIN
 10
-5.873748779296875
 20
-5.873749732971191
  9
$PLIMMAX
 10
291.1369018554688
 20
204.141921043396
  9
$UNITMODE
 70
     0
  9
$VISRETAIN
 70
     0
  9
$PLINEGEN
 70
     1
  9
$PSLTSCALE
 70
     0
  9
$TREEDEPTH
 70
  3020
  9
$CMLSTYLE
  2
STANDARD
  9
$CMLJUST
 70
     0
  9
$CMLSCALE
 40
1.0
  9
$PROXYGRAPHICS
 70
     0
  9
$MEASUREMENT
 70
     1
  9
$CELWEIGHT
370
    -1
  9
$ENDCAPS
280
     0
  9
$JOINSTYLE
280
     0
  9
$LWDISPLAY
290
     0
  9
$INSUNITS
 70
     0
  9
$HYPERLINKBASE
  1

  9
$STYLESHEET
  1
monochrome.ctb
  9
$XEDIT
290
     1
  9
$CEPSNTYPE
380
     0
  9
$PSTYLEMODE
290
     1
  9
$FINGERPRINTGUID
  2
{C267B1A6-2380-474B-9AC4-BD59A2E4FED0}
  9
$VERSIONGUID
  2
{5BE2F8CF-0C80-48D2-A7EE-E083BCFD7CF7}
  9
$EXTNAMES
290
     1
  9
$PSVPSCALE
 40
0.0
  9
$OLESTARTUP
290
     0
  0
ENDSEC
  0
SECTION
  2
CLASSES
  0
CLASS
  1
IMAGE
  2
AcDbRasterImage
  3
ISM
 90
    34943
280
     0
281
     1
  0
CLASS
  1
DICTIONARYVAR
  2
AcDbDictionaryVar
  3
ObjectDBX Classes
 90
        0
280
     0
281
     0
  0
CLASS
  1
RASTERVARIABLES
  2
AcDbRasterVariables
  3
ISM
 90
    32768
280
     0
281
     0
  0
CLASS
  1
IMAGEDEF
  2
AcDbRasterImageDef
  3
ISM
 90
    32768
280
     0
281
     0
  0
CLASS
  1
IMAGEDEF_REACTOR
  2
AcDbRasterImageDefReactor
  3
ISM
 90
    32769
280
     0
281
     0
  0
CLASS
  1
IDBUFFER
  2
AcDbIdBuffer
  3
ObjectDBX Classes
 90
    32768
280
     0
281
     0
  0
CLASS
  1
SPATIAL_FILTER
  2
AcDbSpatialFilter
  3
ObjectDBX Classes
 90
    32768
280
     0
281
     0
  0
CLASS
  1
SORTENTSTABLE
  2
AcDbSortentsTable
  3
ObjectDBX Classes
 90
    32768
280
     0
281
     0
  0
CLASS
  1
LAYER_INDEX
  2
AcDbLayerIndex
  3
ObjectDBX Classes
 90
    32768
280
     0
281
     0
  0
CLASS
  1
SPATIAL_INDEX
  2
AcDbSpatialIndex
  3
ObjectDBX Classes
 90
    32768
280
     0
281
     0
  0
CLASS
  1
OBJECT_PTR
  2
CAseDLPNTableRecord
  3
"ASE-LPNTableRecord"
 90
    32769
280
     0
281
     0
  0
CLASS
  1
LAYOUT
  2
AcDbLayout
  3
ObjectDBX Classes
 90
        0
280
     0
281
     0
  0
CLASS
  1
PLOTSETTINGS
  2
AcDbPlotSettings
  3
ObjectDBX Classes
 90
    32768
280
     0
281
     0
  0
CLASS
  1
ACDBDICTIONARYWDFLT
  2
AcDbDictionaryWithDefault
  3
ObjectDBX Classes
 90
        0
280
     0
281
     0
  0
CLASS
  1
ACDBPLACEHOLDER
  2
AcDbPlaceHolder
  3
ObjectDBX Classes
 90
        0
280
     0
281
     0
  0
CLASS
  1
VBA_PROJECT
  2
AcDbVbaProject
  3
acad
 90
    32768
280
     0
281
     0
  0
CLASS
  1
WIPEOUT
  2
AcDbWipeout
  3
"WipeOut|Product Desc: Object Enabler for WipeOut entity                        |Company: Autodesk, Inc.                        |WEB Address: www.autodesk.com"
 90
    34943
280
     0
281
     1
  0
CLASS
  1
WIPEOUTVARIABLES
  2
AcDbWipeoutVariables
  3
"WipeOut|Product Desc:     WipeOut Dbx Application|Company:          Autodesk, Inc.|WEB Address:      www.autodesk.com"
 90
    32768
280
     0
281
     0
  0
CLASS
  1
RTEXT
  2
RText
  3
RText|AutoCAD Express Tool|expresstools@autodesk.com
 90
    32768
280
     0
281
     1
  0
CLASS
  1
ARCALIGNEDTEXT
  2
AcDbArcAlignedText
  3
ATEXT|AutoCAD Express Tool|expresstools@autodesk.com
 90
    32768
280
     0
281
     1
  0
CLASS
  1
MATERIAL
  2
AcDbMaterial
  3
ObjectDBX Classes
 90
     1024
280
     0
281
     0
  0
CLASS
  1
VISUALSTYLE
  2
AcDbVisualStyle
  3
ObjectDBX Classes
 90
     4095
280
     0
281
     0
  0
CLASS
  1
TABLESTYLE
  2
AcDbTableStyle
  3
ObjectDBX Classes
 90
     4095
280
     0
281
     0
  0
ENDSEC
  0
SECTION
  2
TABLES
  0
TABLE
  2
VPORT
  5
7
102
{ACAD_XDICTIONARY
360
2A6
102
}
330
0
100
AcDbSymbolTable
 70
     1
  0
VPORT
  5
15
330
7
100
AcDbSymbolTableRecord
100
AcDbViewportTableRecord
  2
*ACTIVE
 70
     0
 10
0.0
 20
0.0
 11
1.0
 21
1.0
 12
511.5960994728604
 22
375.3969265717292
 13
0.0
 23
0.0
 14
1.0
 24
1.0
 15
0.0
 25
0.0
 16
0.0
 26
0.0
 36
1.0
 17
0.0
 27
0.0
 37
0.0
 40
863.5090464789326
 41
1.844522968197879
 42
50.0
 43
0.0
 44
0.0
 50
0.0
 51
0.0
 71
     0
 72
   100
 73
     1
 74
     1
 75
     0
 76
     0
 77
     0
 78
     0
281
     0
 65
     1
110
0.0
120
0.0
130
0.0
111
1.0
121
0.0
131
0.0
112
0.0
122
1.0
132
0.0
 79
     0
146
0.0
  0
ENDTAB
  0
TABLE
  2
LTYPE
  5
4
330
0
100
AcDbSymbolTable
 70
     8
  0
LTYPE
  5
11
330
4
100
AcDbSymbolTableRecord
100
AcDbLinetypeTableRecord
  2
BYBLOCK
 70
     0
  3

 72
    65
 73
     0
 40
0.0
  0
LTYPE
  5
12
330
4
100
AcDbSymbolTableRecord
100
AcDbLinetypeTableRecord
  2
BYLAYER
 70
     0
  3

 72
    65
 73
     0
 40
0.0
  0
LTYPE
  5
13
330
4
100
AcDbSymbolTableRecord
100
AcDbLinetypeTableRecord
  2
CONTINUOUS
 70
     0
  3
Solid line
 72
    65
 73
     0
 40
0.0
  0
LTYPE
  5
1D
330
4
100
AcDbSymbolTableRecord
100
AcDbLinetypeTableRecord
  2
DASHED
 70
     0
  3
Dashed
 72
    65
 73
     2
 40
15.0
 49
12.0
 74
     0
 49
-3.0
 74
     0
  0
LTYPE
  5
1E
330
4
100
AcDbSymbolTableRecord
100
AcDbLinetypeTableRecord
  2
DOTTED
 70
     0
  3
Dotted
 72
    65
 73
     2
 40
3.5
 49
0.5
 74
     0
 49
-3.0
 74
     0
  0
LTYPE
  5
1F
330
4
100
AcDbSymbolTableRecord
100
AcDbLinetypeTableRecord
  2
DOT_CENTER
 70
     0
  3
Dot_Center
 72
    65
 73
     4
 40
2.0
 49
1.25
 74
     0
 49
-0.25
 74
     0
 49
0.25
 74
     0
 49
-0.25
 74
     0
  0
LTYPE
  5
20
330
4
100
AcDbSymbolTableRecord
100
AcDbLinetypeTableRecord
  2
LONG_DASHED
 70
     0
  3
Long_Dashed
 72
    65
 73
     2
 40
2.0
 49
1.5
 74
     0
 49
-0.5
 74
     0
  0
LTYPE
  5
21
330
4
100
AcDbSymbolTableRecord
100
AcDbLinetypeTableRecord
  2
DASH_CENTER
 70
     0
  3
Dash_Center
 72
    65
 73
     4
 40
36.0
 49
24.0
 74
     0
 49
-3.0
 74
     0
 49
6.0
 74
     0
 49
-3.0
 74
     0
  0
LTYPE
  5
22
330
4
100
AcDbSymbolTableRecord
100
AcDbLinetypeTableRecord
  2
PHANTOM
 70
     0
  3
Phantom
 72
    65
 73
     6
 40
2.5
 49
1.25
 74
     0
 49
-0.25
 74
     0
 49
0.25
 74
     0
 49
-0.25
 74
     0
 49
0.25
 74
     0
 49
-0.25
 74
     0
  0
LTYPE
  5
23
330
4
100
AcDbSymbolTableRecord
100
AcDbLinetypeTableRecord
  2
CENTER_DASH_DASH
 70
     0
  3
Center_Dash_Dash
 72
    65
 73
     6
 40
22.0
 49
12.0
 74
     0
 49
-3.0
 74
     0
 49
0.5
 74
     0
 49
-3.0
 74
     0
 49
0.5
 74
     0
 49
-3.0
 74
     0
  0
ENDTAB
  0
TABLE
  2
LAYER
  5
2
102
{ACAD_XDICTIONARY
360
2E2
102
}
330
0
100
AcDbSymbolTable
 70
     4
  0
LAYER
  5
14
330
2
100
AcDbSymbolTableRecord
100
AcDbLayerTableRecord
  2
0
 70
     0
 62
     7
  6
CONTINUOUS
370
    -3
390
285
  0
LAYER
  5
24
330
2
100
AcDbSymbolTableRecord
100
AcDbLayerTableRecord
  2
FORMAT
 70
     0
 62
     7
  6
CONTINUOUS
370
    -3
390
285
  0
LAYER
  5
2D8
330
2
100
AcDbSymbolTableRecord
100
AcDbLayerTableRecord
  2
DEFPOINTS
 70
     0
 62
     7
  6
CONTINUOUS
290
     0
370
    -3
390
285
  0
LAYER
  5
2D9
330
2
100
AcDbSymbolTableRecord
100
AcDbLayerTableRecord
  2
MEASURE
 70
     0
 62
     9
  6
CONTINUOUS
370
    -3
390
285
  0
ENDTAB
  0
TABLE
  2
STYLE
  5
3
330
0
100
AcDbSymbolTable
 70
     3
  0
STYLE
  5
17
330
3
100
AcDbSymbolTableRecord
100
AcDbTextStyleTableRecord
  2
STANDARD
 70
     0
 40
0.0
 41
1.0
 50
0.0
 71
     0
 42
0.0
  3
txt
  4

  0
STYLE
  5
2DA
330
3
100
AcDbSymbolTableRecord
100
AcDbTextStyleTableRecord
  2
AD-STANDARD
 70
     0
 40
0.0
 41
0.8
 50
0.0
 71
     0
 42
12.0
  3
C:\Program Files\AutoCAD LT\romans.shx
  4
bigfont.shx
  0
ENDTAB
  0
TABLE
  2
VIEW
  5
5
330
0
100
AcDbSymbolTable
 70
     0
  0
ENDTAB
  0
TABLE
  2
UCS
  5
6
330
0
100
AcDbSymbolTable
 70
     0
  0
ENDTAB
  0
TABLE
  2
APPID
  5
8
330
0
100
AcDbSymbolTable
 70
     3
  0
APPID
  5
16
330
8
100
AcDbSymbolTableRecord
100
AcDbRegAppTableRecord
  2
ACAD
 70
     0
  0
APPID
  5
2E0
330
8
100
AcDbSymbolTableRecord
100
AcDbRegAppTableRecord
  2
ACAD_PSEXT
 70
     0
  0
APPID
  5
2E1
330
8
100
AcDbSymbolTableRecord
100
AcDbRegAppTableRecord
  2
ACAD_DSTYLE_DIMJOGGED_JOGANGLE_SYMBOL
 70
     0
  0
ENDTAB
  0
TABLE
  2
DIMSTYLE
  5
9
330
0
100
AcDbSymbolTable
 70
     7
100
AcDbDimStyleTable
 71
     4
340
2DC
340
18
340
2DD
340
2DF
  0
DIMSTYLE
105
18
330
9
100
AcDbSymbolTableRecord
100
AcDbDimStyleTableRecord
  2
STANDARD
 70
     0
340
17
  0
DIMSTYLE
105
2DB
330
9
100
AcDbSymbolTableRecord
100
AcDbDimStyleTableRecord
  2
S＝1／1
 70
     0
 41
2.5
 42
1.0
 44
1.0
 73
     0
 74
     0
 77
     1
 78
     8
 79
     2
140
3.0
141
-2.0
147
0.5
172
     1
176
     9
177
     9
178
   132
179
     4
284
     8
340
2DA
  0
DIMSTYLE
105
2DC
102
{ACAD_REACTORS
330
358
330
378
330
385
330
41A
330
427
102
}
330
9
100
AcDbSymbolTableRecord
100
AcDbDimStyleTableRecord
  2
S＝1／4
 70
     0
 40
4.0
 41
2.5
 42
1.0
 44
1.0
 73
     0
 74
     0
 77
     1
 78
     8
 79
     2
140
3.0
141
-2.0
147
0.5
172
     1
176
     9
177
     9
178
   132
179
     4
284
     8
340
2DA
  0
DIMSTYLE
105
2DD
330
9
100
AcDbSymbolTableRecord
100
AcDbDimStyleTableRecord
  2
S＝2／1
 70
     0
 40
0.5
 41
2.5
 42
1.0
 44
1.0
 73
     0
 74
     0
 77
     1
 78
     8
 79
     2
140
3.0
141
-2.0
147
0.5
172
     1
176
     9
177
     9
178
   132
179
     4
284
     8
340
2DA
  0
DIMSTYLE
105
2DE
330
9
100
AcDbSymbolTableRecord
100
AcDbDimStyleTableRecord
  2
S＝1／20
 70
     0
 40
20.0
 41
2.5
 42
1.0
 44
1.0
 73
     0
 74
     0
 77
     1
 78
     8
 79
     2
140
3.0
141
-2.0
147
0.5
172
     1
176
     9
177
     9
178
   132
179
     4
284
     8
340
2DA
1001
ACAD_DSTYLE_DIMJOGGED_JOGANGLE_SYMBOL
1070
   384
1040
1.570796326794896
  0
DIMSTYLE
105
2DF
330
9
100
AcDbSymbolTableRecord
100
AcDbDimStyleTableRecord
  2
AD-STANDARD
 70
     0
 41
2.0
 42
1.0
 44
2.0
 73
     0
 74
     0
 77
     1
 78
     8
140
3.5
141
-2.0
147
0.5
172
     1
176
     9
177
     9
178
     2
271
     3
272
     3
284
     8
340
2DA
  0
ENDTAB
  0
TABLE
  2
BLOCK_RECORD
  5
1
330
0
100
AcDbSymbolTable
 70
     6
  0
BLOCK_RECORD
  5
A
330
1
100
AcDbSymbolTableRecord
100
AcDbBlockTableRecord
  2
*MODEL_SPACE
340
2A1
  0
BLOCK_RECORD
  5
B
330
1
100
AcDbSymbolTableRecord
100
AcDbBlockTableRecord
  2
*PAPER_SPACE
340
2A2
  0
BLOCK_RECORD
  5
359
330
1
100
AcDbSymbolTableRecord
100
AcDbBlockTableRecord
  2
*D0
340
0
  0
BLOCK_RECORD
  5
379
330
1
100
AcDbSymbolTableRecord
100
AcDbBlockTableRecord
  2
*D1
340
0
  0
BLOCK_RECORD
  5
386
330
1
100
AcDbSymbolTableRecord
100
AcDbBlockTableRecord
  2
*D2
340
0
  0
BLOCK_RECORD
  5
41B
330
1
100
AcDbSymbolTableRecord
100
AcDbBlockTableRecord
  2
*D3
340
0
  0
BLOCK_RECORD
  5
428
330
1
100
AcDbSymbolTableRecord
100
AcDbBlockTableRecord
  2
*D4
340
0
  0
ENDTAB
  0
ENDSEC
  0
SECTION
  2
BLOCKS
  0
BLOCK
  5
D
330
A
100
AcDbEntity
  8
0
100
AcDbBlockBegin
  2
*MODEL_SPACE
 70
     0
 10
0.0
 20
0.0
 30
0.0
  3
*MODEL_SPACE
  1

  0
ENDBLK
  5
E
330
A
100
AcDbEntity
  8
0
100
AcDbBlockEnd
  0
BLOCK
  5
F
330
B
100
AcDbEntity
 67
     1
  8
0
100
AcDbBlockBegin
  2
*PAPER_SPACE
 70
     0
 10
0.0
 20
0.0
 30
0.0
  3
*PAPER_SPACE
  1

  0
ENDBLK
  5
10
330
B
100
AcDbEntity
 67
     1
  8
0
100
AcDbBlockEnd
  0
BLOCK
  5
364
330
359
100
AcDbEntity
  8
0
100
AcDbBlockBegin
  2
*D0
 70
     1
 10
0.0
 20
0.0
 30
0.0
  3
*D0
  1

  0
LINE
  5
499
330
359
100
AcDbEntity
  8
MEASURE
  6
Continuous
 62
     9
370
    -2
100
AcDbLine
 10
394.9834568873086
 20
633.4316612003537
 30
0.0
 11
352.1713098621627
 21
633.4316612003537
 31
0.0
  0
LINE
  5
49A
330
359
100
AcDbEntity
  8
MEASURE
  6
Continuous
 62
     9
370
    -2
100
AcDbLine
 10
394.9834568873086
 20
233.4316561964539
 30
0.0
 11
352.1713098621626
 21
233.4316561964539
 31
0.0
  0
LINE
  5
49B
330
359
100
AcDbEntity
  8
MEASURE
  6
Continuous
 62
     9
370
    -2
100
AcDbLine
 10
356.1713098621627
 20
623.4316612003538
 30
0.0
 11
356.1713098621626
 21
243.4316561964539
 31
0.0
  0
SOLID
  5
49C
330
359
100
AcDbEntity
  8
MEASURE
  6
Continuous
 62
     9
100
AcDbTrace
 10
354.504643195496
 20
623.4316612003538
 30
0.0
 11
357.8379765288294
 21
623.4316612003538
 31
0.0
 12
356.1713098621627
 22
633.4316612003537
 32
0.0
 13
356.1713098621627
 23
633.4316612003537
 33
0.0
  0
SOLID
  5
49D
330
359
100
AcDbEntity
  8
MEASURE
  6
Continuous
 62
     9
100
AcDbTrace
 10
354.5046431954959
 20
243.4316561964539
 30
0.0
 11
357.8379765288293
 21
243.4316561964539
 31
0.0
 12
356.1713098621626
 22
233.4316561964539
 32
0.0
 13
356.1713098621626
 23
233.4316561964539
 33
0.0
  0
MTEXT
  5
49E
330
359
100
AcDbEntity
  8
MEASURE
  6
Continuous
 62
   132
100
AcDbMText
 10
348.1713098621626
 20
433.4316586984039
 30
0.0
 40
12.0
 41
0.0
 71
     5
 72
     1
  1
\A1;400\U+00B12
  7
AD-STANDARD
 11
0.0000000000000001
 21
1.0
 31
0.0
 73
     1
 44
1.0
1001
ACAD
1000
MTEXTBEGIN
1070
    73
1070
     1
1070
    44
1040
1.0
1070
    74
1070
     0
1000
MTEXTEND
  0
POINT
  5
49F
330
359
100
AcDbEntity
  8
DEFPOINTS
  6
Continuous
 62
     0
100
AcDbPoint
 10
398.9834568873087
 20
633.4316612003537
 30
0.0
  0
POINT
  5
4A0
330
359
100
AcDbEntity
  8
DEFPOINTS
  6
Continuous
 62
     0
100
AcDbPoint
 10
398.9834568873087
 20
233.4316561964539
 30
0.0
  0
POINT
  5
4A1
330
359
100
AcDbEntity
  8
DEFPOINTS
  6
Continuous
 62
     0
100
AcDbPoint
 10
356.1713098621626
 20
233.4316561964539
 30
0.0
  0
ENDBLK
  5
365
330
359
100
AcDbEntity
  8
0
100
AcDbBlockEnd
  0
BLOCK
  5
383
330
379
100
AcDbEntity
  8
0
100
AcDbBlockBegin
  2
*D1
 70
     1
 10
0.0
 20
0.0
 30
0.0
  3
*D1
  1

  0
LINE
  5
4CE
330
379
100
AcDbEntity
  8
MEASURE
  6
Continuous
 62
     9
370
    -2
100
AcDbLine
 10
399.6834630851087
 20
144.0037510049539
 30
0.0
 11
352.1852578147973
 21
144.0037510049539
 31
0.0
  0
LINE
  5
4CF
330
379
100
AcDbEntity
  8
MEASURE
  6
Continuous
 62
     9
370
    -2
100
AcDbLine
 10
422.4884087924086
 20
34.0037534636539
 30
0.0
 11
352.1852578147973
 21
34.00375346365392
 31
0.0
  0
LINE
  5
4D0
330
379
100
AcDbEntity
  8
MEASURE
  6
Continuous
 62
     9
370
    -2
100
AcDbLine
 10
356.1852578147973
 20
134.0037510049539
 30
0.0
 11
356.1852578147973
 21
44.00375346365392
 31
0.0
  0
SOLID
  5
4D1
330
379
100
AcDbEntity
  8
MEASURE
  6
Continuous
 62
     9
100
AcDbTrace
 10
354.5185911481307
 20
134.0037510049539
 30
0.0
 11
357.8519244814641
 21
134.0037510049539
 31
0.0
 12
356.1852578147973
 22
144.0037510049539
 32
0.0
 13
356.1852578147973
 23
144.0037510049539
 33
0.0
  0
SOLID
  5
4D2
330
379
100
AcDbEntity
  8
MEASURE
  6
Continuous
 62
     9
100
AcDbTrace
 10
354.5185911481306
 20
44.00375346365392
 30
0.0
 11
357.851924481464
 21
44.00375346365392
 31
0.0
 12
356.1852578147973
 22
34.00375346365392
 32
0.0
 13
356.1852578147973
 23
34.00375346365392
 33
0.0
  0
MTEXT
  5
4D3
330
379
100
AcDbEntity
  8
MEASURE
  6
Continuous
 62
   132
100
AcDbMText
 10
348.1852578147973
 20
89.00375223430396
 30
0.0
 40
12.0
 41
0.0
 71
     5
 72
     1
  1
\A1;110\U+00B12
  7
AD-STANDARD
 11
0.0000000000000001
 21
1.0
 31
0.0
 73
     1
 44
1.0
1001
ACAD
1000
MTEXTBEGIN
1070
    73
1070
     1
1070
    44
1040
1.0
1070
    74
1070
     0
1000
MTEXTEND
  0
POINT
  5
4D4
330
379
100
AcDbEntity
  8
DEFPOINTS
  6
Continuous
 62
     0
100
AcDbPoint
 10
403.6834630851087
 20
144.0037510049539
 30
0.0
  0
POINT
  5
4D5
330
379
100
AcDbEntity
  8
DEFPOINTS
  6
Continuous
 62
     0
100
AcDbPoint
 10
426.4884087924087
 20
34.0037534636539
 30
0.0
  0
POINT
  5
4D6
330
379
100
AcDbEntity
  8
DEFPOINTS
  6
Continuous
 62
     0
100
AcDbPoint
 10
356.1852578147973
 20
34.00375346365392
 30
0.0
  0
ENDBLK
  5
384
330
379
100
AcDbEntity
  8
0
100
AcDbBlockEnd
  0
BLOCK
  5
390
330
386
100
AcDbEntity
  8
0
100
AcDbBlockBegin
  2
*D2
 70
     1
 10
0.0
 20
0.0
 30
0.0
  3
*D2
  1

  0
LINE
  5
4A2
330
386
100
AcDbEntity
  8
MEASURE
  6
Continuous
 62
     9
370
    -2
100
AcDbLine
 10
397.7834568875097
 20
46.0037542237539
 30
0.0
 11
397.7834568875097
 21
4.414337588322041
 31
0.0
  0
LINE
  5
4A3
330
386
100
AcDbEntity
  8
MEASURE
  6
Continuous
 62
     9
370
    -2
100
AcDbLine
 10
732.9834494475087
 20
46.0037542237539
 30
0.0
 11
732.9834494475087
 21
4.414337588322041
 31
0.0
  0
LINE
  5
4A4
330
386
100
AcDbEntity
  8
MEASURE
  6
Continuous
 62
     9
370
    -2
100
AcDbLine
 10
407.7834568875097
 20
8.414337588322041
 30
0.0
 11
722.9834494475087
 21
8.414337588322041
 31
0.0
  0
SOLID
  5
4A5
330
386
100
AcDbEntity
  8
MEASURE
  6
Continuous
 62
     9
100
AcDbTrace
 10
407.7834568875097
 20
10.08100425498871
 30
0.0
 11
407.7834568875097
 21
6.747670921655374
 31
0.0
 12
397.7834568875097
 22
8.414337588322041
 32
0.0
 13
397.7834568875097
 23
8.414337588322041
 33
0.0
  0
SOLID
  5
4A6
330
386
100
AcDbEntity
  8
MEASURE
  6
Continuous
 62
     9
100
AcDbTrace
 10
722.9834494475087
 20
10.08100425498871
 30
0.0
 11
722.9834494475087
 21
6.747670921655374
 31
0.0
 12
732.9834494475087
 22
8.414337588322041
 32
0.0
 13
732.9834494475087
 23
8.414337588322041
 33
0.0
  0
MTEXT
  5
4A7
330
386
100
AcDbEntity
  8
MEASURE
  6
Continuous
 62
   132
100
AcDbMText
 10
565.3834531675093
 20
16.41433758832204
 30
0.0
 40
12.0
 41
0.0
 71
     5
 72
     1
  1
\A1;336±2
  7
AD-STANDARD
 73
     1
 44
1.0
1001
ACAD
1000
MTEXTBEGIN
1070
    73
1070
     1
1070
    44
1040
1.0
1070
    74
1070
     0
1000
MTEXTEND
  0
POINT
  5
4A8
330
386
100
AcDbEntity
  8
DEFPOINTS
  6
Continuous
 62
     0
100
AcDbPoint
 10
397.7834568875097
 20
50.0037542237539
 30
0.0
  0
POINT
  5
4A9
330
386
100
AcDbEntity
  8
DEFPOINTS
  6
Continuous
 62
     0
100
AcDbPoint
 10
732.9834494475087
 20
50.0037542237539
 30
0.0
  0
POINT
  5
4AA
330
386
100
AcDbEntity
  8
DEFPOINTS
  6
Continuous
 62
     0
100
AcDbPoint
 10
732.9834494475087
 20
8.414337588322041
 30
0.0
  0
ENDBLK
  5
391
330
386
100
AcDbEntity
  8
0
100
AcDbBlockEnd
  0
BLOCK
  5
425
330
41B
100
AcDbEntity
  8
0
100
AcDbBlockBegin
  2
*D3
 70
     1
 10
0.0
 20
0.0
 30
0.0
  3
*D3
  1

  0
LINE
  5
4C5
330
41B
100
AcDbEntity
  8
MEASURE
  6
Continuous
 62
     9
370
    -2
100
AcDbLine
 10
736.9834494475087
 20
50.0037542237539
 30
0.0
 11
772.3421426645891
 21
50.00375422375389
 31
0.0
  0
LINE
  5
4C6
330
41B
100
AcDbEntity
  8
MEASURE
  6
Continuous
 62
     9
370
    -2
100
AcDbLine
 10
735.9834623221087
 20
130.0037524355539
 30
0.0
 11
772.3421426645891
 21
130.0037524355539
 31
0.0
  0
LINE
  5
4C7
330
41B
100
AcDbEntity
  8
MEASURE
  6
Continuous
 62
     9
370
    -2
100
AcDbLine
 10
768.3421426645891
 20
60.00375422375389
 30
0.0
 11
768.3421426645891
 21
120.0037524355539
 31
0.0
  0
SOLID
  5
4C8
330
41B
100
AcDbEntity
  8
MEASURE
  6
Continuous
 62
     9
100
AcDbTrace
 10
766.6754759979225
 20
60.00375422375389
 30
0.0
 11
770.0088093312557
 21
60.00375422375389
 31
0.0
 12
768.3421426645891
 22
50.00375422375389
 32
0.0
 13
768.3421426645891
 23
50.00375422375389
 33
0.0
  0
SOLID
  5
4C9
330
41B
100
AcDbEntity
  8
MEASURE
  6
Continuous
 62
     9
100
AcDbTrace
 10
766.6754759979225
 20
120.0037524355539
 30
0.0
 11
770.0088093312557
 21
120.0037524355539
 31
0.0
 12
768.3421426645891
 22
130.0037524355539
 32
0.0
 13
768.3421426645891
 23
130.0037524355539
 33
0.0
  0
MTEXT
  5
4CA
330
41B
100
AcDbEntity
  8
MEASURE
  6
Continuous
 62
   132
100
AcDbMText
 10
760.3421426645891
 20
90.00375332965402
 30
0.0
 40
12.0
 41
0.0
 71
     5
 72
     1
  1
\A1;80\U+00B12
  7
AD-STANDARD
 11
0.0000000000000001
 21
1.0
 31
0.0
 73
     1
 44
1.0
1001
ACAD
1000
MTEXTBEGIN
1070
    73
1070
     1
1070
    44
1040
1.0
1070
    74
1070
     0
1000
MTEXTEND
  0
POINT
  5
4CB
330
41B
100
AcDbEntity
  8
DEFPOINTS
  6
Continuous
 62
     0
100
AcDbPoint
 10
732.9834494475087
 20
50.0037542237539
 30
0.0
  0
POINT
  5
4CC
330
41B
100
AcDbEntity
  8
DEFPOINTS
  6
Continuous
 62
     0
100
AcDbPoint
 10
731.9834623221087
 20
130.0037524355539
 30
0.0
  0
POINT
  5
4CD
330
41B
100
AcDbEntity
  8
DEFPOINTS
  6
Continuous
 62
     0
100
AcDbPoint
 10
768.3421426645891
 20
130.0037524355539
 30
0.0
  0
ENDBLK
  5
426
330
41B
100
AcDbEntity
  8
0
100
AcDbBlockEnd
  0
BLOCK
  5
434
330
428
100
AcDbEntity
  8
0
100
AcDbBlockBegin
  2
*D4
 70
     1
 10
0.0
 20
0.0
 30
0.0
  3
*D4
  1

  0
LINE
  5
429
330
428
100
AcDbEntity
  8
MEASURE
  6
Continuous
 62
     9
370
    -2
100
AcDbLine
 10
736.9834568875087
 20
50.0037542237539
 30
0.0
 11
772.3421426645891
 21
50.00375422375389
 31
0.0
  0
LINE
  5
42A
330
428
100
AcDbEntity
  8
MEASURE
  6
Continuous
 62
     9
370
    -2
100
AcDbLine
 10
701.9785058383087
 20
34.0037534636539
 30
0.0
 11
772.3421426645891
 21
34.00375346365388
 31
0.0
  0
LINE
  5
42B
330
428
100
AcDbEntity
  8
MEASURE
  6
Continuous
 62
     9
370
    -2
100
AcDbLine
 10
768.3421426645891
 20
60.00375422375389
 30
0.0
 11
768.3421426645891
 21
70.0037542237539
 31
0.0
  0
LINE
  5
42C
330
428
100
AcDbEntity
  8
MEASURE
  6
Continuous
 62
     9
370
    -2
100
AcDbLine
 10
768.3421426645891
 20
24.00375346365388
 30
0.0
 11
768.3421426645891
 21
-4.167675107774691
 31
0.0
  0
LINE
  5
42D
330
428
100
AcDbEntity
  8
MEASURE
  6
Continuous
 62
     9
370
    -2
100
AcDbLine
 10
768.3421426645891
 20
50.00375422375389
 30
0.0
 11
768.3421426645891
 21
34.00375346365388
 31
0.0
  0
SOLID
  5
42E
330
428
100
AcDbEntity
  8
MEASURE
  6
Continuous
 62
     9
100
AcDbTrace
 10
766.6754759979225
 20
60.00375422375389
 30
0.0
 11
770.0088093312557
 21
60.00375422375389
 31
0.0
 12
768.3421426645891
 22
50.00375422375389
 32
0.0
 13
768.3421426645891
 23
50.00375422375389
 33
0.0
  0
SOLID
  5
42F
330
428
100
AcDbEntity
  8
MEASURE
  6
Continuous
 62
     9
100
AcDbTrace
 10
766.6754759979225
 20
24.00375346365388
 30
0.0
 11
770.0088093312557
 21
24.00375346365388
 31
0.0
 12
768.3421426645891
 22
34.00375346365388
 32
0.0
 13
768.3421426645891
 23
34.00375346365388
 33
0.0
  0
MTEXT
  5
430
330
428
100
AcDbEntity
  8
MEASURE
  6
Continuous
 62
   132
100
AcDbMText
 10
760.3421426645891
 20
4.918039177939719
 30
0.0
 40
12.0
 41
0.0
 71
     5
 72
     1
  1
\A1;16
  7
AD-STANDARD
 11
0.0000000000000001
 21
1.0
 31
0.0
 73
     1
 44
1.0
1001
ACAD
1000
MTEXTBEGIN
1070
    73
1070
     1
1070
    44
1040
1.0
1070
    74
1070
     0
1000
MTEXTEND
  0
POINT
  5
431
330
428
100
AcDbEntity
  8
DEFPOINTS
  6
Continuous
 62
     0
100
AcDbPoint
 10
732.9834568875087
 20
50.0037542237539
 30
0.0
  0
POINT
  5
432
330
428
100
AcDbEntity
  8
DEFPOINTS
  6
Continuous
 62
     0
100
AcDbPoint
 10
697.9785058383087
 20
34.0037534636539
 30
0.0
  0
POINT
  5
433
330
428
100
AcDbEntity
  8
DEFPOINTS
  6
Continuous
 62
     0
100
AcDbPoint
 10
768.3421426645891
 20
34.00375346365388
 30
0.0
  0
ENDBLK
  5
435
330
428
100
AcDbEntity
  8
0
100
AcDbBlockEnd
  0
ENDSEC
  0
SECTION
  2
ENTITIES
  0
SPLINE
  5
27E
330
A
100
AcDbEntity
  8
0
  6
Continuous
 62
     7
100
AcDbSpline
210
0.0
220
0.0
230
1.0
 70
    24
 71
     3
 72
    11
 73
     7
 74
     5
 42
0.0000000001
 43
0.0000000001
 44
0.00000000001
 40
0.0
 40
0.0
 40
0.0
 40
0.0
 40
0.1226233362042421
 40
0.2394714212791769
 40
0.3158772623563948
 40
0.3898888823999584
 40
0.3898888823999584
 40
0.3898888823999584
 40
0.3898888823999584
 10
733.1834528331088
 20
247.7257738856539
 30
0.0
 10
733.1834528330862
 20
247.7666483310553
 30
0.0
 10
733.1834528330419
 20
247.8464721381484
 30
0.0
 10
733.183452833048
 20
247.9517645589338
 30
0.0
 10
733.183452833041
 20
248.0408530743325
 30
0.0
 10
733.1834528330865
 20
248.0909922280394
 30
0.0
 10
733.1834528331088
 20
248.1156627680539
 30
0.0
 11
733.1834528331088
 21
247.7257738856539
 31
0.0
 11
733.1834528330534
 21
247.8483972218582
 31
0.0
 11
733.1834528330455
 21
247.9652453069331
 31
0.0
 11
733.1834528330534
 21
248.0416511480103
 31
0.0
 11
733.1834528331088
 21
248.1156627680539
 31
0.0
  0
SPLINE
  5
27D
330
A
100
AcDbEntity
  8
0
  6
Continuous
 62
     7
100
AcDbSpline
210
0.0
220
0.0
230
1.0
 70
    24
 71
     3
 72
    16
 73
    12
 74
    10
 42
0.0000000001
 43
0.0000000001
 44
0.00000000001
 40
0.0
 40
0.0
 40
0.0
 40
0.0
 40
0.024052072192319
 40
0.0504915044746213
 40
0.0773610157285418
 40
0.102703324835943
 40
0.1245611506779198
 40
0.1409772121364483
 40
0.1499942280934192
 40
0.1511466428615336
 40
0.1538991930000577
 40
0.1538991930000577
 40
0.1538991930000577
 40
0.1538991930000577
 10
733.1834528331088
 20
248.1156627680539
 30
0.0
 10
733.1834528331003
 20
248.1236801254513
 30
0.0
 10
733.1834528330825
 20
248.1405106269429
 30
0.0
 10
733.1834528330675
 20
248.1662976321857
 30
0.0
 10
733.1834528330562
 20
248.1925147164002
 30
0.0
 10
733.1834528330521
 20
248.2172045984681
 30
0.0
 10
733.1834528330425
 20
248.2384099972705
 30
0.0
 10
733.183452833056
 20
248.25417363169
 30
0.0
 10
733.1834528330318
 20
248.2630354624175
 30
0.0
 10
733.1834528330541
 20
248.2673427893723
 30
0.0
 10
733.1834528330862
 20
248.2686444443412
 30
0.0
 10
733.1834528331088
 20
248.2695619610539
 30
0.0
 11
733.1834528331088
 21
248.1156627680539
 31
0.0
 11
733.1834528330851
 21
248.1397148402462
 31
0.0
 11
733.1834528330683
 21
248.1661542725285
 31
0.0
 11
733.1834528330572
 21
248.1930237837824
 31
0.0
 11
733.1834528330506
 21
248.2183660928898
 31
0.0
 11
733.1834528330472
 21
248.2402239187318
 31
0.0
 11
733.1834528330455
 21
248.2566399801903
 31
0.0
 11
733.1834528330459
 21
248.2656569961473
 31
0.0
 11
733.1834528330534
 21
248.2668094109154
 31
0.0
 11
733.1834528331088
 21
248.2695619610539
 31
0.0
  0
SPLINE
  5
27C
330
A
100
AcDbEntity
  8
0
  6
Continuous
 62
     7
100
AcDbSpline
210
0.0
220
0.0
230
1.0
 70
     8
 71
     3
 72
    11
 73
     7
 74
     5
 42
0.0000000001
 43
0.0000000001
 44
0.00000000001
 40
0.0
 40
0.0
 40
0.0
 40
0.0
 40
0.0876311618705675
 40
0.1837694714556742
 40
0.2997625803810115
 40
0.4242633478717518
 40
0.4242633478717518
 40
0.4242633478717518
 40
0.4242633478717518
 10
465.1834536078085
 20
358.9316609348539
 30
0.0
 10
465.1627987074643
 20
358.9110061093301
 30
0.0
 10
465.1194837491984
 20
358.8676913079687
 30
0.0
 10
465.0488291486047
 20
358.797036473006
 30
0.0
 10
464.9694849083722
 20
358.7176907789194
 30
0.0
 10
464.9128007055433
 20
358.661005081193
 30
0.0
 10
464.8834559801725
 20
358.6316595819318
 30
0.0
 11
465.1834536078085
 21
358.9316609348539
 31
0.0
 11
465.1214889409508
 21
358.8696964241078
 31
0.0
 11
465.0535090389807
 21
358.8017162247993
 31
0.0
 11
464.971490217423
 21
358.7196960185788
 31
0.0
 11
464.8834559801725
 21
358.6316595819318
 31
0.0
  0
SPLINE
  5
27B
330
A
100
AcDbEntity
  8
0
  6
Continuous
 62
     7
100
AcDbSpline
210
0.0
220
0.0
230
1.0
 70
     8
 71
     3
 72
    11
 73
     7
 74
     5
 42
0.0000000001
 43
0.0000000001
 44
0.00000000001
 40
0.0
 40
0.0
 40
0.0
 40
0.0
 40
0.0876311619563825
 40
0.1837694715742074
 40
0.2997625804778799
 40
0.424263347958652
 40
0.424263347958652
 40
0.424263347958652
 40
0.424263347958652
 10
464.8834559802087
 20
360.0316609289539
 30
0.0
 10
464.9041108805736
 20
360.0110061034104
 30
0.0
 10
464.9474258388685
 20
359.967691302022
 30
0.0
 10
465.018080439485
 20
359.8970364670368
 30
0.0
 10
465.0974246797178
 20
359.8176907729496
 30
0.0
 10
465.1541088825392
 20
359.7610050752307
 30
0.0
 10
465.1834536079077
 20
359.7316595759719
 30
0.0
 11
464.8834559802087
 21
360.0316609289539
 31
0.0
 11
464.9454206471283
 21
359.9696964181484
 31
0.0
 11
465.013400549122
 21
359.9017162188172
 31
0.0
 11
465.0954193706642
 21
359.8196960126119
 31
0.0
 11
465.1834536079077
 21
359.7316595759719
 31
0.0
  0
SPLINE
  5
27A
330
A
100
AcDbEntity
  8
0
  6
Continuous
 62
     7
100
AcDbSpline
210
0.0
220
0.0
230
1.0
 70
     8
 71
     3
 72
    11
 73
     7
 74
     5
 42
0.0000000001
 43
0.0000000001
 44
0.00000000001
 40
0.0
 40
0.0
 40
0.0
 40
0.0
 40
0.0876311620327115
 40
0.1837694716810038
 40
0.2997625805663476
 40
0.4242633480371515
 40
0.4242633480371515
 40
0.4242633480371515
 40
0.4242633480371515
 10
464.0834573391086
 20
358.6316595818539
 30
0.0
 10
464.06280243875
 20
358.6523144074396
 30
0.0
 10
464.019487480481
 20
358.6956292089042
 30
0.0
 10
463.9488328798342
 20
358.7662840439009
 30
0.0
 10
463.8694886396042
 20
358.845629737992
 30
0.0
 10
463.8128044367882
 20
358.902315435703
 30
0.0
 10
463.7834597114216
 20
358.9316609349588
 30
0.0
 11
464.0834573391086
 21
358.6316595818539
 31
0.0
 11
464.021492672195
 21
358.6936240927733
 31
0.0
 11
463.9535127701881
 21
358.7616042921343
 31
0.0
 11
463.871493948659
 21
358.8436244983268
 31
0.0
 11
463.7834597114216
 21
358.9316609349588
 31
0.0
  0
SPLINE
  5
279
330
A
100
AcDbEntity
  8
0
  6
Continuous
 62
     7
100
AcDbSpline
210
0.0
220
0.0
230
1.0
 70
     8
 71
     3
 72
    11
 73
     7
 74
     5
 42
0.0000000001
 43
0.0000000001
 44
0.00000000001
 40
0.0
 40
0.0
 40
0.0
 40
0.0
 40
0.0876311619662301
 40
0.1837694715887577
 40
0.2997625804894155
 40
0.4242633479671731
 40
0.4242633479671731
 40
0.4242633479671731
 40
0.4242633479671731
 10
463.7834597115086
 20
359.7316595759539
 30
0.0
 10
463.8041146118557
 20
359.7523144015197
 30
0.0
 10
463.8474295701121
 20
359.7956292029535
 30
0.0
 10
463.9180841707395
 20
359.8662840379335
 30
0.0
 10
463.9974284109698
 20
359.9456297320222
 30
0.0
 10
464.0541126137892
 20
360.0023154297404
 30
0.0
 10
464.0834573391567
 20
360.0316609289988
 30
0.0
 11
463.7834597115086
 21
359.7316595759539
 31
0.0
 11
463.8454243783859
 21
359.7936240868157
 31
0.0
 11
463.9134042803762
 21
359.8616042861568
 31
0.0
 11
463.9954231019165
 21
359.9436244923599
 31
0.0
 11
464.0834573391567
 21
360.0316609289988
 31
0.0
  0
SPLINE
  5
278
330
A
100
AcDbEntity
  8
0
  6
Continuous
 62
     7
100
AcDbSpline
210
0.0
220
0.0
230
1.0
 70
    24
 71
     3
 72
    13
 73
     9
 74
     7
 42
0.0000000001
 43
0.0000000001
 44
0.00000000001
 40
0.0
 40
0.0
 40
0.0
 40
0.0
 40
0.131662730847836
 40
0.3149939572644484
 40
0.4792610425673729
 40
0.6436048212981973
 40
0.7994119003079732
 40
0.9000003338550754
 40
0.9000003338550754
 40
0.9000003338550754
 40
0.9000003338550754
 10
464.0834573391567
 20
360.0316609289988
 30
0.0
 10
464.0834573391567
 20
360.075548505948
 30
0.0
 10
464.0834573391567
 20
360.1805464917029
 30
0.0
 10
464.0834573391565
 20
360.3403001725589
 30
0.0
 10
464.0834573391575
 20
360.5109475360421
 30
0.0
 10
464.0834573391531
 20
360.6724201837233
 30
0.0
 10
464.0834573391678
 20
360.8126666141526
 30
0.0
 10
464.0834573391252
 20
360.8981317850048
 30
0.0
 10
464.0834573391086
 20
360.9316612628539
 30
0.0
 11
464.0834573391567
 21
360.0316609289988
 31
0.0
 11
464.0834573391567
 21
360.1633236598467
 31
0.0
 11
464.0834573391567
 21
360.3466548862633
 31
0.0
 11
464.0834573391567
 21
360.5109219715662
 31
0.0
 11
464.0834573391567
 21
360.675265750297
 31
0.0
 11
464.0834573391507
 21
360.8310728293068
 31
0.0
 11
464.0834573391086
 21
360.9316612628539
 31
0.0
  0
SPLINE
  5
277
330
A
100
AcDbEntity
  8
0
  6
Continuous
 62
     7
100
AcDbSpline
210
0.0
220
0.0
230
1.0
 70
    24
 71
     3
 72
    13
 73
     9
 74
     7
 42
0.0000000001
 43
0.0000000001
 44
0.00000000001
 40
0.0
 40
0.0
 40
0.0
 40
0.0
 40
0.1316640003586258
 40
0.3149958016177266
 40
0.4792627033774579
 40
0.6436062923426676
 40
0.7994124039236113
 40
0.9000003338009605
 40
0.9000003338009605
 40
0.9000003338009605
 40
0.9000003338009605
 10
465.1834536079077
 20
359.7316595759719
 30
0.0
 10
465.2273416080273
 20
359.731659575972
 30
0.0
 10
465.3323402085667
 20
359.7316595759721
 30
0.0
 10
465.4920944430255
 20
359.7316595759714
 30
0.0
 10
465.662741873687
 20
359.7316595759724
 30
0.0
 10
465.8242140744556
 20
359.7316595759705
 30
0.0
 10
465.9644599512633
 20
359.731659575976
 30
0.0
 10
466.0499246317495
 20
359.7316595759601
 30
0.0
 10
466.0834539417086
 20
359.7316595759539
 30
0.0
 11
465.1834536079077
 21
359.7316595759719
 31
0.0
 11
465.3151176082663
 21
359.7316595759719
 31
0.0
 11
465.4984494095254
 21
359.7316595759717
 31
0.0
 11
465.6627163112851
 21
359.7316595759719
 31
0.0
 11
465.8270599002503
 21
359.7316595759719
 31
0.0
 11
465.9828660118312
 21
359.7316595759697
 31
0.0
 11
466.0834539417086
 21
359.7316595759539
 31
0.0
  0
SPLINE
  5
276
330
A
100
AcDbEntity
  8
0
  6
Continuous
 62
     7
100
AcDbSpline
210
0.0
220
0.0
230
1.0
 70
    24
 71
     3
 72
    13
 73
     9
 74
     7
 42
0.0000000001
 43
0.0000000001
 44
0.00000000001
 40
0.0
 40
0.0
 40
0.0
 40
0.0
 40
0.1316623604140545
 40
0.314992829397454
 40
0.4792591751742066
 40
0.6436022106394717
 40
0.799408540339357
 40
0.8999966085779647
 40
0.8999966085779647
 40
0.8999966085779647
 40
0.8999966085779647
 10
464.8834559801725
 20
358.6316595819318
 30
0.0
 10
464.8834559801725
 20
358.5877721284605
 30
0.0
 10
464.8834559801726
 20
358.4827745186613
 30
0.0
 10
464.8834559801729
 20
358.3230214602701
 30
0.0
 10
464.8834559801717
 20
358.1523748435281
 30
0.0
 10
464.8834559801753
 20
357.9909029398808
 30
0.0
 10
464.8834559801643
 20
357.8506571287462
 30
0.0
 10
464.8834559801962
 20
357.7651923294334
 30
0.0
 10
464.8834559802087
 20
357.7316629733539
 30
0.0
 11
464.8834559801725
 21
358.6316595819318
 31
0.0
 11
464.8834559801726
 21
358.4999972215178
 31
0.0
 11
464.8834559801725
 21
358.3166667525344
 31
0.0
 11
464.8834559801725
 21
358.1524004067576
 31
0.0
 11
464.8834559801725
 21
357.9880573712924
 31
0.0
 11
464.8834559801771
 21
357.8322510415925
 31
0.0
 11
464.8834559802087
 21
357.7316629733539
 31
0.0
  0
SPLINE
  5
275
330
A
100
AcDbEntity
  8
0
  6
Continuous
 62
     7
100
AcDbSpline
210
0.0
220
0.0
230
1.0
 70
    24
 71
     3
 72
    13
 73
     9
 74
     7
 42
0.0000000001
 43
0.0000000001
 44
0.00000000001
 40
0.0
 40
0.0
 40
0.0
 40
0.0
 40
0.1316640003585121
 40
0.3149958016171013
 40
0.4792627033752979
 40
0.6436062923368695
 40
0.7994124039217923
 40
0.9000003338128976
 40
0.9000003338128976
 40
0.9000003338128976
 40
0.9000003338128976
 10
463.7834597114216
 20
358.9316609349588
 30
0.0
 10
463.7395717113021
 20
358.9316609349589
 30
0.0
 10
463.6345731107631
 20
358.9316609349594
 30
0.0
 10
463.4748188763045
 20
358.9316609349579
 30
0.0
 10
463.3041714456453
 20
358.9316609349611
 30
0.0
 10
463.142699244877
 20
358.9316609349505
 30
0.0
 10
463.0024533680644
 20
358.9316609349834
 30
0.0
 10
462.9169886875724
 20
358.9316609348904
 30
0.0
 10
462.8834593776087
 20
358.9316609348539
 30
0.0
 11
463.7834597114216
 21
358.9316609349588
 31
0.0
 11
463.6517957110631
 21
358.931660934959
 31
0.0
 11
463.4684639098045
 21
358.9316609349588
 31
0.0
 11
463.3041970080463
 21
358.9316609349588
 31
0.0
 11
463.1398534190847
 21
358.9316609349588
 31
0.0
 11
462.9840473074998
 21
358.931660934946
 31
0.0
 11
462.8834593776087
 21
358.9316609348539
 31
0.0
  0
SPLINE
  5
274
330
A
100
AcDbEntity
  8
0
  6
Continuous
 62
     7
100
AcDbSpline
210
0.0
220
0.0
230
1.0
 70
     8
 71
     3
 72
    11
 73
     7
 74
     5
 42
0.0000000001
 43
0.0000000001
 44
0.00000000001
 40
0.0
 40
0.0
 40
0.0
 40
0.0
 40
0.0876311618781241
 40
0.1837694714677727
 40
0.2997625803904169
 40
0.4242633478781828
 40
0.4242633478781828
 40
0.4242633478781828
 40
0.4242633478781828
 10
639.1834560516087
 20
358.9316609348539
 30
0.0
 10
639.1628011512609
 20
358.9110061093301
 30
0.0
 10
639.1194861929887
 20
358.8676913079692
 30
0.0
 10
639.0488315923922
 20
358.7970364730052
 30
0.0
 10
638.9694873521595
 20
358.7176907789189
 30
0.0
 10
638.912803149333
 20
358.6610050811929
 30
0.0
 10
638.8834584239636
 20
358.6316595819318
 30
0.0
 11
639.1834560516087
 21
358.9316609348539
 31
0.0
 11
639.1214913847412
 21
358.8696964241068
 31
0.0
 11
639.0535114827664
 21
358.8017162247967
 31
0.0
 11
638.9714926612107
 21
358.719696018578
 31
0.0
 11
638.8834584239636
 21
358.6316595819318
 31
0.0
  0
SPLINE
  5
273
330
A
100
AcDbEntity
  8
0
  6
Continuous
 62
     7
100
AcDbSpline
210
0.0
220
0.0
230
1.0
 70
     8
 71
     3
 72
    11
 73
     7
 74
     5
 42
0.0000000001
 43
0.0000000001
 44
0.00000000001
 40
0.0
 40
0.0
 40
0.0
 40
0.0
 40
0.0876311619489466
 40
0.1837694715649225
 40
0.2997625804708056
 40
0.4242633479521404
 40
0.4242633479521404
 40
0.4242633479521404
 40
0.4242633479521404
 10
638.8834584240087
 20
360.0316609289539
 30
0.0
 10
638.9041133243698
 20
360.0110061034102
 30
0.0
 10
638.9474282826584
 20
359.9676913020198
 30
0.0
 10
639.0180828832749
 20
359.8970364670377
 30
0.0
 10
639.0974271235081
 20
359.8176907729505
 30
0.0
 10
639.1541113263301
 20
359.7610050752309
 30
0.0
 10
639.1834560516985
 20
359.7316595759719
 30
0.0
 11
638.8834584240087
 21
360.0316609289539
 31
0.0
 11
638.9454230909183
 21
359.9696964181488
 31
0.0
 11
639.0134029929105
 21
359.9017162188188
 31
0.0
 11
639.0954218144547
 21
359.8196960126124
 31
0.0
 11
639.1834560516985
 21
359.7316595759719
 31
0.0
  0
SPLINE
  5
272
330
A
100
AcDbEntity
  8
0
  6
Continuous
 62
     7
100
AcDbSpline
210
0.0
220
0.0
230
1.0
 70
     8
 71
     3
 72
    11
 73
     7
 74
     5
 42
0.0000000001
 43
0.0000000001
 44
0.00000000001
 40
0.0
 40
0.0
 40
0.0
 40
0.0
 40
0.0876315278572407
 40
0.1837706423234115
 40
0.2997655805486104
 40
0.4242686164000081
 40
0.4242686164000081
 40
0.4242686164000081
 40
0.4242686164000081
 10
638.0834597829086
 20
358.6316595818539
 30
0.0
 10
638.0628048711399
 20
358.6523145684807
 30
0.0
 10
638.0194897938419
 20
358.6956298027626
 30
0.0
 10
637.9488342517264
 20
358.7662851104958
 30
0.0
 10
637.8694874021049
 20
358.845630506274
 30
0.0
 10
637.8128007385507
 20
358.9023156749307
 30
0.0
 10
637.7834547046314
 20
358.9316609349588
 30
0.0
 11
638.0834597829086
 21
358.6316595818539
 31
0.0
 11
638.0214950134177
 21
358.69362450755
 31
0.0
 11
637.9535142449809
 21
358.7616049786654
 31
0.0
 11
637.8714927452521
 21
358.8436250937355
 31
0.0
 11
637.7834547046314
 21
358.9316609349588
 31
0.0
  0
SPLINE
  5
271
330
A
100
AcDbEntity
  8
0
  6
Continuous
 62
     7
100
AcDbSpline
210
0.0
220
0.0
230
1.0
 70
     8
 71
     3
 72
    11
 73
     7
 74
     5
 42
0.0000000001
 43
0.0000000001
 44
0.00000000001
 40
0.0
 40
0.0
 40
0.0
 40
0.0
 40
0.0876315279292688
 40
0.183770642424259
 40
0.2997655806308479
 40
0.4242686164719157
 40
0.4242686164719157
 40
0.4242686164719157
 40
0.4242686164719157
 10
637.7834547045087
 20
359.7316595759539
 30
0.0
 10
637.804109616334
 20
359.7523145625585
 30
0.0
 10
637.8474246937384
 20
359.7956297967814
 30
0.0
 10
637.9180802358594
 20
359.8662851045475
 30
0.0
 10
637.9974270854861
 20
359.9456305003204
 30
0.0
 10
638.0541137490318
 20
360.0023156689722
 30
0.0
 10
638.0834597829476
 20
360.0316609289988
 30
0.0
 11
637.7834547045087
 21
359.7316595759539
 31
0.0
 11
637.8454194741481
 21
359.7936245016035
 31
0.0
 11
637.9134002426199
 21
359.8616049727247
 31
0.0
 11
637.9954217423358
 21
359.9436250877813
 31
0.0
 11
638.0834597829476
 21
360.0316609289988
 31
0.0
  0
SPLINE
  5
270
330
A
100
AcDbEntity
  8
0
  6
Continuous
 62
     7
100
AcDbSpline
210
0.0
220
0.0
230
1.0
 70
    24
 71
     3
 72
    13
 73
     9
 74
     7
 42
0.0000000001
 43
0.0000000001
 44
0.00000000001
 40
0.0
 40
0.0
 40
0.0
 40
0.0
 40
0.131662730847836
 40
0.3149939572644484
 40
0.4792610425673729
 40
0.6436048212981973
 40
0.7994119003079732
 40
0.9000003338550754
 40
0.9000003338550754
 40
0.9000003338550754
 40
0.9000003338550754
 10
638.0834597829476
 20
360.0316609289988
 30
0.0
 10
638.0834597829475
 20
360.075548505948
 30
0.0
 10
638.0834597829474
 20
360.1805464917029
 30
0.0
 10
638.0834597829471
 20
360.3403001725589
 30
0.0
 10
638.0834597829485
 20
360.5109475360421
 30
0.0
 10
638.0834597829443
 20
360.6724201837233
 30
0.0
 10
638.0834597829569
 20
360.8126666141526
 30
0.0
 10
638.0834597829221
 20
360.8981317850048
 30
0.0
 10
638.0834597829086
 20
360.9316612628539
 30
0.0
 11
638.0834597829476
 21
360.0316609289988
 31
0.0
 11
638.0834597829474
 21
360.1633236598467
 31
0.0
 11
638.0834597829474
 21
360.3466548862633
 31
0.0
 11
638.0834597829476
 21
360.5109219715662
 31
0.0
 11
638.0834597829474
 21
360.675265750297
 31
0.0
 11
638.0834597829427
 21
360.8310728293068
 31
0.0
 11
638.0834597829086
 21
360.9316612628539
 31
0.0
  0
SPLINE
  5
26F
330
A
100
AcDbEntity
  8
0
  6
Continuous
 62
     7
100
AcDbSpline
210
0.0
220
0.0
230
1.0
 70
    24
 71
     3
 72
    13
 73
     9
 74
     7
 42
0.0000000001
 43
0.0000000001
 44
0.00000000001
 40
0.0
 40
0.0
 40
0.0
 40
0.0
 40
0.1316640003587963
 40
0.3149958016169876
 40
0.4792627033757526
 40
0.6436062923381769
 40
0.7994124039217923
 40
0.9000003338099986
 40
0.9000003338099986
 40
0.9000003338099986
 40
0.9000003338099986
 10
639.1834560516985
 20
359.7316595759719
 30
0.0
 10
639.2273440518181
 20
359.7316595759719
 30
0.0
 10
639.3323426523571
 20
359.7316595759719
 30
0.0
 10
639.4920968868157
 20
359.7316595759718
 30
0.0
 10
639.6627443174755
 20
359.7316595759722
 30
0.0
 10
639.8242165182434
 20
359.7316595759705
 30
0.0
 10
639.9644623950552
 20
359.731659575976
 30
0.0
 10
640.0499270755457
 20
359.7316595759601
 30
0.0
 10
640.0834563855084
 20
359.7316595759539
 30
0.0
 11
639.1834560516985
 21
359.7316595759719
 31
0.0
 11
639.3151200520573
 21
359.7316595759719
 31
0.0
 11
639.4984518533155
 21
359.7316595759719
 31
0.0
 11
639.6627187550742
 21
359.7316595759719
 31
0.0
 11
639.8270623440367
 21
359.7316595759719
 31
0.0
 11
639.9828684556203
 21
359.7316595759697
 31
0.0
 11
640.0834563855084
 21
359.7316595759539
 31
0.0
  0
SPLINE
  5
26E
330
A
100
AcDbEntity
  8
0
  6
Continuous
 62
     7
100
AcDbSpline
210
0.0
220
0.0
230
1.0
 70
    24
 71
     3
 72
    13
 73
     9
 74
     7
 42
0.0000000001
 43
0.0000000001
 44
0.00000000001
 40
0.0
 40
0.0
 40
0.0
 40
0.0
 40
0.1316623604140545
 40
0.314992829397454
 40
0.4792591751742066
 40
0.6436022106394717
 40
0.799408540339357
 40
0.8999966085779647
 40
0.8999966085779647
 40
0.8999966085779647
 40
0.8999966085779647
 10
638.8834584239636
 20
358.6316595819318
 30
0.0
 10
638.8834584239637
 20
358.5877721284605
 30
0.0
 10
638.8834584239639
 20
358.4827745186613
 30
0.0
 10
638.8834584239637
 20
358.3230214602701
 30
0.0
 10
638.8834584239632
 20
358.1523748435281
 30
0.0
 10
638.8834584239669
 20
357.9909029398808
 30
0.0
 10
638.8834584239533
 20
357.8506571287462
 30
0.0
 10
638.8834584239931
 20
357.7651923294334
 30
0.0
 10
638.8834584240087
 20
357.7316629733539
 30
0.0
 11
638.8834584239636
 21
358.6316595819318
 31
0.0
 11
638.8834584239638
 21
358.4999972215178
 31
0.0
 11
638.8834584239636
 21
358.3166667525344
 31
0.0
 11
638.8834584239638
 21
358.1524004067576
 31
0.0
 11
638.8834584239636
 21
357.9880573712924
 31
0.0
 11
638.8834584239694
 21
357.8322510415925
 31
0.0
 11
638.8834584240087
 21
357.7316629733539
 31
0.0
  0
SPLINE
  5
26D
330
A
100
AcDbEntity
  8
0
  6
Continuous
 62
     7
100
AcDbSpline
210
0.0
220
0.0
230
1.0
 70
    24
 71
     3
 72
    13
 73
     9
 74
     7
 42
0.0000000001
 43
0.0000000001
 44
0.00000000001
 40
0.0
 40
0.0
 40
0.0
 40
0.0
 40
0.1316610909042311
 40
0.3149909850440054
 40
0.4792575143673048
 40
0.6436007396022206
 40
0.7994080367261632
 40
0.8999966086229278
 40
0.8999966086229278
 40
0.8999966086229278
 40
0.8999966086229278
 10
637.7834547046314
 20
358.9316609349588
 30
0.0
 10
637.73956767433
 20
358.9316609349588
 30
0.0
 10
637.6345706793152
 20
358.9316609349589
 30
0.0
 10
637.4748181745263
 20
358.9316609349581
 30
0.0
 10
637.3041716249602
 20
358.9316609349611
 30
0.0
 10
637.1426992743996
 20
358.9316609349507
 30
0.0
 10
637.0024529096475
 20
358.9316609349828
 30
0.0
 10
636.916987619974
 20
358.9316609348902
 30
0.0
 10
636.8834580960085
 20
358.9316609348539
 30
0.0
 11
637.7834547046314
 21
358.9316609349588
 31
0.0
 11
637.6517936137272
 21
358.9316609349588
 31
0.0
 11
637.4684637195874
 21
358.9316609349588
 31
0.0
 11
637.3041971902641
 21
358.9316609349588
 31
0.0
 11
637.1398539650292
 21
358.9316609349588
 31
0.0
 11
636.9840466679053
 21
358.9316609349456
 31
0.0
 11
636.8834580960085
 21
358.9316609348539
 31
0.0
  0
SPLINE
  5
26C
330
A
100
AcDbEntity
  8
0
  6
Continuous
 62
     7
100
AcDbSpline
210
0.0
220
0.0
230
1.0
 70
     8
 71
     3
 72
    11
 73
     7
 74
     5
 42
0.0000000001
 43
0.0000000001
 44
0.00000000001
 40
0.0
 40
0.0
 40
0.0
 40
0.0
 40
0.1439704389962802
 40
0.3690103051434409
 40
0.7843859904911083
 40
1.281896584961242
 40
1.281896584961242
 40
1.281896584961242
 40
1.281896584961242
 10
101.3643925193477
 20
571.7318247106399
 30
0.0
 10
101.3676448087807
 20
571.6839453346631
 30
0.0
 10
101.3759807444386
 20
571.5612258148611
 30
0.0
 10
101.399338041584
 20
571.3007398288984
 30
0.0
 10
101.4557224652715
 20
570.92539973287
 30
0.0
 10
101.5118643610624
 20
570.6263347869241
 30
0.0
 10
101.5424609299529
 20
570.4633484628527
 30
0.0
 11
101.3643925193477
 21
571.7318247106399
 31
0.0
 11
101.374553131508
 21
571.5882132582229
 31
0.0
 11
101.3952338205911
 21
571.3641256627282
 31
0.0
 11
101.4539110795259
 21
570.9529153281525
 31
0.0
 11
101.5424609299529
 21
570.4633484628527
 31
0.0
  0
SPLINE
  5
26B
330
A
100
AcDbEntity
  8
0
  6
Continuous
 62
     7
100
AcDbSpline
210
0.0
220
0.0
230
1.0
 70
     8
 71
     3
 72
    11
 73
     7
 74
     5
 42
0.0000000001
 43
0.0000000001
 44
0.00000000001
 40
0.0
 40
0.0
 40
0.0
 40
0.0
 40
0.1439683294793327
 40
0.3690057890615109
 40
0.7843783460370371
 40
1.281885489910271
 40
1.281885489910271
 40
1.281885489910271
 40
1.281885489910271
 10
101.3643925193477
 20
357.7318194356299
 30
0.0
 10
101.3676448475935
 20
357.683940767068
 30
0.0
 10
101.3759809028563
 20
357.5612227641865
 30
0.0
 10
101.3993383782983
 20
357.3007393547021
 30
0.0
 10
101.4557227418332
 20
356.9254022842911
 30
0.0
 10
101.5118644532503
 20
356.6263395348804
 30
0.0
 10
101.5424609299529
 20
356.4633543637128
 30
0.0
 11
101.3643925193477
 21
357.7318194356299
 31
0.0
 11
101.3745532363895
 21
357.5882101054237
 31
0.0
 11
101.3952340462055
 21
357.3641249378633
 31
0.0
 11
101.4539113081525
 21
356.9529177637785
 31
0.0
 11
101.5424609299529
 21
356.4633543637128
 31
0.0
  0
SPLINE
  5
26A
330
A
100
AcDbEntity
  8
0
  6
Continuous
 62
     7
100
AcDbSpline
210
0.0
220
0.0
230
1.0
 70
     8
 71
     3
 72
    11
 73
     7
 74
     5
 42
0.0000000001
 43
0.0000000001
 44
0.00000000001
 40
0.0
 40
0.0
 40
0.0
 40
0.0
 40
0.1439692558418483
 40
0.369007635518643
 40
0.784381117607996
 40
1.281889197654999
 40
1.281889197654999
 40
1.281889197654999
 40
1.281889197654999
 10
101.3643925193477
 20
381.7318215068929
 30
0.0
 10
101.3676448246183
 20
381.6839425272807
 30
0.0
 10
101.3759808090677
 20
381.5612239027076
 30
0.0
 10
101.3993381790293
 20
381.3007395547908
 30
0.0
 10
101.4557225784878
 20
380.9254015482126
 30
0.0
 10
101.511864398744
 20
380.6263381880716
 30
0.0
 10
101.5424609299529
 20
380.4633527096838
 30
0.0
 11
101.3643925193477
 21
381.7318215068929
 31
0.0
 11
101.3745531743041
 21
381.5882112436158
 31
0.0
 11
101.3952339125636
 21
381.3641251454468
 31
0.0
 11
101.4539111728275
 21
380.952917036637
 31
0.0
 11
101.5424609299529
 21
380.4633527096838
 31
0.0
  0
SPLINE
  5
269
330
A
100
AcDbEntity
  8
0
  6
Continuous
 62
     7
100
AcDbSpline
210
0.0
220
0.0
230
1.0
 70
     8
 71
     3
 72
    13
 73
     9
 74
     7
 42
0.0000000001
 43
0.0000000001
 44
0.00000000001
 40
0.0
 40
0.0
 40
0.0
 40
0.0
 40
0.1317047158820263
 40
0.315065908770523
 40
0.4799343979375256
 40
0.645000146193693
 40
0.8019965298931763
 40
0.9033539056976817
 40
0.9033539056976817
 40
0.9033539056976817
 40
0.9033539056976817
 10
101.2872226651539
 20
572.6316611316527
 30
0.0
 10
101.2893758435141
 20
572.5878124533457
 30
0.0
 10
101.2945267076442
 20
572.4829170167114
 30
0.0
 10
101.3036984158492
 20
572.3231959182116
 30
0.0
 10
101.3168188936882
 20
572.1525872112691
 30
0.0
 10
101.3328391785199
 20
571.9910608248128
 30
0.0
 10
101.3483475748782
 20
571.8507748595435
 30
0.0
 10
101.358215269569
 20
571.7652240866502
 30
0.0
 10
101.362086564653
 20
571.7316607978667
 30
0.0
 11
101.2872226651539
 21
572.6316611316527
 31
0.0
 11
101.2938342531563
 21
572.5001224715955
 31
0.0
 11
101.3046746496161
 21
572.3170820037692
 31
0.0
 11
101.3174184985531
 21
572.1527067835124
 31
0.0
 11
101.3334198876675
 21
571.9884184491919
 31
0.0
 11
101.3505350284632
 21
571.8323577672434
 31
0.0
 11
101.362086564653
 21
571.7316607978667
 31
0.0
  0
SPLINE
  5
268
330
A
100
AcDbEntity
  8
0
  6
Continuous
 62
     7
100
AcDbSpline
210
0.0
220
0.0
230
1.0
 70
     8
 71
     3
 72
    11
 73
     7
 74
     5
 42
0.0000000001
 43
0.0000000001
 44
0.00000000001
 40
0.0
 40
0.0
 40
0.0
 40
0.0
 40
0.0619694409161249
 40
0.1299506085505736
 40
0.2119739516020828
 40
0.3000191454240273
 40
0.3000191454240273
 40
0.3000191454240273
 40
0.3000191454240273
 10
101.2872226651539
 20
572.9316662099687
 30
0.0
 10
101.2869202109802
 20
572.9110119556167
 30
0.0
 10
101.2862859612058
 20
572.8676997539486
 30
0.0
 10
101.2856989057722
 20
572.7970428075447
 30
0.0
 10
101.2861267245913
 20
572.7176919956483
 30
0.0
 10
101.2868488287873
 20
572.6610071260512
 30
0.0
 10
101.2872226651539
 20
572.6316611316527
 30
0.0
 11
101.2872226651539
 21
572.9316662099687
 31
0.0
 11
101.2863776922323
 21
572.8697025300569
 31
0.0
 11
101.2858784876293
 21
572.8017231953462
 31
0.0
 11
101.2862127746635
 21
572.7197005334927
 31
0.0
 11
101.2872226651539
 21
572.6316611316527
 31
0.0
  0
SPLINE
  5
267
330
A
100
AcDbEntity
  8
0
  6
Continuous
 62
     7
100
AcDbSpline
210
0.0
220
0.0
230
1.0
 70
    24
 71
     3
 72
    14
 73
    10
 74
     8
 42
0.0000000001
 43
0.0000000001
 44
0.00000000001
 40
0.0
 40
0.0
 40
0.0
 40
0.0
 40
0.0052226351625109
 40
0.0122738993485001
 40
0.0262794265495927
 40
0.0421512663579904
 40
0.0557716307540943
 40
0.0677018973510002
 40
0.0748638994546838
 40
0.0748638994546838
 40
0.0748638994546838
 40
0.0748638994546838
 10
101.2872226651539
 20
573.7316648509849
 30
0.0
 10
101.2889635435414
 20
573.7316648509849
 30
0.0
 10
101.2930548433242
 20
573.7316648509849
 30
0.0
 10
101.3018146521741
 20
573.7316648509849
 30
0.0
 10
101.3141241959059
 20
573.7316648509851
 30
0.0
 10
101.3286234397078
 20
573.7316648509836
 30
0.0
 10
101.3424309299749
 20
573.7316648509888
 30
0.0
 10
101.3533351410071
 20
573.7316648509858
 30
0.0
 10
101.359699230574
 20
573.7316648510352
 30
0.0
 10
101.3620865646086
 20
573.7316648510539
 30
0.0
 11
101.2872226651539
 21
573.7316648509849
 31
0.0
 11
101.2924453003164
 21
573.7316648509849
 31
0.0
 11
101.2994965645024
 21
573.7316648509849
 31
0.0
 11
101.3135020917035
 21
573.7316648509849
 31
0.0
 11
101.3293739315119
 21
573.7316648509849
 31
0.0
 11
101.342994295908
 21
573.7316648509874
 31
0.0
 11
101.3549245625049
 21
573.7316648510053
 31
0.0
 11
101.3620865646086
 21
573.7316648510539
 31
0.0
  0
SPLINE
  5
266
330
A
100
AcDbEntity
  8
0
  6
Continuous
 62
     7
100
AcDbSpline
210
0.0
220
0.0
230
1.0
 70
     8
 71
     3
 72
    11
 73
     7
 74
     5
 42
0.0000000001
 43
0.0000000001
 44
0.00000000001
 40
0.0
 40
0.0
 40
0.0
 40
0.0
 40
0.061970167921688
 40
0.129951653211783
 40
0.2119675893999408
 40
0.300004244696264
 40
0.300004244696264
 40
0.300004244696264
 40
0.300004244696264
 10
101.2872226651539
 20
574.0316550281387
 30
0.0
 10
101.2869202072305
 20
574.0110005314875
 30
0.0
 10
101.2862859519351
 20
573.9676879816573
 30
0.0
 10
101.2856989172459
 20
573.8970331557866
 30
0.0
 10
101.286126745524
 20
573.817687553324
 30
0.0
 10
101.2868488367209
 20
573.7610079990932
 30
0.0
 10
101.2872226651539
 20
573.7316648509849
 30
0.0
 11
101.2872226651539
 21
574.0316550281387
 31
0.0
 11
101.2863776824772
 21
573.9696906212867
 31
0.0
 11
101.2858784898732
 21
573.9017109688237
 31
0.0
 11
101.2862127947532
 21
573.8196957139678
 31
0.0
 11
101.2872226651539
 21
573.7316648509849
 31
0.0
  0
SPLINE
  5
265
330
A
100
AcDbEntity
  8
0
  6
Continuous
 62
     7
100
AcDbSpline
210
0.0
220
0.0
230
1.0
 70
     8
 71
     3
 72
    13
 73
     9
 74
     7
 42
0.0000000001
 43
0.0000000001
 44
0.00000000001
 40
0.0
 40
0.0
 40
0.0
 40
0.0
 40
0.1317041294535632
 40
0.3150659844750936
 40
0.4799342299556836
 40
0.6449997607712133
 40
0.8019952297972807
 40
0.9033502353165909
 40
0.9033502353165909
 40
0.9033502353165909
 40
0.9033502353165909
 10
101.2872226651539
 20
358.6316595819318
 30
0.0
 10
101.2893759108181
 20
358.5878111025337
 30
0.0
 10
101.2945269601271
 20
358.4829156494707
 30
0.0
 10
101.3036985794999
 20
358.3231946069831
 30
0.0
 10
101.3168180032028
 20
358.1525857543104
 30
0.0
 10
101.3328377045865
 20
357.9910597638155
 30
0.0
 10
101.3483467380159
 20
357.8507750409175
 30
0.0
 10
101.3582150634337
 20
357.7652254430856
 30
0.0
 10
101.362086564653
 20
357.7316629734379
 30
0.0
 11
101.2872226651539
 21
358.6316595819318
 31
0.0
 11
101.2938344117135
 21
358.5001215170132
 31
0.0
 11
101.3046746490053
 21
358.3170803764671
 31
0.0
 11
101.3174176858202
 21
358.1527053376669
 31
0.0
 11
101.3334186744589
 21
357.9884171828108
 31
0.0
 11
101.3505344524468
 21
357.8323574909023
 31
0.0
 11
101.362086564653
 21
357.7316629734379
 31
0.0
  0
SPLINE
  5
264
330
A
100
AcDbEntity
  8
0
  6
Continuous
 62
     7
100
AcDbSpline
210
0.0
220
0.0
230
1.0
 70
     8
 71
     3
 72
    11
 73
     7
 74
     5
 42
0.0000000001
 43
0.0000000001
 44
0.00000000001
 40
0.0
 40
0.0
 40
0.0
 40
0.0
 40
0.0619705034814659
 40
0.1299530476434924
 40
0.2119734225238463
 40
0.3000154203483341
 40
0.3000154203483341
 40
0.3000154203483341
 40
0.3000154203483341
 10
101.2872226651539
 20
358.9316609349588
 30
0.0
 10
101.286920208758
 20
358.9110063264178
 30
0.0
 10
101.286285953294
 20
358.8676933117252
 30
0.0
 10
101.2856989025542
 20
358.7970365416024
 30
0.0
 10
101.286126725311
 20
358.7176873256598
 30
0.0
 10
101.2868488290462
 20
358.6610045109255
 30
0.0
 10
101.2872226651539
 20
358.6316595819318
 30
0.0
 11
101.2872226651539
 21
358.9316609349588
 31
0.0
 11
101.2863776855707
 21
358.8696961924737
 31
0.0
 11
101.2858784805097
 21
358.8017154812017
 31
0.0
 11
101.2862127758722
 21
358.719695787578
 31
0.0
 11
101.2872226651539
 21
358.6316595819318
 31
0.0
  0
SPLINE
  5
263
330
A
100
AcDbEntity
  8
0
  6
Continuous
 62
     7
100
AcDbSpline
210
0.0
220
0.0
230
1.0
 70
    24
 71
     3
 72
    14
 73
    10
 74
     8
 42
0.0000000001
 43
0.0000000001
 44
0.00000000001
 40
0.0
 40
0.0
 40
0.0
 40
0.0
 40
0.0052223503265054
 40
0.0122732324836932
 40
0.0262805571751983
 40
0.0421545640025869
 40
0.0557737220821935
 40
0.0677025834606866
 40
0.0748638994546838
 40
0.0748638994546838
 40
0.0748638994546838
 40
0.0748638994546838
 10
101.2872226651539
 20
359.7316595759719
 30
0.0
 10
101.2889634485961
 20
359.7316595759719
 30
0.0
 10
101.2930545260906
 20
359.7316595759719
 30
0.0
 10
101.3018147118156
 20
359.7316595759719
 30
0.0
 10
101.3141254497077
 20
359.7316595759718
 30
0.0
 10
101.3286256129072
 20
359.7316595759721
 30
0.0
 10
101.3424329550024
 20
359.7316595759712
 30
0.0
 10
101.3533360668197
 20
359.7316595759712
 30
0.0
 10
101.3596994592772
 20
359.7316595759587
 30
0.0
 10
101.3620865646086
 20
359.7316595759539
 30
0.0
 11
101.2872226651539
 21
359.7316595759719
 31
0.0
 11
101.2924450154804
 21
359.7316595759719
 31
0.0
 11
101.2994958976376
 21
359.7316595759719
 31
0.0
 11
101.3135032223291
 21
359.7316595759719
 31
0.0
 11
101.3293772291565
 21
359.7316595759719
 31
0.0
 11
101.3429963872361
 21
359.7316595759713
 31
0.0
 11
101.3549252486146
 21
359.7316595759663
 31
0.0
 11
101.3620865646086
 21
359.7316595759539
 31
0.0
  0
SPLINE
  5
262
330
A
100
AcDbEntity
  8
0
  6
Continuous
 62
     7
100
AcDbSpline
210
0.0
220
0.0
230
1.0
 70
     8
 71
     3
 72
    11
 73
     7
 74
     5
 42
0.0000000001
 43
0.0000000001
 44
0.00000000001
 40
0.0
 40
0.0
 40
0.0
 40
0.0
 40
0.0619705034814659
 40
0.1299530476434924
 40
0.2119734225238463
 40
0.3000154203482772
 40
0.3000154203482772
 40
0.3000154203482772
 40
0.3000154203482772
 10
101.2872226651539
 20
360.0316609289988
 30
0.0
 10
101.286920208758
 20
360.0110063204578
 30
0.0
 10
101.286285953294
 20
359.9676933057653
 30
0.0
 10
101.2856989025542
 20
359.8970365356424
 30
0.0
 10
101.286126725311
 20
359.8176873196999
 30
0.0
 10
101.2868488290462
 20
359.7610045049656
 30
0.0
 10
101.2872226651539
 20
359.7316595759719
 30
0.0
 11
101.2872226651539
 21
360.0316609289988
 31
0.0
 11
101.2863776855707
 21
359.9696961865137
 31
0.0
 11
101.2858784805097
 21
359.9017154752417
 31
0.0
 11
101.2862127758722
 21
359.8196957816179
 31
0.0
 11
101.2872226651539
 21
359.7316595759719
 31
0.0
  0
SPLINE
  5
261
330
A
100
AcDbEntity
  8
0
  6
Continuous
 62
     7
100
AcDbSpline
210
0.0
220
0.0
230
1.0
 70
     8
 71
     3
 72
    13
 73
     9
 74
     7
 42
0.0000000001
 43
0.0000000001
 44
0.00000000001
 40
0.0
 40
0.0
 40
0.0
 40
0.0
 40
0.131705130838298
 40
0.3150680244184537
 40
0.4799369158289577
 40
0.6450030946017367
 40
0.801998832620981
 40
0.9033539534710211
 40
0.9033539534710211
 40
0.9033539534710211
 40
0.9033539534710211
 10
101.2872226651539
 20
382.6316616531949
 30
0.0
 10
101.2893758996325
 20
382.5878128390523
 30
0.0
 10
101.2945269163694
 20
382.4829167035937
 30
0.0
 10
101.3036985011143
 20
382.3231947621843
 30
0.0
 10
101.3168179253932
 20
382.1525851294681
 30
0.0
 10
101.3328376538535
 20
381.9910586179501
 30
0.0
 10
101.3483467189627
 20
381.850773552348
 30
0.0
 10
101.3582150590375
 20
381.7652238272484
 30
0.0
 10
101.362086564653
 20
381.7316613194089
 30
0.0
 11
101.2872226651539
 21
382.6316616531949
 31
0.0
 11
101.2938343811433
 21
382.5001225840907
 31
0.0
 11
101.3046745850388
 21
382.3170804011885
 31
0.0
 11
101.317417615706
 21
382.1527047140437
 31
0.0
 11
101.3334186403729
 21
381.9884159116734
 31
0.0
 11
101.3505344398795
 21
381.8323559515188
 31
0.0
 11
101.362086564653
 21
381.7316613194089
 31
0.0
  0
SPLINE
  5
260
330
A
100
AcDbEntity
  8
0
  6
Continuous
 62
     7
100
AcDbSpline
210
0.0
220
0.0
230
1.0
 70
     8
 71
     3
 72
    11
 73
     7
 74
     5
 42
0.0000000001
 43
0.0000000001
 44
0.00000000001
 40
0.0
 40
0.0
 40
0.0
 40
0.0
 40
0.0619697135224217
 40
0.1299510002614113
 40
0.2119715657679227
 40
0.300013557651962
 40
0.300013557651962
 40
0.300013557651962
 40
0.300013557651962
 10
101.2872226651539
 20
382.9316611435759
 30
0.0
 10
101.2869202095741
 20
382.9110067983685
 30
0.0
 10
101.2862859577292
 20
382.8676944661521
 30
0.0
 10
101.285698910075
 20
382.7970383149511
 30
0.0
 10
101.2861267324407
 20
382.7176894565848
 30
0.0
 10
101.2868488317623
 20
382.6610065802376
 30
0.0
 10
101.2872226651539
 20
382.6316616531949
 30
0.0
 11
101.2872226651539
 21
382.9316611435759
 31
0.0
 11
101.2863776885742
 21
382.8696971910823
 31
0.0
 11
101.2858784884706
 21
382.8017177372308
 31
0.0
 11
101.2862127821969
 21
382.7196978529727
 31
0.0
 11
101.2872226651539
 21
382.6316616531949
 31
0.0
  0
SPLINE
  5
25F
330
A
100
AcDbEntity
  8
0
  6
Continuous
 62
     7
100
AcDbSpline
210
0.0
220
0.0
230
1.0
 70
    24
 71
     3
 72
    14
 73
    10
 74
     8
 42
0.0000000001
 43
0.0000000001
 44
0.00000000001
 40
0.0
 40
0.0
 40
0.0
 40
0.0
 40
0.0052226351625109
 40
0.0122738993485001
 40
0.0262794265495927
 40
0.0421512663579904
 40
0.0557716307540943
 40
0.0677018973510002
 40
0.0748638994546838
 40
0.0748638994546838
 40
0.0748638994546838
 40
0.0748638994546838
 10
101.2872226651539
 20
383.7316616472349
 30
0.0
 10
101.2889635435414
 20
383.7316616472349
 30
0.0
 10
101.2930548433242
 20
383.7316616472348
 30
0.0
 10
101.3018146521741
 20
383.731661647235
 30
0.0
 10
101.3141241959059
 20
383.7316616472344
 30
0.0
 10
101.3286234397078
 20
383.7316616472365
 30
0.0
 10
101.3424309299749
 20
383.7316616472302
 30
0.0
 10
101.3533351410071
 20
383.7316616472339
 30
0.0
 10
101.359699230574
 20
383.7316616471757
 30
0.0
 10
101.3620865646086
 20
383.7316616471538
 30
0.0
 11
101.2872226651539
 21
383.7316616472349
 31
0.0
 11
101.2924453003164
 21
383.7316616472349
 31
0.0
 11
101.2994965645024
 21
383.7316616472349
 31
0.0
 11
101.3135020917035
 21
383.7316616472349
 31
0.0
 11
101.3293739315119
 21
383.7316616472348
 31
0.0
 11
101.342994295908
 21
383.7316616472318
 31
0.0
 11
101.3549245625049
 21
383.7316616472108
 31
0.0
 11
101.3620865646086
 21
383.7316616471538
 31
0.0
  0
SPLINE
  5
25E
330
A
100
AcDbEntity
  8
0
  6
Continuous
 62
     7
100
AcDbSpline
210
0.0
220
0.0
230
1.0
 70
     8
 71
     3
 72
    11
 73
     7
 74
     5
 42
0.0000000001
 43
0.0000000001
 44
0.00000000001
 40
0.0
 40
0.0
 40
0.0
 40
0.0
 40
0.0619697135240131
 40
0.1299510002625481
 40
0.2119715657679802
 40
0.3000135576519605
 40
0.3000135576519605
 40
0.3000135576519605
 40
0.3000135576519605
 10
101.2872226651539
 20
384.0316611376159
 30
0.0
 10
101.2869202095741
 20
384.0110067924081
 30
0.0
 10
101.2862859577293
 20
383.9676944601913
 30
0.0
 10
101.2856989100749
 20
383.8970383089901
 30
0.0
 10
101.286126732441
 20
383.8176894506246
 30
0.0
 10
101.2868488317624
 20
383.7610065742776
 30
0.0
 10
101.2872226651539
 20
383.7316616472349
 30
0.0
 11
101.2872226651539
 21
384.0316611376159
 31
0.0
 11
101.2863776885742
 21
383.9696971851207
 31
0.0
 11
101.2858784884706
 21
383.9017177312697
 31
0.0
 11
101.2862127821971
 21
383.8196978470127
 31
0.0
 11
101.2872226651539
 21
383.7316616472349
 31
0.0
  0
SPLINE
  5
25D
330
A
100
AcDbEntity
  8
0
  6
Continuous
 62
     7
100
AcDbSpline
210
0.0
220
0.0
230
1.0
 70
     8
 71
     3
 72
    11
 73
     7
 74
     5
 42
0.0000000001
 43
0.0000000001
 44
0.00000000001
 40
0.0
 40
0.0
 40
0.0
 40
0.0
 40
0.1439667335625061
 40
0.3690029193372392
 40
0.7843749042219985
 40
1.28188175399086
 40
1.28188175399086
 40
1.28188175399086
 40
1.28188175399086
 10
640.0832999232894
 20
44.68975101311616
 30
0.0
 10
640.1311780550702
 20
44.69300339445157
 30
0.0
 10
640.2538950881121
 20
44.70133961336736
 30
0.0
 10
640.5143773203508
 20
44.72469733243938
 30
0.0
 10
640.8897136717066
 20
44.78108161243298
 30
0.0
 10
641.1887761747283
 20
44.83722307286036
 30
0.0
 10
641.3517612699178
 20
44.86781942372139
 30
0.0
 11
640.0832999232894
 21
44.68975101311616
 31
0.0
 11
640.2269076434386
 21
44.69991187362231
 31
0.0
 11
640.4509915165042
 21
44.72059284893643
 31
0.0
 11
640.8621981121722
 21
44.7792701146043
 31
0.0
 11
641.3517612699178
 21
44.86781942372139
 31
0.0
  0
SPLINE
  5
25C
330
A
100
AcDbEntity
  8
0
  6
Continuous
 62
     7
100
AcDbSpline
210
0.0
220
0.0
230
1.0
 70
     8
 71
     3
 72
    11
 73
     7
 74
     5
 42
0.0000000001
 43
0.0000000001
 44
0.00000000001
 40
0.0
 40
0.0
 40
0.0
 40
0.0
 40
0.1439699875447839
 40
0.3690088316893039
 40
0.7843818928488144
 40
1.281889045741448
 40
1.281889045741448
 40
1.281889045741448
 40
1.281889045741448
 10
462.8836158398306
 20
134.3177578104
 30
0.0
 10
462.8357366439713
 20
134.3145050883445
 30
0.0
 10
462.7130176910314
 20
134.3061680509801
 30
0.0
 10
462.4525332412598
 20
134.2828090928622
 30
0.0
 10
462.0771955442599
 20
134.2264249823195
 30
0.0
 10
461.7781323613615
 20
134.1702846452107
 30
0.0
 10
461.6151470426216
 20
134.1396889341333
 30
0.0
 11
462.8836158398306
 21
134.3177578104
 31
0.0
 11
462.7400049285695
 21
134.3075959463785
 31
0.0
 11
462.5159184864225
 21
134.2869138812057
 31
0.0
 11
462.1047108064178
 21
134.2282365956326
 31
0.0
 11
461.6151470426216
 21
134.1396889341333
 31
0.0
  0
SPLINE
  5
25B
330
A
100
AcDbEntity
  8
0
  6
Continuous
 62
     7
100
AcDbSpline
210
0.0
220
0.0
230
1.0
 70
     8
 71
     3
 72
    11
 73
     7
 74
     5
 42
0.0000000001
 43
0.0000000001
 44
0.00000000001
 40
0.0
 40
0.0
 40
0.0
 40
0.0
 40
0.1439699875419488
 40
0.369008831685383
 40
0.7843818928455688
 40
1.28188904573867
 40
1.28188904573867
 40
1.28188904573867
 40
1.28188904573867
 10
636.8836182836188
 20
134.3177578104
 30
0.0
 10
636.8357390877604
 20
134.3145050883445
 30
0.0
 10
636.7130201348219
 20
134.30616805098
 30
0.0
 10
636.4525356850513
 20
134.2828090928622
 30
0.0
 10
636.0771979880515
 20
134.2264249823197
 30
0.0
 10
635.7781348051528
 20
134.1702846452108
 30
0.0
 10
635.6151494864126
 20
134.1396889341333
 30
0.0
 11
636.8836182836188
 21
134.3177578104
 31
0.0
 11
636.7400073723605
 21
134.3075959463785
 31
0.0
 11
636.5159209302146
 21
134.2869138812059
 31
0.0
 11
636.1047132502093
 21
134.2282365956327
 31
0.0
 11
635.6151494864126
 21
134.1396889341333
 31
0.0
  0
SPLINE
  5
25A
330
A
100
AcDbEntity
  8
0
  6
Continuous
 62
     7
100
AcDbSpline
210
0.0
220
0.0
230
1.0
 70
     8
 71
     3
 72
    11
 73
     7
 74
     5
 42
0.0000000001
 43
0.0000000001
 44
0.00000000001
 40
0.0
 40
0.0
 40
0.0
 40
0.0
 40
0.1439699254006302
 40
0.369008658792381
 40
0.7843817878554123
 40
1.281889225829466
 40
1.281889225829466
 40
1.281889225829466
 40
1.281889225829466
 10
466.0832974795016
 20
44.68975101311616
 30
0.0
 10
466.1311766848457
 20
44.69300328827422
 30
0.0
 10
466.253895657568
 20
44.70133917989024
 30
0.0
 10
466.5143802442981
 20
44.72469641171396
 30
0.0
 10
466.8897180337624
 20
44.7810808587893
 30
0.0
 10
467.1887810295619
 20
44.83722282118395
 30
0.0
 10
467.3517662767076
 20
44.86781942372139
 30
0.0
 11
466.0832974795016
 21
44.68975101311616
 31
0.0
 11
466.2269084197685
 21
44.69991158669905
 31
0.0
 11
466.4509948818245
 21
44.72059223102632
 31
0.0
 11
466.8622026343225
 21
44.77926948925433
 31
0.0
 11
467.3517662767076
 21
44.86781942372139
 31
0.0
  0
SPLINE
  5
259
330
A
100
AcDbEntity
  8
0
  6
Continuous
 62
     7
100
AcDbSpline
210
0.0
220
0.0
230
1.0
 70
     8
 71
     3
 72
    11
 73
     7
 74
     5
 42
0.0000000001
 43
0.0000000001
 44
0.00000000001
 40
0.0
 40
0.0
 40
0.0
 40
0.0
 40
0.1139564372398366
 40
0.2729842613563691
 40
0.5379087959092636
 40
0.8485512482143139
 40
0.8485512482143139
 40
0.8485512482143139
 40
0.8485512482143139
 10
676.1833000663435
 20
44.68975101311616
 30
0.0
 10
676.2212060925038
 20
44.69220117926518
 30
0.0
 10
676.3120105156935
 20
44.69807058701952
 30
0.0
 10
676.4906743465527
 20
44.71379996293605
 30
0.0
 10
676.733026557107
 20
44.74980982182624
 30
0.0
 10
676.9216770080009
 20
44.78471204562774
 30
0.0
 10
677.0234945896767
 20
44.80354931850849
 30
0.0
 11
676.1833000663435
 21
44.68975101311616
 31
0.0
 11
676.2969947923449
 21
44.69746974797902
 31
0.0
 11
676.4553680904993
 21
44.71188318875268
 31
0.0
 11
676.7176816757669
 21
44.74898564139542
 31
0.0
 11
677.0234945896767
 21
44.80354931850849
 31
0.0
  0
SPLINE
  5
258
330
A
100
AcDbEntity
  8
0
  6
Continuous
 62
     7
100
AcDbSpline
210
0.0
220
0.0
230
1.0
 70
    24
 71
     3
 72
    11
 73
     7
 74
     5
 42
0.0000000001
 43
0.0000000001
 44
0.00000000001
 40
0.0
 40
0.0
 40
0.0
 40
0.0
 40
0.0897538030420719
 40
0.175867794326706
 40
0.2849113604525826
 40
0.3898916766015219
 40
0.3898916766015219
 40
0.3898916766015219
 40
0.3898916766015219
 10
733.1834528330455
 20
64.82723473285236
 30
0.0
 10
733.1834528330453
 20
64.85715266719971
 30
0.0
 10
733.1834528330452
 20
64.91577526530862
 30
0.0
 10
733.1834528330467
 20
65.0107457187928
 30
0.0
 10
733.1834528330404
 20
65.11079167664597
 30
0.0
 10
733.1834528330865
 20
65.18213297073756
 30
0.0
 10
733.1834528331088
 20
65.21712640945388
 30
0.0
 11
733.1834528330455
 21
64.82723473285236
 31
0.0
 11
733.1834528330455
 21
64.91698853589443
 31
0.0
 11
733.1834528330455
 21
65.00310252717906
 31
0.0
 11
733.1834528330534
 21
65.11214609330494
 31
0.0
 11
733.1834528331088
 21
65.21712640945388
 31
0.0
  0
SPLINE
  5
257
330
A
100
AcDbEntity
  8
0
  6
Continuous
 62
     7
100
AcDbSpline
210
0.0
220
0.0
230
1.0
 70
    24
 71
     3
 72
    11
 73
     7
 74
     5
 42
0.0000000001
 43
0.0000000001
 44
0.00000000001
 40
0.0
 40
0.0
 40
0.0
 40
0.0
 40
0.1227774671446298
 40
0.2393835490454705
 40
0.3104322947922924
 40
0.379631295732608
 40
0.379631295732608
 40
0.379631295732608
 40
0.379631295732608
 10
733.1834528330455
 20
66.17133530502127
 30
0.0
 10
733.1834528330452
 20
66.21226112740281
 30
0.0
 10
733.1834528330449
 20
66.29205564375133
 30
0.0
 10
733.1834528330477
 20
66.39553307534874
 30
0.0
 10
733.1834528330408
 20
66.48115101821139
 30
0.0
 10
733.1834528330863
 20
66.52790026710711
 30
0.0
 10
733.1834528331088
 20
66.55096660075388
 30
0.0
 11
733.1834528330455
 21
66.17133530502127
 31
0.0
 11
733.1834528330455
 21
66.2941127721659
 31
0.0
 11
733.1834528330455
 21
66.41071885406674
 31
0.0
 11
733.1834528330534
 21
66.48176759981357
 31
0.0
 11
733.1834528331088
 21
66.55096660075388
 31
0.0
  0
SPLINE
  5
256
330
A
100
AcDbEntity
  8
0
  6
Continuous
 62
     7
100
AcDbSpline
210
0.0
220
0.0
230
1.0
 70
    24
 71
     3
 72
    11
 73
     7
 74
     5
 42
0.0000000001
 43
0.0000000001
 44
0.00000000001
 40
0.0
 40
0.0
 40
0.0
 40
0.0
 40
0.0790264383970083
 40
0.1546036945390199
 40
0.2586024980782895
 40
0.3591105340674119
 40
0.3591105340674119
 40
0.3591105340674119
 40
0.3591105340674119
 10
733.1834528331088
 20
65.81222477095386
 30
0.0
 10
733.1834528330862
 20
65.83856691708618
 30
0.0
 10
733.183452833042
 20
65.89010148193252
 30
0.0
 10
733.1834528330468
 20
65.9763023146253
 30
0.0
 10
733.1834528330452
 20
66.06966367984878
 30
0.0
 10
733.1834528330455
 20
66.13783262635823
 30
0.0
 10
733.1834528330455
 20
66.17133530502127
 30
0.0
 11
733.1834528331088
 21
65.81222477095386
 31
0.0
 11
733.1834528330534
 21
65.89125120935086
 31
0.0
 11
733.1834528330455
 21
65.96682846549288
 31
0.0
 11
733.1834528330455
 21
66.07082726903215
 31
0.0
 11
733.1834528330455
 21
66.17133530502127
 31
0.0
  0
SPLINE
  5
255
330
A
100
AcDbEntity
  8
0
  6
Continuous
 62
     7
100
AcDbSpline
210
0.0
220
0.0
230
1.0
 70
    24
 71
     3
 72
    14
 73
    10
 74
     8
 42
0.0000000001
 43
0.0000000001
 44
0.00000000001
 40
0.0
 40
0.0
 40
0.0
 40
0.0
 40
0.0039631464768206
 40
0.0057777312620573
 40
0.0202212906226862
 40
0.0451628191250677
 40
0.0755672008207853
 40
0.1063993197614366
 40
0.1326240599984771
 40
0.1326240599984771
 40
0.1326240599984771
 40
0.1326240599984771
 10
733.1834528331088
 20
64.69461067285388
 30
0.0
 10
733.1834528330862
 20
64.6959317216795
 30
0.0
 10
733.1834528330531
 20
64.69785763210018
 30
0.0
 10
733.1834528330318
 20
64.70459806230774
 30
0.0
 10
733.1834528330564
 20
64.71833128652384
 30
0.0
 10
733.1834528330411
 20
64.74159444304338
 30
0.0
 10
733.1834528330468
 20
64.77032045275632
 30
0.0
 10
733.1834528330452
 20
64.79947419971413
 30
0.0
 10
733.1834528330455
 20
64.81849315277334
 30
0.0
 10
733.1834528330455
 20
64.82723473285236
 30
0.0
 11
733.1834528331088
 21
64.69461067285388
 31
0.0
 11
733.1834528330534
 21
64.69857381933071
 31
0.0
 11
733.1834528330455
 21
64.70038840411594
 31
0.0
 11
733.1834528330459
 21
64.71483196347657
 31
0.0
 11
733.1834528330455
 21
64.73977349197895
 31
0.0
 11
733.1834528330455
 21
64.77017787367467
 31
0.0
 11
733.1834528330455
 21
64.80100999261532
 31
0.0
 11
733.1834528330455
 21
64.82723473285236
 31
0.0
  0
SPLINE
  5
254
330
A
100
AcDbEntity
  8
0
  6
Continuous
 62
     7
100
AcDbSpline
210
0.0
220
0.0
230
1.0
 70
    24
 71
     3
 72
    13
 73
     9
 74
     7
 42
0.0000000001
 43
0.0000000001
 44
0.00000000001
 40
0.0
 40
0.0
 40
0.0
 40
0.0
 40
0.0373269336955104
 40
0.0769010488227195
 40
0.111489905234933
 40
0.133861062785428
 40
0.1376759839939723
 40
0.1436434686000183
 40
0.1436434686000183
 40
0.1436434686000183
 40
0.1436434686000183
 10
733.1834528331088
 20
66.55096660075388
 30
0.0
 10
733.1834528330951
 20
66.56340891198571
 30
0.0
 10
733.1834528330668
 20
66.58904259492661
 30
0.0
 10
733.1834528330518
 20
66.62620589667162
 30
0.0
 10
733.1834528330498
 20
66.65838393970156
 30
0.0
 10
733.1834528330404
 20
66.67864225142533
 30
0.0
 10
733.1834528330487
 20
66.68936010588035
 30
0.0
 10
733.1834528330861
 20
66.69262090781855
 30
0.0
 10
733.1834528331088
 20
66.6946100693539
 30
0.0
 11
733.1834528331088
 21
66.55096660075388
 31
0.0
 11
733.183452833072
 21
66.58829353444939
 31
0.0
 11
733.1834528330534
 21
66.6278676495766
 31
0.0
 11
733.1834528330468
 21
66.66245650598881
 31
0.0
 11
733.1834528330455
 21
66.68482766353931
 31
0.0
 11
733.1834528330534
 21
66.68864258474785
 31
0.0
 11
733.1834528331088
 21
66.6946100693539
 31
0.0
  0
SPLINE
  5
253
330
A
100
AcDbEntity
  8
0
  6
Continuous
 62
     7
100
AcDbSpline
210
0.0
220
0.0
230
1.0
 70
    24
 71
     3
 72
    11
 73
     7
 74
     5
 42
0.0000000001
 43
0.0000000001
 44
0.00000000001
 40
0.0
 40
0.0
 40
0.0
 40
0.0
 40
0.0876762757339123
 40
0.172116797042662
 40
0.2623637185580208
 40
0.3488510848328872
 40
0.3488510848328872
 40
0.3488510848328872
 40
0.3488510848328872
 10
733.1834528330455
 20
65.46337368612097
 30
0.0
 10
733.1834528330455
 20
65.49259911136562
 30
0.0
 10
733.1834528330452
 20
65.5499713770465
 30
0.0
 10
733.1834528330468
 20
65.63742594989917
 30
0.0
 10
733.1834528330404
 20
65.72448421959883
 30
0.0
 10
733.1834528330863
 20
65.78339564886224
 30
0.0
 10
733.1834528331088
 20
65.81222477095386
 30
0.0
 11
733.1834528330455
 21
65.46337368612097
 31
0.0
 11
733.1834528330455
 21
65.55104996185488
 31
0.0
 11
733.1834528330455
 21
65.63549048316364
 31
0.0
 11
733.1834528330534
 21
65.72573740467899
 31
0.0
 11
733.1834528331088
 21
65.81222477095386
 31
0.0
  0
SPLINE
  5
252
330
A
100
AcDbEntity
  8
0
  6
Continuous
 62
     7
100
AcDbSpline
210
0.0
220
0.0
230
1.0
 70
    24
 71
     3
 72
    11
 73
     7
 74
     5
 42
0.0000000001
 43
0.0000000001
 44
0.00000000001
 40
0.0
 40
0.0
 40
0.0
 40
0.0
 40
0.02592777051035
 40
0.0596371735770021
 40
0.0887239138648397
 40
0.1219399273394686
 40
0.1219399273394686
 40
0.1219399273394686
 40
0.1219399273394686
 10
733.1834528330455
 20
65.34143375878151
 30
0.0
 10
733.1834528330455
 20
65.35007634895162
 30
0.0
 10
733.1834528330453
 20
65.3699554068106
 30
0.0
 10
733.1834528330456
 20
65.3995300447656
 30
0.0
 10
733.1834528330452
 20
65.43153409704192
 30
0.0
 10
733.1834528330453
 20
65.45230168162942
 30
0.0
 10
733.1834528330455
 20
65.46337368612097
 30
0.0
 11
733.1834528330455
 21
65.34143375878151
 31
0.0
 11
733.1834528330455
 21
65.36736152929186
 31
0.0
 11
733.1834528330455
 21
65.4010709323585
 31
0.0
 11
733.1834528330455
 21
65.43015767264634
 31
0.0
 11
733.1834528330455
 21
65.46337368612097
 31
0.0
  0
SPLINE
  5
251
330
A
100
AcDbEntity
  8
0
  6
Continuous
 62
     7
100
AcDbSpline
210
0.0
220
0.0
230
1.0
 70
    24
 71
     3
 72
    11
 73
     7
 74
     5
 42
0.0000000001
 43
0.0000000001
 44
0.00000000001
 40
0.0
 40
0.0
 40
0.0
 40
0.0
 40
0.0512928114608897
 40
0.1007339606367026
 40
0.1498267937802922
 40
0.1968685535999981
 40
0.1968685535999981
 40
0.1968685535999981
 40
0.1968685535999981
 10
733.1834528331088
 20
60.2060894174539
 30
0.0
 10
733.1834528330862
 20
60.22318702127419
 30
0.0
 10
733.1834528330415
 20
60.2567650081531
 30
0.0
 10
733.183452833048
 20
60.30670727274652
 30
0.0
 10
733.18345283304
 20
60.35523252012621
 30
0.0
 10
733.1834528330862
 20
60.38727738444733
 30
0.0
 10
733.1834528331088
 20
60.4029579710539
 30
0.0
 11
733.1834528331088
 21
60.2060894174539
 31
0.0
 11
733.1834528330534
 21
60.25738222891479
 31
0.0
 11
733.1834528330455
 21
60.3068233780906
 31
0.0
 11
733.1834528330534
 21
60.35591621123419
 31
0.0
 11
733.1834528331088
 21
60.4029579710539
 31
0.0
  0
SPLINE
  5
250
330
A
100
AcDbEntity
  8
0
  6
Continuous
 62
     7
100
AcDbSpline
210
0.0
220
0.0
230
1.0
 70
    24
 71
     3
 72
    14
 73
    10
 74
     8
 42
0.0000000001
 43
0.0000000001
 44
0.00000000001
 40
0.0
 40
0.0
 40
0.0
 40
0.0
 40
0.0050654911620782
 40
0.0078295706527385
 40
0.0230855778021919
 40
0.0459851223413779
 40
0.0708929975067534
 40
0.1003406332783427
 40
0.1273863018000085
 40
0.1273863018000085
 40
0.1273863018000085
 40
0.1273863018000085
 10
733.1834528331088
 20
60.07870311565389
 30
0.0
 10
733.1834528330862
 20
60.08039161270792
 30
0.0
 10
733.1834528330509
 20
60.08300146959218
 30
0.0
 10
733.1834528330384
 20
60.09069666219289
 30
0.0
 10
733.1834528330498
 20
60.10433653925264
 30
0.0
 10
733.1834528330436
 20
60.12535768153732
 30
0.0
 10
733.1834528330473
 20
60.15110936669604
 30
0.0
 10
733.1834528330398
 20
60.17824309318227
 30
0.0
 10
733.1834528330865
 20
60.19707419461335
 30
0.0
 10
733.1834528331088
 20
60.2060894174539
 30
0.0
 11
733.1834528331088
 21
60.07870311565389
 31
0.0
 11
733.1834528330534
 21
60.08376860681597
 31
0.0
 11
733.1834528330455
 21
60.08653268630663
 31
0.0
 11
733.1834528330455
 21
60.10178869345608
 31
0.0
 11
733.1834528330455
 21
60.12468823799526
 31
0.0
 11
733.1834528330455
 21
60.14959611316064
 31
0.0
 11
733.1834528330537
 21
60.17904374893223
 31
0.0
 11
733.1834528331088
 21
60.2060894174539
 31
0.0
  0
SPLINE
  5
24F
330
A
100
AcDbEntity
  8
0
  6
Continuous
 62
     7
100
AcDbSpline
210
0.0
220
0.0
230
1.0
 70
     8
 71
     3
 72
    13
 73
     9
 74
     7
 42
0.0000000001
 43
0.0000000001
 44
0.00000000001
 40
0.0
 40
0.0
 40
0.0
 40
0.0
 40
0.1317057572761598
 40
0.3150689265752502
 40
0.4799377429098142
 40
0.6450038462960715
 40
0.8019990952686827
 40
0.9033539593678415
 40
0.9033539593678415
 40
0.9033539593678415
 40
0.9033539593678415
 10
639.1834560516985
 20
44.61258115892228
 30
0.0
 10
639.2273050758947
 20
44.61473437302375
 30
0.0
 10
639.3322015152801
 20
44.61988533126328
 30
0.0
 10
639.4919237357877
 20
44.62905687600536
 30
0.0
 10
639.6625334047298
 20
44.64217638285066
 30
0.0
 10
639.8240596936745
 20
44.658196193253
 30
0.0
 10
639.96434448442
 20
44.67370525187341
 30
0.0
 10
640.0498939626349
 20
44.68357356285202
 30
0.0
 10
640.0834563854847
 20
44.68744505842148
 30
0.0
 11
639.1834560516985
 21
44.61258115892228
 31
0.0
 11
639.3149957507318
 21
44.61919282118831
 31
0.0
 11
639.4980382117863
 21
44.63003299215237
 31
0.0
 11
639.6624138193868
 21
44.64277607755142
 31
0.0
 11
639.8267025382265
 21
44.65877718217412
 31
0.0
 11
639.9827620086328
 21
44.67589296134099
 31
0.0
 11
640.0834563854847
 21
44.68744505842148
 31
0.0
  0
SPLINE
  5
24E
330
A
100
AcDbEntity
  8
0
  6
Continuous
 62
     7
100
AcDbSpline
210
0.0
220
0.0
230
1.0
 70
     8
 71
     3
 72
    11
 73
     7
 74
     5
 42
0.0000000001
 43
0.0000000001
 44
0.00000000001
 40
0.0
 40
0.0
 40
0.0
 40
0.0
 40
0.0619711256651397
 40
0.1299543978204632
 40
0.2119723627224789
 40
0.3000116952172233
 40
0.3000116952172233
 40
0.3000116952172233
 40
0.3000116952172233
 10
638.8834584239636
 20
44.61258115892228
 30
0.0
 10
638.904113239895
 20
44.6122787009465
 30
0.0
 10
638.9474267046359
 20
44.61164444194787
 30
0.0
 10
639.0180831215559
 20
44.61105739614734
 30
0.0
 10
639.097430888333
 20
44.61148522205632
 30
0.0
 10
639.1541120111984
 20
44.61220732393583
 30
0.0
 10
639.1834560516985
 20
44.61258115892228
 30
0.0
 11
638.8834584239636
 21
44.61258115892228
 31
0.0
 11
638.9454237886281
 21
44.61173617478886
 31
0.0
 11
639.0134052279225
 21
44.61123697099877
 31
0.0
 11
639.0954225115217
 21
44.61157127275629
 31
0.0
 11
639.1834560516985
 21
44.61258115892228
 31
0.0
  0
SPLINE
  5
24D
330
A
100
AcDbEntity
  8
0
  6
Continuous
 62
     7
100
AcDbSpline
210
0.0
220
0.0
230
1.0
 70
    24
 71
     3
 72
    14
 73
    10
 74
     8
 42
0.0000000001
 43
0.0000000001
 44
0.00000000001
 40
0.0
 40
0.0
 40
0.0
 40
0.0
 40
0.0052224868164714
 40
0.0122736135026713
 40
0.0262807854752154
 40
0.0421545152847571
 40
0.0557736657353232
 40
0.0677025603618589
 40
0.0748638995316
 40
0.0748638995316
 40
0.0748638995316
 40
0.0748638995316
 10
638.0834597829476
 20
44.61258115892228
 30
0.0
 10
638.0834597829477
 20
44.6143219878611
 30
0.0
 10
638.0834597829476
 20
44.61841319236198
 30
0.0
 10
638.0834597829475
 20
44.62717345418707
 30
0.0
 10
638.0834597829476
 20
44.63948413034316
 30
0.0
 10
638.083459782948
 20
44.65398414775404
 30
0.0
 10
638.0834597829455
 20
44.6677914060496
 30
0.0
 10
638.0834597829468
 20
44.67869453413186
 30
0.0
 10
638.0834597829191
 20
44.68505794539729
 30
0.0
 10
638.0834597829086
 20
44.68744505845388
 30
0.0
 11
638.0834597829476
 21
44.61258115892228
 31
0.0
 11
638.0834597829477
 21
44.61780364573875
 31
0.0
 11
638.0834597829476
 21
44.62485477242495
 31
0.0
 11
638.0834597829477
 21
44.6388619443975
 31
0.0
 11
638.0834597829474
 21
44.65473567420704
 31
0.0
 11
638.0834597829462
 21
44.6683548246576
 31
0.0
 11
638.0834597829361
 21
44.68028371928414
 31
0.0
 11
638.0834597829086
 21
44.68744505845388
 31
0.0
  0
SPLINE
  5
24C
330
A
100
AcDbEntity
  8
0
  6
Continuous
 62
     7
100
AcDbSpline
210
0.0
220
0.0
230
1.0
 70
     8
 71
     3
 72
    11
 73
     7
 74
     5
 42
0.0000000001
 43
0.0000000001
 44
0.00000000001
 40
0.0
 40
0.0
 40
0.0
 40
0.0
 40
0.0619707621461629
 40
0.1299538754604182
 40
0.2119755438155972
 40
0.3000191455813346
 40
0.3000191455813346
 40
0.3000191455813346
 40
0.3000191455813346
 10
637.7834547046314
 20
44.61258115892228
 30
0.0
 10
637.8041093994079
 20
44.61227870282121
 30
0.0
 10
637.8474226900581
 20
44.6116444465828
 30
0.0
 10
637.9180801672418
 20
44.61105739041051
 30
0.0
 10
637.9974305387413
 20
44.61148521158988
 30
0.0
 10
638.0541143192998
 20
44.61220731996903
 30
0.0
 10
638.0834597829476
 20
44.61258115892228
 30
0.0
 11
637.7834547046314
 21
44.61258115892228
 31
0.0
 11
637.8454197058098
 21
44.61173617966614
 31
0.0
 11
637.9134009862147
 21
44.61123696987661
 31
0.0
 11
637.9954219733342
 21
44.61157126271149
 31
0.0
 11
638.0834597829476
 21
44.61258115892228
 31
0.0
  0
SPLINE
  5
24B
330
A
100
AcDbEntity
  8
0
  6
Continuous
 62
     7
100
AcDbSpline
210
0.0
220
0.0
230
1.0
 70
     8
 71
     3
 72
    13
 73
     9
 74
     7
 42
0.0000000001
 43
0.0000000001
 44
0.00000000001
 40
0.0
 40
0.0
 40
0.0
 40
0.0
 40
0.1317057902299597
 40
0.3150690531173236
 40
0.4799381247801627
 40
0.6450041731509858
 40
0.801999474404038
 40
0.903354603858482
 40
0.903354603858482
 40
0.903354603858482
 40
0.903354603858482
 10
463.7834597114216
 20
134.394930924223
 30
0.0
 10
463.7396107753013
 20
134.3927756695098
 30
0.0
 10
463.6347145307283
 20
134.3876198289009
 30
0.0
 10
463.4749924044907
 20
134.3784454583202
 30
0.0
 10
463.3043819763683
 20
134.3653351668776
 30
0.0
 10
463.142854854586
 20
134.3493223290763
 30
0.0
 10
463.0025705297755
 20
134.3338080235177
 30
0.0
 10
462.9170216229319
 20
134.3239338433352
 30
0.0
 10
462.8834593776356
 20
134.3200600398045
 30
0.0
 11
463.7834597114216
 21
134.394930924223
 31
0.0
 11
463.6519202606055
 21
134.3883136695744
 31
0.0
 11
463.4688778218928
 21
134.3774715384741
 31
0.0
 11
463.3045014383851
 21
134.3647351600278
 31
0.0
 11
463.140212273813
 21
134.3487392002584
 31
0.0
 11
462.9841532740576
 21
134.3316186508838
 31
0.0
 11
462.8834593776356
 21
134.3200600398045
 31
0.0
  0
SPLINE
  5
24A
330
A
100
AcDbEntity
  8
0
  6
Continuous
 62
     7
100
AcDbSpline
210
0.0
220
0.0
230
1.0
 70
     8
 71
     3
 72
    11
 73
     7
 74
     5
 42
0.0000000001
 43
0.0000000001
 44
0.00000000001
 40
0.0
 40
0.0
 40
0.0
 40
0.0
 40
0.0619711064080752
 40
0.1299543729445174
 40
0.2119723350619461
 40
0.3000116445350176
 40
0.3000116445350176
 40
0.3000116445350176
 40
0.3000116445350176
 10
464.0834573391567
 20
134.394930924223
 30
0.0
 10
464.0628025216247
 20
134.3952328368452
 30
0.0
 10
464.0194890483587
 20
134.3958659523046
 30
0.0
 10
463.9488326369209
 20
134.3964519394866
 30
0.0
 10
463.8694848838978
 20
134.3960248851451
 30
0.0
 10
463.8128037529076
 20
134.3953040851683
 30
0.0
 10
463.7834597114216
 20
134.394930924223
 30
0.0
 11
464.0834573391567
 21
134.394930924223
 31
0.0
 11
464.0214919729934
 21
134.3957743847633
 31
0.0
 11
463.9535105327144
 21
134.3962726884553
 31
0.0
 11
463.871493249445
 21
134.3959389894868
 31
0.0
 11
463.7834597114216
 21
134.394930924223
 31
0.0
  0
SPLINE
  5
249
330
A
100
AcDbEntity
  8
0
  6
Continuous
 62
     7
100
AcDbSpline
210
0.0
220
0.0
230
1.0
 70
    24
 71
     3
 72
    14
 73
    10
 74
     8
 42
0.0000000001
 43
0.0000000001
 44
0.00000000001
 40
0.0
 40
0.0
 40
0.0
 40
0.0
 40
0.0052314402826994
 40
0.012295012456093
 40
0.0262837384682087
 40
0.0421319177151816
 40
0.0557603940479794
 40
0.0677018973474049
 40
0.0748708844690782
 40
0.0748708844690782
 40
0.0748708844690782
 40
0.0748708844690782
 10
464.8834559801725
 20
134.394930924223
 30
0.0
 10
464.8834559801725
 20
134.3931871107954
 30
0.0
 10
464.8834559801725
 20
134.3890887733101
 30
0.0
 10
464.8834559801723
 20
134.380327527154
 30
0.0
 10
464.8834559801726
 20
134.3680273680098
 30
0.0
 10
464.8834559801717
 20
134.3535389074792
 30
0.0
 10
464.8834559801746
 20
134.3397328545195
 30
0.0
 10
464.8834559801731
 20
134.3288198656015
 30
0.0
 10
464.8834559801989
 20
134.3224497021278
 30
0.0
 10
464.8834559802087
 20
134.3200600397539
 30
0.0
 11
464.8834559801725
 21
134.394930924223
 31
0.0
 11
464.8834559801725
 21
134.3896994839403
 31
0.0
 11
464.8834559801725
 21
134.3826359117669
 31
0.0
 11
464.8834559801725
 21
134.3686471857548
 31
0.0
 11
464.8834559801725
 21
134.3527990065078
 31
0.0
 11
464.8834559801739
 21
134.339170530175
 31
0.0
 11
464.8834559801833
 21
134.3272290268756
 31
0.0
 11
464.8834559802087
 21
134.3200600397539
 31
0.0
  0
SPLINE
  5
248
330
A
100
AcDbEntity
  8
0
  6
Continuous
 62
     7
100
AcDbSpline
210
0.0
220
0.0
230
1.0
 70
     8
 71
     3
 72
    11
 73
     7
 74
     5
 42
0.0000000001
 43
0.0000000001
 44
0.00000000001
 40
0.0
 40
0.0
 40
0.0
 40
0.0
 40
0.0619711064097804
 40
0.1299543729450857
 40
0.2119723350618892
 40
0.3000116445350743
 40
0.3000116445350743
 40
0.3000116445350743
 40
0.3000116445350743
 10
465.1834536079077
 20
134.394930924223
 30
0.0
 10
465.162798790375
 20
134.3952328368452
 30
0.0
 10
465.1194853171088
 20
134.3958659523046
 30
0.0
 10
465.0488289056712
 20
134.3964519394867
 30
0.0
 10
464.9694811526486
 20
134.3960248851451
 30
0.0
 10
464.9128000216585
 20
134.3953040851683
 30
0.0
 10
464.8834559801725
 20
134.394930924223
 30
0.0
 11
465.1834536079077
 21
134.394930924223
 31
0.0
 11
465.1214882417426
 21
134.3957743847633
 31
0.0
 11
465.0535068014648
 21
134.3962726884553
 31
0.0
 11
464.971489518196
 21
134.3959389894868
 31
0.0
 11
464.8834559801725
 21
134.394930924223
 31
0.0
  0
SPLINE
  5
247
330
A
100
AcDbEntity
  8
0
  6
Continuous
 62
     7
100
AcDbSpline
210
0.0
220
0.0
230
1.0
 70
     8
 71
     3
 72
    13
 73
     9
 74
     7
 42
0.0000000001
 43
0.0000000001
 44
0.00000000001
 40
0.0
 40
0.0
 40
0.0
 40
0.0
 40
0.1317029095360413
 40
0.3150643066950969
 40
0.479932957681637
 40
0.6449985842845577
 40
0.8019950836637356
 40
0.9033508680326171
 40
0.9033508680326171
 40
0.9033508680326171
 40
0.9033508680326171
 10
637.7834547046314
 20
134.394930924223
 30
0.0
 10
637.7396067334217
 20
134.3927755971717
 30
0.0
 10
637.6347120830465
 20
134.3876195484138
 30
0.0
 10
637.4749916930229
 20
134.3784450230557
 30
0.0
 10
637.3043821536124
 20
134.3653349799308
 30
0.0
 10
637.1428548851106
 20
134.3493224152555
 30
0.0
 10
637.0025700784228
 20
134.3338081219414
 30
0.0
 10
636.9170205582072
 20
134.3239338690901
 30
0.0
 10
636.8834580961378
 20
134.3200600398045
 30
0.0
 11
637.7834547046314
 21
134.394930924223
 31
0.0
 11
637.6519181478017
 21
134.3883134777634
 31
0.0
 11
637.4688775859267
 21
134.3774712143192
 31
0.0
 11
637.304501612107
 21
134.3647349939634
 31
0.0
 11
637.1402128444186
 21
134.3487393102567
 31
0.0
 11
636.9841526436771
 21
134.3316187214284
 31
0.0
 11
636.8834580961378
 21
134.3200600398045
 31
0.0
  0
SPLINE
  5
246
330
A
100
AcDbEntity
  8
0
  6
Continuous
 62
     7
100
AcDbSpline
210
0.0
220
0.0
230
1.0
 70
     8
 71
     3
 72
    11
 73
     7
 74
     5
 42
0.0000000001
 43
0.0000000001
 44
0.00000000001
 40
0.0
 40
0.0
 40
0.0
 40
0.0
 40
0.0619707428895545
 40
0.1299538505807766
 40
0.2119755161532581
 40
0.3000190948997397
 40
0.3000190948997397
 40
0.3000190948997397
 40
0.3000190948997397
 10
638.0834597829476
 20
134.394930924223
 30
0.0
 10
638.0628050865705
 20
134.3952328349738
 30
0.0
 10
638.0194917873969
 20
134.3958659476777
 30
0.0
 10
637.9488343156954
 20
134.3964519452132
 30
0.0
 10
637.86948395795
 20
134.3960248955928
 30
0.0
 10
637.8128001692658
 20
134.395304089128
 30
0.0
 10
637.7834547046314
 20
134.394930924223
 30
0.0
 11
638.0834597829476
 21
134.394930924223
 31
0.0
 11
638.0214947802702
 21
134.3957743798946
 31
0.0
 11
637.9535134988847
 21
134.3962726895754
 31
0.0
 11
637.8714925120934
 21
134.3959389995136
 31
0.0
 11
637.7834547046314
 21
134.394930924223
 31
0.0
  0
SPLINE
  5
245
330
A
100
AcDbEntity
  8
0
  6
Continuous
 62
     7
100
AcDbSpline
210
0.0
220
0.0
230
1.0
 70
    24
 71
     3
 72
    14
 73
    10
 74
     8
 42
0.0000000001
 43
0.0000000001
 44
0.00000000001
 40
0.0
 40
0.0
 40
0.0
 40
0.0
 40
0.0052314402826994
 40
0.012295012456093
 40
0.0262837384682087
 40
0.0421319177151816
 40
0.0557603940479794
 40
0.0677018973474049
 40
0.0748708844690782
 40
0.0748708844690782
 40
0.0748708844690782
 40
0.0748708844690782
 10
638.8834584239636
 20
134.394930924223
 30
0.0
 10
638.8834584239636
 20
134.3931871107954
 30
0.0
 10
638.8834584239637
 20
134.3890887733101
 30
0.0
 10
638.8834584239634
 20
134.380327527154
 30
0.0
 10
638.8834584239642
 20
134.3680273680098
 30
0.0
 10
638.8834584239623
 20
134.3535389074792
 30
0.0
 10
638.8834584239662
 20
134.3397328545195
 30
0.0
 10
638.8834584239639
 20
134.3288198656015
 30
0.0
 10
638.8834584239964
 20
134.3224497021278
 30
0.0
 10
638.8834584240087
 20
134.3200600397539
 30
0.0
 11
638.8834584239636
 21
134.394930924223
 31
0.0
 11
638.8834584239636
 21
134.3896994839403
 31
0.0
 11
638.8834584239636
 21
134.3826359117669
 31
0.0
 11
638.8834584239638
 21
134.3686471857548
 31
0.0
 11
638.8834584239633
 21
134.3527990065078
 31
0.0
 11
638.8834584239652
 21
134.339170530175
 31
0.0
 11
638.8834584239767
 21
134.3272290268756
 31
0.0
 11
638.8834584240087
 21
134.3200600397539
 31
0.0
  0
SPLINE
  5
244
330
A
100
AcDbEntity
  8
0
  6
Continuous
 62
     7
100
AcDbSpline
210
0.0
220
0.0
230
1.0
 70
     8
 71
     3
 72
    11
 73
     7
 74
     5
 42
0.0000000001
 43
0.0000000001
 44
0.00000000001
 40
0.0
 40
0.0
 40
0.0
 40
0.0
 40
0.0619711064110308
 40
0.1299543729491783
 40
0.2119723350650722
 40
0.3000116445348469
 40
0.3000116445348469
 40
0.3000116445348469
 40
0.3000116445348469
 10
639.1834560516985
 20
134.394930924223
 30
0.0
 10
639.1628012341655
 20
134.3952328368452
 30
0.0
 10
639.1194877608982
 20
134.3958659523046
 30
0.0
 10
639.048831349459
 20
134.3964519394867
 30
0.0
 10
638.9694835964371
 20
134.3960248851451
 30
0.0
 10
638.9128024654483
 20
134.3953040851683
 30
0.0
 10
638.8834584239636
 20
134.394930924223
 30
0.0
 11
639.1834560516985
 21
134.394930924223
 31
0.0
 11
639.1214906855322
 21
134.3957743847633
 31
0.0
 11
639.0535092452515
 21
134.3962726884553
 31
0.0
 11
638.9714919619836
 21
134.3959389894868
 31
0.0
 11
638.8834584239636
 21
134.394930924223
 31
0.0
  0
SPLINE
  5
243
330
A
100
AcDbEntity
  8
0
  6
Continuous
 62
     7
100
AcDbSpline
210
0.0
220
0.0
230
1.0
 70
     8
 71
     3
 72
    13
 73
     9
 74
     7
 42
0.0000000001
 43
0.0000000001
 44
0.00000000001
 40
0.0
 40
0.0
 40
0.0
 40
0.0
 40
0.1317057572757616
 40
0.3150689265745096
 40
0.4799377429119133
 40
0.6450038463000576
 40
0.8019990952699457
 40
0.9033539593676207
 40
0.9033539593676207
 40
0.9033539593676207
 40
0.9033539593676207
 10
465.1834536079077
 20
44.61258115892228
 30
0.0
 10
465.2273026321037
 20
44.61473437302374
 30
0.0
 10
465.3321990714891
 20
44.61988533126327
 30
0.0
 10
465.4919212919971
 20
44.62905687600541
 30
0.0
 10
465.6625309609409
 20
44.64217638285062
 30
0.0
 10
465.8240572498861
 20
44.65819619325301
 30
0.0
 10
465.9643420406307
 20
44.67370525187361
 30
0.0
 10
466.0498915188443
 20
44.68357356285208
 30
0.0
 10
466.0834539416937
 20
44.68744505842148
 30
0.0
 11
465.1834536079077
 21
44.61258115892228
 31
0.0
 11
465.3149933069405
 21
44.6191928211883
 31
0.0
 11
465.4980357679947
 21
44.63003299215231
 31
0.0
 11
465.6624113755981
 21
44.64277607755145
 31
0.0
 11
465.8267000944396
 21
44.65877718217436
 31
0.0
 11
465.9827595648431
 21
44.67589296134113
 31
0.0
 11
466.0834539416937
 21
44.68744505842148
 31
0.0
  0
SPLINE
  5
242
330
A
100
AcDbEntity
  8
0
  6
Continuous
 62
     7
100
AcDbSpline
210
0.0
220
0.0
230
1.0
 70
     8
 71
     3
 72
    11
 73
     7
 74
     5
 42
0.0000000001
 43
0.0000000001
 44
0.00000000001
 40
0.0
 40
0.0
 40
0.0
 40
0.0
 40
0.0619711256653102
 40
0.1299543978204632
 40
0.21197236272282
 40
0.3000116952174507
 40
0.3000116952174507
 40
0.3000116952174507
 40
0.3000116952174507
 10
464.8834559801725
 20
44.61258115892228
 30
0.0
 10
464.9041107961039
 20
44.6122787009465
 30
0.0
 10
464.9474242608449
 20
44.61164444194787
 30
0.0
 10
465.0180806777651
 20
44.61105739614734
 30
0.0
 10
465.0974284445421
 20
44.61148522205631
 30
0.0
 10
465.1541095674077
 20
44.61220732393584
 30
0.0
 10
465.1834536079077
 20
44.61258115892228
 30
0.0
 11
464.8834559801725
 21
44.61258115892228
 31
0.0
 11
464.9454213448373
 21
44.61173617478886
 31
0.0
 11
465.0134027841314
 21
44.61123697099877
 31
0.0
 11
465.095420067731
 21
44.61157127275629
 31
0.0
 11
465.1834536079077
 21
44.61258115892228
 31
0.0
  0
SPLINE
  5
241
330
A
100
AcDbEntity
  8
0
  6
Continuous
 62
     7
100
AcDbSpline
210
0.0
220
0.0
230
1.0
 70
    24
 71
     3
 72
    14
 73
    10
 74
     8
 42
0.0000000001
 43
0.0000000001
 44
0.00000000001
 40
0.0
 40
0.0
 40
0.0
 40
0.0
 40
0.0052224868164714
 40
0.0122736135026713
 40
0.0262807854752154
 40
0.0421545152847571
 40
0.0557736657353232
 40
0.0677025603618589
 40
0.0748638995316
 40
0.0748638995316
 40
0.0748638995316
 40
0.0748638995316
 10
464.0834573391567
 20
44.61258115892228
 30
0.0
 10
464.0834573391567
 20
44.6143219878611
 30
0.0
 10
464.0834573391565
 20
44.61841319236198
 30
0.0
 10
464.0834573391567
 20
44.62717345418707
 30
0.0
 10
464.0834573391565
 20
44.63948413034316
 30
0.0
 10
464.0834573391576
 20
44.65398414775404
 30
0.0
 10
464.0834573391535
 20
44.6677914060496
 30
0.0
 10
464.083457339156
 20
44.67869453413186
 30
0.0
 10
464.0834573391215
 20
44.68505794539729
 30
0.0
 10
464.0834573391086
 20
44.68744505845388
 30
0.0
 11
464.0834573391567
 21
44.61258115892228
 31
0.0
 11
464.0834573391567
 21
44.61780364573875
 31
0.0
 11
464.0834573391567
 21
44.62485477242495
 31
0.0
 11
464.0834573391567
 21
44.6388619443975
 31
0.0
 11
464.0834573391567
 21
44.65473567420704
 31
0.0
 11
464.0834573391548
 21
44.6683548246576
 31
0.0
 11
464.0834573391424
 21
44.68028371928414
 31
0.0
 11
464.0834573391086
 21
44.68744505845388
 31
0.0
  0
SPLINE
  5
240
330
A
100
AcDbEntity
  8
0
  6
Continuous
 62
     7
100
AcDbSpline
210
0.0
220
0.0
230
1.0
 70
     8
 71
     3
 72
    11
 73
     7
 74
     5
 42
0.0000000001
 43
0.0000000001
 44
0.00000000001
 40
0.0
 40
0.0
 40
0.0
 40
0.0
 40
0.0619711256663903
 40
0.1299543978235895
 40
0.2119723627240137
 40
0.3000116952173939
 40
0.3000116952173939
 40
0.3000116952173939
 40
0.3000116952173939
 10
463.7834597114216
 20
44.61258115892228
 30
0.0
 10
463.8041145273534
 20
44.6122787009465
 30
0.0
 10
463.8474279920955
 20
44.61164444194785
 30
0.0
 10
463.918084409016
 20
44.61105739614735
 30
0.0
 10
463.9974321757927
 20
44.61148522205631
 30
0.0
 10
464.0541132986572
 20
44.61220732393583
 30
0.0
 10
464.0834573391567
 20
44.61258115892228
 30
0.0
 11
463.7834597114216
 21
44.61258115892228
 31
0.0
 11
463.8454250760875
 21
44.61173617478884
 31
0.0
 11
463.9134065153836
 21
44.61123697099877
 31
0.0
 11
463.9954237989813
 21
44.61157127275629
 31
0.0
 11
464.0834573391567
 21
44.61258115892228
 31
0.0
  0
SPLINE
  5
23F
330
A
100
AcDbEntity
  8
0
  6
Continuous
 62
     7
100
AcDbSpline
210
0.0
220
0.0
230
1.0
 70
     8
 71
     3
 72
    11
 73
     7
 74
     5
 42
0.0000000001
 43
0.0000000001
 44
0.00000000001
 40
0.0
 40
0.0
 40
0.0
 40
0.0
 40
0.0604616411207251
 40
0.1251241485706851
 40
0.1995960440636014
 40
0.278277460054254
 40
0.278277460054254
 40
0.278277460054254
 40
0.278277460054254
 10
423.8834622982644
 20
44.61258115892228
 30
0.0
 10
423.9036139126146
 20
44.61227972615621
 30
0.0
 10
423.9453172726483
 20
44.61165591711784
 30
0.0
 10
424.0118482557482
 20
44.61109090573783
 30
0.0
 10
424.0844543732839
 20
44.61146921271818
 30
0.0
 10
424.1355014913775
 20
44.61210411048705
 30
0.0
 10
424.1617265823986
 20
44.61243028466495
 30
0.0
 11
423.8834622982644
 21
44.61258115892228
 31
0.0
 11
423.9439180852887
 21
44.611739813398
 31
0.0
 11
424.0085787822744
 21
44.61125593837286
 31
0.0
 11
424.0830501006414
 21
44.61154912599536
 31
0.0
 11
424.1617265823986
 21
44.61243028466495
 31
0.0
  0
SPLINE
  5
23E
330
A
100
AcDbEntity
  8
0
  6
Continuous
 62
     7
100
AcDbSpline
210
0.0
220
0.0
230
1.0
 70
     8
 71
     3
 72
    13
 73
     9
 74
     7
 42
0.0000000001
 43
0.0000000001
 44
0.00000000001
 40
0.0
 40
0.0
 40
0.0
 40
0.0
 40
0.1317057572743413
 40
0.3150689265709283
 40
0.4799377429081064
 40
0.6450038462964142
 40
0.801999095268801
 40
0.9033539593679485
 40
0.9033539593679485
 40
0.9033539593679485
 40
0.9033539593679485
 10
675.2834561947495
 20
44.61258115892228
 30
0.0
 10
675.3273052189451
 20
44.61473437302373
 30
0.0
 10
675.4322016583293
 20
44.61988533126324
 30
0.0
 10
675.591923878836
 20
44.62905687600537
 30
0.0
 10
675.7625335477792
 20
44.64217638285057
 30
0.0
 10
675.924059836725
 20
44.65819619325296
 30
0.0
 10
676.0643446274709
 20
44.67370525187355
 30
0.0
 10
676.149894105686
 20
44.68357356285205
 30
0.0
 10
676.1834565285359
 20
44.68744505842148
 30
0.0
 11
675.2834561947495
 21
44.61258115892228
 31
0.0
 11
675.414995893781
 21
44.61919282118827
 31
0.0
 11
675.598038354833
 21
44.63003299215221
 31
0.0
 11
675.7624139624361
 21
44.64277607755136
 31
0.0
 11
675.9267026812779
 21
44.65877718217421
 31
0.0
 11
676.0827621516839
 21
44.6758929613411
 31
0.0
 11
676.1834565285359
 21
44.68744505842148
 31
0.0
  0
SPLINE
  5
23D
330
A
100
AcDbEntity
  8
0
  6
Continuous
 62
     7
100
AcDbSpline
210
0.0
220
0.0
230
1.0
 70
     8
 71
     3
 72
    11
 73
     7
 74
     5
 42
0.0000000001
 43
0.0000000001
 44
0.00000000001
 40
0.0
 40
0.0
 40
0.0
 40
0.0
 40
0.0619709054506039
 40
0.1299538533188917
 40
0.2119720973484629
 40
0.3000116951909273
 40
0.3000116951909273
 40
0.3000116951909273
 40
0.3000116951909273
 10
674.9834585670147
 20
44.61258115892228
 30
0.0
 10
675.0041133095388
 20
44.61227870126769
 30
0.0
 10
675.0474265927773
 20
44.61164444334631
 30
0.0
 10
675.1180829212323
 20
44.61105739766921
 30
0.0
 10
675.1974307614119
 20
44.61148522318452
 30
0.0
 10
675.2541120657893
 20
44.61220732436692
 30
0.0
 10
675.2834561947495
 20
44.61258115892228
 30
0.0
 11
674.9834585670147
 21
44.61258115892228
 31
0.0
 11
675.0454237114587
 21
44.61173617584457
 31
0.0
 11
675.1134048264636
 21
44.61123697291895
 31
0.0
 11
675.1954223891966
 21
44.61157127370968
 31
0.0
 11
675.2834561947495
 21
44.61258115892228
 31
0.0
  0
SPLINE
  5
23C
330
A
100
AcDbEntity
  8
0
  6
Continuous
 62
     7
100
AcDbSpline
210
0.0
220
0.0
230
1.0
 70
    24
 71
     3
 72
    14
 73
    10
 74
     8
 42
0.0000000001
 43
0.0000000001
 44
0.00000000001
 40
0.0
 40
0.0
 40
0.0
 40
0.0
 40
0.0052224427246941
 40
0.0122734861931093
 40
0.0262806587850051
 40
0.0421544257365127
 40
0.0557736189194955
 40
0.0677025468191062
 40
0.0748638995316
 40
0.0748638995316
 40
0.0748638995316
 40
0.0748638995316
 10
674.1834599259988
 20
44.61258115892228
 30
0.0
 10
674.1834599259989
 20
44.61432197316385
 30
0.0
 10
674.1834599259989
 20
44.61841313522822
 30
0.0
 10
674.1834599259987
 20
44.6271733548232
 30
0.0
 10
674.1834599259986
 20
44.63948401582718
 30
0.0
 10
674.1834599260005
 20
44.65398406006928
 30
0.0
 10
674.1834599259934
 20
44.66779135608066
 30
0.0
 10
674.1834599259974
 20
44.67869451401234
 30
0.0
 10
674.1834599259327
 20
44.68505794088304
 30
0.0
 10
674.1834599259086
 20
44.68744505845388
 30
0.0
 11
674.1834599259988
 21
44.61258115892228
 31
0.0
 11
674.1834599259988
 21
44.61780360164698
 31
0.0
 11
674.1834599259988
 21
44.62485464511539
 31
0.0
 11
674.1834599259988
 21
44.63886181770728
 31
0.0
 11
674.1834599259988
 21
44.6547355846588
 31
0.0
 11
674.1834599259952
 21
44.66835477784178
 31
0.0
 11
674.1834599259719
 21
44.68028370574138
 31
0.0
 11
674.1834599259086
 21
44.68744505845388
 31
0.0
  0
SPLINE
  5
23B
330
A
100
AcDbEntity
  8
0
  6
Continuous
 62
     7
100
AcDbSpline
210
0.0
220
0.0
230
1.0
 70
     8
 71
     3
 72
    11
 73
     7
 74
     5
 42
0.0000000001
 43
0.0000000001
 44
0.00000000001
 40
0.0
 40
0.0
 40
0.0
 40
0.0
 40
0.0619705419402645
 40
0.1299533309729411
 40
0.2119752784456711
 40
0.3000191455551516
 40
0.3000191455551516
 40
0.3000191455551516
 40
0.3000191455551516
 10
673.8834548476826
 20
44.61258115892228
 30
0.0
 10
673.9041094690547
 20
44.61227870314249
 30
0.0
 10
673.9474225782069
 20
44.61164444798147
 30
0.0
 10
674.018079966927
 20
44.61105739193243
 30
0.0
 10
674.0974304118267
 20
44.61148521271808
 30
0.0
 10
674.1541143738922
 20
44.6122073204001
 30
0.0
 10
674.1834599259988
 20
44.61258115892228
 30
0.0
 11
673.8834548476826
 21
44.61258115892228
 31
0.0
 11
673.945419628649
 21
44.61173618072201
 31
0.0
 11
674.0134005847699
 21
44.61123697179693
 31
0.0
 11
674.0954218510132
 21
44.61157126366486
 31
0.0
 11
674.1834599259988
 21
44.61258115892228
 31
0.0
  0
CIRCLE
  5
23A
330
A
100
AcDbEntity
  8
0
  6
Continuous
 62
     7
100
AcDbCircle
 10
464.4834568875086
 20
359.3316612002539
 30
0.0
 40
3.500192183817029
  0
CIRCLE
  5
239
330
A
100
AcDbEntity
  8
0
  6
Continuous
 62
     7
100
AcDbCircle
 10
638.4834568875086
 20
359.3316612002539
 30
0.0
 40
3.50019218381694
  0
CIRCLE
  5
238
330
A
100
AcDbEntity
  8
0
  6
Continuous
 62
     7
100
AcDbCircle
 10
464.4834568875086
 20
359.3316612002539
 30
0.0
 40
2.868307810965029
  0
CIRCLE
  5
237
330
A
100
AcDbEntity
  8
0
  6
Continuous
 62
     7
100
AcDbCircle
 10
638.4834568875086
 20
359.3316612002539
 30
0.0
 40
2.868307810965029
  0
CIRCLE
  5
236
330
A
100
AcDbEntity
  8
0
  6
Continuous
 62
     7
100
AcDbCircle
 10
464.4834568875086
 20
359.3316612002539
 30
0.0
 40
3.999999999998998
  0
CIRCLE
  5
235
330
A
100
AcDbEntity
  8
0
  6
Continuous
 62
     7
100
AcDbCircle
 10
638.4834568875086
 20
359.3316612002539
 30
0.0
 40
3.999999999998998
  0
CIRCLE
  5
234
330
A
100
AcDbEntity
  8
0
  6
Continuous
 62
     7
100
AcDbCircle
 10
435.7834568874086
 20
603.0816612002539
 30
0.0
 40
12.999999999999
  0
CIRCLE
  5
233
330
A
100
AcDbEntity
  8
0
  6
Continuous
 62
     7
100
AcDbCircle
 10
435.7834568874086
 20
603.0816612002539
 30
0.0
 40
15.999999999999
  0
CIRCLE
  5
232
330
A
100
AcDbEntity
  8
0
  6
Continuous
 62
     7
100
AcDbCircle
 10
688.6834568874087
 20
603.0816612002539
 30
0.0
 40
12.99999999999891
  0
CIRCLE
  5
231
330
A
100
AcDbEntity
  8
0
  6
Continuous
 62
     7
100
AcDbCircle
 10
688.6834568874087
 20
603.0816612002539
 30
0.0
 40
15.99999999999891
  0
CIRCLE
  5
230
330
A
100
AcDbEntity
  8
0
  6
Continuous
 62
     7
100
AcDbCircle
 10
435.7834568874086
 20
263.0816612003539
 30
0.0
 40
12.999999999999
  0
CIRCLE
  5
22F
330
A
100
AcDbEntity
  8
0
  6
Continuous
 62
     7
100
AcDbCircle
 10
435.7834568874086
 20
263.0816612003539
 30
0.0
 40
15.999999999999
  0
CIRCLE
  5
22E
330
A
100
AcDbEntity
  8
0
  6
Continuous
 62
     7
100
AcDbCircle
 10
688.6834568874087
 20
263.0816612003539
 30
0.0
 40
15.99999999999891
  0
CIRCLE
  5
22D
330
A
100
AcDbEntity
  8
0
  6
Continuous
 62
     7
100
AcDbCircle
 10
688.6834568874087
 20
263.0816612003539
 30
0.0
 40
12.99999999999891
  0
CIRCLE
  5
22C
330
A
100
AcDbEntity
  8
0
  6
Continuous
 62
     7
100
AcDbCircle
 10
171.6783957297086
 20
590.431661200454
 30
0.0
 40
0.8842560591360301
  0
CIRCLE
  5
22B
330
A
100
AcDbEntity
  8
0
  6
Continuous
 62
     7
100
AcDbCircle
 10
171.6783957297086
 20
590.431661200454
 30
0.0
 40
1.200000000000029
  0
CIRCLE
  5
22A
330
A
100
AcDbEntity
  8
0
  6
Continuous
 62
     7
100
AcDbCircle
 10
171.6783957300085
 20
590.431661200454
 30
0.0
 40
1.5
  0
ARC
  5
229
330
A
100
AcDbEntity
  8
0
  6
Continuous
 62
     7
100
AcDbCircle
 10
734.9225770290088
 20
592.1816612003538
 30
0.0
 40
0.9999999999997497
100
AcDbArc
 50
16.95776329996899
 51
90.0
  0
ARC
  5
228
330
A
100
AcDbEntity
  8
0
  6
Continuous
 62
     7
100
AcDbCircle
 10
734.9225770290088
 20
588.6816612002538
 30
0.0
 40
0.999999999999
100
AcDbArc
 50
270.0
 51
343.0422366998675
  0
ARC
  5
227
330
A
100
AcDbEntity
  8
0
  6
Continuous
 62
     7
100
AcDbCircle
 10
729.1834568874087
 20
590.431661200454
 30
0.0
 40
7.000000000003079
100
AcDbArc
 50
13.09914799869188
 51
16.95776329927468
  0
ARC
  5
226
330
A
100
AcDbEntity
  8
0
  6
Continuous
 62
     7
100
AcDbCircle
 10
729.1834568874087
 20
590.431661200454
 30
0.0
 40
7.000000000035538
100
AcDbArc
 50
343.0422366983536
 51
346.9008520012123
  0
ARC
  5
225
330
A
100
AcDbEntity
  8
0
  6
Continuous
 62
     7
100
AcDbCircle
 10
729.0732110958085
 20
590.6252677586539
 30
0.0
 40
6.930811669632837
100
AcDbArc
 50
356.9352299479019
 51
3.064770052098209
  0
ARC
  5
224
330
A
100
AcDbEntity
  8
0
  6
Continuous
 62
     7
100
AcDbCircle
 10
735.6874435359086
 20
589.7662612586539
 30
0.0
 40
0.5767403800795801
100
AcDbArc
 50
38.7072342739715
 51
57.8780318773524
  0
ARC
  5
223
330
A
100
AcDbEntity
  8
0
  6
Continuous
 62
     7
100
AcDbCircle
 10
731.7609241173085
 20
589.9574945714538
 30
0.0
 40
4.37985780104868
100
AcDbArc
 50
357.7830720947934
 51
2.216927905296469
  0
ARC
  5
222
330
A
100
AcDbEntity
  8
0
  6
Continuous
 62
     7
100
AcDbCircle
 10
729.1794875928085
 20
590.4846577613539
 30
0.0
 40
6.9927981071895
100
AcDbArc
 50
347.0382681421014
 51
354.2829841978226
  0
ARC
  5
221
330
A
100
AcDbEntity
  8
0
  6
Continuous
 62
     7
100
AcDbCircle
 10
735.8918517276086
 20
588.8702238944537
 30
0.0
 40
0.11210673059814
100
AcDbArc
 50
335.8041466526499
 51
24.19585334440008
  0
ARC
  5
220
330
A
100
AcDbEntity
  8
0
  6
Continuous
 62
     7
100
AcDbCircle
 10
729.2941281627085
 20
590.3778016487536
 30
0.0
 40
6.877731903827879
100
AcDbArc
 50
346.9455112225574
 51
354.2707288739095
  0
ARC
  5
21F
330
A
100
AcDbEntity
  8
0
  6
Continuous
 62
     7
100
AcDbCircle
 10
733.4795641251088
 20
589.8232574609537
 30
0.0
 40
2.661217628638409
100
AcDbArc
 50
357.1558796857106
 51
2.844120314106803
  0
ARC
  5
21E
330
A
100
AcDbEntity
  8
0
  6
Continuous
 62
     7
100
AcDbCircle
 10
735.6873462804089
 20
591.0971197514538
 30
0.0
 40
0.5768488957174501
100
AcDbArc
 50
302.1266072364732
 51
321.2947631421207
  0
ARC
  5
21D
330
A
100
AcDbEntity
  8
0
  6
Continuous
 62
     7
100
AcDbCircle
 10
731.7610948485087
 20
590.9058342722537
 30
0.0
 40
4.379687197903288
100
AcDbArc
 50
357.7829856954285
 51
2.217014305089919
  0
ARC
  5
21C
330
A
100
AcDbEntity
  8
0
  6
Continuous
 62
     7
100
AcDbCircle
 10
735.8982990459086
 20
591.9943643864537
 30
0.0
 40
0.10571387595132
100
AcDbArc
 50
0.7348039700127835
 51
24.99807308638272
  0
ARC
  5
21B
330
A
100
AcDbEntity
  8
0
  6
Continuous
 62
     7
100
AcDbCircle
 10
729.2940825378085
 20
590.4854929454537
 30
0.0
 40
6.877780719856679
100
AcDbArc
 50
5.729517075494609
 51
13.05455994365857
  0
ARC
  5
21A
330
A
100
AcDbEntity
  8
0
  6
Continuous
 62
     7
100
AcDbCircle
 10
733.4796964293087
 20
591.0400713827539
 30
0.0
 40
2.66108548741215
100
AcDbArc
 50
357.1557383396142
 51
2.844261659964841
  0
ARC
  5
219
330
A
100
AcDbEntity
  8
0
  6
Continuous
 62
     7
100
AcDbCircle
 10
735.8677036311084
 20
590.6283752366539
 30
0.0
 40
0.3885819611646601
100
AcDbArc
 50
46.02697123363697
 51
71.01616841368151
  0
ARC
  5
218
330
A
100
AcDbEntity
  8
0
  6
Continuous
 62
     7
100
AcDbCircle
 10
731.9834568873086
 20
234.4316612003539
 30
0.0
 40
1.0000000000002
100
AcDbArc
 50
270.0
 51
0.0
  0
ARC
  5
217
330
A
100
AcDbEntity
  8
0
  6
Continuous
 62
     7
100
AcDbCircle
 10
731.9834568873086
 20
632.4316612004538
 30
0.0
 40
0.9999999999990899
100
AcDbArc
 50
0.0
 51
90.0
  0
ARC
  5
216
330
A
100
AcDbEntity
  8
0
  6
Continuous
 62
     7
100
AcDbCircle
 10
105.4283957298087
 20
590.9366121761537
 30
0.0
 40
0.2500000000012799
100
AcDbArc
 50
258.6900675260411
 51
0.0
  0
ARC
  5
215
330
A
100
AcDbEntity
  8
0
  6
Continuous
 62
     7
100
AcDbCircle
 10
105.4283957298087
 20
615.3267102245536
 30
0.0
 40
0.2499999999999
100
AcDbArc
 50
0.0
 51
101.3099324739628
  0
ARC
  5
214
330
A
100
AcDbEntity
  8
0
  6
Continuous
 62
     7
100
AcDbCircle
 10
90.9283957299087
 20
612.4267102247537
 30
0.0
 40
0.25000000000119
100
AcDbArc
 50
101.3099324739529
 51
180.0
  0
ARC
  5
213
330
A
100
AcDbEntity
  8
0
  6
Continuous
 62
     7
100
AcDbCircle
 10
90.9283957299087
 20
593.8366121759537
 30
0.0
 40
0.2499999999999
100
AcDbArc
 50
180.0
 51
258.6900675260504
  0
ARC
  5
212
330
A
100
AcDbEntity
  8
0
  6
Continuous
 62
     7
100
AcDbCircle
 10
105.4283957298087
 20
250.9366121759539
 30
0.0
 40
0.25000000000125
100
AcDbArc
 50
258.6900675260393
 51
0.0
  0
ARC
  5
211
330
A
100
AcDbEntity
  8
0
  6
Continuous
 62
     7
100
AcDbCircle
 10
105.4283957298087
 20
275.3267102246539
 30
0.0
 40
0.2499999999999
100
AcDbArc
 50
0.0
 51
101.3099324739606
  0
ARC
  5
210
330
A
100
AcDbEntity
  8
0
  6
Continuous
 62
     7
100
AcDbCircle
 10
90.9283957299087
 20
272.4267102245539
 30
0.0
 40
0.25000000000122
100
AcDbArc
 50
101.3099324739512
 51
180.0
  0
ARC
  5
20F
330
A
100
AcDbEntity
  8
0
  6
Continuous
 62
     7
100
AcDbCircle
 10
90.9283957299087
 20
253.8366121760539
 30
0.0
 40
0.2499999999999
100
AcDbArc
 50
180.0
 51
258.6900675260487
  0
ARC
  5
20E
330
A
100
AcDbEntity
  8
0
  6
Continuous
 62
     7
100
AcDbCircle
 10
102.4722410379086
 20
570.8314690166537
 30
0.0
 40
1.000000000000379
100
AcDbArc
 50
201.5994499812467
 51
271.1233187128966
  0
ARC
  5
20D
330
A
100
AcDbEntity
  8
0
  6
Continuous
 62
     7
100
AcDbCircle
 10
102.4722410379086
 20
575.8318533842538
 30
0.0
 40
1.000000000000439
100
AcDbArc
 50
88.87668128710329
 51
158.4005500187533
  0
ARC
  5
20C
330
A
100
AcDbEntity
  8
0
  6
Continuous
 62
     7
100
AcDbCircle
 10
102.4722410379086
 20
356.8314690164539
 30
0.0
 40
1.000000000000379
100
AcDbArc
 50
201.5994499812467
 51
271.1233187128966
  0
ARC
  5
20B
330
A
100
AcDbEntity
  8
0
  6
Continuous
 62
     7
100
AcDbCircle
 10
102.4722410379086
 20
361.8318533840539
 30
0.0
 40
1.000000000000379
100
AcDbArc
 50
88.87668128710329
 51
158.4005500187533
  0
ARC
  5
20A
330
A
100
AcDbEntity
  8
0
  6
Continuous
 62
     7
100
AcDbCircle
 10
102.4722410379086
 20
380.8314690164539
 30
0.0
 40
1.000000000000379
100
AcDbArc
 50
201.5994499812467
 51
271.1233187128966
  0
ARC
  5
209
330
A
100
AcDbEntity
  8
0
  6
Continuous
 62
     7
100
AcDbCircle
 10
102.4722410379086
 20
385.8318533840539
 30
0.0
 40
1.000000000000379
100
AcDbArc
 50
88.87668128710329
 51
158.4005500187533
  0
ARC
  5
208
330
A
100
AcDbEntity
  8
0
  6
Continuous
 62
     7
100
AcDbCircle
 10
184.1783957298085
 20
364.8316612004539
 30
0.0
 40
1.5
100
AcDbArc
 50
0.0
 51
90.0
  0
ARC
  5
207
330
A
100
AcDbEntity
  8
0
  6
Continuous
 62
     7
100
AcDbCircle
 10
143.6783957298086
 20
478.3316612003537
 30
0.0
 40
12.500000000001
100
AcDbArc
 50
270.0
 51
90.0
  0
ARC
  5
206
330
A
100
AcDbEntity
  8
0
  6
Continuous
 62
     7
100
AcDbCircle
 10
167.6783957298086
 20
586.3316612003537
 30
0.0
 40
2.000000000000099
100
AcDbArc
 50
0.0
 51
90.0
  0
ARC
  5
205
330
A
100
AcDbEntity
  8
0
  6
Continuous
 62
     7
100
AcDbCircle
 10
167.6783957298086
 20
370.3316612003539
 30
0.0
 40
2.000000000001
100
AcDbArc
 50
270.0
 51
0.0
  0
ARC
  5
204
330
A
100
AcDbEntity
  8
0
  6
Continuous
 62
     7
100
AcDbCircle
 10
171.6783957300085
 20
590.431661200454
 30
0.0
 40
2.850000000000298
100
AcDbArc
 50
214.1529153989094
 51
180.0
  0
ARC
  5
203
330
A
100
AcDbEntity
  8
0
  6
Continuous
 62
     7
100
AcDbCircle
 10
171.6783957300085
 20
590.431661200454
 30
0.0
 40
3.14999999999928
100
AcDbArc
 50
210.5264790631788
 51
190.9805754276107
  0
ARC
  5
202
330
A
100
AcDbEntity
  8
0
  6
Continuous
 62
     7
100
AcDbCircle
 10
107.6783957298087
 20
632.4316612004538
 30
0.0
 40
0.999999999999
100
AcDbArc
 50
90.0
 51
180.0
  0
ARC
  5
201
330
A
100
AcDbEntity
  8
0
  6
Continuous
 62
     7
100
AcDbCircle
 10
107.6783957298087
 20
234.4316612003539
 30
0.0
 40
0.9999999999998998
100
AcDbArc
 50
180.0
 51
270.0
  0
ARC
  5
200
330
A
100
AcDbEntity
  8
0
  6
Continuous
 62
     7
100
AcDbCircle
 10
197.6783957298086
 20
239.4316612004538
 30
0.0
 40
3.0
100
AcDbArc
 50
270.0
 51
0.0
  0
ARC
  5
1FF
330
A
100
AcDbEntity
  8
0
  6
Continuous
 62
     7
100
AcDbCircle
 10
197.6783957298086
 20
627.4316612003538
 30
0.0
 40
3.0
100
AcDbArc
 50
0.0
 51
90.0
  0
ARC
  5
1FE
330
A
100
AcDbEntity
  8
0
  6
Continuous
 62
     7
100
AcDbCircle
 10
183.6783957300086
 20
630.4316612003538
 30
0.0
 40
3.0
100
AcDbArc
 50
0.0
 51
90.0
  0
ARC
  5
1FD
330
A
100
AcDbEntity
  8
0
  6
Continuous
 62
     7
100
AcDbCircle
 10
183.6783957300086
 20
630.4316612003538
 30
0.0
 40
2.000000000001
100
AcDbArc
 50
0.0
 51
90.0
  0
ARC
  5
1FC
330
A
100
AcDbEntity
  8
0
  6
Continuous
 62
     7
100
AcDbCircle
 10
183.6783957300086
 20
236.4316612004539
 30
0.0
 40
3.0
100
AcDbArc
 50
270.0
 51
0.0
  0
ARC
  5
1FB
330
A
100
AcDbEntity
  8
0
  6
Continuous
 62
     7
100
AcDbCircle
 10
183.6783957300086
 20
236.4316612004539
 30
0.0
 40
2.000000000000099
100
AcDbArc
 50
270.0
 51
0.0
  0
ARC
  5
1FA
330
A
100
AcDbEntity
  8
0
  6
Continuous
 62
     7
100
AcDbCircle
 10
700.8785059116087
 20
48.75375422365388
 30
0.0
 40
0.25000000000119
100
AcDbArc
 50
348.6900675260421
 51
90.0
  0
ARC
  5
1F9
330
A
100
AcDbEntity
  8
0
  6
Continuous
 62
     7
100
AcDbCircle
 10
676.4884078629087
 20
48.75375422365388
 30
0.0
 40
0.2499999999999
100
AcDbArc
 50
90.0
 51
191.3099324739503
  0
ARC
  5
1F8
330
A
100
AcDbEntity
  8
0
  6
Continuous
 62
     7
100
AcDbCircle
 10
679.3884078630087
 20
34.2537542237539
 30
0.0
 40
0.25000000000137
100
AcDbArc
 50
191.3099324739454
 51
270.0
  0
ARC
  5
1F7
330
A
100
AcDbEntity
  8
0
  6
Continuous
 62
     7
100
AcDbCircle
 10
697.9785059118086
 20
34.2537542237539
 30
0.0
 40
0.2500000000002
100
AcDbArc
 50
270.0
 51
348.6900675260546
  0
ARC
  5
1F6
330
A
100
AcDbEntity
  8
0
  6
Continuous
 62
     7
100
AcDbCircle
 10
447.9785059116086
 20
48.75375422365388
 30
0.0
 40
0.2500000000012799
100
AcDbArc
 50
348.6900675260458
 51
90.0
  0
ARC
  5
1F5
330
A
100
AcDbEntity
  8
0
  6
Continuous
 62
     7
100
AcDbCircle
 10
423.5884078629086
 20
48.75375422365388
 30
0.0
 40
0.2499999999999
100
AcDbArc
 50
90.0
 51
191.3099324739541
  0
ARC
  5
1F4
330
A
100
AcDbEntity
  8
0
  6
Continuous
 62
     7
100
AcDbCircle
 10
426.4884078630086
 20
34.2537542237539
 30
0.0
 40
0.25000000000119
100
AcDbArc
 50
191.3099324739532
 51
270.0
  0
ARC
  5
1F3
330
A
100
AcDbEntity
  8
0
  6
Continuous
 62
     7
100
AcDbCircle
 10
445.0785059118086
 20
34.2537542237539
 30
0.0
 40
0.2499999999999
100
AcDbArc
 50
270.0
 51
348.6900675260507
  0
ARC
  5
1F2
330
A
100
AcDbEntity
  8
0
  6
Continuous
 62
     7
100
AcDbCircle
 10
734.9225770290088
 20
116.7537542237539
 30
0.0
 40
1.000000000000889
100
AcDbArc
 50
16.95776330018273
 51
90.0
  0
ARC
  5
1F1
330
A
100
AcDbEntity
  8
0
  6
Continuous
 62
     7
100
AcDbCircle
 10
734.9225770290088
 20
113.2537542236539
 30
0.0
 40
1.0000000000002
100
AcDbArc
 50
270.0
 51
343.0422366999983
  0
ARC
  5
1F0
330
A
100
AcDbEntity
  8
0
  6
Continuous
 62
     7
100
AcDbCircle
 10
729.1834568874087
 20
115.0037542235538
 30
0.0
 40
6.999999999996929
100
AcDbArc
 50
13.09914799880209
 51
16.95776329999732
  0
ARC
  5
1EF
330
A
100
AcDbEntity
  8
0
  6
Continuous
 62
     7
100
AcDbCircle
 10
729.1834568874087
 20
115.0037542235538
 30
0.0
 40
6.999999999947339
100
AcDbArc
 50
343.0422367007208
 51
346.9008520010017
  0
ARC
  5
1EE
330
A
100
AcDbEntity
  8
0
  6
Continuous
 62
     7
100
AcDbCircle
 10
640.9836490713086
 20
45.79759953175389
 30
0.0
 40
1.000000000000439
100
AcDbArc
 50
291.5994499812508
 51
1.123318712896727
  0
ARC
  5
1ED
330
A
100
AcDbEntity
  8
0
  6
Continuous
 62
     7
100
AcDbCircle
 10
635.9832647034086
 20
45.79759953175389
 30
0.0
 40
1.000000000000379
100
AcDbArc
 50
178.876681287103
 51
248.4005500187535
  0
ARC
  5
1EC
330
A
100
AcDbEntity
  8
0
  6
Continuous
 62
     7
100
AcDbCircle
 10
461.9832647034086
 20
133.2099089156539
 30
0.0
 40
1.000000000000409
100
AcDbArc
 50
111.5994499812459
 51
181.1233187128969
  0
ARC
  5
1EB
330
A
100
AcDbEntity
  8
0
  6
Continuous
 62
     7
100
AcDbCircle
 10
466.9836490713086
 20
133.2099089156539
 30
0.0
 40
1.000000000000379
100
AcDbArc
 50
358.8766812871031
 51
68.4005500187541
  0
ARC
  5
1EA
330
A
100
AcDbEntity
  8
0
  6
Continuous
 62
     7
100
AcDbCircle
 10
635.9832647034086
 20
133.2099089156539
 30
0.0
 40
1.000000000000409
100
AcDbArc
 50
111.5994499812459
 51
181.1233187128969
  0
ARC
  5
1E9
330
A
100
AcDbEntity
  8
0
  6
Continuous
 62
     7
100
AcDbCircle
 10
640.9836490713086
 20
133.2099089156539
 30
0.0
 40
1.00000000000053
100
AcDbArc
 50
358.8766812871033
 51
68.40055001874972
  0
ARC
  5
1E8
330
A
100
AcDbEntity
  8
0
  6
Continuous
 62
     7
100
AcDbCircle
 10
466.9836490713086
 20
45.79759953175389
 30
0.0
 40
1.000000000000409
100
AcDbArc
 50
291.5994499812462
 51
1.123318712896868
  0
ARC
  5
1E7
330
A
100
AcDbEntity
  8
0
  6
Continuous
 62
     7
100
AcDbCircle
 10
461.9832647034086
 20
45.79759953175389
 30
0.0
 40
1.000000000000379
100
AcDbArc
 50
178.876681287103
 51
248.4005500187535
  0
ARC
  5
1E6
330
A
100
AcDbEntity
  8
0
  6
Continuous
 62
     7
100
AcDbCircle
 10
422.0832647034086
 20
45.79759953175389
 30
0.0
 40
1.000000000000439
100
AcDbArc
 50
178.8766812871033
 51
248.4005500187494
  0
ARC
  5
1E5
330
A
100
AcDbEntity
  8
0
  6
Continuous
 62
     7
100
AcDbCircle
 10
672.0832647036086
 20
45.79759953175389
 30
0.0
 40
1.000000000000379
100
AcDbArc
 50
178.876681287103
 51
248.4005500187494
  0
ARC
  5
1E4
330
A
100
AcDbEntity
  8
0
  6
Continuous
 62
     7
100
AcDbCircle
 10
398.7834568875087
 20
50.0037542237539
 30
0.0
 40
0.999999999999
100
AcDbArc
 50
180.0
 51
270.0
  0
ARC
  5
1E3
330
A
100
AcDbEntity
  8
0
  6
Continuous
 62
     7
100
AcDbCircle
 10
398.6834568873086
 20
59.10375422365388
 30
0.0
 40
0.9
100
AcDbArc
 50
90.0
 51
180.0
  0
ARC
  5
1E2
330
A
100
AcDbEntity
  8
0
  6
Continuous
 62
     7
100
AcDbCircle
 10
703.7834568873086
 20
50.0037542237539
 30
0.0
 40
1.0000000000002
100
AcDbArc
 50
270.0
 51
0.0
  0
ARC
  5
1E1
330
A
100
AcDbEntity
  8
0
  6
Continuous
 62
     7
100
AcDbCircle
 10
735.8982593337088
 20
116.5664501837539
 30
0.0
 40
0.10575370178544
100
AcDbArc
 50
0.7394421084105833
 51
24.99343494829013
  0
ARC
  5
1E0
330
A
100
AcDbEntity
  8
0
  6
Continuous
 62
     7
100
AcDbCircle
 10
729.2941053690086
 20
115.0575974909539
 30
0.0
 40
6.87775629287073
100
AcDbArc
 50
5.729394090200861
 51
13.05452436900019
  0
ARC
  5
1DF
330
A
100
AcDbEntity
  8
0
  6
Continuous
 62
     7
100
AcDbCircle
 10
733.4796305442087
 20
115.6121588003539
 30
0.0
 40
2.66115129120957
100
AcDbArc
 50
357.1558087291005
 51
2.844191269280456
  0
ARC
  5
1DE
330
A
100
AcDbEntity
  8
0
  6
Continuous
 62
     7
100
AcDbCircle
 10
735.8677996395088
 20
115.2006194585539
 30
0.0
 40
0.38840245574565
100
AcDbArc
 50
46.02110329797667
 51
71.02203631474269
  0
ARC
  5
1DD
330
A
100
AcDbEntity
  8
0
  6
Continuous
 62
     7
100
AcDbCircle
 10
729.0733813608085
 20
115.1973589016539
 30
0.0
 40
6.930641449049908
100
AcDbArc
 50
356.9351854446988
 51
3.064814555303848
  0
ARC
  5
1DC
330
A
100
AcDbEntity
  8
0
  6
Continuous
 62
     7
100
AcDbCircle
 10
735.6876294393088
 20
114.3385857401539
 30
0.0
 40
0.5764470683510701
100
AcDbArc
 50
38.70040189012249
 51
57.88154589743695
  0
ARC
  5
1DB
330
A
100
AcDbEntity
  8
0
  6
Continuous
 62
     7
100
AcDbCircle
 10
731.7610094793088
 20
114.5295819890539
 30
0.0
 40
4.379772503111611
100
AcDbArc
 50
357.7830288976013
 51
2.216971104328707
  0
ARC
  5
1DA
330
A
100
AcDbEntity
  8
0
  6
Continuous
 62
     7
100
AcDbCircle
 10
729.1789479894085
 20
115.0568473271539
 30
0.0
 40
6.993345202374959
100
AcDbArc
 50
347.0385036750978
 51
354.2825918613796
  0
ARC
  5
1D9
330
A
100
AcDbEntity
  8
0
  6
Continuous
 62
     7
100
AcDbCircle
 10
735.8918660172085
 20
113.4423224879538
 30
0.0
 40
0.1120921696488
100
AcDbArc
 50
335.8028899321313
 51
24.19711005438408
  0
ARC
  5
1D8
330
A
100
AcDbEntity
  8
0
  6
Continuous
 62
     7
100
AcDbCircle
 10
729.2941053690086
 20
114.9499136384539
 30
0.0
 40
6.877756293006777
100
AcDbArc
 50
346.945475631282
 51
354.2706059098017
  0
ARC
  5
1D7
330
A
100
AcDbEntity
  8
0
  6
Continuous
 62
     7
100
AcDbCircle
 10
733.4796305442087
 20
114.3953523290539
 30
0.0
 40
2.661151291259939
100
AcDbArc
 50
357.155808730726
 51
2.844191270899089
  0
ARC
  5
1D6
330
A
100
AcDbEntity
  8
0
  6
Continuous
 62
     7
100
AcDbCircle
 10
735.6874405308087
 20
115.6691088749539
 30
0.0
 40
0.5767092219686401
100
AcDbArc
 50
302.124264157161
 51
321.2971062211433
  0
ARC
  5
1D5
330
A
100
AcDbEntity
  8
0
  6
Continuous
 62
     7
100
AcDbCircle
 10
731.7610094793088
 20
115.4779291403538
 30
0.0
 40
4.379772503096458
100
AcDbArc
 50
357.7830288996716
 51
2.216971102398373
  0
ARC
  5
1D4
330
A
100
AcDbEntity
  8
0
  6
Continuous
 62
     7
100
AcDbCircle
 10
731.9834568873086
 20
129.0037542236539
 30
0.0
 40
0.9999999999990899
100
AcDbArc
 50
0.0
 51
90.0
  0
ARC
  5
1D3
330
A
100
AcDbEntity
  8
0
  6
Continuous
 62
     7
100
AcDbCircle
 10
406.6834568874086
 20
132.0037542236538
 30
0.0
 40
3.0
100
AcDbArc
 50
180.0
 51
270.0
  0
ARC
  5
1D2
330
A
100
AcDbEntity
  8
0
  6
Continuous
 62
     7
100
AcDbCircle
 10
406.6834568874086
 20
132.0037542236538
 30
0.0
 40
2.000000000001
100
AcDbArc
 50
180.0
 51
270.0
  0
LINE
  5
1D1
330
A
100
AcDbEntity
  8
0
  6
Continuous
 62
     7
100
AcDbLine
 10
733.1959549074087
 20
245.5715130116539
 30
0.0
 11
733.1834528331088
 21
245.5715130116539
 31
0.0
  0
LINE
  5
1D0
330
A
100
AcDbEntity
  8
0
  6
Continuous
 62
     7
100
AcDbLine
 10
733.1834528331088
 20
244.5856074836539
 30
0.0
 11
733.1959549074087
 21
244.5856074836539
 31
0.0
  0
LINE
  5
1CF
330
A
100
AcDbEntity
  8
0
  6
Continuous
 62
     7
100
AcDbLine
 10
733.4834579115088
 20
594.4316576267538
 30
0.0
 11
732.9834494475087
 21
594.4316576267538
 31
0.0
  0
LINE
  5
1CE
330
A
100
AcDbEntity
  8
0
  6
Continuous
 62
     7
100
AcDbLine
 10
732.9834494475087
 20
586.4316563156538
 30
0.0
 11
733.4834579115088
 21
586.4316563156538
 31
0.0
  0
LINE
  5
1CD
330
A
100
AcDbEntity
  8
0
  6
Continuous
 62
     7
100
AcDbLine
 10
734.1834548595086
 20
593.1816588188537
 30
0.0
 11
733.4834579115088
 21
593.1816588188537
 31
0.0
  0
LINE
  5
1CC
330
A
100
AcDbEntity
  8
0
  6
Continuous
 62
     7
100
AcDbLine
 10
733.4834579115088
 20
587.6816551235537
 30
0.0
 11
734.1834548595086
 21
587.6816551235537
 31
0.0
  0
LINE
  5
1CB
330
A
100
AcDbEntity
  8
0
  6
Continuous
 62
     7
100
AcDbLine
 10
734.9225822571086
 20
593.1816588188537
 30
0.0
 11
734.1834548595086
 21
593.1816588188537
 31
0.0
  0
LINE
  5
1CA
330
A
100
AcDbEntity
  8
0
  6
Continuous
 62
     7
100
AcDbLine
 10
734.1834548595086
 20
587.6816551235537
 30
0.0
 11
734.9225822571086
 21
587.6816551235537
 31
0.0
  0
LINE
  5
1C9
330
A
100
AcDbEntity
  8
0
  6
Continuous
 62
     7
100
AcDbLine
 10
399.7834566717087
 20
235.2816651608539
 30
0.0
 11
398.8834563378087
 21
235.2816651608539
 31
0.0
  0
LINE
  5
1C8
330
A
100
AcDbEntity
  8
0
  6
Continuous
 62
     7
100
AcDbLine
 10
398.8834563378087
 20
631.5816680933538
 30
0.0
 11
399.7834566717087
 21
631.5816680933538
 31
0.0
  0
LINE
  5
1C7
330
A
100
AcDbEntity
  8
0
  6
Continuous
 62
     7
100
AcDbLine
 10
399.7834566717087
 20
631.5816680933538
 30
0.0
 11
399.7834566717087
 21
235.2816651608539
 31
0.0
  0
LINE
  5
1C6
330
A
100
AcDbEntity
  8
0
  6
Continuous
 62
     7
100
AcDbLine
 10
397.7834526186086
 20
235.2816651608539
 30
0.0
 11
397.7834526186086
 21
631.5816680933538
 31
0.0
  0
LINE
  5
1C5
330
A
100
AcDbEntity
  8
0
  6
Continuous
 62
     7
100
AcDbLine
 10
397.7834526186086
 20
631.5816680933538
 30
0.0
 11
398.6834529522086
 21
631.5816680933538
 31
0.0
  0
LINE
  5
1C4
330
A
100
AcDbEntity
  8
0
  6
Continuous
 62
     7
100
AcDbLine
 10
398.6834529522086
 20
235.2816651608539
 30
0.0
 11
397.7834526186086
 21
235.2816651608539
 31
0.0
  0
LINE
  5
1C3
330
A
100
AcDbEntity
  8
0
  6
Continuous
 62
     7
100
AcDbLine
 10
398.6834529522086
 20
631.5816680933538
 30
0.0
 11
398.8834563378087
 21
631.5816680933538
 31
0.0
  0
LINE
  5
1C2
330
A
100
AcDbEntity
  8
0
  6
Continuous
 62
     7
100
AcDbLine
 10
398.6834529522086
 20
235.2816651608539
 30
0.0
 11
398.8834563378087
 21
235.2816651608539
 31
0.0
  0
LINE
  5
1C1
330
A
100
AcDbEntity
  8
0
  6
Continuous
 62
     7
100
AcDbLine
 10
733.0834511403087
 20
268.4316675212539
 30
0.0
 11
733.0834511403087
 21
243.4316615609539
 31
0.0
  0
LINE
  5
1C0
330
A
100
AcDbEntity
  8
0
  6
Continuous
 62
     7
100
AcDbLine
 10
733.0834511403087
 20
243.4316615609539
 30
0.0
 11
732.9834494475087
 21
243.4316615609539
 31
0.0
  0
LINE
  5
1BF
330
A
100
AcDbEntity
  8
0
  6
Continuous
 62
     7
100
AcDbLine
 10
733.0834511403087
 20
268.4316675212539
 30
0.0
 11
732.9834494475087
 21
268.4316675212539
 31
0.0
  0
LINE
  5
1BE
330
A
100
AcDbEntity
  8
0
  6
Continuous
 62
     7
100
AcDbLine
 10
733.1834528331088
 20
246.7510442282539
 30
0.0
 11
733.0834511403087
 21
246.7510442282539
 31
0.0
  0
LINE
  5
1BD
330
A
100
AcDbEntity
  8
0
  6
Continuous
 62
     7
100
AcDbLine
 10
733.1834528331088
 20
246.3919262435539
 30
0.0
 11
733.1834528331088
 21
246.7510442282539
 31
0.0
  0
LINE
  5
1BC
330
A
100
AcDbEntity
  8
0
  6
Continuous
 62
     7
100
AcDbLine
 10
733.1834528331088
 20
246.3919262435539
 30
0.0
 11
733.0834511403087
 21
246.3919262435539
 31
0.0
  0
LINE
  5
1BB
330
A
100
AcDbEntity
  8
0
  6
Continuous
 62
     7
100
AcDbLine
 10
733.1834528331088
 20
247.7257738856539
 30
0.0
 11
733.0834511403087
 21
247.7257738856539
 31
0.0
  0
LINE
  5
1BA
330
A
100
AcDbEntity
  8
0
  6
Continuous
 62
     7
100
AcDbLine
 10
733.1834528331088
 20
247.1853981758539
 30
0.0
 11
733.1834528331088
 21
247.7257738856539
 31
0.0
  0
LINE
  5
1B9
330
A
100
AcDbEntity
  8
0
  6
Continuous
 62
     7
100
AcDbLine
 10
733.1834528331088
 20
247.1853981758539
 30
0.0
 11
733.0834511403087
 21
247.1853981758539
 31
0.0
  0
LINE
  5
1B8
330
A
100
AcDbEntity
  8
0
  6
Continuous
 62
     7
100
AcDbLine
 10
733.1834528331088
 20
249.5110671068539
 30
0.0
 11
733.0834511403087
 21
249.5110671068539
 31
0.0
  0
LINE
  5
1B7
330
A
100
AcDbEntity
  8
0
  6
Continuous
 62
     7
100
AcDbLine
 10
733.1834528331088
 20
248.5089789179539
 30
0.0
 11
733.1834528331088
 21
249.5110671068539
 31
0.0
  0
LINE
  5
1B6
330
A
100
AcDbEntity
  8
0
  6
Continuous
 62
     7
100
AcDbLine
 10
733.1834528331088
 20
248.5089789179539
 30
0.0
 11
733.0834511403087
 21
248.5089789179539
 31
0.0
  0
LINE
  5
1B5
330
A
100
AcDbEntity
  8
0
  6
Continuous
 62
     7
100
AcDbLine
 10
733.1834528331088
 20
246.9870339182539
 30
0.0
 11
733.0834511403087
 21
246.9870339182539
 31
0.0
  0
LINE
  5
1B4
330
A
100
AcDbEntity
  8
0
  6
Continuous
 62
     7
100
AcDbLine
 10
733.1834528331088
 20
246.7510442282539
 30
0.0
 11
733.1834528331088
 21
246.9870339182539
 31
0.0
  0
LINE
  5
1B3
330
A
100
AcDbEntity
  8
0
  6
Continuous
 62
     7
100
AcDbLine
 10
733.1834528331088
 20
246.0225562598538
 30
0.0
 11
733.0834511403087
 21
246.0225562598538
 31
0.0
  0
LINE
  5
1B2
330
A
100
AcDbEntity
  8
0
  6
Continuous
 62
     7
100
AcDbLine
 10
733.1834528331088
 20
245.7865665701539
 30
0.0
 11
733.1834528331088
 21
246.0225562598538
 31
0.0
  0
LINE
  5
1B1
330
A
100
AcDbEntity
  8
0
  6
Continuous
 62
     7
100
AcDbLine
 10
733.1834528331088
 20
245.7865665701539
 30
0.0
 11
733.0834511403087
 21
245.7865665701539
 31
0.0
  0
LINE
  5
1B0
330
A
100
AcDbEntity
  8
0
  6
Continuous
 62
     7
100
AcDbLine
 10
733.1834528331088
 20
246.3816742445539
 30
0.0
 11
733.0834511403087
 21
246.3816742445539
 31
0.0
  0
LINE
  5
1AF
330
A
100
AcDbEntity
  8
0
  6
Continuous
 62
     7
100
AcDbLine
 10
733.1834528331088
 20
246.0225562598538
 30
0.0
 11
733.1834528331088
 21
246.3816742445539
 31
0.0
  0
LINE
  5
1AE
330
A
100
AcDbEntity
  8
0
  6
Continuous
 62
     7
100
AcDbLine
 10
733.1834528331088
 20
244.5450763253539
 30
0.0
 11
733.0834511403087
 21
244.5450763253539
 31
0.0
  0
LINE
  5
1AD
330
A
100
AcDbEntity
  8
0
  6
Continuous
 62
     7
100
AcDbLine
 10
733.1834528331088
 20
244.5450763253539
 30
0.0
 11
733.1834528331088
 21
245.6018815781539
 31
0.0
  0
LINE
  5
1AC
330
A
100
AcDbEntity
  8
0
  6
Continuous
 62
     7
100
AcDbLine
 10
733.1834528331088
 20
245.6018815781539
 30
0.0
 11
733.0834511403087
 21
245.6018815781539
 31
0.0
  0
LINE
  5
1AB
330
A
100
AcDbEntity
  8
0
  6
Continuous
 62
     7
100
AcDbLine
 10
733.1834528331088
 20
248.1156627680539
 30
0.0
 11
733.0834511403087
 21
248.1156627680539
 31
0.0
  0
LINE
  5
1AA
330
A
100
AcDbEntity
  8
0
  6
Continuous
 62
     7
100
AcDbLine
 10
733.1834528331088
 20
248.2695619610539
 30
0.0
 11
733.0834511403087
 21
248.2695619610539
 31
0.0
  0
LINE
  5
1A9
330
A
100
AcDbEntity
  8
0
  6
Continuous
 62
     7
100
AcDbLine
 10
733.1834528331088
 20
246.3816742445539
 30
0.0
 11
733.1834528331088
 21
246.3919262435539
 31
0.0
  0
LINE
  5
1A8
330
A
100
AcDbEntity
  8
0
  6
Continuous
 62
     7
100
AcDbLine
 10
733.1834528331088
 20
249.5623718048538
 30
0.0
 11
733.0834511403087
 21
249.5623718048538
 31
0.0
  0
LINE
  5
1A7
330
A
100
AcDbEntity
  8
0
  6
Continuous
 62
     7
100
AcDbLine
 10
733.1834528331088
 20
249.5110671068539
 30
0.0
 11
733.1834528331088
 21
249.5623718048538
 31
0.0
  0
LINE
  5
1A6
330
A
100
AcDbEntity
  8
0
  6
Continuous
 62
     7
100
AcDbLine
 10
733.1834528331088
 20
268.4316675212539
 30
0.0
 11
733.1834528331088
 21
249.5623718048538
 31
0.0
  0
LINE
  5
1A5
330
A
100
AcDbEntity
  8
0
  6
Continuous
 62
     7
100
AcDbLine
 10
733.1834528331088
 20
248.5089789179539
 30
0.0
 11
733.1834528331088
 21
248.3037750269539
 31
0.0
  0
LINE
  5
1A4
330
A
100
AcDbEntity
  8
0
  6
Continuous
 62
     7
100
AcDbLine
 10
733.1834528331088
 20
247.1853981758539
 30
0.0
 11
733.1834528331088
 21
246.9870339182539
 31
0.0
  0
LINE
  5
1A3
330
A
100
AcDbEntity
  8
0
  6
Continuous
 62
     7
100
AcDbLine
 10
733.1834528331088
 20
245.7865665701539
 30
0.0
 11
733.1834528331088
 21
245.6018815781539
 31
0.0
  0
LINE
  5
1A2
330
A
100
AcDbEntity
  8
0
  6
Continuous
 62
     7
100
AcDbLine
 10
733.1834528331088
 20
244.5450763253539
 30
0.0
 11
733.1834528331088
 21
243.4316615609539
 31
0.0
  0
LINE
  5
1A1
330
A
100
AcDbEntity
  8
0
  6
Continuous
 62
     7
100
AcDbLine
 10
733.1834528331088
 20
243.4316615609539
 30
0.0
 11
733.0834511403087
 21
243.4316615609539
 31
0.0
  0
LINE
  5
1A0
330
A
100
AcDbEntity
  8
0
  6
Continuous
 62
     7
100
AcDbLine
 10
733.1834528331088
 20
268.4316675212539
 30
0.0
 11
733.0834511403087
 21
268.4316675212539
 31
0.0
  0
LINE
  5
19F
330
A
100
AcDbEntity
  8
0
  6
Continuous
 62
     7
100
AcDbLine
 10
733.4834579115088
 20
594.4316576267538
 30
0.0
 11
733.4834579115088
 21
586.4316563156538
 31
0.0
  0
LINE
  5
19E
330
A
100
AcDbEntity
  8
0
  6
Continuous
 62
     7
100
AcDbLine
 10
734.1834548595086
 20
593.1816588188537
 30
0.0
 11
734.1834548595086
 21
587.6816551235537
 31
0.0
  0
LINE
  5
19D
330
A
100
AcDbEntity
  8
0
  6
Continuous
 62
     7
100
AcDbLine
 10
735.9990570429085
 20
590.8877144600539
 30
0.0
 11
736.1375037316166
 21
590.9080247428367
 31
0.0
  0
LINE
  5
19C
330
A
100
AcDbEntity
  8
0
  6
Continuous
 62
     7
100
AcDbLine
 10
736.1272219305085
 20
589.6919856812537
 30
0.0
 11
736.1375037316198
 21
589.6912108210279
 31
0.0
  0
LINE
  5
19B
330
A
100
AcDbEntity
  8
0
  6
Continuous
 62
     7
100
AcDbLine
 10
736.0033932807088
 20
590.7186607865537
 30
0.0
 11
736.1375037317486
 21
590.7364080695089
 31
0.0
  0
LINE
  5
19A
330
A
100
AcDbEntity
  8
0
  6
Continuous
 62
     7
100
AcDbLine
 10
462.8834593776087
 20
359.7316595759539
 30
0.0
 11
463.7834597115086
 21
359.7316595759539
 31
0.0
  0
LINE
  5
199
330
A
100
AcDbEntity
  8
0
  6
Continuous
 62
     7
100
AcDbLine
 10
462.8834593776087
 20
358.9316609348539
 30
0.0
 11
462.8834593776087
 21
359.7316595759539
 31
0.0
  0
LINE
  5
198
330
A
100
AcDbEntity
  8
0
  6
Continuous
 62
     7
100
AcDbLine
 10
464.0834573391086
 20
357.7316629733539
 30
0.0
 11
464.0834573391086
 21
358.6316595818539
 31
0.0
  0
LINE
  5
197
330
A
100
AcDbEntity
  8
0
  6
Continuous
 62
     7
100
AcDbLine
 10
464.8834559802087
 20
357.7316629733539
 30
0.0
 11
464.0834573391086
 21
357.7316629733539
 31
0.0
  0
LINE
  5
196
330
A
100
AcDbEntity
  8
0
  6
Continuous
 62
     7
100
AcDbLine
 10
466.0834539417086
 20
358.9316609348539
 30
0.0
 11
465.1834536078085
 21
358.9316609348539
 31
0.0
  0
LINE
  5
195
330
A
100
AcDbEntity
  8
0
  6
Continuous
 62
     7
100
AcDbLine
 10
466.0834539417086
 20
359.7316595759539
 30
0.0
 11
466.0834539417086
 21
358.9316609348539
 31
0.0
  0
LINE
  5
194
330
A
100
AcDbEntity
  8
0
  6
Continuous
 62
     7
100
AcDbLine
 10
464.8834559802087
 20
360.9316612628539
 30
0.0
 11
464.8834559802087
 21
360.0316609289539
 31
0.0
  0
LINE
  5
193
330
A
100
AcDbEntity
  8
0
  6
Continuous
 62
     7
100
AcDbLine
 10
464.0834573391086
 20
360.9316612628539
 30
0.0
 11
464.8834559802087
 21
360.9316612628539
 31
0.0
  0
LINE
  5
192
330
A
100
AcDbEntity
  8
0
  6
Continuous
 62
     7
100
AcDbLine
 10
636.8834580960085
 20
359.7316595759539
 30
0.0
 11
637.7834547045087
 21
359.7316595759539
 31
0.0
  0
LINE
  5
191
330
A
100
AcDbEntity
  8
0
  6
Continuous
 62
     7
100
AcDbLine
 10
636.8834580960085
 20
358.9316609348539
 30
0.0
 11
636.8834580960085
 21
359.7316595759539
 31
0.0
  0
LINE
  5
190
330
A
100
AcDbEntity
  8
0
  6
Continuous
 62
     7
100
AcDbLine
 10
638.0834597829086
 20
357.7316629733539
 30
0.0
 11
638.0834597829086
 21
358.6316595818539
 31
0.0
  0
LINE
  5
18F
330
A
100
AcDbEntity
  8
0
  6
Continuous
 62
     7
100
AcDbLine
 10
638.8834584240087
 20
357.7316629733539
 30
0.0
 11
638.0834597829086
 21
357.7316629733539
 31
0.0
  0
LINE
  5
18E
330
A
100
AcDbEntity
  8
0
  6
Continuous
 62
     7
100
AcDbLine
 10
640.0834563855084
 20
358.9316609348539
 30
0.0
 11
639.1834560516087
 21
358.9316609348539
 31
0.0
  0
LINE
  5
18D
330
A
100
AcDbEntity
  8
0
  6
Continuous
 62
     7
100
AcDbLine
 10
640.0834563855084
 20
359.7316595759539
 30
0.0
 11
640.0834563855084
 21
358.9316609348539
 31
0.0
  0
LINE
  5
18C
330
A
100
AcDbEntity
  8
0
  6
Continuous
 62
     7
100
AcDbLine
 10
638.8834584240087
 20
360.9316612628539
 30
0.0
 11
638.8834584240087
 21
360.0316609289539
 31
0.0
  0
LINE
  5
18B
330
A
100
AcDbEntity
  8
0
  6
Continuous
 62
     7
100
AcDbLine
 10
638.0834597829086
 20
360.9316612628539
 30
0.0
 11
638.8834584240087
 21
360.9316612628539
 31
0.0
  0
LINE
  5
18A
330
A
100
AcDbEntity
  8
0
  6
Continuous
 62
     7
100
AcDbLine
 10
401.7834607248087
 20
370.3316601959539
 30
0.0
 11
401.7834607248087
 21
368.3316598679539
 31
0.0
  0
LINE
  5
189
330
A
100
AcDbEntity
  8
0
  6
Continuous
 62
     7
100
AcDbLine
 10
401.7834607248087
 20
368.3316598679539
 30
0.0
 11
400.7834586981085
 21
368.3316598679539
 31
0.0
  0
LINE
  5
188
330
A
100
AcDbEntity
  8
0
  6
Continuous
 62
     7
100
AcDbLine
 10
400.7834586981085
 20
368.3316598679539
 30
0.0
 11
400.7834586981085
 21
370.3316601959539
 31
0.0
  0
LINE
  5
187
330
A
100
AcDbEntity
  8
0
  6
Continuous
 62
     7
100
AcDbLine
 10
403.6834630851087
 20
366.8316605534539
 30
0.0
 11
402.2834542875086
 21
366.8316605534539
 31
0.0
  0
LINE
  5
186
330
A
100
AcDbEntity
  8
0
  6
Continuous
 62
     7
100
AcDbLine
 10
402.2834542875086
 20
366.8316605534539
 30
0.0
 11
402.2834542875086
 21
367.8316625801539
 31
0.0
  0
LINE
  5
185
330
A
100
AcDbEntity
  8
0
  6
Continuous
 62
     7
100
AcDbLine
 10
402.2834542875086
 20
367.8316625801539
 30
0.0
 11
403.6834630851087
 21
367.8316625801539
 31
0.0
  0
LINE
  5
184
330
A
100
AcDbEntity
  8
0
  6
Continuous
 62
     7
100
AcDbLine
 10
402.2834542875086
 20
588.8316671396538
 30
0.0
 11
402.2834542875086
 21
589.8316542650539
 31
0.0
  0
LINE
  5
183
330
A
100
AcDbEntity
  8
0
  6
Continuous
 62
     7
100
AcDbLine
 10
403.6834630851087
 20
588.8316671396538
 30
0.0
 11
402.2834542875086
 21
588.8316671396538
 31
0.0
  0
LINE
  5
182
330
A
100
AcDbEntity
  8
0
  6
Continuous
 62
     7
100
AcDbLine
 10
402.2834542875086
 20
589.8316542650539
 30
0.0
 11
403.6834630851087
 21
589.8316542650539
 31
0.0
  0
LINE
  5
181
330
A
100
AcDbEntity
  8
0
  6
Continuous
 62
     7
100
AcDbLine
 10
401.7834607248087
 20
586.3316546228539
 30
0.0
 11
401.7834607248087
 21
370.3316601959539
 31
0.0
  0
LINE
  5
180
330
A
100
AcDbEntity
  8
0
  6
Continuous
 62
     7
100
AcDbLine
 10
400.7834586981085
 20
586.3316546228539
 30
0.0
 11
400.7834586981085
 21
370.3316601959539
 31
0.0
  0
LINE
  5
17F
330
A
100
AcDbEntity
  8
0
  6
Continuous
 62
     7
100
AcDbLine
 10
400.7834586981085
 20
588.3316586759539
 30
0.0
 11
401.7834607248087
 21
588.3316586759539
 31
0.0
  0
LINE
  5
17E
330
A
100
AcDbEntity
  8
0
  6
Continuous
 62
     7
100
AcDbLine
 10
401.7834607248087
 20
588.3316586759539
 30
0.0
 11
401.7834607248087
 21
586.3316546228539
 31
0.0
  0
LINE
  5
17D
330
A
100
AcDbEntity
  8
0
  6
Continuous
 62
     7
100
AcDbLine
 10
400.7834586981085
 20
586.3316546228539
 30
0.0
 11
400.7834586981085
 21
588.3316586759539
 31
0.0
  0
LINE
  5
17C
330
A
100
AcDbEntity
  8
0
  6
Continuous
 62
     7
100
AcDbLine
 10
401.7834607248087
 20
490.8316622522538
 30
0.0
 11
403.6834630851087
 21
490.8316622522538
 31
0.0
  0
LINE
  5
17B
330
A
100
AcDbEntity
  8
0
  6
Continuous
 62
     7
100
AcDbLine
 10
403.6834630851087
 20
465.8316600170539
 30
0.0
 11
401.7834607248087
 21
465.8316600170539
 31
0.0
  0
LINE
  5
17A
330
A
100
AcDbEntity
  8
0
  6
Continuous
 62
     7
100
AcDbLine
 10
401.7834607248087
 20
368.3316598679539
 30
0.0
 11
402.2834542875086
 21
368.3316598679539
 31
0.0
  0
LINE
  5
179
330
A
100
AcDbEntity
  8
0
  6
Continuous
 62
     7
100
AcDbLine
 10
402.2834542875086
 20
368.3316598679539
 30
0.0
 11
402.2834542875086
 21
367.8316625801539
 31
0.0
  0
LINE
  5
178
330
A
100
AcDbEntity
  8
0
  6
Continuous
 62
     7
100
AcDbLine
 10
402.2834542875086
 20
588.8316671396538
 30
0.0
 11
402.2834542875086
 21
588.3316586759539
 31
0.0
  0
LINE
  5
177
330
A
100
AcDbEntity
  8
0
  6
Continuous
 62
     7
100
AcDbLine
 10
402.2834542875086
 20
588.3316586759539
 30
0.0
 11
401.7834607248087
 21
588.3316586759539
 31
0.0
  0
LINE
  5
176
330
A
100
AcDbEntity
  8
0
  6
Continuous
 62
     7
100
AcDbLine
 10
403.6834630851087
 20
627.4316648987537
 30
0.0
 11
403.6834630851087
 21
239.4316683557539
 31
0.0
  0
LINE
  5
175
330
A
100
AcDbEntity
  8
0
  6
Continuous
 62
     7
100
AcDbLine
 10
404.6834502105085
 20
239.4316683557539
 30
0.0
 11
404.6834502105085
 21
627.4316648987537
 31
0.0
  0
LINE
  5
174
330
A
100
AcDbEntity
  8
0
  6
Continuous
 62
     7
100
AcDbLine
 10
404.6834502105085
 20
236.4316622759539
 30
0.0
 11
403.6834630851087
 21
236.4316622759539
 31
0.0
  0
LINE
  5
173
330
A
100
AcDbEntity
  8
0
  6
Continuous
 62
     7
100
AcDbLine
 10
404.6834502105085
 20
239.4316683557539
 30
0.0
 11
404.6834502105085
 21
236.4316622759539
 31
0.0
  0
LINE
  5
172
330
A
100
AcDbEntity
  8
0
  6
Continuous
 62
     7
100
AcDbLine
 10
403.6834630851087
 20
236.4316622759539
 30
0.0
 11
403.6834630851087
 21
239.4316683557539
 31
0.0
  0
LINE
  5
171
330
A
100
AcDbEntity
  8
0
  6
Continuous
 62
     7
100
AcDbLine
 10
403.6834630851087
 20
630.4316560772536
 30
0.0
 11
404.6834502105085
 21
630.4316560772536
 31
0.0
  0
LINE
  5
170
330
A
100
AcDbEntity
  8
0
  6
Continuous
 62
     7
100
AcDbLine
 10
404.6834502105085
 20
630.4316560772536
 30
0.0
 11
404.6834502105085
 21
627.4316648987537
 31
0.0
  0
LINE
  5
16F
330
A
100
AcDbEntity
  8
0
  6
Continuous
 62
     7
100
AcDbLine
 10
403.6834630851087
 20
627.4316648987537
 30
0.0
 11
403.6834630851087
 21
630.4316560772536
 31
0.0
  0
LINE
  5
16E
330
A
100
AcDbEntity
  8
0
  6
Continuous
 62
     7
100
AcDbLine
 10
406.6834542636086
 20
236.4316622759539
 30
0.0
 11
404.6834502105085
 21
236.4316622759539
 31
0.0
  0
LINE
  5
16D
330
A
100
AcDbEntity
  8
0
  6
Continuous
 62
     7
100
AcDbLine
 10
404.6834502105085
 20
630.4316560772536
 30
0.0
 11
406.6834542636086
 21
630.4316560772536
 31
0.0
  0
LINE
  5
16C
330
A
100
AcDbEntity
  8
0
  6
Continuous
 62
     7
100
AcDbLine
 10
732.9834494475087
 20
630.4316560772536
 30
0.0
 11
732.9834494475087
 21
236.4316622759539
 31
0.0
  0
LINE
  5
16B
330
A
100
AcDbEntity
  8
0
  6
Continuous
 62
     7
100
AcDbLine
 10
732.9834494475087
 20
236.4316622759539
 30
0.0
 11
732.9834494475087
 21
234.4316582228539
 31
0.0
  0
LINE
  5
16A
330
A
100
AcDbEntity
  8
0
  6
Continuous
 62
     7
100
AcDbLine
 10
406.6834542636086
 20
633.4316621567539
 30
0.0
 11
731.9834623221087
 21
633.4316621567539
 31
0.0
  0
LINE
  5
169
330
A
100
AcDbEntity
  8
0
  6
Continuous
 62
     7
100
AcDbLine
 10
406.6834542636086
 20
630.4316560772536
 30
0.0
 11
406.6834542636086
 21
633.4316621567539
 31
0.0
  0
LINE
  5
168
330
A
100
AcDbEntity
  8
0
  6
Continuous
 62
     7
100
AcDbLine
 10
732.9834494475087
 20
632.4316601303539
 30
0.0
 11
732.9834494475087
 21
630.4316560772536
 31
0.0
  0
LINE
  5
167
330
A
100
AcDbEntity
  8
0
  6
Continuous
 62
     7
100
AcDbLine
 10
731.9834623221087
 20
233.4316561964539
 30
0.0
 11
406.6834542636086
 21
233.4316561964539
 31
0.0
  0
LINE
  5
166
330
A
100
AcDbEntity
  8
0
  6
Continuous
 62
     7
100
AcDbLine
 10
406.6834542636086
 20
233.4316561964539
 30
0.0
 11
406.6834542636086
 21
236.4316622759539
 31
0.0
  0
LINE
  5
165
330
A
100
AcDbEntity
  8
0
  6
Continuous
 62
     7
100
AcDbLine
 10
398.9834580306086
 20
633.4316621567539
 30
0.0
 11
398.9834580306086
 21
632.4316601303539
 31
0.0
  0
LINE
  5
164
330
A
100
AcDbEntity
  8
0
  6
Continuous
 62
     7
100
AcDbLine
 10
406.6834542636086
 20
633.4316621567539
 30
0.0
 11
398.9834580306086
 21
633.4316621567539
 31
0.0
  0
LINE
  5
163
330
A
100
AcDbEntity
  8
0
  6
Continuous
 62
     7
100
AcDbLine
 10
406.6834542636086
 20
632.4316601303539
 30
0.0
 11
398.9834580306086
 21
632.4316601303539
 31
0.0
  0
LINE
  5
162
330
A
100
AcDbEntity
  8
0
  6
Continuous
 62
     7
100
AcDbLine
 10
398.9834580306086
 20
234.4316582228539
 30
0.0
 11
398.9834580306086
 21
233.4316561964539
 31
0.0
  0
LINE
  5
161
330
A
100
AcDbEntity
  8
0
  6
Continuous
 62
     7
100
AcDbLine
 10
398.9834580306086
 20
233.4316561964539
 30
0.0
 11
406.6834542636086
 21
233.4316561964539
 31
0.0
  0
LINE
  5
160
330
A
100
AcDbEntity
  8
0
  6
Continuous
 62
     7
100
AcDbLine
 10
406.6834542636086
 20
234.4316582228539
 30
0.0
 11
398.9834580306086
 21
234.4316582228539
 31
0.0
  0
LINE
  5
15F
330
A
100
AcDbEntity
  8
0
  6
Continuous
 62
     7
100
AcDbLine
 10
399.7834566717087
 20
275.4316668059539
 30
0.0
 11
403.6834630851087
 21
275.4316668059539
 31
0.0
  0
LINE
  5
15E
330
A
100
AcDbEntity
  8
0
  6
Continuous
 62
     7
100
AcDbLine
 10
398.9834580306086
 20
235.2816651608539
 30
0.0
 11
398.9834580306086
 21
234.4316582228539
 31
0.0
  0
LINE
  5
15D
330
A
100
AcDbEntity
  8
0
  6
Continuous
 62
     7
100
AcDbLine
 10
403.6834630851087
 20
591.3316647557539
 30
0.0
 11
399.7834566717087
 21
591.3316647557539
 31
0.0
  0
LINE
  5
15C
330
A
100
AcDbEntity
  8
0
  6
Continuous
 62
     7
100
AcDbLine
 10
398.9834580306086
 20
632.4316601303539
 30
0.0
 11
398.9834580306086
 21
631.5816680933538
 31
0.0
  0
LINE
  5
15B
330
A
100
AcDbEntity
  8
0
  6
Continuous
 62
     7
100
AcDbLine
 10
105.3793667466086
 20
615.5718605069537
 30
0.0
 11
90.87936693090865
 21
612.6718561199537
 31
0.0
  0
LINE
  5
15A
330
A
100
AcDbEntity
  8
0
  6
Continuous
 62
     7
100
AcDbLine
 10
90.87936693090865
 20
593.5914705542537
 30
0.0
 11
105.3793667466086
 21
590.6914661672536
 31
0.0
  0
LINE
  5
159
330
A
100
AcDbEntity
  8
0
  6
Continuous
 62
     7
100
AcDbLine
 10
105.3793667466086
 20
275.5718569304539
 30
0.0
 11
90.87936693090865
 21
272.6718525437539
 31
0.0
  0
LINE
  5
158
330
A
100
AcDbEntity
  8
0
  6
Continuous
 62
     7
100
AcDbLine
 10
90.87936693090865
 20
253.5914669777538
 30
0.0
 11
105.3793667466086
 21
250.6914625910539
 31
0.0
  0
LINE
  5
157
330
A
100
AcDbEntity
  8
0
  6
Continuous
 62
     7
100
AcDbLine
 10
180.6516043956087
 20
360.9316612628539
 30
0.0
 11
180.4783932981086
 21
360.531661942154
 31
0.0
  0
LINE
  5
156
330
A
100
AcDbEntity
  8
0
  6
Continuous
 62
     7
100
AcDbLine
 10
180.4783932981086
 20
358.1316622940538
 30
0.0
 11
180.6516043956087
 21
357.7316629733539
 31
0.0
  0
LINE
  5
155
330
A
100
AcDbEntity
  8
0
  6
Continuous
 62
     7
100
AcDbLine
 10
182.1783922728086
 20
360.9316612628539
 30
0.0
 11
180.6516043956087
 21
360.9316612628539
 31
0.0
  0
LINE
  5
154
330
A
100
AcDbEntity
  8
0
  6
Continuous
 62
     7
100
AcDbLine
 10
180.6516043956087
 20
357.7316629733539
 30
0.0
 11
182.1783922728086
 21
357.7316629733539
 31
0.0
  0
LINE
  5
153
330
A
100
AcDbEntity
  8
0
  6
Continuous
 62
     7
100
AcDbLine
 10
102.4918455747086
 20
569.8316584376539
 30
0.0
 11
103.8783958296086
 21
569.8316584376539
 31
0.0
  0
LINE
  5
152
330
A
100
AcDbEntity
  8
0
  6
Continuous
 62
     7
100
AcDbLine
 10
103.8783958296086
 20
576.8316577223536
 30
0.0
 11
102.4918455747086
 21
576.8316577223536
 31
0.0
  0
LINE
  5
151
330
A
100
AcDbEntity
  8
0
  6
Continuous
 62
     7
100
AcDbLine
 10
101.5424609298086
 20
576.1999676969537
 30
0.0
 11
101.3607654837086
 21
574.9318490771537
 31
0.0
  0
LINE
  5
150
330
A
100
AcDbEntity
  8
0
  6
Continuous
 62
     7
100
AcDbLine
 10
102.4918455747086
 20
355.831660613054
 30
0.0
 11
103.8783958296086
 21
355.831660613054
 31
0.0
  0
LINE
  5
14F
330
A
100
AcDbEntity
  8
0
  6
Continuous
 62
     7
100
AcDbLine
 10
103.8783958296086
 20
362.8316598977538
 30
0.0
 11
102.4918455747086
 21
362.8316598977538
 31
0.0
  0
LINE
  5
14E
330
A
100
AcDbEntity
  8
0
  6
Continuous
 62
     7
100
AcDbLine
 10
101.5424609298086
 20
362.1999698726538
 30
0.0
 11
101.3607654837086
 21
360.9318512525539
 31
0.0
  0
LINE
  5
14D
330
A
100
AcDbEntity
  8
0
  6
Continuous
 62
     7
100
AcDbLine
 10
102.4918455747086
 20
379.8316608218538
 30
0.0
 11
103.8783958296086
 21
379.8316608218538
 31
0.0
  0
LINE
  5
14C
330
A
100
AcDbEntity
  8
0
  6
Continuous
 62
     7
100
AcDbLine
 10
103.8783958296086
 20
386.8316619689539
 30
0.0
 11
102.4918455747086
 21
386.8316619689539
 31
0.0
  0
LINE
  5
14B
330
A
100
AcDbEntity
  8
0
  6
Continuous
 62
     7
100
AcDbLine
 10
101.5424609298086
 20
386.1999682184539
 30
0.0
 11
101.3607654837086
 21
384.9318495986539
 31
0.0
  0
LINE
  5
14A
330
A
100
AcDbEntity
  8
0
  6
Continuous
 62
     7
100
AcDbLine
 10
104.8783957608087
 20
355.3316595998539
 30
0.0
 11
105.6783956823086
 21
355.3316595998539
 31
0.0
  0
LINE
  5
149
330
A
100
AcDbEntity
  8
0
  6
Continuous
 62
     7
100
AcDbLine
 10
105.6783956823086
 20
363.3316609112538
 30
0.0
 11
104.8783957608087
 21
363.3316609112538
 31
0.0
  0
LINE
  5
148
330
A
100
AcDbEntity
  8
0
  6
Continuous
 62
     7
100
AcDbLine
 10
103.8783958296086
 20
355.831660613054
 30
0.0
 11
104.8783957608087
 21
355.831660613054
 31
0.0
  0
LINE
  5
147
330
A
100
AcDbEntity
  8
0
  6
Continuous
 62
     7
100
AcDbLine
 10
104.8783957608087
 20
362.8316598977538
 30
0.0
 11
103.8783958296086
 21
362.8316598977538
 31
0.0
  0
LINE
  5
146
330
A
100
AcDbEntity
  8
0
  6
Continuous
 62
     7
100
AcDbLine
 10
104.8783957608087
 20
379.3316616710538
 30
0.0
 11
105.6783956823086
 21
379.3316616710538
 31
0.0
  0
LINE
  5
145
330
A
100
AcDbEntity
  8
0
  6
Continuous
 62
     7
100
AcDbLine
 10
105.6783956823086
 20
387.3316611197539
 30
0.0
 11
104.8783957608087
 21
387.3316611197539
 31
0.0
  0
LINE
  5
144
330
A
100
AcDbEntity
  8
0
  6
Continuous
 62
     7
100
AcDbLine
 10
103.8783958296086
 20
379.8316608218538
 30
0.0
 11
104.8783957608087
 21
379.8316608218538
 31
0.0
  0
LINE
  5
143
330
A
100
AcDbEntity
  8
0
  6
Continuous
 62
     7
100
AcDbLine
 10
104.8783957608087
 20
386.8316619689539
 30
0.0
 11
103.8783958296086
 21
386.8316619689539
 31
0.0
  0
LINE
  5
142
330
A
100
AcDbEntity
  8
0
  6
Continuous
 62
     7
100
AcDbLine
 10
104.8783957608087
 20
569.3316648749538
 30
0.0
 11
105.6783956823086
 21
569.3316648749538
 31
0.0
  0
LINE
  5
141
330
A
100
AcDbEntity
  8
0
  6
Continuous
 62
     7
100
AcDbLine
 10
105.6783956823086
 20
577.3316661860538
 30
0.0
 11
104.8783957608087
 21
577.3316661860538
 31
0.0
  0
LINE
  5
140
330
A
100
AcDbEntity
  8
0
  6
Continuous
 62
     7
100
AcDbLine
 10
103.8783958296086
 20
569.8316584376539
 30
0.0
 11
104.8783957608087
 21
569.8316584376539
 31
0.0
  0
LINE
  5
13F
330
A
100
AcDbEntity
  8
0
  6
Continuous
 62
     7
100
AcDbLine
 10
104.8783957608087
 20
576.8316577223536
 30
0.0
 11
103.8783958296086
 21
576.8316577223536
 31
0.0
  0
LINE
  5
13E
330
A
100
AcDbEntity
  8
0
  6
Continuous
 62
     7
100
AcDbLine
 10
182.4783973512087
 20
355.3816604462539
 30
0.0
 11
184.1783963259087
 21
355.3816604462539
 31
0.0
  0
LINE
  5
13D
330
A
100
AcDbEntity
  8
0
  6
Continuous
 62
     7
100
AcDbLine
 10
184.1783963259087
 20
363.2816600648538
 30
0.0
 11
182.4783973512087
 21
363.2816600648538
 31
0.0
  0
LINE
  5
13C
330
A
100
AcDbEntity
  8
0
  6
Continuous
 62
     7
100
AcDbLine
 10
182.4783973512087
 20
363.2816600648538
 30
0.0
 11
182.1783922728086
 21
362.9816624369539
 31
0.0
  0
LINE
  5
13B
330
A
100
AcDbEntity
  8
0
  6
Continuous
 62
     7
100
AcDbLine
 10
182.1783922728086
 20
355.6816617992538
 30
0.0
 11
182.4783973512087
 21
355.3816604462539
 31
0.0
  0
LINE
  5
13A
330
A
100
AcDbEntity
  8
0
  6
Continuous
 62
     7
100
AcDbLine
 10
185.6783993658087
 20
619.4958726908538
 30
0.0
 11
182.6783932860086
 21
616.4958815123537
 31
0.0
  0
LINE
  5
139
330
A
100
AcDbEntity
  8
0
  6
Continuous
 62
     7
100
AcDbLine
 10
182.6783932860086
 20
589.6674434687537
 30
0.0
 11
185.6783993658087
 21
586.6674522902537
 31
0.0
  0
LINE
  5
138
330
A
100
AcDbEntity
  8
0
  6
Continuous
 62
     7
100
AcDbLine
 10
185.6783993658087
 20
279.4958691146539
 30
0.0
 11
182.6783932860086
 21
276.4958779361539
 31
0.0
  0
LINE
  5
137
330
A
100
AcDbEntity
  8
0
  6
Continuous
 62
     7
100
AcDbLine
 10
182.6783932860086
 20
249.6674547938539
 30
0.0
 11
185.6783993658087
 21
246.6674487140539
 31
0.0
  0
LINE
  5
136
330
A
100
AcDbEntity
  8
0
  6
Continuous
 62
     7
100
AcDbLine
 10
106.6783957299087
 20
235.2816651608539
 30
0.0
 11
105.6783956823086
 21
235.2816651608539
 31
0.0
  0
LINE
  5
135
330
A
100
AcDbEntity
  8
0
  6
Continuous
 62
     7
100
AcDbLine
 10
105.6783956823086
 20
235.2816651608539
 30
0.0
 11
105.6783956823086
 21
631.5816680933538
 31
0.0
  0
LINE
  5
134
330
A
100
AcDbEntity
  8
0
  6
Continuous
 62
     7
100
AcDbLine
 10
105.6783956823086
 20
631.5816680933538
 30
0.0
 11
106.6783957299087
 21
631.5816680933538
 31
0.0
  0
LINE
  5
133
330
A
100
AcDbEntity
  8
0
  6
Continuous
 62
     7
100
AcDbLine
 10
115.7783961039086
 20
235.2816651608539
 30
0.0
 11
106.6783957299087
 21
235.2816651608539
 31
0.0
  0
LINE
  5
132
330
A
100
AcDbEntity
  8
0
  6
Continuous
 62
     7
100
AcDbLine
 10
106.6783957299087
 20
631.5816680933538
 30
0.0
 11
115.7783961039086
 21
631.5816680933538
 31
0.0
  0
LINE
  5
131
330
A
100
AcDbEntity
  8
0
  6
Continuous
 62
     7
100
AcDbLine
 10
116.6783955063086
 20
235.2816651608539
 30
0.0
 11
115.7783961039086
 21
235.2816651608539
 31
0.0
  0
LINE
  5
130
330
A
100
AcDbEntity
  8
0
  6
Continuous
 62
     7
100
AcDbLine
 10
116.6783955063086
 20
631.5816680933538
 30
0.0
 11
116.6783955063086
 21
235.2816651608539
 31
0.0
  0
LINE
  5
12F
330
A
100
AcDbEntity
  8
0
  6
Continuous
 62
     7
100
AcDbLine
 10
115.7783961039086
 20
631.5816680933538
 30
0.0
 11
116.6783955063086
 21
631.5816680933538
 31
0.0
  0
LINE
  5
12E
330
A
100
AcDbEntity
  8
0
  6
Continuous
 62
     7
100
AcDbLine
 10
90.67839496980864
 20
593.8366095569537
 30
0.0
 11
90.67839496980864
 21
612.4267171172537
 31
0.0
  0
LINE
  5
12D
330
A
100
AcDbEntity
  8
0
  6
Continuous
 62
     7
100
AcDbLine
 10
90.67839496980864
 20
253.8366059807539
 30
0.0
 11
90.67839496980864
 21
272.4267135407539
 31
0.0
  0
LINE
  5
12C
330
A
100
AcDbEntity
  8
0
  6
Continuous
 62
     7
100
AcDbLine
 10
180.4783932981086
 20
360.531661942154
 30
0.0
 11
180.4783932981086
 21
358.1316622940538
 31
0.0
  0
LINE
  5
12B
330
A
100
AcDbEntity
  8
0
  6
Continuous
 62
     7
100
AcDbLine
 10
180.6516043956087
 20
360.9316612628539
 30
0.0
 11
180.6516043956087
 21
357.7316629733539
 31
0.0
  0
LINE
  5
12A
330
A
100
AcDbEntity
  8
0
  6
Continuous
 62
     7
100
AcDbLine
 10
102.4918455747086
 20
573.3316580798539
 30
0.0
 11
102.4918455747086
 21
576.8316577223536
 31
0.0
  0
LINE
  5
129
330
A
100
AcDbEntity
  8
0
  6
Continuous
 62
     7
100
AcDbLine
 10
102.4918455747086
 20
569.8316584376539
 30
0.0
 11
102.4918455747086
 21
573.3316580798539
 31
0.0
  0
LINE
  5
128
330
A
100
AcDbEntity
  8
0
  6
Continuous
 62
     7
100
AcDbLine
 10
101.5424609298086
 20
573.3316580798539
 30
0.0
 11
101.5424609298086
 21
576.1999676969537
 31
0.0
  0
LINE
  5
127
330
A
100
AcDbEntity
  8
0
  6
Continuous
 62
     7
100
AcDbLine
 10
101.542460929953
 20
570.4633484628527
 30
0.0
 11
101.5424609298086
 21
573.3316580798539
 31
0.0
  0
LINE
  5
126
330
A
100
AcDbEntity
  8
0
  6
Continuous
 62
     7
100
AcDbLine
 10
103.8783958296086
 20
573.3316580798539
 30
0.0
 11
103.8783958296086
 21
576.8316577223536
 31
0.0
  0
LINE
  5
125
330
A
100
AcDbEntity
  8
0
  6
Continuous
 62
     7
100
AcDbLine
 10
103.8783958296086
 20
569.8316584376539
 30
0.0
 11
103.8783958296086
 21
573.3316580798539
 31
0.0
  0
LINE
  5
124
330
A
100
AcDbEntity
  8
0
  6
Continuous
 62
     7
100
AcDbLine
 10
101.3620865646086
 20
572.9316662099537
 30
0.0
 11
101.2872226651539
 21
572.9316662099687
 31
0.0
  0
LINE
  5
123
330
A
100
AcDbEntity
  8
0
  6
Continuous
 62
     7
100
AcDbLine
 10
101.3620865646086
 20
573.7316648510539
 30
0.0
 11
101.3620865646086
 21
572.9316662099537
 31
0.0
  0
LINE
  5
122
330
A
100
AcDbEntity
  8
0
  6
Continuous
 62
     7
100
AcDbLine
 10
101.3620865646086
 20
574.9316553620538
 30
0.0
 11
101.2872226651539
 21
574.0316550281387
 31
0.0
  0
LINE
  5
121
330
A
100
AcDbEntity
  8
0
  6
Continuous
 62
     7
100
AcDbLine
 10
102.4918455747086
 20
359.3316602555539
 30
0.0
 11
102.4918455747086
 21
362.8316598977538
 31
0.0
  0
LINE
  5
120
330
A
100
AcDbEntity
  8
0
  6
Continuous
 62
     7
100
AcDbLine
 10
102.4918455747086
 20
355.831660613054
 30
0.0
 11
102.4918455747086
 21
359.3316602555539
 31
0.0
  0
LINE
  5
11F
330
A
100
AcDbEntity
  8
0
  6
Continuous
 62
     7
100
AcDbLine
 10
101.5424609298086
 20
359.3316602555539
 30
0.0
 11
101.5424609298086
 21
362.1999698726538
 31
0.0
  0
LINE
  5
11E
330
A
100
AcDbEntity
  8
0
  6
Continuous
 62
     7
100
AcDbLine
 10
101.542460929953
 20
356.4633543637128
 30
0.0
 11
101.5424609298086
 21
359.3316602555539
 31
0.0
  0
LINE
  5
11D
330
A
100
AcDbEntity
  8
0
  6
Continuous
 62
     7
100
AcDbLine
 10
103.8783958296086
 20
359.3316602555539
 30
0.0
 11
103.8783958296086
 21
362.8316598977538
 31
0.0
  0
LINE
  5
11C
330
A
100
AcDbEntity
  8
0
  6
Continuous
 62
     7
100
AcDbLine
 10
103.8783958296086
 20
355.831660613054
 30
0.0
 11
103.8783958296086
 21
359.3316602555539
 31
0.0
  0
LINE
  5
11B
330
A
100
AcDbEntity
  8
0
  6
Continuous
 62
     7
100
AcDbLine
 10
101.3620865646086
 20
358.9316609348539
 30
0.0
 11
101.2872226651539
 21
358.9316609349588
 31
0.0
  0
LINE
  5
11A
330
A
100
AcDbEntity
  8
0
  6
Continuous
 62
     7
100
AcDbLine
 10
101.3620865646086
 20
359.7316595759539
 30
0.0
 11
101.3620865646086
 21
358.9316609348539
 31
0.0
  0
LINE
  5
119
330
A
100
AcDbEntity
  8
0
  6
Continuous
 62
     7
100
AcDbLine
 10
101.3620865646086
 20
360.9316612628539
 30
0.0
 11
101.2872226651539
 21
360.0316609289988
 31
0.0
  0
LINE
  5
118
330
A
100
AcDbEntity
  8
0
  6
Continuous
 62
     7
100
AcDbLine
 10
102.4918455747086
 20
383.3316604640539
 30
0.0
 11
102.4918455747086
 21
386.8316619689539
 31
0.0
  0
LINE
  5
117
330
A
100
AcDbEntity
  8
0
  6
Continuous
 62
     7
100
AcDbLine
 10
102.4918455747086
 20
379.8316608218538
 30
0.0
 11
102.4918455747086
 21
383.3316604640539
 31
0.0
  0
LINE
  5
116
330
A
100
AcDbEntity
  8
0
  6
Continuous
 62
     7
100
AcDbLine
 10
101.5424609298086
 20
383.3316604640539
 30
0.0
 11
101.5424609298086
 21
386.1999682184539
 31
0.0
  0
LINE
  5
115
330
A
100
AcDbEntity
  8
0
  6
Continuous
 62
     7
100
AcDbLine
 10
101.542460929953
 20
380.4633527096838
 30
0.0
 11
101.5424609298086
 21
383.3316604640539
 31
0.0
  0
LINE
  5
114
330
A
100
AcDbEntity
  8
0
  6
Continuous
 62
     7
100
AcDbLine
 10
103.8783958296086
 20
383.3316604640539
 30
0.0
 11
103.8783958296086
 21
386.8316619689539
 31
0.0
  0
LINE
  5
113
330
A
100
AcDbEntity
  8
0
  6
Continuous
 62
     7
100
AcDbLine
 10
103.8783958296086
 20
379.8316608218538
 30
0.0
 11
103.8783958296086
 21
383.3316604640539
 31
0.0
  0
LINE
  5
112
330
A
100
AcDbEntity
  8
0
  6
Continuous
 62
     7
100
AcDbLine
 10
101.3620865646086
 20
382.9316611436539
 30
0.0
 11
101.2872226651539
 21
382.9316611435759
 31
0.0
  0
LINE
  5
111
330
A
100
AcDbEntity
  8
0
  6
Continuous
 62
     7
100
AcDbLine
 10
101.3620865646086
 20
383.7316616471538
 30
0.0
 11
101.3620865646086
 21
382.9316611436539
 31
0.0
  0
LINE
  5
110
330
A
100
AcDbEntity
  8
0
  6
Continuous
 62
     7
100
AcDbLine
 10
101.3620865646086
 20
384.9316614713539
 30
0.0
 11
101.2872226651539
 21
384.0316611376159
 31
0.0
  0
LINE
  5
10F
330
A
100
AcDbEntity
  8
0
  6
Continuous
 62
     7
100
AcDbLine
 10
104.8783957608087
 20
359.3316602555539
 30
0.0
 11
104.8783957608087
 21
363.3316609112538
 31
0.0
  0
LINE
  5
10E
330
A
100
AcDbEntity
  8
0
  6
Continuous
 62
     7
100
AcDbLine
 10
104.8783957608087
 20
355.3316595998539
 30
0.0
 11
104.8783957608087
 21
359.3316602555539
 31
0.0
  0
LINE
  5
10D
330
A
100
AcDbEntity
  8
0
  6
Continuous
 62
     7
100
AcDbLine
 10
104.8783957608087
 20
383.3316604640539
 30
0.0
 11
104.8783957608087
 21
387.3316611197539
 31
0.0
  0
LINE
  5
10C
330
A
100
AcDbEntity
  8
0
  6
Continuous
 62
     7
100
AcDbLine
 10
104.8783957608087
 20
379.3316616710538
 30
0.0
 11
104.8783957608087
 21
383.3316604640539
 31
0.0
  0
LINE
  5
10B
330
A
100
AcDbEntity
  8
0
  6
Continuous
 62
     7
100
AcDbLine
 10
104.8783957608087
 20
573.3316580798539
 30
0.0
 11
104.8783957608087
 21
577.3316661860538
 31
0.0
  0
LINE
  5
10A
330
A
100
AcDbEntity
  8
0
  6
Continuous
 62
     7
100
AcDbLine
 10
104.8783957608087
 20
569.3316648749538
 30
0.0
 11
104.8783957608087
 21
573.3316580798539
 31
0.0
  0
LINE
  5
109
330
A
100
AcDbEntity
  8
0
  6
Continuous
 62
     7
100
AcDbLine
 10
184.1783963259087
 20
353.3316629972538
 30
0.0
 11
185.6783993658087
 21
353.3316629972538
 31
0.0
  0
LINE
  5
108
330
A
100
AcDbEntity
  8
0
  6
Continuous
 62
     7
100
AcDbLine
 10
184.1783963259087
 20
364.8316602257539
 30
0.0
 11
184.1783963259087
 21
353.3316629972538
 31
0.0
  0
LINE
  5
107
330
A
100
AcDbEntity
  8
0
  6
Continuous
 62
     7
100
AcDbLine
 10
184.1783963259087
 20
366.3316595402539
 30
0.0
 11
116.6783955063086
 21
366.3316595402539
 31
0.0
  0
LINE
  5
106
330
A
100
AcDbEntity
  8
0
  6
Continuous
 62
     7
100
AcDbLine
 10
116.6783955063086
 20
364.8316602257539
 30
0.0
 11
184.1783963259087
 21
364.8316602257539
 31
0.0
  0
LINE
  5
105
330
A
100
AcDbEntity
  8
0
  6
Continuous
 62
     7
100
AcDbLine
 10
169.6783967430086
 20
586.3316546228539
 30
0.0
 11
169.6783967430086
 21
370.3316601959539
 31
0.0
  0
LINE
  5
104
330
A
100
AcDbEntity
  8
0
  6
Continuous
 62
     7
100
AcDbLine
 10
167.6783964153086
 20
368.3316598679539
 30
0.0
 11
116.6783955063086
 21
368.3316598679539
 31
0.0
  0
LINE
  5
103
330
A
100
AcDbEntity
  8
0
  6
Continuous
 62
     7
100
AcDbLine
 10
116.6783955063086
 20
465.8316600170539
 30
0.0
 11
143.6783962068086
 21
465.8316600170539
 31
0.0
  0
LINE
  5
102
330
A
100
AcDbEntity
  8
0
  6
Continuous
 62
     7
100
AcDbLine
 10
143.6783962068086
 20
490.8316622522538
 30
0.0
 11
116.6783955063086
 21
490.8316622522538
 31
0.0
  0
LINE
  5
101
330
A
100
AcDbEntity
  8
0
  6
Continuous
 62
     7
100
AcDbLine
 10
167.6783964153086
 20
588.3316586759539
 30
0.0
 11
116.6783955063086
 21
588.3316586759539
 31
0.0
  0
LINE
  5
100
330
A
100
AcDbEntity
  8
0
  6
Continuous
 62
     7
100
AcDbLine
 10
167.6783964153086
 20
589.8316542650539
 30
0.0
 11
116.6783955063086
 21
589.8316542650539
 31
0.0
  0
LINE
  5
FF
330
A
100
AcDbEntity
  8
0
  6
Continuous
 62
     7
100
AcDbLine
 10
116.6783955063086
 20
588.8316671396538
 30
0.0
 11
167.6783964153086
 21
588.8316671396538
 31
0.0
  0
LINE
  5
FE
330
A
100
AcDbEntity
  8
0
  6
Continuous
 62
     7
100
AcDbLine
 10
167.6783964153086
 20
367.8316625801539
 30
0.0
 11
116.6783955063086
 21
367.8316625801539
 31
0.0
  0
LINE
  5
FD
330
A
100
AcDbEntity
  8
0
  6
Continuous
 62
     7
100
AcDbLine
 10
167.6783964153086
 20
366.8316605534539
 30
0.0
 11
116.6783955063086
 21
366.8316605534539
 31
0.0
  0
LINE
  5
FC
330
A
100
AcDbEntity
  8
0
  6
Continuous
 62
     7
100
AcDbLine
 10
169.6783967430086
 20
589.8316542650539
 30
0.0
 11
169.6783967430086
 21
588.8316671396538
 31
0.0
  0
LINE
  5
FB
330
A
100
AcDbEntity
  8
0
  6
Continuous
 62
     7
100
AcDbLine
 10
167.6783964153086
 20
589.8316542650539
 30
0.0
 11
169.6783967430086
 21
589.8316542650539
 31
0.0
  0
LINE
  5
FA
330
A
100
AcDbEntity
  8
0
  6
Continuous
 62
     7
100
AcDbLine
 10
169.6783967430086
 20
588.8316671396538
 30
0.0
 11
167.6783964153086
 21
588.8316671396538
 31
0.0
  0
LINE
  5
F9
330
A
100
AcDbEntity
  8
0
  6
Continuous
 62
     7
100
AcDbLine
 10
169.6783967430086
 20
367.8316625801539
 30
0.0
 11
169.6783967430086
 21
366.8316605534539
 31
0.0
  0
LINE
  5
F8
330
A
100
AcDbEntity
  8
0
  6
Continuous
 62
     7
100
AcDbLine
 10
167.6783964153086
 20
367.8316625801539
 30
0.0
 11
169.6783967430086
 21
367.8316625801539
 31
0.0
  0
LINE
  5
F7
330
A
100
AcDbEntity
  8
0
  6
Continuous
 62
     7
100
AcDbLine
 10
169.6783967430086
 20
366.8316605534539
 30
0.0
 11
167.6783964153086
 21
366.8316605534539
 31
0.0
  0
LINE
  5
F6
330
A
100
AcDbEntity
  8
0
  6
Continuous
 62
     7
100
AcDbLine
 10
172.6783953723086
 20
632.4316601303539
 30
0.0
 11
172.6783953723086
 21
631.4316581036538
 31
0.0
  0
LINE
  5
F5
330
A
100
AcDbEntity
  8
0
  6
Continuous
 62
     7
100
AcDbLine
 10
172.6783953723086
 20
631.4316581036538
 30
0.0
 11
116.6783955063086
 21
631.4316581036538
 31
0.0
  0
LINE
  5
F4
330
A
100
AcDbEntity
  8
0
  6
Continuous
 62
     7
100
AcDbLine
 10
172.6783953723086
 20
619.4316635873539
 30
0.0
 11
116.6783955063086
 21
619.4316635873539
 31
0.0
  0
LINE
  5
F3
330
A
100
AcDbEntity
  8
0
  6
Continuous
 62
     7
100
AcDbLine
 10
172.6783953723086
 20
631.4316581036538
 30
0.0
 11
172.6783953723086
 21
619.4316635873539
 31
0.0
  0
LINE
  5
F2
330
A
100
AcDbEntity
  8
0
  6
Continuous
 62
     7
100
AcDbLine
 10
172.6783953723086
 20
235.4316602495539
 30
0.0
 11
116.6783955063086
 21
235.4316602495539
 31
0.0
  0
LINE
  5
F1
330
A
100
AcDbEntity
  8
0
  6
Continuous
 62
     7
100
AcDbLine
 10
172.6783953723086
 20
235.4316602495539
 30
0.0
 11
172.6783953723086
 21
234.4316582228539
 31
0.0
  0
LINE
  5
F0
330
A
100
AcDbEntity
  8
0
  6
Continuous
 62
     7
100
AcDbLine
 10
172.6783953723086
 20
247.4316547658538
 30
0.0
 11
116.6783955063086
 21
247.4316547658538
 31
0.0
  0
LINE
  5
EF
330
A
100
AcDbEntity
  8
0
  6
Continuous
 62
     7
100
AcDbLine
 10
172.6783953723086
 20
247.4316547658538
 30
0.0
 11
172.6783953723086
 21
235.4316602495539
 31
0.0
  0
LINE
  5
EE
330
A
100
AcDbEntity
  8
0
  6
Continuous
 62
     7
100
AcDbLine
 10
168.8283972558087
 20
590.4316644218537
 30
0.0
 11
168.8922710832087
 21
589.8316542650539
 31
0.0
  0
LINE
  5
ED
330
A
100
AcDbEntity
  8
0
  6
Continuous
 62
     7
100
AcDbLine
 10
182.4783973512087
 20
363.2816600648538
 30
0.0
 11
182.4783973512087
 21
355.3816604462539
 31
0.0
  0
LINE
  5
EC
330
A
100
AcDbEntity
  8
0
  6
Continuous
 62
     7
100
AcDbLine
 10
182.1783922728086
 20
355.6816617992538
 30
0.0
 11
182.1783922728086
 21
362.9816624369539
 31
0.0
  0
LINE
  5
EB
330
A
100
AcDbEntity
  8
0
  6
Continuous
 62
     7
100
AcDbLine
 10
163.6783957596086
 20
633.4316621567539
 30
0.0
 11
107.6783957775087
 21
633.4316621567539
 31
0.0
  0
LINE
  5
EA
330
A
100
AcDbEntity
  8
0
  6
Continuous
 62
     7
100
AcDbLine
 10
163.6783957596086
 20
633.4316621567539
 30
0.0
 11
163.6783957596086
 21
632.4316601303539
 31
0.0
  0
LINE
  5
E9
330
A
100
AcDbEntity
  8
0
  6
Continuous
 62
     7
100
AcDbLine
 10
163.6783957596086
 20
632.4316601303539
 30
0.0
 11
107.6783957775087
 21
632.4316601303539
 31
0.0
  0
LINE
  5
E8
330
A
100
AcDbEntity
  8
0
  6
Continuous
 62
     7
100
AcDbLine
 10
107.6783957775087
 20
632.4316601303539
 30
0.0
 11
107.6783957775087
 21
631.5816680933538
 31
0.0
  0
LINE
  5
E7
330
A
100
AcDbEntity
  8
0
  6
Continuous
 62
     7
100
AcDbLine
 10
106.6783957299087
 20
632.4316601303539
 30
0.0
 11
106.6783957299087
 21
631.5816680933538
 31
0.0
  0
LINE
  5
E6
330
A
100
AcDbEntity
  8
0
  6
Continuous
 62
     7
100
AcDbLine
 10
107.6783957775087
 20
235.2816651608539
 30
0.0
 11
107.6783957775087
 21
234.4316582228539
 31
0.0
  0
LINE
  5
E5
330
A
100
AcDbEntity
  8
0
  6
Continuous
 62
     7
100
AcDbLine
 10
163.6783957596086
 20
234.4316582228539
 30
0.0
 11
107.6783957775087
 21
234.4316582228539
 31
0.0
  0
LINE
  5
E4
330
A
100
AcDbEntity
  8
0
  6
Continuous
 62
     7
100
AcDbLine
 10
163.6783957596086
 20
234.4316582228539
 30
0.0
 11
163.6783957596086
 21
233.4316561964539
 31
0.0
  0
LINE
  5
E3
330
A
100
AcDbEntity
  8
0
  6
Continuous
 62
     7
100
AcDbLine
 10
163.6783957596086
 20
233.4316561964539
 30
0.0
 11
107.6783957775087
 21
233.4316561964539
 31
0.0
  0
LINE
  5
E2
330
A
100
AcDbEntity
  8
0
  6
Continuous
 62
     7
100
AcDbLine
 10
106.6783957299087
 20
235.2816651608539
 30
0.0
 11
106.6783957299087
 21
234.4316582228539
 31
0.0
  0
LINE
  5
E1
330
A
100
AcDbEntity
  8
0
  6
Continuous
 62
     7
100
AcDbLine
 10
183.6783953127087
 20
234.4316582228539
 30
0.0
 11
183.6783953127087
 21
233.4316561964539
 31
0.0
  0
LINE
  5
E0
330
A
100
AcDbEntity
  8
0
  6
Continuous
 62
     7
100
AcDbLine
 10
183.6783953127087
 20
234.4316582228539
 30
0.0
 11
163.6783957596086
 21
234.4316582228539
 31
0.0
  0
LINE
  5
DF
330
A
100
AcDbEntity
  8
0
  6
Continuous
 62
     7
100
AcDbLine
 10
163.6783957596086
 20
233.4316561964539
 30
0.0
 11
183.6783953127087
 21
233.4316561964539
 31
0.0
  0
LINE
  5
DE
330
A
100
AcDbEntity
  8
0
  6
Continuous
 62
     7
100
AcDbLine
 10
183.6783953127087
 20
633.4316621567539
 30
0.0
 11
183.6783953127087
 21
632.4316601303539
 31
0.0
  0
LINE
  5
DD
330
A
100
AcDbEntity
  8
0
  6
Continuous
 62
     7
100
AcDbLine
 10
183.6783953127087
 20
632.4316601303539
 30
0.0
 11
163.6783957596086
 21
632.4316601303539
 31
0.0
  0
LINE
  5
DC
330
A
100
AcDbEntity
  8
0
  6
Continuous
 62
     7
100
AcDbLine
 10
183.6783953127087
 20
633.4316621567539
 30
0.0
 11
163.6783957596086
 21
633.4316621567539
 31
0.0
  0
LINE
  5
DB
330
A
100
AcDbEntity
  8
0
  6
Continuous
 62
     7
100
AcDbLine
 10
197.6783938821086
 20
236.4316622759539
 30
0.0
 11
188.6783979948086
 21
236.4316622759539
 31
0.0
  0
LINE
  5
DA
330
A
100
AcDbEntity
  8
0
  6
Continuous
 62
     7
100
AcDbLine
 10
200.6783925111086
 20
627.4316648987537
 30
0.0
 11
200.6783925111086
 21
239.4316683557539
 31
0.0
  0
LINE
  5
D9
330
A
100
AcDbEntity
  8
0
  6
Continuous
 62
     7
100
AcDbLine
 10
188.6783979948086
 20
630.4316560772536
 30
0.0
 11
197.6783938821086
 21
630.4316560772536
 31
0.0
  0
LINE
  5
D8
330
A
100
AcDbEntity
  8
0
  6
Continuous
 62
     7
100
AcDbLine
 10
185.6783993658087
 20
236.4316622759539
 30
0.0
 11
185.6783993658087
 21
630.4316560772536
 31
0.0
  0
LINE
  5
D7
330
A
100
AcDbEntity
  8
0
  6
Continuous
 62
     7
100
AcDbLine
 10
188.6783979948086
 20
236.4316622759539
 30
0.0
 11
185.6783993658087
 21
236.4316622759539
 31
0.0
  0
LINE
  5
D6
330
A
100
AcDbEntity
  8
0
  6
Continuous
 62
     7
100
AcDbLine
 10
185.6783993658087
 20
630.4316560772536
 30
0.0
 11
188.6783979948086
 21
630.4316560772536
 31
0.0
  0
LINE
  5
D5
330
A
100
AcDbEntity
  8
0
  6
Continuous
 62
     7
100
AcDbLine
 10
182.6783932860086
 20
616.4958815123537
 30
0.0
 11
182.6783932860086
 21
589.6674434687537
 31
0.0
  0
LINE
  5
D4
330
A
100
AcDbEntity
  8
0
  6
Continuous
 62
     7
100
AcDbLine
 10
182.6783932860086
 20
276.4958779361539
 30
0.0
 11
182.6783932860086
 21
249.6674547938539
 31
0.0
  0
LINE
  5
D3
330
A
100
AcDbEntity
  8
0
  6
Continuous
 62
     7
100
AcDbLine
 10
120.6783961620087
 20
590.3316627290538
 30
0.0
 11
120.6783961620087
 21
591.3316647557539
 31
0.0
  0
LINE
  5
D2
330
A
100
AcDbEntity
  8
0
  6
Continuous
 62
     7
100
AcDbLine
 10
120.6783961620087
 20
590.3316627290538
 30
0.0
 11
116.6783955063086
 21
590.3316627290538
 31
0.0
  0
LINE
  5
D1
330
A
100
AcDbEntity
  8
0
  6
Continuous
 62
     7
100
AcDbLine
 10
120.6783961620087
 20
591.3316647557539
 30
0.0
 11
116.6783955063086
 21
591.3316647557539
 31
0.0
  0
LINE
  5
D0
330
A
100
AcDbEntity
  8
0
  6
Continuous
 62
     7
100
AcDbLine
 10
122.6783964897086
 20
591.3316647557539
 30
0.0
 11
122.6783964897086
 21
590.3316627290538
 31
0.0
  0
LINE
  5
CF
330
A
100
AcDbEntity
  8
0
  6
Continuous
 62
     7
100
AcDbLine
 10
122.6783964897086
 20
590.3316627290538
 30
0.0
 11
120.6783961620087
 21
590.3316627290538
 31
0.0
  0
LINE
  5
CE
330
A
100
AcDbEntity
  8
0
  6
Continuous
 62
     7
100
AcDbLine
 10
120.6783961620087
 20
591.3316647557539
 30
0.0
 11
122.6783964897086
 21
591.3316647557539
 31
0.0
  0
LINE
  5
CD
330
A
100
AcDbEntity
  8
0
  6
Continuous
 62
     7
100
AcDbLine
 10
676.2432623391086
 20
48.70472524015386
 30
0.0
 11
679.1432592753085
 21
34.20472542475389
 31
0.0
  0
LINE
  5
CC
330
A
100
AcDbEntity
  8
0
  6
Continuous
 62
     7
100
AcDbLine
 10
698.2236522915086
 20
34.20472542475389
 30
0.0
 11
701.1236492280086
 21
48.70472524015386
 31
0.0
  0
LINE
  5
CB
330
A
100
AcDbEntity
  8
0
  6
Continuous
 62
     7
100
AcDbLine
 10
423.3432654027086
 20
48.70472524015386
 30
0.0
 11
426.2432697897087
 21
34.20472542475389
 31
0.0
  0
LINE
  5
CA
330
A
100
AcDbEntity
  8
0
  6
Continuous
 62
     7
100
AcDbLine
 10
445.3236553554086
 20
34.20472542475389
 30
0.0
 11
448.2236448411084
 21
48.70472524015386
 31
0.0
  0
LINE
  5
C9
330
A
100
AcDbEntity
  8
0
  6
Continuous
 62
     7
100
AcDbLine
 10
733.4834579115088
 20
119.0037524951539
 30
0.0
 11
732.9834494475087
 21
119.0037524951539
 31
0.0
  0
LINE
  5
C8
330
A
100
AcDbEntity
  8
0
  6
Continuous
 62
     7
100
AcDbLine
 10
732.9834494475087
 20
111.0037549091539
 30
0.0
 11
733.4834579115088
 21
111.0037549091539
 31
0.0
  0
LINE
  5
C7
330
A
100
AcDbEntity
  8
0
  6
Continuous
 62
     7
100
AcDbLine
 10
734.1834548595086
 20
117.7537536872539
 30
0.0
 11
733.4834579115088
 21
117.7537536872539
 31
0.0
  0
LINE
  5
C6
330
A
100
AcDbEntity
  8
0
  6
Continuous
 62
     7
100
AcDbLine
 10
733.4834579115088
 20
112.2537537170539
 30
0.0
 11
734.1834548595086
 21
112.2537537170539
 31
0.0
  0
LINE
  5
C5
330
A
100
AcDbEntity
  8
0
  6
Continuous
 62
     7
100
AcDbLine
 10
734.9225822571086
 20
117.7537536872539
 30
0.0
 11
734.1834548595086
 21
117.7537536872539
 31
0.0
  0
LINE
  5
C4
330
A
100
AcDbEntity
  8
0
  6
Continuous
 62
     7
100
AcDbLine
 10
734.1834548595086
 20
112.2537537170539
 30
0.0
 11
734.9225822571086
 21
112.2537537170539
 31
0.0
  0
LINE
  5
C3
330
A
100
AcDbEntity
  8
0
  6
Continuous
 62
     7
100
AcDbLine
 10
641.9834587458086
 20
45.81720406825389
 30
0.0
 11
641.9834587458086
 21
47.20375432345389
 31
0.0
  0
LINE
  5
C2
330
A
100
AcDbEntity
  8
0
  6
Continuous
 62
     7
100
AcDbLine
 10
634.9834557357086
 20
47.20375432345389
 30
0.0
 11
634.9834557357086
 21
45.81720406825389
 31
0.0
  0
LINE
  5
C1
330
A
100
AcDbEntity
  8
0
  6
Continuous
 62
     7
100
AcDbLine
 10
635.6151494865087
 20
44.86781942365388
 30
0.0
 11
636.8832681063086
 21
44.68612397725388
 31
0.0
  0
LINE
  5
C0
330
A
100
AcDbEntity
  8
0
  6
Continuous
 62
     7
100
AcDbLine
 10
460.9834570173086
 20
133.1903061521539
 30
0.0
 11
460.9834570173086
 21
131.8037531030538
 31
0.0
  0
LINE
  5
BF
330
A
100
AcDbEntity
  8
0
  6
Continuous
 62
     7
100
AcDbLine
 10
467.9834563020087
 20
131.8037531030538
 30
0.0
 11
467.9834563020087
 21
133.1903061521539
 31
0.0
  0
LINE
  5
BE
330
A
100
AcDbEntity
  8
0
  6
Continuous
 62
     7
100
AcDbLine
 10
467.3517662766086
 20
134.1396889340539
 30
0.0
 11
466.0836476568086
 21
134.3213862431539
 31
0.0
  0
LINE
  5
BD
330
A
100
AcDbEntity
  8
0
  6
Continuous
 62
     7
100
AcDbLine
 10
634.9834557357086
 20
133.1903061521539
 30
0.0
 11
634.9834557357086
 21
131.8037531030538
 31
0.0
  0
LINE
  5
BC
330
A
100
AcDbEntity
  8
0
  6
Continuous
 62
     7
100
AcDbLine
 10
641.9834587458086
 20
131.8037531030538
 30
0.0
 11
641.9834587458086
 21
133.1903061521539
 31
0.0
  0
LINE
  5
BB
330
A
100
AcDbEntity
  8
0
  6
Continuous
 62
     7
100
AcDbLine
 10
641.3517612699084
 20
134.1396889340539
 30
0.0
 11
640.0836426501086
 21
134.3213862431539
 31
0.0
  0
LINE
  5
BA
330
A
100
AcDbEntity
  8
0
  6
Continuous
 62
     7
100
AcDbLine
 10
467.9834563020087
 20
45.81720406825389
 30
0.0
 11
467.9834563020087
 21
47.20375432345389
 31
0.0
  0
LINE
  5
B9
330
A
100
AcDbEntity
  8
0
  6
Continuous
 62
     7
100
AcDbLine
 10
460.9834570173086
 20
47.20375432345389
 30
0.0
 11
460.9834570173086
 21
45.81720406825389
 31
0.0
  0
LINE
  5
B8
330
A
100
AcDbEntity
  8
0
  6
Continuous
 62
     7
100
AcDbLine
 10
461.6151470427086
 20
44.86781942365388
 30
0.0
 11
462.8832656625085
 21
44.68612397725388
 31
0.0
  0
LINE
  5
B7
330
A
100
AcDbEntity
  8
0
  6
Continuous
 62
     7
100
AcDbLine
 10
421.0834596042086
 20
47.20375432345389
 30
0.0
 11
421.0834596042086
 21
45.81720406825389
 31
0.0
  0
LINE
  5
B6
330
A
100
AcDbEntity
  8
0
  6
Continuous
 62
     7
100
AcDbLine
 10
421.7151496296087
 20
44.86781942365388
 30
0.0
 11
422.9832682494086
 21
44.68612397725388
 31
0.0
  0
LINE
  5
B5
330
A
100
AcDbEntity
  8
0
  6
Continuous
 62
     7
100
AcDbLine
 10
671.0834596041087
 20
47.20375432345389
 30
0.0
 11
671.0834596041087
 21
45.81720406825389
 31
0.0
  0
LINE
  5
B4
330
A
100
AcDbEntity
  8
0
  6
Continuous
 62
     7
100
AcDbLine
 10
671.7151496295087
 20
44.86781942365388
 30
0.0
 11
672.9832682493088
 21
44.68612397725388
 31
0.0
  0
LINE
  5
B3
330
A
100
AcDbEntity
  8
0
  6
Continuous
 62
     7
100
AcDbLine
 10
468.4834573152086
 20
48.20375425465386
 30
0.0
 11
468.4834573152086
 21
49.00375417615389
 31
0.0
  0
LINE
  5
B2
330
A
100
AcDbEntity
  8
0
  6
Continuous
 62
     7
100
AcDbLine
 10
460.4834560041086
 20
49.00375417615389
 30
0.0
 11
460.4834560041086
 21
48.20375425465386
 31
0.0
  0
LINE
  5
B1
330
A
100
AcDbEntity
  8
0
  6
Continuous
 62
     7
100
AcDbLine
 10
467.9834563020087
 20
47.20375432345389
 30
0.0
 11
467.9834563020087
 21
48.20375425465386
 31
0.0
  0
LINE
  5
B0
330
A
100
AcDbEntity
  8
0
  6
Continuous
 62
     7
100
AcDbLine
 10
460.9834570173086
 20
48.20375425465386
 30
0.0
 11
460.9834570173086
 21
47.20375432345389
 31
0.0
  0
LINE
  5
AF
330
A
100
AcDbEntity
  8
0
  6
Continuous
 62
     7
100
AcDbLine
 10
670.5834585909086
 20
49.00375417615389
 30
0.0
 11
670.5834585909086
 21
48.20375425465386
 31
0.0
  0
LINE
  5
AE
330
A
100
AcDbEntity
  8
0
  6
Continuous
 62
     7
100
AcDbLine
 10
671.0834596041087
 20
48.20375425465386
 30
0.0
 11
671.0834596041087
 21
47.20375432345389
 31
0.0
  0
LINE
  5
AD
330
A
100
AcDbEntity
  8
0
  6
Continuous
 62
     7
100
AcDbLine
 10
420.5834511402086
 20
49.00375417615389
 30
0.0
 11
420.5834511402086
 21
48.20375425465386
 31
0.0
  0
LINE
  5
AC
330
A
100
AcDbEntity
  8
0
  6
Continuous
 62
     7
100
AcDbLine
 10
421.0834596042086
 20
48.20375425465386
 30
0.0
 11
421.0834596042086
 21
47.20375432345389
 31
0.0
  0
LINE
  5
AB
330
A
100
AcDbEntity
  8
0
  6
Continuous
 62
     7
100
AcDbLine
 10
642.4834597590086
 20
48.20375425465386
 30
0.0
 11
642.4834597590086
 21
49.00375417615389
 31
0.0
  0
LINE
  5
AA
330
A
100
AcDbEntity
  8
0
  6
Continuous
 62
     7
100
AcDbLine
 10
634.4834584479086
 20
49.00375417615389
 30
0.0
 11
634.4834584479086
 21
48.20375425465386
 31
0.0
  0
LINE
  5
A9
330
A
100
AcDbEntity
  8
0
  6
Continuous
 62
     7
100
AcDbLine
 10
641.9834587458086
 20
47.20375432345389
 30
0.0
 11
641.9834587458086
 21
48.20375425465386
 31
0.0
  0
LINE
  5
A8
330
A
100
AcDbEntity
  8
0
  6
Continuous
 62
     7
100
AcDbLine
 10
634.9834557357086
 20
48.20375425465386
 30
0.0
 11
634.9834557357086
 21
47.20375432345389
 31
0.0
  0
LINE
  5
A7
330
A
100
AcDbEntity
  8
0
  6
Continuous
 62
     7
100
AcDbLine
 10
460.4834560041086
 20
130.8037510766539
 30
0.0
 11
460.4834560041086
 21
130.0037524355539
 31
0.0
  0
LINE
  5
A6
330
A
100
AcDbEntity
  8
0
  6
Continuous
 62
     7
100
AcDbLine
 10
468.4834573152086
 20
130.0037524355539
 30
0.0
 11
468.4834573152086
 21
130.8037510766539
 31
0.0
  0
LINE
  5
A5
330
A
100
AcDbEntity
  8
0
  6
Continuous
 62
     7
100
AcDbLine
 10
460.9834570173086
 20
131.8037531030538
 30
0.0
 11
460.9834570173086
 21
130.8037510766539
 31
0.0
  0
LINE
  5
A4
330
A
100
AcDbEntity
  8
0
  6
Continuous
 62
     7
100
AcDbLine
 10
467.9834563020087
 20
130.8037510766539
 30
0.0
 11
467.9834563020087
 21
131.8037531030538
 31
0.0
  0
LINE
  5
A3
330
A
100
AcDbEntity
  8
0
  6
Continuous
 62
     7
100
AcDbLine
 10
634.4834584479086
 20
130.8037510766539
 30
0.0
 11
634.4834584479086
 21
130.0037524355539
 31
0.0
  0
LINE
  5
A2
330
A
100
AcDbEntity
  8
0
  6
Continuous
 62
     7
100
AcDbLine
 10
642.4834597590086
 20
130.0037524355539
 30
0.0
 11
642.4834597590086
 21
130.8037510766539
 31
0.0
  0
LINE
  5
A1
330
A
100
AcDbEntity
  8
0
  6
Continuous
 62
     7
100
AcDbLine
 10
634.9834557357086
 20
131.8037531030538
 30
0.0
 11
634.9834557357086
 21
130.8037510766539
 31
0.0
  0
LINE
  5
A0
330
A
100
AcDbEntity
  8
0
  6
Continuous
 62
     7
100
AcDbLine
 10
641.9834587458086
 20
130.8037510766539
 30
0.0
 11
641.9834587458086
 21
131.8037531030538
 31
0.0
  0
LINE
  5
9F
330
A
100
AcDbEntity
  8
0
  6
Continuous
 62
     7
100
AcDbLine
 10
398.6834529522086
 20
60.00375400015389
 30
0.0
 11
398.8834563378087
 21
60.00375400015389
 31
0.0
  0
LINE
  5
9E
330
A
100
AcDbEntity
  8
0
  6
Continuous
 62
     7
100
AcDbLine
 10
398.9834580306086
 20
59.99818096585389
 30
0.0
 11
398.8834563378087
 21
60.00375400015389
 31
0.0
  0
LINE
  5
9D
330
A
100
AcDbEntity
  8
0
  6
Continuous
 62
     7
100
AcDbLine
 10
398.9834580306086
 20
53.00375424985388
 30
0.0
 11
398.7834546450086
 21
53.00375424985388
 31
0.0
  0
LINE
  5
9C
330
A
100
AcDbEntity
  8
0
  6
Continuous
 62
     7
100
AcDbLine
 10
398.7834546450086
 20
50.0037542237539
 30
0.0
 11
398.7834546450086
 21
53.00375424985388
 31
0.0
  0
LINE
  5
9B
330
A
100
AcDbEntity
  8
0
  6
Continuous
 62
     7
100
AcDbLine
 10
703.7834617977087
 20
49.00375417615389
 30
0.0
 11
703.7834617977087
 21
50.0037542237539
 31
0.0
  0
LINE
  5
9A
330
A
100
AcDbEntity
  8
0
  6
Continuous
 62
     7
100
AcDbLine
 10
398.7834546450086
 20
49.00375417615389
 30
0.0
 11
703.7834617977087
 21
49.00375417615389
 31
0.0
  0
LINE
  5
99
330
A
100
AcDbEntity
  8
0
  6
Continuous
 62
     7
100
AcDbLine
 10
397.7834526186086
 20
59.10375459775388
 30
0.0
 11
397.7834526186086
 21
50.0037542237539
 31
0.0
  0
LINE
  5
98
330
A
100
AcDbEntity
  8
0
  6
Continuous
 62
     7
100
AcDbLine
 10
398.7834546450086
 20
50.0037542237539
 30
0.0
 11
398.9834580306086
 21
50.0037542237539
 31
0.0
  0
LINE
  5
97
330
A
100
AcDbEntity
  8
0
  6
Continuous
 62
     7
100
AcDbLine
 10
733.0834511403087
 20
71.00375394055387
 30
0.0
 11
732.9834494475087
 21
71.00375394055387
 31
0.0
  0
LINE
  5
96
330
A
100
AcDbEntity
  8
0
  6
Continuous
 62
     7
100
AcDbLine
 10
733.0834511403087
 20
71.00375394055387
 30
0.0
 11
733.0834511403087
 21
67.70375395825386
 31
0.0
  0
LINE
  5
95
330
A
100
AcDbEntity
  8
0
  6
Continuous
 62
     7
100
AcDbLine
 10
733.1834528331088
 20
67.70375395825386
 30
0.0
 11
733.0834511403087
 21
67.70375395825386
 31
0.0
  0
LINE
  5
94
330
A
100
AcDbEntity
  8
0
  6
Continuous
 62
     7
100
AcDbLine
 10
733.1834528331088
 20
67.70375395825386
 30
0.0
 11
733.1834528331088
 21
67.40375446795389
 31
0.0
  0
LINE
  5
93
330
A
100
AcDbEntity
  8
0
  6
Continuous
 62
     7
100
AcDbLine
 10
733.1834528331088
 20
67.40375446795389
 30
0.0
 11
733.0834511403087
 21
67.40375446795389
 31
0.0
  0
LINE
  5
92
330
A
100
AcDbEntity
  8
0
  6
Continuous
 62
     7
100
AcDbLine
 10
733.0834511403087
 20
67.40375446795389
 30
0.0
 11
733.0834511403087
 21
63.60375440395387
 31
0.0
  0
LINE
  5
91
330
A
100
AcDbEntity
  8
0
  6
Continuous
 62
     7
100
AcDbLine
 10
733.1834528331088
 20
63.60375440395387
 30
0.0
 11
733.0834511403087
 21
63.60375440395387
 31
0.0
  0
LINE
  5
90
330
A
100
AcDbEntity
  8
0
  6
Continuous
 62
     7
100
AcDbLine
 10
733.1834528331088
 20
63.60375440395387
 30
0.0
 11
733.1834528331088
 21
63.30375398215389
 31
0.0
  0
LINE
  5
8F
330
A
100
AcDbEntity
  8
0
  6
Continuous
 62
     7
100
AcDbLine
 10
733.1834528331088
 20
63.30375398215389
 30
0.0
 11
733.0834511403087
 21
63.30375398215389
 31
0.0
  0
LINE
  5
8E
330
A
100
AcDbEntity
  8
0
  6
Continuous
 62
     7
100
AcDbLine
 10
733.0834511403087
 20
60.00375400015389
 30
0.0
 11
732.9834494475087
 21
60.00375400015389
 31
0.0
  0
LINE
  5
8D
330
A
100
AcDbEntity
  8
0
  6
Continuous
 62
     7
100
AcDbLine
 10
733.0834511403087
 20
63.30375398215389
 30
0.0
 11
733.0834511403087
 21
60.00375400015389
 31
0.0
  0
LINE
  5
8C
330
A
100
AcDbEntity
  8
0
  6
Continuous
 62
     7
100
AcDbLine
 10
733.1834528331088
 20
62.48745253945386
 30
0.0
 11
733.0834511403087
 21
62.48745253945386
 31
0.0
  0
LINE
  5
8B
330
A
100
AcDbEntity
  8
0
  6
Continuous
 62
     7
100
AcDbLine
 10
733.1834528331088
 20
60.50718228055386
 30
0.0
 11
733.0834511403087
 21
60.50718228055386
 31
0.0
  0
LINE
  5
8A
330
A
100
AcDbEntity
  8
0
  6
Continuous
 62
     7
100
AcDbLine
 10
733.1834528331088
 20
60.50718228055386
 30
0.0
 11
733.1834528331088
 21
62.48745253945386
 31
0.0
  0
LINE
  5
89
330
A
100
AcDbEntity
  8
0
  6
Continuous
 62
     7
100
AcDbLine
 10
733.1834528331088
 20
65.21712640945388
 30
0.0
 11
733.1834528331088
 21
65.31972928615387
 31
0.0
  0
LINE
  5
88
330
A
100
AcDbEntity
  8
0
  6
Continuous
 62
     7
100
AcDbLine
 10
733.1834528331088
 20
65.21712640945388
 30
0.0
 11
733.0834511403087
 21
65.21712640945388
 31
0.0
  0
LINE
  5
87
330
A
100
AcDbEntity
  8
0
  6
Continuous
 62
     7
100
AcDbLine
 10
733.1834528331088
 20
65.31972928615387
 30
0.0
 11
733.0834511403087
 21
65.31972928615387
 31
0.0
  0
LINE
  5
86
330
A
100
AcDbEntity
  8
0
  6
Continuous
 62
     7
100
AcDbLine
 10
733.1834528330455
 20
64.82723473285239
 30
0.0
 11
733.0834511403087
 21
64.82723473285389
 31
0.0
  0
LINE
  5
85
330
A
100
AcDbEntity
  8
0
  6
Continuous
 62
     7
100
AcDbLine
 10
733.1834528331088
 20
70.12706274805386
 30
0.0
 11
733.0834511403087
 21
70.12706274805386
 31
0.0
  0
LINE
  5
84
330
A
100
AcDbEntity
  8
0
  6
Continuous
 62
     7
100
AcDbLine
 10
733.1834528331088
 20
70.32124909285386
 30
0.0
 11
733.0834511403087
 21
70.32124909285386
 31
0.0
  0
LINE
  5
83
330
A
100
AcDbEntity
  8
0
  6
Continuous
 62
     7
100
AcDbLine
 10
733.1834528331088
 20
70.12706274805386
 30
0.0
 11
733.1834528331088
 21
70.32124909285386
 31
0.0
  0
LINE
  5
82
330
A
100
AcDbEntity
  8
0
  6
Continuous
 62
     7
100
AcDbLine
 10
733.1834528331088
 20
66.55096660075388
 30
0.0
 11
733.0834511403087
 21
66.55096660075388
 31
0.0
  0
LINE
  5
81
330
A
100
AcDbEntity
  8
0
  6
Continuous
 62
     7
100
AcDbLine
 10
733.1834528331088
 20
66.17133530515388
 30
0.0
 11
733.0834511403087
 21
66.17133530515388
 31
0.0
  0
LINE
  5
80
330
A
100
AcDbEntity
  8
0
  6
Continuous
 62
     7
100
AcDbLine
 10
733.1834528331088
 20
65.81222477095386
 30
0.0
 11
733.0834511403087
 21
65.81222477095386
 31
0.0
  0
LINE
  5
7F
330
A
100
AcDbEntity
  8
0
  6
Continuous
 62
     7
100
AcDbLine
 10
733.1834528331088
 20
64.69461067285388
 30
0.0
 11
733.0834511403087
 21
64.69461067285388
 31
0.0
  0
LINE
  5
7E
330
A
100
AcDbEntity
  8
0
  6
Continuous
 62
     7
100
AcDbLine
 10
733.1834528331088
 20
66.6946100693539
 30
0.0
 11
733.0834511403087
 21
66.6946100693539
 31
0.0
  0
LINE
  5
7D
330
A
100
AcDbEntity
  8
0
  6
Continuous
 62
     7
100
AcDbLine
 10
733.1834528331088
 20
68.32124876515388
 30
0.0
 11
733.0834511403087
 21
68.32124876515388
 31
0.0
  0
LINE
  5
7C
330
A
100
AcDbEntity
  8
0
  6
Continuous
 62
     7
100
AcDbLine
 10
733.1834528331088
 20
68.32124876515388
 30
0.0
 11
733.1834528331088
 21
70.12706274805386
 31
0.0
  0
LINE
  5
7B
330
A
100
AcDbEntity
  8
0
  6
Continuous
 62
     7
100
AcDbLine
 10
733.1834528331088
 20
60.48402121945388
 30
0.0
 11
733.0834511403087
 21
60.48402121945388
 31
0.0
  0
LINE
  5
7A
330
A
100
AcDbEntity
  8
0
  6
Continuous
 62
     7
100
AcDbLine
 10
733.1834528331088
 20
62.51061360055389
 30
0.0
 11
733.0834511403087
 21
62.51061360055389
 31
0.0
  0
LINE
  5
79
330
A
100
AcDbEntity
  8
0
  6
Continuous
 62
     7
100
AcDbLine
 10
733.1834528331088
 20
64.67674976845386
 30
0.0
 11
733.0834511403087
 21
64.67674976845386
 31
0.0
  0
LINE
  5
78
330
A
100
AcDbEntity
  8
0
  6
Continuous
 62
     7
100
AcDbLine
 10
733.1834528331088
 20
60.47244115435386
 30
0.0
 11
733.0834511403087
 21
60.47244115435386
 31
0.0
  0
LINE
  5
77
330
A
100
AcDbEntity
  8
0
  6
Continuous
 62
     7
100
AcDbLine
 10
733.1834528331088
 20
60.4029579710539
 30
0.0
 11
733.0834511403087
 21
60.4029579710539
 31
0.0
  0
LINE
  5
76
330
A
100
AcDbEntity
  8
0
  6
Continuous
 62
     7
100
AcDbLine
 10
733.1834528331088
 20
60.4029579710539
 30
0.0
 11
733.1834528331088
 21
60.47697948925389
 31
0.0
  0
LINE
  5
75
330
A
100
AcDbEntity
  8
0
  6
Continuous
 62
     7
100
AcDbLine
 10
733.1834528331088
 20
60.2060894174539
 30
0.0
 11
733.0834511403087
 21
60.2060894174539
 31
0.0
  0
LINE
  5
74
330
A
100
AcDbEntity
  8
0
  6
Continuous
 62
     7
100
AcDbLine
 10
733.1834528331088
 20
60.07870311565389
 30
0.0
 11
733.0834511403087
 21
60.07870311565389
 31
0.0
  0
LINE
  5
73
330
A
100
AcDbEntity
  8
0
  6
Continuous
 62
     7
100
AcDbLine
 10
697.9785058383087
 20
34.0037534636539
 30
0.0
 11
679.3884057288086
 21
34.0037534636539
 31
0.0
  0
LINE
  5
72
330
A
100
AcDbEntity
  8
0
  6
Continuous
 62
     7
100
AcDbLine
 10
445.0785014514086
 20
34.0037534636539
 30
0.0
 11
426.4884087924087
 21
34.0037534636539
 31
0.0
  0
LINE
  5
71
330
A
100
AcDbEntity
  8
0
  6
Continuous
 62
     7
100
AcDbLine
 10
733.4834579115088
 20
119.0037524951539
 30
0.0
 11
733.4834579115088
 21
111.0037549091539
 31
0.0
  0
LINE
  5
70
330
A
100
AcDbEntity
  8
0
  6
Continuous
 62
     7
100
AcDbLine
 10
734.1834548595086
 20
117.7537536872539
 30
0.0
 11
734.1834548595086
 21
112.2537537170539
 31
0.0
  0
LINE
  5
6F
330
A
100
AcDbEntity
  8
0
  6
Continuous
 62
     7
100
AcDbLine
 10
735.9990570429085
 20
115.4598093284538
 30
0.0
 11
736.1375037314753
 21
115.4801121604362
 31
0.0
  0
LINE
  5
6E
330
A
100
AcDbEntity
  8
0
  6
Continuous
 62
     7
100
AcDbLine
 10
736.1272219305085
 20
114.2640730988539
 30
0.0
 11
736.1375037315297
 21
114.2633056892091
 31
0.0
  0
LINE
  5
6D
330
A
100
AcDbEntity
  8
0
  6
Continuous
 62
     7
100
AcDbLine
 10
736.0033932807088
 20
115.2907556546538
 30
0.0
 11
736.1375037316467
 21
115.3085029377393
 31
0.0
  0
LINE
  5
6C
330
A
100
AcDbEntity
  8
0
  6
Continuous
 62
     7
100
AcDbLine
 10
641.9834587458086
 20
45.81720406825389
 30
0.0
 11
634.9834557357086
 21
45.81720406825389
 31
0.0
  0
LINE
  5
6B
330
A
100
AcDbEntity
  8
0
  6
Continuous
 62
     7
100
AcDbLine
 10
641.3517612699178
 20
44.86781942372139
 30
0.0
 11
635.6151494865087
 21
44.86781942365388
 31
0.0
  0
LINE
  5
6A
330
A
100
AcDbEntity
  8
0
  6
Continuous
 62
     7
100
AcDbLine
 10
641.9834587458086
 20
47.20375432345389
 30
0.0
 11
634.9834557357086
 21
47.20375432345389
 31
0.0
  0
LINE
  5
69
330
A
100
AcDbEntity
  8
0
  6
Continuous
 62
     7
100
AcDbLine
 10
638.8834584240087
 20
44.68744505845388
 30
0.0
 11
638.8834584239636
 21
44.61258115892228
 31
0.0
  0
LINE
  5
68
330
A
100
AcDbEntity
  8
0
  6
Continuous
 62
     7
100
AcDbLine
 10
638.0834597829086
 20
44.68744505845388
 30
0.0
 11
638.8834584240087
 21
44.68744505845388
 31
0.0
  0
LINE
  5
67
330
A
100
AcDbEntity
  8
0
  6
Continuous
 62
     7
100
AcDbLine
 10
636.8834580960085
 20
44.68744505845388
 30
0.0
 11
637.7834547046314
 21
44.61258115892228
 31
0.0
  0
LINE
  5
66
330
A
100
AcDbEntity
  8
0
  6
Continuous
 62
     7
100
AcDbLine
 10
460.9834570173086
 20
133.1903061521539
 30
0.0
 11
467.9834563020087
 21
133.1903061521539
 31
0.0
  0
LINE
  5
65
330
A
100
AcDbEntity
  8
0
  6
Continuous
 62
     7
100
AcDbLine
 10
461.6151470426216
 20
134.1396889341334
 30
0.0
 11
467.3517662766086
 21
134.1396889340539
 31
0.0
  0
LINE
  5
64
330
A
100
AcDbEntity
  8
0
  6
Continuous
 62
     7
100
AcDbLine
 10
460.9834570173086
 20
131.8037531030538
 30
0.0
 11
467.9834563020087
 21
131.8037531030538
 31
0.0
  0
LINE
  5
63
330
A
100
AcDbEntity
  8
0
  6
Continuous
 62
     7
100
AcDbLine
 10
464.0834573391086
 20
134.3200600397539
 30
0.0
 11
464.0834573391567
 21
134.394930924223
 31
0.0
  0
LINE
  5
62
330
A
100
AcDbEntity
  8
0
  6
Continuous
 62
     7
100
AcDbLine
 10
464.8834559802087
 20
134.3200600397539
 30
0.0
 11
464.0834573391086
 21
134.3200600397539
 31
0.0
  0
LINE
  5
61
330
A
100
AcDbEntity
  8
0
  6
Continuous
 62
     7
100
AcDbLine
 10
466.0834539417086
 20
134.3200600397539
 30
0.0
 11
465.1834536079077
 21
134.394930924223
 31
0.0
  0
LINE
  5
60
330
A
100
AcDbEntity
  8
0
  6
Continuous
 62
     7
100
AcDbLine
 10
634.9834557357086
 20
133.1903061521539
 30
0.0
 11
641.9834587458086
 21
133.1903061521539
 31
0.0
  0
LINE
  5
5F
330
A
100
AcDbEntity
  8
0
  6
Continuous
 62
     7
100
AcDbLine
 10
635.6151494864126
 20
134.1396889341334
 30
0.0
 11
641.3517612699084
 21
134.1396889340539
 31
0.0
  0
LINE
  5
5E
330
A
100
AcDbEntity
  8
0
  6
Continuous
 62
     7
100
AcDbLine
 10
634.9834557357086
 20
131.8037531030538
 30
0.0
 11
641.9834587458086
 21
131.8037531030538
 31
0.0
  0
LINE
  5
5D
330
A
100
AcDbEntity
  8
0
  6
Continuous
 62
     7
100
AcDbLine
 10
638.0834597829086
 20
134.3200600397539
 30
0.0
 11
638.0834597829476
 21
134.394930924223
 31
0.0
  0
LINE
  5
5C
330
A
100
AcDbEntity
  8
0
  6
Continuous
 62
     7
100
AcDbLine
 10
638.8834584240087
 20
134.3200600397539
 30
0.0
 11
638.0834597829086
 21
134.3200600397539
 31
0.0
  0
LINE
  5
5B
330
A
100
AcDbEntity
  8
0
  6
Continuous
 62
     7
100
AcDbLine
 10
640.0834563855084
 20
134.3200600397539
 30
0.0
 11
639.1834560516985
 21
134.394930924223
 31
0.0
  0
LINE
  5
5A
330
A
100
AcDbEntity
  8
0
  6
Continuous
 62
     7
100
AcDbLine
 10
467.9834563020087
 20
45.81720406825389
 30
0.0
 11
460.9834570173086
 21
45.81720406825389
 31
0.0
  0
LINE
  5
59
330
A
100
AcDbEntity
  8
0
  6
Continuous
 62
     7
100
AcDbLine
 10
467.3517662767076
 20
44.86781942372139
 30
0.0
 11
461.6151470427086
 21
44.86781942365388
 31
0.0
  0
LINE
  5
58
330
A
100
AcDbEntity
  8
0
  6
Continuous
 62
     7
100
AcDbLine
 10
467.9834563020087
 20
47.20375432345389
 30
0.0
 11
460.9834570173086
 21
47.20375432345389
 31
0.0
  0
LINE
  5
57
330
A
100
AcDbEntity
  8
0
  6
Continuous
 62
     7
100
AcDbLine
 10
464.8834559802087
 20
44.68744505845388
 30
0.0
 11
464.8834559801725
 21
44.61258115892228
 31
0.0
  0
LINE
  5
56
330
A
100
AcDbEntity
  8
0
  6
Continuous
 62
     7
100
AcDbLine
 10
464.0834573391086
 20
44.68744505845388
 30
0.0
 11
464.8834559802087
 21
44.68744505845388
 31
0.0
  0
LINE
  5
55
330
A
100
AcDbEntity
  8
0
  6
Continuous
 62
     7
100
AcDbLine
 10
462.8834593776087
 20
44.68744505845388
 30
0.0
 11
463.7834597114216
 21
44.61258115892228
 31
0.0
  0
LINE
  5
54
330
A
100
AcDbEntity
  8
0
  6
Continuous
 62
     7
100
AcDbLine
 10
423.9207599046086
 20
45.81720406825389
 30
0.0
 11
421.0834596042086
 21
45.81720406825389
 31
0.0
  0
LINE
  5
53
330
A
100
AcDbEntity
  8
0
  6
Continuous
 62
     7
100
AcDbLine
 10
424.1106454017085
 20
44.86781942365388
 30
0.0
 11
421.7151496296087
 21
44.86781942365388
 31
0.0
  0
LINE
  5
52
330
A
100
AcDbEntity
  8
0
  6
Continuous
 62
     7
100
AcDbLine
 10
423.6434641962087
 20
47.20375432345389
 30
0.0
 11
421.0834596042086
 21
47.20375432345389
 31
0.0
  0
LINE
  5
51
330
A
100
AcDbEntity
  8
0
  6
Continuous
 62
     7
100
AcDbLine
 10
422.9834619645086
 20
44.68744505845388
 30
0.0
 11
423.8834622982644
 21
44.61258115892228
 31
0.0
  0
LINE
  5
50
330
A
100
AcDbEntity
  8
0
  6
Continuous
 62
     7
100
AcDbLine
 10
676.8207642915085
 20
45.81720406825389
 30
0.0
 11
671.0834596041087
 21
45.81720406825389
 31
0.0
  0
LINE
  5
4F
330
A
100
AcDbEntity
  8
0
  6
Continuous
 62
     7
100
AcDbLine
 10
677.0106423381085
 20
44.86781942365388
 30
0.0
 11
671.7151496295087
 21
44.86781942365388
 31
0.0
  0
LINE
  5
4E
330
A
100
AcDbEntity
  8
0
  6
Continuous
 62
     7
100
AcDbLine
 10
676.5434536818085
 20
47.20375432345389
 30
0.0
 11
671.0834596041087
 21
47.20375432345389
 31
0.0
  0
LINE
  5
4D
330
A
100
AcDbEntity
  8
0
  6
Continuous
 62
     7
100
AcDbLine
 10
674.9834585670087
 20
44.68744505845388
 30
0.0
 11
674.9834585670147
 21
44.61258115892228
 31
0.0
  0
LINE
  5
4C
330
A
100
AcDbEntity
  8
0
  6
Continuous
 62
     7
100
AcDbLine
 10
674.1834599259086
 20
44.68744505845388
 30
0.0
 11
674.9834585670087
 21
44.68744505845388
 31
0.0
  0
LINE
  5
4B
330
A
100
AcDbEntity
  8
0
  6
Continuous
 62
     7
100
AcDbLine
 10
672.9834545139087
 20
44.68744505845388
 30
0.0
 11
673.8834548476826
 21
44.61258115892228
 31
0.0
  0
LINE
  5
4A
330
A
100
AcDbEntity
  8
0
  6
Continuous
 62
     7
100
AcDbLine
 10
468.4834573152086
 20
48.20375425465386
 30
0.0
 11
460.4834560041086
 21
48.20375425465386
 31
0.0
  0
LINE
  5
49
330
A
100
AcDbEntity
  8
0
  6
Continuous
 62
     7
100
AcDbLine
 10
676.3434577467084
 20
48.20375425465386
 30
0.0
 11
670.5834585909086
 21
48.20375425465386
 31
0.0
  0
LINE
  5
48
330
A
100
AcDbEntity
  8
0
  6
Continuous
 62
     7
100
AcDbLine
 10
423.4434608106086
 20
48.20375425465386
 30
0.0
 11
420.5834511402086
 21
48.20375425465386
 31
0.0
  0
LINE
  5
47
330
A
100
AcDbEntity
  8
0
  6
Continuous
 62
     7
100
AcDbLine
 10
642.4834597590086
 20
48.20375425465386
 30
0.0
 11
634.4834584479086
 21
48.20375425465386
 31
0.0
  0
LINE
  5
46
330
A
100
AcDbEntity
  8
0
  6
Continuous
 62
     7
100
AcDbLine
 10
460.4834560041086
 20
130.8037510766539
 30
0.0
 11
468.4834573152086
 21
130.8037510766539
 31
0.0
  0
LINE
  5
45
330
A
100
AcDbEntity
  8
0
  6
Continuous
 62
     7
100
AcDbLine
 10
634.4834584479086
 20
130.8037510766539
 30
0.0
 11
642.4834597590086
 21
130.8037510766539
 31
0.0
  0
LINE
  5
44
330
A
100
AcDbEntity
  8
0
  6
Continuous
 62
     7
100
AcDbLine
 10
400.7834586981085
 20
113.0037552368539
 30
0.0
 11
401.2934509401087
 21
113.0037552368539
 31
0.0
  0
LINE
  5
43
330
A
100
AcDbEntity
  8
0
  6
Continuous
 62
     7
100
AcDbLine
 10
400.7834586981085
 20
111.6790792595538
 30
0.0
 11
400.7834586981085
 21
113.0037552368539
 31
0.0
  0
LINE
  5
42
330
A
100
AcDbEntity
  8
0
  6
Continuous
 62
     7
100
AcDbLine
 10
732.9834494475087
 20
50.0037542237539
 30
0.0
 11
398.9834580306086
 21
50.0037542237539
 31
0.0
  0
LINE
  5
41
330
A
100
AcDbEntity
  8
0
  6
Continuous
 62
     7
100
AcDbLine
 10
398.9834580306086
 20
50.0037542237539
 30
0.0
 11
398.9834580306086
 21
51.00375427105388
 31
0.0
  0
LINE
  5
40
330
A
100
AcDbEntity
  8
0
  6
Continuous
 62
     7
100
AcDbLine
 10
398.9834580306086
 20
107.0037542534538
 30
0.0
 11
406.6834542636086
 21
127.0037538062539
 31
0.0
  0
LINE
  5
3F
330
A
100
AcDbEntity
  8
0
  6
Continuous
 62
     7
100
AcDbLine
 10
398.9834580306086
 20
107.0037542534538
 30
0.0
 11
398.9834580306086
 21
51.00375427105388
 31
0.0
  0
LINE
  5
3E
330
A
100
AcDbEntity
  8
0
  6
Continuous
 62
     7
100
AcDbLine
 10
732.9834494475087
 20
127.0037538062539
 30
0.0
 11
732.9834494475087
 21
50.0037542237539
 31
0.0
  0
LINE
  5
3D
330
A
100
AcDbEntity
  8
0
  6
Continuous
 62
     7
100
AcDbLine
 10
406.6834542636086
 20
130.0037524355539
 30
0.0
 11
731.9834623221087
 21
130.0037524355539
 31
0.0
  0
LINE
  5
3C
330
A
100
AcDbEntity
  8
0
  6
Continuous
 62
     7
100
AcDbLine
 10
406.6834542636086
 20
127.0037538062539
 30
0.0
 11
406.6834542636086
 21
130.0037524355539
 31
0.0
  0
LINE
  5
3B
330
A
100
AcDbEntity
  8
0
  6
Continuous
 62
     7
100
AcDbLine
 10
732.9834494475087
 20
129.0037578596539
 30
0.0
 11
732.9834494475087
 21
127.0037538062539
 31
0.0
  0
LINE
  5
3A
330
A
100
AcDbEntity
  8
0
  6
Continuous
 62
     7
100
AcDbLine
 10
404.6834502105085
 20
132.0037564886539
 30
0.0
 11
404.6834502105085
 21
141.0037523759539
 31
0.0
  0
LINE
  5
39
330
A
100
AcDbEntity
  8
0
  6
Continuous
 62
     7
100
AcDbLine
 10
403.6834630851087
 20
141.0037523759539
 30
0.0
 11
403.6834630851087
 21
132.0037564886539
 31
0.0
  0
LINE
  5
38
330
A
100
AcDbEntity
  8
0
  6
Continuous
 62
     7
100
AcDbLine
 10
403.6834630851087
 20
144.0037510049539
 30
0.0
 11
404.6834502105085
 21
144.0037510049539
 31
0.0
  0
LINE
  5
37
330
A
100
AcDbEntity
  8
0
  6
Continuous
 62
     7
100
AcDbLine
 10
404.6834502105085
 20
144.0037510049539
 30
0.0
 11
404.6834502105085
 21
141.0037523759539
 31
0.0
  0
LINE
  5
36
330
A
100
AcDbEntity
  8
0
  6
Continuous
 62
     7
100
AcDbLine
 10
403.6834630851087
 20
141.0037523759539
 30
0.0
 11
403.6834630851087
 21
144.0037510049539
 31
0.0
  0
POINT
  5
2D
330
A
100
AcDbEntity
  8
FORMAT
 62
     7
100
AcDbPoint
 10
398.9834568873087
 20
633.4316612003537
 30
0.0
  0
POINT
  5
2C
330
A
100
AcDbEntity
  8
FORMAT
 62
     7
100
AcDbPoint
 10
398.9834568873087
 20
233.4316612004538
 30
0.0
  0
POINT
  5
2B
330
A
100
AcDbEntity
  8
FORMAT
 62
     7
100
AcDbPoint
 10
426.2432626941086
 20
34.20472518985389
 30
0.0
  0
POINT
  5
2A
330
A
100
AcDbEntity
  8
FORMAT
 62
     7
100
AcDbPoint
 10
403.6834568874087
 20
144.0037542236538
 30
0.0
  0
POINT
  5
29
330
A
100
AcDbEntity
  8
FORMAT
 62
     7
100
AcDbPoint
 10
732.9834568875087
 20
50.0037542237539
 30
0.0
  0
POINT
  5
28
330
A
100
AcDbEntity
  8
FORMAT
 62
     7
100
AcDbPoint
 10
397.7834568875096
 20
50.0037542237539
 30
0.0
  0
DIMENSION
  5
358
330
A
100
AcDbEntity
  8
MEASURE
  6
Continuous
100
AcDbDimension
  2
*D0
 10
356.1713098621626
 20
233.4316561964539
 30
0.0
 11
348.1713098621626
 21
433.4316586984039
 31
0.0
 70
    32
 71
     5
 42
400.0000050038998
  3
S＝1／4
100
AcDbAlignedDimension
 13
398.9834568873087
 23
633.4316612003537
 33
0.0
 14
398.9834568873087
 24
233.4316561964539
 34
0.0
 50
90.0
100
AcDbRotatedDimension
1001
ACAD
1000
DSTYLE
1002
{
1070
    47
1040
2.0
1070
    48
1040
2.0
1070
   147
1040
0.5
1070
    72
1070
     0
1070
    71
1070
     1
1002
}
  0
DIMENSION
  5
378
330
A
100
AcDbEntity
  8
MEASURE
  6
Continuous
100
AcDbDimension
  2
*D1
 10
356.1852578147973
 20
34.00375346365392
 30
0.0
 11
348.1852578147973
 21
89.00375223430396
 31
0.0
 70
    32
 71
     5
 42
109.9999975413
  3
S＝1／4
100
AcDbAlignedDimension
 13
403.6834630851087
 23
144.0037510049539
 33
0.0
 14
426.4884087924087
 24
34.0037534636539
 34
0.0
 50
90.0
100
AcDbRotatedDimension
1001
ACAD
1000
DSTYLE
1002
{
1070
    47
1040
2.0
1070
    48
1040
2.0
1070
   147
1040
0.5
1070
    72
1070
     0
1070
    71
1070
     1
1002
}
  0
DIMENSION
  5
385
330
A
100
AcDbEntity
  8
MEASURE
  6
Continuous
100
AcDbDimension
  2
*D2
 10
732.9834494475087
 20
8.414337588322041
 30
0.0
 11
565.3834531675093
 21
16.41433758832204
 31
0.0
 70
    32
  1
336±2
 71
     5
 42
335.1999925599991
  3
S＝1／4
100
AcDbAlignedDimension
 13
397.7834568875097
 23
50.0037542237539
 33
0.0
 14
732.9834494475087
 24
50.0037542237539
 34
0.0
100
AcDbRotatedDimension
1001
ACAD
1000
DSTYLE
1002
{
1070
    47
1040
2.0
1070
    48
1040
2.0
1070
   147
1040
0.5
1070
    72
1070
     0
1070
    71
1070
     1
1002
}
  0
DIMENSION
  5
41A
330
A
100
AcDbEntity
  8
MEASURE
  6
Continuous
100
AcDbDimension
  2
*D3
 10
768.3421426645891
 20
130.0037524355539
 30
0.0
 11
760.3421426645891
 21
90.00375332965402
 31
0.0
 70
    32
 71
     5
 42
79.99999821180001
  3
S＝1／4
100
AcDbAlignedDimension
 13
732.9834494475087
 23
50.0037542237539
 33
0.0
 14
731.9834623221087
 24
130.0037524355539
 34
0.0
 50
90.0
100
AcDbRotatedDimension
1001
ACAD
1000
DSTYLE
1002
{
1070
    47
1040
2.0
1070
    48
1040
2.0
1070
   147
1040
0.5
1070
    72
1070
     0
1070
    71
1070
     1
1070
    50
1040
1.570796326794896
1002
}
  0
DIMENSION
  5
427
330
A
100
AcDbEntity
  8
MEASURE
  6
Continuous
100
AcDbDimension
  2
*D4
 10
768.3421426645891
 20
34.00375346365388
 30
0.0
 11
760.3421426645891
 21
4.918039177939719
 31
0.0
 70
    32
 71
     5
 42
16.00000076010001
  3
S＝1／4
100
AcDbAlignedDimension
 13
732.9834568875087
 23
50.0037542237539
 33
0.0
 14
697.9785058383087
 24
34.0037534636539
 34
0.0
 50
90.0
100
AcDbRotatedDimension
1001
ACAD
1000
DSTYLE
1002
{
1070
    50
1040
1.570796326794896
1002
}
  0
VIEWPORT
  5
34E
102
{ACAD_XDICTIONARY
360
4F6
102
}
330
B
100
AcDbEntity
 67
     1
  8
0
  6
Continuous
100
AcDbViewport
 10
142.6315765380859
 20
99.1340856552124
 30
0.0
 40
361.6063845078614
 41
222.1965796813965
 68
     1
 69
     1
 12
142.6315765380859
 22
99.1340856552124
 13
0.0
 23
0.0
 14
10.0
 24
10.0
 15
10.0
 25
10.0
 16
0.0
 26
0.0
 36
1.0
 17
0.0
 27
0.0
 37
0.0
 42
50.0
 43
0.0
 44
0.0
 45
222.1965796813965
 50
0.0
 51
0.0
 72
   100
 90
   557088
  1

281
     0
 71
     1
 74
     0
110
0.0
120
0.0
130
0.0
111
1.0
121
0.0
131
0.0
112
0.0
122
1.0
132
0.0
 79
     0
146
0.0
  0
VIEWPORT
  5
350
102
{ACAD_XDICTIONARY
360
4F8
102
}
330
B
100
AcDbEntity
 67
     1
  8
MEASURE
  6
Continuous
100
AcDbViewport
 10
142.5892491340637
 20
99.11291456222535
 30
0.0
 40
228.142798614502
 41
158.5806632995605
 68
     2
 69
     2
 12
296.7769364746931
 22
157.4149773051459
 13
0.0
 23
0.0
 14
10.0
 24
10.0
 15
10.0
 25
10.0
 16
0.0
 26
0.0
 36
1.0
 17
0.0
 27
0.0
 37
0.0
 42
50.0
 43
0.0
 44
0.0
 45
314.5396501598576
 50
0.0
 51
0.0
 72
   100
 90
   557088
  1

281
     0
 71
     1
 74
     0
110
0.0
120
0.0
130
0.0
111
1.0
121
0.0
131
0.0
112
0.0
122
1.0
132
0.0
 79
     0
146
0.0
  0
ENDSEC
  0
SECTION
  2
OBJECTS
  0
DICTIONARY
  5
19
330
0
100
AcDbDictionary
281
     1
  3
ACAD_2007HEADERVARS_RT
350
4E9
  3
ACAD_COLOR
350
29B
  3
ACAD_GROUP
350
1A
  3
ACAD_LAYOUT
350
2A0
  3
ACAD_MATERIAL
350
286
  3
ACAD_MLINESTYLE
350
1B
  3
ACAD_PLOTSETTINGS
350
29F
  3
ACAD_PLOTSTYLENAME
350
284
  3
ACAD_TABLESTYLE
350
29C
  3
ACAD_VISUALSTYLE
350
28A
  3
AcDbVariableDictionary
350
2B8
  3
DWGPROPS
350
4E8
  0
DICTIONARY
  5
2A6
330
7
100
AcDbDictionary
280
     1
281
     1
  0
DICTIONARY
  5
2E2
330
2
100
AcDbDictionary
280
     1
281
     1
  3
ACAD_LAYERSTATES
360
2E3
  0
DICTIONARY
  5
4F6
330
34E
100
AcDbDictionary
280
     1
281
     1
  3
ACAD_XREC_ROUNDTRIP
360
4F7
  0
DICTIONARY
  5
4F8
330
350
100
AcDbDictionary
280
     1
281
     1
  3
ACAD_XREC_ROUNDTRIP
360
4F9
  0
DICTIONARY
  5
4E9
102
{ACAD_REACTORS
330
19
102
}
330
19
100
AcDbDictionary
281
     1
  3
DIMJOGANG
350
4EA
  0
DICTIONARY
  5
29B
102
{ACAD_REACTORS
330
19
102
}
330
19
100
AcDbDictionary
281
     1
  0
DICTIONARY
  5
1A
102
{ACAD_REACTORS
330
19
102
}
330
19
100
AcDbDictionary
281
     1
  0
DICTIONARY
  5
2A0
102
{ACAD_REACTORS
330
19
102
}
330
19
100
AcDbDictionary
281
     1
  3
Model
350
2A1
  3
レイアウト1
350
2A2
  0
DICTIONARY
  5
286
102
{ACAD_REACTORS
330
19
102
}
330
19
100
AcDbDictionary
281
     1
  3
ByBlock
350
288
  3
ByLayer
350
287
  3
Global
350
289
  0
DICTIONARY
  5
1B
102
{ACAD_REACTORS
330
19
102
}
330
19
100
AcDbDictionary
281
     1
  3
STANDARD
350
1C
  0
DICTIONARY
  5
29F
102
{ACAD_REACTORS
330
19
102
}
330
19
100
AcDbDictionary
281
     1
  0
ACDBDICTIONARYWDFLT
  5
284
102
{ACAD_REACTORS
330
19
102
}
330
19
100
AcDbDictionary
281
     1
  3
Normal
350
285
100
AcDbDictionaryWithDefault
340
285
  0
DICTIONARY
  5
29C
102
{ACAD_REACTORS
330
19
102
}
330
19
100
AcDbDictionary
281
     1
  3
Standard
350
29D
  0
DICTIONARY
  5
28A
102
{ACAD_REACTORS
330
19
102
}
330
19
100
AcDbDictionary
281
     1
  3
2dWireframe
350
290
  3
3D Hidden
350
292
  3
3dWireframe
350
291
  3
Basic
350
28F
  3
Brighten
350
296
  3
ColorChange
350
29A
  3
Conceptual
350
293
  3
Dim
350
295
  3
Facepattern
350
299
  3
Flat
350
28B
  3
FlatWithEdges
350
28C
  3
Gouraud
350
28D
  3
GouraudWithEdges
350
28E
  3
Linepattern
350
298
  3
Realistic
350
294
  3
Thicken
350
297
  0
DICTIONARY
  5
2B8
102
{ACAD_REACTORS
330
19
102
}
330
19
100
AcDbDictionary
281
     1
  3
CTABLESTYLE
350
2B9
  3
DIMASSOC
350
2BC
  3
INDEXCTL
350
2BB
  3
SORTENTS
350
2BA
  0
XRECORD
  5
4E8
102
{ACAD_REACTORS
330
19
102
}
330
19
100
AcDbXrecord
280
     1
  1
DWGPROPS COOKIE
  2

  3

  4

  6

  7

  8
TAKEO-1213
  9

300
=
301
=
302
=
303
=
304
=
305
=
306
=
307
=
308
=
309
=
 40
0.0108921759259259
 41
2314168.288031782
 42
2459529.410792129
  1

 90
        0
  0
DICTIONARY
  5
2E3
102
{ACAD_REACTORS
330
2E2
102
}
330
2E2
100
AcDbDictionary
281
     1
  0
XRECORD
  5
4F7
102
{ACAD_REACTORS
330
4F6
102
}
330
4F6
100
AcDbXrecord
280
     1
102
SHADEPLOT
 70
     0
  0
XRECORD
  5
4F9
102
{ACAD_REACTORS
330
4F8
102
}
330
4F8
100
AcDbXrecord
280
     1
102
SHADEPLOT
 70
     0
  0
XRECORD
  5
4EA
102
{ACAD_REACTORS
330
4E9
102
}
330
4E9
100
AcDbXrecord
280
     1
 40
1.570796326794896
  0
LAYOUT
  5
2A1
102
{ACAD_XDICTIONARY
360
4F3
102
}
102
{ACAD_REACTORS
330
2A0
102
}
330
2A0
100
AcDbPlotSettings
  1

  2
いきなりPDF 7
  4
A3
  6

 40
3.174999952316284
 41
3.174999952316284
 42
3.17498779296875
 43
3.17498779296875
 44
297.0106506347656
 45
419.9889831542968
 46
0.0
 47
10.06410172669598
 48
-48.25402447185843
 49
-16.22559043487967
140
855.1730703637344
141
651.0768663852779
142
1.0
143
2.295812753560978
 70
 11956
 72
     1
 73
     1
 74
     4
  7
monochrome.ctb
 75
     0
147
0.4355755923251689
148
48.25402447185843
149
16.22559043487967
100
AcDbLayout
  1
Model
 70
     1
 71
     0
 10
0.0
 20
0.0
 11
12.0
 21
9.0
 12
0.0
 22
0.0
 32
0.0
 14
0.0
 24
0.0
 34
0.0
 15
0.0
 25
0.0
 35
0.0
146
0.0
 13
0.0
 23
0.0
 33
0.0
 16
1.0
 26
0.0
 36
0.0
 17
0.0
 27
1.0
 37
0.0
 76
     0
330
A
331
15
1001
ACAD_PSEXT
1000
いきなりPDF 7
1000
いきなりPDF 7
1000
SN PDF4 Port
1000

1070
     0
  0
LAYOUT
  5
2A2
102
{ACAD_XDICTIONARY
360
355
102
}
102
{ACAD_REACTORS
330
2A0
102
}
330
2A0
100
AcDbPlotSettings
  1

  2
ADJ-DV10-Q01
  4
A4
  6

 40
5.873749732971191
 41
5.958403587341307
 42
5.916091918945312
 43
5.873748779296875
 44
210.0156707763672
 45
297.0106506347656
 46
0.0
 47
0.0
 48
0.0
 49
0.0
140
0.0
141
0.0
142
1.0
143
1.0
 70
   688
 72
     1
 73
     1
 74
     5
  7
monochrome.ctb
 75
    16
147
1.0
148
0.0
149
0.0
100
AcDbLayout
  1
レイアウト1
 70
     0
 71
     1
 10
-5.873748779296875
 20
-5.873749732971191
 11
291.1369018554688
 21
204.141921043396
 12
0.0
 22
0.0
 32
0.0
 14
28.51784982681273
 24
19.82258291244505
 34
0.0
 15
256.6606484413147
 25
178.4032462120056
 35
0.0
146
0.0
 13
0.0
 23
0.0
 33
0.0
 16
1.0
 26
0.0
 36
0.0
 17
0.0
 27
1.0
 37
0.0
 76
     0
330
B
331
34E
1001
ACAD_PSEXT
1000
ADJ-DV10-Q01
1000
RICOH RPCS V4 MP C4503 JPN
1000
http://172.16.140.81:53000
1000

1070
     0
  0
MATERIAL
  5
288
102
{ACAD_XDICTIONARY
360
4ED
102
}
102
{ACAD_REACTORS
330
286
102
}
330
286
100
AcDbMaterial
  1
ByBlock
  0
MATERIAL
  5
287
102
{ACAD_XDICTIONARY
360
4EB
102
}
102
{ACAD_REACTORS
330
286
102
}
330
286
100
AcDbMaterial
  1
ByLayer
  0
MATERIAL
  5
289
102
{ACAD_XDICTIONARY
360
4EF
102
}
102
{ACAD_REACTORS
330
286
102
}
330
286
100
AcDbMaterial
  1
Global
  0
MLINESTYLE
  5
1C
102
{ACAD_REACTORS
330
1B
102
}
330
1B
100
AcDbMlineStyle
  2
STANDARD
 70
     0
  3

 62
     0
 51
90.0
 52
90.0
 71
     2
 49
0.5
 62
   256
  6
BYLAYER
 49
-0.5
 62
   256
  6
BYLAYER
  0
ACDBPLACEHOLDER
  5
285
102
{ACAD_REACTORS
330
284
102
}
330
284
  0
TABLESTYLE
  5
29D
102
{ACAD_XDICTIONARY
360
4F1
102
}
102
{ACAD_REACTORS
330
29C
102
}
330
29C
100
AcDbTableStyle
  3
Standard
 70
     0
 71
     0
 40
1.5
 41
1.5
280
     0
281
     0
  7
STANDARD
140
4.5
170
     2
 62
     0
 63
     7
283
     0
274
    -2
284
     1
 64
     0
275
    -2
285
     1
 65
     0
276
    -2
286
     1
 66
     0
277
    -2
287
     1
 67
     0
278
    -2
288
     1
 68
     0
279
    -2
289
     1
 69
     0
  7
STANDARD
140
6.0
170
     5
 62
     0
 63
     7
283
     0
274
    -2
284
     1
 64
     0
275
    -2
285
     1
 65
     0
276
    -2
286
     1
 66
     0
277
    -2
287
     1
 67
     0
278
    -2
288
     1
 68
     0
279
    -2
289
     1
 69
     0
  7
STANDARD
140
4.5
170
     5
 62
     0
 63
     7
283
     0
274
    -2
284
     1
 64
     0
275
    -2
285
     1
 65
     0
276
    -2
286
     1
 66
     0
277
    -2
287
     1
 67
     0
278
    -2
288
     1
 68
     0
279
    -2
289
     1
 69
     0
  0
VISUALSTYLE
  5
290
102
{ACAD_REACTORS
330
28A
102
}
330
28A
100
AcDbVisualStyle
  2
2dWireframe
 70
     4
 71
     0
 72
     2
 73
     0
 90
        0
 40
-0.6
 41
-30.0
 62
     5
 63
     7
 74
     1
 91
        4
 64
     7
 65
   257
 75
     1
175
     1
 42
1.0
 92
        0
 66
   257
 43
1.0
 76
     1
 77
     6
 78
     2
 67
     7
 79
     5
170
     0
171
     0
290
     0
174
     0
 93
        1
 44
0.0
173
     0
291
     0
 45
0.0
1001
ACAD
1000
AcDbSavedByObjectVersion
1070
     0
  0
VISUALSTYLE
  5
292
102
{ACAD_REACTORS
330
28A
102
}
330
28A
100
AcDbVisualStyle
  2
3D Hidden
 70
     6
 71
     1
 72
     2
 73
     2
 90
        0
 40
-0.6
 41
-30.0
 62
     5
 63
     7
 74
     2
 91
        2
 64
     7
 65
   257
 75
     2
175
     1
 42
40.0
 92
        0
 66
   257
 43
1.0
 76
     1
 77
     6
 78
     2
 67
     7
 79
     3
170
     0
171
     0
290
     0
174
     0
 93
        1
 44
0.0
173
     0
291
     0
 45
0.0
1001
ACAD
1000
AcDbSavedByObjectVersion
1070
     0
  0
VISUALSTYLE
  5
291
102
{ACAD_REACTORS
330
28A
102
}
330
28A
100
AcDbVisualStyle
  2
3dWireframe
 70
     5
 71
     0
 72
     2
 73
     0
 90
        0
 40
-0.6
 41
-30.0
 62
     5
 63
     7
 74
     1
 91
        4
 64
     7
 65
   257
 75
     1
175
     1
 42
1.0
 92
        0
 66
   257
 43
1.0
 76
     1
 77
     6
 78
     2
 67
     7
 79
     5
170
     0
171
     0
290
     0
174
     0
 93
        1
 44
0.0
173
     0
291
     0
 45
0.0
1001
ACAD
1000
AcDbSavedByObjectVersion
1070
     0
  0
VISUALSTYLE
  5
28F
102
{ACAD_REACTORS
330
28A
102
}
330
28A
100
AcDbVisualStyle
  2
Basic
 70
     7
 71
     1
 72
     0
 73
     1
 90
        0
 40
-0.6
 41
-30.0
 62
     5
 63
     7
 74
     0
 91
        4
 64
     7
 65
   257
 75
     1
175
     1
 42
1.0
 92
        8
 66
     7
 43
1.0
 76
     1
 77
     6
 78
     2
 67
     7
 79
     5
170
     0
171
     0
290
     0
174
     0
 93
        1
 44
0.0
173
     0
291
     1
 45
0.0
1001
ACAD
1000
AcDbSavedByObjectVersion
1070
     0
  0
VISUALSTYLE
  5
296
102
{ACAD_REACTORS
330
28A
102
}
330
28A
100
AcDbVisualStyle
  2
Brighten
 70
    12
 71
     2
 72
     2
 73
     0
 90
        0
 40
-0.6
 41
-30.0
 62
     5
 63
     7
 74
     1
 91
        4
 64
     7
 65
   257
 75
     1
175
     1
 42
1.0
 92
        8
 66
     7
 43
1.0
 76
     1
 77
     6
 78
     2
 67
     7
 79
     5
170
     0
171
     0
290
     0
174
     0
 93
        1
 44
50.0
173
     0
291
     1
 45
0.0
1001
ACAD
1000
AcDbSavedByObjectVersion
1070
     0
  0
VISUALSTYLE
  5
29A
102
{ACAD_REACTORS
330
28A
102
}
330
28A
100
AcDbVisualStyle
  2
ColorChange
 70
    16
 71
     2
 72
     2
 73
     3
 90
        0
 40
-0.6
 41
-30.0
 62
     5
 63
     8
 74
     1
 91
        4
 64
     7
 65
   257
 75
     1
175
     1
 42
1.0
 92
        8
 66
     8
 43
1.0
 76
     1
 77
     6
 78
     2
 67
     7
 79
     5
170
     0
171
     0
290
     0
174
     0
 93
        1
 44
0.0
173
     0
291
     1
 45
0.0
1001
ACAD
1000
AcDbSavedByObjectVersion
1070
     0
  0
VISUALSTYLE
  5
293
102
{ACAD_REACTORS
330
28A
102
}
330
28A
100
AcDbVisualStyle
  2
Conceptual
 70
     9
 71
     3
 72
     2
 73
     0
 90
        0
 40
-0.6
 41
-30.0
 62
     5
 63
     7
 74
     2
 91
        2
 64
     7
 65
   257
 75
     1
175
     1
 42
40.0
 92
        8
 66
     7
 43
1.0
 76
     1
 77
     6
 78
     2
 67
     7
 79
     3
170
     0
171
     0
290
     0
174
     0
 93
        1
 44
0.0
173
     0
291
     0
 45
0.0
1001
ACAD
1000
AcDbSavedByObjectVersion
1070
     0
  0
VISUALSTYLE
  5
295
102
{ACAD_REACTORS
330
28A
102
}
330
28A
100
AcDbVisualStyle
  2
Dim
 70
    11
 71
     2
 72
     2
 73
     0
 90
        0
 40
-0.6
 41
-30.0
 62
     5
 63
     7
 74
     1
 91
        4
 64
     7
 65
   257
 75
     1
175
     1
 42
1.0
 92
        8
 66
     7
 43
1.0
 76
     1
 77
     6
 78
     2
 67
     7
 79
     5
170
     0
171
     0
290
     0
174
     0
 93
        1
 44
-50.0
173
     0
291
     1
 45
0.0
1001
ACAD
1000
AcDbSavedByObjectVersion
1070
     0
  0
VISUALSTYLE
  5
299
102
{ACAD_REACTORS
330
28A
102
}
330
28A
100
AcDbVisualStyle
  2
Facepattern
 70
    15
 71
     2
 72
     2
 73
     0
 90
        0
 40
-0.6
 41
-30.0
 62
     5
 63
     7
 74
     1
 91
        4
 64
     7
 65
   257
 75
     1
175
     1
 42
1.0
 92
        8
 66
     7
 43
1.0
 76
     1
 77
     6
 78
     2
 67
     7
 79
     5
170
     0
171
     0
290
     0
174
     0
 93
        1
 44
0.0
173
     0
291
     1
 45
0.0
1001
ACAD
1000
AcDbSavedByObjectVersion
1070
     0
  0
VISUALSTYLE
  5
28B
102
{ACAD_REACTORS
330
28A
102
}
330
28A
100
AcDbVisualStyle
  2
Flat
 70
     0
 71
     2
 72
     1
 73
     1
 90
        2
 40
-0.6
 41
30.0
 62
     5
 63
     7
 74
     0
 91
        4
 64
     7
 65
   257
 75
     1
175
     1
 42
1.0
 92
        8
 66
     7
 43
1.0
 76
     1
 77
     6
 78
     2
 67
     7
 79
     5
170
     0
171
     0
290
     0
174
     0
 93
       13
 44
0.0
173
     0
291
     1
 45
0.0
1001
ACAD
1000
AcDbSavedByObjectVersion
1070
     0
  0
VISUALSTYLE
  5
28C
102
{ACAD_REACTORS
330
28A
102
}
330
28A
100
AcDbVisualStyle
  2
FlatWithEdges
 70
     1
 71
     2
 72
     1
 73
     1
 90
        2
 40
-0.6
 41
30.0
 62
     5
 63
     7
 74
     1
 91
        4
 64
     7
 65
   257
 75
     1
175
     1
 42
1.0
 92
        0
 66
   257
 43
1.0
 76
     1
 77
     6
 78
     2
 67
     7
 79
     5
170
     0
171
     0
290
     0
174
     0
 93
       13
 44
0.0
173
     0
291
     1
 45
0.0
1001
ACAD
1000
AcDbSavedByObjectVersion
1070
     0
  0
VISUALSTYLE
  5
28D
102
{ACAD_REACTORS
330
28A
102
}
330
28A
100
AcDbVisualStyle
  2
Gouraud
 70
     2
 71
     2
 72
     2
 73
     1
 90
        2
 40
-0.6
 41
30.0
 62
     5
 63
     7
 74
     0
 91
        4
 64
     7
 65
   257
 75
     1
175
     1
 42
1.0
 92
        0
 66
     7
 43
1.0
 76
     1
 77
     6
 78
     2
 67
     7
 79
     5
170
     0
171
     0
290
     0
174
     0
 93
       13
 44
0.0
173
     0
291
     1
 45
0.0
1001
ACAD
1000
AcDbSavedByObjectVersion
1070
     0
  0
VISUALSTYLE
  5
28E
102
{ACAD_REACTORS
330
28A
102
}
330
28A
100
AcDbVisualStyle
  2
GouraudWithEdges
 70
     3
 71
     2
 72
     2
 73
     1
 90
        2
 40
-0.6
 41
30.0
 62
     5
 63
     7
 74
     1
 91
        4
 64
     7
 65
   257
 75
     1
175
     1
 42
1.0
 92
        0
 66
   257
 43
1.0
 76
     1
 77
     6
 78
     2
 67
     7
 79
     5
170
     0
171
     0
290
     0
174
     0
 93
       13
 44
0.0
173
     0
291
     1
 45
0.0
1001
ACAD
1000
AcDbSavedByObjectVersion
1070
     0
  0
VISUALSTYLE
  5
298
102
{ACAD_REACTORS
330
28A
102
}
330
28A
100
AcDbVisualStyle
  2
Linepattern
 70
    14
 71
     2
 72
     2
 73
     0
 90
        0
 40
-0.6
 41
-30.0
 62
     5
 63
     7
 74
     1
 91
        4
 64
     7
 65
   257
 75
     7
175
     7
 42
1.0
 92
        8
 66
     7
 43
1.0
 76
     1
 77
     6
 78
     2
 67
     7
 79
     5
170
     0
171
     0
290
     0
174
     0
 93
        1
 44
0.0
173
     0
291
     1
 45
0.0
1001
ACAD
1000
AcDbSavedByObjectVersion
1070
     0
  0
VISUALSTYLE
  5
294
102
{ACAD_REACTORS
330
28A
102
}
330
28A
100
AcDbVisualStyle
  2
Realistic
 70
     8
 71
     2
 72
     2
 73
     0
 90
        0
 40
-0.6
 41
-30.0
 62
     5
 63
     7
 74
     1
 91
        0
 64
     7
 65
   257
 75
     1
175
     1
 42
1.0
 92
        8
 66
     8
 43
1.0
 76
     1
 77
     6
 78
     2
 67
     7
 79
     5
170
     0
171
     0
290
     0
174
     0
 93
       13
 44
0.0
173
     0
291
     0
 45
0.0
1001
ACAD
1000
AcDbSavedByObjectVersion
1070
     0
  0
VISUALSTYLE
  5
297
102
{ACAD_REACTORS
330
28A
102
}
330
28A
100
AcDbVisualStyle
  2
Thicken
 70
    13
 71
     2
 72
     2
 73
     0
 90
        0
 40
-0.6
 41
-30.0
 62
     5
 63
     7
 74
     1
 91
        4
 64
     7
 65
   257
 75
     1
175
     1
 42
1.0
 92
       12
 66
     7
 43
1.0
 76
     1
 77
     6
 78
     2
 67
     7
 79
     5
170
     0
171
     0
290
     0
174
     0
 93
        1
 44
0.0
173
     0
291
     1
 45
0.0
1001
ACAD
1000
AcDbSavedByObjectVersion
1070
     0
  0
DICTIONARYVAR
  5
2B9
102
{ACAD_REACTORS
330
2B8
102
}
330
2B8
100
DictionaryVariables
280
     0
  1
STANDARD
  0
DICTIONARYVAR
  5
2BC
102
{ACAD_REACTORS
330
2B8
102
}
330
2B8
100
DictionaryVariables
280
     0
  1
1
  0
DICTIONARYVAR
  5
2BB
102
{ACAD_REACTORS
330
2B8
102
}
330
2B8
100
DictionaryVariables
280
     0
  1
0
  0
DICTIONARYVAR
  5
2BA
102
{ACAD_REACTORS
330
2B8
102
}
330
2B8
100
DictionaryVariables
280
     0
  1
127
  0
DICTIONARY
  5
4F3
330
2A1
100
AcDbDictionary
280
     1
281
     1
  3
ACAD_XREC_ROUNDTRIP
360
4F4
  0
DICTIONARY
  5
355
330
2A2
100
AcDbDictionary
280
     1
281
     1
  3
ACAD_XREC_ROUNDTRIP
360
4F5
  3
ADSK_XREC_LAYOUTTHUMBNAIL
360
356
  0
DICTIONARY
  5
4ED
330
288
100
AcDbDictionary
280
     1
281
     1
  3
ACAD_XREC_ROUNDTRIP
360
4EE
  0
DICTIONARY
  5
4EB
330
287
100
AcDbDictionary
280
     1
281
     1
  3
ACAD_XREC_ROUNDTRIP
360
4EC
  0
DICTIONARY
  5
4EF
330
289
100
AcDbDictionary
280
     1
281
     1
  3
ACAD_XREC_ROUNDTRIP
360
4F0
  0
DICTIONARY
  5
4F1
330
29D
100
AcDbDictionary
280
     1
281
     1
  3
ACAD_XREC_ROUNDTRIP
360
4F2
  0
XRECORD
  5
4F4
102
{ACAD_REACTORS
330
4F3
102
}
330
4F3
100
AcDbXrecord
280
     1
102
SHADEPLOT
 70
     0
102
SHADEPLOTRESLEVEL
 70
     2
102
SHADEPLOTCUSTOMDPI
 70
   300
  0
XRECORD
  5
4F5
102
{ACAD_REACTORS
330
355
102
}
330
355
100
AcDbXrecord
280
     1
102
SHADEPLOT
 70
     0
102
SHADEPLOTRESLEVEL
 70
     2
102
SHADEPLOTCUSTOMDPI
 70
   300
  0
XRECORD
  5
356
102
{ACAD_REACTORS
330
355
102
}
330
355
100
AcDbXrecord
280
     1
310
28000000B40000007F00000001000800000000004C590000000000000000000000010000000000000000000000000000FFFFFF000000000000000000000000000000000000000000000000000000000000000000330000006600000099000000CC000000FF00000000330000333300006633000099330000CC330000FF3300
310
0000660000336600006666000099660000CC660000FF66000000990000339900006699000099990000CC990000FF99000000CC000033CC000066CC000099CC0000CCCC0000FFCC000000FF000033FF000066FF000099FF0000CCFF0000FFFF000000003300330033006600330099003300CC003300FF003300003333003333
310
33006633330099333300CC333300FF33330000663300336633006666330099663300CC663300FF66330000993300339933006699330099993300CC993300FF99330000CC330033CC330066CC330099CC3300CCCC3300FFCC330000FF330033FF330066FF330099FF3300CCFF3300FFFF330000006600330066006600660099
310
006600CC006600FF00660000336600333366006633660099336600CC336600FF33660000666600336666006666660099666600CC666600FF66660000996600339966006699660099996600CC996600FF99660000CC660033CC660066CC660099CC6600CCCC6600FFCC660000FF660033FF660066FF660099FF6600CCFF6600
310
FFFF660000009900330099006600990099009900CC009900FF00990000339900333399006633990099339900CC339900FF33990000669900336699006666990099669900CC669900FF66990000999900339999006699990099999900CC999900FF99990000CC990033CC990066CC990099CC9900CCCC9900FFCC990000FF99
310
0033FF990066FF990099FF9900CCFF9900FFFF99000000CC003300CC006600CC009900CC00CC00CC00FF00CC000033CC003333CC006633CC009933CC00CC33CC00FF33CC000066CC003366CC006666CC009966CC00CC66CC00FF66CC000099CC003399CC006699CC009999CC00CC99CC00FF99CC0000CCCC0033CCCC0066CC
310
CC0099CCCC00CCCCCC00FFCCCC0000FFCC0033FFCC0066FFCC0099FFCC00CCFFCC00FFFFCC000000FF003300FF006600FF009900FF00CC00FF00FF00FF000033FF003333FF006633FF009933FF00CC33FF00FF33FF000066FF003366FF006666FF009966FF00CC66FF00FF66FF000099FF003399FF006699FF009999FF00CC
310
99FF00FF99FF0000CCFF0033CCFF0066CCFF0099CCFF00CCCCFF00FFCCFF0000FFFF0033FFFF0066FFFF0099FFFF00CCFFFF00FFFFFF00000000000D0D0D001A1A1A00282828003535350043434300505050005D5D5D006B6B6B00787878008686860093939300A1A1A100AEAEAE00BBBBBB00C9C9C900D6D6D600E4E4E400
310
F1F1F100FFFFFF0000000000000000000000000000000000000000000000000000000000000000000000000000000000EFF5F5F5F5F5F5F5F5F5F5F5F5F5F5F5F5F5F5F5F5F5F5F5F5F5F5F5F5F5F5F5F5F5F5F5F5F5F5F5F5F5F5F5F5F5F5F5F5F5F5F5F5F5F5F5F5F5F5F5F5F5F5F5F5F5F5F5F5F5F5F5F5F5F5F5F5F5F5
310
F5F5F5F5F5F5F5F5F5F5F5F5F5F5F5F5F5F5F5F5F5F5F5F5F5F5F5F5F5F5F5F5F5F5F5F5F5F5F5F5F5F5F5F5F5F5F5F5F5F5F5F5F5F5F5F5F5F5F5F5F5F5F5F5F5F5F5F5F5F5F5F5F5F5F5F5F5F5F5F5F5F5F5F5F5F5F5F5F5F5F5F5F5F5F5F5F5F5F5F5F5EFF5E2E2E2E2E2E2E2E2E2E2E2E2E2E2E2E2E2E2E2E2E2E2E2E2
310
E2E2E2E2E2E2E2E2E2E2E2E2E2E2E2E2E2E2E2E2E2E2E2E2E2E2E2E2E2E2E2E2E2E2E2E2E2E2E2E2E2E2E2E2E2E2E2E2E2E2E2E2E2E2E2E2E2E2E2E2E2E2E2E2E2E2E2E2E2E2E2E2E2E2E2E2E2E2E2E2E2E2E2E2E2E2E2E2E2E2E2E2E2E2E2E2E2E2E2E2E2E2E2E2E2E2E2E2E2E2E2E2E2E2E2E2E2E2E2E2E2E2E2E2E2E2E2
310
E2E2E2E2E2E2E2E2E2E2E2E2E2E2E2E2E2E2E2E2E2E2E2E2E2F5F5EFF5E2E2E2E2E2E2E2E2E2E2E2E2E2E2E2E2E2E2E2E2E2E2E2E2E2E2E2E2E2E2E2E2E2E2E2E2E2E2E2E2E2E2E2E2E2E2E2E2E2E2E2E2E2E2E2E2E2E2E2E2E2E2E2E2E2E2E2E2E2E2E2E2E2E2E2E2E2E2E2E2E2E2E2E2E2E2E2E2E2E2E2E2E2E2E2E2E2E2
310
E2E2E2E2E2E2E2E2E2E2E2E2E2E2E2E2E2E2E2E2E2E2E2E2E2E2E2E2E2E2E2E2E2E2E2E2E2E2E2E2E2E2E2E2E2E2E2E2E2E2E2E2E2E2E2E2E2E2E2E2E2E2E2E2E2E2E2E2E2E2E2E2E2E2E2E2E2E2F5F5EFF5E2E2E2E2E2E2E2E2E2E2E2E2E2E2E2E2E2E2E2E2E2E2E2E2E2E2E2E2E2E2E2E2E2E2E2E2E2E2E2E2E2E2E2E2E2
310
E2E2E2E2E2E2E2E2E2E2E2E2E2E2E2E2E2E2E2E2E2E2E2E2E2E2E2E2E2E2E2E2E2E2E2E2E2E2E2E2E2E2E2E2E2E2E2E2E2E2E2E2E2E2E2E2E2E2E2E2E2E2E2E2E2E2E2E2E2E2E2E2E2E2E2E2E2E2E2E2E2E2E2E2E2E2E2E2E2E2E2E2E2E2E2E2E2E2E2E2E2E2E2E2E2E2E2E2E2E2E2E2E2E2E2E2E2E2E2E2E2E2E2E2E2E2E2
310
E2E2E2E2F5F5EFF5E2E2F5F5F5F5F5F5F5F5E2E2E2E2E2E2E2E2E2F5F5F5F5F5F5F5F5F5F5F5F5F5F5F5F5E2E2E2E2E2E2E2E2E2F5F5F5F5F5F5F5F5F5F5F5F5F5F5F5E2E2E2E2E2E2E2E2E2F5F5F5F5F5F5F5F5F5F5F5F5F5F5F5F5E2E2E2E2E2E2E2E2F5F5F5F5F5F5F5F5F5F5F5F5F5F5F5F5E2E2E2E2E2E2E2E2E2F5F5
310
F5F5F5F5F5F5F5F5F5F5F5F5F5E2E2E2E2E2E2E2E2E2F5F5F5F5F5F5F5F5F5F5F5F5F5F5F5F5E2E2E2E2E2E2E2E2E2F5F5F5F5F5F5F5F5E2E2F5F5EFF5E2E2F5E2E2E2E2E2E2E2E2E2E2E2E2E2E2E2E2E2E2E2E2E2E2E2E2E2E2E2E2E2E2E2E2E2E2E2E2E2E2E2E2E2E2E2E2E2E2E2E2E2E2E2E2E2E2E2E2E2E2E2E2E2E2E2
310
E2E2E2E2E2E2E2E2E2E2E2E2E2E2E2E2E2E2E2E2E2E2E2E2E2E2E2E2E2E2E2E2E2E2E2E2E2E2E2E2E2E2E2E2E2E2E2E2E2E2E2E2E2E2E2E2E2E2E2E2E2E2E2E2E2E2E2E2E2E2E2E2E2E2E2E2E2E2E2E2E2E2E2E2E2E2E2E2E2E2E2E2E2E2E2E2E2E2E2E2E2E2E2E2E2E2E2F5E2E2F5F5EFF5E2E2F5E2E2E2E2E2E2E2E2E2E2
310
E2E2E2E2E2E2E2E2E2E2E2E2E2E2E2E2E2E2E2E2E2E2E2E2E2E2E2E2E2E2E2E2E2E2E2E2E2E2E2E2E2E2E2E2E2E2E2E2E2E2E2E2E2E2E2E2E2E2E2E2E2E2E2E2E2E2E2E2E2E2E2E2E2E2E2E2E2E2E2E2E2E2E2E2E2E2E2E2E2E2E2E2E2E2E2E2E2E2E2E2E2E2E2E2E2E2E2E2E2E2E2E2E2E2E2E2E2E2E2E2E2E2E2E2E2E2E2
310
E2E2E2E2E2E2E2E2E2E2E2E2E2E2E2E2E2E2E2E2E2E2E2E2E2E2E2E2E2E2E2E2E2F5E2E2F5F5EFF5E2E2F5E2E2E2E2E2E2E2E2E2E2E2E2E2E2E2E2E2E2E2E2E2E2E2E2E2E2E2E2E2E2E2E2E2E2E2E2E2E2E2E2E2E2E2E2E2E2E2E2E2E2E2E2E2E2E2E2E2E2E2E2E2E2E2E2E2E2E2E2E2E2E2E2E2E2E2E2E2E2E2E2E2E2E2E2
310
E2E2E2E2E2E2E2E2E2E2E2E2E2E2E2E2E2E2E2E2E2E2E2E2E2E2E2E2E2E2E2E2E2E2E2E2E2E2E2E2E2E2E2E2E2E2E2E2E2E2E2E2E2E2E2E2E2E2E2E2E2E2E2E2E2E2E2E2E2E2E2E2E2E2E2E2E2E2E2E2E2E2E2E2E2E2F5E2E2F5F5EFF5E2E2F5E2E2E2E2E2E2E2E2E2E2E2E2E2E2E2E2E2E2E2E2E2E2E2E2E2E2E2E2E2E2E2
310
E2E2E2E2E2E2E2E2E2E2E2E2E2E2E2E2E2E2E2E2E2E2E2E2E2E2E2E2E2E2E2E2E2E2E2E2E2E2E2E2E2E2E2E2E2E2E2E2E2E2E2E2E2E2E2E2E2E2E2E2E2E2E2E2E2E2E2E2E2E2E2E2E2E2E2E2E2E2E2E2E2E2E2E2E2E2E2E2E2E2E2E2E2E2E2E2E2E2E2E2E2E2E2E2E2E2E2E2E2E2E2E2E2E2E2E2E2E2E2E2E2E2E2E2E2E2E2
310
E2E2E2E2E2E2E2E2E2E2E2E2F5E2E2F5F5EFF5E2E2F5E2E2E2E2E2E2E2E2E2E2E2E2E2E2E2E2E2E2E2E2E2E2E2E2E2E2E2E2E2E2E2E2E2E2E2E2E2E2E2E2E2E2E2E2E2E2E2E2E2E2E2E2E2E2E2E2E2E2E2E2E2E2E2E2E2E2E2E2E2E2E2E2E2E2E2E2E2E2E2E2E2E2E2E2E2E2E2E2E2E2E2E2E2E2E2E2E2E2E2E2E2E2E2E2E2
310
E2E2E2E2E2E2E2E2E2E2E2E2E2E2E2E2E2E2E2E2E2E2E2E2E2E2E2E2E2E2E2E2E2E2E2E2E2E2E2E2E2E2E2E2E2E2E2E2E2E2E2E2E2E2E2E2E2E2E2E2E2E2E2E2E2F5E2E2F5F5EFF5E2E2F5E2E2E2E2E2E2E2E2E2E2E2E2E2E2E2E2E2E2E2E2E2E2E2E2E2E2E2E2E2E2E2E2E2E2E2E2E2E2E2E2E2E2E2E2E2E2E2E2E2E2E2E2
310
E2E2E2E2E2E2E2E2E2E2E2E2E2E2E2E2E2E2E2E2E2E2E2E2E2E2E2E2E2E2E2E2E2E2E2E2E2E2E2E2E2E2E2E2E2E2E2E2E2E2E2E2E2E2E2E2E2E2E2E2E2E2E2E2E2E2E2E2E2E2E2E2E2E2E2E2E2E2E2E2E2E2E2E2E2E2E2E2E2E2E2E2E2E2E2E2E2E2E2E2E2E2E2E2E2E2E2E2E2E2E2E2E2E2E2E2E2E2F5E2E2F5F5EFF5E2E2
310
F5E2E2E2E2E2E2E2E2E2E2E2E2E2E2E2E2E2E2E2E2E2E2E2E2E2E2E2E2E2E2E2E2E2E2E2E2E2E2E2E2E2E2E2E2E2E2E2E2E2E2E2E2E2E2E2E2E2E2E2E2E2E2E2E2E2E2E2E2E2E2E2E2E2E2E2E2E2E2E2E2E2E2E2E2E2E2E2E2E2E2E2E2E2E2E2E2E2E2E2E2E2E2E2E2E2E2E2E2E2E2E2E2E2E2E2E2E2E2E2E2E2E2E2E2E2E2
310
E2E2E2E2E2E2E2E2E2E2E2E2E2E2E2E2E2E2E2E2E2E2E2E2E2E2E2E2E2E2E2E2E2E2E2E2E2E2E2E2E2E2E2E2F5E2E2F5F5EFF5E2E2E2E2E2E2E2E2E2E2E2E2E2E2E2E2E2E2E2E2E2E2E2E2E2E2E2E2E2E2E2E2E2E2E2E2E2E2E2E2E2E2E2E2E2E2E2E2E2E2E2E2E2E2E2E2E2E2E2E2E2E2E2E2E2E2E2E2E2E2E2E2E2E2E2E2
310
E2E2E2E2E2E2E2E2E2E2E2E2E2E2E2E2E2E2E2E2E2E2E2E2E2E2E2E2E2E2E2E2E2E2E2E2E2E2E2E2E2E2E2E2E2E2E2E2E2E2E2E2E2E2E2E2E2E2E2E2E2E2E2E2E2E2E2E2E2E2E2E2E2E2E2E2E2E2E2E2E2E2E2E2E2E2E2E2E2E2E2E2E2E2E2E2E2E2E2E2F5F5EFF5E2E2E2E2E2E2E2E2E2E2E2E2E2E2E2E2E2E2E2E2E2E2E2
310
E2E2E2E2E2E2E2E2E2E2E2E2E2E2E2E2E2E2E2E2E2E2E2E2E2E2E2E2E2E2E2E2E2E2E2E2E2E2E2E2E2E2E2E2E2E2E2E2E2E2E2E2E2E2E2E2E2E2E2E2E2E2E2E2E2E2E2E2E2E2E2E2E2E2E2E2E2E2E2E2E2E2E2E2E2E2E2E2E2E2E2E2E2E2E2E2E2E2E2E2E2E2E2E2E2E2E2E2E2E2E2E2E2E2E2E2E2E2E2E2E2E2E2E2E2E2E2
310
E2E2E2E2E2E2E2E2E2E2E2E2E2E2E2E2E2E2E2E2E2E2E2E2E2E2F5F5EFF5E2E2E2E2E2E2E2E2E2E2E2E2E2E2E2E2E2E2E2E2E2E2E2E2E2E2E2E2E2E2E2E2E2E2E2E2E2E2E2E2E2E2E2E2E2E2E2E2E2E2E2E2E2E2E2E2E2E2E2E2E2E2E2E2E2E2E2E2E2E2E2E2E2E2E2E2E2E2E2E2E2E2E2E2E2E2E2E2E2E2E2E2E2E2E2E2E2
310
E2E2E2E2E2E2E2E2E2E2E2E2E2E2E2E2E2E2E2E2E2E2E2E2E2E2E2E2E2E2E2E2E2E2E2E2E2E2E2E2E2E2E2E2E2E2E2E2E2E2E2E2E2E2E2E2E2E2E2E2E2E2E2E2E2E2E2E2E2E2E2E2E2E2E2E2E2E2E2F5F5EFF5E2E2E2E2E2E2E2E2E2E2E2E2E2E2E2E2E2E2E2E2E2E2E2E2E2E2E2E2E2E2E2E2E2E2E2E2E2E2E2E2E2E2E2E2
310
E2E2E2E2E2E2E2E2E2E2E2E2E2E2E2E2E2E2E2E2E2E2E2E2E2E2E2E2E2E2E2E2E2E2E2E2E2E2E2E2E2E2E2E2E2E2E2E2E2E2E2E2E2E2E2E2E2E2E2E2E2E2E2E2E2E2E2E2E2E2E2E2E2E2E2E2E2E2E2E2E2E2E2E2E2E2E2E2E2E2E2E2E2E2E2E2E2E2E2E2E2E2E2E2E2E2E2E2E2E2E2E2E2E2E2E2E2E2E2E2E2E2E2E2E2E2E2
310
E2E2E2E2E2F5F5EFF5E2E2E2E2E2E2E2E2E2E2E2E2E2E2E2E2E2E2E2F0F0F0F0F0F0F0F0F0F0F0F0F0F0F0F0F0F0F0F0F0F0F0F0F0F0F0F0F0F0F0F0F0F0F0F0F0F0F0F0F0F0F0F0F0F0F0F0F0F0F0F0F0F0F0F0F0F0F0F0F0F0F0F0F0F0F0F0F0F0F0F0F0F0F0F0F0F0F0F0F0F0F0F0F0F0F0F0F0F0F0F0F0F0F0F0F0F0F0
310
F0F0F0F0F0F0F0F0F0F0F0F0F0F0F0F0F0F0F0F0F0F0F0F0F0F0F0F0F0F0F0F0F0F0F0F0F0F0F0E2E2E2E2E2E2E2E2E2E2E2E2E2E2E2E2E2E2E2F5F5EFF5E2E2E2E2E2E2E2E2E2E2E2E2E2E2E2E2E2E2E2F0E2E2E2E2E2E2E2E2E2E2E2E2E2E2E2E2E2E2E2E2E2E2E2E2E2E2E2E2E2E2E2E2E2E2E2E2E2E2E2E2E2E2E2E2E2
310
E2E2E2E2E2E2E2E2E2E2E2E2E2E2E2E2E2E2E2E2E2E2E2E2E2E2E2E2E2E2E2E2E2E2E2E2E2E2E2E2E2E2E2E2E2E2E2E2E2E2E2E2E2E2E2E2E2E2E2E2E2E2E2E2E2E2E2E2E2E2E2E2E2E2E2E2E2E2E2E2E2E2E2E2E2E2E2E2E2E2E2F0E2E2E2E2E2E2E2E2E2E2E2E2E2E2E2E2E2E2E2F5F5EFF5E2E2E2E2E2E2E2E2E2E2E2E2
310
E2E2E2E2E2E2E2F0E2E2E2E2E2E2E2E2E2E2E2E2E2E2E2E2E2E2E2E2E2E2E2E2E2E2E2E2E2E2E2E2E2E2E2E2E2E2E2E2E2E2E2E2E2E2E2E2E2E2E2E2E2E2E2E2E2E2E2E2E2E2E2E2E2E2E2E2E2E2E2E2E2E2E2E2E2E2E2E2E2E2E2E2E2E2E2E2E2E2E2E2E2E2E2E2E2E2E2E2E2E2E2E2E2E2E2E2E2E2E2E2E2E2E2E2E2E2E2
310
E2E2E2E2E2E2E2E2E2E2E2E2E2E2E2E2E2F0E2E2E2E2E2E2E2E2E2E2E2E2E2E2E2E2E2E2E2F5F5EFF5E2E2E2E2E2E2E2E2E2E2E2E2E2E2E2E2E2E2E2F0E2E2E2E2E2E2E2E2E2E2E2E2E2E2E2E2E2E2E2E2E2E2E2E2E2E2E2E2E2E2E2E2E2E2E2E2E2E2E2E2E2E2E2E2E2E2E2E2E2E2E2E2E2E2E2E2E2E2E2E2E2E2E2E2E2E2
310
E2E2E2E2E2E2E2E2E2E2E2E2E2E2E2E2E2E2E2E2E2E2E2E2E2E2E2E2E2E2E2E2E2E2E2E2E2E2E2E2E2E2E2E2E2E2E2E2E2E2E2E2E2E2E2E2E2E2E2E2E2E2E2E2E2E2E2E2E2E2F0E2E2E2E2E2E2E2E2E2E2E2E2E2E2E2E2E2E2E2F5F5EFF5E2E2E2E2E2E2E2E2E2E2E2E2E2E2E2E2E2E2E2F0E2E2E2E2E2E2E2E2E2E2E2E2E2
310
E2E2E2E2E2E2E2E2E2E2E2E2E2E2E2E2E2E2E2E2E2E2E2E2E2E2E2E2E2E2E2E2E2E2E2E2E2E2E2E2E2E2E2E2E2E2E2E2E2E2E2E2E2E2E2E2E2E2E2E2E2E2E2E2E2E2E2E2E2E2E2E2E2E2E2E2E2E2E2E2E2E2E2E2E2E2E2E2E2E2E2E2E2E2E2E2E2E2E2E2E2E2E2E2E2E2E2E2E2E2E2E2E2E2E2E2E2E2E2E2E2E2E2F0E2E2E2
310
E2E2E2E2E2E2E2E2E2E2E2E2E2E2E2E2F5F5EFF5E2E2F5E2E2E2E2E2E2E2E2E2E2E2E2E2E2E2E2F0E2E2E2E2E2E2E2E2E2E2E2E2E2E2E2E2E2E2E2E2E2E2E2E2E2E2E2E2E2E2E2E2E2E2E2E2E2E2E2E2E2E2E2E2E2E2E2E2E2E2E2E2E2E2E2E2E2E2E2E2E2E2E2E2E2E2E2E2E2E2E2E2E2E2E2E2E2E2E2E2E2E2E2E2E2E2E2
310
E2E2E2E2E2E2E2E2E2E2E2E2E2E2E2E2E2E2E2E2E2E2E2E2E2E2E2E2E2E2E2E2E2E2E2E2E2E2E2E2E2E2E2E2E2E2E2E2E2F0E2E2E2E2E2E2E2E2E2E2E2E2E2E2E2E2F5E2E2F5F5EFF5E2E2F5E2E2E2E2E2E2E2E2E2E2E2E2E2E2E2E2F0E2E2E2E2E2E2E2E2E2E2E2E2E2E2E2E2E2E2E2E2E2E2E2E2E2E2E2E2E2E2E2E2E2E2
310
E2E2E2E2E2E2E2E2E2E2E2E2E2E2E2E2E2E2E2E2E2E2E2E2E2E2E2E2E2E2E2E2E2E2E2E2E2E2E2E2E2E2E2E2E2E2E2E2E2E2E2E2E2E2E2E2E2E2E2E2E2E2E2E2E2E2E2E2E2E2E2E2E2E2E2E2E2E2E2E2E2E2E2E2E2E2E2E2E2E2E2E2E2E2E2E2E2E2E2E2E2E2F0E2E2E2E2E2E2E2E2E2E2E2E2E2E2E2E2F5E2E2F5F5EFF5E2
310
E2F5E2E2E2E2E2E2E2E2E2E2E2E2E2E2E2E2F0E2E2E2E2E2E2E2E2E2E2E2E2E2E2E2E2E2E2E2E2E2E2E2E2E2E2E2E2E2E2E2E2E2E2E2E2E2E2E2E2E2E2E2E2E2E2E2E2E2E2E2E2E2E2E2E2E2E2E2E2E2E2E2E2E2E2E2E2E2E2E2E2E2E2E2E2E2E2E2E2E2E2E2E2E2E2E2E2E2E2E2E2E2E2E2E2E2E2E2E2E2E2E2E2E2E2E2E2
310
E2E2E2E2E2E2E2E2E2E2E2E2E2E2E2E2E2E2E2E2E2E2E2E2E2E2E2E2F0E2E2E2E2E2E2E2E2E2E2E2E2E2E2E2E2F5E2E2F5F5EFF5E2E2F5E2E2E2E2E2E2E2E2E2E2E2E2E2E2E2E2F0E2E2E2E2E2E2E2E2E2E2E2E2E2E2E2E2E2E2E2E2E2E2E2E2E2E2E2E2E2E2E2E2E2E2E2E2E2E2E2E2E2E2E2E2E2E2E2E2E2E2E2E2E2E2E2
310
E2E2E2E2E2E2E2E2E2E2E2E2E2E2E2E2E2E2E2E2E2E2E2E2E2E2E2E2E2E2E2E2E2E2E2E2E2E2E2E2E2E2E2E2E2E2E2E2E2E2E2E2E2E2E2E2E2E2E2E2E2E2E2E2E2E2E2E2E2E2E2E2E2E2E2E2E2E2E2E2E2F0E2E2E2E2E2E2E2E2E2E2E2E2E2E2E2E2F5E2E2F5F5EFF5E2E2F5E2E2E2E2E2E2E2E2E2E2E2E2E2E2E2E2F0E2E2
310
E2E2E2E2E2E2E2E2E2E2E2E2E2E2E2E2E2E2E2E2E2E2E2E2E2E2E2E2E2E2E2F5F5F5E2E2E2E2E2E2E2E2E2E2E2E2E2E2E2E2E2E2E2E2E2E2E2F5F5F5E2E2E2E2E2E2E2E2E2E2E2E2E2E2E2E2E2E2E2E2E2E2E2E2E2E2E2E2E2E2E2E2E2E2E2E2E2E2E2E2E2E2E2E2E2E2E2E2E2E2E2E2E2E2E2E2E2E2E2E2E2E2E2E2E2E2E2
310
E2E2E2E2E2E2E2F0E2E2E2E2E2E2E2E2E2E2E2E2E2E2E2E2F5E2E2F5F5EFF5E2E2F5E2E2E2E2E2E2E2E2E2E2E2E2E2E2E2E2F0E2E2E2E2E2E2E2E2E2E2E2E2E2E2E2E2E2E2E2E2E2E2E2E2E2E2E2E2E2E2E2E2E2F5E2E2F5F5F5E2E2E2E2E2E2E2E2E2E2E2E2E2E2E2E2F5E2E2F5F5E2F5E2E2E2E2E2E2E2E2E2E2E2E2E2E2
310
E2E2E2E2E2E2E2E2E2E2E2E2E2E2E2E2E2E2E2E2E2E2E2E2E2E2E2E2E2E2E2E2E2E2E2E2E2E2E2E2E2E2E2E2E2E2E2E2E2E2E2E2E2E2E2E2E2E2E2E2F0E2E2E2E2E2E2E2E2E2E2E2E2E2E2E2E2F5E2E2F5F5EFF5E2E2F5E2E2E2E2E2E2E2E2E2E2E2E2E2E2E2E2F0E2E2E2E2E2E2E2E2E2E2E2E2E2E2E2E2E2E2E2E2E2E2E2
310
E2E2E2E2E2E2E2E2F5F5F5F5F5F5F5F5F5F5F5F5F5F5F5F5F5F5F5F5F5F5F5F5F5F5F5F5F5F5F5F5F5F5F5E2E2E2E2E2E2E2E2E2E2E2E2E2E2E2E2E2E2E2E2E2E2E2E2E2E2E2E2E2E2E2E2E2E2E2E2E2E2E2E2E2E2E2E2E2E2E2E2E2E2E2E2E2E2E2E2E2E2E2E2E2E2E2E2E2E2E2E2E2E2F0E2E2E2E2E2E2E2E2E2E2E2E2E2
310
E2E2E2F5E2E2F5F5EFF5E2E2F5E2E2E2E2E2E2E2E2E2E2E2E2E2E2E2E2F0E2E2E2E2E2E2E2E2E2E2E2E2E2E2E2E2E2E2E2E2E2E2E2E2E2E2E2E2E2E2E2F5E2E2E2E2E2E2E2E2E2E2E2E2E2E2E2E2E2E2E2E2E2E2E2E2E2E2E2E2E2E2E2E2E2F5E2E2E2E2E2E2E2E2E2E2E2E2E2E2E2E2E2E2E2E2E2E2E2E2E2E2E2E2E2E2E2
310
E2E2E2E2E2E2E2E2E2E2E2E2E2E2E2E2E2E2E2E2E2E2E2E2E2E2E2E2E2E2E2E2E2E2E2E2E2E2E2F0E2E2E2E2E2E2E2E2E2E2E2E2E2E2E2E2F5E2E2F5F5EFF5E2E2F5E2E2E2E2E2E2E2E2E2E2E2E2E2E2E2E2F0E2E2E2E2E2E2E2E2E2E2E2E2E2E2E2E2E2E2E2E2E2E2E2E2E2E2E2E2E2E2E2F5E2E2E2E2E2E2E2E2E2E2E2E2
310
E2E2E2E2E2E2E2E2E2E2E2E2E2E2E2E2E2E2E2E2E2F5E2E2E2E2E2E2E2E2E2E2E2E2E2E2E2E2E2E2E2E2E2E2E2E2E2E2E2E2E2E2E2E2E2E2E2E2E2E2E2E2E2E2E2E2E2E2E2E2E2E2E2E2E2E2E2E2E2E2E2E2E2E2E2E2E2E2E2E2E2E2F0E2E2E2E2E2E2E2E2E2E2E2E2E2E2E2E2F5E2E2F5F5EFF5E2E2F5E2E2E2E2E2E2E2E2
310
E2E2E2E2E2E2E2E2F0E2E2E2E2E2E2E2E2E2E2E2E2E2E2E2E2E2E2E2E2E2E2E2E2E2E2E2E2E2E2E2F5E2E2E2E2E2E2E2E2E2E2E2E2E2E2E2E2E2E2E2E2E2E2E2E2E2E2E2E2E2E2E2E2E2F5E2E2E2E2E2E2E2E2E2E2E2E2E2E2E2E2E2E2E2E2E2E2E2E2E2E2E2E2E2E2E2E2E2E2E2E2E2E2E2E2E2E2E2E2E2E2E2E2E2E2E2E2
310
E2E2E2E2E2E2E2E2E2E2E2E2E2E2E2E2E2E2F0E2E2E2E2E2E2E2E2E2E2E2E2E2E2E2E2F5E2E2F5F5EFF5E2E2F5E2E2E2E2E2E2E2E2E2E2E2E2E2E2E2E2F0E2E2E2E2E2E2E2E2E2E2E2E2E2E2E2E2E2E2E2E2E2E2E2E2E2E2E2E2E2E2E2F5E2E2E2E2E2E2E2E2E2E2E2E2E2E2E2E2E2E2E2E2E2E2E2E2E2E2E2E2E2E2E2E2E2
310
F5E2E2E2E2E2E2E2E2E2E2E2E2E2E2E2E2E2E2E2E2E2E2E2E2E2E2E2E2E2E2E2E2E2E2E2E2E2E2E2E2E2E2E2E2E2E2E2E2E2E2E2E2E2E2E2E2E2E2E2E2E2E2E2E2E2E2E2E2E2E2F0E2E2E2E2E2E2E2E2E2E2E2E2E2E2E2E2F5E2E2F5F5EFF5E2E2F5E2E2E2E2E2E2E2E2E2E2E2E2E2E2E2E2F0E2E2E2E2E2E2E2E2E2E2E2E2
310
E2E2E2E2E2E2E2E2E2E2E2E2E2E2E2E2E2E2E2F5E2E2E2E2E2E2E2E2E2E2E2E2E2E2E2E2E2E2E2E2E2E2E2E2E2E2E2E2E2E2E2E2E2F5E2E2E2E2E2E2E2E2E2E2E2E2E2E2E2E2E2E2E2E2E2E2E2E2E2E2E2E2E2E2E2E2E2E2E2E2E2E2E2E2E2E2E2E2E2E2E2E2E2E2E2E2E2E2E2E2E2E2E2E2E2E2E2E2E2E2E2E2E2E2F0E2E2
310
E2E2E2E2E2E2E2E2E2E2E2E2E2E2F5E2E2F5F5EFF5E2E2F5E2E2E2E2E2E2E2E2E2E2E2E2E2E2E2E2F0E2E2E2E2E2E2E2E2E2E2E2E2E2E2E2E2E2E2E2E2E2E2E2E2E2E2E2E2E2E2E2F5E2E2E2E2E2E2E2E2E2E2E2E2E2E2E2E2E2E2E2E2E2E2E2E2E2E2E2E2E2E2E2E2E2F5E2E2E2E2E2E2E2E2E2E2E2E2E2E2E2E2E2E2E2E2
310
E2E2E2E2E2E2E2E2E2E2E2E2E2E2E2E2E2E2E2E2E2E2E2E2E2E2E2E2E2E2E2E2E2E2E2E2E2E2E2E2E2E2E2E2E2E2E2E2E2E2F0E2E2E2E2E2E2E2E2E2E2E2E2E2E2E2E2F5E2E2F5F5EFF5E2E2F5E2E2E2E2E2E2E2E2E2E2E2E2E2E2E2E2F0E2E2E2E2E2E2E2E2E2E2E2E2E2E2E2E2E2E2E2E2E2E2E2E2E2E2E2E2E2E2E2F5E2
310
E2E2E2E2E2E2E2E2E2E2E2E2E2E2E2E2E2E2E2E2E2E2E2E2E2E2E2E2E2E2E2E2F5E2E2E2E2E2E2E2E2E2E2E2E2E2E2E2E2E2E2E2E2E2E2E2E2E2E2E2E2E2E2E2E2E2E2E2E2E2E2E2E2E2E2E2E2E2E2E2E2E2E2E2E2E2E2E2E2E2E2E2E2E2E2E2E2E2E2E2E2E2E2F0E2E2E2E2E2E2E2E2E2E2E2E2E2E2E2E2F5E2E2F5F5EFF5
310
E2E2F5E2E2E2E2E2E2E2E2E2E2E2E2E2E2E2E2F0E2E2E2E2E2E2E2E2E2E2E2E2E2E2E2E2E2E2E2E2E2E2E2E2E2E2E2E2E2E2E2F5F5F5F5F5F5F5F5F5F5F5F5F5F5F5F5F5F5F5F5F5F5F5F5F5F5F5F5F5F5F5F5F5F5F5E2E2E2E2E2E2E2E2E2E2E2E2E2E2E2E2E2E2E2E2E2E2E2E2E2E2E2E2E2E2E2E2E2E2E2E2E2E2E2E2E2
310
E2E2E2E2E2E2E2E2E2E2E2E2E2E2E2E2E2E2E2E2E2E2E2E2E2E2E2E2E2F0E2E2E2E2E2E2E2E2E2E2E2E2E2E2E2E2F5E2E2F5F5EFF5E2E2E2E2E2E2E2E2E2E2E2E2E2E2E2E2E2E2E2F0E2E2E2E2E2E2E2E2E2E2E2E2E2E2E2E2E2E2E2E2E2E2E2E2E2E2E2E2E2E2E2F5E2E2E2E2E2E2E2E2E2E2E2E2E2E2E2E2E2E2E2E2E2E2
310
E2E2E2E2E2E2E2E2E2E2E2E2E2E2E2E2E2E2E2E2E2E2E2E2E2E2E2E2E2E2E2E2E2E2E2E2E2E2E2E2E2E2E2E2E2E2E2E2E2E2E2E2E2E2E2E2E2E2E2E2E2E2E2E2E2E2E2E2E2E2E2E2E2E2E2E2E2E2E2E2E2E2F0E2E2E2E2E2E2E2E2E2E2E2E2E2E2E2E2E2E2E2F5F5EFF5E2E2E2E2E2E2E2E2E2E2E2E2E2E2E2E2E2E2E2F0E2
310
E2E2E2E2E2E2E2E2E2E2E2E2E2E2E2E2E2E2E2E2E2E2E2E2E2E2E2E2E2E2E2E2E2E2E2E2E2E2E2E2E2E2E2E2E2E2E2E2E2E2E2E2E2E2E2E2E2E2E2E2E2E2E2E2E2E2E2E2E2E2E2E2E2E2E2E2E2E2E2E2E2E2E2E2E2E2E2E2E2E2E2E2E2E2E2E2E2E2E2E2E2E2E2E2E2E2E2E2E2E2E2E2E2E2E2E2E2E2E2E2E2E2E2E2E2E2E2
310
E2E2E2E2E2E2E2E2F0E2E2E2E2E2E2E2E2E2E2E2E2E2E2E2E2E2E2E2F5F5EFF5E2E2E2E2E2E2E2E2E2E2E2E2E2E2E2E2E2E2E2F0E2E2E2E2E2E2E2E2E2E2E2E2E2E2E2E2E2E2E2E2E2E2E2E2E2E2E2E2E2E2E2E2E2E2E2E2E2E2E2E2E2E2E2E2E2E2E2E2E2E2E2E2E2E2E2E2E2E2E2E2E2E2E2E2E2E2E2E2E2E2E2E2E2E2E2
310
E2E2E2E2E2E2E2E2E2E2E2E2E2E2E2E2E2E2E2E2E2E2E2E2E2E2E2E2E2E2E2E2E2E2E2E2E2E2E2E2E2E2E2E2E2E2E2E2E2E2E2E2E2E2E2E2E2E2E2E2E2F0E2E2E2E2E2E2E2E2E2E2E2E2E2E2E2E2E2E2E2F5F5EFF5E2E2E2E2E2E2E2E2E2E2E2E2E2E2E2E2E2E2E2F0E2E2E2E2E2E2E2E2E2E2E2E2E2E2E2E2E2E2E2E2E2E2
310
E2E2E2E2E2E2E2E2E2E2E2E2E2E2E2E2E2E2E2E2E2E2E2E2E2E2E2E2E2E2E2E2E2E2E2E2E2E2E2E2E2E2E2E2E2E2E2E2E2E2E2E2E2E2E2E2E2E2E2E2E2E2E2E2E2E2E2E2E2E2E2E2E2E2E2E2E2E2E2E2E2E2E2E2E2E2E2E2E2E2E2E2E2E2E2E2E2E2E2E2E2E2E2E2E2E2E2E2E2E2E2E2E2E2F0E2E2E2E2E2E2E2E2E2E2E2E2
310
E2E2E2E2E2E2E2F5F5EFF5E2E2E2E2E2E2E2E2E2E2E2E2E2E2E2E2E2E2E2F0E2E2E2E2E2E2E2E2E2E2E2E2E2E2E2E2E2E2E2E2E2E2E2E2E2E2E2E2E2E2E2E2E2E2E2E2E2E2E2E2E2E2E2E2E2E2E2E2E2E2E2E2E2E2E2E2E2E2E2E2E2E2E2E2E2E2E2E2E2E2E2E2E2E2E2E2E2E2E2E2E2E2E2E2E2E2E2E2E2E2E2E2E2E2E2E2
310
E2E2E2E2E2E2E2E2E2E2E2E2E2E2E2E2E2E2E2E2E2E2E2E2E2E2E2E2E2E2E2E2E2E2E2E2E2E2E2E2F0E2E2E2E2E2E2E2E2E2E2E2E2E2E2E2E2E2E2E2F5F5EFF5E2E2E2E2E2E2E2E2E2E2E2E2E2E2E2E2E2E2E2F0E2E2E2E2E2E2E2E2E2E2E2E2E2E2E2E2E2E2E2E2E2E2E2E2E2E2E2E2E2E2E2E2E2E2E2E2E2E2E2E2E2E2E2
310
E2E2E2E2E2E2E2E2E2E2E2E2E2E2E2E2E2E2E2E2E2E2E2E2E2E2E2E2E2E2E2E2E2E2E2E2E2E2E2E2E2E2E2E2E2E2E2E2E2E2E2E2E2E2E2E2E2E2E2E2E2E2E2E2E2E2E2E2E2E2E2E2E2E2E2E2E2E2E2E2E2E2E2E2E2E2E2E2E2E2E2E2E2F0E2E2E2E2E2E2E2E2E2E2E2E2E2E2E2E2E2E2E2F5F5EFF5E2E2E2E2E2E2E2E2E2E2
310
E2E2E2E2E2E2E2E2E2F0E2E2E2E2E2E2E2E2E2E2E2E2E2E2E2E2E2E2E2E2E2E2E2E2E2E2E2E2E2E2E2E2E2E2E2E2E2E2E2E2E2E2E2E2E2E2E2E2E2E2E2E2E2E2E2E2E2E2E2E2E2E2E2E2E2E2E2E2E2E2E2E2E2E2E2E2E2E2E2E2E2E2E2E2E2E2E2E2E2E2E2E2E2E2E2E2E2E2E2E2E2E2E2E2E2E2E2E2E2E2E2E2E2E2E2E2E2
310
E2E2E2E2E2E2E2E2E2E2E2E2E2E2E2E2E2E2E2F0E2E2E2E2E2E2E2E2E2E2E2E2E2E2E2E2E2E2E2F5F5EFF5E2E2E2E2E2E2E2E2E2E2E2E2E2E2E2E2E2E2E2F0E2E2E2E2E2E2E2E2E2E2E2E2E2E2E2E2E2E2E2E2E2E2E2E2E2E2E2E2E2E2E2E2E2E2E2E2E2E2E2E2E2E2E2E2E2E2E2E2E2E2E2E2E2E2E2E2E2E2E2E2E2E2E2E2
310
E2E2E2E2E2E2E2E2E2E2E2E2E2E2E2E2E2E2E2E2E2E2E2E2E2E2E2E2E2E2E2E2E2E2E2E2E2E2E2E2E2E2E2E2E2E2E2E2E2E2E2E2E2E2E2E2E2E2E2E2E2E2E2E2E2E2E2E2E2E2E2E2F0E2E2E2E2E2E2E2E2E2E2E2E2E2E2E2E2E2E2E2F5F5EFF5E2E2F5E2E2E2E2E2E2E2E2E2E2E2E2E2E2E2E2F0E2E2E2E2E2E2E2E2E2E2E2
310
E2E2E2E2E2E2E2E2E2E2E2E2E2E2E2E2E2E2E2E2E2E2E2E2E2E2E2E2E2E2E2E2E2E2E2E2E2E2E2E2E2E2E2E2E2E2E2E2E2E2E2E2E2E2E2E2E2E2E2E2E2E2E2E2E2E2E2E2E2E2E2E2E2E2E2E2E2E2E2E2E2E2E2E2E2E2E2E2E2E2E2E2E2E2E2E2E2E2E2E2E2E2E2E2E2E2E2E2E2E2E2E2E2E2E2E2E2E2E2E2E2E2E2E2E2F0E2
310
E2E2E2E2E2E2E2E2E2E2E2E2E2E2E2F5E2E2F5F5EFF5E2E2F5E2E2E2E2E2E2E2E2E2E2E2E2E2E2E2E2F0E2F5F5F5F5F5F5F5F5F5F5E2E2E2E2E2E2E2E2E2E2E2E2E2F0F0F0F0F0F0F0F0F5F5F5F5F5F5F5F5F5F5F5F5F5F5F5F5F5F5F5F5F5F5F5F5F5F5F5F5F5F5F5F5F5F5E2E2E2E2E2E2E2E2E2E2E2E2E2E2E2E2E2E2E2
310
E2E2E2E2E2E2E2E2E2E2E2E2E2E2E2E2E2E2E2E2E2E2E2E2E2E2E2E2E2E2E2E2E2E2E2E2E2E2E2E2E2E2E2E2E2E2E2E2E2E2E2F0E2E2E2E2E2E2E2E2E2E2E2E2E2E2E2E2F5E2E2F5F5EFF5E2E2F5E2E2E2E2E2E2E2E2E2E2E2E2E2E2E2E2F0E2F5F5E2E2E2E2E2F5F5E2F5E2E2E2E2E2E2E2E2E2E2E2E2F0E2E2E2E2E2E2F5
310
E2E2E2E2E2E2E2E2E2E2E2E2E2E2E2E2E2E2E2E2E2E2E2E2E2E2E2E2E2E2E2E2E2F5E2E2E2E2E2E2E2E2E2E2E2E2E2E2E2E2E2E2E2E2E2E2E2E2E2E2E2E2E2E2E2E2E2E2E2E2E2E2E2E2E2E2E2E2E2E2E2E2E2E2E2E2E2E2E2E2E2E2E2E2E2E2E2E2E2E2E2E2E2E2F0E2E2E2E2E2E2E2E2E2E2E2E2E2E2E2E2F5E2E2F5F5EF
310
F5E2E2F5E2E2E2E2E2E2E2E2E2E2E2E2E2E2E2E2F0F5F5F5F5F5F5F5F5F5F5E2F5E2E2E2E2E2E2E2E2E2E2E2E2F0E2E2E2E2E2E2F5E2F5F5F5F5E2E2E2E2E2E2E2E2E2E2E2E2E2E2E2E2E2E2E2E2E2E2F5F5F5E2E2E2F5E2E2E2E2E2E2E2E2E2E2E2E2E2E2E2E2E2E2E2E2E2E2E2E2E2E2E2E2E2E2E2E2E2E2E2E2E2E2E2E2
310
E2E2E2E2E2E2E2E2E2E2E2E2E2E2E2E2E2E2E2E2E2E2E2E2E2E2E2E2E2E2F0E2E2E2E2E2E2E2E2E2E2E2E2E2E2E2E2F5E2E2F5F5EFF5E2E2F5E2E2E2E2E2E2E2E2E2E2E2E2E2E2E2E2F0E2F5F5E2E2E2E2E2E2F5E2F5E2E2E2E2E2E2E2E2E2E2E2E2F0E2E2E2E2E2E2F5E2F5E2E2F5E2E2E2E2E2E2E2E2E2E2E2E2E2E2E2E2
310
E2E2E2E2E2F5F5E2F5F5E2E2F5E2E2E2E2E2E2E2E2E2E2E2E2E2E2E2E2E2E2E2E2E2E2E2E2E2E2E2E2E2E2E2E2E2E2E2E2E2E2E2E2E2E2E2E2E2E2E2E2E2E2E2E2E2E2E2E2E2E2E2E2E2E2E2E2E2E2E2E2E2E2F0E2E2E2E2E2E2E2E2E2E2E2E2E2E2E2E2F5E2E2F5F5EFF5E2E2F5E2E2E2E2E2E2E2E2E2E2E2E2E2E2E2E2F0
310
F5F5F5E2E2E2E2E2E2F5E2F5E2E2E2E2E2E2E2E2E2E2E2E2F0E2E2E2E2E2E2F5E2F5F5F5F5E2E2E2E2E2E2E2E2E2E2E2E2E2E2E2E2E2E2E2E2E2E2F5F5F5E2E2E2F5E2E2E2E2E2E2E2E2E2E2E2E2E2E2E2E2E2E2E2E2E2E2E2E2E2E2E2E2E2E2E2E2E2E2E2E2E2E2E2E2E2E2E2E2E2E2E2E2E2E2E2E2E2E2E2E2E2E2E2E2E2
310
E2E2E2E2E2E2E2E2E2F0E2E2E2E2E2E2E2E2E2E2E2E2E2E2E2E2F5E2E2F5F5EFF5E2E2F5E2E2E2E2E2E2E2E2E2E2E2E2E2E2E2E2F0E2F5F5E2E2E2E2E2E2F5E2F5E2E2E2E2E2E2E2E2E2E2E2E2F0E2E2E2E2E2E2F5E2E2F5F5E2E2E2E2E2E2E2E2E2E2E2E2E2E2E2E2E2E2E2E2E2E2E2E2F5E2E2E2E2F5E2E2E2E2E2E2E2E2
310
E2E2E2E2E2E2E2E2E2E2E2E2E2E2E2E2E2E2E2E2E2E2E2E2E2E2E2E2E2E2E2E2E2E2E2E2E2E2E2E2E2E2E2E2E2E2E2E2E2E2E2E2E2E2E2E2E2E2E2E2E2E2F0E2E2E2E2E2E2E2E2E2E2E2E2E2E2E2E2F5E2E2F5F5EFF5E2E2F5E2E2E2E2E2E2E2E2E2E2E2E2E2E2E2E2F0E2F5F5E2E2E2E2E2E2F5E2F5E2E2E2E2E2E2E2E2E2
310
E2E2E2F0E2E2E2E2E2E2F5E2E2E2E2E2E2E2E2E2E2E2E2E2E2E2E2E2E2E2E2E2E2E2E2E2E2E2E2E2E2E2E2E2F5E2E2E2E2E2E2E2E2E2E2E2E2E2E2E2E2E2E2E2E2E2E2E2E2E2E2E2E2E2E2E2E2E2E2E2E2E2E2E2E2E2E2E2E2E2E2E2E2E2E2E2E2E2E2E2E2E2E2E2E2E2E2E2E2E2E2E2E2E2E2F0E2E2E2E2E2E2E2E2E2E2E2
310
E2E2E2E2E2F5E2E2F5F5EFF5E2E2F5E2E2E2E2E2E2E2E2E2E2E2E2E2E2E2E2F0E2F5F5E2E2E2E2E2E2F5E2F5E2E2E2E2E2E2E2E2E2E2E2E2F0E2E2E2E2E2E2F5E2E2E2E2E2E2E2E2E2E2E2E2E2E2E2E2E2E2E2E2E2E2E2E2E2E2E2E2E2E2E2E2E2F5E2E2E2E2E2E2E2E2E2E2E2E2E2E2E2E2E2E2E2E2E2E2E2E2E2E2E2E2E2
310
E2E2E2E2E2E2E2E2E2E2E2E2E2E2E2E2E2E2E2E2E2E2E2E2E2E2E2E2E2E2E2E2E2E2E2E2E2E2E2E2E2F0E2E2E2E2E2E2E2E2E2E2E2E2E2E2E2E2F5E2E2F5F5EFF5E2E2F5E2E2E2E2E2E2E2E2E2E2E2E2E2E2E2E2F0E2F5F5E2E2E2E2E2E2F5E2F5E2E2E2E2E2E2E2E2E2E2E2E2F0E2E2E2E2E2E2F5E2E2E2E2E2E2E2E2E2E2
310
E2E2E2E2E2E2E2E2E2E2E2E2E2E2E2E2E2E2E2E2E2E2E2F5E2E2E2E2E2E2E2E2E2E2E2E2E2E2E2E2E2E2E2E2E2E2E2E2E2E2E2E2E2E2E2E2E2E2E2E2E2E2E2E2E2E2E2E2E2E2E2E2E2E2E2E2E2E2E2E2E2E2E2E2E2E2E2E2E2E2E2E2E2E2F0E2E2E2E2E2E2E2E2E2E2E2E2E2E2E2E2F5E2E2F5F5EFF5E2E2F5E2E2E2E2E2E2
310
E2E2E2E2E2E2E2E2E2E2F0E2F5F5E2E2E2E2E2E2F5E2F5E2E2E2E2E2E2E2E2E2E2E2E2F0E2E2E2E2E2E2F5E2E2E2E2E2E2E2E2E2E2E2E2E2E2E2E2E2E2E2E2E2E2E2E2E2E2E2E2E2E2E2E2E2F5E2E2E2E2E2E2E2E2E2E2E2E2E2E2E2E2E2E2E2E2E2E2E2E2E2E2E2E2E2E2E2E2E2E2E2E2E2E2E2E2E2E2E2E2E2E2E2E2E2E2
310
E2E2E2E2E2E2E2E2E2E2E2E2E2E2E2E2E2E2E2E2F0E2E2E2E2E2E2E2E2E2E2E2E2E2E2E2E2F5E2E2F5F5EFF5E2E2F5E2E2E2E2E2E2E2E2E2E2E2E2E2E2E2E2F0E2F5F5E2E2E2E2E2E2F5E2F5E2E2E2E2E2E2E2E2E2E2E2E2F0E2E2E2E2E2E2F5E2E2E2E2E2E2E2E2E2E2E2E2E2E2E2E2E2E2E2E2E2E2E2E2E2E2E2E2E2E2E2
310
E2E2F5E2E2E2E2E2E2E2E2E2E2E2E2E2E2E2E2E2E2E2E2E2E2E2E2E2E2E2E2E2E2E2E2E2E2E2E2E2E2E2E2E2E2E2E2E2E2E2E2E2E2E2E2E2E2E2E2E2E2E2E2E2E2E2E2E2E2E2E2E2E2F0E2E2E2E2E2E2E2E2E2E2E2E2E2E2E2E2F5E2E2F5F5EFF5E2E2F5E2E2E2E2E2E2E2E2E2E2E2E2E2E2E2E2F0E2F5F5E2E2E2E2E2E2F5
310
E2F5E2E2E2E2E2E2E2E2E2E2E2E2F0E2E2E2E2E2E2F5E2E2E2E2E2E2E2E2E2E2E2E2E2E2E2E2E2E2E2E2E2E2E2E2E2E2E2E2E2E2E2E2E2F5E2E2E2E2E2E2E2E2E2E2E2E2E2E2E2E2E2E2E2E2E2E2E2E2E2E2E2E2E2E2E2E2E2E2E2E2E2E2E2E2E2E2E2E2E2E2E2E2E2E2E2E2E2E2E2E2E2E2E2E2E2E2E2E2E2E2E2E2E2E2F0
310
E2E2E2E2E2E2E2E2E2E2E2E2E2E2E2E2F5E2E2F5F5EFF5E2E2F5E2E2E2E2E2E2E2E2E2E2E2E2E2E2E2E2F0E2F5F5E2E2E2E2E2E2F5E2F5E2E2E2E2E2E2E2E2E2E2E2E2F0E2E2E2E2E2E2F5E2E2E2E2E2F5F5E2E2E2E2E2E2E2E2E2E2E2E2E2E2E2E2F5E2E2E2E2E2E2E2E2E2F5E2E2E2E2E2E2E2E2E2E2E2E2E2E2E2E2E2E2
310
E2E2E2E2E2E2E2E2E2E2E2E2E2E2E2E2E2E2E2E2E2E2E2E2E2E2E2E2E2E2E2E2E2E2E2E2E2E2E2E2E2E2E2E2E2E2E2E2E2E2E2E2F0E2E2E2E2E2E2E2E2E2E2E2E2E2E2E2E2F5E2E2F5F5EFF5E2E2F5E2E2E2E2E2E2E2E2E2E2E2E2E2E2E2E2F0E2F5F5F5F5F5F5F5F5F5E2F5E2E2E2E2E2E2E2E2E2E2E2E2F0E2E2E2E2E2E2
310
F5E2E2E2E2E2F5F5E2E2E2E2E2E2E2E2E2E2E2E2E2E2E2E2F5E2E2E2E2E2E2E2E2E2F5E2E2E2E2E2E2E2E2E2E2E2E2E2E2E2E2E2E2E2E2E2E2E2E2E2E2E2E2E2E2E2E2E2E2E2E2E2E2E2E2E2E2E2E2E2E2E2E2E2E2E2E2E2E2E2E2E2E2E2E2E2E2E2E2E2E2E2E2E2E2F0E2E2E2E2E2E2E2E2E2E2E2E2E2E2E2E2F5E2E2F5F5
310
EFF5E2E2E2E2E2E2E2E2E2E2E2E2E2E2E2E2E2E2E2F0E2F5F5F5F5F5F5F5E2F5E2F5E2E2E2E2E2E2E2E2E2E2E2E2F0E2E2E2E2E2E2F5E2E2E2E2E2E2E2E2E2E2E2E2E2E2E2E2E2E2E2E2E2E2E2E2E2E2E2E2E2E2E2E2E2F5E2E2E2E2E2E2E2E2E2E2E2E2E2E2E2E2E2E2E2E2E2E2E2E2E2E2E2E2E2E2E2E2E2E2E2E2E2E2E2
310
E2E2E2E2E2E2E2E2E2E2E2E2E2E2E2E2E2E2E2E2E2E2E2E2E2E2E2E2E2E2E2F0E2E2E2E2E2E2E2E2E2E2E2E2E2E2E2E2E2E2E2F5F5EFF5E2E2E2E2E2E2E2E2E2E2E2E2E2E2E2E2E2E2E2F0E2F5F5E2E2E2E2F5E2F5E2F5E2E2E2E2E2E2E2E2E2E2E2E2F0E2E2E2E2E2E2F5E2E2E2E2E2E2E2E2E2E2E2E2E2E2E2E2E2E2E2E2
310
E2E2E2E2E2E2E2E2E2E2E2E2E2F5E2E2E2E2E2E2E2E2E2E2E2E2E2E2E2E2E2E2E2E2E2E2E2E2E2E2E2E2E2E2E2E2E2E2E2E2E2E2E2E2E2E2E2E2E2E2E2E2E2E2E2E2E2E2E2E2E2E2E2E2E2E2E2E2E2E2E2E2E2E2F0E2E2E2E2E2E2E2E2E2E2E2E2E2E2E2E2E2E2E2F5F5EFF5E2E2E2E2E2E2E2E2E2E2E2E2E2E2E2E2E2E2E2
310
F0E2F5F5E2E2E2E2F5E2F5E2F5E2E2E2E2E2E2E2E2E2E2E2E2F0E2E2E2E2E2E2F5E2E2E2E2E2E2E2E2E2E2E2E2E2E2E2E2E2E2E2E2E2E2E2E2E2E2E2E2E2E2E2E2E2F5E2E2E2E2E2E2E2E2E2E2E2E2E2E2E2E2E2E2E2E2E2E2E2E2E2E2E2E2E2E2E2E2E2E2E2E2E2E2E2E2E2E2E2E2E2E2E2E2E2E2E2E2E2E2E2E2E2E2E2E2
310
E2E2E2E2E2E2E2E2E2E2F0E2E2E2E2E2E2E2E2E2E2E2E2E2E2E2E2E2E2E2F5F5EFF5E2E2E2E2E2E2E2E2E2E2E2E2E2E2E2E2E2E2E2F0E2F5F5E2E2E2E2F5E2F5E2F5E2E2E2E2E2E2E2E2E2E2E2E2F0E2E2E2E2E2E2F5E2E2E2E2E2E2E2E2E2E2E2E2E2E2E2E2E2E2E2E2E2E2E2E2E2E2E2E2E2E2E2E2E2F5E2E2E2E2E2E2E2
310
E2E2E2E2E2E2E2E2E2E2E2E2E2E2E2E2E2E2E2E2E2E2E2E2E2E2E2E2E2E2E2E2E2E2E2E2E2E2E2E2E2E2E2E2E2E2E2E2E2E2E2E2E2E2E2E2E2E2E2E2E2E2E2F0E2E2E2E2E2E2E2E2E2E2E2E2E2E2E2E2E2E2E2F5F5EFF5E2E2E2E2E2E2E2E2E2E2E2E2E2E2E2E2E2E2E2F0E2F5F5E2E2E2E2F5E2F5E2F5E2E2E2E2E2E2E2E2
310
E2E2E2E2F0E2E2E2E2E2E2F5E2E2E2E2E2E2E2E2E2E2E2E2E2E2E2E2E2E2E2E2E2E2E2E2E2E2E2E2E2E2E2E2E2F5E2E2E2E2E2E2E2E2E2E2E2E2E2E2E2E2E2E2E2E2E2E2E2E2E2E2E2E2E2E2E2E2E2E2E2E2E2E2E2E2E2E2E2E2E2E2E2E2E2E2E2E2E2E2E2E2E2E2E2E2E2E2E2E2E2E2E2E2E2E2F0E2E2E2E2E2E2E2E2E2E2
310
E2E2E2E2E2E2E2E2E2F5F5EFF5E2E2E2E2E2E2E2E2E2E2E2E2E2E2E2E2E2E2E2F0E2F5F5E2E2E2E2F5E2F5E2F5E2E2E2E2E2E2E2E2E2E2E2E226E2E2E2E2E2E2F5E2E2E2E2E2E2E2E2E2E2E2E2E2E2E2E2E2E2E2E2E2E2E2E2E2E2E2E2E2E2E2E2E2F5E2E2E2E2E2E2E2E2E2E2E2E2E2E2E2E2E2E2E2E2E2E2E2E2E2E2E2E2
310
E2E2E2E2E2E2E2E2E2E2E2E2E2E2E2E2E2E2E2E2E2E2E2E2E2E2E2E2E2E2E2E2E2E2E2E2E2E2E2E2E2E2F0E2E2E2E2E2E2E2E2E2E2E2E2E2E2E2E2E2E2E2F5F5EFF5E2E2E2E2E2E2E2E2E2E2E2E2E2E2E2E2E2E2E2F0E2F5F5E2E2E2E2F5E2F5E2F5E2E2E2E2E2E2E2E2E2E2E2E226E2E2E2E2E2E2F5E2E2E2E2E2E2E2E2E2
310
E2E2E2E2E2E2E2E2E2E2E2E2E2E2E2E2E2E2E2E2E2E2E2E2F5E2E2E2E2E2E2E2E2E2E2E2E2E2E2E2E2E2E2E2E2E2E2E2E2E2E2E2E2E2E2E2E2E2E2E2E2E2E2E2E2E2E2E2E2E2E2E2E2E2E2E2E2E2E2E2E2E2E2E2E2E2E2E2E2E2E2E2E2E2E2F0E2E2E2E2E2E2E2E2E2E2E2E2E2E2E2E2E2E2E2F5F5EFF5E2E2E2E2E2E2E2E2
310
E2E2E2E2E2E2E2E2E2E2E2F0E2F5F5E2E2E2E2F5E2F5E2F5E2E2E2E2E2E2E2E2E2E2E2E226E2E2E2E2E2E2F5E2E2E2E2E2E2E2E2E2E2E2E2E2E2E2E2E2E2E2E2E2E2E2E2E2E2E2E2E2E2E2E2E2F5E2E2E2E2E2E2E2E2E2E2E2E2E2E2E2E2E2E2E2E2E2E2E2E2E2E2E2E2E2E2E2E2E2E2E2E2E2E2E2E2E2E2E2E2E2E2E2E2E2
310
E2E2E2E2E2E2E2E2E2E2E2E2E2E2E2E2E2E2E2E2E2F0E2E2E2E2E2E2E2E2E2E2E2E2E2E2E2E2E2E2E2F5F5EFF5E2E2E2E2E2E2E2E2E2E2E2E2E2E2E2E2E2E2E2F0E2F5F5E2E2E2E2F5E2F5E2F5E2E2E2E2E2E2E2E2E2E2E2E2F0E2E2E2E2E2E2F5E2E2E2E2E2E2E2E2E2E2E2E2E2E2E2E2E2E2E2E2E2E2E2E2E2E2E2E2E2E2
310
E2E2E2F5E2E2E2E2E2E2E2E2E2E2E2E2E2E2E2E2E2E2E2E2E2E2E2E2E2E2E2E2E2E2E2E2E2E2E2E2E2E2E2E2E2E2E2E2E2E2E2E2E2E2E2E2E2E2E2E2E2E2E2E2E2E2E2E2E2E2E2E2E2E2F0E2E2E2E2E2E2E2E2E2E2E2E2E2E2E2E2E2E2E2F5F5EFF5E2E2F5E2E2E2E2E2E2E2E2E2E2E2E2E2E2E2E2F0E2F5F5F5F5F5E2F5E2
310
F5E2F5E2E2E2E2E2E2E2E2E2E2E2E2F0E2E2E2E2E2E2F5E2E2E2E2E2E2E2E2E2E2E2E2E2E2E2E2E2E2E2E2E2E2E2E2E2E2E2E2E2E2E2E2E2F5E2E2E2E2E2E2E2E2E2E2E2E2E2E2E2E2E2E2E2E2E2E2E2E2E2E2E2E2E2E2E2E2E2E2E2E2E2E2E2E2E2E2E2E2E2E2E2E2E2E2E2E2E2E2E2E2E2E2E2E2E2E2E2E2E2E2E2E2E2E2
310
F0E2E2E2E2E2E2E2E2E2E2E2E2E2E2E2E2F5E2E2F5F5EFF5E2E2F5E2E2E2E2E2E2E2E2E2E2E2E2E2E2E2E2F0E2F5F5E2E2E2F5F5E2F5E2F5E2E2E2E2E2E2E2E2E2E2E2E2F0E2E2E2E2E2E2F5E2E2E2E2E2E2E2E2E2E2E2E2E2E2E2E2E2E2E2E2E2E2E2E2E2E2E2E2E2E2E2E2E2F5E2E2E2E2E2E2E2E2E2E2E2E2E2E2E2E2E2
310
E2E2E2E2E2E2E2E2E2E2E2E2E2E2E2E2E2E2E2E2E2E2E2E2E2E2E2E2E2E2E2E2E2E2E2E2E2E2E2E2E2E2E2E2E2E2E2E2E2E2E2E2E2F0E2E2E2E2E2E2E2E2E2E2E2E2E2E2E2E2F5E2E2F5F5EFF5E2E2F5E2E2E2E2E2E2E2E2E2E2E2E2E2E2E2E2F0E2F5F5E2E2E2F5F5E2F5E2F5E2E2E2E2E2E2E2E2E2E2E2E2F0E2E2E2E2E2
310
E2F5E2E2E2E2E2E2E2E2E2E2E2E2E2E2E2E2E2E2E2E2E2E2E2E2E2E2E2E2E2E2E2E2E2F5E2E2E2E2E2E2E2E2E2E2E2E2E2E2E2E2E2E2E2E2E2E2E2E2E2E2E2E2E2E2E2E2E2E2E2E2E2E2E2E2E2E2E2E2E2E2E2E2E2E2E2E2E2E2E2E2E2E2E2E2E2E2E2E2E2E2E2E2E2E2F0E2E2E2E2E2E2E2E2E2E2E2E2E2E2E2E2F5E2E2F5
310
F5EFF5E2E2F5E2E2E2E2E2E2E2E2E2E2E2E2E2E2E2E2F0E2F5F5F5F5F5F5F5E2F5E2F5E2E2E2E2E2E2E2E2E2E2E2E2F0E2E2E2E2E2E2F5E2E2E2E2E2E2E2E2E2E2E2E2E2E2E2E2E2E2E2E2E2E2E2E2E2E2E2E2E2E2E2E2E2F5E2E2E2E2E2E2E2E2E2E2E2E2E2E2E2E2E2E2E2E2E2E2E2E2E2E2E2E2E2E2E2E2E2E2E2E2E2E2
310
E2E2E2E2E2E2E2E2E2E2E2E2E2E2E2E2E2E2E2E2E2E2E2E2E2E2E2E2E2E2E2E2F0E2E2E2E2E2E2E2E2E2E2E2E2E2E2E2E2F5E2E2F5F5EFF5E2E2F5E2E2E2E2E2E2E2E2E2E2E2E2E2E2E2E2F0E2F5F5E2E2E2E2F5E2F5E2F5E2E2E2E2E2E2E2E2E2E2E2E2F0E2E2E2E2E2E2F5E2E2E2E2E2E2E2E2E2E2E2E2E2E2E2E2E2E2E2
310
E2E2E2E2E2E2E2E2E2E2E2E2E2E2F5E2E2E2E2E2E2E2E2E2E2E2E2E2E2E2E2E2E2E2E2E2E2E2E2E2E2E2E2E2E2E2E2E2E2E2E2E2E2E2E2E2E2E2E2E2E2E2E2E2E2E2E2E2E2E2E2E2E2E2E2E2E2E2E2E2E2E2E2E2E2F0E2E2E2E2E2E2E2E2E2E2E2E2E2E2E2E2F5E2E2F5F5EFF5E2E2F5E2E2E2E2E2E2E2E2E2E2E2E2E2E2E2
310
E2F0E2F5F5E2E2E2E2F5E2F5E2F5E2E2E2E2E2E2E2E2E2E2E2E2F0E2E2E2E2E2E2F5E2E2E2E2E2E2E2E2E2E2E2E2E2E2E2E2E2E2E2E2E2E2E2E2E2E2E2E2E2E2E2E2E2F5E2E2E2E2E2E2E2E2E2E2E2E2E2E2E2E2E2E2E2E2E2E2E2E2E2E2E2E2E2E2E2E2E2E2E2E2E2E2E2E2E2E2E2E2E2E2E2E2E2E2E2E2E2E2E2E2E2E2E2
310
E2E2E2E2E2E2E2E2E2E2E2F0E2E2E2E2E2E2E2E2E2E2E2E2E2E2E2E2F5E2E2F5F5EFF5E2E2F5E2E2E2E2E2E2E2E2E2E2E2E2E2E2E2E2F0E2F5F5E2E2E2E2F5E2F5E2F5E2E2E2E2E2E2E2E2E2E2E2E2F0E2E2E2E2E2E2F5E2E2E2E2E2E2E2E2E2E2E2E2E2E2E2E2E2E2E2E2E2E2E2E2E2E2E2E2E2E2E2E2E2F5E2E2E2E2E2E2
310
E2E2E2E2E2E2E2E2E2E2E2E2E2E2E2E2E2E2E2E2E2E2E2E2E2E2E2E2E2E2E2E2E2E2E2E2E2E2E2E2E2E2E2E2E2E2E2E2E2E2E2E2E2E2E2E2E2E2E2E2E2E2E2E2F0E2E2E2E2E2E2E2E2E2E2E2E2E2E2E2E2F5E2E2F5F5EFF5E2E2F5E2E2E2E2E2E2E2E2E2E2E2E2E2E2E2E2F0E2F5F5E2E2E2E2F5E2F5E2F5E2E2E2E2E2E2E2
310
E2E2E2E2E2F0E2E2E2E2E2E2F5E2E2E2E2E2E2E2E2E2E2E2E2E2E2E2E2E2E2E2E2E2E2E2E2E2E2E2E2E2E2E2E2E2F5E2E2E2E2E2E2E2E2E2E2E2E2E2E2E2E2E2E2E2E2E2E2E2E2E2E2E2E2E2E2E2E2E2E2E2E2E2E2E2E2E2E2E2E2E2E2E2E2E2E2E2E2E2E2E2E2E2E2E2E2E2E2E2E2E2E2E2E2E2E2F0E2E2E2E2E2E2E2E2E2
310
E2E2E2E2E2E2E2F5E2E2F5F5EFF5E2E2F5E2E2E2E2E2E2E2E2E2E2E2E2E2E2E2E2F0E2F5F5E2E2E2E2F5E2F5E2F5E2E2E2E2E2E2E2E2E2E2E2E2F0E2E2E2E2E2E2F5E2E2E2E2E2E2E2E2E2E2E2E2E2E2E2E2E2E2E2E2E2E2E2E2E2E2E2E2E2E2E2E2E2F5E2E2E2E2E2E2E2E2E2E2E2E2E2E2E2E2E2E2E2E2E2E2E2E2E2E2E2
310
E2E2E2E2E2E2E2E2E2E2E2E2E2E2E2E2E2E2E2E2E2E2E2E2E2E2E2E2E2E2E2E2E2E2E2E2E2E2E2E2E2E2E2F0E2E2E2E2E2E2E2E2E2E2E2E2E2E2E2E2F5E2E2F5F5EFF5E2E2F5E2E2E2E2E2E2E2E2E2E2E2E2E2E2E2E2F0E2F5F5E2E2E2E2F5E2F5E2F5E2E2E2E2E2E2E2E2E2E2E2E2F0E2E2E2E2E2E2F5E2E2E2E2E2E2E2E2
310
E2E2E2E2E2E2E2E2E2E2E2E2E2E2E2E2E2E2E2E2E2E2E2E2E2F5E2E2E2E2E2E2E2E2E2E2E2E2E2E2E2E2E2E2E2E2E2E2E2E2E2E2E2E2E2E2E2E2E2E2E2E2E2E2E2E2E2E2E2E2E2E2E2E2E2E2E2E2E2E2E2E2E2E2E2E2E2E2E2E2E2E2E2E2E2E2F0E2E2E2E2E2E2E2E2E2E2E2E2E2E2E2E2F5E2E2F5F5EFF5E2E2F5E2E2E2E2
310
E2E2E2E2E2E2E2E2E2E2E2E2F0E2F5F5E2E2E2E2F5E2F5E2F5E2E2E2E2E2E2E2E2E2E2E2E2F0E2E2E2E2E2E2F5E2E2E2E2E2E2E2E2E2E2E2E2E2E2E2E2E2E2E2E2E2E2E2E2E2E2E2E2E2E2E2E2E2F5E2E2E2E2E2E2E2E2E2E2E2E2E2E2E2E2E2E2E2E2E2E2E2E2E2E2E2E2E2E2E2E2E2E2E2E2E2E2E2E2E2E2E2E2E2E2E2E2
310
E2E2E2E2E2E2E2E2E2E2E2E2E2E2E2E2E2E2E2E2E2E2F0E2E2E2E2E2E2E2E2E2E2E2E2E2E2E2E2F5E2E2F5F5EFF5E2E2F5E2E2E2E2E2E2E2E2E2E2E2E2E2E2E2E2F0E2F5F5E2E2E2E2F5E2F5E2F5E2E2E2E2E2E2E2E2E2E2E2E2F0E2E2E2E2E2E2F5E2E2E2E2E2E2E2E2E2E2E2E2E2E2E2E2E2E2E2E2E2E2E2E2E2E2E2E2E2
310
E2E2E2E2F5E2E2E2E2E2E2E2E2E2E2E2E2E2E2E2E2E2E2E2E2E2E2E2E2E2E2E2E2E2E2E2E2E2E2E2E2E2E2E2E2E2E2E2E2E2E2E2E2E2E2E2E2E2E2E2E2E2E2E2E2E2E2E2E2E2E2E2E2E2E2F0E2E2E2E2E2E2E2E2E2E2E2E2E2E2E2E2F5E2E2F5F5EFF5E2E2F5E2E2E2E2E2E2E2E2E2E2E2E2E2E2E2E2F0E2F5F5E2E2E2E2F5
310
E2F5E2F5E2E2E2E2E2E2E2E2E2E2E2E2F0E2E2E2E2E2E2F5E2E2E2E2E2E2E2E2E2E2E2E2E2E2E2E2E2E2E2E2E2E2E2E2E2E2E2E2E2E2E2E2E2F5E2E2E2E2E2E2E2E2E2E2E2E2E2E2E2E2E2E2E2E2E2E2E2E2E2E2E2E2E2E2E2E2E2E2E2E2E2E2E2E2E2E2E2E2E2E2E2E2E2E2E2E2E2E2E2E2E2E2E2E2E2E2E2E2E2E2E2E2E2
310
E2F0E2E2E2E2E2E2E2E2E2E2E2E2E2E2E2E2F5E2E2F5F5EFF5E2E2F5E2E2E2E2E2E2E2E2E2E2E2E2E2E2E2E2F0F5F5F5F5F5F5F5F5F5F5E2F5E2E2E2E2E2E2E2E2E2E2E2E2F0E2E2E2E2E2E2F5E2F5F5F5F5E2E2E2E2E2E2E2E2E2E2E2E2E2E2E2E2E2E2E2E2E2E2F5F5F5E2E2E2F5E2E2E2E2E2E2E2E2E2E2E2E2E2E2E2E2
310
E2E2E2E2E2E2E2E2E2E2E2E2E2E2E2E2E2E2E2E2E2E2E2E2E2E2E2E2E2E2E2E2E2E2E2E2E2E2E2E2E2E2E2E2E2E2E2E2E2E2E2E2E2E2F0E2E2E2E2E2E2E2E2E2E2E2E2E2E2E2E2F5E2E2F5F5EFF5E2E2F5E2E2E2E2E2E2E2E2E2E2E2E2E2E2E2E2F0E2F5F5E2E2E2E2E2E2F5E2F5E2E2E2E2E2E2E2E2E2E2E2E2F0E2E2E2E2
310
E2E2F5E2F5E2E2F5E2E2E2E2E2E2E2E2E2E2E2E2E2E2E2E2E2E2E2E2E2F5F5E2F5F5E2E2F5E2E2E2E2E2E2E2E2E2E2E2E2E2E2E2E2E2E2E2E2E2E2E2E2E2E2E2E2E2E2E2E2E2E2E2E2E2E2E2E2E2E2E2E2E2E2E2E2E2E2E2E2E2E2E2E2E2E2E2E2E2E2E2E2E2E2E2E2E2E2F0E2E2E2E2E2E2E2E2E2E2E2E2E2E2E2E2F5E2E2
310
F5F5EFF5E2E2E2E2E2E2E2E2E2E2E2E2E2E2E2E2E2E2E2F0F5F5F5E2E2E2E2E2E2F5E2F5E2E2E2E2E2E2E2E2E2E2E2E2F0E2E2E2E2E2E2F5E2F5F5F5F5E2E2E2E2E2E2E2E2E2E2E2E2E2E2E2E2E2E2E2E2E2E2F5F5F5E2E2E2F5E2E2E2E2E2E2E2E2E2E2E2E2E2E2E2E2E2E2E2E2E2E2E2E2E2E2E2E2E2E2E2E2E2E2E2E2E2
310
E2E2E2E2E2E2E2E2E2E2E2E2E2E2E2E2E2E2E2E2E2E2E2E2E2E2E2E2E2E2E2E2E2F0E2E2E2E2E2E2E2E2E2E2E2E2E2E2E2E2E2E2E2F5F5EFF5E2E2E2E2E2E2E2E2E2E2E2E2E2E2E2E2E2E2E2F0E2F5F5F5F5F5F5F5F5F5E2F5E2E2E2E2E2E2E2E2E2E2E2E2F0E2E2E2E2E2E2F5E2E2F5F5E2E2E2E2E2E2E2E2E2E2E2E2E2E2
310
E2E2E2E2E2E2E2E2E2E2F5E2E2E2E2F5E2E2E2E2E2E2E2E2E2E2E2E2E2E2E2E2E2E2E2E2E2E2E2E2E2E2E2E2E2E2E2E2E2E2E2E2E2E2E2E2E2E2E2E2E2E2E2E2E2E2E2E2E2E2E2E2E2E2E2E2E2E2E2E2E2E2E2E2E2E2F0E2E2E2E2E2E2E2E2E2E2E2E2E2E2E2E2E2E2E2F5F5EFF5E2E2E2E2E2E2E2E2E2E2E2E2E2E2E2E2E2
310
E2E2F0E2F5F5F5F5F5F5F5F5F5F5F5E2E2E2E2E2E2E2E2E2E2E2E2F0F0F0F0F0F0F0F0F5F5F5F5F5F5F5F5F5F5F5F5F5F5F5F5F5F5F5F5F5F5F5F5F5F5F5F5F5F5F5F5F5F5E2E2E2E2E2E2E2E2E2E2E2E2E2E2E2E2E2E2E2E2E2E2E2E2E2E2E2E2E2E2E2E2E2E2E2E2E2E2E2E2E2E2E2E2E2E2E2E2E2E2E2E2E2E2E2E2E2E2
310
E2E2E2E2E2E2E2E2E2E2E2E2F0E2E2E2E2E2E2E2E2E2E2E2E2E2E2E2E2E2E2E2F5F5EFF5E2E2E2E2E2E2E2E2E2E2E2E2E2E2E2E2E2E2E2F0E2E2E2E2E2E2E2E2E2E2E2E2E2E2E2E2E2E2E2E2E2E2E2E2E2E2E2E2E2E2E2E2E2E2E2E2E2E2E2E2E2E2E2E2E2E2E2E2E2E2E2E2E2E2E2E2E2E2E2E2E2E2E2E2E2E2E2E2E2E2E2
310
E2E2E2E2E2E2E2E2E2E2E2E2E2E2E2E2E2E2E2E2E2E2E2E2E2E2E2E2E2E2E2E2E2E2E2E2E2E2E2E2E2E2E2E2E2E2E2E2E2E2E2E2E2E2E2E2E2E2E2E2E2E2E2E2E2F0E2E2E2E2E2E2E2E2E2E2E2E2E2E2E2E2E2E2E2F5F5EFF5E2E2E2E2E2E2E2E2E2E2E2E2E2E2E2E2E2E2E2F0E2E2E2E2E2E2E2E2E2E2E2E2E2E2E2E2E2E2
310
E2E2E2E2E2E2E2E2E2E2E2E2E2E2E2E2E2E2E2E2E2E2E2E2E2E2E2E2E2E2E2E2E2E2E2E2E2E2E2E2E2E2E2E2E2E2E2E2E2E2E2E2E2E2E2E2E2E2E2E2E2E2E2E2E2E2E2E2E2E2E2E2E2E2E2E2E2E2E2E2E2E2E2E2E2E2E2E2E2E2E2E2E2E2E2E2E2E2E2E2E2E2E2E2E2E2E2E2E2E2E2E2E2E2E2E2E2E2F0E2E2E2E2E2E2E2E2
310
E2E2E2E2E2E2E2E2E2E2E2F5F5EFF5E2E2E2E2E2E2E2E2E2E2E2E2E2E2E2E2E2E2E2F0E2E2E2E2E2E2E2E2E2E2E2E2E2E2E2E2E2E2E2E2E2E2E2E2E2E2E2E2E2E2E2E2E2E2E2E2E2E2E2E2E2E2E2E2E2E2E2E2E2E2E2E2E2E2E2E2E2E2E2E2E2E2E2E2E2E2E2E2E2E2E2E2E2E2E2E2E2E2E2E2E2E2E2E2E2E2E2E2E2E2E2E2
310
E2E2E2E2E2E2E2E2E2E2E2E2E2E2E2E2E2E2E2E2E2E2E2E2E2E2E2E2E2E2E2E2E2E2E2E2E2E2E2E2E2E2E2E2F0E2E2E2E2E2E2E2E2E2E2E2E2E2E2E2E2E2E2E2F5F5EFF5E2E2E2E2E2E2E2E2E2E2E2E2E2E2E2E2E2E2E2F0E2E2E2E2E2E2E2E2E2E2E2E2E2E2E2E2E2E2E2E2E2E2E2E2E2E2E2E2E2E2E2E2E2E2E2E2E2E2E2
310
E2E2E2E2E2E2E2E2E2E2E2E2E2E2E2E2E2E2E2E2E2E2E2E2E2E2E2E2E2E2E2E2E2E2E2E2E2E2E2E2E2E2E2E2E2E2E2E2E2E2E2E2E2E2E2E2E2E2E2E2E2E2E2E2E2E2E2E2E2E2E2E2E2E2E2E2E2E2E2E2E2E2E2E2E2E2E2E2E2E2E2E2E2E2E2E2E2F0E2E2E2E2E2E2E2E2E2E2E2E2E2E2E2E2E2E2E2F5F5EFF5E2E2E2E2E2E2
310
E2E2E2E2E2E2E2E2E2E2E2E2E2F0E2E2E2E2E2E2E2E2E2E2E2E2E2E2E2E2E2E2E2E2E2E2E2E2E2E2E2E2E2E2E2E2E2E2E2E2E2E2E2E2E2E2E2E2E2E2E2E2E2E2E2E2E2E2E2E2E2E2E2E2E2E2E2E2E2E2E2E2E2E2E2E2E2E2E2E2E2E2E2E2E2E2E2E2E2E2E2E2E2E2E2E2E2E2E2E2E2E2E2E2E2E2E2E2E2E2E2E2E2E2E2E2E2
310
E2E2E2E2E2E2E2E2E2E2E2E2E2E2E2E2E2E2E2E2E2E2E2F0E2E2E2E2E2E2E2E2E2E2E2E2E2E2E2E2E2E2E2F5F5EFF5E2E2F5E2E2E2E2E2E2E2E2E2E2E2E2E2E2E2E2F0E2E2E2E2E2E2E2E2E2E2E2E2E2E2E2E2E2E2E2E2E2E2E2E2E2E2E2E2E2E2E2E2E2E2E2E2E2E2E2E2E2E2E2E2E2E2E2E2E2E2E2E2E2E2E2E2E2E2E2E2
310
E2E2E2E2E2E2E2E2E2E2E2E2E2E2E2E2E2E2E2E2E2E2E2E2E2E2E2E2E2E2E2E2E2E2E2E2E2E2E2E2E2E2E2E2E2E2E2E2E2E2E2E2E2E2E2E2E2E2E2E2E2E2E2E2E2E2E2E2E2E2E2E2E2E2E2E2F0E2E2E2E2E2E2E2E2E2E2E2E2E2E2E2E2F5E2E2F5F5EFF5E2E2F5E2E2E2E2E2E2E2E2E2E2E2E2E2E2E2E2F0E2E2E2E2E2E2E2
310
E2E2E2E2E2E2E2E2E2E2E2E2E2E2E2E2E2E2E2E2E2E2E2E2E2E2E2E2E2E2E2E2E2E2E2E2E2E2E2E2E2E2E2E2E2E2E2E2E2E2E2E2E2E2E2E2E2E2E2E2E2E2E2E2E2E2E2E2E2E2E2E2E2E2E2E2E2E2E2E2E2E2E2E2E2E2E2E2E2E2E2E2E2E2E2E2E2E2E2E2E2E2E2E2E2E2E2E2E2E2E2E2E2E2E2E2E2E2E2E2E2E2E2E2E2E2E2
310
E2E2F0E2E2E2E2E2E2E2E2E2E2E2E2E2E2E2E2F5E2E2F5F5EFF5E2E2F5E2E2E2E2E2E2E2E2E2E2E2E2E2E2E2E2F0E2E2E2E2E2E2E2E2E2E2E2E2E2E2E2E2E2E2E2E2E2E2E2E2E2E2E2E2E2E2E2E2E2E2E2E2E2E2E2E2E2E2E2E2E2E2E2E2E2E2E2E2E2E2E2E2E2E2E2E2E2E2E2E2E2E2E2E2E2E2E2E2E2E2E2E2E2E2E2E2E2
310
E2E2E2E2E2E2E2E2E2E2E2E2E2E2E2E2E2E2E2E2E2E2E2E2E2E2E2E2E2E2E2E2E2E2E2E2E2E2E2E2E2E2E2E2E2E2E2E2E2E2E2E2E2E2E2F0E2E2E2E2E2E2E2E2E2E2E2E2E2E2E2E2F5E2E2F5F5EFF5E2E2F5E2E2E2E2E2E2E2E2E2E2E2E2E2E2E2E2F0E2E2E2E2E2E2E2E2E2E2E2E2E2E2E2E2E2E2E2E2E2E2E2E2E2E2E2E2
310
E2E2E2E2E2E2E2E2E2E2E2E2E2E2E2E2E2E2E2E2E2E2E2E2E2E2E2E2E2E2E2E2E2E2E2E2E2E2E2E2E2E2E2E2E2E2E2E2E2E2E2E2E2E2E2E2E2E2E2E2E2E2E2E2E2E2E2E2E2E2E2E2E2E2E2E2E2E2E2E2E2E2E2E2E2E2E2E2E2E2E2E2E2E2E2E2E2E2E2E2E2E2E2E2E2E2E2E2F0E2E2E2E2E2E2E2E2E2E2E2E2E2E2E2E2F5E2
310
E2F5F5EFF5E2E2F5E2E2E2E2E2E2E2E2E2E2E2E2E2E2E2E2F0E2E2E2E2E2E2E2E2E2E2E2E2E2E2E2E2E2E2E2E2E2E2E2E2E2E2E2E2E2E2E2E2E2E2E2E2E2E2E2E2E2E2E2E2E2E2E2E2E2E2E2E2E2E2E2E2E2E2E2E2E2E2E2E2E2E2E2E2E2E2E2E2E2E2E2E2E2E2E2E2E2E2E2E2E2E2E2E2E2E2E2E2E2E2E2E2E2E2E2E2E2E2
310
E2E2E2E2E2E2E2E2E2E2E2E2E2E2E2E2E2E2E2E2E2E2E2E2E2E2E2E2E2E2E2E2E2E2F0E2E2E2E2E2E2E2E2E2E2E2E2E2E2E2E2F5E2E2F5F5EFF5E2E2F5E2E2E2E2E2E2E2E2E2E2E2E2E2E2E2E2F0E2E2E2E2E2E2E2E2E2E2E2E2E2E2E2E2E2E2E2E2E2E2E2E2E2E2E2E2E2E2E2E2E2E2E2E2E2E2E2E2E2E2E2E2E2E2E2E2E2
310
E2E2E2E2E2E2E2E2E2E2E2E2E2E2E2E2E2E2E2E2E2E2E2E2E2E2E2E2E2E2E2E2E2E2E2E2E2E2E2E2E2E2E2E2E2E2E2E2E2E2E2E2E2E2E2E2E2E2E2E2E2E2E2E2E2E2E2E2E2E2E2E2E2E2E2E2E2E2E2E2E2E2E2E2E2E2E2F0E2E2E2E2E2E2E2E2E2E2E2E2E2E2E2E2F5E2E2F5F5EFF5E2E2F5E2E2E2E2E2E2E2E2E2E2E2E2E2
310
E2E2E2F0E2E2E2E2E2E2E2E2E2E2E2E2E2E2E2E2E2E2E2E2E2E2E2E2E2E2E2E2E2E2E2E2E2E2E2E2E2E2E2E2E2E2E2E2E2E2E2E2E2E2E2E2E2E2E2E2E2E2E2E2E2E2E2E2E2E2E2E2E2E2E2E2E2E2E2E2E2E2E2E2E2E2E2E2E2E2E2E2E2E2E2E2E2E2E2E2E2E2E2E2E2E2E2E2E2E2E2E2E2E2E2E2E2E2E2E2E2E2E2E2E2E2E2
310
E2E2E2E2E2E2E2E2E2E2E2E2E2F0E2E2E2E2E2E2E2E2E2E2E2E2E2E2E2E2F5E2E2F5F5EFF5E2E2F5E2E2E2E2E2E2E2E2E2E2E2E2E2E2E2E2F0E2E2E2E2E2E2E2E2E2E2E2E2E2E2E2E2E2E2E2E2E2E2E2E2E2E2E2E2E2E2E2E2E2E2E2E2E2E2E2E2E2E2E2E2E2E2E2E2E2E2E2E2E2E2E2E2E2E2E2E2E2E2E2E2E2E2E2E2E2E2
310
E2E2E2E2E2E2E2E2E2E2E2E2E2E2E2E2E2E2E2E2E2E2E2E2E2E2E2E2E2E2E2E2E2E2E2E2E2E2E2E2E2E2E2E2E2E2E2E2E2E2E2E2E2E2E2E2E2E2E2E2E2E2E2E2E2E2F0E2E2E2E2E2E2E2E2E2E2E2E2E2E2E2E2F5E2E2F5F5EFF5E2E2F5E2E2E2E2E2E2E2E2E2E2E2E2E2E2E2E2F0E2E2E2E2E2E2E2E2E2E2E2E2E2E2E2E2E2
310
E2E2E2E2E2E2E2E2E2E2E2E2E2E2E2E2E2E2E2E2E2E2E2E2E2E2E2E2E2E2E2E2E2E2E2E2E2E2E2E2E2E2E2E2E2E2E2E2E2E2E2E2E2E2E2E2E2E2E2E2E2E2E2E2E2E2E2E2E2E2E2E2E2E2E2E2E2E2E2E2E2E2E2E2E2E2E2E2E2E2E2E2E2E2E2E2E2E2E2E2E2E2E2E2E2E2E2E2E2E2E2E2E2E2E2E2E2E2E2F0E2E2E2E2E2E2E2
310
E2E2E2E2E2E2E2E2E2F5E2E2F5F5EFF5E2E2F5E2E2E2E2E2E2E2E2E2E2E2E2E2E2E2E2F0E2E2E2E2E2E2E2E2E2E2E2E2E2E2E2E2E2E2E2E2E2E2E2E2E2E2E2E2E2E2E2E2E2E2E2E2E2E2E2E2E2E2E2E2E2E2E2E2E2E2E2E2E2E2E2E2E2E2E2E2E2E2E2E2E2E2E2E2E2E2E2E2E2E2E2E2E2E2E2E2E2E2E2E2E2E2E2E2E2E2E2
310
E2E2E2E2E2E2E2E2E2E2E2E2E2E2E2E2E2E2E2E2E2E2E2E2E2E2E2E2E2E2E2E2E2E2E2E2E2E2E2E2E2E2E2E2E2F0E2E2E2E2E2E2E2E2E2E2E2E2E2E2E2E2F5E2E2F5F5EFF5E2E2F5E2E2E2E2E2E2E2E2E2E2E2E2E2E2E2E2F0E2E2E2E2E2E2E2E2E2E2E2E2E2E2E2E2E2E2E2E2E2E2E2E2E2E2E2E2E2E2E2E2E2E2E2E2E2E2
310
E2E2E2E2E2E2E2E2E2E2E2E2E2E2E2E2E2E2E2E2E2E2E2E2E2E2E2E2E2E2E2E2E2E2E2E2E2E2E2E2E2E2E2E2E2E2E2E2E2E2E2E2E2E2E2E2E2E2E2E2E2E2E2E2E2E2E2E2E2E2E2E2E2E2E2E2E2E2E2E2E2E2E2E2E2E2E2E2E2E2E2E2E2E2E2E2E2E2F0E2E2E2E2E2E2E2E2E2E2E2E2E2E2E2E2F5E2E2F5F5EFF5E2E2F5E2E2
310
E2E2E2E2E2E2E2E2E2E2E2E2E2E2F0E2E2E2E2E2E2E2E2E2E2E2E2E2E2E2E2E2E2E2E2E2E2E2E2E2E2E2E2E2E2E2E2E2E2E2E2E2E2E2E2E2E2E2E2E2E2E2E2E2E2E2E2E2E2E2E2E2E2E2E2E2E2E2E2E2E2E2E2E2E2E2E2E2E2E2E2E2E2E2E2E2E2E2E2E2E2E2E2E2E2E2E2E2E2E2E2E2E2E2E2E2E2E2E2E2E2E2E2E2E2E2E2
310
E2E2E2E2E2E2E2E2E2E2E2E2E2E2E2E2E2E2E2E2E2E2E2E2F0E2E2E2E2E2E2E2E2E2E2E2E2E2E2E2E2F5E2E2F5F5EFF5E2E2F5E2E2E2E2E2E2E2E2E2E2E2E2E2E2E2E2F0E2E2E2E2E2E2E2E2E2E2E2E2E2E2E2E2E2E2E2E2E2E2E2E2E2E2E2E2E2E2E2E2E2E2E2E2E2E2E2E2E2E2E2E2E2E2E2E2E2E2E2E2E2E2E2E2E2E2E2
310
E2E2E2E2E2E2E2E2E2E2E2E2E2E2E2E2E2E2E2E2E2E2E2E2E2E2E2E2E2E2E2E2E2E2E2E2E2E2E2E2E2E2E2E2E2E2E2E2E2E2E2E2E2E2E2E2E2E2E2E2E2E2E2E2E2E2E2E2E2E2E2E2E2E2E2E2E2F0E2E2E2E2E2E2E2E2E2E2E2E2E2E2E2E2F5E2E2F5F5EFF5E2E2F5E2E2E2E2E2E2E2E2E2E2E2E2E2E2E2E2F0E2E2E2E2E2E2
310
E2E2E2E2E2E2E2E2E2E2E2E2E2E2E2E2E2E2E2E2E2E2E2E2E2E2E2E2E2E2E2E2E2E2E2E2E2E2E2E2E2E2E2E2E2E2E2E2E2E2E2E2E2E2E2E2E2E2E2E2E2E2E2E2E2E2E2E2E2E2E2E2E2E2E2E2E2E2E2E2E2E2E2E2E2E2E2E2E2E2E2E2E2E2E2E2E2E2E2E2E2E2E2E2E2E2E2E2E2E2E2E2E2E2E2E2E2E2E2E2E2E2E2E2E2E2E2
310
E2E2E2F0E2E2E2E2E2E2E2E2E2E2E2E2E2E2E2E2F5E2E2F5F5EFF5E2E2F5E2E2E2E2E2E2E2E2E2E2E2E2E2E2E2E2F0E2E2E2E2E2E2E2E2E2E2E2E2E2E2E2E2E2E2E2E2E2E2E2E2E2E2E2E2E2E2E2E2E2E2E2E2E2E2E2E2E2E2E2E2E2E2E2E2E2E2E2E2E2E2E2E2E2E2E2E2E2E2E2E2E2E2E2E2E2E2E2E2E2E2E2E2E2E2E2E2
310
E2E2E2E2E2E2E2E2E2E2E2E2E2E2E2E2E2E2E2E2E2E2E2E2E2E2E2E2E2E2E2E2E2E2E2E2E2E2E2E2E2E2E2E2E2E2E2E2E2E2E2E2E2E2E2E2F0E2E2E2E2E2E2E2E2E2E2E2E2E2E2E2E2F5E2E2F5F5EFF5E2E2E2E2E2E2E2E2E2E2E2E2E2E2E2E2E2E2E2F0E2E2E2E2E2E2E2E2E2E2E2E2E2E2E2E2E2E2E2E2E2E2E2E2E2E2E2
310
E2E2E2E2E2E2E2E2E2E2E2E2E2E2E2E2E2E2E2E2E2E2E2E2E2E2E2E2E2E2E2E2E2E2E2E2E2E2E2E2E2E2E2E2E2E2E2E2E2E2E2E2E2E2E2E2E2E2E2E2E2E2E2E2E2E2E2E2E2E2E2E2E2E2E2E2E2E2E2E2E2E2E2E2E2E2E2E2E2E2E2E2E2E2E2E2E2E2E2E2E2E2E2E2E2E2E2E2E2F0E2E2E2E2E2E2E2E2E2E2E2E2E2E2E2E2E2
310
E2E2F5F5EFF5E2E2E2E2E2E2E2E2E2E2E2E2E2E2E2E2E2E2E2F0E2E2E2E2E2E2E2E2E2E2E2E2E2E2E2E2E2E2E2E2E2E2E2E2E2E2E2E2E2E2E2E2E2E2E2E2E2E2E2E2E2E2E2E2E2E2E2E2E2E2E2E2E2E2E2E2E2E2E2E2E2E2E2E2E2E2E2E2E2E2E2E2E2E2E2E2E2E2E2E2E2E2E2E2E2E2E2E2E2E2E2E2E2E2E2E2E2E2E2E2E2
310
E2E2E2E2E2E2E2E2E2E2E2E2E2E2E2E2E2E2E2E2E2E2E2E2E2E2E2E2E2E2E2E2E2E2E2F0E2E2E2E2E2E2E2E2E2E2E2E2E2E2E2E2E2E2E2F5F5EFF5E2E2E2E2E2E2E2E2E2E2E2E2E2E2E2E2E2E2E2F0E2E2E2E2E2E2E2E2E2E2E2E2E2E2E2E2E2E2E2E2E2E2E2E2E2E2E2E2E2E2E2E2E2E2E2E2E2E2E2E2E2E2E2E2E2E2E2E2
310
E2E2E2E2E2E2E2E2E2E2E2E2E2E2E2E2E2E2E2E2E2E2E2E2E2E2E2E2E2E2E2E2E2E2E2E2E2E2E2E2E2E2E2E2E2E2E2E2E2E2E2E2E2E2E2E2E2E2E2E2E2E2E2E2E2E2E2E2E2E2E2E2E2E2E2E2E2E2E2E2E2E2E2E2E2E2E2E2F0E2E2E2E2E2E2E2E2E2E2E2E2E2E2E2E2E2E2E2F5F5EFF5E2E2E2E2E2E2E2E2E2E2E2E2E2E2E2
310
E2E2E2E2F0E2E2E2E2E2E2E2E2E2E2E2E2E2E2E2E2E2E2E2E2E2E2E2E2E2E2E2E2E2E2E2E2E2E2E2E2E2E2E2E2E2E2E2E2E2E2E2E2E2E2E2E2E2E2E2E2E2E2E2E2E2E2E2E2E2E2E2E2E2E2E2E2E2E2E2E2E2E2E2E2E2E2E2E2E2E2E2E2E2E2E2E2E2E2E2E2E2E2E2E2E2E2E2E2E2E2E2E2E2E2E2E2E2E2E2E2E2E2E2E2E2E2
310
E2E2E2E2E2E2E2E2E2E2E2E2E2E2F0E2E2E2E2E2E2E2E2E2E2E2E2E2E2E2E2E2E2E2F5F5EFF5E2E2E2E2E2E2E2E2E2E2E2E2E2E2E2E2E2E2E2F0F0F0F0F0F0F0F0F0F0F0F0F0F0F0F0F0F0F0F0F0F0F0F0F0F0F0F0F0F0F0F0F0F0F0F0F0F0F0F0F0F0F0F0F0F0F0F0F0F0F0F0F0F0F0F0F0F0F0F0F0F0F0F0F0F0F0F0F0F0
310
F0F0F0F0F0F0F0F0F0F0F0F0F0F0F0F0F0F0F0F0F0F0F0F0F0F0F0F0F0F0F0F0F0F0F0F0F0F0F0F0F0F0F0F0F0F0F0F0F0F0F0F0F0F0F0F0F0F0F0F0F0F0F0F0F0F0F0F0E2E2E2E2E2E2E2E2E2E2E2E2E2E2E2E2E2E2E2F5F5EFF5E2E2E2E2E2E2E2E2E2E2E2E2E2E2E2E2E2E2E2E2E2E2E2E2E2E2E2E2E2E2E2E2E2E2E2E2
310
E2E2E2E2E2E2E2E2E2E2E2E2E2E2E2E2E2E2E2E2E2E2E2E2E2E2E2E2E2E2E2E2E2E2E2E2E2E2E2E2E2E2E2E2E2E2E2E2E2E2E2E2E2E2E2E2E2E2E2E2E2E2E2E2E2E2E2E2E2E2E2E2E2E2E2E2E2E2E2E2E2E2E2E2E2E2E2E2E2E2E2E2E2E2E2E2E2E2E2E2E2E2E2E2E2E2E2E2E2E2E2E2E2E2E2E2E2E2E2E2E2E2E2E2E2E2E2
310
E2E2E2E2E2E2E2E2E2E2E2E2E2F5F5EFF5E2E2E2E2E2E2E2E2E2E2E2E2E2E2E2E2E2E2E2E2E2E2E2E2E2E2E2E2E2E2E2E2E2E2E2E2E2E2E2E2E2E2E2E2E2E2E2E2E2E2E2E2E2E2E2E2E2E2E2E2E2E2E2E2E2E2E2E2E2E2E2E2E2E2E2E2E2E2E2E2E2E2E2E2E2E2E2E2E2E2E2E2E2E2E2E2E2E2E2E2E2E2E2E2E2E2E2E2E2E2
310
E2E2E2E2E2E2E2E2E2E2E2E2E2E2E2E2E2E2E2E2E2E2E2E2E2E2E2E2E2E2E2E2E2E2E2E2E2E2E2E2E2E2E2E2E2E2E2E2E2E2E2E2E2E2E2E2E2E2E2E2E2E2E2E2E2E2F5F5EFF5E2E2E2E2E2E2E2E2E2E2E2E2E2E2E2E2E2E2E2E2E2E2E2E2E2E2E2E2E2E2E2E2E2E2E2E2E2E2E2E2E2E2E2E2E2E2E2E2E2E2E2E2E2E2E2E2E2
310
E2E2E2E2E2E2E2E2E2E2E2E2E2E2E2E2E2E2E2E2E2E2E2E2E2E2E2E2E2E2E2E2E2E2E2E2E2E2E2E2E2E2E2E2E2E2E2E2E2E2E2E2E2E2E2E2E2E2E2E2E2E2E2E2E2E2E2E2E2E2E2E2E2E2E2E2E2E2E2E2E2E2E2E2E2E2E2E2E2E2E2E2E2E2E2E2E2E2E2E2E2E2E2E2E2E2E2E2E2E2E2E2E2E2E2E2E2E2E2F5F5EFF5E2E2E2E2
310
E2E2E2E2E2E2E2E2E2E2E2E2E2E2E2E2E2E2E2E2E2E2E2E2E2E2E2E2E2E2E2E2E2E2E2E2E2E2E2E2E2E2E2E2E2E2E2E2E2E2E2E2E2E2E2E2E2E2E2E2E2E2E2E2E2E2E2E2E2E2E2E2E2E2E2E2E2E2E2E2E2E2E2E2E2E2E2E2E2E2E2E2E2E2E2E2E2E2E2E2E2E2E2E2E2E2E2E2E2E2E2E2E2E2E2E2E2E2E2E2E2E2E2E2E2E2E2
310
E2E2E2E2E2E2E2E2E2E2E2E2E2E2E2E2E2E2E2E2E2E2E2E2E2E2E2E2E2E2E2E2E2E2E2E2E2E2E2E2E2E2E2E2E2F5F5EFF5E2E2F5E2E2E2E2E2E2E2E2E2E2E2E2E2E2E2E2E2E2E2E2E2E2E2E2E2E2E2E2E2E2E2E2E2E2E2E2E2E2E2E2E2E2E2E2E2E2E2E2E2E2E2E2E2E2E2E2E2E2E2E2E2E2E2E2E2E2E2E2E2E2E2E2E2E2E2
310
E2E2E2E2E2E2E2E2E2E2E2E2E2E2E2E2E2E2E2E2E2E2E2E2E2E2E2E2E2E2E2E2E2E2E2E2E2E2E2E2E2E2E2E2E2E2E2E2E2E2E2E2E2E2E2E2E2E2E2E2E2E2E2E2E2E2E2E2E2E2E2E2E2E2E2E2E2E2E2E2E2E2E2E2E2E2E2E2E2E2E2E2E2E2E2F5E2E2F5F5EFF5E2E2F5E2E2E2E2E2E2E2E2E2E2E2E2E2E2E2E2E2E2E2E2E2E2
310
E2E2E2E2E2E2E2E2E2E2E2E2E2E2E2E2E2E2E2E2E2E2E2E2E2E2E2E2E2E2E2E2E2E2E2E2E2E2E2E2E2E2E2E2E2E2E2E2E2E2E2E2E2E2E2E2E2E2E2E2E2E2E2E2E2E2E2E2E2E2E2E2E2E2E2E2E2E2E2E2E2E2E2E2E2E2E2E2E2E2E2E2E2E2E2E2E2E2E2E2E2E2E2E2E2E2E2E2E2E2E2E2E2E2E2E2E2E2E2E2E2E2E2E2E2E2E2
310
E2E2E2E2E2E2E2E2E2E2E2E2E2E2E2E2E2E2E2E2E2F5E2E2F5F5EFF5E2E2F5E2E2E2E2E2E2E2E2E2E2E2E2E2E2E2E2E2E2E2E2E2E2E2E2E2E2E2E2E2E2E2E2E2E2E2E2E2E2E2E2E2E2E2E2E2E2E2E2E2E2E2E2E2E2E2E2E2E2E2E2E2E2E2E2E2E2E2E2E2E2E2E2E2E2E2E2E2E2E2E2E2E2E2E2E2E2E2E2E2E2E2E2E2E2E2E2
310
E2E2E2E2E2E2E2E2E2E2E2E2E2E2E2E2E2E2E2E2E2E2E2E2E2E2E2E2E2E2E2E2E2E2E2E2E2E2E2E2E2E2E2E2E2E2E2E2E2E2E2E2E2E2E2E2E2E2E2E2E2E2E2E2E2E2E2E2E2E2E2E2E2E2F5E2E2F5F5EFF5E2E2F5E2E2E2E2E2E2E2E2E2E2E2E2E2E2E2E2E2E2E2E2E2E2E2E2E2E2E2E2E2E2E2E2E2E2E2E2E2E2E2E2E2E2E2
310
E2E2E2E2E2E2E2E2E2E2E2E2E2E2E2E2E2E2E2E2E2E2E2E2E2E2E2E2E2E2E2E2E2E2E2E2E2E2E2E2E2E2E2E2E2E2E2E2E2E2E2E2E2E2E2E2E2E2E2E2E2E2E2E2E2E2E2E2E2E2E2E2E2E2E2E2E2E2E2E2E2E2E2E2E2E2E2E2E2E2E2E2E2E2E2E2E2E2E2E2E2E2E2E2E2E2E2E2E2E2E2E2E2E2E2E2E2E2E2E2E2E2E2E2E2E2E2
310
F5E2E2F5F5EFF5E2E2F5E2E2E2E2E2E2E2E2E2E2E2E2E2E2E2E2E2E2E2E2E2E2E2E2E2E2E2E2E2E2E2E2E2E2E2E2E2E2E2E2E2E2E2E2E2E2E2E2E2E2E2E2E2E2E2E2E2E2E2E2E2E2E2E2E2E2E2E2E2E2E2E2E2E2E2E2E2E2E2E2E2E2E2E2E2E2E2E2E2E2E2E2E2E2E2E2E2E2E2E2E2E2E2E2E2E2E2E2E2E2E2E2E2E2E2E2E2
310
E2E2E2E2E2E2E2E2E2E2E2E2E2E2E2E2E2E2E2E2E2E2E2E2E2E2E2E2E2E2E2E2E2E2E2E2E2E2E2E2E2E2E2E2E2E2E2E2E2E2E2E2E2F5E2E2F5F5EFF5E2E2F5E2E2E2E2E2E2E2E2E2E2E2E2E2E2E2E2E2E2E2E2E2E2E2E2E2E2E2E2E2E2E2E2E2E2E2E2E2E2E2E2E2E2E2E2E2E2E2E2E2E2E2E2E2E2E2E2E2E2E2E2E2E2E2E2
310
E2E2E2E2E2E2E2E2E2E2E2E2E2E2E2E2E2E2E2E2E2E2E2E2E2E2E2E2E2E2E2E2E2E2E2E2E2E2E2E2E2E2E2E2E2E2E2E2E2E2E2E2E2E2E2E2E2E2E2E2E2E2E2E2E2E2E2E2E2E2E2E2E2E2E2E2E2E2E2E2E2E2E2E2E2E2E2E2E2E2E2E2E2E2E2E2E2E2E2E2E2E2E2E2E2E2F5E2E2F5F5EFF5E2E2F5E2E2E2E2E2E2E2E2E2E2E2
310
E2E2E2E2E2E2E2E2E2E2E2E2E2E2E2E2E2E2E2E2E2E2E2E2E2E2E2E2E2E2E2E2E2E2E2E2E2E2E2E2E2E2E2E2E2E2E2E2E2E2E2E2E2E2E2E2E2E2E2E2E2E2E2E2E2E2E2E2E2E2E2E2E2E2E2E2E2E2E2E2E2E2E2E2E2E2E2E2E2E2E2E2E2E2E2E2E2E2E2E2E2E2E2E2E2E2E2E2E2E2E2E2E2E2E2E2E2E2E2E2E2E2E2E2E2E2E2
310
E2E2E2E2E2E2E2E2E2E2E2E2E2E2E2E2E2E2E2E2E2E2E2E2E2E2E2E2E2E2E2E2F5E2E2F5F5EFF5E2E2F5F5F5F5F5F5F5F5E2E2E2E2E2E2E2E2E2F5F5F5F5F5F5F5F5F5F5F5F5F5F5F5F5E2E2E2E2E2E2E2E2E2F5F5F5F5F5F5F5F5F5F5F5F5F5F5F5E2E2E2E2E2E2E2E2E2F5F5F5F5F5F5F5F5F5F5F5F5F5F5F5F5E2E2E2E2
310
E2E2E2E2F5F5F5F5F5F5F5F5F5F5F5F5F5F5F5F5E2E2E2E2E2E2E2E2E2F5F5F5F5F5F5F5F5F5F5F5F5F5F5F5E2E2E2E2E2E2E2E2E2F5F5F5F5F5F5F5F5F5F5F5F5F5F5F5F5E2E2E2E2E2E2E2E2E2F5F5F5F5F5F5F5F5E2E2F5F5EFF5E2E2E2E2E2E2E2E2E2E2E2E2E2E2E2E2E2E2E2E2E2E2E2E2E2E2E2E2E2E2E2E2E2E2E2
310
E2E2E2E2E2E2E2E2E2E2E2E2E2E2E2E2E2E2E2E2E2E2E2E2E2E2E2E2E2E2E2E2E2E2E2E2E2E2E2E2E2E2E2E2E2E2E2E2E2E2E2E2E2E2E2E2E2E2E2E2E2E2E2E2E2E2E2E2E2E2E2E2E2E2E2E2E2E2E2E2E2E2E2E2E2E2E2E2E2E2E2E2E2E2E2E2E2E2E2E2E2E2E2E2E2E2E2E2E2E2E2E2E2E2E2E2E2E2E2E2E2E2E2E2E2E2E2
310
E2E2E2E2E2E2E2E2E2E2E2E2E2E2F5F5EFF5E2E2E2E2E2E2E2E2E2E2E2E2E2E2E2E2E2E2E2E2E2E2E2E2E2E2E2E2E2E2E2E2E2E2E2E2E2E2E2E2E2E2E2E2E2E2E2E2E2E2E2E2E2E2E2E2E2E2E2E2E2E2E2E2E2E2E2E2E2E2E2E2E2E2E2E2E2E2E2E2E2E2E2E2E2E2E2E2E2E2E2E2E2E2E2E2E2E2E2E2E2E2E2E2E2E2E2E2E2
310
E2E2E2E2E2E2E2E2E2E2E2E2E2E2E2E2E2E2E2E2E2E2E2E2E2E2E2E2E2E2E2E2E2E2E2E2E2E2E2E2E2E2E2E2E2E2E2E2E2E2E2E2E2E2E2E2E2E2E2E2E2E2E2E2E2E2E2F5F5EFF5E2E2E2E2E2E2E2E2E2E2E2E2E2E2E2E2E2E2E2E2E2E2E2E2E2E2E2E2E2E2E2E2E2E2E2E2E2E2E2E2E2E2E2E2E2E2E2E2E2E2E2E2E2E2E2E2
310
E2E2E2E2E2E2E2E2E2E2E2E2E2E2E2E2E2E2E2E2E2E2E2E2E2E2E2E2E2E2E2E2E2E2E2E2E2E2E2E2E2E2E2E2E2E2E2E2E2E2E2E2E2E2E2E2E2E2E2E2E2E2E2E2E2E2E2E2E2E2E2E2E2E2E2E2E2E2E2E2E2E2E2E2E2E2E2E2E2E2E2E2E2E2E2E2E2E2E2E2E2E2E2E2E2E2E2E2E2E2E2E2E2E2E2E2E2E2E2E2F5EFEFF5F5F5F5
310
F5F5F5F5F5F5F5F5F5F5F5F5F5F5F5F5F5F5F5F5F5F5F5F5F5F5F5F5F5F5F5F5F5F5F5F5F5F5F5F5F5F5F5F5F5F5F5F5F5F5F5F5F5F5F5F5F5F5F5F5F5F5F5F5F5F5F5F5F5F5F5F5F5F5F5F5F5F5F5F5F5F5F5F5F5F5F5F5F5F5F5F5F5F5F5F5F5F5F5F5F5F5F5F5F5F5F5F5F5F5F5F5F5F5F5F5F5F5F5F5F5F5F5F5F5F5F5
310
F5F5F5F5F5F5F5F5F5F5F5F5F5F5F5F5F5F5F5F5F5F5F5F5F5F5F5F5F5F5F5F5F5F5F5F5F5F5F5F5F5F5F5F5F5F5F5EF
  0
XRECORD
  5
4EE
102
{ACAD_REACTORS
330
4ED
102
}
330
4ED
100
AcDbXrecord
280
     1
102
MATERIAL
148
0.0
149
0.0
149
0.0
 93
        0
 94
       63
282
     0
 72
     1
 77
     1
171
     1
175
     1
179
     1
273
     0
  0
XRECORD
  5
4EC
102
{ACAD_REACTORS
330
4EB
102
}
330
4EB
100
AcDbXrecord
280
     1
102
MATERIAL
148
0.0
149
0.0
149
0.0
 93
        0
 94
       63
282
     0
 72
     1
 77
     1
171
     1
175
     1
179
     1
273
     0
  0
XRECORD
  5
4F0
102
{ACAD_REACTORS
330
4EF
102
}
330
4EF
100
AcDbXrecord
280
     1
102
MATERIAL
148
0.0
149
0.0
149
0.0
 93
        0
 94
       63
282
     0
 72
     1
 77
     1
171
     1
175
     1
179
     1
273
     0
  0
XRECORD
  5
4F2
102
{ACAD_REACTORS
330
4F1
102
}
330
4F1
100
AcDbXrecord
280
     1
102
ACAD_ROUNDTRIP_PRE2007_TABLESTYLE
 90
      512
 91
        0
  1

 92
      512
 93
        0
  2

 94
      512
 95
        0
  3

  0
ENDSEC
  0
EOF
