  0
SECTION
  2
HEADER
  9
$ACADVER
  1
AC1015
  9
$ACADMAINTVER
 70
    20
  9
$DWGCODEPAGE
  3
ANSI_932
  9
$INSBASE
 10
0.0
 20
0.0
 30
0.0
  9
$EXTMIN
 10
1589.608280596269
 20
-70.33065730912858
 30
0.0
  9
$EXTMAX
 10
2901.516680596277
 20
850.2505426908719
 30
0.0
  9
$LIMMIN
 10
0.0
 20
0.0
  9
$LIMMAX
 10
0.0
 20
0.0
  9
$ORTHOMODE
 70
     1
  9
$REGENMODE
 70
     1
  9
$FILLMODE
 70
     1
  9
$QTEXTMODE
 70
     0
  9
$MIRRTEXT
 70
     1
  9
$LTSCALE
 40
1.0
  9
$ATTMODE
 70
     1
  9
$TEXTSIZE
 40
0.0
  9
$TRACEWID
 40
0.05
  9
$TEXTSTYLE
  7
STANDARD
  9
$CLAYER
  8
0
  9
$CELTYPE
  6
CONTINUOUS
  9
$CECOLOR
 62
   256
  9
$CELTSCALE
 40
1.0
  9
$DISPSILH
 70
     0
  9
$DIMSCALE
 40
1.0
  9
$DIMASZ
 40
9.0
  9
$DIMEXO
 40
2.1
  9
$DIMDLI
 40
0.38
  9
$DIMRND
 40
0.0
  9
$DIMDLE
 40
0.0
  9
$DIMEXE
 40
6.0
  9
$DIMTP
 40
1.0
  9
$DIMTM
 40
1.0
  9
$DIMTXT
 40
9.0
  9
$DIMCEN
 40
0.09
  9
$DIMTSZ
 40
0.0
  9
$DIMTOL
 70
     1
  9
$DIMLIM
 70
     0
  9
$DIMTIH
 70
     0
  9
$DIMTOH
 70
     0
  9
$DIMSE1
 70
     0
  9
$DIMSE2
 70
     0
  9
$DIMTAD
 70
     1
  9
$DIMZIN
 70
     8
  9
$DIMBLK
  1

  9
$DIMASO
 70
     1
  9
$DIMSHO
 70
     1
  9
$DIMPOST
  1

  9
$DIMAPOST
  1

  9
$DIMALT
 70
     0
  9
$DIMALTD
 70
     2
  9
$DIMALTF
 40
25.4
  9
$DIMLFAC
 40
1.0
  9
$DIMTOFL
 70
     0
  9
$DIMTVP
 40
0.0
  9
$DIMTIX
 70
     0
  9
$DIMSOXD
 70
     0
  9
$DIMSAH
 70
     1
  9
$DIMBLK1
  1
OPEN30
  9
$DIMBLK2
  1
OPEN30
  9
$DIMSTYLE
  2
ME10_DIM_9
  9
$DIMCLRD
 70
     2
  9
$DIMCLRE
 70
     2
  9
$DIMCLRT
 70
     2
  9
$DIMTFAC
 40
0.9
  9
$DIMGAP
 40
0.625
  9
$DIMJUST
 70
     0
  9
$DIMSD1
 70
     0
  9
$DIMSD2
 70
     0
  9
$DIMTOLJ
 70
     1
  9
$DIMTZIN
 70
     0
  9
$DIMALTZ
 70
     0
  9
$DIMALTTZ
 70
     0
  9
$DIMUPT
 70
     0
  9
$DIMDEC
 70
     2
  9
$DIMTDEC
 70
     0
  9
$DIMALTU
 70
     2
  9
$DIMALTTD
 70
     2
  9
$DIMTXSTY
  7
STANDARD
  9
$DIMAUNIT
 70
     0
  9
$DIMADEC
 70
     0
  9
$DIMALTRND
 40
0.0
  9
$DIMAZIN
 70
     0
  9
$DIMDSEP
 70
    46
  9
$DIMATFIT
 70
     3
  9
$DIMFRAC
 70
     0
  9
$DIMLDRBLK
  1
OPEN30
  9
$DIMLUNIT
 70
     2
  9
$DIMLWD
 70
    -2
  9
$DIMLWE
 70
    -2
  9
$DIMTMOVE
 70
     0
  9
$LUNITS
 70
     2
  9
$LUPREC
 70
     4
  9
$SKETCHINC
 40
0.1
  9
$FILLETRAD
 40
0.0
  9
$AUNITS
 70
     0
  9
$AUPREC
 70
     0
  9
$MENU
  1
acad
  9
$ELEVATION
 40
0.0
  9
$PELEVATION
 40
0.0
  9
$THICKNESS
 40
0.0
  9
$LIMCHECK
 70
     0
  9
$CHAMFERA
 40
0.0
  9
$CHAMFERB
 40
0.0
  9
$CHAMFERC
 40
0.0
  9
$CHAMFERD
 40
0.0
  9
$SKPOLY
 70
     0
  9
$TDCREATE
 40
2314168.288031782
  9
$TDUCREATE
 40
2314167.913031782
  9
$TDUPDATE
 40
2459524.624561169
  9
$TDUUPDATE
 40
2459524.249561169
  9
$TDINDWG
 40
0.0070106829
  9
$TDUSRTIMER
 40
0.0069229167
  9
$USRTIMER
 70
     1
  9
$ANGBASE
 50
0.0
  9
$ANGDIR
 70
     0
  9
$PDMODE
 70
     0
  9
$PDSIZE
 40
0.0
  9
$PLINEWID
 40
0.0
  9
$SPLFRAME
 70
     0
  9
$SPLINETYPE
 70
     6
  9
$SPLINESEGS
 70
     8
  9
$HANDSEED
  5
5A1
  9
$SURFTAB1
 70
     6
  9
$SURFTAB2
 70
     6
  9
$SURFTYPE
 70
     6
  9
$SURFU
 70
     6
  9
$SURFV
 70
     6
  9
$UCSBASE
  2

  9
$UCSNAME
  2

  9
$UCSORG
 10
0.0
 20
0.0
 30
0.0
  9
$UCSXDIR
 10
1.0
 20
0.0
 30
0.0
  9
$UCSYDIR
 10
0.0
 20
1.0
 30
0.0
  9
$UCSORTHOREF
  2

  9
$UCSORTHOVIEW
 70
     0
  9
$UCSORGTOP
 10
0.0
 20
0.0
 30
0.0
  9
$UCSORGBOTTOM
 10
0.0
 20
0.0
 30
0.0
  9
$UCSORGLEFT
 10
0.0
 20
0.0
 30
0.0
  9
$UCSORGRIGHT
 10
0.0
 20
0.0
 30
0.0
  9
$UCSORGFRONT
 10
0.0
 20
0.0
 30
0.0
  9
$UCSORGBACK
 10
0.0
 20
0.0
 30
0.0
  9
$PUCSBASE
  2

  9
$PUCSNAME
  2

  9
$PUCSORG
 10
0.0
 20
0.0
 30
0.0
  9
$PUCSXDIR
 10
1.0
 20
0.0
 30
0.0
  9
$PUCSYDIR
 10
0.0
 20
1.0
 30
0.0
  9
$PUCSORTHOREF
  2

  9
$PUCSORTHOVIEW
 70
     0
  9
$PUCSORGTOP
 10
0.0
 20
0.0
 30
0.0
  9
$PUCSORGBOTTOM
 10
0.0
 20
0.0
 30
0.0
  9
$PUCSORGLEFT
 10
0.0
 20
0.0
 30
0.0
  9
$PUCSORGRIGHT
 10
0.0
 20
0.0
 30
0.0
  9
$PUCSORGFRONT
 10
0.0
 20
0.0
 30
0.0
  9
$PUCSORGBACK
 10
0.0
 20
0.0
 30
0.0
  9
$USERI1
 70
     0
  9
$USERI2
 70
     0
  9
$USERI3
 70
     0
  9
$USERI4
 70
     0
  9
$USERI5
 70
     0
  9
$USERR1
 40
11.0
  9
$USERR2
 40
0.0
  9
$USERR3
 40
0.0
  9
$USERR4
 40
0.0
  9
$USERR5
 40
0.0
  9
$WORLDVIEW
 70
     1
  9
$SHADEDGE
 70
     3
  9
$SHADEDIF
 70
    70
  9
$TILEMODE
 70
     1
  9
$MAXACTVP
 70
    16
  9
$PINSBASE
 10
0.0
 20
0.0
 30
0.0
  9
$PLIMCHECK
 70
     0
  9
$PEXTMIN
 10
28.51784982681273
 20
19.82258291244505
 30
0.0
  9
$PEXTMAX
 10
256.6606484413147
 20
178.4032462120056
 30
0.0
  9
$PLIMMIN
 10
-5.873748779296875
 20
-5.873749732971191
  9
$PLIMMAX
 10
291.1369018554688
 20
204.141921043396
  9
$UNITMODE
 70
     0
  9
$VISRETAIN
 70
     0
  9
$PLINEGEN
 70
     1
  9
$PSLTSCALE
 70
     0
  9
$TREEDEPTH
 70
  3020
  9
$CMLSTYLE
  2
STANDARD
  9
$CMLJUST
 70
     0
  9
$CMLSCALE
 40
1.0
  9
$PROXYGRAPHICS
 70
     0
  9
$MEASUREMENT
 70
     1
  9
$CELWEIGHT
370
    -1
  9
$ENDCAPS
280
     0
  9
$JOINSTYLE
280
     0
  9
$LWDISPLAY
290
     0
  9
$INSUNITS
 70
     0
  9
$HYPERLINKBASE
  1

  9
$STYLESHEET
  1

  9
$XEDIT
290
     1
  9
$CEPSNTYPE
380
     0
  9
$PSTYLEMODE
290
     1
  9
$FINGERPRINTGUID
  2
{0D1D9CC0-65CD-4159-9D51-EDEF69A0E44B}
  9
$VERSIONGUID
  2
{3978A459-65D0-414B-BF81-62A5C97545A4}
  9
$EXTNAMES
290
     1
  9
$PSVPSCALE
 40
0.0
  9
$OLESTARTUP
290
     0
  0
ENDSEC
  0
SECTION
  2
CLASSES
  0
CLASS
  1
IMAGE
  2
AcDbRasterImage
  3
ISM
 90
    34943
280
     0
281
     1
  0
CLASS
  1
DICTIONARYVAR
  2
AcDbDictionaryVar
  3
ObjectDBX Classes
 90
        0
280
     0
281
     0
  0
CLASS
  1
RASTERVARIABLES
  2
AcDbRasterVariables
  3
ISM
 90
    32768
280
     0
281
     0
  0
CLASS
  1
IMAGEDEF
  2
AcDbRasterImageDef
  3
ISM
 90
    32768
280
     0
281
     0
  0
CLASS
  1
IMAGEDEF_REACTOR
  2
AcDbRasterImageDefReactor
  3
ISM
 90
    32769
280
     0
281
     0
  0
CLASS
  1
IDBUFFER
  2
AcDbIdBuffer
  3
ObjectDBX Classes
 90
    32768
280
     0
281
     0
  0
CLASS
  1
SPATIAL_FILTER
  2
AcDbSpatialFilter
  3
ObjectDBX Classes
 90
    32768
280
     0
281
     0
  0
CLASS
  1
SORTENTSTABLE
  2
AcDbSortentsTable
  3
ObjectDBX Classes
 90
    32768
280
     0
281
     0
  0
CLASS
  1
LAYER_INDEX
  2
AcDbLayerIndex
  3
ObjectDBX Classes
 90
    32768
280
     0
281
     0
  0
CLASS
  1
SPATIAL_INDEX
  2
AcDbSpatialIndex
  3
ObjectDBX Classes
 90
    32768
280
     0
281
     0
  0
CLASS
  1
OBJECT_PTR
  2
CAseDLPNTableRecord
  3
"ASE-LPNTableRecord"
 90
    32769
280
     0
281
     0
  0
CLASS
  1
LAYOUT
  2
AcDbLayout
  3
ObjectDBX Classes
 90
        0
280
     0
281
     0
  0
CLASS
  1
PLOTSETTINGS
  2
AcDbPlotSettings
  3
ObjectDBX Classes
 90
    32768
280
     0
281
     0
  0
CLASS
  1
ACDBDICTIONARYWDFLT
  2
AcDbDictionaryWithDefault
  3
ObjectDBX Classes
 90
        0
280
     0
281
     0
  0
CLASS
  1
ACDBPLACEHOLDER
  2
AcDbPlaceHolder
  3
ObjectDBX Classes
 90
        0
280
     0
281
     0
  0
CLASS
  1
VBA_PROJECT
  2
AcDbVbaProject
  3
acad
 90
    32768
280
     0
281
     0
  0
CLASS
  1
WIPEOUT
  2
AcDbWipeout
  3
"WipeOut|Product Desc: Object Enabler for WipeOut entity                        |Company: Autodesk, Inc.                        |WEB Address: www.autodesk.com"
 90
    34943
280
     0
281
     1
  0
CLASS
  1
WIPEOUTVARIABLES
  2
AcDbWipeoutVariables
  3
"WipeOut|Product Desc:     WipeOut Dbx Application|Company:          Autodesk, Inc.|WEB Address:      www.autodesk.com"
 90
    32768
280
     0
281
     0
  0
CLASS
  1
RTEXT
  2
RText
  3
RText|AutoCAD Express Tool|expresstools@autodesk.com
 90
    32768
280
     0
281
     1
  0
CLASS
  1
ARCALIGNEDTEXT
  2
AcDbArcAlignedText
  3
ATEXT|AutoCAD Express Tool|expresstools@autodesk.com
 90
    32768
280
     0
281
     1
  0
CLASS
  1
MATERIAL
  2
AcDbMaterial
  3
ObjectDBX Classes
 90
     1024
280
     0
281
     0
  0
CLASS
  1
VISUALSTYLE
  2
AcDbVisualStyle
  3
ObjectDBX Classes
 90
     4095
280
     0
281
     0
  0
CLASS
  1
TABLESTYLE
  2
AcDbTableStyle
  3
ObjectDBX Classes
 90
     4095
280
     0
281
     0
  0
ENDSEC
  0
SECTION
  2
TABLES
  0
TABLE
  2
VPORT
  5
7
330
0
100
AcDbSymbolTable
 70
     1
  0
VPORT
  5
15
330
7
100
AcDbSymbolTableRecord
100
AcDbViewportTableRecord
  2
*ACTIVE
 70
     0
 10
0.0
 20
0.0
 11
1.0
 21
1.0
 12
2301.439623947759
 22
340.8710067649987
 13
0.0
 23
0.0
 14
1.0
 24
1.0
 15
0.0
 25
0.0
 16
0.0
 26
0.0
 36
1.0
 17
0.0
 27
0.0
 37
0.0
 40
624.98760480615
 41
1.844522968197879
 42
50.0
 43
0.0
 44
0.0
 50
0.0
 51
0.0
 71
     0
 72
   100
 73
     1
 74
     1
 75
     0
 76
     0
 77
     0
 78
     0
281
     0
 65
     1
110
0.0
120
0.0
130
0.0
111
1.0
121
0.0
131
0.0
112
0.0
122
1.0
132
0.0
 79
     0
146
0.0
  0
ENDTAB
  0
TABLE
  2
LTYPE
  5
4
330
0
100
AcDbSymbolTable
 70
     8
  0
LTYPE
  5
11
330
4
100
AcDbSymbolTableRecord
100
AcDbLinetypeTableRecord
  2
BYBLOCK
 70
     0
  3

 72
    65
 73
     0
 40
0.0
  0
LTYPE
  5
12
330
4
100
AcDbSymbolTableRecord
100
AcDbLinetypeTableRecord
  2
BYLAYER
 70
     0
  3

 72
    65
 73
     0
 40
0.0
  0
LTYPE
  5
13
330
4
100
AcDbSymbolTableRecord
100
AcDbLinetypeTableRecord
  2
CONTINUOUS
 70
     0
  3
Solid line
 72
    65
 73
     0
 40
0.0
  0
LTYPE
  5
1D
330
4
100
AcDbSymbolTableRecord
100
AcDbLinetypeTableRecord
  2
DASHED
 70
     0
  3
Dashed
 72
    65
 73
     2
 40
15.0
 49
12.0
 74
     0
 49
-3.0
 74
     0
  0
LTYPE
  5
1E
330
4
100
AcDbSymbolTableRecord
100
AcDbLinetypeTableRecord
  2
DOTTED
 70
     0
  3
Dotted
 72
    65
 73
     2
 40
3.5
 49
0.5
 74
     0
 49
-3.0
 74
     0
  0
LTYPE
  5
1F
330
4
100
AcDbSymbolTableRecord
100
AcDbLinetypeTableRecord
  2
DOT_CENTER
 70
     0
  3
Dot_Center
 72
    65
 73
     4
 40
2.0
 49
1.25
 74
     0
 49
-0.25
 74
     0
 49
0.25
 74
     0
 49
-0.25
 74
     0
  0
LTYPE
  5
20
330
4
100
AcDbSymbolTableRecord
100
AcDbLinetypeTableRecord
  2
LONG_DASHED
 70
     0
  3
Long_Dashed
 72
    65
 73
     2
 40
2.0
 49
1.5
 74
     0
 49
-0.5
 74
     0
  0
LTYPE
  5
21
330
4
100
AcDbSymbolTableRecord
100
AcDbLinetypeTableRecord
  2
DASH_CENTER
 70
     0
  3
Dash_Center
 72
    65
 73
     4
 40
36.0
 49
24.0
 74
     0
 49
-3.0
 74
     0
 49
6.0
 74
     0
 49
-3.0
 74
     0
  0
LTYPE
  5
22
330
4
100
AcDbSymbolTableRecord
100
AcDbLinetypeTableRecord
  2
PHANTOM
 70
     0
  3
Phantom
 72
    65
 73
     6
 40
2.5
 49
1.25
 74
     0
 49
-0.25
 74
     0
 49
0.25
 74
     0
 49
-0.25
 74
     0
 49
0.25
 74
     0
 49
-0.25
 74
     0
  0
LTYPE
  5
23
330
4
100
AcDbSymbolTableRecord
100
AcDbLinetypeTableRecord
  2
CENTER_DASH_DASH
 70
     0
  3
Center_Dash_Dash
 72
    65
 73
     6
 40
22.0
 49
12.0
 74
     0
 49
-3.0
 74
     0
 49
0.5
 74
     0
 49
-3.0
 74
     0
 49
0.5
 74
     0
 49
-3.0
 74
     0
  0
ENDTAB
  0
TABLE
  2
LAYER
  5
2
102
{ACAD_XDICTIONARY
360
4F9
102
}
330
0
100
AcDbSymbolTable
 70
     3
  0
LAYER
  5
14
330
2
100
AcDbSymbolTableRecord
100
AcDbLayerTableRecord
  2
0
 70
     0
 62
     7
  6
CONTINUOUS
370
    -3
390
4D1
  0
LAYER
  5
24
330
2
100
AcDbSymbolTableRecord
100
AcDbLayerTableRecord
  2
1
 70
     0
 62
     7
  6
CONTINUOUS
370
    -3
390
4D1
  0
LAYER
  5
4FF
330
2
100
AcDbSymbolTableRecord
100
AcDbLayerTableRecord
  2
Defpoints
 70
     0
 62
     7
  6
CONTINUOUS
290
     0
370
    -3
390
4D1
  0
ENDTAB
  0
TABLE
  2
STYLE
  5
3
330
0
100
AcDbSymbolTable
 70
    14
  0
STYLE
  5
17
330
3
100
AcDbSymbolTableRecord
100
AcDbTextStyleTableRecord
  2
STANDARD
 70
     0
 40
0.0
 41
1.0
 50
0.0
 71
     0
 42
0.0
  3
txt
  4

  0
STYLE
  5
1B4
330
3
100
AcDbSymbolTableRecord
100
AcDbTextStyleTableRecord
  2
CONVERTER_1
 70
     0
 40
0.0
 41
0.89
 50
0.0
 71
     0
 42
0.0
  3
MS Mincho.ttf
  4

1001
ACAD
1000
MS Mincho
1071
    32785
  0
STYLE
  5
1B6
330
3
100
AcDbSymbolTableRecord
100
AcDbTextStyleTableRecord
  2
CONVERTER_2
 70
     0
 40
0.0
 41
0.855
 50
0.0
 71
     0
 42
0.0
  3
simplex.shx
  4

  0
STYLE
  5
1D3
330
3
100
AcDbSymbolTableRecord
100
AcDbTextStyleTableRecord
  2
CONVERTER_3
 70
     0
 40
0.0
 41
0.95
 50
0.0
 71
     0
 42
0.0
  3
simplex.shx
  4

  0
STYLE
  5
1E9
330
3
100
AcDbSymbolTableRecord
100
AcDbTextStyleTableRecord
  2
CONVERTER_4
 70
     0
 40
0.0
 41
0.6230000000000001
 50
0.0
 71
     0
 42
0.0
  3
MS Mincho.ttf
  4

1001
ACAD
1000
MS Mincho
1071
    32785
  0
STYLE
  5
3C6
330
3
100
AcDbSymbolTableRecord
100
AcDbTextStyleTableRecord
  2
CONVERTER_5
 70
     0
 40
0.0
 41
0.7565
 50
0.0
 71
     0
 42
0.0
  3
MS Mincho.ttf
  4

1001
ACAD
1000
MS Mincho
1071
    32785
  0
STYLE
  5
3E2
330
3
100
AcDbSymbolTableRecord
100
AcDbTextStyleTableRecord
  2
CONVERTER_6
 70
     0
 40
0.0
 41
0.475
 50
0.0
 71
     0
 42
0.0
  3
simplex.shx
  4

  0
STYLE
  5
3E4
330
3
100
AcDbSymbolTableRecord
100
AcDbTextStyleTableRecord
  2
CONVERTER_7
 70
     0
 40
0.0
 41
0.57
 50
0.0
 71
     0
 42
0.0
  3
simplex.shx
  4

  0
STYLE
  5
3F2
330
3
100
AcDbSymbolTableRecord
100
AcDbTextStyleTableRecord
  2
CONVERTER_8
 70
     0
 40
0.0
 41
1.08
 50
0.0
 71
     0
 42
0.0
  3
txt.shx
  4

  0
STYLE
  5
3F7
330
3
100
AcDbSymbolTableRecord
100
AcDbTextStyleTableRecord
  2
CONVERTER_9
 70
     0
 40
0.0
 41
0.9
 50
0.0
 71
     0
 42
0.0
  3
txt.shx
  4

  0
STYLE
  5
40C
330
3
100
AcDbSymbolTableRecord
100
AcDbTextStyleTableRecord
  2
CONVERTER_10
 70
     0
 40
0.0
 41
0.8009999999999999
 50
0.0
 71
     0
 42
0.0
  3
MS Mincho.ttf
  4

1001
ACAD
1000
MS Mincho
1071
    32785
  0
STYLE
  5
426
330
3
100
AcDbSymbolTableRecord
100
AcDbTextStyleTableRecord
  2
CONVERTER_11
 70
     0
 40
0.0
 41
0.76
 50
0.0
 71
     0
 42
0.0
  3
simplex.shx
  4

  0
STYLE
  5
42A
330
3
100
AcDbSymbolTableRecord
100
AcDbTextStyleTableRecord
  2
CONVERTER_12
 70
     0
 40
0.0
 41
0.7120000000000001
 50
0.0
 71
     0
 42
0.0
  3
MS Mincho.ttf
  4

1001
ACAD
1000
MS Mincho
1071
    32785
  0
STYLE
  5
437
330
3
100
AcDbSymbolTableRecord
100
AcDbTextStyleTableRecord
  2
CONVERTER_13
 70
     0
 40
0.0
 41
1.0
 50
0.0
 71
     0
 42
0.0
  3
txt.shx
  4

  0
ENDTAB
  0
TABLE
  2
VIEW
  5
5
330
0
100
AcDbSymbolTable
 70
     1
  0
ENDTAB
  0
TABLE
  2
UCS
  5
6
330
0
100
AcDbSymbolTable
 70
     0
  0
ENDTAB
  0
TABLE
  2
APPID
  5
8
330
0
100
AcDbSymbolTable
 70
     2
  0
APPID
  5
16
330
8
100
AcDbSymbolTableRecord
100
AcDbRegAppTableRecord
  2
ACAD
 70
     0
  0
APPID
  5
4F3
330
8
100
AcDbSymbolTableRecord
100
AcDbRegAppTableRecord
  2
ACAD_PSEXT
 70
     0
  0
ENDTAB
  0
TABLE
  2
DIMSTYLE
  5
9
330
0
100
AcDbSymbolTable
 70
    12
100
AcDbDimStyleTable
 71
     4
340
4BB
340
44D
340
492
340
18
  0
DIMSTYLE
105
18
330
9
100
AcDbSymbolTableRecord
100
AcDbDimStyleTableRecord
  2
STANDARD
 70
     0
340
17
  0
DIMSTYLE
105
440
102
{ACAD_REACTORS
330
441
102
}
330
9
100
AcDbSymbolTableRecord
100
AcDbDimStyleTableRecord
  2
ME10_DIM_0
 70
     0
 41
8.4
 42
2.1
 44
6.0
 73
     0
 74
     0
 77
     1
 78
     8
140
8.4
147
0.625
173
     1
176
     2
177
     2
178
     1
271
     2
340
17
341
43A
343
43A
344
43A
  0
DIMSTYLE
105
44D
102
{ACAD_REACTORS
330
54E
102
}
330
9
100
AcDbSymbolTableRecord
100
AcDbDimStyleTableRecord
  2
ME10_DIM_1
 70
     0
 41
9.0
 42
2.1
 44
6.0
 47
2.0
 48
2.0
 71
     1
 73
     0
 74
     0
 77
     1
 78
     8
140
9.0
146
0.9
147
0.625
173
     1
176
     2
177
     2
178
     2
271
     2
272
     0
340
17
341
43A
343
43A
344
43A
  0
DIMSTYLE
105
45C
102
{ACAD_REACTORS
330
45D
102
}
330
9
100
AcDbSymbolTableRecord
100
AcDbDimStyleTableRecord
  2
ME10_DIM_2
 70
     0
 41
9.0
 42
2.1
 44
6.0
 73
     0
 74
     0
 77
     1
 78
     8
140
9.0
147
0.625
173
     1
176
     2
177
     2
178
     2
271
     2
340
17
341
43A
343
43A
344
43A
  0
DIMSTYLE
105
46B
102
{ACAD_REACTORS
330
46C
102
}
330
9
100
AcDbSymbolTableRecord
100
AcDbDimStyleTableRecord
  2
ME10_DIM_3
 70
     0
 41
9.0
 42
2.1
 44
6.0
 73
     0
 74
     0
 77
     1
 78
     8
140
9.0
147
0.625
173
     1
176
     2
177
     2
178
     2
271
     2
340
17
341
43A
343
43A
344
43A
  0
DIMSTYLE
105
478
102
{ACAD_REACTORS
330
479
102
}
330
9
100
AcDbSymbolTableRecord
100
AcDbDimStyleTableRecord
  2
ME10_DIM_4
 70
     0
 41
9.0
 42
2.1
 44
6.0
 73
     0
 74
     0
 77
     1
 78
     8
140
9.0
147
0.625
173
     1
176
     2
177
     2
178
     2
271
     2
340
17
341
43A
343
43A
344
43A
  0
DIMSTYLE
105
485
102
{ACAD_REACTORS
330
486
102
}
330
9
100
AcDbSymbolTableRecord
100
AcDbDimStyleTableRecord
  2
ME10_DIM_5
 70
     0
 41
9.0
 42
2.1
 44
6.0
 73
     0
 74
     0
 77
     1
 78
     8
140
9.0
147
0.625
173
     1
176
     2
177
     2
178
     2
271
     2
340
17
341
43A
343
43A
344
43A
  0
DIMSTYLE
105
492
102
{ACAD_REACTORS
330
493
330
52B
102
}
330
9
100
AcDbSymbolTableRecord
100
AcDbDimStyleTableRecord
  2
ME10_DIM_6
 70
     0
 41
9.0
 42
2.1
 44
6.0
 73
     0
 74
     0
 77
     1
 78
     8
140
9.0
147
0.625
173
     1
176
     2
177
     2
178
     2
271
     2
340
17
341
43A
343
43A
344
43A
  0
DIMSTYLE
105
49F
102
{ACAD_REACTORS
330
4A0
102
}
330
9
100
AcDbSymbolTableRecord
100
AcDbDimStyleTableRecord
  2
ME10_DIM_7
 70
     0
 41
9.0
 42
2.1
 44
6.0
 73
     0
 74
     0
 77
     1
 78
     8
140
9.0
147
0.625
173
     1
176
     2
177
     2
178
     2
271
     2
340
17
341
43A
343
43A
344
43A
  0
DIMSTYLE
105
4AE
102
{ACAD_REACTORS
330
4AF
102
}
330
9
100
AcDbSymbolTableRecord
100
AcDbDimStyleTableRecord
  2
ME10_DIM_8
 70
     0
  3
(<>)
 41
9.0
 42
2.1
 44
6.0
 73
     0
 74
     0
 77
     1
 78
     8
140
9.0
147
0.625
173
     1
176
     2
177
     2
178
     2
271
     2
340
17
341
43A
343
43A
344
43A
  0
DIMSTYLE
105
4BB
102
{ACAD_REACTORS
330
56D
102
}
330
9
100
AcDbSymbolTableRecord
100
AcDbDimStyleTableRecord
  2
ME10_DIM_9
 70
     0
 41
9.0
 42
2.1
 44
6.0
 47
1.0
 48
1.0
 71
     1
 73
     0
 74
     0
 77
     1
 78
     8
140
9.0
146
0.9
147
0.625
173
     1
176
     2
177
     2
178
     2
271
     2
272
     0
340
17
341
43A
343
43A
344
43A
  0
DIMSTYLE
105
4C8
330
9
100
AcDbSymbolTableRecord
100
AcDbDimStyleTableRecord
  2
ME10_DIM_10
 70
     0
 41
7.5
 42
2.1
 44
6.0
 47
1.0
 48
1.0
 71
     1
 73
     0
 74
     0
 77
     1
 78
     8
140
7.5
146
0.9
147
0.625
173
     1
176
     2
177
     2
178
     2
271
     2
272
     0
340
17
341
43A
343
43A
344
43A
  0
ENDTAB
  0
TABLE
  2
BLOCK_RECORD
  5
1
330
0
100
AcDbSymbolTable
 70
    25
  0
BLOCK_RECORD
  5
A
330
1
100
AcDbSymbolTableRecord
100
AcDbBlockTableRecord
  2
*MODEL_SPACE
340
4ED
  0
BLOCK_RECORD
  5
B
330
1
100
AcDbSymbolTableRecord
100
AcDbBlockTableRecord
  2
*PAPER_SPACE
340
4EE
  0
BLOCK_RECORD
  5
25
330
1
100
AcDbSymbolTableRecord
100
AcDbBlockTableRecord
  2
M3
340
0
  0
BLOCK_RECORD
  5
27
330
1
100
AcDbSymbolTableRecord
100
AcDbBlockTableRecord
  2
37134-8000-G000
340
0
102
{BLKREFS
331
2B
102
}
  0
BLOCK_RECORD
  5
29
330
1
100
AcDbSymbolTableRecord
100
AcDbBlockTableRecord
  2
38316-8003-0000
340
0
102
{BLKREFS
331
3F
102
}
  0
BLOCK_RECORD
  5
2C
330
1
100
AcDbSymbolTableRecord
100
AcDbBlockTableRecord
  2
PRN_K_A3__1
340
0
102
{BLKREFS
331
30
102
}
  0
BLOCK_RECORD
  5
2E
330
1
100
AcDbSymbolTableRecord
100
AcDbBlockTableRecord
  2
TOP__2
340
0
102
{BLKREFS
331
33
102
}
  0
BLOCK_RECORD
  5
31
330
1
100
AcDbSymbolTableRecord
100
AcDbBlockTableRecord
  2
TOP__3
340
0
102
{BLKREFS
331
36
102
}
  0
BLOCK_RECORD
  5
34
330
1
100
AcDbSymbolTableRecord
100
AcDbBlockTableRecord
  2
TOP__4
340
0
102
{BLKREFS
331
39
102
}
  0
BLOCK_RECORD
  5
37
330
1
100
AcDbSymbolTableRecord
100
AcDbBlockTableRecord
  2
TOP__5
340
0
  0
BLOCK_RECORD
  5
3A
330
1
100
AcDbSymbolTableRecord
100
AcDbBlockTableRecord
  2
PRN_K_A3__6
340
0
  0
BLOCK_RECORD
  5
42C
330
1
100
AcDbSymbolTableRecord
100
AcDbBlockTableRecord
  2
*D9
340
0
  0
BLOCK_RECORD
  5
43A
330
1
100
AcDbSymbolTableRecord
100
AcDbBlockTableRecord
  2
_OPEN30
340
0
102
{BLKREFS
331
505
331
506
331
53B
331
53C
331
567
331
568
331
586
331
587
102
}
  0
BLOCK_RECORD
  5
442
330
1
100
AcDbSymbolTableRecord
100
AcDbBlockTableRecord
  2
*D11
340
0
  0
BLOCK_RECORD
  5
44F
330
1
100
AcDbSymbolTableRecord
100
AcDbBlockTableRecord
  2
*D12
340
0
  0
BLOCK_RECORD
  5
45E
330
1
100
AcDbSymbolTableRecord
100
AcDbBlockTableRecord
  2
*D13
340
0
  0
BLOCK_RECORD
  5
46D
330
1
100
AcDbSymbolTableRecord
100
AcDbBlockTableRecord
  2
*D14
340
0
  0
BLOCK_RECORD
  5
47A
330
1
100
AcDbSymbolTableRecord
100
AcDbBlockTableRecord
  2
*D15
340
0
  0
BLOCK_RECORD
  5
487
330
1
100
AcDbSymbolTableRecord
100
AcDbBlockTableRecord
  2
*D16
340
0
  0
BLOCK_RECORD
  5
494
330
1
100
AcDbSymbolTableRecord
100
AcDbBlockTableRecord
  2
*D17
340
0
  0
BLOCK_RECORD
  5
4A1
330
1
100
AcDbSymbolTableRecord
100
AcDbBlockTableRecord
  2
*D18
340
0
  0
BLOCK_RECORD
  5
4B0
330
1
100
AcDbSymbolTableRecord
100
AcDbBlockTableRecord
  2
*D19
340
0
  0
BLOCK_RECORD
  5
4BD
330
1
100
AcDbSymbolTableRecord
100
AcDbBlockTableRecord
  2
*D20
340
0
  0
BLOCK_RECORD
  5
500
330
1
100
AcDbSymbolTableRecord
100
AcDbBlockTableRecord
  2
*D21
340
0
  0
BLOCK_RECORD
  5
52C
330
1
100
AcDbSymbolTableRecord
100
AcDbBlockTableRecord
  2
*D22
340
0
  0
BLOCK_RECORD
  5
54F
330
1
100
AcDbSymbolTableRecord
100
AcDbBlockTableRecord
  2
*D23
340
0
  0
BLOCK_RECORD
  5
56E
330
1
100
AcDbSymbolTableRecord
100
AcDbBlockTableRecord
  2
*D24
340
0
  0
ENDTAB
  0
ENDSEC
  0
SECTION
  2
BLOCKS
  0
BLOCK
  5
D
330
A
100
AcDbEntity
  8
0
100
AcDbBlockBegin
  2
*MODEL_SPACE
 70
     0
 10
0.0
 20
0.0
 30
0.0
  3
*MODEL_SPACE
  1

  0
ENDBLK
  5
E
330
A
100
AcDbEntity
  8
0
100
AcDbBlockEnd
  0
BLOCK
  5
F
330
B
100
AcDbEntity
 67
     1
  8
0
100
AcDbBlockBegin
  2
*PAPER_SPACE
 70
     0
 10
0.0
 20
0.0
 30
0.0
  3
*PAPER_SPACE
  1

  0
ENDBLK
  5
10
330
B
100
AcDbEntity
 67
     1
  8
0
100
AcDbBlockEnd
  0
BLOCK
  5
26
330
25
100
AcDbEntity
  8
0
100
AcDbBlockBegin
  2
M3
 70
     0
 10
2566.85698923406
 20
151.312373194261
 30
0.0
  3
M3
  1

  0
ARC
  5
C5
330
25
100
AcDbEntity
  8
1
  6
Continuous
 62
     2
100
AcDbCircle
 10
2564.917869092436
 20
149.562373194261
 30
0.0
 40
0.99999999999978
100
AcDbArc
 50
-163.0422366999908
 51
-90.0
  0
ARC
  5
C4
330
25
100
AcDbEntity
  8
1
  6
Continuous
 62
     2
100
AcDbCircle
 10
2564.917869092436
 20
153.062373194261
 30
0.0
 40
1.0
100
AcDbArc
 50
90.0
 51
163.0422366999892
  0
ARC
  5
C3
330
25
100
AcDbEntity
  8
1
  6
Continuous
 62
     2
100
AcDbCircle
 10
2513.265175424484
 20
153.062373194261
 30
0.0
 40
1.00000000000022
100
AcDbArc
 50
16.95776330000314
 51
90.0
  0
ARC
  5
C2
330
25
100
AcDbEntity
  8
1
  6
Continuous
 62
     2
100
AcDbCircle
 10
2513.265175424484
 20
149.562373194261
 30
0.0
 40
1.0
100
AcDbArc
 50
-90.0
 51
-16.95776330000158
  0
ARC
  5
C1
330
25
100
AcDbEntity
  8
1
  6
Continuous
 62
     2
100
AcDbCircle
 10
2509.850208482945
 20
287.1110361827239
 30
0.0
 40
1.0
100
AcDbArc
 50
-90.0
 51
-16.9577633000123
  0
ARC
  5
C0
330
25
100
AcDbEntity
  8
1
  6
Continuous
 62
     2
100
AcDbCircle
 10
2509.850208482945
 20
290.6110361827239
 30
0.0
 40
0.99999999999978
100
AcDbArc
 50
16.95776330000918
 51
90.0
  0
ARC
  5
BF
330
25
100
AcDbEntity
  8
1
  6
Continuous
 62
     2
100
AcDbCircle
 10
2509.850208482947
 20
284.1110361825471
 30
0.0
 40
1.0
100
AcDbArc
 50
-90.0
 51
-16.95776330001542
  0
ARC
  5
BE
330
25
100
AcDbEntity
  8
1
  6
Continuous
 62
     2
100
AcDbCircle
 10
2509.850208482947
 20
522.6023853306432
 30
0.0
 40
0.99999999999979
100
AcDbArc
 50
16.9577633000123
 51
90.0
  0
ARC
  5
BD
330
25
100
AcDbEntity
  8
1
  6
Continuous
 62
     2
100
AcDbCircle
 10
2509.850208482945
 20
516.9110361824756
 30
0.0
 40
1.0
100
AcDbArc
 50
-90.0
 51
-16.95776330000607
  0
ARC
  5
BC
330
25
100
AcDbEntity
  8
1
  6
Continuous
 62
     2
100
AcDbCircle
 10
2509.850208482945
 20
520.4110361824756
 30
0.0
 40
0.99999999999976
100
AcDbArc
 50
16.95776330000607
 51
90.0
  0
ARC
  5
BB
330
25
100
AcDbEntity
  8
1
  6
Continuous
 62
     2
100
AcDbCircle
 10
1892.5719681997
 20
520.4110361824756
 30
0.0
 40
1.0
100
AcDbArc
 50
90.0
 51
163.0422366999977
  0
ARC
  5
BA
330
25
100
AcDbEntity
  8
1
  6
Continuous
 62
     2
100
AcDbCircle
 10
1892.5719681997
 20
516.9110361824756
 30
0.0
 40
0.9999999999999801
100
AcDbArc
 50
-163.0422366999977
 51
-90.0
  0
ARC
  5
B9
330
25
100
AcDbEntity
  8
1
  6
Continuous
 62
     2
100
AcDbCircle
 10
1892.571968199699
 20
522.6023853306432
 30
0.0
 40
1.0
100
AcDbArc
 50
90.0
 51
163.0422366999763
  0
ARC
  5
B8
330
25
100
AcDbEntity
  8
1
  6
Continuous
 62
     2
100
AcDbCircle
 10
1892.571968199699
 20
284.1110361825471
 30
0.0
 40
0.9999999999991599
100
AcDbArc
 50
-163.0422366999732
 51
-90.0
  0
ARC
  5
B7
330
25
100
AcDbEntity
  8
1
  6
Continuous
 62
     2
100
AcDbCircle
 10
1892.5719681997
 20
290.6110361827239
 30
0.0
 40
1.0
100
AcDbArc
 50
90.0
 51
163.0422366999946
  0
ARC
  5
B6
330
25
100
AcDbEntity
  8
1
  6
Continuous
 62
     2
100
AcDbCircle
 10
1892.5719681997
 20
287.1110361827239
 30
0.0
 40
1.000000000000009
100
AcDbArc
 50
-163.0422366999915
 51
-90.0
  0
CIRCLE
  5
B5
330
25
100
AcDbEntity
  8
1
  6
Continuous
 62
     2
100
AcDbCircle
 10
2553.367777449258
 20
151.312373194261
 30
0.0
 40
3.00000000000091
  0
CIRCLE
  5
B4
330
25
100
AcDbEntity
  8
1
  6
Continuous
 62
     2
100
AcDbCircle
 10
2553.367777449258
 20
151.312373194261
 30
0.0
 40
2.7650474404289
  0
CIRCLE
  5
B3
330
25
100
AcDbEntity
  8
1
  6
Continuous
 62
     2
100
AcDbCircle
 10
2524.815267067662
 20
151.312373194261
 30
0.0
 40
2.7650474404289
  0
CIRCLE
  5
B2
330
25
100
AcDbEntity
  8
1
  6
Continuous
 62
     2
100
AcDbCircle
 10
2524.815267067662
 20
151.312373194261
 30
0.0
 40
3.00000000000091
  0
ARC
  5
B1
330
25
100
AcDbEntity
  8
1
  6
Continuous
 62
     2
100
AcDbCircle
 10
2570.65698923406
 20
151.312373194261
 30
0.0
 40
6.999999999999279
100
AcDbArc
 50
163.0422366999936
 51
-163.0422366999939
  0
ARC
  5
B0
330
25
100
AcDbEntity
  8
1
  6
Continuous
 62
     2
100
AcDbCircle
 10
2507.52605528286
 20
151.312373194261
 30
0.0
 40
6.99999999999971
100
AcDbArc
 50
-16.95776330000504
 51
16.95776330000526
  0
ARC
  5
AF
330
25
100
AcDbEntity
  8
1
  6
Continuous
 62
     2
100
AcDbCircle
 10
2504.11108834132
 20
288.8610361827239
 30
0.0
 40
7.000000000000589
100
AcDbArc
 50
-16.95776330000331
 51
16.95776330000287
  0
ARC
  5
AE
330
25
100
AcDbEntity
  8
1
  6
Continuous
 62
     2
100
AcDbCircle
 10
2504.111088341321
 20
285.8610361825471
 30
0.0
 40
7.00000000000018
100
AcDbArc
 50
-16.95776330000484
 51
0.0
  0
ARC
  5
AD
330
25
100
AcDbEntity
  8
1
  6
Continuous
 62
     2
100
AcDbCircle
 10
2504.111088341321
 20
520.8523853306432
 30
0.0
 40
6.99999999999864
100
AcDbArc
 50
0.0
 51
16.9577633000044
  0
ARC
  5
AC
330
25
100
AcDbEntity
  8
1
  6
Continuous
 62
     2
100
AcDbCircle
 10
2504.11108834132
 20
518.6610361824756
 30
0.0
 40
7.000000000000558
100
AcDbArc
 50
-16.95776330000242
 51
16.95776330000242
  0
ARC
  5
AB
330
25
100
AcDbEntity
  8
1
  6
Continuous
 62
     2
100
AcDbCircle
 10
1898.311088341325
 20
518.6610361824756
 30
0.0
 40
7.000000000000558
100
AcDbArc
 50
163.0422366999976
 51
-163.0422366999976
  0
ARC
  5
AA
330
25
100
AcDbEntity
  8
1
  6
Continuous
 62
     2
100
AcDbCircle
 10
1898.311088341324
 20
520.8523853306432
 30
0.0
 40
6.999999999999509
100
AcDbArc
 50
163.0422366999939
 51
180.0
  0
ARC
  5
A9
330
25
100
AcDbEntity
  8
1
  6
Continuous
 62
     2
100
AcDbCircle
 10
1898.311088341324
 20
285.8610361825471
 30
0.0
 40
6.99999999999886
100
AcDbArc
 50
180.0
 51
-163.0422366999935
  0
ARC
  5
A8
330
25
100
AcDbEntity
  8
1
  6
Continuous
 62
     2
100
AcDbCircle
 10
1898.311088341325
 20
288.8610361827239
 30
0.0
 40
7.00000000000058
100
AcDbArc
 50
163.0422366999971
 51
-163.0422366999967
  0
LINE
  5
A7
330
25
100
AcDbEntity
  8
1
  6
Continuous
 62
     2
100
AcDbLine
 10
2566.85698923406
 20
149.812373194261
 30
0.0
 11
2571.65698923406
 21
149.812373194261
 31
0.0
  0
LINE
  5
A6
330
25
100
AcDbEntity
  8
1
  6
Continuous
 62
     2
100
AcDbLine
 10
2566.85698923406
 20
152.812373194261
 30
0.0
 11
2571.65698923406
 21
152.812373194261
 31
0.0
  0
LINE
  5
A5
330
25
100
AcDbEntity
  8
1
  6
Continuous
 62
     2
100
AcDbLine
 10
2566.85698923406
 20
148.312373194261
 30
0.0
 11
2566.356989234061
 21
148.312373194261
 31
0.0
  0
LINE
  5
A4
330
25
100
AcDbEntity
  8
1
  6
Continuous
 62
     2
100
AcDbLine
 10
2566.356989234061
 20
154.312373194261
 30
0.0
 11
2566.85698923406
 21
154.312373194261
 31
0.0
  0
LINE
  5
A3
330
25
100
AcDbEntity
  8
1
  6
Continuous
 62
     2
100
AcDbLine
 10
2566.356989234061
 20
154.312373194261
 30
0.0
 11
2566.356989234061
 21
148.312373194261
 31
0.0
  0
LINE
  5
A2
330
25
100
AcDbEntity
  8
1
  6
Continuous
 62
     2
100
AcDbLine
 10
2554.605214316335
 20
150.0749363271845
 30
0.0
 11
2552.130340582182
 21
152.5498100613374
 31
0.0
  0
LINE
  5
A1
330
25
100
AcDbEntity
  8
1
  6
Continuous
 62
     2
100
AcDbLine
 10
2552.130340582182
 20
150.0749363271845
 30
0.0
 11
2554.605214316335
 21
152.5498100613374
 31
0.0
  0
LINE
  5
A0
330
25
100
AcDbEntity
  8
1
  6
Continuous
 62
     2
100
AcDbLine
 10
2565.65698923406
 20
154.062373194261
 30
0.0
 11
2565.65698923406
 21
148.562373194261
 31
0.0
  0
LINE
  5
9F
330
25
100
AcDbEntity
  8
1
  6
Continuous
 62
     2
100
AcDbLine
 10
2571.65698923406
 20
149.812373194261
 30
0.0
 11
2571.65698923406
 21
152.812373194261
 31
0.0
  0
LINE
  5
9E
330
25
100
AcDbEntity
  8
1
  6
DOT_CENTER
 62
     4
100
AcDbLine
 10
2561.713799378473
 20
151.312373194261
 30
0.0
 11
2572.355164073546
 21
151.312373194261
 31
0.0
  0
LINE
  5
9D
330
25
100
AcDbEntity
  8
1
  6
Continuous
 62
     2
100
AcDbLine
 10
2564.917869092436
 20
154.062373194261
 30
0.0
 11
2566.356989234061
 21
154.062373194261
 31
0.0
  0
LINE
  5
9C
330
25
100
AcDbEntity
  8
1
  6
Continuous
 62
     2
100
AcDbLine
 10
2564.917869092436
 20
148.562373194261
 30
0.0
 11
2566.356989234061
 21
148.562373194261
 31
0.0
  0
LINE
  5
9B
330
25
100
AcDbEntity
  8
1
  6
Continuous
 62
     4
100
AcDbLine
 10
2566.85698923406
 20
154.312373194261
 30
0.0
 11
2566.85698923406
 21
148.312373194261
 31
0.0
  0
LINE
  5
9A
330
25
100
AcDbEntity
  8
1
  6
Continuous
 62
     4
100
AcDbLine
 10
2511.32605528286
 20
148.312373194261
 30
0.0
 11
2511.32605528286
 21
154.312373194261
 31
0.0
  0
LINE
  5
99
330
25
100
AcDbEntity
  8
1
  6
Continuous
 62
     2
100
AcDbLine
 10
2511.82605528286
 20
148.562373194261
 30
0.0
 11
2513.265175424484
 21
148.562373194261
 31
0.0
  0
LINE
  5
98
330
25
100
AcDbEntity
  8
1
  6
Continuous
 62
     2
100
AcDbLine
 10
2511.82605528286
 20
154.062373194261
 30
0.0
 11
2513.265175424484
 21
154.062373194261
 31
0.0
  0
LINE
  5
97
330
25
100
AcDbEntity
  8
1
  6
DOT_CENTER
 62
     4
100
AcDbLine
 10
2505.827880443374
 20
151.312373194261
 30
0.0
 11
2516.469245138447
 21
151.312373194261
 31
0.0
  0
LINE
  5
96
330
25
100
AcDbEntity
  8
1
  6
Continuous
 62
     2
100
AcDbLine
 10
2506.52605528286
 20
152.812373194261
 30
0.0
 11
2506.52605528286
 21
149.812373194261
 31
0.0
  0
LINE
  5
95
330
25
100
AcDbEntity
  8
1
  6
Continuous
 62
     2
100
AcDbLine
 10
2512.52605528286
 20
148.562373194261
 30
0.0
 11
2512.52605528286
 21
154.062373194261
 31
0.0
  0
LINE
  5
94
330
25
100
AcDbEntity
  8
1
  6
Continuous
 62
     2
100
AcDbLine
 10
2523.577830200585
 20
152.5498100613374
 30
0.0
 11
2526.052703934738
 21
150.0749363271845
 31
0.0
  0
LINE
  5
93
330
25
100
AcDbEntity
  8
1
  6
Continuous
 62
     2
100
AcDbLine
 10
2526.052703934738
 20
152.5498100613374
 30
0.0
 11
2523.577830200585
 21
150.0749363271845
 31
0.0
  0
LINE
  5
92
330
25
100
AcDbEntity
  8
1
  6
Continuous
 62
     2
100
AcDbLine
 10
2511.82605528286
 20
148.312373194261
 30
0.0
 11
2511.82605528286
 21
154.312373194261
 31
0.0
  0
LINE
  5
91
330
25
100
AcDbEntity
  8
1
  6
Continuous
 62
     2
100
AcDbLine
 10
2511.32605528286
 20
154.312373194261
 30
0.0
 11
2511.82605528286
 21
154.312373194261
 31
0.0
  0
LINE
  5
90
330
25
100
AcDbEntity
  8
1
  6
Continuous
 62
     2
100
AcDbLine
 10
2511.82605528286
 20
148.312373194261
 30
0.0
 11
2511.32605528286
 21
148.312373194261
 31
0.0
  0
LINE
  5
8F
330
25
100
AcDbEntity
  8
1
  6
Continuous
 62
     2
100
AcDbLine
 10
2506.52605528286
 20
152.812373194261
 30
0.0
 11
2511.32605528286
 21
152.812373194261
 31
0.0
  0
LINE
  5
8E
330
25
100
AcDbEntity
  8
1
  6
Continuous
 62
     2
100
AcDbLine
 10
2506.52605528286
 20
149.812373194261
 30
0.0
 11
2511.32605528286
 21
149.812373194261
 31
0.0
  0
LINE
  5
8D
330
25
100
AcDbEntity
  8
1
  6
Continuous
 62
     2
100
AcDbLine
 10
2503.11108834132
 20
287.3610361827239
 30
0.0
 11
2507.911088341321
 21
287.3610361827239
 31
0.0
  0
LINE
  5
8C
330
25
100
AcDbEntity
  8
1
  6
Continuous
 62
     2
100
AcDbLine
 10
2503.11108834132
 20
290.3610361827239
 30
0.0
 11
2507.911088341321
 21
290.3610361827239
 31
0.0
  0
LINE
  5
8B
330
25
100
AcDbEntity
  8
1
  6
Continuous
 62
     2
100
AcDbLine
 10
2508.411088341321
 20
285.8610361827239
 30
0.0
 11
2507.911088341321
 21
285.8610361827239
 31
0.0
  0
LINE
  5
8A
330
25
100
AcDbEntity
  8
1
  6
Continuous
 62
     2
100
AcDbLine
 10
2507.911088341321
 20
291.8610361827239
 30
0.0
 11
2508.411088341321
 21
291.8610361827239
 31
0.0
  0
LINE
  5
89
330
25
100
AcDbEntity
  8
1
  6
Continuous
 62
     2
100
AcDbLine
 10
2508.411088341321
 20
285.8610361827239
 30
0.0
 11
2508.411088341321
 21
291.8610361827239
 31
0.0
  0
LINE
  5
88
330
25
100
AcDbEntity
  8
1
  6
Continuous
 62
     2
100
AcDbLine
 10
2509.11108834132
 20
286.1110361827239
 30
0.0
 11
2509.11108834132
 21
291.6110361827239
 31
0.0
  0
LINE
  5
87
330
25
100
AcDbEntity
  8
1
  6
Continuous
 62
     2
100
AcDbLine
 10
2503.11108834132
 20
290.3610361827239
 30
0.0
 11
2503.11108834132
 21
287.3610361827239
 31
0.0
  0
LINE
  5
86
330
25
100
AcDbEntity
  8
1
  6
DOT_CENTER
 62
     4
100
AcDbLine
 10
2502.412913501834
 20
288.8610361827239
 30
0.0
 11
2513.054278196907
 21
288.8610361827239
 31
0.0
  0
LINE
  5
85
330
25
100
AcDbEntity
  8
1
  6
Continuous
 62
     2
100
AcDbLine
 10
2508.411088341321
 20
291.6110361827239
 30
0.0
 11
2509.850208482945
 21
291.6110361827239
 31
0.0
  0
LINE
  5
84
330
25
100
AcDbEntity
  8
1
  6
Continuous
 62
     2
100
AcDbLine
 10
2508.411088341321
 20
286.1110361827239
 30
0.0
 11
2509.850208482945
 21
286.1110361827239
 31
0.0
  0
LINE
  5
83
330
25
100
AcDbEntity
  8
1
  6
Continuous
 62
     4
100
AcDbLine
 10
2507.911088341321
 20
285.8610361827239
 30
0.0
 11
2507.911088341321
 21
291.8610361827239
 31
0.0
  0
LINE
  5
82
330
25
100
AcDbEntity
  8
1
  6
Continuous
 62
     4
100
AcDbLine
 10
2507.911088341321
 20
282.8610361825471
 30
0.0
 11
2507.911088341321
 21
285.8610361825471
 31
0.0
  0
LINE
  5
81
330
25
100
AcDbEntity
  8
1
  6
Continuous
 62
     2
100
AcDbLine
 10
2508.411088341321
 20
283.1110361825471
 30
0.0
 11
2509.850208482947
 21
283.1110361825471
 31
0.0
  0
LINE
  5
80
330
25
100
AcDbEntity
  8
1
  6
DOT_CENTER
 62
     4
100
AcDbLine
 10
2502.412913501834
 20
285.8610361825471
 30
0.0
 11
2513.054278196908
 21
285.8610361825471
 31
0.0
  0
LINE
  5
7F
330
25
100
AcDbEntity
  8
1
  6
Continuous
 62
     2
100
AcDbLine
 10
2509.111088341321
 20
283.1110361825471
 30
0.0
 11
2509.111088341321
 21
285.8610361825471
 31
0.0
  0
LINE
  5
7E
330
25
100
AcDbEntity
  8
1
  6
Continuous
 62
     2
100
AcDbLine
 10
2508.411088341321
 20
282.8610361825471
 30
0.0
 11
2508.411088341321
 21
285.8610361825471
 31
0.0
  0
LINE
  5
7D
330
25
100
AcDbEntity
  8
1
  6
Continuous
 62
     2
100
AcDbLine
 10
2508.411088341321
 20
282.8610361825471
 30
0.0
 11
2507.911088341321
 21
282.8610361825471
 31
0.0
  0
LINE
  5
7C
330
25
100
AcDbEntity
  8
1
  6
Continuous
 62
     2
100
AcDbLine
 10
2503.111088341321
 20
284.3610361825471
 30
0.0
 11
2507.911088341321
 21
284.3610361825471
 31
0.0
  0
LINE
  5
7B
330
25
100
AcDbEntity
  8
1
  6
Continuous
 62
     2
100
AcDbLine
 10
2503.111088341321
 20
285.8610361825471
 30
0.0
 11
2503.111088341321
 21
284.3610361825471
 31
0.0
  0
LINE
  5
7A
330
25
100
AcDbEntity
  8
1
  6
Continuous
 62
     2
100
AcDbLine
 10
2503.111088341321
 20
522.3523853306431
 30
0.0
 11
2503.111088341321
 21
520.8523853306432
 31
0.0
  0
LINE
  5
79
330
25
100
AcDbEntity
  8
1
  6
Continuous
 62
     2
100
AcDbLine
 10
2507.911088341321
 20
522.3523853306431
 30
0.0
 11
2503.111088341321
 21
522.3523853306431
 31
0.0
  0
LINE
  5
78
330
25
100
AcDbEntity
  8
1
  6
Continuous
 62
     2
100
AcDbLine
 10
2507.911088341321
 20
523.8523853306431
 30
0.0
 11
2508.411088341321
 21
523.8523853306431
 31
0.0
  0
LINE
  5
77
330
25
100
AcDbEntity
  8
1
  6
Continuous
 62
     2
100
AcDbLine
 10
2508.411088341321
 20
520.8523853306432
 30
0.0
 11
2508.411088341321
 21
523.8523853306431
 31
0.0
  0
LINE
  5
76
330
25
100
AcDbEntity
  8
1
  6
Continuous
 62
     2
100
AcDbLine
 10
2509.111088341321
 20
520.8523853306432
 30
0.0
 11
2509.111088341321
 21
523.6023853306432
 31
0.0
  0
LINE
  5
75
330
25
100
AcDbEntity
  8
1
  6
DOT_CENTER
 62
     4
100
AcDbLine
 10
2513.054278196908
 20
520.8523853306432
 30
0.0
 11
2502.412913501834
 21
520.8523853306432
 31
0.0
  0
LINE
  5
74
330
25
100
AcDbEntity
  8
1
  6
Continuous
 62
     2
100
AcDbLine
 10
2509.850208482947
 20
523.6023853306432
 30
0.0
 11
2508.411088341321
 21
523.6023853306432
 31
0.0
  0
LINE
  5
73
330
25
100
AcDbEntity
  8
1
  6
Continuous
 62
     4
100
AcDbLine
 10
2507.911088341321
 20
520.8523853306432
 30
0.0
 11
2507.911088341321
 21
523.8523853306431
 31
0.0
  0
LINE
  5
72
330
25
100
AcDbEntity
  8
1
  6
Continuous
 62
     4
100
AcDbLine
 10
2507.911088341321
 20
515.6610361824756
 30
0.0
 11
2507.911088341321
 21
521.6610361824756
 31
0.0
  0
LINE
  5
71
330
25
100
AcDbEntity
  8
1
  6
Continuous
 62
     2
100
AcDbLine
 10
2509.850208482945
 20
521.4110361824756
 30
0.0
 11
2508.411088341321
 21
521.4110361824756
 31
0.0
  0
LINE
  5
70
330
25
100
AcDbEntity
  8
1
  6
Continuous
 62
     2
100
AcDbLine
 10
2509.850208482945
 20
515.9110361824756
 30
0.0
 11
2508.411088341321
 21
515.9110361824756
 31
0.0
  0
LINE
  5
6F
330
25
100
AcDbEntity
  8
1
  6
DOT_CENTER
 62
     4
100
AcDbLine
 10
2513.054278196907
 20
518.6610361824756
 30
0.0
 11
2502.412913501834
 21
518.6610361824756
 31
0.0
  0
LINE
  5
6E
330
25
100
AcDbEntity
  8
1
  6
Continuous
 62
     2
100
AcDbLine
 10
2503.11108834132
 20
520.1610361824756
 30
0.0
 11
2503.11108834132
 21
517.1610361824756
 31
0.0
  0
LINE
  5
6D
330
25
100
AcDbEntity
  8
1
  6
Continuous
 62
     2
100
AcDbLine
 10
2509.11108834132
 20
515.9110361824756
 30
0.0
 11
2509.11108834132
 21
521.4110361824756
 31
0.0
  0
LINE
  5
6C
330
25
100
AcDbEntity
  8
1
  6
Continuous
 62
     2
100
AcDbLine
 10
2508.411088341321
 20
515.6610361824756
 30
0.0
 11
2508.411088341321
 21
521.6610361824756
 31
0.0
  0
LINE
  5
6B
330
25
100
AcDbEntity
  8
1
  6
Continuous
 62
     2
100
AcDbLine
 10
2508.411088341321
 20
515.6610361824756
 30
0.0
 11
2507.911088341321
 21
515.6610361824756
 31
0.0
  0
LINE
  5
6A
330
25
100
AcDbEntity
  8
1
  6
Continuous
 62
     2
100
AcDbLine
 10
2507.911088341321
 20
521.6610361824756
 30
0.0
 11
2508.411088341321
 21
521.6610361824756
 31
0.0
  0
LINE
  5
69
330
25
100
AcDbEntity
  8
1
  6
Continuous
 62
     2
100
AcDbLine
 10
2507.911088341321
 20
517.1610361824756
 30
0.0
 11
2503.11108834132
 21
517.1610361824756
 31
0.0
  0
LINE
  5
68
330
25
100
AcDbEntity
  8
1
  6
Continuous
 62
     2
100
AcDbLine
 10
2507.911088341321
 20
520.1610361824756
 30
0.0
 11
2503.11108834132
 21
520.1610361824756
 31
0.0
  0
LINE
  5
67
330
25
100
AcDbEntity
  8
1
  6
Continuous
 62
     2
100
AcDbLine
 10
1899.311088341325
 20
520.1610361824756
 30
0.0
 11
1894.511088341324
 21
520.1610361824756
 31
0.0
  0
LINE
  5
66
330
25
100
AcDbEntity
  8
1
  6
Continuous
 62
     2
100
AcDbLine
 10
1899.311088341325
 20
517.1610361824756
 30
0.0
 11
1894.511088341324
 21
517.1610361824756
 31
0.0
  0
LINE
  5
65
330
25
100
AcDbEntity
  8
1
  6
Continuous
 62
     2
100
AcDbLine
 10
1894.011088341325
 20
521.6610361824756
 30
0.0
 11
1894.511088341324
 21
521.6610361824756
 31
0.0
  0
LINE
  5
64
330
25
100
AcDbEntity
  8
1
  6
Continuous
 62
     2
100
AcDbLine
 10
1894.511088341324
 20
515.6610361824756
 30
0.0
 11
1894.011088341325
 21
515.6610361824756
 31
0.0
  0
LINE
  5
63
330
25
100
AcDbEntity
  8
1
  6
Continuous
 62
     2
100
AcDbLine
 10
1894.011088341325
 20
521.6610361824756
 30
0.0
 11
1894.011088341325
 21
515.6610361824756
 31
0.0
  0
LINE
  5
62
330
25
100
AcDbEntity
  8
1
  6
Continuous
 62
     2
100
AcDbLine
 10
1893.311088341325
 20
521.4110361824756
 30
0.0
 11
1893.311088341325
 21
515.9110361824756
 31
0.0
  0
LINE
  5
61
330
25
100
AcDbEntity
  8
1
  6
Continuous
 62
     2
100
AcDbLine
 10
1899.311088341325
 20
517.1610361824756
 30
0.0
 11
1899.311088341325
 21
520.1610361824756
 31
0.0
  0
LINE
  5
60
330
25
100
AcDbEntity
  8
1
  6
DOT_CENTER
 62
     4
100
AcDbLine
 10
1900.009263180811
 20
518.6610361824756
 30
0.0
 11
1889.367898485738
 21
518.6610361824756
 31
0.0
  0
LINE
  5
5F
330
25
100
AcDbEntity
  8
1
  6
Continuous
 62
     2
100
AcDbLine
 10
1894.011088341325
 20
515.9110361824756
 30
0.0
 11
1892.5719681997
 21
515.9110361824756
 31
0.0
  0
LINE
  5
5E
330
25
100
AcDbEntity
  8
1
  6
Continuous
 62
     2
100
AcDbLine
 10
1894.011088341325
 20
521.4110361824756
 30
0.0
 11
1892.5719681997
 21
521.4110361824756
 31
0.0
  0
LINE
  5
5D
330
25
100
AcDbEntity
  8
1
  6
Continuous
 62
     4
100
AcDbLine
 10
1894.511088341324
 20
521.6610361824756
 30
0.0
 11
1894.511088341324
 21
515.6610361824756
 31
0.0
  0
LINE
  5
5C
330
25
100
AcDbEntity
  8
1
  6
Continuous
 62
     4
100
AcDbLine
 10
1894.511088341324
 20
523.8523853306431
 30
0.0
 11
1894.511088341324
 21
520.8523853306432
 31
0.0
  0
LINE
  5
5B
330
25
100
AcDbEntity
  8
1
  6
Continuous
 62
     2
100
AcDbLine
 10
1894.011088341324
 20
523.6023853306432
 30
0.0
 11
1892.571968199699
 21
523.6023853306432
 31
0.0
  0
LINE
  5
5A
330
25
100
AcDbEntity
  8
1
  6
DOT_CENTER
 62
     4
100
AcDbLine
 10
1900.009263180811
 20
520.8523853306432
 30
0.0
 11
1889.367898485737
 21
520.8523853306432
 31
0.0
  0
LINE
  5
59
330
25
100
AcDbEntity
  8
1
  6
Continuous
 62
     2
100
AcDbLine
 10
1893.311088341324
 20
523.6023853306432
 30
0.0
 11
1893.311088341324
 21
520.8523853306432
 31
0.0
  0
LINE
  5
58
330
25
100
AcDbEntity
  8
1
  6
Continuous
 62
     2
100
AcDbLine
 10
1894.011088341324
 20
523.8523853306431
 30
0.0
 11
1894.011088341324
 21
520.8523853306432
 31
0.0
  0
LINE
  5
57
330
25
100
AcDbEntity
  8
1
  6
Continuous
 62
     2
100
AcDbLine
 10
1894.011088341324
 20
523.8523853306431
 30
0.0
 11
1894.511088341324
 21
523.8523853306431
 31
0.0
  0
LINE
  5
56
330
25
100
AcDbEntity
  8
1
  6
Continuous
 62
     2
100
AcDbLine
 10
1899.311088341324
 20
522.3523853306431
 30
0.0
 11
1894.511088341324
 21
522.3523853306431
 31
0.0
  0
LINE
  5
55
330
25
100
AcDbEntity
  8
1
  6
Continuous
 62
     2
100
AcDbLine
 10
1899.311088341324
 20
520.8523853306432
 30
0.0
 11
1899.311088341324
 21
522.3523853306431
 31
0.0
  0
LINE
  5
54
330
25
100
AcDbEntity
  8
1
  6
Continuous
 62
     2
100
AcDbLine
 10
1899.311088341324
 20
284.3610361825471
 30
0.0
 11
1899.311088341324
 21
285.8610361825471
 31
0.0
  0
LINE
  5
53
330
25
100
AcDbEntity
  8
1
  6
Continuous
 62
     2
100
AcDbLine
 10
1894.511088341324
 20
284.3610361825471
 30
0.0
 11
1899.311088341324
 21
284.3610361825471
 31
0.0
  0
LINE
  5
52
330
25
100
AcDbEntity
  8
1
  6
Continuous
 62
     2
100
AcDbLine
 10
1894.511088341324
 20
282.8610361825471
 30
0.0
 11
1894.011088341324
 21
282.8610361825471
 31
0.0
  0
LINE
  5
51
330
25
100
AcDbEntity
  8
1
  6
Continuous
 62
     2
100
AcDbLine
 10
1894.011088341324
 20
285.8610361825471
 30
0.0
 11
1894.011088341324
 21
282.8610361825471
 31
0.0
  0
LINE
  5
50
330
25
100
AcDbEntity
  8
1
  6
Continuous
 62
     2
100
AcDbLine
 10
1893.311088341324
 20
285.8610361825471
 30
0.0
 11
1893.311088341324
 21
283.1110361825471
 31
0.0
  0
LINE
  5
4F
330
25
100
AcDbEntity
  8
1
  6
DOT_CENTER
 62
     4
100
AcDbLine
 10
1889.367898485737
 20
285.8610361825471
 30
0.0
 11
1900.009263180811
 21
285.8610361825471
 31
0.0
  0
LINE
  5
4E
330
25
100
AcDbEntity
  8
1
  6
Continuous
 62
     2
100
AcDbLine
 10
1892.571968199699
 20
283.1110361825471
 30
0.0
 11
1894.011088341324
 21
283.1110361825471
 31
0.0
  0
LINE
  5
4D
330
25
100
AcDbEntity
  8
1
  6
Continuous
 62
     4
100
AcDbLine
 10
1894.511088341324
 20
285.8610361825471
 30
0.0
 11
1894.511088341324
 21
282.8610361825471
 31
0.0
  0
LINE
  5
4C
330
25
100
AcDbEntity
  8
1
  6
Continuous
 62
     4
100
AcDbLine
 10
1894.511088341324
 20
291.8610361827239
 30
0.0
 11
1894.511088341324
 21
285.8610361827239
 31
0.0
  0
LINE
  5
4B
330
25
100
AcDbEntity
  8
1
  6
Continuous
 62
     2
100
AcDbLine
 10
1892.5719681997
 20
286.1110361827239
 30
0.0
 11
1894.011088341325
 21
286.1110361827239
 31
0.0
  0
LINE
  5
4A
330
25
100
AcDbEntity
  8
1
  6
Continuous
 62
     2
100
AcDbLine
 10
1892.5719681997
 20
291.6110361827239
 30
0.0
 11
1894.011088341325
 21
291.6110361827239
 31
0.0
  0
LINE
  5
49
330
25
100
AcDbEntity
  8
1
  6
DOT_CENTER
 62
     4
100
AcDbLine
 10
1889.367898485738
 20
288.8610361827239
 30
0.0
 11
1900.009263180811
 21
288.8610361827239
 31
0.0
  0
LINE
  5
48
330
25
100
AcDbEntity
  8
1
  6
Continuous
 62
     2
100
AcDbLine
 10
1899.311088341325
 20
287.3610361827239
 30
0.0
 11
1899.311088341325
 21
290.3610361827239
 31
0.0
  0
LINE
  5
47
330
25
100
AcDbEntity
  8
1
  6
Continuous
 62
     2
100
AcDbLine
 10
1893.311088341325
 20
291.6110361827239
 30
0.0
 11
1893.311088341325
 21
286.1110361827239
 31
0.0
  0
LINE
  5
46
330
25
100
AcDbEntity
  8
1
  6
Continuous
 62
     2
100
AcDbLine
 10
1894.011088341325
 20
291.8610361827239
 30
0.0
 11
1894.011088341325
 21
285.8610361827239
 31
0.0
  0
LINE
  5
45
330
25
100
AcDbEntity
  8
1
  6
Continuous
 62
     2
100
AcDbLine
 10
1894.011088341325
 20
291.8610361827239
 30
0.0
 11
1894.511088341324
 21
291.8610361827239
 31
0.0
  0
LINE
  5
44
330
25
100
AcDbEntity
  8
1
  6
Continuous
 62
     2
100
AcDbLine
 10
1894.511088341324
 20
285.8610361827239
 30
0.0
 11
1894.011088341325
 21
285.8610361827239
 31
0.0
  0
LINE
  5
43
330
25
100
AcDbEntity
  8
1
  6
Continuous
 62
     2
100
AcDbLine
 10
1894.511088341324
 20
290.3610361827239
 30
0.0
 11
1899.311088341325
 21
290.3610361827239
 31
0.0
  0
LINE
  5
42
330
25
100
AcDbEntity
  8
1
  6
Continuous
 62
     2
100
AcDbLine
 10
1894.511088341324
 20
287.3610361827239
 30
0.0
 11
1899.311088341325
 21
287.3610361827239
 31
0.0
  0
ENDBLK
  5
C6
330
25
100
AcDbEntity
  8
0
100
AcDbBlockEnd
  0
BLOCK
  5
28
330
27
100
AcDbEntity
  8
0
100
AcDbBlockBegin
  2
37134-8000-G000
 70
     0
 10
3076.740824015836
 20
299.9228076336867
 30
0.0
  3
37134-8000-G000
  1

  0
ARC
  5
180
330
27
100
AcDbEntity
  8
1
  6
Continuous
 62
     7
100
AcDbCircle
 10
2075.511088341325
 20
221.7573571153828
 30
0.0
 40
1.5
100
AcDbArc
 50
180.0
 51
-90.0
  0
ARC
  5
17F
330
27
100
AcDbEntity
  8
1
  6
Continuous
 62
     7
100
AcDbCircle
 10
2074.011088341325
 20
230.7573571153828
 30
0.0
 40
1.5
100
AcDbArc
 50
0.0
 51
90.0
  0
ARC
  5
17E
330
27
100
AcDbEntity
  8
1
  6
Continuous
 62
     7
100
AcDbCircle
 10
2045.011088341325
 20
230.7573571153828
 30
0.0
 40
1.5
100
AcDbArc
 50
90.0
 51
180.0
  0
ARC
  5
17D
330
27
100
AcDbEntity
  8
1
  6
Continuous
 62
     7
100
AcDbCircle
 10
2043.511088341325
 20
221.7573571153828
 30
0.0
 40
1.5
100
AcDbArc
 50
-90.0
 51
0.0
  0
ARC
  5
17C
330
27
100
AcDbEntity
  8
1
  6
Continuous
 62
     7
100
AcDbCircle
 10
2327.011088341325
 20
221.7573571153828
 30
0.0
 40
1.5
100
AcDbArc
 50
-90.0
 51
0.0
  0
ARC
  5
17B
330
27
100
AcDbEntity
  8
1
  6
Continuous
 62
     7
100
AcDbCircle
 10
2328.511088341325
 20
230.7573571153828
 30
0.0
 40
1.5
100
AcDbArc
 50
90.0
 51
180.0
  0
ARC
  5
17A
330
27
100
AcDbEntity
  8
1
  6
Continuous
 62
     7
100
AcDbCircle
 10
2357.511088341325
 20
230.7573571153828
 30
0.0
 40
1.5
100
AcDbArc
 50
0.0
 51
90.0
  0
ARC
  5
179
330
27
100
AcDbEntity
  8
1
  6
Continuous
 62
     7
100
AcDbCircle
 10
2359.011088341325
 20
221.7573571153828
 30
0.0
 40
1.5
100
AcDbArc
 50
180.0
 51
-90.0
  0
CIRCLE
  5
178
330
27
100
AcDbEntity
  8
1
  6
Continuous
 62
     7
100
AcDbCircle
 10
2321.511088341325
 20
285.8610361825471
 30
0.0
 40
3.0
  0
CIRCLE
  5
177
330
27
100
AcDbEntity
  8
1
  6
Continuous
 62
     7
100
AcDbCircle
 10
2363.011088341325
 20
288.8610361825471
 30
0.0
 40
3.0
  0
CIRCLE
  5
176
330
27
100
AcDbEntity
  8
1
  6
Continuous
 62
     7
100
AcDbCircle
 10
2343.011088341325
 20
288.8610361825471
 30
0.0
 40
13.0
  0
CIRCLE
  5
175
330
27
100
AcDbEntity
  8
1
  6
Continuous
 62
     7
100
AcDbCircle
 10
2363.011088341325
 20
288.8610361825471
 30
0.0
 40
1.0
  0
CIRCLE
  5
174
330
27
100
AcDbEntity
  8
1
  6
Continuous
 62
     2
100
AcDbCircle
 10
2363.011088341325
 20
288.8610361825471
 30
0.0
 40
1.5
  0
CIRCLE
  5
173
330
27
100
AcDbEntity
  8
1
  6
Continuous
 62
     2
100
AcDbCircle
 10
2321.511088341325
 20
285.8610361825471
 30
0.0
 40
1.5
  0
CIRCLE
  5
172
330
27
100
AcDbEntity
  8
1
  6
Continuous
 62
     7
100
AcDbCircle
 10
2321.511088341325
 20
285.8610361825471
 30
0.0
 40
1.0
  0
CIRCLE
  5
171
330
27
100
AcDbEntity
  8
1
  6
Continuous
 62
     7
100
AcDbCircle
 10
2038.011088341324
 20
288.8610361825469
 30
0.0
 40
1.0
  0
CIRCLE
  5
170
330
27
100
AcDbEntity
  8
1
  6
Continuous
 62
     2
100
AcDbCircle
 10
2038.011088341324
 20
288.8610361825469
 30
0.0
 40
1.5
  0
CIRCLE
  5
16F
330
27
100
AcDbEntity
  8
1
  6
Continuous
 62
     2
100
AcDbCircle
 10
2079.511088341325
 20
286.6610361825468
 30
0.0
 40
1.5
  0
CIRCLE
  5
16E
330
27
100
AcDbEntity
  8
1
  6
Continuous
 62
     7
100
AcDbCircle
 10
2079.511088341325
 20
286.6610361825468
 30
0.0
 40
1.0
  0
CIRCLE
  5
16D
330
27
100
AcDbEntity
  8
1
  6
Continuous
 62
     7
100
AcDbCircle
 10
2059.511088341325
 20
286.6610361825468
 30
0.0
 40
13.0
  0
CIRCLE
  5
16C
330
27
100
AcDbEntity
  8
1
  6
Continuous
 62
     7
100
AcDbCircle
 10
2079.511088341325
 20
286.6610361825468
 30
0.0
 40
3.0
  0
CIRCLE
  5
16B
330
27
100
AcDbEntity
  8
1
  6
Continuous
 62
     7
100
AcDbCircle
 10
2038.011088341324
 20
288.8610361825469
 30
0.0
 40
3.0
  0
CIRCLE
  5
16A
330
27
100
AcDbEntity
  8
1
  6
Continuous
 62
     7
100
AcDbCircle
 10
2038.011088341324
 20
517.8610361825497
 30
0.0
 40
3.0
  0
CIRCLE
  5
169
330
27
100
AcDbEntity
  8
1
  6
Continuous
 62
     7
100
AcDbCircle
 10
2079.511088341325
 20
520.8610361825496
 30
0.0
 40
3.0
  0
CIRCLE
  5
168
330
27
100
AcDbEntity
  8
1
  6
Continuous
 62
     7
100
AcDbCircle
 10
2059.511088341325
 20
520.8610361825496
 30
0.0
 40
13.0
  0
CIRCLE
  5
167
330
27
100
AcDbEntity
  8
1
  6
Continuous
 62
     7
100
AcDbCircle
 10
2079.511088341325
 20
520.8610361825496
 30
0.0
 40
1.0
  0
CIRCLE
  5
166
330
27
100
AcDbEntity
  8
1
  6
Continuous
 62
     2
100
AcDbCircle
 10
2079.511088341325
 20
520.8610361825496
 30
0.0
 40
1.5
  0
CIRCLE
  5
165
330
27
100
AcDbEntity
  8
1
  6
Continuous
 62
     2
100
AcDbCircle
 10
2038.011088341324
 20
517.8610361825497
 30
0.0
 40
1.5
  0
CIRCLE
  5
164
330
27
100
AcDbEntity
  8
1
  6
Continuous
 62
     7
100
AcDbCircle
 10
2038.011088341324
 20
517.8610361825497
 30
0.0
 40
1.0
  0
CIRCLE
  5
163
330
27
100
AcDbEntity
  8
1
  6
Continuous
 62
     7
100
AcDbCircle
 10
2321.511088341325
 20
520.8610361824757
 30
0.0
 40
1.0
  0
CIRCLE
  5
162
330
27
100
AcDbEntity
  8
1
  6
Continuous
 62
     2
100
AcDbCircle
 10
2321.511088341325
 20
520.8610361824757
 30
0.0
 40
1.5
  0
CIRCLE
  5
161
330
27
100
AcDbEntity
  8
1
  6
Continuous
 62
     2
100
AcDbCircle
 10
2363.011088341325
 20
518.6610361824756
 30
0.0
 40
1.5
  0
CIRCLE
  5
160
330
27
100
AcDbEntity
  8
1
  6
Continuous
 62
     7
100
AcDbCircle
 10
2363.011088341325
 20
518.6610361824756
 30
0.0
 40
1.0
  0
CIRCLE
  5
15F
330
27
100
AcDbEntity
  8
1
  6
Continuous
 62
     7
100
AcDbCircle
 10
2343.011088341325
 20
518.6610361824756
 30
0.0
 40
13.0
  0
CIRCLE
  5
15E
330
27
100
AcDbEntity
  8
1
  6
Continuous
 62
     7
100
AcDbCircle
 10
2363.011088341325
 20
518.6610361824756
 30
0.0
 40
3.0
  0
CIRCLE
  5
15D
330
27
100
AcDbEntity
  8
1
  6
Continuous
 62
     7
100
AcDbCircle
 10
2321.511088341325
 20
520.8610361824757
 30
0.0
 40
3.0
  0
LINE
  5
15C
330
27
100
AcDbEntity
  8
1
  6
DASHED
 62
     4
100
AcDbLine
 10
1902.511088341324
 20
533.6610361824756
 30
0.0
 11
1895.511088341324
 21
533.6610361824756
 31
0.0
  0
LINE
  5
15B
330
27
100
AcDbEntity
  8
1
  6
Continuous
 62
     7
100
AcDbLine
 10
1907.511088341324
 20
533.6610361824756
 30
0.0
 11
1902.511088341324
 21
533.6610361824756
 31
0.0
  0
LINE
  5
15A
330
27
100
AcDbEntity
  8
1
  6
Continuous
 62
     7
100
AcDbLine
 10
1907.511088341324
 20
503.6610361824756
 30
0.0
 11
1907.511088341324
 21
533.6610361824756
 31
0.0
  0
LINE
  5
159
330
27
100
AcDbEntity
  8
1
  6
Continuous
 62
     7
100
AcDbLine
 10
1902.511088341324
 20
503.6610361824756
 30
0.0
 11
1907.511088341324
 21
503.6610361824756
 31
0.0
  0
LINE
  5
158
330
27
100
AcDbEntity
  8
1
  6
DASHED
 62
     4
100
AcDbLine
 10
1895.511088341324
 20
503.6610361824756
 30
0.0
 11
1902.511088341324
 21
503.6610361824756
 31
0.0
  0
LINE
  5
157
330
27
100
AcDbEntity
  8
1
  6
DASHED
 62
     4
100
AcDbLine
 10
1897.011088341324
 20
533.6610361824756
 30
0.0
 11
1897.011088341324
 21
503.6610361824756
 31
0.0
  0
LINE
  5
156
330
27
100
AcDbEntity
  8
1
  6
DASHED
 62
     2
100
AcDbLine
 10
1906.011088341324
 20
503.6610361824756
 30
0.0
 11
1906.011088341324
 21
533.6610361824756
 31
0.0
  0
LINE
  5
155
330
27
100
AcDbEntity
  8
1
  6
DASHED
 62
     2
100
AcDbLine
 10
1906.011088341324
 20
273.861036182547
 30
0.0
 11
1906.011088341324
 21
303.8610361825468
 31
0.0
  0
LINE
  5
154
330
27
100
AcDbEntity
  8
1
  6
DASHED
 62
     4
100
AcDbLine
 10
1897.011088341324
 20
303.8610361825468
 30
0.0
 11
1897.011088341324
 21
273.861036182547
 31
0.0
  0
LINE
  5
153
330
27
100
AcDbEntity
  8
1
  6
DASHED
 62
     4
100
AcDbLine
 10
1895.511088341324
 20
273.861036182547
 30
0.0
 11
1902.511088341324
 21
273.861036182547
 31
0.0
  0
LINE
  5
152
330
27
100
AcDbEntity
  8
1
  6
Continuous
 62
     7
100
AcDbLine
 10
1902.511088341324
 20
273.861036182547
 30
0.0
 11
1907.511088341324
 21
273.861036182547
 31
0.0
  0
LINE
  5
151
330
27
100
AcDbEntity
  8
1
  6
Continuous
 62
     7
100
AcDbLine
 10
1907.511088341324
 20
273.861036182547
 30
0.0
 11
1907.511088341324
 21
303.8610361825468
 31
0.0
  0
LINE
  5
150
330
27
100
AcDbEntity
  8
1
  6
Continuous
 62
     7
100
AcDbLine
 10
1907.511088341324
 20
303.8610361825468
 30
0.0
 11
1902.511088341324
 21
303.8610361825468
 31
0.0
  0
LINE
  5
14F
330
27
100
AcDbEntity
  8
1
  6
DASHED
 62
     4
100
AcDbLine
 10
1902.511088341324
 20
303.8610361825468
 30
0.0
 11
1895.511088341324
 21
303.8610361825468
 31
0.0
  0
LINE
  5
14E
330
27
100
AcDbEntity
  8
1
  6
Continuous
 62
     4
100
AcDbLine
 10
1895.511088341324
 20
273.861036182547
 30
0.0
 11
1895.511088341324
 21
303.8610361825468
 31
0.0
  0
LINE
  5
14D
330
27
100
AcDbEntity
  8
1
  6
Continuous
 62
     4
100
AcDbLine
 10
1895.511088341324
 20
503.6610361824756
 30
0.0
 11
1895.511088341324
 21
533.6610361824756
 31
0.0
  0
LINE
  5
14C
330
27
100
AcDbEntity
  8
1
  6
Continuous
 62
     4
100
AcDbLine
 10
2506.911088341321
 20
533.6610361824756
 30
0.0
 11
2506.911088341321
 21
503.6610361824756
 31
0.0
  0
LINE
  5
14B
330
27
100
AcDbEntity
  8
1
  6
Continuous
 62
     4
100
AcDbLine
 10
2506.911088341321
 20
303.8610361825468
 30
0.0
 11
2506.911088341321
 21
273.861036182547
 31
0.0
  0
LINE
  5
14A
330
27
100
AcDbEntity
  8
1
  6
DASHED
 62
     4
100
AcDbLine
 10
2506.911088341321
 20
303.8610361825468
 30
0.0
 11
2499.911088341321
 21
303.8610361825468
 31
0.0
  0
LINE
  5
149
330
27
100
AcDbEntity
  8
1
  6
Continuous
 62
     7
100
AcDbLine
 10
2499.911088341321
 20
303.8610361825468
 30
0.0
 11
2494.911088341321
 21
303.8610361825468
 31
0.0
  0
LINE
  5
148
330
27
100
AcDbEntity
  8
1
  6
Continuous
 62
     7
100
AcDbLine
 10
2494.911088341321
 20
303.8610361825468
 30
0.0
 11
2494.911088341321
 21
273.861036182547
 31
0.0
  0
LINE
  5
147
330
27
100
AcDbEntity
  8
1
  6
Continuous
 62
     7
100
AcDbLine
 10
2494.911088341321
 20
273.861036182547
 30
0.0
 11
2499.911088341321
 21
273.861036182547
 31
0.0
  0
LINE
  5
146
330
27
100
AcDbEntity
  8
1
  6
DASHED
 62
     4
100
AcDbLine
 10
2499.911088341321
 20
273.861036182547
 30
0.0
 11
2506.911088341321
 21
273.861036182547
 31
0.0
  0
LINE
  5
145
330
27
100
AcDbEntity
  8
1
  6
DASHED
 62
     4
100
AcDbLine
 10
2505.411088341321
 20
273.861036182547
 30
0.0
 11
2505.411088341321
 21
303.8610361825468
 31
0.0
  0
LINE
  5
144
330
27
100
AcDbEntity
  8
1
  6
DASHED
 62
     2
100
AcDbLine
 10
2496.411088341321
 20
303.8610361825468
 30
0.0
 11
2496.411088341321
 21
273.861036182547
 31
0.0
  0
LINE
  5
143
330
27
100
AcDbEntity
  8
1
  6
DASHED
 62
     2
100
AcDbLine
 10
2496.411088341321
 20
533.6610361824756
 30
0.0
 11
2496.411088341321
 21
503.6610361824756
 31
0.0
  0
LINE
  5
142
330
27
100
AcDbEntity
  8
1
  6
DASHED
 62
     4
100
AcDbLine
 10
2505.411088341321
 20
503.6610361824756
 30
0.0
 11
2505.411088341321
 21
533.6610361824756
 31
0.0
  0
LINE
  5
141
330
27
100
AcDbEntity
  8
1
  6
DASHED
 62
     4
100
AcDbLine
 10
2499.911088341321
 20
503.6610361824756
 30
0.0
 11
2506.911088341321
 21
503.6610361824756
 31
0.0
  0
LINE
  5
140
330
27
100
AcDbEntity
  8
1
  6
Continuous
 62
     7
100
AcDbLine
 10
2494.911088341321
 20
503.6610361824756
 30
0.0
 11
2499.911088341321
 21
503.6610361824756
 31
0.0
  0
LINE
  5
13F
330
27
100
AcDbEntity
  8
1
  6
Continuous
 62
     7
100
AcDbLine
 10
2494.911088341321
 20
533.6610361824756
 30
0.0
 11
2494.911088341321
 21
503.6610361824756
 31
0.0
  0
LINE
  5
13E
330
27
100
AcDbEntity
  8
1
  6
Continuous
 62
     7
100
AcDbLine
 10
2499.911088341321
 20
533.6610361824756
 30
0.0
 11
2494.911088341321
 21
533.6610361824756
 31
0.0
  0
LINE
  5
13D
330
27
100
AcDbEntity
  8
1
  6
DASHED
 62
     4
100
AcDbLine
 10
2506.911088341321
 20
533.6610361824756
 30
0.0
 11
2499.911088341321
 21
533.6610361824756
 31
0.0
  0
LINE
  5
13C
330
27
100
AcDbEntity
  8
1
  6
Continuous
 62
     7
100
AcDbLine
 10
2043.511088341325
 20
220.2573571153828
 30
0.0
 11
2029.511088341325
 21
220.2573571153828
 31
0.0
  0
LINE
  5
13B
330
27
100
AcDbEntity
  8
1
  6
Continuous
 62
     7
100
AcDbLine
 10
2045.011088341325
 20
230.7573571153828
 30
0.0
 11
2045.011088341325
 21
221.7573571153828
 31
0.0
  0
LINE
  5
13A
330
27
100
AcDbEntity
  8
1
  6
Continuous
 62
     7
100
AcDbLine
 10
2074.011088341325
 20
230.7573571153828
 30
0.0
 11
2045.011088341325
 21
230.7573571153828
 31
0.0
  0
LINE
  5
139
330
27
100
AcDbEntity
  8
1
  6
Continuous
 62
     7
100
AcDbLine
 10
2074.011088341325
 20
221.7573571153828
 30
0.0
 11
2074.011088341325
 21
230.7573571153828
 31
0.0
  0
LINE
  5
138
330
27
100
AcDbEntity
  8
1
  6
Continuous
 62
     7
100
AcDbLine
 10
2089.511088341325
 20
220.2573571153828
 30
0.0
 11
2075.511088341325
 21
220.2573571153828
 31
0.0
  0
LINE
  5
137
330
27
100
AcDbEntity
  8
1
  6
Continuous
 62
     7
100
AcDbLine
 10
2089.511088341325
 20
221.7573571153828
 30
0.0
 11
2089.511088341325
 21
220.2573571153828
 31
0.0
  0
LINE
  5
136
330
27
100
AcDbEntity
  8
1
  6
Continuous
 62
     7
100
AcDbLine
 10
2075.511088341325
 20
221.7573571153828
 30
0.0
 11
2089.511088341325
 21
221.7573571153828
 31
0.0
  0
LINE
  5
135
330
27
100
AcDbEntity
  8
1
  6
Continuous
 62
     7
100
AcDbLine
 10
2075.511088341325
 20
230.7573571153828
 30
0.0
 11
2075.511088341325
 21
221.7573571153828
 31
0.0
  0
LINE
  5
134
330
27
100
AcDbEntity
  8
1
  6
Continuous
 62
     7
100
AcDbLine
 10
2045.011088341325
 20
232.2573571153828
 30
0.0
 11
2074.011088341325
 21
232.2573571153828
 31
0.0
  0
LINE
  5
133
330
27
100
AcDbEntity
  8
1
  6
Continuous
 62
     7
100
AcDbLine
 10
2043.511088341325
 20
221.7573571153828
 30
0.0
 11
2043.511088341325
 21
230.7573571153828
 31
0.0
  0
LINE
  5
132
330
27
100
AcDbEntity
  8
1
  6
Continuous
 62
     7
100
AcDbLine
 10
2029.511088341325
 20
221.7573571153828
 30
0.0
 11
2043.511088341325
 21
221.7573571153828
 31
0.0
  0
LINE
  5
131
330
27
100
AcDbEntity
  8
1
  6
Continuous
 62
     7
100
AcDbLine
 10
2029.511088341325
 20
220.2573571153828
 30
0.0
 11
2029.511088341325
 21
221.7573571153828
 31
0.0
  0
LINE
  5
130
330
27
100
AcDbEntity
  8
1
  6
Continuous
 62
     7
100
AcDbLine
 10
2034.511088341325
 20
221.7573571153828
 30
0.0
 11
2034.511088341325
 21
220.2573571153828
 31
0.0
  0
LINE
  5
12F
330
27
100
AcDbEntity
  8
1
  6
Continuous
 62
     7
100
AcDbLine
 10
2084.511088341325
 20
221.7573571153828
 30
0.0
 11
2084.511088341325
 21
220.2573571153828
 31
0.0
  0
LINE
  5
12E
330
27
100
AcDbEntity
  8
1
  6
DOT_CENTER
 62
     4
100
AcDbLine
 10
2079.511088341325
 20
226.5741705269777
 30
0.0
 11
2079.511088341325
 21
217.3389923208187
 31
0.0
  0
LINE
  5
12D
330
27
100
AcDbEntity
  8
1
  6
DOT_CENTER
 62
     4
100
AcDbLine
 10
2059.511088341325
 20
235.6187663428487
 30
0.0
 11
2059.511088341325
 21
224.9426665001617
 31
0.0
  0
LINE
  5
12C
330
27
100
AcDbEntity
  8
1
  6
Continuous
 62
     7
100
AcDbLine
 10
2076.511088341325
 20
222.7573571153828
 30
0.0
 11
2076.511088341325
 21
221.7573571153828
 31
0.0
  0
LINE
  5
12B
330
27
100
AcDbEntity
  8
1
  6
Continuous
 62
     7
100
AcDbLine
 10
2082.511088341325
 20
222.7573571153828
 30
0.0
 11
2076.511088341325
 21
222.7573571153828
 31
0.0
  0
LINE
  5
12A
330
27
100
AcDbEntity
  8
1
  6
Continuous
 62
     7
100
AcDbLine
 10
2082.511088341325
 20
221.7573571153828
 30
0.0
 11
2082.511088341325
 21
222.7573571153828
 31
0.0
  0
LINE
  5
129
330
27
100
AcDbEntity
  8
1
  6
Continuous
 62
     7
100
AcDbLine
 10
2041.011088341324
 20
221.7573571153828
 30
0.0
 11
2041.011088341324
 21
222.7573571153828
 31
0.0
  0
LINE
  5
128
330
27
100
AcDbEntity
  8
1
  6
Continuous
 62
     7
100
AcDbLine
 10
2041.011088341324
 20
222.7573571153828
 30
0.0
 11
2035.011088341324
 21
222.7573571153828
 31
0.0
  0
LINE
  5
127
330
27
100
AcDbEntity
  8
1
  6
Continuous
 62
     7
100
AcDbLine
 10
2035.011088341324
 20
222.7573571153828
 30
0.0
 11
2035.011088341324
 21
221.7573571153828
 31
0.0
  0
LINE
  5
126
330
27
100
AcDbEntity
  8
1
  6
DOT_CENTER
 62
     4
100
AcDbLine
 10
2038.011088341324
 20
226.5741705269777
 30
0.0
 11
2038.011088341324
 21
217.3389923208187
 31
0.0
  0
LINE
  5
125
330
27
100
AcDbEntity
  8
1
  6
DOT_CENTER
 62
     4
100
AcDbLine
 10
2321.511088341325
 20
226.5741705269777
 30
0.0
 11
2321.511088341325
 21
217.3389923208187
 31
0.0
  0
LINE
  5
124
330
27
100
AcDbEntity
  8
1
  6
Continuous
 62
     7
100
AcDbLine
 10
2318.511088341325
 20
222.7573571153828
 30
0.0
 11
2318.511088341325
 21
221.7573571153828
 31
0.0
  0
LINE
  5
123
330
27
100
AcDbEntity
  8
1
  6
Continuous
 62
     7
100
AcDbLine
 10
2324.511088341325
 20
222.7573571153828
 30
0.0
 11
2318.511088341325
 21
222.7573571153828
 31
0.0
  0
LINE
  5
122
330
27
100
AcDbEntity
  8
1
  6
Continuous
 62
     7
100
AcDbLine
 10
2324.511088341325
 20
221.7573571153828
 30
0.0
 11
2324.511088341325
 21
222.7573571153828
 31
0.0
  0
LINE
  5
121
330
27
100
AcDbEntity
  8
1
  6
Continuous
 62
     7
100
AcDbLine
 10
2366.011088341325
 20
221.7573571153828
 30
0.0
 11
2366.011088341325
 21
222.7573571153828
 31
0.0
  0
LINE
  5
120
330
27
100
AcDbEntity
  8
1
  6
Continuous
 62
     7
100
AcDbLine
 10
2366.011088341325
 20
222.7573571153828
 30
0.0
 11
2360.011088341325
 21
222.7573571153828
 31
0.0
  0
LINE
  5
11F
330
27
100
AcDbEntity
  8
1
  6
Continuous
 62
     7
100
AcDbLine
 10
2360.011088341325
 20
222.7573571153828
 30
0.0
 11
2360.011088341325
 21
221.7573571153828
 31
0.0
  0
LINE
  5
11E
330
27
100
AcDbEntity
  8
1
  6
DOT_CENTER
 62
     4
100
AcDbLine
 10
2343.011088341325
 20
235.6187663428487
 30
0.0
 11
2343.011088341325
 21
224.9426665001617
 31
0.0
  0
LINE
  5
11D
330
27
100
AcDbEntity
  8
1
  6
DOT_CENTER
 62
     4
100
AcDbLine
 10
2363.011088341325
 20
226.5741705269777
 30
0.0
 11
2363.011088341325
 21
217.3389923208187
 31
0.0
  0
LINE
  5
11C
330
27
100
AcDbEntity
  8
1
  6
Continuous
 62
     7
100
AcDbLine
 10
2368.011088341325
 20
221.7573571153828
 30
0.0
 11
2368.011088341325
 21
220.2573571153828
 31
0.0
  0
LINE
  5
11B
330
27
100
AcDbEntity
  8
1
  6
Continuous
 62
     7
100
AcDbLine
 10
2318.011088341325
 20
221.7573571153828
 30
0.0
 11
2318.011088341325
 21
220.2573571153828
 31
0.0
  0
LINE
  5
11A
330
27
100
AcDbEntity
  8
1
  6
Continuous
 62
     7
100
AcDbLine
 10
2313.011088341325
 20
220.2573571153828
 30
0.0
 11
2313.011088341325
 21
221.7573571153828
 31
0.0
  0
LINE
  5
119
330
27
100
AcDbEntity
  8
1
  6
Continuous
 62
     7
100
AcDbLine
 10
2313.011088341325
 20
221.7573571153828
 30
0.0
 11
2327.011088341325
 21
221.7573571153828
 31
0.0
  0
LINE
  5
118
330
27
100
AcDbEntity
  8
1
  6
Continuous
 62
     7
100
AcDbLine
 10
2327.011088341325
 20
221.7573571153828
 30
0.0
 11
2327.011088341325
 21
230.7573571153828
 31
0.0
  0
LINE
  5
117
330
27
100
AcDbEntity
  8
1
  6
Continuous
 62
     7
100
AcDbLine
 10
2328.511088341325
 20
232.2573571153828
 30
0.0
 11
2357.511088341325
 21
232.2573571153828
 31
0.0
  0
LINE
  5
116
330
27
100
AcDbEntity
  8
1
  6
Continuous
 62
     7
100
AcDbLine
 10
2359.011088341325
 20
230.7573571153828
 30
0.0
 11
2359.011088341325
 21
221.7573571153828
 31
0.0
  0
LINE
  5
115
330
27
100
AcDbEntity
  8
1
  6
Continuous
 62
     7
100
AcDbLine
 10
2359.011088341325
 20
221.7573571153828
 30
0.0
 11
2373.011088341325
 21
221.7573571153828
 31
0.0
  0
LINE
  5
114
330
27
100
AcDbEntity
  8
1
  6
Continuous
 62
     7
100
AcDbLine
 10
2373.011088341325
 20
221.7573571153828
 30
0.0
 11
2373.011088341325
 21
220.2573571153828
 31
0.0
  0
LINE
  5
113
330
27
100
AcDbEntity
  8
1
  6
Continuous
 62
     7
100
AcDbLine
 10
2373.011088341325
 20
220.2573571153828
 30
0.0
 11
2359.011088341325
 21
220.2573571153828
 31
0.0
  0
LINE
  5
112
330
27
100
AcDbEntity
  8
1
  6
Continuous
 62
     7
100
AcDbLine
 10
2357.511088341325
 20
221.7573571153828
 30
0.0
 11
2357.511088341325
 21
230.7573571153828
 31
0.0
  0
LINE
  5
111
330
27
100
AcDbEntity
  8
1
  6
Continuous
 62
     7
100
AcDbLine
 10
2357.511088341325
 20
230.7573571153828
 30
0.0
 11
2328.511088341325
 21
230.7573571153828
 31
0.0
  0
LINE
  5
110
330
27
100
AcDbEntity
  8
1
  6
Continuous
 62
     7
100
AcDbLine
 10
2328.511088341325
 20
230.7573571153828
 30
0.0
 11
2328.511088341325
 21
221.7573571153828
 31
0.0
  0
LINE
  5
10F
330
27
100
AcDbEntity
  8
1
  6
Continuous
 62
     7
100
AcDbLine
 10
2327.011088341325
 20
220.2573571153828
 30
0.0
 11
2313.011088341325
 21
220.2573571153828
 31
0.0
  0
LINE
  5
10E
330
27
100
AcDbEntity
  8
1
  6
DOT_CENTER
 62
     4
100
AcDbLine
 10
2363.011088341325
 20
291.2360361825471
 30
0.0
 11
2363.011088341325
 21
286.4860361825471
 31
0.0
  0
LINE
  5
10D
330
27
100
AcDbEntity
  8
1
  6
DOT_CENTER
 62
     4
100
AcDbLine
 10
2365.386088341325
 20
288.8610361825471
 30
0.0
 11
2360.636088341325
 21
288.8610361825471
 31
0.0
  0
LINE
  5
10C
330
27
100
AcDbEntity
  8
1
  6
DOT_CENTER
 62
     4
100
AcDbLine
 10
2321.511088341325
 20
288.2360361825471
 30
0.0
 11
2321.511088341325
 21
283.4860361825471
 31
0.0
  0
LINE
  5
10B
330
27
100
AcDbEntity
  8
1
  6
DOT_CENTER
 62
     4
100
AcDbLine
 10
2323.886088341325
 20
285.8610361825471
 30
0.0
 11
2319.136088341325
 21
285.8610361825471
 31
0.0
  0
LINE
  5
10A
330
27
100
AcDbEntity
  8
1
  6
DOT_CENTER
 62
     4
100
AcDbLine
 10
2343.011088341325
 20
296.2582505924111
 30
0.0
 11
2343.011088341325
 21
281.4638217726829
 31
0.0
  0
LINE
  5
109
330
27
100
AcDbEntity
  8
1
  6
DOT_CENTER
 62
     4
100
AcDbLine
 10
2335.61387393146
 20
288.8610361825471
 30
0.0
 11
2350.408302751188
 21
288.8610361825471
 31
0.0
  0
LINE
  5
108
330
27
100
AcDbEntity
  8
1
  6
Continuous
 62
     7
100
AcDbLine
 10
2313.011088341325
 20
298.8610361825471
 30
0.0
 11
2318.011088341325
 21
303.8610361825471
 31
0.0
  0
LINE
  5
107
330
27
100
AcDbEntity
  8
1
  6
Continuous
 62
     7
100
AcDbLine
 10
2318.011088341325
 20
273.861036182547
 30
0.0
 11
2313.011088341325
 21
278.861036182547
 31
0.0
  0
LINE
  5
106
330
27
100
AcDbEntity
  8
1
  6
Continuous
 62
     7
100
AcDbLine
 10
2373.011088341325
 20
278.861036182547
 30
0.0
 11
2368.011088341325
 21
273.861036182547
 31
0.0
  0
LINE
  5
105
330
27
100
AcDbEntity
  8
1
  6
Continuous
 62
     7
100
AcDbLine
 10
2368.011088341325
 20
303.8610361825471
 30
0.0
 11
2373.011088341325
 21
298.8610361825471
 31
0.0
  0
LINE
  5
104
330
27
100
AcDbEntity
  8
1
  6
DASHED
 62
     2
100
AcDbLine
 10
2328.511088341325
 20
273.861036182547
 30
0.0
 11
2328.511088341325
 21
303.8610361825471
 31
0.0
  0
LINE
  5
103
330
27
100
AcDbEntity
  8
1
  6
Continuous
 62
     7
100
AcDbLine
 10
2327.011088341325
 20
303.8610361825471
 30
0.0
 11
2327.011088341325
 21
273.861036182547
 31
0.0
  0
LINE
  5
102
330
27
100
AcDbEntity
  8
1
  6
Continuous
 62
     7
100
AcDbLine
 10
2359.011088341325
 20
303.8610361825471
 30
0.0
 11
2359.011088341325
 21
273.861036182547
 31
0.0
  0
LINE
  5
101
330
27
100
AcDbEntity
  8
1
  6
DASHED
 62
     2
100
AcDbLine
 10
2357.511088341325
 20
303.8610361825471
 30
0.0
 11
2357.511088341325
 21
273.861036182547
 31
0.0
  0
LINE
  5
100
330
27
100
AcDbEntity
  8
1
  6
Continuous
 62
     7
100
AcDbLine
 10
2373.011088341325
 20
278.861036182547
 30
0.0
 11
2373.011088341325
 21
298.8610361825471
 31
0.0
  0
LINE
  5
FF
330
27
100
AcDbEntity
  8
1
  6
Continuous
 62
     7
100
AcDbLine
 10
2318.011088341325
 20
273.861036182547
 30
0.0
 11
2368.011088341325
 21
273.861036182547
 31
0.0
  0
LINE
  5
FE
330
27
100
AcDbEntity
  8
1
  6
Continuous
 62
     7
100
AcDbLine
 10
2313.011088341325
 20
298.8610361825471
 30
0.0
 11
2313.011088341325
 21
278.861036182547
 31
0.0
  0
LINE
  5
FD
330
27
100
AcDbEntity
  8
1
  6
Continuous
 62
     7
100
AcDbLine
 10
2368.011088341325
 20
303.8610361825471
 30
0.0
 11
2318.011088341325
 21
303.8610361825471
 31
0.0
  0
LINE
  5
FC
330
27
100
AcDbEntity
  8
1
  6
DOT_CENTER
 62
     4
100
AcDbLine
 10
2038.011088341324
 20
291.2360361825469
 30
0.0
 11
2038.011088341324
 21
286.4860361825468
 31
0.0
  0
LINE
  5
FB
330
27
100
AcDbEntity
  8
1
  6
DOT_CENTER
 62
     4
100
AcDbLine
 10
2040.386088341324
 20
288.8610361825469
 30
0.0
 11
2035.636088341324
 21
288.8610361825469
 31
0.0
  0
LINE
  5
FA
330
27
100
AcDbEntity
  8
1
  6
DOT_CENTER
 62
     4
100
AcDbLine
 10
2079.511088341325
 20
289.0360361825468
 30
0.0
 11
2079.511088341325
 21
284.2860361825468
 31
0.0
  0
LINE
  5
F9
330
27
100
AcDbEntity
  8
1
  6
DOT_CENTER
 62
     4
100
AcDbLine
 10
2081.886088341325
 20
286.6610361825468
 30
0.0
 11
2077.136088341325
 21
286.6610361825468
 31
0.0
  0
LINE
  5
F8
330
27
100
AcDbEntity
  8
1
  6
Continuous
 62
     7
100
AcDbLine
 10
2084.511088341325
 20
301.6610361825468
 30
0.0
 11
2034.511088341325
 21
301.6610361825468
 31
0.0
  0
LINE
  5
F7
330
27
100
AcDbEntity
  8
1
  6
Continuous
 62
     7
100
AcDbLine
 10
2029.511088341325
 20
296.6610361825468
 30
0.0
 11
2029.511088341325
 21
276.6610361825469
 31
0.0
  0
LINE
  5
F6
330
27
100
AcDbEntity
  8
1
  6
Continuous
 62
     7
100
AcDbLine
 10
2034.511088341325
 20
271.6610361825469
 30
0.0
 11
2084.511088341325
 21
271.6610361825469
 31
0.0
  0
LINE
  5
F5
330
27
100
AcDbEntity
  8
1
  6
Continuous
 62
     7
100
AcDbLine
 10
2089.511088341325
 20
276.6610361825469
 30
0.0
 11
2089.511088341325
 21
296.6610361825468
 31
0.0
  0
LINE
  5
F4
330
27
100
AcDbEntity
  8
1
  6
DASHED
 62
     2
100
AcDbLine
 10
2074.011088341325
 20
301.6610361825468
 30
0.0
 11
2074.011088341325
 21
271.6610361825469
 31
0.0
  0
LINE
  5
F3
330
27
100
AcDbEntity
  8
1
  6
Continuous
 62
     7
100
AcDbLine
 10
2075.511088341325
 20
301.6610361825468
 30
0.0
 11
2075.511088341325
 21
271.6610361825469
 31
0.0
  0
LINE
  5
F2
330
27
100
AcDbEntity
  8
1
  6
Continuous
 62
     7
100
AcDbLine
 10
2043.511088341325
 20
301.6610361825468
 30
0.0
 11
2043.511088341325
 21
271.6610361825469
 31
0.0
  0
LINE
  5
F1
330
27
100
AcDbEntity
  8
1
  6
DASHED
 62
     2
100
AcDbLine
 10
2045.011088341325
 20
271.6610361825469
 30
0.0
 11
2045.011088341325
 21
301.6610361825468
 31
0.0
  0
LINE
  5
F0
330
27
100
AcDbEntity
  8
1
  6
Continuous
 62
     7
100
AcDbLine
 10
2084.511088341325
 20
301.6610361825468
 30
0.0
 11
2089.511088341325
 21
296.6610361825468
 31
0.0
  0
LINE
  5
EF
330
27
100
AcDbEntity
  8
1
  6
Continuous
 62
     7
100
AcDbLine
 10
2089.511088341325
 20
276.6610361825469
 30
0.0
 11
2084.511088341325
 21
271.6610361825469
 31
0.0
  0
LINE
  5
EE
330
27
100
AcDbEntity
  8
1
  6
Continuous
 62
     7
100
AcDbLine
 10
2034.511088341325
 20
271.6610361825469
 30
0.0
 11
2029.511088341325
 21
276.6610361825469
 31
0.0
  0
LINE
  5
ED
330
27
100
AcDbEntity
  8
1
  6
Continuous
 62
     7
100
AcDbLine
 10
2029.511088341325
 20
296.6610361825468
 30
0.0
 11
2034.511088341325
 21
301.6610361825468
 31
0.0
  0
LINE
  5
EC
330
27
100
AcDbEntity
  8
1
  6
DOT_CENTER
 62
     4
100
AcDbLine
 10
2052.11387393146
 20
286.6610361825468
 30
0.0
 11
2066.908302751188
 21
286.6610361825468
 31
0.0
  0
LINE
  5
EB
330
27
100
AcDbEntity
  8
1
  6
DOT_CENTER
 62
     4
100
AcDbLine
 10
2059.511088341325
 20
294.0582505924109
 30
0.0
 11
2059.511088341325
 21
279.2638217726828
 31
0.0
  0
LINE
  5
EA
330
27
100
AcDbEntity
  8
1
  6
DOT_CENTER
 62
     4
100
AcDbLine
 10
2079.511088341325
 20
523.2360361825497
 30
0.0
 11
2079.511088341325
 21
518.4860361825497
 31
0.0
  0
LINE
  5
E9
330
27
100
AcDbEntity
  8
1
  6
DOT_CENTER
 62
     4
100
AcDbLine
 10
2081.886088341325
 20
520.8610361825496
 30
0.0
 11
2077.136088341325
 21
520.8610361825496
 31
0.0
  0
LINE
  5
E8
330
27
100
AcDbEntity
  8
1
  6
DOT_CENTER
 62
     4
100
AcDbLine
 10
2038.011088341324
 20
520.2360361825497
 30
0.0
 11
2038.011088341324
 21
515.4860361825496
 31
0.0
  0
LINE
  5
E7
330
27
100
AcDbEntity
  8
1
  6
DOT_CENTER
 62
     4
100
AcDbLine
 10
2040.386088341324
 20
517.8610361825497
 30
0.0
 11
2035.636088341324
 21
517.8610361825497
 31
0.0
  0
LINE
  5
E6
330
27
100
AcDbEntity
  8
1
  6
DOT_CENTER
 62
     4
100
AcDbLine
 10
2059.511088341325
 20
528.2582505924138
 30
0.0
 11
2059.511088341325
 21
513.4638217726857
 31
0.0
  0
LINE
  5
E5
330
27
100
AcDbEntity
  8
1
  6
DOT_CENTER
 62
     4
100
AcDbLine
 10
2052.11387393146
 20
520.8610361825496
 30
0.0
 11
2066.908302751189
 21
520.8610361825496
 31
0.0
  0
LINE
  5
E4
330
27
100
AcDbEntity
  8
1
  6
Continuous
 62
     7
100
AcDbLine
 10
2029.511088341325
 20
530.8610361825497
 30
0.0
 11
2034.511088341325
 21
535.8610361825497
 31
0.0
  0
LINE
  5
E3
330
27
100
AcDbEntity
  8
1
  6
Continuous
 62
     7
100
AcDbLine
 10
2034.511088341325
 20
505.8610361825497
 30
0.0
 11
2029.511088341325
 21
510.8610361825497
 31
0.0
  0
LINE
  5
E2
330
27
100
AcDbEntity
  8
1
  6
Continuous
 62
     7
100
AcDbLine
 10
2089.511088341325
 20
510.8610361825497
 30
0.0
 11
2084.511088341325
 21
505.8610361825497
 31
0.0
  0
LINE
  5
E1
330
27
100
AcDbEntity
  8
1
  6
Continuous
 62
     7
100
AcDbLine
 10
2084.511088341325
 20
535.8610361825497
 30
0.0
 11
2089.511088341325
 21
530.8610361825497
 31
0.0
  0
LINE
  5
E0
330
27
100
AcDbEntity
  8
1
  6
DASHED
 62
     2
100
AcDbLine
 10
2045.011088341325
 20
505.8610361825497
 30
0.0
 11
2045.011088341325
 21
535.8610361825497
 31
0.0
  0
LINE
  5
DF
330
27
100
AcDbEntity
  8
1
  6
Continuous
 62
     7
100
AcDbLine
 10
2043.511088341325
 20
535.8610361825497
 30
0.0
 11
2043.511088341325
 21
505.8610361825497
 31
0.0
  0
LINE
  5
DE
330
27
100
AcDbEntity
  8
1
  6
Continuous
 62
     7
100
AcDbLine
 10
2075.511088341325
 20
535.8610361825497
 30
0.0
 11
2075.511088341325
 21
505.8610361825497
 31
0.0
  0
LINE
  5
DD
330
27
100
AcDbEntity
  8
1
  6
DASHED
 62
     2
100
AcDbLine
 10
2074.011088341325
 20
535.8610361825497
 30
0.0
 11
2074.011088341325
 21
505.8610361825497
 31
0.0
  0
LINE
  5
DC
330
27
100
AcDbEntity
  8
1
  6
Continuous
 62
     7
100
AcDbLine
 10
2089.511088341325
 20
510.8610361825497
 30
0.0
 11
2089.511088341325
 21
530.8610361825497
 31
0.0
  0
LINE
  5
DB
330
27
100
AcDbEntity
  8
1
  6
Continuous
 62
     7
100
AcDbLine
 10
2034.511088341325
 20
505.8610361825497
 30
0.0
 11
2084.511088341325
 21
505.8610361825497
 31
0.0
  0
LINE
  5
DA
330
27
100
AcDbEntity
  8
1
  6
Continuous
 62
     7
100
AcDbLine
 10
2029.511088341325
 20
530.8610361825497
 30
0.0
 11
2029.511088341325
 21
510.8610361825497
 31
0.0
  0
LINE
  5
D9
330
27
100
AcDbEntity
  8
1
  6
Continuous
 62
     7
100
AcDbLine
 10
2084.511088341325
 20
535.8610361825497
 30
0.0
 11
2034.511088341325
 21
535.8610361825497
 31
0.0
  0
LINE
  5
D8
330
27
100
AcDbEntity
  8
1
  6
DOT_CENTER
 62
     4
100
AcDbLine
 10
2321.511088341325
 20
523.2360361824756
 30
0.0
 11
2321.511088341325
 21
518.4860361824757
 31
0.0
  0
LINE
  5
D7
330
27
100
AcDbEntity
  8
1
  6
DOT_CENTER
 62
     4
100
AcDbLine
 10
2323.886088341325
 20
520.8610361824757
 30
0.0
 11
2319.136088341325
 21
520.8610361824757
 31
0.0
  0
LINE
  5
D6
330
27
100
AcDbEntity
  8
1
  6
DOT_CENTER
 62
     4
100
AcDbLine
 10
2363.011088341325
 20
521.0360361824756
 30
0.0
 11
2363.011088341325
 21
516.2860361824756
 31
0.0
  0
LINE
  5
D5
330
27
100
AcDbEntity
  8
1
  6
DOT_CENTER
 62
     4
100
AcDbLine
 10
2365.386088341325
 20
518.6610361824756
 30
0.0
 11
2360.636088341325
 21
518.6610361824756
 31
0.0
  0
LINE
  5
D4
330
27
100
AcDbEntity
  8
1
  6
Continuous
 62
     7
100
AcDbLine
 10
2368.011088341325
 20
533.6610361824756
 30
0.0
 11
2318.011088341325
 21
533.6610361824756
 31
0.0
  0
LINE
  5
D3
330
27
100
AcDbEntity
  8
1
  6
Continuous
 62
     7
100
AcDbLine
 10
2313.011088341325
 20
528.6610361824756
 30
0.0
 11
2313.011088341325
 21
508.6610361824756
 31
0.0
  0
LINE
  5
D2
330
27
100
AcDbEntity
  8
1
  6
Continuous
 62
     7
100
AcDbLine
 10
2318.011088341325
 20
503.6610361824756
 30
0.0
 11
2368.011088341325
 21
503.6610361824756
 31
0.0
  0
LINE
  5
D1
330
27
100
AcDbEntity
  8
1
  6
Continuous
 62
     7
100
AcDbLine
 10
2373.011088341325
 20
508.6610361824756
 30
0.0
 11
2373.011088341325
 21
528.6610361824756
 31
0.0
  0
LINE
  5
D0
330
27
100
AcDbEntity
  8
1
  6
DASHED
 62
     2
100
AcDbLine
 10
2357.511088341325
 20
533.6610361824756
 30
0.0
 11
2357.511088341325
 21
503.6610361824756
 31
0.0
  0
LINE
  5
CF
330
27
100
AcDbEntity
  8
1
  6
Continuous
 62
     7
100
AcDbLine
 10
2359.011088341325
 20
533.6610361824756
 30
0.0
 11
2359.011088341325
 21
503.6610361824756
 31
0.0
  0
LINE
  5
CE
330
27
100
AcDbEntity
  8
1
  6
Continuous
 62
     7
100
AcDbLine
 10
2327.011088341325
 20
533.6610361824756
 30
0.0
 11
2327.011088341325
 21
503.6610361824756
 31
0.0
  0
LINE
  5
CD
330
27
100
AcDbEntity
  8
1
  6
DASHED
 62
     2
100
AcDbLine
 10
2328.511088341325
 20
503.6610361824756
 30
0.0
 11
2328.511088341325
 21
533.6610361824756
 31
0.0
  0
LINE
  5
CC
330
27
100
AcDbEntity
  8
1
  6
Continuous
 62
     7
100
AcDbLine
 10
2368.011088341325
 20
533.6610361824756
 30
0.0
 11
2373.011088341325
 21
528.6610361824756
 31
0.0
  0
LINE
  5
CB
330
27
100
AcDbEntity
  8
1
  6
Continuous
 62
     7
100
AcDbLine
 10
2373.011088341325
 20
508.6610361824756
 30
0.0
 11
2368.011088341325
 21
503.6610361824756
 31
0.0
  0
LINE
  5
CA
330
27
100
AcDbEntity
  8
1
  6
Continuous
 62
     7
100
AcDbLine
 10
2318.011088341325
 20
503.6610361824756
 30
0.0
 11
2313.011088341325
 21
508.6610361824756
 31
0.0
  0
LINE
  5
C9
330
27
100
AcDbEntity
  8
1
  6
Continuous
 62
     7
100
AcDbLine
 10
2313.011088341325
 20
528.6610361824756
 30
0.0
 11
2318.011088341325
 21
533.6610361824756
 31
0.0
  0
LINE
  5
C8
330
27
100
AcDbEntity
  8
1
  6
DOT_CENTER
 62
     4
100
AcDbLine
 10
2335.61387393146
 20
518.6610361824756
 30
0.0
 11
2350.408302751188
 21
518.6610361824756
 31
0.0
  0
LINE
  5
C7
330
27
100
AcDbEntity
  8
1
  6
DOT_CENTER
 62
     4
100
AcDbLine
 10
2343.011088341325
 20
526.0582505923397
 30
0.0
 11
2343.011088341325
 21
511.2638217726115
 31
0.0
  0
ENDBLK
  5
181
330
27
100
AcDbEntity
  8
0
100
AcDbBlockEnd
  0
BLOCK
  5
2A
330
29
100
AcDbEntity
  8
0
100
AcDbBlockBegin
  2
38316-8003-0000
 70
     0
 10
3005.307745175124
 20
820.6457800192692
 30
0.0
  3
38316-8003-0000
  1

  0
INSERT
  5
2B
330
29
100
AcDbEntity
  8
0
100
AcDbBlockReference
  2
37134-8000-G000
 10
3076.740824015836
 20
299.9228076336867
 30
0.0
  0
ENDBLK
  5
182
330
29
100
AcDbEntity
  8
0
100
AcDbBlockEnd
  0
BLOCK
  5
2D
330
2C
100
AcDbEntity
  8
0
100
AcDbBlockBegin
  2
PRN_K_A3__1
 70
     0
 10
-6510.289500764788
 20
-8885.019816083795
 30
0.0
  3
PRN_K_A3__1
  1

  0
MTEXT
  5
1EE
330
2C
100
AcDbEntity
  8
1
 62
     1
100
AcDbMText
 10
-5897.193425993402
 20
-8287.382944232543
 30
0.0
 40
3.207599999999999
 41
0.0
 71
     7
 72
     1
  1
部品表
  7
CONVERTER_1
 73
     1
 44
1.0
1001
ACAD
1000
MTEXTBEGIN
1070
    73
1070
     1
1070
    44
1040
1.0
1070
    74
1070
     0
1000
MTEXTEND
  0
TEXT
  5
1ED
330
2C
100
AcDbEntity
  8
1
 62
     1
100
AcDbText
 10
-5897.533583642517
 20
-8280.783885839706
 30
0.0
 40
3.207599999999999
  1
機種名
 41
0.89
  7
CONVERTER_1
100
AcDbText
  0
TEXT
  5
1EC
330
2C
100
AcDbEntity
  8
1
 62
     1
100
AcDbText
 10
-5911.343984196608
 20
-8312.214452617965
 30
0.0
 40
3.207599999999999
  1
番
 41
0.89
  7
CONVERTER_1
100
AcDbText
  0
TEXT
  5
1EB
330
2C
100
AcDbEntity
  8
1
 62
     1
100
AcDbText
 10
-5911.343984196608
 20
-8307.180119411064
 30
0.0
 40
3.207599999999999
  1
図
 41
0.89
  7
CONVERTER_1
100
AcDbText
  0
MTEXT
  5
1EA
330
2C
100
AcDbEntity
  8
1
 62
     1
100
AcDbMText
 10
-5912.021257127926
 20
-8300.104840309463
 30
0.0
 40
2.673
 41
0.0
 71
     7
 72
     1
  1
ストックＮｏ
  7
CONVERTER_4
 73
     1
 44
1.0
1001
ACAD
1000
MTEXTBEGIN
1070
    73
1070
     1
1070
    44
1040
1.0
1070
    74
1070
     0
1000
MTEXTEND
  0
TEXT
  5
1E8
330
2C
100
AcDbEntity
  8
1
 62
     1
100
AcDbText
 10
-5909.983353600146
 20
-8294.254128744674
 30
0.0
 40
3.207599999999999
  1
名称
 41
0.89
  7
CONVERTER_1
100
AcDbText
  0
TEXT
  5
1E7
330
2C
100
AcDbEntity
  8
1
 62
     1
100
AcDbText
 10
-5920.188083073615
 20
-8289.354482436232
 30
0.0
 40
3.207599999999999
  1
処　　理
 41
0.89
  7
CONVERTER_1
100
AcDbText
  0
TEXT
  5
1E6
330
2C
100
AcDbEntity
  8
1
 62
     1
100
AcDbText
 10
-5924.201943333176
 20
-8293.631282436235
 30
0.0
 40
3.207599999999999
  1
入庫
 41
0.89
  7
CONVERTER_1
100
AcDbText
  0
TEXT
  5
1E5
330
2C
100
AcDbEntity
  8
1
 62
     1
100
AcDbText
 10
-5938.556596125853
 20
-8293.631282436235
 30
0.0
 40
3.207599999999999
  1
承認
 41
0.89
  7
CONVERTER_1
100
AcDbText
  0
TEXT
  5
1E4
330
2C
100
AcDbEntity
  8
1
 62
     1
100
AcDbText
 10
-5953.863690336052
 20
-8293.631282436235
 30
0.0
 40
3.207599999999999
  1
検図
 41
0.89
  7
CONVERTER_1
100
AcDbText
  0
TEXT
  5
1E3
330
2C
100
AcDbEntity
  8
1
 62
     1
100
AcDbText
 10
-5968.558500777845
 20
-8293.631282436235
 30
0.0
 40
3.207599999999999
  1
設計
 41
0.89
  7
CONVERTER_1
100
AcDbText
  0
TEXT
  5
1E2
330
2C
100
AcDbEntity
  8
1
 62
     1
100
AcDbText
 10
-5983.457405809105
 20
-8293.631282436235
 30
0.0
 40
3.207599999999999
  1
製図
 41
0.89
  7
CONVERTER_1
100
AcDbText
  0
TEXT
  5
1E1
330
2C
100
AcDbEntity
  8
1
 62
     1
100
AcDbText
 10
-5947.808884181797
 20
-8289.354482436232
 30
0.0
 40
3.207599999999999
  1
材　　料
 41
0.89
  7
CONVERTER_1
100
AcDbText
  0
TEXT
  5
1E0
330
2C
100
AcDbEntity
  8
1
 62
     1
100
AcDbText
 10
-5968.762595367317
 20
-8289.354482436232
 30
0.0
 40
3.207599999999999
  1
公差
 41
0.89
  7
CONVERTER_1
100
AcDbText
  0
TEXT
  5
1DF
330
2C
100
AcDbEntity
  8
1
 62
     1
100
AcDbText
 10
-5983.661500398575
 20
-8289.354482436232
 30
0.0
 40
3.207599999999999
  1
尺度
 41
0.89
  7
CONVERTER_1
100
AcDbText
  0
TEXT
  5
1DE
330
2C
100
AcDbEntity
  8
1
 62
     1
100
AcDbText
 10
-6009.717576320825
 20
-8313.411482436235
 30
0.0
 40
3.207599999999999
  1
改　連Ｎｏ．
 41
0.89
  7
CONVERTER_1
100
AcDbText
  0
TEXT
  5
1DD
330
2C
100
AcDbEntity
  8
1
 62
     1
100
AcDbText
 10
-6019.514116615354
 20
-8313.411482436235
 30
0.0
 40
3.207599999999999
  1
担当
 41
0.89
  7
CONVERTER_1
100
AcDbText
  0
TEXT
  5
1DC
330
2C
100
AcDbEntity
  8
1
 62
     1
100
AcDbText
 10
-6028.11679313492
 20
-8313.411482436235
 30
0.0
 40
3.207599999999999
  1
月日
 41
0.89
  7
CONVERTER_1
100
AcDbText
  0
TEXT
  5
1DB
330
2C
100
AcDbEntity
  8
1
 62
     1
100
AcDbText
 10
-6037.474440488654
 20
-8317.520911944184
 30
0.0
 40
3.207599999999999
  1
設置
 41
0.89
  7
CONVERTER_1
100
AcDbText
  0
TEXT
  5
1DA
330
2C
100
AcDbEntity
  8
1
 62
     1
100
AcDbText
 10
-6037.406408958831
 20
-8313.370988624965
 30
0.0
 40
3.207599999999999
  1
記号
 41
0.89
  7
CONVERTER_1
100
AcDbText
  0
TEXT
  5
1D9
330
2C
100
AcDbEntity
  8
1
 62
     1
100
AcDbText
 10
-5974.937815155836
 20
-8319.290654352613
 30
0.0
 40
4.597559999999999
  1
Ａ＆Ｄ　ＣＯ．，ＬＴＤ．
 41
0.89
  7
CONVERTER_1
100
AcDbText
  0
TEXT
  5
1D8
330
2C
100
AcDbEntity
  8
1
 62
     1
100
AcDbText
 10
-5906.81847466802
 20
-8319.237132262022
 30
0.0
 40
3.207599999999999
  1
適用ロット
 41
0.89
  7
CONVERTER_1
100
AcDbText
  0
TEXT
  5
1D7
330
2C
100
AcDbEntity
  8
1
 62
     1
100
AcDbText
 10
-6148.461956194088
 20
-8308.042938699443
 30
0.0
 40
3.42144
  1
「エー・アンド・デイ　グリーン調達ガイドライン」に準拠のこと。
 41
0.89
  7
CONVERTER_1
100
AcDbText
  0
MTEXT
  5
1D6
330
2C
100
AcDbEntity
  8
1
 62
     1
100
AcDbMText
 10
-6141.838605700738
 20
-8296.394049297239
 30
0.0
 40
3.207599999999999
 41
0.0
 71
     7
 72
     1
  1
1.外装、内装の塗装色はＪＡＸＡ殿指定色とする。（既設盤と同色）\P 外装色：マンセルＮ６　半ツヤ\P 内装色：マンセル２．５Ｙ８／２　半ツヤ
  7
CONVERTER_1
 73
     1
 44
1.0
1001
ACAD
1000
MTEXTBEGIN
1070
    73
1070
     1
1070
    44
1040
1.0
1070
    74
1070
     0
1000
MTEXTEND
  0
TEXT
  5
1D5
330
2C
100
AcDbEntity
  8
1
 62
     1
100
AcDbText
 10
-6152.161870369727
 20
-8285.441972502816
 30
0.0
 40
3.42144
  1
注記
 41
0.89
  7
CONVERTER_1
100
AcDbText
  0
MTEXT
  5
1D4
330
2C
100
AcDbEntity
  8
1
 62
     4
100
AcDbMText
 10
-6266.548393134919
 20
-8171.207882436235
 30
0.0
 40
8.553599999999999
 41
0.0
 71
     5
 72
     1
  1
A3 for LASER-PRINTER
  7
CONVERTER_3
 11
0.0
 21
1.0
 31
0.0
 73
     1
 44
1.0
1001
ACAD
1000
MTEXTBEGIN
1070
    73
1070
     1
1070
    44
1040
1.0
1070
    74
1070
     0
1000
MTEXTEND
  0
MTEXT
  5
1D2
330
2C
100
AcDbEntity
  8
1
 62
     4
100
AcDbMText
 10
-5857.719522405609
 20
-8026.39581588977
 30
0.0
 40
1.81764
 41
0.0
 71
     4
 72
     1
  1
OTHER
  7
CONVERTER_2
 73
     1
 44
1.0
1001
ACAD
1000
MTEXTBEGIN
1070
    73
1070
     1
1070
    44
1040
1.0
1070
    74
1070
     0
1000
MTEXTEND
  0
MTEXT
  5
1D1
330
2C
100
AcDbEntity
  8
1
 62
     4
100
AcDbMText
 10
-5857.746021834774
 20
-8023.583665470484
 30
0.0
 40
1.81764
 41
0.0
 71
     4
 72
     1
  1
GRAM
  7
CONVERTER_2
 73
     1
 44
1.0
1001
ACAD
1000
MTEXTBEGIN
1070
    73
1070
     1
1070
    44
1040
1.0
1070
    74
1070
     0
1000
MTEXTEND
  0
MTEXT
  5
1D0
330
2C
100
AcDbEntity
  8
1
 62
     4
100
AcDbMText
 10
-5857.746021834774
 20
-8020.910665470484
 30
0.0
 40
1.81764
 41
0.0
 71
     4
 72
     1
  1
FEET
  7
CONVERTER_2
 73
     1
 44
1.0
1001
ACAD
1000
MTEXTBEGIN
1070
    73
1070
     1
1070
    44
1040
1.0
1070
    74
1070
     0
1000
MTEXTEND
  0
MTEXT
  5
1CF
330
2C
100
AcDbEntity
  8
1
 62
     4
100
AcDbMText
 10
-5862.210162405609
 20
-8026.39581588977
 30
0.0
 40
1.81764
 41
0.0
 71
     4
 72
     1
  1
Z
  7
CONVERTER_2
 73
     1
 44
1.0
1001
ACAD
1000
MTEXTBEGIN
1070
    73
1070
     1
1070
    44
1040
1.0
1070
    74
1070
     0
1000
MTEXTEND
  0
MTEXT
  5
1CE
330
2C
100
AcDbEntity
  8
1
 62
     4
100
AcDbMText
 10
-5859.002562405609
 20
-8026.39581588977
 30
0.0
 40
3.207599999999999
 41
0.0
 71
     6
 72
     1
  1
:
  7
CONVERTER_2
 73
     1
 44
1.0
1001
ACAD
1000
MTEXTBEGIN
1070
    73
1070
     1
1070
    44
1040
1.0
1070
    74
1070
     0
1000
MTEXTEND
  0
MTEXT
  5
1CD
330
2C
100
AcDbEntity
  8
1
 62
     4
100
AcDbMText
 10
-5859.029061834775
 20
-8023.583665470484
 30
0.0
 40
3.207599999999999
 41
0.0
 71
     6
 72
     1
  1
:
  7
CONVERTER_2
 73
     1
 44
1.0
1001
ACAD
1000
MTEXTBEGIN
1070
    73
1070
     1
1070
    44
1040
1.0
1070
    74
1070
     0
1000
MTEXTEND
  0
MTEXT
  5
1CC
330
2C
100
AcDbEntity
  8
1
 62
     4
100
AcDbMText
 10
-5862.236661834773
 20
-8023.583665470484
 30
0.0
 40
1.81764
 41
0.0
 71
     4
 72
     1
  1
G
  7
CONVERTER_2
 73
     1
 44
1.0
1001
ACAD
1000
MTEXTBEGIN
1070
    73
1070
     1
1070
    44
1040
1.0
1070
    74
1070
     0
1000
MTEXTEND
  0
MTEXT
  5
1CB
330
2C
100
AcDbEntity
  8
1
 62
     4
100
AcDbMText
 10
-5859.029061834775
 20
-8020.910665470484
 30
0.0
 40
3.207599999999999
 41
0.0
 71
     6
 72
     1
  1
:
  7
CONVERTER_2
 73
     1
 44
1.0
1001
ACAD
1000
MTEXTBEGIN
1070
    73
1070
     1
1070
    44
1040
1.0
1070
    74
1070
     0
1000
MTEXTEND
  0
MTEXT
  5
1CA
330
2C
100
AcDbEntity
  8
1
 62
     4
100
AcDbMText
 10
-5862.236661834773
 20
-8020.910665470484
 30
0.0
 40
1.81764
 41
0.0
 71
     4
 72
     1
  1
F
  7
CONVERTER_2
 73
     1
 44
1.0
1001
ACAD
1000
MTEXTBEGIN
1070
    73
1070
     1
1070
    44
1040
1.0
1070
    74
1070
     0
1000
MTEXTEND
  0
MTEXT
  5
1C9
330
2C
100
AcDbEntity
  8
1
 62
     4
100
AcDbMText
 10
-5879.060424781798
 20
-8023.551570481441
 30
0.0
 40
1.81764
 41
0.0
 71
     4
 72
     1
  1
M
  7
CONVERTER_2
 73
     1
 44
1.0
1001
ACAD
1000
MTEXTBEGIN
1070
    73
1070
     1
1070
    44
1040
1.0
1070
    74
1070
     0
1000
MTEXTEND
  0
MTEXT
  5
1C8
330
2C
100
AcDbEntity
  8
1
 62
     4
100
AcDbMText
 10
-5879.060424781798
 20
-8020.901335996459
 30
0.0
 40
1.81764
 41
0.0
 71
     4
 72
     1
  1
W
  7
CONVERTER_2
 73
     1
 44
1.0
1001
ACAD
1000
MTEXTBEGIN
1070
    73
1070
     1
1070
    44
1040
1.0
1070
    74
1070
     0
1000
MTEXTEND
  0
MTEXT
  5
1C7
330
2C
100
AcDbEntity
  8
1
 62
     4
100
AcDbMText
 10
-5875.852824781801
 20
-8023.551570481441
 30
0.0
 40
3.207599999999999
 41
0.0
 71
     6
 72
     1
  1
:
  7
CONVERTER_2
 73
     1
 44
1.0
1001
ACAD
1000
MTEXTBEGIN
1070
    73
1070
     1
1070
    44
1040
1.0
1070
    74
1070
     0
1000
MTEXTEND
  0
MTEXT
  5
1C6
330
2C
100
AcDbEntity
  8
1
 62
     4
100
AcDbMText
 10
-5875.852824781801
 20
-8020.901335996459
 30
0.0
 40
3.207599999999999
 41
0.0
 71
     6
 72
     1
  1
:
  7
CONVERTER_2
 73
     1
 44
1.0
1001
ACAD
1000
MTEXTBEGIN
1070
    73
1070
     1
1070
    44
1040
1.0
1070
    74
1070
     0
1000
MTEXTEND
  0
MTEXT
  5
1C5
330
2C
100
AcDbEntity
  8
1
 62
     4
100
AcDbMText
 10
-5874.569784781799
 20
-8020.901335996459
 30
0.0
 40
1.81764
 41
0.0
 71
     4
 72
     1
  1
DOZEN
  7
CONVERTER_2
 73
     1
 44
1.0
1001
ACAD
1000
MTEXTBEGIN
1070
    73
1070
     1
1070
    44
1040
1.0
1070
    74
1070
     0
1000
MTEXTEND
  0
MTEXT
  5
1C4
330
2C
100
AcDbEntity
  8
1
 62
     4
100
AcDbMText
 10
-5874.569784781799
 20
-8023.551570481441
 30
0.0
 40
1.81764
 41
0.0
 71
     4
 72
     1
  1
METER
  7
CONVERTER_2
 73
     1
 44
1.0
1001
ACAD
1000
MTEXTBEGIN
1070
    73
1070
     1
1070
    44
1040
1.0
1070
    74
1070
     0
1000
MTEXTEND
  0
MTEXT
  5
1C3
330
2C
100
AcDbEntity
  8
1
 62
     4
100
AcDbMText
 10
-5874.583982208721
 20
-8026.338052676669
 30
0.0
 40
1.81764
 41
0.0
 71
     4
 72
     1
  1
LITER
  7
CONVERTER_2
 73
     1
 44
1.0
1001
ACAD
1000
MTEXTBEGIN
1070
    73
1070
     1
1070
    44
1040
1.0
1070
    74
1070
     0
1000
MTEXTEND
  0
MTEXT
  5
1C2
330
2C
100
AcDbEntity
  8
1
 62
     4
100
AcDbMText
 10
-5875.86702220872
 20
-8026.338052676669
 30
0.0
 40
3.207599999999999
 41
0.0
 71
     6
 72
     1
  1
:
  7
CONVERTER_2
 73
     1
 44
1.0
1001
ACAD
1000
MTEXTBEGIN
1070
    73
1070
     1
1070
    44
1040
1.0
1070
    74
1070
     0
1000
MTEXTEND
  0
MTEXT
  5
1C1
330
2C
100
AcDbEntity
  8
1
 62
     4
100
AcDbMText
 10
-5878.860065144866
 20
-8026.338052676669
 30
0.0
 40
1.81764
 41
0.0
 71
     4
 72
     1
  1
L
  7
CONVERTER_2
 73
     1
 44
1.0
1001
ACAD
1000
MTEXTBEGIN
1070
    73
1070
     1
1070
    44
1040
1.0
1070
    74
1070
     0
1000
MTEXTEND
  0
MTEXT
  5
1C0
330
2C
100
AcDbEntity
  8
1
 62
     4
100
AcDbMText
 10
-5894.242705139191
 20
-8026.260315156005
 30
0.0
 40
1.81764
 41
0.0
 71
     4
 72
     1
  1
U
  7
CONVERTER_2
 73
     1
 44
1.0
1001
ACAD
1000
MTEXTBEGIN
1070
    73
1070
     1
1070
    44
1040
1.0
1070
    74
1070
     0
1000
MTEXTEND
  0
MTEXT
  5
1BF
330
2C
100
AcDbEntity
  8
1
 62
     4
100
AcDbMText
 10
-5891.035105139192
 20
-8026.260315156005
 30
0.0
 40
3.207599999999999
 41
0.0
 71
     6
 72
     1
  1
:
  7
CONVERTER_2
 73
     1
 44
1.0
1001
ACAD
1000
MTEXTBEGIN
1070
    73
1070
     1
1070
    44
1040
1.0
1070
    74
1070
     0
1000
MTEXTEND
  0
MTEXT
  5
1BE
330
2C
100
AcDbEntity
  8
1
 62
     4
100
AcDbMText
 10
-5889.752065139191
 20
-8026.260315156005
 30
0.0
 40
1.81764
 41
0.0
 71
     4
 72
     1
  1
UNIT
  7
CONVERTER_2
 73
     1
 44
1.0
1001
ACAD
1000
MTEXTBEGIN
1070
    73
1070
     1
1070
    44
1040
1.0
1070
    74
1070
     0
1000
MTEXTEND
  0
MTEXT
  5
1BD
330
2C
100
AcDbEntity
  8
1
 62
     4
100
AcDbMText
 10
-5889.752065139191
 20
-8020.914315156003
 30
0.0
 40
1.81764
 41
0.0
 71
     4
 72
     1
  1
PIECE
  7
CONVERTER_2
 73
     1
 44
1.0
1001
ACAD
1000
MTEXTBEGIN
1070
    73
1070
     1
1070
    44
1040
1.0
1070
    74
1070
     0
1000
MTEXTEND
  0
MTEXT
  5
1BC
330
2C
100
AcDbEntity
  8
1
 62
     4
100
AcDbMText
 10
-5889.752065139191
 20
-8023.587315156007
 30
0.0
 40
1.81764
 41
0.0
 71
     4
 72
     1
  1
SET
  7
CONVERTER_2
 73
     1
 44
1.0
1001
ACAD
1000
MTEXTBEGIN
1070
    73
1070
     1
1070
    44
1040
1.0
1070
    74
1070
     0
1000
MTEXTEND
  0
MTEXT
  5
1BB
330
2C
100
AcDbEntity
  8
1
 62
     4
100
AcDbMText
 10
-5891.035105139192
 20
-8023.587315156007
 30
0.0
 40
3.207599999999999
 41
0.0
 71
     6
 72
     1
  1
:
  7
CONVERTER_2
 73
     1
 44
1.0
1001
ACAD
1000
MTEXTBEGIN
1070
    73
1070
     1
1070
    44
1040
1.0
1070
    74
1070
     0
1000
MTEXTEND
  0
MTEXT
  5
1BA
330
2C
100
AcDbEntity
  8
1
 62
     4
100
AcDbMText
 10
-5891.035105139192
 20
-8020.914315156003
 30
0.0
 40
3.207599999999999
 41
0.0
 71
     6
 72
     1
  1
:
  7
CONVERTER_2
 73
     1
 44
1.0
1001
ACAD
1000
MTEXTBEGIN
1070
    73
1070
     1
1070
    44
1040
1.0
1070
    74
1070
     0
1000
MTEXTEND
  0
MTEXT
  5
1B9
330
2C
100
AcDbEntity
  8
1
 62
     4
100
AcDbMText
 10
-5894.242705139191
 20
-8023.587315156007
 30
0.0
 40
1.81764
 41
0.0
 71
     4
 72
     1
  1
S
  7
CONVERTER_2
 73
     1
 44
1.0
1001
ACAD
1000
MTEXTBEGIN
1070
    73
1070
     1
1070
    44
1040
1.0
1070
    74
1070
     0
1000
MTEXTEND
  0
MTEXT
  5
1B8
330
2C
100
AcDbEntity
  8
1
 62
     4
100
AcDbMText
 10
-5894.242705139191
 20
-8020.914315156003
 30
0.0
 40
1.81764
 41
0.0
 71
     4
 72
     1
  1
P
  7
CONVERTER_2
 73
     1
 44
1.0
1001
ACAD
1000
MTEXTBEGIN
1070
    73
1070
     1
1070
    44
1040
1.0
1070
    74
1070
     0
1000
MTEXTEND
  0
MTEXT
  5
1B7
330
2C
100
AcDbEntity
  8
1
 62
     4
100
AcDbMText
 10
-5906.636104567591
 20
-8020.914315156003
 30
0.0
 40
1.81764
 41
0.0
 71
     5
 72
     1
  1
UNIT MARK
  7
CONVERTER_2
 73
     1
 44
1.0
1001
ACAD
1000
MTEXTBEGIN
1070
    73
1070
     1
1070
    44
1040
1.0
1070
    74
1070
     0
1000
MTEXTEND
  0
MTEXT
  5
1B5
330
2C
100
AcDbEntity
  8
1
 62
     1
100
AcDbMText
 10
-5922.616279704264
 20
-8281.840555866892
 30
0.0
 40
3.563999999999999
 41
0.0
 71
     7
 72
     1
  1
客先指定色
  7
CONVERTER_1
 73
     1
 44
1.0
1001
ACAD
1000
MTEXTBEGIN
1070
    73
1070
     1
1070
    44
1040
1.0
1070
    74
1070
     0
1000
MTEXTEND
  0
LINE
  5
1B3
330
2C
100
AcDbEntity
  8
1
  6
Continuous
 62
     2
100
AcDbLine
 10
-5885.37859313492
 20
-8313.946082436233
 30
0.0
 11
-5845.406276912305
 21
-8321.430482436232
 31
0.0
  0
LINE
  5
1B2
330
2C
100
AcDbEntity
  8
1
  6
Continuous
 62
     2
100
AcDbLine
 10
-5885.37859313492
 20
-8313.946082436233
 30
0.0
 11
-5885.37859313492
 21
-8321.430482436232
 31
0.0
  0
LINE
  5
1B1
330
2C
100
AcDbEntity
  8
1
  6
Continuous
 62
     7
100
AcDbLine
 10
-5913.17779313492
 20
-8321.430482436232
 30
0.0
 11
-5913.17779313492
 21
-8313.946082436233
 31
0.0
  0
LINE
  5
1B0
330
2C
100
AcDbEntity
  8
1
  6
Continuous
 62
     7
100
AcDbLine
 10
-5845.406276912305
 20
-8321.430482436232
 30
0.0
 11
-5913.17779313492
 21
-8321.430482436232
 31
0.0
  0
LINE
  5
1AF
330
2C
100
AcDbEntity
  8
1
  6
Continuous
 62
     7
100
AcDbLine
 10
-5845.406276912305
 20
-8313.946082436233
 30
0.0
 11
-5845.406276912305
 21
-8321.430482436232
 31
0.0
  0
LINE
  5
1AE
330
2C
100
AcDbEntity
  8
1
  6
Continuous
 62
     2
100
AcDbLine
 10
-5906.76259313492
 20
-8302.18488243624
 30
0.0
 11
-5906.76259313492
 21
-8313.946082436233
 31
0.0
  0
LINE
  5
1AD
330
2C
100
AcDbEntity
  8
1
  6
Continuous
 62
     2
100
AcDbLine
 10
-5845.406276912305
 20
-8289.354482436232
 30
0.0
 11
-5885.37859313492
 21
-8282.404682436235
 31
0.0
  0
LINE
  5
1AC
330
2C
100
AcDbEntity
  8
1
  6
Continuous
 62
     2
100
AcDbLine
 10
-5900.347393134919
 20
-8282.404682436235
 30
0.0
 11
-5845.406276912305
 21
-8282.404682436235
 31
0.0
  0
LINE
  5
1AB
330
2C
100
AcDbEntity
  8
1
  6
Continuous
 62
     2
100
AcDbLine
 10
-5900.347393134919
 20
-8289.354482436232
 30
0.0
 11
-5845.406276912305
 21
-8289.354482436232
 31
0.0
  0
LINE
  5
1AA
330
2C
100
AcDbEntity
  8
1
  6
Continuous
 62
     2
100
AcDbLine
 10
-5885.37859313492
 20
-8275.454882436235
 30
0.0
 11
-5885.37859313492
 21
-8289.354482436232
 31
0.0
  0
LINE
  5
1A9
330
2C
100
AcDbEntity
  8
1
  6
Continuous
 62
     2
100
AcDbLine
 10
-5913.17779313492
 20
-8295.769682436235
 30
0.0
 11
-5845.406276912305
 21
-8295.769682436235
 31
0.0
  0
LINE
  5
1A8
330
2C
100
AcDbEntity
  8
1
  6
Continuous
 62
     2
100
AcDbLine
 10
-5913.17779313492
 20
-8302.18488243624
 30
0.0
 11
-5845.406276912305
 21
-8302.18488243624
 31
0.0
  0
LINE
  5
1A7
330
2C
100
AcDbEntity
  8
1
  6
Continuous
 62
     2
100
AcDbLine
 10
-5900.347393134919
 20
-8275.454882436235
 30
0.0
 11
-5900.347393134919
 21
-8302.18488243624
 31
0.0
  0
LINE
  5
1A6
330
2C
100
AcDbEntity
  8
1
  6
Continuous
 62
     2
100
AcDbLine
 10
-5913.17779313492
 20
-8289.354482436232
 30
0.0
 11
-5913.17779313492
 21
-8313.946082436233
 31
0.0
  0
LINE
  5
1A5
330
2C
100
AcDbEntity
  8
1
  6
Continuous
 62
     2
100
AcDbLine
 10
-5928.146593134919
 20
-8293.631282436235
 30
0.0
 11
-5913.17779313492
 21
-8293.631282436235
 31
0.0
  0
LINE
  5
1A4
330
2C
100
AcDbEntity
  8
1
  6
Continuous
 62
     2
100
AcDbLine
 10
-5928.146593134919
 20
-8289.354482436232
 30
0.0
 11
-5900.347393134919
 21
-8289.354482436232
 31
0.0
  0
LINE
  5
1A3
330
2C
100
AcDbEntity
  8
1
  6
Continuous
 62
     2
100
AcDbLine
 10
-5928.146593134919
 20
-8285.077682436234
 30
0.0
 11
-5900.347393134919
 21
-8285.077682436234
 31
0.0
  0
LINE
  5
1A2
330
2C
100
AcDbEntity
  8
1
  6
Continuous
 62
     2
100
AcDbLine
 10
-5943.115393134919
 20
-8289.354482436232
 30
0.0
 11
-5943.115393134919
 21
-8313.946082436233
 31
0.0
  0
LINE
  5
1A1
330
2C
100
AcDbEntity
  8
1
  6
Continuous
 62
     2
100
AcDbLine
 10
-5928.146593134919
 20
-8293.631282436235
 30
0.0
 11
-5988.02179313492
 21
-8293.631282436235
 31
0.0
  0
LINE
  5
1A0
330
2C
100
AcDbEntity
  8
1
  6
Continuous
 62
     2
100
AcDbLine
 10
-5928.146593134919
 20
-8289.354482436232
 30
0.0
 11
-5988.02179313492
 21
-8289.354482436232
 31
0.0
  0
LINE
  5
19F
330
2C
100
AcDbEntity
  8
1
  6
Continuous
 62
     2
100
AcDbLine
 10
-5928.146593134919
 20
-8285.077682436234
 30
0.0
 11
-5988.02179313492
 21
-8285.077682436234
 31
0.0
  0
LINE
  5
19E
330
2C
100
AcDbEntity
  8
1
  6
Continuous
 62
     2
100
AcDbLine
 10
-5928.146593134919
 20
-8275.454882436235
 30
0.0
 11
-5928.146593134919
 21
-8313.946082436233
 31
0.0
  0
LINE
  5
19D
330
2C
100
AcDbEntity
  8
1
  6
Continuous
 62
     2
100
AcDbLine
 10
-5958.084193134919
 20
-8275.454882436235
 30
0.0
 11
-5958.084193134919
 21
-8313.946082436233
 31
0.0
  0
LINE
  5
19C
330
2C
100
AcDbEntity
  8
1
  6
Continuous
 62
     2
100
AcDbLine
 10
-5973.05299313492
 20
-8275.454882436235
 30
0.0
 11
-5973.05299313492
 21
-8313.946082436233
 31
0.0
  0
LINE
  5
19B
330
2C
100
AcDbEntity
  8
1
  6
Continuous
 62
     2
100
AcDbLine
 10
-6038.274193134919
 20
-8309.669282436235
 30
0.0
 11
-5988.02179313492
 21
-8309.669282436235
 31
0.0
  0
LINE
  5
19A
330
2C
100
AcDbEntity
  8
1
  6
Continuous
 62
     2
100
AcDbLine
 10
-6038.274193134919
 20
-8305.392482436236
 30
0.0
 11
-5988.02179313492
 21
-8305.392482436236
 31
0.0
  0
LINE
  5
199
330
2C
100
AcDbEntity
  8
1
  6
Continuous
 62
     2
100
AcDbLine
 10
-6038.274193134919
 20
-8301.115682436238
 30
0.0
 11
-5988.02179313492
 21
-8301.115682436238
 31
0.0
  0
LINE
  5
198
330
2C
100
AcDbEntity
  8
1
  6
Continuous
 62
     2
100
AcDbLine
 10
-6038.274193134919
 20
-8296.838882436238
 30
0.0
 11
-5988.02179313492
 21
-8296.838882436238
 31
0.0
  0
LINE
  5
197
330
2C
100
AcDbEntity
  8
1
  6
Continuous
 62
     2
100
AcDbLine
 10
-6038.274193134919
 20
-8292.562082436232
 30
0.0
 11
-5988.02179313492
 21
-8292.562082436232
 31
0.0
  0
LINE
  5
196
330
2C
100
AcDbEntity
  8
1
  6
Continuous
 62
     2
100
AcDbLine
 10
-6038.274193134919
 20
-8288.285282436236
 30
0.0
 11
-5988.02179313492
 21
-8288.285282436236
 31
0.0
  0
LINE
  5
195
330
2C
100
AcDbEntity
  8
1
  6
Continuous
 62
     2
100
AcDbLine
 10
-6038.274193134919
 20
-8284.008482436233
 30
0.0
 11
-5988.02179313492
 21
-8284.008482436233
 31
0.0
  0
LINE
  5
194
330
2C
100
AcDbEntity
  8
1
  6
Continuous
 62
     2
100
AcDbLine
 10
-6038.274193134919
 20
-8279.731682436233
 30
0.0
 11
-5988.02179313492
 21
-8279.731682436233
 31
0.0
  0
LINE
  5
193
330
2C
100
AcDbEntity
  8
1
  6
Continuous
 62
     7
100
AcDbLine
 10
-6038.274193134919
 20
-8275.454882436235
 30
0.0
 11
-5845.406276912305
 21
-8275.454882436235
 31
0.0
  0
LINE
  5
192
330
2C
100
AcDbEntity
  8
1
  6
Continuous
 62
     2
100
AcDbLine
 10
-6038.274193134919
 20
-8318.222882436236
 30
0.0
 11
-5988.02179313492
 21
-8318.222882436236
 31
0.0
  0
LINE
  5
191
330
2C
100
AcDbEntity
  8
1
  6
Continuous
 62
     7
100
AcDbLine
 10
-6038.274193134919
 20
-8275.454882436235
 30
0.0
 11
-6038.274193134919
 21
-8318.222882436236
 31
0.0
  0
LINE
  5
190
330
2C
100
AcDbEntity
  8
1
  6
Continuous
 62
     2
100
AcDbLine
 10
-6030.255193134919
 20
-8275.454882436235
 30
0.0
 11
-6030.255193134919
 21
-8318.222882436236
 31
0.0
  0
LINE
  5
18F
330
2C
100
AcDbEntity
  8
1
  6
Continuous
 62
     2
100
AcDbLine
 10
-6020.632393134921
 20
-8275.454882436235
 30
0.0
 11
-6020.632393134921
 21
-8318.222882436236
 31
0.0
  0
LINE
  5
18E
330
2C
100
AcDbEntity
  8
1
  6
Continuous
 62
     2
100
AcDbLine
 10
-6012.61339313492
 20
-8275.454882436235
 30
0.0
 11
-6012.61339313492
 21
-8318.222882436236
 31
0.0
  0
LINE
  5
18D
330
2C
100
AcDbEntity
  8
1
  6
Continuous
 62
     2
100
AcDbLine
 10
-5988.02179313492
 20
-8318.222882436236
 30
0.0
 11
-5988.02179313492
 21
-8275.454882436235
 31
0.0
  0
LINE
  5
18C
330
2C
100
AcDbEntity
  8
1
  6
Continuous
 62
     2
100
AcDbLine
 10
-5845.406276912305
 20
-8295.769682436235
 30
0.0
 11
-5842.947116912303
 21
-8295.769682436235
 31
0.0
  0
LINE
  5
18B
330
2C
100
AcDbEntity
  8
1
  6
CENTER_DASH_DASH
 62
     4
100
AcDbLine
 10
-5839.402993134919
 20
-8017.777682436236
 30
0.0
 11
-5839.402993134919
 21
-8324.638082436235
 31
0.0
  0
LINE
  5
18A
330
2C
100
AcDbEntity
  8
1
  6
CENTER_DASH_DASH
 62
     4
100
AcDbLine
 10
-6276.705793134921
 20
-8017.777682436236
 30
0.0
 11
-5839.402993134919
 21
-8017.777682436236
 31
0.0
  0
LINE
  5
189
330
2C
100
AcDbEntity
  8
1
  6
PHANTOM
 62
     4
100
AcDbLine
 10
-6276.705793134921
 20
-8324.638082436235
 30
0.0
 11
-5839.402993134919
 21
-8324.638082436235
 31
0.0
  0
LINE
  5
188
330
2C
100
AcDbEntity
  8
1
  6
CENTER_DASH_DASH
 62
     4
100
AcDbLine
 10
-6276.705793134921
 20
-8017.777682436236
 30
0.0
 11
-6276.705793134921
 21
-8324.638082436235
 31
0.0
  0
LINE
  5
187
330
2C
100
AcDbEntity
  8
1
  6
Continuous
 62
     3
100
AcDbLine
 10
-5845.406276912305
 20
-8313.946082436233
 30
0.0
 11
-5845.406276912305
 21
-8028.469682436236
 31
0.0
  0
LINE
  5
186
330
2C
100
AcDbEntity
  8
1
  6
Continuous
 62
     3
100
AcDbLine
 10
-5845.406276912305
 20
-8028.469682436236
 30
0.0
 11
-6262.327189033918
 21
-8028.469682436236
 31
0.0
  0
LINE
  5
185
330
2C
100
AcDbEntity
  8
1
  6
Continuous
 62
     3
100
AcDbLine
 10
-6262.327189033918
 20
-8313.946082436233
 30
0.0
 11
-6262.327189033918
 21
-8028.469682436236
 31
0.0
  0
LINE
  5
184
330
2C
100
AcDbEntity
  8
1
  6
Continuous
 62
     3
100
AcDbLine
 10
-6262.327189033918
 20
-8313.946082436233
 30
0.0
 11
-5845.406276912305
 21
-8313.946082436233
 31
0.0
  0
LINE
  5
183
330
2C
100
AcDbEntity
  8
1
  6
Continuous
 62
     2
100
AcDbLine
 10
-6276.705793134921
 20
-8171.207882436235
 30
0.0
 11
-6263.126953134921
 21
-8171.207882436235
 31
0.0
  0
ENDBLK
  5
1EF
330
2C
100
AcDbEntity
  8
0
100
AcDbBlockEnd
  0
BLOCK
  5
2F
330
2E
100
AcDbEntity
  8
0
100
AcDbBlockBegin
  2
TOP__2
 70
     0
 10
1332.198120405981
 20
-700.5987837318444
 30
0.0
  3
TOP__2
  1

  0
INSERT
  5
30
330
2E
100
AcDbEntity
  8
0
100
AcDbBlockReference
  2
PRN_K_A3__1
 10
888.8571577066686
 20
-1751.475858251808
 30
0.0
 41
3.0
 42
3.0
  0
ENDBLK
  5
1F0
330
2E
100
AcDbEntity
  8
0
100
AcDbBlockEnd
  0
BLOCK
  5
32
330
31
100
AcDbEntity
  8
0
100
AcDbBlockBegin
  2
TOP__3
 70
     0
 10
8383.342013807689
 20
3656.378770063855
 30
0.0
  3
TOP__3
  1

  0
INSERT
  5
33
330
31
100
AcDbEntity
  8
0
100
AcDbBlockReference
  2
TOP__2
 10
1332.198120405981
 20
-700.5987837318444
 30
0.0
  0
ENDBLK
  5
1F1
330
31
100
AcDbEntity
  8
0
100
AcDbBlockEnd
  0
BLOCK
  5
35
330
34
100
AcDbEntity
  8
0
100
AcDbBlockBegin
  2
TOP__4
 70
     0
 10
8159.956180419811
 20
7206.454079178647
 30
0.0
  3
TOP__4
  1

  0
INSERT
  5
36
330
34
100
AcDbEntity
  8
0
100
AcDbBlockReference
  2
TOP__3
 10
8383.342013807689
 20
3656.378770063855
 30
0.0
  0
ENDBLK
  5
1F2
330
34
100
AcDbEntity
  8
0
100
AcDbBlockEnd
  0
BLOCK
  5
38
330
37
100
AcDbEntity
  8
0
100
AcDbBlockBegin
  2
TOP__5
 70
     0
 10
2690.854952953241
 20
292.2723185441864
 30
0.0
  3
TOP__5
  1

  0
INSERT
  5
39
330
37
100
AcDbEntity
  8
0
100
AcDbBlockReference
  2
TOP__4
 10
8159.956180419811
 20
7206.454079178647
 30
0.0
  0
ENDBLK
  5
1F3
330
37
100
AcDbEntity
  8
0
100
AcDbBlockEnd
  0
BLOCK
  5
3B
330
3A
100
AcDbEntity
  8
0
100
AcDbBlockBegin
  2
PRN_K_A3__6
 70
     0
 10
172.6817533129453
 20
136.1368501000416
 30
0.0
  3
PRN_K_A3__6
  1

  0
MTEXT
  5
205
330
3A
100
AcDbEntity
  8
1
 62
     2
100
AcDbMText
 10
946.2261397074527
 20
269.705365621448
 30
0.0
 40
3.0
 41
0.0
 71
     5
 72
     1
  1
査閲
  7
CONVERTER_1
 73
     1
 44
1.0
1001
ACAD
1000
MTEXTBEGIN
1070
    73
1070
     1
1070
    44
1040
1.0
1070
    74
1070
     0
1000
MTEXTEND
  0
MTEXT
  5
204
330
3A
100
AcDbEntity
  8
1
 62
     2
100
AcDbMText
 10
888.1306354168719
 20
269.7074915710614
 30
0.0
 40
3.0
 41
0.0
 71
     5
 72
     1
  1
版数
  7
CONVERTER_1
 73
     1
 44
1.0
1001
ACAD
1000
MTEXTBEGIN
1070
    73
1070
     1
1070
    44
1040
1.0
1070
    74
1070
     0
1000
MTEXTEND
  0
MTEXT
  5
203
330
3A
100
AcDbEntity
  8
1
 62
     2
100
AcDbMText
 10
911.5770103810284
 20
269.818505595191
 30
0.0
 40
3.0
 41
0.0
 71
     5
 72
     1
  1
日付/変更記事
  7
CONVERTER_1
 73
     1
 44
1.0
1001
ACAD
1000
MTEXTBEGIN
1070
    73
1070
     1
1070
    44
1040
1.0
1070
    74
1070
     0
1000
MTEXTEND
  0
MTEXT
  5
202
330
3A
100
AcDbEntity
  8
1
 62
     2
100
AcDbMText
 10
956.2261397074527
 20
269.705365621448
 30
0.0
 40
3.0
 41
0.0
 71
     5
 72
     1
  1
作成
  7
CONVERTER_1
 73
     1
 44
1.0
1001
ACAD
1000
MTEXTBEGIN
1070
    73
1070
     1
1070
    44
1040
1.0
1070
    74
1070
     0
1000
MTEXTEND
  0
MTEXT
  5
201
330
3A
100
AcDbEntity
  8
1
 62
     2
100
AcDbMText
 10
936.2817046230302
 20
269.7728551600484
 30
0.0
 40
3.0
 41
0.0
 71
     5
 72
     1
  1
承認
  7
CONVERTER_1
 73
     1
 44
1.0
1001
ACAD
1000
MTEXTBEGIN
1070
    73
1070
     1
1070
    44
1040
1.0
1070
    74
1070
     0
1000
MTEXTEND
  0
LINE
  5
200
330
3A
100
AcDbEntity
  8
1
  6
Continuous
 62
     2
100
AcDbLine
 10
951.1689430880403
 20
260.7248475636243
 30
0.0
 11
951.1689430880403
 21
272.7248475636243
 31
0.0
  0
LINE
  5
1FF
330
3A
100
AcDbEntity
  8
1
  6
Continuous
 62
     2
100
AcDbLine
 10
884.0689430880406
 20
266.7248475636243
 30
0.0
 11
961.1689430880403
 21
266.7248475636243
 31
0.0
  0
LINE
  5
1FE
330
3A
100
AcDbEntity
  8
1
  6
Continuous
 62
     2
100
AcDbLine
 10
884.0689430880406
 20
260.7248475636243
 30
0.0
 11
961.1689430880403
 21
260.7248475636243
 31
0.0
  0
LINE
  5
1FD
330
3A
100
AcDbEntity
  8
1
  6
Continuous
 62
     2
100
AcDbLine
 10
941.1689430880404
 20
260.7248475636243
 30
0.0
 11
941.1689430880404
 21
272.7248475636243
 31
0.0
  0
LINE
  5
1FC
330
3A
100
AcDbEntity
  8
1
  6
Continuous
 62
     2
100
AcDbLine
 10
892.0689430880406
 20
260.7248475636243
 30
0.0
 11
892.0689430880406
 21
272.7248475636243
 31
0.0
  0
LINE
  5
1FB
330
3A
100
AcDbEntity
  8
1
  6
Continuous
 62
     2
100
AcDbLine
 10
959.1689430880403
 20
254.7248475636243
 30
0.0
 11
961.1689430880403
 21
254.7248475636243
 31
0.0
  0
LINE
  5
1FA
330
3A
100
AcDbEntity
  8
1
  6
Continuous
 62
     2
100
AcDbLine
 10
959.1689430880403
 20
248.7248475636243
 30
0.0
 11
961.1689430880403
 21
248.7248475636243
 31
0.0
  0
LINE
  5
1F9
330
3A
100
AcDbEntity
  8
1
  6
Continuous
 62
     2
100
AcDbLine
 10
959.1689430880403
 20
242.7248475636243
 30
0.0
 11
961.1689430880403
 21
242.7248475636243
 31
0.0
  0
LINE
  5
1F8
330
3A
100
AcDbEntity
  8
1
  6
Continuous
 62
     2
100
AcDbLine
 10
959.1689430880403
 20
236.7248475636243
 30
0.0
 11
961.1689430880403
 21
236.7248475636243
 31
0.0
  0
LINE
  5
1F7
330
3A
100
AcDbEntity
  8
1
  6
Continuous
 62
     2
100
AcDbLine
 10
884.0689430880406
 20
254.7248475636243
 30
0.0
 11
885.5689430880406
 21
254.7248475636243
 31
0.0
  0
LINE
  5
1F6
330
3A
100
AcDbEntity
  8
1
  6
Continuous
 62
     2
100
AcDbLine
 10
884.0689430880406
 20
248.7248475636243
 30
0.0
 11
885.5689430880406
 21
248.7248475636243
 31
0.0
  0
LINE
  5
1F5
330
3A
100
AcDbEntity
  8
1
  6
Continuous
 62
     2
100
AcDbLine
 10
884.0689430880406
 20
242.7248475636243
 30
0.0
 11
885.5689430880406
 21
242.7248475636243
 31
0.0
  0
LINE
  5
1F4
330
3A
100
AcDbEntity
  8
1
  6
Continuous
 62
     2
100
AcDbLine
 10
884.0689430880406
 20
236.7248475636243
 30
0.0
 11
885.5689430880406
 21
236.7248475636243
 31
0.0
  0
ENDBLK
  5
206
330
3A
100
AcDbEntity
  8
0
100
AcDbBlockEnd
  0
BLOCK
  5
42D
330
42C
100
AcDbEntity
  8
0
100
AcDbBlockBegin
  2
*D9
 70
     1
 10
0.0
 20
0.0
 30
0.0
  3
*D9
  1

  0
LINE
  5
42E
330
42C
100
AcDbEntity
  8
0
  6
Continuous
 62
     2
100
AcDbLine
 10
1973.635284195017
 20
232.2573571153827
 30
0.0
 11
1973.635284195017
 21
256.0024595926951
 31
0.0
  0
LINE
  5
42F
330
42C
100
AcDbEntity
  8
0
  6
Continuous
 62
     2
100
AcDbLine
 10
1973.635284195017
 20
220.2573571153827
 30
0.0
 11
1973.635284195017
 21
232.2573571153827
 31
0.0
  0
LINE
  5
430
330
42C
100
AcDbEntity
  8
0
  6
Continuous
 62
     2
100
AcDbLine
 10
1973.635284195017
 20
203.4573571153828
 30
0.0
 11
1973.635284195017
 21
220.2573571153827
 31
0.0
  0
LINE
  5
431
330
42C
100
AcDbEntity
  8
0
  6
Continuous
 62
     2
100
AcDbLine
 10
2042.911088341325
 20
232.2573571153827
 30
0.0
 11
1967.635284195017
 21
232.2573571153827
 31
0.0
  0
LINE
  5
432
330
42C
100
AcDbEntity
  8
0
  6
Continuous
 62
     2
100
AcDbLine
 10
2018.611088341325
 20
220.2573571153827
 30
0.0
 11
1967.635284195017
 21
220.2573571153827
 31
0.0
  0
LINE
  5
433
330
42C
100
AcDbEntity
  8
0
 62
     2
100
AcDbLine
 10
1973.635284195017
 20
220.2573571153827
 30
0.0
 11
1975.886057411439
 21
211.8573571153827
 31
0.0
  0
LINE
  5
434
330
42C
100
AcDbEntity
  8
0
 62
     2
100
AcDbLine
 10
1973.635284195017
 20
220.2573571153827
 30
0.0
 11
1971.384510978595
 21
211.8573571153827
 31
0.0
  0
LINE
  5
435
330
42C
100
AcDbEntity
  8
0
 62
     2
100
AcDbLine
 10
1973.635284195017
 20
232.2573571153827
 30
0.0
 11
1971.384510978595
 21
240.6573571153827
 31
0.0
  0
LINE
  5
436
330
42C
100
AcDbEntity
  8
0
 62
     2
100
AcDbLine
 10
1973.635284195017
 20
232.2573571153827
 30
0.0
 11
1975.886057411439
 21
240.6573571153827
 31
0.0
  0
MTEXT
  5
438
330
42C
100
AcDbEntity
  8
0
 62
     1
100
AcDbMText
 10
1968.535284195017
 20
240.1264595926951
 30
0.0
 40
7.559999999999999
 41
0.0
 71
     7
 72
     1
  1
(12)
  7
CONVERTER_13
 11
0.0
 21
1.0
 31
0.0
 73
     1
 44
1.0
1001
ACAD
1000
MTEXTBEGIN
1070
    73
1070
     1
1070
    44
1040
1.0
1070
    74
1070
     0
1000
MTEXTEND
  0
ENDBLK
  5
439
330
42C
100
AcDbEntity
  8
0
100
AcDbBlockEnd
  0
BLOCK
  5
43B
330
43A
100
AcDbEntity
  8
0
 62
     0
100
AcDbBlockBegin
  2
_OPEN30
 70
     0
 10
0.0
 20
0.0
 30
0.0
  3
_OPEN30
  1

  0
LINE
  5
43C
330
43A
100
AcDbEntity
  8
0
 62
     0
100
AcDbLine
 10
-1.0
 20
0.267949
 30
0.0
 11
0.0
 21
0.0
 31
0.0
  0
LINE
  5
43D
330
43A
100
AcDbEntity
  8
0
 62
     0
100
AcDbLine
 10
0.0
 20
0.0
 30
0.0
 11
-1.0
 21
-0.267949
 31
0.0
  0
LINE
  5
43E
330
43A
100
AcDbEntity
  8
0
 62
     0
100
AcDbLine
 10
0.0
 20
0.0
 30
0.0
 11
-1.0
 21
0.0
 31
0.0
  0
ENDBLK
  5
43F
330
43A
100
AcDbEntity
  8
0
 62
     0
100
AcDbBlockEnd
  0
BLOCK
  5
443
330
442
100
AcDbEntity
  8
0
100
AcDbBlockBegin
  2
*D11
 70
     1
 10
0.0
 20
0.0
 30
0.0
  3
*D11
  1

  0
LINE
  5
444
330
442
100
AcDbEntity
  8
0
  6
Continuous
 62
     2
100
AcDbLine
 10
2011.511088341325
 20
580.7811541062647
 30
0.0
 11
2382.011088341323
 21
580.7811541062647
 31
0.0
  0
LINE
  5
445
330
442
100
AcDbEntity
  8
0
  6
Continuous
 62
     2
100
AcDbLine
 10
2011.511088341325
 20
535.9610361825515
 30
0.0
 11
2011.511088341325
 21
586.7811541062646
 31
0.0
  0
LINE
  5
446
330
442
100
AcDbEntity
  8
0
  6
Continuous
 62
     2
100
AcDbLine
 10
2382.011088341323
 20
546.9610361825496
 30
0.0
 11
2382.011088341323
 21
586.7811541062646
 31
0.0
  0
LINE
  5
447
330
442
100
AcDbEntity
  8
0
 62
     2
100
AcDbLine
 10
2011.511088341325
 20
580.7811541062647
 30
0.0
 11
2020.511088341325
 21
583.1926968381448
 31
0.0
  0
LINE
  5
448
330
442
100
AcDbEntity
  8
0
 62
     2
100
AcDbLine
 10
2011.511088341325
 20
580.7811541062647
 30
0.0
 11
2020.511088341325
 21
578.3696113743848
 31
0.0
  0
LINE
  5
449
330
442
100
AcDbEntity
  8
0
 62
     2
100
AcDbLine
 10
2382.011088341323
 20
580.7811541062647
 30
0.0
 11
2373.011088341323
 21
578.3696113743848
 31
0.0
  0
LINE
  5
44A
330
442
100
AcDbEntity
  8
0
 62
     2
100
AcDbLine
 10
2382.011088341323
 20
580.7811541062647
 30
0.0
 11
2373.011088341323
 21
583.1926968381448
 31
0.0
  0
MTEXT
  5
44B
330
442
100
AcDbEntity
  8
0
 62
     2
100
AcDbMText
 10
2161.907907424617
 20
586.7811541062646
 30
0.0
 40
9.0
 41
0.0
 71
     7
 72
     1
  1
\C2;370.5\C2;\H8.100000;±2
  7
CONVERTER_1
 11
0.999999999997062
 21
0.00000242406841
 31
0.0
 73
     1
 44
1.0
1001
ACAD
1000
MTEXTBEGIN
1070
    73
1070
     1
1070
    44
1040
1.0
1070
    74
1070
     0
1000
MTEXTEND
  0
ENDBLK
  5
44C
330
442
100
AcDbEntity
  8
0
100
AcDbBlockEnd
  0
BLOCK
  5
450
330
44F
100
AcDbEntity
  8
0
100
AcDbBlockBegin
  2
*D12
 70
     1
 10
0.0
 20
0.0
 30
0.0
  3
*D12
  1

  0
LINE
  5
451
330
44F
100
AcDbEntity
  8
0
  6
Continuous
 62
     2
100
AcDbLine
 10
2645.050844128798
 20
283.861036182549
 30
0.0
 11
2645.050844128798
 21
301.861036182549
 31
0.0
  0
LINE
  5
452
330
44F
100
AcDbEntity
  8
0
  6
Continuous
 62
     2
100
AcDbLine
 10
2645.050844128798
 20
261.8610361825498
 30
0.0
 11
2645.050844128798
 21
243.8610361825498
 31
0.0
  0
LINE
  5
453
330
44F
100
AcDbEntity
  8
0
  6
Continuous
 62
     2
100
AcDbLine
 10
2645.050844128798
 20
261.8610361825498
 30
0.0
 11
2645.050844128798
 21
283.861036182549
 31
0.0
  0
LINE
  5
454
330
44F
100
AcDbEntity
  8
0
  6
Continuous
 62
     2
100
AcDbLine
 10
2618.272421617691
 20
283.861036182549
 30
0.0
 11
2651.050844128798
 21
283.861036182549
 31
0.0
  0
LINE
  5
455
330
44F
100
AcDbEntity
  8
0
  6
Continuous
 62
     2
100
AcDbLine
 10
2603.01108834132
 20
261.8610361825498
 30
0.0
 11
2651.050844128798
 21
261.8610361825498
 31
0.0
  0
LINE
  5
456
330
44F
100
AcDbEntity
  8
0
 62
     2
100
AcDbLine
 10
2645.050844128798
 20
261.8610361825498
 30
0.0
 11
2647.462386860679
 21
252.8610361825498
 31
0.0
  0
LINE
  5
457
330
44F
100
AcDbEntity
  8
0
 62
     2
100
AcDbLine
 10
2645.050844128798
 20
261.8610361825498
 30
0.0
 11
2642.639301396918
 21
252.8610361825498
 31
0.0
  0
LINE
  5
458
330
44F
100
AcDbEntity
  8
0
 62
     2
100
AcDbLine
 10
2645.050844128798
 20
283.861036182549
 30
0.0
 11
2642.639301396918
 21
292.8610361825489
 31
0.0
  0
LINE
  5
459
330
44F
100
AcDbEntity
  8
0
 62
     2
100
AcDbLine
 10
2645.050844128798
 20
283.861036182549
 30
0.0
 11
2647.462386860679
 21
292.8610361825489
 31
0.0
  0
MTEXT
  5
45A
330
44F
100
AcDbEntity
  8
0
 62
     2
100
AcDbMText
 10
2639.050844128798
 20
266.1892607268239
 30
0.0
 40
9.0
 41
0.0
 71
     7
 72
     1
  1
22
  7
CONVERTER_9
 11
0.0
 21
1.0
 31
0.0
 73
     1
 44
1.0
1001
ACAD
1000
MTEXTBEGIN
1070
    73
1070
     1
1070
    44
1040
1.0
1070
    74
1070
     0
1000
MTEXTEND
  0
ENDBLK
  5
45B
330
44F
100
AcDbEntity
  8
0
100
AcDbBlockEnd
  0
BLOCK
  5
45F
330
45E
100
AcDbEntity
  8
0
100
AcDbBlockBegin
  2
*D13
 70
     1
 10
0.0
 20
0.0
 30
0.0
  3
*D13
  1

  0
LINE
  5
460
330
45E
100
AcDbEntity
  8
0
  6
Continuous
 62
     2
100
AcDbLine
 10
2645.050844128798
 20
544.8610361825497
 30
0.0
 11
2645.050844128798
 21
562.8610361825496
 31
0.0
  0
LINE
  5
461
330
45E
100
AcDbEntity
  8
0
  6
Continuous
 62
     2
100
AcDbLine
 10
2645.050844128798
 20
522.8610361825482
 30
0.0
 11
2645.050844128798
 21
504.8610361825482
 31
0.0
  0
LINE
  5
462
330
45E
100
AcDbEntity
  8
0
  6
Continuous
 62
     2
100
AcDbLine
 10
2645.050844128798
 20
522.8610361825482
 30
0.0
 11
2645.050844128798
 21
544.8610361825497
 31
0.0
  0
LINE
  5
463
330
45E
100
AcDbEntity
  8
0
  6
Continuous
 62
     2
100
AcDbLine
 10
2603.01108834132
 20
544.8610361825497
 30
0.0
 11
2651.050844128798
 21
544.8610361825497
 31
0.0
  0
LINE
  5
464
330
45E
100
AcDbEntity
  8
0
  6
Continuous
 62
     2
100
AcDbLine
 10
2617.672421617692
 20
522.8610361825482
 30
0.0
 11
2651.050844128798
 21
522.8610361825482
 31
0.0
  0
LINE
  5
465
330
45E
100
AcDbEntity
  8
0
 62
     2
100
AcDbLine
 10
2645.050844128798
 20
522.8610361825482
 30
0.0
 11
2647.462386860679
 21
513.8610361825482
 31
0.0
  0
LINE
  5
466
330
45E
100
AcDbEntity
  8
0
 62
     2
100
AcDbLine
 10
2645.050844128798
 20
522.8610361825482
 30
0.0
 11
2642.639301396918
 21
513.8610361825482
 31
0.0
  0
LINE
  5
467
330
45E
100
AcDbEntity
  8
0
 62
     2
100
AcDbLine
 10
2645.050844128798
 20
544.8610361825497
 30
0.0
 11
2642.639301396918
 21
553.8610361825496
 31
0.0
  0
LINE
  5
468
330
45E
100
AcDbEntity
  8
0
 62
     2
100
AcDbLine
 10
2645.050844128798
 20
544.8610361825497
 30
0.0
 11
2647.462386860679
 21
553.8610361825496
 31
0.0
  0
MTEXT
  5
469
330
45E
100
AcDbEntity
  8
0
 62
     2
100
AcDbMText
 10
2639.050844128798
 20
527.1110361825488
 30
0.0
 40
9.0
 41
0.0
 71
     7
 72
     1
  1
22
  7
CONVERTER_9
 11
0.0
 21
1.0
 31
0.0
 73
     1
 44
1.0
1001
ACAD
1000
MTEXTBEGIN
1070
    73
1070
     1
1070
    44
1040
1.0
1070
    74
1070
     0
1000
MTEXTEND
  0
ENDBLK
  5
46A
330
45E
100
AcDbEntity
  8
0
100
AcDbBlockEnd
  0
BLOCK
  5
46E
330
46D
100
AcDbEntity
  8
0
100
AcDbBlockBegin
  2
*D14
 70
     1
 10
0.0
 20
0.0
 30
0.0
  3
*D14
  1

  0
LINE
  5
46F
330
46D
100
AcDbEntity
  8
0
  6
Continuous
 62
     2
100
AcDbLine
 10
2645.050844128798
 20
283.8610361825492
 30
0.0
 11
2645.050844128798
 21
522.8610361825483
 31
0.0
  0
LINE
  5
470
330
46D
100
AcDbEntity
  8
0
  6
Continuous
 62
     2
100
AcDbLine
 10
2617.672421617692
 20
522.8610361825483
 30
0.0
 11
2651.050844128798
 21
522.8610361825483
 31
0.0
  0
LINE
  5
471
330
46D
100
AcDbEntity
  8
0
  6
Continuous
 62
     2
100
AcDbLine
 10
2618.272421617691
 20
283.8610361825492
 30
0.0
 11
2651.050844128798
 21
283.8610361825492
 31
0.0
  0
LINE
  5
472
330
46D
100
AcDbEntity
  8
0
 62
     2
100
AcDbLine
 10
2645.050844128798
 20
283.8610361825492
 30
0.0
 11
2642.639301396918
 21
292.8610361825492
 31
0.0
  0
LINE
  5
473
330
46D
100
AcDbEntity
  8
0
 62
     2
100
AcDbLine
 10
2645.050844128798
 20
283.8610361825492
 30
0.0
 11
2647.462386860679
 21
292.8610361825492
 31
0.0
  0
LINE
  5
474
330
46D
100
AcDbEntity
  8
0
 62
     2
100
AcDbLine
 10
2645.050844128798
 20
522.8610361825483
 30
0.0
 11
2647.462386860679
 21
513.8610361825483
 31
0.0
  0
LINE
  5
475
330
46D
100
AcDbEntity
  8
0
 62
     2
100
AcDbLine
 10
2645.050844128798
 20
522.8610361825483
 30
0.0
 11
2642.639301396918
 21
513.8610361825483
 31
0.0
  0
MTEXT
  5
476
330
46D
100
AcDbEntity
  8
0
 62
     2
100
AcDbMText
 10
2639.050844128798
 20
392.5610361825486
 30
0.0
 40
9.0
 41
0.0
 71
     7
 72
     1
  1
239
  7
CONVERTER_9
 11
0.0
 21
1.0
 31
0.0
 73
     1
 44
1.0
1001
ACAD
1000
MTEXTBEGIN
1070
    73
1070
     1
1070
    44
1040
1.0
1070
    74
1070
     0
1000
MTEXTEND
  0
ENDBLK
  5
477
330
46D
100
AcDbEntity
  8
0
100
AcDbBlockEnd
  0
BLOCK
  5
47B
330
47A
100
AcDbEntity
  8
0
100
AcDbBlockBegin
  2
*D15
 70
     1
 10
0.0
 20
0.0
 30
0.0
  3
*D15
  1

  0
LINE
  5
47C
330
47A
100
AcDbEntity
  8
0
  6
Continuous
 62
     2
100
AcDbLine
 10
2011.511088341324
 20
86.74036786785038
 30
0.0
 11
2059.511088341324
 21
86.74036786785038
 31
0.0
  0
LINE
  5
47D
330
47A
100
AcDbEntity
  8
0
  6
Continuous
 62
     2
100
AcDbLine
 10
2059.511088341324
 20
107.9311291596821
 30
0.0
 11
2059.511088341324
 21
80.74036786785036
 31
0.0
  0
LINE
  5
47E
330
47A
100
AcDbEntity
  8
0
  6
Continuous
 62
     2
100
AcDbLine
 10
2011.511088341324
 20
122.1573571153827
 30
0.0
 11
2011.511088341324
 21
80.74036786785036
 31
0.0
  0
LINE
  5
47F
330
47A
100
AcDbEntity
  8
0
 62
     2
100
AcDbLine
 10
2011.511088341324
 20
86.74036786785038
 30
0.0
 11
2020.511088341324
 21
89.15191059973048
 31
0.0
  0
LINE
  5
480
330
47A
100
AcDbEntity
  8
0
 62
     2
100
AcDbLine
 10
2011.511088341324
 20
86.74036786785038
 30
0.0
 11
2020.511088341324
 21
84.32882513597027
 31
0.0
  0
LINE
  5
481
330
47A
100
AcDbEntity
  8
0
 62
     2
100
AcDbLine
 10
2059.511088341324
 20
86.74036786785038
 30
0.0
 11
2050.511088341324
 21
84.32882513597027
 31
0.0
  0
LINE
  5
482
330
47A
100
AcDbEntity
  8
0
 62
     2
100
AcDbLine
 10
2059.511088341324
 20
86.74036786785038
 30
0.0
 11
2050.511088341324
 21
89.15191059973048
 31
0.0
  0
MTEXT
  5
483
330
47A
100
AcDbEntity
  8
0
 62
     2
100
AcDbMText
 10
2028.761088341324
 20
92.74036786785037
 30
0.0
 40
9.0
 41
0.0
 71
     7
 72
     1
  1
48
  7
CONVERTER_9
 11
0.999999999997062
 21
0.00000242406841
 31
0.0
 73
     1
 44
1.0
1001
ACAD
1000
MTEXTBEGIN
1070
    73
1070
     1
1070
    44
1040
1.0
1070
    74
1070
     0
1000
MTEXTEND
  0
ENDBLK
  5
484
330
47A
100
AcDbEntity
  8
0
100
AcDbBlockEnd
  0
BLOCK
  5
488
330
487
100
AcDbEntity
  8
0
100
AcDbBlockBegin
  2
*D16
 70
     1
 10
0.0
 20
0.0
 30
0.0
  3
*D16
  1

  0
LINE
  5
489
330
487
100
AcDbEntity
  8
0
  6
Continuous
 62
     2
100
AcDbLine
 10
2341.511088341324
 20
86.74036786785038
 30
0.0
 11
2382.011088341323
 21
86.74036786785038
 31
0.0
  0
LINE
  5
48A
330
487
100
AcDbEntity
  8
0
  6
Continuous
 62
     2
100
AcDbLine
 10
2382.011088341323
 20
122.1573571153827
 30
0.0
 11
2382.011088341323
 21
80.74036786785036
 31
0.0
  0
LINE
  5
48B
330
487
100
AcDbEntity
  8
0
  6
Continuous
 62
     2
100
AcDbLine
 10
2341.511088341324
 20
107.9311291596821
 30
0.0
 11
2341.511088341324
 21
80.74036786785036
 31
0.0
  0
LINE
  5
48C
330
487
100
AcDbEntity
  8
0
 62
     2
100
AcDbLine
 10
2341.511088341324
 20
86.74036786785038
 30
0.0
 11
2350.511088341324
 21
89.15191059973048
 31
0.0
  0
LINE
  5
48D
330
487
100
AcDbEntity
  8
0
 62
     2
100
AcDbLine
 10
2341.511088341324
 20
86.74036786785038
 30
0.0
 11
2350.511088341324
 21
84.32882513597027
 31
0.0
  0
LINE
  5
48E
330
487
100
AcDbEntity
  8
0
 62
     2
100
AcDbLine
 10
2382.011088341323
 20
86.74036786785038
 30
0.0
 11
2373.011088341323
 21
84.32882513597027
 31
0.0
  0
LINE
  5
48F
330
487
100
AcDbEntity
  8
0
 62
     2
100
AcDbLine
 10
2382.011088341323
 20
86.74036786785038
 30
0.0
 11
2373.011088341323
 21
89.15191059973048
 31
0.0
  0
MTEXT
  5
490
330
487
100
AcDbEntity
  8
0
 62
     2
100
AcDbMText
 10
2349.498588341324
 20
92.74036786785037
 30
0.0
 40
9.0
 41
0.0
 71
     7
 72
     1
  1
40.5
  7
CONVERTER_9
 11
0.999999999997062
 21
0.00000242406841
 31
0.0
 73
     1
 44
1.0
1001
ACAD
1000
MTEXTBEGIN
1070
    73
1070
     1
1070
    44
1040
1.0
1070
    74
1070
     0
1000
MTEXTEND
  0
ENDBLK
  5
491
330
487
100
AcDbEntity
  8
0
100
AcDbBlockEnd
  0
BLOCK
  5
495
330
494
100
AcDbEntity
  8
0
100
AcDbBlockBegin
  2
*D17
 70
     1
 10
0.0
 20
0.0
 30
0.0
  3
*D17
  1

  0
LINE
  5
496
330
494
100
AcDbEntity
  8
0
  6
Continuous
 62
     2
100
AcDbLine
 10
2059.511088341324
 20
86.74036786785038
 30
0.0
 11
2341.511088341324
 21
86.74036786785038
 31
0.0
  0
LINE
  5
497
330
494
100
AcDbEntity
  8
0
  6
Continuous
 62
     2
100
AcDbLine
 10
2341.511088341324
 20
107.9311291596821
 30
0.0
 11
2341.511088341324
 21
80.74036786785036
 31
0.0
  0
LINE
  5
498
330
494
100
AcDbEntity
  8
0
  6
Continuous
 62
     2
100
AcDbLine
 10
2059.511088341324
 20
107.9311291596821
 30
0.0
 11
2059.511088341324
 21
80.74036786785036
 31
0.0
  0
LINE
  5
499
330
494
100
AcDbEntity
  8
0
 62
     2
100
AcDbLine
 10
2059.511088341324
 20
86.74036786785038
 30
0.0
 11
2068.511088341324
 21
89.15191059973048
 31
0.0
  0
LINE
  5
49A
330
494
100
AcDbEntity
  8
0
 62
     2
100
AcDbLine
 10
2059.511088341324
 20
86.74036786785038
 30
0.0
 11
2068.511088341324
 21
84.32882513597027
 31
0.0
  0
LINE
  5
49B
330
494
100
AcDbEntity
  8
0
 62
     2
100
AcDbLine
 10
2341.511088341324
 20
86.74036786785038
 30
0.0
 11
2332.511088341324
 21
84.32882513597027
 31
0.0
  0
LINE
  5
49C
330
494
100
AcDbEntity
  8
0
 62
     2
100
AcDbLine
 10
2341.511088341324
 20
86.74036786785038
 30
0.0
 11
2332.511088341324
 21
89.15191059973048
 31
0.0
  0
MTEXT
  5
49D
330
494
100
AcDbEntity
  8
0
 62
     2
100
AcDbMText
 10
2189.711088341324
 20
92.74036786785037
 30
0.0
 40
9.0
 41
0.0
 71
     7
 72
     1
  1
282
  7
CONVERTER_9
 11
0.999999999997062
 21
0.00000242406841
 31
0.0
 73
     1
 44
1.0
1001
ACAD
1000
MTEXTBEGIN
1070
    73
1070
     1
1070
    44
1040
1.0
1070
    74
1070
     0
1000
MTEXTEND
  0
ENDBLK
  5
49E
330
494
100
AcDbEntity
  8
0
100
AcDbBlockEnd
  0
BLOCK
  5
4A2
330
4A1
100
AcDbEntity
  8
0
100
AcDbBlockBegin
  2
*D18
 70
     1
 10
0.0
 20
0.0
 30
0.0
  3
*D18
  1

  0
LINE
  5
4A3
330
4A1
100
AcDbEntity
  8
0
  6
Continuous
 62
     2
100
AcDbLine
 10
1973.598389897296
 20
114.2573571153827
 30
0.0
 11
1973.598389897296
 21
95.41181137165089
 31
0.0
  0
LINE
  5
4A4
330
4A1
100
AcDbEntity
  8
0
  6
Continuous
 62
     2
100
AcDbLine
 10
1973.598389897296
 20
114.2573571153827
 30
0.0
 11
1973.598389897296
 21
123.2573571153827
 31
0.0
  0
LINE
  5
4A5
330
4A1
100
AcDbEntity
  8
0
  6
Continuous
 62
     2
100
AcDbLine
 10
1973.598389897296
 20
141.2573571153827
 30
0.0
 11
1973.598389897296
 21
123.2573571153827
 31
0.0
  0
LINE
  5
4A6
330
4A1
100
AcDbEntity
  8
0
  6
Continuous
 62
     2
100
AcDbLine
 10
2010.411088341324
 20
123.2573571153827
 30
0.0
 11
1967.598389897296
 21
123.2573571153827
 31
0.0
  0
LINE
  5
4A7
330
4A1
100
AcDbEntity
  8
0
  6
Continuous
 62
     2
100
AcDbLine
 10
2049.411088341323
 20
114.2573571153827
 30
0.0
 11
1967.598389897296
 21
114.2573571153827
 31
0.0
  0
LINE
  5
4A8
330
4A1
100
AcDbEntity
  8
0
 62
     2
100
AcDbLine
 10
1973.598389897296
 20
114.2573571153827
 30
0.0
 11
1976.009932629176
 21
105.2573571153827
 31
0.0
  0
LINE
  5
4A9
330
4A1
100
AcDbEntity
  8
0
 62
     2
100
AcDbLine
 10
1973.598389897296
 20
114.2573571153827
 30
0.0
 11
1971.186847165416
 21
105.2573571153827
 31
0.0
  0
LINE
  5
4AA
330
4A1
100
AcDbEntity
  8
0
 62
     2
100
AcDbLine
 10
1973.598389897296
 20
123.2573571153827
 30
0.0
 11
1971.186847165416
 21
132.2573571153827
 31
0.0
  0
LINE
  5
4AB
330
4A1
100
AcDbEntity
  8
0
 62
     2
100
AcDbLine
 10
1973.598389897296
 20
123.2573571153827
 30
0.0
 11
1976.009932629176
 21
132.2573571153827
 31
0.0
  0
MTEXT
  5
4AC
330
4A1
100
AcDbEntity
  8
0
 62
     2
100
AcDbMText
 10
1967.415521609172
 20
93.88181137165091
 30
0.0
 40
9.0
 41
0.0
 71
     7
 72
     1
  1
\C2;(\C2;9\C2;)
  7
CONVERTER_9
 11
0.0
 21
1.0
 31
0.0
 73
     1
 44
1.0
1001
ACAD
1000
MTEXTBEGIN
1070
    73
1070
     1
1070
    44
1040
1.0
1070
    74
1070
     0
1000
MTEXTEND
  0
ENDBLK
  5
4AD
330
4A1
100
AcDbEntity
  8
0
100
AcDbBlockEnd
  0
BLOCK
  5
4B1
330
4B0
100
AcDbEntity
  8
0
100
AcDbBlockBegin
  2
*D19
 70
     1
 10
0.0
 20
0.0
 30
0.0
  3
*D19
  1

  0
LINE
  5
4B2
330
4B0
100
AcDbEntity
  8
0
  6
Continuous
 62
     2
100
AcDbLine
 10
1973.598389897297
 20
123.2573571153827
 30
0.0
 11
1973.598389897297
 21
220.2573571153828
 31
0.0
  0
LINE
  5
4B3
330
4B0
100
AcDbEntity
  8
0
  6
Continuous
 62
     2
100
AcDbLine
 10
2018.611088341325
 20
220.2573571153828
 30
0.0
 11
1967.598389897297
 21
220.2573571153828
 31
0.0
  0
LINE
  5
4B4
330
4B0
100
AcDbEntity
  8
0
  6
Continuous
 62
     2
100
AcDbLine
 10
2010.411088341325
 20
123.2573571153827
 30
0.0
 11
1967.598389897297
 21
123.2573571153827
 31
0.0
  0
LINE
  5
4B5
330
4B0
100
AcDbEntity
  8
0
 62
     2
100
AcDbLine
 10
1973.598389897297
 20
123.2573571153827
 30
0.0
 11
1971.186847165417
 21
132.2573571153828
 31
0.0
  0
LINE
  5
4B6
330
4B0
100
AcDbEntity
  8
0
 62
     2
100
AcDbLine
 10
1973.598389897297
 20
123.2573571153827
 30
0.0
 11
1976.009932629177
 21
132.2573571153828
 31
0.0
  0
LINE
  5
4B7
330
4B0
100
AcDbEntity
  8
0
 62
     2
100
AcDbLine
 10
1973.598389897297
 20
220.2573571153828
 30
0.0
 11
1976.009932629177
 21
211.2573571153828
 31
0.0
  0
LINE
  5
4B8
330
4B0
100
AcDbEntity
  8
0
 62
     2
100
AcDbLine
 10
1973.598389897297
 20
220.2573571153828
 30
0.0
 11
1971.186847165417
 21
211.2573571153828
 31
0.0
  0
MTEXT
  5
4B9
330
4B0
100
AcDbEntity
  8
0
 62
     2
100
AcDbMText
 10
1967.598389897297
 20
157.4923571153828
 30
0.0
 40
9.0
 41
0.0
 71
     7
 72
     1
  1
\C2;97\C2;\H8.100000;±1
  7
CONVERTER_1
 11
0.0
 21
1.0
 31
0.0
 73
     1
 44
1.0
1001
ACAD
1000
MTEXTBEGIN
1070
    73
1070
     1
1070
    44
1040
1.0
1070
    74
1070
     0
1000
MTEXTEND
  0
ENDBLK
  5
4BA
330
4B0
100
AcDbEntity
  8
0
100
AcDbBlockEnd
  0
BLOCK
  5
4BE
330
4BD
100
AcDbEntity
  8
0
100
AcDbBlockBegin
  2
*D20
 70
     1
 10
0.0
 20
0.0
 30
0.0
  3
*D20
  1

  0
LINE
  5
4BF
330
4BD
100
AcDbEntity
  8
0
  6
Continuous
 62
     2
100
AcDbLine
 10
2404.002926682796
 20
124.2573571153827
 30
0.0
 11
2404.002926682796
 21
220.2573571153828
 31
0.0
  0
LINE
  5
4C0
330
4BD
100
AcDbEntity
  8
0
  6
Continuous
 62
     2
100
AcDbLine
 10
2384.111088341322
 20
220.2573571153828
 30
0.0
 11
2410.002926682796
 21
220.2573571153828
 31
0.0
  0
LINE
  5
4C1
330
4BD
100
AcDbEntity
  8
0
  6
Continuous
 62
     2
100
AcDbLine
 10
2384.111088341322
 20
124.2573571153827
 30
0.0
 11
2410.002926682796
 21
124.2573571153827
 31
0.0
  0
LINE
  5
4C2
330
4BD
100
AcDbEntity
  8
0
 62
     2
100
AcDbLine
 10
2404.002926682796
 20
124.2573571153827
 30
0.0
 11
2401.993307739562
 21
131.7573571153827
 31
0.0
  0
LINE
  5
4C3
330
4BD
100
AcDbEntity
  8
0
 62
     2
100
AcDbLine
 10
2404.002926682796
 20
124.2573571153827
 30
0.0
 11
2406.012545626029
 21
131.7573571153827
 31
0.0
  0
LINE
  5
4C4
330
4BD
100
AcDbEntity
  8
0
 62
     2
100
AcDbLine
 10
2404.002926682796
 20
220.2573571153828
 30
0.0
 11
2406.012545626029
 21
212.7573571153828
 31
0.0
  0
LINE
  5
4C5
330
4BD
100
AcDbEntity
  8
0
 62
     2
100
AcDbLine
 10
2404.002926682796
 20
220.2573571153828
 30
0.0
 11
2401.993307739562
 21
212.7573571153828
 31
0.0
  0
MTEXT
  5
4C6
330
4BD
100
AcDbEntity
  8
0
 62
     2
100
AcDbMText
 10
2398.002926682796
 20
159.0460312315725
 30
0.0
 40
7.5
 41
0.0
 71
     7
 72
     1
  1
\C2;96\C2;\H6.750000;±1
  7
CONVERTER_1
 11
0.0
 21
1.0
 31
0.0
 73
     1
 44
1.0
1001
ACAD
1000
MTEXTBEGIN
1070
    73
1070
     1
1070
    44
1040
1.0
1070
    74
1070
     0
1000
MTEXTEND
  0
ENDBLK
  5
4C7
330
4BD
100
AcDbEntity
  8
0
100
AcDbBlockEnd
  0
BLOCK
  5
50B
330
500
100
AcDbEntity
  8
0
100
AcDbBlockBegin
  2
*D21
 70
     1
 10
0.0
 20
0.0
 30
0.0
  3
*D21
  1

  0
LINE
  5
501
330
500
100
AcDbEntity
  8
1
 62
     2
370
    -2
100
AcDbLine
 10
2384.111088341323
 20
220.2573571153828
 30
0.0
 11
2410.002926682796
 21
220.2573571153828
 31
0.0
  0
LINE
  5
502
330
500
100
AcDbEntity
  8
1
 62
     2
370
    -2
100
AcDbLine
 10
2384.111088341323
 20
124.2573571153827
 30
0.0
 11
2410.002926682796
 21
124.2573571153827
 31
0.0
  0
LINE
  5
503
330
500
100
AcDbEntity
  8
1
 62
     2
370
    -2
100
AcDbLine
 10
2404.002926682796
 20
212.7573571153828
 30
0.0
 11
2404.002926682796
 21
179.1323571153827
 31
0.0
  0
LINE
  5
504
330
500
100
AcDbEntity
  8
1
 62
     2
370
    -2
100
AcDbLine
 10
2404.002926682796
 20
131.7573571153827
 30
0.0
 11
2404.002926682796
 21
165.3823571153827
 31
0.0
  0
INSERT
  5
505
330
500
100
AcDbEntity
  8
1
 62
     2
370
    -2
100
AcDbBlockReference
  2
_OPEN30
 10
2404.002926682796
 20
220.2573571153828
 30
0.0
 41
7.5
 42
7.5
 43
7.5
 50
90.0
  0
INSERT
  5
506
330
500
100
AcDbEntity
  8
1
 62
     2
370
    -2
100
AcDbBlockReference
  2
_OPEN30
 10
2404.002926682796
 20
124.2573571153827
 30
0.0
 41
7.5
 42
7.5
 43
7.5
 50
270.0
  0
MTEXT
  5
507
330
500
100
AcDbEntity
  8
1
 62
     2
100
AcDbMText
 10
2404.002926682796
 20
172.2573571153831
 30
0.0
 40
7.5
 41
0.0
 71
     5
 72
     1
  1
\A1;96
 11
0.0000000000000001
 21
1.0
 31
0.0
 73
     1
 44
1.0
1001
ACAD
1000
MTEXTBEGIN
1070
    73
1070
     1
1070
    44
1040
1.0
1070
    74
1070
     0
1000
MTEXTEND
  0
POINT
  5
508
330
500
100
AcDbEntity
  8
Defpoints
 62
     0
100
AcDbPoint
 10
2382.011088341323
 20
220.2573571153828
 30
0.0
  0
POINT
  5
509
330
500
100
AcDbEntity
  8
Defpoints
 62
     0
100
AcDbPoint
 10
2382.011088341323
 20
124.2573571153827
 30
0.0
  0
POINT
  5
50A
330
500
100
AcDbEntity
  8
Defpoints
 62
     0
100
AcDbPoint
 10
2404.002926682796
 20
124.2573571153827
 30
0.0
  0
ENDBLK
  5
50C
330
500
100
AcDbEntity
  8
0
100
AcDbBlockEnd
  0
BLOCK
  5
536
330
52C
100
AcDbEntity
  8
0
100
AcDbBlockBegin
  2
*D22
 70
     1
 10
0.0
 20
0.0
 30
0.0
  3
*D22
  1

  0
LINE
  5
538
330
52C
100
AcDbEntity
  8
0
  6
Continuous
 62
     2
370
    -2
100
AcDbLine
 10
2384.111088341323
 20
124.2573571153827
 30
0.0
 11
2416.594206031668
 21
124.2573571153827
 31
0.0
  0
LINE
  5
539
330
52C
100
AcDbEntity
  8
0
  6
Continuous
 62
     2
370
    -2
100
AcDbLine
 10
2383.111088341323
 20
220.2573571153828
 30
0.0
 11
2416.594206031668
 21
220.2573571153828
 31
0.0
  0
LINE
  5
53A
330
52C
100
AcDbEntity
  8
0
  6
Continuous
 62
     2
370
    -2
100
AcDbLine
 10
2410.594206031669
 20
133.2573571153827
 30
0.0
 11
2410.594206031669
 21
211.2573571153828
 31
0.0
  0
INSERT
  5
53B
330
52C
100
AcDbEntity
  8
0
  6
Continuous
 62
     2
370
    -2
100
AcDbBlockReference
  2
_OPEN30
 10
2410.594206031669
 20
124.2573571153827
 30
0.0
 41
9.0
 42
9.0
 43
9.0
 50
270.0
  0
INSERT
  5
53C
330
52C
100
AcDbEntity
  8
0
  6
Continuous
 62
     2
370
    -2
100
AcDbBlockReference
  2
_OPEN30
 10
2410.594206031669
 20
220.2573571153828
 30
0.0
 41
9.0
 42
9.0
 43
9.0
 50
90.0
  0
MTEXT
  5
53D
330
52C
100
AcDbEntity
  8
0
  6
Continuous
 62
     2
100
AcDbMText
 10
2405.469206031668
 20
172.2573571153831
 30
0.0
 40
9.0
 41
0.0
 71
     5
 72
     1
  1
\A1;96
 11
0.0000000000000001
 21
1.0
 31
0.0
 73
     1
 44
1.0
1001
ACAD
1000
MTEXTBEGIN
1070
    73
1070
     1
1070
    44
1040
1.0
1070
    74
1070
     0
1000
MTEXTEND
  0
POINT
  5
53E
330
52C
100
AcDbEntity
  8
Defpoints
  6
Continuous
 62
     0
100
AcDbPoint
 10
2382.011088341323
 20
124.2573571153827
 30
0.0
  0
POINT
  5
53F
330
52C
100
AcDbEntity
  8
Defpoints
  6
Continuous
 62
     0
100
AcDbPoint
 10
2381.011088341323
 20
220.2573571153828
 30
0.0
  0
POINT
  5
540
330
52C
100
AcDbEntity
  8
Defpoints
  6
Continuous
 62
     0
100
AcDbPoint
 10
2410.594206031669
 20
220.2573571153828
 30
0.0
  0
ENDBLK
  5
537
330
52C
100
AcDbEntity
  8
0
100
AcDbBlockEnd
  0
BLOCK
  5
559
330
54F
100
AcDbEntity
  8
0
100
AcDbBlockBegin
  2
*D23
 70
     1
 10
0.0
 20
0.0
 30
0.0
  3
*D23
  1

  0
LINE
  5
564
330
54F
100
AcDbEntity
  8
0
  6
Continuous
 62
     2
370
    -2
100
AcDbLine
 10
2011.511088341325
 20
535.9610361825515
 30
0.0
 11
2011.511088341325
 21
585.2799915966056
 31
0.0
  0
LINE
  5
565
330
54F
100
AcDbEntity
  8
0
  6
Continuous
 62
     2
370
    -2
100
AcDbLine
 10
2382.011088341323
 20
546.9610361825496
 30
0.0
 11
2382.011088341323
 21
585.2799915966056
 31
0.0
  0
LINE
  5
566
330
54F
100
AcDbEntity
  8
0
  6
Continuous
 62
     2
370
    -2
100
AcDbLine
 10
2020.511088341325
 20
579.2799915966056
 30
0.0
 11
2373.011088341323
 21
579.2799915966056
 31
0.0
  0
INSERT
  5
567
330
54F
100
AcDbEntity
  8
0
  6
Continuous
 62
     2
370
    -2
100
AcDbBlockReference
  2
_OPEN30
 10
2011.511088341325
 20
579.2799915966056
 30
0.0
 41
9.0
 42
9.0
 43
9.0
 50
180.0
  0
INSERT
  5
568
330
54F
100
AcDbEntity
  8
0
  6
Continuous
 62
     2
370
    -2
100
AcDbBlockReference
  2
_OPEN30
 10
2382.011088341323
 20
579.2799915966056
 30
0.0
 41
9.0
 42
9.0
 43
9.0
  0
MTEXT
  5
569
330
54F
100
AcDbEntity
  8
0
  6
Continuous
 62
     2
100
AcDbMText
 10
2196.761088341324
 20
584.4049915966056
 30
0.0
 40
9.0
 41
0.0
 71
     5
 72
     1
  1
\A1;370.5
 73
     1
 44
1.0
1001
ACAD
1000
MTEXTBEGIN
1070
    73
1070
     1
1070
    44
1040
1.0
1070
    74
1070
     0
1000
MTEXTEND
  0
POINT
  5
56A
330
54F
100
AcDbEntity
  8
Defpoints
  6
Continuous
 62
     0
100
AcDbPoint
 10
2011.511088341325
 20
533.8610361825515
 30
0.0
  0
POINT
  5
56B
330
54F
100
AcDbEntity
  8
Defpoints
  6
Continuous
 62
     0
100
AcDbPoint
 10
2382.011088341323
 20
544.8610361825497
 30
0.0
  0
POINT
  5
56C
330
54F
100
AcDbEntity
  8
Defpoints
  6
Continuous
 62
     0
100
AcDbPoint
 10
2382.011088341323
 20
579.2799915966056
 30
0.0
  0
ENDBLK
  5
55A
330
54F
100
AcDbEntity
  8
0
100
AcDbBlockEnd
  0
BLOCK
  5
578
330
56E
100
AcDbEntity
  8
0
100
AcDbBlockBegin
  2
*D24
 70
     1
 10
0.0
 20
0.0
 30
0.0
  3
*D24
  1

  0
LINE
  5
583
330
56E
100
AcDbEntity
  8
0
  6
Continuous
 62
     2
370
    -2
100
AcDbLine
 10
2016.375020363826
 20
220.2573571153827
 30
0.0
 11
1967.598389897296
 21
220.2573571153827
 31
0.0
  0
LINE
  5
584
330
56E
100
AcDbEntity
  8
0
  6
Continuous
 62
     2
370
    -2
100
AcDbLine
 10
2010.411088341324
 20
123.2573571153827
 30
0.0
 11
1967.598389897296
 21
123.2573571153827
 31
0.0
  0
LINE
  5
585
330
56E
100
AcDbEntity
  8
0
  6
Continuous
 62
     2
370
    -2
100
AcDbLine
 10
1973.598389897296
 20
211.2573571153828
 30
0.0
 11
1973.598389897296
 21
132.2573571153827
 31
0.0
  0
INSERT
  5
586
330
56E
100
AcDbEntity
  8
0
  6
Continuous
 62
     2
370
    -2
100
AcDbBlockReference
  2
_OPEN30
 10
1973.598389897296
 20
220.2573571153827
 30
0.0
 41
9.0
 42
9.0
 43
9.0
 50
90.0
  0
INSERT
  5
587
330
56E
100
AcDbEntity
  8
0
  6
Continuous
 62
     2
370
    -2
100
AcDbBlockReference
  2
_OPEN30
 10
1973.598389897296
 20
123.2573571153827
 30
0.0
 41
9.0
 42
9.0
 43
9.0
 50
270.0
  0
MTEXT
  5
588
330
56E
100
AcDbEntity
  8
0
  6
Continuous
 62
     2
100
AcDbMText
 10
1968.473389897296
 20
171.757357115383
 30
0.0
 40
9.0
 41
0.0
 71
     5
 72
     1
  1
\A1;97
 11
0.0000000000000001
 21
1.0
 31
0.0
 73
     1
 44
1.0
1001
ACAD
1000
MTEXTBEGIN
1070
    73
1070
     1
1070
    44
1040
1.0
1070
    74
1070
     0
1000
MTEXTEND
  0
POINT
  5
589
330
56E
100
AcDbEntity
  8
Defpoints
  6
Continuous
 62
     0
100
AcDbPoint
 10
2018.475020363825
 20
220.2573571153827
 30
0.0
  0
POINT
  5
58A
330
56E
100
AcDbEntity
  8
Defpoints
  6
Continuous
 62
     0
100
AcDbPoint
 10
2012.511088341324
 20
123.2573571153827
 30
0.0
  0
POINT
  5
58B
330
56E
100
AcDbEntity
  8
Defpoints
  6
Continuous
 62
     0
100
AcDbPoint
 10
1973.598389897296
 20
123.2573571153827
 30
0.0
  0
ENDBLK
  5
579
330
56E
100
AcDbEntity
  8
0
100
AcDbBlockEnd
  0
ENDSEC
  0
SECTION
  2
ENTITIES
  0
DIMENSION
  5
4AF
330
A
100
AcDbEntity
  8
1
100
AcDbDimension
  2
*D18
 10
1973.598389897296
 20
114.2573571153827
 30
0.0
 11
1962.915521609172
 21
103.9618113716509
 31
0.0
  1
<>
 71
     5
 42
-1.0
 53
90.0
  3
ME10_DIM_8
100
AcDbAlignedDimension
 13
2012.511088341324
 23
123.2573571153827
 33
0.0
 14
2051.511088341324
 24
114.2573571153827
 34
0.0
 50
90.0
100
AcDbRotatedDimension
  0
DIMENSION
  5
4A0
330
A
100
AcDbEntity
  8
1
100
AcDbDimension
  2
*D17
 10
2059.511088341324
 20
86.74036786785038
 30
0.0
 11
2200.511088341324
 21
97.24036786785038
 31
0.0
  1
<>
 71
     5
 42
-1.0
 53
0.00013888888889
  3
ME10_DIM_7
100
AcDbAlignedDimension
 13
2341.511088341324
 23
110.0311291596821
 33
0.0
 14
2059.511088341324
 24
110.0311291596821
 34
0.0
100
AcDbRotatedDimension
  0
DIMENSION
  5
493
330
A
100
AcDbEntity
  8
1
100
AcDbDimension
  2
*D16
 10
2341.511088341324
 20
86.74036786785038
 30
0.0
 11
2361.761088341323
 21
97.24036786785038
 31
0.0
  1
<>
 71
     5
 42
-1.0
 53
0.00013888888889
  3
ME10_DIM_6
100
AcDbAlignedDimension
 13
2382.011088341323
 23
124.2573571153827
 33
0.0
 14
2341.511088341324
 24
110.0311291596821
 34
0.0
100
AcDbRotatedDimension
  0
DIMENSION
  5
486
330
A
100
AcDbEntity
  8
1
100
AcDbDimension
  2
*D15
 10
2011.511088341324
 20
86.74036786785038
 30
0.0
 11
2035.511088341324
 21
97.24036786785038
 31
0.0
  1
<>
 71
     5
 42
-1.0
 53
0.00013888888889
  3
ME10_DIM_5
100
AcDbAlignedDimension
 13
2059.511088341324
 23
110.0311291596821
 33
0.0
 14
2011.511088341324
 24
124.2573571153827
 34
0.0
100
AcDbRotatedDimension
  0
DIMENSION
  5
479
330
A
100
AcDbEntity
  8
1
100
AcDbDimension
  2
*D14
 10
2645.050844128798
 20
283.8610361825492
 30
0.0
 11
2634.550844128798
 21
403.3610361825486
 31
0.0
  1
<>
 71
     5
 42
-1.0
 53
90.0
  3
ME10_DIM_4
100
AcDbAlignedDimension
 13
2615.572421617691
 23
522.8610361825481
 33
0.0
 14
2616.172421617691
 24
283.861036182549
 34
0.0
 50
90.0
100
AcDbRotatedDimension
  0
DIMENSION
  5
46C
330
A
100
AcDbEntity
  8
1
100
AcDbDimension
  2
*D13
 10
2645.050844128798
 20
522.8610361825482
 30
0.0
 11
2634.550844128798
 21
533.8610361825488
 31
0.0
  1
<>
 71
     5
 42
-1.0
 53
90.0
  3
ME10_DIM_3
100
AcDbAlignedDimension
 13
2600.91108834132
 23
544.8610361825497
 33
0.0
 14
2615.572421617691
 24
522.8610361825481
 34
0.0
 50
90.0
100
AcDbRotatedDimension
  0
DIMENSION
  5
45D
330
A
100
AcDbEntity
  8
1
100
AcDbDimension
  2
*D12
 10
2645.050844128798
 20
261.8610361825498
 30
0.0
 11
2634.550844128798
 21
272.9392607268239
 31
0.0
  1
<>
 71
     5
 42
-1.0
 53
90.0
  3
ME10_DIM_2
100
AcDbAlignedDimension
 13
2616.172421617691
 23
283.861036182549
 33
0.0
 14
2600.91108834132
 24
261.8610361825498
 34
0.0
 50
90.0
100
AcDbRotatedDimension
  0
DIMENSION
  5
441
330
A
100
AcDbEntity
  8
1
100
AcDbDimension
  2
*D9
 10
1973.635284195017
 20
220.2573571153827
 30
0.0
 11
1964.335284195017
 21
248.0644595926951
 31
0.0
  1
(12)
 71
     5
 42
-1.0
 53
90.0
  3
ME10_DIM_0
100
AcDbAlignedDimension
 13
2045.011088341325
 23
232.2573571153828
 33
0.0
 14
2020.711088341325
 24
220.2573571153828
 34
0.0
 50
90.0
100
AcDbRotatedDimension
  0
MTEXT
  5
3E6
330
A
100
AcDbEntity
  8
1
 62
     2
100
AcDbMText
 10
2583.839968499658
 20
280.1677796152908
 30
0.0
 40
1.8
 41
0.0
 71
     7
 72
     1
  1
TYPE
  7
CONVERTER_7
 11
0.0
 21
1.0
 31
0.0
 73
     1
 44
1.0
1001
ACAD
1000
MTEXTBEGIN
1070
    73
1070
     1
1070
    44
1040
1.0
1070
    74
1070
     0
1000
MTEXTEND
  0
MTEXT
  5
3E5
330
A
100
AcDbEntity
  8
1
 62
     2
100
AcDbMText
 10
2587.358662818229
 20
279.9975202127795
 30
0.0
 40
1.8
 41
0.0
 71
     7
 72
     1
  1
SER.NO.
  7
CONVERTER_7
 11
0.0
 21
1.0
 31
0.0
 73
     1
 44
1.0
1001
ACAD
1000
MTEXTBEGIN
1070
    73
1070
     1
1070
    44
1040
1.0
1070
    74
1070
     0
1000
MTEXTEND
  0
MTEXT
  5
3E3
330
A
100
AcDbEntity
  8
1
 62
     2
100
AcDbMText
 10
2590.990863405133
 20
279.9975202127798
 30
0.0
 40
1.8
 41
0.0
 71
     7
 72
     1
  1
NEC San-eiInstruments,Ltd
  7
CONVERTER_6
 11
0.0
 21
1.0
 31
0.0
 73
     1
 44
1.0
1001
ACAD
1000
MTEXTBEGIN
1070
    73
1070
     1
1070
    44
1040
1.0
1070
    74
1070
     0
1000
MTEXTEND
  0
ARC
  5
3A7
330
A
100
AcDbEntity
  8
1
  6
Continuous
 62
     4
100
AcDbCircle
 10
2609.890112667069
 20
281.6610361825491
 30
0.0
 40
1.300000000000069
100
AcDbArc
 50
-90.0
 51
-16.60154959901426
  0
ARC
  5
3A6
330
A
100
AcDbEntity
  8
1
  6
Continuous
 62
     4
100
AcDbCircle
 10
2609.890112667069
 20
286.0610361825491
 30
0.0
 40
1.300000000000419
100
AcDbArc
 50
16.60154959901185
 51
90.0
  0
ARC
  5
3A5
330
A
100
AcDbEntity
  8
1
  6
Continuous
 62
     4
100
AcDbCircle
 10
2339.311088341324
 20
116.2783327896333
 30
0.0
 40
1.300000000000179
100
AcDbArc
 50
180.0
 51
-106.6015495990414
  0
ARC
  5
3A4
330
A
100
AcDbEntity
  8
1
  6
Continuous
 62
     4
100
AcDbCircle
 10
2343.711088341323
 20
116.2783327896333
 30
0.0
 40
1.300000000000159
100
AcDbArc
 50
-73.39845040095859
 51
0.0
  0
ARC
  5
3A3
330
A
100
AcDbEntity
  8
1
  6
Continuous
 62
     2
100
AcDbCircle
 10
2349.511088341324
 20
116.2573571153827
 30
0.0
 40
2.0
100
AcDbArc
 50
-90.0
 51
0.0
  0
ARC
  5
3A2
330
A
100
AcDbEntity
  8
1
  6
Continuous
 62
     2
100
AcDbCircle
 10
2333.511088341324
 20
116.2573571153827
 30
0.0
 40
2.0
100
AcDbArc
 50
180.0
 51
-90.0
  0
ARC
  5
3A1
330
A
100
AcDbEntity
  8
1
  6
Continuous
 62
     2
100
AcDbCircle
 10
2609.911088341321
 20
291.8610361825482
 30
0.0
 40
2.0
100
AcDbArc
 50
0.0
 51
90.0
  0
ARC
  5
3A0
330
A
100
AcDbEntity
  8
1
  6
Continuous
 62
     2
100
AcDbCircle
 10
2609.911088341321
 20
275.8610361825481
 30
0.0
 40
2.0
100
AcDbArc
 50
-90.0
 51
0.0
  0
ARC
  5
39F
330
A
100
AcDbEntity
  8
1
  6
Continuous
 62
     2
100
AcDbCircle
 10
2609.911088341321
 20
530.8610361825481
 30
0.0
 40
2.0
100
AcDbArc
 50
0.0
 51
90.0
  0
ARC
  5
39E
330
A
100
AcDbEntity
  8
1
  6
Continuous
 62
     2
100
AcDbCircle
 10
2609.911088341321
 20
514.8610361825481
 30
0.0
 40
2.0
100
AcDbArc
 50
-90.0
 51
0.0
  0
ARC
  5
39D
330
A
100
AcDbEntity
  8
1
  6
Continuous
 62
     2
100
AcDbCircle
 10
2067.511088341324
 20
116.2573571153827
 30
0.0
 40
2.0
100
AcDbArc
 50
-90.0
 51
0.0
  0
ARC
  5
39C
330
A
100
AcDbEntity
  8
1
  6
Continuous
 62
     2
100
AcDbCircle
 10
2051.511088341324
 20
116.2573571153827
 30
0.0
 40
2.0
100
AcDbArc
 50
180.0
 51
-90.0
  0
ARC
  5
39B
330
A
100
AcDbEntity
  8
1
  6
Continuous
 62
     2
100
AcDbCircle
 10
1792.511088341323
 20
291.8610361825482
 30
0.0
 40
2.0
100
AcDbArc
 50
90.0
 51
180.0
  0
ARC
  5
39A
330
A
100
AcDbEntity
  8
1
  6
Continuous
 62
     2
100
AcDbCircle
 10
1792.511088341323
 20
275.8610361825481
 30
0.0
 40
2.0
100
AcDbArc
 50
180.0
 51
-90.0
  0
ARC
  5
399
330
A
100
AcDbEntity
  8
1
  6
Continuous
 62
     2
100
AcDbCircle
 10
1792.511088341323
 20
530.8610361825481
 30
0.0
 40
2.0
100
AcDbArc
 50
90.0
 51
180.0
  0
ARC
  5
398
330
A
100
AcDbEntity
  8
1
  6
Continuous
 62
     2
100
AcDbCircle
 10
1792.511088341323
 20
514.8610361825481
 30
0.0
 40
2.0
100
AcDbArc
 50
180.0
 51
-90.0
  0
ARC
  5
397
330
A
100
AcDbEntity
  8
1
  6
Continuous
 62
     2
100
AcDbCircle
 10
2051.511088341324
 20
116.2573571153827
 30
0.0
 40
2.0
100
AcDbArc
 50
180.0
 51
-90.0
  0
ARC
  5
396
330
A
100
AcDbEntity
  8
1
  6
Continuous
 62
     2
100
AcDbCircle
 10
2067.511088341324
 20
116.2573571153827
 30
0.0
 40
2.0
100
AcDbArc
 50
-90.0
 51
0.0
  0
ARC
  5
395
330
A
100
AcDbEntity
  8
1
  6
Continuous
 62
     2
100
AcDbCircle
 10
2383.950208482947
 20
405.1110361825479
 30
0.0
 40
1.000000000000339
100
AcDbArc
 50
16.95776330002651
 51
90.0
  0
ARC
  5
394
330
A
100
AcDbEntity
  8
1
  6
Continuous
 62
     2
100
AcDbCircle
 10
2383.950208482947
 20
401.6110361825479
 30
0.0
 40
1.0
100
AcDbArc
 50
-90.0
 51
-16.95776330001716
  0
ARC
  5
393
330
A
100
AcDbEntity
  8
1
  6
Continuous
 62
     2
100
AcDbCircle
 10
2600.91108834132
 20
543.8610361825497
 30
0.0
 40
1.000000000000909
100
AcDbArc
 50
0.0
 51
90.0
  0
ARC
  5
392
330
A
100
AcDbEntity
  8
1
  6
Continuous
 62
     2
100
AcDbCircle
 10
2600.91108834132
 20
262.8610361825498
 30
0.0
 40
1.0
100
AcDbArc
 50
-90.0
 51
0.0
  0
ARC
  5
391
330
A
100
AcDbEntity
  8
1
  6
Continuous
 62
     2
100
AcDbCircle
 10
2509.911088341321
 20
541.8610361825496
 30
0.0
 40
3.0
100
AcDbArc
 50
90.0
 51
180.0
  0
ARC
  5
390
330
A
100
AcDbEntity
  8
1
  6
Continuous
 62
     2
100
AcDbCircle
 10
2509.911088341321
 20
541.8610361825496
 30
0.0
 40
2.0
100
AcDbArc
 50
90.0
 51
180.0
  0
ARC
  5
38F
330
A
100
AcDbEntity
  8
1
  6
Continuous
 62
     2
100
AcDbCircle
 10
2509.911088341321
 20
264.8610361825488
 30
0.0
 40
3.0
100
AcDbArc
 50
179.9999999999804
 51
-90.0
  0
ARC
  5
38E
330
A
100
AcDbEntity
  8
1
  6
Continuous
 62
     2
100
AcDbCircle
 10
2509.911088341321
 20
264.8610361825488
 30
0.0
 40
2.0
100
AcDbArc
 50
179.9999999999674
 51
-90.0
  0
ARC
  5
38D
330
A
100
AcDbEntity
  8
1
  6
Continuous
 62
     2
100
AcDbCircle
 10
2502.911088341321
 20
538.8610361825499
 30
0.0
 40
2.99999999999989
100
AcDbArc
 50
90.0
 51
179.9999999999978
  0
ARC
  5
38C
330
A
100
AcDbEntity
  8
1
  6
Continuous
 62
     2
100
AcDbCircle
 10
2502.911088341321
 20
267.8610361825498
 30
0.0
 40
3.0
100
AcDbArc
 50
180.0
 51
-90.0
  0
ARC
  5
38B
330
A
100
AcDbEntity
  8
1
  6
LONG_DASHED
 62
     2
100
AcDbCircle
 10
2381.011088341323
 20
219.2573571153828
 30
0.0
 40
1.0
100
AcDbArc
 50
0.0
 51
90.0
  0
ARC
  5
38A
330
A
100
AcDbEntity
  8
1
  6
Continuous
 62
     2
100
AcDbCircle
 10
2020.711088341325
 20
222.2573571153828
 30
0.0
 40
2.0
100
AcDbArc
 50
180.0
 51
-90.0
  0
ARC
  5
389
330
A
100
AcDbEntity
  8
1
  6
Continuous
 62
     2
100
AcDbCircle
 10
2020.711088341325
 20
222.2573571153828
 30
0.0
 40
3.0
100
AcDbArc
 50
180.0
 51
-90.0
  0
ARC
  5
388
330
A
100
AcDbEntity
  8
1
  6
Continuous
 62
     2
100
AcDbCircle
 10
2012.511088341324
 20
133.2573571153828
 30
0.0
 40
1.00000000000017
100
AcDbArc
 50
59.99999999994538
 51
180.0
  0
ARC
  5
387
330
A
100
AcDbEntity
  8
1
  6
Continuous
 62
     2
100
AcDbCircle
 10
2012.511088341324
 20
124.2573571153827
 30
0.0
 40
1.0
100
AcDbArc
 50
180.0
 51
-90.0
  0
ARC
  5
386
330
A
100
AcDbEntity
  8
1
  6
LONG_DASHED
 62
     2
100
AcDbCircle
 10
1897.011088341324
 20
541.3610361825468
 30
0.0
 40
1.49999999999971
100
AcDbArc
 50
160.5287793655422
 51
180.0
  0
ARC
  5
385
330
A
100
AcDbEntity
  8
1
  6
LONG_DASHED
 62
     2
100
AcDbCircle
 10
1897.011088341324
 20
265.3610361825498
 30
0.0
 40
1.5
100
AcDbArc
 50
180.0
 51
-160.5287793655095
  0
ARC
  5
384
330
A
100
AcDbEntity
  8
1
  6
Continuous
 62
     2
100
AcDbCircle
 10
1801.511088341323
 20
543.8610361825448
 30
0.0
 40
1.0
100
AcDbArc
 50
90.0
 51
180.0
  0
ARC
  5
383
330
A
100
AcDbEntity
  8
1
  6
Continuous
 62
     2
100
AcDbCircle
 10
1801.511088341323
 20
262.8610361825498
 30
0.0
 40
1.0
100
AcDbArc
 50
180.0
 51
-90.0
  0
ARC
  5
382
330
A
100
AcDbEntity
  8
1
  6
Continuous
 62
     2
100
AcDbCircle
 10
1892.511088341324
 20
541.8610361825447
 30
0.0
 40
3.0
100
AcDbArc
 50
0.0
 51
90.0
  0
ARC
  5
381
330
A
100
AcDbEntity
  8
1
  6
Continuous
 62
     2
100
AcDbCircle
 10
1892.511088341324
 20
541.8610361825447
 30
0.0
 40
2.0
100
AcDbArc
 50
0.0
 51
90.0
  0
ARC
  5
380
330
A
100
AcDbEntity
  8
1
  6
Continuous
 62
     2
100
AcDbCircle
 10
1892.511088341324
 20
264.8610361825498
 30
0.0
 40
3.0
100
AcDbArc
 50
-90.0
 51
0.00000000000217
  0
ARC
  5
37F
330
A
100
AcDbEntity
  8
1
  6
Continuous
 62
     2
100
AcDbCircle
 10
1892.511088341324
 20
264.8610361825498
 30
0.0
 40
2.0
100
AcDbArc
 50
-90.0
 51
0.00000000000326
  0
ARC
  5
37E
330
A
100
AcDbEntity
  8
1
  6
Continuous
 62
     2
100
AcDbCircle
 10
1899.511088341324
 20
538.8610361825478
 30
0.0
 40
3.0
100
AcDbArc
 50
0.0
 51
90.0
  0
ARC
  5
37D
330
A
100
AcDbEntity
  8
1
  6
Continuous
 62
     2
100
AcDbCircle
 10
1899.511088341324
 20
267.8610361825498
 30
0.0
 40
3.0
100
AcDbArc
 50
-90.0
 51
-0.00000000000434
  0
ARC
  5
37C
330
A
100
AcDbEntity
  8
1
  6
Continuous
 62
     2
100
AcDbCircle
 10
1855.507308543121
 20
292.3610361825483
 30
0.0
 40
2.0
100
AcDbArc
 50
-90.0
 51
0.0
  0
ARC
  5
37B
330
A
100
AcDbEntity
  8
1
  6
Continuous
 62
     2
100
AcDbCircle
 10
1855.507308543121
 20
509.3610361825479
 30
0.0
 40
2.0
100
AcDbArc
 50
0.0
 51
90.0
  0
CIRCLE
  5
373
330
A
100
AcDbEntity
  8
1
  6
Continuous
 62
     4
100
AcDbCircle
 10
2341.511088341324
 20
283.8610361825483
 30
0.0
 40
2.0
  0
CIRCLE
  5
372
330
A
100
AcDbEntity
  8
1
  6
Continuous
 62
     4
100
AcDbCircle
 10
2341.511088341324
 20
283.8610361825483
 30
0.0
 40
4.0
  0
CIRCLE
  5
371
330
A
100
AcDbEntity
  8
1
  6
Continuous
 62
     4
100
AcDbCircle
 10
2341.511088341324
 20
283.8610361825483
 30
0.0
 40
10.0
  0
CIRCLE
  5
370
330
A
100
AcDbEntity
  8
1
  6
Continuous
 62
     4
100
AcDbCircle
 10
2059.511088341324
 20
283.8610361825483
 30
0.0
 40
2.0
  0
CIRCLE
  5
36F
330
A
100
AcDbEntity
  8
1
  6
Continuous
 62
     4
100
AcDbCircle
 10
2059.511088341324
 20
283.8610361825483
 30
0.0
 40
4.0
  0
CIRCLE
  5
36E
330
A
100
AcDbEntity
  8
1
  6
Continuous
 62
     4
100
AcDbCircle
 10
2059.511088341324
 20
283.8610361825483
 30
0.0
 40
10.0
  0
CIRCLE
  5
36D
330
A
100
AcDbEntity
  8
1
  6
Continuous
 62
     4
100
AcDbCircle
 10
2341.511088341324
 20
522.8610361825482
 30
0.0
 40
2.0
  0
CIRCLE
  5
36C
330
A
100
AcDbEntity
  8
1
  6
Continuous
 62
     4
100
AcDbCircle
 10
2341.511088341324
 20
522.8610361825482
 30
0.0
 40
4.0
  0
CIRCLE
  5
36B
330
A
100
AcDbEntity
  8
1
  6
Continuous
 62
     4
100
AcDbCircle
 10
2341.511088341324
 20
522.8610361825482
 30
0.0
 40
10.0
  0
CIRCLE
  5
36A
330
A
100
AcDbEntity
  8
1
  6
Continuous
 62
     4
100
AcDbCircle
 10
2059.511088341324
 20
522.8610361825482
 30
0.0
 40
2.0
  0
CIRCLE
  5
369
330
A
100
AcDbEntity
  8
1
  6
Continuous
 62
     4
100
AcDbCircle
 10
2059.511088341324
 20
522.8610361825482
 30
0.0
 40
4.0
  0
CIRCLE
  5
368
330
A
100
AcDbEntity
  8
1
  6
Continuous
 62
     4
100
AcDbCircle
 10
2059.511088341324
 20
522.8610361825482
 30
0.0
 40
10.0
  0
CIRCLE
  5
367
330
A
100
AcDbEntity
  8
1
  6
Continuous
 62
     2
100
AcDbCircle
 10
2537.911088341321
 20
403.3610361825479
 30
0.0
 40
2.765047440428929
  0
CIRCLE
  5
366
330
A
100
AcDbEntity
  8
1
  6
Continuous
 62
     2
100
AcDbCircle
 10
2537.911088341321
 20
403.3610361825479
 30
0.0
 40
3.5
  0
CIRCLE
  5
365
330
A
100
AcDbEntity
  8
1
  6
Continuous
 62
     4
100
AcDbCircle
 10
2341.511088341324
 20
285.8610361825471
 30
0.0
 40
13.0
  0
CIRCLE
  5
364
330
A
100
AcDbEntity
  8
1
  6
Continuous
 62
     4
100
AcDbCircle
 10
2321.511088341325
 20
285.8610361825471
 30
0.0
 40
2.25
  0
CIRCLE
  5
363
330
A
100
AcDbEntity
  8
1
  6
Continuous
 62
     4
100
AcDbCircle
 10
2363.511088341325
 20
288.8610361827239
 30
0.0
 40
2.25
  0
CIRCLE
  5
362
330
A
100
AcDbEntity
  8
1
  6
Continuous
 62
     4
100
AcDbCircle
 10
2059.511088341325
 20
285.8610361825479
 30
0.0
 40
13.0
  0
CIRCLE
  5
361
330
A
100
AcDbEntity
  8
1
  6
Continuous
 62
     4
100
AcDbCircle
 10
2079.511088341325
 20
285.8610361825471
 30
0.0
 40
2.25
  0
CIRCLE
  5
360
330
A
100
AcDbEntity
  8
1
  6
Continuous
 62
     4
100
AcDbCircle
 10
2038.011088341324
 20
288.8610361825471
 30
0.0
 40
2.25
  0
CIRCLE
  5
35F
330
A
100
AcDbEntity
  8
1
  6
Continuous
 62
     4
100
AcDbCircle
 10
2059.511088341325
 20
520.8610361825487
 30
0.0
 40
13.0
  0
CIRCLE
  5
35E
330
A
100
AcDbEntity
  8
1
  6
Continuous
 62
     4
100
AcDbCircle
 10
2079.511088341325
 20
520.8610361824757
 30
0.0
 40
2.25
  0
CIRCLE
  5
35D
330
A
100
AcDbEntity
  8
1
  6
Continuous
 62
     4
100
AcDbCircle
 10
2038.011088341324
 20
517.8610361825497
 30
0.0
 40
2.25
  0
CIRCLE
  5
35C
330
A
100
AcDbEntity
  8
1
  6
Continuous
 62
     4
100
AcDbCircle
 10
2341.511088341324
 20
520.8610361825487
 30
0.0
 40
13.0
  0
CIRCLE
  5
35B
330
A
100
AcDbEntity
  8
1
  6
Continuous
 62
     4
100
AcDbCircle
 10
2321.511088341325
 20
520.8610361824757
 30
0.0
 40
2.25
  0
CIRCLE
  5
35A
330
A
100
AcDbEntity
  8
1
  6
Continuous
 62
     4
100
AcDbCircle
 10
2363.511088341325
 20
517.8610361825487
 30
0.0
 40
2.25
  0
ARC
  5
349
330
A
100
AcDbEntity
  8
1
  6
Continuous
 62
     4
100
AcDbCircle
 10
2602.511088341322
 20
283.861036182549
 30
0.0
 40
9.00000000000014
100
AcDbArc
 50
-16.60154959901948
 51
16.60154959902018
  0
ARC
  5
348
330
A
100
AcDbEntity
  8
1
  6
Continuous
 62
     4
100
AcDbCircle
 10
2341.511088341324
 20
123.6573571153826
 30
0.0
 40
9.000000000000099
100
AcDbArc
 50
-106.6015495990222
 51
-73.39845040098336
  0
ARC
  5
347
330
A
100
AcDbEntity
  8
1
  6
Continuous
 62
     2
100
AcDbCircle
 10
2378.211088341323
 20
403.3610361825479
 30
0.0
 40
6.99999999999979
100
AcDbArc
 50
-16.95776330000727
 51
16.9577633000086
  0
ARC
  5
346
330
A
100
AcDbEntity
  8
1
  6
Continuous
 62
     2
100
AcDbCircle
 10
2509.911088341321
 20
264.8610361825488
 30
0.0
 40
1.800000000001089
100
AcDbArc
 50
179.9999999999674
 51
-90.0
  0
ARC
  5
345
330
A
100
AcDbEntity
  8
1
  6
Continuous
 62
     2
100
AcDbCircle
 10
2509.911088341321
 20
541.8610361825496
 30
0.0
 40
1.799999999999949
100
AcDbArc
 50
90.0
 51
180.0
  0
ARC
  5
344
330
A
100
AcDbEntity
  8
1
  6
Continuous
 62
     2
100
AcDbCircle
 10
1831.511088341323
 20
400.8610361825479
 30
0.0
 40
12.5
100
AcDbArc
 50
0.0
 51
90.0
  0
ARC
  5
343
330
A
100
AcDbEntity
  8
1
  6
Continuous
 62
     2
100
AcDbCircle
 10
1831.511088341323
 20
400.8610361825479
 30
0.0
 40
12.5
100
AcDbArc
 50
-90.0
 51
0.0
  0
ARC
  5
342
330
A
100
AcDbEntity
  8
1
  6
Continuous
 62
     2
100
AcDbCircle
 10
2014.511088341326
 20
290.3610361825483
 30
0.0
 40
0.9999999999988599
100
AcDbArc
 50
0.0
 51
90.00000000006513
  0
ARC
  5
341
330
A
100
AcDbEntity
  8
1
  6
Continuous
 62
     2
100
AcDbCircle
 10
2014.511088341326
 20
511.3610361825479
 30
0.0
 40
1.0
100
AcDbArc
 50
-90.00000000006513
 51
0.0
  0
LINE
  5
317
330
A
100
AcDbEntity
  8
1
  6
Continuous
 62
     4
100
AcDbLine
 10
2608.911088341321
 20
280.361036182549
 30
0.0
 11
2608.911088341321
 21
287.361036182549
 31
0.0
  0
LINE
  5
316
330
A
100
AcDbEntity
  8
1
  6
Continuous
 62
     4
100
AcDbLine
 10
2597.142028448996
 20
285.861036182549
 30
0.0
 11
2608.911088341321
 21
285.8610361825482
 31
0.0
  0
LINE
  5
315
330
A
100
AcDbEntity
  8
1
  6
Continuous
 62
     4
100
AcDbLine
 10
2597.142028448996
 20
281.861036182549
 30
0.0
 11
2608.911088341321
 21
281.8610361825482
 31
0.0
  0
LINE
  5
314
330
A
100
AcDbEntity
  8
1
  6
Continuous
 62
     4
100
AcDbLine
 10
2608.680148233645
 20
285.4610361825489
 30
0.0
 11
2608.911088341321
 21
285.8610361825482
 31
0.0
  0
LINE
  5
313
330
A
100
AcDbEntity
  8
1
  6
Continuous
 62
     4
100
AcDbLine
 10
2608.680148233645
 20
282.2610361825489
 30
0.0
 11
2608.911088341321
 21
281.8610361825482
 31
0.0
  0
LINE
  5
312
330
A
100
AcDbEntity
  8
1
  6
Continuous
 62
     4
100
AcDbLine
 10
2608.680148233645
 20
285.4610361825489
 30
0.0
 11
2608.680148233645
 21
282.2610361825489
 31
0.0
  0
LINE
  5
311
330
A
100
AcDbEntity
  8
1
  6
Continuous
 62
     4
100
AcDbLine
 10
2597.142028448996
 20
285.861036182549
 30
0.0
 11
2596.911088341321
 21
285.4610361825489
 31
0.0
  0
LINE
  5
310
330
A
100
AcDbEntity
  8
1
  6
Continuous
 62
     4
100
AcDbLine
 10
2597.142028448996
 20
281.861036182549
 30
0.0
 11
2596.911088341321
 21
282.2610361825489
 31
0.0
  0
LINE
  5
30F
330
A
100
AcDbEntity
  8
1
  6
Continuous
 62
     4
100
AcDbLine
 10
2596.911088341321
 20
285.4610361825489
 30
0.0
 11
2596.911088341321
 21
282.2610361825489
 31
0.0
  0
LINE
  5
30E
330
A
100
AcDbEntity
  8
1
  6
Continuous
 62
     4
100
AcDbLine
 10
2597.142028448996
 20
285.861036182549
 30
0.0
 11
2597.142028448996
 21
281.861036182549
 31
0.0
  0
LINE
  5
30D
330
A
100
AcDbEntity
  8
1
  6
Continuous
 62
     4
100
AcDbLine
 10
2608.680148233645
 20
285.4610361825489
 30
0.0
 11
2596.911088341321
 21
285.4610361825489
 31
0.0
  0
LINE
  5
30C
330
A
100
AcDbEntity
  8
1
  6
Continuous
 62
     4
100
AcDbLine
 10
2608.680148233645
 20
282.2610361825489
 30
0.0
 11
2596.911088341321
 21
282.2610361825489
 31
0.0
  0
LINE
  5
30B
330
A
100
AcDbEntity
  8
1
  6
DOT_CENTER
 62
     4
100
AcDbLine
 10
2596.155178474915
 20
283.861036182549
 30
0.0
 11
2613.254278196908
 21
283.861036182549
 31
0.0
  0
LINE
  5
30A
330
A
100
AcDbEntity
  8
1
  6
Continuous
 62
     4
100
AcDbLine
 10
2609.890112667069
 20
280.361036182549
 30
0.0
 11
2608.911088341321
 21
280.361036182549
 31
0.0
  0
LINE
  5
309
330
A
100
AcDbEntity
  8
1
  6
Continuous
 62
     4
100
AcDbLine
 10
2608.911088341321
 20
287.361036182549
 30
0.0
 11
2609.890112667069
 21
287.361036182549
 31
0.0
  0
LINE
  5
308
330
A
100
AcDbEntity
  8
1
  6
Continuous
 62
     4
100
AcDbLine
 10
2338.011088341324
 20
117.2573571153827
 30
0.0
 11
2345.011088341324
 21
117.2573571153827
 31
0.0
  0
LINE
  5
307
330
A
100
AcDbEntity
  8
1
  6
Continuous
 62
     4
100
AcDbLine
 10
2343.511088341324
 20
129.0264170077072
 30
0.0
 11
2343.511088341324
 21
117.2573571153827
 31
0.0
  0
LINE
  5
306
330
A
100
AcDbEntity
  8
1
  6
Continuous
 62
     4
100
AcDbLine
 10
2339.511088341324
 20
129.0264170077072
 30
0.0
 11
2339.511088341324
 21
117.2573571153827
 31
0.0
  0
LINE
  5
305
330
A
100
AcDbEntity
  8
1
  6
Continuous
 62
     4
100
AcDbLine
 10
2343.111088341324
 20
117.4882972230584
 30
0.0
 11
2343.511088341324
 21
117.2573571153827
 31
0.0
  0
LINE
  5
304
330
A
100
AcDbEntity
  8
1
  6
Continuous
 62
     4
100
AcDbLine
 10
2339.911088341323
 20
117.4882972230584
 30
0.0
 11
2339.511088341324
 21
117.2573571153827
 31
0.0
  0
LINE
  5
303
330
A
100
AcDbEntity
  8
1
  6
Continuous
 62
     4
100
AcDbLine
 10
2343.111088341324
 20
117.4882972230584
 30
0.0
 11
2339.911088341323
 21
117.4882972230584
 31
0.0
  0
LINE
  5
302
330
A
100
AcDbEntity
  8
1
  6
Continuous
 62
     4
100
AcDbLine
 10
2343.511088341324
 20
129.0264170077072
 30
0.0
 11
2343.111088341324
 21
129.257357115383
 31
0.0
  0
LINE
  5
301
330
A
100
AcDbEntity
  8
1
  6
Continuous
 62
     4
100
AcDbLine
 10
2339.511088341324
 20
129.0264170077072
 30
0.0
 11
2339.911088341323
 21
129.257357115383
 31
0.0
  0
LINE
  5
300
330
A
100
AcDbEntity
  8
1
  6
Continuous
 62
     4
100
AcDbLine
 10
2343.111088341324
 20
129.257357115383
 30
0.0
 11
2339.911088341323
 21
129.257357115383
 31
0.0
  0
LINE
  5
2FF
330
A
100
AcDbEntity
  8
1
  6
Continuous
 62
     4
100
AcDbLine
 10
2343.511088341324
 20
129.0264170077072
 30
0.0
 11
2339.511088341324
 21
129.0264170077072
 31
0.0
  0
LINE
  5
2FE
330
A
100
AcDbEntity
  8
1
  6
Continuous
 62
     4
100
AcDbLine
 10
2343.111088341324
 20
117.4882972230584
 30
0.0
 11
2343.111088341324
 21
129.257357115383
 31
0.0
  0
LINE
  5
2FD
330
A
100
AcDbEntity
  8
1
  6
Continuous
 62
     4
100
AcDbLine
 10
2339.911088341323
 20
117.4882972230584
 30
0.0
 11
2339.911088341323
 21
129.257357115383
 31
0.0
  0
LINE
  5
2FC
330
A
100
AcDbEntity
  8
1
  6
DOT_CENTER
 62
     4
100
AcDbLine
 10
2341.511088341324
 20
130.0132669817885
 30
0.0
 11
2341.511088341324
 21
112.9141672597959
 31
0.0
  0
LINE
  5
2FB
330
A
100
AcDbEntity
  8
1
  6
Continuous
 62
     4
100
AcDbLine
 10
2338.011088341324
 20
116.2783327896333
 30
0.0
 11
2338.011088341324
 21
117.2573571153827
 31
0.0
  0
LINE
  5
2FA
330
A
100
AcDbEntity
  8
1
  6
Continuous
 62
     4
100
AcDbLine
 10
2345.011088341324
 20
117.2573571153827
 30
0.0
 11
2345.011088341324
 21
116.2783327896333
 31
0.0
  0
LINE
  5
2F9
330
A
100
AcDbEntity
  8
1
  6
Continuous
 62
     4
100
AcDbLine
 10
2345.511088341324
 20
117.2573571153827
 30
0.0
 11
2343.511088341324
 21
117.2573571153827
 31
0.0
  0
LINE
  5
2F8
330
A
100
AcDbEntity
  8
1
  6
Continuous
 62
     4
100
AcDbLine
 10
2345.511088341324
 20
114.2573571153827
 30
0.0
 11
2345.511088341324
 21
118.0573571153829
 31
0.0
  0
LINE
  5
2F7
330
A
100
AcDbEntity
  8
1
  6
Continuous
 62
     4
100
AcDbLine
 10
2345.511088341324
 20
118.0573571153829
 30
0.0
 11
2343.511088341324
 21
118.0573571153829
 31
0.0
  0
LINE
  5
2F6
330
A
100
AcDbEntity
  8
1
  6
Continuous
 62
     4
100
AcDbLine
 10
2343.511088341324
 20
117.2573571153827
 30
0.0
 11
2343.511088341324
 21
123.2573571153827
 31
0.0
  0
LINE
  5
2F5
330
A
100
AcDbEntity
  8
1
  6
Continuous
 62
     4
100
AcDbLine
 10
2339.511088341324
 20
117.2573571153827
 30
0.0
 11
2337.511088341324
 21
117.2573571153827
 31
0.0
  0
LINE
  5
2F4
330
A
100
AcDbEntity
  8
1
  6
Continuous
 62
     4
100
AcDbLine
 10
2337.511088341324
 20
118.0573571153829
 30
0.0
 11
2337.511088341324
 21
114.2573571153827
 31
0.0
  0
LINE
  5
2F3
330
A
100
AcDbEntity
  8
1
  6
Continuous
 62
     4
100
AcDbLine
 10
2339.511088341324
 20
118.0573571153829
 30
0.0
 11
2337.511088341324
 21
118.0573571153829
 31
0.0
  0
LINE
  5
2F2
330
A
100
AcDbEntity
  8
1
  6
Continuous
 62
     4
100
AcDbLine
 10
2339.511088341324
 20
123.2573571153827
 30
0.0
 11
2339.511088341324
 21
117.2573571153827
 31
0.0
  0
LINE
  5
2F1
330
A
100
AcDbEntity
  8
1
  6
Continuous
 62
     2
100
AcDbLine
 10
2331.511088341324
 20
116.2573571153827
 30
0.0
 11
2331.511088341324
 21
123.2573571153827
 31
0.0
  0
LINE
  5
2F0
330
A
100
AcDbEntity
  8
1
  6
Continuous
 62
     2
100
AcDbLine
 10
2349.511088341324
 20
114.2573571153827
 30
0.0
 11
2333.511088341324
 21
114.2573571153827
 31
0.0
  0
LINE
  5
2EF
330
A
100
AcDbEntity
  8
1
  6
Continuous
 62
     2
100
AcDbLine
 10
2351.511088341324
 20
123.2573571153827
 30
0.0
 11
2351.511088341324
 21
116.2573571153827
 31
0.0
  0
LINE
  5
2EE
330
A
100
AcDbEntity
  8
1
  6
Continuous
 62
     2
100
AcDbLine
 10
2331.511088341324
 20
123.2573571153827
 30
0.0
 11
2351.511088341324
 21
123.2573571153827
 31
0.0
  0
LINE
  5
2ED
330
A
100
AcDbEntity
  8
1
  6
Continuous
 62
     4
100
AcDbLine
 10
2608.911088341321
 20
287.8610361825482
 30
0.0
 11
2608.911088341321
 21
285.8610361825482
 31
0.0
  0
LINE
  5
2EC
330
A
100
AcDbEntity
  8
1
  6
Continuous
 62
     4
100
AcDbLine
 10
2611.911088341321
 20
287.8610361825482
 30
0.0
 11
2608.11108834132
 21
287.8610361825482
 31
0.0
  0
LINE
  5
2EB
330
A
100
AcDbEntity
  8
1
  6
Continuous
 62
     4
100
AcDbLine
 10
2608.11108834132
 20
287.8610361825482
 30
0.0
 11
2608.11108834132
 21
285.8610361825482
 31
0.0
  0
LINE
  5
2EA
330
A
100
AcDbEntity
  8
1
  6
Continuous
 62
     4
100
AcDbLine
 10
2608.911088341321
 20
285.8610361825482
 30
0.0
 11
2602.911088341321
 21
285.8610361825482
 31
0.0
  0
LINE
  5
2E9
330
A
100
AcDbEntity
  8
1
  6
Continuous
 62
     4
100
AcDbLine
 10
2608.911088341321
 20
281.8610361825482
 30
0.0
 11
2608.911088341321
 21
279.8610361825481
 31
0.0
  0
LINE
  5
2E8
330
A
100
AcDbEntity
  8
1
  6
Continuous
 62
     4
100
AcDbLine
 10
2608.11108834132
 20
279.8610361825481
 30
0.0
 11
2611.911088341321
 21
279.8610361825481
 31
0.0
  0
LINE
  5
2E7
330
A
100
AcDbEntity
  8
1
  6
Continuous
 62
     4
100
AcDbLine
 10
2608.11108834132
 20
281.8610361825482
 30
0.0
 11
2608.11108834132
 21
279.8610361825481
 31
0.0
  0
LINE
  5
2E6
330
A
100
AcDbEntity
  8
1
  6
Continuous
 62
     4
100
AcDbLine
 10
2602.911088341321
 20
281.8610361825482
 30
0.0
 11
2608.911088341321
 21
281.8610361825482
 31
0.0
  0
LINE
  5
2E5
330
A
100
AcDbEntity
  8
1
  6
Continuous
 62
     2
100
AcDbLine
 10
2609.911088341321
 20
273.8610361825481
 30
0.0
 11
2602.911088341321
 21
273.8610361825481
 31
0.0
  0
LINE
  5
2E4
330
A
100
AcDbEntity
  8
1
  6
Continuous
 62
     2
100
AcDbLine
 10
2611.911088341321
 20
291.8610361825482
 30
0.0
 11
2611.911088341321
 21
275.8610361825481
 31
0.0
  0
LINE
  5
2E3
330
A
100
AcDbEntity
  8
1
  6
Continuous
 62
     2
100
AcDbLine
 10
2602.911088341321
 20
293.8610361825482
 30
0.0
 11
2609.911088341321
 21
293.8610361825482
 31
0.0
  0
LINE
  5
2E2
330
A
100
AcDbEntity
  8
1
  6
Continuous
 62
     2
100
AcDbLine
 10
2602.911088341321
 20
273.8610361825481
 30
0.0
 11
2602.911088341321
 21
293.8610361825482
 31
0.0
  0
LINE
  5
2E1
330
A
100
AcDbEntity
  8
1
  6
Continuous
 62
     4
100
AcDbLine
 10
2608.911088341321
 20
526.8610361825481
 30
0.0
 11
2608.911088341321
 21
524.861036182548
 31
0.0
  0
LINE
  5
2E0
330
A
100
AcDbEntity
  8
1
  6
Continuous
 62
     4
100
AcDbLine
 10
2611.911088341321
 20
526.8610361825481
 30
0.0
 11
2608.11108834132
 21
526.8610361825481
 31
0.0
  0
LINE
  5
2DF
330
A
100
AcDbEntity
  8
1
  6
Continuous
 62
     4
100
AcDbLine
 10
2608.11108834132
 20
526.8610361825481
 30
0.0
 11
2608.11108834132
 21
524.861036182548
 31
0.0
  0
LINE
  5
2DE
330
A
100
AcDbEntity
  8
1
  6
Continuous
 62
     4
100
AcDbLine
 10
2608.911088341321
 20
524.861036182548
 30
0.0
 11
2602.911088341321
 21
524.861036182548
 31
0.0
  0
LINE
  5
2DD
330
A
100
AcDbEntity
  8
1
  6
Continuous
 62
     4
100
AcDbLine
 10
2608.911088341321
 20
520.861036182548
 30
0.0
 11
2608.911088341321
 21
518.8610361825481
 31
0.0
  0
LINE
  5
2DC
330
A
100
AcDbEntity
  8
1
  6
Continuous
 62
     4
100
AcDbLine
 10
2608.11108834132
 20
518.8610361825481
 30
0.0
 11
2611.911088341321
 21
518.8610361825481
 31
0.0
  0
LINE
  5
2DB
330
A
100
AcDbEntity
  8
1
  6
Continuous
 62
     4
100
AcDbLine
 10
2608.11108834132
 20
520.861036182548
 30
0.0
 11
2608.11108834132
 21
518.8610361825481
 31
0.0
  0
LINE
  5
2DA
330
A
100
AcDbEntity
  8
1
  6
Continuous
 62
     4
100
AcDbLine
 10
2602.911088341321
 20
520.861036182548
 30
0.0
 11
2608.911088341321
 21
520.861036182548
 31
0.0
  0
LINE
  5
2D9
330
A
100
AcDbEntity
  8
1
  6
Continuous
 62
     2
100
AcDbLine
 10
2609.911088341321
 20
512.861036182548
 30
0.0
 11
2602.911088341321
 21
512.861036182548
 31
0.0
  0
LINE
  5
2D8
330
A
100
AcDbEntity
  8
1
  6
Continuous
 62
     2
100
AcDbLine
 10
2611.911088341321
 20
530.8610361825481
 30
0.0
 11
2611.911088341321
 21
514.8610361825481
 31
0.0
  0
LINE
  5
2D7
330
A
100
AcDbEntity
  8
1
  6
Continuous
 62
     2
100
AcDbLine
 10
2602.911088341321
 20
532.861036182548
 30
0.0
 11
2609.911088341321
 21
532.861036182548
 31
0.0
  0
LINE
  5
2D6
330
A
100
AcDbEntity
  8
1
  6
Continuous
 62
     2
100
AcDbLine
 10
2602.911088341321
 20
512.861036182548
 30
0.0
 11
2602.911088341321
 21
532.861036182548
 31
0.0
  0
LINE
  5
2D5
330
A
100
AcDbEntity
  8
1
  6
Continuous
 62
     4
100
AcDbLine
 10
2063.511088341324
 20
117.2573571153827
 30
0.0
 11
2061.511088341324
 21
117.2573571153827
 31
0.0
  0
LINE
  5
2D4
330
A
100
AcDbEntity
  8
1
  6
Continuous
 62
     4
100
AcDbLine
 10
2063.511088341324
 20
114.2573571153827
 30
0.0
 11
2063.511088341324
 21
118.0573571153829
 31
0.0
  0
LINE
  5
2D3
330
A
100
AcDbEntity
  8
1
  6
Continuous
 62
     4
100
AcDbLine
 10
2063.511088341324
 20
118.0573571153829
 30
0.0
 11
2061.511088341324
 21
118.0573571153829
 31
0.0
  0
LINE
  5
2D2
330
A
100
AcDbEntity
  8
1
  6
Continuous
 62
     4
100
AcDbLine
 10
2061.511088341324
 20
117.2573571153827
 30
0.0
 11
2061.511088341324
 21
123.2573571153827
 31
0.0
  0
LINE
  5
2D1
330
A
100
AcDbEntity
  8
1
  6
Continuous
 62
     4
100
AcDbLine
 10
2057.511088341324
 20
117.2573571153827
 30
0.0
 11
2055.511088341324
 21
117.2573571153827
 31
0.0
  0
LINE
  5
2D0
330
A
100
AcDbEntity
  8
1
  6
Continuous
 62
     4
100
AcDbLine
 10
2055.511088341324
 20
118.0573571153829
 30
0.0
 11
2055.511088341324
 21
114.2573571153827
 31
0.0
  0
LINE
  5
2CF
330
A
100
AcDbEntity
  8
1
  6
Continuous
 62
     4
100
AcDbLine
 10
2057.511088341324
 20
118.0573571153829
 30
0.0
 11
2055.511088341324
 21
118.0573571153829
 31
0.0
  0
LINE
  5
2CE
330
A
100
AcDbEntity
  8
1
  6
Continuous
 62
     4
100
AcDbLine
 10
2057.511088341324
 20
123.2573571153827
 30
0.0
 11
2057.511088341324
 21
117.2573571153827
 31
0.0
  0
LINE
  5
2CD
330
A
100
AcDbEntity
  8
1
  6
Continuous
 62
     2
100
AcDbLine
 10
2049.511088341324
 20
116.2573571153827
 30
0.0
 11
2049.511088341324
 21
123.2573571153827
 31
0.0
  0
LINE
  5
2CC
330
A
100
AcDbEntity
  8
1
  6
Continuous
 62
     2
100
AcDbLine
 10
2067.511088341324
 20
114.2573571153827
 30
0.0
 11
2051.511088341324
 21
114.2573571153827
 31
0.0
  0
LINE
  5
2CB
330
A
100
AcDbEntity
  8
1
  6
Continuous
 62
     2
100
AcDbLine
 10
2069.511088341324
 20
123.2573571153827
 30
0.0
 11
2069.511088341324
 21
116.2573571153827
 31
0.0
  0
LINE
  5
2CA
330
A
100
AcDbEntity
  8
1
  6
Continuous
 62
     2
100
AcDbLine
 10
2049.511088341324
 20
123.2573571153827
 30
0.0
 11
2069.511088341324
 21
123.2573571153827
 31
0.0
  0
LINE
  5
2C9
330
A
100
AcDbEntity
  8
1
  6
Continuous
 62
     4
100
AcDbLine
 10
1793.511088341323
 20
285.8610361825482
 30
0.0
 11
1793.511088341323
 21
287.8610361825482
 31
0.0
  0
LINE
  5
2C8
330
A
100
AcDbEntity
  8
1
  6
Continuous
 62
     4
100
AcDbLine
 10
1794.311088341323
 20
287.8610361825482
 30
0.0
 11
1790.511088341323
 21
287.8610361825482
 31
0.0
  0
LINE
  5
2C7
330
A
100
AcDbEntity
  8
1
  6
Continuous
 62
     4
100
AcDbLine
 10
1794.311088341323
 20
285.8610361825482
 30
0.0
 11
1794.311088341323
 21
287.8610361825482
 31
0.0
  0
LINE
  5
2C6
330
A
100
AcDbEntity
  8
1
  6
Continuous
 62
     4
100
AcDbLine
 10
1799.511088341323
 20
285.8610361825482
 30
0.0
 11
1793.511088341323
 21
285.8610361825482
 31
0.0
  0
LINE
  5
2C5
330
A
100
AcDbEntity
  8
1
  6
Continuous
 62
     4
100
AcDbLine
 10
1793.511088341323
 20
279.8610361825481
 30
0.0
 11
1793.511088341323
 21
281.8610361825482
 31
0.0
  0
LINE
  5
2C4
330
A
100
AcDbEntity
  8
1
  6
Continuous
 62
     4
100
AcDbLine
 10
1790.511088341323
 20
279.8610361825481
 30
0.0
 11
1794.311088341323
 21
279.8610361825481
 31
0.0
  0
LINE
  5
2C3
330
A
100
AcDbEntity
  8
1
  6
Continuous
 62
     4
100
AcDbLine
 10
1794.311088341323
 20
279.8610361825481
 30
0.0
 11
1794.311088341323
 21
281.8610361825482
 31
0.0
  0
LINE
  5
2C2
330
A
100
AcDbEntity
  8
1
  6
Continuous
 62
     4
100
AcDbLine
 10
1793.511088341323
 20
281.8610361825482
 30
0.0
 11
1799.511088341323
 21
281.8610361825482
 31
0.0
  0
LINE
  5
2C1
330
A
100
AcDbEntity
  8
1
  6
Continuous
 62
     2
100
AcDbLine
 10
1799.511088341323
 20
273.8610361825481
 30
0.0
 11
1792.511088341323
 21
273.8610361825481
 31
0.0
  0
LINE
  5
2C0
330
A
100
AcDbEntity
  8
1
  6
Continuous
 62
     2
100
AcDbLine
 10
1790.511088341323
 20
275.8610361825481
 30
0.0
 11
1790.511088341323
 21
291.8610361825482
 31
0.0
  0
LINE
  5
2BF
330
A
100
AcDbEntity
  8
1
  6
Continuous
 62
     2
100
AcDbLine
 10
1792.511088341323
 20
293.8610361825482
 30
0.0
 11
1799.511088341323
 21
293.8610361825482
 31
0.0
  0
LINE
  5
2BE
330
A
100
AcDbEntity
  8
1
  6
Continuous
 62
     2
100
AcDbLine
 10
1799.511088341323
 20
293.8610361825482
 30
0.0
 11
1799.511088341323
 21
273.8610361825481
 31
0.0
  0
LINE
  5
2BD
330
A
100
AcDbEntity
  8
1
  6
Continuous
 62
     4
100
AcDbLine
 10
1793.511088341323
 20
524.861036182548
 30
0.0
 11
1793.511088341323
 21
526.8610361825481
 31
0.0
  0
LINE
  5
2BC
330
A
100
AcDbEntity
  8
1
  6
Continuous
 62
     4
100
AcDbLine
 10
1794.311088341323
 20
526.8610361825481
 30
0.0
 11
1790.511088341323
 21
526.8610361825481
 31
0.0
  0
LINE
  5
2BB
330
A
100
AcDbEntity
  8
1
  6
Continuous
 62
     4
100
AcDbLine
 10
1794.311088341323
 20
524.861036182548
 30
0.0
 11
1794.311088341323
 21
526.8610361825481
 31
0.0
  0
LINE
  5
2BA
330
A
100
AcDbEntity
  8
1
  6
Continuous
 62
     4
100
AcDbLine
 10
1799.511088341323
 20
524.861036182548
 30
0.0
 11
1793.511088341323
 21
524.861036182548
 31
0.0
  0
LINE
  5
2B9
330
A
100
AcDbEntity
  8
1
  6
Continuous
 62
     4
100
AcDbLine
 10
1793.511088341323
 20
518.8610361825481
 30
0.0
 11
1793.511088341323
 21
520.861036182548
 31
0.0
  0
LINE
  5
2B8
330
A
100
AcDbEntity
  8
1
  6
Continuous
 62
     4
100
AcDbLine
 10
1790.511088341323
 20
518.8610361825481
 30
0.0
 11
1794.311088341323
 21
518.8610361825481
 31
0.0
  0
LINE
  5
2B7
330
A
100
AcDbEntity
  8
1
  6
Continuous
 62
     4
100
AcDbLine
 10
1794.311088341323
 20
518.8610361825481
 30
0.0
 11
1794.311088341323
 21
520.861036182548
 31
0.0
  0
LINE
  5
2B6
330
A
100
AcDbEntity
  8
1
  6
Continuous
 62
     4
100
AcDbLine
 10
1793.511088341323
 20
520.861036182548
 30
0.0
 11
1799.511088341323
 21
520.861036182548
 31
0.0
  0
LINE
  5
2B5
330
A
100
AcDbEntity
  8
1
  6
Continuous
 62
     2
100
AcDbLine
 10
1799.511088341323
 20
512.861036182548
 30
0.0
 11
1792.511088341323
 21
512.861036182548
 31
0.0
  0
LINE
  5
2B4
330
A
100
AcDbEntity
  8
1
  6
Continuous
 62
     2
100
AcDbLine
 10
1790.511088341323
 20
514.8610361825481
 30
0.0
 11
1790.511088341323
 21
530.8610361825481
 31
0.0
  0
LINE
  5
2B3
330
A
100
AcDbEntity
  8
1
  6
Continuous
 62
     2
100
AcDbLine
 10
1792.511088341323
 20
532.861036182548
 30
0.0
 11
1799.511088341323
 21
532.861036182548
 31
0.0
  0
LINE
  5
2B2
330
A
100
AcDbEntity
  8
1
  6
Continuous
 62
     2
100
AcDbLine
 10
1799.511088341323
 20
532.861036182548
 30
0.0
 11
1799.511088341323
 21
512.861036182548
 31
0.0
  0
LINE
  5
2B1
330
A
100
AcDbEntity
  8
1
  6
Continuous
 62
     2
100
AcDbLine
 10
1894.511088341323
 20
270.8610361825489
 30
0.0
 11
1887.511088341323
 21
270.8610361825489
 31
0.0
  0
LINE
  5
2B0
330
A
100
AcDbEntity
  8
1
  6
DASHED
 62
     2
100
AcDbLine
 10
1888.511088341323
 20
270.8610361825489
 30
0.0
 11
1888.511088341323
 21
535.8610361825489
 31
0.0
  0
LINE
  5
2AF
330
A
100
AcDbEntity
  8
1
  6
Continuous
 62
     2
100
AcDbLine
 10
1893.511088341323
 20
270.8610361825489
 30
0.0
 11
1893.511088341323
 21
535.8610361825489
 31
0.0
  0
LINE
  5
2AE
330
A
100
AcDbEntity
  8
1
  6
Continuous
 62
     2
100
AcDbLine
 10
1887.511088341323
 20
270.8610361825489
 30
0.0
 11
1887.511088341323
 21
535.8610361825489
 31
0.0
  0
LINE
  5
2AD
330
A
100
AcDbEntity
  8
1
  6
Continuous
 62
     2
100
AcDbLine
 10
1887.511088341323
 20
535.8610361825489
 30
0.0
 11
1894.511088341323
 21
535.8610361825489
 31
0.0
  0
LINE
  5
2AC
330
A
100
AcDbEntity
  8
1
  6
Continuous
 62
     7
100
AcDbLine
 10
2353.011088341324
 20
124.2573571153827
 30
0.0
 11
2353.011088341324
 21
123.2573571153827
 31
0.0
  0
LINE
  5
2AB
330
A
100
AcDbEntity
  8
1
  6
Continuous
 62
     2
100
AcDbLine
 10
2049.511088341324
 20
116.2573571153827
 30
0.0
 11
2049.511088341324
 21
123.2573571153827
 31
0.0
  0
LINE
  5
2AA
330
A
100
AcDbEntity
  8
1
  6
Continuous
 62
     2
100
AcDbLine
 10
2069.511088341324
 20
123.2573571153827
 30
0.0
 11
2069.511088341324
 21
116.2573571153827
 31
0.0
  0
LINE
  5
2A9
330
A
100
AcDbEntity
  8
1
  6
Continuous
 62
     2
100
AcDbLine
 10
2013.011088341325
 20
544.8610361825496
 30
0.0
 11
2013.011088341325
 21
533.8610361825514
 31
0.0
  0
LINE
  5
2A8
330
A
100
AcDbEntity
  8
1
  6
Continuous
 62
     2
100
AcDbLine
 10
2020.711088341325
 20
543.8610361825497
 30
0.0
 11
2013.011088341325
 21
543.8610361825497
 31
0.0
  0
LINE
  5
2A7
330
A
100
AcDbEntity
  8
1
  6
Continuous
 62
     2
100
AcDbLine
 10
2013.011088341325
 20
261.8610361825497
 30
0.0
 11
2013.011088341325
 21
267.8610361825437
 31
0.0
  0
LINE
  5
2A6
330
A
100
AcDbEntity
  8
1
  6
Continuous
 62
     2
100
AcDbLine
 10
2020.711088341325
 20
262.8610361825497
 30
0.0
 11
2013.011088341325
 21
262.8610361825497
 31
0.0
  0
LINE
  5
2A5
330
A
100
AcDbEntity
  8
1
  6
Continuous
 62
     2
100
AcDbLine
 10
2020.711088341325
 20
541.8610361825495
 30
0.0
 11
2020.711088341325
 21
544.8610361825496
 31
0.0
  0
LINE
  5
2A4
330
A
100
AcDbEntity
  8
1
  6
Continuous
 62
     2
100
AcDbLine
 10
2017.711088341325
 20
541.8610361825495
 30
0.0
 11
2020.711088341325
 21
541.8610361825495
 31
0.0
  0
LINE
  5
2A3
330
A
100
AcDbEntity
  8
1
  6
Continuous
 62
     2
100
AcDbLine
 10
2020.711088341325
 20
264.8610361825497
 30
0.0
 11
2020.711088341325
 21
261.8610361825497
 31
0.0
  0
LINE
  5
2A2
330
A
100
AcDbEntity
  8
1
  6
Continuous
 62
     2
100
AcDbLine
 10
2017.711088341325
 20
264.8610361825498
 30
0.0
 11
2020.711088341325
 21
264.8610361825497
 31
0.0
  0
LINE
  5
2A0
330
A
100
AcDbEntity
  8
1
  6
Continuous
 62
     2
100
AcDbLine
 10
2382.511088341323
 20
400.6110361825479
 30
0.0
 11
2383.950208482947
 21
400.6110361825479
 31
0.0
  0
LINE
  5
29F
330
A
100
AcDbEntity
  8
1
  6
Continuous
 62
     2
100
AcDbLine
 10
2382.511088341323
 20
406.1110361825479
 30
0.0
 11
2383.950208482947
 21
406.1110361825479
 31
0.0
  0
LINE
  5
29E
330
A
100
AcDbEntity
  8
1
  6
Continuous
 62
     2
100
AcDbLine
 10
2383.211088341323
 20
400.6110361825479
 30
0.0
 11
2383.211088341323
 21
406.1110361825479
 31
0.0
  0
LINE
  5
29D
330
A
100
AcDbEntity
  8
1
  6
Continuous
 62
     2
100
AcDbLine
 10
2382.511088341323
 20
400.3610361825479
 30
0.0
 11
2382.511088341323
 21
406.3610361825479
 31
0.0
  0
LINE
  5
29C
330
A
100
AcDbEntity
  8
1
  6
Continuous
 62
     2
100
AcDbLine
 10
2382.011088341323
 20
406.3610361825479
 30
0.0
 11
2382.511088341323
 21
406.3610361825479
 31
0.0
  0
LINE
  5
29B
330
A
100
AcDbEntity
  8
1
  6
Continuous
 62
     2
100
AcDbLine
 10
2382.511088341323
 20
400.3610361825479
 30
0.0
 11
2382.011088341323
 21
400.3610361825479
 31
0.0
  0
LINE
  5
29A
330
A
100
AcDbEntity
  8
1
  6
Continuous
 62
     2
100
AcDbLine
 10
2580.911088341321
 20
278.8610361825488
 30
0.0
 11
2580.911088341321
 21
303.8610361825487
 31
0.0
  0
LINE
  5
299
330
A
100
AcDbEntity
  8
1
  6
Continuous
 62
     2
100
AcDbLine
 10
2580.911088341321
 20
303.8610361825487
 30
0.0
 11
2591.911088341321
 21
303.8610361825487
 31
0.0
  0
LINE
  5
298
330
A
100
AcDbEntity
  8
1
  6
Continuous
 62
     2
100
AcDbLine
 10
2591.911088341321
 20
303.8610361825487
 30
0.0
 11
2591.911088341321
 21
278.8610361825488
 31
0.0
  0
LINE
  5
297
330
A
100
AcDbEntity
  8
1
  6
Continuous
 62
     2
100
AcDbLine
 10
2591.911088341321
 20
278.8610361825488
 30
0.0
 11
2580.911088341321
 21
278.8610361825488
 31
0.0
  0
LINE
  5
296
330
A
100
AcDbEntity
  8
1
  6
Continuous
 62
     2
100
AcDbLine
 10
2584.411088341321
 20
279.9975202127795
 30
0.0
 11
2584.411088341321
 21
302.7555270151288
 31
0.0
  0
LINE
  5
295
330
A
100
AcDbEntity
  8
1
  6
Continuous
 62
     2
100
AcDbLine
 10
2587.911088341321
 20
278.8610361825488
 30
0.0
 11
2587.911088341321
 21
303.8610361825487
 31
0.0
  0
LINE
  5
294
330
A
100
AcDbEntity
  8
1
  6
LONG_DASHED
 62
     2
100
AcDbLine
 10
2600.91108834132
 20
516.8610361825499
 30
0.0
 11
2600.91108834132
 21
288.8610361825471
 31
0.0
  0
LINE
  5
293
330
A
100
AcDbEntity
  8
1
  6
Continuous
 62
     2
100
AcDbLine
 10
2600.91108834132
 20
543.6610361825497
 30
0.0
 11
2509.911088341321
 21
543.6610361825497
 31
0.0
  0
LINE
  5
292
330
A
100
AcDbEntity
  8
1
  6
Continuous
 62
     2
100
AcDbLine
 10
2600.91108834132
 20
543.6610361825497
 30
0.0
 11
2600.91108834132
 21
543.8610361825497
 31
0.0
  0
LINE
  5
291
330
A
100
AcDbEntity
  8
1
  6
Continuous
 62
     2
100
AcDbLine
 10
2601.911088341321
 20
543.6610361825497
 30
0.0
 11
2601.911088341321
 21
543.8610361825497
 31
0.0
  0
LINE
  5
290
330
A
100
AcDbEntity
  8
1
  6
Continuous
 62
     2
100
AcDbLine
 10
2507.911088341321
 20
541.8610361825496
 30
0.0
 11
2508.11108834132
 21
541.8610361825496
 31
0.0
  0
LINE
  5
28F
330
A
100
AcDbEntity
  8
1
  6
Continuous
 62
     2
100
AcDbLine
 10
2507.911088341321
 20
541.8610361825496
 30
0.0
 11
2506.911088341321
 21
541.8610361825496
 31
0.0
  0
LINE
  5
28E
330
A
100
AcDbEntity
  8
1
  6
Continuous
 62
     2
100
AcDbLine
 10
2506.911088341321
 20
541.8610361825496
 30
0.0
 11
2502.911088341321
 21
541.8610361825496
 31
0.0
  0
LINE
  5
28D
330
A
100
AcDbEntity
  8
1
  6
Continuous
 62
     2
100
AcDbLine
 10
2601.911088341321
 20
263.1610361825487
 30
0.0
 11
2601.911088341321
 21
543.6610361825497
 31
0.0
  0
LINE
  5
28C
330
A
100
AcDbEntity
  8
1
  6
Continuous
 62
     2
100
AcDbLine
 10
2600.91108834132
 20
263.1610361825487
 30
0.0
 11
2600.91108834132
 21
288.8610361825471
 31
0.0
  0
LINE
  5
28B
330
A
100
AcDbEntity
  8
1
  6
Continuous
 62
     2
100
AcDbLine
 10
2600.91108834132
 20
514.3610361825499
 30
0.0
 11
2601.911088341321
 21
514.3610361825499
 31
0.0
  0
LINE
  5
28A
330
A
100
AcDbEntity
  8
1
  6
Continuous
 62
     2
100
AcDbLine
 10
2499.911088341321
 20
538.86103618255
 30
0.0
 11
2499.911088341321
 21
267.8610361825498
 31
0.0
  0
LINE
  5
289
330
A
100
AcDbEntity
  8
1
  6
Continuous
 62
     2
100
AcDbLine
 10
2502.911088341321
 20
264.8610361825498
 30
0.0
 11
2506.911088341321
 21
264.8610361825498
 31
0.0
  0
LINE
  5
288
330
A
100
AcDbEntity
  8
1
  6
Continuous
 62
     2
100
AcDbLine
 10
2506.911088341321
 20
264.8610361825498
 30
0.0
 11
2508.11108834132
 21
264.8610361825498
 31
0.0
  0
LINE
  5
287
330
A
100
AcDbEntity
  8
1
  6
Continuous
 62
     2
100
AcDbLine
 10
2600.91108834132
 20
516.8610361825499
 30
0.0
 11
2600.91108834132
 21
543.6610361825497
 31
0.0
  0
LINE
  5
286
330
A
100
AcDbEntity
  8
1
  6
Continuous
 62
     2
100
AcDbLine
 10
2601.911088341321
 20
262.8610361825498
 30
0.0
 11
2601.911088341321
 21
263.1610361825487
 31
0.0
  0
LINE
  5
285
330
A
100
AcDbEntity
  8
1
  6
Continuous
 62
     2
100
AcDbLine
 10
2506.911088341321
 20
264.8610361825498
 30
0.0
 11
2506.911088341321
 21
541.8610361825496
 31
0.0
  0
LINE
  5
284
330
A
100
AcDbEntity
  8
1
  6
Continuous
 62
     2
100
AcDbLine
 10
2601.911088341321
 20
288.8610361825471
 30
0.0
 11
2600.91108834132
 21
288.8610361825471
 31
0.0
  0
LINE
  5
283
330
A
100
AcDbEntity
  8
1
  6
Continuous
 62
     2
100
AcDbLine
 10
2600.91108834132
 20
262.8610361825498
 30
0.0
 11
2600.91108834132
 21
263.1610361825487
 31
0.0
  0
LINE
  5
282
330
A
100
AcDbEntity
  8
1
  6
Continuous
 62
     2
100
AcDbLine
 10
2600.91108834132
 20
261.8610361825498
 30
0.0
 11
2509.911088341321
 21
261.8610361825498
 31
0.0
  0
LINE
  5
281
330
A
100
AcDbEntity
  8
1
  6
Continuous
 62
     2
100
AcDbLine
 10
2600.91108834132
 20
544.8610361825497
 30
0.0
 11
2509.911088341321
 21
544.8610361825497
 31
0.0
  0
LINE
  5
280
330
A
100
AcDbEntity
  8
1
  6
Continuous
 62
     2
100
AcDbLine
 10
2509.911088341321
 20
543.8610361825497
 30
0.0
 11
2600.91108834132
 21
543.8610361825497
 31
0.0
  0
LINE
  5
27F
330
A
100
AcDbEntity
  8
1
  6
LONG_DASHED
 62
     2
100
AcDbLine
 10
2507.911088341321
 20
541.8610361825496
 30
0.0
 11
2507.911088341321
 21
264.8610361825499
 31
0.0
  0
LINE
  5
27E
330
A
100
AcDbEntity
  8
1
  6
Continuous
 62
     2
100
AcDbLine
 10
2509.911088341321
 20
263.0610361825497
 30
0.0
 11
2600.91108834132
 21
263.0610361825486
 31
0.0
  0
LINE
  5
27D
330
A
100
AcDbEntity
  8
1
  6
Continuous
 62
     2
100
AcDbLine
 10
2509.911088341321
 20
262.8610361825498
 30
0.0
 11
2600.91108834132
 21
262.8610361825498
 31
0.0
  0
LINE
  5
27C
330
A
100
AcDbEntity
  8
1
  6
Continuous
 62
     2
100
AcDbLine
 10
2602.911088341321
 20
543.3610361825536
 30
0.0
 11
2601.911088341321
 21
543.3610361825536
 31
0.0
  0
LINE
  5
27B
330
A
100
AcDbEntity
  8
1
  6
Continuous
 62
     2
100
AcDbLine
 10
2602.911088341321
 20
263.3610361825489
 30
0.0
 11
2601.911088341321
 21
263.3610361825489
 31
0.0
  0
LINE
  5
27A
330
A
100
AcDbEntity
  8
1
  6
Continuous
 62
     2
100
AcDbLine
 10
2602.911088341321
 20
543.3610361825536
 30
0.0
 11
2602.911088341321
 21
263.3610361825489
 31
0.0
  0
LINE
  5
279
330
A
100
AcDbEntity
  8
1
  6
DOT_CENTER
 62
     2
100
AcDbLine
 10
2598.285265842569
 20
283.861036182549
 30
0.0
 11
2616.172421617691
 21
283.861036182549
 31
0.0
  0
LINE
  5
278
330
A
100
AcDbEntity
  8
1
  6
DOT_CENTER
 62
     2
100
AcDbLine
 10
2597.685265842571
 20
522.8610361825481
 30
0.0
 11
2615.572421617691
 21
522.8610361825481
 31
0.0
  0
LINE
  5
277
330
A
100
AcDbEntity
  8
1
  6
Continuous
 62
     2
100
AcDbLine
 10
2343.199601264335
 20
124.2573571153827
 30
0.0
 11
2382.011088341323
 21
124.2573571153827
 31
0.0
  0
LINE
  5
276
330
A
100
AcDbEntity
  8
1
  6
Continuous
 62
     2
100
AcDbLine
 10
2020.711088341325
 20
220.2573571153828
 30
0.0
 11
2382.011088341323
 21
220.2573571153828
 31
0.0
  0
LINE
  5
275
330
A
100
AcDbEntity
  8
1
  6
Continuous
 62
     2
100
AcDbLine
 10
2020.711088341325
 20
217.2573571153828
 30
0.0
 11
2013.011088341325
 21
197.2573571153828
 31
0.0
  0
LINE
  5
274
330
A
100
AcDbEntity
  8
1
  6
Continuous
 62
     2
100
AcDbLine
 10
2020.711088341325
 20
217.2573571153828
 30
0.0
 11
2020.711088341325
 21
220.2573571153828
 31
0.0
  0
LINE
  5
273
330
A
100
AcDbEntity
  8
1
  6
Continuous
 62
     2
100
AcDbLine
 10
2382.011088341323
 20
124.2573571153827
 30
0.0
 11
2382.011088341323
 21
220.2573571153828
 31
0.0
  0
LINE
  5
272
330
A
100
AcDbEntity
  8
1
  6
Continuous
 62
     2
100
AcDbLine
 10
2013.011088341325
 20
124.2573571153827
 30
0.0
 11
2013.011088341325
 21
197.2573571153828
 31
0.0
  0
LINE
  5
271
330
A
100
AcDbEntity
  8
1
  6
Continuous
 62
     2
100
AcDbLine
 10
2018.711088341325
 20
227.2573571153827
 30
0.0
 11
2017.711088341325
 21
227.2573571153827
 31
0.0
  0
LINE
  5
270
330
A
100
AcDbEntity
  8
1
  6
Continuous
 62
     2
100
AcDbLine
 10
2018.711088341325
 20
227.2573571153827
 30
0.0
 11
2018.711088341325
 21
222.2573571153828
 31
0.0
  0
LINE
  5
26F
330
A
100
AcDbEntity
  8
1
  6
Continuous
 62
     2
100
AcDbLine
 10
2017.711088341325
 20
227.2573571153827
 30
0.0
 11
2017.711088341325
 21
222.2573571153828
 31
0.0
  0
LINE
  5
26E
330
A
100
AcDbEntity
  8
1
  6
Continuous
 62
     2
100
AcDbLine
 10
2013.011088341325
 20
124.2573571153827
 30
0.0
 11
2343.199601264335
 21
124.2573571153827
 31
0.0
  0
LINE
  5
26D
330
A
100
AcDbEntity
  8
1
  6
Continuous
 62
     2
100
AcDbLine
 10
2051.511088341324
 20
114.2573571153827
 30
0.0
 11
2067.511088341324
 21
114.2573571153827
 31
0.0
  0
LINE
  5
26C
330
A
100
AcDbEntity
  8
1
  6
Continuous
 62
     2
100
AcDbLine
 10
2287.511088341324
 20
123.2573571153827
 30
0.0
 11
2287.511088341324
 21
124.2573571153827
 31
0.0
  0
LINE
  5
26B
330
A
100
AcDbEntity
  8
1
  6
Continuous
 62
     2
100
AcDbLine
 10
2012.511088341324
 20
124.2573571153827
 30
0.0
 11
2013.011088341325
 21
124.2573571153827
 31
0.0
  0
LINE
  5
26A
330
A
100
AcDbEntity
  8
1
  6
Continuous
 62
     2
100
AcDbLine
 10
2353.011088341324
 20
123.2573571153827
 30
0.0
 11
2287.511088341324
 21
123.2573571153827
 31
0.0
  0
LINE
  5
269
330
A
100
AcDbEntity
  8
1
  6
Continuous
 62
     2
100
AcDbLine
 10
2011.511088341324
 20
124.2573571153827
 30
0.0
 11
2011.511088341324
 21
133.2573571153828
 31
0.0
  0
LINE
  5
268
330
A
100
AcDbEntity
  8
1
  6
Continuous
 62
     2
100
AcDbLine
 10
2012.511088341324
 20
127.2573571153828
 30
0.0
 11
2013.011088341325
 21
127.2573571153828
 31
0.0
  0
LINE
  5
267
330
A
100
AcDbEntity
  8
1
  6
Continuous
 62
     2
100
AcDbLine
 10
2012.511088341324
 20
133.2573571153828
 30
0.0
 11
2012.511088341324
 21
124.2573571153827
 31
0.0
  0
LINE
  5
266
330
A
100
AcDbEntity
  8
1
  6
Continuous
 62
     2
100
AcDbLine
 10
2048.511088341325
 20
123.2573571153827
 30
0.0
 11
2012.511088341324
 21
123.2573571153827
 31
0.0
  0
LINE
  5
265
330
A
100
AcDbEntity
  8
1
  6
Continuous
 62
     2
100
AcDbLine
 10
2287.511088341324
 20
123.2573571153827
 30
0.0
 11
2048.511088341325
 21
123.2573571153827
 31
0.0
  0
LINE
  5
264
330
A
100
AcDbEntity
  8
1
  6
Continuous
 62
     2
100
AcDbLine
 10
1892.511088341324
 20
544.8610361825448
 30
0.0
 11
1892.511088341324
 21
543.8610361825448
 31
0.0
  0
LINE
  5
263
330
A
100
AcDbEntity
  8
1
  6
Continuous
 62
     2
100
AcDbLine
 10
1872.511088341323
 20
543.8610361825448
 30
0.0
 11
1801.511088341323
 21
543.8610361825448
 31
0.0
  0
LINE
  5
262
330
A
100
AcDbEntity
  8
1
  6
Continuous
 62
     2
100
AcDbLine
 10
1872.511088341323
 20
544.8610361825448
 30
0.0
 11
1892.511088341324
 21
544.8610361825448
 31
0.0
  0
LINE
  5
261
330
A
100
AcDbEntity
  8
1
  6
Continuous
 62
     2
100
AcDbLine
 10
1872.511088341323
 20
544.8610361825448
 30
0.0
 11
1872.511088341323
 21
543.8610361825448
 31
0.0
  0
LINE
  5
260
330
A
100
AcDbEntity
  8
1
  6
Continuous
 62
     2
100
AcDbLine
 10
1872.511088341323
 20
261.8610361825498
 30
0.0
 11
1801.511088341323
 21
261.8610361825498
 31
0.0
  0
LINE
  5
25F
330
A
100
AcDbEntity
  8
1
  6
Continuous
 62
     2
100
AcDbLine
 10
1872.511088341323
 20
262.8610361825498
 30
0.0
 11
1801.511088341323
 21
262.8610361825498
 31
0.0
  0
LINE
  5
25E
330
A
100
AcDbEntity
  8
1
  6
Continuous
 62
     2
100
AcDbLine
 10
1872.511088341323
 20
262.8610361825498
 30
0.0
 11
1872.511088341323
 21
261.8610361825498
 31
0.0
  0
LINE
  5
25D
330
A
100
AcDbEntity
  8
1
  6
Continuous
 62
     2
100
AcDbLine
 10
1892.511088341324
 20
262.8610361825498
 30
0.0
 11
1892.511088341324
 21
261.8610361825498
 31
0.0
  0
LINE
  5
25C
330
A
100
AcDbEntity
  8
1
  6
Continuous
 62
     2
100
AcDbLine
 10
1894.511088341324
 20
541.8610361825447
 30
0.0
 11
1894.511088341324
 21
264.8610361825499
 31
0.0
  0
LINE
  5
25B
330
A
100
AcDbEntity
  8
1
  6
Continuous
 62
     2
100
AcDbLine
 10
1892.511088341324
 20
543.8610361825448
 30
0.0
 11
1872.511088341323
 21
543.8610361825448
 31
0.0
  0
LINE
  5
25A
330
A
100
AcDbEntity
  8
1
  6
Continuous
 62
     2
100
AcDbLine
 10
1892.511088341324
 20
262.8610361825498
 30
0.0
 11
1872.511088341323
 21
262.8610361825498
 31
0.0
  0
LINE
  5
259
330
A
100
AcDbEntity
  8
1
  6
Continuous
 62
     2
100
AcDbLine
 10
1899.511088341324
 20
264.8610361825498
 30
0.0
 11
1894.511088341324
 21
264.8610361825499
 31
0.0
  0
LINE
  5
258
330
A
100
AcDbEntity
  8
1
  6
Continuous
 62
     2
100
AcDbLine
 10
1894.511088341324
 20
541.8610361825447
 30
0.0
 11
1899.511088341324
 21
541.8610361825496
 31
0.0
  0
LINE
  5
257
330
A
100
AcDbEntity
  8
1
  6
Continuous
 62
     2
100
AcDbLine
 10
1902.511088341324
 20
538.8610361825478
 30
0.0
 11
1902.511088341324
 21
267.8610361825496
 31
0.0
  0
LINE
  5
256
330
A
100
AcDbEntity
  8
1
  6
Continuous
 62
     2
100
AcDbLine
 10
1800.511088341323
 20
262.8610361825498
 30
0.0
 11
1800.511088341323
 21
267.8610361825505
 31
0.0
  0
LINE
  5
255
330
A
100
AcDbEntity
  8
1
  6
Continuous
 62
     2
100
AcDbLine
 10
1801.511088341323
 20
544.8610361825448
 30
0.0
 11
1872.511088341323
 21
544.8610361825448
 31
0.0
  0
LINE
  5
254
330
A
100
AcDbEntity
  8
1
  6
Continuous
 62
     2
100
AcDbLine
 10
1892.511088341324
 20
261.8610361825498
 30
0.0
 11
1872.511088341323
 21
261.8610361825498
 31
0.0
  0
LINE
  5
253
330
A
100
AcDbEntity
  8
1
  6
DOT_CENTER
 62
     2
100
AcDbLine
 10
1851.011088341324
 20
400.8610361825479
 30
0.0
 11
1793.311088341324
 21
400.8610361825479
 31
0.0
  0
LINE
  5
252
330
A
100
AcDbEntity
  8
1
  6
Continuous
 62
     2
100
AcDbLine
 10
1801.511088341323
 20
267.8610361825496
 30
0.0
 11
1801.511088341323
 21
262.8610361825498
 31
0.0
  0
LINE
  5
251
330
A
100
AcDbEntity
  8
1
  6
Continuous
 62
     2
100
AcDbLine
 10
1800.511088341323
 20
533.8610361825414
 30
0.0
 11
1800.511088341323
 21
543.8610361825448
 31
0.0
  0
LINE
  5
250
330
A
100
AcDbEntity
  8
1
  6
Continuous
 62
     2
100
AcDbLine
 10
1801.511088341323
 20
533.8610361825414
 30
0.0
 11
1801.511088341323
 21
543.8610361825448
 31
0.0
  0
LINE
  5
24F
330
A
100
AcDbEntity
  8
1
  6
DASHED
 62
     2
100
AcDbLine
 10
1895.511088341324
 20
541.8610361825447
 30
0.0
 11
1895.511088341324
 21
264.8610361825499
 31
0.0
  0
LINE
  5
24E
330
A
100
AcDbEntity
  8
1
  6
Continuous
 62
     2
100
AcDbLine
 10
1810.511088341323
 20
533.8610361825515
 30
0.0
 11
1810.511088341323
 21
267.8610361825437
 31
0.0
  0
LINE
  5
24D
330
A
100
AcDbEntity
  8
1
  6
Continuous
 62
     2
100
AcDbLine
 10
1810.511088341323
 20
533.8610361825515
 30
0.0
 11
1799.511088341323
 21
533.8610361825523
 31
0.0
  0
LINE
  5
24C
330
A
100
AcDbEntity
  8
1
  6
Continuous
 62
     2
100
AcDbLine
 10
1810.511088341323
 20
267.8610361825437
 30
0.0
 11
1799.511088341323
 21
267.8610361825479
 31
0.0
  0
LINE
  5
24B
330
A
100
AcDbEntity
  8
1
  6
Continuous
 62
     2
100
AcDbLine
 10
1799.511088341323
 20
267.8610361825479
 30
0.0
 11
1799.511088341323
 21
533.8610361825523
 31
0.0
  0
LINE
  5
24A
330
A
100
AcDbEntity
  8
1
  6
DOT_CENTER
 62
     2
100
AcDbLine
 10
1786.917746204933
 20
283.8610361825483
 30
0.0
 11
1804.804901980053
 21
283.8610361825483
 31
0.0
  0
LINE
  5
249
330
A
100
AcDbEntity
  8
1
  6
DOT_CENTER
 62
     2
100
AcDbLine
 10
1786.917746204933
 20
522.8610361825489
 30
0.0
 11
1804.804901980053
 21
522.8610361825489
 31
0.0
  0
LINE
  5
248
330
A
100
AcDbEntity
  8
1
  6
Continuous
 62
     2
100
AcDbLine
 10
1857.507308543121
 20
512.3610361825479
 30
0.0
 11
1857.507308543121
 21
511.3610361825479
 31
0.0
  0
LINE
  5
247
330
A
100
AcDbEntity
  8
1
  6
Continuous
 62
     2
100
AcDbLine
 10
1857.507308543121
 20
289.3610361825483
 30
0.0
 11
1810.511088341323
 21
289.3610361825483
 31
0.0
  0
LINE
  5
246
330
A
100
AcDbEntity
  8
1
  6
Continuous
 62
     2
100
AcDbLine
 10
1855.507308543121
 20
290.3610361825483
 30
0.0
 11
1810.511088341323
 21
290.3610361825483
 31
0.0
  0
LINE
  5
245
330
A
100
AcDbEntity
  8
1
  6
Continuous
 62
     2
100
AcDbLine
 10
1857.507308543121
 20
292.3610361825483
 30
0.0
 11
1857.507308543121
 21
509.3610361825479
 31
0.0
  0
LINE
  5
244
330
A
100
AcDbEntity
  8
1
  6
Continuous
 62
     2
100
AcDbLine
 10
1831.511088341323
 20
413.3610361825479
 30
0.0
 11
1810.511088341323
 21
413.3610361825479
 31
0.0
  0
LINE
  5
243
330
A
100
AcDbEntity
  8
1
  6
Continuous
 62
     2
100
AcDbLine
 10
1831.511088341323
 20
388.3610361825479
 30
0.0
 11
1810.511088341323
 21
388.3610361825479
 31
0.0
  0
LINE
  5
242
330
A
100
AcDbEntity
  8
1
  6
Continuous
 62
     2
100
AcDbLine
 10
1857.507308543121
 20
290.3610361825483
 30
0.0
 11
1855.507308543121
 21
290.3610361825483
 31
0.0
  0
LINE
  5
241
330
A
100
AcDbEntity
  8
1
  6
Continuous
 62
     2
100
AcDbLine
 10
1857.507308543121
 20
289.3610361825483
 30
0.0
 11
1857.507308543121
 21
290.3610361825483
 31
0.0
  0
LINE
  5
240
330
A
100
AcDbEntity
  8
1
  6
Continuous
 62
     2
100
AcDbLine
 10
1855.507308543121
 20
511.3610361825479
 30
0.0
 11
1857.507308543121
 21
511.3610361825479
 31
0.0
  0
LINE
  5
23F
330
A
100
AcDbEntity
  8
1
  6
Continuous
 62
     2
100
AcDbLine
 10
1810.511088341323
 20
512.3610361825479
 30
0.0
 11
1857.507308543121
 21
512.3610361825479
 31
0.0
  0
LINE
  5
23E
330
A
100
AcDbEntity
  8
1
  6
Continuous
 62
     2
100
AcDbLine
 10
1810.511088341323
 20
511.3610361825479
 30
0.0
 11
1855.507308543121
 21
511.3610361825479
 31
0.0
  0
LINE
  5
23D
330
A
100
AcDbEntity
  8
1
  6
DASH_CENTER
 62
     4
100
AcDbLine
 10
2006.298322520552
 20
403.3610361825479
 30
0.0
 11
2392.211088341323
 21
403.3610361825479
 31
0.0
  0
LINE
  5
23C
330
A
100
AcDbEntity
  8
1
  6
Continuous
 62
     2
100
AcDbLine
 10
2017.711088341325
 20
288.8610361825454
 30
0.0
 11
2013.511088341325
 21
288.8610361825454
 31
0.0
  0
LINE
  5
23B
330
A
100
AcDbEntity
  8
1
  6
Continuous
 62
     2
100
AcDbLine
 10
2017.711088341325
 20
514.3610361825499
 30
0.0
 11
2013.511088341325
 21
514.3610361825499
 31
0.0
  0
LINE
  5
23A
330
A
100
AcDbEntity
  8
1
  6
Continuous
 62
     2
100
AcDbLine
 10
2382.011088341323
 20
261.8610361825489
 30
0.0
 11
2382.011088341323
 21
544.8610361825497
 31
0.0
  0
LINE
  5
239
330
A
100
AcDbEntity
  8
1
  6
Continuous
 62
     2
100
AcDbLine
 10
2382.011088341323
 20
261.8610361825489
 30
0.0
 11
2013.011088341325
 21
261.8610361825497
 31
0.0
  0
LINE
  5
238
330
A
100
AcDbEntity
  8
1
  6
Continuous
 62
     2
100
AcDbLine
 10
2382.011088341323
 20
544.8610361825497
 30
0.0
 11
2013.011088341325
 21
544.8610361825496
 31
0.0
  0
LINE
  5
237
330
A
100
AcDbEntity
  8
1
  6
Continuous
 62
     2
100
AcDbLine
 10
2018.511088341325
 20
264.8610361825496
 30
0.0
 11
2018.511088341325
 21
541.8610361825495
 31
0.0
  0
LINE
  5
236
330
A
100
AcDbEntity
  8
1
  6
Continuous
 62
     2
100
AcDbLine
 10
2017.711088341325
 20
541.8610361825495
 30
0.0
 11
2017.711088341325
 21
264.8610361825498
 31
0.0
  0
LINE
  5
235
330
A
100
AcDbEntity
  8
1
  6
Continuous
 62
     2
100
AcDbLine
 10
2011.511088341325
 20
267.8610361825437
 30
0.0
 11
2011.511088341325
 21
533.8610361825515
 31
0.0
  0
LINE
  5
234
330
A
100
AcDbEntity
  8
1
  6
Continuous
 62
     2
100
AcDbLine
 10
2011.511088341325
 20
533.8610361825515
 30
0.0
 11
2013.511088341325
 21
533.8610361825515
 31
0.0
  0
LINE
  5
233
330
A
100
AcDbEntity
  8
1
  6
Continuous
 62
     2
100
AcDbLine
 10
2011.511088341325
 20
267.8610361825437
 30
0.0
 11
2013.511088341325
 21
267.8610361825437
 31
0.0
  0
LINE
  5
232
330
A
100
AcDbEntity
  8
1
  6
Continuous
 62
     2
100
AcDbLine
 10
2013.511088341325
 20
267.8610361825437
 30
0.0
 11
2013.511088341325
 21
533.8610361825515
 31
0.0
  0
LINE
  5
231
330
A
100
AcDbEntity
  8
1
  6
Continuous
 62
     2
100
AcDbLine
 10
2014.511088341325
 20
289.3610361825483
 30
0.0
 11
2014.511088341326
 21
290.3610361825483
 31
0.0
  0
LINE
  5
230
330
A
100
AcDbEntity
  8
1
  6
Continuous
 62
     2
100
AcDbLine
 10
2014.511088341325
 20
413.3610361825479
 30
0.0
 11
2017.711088341325
 21
413.3610361825479
 31
0.0
  0
LINE
  5
22F
330
A
100
AcDbEntity
  8
1
  6
Continuous
 62
     2
100
AcDbLine
 10
2014.511088341326
 20
290.3610361825483
 30
0.0
 11
2014.511088341325
 21
512.3610361825479
 31
0.0
  0
LINE
  5
22E
330
A
100
AcDbEntity
  8
1
  6
Continuous
 62
     2
100
AcDbLine
 10
2013.511088341326
 20
290.3610361825483
 30
0.0
 11
2014.511088341326
 21
290.3610361825483
 31
0.0
  0
LINE
  5
22D
330
A
100
AcDbEntity
  8
1
  6
Continuous
 62
     2
100
AcDbLine
 10
2014.511088341325
 20
289.3610361825483
 30
0.0
 11
2017.711088341325
 21
289.3610361825483
 31
0.0
  0
LINE
  5
22C
330
A
100
AcDbEntity
  8
1
  6
Continuous
 62
     2
100
AcDbLine
 10
2013.511088341326
 20
511.3610361825479
 30
0.0
 11
2017.711088341325
 21
511.3610361825479
 31
0.0
  0
LINE
  5
22B
330
A
100
AcDbEntity
  8
1
  6
Continuous
 62
     2
100
AcDbLine
 10
2014.511088341326
 20
290.3610361825483
 30
0.0
 11
2017.711088341325
 21
290.3610361825483
 31
0.0
  0
LINE
  5
22A
330
A
100
AcDbEntity
  8
1
  6
Continuous
 62
     2
100
AcDbLine
 10
2017.711088341325
 20
512.3610361825479
 30
0.0
 11
2014.511088341325
 21
512.3610361825479
 31
0.0
  0
LINE
  5
229
330
A
100
AcDbEntity
  8
1
  6
Continuous
 62
     2
100
AcDbLine
 10
2017.711088341325
 20
388.3610361825479
 30
0.0
 11
2014.511088341325
 21
388.3610361825479
 31
0.0
  0
LINE
  5
228
330
A
100
AcDbEntity
  8
1
  6
DOT_CENTER
 62
     2
100
AcDbLine
 10
2341.511088341324
 20
129.6285526052133
 30
0.0
 11
2341.511088341324
 21
110.0311291596821
 31
0.0
  0
LINE
  5
227
330
A
100
AcDbEntity
  8
1
  6
DOT_CENTER
 62
     2
100
AcDbLine
 10
2059.511088341324
 20
129.6285526052133
 30
0.0
 11
2059.511088341324
 21
110.0311291596821
 31
0.0
  0
LINE
  5
226
330
A
100
AcDbEntity
  8
1
  6
Continuous
 62
     2
100
AcDbLine
 10
2536.673651474244
 20
402.1235993154713
 30
0.0
 11
2539.148525208398
 21
404.5984730496242
 31
0.0
  0
LINE
  5
225
330
A
100
AcDbEntity
  8
1
  6
Continuous
 62
     2
100
AcDbLine
 10
2539.148525208398
 20
402.1235993154713
 30
0.0
 11
2536.673651474244
 21
404.5984730496242
 31
0.0
  0
LINE
  5
224
330
A
100
AcDbEntity
  8
1
  6
DOT_CENTER
 62
     4
100
AcDbLine
 10
2324.823588341325
 20
285.8610361825471
 30
0.0
 11
2318.198588341325
 21
285.8610361825471
 31
0.0
  0
LINE
  5
223
330
A
100
AcDbEntity
  8
1
  6
DOT_CENTER
 62
     4
100
AcDbLine
 10
2321.511088341325
 20
289.1735361825471
 30
0.0
 11
2321.511088341325
 21
282.5485361825471
 31
0.0
  0
LINE
  5
222
330
A
100
AcDbEntity
  8
1
  6
DOT_CENTER
 62
     4
100
AcDbLine
 10
2366.823588341325
 20
288.8610361827239
 30
0.0
 11
2360.198588341325
 21
288.8610361827239
 31
0.0
  0
LINE
  5
221
330
A
100
AcDbEntity
  8
1
  6
DOT_CENTER
 62
     4
100
AcDbLine
 10
2363.511088341325
 20
292.1735361827239
 30
0.0
 11
2363.511088341325
 21
285.5485361827239
 31
0.0
  0
LINE
  5
220
330
A
100
AcDbEntity
  8
1
  6
DOT_CENTER
 62
     4
100
AcDbLine
 10
2082.823588341325
 20
285.8610361825471
 30
0.0
 11
2076.198588341325
 21
285.8610361825471
 31
0.0
  0
LINE
  5
21F
330
A
100
AcDbEntity
  8
1
  6
DOT_CENTER
 62
     4
100
AcDbLine
 10
2079.511088341325
 20
289.1735361825471
 30
0.0
 11
2079.511088341325
 21
282.5485361825471
 31
0.0
  0
LINE
  5
21E
330
A
100
AcDbEntity
  8
1
  6
DOT_CENTER
 62
     4
100
AcDbLine
 10
2041.323588341324
 20
288.8610361825471
 30
0.0
 11
2034.698588341324
 21
288.8610361825471
 31
0.0
  0
LINE
  5
21D
330
A
100
AcDbEntity
  8
1
  6
DOT_CENTER
 62
     4
100
AcDbLine
 10
2038.011088341324
 20
292.1735361825471
 30
0.0
 11
2038.011088341324
 21
285.5485361825471
 31
0.0
  0
LINE
  5
21C
330
A
100
AcDbEntity
  8
1
  6
DOT_CENTER
 62
     4
100
AcDbLine
 10
2082.823588341325
 20
520.8610361824757
 30
0.0
 11
2076.198588341325
 21
520.8610361824757
 31
0.0
  0
LINE
  5
21B
330
A
100
AcDbEntity
  8
1
  6
DOT_CENTER
 62
     4
100
AcDbLine
 10
2079.511088341325
 20
524.1735361824757
 30
0.0
 11
2079.511088341325
 21
517.5485361824756
 31
0.0
  0
LINE
  5
21A
330
A
100
AcDbEntity
  8
1
  6
DOT_CENTER
 62
     4
100
AcDbLine
 10
2041.323588341324
 20
517.8610361825497
 30
0.0
 11
2034.698588341324
 21
517.8610361825497
 31
0.0
  0
LINE
  5
219
330
A
100
AcDbEntity
  8
1
  6
DOT_CENTER
 62
     4
100
AcDbLine
 10
2038.011088341324
 20
521.1735361825496
 30
0.0
 11
2038.011088341324
 21
514.5485361825497
 31
0.0
  0
LINE
  5
218
330
A
100
AcDbEntity
  8
1
  6
DOT_CENTER
 62
     4
100
AcDbLine
 10
2324.823588341325
 20
520.8610361824757
 30
0.0
 11
2318.198588341325
 21
520.8610361824757
 31
0.0
  0
LINE
  5
217
330
A
100
AcDbEntity
  8
1
  6
DOT_CENTER
 62
     4
100
AcDbLine
 10
2321.511088341325
 20
524.1735361824757
 30
0.0
 11
2321.511088341325
 21
517.5485361824756
 31
0.0
  0
LINE
  5
216
330
A
100
AcDbEntity
  8
1
  6
DOT_CENTER
 62
     4
100
AcDbLine
 10
2366.823588341325
 20
517.8610361825487
 30
0.0
 11
2360.198588341325
 21
517.8610361825487
 31
0.0
  0
LINE
  5
215
330
A
100
AcDbEntity
  8
1
  6
DOT_CENTER
 62
     4
100
AcDbLine
 10
2363.511088341325
 20
521.1735361825487
 30
0.0
 11
2363.511088341325
 21
514.5485361825487
 31
0.0
  0
INSERT
  5
3F
330
A
100
AcDbEntity
  8
0
100
AcDbBlockReference
  2
38316-8003-0000
 10
3005.307745175124
 20
820.6457800192692
 30
0.0
  0
DIMENSION
  5
52B
330
A
100
AcDbEntity
  8
0
  6
Continuous
100
AcDbDimension
  2
*D22
 10
2410.594206031669
 20
220.2573571153828
 30
0.0
 11
2405.469206031668
 21
172.2573571153831
 31
0.0
 70
    32
 71
     5
 42
96.00000000000012
  3
ME10_DIM_6
100
AcDbAlignedDimension
 13
2382.011088341323
 23
124.2573571153827
 33
0.0
 14
2381.011088341323
 24
220.2573571153828
 34
0.0
 50
90.0
100
AcDbRotatedDimension
  0
DIMENSION
  5
54E
330
A
100
AcDbEntity
  8
0
  6
Continuous
100
AcDbDimension
  2
*D23
 10
2382.011088341323
 20
579.2799915966056
 30
0.0
 11
2196.761088341324
 21
584.4049915966056
 31
0.0
 70
    32
 71
     5
 42
370.4999999999984
  3
ME10_DIM_1
100
AcDbAlignedDimension
 13
2011.511088341325
 23
533.8610361825515
 33
0.0
 14
2382.011088341323
 24
544.8610361825497
 34
0.0
100
AcDbRotatedDimension
1001
ACAD
1000
DSTYLE
1002
{
1070
   147
1040
0.625
1070
    72
1070
     0
1070
    71
1070
     0
1002
}
  0
DIMENSION
  5
56D
330
A
100
AcDbEntity
  8
0
  6
Continuous
100
AcDbDimension
  2
*D24
 10
1973.598389897296
 20
123.2573571153827
 30
0.0
 11
1968.473389897296
 21
171.757357115383
 31
0.0
 70
    32
 71
     5
 42
97.00000000000002
  3
ME10_DIM_9
100
AcDbAlignedDimension
 13
2018.475020363825
 23
220.2573571153827
 33
0.0
 14
2012.511088341324
 24
123.2573571153827
 34
0.0
 50
90.0
100
AcDbRotatedDimension
1001
ACAD
1000
DSTYLE
1002
{
1070
   147
1040
0.625
1070
    72
1070
     0
1070
    71
1070
     0
1002
}
  0
VIEWPORT
  5
4F2
102
{ACAD_XDICTIONARY
360
59D
102
}
330
B
100
AcDbEntity
 67
     1
  8
0
  6
Continuous
100
AcDbViewport
 10
142.6315765380859
 20
99.1340856552124
 30
0.0
 40
409.8466946773461
 41
222.1965796813965
 68
     1
 69
     1
 12
142.6315765380859
 22
99.1340856552124
 13
0.0
 23
0.0
 14
10.0
 24
10.0
 15
10.0
 25
10.0
 16
0.0
 26
0.0
 36
1.0
 17
0.0
 27
0.0
 37
0.0
 42
50.0
 43
0.0
 44
0.0
 45
222.1965796813965
 50
0.0
 51
0.0
 72
   100
 90
   557088
  1

281
     0
 71
     1
 74
     0
110
0.0
120
0.0
130
0.0
111
1.0
121
0.0
131
0.0
112
0.0
122
1.0
132
0.0
 79
     0
146
0.0
  0
VIEWPORT
  5
4F5
102
{ACAD_XDICTIONARY
360
59F
102
}
330
B
100
AcDbEntity
 67
     1
  8
0
  6
Continuous
100
AcDbViewport
 10
142.5892491340637
 20
99.11291456222535
 30
0.0
 40
228.142798614502
 41
158.5806632995605
 68
     2
 69
     2
 12
2245.562480596273
 22
389.9599426908717
 13
0.0
 23
0.0
 14
10.0
 24
10.0
 15
10.0
 25
10.0
 16
0.0
 26
0.0
 36
1.0
 17
0.0
 27
0.0
 37
0.0
 42
50.0
 43
0.0
 44
0.0
 45
929.7109309090913
 50
0.0
 51
0.0
 72
   100
 90
   557088
  1

281
     0
 71
     1
 74
     0
110
0.0
120
0.0
130
0.0
111
1.0
121
0.0
131
0.0
112
0.0
122
1.0
132
0.0
 79
     0
146
0.0
  0
ENDSEC
  0
SECTION
  2
OBJECTS
  0
DICTIONARY
  5
19
330
0
100
AcDbDictionary
281
     1
  3
ACAD_COLOR
350
4E7
  3
ACAD_GROUP
350
1A
  3
ACAD_LAYOUT
350
4EC
  3
ACAD_MATERIAL
350
4D2
  3
ACAD_MLINESTYLE
350
1B
  3
ACAD_PLOTSETTINGS
350
4EB
  3
ACAD_PLOTSTYLENAME
350
4D0
  3
ACAD_TABLESTYLE
350
4E8
  3
ACAD_VISUALSTYLE
350
4D6
  3
AcDbVariableDictionary
350
58C
  3
DWGPROPS
350
591
  0
DICTIONARY
  5
4F9
330
2
100
AcDbDictionary
280
     1
281
     1
  3
ACAD_LAYERSTATES
360
4FA
  0
DICTIONARY
  5
59D
330
4F2
100
AcDbDictionary
280
     1
281
     1
  3
ACAD_XREC_ROUNDTRIP
360
59E
  0
DICTIONARY
  5
59F
330
4F5
100
AcDbDictionary
280
     1
281
     1
  3
ACAD_XREC_ROUNDTRIP
360
5A0
  0
DICTIONARY
  5
4E7
102
{ACAD_REACTORS
330
19
102
}
330
19
100
AcDbDictionary
281
     1
  0
DICTIONARY
  5
1A
102
{ACAD_REACTORS
330
19
102
}
330
19
100
AcDbDictionary
281
     1
  0
DICTIONARY
  5
4EC
102
{ACAD_REACTORS
330
19
102
}
330
19
100
AcDbDictionary
281
     1
  3
Model
350
4ED
  3
レイアウト1
350
4EE
  0
DICTIONARY
  5
4D2
102
{ACAD_REACTORS
330
19
102
}
330
19
100
AcDbDictionary
281
     1
  3
ByBlock
350
4D4
  3
ByLayer
350
4D3
  3
Global
350
4D5
  0
DICTIONARY
  5
1B
102
{ACAD_REACTORS
330
19
102
}
330
19
100
AcDbDictionary
281
     1
  3
STANDARD
350
1C
  0
DICTIONARY
  5
4EB
102
{ACAD_REACTORS
330
19
102
}
330
19
100
AcDbDictionary
281
     1
  0
ACDBDICTIONARYWDFLT
  5
4D0
102
{ACAD_REACTORS
330
19
102
}
330
19
100
AcDbDictionary
281
     1
  3
Normal
350
4D1
100
AcDbDictionaryWithDefault
340
4D1
  0
DICTIONARY
  5
4E8
102
{ACAD_REACTORS
330
19
102
}
330
19
100
AcDbDictionary
281
     1
  3
Standard
350
4E9
  0
DICTIONARY
  5
4D6
102
{ACAD_REACTORS
330
19
102
}
330
19
100
AcDbDictionary
281
     1
  3
2dWireframe
350
4DC
  3
3D Hidden
350
4DE
  3
3dWireframe
350
4DD
  3
Basic
350
4DB
  3
Brighten
350
4E2
  3
ColorChange
350
4E6
  3
Conceptual
350
4DF
  3
Dim
350
4E1
  3
Facepattern
350
4E5
  3
Flat
350
4D7
  3
FlatWithEdges
350
4D8
  3
Gouraud
350
4D9
  3
GouraudWithEdges
350
4DA
  3
Linepattern
350
4E4
  3
Realistic
350
4E0
  3
Thicken
350
4E3
  0
DICTIONARY
  5
58C
102
{ACAD_REACTORS
330
19
102
}
330
19
100
AcDbDictionary
281
     1
  3
CTABLESTYLE
350
58D
  3
DIMASSOC
350
590
  3
INDEXCTL
350
58F
  3
SORTENTS
350
58E
  0
XRECORD
  5
591
102
{ACAD_REACTORS
330
19
102
}
330
19
100
AcDbXrecord
280
     1
  1
DWGPROPS COOKIE
  2

  3

  4

  6

  7

  8
TAKEO-1213
  9

300
=
301
=
302
=
303
=
304
=
305
=
306
=
307
=
308
=
309
=
 40
0.0070103009259259
 41
2314168.288031782
 42
2459524.624561169
  1

 90
        0
  0
DICTIONARY
  5
4FA
102
{ACAD_REACTORS
330
4F9
102
}
330
4F9
100
AcDbDictionary
281
     1
  0
XRECORD
  5
59E
102
{ACAD_REACTORS
330
59D
102
}
330
59D
100
AcDbXrecord
280
     1
102
SHADEPLOT
 70
     0
  0
XRECORD
  5
5A0
102
{ACAD_REACTORS
330
59F
102
}
330
59F
100
AcDbXrecord
280
     1
102
SHADEPLOT
 70
     0
  0
LAYOUT
  5
4ED
102
{ACAD_XDICTIONARY
360
59A
102
}
102
{ACAD_REACTORS
330
4EC
102
}
330
4EC
100
AcDbPlotSettings
  1

  2
ADJ-DV10-Q01
  4

  6

 40
0.0
 41
0.0
 42
0.0
 43
0.0
 44
0.0
 45
0.0
 46
0.0
 47
0.0
 48
0.0
 49
0.0
140
0.0
141
0.0
142
1.0
143
1.0
 70
  1712
 72
     0
 73
     0
 74
     0
  7

 75
     0
147
1.0
148
0.0
149
0.0
100
AcDbLayout
  1
Model
 70
     1
 71
     0
 10
0.0
 20
0.0
 11
12.0
 21
9.0
 12
0.0
 22
0.0
 32
0.0
 14
0.0
 24
0.0
 34
0.0
 15
0.0
 25
0.0
 35
0.0
146
0.0
 13
0.0
 23
0.0
 33
0.0
 16
1.0
 26
0.0
 36
0.0
 17
0.0
 27
1.0
 37
0.0
 76
     0
330
A
331
15
  0
LAYOUT
  5
4EE
102
{ACAD_XDICTIONARY
360
4FC
102
}
102
{ACAD_REACTORS
330
4EC
102
}
330
4EC
100
AcDbPlotSettings
  1

  2
ADJ-DV10-Q01
  4
A4
  6

 40
5.873749732971191
 41
5.958403587341308
 42
5.916091918945312
 43
5.873748779296875
 44
210.0156707763672
 45
297.0106506347656
 46
0.0
 47
0.0
 48
0.0
 49
0.0
140
0.0
141
0.0
142
1.0
143
1.0
 70
   688
 72
     1
 73
     1
 74
     5
  7

 75
    16
147
1.0
148
0.0
149
0.0
100
AcDbLayout
  1
レイアウト1
 70
     0
 71
     1
 10
-5.873748779296875
 20
-5.873749732971191
 11
291.1369018554688
 21
204.141921043396
 12
0.0
 22
0.0
 32
0.0
 14
28.51784982681273
 24
19.82258291244505
 34
0.0
 15
256.6606484413147
 25
178.4032462120056
 35
0.0
146
0.0
 13
0.0
 23
0.0
 33
0.0
 16
1.0
 26
0.0
 36
0.0
 17
0.0
 27
1.0
 37
0.0
 76
     0
330
B
331
4F2
1001
ACAD_PSEXT
1000
ADJ-DV10-Q01
1000
RICOH RPCS V4 MP C4503 JPN
1000
http://172.16.140.81:53000
1000

1070
     0
  0
MATERIAL
  5
4D4
102
{ACAD_XDICTIONARY
360
594
102
}
102
{ACAD_REACTORS
330
4D2
102
}
330
4D2
100
AcDbMaterial
  1
ByBlock
  0
MATERIAL
  5
4D3
102
{ACAD_XDICTIONARY
360
592
102
}
102
{ACAD_REACTORS
330
4D2
102
}
330
4D2
100
AcDbMaterial
  1
ByLayer
  0
MATERIAL
  5
4D5
102
{ACAD_XDICTIONARY
360
596
102
}
102
{ACAD_REACTORS
330
4D2
102
}
330
4D2
100
AcDbMaterial
  1
Global
  0
MLINESTYLE
  5
1C
102
{ACAD_REACTORS
330
1B
102
}
330
1B
100
AcDbMlineStyle
  2
STANDARD
 70
     0
  3

 62
     0
 51
90.0
 52
90.0
 71
     2
 49
0.5
 62
   256
  6
BYLAYER
 49
-0.5
 62
   256
  6
BYLAYER
  0
ACDBPLACEHOLDER
  5
4D1
102
{ACAD_REACTORS
330
4D0
102
}
330
4D0
  0
TABLESTYLE
  5
4E9
102
{ACAD_XDICTIONARY
360
598
102
}
102
{ACAD_REACTORS
330
4E8
102
}
330
4E8
100
AcDbTableStyle
  3
Standard
 70
     0
 71
     0
 40
1.5
 41
1.5
280
     0
281
     0
  7
STANDARD
140
4.5
170
     2
 62
     0
 63
     7
283
     0
274
    -2
284
     1
 64
     0
275
    -2
285
     1
 65
     0
276
    -2
286
     1
 66
     0
277
    -2
287
     1
 67
     0
278
    -2
288
     1
 68
     0
279
    -2
289
     1
 69
     0
  7
STANDARD
140
6.0
170
     5
 62
     0
 63
     7
283
     0
274
    -2
284
     1
 64
     0
275
    -2
285
     1
 65
     0
276
    -2
286
     1
 66
     0
277
    -2
287
     1
 67
     0
278
    -2
288
     1
 68
     0
279
    -2
289
     1
 69
     0
  7
STANDARD
140
4.5
170
     5
 62
     0
 63
     7
283
     0
274
    -2
284
     1
 64
     0
275
    -2
285
     1
 65
     0
276
    -2
286
     1
 66
     0
277
    -2
287
     1
 67
     0
278
    -2
288
     1
 68
     0
279
    -2
289
     1
 69
     0
  0
VISUALSTYLE
  5
4DC
102
{ACAD_REACTORS
330
4D6
102
}
330
4D6
100
AcDbVisualStyle
  2
2dWireframe
 70
     4
 71
     0
 72
     2
 73
     0
 90
        0
 40
-0.6
 41
-30.0
 62
     5
 63
     7
 74
     1
 91
        4
 64
     7
 65
   257
 75
     1
175
     1
 42
1.0
 92
        0
 66
   257
 43
1.0
 76
     1
 77
     6
 78
     2
 67
     7
 79
     5
170
     0
171
     0
290
     0
174
     0
 93
        1
 44
0.0
173
     0
291
     0
 45
0.0
1001
ACAD
1000
AcDbSavedByObjectVersion
1070
     0
  0
VISUALSTYLE
  5
4DE
102
{ACAD_REACTORS
330
4D6
102
}
330
4D6
100
AcDbVisualStyle
  2
3D Hidden
 70
     6
 71
     1
 72
     2
 73
     2
 90
        0
 40
-0.6
 41
-30.0
 62
     5
 63
     7
 74
     2
 91
        2
 64
     7
 65
   257
 75
     2
175
     1
 42
40.0
 92
        0
 66
   257
 43
1.0
 76
     1
 77
     6
 78
     2
 67
     7
 79
     3
170
     0
171
     0
290
     0
174
     0
 93
        1
 44
0.0
173
     0
291
     0
 45
0.0
1001
ACAD
1000
AcDbSavedByObjectVersion
1070
     0
  0
VISUALSTYLE
  5
4DD
102
{ACAD_REACTORS
330
4D6
102
}
330
4D6
100
AcDbVisualStyle
  2
3dWireframe
 70
     5
 71
     0
 72
     2
 73
     0
 90
        0
 40
-0.6
 41
-30.0
 62
     5
 63
     7
 74
     1
 91
        4
 64
     7
 65
   257
 75
     1
175
     1
 42
1.0
 92
        0
 66
   257
 43
1.0
 76
     1
 77
     6
 78
     2
 67
     7
 79
     5
170
     0
171
     0
290
     0
174
     0
 93
        1
 44
0.0
173
     0
291
     0
 45
0.0
1001
ACAD
1000
AcDbSavedByObjectVersion
1070
     0
  0
VISUALSTYLE
  5
4DB
102
{ACAD_REACTORS
330
4D6
102
}
330
4D6
100
AcDbVisualStyle
  2
Basic
 70
     7
 71
     1
 72
     0
 73
     1
 90
        0
 40
-0.6
 41
-30.0
 62
     5
 63
     7
 74
     0
 91
        4
 64
     7
 65
   257
 75
     1
175
     1
 42
1.0
 92
        8
 66
     7
 43
1.0
 76
     1
 77
     6
 78
     2
 67
     7
 79
     5
170
     0
171
     0
290
     0
174
     0
 93
        1
 44
0.0
173
     0
291
     1
 45
0.0
1001
ACAD
1000
AcDbSavedByObjectVersion
1070
     0
  0
VISUALSTYLE
  5
4E2
102
{ACAD_REACTORS
330
4D6
102
}
330
4D6
100
AcDbVisualStyle
  2
Brighten
 70
    12
 71
     2
 72
     2
 73
     0
 90
        0
 40
-0.6
 41
-30.0
 62
     5
 63
     7
 74
     1
 91
        4
 64
     7
 65
   257
 75
     1
175
     1
 42
1.0
 92
        8
 66
     7
 43
1.0
 76
     1
 77
     6
 78
     2
 67
     7
 79
     5
170
     0
171
     0
290
     0
174
     0
 93
        1
 44
50.0
173
     0
291
     1
 45
0.0
1001
ACAD
1000
AcDbSavedByObjectVersion
1070
     0
  0
VISUALSTYLE
  5
4E6
102
{ACAD_REACTORS
330
4D6
102
}
330
4D6
100
AcDbVisualStyle
  2
ColorChange
 70
    16
 71
     2
 72
     2
 73
     3
 90
        0
 40
-0.6
 41
-30.0
 62
     5
 63
     8
 74
     1
 91
        4
 64
     7
 65
   257
 75
     1
175
     1
 42
1.0
 92
        8
 66
     8
 43
1.0
 76
     1
 77
     6
 78
     2
 67
     7
 79
     5
170
     0
171
     0
290
     0
174
     0
 93
        1
 44
0.0
173
     0
291
     1
 45
0.0
1001
ACAD
1000
AcDbSavedByObjectVersion
1070
     0
  0
VISUALSTYLE
  5
4DF
102
{ACAD_REACTORS
330
4D6
102
}
330
4D6
100
AcDbVisualStyle
  2
Conceptual
 70
     9
 71
     3
 72
     2
 73
     0
 90
        0
 40
-0.6
 41
-30.0
 62
     5
 63
     7
 74
     2
 91
        2
 64
     7
 65
   257
 75
     1
175
     1
 42
40.0
 92
        8
 66
     7
 43
1.0
 76
     1
 77
     6
 78
     2
 67
     7
 79
     3
170
     0
171
     0
290
     0
174
     0
 93
        1
 44
0.0
173
     0
291
     0
 45
0.0
1001
ACAD
1000
AcDbSavedByObjectVersion
1070
     0
  0
VISUALSTYLE
  5
4E1
102
{ACAD_REACTORS
330
4D6
102
}
330
4D6
100
AcDbVisualStyle
  2
Dim
 70
    11
 71
     2
 72
     2
 73
     0
 90
        0
 40
-0.6
 41
-30.0
 62
     5
 63
     7
 74
     1
 91
        4
 64
     7
 65
   257
 75
     1
175
     1
 42
1.0
 92
        8
 66
     7
 43
1.0
 76
     1
 77
     6
 78
     2
 67
     7
 79
     5
170
     0
171
     0
290
     0
174
     0
 93
        1
 44
-50.0
173
     0
291
     1
 45
0.0
1001
ACAD
1000
AcDbSavedByObjectVersion
1070
     0
  0
VISUALSTYLE
  5
4E5
102
{ACAD_REACTORS
330
4D6
102
}
330
4D6
100
AcDbVisualStyle
  2
Facepattern
 70
    15
 71
     2
 72
     2
 73
     0
 90
        0
 40
-0.6
 41
-30.0
 62
     5
 63
     7
 74
     1
 91
        4
 64
     7
 65
   257
 75
     1
175
     1
 42
1.0
 92
        8
 66
     7
 43
1.0
 76
     1
 77
     6
 78
     2
 67
     7
 79
     5
170
     0
171
     0
290
     0
174
     0
 93
        1
 44
0.0
173
     0
291
     1
 45
0.0
1001
ACAD
1000
AcDbSavedByObjectVersion
1070
     0
  0
VISUALSTYLE
  5
4D7
102
{ACAD_REACTORS
330
4D6
102
}
330
4D6
100
AcDbVisualStyle
  2
Flat
 70
     0
 71
     2
 72
     1
 73
     1
 90
        2
 40
-0.6
 41
30.0
 62
     5
 63
     7
 74
     0
 91
        4
 64
     7
 65
   257
 75
     1
175
     1
 42
1.0
 92
        8
 66
     7
 43
1.0
 76
     1
 77
     6
 78
     2
 67
     7
 79
     5
170
     0
171
     0
290
     0
174
     0
 93
       13
 44
0.0
173
     0
291
     1
 45
0.0
1001
ACAD
1000
AcDbSavedByObjectVersion
1070
     0
  0
VISUALSTYLE
  5
4D8
102
{ACAD_REACTORS
330
4D6
102
}
330
4D6
100
AcDbVisualStyle
  2
FlatWithEdges
 70
     1
 71
     2
 72
     1
 73
     1
 90
        2
 40
-0.6
 41
30.0
 62
     5
 63
     7
 74
     1
 91
        4
 64
     7
 65
   257
 75
     1
175
     1
 42
1.0
 92
        0
 66
   257
 43
1.0
 76
     1
 77
     6
 78
     2
 67
     7
 79
     5
170
     0
171
     0
290
     0
174
     0
 93
       13
 44
0.0
173
     0
291
     1
 45
0.0
1001
ACAD
1000
AcDbSavedByObjectVersion
1070
     0
  0
VISUALSTYLE
  5
4D9
102
{ACAD_REACTORS
330
4D6
102
}
330
4D6
100
AcDbVisualStyle
  2
Gouraud
 70
     2
 71
     2
 72
     2
 73
     1
 90
        2
 40
-0.6
 41
30.0
 62
     5
 63
     7
 74
     0
 91
        4
 64
     7
 65
   257
 75
     1
175
     1
 42
1.0
 92
        0
 66
     7
 43
1.0
 76
     1
 77
     6
 78
     2
 67
     7
 79
     5
170
     0
171
     0
290
     0
174
     0
 93
       13
 44
0.0
173
     0
291
     1
 45
0.0
1001
ACAD
1000
AcDbSavedByObjectVersion
1070
     0
  0
VISUALSTYLE
  5
4DA
102
{ACAD_REACTORS
330
4D6
102
}
330
4D6
100
AcDbVisualStyle
  2
GouraudWithEdges
 70
     3
 71
     2
 72
     2
 73
     1
 90
        2
 40
-0.6
 41
30.0
 62
     5
 63
     7
 74
     1
 91
        4
 64
     7
 65
   257
 75
     1
175
     1
 42
1.0
 92
        0
 66
   257
 43
1.0
 76
     1
 77
     6
 78
     2
 67
     7
 79
     5
170
     0
171
     0
290
     0
174
     0
 93
       13
 44
0.0
173
     0
291
     1
 45
0.0
1001
ACAD
1000
AcDbSavedByObjectVersion
1070
     0
  0
VISUALSTYLE
  5
4E4
102
{ACAD_REACTORS
330
4D6
102
}
330
4D6
100
AcDbVisualStyle
  2
Linepattern
 70
    14
 71
     2
 72
     2
 73
     0
 90
        0
 40
-0.6
 41
-30.0
 62
     5
 63
     7
 74
     1
 91
        4
 64
     7
 65
   257
 75
     7
175
     7
 42
1.0
 92
        8
 66
     7
 43
1.0
 76
     1
 77
     6
 78
     2
 67
     7
 79
     5
170
     0
171
     0
290
     0
174
     0
 93
        1
 44
0.0
173
     0
291
     1
 45
0.0
1001
ACAD
1000
AcDbSavedByObjectVersion
1070
     0
  0
VISUALSTYLE
  5
4E0
102
{ACAD_REACTORS
330
4D6
102
}
330
4D6
100
AcDbVisualStyle
  2
Realistic
 70
     8
 71
     2
 72
     2
 73
     0
 90
        0
 40
-0.6
 41
-30.0
 62
     5
 63
     7
 74
     1
 91
        0
 64
     7
 65
   257
 75
     1
175
     1
 42
1.0
 92
        8
 66
     8
 43
1.0
 76
     1
 77
     6
 78
     2
 67
     7
 79
     5
170
     0
171
     0
290
     0
174
     0
 93
       13
 44
0.0
173
     0
291
     0
 45
0.0
1001
ACAD
1000
AcDbSavedByObjectVersion
1070
     0
  0
VISUALSTYLE
  5
4E3
102
{ACAD_REACTORS
330
4D6
102
}
330
4D6
100
AcDbVisualStyle
  2
Thicken
 70
    13
 71
     2
 72
     2
 73
     0
 90
        0
 40
-0.6
 41
-30.0
 62
     5
 63
     7
 74
     1
 91
        4
 64
     7
 65
   257
 75
     1
175
     1
 42
1.0
 92
       12
 66
     7
 43
1.0
 76
     1
 77
     6
 78
     2
 67
     7
 79
     5
170
     0
171
     0
290
     0
174
     0
 93
        1
 44
0.0
173
     0
291
     1
 45
0.0
1001
ACAD
1000
AcDbSavedByObjectVersion
1070
     0
  0
DICTIONARYVAR
  5
58D
102
{ACAD_REACTORS
330
58C
102
}
330
58C
100
DictionaryVariables
280
     0
  1
STANDARD
  0
DICTIONARYVAR
  5
590
102
{ACAD_REACTORS
330
58C
102
}
330
58C
100
DictionaryVariables
280
     0
  1
1
  0
DICTIONARYVAR
  5
58F
102
{ACAD_REACTORS
330
58C
102
}
330
58C
100
DictionaryVariables
280
     0
  1
0
  0
DICTIONARYVAR
  5
58E
102
{ACAD_REACTORS
330
58C
102
}
330
58C
100
DictionaryVariables
280
     0
  1
127
  0
DICTIONARY
  5
59A
330
4ED
100
AcDbDictionary
280
     1
281
     1
  3
ACAD_XREC_ROUNDTRIP
360
59B
  0
DICTIONARY
  5
4FC
330
4EE
100
AcDbDictionary
280
     1
281
     1
  3
ACAD_XREC_ROUNDTRIP
360
59C
  3
ADSK_XREC_LAYOUTTHUMBNAIL
360
4FD
  0
DICTIONARY
  5
594
330
4D4
100
AcDbDictionary
280
     1
281
     1
  3
ACAD_XREC_ROUNDTRIP
360
595
  0
DICTIONARY
  5
592
330
4D3
100
AcDbDictionary
280
     1
281
     1
  3
ACAD_XREC_ROUNDTRIP
360
593
  0
DICTIONARY
  5
596
330
4D5
100
AcDbDictionary
280
     1
281
     1
  3
ACAD_XREC_ROUNDTRIP
360
597
  0
DICTIONARY
  5
598
330
4E9
100
AcDbDictionary
280
     1
281
     1
  3
ACAD_XREC_ROUNDTRIP
360
599
  0
XRECORD
  5
59B
102
{ACAD_REACTORS
330
59A
102
}
330
59A
100
AcDbXrecord
280
     1
102
SHADEPLOT
 70
     0
102
SHADEPLOTRESLEVEL
 70
     2
102
SHADEPLOTCUSTOMDPI
 70
   300
  0
XRECORD
  5
59C
102
{ACAD_REACTORS
330
4FC
102
}
330
4FC
100
AcDbXrecord
280
     1
102
SHADEPLOT
 70
     0
102
SHADEPLOTRESLEVEL
 70
     2
102
SHADEPLOTCUSTOMDPI
 70
   300
  0
XRECORD
  5
4FD
102
{ACAD_REACTORS
330
4FC
102
}
330
4FC
100
AcDbXrecord
280
     1
310
28000000B40000007F00000001000800000000004C590000000000000000000000010000000000000000000000000000FFFFFF000000000000000000000000000000000000000000000000000000000000000000330000006600000099000000CC000000FF00000000330000333300006633000099330000CC330000FF3300
310
0000660000336600006666000099660000CC660000FF66000000990000339900006699000099990000CC990000FF99000000CC000033CC000066CC000099CC0000CCCC0000FFCC000000FF000033FF000066FF000099FF0000CCFF0000FFFF000000003300330033006600330099003300CC003300FF003300003333003333
310
33006633330099333300CC333300FF33330000663300336633006666330099663300CC663300FF66330000993300339933006699330099993300CC993300FF99330000CC330033CC330066CC330099CC3300CCCC3300FFCC330000FF330033FF330066FF330099FF3300CCFF3300FFFF330000006600330066006600660099
310
006600CC006600FF00660000336600333366006633660099336600CC336600FF33660000666600336666006666660099666600CC666600FF66660000996600339966006699660099996600CC996600FF99660000CC660033CC660066CC660099CC6600CCCC6600FFCC660000FF660033FF660066FF660099FF6600CCFF6600
310
FFFF660000009900330099006600990099009900CC009900FF00990000339900333399006633990099339900CC339900FF33990000669900336699006666990099669900CC669900FF66990000999900339999006699990099999900CC999900FF99990000CC990033CC990066CC990099CC9900CCCC9900FFCC990000FF99
310
0033FF990066FF990099FF9900CCFF9900FFFF99000000CC003300CC006600CC009900CC00CC00CC00FF00CC000033CC003333CC006633CC009933CC00CC33CC00FF33CC000066CC003366CC006666CC009966CC00CC66CC00FF66CC000099CC003399CC006699CC009999CC00CC99CC00FF99CC0000CCCC0033CCCC0066CC
310
CC0099CCCC00CCCCCC00FFCCCC0000FFCC0033FFCC0066FFCC0099FFCC00CCFFCC00FFFFCC000000FF003300FF006600FF009900FF00CC00FF00FF00FF000033FF003333FF006633FF009933FF00CC33FF00FF33FF000066FF003366FF006666FF009966FF00CC66FF00FF66FF000099FF003399FF006699FF009999FF00CC
310
99FF00FF99FF0000CCFF0033CCFF0066CCFF0099CCFF00CCCCFF00FFCCFF0000FFFF0033FFFF0066FFFF0099FFFF00CCFFFF00FFFFFF00000000000D0D0D001A1A1A00282828003535350043434300505050005D5D5D006B6B6B00787878008686860093939300A1A1A100AEAEAE00BBBBBB00C9C9C900D6D6D600E4E4E400
310
F1F1F100FFFFFF0000000000000000000000000000000000000000000000000000000000000000000000000000000000F5F5F5F5F5F5F5F5F5F5F5F5F5F5F5F5F5F5F5F5F5F5F5F5F5F5F5F5F5F5F5F5F5F5F5F5F5F5F5F5F5F5F5F5F5F5F5F5F5F5F5F5F5F5F5F5F5F5F5F5F5F5F5F5F5F5F5F5F5F5F5F5F5F5F5F5F5F5F5
310
F5F5F5F5F5F5F5F5F5F5F5F5F5F5F5F5F5F5F5F5F5F5F5F5F5F5F5F5F5F5F5F5F5F5F5F5F5F5F5F5F5F5F5F5F5F5F5F5F5F5F5F5F5F5F5F5F5F5F5F5F5F5F5F5F5F5F5F5F5F5F5F5F5F5F5F5F5F5F5F5F5F5F5F5F5F5F5F5F5F5F5F5F5F5F5F5F5F5F5F5F5F5E2E2E2E2E2E2E2E2E2E2E2E2E2E2E2E2E2E2E2E2E2E2E2E2E2
310
E2E2E2E2E2E2E2E2E2E2E2E2E2E2E2E2E2E2E2E2E2E2E2E2E2E2E2E2E2E2E2E2E2E2E2E2E2E2E2E2E2E2E2E2E2E2E2E2E2E2E2E2E2E2E2E2E2E2E2E2E2E2E2E2E2E2E2E2E2E2E2E2E2E2E2E2E2E2E2E2E2E2E2E2E2E2E2E2E2E2E2E2E2E2E2E2E2E2E2E2E2E2E2E2E2E2E2E2E2E2E2E2E2E2E2E2E2E2E2E2E2E2E2E2E2E2E2
310
E2E2E2E2E2E2E2E2E2E2E2E2E2E2E2E2E2E2E2E2E2E2E2E2E2F5F5F5E2E2E2E2E2E2E2E2E2E2E2E2E2E2E2E2E2E2E2E2E2E2E2E2E2E2E2E2E2E2E2E2E2E2E2E2E2E2E2E2E2E2E2E2E2E2E2E2E2E2E2E2E2E2E2E2E2E2E2E2E2E2E2E2E2E2E2E2E2E2E2E2E2E2E2E2E2E2E2E2E2E2E2E2E2E2E2E2E2E2E2E2E2E2E2E2E2E2E2
310
E2E2E2E2E2E2E2E2E2E2E2E2E2E2E2E2E2E2E2E2E2E2E2E2E2E2E2E2E2E2E2E2E2E2E2E2E2E2E2E2E2E2E2E2E2E2E2E2E2E2E2E2E2E2E2E2E2E2E2E2E2E2E2E2E2E2E2E2E2E2E2E2E2E2E2E2E2E2F5F5F5E2E2E2E2E2E2E2E2E2E2E2E2E2E2E2E2E2E2E2E2E2E2E2E2E2E2E2E2E2E2E2E2E2E2E2E2E2E2E2E2E2E2E2E2E2E2
310
E2E2E2E2E2E2E2E2E2E2E2E2E2E2E2E2E2E2E2E2E2E2E2E2E2E2E2E2E2E2E2E2E2E2E2E2E2E2E2E2E2E2E2E2E2E2E2E2E2E2E2E2E2E2E2E2E2E2E2E2E2E2E2E2E2E2E2E2E2E2E2E2E2E2E2E2E2E2E2E2E2E2E2E2E2E2E2E2E2E2E2E2E2E2E2E2E2E2E2E2E2E2E2E2E2E2E2E2E2E2E2E2E2E2E2E2E2E2E2E2E2E2E2E2E2E2E2
310
E2E2E2E2F5F5F5E2E2F5F5F5F5F5F5F5F5E2E2E2E2E2E2E2E2E2F5F5F5F5F5F5F5F5F5F5F5F5F5F5F5F5E2E2E2E2E2E2E2E2E2F5F5F5F5F5F5F5F5F5F5F5F5F5F5F5F5E2E2E2E2E2E2E2E2F5F5F5F5F5F5F5F5F5F5F5F5F5F5F5F5E2E2E2E2E2E2E2E2E2F5F5F5F5F5F5F5F5F5F5F5F5F5F5F5F5E2E2E2E2E2E2E2E2F5F5F5
310
F5F5F5F5F5F5F5F5F5F5F5F5F5E2E2E2E2E2E2E2E2E2F5F5F5F5F5F5F5F5F5F5F5F5F5F5F5F5E2E2E2E2E2E2E2E2E2F5F5F5F5F5F5F5F5E2E2F5F5F5E2E2F5E2E2E2E2E2E2E2E2E2E2E2E2E2E2E2E2E2E2E2E2E2E2E2E2E2E2E2E2E2E2E2E2E2E2E2E2E2E2E2E2E2E2E2E2E2E2E2E2E2E2E2E2E2E2E2E2E2E2E2E2E2E2E2E2
310
E2E2E2E2E2E2E2E2E2E2E2E2E2E2E2E2E2E2E2E2E2E2E2E2E2E2E2E2E2E2E2E2E2E2E2E2E2E2E2E2E2E2E2E2E2E2E2E2E2E2E2E2E2E2E2E2E2E2E2E2E2E2E2E2E2E2E2E2E2E2E2E2E2E2E2E2E2E2E2E2E2E2E2E2E2E2E2E2E2E2E2E2E2E2E2E2E2E2E2E2E2E2E2E2E2E2E2F5E2E2F5F5F5E2E2F5E2E2E2E2E2E2E2E2E2E2E2
310
E2E2E2E2E2E2E2E2E2E2E2E2E2E2E2E2E2E2E2E2E2E2E2E2E2E2E2E2E2E2E2E2E2E2E2E2E2E2E2E2E2E2E2E2E2E2E2E2E2E2E2E2E2E2E2E2E2E2E2E2E2E2E2E2E2E2E2E2E2E2E2E2E2E2E2E2E2E2E2E2E2E2E2E2E2E2E2E2E2E2E2E2E2E2E2E2E2E2E2E2E2E2E2E2E2E2E2E2E2E2E2E2E2E2E2E2E2E2E2E2E2E2E2E2E2E2E2
310
E2E2E2E2E2E2E2E2E2E2E2E2E2E2E2E2E2E2E2E2E2E2E2E2E2E2E2E2E2E2E2E2E2F5E2E2F5F5F5E2E2F5E2E2E2E2E2E2E2E2E2E2E2E2E2E2E2E2E2E2E2E2E2E2E2E2E2E2E2E2E2E2E2E2E2E2E2E2E2E2E2E2E2E2E2E2E2E2E2E2E2E2E2E2E2E2E2E2E2E2E2E2E2E2E2E2E2E2E2E2E2E2E2E2E2E2E2E2E2E2E2E2E2E2E2E2E2
310
E2E2E2E2E2E2E2E2E2E2E2E2E2E2E2E2E2E2E2E2E2E2E2E2E2E2E2E2E2E2E2E2E2E2E2E2E2E2E2E2E2E2E2E2E2E2E2E2E2E2E2E2E2E2E2E2E2E2E2E2E2E2E2E2E2E2E2E2E2E2E2E2E2E2E2E2E2E2E2E2E2E2E2E2E2E2F5E2E2F5F5F5E2E2F5E2E2E2E2E2E2E2E2E2E2E2E2E2E2E2E2E2E2E2E2E2E2E2E2E2E2E2E2E2E2E2E2
310
E2E2E2E2E2E2E2E2E2E2E2E2E2E2E2E2E2E2E2E2E2E2E2E2E2E2E2E2E2E2E2E2E2E2E2E2E2E2E2E2E2E2E2E2E2E2E2E2E2E2E2E2E2E2E2E2E2E2E2E2E2E2E2E2E2E2E2E2E2E2E2E2E2E2E2E2E2E2E2E2E2E2E2E2E2E2E2E2E2E2E2E2E2E2E2E2E2E2E2E2E2E2E2E2E2E2E2E2E2E2E2E2E2E2E2E2E2E2E2E2E2E2E2E2E2E2E2
310
E2E2E2E2E2E2E2E2E2E2E2E2F5E2E2F5F5F5E2E2F5E2E2E2E2E2E2E2E2E2E2E2E2E2E2E2E2E2E2E2E2E2E2E2E2E2E2E2E2E2E2E2E2E2E2E2E2E2E2E2E2E2E2E2E2E2E2E2E2E2E2E2E2E2E2E2E2E2E2E2E2E2E2E2E2E2E2E2E2E2E2E2E2E2E2E2E2E2E2E2E2E2E2E2E2E2E2E2E2E2E2E2E2E2E2E2E2E2E2E2E2E2E2E2E2E2E2
310
E2E2E2E2E2E2E2E2E2E2E2E2E2E2E2E2E2E2E2E2E2E2E2E2E2E2E2E2E2E2E2E2E2E2E2E2E2E2E2E2E2E2E2E2E2E2E2E2E2E2E2E2E2E2E2E2E2E2E2E2E2E2E2E2E2F5E2E2F5F5F5E2E2F5E2E2E2E2E2E2E2E2E2E2E2E2E2E2E2E2E2E2E2E2E2E2E2E2E2E2E2E2E2E2E2E2E2E2E2E2E2E2E2E2E2E2E2E2E2E2E2E2E2E2E2E2E2
310
E2E2E2E2E2E2E2E2E2E2E2E2E2E2E2E2E2E2E2E2E2E2E2E2E2E2E2E2E2E2E2E2E2E2E2E2E2E2E2E2E2E2E2E2E2E2E2E2E2E2E2E2E2E2E2E2E2E2E2E2E2E2E2E2E2E2E2E2E2E2E2E2E2E2E2E2E2E2E2E2E2E2E2E2E2E2E2E2E2E2E2E2E2E2E2E2E2E2E2E2E2E2E2E2E2E2E2E2E2E2E2E2E2E2E2E2E2E2F5E2E2F5F5F5E2E2F5
310
E2E2E2E2E2E2E2E2E2E2E2E2E2E2E2E2E2E2E2E2E2E2E2E2E2E2E2E2E2E2E2E2E2E2E2E2E2E2E2E2E2E2E2E2E2E2E2E2E2E2E2E2E2E2E2E2E2E2E2E2E2E2E2E2E2E2E2E2E2E2E2E2E2E2E2E2E2E2E2E2E2E2E2E2E2E2E2E2E2E2E2E2E2E2E2E2E2E2E2E2E2E2E2E2E2E2E2E2E2E2E2E2E2E2E2E2E2E2E2E2E2E2E2E2E2E2E2
310
E2E2E2E2E2E2E2E2E2E2E2E2E2E2E2E2E2E2E2E2E2E2E2E2E2E2E2E2E2E2E2E2E2E2E2E2E2E2E2E2E2E2E2E2F5E2E2F5F5F5E2E2E2E2E2E2E2E2E2E2E2E2E2E2E2E2E2E2E2E2E2E2E2E2E2E2E2E2E2E2E2E2E2E2E2E2E2E2E2E2E2E2E2E2E2E2E2E2E2E2E2E2E2E2E2E2E2E2E2E2E2E2E2E2E2E2E2E2E2E2E2E2E2E2E2E2E2
310
E2E2E2E2E2E2E2E2E2E2E2E2E2E2E2E2E2E2E2E2E2E2E2E2E2E2E2E2E2E2E2E2E2E2E2E2E2E2E2E2E2E2E2E2E2E2E2E2E2E2E2E2E2E2E2E2E2E2E2E2E2E2E2E2E2E2E2E2E2E2E2E2E2E2E2E2E2E2E2E2E2E2E2E2E2E2E2E2E2E2E2E2E2E2E2E2E2E2E2E2F5F5F5E2E2E2E2E2E2E2E2E2E2E2E2E2E2E2E2E2E2E2E2E2E2E2E2
310
E2E2E2E2E2E2E2E2E2E2E2E2E2E2E2E2E2E2E2E2E2E2E2E2E2E2E2E2E2E2E2E2E2E2E2E2E2E2E2E2E2E2E2E2E2E2E2E2E2E2E2E2E2E2E2E2E2E2E2E2E2E2E2E2E2E2E2E2E2E2E2E2E2E2E2E2E2E2E2E2E2E2E2E2E2E2E2E2E2E2E2E2E2E2E2E2E2E2E2E2E2E2E2E2E2E2E2E2E2E2E2E2E2E2E2E2E2E2E2E2E2E2E2E2E2E2E2
310
E2E2E2E2E2E2E2E2E2E2E2E2E2E2E2E2E2E2E2E2E2E2E2E2E2E2F5F5F5E2E2E2E2E2E2E2E2E2E2E2E2E2E2E2E2E2E2E2E2E2E2E2E2E2E2E2E2E2E2E2E2E2E2E2E2E2E2E2E2E2E2E2E2E2E2E2E2E2E2E2E2E2E2E2E2E2E2E2E2E2E2E2E2E2E2E2E2E2E2E2E2E2E2E2E2E2E2E2E2E2E2E2E2E2E2E2E2E2E2E2E2E2E2E2E2E2E2
310
E2E2E2E2E2E2E2E2E2E2E2E2E2E2E2E2E2E2E2E2E2E2E2E2E2E2E2E2E2E2E2E2E2E2E2E2E2E2E2E2E2E2E2E2E2E2E2E2E2E2E2E2E2E2E2E2E2E2E2E2E2E2E2E2E2E2E2E2E2E2E2E2E2E2E2E2E2E2E2F5F5F5E2E2E2E2E2E2E2E2E2E2E2E2E2E2E2E2E2E2E2E2E2E2E2E2E2E2E2E2E2E2E2E2E2E2E2E2E2E2E2E2E2E2E2E2E2
310
E2E2E2E2E2E2E2E2E2E2E2E2E2E2E2E2E2E2E2E2E2E2E2E2E2E2E2E2E2E2E2E2E2E2E2E2E2E2E2E2E2E2E2E2E2E2E2E2E2E2E2E2E2E2E2E2E2E2E2E2E2E2E2E2E2E2E2E2E2E2E2E2E2E2E2E2E2E2E2E2E2E2E2E2E2E2E2E2E2E2E2E2E2E2E2E2E2E2E2E2E2E2E2E2E2E2E2E2E2E2E2E2E2E2E2E2E2E2E2E2E2E2E2E2E2E2E2
310
E2E2E2E2E2F5F5F5E2E2E2E2E2E2E2E2E2E2E2E2E2E2E2E2E2E2E2E2F5F5F5F5F5F5F5F5F5F5F5F5F5F5F5F5F5F5F5F5F5F5F5F5F5F5F5F5F5F5F5F5F5F5F5F5F5F5F5F5F5F5F5F5F5F5F5F5F5F5F5F5F5F5F5F5F5F5F5F5F5F5F5F5F5F5F5F5F5F5F5F5F5F5F5F5F5F5F5F5F5F5F5F5F5F5F5F5F5F5F5F5F5F5F5F5F5F5F5
310
F5F5F5F5F5F5F5F5F5F5F5F5F5F5F5F5F5F5F5F5F5F5F5F5F5F5F5F5F5F5F5F5F5F5F5F5F5F5E2E2E2E2E2E2E2E2E2E2E2E2E2E2E2E2E2E2E2E2F5F5F5E2E2E2E2E2E2E2E2E2E2E2E2E2E2E2E2E2E2E2E2F52DE2E2E2E2E2E2E2E2E2E2E2E2E2E2E2E2E2E2E2E2E2E2E2E2E2E2E2E2E2E2E2E2E2E2E2E2E2E2E2E2E2E2E2E2
310
E2E2E2E2E2E2E2E2E2E2E2E2E2E2E2E2E2E2E2E2E2E2E2E2E2E2E2E2E2E2E2E2E2E2E2E2E2E2E2E2E2E2E2E2E2E2E2E2E2E2E2E2E2E2E2E2E2E2E2E2E2E2E2E2E2E2F5F5F5F5F5F5F5F5F5F5F5F5F5F5F5F5F5F5F5F5F5F5E22DF5E2E2E2E2E2E2E2E2E2E2E2E2E2E2E2E2E2E2E2E2F5F5F5E2E2E2E2E2E2E2E2E2E2E2E2E2
310
E2E2E2E2E2E2E2F52DE2E2E2E2E2E2E2E2E2E2E2E2E2E2E2E2E2E2E2E2E2E2E2E2E2E2E2E2E2E2E2E2E2E2E2E2E2E2E2E2E2E2E2E2E2E2E2E2E2E2E2E2E2E2E2E2E2E2E2E2E2E2E2E2E2E2E2E2E2E2E2E2F5DCDCDCDCDCDCDCDCDCDCDCDCDCDCDCE2E2E2BEBEBEBEBEBEBEBEBEBEBEBEBEBEBEBEBEBEBEF5BEBEBEBEBEBEBE
310
BEDCE2E2E2E2E2E2DCDCDCDCE2F5E22DF5E2E2E2E2E2E2E2E2E2E2E2E2E2E2E2E2E2E2E2E2F5F5F5E2E2E2E2E2E2E2E2E2E2E2E2E2E2E2E2E2E2E2E2F52DE2E2E2E2E2E2E2E2E2E2E2E2E2E2E2E2E2E2E2E2E2E2E2E2E2E2E2E2E2E2E2E2E2E2E2E2E2E2E2E2E2E2E2E2E2E2E2E2E2E2E2E2E2E2E2E2E2E2E2E2E2E2E2E2E2
310
E2E2E2E2E2E2E2F5BEDCE2E2DCE2E2DCE2E2E2E2E2E2DCE2E2E2BEBEBEBEBEBEBEBEBEBEBEBEBEBEBEBEBEBEBEF5BEBEE2E2E2E2E2E2DCE2E2DCDCDCDCE2E2E2E2E2F5E22DF5E2E2E2E2E2E2E2E2E2E2E2E2E2E2E2E2E2E2E2E2F5F5F5E2E2E2E2E2E2E2E2E2E2E2E2E2E2E2E2E2E2E2E2F52DE2E2E2E22828282828282828
310
282828282828282828282828282828282828282828282828282828282828282828282828282828282828282828282828282828282828282828282828282828282828282828282828282828282828282828282828282828282828282828282828282828282828282828282828282828282828282828282828E22DF5E2E2E2E2
310
E2E2E2E2E2E2E2E2E2E2E2E2E2E2E2E2F5F5F5E2E2F5E2E2E2E2E2E2E2E2E2E2E2E2E2E2E2E2E2F52DE2E2E2E228E2E2E2E2E2E2E2E2E2E2E2E2E2E2E2E2E2E2E2E2E2E2E2E2E2E2E2E2E2E2E2E2E2BEBEBEBEBEBEBEBEBEBEBEBEBEBEBEBEBEBEBEBEBEBEBEBEBEBEBEBEBEBEBEBEBEBEF5DCDCDCDCDCDCDCDCDCDCDCDCDC
310
DCDCE2E2E2E2DCE2E2E2E2DCE2E2E2DCE2E2E2E2DCE2E2E2DCBEDCE2DCDCDCDCDCDCDCDCDCDCDCDCDCDCDCDCE228E22DF5E2E2E2E2E2E2E2E2E2E2E2E2E2E2E2E2E2F5E2E2F5F5F5E2E2F5E2E2E2E2E2E2E2E2E2E2E2E2E2E2E2E2E2F52DE2E2E2E228E2E2E2E2E2E2E2E2E2E2E2E2E2E2E2E2E2E2E2E2E2E2E2E2E2E2E2E2
310
E2E2E2E2E2BEBEBEBEBEBEBEBEBEBEBEBEBEBEBEBEBEBEBEBEBEBEBEBEBEBEBEBEBEBEBEBEBEBEF5DCDCDCDCDCDCDCDCDCDCDCDCDCDCDCE2E2E2E2DCE2E2E2E2DCE2E2E2DCE2E2E2E2DCE2E2E2DCBEDCE2E2DCDCDCDCDCDCDCDCDCE2DCDCDCDCDCE228E22DF5E2E2E2E2E2E2E2E2E2E2E2E2E2E2E2E2E2F5E2E2F5F5F5E2E2
310
F5E2E2E2E2E2E2E2E2E2E2E2E2E2E2E2E2E2F52DE2E2E2E228E2E2E2E2E2E2E2E2E2E2E2E2E2E2E2E2E2E2E2E2E2E2E2E2E2E2E2E2E2E2E2E2E2E2E2E2E2E2E2E2E2E2E2E2E2E2E2E2E2E2E2E2E2E2E2E2E2E2E2E2E2E2E2E2E2E2E2F5DCDCDCDCDCDCDCDCDCDCDCDCDCDCDCE2E2E2E2DCE2E2E2E2DCE2E2E2DCE2E2E2E2DC
310
E2E2E2DCDCDCDCDCDCDCDCDCDCDCDCDCDCDCDCDCDCDCDCDC28E22DF5E2E2E2E2E2E2E2E2E2E2E2E2E2E2E2E2E2F5E2E2F5F5F5E2E2F5E2E2E2E2E2E2E2E2E2E2E2E2E2E2E2E2E2F52DE2E2E2E228E2E2E2E2E2E2E2E2E2E2E2E2E2E2E2E2E2E2E2E2E2E2E2E2E2E2E2E2E2E2E2E2E2E2E2E2E2E2E2E2E2E2E2E2E2E2E2E2E2
310
E2E2E2E2E2E2E2E2E2E2E2E2E2E2E2E2E2E2F5E2DCE2E2DCE2E2DCE2E2E2E2E2E2DCE2E2E2E2DCE2E2E2E2DCE2E2E2DCE2E2E2E2DCE2E2E2DCBEBEBEDCE2E2E2E2E2E2E2E2E2E2E2E2E2E2E2E228E22DF5E2E2E2E2E2E2E2E2E2E2E2E2E2E2E2E2E2F5E2E2F5F5F5E2E2F5E2E2E2E2E2E2E2E2E2E2E2E2E2E2E2E2E2F52DE2
310
E2E2E228E2E2E2E2E2E2E2E2E2E2E2E2E2E2E2E2E2E2E2E2E2E2E2E2E2E2E2E2E2E2E2E2E2E2E2BEBEBEBEBEBEBEBEBEBEBEBEBEBEBEBEBEBEBEBEBEBEBEBEBEE2E2E2E2E2E2E2F5DCDCDCDCDCDCDCDCDCDCDCDCDCDCDCE2E2E2E2DCE2E2E2E2DCE2E2E2DCE2E2E2E2DCE2E2E2DCDCDCDCDCDCDCDCDCDCDCDCDCDCDCDCDCDC
310
DCDCDC28DC2DF5E2E2E2E2E2E2E2E2E2E2E2E2E2E2E2E2E2F5E2E2F5F5F5E2E2F5E2E2E2E2E2E2E2E2E2E2E2E2E2E2E2E2E2F52DE2E2E2E228E2E2E2E2E2E2E2E2E2E2E2E2E2E2E2E2E2E2E2E2E2E2E2E2E2E2E2E2E2E2E2E2E2E2E2E2E2E2E2E2E2E2E2E2E2E2E2E2E2E2E2E2E2E2E2E2E2E2E2E2E2E2E2E2E2E2E2F5DCDC
310
DCDCDCDCDCDCDCDCDCDCDCDCDCDCDCDCDCDCDCDCDCDCDCDCDCDCDCDCDCDCDCDCDCDCDCDCBEBEBEDCDCDCDCDCDCDCDCDCDCDCDCDCDCDCDCE228E22DF5E2E2E2E2E2E2E2E2E2E2E2E2E2E2E2E2E2F5E2E2F5F5F5E2E2F5E2E2E2E2E2E2E2E2E2E2E2E2E2E2E2E2E2F52DE2E2E2E228E2E2E2E2E2E2E2E2E2E2E2E2E2E2E2E2E2
310
E2E2E2E2E2E2E2E2E2E2E2E2E2E2E2E2E2E2BEBEBEBEBEBEBEBEBEBEBEBEBEBEBEBEBEBEBEE2E2E2E2E2E2E2E2E2E2E2E2E2F5DCDCDCDCDCDCDCDCDCDCDCDCDCDCDCDCDCDCDCDCDCDCDCDCDCDCDCDCDCDCDCDCDCDCDCDCDCDCDCDCDCDCDCDCDCDCDCDCDCDCDCDCDCDCDCDCDCDC28E22DF5E2E2E2E2E2E2E2E2E2E2E2E2E2E2
310
E2E2E2F5E2E2F5F5F5E2E2F5E2E2E2E2E2E2E2E2E2E2E2E2E2E2E2E2E2F52DE2E2E2E228E2E2E2E2E2E2E2E2E2E2E2E2E2E2E2E2E2E2E2E2E2E2E2E2E2E2E2E2E2E2E2E2BEBEBEE2E2E2E2E2E2E2E2E2E2E2E2E2E2E2E2E2E2E2E2E2E2E2E2E2E2E2E2E2E2E2E2F5E2DCE2E2DCE2E2DCE2E2E2E2E2E2DCDCDCDCDCDCDCDCDC
310
DCDCDCDCDCDCDCDCDCDCDCDCDCDCDCDCDCDCDCBEBEBEBEDCE2E2E2DCDCDCDCDCDCE2E228E22DF5E2E2E2E2E2E2E2E2E2E2E2E2E2E2E2E2E2F5E2E2F5F5F5E2E2F5E2E2E2E2E2E2E2E2E2E2E2E2E2E2E2E2E2F52DE2E2E2E228E2E2E2E2E2E2E2E2E2E2E2E2E2E2E2E2E2E2E2E2E2E2E2E2E2E2E2E2E2E2E2E2BEBEBEBEBEBE
310
BEBEBEBEBEBEBEBEBEBEBEBEBEBEBEBEBEBEBEBEBEBEBEBEBEBEBEBEBEF5DCDCDCDCDCDCDCDCDCDCDCDCDCDCDCDCE2DCDCDCE2E2E2E2DCE2E2E2E2E2E2E2E2DCBEBEBEBEBEBEBEDCDCDCDCDCDCDCDCDCDCDCDCDCDCDCDCDC28E22DF5E2E2E2E2E2E2E2E2E2E2E2E2E2E2E2E2E2F5E2E2F5F5F5E2E2F5E2E2E2E2E2E2E2E2E2
310
E2E2E2E2E2E2E2E2F52DE2E2E2E228E2E2E2E2E2E2E2E2E2E2E2E2E2E2E2E2E2E2E2E2E2E2E2E2E2E2E2E2E2E2E2E2E2E2E2E2E2E2E2E2E2E2E2E2E2E2E2E2E2E2E2E2E2E2E2E2E2E2E2E2E2E2E2E2E2E2E2F5DCDCDCDCDCDCDCDCDCDCDCDCDCDCDCE2DCDCDCDCDCDCDCE2DCE2DCDCDCDCDCE2E2DCBEBEBEBEBEBEBEDCBEBE
310
BEBEDCE2DCDCDCDCDCDCDCDCDCE228E22DF5E2E2E2E2E2E2E2E2E2E2E2E2E2E2E2E2E2F5E2E2F5F5F5E2E2F5E2E2E2E2E2E2E2E2E2E2E2E2E2E2E2E2E2F52DE2E2E2E228E2E2E2E2E2E2E2E2E2E2E2E2E2E2E2E2E2E2E2E2E2E2E2E2E2E2E2E2E2E2E2E2E2E2E2E2E2E2E2E2E2E2E2E2E2E2E2E2E2E2E2E2E2E2E2E2E2E2E2
310
E2E2E2E2E2E2E2E2F5F5DCF5F5DCF5F5DCF5F5F5F5F5F5DCF5F5DCDCF5F5F5F5F5F5F5F5F5F5F5F5F5F5F5F5F5F5F5F5F5F5F5F5F5F5F5F5F5DCDCDCDCF5DCDCDCF5F528E22DF5E2E2E2E2E2E2E2E2E2E2E2E2E2E2E2E2E2F5E2E2F5F5F5E2E2F5E2E2E2E2E2E2E2E2E2E2E2E2E2E2E2E2E2F52DE2E2E2E228E2E2E2E2E2E2
310
E2E2E2E2E2E2E2E2E2E2E2E2E2E2E2E2E2E2E2E2E2E2E2E2E2E2E2E2E2E2E2DCDCDCDCDCDCDCDCDCDCDCDCDCDCDCDCDCDCDCDCDCDCDCDCDCDCDCDCDCDCDCDCDCDCDCDCDCDCDCE2E2E2E2E2E2E2E2E2E2E2E2E2E2E2E2E2E2E2E2E2E2E2E2E2E2E2E2E2E2E2E2E2E2E2E2E2E2E2E2E2E2E2E2E2E2E2E2E2E228E22DF5E2E2E2
310
E2E2E2E2E2E2E2E2E2E2E2E2E2E2F5E2E2F5F5F5E2E2F5E2E2E2E2E2E2E2E2E2E2E2E2E2E2E2E2E2F52DE2E2E2E228E2E2E2E2E2E2E2E2E2E2E2E2E2E2E2E2E2E2E2E2E2E2E2E2E2E2E2E2E2E2E2E2DCDCE2E2E2DCE2DCDCE2DCE2E2E2E2E2E2E2E2E2E2E2E2DCDCDCDCE2E2E2E2E2E2E2E2E2E2E2E2DCDCDCDCDCE2E2E2E2
310
E2E2E2E2E2E2E2E2E2E2E2E2E2E2E2E2E2E2E2E2E2E2E2E2E2E2E2E2E2E2E2E2E2E2E2E2E2E2E2E2E2E2E2E2E2E228E22DF5E2E2E2E2E2E2E2E2E2E2E2E2E2E2E2E2E2F5E2E2F5F5F5E2E2F5E2E2E2E2E2E2E2E2E2E2E2E2E2E2E2E2E2F52DE2E2E2E228E2E2E2E2E2E2E2E2E2E2E2E2E2E2E2E2E2E2E2E2E2E2E2E2E2E2E2
310
E2E2E2E2E2DCDCDCE2E2DCE2DCDCE2DCE2E2E2E2E2E2E2E2E2E2E2E2DCDCDCDCE2E2E2E2E2E2E2E2E2E2E2E2DCDCDCDCDCE2E2E2E2E2E2E2E2E2E2E2E2E2E2E2E2E2E2E2E2E2E2E2E2E2E2E2E2E2E2E2E2E2E2E2E2E2E2E2E2E2E2E2E2E2E2E2E2E2E228E22DF5E2E2E2E2E2E2E2E2E2E2E2E2E2E2E2E2E2F5E2E2F5F5F5E2
310
E2F5E2E2E2E2E2E2E2E2E2E2E2E2E2E2E2E2E2F52DE2E2E2E228E2E2E2E2E2E2E2E2E2E2E2E2E2E2E2E2E2E2E2E2E2E2E2E2E2E2E2E2E2E2E2E2DCDCDCDCDCDCDCDCDCDC2DDCE2E2E2E2E2E2E2E2E2E2E2E2E2E2E2E2E2E2E2E2E2E2E2E2E2E22D2DDCE2E2DCE2E2E2E2E2E2E2E2E2E2E2E2E2E2E2E2E2E2E2E2E2E2E2E2E2
310
E2E2E2E2E2E2E2E2E2E2E2E2E2E2E2E2E2E2E2E2E2E2E2E2E228E22DF5E2E2E2E2E2E2E2E2E2E2E2E2E2E2E2E2E2F5E2E2F5F5F5E2E2E2E2E2E2E2E2E2E2E2E2E2E2E2E2E2E2E2E2F52DE2E2E2E228E2E2E2E2E2E2E2E2E2E2E2E2E2E2E2E2E2E2E2E2E2E2E2E2E2E2E2E2E2E2E2E2E2DCDCDCDCDCDCDCDCDC2DDCDCDCDCDC
310
DCDCDCDCDCDCDCDCDCDCDCDCDCDCDCDCDCDCDCDCDCDCDC2DDCDCDCDCDCDCDCE2E2E2E2E2E2E2E2E2E2E2E2E2E2E2E2E2E2E2E2E2E2E2E2E2E2E2E2E2E2E2E2E2E2E2E2E2E2E2E2E2E2E2E2E2E2E228E22DF5E2E2E2E2E2E2E2E2E2E2E2E2E2E2E2E2E2E2E2E2F5F5F5E2E2E2E2E2E2E2E2E2E2E2E2E2E2E2E2E2E2E2E2F52D
310
E2E2E2E228E2E2E2E2E2E2E2E2E2E2E2E2E2E2E2E2E2E2E2E2E2E2E2E2E2E2E2E2E2E2E2E2E2DCDCE2E2DCE2E2E2E2DCE2E2E2E2E2E2E2E2E2E2E2E2E2E2E2E2E2E2E2E2E2E2E2E2E2E2E2E22DE2E2E2DCE2DCE2E2E2E2E2E2E2E2E2E2E2E2E2E2E2E2E2E2E2E2E2E2E2E2E2E2E2E2E2E2E2E2E2E2E2E2E2E2E2E2E2E2E2E2
310
E2E2E2E228E22DF5E2E2E2E2E2E2E2E2E2E2E2E2E2E2E2E2E2E2E2E2F5F5F5E2E2E2E2E2E2E2E2E2E2E2E2E2E2E2E2E2E2E2E2F52DE2E2E2E228E2E2E2E2E2E2E2E2E2E2E2E2E2E2E2E2E2E2E2E2E2E2E2E2E2E2E2E2E2E2E2E2E2DCE2E2E2DCE2E2E2E2E2E2E2E2E2E2E2E2E2E2E2E2E2E2E2E2E2E2E2E2E2E2E2E2E2E2E2
310
E2E2E2E2E2E2DCE2DCE2E2E2E2E2E2E2E2E2E2DCDCE2E2DCE22DE2E2E2E2E2E2E2E2E2E2E2E2E2E2E2E2E2E2E2E2E2E2E2E2E2E2E2E2E2E2E228E22DF5E2E2E2E2E2E2E2E2E2E2E2E2E2E2E2E2E2E2E2E2F5F5F5E2E2E2E2E2E2E2E2E2E2E2E2E2E2E2E2E2E2E2E2F52DE2E2E2E228E2E2E2E2E2E2E2E2E2E2E2E2E2E2E2E2
310
E2E2E2E2E2E2E2E2E2E2E2E2E2E2E2E2DCDCE2E2E2DCE2E2E2E2E2E2E2E2E2E2E2E2E2E2E2E2E2E2E2E2E2E2E2E2E2E2E2E2E2E2E2E2E2E2E2E2E2DCE2DCE2E2E2E2E2E2E2E2E2E2DCDCDCE2DC2D2DE2E2E2E2E2E2E2E2E2E2E2E2E2E2E2E2E2E2E2E2E2E2E2E2E2E2E2E2E2E2E228E22DF5E2E2E2E2E2E2E2E2E2E2E2E2E2
310
E2E2E2E2E2E2E2F5F5F5E2E2E2E2E2E2E2E2E2E2E2E2E2E2E2E2E2E2E2E2F52DE2E2E2E228E2E2E2E2E2E2E2E2E2E2E2E2E2E2E2E2E2E2E2E2E2E2E2E2E2E2E2E2E2E2E2E2DCDCE2E2E2DCE2E2E2E2E2E2E2E2E2E2E2E2E2E2E2E2E2E2E2E2E2E2E2E2E2E2E2E2E2E2E2E2E2E2E2E2E2DCDCDCE2E2E2E2E2E2E2E2E2E2E2E2
310
E2E2E2E2E2E2E2E2E2E2E2E2E2E2E2E2E2E2E2E2E2E2E2E2E2E2E2E2E2E2E2E2E2E2E2E228E22DF5E2E2E2E2E2E2E2E2E2E2E2E2E2E2E2E2E2E2E2E2F5F5F5E2E2E2E2E2E2E2E2E2E2E2E2E2E2E2E2E2E2E2E2F52DE2E2E22D28E2E2E2E2E2E2E2E2E2E2E2E2E2E2E2E2E2E2E2E2E2E2E2E2E2E2E2E2E2E2E2E2DCDCE2E2E2
310
DCE2E2E2E2E2E2E2E2E2E2DCE2E2E2E2E2E2E2E2E2E2E2E2E2E2E2E2E2E2E2E2E2E2E2E2E2E2DCDCDCE2E2E2E2E2E2E2E2E2E2E2E2E2E2E2E2E2E2E2E2E2E2E2E2E2E2E2E2E2E2E2E2E2E2E2E2E2E2E2E2E2E2E2E2E2E2E2E228E22DF5E2E2E2E2E2E2E2E2E2E2E2E2E2E2E2E2E2E2E2E2F5F5F5E2E2E2E2E2E2E2E2E2E2E2
310
E2E2E2E2E2E2E2E2E2F52DE22D2D2D28E2E2E2E2E2E2E2E2E2E2E2E2E2E2E2E2E2E2E2E2E2E2E2E2E2E2E2E2E2E2E2E2E2DCE2E2E2DCE2E2E2E2E2E2E2E2E2E2E2DCE2E2E2E2E2E2E2E2E2E2E2E2E2E2E2E2E2E2E2E2E2E2E2E2E2DCE2DCE2E2E2E2E2E2E2E2E2E2E2E2E2E2E2E2E2E2E2E2E2E2E2E2E2E2E2E2E2E2E2E2E2
310
E2E2E2E2E2E2E2E2E2E2E2E2E2E2E228E22DF5E2E2E2E2E2E2E2E2E2E2E2E2E2E2E2E2E2E2E2E2F5F5F5E2E2E2E2E2E2E2E2E2E2E2E2E2E2E2E2E2E2E2E2F52DE2E2E22D28E2E2E2E2E2E2E2E2E2E2E2E2E2E2E2DCE2DCE2E2E2E2E2E2E2E2E2E2E2E2E2E2E2DCE2E2E2DCE2E2E2E2E2E2E2E2E2E2E2DCE2E2E2E2E2E2E2E2
310
E2E2E2E2E2E2E2E2E2E2E2E2E2E2E2E2E2DCE2DCE2E2E2E2E2E2E2E2E2E2E2DCE2E2E2E2E2E2E2E2E2E2E2E2E2E2E2E2E2E2E2E2E2E2E2E2E2E2E2E2E2E2E2E2E2E2E2E228E22DF5E2E2E2E2E2E2E2E2E2E2E2E2E2E2E2E2E2E2E2E2F5F5F5E2E2F5E2E2E2E2E2E2E2E2E2E2E2E2E2E2E2E2E2F52DE22DE22D28E2E2E2E2E2
310
E2E2E2E2E2E2DCDCDCDCDCDCDCDCE2E2E2E2E2E2E2E2E2E2E2E2E2E2DCE2E2E2E2DCE2E2E2E2E2E2E2E2E2E2E2DCE2E2E2E2E2E2E2E2E2E2E2E2E2E2E2E2E2E2E2E2E2E2E2E2DCE2DCE2E2E2E2E2E2E2E2E2E2DCDCDCE2E2E2E2E2E2E2E2E2E2E2E2E2E2E2E2E2E2E2E2E2E2E2E2E2E2E2E2E2E2E2E2E2E2E228E22DF5E2E2
310
E2E2E2E2E2E2E2E2E2E2E2E2E2E2E2F5E2E2F5F5F5E2E2F5E2E2E2E2E2E2E2E2E2E2E2E2E2E2E2E2E2F52DE22D2D2D28E2E2E2E2E2E2E2E2E2E2E2DCDCDCDCDCDCDCDCE2E2E2E2E2E2E2E2E2E2E2E2E2E2DCDCE2E2E2DCE22DE2E2E22DE2E2E2E2E2DCE2E2E2E2E2E2E2E2E2E2E2E2E2E2E2E2E2E22DE2E2E22DE2DCE2DCE2
310
E2E2E2E2E2E2E2E2E2DCDCDCE2E2E2E2E2E2E2E2E2E2E2E2E2E2E2E2E2E2E2E2E2E2E2E2E2E2E2E2E2E2E2E2E2E2E228E22DF5E2E2E2E2E2E2E2E2E2E2E2E2E2E2E2E2E2F5E2E2F5F5F5E2E2F5E2E2E2E2E2E2E2E2E2E2E2E2E2E2E2E2E2F52DE2E2E2E228E2E2E2E2E2E2E2E2E2E2E2DCDCDCDCDCDCDCDCE2E2E2E2E2E2E2
310
E2E2E2E2E2E2E2DCDCDCDCDCDCDCDCDCDCDCDCDCDCDCDCDCDCDCDCDCDCDCDCDCDCDCDCDCDCDCDCDCDCDCDCDCDCDCDCDCDCDCDCDCDCE2E2E2E2E2E2E2E2E2E2DCE2DCE2E2E2E2E2E2E2E2E2E2E2E2E2E2E2E2E2E2E2E2E2E2E2E2E2E2E2E2E2E2E2E2E2E228E22DF5E2E2E2E2E2E2E2E2E2E2E2E2E2E2E2E2E2F5E2E2F5F5F5
310
E2E2F5E2E2E2E2E2E2E2E2E2E2E2E2E2E2E2E2E2F52DE2E2E2E228E2E2E2E2E2E2E2E2E2E2E2E2DCDCE2E2E2E2E2E2E2E2E2E2E2E2E2E2E2E2E2E2E2DCDCDCDCDCDCDCDCF52DF5F5E2E2E2E2E2E2DCDCDCE2E2E2E2E2E2E2E2E2E2E2E2E2E2E2F5F5F5F5F5E2E2E2E2E2E2E2E2E2E2E2E2E2E2E2E2E2E2DCE2E2E2E2E2E2E2
310
E2E2E2E2E2E2E2E2E2E2E2E2E2E2E2E2E2E2E2E2E2E2E2E2E2E228E22DF5E2E2E2E2E2E2E2E2E2E2E2E2E2E2E2E2E2F5E2E2F5F5F5E2E2F5E2E2E2E2E2E2E2E2E2E2E2E2E2E2E2E2E2F52DE2E22DE228E2E2E2E2E2E2E2E2E2E2E2E2E2DCE2E2E2E2E2E2E2E2E2E2E2E2E2E2E2E2E2E2BEBEDCE2E2E2E2E2E2E2E2E2E2E2E2
310
E2E2E2DCE2DCDCE2E2E2E2E2E2E2E2E2E2E2E2E2E2E2E2E2E2E2E2E2E2E2E2E2E2E2E2E2E2E2E2E2E2E2E2E2E2E2DCE2E2E2E2E2E2E2E2DCE2E2E2E2E2E2E2E2E2E2E2E2E2E2E2E2E2E2E2E2E2E2E228E22DF5E2E2E2E2E2E2E2E2E2E2E2E2E2E2E2E2E2F5E2E2F5F5F5E2E2F5E2E2E2E2E2E2E2E2E2E2E2E2E2E2E2E2E2F5
310
2DE22D2D2D28E2E2E2E2E2E2E2E2E2E2E2E2E2E2DCE2E2E2E2E2E2E2E2E2E2E2E2E2E2E2E2E2BEBEE2E2E2E2E2E2E2E2E2E2E2E2E2E2E2E2E2DCDCDCE2E2E2E2E2E2E2E2E2E2E2E2E2E2E2E2E2E2E2E2E2E2E2E2E2E2E2E2E2E2E2E2E2E2E2E2E2E2E2DCE2E2E2E2E2E2E2DCDCE2E2E2E2E2E2E2E2E2E2E2E2E2E2E2E2E2E2
310
E2E2E2E2E228E22DF5E2E2E2E2E2E2E2E2E2E2E2E2E2E2E2E2E2F5E2E2F5F5F5E2E2F5E2E2E2E2E2E2E2E2E2E2E2E2E2E2E2E2E2F52DE2E22D2D28E2E2E2E2E2E2E2E2E2E2E2E2E2E2DCE2DCDCDCDCDCDCDCDCDCDCDCE2E2E2E2E2BEBEE2E2E2DCDCDCDCDCDCDCDCDCDCDCDCDCDCDCDCDCDCDCDCDCDCDCDCDCDCDCDCDCDCDC
310
DCDCDCDCDCDCDCDCE2E2E2E2E2E2E2E2E2E2E2DCDCDCDCDCDCDCDCDCDCDCDCDCDCDCDCE2E2E2E2E2E2E2E2E2E2E2E2E2E2E2E2E2E2E2E2E2E2E228E22DF5E2E2E2E2E2E2E2E2E2E2E2E2E2E2E2E2E2F5E2E2F5F5F5E2E2F5E2E2E2E2E2E2E2E2E2E2E2E2E2E2E2E2E2F52DE2E22D2D28E2E2E2E2E2E2E2E2E2E2E2E2E2E2E2
310
DCDCDCE2E2E2E2E2E2E2DCDCF5E2E2E2E2E2E2E2E2E2DCDCF5F52D2D2DF5F5E2E2E2E2E2E2E2E2E2E2E2E2E2E2E2E2E2E2E2E2E2E2F5F52D2DF5F5E2DCE2E2E2E2E2E2E2E2E2E2F5DCDCE2E2E2E2E2E2DCE2DCDCE2DCDCDCE2E2E2E2E2E2E2E2E2E2E2E2E2E2E2E2E2E2E2E2E2E2E228E22DF5E2E2E2E2E2E2E2E2E2E2E2E2
310
E2E2E2E2E2F5E2E2F5F5F5E2E2F5E2E2E2E2E2E2E2E2E2E2E2E2E2E2E2E2E2F52DE2E22D2D28E2E2E2E2E2E2E2E2E2E2E2E2E2E2DC2D2DDCE2E2E2E2E2E2E2DCDCF5E2E2E2E2E2E2E2E2E2DCDCF52D2D2D2D2DF5E2E2E2E2E2E2E2E2E2E2E2E2E2E2E2E2E2E2E2E2E2E22D2D2D2D2D2DF5DCE2E2E2E2E2E2E2E2E2E2F5DCDC
310
E2E2E2E2E2E2DCDC2D2DDCDCDCDCE2E2E2E2E2E2E2E2E2E2E2E2E2E2E2E2E2E2E2E2E2E2E228E22DF5E2E2E2E2E2E2E2E2E2E2E2E2E2E2E2E2E2F5E2E2F5F5F5E2E2F5E2E2E2E2E2E2E2E2E2E2E2E2E2E2E2E2E2F52DE2E22DE228E2E2E2E2E2E2E2E2E2E2E2E2E2E2E2DCDCDCDCDCDCDCE2E2E2DCDCF5E2E2E2E2E2E2E2E2
310
E2DCDCF52D2D2D2D2DF5E2E2E2E2E2E2E2E2E2E2E2E2E2E2E2E2E2E2E2E2E2E2F52D2D2D2D2DF5DCE2E2E2E2E2E2E2E2E2E2F5DCDCE2E2E2E2E2E2DCDCDC2DE2E2DCDCE2E2E2E2E2E2E2E2E2E2E2E2E2E2E2E2E2E2E2E2E2E2E228E22DF5E2E2E2E2E2E2E2E2E2E2E2E2E2E2E2E2E2F5E2E2F5F5F5E2E2F5E2E2E2E2E2E2E2
310
E2E2E2E2E2E2E2E2E2E2F52DE2E2E2E228E2E2E2E2E2E2E2E2E2E2E2E2E2E2E2E2DCDCE2E2E2DCE2E2E2DCDCF5E2E2E2E2E2E2E2E2E2DCDCDCF52D2D2DF5F5E2E2E2E2E2E2E2E2E2E2E2E2E2E2E2E2E2E2E2E2E2E2F5F52D2DF5F5DCDCE2E2E2E2E2DCE2E2E2E2F5DCDCE2E2E2E2E2E2DCDCDCE2E2E2E2DCE2E2E2E2E2E2E2
310
E2E2E2E2E2E2E2E2E2E2E2E2E2E2E2E228E22DF5E2E2E2E2E2E2E2E2E2E2E2E2E2E2E2E2E2F5E2E2F5F5F5E2E2F5E2E2E2E2E2E2E2E2E2E2E2E2E2E2E2E2E2F52DE2E2E2E228E2E2E2E2E2E2E2E2E2E2E2E2E2E2E2E2DCDCE2E2E2DCE2E2E2DCDCE2E2E2E2E2E2E2E2E2E2DCDCE2E2E2E2E2E2E2E2E2E2E2E2E2E2E2E2E2E2
310
E2E2E2E2E2E2E2E2E2E2E2E2E2E2E2E2E2E2DCDCDCDCDCDCDCE2E2E2E2E2DCDCE2E2E2E2E2E2E2E2DCE2E2E2E2DCE2E2E2E2E2E2E2E2E2E2E2E2E2E2E2E2E2E2E2E2E2E2E228E22DF5E2E2E2E2E2E2E2E2E2E2E2E2E2E2E2E2E2F5E2E2F5F5F5E2E2F5E2E2E2E2E2E2E2E2E2E2E2E2E2E2E2E2E2F52DE22D2D2D28E2E2E2E2
310
E2E2E2E2E2E2E2E2E2E2E2E2DCDCE2E2E2DCE2E2E2DCDCE2E2DCDCE2E2E2E2E2DCDCDCE2E2E2E2E2E2E2E2E2E2E2E2E2E2E2E2E2E2E2E2E2E2E2E2E2E2E2E2E2E2E2E2E2E2E2E2DCE2DCDCDCDCDCDCE2E2E2E2DCDCE2E2E2E2E2E2E2E2DCE2E2E2E2DCE2E2E2E2E2E2E2E2E2E2E2E2E2E2E2E2E2E2E2E2E2E2E228E22DF5E2
310
E2E2E2E2E2E2E2E2E2E2E2E2E2E2E2E2F5E2E2F5F5F5E2E2F5E2E2E2E2E2E2E2E2E2E2E2E2E2E2E2E2E2F52DE2E2E2E228E2E2E2E2E2E2E2E2E2E2E2E2E2E2E2E2DCDCE2E2E2DCE2E2E2DCDCE2E2E2DCDCDCDCDCDCE2DCDCE2E2E2E2E2E2E2E2E2E2E2E2E2E2E2E2E2E2E2E2E2E2E2E2E2E2E2E2E2E2E2E2E2E2E2E2DCE2DC
310
DCDCDCDCE2E2E2E2E2DCDCE2E2E2E2E2E2E2E2DCE2E2E2E2DCE2E2E2E2E2E2E2E2E2E2E2E2E2E2E2E2E2E2E2E2E2E2E228E22DF5E2E2E2E2E2E2E2E2E2E2E2E2E2E2E2E2E2F5E2E2F5F5F5E2E2F5E2E2E2E2E2E2E2E2E2E2E2E2E2E2E2E2E2F52DE2E2E22D28E2E2E2E2E2E2E2E2E2E2E2E2E2E2E2E2DCDCE2E2E2DCE2E2E2
310
DCDCE2E2E2DCDCDCDCDCDCE2DCDCE2E2E2E2E2E2E2E2E2E2E2E2E2E2E2E2E2E2E2E2E2E2E2E2E2E2E2E2E2E2E2E2E2E2E2E2DCE2E2E2E2E2E2E2E2E2E2E2DCDCE2E2E2E2E2E2E2E2DCE2E2E2E2DCE2E2E2E2E2E2E2E2E2E2E2E2E2E2E2E2E2E2E2E2E2E2E228E22DF5E2E2E2E2E2E2E2E2E2E2E2E2E2E2E2E2E2F5E2E2F5F5
310
F5E2E2E2E2E2E2E2E2E2E2E2E2E2E2E2E2E2E2E2E2F52DE22D2D2D28E2E2E2E2E2E2E2E2E2E2E2E2E2E2E2E2DCDCE2E2E2DCE2E2E2DCDCE2E2E2DCDCDCDCDCDCE2DCDCE2E2E2E2E2E2E2E2E2E2E2E2E2E2E2E2E2E2E2E2E2E2E2E2E2E2E2E2E2E2E2E2E2E2E2E2DCE2E2E2E2E2E2E2E2E2E2E2DCDCE2E2E2E2E2E2E2E2DCE2
310
E2E2E2DCE2E2E2E2E2E2E2E2E2E2E2E2E2E2E2E2E2E2E2E2E2E2E228E22DF5E2E2E2E2E2E2E2E2E2E2E2E2E2E2E2E2E2E2E2E2F5F5F5E2E2E2E2E2E2E2E2E2E2E2E2E2E2E2E2E2E2E2E2F52DE22D2D2D28E2E2E2E2E2E2E2E2E2E2E2E2E2E2E2E2DCDCE2E2E2DCE2E2E2DCDCE2E2E2E2E2E2E2E2E2E2DCDCE2E2E2E2E2E2E2
310
E2E2E2E2E2E2E2E2E2E2E2E2E2E2E2E2E2E2E2E2E2E2E2E2E2E2E2E2E2DCE2E2E2E2E2E2E2E2E2E2E2DCDCE2E2E2E2E2E2E2E2DCE2E2E2E2DCE2E2E2E2E2E2E2E2E2E2E2E2E2E2E2E2E2E2E2E2E2E2E228E22DF5E2E2E2E2E2E2E2E2E2E2E2E2E2E2E2E2E2E2E2E2F5F5F5E2E2E2E2E2E2E2E2E2E2E2E2E2E2E2E2E2E2E2E2
310
F52DE22D2D2D28E2E2E2E2E2E2E2E2E2E2E2E2E2E2E2E2DCDCE2E2E2DCE2E2E2DCDCE2E2E2E2E2E2E2E2E2E2DCDCE2E2E2E2E2E2E2E2E2E2E2E2E2E2E2E2E2E2E2E2E2E2E2E2E2E2E2E2E2E2E2E2E2E2E2E2DCE2E2E2E2E2E2E2E2E2E2E2DCDCE2E2E2E2E2E2E2E2DCE2E2E2E2DCE2E2E2E2E2E2E2E2E2E2E2E2E2E2E2E2E2
310
E2E2E2E2E2E228E22DF5E2E2E2E2E2E2E2E2E2E2E2E2E2E2E2E2E2E2E2E2F5F5F5E2E2E2E2E2E2E2E2E2E2E2E2E2E2E2E2E2E2E2E2F52DE22D2D2D28E2E2E2E2E2E2E2E2E2E2E2E2E2E2E2E2DCDCE2E2E2DCE2E2E2DCDCE2E2E2E2E2E2E2E2E2E2DCDCE2E2E2E2E2E2E2E2E2E2E2E2E2E2E2E2E2E2E2E2E2E2E2E2E2E2E2E2
310
E2E2E2E2E2E2E2E2DCE2E2E2E2E2E2E2E2E2E2E2DCDCE2E2E2E2E2E2E2E2DCE2E2E2E2DCE2E2E2E2E2E2E2E2E2E2E2E2E2E2E2E2E2E2E2E2E2E2E228E22DF5E2E2E2E2E2E2E2E2E2E2E2E2E2E2E2E2E2E2E2E2F5F5F5E2E2E2E2E2E2E2E2E2E2E2E2E2E2E2E2E2E2E2E2F5DCDCDCDCDC28E2E2E2E2E2E2E2E2E2E2E2E2E2E2
310
E2E2DCDCDCDCDCDCE2E2E2DCDCE2E2E2E2E2E2E2E2E2E2DCDCE2E2E2E2E2E2E2E2E2E2E2E2E2E2E2E2E2E2E2E2E2E2E2E2E2E2E2E2E2E2E2E2E2E2E2E2DCE2E2E2E2E2E2E2E2E2E2E2DCDCE2E2E2E2E2E2E2E2DCE2E2DCDCDCE2E2E2E2E2E2E2E2E2E2E2E2E2E2E2E2E2E2E2E2E2E2E228E22DF5E2E2E2E2E2E2E2E2E2E2E2
310
E2E2E2E2E2E2E2E2E2F5F5F5E2E2E2E2E2E2E2E2E2E2E2E2E2E2E2E2E2E2E2E2F52DE22D2DE228E2E2E2E2E2E2E2E2E2E2E2E2E2E2E2DCDCDCDCDCDCDCE2E2E2DCDCE2E2DCE2E2E2E2E2E2E22D2D2D2D2D2D2D2D2D2D2D2D2D2D2D2D2D2D2D2D2D2D2D2D2D2D2D2D2D2D2D2D2D2D2D2D2D2DDC2DE2E2E2E2E2E2E2E2E2E2DC
310
DCE2DCDCE2E2E2E2E2DCE2E2DCDCDCE2E2E2E2E2E2E2E2E2E2E2E2E2E2E2E2E2E2E2E2E2E2E228E22DF5E2E2E2E2E2E2E2E2E2E2E2E2E2E2E2E2E2E2E2E2F5F5F5E2E2E2E2E2E2E2E2E2E2E2E2E2E2E2E2E2E2E2E2F52DE22D2D2D28E2E2E2E2E2E2E2E2E2E2E2E2E2E2E2E2DCDCDCDCDCDCE2E2E2DCDCE2DCDCDCE2E2E2E2
310
E2E2DCDCE2E2E2E2E2E2E2E2E2E2E2E2E2E2E2E2E2E2E2E2E2E2E2E2E2E2E2E2E2E2E2E2E2E2E2E2DCE2E2E2E2E2E2E2E2E2E2E2DCDCE2E2DCE2E2E2E2E2DCE2E2DCDCDCE2E2E2E2E2E2E2E2E2E2E2E2E2E2E2E2E2E2E2E2E2E2E228E22DF5E2E2E2E2E2E2E2E2E2E2E2E2E2E2E2E2E2E2E2E2F5F5F5E2E2E2E2E2E2E2E2E2
310
E2E2E2E2E2E2E2E2E2E2E2F52DE22D2DE228E2E2E2E2E2E2E2E2E2E2E2E2E2E2E2E2DCDCE2E2E2DCE2E2E2DCDCDCDCDCDCE2E2E2E2E2E2DCDCE2E2E2E2E2E2E2E2E2E2E2E2E2E2E2E2E2E2E2E2E2E2E2E2E2E2E2E2E2E2E2E2E2E2E2E2DCE2E2E2E2E2E2E2E2E2E2E2DCDCE2E2DCE2E2E2E2E2DCE2E2E2E2DCE2E2E2E2E2E2
310
E2E2E2E2E2E2E2E2E2E2E2E2E2E2E2E2E228E22DF5E2E2E2E2E2E2E2E2E2E2E2E2E2E2E2E2E2E2E2E2F5F5F5E2E2E2E2E2E2E2E2E2E2E2E2E2E2E2E2E2E2E2E2F52DE22D2D2D28E2E2E2E2E2E2E2E2E2E2E2E2E2E2E2E2DCDCE2E2E2DCE2E2DCDCDCE2E2DCE2E2E2E2E2E2E2DCDCE2E2E2E2E2E2E2E2E2E2E2E2E2E2E2E2E2
310
E2E2E2E2E2E2E2E2E2E2E2E2E2E2E2E2E2E2E2DCE2E2E2E2E2E2E2E2E2E2E2DCDCE2E2DCE2E2E2E2E2DCE2E2E2E2DCE2E2E2E2E2E2E2E2E2E2E2E2E2E2E2E2E2E2E2E2E2E2E228E22DF5E2E2E2E2E2E2E2E2E2E2E2E2E2E2E2E2E2E2E2E2F5F5F5E2E2F5E2E2E2E2E2E2E2E2E2E2E2E2E2E2E2E2E2F52DE2E22DE228E2E2E2
310
E2E2E2E2E2E2E2E2E2E2E2E2E2DCDCE2E2E2DCDCDCE2DCDCE2E2E2E2E2E2E2E2E2E2DCDCE2E2E2E2E2E2E2E2E2E2E2E2E2E2E2E2E2E2E2E2E2E2E2E2E2E2E2E2E2E2E2E2E2E2E2E2DCE2E2E2E2E2E2E2E2E2E2E2DCDCE2E2DCE2E2E2E2E2DCE2E2E2E2DCE2E2E2E2E2E2E2E2E2E2E2E2E2E2E2E2E2E2E2E2E2E2E228E22DF5
310
E2E2E2E2E2E2E2E2E2E2E2E2E2E2E2E2E2F5E2E2F5F5F5E2E2F5E2E2E2E2E2E2E2E2E2E2E2E2E2E2E2E2E2F52DE2E22DE228E2E2E2E2E2E2E2E2E2E2E2E2E2E2E2E2DCDCE2E2DCDCE2E2E2DCDCE2E2E2E2E2E2E2E2E2E2DCDCE2E2E2E2E2E2E2E2E2E2E2E2E2E2E2E2E2E2E2E2E2E2E2E2E2E2E2E2E2E2E2E2E2E2E2E2DCE2
310
E2E2E2E2E2E2E2E2E2E2DCDCE2E2DCE2E2E2E2E2DCE2E2E2E2DCE2E2E2E2E2E2E2E2E2E2E2E2E2E2E2E2E2E2E2E2E2E2E228E22DF5E2E2E2E2E2E2E2E2E2E2E2E2E2E2E2E2E2F5E2E2F5F5F5E2E2F5E2E2E2E2E2E2E2E2E2E2E2E2E2E2E2E2E2F52DE22D2D2D28E2E2E2E2E2E2E2E2E2E2E2E2E2E2E2E2DCDCE2E2E2DCE2E2
310
E2DCDCE2E2E2E2E2E2E2E2E2E2DCDCE2E2E2E2E2E2E2E2E2E2E2E2E2E2E2E2E2E2E2E2E2E2E2E2E2E2E2E2E2E2E2E2E2E2E2E2DCE2E2E2E2E2E2E2E2E2E2E2DCDCE2E2E2DCE2E2E2E2DCE2E2E2E2DCE2E2E2E2E2E2E2E2E2E2E2E2E2E2E2E2E2E2E2E2E2E2E228E22DF5E2E2E2E2E2E2E2E2E2E2E2E2E2E2E2E2E2F5E2E2F5
310
F5F5E2E2F5E2E2E2E2E2E2E2E2E2E2E2E2E2E2E2E2E2F52DE22D2DE228E2E2E2E2E2E2E2E2E2E2E2E2E2E2E2E2DCDCE2E2E2DCE2E2E2DCDCE2E2E2E2E2E2E2E2E2E2DCDCE2E2E2E2E2E2E2E2E2E2E2E2E2E2E2E2E2E2E2E2E2E2E2E2E2E2E2E2E2E2E2E2E2E2E2E2DCE2E2E2E2E2E2E2E2E2E2E2DCDCE2E2E2DCE2E2E2E2DC
310
E2E2E2E2DCE2E2E2E2E2E2E2E2E2E2E2E2E2E2E2E2E2E2E2E2E2E2E228E22DF5E2E2E2E2E2E2E2E2E2E2E2E2E2E2E2E2E2F5E2E2F5F5F5E2E2F5E2E2E2E2E2E2E2E2E2E2E2E2E2E2E2E2E2F52DE22D2DE228E2E2E2E2E2E2E2E2E2E2E2E2E2E2E2E2DCDCE2E2E2DCE2E2E2DCDCE2E2E2E2E2E2E2E2E2E2DCDCE2E2E2E2E2E2
310
E2E2E2E2E2E2E2E2E2E2E2E2E2E2E2E2E2E2E2E2E2E2E2E2E2E2E2E2E2E2DCE2E2E2E2E2E2E2E2E2E2E2DCDCE2E2E2DCE2E2E2E2DCE2E2E2E2DCE2E2E2E2E2E2E2E2E2E2E2E2E2E2E2E2E2E2E2E2E2E2E228E22DF5E2E2E2E2E2E2E2E2E2E2E2E2E2E2E2E2E2F5E2E2F5F5F5E2E2F5E2E2E2E2E2E2E2E2E2E2E2E2E2E2E2E2
310
E2F52DE22D2D2D28E2E2E2E2E2E2E2E2E2E2E2E2E2E2E2E2DCDCE2E2E2DCE2E2E2DCDCE2E2E2E2E2E2E2E2E2E2DCDCE2E2E2E2E2E2E2E2E2E2E2E2E2E2E2E2E2E2E2E2E2E2E2E2E2E2E2E2E2E2E2E2E2E2E2E2DCE2E2E2E2E2E2E2E2E2E2E2DCDCE2E2E2DCE2E2E2E2DCE2E2E2E2DCE2E2E2E2E2E2E2E2E2E2E2E2E2E2E2E2
310
E2E2E2E2E2E2E228E22DF5E2E2E2E2E2E2E2E2E2E2E2E2E2E2E2E2E2F5E2E2F5F5F5E2E2F5E2E2E2E2E2E2E2E2E2E2E2E2E2E2E2E2E2F52DE22D2DE228E2E2E2E2E2E2E2E2E2E2E2E2E2E2E2E2DCDCE2E2E2DCE2E2E2DCDCE2E2E2E2E2E2E2E2E2E2DCDCE2E2E2E2E2E2E2E2E2E2E2E2E2E2E2E2E2E2E2E2E2E2E2E2E2E2E2
310
E2E2E2E2E2E2E2E2E2DCE2E2E2E2E2E2E2E2E2E2E2DCDCE2E2E2DCE2E2E2E2DCE2E2E2E2DCE2E2E2E2E2E2E2E2E2E2E2E2E2E2E2E2E2E2E2E2E2E2E228E22DF5E2E2E2E2E2E2E2E2E2E2E2E2E2E2E2E2E2F5E2E2F5F5F5E2E2F5E2E2E2E2E2E2E2E2E2E2E2E2E2E2E2E2E2F52DE22D2D2D28E2E2E2E2E2E2E2E2E2E2E2E2E2
310
E2E2DCDCDCDCDCDCDCE2E2E2DCDCF5E2E2E2E2E2E2E2E2E2DCDCF5F52D2D2DF5F5E2E2E2E2E2E2E2E2E2E2E2E2E2E2E2E2E2E2E2E2E2E2F5DC2D2DDCF5F5DCE2E2E2E2E2E2E2E2E2E2F5DCDCE2E2E2DCE2E2E2E2DCDCE2E2E2DCE2E2E2E2E2E2E2E2E2E2E2E2E2E2E2E2E2E2E2E2E2E2E228E22DF5E2E2E2E2E2E2E2E2E2E2
310
E2E2E2E2E2E2E2F5E2E2F5F5F5E2E2F5E2E2E2E2E2E2E2E2E2E2E2E2E2E2E2E2E2F52DE22D2D2D28E2E2E2E2E2E2E2E2E2E2E2E2E2E2DCDC2DDCE2E2E2E2E2E2E2DCDCF5E2E2E2E2E2E2E2E2E2DCDCF52D2D2D2D2DF5E2E2E2E2E2E2E2E2E2E2E2E2E2E2E2E2E2E2E2E2E2E22D2D2D2D2D2DF5DCE2E2E2E2E2E2E2E2E2E2F5
310
DCDCE2E2E2DCE2E2E2E22DDCDCDCDCDCE2E2E2E2E2E2E2E2E2E2E2E2E2E2E2E2E2E2E2E2E2E2E228E22DF5E2E2E2E2E2E2E2E2E2E2E2E2E2E2E2E2E2F5E2E2F5F5F5E2E2F5E2E2E2E2E2E2E2E2E2E2E2E2E2E2E2E2E2F52DE2E22D2D28E2E2E2E2E2E2E2E2E2E2E2E2E2E2E2DC2DDCE2E2E2E2E2E2E2DCDCF5E2E2E2E2E2E2
310
E2E2E2DCDCDCF52D2D2D2DF5E2E2E2E2E2E2E2E2E2E2E2E2E2E2E2E2E2E2E2E2E2E2F52D2D2D2DF5F5DCE2E2E2E2E2E2E2E2E2E2F5DCDCE2E2E2DCE2E2E2E22DDCE2DCDCDCE2E2E2E2E2E2E2E2E2E2E2E2E2E2E2E2E2E2E2E2E2E2E228E22DF5E2E2E2E2E2E2E2E2E2E2E2E2E2E2E2E2E2F5E2E2F5F5F5E2E2F5E2E2E2E2E2
310
E2E2E2E2E2E2E2E2E2E2E2E2F52DE22D2D2D28E2E2E2E2E2E2E2E2E2E2E2E2E2E2E2E2DCDCE2E2E2E2E2E2E2DCDCF5E2E2E2E2E2E2E2E2E2DCDCF5F5F52DF5F5F5E2E2E2E2E2E2E2E2E2E2E2E2E2E2E2E2E2E2E2E2E2E2F5DCF52DDCDCE2DCE2E2E2E2E2E2E2E2E2E2F5DCDCE2E2E2DCE2E2E2E2DCE2E2DCDCDCE2E2E2E2E2
310
E2E2E2E2E2E2E2E2E2E2E2E2E2E2E2E2E2E228E22DF5E2E2E2E2E2E2E2E2E2E2E2E2E2E2E2E2E2F5E2E2F5F5F5E2E2F5E2E2E2E2E2E2E2E2E2E2E2E2E2E2E2E2E2F52DE22DE2E228E2E2E2E2E2E2E2E2E2E2E2E2E2E2E2E2DCDCDCDCDCDCDCDCDCDCE2E2E2E2E2E2E2E2E2E2E2DCDCDCDCDCDCDCDCDCDCDCDCDCDCDCDCDCDC
310
DCDCDCDCDCDCDCDCDCDCDCDCDCDCDCDCDCDCDCDCDCE2E2E2E2E2E2E2E2E2E2E2E2DCDCDCDCDCDCDCDCDCDCDCDCDCDCDCE2E2E2E2E2E2E2E2E2E2E2E2E2E2E2E2E2E2E2E2E2E2E228E22DF5E2E2E2E2E2E2E2E2E2E2E2E2E2E2E2E2E2F5E2E2F5F5F5E2E2F5E2E2E2E2E2E2E2E2E2E2E2E2E2E2E2E2E2F52DE22D2D2D28E2E2
310
E2E2E2E2E2E2E2E2E2E2E2E2E2E2E2E2E2E2E2E2E2E2E2E2E2E2E2DCDCE2E2E2E2E2DCDCE2E2E2E2E2E2E2E2E2E2E2E2E2E2E2E2E2E2E2E2E2E2E2E2E2E2E2E2E2E2E2E2E2E2E2E2E2DCDCE2E2E2E2E2E2E2E2E2E2E2E2E2E2E2E2DCE2E2E2E2E2E2E2DCDCE2E2E2E2E2E2E2E2E2E2E2E2E2E2E2E2E2E2E2E2E2E2E228E22D
310
F5E2E2E2E2E2E2E2E2E2E2E2E2E2E2E2E2E2F5E2E2F5F5F5E2E2F5E2E2E2E2E2E2E2E2E2E2E2E2E2E2E2E2E2F52DE22D2D2D28E2E2E2E2E2E2E2E2E2E2E2E2E2E2E2E2E2E2E2E2E2E2E2E2E2E2E2E2E2E2DCDCDCDCDCDCE2DCE2E2E2E2E2E2E2E2E2E2E2E2E2E2E2E2E2E2E2E2E2E2E2E2E2E2E2E2E2E2E2E2E2E2E2E2E2DC
310
E2DCE2E2E2E2DCE2E2E2E2E2E2E2E2E2E2DCE2E2E2E2E2E2E2E2DCE2E2E2E2E2E2E2E2E2E2E2E2E2E2E2E2E2E2E2E2E2E2E228E22DF5E2E2E2E2E2E2E2E2E2E2E2E2E2E2E2E2E2F5E2E2F5F5F5E2E2F5E2E2E2E2E2E2E2E2E2E2E2E2E2E2E2E2E2F52DE22D2DE228E2E2E2E2E2E2E2E2E2E2E2E2E2E2E2E2E2E2E2E2E2E2E2
310
E2E2E2E2E2E2E2DCDCDCDCDCDCE2DCDCDCDCDCDCDCDCDCDCDCDCDCDCDCDCDCDCDCDCDCDCDCDCDCDCDCDCDCDCDCDCDCDCDCDCDCDCDCE2E2DCDCDCDCDCE2E2E2E2E2E2E2E2E2E2DCE2E2E2E2E2E2E2E2E2E2E2E2E2E2E2E2E2E2E2E2E2E2E2E2E2E2E2E2E2E2E2E228E22DF5E2E2E2E2E2E2E2E2E2E2E2E2E2E2E2E2E2F5E2E2
310
F5F5F5E2E2E2E2E2E2E2E2E2E2E2E2E2E2E2E2E2E2E2E2F52DE22D2D2D28E2E2E2E2E2E2E2E2E2E2E2E2E2E2E2E2E2E2E2E2E2E2E2E2E2E2E2E2E2E2DCDCDCDCDCDCE2DCDCE2E2E2E2E2E2E2E2E2E2E2E2E2DCDCDCDCDCE2E2E2E2E2E2E2E2E2E2E2E2E2E2E2E2E2DCDCE2E2DCDCDCDCDCDCE2E2E2E2E2E2E2E2DCDCE2E2E2
310
E2E2E2E2E2E2E2E2E2E2E2E2E2E2E2E2E2E2E2E2E2E2E2E2E2E2E2E2E228E22DF5E2E2E2E2E2E2E2E2E2E2E2E2E2E2E2E2E2E2E2E2F5F5F5E2E2E2E2E2E2E2E2E2E2E2E2E2E2E2E2E2E2E2E2F52DE22D2DE228E2E2E2E2E2E2E2E2E2E2E2E2E2E2E2E2E2E2E2E2E2E2E2E2E2E2E2E2E2E2E2E2E2E2E2E2E2E2E2E2E2E2E2E2
310
E2E2E2E2E2E2E2E2E2E2E2E2E2E2E2E2E2E2E2E2E2E2E2E2E2E2E2E2E2E2E2E2E2E2DCDCDCDCDCE2E2E2E2E2E2E2E2DCDCDCDCE2E2E2E2E2E2E2E2E2E2E2E2E2E2E2E2E2E2E2E2E2E2E2E2E2E2E2E2E2E2E228E22DF5E2E2E2E2E2E2E2E2E2E2E2E2E2E2E2E2E2E2E2E2F5F5F5E2E2E2E2E2E2E2E2E2E2E2E2E2E2E2E2E2E2
310
E2E2F52DE22D2D2D28E2E2E2E2E2E2E2E2E2E2E2E2E2E2E2E2E2E2E2E2E2E2E2E2E2E2E2E2E2E2E2E2E2E2E2E2E2E2E2E2E2E2E2E2E2E2E2E2E2E2E2E2E2E2E2E2E2E2E2E2E2E2E2E2E2E2E2E2E2E2E2E2E2E2E2E2E2E2E2E2E2E2E2E2E2E2E2E2E2E2E2E2DCDCE2E2E2E2E2E2E2E2E2E2E2E2E2E2E2E2E2E2E2E2E2E2E2E2
310
E2E2E2E2E2E2E2E228E22DF5E2E2E2E2E2E2E2E2E2E2E2E2E2E2E2E2E2E2E2E2F5F5F5E2E2E2E2E2E2E2E2E2E2E2E2E2E2E2E2E2E2E2E2F52DE2E2E2E2DCDCDCDCDCDCDCDCDCDCDCDCDCDCDCDCDCDCDCDCDCDCDCDCDCDCDCDCDCDCDCDCDCDCDCDCDCDCDCDCDCDCDCDCDCE2E2E2E2E2E2E2E2E2E2E2E2E2E2E2E2E2E2E2E2E2
310
E2E2E2E2E2E2E2E2E2E2E2E2E2E2E2E2E2E2E2E2E2E2E2E2E2E2E2E2E2E2E2E2E2E2E2E2E2E2E2E2E2E2E2E2E2E2E2E2E2E2E2E2E2E2E2E2E2E2E2E2E228E22DF5E2E2E2E2E2E2E2E2E2E2E2E2E2E2E2E2E2E2E2E2F5F5F5E2E2E2E2E2E2E2E2E2E2E2E2E2E2E2E2E2E2E2E2F52DE2E2E2E2DCDCDCDCDCDCDCDCDCE2E2E2E2
310
E2DCE2E2DCDCDCDCDCDCDCDCDCDCDCDCDCDCDCDCDCDCDCDCDCDCDCDCE2E2E2DCE2E2E2E2E2E2E2E2E2E2E2E2E2E2E2E2E2E2E2E2E2E2E2E2E2E2E2E2E2E2E2E2E2E2E2E2E2E2E2E2E2E2E2E2E2E2E2E2E2E2E2E2E2E2E2E2E2E2E2E2E2E2E2E2E2E2E2E2E2E2E2E2E2E2E2E2E2E2E2E2E2E228E22DF5E2E2E2E2E2E2E2E2E2
310
E2E2E2E2E2E2E2E2E2E2E2F5F5F5E2E2E2E2E2E2E2E2E2E2E2E2E2E2E2E2E2E2E2E2F52DE2E2E2E2DCDCDCDCDCDCDCDCDCDCDCDCDCDCDCDCDCDCDCDCDCDCDCDCDCDCDCDCDCDCDCDCDCDCDCDCDCDCDCDCDCDCDCDCDCE2E2E2E2E2E2E2E2E2E2E2E2E2E2E2E2E2E2E2E2E2E2E2E2E2E2E2E2E2E2E2E2E2E2E2E2E2E2E2E2E2E2
310
E2E2E2E2E2E2E2E2E2E2E2E2E2E2E2E2E2E2E2E2E2E2E2E2E2E2E2E2E2E2E2E2E2E2E2E2E2E2E2E228E22DF5E2E2E2E2E2E2E2E2E2E2E2E2E2E2E2E2E2E2E2E2F5F5F5E2E2E2E2E2E2E2E2E2E2E2E2E2E2E2E2E2E2E2E2F52DE2E2E2E2DCDCDCDCDCDCDCDCDCDCDCDCE2E2DCE2E2DCDCDCDCDCDCDCDCDCDCE2E2E2E2E2E2E2
310
E2DCDCDCDCDCDCE2E2E2DCE2E2E2E2E2E2E2E2E2E2E2E2E2E2E2E2E2E2E2E2E2E2E2E2E2E2E2E2E2E2E2E2E2E2E2E2E2E2E2E2E2E2E2E2E2E2E2E2E2E2E2E2E2E2E2E2E2E2E2E2E2E2E2E2E2E2E2E2E2E2E2E2E2E2E2E2E2E2E2E2E2E228E22DF5E2E2E2E2E2E2E2E2E2E2E2E2E2E2E2E2E2E2E2E2F5F5F5E2E2E2E2E2E2E2
310
E2E2E2E2E2E2E2E2E2E2E2E2E2F52DE2E2E2E2DCDCDCDCDCDCDCDCDCDCDCDCDCDCDCDCDCDCDCDCDCDCDCDCDCDCDCDCDCDCDCDCDCDCDCDCDCDCDCDCDCDCDCDCDCE2E2E2E2E2E2E2E2E2E2E2E2E2E2E2E2E2E2E2E2DCDCDCDCDCDCDCDCDCDCDCDCDCDCDCDCDCDCDCDCDCDCDCDCDCDCDCE2E2E2E2E2E2E2E2E2E2E2E2E2E2E2E2
310
E2E2E2E2E2E2E2E2E2E2E2E2E2E2E2E2E2E2E228E22DF5E2E2E2E2E2E2E2E2E2E2E2E2E2E2E2E2E2E2E2E2F5F5F5E2E2F5E2E2E2E2E2E2E2E2E2E2E2E2E2E2E2E2E2F52DE2E2E2E2DCDCDCDCDCDCDCDCDCDCDCDCDCE2DCE2E2DCDCDCDCDCDCDCE2E2E2E2E2E2E2E2E2E2E2DCDCDCE2DCDCE2E2E2DCE2E2E2E2E2E2E2E2E2E2
310
E2E2E2E2E2E2E2E2E2E2E2E2E2E2E2E2E2E2E2E2E2E2E2E2E2E2E2E2E2E2E2E2E2E2E2E2E2E2E2E2E2E2E2E2E2E2E2E2E2E2E2E2E2E2E2E2E2E2E2E2E2E2E2E2E2E2E2E2E2E2E2E228E22DF5E2E2E2E2E2E2E2E2E2E2E2E2E2E2E2E2E2F5E2E2F5F5F5E2E2F5E2E2E2E2E2E2E2E2E2E2E2E2E2E2E2E2E2F52DE2E2E2E2DCDC
310
DCDCDCDCDCDCDCDCDCDCDCDCDCDCDCDCDCDCDCDCDCDCDCDCDCDCDCDCDCDCDCDCDCDCDCDCDCDCDCDCDCDCDCE2E2E2E2E2E2E2E2E2E2E2E2E2E2E2E2E2E2E2E2E2E2E2E2E2DCDCDCDCDCDCDCDCDCDCDCDCE2E2E2E2E2E2E2E2E2E2E2E2E2E2E2E2E2E2E2E2E2DCE2E2E2E2E2E2E2E2E2E2E2E2E2E2E2E2E2E2E2E2E2E2E228E2
310
2DF5E2E2E2E2E2E2E2E2E2E2E2E2E2E2E2E2E2F5E2E2F5F5F5E2E2F5E2E2E2E2E2E2E2E2E2E2E2E2E2E2E2E2E2F52DE2E2E2E228DCDCDCE2E2E2E2E2E2E2E2E2E2DCE2E2E2E2E2E2E2E2E2E2E2E2E2E2E2E2E2E2E2E2DCDCDCE2E2DCE2E2E2DCE2E2E2E2E2E2E2E2E2E2E2E2E2E2E2E2E2E2E2E2E2E2E2E2DCDCDCDCDCDCDC
310
DCDCDCDCDCDCDCDCDCDCDCDCDCDCE2E2E2E2E2E2E2E2E2E2E2E2E2DCE2E2E2E2E2E2E2E2E2E2E2E2E2E2E2E2E2E2E2E2E2E2E228E22DF5E2E2E2E2E2E2E2E2E2E2E2E2E2E2E2E2E2F5E2E2F5F5F5E2E2F5E2E2E2E2E2E2E2E2E2E2E2E2E2E2E2E2E2F52DE2E2E2E2DCDCDCDCDCDCDCDCDCDCDCDCDCDCDCDCDCDCDCDCDCDCDC
310
DCDCDCDCDCDCDCDCDCDCDCDCDCDCDCDCDCDCDCDCDCDCE2E2E2E2E2E2E2E2E2E2E2E2E2E2E2E2E2E2E2E2E2E2E2E2DCE2DCE2E2DCDCDCDCDCDCDCDCDCE2E2E2E2E2E2E2E2E2E2E2E2E2E2E2E2E2E2E2E2DCE2E2E2E2E2E2E2E2E2E2E2E2E2E2E2E2E2E2E2E2E2E2E228E22DF5E2E2E2E2E2E2E2E2E2E2E2E2E2E2E2E2E2F5E2
310
E2F5F5F5E2E2F5E2E2E2E2E2E2E2E2E2E2E2E2E2E2E2E2E2F52DE2E2E2E2DCDCDCDCDCDCDCDCDCDCDCDCDCDCDCDCDCDCDCDCDCDCDCDCDCDCDCDCDCDCDCDCDCDCDCDCDCDCDCDCDCDCDCDCDCE2E2E2E2E2E2E2E2E2E2E2E2E2E2E2E2E2E2E2E2E2E2E2E2DCDCDCDCDCDCDCDCE2E2E2E2E2E2E2E2E2E2E2E2E2E2E2E2E2E2E2E2
310
E2E2E2E2E2E2DCDCDCDCDCDCDCDCDCDCDCDCDCDCDCDCDCDCDCDCDCDCDCDCDCE22DF5E2E2E2E2E2E2E2E2E2E2E2E2E2E2E2E2E2F5E2E2F5F5F5E2E2F5E2E2E2E2E2E2E2E2E2E2E2E2E2E2E2E2E2F52DE2E2E2E228DCDCDCDCDCDCDCDCDCDCDCDCE2DCE2E2DCDCDCDCDCDCDCDCDCDCDCDCE2E2E2E2E2E2DCDCDCE2DCDCE2E2E2
310
DCE2E2E2E2E2E2E2E2E2E2E2E2E2E2E2E2E2E2E2E2E2E2E2E2DCDCDCDCDCDCDCDCE2E2E2E2E2E2E2E2E2E2E2E2E2E2E2E2E2E2E2E2E2E2E2E2E2E2DCE2E2DCBEBEBEBEBEBEBEBEBEBEBEBEBEBEBEBEBEBEBEE228E22DF5E2E2E2E2E2E2E2E2E2E2E2E2E2E2E2E2E2F5E2E2F5F5F5E2E2F5E2E2E2E2E2E2E2E2E2E2E2E2E2E2
310
E2E2E2F52DE2E2E2E2DCDCDCDCDCDCDCDCDCDCDCDCDCDCDCDCDCDCDCDCDCDCDCDCDCDCDCDCDCDCDCDCDCDCDCDCDCDCDCDCDCDCDCDCDCE2E2E2E2E2E2E2E2E2E2E2E2E2E2E2F5F5F5F5F5F5F5F5F5DCDCDCDCDCDCDCDCDCE2E2E2E2E2E2E2E2E2E2E2E2E2E2E2E2E2E2E2E2E2E2E2E2E2DCDCE2DCE2E2E2E2E2E2E2E2E2E2E2
310
E2E2E2E2E2E2E2E2DCDCE22DF5E2E2E2E2E2E2E2E2E2E2E2E2E2E2E2E2E2F5E2E2F5F5F5E2E2F5E2E2E2E2E2E2E2E2E2E2E2E2E2E2E2E2E2F52DE2E2E2E228DCDCDCDCDCDCDCE2E2E2E2E2E2DCE2E2DCDCDCDCDCDCDCDCDCDCDCDCDCE2E2E2E2E2DCDCDCE2DCDCE2E2E2DCE2E2E2E2E2E2E2E2E2E2E2E2E2E2E2F5BEBEBEBE
310
BEBEBEBEBEBEBEBEDCDCDCDCDCE2E2E2E2E2E2E2E2E2E2E2E2E2E2E2E2E2E2E2E2E2E2E2E2E2DCE2E2DCBEBEBEBEBEBEBEE2E2E2E2E2E2E2E2E2E2E2E2E228E22DF5E2E2E2E2E2E2E2E2E2E2E2E2E2E2E2E2E2F5E2E2F5F5F5E2E2F5E2E2E2E2E2E2E2E2E2E2E2E2E2E2E2E2E2F52DE2E2E2E2DCDCDCDCDCDCDCDCDCDCDCDC
310
DCDCDCDCDCDCDCDCDCDCDCDCDCDCDCDCDCDCDCDCDCDCDCDCDCDCDCDCDCDCDCDCDCE2E2E2E2E2E2E2E2E2E2E2E2E2E2E2BEBEBEBEBEBEBEBEDCBEBEBEBEE2E2E2E2E2E2E2E2E2E2E2E2E2E2E2E2E2E2E2E2E2E2E2E2E2E2E2E2E2E2DCDCE2DCBEBEBEBEBEBEBEBEBEBEBEBEBEBEBEBEBEE2E2DCDCE22DF5E2E2E2E2E2E2E2E2
310
E2E2E2E2E2E2E2E2E2F5E2E2F5F5F5E2E2F5E2E2E2E2E2E2E2E2E2E2E2E2E2E2E2E2E2F52DE2E2E2E228DCDCDCDCDCDCDCDCDCDCDCE2E2DCE2E2DCDCDCDCDCDCDCDCDCDCDCDCE2E2E2E2E2E2DCDCDCE2DCDCE2E2E2DCE2E2E2E2E2E2E2E2E2E2E2E2E2E2E2BEBEBEF5F5F5F5DCDCF5DCDCDCDCDCDCDCDCDCE2E2E2E2E2E2E2
310
E2E2E2E2E2E2E2E2E2E2E2E2E2E2E2E2E2DCE2E2DCBEBEBEBEBEBEBEBEBEBEBEBEBEBEBEBEBEE2E2E228E22DF5E2E2E2E2E2E2E2E2E2E2E2E2E2E2E2E2E2F5E2E2F5F5F5E2E2F5E2E2E2E2E2E2E2E2E2E2E2E2E2E2E2E2E2F52DE2E2E2E2DCDCDCDCDCDCDCDCDCDCDCDCDCDCDCDCDCDCDCDCDCDCDCDCDCDCDCDCDCDCDCDCDC
310
DCDCDCDCDCDCDCDCDCDCDCDCE2E2E2E2E2E2E2E2E2E2E2E2E2E2E2E2E2E2E2E2E2E2E2E2DCDCDCDCDCDCDCDCDCDCE2E2E2E2E2E2E2E2E2E2E2E2E2E2E2E2E2E2E2E2E2E2E2E2DCDCDCDCDCDCDCDCDCDCDCDCDCDCDCDCDCDCDCDCDCDCDCDCDCE22DF5E2E2E2E2E2E2E2E2E2E2E2E2E2E2E2E2E2F5E2E2F5F5F5E2E2F5E2E2E2
310
E2E2E2E2E2E2E2E2E2E2E2E2E2E2F52DE2E2E2E228DCDCDCDCDCDCE2E2E2E2E2E2E2DCE2E2DCDCDCDCDCDCDCDCDCDCDCDCE2E2E2E2E2E2DCDCDCE2DCDCE2E2E2DCE2E2E2E2E2E2E2E2E2E2E2E2E2E2E2E2E2E2DCDCDCDCDCDCDCE2E2E2E2E2E2E2E2E2E2E2E2E2E2E2E2E2E2E2E2E2E2E2E2E2E2E2E2E2E2E2E2E2DCDCDCDC
310
DCDCDCDCDCDCDCDCDCDCDCDCDCDCDCDCDCDCDCE228E22DF5E2E2E2E2E2E2E2E2E2E2E2E2E2E2E2E2E2F5E2E2F5F5F5E2E2F5E2E2E2E2E2E2E2E2E2E2E2E2E2E2E2E2E2F52DE2E2E2E2DCDCDCDCDCDCDCDCDCDCDCDCDCDCDCDCDCDCDCDCDCDCDCDCDCDCDCDCDCDCDCDCDCDCDCDCDCDCDCDCDCDCDCDCDCE2E2E2E2E2E2E2E2E2
310
E2E2E2E2E2E2E2E2E2E2E2E2E2E2E2E2E2E2E2E2E2E2E2E2E2E2E2E2E2E2E2E2E2E2E2E2E2E2E2E2E2E2E2E2E2E2E2E2E2DCDCDCDCDCDCDCDCDCDCDCDCDCDCDCDCDCDCDCDCDCDCDCDCDCE22DF5E2E2E2E2E2E2E2E2E2E2E2E2E2E2E2E2E2F5E2E2F5F5F5E2E2F5E2E2E2E2E2E2E2E2E2E2E2E2E2E2E2E2E2F52DE2E2E2E228
310
E2E2DCE2E2E2E2E2E2E2E2E2E2DCE2E2DCDCDCDCDCDCDCDCDCDCDCDCE2E2E2E2E2E2DCE2DCE2DCDCE2E2E2DCE2E2E2E2E2E2E2E2E2E2E2E2E2E2E2E2E2E2E2E2E2E2E2E2E2E2E2E2E2E2E2E2E2E2E2E2E2E2E2E2E2E2E2E2E2E2E2E2E2E2E2E2E2E2E2E2E2E2DCE2E2DCE2E2E2E2E2E2E2E2E2E2E2E2E2E2DCF5F5DCE2E228
310
E22DF5E2E2E2E2E2E2E2E2E2E2E2E2E2E2E2E2E2F5E2E2F5F5F5E2E2F5E2E2E2E2E2E2E2E2E2E2E2E2E2E2E2E2E2F52DE2E2E2E2DCDCF5DCF5DCDCDCDCDCDCDCF5F5DCF5F5F5F5F5F5F5DCDCDCDCDCDCF5F5F5F5F5F5F5DCDCDCDCF5DCDCDCDCF5E2E2E2E2E2E2E2E2E2E2E2E2E2E2E2E2E2E2E2E2E2E2E2E2E2E2E2E2E2E2
310
E2E2E2E2E2E2E2E2E2E2E2E2E2E2E2E2E2E2E2E2E2E2E2E2E2E2E2E2DCDCDCDCDCDCDCDCDCDCDCDCDCDCDCDCDCDCDCDCDCF5DCDCDCE22DF5E2E2E2E2E2E2E2E2E2E2E2E2E2E2E2E2E2F5E2E2F5F5F5E2E2E2E2E2E2E2E2E2E2E2E2E2E2E2E2E2E2E2E2F52DE2E2E2E2282828DC28282828282828282828DC28282828282828
310
28282828282828282828282828DCDCDC2828DC282828F528282828282828282828282828282828282828282828282828282828282828282828282828282828282828282828282828282828282828282828DC2828DC2828282828282828282828282828DC2828DC282828E22DF5E2E2E2E2E2E2E2E2E2E2E2E2E2E2E2E2E2E2
310
E2E2F5F5F5E2E2E2E2E2E2E2E2E2E2E2E2E2E2E2E2E2E2E2E2F52DE2E2E2E2E2E2E2E2E2E2E2E2E2E2E2E2E2E2E2E2E2E2E2E2E2E2E2E2E2E2E2E2E2E2E2E2E2E2E2E2E2E2E2E2E2E2E2E2E2E2E2E2E2E2E2E2E2E2E2E2E2E2E2E2E2E2E2E2E2E2E2E2E2E2E2E2E2E2E2E2E2E2E2E2E2E2E2E2E2E2E2E2E2E2E2E2E2E2E2E2
310
E2E2E2E2E2E2E2E2E2E2E2E2E2E2E2E22D2D2D2DE22D2D2D2DE22D2D2D2DE2E2E22DF5E2E2E2E2E2E2E2E2E2E2E2E2E2E2E2E2E2E2E2E2F5F5F5E2E2E2E2E2E2E2E2E2E2E2E2E2E2E2E2E2E2E2E2F52DE2E2E2E2E2E2E2E2E2E2E2E2E2E2E2E2E2E2E2E2E2E2E2E2E2E2E2E2E2E2E2E2E2E2E2E2E2E2E2E2E2E2E2E2E2E2E2
310
E2E2E2E2E2E2E2E2E2E2E2E2E2E2E2E2E2E2E2E2E2E2E2E2E2E2E2E2E2E2E2E2E2E2E2E2E2E2E2E2E2E2E2E2E2E2E2E2E2E2E2E2E2E2E2E2E2E2E2E2E2E2E22D2D2D2D2DE22D2D2D2DE22D2D2D2DE22D2D2D2DE2E2E22DF5E2E2E2E2E2E2E2E2E2E2E2E2E2E2E2E2E2E2E2E2F5F5F5E2E2E2E2E2E2E2E2E2E2E2E2E2E2E2E2
310
E2E2E2E2F52DE2E2E2E2E2E2E2E2E2E2E2E2E2E2E2E2E2E2E2E2E2E2E2E2E2E2E2E2E2E2E2E2E2E2E2E2E2E2E2E2E2E2E2E2E2E2E2E2E2E2E2E2E2E2E2E2E2E2E2E2E2E2E2E2E2E2E2E2E2E2E2E2E2E2E2E2E2E2E2E2E2E2E2E2E2E2E2E2E2E2E2E2E2E2E2E2E2E2E2E2E2E2E2E2E2E2E2E2E2E22D2D2D2D2DE22D2D2D2DE2
310
2D2D2D2DE22D2D2D2DE2E2E22DF5E2E2E2E2E2E2E2E2E2E2E2E2E2E2E2E2E2E2E2E2F5F5F5E2E2E2E2E2E2E2E2E2E2E2E2E2E2E2E2E2E2E2E2F5F5F5F5F5F5F5F5F5F5F5F5F5F5F5F5F5F5F5F5F5F5F5F5F5F5F5F5F5F5F5F5F5F5F5F5F5F5F5F5F5F5F5F5F5F5F5F5F5F5F5F5F5F5F5F5F5F5F5F5F5F5F5F5F5F5F5F5F5F5
310
F5F5F5F5F5F5F5F5F5F5F5F5F5F5F5F5F5F5F5F5F5F5F5F5F5F5F5F5F5F5F5F5F5F5F5F5F5F5F5F5F5F5F5F5F5F5F5F5F5F5F5F5F5F5F5F5F5F5F5F5F5F5F5F5F5F5F5E2E2E2E2E2E2E2E2E2E2E2E2E2E2E2E2E2E2E2E2F5F5F5E2E2E2E2E2E2E2E2E2E2E2E2E2E2E2E2E2E2E2E2E2E2E2E2E2E2E2E2E2E2E2E2E2E2E2E2E2
310
E2E2E2E2E2E2E2E2E2E2E2E2E2E2E2E2E2E2E2E2E2E2E2E2E2E2E2E2E2E2E2E2E2E2E2E2E2E2E2E2E2E2E2E2E2E2E2E2E2E2E2E2E2E2E2E2E2E2E2E2E2E2E2E2E2E2E2E2E2E2E2E2E2E2E2E2E2E2E2E2E2E2E2E2E2E2E2E2E2E2E2E2E2E2E2E2E2E2E2E2E2E2E2E2E2E2E2E2E2E2E2E2E2E2E2E2E2E2E2E2E2E2E2E2E2E2E2
310
E2E2E2E2E2E2E2E2E2E2E2E2E2F5F5F5E2E2E2E2E2E2E2E2E2E2E2E2E2E2E2E2E2E2E2E2E2E2E2E2E2E2E2E2E2E2E2E2E2E2E2E2E2E2E2E2E2E2E2E2E2E2E2E2E2E2E2E2E2E2E2E2E2E2E2E2E2E2E2E2E2E2E2E2E2E2E2E2E2E2E2E2E2E2E2E2E2E2E2E2E2E2E2E2E2E2E2E2E2E2E2E2E2E2E2E2E2E2E2E2E2E2E2E2E2E2E2
310
E2E2E2E2E2E2E2E2E2E2E2E2E2E2E2E2E2E2E2E2E2E2E2E2E2E2E2E2E2E2E2E2E2E2E2E2E2E2E2E2E2E2E2E2E2E2E2E2E2E2E2E2E2E2E2E2E2E2E2E2E2E2E2E2E2E2F5F5F5E2E2E2E2E2E2E2E2E2E2E2E2E2E2E2E2E2E2E2E2E2E2E2E2E2E2E2E2E2E2E2E2E2E2E2E2E2E2E2E2E2E2E2E2E2E2E2E2E2E2E2E2E2E2E2E2E2E2
310
E2E2E2E2E2E2E2E2E2E2E2E2E2E2E2E2E2E2E2E2E2E2E2E2E2E2E2E2E2E2E2E2E2E2E2E2E2E2E2E2E2E2E2E2E2E2E2E2E2E2E2E2E2E2E2E2E2E2E2E2E2E2E2E2E2E2E2E2E2E2E2E2E2E2E2E2E2E2E2E2E2E2E2E2E2E2E2E2E2E2E2E2E2E2E2E2E2E2E2E2E2E2E2E2E2E2E2E2E2E2E2E2E2E2E2E2E2E2E2F5F5F5E2E2E2E2E2
310
E2E2E2E2E2E2E2E2E2E2E2E2E2E2E2E2E2E2E2E2E2E2E2E2E2E2E2E2E2E2E2E2E2E2E2E2E2E2E2E2E2E2E2E2E2E2E2E2E2E2E2E2E2E2E2E2E2E2E2E2E2E2E2E2E2E2E2E2E2E2E2E2E2E2E2E2E2E2E2E2E2E2E2E2E2E2E2E2E2E2E2E2E2E2E2E2E2E2E2E2E2E2E2E2E2E2E2E2E2E2E2E2E2E2E2E2E2E2E2E2E2E2E2E2E2E2E2
310
E2E2E2E2E2E2E2E2E2E2E2E2E2E2E2E2E2E2E2E2E2E2E2E2E2E2E2E2E2E2E2E2E2E2E2E2E2E2E2E2E2E2E2E2E2F5F5F5E2E2F5E2E2E2E2E2E2E2E2E2E2E2E2E2E2E2E2E2E2E2E2E2E2E2E2E2E2E2E2E2E2E2E2E2E2E2E2E2E2E2E2E2E2E2E2E2E2E2E2E2E2E2E2E2E2E2E2E2E2E2E2E2E2E2E2E2E2E2E2E2E2E2E2E2E2E2E2
310
E2E2E2E2E2E2E2E2E2E2E2E2E2E2E2E2E2E2E2E2E2E2E2E2E2E2E2E2E2E2E2E2E2E2E2E2E2E2E2E2E2E2E2E2E2E2E2E2E2E2E2E2E2E2E2E2E2E2E2E2E2E2E2E2E2E2E2E2E2E2E2E2E2E2E2E2E2E2E2E2E2E2E2E2E2E2E2E2E2E2E2E2E2E2E2F5E2E2F5F5F5E2E2F5E2E2E2E2E2E2E2E2E2E2E2E2E2E2E2E2E2E2E2E2E2E2E2
310
E2E2E2E2E2E2E2E2E2E2E2E2E2E2E2E2E2E2E2E2E2E2E2E2E2E2E2E2E2E2E2E2E2E2E2E2E2E2E2E2E2E2E2E2E2E2E2E2E2E2E2E2E2E2E2E2E2E2E2E2E2E2E2E2E2E2E2E2E2E2E2E2E2E2E2E2E2E2E2E2E2E2E2E2E2E2E2E2E2E2E2E2E2E2E2E2E2E2E2E2E2E2E2E2E2E2E2E2E2E2E2E2E2E2E2E2E2E2E2E2E2E2E2E2E2E2E2
310
E2E2E2E2E2E2E2E2E2E2E2E2E2E2E2E2E2E2E2E2E2F5E2E2F5F5F5E2E2F5E2E2E2E2E2E2E2E2E2E2E2E2E2E2E2E2E2E2E2E2E2E2E2E2E2E2E2E2E2E2E2E2E2E2E2E2E2E2E2E2E2E2E2E2E2E2E2E2E2E2E2E2E2E2E2E2E2E2E2E2E2E2E2E2E2E2E2E2E2E2E2E2E2E2E2E2E2E2E2E2E2E2E2E2E2E2E2E2E2E2E2E2E2E2E2E2E2
310
E2E2E2E2E2E2E2E2E2E2E2E2E2E2E2E2E2E2E2E2E2E2E2E2E2E2E2E2E2E2E2E2E2E2E2E2E2E2E2E2E2E2E2E2E2E2E2E2E2E2E2E2E2E2E2E2E2E2E2E2E2E2E2E2E2E2E2E2E2E2E2E2E2E2F5E2E2F5F5F5E2E2F5E2E2E2E2E2E2E2E2E2E2E2E2E2E2E2E2E2E2E2E2E2E2E2E2E2E2E2E2E2E2E2E2E2E2E2E2E2E2E2E2E2E2E2E2
310
E2E2E2E2E2E2E2E2E2E2E2E2E2E2E2E2E2E2E2E2E2E2E2E2E2E2E2E2E2E2E2E2E2E2E2E2E2E2E2E2E2E2E2E2E2E2E2E2E2E2E2E2E2E2E2E2E2E2E2E2E2E2E2E2E2E2E2E2E2E2E2E2E2E2E2E2E2E2E2E2E2E2E2E2E2E2E2E2E2E2E2E2E2E2E2E2E2E2E2E2E2E2E2E2E2E2E2E2E2E2E2E2E2E2E2E2E2E2E2E2E2E2E2E2E2E2E2
310
F5E2E2F5F5F5E2E2F5E2E2E2E2E2E2E2E2E2E2E2E2E2E2E2E2E2E2E2E2E2E2E2E2E2E2E2E2E2E2E2E2E2E2E2E2E2E2E2E2E2E2E2E2E2E2E2E2E2E2E2E2E2E2E2E2E2E2E2E2E2E2E2E2E2E2E2E2E2E2E2E2E2E2E2E2E2E2E2E2E2E2E2E2E2E2E2E2E2E2E2E2E2E2E2E2E2E2E2E2E2E2E2E2E2E2E2E2E2E2E2E2E2E2E2E2E2E2
310
E2E2E2E2E2E2E2E2E2E2E2E2E2E2E2E2E2E2E2E2E2E2E2E2E2E2E2E2E2E2E2E2E2E2E2E2E2E2E2E2E2E2E2E2E2E2E2E2E2E2E2E2E2F5E2E2F5F5F5E2E2F5E2E2E2E2E2E2E2E2E2E2E2E2E2E2E2E2E2E2E2E2E2E2E2E2E2E2E2E2E2E2E2E2E2E2E2E2E2E2E2E2E2E2E2E2E2E2E2E2E2E2E2E2E2E2E2E2E2E2E2E2E2E2E2E2E2
310
E2E2E2E2E2E2E2E2E2E2E2E2E2E2E2E2E2E2E2E2E2E2E2E2E2E2E2E2E2E2E2E2E2E2E2E2E2E2E2E2E2E2E2E2E2E2E2E2E2E2E2E2E2E2E2E2E2E2E2E2E2E2E2E2E2E2E2E2E2E2E2E2E2E2E2E2E2E2E2E2E2E2E2E2E2E2E2E2E2E2E2E2E2E2E2E2E2E2E2E2E2E2E2E2E2E2F5E2E2F5F5F5E2E2F5E2E2E2E2E2E2E2E2E2E2E2E2
310
E2E2E2E2E2E2E2E2E2E2E2E2E2E2E2E2E2E2E2E2E2E2E2E2E2E2E2E2E2E2E2E2E2E2E2E2E2E2E2E2E2E2E2E2E2E2E2E2E2E2E2E2E2E2E2E2E2E2E2E2E2E2E2E2E2E2E2E2E2E2E2E2E2E2E2E2E2E2E2E2E2E2E2E2E2E2E2E2E2E2E2E2E2E2E2E2E2E2E2E2E2E2E2E2E2E2E2E2E2E2E2E2E2E2E2E2E2E2E2E2E2E2E2E2E2E2E2
310
E2E2E2E2E2E2E2E2E2E2E2E2E2E2E2E2E2E2E2E2E2E2E2E2E2E2E2E2E2E2E2E2F5E2E2F5F5F5E2E2F5F5F5F5F5F5F5F5E2E2E2E2E2E2E2E2E2F5F5F5F5F5F5F5F5F5F5F5F5F5F5F5F5E2E2E2E2E2E2E2E2E2F5F5F5F5F5F5F5F5F5F5F5F5F5F5F5F5E2E2E2E2E2E2E2E2F5F5F5F5F5F5F5F5F5F5F5F5F5F5F5F5E2E2E2E2E2
310
E2E2E2E2F5F5F5F5F5F5F5F5F5F5F5F5F5F5F5F5E2E2E2E2E2E2E2E2F5F5F5F5F5F5F5F5F5F5F5F5F5F5F5F5E2E2E2E2E2E2E2E2E2F5F5F5F5F5F5F5F5F5F5F5F5F5F5F5F5E2E2E2E2E2E2E2E2E2F5F5F5F5F5F5F5F5E2E2F5F5F5E2E2E2E2E2E2E2E2E2E2E2E2E2E2E2E2E2E2E2E2E2E2E2E2E2E2E2E2E2E2E2E2E2E2E2E2
310
E2E2E2E2E2E2E2E2E2E2E2E2E2E2E2E2E2E2E2E2E2E2E2E2E2E2E2E2E2E2E2E2E2E2E2E2E2E2E2E2E2E2E2E2E2E2E2E2E2E2E2E2E2E2E2E2E2E2E2E2E2E2E2E2E2E2E2E2E2E2E2E2E2E2E2E2E2E2E2E2E2E2E2E2E2E2E2E2E2E2E2E2E2E2E2E2E2E2E2E2E2E2E2E2E2E2E2E2E2E2E2E2E2E2E2E2E2E2E2E2E2E2E2E2E2E2E2
310
E2E2E2E2E2E2E2E2E2E2E2E2E2E2F5F5F5E2E2E2E2E2E2E2E2E2E2E2E2E2E2E2E2E2E2E2E2E2E2E2E2E2E2E2E2E2E2E2E2E2E2E2E2E2E2E2E2E2E2E2E2E2E2E2E2E2E2E2E2E2E2E2E2E2E2E2E2E2E2E2E2E2E2E2E2E2E2E2E2E2E2E2E2E2E2E2E2E2E2E2E2E2E2E2E2E2E2E2E2E2E2E2E2E2E2E2E2E2E2E2E2E2E2E2E2E2E2
310
E2E2E2E2E2E2E2E2E2E2E2E2E2E2E2E2E2E2E2E2E2E2E2E2E2E2E2E2E2E2E2E2E2E2E2E2E2E2E2E2E2E2E2E2E2E2E2E2E2E2E2E2E2E2E2E2E2E2E2E2E2E2E2E2E2E2E2F5F5F5E2E2E2E2E2E2E2E2E2E2E2E2E2E2E2E2E2E2E2E2E2E2E2E2E2E2E2E2E2E2E2E2E2E2E2E2E2E2E2E2E2E2E2E2E2E2E2E2E2E2E2E2E2E2E2E2E2
310
E2E2E2E2E2E2E2E2E2E2E2E2E2E2E2E2E2E2E2E2E2E2E2E2E2E2E2E2E2E2E2E2E2E2E2E2E2E2E2E2E2E2E2E2E2E2E2E2E2E2E2E2E2E2E2E2E2E2E2E2E2E2E2E2E2E2E2E2E2E2E2E2E2E2E2E2E2E2E2E2E2E2E2E2E2E2E2E2E2E2E2E2E2E2E2E2E2E2E2E2E2E2E2E2E2E2E2E2E2E2E2E2E2E2E2E2E2E2E2E2F5EFF5F5F5F5F5
310
F5F5F5F5F5F5F5F5F5F5F5F5F5F5F5F5F5F5F5F5F5F5F5F5F5F5F5F5F5F5F5F5F5F5F5F5F5F5F5F5F5F5F5F5F5F5F5F5F5F5F5F5F5F5F5F5F5F5F5F5F5F5F5F5F5F5F5F5F5F5F5F5F5F5F5F5F5F5F5F5F5F5F5F5F5F5F5F5F5F5F5F5F5F5F5F5F5F5F5F5F5F5F5F5F5F5F5F5F5F5F5F5F5F5F5F5F5F5F5F5F5F5F5F5F5F5F5
310
F5F5F5F5F5F5F5F5F5F5F5F5F5F5F5F5F5F5F5F5F5F5F5F5F5F5F5F5F5F5F5F5F5F5F5F5F5F5F5F5F5F5F5F5F5F5F5EF
  0
XRECORD
  5
595
102
{ACAD_REACTORS
330
594
102
}
330
594
100
AcDbXrecord
280
     1
102
MATERIAL
148
0.0
149
0.0
149
0.0
 93
        0
 94
       63
282
     0
 72
     1
 77
     1
171
     1
175
     1
179
     1
273
     0
  0
XRECORD
  5
593
102
{ACAD_REACTORS
330
592
102
}
330
592
100
AcDbXrecord
280
     1
102
MATERIAL
148
0.0
149
0.0
149
0.0
 93
        0
 94
       63
282
     0
 72
     1
 77
     1
171
     1
175
     1
179
     1
273
     0
  0
XRECORD
  5
597
102
{ACAD_REACTORS
330
596
102
}
330
596
100
AcDbXrecord
280
     1
102
MATERIAL
148
0.0
149
0.0
149
0.0
 93
        0
 94
       63
282
     0
 72
     1
 77
     1
171
     1
175
     1
179
     1
273
     0
  0
XRECORD
  5
599
102
{ACAD_REACTORS
330
598
102
}
330
598
100
AcDbXrecord
280
     1
102
ACAD_ROUNDTRIP_PRE2007_TABLESTYLE
 90
      512
 91
        0
  1

 92
      512
 93
        0
  2

 94
      512
 95
        0
  3

  0
ENDSEC
  0
EOF
