  0
SECTION
  2
HEADER
  9
$ACADVER
  1
AC1015
  9
$ACADMAINTVER
 70
    20
  9
$DWGCODEPAGE
  3
ANSI_932
  9
$INSBASE
 10
0.0
 20
0.0
 30
0.0
  9
$EXTMIN
 10
1012.150879434004
 20
-1737.632037529037
 30
0.0
  9
$EXTMAX
 10
1439.883914439399
 20
-1520.903091304064
 30
0.0
  9
$LIMMIN
 10
0.0
 20
0.0
  9
$LIMMAX
 10
0.0
 20
0.0
  9
$ORTHOMODE
 70
     1
  9
$REGENMODE
 70
     1
  9
$FILLMODE
 70
     1
  9
$QTEXTMODE
 70
     0
  9
$MIRRTEXT
 70
     1
  9
$LTSCALE
 40
1.0
  9
$ATTMODE
 70
     1
  9
$TEXTSIZE
 40
0.0
  9
$TRACEWID
 40
0.05
  9
$TEXTSTYLE
  7
STANDARD
  9
$CLAYER
  8
MEASURE
  9
$CELTYPE
  6
CONTINUOUS
  9
$CECOLOR
 62
   256
  9
$CELTSCALE
 40
1.0
  9
$DISPSILH
 70
     0
  9
$DIMSCALE
 40
1.0
  9
$DIMASZ
 40
2.0
  9
$DIMEXO
 40
1.0
  9
$DIMDLI
 40
0.38
  9
$DIMRND
 40
0.0
  9
$DIMDLE
 40
0.0
  9
$DIMEXE
 40
2.0
  9
$DIMTP
 40
0.0
  9
$DIMTM
 40
0.0
  9
$DIMTXT
 40
3.5
  9
$DIMCEN
 40
-2.0
  9
$DIMTSZ
 40
0.0
  9
$DIMTOL
 70
     0
  9
$DIMLIM
 70
     0
  9
$DIMTIH
 70
     0
  9
$DIMTOH
 70
     0
  9
$DIMSE1
 70
     0
  9
$DIMSE2
 70
     0
  9
$DIMTAD
 70
     1
  9
$DIMZIN
 70
     8
  9
$DIMBLK
  1

  9
$DIMASO
 70
     1
  9
$DIMSHO
 70
     1
  9
$DIMPOST
  1

  9
$DIMAPOST
  1

  9
$DIMALT
 70
     0
  9
$DIMALTD
 70
     2
  9
$DIMALTF
 40
25.4
  9
$DIMLFAC
 40
1.0
  9
$DIMTOFL
 70
     1
  9
$DIMTVP
 40
0.0
  9
$DIMTIX
 70
     0
  9
$DIMSOXD
 70
     0
  9
$DIMSAH
 70
     0
  9
$DIMBLK1
  1

  9
$DIMBLK2
  1

  9
$DIMSTYLE
  2
AD-STANDARD
  9
$DIMCLRD
 70
     9
  9
$DIMCLRE
 70
     9
  9
$DIMCLRT
 70
     2
  9
$DIMTFAC
 40
1.0
  9
$DIMGAP
 40
0.5
  9
$DIMJUST
 70
     0
  9
$DIMSD1
 70
     0
  9
$DIMSD2
 70
     0
  9
$DIMTOLJ
 70
     1
  9
$DIMTZIN
 70
     8
  9
$DIMALTZ
 70
     0
  9
$DIMALTTZ
 70
     0
  9
$DIMUPT
 70
     0
  9
$DIMDEC
 70
     3
  9
$DIMTDEC
 70
     3
  9
$DIMALTU
 70
     2
  9
$DIMALTTD
 70
     2
  9
$DIMTXSTY
  7
AD-STANDARD
  9
$DIMAUNIT
 70
     0
  9
$DIMADEC
 70
     0
  9
$DIMALTRND
 40
0.0
  9
$DIMAZIN
 70
     0
  9
$DIMDSEP
 70
    46
  9
$DIMATFIT
 70
     3
  9
$DIMFRAC
 70
     0
  9
$DIMLDRBLK
  1

  9
$DIMLUNIT
 70
     2
  9
$DIMLWD
 70
    -2
  9
$DIMLWE
 70
    -2
  9
$DIMTMOVE
 70
     0
  9
$LUNITS
 70
     2
  9
$LUPREC
 70
     4
  9
$SKETCHINC
 40
0.1
  9
$FILLETRAD
 40
0.0
  9
$AUNITS
 70
     0
  9
$AUPREC
 70
     0
  9
$MENU
  1
acad
  9
$ELEVATION
 40
0.0
  9
$PELEVATION
 40
0.0
  9
$THICKNESS
 40
0.0
  9
$LIMCHECK
 70
     0
  9
$CHAMFERA
 40
0.0
  9
$CHAMFERB
 40
0.0
  9
$CHAMFERC
 40
0.0
  9
$CHAMFERD
 40
0.0
  9
$SKPOLY
 70
     0
  9
$TDCREATE
 40
2314168.288031782
  9
$TDUCREATE
 40
2314167.913031782
  9
$TDUPDATE
 40
2459557.468901794
  9
$TDUUPDATE
 40
2459557.093901794
  9
$TDINDWG
 40
0.0434899074
  9
$TDUSRTIMER
 40
0.0434877315
  9
$USRTIMER
 70
     1
  9
$ANGBASE
 50
0.0
  9
$ANGDIR
 70
     0
  9
$PDMODE
 70
     0
  9
$PDSIZE
 40
0.0
  9
$PLINEWID
 40
0.0
  9
$SPLFRAME
 70
     0
  9
$SPLINETYPE
 70
     6
  9
$SPLINESEGS
 70
     8
  9
$HANDSEED
  5
5E0
  9
$SURFTAB1
 70
     6
  9
$SURFTAB2
 70
     6
  9
$SURFTYPE
 70
     6
  9
$SURFU
 70
     6
  9
$SURFV
 70
     6
  9
$UCSBASE
  2

  9
$UCSNAME
  2

  9
$UCSORG
 10
0.0
 20
0.0
 30
0.0
  9
$UCSXDIR
 10
1.0
 20
0.0
 30
0.0
  9
$UCSYDIR
 10
0.0
 20
1.0
 30
0.0
  9
$UCSORTHOREF
  2

  9
$UCSORTHOVIEW
 70
     0
  9
$UCSORGTOP
 10
0.0
 20
0.0
 30
0.0
  9
$UCSORGBOTTOM
 10
0.0
 20
0.0
 30
0.0
  9
$UCSORGLEFT
 10
0.0
 20
0.0
 30
0.0
  9
$UCSORGRIGHT
 10
0.0
 20
0.0
 30
0.0
  9
$UCSORGFRONT
 10
0.0
 20
0.0
 30
0.0
  9
$UCSORGBACK
 10
0.0
 20
0.0
 30
0.0
  9
$PUCSBASE
  2

  9
$PUCSNAME
  2

  9
$PUCSORG
 10
0.0
 20
0.0
 30
0.0
  9
$PUCSXDIR
 10
1.0
 20
0.0
 30
0.0
  9
$PUCSYDIR
 10
0.0
 20
1.0
 30
0.0
  9
$PUCSORTHOREF
  2

  9
$PUCSORTHOVIEW
 70
     0
  9
$PUCSORGTOP
 10
0.0
 20
0.0
 30
0.0
  9
$PUCSORGBOTTOM
 10
0.0
 20
0.0
 30
0.0
  9
$PUCSORGLEFT
 10
0.0
 20
0.0
 30
0.0
  9
$PUCSORGRIGHT
 10
0.0
 20
0.0
 30
0.0
  9
$PUCSORGFRONT
 10
0.0
 20
0.0
 30
0.0
  9
$PUCSORGBACK
 10
0.0
 20
0.0
 30
0.0
  9
$USERI1
 70
     0
  9
$USERI2
 70
     0
  9
$USERI3
 70
     0
  9
$USERI4
 70
     0
  9
$USERI5
 70
     0
  9
$USERR1
 40
11.0
  9
$USERR2
 40
0.0
  9
$USERR3
 40
0.0
  9
$USERR4
 40
0.0
  9
$USERR5
 40
0.0
  9
$WORLDVIEW
 70
     1
  9
$SHADEDGE
 70
     3
  9
$SHADEDIF
 70
    70
  9
$TILEMODE
 70
     1
  9
$MAXACTVP
 70
    16
  9
$PINSBASE
 10
0.0
 20
0.0
 30
0.0
  9
$PLIMCHECK
 70
     0
  9
$PEXTMIN
 10
1.000000000000000E+20
 20
1.000000000000000E+20
 30
1.000000000000000E+20
  9
$PEXTMAX
 10
-1.000000000000000E+20
 20
-1.000000000000000E+20
 30
-1.000000000000000E+20
  9
$PLIMMIN
 10
0.0
 20
0.0
  9
$PLIMMAX
 10
12.0
 20
9.0
  9
$UNITMODE
 70
     0
  9
$VISRETAIN
 70
     0
  9
$PLINEGEN
 70
     1
  9
$PSLTSCALE
 70
     0
  9
$TREEDEPTH
 70
  3020
  9
$CMLSTYLE
  2
STANDARD
  9
$CMLJUST
 70
     0
  9
$CMLSCALE
 40
1.0
  9
$PROXYGRAPHICS
 70
     0
  9
$MEASUREMENT
 70
     1
  9
$CELWEIGHT
370
    -1
  9
$ENDCAPS
280
     0
  9
$JOINSTYLE
280
     0
  9
$LWDISPLAY
290
     0
  9
$INSUNITS
 70
     0
  9
$HYPERLINKBASE
  1

  9
$STYLESHEET
  1

  9
$XEDIT
290
     1
  9
$CEPSNTYPE
380
     0
  9
$PSTYLEMODE
290
     1
  9
$FINGERPRINTGUID
  2
{49D5F147-E22F-4D26-A500-A237099F5E31}
  9
$VERSIONGUID
  2
{7F5DDC53-EE0B-423B-848A-1F9B8D43B089}
  9
$EXTNAMES
290
     1
  9
$PSVPSCALE
 40
0.0
  9
$OLESTARTUP
290
     0
  0
ENDSEC
  0
SECTION
  2
CLASSES
  0
CLASS
  1
IMAGE
  2
AcDbRasterImage
  3
ISM
 90
    34943
280
     0
281
     1
  0
CLASS
  1
DICTIONARYVAR
  2
AcDbDictionaryVar
  3
ObjectDBX Classes
 90
        0
280
     0
281
     0
  0
CLASS
  1
RASTERVARIABLES
  2
AcDbRasterVariables
  3
ISM
 90
    32768
280
     0
281
     0
  0
CLASS
  1
IMAGEDEF
  2
AcDbRasterImageDef
  3
ISM
 90
    32768
280
     0
281
     0
  0
CLASS
  1
IMAGEDEF_REACTOR
  2
AcDbRasterImageDefReactor
  3
ISM
 90
    32769
280
     0
281
     0
  0
CLASS
  1
IDBUFFER
  2
AcDbIdBuffer
  3
ObjectDBX Classes
 90
    32768
280
     0
281
     0
  0
CLASS
  1
SPATIAL_FILTER
  2
AcDbSpatialFilter
  3
ObjectDBX Classes
 90
    32768
280
     0
281
     0
  0
CLASS
  1
SORTENTSTABLE
  2
AcDbSortentsTable
  3
ObjectDBX Classes
 90
    32768
280
     0
281
     0
  0
CLASS
  1
LAYER_INDEX
  2
AcDbLayerIndex
  3
ObjectDBX Classes
 90
    32768
280
     0
281
     0
  0
CLASS
  1
SPATIAL_INDEX
  2
AcDbSpatialIndex
  3
ObjectDBX Classes
 90
    32768
280
     0
281
     0
  0
CLASS
  1
OBJECT_PTR
  2
CAseDLPNTableRecord
  3
"ASE-LPNTableRecord"
 90
    32769
280
     0
281
     0
  0
CLASS
  1
LAYOUT
  2
AcDbLayout
  3
ObjectDBX Classes
 90
        0
280
     0
281
     0
  0
CLASS
  1
PLOTSETTINGS
  2
AcDbPlotSettings
  3
ObjectDBX Classes
 90
    32768
280
     0
281
     0
  0
CLASS
  1
ACDBDICTIONARYWDFLT
  2
AcDbDictionaryWithDefault
  3
ObjectDBX Classes
 90
        0
280
     0
281
     0
  0
CLASS
  1
ACDBPLACEHOLDER
  2
AcDbPlaceHolder
  3
ObjectDBX Classes
 90
        0
280
     0
281
     0
  0
CLASS
  1
VBA_PROJECT
  2
AcDbVbaProject
  3
acad
 90
    32768
280
     0
281
     0
  0
CLASS
  1
WIPEOUT
  2
AcDbWipeout
  3
"WipeOut|Product Desc: Object Enabler for WipeOut entity                        |Company: Autodesk, Inc.                        |WEB Address: www.autodesk.com"
 90
    34943
280
     0
281
     1
  0
CLASS
  1
WIPEOUTVARIABLES
  2
AcDbWipeoutVariables
  3
"WipeOut|Product Desc:     WipeOut Dbx Application|Company:          Autodesk, Inc.|WEB Address:      www.autodesk.com"
 90
    32768
280
     0
281
     0
  0
CLASS
  1
RTEXT
  2
RText
  3
RText|AutoCAD Express Tool|expresstools@autodesk.com
 90
    32768
280
     0
281
     1
  0
CLASS
  1
ARCALIGNEDTEXT
  2
AcDbArcAlignedText
  3
ATEXT|AutoCAD Express Tool|expresstools@autodesk.com
 90
    32768
280
     0
281
     1
  0
CLASS
  1
MATERIAL
  2
AcDbMaterial
  3
ObjectDBX Classes
 90
     1024
280
     0
281
     0
  0
CLASS
  1
VISUALSTYLE
  2
AcDbVisualStyle
  3
ObjectDBX Classes
 90
     4095
280
     0
281
     0
  0
CLASS
  1
TABLESTYLE
  2
AcDbTableStyle
  3
ObjectDBX Classes
 90
     4095
280
     0
281
     0
  0
ENDSEC
  0
SECTION
  2
TABLES
  0
TABLE
  2
VPORT
  5
7
102
{ACAD_XDICTIONARY
360
5B0
102
}
330
0
100
AcDbSymbolTable
 70
     1
  0
VPORT
  5
15
330
7
100
AcDbSymbolTableRecord
100
AcDbViewportTableRecord
  2
*ACTIVE
 70
     0
 10
0.0
 20
0.0
 11
1.0
 21
1.0
 12
1285.818388469583
 22
-1620.018795315433
 13
0.0
 23
0.0
 14
1.0
 24
1.0
 15
0.0
 25
0.0
 16
0.0
 26
0.0
 36
1.0
 17
0.0
 27
0.0
 37
0.0
 40
319.25594379314
 41
2.304239401496259
 42
50.0
 43
0.0
 44
0.0
 50
0.0
 51
0.0
 71
     0
 72
   100
 73
     1
 74
     1
 75
     0
 76
     0
 77
     0
 78
     0
281
     0
 65
     1
110
0.0
120
0.0
130
0.0
111
1.0
121
0.0
131
0.0
112
0.0
122
1.0
132
0.0
 79
     0
146
0.0
  0
ENDTAB
  0
TABLE
  2
LTYPE
  5
4
330
0
100
AcDbSymbolTable
 70
     8
  0
LTYPE
  5
11
330
4
100
AcDbSymbolTableRecord
100
AcDbLinetypeTableRecord
  2
BYBLOCK
 70
     0
  3

 72
    65
 73
     0
 40
0.0
  0
LTYPE
  5
12
330
4
100
AcDbSymbolTableRecord
100
AcDbLinetypeTableRecord
  2
BYLAYER
 70
     0
  3

 72
    65
 73
     0
 40
0.0
  0
LTYPE
  5
13
330
4
100
AcDbSymbolTableRecord
100
AcDbLinetypeTableRecord
  2
CONTINUOUS
 70
     0
  3
Solid line
 72
    65
 73
     0
 40
0.0
  0
LTYPE
  5
1D
330
4
100
AcDbSymbolTableRecord
100
AcDbLinetypeTableRecord
  2
DASHED
 70
     0
  3
Dashed
 72
    65
 73
     2
 40
15.0
 49
12.0
 74
     0
 49
-3.0
 74
     0
  0
LTYPE
  5
1E
330
4
100
AcDbSymbolTableRecord
100
AcDbLinetypeTableRecord
  2
DOTTED
 70
     0
  3
Dotted
 72
    65
 73
     2
 40
3.5
 49
0.5
 74
     0
 49
-3.0
 74
     0
  0
LTYPE
  5
1F
330
4
100
AcDbSymbolTableRecord
100
AcDbLinetypeTableRecord
  2
DOT_CENTER
 70
     0
  3
Dot_Center
 72
    65
 73
     4
 40
2.0
 49
1.25
 74
     0
 49
-0.25
 74
     0
 49
0.25
 74
     0
 49
-0.25
 74
     0
  0
LTYPE
  5
20
330
4
100
AcDbSymbolTableRecord
100
AcDbLinetypeTableRecord
  2
LONG_DASHED
 70
     0
  3
Long_Dashed
 72
    65
 73
     2
 40
2.0
 49
1.5
 74
     0
 49
-0.5
 74
     0
  0
LTYPE
  5
21
330
4
100
AcDbSymbolTableRecord
100
AcDbLinetypeTableRecord
  2
DASH_CENTER
 70
     0
  3
Dash_Center
 72
    65
 73
     4
 40
36.0
 49
24.0
 74
     0
 49
-3.0
 74
     0
 49
6.0
 74
     0
 49
-3.0
 74
     0
  0
LTYPE
  5
22
330
4
100
AcDbSymbolTableRecord
100
AcDbLinetypeTableRecord
  2
PHANTOM
 70
     0
  3
Phantom
 72
    65
 73
     6
 40
2.5
 49
1.25
 74
     0
 49
-0.25
 74
     0
 49
0.25
 74
     0
 49
-0.25
 74
     0
 49
0.25
 74
     0
 49
-0.25
 74
     0
  0
LTYPE
  5
23
330
4
100
AcDbSymbolTableRecord
100
AcDbLinetypeTableRecord
  2
CENTER_DASH_DASH
 70
     0
  3
Center_Dash_Dash
 72
    65
 73
     6
 40
22.0
 49
12.0
 74
     0
 49
-3.0
 74
     0
 49
0.5
 74
     0
 49
-3.0
 74
     0
 49
0.5
 74
     0
 49
-3.0
 74
     0
  0
ENDTAB
  0
TABLE
  2
LAYER
  5
2
102
{ACAD_XDICTIONARY
360
465
102
}
330
0
100
AcDbSymbolTable
 70
     4
  0
LAYER
  5
14
330
2
100
AcDbSymbolTableRecord
100
AcDbLayerTableRecord
  2
0
 70
     0
 62
     7
  6
CONTINUOUS
370
    -3
390
3F5
  0
LAYER
  5
24
330
2
100
AcDbSymbolTableRecord
100
AcDbLayerTableRecord
  2
1
 70
     0
 62
     7
  6
CONTINUOUS
370
    -3
390
3F5
  0
LAYER
  5
45B
330
2
100
AcDbSymbolTableRecord
100
AcDbLayerTableRecord
  2
DEFPOINTS
 70
     0
 62
     7
  6
CONTINUOUS
290
     0
370
    -3
390
3F5
  0
LAYER
  5
45C
330
2
100
AcDbSymbolTableRecord
100
AcDbLayerTableRecord
  2
MEASURE
 70
     0
 62
     9
  6
CONTINUOUS
370
    -3
390
3F5
  0
ENDTAB
  0
TABLE
  2
STYLE
  5
3
330
0
100
AcDbSymbolTable
 70
    19
  0
STYLE
  5
17
330
3
100
AcDbSymbolTableRecord
100
AcDbTextStyleTableRecord
  2
STANDARD
 70
     0
 40
0.0
 41
1.0
 50
0.0
 71
     0
 42
0.0
  3
txt
  4

  0
STYLE
  5
350
330
3
100
AcDbSymbolTableRecord
100
AcDbTextStyleTableRecord
  2
CONVERTER_1
 70
     0
 40
0.0
 41
0.7020000000000001
 50
0.0
 71
     0
 42
0.0
  3
txt.shx
  4

  0
STYLE
  5
352
330
3
100
AcDbSymbolTableRecord
100
AcDbTextStyleTableRecord
  2
CONVERTER_2
 70
     0
 40
0.0
 41
0.76
 50
0.0
 71
     0
 42
0.0
  3
simplex.shx
  4

  0
STYLE
  5
354
330
3
100
AcDbSymbolTableRecord
100
AcDbTextStyleTableRecord
  2
CONVERTER_3
 70
     0
 40
0.0
 41
0.7650000000000001
 50
0.0
 71
     0
 42
0.0
  3
txt.shx
  4

  0
STYLE
  5
357
330
3
100
AcDbSymbolTableRecord
100
AcDbTextStyleTableRecord
  2
CONVERTER_4
 70
     0
 40
0.0
 41
0.6650000000000001
 50
0.0
 71
     0
 42
0.0
  3
simplex.shx
  4

  0
STYLE
  5
35D
330
3
100
AcDbSymbolTableRecord
100
AcDbTextStyleTableRecord
  2
CONVERTER_5
 70
     0
 40
0.0
 41
0.675
 50
0.0
 71
     0
 42
0.0
  3
txt.shx
  4

  0
STYLE
  5
363
330
3
100
AcDbSymbolTableRecord
100
AcDbTextStyleTableRecord
  2
CONVERTER_6
 70
     0
 40
0.0
 41
0.7120000000000001
 50
0.0
 71
     0
 42
0.0
  3

  4

1001
ACAD
1000
MS Mincho
1071
    32785
  0
STYLE
  5
36E
330
3
100
AcDbSymbolTableRecord
100
AcDbTextStyleTableRecord
  2
CONVERTER_7
 70
     0
 40
0.0
 41
0.95
 50
0.0
 71
     0
 42
0.0
  3
simplex.shx
  4

  0
STYLE
  5
370
330
3
100
AcDbSymbolTableRecord
100
AcDbTextStyleTableRecord
  2
CONVERTER_8
 70
     0
 40
0.0
 41
0.72
 50
0.0
 71
     0
 42
0.0
  3
txt.shx
  4

  0
STYLE
  5
374
330
3
100
AcDbSymbolTableRecord
100
AcDbTextStyleTableRecord
  2
CONVERTER_9
 70
     0
 40
0.0
 41
0.855
 50
0.0
 71
     0
 42
0.0
  3
simplex.shx
  4

  0
STYLE
  5
37B
330
3
100
AcDbSymbolTableRecord
100
AcDbTextStyleTableRecord
  2
CONVERTER_10
 70
     0
 40
0.0
 41
0.89
 50
0.0
 71
     0
 42
0.0
  3

  4

1001
ACAD
1000
MS Mincho
1071
    32785
  0
STYLE
  5
383
330
3
100
AcDbSymbolTableRecord
100
AcDbTextStyleTableRecord
  2
CONVERTER_11
 70
     0
 40
0.0
 41
0.9025
 50
0.0
 71
     0
 42
0.0
  3
simplex.shx
  4

  0
STYLE
  5
388
330
3
100
AcDbSymbolTableRecord
100
AcDbTextStyleTableRecord
  2
CONVERTER_12
 70
     0
 40
0.0
 41
0.8074999999999999
 50
0.0
 71
     0
 42
0.0
  3
simplex.shx
  4

  0
STYLE
  5
393
330
3
100
AcDbSymbolTableRecord
100
AcDbTextStyleTableRecord
  2
CONVERTER_13
 70
     0
 40
0.0
 41
0.95
 50
0.0
 71
     0
 42
0.0
  3
complex.shx
  4

  0
STYLE
  5
395
330
3
100
AcDbSymbolTableRecord
100
AcDbTextStyleTableRecord
  2
CONVERTER_14
 70
     0
 40
0.0
 41
0.52777777777778
 50
0.0
 71
     0
 42
0.0
  3
complex.shx
  4

  0
STYLE
  5
397
330
3
100
AcDbSymbolTableRecord
100
AcDbTextStyleTableRecord
  2
CONVERTER_15
 70
     0
 40
0.0
 41
0.49479166666667
 50
0.0
 71
     0
 42
0.0
  3
complex.shx
  4

  0
STYLE
  5
399
330
3
100
AcDbSymbolTableRecord
100
AcDbTextStyleTableRecord
  2
CONVERTER_16
 70
     0
 40
0.0
 41
0.6597222222222201
 50
0.0
 71
     0
 42
0.0
  3
complex.shx
  4

  0
STYLE
  5
3B7
330
3
100
AcDbSymbolTableRecord
100
AcDbTextStyleTableRecord
  2
CONVERTER_17
 70
     0
 40
0.0
 41
0.9
 50
0.0
 71
     0
 42
0.0
  3
txt.shx
  4

  0
STYLE
  5
45D
330
3
100
AcDbSymbolTableRecord
100
AcDbTextStyleTableRecord
  2
AD-STANDARD
 70
     0
 40
0.0
 41
0.8
 50
0.0
 71
     0
 42
12.0
  3
C:\Program Files\AutoCAD LT\romans.shx
  4
bigfont.shx
  0
ENDTAB
  0
TABLE
  2
VIEW
  5
5
330
0
100
AcDbSymbolTable
 70
     0
  0
ENDTAB
  0
TABLE
  2
UCS
  5
6
330
0
100
AcDbSymbolTable
 70
     0
  0
ENDTAB
  0
TABLE
  2
APPID
  5
8
330
0
100
AcDbSymbolTable
 70
     4
  0
APPID
  5
16
330
8
100
AcDbSymbolTableRecord
100
AcDbRegAppTableRecord
  2
ACAD
 70
     0
  0
APPID
  5
426
330
8
100
AcDbSymbolTableRecord
100
AcDbRegAppTableRecord
  2
ACAD_EXEMPT_FROM_CAD_STANDARDS
 70
     0
  0
APPID
  5
463
330
8
100
AcDbSymbolTableRecord
100
AcDbRegAppTableRecord
  2
ACAD_PSEXT
 70
     0
  0
APPID
  5
464
330
8
100
AcDbSymbolTableRecord
100
AcDbRegAppTableRecord
  2
ACAD_DSTYLE_DIMJOGGED_JOGANGLE_SYMBOL
 70
     0
  0
ENDTAB
  0
TABLE
  2
DIMSTYLE
  5
9
330
0
100
AcDbSymbolTable
 70
    11
100
AcDbDimStyleTable
 71
     2
340
462
340
18
  0
DIMSTYLE
105
18
330
9
100
AcDbSymbolTableRecord
100
AcDbDimStyleTableRecord
  2
STANDARD
 70
     0
340
17
  0
DIMSTYLE
105
3AC
330
9
100
AcDbSymbolTableRecord
100
AcDbDimStyleTableRecord
  2
ME10_DIM_0
 70
     0
 41
3.0
 42
0.7
 44
2.0
 47
1.0
 48
1.0
 71
     1
 73
     0
 74
     0
 77
     1
 78
     8
140
3.0
146
0.9
147
0.625
173
     1
176
     2
177
     2
178
     7
271
     2
272
     0
340
17
341
3A6
343
3A6
344
3A6
  0
DIMSTYLE
105
3BA
330
9
100
AcDbSymbolTableRecord
100
AcDbDimStyleTableRecord
  2
ME10_DIM_1
 70
     0
  3
(<>)
 41
3.0
 42
0.7
 44
2.0
 73
     0
 74
     0
 77
     1
 78
     8
140
3.0
147
0.625
173
     1
176
     2
177
     2
178
     7
271
     2
340
17
341
3A6
343
3A6
344
3A6
  0
DIMSTYLE
105
3C8
330
9
100
AcDbSymbolTableRecord
100
AcDbDimStyleTableRecord
  2
ME10_DIM_2
 70
     0
  3
(<>)
 41
3.0
 42
0.7
 44
2.0
 73
     0
 74
     0
 77
     1
 78
     8
140
3.0
147
0.625
173
     1
176
     2
177
     2
178
     7
271
     2
340
17
341
3A6
343
3A6
344
3A6
  0
DIMSTYLE
105
3D5
330
9
100
AcDbSymbolTableRecord
100
AcDbDimStyleTableRecord
  2
ME10_DIM_3
 70
     0
 41
3.0
 42
0.7
 44
2.0
 47
0.5
 48
0.5
 71
     1
 73
     0
 74
     0
 77
     1
 78
     8
140
3.0
146
0.9
147
0.625
173
     1
176
     2
177
     2
178
     7
271
     2
272
     1
340
17
341
3A6
343
3A6
344
3A6
  0
DIMSTYLE
105
3E2
330
9
100
AcDbSymbolTableRecord
100
AcDbDimStyleTableRecord
  2
ME10_DIM_4
 70
     0
 41
3.0
 42
0.7
 44
2.0
 47
1.0
 48
1.0
 71
     1
 73
     0
 74
     0
 77
     1
 78
     8
140
3.0
146
0.8666666666666699
147
0.625
173
     1
176
     2
177
     2
178
     7
271
     2
272
     0
340
17
341
3A6
343
3A6
344
3A6
  0
DIMSTYLE
105
45E
330
9
100
AcDbSymbolTableRecord
100
AcDbDimStyleTableRecord
  2
S＝1／1
 70
     0
 41
2.5
 42
1.0
 44
1.0
 73
     0
 74
     0
 77
     1
 78
     8
 79
     2
140
3.0
141
-2.0
147
0.5
172
     1
176
     9
177
     9
178
   132
179
     4
284
     8
340
45D
  0
DIMSTYLE
105
45F
330
9
100
AcDbSymbolTableRecord
100
AcDbDimStyleTableRecord
  2
S＝1／4
 70
     0
 40
4.0
 41
2.5
 42
1.0
 44
1.0
 73
     0
 74
     0
 77
     1
 78
     8
 79
     2
140
3.0
141
-2.0
147
0.5
172
     1
176
     9
177
     9
178
   132
179
     4
284
     8
340
45D
  0
DIMSTYLE
105
460
330
9
100
AcDbSymbolTableRecord
100
AcDbDimStyleTableRecord
  2
S＝2／1
 70
     0
 40
0.5
 41
2.5
 42
1.0
 44
1.0
 73
     0
 74
     0
 77
     1
 78
     8
 79
     2
140
3.0
141
-2.0
147
0.5
172
     1
176
     9
177
     9
178
   132
179
     4
284
     8
340
45D
  0
DIMSTYLE
105
461
330
9
100
AcDbSymbolTableRecord
100
AcDbDimStyleTableRecord
  2
S＝1／20
 70
     0
 40
20.0
 41
2.5
 42
1.0
 44
1.0
 73
     0
 74
     0
 77
     1
 78
     8
 79
     2
140
3.0
141
-2.0
147
0.5
172
     1
176
     9
177
     9
178
   132
179
     4
284
     8
340
45D
1001
ACAD_DSTYLE_DIMJOGGED_JOGANGLE_SYMBOL
1070
   384
1040
1.570796326794896
  0
DIMSTYLE
105
462
102
{ACAD_REACTORS
330
4D2
330
4DF
330
513
330
529
330
55A
102
}
330
9
100
AcDbSymbolTableRecord
100
AcDbDimStyleTableRecord
  2
AD-STANDARD
 70
     0
 41
2.0
 42
1.0
 44
2.0
 73
     0
 74
     0
 77
     1
 78
     8
140
3.5
141
-2.0
147
0.5
172
     1
176
     9
177
     9
178
     2
271
     3
272
     3
284
     8
340
45D
  0
ENDTAB
  0
TABLE
  2
BLOCK_RECORD
  5
1
330
0
100
AcDbSymbolTable
 70
    17
  0
BLOCK_RECORD
  5
A
330
1
100
AcDbSymbolTableRecord
100
AcDbBlockTableRecord
  2
*MODEL_SPACE
340
411
  0
BLOCK_RECORD
  5
B
330
1
100
AcDbSymbolTableRecord
100
AcDbBlockTableRecord
  2
*PAPER_SPACE
340
412
  0
BLOCK_RECORD
  5
3A6
330
1
100
AcDbSymbolTableRecord
100
AcDbBlockTableRecord
  2
_OPEN30
340
0
102
{BLKREFS
331
4B0
331
4B1
331
4BD
331
4BE
331
4CA
331
4CB
102
}
  0
BLOCK_RECORD
  5
446
330
1
100
AcDbSymbolTableRecord
100
AcDbBlockTableRecord
  2
A$C28B6655B
340
0
  0
BLOCK_RECORD
  5
4D3
330
1
100
AcDbSymbolTableRecord
100
AcDbBlockTableRecord
  2
*D12
340
0
  0
BLOCK_RECORD
  5
4E0
330
1
100
AcDbSymbolTableRecord
100
AcDbBlockTableRecord
  2
*D13
340
0
  0
BLOCK_RECORD
  5
514
330
1
100
AcDbSymbolTableRecord
100
AcDbBlockTableRecord
  2
*D14
340
0
  0
BLOCK_RECORD
  5
52A
330
1
100
AcDbSymbolTableRecord
100
AcDbBlockTableRecord
  2
*D15
340
0
  0
BLOCK_RECORD
  5
55B
330
1
100
AcDbSymbolTableRecord
100
AcDbBlockTableRecord
  2
*D16
340
0
  0
ENDTAB
  0
ENDSEC
  0
SECTION
  2
BLOCKS
  0
BLOCK
  5
D
330
A
100
AcDbEntity
  8
0
100
AcDbBlockBegin
  2
*MODEL_SPACE
 70
     0
 10
0.0
 20
0.0
 30
0.0
  3
*MODEL_SPACE
  1

  0
ENDBLK
  5
E
330
A
100
AcDbEntity
  8
0
100
AcDbBlockEnd
  0
BLOCK
  5
F
330
B
100
AcDbEntity
 67
     1
  8
0
100
AcDbBlockBegin
  2
*PAPER_SPACE
 70
     0
 10
0.0
 20
0.0
 30
0.0
  3
*PAPER_SPACE
  1

  0
ENDBLK
  5
10
330
B
100
AcDbEntity
 67
     1
  8
0
100
AcDbBlockEnd
  0
BLOCK
  5
3A7
330
3A6
100
AcDbEntity
  8
0
 62
     0
100
AcDbBlockBegin
  2
_OPEN30
 70
     0
 10
0.0
 20
0.0
 30
0.0
  3
_OPEN30
  1

  0
LINE
  5
3A8
330
3A6
100
AcDbEntity
  8
0
 62
     0
100
AcDbLine
 10
-1.0
 20
0.267949
 30
0.0
 11
0.0
 21
0.0
 31
0.0
  0
LINE
  5
3A9
330
3A6
100
AcDbEntity
  8
0
 62
     0
100
AcDbLine
 10
0.0
 20
0.0
 30
0.0
 11
-1.0
 21
-0.267949
 31
0.0
  0
LINE
  5
3AA
330
3A6
100
AcDbEntity
  8
0
 62
     0
100
AcDbLine
 10
0.0
 20
0.0
 30
0.0
 11
-1.0
 21
0.0
 31
0.0
  0
ENDBLK
  5
3AB
330
3A6
100
AcDbEntity
  8
0
 62
     0
100
AcDbBlockEnd
  0
BLOCK
  5
44D
330
446
100
AcDbEntity
  8
0
100
AcDbBlockBegin
  2
A$C28B6655B
 70
     0
 10
0.0
 20
0.0
 30
0.0
  3
A$C28B6655B
  1

  0
LINE
  5
447
330
446
100
AcDbEntity
  8
1
  6
Continuous
 62
     7
100
AcDbLine
 10
6.009498319406702
 20
6.009499124803141
 30
0.0
 11
1.990500225636651
 21
1.99050103103309
 31
0.0
  0
LINE
  5
448
330
446
100
AcDbEntity
  8
1
  6
Continuous
 62
     7
100
AcDbLine
 10
1.990500225636651
 20
6.009499124803141
 30
0.0
 11
6.009498319406702
 21
1.99050103103309
 31
0.0
  0
LINE
  5
449
330
446
100
AcDbEntity
  8
1
  6
Continuous
 62
     7
100
AcDbLine
 10
85.75375840420475
 20
8.00000007791823
 30
0.0
 11
85.25375840420474
 21
8.00000007791823
 31
0.0
  0
LINE
  5
44A
330
446
100
AcDbEntity
  8
1
  6
Continuous
 62
     7
100
AcDbLine
 10
85.25375840420474
 20
8.00000007791823
 30
0.0
 11
85.25375840420474
 21
4.897538975027146
 31
0.0
  0
ARC
  5
44B
330
446
100
AcDbEntity
  8
1
  6
Continuous
 62
     7
100
AcDbCircle
 10
87.20375840420468
 20
4.00000007791823
 30
0.0
 40
4.450000000000019
100
AcDbArc
 50
115.9892335838359
 51
168.3639551036037
  0
CIRCLE
  5
44C
330
446
100
AcDbEntity
  8
1
  6
Continuous
 62
     7
100
AcDbCircle
 10
3.999999272521677
 20
4.00000007791823
 30
0.0
 40
4.0
  0
ENDBLK
  5
44E
330
446
100
AcDbEntity
  8
0
100
AcDbBlockEnd
  0
BLOCK
  5
4DD
330
4D3
100
AcDbEntity
  8
0
100
AcDbBlockBegin
  2
*D12
 70
     1
 10
0.0
 20
0.0
 30
0.0
  3
*D12
  1

  0
LINE
  5
5A6
330
4D3
100
AcDbEntity
  8
MEASURE
  6
Continuous
 62
     9
370
    -2
100
AcDbLine
 10
1102.651138565687
 20
-1601.183069695738
 30
0.0
 11
1102.651138565687
 21
-1582.768438565849
 31
0.0
  0
LINE
  5
5A7
330
4D3
100
AcDbEntity
  8
MEASURE
  6
Continuous
 62
     9
370
    -2
100
AcDbLine
 10
1355.651138565687
 20
-1593.689237529036
 30
0.0
 11
1355.651138565687
 21
-1582.768438565849
 31
0.0
  0
LINE
  5
5A8
330
4D3
100
AcDbEntity
  8
MEASURE
  6
Continuous
 62
     9
370
    -2
100
AcDbLine
 10
1104.651138565687
 20
-1584.768438565849
 30
0.0
 11
1353.651138565687
 21
-1584.768438565849
 31
0.0
  0
SOLID
  5
5A9
330
4D3
100
AcDbEntity
  8
MEASURE
  6
Continuous
 62
     9
100
AcDbTrace
 10
1104.651138565687
 20
-1584.435105232516
 30
0.0
 11
1104.651138565687
 21
-1585.101771899182
 31
0.0
 12
1102.651138565687
 22
-1584.768438565849
 32
0.0
 13
1102.651138565687
 23
-1584.768438565849
 33
0.0
  0
SOLID
  5
5AA
330
4D3
100
AcDbEntity
  8
MEASURE
  6
Continuous
 62
     9
100
AcDbTrace
 10
1353.651138565687
 20
-1584.435105232516
 30
0.0
 11
1353.651138565687
 21
-1585.101771899182
 31
0.0
 12
1355.651138565687
 22
-1584.768438565849
 32
0.0
 13
1355.651138565687
 23
-1584.768438565849
 33
0.0
  0
MTEXT
  5
5AB
330
4D3
100
AcDbEntity
  8
MEASURE
  6
Continuous
 62
     2
100
AcDbMText
 10
1229.151138565687
 20
-1582.518438565849
 30
0.0
 40
3.5
 41
0.0
 71
     5
 72
     1
  1
\A1;253±1
  7
AD-STANDARD
 73
     1
 44
1.0
1001
ACAD
1000
MTEXTBEGIN
1070
    73
1070
     1
1070
    44
1040
1.0
1070
    74
1070
     0
1000
MTEXTEND
  0
POINT
  5
5AC
330
4D3
100
AcDbEntity
  8
DEFPOINTS
  6
Continuous
 62
     0
100
AcDbPoint
 10
1102.651138565687
 20
-1602.183069695738
 30
0.0
  0
POINT
  5
5AD
330
4D3
100
AcDbEntity
  8
DEFPOINTS
  6
Continuous
 62
     0
100
AcDbPoint
 10
1355.651138565687
 20
-1594.689237529037
 30
0.0
  0
POINT
  5
5AE
330
4D3
100
AcDbEntity
  8
DEFPOINTS
  6
Continuous
 62
     0
100
AcDbPoint
 10
1355.651138565687
 20
-1584.768438565849
 30
0.0
  0
ENDBLK
  5
4DE
330
4D3
100
AcDbEntity
  8
0
100
AcDbBlockEnd
  0
BLOCK
  5
4EB
330
4E0
100
AcDbEntity
  8
0
100
AcDbBlockBegin
  2
*D13
 70
     1
 10
0.0
 20
0.0
 30
0.0
  3
*D13
  1

  0
LINE
  5
50A
330
4E0
100
AcDbEntity
  8
MEASURE
  6
Continuous
 62
     9
370
    -2
100
AcDbLine
 10
1355.651138565687
 20
-1593.689237529036
 30
0.0
 11
1355.651138565687
 21
-1582.768438565849
 31
0.0
  0
LINE
  5
50B
330
4E0
100
AcDbEntity
  8
MEASURE
  6
Continuous
 62
     9
370
    -2
100
AcDbLine
 10
1364.147738565686
 20
-1711.642037529037
 30
0.0
 11
1364.147738565686
 21
-1582.768438565849
 31
0.0
  0
LINE
  5
50C
330
4E0
100
AcDbEntity
  8
MEASURE
  6
Continuous
 62
     9
370
    -2
100
AcDbLine
 10
1357.651138565687
 20
-1584.768438565849
 30
0.0
 11
1362.147738565686
 21
-1584.768438565849
 31
0.0
  0
SOLID
  5
50D
330
4E0
100
AcDbEntity
  8
MEASURE
  6
Continuous
 62
     9
100
AcDbTrace
 10
1357.651138565687
 20
-1584.435105232516
 30
0.0
 11
1357.651138565687
 21
-1585.101771899182
 31
0.0
 12
1355.651138565687
 22
-1584.768438565849
 32
0.0
 13
1355.651138565687
 23
-1584.768438565849
 33
0.0
  0
SOLID
  5
50E
330
4E0
100
AcDbEntity
  8
MEASURE
  6
Continuous
 62
     9
100
AcDbTrace
 10
1362.147738565686
 20
-1584.435105232516
 30
0.0
 11
1362.147738565686
 21
-1585.101771899182
 31
0.0
 12
1364.147738565686
 22
-1584.768438565849
 32
0.0
 13
1364.147738565686
 23
-1584.768438565849
 33
0.0
  0
MTEXT
  5
50F
330
4E0
100
AcDbEntity
  8
MEASURE
  6
Continuous
 62
     2
100
AcDbMText
 10
1359.899438565686
 20
-1581.601771899182
 30
0.0
 40
3.5
 41
0.0
 71
     5
 72
     1
  1
\A1;(8.5)
  7
AD-STANDARD
 73
     1
 44
1.0
1001
ACAD
1000
MTEXTBEGIN
1070
    73
1070
     1
1070
    44
1040
1.0
1070
    74
1070
     0
1000
MTEXTEND
  0
POINT
  5
510
330
4E0
100
AcDbEntity
  8
DEFPOINTS
  6
Continuous
 62
     0
100
AcDbPoint
 10
1355.651138565687
 20
-1594.689237529037
 30
0.0
  0
POINT
  5
511
330
4E0
100
AcDbEntity
  8
DEFPOINTS
  6
Continuous
 62
     0
100
AcDbPoint
 10
1364.147738565686
 20
-1712.642037529037
 30
0.0
  0
POINT
  5
512
330
4E0
100
AcDbEntity
  8
DEFPOINTS
  6
Continuous
 62
     0
100
AcDbPoint
 10
1364.147738565686
 20
-1584.768438565849
 30
0.0
  0
ENDBLK
  5
4EC
330
4E0
100
AcDbEntity
  8
0
100
AcDbBlockEnd
  0
BLOCK
  5
51E
330
514
100
AcDbEntity
  8
0
100
AcDbBlockBegin
  2
*D14
 70
     1
 10
0.0
 20
0.0
 30
0.0
  3
*D14
  1

  0
LINE
  5
520
330
514
100
AcDbEntity
  8
MEASURE
  6
Continuous
 62
     9
370
    -2
100
AcDbLine
 10
1102.651138565687
 20
-1601.183069695738
 30
0.0
 11
1102.651138565687
 21
-1582.768438565849
 31
0.0
  0
LINE
  5
521
330
514
100
AcDbEntity
  8
MEASURE
  6
Continuous
 62
     9
370
    -2
100
AcDbLine
 10
1079.360458565687
 20
-1609.183159318286
 30
0.0
 11
1079.360458565687
 21
-1582.768438565849
 31
0.0
  0
LINE
  5
522
330
514
100
AcDbEntity
  8
MEASURE
  6
Continuous
 62
     9
370
    -2
100
AcDbLine
 10
1100.651138565687
 20
-1584.768438565849
 30
0.0
 11
1081.360458565686
 21
-1584.768438565849
 31
0.0
  0
SOLID
  5
523
330
514
100
AcDbEntity
  8
MEASURE
  6
Continuous
 62
     9
100
AcDbTrace
 10
1100.651138565687
 20
-1584.435105232516
 30
0.0
 11
1100.651138565687
 21
-1585.101771899182
 31
0.0
 12
1102.651138565687
 22
-1584.768438565849
 32
0.0
 13
1102.651138565687
 23
-1584.768438565849
 33
0.0
  0
SOLID
  5
524
330
514
100
AcDbEntity
  8
MEASURE
  6
Continuous
 62
     9
100
AcDbTrace
 10
1081.360458565686
 20
-1584.435105232516
 30
0.0
 11
1081.360458565686
 21
-1585.101771899182
 31
0.0
 12
1079.360458565687
 22
-1584.768438565849
 32
0.0
 13
1079.360458565687
 23
-1584.768438565849
 33
0.0
  0
MTEXT
  5
525
330
514
100
AcDbEntity
  8
MEASURE
  6
Continuous
 62
     2
100
AcDbMText
 10
1091.005798565687
 20
-1581.601771899182
 30
0.0
 40
3.5
 41
0.0
 71
     5
 72
     1
  1
\A1;(24)
  7
AD-STANDARD
 73
     1
 44
1.0
1001
ACAD
1000
MTEXTBEGIN
1070
    73
1070
     1
1070
    44
1040
1.0
1070
    74
1070
     0
1000
MTEXTEND
  0
POINT
  5
526
330
514
100
AcDbEntity
  8
DEFPOINTS
  6
Continuous
 62
     0
100
AcDbPoint
 10
1102.651138565687
 20
-1602.183069695738
 30
0.0
  0
POINT
  5
527
330
514
100
AcDbEntity
  8
DEFPOINTS
  6
Continuous
 62
     0
100
AcDbPoint
 10
1079.360458565687
 20
-1610.183159318286
 30
0.0
  0
POINT
  5
528
330
514
100
AcDbEntity
  8
DEFPOINTS
  6
Continuous
 62
     0
100
AcDbPoint
 10
1079.360458565687
 20
-1584.768438565849
 30
0.0
  0
ENDBLK
  5
51F
330
514
100
AcDbEntity
  8
0
100
AcDbBlockEnd
  0
BLOCK
  5
534
330
52A
100
AcDbEntity
  8
0
100
AcDbBlockBegin
  2
*D15
 70
     1
 10
0.0
 20
0.0
 30
0.0
  3
*D15
  1

  0
LINE
  5
551
330
52A
100
AcDbEntity
  8
MEASURE
  6
Continuous
 62
     9
370
    -2
100
AcDbLine
 10
1389.403714439399
 20
-1594.686069695738
 30
0.0
 11
1379.401430963455
 21
-1594.686069695738
 31
0.0
  0
LINE
  5
552
330
52A
100
AcDbEntity
  8
MEASURE
  6
Continuous
 62
     9
370
    -2
100
AcDbLine
 10
1389.403714439399
 20
-1737.628869695738
 30
0.0
 11
1379.401430963455
 21
-1737.628869695738
 31
0.0
  0
LINE
  5
553
330
52A
100
AcDbEntity
  8
MEASURE
  6
Continuous
 62
     9
370
    -2
100
AcDbLine
 10
1381.401430963455
 20
-1596.686069695738
 30
0.0
 11
1381.401430963455
 21
-1735.628869695737
 31
0.0
  0
SOLID
  5
554
330
52A
100
AcDbEntity
  8
MEASURE
  6
Continuous
 62
     9
100
AcDbTrace
 10
1381.068097630121
 20
-1596.686069695738
 30
0.0
 11
1381.734764296788
 21
-1596.686069695738
 31
0.0
 12
1381.401430963455
 22
-1594.686069695738
 32
0.0
 13
1381.401430963455
 23
-1594.686069695738
 33
0.0
  0
SOLID
  5
555
330
52A
100
AcDbEntity
  8
MEASURE
  6
Continuous
 62
     9
100
AcDbTrace
 10
1381.068097630121
 20
-1735.628869695737
 30
0.0
 11
1381.734764296788
 21
-1735.628869695737
 31
0.0
 12
1381.401430963455
 22
-1737.628869695738
 32
0.0
 13
1381.401430963455
 23
-1737.628869695738
 33
0.0
  0
MTEXT
  5
556
330
52A
100
AcDbEntity
  8
MEASURE
  6
Continuous
 62
     2
100
AcDbMText
 10
1379.151430963455
 20
-1666.157469695737
 30
0.0
 40
3.5
 41
0.0
 71
     5
 72
     1
  1
\A1;143±1
  7
AD-STANDARD
 11
0.0000000000000001
 21
1.0
 31
0.0
 73
     1
 44
1.0
1001
ACAD
1000
MTEXTBEGIN
1070
    73
1070
     1
1070
    44
1040
1.0
1070
    74
1070
     0
1000
MTEXTEND
  0
POINT
  5
557
330
52A
100
AcDbEntity
  8
DEFPOINTS
  6
Continuous
 62
     0
100
AcDbPoint
 10
1390.403714439399
 20
-1594.686069695738
 30
0.0
  0
POINT
  5
558
330
52A
100
AcDbEntity
  8
DEFPOINTS
  6
Continuous
 62
     0
100
AcDbPoint
 10
1390.403714439399
 20
-1737.628869695738
 30
0.0
  0
POINT
  5
559
330
52A
100
AcDbEntity
  8
DEFPOINTS
  6
Continuous
 62
     0
100
AcDbPoint
 10
1381.401430963455
 20
-1737.628869695738
 30
0.0
  0
ENDBLK
  5
535
330
52A
100
AcDbEntity
  8
0
100
AcDbBlockEnd
  0
BLOCK
  5
565
330
55B
100
AcDbEntity
  8
0
100
AcDbBlockBegin
  2
*D16
 70
     1
 10
0.0
 20
0.0
 30
0.0
  3
*D16
  1

  0
LINE
  5
58B
330
55B
100
AcDbEntity
  8
MEASURE
  6
Continuous
 62
     9
370
    -2
100
AcDbLine
 10
1390.403714439399
 20
-1593.686069695738
 30
0.0
 11
1390.403714439399
 21
-1582.637301011689
 31
0.0
  0
LINE
  5
58C
330
55B
100
AcDbEntity
  8
MEASURE
  6
Continuous
 62
     9
370
    -2
100
AcDbLine
 10
1439.883914439399
 20
-1593.686069695738
 30
0.0
 11
1439.883914439399
 21
-1582.637301011689
 31
0.0
  0
LINE
  5
58D
330
55B
100
AcDbEntity
  8
MEASURE
  6
Continuous
 62
     9
370
    -2
100
AcDbLine
 10
1392.403714439399
 20
-1584.637301011689
 30
0.0
 11
1437.883914439399
 21
-1584.637301011689
 31
0.0
  0
SOLID
  5
58E
330
55B
100
AcDbEntity
  8
MEASURE
  6
Continuous
 62
     9
100
AcDbTrace
 10
1392.403714439399
 20
-1584.303967678356
 30
0.0
 11
1392.403714439399
 21
-1584.970634345022
 31
0.0
 12
1390.403714439399
 22
-1584.637301011689
 32
0.0
 13
1390.403714439399
 23
-1584.637301011689
 33
0.0
  0
SOLID
  5
58F
330
55B
100
AcDbEntity
  8
MEASURE
  6
Continuous
 62
     9
100
AcDbTrace
 10
1437.883914439399
 20
-1584.303967678356
 30
0.0
 11
1437.883914439399
 21
-1584.970634345022
 31
0.0
 12
1439.883914439399
 22
-1584.637301011689
 32
0.0
 13
1439.883914439399
 23
-1584.637301011689
 33
0.0
  0
MTEXT
  5
590
330
55B
100
AcDbEntity
  8
MEASURE
  6
Continuous
 62
     2
100
AcDbMText
 10
1415.143814439399
 20
-1582.387301011689
 30
0.0
 40
3.5
 41
0.0
 71
     5
 72
     1
  1
\A1;49.5±0.5
  7
AD-STANDARD
 73
     1
 44
1.0
1001
ACAD
1000
MTEXTBEGIN
1070
    73
1070
     1
1070
    44
1040
1.0
1070
    74
1070
     0
1000
MTEXTEND
  0
POINT
  5
591
330
55B
100
AcDbEntity
  8
DEFPOINTS
  6
Continuous
 62
     0
100
AcDbPoint
 10
1390.403714439399
 20
-1594.686069695738
 30
0.0
  0
POINT
  5
592
330
55B
100
AcDbEntity
  8
DEFPOINTS
  6
Continuous
 62
     0
100
AcDbPoint
 10
1439.883914439399
 20
-1594.686069695738
 30
0.0
  0
POINT
  5
593
330
55B
100
AcDbEntity
  8
DEFPOINTS
  6
Continuous
 62
     0
100
AcDbPoint
 10
1439.883914439399
 20
-1584.637301011689
 30
0.0
  0
ENDBLK
  5
566
330
55B
100
AcDbEntity
  8
0
100
AcDbBlockEnd
  0
ENDSEC
  0
SECTION
  2
ENTITIES
  0
HATCH
  5
3ED
330
A
100
AcDbEntity
  8
1
  6
Continuous
 62
     2
100
AcDbHatch
 10
0.0
 20
0.0
 30
0.0
210
0.0
220
0.0
230
1.0
  2
USER
 70
     0
 71
     1
 91
        1
 92
        1
 93
        5
 72
     2
 10
1400.246875154257
 20
-1640.917569695738
 40
4.498200000000299
 50
310.4937742503843
 51
540.0
 73
     1
 72
     2
 10
1399.747075154259
 20
-1640.917569695738
 40
3.998400000000169
 50
180.0
 51
225.000000000009
 73
     1
 72
     1
 10
1396.919779400362
 20
-1643.744865449635
 11
1397.273191369598
 21
-1643.391453480398
 72
     2
 10
1399.747075154259
 20
-1640.917569695738
 40
3.498600000000359
 50
135.0000000000002
 51
405.0000000000133
 73
     0
 72
     1
 10
1402.220958938917
 20
-1643.391453480398
 11
1403.167850681616
 21
-1644.338345223096
 97
        5
330
2A4
330
2A3
330
186
330
2A5
330
184
 75
     1
 76
     0
 52
0.0
 41
0.1
 77
     0
 78
     1
 53
0.0
 43
95.18749249774941
 44
0.0
 45
0.0
 46
0.1
 79
     0
 98
        1
 10
95.18749249774941
 20
0.0
  0
MTEXT
  5
387
330
A
100
AcDbEntity
  8
1
 62
     7
100
AcDbMText
 10
1027.44076682013
 20
-1615.431059318286
 30
0.0
 40
2.5
 41
0.0
 71
     5
 72
     1
  1
＋
  7
CONVERTER_10
 11
-1.0
 21
0.0
 31
0.0
 73
     1
 44
1.0
1001
ACAD
1000
MTEXTBEGIN
1070
    73
1070
     1
1070
    44
1040
1.0
1070
    74
1070
     0
1000
MTEXTEND
  0
MTEXT
  5
386
330
A
100
AcDbEntity
  8
1
 62
     7
100
AcDbMText
 10
1038.0874918239
 20
-1607.432677244546
 30
0.0
 40
2.5
 41
0.0
 71
     5
 72
     1
  1
INPUT
  7
CONVERTER_11
 73
     1
 44
1.0
1001
ACAD
1000
MTEXTBEGIN
1070
    73
1070
     1
1070
    44
1040
1.0
1070
    74
1070
     0
1000
MTEXTEND
  0
MTEXT
  5
384
330
A
100
AcDbEntity
  8
1
 62
     7
100
AcDbMText
 10
1027.448639125732
 20
-1653.514729696734
 30
0.0
 40
2.0
 41
0.0
 71
     5
 72
     1
  1
COM
  7
CONVERTER_11
 73
     1
 44
1.0
1001
ACAD
1000
MTEXTBEGIN
1070
    73
1070
     1
1070
    44
1040
1.0
1070
    74
1070
     0
1000
MTEXTEND
  0
MTEXT
  5
382
330
A
100
AcDbEntity
  8
1
 62
     7
100
AcDbMText
 10
1037.021690171271
 20
-1701.693276480969
 30
0.0
 40
2.5
 41
0.0
 71
     5
 72
     1
  1
POWER
  7
CONVERTER_9
 73
     1
 44
1.0
1001
ACAD
1000
MTEXTBEGIN
1070
    73
1070
     1
1070
    44
1040
1.0
1070
    74
1070
     0
1000
MTEXTEND
  0
MTEXT
  5
381
330
A
100
AcDbEntity
  8
1
 62
     7
100
AcDbMText
 10
1043.390076656743
 20
-1686.449405484702
 30
0.0
 40
2.5
 41
0.0
 71
     5
 72
     1
  1
I/F
  7
CONVERTER_9
 73
     1
 44
1.0
1001
ACAD
1000
MTEXTBEGIN
1070
    73
1070
     1
1070
    44
1040
1.0
1070
    74
1070
     0
1000
MTEXTEND
  0
TEXT
  5
37F
330
A
100
AcDbEntity
  8
1
 62
     7
100
AcDbText
 10
1055.383579434004
 20
-1668.656469695738
 30
0.0
 40
2.0
  1
2
 41
0.95
  7
CONVERTER_7
100
AcDbText
  0
TEXT
  5
37E
330
A
100
AcDbEntity
  8
1
 62
     7
100
AcDbText
 10
1031.485854462604
 20
-1668.656138900347
 30
0.0
 40
2.0
  1
OUTPUT
 41
0.95
  7
CONVERTER_7
100
AcDbText
  0
TEXT
  5
37D
330
A
100
AcDbEntity
  8
1
 62
     7
100
AcDbText
 10
1017.147418132103
 20
-1668.656469695738
 30
0.0
 40
2.0
  1
1
 41
0.95
  7
CONVERTER_7
100
AcDbText
  0
ARC
  5
34F
330
A
100
AcDbEntity
  8
1
  6
Continuous
 62
     7
100
AcDbCircle
 10
1102.151938565687
 20
-1567.630223470766
 30
0.0
 40
1.5
100
AcDbArc
 50
180.0
 51
-90.0
  0
ARC
  5
34E
330
A
100
AcDbEntity
  8
1
  6
Continuous
 62
     7
100
AcDbCircle
 10
1102.151938565687
 20
-1523.649823470766
 30
0.0
 40
1.5
100
AcDbArc
 50
90.0
 51
180.0
  0
ARC
  5
34D
330
A
100
AcDbEntity
  8
1
  6
Continuous
 62
     7
100
AcDbCircle
 10
1098.652738565687
 20
-1690.762623695738
 30
0.0
 40
0.9996000000001
100
AcDbArc
 50
90.0
 51
180.0
  0
ARC
  5
34C
330
A
100
AcDbEntity
  8
1
  6
Continuous
 62
     7
100
AcDbCircle
 10
1098.652738565687
 20
-1696.580295695738
 30
0.0
 40
0.9996000000001
100
AcDbArc
 50
180.0
 51
-90.0
  0
ARC
  5
343
330
A
100
AcDbEntity
  8
1
  6
Continuous
 62
     7
100
AcDbCircle
 10
1016.149279434004
 20
-1683.150669695739
 30
0.0
 40
0.4998000000000501
100
AcDbArc
 50
180.0
 51
-90.0
  0
ARC
  5
342
330
A
100
AcDbEntity
  8
1
  6
Continuous
 62
     7
100
AcDbCircle
 10
1016.149279434004
 20
-1665.653871844682
 30
0.0
 40
0.4998000000000501
100
AcDbArc
 50
90.0
 51
180.0
  0
ARC
  5
341
330
A
100
AcDbEntity
  8
1
  6
Continuous
 62
     7
100
AcDbCircle
 10
1057.632679434004
 20
-1665.653871844682
 30
0.0
 40
0.49979999999982
100
AcDbArc
 50
0.0
 51
90.0
  0
ARC
  5
340
330
A
100
AcDbEntity
  8
1
  6
Continuous
 62
     7
100
AcDbCircle
 10
1057.632679434004
 20
-1683.150669695739
 30
0.0
 40
0.49979999999891
100
AcDbArc
 50
-90.0
 51
0.0
  0
ARC
  5
33F
330
A
100
AcDbEntity
  8
1
  6
Continuous
 62
     5
100
AcDbCircle
 10
1409.396114439398
 20
-1667.656869695739
 30
0.0
 40
1.99919999999906
100
AcDbArc
 50
270.0
 51
0.0
  0
ARC
  5
33E
330
A
100
AcDbEntity
  8
1
  6
Continuous
 62
     5
100
AcDbCircle
 10
1409.396114439398
 20
-1663.658469695738
 30
0.0
 40
1.999199999999969
100
AcDbArc
 50
0.0
 51
90.0
  0
ARC
  5
33D
330
A
100
AcDbEntity
  8
1
  6
Continuous
 62
     5
100
AcDbCircle
 10
1395.901514439398
 20
-1667.656869695739
 30
0.0
 40
1.999199999999969
100
AcDbArc
 50
180.0
 51
270.0
  0
ARC
  5
33C
330
A
100
AcDbEntity
  8
1
  6
Continuous
 62
     5
100
AcDbCircle
 10
1395.901514439398
 20
-1663.658469695738
 30
0.0
 40
1.999199999999969
100
AcDbArc
 50
90.0
 51
180.0
  0
ARC
  5
33B
330
A
100
AcDbEntity
  8
1
  6
Continuous
 62
     5
100
AcDbCircle
 10
1434.386114439398
 20
-1611.579309695738
 30
0.0
 40
1.999199999999969
100
AcDbArc
 50
0.0
 51
90.0
  0
ARC
  5
33A
330
A
100
AcDbEntity
  8
1
  6
Continuous
 62
     5
100
AcDbCircle
 10
1434.386114439398
 20
-1617.576909695738
 30
0.0
 40
1.999199999999969
100
AcDbArc
 50
270.0
 51
0.0
  0
ARC
  5
339
330
A
100
AcDbEntity
  8
1
  6
Continuous
 62
     5
100
AcDbCircle
 10
1413.894314439398
 20
-1617.576909695738
 30
0.0
 40
1.999199999999969
100
AcDbArc
 50
180.0
 51
270.0
  0
ARC
  5
338
330
A
100
AcDbEntity
  8
1
  6
Continuous
 62
     5
100
AcDbCircle
 10
1413.894314439398
 20
-1611.579309695738
 30
0.0
 40
1.999199999999969
100
AcDbArc
 50
90.0
 51
180.0
  0
ARC
  5
337
330
A
100
AcDbEntity
  8
1
  6
Continuous
 62
     5
100
AcDbCircle
 10
1434.386114439398
 20
-1624.474149695737
 30
0.0
 40
1.999199999999969
100
AcDbArc
 50
0.0
 51
90.0
  0
ARC
  5
336
330
A
100
AcDbEntity
  8
1
  6
Continuous
 62
     5
100
AcDbCircle
 10
1434.386114439398
 20
-1647.664869695739
 30
0.0
 40
1.99919999999884
100
AcDbArc
 50
270.0
 51
0.0
  0
ARC
  5
335
330
A
100
AcDbEntity
  8
1
  6
Continuous
 62
     5
100
AcDbCircle
 10
1395.401714439399
 20
-1647.664869695739
 30
0.0
 40
1.99920000000111
100
AcDbArc
 50
179.9999999999674
 51
270.0
  0
ARC
  5
334
330
A
100
AcDbEntity
  8
1
  6
Continuous
 62
     5
100
AcDbCircle
 10
1395.4017144394
 20
-1624.474149695739
 30
0.0
 40
1.99920000000111
100
AcDbArc
 50
90.00000000002605
 51
180.0
  0
ARC
  5
333
330
A
100
AcDbEntity
  8
1
  6
Continuous
 62
     5
100
AcDbCircle
 10
1434.386114439398
 20
-1676.053509695738
 30
0.0
 40
1.999199999999969
100
AcDbArc
 50
0.0
 51
90.0
  0
ARC
  5
332
330
A
100
AcDbEntity
  8
1
  6
Continuous
 62
     5
100
AcDbCircle
 10
1434.386114439398
 20
-1682.051109695738
 30
0.0
 40
1.999199999999969
100
AcDbArc
 50
270.0
 51
0.0
  0
ARC
  5
331
330
A
100
AcDbEntity
  8
1
  6
Continuous
 62
     5
100
AcDbCircle
 10
1413.894314439398
 20
-1682.051109695738
 30
0.0
 40
1.999199999999969
100
AcDbArc
 50
180.0
 51
270.0
  0
ARC
  5
330
330
A
100
AcDbEntity
  8
1
  6
Continuous
 62
     5
100
AcDbCircle
 10
1413.894314439398
 20
-1676.053509695738
 30
0.0
 40
1.999199999999969
100
AcDbArc
 50
90.0
 51
180.0
  0
ARC
  5
32F
330
A
100
AcDbEntity
  8
1
  6
Continuous
 62
     5
100
AcDbCircle
 10
1413.894314439398
 20
-1701.844342291661
 30
0.0
 40
1.999199999999969
100
AcDbArc
 50
90.0
 51
180.0
  0
ARC
  5
32E
330
A
100
AcDbEntity
  8
1
  6
Continuous
 62
     5
100
AcDbCircle
 10
1413.894314439398
 20
-1720.735629695739
 30
0.0
 40
1.999199999999969
100
AcDbArc
 50
180.0
 51
270.0
  0
ARC
  5
32D
330
A
100
AcDbEntity
  8
1
  6
Continuous
 62
     5
100
AcDbCircle
 10
1434.636014439398
 20
-1720.985529695738
 30
0.0
 40
1.767059846185129
100
AcDbArc
 50
278.1301023541572
 51
8.130102354127775
  0
ARC
  5
32C
330
A
100
AcDbEntity
  8
1
  6
Continuous
 62
     5
100
AcDbCircle
 10
1434.386114439398
 20
-1701.844342291662
 30
0.0
 40
1.999199999999969
100
AcDbArc
 50
0.00000000003258
 51
90.0
  0
ARC
  5
32B
330
A
100
AcDbEntity
  8
1
  6
Continuous
 62
     2
100
AcDbCircle
 10
1340.407238565685
 20
-1602.946813035468
 30
0.0
 40
0.99960000000088
100
AcDbArc
 50
49.54182577350984
 51
73.04223669992663
  0
ARC
  5
32A
330
A
100
AcDbEntity
  8
1
  6
Continuous
 62
     2
100
AcDbCircle
 10
1119.394438565687
 20
-1602.94364520217
 30
0.0
 40
0.99960000000014
100
AcDbArc
 50
49.54182577355918
 51
73.04223669998906
  0
ARC
  5
329
330
A
100
AcDbEntity
  8
1
  6
Continuous
 62
     2
100
AcDbCircle
 10
1115.895838565687
 20
-1602.94364520217
 30
0.0
 40
0.9995999999993198
100
AcDbArc
 50
106.9577633000109
 51
130.4581742264408
  0
ARC
  5
328
330
A
100
AcDbEntity
  8
1
  6
Continuous
 62
     2
100
AcDbCircle
 10
1336.908638565687
 20
-1602.946813035468
 30
0.0
 40
0.9995999999995898
100
AcDbArc
 50
106.9577633000606
 51
130.4581742264408
  0
ARC
  5
327
330
A
100
AcDbEntity
  8
1
  6
Continuous
 62
     7
100
AcDbCircle
 10
1025.895379434004
 20
-1707.740829695738
 30
0.0
 40
3.99839999999995
100
AcDbArc
 50
90.0
 51
180.0
  0
ARC
  5
326
330
A
100
AcDbEntity
  8
1
  6
Continuous
 62
     7
100
AcDbCircle
 10
1047.886579434004
 20
-1707.740829695738
 30
0.0
 40
0.99959999999987
100
AcDbArc
 50
0.0
 51
90.0
  0
ARC
  5
325
330
A
100
AcDbEntity
  8
1
  6
Continuous
 62
     7
100
AcDbCircle
 10
1047.886579434004
 20
-1722.135069695738
 30
0.0
 40
0.9996000000001
100
AcDbArc
 50
-90.0
 51
0.0
  0
ARC
  5
324
330
A
100
AcDbEntity
  8
1
  6
Continuous
 62
     7
100
AcDbCircle
 10
1025.895379434004
 20
-1722.135069695738
 30
0.0
 40
0.9996000000001
100
AcDbArc
 50
180.0
 51
-90.0
  0
ARC
  5
323
330
A
100
AcDbEntity
  8
1
  6
Continuous
 62
     7
100
AcDbCircle
 10
1025.895379434004
 20
-1707.740829695738
 30
0.0
 40
0.9996000000001
100
AcDbArc
 50
90.0
 51
180.0
  0
ARC
  5
322
330
A
100
AcDbEntity
  8
1
  6
Continuous
 62
     7
100
AcDbCircle
 10
1025.895379434004
 20
-1722.135069695738
 30
0.0
 40
3.99840000000006
100
AcDbArc
 50
180.0
 51
-90.0
  0
ARC
  5
321
330
A
100
AcDbEntity
  8
1
  6
Continuous
 62
     7
100
AcDbCircle
 10
1047.886579434004
 20
-1707.740829695738
 30
0.0
 40
3.99839999999995
100
AcDbArc
 50
0.0
 51
90.0
  0
ARC
  5
320
330
A
100
AcDbEntity
  8
1
  6
Continuous
 62
     7
100
AcDbCircle
 10
1047.886579434004
 20
-1722.135069695738
 30
0.0
 40
3.998400000000169
100
AcDbArc
 50
-90.0
 51
0.0
  0
ARC
  5
31F
330
A
100
AcDbEntity
  8
1
  6
Continuous
 62
     7
100
AcDbCircle
 10
1099.152538565687
 20
-1705.741629695738
 30
0.0
 40
1.999199999999969
100
AcDbArc
 50
90.0
 51
180.0
  0
ARC
  5
31E
330
A
100
AcDbEntity
  8
1
  6
Continuous
 62
     7
100
AcDbCircle
 10
1099.152538565687
 20
-1724.134269695738
 30
0.0
 40
1.999200000000199
100
AcDbArc
 50
180.0
 51
-90.0
  0
ARC
  5
31D
330
A
100
AcDbEntity
  8
1
  6
Continuous
 62
     2
100
AcDbCircle
 10
1038.640279434004
 20
-1602.94364520217
 30
0.0
 40
0.99960000000014
100
AcDbArc
 50
49.54182577355918
 51
73.04223669998906
  0
ARC
  5
31C
330
A
100
AcDbEntity
  8
1
  6
Continuous
 62
     2
100
AcDbCircle
 10
1035.141679434004
 20
-1602.94364520217
 30
0.0
 40
0.9995999999993198
100
AcDbArc
 50
106.9577633000109
 51
130.4581742264408
  0
ARC
  5
31B
330
A
100
AcDbEntity
  8
1
  6
Continuous
 62
     7
100
AcDbCircle
 10
1060.631479434004
 20
-1603.182669695738
 30
0.0
 40
0.9996000000001
100
AcDbArc
 50
0.0
 51
90.0
  0
ARC
  5
31A
330
A
100
AcDbEntity
  8
1
  6
Continuous
 62
     7
100
AcDbCircle
 10
1013.150479434004
 20
-1603.182669695738
 30
0.0
 40
0.9996000000001
100
AcDbArc
 50
90.0
 51
180.0
  0
ARC
  5
319
330
A
100
AcDbEntity
  8
1
  6
Continuous
 62
     7
100
AcDbCircle
 10
1349.653538565687
 20
-1728.635637529038
 30
0.0
 40
0.9995999999989598
100
AcDbArc
 50
270.0
 51
0.0
  0
ARC
  5
318
330
A
100
AcDbEntity
  8
1
  6
Continuous
 62
     7
100
AcDbCircle
 10
1349.653538565687
 20
-1605.684837529037
 30
0.0
 40
0.99959999999987
100
AcDbArc
 50
0.0
 51
90.0
  0
LWPOLYLINE
  5
317
330
A
100
AcDbEntity
  8
1
  6
Continuous
 62
     7
 60
     1
100
AcDbPolyline
 90
        2
 70
     0
 43
0.0
 10
1231.012815273928
 20
-1729.632069695738
 10
1245.007215273928
 20
-1729.632069695738
  0
LWPOLYLINE
  5
316
330
A
100
AcDbEntity
  8
1
  6
Continuous
 62
     7
 60
     1
100
AcDbPolyline
 90
        2
 70
     0
 43
0.0
 10
1245.007215273928
 20
-1729.632069695738
 10
1234.437456196366
 20
-1729.632069695738
  0
LWPOLYLINE
  5
315
330
A
100
AcDbEntity
  8
1
  6
Continuous
 62
     7
 60
     1
100
AcDbPolyline
 90
        2
 70
     0
 43
0.0
 10
1233.760299398494
 20
-1728.632469695739
 10
1245.007215273928
 20
-1728.632469695739
  0
LWPOLYLINE
  5
314
330
A
100
AcDbEntity
  8
1
  6
Continuous
 62
     7
 60
     1
100
AcDbPolyline
 90
        2
 70
     0
 43
0.0
 10
1246.006815273928
 20
-1728.632469695739
 10
1246.006815273928
 20
-1727.632869695738
  0
LWPOLYLINE
  5
313
330
A
100
AcDbEntity
  8
1
  6
Continuous
 62
     7
 60
     1
100
AcDbPolyline
 90
        3
 70
     0
 43
0.0
 10
1245.007215273928
 20
-1703.646000909063
 10
1246.006815273928
 20
-1703.05646935433
 10
1246.006815273928
 20
-1728.632469695739
  0
LWPOLYLINE
  5
312
330
A
100
AcDbEntity
  8
1
  6
Continuous
 62
     7
 60
     1
100
AcDbPolyline
 90
        2
 70
     0
 43
0.0
 10
1253.004015273928
 20
-1601.680101862439
 10
1253.004015273928
 20
-1600.183869695738
  0
LWPOLYLINE
  5
311
330
A
100
AcDbEntity
  8
1
  6
Continuous
 62
     7
 60
     1
100
AcDbPolyline
 90
        2
 70
     0
 43
0.0
 10
1251.004815273928
 20
-1601.683269695738
 10
1251.004815273928
 20
-1602.179901862439
  0
LWPOLYLINE
  5
310
330
A
100
AcDbEntity
  8
1
  6
Continuous
 62
     7
 60
     1
100
AcDbPolyline
 90
        4
 70
     0
 43
0.0
 10
1253.004015273928
 20
-1595.685911638817
 10
1252.957399365817
 20
-1597.185069695738
 10
1251.004815273928
 20
-1597.185069695738
 10
1249.005615273928
 20
-1597.185069695738
  0
LWPOLYLINE
  5
30F
330
A
100
AcDbEntity
  8
1
  6
Continuous
 62
     7
 60
     1
100
AcDbPolyline
 90
        3
 70
     0
 43
0.0
 10
1251.004815273928
 20
-1595.685669695738
 10
1251.004815273928
 20
-1595.186111638816
 10
1252.504215273928
 20
-1595.186111638816
  0
LWPOLYLINE
  5
30E
330
A
100
AcDbEntity
  8
1
  6
Continuous
 62
     7
 60
     1
100
AcDbPolyline
 90
        2
 70
     0
 43
0.0
 10
1246.006815273928
 20
-1596.685269695738
 10
1246.006815273928
 20
-1595.685669695738
  0
LWPOLYLINE
  5
30D
330
A
100
AcDbEntity
  8
1
  6
Continuous
 62
     7
 60
     1
100
AcDbPolyline
 90
        3
 70
     0
 43
0.0
 10
1245.007215273928
 20
-1735.629669695738
 10
1245.007215273928
 20
-1736.629269695738
 10
1231.012815273928
 20
-1737.129069695737
  0
LWPOLYLINE
  5
30C
330
A
100
AcDbEntity
  8
1
  6
Continuous
 62
     7
 60
     1
100
AcDbPolyline
 90
        3
 70
     0
 43
0.0
 10
1251.004815273928
 20
-1737.628869695738
 10
1251.004815273928
 20
-1729.132269695738
 10
1248.505815273928
 20
-1729.132269695738
  0
LWPOLYLINE
  5
30B
330
A
100
AcDbEntity
  8
1
  6
Continuous
 62
     7
 60
     1
100
AcDbPolyline
 90
        2
 70
     0
 43
0.0
 10
1246.006815273928
 20
-1736.629269695738
 10
1246.006815273928
 20
-1737.628869695738
  0
LWPOLYLINE
  5
30A
330
A
100
AcDbEntity
  8
1
  6
Continuous
 62
     7
 60
     1
100
AcDbPolyline
 90
        2
 70
     0
 43
0.0
 10
1253.004015273928
 20
-1548.635655637466
 10
1253.004015273928
 20
-1547.139423470765
  0
LWPOLYLINE
  5
309
330
A
100
AcDbEntity
  8
1
  6
Continuous
 62
     7
 60
     1
100
AcDbPolyline
 90
        2
 70
     0
 43
0.0
 10
1251.004815273928
 20
-1548.638823470766
 10
1251.004815273928
 20
-1549.135455637466
  0
LWPOLYLINE
  5
308
330
A
100
AcDbEntity
  8
1
  6
Continuous
 62
     7
 60
     1
100
AcDbPolyline
 90
        4
 70
     0
 43
0.0
 10
1253.004015273928
 20
-1542.641465413844
 10
1252.957399365817
 20
-1544.140623470766
 10
1251.004815273928
 20
-1544.140623470766
 10
1249.005615273928
 20
-1544.140623470766
  0
LWPOLYLINE
  5
307
330
A
100
AcDbEntity
  8
1
  6
Continuous
 62
     7
 60
     1
100
AcDbPolyline
 90
        3
 70
     0
 43
0.0
 10
1251.004815273928
 20
-1542.641223470766
 10
1251.004815273928
 20
-1542.141665413844
 10
1252.504215273928
 20
-1542.141665413844
  0
LWPOLYLINE
  5
306
330
A
100
AcDbEntity
  8
1
  6
Continuous
 62
     7
 60
     1
100
AcDbPolyline
 90
        2
 70
     0
 43
0.0
 10
1246.006815273928
 20
-1543.640823470765
 10
1246.006815273928
 20
-1542.641223470766
  0
LWPOLYLINE
  5
305
330
A
100
AcDbEntity
  8
1
  6
Continuous
 62
     7
 60
     1
100
AcDbPolyline
 90
        2
 70
     0
 43
0.0
 10
1116.045778565687
 20
-1604.682069695738
 10
1099.70127329282
 20
-1604.682069695738
  0
LWPOLYLINE
  5
304
330
A
100
AcDbEntity
  8
1
  6
Continuous
 62
     7
 60
     1
100
AcDbPolyline
 90
        2
 70
     0
 43
0.0
 10
1099.70127329282
 20
-1603.682469695738
 10
1116.045778565687
 20
-1603.682469695738
  0
CIRCLE
  5
303
330
A
100
AcDbEntity
  8
1
  6
Continuous
 62
     2
100
AcDbCircle
 10
1095.653938565687
 20
-1557.880223470766
 30
0.0
 40
1.0
  0
CIRCLE
  5
302
330
A
100
AcDbEntity
  8
1
  6
Continuous
 62
     2
100
AcDbCircle
 10
1095.653938565687
 20
-1532.890223470766
 30
0.0
 40
1.0
  0
CIRCLE
  5
300
330
A
100
AcDbEntity
  8
1
  6
Continuous
 62
     2
100
AcDbCircle
 10
1042.893577434004
 20
-1692.252027695738
 30
0.0
 40
0.4998000000000501
  0
CIRCLE
  5
2FF
330
A
100
AcDbEntity
  8
1
  6
Continuous
 62
     2
100
AcDbCircle
 10
1040.154673434004
 20
-1692.252027695738
 30
0.0
 40
0.4998000000000501
  0
CIRCLE
  5
2FE
330
A
100
AcDbEntity
  8
1
  6
Continuous
 62
     2
100
AcDbCircle
 10
1037.405773434004
 20
-1692.252027695738
 30
0.0
 40
0.4998000000000501
  0
CIRCLE
  5
2FD
330
A
100
AcDbEntity
  8
1
  6
Continuous
 62
     2
100
AcDbCircle
 10
1048.381381434004
 20
-1692.252027695738
 30
0.0
 40
0.4998000000000501
  0
CIRCLE
  5
2FC
330
A
100
AcDbEntity
  8
1
  6
Continuous
 62
     2
100
AcDbCircle
 10
1045.632481434004
 20
-1692.252027695738
 30
0.0
 40
0.4998000000000501
  0
CIRCLE
  5
2FB
330
A
100
AcDbEntity
  8
1
  6
Continuous
 62
     2
100
AcDbCircle
 10
1041.524125434004
 20
-1695.090891695738
 30
0.0
 40
0.4998000000000501
  0
CIRCLE
  5
2FA
330
A
100
AcDbEntity
  8
1
  6
Continuous
 62
     2
100
AcDbCircle
 10
1044.263029434004
 20
-1695.090891695738
 30
0.0
 40
0.4998000000000501
  0
CIRCLE
  5
2F9
330
A
100
AcDbEntity
  8
1
  6
Continuous
 62
     2
100
AcDbCircle
 10
1047.001933434004
 20
-1695.090891695738
 30
0.0
 40
0.4998000000000501
  0
CIRCLE
  5
2F8
330
A
100
AcDbEntity
  8
1
  6
Continuous
 62
     2
100
AcDbCircle
 10
1038.785221434004
 20
-1695.090891695738
 30
0.0
 40
0.4998000000000501
  0
CIRCLE
  5
2F7
330
A
100
AcDbEntity
  8
1
  6
Continuous
 62
     7
100
AcDbCircle
 10
1030.403575434004
 20
-1693.696449695738
 30
0.0
 40
2.59895999999912
  0
CIRCLE
  5
2F6
330
A
100
AcDbEntity
  8
1
  6
Continuous
 62
     7
100
AcDbCircle
 10
1055.383579434004
 20
-1693.696449695738
 30
0.0
 40
2.59895999999912
  0
CIRCLE
  5
2F5
330
A
100
AcDbEntity
  8
1
  6
Continuous
 62
     7
100
AcDbCircle
 10
1429.388114439398
 20
-1704.841989695738
 30
0.0
 40
4.998000000000049
  0
CIRCLE
  5
2F4
330
A
100
AcDbEntity
  8
1
  6
Continuous
 62
     7
100
AcDbCircle
 10
1398.965350274425
 20
-1665.657669695738
 30
0.0
 40
3.99839999999995
  0
CIRCLE
  5
2F3
330
A
100
AcDbEntity
  8
1
  6
Continuous
 62
     7
100
AcDbCircle
 10
1406.897114439398
 20
-1664.708049695738
 30
0.0
 40
0.99959999999987
  0
CIRCLE
  5
2F2
330
A
100
AcDbEntity
  8
1
  6
Continuous
 62
     7
100
AcDbCircle
 10
1397.899301845197
 20
-1617.426969695737
 30
0.0
 40
0.99959999999987
  0
CIRCLE
  5
2F1
330
A
100
AcDbEntity
  8
1
  6
Continuous
 62
     7
100
AcDbCircle
 10
1397.899301845197
 20
-1613.128689695738
 30
0.0
 40
0.99959999999987
  0
CIRCLE
  5
2F0
330
A
100
AcDbEntity
  8
1
  6
Continuous
 62
     7
100
AcDbCircle
 10
1429.388114439398
 20
-1614.578109695738
 30
0.0
 40
4.998000000000049
  0
CIRCLE
  5
2EF
330
A
100
AcDbEntity
  8
1
  6
Continuous
 62
     7
100
AcDbCircle
 10
1414.893914439399
 20
-1677.720885986134
 30
0.0
 40
0.99959999999987
  0
CIRCLE
  5
2EE
330
A
100
AcDbEntity
  8
1
  6
Continuous
 62
     7
100
AcDbCircle
 10
1429.388114439398
 20
-1640.367789695738
 30
0.0
 40
4.998000000000049
  0
CIRCLE
  5
2ED
330
A
100
AcDbEntity
  8
1
  6
Continuous
 62
     7
100
AcDbCircle
 10
1429.388114439398
 20
-1627.472949695738
 30
0.0
 40
4.998000000000049
  0
CIRCLE
  5
2EC
330
A
100
AcDbEntity
  8
1
  6
Continuous
 62
     7
100
AcDbCircle
 10
1429.388114439398
 20
-1679.052309695739
 30
0.0
 40
4.998000000000049
  0
CIRCLE
  5
2EB
330
A
100
AcDbEntity
  8
1
  6
Continuous
 62
     7
100
AcDbCircle
 10
1399.747075154259
 20
-1640.917569695738
 30
0.0
 40
2.89884000000006
  0
CIRCLE
  5
2EA
330
A
100
AcDbEntity
  8
1
  6
Continuous
 62
     7
100
AcDbCircle
 10
1414.893914439399
 20
-1643.216649695737
 30
0.0
 40
0.9996000000001
  0
CIRCLE
  5
2E9
330
A
100
AcDbEntity
  8
1
  6
Continuous
 62
     7
100
AcDbCircle
 10
1414.893914439399
 20
-1638.918369695738
 30
0.0
 40
0.9996000000001
  0
CIRCLE
  5
2E8
330
A
100
AcDbEntity
  8
1
  6
Continuous
 62
     7
100
AcDbCircle
 10
1414.893914439399
 20
-1634.620089695738
 30
0.0
 40
0.9996000000001
  0
CIRCLE
  5
2E7
330
A
100
AcDbEntity
  8
1
  6
Continuous
 62
     7
100
AcDbCircle
 10
1414.893914439399
 20
-1630.321809695738
 30
0.0
 40
0.9996000000001
  0
CIRCLE
  5
2E6
330
A
100
AcDbEntity
  8
1
  6
Continuous
 62
     7
100
AcDbCircle
 10
1414.893914439399
 20
-1626.023529695738
 30
0.0
 40
0.9996000000001
  0
CIRCLE
  5
2E5
330
A
100
AcDbEntity
  8
1
  6
Continuous
 62
     7
100
AcDbCircle
 10
1406.897114439398
 20
-1647.514929695738
 30
0.0
 40
0.99959999999987
  0
CIRCLE
  5
2E4
330
A
100
AcDbEntity
  8
1
  6
Continuous
 62
     7
100
AcDbCircle
 10
1406.897114439398
 20
-1643.216649695738
 30
0.0
 40
0.99959999999987
  0
CIRCLE
  5
2E3
330
A
100
AcDbEntity
  8
1
  6
Continuous
 62
     7
100
AcDbCircle
 10
1406.897114439398
 20
-1638.918369695738
 30
0.0
 40
0.99959999999987
  0
CIRCLE
  5
2E2
330
A
100
AcDbEntity
  8
1
  6
Continuous
 62
     7
100
AcDbCircle
 10
1406.897114439398
 20
-1634.620089695738
 30
0.0
 40
0.99959999999987
  0
CIRCLE
  5
2E1
330
A
100
AcDbEntity
  8
1
  6
Continuous
 62
     7
100
AcDbCircle
 10
1406.897114439398
 20
-1630.321809695738
 30
0.0
 40
0.99959999999987
  0
CIRCLE
  5
2E0
330
A
100
AcDbEntity
  8
1
  6
Continuous
 62
     7
100
AcDbCircle
 10
1406.897114439398
 20
-1626.023529695738
 30
0.0
 40
0.99959999999987
  0
CIRCLE
  5
2DF
330
A
100
AcDbEntity
  8
1
  6
Continuous
 62
     7
100
AcDbCircle
 10
1414.893914439399
 20
-1613.128689695738
 30
0.0
 40
0.9996000000001
  0
CIRCLE
  5
2DE
330
A
100
AcDbEntity
  8
1
  6
Continuous
 62
     7
100
AcDbCircle
 10
1429.388114439398
 20
-1717.736829695738
 30
0.0
 40
4.998000000000049
  0
CIRCLE
  5
2DD
330
A
100
AcDbEntity
  8
1
  6
Continuous
 62
     7
100
AcDbCircle
 10
1414.893914439399
 20
-1711.989129695737
 30
0.0
 40
0.9996000000001
  0
CIRCLE
  5
2DC
330
A
100
AcDbEntity
  8
1
  6
Continuous
 62
     7
100
AcDbCircle
 10
1414.893914439399
 20
-1716.287409695738
 30
0.0
 40
0.9996000000001
  0
CIRCLE
  5
2DB
330
A
100
AcDbEntity
  8
1
  6
Continuous
 62
     7
100
AcDbCircle
 10
1414.893914439399
 20
-1720.585689695738
 30
0.0
 40
0.9996000000001
  0
CIRCLE
  5
2DA
330
A
100
AcDbEntity
  8
1
  6
Continuous
 62
     7
100
AcDbCircle
 10
1414.893914439399
 20
-1707.690849695738
 30
0.0
 40
0.9996000000001
  0
CIRCLE
  5
2D9
330
A
100
AcDbEntity
  8
1
  6
Continuous
 62
     7
100
AcDbCircle
 10
1414.893914439399
 20
-1703.392569695738
 30
0.0
 40
0.9996000000001
  0
CIRCLE
  5
2D8
330
A
100
AcDbEntity
  8
1
  6
Continuous
 62
     7
100
AcDbCircle
 10
1399.749974439399
 20
-1692.396969695738
 30
0.0
 40
2.89884000000006
  0
CIRCLE
  5
2D7
330
A
100
AcDbEntity
  8
1
  6
Continuous
 62
     7
100
AcDbCircle
 10
1036.890979434004
 20
-1733.630469695739
 30
0.0
 40
0.99960000000014
  0
CIRCLE
  5
2D6
330
A
100
AcDbEntity
  8
1
  6
Continuous
 62
     7
100
AcDbCircle
 10
1036.890979434004
 20
-1733.630469695739
 30
0.0
 40
2.97183503307997
  0
CIRCLE
  5
2D5
330
A
100
AcDbEntity
  8
1
  6
Continuous
 62
     7
100
AcDbCircle
 10
1036.890979434004
 20
-1598.684469695738
 30
0.0
 40
0.99960000000006
  0
CIRCLE
  5
2D4
330
A
100
AcDbEntity
  8
1
  6
Continuous
 62
     7
100
AcDbCircle
 10
1036.890979434004
 20
-1598.684469695738
 30
0.0
 40
2.97183503307906
  0
CIRCLE
  5
2D3
330
A
100
AcDbEntity
  8
1
  6
Continuous
 62
     7
100
AcDbCircle
 10
1024.395979434004
 20
-1673.654469695738
 30
0.0
 40
4.7481000000005
  0
CIRCLE
  5
2D2
330
A
100
AcDbEntity
  8
1
  6
Continuous
 62
     7
100
AcDbCircle
 10
1049.385979434004
 20
-1673.654469695738
 30
0.0
 40
4.74810000000048
  0
CIRCLE
  5
2D1
330
A
100
AcDbEntity
  8
1
  6
Continuous
 62
     2
100
AcDbCircle
 10
1049.385979434004
 20
-1673.654469695738
 30
0.0
 40
1.299480000000129
  0
CIRCLE
  5
2D0
330
A
100
AcDbEntity
  8
1
  6
Continuous
 62
     2
100
AcDbCircle
 10
1049.385979434004
 20
-1673.654469695738
 30
0.0
 40
2.49900000000002
  0
CIRCLE
  5
2CF
330
A
100
AcDbEntity
  8
1
  6
Continuous
 62
     7
100
AcDbCircle
 10
1049.385979434004
 20
-1673.654469695738
 30
0.0
 40
3.99839999999995
  0
CIRCLE
  5
2CE
330
A
100
AcDbEntity
  8
1
  6
Continuous
 62
     7
100
AcDbCircle
 10
1049.385979434004
 20
-1673.654469695738
 30
0.0
 40
6.247499999999949
  0
CIRCLE
  5
2CD
330
A
100
AcDbEntity
  8
1
  6
Continuous
 62
     2
100
AcDbCircle
 10
1024.395979434004
 20
-1673.654469695738
 30
0.0
 40
1.299480000000129
  0
CIRCLE
  5
2CC
330
A
100
AcDbEntity
  8
1
  6
Continuous
 62
     2
100
AcDbCircle
 10
1024.395979434004
 20
-1673.654469695738
 30
0.0
 40
2.49900000000002
  0
CIRCLE
  5
2CB
330
A
100
AcDbEntity
  8
1
  6
Continuous
 62
     7
100
AcDbCircle
 10
1024.395979434004
 20
-1673.654469695738
 30
0.0
 40
3.99839999999995
  0
CIRCLE
  5
2CA
330
A
100
AcDbEntity
  8
1
  6
Continuous
 62
     7
100
AcDbCircle
 10
1024.395979434004
 20
-1673.654469695738
 30
0.0
 40
6.247499999999949
  0
CIRCLE
  5
2C9
330
A
100
AcDbEntity
  8
1
  6
Continuous
 62
     7
100
AcDbCircle
 10
1016.898979434004
 20
-1714.937949695739
 30
0.0
 40
2.998800000000979
  0
CIRCLE
  5
2C8
330
A
100
AcDbEntity
  8
1
  6
Continuous
 62
     7
100
AcDbCircle
 10
1056.882979434004
 20
-1714.937949695739
 30
0.0
 40
2.998800000000979
  0
CIRCLE
  5
2C6
330
A
100
AcDbEntity
  8
1
  6
Continuous
 62
     7
100
AcDbCircle
 10
1338.657938565687
 20
-1545.643191304064
 30
0.0
 40
4.99799999999891
  0
CIRCLE
  5
2C5
330
A
100
AcDbEntity
  8
1
  6
Continuous
 62
     7
100
AcDbCircle
 10
1113.646738565687
 20
-1545.640023470765
 30
0.0
 40
4.998000000000049
  0
CIRCLE
  5
2C4
330
A
100
AcDbEntity
  8
1
  6
Continuous
 62
     7
100
AcDbCircle
 10
1113.646738565687
 20
-1545.640023470765
 30
0.0
 40
2.49900000000002
  0
CIRCLE
  5
2C3
330
A
100
AcDbEntity
  8
1
  6
Continuous
 62
     2
100
AcDbCircle
 10
1113.646738565687
 20
-1545.640023470765
 30
0.0
 40
2.998800000000069
  0
CIRCLE
  5
2C2
330
A
100
AcDbEntity
  8
1
  6
Continuous
 62
     7
100
AcDbCircle
 10
1338.657938565687
 20
-1545.643191304064
 30
0.0
 40
2.49899999999889
  0
CIRCLE
  5
2C1
330
A
100
AcDbEntity
  8
1
  6
Continuous
 62
     2
100
AcDbCircle
 10
1338.657938565687
 20
-1545.643191304064
 30
0.0
 40
2.99879999999894
  0
CIRCLE
  5
2C0
330
A
100
AcDbEntity
  8
1
  6
Continuous
 62
     7
100
AcDbCircle
 10
1036.890979434004
 20
-1615.431059318285
 30
0.0
 40
4.748100000001159
  0
CIRCLE
  5
2BF
330
A
100
AcDbEntity
  8
1
  6
Continuous
 62
     2
100
AcDbCircle
 10
1036.890979434004
 20
-1615.431059318285
 30
0.0
 40
3.99839999999995
  0
CIRCLE
  5
2BE
330
A
100
AcDbEntity
  8
1
  6
Continuous
 62
     7
100
AcDbCircle
 10
1036.890979434004
 20
-1615.431059318285
 30
0.0
 40
2.798879999999829
  0
CIRCLE
  5
2BD
330
A
100
AcDbEntity
  8
1
  6
Continuous
 62
     7
100
AcDbCircle
 10
1036.890979434004
 20
-1634.473439318286
 30
0.0
 40
4.748100000000019
  0
CIRCLE
  5
2BC
330
A
100
AcDbEntity
  8
1
  6
Continuous
 62
     2
100
AcDbCircle
 10
1036.890979434004
 20
-1634.473439318286
 30
0.0
 40
3.99839999999995
  0
CIRCLE
  5
2BB
330
A
100
AcDbEntity
  8
1
  6
Continuous
 62
     7
100
AcDbCircle
 10
1036.890979434004
 20
-1634.473439318286
 30
0.0
 40
2.798879999999829
  0
CIRCLE
  5
2BA
330
A
100
AcDbEntity
  8
1
  6
Continuous
 62
     7
100
AcDbCircle
 10
1036.890979434004
 20
-1653.515819318286
 30
0.0
 40
4.748100000000019
  0
CIRCLE
  5
2B9
330
A
100
AcDbEntity
  8
1
  6
Continuous
 62
     2
100
AcDbCircle
 10
1036.890979434004
 20
-1653.515819318286
 30
0.0
 40
3.99839999999995
  0
CIRCLE
  5
2B8
330
A
100
AcDbEntity
  8
1
  6
Continuous
 62
     7
100
AcDbCircle
 10
1036.890979434004
 20
-1653.515819318286
 30
0.0
 40
2.798879999999829
  0
CIRCLE
  5
2B7
330
A
100
AcDbEntity
  8
1
  6
Continuous
 62
     7
100
AcDbCircle
 10
1036.890979434004
 20
-1653.515819318286
 30
0.0
 40
5.99759999999992
  0
CIRCLE
  5
2B6
330
A
100
AcDbEntity
  8
1
  6
Continuous
 62
     7
100
AcDbCircle
 10
1036.890979434004
 20
-1634.473439318286
 30
0.0
 40
5.99759999999992
  0
CIRCLE
  5
2B5
330
A
100
AcDbEntity
  8
1
  6
Continuous
 62
     7
100
AcDbCircle
 10
1036.890979434004
 20
-1615.431059318285
 30
0.0
 40
5.99759999999992
  0
CIRCLE
  5
2B4
330
A
100
AcDbEntity
  8
1
  6
Continuous
 62
     7
100
AcDbCircle
 10
1020.897379434004
 20
-1699.737468519175
 30
0.0
 40
3.99839999999995
  0
CIRCLE
  5
2B3
330
A
100
AcDbEntity
  8
1
  6
Continuous
 62
     2
100
AcDbCircle
 10
1399.747075154259
 20
-1640.917569695738
 30
0.0
 40
2.5
  0
CIRCLE
  5
2B2
330
A
100
AcDbEntity
  8
1
  6
Continuous
 62
     2
100
AcDbCircle
 10
1399.749974439399
 20
-1692.396969695738
 30
0.0
 40
2.5
  0
CIRCLE
  5
2B1
330
A
100
AcDbEntity
  8
1
  6
Continuous
 62
     7
100
AcDbCircle
 10
1400.008457845197
 20
-1715.137869695738
 30
0.0
 40
3.0
  0
CIRCLE
  5
2B0
330
A
100
AcDbEntity
  8
1
  6
Continuous
 62
     7
100
AcDbCircle
 10
1400.008457845197
 20
-1715.137869695738
 30
0.0
 40
3.5
  0
ARC
  5
2AF
330
A
100
AcDbEntity
  8
1
  6
Continuous
 62
     2
100
AcDbCircle
 10
1095.487410334721
 20
-1557.880223470766
 30
0.0
 40
2.11432295813088
100
AcDbArc
 50
145.4199173142648
 51
-145.4199173142648
  0
ARC
  5
2AE
330
A
100
AcDbEntity
  8
1
  6
Continuous
 62
     2
100
AcDbCircle
 10
1096.29025641972
 20
-1557.880223470766
 30
0.0
 40
1.56518596541908
100
AcDbArc
 50
-50.05686850831432
 51
50.05686850831432
  0
ARC
  5
2AD
330
A
100
AcDbEntity
  8
1
  6
Continuous
 62
     2
100
AcDbCircle
 10
1095.487410334721
 20
-1532.890223470766
 30
0.0
 40
2.114322958130749
100
AcDbArc
 50
145.4199173142698
 51
-145.4199173142648
  0
ARC
  5
2AC
330
A
100
AcDbEntity
  8
1
  6
Continuous
 62
     2
100
AcDbCircle
 10
1096.29025641972
 20
-1532.890223470766
 30
0.0
 40
1.56518596541908
100
AcDbArc
 50
-50.05686850831432
 51
50.05686850830898
  0
ARC
  5
2A9
330
A
100
AcDbEntity
  8
1
  6
Continuous
 62
     7
100
AcDbCircle
 10
1049.021125434004
 20
-1691.762223695738
 30
0.0
 40
1.9992
100
AcDbArc
 50
-10.00000000000884
 51
90.0
  0
ARC
  5
2A8
330
A
100
AcDbEntity
  8
1
  6
Continuous
 62
     7
100
AcDbCircle
 10
1048.347825795324
 20
-1695.580695695738
 30
0.0
 40
1.999199999999969
100
AcDbArc
 50
-90.0
 51
-10.00000000000242
  0
ARC
  5
2A7
330
A
100
AcDbEntity
  8
1
  6
Continuous
 62
     7
100
AcDbCircle
 10
1037.439329072684
 20
-1695.580695695738
 30
0.0
 40
1.99919999999996
100
AcDbArc
 50
-169.9999999999976
 51
-90.0
  0
ARC
  5
2A6
330
A
100
AcDbEntity
  8
1
  6
Continuous
 62
     7
100
AcDbCircle
 10
1036.766029434004
 20
-1691.762223695738
 30
0.0
 40
1.999199999999969
100
AcDbArc
 50
90.0
 51
-169.9999999999911
  0
ARC
  5
2A5
102
{ACAD_REACTORS
330
3ED
102
}
330
A
100
AcDbEntity
  8
1
  6
Continuous
 62
     7
100
AcDbCircle
 10
1399.747075154259
 20
-1640.917569695738
 30
0.0
 40
3.498600000000359
100
AcDbArc
 50
314.9999999999867
 51
224.9999999999998
  0
ARC
  5
2A4
102
{ACAD_REACTORS
330
3ED
102
}
330
A
100
AcDbEntity
  8
1
  6
Continuous
 62
     7
100
AcDbCircle
 10
1400.246875154257
 20
-1640.917569695738
 30
0.0
 40
4.498200000000299
100
AcDbArc
 50
310.4937742503843
 51
180.0
  0
ARC
  5
2A3
102
{ACAD_REACTORS
330
3ED
102
}
330
A
100
AcDbEntity
  8
1
  6
Continuous
 62
     7
100
AcDbCircle
 10
1399.747075154259
 20
-1640.917569695738
 30
0.0
 40
3.998400000000169
100
AcDbArc
 50
180.0
 51
225.000000000009
  0
ARC
  5
2A2
330
A
100
AcDbEntity
  8
1
  6
Continuous
 62
     7
100
AcDbCircle
 10
1399.749974439399
 20
-1692.346989695738
 30
0.0
 40
3.98026357857916
100
AcDbArc
 50
314.9911038060324
 51
224.9912014799723
  0
ARC
  5
2A1
330
A
100
AcDbEntity
  8
1
  6
Continuous
 62
     2
100
AcDbCircle
 10
1036.890979434004
 20
-1733.630469695739
 30
0.0
 40
1.499399999999379
100
AcDbArc
 50
-106.8476656837253
 51
13.15233431627623
  0
ARC
  5
2A0
330
A
100
AcDbEntity
  8
1
  6
Continuous
 62
     2
100
AcDbCircle
 10
1036.890979434004
 20
-1733.630469695739
 30
0.0
 40
1.49939999999956
100
AcDbArc
 50
13.15233431627623
 51
73.15233431626234
  0
ARC
  5
29F
330
A
100
AcDbEntity
  8
1
  6
Continuous
 62
     2
100
AcDbCircle
 10
1036.890979434004
 20
-1733.630469695739
 30
0.0
 40
1.49940000000067
100
AcDbArc
 50
73.15233431626234
 51
-166.8476656837661
  0
ARC
  5
29E
330
A
100
AcDbEntity
  8
1
  6
Continuous
 62
     2
100
AcDbCircle
 10
1036.890979434004
 20
-1733.630469695739
 30
0.0
 40
1.499399999999299
100
AcDbArc
 50
-166.8476656837661
 51
-106.8476656837253
  0
ARC
  5
29D
330
A
100
AcDbEntity
  8
1
  6
Continuous
 62
     2
100
AcDbCircle
 10
1036.890979434004
 20
-1598.684469695738
 30
0.0
 40
1.499400000000469
100
AcDbArc
 50
-106.8476656837127
 51
13.15233431627623
  0
ARC
  5
29C
330
A
100
AcDbEntity
  8
1
  6
Continuous
 62
     2
100
AcDbCircle
 10
1036.890979434004
 20
-1598.684469695738
 30
0.0
 40
1.49939999999956
100
AcDbArc
 50
13.15233431627623
 51
73.15233431626234
  0
ARC
  5
29B
330
A
100
AcDbEntity
  8
1
  6
Continuous
 62
     2
100
AcDbCircle
 10
1036.890979434004
 20
-1598.684469695738
 30
0.0
 40
1.49940000000067
100
AcDbArc
 50
73.15233431626234
 51
-166.8476656837237
  0
ARC
  5
29A
330
A
100
AcDbEntity
  8
1
  6
Continuous
 62
     2
100
AcDbCircle
 10
1036.890979434004
 20
-1598.684469695738
 30
0.0
 40
1.49939999999956
100
AcDbArc
 50
-166.8476656837237
 51
-106.8476656837127
  0
ARC
  5
299
330
A
100
AcDbEntity
  8
1
  6
Continuous
 62
     2
100
AcDbCircle
 10
1338.657938565687
 20
-1608.683637529036
 30
0.0
 40
6.99719999999951
100
AcDbArc
 50
73.0422366999956
 51
106.9577633000129
  0
ARC
  5
298
330
A
100
AcDbEntity
  8
1
  6
Continuous
 62
     2
100
AcDbCircle
 10
1117.645138565686
 20
-1608.680469695738
 30
0.0
 40
6.99719999999958
100
AcDbArc
 50
73.04223669999405
 51
106.9577633000042
  0
ARC
  5
297
330
A
100
AcDbEntity
  8
1
  6
Continuous
 62
     2
100
AcDbCircle
 10
1415.143814439399
 20
-1598.684469695738
 30
0.0
 40
0.99959999999915
100
AcDbArc
 50
174.5619564255344
 51
270.0
  0
ARC
  5
296
330
A
100
AcDbEntity
  8
1
  6
Continuous
 62
     2
100
AcDbCircle
 10
1415.143814439399
 20
-1598.684469695738
 30
0.0
 40
0.99959999999956
100
AcDbArc
 50
91.74271220694821
 51
174.5619564255344
  0
ARC
  5
295
330
A
100
AcDbEntity
  8
1
  6
Continuous
 62
     2
100
AcDbCircle
 10
1415.143814439399
 20
-1598.684469695738
 30
0.0
 40
0.99959999999987
100
AcDbArc
 50
270.0
 51
354.5619564254912
  0
ARC
  5
294
330
A
100
AcDbEntity
  8
1
  6
Continuous
 62
     2
100
AcDbCircle
 10
1415.143814439399
 20
-1598.684469695738
 30
0.0
 40
0.99960000000082
100
AcDbArc
 50
354.5619564254912
 51
91.74271220694821
  0
ARC
  5
293
330
A
100
AcDbEntity
  8
1
  6
Continuous
 62
     2
100
AcDbCircle
 10
1415.143814439399
 20
-1598.684469695738
 30
0.0
 40
2.99879999999966
100
AcDbArc
 50
57.62984650218739
 51
208.6748221303401
  0
ARC
  5
292
330
A
100
AcDbEntity
  8
1
  6
Continuous
 62
     2
100
AcDbCircle
 10
1415.143814439399
 20
-1598.684469695738
 30
0.0
 40
2.99879999999985
100
AcDbArc
 50
0.0
 51
28.67482213033171
  0
ARC
  5
291
330
A
100
AcDbEntity
  8
1
  6
Continuous
 62
     2
100
AcDbCircle
 10
1415.143814439399
 20
-1598.684469695738
 30
0.0
 40
2.998800000000549
100
AcDbArc
 50
237.6298465021931
 51
0.0
  0
ARC
  5
290
330
A
100
AcDbEntity
  8
1
  6
Continuous
 62
     2
100
AcDbCircle
 10
1415.143814439399
 20
-1598.684469695738
 30
0.0
 40
1.499400000000469
100
AcDbArc
 50
253.1523343162872
 51
13.15233431626827
  0
ARC
  5
28F
330
A
100
AcDbEntity
  8
1
  6
Continuous
 62
     7
100
AcDbCircle
 10
1415.143814439399
 20
-1598.684469695738
 30
0.0
 40
3.498599999999879
100
AcDbArc
 50
235.5259594324583
 51
30.77870920007447
  0
ARC
  5
28E
330
A
100
AcDbEntity
  8
1
  6
Continuous
 62
     7
100
AcDbCircle
 10
1415.143814439399
 20
-1598.684469695738
 30
0.0
 40
3.49859999999949
100
AcDbArc
 50
30.77870920007447
 51
55.52595943243364
  0
ARC
  5
28D
330
A
100
AcDbEntity
  8
1
  6
Continuous
 62
     2
100
AcDbCircle
 10
1415.143814439399
 20
-1598.684469695738
 30
0.0
 40
1.499400000000449
100
AcDbArc
 50
13.15233431626827
 51
73.15233431622084
  0
ARC
  5
28C
330
A
100
AcDbEntity
  8
1
  6
Continuous
 62
     2
100
AcDbCircle
 10
1415.143814439399
 20
-1598.684469695738
 30
0.0
 40
1.499400000000999
100
AcDbArc
 50
73.15233431622084
 51
193.1523343162742
  0
ARC
  5
28B
330
A
100
AcDbEntity
  8
1
  6
Continuous
 62
     2
100
AcDbCircle
 10
1415.143814439399
 20
-1598.684469695738
 30
0.0
 40
1.49939999999978
100
AcDbArc
 50
193.1523343162742
 51
253.1523343162872
  0
ARC
  5
28A
330
A
100
AcDbEntity
  8
1
  6
Continuous
 62
     7
100
AcDbCircle
 10
1415.143814439399
 20
-1598.684469695738
 30
0.0
 40
3.49860000000091
100
AcDbArc
 50
55.52595943243364
 51
210.7787092000722
  0
ARC
  5
289
330
A
100
AcDbEntity
  8
1
  6
Continuous
 62
     7
100
AcDbCircle
 10
1415.143814439399
 20
-1598.684469695738
 30
0.0
 40
3.49859999999969
100
AcDbArc
 50
210.7787092000722
 51
235.5259594324583
  0
ARC
  5
288
330
A
100
AcDbEntity
  8
1
  6
Continuous
 62
     2
100
AcDbCircle
 10
1415.143814439399
 20
-1733.630469695738
 30
0.0
 40
0.9995999999991301
100
AcDbArc
 50
174.5619564255474
 51
270.0
  0
ARC
  5
287
330
A
100
AcDbEntity
  8
1
  6
Continuous
 62
     2
100
AcDbCircle
 10
1415.143814439399
 20
-1733.630469695738
 30
0.0
 40
0.99959999999956
100
AcDbArc
 50
91.74271220694821
 51
174.5619564255474
  0
ARC
  5
286
330
A
100
AcDbEntity
  8
1
  6
Continuous
 62
     2
100
AcDbCircle
 10
1415.143814439399
 20
-1733.630469695738
 30
0.0
 40
0.9996000000001
100
AcDbArc
 50
270.0
 51
354.5619564255432
  0
ARC
  5
285
330
A
100
AcDbEntity
  8
1
  6
Continuous
 62
     2
100
AcDbCircle
 10
1415.143814439399
 20
-1733.630469695738
 30
0.0
 40
0.99960000000074
100
AcDbArc
 50
354.5619564255432
 51
91.74271220694821
  0
ARC
  5
284
330
A
100
AcDbEntity
  8
1
  6
Continuous
 62
     2
100
AcDbCircle
 10
1415.143814439399
 20
-1733.630469695738
 30
0.0
 40
2.99879999999947
100
AcDbArc
 50
57.62984650218466
 51
208.6748221303438
  0
ARC
  5
283
330
A
100
AcDbEntity
  8
1
  6
Continuous
 62
     2
100
AcDbCircle
 10
1415.143814439399
 20
-1733.630469695738
 30
0.0
 40
2.99879999999985
100
AcDbArc
 50
0.0
 51
28.67482213031646
  0
ARC
  5
282
330
A
100
AcDbEntity
  8
1
  6
Continuous
 62
     2
100
AcDbCircle
 10
1415.143814439399
 20
-1733.630469695738
 30
0.0
 40
2.998800000000549
100
AcDbArc
 50
237.6298465021931
 51
0.0
  0
ARC
  5
281
330
A
100
AcDbEntity
  8
1
  6
Continuous
 62
     2
100
AcDbCircle
 10
1415.143814439399
 20
-1733.630469695738
 30
0.0
 40
1.4993999999996
100
AcDbArc
 50
253.152334316277
 51
13.15233431626827
  0
ARC
  5
280
330
A
100
AcDbEntity
  8
1
  6
Continuous
 62
     7
100
AcDbCircle
 10
1415.143814439399
 20
-1733.630469695738
 30
0.0
 40
3.498599999999879
100
AcDbArc
 50
235.5259594324583
 51
30.77870920007447
  0
ARC
  5
27F
330
A
100
AcDbEntity
  8
1
  6
Continuous
 62
     7
100
AcDbCircle
 10
1415.143814439399
 20
-1733.630469695738
 30
0.0
 40
3.49859999999949
100
AcDbArc
 50
30.77870920007447
 51
55.52595943243364
  0
ARC
  5
27E
330
A
100
AcDbEntity
  8
1
  6
Continuous
 62
     2
100
AcDbCircle
 10
1415.143814439399
 20
-1733.630469695738
 30
0.0
 40
1.499400000000449
100
AcDbArc
 50
13.15233431626827
 51
73.1523343162081
  0
ARC
  5
27D
330
A
100
AcDbEntity
  8
1
  6
Continuous
 62
     2
100
AcDbCircle
 10
1415.143814439399
 20
-1733.630469695738
 30
0.0
 40
1.499399999999909
100
AcDbArc
 50
73.1523343162081
 51
193.1523343162742
  0
ARC
  5
27C
330
A
100
AcDbEntity
  8
1
  6
Continuous
 62
     2
100
AcDbCircle
 10
1415.143814439399
 20
-1733.630469695738
 30
0.0
 40
1.49939999999978
100
AcDbArc
 50
193.1523343162742
 51
253.152334316277
  0
ARC
  5
27B
330
A
100
AcDbEntity
  8
1
  6
Continuous
 62
     7
100
AcDbCircle
 10
1415.143814439399
 20
-1733.630469695738
 30
0.0
 40
3.49860000000091
100
AcDbArc
 50
55.52595943243364
 51
210.7787092000882
  0
ARC
  5
27A
330
A
100
AcDbEntity
  8
1
  6
Continuous
 62
     7
100
AcDbCircle
 10
1415.143814439399
 20
-1733.630469695738
 30
0.0
 40
3.49860000000027
100
AcDbArc
 50
210.7787092000882
 51
235.5259594324583
  0
ARC
  5
260
330
A
100
AcDbEntity
  8
1
  6
Continuous
 62
     7
100
AcDbCircle
 10
1056.882979434004
 20
-1714.937949695739
 30
0.0
 40
3.998399999999629
100
AcDbArc
 50
-55.37311654708969
 51
51.66108582627259
  0
ARC
  5
25F
330
A
100
AcDbEntity
  8
1
  6
Continuous
 62
     7
100
AcDbCircle
 10
1016.898979434004
 20
-1714.937949695739
 30
0.0
 40
3.998400000001089
100
AcDbArc
 50
132.4646907163614
 51
-123.8658756861349
  0
ARC
  5
25C
330
A
100
AcDbEntity
  8
1
  6
Continuous
 62
     2
100
AcDbCircle
 10
1036.890979434004
 20
-1608.680469695738
 30
0.0
 40
6.99719999999951
100
AcDbArc
 50
73.04223669999581
 51
106.957763300006
  0
ARC
  5
25B
330
A
100
AcDbEntity
  8
1
  6
Continuous
 62
     7
100
AcDbCircle
 10
1363.148138565687
 20
-1559.137791304064
 30
0.0
 40
0.9995999999989598
100
AcDbArc
 50
0.0
 51
90.0
  0
ARC
  5
25A
330
A
100
AcDbEntity
  8
1
  6
Continuous
 62
     7
100
AcDbCircle
 10
1363.148138565687
 20
-1564.135791304065
 30
0.0
 40
0.9995999999989598
100
AcDbArc
 50
270.0
 51
0.0
  0
ARC
  5
259
330
A
100
AcDbEntity
  8
1
  6
Continuous
 62
     7
100
AcDbCircle
 10
1363.148138565687
 20
-1712.642037529037
 30
0.0
 40
0.9995999999989598
100
AcDbArc
 50
0.0
 51
90.0
  0
ARC
  5
258
330
A
100
AcDbEntity
  8
1
  6
Continuous
 62
     7
100
AcDbCircle
 10
1363.148138565687
 20
-1717.640037529037
 30
0.0
 40
0.9996000000001
100
AcDbArc
 50
270.0
 51
0.0
  0
LINE
  5
240
330
A
100
AcDbEntity
  8
1
  6
Continuous
 62
     7
100
AcDbLine
 10
1102.151938565687
 20
-1569.130223470766
 30
0.0
 11
1102.651138565687
 21
-1569.130223470766
 31
0.0
  0
LINE
  5
23F
330
A
100
AcDbEntity
  8
1
  6
Continuous
 62
     7
100
AcDbLine
 10
1100.651938565687
 20
-1562.628323470766
 30
0.0
 11
1100.651938565687
 21
-1567.630223470766
 31
0.0
  0
LINE
  5
23E
330
A
100
AcDbEntity
  8
1
  6
Continuous
 62
     7
100
AcDbLine
 10
1100.651938565687
 20
-1550.887923470765
 30
0.0
 11
1100.651938565687
 21
-1553.132123470766
 31
0.0
  0
LINE
  5
23D
330
A
100
AcDbEntity
  8
1
  6
Continuous
 62
     7
100
AcDbLine
 10
1100.651938565687
 20
-1537.638323470766
 30
0.0
 11
1100.651938565687
 21
-1540.392123470765
 31
0.0
  0
LINE
  5
23C
330
A
100
AcDbEntity
  8
1
  6
Continuous
 62
     7
100
AcDbLine
 10
1100.651938565687
 20
-1523.649823470766
 30
0.0
 11
1100.651938565687
 21
-1526.588547927606
 31
0.0
  0
LINE
  5
23B
330
A
100
AcDbEntity
  8
1
  6
Continuous
 62
     7
100
AcDbLine
 10
1102.651138565687
 20
-1522.149823470766
 30
0.0
 11
1102.151938565687
 21
-1522.149823470766
 31
0.0
  0
LINE
  5
23A
330
A
100
AcDbEntity
  8
1
  6
Continuous
 62
     2
100
AcDbLine
 10
1093.74661696063
 20
-1559.080223470766
 30
0.0
 11
1097.29514800907
 21
-1559.080223470766
 31
0.0
  0
LINE
  5
239
330
A
100
AcDbEntity
  8
1
  6
Continuous
 62
     2
100
AcDbLine
 10
1093.74661696063
 20
-1556.680223470766
 30
0.0
 11
1097.29514800907
 21
-1556.680223470766
 31
0.0
  0
LINE
  5
238
330
A
100
AcDbEntity
  8
1
  6
Continuous
 62
     7
100
AcDbLine
 10
1102.651138565687
 20
-1553.132123470766
 30
0.0
 11
1091.655538565687
 21
-1553.132123470766
 31
0.0
  0
LINE
  5
237
330
A
100
AcDbEntity
  8
1
  6
Continuous
 62
     7
100
AcDbLine
 10
1091.655538565687
 20
-1562.628323470766
 30
0.0
 11
1094.654338565687
 21
-1562.628323470766
 31
0.0
  0
LINE
  5
236
330
A
100
AcDbEntity
  8
1
  6
Continuous
 62
     7
100
AcDbLine
 10
1094.654338565687
 20
-1562.628323470766
 30
0.0
 11
1096.653538565687
 21
-1562.628323470766
 31
0.0
  0
LINE
  5
235
330
A
100
AcDbEntity
  8
1
  6
Continuous
 62
     7
100
AcDbLine
 10
1096.653538565687
 20
-1562.628323470766
 30
0.0
 11
1102.651138565687
 21
-1562.628323470766
 31
0.0
  0
LINE
  5
234
330
A
100
AcDbEntity
  8
1
  6
Continuous
 62
     7
100
AcDbLine
 10
1091.655538565687
 20
-1553.132123470766
 30
0.0
 11
1091.655538565687
 21
-1562.628323470766
 31
0.0
  0
LINE
  5
233
330
A
100
AcDbEntity
  8
1
  6
Continuous
 62
     2
100
AcDbLine
 10
1093.74661696063
 20
-1534.090223470766
 30
0.0
 11
1097.29514800907
 21
-1534.090223470766
 31
0.0
  0
LINE
  5
232
330
A
100
AcDbEntity
  8
1
  6
Continuous
 62
     2
100
AcDbLine
 10
1093.74661696063
 20
-1531.690223470766
 30
0.0
 11
1097.29514800907
 21
-1531.690223470766
 31
0.0
  0
LINE
  5
231
330
A
100
AcDbEntity
  8
1
  6
Continuous
 62
     7
100
AcDbLine
 10
1102.651138565687
 20
-1528.142123470766
 30
0.0
 11
1091.655538565687
 21
-1528.142123470766
 31
0.0
  0
LINE
  5
230
330
A
100
AcDbEntity
  8
1
  6
Continuous
 62
     7
100
AcDbLine
 10
1091.655538565687
 20
-1537.638323470766
 30
0.0
 11
1094.654338565687
 21
-1537.638323470766
 31
0.0
  0
LINE
  5
22F
330
A
100
AcDbEntity
  8
1
  6
Continuous
 62
     7
100
AcDbLine
 10
1094.654338565687
 20
-1537.638323470766
 30
0.0
 11
1096.653538565687
 21
-1537.638323470766
 31
0.0
  0
LINE
  5
22E
330
A
100
AcDbEntity
  8
1
  6
Continuous
 62
     7
100
AcDbLine
 10
1096.653538565687
 20
-1537.638323470766
 30
0.0
 11
1102.651138565687
 21
-1537.638323470766
 31
0.0
  0
LINE
  5
22D
330
A
100
AcDbEntity
  8
1
  6
Continuous
 62
     7
100
AcDbLine
 10
1091.655538565687
 20
-1528.142123470766
 30
0.0
 11
1091.655538565687
 21
-1537.638323470766
 31
0.0
  0
LINE
  5
22C
330
A
100
AcDbEntity
  8
1
  6
Continuous
 62
     2
100
AcDbLine
 10
1428.388514439399
 20
-1602.056436834292
 30
0.0
 11
1436.885114439398
 21
-1602.056436834292
 31
0.0
  0
LINE
  5
22B
330
A
100
AcDbEntity
  8
1
  6
Continuous
 62
     2
100
AcDbLine
 10
1428.388514439399
 20
-1601.942156682408
 30
0.0
 11
1436.885114439398
 21
-1601.942156682408
 31
0.0
  0
LINE
  5
22A
330
A
100
AcDbEntity
  8
1
  6
Continuous
 62
     2
100
AcDbLine
 10
1428.388514439399
 20
-1601.827876530524
 30
0.0
 11
1436.885114439398
 21
-1601.827876530524
 31
0.0
  0
LINE
  5
229
330
A
100
AcDbEntity
  8
1
  6
Continuous
 62
     2
100
AcDbLine
 10
1428.388514439399
 20
-1601.71359637864
 30
0.0
 11
1436.885114439398
 21
-1601.71359637864
 31
0.0
  0
LINE
  5
228
330
A
100
AcDbEntity
  8
1
  6
Continuous
 62
     2
100
AcDbLine
 10
1428.388514439399
 20
-1601.599316226755
 30
0.0
 11
1436.885114439398
 21
-1601.599316226755
 31
0.0
  0
LINE
  5
227
330
A
100
AcDbEntity
  8
1
  6
Continuous
 62
     2
100
AcDbLine
 10
1428.388514439399
 20
-1601.485036074872
 30
0.0
 11
1436.885114439398
 21
-1601.485036074872
 31
0.0
  0
LINE
  5
226
330
A
100
AcDbEntity
  8
1
  6
Continuous
 62
     2
100
AcDbLine
 10
1428.388514439399
 20
-1601.370755922987
 30
0.0
 11
1436.885114439398
 21
-1601.370755922987
 31
0.0
  0
LINE
  5
225
330
A
100
AcDbEntity
  8
1
  6
Continuous
 62
     2
100
AcDbLine
 10
1428.388514439399
 20
-1601.256475771102
 30
0.0
 11
1436.885114439398
 21
-1601.256475771102
 31
0.0
  0
LINE
  5
224
330
A
100
AcDbEntity
  8
1
  6
Continuous
 62
     2
100
AcDbLine
 10
1428.388514439399
 20
-1601.142195619219
 30
0.0
 11
1436.885114439398
 21
-1601.142195619219
 31
0.0
  0
LINE
  5
223
330
A
100
AcDbEntity
  8
1
  6
Continuous
 62
     2
100
AcDbLine
 10
1428.388514439399
 20
-1601.027915467335
 30
0.0
 11
1436.885114439398
 21
-1601.027915467335
 31
0.0
  0
LINE
  5
222
330
A
100
AcDbEntity
  8
1
  6
Continuous
 62
     2
100
AcDbLine
 10
1428.388514439399
 20
-1600.913635315451
 30
0.0
 11
1436.885114439398
 21
-1600.913635315451
 31
0.0
  0
LINE
  5
221
330
A
100
AcDbEntity
  8
1
  6
Continuous
 62
     2
100
AcDbLine
 10
1428.388514439399
 20
-1600.799355163567
 30
0.0
 11
1436.885114439398
 21
-1600.799355163567
 31
0.0
  0
LINE
  5
220
330
A
100
AcDbEntity
  8
1
  6
Continuous
 62
     2
100
AcDbLine
 10
1428.388514439399
 20
-1600.685075011683
 30
0.0
 11
1436.885114439398
 21
-1600.685075011683
 31
0.0
  0
LINE
  5
21F
330
A
100
AcDbEntity
  8
1
  6
Continuous
 62
     2
100
AcDbLine
 10
1428.388514439399
 20
-1600.570794859799
 30
0.0
 11
1436.885114439398
 21
-1600.570794859799
 31
0.0
  0
LINE
  5
21E
330
A
100
AcDbEntity
  8
1
  6
Continuous
 62
     2
100
AcDbLine
 10
1428.388514439399
 20
-1600.456514707914
 30
0.0
 11
1436.885114439398
 21
-1600.456514707914
 31
0.0
  0
LINE
  5
21D
330
A
100
AcDbEntity
  8
1
  6
Continuous
 62
     2
100
AcDbLine
 10
1428.388514439399
 20
-1600.34223455603
 30
0.0
 11
1436.885114439398
 21
-1600.34223455603
 31
0.0
  0
LINE
  5
21C
330
A
100
AcDbEntity
  8
1
  6
Continuous
 62
     2
100
AcDbLine
 10
1428.388514439399
 20
-1600.227954404146
 30
0.0
 11
1436.885114439398
 21
-1600.227954404146
 31
0.0
  0
LINE
  5
21B
330
A
100
AcDbEntity
  8
1
  6
Continuous
 62
     2
100
AcDbLine
 10
1428.388514439399
 20
-1600.113674252262
 30
0.0
 11
1436.885114439398
 21
-1600.113674252262
 31
0.0
  0
LINE
  5
21A
330
A
100
AcDbEntity
  8
1
  6
Continuous
 62
     2
100
AcDbLine
 10
1428.388514439399
 20
-1599.999394100378
 30
0.0
 11
1436.885114439398
 21
-1599.999394100378
 31
0.0
  0
LINE
  5
219
330
A
100
AcDbEntity
  8
1
  6
Continuous
 62
     2
100
AcDbLine
 10
1428.388514439399
 20
-1599.885113948494
 30
0.0
 11
1436.885114439398
 21
-1599.885113948494
 31
0.0
  0
LINE
  5
218
330
A
100
AcDbEntity
  8
1
  6
Continuous
 62
     2
100
AcDbLine
 10
1428.388514439399
 20
-1599.77083379661
 30
0.0
 11
1436.885114439398
 21
-1599.77083379661
 31
0.0
  0
LINE
  5
217
330
A
100
AcDbEntity
  8
1
  6
Continuous
 62
     2
100
AcDbLine
 10
1428.388514439399
 20
-1599.656553644726
 30
0.0
 11
1436.885114439398
 21
-1599.656553644726
 31
0.0
  0
LINE
  5
216
330
A
100
AcDbEntity
  8
1
  6
Continuous
 62
     2
100
AcDbLine
 10
1428.388514439399
 20
-1599.542273492841
 30
0.0
 11
1436.885114439398
 21
-1599.542273492841
 31
0.0
  0
LINE
  5
215
330
A
100
AcDbEntity
  8
1
  6
Continuous
 62
     2
100
AcDbLine
 10
1428.388514439399
 20
-1599.427993340958
 30
0.0
 11
1436.885114439398
 21
-1599.427993340958
 31
0.0
  0
LINE
  5
214
330
A
100
AcDbEntity
  8
1
  6
Continuous
 62
     2
100
AcDbLine
 10
1428.388514439399
 20
-1599.313713189073
 30
0.0
 11
1436.885114439398
 21
-1599.313713189073
 31
0.0
  0
LINE
  5
213
330
A
100
AcDbEntity
  8
1
  6
Continuous
 62
     2
100
AcDbLine
 10
1428.388514439399
 20
-1599.199433037189
 30
0.0
 11
1436.885114439398
 21
-1599.199433037189
 31
0.0
  0
LINE
  5
212
330
A
100
AcDbEntity
  8
1
  6
Continuous
 62
     2
100
AcDbLine
 10
1428.388514439399
 20
-1599.085152885305
 30
0.0
 11
1436.885114439398
 21
-1599.085152885305
 31
0.0
  0
LINE
  5
211
330
A
100
AcDbEntity
  8
1
  6
Continuous
 62
     2
100
AcDbLine
 10
1428.388514439399
 20
-1598.970872733421
 30
0.0
 11
1436.885114439398
 21
-1598.970872733421
 31
0.0
  0
LINE
  5
210
330
A
100
AcDbEntity
  8
1
  6
Continuous
 62
     2
100
AcDbLine
 10
1428.388514439399
 20
-1598.856592581536
 30
0.0
 11
1436.885114439398
 21
-1598.856592581536
 31
0.0
  0
LINE
  5
20F
330
A
100
AcDbEntity
  8
1
  6
Continuous
 62
     2
100
AcDbLine
 10
1428.388514439399
 20
-1598.742312429653
 30
0.0
 11
1436.885114439398
 21
-1598.742312429653
 31
0.0
  0
LINE
  5
20E
330
A
100
AcDbEntity
  8
1
  6
Continuous
 62
     2
100
AcDbLine
 10
1428.388514439399
 20
-1598.628032277769
 30
0.0
 11
1436.885114439398
 21
-1598.628032277769
 31
0.0
  0
LINE
  5
20D
330
A
100
AcDbEntity
  8
1
  6
Continuous
 62
     2
100
AcDbLine
 10
1428.388514439399
 20
-1598.513752125884
 30
0.0
 11
1436.885114439398
 21
-1598.513752125884
 31
0.0
  0
LINE
  5
20C
330
A
100
AcDbEntity
  8
1
  6
Continuous
 62
     2
100
AcDbLine
 10
1428.388514439399
 20
-1598.399471974
 30
0.0
 11
1436.885114439398
 21
-1598.399471974
 31
0.0
  0
LINE
  5
20B
330
A
100
AcDbEntity
  8
1
  6
Continuous
 62
     2
100
AcDbLine
 10
1428.388514439399
 20
-1598.285191822116
 30
0.0
 11
1436.885114439398
 21
-1598.285191822116
 31
0.0
  0
LINE
  5
20A
330
A
100
AcDbEntity
  8
1
  6
Continuous
 62
     2
100
AcDbLine
 10
1428.388514439399
 20
-1598.170911670232
 30
0.0
 11
1436.885114439398
 21
-1598.170911670232
 31
0.0
  0
LINE
  5
209
330
A
100
AcDbEntity
  8
1
  6
Continuous
 62
     2
100
AcDbLine
 10
1428.388514439399
 20
-1598.056631518348
 30
0.0
 11
1436.885114439398
 21
-1598.056631518348
 31
0.0
  0
LINE
  5
208
330
A
100
AcDbEntity
  8
1
  6
Continuous
 62
     2
100
AcDbLine
 10
1428.388514439399
 20
-1597.942351366464
 30
0.0
 11
1436.885114439398
 21
-1597.942351366464
 31
0.0
  0
LINE
  5
207
330
A
100
AcDbEntity
  8
1
  6
Continuous
 62
     2
100
AcDbLine
 10
1428.388514439399
 20
-1597.828071214579
 30
0.0
 11
1436.885114439398
 21
-1597.828071214579
 31
0.0
  0
LINE
  5
206
330
A
100
AcDbEntity
  8
1
  6
Continuous
 62
     2
100
AcDbLine
 10
1428.388514439399
 20
-1597.713791062696
 30
0.0
 11
1436.885114439398
 21
-1597.713791062696
 31
0.0
  0
LINE
  5
205
330
A
100
AcDbEntity
  8
1
  6
Continuous
 62
     2
100
AcDbLine
 10
1428.388514439399
 20
-1597.599510910812
 30
0.0
 11
1436.885114439398
 21
-1597.599510910812
 31
0.0
  0
LINE
  5
204
330
A
100
AcDbEntity
  8
1
  6
Continuous
 62
     2
100
AcDbLine
 10
1428.388514439399
 20
-1597.485230758927
 30
0.0
 11
1436.885114439398
 21
-1597.485230758927
 31
0.0
  0
LINE
  5
203
330
A
100
AcDbEntity
  8
1
  6
Continuous
 62
     2
100
AcDbLine
 10
1428.388514439399
 20
-1597.370950607043
 30
0.0
 11
1436.885114439398
 21
-1597.370950607043
 31
0.0
  0
LINE
  5
202
330
A
100
AcDbEntity
  8
1
  6
Continuous
 62
     2
100
AcDbLine
 10
1428.388514439399
 20
-1597.256670455159
 30
0.0
 11
1436.885114439398
 21
-1597.256670455159
 31
0.0
  0
LINE
  5
201
330
A
100
AcDbEntity
  8
1
  6
Continuous
 62
     2
100
AcDbLine
 10
1428.388514439399
 20
-1597.142390303274
 30
0.0
 11
1436.885114439398
 21
-1597.142390303274
 31
0.0
  0
LINE
  5
200
330
A
100
AcDbEntity
  8
1
  6
Continuous
 62
     2
100
AcDbLine
 10
1428.388514439399
 20
-1597.028110151391
 30
0.0
 11
1436.885114439398
 21
-1597.028110151391
 31
0.0
  0
LINE
  5
1FF
330
A
100
AcDbEntity
  8
1
  6
Continuous
 62
     2
100
AcDbLine
 10
1428.388514439399
 20
-1596.913829999507
 30
0.0
 11
1436.885114439398
 21
-1596.913829999507
 31
0.0
  0
LINE
  5
1FE
330
A
100
AcDbEntity
  8
1
  6
Continuous
 62
     2
100
AcDbLine
 10
1428.388514439399
 20
-1596.799549847623
 30
0.0
 11
1436.885114439398
 21
-1596.799549847623
 31
0.0
  0
LINE
  5
1FD
330
A
100
AcDbEntity
  8
1
  6
Continuous
 62
     7
100
AcDbLine
 10
1051.889977434004
 20
-1698.669459695738
 30
0.0
 11
1051.889977434004
 21
-1688.673459695738
 31
0.0
  0
LINE
  5
1FC
330
A
100
AcDbEntity
  8
1
  6
Continuous
 62
     7
100
AcDbLine
 10
1051.889977434004
 20
-1688.673459695738
 30
0.0
 11
1033.897177434004
 21
-1688.673459695738
 31
0.0
  0
LINE
  5
1FB
330
A
100
AcDbEntity
  8
1
  6
Continuous
 62
     7
100
AcDbLine
 10
1033.897177434004
 20
-1688.673459695738
 30
0.0
 11
1033.897177434004
 21
-1698.669459695738
 31
0.0
  0
LINE
  5
1FA
330
A
100
AcDbEntity
  8
1
  6
Continuous
 62
     7
100
AcDbLine
 10
1033.897177434004
 20
-1698.669459695738
 30
0.0
 11
1051.889977434004
 21
-1698.669459695738
 31
0.0
  0
LINE
  5
1F9
330
A
100
AcDbEntity
  8
1
  6
Continuous
 62
     7
100
AcDbLine
 10
1097.653138565687
 20
-1690.762623695738
 30
0.0
 11
1097.653138565687
 21
-1696.580295695738
 31
0.0
  0
LINE
  5
1F8
330
A
100
AcDbEntity
  8
1
  6
Continuous
 62
     7
100
AcDbLine
 10
1098.652738565687
 20
-1697.579895695738
 30
0.0
 11
1102.651138565687
 21
-1697.579895695738
 31
0.0
  0
LINE
  5
1F7
330
A
100
AcDbEntity
  8
1
  6
Continuous
 62
     7
100
AcDbLine
 10
1102.651138565687
 20
-1689.763023695738
 30
0.0
 11
1098.652738565687
 21
-1689.763023695738
 31
0.0
  0
LINE
  5
1CC
330
A
100
AcDbEntity
  8
1
  6
Continuous
 62
     7
100
AcDbLine
 10
1026.425411915606
 20
-1634.468262593824
 30
0.0
 11
1028.403850823236
 21
-1634.468262593824
 31
0.0
  0
LINE
  5
1B9
330
A
100
AcDbEntity
  8
1
  6
Continuous
 62
     7
100
AcDbLine
 10
1041.888979434004
 20
-1729.632069695738
 30
0.0
 11
1060.631479434004
 21
-1729.632069695738
 31
0.0
  0
LINE
  5
1B8
330
A
100
AcDbEntity
  8
1
  6
Continuous
 62
     7
100
AcDbLine
 10
1041.888979434004
 20
-1726.633269695738
 30
0.0
 11
1041.888979434004
 21
-1729.632069695738
 31
0.0
  0
LINE
  5
1B7
330
A
100
AcDbEntity
  8
1
  6
Continuous
 62
     7
100
AcDbLine
 10
1031.892979434004
 20
-1726.633269695738
 30
0.0
 11
1041.888979434004
 21
-1726.633269695738
 31
0.0
  0
LINE
  5
1B6
330
A
100
AcDbEntity
  8
1
  6
Continuous
 62
     7
100
AcDbLine
 10
1031.892979434004
 20
-1729.632069695738
 30
0.0
 11
1031.892979434004
 21
-1726.633269695738
 31
0.0
  0
LINE
  5
1B5
330
A
100
AcDbEntity
  8
1
  6
Continuous
 62
     7
100
AcDbLine
 10
1015.649479434004
 20
-1665.653871844682
 30
0.0
 11
1015.649479434004
 21
-1683.150669695739
 31
0.0
  0
LINE
  5
1B4
330
A
100
AcDbEntity
  8
1
  6
Continuous
 62
     7
100
AcDbLine
 10
1057.632679434004
 20
-1665.154071844682
 30
0.0
 11
1016.149279434004
 21
-1665.154071844682
 31
0.0
  0
LINE
  5
1B3
330
A
100
AcDbEntity
  8
1
  6
Continuous
 62
     7
100
AcDbLine
 10
1016.149279434004
 20
-1683.650469695738
 30
0.0
 11
1057.632679434004
 21
-1683.650469695738
 31
0.0
  0
LINE
  5
1B2
330
A
100
AcDbEntity
  8
1
  6
Continuous
 62
     7
100
AcDbLine
 10
1058.132479434004
 20
-1683.150669695739
 30
0.0
 11
1058.132479434004
 21
-1665.653871844682
 31
0.0
  0
LINE
  5
1B1
330
A
100
AcDbEntity
  8
1
  6
Continuous
 62
     7
100
AcDbLine
 10
1060.631479434004
 20
-1729.632069695738
 30
0.0
 11
1060.631479434004
 21
-1606.181469695737
 31
0.0
  0
LINE
  5
1B0
330
A
100
AcDbEntity
  8
1
  6
Continuous
 62
     7
100
AcDbLine
 10
1013.150479434004
 20
-1729.632069695738
 30
0.0
 11
1031.892979434004
 21
-1729.632069695738
 31
0.0
  0
LINE
  5
1AF
330
A
100
AcDbEntity
  8
1
  6
Continuous
 62
     7
100
AcDbLine
 10
1060.631479434004
 20
-1606.181469695737
 30
0.0
 11
1059.631879434004
 21
-1606.181469695739
 31
0.0
  0
LINE
  5
1AE
330
A
100
AcDbEntity
  8
1
  6
Continuous
 62
     7
100
AcDbLine
 10
1013.150479434004
 20
-1606.181469695737
 30
0.0
 11
1014.150079434004
 21
-1606.181469695737
 31
0.0
  0
LINE
  5
1AD
330
A
100
AcDbEntity
  8
1
  6
Continuous
 62
     7
100
AcDbLine
 10
1013.150479434004
 20
-1606.181469695737
 30
0.0
 11
1013.150479434004
 21
-1729.632069695738
 31
0.0
  0
LINE
  5
1AC
330
A
100
AcDbEntity
  8
1
  6
Continuous
 62
     7
100
AcDbLine
 10
1059.631879434004
 20
-1606.181469695739
 30
0.0
 11
1058.632279434004
 21
-1606.181469695739
 31
0.0
  0
LINE
  5
1AB
330
A
100
AcDbEntity
  8
1
  6
Continuous
 62
     7
100
AcDbLine
 10
1058.632279434004
 20
-1606.181469695739
 30
0.0
 11
1058.632279434004
 21
-1603.182669695738
 31
0.0
  0
LINE
  5
1AA
330
A
100
AcDbEntity
  8
1
  6
Continuous
 62
     7
100
AcDbLine
 10
1058.632279434004
 20
-1603.182669695738
 30
0.0
 11
1015.149679434004
 21
-1603.182669695738
 31
0.0
  0
LINE
  5
1A9
330
A
100
AcDbEntity
  8
1
  6
Continuous
 62
     7
100
AcDbLine
 10
1014.150079434004
 20
-1606.181469695737
 30
0.0
 11
1015.149679434004
 21
-1606.181469695737
 31
0.0
  0
LINE
  5
1A8
330
A
100
AcDbEntity
  8
1
  6
Continuous
 62
     7
100
AcDbLine
 10
1015.149679434004
 20
-1606.181469695737
 30
0.0
 11
1015.149679434004
 21
-1603.182669695738
 31
0.0
  0
LINE
  5
1A3
330
A
100
AcDbEntity
  8
1
  6
Continuous
 62
     7
100
AcDbLine
 10
1049.021125434004
 20
-1689.763023695738
 30
0.0
 11
1036.766029434004
 21
-1689.763023695738
 31
0.0
  0
LINE
  5
1A2
330
A
100
AcDbEntity
  8
1
  6
Continuous
 62
     7
100
AcDbLine
 10
1050.316653455146
 20
-1695.92785313253
 30
0.0
 11
1050.989953093826
 21
-1692.10938113253
 31
0.0
  0
LINE
  5
1A1
330
A
100
AcDbEntity
  8
1
  6
Continuous
 62
     7
100
AcDbLine
 10
1037.439329072684
 20
-1697.579895695738
 30
0.0
 11
1048.347825795324
 21
-1697.579895695738
 31
0.0
  0
LINE
  5
1A0
330
A
100
AcDbEntity
  8
1
  6
Continuous
 62
     7
100
AcDbLine
 10
1034.797201774182
 20
-1692.10938113253
 30
0.0
 11
1035.470501412862
 21
-1695.92785313253
 31
0.0
  0
LINE
  5
19F
330
A
100
AcDbEntity
  8
1
  6
Continuous
 62
     7
100
AcDbLine
 10
1029.544645981395
 20
-1692.837520243128
 30
0.0
 11
1031.262504886613
 21
-1694.555379148347
 31
0.0
  0
LINE
  5
19E
330
A
100
AcDbEntity
  8
1
  6
Continuous
 62
     7
100
AcDbLine
 10
1031.262504886613
 20
-1692.837520243128
 30
0.0
 11
1029.544645981395
 21
-1694.555379148347
 31
0.0
  0
LINE
  5
19D
330
A
100
AcDbEntity
  8
1
  6
Continuous
 62
     7
100
AcDbLine
 10
1054.524649981395
 20
-1694.555379148347
 30
0.0
 11
1056.242508886613
 21
-1692.837520243128
 31
0.0
  0
LINE
  5
19C
330
A
100
AcDbEntity
  8
1
  6
Continuous
 62
     7
100
AcDbLine
 10
1056.242508886613
 20
-1694.555379148347
 30
0.0
 11
1054.524649981395
 21
-1692.837520243128
 31
0.0
  0
LINE
  5
19B
330
A
100
AcDbEntity
  8
1
  6
Continuous
 62
     7
100
AcDbLine
 10
1429.388114439398
 20
-1702.408298015226
 30
0.0
 11
1430.459482490415
 21
-1706.406698015226
 31
0.0
  0
LINE
  5
19A
330
A
100
AcDbEntity
  8
1
  6
Continuous
 62
     7
100
AcDbLine
 10
1428.316746388381
 20
-1706.406698015226
 30
0.0
 11
1429.388114439398
 21
-1702.408298015226
 31
0.0
  0
LINE
  5
199
330
A
100
AcDbEntity
  8
1
  6
Continuous
 62
     7
100
AcDbLine
 10
1430.459482490415
 20
-1706.406698015226
 30
0.0
 11
1428.316746388381
 21
-1706.406698015226
 31
0.0
  0
LINE
  5
198
330
A
100
AcDbEntity
  8
1
  6
Continuous
 62
     5
100
AcDbLine
 10
1395.901514439398
 20
-1669.656069695738
 30
0.0
 11
1409.396114439398
 21
-1669.656069695738
 31
0.0
  0
LINE
  5
197
330
A
100
AcDbEntity
  8
1
  6
Continuous
 62
     5
100
AcDbLine
 10
1409.396114439398
 20
-1661.659269695738
 30
0.0
 11
1395.901514439398
 21
-1661.659269695738
 31
0.0
  0
LINE
  5
196
330
A
100
AcDbEntity
  8
1
  6
Continuous
 62
     5
100
AcDbLine
 10
1411.395314439398
 20
-1663.658469695738
 30
0.0
 11
1411.395314439398
 21
-1667.656869695739
 31
0.0
  0
LINE
  5
195
330
A
100
AcDbEntity
  8
1
  6
Continuous
 62
     5
100
AcDbLine
 10
1393.902314439398
 20
-1667.656869695739
 30
0.0
 11
1393.902314439398
 21
-1663.658469695738
 31
0.0
  0
LINE
  5
194
330
A
100
AcDbEntity
  8
1
  6
Continuous
 62
     5
100
AcDbLine
 10
1413.894314439398
 20
-1609.580109695738
 30
0.0
 11
1434.386114439398
 21
-1609.580109695738
 31
0.0
  0
LINE
  5
193
330
A
100
AcDbEntity
  8
1
  6
Continuous
 62
     5
100
AcDbLine
 10
1436.385314439398
 20
-1611.579309695738
 30
0.0
 11
1436.385314439398
 21
-1617.576909695738
 31
0.0
  0
LINE
  5
192
330
A
100
AcDbEntity
  8
1
  6
Continuous
 62
     5
100
AcDbLine
 10
1434.386114439398
 20
-1619.576109695738
 30
0.0
 11
1413.894314439398
 21
-1619.576109695738
 31
0.0
  0
LINE
  5
191
330
A
100
AcDbEntity
  8
1
  6
Continuous
 62
     5
100
AcDbLine
 10
1411.895114439398
 20
-1617.576909695738
 30
0.0
 11
1411.895114439398
 21
-1611.579309695738
 31
0.0
  0
LINE
  5
190
330
A
100
AcDbEntity
  8
1
  6
Continuous
 62
     7
100
AcDbLine
 10
1428.316746388381
 20
-1628.908248422
 30
0.0
 11
1429.388114439398
 21
-1624.909848422
 31
0.0
  0
LINE
  5
18F
330
A
100
AcDbEntity
  8
1
  6
Continuous
 62
     7
100
AcDbLine
 10
1429.388114439398
 20
-1624.909848422
 30
0.0
 11
1430.459482490415
 21
-1628.908248422
 31
0.0
  0
LINE
  5
18E
330
A
100
AcDbEntity
  8
1
  6
Continuous
 62
     7
100
AcDbLine
 10
1430.459482490415
 20
-1628.908248422
 30
0.0
 11
1428.316746388381
 21
-1628.908248422
 31
0.0
  0
LINE
  5
18D
330
A
100
AcDbEntity
  8
1
  6
Continuous
 62
     7
100
AcDbLine
 10
1429.388114439398
 20
-1642.792972387301
 30
0.0
 11
1428.316746388381
 21
-1638.794572387301
 31
0.0
  0
LINE
  5
18C
330
A
100
AcDbEntity
  8
1
  6
Continuous
 62
     7
100
AcDbLine
 10
1430.459482490415
 20
-1638.794572387301
 30
0.0
 11
1429.388114439398
 21
-1642.792972387301
 31
0.0
  0
LINE
  5
18B
330
A
100
AcDbEntity
  8
1
  6
Continuous
 62
     7
100
AcDbLine
 10
1428.316746388381
 20
-1638.794572387301
 30
0.0
 11
1430.459482490415
 21
-1638.794572387301
 31
0.0
  0
LINE
  5
18A
330
A
100
AcDbEntity
  8
1
  6
Continuous
 62
     5
100
AcDbLine
 10
1395.401714439399
 20
-1622.474949695738
 30
0.0
 11
1434.386114439398
 21
-1622.474949695738
 31
0.0
  0
LINE
  5
189
330
A
100
AcDbEntity
  8
1
  6
Continuous
 62
     5
100
AcDbLine
 10
1436.385314439398
 20
-1624.474149695737
 30
0.0
 11
1436.385314439398
 21
-1647.664869695739
 31
0.0
  0
LINE
  5
188
330
A
100
AcDbEntity
  8
1
  6
Continuous
 62
     5
100
AcDbLine
 10
1434.386114439398
 20
-1649.664069695738
 30
0.0
 11
1395.401714439399
 21
-1649.664069695738
 31
0.0
  0
LINE
  5
187
330
A
100
AcDbEntity
  8
1
  6
Continuous
 62
     5
100
AcDbLine
 10
1393.402514439398
 20
-1647.664869695738
 30
0.0
 11
1393.402514439398
 21
-1624.474149695739
 31
0.0
  0
LINE
  5
186
102
{ACAD_REACTORS
330
3ED
102
}
330
A
100
AcDbEntity
  8
1
  6
Continuous
 62
     7
100
AcDbLine
 10
1397.273191369598
 20
-1643.391453480398
 30
0.0
 11
1396.919779400362
 21
-1643.744865449635
 31
0.0
  0
LINE
  5
185
330
A
100
AcDbEntity
  8
1
  6
Continuous
 62
     7
100
AcDbLine
 10
1396.919779400362
 20
-1643.744865449635
 30
0.0
 11
1396.212955461887
 21
-1644.451689388109
 31
0.0
  0
LINE
  5
184
102
{ACAD_REACTORS
330
3ED
102
}
330
A
100
AcDbEntity
  8
1
  6
Continuous
 62
     7
100
AcDbLine
 10
1402.220958938917
 20
-1643.391453480398
 30
0.0
 11
1403.167850681616
 21
-1644.338345223096
 31
0.0
  0
LINE
  5
183
330
A
100
AcDbEntity
  8
1
  6
Continuous
 62
     7
100
AcDbLine
 10
1438.134614439398
 20
-1605.181869695739
 30
0.0
 11
1438.134614439398
 21
-1728.132669695739
 31
0.0
  0
LINE
  5
182
330
A
100
AcDbEntity
  8
1
  6
Continuous
 62
     7
100
AcDbLine
 10
1392.153014439398
 20
-1605.181869695739
 30
0.0
 11
1438.134614439398
 21
-1605.181869695739
 31
0.0
  0
LINE
  5
181
330
A
100
AcDbEntity
  8
1
  6
Continuous
 62
     7
100
AcDbLine
 10
1392.153014439398
 20
-1728.132669695739
 30
0.0
 11
1392.153014439398
 21
-1605.181869695739
 31
0.0
  0
LINE
  5
180
330
A
100
AcDbEntity
  8
1
  6
Continuous
 62
     7
100
AcDbLine
 10
1438.134614439398
 20
-1728.132669695739
 30
0.0
 11
1392.153014439398
 21
-1728.132669695739
 31
0.0
  0
LINE
  5
17F
330
A
100
AcDbEntity
  8
1
  6
Continuous
 62
     5
100
AcDbLine
 10
1413.894314439398
 20
-1674.054309695738
 30
0.0
 11
1434.386114439398
 21
-1674.054309695738
 31
0.0
  0
LINE
  5
17E
330
A
100
AcDbEntity
  8
1
  6
Continuous
 62
     5
100
AcDbLine
 10
1436.385314439398
 20
-1676.053509695738
 30
0.0
 11
1436.385314439398
 21
-1682.051109695738
 31
0.0
  0
LINE
  5
17D
330
A
100
AcDbEntity
  8
1
  6
Continuous
 62
     5
100
AcDbLine
 10
1434.386114439398
 20
-1684.050309695738
 30
0.0
 11
1413.894314439398
 21
-1684.050309695738
 31
0.0
  0
LINE
  5
17C
330
A
100
AcDbEntity
  8
1
  6
Continuous
 62
     5
100
AcDbLine
 10
1411.895114439398
 20
-1682.051109695738
 30
0.0
 11
1411.895114439398
 21
-1676.053509695738
 31
0.0
  0
LINE
  5
17B
330
A
100
AcDbEntity
  8
1
  6
Continuous
 62
     7
100
AcDbLine
 10
1436.451179240537
 20
-1725.433749695738
 30
0.0
 11
1435.353542259667
 21
-1724.800028689362
 31
0.0
  0
LINE
  5
17A
330
A
100
AcDbEntity
  8
1
  6
Continuous
 62
     7
100
AcDbLine
 10
1435.353542259667
 20
-1726.067470702115
 30
0.0
 11
1436.451179240537
 21
-1725.433749695738
 31
0.0
  0
LINE
  5
179
330
A
100
AcDbEntity
  8
1
  6
Continuous
 62
     7
100
AcDbLine
 10
1435.353542259667
 20
-1724.800028689362
 30
0.0
 11
1435.353542259667
 21
-1726.067470702115
 31
0.0
  0
LINE
  5
178
330
A
100
AcDbEntity
  8
1
  6
Continuous
 62
     7
100
AcDbLine
 10
1433.386514439399
 20
-1726.933149695738
 30
0.0
 11
1434.40742160452
 21
-1726.345100158012
 31
0.0
  0
LINE
  5
177
330
A
100
AcDbEntity
  8
1
  6
Continuous
 62
     7
100
AcDbLine
 10
1433.386514439399
 20
-1723.934349695739
 30
0.0
 11
1433.386514439399
 21
-1726.933149695738
 31
0.0
  0
LINE
  5
176
330
A
100
AcDbEntity
  8
1
  6
Continuous
 62
     7
100
AcDbLine
 10
1434.40742160452
 20
-1724.523770722339
 30
0.0
 11
1433.386514439399
 21
-1723.934349695739
 31
0.0
  0
LINE
  5
175
330
A
100
AcDbEntity
  8
1
  6
Continuous
 62
     7
100
AcDbLine
 10
1434.40742160452
 20
-1724.523770722339
 30
0.0
 11
1434.40742160452
 21
-1726.345100158012
 31
0.0
  0
LINE
  5
174
330
A
100
AcDbEntity
  8
1
  6
Continuous
 62
     7
100
AcDbLine
 10
1432.886714439399
 20
-1727.432949695738
 30
0.0
 11
1432.886714439399
 21
-1723.434549695738
 31
0.0
  0
LINE
  5
173
330
A
100
AcDbEntity
  8
1
  6
Continuous
 62
     7
100
AcDbLine
 10
1436.885114439398
 20
-1727.432949695738
 30
0.0
 11
1432.886714439399
 21
-1727.432949695738
 31
0.0
  0
LINE
  5
172
330
A
100
AcDbEntity
  8
1
  6
Continuous
 62
     7
100
AcDbLine
 10
1436.885114439398
 20
-1723.434549695738
 30
0.0
 11
1436.885114439398
 21
-1727.432949695738
 31
0.0
  0
LINE
  5
171
330
A
100
AcDbEntity
  8
1
  6
Continuous
 62
     7
100
AcDbLine
 10
1432.886714439399
 20
-1723.434549695738
 30
0.0
 11
1436.885114439398
 21
-1723.434549695738
 31
0.0
  0
LINE
  5
170
330
A
100
AcDbEntity
  8
1
  6
Continuous
 62
     7
100
AcDbLine
 10
1430.459482490415
 20
-1716.018070706934
 30
0.0
 11
1429.388114439398
 21
-1720.016470706934
 31
0.0
  0
LINE
  5
16F
330
A
100
AcDbEntity
  8
1
  6
Continuous
 62
     7
100
AcDbLine
 10
1429.388114439398
 20
-1720.016470706934
 30
0.0
 11
1428.316746388381
 21
-1716.018070706934
 31
0.0
  0
LINE
  5
16E
330
A
100
AcDbEntity
  8
1
  6
Continuous
 62
     7
100
AcDbLine
 10
1428.316746388381
 20
-1716.018070706934
 30
0.0
 11
1430.459482490415
 21
-1716.018070706934
 31
0.0
  0
LINE
  5
16D
330
A
100
AcDbEntity
  8
1
  6
Continuous
 62
     5
100
AcDbLine
 10
1434.386114439398
 20
-1699.845142291661
 30
0.0
 11
1413.894314439398
 21
-1699.845142291661
 31
0.0
  0
LINE
  5
16C
330
A
100
AcDbEntity
  8
1
  6
Continuous
 62
     5
100
AcDbLine
 10
1411.895114439398
 20
-1701.844342291661
 30
0.0
 11
1411.895114439398
 21
-1720.735629695739
 31
0.0
  0
LINE
  5
16B
330
A
100
AcDbEntity
  8
1
  6
Continuous
 62
     5
100
AcDbLine
 10
1413.894314439398
 20
-1722.734829695738
 30
0.0
 11
1434.885914439398
 21
-1722.734829695738
 31
0.0
  0
LINE
  5
16A
330
A
100
AcDbEntity
  8
1
  6
Continuous
 62
     5
100
AcDbLine
 10
1436.385314439398
 20
-1720.735629695739
 30
0.0
 11
1436.385314439398
 21
-1701.844342291661
 31
0.0
  0
LINE
  5
169
330
A
100
AcDbEntity
  8
1
  6
Continuous
 62
     7
100
AcDbLine
 10
1396.21498555097
 20
-1695.881114186027
 30
0.0
 11
1397.275221458682
 21
-1694.820878278316
 31
0.0
  0
LINE
  5
168
330
A
100
AcDbEntity
  8
1
  6
Continuous
 62
     7
100
AcDbLine
 10
1402.564008775808
 20
-1695.161898026124
 30
0.0
 11
1403.169880770699
 21
-1695.767770021015
 31
0.0
  0
LINE
  5
167
330
A
100
AcDbEntity
  8
1
  6
Continuous
 62
     7
100
AcDbLine
 10
1399.008857845197
 20
-1724.883969695738
 30
0.0
 11
1399.008857845197
 21
-1721.385369695738
 31
0.0
  0
LINE
  5
166
330
A
100
AcDbEntity
  8
1
  6
Continuous
 62
     7
100
AcDbLine
 10
1399.008857845197
 20
-1721.385369695738
 30
0.0
 11
1401.008057845197
 21
-1721.385369695738
 31
0.0
  0
LINE
  5
165
330
A
100
AcDbEntity
  8
1
  6
Continuous
 62
     7
100
AcDbLine
 10
1401.008057845197
 20
-1721.385369695738
 30
0.0
 11
1401.008057845197
 21
-1724.883969695738
 31
0.0
  0
LINE
  5
164
330
A
100
AcDbEntity
  8
1
  6
Continuous
 62
     7
100
AcDbLine
 10
1398.509057845197
 20
-1724.883969695738
 30
0.0
 11
1401.507857845197
 21
-1724.883969695738
 31
0.0
  0
LINE
  5
163
330
A
100
AcDbEntity
  8
1
  6
Continuous
 62
     7
100
AcDbLine
 10
1399.008857845197
 20
-1723.884369695738
 30
0.0
 11
1401.008057845197
 21
-1723.884369695738
 31
0.0
  0
LINE
  5
162
330
A
100
AcDbEntity
  8
1
  6
Continuous
 62
     7
100
AcDbLine
 10
1012.150879434004
 20
-1737.628869695738
 30
0.0
 11
1012.150879434004
 21
-1594.686069695738
 31
0.0
  0
LINE
  5
161
330
A
100
AcDbEntity
  8
1
  6
Continuous
 62
     7
100
AcDbLine
 10
1061.631079434004
 20
-1737.628869695738
 30
0.0
 11
1012.150879434004
 21
-1737.628869695738
 31
0.0
  0
LINE
  5
160
330
A
100
AcDbEntity
  8
1
  6
Continuous
 62
     7
100
AcDbLine
 10
1061.631079434004
 20
-1594.686069695738
 30
0.0
 11
1061.631079434004
 21
-1737.628869695738
 31
0.0
  0
LINE
  5
15F
330
A
100
AcDbEntity
  8
1
  6
Continuous
 62
     7
100
AcDbLine
 10
1012.150879434004
 20
-1594.686069695738
 30
0.0
 11
1061.631079434004
 21
-1594.686069695738
 31
0.0
  0
LINE
  5
15E
330
A
100
AcDbEntity
  8
1
  6
Continuous
 62
     7
100
AcDbLine
 10
1205.274824871757
 20
-1521.149823470766
 30
0.0
 11
1102.651138565687
 21
-1521.149823470766
 31
0.0
  0
LINE
  5
15D
330
A
100
AcDbEntity
  8
1
  6
Continuous
 62
     7
100
AcDbLine
 10
1198.896117864678
 20
-1570.130223470766
 30
0.0
 11
1349.653538565687
 21
-1570.130223470766
 31
0.0
  0
LINE
  5
15C
330
A
100
AcDbEntity
  8
1
  6
Continuous
 62
     7
100
AcDbLine
 10
1198.725624309424
 20
-1602.183069695738
 30
0.0
 11
1102.651138565687
 21
-1602.183069695738
 31
0.0
  0
LINE
  5
15B
330
A
100
AcDbEntity
  8
1
  6
Continuous
 62
     7
100
AcDbLine
 10
1198.725624309424
 20
-1729.632069695738
 30
0.0
 11
1104.650338565687
 21
-1729.632069695738
 31
0.0
  0
LINE
  5
15A
330
A
100
AcDbEntity
  8
1
  6
Continuous
 62
     7
100
AcDbLine
 10
1041.888979434004
 20
-1729.632069695738
 30
0.0
 11
1060.631479434004
 21
-1729.632069695738
 31
0.0
  0
LINE
  5
159
330
A
100
AcDbEntity
  8
1
  6
Continuous
 62
     7
100
AcDbLine
 10
1041.888979434004
 20
-1726.633269695738
 30
0.0
 11
1041.888979434004
 21
-1729.632069695738
 31
0.0
  0
LINE
  5
158
330
A
100
AcDbEntity
  8
1
  6
Continuous
 62
     7
100
AcDbLine
 10
1031.892979434004
 20
-1726.633269695738
 30
0.0
 11
1041.888979434004
 21
-1726.633269695738
 31
0.0
  0
LINE
  5
157
330
A
100
AcDbEntity
  8
1
  6
Continuous
 62
     7
100
AcDbLine
 10
1031.892979434004
 20
-1729.632069695738
 30
0.0
 11
1031.892979434004
 21
-1726.633269695738
 31
0.0
  0
LINE
  5
156
330
A
100
AcDbEntity
  8
1
  6
Continuous
 62
     7
100
AcDbLine
 10
1020.897379434004
 20
-1699.737468519175
 30
0.0
 11
1020.897379434004
 21
-1696.658162592847
 31
0.0
  0
LINE
  5
155
330
A
100
AcDbEntity
  8
1
  6
Continuous
 62
     7
100
AcDbLine
 10
1017.598699434004
 20
-1699.737468519175
 30
0.0
 11
1024.196059434004
 21
-1699.737468519175
 31
0.0
  0
LINE
  5
154
330
A
100
AcDbEntity
  8
1
  6
Continuous
 62
     7
100
AcDbLine
 10
1018.598299434004
 20
-1700.986968519176
 30
0.0
 11
1023.196459434004
 21
-1700.986968519176
 31
0.0
  0
LINE
  5
153
330
A
100
AcDbEntity
  8
1
  6
Continuous
 62
     7
100
AcDbLine
 10
1019.597899434004
 20
-1702.236468519176
 30
0.0
 11
1022.196859434004
 21
-1702.236468519176
 31
0.0
  0
LINE
  5
152
330
A
100
AcDbEntity
  8
1
  6
Continuous
 62
     7
100
AcDbLine
 10
1060.631479434004
 20
-1603.182669695738
 30
0.0
 11
1013.150479434004
 21
-1603.182669695738
 31
0.0
  0
LINE
  5
151
330
A
100
AcDbEntity
  8
1
  6
Continuous
 62
     7
100
AcDbLine
 10
1060.631479434004
 20
-1729.632069695738
 30
0.0
 11
1060.631479434004
 21
-1613.678469695738
 31
0.0
  0
LINE
  5
150
330
A
100
AcDbEntity
  8
1
  6
Continuous
 62
     7
100
AcDbLine
 10
1013.150479434004
 20
-1603.182669695738
 30
0.0
 11
1013.150479434004
 21
-1612.678869695738
 31
0.0
  0
LINE
  5
14F
330
A
100
AcDbEntity
  8
1
  6
Continuous
 62
     7
100
AcDbLine
 10
1013.150479434004
 20
-1729.632069695738
 30
0.0
 11
1031.892979434004
 21
-1729.632069695738
 31
0.0
  0
LINE
  5
14E
330
A
100
AcDbEntity
  8
1
  6
Continuous
 62
     7
100
AcDbLine
 10
1350.653138565687
 20
-1728.635637529038
 30
0.0
 11
1350.653138565687
 21
-1605.684837529037
 31
0.0
  0
LINE
  5
14D
330
A
100
AcDbEntity
  8
1
  6
Continuous
 62
     7
100
AcDbLine
 10
1060.631479434004
 20
-1612.678869695738
 30
0.0
 11
1060.631479434004
 21
-1603.182669695738
 31
0.0
  0
LINE
  5
14C
330
A
100
AcDbEntity
  8
1
  6
Continuous
 62
     7
100
AcDbLine
 10
1013.150479434004
 20
-1613.678469695738
 30
0.0
 11
1013.150479434004
 21
-1729.632069695738
 31
0.0
  0
LINE
  5
14B
330
A
100
AcDbEntity
  8
1
  6
Continuous
 62
     7
100
AcDbLine
 10
1355.651138565687
 20
-1602.183069695738
 30
0.0
 11
1357.150538565687
 21
-1602.183069695738
 31
0.0
  0
LINE
  5
14A
330
A
100
AcDbEntity
  8
1
  6
Continuous
 62
     7
100
AcDbLine
 10
1355.651138565687
 20
-1595.189279472115
 30
0.0
 11
1355.651138565687
 21
-1737.632037529037
 31
0.0
  0
LINE
  5
149
330
A
100
AcDbEntity
  8
1
  6
Continuous
 62
     7
100
AcDbLine
 10
1096.653538565687
 20
-1668.906369695738
 30
0.0
 11
1094.654338565687
 21
-1668.906369695738
 31
0.0
  0
LINE
  5
148
330
A
100
AcDbEntity
  8
1
  6
Continuous
 62
     7
100
AcDbLine
 10
1102.651138565687
 20
-1668.906369695738
 30
0.0
 11
1096.653538565687
 21
-1668.906369695738
 31
0.0
  0
LINE
  5
147
330
A
100
AcDbEntity
  8
1
  6
Continuous
 62
     7
100
AcDbLine
 10
1091.655538565687
 20
-1678.402569695738
 30
0.0
 11
1094.654338565687
 21
-1678.402569695738
 31
0.0
  0
LINE
  5
146
330
A
100
AcDbEntity
  8
1
  6
Continuous
 62
     7
100
AcDbLine
 10
1094.654338565687
 20
-1678.402569695738
 30
0.0
 11
1096.653538565687
 21
-1678.402569695738
 31
0.0
  0
LINE
  5
145
330
A
100
AcDbEntity
  8
1
  6
Continuous
 62
     7
100
AcDbLine
 10
1096.653538565687
 20
-1668.906369695738
 30
0.0
 11
1096.653538565687
 21
-1667.906769695738
 31
0.0
  0
LINE
  5
144
330
A
100
AcDbEntity
  8
1
  6
Continuous
 62
     7
100
AcDbLine
 10
1096.653538565687
 20
-1667.906769695738
 30
0.0
 11
1094.654338565687
 21
-1667.906769695738
 31
0.0
  0
LINE
  5
143
330
A
100
AcDbEntity
  8
1
  6
Continuous
 62
     7
100
AcDbLine
 10
1094.654338565687
 20
-1667.906769695738
 30
0.0
 11
1094.654338565687
 21
-1668.906369695738
 31
0.0
  0
LINE
  5
142
330
A
100
AcDbEntity
  8
1
  6
Continuous
 62
     7
100
AcDbLine
 10
1096.653538565687
 20
-1678.402569695738
 30
0.0
 11
1096.653538565687
 21
-1679.402169695738
 31
0.0
  0
LINE
  5
141
330
A
100
AcDbEntity
  8
1
  6
Continuous
 62
     7
100
AcDbLine
 10
1096.653538565687
 20
-1679.402169695738
 30
0.0
 11
1094.654338565687
 21
-1679.402169695738
 31
0.0
  0
LINE
  5
140
330
A
100
AcDbEntity
  8
1
  6
Continuous
 62
     7
100
AcDbLine
 10
1094.654338565687
 20
-1679.402169695738
 30
0.0
 11
1094.654338565687
 21
-1678.402569695738
 31
0.0
  0
LINE
  5
13F
330
A
100
AcDbEntity
  8
1
  6
Continuous
 62
     7
100
AcDbLine
 10
1096.653538565687
 20
-1678.402569695738
 30
0.0
 11
1102.651138565687
 21
-1678.402569695738
 31
0.0
  0
LINE
  5
13E
330
A
100
AcDbEntity
  8
1
  6
Continuous
 62
     7
100
AcDbLine
 10
1094.654338565687
 20
-1668.906369695738
 30
0.0
 11
1091.655538565687
 21
-1668.906369695738
 31
0.0
  0
LINE
  5
13D
330
A
100
AcDbEntity
  8
1
  6
Continuous
 62
     7
100
AcDbLine
 10
1091.655538565687
 20
-1668.906369695738
 30
0.0
 11
1091.655538565687
 21
-1678.402569695738
 31
0.0
  0
LINE
  5
13C
330
A
100
AcDbEntity
  8
1
  6
Continuous
 62
     7
100
AcDbLine
 10
1050.385579434004
 20
-1679.152269695738
 30
0.0
 11
1050.385579434004
 21
-1678.296156183428
 31
0.0
  0
LINE
  5
13B
330
A
100
AcDbEntity
  8
1
  6
Continuous
 62
     7
100
AcDbLine
 10
1048.386379434004
 20
-1679.152269695738
 30
0.0
 11
1050.385579434004
 21
-1679.152269695738
 31
0.0
  0
LINE
  5
13A
330
A
100
AcDbEntity
  8
1
  6
Continuous
 62
     7
100
AcDbLine
 10
1048.386379434004
 20
-1678.296156183428
 30
0.0
 11
1048.386379434004
 21
-1679.152269695738
 31
0.0
  0
LINE
  5
139
330
A
100
AcDbEntity
  8
1
  6
Continuous
 62
     7
100
AcDbLine
 10
1050.385579434004
 20
-1668.156669695738
 30
0.0
 11
1050.385579434004
 21
-1669.012783208048
 31
0.0
  0
LINE
  5
138
330
A
100
AcDbEntity
  8
1
  6
Continuous
 62
     7
100
AcDbLine
 10
1048.386379434004
 20
-1668.156669695738
 30
0.0
 11
1050.385579434004
 21
-1668.156669695738
 31
0.0
  0
LINE
  5
137
330
A
100
AcDbEntity
  8
1
  6
Continuous
 62
     7
100
AcDbLine
 10
1048.386379434004
 20
-1669.012783208048
 30
0.0
 11
1048.386379434004
 21
-1668.156669695738
 31
0.0
  0
LINE
  5
136
330
A
100
AcDbEntity
  8
1
  6
Continuous
 62
     7
100
AcDbLine
 10
1025.395579434004
 20
-1679.152269695738
 30
0.0
 11
1025.395579434004
 21
-1678.296156183428
 31
0.0
  0
LINE
  5
135
330
A
100
AcDbEntity
  8
1
  6
Continuous
 62
     7
100
AcDbLine
 10
1023.396379434004
 20
-1679.152269695738
 30
0.0
 11
1025.395579434004
 21
-1679.152269695738
 31
0.0
  0
LINE
  5
134
330
A
100
AcDbEntity
  8
1
  6
Continuous
 62
     7
100
AcDbLine
 10
1023.396379434004
 20
-1678.296156183428
 30
0.0
 11
1023.396379434004
 21
-1679.152269695738
 31
0.0
  0
LINE
  5
133
330
A
100
AcDbEntity
  8
1
  6
Continuous
 62
     7
100
AcDbLine
 10
1025.395579434004
 20
-1668.156669695738
 30
0.0
 11
1025.395579434004
 21
-1669.012783208048
 31
0.0
  0
LINE
  5
132
330
A
100
AcDbEntity
  8
1
  6
Continuous
 62
     7
100
AcDbLine
 10
1023.396379434004
 20
-1668.156669695738
 30
0.0
 11
1025.395579434004
 21
-1668.156669695738
 31
0.0
  0
LINE
  5
131
330
A
100
AcDbEntity
  8
1
  6
Continuous
 62
     7
100
AcDbLine
 10
1023.396379434004
 20
-1669.012783208048
 30
0.0
 11
1023.396379434004
 21
-1668.156669695738
 31
0.0
  0
LINE
  5
130
330
A
100
AcDbEntity
  8
1
  6
Continuous
 62
     7
100
AcDbLine
 10
1350.653138565687
 20
-1594.689237529037
 30
0.0
 11
1350.653138565687
 21
-1731.134637529037
 31
0.0
  0
LINE
  5
12F
330
A
100
AcDbEntity
  8
1
  6
Continuous
 62
     7
100
AcDbLine
 10
1355.651138565687
 20
-1594.689237529037
 30
0.0
 11
1355.651138565687
 21
-1602.183069695738
 31
0.0
  0
LINE
  5
12E
330
A
100
AcDbEntity
  8
1
  6
Continuous
 62
     7
100
AcDbLine
 10
1350.653138565687
 20
-1594.689237529037
 30
0.0
 11
1355.651138565687
 21
-1594.689237529037
 31
0.0
  0
LINE
  5
12D
330
A
100
AcDbEntity
  8
1
  6
Continuous
 62
     7
100
AcDbLine
 10
1355.651138565687
 20
-1737.632037529037
 30
0.0
 11
1350.653138565687
 21
-1737.632037529037
 31
0.0
  0
LINE
  5
12C
330
A
100
AcDbEntity
  8
1
  6
Continuous
 62
     7
100
AcDbLine
 10
1350.653138565687
 20
-1737.632037529037
 30
0.0
 11
1350.653138565687
 21
-1731.134637529037
 31
0.0
  0
LINE
  5
12B
330
A
100
AcDbEntity
  8
1
  6
Continuous
 62
     2
100
AcDbLine
 10
1355.651138565687
 20
-1602.183069695738
 30
0.0
 11
1355.651138565687
 21
-1595.189279472115
 31
0.0
  0
LINE
  5
12A
330
A
100
AcDbEntity
  8
1
  6
Continuous
 62
     7
100
AcDbLine
 10
1357.650338565687
 20
-1601.683269695738
 30
0.0
 11
1357.150538565687
 21
-1602.183069695738
 31
0.0
  0
LINE
  5
129
330
A
100
AcDbEntity
  8
1
  6
Continuous
 62
     7
100
AcDbLine
 10
1357.650338565687
 20
-1595.689079472116
 30
0.0
 11
1357.150538565687
 21
-1595.189279472115
 31
0.0
  0
LINE
  5
128
330
A
100
AcDbEntity
  8
1
  6
Continuous
 62
     7
100
AcDbLine
 10
1357.650338565687
 20
-1601.683269695738
 30
0.0
 11
1357.650338565687
 21
-1595.689079472116
 31
0.0
  0
LINE
  5
127
330
A
100
AcDbEntity
  8
1
  6
Continuous
 62
     7
100
AcDbLine
 10
1357.150538565687
 20
-1595.189279472115
 30
0.0
 11
1355.651138565687
 21
-1595.189279472115
 31
0.0
  0
LINE
  5
126
330
A
100
AcDbEntity
  8
1
  6
Continuous
 62
     2
100
AcDbLine
 10
1355.651138565687
 20
-1737.129069695737
 30
0.0
 11
1355.651138565687
 21
-1730.135279472116
 31
0.0
  0
LINE
  5
125
330
A
100
AcDbEntity
  8
1
  6
Continuous
 62
     7
100
AcDbLine
 10
1357.650338565687
 20
-1736.629269695738
 30
0.0
 11
1357.150538565687
 21
-1737.129069695737
 31
0.0
  0
LINE
  5
124
330
A
100
AcDbEntity
  8
1
  6
Continuous
 62
     7
100
AcDbLine
 10
1357.650338565687
 20
-1730.635079472116
 30
0.0
 11
1357.150538565687
 21
-1730.135279472116
 31
0.0
  0
LINE
  5
123
330
A
100
AcDbEntity
  8
1
  6
Continuous
 62
     7
100
AcDbLine
 10
1355.651138565687
 20
-1737.129069695737
 30
0.0
 11
1357.150538565687
 21
-1737.129069695737
 31
0.0
  0
LINE
  5
122
330
A
100
AcDbEntity
  8
1
  6
Continuous
 62
     2
100
AcDbLine
 10
1357.150538565687
 20
-1730.135279472116
 30
0.0
 11
1357.150538565687
 21
-1737.129069695737
 31
0.0
  0
LINE
  5
121
330
A
100
AcDbEntity
  8
1
  6
Continuous
 62
     2
100
AcDbLine
 10
1355.651138565687
 20
-1730.135279472116
 30
0.0
 11
1355.651138565687
 21
-1737.129069695737
 31
0.0
  0
LINE
  5
120
330
A
100
AcDbEntity
  8
1
  6
Continuous
 62
     7
100
AcDbLine
 10
1357.650338565687
 20
-1736.629269695738
 30
0.0
 11
1357.650338565687
 21
-1730.635079472116
 31
0.0
  0
LINE
  5
11F
330
A
100
AcDbEntity
  8
1
  6
Continuous
 62
     7
100
AcDbLine
 10
1357.150538565687
 20
-1730.135279472116
 30
0.0
 11
1355.651138565687
 21
-1730.135279472116
 31
0.0
  0
LINE
  5
11E
330
A
100
AcDbEntity
  8
1
  6
Continuous
 62
     7
100
AcDbLine
 10
1355.651138565687
 20
-1549.138623470765
 30
0.0
 11
1357.150538565687
 21
-1549.138623470765
 31
0.0
  0
LINE
  5
11D
330
A
100
AcDbEntity
  8
1
  6
Continuous
 62
     2
100
AcDbLine
 10
1355.651138565687
 20
-1549.138623470765
 30
0.0
 11
1355.651138565687
 21
-1542.144833247143
 31
0.0
  0
LINE
  5
11C
330
A
100
AcDbEntity
  8
1
  6
Continuous
 62
     7
100
AcDbLine
 10
1357.650338565687
 20
-1548.638823470765
 30
0.0
 11
1357.150538565687
 21
-1549.138623470765
 31
0.0
  0
LINE
  5
11B
330
A
100
AcDbEntity
  8
1
  6
Continuous
 62
     7
100
AcDbLine
 10
1357.650338565687
 20
-1542.644633247143
 30
0.0
 11
1357.150538565687
 21
-1542.144833247143
 31
0.0
  0
LINE
  5
11A
330
A
100
AcDbEntity
  8
1
  6
Continuous
 62
     7
100
AcDbLine
 10
1357.650338565687
 20
-1548.638823470765
 30
0.0
 11
1357.650338565687
 21
-1542.644633247143
 31
0.0
  0
LINE
  5
119
330
A
100
AcDbEntity
  8
1
  6
Continuous
 62
     7
100
AcDbLine
 10
1357.150538565687
 20
-1542.144833247143
 30
0.0
 11
1355.651138565687
 21
-1542.144833247143
 31
0.0
  0
LINE
  5
118
330
A
100
AcDbEntity
  8
1
  6
Continuous
 62
     7
100
AcDbLine
 10
1350.653138565687
 20
-1522.152591304064
 30
0.0
 11
1349.653538565687
 21
-1522.152591304065
 31
0.0
  0
LINE
  5
117
330
A
100
AcDbEntity
  8
1
  6
Continuous
 62
     7
100
AcDbLine
 10
1350.653138565687
 20
-1569.133791304063
 30
0.0
 11
1349.653538565687
 21
-1569.133791304065
 31
0.0
  0
LINE
  5
116
330
A
100
AcDbEntity
  8
1
  6
Continuous
 62
     7
100
AcDbLine
 10
1439.883914439399
 20
-1594.686069695738
 30
0.0
 11
1390.403714439399
 21
-1594.686069695738
 31
0.0
  0
LINE
  5
115
330
A
100
AcDbEntity
  8
1
  6
Continuous
 62
     2
100
AcDbLine
 10
1415.143814439399
 20
-1599.684069695738
 30
0.0
 11
1414.709246166679
 21
-1600.11951351958
 31
0.0
  0
LINE
  5
114
330
A
100
AcDbEntity
  8
1
  6
Continuous
 62
     2
100
AcDbLine
 10
1414.148713380523
 20
-1598.589738272104
 30
0.0
 11
1413.683745896048
 21
-1599.025644443805
 31
0.0
  0
LINE
  5
113
330
A
100
AcDbEntity
  8
1
  6
Continuous
 62
     2
100
AcDbLine
 10
1415.578382712119
 20
-1597.249425871896
 30
0.0
 11
1415.113415227645
 21
-1597.685332043598
 31
0.0
  0
LINE
  5
112
330
A
100
AcDbEntity
  8
1
  6
Continuous
 62
     2
100
AcDbLine
 10
1416.603882982749
 20
-1598.343294947671
 30
0.0
 11
1416.138915498275
 21
-1598.779201119373
 31
0.0
  0
LINE
  5
111
330
A
100
AcDbEntity
  8
1
  6
Continuous
 62
     2
100
AcDbLine
 10
1418.149637014122
 20
-1596.894153352385
 30
0.0
 11
1417.774832931417
 21
-1597.245531498783
 31
0.0
  0
LINE
  5
110
330
A
100
AcDbEntity
  8
1
  6
Continuous
 62
     2
100
AcDbLine
 10
1415.578382712119
 20
-1597.249425871896
 30
0.0
 11
1417.124136743493
 21
-1595.80028427661
 31
0.0
  0
LINE
  5
10F
330
A
100
AcDbEntity
  8
1
  6
Continuous
 62
     2
100
AcDbLine
 10
1413.163492135305
 20
-1601.568655114866
 30
0.0
 11
1413.53829621801
 21
-1601.217276968468
 31
0.0
  0
LINE
  5
10E
330
A
100
AcDbEntity
  8
1
  6
Continuous
 62
     2
100
AcDbLine
 10
1412.137991864674
 20
-1600.474786039091
 30
0.0
 11
1412.512795947381
 21
-1600.123407892693
 31
0.0
  0
LINE
  5
10D
330
A
100
AcDbEntity
  8
1
  6
Continuous
 62
     2
100
AcDbLine
 10
1417.774832931417
 20
-1597.245531498783
 30
0.0
 11
1416.603882982749
 21
-1598.343294947671
 31
0.0
  0
LINE
  5
10C
330
A
100
AcDbEntity
  8
1
  6
Continuous
 62
     2
100
AcDbLine
 10
1413.53829621801
 20
-1601.217276968468
 30
0.0
 11
1414.709246166679
 21
-1600.11951351958
 31
0.0
  0
LINE
  5
10B
330
A
100
AcDbEntity
  8
1
  6
Continuous
 62
     2
100
AcDbLine
 10
1412.512795947381
 20
-1600.123407892693
 30
0.0
 11
1413.683745896048
 21
-1599.025644443805
 31
0.0
  0
LINE
  5
10A
330
A
100
AcDbEntity
  8
1
  6
Continuous
 62
     2
100
AcDbLine
 10
1407.896714439399
 20
-1602.758552965577
 30
0.0
 11
1407.896714439399
 21
-1596.261152965576
 31
0.0
  0
LINE
  5
109
330
A
100
AcDbEntity
  8
1
  6
Continuous
 62
     2
100
AcDbLine
 10
1391.903114439398
 20
-1602.758552965577
 30
0.0
 11
1407.896714439399
 21
-1602.758552965577
 31
0.0
  0
LINE
  5
108
330
A
100
AcDbEntity
  8
1
  6
Continuous
 62
     2
100
AcDbLine
 10
1391.903114439398
 20
-1596.261152965576
 30
0.0
 11
1391.903114439398
 21
-1602.758552965577
 31
0.0
  0
LINE
  5
107
330
A
100
AcDbEntity
  8
1
  6
Continuous
 62
     2
100
AcDbLine
 10
1407.896714439399
 20
-1596.261152965576
 30
0.0
 11
1391.903114439398
 21
-1596.261152965576
 31
0.0
  0
LINE
  5
106
330
A
100
AcDbEntity
  8
1
  6
Continuous
 62
     2
100
AcDbLine
 10
1428.388514439399
 20
-1602.183069695738
 30
0.0
 11
1428.388514439399
 21
-1596.685269695738
 31
0.0
  0
LINE
  5
105
330
A
100
AcDbEntity
  8
1
  6
Continuous
 62
     2
100
AcDbLine
 10
1436.885114439398
 20
-1602.183069695738
 30
0.0
 11
1428.388514439399
 21
-1602.183069695738
 31
0.0
  0
LINE
  5
104
330
A
100
AcDbEntity
  8
1
  6
Continuous
 62
     2
100
AcDbLine
 10
1436.885114439398
 20
-1596.685269695738
 30
0.0
 11
1436.885114439398
 21
-1602.183069695738
 31
0.0
  0
LINE
  5
103
330
A
100
AcDbEntity
  8
1
  6
Continuous
 62
     2
100
AcDbLine
 10
1428.388514439399
 20
-1596.685269695738
 30
0.0
 11
1436.885114439398
 21
-1596.685269695738
 31
0.0
  0
LINE
  5
102
330
A
100
AcDbEntity
  8
1
  6
Continuous
 62
     7
100
AcDbLine
 10
1439.883914439399
 20
-1737.628869695738
 30
0.0
 11
1439.883914439399
 21
-1594.686069695738
 31
0.0
  0
LINE
  5
101
330
A
100
AcDbEntity
  8
1
  6
Continuous
 62
     7
100
AcDbLine
 10
1390.403714439399
 20
-1594.686069695738
 30
0.0
 11
1390.403714439399
 21
-1737.628869695738
 31
0.0
  0
LINE
  5
100
330
A
100
AcDbEntity
  8
1
  6
Continuous
 62
     2
100
AcDbLine
 10
1415.143814439399
 20
-1734.630069695738
 30
0.0
 11
1414.709246166679
 21
-1735.065513519579
 31
0.0
  0
LINE
  5
FF
330
A
100
AcDbEntity
  8
1
  6
Continuous
 62
     2
100
AcDbLine
 10
1414.148713380523
 20
-1733.535738272104
 30
0.0
 11
1413.683745896048
 21
-1733.971644443805
 31
0.0
  0
LINE
  5
FE
330
A
100
AcDbEntity
  8
1
  6
Continuous
 62
     2
100
AcDbLine
 10
1415.578382712119
 20
-1732.195425871897
 30
0.0
 11
1415.113415227645
 21
-1732.631332043598
 31
0.0
  0
LINE
  5
FD
330
A
100
AcDbEntity
  8
1
  6
Continuous
 62
     2
100
AcDbLine
 10
1416.603882982749
 20
-1733.28929494767
 30
0.0
 11
1416.138915498275
 21
-1733.725201119372
 31
0.0
  0
LINE
  5
FC
330
A
100
AcDbEntity
  8
1
  6
Continuous
 62
     2
100
AcDbLine
 10
1418.149637014122
 20
-1731.840153352385
 30
0.0
 11
1417.774832931417
 21
-1732.191531498784
 31
0.0
  0
LINE
  5
FB
330
A
100
AcDbEntity
  8
1
  6
Continuous
 62
     2
100
AcDbLine
 10
1415.578382712119
 20
-1732.195425871897
 30
0.0
 11
1417.124136743493
 21
-1730.74628427661
 31
0.0
  0
LINE
  5
FA
330
A
100
AcDbEntity
  8
1
  6
Continuous
 62
     2
100
AcDbLine
 10
1413.163492135305
 20
-1736.514655114866
 30
0.0
 11
1413.53829621801
 21
-1736.163276968468
 31
0.0
  0
LINE
  5
F9
330
A
100
AcDbEntity
  8
1
  6
Continuous
 62
     2
100
AcDbLine
 10
1412.137991864674
 20
-1735.420786039092
 30
0.0
 11
1412.512795947381
 21
-1735.069407892693
 31
0.0
  0
LINE
  5
F8
330
A
100
AcDbEntity
  8
1
  6
Continuous
 62
     2
100
AcDbLine
 10
1417.774832931417
 20
-1732.191531498784
 30
0.0
 11
1416.603882982749
 21
-1733.28929494767
 31
0.0
  0
LINE
  5
F7
330
A
100
AcDbEntity
  8
1
  6
Continuous
 62
     2
100
AcDbLine
 10
1413.53829621801
 20
-1736.163276968468
 30
0.0
 11
1414.709246166679
 21
-1735.065513519579
 31
0.0
  0
LINE
  5
F6
330
A
100
AcDbEntity
  8
1
  6
Continuous
 62
     2
100
AcDbLine
 10
1412.512795947381
 20
-1735.069407892693
 30
0.0
 11
1413.683745896048
 21
-1733.971644443805
 31
0.0
  0
LINE
  5
F5
330
A
100
AcDbEntity
  8
1
  6
Continuous
 62
     7
100
AcDbLine
 10
1420.391714439399
 20
-1729.307627837648
 30
0.0
 11
1420.391714439399
 21
-1736.304827837649
 31
0.0
  0
LINE
  5
F4
330
A
100
AcDbEntity
  8
1
  6
Continuous
 62
     7
100
AcDbLine
 10
1438.384514439399
 20
-1736.304827837649
 30
0.0
 11
1438.384514439399
 21
-1729.307627837648
 31
0.0
  0
LINE
  5
F3
330
A
100
AcDbEntity
  8
1
  6
Continuous
 62
     7
100
AcDbLine
 10
1420.391714439399
 20
-1736.304827837649
 30
0.0
 11
1438.384514439399
 21
-1736.304827837649
 31
0.0
  0
LINE
  5
F2
330
A
100
AcDbEntity
  8
1
  6
Continuous
 62
     7
100
AcDbLine
 10
1438.384514439399
 20
-1729.307627837648
 30
0.0
 11
1420.391714439399
 21
-1729.307627837648
 31
0.0
  0
LINE
  5
DA
330
A
100
AcDbEntity
  8
1
  6
Continuous
 62
     7
100
AcDbLine
 10
1390.403714439399
 20
-1737.628869695738
 30
0.0
 11
1439.883914439399
 21
-1737.628869695738
 31
0.0
  0
LINE
  5
D9
330
A
100
AcDbEntity
  8
1
  6
Continuous
 62
     7
100
AcDbLine
 10
1030.893379434004
 20
-1710.939549695738
 30
0.0
 11
1028.894179434004
 21
-1710.939549695738
 31
0.0
  0
LINE
  5
D8
330
A
100
AcDbEntity
  8
1
  6
Continuous
 62
     7
100
AcDbLine
 10
1030.893379434004
 20
-1714.937949695739
 30
0.0
 11
1030.893379434004
 21
-1710.939549695738
 31
0.0
  0
LINE
  5
D7
330
A
100
AcDbEntity
  8
1
  6
Continuous
 62
     7
100
AcDbLine
 10
1028.894179434004
 20
-1710.939549695738
 30
0.0
 11
1028.894179434004
 21
-1714.937949695739
 31
0.0
  0
LINE
  5
D6
330
A
100
AcDbEntity
  8
1
  6
Continuous
 62
     7
100
AcDbLine
 10
1044.887779434004
 20
-1710.939549695738
 30
0.0
 11
1044.887779434004
 21
-1714.937949695739
 31
0.0
  0
LINE
  5
D5
330
A
100
AcDbEntity
  8
1
  6
Continuous
 62
     7
100
AcDbLine
 10
1042.888579434004
 20
-1710.939549695738
 30
0.0
 11
1044.887779434004
 21
-1710.939549695738
 31
0.0
  0
LINE
  5
D4
330
A
100
AcDbEntity
  8
1
  6
Continuous
 62
     7
100
AcDbLine
 10
1042.888579434004
 20
-1714.937949695739
 30
0.0
 11
1042.888579434004
 21
-1710.939549695738
 31
0.0
  0
LINE
  5
D3
330
A
100
AcDbEntity
  8
1
  6
Continuous
 62
     7
100
AcDbLine
 10
1037.890579434004
 20
-1718.936349695738
 30
0.0
 11
1035.891379434004
 21
-1718.936349695738
 31
0.0
  0
LINE
  5
D2
330
A
100
AcDbEntity
  8
1
  6
Continuous
 62
     7
100
AcDbLine
 10
1037.890579434004
 20
-1714.937949695739
 30
0.0
 11
1037.890579434004
 21
-1718.936349695738
 31
0.0
  0
LINE
  5
D1
330
A
100
AcDbEntity
  8
1
  6
Continuous
 62
     7
100
AcDbLine
 10
1035.891379434004
 20
-1718.936349695738
 30
0.0
 11
1035.891379434004
 21
-1714.937949695739
 31
0.0
  0
LINE
  5
D0
330
A
100
AcDbEntity
  8
1
  6
Continuous
 62
     7
100
AcDbLine
 10
1058.013897735563
 20
-1713.807031394179
 30
0.0
 11
1055.752061132446
 21
-1716.068867997296
 31
0.0
  0
LINE
  5
CF
330
A
100
AcDbEntity
  8
1
  6
Continuous
 62
     7
100
AcDbLine
 10
1055.752061132446
 20
-1713.807031394179
 30
0.0
 11
1058.013897735563
 21
-1716.068867997296
 31
0.0
  0
LINE
  5
CE
330
A
100
AcDbEntity
  8
1
  6
Continuous
 62
     7
100
AcDbLine
 10
1018.029897735563
 20
-1716.068867997296
 30
0.0
 11
1015.768061132446
 21
-1713.807031394179
 31
0.0
  0
LINE
  5
CD
330
A
100
AcDbEntity
  8
1
  6
Continuous
 62
     7
100
AcDbLine
 10
1018.029897735563
 20
-1713.807031394179
 30
0.0
 11
1015.768061132446
 21
-1716.068867997296
 31
0.0
  0
LINE
  5
CC
330
A
100
AcDbEntity
  8
1
  6
Continuous
 62
     7
100
AcDbLine
 10
1014.67086835501
 20
-1718.257998427257
 30
0.0
 11
1023.373192110277
 21
-1725.237612791979
 31
0.0
  0
LINE
  5
CB
330
A
100
AcDbEntity
  8
1
  6
Continuous
 62
     7
100
AcDbLine
 10
1023.488776181067
 20
-1704.547796131406
 30
0.0
 11
1014.199516761462
 21
-1711.988355852587
 31
0.0
  0
LINE
  5
CA
330
A
100
AcDbEntity
  8
1
  6
Continuous
 62
     7
100
AcDbLine
 10
1059.154989874325
 20
-1718.228112475765
 30
0.0
 11
1050.384654943599
 21
-1725.257059655421
 31
0.0
  0
LINE
  5
C9
330
A
100
AcDbEntity
  8
1
  6
Continuous
 62
     7
100
AcDbLine
 10
1050.547920655526
 20
-1704.756794598318
 30
0.0
 11
1059.363234509296
 21
-1711.801783673111
 31
0.0
  0
LINE
  5
C8
330
A
100
AcDbEntity
  8
1
  6
Continuous
 62
     7
100
AcDbLine
 10
1047.886579434004
 20
-1703.742429695738
 30
0.0
 11
1025.895379434004
 21
-1703.742429695738
 31
0.0
  0
LINE
  5
C7
330
A
100
AcDbEntity
  8
1
  6
Continuous
 62
     7
100
AcDbLine
 10
1051.884979434004
 20
-1722.135069695738
 30
0.0
 11
1051.884979434004
 21
-1707.740829695738
 31
0.0
  0
LINE
  5
C6
330
A
100
AcDbEntity
  8
1
  6
Continuous
 62
     7
100
AcDbLine
 10
1025.895379434004
 20
-1726.133469695738
 30
0.0
 11
1047.886579434004
 21
-1726.133469695738
 31
0.0
  0
LINE
  5
C5
330
A
100
AcDbEntity
  8
1
  6
Continuous
 62
     7
100
AcDbLine
 10
1021.896979434004
 20
-1707.740829695738
 30
0.0
 11
1021.896979434004
 21
-1722.135069695738
 31
0.0
  0
LINE
  5
C4
330
A
100
AcDbEntity
  8
1
  6
Continuous
 62
     7
100
AcDbLine
 10
1047.886579434004
 20
-1706.741229695738
 30
0.0
 11
1025.895379434004
 21
-1706.741229695738
 31
0.0
  0
LINE
  5
C3
330
A
100
AcDbEntity
  8
1
  6
Continuous
 62
     7
100
AcDbLine
 10
1048.886179434004
 20
-1722.135069695738
 30
0.0
 11
1048.886179434004
 21
-1707.740829695738
 31
0.0
  0
LINE
  5
C2
330
A
100
AcDbEntity
  8
1
  6
Continuous
 62
     7
100
AcDbLine
 10
1025.895379434004
 20
-1723.134669695738
 30
0.0
 11
1047.886579434004
 21
-1723.134669695738
 31
0.0
  0
LINE
  5
C1
330
A
100
AcDbEntity
  8
1
  6
Continuous
 62
     7
100
AcDbLine
 10
1024.895779434004
 20
-1707.740829695738
 30
0.0
 11
1024.895779434004
 21
-1722.135069695738
 31
0.0
  0
LINE
  5
C0
330
A
100
AcDbEntity
  8
1
  6
DASH_CENTER
 62
     7
100
AcDbLine
 10
1030.893379434004
 20
-1714.937949695739
 30
0.0
 11
1028.894179434004
 21
-1714.937949695739
 31
0.0
  0
LINE
  5
BF
330
A
100
AcDbEntity
  8
1
  6
DASH_CENTER
 62
     7
100
AcDbLine
 10
1037.890579434004
 20
-1714.937949695739
 30
0.0
 11
1035.891379434004
 21
-1714.937949695739
 31
0.0
  0
LINE
  5
BE
330
A
100
AcDbEntity
  8
1
  6
Continuous
 62
     7
100
AcDbLine
 10
1042.888579434004
 20
-1714.937949695739
 30
0.0
 11
1044.887779434004
 21
-1714.937949695739
 31
0.0
  0
LINE
  5
BD
330
A
100
AcDbEntity
  8
1
  6
Continuous
 62
     7
100
AcDbLine
 10
1100.651938565687
 20
-1703.742429695738
 30
0.0
 11
1100.651938565687
 21
-1726.133469695738
 31
0.0
  0
LINE
  5
BC
330
A
100
AcDbEntity
  8
1
  6
Continuous
 62
     7
100
AcDbLine
 10
1097.153338565687
 20
-1705.741629695738
 30
0.0
 11
1097.153338565687
 21
-1724.134269695738
 31
0.0
  0
LINE
  5
BB
330
A
100
AcDbEntity
  8
1
  6
Continuous
 62
     7
100
AcDbLine
 10
1102.651138565687
 20
-1703.742429695738
 30
0.0
 11
1099.152538565687
 21
-1703.742429695738
 31
0.0
  0
LINE
  5
BA
330
A
100
AcDbEntity
  8
1
  6
Continuous
 62
     7
100
AcDbLine
 10
1102.651138565687
 20
-1726.133469695738
 30
0.0
 11
1099.152538565687
 21
-1726.133469695738
 31
0.0
  0
LINE
  5
9A
330
A
100
AcDbEntity
  8
1
  6
Continuous
 62
     7
100
AcDbLine
 10
1097.653138565687
 20
-1550.887923470765
 30
0.0
 11
1102.651138565687
 21
-1550.887923470765
 31
0.0
  0
LINE
  5
99
330
A
100
AcDbEntity
  8
1
  6
Continuous
 62
     7
100
AcDbLine
 10
1102.651138565687
 20
-1540.392123470765
 30
0.0
 11
1097.653138565687
 21
-1540.392123470765
 31
0.0
  0
LINE
  5
98
330
A
100
AcDbEntity
  8
1
  6
Continuous
 62
     2
100
AcDbLine
 10
1096.653538565687
 20
-1549.888323470765
 30
0.0
 11
1079.360458565687
 21
-1549.888323470765
 31
0.0
  0
LINE
  5
97
330
A
100
AcDbEntity
  8
1
  6
Continuous
 62
     2
100
AcDbLine
 10
1096.653538565687
 20
-1546.889523470766
 30
0.0
 11
1079.360458565687
 21
-1546.889523470766
 31
0.0
  0
LINE
  5
96
330
A
100
AcDbEntity
  8
1
  6
Continuous
 62
     2
100
AcDbLine
 10
1096.653538565687
 20
-1547.889123470766
 30
0.0
 11
1079.360458565687
 21
-1547.889123470766
 31
0.0
  0
LINE
  5
95
330
A
100
AcDbEntity
  8
1
  6
Continuous
 62
     2
100
AcDbLine
 10
1096.653538565687
 20
-1544.890323470765
 30
0.0
 11
1079.360458565687
 21
-1544.890323470765
 31
0.0
  0
LINE
  5
94
330
A
100
AcDbEntity
  8
1
  6
Continuous
 62
     2
100
AcDbLine
 10
1096.653538565687
 20
-1543.890723470765
 30
0.0
 11
1079.360458565687
 21
-1543.890723470765
 31
0.0
  0
LINE
  5
93
330
A
100
AcDbEntity
  8
1
  6
Continuous
 62
     2
100
AcDbLine
 10
1096.653538565687
 20
-1541.891523470766
 30
0.0
 11
1079.360458565687
 21
-1541.891523470766
 31
0.0
  0
LINE
  5
92
330
A
100
AcDbEntity
  8
1
  6
Continuous
 62
     2
100
AcDbLine
 10
1096.653538565687
 20
-1540.891923470765
 30
0.0
 11
1079.360458565687
 21
-1540.891923470765
 31
0.0
  0
LINE
  5
91
330
A
100
AcDbEntity
  8
1
  6
Continuous
 62
     7
100
AcDbLine
 10
1097.653138565687
 20
-1549.638423470766
 30
0.0
 11
1096.653538565687
 21
-1549.638423470766
 31
0.0
  0
LINE
  5
90
330
A
100
AcDbEntity
  8
1
  6
Continuous
 62
     7
100
AcDbLine
 10
1096.653538565687
 20
-1541.641623470766
 30
0.0
 11
1097.653138565687
 21
-1541.641623470766
 31
0.0
  0
LINE
  5
8F
330
A
100
AcDbEntity
  8
1
  6
Continuous
 62
     7
100
AcDbLine
 10
1096.653538565687
 20
-1550.887923470765
 30
0.0
 11
1096.653538565687
 21
-1540.392123470765
 31
0.0
  0
LINE
  5
8E
330
A
100
AcDbEntity
  8
1
  6
Continuous
 62
     7
100
AcDbLine
 10
1079.360458565687
 20
-1550.887923470765
 30
0.0
 11
1096.653538565687
 21
-1550.887923470765
 31
0.0
  0
LINE
  5
8D
330
A
100
AcDbEntity
  8
1
  6
Continuous
 62
     7
100
AcDbLine
 10
1079.360458565687
 20
-1540.392123470765
 30
0.0
 11
1079.360458565687
 21
-1550.887923470765
 31
0.0
  0
LINE
  5
8C
330
A
100
AcDbEntity
  8
1
  6
Continuous
 62
     7
100
AcDbLine
 10
1096.653538565687
 20
-1540.392123470765
 30
0.0
 11
1079.360458565687
 21
-1540.392123470765
 31
0.0
  0
LINE
  5
8B
330
A
100
AcDbEntity
  8
1
  6
Continuous
 62
     7
100
AcDbLine
 10
1097.653138565687
 20
-1540.392123470765
 30
0.0
 11
1097.653138565687
 21
-1550.887923470765
 31
0.0
  0
LINE
  5
8A
330
A
100
AcDbEntity
  8
1
  6
Continuous
 62
     7
100
AcDbLine
 10
1097.653138565687
 20
-1658.763719318286
 30
0.0
 11
1102.651138565687
 21
-1658.763719318286
 31
0.0
  0
LINE
  5
89
330
A
100
AcDbEntity
  8
1
  6
Continuous
 62
     7
100
AcDbLine
 10
1102.651138565687
 20
-1648.267919318286
 30
0.0
 11
1097.653138565687
 21
-1648.267919318286
 31
0.0
  0
LINE
  5
88
330
A
100
AcDbEntity
  8
1
  6
Continuous
 62
     2
100
AcDbLine
 10
1096.653538565687
 20
-1657.764119318286
 30
0.0
 11
1079.360458565687
 21
-1657.764119318286
 31
0.0
  0
LINE
  5
87
330
A
100
AcDbEntity
  8
1
  6
Continuous
 62
     2
100
AcDbLine
 10
1096.653538565687
 20
-1654.765319318286
 30
0.0
 11
1079.360458565687
 21
-1654.765319318286
 31
0.0
  0
LINE
  5
86
330
A
100
AcDbEntity
  8
1
  6
Continuous
 62
     2
100
AcDbLine
 10
1096.653538565687
 20
-1655.764919318286
 30
0.0
 11
1079.360458565687
 21
-1655.764919318286
 31
0.0
  0
LINE
  5
85
330
A
100
AcDbEntity
  8
1
  6
Continuous
 62
     2
100
AcDbLine
 10
1096.653538565687
 20
-1652.766119318286
 30
0.0
 11
1079.360458565687
 21
-1652.766119318286
 31
0.0
  0
LINE
  5
84
330
A
100
AcDbEntity
  8
1
  6
Continuous
 62
     2
100
AcDbLine
 10
1096.653538565687
 20
-1651.766519318286
 30
0.0
 11
1079.360458565687
 21
-1651.766519318286
 31
0.0
  0
LINE
  5
83
330
A
100
AcDbEntity
  8
1
  6
Continuous
 62
     2
100
AcDbLine
 10
1096.653538565687
 20
-1649.767319318286
 30
0.0
 11
1079.360458565687
 21
-1649.767319318286
 31
0.0
  0
LINE
  5
82
330
A
100
AcDbEntity
  8
1
  6
Continuous
 62
     2
100
AcDbLine
 10
1096.653538565687
 20
-1648.767719318286
 30
0.0
 11
1079.360458565687
 21
-1648.767719318286
 31
0.0
  0
LINE
  5
81
330
A
100
AcDbEntity
  8
1
  6
Continuous
 62
     7
100
AcDbLine
 10
1097.653138565687
 20
-1657.514219318286
 30
0.0
 11
1096.653538565687
 21
-1657.514219318286
 31
0.0
  0
LINE
  5
80
330
A
100
AcDbEntity
  8
1
  6
Continuous
 62
     7
100
AcDbLine
 10
1096.653538565687
 20
-1649.517419318286
 30
0.0
 11
1097.653138565687
 21
-1649.517419318286
 31
0.0
  0
LINE
  5
7F
330
A
100
AcDbEntity
  8
1
  6
Continuous
 62
     7
100
AcDbLine
 10
1096.653538565687
 20
-1658.763719318286
 30
0.0
 11
1096.653538565687
 21
-1648.267919318286
 31
0.0
  0
LINE
  5
7E
330
A
100
AcDbEntity
  8
1
  6
Continuous
 62
     7
100
AcDbLine
 10
1079.360458565687
 20
-1658.763719318286
 30
0.0
 11
1096.653538565687
 21
-1658.763719318286
 31
0.0
  0
LINE
  5
7D
330
A
100
AcDbEntity
  8
1
  6
Continuous
 62
     7
100
AcDbLine
 10
1079.360458565687
 20
-1648.267919318286
 30
0.0
 11
1079.360458565687
 21
-1658.763719318286
 31
0.0
  0
LINE
  5
7C
330
A
100
AcDbEntity
  8
1
  6
Continuous
 62
     7
100
AcDbLine
 10
1096.653538565687
 20
-1648.267919318286
 30
0.0
 11
1079.360458565687
 21
-1648.267919318286
 31
0.0
  0
LINE
  5
7B
330
A
100
AcDbEntity
  8
1
  6
Continuous
 62
     7
100
AcDbLine
 10
1097.653138565687
 20
-1648.267919318286
 30
0.0
 11
1097.653138565687
 21
-1658.763719318286
 31
0.0
  0
LINE
  5
7A
330
A
100
AcDbEntity
  8
1
  6
Continuous
 62
     7
100
AcDbLine
 10
1097.653138565687
 20
-1639.721339318286
 30
0.0
 11
1102.651138565687
 21
-1639.721339318286
 31
0.0
  0
LINE
  5
79
330
A
100
AcDbEntity
  8
1
  6
Continuous
 62
     7
100
AcDbLine
 10
1102.651138565687
 20
-1629.225539318286
 30
0.0
 11
1097.653138565687
 21
-1629.225539318286
 31
0.0
  0
LINE
  5
78
330
A
100
AcDbEntity
  8
1
  6
Continuous
 62
     2
100
AcDbLine
 10
1096.653538565687
 20
-1638.721739318286
 30
0.0
 11
1079.360458565687
 21
-1638.721739318286
 31
0.0
  0
LINE
  5
77
330
A
100
AcDbEntity
  8
1
  6
Continuous
 62
     2
100
AcDbLine
 10
1096.653538565687
 20
-1635.722939318286
 30
0.0
 11
1079.360458565687
 21
-1635.722939318286
 31
0.0
  0
LINE
  5
76
330
A
100
AcDbEntity
  8
1
  6
Continuous
 62
     2
100
AcDbLine
 10
1096.653538565687
 20
-1636.722539318286
 30
0.0
 11
1079.360458565687
 21
-1636.722539318286
 31
0.0
  0
LINE
  5
75
330
A
100
AcDbEntity
  8
1
  6
Continuous
 62
     2
100
AcDbLine
 10
1096.653538565687
 20
-1633.723739318286
 30
0.0
 11
1079.360458565687
 21
-1633.723739318286
 31
0.0
  0
LINE
  5
74
330
A
100
AcDbEntity
  8
1
  6
Continuous
 62
     2
100
AcDbLine
 10
1096.653538565687
 20
-1632.724139318286
 30
0.0
 11
1079.360458565687
 21
-1632.724139318286
 31
0.0
  0
LINE
  5
73
330
A
100
AcDbEntity
  8
1
  6
Continuous
 62
     2
100
AcDbLine
 10
1096.653538565687
 20
-1630.724939318286
 30
0.0
 11
1079.360458565687
 21
-1630.724939318286
 31
0.0
  0
LINE
  5
72
330
A
100
AcDbEntity
  8
1
  6
Continuous
 62
     2
100
AcDbLine
 10
1096.653538565687
 20
-1629.725339318286
 30
0.0
 11
1079.360458565687
 21
-1629.725339318286
 31
0.0
  0
LINE
  5
71
330
A
100
AcDbEntity
  8
1
  6
Continuous
 62
     7
100
AcDbLine
 10
1097.653138565687
 20
-1638.471839318286
 30
0.0
 11
1096.653538565687
 21
-1638.471839318286
 31
0.0
  0
LINE
  5
70
330
A
100
AcDbEntity
  8
1
  6
Continuous
 62
     7
100
AcDbLine
 10
1096.653538565687
 20
-1630.475039318286
 30
0.0
 11
1097.653138565687
 21
-1630.475039318286
 31
0.0
  0
LINE
  5
6F
330
A
100
AcDbEntity
  8
1
  6
Continuous
 62
     7
100
AcDbLine
 10
1096.653538565687
 20
-1639.721339318286
 30
0.0
 11
1096.653538565687
 21
-1629.225539318286
 31
0.0
  0
LINE
  5
6E
330
A
100
AcDbEntity
  8
1
  6
Continuous
 62
     7
100
AcDbLine
 10
1079.360458565687
 20
-1639.721339318286
 30
0.0
 11
1096.653538565687
 21
-1639.721339318286
 31
0.0
  0
LINE
  5
6D
330
A
100
AcDbEntity
  8
1
  6
Continuous
 62
     7
100
AcDbLine
 10
1079.360458565687
 20
-1629.225539318286
 30
0.0
 11
1079.360458565687
 21
-1639.721339318286
 31
0.0
  0
LINE
  5
6C
330
A
100
AcDbEntity
  8
1
  6
Continuous
 62
     7
100
AcDbLine
 10
1096.653538565687
 20
-1629.225539318286
 30
0.0
 11
1079.360458565687
 21
-1629.225539318286
 31
0.0
  0
LINE
  5
6B
330
A
100
AcDbEntity
  8
1
  6
Continuous
 62
     7
100
AcDbLine
 10
1097.653138565687
 20
-1629.225539318286
 30
0.0
 11
1097.653138565687
 21
-1639.721339318286
 31
0.0
  0
LINE
  5
6A
330
A
100
AcDbEntity
  8
1
  6
Continuous
 62
     7
100
AcDbLine
 10
1097.653138565687
 20
-1620.678959318286
 30
0.0
 11
1102.651138565687
 21
-1620.678959318286
 31
0.0
  0
LINE
  5
69
330
A
100
AcDbEntity
  8
1
  6
Continuous
 62
     7
100
AcDbLine
 10
1102.651138565687
 20
-1610.183159318286
 30
0.0
 11
1097.653138565687
 21
-1610.183159318286
 31
0.0
  0
LINE
  5
68
330
A
100
AcDbEntity
  8
1
  6
Continuous
 62
     2
100
AcDbLine
 10
1096.653538565687
 20
-1619.679359318286
 30
0.0
 11
1079.360458565687
 21
-1619.679359318286
 31
0.0
  0
LINE
  5
67
330
A
100
AcDbEntity
  8
1
  6
Continuous
 62
     2
100
AcDbLine
 10
1096.653538565687
 20
-1616.680559318286
 30
0.0
 11
1079.360458565687
 21
-1616.680559318286
 31
0.0
  0
LINE
  5
66
330
A
100
AcDbEntity
  8
1
  6
Continuous
 62
     2
100
AcDbLine
 10
1096.653538565687
 20
-1617.680159318286
 30
0.0
 11
1079.360458565687
 21
-1617.680159318286
 31
0.0
  0
LINE
  5
65
330
A
100
AcDbEntity
  8
1
  6
Continuous
 62
     2
100
AcDbLine
 10
1096.653538565687
 20
-1614.681359318286
 30
0.0
 11
1079.360458565687
 21
-1614.681359318286
 31
0.0
  0
LINE
  5
64
330
A
100
AcDbEntity
  8
1
  6
Continuous
 62
     2
100
AcDbLine
 10
1096.653538565687
 20
-1613.681759318286
 30
0.0
 11
1079.360458565687
 21
-1613.681759318286
 31
0.0
  0
LINE
  5
63
330
A
100
AcDbEntity
  8
1
  6
Continuous
 62
     2
100
AcDbLine
 10
1096.653538565687
 20
-1611.682559318286
 30
0.0
 11
1079.360458565687
 21
-1611.682559318286
 31
0.0
  0
LINE
  5
62
330
A
100
AcDbEntity
  8
1
  6
Continuous
 62
     2
100
AcDbLine
 10
1096.653538565687
 20
-1610.682959318286
 30
0.0
 11
1079.360458565687
 21
-1610.682959318286
 31
0.0
  0
LINE
  5
61
330
A
100
AcDbEntity
  8
1
  6
Continuous
 62
     7
100
AcDbLine
 10
1097.653138565687
 20
-1619.429459318286
 30
0.0
 11
1096.653538565687
 21
-1619.429459318286
 31
0.0
  0
LINE
  5
60
330
A
100
AcDbEntity
  8
1
  6
Continuous
 62
     7
100
AcDbLine
 10
1096.653538565687
 20
-1611.432659318286
 30
0.0
 11
1097.653138565687
 21
-1611.432659318286
 31
0.0
  0
LINE
  5
5F
330
A
100
AcDbEntity
  8
1
  6
Continuous
 62
     7
100
AcDbLine
 10
1096.653538565687
 20
-1620.678959318286
 30
0.0
 11
1096.653538565687
 21
-1610.183159318286
 31
0.0
  0
LINE
  5
5E
330
A
100
AcDbEntity
  8
1
  6
Continuous
 62
     7
100
AcDbLine
 10
1079.360458565687
 20
-1620.678959318286
 30
0.0
 11
1096.653538565687
 21
-1620.678959318286
 31
0.0
  0
LINE
  5
5D
330
A
100
AcDbEntity
  8
1
  6
Continuous
 62
     7
100
AcDbLine
 10
1079.360458565687
 20
-1610.183159318286
 30
0.0
 11
1079.360458565687
 21
-1620.678959318286
 31
0.0
  0
LINE
  5
5C
330
A
100
AcDbEntity
  8
1
  6
Continuous
 62
     7
100
AcDbLine
 10
1096.653538565687
 20
-1610.183159318286
 30
0.0
 11
1079.360458565687
 21
-1610.183159318286
 31
0.0
  0
LINE
  5
5B
330
A
100
AcDbEntity
  8
1
  6
Continuous
 62
     7
100
AcDbLine
 10
1097.653138565687
 20
-1610.183159318286
 30
0.0
 11
1097.653138565687
 21
-1620.678959318286
 31
0.0
  0
LINE
  5
5A
330
A
100
AcDbEntity
  8
1
  6
Continuous
 62
     7
100
AcDbLine
 10
1349.653538565687
 20
-1521.149823470766
 30
0.0
 11
1205.274824871757
 21
-1521.149823470766
 31
0.0
  0
LINE
  5
59
330
A
100
AcDbEntity
  8
1
  6
Continuous
 62
     7
100
AcDbLine
 10
1102.651138565687
 20
-1521.149823470766
 30
0.0
 11
1102.651138565687
 21
-1570.130223470766
 31
0.0
  0
LINE
  5
58
330
A
100
AcDbEntity
  8
1
  6
Continuous
 62
     7
100
AcDbLine
 10
1102.651138565687
 20
-1570.130223470766
 30
0.0
 11
1198.896117864678
 21
-1570.130223470766
 31
0.0
  0
LINE
  5
57
330
A
100
AcDbEntity
  8
1
  6
Continuous
 62
     7
100
AcDbLine
 10
1349.653538565687
 20
-1570.133391304065
 30
0.0
 11
1349.653538565687
 21
-1521.152991304065
 31
0.0
  0
LINE
  5
56
330
A
100
AcDbEntity
  8
1
  6
Continuous
 62
     7
100
AcDbLine
 10
1112.515820264128
 20
-1544.509105169207
 30
0.0
 11
1114.777656867246
 21
-1546.770941772324
 31
0.0
  0
LINE
  5
55
330
A
100
AcDbEntity
  8
1
  6
Continuous
 62
     7
100
AcDbLine
 10
1114.777656867246
 20
-1544.509105169207
 30
0.0
 11
1112.515820264128
 21
-1546.770941772324
 31
0.0
  0
LINE
  5
54
330
A
100
AcDbEntity
  8
1
  6
Continuous
 62
     7
100
AcDbLine
 10
1337.527020264127
 20
-1544.512273002506
 30
0.0
 11
1339.788856867246
 21
-1546.774109605623
 31
0.0
  0
LINE
  5
53
330
A
100
AcDbEntity
  8
1
  6
Continuous
 62
     7
100
AcDbLine
 10
1339.788856867246
 20
-1544.512273002506
 30
0.0
 11
1337.527020264127
 21
-1546.774109605623
 31
0.0
  0
LINE
  5
52
330
A
100
AcDbEntity
  8
1
  6
Continuous
 62
     7
100
AcDbLine
 10
1355.651138565687
 20
-1558.138191304064
 30
0.0
 11
1363.148138565687
 21
-1558.138191304064
 31
0.0
  0
LINE
  5
51
330
A
100
AcDbEntity
  8
1
  6
Continuous
 62
     7
100
AcDbLine
 10
1364.147738565686
 20
-1559.137791304064
 30
0.0
 11
1364.147738565686
 21
-1564.135791304065
 31
0.0
  0
LINE
  5
50
330
A
100
AcDbEntity
  8
1
  6
Continuous
 62
     7
100
AcDbLine
 10
1355.651138565687
 20
-1565.135391304064
 30
0.0
 11
1363.122343613835
 21
-1565.135391304064
 31
0.0
  0
LINE
  5
4F
330
A
100
AcDbEntity
  8
1
  6
Continuous
 62
     7
100
AcDbLine
 10
1350.653138565687
 20
-1520.903091304064
 30
0.0
 11
1355.651138565687
 21
-1520.903091304064
 31
0.0
  0
LINE
  5
4E
330
A
100
AcDbEntity
  8
1
  6
Continuous
 62
     7
100
AcDbLine
 10
1355.651138565687
 20
-1520.903091304064
 30
0.0
 11
1355.651138565687
 21
-1570.383291304065
 31
0.0
  0
LINE
  5
4D
330
A
100
AcDbEntity
  8
1
  6
Continuous
 62
     7
100
AcDbLine
 10
1350.653138565687
 20
-1570.383291304065
 30
0.0
 11
1350.653138565687
 21
-1520.903091304064
 31
0.0
  0
LINE
  5
4C
330
A
100
AcDbEntity
  8
1
  6
Continuous
 62
     7
100
AcDbLine
 10
1355.651138565687
 20
-1570.383291304065
 30
0.0
 11
1350.653138565687
 21
-1570.383291304065
 31
0.0
  0
LINE
  5
4B
330
A
100
AcDbEntity
  8
1
  6
Continuous
 62
     2
100
AcDbLine
 10
1357.606545817621
 20
-1558.138191304064
 30
0.0
 11
1357.606545817621
 21
-1565.135391304064
 31
0.0
  0
LINE
  5
4A
330
A
100
AcDbEntity
  8
1
  6
Continuous
 62
     7
100
AcDbLine
 10
1349.653538565687
 20
-1602.186237529037
 30
0.0
 11
1198.725624309424
 21
-1602.183069695738
 31
0.0
  0
LINE
  5
49
330
A
100
AcDbEntity
  8
1
  6
Continuous
 62
     7
100
AcDbLine
 10
1349.653538565687
 20
-1727.636037529037
 30
0.0
 11
1347.654338565687
 21
-1729.635237529037
 31
0.0
  0
LINE
  5
48
330
A
100
AcDbEntity
  8
1
  6
Continuous
 62
     7
100
AcDbLine
 10
1104.650338565687
 20
-1729.632069695738
 30
0.0
 11
1102.651138565687
 21
-1727.632869695738
 31
0.0
  0
LINE
  5
47
330
A
100
AcDbEntity
  8
1
  6
Continuous
 62
     7
100
AcDbLine
 10
1347.724146618837
 20
-1729.635237529037
 30
0.0
 11
1198.725624309424
 21
-1729.632069695738
 31
0.0
  0
LINE
  5
46
330
A
100
AcDbEntity
  8
1
  6
Continuous
 62
     7
100
AcDbLine
 10
1102.651138565687
 20
-1603.182669695738
 30
0.0
 11
1102.651138565687
 21
-1727.632869695738
 31
0.0
  0
LINE
  5
45
330
A
100
AcDbEntity
  8
1
  6
Continuous
 62
     7
100
AcDbLine
 10
1102.651138565687
 20
-1602.183069695738
 30
0.0
 11
1102.651138565687
 21
-1603.182669695738
 31
0.0
  0
LINE
  5
44
330
A
100
AcDbEntity
  8
1
  6
Continuous
 62
     7
100
AcDbLine
 10
1349.653538565687
 20
-1727.636037529037
 30
0.0
 11
1349.653538565687
 21
-1602.186237529037
 31
0.0
  0
LINE
  5
43
330
A
100
AcDbEntity
  8
1
  6
Continuous
 62
     7
100
AcDbLine
 10
1013.150479434004
 20
-1602.183069695738
 30
0.0
 11
1060.631479434004
 21
-1602.183069695738
 31
0.0
  0
LINE
  5
42
330
A
100
AcDbEntity
  8
1
  6
Continuous
 62
     7
100
AcDbLine
 10
1060.631479434004
 20
-1603.182669695738
 30
0.0
 11
1013.150479434004
 21
-1603.182669695738
 31
0.0
  0
LINE
  5
41
330
A
100
AcDbEntity
  8
1
  6
Continuous
 62
     7
100
AcDbLine
 10
1061.631079434004
 20
-1603.182669695738
 30
0.0
 11
1061.631079434004
 21
-1729.632069695738
 31
0.0
  0
LINE
  5
40
330
A
100
AcDbEntity
  8
1
  6
Continuous
 62
     7
100
AcDbLine
 10
1060.631479434004
 20
-1729.632069695738
 30
0.0
 11
1060.631479434004
 21
-1603.182669695738
 31
0.0
  0
LINE
  5
3F
330
A
100
AcDbEntity
  8
1
  6
Continuous
 62
     7
100
AcDbLine
 10
1013.150479434004
 20
-1603.182669695738
 30
0.0
 11
1013.150479434004
 21
-1729.632069695738
 31
0.0
  0
LINE
  5
3E
330
A
100
AcDbEntity
  8
1
  6
Continuous
 62
     7
100
AcDbLine
 10
1012.150879434004
 20
-1729.632069695738
 30
0.0
 11
1012.150879434004
 21
-1603.182669695738
 31
0.0
  0
LINE
  5
3D
330
A
100
AcDbEntity
  8
1
  6
Continuous
 62
     7
100
AcDbLine
 10
1013.150479434004
 20
-1729.632069695738
 30
0.0
 11
1012.150879434004
 21
-1729.632069695738
 31
0.0
  0
LINE
  5
3C
330
A
100
AcDbEntity
  8
1
  6
Continuous
 62
     7
100
AcDbLine
 10
1061.631079434004
 20
-1729.632069695738
 30
0.0
 11
1060.631479434004
 21
-1729.632069695738
 31
0.0
  0
LINE
  5
3B
330
A
100
AcDbEntity
  8
1
  6
Continuous
 62
     7
100
AcDbLine
 10
1355.651138565687
 20
-1711.642437529037
 30
0.0
 11
1358.150138565687
 21
-1711.642437529037
 31
0.0
  0
LINE
  5
3A
330
A
100
AcDbEntity
  8
1
  6
Continuous
 62
     7
100
AcDbLine
 10
1358.150138565687
 20
-1711.642437529037
 30
0.0
 11
1358.150138565687
 21
-1713.641637529037
 31
0.0
  0
LINE
  5
39
330
A
100
AcDbEntity
  8
1
  6
Continuous
 62
     7
100
AcDbLine
 10
1358.150138565687
 20
-1718.639637529037
 30
0.0
 11
1355.651138565687
 21
-1718.639637529037
 31
0.0
  0
LINE
  5
38
330
A
100
AcDbEntity
  8
1
  6
Continuous
 62
     7
100
AcDbLine
 10
1358.150138565687
 20
-1711.642437529037
 30
0.0
 11
1363.148138565687
 21
-1711.642437529037
 31
0.0
  0
LINE
  5
37
330
A
100
AcDbEntity
  8
1
  6
Continuous
 62
     7
100
AcDbLine
 10
1364.147738565686
 20
-1712.642037529037
 30
0.0
 11
1364.147738565686
 21
-1717.640037529037
 31
0.0
  0
LINE
  5
36
330
A
100
AcDbEntity
  8
1
  6
Continuous
 62
     7
100
AcDbLine
 10
1358.150138565687
 20
-1718.639637529037
 30
0.0
 11
1363.148138565687
 21
-1718.639637529037
 31
0.0
  0
LINE
  5
35
330
A
100
AcDbEntity
  8
1
  6
Continuous
 62
     7
100
AcDbLine
 10
1358.150138565687
 20
-1713.641637529037
 30
0.0
 11
1358.150138565687
 21
-1713.941517529037
 31
0.0
  0
LINE
  5
34
330
A
100
AcDbEntity
  8
1
  6
Continuous
 62
     7
100
AcDbLine
 10
1358.150138565687
 20
-1716.640437529036
 30
0.0
 11
1358.150138565687
 21
-1718.639637529037
 31
0.0
  0
LINE
  5
33
330
A
100
AcDbEntity
  8
1
  6
Continuous
 62
     7
100
AcDbLine
 10
1358.150138565687
 20
-1713.941517529037
 30
0.0
 11
1358.150138565687
 21
-1716.340557529037
 31
0.0
  0
LINE
  5
32
330
A
100
AcDbEntity
  8
1
  6
Continuous
 62
     7
100
AcDbLine
 10
1358.150138565687
 20
-1716.340557529037
 30
0.0
 11
1358.150138565687
 21
-1716.640437529036
 31
0.0
  0
LINE
  5
31
330
A
100
AcDbEntity
  8
1
  6
Continuous
 62
     7
100
AcDbLine
 10
1349.653538565687
 20
-1729.635237529037
 30
0.0
 11
1347.724146618837
 21
-1729.635237529037
 31
0.0
  0
LINE
  5
30
330
A
100
AcDbEntity
  8
1
  6
Continuous
 62
     7
100
AcDbLine
 10
1350.653138565687
 20
-1728.635637529038
 30
0.0
 11
1350.653138565687
 21
-1605.684837529037
 31
0.0
  0
LINE
  5
2F
330
A
100
AcDbEntity
  8
1
  6
Continuous
 62
     2
100
AcDbLine
 10
1397.916002203517
 20
-1641.900114509055
 30
0.0
 11
1400.713007397747
 21
-1639.103109314825
 31
0.0
  0
LINE
  5
2E
330
A
100
AcDbEntity
  8
1
  6
Continuous
 62
     2
100
AcDbLine
 10
1400.713007397747
 20
-1639.103109314825
 30
0.0
 11
1401.561535535165
 21
-1639.951637452255
 31
0.0
  0
LINE
  5
2D
330
A
100
AcDbEntity
  8
1
  6
Continuous
 62
     2
100
AcDbLine
 10
1401.561535535165
 20
-1639.951637452255
 30
0.0
 11
1398.764530340935
 21
-1642.748642646485
 31
0.0
  0
LINE
  5
2C
330
A
100
AcDbEntity
  8
1
  6
Continuous
 62
     2
100
AcDbLine
 10
1398.764530340935
 20
-1642.748642646485
 30
0.0
 11
1397.916002203517
 21
-1641.900114509055
 31
0.0
  0
LINE
  5
2B
330
A
100
AcDbEntity
  8
1
  6
Continuous
 62
     2
100
AcDbLine
 10
1397.918901488658
 20
-1693.379514509056
 30
0.0
 11
1400.715906682888
 21
-1690.582509314826
 31
0.0
  0
LINE
  5
2A
330
A
100
AcDbEntity
  8
1
  6
Continuous
 62
     2
100
AcDbLine
 10
1400.715906682888
 20
-1690.582509314826
 30
0.0
 11
1401.564434820305
 21
-1691.431037452256
 31
0.0
  0
LINE
  5
29
330
A
100
AcDbEntity
  8
1
  6
Continuous
 62
     2
100
AcDbLine
 10
1401.564434820305
 20
-1691.431037452256
 30
0.0
 11
1398.767429626075
 21
-1694.228042646485
 31
0.0
  0
LINE
  5
28
330
A
100
AcDbEntity
  8
1
  6
Continuous
 62
     2
100
AcDbLine
 10
1398.767429626075
 20
-1694.228042646485
 30
0.0
 11
1397.918901488658
 21
-1693.379514509056
 31
0.0
  0
LINE
  5
41F
330
A
100
AcDbEntity
  8
1
  6
Continuous
 62
     7
100
AcDbLine
 10
1022.906878480889
 20
-1688.651063545962
 30
0.0
 11
1018.887880387119
 21
-1692.670061639732
 31
0.0
  0
LINE
  5
420
330
A
100
AcDbEntity
  8
1
  6
Continuous
 62
     7
100
AcDbLine
 10
1018.887880387119
 20
-1688.651063545962
 30
0.0
 11
1022.906878480889
 21
-1692.670061639732
 31
0.0
  0
LINE
  5
421
330
A
100
AcDbEntity
  8
1
  6
Continuous
 62
     7
100
AcDbLine
 10
1102.651138565687
 20
-1686.660562592847
 30
0.0
 11
1102.151138565687
 21
-1686.660562592847
 31
0.0
  0
LINE
  5
422
330
A
100
AcDbEntity
  8
1
  6
Continuous
 62
     7
100
AcDbLine
 10
1102.151138565687
 20
-1686.660562592847
 30
0.0
 11
1102.151138565687
 21
-1689.763023695738
 31
0.0
  0
ARC
  5
423
330
A
100
AcDbEntity
  8
1
  6
Continuous
 62
     7
100
AcDbCircle
 10
1104.101138565687
 20
-1690.660562592847
 30
0.0
 40
4.450000000000019
100
AcDbArc
 50
115.9892335838418
 51
168.3639551036064
  0
CIRCLE
  5
424
330
A
100
AcDbEntity
  8
1
  6
Continuous
 62
     7
100
AcDbCircle
 10
1020.897379434004
 20
-1690.660562592847
 30
0.0
 40
4.0
  0
LINE
  5
48B
330
A
100
AcDbEntity
  8
1
  6
Continuous
 62
     7
100
AcDbLine
 10
1102.651138565687
 20
-1525.400223470766
 30
0.0
 11
1102.151138565687
 21
-1525.400223470766
 31
0.0
  0
LINE
  5
48C
330
A
100
AcDbEntity
  8
1
  6
Continuous
 62
     7
100
AcDbLine
 10
1102.151138565687
 20
-1525.400223470766
 30
0.0
 11
1102.151138565687
 21
-1528.142123470766
 31
0.0
  0
ARC
  5
48D
330
A
100
AcDbEntity
  8
1
  6
Continuous
 62
     7
100
AcDbCircle
 10
1104.101138565687
 20
-1529.400223470766
 30
0.0
 40
4.450000000000019
100
AcDbArc
 50
115.989233583842
 51
163.5774435917915
  0
DIMENSION
  5
4D2
330
A
100
AcDbEntity
  8
MEASURE
  6
Continuous
100
AcDbDimension
  2
*D12
 10
1355.651138565687
 20
-1584.768438565849
 30
0.0
 11
1229.151138565687
 21
-1582.518438565849
 31
0.0
 70
    32
 71
     5
 42
253.0
  3
AD-STANDARD
100
AcDbAlignedDimension
 13
1102.651138565687
 23
-1602.183069695738
 33
0.0
 14
1355.651138565687
 24
-1594.689237529037
 34
0.0
100
AcDbRotatedDimension
1001
ACAD
1000
DSTYLE
1002
{
1070
    47
1040
1.0
1070
    48
1040
1.0
1070
   147
1040
0.5
1070
    72
1070
     0
1070
    71
1070
     1
1002
}
  0
DIMENSION
  5
4DF
330
A
100
AcDbEntity
  8
MEASURE
  6
Continuous
100
AcDbDimension
  2
*D13
 10
1364.147738565686
 20
-1584.768438565849
 30
0.0
 11
1359.899438565686
 21
-1584.768438565849
 31
0.0
 70
   160
 71
     5
 42
8.496599999999034
  3
AD-STANDARD
100
AcDbAlignedDimension
 13
1355.651138565687
 23
-1594.689237529037
 33
0.0
 14
1364.147738565686
 24
-1712.642037529037
 34
0.0
100
AcDbRotatedDimension
1001
ACAD
1000
DSTYLE
1002
{
1070
     3
1000
(<>)
1070
   271
1070
     1
1002
}
  0
DIMENSION
  5
513
330
A
100
AcDbEntity
  8
MEASURE
  6
Continuous
100
AcDbDimension
  2
*D14
 10
1079.360458565687
 20
-1584.768438565849
 30
0.0
 11
1091.005798565687
 21
-1581.601771899182
 31
0.0
 70
    32
  1
(24)
 71
     5
 42
23.29068000000029
  3
AD-STANDARD
100
AcDbAlignedDimension
 13
1102.651138565687
 23
-1602.183069695738
 33
0.0
 14
1079.360458565687
 24
-1610.183159318286
 34
0.0
100
AcDbRotatedDimension
  0
DIMENSION
  5
529
330
A
100
AcDbEntity
  8
MEASURE
  6
Continuous
100
AcDbDimension
  2
*D15
 10
1381.401430963455
 20
-1737.628869695738
 30
0.0
 11
1379.151430963455
 21
-1666.157469695737
 31
0.0
 70
    32
 71
     5
 42
142.9428
  3
AD-STANDARD
100
AcDbAlignedDimension
 13
1390.403714439399
 23
-1594.686069695738
 33
0.0
 14
1390.403714439399
 24
-1737.628869695738
 34
0.0
 50
90.0
100
AcDbRotatedDimension
1001
ACAD
1000
DSTYLE
1002
{
1070
    47
1040
1.0
1070
    48
1040
1.0
1070
   147
1040
0.5
1070
    72
1070
     0
1070
    71
1070
     1
1070
   271
1070
     0
1002
}
  0
DIMENSION
  5
55A
330
A
100
AcDbEntity
  8
MEASURE
  6
Continuous
100
AcDbDimension
  2
*D16
 10
1439.883914439399
 20
-1584.637301011689
 30
0.0
 11
1415.143814439399
 21
-1582.387301011689
 31
0.0
 70
    32
 71
     5
 42
49.48019999999928
  3
AD-STANDARD
100
AcDbAlignedDimension
 13
1390.403714439399
 23
-1594.686069695738
 33
0.0
 14
1439.883914439399
 24
-1594.686069695738
 34
0.0
100
AcDbRotatedDimension
1001
ACAD
1000
DSTYLE
1002
{
1070
    47
1040
0.5
1070
    48
1040
0.5
1070
   147
1040
0.5
1070
    72
1070
     0
1070
    71
1070
     1
1070
   271
1070
     1
1002
}
  0
ENDSEC
  0
SECTION
  2
OBJECTS
  0
DICTIONARY
  5
19
330
0
100
AcDbDictionary
281
     1
  3
ACAD_2007HEADERVARS_RT
350
5D2
  3
ACAD_COLOR
350
40B
  3
ACAD_GROUP
350
1A
  3
ACAD_LAYOUT
350
410
  3
ACAD_MATERIAL
350
3F6
  3
ACAD_MLINESTYLE
350
1B
  3
ACAD_PLOTSETTINGS
350
40F
  3
ACAD_PLOTSTYLENAME
350
3F4
  3
ACAD_TABLESTYLE
350
40C
  3
ACAD_VISUALSTYLE
350
3FA
  3
AcDbVariableDictionary
350
487
  3
DWGPROPS
350
5D1
  0
DICTIONARY
  5
5B0
330
7
100
AcDbDictionary
280
     1
281
     1
  0
DICTIONARY
  5
465
330
2
100
AcDbDictionary
280
     1
281
     1
  3
ACAD_LAYERSTATES
360
466
  0
DICTIONARY
  5
5D2
102
{ACAD_REACTORS
330
19
102
}
330
19
100
AcDbDictionary
281
     1
  3
DIMJOGANG
350
5D3
  0
DICTIONARY
  5
40B
102
{ACAD_REACTORS
330
19
102
}
330
19
100
AcDbDictionary
281
     1
  0
DICTIONARY
  5
1A
102
{ACAD_REACTORS
330
19
102
}
330
19
100
AcDbDictionary
281
     1
  0
DICTIONARY
  5
410
102
{ACAD_REACTORS
330
19
102
}
330
19
100
AcDbDictionary
281
     1
  3
Model
350
411
  3
レイアウト1
350
412
  0
DICTIONARY
  5
3F6
102
{ACAD_REACTORS
330
19
102
}
330
19
100
AcDbDictionary
281
     1
  3
ByBlock
350
3F8
  3
ByLayer
350
3F7
  3
Global
350
3F9
  0
DICTIONARY
  5
1B
102
{ACAD_REACTORS
330
19
102
}
330
19
100
AcDbDictionary
281
     1
  3
STANDARD
350
1C
  0
DICTIONARY
  5
40F
102
{ACAD_REACTORS
330
19
102
}
330
19
100
AcDbDictionary
281
     1
  0
ACDBDICTIONARYWDFLT
  5
3F4
102
{ACAD_REACTORS
330
19
102
}
330
19
100
AcDbDictionary
281
     1
  3
Normal
350
3F5
100
AcDbDictionaryWithDefault
340
3F5
  0
DICTIONARY
  5
40C
102
{ACAD_REACTORS
330
19
102
}
330
19
100
AcDbDictionary
281
     1
  3
Standard
350
40D
  0
DICTIONARY
  5
3FA
102
{ACAD_REACTORS
330
19
102
}
330
19
100
AcDbDictionary
281
     1
  3
2dWireframe
350
400
  3
3D Hidden
350
402
  3
3dWireframe
350
401
  3
Basic
350
3FF
  3
Brighten
350
406
  3
ColorChange
350
40A
  3
Conceptual
350
403
  3
Dim
350
405
  3
Facepattern
350
409
  3
Flat
350
3FB
  3
FlatWithEdges
350
3FC
  3
Gouraud
350
3FD
  3
GouraudWithEdges
350
3FE
  3
Linepattern
350
408
  3
Realistic
350
404
  3
Thicken
350
407
  0
DICTIONARY
  5
487
102
{ACAD_REACTORS
330
19
102
}
330
19
100
AcDbDictionary
281
     1
  3
CTABLESTYLE
350
488
  3
DIMASSOC
350
5C8
  3
INDEXCTL
350
5C7
  3
SORTENTS
350
5C6
  0
XRECORD
  5
5D1
102
{ACAD_REACTORS
330
19
102
}
330
19
100
AcDbXrecord
280
     1
  1
DWGPROPS COOKIE
  2

  3

  4

  6

  7

  8
TAKEO-1213
  9

300
=
301
=
302
=
303
=
304
=
305
=
306
=
307
=
308
=
309
=
 40
0.0434897569444445
 41
2314168.288031782
 42
2459557.468901794
  1

 90
        0
  0
DICTIONARY
  5
466
102
{ACAD_REACTORS
330
465
102
}
330
465
100
AcDbDictionary
281
     1
  0
XRECORD
  5
5D3
102
{ACAD_REACTORS
330
5D2
102
}
330
5D2
100
AcDbXrecord
280
     1
 40
1.570796326794896
  0
LAYOUT
  5
411
102
{ACAD_XDICTIONARY
360
5DC
102
}
102
{ACAD_REACTORS
330
410
102
}
330
410
100
AcDbPlotSettings
  1

  2
ADJ-DV10-Q01
  4

  6

 40
0.0
 41
0.0
 42
0.0
 43
0.0
 44
0.0
 45
0.0
 46
0.0
 47
0.0
 48
0.0
 49
0.0
140
0.0
141
0.0
142
1.0
143
1.0
 70
  1712
 72
     0
 73
     0
 74
     0
  7

 75
     0
147
1.0
148
0.0
149
0.0
100
AcDbLayout
  1
Model
 70
     1
 71
     0
 10
0.0
 20
0.0
 11
12.0
 21
9.0
 12
0.0
 22
0.0
 32
0.0
 14
0.0
 24
0.0
 34
0.0
 15
0.0
 25
0.0
 35
0.0
146
0.0
 13
0.0
 23
0.0
 33
0.0
 16
1.0
 26
0.0
 36
0.0
 17
0.0
 27
1.0
 37
0.0
 76
     0
330
A
331
15
  0
LAYOUT
  5
412
102
{ACAD_XDICTIONARY
360
5DE
102
}
102
{ACAD_REACTORS
330
410
102
}
330
410
100
AcDbPlotSettings
  1

  2
ADJ-DV10-Q01
  4

  6

 40
0.0
 41
0.0
 42
0.0
 43
0.0
 44
0.0
 45
0.0
 46
0.0
 47
0.0
 48
0.0
 49
0.0
140
0.0
141
0.0
142
1.0
143
1.0
 70
   688
 72
     0
 73
     0
 74
     5
  7

 75
    16
147
1.0
148
0.0
149
0.0
100
AcDbLayout
  1
レイアウト1
 70
     0
 71
     1
 10
0.0
 20
0.0
 11
12.0
 21
9.0
 12
0.0
 22
0.0
 32
0.0
 14
1.000000000000000E+20
 24
1.000000000000000E+20
 34
1.000000000000000E+20
 15
-1.000000000000000E+20
 25
-1.000000000000000E+20
 35
-1.000000000000000E+20
146
0.0
 13
0.0
 23
0.0
 33
0.0
 16
1.0
 26
0.0
 36
0.0
 17
0.0
 27
1.0
 37
0.0
 76
     0
330
B
  0
MATERIAL
  5
3F8
102
{ACAD_XDICTIONARY
360
5D6
102
}
102
{ACAD_REACTORS
330
3F6
102
}
330
3F6
100
AcDbMaterial
  1
ByBlock
  0
MATERIAL
  5
3F7
102
{ACAD_XDICTIONARY
360
5D4
102
}
102
{ACAD_REACTORS
330
3F6
102
}
330
3F6
100
AcDbMaterial
  1
ByLayer
  0
MATERIAL
  5
3F9
102
{ACAD_XDICTIONARY
360
5D8
102
}
102
{ACAD_REACTORS
330
3F6
102
}
330
3F6
100
AcDbMaterial
  1
Global
  0
MLINESTYLE
  5
1C
102
{ACAD_REACTORS
330
1B
102
}
330
1B
100
AcDbMlineStyle
  2
STANDARD
 70
     0
  3

 62
     0
 51
90.0
 52
90.0
 71
     2
 49
0.5
 62
   256
  6
BYLAYER
 49
-0.5
 62
   256
  6
BYLAYER
  0
ACDBPLACEHOLDER
  5
3F5
102
{ACAD_REACTORS
330
3F4
102
}
330
3F4
  0
TABLESTYLE
  5
40D
102
{ACAD_XDICTIONARY
360
5DA
102
}
102
{ACAD_REACTORS
330
40C
102
}
330
40C
100
AcDbTableStyle
  3
Standard
 70
     0
 71
     0
 40
1.5
 41
1.5
280
     0
281
     0
  7
STANDARD
140
4.5
170
     2
 62
     0
 63
     7
283
     0
274
    -2
284
     1
 64
     0
275
    -2
285
     1
 65
     0
276
    -2
286
     1
 66
     0
277
    -2
287
     1
 67
     0
278
    -2
288
     1
 68
     0
279
    -2
289
     1
 69
     0
  7
STANDARD
140
6.0
170
     5
 62
     0
 63
     7
283
     0
274
    -2
284
     1
 64
     0
275
    -2
285
     1
 65
     0
276
    -2
286
     1
 66
     0
277
    -2
287
     1
 67
     0
278
    -2
288
     1
 68
     0
279
    -2
289
     1
 69
     0
  7
STANDARD
140
4.5
170
     5
 62
     0
 63
     7
283
     0
274
    -2
284
     1
 64
     0
275
    -2
285
     1
 65
     0
276
    -2
286
     1
 66
     0
277
    -2
287
     1
 67
     0
278
    -2
288
     1
 68
     0
279
    -2
289
     1
 69
     0
  0
VISUALSTYLE
  5
400
102
{ACAD_REACTORS
330
3FA
102
}
330
3FA
100
AcDbVisualStyle
  2
2dWireframe
 70
     4
 71
     0
 72
     2
 73
     0
 90
        0
 40
-0.6
 41
-30.0
 62
     5
 63
     7
 74
     1
 91
        4
 64
     7
 65
   257
 75
     1
175
     1
 42
1.0
 92
        0
 66
   257
 43
1.0
 76
     1
 77
     6
 78
     2
 67
     7
 79
     5
170
     0
171
     0
290
     0
174
     0
 93
        1
 44
0.0
173
     0
291
     0
 45
0.0
1001
ACAD
1000
AcDbSavedByObjectVersion
1070
     0
  0
VISUALSTYLE
  5
402
102
{ACAD_REACTORS
330
3FA
102
}
330
3FA
100
AcDbVisualStyle
  2
3D Hidden
 70
     6
 71
     1
 72
     2
 73
     2
 90
        0
 40
-0.6
 41
-30.0
 62
     5
 63
     7
 74
     2
 91
        2
 64
     7
 65
   257
 75
     2
175
     1
 42
40.0
 92
        0
 66
   257
 43
1.0
 76
     1
 77
     6
 78
     2
 67
     7
 79
     3
170
     0
171
     0
290
     0
174
     0
 93
        1
 44
0.0
173
     0
291
     0
 45
0.0
1001
ACAD
1000
AcDbSavedByObjectVersion
1070
     0
  0
VISUALSTYLE
  5
401
102
{ACAD_REACTORS
330
3FA
102
}
330
3FA
100
AcDbVisualStyle
  2
3dWireframe
 70
     5
 71
     0
 72
     2
 73
     0
 90
        0
 40
-0.6
 41
-30.0
 62
     5
 63
     7
 74
     1
 91
        4
 64
     7
 65
   257
 75
     1
175
     1
 42
1.0
 92
        0
 66
   257
 43
1.0
 76
     1
 77
     6
 78
     2
 67
     7
 79
     5
170
     0
171
     0
290
     0
174
     0
 93
        1
 44
0.0
173
     0
291
     0
 45
0.0
1001
ACAD
1000
AcDbSavedByObjectVersion
1070
     0
  0
VISUALSTYLE
  5
3FF
102
{ACAD_REACTORS
330
3FA
102
}
330
3FA
100
AcDbVisualStyle
  2
Basic
 70
     7
 71
     1
 72
     0
 73
     1
 90
        0
 40
-0.6
 41
-30.0
 62
     5
 63
     7
 74
     0
 91
        4
 64
     7
 65
   257
 75
     1
175
     1
 42
1.0
 92
        8
 66
     7
 43
1.0
 76
     1
 77
     6
 78
     2
 67
     7
 79
     5
170
     0
171
     0
290
     0
174
     0
 93
        1
 44
0.0
173
     0
291
     1
 45
0.0
1001
ACAD
1000
AcDbSavedByObjectVersion
1070
     0
  0
VISUALSTYLE
  5
406
102
{ACAD_REACTORS
330
3FA
102
}
330
3FA
100
AcDbVisualStyle
  2
Brighten
 70
    12
 71
     2
 72
     2
 73
     0
 90
        0
 40
-0.6
 41
-30.0
 62
     5
 63
     7
 74
     1
 91
        4
 64
     7
 65
   257
 75
     1
175
     1
 42
1.0
 92
        8
 66
     7
 43
1.0
 76
     1
 77
     6
 78
     2
 67
     7
 79
     5
170
     0
171
     0
290
     0
174
     0
 93
        1
 44
50.0
173
     0
291
     1
 45
0.0
1001
ACAD
1000
AcDbSavedByObjectVersion
1070
     0
  0
VISUALSTYLE
  5
40A
102
{ACAD_REACTORS
330
3FA
102
}
330
3FA
100
AcDbVisualStyle
  2
ColorChange
 70
    16
 71
     2
 72
     2
 73
     3
 90
        0
 40
-0.6
 41
-30.0
 62
     5
 63
     8
 74
     1
 91
        4
 64
     7
 65
   257
 75
     1
175
     1
 42
1.0
 92
        8
 66
     8
 43
1.0
 76
     1
 77
     6
 78
     2
 67
     7
 79
     5
170
     0
171
     0
290
     0
174
     0
 93
        1
 44
0.0
173
     0
291
     1
 45
0.0
1001
ACAD
1000
AcDbSavedByObjectVersion
1070
     0
  0
VISUALSTYLE
  5
403
102
{ACAD_REACTORS
330
3FA
102
}
330
3FA
100
AcDbVisualStyle
  2
Conceptual
 70
     9
 71
     3
 72
     2
 73
     0
 90
        0
 40
-0.6
 41
-30.0
 62
     5
 63
     7
 74
     2
 91
        2
 64
     7
 65
   257
 75
     1
175
     1
 42
40.0
 92
        8
 66
     7
 43
1.0
 76
     1
 77
     6
 78
     2
 67
     7
 79
     3
170
     0
171
     0
290
     0
174
     0
 93
        1
 44
0.0
173
     0
291
     0
 45
0.0
1001
ACAD
1000
AcDbSavedByObjectVersion
1070
     0
  0
VISUALSTYLE
  5
405
102
{ACAD_REACTORS
330
3FA
102
}
330
3FA
100
AcDbVisualStyle
  2
Dim
 70
    11
 71
     2
 72
     2
 73
     0
 90
        0
 40
-0.6
 41
-30.0
 62
     5
 63
     7
 74
     1
 91
        4
 64
     7
 65
   257
 75
     1
175
     1
 42
1.0
 92
        8
 66
     7
 43
1.0
 76
     1
 77
     6
 78
     2
 67
     7
 79
     5
170
     0
171
     0
290
     0
174
     0
 93
        1
 44
-50.0
173
     0
291
     1
 45
0.0
1001
ACAD
1000
AcDbSavedByObjectVersion
1070
     0
  0
VISUALSTYLE
  5
409
102
{ACAD_REACTORS
330
3FA
102
}
330
3FA
100
AcDbVisualStyle
  2
Facepattern
 70
    15
 71
     2
 72
     2
 73
     0
 90
        0
 40
-0.6
 41
-30.0
 62
     5
 63
     7
 74
     1
 91
        4
 64
     7
 65
   257
 75
     1
175
     1
 42
1.0
 92
        8
 66
     7
 43
1.0
 76
     1
 77
     6
 78
     2
 67
     7
 79
     5
170
     0
171
     0
290
     0
174
     0
 93
        1
 44
0.0
173
     0
291
     1
 45
0.0
1001
ACAD
1000
AcDbSavedByObjectVersion
1070
     0
  0
VISUALSTYLE
  5
3FB
102
{ACAD_REACTORS
330
3FA
102
}
330
3FA
100
AcDbVisualStyle
  2
Flat
 70
     0
 71
     2
 72
     1
 73
     1
 90
        2
 40
-0.6
 41
30.0
 62
     5
 63
     7
 74
     0
 91
        4
 64
     7
 65
   257
 75
     1
175
     1
 42
1.0
 92
        8
 66
     7
 43
1.0
 76
     1
 77
     6
 78
     2
 67
     7
 79
     5
170
     0
171
     0
290
     0
174
     0
 93
       13
 44
0.0
173
     0
291
     1
 45
0.0
1001
ACAD
1000
AcDbSavedByObjectVersion
1070
     0
  0
VISUALSTYLE
  5
3FC
102
{ACAD_REACTORS
330
3FA
102
}
330
3FA
100
AcDbVisualStyle
  2
FlatWithEdges
 70
     1
 71
     2
 72
     1
 73
     1
 90
        2
 40
-0.6
 41
30.0
 62
     5
 63
     7
 74
     1
 91
        4
 64
     7
 65
   257
 75
     1
175
     1
 42
1.0
 92
        0
 66
   257
 43
1.0
 76
     1
 77
     6
 78
     2
 67
     7
 79
     5
170
     0
171
     0
290
     0
174
     0
 93
       13
 44
0.0
173
     0
291
     1
 45
0.0
1001
ACAD
1000
AcDbSavedByObjectVersion
1070
     0
  0
VISUALSTYLE
  5
3FD
102
{ACAD_REACTORS
330
3FA
102
}
330
3FA
100
AcDbVisualStyle
  2
Gouraud
 70
     2
 71
     2
 72
     2
 73
     1
 90
        2
 40
-0.6
 41
30.0
 62
     5
 63
     7
 74
     0
 91
        4
 64
     7
 65
   257
 75
     1
175
     1
 42
1.0
 92
        0
 66
     7
 43
1.0
 76
     1
 77
     6
 78
     2
 67
     7
 79
     5
170
     0
171
     0
290
     0
174
     0
 93
       13
 44
0.0
173
     0
291
     1
 45
0.0
1001
ACAD
1000
AcDbSavedByObjectVersion
1070
     0
  0
VISUALSTYLE
  5
3FE
102
{ACAD_REACTORS
330
3FA
102
}
330
3FA
100
AcDbVisualStyle
  2
GouraudWithEdges
 70
     3
 71
     2
 72
     2
 73
     1
 90
        2
 40
-0.6
 41
30.0
 62
     5
 63
     7
 74
     1
 91
        4
 64
     7
 65
   257
 75
     1
175
     1
 42
1.0
 92
        0
 66
   257
 43
1.0
 76
     1
 77
     6
 78
     2
 67
     7
 79
     5
170
     0
171
     0
290
     0
174
     0
 93
       13
 44
0.0
173
     0
291
     1
 45
0.0
1001
ACAD
1000
AcDbSavedByObjectVersion
1070
     0
  0
VISUALSTYLE
  5
408
102
{ACAD_REACTORS
330
3FA
102
}
330
3FA
100
AcDbVisualStyle
  2
Linepattern
 70
    14
 71
     2
 72
     2
 73
     0
 90
        0
 40
-0.6
 41
-30.0
 62
     5
 63
     7
 74
     1
 91
        4
 64
     7
 65
   257
 75
     7
175
     7
 42
1.0
 92
        8
 66
     7
 43
1.0
 76
     1
 77
     6
 78
     2
 67
     7
 79
     5
170
     0
171
     0
290
     0
174
     0
 93
        1
 44
0.0
173
     0
291
     1
 45
0.0
1001
ACAD
1000
AcDbSavedByObjectVersion
1070
     0
  0
VISUALSTYLE
  5
404
102
{ACAD_REACTORS
330
3FA
102
}
330
3FA
100
AcDbVisualStyle
  2
Realistic
 70
     8
 71
     2
 72
     2
 73
     0
 90
        0
 40
-0.6
 41
-30.0
 62
     5
 63
     7
 74
     1
 91
        0
 64
     7
 65
   257
 75
     1
175
     1
 42
1.0
 92
        8
 66
     8
 43
1.0
 76
     1
 77
     6
 78
     2
 67
     7
 79
     5
170
     0
171
     0
290
     0
174
     0
 93
       13
 44
0.0
173
     0
291
     0
 45
0.0
1001
ACAD
1000
AcDbSavedByObjectVersion
1070
     0
  0
VISUALSTYLE
  5
407
102
{ACAD_REACTORS
330
3FA
102
}
330
3FA
100
AcDbVisualStyle
  2
Thicken
 70
    13
 71
     2
 72
     2
 73
     0
 90
        0
 40
-0.6
 41
-30.0
 62
     5
 63
     7
 74
     1
 91
        4
 64
     7
 65
   257
 75
     1
175
     1
 42
1.0
 92
       12
 66
     7
 43
1.0
 76
     1
 77
     6
 78
     2
 67
     7
 79
     5
170
     0
171
     0
290
     0
174
     0
 93
        1
 44
0.0
173
     0
291
     1
 45
0.0
1001
ACAD
1000
AcDbSavedByObjectVersion
1070
     0
  0
DICTIONARYVAR
  5
488
102
{ACAD_REACTORS
330
487
102
}
330
487
100
DictionaryVariables
280
     0
  1
STANDARD
  0
DICTIONARYVAR
  5
5C8
102
{ACAD_REACTORS
330
487
102
}
330
487
100
DictionaryVariables
280
     0
  1
1
  0
DICTIONARYVAR
  5
5C7
102
{ACAD_REACTORS
330
487
102
}
330
487
100
DictionaryVariables
280
     0
  1
0
  0
DICTIONARYVAR
  5
5C6
102
{ACAD_REACTORS
330
487
102
}
330
487
100
DictionaryVariables
280
     0
  1
127
  0
DICTIONARY
  5
5DC
330
411
100
AcDbDictionary
280
     1
281
     1
  3
ACAD_XREC_ROUNDTRIP
360
5DD
  0
DICTIONARY
  5
5DE
330
412
100
AcDbDictionary
280
     1
281
     1
  3
ACAD_XREC_ROUNDTRIP
360
5DF
  0
DICTIONARY
  5
5D6
330
3F8
100
AcDbDictionary
280
     1
281
     1
  3
ACAD_XREC_ROUNDTRIP
360
5D7
  0
DICTIONARY
  5
5D4
330
3F7
100
AcDbDictionary
280
     1
281
     1
  3
ACAD_XREC_ROUNDTRIP
360
5D5
  0
DICTIONARY
  5
5D8
330
3F9
100
AcDbDictionary
280
     1
281
     1
  3
ACAD_XREC_ROUNDTRIP
360
5D9
  0
DICTIONARY
  5
5DA
330
40D
100
AcDbDictionary
280
     1
281
     1
  3
ACAD_XREC_ROUNDTRIP
360
5DB
  0
XRECORD
  5
5DD
102
{ACAD_REACTORS
330
5DC
102
}
330
5DC
100
AcDbXrecord
280
     1
102
SHADEPLOT
 70
     0
102
SHADEPLOTRESLEVEL
 70
     2
102
SHADEPLOTCUSTOMDPI
 70
   300
  0
XRECORD
  5
5DF
102
{ACAD_REACTORS
330
5DE
102
}
330
5DE
100
AcDbXrecord
280
     1
102
SHADEPLOT
 70
     0
102
SHADEPLOTRESLEVEL
 70
     2
102
SHADEPLOTCUSTOMDPI
 70
   300
  0
XRECORD
  5
5D7
102
{ACAD_REACTORS
330
5D6
102
}
330
5D6
100
AcDbXrecord
280
     1
102
MATERIAL
148
0.0
149
0.0
149
0.0
 93
        0
 94
       63
282
     0
 72
     1
 77
     1
171
     1
175
     1
179
     1
273
     0
  0
XRECORD
  5
5D5
102
{ACAD_REACTORS
330
5D4
102
}
330
5D4
100
AcDbXrecord
280
     1
102
MATERIAL
148
0.0
149
0.0
149
0.0
 93
        0
 94
       63
282
     0
 72
     1
 77
     1
171
     1
175
     1
179
     1
273
     0
  0
XRECORD
  5
5D9
102
{ACAD_REACTORS
330
5D8
102
}
330
5D8
100
AcDbXrecord
280
     1
102
MATERIAL
148
0.0
149
0.0
149
0.0
 93
        0
 94
       63
282
     0
 72
     1
 77
     1
171
     1
175
     1
179
     1
273
     0
  0
XRECORD
  5
5DB
102
{ACAD_REACTORS
330
5DA
102
}
330
5DA
100
AcDbXrecord
280
     1
102
ACAD_ROUNDTRIP_PRE2007_TABLESTYLE
 90
      512
 91
        0
  1

 92
      512
 93
        0
  2

 94
      512
 95
        0
  3

  0
ENDSEC
  0
EOF
