  0
SECTION
  2
HEADER
  9
$ACADVER
  1
AC1015
  9
$ACADMAINTVER
 70
    20
  9
$DWGCODEPAGE
  3
ANSI_932
  9
$INSBASE
 10
0.0
 20
0.0
 30
0.0
  9
$EXTMIN
 10
1012.150879434004
 20
-1737.628869695738
 30
0.0
  9
$EXTMAX
 10
1452.606240792069
 20
-1520.899923470765
 30
0.0
  9
$LIMMIN
 10
0.0
 20
0.0
  9
$LIMMAX
 10
0.0
 20
0.0
  9
$ORTHOMODE
 70
     1
  9
$REGENMODE
 70
     1
  9
$FILLMODE
 70
     1
  9
$QTEXTMODE
 70
     0
  9
$MIRRTEXT
 70
     1
  9
$LTSCALE
 40
1.0
  9
$ATTMODE
 70
     1
  9
$TEXTSIZE
 40
0.0
  9
$TRACEWID
 40
0.05
  9
$TEXTSTYLE
  7
STANDARD
  9
$CLAYER
  8
MEASURE
  9
$CELTYPE
  6
CONTINUOUS
  9
$CECOLOR
 62
   256
  9
$CELTSCALE
 40
1.0
  9
$DISPSILH
 70
     0
  9
$DIMSCALE
 40
1.0
  9
$DIMASZ
 40
2.0
  9
$DIMEXO
 40
1.0
  9
$DIMDLI
 40
0.38
  9
$DIMRND
 40
0.0
  9
$DIMDLE
 40
0.0
  9
$DIMEXE
 40
2.0
  9
$DIMTP
 40
0.0
  9
$DIMTM
 40
0.0
  9
$DIMTXT
 40
3.5
  9
$DIMCEN
 40
-2.0
  9
$DIMTSZ
 40
0.0
  9
$DIMTOL
 70
     0
  9
$DIMLIM
 70
     0
  9
$DIMTIH
 70
     0
  9
$DIMTOH
 70
     0
  9
$DIMSE1
 70
     0
  9
$DIMSE2
 70
     0
  9
$DIMTAD
 70
     1
  9
$DIMZIN
 70
     8
  9
$DIMBLK
  1

  9
$DIMASO
 70
     1
  9
$DIMSHO
 70
     1
  9
$DIMPOST
  1

  9
$DIMAPOST
  1

  9
$DIMALT
 70
     0
  9
$DIMALTD
 70
     2
  9
$DIMALTF
 40
25.4
  9
$DIMLFAC
 40
1.0
  9
$DIMTOFL
 70
     1
  9
$DIMTVP
 40
0.0
  9
$DIMTIX
 70
     0
  9
$DIMSOXD
 70
     0
  9
$DIMSAH
 70
     0
  9
$DIMBLK1
  1

  9
$DIMBLK2
  1

  9
$DIMSTYLE
  2
AD-STANDARD
  9
$DIMCLRD
 70
     9
  9
$DIMCLRE
 70
     9
  9
$DIMCLRT
 70
     2
  9
$DIMTFAC
 40
1.0
  9
$DIMGAP
 40
0.5
  9
$DIMJUST
 70
     0
  9
$DIMSD1
 70
     0
  9
$DIMSD2
 70
     0
  9
$DIMTOLJ
 70
     1
  9
$DIMTZIN
 70
     8
  9
$DIMALTZ
 70
     0
  9
$DIMALTTZ
 70
     0
  9
$DIMUPT
 70
     0
  9
$DIMDEC
 70
     3
  9
$DIMTDEC
 70
     3
  9
$DIMALTU
 70
     2
  9
$DIMALTTD
 70
     2
  9
$DIMTXSTY
  7
AD-STANDARD
  9
$DIMAUNIT
 70
     0
  9
$DIMADEC
 70
     0
  9
$DIMALTRND
 40
0.0
  9
$DIMAZIN
 70
     0
  9
$DIMDSEP
 70
    46
  9
$DIMATFIT
 70
     3
  9
$DIMFRAC
 70
     0
  9
$DIMLDRBLK
  1

  9
$DIMLUNIT
 70
     2
  9
$DIMLWD
 70
    -2
  9
$DIMLWE
 70
    -2
  9
$DIMTMOVE
 70
     0
  9
$LUNITS
 70
     2
  9
$LUPREC
 70
     4
  9
$SKETCHINC
 40
0.1
  9
$FILLETRAD
 40
0.0
  9
$AUNITS
 70
     0
  9
$AUPREC
 70
     0
  9
$MENU
  1
acad
  9
$ELEVATION
 40
0.0
  9
$PELEVATION
 40
0.0
  9
$THICKNESS
 40
0.0
  9
$LIMCHECK
 70
     0
  9
$CHAMFERA
 40
0.0
  9
$CHAMFERB
 40
0.0
  9
$CHAMFERC
 40
0.0
  9
$CHAMFERD
 40
0.0
  9
$SKPOLY
 70
     0
  9
$TDCREATE
 40
2314168.288031782
  9
$TDUCREATE
 40
2314167.913031782
  9
$TDUPDATE
 40
2459557.454288750
  9
$TDUUPDATE
 40
2459557.079288750
  9
$TDINDWG
 40
0.0296651157
  9
$TDUSRTIMER
 40
0.0296616435
  9
$USRTIMER
 70
     1
  9
$ANGBASE
 50
0.0
  9
$ANGDIR
 70
     0
  9
$PDMODE
 70
     0
  9
$PDSIZE
 40
0.0
  9
$PLINEWID
 40
0.0
  9
$SPLFRAME
 70
     0
  9
$SPLINETYPE
 70
     6
  9
$SPLINESEGS
 70
     8
  9
$HANDSEED
  5
6EA
  9
$SURFTAB1
 70
     6
  9
$SURFTAB2
 70
     6
  9
$SURFTYPE
 70
     6
  9
$SURFU
 70
     6
  9
$SURFV
 70
     6
  9
$UCSBASE
  2

  9
$UCSNAME
  2

  9
$UCSORG
 10
0.0
 20
0.0
 30
0.0
  9
$UCSXDIR
 10
1.0
 20
0.0
 30
0.0
  9
$UCSYDIR
 10
0.0
 20
1.0
 30
0.0
  9
$UCSORTHOREF
  2

  9
$UCSORTHOVIEW
 70
     0
  9
$UCSORGTOP
 10
0.0
 20
0.0
 30
0.0
  9
$UCSORGBOTTOM
 10
0.0
 20
0.0
 30
0.0
  9
$UCSORGLEFT
 10
0.0
 20
0.0
 30
0.0
  9
$UCSORGRIGHT
 10
0.0
 20
0.0
 30
0.0
  9
$UCSORGFRONT
 10
0.0
 20
0.0
 30
0.0
  9
$UCSORGBACK
 10
0.0
 20
0.0
 30
0.0
  9
$PUCSBASE
  2

  9
$PUCSNAME
  2

  9
$PUCSORG
 10
0.0
 20
0.0
 30
0.0
  9
$PUCSXDIR
 10
1.0
 20
0.0
 30
0.0
  9
$PUCSYDIR
 10
0.0
 20
1.0
 30
0.0
  9
$PUCSORTHOREF
  2

  9
$PUCSORTHOVIEW
 70
     0
  9
$PUCSORGTOP
 10
0.0
 20
0.0
 30
0.0
  9
$PUCSORGBOTTOM
 10
0.0
 20
0.0
 30
0.0
  9
$PUCSORGLEFT
 10
0.0
 20
0.0
 30
0.0
  9
$PUCSORGRIGHT
 10
0.0
 20
0.0
 30
0.0
  9
$PUCSORGFRONT
 10
0.0
 20
0.0
 30
0.0
  9
$PUCSORGBACK
 10
0.0
 20
0.0
 30
0.0
  9
$USERI1
 70
     0
  9
$USERI2
 70
     0
  9
$USERI3
 70
     0
  9
$USERI4
 70
     0
  9
$USERI5
 70
     0
  9
$USERR1
 40
11.0
  9
$USERR2
 40
0.0
  9
$USERR3
 40
0.0
  9
$USERR4
 40
0.0
  9
$USERR5
 40
0.0
  9
$WORLDVIEW
 70
     1
  9
$SHADEDGE
 70
     3
  9
$SHADEDIF
 70
    70
  9
$TILEMODE
 70
     1
  9
$MAXACTVP
 70
    16
  9
$PINSBASE
 10
0.0
 20
0.0
 30
0.0
  9
$PLIMCHECK
 70
     0
  9
$PEXTMIN
 10
1.000000000000000E+20
 20
1.000000000000000E+20
 30
1.000000000000000E+20
  9
$PEXTMAX
 10
-1.000000000000000E+20
 20
-1.000000000000000E+20
 30
-1.000000000000000E+20
  9
$PLIMMIN
 10
0.0
 20
0.0
  9
$PLIMMAX
 10
12.0
 20
9.0
  9
$UNITMODE
 70
     0
  9
$VISRETAIN
 70
     0
  9
$PLINEGEN
 70
     1
  9
$PSLTSCALE
 70
     0
  9
$TREEDEPTH
 70
  3020
  9
$CMLSTYLE
  2
STANDARD
  9
$CMLJUST
 70
     0
  9
$CMLSCALE
 40
1.0
  9
$PROXYGRAPHICS
 70
     0
  9
$MEASUREMENT
 70
     1
  9
$CELWEIGHT
370
    -1
  9
$ENDCAPS
280
     0
  9
$JOINSTYLE
280
     0
  9
$LWDISPLAY
290
     0
  9
$INSUNITS
 70
     0
  9
$HYPERLINKBASE
  1

  9
$STYLESHEET
  1

  9
$XEDIT
290
     1
  9
$CEPSNTYPE
380
     0
  9
$PSTYLEMODE
290
     1
  9
$FINGERPRINTGUID
  2
{60B77133-8D08-428A-84E5-25D0FD016DE3}
  9
$VERSIONGUID
  2
{78A94ECF-DAAE-4DD2-93AC-A332737A41D2}
  9
$EXTNAMES
290
     1
  9
$PSVPSCALE
 40
0.0
  9
$OLESTARTUP
290
     0
  0
ENDSEC
  0
SECTION
  2
CLASSES
  0
CLASS
  1
IMAGE
  2
AcDbRasterImage
  3
ISM
 90
    34943
280
     0
281
     1
  0
CLASS
  1
DICTIONARYVAR
  2
AcDbDictionaryVar
  3
ObjectDBX Classes
 90
        0
280
     0
281
     0
  0
CLASS
  1
RASTERVARIABLES
  2
AcDbRasterVariables
  3
ISM
 90
    32768
280
     0
281
     0
  0
CLASS
  1
IMAGEDEF
  2
AcDbRasterImageDef
  3
ISM
 90
    32768
280
     0
281
     0
  0
CLASS
  1
IMAGEDEF_REACTOR
  2
AcDbRasterImageDefReactor
  3
ISM
 90
    32769
280
     0
281
     0
  0
CLASS
  1
IDBUFFER
  2
AcDbIdBuffer
  3
ObjectDBX Classes
 90
    32768
280
     0
281
     0
  0
CLASS
  1
SPATIAL_FILTER
  2
AcDbSpatialFilter
  3
ObjectDBX Classes
 90
    32768
280
     0
281
     0
  0
CLASS
  1
SORTENTSTABLE
  2
AcDbSortentsTable
  3
ObjectDBX Classes
 90
    32768
280
     0
281
     0
  0
CLASS
  1
LAYER_INDEX
  2
AcDbLayerIndex
  3
ObjectDBX Classes
 90
    32768
280
     0
281
     0
  0
CLASS
  1
SPATIAL_INDEX
  2
AcDbSpatialIndex
  3
ObjectDBX Classes
 90
    32768
280
     0
281
     0
  0
CLASS
  1
OBJECT_PTR
  2
CAseDLPNTableRecord
  3
"ASE-LPNTableRecord"
 90
    32769
280
     0
281
     0
  0
CLASS
  1
LAYOUT
  2
AcDbLayout
  3
ObjectDBX Classes
 90
        0
280
     0
281
     0
  0
CLASS
  1
PLOTSETTINGS
  2
AcDbPlotSettings
  3
ObjectDBX Classes
 90
    32768
280
     0
281
     0
  0
CLASS
  1
ACDBDICTIONARYWDFLT
  2
AcDbDictionaryWithDefault
  3
ObjectDBX Classes
 90
        0
280
     0
281
     0
  0
CLASS
  1
ACDBPLACEHOLDER
  2
AcDbPlaceHolder
  3
ObjectDBX Classes
 90
        0
280
     0
281
     0
  0
CLASS
  1
VBA_PROJECT
  2
AcDbVbaProject
  3
acad
 90
    32768
280
     0
281
     0
  0
CLASS
  1
WIPEOUT
  2
AcDbWipeout
  3
"WipeOut|Product Desc: Object Enabler for WipeOut entity                        |Company: Autodesk, Inc.                        |WEB Address: www.autodesk.com"
 90
    34943
280
     0
281
     1
  0
CLASS
  1
WIPEOUTVARIABLES
  2
AcDbWipeoutVariables
  3
"WipeOut|Product Desc:     WipeOut Dbx Application|Company:          Autodesk, Inc.|WEB Address:      www.autodesk.com"
 90
    32768
280
     0
281
     0
  0
CLASS
  1
RTEXT
  2
RText
  3
RText|AutoCAD Express Tool|expresstools@autodesk.com
 90
    32768
280
     0
281
     1
  0
CLASS
  1
ARCALIGNEDTEXT
  2
AcDbArcAlignedText
  3
ATEXT|AutoCAD Express Tool|expresstools@autodesk.com
 90
    32768
280
     0
281
     1
  0
CLASS
  1
MATERIAL
  2
AcDbMaterial
  3
ObjectDBX Classes
 90
     1024
280
     0
281
     0
  0
CLASS
  1
VISUALSTYLE
  2
AcDbVisualStyle
  3
ObjectDBX Classes
 90
     4095
280
     0
281
     0
  0
CLASS
  1
TABLESTYLE
  2
AcDbTableStyle
  3
ObjectDBX Classes
 90
     4095
280
     0
281
     0
  0
ENDSEC
  0
SECTION
  2
TABLES
  0
TABLE
  2
VPORT
  5
7
102
{ACAD_XDICTIONARY
360
698
102
}
330
0
100
AcDbSymbolTable
 70
     1
  0
VPORT
  5
15
330
7
100
AcDbSymbolTableRecord
100
AcDbViewportTableRecord
  2
*ACTIVE
 70
     0
 10
0.0
 20
0.0
 11
1.0
 21
1.0
 12
1390.875895125736
 22
-1586.956542776484
 13
0.0
 23
0.0
 14
1.0
 24
1.0
 15
0.0
 25
0.0
 16
0.0
 26
0.0
 36
1.0
 17
0.0
 27
0.0
 37
0.0
 40
387.15578877908
 41
2.304239401496259
 42
50.0
 43
0.0
 44
0.0
 50
0.0
 51
0.0
 71
     0
 72
   100
 73
     1
 74
     1
 75
     0
 76
     0
 77
     0
 78
     0
281
     0
 65
     1
110
0.0
120
0.0
130
0.0
111
1.0
121
0.0
131
0.0
112
0.0
122
1.0
132
0.0
 79
     0
146
0.0
  0
ENDTAB
  0
TABLE
  2
LTYPE
  5
4
330
0
100
AcDbSymbolTable
 70
     8
  0
LTYPE
  5
11
330
4
100
AcDbSymbolTableRecord
100
AcDbLinetypeTableRecord
  2
BYBLOCK
 70
     0
  3

 72
    65
 73
     0
 40
0.0
  0
LTYPE
  5
12
330
4
100
AcDbSymbolTableRecord
100
AcDbLinetypeTableRecord
  2
BYLAYER
 70
     0
  3

 72
    65
 73
     0
 40
0.0
  0
LTYPE
  5
13
330
4
100
AcDbSymbolTableRecord
100
AcDbLinetypeTableRecord
  2
CONTINUOUS
 70
     0
  3
Solid line
 72
    65
 73
     0
 40
0.0
  0
LTYPE
  5
1D
330
4
100
AcDbSymbolTableRecord
100
AcDbLinetypeTableRecord
  2
DASHED
 70
     0
  3
Dashed
 72
    65
 73
     2
 40
15.0
 49
12.0
 74
     0
 49
-3.0
 74
     0
  0
LTYPE
  5
1E
330
4
100
AcDbSymbolTableRecord
100
AcDbLinetypeTableRecord
  2
DOTTED
 70
     0
  3
Dotted
 72
    65
 73
     2
 40
3.5
 49
0.5
 74
     0
 49
-3.0
 74
     0
  0
LTYPE
  5
1F
330
4
100
AcDbSymbolTableRecord
100
AcDbLinetypeTableRecord
  2
DOT_CENTER
 70
     0
  3
Dot_Center
 72
    65
 73
     4
 40
2.0
 49
1.25
 74
     0
 49
-0.25
 74
     0
 49
0.25
 74
     0
 49
-0.25
 74
     0
  0
LTYPE
  5
20
330
4
100
AcDbSymbolTableRecord
100
AcDbLinetypeTableRecord
  2
LONG_DASHED
 70
     0
  3
Long_Dashed
 72
    65
 73
     2
 40
2.0
 49
1.5
 74
     0
 49
-0.5
 74
     0
  0
LTYPE
  5
21
330
4
100
AcDbSymbolTableRecord
100
AcDbLinetypeTableRecord
  2
DASH_CENTER
 70
     0
  3
Dash_Center
 72
    65
 73
     4
 40
36.0
 49
24.0
 74
     0
 49
-3.0
 74
     0
 49
6.0
 74
     0
 49
-3.0
 74
     0
  0
LTYPE
  5
22
330
4
100
AcDbSymbolTableRecord
100
AcDbLinetypeTableRecord
  2
PHANTOM
 70
     0
  3
Phantom
 72
    65
 73
     6
 40
2.5
 49
1.25
 74
     0
 49
-0.25
 74
     0
 49
0.25
 74
     0
 49
-0.25
 74
     0
 49
0.25
 74
     0
 49
-0.25
 74
     0
  0
LTYPE
  5
23
330
4
100
AcDbSymbolTableRecord
100
AcDbLinetypeTableRecord
  2
CENTER_DASH_DASH
 70
     0
  3
Center_Dash_Dash
 72
    65
 73
     6
 40
22.0
 49
12.0
 74
     0
 49
-3.0
 74
     0
 49
0.5
 74
     0
 49
-3.0
 74
     0
 49
0.5
 74
     0
 49
-3.0
 74
     0
  0
ENDTAB
  0
TABLE
  2
LAYER
  5
2
102
{ACAD_XDICTIONARY
360
510
102
}
330
0
100
AcDbSymbolTable
 70
     4
  0
LAYER
  5
14
330
2
100
AcDbSymbolTableRecord
100
AcDbLayerTableRecord
  2
0
 70
     0
 62
     7
  6
CONTINUOUS
370
    -3
390
4BB
  0
LAYER
  5
24
330
2
100
AcDbSymbolTableRecord
100
AcDbLayerTableRecord
  2
1
 70
     0
 62
    18
  6
CONTINUOUS
370
    -3
390
4BB
  0
LAYER
  5
25
330
2
100
AcDbSymbolTableRecord
100
AcDbLayerTableRecord
  2
MEASURE
 70
     0
 62
    14
  6
CONTINUOUS
370
    -3
390
4BB
  0
LAYER
  5
507
330
2
100
AcDbSymbolTableRecord
100
AcDbLayerTableRecord
  2
DEFPOINTS
 70
     0
 62
     7
  6
CONTINUOUS
290
     0
370
    -3
390
4BB
  0
ENDTAB
  0
TABLE
  2
STYLE
  5
3
330
0
100
AcDbSymbolTable
 70
    20
  0
STYLE
  5
17
330
3
100
AcDbSymbolTableRecord
100
AcDbTextStyleTableRecord
  2
STANDARD
 70
     0
 40
0.0
 41
1.0
 50
0.0
 71
     0
 42
0.0
  3
txt
  4

  0
STYLE
  5
3F5
330
3
100
AcDbSymbolTableRecord
100
AcDbTextStyleTableRecord
  2
CONVERTER_1
 70
     0
 40
0.0
 41
0.9025
 50
0.0
 71
     0
 42
0.0
  3
simplex.shx
  4

  0
STYLE
  5
3F8
330
3
100
AcDbSymbolTableRecord
100
AcDbTextStyleTableRecord
  2
CONVERTER_2
 70
     0
 40
0.0
 41
0.855
 50
0.0
 71
     0
 42
0.0
  3
simplex.shx
  4

  0
STYLE
  5
3FA
330
3
100
AcDbSymbolTableRecord
100
AcDbTextStyleTableRecord
  2
CONVERTER_3
 70
     0
 40
0.0
 41
0.89
 50
0.0
 71
     0
 42
0.0
  3

  4

1001
ACAD
1000
MS Mincho
1071
    32785
  0
STYLE
  5
3FD
330
3
100
AcDbSymbolTableRecord
100
AcDbTextStyleTableRecord
  2
CONVERTER_4
 70
     0
 40
0.0
 41
0.95
 50
0.0
 71
     0
 42
0.0
  3
simplex.shx
  4

  0
STYLE
  5
405
330
3
100
AcDbSymbolTableRecord
100
AcDbTextStyleTableRecord
  2
CONVERTER_5
 70
     0
 40
0.0
 41
0.8074999999999999
 50
0.0
 71
     0
 42
0.0
  3
simplex.shx
  4

  0
STYLE
  5
40B
330
3
100
AcDbSymbolTableRecord
100
AcDbTextStyleTableRecord
  2
CONVERTER_6
 70
     0
 40
0.0
 41
0.76
 50
0.0
 71
     0
 42
0.0
  3
simplex.shx
  4

  0
STYLE
  5
40D
330
3
100
AcDbSymbolTableRecord
100
AcDbTextStyleTableRecord
  2
CONVERTER_7
 70
     0
 40
0.0
 41
0.6230000000000001
 50
0.0
 71
     0
 42
0.0
  3

  4

1001
ACAD
1000
MS Mincho
1071
    32785
  0
STYLE
  5
420
330
3
100
AcDbSymbolTableRecord
100
AcDbTextStyleTableRecord
  2
CONVERTER_8
 70
     0
 40
0.0
 41
0.7650000000000001
 50
0.0
 71
     0
 42
0.0
  3
txt.shx
  4

  0
STYLE
  5
427
330
3
100
AcDbSymbolTableRecord
100
AcDbTextStyleTableRecord
  2
CONVERTER_9
 70
     0
 40
0.0
 41
0.72
 50
0.0
 71
     0
 42
0.0
  3
txt.shx
  4

  0
STYLE
  5
42C
330
3
100
AcDbSymbolTableRecord
100
AcDbTextStyleTableRecord
  2
CONVERTER_10
 70
     0
 40
0.0
 41
0.95
 50
0.0
 71
     0
 42
0.0
  3
complex.shx
  4

  0
STYLE
  5
431
330
3
100
AcDbSymbolTableRecord
100
AcDbTextStyleTableRecord
  2
CONVERTER_11
 70
     0
 40
0.0
 41
0.63
 50
0.0
 71
     0
 42
0.0
  3
txt.shx
  4

  0
STYLE
  5
437
330
3
100
AcDbSymbolTableRecord
100
AcDbTextStyleTableRecord
  2
CONVERTER_12
 70
     0
 40
0.0
 41
0.6650000000000001
 50
0.0
 71
     0
 42
0.0
  3
simplex.shx
  4

  0
STYLE
  5
44A
330
3
100
AcDbSymbolTableRecord
100
AcDbTextStyleTableRecord
  2
CONVERTER_13
 70
     0
 40
0.0
 41
0.7120000000000001
 50
0.0
 71
     0
 42
0.0
  3

  4

1001
ACAD
1000
MS Mincho
1071
    32785
  0
STYLE
  5
44D
330
3
100
AcDbSymbolTableRecord
100
AcDbTextStyleTableRecord
  2
CONVERTER_14
 70
     0
 40
0.0
 41
0.6597222222222201
 50
0.0
 71
     0
 42
0.0
  3
complex.shx
  4

  0
STYLE
  5
44F
330
3
100
AcDbSymbolTableRecord
100
AcDbTextStyleTableRecord
  2
CONVERTER_15
 70
     0
 40
0.0
 41
0.49479166666667
 50
0.0
 71
     0
 42
0.0
  3
complex.shx
  4

  0
STYLE
  5
451
330
3
100
AcDbSymbolTableRecord
100
AcDbTextStyleTableRecord
  2
CONVERTER_16
 70
     0
 40
0.0
 41
0.52777777777778
 50
0.0
 71
     0
 42
0.0
  3
complex.shx
  4

  0
STYLE
  5
45D
330
3
100
AcDbSymbolTableRecord
100
AcDbTextStyleTableRecord
  2
CONVERTER_17
 70
     0
 40
0.0
 41
0.7020000000000001
 50
0.0
 71
     0
 42
0.0
  3
txt.shx
  4

  0
STYLE
  5
48A
330
3
100
AcDbSymbolTableRecord
100
AcDbTextStyleTableRecord
  2
CONVERTER_18
 70
     0
 40
0.0
 41
0.9
 50
0.0
 71
     0
 42
0.0
  3
txt.shx
  4

  0
STYLE
  5
508
330
3
100
AcDbSymbolTableRecord
100
AcDbTextStyleTableRecord
  2
AD-STANDARD
 70
     0
 40
0.0
 41
0.8
 50
0.0
 71
     0
 42
12.0
  3
C:\Program Files\AutoCAD LT\romans.shx
  4
bigfont.shx
  0
ENDTAB
  0
TABLE
  2
VIEW
  5
5
330
0
100
AcDbSymbolTable
 70
     0
  0
ENDTAB
  0
TABLE
  2
UCS
  5
6
330
0
100
AcDbSymbolTable
 70
     0
  0
ENDTAB
  0
TABLE
  2
APPID
  5
8
330
0
100
AcDbSymbolTable
 70
     3
  0
APPID
  5
16
330
8
100
AcDbSymbolTableRecord
100
AcDbRegAppTableRecord
  2
ACAD
 70
     0
  0
APPID
  5
50E
330
8
100
AcDbSymbolTableRecord
100
AcDbRegAppTableRecord
  2
ACAD_PSEXT
 70
     0
  0
APPID
  5
50F
330
8
100
AcDbSymbolTableRecord
100
AcDbRegAppTableRecord
  2
ACAD_DSTYLE_DIMJOGGED_JOGANGLE_SYMBOL
 70
     0
  0
ENDTAB
  0
TABLE
  2
DIMSTYLE
  5
9
330
0
100
AcDbSymbolTable
 70
    11
100
AcDbDimStyleTable
 71
     2
340
50D
340
18
  0
DIMSTYLE
105
18
330
9
100
AcDbSymbolTableRecord
100
AcDbDimStyleTableRecord
  2
STANDARD
 70
     0
340
17
  0
DIMSTYLE
105
470
330
9
100
AcDbSymbolTableRecord
100
AcDbDimStyleTableRecord
  2
ME10_DIM_0
 70
     0
 41
3.0
 42
0.7
 44
2.0
 47
1.0
 48
1.0
 71
     1
 73
     0
 74
     0
 77
     1
 78
     8
140
3.0
146
0.8666666666666699
147
0.625
173
     1
176
     2
177
     2
178
     7
271
     2
272
     0
340
17
341
46A
343
46A
344
46A
  0
DIMSTYLE
105
47D
330
9
100
AcDbSymbolTableRecord
100
AcDbDimStyleTableRecord
  2
ME10_DIM_1
 70
     0
 41
3.0
 42
0.7
 44
2.0
 47
0.5
 48
0.5
 71
     1
 73
     0
 74
     0
 77
     1
 78
     8
140
3.0
146
0.9
147
0.625
173
     1
176
     2
177
     2
178
     7
271
     2
272
     1
340
17
341
46A
343
46A
344
46A
  0
DIMSTYLE
105
48D
330
9
100
AcDbSymbolTableRecord
100
AcDbDimStyleTableRecord
  2
ME10_DIM_2
 70
     0
  3
(<>)
 41
3.0
 42
0.7
 44
2.0
 73
     0
 74
     0
 77
     1
 78
     8
140
3.0
147
0.625
173
     1
176
     2
177
     2
178
     7
271
     2
340
17
341
46A
343
46A
344
46A
  0
DIMSTYLE
105
49A
330
9
100
AcDbSymbolTableRecord
100
AcDbDimStyleTableRecord
  2
ME10_DIM_3
 70
     0
  3
(<>)
 41
3.0
 42
0.7
 44
2.0
 73
     0
 74
     0
 77
     1
 78
     8
140
3.0
147
0.625
173
     1
176
     2
177
     2
178
     7
271
     2
340
17
341
46A
343
46A
344
46A
  0
DIMSTYLE
105
4A7
330
9
100
AcDbSymbolTableRecord
100
AcDbDimStyleTableRecord
  2
ME10_DIM_4
 70
     0
 41
3.0
 42
0.7
 44
2.0
 47
1.0
 48
1.0
 71
     1
 73
     0
 74
     0
 77
     1
 78
     8
140
3.0
146
0.9
147
0.625
173
     1
176
     2
177
     2
178
     7
271
     2
272
     0
340
17
341
46A
343
46A
344
46A
  0
DIMSTYLE
105
509
330
9
100
AcDbSymbolTableRecord
100
AcDbDimStyleTableRecord
  2
S＝1／1
 70
     0
 41
2.5
 42
1.0
 44
1.0
 73
     0
 74
     0
 77
     1
 78
     8
 79
     2
140
3.0
141
-2.0
147
0.5
172
     1
176
     9
177
     9
178
   132
179
     4
284
     8
340
508
  0
DIMSTYLE
105
50A
330
9
100
AcDbSymbolTableRecord
100
AcDbDimStyleTableRecord
  2
S＝1／4
 70
     0
 40
4.0
 41
2.5
 42
1.0
 44
1.0
 73
     0
 74
     0
 77
     1
 78
     8
 79
     2
140
3.0
141
-2.0
147
0.5
172
     1
176
     9
177
     9
178
   132
179
     4
284
     8
340
508
  0
DIMSTYLE
105
50B
330
9
100
AcDbSymbolTableRecord
100
AcDbDimStyleTableRecord
  2
S＝2／1
 70
     0
 40
0.5
 41
2.5
 42
1.0
 44
1.0
 73
     0
 74
     0
 77
     1
 78
     8
 79
     2
140
3.0
141
-2.0
147
0.5
172
     1
176
     9
177
     9
178
   132
179
     4
284
     8
340
508
  0
DIMSTYLE
105
50C
330
9
100
AcDbSymbolTableRecord
100
AcDbDimStyleTableRecord
  2
S＝1／20
 70
     0
 40
20.0
 41
2.5
 42
1.0
 44
1.0
 73
     0
 74
     0
 77
     1
 78
     8
 79
     2
140
3.0
141
-2.0
147
0.5
172
     1
176
     9
177
     9
178
   132
179
     4
284
     8
340
508
1001
ACAD_DSTYLE_DIMJOGGED_JOGANGLE_SYMBOL
1070
   384
1040
1.570796326794896
  0
DIMSTYLE
105
50D
102
{ACAD_REACTORS
330
57D
330
5B7
330
5CD
330
623
330
666
102
}
330
9
100
AcDbSymbolTableRecord
100
AcDbDimStyleTableRecord
  2
AD-STANDARD
 70
     0
 41
2.0
 42
1.0
 44
2.0
 73
     0
 74
     0
 77
     1
 78
     8
140
3.5
141
-2.0
147
0.5
172
     1
176
     9
177
     9
178
     2
271
     3
272
     3
284
     8
340
508
  0
ENDTAB
  0
TABLE
  2
BLOCK_RECORD
  5
1
330
0
100
AcDbSymbolTable
 70
     7
  0
BLOCK_RECORD
  5
A
330
1
100
AcDbSymbolTableRecord
100
AcDbBlockTableRecord
  2
*MODEL_SPACE
340
4D7
  0
BLOCK_RECORD
  5
B
330
1
100
AcDbSymbolTableRecord
100
AcDbBlockTableRecord
  2
*PAPER_SPACE
340
4D8
  0
BLOCK_RECORD
  5
26
330
1
100
AcDbSymbolTableRecord
100
AcDbBlockTableRecord
  2
5624-5242
340
0
  0
BLOCK_RECORD
  5
46A
330
1
100
AcDbSymbolTableRecord
100
AcDbBlockTableRecord
  2
_OPEN30
340
0
  0
BLOCK_RECORD
  5
57E
330
1
100
AcDbSymbolTableRecord
100
AcDbBlockTableRecord
  2
*D2
340
0
  0
BLOCK_RECORD
  5
5B8
330
1
100
AcDbSymbolTableRecord
100
AcDbBlockTableRecord
  2
*D3
340
0
  0
BLOCK_RECORD
  5
5CE
330
1
100
AcDbSymbolTableRecord
100
AcDbBlockTableRecord
  2
*D4
340
0
  0
BLOCK_RECORD
  5
624
330
1
100
AcDbSymbolTableRecord
100
AcDbBlockTableRecord
  2
*D5
340
0
  0
BLOCK_RECORD
  5
667
330
1
100
AcDbSymbolTableRecord
100
AcDbBlockTableRecord
  2
*D6
340
0
  0
ENDTAB
  0
ENDSEC
  0
SECTION
  2
BLOCKS
  0
BLOCK
  5
D
330
A
100
AcDbEntity
  8
0
100
AcDbBlockBegin
  2
*MODEL_SPACE
 70
     0
 10
0.0
 20
0.0
 30
0.0
  3
*MODEL_SPACE
  1

  0
ENDBLK
  5
E
330
A
100
AcDbEntity
  8
0
100
AcDbBlockEnd
  0
BLOCK
  5
F
330
B
100
AcDbEntity
 67
     1
  8
0
100
AcDbBlockBegin
  2
*PAPER_SPACE
 70
     0
 10
0.0
 20
0.0
 30
0.0
  3
*PAPER_SPACE
  1

  0
ENDBLK
  5
10
330
B
100
AcDbEntity
 67
     1
  8
0
100
AcDbBlockEnd
  0
BLOCK
  5
27
330
26
100
AcDbEntity
  8
0
100
AcDbBlockBegin
  2
5624-5242
 70
     0
 10
-14866.95505687718
 20
14278.09034938794
 30
0.0
  3
5624-5242
  1

  0
HATCH
  5
55
330
26
100
AcDbEntity
  8
1
  6
Continuous
 62
     2
100
AcDbHatch
 10
0.0
 20
0.0
 30
0.0
210
0.0
220
0.0
230
1.0
  2
USER
 70
     0
 71
     1
 91
        3
 92
        1
 93
       28
 72
     1
 10
1339.355101623474
 20
-1730.626994607537
 11
1335.453709024462
 21
-1730.626994607537
 72
     1
 10
1335.453709024462
 20
-1730.626994607537
 11
1335.453709024462
 21
-1731.441571084255
 72
     1
 10
1335.453709024462
 20
-1731.441571084255
 11
1336.225413055036
 21
-1731.441571084255
 72
     1
 10
1336.225413055036
 20
-1731.441571084255
 11
1336.225413055036
 21
-1732.582449294879
 72
     1
 10
1336.225413055036
 20
-1732.582449294879
 11
1334.015173599149
 21
-1730.626994607537
 72
     1
 10
1334.015173599149
 20
-1730.626994607537
 11
1329.365821672157
 21
-1730.626994607537
 72
     1
 10
1329.365821672157
 20
-1730.626994607537
 11
1329.365821672157
 21
-1731.441571084255
 72
     1
 10
1329.365821672157
 20
-1731.441571084255
 11
1329.794546133587
 21
-1731.441571084255
 72
     1
 10
1329.794546133587
 20
-1731.441571084255
 11
1327.650923826437
 21
-1734.09966274512
 72
     1
 10
1327.650923826437
 20
-1734.09966274512
 11
1327.136454472721
 21
-1734.09966274512
 72
     1
 10
1327.136454472721
 20
-1734.09966274512
 11
1327.136454472721
 21
-1734.914239221837
 72
     1
 10
1327.136454472721
 20
-1734.914239221837
 11
1329.923163472016
 21
-1734.914239221837
 72
     1
 10
1329.923163472016
 20
-1734.914239221837
 11
1329.923163472016
 21
-1734.09966274512
 72
     1
 10
1329.923163472016
 20
-1734.09966274512
 11
1329.413379241496
 21
-1734.09966274512
 72
     1
 10
1329.413379241496
 20
-1734.09966274512
 11
1329.793699328248
 21
-1733.628065837547
 72
     1
 10
1329.793699328248
 20
-1733.628065837547
 11
1331.367964907035
 21
-1733.628065837547
 72
     1
 10
1331.367964907035
 20
-1733.628065837547
 11
1331.367964907035
 21
-1734.09966274512
 72
     1
 10
1331.367964907035
 20
-1734.09966274512
 11
1330.853495553318
 21
-1734.09966274512
 72
     1
 10
1330.853495553318
 20
-1734.09966274512
 11
1330.853495553318
 21
-1734.914239221837
 72
     1
 10
1330.853495553318
 20
-1734.914239221837
 11
1333.59733210647
 21
-1734.914239221837
 72
     1
 10
1333.59733210647
 20
-1734.914239221837
 11
1333.59733210647
 21
-1734.09966274512
 72
     1
 10
1333.59733210647
 20
-1734.09966274512
 11
1333.082862752754
 21
-1734.09966274512
 72
     1
 10
1333.082862752754
 20
-1734.09966274512
 11
1333.082862752754
 21
-1731.633930528651
 72
     1
 10
1333.082862752754
 20
-1731.633930528651
 11
1335.8698660353
 21
-1734.09966274512
 72
     1
 10
1335.8698660353
 20
-1734.09966274512
 11
1335.453709024462
 21
-1734.09966274512
 72
     1
 10
1335.453709024462
 20
-1734.09966274512
 11
1335.453709024462
 21
-1734.914239221837
 72
     1
 10
1335.453709024462
 20
-1734.914239221837
 11
1339.355101623474
 21
-1734.914239221837
 72
     2
 10
1339.355101623474
 20
-1732.770616914686
 40
2.143622307150053
 50
-90.0
 51
90.0
 73
     1
 97
       28
330
37
330
39
330
45
330
32
330
50
330
4A
330
4E
330
34
330
4B
330
33
330
38
330
36
330
35
330
49
330
4C
330
47
330
3D
330
40
330
3C
330
41
330
3F
330
44
330
3E
330
4F
330
42
330
30
330
43
330
52
 92
       16
 93
        6
 72
     2
 10
1335.453709024462
 20
-1732.770616914686
 40
4.287244614298584
 50
-10.84981586300001
 51
10.84981586298808
 73
     1
 72
     2
 10
1339.032723836138
 20
-1732.084657776399
 40
0.6430866921443074
 50
10.84981586291127
 51
90.0
 73
     1
 72
     1
 10
1339.032723836138
 20
-1731.441571084255
 11
1337.940310900755
 21
-1731.441571084255
 72
     1
 10
1337.940310900755
 20
-1731.441571084255
 11
1337.940310900755
 21
-1734.09966274512
 72
     1
 10
1337.940310900755
 20
-1734.09966274512
 11
1339.032723836138
 21
-1734.09966274512
 72
     2
 10
1339.032723836138
 20
-1733.456576052975
 40
0.6430866921450616
 50
-90.0
 51
-10.84981586301075
 73
     1
 97
        6
330
51
330
54
330
3B
330
31
330
3A
330
53
 92
       16
 93
        3
 72
     1
 10
1331.367964907035
 20
-1732.81348936083
 11
1330.45061584173
 21
-1732.81348936083
 72
     1
 10
1330.45061584173
 20
-1732.81348936083
 11
1331.367964907035
 21
-1731.675976519852
 72
     1
 10
1331.367964907035
 20
-1731.675976519852
 11
1331.367964907035
 21
-1732.81348936083
 97
        3
330
46
330
4D
330
48
 75
     1
 76
     0
 52
45.0
 41
0.8
 77
     0
 78
     1
 53
45.0
 43
0.0
 44
0.0
 45
-0.5656854249492379
 46
0.5656854249492379
 79
     0
 98
        1
 10
0.0
 20
0.0
  0
ARC
  5
54
102
{ACAD_REACTORS
330
55
102
}
330
26
100
AcDbEntity
  8
1
  6
Continuous
 62
   171
100
AcDbCircle
 10
1339.032723836138
 20
-1732.084657776399
 30
0.0
 40
0.6430866921443101
100
AcDbArc
 50
10.84981586291127
 51
90.0
  0
ARC
  5
53
102
{ACAD_REACTORS
330
55
102
}
330
26
100
AcDbEntity
  8
1
  6
Continuous
 62
   171
100
AcDbCircle
 10
1339.032723836138
 20
-1733.456576052975
 30
0.0
 40
0.6430866921450602
100
AcDbArc
 50
-90.0
 51
-10.84981586301075
  0
ARC
  5
52
102
{ACAD_REACTORS
330
55
102
}
330
26
100
AcDbEntity
  8
1
  6
Continuous
 62
   171
100
AcDbCircle
 10
1339.355101623474
 20
-1732.770616914686
 30
0.0
 40
2.143622307150049
100
AcDbArc
 50
-90.0
 51
90.0
  0
ARC
  5
51
102
{ACAD_REACTORS
330
55
102
}
330
26
100
AcDbEntity
  8
1
  6
Continuous
 62
   171
100
AcDbCircle
 10
1335.453709024462
 20
-1732.770616914686
 30
0.0
 40
4.28724461429858
100
AcDbArc
 50
-10.84981586300001
 51
10.84981586298808
  0
LINE
  5
50
102
{ACAD_REACTORS
330
55
102
}
330
26
100
AcDbEntity
  8
1
  6
Continuous
 62
   171
100
AcDbLine
 10
1336.225413055036
 20
-1732.582449294879
 30
0.0
 11
1334.015173599149
 21
-1730.626994607537
 31
0.0
  0
LINE
  5
4F
102
{ACAD_REACTORS
330
55
102
}
330
26
100
AcDbEntity
  8
1
  6
Continuous
 62
   171
100
AcDbLine
 10
1335.8698660353
 20
-1734.09966274512
 30
0.0
 11
1333.082862752754
 21
-1731.633930528651
 31
0.0
  0
LINE
  5
4E
102
{ACAD_REACTORS
330
55
102
}
330
26
100
AcDbEntity
  8
1
  6
Continuous
 62
   171
100
AcDbLine
 10
1329.365821672157
 20
-1730.626994607537
 30
0.0
 11
1329.365821672157
 21
-1731.441571084255
 31
0.0
  0
LINE
  5
4D
102
{ACAD_REACTORS
330
55
102
}
330
26
100
AcDbEntity
  8
1
  6
Continuous
 62
   171
100
AcDbLine
 10
1330.45061584173
 20
-1732.81348936083
 30
0.0
 11
1331.367964907035
 21
-1731.675976519852
 31
0.0
  0
LINE
  5
4C
102
{ACAD_REACTORS
330
55
102
}
330
26
100
AcDbEntity
  8
1
  6
Continuous
 62
   171
100
AcDbLine
 10
1329.413379241496
 20
-1734.09966274512
 30
0.0
 11
1329.793699328248
 21
-1733.628065837547
 31
0.0
  0
LINE
  5
4B
102
{ACAD_REACTORS
330
55
102
}
330
26
100
AcDbEntity
  8
1
  6
Continuous
 62
   171
100
AcDbLine
 10
1327.650923826437
 20
-1734.09966274512
 30
0.0
 11
1329.794546133587
 21
-1731.441571084255
 31
0.0
  0
LINE
  5
4A
102
{ACAD_REACTORS
330
55
102
}
330
26
100
AcDbEntity
  8
1
  6
Continuous
 62
   171
100
AcDbLine
 10
1334.015173599149
 20
-1730.626994607537
 30
0.0
 11
1329.365821672157
 21
-1730.626994607537
 31
0.0
  0
LINE
  5
49
102
{ACAD_REACTORS
330
55
102
}
330
26
100
AcDbEntity
  8
1
  6
Continuous
 62
   171
100
AcDbLine
 10
1329.413379241496
 20
-1734.09966274512
 30
0.0
 11
1329.923163472016
 21
-1734.09966274512
 31
0.0
  0
LINE
  5
48
102
{ACAD_REACTORS
330
55
102
}
330
26
100
AcDbEntity
  8
1
  6
Continuous
 62
   171
100
AcDbLine
 10
1331.367964907035
 20
-1732.81348936083
 30
0.0
 11
1331.367964907035
 21
-1731.675976519852
 31
0.0
  0
LINE
  5
47
102
{ACAD_REACTORS
330
55
102
}
330
26
100
AcDbEntity
  8
1
  6
Continuous
 62
   171
100
AcDbLine
 10
1331.367964907035
 20
-1733.628065837547
 30
0.0
 11
1329.793699328248
 21
-1733.628065837547
 31
0.0
  0
LINE
  5
46
102
{ACAD_REACTORS
330
55
102
}
330
26
100
AcDbEntity
  8
1
  6
Continuous
 62
   171
100
AcDbLine
 10
1331.367964907035
 20
-1732.81348936083
 30
0.0
 11
1330.45061584173
 21
-1732.81348936083
 31
0.0
  0
LINE
  5
45
102
{ACAD_REACTORS
330
55
102
}
330
26
100
AcDbEntity
  8
1
  6
Continuous
 62
   171
100
AcDbLine
 10
1335.453709024462
 20
-1731.441571084255
 30
0.0
 11
1336.225413055036
 21
-1731.441571084255
 31
0.0
  0
LINE
  5
44
102
{ACAD_REACTORS
330
55
102
}
330
26
100
AcDbEntity
  8
1
  6
Continuous
 62
   171
100
AcDbLine
 10
1333.082862752754
 20
-1734.09966274512
 30
0.0
 11
1333.59733210647
 21
-1734.09966274512
 31
0.0
  0
LINE
  5
43
102
{ACAD_REACTORS
330
55
102
}
330
26
100
AcDbEntity
  8
1
  6
Continuous
 62
   171
100
AcDbLine
 10
1335.453709024462
 20
-1734.914239221837
 30
0.0
 11
1339.355101623474
 21
-1734.914239221837
 31
0.0
  0
LINE
  5
42
102
{ACAD_REACTORS
330
55
102
}
330
26
100
AcDbEntity
  8
1
  6
Continuous
 62
   171
100
AcDbLine
 10
1335.453709024462
 20
-1734.09966274512
 30
0.0
 11
1335.8698660353
 21
-1734.09966274512
 31
0.0
  0
LINE
  5
41
102
{ACAD_REACTORS
330
55
102
}
330
26
100
AcDbEntity
  8
1
  6
Continuous
 62
   171
100
AcDbLine
 10
1330.853495553318
 20
-1734.914239221837
 30
0.0
 11
1333.59733210647
 21
-1734.914239221837
 31
0.0
  0
LINE
  5
40
102
{ACAD_REACTORS
330
55
102
}
330
26
100
AcDbEntity
  8
1
  6
Continuous
 62
   171
100
AcDbLine
 10
1330.853495553318
 20
-1734.09966274512
 30
0.0
 11
1331.367964907035
 21
-1734.09966274512
 31
0.0
  0
LINE
  5
3F
102
{ACAD_REACTORS
330
55
102
}
330
26
100
AcDbEntity
  8
1
  6
Continuous
 62
   171
100
AcDbLine
 10
1333.59733210647
 20
-1734.914239221837
 30
0.0
 11
1333.59733210647
 21
-1734.09966274512
 31
0.0
  0
LINE
  5
3E
102
{ACAD_REACTORS
330
55
102
}
330
26
100
AcDbEntity
  8
1
  6
Continuous
 62
   171
100
AcDbLine
 10
1333.082862752754
 20
-1734.09966274512
 30
0.0
 11
1333.082862752754
 21
-1731.633930528651
 31
0.0
  0
LINE
  5
3D
102
{ACAD_REACTORS
330
55
102
}
330
26
100
AcDbEntity
  8
1
  6
Continuous
 62
   171
100
AcDbLine
 10
1331.367964907035
 20
-1734.09966274512
 30
0.0
 11
1331.367964907035
 21
-1733.628065837547
 31
0.0
  0
LINE
  5
3C
102
{ACAD_REACTORS
330
55
102
}
330
26
100
AcDbEntity
  8
1
  6
Continuous
 62
   171
100
AcDbLine
 10
1330.853495553318
 20
-1734.914239221837
 30
0.0
 11
1330.853495553318
 21
-1734.09966274512
 31
0.0
  0
LINE
  5
3B
102
{ACAD_REACTORS
330
55
102
}
330
26
100
AcDbEntity
  8
1
  6
Continuous
 62
   171
100
AcDbLine
 10
1337.940310900755
 20
-1731.441571084255
 30
0.0
 11
1339.032723836138
 21
-1731.441571084255
 31
0.0
  0
LINE
  5
3A
102
{ACAD_REACTORS
330
55
102
}
330
26
100
AcDbEntity
  8
1
  6
Continuous
 62
   171
100
AcDbLine
 10
1337.940310900755
 20
-1734.09966274512
 30
0.0
 11
1339.032723836138
 21
-1734.09966274512
 31
0.0
  0
LINE
  5
39
102
{ACAD_REACTORS
330
55
102
}
330
26
100
AcDbEntity
  8
1
  6
Continuous
 62
   171
100
AcDbLine
 10
1335.453709024462
 20
-1731.441571084255
 30
0.0
 11
1335.453709024462
 21
-1730.626994607537
 31
0.0
  0
LINE
  5
38
102
{ACAD_REACTORS
330
55
102
}
330
26
100
AcDbEntity
  8
1
  6
Continuous
 62
   171
100
AcDbLine
 10
1327.136454472721
 20
-1734.09966274512
 30
0.0
 11
1327.136454472721
 21
-1734.914239221837
 31
0.0
  0
LINE
  5
37
102
{ACAD_REACTORS
330
55
102
}
330
26
100
AcDbEntity
  8
1
  6
Continuous
 62
   171
100
AcDbLine
 10
1339.355101623474
 20
-1730.626994607537
 30
0.0
 11
1335.453709024462
 21
-1730.626994607537
 31
0.0
  0
LINE
  5
36
102
{ACAD_REACTORS
330
55
102
}
330
26
100
AcDbEntity
  8
1
  6
Continuous
 62
   171
100
AcDbLine
 10
1327.136454472721
 20
-1734.914239221837
 30
0.0
 11
1329.923163472016
 21
-1734.914239221837
 31
0.0
  0
LINE
  5
35
102
{ACAD_REACTORS
330
55
102
}
330
26
100
AcDbEntity
  8
1
  6
Continuous
 62
   171
100
AcDbLine
 10
1329.923163472016
 20
-1734.914239221837
 30
0.0
 11
1329.923163472016
 21
-1734.09966274512
 31
0.0
  0
LINE
  5
34
102
{ACAD_REACTORS
330
55
102
}
330
26
100
AcDbEntity
  8
1
  6
Continuous
 62
   171
100
AcDbLine
 10
1329.365821672157
 20
-1731.441571084255
 30
0.0
 11
1329.794546133587
 21
-1731.441571084255
 31
0.0
  0
LINE
  5
33
102
{ACAD_REACTORS
330
55
102
}
330
26
100
AcDbEntity
  8
1
  6
Continuous
 62
   171
100
AcDbLine
 10
1327.136454472721
 20
-1734.09966274512
 30
0.0
 11
1327.650923826437
 21
-1734.09966274512
 31
0.0
  0
LINE
  5
32
102
{ACAD_REACTORS
330
55
102
}
330
26
100
AcDbEntity
  8
1
  6
Continuous
 62
   171
100
AcDbLine
 10
1336.225413055036
 20
-1732.582449294879
 30
0.0
 11
1336.225413055036
 21
-1731.441571084255
 31
0.0
  0
LINE
  5
31
102
{ACAD_REACTORS
330
55
102
}
330
26
100
AcDbEntity
  8
1
  6
Continuous
 62
   171
100
AcDbLine
 10
1337.940310900755
 20
-1734.09966274512
 30
0.0
 11
1337.940310900755
 21
-1731.441571084255
 31
0.0
  0
LINE
  5
30
102
{ACAD_REACTORS
330
55
102
}
330
26
100
AcDbEntity
  8
1
  6
Continuous
 62
   171
100
AcDbLine
 10
1335.453709024462
 20
-1734.914239221837
 30
0.0
 11
1335.453709024462
 21
-1734.09966274512
 31
0.0
  0
POINT
  5
2F
330
26
100
AcDbEntity
  8
MEASURE
 62
     7
100
AcDbPoint
 10
1327.136454472721
 20
-1734.914239221837
 30
0.0
  0
POINT
  5
2E
330
26
100
AcDbEntity
  8
MEASURE
 62
     7
100
AcDbPoint
 10
1327.136454472721
 20
-1734.914239221837
 30
0.0
  0
POINT
  5
2D
330
26
100
AcDbEntity
  8
MEASURE
 62
     7
100
AcDbPoint
 10
1329.351331718679
 20
-1730.626994607537
 30
0.0
  0
POINT
  5
2C
330
26
100
AcDbEntity
  8
MEASURE
 62
     7
100
AcDbPoint
 10
1341.498723930623
 20
-1732.770616914686
 30
0.0
  0
POINT
  5
2B
330
26
100
AcDbEntity
  8
MEASURE
 62
     7
100
AcDbPoint
 10
1327.136454472721
 20
-1734.09966274512
 30
0.0
  0
ENDBLK
  5
56
330
26
100
AcDbEntity
  8
0
100
AcDbBlockEnd
  0
BLOCK
  5
46B
330
46A
100
AcDbEntity
  8
0
 62
     0
100
AcDbBlockBegin
  2
_OPEN30
 70
     0
 10
0.0
 20
0.0
 30
0.0
  3
_OPEN30
  1

  0
LINE
  5
46C
330
46A
100
AcDbEntity
  8
0
 62
     0
100
AcDbLine
 10
-1.0
 20
0.267949
 30
0.0
 11
0.0
 21
0.0
 31
0.0
  0
LINE
  5
46D
330
46A
100
AcDbEntity
  8
0
 62
     0
100
AcDbLine
 10
0.0
 20
0.0
 30
0.0
 11
-1.0
 21
-0.267949
 31
0.0
  0
LINE
  5
46E
330
46A
100
AcDbEntity
  8
0
 62
     0
100
AcDbLine
 10
0.0
 20
0.0
 30
0.0
 11
-1.0
 21
0.0
 31
0.0
  0
ENDBLK
  5
46F
330
46A
100
AcDbEntity
  8
0
 62
     0
100
AcDbBlockEnd
  0
BLOCK
  5
588
330
57E
100
AcDbEntity
  8
0
100
AcDbBlockBegin
  2
*D2
 70
     1
 10
0.0
 20
0.0
 30
0.0
  3
*D2
  1

  0
LINE
  5
5AE
330
57E
100
AcDbEntity
  8
MEASURE
  6
Continuous
 62
     9
370
    -2
100
AcDbLine
 10
1102.651138565687
 20
-1601.183069695738
 30
0.0
 11
1102.651138565687
 21
-1582.741713373771
 31
0.0
  0
LINE
  5
5AF
330
57E
100
AcDbEntity
  8
MEASURE
  6
Continuous
 62
     9
370
    -2
100
AcDbLine
 10
1355.651138565687
 20
-1593.686069695738
 30
0.0
 11
1355.651138565687
 21
-1582.741713373771
 31
0.0
  0
LINE
  5
5B0
330
57E
100
AcDbEntity
  8
MEASURE
  6
Continuous
 62
     9
370
    -2
100
AcDbLine
 10
1104.651138565687
 20
-1584.741713373771
 30
0.0
 11
1353.651138565687
 21
-1584.741713373771
 31
0.0
  0
SOLID
  5
5B1
330
57E
100
AcDbEntity
  8
MEASURE
  6
Continuous
 62
     9
100
AcDbTrace
 10
1104.651138565687
 20
-1584.408380040438
 30
0.0
 11
1104.651138565687
 21
-1585.075046707104
 31
0.0
 12
1102.651138565687
 22
-1584.741713373771
 32
0.0
 13
1102.651138565687
 23
-1584.741713373771
 33
0.0
  0
SOLID
  5
5B2
330
57E
100
AcDbEntity
  8
MEASURE
  6
Continuous
 62
     9
100
AcDbTrace
 10
1353.651138565687
 20
-1584.408380040438
 30
0.0
 11
1353.651138565687
 21
-1585.075046707104
 31
0.0
 12
1355.651138565687
 22
-1584.741713373771
 32
0.0
 13
1355.651138565687
 23
-1584.741713373771
 33
0.0
  0
MTEXT
  5
5B3
330
57E
100
AcDbEntity
  8
MEASURE
  6
Continuous
 62
     2
100
AcDbMText
 10
1229.151138565687
 20
-1582.491713373771
 30
0.0
 40
3.5
 41
0.0
 71
     5
 72
     1
  1
\A1;253±1
  7
AD-STANDARD
 73
     1
 44
1.0
1001
ACAD
1000
MTEXTBEGIN
1070
    73
1070
     1
1070
    44
1040
1.0
1070
    74
1070
     0
1000
MTEXTEND
  0
POINT
  5
5B4
330
57E
100
AcDbEntity
  8
DEFPOINTS
  6
Continuous
 62
     0
100
AcDbPoint
 10
1102.651138565687
 20
-1602.183069695738
 30
0.0
  0
POINT
  5
5B5
330
57E
100
AcDbEntity
  8
DEFPOINTS
  6
Continuous
 62
     0
100
AcDbPoint
 10
1355.651138565687
 20
-1594.686069695738
 30
0.0
  0
POINT
  5
5B6
330
57E
100
AcDbEntity
  8
DEFPOINTS
  6
Continuous
 62
     0
100
AcDbPoint
 10
1355.651138565687
 20
-1584.741713373771
 30
0.0
  0
ENDBLK
  5
589
330
57E
100
AcDbEntity
  8
0
100
AcDbBlockEnd
  0
BLOCK
  5
5C2
330
5B8
100
AcDbEntity
  8
0
100
AcDbBlockBegin
  2
*D3
 70
     1
 10
0.0
 20
0.0
 30
0.0
  3
*D3
  1

  0
LINE
  5
5C4
330
5B8
100
AcDbEntity
  8
MEASURE
  6
Continuous
 62
     9
370
    -2
100
AcDbLine
 10
1102.651138565687
 20
-1601.183069695738
 30
0.0
 11
1102.651138565687
 21
-1582.741713373771
 31
0.0
  0
LINE
  5
5C5
330
5B8
100
AcDbEntity
  8
MEASURE
  6
Continuous
 62
     9
370
    -2
100
AcDbLine
 10
1079.360458565687
 20
-1609.183159318286
 30
0.0
 11
1079.360458565687
 21
-1582.741713373771
 31
0.0
  0
LINE
  5
5C6
330
5B8
100
AcDbEntity
  8
MEASURE
  6
Continuous
 62
     9
370
    -2
100
AcDbLine
 10
1100.651138565687
 20
-1584.741713373771
 30
0.0
 11
1081.360458565686
 21
-1584.741713373771
 31
0.0
  0
SOLID
  5
5C7
330
5B8
100
AcDbEntity
  8
MEASURE
  6
Continuous
 62
     9
100
AcDbTrace
 10
1100.651138565687
 20
-1584.408380040438
 30
0.0
 11
1100.651138565687
 21
-1585.075046707104
 31
0.0
 12
1102.651138565687
 22
-1584.741713373771
 32
0.0
 13
1102.651138565687
 23
-1584.741713373771
 33
0.0
  0
SOLID
  5
5C8
330
5B8
100
AcDbEntity
  8
MEASURE
  6
Continuous
 62
     9
100
AcDbTrace
 10
1081.360458565686
 20
-1584.408380040438
 30
0.0
 11
1081.360458565686
 21
-1585.075046707104
 31
0.0
 12
1079.360458565687
 22
-1584.741713373771
 32
0.0
 13
1079.360458565687
 23
-1584.741713373771
 33
0.0
  0
MTEXT
  5
5C9
330
5B8
100
AcDbEntity
  8
MEASURE
  6
Continuous
 62
     2
100
AcDbMText
 10
1091.005798565687
 20
-1581.575046707104
 30
0.0
 40
3.5
 41
0.0
 71
     5
 72
     1
  1
\A1;(24)
  7
AD-STANDARD
 73
     1
 44
1.0
1001
ACAD
1000
MTEXTBEGIN
1070
    73
1070
     1
1070
    44
1040
1.0
1070
    74
1070
     0
1000
MTEXTEND
  0
POINT
  5
5CA
330
5B8
100
AcDbEntity
  8
DEFPOINTS
  6
Continuous
 62
     0
100
AcDbPoint
 10
1102.651138565687
 20
-1602.183069695738
 30
0.0
  0
POINT
  5
5CB
330
5B8
100
AcDbEntity
  8
DEFPOINTS
  6
Continuous
 62
     0
100
AcDbPoint
 10
1079.360458565687
 20
-1610.183159318286
 30
0.0
  0
POINT
  5
5CC
330
5B8
100
AcDbEntity
  8
DEFPOINTS
  6
Continuous
 62
     0
100
AcDbPoint
 10
1079.360458565687
 20
-1584.741713373771
 30
0.0
  0
ENDBLK
  5
5C3
330
5B8
100
AcDbEntity
  8
0
100
AcDbBlockEnd
  0
BLOCK
  5
5D9
330
5CE
100
AcDbEntity
  8
0
100
AcDbBlockBegin
  2
*D4
 70
     1
 10
0.0
 20
0.0
 30
0.0
  3
*D4
  1

  0
LINE
  5
600
330
5CE
100
AcDbEntity
  8
MEASURE
  6
Continuous
 62
     9
370
    -2
100
AcDbLine
 10
1355.651138565687
 20
-1593.686069695738
 30
0.0
 11
1355.651138565687
 21
-1582.741713373771
 31
0.0
  0
LINE
  5
601
330
5CE
100
AcDbEntity
  8
MEASURE
  6
Continuous
 62
     9
370
    -2
100
AcDbLine
 10
1364.147738565686
 20
-1711.638869695738
 30
0.0
 11
1364.147738565686
 21
-1582.741713373771
 31
0.0
  0
LINE
  5
602
330
5CE
100
AcDbEntity
  8
MEASURE
  6
Continuous
 62
     9
370
    -2
100
AcDbLine
 10
1357.651138565687
 20
-1584.741713373771
 30
0.0
 11
1362.147738565686
 21
-1584.741713373771
 31
0.0
  0
SOLID
  5
603
330
5CE
100
AcDbEntity
  8
MEASURE
  6
Continuous
 62
     9
100
AcDbTrace
 10
1357.651138565687
 20
-1584.408380040438
 30
0.0
 11
1357.651138565687
 21
-1585.075046707104
 31
0.0
 12
1355.651138565687
 22
-1584.741713373771
 32
0.0
 13
1355.651138565687
 23
-1584.741713373771
 33
0.0
  0
SOLID
  5
604
330
5CE
100
AcDbEntity
  8
MEASURE
  6
Continuous
 62
     9
100
AcDbTrace
 10
1362.147738565686
 20
-1584.408380040438
 30
0.0
 11
1362.147738565686
 21
-1585.075046707104
 31
0.0
 12
1364.147738565686
 22
-1584.741713373771
 32
0.0
 13
1364.147738565686
 23
-1584.741713373771
 33
0.0
  0
MTEXT
  5
605
330
5CE
100
AcDbEntity
  8
MEASURE
  6
Continuous
 62
     2
100
AcDbMText
 10
1359.899438565686
 20
-1581.575046707104
 30
0.0
 40
3.5
 41
0.0
 71
     5
 72
     1
  1
\A1;(8.5)
  7
AD-STANDARD
 73
     1
 44
1.0
1001
ACAD
1000
MTEXTBEGIN
1070
    73
1070
     1
1070
    44
1040
1.0
1070
    74
1070
     0
1000
MTEXTEND
  0
POINT
  5
606
330
5CE
100
AcDbEntity
  8
DEFPOINTS
  6
Continuous
 62
     0
100
AcDbPoint
 10
1355.651138565687
 20
-1594.686069695738
 30
0.0
  0
POINT
  5
607
330
5CE
100
AcDbEntity
  8
DEFPOINTS
  6
Continuous
 62
     0
100
AcDbPoint
 10
1364.147738565686
 20
-1712.638869695737
 30
0.0
  0
POINT
  5
608
330
5CE
100
AcDbEntity
  8
DEFPOINTS
  6
Continuous
 62
     0
100
AcDbPoint
 10
1364.147738565686
 20
-1584.741713373771
 30
0.0
  0
ENDBLK
  5
5DA
330
5CE
100
AcDbEntity
  8
0
100
AcDbBlockEnd
  0
BLOCK
  5
62E
330
624
100
AcDbEntity
  8
0
100
AcDbBlockBegin
  2
*D5
 70
     1
 10
0.0
 20
0.0
 30
0.0
  3
*D5
  1

  0
LINE
  5
65D
330
624
100
AcDbEntity
  8
MEASURE
  6
Continuous
 62
     9
370
    -2
100
AcDbLine
 10
1402.126040792069
 20
-1594.686069695738
 30
0.0
 11
1382.318363604867
 21
-1594.686069695738
 31
0.0
  0
LINE
  5
65E
330
624
100
AcDbEntity
  8
MEASURE
  6
Continuous
 62
     9
370
    -2
100
AcDbLine
 10
1402.126040792069
 20
-1737.628869695738
 30
0.0
 11
1382.318363604867
 21
-1737.628869695738
 31
0.0
  0
LINE
  5
65F
330
624
100
AcDbEntity
  8
MEASURE
  6
Continuous
 62
     9
370
    -2
100
AcDbLine
 10
1384.318363604867
 20
-1596.686069695738
 30
0.0
 11
1384.318363604867
 21
-1735.628869695737
 31
0.0
  0
SOLID
  5
660
330
624
100
AcDbEntity
  8
MEASURE
  6
Continuous
 62
     9
100
AcDbTrace
 10
1383.985030271533
 20
-1596.686069695738
 30
0.0
 11
1384.6516969382
 21
-1596.686069695738
 31
0.0
 12
1384.318363604867
 22
-1594.686069695738
 32
0.0
 13
1384.318363604867
 23
-1594.686069695738
 33
0.0
  0
SOLID
  5
661
330
624
100
AcDbEntity
  8
MEASURE
  6
Continuous
 62
     9
100
AcDbTrace
 10
1383.985030271533
 20
-1735.628869695737
 30
0.0
 11
1384.6516969382
 21
-1735.628869695737
 31
0.0
 12
1384.318363604867
 22
-1737.628869695738
 32
0.0
 13
1384.318363604867
 23
-1737.628869695738
 33
0.0
  0
MTEXT
  5
662
330
624
100
AcDbEntity
  8
MEASURE
  6
Continuous
 62
     2
100
AcDbMText
 10
1382.068363604867
 20
-1666.157469695737
 30
0.0
 40
3.5
 41
0.0
 71
     5
 72
     1
  1
\A1;143±1
  7
AD-STANDARD
 11
0.0000000000000001
 21
1.0
 31
0.0
 73
     1
 44
1.0
1001
ACAD
1000
MTEXTBEGIN
1070
    73
1070
     1
1070
    44
1040
1.0
1070
    74
1070
     0
1000
MTEXTEND
  0
POINT
  5
663
330
624
100
AcDbEntity
  8
DEFPOINTS
  6
Continuous
 62
     0
100
AcDbPoint
 10
1403.126040792069
 20
-1594.686069695738
 30
0.0
  0
POINT
  5
664
330
624
100
AcDbEntity
  8
DEFPOINTS
  6
Continuous
 62
     0
100
AcDbPoint
 10
1403.126040792069
 20
-1737.628869695738
 30
0.0
  0
POINT
  5
665
330
624
100
AcDbEntity
  8
DEFPOINTS
  6
Continuous
 62
     0
100
AcDbPoint
 10
1384.318363604867
 20
-1737.628869695738
 30
0.0
  0
ENDBLK
  5
62F
330
624
100
AcDbEntity
  8
0
100
AcDbBlockEnd
  0
BLOCK
  5
671
330
667
100
AcDbEntity
  8
0
100
AcDbBlockBegin
  2
*D6
 70
     1
 10
0.0
 20
0.0
 30
0.0
  3
*D6
  1

  0
LINE
  5
68E
330
667
100
AcDbEntity
  8
MEASURE
  6
Continuous
 62
     9
370
    -2
100
AcDbLine
 10
1403.126040792069
 20
-1593.686069695738
 30
0.0
 11
1403.126040792069
 21
-1583.356267906206
 31
0.0
  0
LINE
  5
68F
330
667
100
AcDbEntity
  8
MEASURE
  6
Continuous
 62
     9
370
    -2
100
AcDbLine
 10
1452.606240792069
 20
-1593.686069695738
 30
0.0
 11
1452.606240792069
 21
-1583.356267906206
 31
0.0
  0
LINE
  5
690
330
667
100
AcDbEntity
  8
MEASURE
  6
Continuous
 62
     9
370
    -2
100
AcDbLine
 10
1405.126040792069
 20
-1585.356267906206
 30
0.0
 11
1450.606240792069
 21
-1585.356267906206
 31
0.0
  0
SOLID
  5
691
330
667
100
AcDbEntity
  8
MEASURE
  6
Continuous
 62
     9
100
AcDbTrace
 10
1405.126040792069
 20
-1585.022934572872
 30
0.0
 11
1405.126040792069
 21
-1585.689601239539
 31
0.0
 12
1403.126040792069
 22
-1585.356267906206
 32
0.0
 13
1403.126040792069
 23
-1585.356267906206
 33
0.0
  0
SOLID
  5
692
330
667
100
AcDbEntity
  8
MEASURE
  6
Continuous
 62
     9
100
AcDbTrace
 10
1450.606240792069
 20
-1585.022934572872
 30
0.0
 11
1450.606240792069
 21
-1585.689601239539
 31
0.0
 12
1452.606240792069
 22
-1585.356267906206
 32
0.0
 13
1452.606240792069
 23
-1585.356267906206
 33
0.0
  0
MTEXT
  5
693
330
667
100
AcDbEntity
  8
MEASURE
  6
Continuous
 62
     2
100
AcDbMText
 10
1427.866140792069
 20
-1583.106267906206
 30
0.0
 40
3.5
 41
0.0
 71
     5
 72
     1
  1
\A1;49.5±0.5
  7
AD-STANDARD
 73
     1
 44
1.0
1001
ACAD
1000
MTEXTBEGIN
1070
    73
1070
     1
1070
    44
1040
1.0
1070
    74
1070
     0
1000
MTEXTEND
  0
POINT
  5
694
330
667
100
AcDbEntity
  8
DEFPOINTS
  6
Continuous
 62
     0
100
AcDbPoint
 10
1403.126040792069
 20
-1594.686069695738
 30
0.0
  0
POINT
  5
695
330
667
100
AcDbEntity
  8
DEFPOINTS
  6
Continuous
 62
     0
100
AcDbPoint
 10
1452.606240792069
 20
-1594.686069695738
 30
0.0
  0
POINT
  5
696
330
667
100
AcDbEntity
  8
DEFPOINTS
  6
Continuous
 62
     0
100
AcDbPoint
 10
1452.606240792069
 20
-1585.356267906206
 30
0.0
  0
ENDBLK
  5
672
330
667
100
AcDbEntity
  8
0
100
AcDbBlockEnd
  0
ENDSEC
  0
SECTION
  2
ENTITIES
  0
HATCH
  5
4B3
330
A
100
AcDbEntity
  8
1
  6
Continuous
 62
     2
100
AcDbHatch
 10
0.0
 20
0.0
 30
0.0
210
0.0
220
0.0
230
1.0
  2
USER
 70
     0
 71
     1
 91
        1
 92
        1
 93
        5
 72
     2
 10
1412.975340792068
 20
-1692.882669695739
 40
4.499999999999469
 50
310.4937742503736
 51
540.0
 73
     1
 72
     2
 10
1412.475340792068
 20
-1692.882669695739
 40
4.0
 50
180.0
 51
224.9999999999998
 73
     1
 72
     1
 10
1409.646913667322
 20
-1695.711096820485
 11
1410.000467057915
 21
-1695.357543429892
 72
     2
 10
1412.475340792068
 20
-1692.882669695739
 40
3.50000000000027
 50
134.9999999999972
 51
404.9999999999998
 73
     0
 72
     1
 10
1414.950214526222
 20
-1695.357543429892
 11
1415.89748517718
 21
-1696.304814080851
 97
        5
330
2C8
330
2C7
330
CA
330
2C9
330
C8
 75
     1
 76
     0
 52
0.0
 41
0.1
 77
     0
 78
     1
 53
0.0
 43
107.9098188504195
 44
0.0
 45
0.0
 46
0.1
 79
     0
 98
        1
 10
107.9098188504195
 20
0.0
  0
HATCH
  5
4B2
330
A
100
AcDbEntity
  8
1
  6
Continuous
 62
     2
100
AcDbHatch
 10
0.0
 20
0.0
 30
0.0
210
0.0
220
0.0
230
1.0
  2
USER
 70
     0
 71
     1
 91
        1
 92
        1
 93
        5
 72
     2
 10
1412.475340792068
 20
-1627.882669695739
 40
3.50000000000027
 50
315.0000000000002
 51
585.0000000000027
 73
     1
 72
     1
 10
1410.000467057915
 20
-1630.357543429892
 11
1409.646913667322
 21
-1630.711096820485
 72
     2
 10
1412.475340792068
 20
-1627.882669695739
 40
4.0
 50
135.0000000000002
 51
180.0
 73
     0
 72
     2
 10
1412.975340792068
 20
-1627.882669695739
 40
4.499999999999469
 50
180.0
 51
409.5062257496264
 73
     0
 72
     1
 10
1415.89748517718
 20
-1631.304814080851
 11
1414.950214526222
 21
-1630.357543429892
 97
        5
330
2C5
330
C5
330
2C3
330
2C4
330
C3
 75
     1
 76
     0
 52
0.0
 41
0.1
 77
     0
 78
     1
 53
0.0
 43
107.9098188504195
 44
0.0
 45
0.0
 46
0.1
 79
     0
 98
        1
 10
107.9098188504195
 20
0.0
  0
MTEXT
  5
45C
330
A
100
AcDbEntity
  8
1
 62
     7
100
AcDbMText
 10
1043.390076656743
 20
-1686.449405484702
 30
0.0
 40
2.5
 41
0.0
 71
     5
 72
     1
  1
I/F
  7
CONVERTER_2
 73
     1
 44
1.0
1001
ACAD
1000
MTEXTBEGIN
1070
    73
1070
     1
1070
    44
1040
1.0
1070
    74
1070
     0
1000
MTEXTEND
  0
MTEXT
  5
45B
330
A
100
AcDbEntity
  8
1
 62
     7
100
AcDbMText
 10
1037.021690171271
 20
-1701.693276480969
 30
0.0
 40
2.5
 41
0.0
 71
     5
 72
     1
  1
POWER
  7
CONVERTER_2
 73
     1
 44
1.0
1001
ACAD
1000
MTEXTBEGIN
1070
    73
1070
     1
1070
    44
1040
1.0
1070
    74
1070
     0
1000
MTEXTEND
  0
MTEXT
  5
40A
330
A
100
AcDbEntity
  8
1
 62
     7
100
AcDbMText
 10
1041.518147389987
 20
-1607.133777927839
 30
0.0
 40
2.5
 41
0.0
 71
     5
 72
     1
  1
INPUT
  7
CONVERTER_1
 73
     1
 44
1.0
1001
ACAD
1000
MTEXTBEGIN
1070
    73
1070
     1
1070
    44
1040
1.0
1070
    74
1070
     0
1000
MTEXTEND
  0
MTEXT
  5
408
330
A
100
AcDbEntity
  8
1
 62
     7
100
AcDbMText
 10
1055.7368776025
 20
-1653.474270577087
 30
0.0
 40
2.0
 41
0.0
 71
     5
 72
     1
  1
COM
  7
CONVERTER_1
 73
     1
 44
1.0
1001
ACAD
1000
MTEXTBEGIN
1070
    73
1070
     1
1070
    44
1040
1.0
1070
    74
1070
     0
1000
MTEXTEND
  0
MTEXT
  5
404
330
A
100
AcDbEntity
  8
1
 62
     7
100
AcDbMText
 10
1019.387979434003
 20
-1615.385360634662
 30
0.0
 40
2.5
 41
0.0
 71
     5
 72
     1
  1
＋
  7
CONVERTER_3
 11
-1.0
 21
0.0
 31
0.0
 73
     1
 44
1.0
1001
ACAD
1000
MTEXTBEGIN
1070
    73
1070
     1
1070
    44
1040
1.0
1070
    74
1070
     0
1000
MTEXTEND
  0
MTEXT
  5
401
330
A
100
AcDbEntity
  8
1
 62
     7
100
AcDbMText
 10
1054.387979434004
 20
-1615.385360634662
 30
0.0
 40
2.5
 41
0.0
 71
     5
 72
     1
  1
＋
  7
CONVERTER_3
 73
     1
 44
1.0
1001
ACAD
1000
MTEXTBEGIN
1070
    73
1070
     1
1070
    44
1040
1.0
1070
    74
1070
     0
1000
MTEXTEND
  0
MTEXT
  5
400
330
A
100
AcDbEntity
  8
1
 62
     7
100
AcDbMText
 10
1017.92186067823
 20
-1653.474270577087
 30
0.0
 40
2.0
 41
0.0
 71
     5
 72
     1
  1
COM
  7
CONVERTER_1
 73
     1
 44
1.0
1001
ACAD
1000
MTEXTBEGIN
1070
    73
1070
     1
1070
    44
1040
1.0
1070
    74
1070
     0
1000
MTEXTEND
  0
TEXT
  5
3FF
330
A
100
AcDbEntity
  8
1
 62
     7
100
AcDbText
 10
1046.333977654631
 20
-1666.132484882472
 30
0.0
 40
2.0
  1
chA/A+B
 41
0.855
  7
CONVERTER_2
100
AcDbText
  0
TEXT
  5
3FE
330
A
100
AcDbEntity
  8
1
 62
     7
100
AcDbText
 10
1031.485691547451
 20
-1668.631738767976
 30
0.0
 40
2.0
  1
OUTPUT
 41
0.95
  7
CONVERTER_4
100
AcDbText
  0
TEXT
  5
3FC
330
A
100
AcDbEntity
  8
1
 62
     7
100
AcDbText
 10
1017.153365831468
 20
-1665.87619500946
 30
0.0
 40
2.0
  1
chB/A-B
 41
0.855
  7
CONVERTER_2
100
AcDbText
  0
MTEXT
  5
3F7
330
A
100
AcDbEntity
  8
1
 62
     7
100
AcDbMText
 10
1019.879587729232
 20
-1608.129285009881
 30
0.0
 40
2.0
 41
0.0
 71
     5
 72
     1
  1
chB
  7
CONVERTER_1
 73
     1
 44
1.0
1001
ACAD
1000
MTEXTBEGIN
1070
    73
1070
     1
1070
    44
1040
1.0
1070
    74
1070
     0
1000
MTEXTEND
  0
MTEXT
  5
3F6
330
A
100
AcDbEntity
  8
1
 62
     7
100
AcDbMText
 10
1053.999389113561
 20
-1608.129285009881
 30
0.0
 40
2.0
 41
0.0
 71
     5
 72
     1
  1
chA
  7
CONVERTER_1
 73
     1
 44
1.0
1001
ACAD
1000
MTEXTBEGIN
1070
    73
1070
     1
1070
    44
1040
1.0
1070
    74
1070
     0
1000
MTEXTEND
  0
ARC
  5
3F4
330
A
100
AcDbEntity
  8
1
  6
Continuous
 62
     7
100
AcDbCircle
 10
1349.653538565687
 20
-1605.681669695737
 30
0.0
 40
0.99959999999987
100
AcDbArc
 50
0.0
 51
90.0
  0
ARC
  5
3F3
330
A
100
AcDbEntity
  8
1
  6
Continuous
 62
     7
100
AcDbCircle
 10
1349.653538565687
 20
-1728.632469695739
 30
0.0
 40
0.9995999999989598
100
AcDbArc
 50
270.0
 51
0.0
  0
ARC
  5
3F2
330
A
100
AcDbEntity
  8
1
  6
Continuous
 62
     7
100
AcDbCircle
 10
1013.150479434004
 20
-1603.182669695738
 30
0.0
 40
0.9996000000001
100
AcDbArc
 50
90.0
 51
180.0
  0
ARC
  5
3F1
330
A
100
AcDbEntity
  8
1
  6
Continuous
 62
     7
100
AcDbCircle
 10
1060.631479434004
 20
-1603.182669695738
 30
0.0
 40
0.9996000000001
100
AcDbArc
 50
0.0
 51
90.0
  0
ARC
  5
3F0
330
A
100
AcDbEntity
  8
1
  6
Continuous
 62
     2
100
AcDbCircle
 10
1035.141679434004
 20
-1602.94364520217
 30
0.0
 40
0.9995999999993198
100
AcDbArc
 50
106.9577633000109
 51
130.4581742264408
  0
ARC
  5
3EF
330
A
100
AcDbEntity
  8
1
  6
Continuous
 62
     2
100
AcDbCircle
 10
1038.640279434004
 20
-1602.94364520217
 30
0.0
 40
0.99960000000014
100
AcDbArc
 50
49.54182577355918
 51
73.04223669998906
  0
ARC
  5
3EE
330
A
100
AcDbEntity
  8
1
  6
Continuous
 62
     7
100
AcDbCircle
 10
1099.152538565687
 20
-1724.134269695738
 30
0.0
 40
1.999200000000199
100
AcDbArc
 50
180.0
 51
-90.0
  0
ARC
  5
3ED
330
A
100
AcDbEntity
  8
1
  6
Continuous
 62
     7
100
AcDbCircle
 10
1099.152538565687
 20
-1705.741629695738
 30
0.0
 40
1.999199999999969
100
AcDbArc
 50
90.0
 51
180.0
  0
ARC
  5
3EC
330
A
100
AcDbEntity
  8
1
  6
Continuous
 62
     7
100
AcDbCircle
 10
1047.886579434004
 20
-1722.135069695738
 30
0.0
 40
3.998400000000169
100
AcDbArc
 50
-90.0
 51
0.0
  0
ARC
  5
3EB
330
A
100
AcDbEntity
  8
1
  6
Continuous
 62
     7
100
AcDbCircle
 10
1047.886579434004
 20
-1707.740829695738
 30
0.0
 40
3.99839999999995
100
AcDbArc
 50
0.0
 51
90.0
  0
ARC
  5
3EA
330
A
100
AcDbEntity
  8
1
  6
Continuous
 62
     7
100
AcDbCircle
 10
1025.895379434004
 20
-1722.135069695738
 30
0.0
 40
3.99840000000006
100
AcDbArc
 50
180.0
 51
-90.0
  0
ARC
  5
3E9
330
A
100
AcDbEntity
  8
1
  6
Continuous
 62
     7
100
AcDbCircle
 10
1025.895379434004
 20
-1707.740829695738
 30
0.0
 40
0.9996000000001
100
AcDbArc
 50
90.0
 51
180.0
  0
ARC
  5
3E8
330
A
100
AcDbEntity
  8
1
  6
Continuous
 62
     7
100
AcDbCircle
 10
1025.895379434004
 20
-1722.135069695738
 30
0.0
 40
0.9996000000001
100
AcDbArc
 50
180.0
 51
-90.0
  0
ARC
  5
3E7
330
A
100
AcDbEntity
  8
1
  6
Continuous
 62
     7
100
AcDbCircle
 10
1047.886579434004
 20
-1722.135069695738
 30
0.0
 40
0.9996000000001
100
AcDbArc
 50
-90.0
 51
0.0
  0
ARC
  5
3E6
330
A
100
AcDbEntity
  8
1
  6
Continuous
 62
     7
100
AcDbCircle
 10
1047.886579434004
 20
-1707.740829695738
 30
0.0
 40
0.99959999999987
100
AcDbArc
 50
0.0
 51
90.0
  0
ARC
  5
3E5
330
A
100
AcDbEntity
  8
1
  6
Continuous
 62
     7
100
AcDbCircle
 10
1025.895379434004
 20
-1707.740829695738
 30
0.0
 40
3.99839999999995
100
AcDbArc
 50
90.0
 51
180.0
  0
ARC
  5
3E4
330
A
100
AcDbEntity
  8
1
  6
Continuous
 62
     2
100
AcDbCircle
 10
1336.908638565686
 20
-1602.94364520217
 30
0.0
 40
0.9995999999995898
100
AcDbArc
 50
106.9577633000606
 51
130.4581742264408
  0
ARC
  5
3E3
330
A
100
AcDbEntity
  8
1
  6
Continuous
 62
     2
100
AcDbCircle
 10
1115.895838565687
 20
-1602.94364520217
 30
0.0
 40
0.9995999999993198
100
AcDbArc
 50
106.9577633000109
 51
130.4581742264408
  0
ARC
  5
3E2
330
A
100
AcDbEntity
  8
1
  6
Continuous
 62
     2
100
AcDbCircle
 10
1119.394438565687
 20
-1602.94364520217
 30
0.0
 40
0.99960000000014
100
AcDbArc
 50
49.54182577355918
 51
73.04223669998906
  0
ARC
  5
3E1
330
A
100
AcDbEntity
  8
1
  6
Continuous
 62
     2
100
AcDbCircle
 10
1340.407238565685
 20
-1602.94364520217
 30
0.0
 40
0.99960000000088
100
AcDbArc
 50
49.54182577350984
 51
73.04223669992663
  0
ARC
  5
3E0
330
A
100
AcDbEntity
  8
1
  6
Continuous
 62
     7
100
AcDbCircle
 10
1098.652738565687
 20
-1696.580295695738
 30
0.0
 40
0.9996000000001
100
AcDbArc
 50
180.0
 51
-90.0
  0
ARC
  5
3DF
330
A
100
AcDbEntity
  8
1
  6
Continuous
 62
     7
100
AcDbCircle
 10
1098.652738565687
 20
-1690.762623695738
 30
0.0
 40
0.9996000000001
100
AcDbArc
 50
90.0
 51
180.0
  0
ARC
  5
3DE
330
A
100
AcDbEntity
  8
1
  6
Continuous
 62
     5
100
AcDbCircle
 10
1420.125340792069
 20
-1707.832669695738
 30
0.0
 40
2.0
100
AcDbArc
 50
180.0
 51
270.0
  0
ARC
  5
3DD
330
A
100
AcDbEntity
  8
1
  6
Continuous
 62
     5
100
AcDbCircle
 10
1408.625340792069
 20
-1686.032669695738
 30
0.0
 40
2.0
100
AcDbArc
 50
90.0
 51
180.0000000000325
  0
ARC
  5
3DC
330
A
100
AcDbEntity
  8
1
  6
Continuous
 62
     5
100
AcDbCircle
 10
1408.625340792069
 20
-1695.032669695738
 30
0.0
 40
2.0
100
AcDbArc
 50
180.0
 51
270.0
  0
ARC
  5
3DB
330
A
100
AcDbEntity
  8
1
  6
Continuous
 62
     5
100
AcDbCircle
 10
1447.125340792069
 20
-1707.832669695739
 30
0.0
 40
2.0
100
AcDbArc
 50
270.0
 51
0.0
  0
ARC
  5
3DA
330
A
100
AcDbEntity
  8
1
  6
Continuous
 62
     5
100
AcDbCircle
 10
1447.125340792069
 20
-1688.932669695738
 30
0.0
 40
2.0
100
AcDbArc
 50
0.0
 51
90.0
  0
ARC
  5
3D9
330
A
100
AcDbEntity
  8
1
  6
Continuous
 62
     5
100
AcDbCircle
 10
1433.125340792068
 20
-1686.032669695738
 30
0.0
 40
2.0
100
AcDbArc
 50
359.9999999999675
 51
90.0
  0
ARC
  5
3D8
330
A
100
AcDbEntity
  8
1
  6
Continuous
 62
     5
100
AcDbCircle
 10
1420.125340792069
 20
-1643.332669695738
 30
0.0
 40
2.0
100
AcDbArc
 50
180.000000000026
 51
270.0
  0
ARC
  5
3D7
330
A
100
AcDbEntity
  8
1
  6
Continuous
 62
     5
100
AcDbCircle
 10
1408.475340792068
 20
-1630.682669695738
 30
0.0
 40
1.85607111932698
100
AcDbArc
 50
184.6354634269056
 51
274.6354634269057
  0
ARC
  5
3D6
330
A
100
AcDbEntity
  8
1
  6
Continuous
 62
     5
100
AcDbCircle
 10
1408.625340792069
 20
-1621.532669695738
 30
0.0
 40
2.0
100
AcDbArc
 50
90.0
 51
180.0
  0
ARC
  5
3D5
330
A
100
AcDbEntity
  8
1
  6
Continuous
 62
     5
100
AcDbCircle
 10
1433.125340792068
 20
-1621.532669695738
 30
0.0
 40
2.0
100
AcDbArc
 50
359.9999999999675
 51
90.0
  0
ARC
  5
3D4
330
A
100
AcDbEntity
  8
1
  6
Continuous
 62
     5
100
AcDbCircle
 10
1447.125340792069
 20
-1624.432669695739
 30
0.0
 40
2.0
100
AcDbArc
 50
0.00000000002606
 51
90.0
  0
ARC
  5
3D3
330
A
100
AcDbEntity
  8
1
  6
Continuous
 62
     5
100
AcDbCircle
 10
1447.125340792069
 20
-1643.332669695739
 30
0.0
 40
2.0
100
AcDbArc
 50
270.0
 51
0.0
  0
ARC
  5
3D2
330
A
100
AcDbEntity
  8
1
  6
Continuous
 62
     7
100
AcDbCircle
 10
1407.625340792069
 20
-1607.132669695739
 30
0.0
 40
1.0
100
AcDbArc
 50
90.0
 51
180.0
  0
ARC
  5
3D1
330
A
100
AcDbEntity
  8
1
  6
Continuous
 62
     7
100
AcDbCircle
 10
1407.625340792069
 20
-1609.132669695739
 30
0.0
 40
1.0
100
AcDbArc
 50
180.0
 51
270.0
  0
ARC
  5
3D0
330
A
100
AcDbEntity
  8
1
  6
Continuous
 62
     7
100
AcDbCircle
 10
1415.625340792068
 20
-1609.132669695739
 30
0.0
 40
1.0
100
AcDbArc
 50
270.0
 51
0.0
  0
ARC
  5
3CF
330
A
100
AcDbEntity
  8
1
  6
Continuous
 62
     7
100
AcDbCircle
 10
1415.625340792068
 20
-1607.132669695739
 30
0.0
 40
1.0
100
AcDbArc
 50
0.0
 51
90.0
  0
ARC
  5
3CE
330
A
100
AcDbEntity
  8
1
  6
Continuous
 62
     7
100
AcDbCircle
 10
1407.625340792069
 20
-1672.132669695739
 30
0.0
 40
1.0
100
AcDbArc
 50
90.0
 51
180.0
  0
ARC
  5
3CD
330
A
100
AcDbEntity
  8
1
  6
Continuous
 62
     7
100
AcDbCircle
 10
1407.625340792069
 20
-1674.132669695739
 30
0.0
 40
1.0
100
AcDbArc
 50
180.0
 51
270.0
  0
ARC
  5
3CC
330
A
100
AcDbEntity
  8
1
  6
Continuous
 62
     7
100
AcDbCircle
 10
1415.625340792068
 20
-1674.132669695739
 30
0.0
 40
1.0
100
AcDbArc
 50
270.0
 51
0.0
  0
ARC
  5
3CB
330
A
100
AcDbEntity
  8
1
  6
Continuous
 62
     7
100
AcDbCircle
 10
1415.625340792068
 20
-1672.132669695739
 30
0.0
 40
1.0
100
AcDbArc
 50
0.0
 51
90.0
  0
ARC
  5
3CA
330
A
100
AcDbEntity
  8
1
  6
Continuous
 62
     5
100
AcDbCircle
 10
1433.125340792068
 20
-1647.332669695739
 30
0.0
 40
2.0
100
AcDbArc
 50
0.0
 51
90.0
  0
ARC
  5
3C9
330
A
100
AcDbEntity
  8
1
  6
Continuous
 62
     5
100
AcDbCircle
 10
1420.125340792069
 20
-1647.332669695739
 30
0.0
 40
2.0
100
AcDbArc
 50
90.0
 51
180.0
  0
ARC
  5
3C8
330
A
100
AcDbEntity
  8
1
  6
Continuous
 62
     5
100
AcDbCircle
 10
1422.125340792069
 20
-1667.632669695739
 30
0.0
 40
2.0
100
AcDbArc
 50
270.0
 51
0.0
  0
ARC
  5
3C7
330
A
100
AcDbEntity
  8
1
  6
Continuous
 62
     5
100
AcDbCircle
 10
1422.125340792069
 20
-1663.632669695739
 30
0.0
 40
2.0
100
AcDbArc
 50
0.0
 51
90.0
  0
ARC
  5
3C6
330
A
100
AcDbEntity
  8
1
  6
Continuous
 62
     5
100
AcDbCircle
 10
1408.625340792069
 20
-1667.632669695739
 30
0.0
 40
2.0
100
AcDbArc
 50
180.0
 51
270.0
  0
ARC
  5
3C5
330
A
100
AcDbEntity
  8
1
  6
Continuous
 62
     5
100
AcDbCircle
 10
1408.625340792069
 20
-1663.632669695739
 30
0.0
 40
2.0
100
AcDbArc
 50
90.0
 51
180.0
  0
ARC
  5
3C4
330
A
100
AcDbEntity
  8
1
  6
Continuous
 62
     5
100
AcDbCircle
 10
1420.125340792069
 20
-1720.732669695739
 30
0.0
 40
2.0
100
AcDbArc
 50
179.9999999999674
 51
270.0
  0
ARC
  5
3C3
330
A
100
AcDbEntity
  8
1
  6
Continuous
 62
     5
100
AcDbCircle
 10
1420.125340792069
 20
-1711.832669695739
 30
0.0
 40
2.0
100
AcDbArc
 50
90.0
 51
179.9999999999739
  0
ARC
  5
3C2
330
A
100
AcDbEntity
  8
1
  6
Continuous
 62
     5
100
AcDbCircle
 10
1447.125340792069
 20
-1714.732669695738
 30
0.0
 40
2.0
100
AcDbArc
 50
0.0
 51
90.0
  0
ARC
  5
3C1
330
A
100
AcDbEntity
  8
1
  6
Continuous
 62
     5
100
AcDbCircle
 10
1447.125340792069
 20
-1720.732669695738
 30
0.0
 40
2.0
100
AcDbArc
 50
270.0
 51
0.0
  0
ARC
  5
3C0
330
A
100
AcDbEntity
  8
1
  6
Continuous
 62
     5
100
AcDbCircle
 10
1420.125340792069
 20
-1656.232669695738
 30
0.0
 40
2.0
100
AcDbArc
 50
180.0
 51
270.0
  0
ARC
  5
3BF
330
A
100
AcDbEntity
  8
1
  6
Continuous
 62
     5
100
AcDbCircle
 10
1427.125340792068
 20
-1669.132669695739
 30
0.0
 40
2.0
100
AcDbArc
 50
180.0
 51
270.0
  0
ARC
  5
3BE
330
A
100
AcDbEntity
  8
1
  6
Continuous
 62
     5
100
AcDbCircle
 10
1427.125340792068
 20
-1663.132669695739
 30
0.0
 40
2.0
100
AcDbArc
 50
90.0
 51
180.0
  0
ARC
  5
3BD
330
A
100
AcDbEntity
  8
1
  6
Continuous
 62
     5
100
AcDbCircle
 10
1447.125340792069
 20
-1650.232669695739
 30
0.0
 40
2.0
100
AcDbArc
 50
0.0
 51
90.0
  0
ARC
  5
3BC
330
A
100
AcDbEntity
  8
1
  6
Continuous
 62
     5
100
AcDbCircle
 10
1447.125340792069
 20
-1656.232669695738
 30
0.0
 40
2.000000000001139
100
AcDbArc
 50
270.0
 51
0.0
  0
ARC
  5
3BB
330
A
100
AcDbEntity
  8
1
  6
Continuous
 62
     5
100
AcDbCircle
 10
1447.125340792069
 20
-1663.132669695739
 30
0.0
 40
2.0
100
AcDbArc
 50
0.0
 51
90.0
  0
ARC
  5
3BA
330
A
100
AcDbEntity
  8
1
  6
Continuous
 62
     5
100
AcDbCircle
 10
1447.125340792069
 20
-1669.132669695739
 30
0.0
 40
2.0
100
AcDbArc
 50
270.0
 51
0.0
  0
ARC
  5
3B9
330
A
100
AcDbEntity
  8
1
  6
Continuous
 62
     5
100
AcDbCircle
 10
1447.125340792069
 20
-1611.532669695739
 30
0.0
 40
2.0
100
AcDbArc
 50
0.0
 51
90.0
  0
ARC
  5
3B8
330
A
100
AcDbEntity
  8
1
  6
Continuous
 62
     5
100
AcDbCircle
 10
1447.125340792069
 20
-1617.532669695739
 30
0.0
 40
2.0
100
AcDbArc
 50
270.0
 51
0.00000000003257
  0
ARC
  5
3B7
330
A
100
AcDbEntity
  8
1
  6
Continuous
 62
     5
100
AcDbCircle
 10
1427.125340792068
 20
-1617.532669695739
 30
0.0
 40
2.0
100
AcDbArc
 50
180.0
 51
270.0
  0
ARC
  5
3B6
330
A
100
AcDbEntity
  8
1
  6
Continuous
 62
     5
100
AcDbCircle
 10
1427.125340792068
 20
-1611.532669695739
 30
0.0
 40
2.0
100
AcDbArc
 50
90.0
 51
180.0
  0
ARC
  5
3B5
330
A
100
AcDbEntity
  8
1
  6
Continuous
 62
     5
100
AcDbCircle
 10
1447.125340792069
 20
-1676.032669695739
 30
0.0
 40
2.0
100
AcDbArc
 50
0.0
 51
90.0
  0
ARC
  5
3B4
330
A
100
AcDbEntity
  8
1
  6
Continuous
 62
     5
100
AcDbCircle
 10
1447.125340792069
 20
-1682.032669695739
 30
0.0
 40
1.999999999998859
100
AcDbArc
 50
270.0
 51
0.0
  0
ARC
  5
3B3
330
A
100
AcDbEntity
  8
1
  6
Continuous
 62
     5
100
AcDbCircle
 10
1427.125340792068
 20
-1682.032669695738
 30
0.0
 40
2.0
100
AcDbArc
 50
180.0
 51
270.0
  0
ARC
  5
3B2
330
A
100
AcDbEntity
  8
1
  6
Continuous
 62
     5
100
AcDbCircle
 10
1427.125340792068
 20
-1676.032669695739
 30
0.0
 40
2.0
100
AcDbArc
 50
90.0
 51
179.9999999999674
  0
ARC
  5
3B1
330
A
100
AcDbEntity
  8
1
  6
Continuous
 62
     5
100
AcDbCircle
 10
1433.125340792068
 20
-1711.832669695738
 30
0.0
 40
2.0
100
AcDbArc
 50
359.999999999974
 51
90.0
  0
ARC
  5
3A8
330
A
100
AcDbEntity
  8
1
  6
Continuous
 62
     7
100
AcDbCircle
 10
1016.142979434004
 20
-1683.132069695738
 30
0.0
 40
0.5
100
AcDbArc
 50
180.0
 51
-90.0
  0
ARC
  5
3A7
330
A
100
AcDbEntity
  8
1
  6
Continuous
 62
     7
100
AcDbCircle
 10
1016.142979434004
 20
-1663.628270324934
 30
0.0
 40
0.5
100
AcDbArc
 50
90.0
 51
180.0
  0
ARC
  5
3A6
330
A
100
AcDbEntity
  8
1
  6
Continuous
 62
     7
100
AcDbCircle
 10
1057.642979434004
 20
-1663.628270324934
 30
0.0
 40
0.5
100
AcDbArc
 50
0.0
 51
90.0
  0
ARC
  5
3A5
330
A
100
AcDbEntity
  8
1
  6
Continuous
 62
     7
100
AcDbCircle
 10
1057.642979434004
 20
-1683.132069695738
 30
0.0
 40
0.5
100
AcDbArc
 50
-90.0
 51
0.0
  0
ARC
  5
3A4
330
A
100
AcDbEntity
  8
1
  6
Continuous
 62
     7
100
AcDbCircle
 10
1102.151938565687
 20
-1523.649823470766
 30
0.0
 40
1.5
100
AcDbArc
 50
90.0
 51
180.0
  0
ARC
  5
3A3
330
A
100
AcDbEntity
  8
1
  6
Continuous
 62
     7
100
AcDbCircle
 10
1102.151938565687
 20
-1567.630223470766
 30
0.0
 40
1.5
100
AcDbArc
 50
180.0
 51
-90.0
  0
LWPOLYLINE
  5
3A2
330
A
100
AcDbEntity
  8
1
  6
Continuous
 62
     7
 60
     1
100
AcDbPolyline
 90
        2
 70
     0
 43
0.0
 10
1099.70127329282
 20
-1603.682469695738
 10
1116.045778565687
 20
-1603.682469695738
  0
LWPOLYLINE
  5
3A1
330
A
100
AcDbEntity
  8
1
  6
Continuous
 62
     7
 60
     1
100
AcDbPolyline
 90
        2
 70
     0
 43
0.0
 10
1116.045778565687
 20
-1604.682069695738
 10
1099.70127329282
 20
-1604.682069695738
  0
LWPOLYLINE
  5
3A0
330
A
100
AcDbEntity
  8
1
  6
Continuous
 62
     7
 60
     1
100
AcDbPolyline
 90
        2
 70
     0
 43
0.0
 10
1246.006815273928
 20
-1543.640823470765
 10
1246.006815273928
 20
-1542.641223470766
  0
LWPOLYLINE
  5
39F
330
A
100
AcDbEntity
  8
1
  6
Continuous
 62
     7
 60
     1
100
AcDbPolyline
 90
        3
 70
     0
 43
0.0
 10
1251.004815273928
 20
-1542.641223470766
 10
1251.004815273928
 20
-1542.141665413844
 10
1252.504215273928
 20
-1542.141665413844
  0
LWPOLYLINE
  5
39E
330
A
100
AcDbEntity
  8
1
  6
Continuous
 62
     7
 60
     1
100
AcDbPolyline
 90
        4
 70
     0
 43
0.0
 10
1253.004015273928
 20
-1542.641465413844
 10
1252.957399365817
 20
-1544.140623470766
 10
1251.004815273928
 20
-1544.140623470766
 10
1249.005615273928
 20
-1544.140623470766
  0
LWPOLYLINE
  5
39D
330
A
100
AcDbEntity
  8
1
  6
Continuous
 62
     7
 60
     1
100
AcDbPolyline
 90
        2
 70
     0
 43
0.0
 10
1251.004815273928
 20
-1548.638823470766
 10
1251.004815273928
 20
-1549.135455637466
  0
LWPOLYLINE
  5
39C
330
A
100
AcDbEntity
  8
1
  6
Continuous
 62
     7
 60
     1
100
AcDbPolyline
 90
        2
 70
     0
 43
0.0
 10
1253.004015273928
 20
-1548.635655637466
 10
1253.004015273928
 20
-1547.139423470765
  0
LWPOLYLINE
  5
39B
330
A
100
AcDbEntity
  8
1
  6
Continuous
 62
     7
 60
     1
100
AcDbPolyline
 90
        2
 70
     0
 43
0.0
 10
1246.006815273928
 20
-1736.629269695738
 10
1246.006815273928
 20
-1737.628869695738
  0
LWPOLYLINE
  5
39A
330
A
100
AcDbEntity
  8
1
  6
Continuous
 62
     7
 60
     1
100
AcDbPolyline
 90
        3
 70
     0
 43
0.0
 10
1251.004815273928
 20
-1737.628869695738
 10
1251.004815273928
 20
-1729.132269695738
 10
1248.505815273928
 20
-1729.132269695738
  0
LWPOLYLINE
  5
399
330
A
100
AcDbEntity
  8
1
  6
Continuous
 62
     7
 60
     1
100
AcDbPolyline
 90
        3
 70
     0
 43
0.0
 10
1245.007215273928
 20
-1735.629669695738
 10
1245.007215273928
 20
-1736.629269695738
 10
1231.012815273928
 20
-1737.129069695737
  0
LWPOLYLINE
  5
398
330
A
100
AcDbEntity
  8
1
  6
Continuous
 62
     7
 60
     1
100
AcDbPolyline
 90
        2
 70
     0
 43
0.0
 10
1246.006815273928
 20
-1596.685269695738
 10
1246.006815273928
 20
-1595.685669695738
  0
LWPOLYLINE
  5
397
330
A
100
AcDbEntity
  8
1
  6
Continuous
 62
     7
 60
     1
100
AcDbPolyline
 90
        3
 70
     0
 43
0.0
 10
1251.004815273928
 20
-1595.685669695738
 10
1251.004815273928
 20
-1595.186111638816
 10
1252.504215273928
 20
-1595.186111638816
  0
LWPOLYLINE
  5
396
330
A
100
AcDbEntity
  8
1
  6
Continuous
 62
     7
 60
     1
100
AcDbPolyline
 90
        4
 70
     0
 43
0.0
 10
1253.004015273928
 20
-1595.685911638817
 10
1252.957399365817
 20
-1597.185069695738
 10
1251.004815273928
 20
-1597.185069695738
 10
1249.005615273928
 20
-1597.185069695738
  0
LWPOLYLINE
  5
395
330
A
100
AcDbEntity
  8
1
  6
Continuous
 62
     7
 60
     1
100
AcDbPolyline
 90
        2
 70
     0
 43
0.0
 10
1251.004815273928
 20
-1601.683269695738
 10
1251.004815273928
 20
-1602.179901862439
  0
LWPOLYLINE
  5
394
330
A
100
AcDbEntity
  8
1
  6
Continuous
 62
     7
 60
     1
100
AcDbPolyline
 90
        2
 70
     0
 43
0.0
 10
1253.004015273928
 20
-1601.680101862439
 10
1253.004015273928
 20
-1600.183869695738
  0
LWPOLYLINE
  5
393
330
A
100
AcDbEntity
  8
1
  6
Continuous
 62
     7
 60
     1
100
AcDbPolyline
 90
        3
 70
     0
 43
0.0
 10
1245.007215273928
 20
-1703.646000909063
 10
1246.006815273928
 20
-1703.05646935433
 10
1246.006815273928
 20
-1728.632469695739
  0
LWPOLYLINE
  5
392
330
A
100
AcDbEntity
  8
1
  6
Continuous
 62
     7
 60
     1
100
AcDbPolyline
 90
        2
 70
     0
 43
0.0
 10
1246.006815273928
 20
-1728.632469695739
 10
1246.006815273928
 20
-1727.632869695738
  0
LWPOLYLINE
  5
391
330
A
100
AcDbEntity
  8
1
  6
Continuous
 62
     7
 60
     1
100
AcDbPolyline
 90
        2
 70
     0
 43
0.0
 10
1233.760299398494
 20
-1728.632469695739
 10
1245.007215273928
 20
-1728.632469695739
  0
LWPOLYLINE
  5
390
330
A
100
AcDbEntity
  8
1
  6
Continuous
 62
     7
 60
     1
100
AcDbPolyline
 90
        2
 70
     0
 43
0.0
 10
1245.007215273928
 20
-1729.632069695738
 10
1234.437456196366
 20
-1729.632069695738
  0
LWPOLYLINE
  5
38F
330
A
100
AcDbEntity
  8
1
  6
Continuous
 62
     7
 60
     1
100
AcDbPolyline
 90
        2
 70
     0
 43
0.0
 10
1231.012815273928
 20
-1729.632069695738
 10
1245.007215273928
 20
-1729.632069695738
  0
LWPOLYLINE
  5
38E
330
A
100
AcDbEntity
  8
1
  6
Continuous
 62
     7
 60
     1
100
AcDbPolyline
 90
        2
 70
     0
 43
0.0
 10
1338.475604860379
 20
-1645.332669695739
 10
1339.215521941649
 20
-1645.332669695739
  0
CIRCLE
  5
38D
330
A
100
AcDbEntity
  8
1
  6
Continuous
 62
     7
100
AcDbCircle
 10
1412.653927632603
 20
-1716.382669695738
 30
0.0
 40
3.5
  0
CIRCLE
  5
38C
330
A
100
AcDbEntity
  8
1
  6
Continuous
 62
     7
100
AcDbCircle
 10
1020.897379434004
 20
-1699.737468519175
 30
0.0
 40
3.99839999999995
  0
CIRCLE
  5
38B
330
A
100
AcDbEntity
  8
1
  6
Continuous
 62
     7
100
AcDbCircle
 10
1027.367979434004
 20
-1615.431059318285
 30
0.0
 40
5.99760000000015
  0
CIRCLE
  5
38A
330
A
100
AcDbEntity
  8
1
  6
Continuous
 62
     7
100
AcDbCircle
 10
1027.367979434004
 20
-1634.473439318286
 30
0.0
 40
5.99760000000015
  0
CIRCLE
  5
389
330
A
100
AcDbEntity
  8
1
  6
Continuous
 62
     7
100
AcDbCircle
 10
1027.367979434004
 20
-1653.515819318286
 30
0.0
 40
5.99760000000015
  0
CIRCLE
  5
388
330
A
100
AcDbEntity
  8
1
  6
Continuous
 62
     7
100
AcDbCircle
 10
1027.367979434004
 20
-1653.515819318286
 30
0.0
 40
2.79888000000005
  0
CIRCLE
  5
387
330
A
100
AcDbEntity
  8
1
  6
Continuous
 62
     2
100
AcDbCircle
 10
1027.367979434004
 20
-1653.515819318286
 30
0.0
 40
3.998400000000169
  0
CIRCLE
  5
386
330
A
100
AcDbEntity
  8
1
  6
Continuous
 62
     7
100
AcDbCircle
 10
1027.367979434004
 20
-1653.515819318286
 30
0.0
 40
4.748100000000019
  0
CIRCLE
  5
385
330
A
100
AcDbEntity
  8
1
  6
Continuous
 62
     7
100
AcDbCircle
 10
1027.367979434004
 20
-1634.473439318286
 30
0.0
 40
2.79888000000005
  0
CIRCLE
  5
384
330
A
100
AcDbEntity
  8
1
  6
Continuous
 62
     2
100
AcDbCircle
 10
1027.367979434004
 20
-1634.473439318286
 30
0.0
 40
3.998400000000169
  0
CIRCLE
  5
383
330
A
100
AcDbEntity
  8
1
  6
Continuous
 62
     7
100
AcDbCircle
 10
1027.367979434004
 20
-1634.473439318286
 30
0.0
 40
4.748100000000019
  0
CIRCLE
  5
382
330
A
100
AcDbEntity
  8
1
  6
Continuous
 62
     7
100
AcDbCircle
 10
1027.367979434004
 20
-1615.431059318285
 30
0.0
 40
2.79888000000005
  0
CIRCLE
  5
381
330
A
100
AcDbEntity
  8
1
  6
Continuous
 62
     2
100
AcDbCircle
 10
1027.367979434004
 20
-1615.431059318285
 30
0.0
 40
3.998400000000169
  0
CIRCLE
  5
380
330
A
100
AcDbEntity
  8
1
  6
Continuous
 62
     7
100
AcDbCircle
 10
1027.367979434004
 20
-1615.431059318285
 30
0.0
 40
4.748100000001159
  0
CIRCLE
  5
37D
330
A
100
AcDbEntity
  8
1
  6
Continuous
 62
     2
100
AcDbCircle
 10
1113.646738565687
 20
-1545.640023470765
 30
0.0
 40
2.998800000000069
  0
CIRCLE
  5
37C
330
A
100
AcDbEntity
  8
1
  6
Continuous
 62
     7
100
AcDbCircle
 10
1113.646738565687
 20
-1545.640023470765
 30
0.0
 40
2.49900000000002
  0
CIRCLE
  5
37B
330
A
100
AcDbEntity
  8
1
  6
Continuous
 62
     7
100
AcDbCircle
 10
1113.646738565687
 20
-1545.640023470765
 30
0.0
 40
4.998000000000049
  0
CIRCLE
  5
379
330
A
100
AcDbEntity
  8
1
  6
Continuous
 62
     7
100
AcDbCircle
 10
1020.897379434004
 20
-1690.660562592847
 30
0.0
 40
4.998000000000049
  0
CIRCLE
  5
378
330
A
100
AcDbEntity
  8
1
  6
Continuous
 62
     7
100
AcDbCircle
 10
1056.882979434004
 20
-1714.937949695739
 30
0.0
 40
2.998800000000979
  0
CIRCLE
  5
377
330
A
100
AcDbEntity
  8
1
  6
Continuous
 62
     7
100
AcDbCircle
 10
1016.898979434004
 20
-1714.937949695739
 30
0.0
 40
2.998800000000979
  0
CIRCLE
  5
376
330
A
100
AcDbEntity
  8
1
  6
Continuous
 62
     7
100
AcDbCircle
 10
1024.395979434004
 20
-1673.654469695738
 30
0.0
 40
6.247499999999949
  0
CIRCLE
  5
375
330
A
100
AcDbEntity
  8
1
  6
Continuous
 62
     7
100
AcDbCircle
 10
1024.395979434004
 20
-1673.654469695738
 30
0.0
 40
3.99839999999995
  0
CIRCLE
  5
374
330
A
100
AcDbEntity
  8
1
  6
Continuous
 62
     2
100
AcDbCircle
 10
1024.395979434004
 20
-1673.654469695738
 30
0.0
 40
2.49900000000002
  0
CIRCLE
  5
373
330
A
100
AcDbEntity
  8
1
  6
Continuous
 62
     2
100
AcDbCircle
 10
1024.395979434004
 20
-1673.654469695738
 30
0.0
 40
1.299480000000129
  0
CIRCLE
  5
372
330
A
100
AcDbEntity
  8
1
  6
Continuous
 62
     7
100
AcDbCircle
 10
1049.385979434004
 20
-1673.654469695738
 30
0.0
 40
6.247499999999949
  0
CIRCLE
  5
371
330
A
100
AcDbEntity
  8
1
  6
Continuous
 62
     7
100
AcDbCircle
 10
1049.385979434004
 20
-1673.654469695738
 30
0.0
 40
3.99839999999995
  0
CIRCLE
  5
370
330
A
100
AcDbEntity
  8
1
  6
Continuous
 62
     2
100
AcDbCircle
 10
1049.385979434004
 20
-1673.654469695738
 30
0.0
 40
2.49900000000002
  0
CIRCLE
  5
36F
330
A
100
AcDbEntity
  8
1
  6
Continuous
 62
     2
100
AcDbCircle
 10
1049.385979434004
 20
-1673.654469695738
 30
0.0
 40
1.299480000000129
  0
CIRCLE
  5
36E
330
A
100
AcDbEntity
  8
1
  6
Continuous
 62
     7
100
AcDbCircle
 10
1049.385979434004
 20
-1673.654469695738
 30
0.0
 40
4.74810000000048
  0
CIRCLE
  5
36D
330
A
100
AcDbEntity
  8
1
  6
Continuous
 62
     7
100
AcDbCircle
 10
1024.395979434004
 20
-1673.654469695738
 30
0.0
 40
4.7481000000005
  0
CIRCLE
  5
36C
330
A
100
AcDbEntity
  8
1
  6
Continuous
 62
     7
100
AcDbCircle
 10
1036.890979434004
 20
-1598.684469695738
 30
0.0
 40
2.97183503307906
  0
CIRCLE
  5
36B
330
A
100
AcDbEntity
  8
1
  6
Continuous
 62
     7
100
AcDbCircle
 10
1036.890979434004
 20
-1598.684469695738
 30
0.0
 40
0.99960000000006
  0
CIRCLE
  5
36A
330
A
100
AcDbEntity
  8
1
  6
Continuous
 62
     7
100
AcDbCircle
 10
1036.890979434004
 20
-1733.630469695739
 30
0.0
 40
2.97183503307997
  0
CIRCLE
  5
369
330
A
100
AcDbEntity
  8
1
  6
Continuous
 62
     7
100
AcDbCircle
 10
1036.890979434004
 20
-1733.630469695739
 30
0.0
 40
0.99960000000014
  0
CIRCLE
  5
368
330
A
100
AcDbEntity
  8
1
  6
Continuous
 62
     7
100
AcDbCircle
 10
1055.383579434004
 20
-1693.696449695738
 30
0.0
 40
2.59895999999912
  0
CIRCLE
  5
367
330
A
100
AcDbEntity
  8
1
  6
Continuous
 62
     7
100
AcDbCircle
 10
1030.403575434004
 20
-1693.696449695738
 30
0.0
 40
2.59895999999912
  0
CIRCLE
  5
366
330
A
100
AcDbEntity
  8
1
  6
Continuous
 62
     2
100
AcDbCircle
 10
1038.785221434004
 20
-1695.090891695738
 30
0.0
 40
0.4998000000000501
  0
CIRCLE
  5
365
330
A
100
AcDbEntity
  8
1
  6
Continuous
 62
     2
100
AcDbCircle
 10
1047.001933434004
 20
-1695.090891695738
 30
0.0
 40
0.4998000000000501
  0
CIRCLE
  5
364
330
A
100
AcDbEntity
  8
1
  6
Continuous
 62
     2
100
AcDbCircle
 10
1044.263029434004
 20
-1695.090891695738
 30
0.0
 40
0.4998000000000501
  0
CIRCLE
  5
363
330
A
100
AcDbEntity
  8
1
  6
Continuous
 62
     2
100
AcDbCircle
 10
1041.524125434004
 20
-1695.090891695738
 30
0.0
 40
0.4998000000000501
  0
CIRCLE
  5
362
330
A
100
AcDbEntity
  8
1
  6
Continuous
 62
     2
100
AcDbCircle
 10
1045.632481434004
 20
-1692.252027695738
 30
0.0
 40
0.4998000000000501
  0
CIRCLE
  5
361
330
A
100
AcDbEntity
  8
1
  6
Continuous
 62
     2
100
AcDbCircle
 10
1048.381381434004
 20
-1692.252027695738
 30
0.0
 40
0.4998000000000501
  0
CIRCLE
  5
360
330
A
100
AcDbEntity
  8
1
  6
Continuous
 62
     2
100
AcDbCircle
 10
1037.405773434004
 20
-1692.252027695738
 30
0.0
 40
0.4998000000000501
  0
CIRCLE
  5
35F
330
A
100
AcDbEntity
  8
1
  6
Continuous
 62
     2
100
AcDbCircle
 10
1040.154673434004
 20
-1692.252027695738
 30
0.0
 40
0.4998000000000501
  0
CIRCLE
  5
35E
330
A
100
AcDbEntity
  8
1
  6
Continuous
 62
     2
100
AcDbCircle
 10
1042.893577434004
 20
-1692.252027695738
 30
0.0
 40
0.4998000000000501
  0
CIRCLE
  5
35D
330
A
100
AcDbEntity
  8
1
  6
Continuous
 62
     2
100
AcDbCircle
 10
1427.625340792069
 20
-1681.882669695738
 30
0.0
 40
1.0
  0
CIRCLE
  5
35C
330
A
100
AcDbEntity
  8
1
  6
Continuous
 62
     2
100
AcDbCircle
 10
1427.625340792069
 20
-1617.382669695738
 30
0.0
 40
1.0
  0
CIRCLE
  5
35B
330
A
100
AcDbEntity
  8
1
  6
Continuous
 62
     2
100
AcDbCircle
 10
1419.625340792069
 20
-1651.782669695738
 30
0.0
 40
1.0
  0
CIRCLE
  5
35A
330
A
100
AcDbEntity
  8
1
  6
Continuous
 62
     2
100
AcDbCircle
 10
1419.625340792069
 20
-1656.082669695738
 30
0.0
 40
1.0
  0
CIRCLE
  5
359
330
A
100
AcDbEntity
  8
1
  6
Continuous
 62
     2
100
AcDbCircle
 10
1427.625340792069
 20
-1651.782669695738
 30
0.0
 40
1.0
  0
CIRCLE
  5
358
330
A
100
AcDbEntity
  8
1
  6
Continuous
 62
     2
100
AcDbCircle
 10
1427.625340792069
 20
-1656.082669695739
 30
0.0
 40
1.0
  0
CIRCLE
  5
357
330
A
100
AcDbEntity
  8
1
  6
Continuous
 62
     2
100
AcDbCircle
 10
1410.623927632603
 20
-1617.382669695738
 30
0.0
 40
1.0
  0
CIRCLE
  5
356
330
A
100
AcDbEntity
  8
1
  6
Continuous
 62
     2
100
AcDbCircle
 10
1410.623927632603
 20
-1613.082669695738
 30
0.0
 40
1.0
  0
CIRCLE
  5
355
330
A
100
AcDbEntity
  8
1
  6
Continuous
 62
     2
100
AcDbCircle
 10
1410.623927632603
 20
-1681.882669695738
 30
0.0
 40
1.0
  0
CIRCLE
  5
354
330
A
100
AcDbEntity
  8
1
  6
Continuous
 62
     2
100
AcDbCircle
 10
1427.625340792069
 20
-1677.582669695738
 30
0.0
 40
1.0
  0
CIRCLE
  5
353
330
A
100
AcDbEntity
  8
1
  6
Continuous
 62
     7
100
AcDbCircle
 10
1412.653927632603
 20
-1716.382669695738
 30
0.0
 40
3.0
  0
CIRCLE
  5
352
330
A
100
AcDbEntity
  8
1
  6
Continuous
 62
     7
100
AcDbCircle
 10
1442.125340792069
 20
-1627.432669695738
 30
0.0
 40
5.0
  0
CIRCLE
  5
351
330
A
100
AcDbEntity
  8
1
  6
Continuous
 62
     7
100
AcDbCircle
 10
1442.125340792069
 20
-1640.332669695739
 30
0.0
 40
5.0
  0
CIRCLE
  5
350
330
A
100
AcDbEntity
  8
1
  6
Continuous
 62
     7
100
AcDbCircle
 10
1442.125340792069
 20
-1653.232669695739
 30
0.0
 40
5.0
  0
CIRCLE
  5
34F
330
A
100
AcDbEntity
  8
1
  6
Continuous
 62
     7
100
AcDbCircle
 10
1442.125340792069
 20
-1666.132669695739
 30
0.0
 40
5.0
  0
CIRCLE
  5
34E
330
A
100
AcDbEntity
  8
1
  6
Continuous
 62
     7
100
AcDbCircle
 10
1442.125340792069
 20
-1691.932669695738
 30
0.0
 40
5.0
  0
CIRCLE
  5
34D
330
A
100
AcDbEntity
  8
1
  6
Continuous
 62
     7
100
AcDbCircle
 10
1442.125340792069
 20
-1704.832669695739
 30
0.0
 40
5.0
  0
CIRCLE
  5
34C
330
A
100
AcDbEntity
  8
1
  6
Continuous
 62
     7
100
AcDbCircle
 10
1442.125340792069
 20
-1717.732669695738
 30
0.0
 40
5.0
  0
CIRCLE
  5
34B
330
A
100
AcDbEntity
  8
1
  6
Continuous
 62
     7
100
AcDbCircle
 10
1412.475340792068
 20
-1627.882669695739
 30
0.0
 40
2.89999999999986
  0
CIRCLE
  5
34A
330
A
100
AcDbEntity
  8
1
  6
Continuous
 62
     7
100
AcDbCircle
 10
1442.125340792069
 20
-1614.532669695739
 30
0.0
 40
5.0
  0
CIRCLE
  5
349
330
A
100
AcDbEntity
  8
1
  6
Continuous
 62
     7
100
AcDbCircle
 10
1412.475340792068
 20
-1640.882669695739
 30
0.0
 40
2.89999999999986
  0
CIRCLE
  5
348
330
A
100
AcDbEntity
  8
1
  6
Continuous
 62
     7
100
AcDbCircle
 10
1442.125340792069
 20
-1679.032669695738
 30
0.0
 40
5.0
  0
CIRCLE
  5
347
330
A
100
AcDbEntity
  8
1
  6
Continuous
 62
     7
100
AcDbCircle
 10
1412.475340792068
 20
-1692.882669695739
 30
0.0
 40
2.89999999999986
  0
CIRCLE
  5
346
330
A
100
AcDbEntity
  8
1
  6
Continuous
 62
     7
100
AcDbCircle
 10
1412.475340792068
 20
-1705.882669695739
 30
0.0
 40
2.89999999999986
  0
CIRCLE
  5
345
330
A
100
AcDbEntity
  8
1
  6
Continuous
 62
     7
100
AcDbCircle
 10
1411.690402651838
 20
-1665.632669695739
 30
0.0
 40
4.0
  0
CIRCLE
  5
344
330
A
100
AcDbEntity
  8
1
  6
Continuous
 62
     2
100
AcDbCircle
 10
1410.623927632603
 20
-1677.582669695738
 30
0.0
 40
1.0
  0
CIRCLE
  5
343
330
A
100
AcDbEntity
  8
1
  6
Continuous
 62
     2
100
AcDbCircle
 10
1419.625340792069
 20
-1716.282669695738
 30
0.0
 40
1.0
  0
CIRCLE
  5
342
330
A
100
AcDbEntity
  8
1
  6
Continuous
 62
     2
100
AcDbCircle
 10
1419.625340792069
 20
-1720.582669695738
 30
0.0
 40
1.0
  0
CIRCLE
  5
341
330
A
100
AcDbEntity
  8
1
  6
Continuous
 62
     2
100
AcDbCircle
 10
1427.625340792069
 20
-1716.282669695738
 30
0.0
 40
1.0
  0
CIRCLE
  5
340
330
A
100
AcDbEntity
  8
1
  6
Continuous
 62
     2
100
AcDbCircle
 10
1427.625340792069
 20
-1720.582669695738
 30
0.0
 40
1.0
  0
CIRCLE
  5
33F
330
A
100
AcDbEntity
  8
1
  6
Continuous
 62
     2
100
AcDbCircle
 10
1427.625340792069
 20
-1707.682669695738
 30
0.0
 40
1.0
  0
CIRCLE
  5
33E
330
A
100
AcDbEntity
  8
1
  6
Continuous
 62
     2
100
AcDbCircle
 10
1427.625340792069
 20
-1703.382669695738
 30
0.0
 40
1.0
  0
CIRCLE
  5
33D
330
A
100
AcDbEntity
  8
1
  6
Continuous
 62
     2
100
AcDbCircle
 10
1427.625340792069
 20
-1699.082669695737
 30
0.0
 40
1.0
  0
CIRCLE
  5
33C
330
A
100
AcDbEntity
  8
1
  6
Continuous
 62
     2
100
AcDbCircle
 10
1427.625340792069
 20
-1694.782669695738
 30
0.0
 40
1.0
  0
CIRCLE
  5
33B
330
A
100
AcDbEntity
  8
1
  6
Continuous
 62
     2
100
AcDbCircle
 10
1427.625340792069
 20
-1690.482669695738
 30
0.0
 40
1.0
  0
CIRCLE
  5
33A
330
A
100
AcDbEntity
  8
1
  6
Continuous
 62
     2
100
AcDbCircle
 10
1427.625340792069
 20
-1664.682669695738
 30
0.0
 40
1.0
  0
CIRCLE
  5
339
330
A
100
AcDbEntity
  8
1
  6
Continuous
 62
     2
100
AcDbCircle
 10
1427.625340792069
 20
-1643.182669695738
 30
0.0
 40
1.0
  0
CIRCLE
  5
338
330
A
100
AcDbEntity
  8
1
  6
Continuous
 62
     2
100
AcDbCircle
 10
1427.625340792069
 20
-1638.882669695737
 30
0.0
 40
1.0
  0
CIRCLE
  5
337
330
A
100
AcDbEntity
  8
1
  6
Continuous
 62
     2
100
AcDbCircle
 10
1427.625340792069
 20
-1634.582669695738
 30
0.0
 40
1.0
  0
CIRCLE
  5
336
330
A
100
AcDbEntity
  8
1
  6
Continuous
 62
     2
100
AcDbCircle
 10
1427.625340792069
 20
-1630.282669695738
 30
0.0
 40
1.0
  0
CIRCLE
  5
335
330
A
100
AcDbEntity
  8
1
  6
Continuous
 62
     2
100
AcDbCircle
 10
1427.625340792069
 20
-1625.982669695738
 30
0.0
 40
1.0
  0
CIRCLE
  5
334
330
A
100
AcDbEntity
  8
1
  6
Continuous
 62
     2
100
AcDbCircle
 10
1419.625340792069
 20
-1707.682669695738
 30
0.0
 40
1.0
  0
CIRCLE
  5
333
330
A
100
AcDbEntity
  8
1
  6
Continuous
 62
     2
100
AcDbCircle
 10
1419.625340792069
 20
-1703.382669695738
 30
0.0
 40
1.0
  0
CIRCLE
  5
332
330
A
100
AcDbEntity
  8
1
  6
Continuous
 62
     2
100
AcDbCircle
 10
1419.625340792069
 20
-1699.082669695737
 30
0.0
 40
1.0
  0
CIRCLE
  5
331
330
A
100
AcDbEntity
  8
1
  6
Continuous
 62
     2
100
AcDbCircle
 10
1419.625340792069
 20
-1694.782669695738
 30
0.0
 40
1.0
  0
CIRCLE
  5
330
330
A
100
AcDbEntity
  8
1
  6
Continuous
 62
     2
100
AcDbCircle
 10
1419.625340792069
 20
-1690.482669695738
 30
0.0
 40
1.0
  0
CIRCLE
  5
32F
330
A
100
AcDbEntity
  8
1
  6
Continuous
 62
     2
100
AcDbCircle
 10
1419.625340792069
 20
-1664.682669695738
 30
0.0
 40
1.0
  0
CIRCLE
  5
32E
330
A
100
AcDbEntity
  8
1
  6
Continuous
 62
     2
100
AcDbCircle
 10
1419.625340792069
 20
-1643.182669695738
 30
0.0
 40
1.0
  0
CIRCLE
  5
32D
330
A
100
AcDbEntity
  8
1
  6
Continuous
 62
     2
100
AcDbCircle
 10
1419.625340792069
 20
-1638.882669695737
 30
0.0
 40
1.0
  0
CIRCLE
  5
32C
330
A
100
AcDbEntity
  8
1
  6
Continuous
 62
     2
100
AcDbCircle
 10
1419.625340792069
 20
-1634.582669695738
 30
0.0
 40
1.0
  0
CIRCLE
  5
32B
330
A
100
AcDbEntity
  8
1
  6
Continuous
 62
     2
100
AcDbCircle
 10
1419.625340792069
 20
-1630.282669695738
 30
0.0
 40
1.0
  0
CIRCLE
  5
32A
330
A
100
AcDbEntity
  8
1
  6
Continuous
 62
     2
100
AcDbCircle
 10
1419.625340792069
 20
-1625.982669695738
 30
0.0
 40
1.0
  0
CIRCLE
  5
329
330
A
100
AcDbEntity
  8
1
  6
Continuous
 62
     2
100
AcDbCircle
 10
1427.625340792069
 20
-1613.082669695738
 30
0.0
 40
1.0
  0
CIRCLE
  5
328
330
A
100
AcDbEntity
  8
1
  6
Continuous
 62
     7
100
AcDbCircle
 10
1046.417979434004
 20
-1615.431059318285
 30
0.0
 40
5.99759999999992
  0
CIRCLE
  5
327
330
A
100
AcDbEntity
  8
1
  6
Continuous
 62
     7
100
AcDbCircle
 10
1046.417979434004
 20
-1634.473439318286
 30
0.0
 40
5.99759999999992
  0
CIRCLE
  5
326
330
A
100
AcDbEntity
  8
1
  6
Continuous
 62
     7
100
AcDbCircle
 10
1046.417979434004
 20
-1653.515819318286
 30
0.0
 40
5.99759999999992
  0
CIRCLE
  5
325
330
A
100
AcDbEntity
  8
1
  6
Continuous
 62
     7
100
AcDbCircle
 10
1046.417979434004
 20
-1653.515819318286
 30
0.0
 40
2.798879999999829
  0
CIRCLE
  5
324
330
A
100
AcDbEntity
  8
1
  6
Continuous
 62
     2
100
AcDbCircle
 10
1046.417979434004
 20
-1653.515819318286
 30
0.0
 40
3.99839999999995
  0
CIRCLE
  5
323
330
A
100
AcDbEntity
  8
1
  6
Continuous
 62
     7
100
AcDbCircle
 10
1046.417979434004
 20
-1653.515819318286
 30
0.0
 40
4.748100000000019
  0
CIRCLE
  5
322
330
A
100
AcDbEntity
  8
1
  6
Continuous
 62
     7
100
AcDbCircle
 10
1046.417979434004
 20
-1634.473439318286
 30
0.0
 40
2.798879999999829
  0
CIRCLE
  5
321
330
A
100
AcDbEntity
  8
1
  6
Continuous
 62
     2
100
AcDbCircle
 10
1046.417979434004
 20
-1634.473439318286
 30
0.0
 40
3.99839999999995
  0
CIRCLE
  5
320
330
A
100
AcDbEntity
  8
1
  6
Continuous
 62
     7
100
AcDbCircle
 10
1046.417979434004
 20
-1634.473439318286
 30
0.0
 40
4.748100000000019
  0
CIRCLE
  5
31F
330
A
100
AcDbEntity
  8
1
  6
Continuous
 62
     7
100
AcDbCircle
 10
1046.417979434004
 20
-1615.431059318285
 30
0.0
 40
2.798879999999829
  0
CIRCLE
  5
31E
330
A
100
AcDbEntity
  8
1
  6
Continuous
 62
     2
100
AcDbCircle
 10
1046.417979434004
 20
-1615.431059318285
 30
0.0
 40
3.99839999999995
  0
CIRCLE
  5
31D
330
A
100
AcDbEntity
  8
1
  6
Continuous
 62
     7
100
AcDbCircle
 10
1046.417979434004
 20
-1615.431059318285
 30
0.0
 40
4.748100000001159
  0
CIRCLE
  5
31B
330
A
100
AcDbEntity
  8
1
  6
Continuous
 62
     2
100
AcDbCircle
 10
1412.475340792068
 20
-1627.882669695739
 30
0.0
 40
2.5
  0
CIRCLE
  5
31A
330
A
100
AcDbEntity
  8
1
  6
Continuous
 62
     2
100
AcDbCircle
 10
1412.475340792068
 20
-1640.882669695739
 30
0.0
 40
2.5
  0
CIRCLE
  5
319
330
A
100
AcDbEntity
  8
1
  6
Continuous
 62
     2
100
AcDbCircle
 10
1412.475340792068
 20
-1692.882669695739
 30
0.0
 40
2.5
  0
CIRCLE
  5
318
330
A
100
AcDbEntity
  8
1
  6
Continuous
 62
     2
100
AcDbCircle
 10
1412.475340792068
 20
-1705.882669695739
 30
0.0
 40
2.5
  0
ARC
  5
317
330
A
100
AcDbEntity
  8
1
  6
Continuous
 62
     7
100
AcDbCircle
 10
1363.148138565687
 20
-1717.636869695738
 30
0.0
 40
0.9996000000001
100
AcDbArc
 50
270.0
 51
0.0
  0
ARC
  5
316
330
A
100
AcDbEntity
  8
1
  6
Continuous
 62
     7
100
AcDbCircle
 10
1363.148138565687
 20
-1712.638869695737
 30
0.0
 40
0.9995999999989598
100
AcDbArc
 50
0.0
 51
90.0
  0
ARC
  5
315
330
A
100
AcDbEntity
  8
1
  6
Continuous
 62
     7
100
AcDbCircle
 10
1363.148138565687
 20
-1564.132623470766
 30
0.0
 40
0.9995999999989598
100
AcDbArc
 50
270.0
 51
0.0
  0
ARC
  5
314
330
A
100
AcDbEntity
  8
1
  6
Continuous
 62
     7
100
AcDbCircle
 10
1363.148138565687
 20
-1559.134623470765
 30
0.0
 40
0.9995999999989598
100
AcDbArc
 50
0.0
 51
90.0
  0
ARC
  5
313
330
A
100
AcDbEntity
  8
1
  6
Continuous
 62
     2
100
AcDbCircle
 10
1036.890979434004
 20
-1608.680469695738
 30
0.0
 40
6.99719999999951
100
AcDbArc
 50
73.04223669999581
 51
106.957763300006
  0
ARC
  5
312
330
A
100
AcDbEntity
  8
1
  6
Continuous
 62
     2
100
AcDbCircle
 10
1020.897379434004
 20
-1690.660562592847
 30
0.0
 40
4.49820000000045
100
AcDbArc
 50
12.83958840690416
 51
167.1604115930959
  0
ARC
  5
311
330
A
100
AcDbEntity
  8
1
  6
Continuous
 62
     2
100
AcDbCircle
 10
1020.897379434004
 20
-1690.660562592847
 30
0.0
 40
4.4982000000004
100
AcDbArc
 50
-167.1604115930986
 51
-12.83958840690134
  0
ARC
  5
310
330
A
100
AcDbEntity
  8
1
  6
Continuous
 62
     7
100
AcDbCircle
 10
1016.898979434004
 20
-1714.937949695739
 30
0.0
 40
3.998400000001089
100
AcDbArc
 50
132.4646907163614
 51
-123.8658756861349
  0
ARC
  5
30F
330
A
100
AcDbEntity
  8
1
  6
Continuous
 62
     7
100
AcDbCircle
 10
1056.882979434004
 20
-1714.937949695739
 30
0.0
 40
3.998399999999629
100
AcDbArc
 50
-55.37311654708969
 51
51.66108582627259
  0
ARC
  5
2F5
330
A
100
AcDbEntity
  8
1
  6
Continuous
 62
     7
100
AcDbCircle
 10
1427.866140792069
 20
-1733.630469695738
 30
0.0
 40
3.49860000000027
100
AcDbArc
 50
210.7787092000882
 51
235.5259594324583
  0
ARC
  5
2F4
330
A
100
AcDbEntity
  8
1
  6
Continuous
 62
     7
100
AcDbCircle
 10
1427.866140792069
 20
-1733.630469695738
 30
0.0
 40
3.49860000000091
100
AcDbArc
 50
55.52595943243365
 51
210.7787092000882
  0
ARC
  5
2F3
330
A
100
AcDbEntity
  8
1
  6
Continuous
 62
     2
100
AcDbCircle
 10
1427.866140792069
 20
-1733.630469695738
 30
0.0
 40
1.49939999999978
100
AcDbArc
 50
193.1523343162742
 51
253.152334316277
  0
ARC
  5
2F2
330
A
100
AcDbEntity
  8
1
  6
Continuous
 62
     2
100
AcDbCircle
 10
1427.866140792069
 20
-1733.630469695738
 30
0.0
 40
1.499399999999909
100
AcDbArc
 50
73.1523343162081
 51
193.1523343162742
  0
ARC
  5
2F1
330
A
100
AcDbEntity
  8
1
  6
Continuous
 62
     2
100
AcDbCircle
 10
1427.866140792069
 20
-1733.630469695738
 30
0.0
 40
1.499400000000449
100
AcDbArc
 50
13.15233431626826
 51
73.1523343162081
  0
ARC
  5
2F0
330
A
100
AcDbEntity
  8
1
  6
Continuous
 62
     7
100
AcDbCircle
 10
1427.866140792069
 20
-1733.630469695738
 30
0.0
 40
3.49859999999949
100
AcDbArc
 50
30.7787092000745
 51
55.52595943243365
  0
ARC
  5
2EF
330
A
100
AcDbEntity
  8
1
  6
Continuous
 62
     7
100
AcDbCircle
 10
1427.866140792069
 20
-1733.630469695738
 30
0.0
 40
3.498599999999879
100
AcDbArc
 50
235.5259594324583
 51
30.7787092000745
  0
ARC
  5
2EE
330
A
100
AcDbEntity
  8
1
  6
Continuous
 62
     2
100
AcDbCircle
 10
1427.866140792069
 20
-1733.630469695738
 30
0.0
 40
1.4993999999996
100
AcDbArc
 50
253.152334316277
 51
13.15233431626826
  0
ARC
  5
2ED
330
A
100
AcDbEntity
  8
1
  6
Continuous
 62
     2
100
AcDbCircle
 10
1427.866140792069
 20
-1733.630469695738
 30
0.0
 40
2.998800000000549
100
AcDbArc
 50
237.629846502193
 51
0.0
  0
ARC
  5
2EC
330
A
100
AcDbEntity
  8
1
  6
Continuous
 62
     2
100
AcDbCircle
 10
1427.866140792069
 20
-1733.630469695738
 30
0.0
 40
2.99879999999985
100
AcDbArc
 50
0.0
 51
28.67482213031646
  0
ARC
  5
2EB
330
A
100
AcDbEntity
  8
1
  6
Continuous
 62
     2
100
AcDbCircle
 10
1427.866140792069
 20
-1733.630469695738
 30
0.0
 40
2.99879999999947
100
AcDbArc
 50
57.62984650218459
 51
208.6748221303437
  0
ARC
  5
2EA
330
A
100
AcDbEntity
  8
1
  6
Continuous
 62
     2
100
AcDbCircle
 10
1427.866140792069
 20
-1733.630469695738
 30
0.0
 40
0.99960000000074
100
AcDbArc
 50
354.5619564255432
 51
91.74271220694821
  0
ARC
  5
2E9
330
A
100
AcDbEntity
  8
1
  6
Continuous
 62
     2
100
AcDbCircle
 10
1427.866140792069
 20
-1733.630469695738
 30
0.0
 40
0.9996000000001
100
AcDbArc
 50
270.0
 51
354.5619564255432
  0
ARC
  5
2E8
330
A
100
AcDbEntity
  8
1
  6
Continuous
 62
     2
100
AcDbCircle
 10
1427.866140792069
 20
-1733.630469695738
 30
0.0
 40
0.99959999999956
100
AcDbArc
 50
91.74271220694821
 51
174.5619564255474
  0
ARC
  5
2E7
330
A
100
AcDbEntity
  8
1
  6
Continuous
 62
     2
100
AcDbCircle
 10
1427.866140792069
 20
-1733.630469695738
 30
0.0
 40
0.9995999999991301
100
AcDbArc
 50
174.5619564255474
 51
270.0
  0
ARC
  5
2E6
330
A
100
AcDbEntity
  8
1
  6
Continuous
 62
     7
100
AcDbCircle
 10
1427.866140792069
 20
-1598.684469695738
 30
0.0
 40
3.49859999999969
100
AcDbArc
 50
210.7787092000722
 51
235.5259594324583
  0
ARC
  5
2E5
330
A
100
AcDbEntity
  8
1
  6
Continuous
 62
     7
100
AcDbCircle
 10
1427.866140792069
 20
-1598.684469695738
 30
0.0
 40
3.49860000000091
100
AcDbArc
 50
55.52595943243365
 51
210.7787092000722
  0
ARC
  5
2E4
330
A
100
AcDbEntity
  8
1
  6
Continuous
 62
     2
100
AcDbCircle
 10
1427.866140792069
 20
-1598.684469695738
 30
0.0
 40
1.49939999999978
100
AcDbArc
 50
193.1523343162742
 51
253.1523343162872
  0
ARC
  5
2E3
330
A
100
AcDbEntity
  8
1
  6
Continuous
 62
     2
100
AcDbCircle
 10
1427.866140792069
 20
-1598.684469695738
 30
0.0
 40
1.499400000000999
100
AcDbArc
 50
73.15233431622086
 51
193.1523343162742
  0
ARC
  5
2E2
330
A
100
AcDbEntity
  8
1
  6
Continuous
 62
     2
100
AcDbCircle
 10
1427.866140792069
 20
-1598.684469695738
 30
0.0
 40
1.499400000000449
100
AcDbArc
 50
13.15233431626826
 51
73.15233431622086
  0
ARC
  5
2E1
330
A
100
AcDbEntity
  8
1
  6
Continuous
 62
     7
100
AcDbCircle
 10
1427.866140792069
 20
-1598.684469695738
 30
0.0
 40
3.49859999999949
100
AcDbArc
 50
30.7787092000745
 51
55.52595943243365
  0
ARC
  5
2E0
330
A
100
AcDbEntity
  8
1
  6
Continuous
 62
     7
100
AcDbCircle
 10
1427.866140792069
 20
-1598.684469695738
 30
0.0
 40
3.498599999999879
100
AcDbArc
 50
235.5259594324583
 51
30.7787092000745
  0
ARC
  5
2DF
330
A
100
AcDbEntity
  8
1
  6
Continuous
 62
     2
100
AcDbCircle
 10
1427.866140792069
 20
-1598.684469695738
 30
0.0
 40
1.499400000000469
100
AcDbArc
 50
253.1523343162872
 51
13.15233431626826
  0
ARC
  5
2DE
330
A
100
AcDbEntity
  8
1
  6
Continuous
 62
     2
100
AcDbCircle
 10
1427.866140792069
 20
-1598.684469695738
 30
0.0
 40
2.998800000000549
100
AcDbArc
 50
237.629846502193
 51
0.0
  0
ARC
  5
2DD
330
A
100
AcDbEntity
  8
1
  6
Continuous
 62
     2
100
AcDbCircle
 10
1427.866140792069
 20
-1598.684469695738
 30
0.0
 40
2.99879999999985
100
AcDbArc
 50
0.0
 51
28.67482213033171
  0
ARC
  5
2DC
330
A
100
AcDbEntity
  8
1
  6
Continuous
 62
     2
100
AcDbCircle
 10
1427.866140792069
 20
-1598.684469695738
 30
0.0
 40
2.99879999999966
100
AcDbArc
 50
57.62984650218744
 51
208.6748221303401
  0
ARC
  5
2DB
330
A
100
AcDbEntity
  8
1
  6
Continuous
 62
     2
100
AcDbCircle
 10
1427.866140792069
 20
-1598.684469695738
 30
0.0
 40
0.99960000000082
100
AcDbArc
 50
354.5619564254912
 51
91.74271220694821
  0
ARC
  5
2DA
330
A
100
AcDbEntity
  8
1
  6
Continuous
 62
     2
100
AcDbCircle
 10
1427.866140792069
 20
-1598.684469695738
 30
0.0
 40
0.99959999999987
100
AcDbArc
 50
270.0
 51
354.5619564254912
  0
ARC
  5
2D9
330
A
100
AcDbEntity
  8
1
  6
Continuous
 62
     2
100
AcDbCircle
 10
1427.866140792069
 20
-1598.684469695738
 30
0.0
 40
0.99959999999956
100
AcDbArc
 50
91.74271220694821
 51
174.5619564255344
  0
ARC
  5
2D8
330
A
100
AcDbEntity
  8
1
  6
Continuous
 62
     2
100
AcDbCircle
 10
1427.866140792069
 20
-1598.684469695738
 30
0.0
 40
0.99959999999915
100
AcDbArc
 50
174.5619564255344
 51
270.0
  0
ARC
  5
2D7
330
A
100
AcDbEntity
  8
1
  6
Continuous
 62
     2
100
AcDbCircle
 10
1117.645138565686
 20
-1608.680469695738
 30
0.0
 40
6.99719999999958
100
AcDbArc
 50
73.04223669999405
 51
106.9577633000042
  0
ARC
  5
2D6
330
A
100
AcDbEntity
  8
1
  6
Continuous
 62
     2
100
AcDbCircle
 10
1338.657938565687
 20
-1608.680469695738
 30
0.0
 40
6.99719999999951
100
AcDbArc
 50
73.0422366999956
 51
106.9577633000129
  0
ARC
  5
2D5
330
A
100
AcDbEntity
  8
1
  6
Continuous
 62
     2
100
AcDbCircle
 10
1036.890979434004
 20
-1598.684469695738
 30
0.0
 40
1.49939999999956
100
AcDbArc
 50
-166.8476656837237
 51
-106.8476656837127
  0
ARC
  5
2D4
330
A
100
AcDbEntity
  8
1
  6
Continuous
 62
     2
100
AcDbCircle
 10
1036.890979434004
 20
-1598.684469695738
 30
0.0
 40
1.49940000000067
100
AcDbArc
 50
73.15233431626234
 51
-166.8476656837237
  0
ARC
  5
2D3
330
A
100
AcDbEntity
  8
1
  6
Continuous
 62
     2
100
AcDbCircle
 10
1036.890979434004
 20
-1598.684469695738
 30
0.0
 40
1.49939999999956
100
AcDbArc
 50
13.15233431627623
 51
73.15233431626234
  0
ARC
  5
2D2
330
A
100
AcDbEntity
  8
1
  6
Continuous
 62
     2
100
AcDbCircle
 10
1036.890979434004
 20
-1598.684469695738
 30
0.0
 40
1.499400000000469
100
AcDbArc
 50
-106.8476656837127
 51
13.15233431627623
  0
ARC
  5
2D1
330
A
100
AcDbEntity
  8
1
  6
Continuous
 62
     2
100
AcDbCircle
 10
1036.890979434004
 20
-1733.630469695739
 30
0.0
 40
1.499399999999299
100
AcDbArc
 50
-166.8476656837661
 51
-106.8476656837253
  0
ARC
  5
2D0
330
A
100
AcDbEntity
  8
1
  6
Continuous
 62
     2
100
AcDbCircle
 10
1036.890979434004
 20
-1733.630469695739
 30
0.0
 40
1.49940000000067
100
AcDbArc
 50
73.15233431626234
 51
-166.8476656837661
  0
ARC
  5
2CF
330
A
100
AcDbEntity
  8
1
  6
Continuous
 62
     2
100
AcDbCircle
 10
1036.890979434004
 20
-1733.630469695739
 30
0.0
 40
1.49939999999956
100
AcDbArc
 50
13.15233431627623
 51
73.15233431626234
  0
ARC
  5
2CE
330
A
100
AcDbEntity
  8
1
  6
Continuous
 62
     2
100
AcDbCircle
 10
1036.890979434004
 20
-1733.630469695739
 30
0.0
 40
1.499399999999379
100
AcDbArc
 50
-106.8476656837253
 51
13.15233431627623
  0
ARC
  5
2CD
330
A
100
AcDbEntity
  8
1
  6
Continuous
 62
     7
100
AcDbCircle
 10
1036.766029434004
 20
-1691.762223695738
 30
0.0
 40
1.999199999999969
100
AcDbArc
 50
90.0
 51
-169.9999999999911
  0
ARC
  5
2CC
330
A
100
AcDbEntity
  8
1
  6
Continuous
 62
     7
100
AcDbCircle
 10
1037.439329072684
 20
-1695.580695695738
 30
0.0
 40
1.99919999999996
100
AcDbArc
 50
-169.9999999999976
 51
-90.0
  0
ARC
  5
2CB
330
A
100
AcDbEntity
  8
1
  6
Continuous
 62
     7
100
AcDbCircle
 10
1048.347825795324
 20
-1695.580695695738
 30
0.0
 40
1.999199999999969
100
AcDbArc
 50
-90.0
 51
-10.00000000000242
  0
ARC
  5
2CA
330
A
100
AcDbEntity
  8
1
  6
Continuous
 62
     7
100
AcDbCircle
 10
1049.021125434004
 20
-1691.762223695738
 30
0.0
 40
1.9992
100
AcDbArc
 50
-10.00000000000884
 51
90.0
  0
ARC
  5
2C9
102
{ACAD_REACTORS
330
4B3
102
}
330
A
100
AcDbEntity
  8
1
  6
Continuous
 62
     7
100
AcDbCircle
 10
1412.475340792068
 20
-1692.882669695739
 30
0.0
 40
3.50000000000027
100
AcDbArc
 50
315.0000000000002
 51
225.0000000000027
  0
ARC
  5
2C8
102
{ACAD_REACTORS
330
4B3
102
}
330
A
100
AcDbEntity
  8
1
  6
Continuous
 62
     7
100
AcDbCircle
 10
1412.975340792068
 20
-1692.882669695739
 30
0.0
 40
4.499999999999469
100
AcDbArc
 50
310.4937742503736
 51
180.0
  0
ARC
  5
2C7
102
{ACAD_REACTORS
330
4B3
102
}
330
A
100
AcDbEntity
  8
1
  6
Continuous
 62
     7
100
AcDbCircle
 10
1412.475340792068
 20
-1692.882669695739
 30
0.0
 40
4.0
100
AcDbArc
 50
180.0
 51
224.9999999999998
  0
ARC
  5
2C6
330
A
100
AcDbEntity
  8
1
  6
Continuous
 62
     7
100
AcDbCircle
 10
1412.475340792068
 20
-1705.832669695739
 30
0.0
 40
3.981856321107759
100
AcDbArc
 50
314.9911038060482
 51
224.9912014799697
  0
ARC
  5
2C5
102
{ACAD_REACTORS
330
4B2
102
}
330
A
100
AcDbEntity
  8
1
  6
Continuous
 62
     7
100
AcDbCircle
 10
1412.475340792068
 20
-1627.882669695739
 30
0.0
 40
3.50000000000027
100
AcDbArc
 50
315.0000000000002
 51
225.0000000000027
  0
ARC
  5
2C4
102
{ACAD_REACTORS
330
4B2
102
}
330
A
100
AcDbEntity
  8
1
  6
Continuous
 62
     7
100
AcDbCircle
 10
1412.975340792068
 20
-1627.882669695739
 30
0.0
 40
4.499999999999469
100
AcDbArc
 50
310.4937742503736
 51
180.0
  0
ARC
  5
2C3
102
{ACAD_REACTORS
330
4B2
102
}
330
A
100
AcDbEntity
  8
1
  6
Continuous
 62
     7
100
AcDbCircle
 10
1412.475340792068
 20
-1627.882669695739
 30
0.0
 40
4.0
100
AcDbArc
 50
180.0
 51
224.9999999999998
  0
ARC
  5
2C2
330
A
100
AcDbEntity
  8
1
  6
Continuous
 62
     7
100
AcDbCircle
 10
1412.475340792068
 20
-1640.882669695739
 30
0.0
 40
3.981856321107919
100
AcDbArc
 50
314.9911038060459
 51
224.9912014799605
  0
LINE
  5
2BF
330
A
100
AcDbEntity
  8
1
  6
Continuous
 62
     7
100
AcDbLine
 10
1097.153338565687
 20
-1539.868623470766
 30
0.0
 11
1097.153338565687
 21
-1550.921823470766
 31
0.0
  0
LINE
  5
2BE
330
A
100
AcDbEntity
  8
1
  6
Continuous
 62
     7
100
AcDbLine
 10
1100.651938565687
 20
-1541.118123470766
 30
0.0
 11
1100.651938565687
 21
-1549.672323470766
 31
0.0
  0
LINE
  5
2BD
330
A
100
AcDbEntity
  8
1
  6
Continuous
 62
     7
100
AcDbLine
 10
1350.653138565687
 20
-1728.632469695739
 30
0.0
 11
1350.653138565687
 21
-1605.681669695737
 31
0.0
  0
LINE
  5
2BC
330
A
100
AcDbEntity
  8
1
  6
Continuous
 62
     7
100
AcDbLine
 10
1349.653538565687
 20
-1729.632069695738
 30
0.0
 11
1347.724146618837
 21
-1729.632069695738
 31
0.0
  0
LINE
  5
2BB
330
A
100
AcDbEntity
  8
1
  6
Continuous
 62
     7
100
AcDbLine
 10
1358.150138565687
 20
-1716.337389695738
 30
0.0
 11
1358.150138565687
 21
-1716.637269695738
 31
0.0
  0
LINE
  5
2BA
330
A
100
AcDbEntity
  8
1
  6
Continuous
 62
     7
100
AcDbLine
 10
1358.150138565687
 20
-1713.938349695738
 30
0.0
 11
1358.150138565687
 21
-1716.337389695738
 31
0.0
  0
LINE
  5
2B9
330
A
100
AcDbEntity
  8
1
  6
Continuous
 62
     7
100
AcDbLine
 10
1358.150138565687
 20
-1716.637269695738
 30
0.0
 11
1358.150138565687
 21
-1718.636469695738
 31
0.0
  0
LINE
  5
2B8
330
A
100
AcDbEntity
  8
1
  6
Continuous
 62
     7
100
AcDbLine
 10
1358.150138565687
 20
-1713.638469695738
 30
0.0
 11
1358.150138565687
 21
-1713.938349695738
 31
0.0
  0
LINE
  5
2B7
330
A
100
AcDbEntity
  8
1
  6
Continuous
 62
     7
100
AcDbLine
 10
1358.150138565687
 20
-1718.636469695738
 30
0.0
 11
1363.148138565687
 21
-1718.636469695738
 31
0.0
  0
LINE
  5
2B6
330
A
100
AcDbEntity
  8
1
  6
Continuous
 62
     7
100
AcDbLine
 10
1364.147738565686
 20
-1712.638869695737
 30
0.0
 11
1364.147738565686
 21
-1717.636869695738
 31
0.0
  0
LINE
  5
2B5
330
A
100
AcDbEntity
  8
1
  6
Continuous
 62
     7
100
AcDbLine
 10
1358.150138565687
 20
-1711.639269695738
 30
0.0
 11
1363.148138565687
 21
-1711.639269695738
 31
0.0
  0
LINE
  5
2B4
330
A
100
AcDbEntity
  8
1
  6
Continuous
 62
     7
100
AcDbLine
 10
1358.150138565687
 20
-1718.636469695738
 30
0.0
 11
1355.651138565687
 21
-1718.636469695738
 31
0.0
  0
LINE
  5
2B3
330
A
100
AcDbEntity
  8
1
  6
Continuous
 62
     7
100
AcDbLine
 10
1358.150138565687
 20
-1711.639269695738
 30
0.0
 11
1358.150138565687
 21
-1713.638469695738
 31
0.0
  0
LINE
  5
2B2
330
A
100
AcDbEntity
  8
1
  6
Continuous
 62
     7
100
AcDbLine
 10
1355.651138565687
 20
-1711.639269695738
 30
0.0
 11
1358.150138565687
 21
-1711.639269695738
 31
0.0
  0
LINE
  5
2B1
330
A
100
AcDbEntity
  8
1
  6
Continuous
 62
     7
100
AcDbLine
 10
1061.631079434004
 20
-1729.632069695738
 30
0.0
 11
1060.631479434004
 21
-1729.632069695738
 31
0.0
  0
LINE
  5
2B0
330
A
100
AcDbEntity
  8
1
  6
Continuous
 62
     7
100
AcDbLine
 10
1013.150479434004
 20
-1729.632069695738
 30
0.0
 11
1012.150879434004
 21
-1729.632069695738
 31
0.0
  0
LINE
  5
2AF
330
A
100
AcDbEntity
  8
1
  6
Continuous
 62
     7
100
AcDbLine
 10
1012.150879434004
 20
-1729.632069695738
 30
0.0
 11
1012.150879434004
 21
-1603.182669695738
 31
0.0
  0
LINE
  5
2AE
330
A
100
AcDbEntity
  8
1
  6
Continuous
 62
     7
100
AcDbLine
 10
1013.150479434004
 20
-1603.182669695738
 30
0.0
 11
1013.150479434004
 21
-1729.632069695738
 31
0.0
  0
LINE
  5
2AD
330
A
100
AcDbEntity
  8
1
  6
Continuous
 62
     7
100
AcDbLine
 10
1060.631479434004
 20
-1729.632069695738
 30
0.0
 11
1060.631479434004
 21
-1603.182669695738
 31
0.0
  0
LINE
  5
2AC
330
A
100
AcDbEntity
  8
1
  6
Continuous
 62
     7
100
AcDbLine
 10
1061.631079434004
 20
-1603.182669695738
 30
0.0
 11
1061.631079434004
 21
-1729.632069695738
 31
0.0
  0
LINE
  5
2AB
330
A
100
AcDbEntity
  8
1
  6
Continuous
 62
     7
100
AcDbLine
 10
1060.631479434004
 20
-1603.182669695738
 30
0.0
 11
1013.150479434004
 21
-1603.182669695738
 31
0.0
  0
LINE
  5
2AA
330
A
100
AcDbEntity
  8
1
  6
Continuous
 62
     7
100
AcDbLine
 10
1013.150479434004
 20
-1602.183069695738
 30
0.0
 11
1060.631479434004
 21
-1602.183069695738
 31
0.0
  0
LINE
  5
2A9
330
A
100
AcDbEntity
  8
1
  6
Continuous
 62
     7
100
AcDbLine
 10
1349.653538565687
 20
-1727.632869695738
 30
0.0
 11
1349.653538565687
 21
-1602.183069695738
 31
0.0
  0
LINE
  5
2A8
330
A
100
AcDbEntity
  8
1
  6
Continuous
 62
     7
100
AcDbLine
 10
1102.651138565687
 20
-1602.183069695738
 30
0.0
 11
1102.651138565687
 21
-1603.182669695738
 31
0.0
  0
LINE
  5
2A7
330
A
100
AcDbEntity
  8
1
  6
Continuous
 62
     7
100
AcDbLine
 10
1102.651138565687
 20
-1603.182669695738
 30
0.0
 11
1102.651138565687
 21
-1727.632869695738
 31
0.0
  0
LINE
  5
2A6
330
A
100
AcDbEntity
  8
1
  6
Continuous
 62
     7
100
AcDbLine
 10
1347.654338565687
 20
-1729.632069695738
 30
0.0
 11
1198.725624309424
 21
-1729.632069695738
 31
0.0
  0
LINE
  5
2A5
330
A
100
AcDbEntity
  8
1
  6
Continuous
 62
     7
100
AcDbLine
 10
1104.650338565687
 20
-1729.632069695738
 30
0.0
 11
1102.651138565687
 21
-1727.632869695738
 31
0.0
  0
LINE
  5
2A4
330
A
100
AcDbEntity
  8
1
  6
Continuous
 62
     7
100
AcDbLine
 10
1349.653538565687
 20
-1727.632869695738
 30
0.0
 11
1347.654338565687
 21
-1729.632069695738
 31
0.0
  0
LINE
  5
2A3
330
A
100
AcDbEntity
  8
1
  6
Continuous
 62
     7
100
AcDbLine
 10
1245.007215273928
 20
-1602.183069695738
 30
0.0
 11
1205.084205937562
 21
-1602.183069695738
 31
0.0
  0
LINE
  5
2A2
330
A
100
AcDbEntity
  8
1
  6
Continuous
 62
     2
100
AcDbLine
 10
1357.606545817621
 20
-1558.135023470765
 30
0.0
 11
1357.606545817621
 21
-1565.132223470765
 31
0.0
  0
LINE
  5
2A1
330
A
100
AcDbEntity
  8
1
  6
Continuous
 62
     7
100
AcDbLine
 10
1355.651138565687
 20
-1570.380123470766
 30
0.0
 11
1350.653138565687
 21
-1570.380123470766
 31
0.0
  0
LINE
  5
2A0
330
A
100
AcDbEntity
  8
1
  6
Continuous
 62
     7
100
AcDbLine
 10
1350.653138565687
 20
-1570.380123470766
 30
0.0
 11
1350.653138565687
 21
-1520.899923470765
 31
0.0
  0
LINE
  5
29F
330
A
100
AcDbEntity
  8
1
  6
Continuous
 62
     7
100
AcDbLine
 10
1355.651138565687
 20
-1520.899923470765
 30
0.0
 11
1355.651138565687
 21
-1570.380123470766
 31
0.0
  0
LINE
  5
29E
330
A
100
AcDbEntity
  8
1
  6
Continuous
 62
     7
100
AcDbLine
 10
1350.653138565687
 20
-1520.899923470765
 30
0.0
 11
1355.651138565687
 21
-1520.899923470765
 31
0.0
  0
LINE
  5
29D
330
A
100
AcDbEntity
  8
1
  6
Continuous
 62
     7
100
AcDbLine
 10
1355.651138565687
 20
-1565.132223470765
 30
0.0
 11
1363.122343613835
 21
-1565.132223470765
 31
0.0
  0
LINE
  5
29C
330
A
100
AcDbEntity
  8
1
  6
Continuous
 62
     7
100
AcDbLine
 10
1364.147738565686
 20
-1559.134623470765
 30
0.0
 11
1364.147738565686
 21
-1564.132623470766
 31
0.0
  0
LINE
  5
29B
330
A
100
AcDbEntity
  8
1
  6
Continuous
 62
     7
100
AcDbLine
 10
1355.651138565687
 20
-1558.135023470765
 30
0.0
 11
1363.148138565687
 21
-1558.135023470765
 31
0.0
  0
LINE
  5
298
330
A
100
AcDbEntity
  8
1
  6
Continuous
 62
     7
100
AcDbLine
 10
1114.777656867246
 20
-1544.509105169207
 30
0.0
 11
1112.515820264128
 21
-1546.770941772324
 31
0.0
  0
LINE
  5
297
330
A
100
AcDbEntity
  8
1
  6
Continuous
 62
     7
100
AcDbLine
 10
1112.515820264128
 20
-1544.509105169207
 30
0.0
 11
1114.777656867246
 21
-1546.770941772324
 31
0.0
  0
LINE
  5
296
330
A
100
AcDbEntity
  8
1
  6
Continuous
 62
     7
100
AcDbLine
 10
1349.653538565687
 20
-1570.130223470766
 30
0.0
 11
1349.653538565687
 21
-1521.149823470766
 31
0.0
  0
LINE
  5
295
330
A
100
AcDbEntity
  8
1
  6
Continuous
 62
     7
100
AcDbLine
 10
1102.651138565687
 20
-1570.130223470766
 30
0.0
 11
1198.896117864678
 21
-1570.130223470766
 31
0.0
  0
LINE
  5
294
330
A
100
AcDbEntity
  8
1
  6
Continuous
 62
     7
100
AcDbLine
 10
1349.653538565687
 20
-1521.149823470766
 30
0.0
 11
1211.805405855196
 21
-1521.149823470766
 31
0.0
  0
LINE
  5
293
330
A
100
AcDbEntity
  8
1
  6
Continuous
 62
     7
100
AcDbLine
 10
1097.653138565687
 20
-1610.183159318286
 30
0.0
 11
1097.653138565687
 21
-1620.678959318286
 31
0.0
  0
LINE
  5
292
330
A
100
AcDbEntity
  8
1
  6
Continuous
 62
     7
100
AcDbLine
 10
1096.653538565687
 20
-1610.183159318286
 30
0.0
 11
1079.360458565687
 21
-1610.183159318286
 31
0.0
  0
LINE
  5
291
330
A
100
AcDbEntity
  8
1
  6
Continuous
 62
     7
100
AcDbLine
 10
1079.360458565687
 20
-1610.183159318286
 30
0.0
 11
1079.360458565687
 21
-1620.678959318286
 31
0.0
  0
LINE
  5
290
330
A
100
AcDbEntity
  8
1
  6
Continuous
 62
     7
100
AcDbLine
 10
1079.360458565687
 20
-1620.678959318286
 30
0.0
 11
1096.653538565687
 21
-1620.678959318286
 31
0.0
  0
LINE
  5
28F
330
A
100
AcDbEntity
  8
1
  6
Continuous
 62
     7
100
AcDbLine
 10
1096.653538565687
 20
-1620.678959318286
 30
0.0
 11
1096.653538565687
 21
-1610.183159318286
 31
0.0
  0
LINE
  5
28E
330
A
100
AcDbEntity
  8
1
  6
Continuous
 62
     7
100
AcDbLine
 10
1096.653538565687
 20
-1611.432659318286
 30
0.0
 11
1097.653138565687
 21
-1611.432659318286
 31
0.0
  0
LINE
  5
28D
330
A
100
AcDbEntity
  8
1
  6
Continuous
 62
     7
100
AcDbLine
 10
1097.653138565687
 20
-1619.429459318286
 30
0.0
 11
1096.653538565687
 21
-1619.429459318286
 31
0.0
  0
LINE
  5
28C
330
A
100
AcDbEntity
  8
1
  6
Continuous
 62
     2
100
AcDbLine
 10
1096.653538565687
 20
-1610.682959318286
 30
0.0
 11
1079.360458565687
 21
-1610.682959318286
 31
0.0
  0
LINE
  5
28B
330
A
100
AcDbEntity
  8
1
  6
Continuous
 62
     2
100
AcDbLine
 10
1096.653538565687
 20
-1611.682559318286
 30
0.0
 11
1079.360458565687
 21
-1611.682559318286
 31
0.0
  0
LINE
  5
28A
330
A
100
AcDbEntity
  8
1
  6
Continuous
 62
     2
100
AcDbLine
 10
1096.653538565687
 20
-1613.681759318286
 30
0.0
 11
1079.360458565687
 21
-1613.681759318286
 31
0.0
  0
LINE
  5
289
330
A
100
AcDbEntity
  8
1
  6
Continuous
 62
     2
100
AcDbLine
 10
1096.653538565687
 20
-1614.681359318286
 30
0.0
 11
1079.360458565687
 21
-1614.681359318286
 31
0.0
  0
LINE
  5
288
330
A
100
AcDbEntity
  8
1
  6
Continuous
 62
     2
100
AcDbLine
 10
1096.653538565687
 20
-1617.680159318286
 30
0.0
 11
1079.360458565687
 21
-1617.680159318286
 31
0.0
  0
LINE
  5
287
330
A
100
AcDbEntity
  8
1
  6
Continuous
 62
     2
100
AcDbLine
 10
1096.653538565687
 20
-1616.680559318286
 30
0.0
 11
1079.360458565687
 21
-1616.680559318286
 31
0.0
  0
LINE
  5
286
330
A
100
AcDbEntity
  8
1
  6
Continuous
 62
     2
100
AcDbLine
 10
1096.653538565687
 20
-1619.679359318286
 30
0.0
 11
1079.360458565687
 21
-1619.679359318286
 31
0.0
  0
LINE
  5
285
330
A
100
AcDbEntity
  8
1
  6
Continuous
 62
     7
100
AcDbLine
 10
1102.651138565687
 20
-1610.183159318286
 30
0.0
 11
1097.653138565687
 21
-1610.183159318286
 31
0.0
  0
LINE
  5
284
330
A
100
AcDbEntity
  8
1
  6
Continuous
 62
     7
100
AcDbLine
 10
1097.653138565687
 20
-1620.678959318286
 30
0.0
 11
1102.651138565687
 21
-1620.678959318286
 31
0.0
  0
LINE
  5
283
330
A
100
AcDbEntity
  8
1
  6
Continuous
 62
     7
100
AcDbLine
 10
1097.653138565687
 20
-1629.225539318286
 30
0.0
 11
1097.653138565687
 21
-1639.721339318286
 31
0.0
  0
LINE
  5
282
330
A
100
AcDbEntity
  8
1
  6
Continuous
 62
     7
100
AcDbLine
 10
1096.653538565687
 20
-1629.225539318286
 30
0.0
 11
1079.360458565687
 21
-1629.225539318286
 31
0.0
  0
LINE
  5
281
330
A
100
AcDbEntity
  8
1
  6
Continuous
 62
     7
100
AcDbLine
 10
1079.360458565687
 20
-1629.225539318286
 30
0.0
 11
1079.360458565687
 21
-1639.721339318286
 31
0.0
  0
LINE
  5
280
330
A
100
AcDbEntity
  8
1
  6
Continuous
 62
     7
100
AcDbLine
 10
1079.360458565687
 20
-1639.721339318286
 30
0.0
 11
1096.653538565687
 21
-1639.721339318286
 31
0.0
  0
LINE
  5
27F
330
A
100
AcDbEntity
  8
1
  6
Continuous
 62
     7
100
AcDbLine
 10
1096.653538565687
 20
-1639.721339318286
 30
0.0
 11
1096.653538565687
 21
-1629.225539318286
 31
0.0
  0
LINE
  5
27E
330
A
100
AcDbEntity
  8
1
  6
Continuous
 62
     7
100
AcDbLine
 10
1096.653538565687
 20
-1630.475039318286
 30
0.0
 11
1097.653138565687
 21
-1630.475039318286
 31
0.0
  0
LINE
  5
27D
330
A
100
AcDbEntity
  8
1
  6
Continuous
 62
     7
100
AcDbLine
 10
1097.653138565687
 20
-1638.471839318286
 30
0.0
 11
1096.653538565687
 21
-1638.471839318286
 31
0.0
  0
LINE
  5
27C
330
A
100
AcDbEntity
  8
1
  6
Continuous
 62
     2
100
AcDbLine
 10
1096.653538565687
 20
-1629.725339318286
 30
0.0
 11
1079.360458565687
 21
-1629.725339318286
 31
0.0
  0
LINE
  5
27B
330
A
100
AcDbEntity
  8
1
  6
Continuous
 62
     2
100
AcDbLine
 10
1096.653538565687
 20
-1630.724939318286
 30
0.0
 11
1079.360458565687
 21
-1630.724939318286
 31
0.0
  0
LINE
  5
27A
330
A
100
AcDbEntity
  8
1
  6
Continuous
 62
     2
100
AcDbLine
 10
1096.653538565687
 20
-1632.724139318286
 30
0.0
 11
1079.360458565687
 21
-1632.724139318286
 31
0.0
  0
LINE
  5
279
330
A
100
AcDbEntity
  8
1
  6
Continuous
 62
     2
100
AcDbLine
 10
1096.653538565687
 20
-1633.723739318286
 30
0.0
 11
1079.360458565687
 21
-1633.723739318286
 31
0.0
  0
LINE
  5
278
330
A
100
AcDbEntity
  8
1
  6
Continuous
 62
     2
100
AcDbLine
 10
1096.653538565687
 20
-1636.722539318286
 30
0.0
 11
1079.360458565687
 21
-1636.722539318286
 31
0.0
  0
LINE
  5
277
330
A
100
AcDbEntity
  8
1
  6
Continuous
 62
     2
100
AcDbLine
 10
1096.653538565687
 20
-1635.722939318286
 30
0.0
 11
1079.360458565687
 21
-1635.722939318286
 31
0.0
  0
LINE
  5
276
330
A
100
AcDbEntity
  8
1
  6
Continuous
 62
     2
100
AcDbLine
 10
1096.653538565687
 20
-1638.721739318286
 30
0.0
 11
1079.360458565687
 21
-1638.721739318286
 31
0.0
  0
LINE
  5
275
330
A
100
AcDbEntity
  8
1
  6
Continuous
 62
     7
100
AcDbLine
 10
1102.651138565687
 20
-1629.225539318286
 30
0.0
 11
1097.653138565687
 21
-1629.225539318286
 31
0.0
  0
LINE
  5
274
330
A
100
AcDbEntity
  8
1
  6
Continuous
 62
     7
100
AcDbLine
 10
1097.653138565687
 20
-1639.721339318286
 30
0.0
 11
1102.651138565687
 21
-1639.721339318286
 31
0.0
  0
LINE
  5
273
330
A
100
AcDbEntity
  8
1
  6
Continuous
 62
     7
100
AcDbLine
 10
1097.653138565687
 20
-1648.267919318286
 30
0.0
 11
1097.653138565687
 21
-1658.763719318286
 31
0.0
  0
LINE
  5
272
330
A
100
AcDbEntity
  8
1
  6
Continuous
 62
     7
100
AcDbLine
 10
1096.653538565687
 20
-1648.267919318286
 30
0.0
 11
1079.360458565687
 21
-1648.267919318286
 31
0.0
  0
LINE
  5
271
330
A
100
AcDbEntity
  8
1
  6
Continuous
 62
     7
100
AcDbLine
 10
1079.360458565687
 20
-1648.267919318286
 30
0.0
 11
1079.360458565687
 21
-1658.763719318286
 31
0.0
  0
LINE
  5
270
330
A
100
AcDbEntity
  8
1
  6
Continuous
 62
     7
100
AcDbLine
 10
1079.360458565687
 20
-1658.763719318286
 30
0.0
 11
1096.653538565687
 21
-1658.763719318286
 31
0.0
  0
LINE
  5
26F
330
A
100
AcDbEntity
  8
1
  6
Continuous
 62
     7
100
AcDbLine
 10
1096.653538565687
 20
-1658.763719318286
 30
0.0
 11
1096.653538565687
 21
-1648.267919318286
 31
0.0
  0
LINE
  5
26E
330
A
100
AcDbEntity
  8
1
  6
Continuous
 62
     7
100
AcDbLine
 10
1096.653538565687
 20
-1649.517419318286
 30
0.0
 11
1097.653138565687
 21
-1649.517419318286
 31
0.0
  0
LINE
  5
26D
330
A
100
AcDbEntity
  8
1
  6
Continuous
 62
     7
100
AcDbLine
 10
1097.653138565687
 20
-1657.514219318286
 30
0.0
 11
1096.653538565687
 21
-1657.514219318286
 31
0.0
  0
LINE
  5
26C
330
A
100
AcDbEntity
  8
1
  6
Continuous
 62
     2
100
AcDbLine
 10
1096.653538565687
 20
-1648.767719318286
 30
0.0
 11
1079.360458565687
 21
-1648.767719318286
 31
0.0
  0
LINE
  5
26B
330
A
100
AcDbEntity
  8
1
  6
Continuous
 62
     2
100
AcDbLine
 10
1096.653538565687
 20
-1649.767319318286
 30
0.0
 11
1079.360458565687
 21
-1649.767319318286
 31
0.0
  0
LINE
  5
26A
330
A
100
AcDbEntity
  8
1
  6
Continuous
 62
     2
100
AcDbLine
 10
1096.653538565687
 20
-1651.766519318286
 30
0.0
 11
1079.360458565687
 21
-1651.766519318286
 31
0.0
  0
LINE
  5
269
330
A
100
AcDbEntity
  8
1
  6
Continuous
 62
     2
100
AcDbLine
 10
1096.653538565687
 20
-1652.766119318286
 30
0.0
 11
1079.360458565687
 21
-1652.766119318286
 31
0.0
  0
LINE
  5
268
330
A
100
AcDbEntity
  8
1
  6
Continuous
 62
     2
100
AcDbLine
 10
1096.653538565687
 20
-1655.764919318286
 30
0.0
 11
1079.360458565687
 21
-1655.764919318286
 31
0.0
  0
LINE
  5
267
330
A
100
AcDbEntity
  8
1
  6
Continuous
 62
     2
100
AcDbLine
 10
1096.653538565687
 20
-1654.765319318286
 30
0.0
 11
1079.360458565687
 21
-1654.765319318286
 31
0.0
  0
LINE
  5
266
330
A
100
AcDbEntity
  8
1
  6
Continuous
 62
     2
100
AcDbLine
 10
1096.653538565687
 20
-1657.764119318286
 30
0.0
 11
1079.360458565687
 21
-1657.764119318286
 31
0.0
  0
LINE
  5
265
330
A
100
AcDbEntity
  8
1
  6
Continuous
 62
     7
100
AcDbLine
 10
1102.651138565687
 20
-1648.267919318286
 30
0.0
 11
1097.653138565687
 21
-1648.267919318286
 31
0.0
  0
LINE
  5
264
330
A
100
AcDbEntity
  8
1
  6
Continuous
 62
     7
100
AcDbLine
 10
1097.653138565687
 20
-1658.763719318286
 30
0.0
 11
1102.651138565687
 21
-1658.763719318286
 31
0.0
  0
LINE
  5
263
330
A
100
AcDbEntity
  8
1
  6
Continuous
 62
     7
100
AcDbLine
 10
1097.653138565687
 20
-1549.672323470766
 30
0.0
 11
1097.653138565687
 21
-1560.168123470766
 31
0.0
  0
LINE
  5
262
330
A
100
AcDbEntity
  8
1
  6
Continuous
 62
     7
100
AcDbLine
 10
1096.653538565687
 20
-1549.672323470766
 30
0.0
 11
1079.360458565687
 21
-1549.672323470766
 31
0.0
  0
LINE
  5
261
330
A
100
AcDbEntity
  8
1
  6
Continuous
 62
     7
100
AcDbLine
 10
1079.360458565687
 20
-1549.672323470766
 30
0.0
 11
1079.360458565687
 21
-1560.168123470766
 31
0.0
  0
LINE
  5
260
330
A
100
AcDbEntity
  8
1
  6
Continuous
 62
     7
100
AcDbLine
 10
1079.360458565687
 20
-1560.168123470766
 30
0.0
 11
1096.653538565687
 21
-1560.168123470766
 31
0.0
  0
LINE
  5
25F
330
A
100
AcDbEntity
  8
1
  6
Continuous
 62
     7
100
AcDbLine
 10
1096.653538565687
 20
-1560.168123470766
 30
0.0
 11
1096.653538565687
 21
-1549.672323470766
 31
0.0
  0
LINE
  5
25E
330
A
100
AcDbEntity
  8
1
  6
Continuous
 62
     7
100
AcDbLine
 10
1096.653538565687
 20
-1550.921823470766
 30
0.0
 11
1097.653138565687
 21
-1550.921823470766
 31
0.0
  0
LINE
  5
25D
330
A
100
AcDbEntity
  8
1
  6
Continuous
 62
     7
100
AcDbLine
 10
1097.653138565687
 20
-1558.918623470766
 30
0.0
 11
1096.653538565687
 21
-1558.918623470766
 31
0.0
  0
LINE
  5
25C
330
A
100
AcDbEntity
  8
1
  6
Continuous
 62
     2
100
AcDbLine
 10
1096.653538565687
 20
-1550.172123470766
 30
0.0
 11
1079.360458565687
 21
-1550.172123470766
 31
0.0
  0
LINE
  5
25B
330
A
100
AcDbEntity
  8
1
  6
Continuous
 62
     2
100
AcDbLine
 10
1096.653538565687
 20
-1551.171723470766
 30
0.0
 11
1079.360458565687
 21
-1551.171723470766
 31
0.0
  0
LINE
  5
25A
330
A
100
AcDbEntity
  8
1
  6
Continuous
 62
     2
100
AcDbLine
 10
1096.653538565687
 20
-1553.170923470766
 30
0.0
 11
1079.360458565687
 21
-1553.170923470766
 31
0.0
  0
LINE
  5
259
330
A
100
AcDbEntity
  8
1
  6
Continuous
 62
     2
100
AcDbLine
 10
1096.653538565687
 20
-1554.170523470766
 30
0.0
 11
1079.360458565687
 21
-1554.170523470766
 31
0.0
  0
LINE
  5
258
330
A
100
AcDbEntity
  8
1
  6
Continuous
 62
     2
100
AcDbLine
 10
1096.653538565687
 20
-1557.169323470766
 30
0.0
 11
1079.360458565687
 21
-1557.169323470766
 31
0.0
  0
LINE
  5
257
330
A
100
AcDbEntity
  8
1
  6
Continuous
 62
     2
100
AcDbLine
 10
1096.653538565687
 20
-1556.169723470766
 30
0.0
 11
1079.360458565687
 21
-1556.169723470766
 31
0.0
  0
LINE
  5
256
330
A
100
AcDbEntity
  8
1
  6
Continuous
 62
     2
100
AcDbLine
 10
1096.653538565687
 20
-1559.168523470766
 30
0.0
 11
1079.360458565687
 21
-1559.168523470766
 31
0.0
  0
LINE
  5
255
330
A
100
AcDbEntity
  8
1
  6
Continuous
 62
     7
100
AcDbLine
 10
1102.651138565687
 20
-1549.672323470766
 30
0.0
 11
1097.653138565687
 21
-1549.672323470766
 31
0.0
  0
LINE
  5
254
330
A
100
AcDbEntity
  8
1
  6
Continuous
 62
     7
100
AcDbLine
 10
1097.653138565687
 20
-1560.168123470766
 30
0.0
 11
1102.651138565687
 21
-1560.168123470766
 31
0.0
  0
LINE
  5
253
330
A
100
AcDbEntity
  8
1
  6
Continuous
 62
     2
100
AcDbLine
 10
1085.657938565687
 20
-1692.396969695739
 30
0.0
 11
1087.542256718735
 21
-1692.396969695739
 31
0.0
  0
LINE
  5
252
330
A
100
AcDbEntity
  8
1
  6
Continuous
 62
     2
100
AcDbLine
 10
1085.657938565687
 20
-1692.996729695739
 30
0.0
 11
1087.698051227906
 21
-1692.996729695739
 31
0.0
  0
LINE
  5
251
330
A
100
AcDbEntity
  8
1
  6
Continuous
 62
     2
100
AcDbLine
 10
1085.657938565687
 20
-1693.596489695739
 30
0.0
 11
1087.853845737076
 21
-1693.596489695739
 31
0.0
  0
LINE
  5
250
330
A
100
AcDbEntity
  8
1
  6
Continuous
 62
     2
100
AcDbLine
 10
1085.657938565687
 20
-1694.196249695739
 30
0.0
 11
1088.009640246247
 21
-1694.196249695739
 31
0.0
  0
LINE
  5
24F
330
A
100
AcDbEntity
  8
1
  6
Continuous
 62
     2
100
AcDbLine
 10
1085.657938565687
 20
-1694.796009695739
 30
0.0
 11
1088.165434755417
 21
-1694.796009695739
 31
0.0
  0
LINE
  5
24E
330
A
100
AcDbEntity
  8
1
  6
Continuous
 62
     2
100
AcDbLine
 10
1085.657938565687
 20
-1695.395769695739
 30
0.0
 11
1088.321229264588
 21
-1695.395769695738
 31
0.0
  0
LINE
  5
24D
330
A
100
AcDbEntity
  8
1
  6
Continuous
 62
     2
100
AcDbLine
 10
1088.656738565687
 20
-1685.699649695739
 30
0.0
 11
1088.656738565687
 21
-1695.695649695738
 31
0.0
  0
LINE
  5
24C
330
A
100
AcDbEntity
  8
1
  6
Continuous
 62
     2
100
AcDbLine
 10
1085.657938565687
 20
-1691.697249695738
 30
0.0
 11
1085.657938565687
 21
-1695.695649695739
 31
0.0
  0
LINE
  5
24B
330
A
100
AcDbEntity
  8
1
  6
Continuous
 62
     2
100
AcDbLine
 10
1085.657938565687
 20
-1689.698049695739
 30
0.0
 11
1085.657938565687
 21
-1685.699649695739
 31
0.0
  0
LINE
  5
24A
330
A
100
AcDbEntity
  8
1
  6
Continuous
 62
     7
100
AcDbLine
 10
1085.158138565687
 20
-1695.195849695739
 30
0.0
 11
1085.657938565687
 21
-1695.695649695739
 31
0.0
  0
LINE
  5
249
330
A
100
AcDbEntity
  8
1
  6
Continuous
 62
     7
100
AcDbLine
 10
1088.656738565687
 20
-1695.695649695738
 30
0.0
 11
1089.156538565687
 21
-1695.195849695739
 31
0.0
  0
LINE
  5
248
330
A
100
AcDbEntity
  8
1
  6
Continuous
 62
     7
100
AcDbLine
 10
1089.156538565687
 20
-1686.199449695738
 30
0.0
 11
1088.656738565687
 21
-1685.699649695739
 31
0.0
  0
LINE
  5
247
330
A
100
AcDbEntity
  8
1
  6
Continuous
 62
     7
100
AcDbLine
 10
1085.657938565687
 20
-1685.699649695739
 30
0.0
 11
1085.158138565687
 21
-1686.199449695738
 31
0.0
  0
LINE
  5
246
330
A
100
AcDbEntity
  8
1
  6
Continuous
 62
     7
100
AcDbLine
 10
1085.158138565687
 20
-1691.697249695738
 30
0.0
 11
1086.657538565687
 21
-1691.697249695738
 31
0.0
  0
LINE
  5
245
330
A
100
AcDbEntity
  8
1
  6
Continuous
 62
     7
100
AcDbLine
 10
1086.657538565687
 20
-1691.697249695738
 30
0.0
 11
1086.657538565687
 21
-1689.698049695739
 31
0.0
  0
LINE
  5
244
330
A
100
AcDbEntity
  8
1
  6
Continuous
 62
     7
100
AcDbLine
 10
1086.657538565687
 20
-1689.698049695739
 30
0.0
 11
1085.158138565687
 21
-1689.698049695739
 31
0.0
  0
LINE
  5
243
330
A
100
AcDbEntity
  8
1
  6
Continuous
 62
     7
100
AcDbLine
 10
1085.158138565687
 20
-1686.199449695738
 30
0.0
 11
1085.158138565687
 21
-1689.698049695739
 31
0.0
  0
LINE
  5
242
330
A
100
AcDbEntity
  8
1
  6
Continuous
 62
     7
100
AcDbLine
 10
1085.158138565687
 20
-1691.697249695738
 30
0.0
 11
1085.158138565687
 21
-1695.195849695739
 31
0.0
  0
LINE
  5
241
330
A
100
AcDbEntity
  8
1
  6
Continuous
 62
     7
100
AcDbLine
 10
1085.657938565687
 20
-1695.695649695739
 30
0.0
 11
1088.656738565687
 21
-1695.695649695738
 31
0.0
  0
LINE
  5
240
330
A
100
AcDbEntity
  8
1
  6
Continuous
 62
     7
100
AcDbLine
 10
1089.156538565687
 20
-1695.195849695739
 30
0.0
 11
1089.156538565687
 21
-1686.199449695738
 31
0.0
  0
LINE
  5
23F
330
A
100
AcDbEntity
  8
1
  6
Continuous
 62
     7
100
AcDbLine
 10
1088.656738565687
 20
-1685.699649695739
 30
0.0
 11
1085.657938565687
 21
-1685.699649695739
 31
0.0
  0
LINE
  5
23E
330
A
100
AcDbEntity
  8
1
  6
Continuous
 62
     7
100
AcDbLine
 10
1089.156538565687
 20
-1692.197049695738
 30
0.0
 11
1091.155738565687
 21
-1692.197049695738
 31
0.0
  0
LINE
  5
23D
330
A
100
AcDbEntity
  8
1
  6
Continuous
 62
     7
100
AcDbLine
 10
1089.156538565687
 20
-1689.198249695738
 30
0.0
 11
1091.155738565687
 21
-1689.198249695738
 31
0.0
  0
LINE
  5
23C
330
A
100
AcDbEntity
  8
1
  6
Continuous
 62
     2
100
AcDbLine
 10
1091.655538565687
 20
-1695.695649695738
 30
0.0
 11
1091.655538565687
 21
-1685.699649695739
 31
0.0
  0
LINE
  5
23B
330
A
100
AcDbEntity
  8
1
  6
Continuous
 62
     7
100
AcDbLine
 10
1091.655538565687
 20
-1695.695649695738
 30
0.0
 11
1091.155738565687
 21
-1695.195849695739
 31
0.0
  0
LINE
  5
23A
330
A
100
AcDbEntity
  8
1
  6
Continuous
 62
     7
100
AcDbLine
 10
1091.655538565687
 20
-1685.699649695739
 30
0.0
 11
1091.155738565687
 21
-1686.199449695738
 31
0.0
  0
LINE
  5
239
330
A
100
AcDbEntity
  8
1
  6
Continuous
 62
     7
100
AcDbLine
 10
1091.155738565687
 20
-1686.199449695738
 30
0.0
 11
1091.155738565687
 21
-1695.195849695739
 31
0.0
  0
LINE
  5
238
330
A
100
AcDbEntity
  8
1
  6
Continuous
 62
     7
100
AcDbLine
 10
1091.655538565687
 20
-1695.695649695738
 30
0.0
 11
1097.653138565687
 21
-1695.695649695738
 31
0.0
  0
LINE
  5
237
330
A
100
AcDbEntity
  8
1
  6
Continuous
 62
     7
100
AcDbLine
 10
1102.651138565687
 20
-1685.699649695739
 30
0.0
 11
1091.655538565687
 21
-1685.699649695739
 31
0.0
  0
LINE
  5
236
330
A
100
AcDbEntity
  8
1
  6
Continuous
 62
     7
100
AcDbLine
 10
1025.794399327776
 20
-1691.660162592847
 30
0.0
 11
1016.000359540232
 21
-1691.660162592847
 31
0.0
  0
LINE
  5
235
330
A
100
AcDbEntity
  8
1
  6
Continuous
 62
     7
100
AcDbLine
 10
1016.000359540232
 20
-1689.660962592847
 30
0.0
 11
1025.794399327776
 21
-1689.660962592847
 31
0.0
  0
LINE
  5
234
330
A
100
AcDbEntity
  8
1
  6
Continuous
 62
     7
100
AcDbLine
 10
1102.651138565687
 20
-1726.133469695738
 30
0.0
 11
1099.152538565687
 21
-1726.133469695738
 31
0.0
  0
LINE
  5
233
330
A
100
AcDbEntity
  8
1
  6
Continuous
 62
     7
100
AcDbLine
 10
1102.651138565687
 20
-1703.742429695738
 30
0.0
 11
1099.152538565687
 21
-1703.742429695738
 31
0.0
  0
LINE
  5
232
330
A
100
AcDbEntity
  8
1
  6
Continuous
 62
     7
100
AcDbLine
 10
1097.153338565687
 20
-1705.741629695738
 30
0.0
 11
1097.153338565687
 21
-1724.134269695738
 31
0.0
  0
LINE
  5
231
330
A
100
AcDbEntity
  8
1
  6
Continuous
 62
     7
100
AcDbLine
 10
1100.651938565687
 20
-1703.742429695738
 30
0.0
 11
1100.651938565687
 21
-1726.133469695738
 31
0.0
  0
LINE
  5
230
330
A
100
AcDbEntity
  8
1
  6
Continuous
 62
     7
100
AcDbLine
 10
1042.888579434004
 20
-1714.937949695739
 30
0.0
 11
1044.887779434004
 21
-1714.937949695739
 31
0.0
  0
LINE
  5
22F
330
A
100
AcDbEntity
  8
1
  6
DASH_CENTER
 62
     7
100
AcDbLine
 10
1037.890579434004
 20
-1714.937949695739
 30
0.0
 11
1035.891379434004
 21
-1714.937949695739
 31
0.0
  0
LINE
  5
22E
330
A
100
AcDbEntity
  8
1
  6
DASH_CENTER
 62
     7
100
AcDbLine
 10
1030.893379434004
 20
-1714.937949695739
 30
0.0
 11
1028.894179434004
 21
-1714.937949695739
 31
0.0
  0
LINE
  5
22D
330
A
100
AcDbEntity
  8
1
  6
Continuous
 62
     7
100
AcDbLine
 10
1024.895779434004
 20
-1707.740829695738
 30
0.0
 11
1024.895779434004
 21
-1722.135069695738
 31
0.0
  0
LINE
  5
22C
330
A
100
AcDbEntity
  8
1
  6
Continuous
 62
     7
100
AcDbLine
 10
1025.895379434004
 20
-1723.134669695738
 30
0.0
 11
1047.886579434004
 21
-1723.134669695738
 31
0.0
  0
LINE
  5
22B
330
A
100
AcDbEntity
  8
1
  6
Continuous
 62
     7
100
AcDbLine
 10
1048.886179434004
 20
-1722.135069695738
 30
0.0
 11
1048.886179434004
 21
-1707.740829695738
 31
0.0
  0
LINE
  5
22A
330
A
100
AcDbEntity
  8
1
  6
Continuous
 62
     7
100
AcDbLine
 10
1047.886579434004
 20
-1706.741229695738
 30
0.0
 11
1025.895379434004
 21
-1706.741229695738
 31
0.0
  0
LINE
  5
229
330
A
100
AcDbEntity
  8
1
  6
Continuous
 62
     7
100
AcDbLine
 10
1021.896979434004
 20
-1707.740829695738
 30
0.0
 11
1021.896979434004
 21
-1722.135069695738
 31
0.0
  0
LINE
  5
228
330
A
100
AcDbEntity
  8
1
  6
Continuous
 62
     7
100
AcDbLine
 10
1025.895379434004
 20
-1726.133469695738
 30
0.0
 11
1047.886579434004
 21
-1726.133469695738
 31
0.0
  0
LINE
  5
227
330
A
100
AcDbEntity
  8
1
  6
Continuous
 62
     7
100
AcDbLine
 10
1051.884979434004
 20
-1722.135069695738
 30
0.0
 11
1051.884979434004
 21
-1707.740829695738
 31
0.0
  0
LINE
  5
226
330
A
100
AcDbEntity
  8
1
  6
Continuous
 62
     7
100
AcDbLine
 10
1047.886579434004
 20
-1703.742429695738
 30
0.0
 11
1025.895379434004
 21
-1703.742429695738
 31
0.0
  0
LINE
  5
225
330
A
100
AcDbEntity
  8
1
  6
Continuous
 62
     7
100
AcDbLine
 10
1050.547920655526
 20
-1704.756794598318
 30
0.0
 11
1059.363234509296
 21
-1711.801783673111
 31
0.0
  0
LINE
  5
224
330
A
100
AcDbEntity
  8
1
  6
Continuous
 62
     7
100
AcDbLine
 10
1059.154989874325
 20
-1718.228112475765
 30
0.0
 11
1050.384654943599
 21
-1725.257059655421
 31
0.0
  0
LINE
  5
223
330
A
100
AcDbEntity
  8
1
  6
Continuous
 62
     7
100
AcDbLine
 10
1023.488776181067
 20
-1704.547796131406
 30
0.0
 11
1014.199516761462
 21
-1711.988355852587
 31
0.0
  0
LINE
  5
222
330
A
100
AcDbEntity
  8
1
  6
Continuous
 62
     7
100
AcDbLine
 10
1014.67086835501
 20
-1718.257998427257
 30
0.0
 11
1023.373192110277
 21
-1725.237612791979
 31
0.0
  0
LINE
  5
221
330
A
100
AcDbEntity
  8
1
  6
Continuous
 62
     7
100
AcDbLine
 10
1018.029897735563
 20
-1713.807031394179
 30
0.0
 11
1015.768061132446
 21
-1716.068867997296
 31
0.0
  0
LINE
  5
220
330
A
100
AcDbEntity
  8
1
  6
Continuous
 62
     7
100
AcDbLine
 10
1018.029897735563
 20
-1716.068867997296
 30
0.0
 11
1015.768061132446
 21
-1713.807031394179
 31
0.0
  0
LINE
  5
21F
330
A
100
AcDbEntity
  8
1
  6
Continuous
 62
     7
100
AcDbLine
 10
1055.752061132446
 20
-1713.807031394179
 30
0.0
 11
1058.013897735563
 21
-1716.068867997296
 31
0.0
  0
LINE
  5
21E
330
A
100
AcDbEntity
  8
1
  6
Continuous
 62
     7
100
AcDbLine
 10
1058.013897735563
 20
-1713.807031394179
 30
0.0
 11
1055.752061132446
 21
-1716.068867997296
 31
0.0
  0
LINE
  5
21D
330
A
100
AcDbEntity
  8
1
  6
Continuous
 62
     7
100
AcDbLine
 10
1035.891379434004
 20
-1718.936349695738
 30
0.0
 11
1035.891379434004
 21
-1714.937949695739
 31
0.0
  0
LINE
  5
21C
330
A
100
AcDbEntity
  8
1
  6
Continuous
 62
     7
100
AcDbLine
 10
1037.890579434004
 20
-1714.937949695739
 30
0.0
 11
1037.890579434004
 21
-1718.936349695738
 31
0.0
  0
LINE
  5
21B
330
A
100
AcDbEntity
  8
1
  6
Continuous
 62
     7
100
AcDbLine
 10
1037.890579434004
 20
-1718.936349695738
 30
0.0
 11
1035.891379434004
 21
-1718.936349695738
 31
0.0
  0
LINE
  5
21A
330
A
100
AcDbEntity
  8
1
  6
Continuous
 62
     7
100
AcDbLine
 10
1042.888579434004
 20
-1714.937949695739
 30
0.0
 11
1042.888579434004
 21
-1710.939549695738
 31
0.0
  0
LINE
  5
219
330
A
100
AcDbEntity
  8
1
  6
Continuous
 62
     7
100
AcDbLine
 10
1042.888579434004
 20
-1710.939549695738
 30
0.0
 11
1044.887779434004
 21
-1710.939549695738
 31
0.0
  0
LINE
  5
218
330
A
100
AcDbEntity
  8
1
  6
Continuous
 62
     7
100
AcDbLine
 10
1044.887779434004
 20
-1710.939549695738
 30
0.0
 11
1044.887779434004
 21
-1714.937949695739
 31
0.0
  0
LINE
  5
217
330
A
100
AcDbEntity
  8
1
  6
Continuous
 62
     7
100
AcDbLine
 10
1028.894179434004
 20
-1710.939549695738
 30
0.0
 11
1028.894179434004
 21
-1714.937949695739
 31
0.0
  0
LINE
  5
216
330
A
100
AcDbEntity
  8
1
  6
Continuous
 62
     7
100
AcDbLine
 10
1030.893379434004
 20
-1714.937949695739
 30
0.0
 11
1030.893379434004
 21
-1710.939549695738
 31
0.0
  0
LINE
  5
215
330
A
100
AcDbEntity
  8
1
  6
Continuous
 62
     7
100
AcDbLine
 10
1030.893379434004
 20
-1710.939549695738
 30
0.0
 11
1028.894179434004
 21
-1710.939549695738
 31
0.0
  0
LINE
  5
214
330
A
100
AcDbEntity
  8
1
  6
Continuous
 62
     7
100
AcDbLine
 10
1403.126040792069
 20
-1737.628869695738
 30
0.0
 11
1452.606240792069
 21
-1737.628869695738
 31
0.0
  0
LINE
  5
1FC
330
A
100
AcDbEntity
  8
1
  6
Continuous
 62
     7
100
AcDbLine
 10
1451.106840792069
 20
-1729.307627837648
 30
0.0
 11
1433.114040792069
 21
-1729.307627837648
 31
0.0
  0
LINE
  5
1FB
330
A
100
AcDbEntity
  8
1
  6
Continuous
 62
     7
100
AcDbLine
 10
1433.114040792069
 20
-1736.304827837649
 30
0.0
 11
1451.106840792069
 21
-1736.304827837649
 31
0.0
  0
LINE
  5
1FA
330
A
100
AcDbEntity
  8
1
  6
Continuous
 62
     7
100
AcDbLine
 10
1451.106840792069
 20
-1736.304827837649
 30
0.0
 11
1451.106840792069
 21
-1729.307627837648
 31
0.0
  0
LINE
  5
1F9
330
A
100
AcDbEntity
  8
1
  6
Continuous
 62
     7
100
AcDbLine
 10
1433.114040792069
 20
-1729.307627837648
 30
0.0
 11
1433.114040792069
 21
-1736.304827837649
 31
0.0
  0
LINE
  5
1F8
330
A
100
AcDbEntity
  8
1
  6
Continuous
 62
     2
100
AcDbLine
 10
1425.23512230005
 20
-1735.069407892693
 30
0.0
 11
1426.406072248718
 21
-1733.971644443805
 31
0.0
  0
LINE
  5
1F7
330
A
100
AcDbEntity
  8
1
  6
Continuous
 62
     2
100
AcDbLine
 10
1426.26062257068
 20
-1736.163276968468
 30
0.0
 11
1427.431572519349
 21
-1735.065513519579
 31
0.0
  0
LINE
  5
1F6
330
A
100
AcDbEntity
  8
1
  6
Continuous
 62
     2
100
AcDbLine
 10
1430.497159284087
 20
-1732.191531498784
 30
0.0
 11
1429.326209335419
 21
-1733.28929494767
 31
0.0
  0
LINE
  5
1F5
330
A
100
AcDbEntity
  8
1
  6
Continuous
 62
     2
100
AcDbLine
 10
1424.860318217344
 20
-1735.420786039092
 30
0.0
 11
1425.23512230005
 21
-1735.069407892693
 31
0.0
  0
LINE
  5
1F4
330
A
100
AcDbEntity
  8
1
  6
Continuous
 62
     2
100
AcDbLine
 10
1425.885818487975
 20
-1736.514655114866
 30
0.0
 11
1426.26062257068
 21
-1736.163276968468
 31
0.0
  0
LINE
  5
1F3
330
A
100
AcDbEntity
  8
1
  6
Continuous
 62
     2
100
AcDbLine
 10
1428.300709064789
 20
-1732.195425871897
 30
0.0
 11
1429.846463096163
 21
-1730.74628427661
 31
0.0
  0
LINE
  5
1F2
330
A
100
AcDbEntity
  8
1
  6
Continuous
 62
     2
100
AcDbLine
 10
1430.871963366792
 20
-1731.840153352385
 30
0.0
 11
1430.497159284087
 21
-1732.191531498784
 31
0.0
  0
LINE
  5
1F1
330
A
100
AcDbEntity
  8
1
  6
Continuous
 62
     2
100
AcDbLine
 10
1429.326209335419
 20
-1733.28929494767
 30
0.0
 11
1428.861241850945
 21
-1733.725201119372
 31
0.0
  0
LINE
  5
1F0
330
A
100
AcDbEntity
  8
1
  6
Continuous
 62
     2
100
AcDbLine
 10
1428.300709064789
 20
-1732.195425871897
 30
0.0
 11
1427.835741580315
 21
-1732.631332043598
 31
0.0
  0
LINE
  5
1EF
330
A
100
AcDbEntity
  8
1
  6
Continuous
 62
     2
100
AcDbLine
 10
1426.871039733194
 20
-1733.535738272104
 30
0.0
 11
1426.406072248718
 21
-1733.971644443805
 31
0.0
  0
LINE
  5
1EE
330
A
100
AcDbEntity
  8
1
  6
Continuous
 62
     2
100
AcDbLine
 10
1427.866140792069
 20
-1734.630069695738
 30
0.0
 11
1427.431572519349
 21
-1735.065513519579
 31
0.0
  0
LINE
  5
1ED
330
A
100
AcDbEntity
  8
1
  6
Continuous
 62
     7
100
AcDbLine
 10
1403.126040792069
 20
-1594.686069695738
 30
0.0
 11
1403.126040792069
 21
-1737.628869695738
 31
0.0
  0
LINE
  5
1EC
330
A
100
AcDbEntity
  8
1
  6
Continuous
 62
     7
100
AcDbLine
 10
1452.606240792069
 20
-1737.628869695738
 30
0.0
 11
1452.606240792069
 21
-1594.686069695738
 31
0.0
  0
LINE
  5
1EB
330
A
100
AcDbEntity
  8
1
  6
Continuous
 62
     2
100
AcDbLine
 10
1441.110840792069
 20
-1596.685269695738
 30
0.0
 11
1449.607440792068
 21
-1596.685269695738
 31
0.0
  0
LINE
  5
1EA
330
A
100
AcDbEntity
  8
1
  6
Continuous
 62
     2
100
AcDbLine
 10
1449.607440792068
 20
-1596.685269695738
 30
0.0
 11
1449.607440792068
 21
-1602.183069695738
 31
0.0
  0
LINE
  5
1E9
330
A
100
AcDbEntity
  8
1
  6
Continuous
 62
     2
100
AcDbLine
 10
1449.607440792068
 20
-1602.183069695738
 30
0.0
 11
1441.110840792069
 21
-1602.183069695738
 31
0.0
  0
LINE
  5
1E8
330
A
100
AcDbEntity
  8
1
  6
Continuous
 62
     2
100
AcDbLine
 10
1441.110840792069
 20
-1602.183069695738
 30
0.0
 11
1441.110840792069
 21
-1596.685269695738
 31
0.0
  0
LINE
  5
1E7
330
A
100
AcDbEntity
  8
1
  6
Continuous
 62
     2
100
AcDbLine
 10
1420.619040792069
 20
-1596.261152965576
 30
0.0
 11
1404.625440792068
 21
-1596.261152965576
 31
0.0
  0
LINE
  5
1E6
330
A
100
AcDbEntity
  8
1
  6
Continuous
 62
     2
100
AcDbLine
 10
1404.625440792068
 20
-1596.261152965576
 30
0.0
 11
1404.625440792068
 21
-1602.758552965577
 31
0.0
  0
LINE
  5
1E5
330
A
100
AcDbEntity
  8
1
  6
Continuous
 62
     2
100
AcDbLine
 10
1404.625440792068
 20
-1602.758552965577
 30
0.0
 11
1420.619040792069
 21
-1602.758552965577
 31
0.0
  0
LINE
  5
1E4
330
A
100
AcDbEntity
  8
1
  6
Continuous
 62
     2
100
AcDbLine
 10
1420.619040792069
 20
-1602.758552965577
 30
0.0
 11
1420.619040792069
 21
-1596.261152965576
 31
0.0
  0
LINE
  5
1E3
330
A
100
AcDbEntity
  8
1
  6
Continuous
 62
     2
100
AcDbLine
 10
1425.23512230005
 20
-1600.123407892693
 30
0.0
 11
1426.406072248718
 21
-1599.025644443805
 31
0.0
  0
LINE
  5
1E2
330
A
100
AcDbEntity
  8
1
  6
Continuous
 62
     2
100
AcDbLine
 10
1426.26062257068
 20
-1601.217276968468
 30
0.0
 11
1427.431572519349
 21
-1600.11951351958
 31
0.0
  0
LINE
  5
1E1
330
A
100
AcDbEntity
  8
1
  6
Continuous
 62
     2
100
AcDbLine
 10
1430.497159284087
 20
-1597.245531498783
 30
0.0
 11
1429.326209335419
 21
-1598.343294947671
 31
0.0
  0
LINE
  5
1E0
330
A
100
AcDbEntity
  8
1
  6
Continuous
 62
     2
100
AcDbLine
 10
1424.860318217344
 20
-1600.474786039091
 30
0.0
 11
1425.23512230005
 21
-1600.123407892693
 31
0.0
  0
LINE
  5
1DF
330
A
100
AcDbEntity
  8
1
  6
Continuous
 62
     2
100
AcDbLine
 10
1425.885818487975
 20
-1601.568655114866
 30
0.0
 11
1426.26062257068
 21
-1601.217276968468
 31
0.0
  0
LINE
  5
1DE
330
A
100
AcDbEntity
  8
1
  6
Continuous
 62
     2
100
AcDbLine
 10
1428.300709064789
 20
-1597.249425871896
 30
0.0
 11
1429.846463096163
 21
-1595.80028427661
 31
0.0
  0
LINE
  5
1DD
330
A
100
AcDbEntity
  8
1
  6
Continuous
 62
     2
100
AcDbLine
 10
1430.871963366792
 20
-1596.894153352385
 30
0.0
 11
1430.497159284087
 21
-1597.245531498783
 31
0.0
  0
LINE
  5
1DC
330
A
100
AcDbEntity
  8
1
  6
Continuous
 62
     2
100
AcDbLine
 10
1429.326209335419
 20
-1598.343294947671
 30
0.0
 11
1428.861241850945
 21
-1598.779201119373
 31
0.0
  0
LINE
  5
1DB
330
A
100
AcDbEntity
  8
1
  6
Continuous
 62
     2
100
AcDbLine
 10
1428.300709064789
 20
-1597.249425871896
 30
0.0
 11
1427.835741580315
 21
-1597.685332043598
 31
0.0
  0
LINE
  5
1DA
330
A
100
AcDbEntity
  8
1
  6
Continuous
 62
     2
100
AcDbLine
 10
1426.871039733194
 20
-1598.589738272104
 30
0.0
 11
1426.406072248718
 21
-1599.025644443805
 31
0.0
  0
LINE
  5
1D9
330
A
100
AcDbEntity
  8
1
  6
Continuous
 62
     2
100
AcDbLine
 10
1427.866140792069
 20
-1599.684069695738
 30
0.0
 11
1427.431572519349
 21
-1600.11951351958
 31
0.0
  0
LINE
  5
1D8
330
A
100
AcDbEntity
  8
1
  6
Continuous
 62
     7
100
AcDbLine
 10
1452.606240792069
 20
-1594.686069695738
 30
0.0
 11
1403.126040792069
 21
-1594.686069695738
 31
0.0
  0
LINE
  5
1D7
330
A
100
AcDbEntity
  8
1
  6
Continuous
 62
     7
100
AcDbLine
 10
1350.653138565687
 20
-1569.130623470765
 30
0.0
 11
1349.653538565687
 21
-1569.130623470766
 31
0.0
  0
LINE
  5
1D6
330
A
100
AcDbEntity
  8
1
  6
Continuous
 62
     7
100
AcDbLine
 10
1350.653138565687
 20
-1522.149423470765
 30
0.0
 11
1349.653538565687
 21
-1522.149423470766
 31
0.0
  0
LINE
  5
1D5
330
A
100
AcDbEntity
  8
1
  6
Continuous
 62
     7
100
AcDbLine
 10
1357.150538565687
 20
-1542.141665413844
 30
0.0
 11
1355.651138565687
 21
-1542.141665413844
 31
0.0
  0
LINE
  5
1D4
330
A
100
AcDbEntity
  8
1
  6
Continuous
 62
     7
100
AcDbLine
 10
1357.650338565687
 20
-1548.635655637466
 30
0.0
 11
1357.650338565687
 21
-1542.641465413844
 31
0.0
  0
LINE
  5
1D3
330
A
100
AcDbEntity
  8
1
  6
Continuous
 62
     7
100
AcDbLine
 10
1357.650338565687
 20
-1542.641465413844
 30
0.0
 11
1357.150538565687
 21
-1542.141665413844
 31
0.0
  0
LINE
  5
1D2
330
A
100
AcDbEntity
  8
1
  6
Continuous
 62
     7
100
AcDbLine
 10
1357.650338565687
 20
-1548.635655637466
 30
0.0
 11
1357.150538565687
 21
-1549.135455637466
 31
0.0
  0
LINE
  5
1D1
330
A
100
AcDbEntity
  8
1
  6
Continuous
 62
     2
100
AcDbLine
 10
1355.651138565687
 20
-1549.135455637466
 30
0.0
 11
1355.651138565687
 21
-1542.141665413844
 31
0.0
  0
LINE
  5
1D0
330
A
100
AcDbEntity
  8
1
  6
Continuous
 62
     7
100
AcDbLine
 10
1355.651138565687
 20
-1549.135455637466
 30
0.0
 11
1357.150538565687
 21
-1549.135455637466
 31
0.0
  0
LINE
  5
1CF
330
A
100
AcDbEntity
  8
1
  6
Continuous
 62
     7
100
AcDbLine
 10
1357.150538565687
 20
-1730.132111638817
 30
0.0
 11
1355.651138565687
 21
-1730.132111638817
 31
0.0
  0
LINE
  5
1CE
330
A
100
AcDbEntity
  8
1
  6
Continuous
 62
     7
100
AcDbLine
 10
1357.650338565687
 20
-1736.626101862439
 30
0.0
 11
1357.650338565687
 21
-1730.631911638817
 31
0.0
  0
LINE
  5
1CD
330
A
100
AcDbEntity
  8
1
  6
Continuous
 62
     2
100
AcDbLine
 10
1355.651138565687
 20
-1730.132111638817
 30
0.0
 11
1355.651138565687
 21
-1737.125901862438
 31
0.0
  0
LINE
  5
1CC
330
A
100
AcDbEntity
  8
1
  6
Continuous
 62
     2
100
AcDbLine
 10
1357.150538565687
 20
-1730.132111638817
 30
0.0
 11
1357.150538565687
 21
-1737.125901862438
 31
0.0
  0
LINE
  5
1CB
330
A
100
AcDbEntity
  8
1
  6
Continuous
 62
     7
100
AcDbLine
 10
1355.651138565687
 20
-1737.125901862438
 30
0.0
 11
1357.150538565687
 21
-1737.125901862438
 31
0.0
  0
LINE
  5
1CA
330
A
100
AcDbEntity
  8
1
  6
Continuous
 62
     7
100
AcDbLine
 10
1357.650338565687
 20
-1730.631911638817
 30
0.0
 11
1357.150538565687
 21
-1730.132111638817
 31
0.0
  0
LINE
  5
1C9
330
A
100
AcDbEntity
  8
1
  6
Continuous
 62
     7
100
AcDbLine
 10
1357.650338565687
 20
-1736.626101862439
 30
0.0
 11
1357.150538565687
 21
-1737.125901862438
 31
0.0
  0
LINE
  5
1C8
330
A
100
AcDbEntity
  8
1
  6
Continuous
 62
     2
100
AcDbLine
 10
1355.651138565687
 20
-1737.125901862438
 30
0.0
 11
1355.651138565687
 21
-1730.132111638817
 31
0.0
  0
LINE
  5
1C7
330
A
100
AcDbEntity
  8
1
  6
Continuous
 62
     7
100
AcDbLine
 10
1357.150538565687
 20
-1595.186111638816
 30
0.0
 11
1355.651138565687
 21
-1595.186111638816
 31
0.0
  0
LINE
  5
1C6
330
A
100
AcDbEntity
  8
1
  6
Continuous
 62
     7
100
AcDbLine
 10
1357.650338565687
 20
-1601.680101862439
 30
0.0
 11
1357.650338565687
 21
-1595.685911638817
 31
0.0
  0
LINE
  5
1C5
330
A
100
AcDbEntity
  8
1
  6
Continuous
 62
     7
100
AcDbLine
 10
1357.650338565687
 20
-1595.685911638817
 30
0.0
 11
1357.150538565687
 21
-1595.186111638816
 31
0.0
  0
LINE
  5
1C4
330
A
100
AcDbEntity
  8
1
  6
Continuous
 62
     7
100
AcDbLine
 10
1357.650338565687
 20
-1601.680101862439
 30
0.0
 11
1357.150538565687
 21
-1602.179901862439
 31
0.0
  0
LINE
  5
1C3
330
A
100
AcDbEntity
  8
1
  6
Continuous
 62
     2
100
AcDbLine
 10
1355.651138565687
 20
-1602.179901862439
 30
0.0
 11
1355.651138565687
 21
-1595.186111638816
 31
0.0
  0
LINE
  5
1C2
330
A
100
AcDbEntity
  8
1
  6
Continuous
 62
     7
100
AcDbLine
 10
1350.653138565687
 20
-1737.628869695738
 30
0.0
 11
1350.653138565687
 21
-1731.131469695738
 31
0.0
  0
LINE
  5
1C1
330
A
100
AcDbEntity
  8
1
  6
Continuous
 62
     7
100
AcDbLine
 10
1355.651138565687
 20
-1737.628869695738
 30
0.0
 11
1350.653138565687
 21
-1737.628869695738
 31
0.0
  0
LINE
  5
1C0
330
A
100
AcDbEntity
  8
1
  6
Continuous
 62
     7
100
AcDbLine
 10
1350.653138565687
 20
-1594.686069695738
 30
0.0
 11
1355.651138565687
 21
-1594.686069695738
 31
0.0
  0
LINE
  5
1BF
330
A
100
AcDbEntity
  8
1
  6
Continuous
 62
     7
100
AcDbLine
 10
1355.651138565687
 20
-1594.686069695738
 30
0.0
 11
1355.651138565687
 21
-1602.179901862439
 31
0.0
  0
LINE
  5
1BE
330
A
100
AcDbEntity
  8
1
  6
Continuous
 62
     7
100
AcDbLine
 10
1350.653138565687
 20
-1594.686069695738
 30
0.0
 11
1350.653138565687
 21
-1731.131469695738
 31
0.0
  0
LINE
  5
1BD
330
A
100
AcDbEntity
  8
1
  6
Continuous
 62
     7
100
AcDbLine
 10
1023.396379434004
 20
-1669.012783208048
 30
0.0
 11
1023.396379434004
 21
-1668.156669695738
 31
0.0
  0
LINE
  5
1BC
330
A
100
AcDbEntity
  8
1
  6
Continuous
 62
     7
100
AcDbLine
 10
1023.396379434004
 20
-1668.156669695738
 30
0.0
 11
1025.395579434004
 21
-1668.156669695738
 31
0.0
  0
LINE
  5
1BB
330
A
100
AcDbEntity
  8
1
  6
Continuous
 62
     7
100
AcDbLine
 10
1025.395579434004
 20
-1668.156669695738
 30
0.0
 11
1025.395579434004
 21
-1669.012783208048
 31
0.0
  0
LINE
  5
1BA
330
A
100
AcDbEntity
  8
1
  6
Continuous
 62
     7
100
AcDbLine
 10
1023.396379434004
 20
-1678.296156183428
 30
0.0
 11
1023.396379434004
 21
-1679.152269695738
 31
0.0
  0
LINE
  5
1B9
330
A
100
AcDbEntity
  8
1
  6
Continuous
 62
     7
100
AcDbLine
 10
1023.396379434004
 20
-1679.152269695738
 30
0.0
 11
1025.395579434004
 21
-1679.152269695738
 31
0.0
  0
LINE
  5
1B8
330
A
100
AcDbEntity
  8
1
  6
Continuous
 62
     7
100
AcDbLine
 10
1025.395579434004
 20
-1679.152269695738
 30
0.0
 11
1025.395579434004
 21
-1678.296156183428
 31
0.0
  0
LINE
  5
1B7
330
A
100
AcDbEntity
  8
1
  6
Continuous
 62
     7
100
AcDbLine
 10
1048.386379434004
 20
-1669.012783208048
 30
0.0
 11
1048.386379434004
 21
-1668.156669695738
 31
0.0
  0
LINE
  5
1B6
330
A
100
AcDbEntity
  8
1
  6
Continuous
 62
     7
100
AcDbLine
 10
1048.386379434004
 20
-1668.156669695738
 30
0.0
 11
1050.385579434004
 21
-1668.156669695738
 31
0.0
  0
LINE
  5
1B5
330
A
100
AcDbEntity
  8
1
  6
Continuous
 62
     7
100
AcDbLine
 10
1050.385579434004
 20
-1668.156669695738
 30
0.0
 11
1050.385579434004
 21
-1669.012783208048
 31
0.0
  0
LINE
  5
1B4
330
A
100
AcDbEntity
  8
1
  6
Continuous
 62
     7
100
AcDbLine
 10
1048.386379434004
 20
-1678.296156183428
 30
0.0
 11
1048.386379434004
 21
-1679.152269695738
 31
0.0
  0
LINE
  5
1B3
330
A
100
AcDbEntity
  8
1
  6
Continuous
 62
     7
100
AcDbLine
 10
1048.386379434004
 20
-1679.152269695738
 30
0.0
 11
1050.385579434004
 21
-1679.152269695738
 31
0.0
  0
LINE
  5
1B2
330
A
100
AcDbEntity
  8
1
  6
Continuous
 62
     7
100
AcDbLine
 10
1050.385579434004
 20
-1679.152269695738
 30
0.0
 11
1050.385579434004
 21
-1678.296156183428
 31
0.0
  0
LINE
  5
1B1
330
A
100
AcDbEntity
  8
1
  6
Continuous
 62
     7
100
AcDbLine
 10
1091.655538565687
 20
-1668.906369695738
 30
0.0
 11
1091.655538565687
 21
-1678.402569695738
 31
0.0
  0
LINE
  5
1B0
330
A
100
AcDbEntity
  8
1
  6
Continuous
 62
     7
100
AcDbLine
 10
1094.654338565687
 20
-1668.906369695738
 30
0.0
 11
1091.655538565687
 21
-1668.906369695738
 31
0.0
  0
LINE
  5
1AF
330
A
100
AcDbEntity
  8
1
  6
Continuous
 62
     7
100
AcDbLine
 10
1096.653538565687
 20
-1678.402569695738
 30
0.0
 11
1102.651138565687
 21
-1678.402569695738
 31
0.0
  0
LINE
  5
1AE
330
A
100
AcDbEntity
  8
1
  6
Continuous
 62
     7
100
AcDbLine
 10
1094.654338565687
 20
-1679.402169695738
 30
0.0
 11
1094.654338565687
 21
-1678.402569695738
 31
0.0
  0
LINE
  5
1AD
330
A
100
AcDbEntity
  8
1
  6
Continuous
 62
     7
100
AcDbLine
 10
1096.653538565687
 20
-1679.402169695738
 30
0.0
 11
1094.654338565687
 21
-1679.402169695738
 31
0.0
  0
LINE
  5
1AC
330
A
100
AcDbEntity
  8
1
  6
Continuous
 62
     7
100
AcDbLine
 10
1096.653538565687
 20
-1678.402569695738
 30
0.0
 11
1096.653538565687
 21
-1679.402169695738
 31
0.0
  0
LINE
  5
1AB
330
A
100
AcDbEntity
  8
1
  6
Continuous
 62
     7
100
AcDbLine
 10
1094.654338565687
 20
-1667.906769695738
 30
0.0
 11
1094.654338565687
 21
-1668.906369695738
 31
0.0
  0
LINE
  5
1AA
330
A
100
AcDbEntity
  8
1
  6
Continuous
 62
     7
100
AcDbLine
 10
1096.653538565687
 20
-1667.906769695738
 30
0.0
 11
1094.654338565687
 21
-1667.906769695738
 31
0.0
  0
LINE
  5
1A9
330
A
100
AcDbEntity
  8
1
  6
Continuous
 62
     7
100
AcDbLine
 10
1096.653538565687
 20
-1668.906369695738
 30
0.0
 11
1096.653538565687
 21
-1667.906769695738
 31
0.0
  0
LINE
  5
1A8
330
A
100
AcDbEntity
  8
1
  6
Continuous
 62
     7
100
AcDbLine
 10
1094.654338565687
 20
-1678.402569695738
 30
0.0
 11
1096.653538565687
 21
-1678.402569695738
 31
0.0
  0
LINE
  5
1A7
330
A
100
AcDbEntity
  8
1
  6
Continuous
 62
     7
100
AcDbLine
 10
1091.655538565687
 20
-1678.402569695738
 30
0.0
 11
1094.654338565687
 21
-1678.402569695738
 31
0.0
  0
LINE
  5
1A6
330
A
100
AcDbEntity
  8
1
  6
Continuous
 62
     7
100
AcDbLine
 10
1102.651138565687
 20
-1668.906369695738
 30
0.0
 11
1096.653538565687
 21
-1668.906369695738
 31
0.0
  0
LINE
  5
1A5
330
A
100
AcDbEntity
  8
1
  6
Continuous
 62
     7
100
AcDbLine
 10
1096.653538565687
 20
-1668.906369695738
 30
0.0
 11
1094.654338565687
 21
-1668.906369695738
 31
0.0
  0
LINE
  5
1A4
330
A
100
AcDbEntity
  8
1
  6
Continuous
 62
     7
100
AcDbLine
 10
1355.651138565687
 20
-1595.186111638816
 30
0.0
 11
1355.651138565687
 21
-1737.628869695738
 31
0.0
  0
LINE
  5
1A3
330
A
100
AcDbEntity
  8
1
  6
Continuous
 62
     7
100
AcDbLine
 10
1355.651138565687
 20
-1602.179901862439
 30
0.0
 11
1357.150538565687
 21
-1602.179901862439
 31
0.0
  0
LINE
  5
1A2
330
A
100
AcDbEntity
  8
1
  6
Continuous
 62
     7
100
AcDbLine
 10
1013.150479434004
 20
-1613.678469695738
 30
0.0
 11
1013.150479434004
 21
-1729.632069695738
 31
0.0
  0
LINE
  5
1A1
330
A
100
AcDbEntity
  8
1
  6
Continuous
 62
     7
100
AcDbLine
 10
1060.631479434004
 20
-1612.678869695738
 30
0.0
 11
1060.631479434004
 21
-1603.182669695738
 31
0.0
  0
LINE
  5
1A0
330
A
100
AcDbEntity
  8
1
  6
Continuous
 62
     7
100
AcDbLine
 10
1350.653138565687
 20
-1728.632469695739
 30
0.0
 11
1350.653138565687
 21
-1605.681669695737
 31
0.0
  0
LINE
  5
19F
330
A
100
AcDbEntity
  8
1
  6
Continuous
 62
     7
100
AcDbLine
 10
1013.150479434004
 20
-1729.632069695738
 30
0.0
 11
1031.892979434004
 21
-1729.632069695738
 31
0.0
  0
LINE
  5
19E
330
A
100
AcDbEntity
  8
1
  6
Continuous
 62
     7
100
AcDbLine
 10
1013.150479434004
 20
-1603.182669695738
 30
0.0
 11
1013.150479434004
 21
-1612.678869695738
 31
0.0
  0
LINE
  5
19D
330
A
100
AcDbEntity
  8
1
  6
Continuous
 62
     7
100
AcDbLine
 10
1060.631479434004
 20
-1729.632069695738
 30
0.0
 11
1060.631479434004
 21
-1613.678469695738
 31
0.0
  0
LINE
  5
19C
330
A
100
AcDbEntity
  8
1
  6
Continuous
 62
     7
100
AcDbLine
 10
1060.631479434004
 20
-1603.182669695738
 30
0.0
 11
1013.150479434004
 21
-1603.182669695738
 31
0.0
  0
LINE
  5
19B
330
A
100
AcDbEntity
  8
1
  6
Continuous
 62
     7
100
AcDbLine
 10
1019.597899434004
 20
-1702.236468519176
 30
0.0
 11
1022.196859434004
 21
-1702.236468519176
 31
0.0
  0
LINE
  5
19A
330
A
100
AcDbEntity
  8
1
  6
Continuous
 62
     7
100
AcDbLine
 10
1018.598299434004
 20
-1700.986968519176
 30
0.0
 11
1023.196459434004
 21
-1700.986968519176
 31
0.0
  0
LINE
  5
199
330
A
100
AcDbEntity
  8
1
  6
Continuous
 62
     7
100
AcDbLine
 10
1017.598699434004
 20
-1699.737468519175
 30
0.0
 11
1024.196059434004
 21
-1699.737468519175
 31
0.0
  0
LINE
  5
198
330
A
100
AcDbEntity
  8
1
  6
Continuous
 62
     7
100
AcDbLine
 10
1020.897379434004
 20
-1699.737468519175
 30
0.0
 11
1020.897379434004
 21
-1696.658162592847
 31
0.0
  0
LINE
  5
197
330
A
100
AcDbEntity
  8
1
  6
Continuous
 62
     7
100
AcDbLine
 10
1031.892979434004
 20
-1729.632069695738
 30
0.0
 11
1031.892979434004
 21
-1726.633269695738
 31
0.0
  0
LINE
  5
196
330
A
100
AcDbEntity
  8
1
  6
Continuous
 62
     7
100
AcDbLine
 10
1031.892979434004
 20
-1726.633269695738
 30
0.0
 11
1041.888979434004
 21
-1726.633269695738
 31
0.0
  0
LINE
  5
195
330
A
100
AcDbEntity
  8
1
  6
Continuous
 62
     7
100
AcDbLine
 10
1041.888979434004
 20
-1726.633269695738
 30
0.0
 11
1041.888979434004
 21
-1729.632069695738
 31
0.0
  0
LINE
  5
194
330
A
100
AcDbEntity
  8
1
  6
Continuous
 62
     7
100
AcDbLine
 10
1041.888979434004
 20
-1729.632069695738
 30
0.0
 11
1060.631479434004
 21
-1729.632069695738
 31
0.0
  0
LINE
  5
193
330
A
100
AcDbEntity
  8
1
  6
Continuous
 62
     7
100
AcDbLine
 10
1198.725624309424
 20
-1729.632069695738
 30
0.0
 11
1104.650338565687
 21
-1729.632069695738
 31
0.0
  0
LINE
  5
192
330
A
100
AcDbEntity
  8
1
  6
Continuous
 62
     7
100
AcDbLine
 10
1198.725624309424
 20
-1602.183069695738
 30
0.0
 11
1102.651138565687
 21
-1602.183069695738
 31
0.0
  0
LINE
  5
191
330
A
100
AcDbEntity
  8
1
  6
Continuous
 62
     7
100
AcDbLine
 10
1198.896117864678
 20
-1570.130223470766
 30
0.0
 11
1349.653538565687
 21
-1570.130223470766
 31
0.0
  0
LINE
  5
190
330
A
100
AcDbEntity
  8
1
  6
Continuous
 62
     7
100
AcDbLine
 10
1211.805405855196
 20
-1521.149823470766
 30
0.0
 11
1102.651138565687
 21
-1521.149823470766
 31
0.0
  0
LINE
  5
18F
330
A
100
AcDbEntity
  8
1
  6
Continuous
 62
     7
100
AcDbLine
 10
1012.150879434004
 20
-1594.686069695738
 30
0.0
 11
1061.631079434004
 21
-1594.686069695738
 31
0.0
  0
LINE
  5
18E
330
A
100
AcDbEntity
  8
1
  6
Continuous
 62
     7
100
AcDbLine
 10
1061.631079434004
 20
-1594.686069695738
 30
0.0
 11
1061.631079434004
 21
-1737.628869695738
 31
0.0
  0
LINE
  5
18D
330
A
100
AcDbEntity
  8
1
  6
Continuous
 62
     7
100
AcDbLine
 10
1061.631079434004
 20
-1737.628869695738
 30
0.0
 11
1012.150879434004
 21
-1737.628869695738
 31
0.0
  0
LINE
  5
18C
330
A
100
AcDbEntity
  8
1
  6
Continuous
 62
     7
100
AcDbLine
 10
1012.150879434004
 20
-1737.628869695738
 30
0.0
 11
1012.150879434004
 21
-1594.686069695738
 31
0.0
  0
LINE
  5
18B
330
A
100
AcDbEntity
  8
1
  6
Continuous
 62
     7
100
AcDbLine
 10
1056.242508886613
 20
-1694.555379148347
 30
0.0
 11
1054.524649981395
 21
-1692.837520243128
 31
0.0
  0
LINE
  5
18A
330
A
100
AcDbEntity
  8
1
  6
Continuous
 62
     7
100
AcDbLine
 10
1054.524649981395
 20
-1694.555379148347
 30
0.0
 11
1056.242508886613
 21
-1692.837520243128
 31
0.0
  0
LINE
  5
189
330
A
100
AcDbEntity
  8
1
  6
Continuous
 62
     7
100
AcDbLine
 10
1031.262504886613
 20
-1692.837520243128
 30
0.0
 11
1029.544645981395
 21
-1694.555379148347
 31
0.0
  0
LINE
  5
188
330
A
100
AcDbEntity
  8
1
  6
Continuous
 62
     7
100
AcDbLine
 10
1029.544645981395
 20
-1692.837520243128
 30
0.0
 11
1031.262504886613
 21
-1694.555379148347
 31
0.0
  0
LINE
  5
187
330
A
100
AcDbEntity
  8
1
  6
Continuous
 62
     7
100
AcDbLine
 10
1034.797201774182
 20
-1692.10938113253
 30
0.0
 11
1035.470501412862
 21
-1695.92785313253
 31
0.0
  0
LINE
  5
186
330
A
100
AcDbEntity
  8
1
  6
Continuous
 62
     7
100
AcDbLine
 10
1037.439329072684
 20
-1697.579895695738
 30
0.0
 11
1048.347825795324
 21
-1697.579895695738
 31
0.0
  0
LINE
  5
185
330
A
100
AcDbEntity
  8
1
  6
Continuous
 62
     7
100
AcDbLine
 10
1050.316653455146
 20
-1695.92785313253
 30
0.0
 11
1050.989953093826
 21
-1692.10938113253
 31
0.0
  0
LINE
  5
184
330
A
100
AcDbEntity
  8
1
  6
Continuous
 62
     7
100
AcDbLine
 10
1049.021125434004
 20
-1689.763023695738
 30
0.0
 11
1036.766029434004
 21
-1689.763023695738
 31
0.0
  0
LINE
  5
183
330
A
100
AcDbEntity
  8
1
  6
Continuous
 62
     7
100
AcDbLine
 10
1015.149679434004
 20
-1606.181469695737
 30
0.0
 11
1015.149679434004
 21
-1603.182669695738
 31
0.0
  0
LINE
  5
182
330
A
100
AcDbEntity
  8
1
  6
Continuous
 62
     7
100
AcDbLine
 10
1014.150079434004
 20
-1606.181469695737
 30
0.0
 11
1015.149679434004
 21
-1606.181469695737
 31
0.0
  0
LINE
  5
181
330
A
100
AcDbEntity
  8
1
  6
Continuous
 62
     7
100
AcDbLine
 10
1058.632279434004
 20
-1603.182669695738
 30
0.0
 11
1015.149679434004
 21
-1603.182669695738
 31
0.0
  0
LINE
  5
180
330
A
100
AcDbEntity
  8
1
  6
Continuous
 62
     7
100
AcDbLine
 10
1058.632279434004
 20
-1606.181469695739
 30
0.0
 11
1058.632279434004
 21
-1603.182669695738
 31
0.0
  0
LINE
  5
17F
330
A
100
AcDbEntity
  8
1
  6
Continuous
 62
     7
100
AcDbLine
 10
1059.631879434004
 20
-1606.181469695739
 30
0.0
 11
1058.632279434004
 21
-1606.181469695739
 31
0.0
  0
LINE
  5
17E
330
A
100
AcDbEntity
  8
1
  6
Continuous
 62
     2
100
AcDbLine
 10
1033.892179434004
 20
-1698.694449695738
 30
0.0
 11
1033.892179434004
 21
-1688.698449695738
 31
0.0
  0
LINE
  5
17D
330
A
100
AcDbEntity
  8
1
  6
Continuous
 62
     2
100
AcDbLine
 10
1051.884979434004
 20
-1688.698449695738
 30
0.0
 11
1051.884979434004
 21
-1698.694449695738
 31
0.0
  0
LINE
  5
17C
330
A
100
AcDbEntity
  8
1
  6
Continuous
 62
     7
100
AcDbLine
 10
1013.150479434004
 20
-1606.181469695737
 30
0.0
 11
1013.150479434004
 21
-1729.632069695738
 31
0.0
  0
LINE
  5
17B
330
A
100
AcDbEntity
  8
1
  6
Continuous
 62
     7
100
AcDbLine
 10
1013.150479434004
 20
-1606.181469695737
 30
0.0
 11
1014.150079434004
 21
-1606.181469695737
 31
0.0
  0
LINE
  5
17A
330
A
100
AcDbEntity
  8
1
  6
Continuous
 62
     7
100
AcDbLine
 10
1060.631479434004
 20
-1606.181469695737
 30
0.0
 11
1059.631879434004
 21
-1606.181469695739
 31
0.0
  0
LINE
  5
179
330
A
100
AcDbEntity
  8
1
  6
Continuous
 62
     7
100
AcDbLine
 10
1013.150479434004
 20
-1729.632069695738
 30
0.0
 11
1031.892979434004
 21
-1729.632069695738
 31
0.0
  0
LINE
  5
178
330
A
100
AcDbEntity
  8
1
  6
Continuous
 62
     7
100
AcDbLine
 10
1060.631479434004
 20
-1729.632069695738
 30
0.0
 11
1060.631479434004
 21
-1606.181469695737
 31
0.0
  0
LINE
  5
177
330
A
100
AcDbEntity
  8
1
  6
Continuous
 62
     7
100
AcDbLine
 10
1031.892979434004
 20
-1729.632069695738
 30
0.0
 11
1031.892979434004
 21
-1726.633269695738
 31
0.0
  0
LINE
  5
176
330
A
100
AcDbEntity
  8
1
  6
Continuous
 62
     7
100
AcDbLine
 10
1031.892979434004
 20
-1726.633269695738
 30
0.0
 11
1041.888979434004
 21
-1726.633269695738
 31
0.0
  0
LINE
  5
175
330
A
100
AcDbEntity
  8
1
  6
Continuous
 62
     7
100
AcDbLine
 10
1041.888979434004
 20
-1726.633269695738
 30
0.0
 11
1041.888979434004
 21
-1729.632069695738
 31
0.0
  0
LINE
  5
174
330
A
100
AcDbEntity
  8
1
  6
Continuous
 62
     7
100
AcDbLine
 10
1041.888979434004
 20
-1729.632069695738
 30
0.0
 11
1060.631479434004
 21
-1729.632069695738
 31
0.0
  0
LINE
  5
15F
330
A
100
AcDbEntity
  8
1
  6
Continuous
 62
     7
100
AcDbLine
 10
1102.651138565687
 20
-1689.763023695738
 30
0.0
 11
1098.652738565687
 21
-1689.763023695738
 31
0.0
  0
LINE
  5
15E
330
A
100
AcDbEntity
  8
1
  6
Continuous
 62
     7
100
AcDbLine
 10
1098.652738565687
 20
-1697.579895695738
 30
0.0
 11
1102.651138565687
 21
-1697.579895695738
 31
0.0
  0
LINE
  5
15D
330
A
100
AcDbEntity
  8
1
  6
Continuous
 62
     7
100
AcDbLine
 10
1097.653138565687
 20
-1690.762623695738
 30
0.0
 11
1097.653138565687
 21
-1696.580295695738
 31
0.0
  0
LINE
  5
15C
330
A
100
AcDbEntity
  8
1
  6
Continuous
 62
     7
100
AcDbLine
 10
1033.897177434004
 20
-1698.669459695738
 30
0.0
 11
1051.889977434004
 21
-1698.669459695738
 31
0.0
  0
LINE
  5
15B
330
A
100
AcDbEntity
  8
1
  6
Continuous
 62
     7
100
AcDbLine
 10
1033.897177434004
 20
-1688.673459695738
 30
0.0
 11
1033.897177434004
 21
-1698.669459695738
 31
0.0
  0
LINE
  5
15A
330
A
100
AcDbEntity
  8
1
  6
Continuous
 62
     7
100
AcDbLine
 10
1051.889977434004
 20
-1688.673459695738
 30
0.0
 11
1033.897177434004
 21
-1688.673459695738
 31
0.0
  0
LINE
  5
159
330
A
100
AcDbEntity
  8
1
  6
Continuous
 62
     7
100
AcDbLine
 10
1051.889977434004
 20
-1698.669459695738
 30
0.0
 11
1051.889977434004
 21
-1688.673459695738
 31
0.0
  0
LINE
  5
158
330
A
100
AcDbEntity
  8
1
  6
Continuous
 62
     2
100
AcDbLine
 10
1441.110840792069
 20
-1596.799549847623
 30
0.0
 11
1449.607440792068
 21
-1596.799549847623
 31
0.0
  0
LINE
  5
157
330
A
100
AcDbEntity
  8
1
  6
Continuous
 62
     2
100
AcDbLine
 10
1441.110840792069
 20
-1596.913829999507
 30
0.0
 11
1449.607440792068
 21
-1596.913829999507
 31
0.0
  0
LINE
  5
156
330
A
100
AcDbEntity
  8
1
  6
Continuous
 62
     2
100
AcDbLine
 10
1441.110840792069
 20
-1597.028110151391
 30
0.0
 11
1449.607440792068
 21
-1597.028110151391
 31
0.0
  0
LINE
  5
155
330
A
100
AcDbEntity
  8
1
  6
Continuous
 62
     2
100
AcDbLine
 10
1441.110840792069
 20
-1597.142390303274
 30
0.0
 11
1449.607440792068
 21
-1597.142390303274
 31
0.0
  0
LINE
  5
154
330
A
100
AcDbEntity
  8
1
  6
Continuous
 62
     2
100
AcDbLine
 10
1441.110840792069
 20
-1597.256670455159
 30
0.0
 11
1449.607440792068
 21
-1597.256670455159
 31
0.0
  0
LINE
  5
153
330
A
100
AcDbEntity
  8
1
  6
Continuous
 62
     2
100
AcDbLine
 10
1441.110840792069
 20
-1597.370950607043
 30
0.0
 11
1449.607440792068
 21
-1597.370950607043
 31
0.0
  0
LINE
  5
152
330
A
100
AcDbEntity
  8
1
  6
Continuous
 62
     2
100
AcDbLine
 10
1441.110840792069
 20
-1597.485230758927
 30
0.0
 11
1449.607440792068
 21
-1597.485230758927
 31
0.0
  0
LINE
  5
151
330
A
100
AcDbEntity
  8
1
  6
Continuous
 62
     2
100
AcDbLine
 10
1441.110840792069
 20
-1597.599510910812
 30
0.0
 11
1449.607440792068
 21
-1597.599510910812
 31
0.0
  0
LINE
  5
150
330
A
100
AcDbEntity
  8
1
  6
Continuous
 62
     2
100
AcDbLine
 10
1441.110840792069
 20
-1597.713791062696
 30
0.0
 11
1449.607440792068
 21
-1597.713791062696
 31
0.0
  0
LINE
  5
14F
330
A
100
AcDbEntity
  8
1
  6
Continuous
 62
     2
100
AcDbLine
 10
1441.110840792069
 20
-1597.828071214579
 30
0.0
 11
1449.607440792068
 21
-1597.828071214579
 31
0.0
  0
LINE
  5
14E
330
A
100
AcDbEntity
  8
1
  6
Continuous
 62
     2
100
AcDbLine
 10
1441.110840792069
 20
-1597.942351366464
 30
0.0
 11
1449.607440792068
 21
-1597.942351366464
 31
0.0
  0
LINE
  5
14D
330
A
100
AcDbEntity
  8
1
  6
Continuous
 62
     2
100
AcDbLine
 10
1441.110840792069
 20
-1598.056631518348
 30
0.0
 11
1449.607440792068
 21
-1598.056631518348
 31
0.0
  0
LINE
  5
14C
330
A
100
AcDbEntity
  8
1
  6
Continuous
 62
     2
100
AcDbLine
 10
1441.110840792069
 20
-1598.170911670232
 30
0.0
 11
1449.607440792068
 21
-1598.170911670232
 31
0.0
  0
LINE
  5
14B
330
A
100
AcDbEntity
  8
1
  6
Continuous
 62
     2
100
AcDbLine
 10
1441.110840792069
 20
-1598.285191822116
 30
0.0
 11
1449.607440792068
 21
-1598.285191822116
 31
0.0
  0
LINE
  5
14A
330
A
100
AcDbEntity
  8
1
  6
Continuous
 62
     2
100
AcDbLine
 10
1441.110840792069
 20
-1598.399471974
 30
0.0
 11
1449.607440792068
 21
-1598.399471974
 31
0.0
  0
LINE
  5
149
330
A
100
AcDbEntity
  8
1
  6
Continuous
 62
     2
100
AcDbLine
 10
1441.110840792069
 20
-1598.513752125884
 30
0.0
 11
1449.607440792068
 21
-1598.513752125884
 31
0.0
  0
LINE
  5
148
330
A
100
AcDbEntity
  8
1
  6
Continuous
 62
     2
100
AcDbLine
 10
1441.110840792069
 20
-1598.628032277769
 30
0.0
 11
1449.607440792068
 21
-1598.628032277769
 31
0.0
  0
LINE
  5
147
330
A
100
AcDbEntity
  8
1
  6
Continuous
 62
     2
100
AcDbLine
 10
1441.110840792069
 20
-1598.742312429653
 30
0.0
 11
1449.607440792068
 21
-1598.742312429653
 31
0.0
  0
LINE
  5
146
330
A
100
AcDbEntity
  8
1
  6
Continuous
 62
     2
100
AcDbLine
 10
1441.110840792069
 20
-1598.856592581536
 30
0.0
 11
1449.607440792068
 21
-1598.856592581536
 31
0.0
  0
LINE
  5
145
330
A
100
AcDbEntity
  8
1
  6
Continuous
 62
     2
100
AcDbLine
 10
1441.110840792069
 20
-1598.970872733421
 30
0.0
 11
1449.607440792068
 21
-1598.970872733421
 31
0.0
  0
LINE
  5
144
330
A
100
AcDbEntity
  8
1
  6
Continuous
 62
     2
100
AcDbLine
 10
1441.110840792069
 20
-1599.085152885305
 30
0.0
 11
1449.607440792068
 21
-1599.085152885305
 31
0.0
  0
LINE
  5
143
330
A
100
AcDbEntity
  8
1
  6
Continuous
 62
     2
100
AcDbLine
 10
1441.110840792069
 20
-1599.199433037189
 30
0.0
 11
1449.607440792068
 21
-1599.199433037189
 31
0.0
  0
LINE
  5
142
330
A
100
AcDbEntity
  8
1
  6
Continuous
 62
     2
100
AcDbLine
 10
1441.110840792069
 20
-1599.313713189073
 30
0.0
 11
1449.607440792068
 21
-1599.313713189073
 31
0.0
  0
LINE
  5
141
330
A
100
AcDbEntity
  8
1
  6
Continuous
 62
     2
100
AcDbLine
 10
1441.110840792069
 20
-1599.427993340958
 30
0.0
 11
1449.607440792068
 21
-1599.427993340958
 31
0.0
  0
LINE
  5
140
330
A
100
AcDbEntity
  8
1
  6
Continuous
 62
     2
100
AcDbLine
 10
1441.110840792069
 20
-1599.542273492841
 30
0.0
 11
1449.607440792068
 21
-1599.542273492841
 31
0.0
  0
LINE
  5
13F
330
A
100
AcDbEntity
  8
1
  6
Continuous
 62
     2
100
AcDbLine
 10
1441.110840792069
 20
-1599.656553644726
 30
0.0
 11
1449.607440792068
 21
-1599.656553644726
 31
0.0
  0
LINE
  5
13E
330
A
100
AcDbEntity
  8
1
  6
Continuous
 62
     2
100
AcDbLine
 10
1441.110840792069
 20
-1599.77083379661
 30
0.0
 11
1449.607440792068
 21
-1599.77083379661
 31
0.0
  0
LINE
  5
13D
330
A
100
AcDbEntity
  8
1
  6
Continuous
 62
     2
100
AcDbLine
 10
1441.110840792069
 20
-1599.885113948494
 30
0.0
 11
1449.607440792068
 21
-1599.885113948494
 31
0.0
  0
LINE
  5
13C
330
A
100
AcDbEntity
  8
1
  6
Continuous
 62
     2
100
AcDbLine
 10
1441.110840792069
 20
-1599.999394100378
 30
0.0
 11
1449.607440792068
 21
-1599.999394100378
 31
0.0
  0
LINE
  5
13B
330
A
100
AcDbEntity
  8
1
  6
Continuous
 62
     2
100
AcDbLine
 10
1441.110840792069
 20
-1600.113674252262
 30
0.0
 11
1449.607440792068
 21
-1600.113674252262
 31
0.0
  0
LINE
  5
13A
330
A
100
AcDbEntity
  8
1
  6
Continuous
 62
     2
100
AcDbLine
 10
1441.110840792069
 20
-1600.227954404146
 30
0.0
 11
1449.607440792068
 21
-1600.227954404146
 31
0.0
  0
LINE
  5
139
330
A
100
AcDbEntity
  8
1
  6
Continuous
 62
     2
100
AcDbLine
 10
1441.110840792069
 20
-1600.34223455603
 30
0.0
 11
1449.607440792068
 21
-1600.34223455603
 31
0.0
  0
LINE
  5
138
330
A
100
AcDbEntity
  8
1
  6
Continuous
 62
     2
100
AcDbLine
 10
1441.110840792069
 20
-1600.456514707914
 30
0.0
 11
1449.607440792068
 21
-1600.456514707914
 31
0.0
  0
LINE
  5
137
330
A
100
AcDbEntity
  8
1
  6
Continuous
 62
     2
100
AcDbLine
 10
1441.110840792069
 20
-1600.570794859799
 30
0.0
 11
1449.607440792068
 21
-1600.570794859799
 31
0.0
  0
LINE
  5
136
330
A
100
AcDbEntity
  8
1
  6
Continuous
 62
     2
100
AcDbLine
 10
1441.110840792069
 20
-1600.685075011683
 30
0.0
 11
1449.607440792068
 21
-1600.685075011683
 31
0.0
  0
LINE
  5
135
330
A
100
AcDbEntity
  8
1
  6
Continuous
 62
     2
100
AcDbLine
 10
1441.110840792069
 20
-1600.799355163567
 30
0.0
 11
1449.607440792068
 21
-1600.799355163567
 31
0.0
  0
LINE
  5
134
330
A
100
AcDbEntity
  8
1
  6
Continuous
 62
     2
100
AcDbLine
 10
1441.110840792069
 20
-1600.913635315451
 30
0.0
 11
1449.607440792068
 21
-1600.913635315451
 31
0.0
  0
LINE
  5
133
330
A
100
AcDbEntity
  8
1
  6
Continuous
 62
     2
100
AcDbLine
 10
1441.110840792069
 20
-1601.027915467335
 30
0.0
 11
1449.607440792068
 21
-1601.027915467335
 31
0.0
  0
LINE
  5
132
330
A
100
AcDbEntity
  8
1
  6
Continuous
 62
     2
100
AcDbLine
 10
1441.110840792069
 20
-1601.142195619219
 30
0.0
 11
1449.607440792068
 21
-1601.142195619219
 31
0.0
  0
LINE
  5
131
330
A
100
AcDbEntity
  8
1
  6
Continuous
 62
     2
100
AcDbLine
 10
1441.110840792069
 20
-1601.256475771102
 30
0.0
 11
1449.607440792068
 21
-1601.256475771102
 31
0.0
  0
LINE
  5
130
330
A
100
AcDbEntity
  8
1
  6
Continuous
 62
     2
100
AcDbLine
 10
1441.110840792069
 20
-1601.370755922987
 30
0.0
 11
1449.607440792068
 21
-1601.370755922987
 31
0.0
  0
LINE
  5
12F
330
A
100
AcDbEntity
  8
1
  6
Continuous
 62
     2
100
AcDbLine
 10
1441.110840792069
 20
-1601.485036074872
 30
0.0
 11
1449.607440792068
 21
-1601.485036074872
 31
0.0
  0
LINE
  5
12E
330
A
100
AcDbEntity
  8
1
  6
Continuous
 62
     2
100
AcDbLine
 10
1441.110840792069
 20
-1601.599316226755
 30
0.0
 11
1449.607440792068
 21
-1601.599316226755
 31
0.0
  0
LINE
  5
12D
330
A
100
AcDbEntity
  8
1
  6
Continuous
 62
     2
100
AcDbLine
 10
1441.110840792069
 20
-1601.71359637864
 30
0.0
 11
1449.607440792068
 21
-1601.71359637864
 31
0.0
  0
LINE
  5
12C
330
A
100
AcDbEntity
  8
1
  6
Continuous
 62
     2
100
AcDbLine
 10
1441.110840792069
 20
-1601.827876530524
 30
0.0
 11
1449.607440792068
 21
-1601.827876530524
 31
0.0
  0
LINE
  5
12B
330
A
100
AcDbEntity
  8
1
  6
Continuous
 62
     2
100
AcDbLine
 10
1441.110840792069
 20
-1601.942156682408
 30
0.0
 11
1449.607440792068
 21
-1601.942156682408
 31
0.0
  0
LINE
  5
12A
330
A
100
AcDbEntity
  8
1
  6
Continuous
 62
     2
100
AcDbLine
 10
1441.110840792069
 20
-1602.056436834292
 30
0.0
 11
1449.607440792068
 21
-1602.056436834292
 31
0.0
  0
LINE
  5
129
330
A
100
AcDbEntity
  8
1
  6
Continuous
 62
     5
100
AcDbLine
 10
1418.125340792069
 20
-1697.032669695738
 30
0.0
 11
1418.125340792069
 21
-1707.832669695738
 31
0.0
  0
LINE
  5
128
330
A
100
AcDbEntity
  8
1
  6
Continuous
 62
     5
100
AcDbLine
 10
1418.125340792069
 20
-1697.032669695738
 30
0.0
 11
1418.125340792069
 21
-1707.832669695738
 31
0.0
  0
LINE
  5
127
330
A
100
AcDbEntity
  8
1
  6
Continuous
 62
     5
100
AcDbLine
 10
1408.625340792069
 20
-1684.032669695738
 30
0.0
 11
1447.125340792069
 21
-1684.032669695738
 31
0.0
  0
LINE
  5
126
330
A
100
AcDbEntity
  8
1
  6
Continuous
 62
     5
100
AcDbLine
 10
1406.625340792069
 20
-1686.032669695739
 30
0.0
 11
1406.625340792069
 21
-1695.032669695738
 31
0.0
  0
LINE
  5
125
330
A
100
AcDbEntity
  8
1
  6
Continuous
 62
     5
100
AcDbLine
 10
1408.625340792069
 20
-1697.032669695738
 30
0.0
 11
1418.125340792069
 21
-1697.032669695738
 31
0.0
  0
LINE
  5
124
330
A
100
AcDbEntity
  8
1
  6
Continuous
 62
     5
100
AcDbLine
 10
1418.125340792069
 20
-1697.032669695738
 30
0.0
 11
1418.125340792069
 21
-1707.832669695738
 31
0.0
  0
LINE
  5
123
330
A
100
AcDbEntity
  8
1
  6
Continuous
 62
     5
100
AcDbLine
 10
1420.125340792069
 20
-1709.832669695739
 30
0.0
 11
1447.125340792069
 21
-1709.832669695739
 31
0.0
  0
LINE
  5
122
330
A
100
AcDbEntity
  8
1
  6
Continuous
 62
     5
100
AcDbLine
 10
1449.125340792068
 20
-1688.932669695738
 30
0.0
 11
1449.125340792068
 21
-1707.832669695739
 31
0.0
  0
LINE
  5
121
330
A
100
AcDbEntity
  8
1
  6
Continuous
 62
     5
100
AcDbLine
 10
1447.125340792069
 20
-1686.932669695739
 30
0.0
 11
1435.125340792068
 21
-1686.932669695738
 31
0.0
  0
LINE
  5
120
330
A
100
AcDbEntity
  8
1
  6
Continuous
 62
     5
100
AcDbLine
 10
1435.125340792068
 20
-1686.932669695738
 30
0.0
 11
1435.125340792068
 21
-1686.032669695739
 31
0.0
  0
LINE
  5
11F
330
A
100
AcDbEntity
  8
1
  6
Continuous
 62
     5
100
AcDbLine
 10
1418.125340792069
 20
-1632.532669695738
 30
0.0
 11
1418.125340792069
 21
-1643.332669695739
 31
0.0
  0
LINE
  5
11E
330
A
100
AcDbEntity
  8
1
  6
Continuous
 62
     5
100
AcDbLine
 10
1418.125340792069
 20
-1632.532669695738
 30
0.0
 11
1418.125340792069
 21
-1643.332669695739
 31
0.0
  0
LINE
  5
11D
330
A
100
AcDbEntity
  8
1
  6
Continuous
 62
     5
100
AcDbLine
 10
1408.625340792069
 20
-1632.532669695738
 30
0.0
 11
1418.125340792069
 21
-1632.532669695738
 31
0.0
  0
LINE
  5
11C
330
A
100
AcDbEntity
  8
1
  6
Continuous
 62
     5
100
AcDbLine
 10
1406.625340792069
 20
-1621.532669695738
 30
0.0
 11
1406.625340792069
 21
-1630.832669695738
 31
0.0
  0
LINE
  5
11B
330
A
100
AcDbEntity
  8
1
  6
Continuous
 62
     5
100
AcDbLine
 10
1408.625340792069
 20
-1619.532669695738
 30
0.0
 11
1447.125340792069
 21
-1619.532669695739
 31
0.0
  0
LINE
  5
11A
330
A
100
AcDbEntity
  8
1
  6
Continuous
 62
     5
100
AcDbLine
 10
1435.125340792068
 20
-1622.432669695738
 30
0.0
 11
1435.125340792068
 21
-1621.532669695739
 31
0.0
  0
LINE
  5
119
330
A
100
AcDbEntity
  8
1
  6
Continuous
 62
     5
100
AcDbLine
 10
1447.125340792069
 20
-1622.432669695739
 30
0.0
 11
1435.125340792068
 21
-1622.432669695738
 31
0.0
  0
LINE
  5
118
330
A
100
AcDbEntity
  8
1
  6
Continuous
 62
     5
100
AcDbLine
 10
1449.125340792068
 20
-1624.432669695738
 30
0.0
 11
1449.125340792068
 21
-1643.332669695739
 31
0.0
  0
LINE
  5
117
330
A
100
AcDbEntity
  8
1
  6
Continuous
 62
     5
100
AcDbLine
 10
1420.125340792069
 20
-1645.332669695739
 30
0.0
 11
1446.385423710798
 21
-1645.332669695739
 31
0.0
  0
LINE
  5
116
330
A
100
AcDbEntity
  8
1
  6
DOT_CENTER
 62
     5
100
AcDbLine
 10
1447.125340792069
 20
-1645.332669695739
 30
0.0
 11
1437.125340792069
 21
-1645.332669695739
 31
0.0
  0
LINE
  5
115
330
A
100
AcDbEntity
  8
1
  6
Continuous
 62
     5
100
AcDbLine
 10
1435.125340792068
 20
-1648.232669695739
 30
0.0
 11
1435.125340792068
 21
-1647.332669695739
 31
0.0
  0
LINE
  5
114
330
A
100
AcDbEntity
  8
1
  6
Continuous
 62
     5
100
AcDbLine
 10
1418.125340792069
 20
-1647.332669695739
 30
0.0
 11
1418.125340792069
 21
-1656.232669695738
 31
0.0
  0
LINE
  5
113
330
A
100
AcDbEntity
  8
1
  6
Continuous
 62
     5
100
AcDbLine
 10
1408.625340792069
 20
-1669.632669695739
 30
0.0
 11
1422.125340792069
 21
-1669.632669695739
 31
0.0
  0
LINE
  5
112
330
A
100
AcDbEntity
  8
1
  6
Continuous
 62
     5
100
AcDbLine
 10
1422.125340792069
 20
-1661.632669695739
 30
0.0
 11
1408.625340792069
 21
-1661.632669695739
 31
0.0
  0
LINE
  5
111
330
A
100
AcDbEntity
  8
1
  6
Continuous
 62
     5
100
AcDbLine
 10
1424.125340792069
 20
-1663.632669695739
 30
0.0
 11
1424.125340792069
 21
-1667.632669695739
 31
0.0
  0
LINE
  5
110
330
A
100
AcDbEntity
  8
1
  6
Continuous
 62
     5
100
AcDbLine
 10
1406.625340792069
 20
-1667.632669695739
 30
0.0
 11
1406.625340792069
 21
-1663.632669695739
 31
0.0
  0
LINE
  5
10F
330
A
100
AcDbEntity
  8
1
  6
Continuous
 62
     5
100
AcDbLine
 10
1418.125340792069
 20
-1711.832669695738
 30
0.0
 11
1418.125340792069
 21
-1720.732669695738
 31
0.0
  0
LINE
  5
10E
330
A
100
AcDbEntity
  8
1
  6
Continuous
 62
     5
100
AcDbLine
 10
1435.125340792068
 20
-1712.732669695738
 30
0.0
 11
1435.125340792068
 21
-1711.832669695739
 31
0.0
  0
LINE
  5
10D
330
A
100
AcDbEntity
  8
1
  6
Continuous
 62
     5
100
AcDbLine
 10
1447.125340792069
 20
-1712.732669695738
 30
0.0
 11
1435.125340792068
 21
-1712.732669695738
 31
0.0
  0
LINE
  5
10C
330
A
100
AcDbEntity
  8
1
  6
Continuous
 62
     5
100
AcDbLine
 10
1449.125340792068
 20
-1714.732669695738
 30
0.0
 11
1449.125340792068
 21
-1720.732669695738
 31
0.0
  0
LINE
  5
10B
330
A
100
AcDbEntity
  8
1
  6
Continuous
 62
     5
100
AcDbLine
 10
1420.125340792069
 20
-1722.732669695739
 30
0.0
 11
1447.125340792069
 21
-1722.732669695738
 31
0.0
  0
LINE
  5
10A
330
A
100
AcDbEntity
  8
1
  6
Continuous
 62
     5
100
AcDbLine
 10
1420.125340792069
 20
-1658.232669695739
 30
0.0
 11
1447.125340792069
 21
-1658.232669695739
 31
0.0
  0
LINE
  5
109
330
A
100
AcDbEntity
  8
1
  6
Continuous
 62
     5
100
AcDbLine
 10
1447.125340792069
 20
-1648.232669695739
 30
0.0
 11
1435.125340792068
 21
-1648.232669695739
 31
0.0
  0
LINE
  5
108
330
A
100
AcDbEntity
  8
1
  6
Continuous
 62
     5
100
AcDbLine
 10
1427.125340792068
 20
-1661.132669695739
 30
0.0
 11
1447.125340792069
 21
-1661.132669695739
 31
0.0
  0
LINE
  5
107
330
A
100
AcDbEntity
  8
1
  6
Continuous
 62
     5
100
AcDbLine
 10
1427.125340792068
 20
-1671.132669695739
 30
0.0
 11
1447.125340792069
 21
-1671.132669695739
 31
0.0
  0
LINE
  5
106
330
A
100
AcDbEntity
  8
1
  6
Continuous
 62
     5
100
AcDbLine
 10
1425.125340792068
 20
-1669.132669695739
 30
0.0
 11
1425.125340792068
 21
-1663.132669695739
 31
0.0
  0
LINE
  5
105
330
A
100
AcDbEntity
  8
1
  6
Continuous
 62
     7
100
AcDbLine
 10
1416.625340792069
 20
-1674.132669695739
 30
0.0
 11
1416.625340792069
 21
-1672.132669695739
 31
0.0
  0
LINE
  5
104
330
A
100
AcDbEntity
  8
1
  6
Continuous
 62
     7
100
AcDbLine
 10
1407.625340792069
 20
-1675.132669695739
 30
0.0
 11
1415.625340792068
 21
-1675.132669695739
 31
0.0
  0
LINE
  5
103
330
A
100
AcDbEntity
  8
1
  6
Continuous
 62
     7
100
AcDbLine
 10
1406.625340792069
 20
-1672.132669695739
 30
0.0
 11
1406.625340792069
 21
-1674.132669695739
 31
0.0
  0
LINE
  5
102
330
A
100
AcDbEntity
  8
1
  6
Continuous
 62
     7
100
AcDbLine
 10
1415.625340792068
 20
-1671.132669695739
 30
0.0
 11
1407.625340792069
 21
-1671.132669695739
 31
0.0
  0
LINE
  5
101
330
A
100
AcDbEntity
  8
1
  6
Continuous
 62
     7
100
AcDbLine
 10
1416.625340792069
 20
-1609.132669695739
 30
0.0
 11
1416.625340792069
 21
-1607.132669695739
 31
0.0
  0
LINE
  5
100
330
A
100
AcDbEntity
  8
1
  6
Continuous
 62
     7
100
AcDbLine
 10
1407.625340792069
 20
-1610.132669695739
 30
0.0
 11
1415.625340792068
 21
-1610.132669695739
 31
0.0
  0
LINE
  5
FF
330
A
100
AcDbEntity
  8
1
  6
Continuous
 62
     7
100
AcDbLine
 10
1406.625340792069
 20
-1607.132669695739
 30
0.0
 11
1406.625340792069
 21
-1609.132669695739
 31
0.0
  0
LINE
  5
FE
330
A
100
AcDbEntity
  8
1
  6
Continuous
 62
     7
100
AcDbLine
 10
1415.625340792068
 20
-1606.132669695739
 30
0.0
 11
1407.625340792069
 21
-1606.132669695739
 31
0.0
  0
LINE
  5
FD
330
A
100
AcDbEntity
  8
1
  6
Continuous
 62
     7
100
AcDbLine
 10
1450.875340792069
 20
-1605.132669695739
 30
0.0
 11
1450.875340792069
 21
-1728.132669695739
 31
0.0
  0
LINE
  5
FC
330
A
100
AcDbEntity
  8
1
  6
Continuous
 62
     7
100
AcDbLine
 10
1404.875340792069
 20
-1605.132669695739
 30
0.0
 11
1450.875340792069
 21
-1605.132669695739
 31
0.0
  0
LINE
  5
FB
330
A
100
AcDbEntity
  8
1
  6
Continuous
 62
     7
100
AcDbLine
 10
1404.875340792069
 20
-1728.132669695739
 30
0.0
 11
1404.875340792069
 21
-1605.132669695739
 31
0.0
  0
LINE
  5
FA
330
A
100
AcDbEntity
  8
1
  6
Continuous
 62
     7
100
AcDbLine
 10
1450.875340792069
 20
-1728.132669695739
 30
0.0
 11
1404.875340792069
 21
-1728.132669695739
 31
0.0
  0
LINE
  5
F9
330
A
100
AcDbEntity
  8
1
  6
Continuous
 62
     7
100
AcDbLine
 10
1442.125340792069
 20
-1650.70655182195
 30
0.0
 11
1443.197137561792
 21
-1654.70655182195
 31
0.0
  0
LINE
  5
F8
330
A
100
AcDbEntity
  8
1
  6
Continuous
 62
     7
100
AcDbLine
 10
1441.053544022343
 20
-1654.70655182195
 30
0.0
 11
1442.125340792069
 21
-1650.70655182195
 31
0.0
  0
LINE
  5
F7
330
A
100
AcDbEntity
  8
1
  6
Continuous
 62
     7
100
AcDbLine
 10
1443.197137561792
 20
-1654.70655182195
 30
0.0
 11
1441.053544022343
 21
-1654.70655182195
 31
0.0
  0
LINE
  5
F6
330
A
100
AcDbEntity
  8
1
  6
Continuous
 62
     7
100
AcDbLine
 10
1441.053544022343
 20
-1628.738785111301
 30
0.0
 11
1442.125340792069
 21
-1624.738785111301
 31
0.0
  0
LINE
  5
F5
330
A
100
AcDbEntity
  8
1
  6
Continuous
 62
     7
100
AcDbLine
 10
1442.125340792069
 20
-1624.738785111301
 30
0.0
 11
1443.197137561792
 21
-1628.738785111301
 31
0.0
  0
LINE
  5
F4
330
A
100
AcDbEntity
  8
1
  6
Continuous
 62
     7
100
AcDbLine
 10
1443.197137561792
 20
-1628.738785111301
 30
0.0
 11
1441.053544022343
 21
-1628.738785111301
 31
0.0
  0
LINE
  5
F3
330
A
100
AcDbEntity
  8
1
  6
Continuous
 62
     7
100
AcDbLine
 10
1442.125340792069
 20
-1642.719343466261
 30
0.0
 11
1441.053544022343
 21
-1638.719343466261
 31
0.0
  0
LINE
  5
F2
330
A
100
AcDbEntity
  8
1
  6
Continuous
 62
     7
100
AcDbLine
 10
1443.197137561792
 20
-1638.719343466261
 30
0.0
 11
1442.125340792069
 21
-1642.719343466261
 31
0.0
  0
LINE
  5
F1
330
A
100
AcDbEntity
  8
1
  6
Continuous
 62
     7
100
AcDbLine
 10
1441.053544022343
 20
-1638.719343466261
 30
0.0
 11
1443.197137561792
 21
-1638.719343466261
 31
0.0
  0
LINE
  5
F0
330
A
100
AcDbEntity
  8
1
  6
Continuous
 62
     7
100
AcDbLine
 10
1441.053544022343
 20
-1693.255459321613
 30
0.0
 11
1442.125340792069
 21
-1689.255459321613
 31
0.0
  0
LINE
  5
EF
330
A
100
AcDbEntity
  8
1
  6
Continuous
 62
     7
100
AcDbLine
 10
1442.125340792069
 20
-1689.255459321613
 30
0.0
 11
1443.197137561792
 21
-1693.255459321613
 31
0.0
  0
LINE
  5
EE
330
A
100
AcDbEntity
  8
1
  6
Continuous
 62
     7
100
AcDbLine
 10
1443.197137561792
 20
-1693.255459321613
 30
0.0
 11
1441.053544022343
 21
-1693.255459321613
 31
0.0
  0
LINE
  5
ED
330
A
100
AcDbEntity
  8
1
  6
Continuous
 62
     7
100
AcDbLine
 10
1442.125340792069
 20
-1707.271468364037
 30
0.0
 11
1441.053544022343
 21
-1703.271468364037
 31
0.0
  0
LINE
  5
EC
330
A
100
AcDbEntity
  8
1
  6
Continuous
 62
     7
100
AcDbLine
 10
1443.197137561792
 20
-1703.271468364037
 30
0.0
 11
1442.125340792069
 21
-1707.271468364037
 31
0.0
  0
LINE
  5
EB
330
A
100
AcDbEntity
  8
1
  6
Continuous
 62
     7
100
AcDbLine
 10
1441.053544022343
 20
-1703.271468364037
 30
0.0
 11
1443.197137561792
 21
-1703.271468364037
 31
0.0
  0
LINE
  5
EA
330
A
100
AcDbEntity
  8
1
  6
Continuous
 62
     7
100
AcDbLine
 10
1442.125340792069
 20
-1715.20655182195
 30
0.0
 11
1443.197137561792
 21
-1719.20655182195
 31
0.0
  0
LINE
  5
E9
330
A
100
AcDbEntity
  8
1
  6
Continuous
 62
     7
100
AcDbLine
 10
1441.053544022343
 20
-1719.20655182195
 30
0.0
 11
1442.125340792069
 21
-1715.20655182195
 31
0.0
  0
LINE
  5
E8
330
A
100
AcDbEntity
  8
1
  6
Continuous
 62
     7
100
AcDbLine
 10
1443.197137561792
 20
-1719.20655182195
 30
0.0
 11
1441.053544022343
 21
-1719.20655182195
 31
0.0
  0
LINE
  5
E7
330
A
100
AcDbEntity
  8
1
  6
Continuous
 62
     5
100
AcDbLine
 10
1449.125340792068
 20
-1650.232669695739
 30
0.0
 11
1449.125340792068
 21
-1656.232669695738
 31
0.0
  0
LINE
  5
E6
330
A
100
AcDbEntity
  8
1
  6
DOT_CENTER
 62
     5
100
AcDbLine
 10
1447.125340792069
 20
-1658.232669695739
 30
0.0
 11
1437.125340792069
 21
-1658.232669695739
 31
0.0
  0
LINE
  5
E5
330
A
100
AcDbEntity
  8
1
  6
DOT_CENTER
 62
     5
100
AcDbLine
 10
1437.125340792069
 20
-1661.132669695739
 30
0.0
 11
1447.125340792069
 21
-1661.132669695739
 31
0.0
  0
LINE
  5
E4
330
A
100
AcDbEntity
  8
1
  6
Continuous
 62
     5
100
AcDbLine
 10
1449.125340792068
 20
-1663.132669695739
 30
0.0
 11
1449.125340792068
 21
-1669.132669695739
 31
0.0
  0
LINE
  5
E3
330
A
100
AcDbEntity
  8
1
  6
DOT_CENTER
 62
     5
100
AcDbLine
 10
1447.125340792069
 20
-1671.132669695739
 30
0.0
 11
1437.125340792069
 21
-1671.132669695739
 31
0.0
  0
LINE
  5
E2
330
A
100
AcDbEntity
  8
1
  6
Continuous
 62
     5
100
AcDbLine
 10
1427.125340792068
 20
-1609.532669695739
 30
0.0
 11
1447.125340792069
 21
-1609.532669695739
 31
0.0
  0
LINE
  5
E1
330
A
100
AcDbEntity
  8
1
  6
Continuous
 62
     5
100
AcDbLine
 10
1449.125340792068
 20
-1611.532669695739
 30
0.0
 11
1449.125340792068
 21
-1617.532669695738
 31
0.0
  0
LINE
  5
E0
330
A
100
AcDbEntity
  8
1
  6
Continuous
 62
     5
100
AcDbLine
 10
1447.125340792069
 20
-1619.532669695739
 30
0.0
 11
1427.125340792068
 21
-1619.532669695739
 31
0.0
  0
LINE
  5
DF
330
A
100
AcDbEntity
  8
1
  6
Continuous
 62
     5
100
AcDbLine
 10
1425.125340792068
 20
-1617.532669695739
 30
0.0
 11
1425.125340792068
 21
-1611.532669695739
 31
0.0
  0
LINE
  5
DE
330
A
100
AcDbEntity
  8
1
  6
Continuous
 62
     5
100
AcDbLine
 10
1427.125340792068
 20
-1674.032669695739
 30
0.0
 11
1447.125340792069
 21
-1674.032669695738
 31
0.0
  0
LINE
  5
DD
330
A
100
AcDbEntity
  8
1
  6
Continuous
 62
     5
100
AcDbLine
 10
1449.125340792068
 20
-1676.032669695739
 30
0.0
 11
1449.125340792068
 21
-1682.032669695739
 31
0.0
  0
LINE
  5
DC
330
A
100
AcDbEntity
  8
1
  6
Continuous
 62
     5
100
AcDbLine
 10
1447.125340792069
 20
-1684.032669695738
 30
0.0
 11
1427.125340792068
 21
-1684.032669695738
 31
0.0
  0
LINE
  5
DB
330
A
100
AcDbEntity
  8
1
  6
Continuous
 62
     5
100
AcDbLine
 10
1425.125340792068
 20
-1682.032669695738
 30
0.0
 11
1425.125340792068
 21
-1676.032669695738
 31
0.0
  0
LINE
  5
DA
330
A
100
AcDbEntity
  8
1
  6
Continuous
 62
     7
100
AcDbLine
 10
1448.691231949668
 20
-1725.432669695739
 30
0.0
 11
1447.593155738315
 21
-1724.798695099523
 31
0.0
  0
LINE
  5
D9
330
A
100
AcDbEntity
  8
1
  6
Continuous
 62
     7
100
AcDbLine
 10
1447.593155738315
 20
-1726.066644291954
 30
0.0
 11
1448.691231949668
 21
-1725.432669695739
 31
0.0
  0
LINE
  5
D8
330
A
100
AcDbEntity
  8
1
  6
Continuous
 62
     7
100
AcDbLine
 10
1447.593155738315
 20
-1724.798695099523
 30
0.0
 11
1447.593155738315
 21
-1726.066644291954
 31
0.0
  0
LINE
  5
D7
330
A
100
AcDbEntity
  8
1
  6
Continuous
 62
     7
100
AcDbLine
 10
1445.625340792069
 20
-1726.932669695739
 30
0.0
 11
1446.646656483466
 21
-1726.344384844072
 31
0.0
  0
LINE
  5
D6
330
A
100
AcDbEntity
  8
1
  6
Continuous
 62
     7
100
AcDbLine
 10
1445.625340792069
 20
-1723.932669695739
 30
0.0
 11
1445.625340792069
 21
-1726.932669695739
 31
0.0
  0
LINE
  5
D5
330
A
100
AcDbEntity
  8
1
  6
Continuous
 62
     7
100
AcDbLine
 10
1446.646656483466
 20
-1724.522326585095
 30
0.0
 11
1445.625340792069
 21
-1723.932669695739
 31
0.0
  0
LINE
  5
D4
330
A
100
AcDbEntity
  8
1
  6
Continuous
 62
     7
100
AcDbLine
 10
1446.646656483466
 20
-1724.522326585095
 30
0.0
 11
1446.646656483466
 21
-1726.344384844072
 31
0.0
  0
LINE
  5
D3
330
A
100
AcDbEntity
  8
1
  6
Continuous
 62
     7
100
AcDbLine
 10
1445.125340792069
 20
-1727.432669695739
 30
0.0
 11
1445.125340792069
 21
-1723.432669695739
 31
0.0
  0
LINE
  5
D2
330
A
100
AcDbEntity
  8
1
  6
Continuous
 62
     7
100
AcDbLine
 10
1449.125340792068
 20
-1727.432669695739
 30
0.0
 11
1445.125340792069
 21
-1727.432669695739
 31
0.0
  0
LINE
  5
D1
330
A
100
AcDbEntity
  8
1
  6
Continuous
 62
     7
100
AcDbLine
 10
1449.125340792068
 20
-1723.432669695739
 30
0.0
 11
1449.125340792068
 21
-1727.432669695739
 31
0.0
  0
LINE
  5
D0
330
A
100
AcDbEntity
  8
1
  6
Continuous
 62
     7
100
AcDbLine
 10
1445.125340792069
 20
-1723.432669695739
 30
0.0
 11
1449.125340792068
 21
-1723.432669695739
 31
0.0
  0
LINE
  5
CF
330
A
100
AcDbEntity
  8
1
  6
Continuous
 62
     7
100
AcDbLine
 10
1411.983927632603
 20
-1725.630843666931
 30
0.0
 11
1411.983927632603
 21
-1722.130843666931
 31
0.0
  0
LINE
  5
CE
330
A
100
AcDbEntity
  8
1
  6
Continuous
 62
     7
100
AcDbLine
 10
1411.983927632603
 20
-1722.130843666931
 30
0.0
 11
1413.983927632603
 21
-1722.130843666931
 31
0.0
  0
LINE
  5
CD
330
A
100
AcDbEntity
  8
1
  6
Continuous
 62
     7
100
AcDbLine
 10
1413.983927632603
 20
-1722.130843666931
 30
0.0
 11
1413.983927632603
 21
-1725.630843666931
 31
0.0
  0
LINE
  5
CC
330
A
100
AcDbEntity
  8
1
  6
Continuous
 62
     7
100
AcDbLine
 10
1411.483927632603
 20
-1725.630843666931
 30
0.0
 11
1414.483927632603
 21
-1725.630843666931
 31
0.0
  0
LINE
  5
CB
330
A
100
AcDbEntity
  8
1
  6
Continuous
 62
     7
100
AcDbLine
 10
1411.983927632603
 20
-1724.630843666931
 30
0.0
 11
1413.983927632603
 21
-1724.630843666931
 31
0.0
  0
LINE
  5
CA
102
{ACAD_REACTORS
330
4B3
102
}
330
A
100
AcDbEntity
  8
1
  6
Continuous
 62
     7
100
AcDbLine
 10
1410.000467057915
 20
-1695.357543429892
 30
0.0
 11
1409.646913667322
 21
-1695.711096820485
 31
0.0
  0
LINE
  5
C9
330
A
100
AcDbEntity
  8
1
  6
Continuous
 62
     7
100
AcDbLine
 10
1409.646913667322
 20
-1695.711096820485
 30
0.0
 11
1408.939806886135
 21
-1696.418203601672
 31
0.0
  0
LINE
  5
C8
102
{ACAD_REACTORS
330
4B3
102
}
330
A
100
AcDbEntity
  8
1
  6
Continuous
 62
     7
100
AcDbLine
 10
1414.950214526222
 20
-1695.357543429892
 30
0.0
 11
1415.89748517718
 21
-1696.304814080851
 31
0.0
  0
LINE
  5
C7
330
A
100
AcDbEntity
  8
1
  6
Continuous
 62
     7
100
AcDbLine
 10
1408.93893734226
 20
-1709.36820840151
 30
0.0
 11
1409.99959751404
 21
-1708.30754822973
 31
0.0
  0
LINE
  5
C6
330
A
100
AcDbEntity
  8
1
  6
Continuous
 62
     7
100
AcDbLine
 10
1415.290501192638
 20
-1708.648704440022
 30
0.0
 11
1415.896615633305
 21
-1709.25481888069
 31
0.0
  0
LINE
  5
C5
102
{ACAD_REACTORS
330
4B2
102
}
330
A
100
AcDbEntity
  8
1
  6
Continuous
 62
     7
100
AcDbLine
 10
1410.000467057915
 20
-1630.357543429892
 30
0.0
 11
1409.646913667322
 21
-1630.711096820485
 31
0.0
  0
LINE
  5
C4
330
A
100
AcDbEntity
  8
1
  6
Continuous
 62
     7
100
AcDbLine
 10
1409.646913667322
 20
-1630.711096820485
 30
0.0
 11
1408.939806886135
 21
-1631.418203601672
 31
0.0
  0
LINE
  5
C3
102
{ACAD_REACTORS
330
4B2
102
}
330
A
100
AcDbEntity
  8
1
  6
Continuous
 62
     7
100
AcDbLine
 10
1414.950214526222
 20
-1630.357543429892
 30
0.0
 11
1415.89748517718
 21
-1631.304814080851
 31
0.0
  0
LINE
  5
C2
330
A
100
AcDbEntity
  8
1
  6
Continuous
 62
     7
100
AcDbLine
 10
1408.93893734226
 20
-1644.41820840151
 30
0.0
 11
1409.99959751404
 21
-1643.35754822973
 31
0.0
  0
LINE
  5
C1
330
A
100
AcDbEntity
  8
1
  6
Continuous
 62
     7
100
AcDbLine
 10
1415.290501192638
 20
-1643.698704440022
 30
0.0
 11
1415.896615633305
 21
-1644.304818880689
 31
0.0
  0
LINE
  5
C0
330
A
100
AcDbEntity
  8
1
  6
Continuous
 62
     7
100
AcDbLine
 10
1102.651138565687
 20
-1521.149823470766
 30
0.0
 11
1102.651138565687
 21
-1570.130223470766
 31
0.0
  0
LINE
  5
93
330
A
100
AcDbEntity
  8
1
  6
Continuous
 62
     7
100
AcDbLine
 10
1018.432218224997
 20
-1634.44018183868
 30
0.0
 11
1020.411448824867
 21
-1634.44018183868
 31
0.0
  0
LINE
  5
92
330
A
100
AcDbEntity
  8
1
  6
Continuous
 62
     7
100
AcDbLine
 10
1053.374510043141
 20
-1634.44018183868
 30
0.0
 11
1055.353740643011
 21
-1634.44018183868
 31
0.0
  0
LINE
  5
91
330
A
100
AcDbEntity
  8
1
  6
Continuous
 62
     7
100
AcDbLine
 10
1015.642979434004
 20
-1663.628270324934
 30
0.0
 11
1015.642979434004
 21
-1683.132069695738
 31
0.0
  0
LINE
  5
90
330
A
100
AcDbEntity
  8
1
  6
Continuous
 62
     7
100
AcDbLine
 10
1057.642979434004
 20
-1663.128270324934
 30
0.0
 11
1016.142979434004
 21
-1663.128270324934
 31
0.0
  0
LINE
  5
8F
330
A
100
AcDbEntity
  8
1
  6
Continuous
 62
     7
100
AcDbLine
 10
1016.142979434004
 20
-1683.632069695738
 30
0.0
 11
1057.642979434004
 21
-1683.632069695738
 31
0.0
  0
LINE
  5
8E
330
A
100
AcDbEntity
  8
1
  6
Continuous
 62
     7
100
AcDbLine
 10
1058.142979434004
 20
-1683.132069695738
 30
0.0
 11
1058.142979434004
 21
-1663.628270324934
 31
0.0
  0
LINE
  5
8D
330
A
100
AcDbEntity
  8
1
  6
Continuous
 62
     7
100
AcDbLine
 10
1097.653138565687
 20
-1530.622323470766
 30
0.0
 11
1097.653138565687
 21
-1541.118123470766
 31
0.0
  0
LINE
  5
8C
330
A
100
AcDbEntity
  8
1
  6
Continuous
 62
     7
100
AcDbLine
 10
1096.653538565687
 20
-1530.622323470766
 30
0.0
 11
1079.360458565687
 21
-1530.622323470766
 31
0.0
  0
LINE
  5
8B
330
A
100
AcDbEntity
  8
1
  6
Continuous
 62
     7
100
AcDbLine
 10
1079.360458565687
 20
-1530.622323470766
 30
0.0
 11
1079.360458565687
 21
-1541.118123470766
 31
0.0
  0
LINE
  5
8A
330
A
100
AcDbEntity
  8
1
  6
Continuous
 62
     7
100
AcDbLine
 10
1079.360458565687
 20
-1541.118123470766
 30
0.0
 11
1096.653538565687
 21
-1541.118123470766
 31
0.0
  0
LINE
  5
89
330
A
100
AcDbEntity
  8
1
  6
Continuous
 62
     7
100
AcDbLine
 10
1096.653538565687
 20
-1541.118123470766
 30
0.0
 11
1096.653538565687
 21
-1530.622323470766
 31
0.0
  0
LINE
  5
88
330
A
100
AcDbEntity
  8
1
  6
Continuous
 62
     7
100
AcDbLine
 10
1096.653538565687
 20
-1531.871823470766
 30
0.0
 11
1097.653138565687
 21
-1531.871823470766
 31
0.0
  0
LINE
  5
87
330
A
100
AcDbEntity
  8
1
  6
Continuous
 62
     7
100
AcDbLine
 10
1097.653138565687
 20
-1539.868623470766
 30
0.0
 11
1096.653538565687
 21
-1539.868623470766
 31
0.0
  0
LINE
  5
86
330
A
100
AcDbEntity
  8
1
  6
Continuous
 62
     2
100
AcDbLine
 10
1096.653538565687
 20
-1531.122123470766
 30
0.0
 11
1079.360458565687
 21
-1531.122123470766
 31
0.0
  0
LINE
  5
85
330
A
100
AcDbEntity
  8
1
  6
Continuous
 62
     2
100
AcDbLine
 10
1096.653538565687
 20
-1532.121723470766
 30
0.0
 11
1079.360458565687
 21
-1532.121723470766
 31
0.0
  0
LINE
  5
84
330
A
100
AcDbEntity
  8
1
  6
Continuous
 62
     2
100
AcDbLine
 10
1096.653538565687
 20
-1534.120923470766
 30
0.0
 11
1079.360458565687
 21
-1534.120923470766
 31
0.0
  0
LINE
  5
83
330
A
100
AcDbEntity
  8
1
  6
Continuous
 62
     2
100
AcDbLine
 10
1096.653538565687
 20
-1535.120523470766
 30
0.0
 11
1079.360458565687
 21
-1535.120523470766
 31
0.0
  0
LINE
  5
82
330
A
100
AcDbEntity
  8
1
  6
Continuous
 62
     2
100
AcDbLine
 10
1096.653538565687
 20
-1538.119323470766
 30
0.0
 11
1079.360458565687
 21
-1538.119323470766
 31
0.0
  0
LINE
  5
81
330
A
100
AcDbEntity
  8
1
  6
Continuous
 62
     2
100
AcDbLine
 10
1096.653538565687
 20
-1537.119723470766
 30
0.0
 11
1079.360458565687
 21
-1537.119723470766
 31
0.0
  0
LINE
  5
80
330
A
100
AcDbEntity
  8
1
  6
Continuous
 62
     2
100
AcDbLine
 10
1096.653538565687
 20
-1540.118523470766
 30
0.0
 11
1079.360458565687
 21
-1540.118523470766
 31
0.0
  0
LINE
  5
7F
330
A
100
AcDbEntity
  8
1
  6
Continuous
 62
     7
100
AcDbLine
 10
1102.651138565687
 20
-1530.622323470766
 30
0.0
 11
1097.653138565687
 21
-1530.622323470766
 31
0.0
  0
LINE
  5
7E
330
A
100
AcDbEntity
  8
1
  6
Continuous
 62
     7
100
AcDbLine
 10
1097.653138565687
 20
-1541.118123470766
 30
0.0
 11
1102.651138565687
 21
-1541.118123470766
 31
0.0
  0
LINE
  5
7D
330
A
100
AcDbEntity
  8
1
  6
Continuous
 62
     7
100
AcDbLine
 10
1091.655538565687
 20
-1560.168123470766
 30
0.0
 11
1091.655538565687
 21
-1562.628323470766
 31
0.0
  0
LINE
  5
7C
330
A
100
AcDbEntity
  8
1
  6
Continuous
 62
     2
100
AcDbLine
 10
1091.655538565687
 20
-1530.622323470766
 30
0.0
 11
1091.655538565687
 21
-1524.402223470766
 31
0.0
  0
LINE
  5
7B
330
A
100
AcDbEntity
  8
1
  6
Continuous
 62
     7
100
AcDbLine
 10
1089.156538565687
 20
-1530.622323470766
 30
0.0
 11
1089.156538565687
 21
-1524.902023470766
 31
0.0
  0
LINE
  5
7A
330
A
100
AcDbEntity
  8
1
  6
Continuous
 62
     7
100
AcDbLine
 10
1102.651138565687
 20
-1524.402223470766
 30
0.0
 11
1091.655538565687
 21
-1524.402223470766
 31
0.0
  0
LINE
  5
79
330
A
100
AcDbEntity
  8
1
  6
Continuous
 62
     7
100
AcDbLine
 10
1091.155738565687
 20
-1524.902023470766
 30
0.0
 11
1091.155738565687
 21
-1530.622323470766
 31
0.0
  0
LINE
  5
78
330
A
100
AcDbEntity
  8
1
  6
Continuous
 62
     7
100
AcDbLine
 10
1091.655538565687
 20
-1524.402223470766
 30
0.0
 11
1091.155738565687
 21
-1524.902023470766
 31
0.0
  0
LINE
  5
77
330
A
100
AcDbEntity
  8
1
  6
Continuous
 62
     7
100
AcDbLine
 10
1089.156538565687
 20
-1527.900823470766
 30
0.0
 11
1091.155738565687
 21
-1527.900823470766
 31
0.0
  0
LINE
  5
76
330
A
100
AcDbEntity
  8
1
  6
Continuous
 62
     7
100
AcDbLine
 10
1088.656738565687
 20
-1524.402223470766
 30
0.0
 11
1085.657938565687
 21
-1524.402223470766
 31
0.0
  0
LINE
  5
75
330
A
100
AcDbEntity
  8
1
  6
Continuous
 62
     7
100
AcDbLine
 10
1085.158138565687
 20
-1524.902023470766
 30
0.0
 11
1085.158138565687
 21
-1530.622323470766
 31
0.0
  0
LINE
  5
74
330
A
100
AcDbEntity
  8
1
  6
Continuous
 62
     7
100
AcDbLine
 10
1085.657938565687
 20
-1524.402223470766
 30
0.0
 11
1085.158138565687
 21
-1524.902023470766
 31
0.0
  0
LINE
  5
73
330
A
100
AcDbEntity
  8
1
  6
Continuous
 62
     7
100
AcDbLine
 10
1089.156538565687
 20
-1524.902023470766
 30
0.0
 11
1088.656738565687
 21
-1524.402223470766
 31
0.0
  0
LINE
  5
72
330
A
100
AcDbEntity
  8
1
  6
Continuous
 62
     2
100
AcDbLine
 10
1085.657938565687
 20
-1524.402223470766
 30
0.0
 11
1085.657938565687
 21
-1530.622323470766
 31
0.0
  0
LINE
  5
71
330
A
100
AcDbEntity
  8
1
  6
Continuous
 62
     2
100
AcDbLine
 10
1088.656738565687
 20
-1524.402223470766
 30
0.0
 11
1088.656738565687
 21
-1530.622323470766
 31
0.0
  0
LINE
  5
70
330
A
100
AcDbEntity
  8
1
  6
Continuous
 62
     7
100
AcDbLine
 10
1100.651938565687
 20
-1523.649823470766
 30
0.0
 11
1100.651938565687
 21
-1524.402223470766
 31
0.0
  0
LINE
  5
6F
330
A
100
AcDbEntity
  8
1
  6
Continuous
 62
     7
100
AcDbLine
 10
1102.651138565687
 20
-1522.149823470766
 30
0.0
 11
1102.151938565687
 21
-1522.149823470766
 31
0.0
  0
LINE
  5
6E
330
A
100
AcDbEntity
  8
1
  6
Continuous
 62
     7
100
AcDbLine
 10
1102.651138565687
 20
-1528.142123470766
 30
0.0
 11
1091.655538565687
 21
-1528.142123470766
 31
0.0
  0
LINE
  5
6D
330
A
100
AcDbEntity
  8
1
  6
Continuous
 62
     7
100
AcDbLine
 10
1091.655538565687
 20
-1528.142123470766
 30
0.0
 11
1091.655538565687
 21
-1530.622323470766
 31
0.0
  0
LINE
  5
6C
330
A
100
AcDbEntity
  8
1
  6
Continuous
 62
     7
100
AcDbLine
 10
1102.151938565687
 20
-1569.130223470766
 30
0.0
 11
1102.651138565687
 21
-1569.130223470766
 31
0.0
  0
LINE
  5
6B
330
A
100
AcDbEntity
  8
1
  6
Continuous
 62
     7
100
AcDbLine
 10
1100.651938565687
 20
-1562.628323470766
 30
0.0
 11
1100.651938565687
 21
-1567.630223470766
 31
0.0
  0
LINE
  5
6A
330
A
100
AcDbEntity
  8
1
  6
Continuous
 62
     7
100
AcDbLine
 10
1091.655538565687
 20
-1562.628323470766
 30
0.0
 11
1094.654338565687
 21
-1562.628323470766
 31
0.0
  0
LINE
  5
69
330
A
100
AcDbEntity
  8
1
  6
Continuous
 62
     7
100
AcDbLine
 10
1094.654338565687
 20
-1562.628323470766
 30
0.0
 11
1096.653538565687
 21
-1562.628323470766
 31
0.0
  0
LINE
  5
68
330
A
100
AcDbEntity
  8
1
  6
Continuous
 62
     7
100
AcDbLine
 10
1096.653538565687
 20
-1562.628323470766
 30
0.0
 11
1102.651138565687
 21
-1562.628323470766
 31
0.0
  0
LINE
  5
67
330
A
100
AcDbEntity
  8
1
  6
Continuous
 62
     2
100
AcDbLine
 10
1413.462858099501
 20
-1626.046624250882
 30
0.0
 11
1410.593860125646
 21
-1628.915622224737
 31
0.0
  0
LINE
  5
66
330
A
100
AcDbEntity
  8
1
  6
Continuous
 62
     2
100
AcDbLine
 10
1410.593860125646
 20
-1628.915622224737
 30
0.0
 11
1411.44238826307
 21
-1629.764150362161
 31
0.0
  0
LINE
  5
65
330
A
100
AcDbEntity
  8
1
  6
Continuous
 62
     2
100
AcDbLine
 10
1411.44238826307
 20
-1629.764150362161
 30
0.0
 11
1414.311386236925
 21
-1626.895152388305
 31
0.0
  0
LINE
  5
64
330
A
100
AcDbEntity
  8
1
  6
Continuous
 62
     2
100
AcDbLine
 10
1414.311386236925
 20
-1626.895152388305
 30
0.0
 11
1413.462858099501
 21
-1626.046624250882
 31
0.0
  0
LINE
  5
63
330
A
100
AcDbEntity
  8
1
  6
Continuous
 62
     2
100
AcDbLine
 10
1413.462858099501
 20
-1639.046624250882
 30
0.0
 11
1410.593860125646
 21
-1641.915622224737
 31
0.0
  0
LINE
  5
62
330
A
100
AcDbEntity
  8
1
  6
Continuous
 62
     2
100
AcDbLine
 10
1410.593860125646
 20
-1641.915622224737
 30
0.0
 11
1411.44238826307
 21
-1642.764150362161
 31
0.0
  0
LINE
  5
61
330
A
100
AcDbEntity
  8
1
  6
Continuous
 62
     2
100
AcDbLine
 10
1411.44238826307
 20
-1642.764150362161
 30
0.0
 11
1414.311386236925
 21
-1639.895152388306
 31
0.0
  0
LINE
  5
60
330
A
100
AcDbEntity
  8
1
  6
Continuous
 62
     2
100
AcDbLine
 10
1414.311386236925
 20
-1639.895152388306
 30
0.0
 11
1413.462858099501
 21
-1639.046624250882
 31
0.0
  0
LINE
  5
5F
330
A
100
AcDbEntity
  8
1
  6
Continuous
 62
     2
100
AcDbLine
 10
1413.462858099501
 20
-1691.046624250882
 30
0.0
 11
1410.593860125646
 21
-1693.915622224737
 31
0.0
  0
LINE
  5
5E
330
A
100
AcDbEntity
  8
1
  6
Continuous
 62
     2
100
AcDbLine
 10
1410.593860125646
 20
-1693.915622224737
 30
0.0
 11
1411.44238826307
 21
-1694.764150362161
 31
0.0
  0
LINE
  5
5D
330
A
100
AcDbEntity
  8
1
  6
Continuous
 62
     2
100
AcDbLine
 10
1411.44238826307
 20
-1694.764150362161
 30
0.0
 11
1414.311386236925
 21
-1691.895152388306
 31
0.0
  0
LINE
  5
5C
330
A
100
AcDbEntity
  8
1
  6
Continuous
 62
     2
100
AcDbLine
 10
1414.311386236925
 20
-1691.895152388306
 30
0.0
 11
1413.462858099501
 21
-1691.046624250882
 31
0.0
  0
LINE
  5
5B
330
A
100
AcDbEntity
  8
1
  6
Continuous
 62
     2
100
AcDbLine
 10
1413.462858099501
 20
-1704.046624250882
 30
0.0
 11
1410.593860125646
 21
-1706.915622224737
 31
0.0
  0
LINE
  5
5A
330
A
100
AcDbEntity
  8
1
  6
Continuous
 62
     2
100
AcDbLine
 10
1410.593860125646
 20
-1706.915622224737
 30
0.0
 11
1411.44238826307
 21
-1707.764150362161
 31
0.0
  0
LINE
  5
59
330
A
100
AcDbEntity
  8
1
  6
Continuous
 62
     2
100
AcDbLine
 10
1411.44238826307
 20
-1707.764150362161
 30
0.0
 11
1414.311386236925
 21
-1704.895152388306
 31
0.0
  0
LINE
  5
58
330
A
100
AcDbEntity
  8
1
  6
Continuous
 62
     2
100
AcDbLine
 10
1414.311386236925
 20
-1704.895152388306
 30
0.0
 11
1413.462858099501
 21
-1704.046624250882
 31
0.0
  0
LINE
  5
533
330
A
100
AcDbEntity
  8
0
  6
Continuous
100
AcDbLine
 10
1102.651138565687
 20
-1602.183069695738
 30
0.0
 11
1355.651138565687
 21
-1602.183069695738
 31
0.0
  0
DIMENSION
  5
57D
330
A
100
AcDbEntity
  8
MEASURE
  6
Continuous
100
AcDbDimension
  2
*D2
 10
1355.651138565687
 20
-1584.741713373771
 30
0.0
 11
1229.151138565687
 21
-1582.491713373771
 31
0.0
 70
    32
 71
     5
 42
253.0
  3
AD-STANDARD
100
AcDbAlignedDimension
 13
1102.651138565687
 23
-1602.183069695738
 33
0.0
 14
1355.651138565687
 24
-1594.686069695738
 34
0.0
100
AcDbRotatedDimension
1001
ACAD
1000
DSTYLE
1002
{
1070
    47
1040
1.0
1070
    48
1040
1.0
1070
   147
1040
0.5
1070
    72
1070
     0
1070
    71
1070
     1
1002
}
  0
DIMENSION
  5
5B7
330
A
100
AcDbEntity
  8
MEASURE
  6
Continuous
100
AcDbDimension
  2
*D3
 10
1079.360458565687
 20
-1584.741713373771
 30
0.0
 11
1091.005798565687
 21
-1581.575046707104
 31
0.0
 70
    32
  1
(24)
 71
     5
 42
23.29068000000029
  3
AD-STANDARD
100
AcDbAlignedDimension
 13
1102.651138565687
 23
-1602.183069695738
 33
0.0
 14
1079.360458565687
 24
-1610.183159318286
 34
0.0
100
AcDbRotatedDimension
  0
DIMENSION
  5
5CD
330
A
100
AcDbEntity
  8
MEASURE
  6
Continuous
100
AcDbDimension
  2
*D4
 10
1364.147738565686
 20
-1584.741713373771
 30
0.0
 11
1359.899438565686
 21
-1584.741713373771
 31
0.0
 70
   160
 71
     5
 42
8.496599999999034
  3
AD-STANDARD
100
AcDbAlignedDimension
 13
1355.651138565687
 23
-1594.686069695738
 33
0.0
 14
1364.147738565686
 24
-1712.638869695737
 34
0.0
100
AcDbRotatedDimension
1001
ACAD
1000
DSTYLE
1002
{
1070
     3
1000
(<>)
1070
   271
1070
     1
1002
}
  0
DIMENSION
  5
623
330
A
100
AcDbEntity
  8
MEASURE
  6
Continuous
100
AcDbDimension
  2
*D5
 10
1384.318363604867
 20
-1737.628869695738
 30
0.0
 11
1382.068363604867
 21
-1666.157469695737
 31
0.0
 70
    32
 71
     5
 42
142.9427999999998
  3
AD-STANDARD
100
AcDbAlignedDimension
 13
1403.126040792069
 23
-1594.686069695738
 33
0.0
 14
1403.126040792069
 24
-1737.628869695738
 34
0.0
 50
90.0
100
AcDbRotatedDimension
1001
ACAD
1000
DSTYLE
1002
{
1070
    47
1040
1.0
1070
    48
1040
1.0
1070
   147
1040
0.5
1070
    72
1070
     0
1070
    71
1070
     1
1070
   271
1070
     0
1002
}
  0
DIMENSION
  5
666
330
A
100
AcDbEntity
  8
MEASURE
  6
Continuous
100
AcDbDimension
  2
*D6
 10
1452.606240792069
 20
-1585.356267906206
 30
0.0
 11
1427.866140792069
 21
-1583.106267906206
 31
0.0
 70
    32
 71
     5
 42
49.48019999999928
  3
AD-STANDARD
100
AcDbAlignedDimension
 13
1403.126040792069
 23
-1594.686069695738
 33
0.0
 14
1452.606240792069
 24
-1594.686069695738
 34
0.0
100
AcDbRotatedDimension
1001
ACAD
1000
DSTYLE
1002
{
1070
    47
1040
0.5
1070
    48
1040
0.5
1070
   147
1040
0.5
1070
    72
1070
     0
1070
    71
1070
     1
1070
   271
1070
     1
1002
}
  0
LINE
  5
6CD
330
A
100
AcDbEntity
  8
1
  6
Continuous
 62
     7
100
AcDbLine
 10
1337.527020264127
 20
-1544.509105169207
 30
0.0
 11
1339.788856867246
 21
-1546.770941772324
 31
0.0
  0
LINE
  5
6CE
330
A
100
AcDbEntity
  8
1
  6
Continuous
 62
     7
100
AcDbLine
 10
1339.788856867246
 20
-1544.509105169207
 30
0.0
 11
1337.527020264127
 21
-1546.770941772324
 31
0.0
  0
CIRCLE
  5
6CF
330
A
100
AcDbEntity
  8
1
  6
Continuous
 62
     7
100
AcDbCircle
 10
1338.657938565687
 20
-1545.640023470765
 30
0.0
 40
4.99799999999891
  0
CIRCLE
  5
6D0
330
A
100
AcDbEntity
  8
1
  6
Continuous
 62
     7
100
AcDbCircle
 10
1338.657938565687
 20
-1545.640023470765
 30
0.0
 40
2.49899999999889
  0
CIRCLE
  5
6D1
330
A
100
AcDbEntity
  8
1
  6
Continuous
 62
     2
100
AcDbCircle
 10
1338.657938565687
 20
-1545.640023470765
 30
0.0
 40
2.99879999999894
  0
ENDSEC
  0
SECTION
  2
OBJECTS
  0
DICTIONARY
  5
19
330
0
100
AcDbDictionary
281
     1
  3
ACAD_2007HEADERVARS_RT
350
6DC
  3
ACAD_COLOR
350
4D1
  3
ACAD_GROUP
350
1A
  3
ACAD_LAYOUT
350
4D6
  3
ACAD_MATERIAL
350
4BC
  3
ACAD_MLINESTYLE
350
1B
  3
ACAD_PLOTSETTINGS
350
4D5
  3
ACAD_PLOTSTYLENAME
350
4BA
  3
ACAD_TABLESTYLE
350
4D2
  3
ACAD_VISUALSTYLE
350
4C0
  3
AcDbVariableDictionary
350
531
  3
DWGPROPS
350
6DB
  0
DICTIONARY
  5
698
330
7
100
AcDbDictionary
280
     1
281
     1
  0
DICTIONARY
  5
510
330
2
100
AcDbDictionary
280
     1
281
     1
  3
ACAD_LAYERSTATES
360
511
  0
DICTIONARY
  5
6DC
102
{ACAD_REACTORS
330
19
102
}
330
19
100
AcDbDictionary
281
     1
  3
DIMJOGANG
350
6DD
  0
DICTIONARY
  5
4D1
102
{ACAD_REACTORS
330
19
102
}
330
19
100
AcDbDictionary
281
     1
  0
DICTIONARY
  5
1A
102
{ACAD_REACTORS
330
19
102
}
330
19
100
AcDbDictionary
281
     1
  0
DICTIONARY
  5
4D6
102
{ACAD_REACTORS
330
19
102
}
330
19
100
AcDbDictionary
281
     1
  3
Model
350
4D7
  3
レイアウト1
350
4D8
  0
DICTIONARY
  5
4BC
102
{ACAD_REACTORS
330
19
102
}
330
19
100
AcDbDictionary
281
     1
  3
ByBlock
350
4BE
  3
ByLayer
350
4BD
  3
Global
350
4BF
  0
DICTIONARY
  5
1B
102
{ACAD_REACTORS
330
19
102
}
330
19
100
AcDbDictionary
281
     1
  3
STANDARD
350
1C
  0
DICTIONARY
  5
4D5
102
{ACAD_REACTORS
330
19
102
}
330
19
100
AcDbDictionary
281
     1
  0
ACDBDICTIONARYWDFLT
  5
4BA
102
{ACAD_REACTORS
330
19
102
}
330
19
100
AcDbDictionary
281
     1
  3
Normal
350
4BB
100
AcDbDictionaryWithDefault
340
4BB
  0
DICTIONARY
  5
4D2
102
{ACAD_REACTORS
330
19
102
}
330
19
100
AcDbDictionary
281
     1
  3
Standard
350
4D3
  0
DICTIONARY
  5
4C0
102
{ACAD_REACTORS
330
19
102
}
330
19
100
AcDbDictionary
281
     1
  3
2dWireframe
350
4C6
  3
3D Hidden
350
4C8
  3
3dWireframe
350
4C7
  3
Basic
350
4C5
  3
Brighten
350
4CC
  3
ColorChange
350
4D0
  3
Conceptual
350
4C9
  3
Dim
350
4CB
  3
Facepattern
350
4CF
  3
Flat
350
4C1
  3
FlatWithEdges
350
4C2
  3
Gouraud
350
4C3
  3
GouraudWithEdges
350
4C4
  3
Linepattern
350
4CE
  3
Realistic
350
4CA
  3
Thicken
350
4CD
  0
DICTIONARY
  5
531
102
{ACAD_REACTORS
330
19
102
}
330
19
100
AcDbDictionary
281
     1
  3
CTABLESTYLE
350
532
  3
DIMASSOC
350
6B0
  3
INDEXCTL
350
6AF
  3
SORTENTS
350
6AE
  0
XRECORD
  5
6DB
102
{ACAD_REACTORS
330
19
102
}
330
19
100
AcDbXrecord
280
     1
  1
DWGPROPS COOKIE
  2

  3

  4

  6

  7

  8
TAKEO-1213
  9

300
=
301
=
302
=
303
=
304
=
305
=
306
=
307
=
308
=
309
=
 40
0.0296650694444445
 41
2314168.288031782
 42
2459557.45428875
  1

 90
        0
  0
DICTIONARY
  5
511
102
{ACAD_REACTORS
330
510
102
}
330
510
100
AcDbDictionary
281
     1
  0
XRECORD
  5
6DD
102
{ACAD_REACTORS
330
6DC
102
}
330
6DC
100
AcDbXrecord
280
     1
 40
1.570796326794896
  0
LAYOUT
  5
4D7
102
{ACAD_XDICTIONARY
360
6E6
102
}
102
{ACAD_REACTORS
330
4D6
102
}
330
4D6
100
AcDbPlotSettings
  1

  2
ADJ-DV10-Q01
  4

  6

 40
0.0
 41
0.0
 42
0.0
 43
0.0
 44
0.0
 45
0.0
 46
0.0
 47
0.0
 48
0.0
 49
0.0
140
0.0
141
0.0
142
1.0
143
1.0
 70
  1712
 72
     0
 73
     0
 74
     0
  7

 75
     0
147
1.0
148
0.0
149
0.0
100
AcDbLayout
  1
Model
 70
     1
 71
     0
 10
0.0
 20
0.0
 11
12.0
 21
9.0
 12
0.0
 22
0.0
 32
0.0
 14
0.0
 24
0.0
 34
0.0
 15
0.0
 25
0.0
 35
0.0
146
0.0
 13
0.0
 23
0.0
 33
0.0
 16
1.0
 26
0.0
 36
0.0
 17
0.0
 27
1.0
 37
0.0
 76
     0
330
A
331
15
  0
LAYOUT
  5
4D8
102
{ACAD_XDICTIONARY
360
6E8
102
}
102
{ACAD_REACTORS
330
4D6
102
}
330
4D6
100
AcDbPlotSettings
  1

  2
ADJ-DV10-Q01
  4

  6

 40
0.0
 41
0.0
 42
0.0
 43
0.0
 44
0.0
 45
0.0
 46
0.0
 47
0.0
 48
0.0
 49
0.0
140
0.0
141
0.0
142
1.0
143
1.0
 70
   688
 72
     0
 73
     0
 74
     5
  7

 75
    16
147
1.0
148
0.0
149
0.0
100
AcDbLayout
  1
レイアウト1
 70
     0
 71
     1
 10
0.0
 20
0.0
 11
12.0
 21
9.0
 12
0.0
 22
0.0
 32
0.0
 14
1.000000000000000E+20
 24
1.000000000000000E+20
 34
1.000000000000000E+20
 15
-1.000000000000000E+20
 25
-1.000000000000000E+20
 35
-1.000000000000000E+20
146
0.0
 13
0.0
 23
0.0
 33
0.0
 16
1.0
 26
0.0
 36
0.0
 17
0.0
 27
1.0
 37
0.0
 76
     0
330
B
  0
MATERIAL
  5
4BE
102
{ACAD_XDICTIONARY
360
6E0
102
}
102
{ACAD_REACTORS
330
4BC
102
}
330
4BC
100
AcDbMaterial
  1
ByBlock
  0
MATERIAL
  5
4BD
102
{ACAD_XDICTIONARY
360
6DE
102
}
102
{ACAD_REACTORS
330
4BC
102
}
330
4BC
100
AcDbMaterial
  1
ByLayer
  0
MATERIAL
  5
4BF
102
{ACAD_XDICTIONARY
360
6E2
102
}
102
{ACAD_REACTORS
330
4BC
102
}
330
4BC
100
AcDbMaterial
  1
Global
  0
MLINESTYLE
  5
1C
102
{ACAD_REACTORS
330
1B
102
}
330
1B
100
AcDbMlineStyle
  2
STANDARD
 70
     0
  3

 62
     0
 51
90.0
 52
90.0
 71
     2
 49
0.5
 62
   256
  6
BYLAYER
 49
-0.5
 62
   256
  6
BYLAYER
  0
ACDBPLACEHOLDER
  5
4BB
102
{ACAD_REACTORS
330
4BA
102
}
330
4BA
  0
TABLESTYLE
  5
4D3
102
{ACAD_XDICTIONARY
360
6E4
102
}
102
{ACAD_REACTORS
330
4D2
102
}
330
4D2
100
AcDbTableStyle
  3
Standard
 70
     0
 71
     0
 40
1.5
 41
1.5
280
     0
281
     0
  7
STANDARD
140
4.5
170
     2
 62
     0
 63
     7
283
     0
274
    -2
284
     1
 64
     0
275
    -2
285
     1
 65
     0
276
    -2
286
     1
 66
     0
277
    -2
287
     1
 67
     0
278
    -2
288
     1
 68
     0
279
    -2
289
     1
 69
     0
  7
STANDARD
140
6.0
170
     5
 62
     0
 63
     7
283
     0
274
    -2
284
     1
 64
     0
275
    -2
285
     1
 65
     0
276
    -2
286
     1
 66
     0
277
    -2
287
     1
 67
     0
278
    -2
288
     1
 68
     0
279
    -2
289
     1
 69
     0
  7
STANDARD
140
4.5
170
     5
 62
     0
 63
     7
283
     0
274
    -2
284
     1
 64
     0
275
    -2
285
     1
 65
     0
276
    -2
286
     1
 66
     0
277
    -2
287
     1
 67
     0
278
    -2
288
     1
 68
     0
279
    -2
289
     1
 69
     0
  0
VISUALSTYLE
  5
4C6
102
{ACAD_REACTORS
330
4C0
102
}
330
4C0
100
AcDbVisualStyle
  2
2dWireframe
 70
     4
 71
     0
 72
     2
 73
     0
 90
        0
 40
-0.6
 41
-30.0
 62
     5
 63
     7
 74
     1
 91
        4
 64
     7
 65
   257
 75
     1
175
     1
 42
1.0
 92
        0
 66
   257
 43
1.0
 76
     1
 77
     6
 78
     2
 67
     7
 79
     5
170
     0
171
     0
290
     0
174
     0
 93
        1
 44
0.0
173
     0
291
     0
 45
0.0
1001
ACAD
1000
AcDbSavedByObjectVersion
1070
     0
  0
VISUALSTYLE
  5
4C8
102
{ACAD_REACTORS
330
4C0
102
}
330
4C0
100
AcDbVisualStyle
  2
3D Hidden
 70
     6
 71
     1
 72
     2
 73
     2
 90
        0
 40
-0.6
 41
-30.0
 62
     5
 63
     7
 74
     2
 91
        2
 64
     7
 65
   257
 75
     2
175
     1
 42
40.0
 92
        0
 66
   257
 43
1.0
 76
     1
 77
     6
 78
     2
 67
     7
 79
     3
170
     0
171
     0
290
     0
174
     0
 93
        1
 44
0.0
173
     0
291
     0
 45
0.0
1001
ACAD
1000
AcDbSavedByObjectVersion
1070
     0
  0
VISUALSTYLE
  5
4C7
102
{ACAD_REACTORS
330
4C0
102
}
330
4C0
100
AcDbVisualStyle
  2
3dWireframe
 70
     5
 71
     0
 72
     2
 73
     0
 90
        0
 40
-0.6
 41
-30.0
 62
     5
 63
     7
 74
     1
 91
        4
 64
     7
 65
   257
 75
     1
175
     1
 42
1.0
 92
        0
 66
   257
 43
1.0
 76
     1
 77
     6
 78
     2
 67
     7
 79
     5
170
     0
171
     0
290
     0
174
     0
 93
        1
 44
0.0
173
     0
291
     0
 45
0.0
1001
ACAD
1000
AcDbSavedByObjectVersion
1070
     0
  0
VISUALSTYLE
  5
4C5
102
{ACAD_REACTORS
330
4C0
102
}
330
4C0
100
AcDbVisualStyle
  2
Basic
 70
     7
 71
     1
 72
     0
 73
     1
 90
        0
 40
-0.6
 41
-30.0
 62
     5
 63
     7
 74
     0
 91
        4
 64
     7
 65
   257
 75
     1
175
     1
 42
1.0
 92
        8
 66
     7
 43
1.0
 76
     1
 77
     6
 78
     2
 67
     7
 79
     5
170
     0
171
     0
290
     0
174
     0
 93
        1
 44
0.0
173
     0
291
     1
 45
0.0
1001
ACAD
1000
AcDbSavedByObjectVersion
1070
     0
  0
VISUALSTYLE
  5
4CC
102
{ACAD_REACTORS
330
4C0
102
}
330
4C0
100
AcDbVisualStyle
  2
Brighten
 70
    12
 71
     2
 72
     2
 73
     0
 90
        0
 40
-0.6
 41
-30.0
 62
     5
 63
     7
 74
     1
 91
        4
 64
     7
 65
   257
 75
     1
175
     1
 42
1.0
 92
        8
 66
     7
 43
1.0
 76
     1
 77
     6
 78
     2
 67
     7
 79
     5
170
     0
171
     0
290
     0
174
     0
 93
        1
 44
50.0
173
     0
291
     1
 45
0.0
1001
ACAD
1000
AcDbSavedByObjectVersion
1070
     0
  0
VISUALSTYLE
  5
4D0
102
{ACAD_REACTORS
330
4C0
102
}
330
4C0
100
AcDbVisualStyle
  2
ColorChange
 70
    16
 71
     2
 72
     2
 73
     3
 90
        0
 40
-0.6
 41
-30.0
 62
     5
 63
     8
 74
     1
 91
        4
 64
     7
 65
   257
 75
     1
175
     1
 42
1.0
 92
        8
 66
     8
 43
1.0
 76
     1
 77
     6
 78
     2
 67
     7
 79
     5
170
     0
171
     0
290
     0
174
     0
 93
        1
 44
0.0
173
     0
291
     1
 45
0.0
1001
ACAD
1000
AcDbSavedByObjectVersion
1070
     0
  0
VISUALSTYLE
  5
4C9
102
{ACAD_REACTORS
330
4C0
102
}
330
4C0
100
AcDbVisualStyle
  2
Conceptual
 70
     9
 71
     3
 72
     2
 73
     0
 90
        0
 40
-0.6
 41
-30.0
 62
     5
 63
     7
 74
     2
 91
        2
 64
     7
 65
   257
 75
     1
175
     1
 42
40.0
 92
        8
 66
     7
 43
1.0
 76
     1
 77
     6
 78
     2
 67
     7
 79
     3
170
     0
171
     0
290
     0
174
     0
 93
        1
 44
0.0
173
     0
291
     0
 45
0.0
1001
ACAD
1000
AcDbSavedByObjectVersion
1070
     0
  0
VISUALSTYLE
  5
4CB
102
{ACAD_REACTORS
330
4C0
102
}
330
4C0
100
AcDbVisualStyle
  2
Dim
 70
    11
 71
     2
 72
     2
 73
     0
 90
        0
 40
-0.6
 41
-30.0
 62
     5
 63
     7
 74
     1
 91
        4
 64
     7
 65
   257
 75
     1
175
     1
 42
1.0
 92
        8
 66
     7
 43
1.0
 76
     1
 77
     6
 78
     2
 67
     7
 79
     5
170
     0
171
     0
290
     0
174
     0
 93
        1
 44
-50.0
173
     0
291
     1
 45
0.0
1001
ACAD
1000
AcDbSavedByObjectVersion
1070
     0
  0
VISUALSTYLE
  5
4CF
102
{ACAD_REACTORS
330
4C0
102
}
330
4C0
100
AcDbVisualStyle
  2
Facepattern
 70
    15
 71
     2
 72
     2
 73
     0
 90
        0
 40
-0.6
 41
-30.0
 62
     5
 63
     7
 74
     1
 91
        4
 64
     7
 65
   257
 75
     1
175
     1
 42
1.0
 92
        8
 66
     7
 43
1.0
 76
     1
 77
     6
 78
     2
 67
     7
 79
     5
170
     0
171
     0
290
     0
174
     0
 93
        1
 44
0.0
173
     0
291
     1
 45
0.0
1001
ACAD
1000
AcDbSavedByObjectVersion
1070
     0
  0
VISUALSTYLE
  5
4C1
102
{ACAD_REACTORS
330
4C0
102
}
330
4C0
100
AcDbVisualStyle
  2
Flat
 70
     0
 71
     2
 72
     1
 73
     1
 90
        2
 40
-0.6
 41
30.0
 62
     5
 63
     7
 74
     0
 91
        4
 64
     7
 65
   257
 75
     1
175
     1
 42
1.0
 92
        8
 66
     7
 43
1.0
 76
     1
 77
     6
 78
     2
 67
     7
 79
     5
170
     0
171
     0
290
     0
174
     0
 93
       13
 44
0.0
173
     0
291
     1
 45
0.0
1001
ACAD
1000
AcDbSavedByObjectVersion
1070
     0
  0
VISUALSTYLE
  5
4C2
102
{ACAD_REACTORS
330
4C0
102
}
330
4C0
100
AcDbVisualStyle
  2
FlatWithEdges
 70
     1
 71
     2
 72
     1
 73
     1
 90
        2
 40
-0.6
 41
30.0
 62
     5
 63
     7
 74
     1
 91
        4
 64
     7
 65
   257
 75
     1
175
     1
 42
1.0
 92
        0
 66
   257
 43
1.0
 76
     1
 77
     6
 78
     2
 67
     7
 79
     5
170
     0
171
     0
290
     0
174
     0
 93
       13
 44
0.0
173
     0
291
     1
 45
0.0
1001
ACAD
1000
AcDbSavedByObjectVersion
1070
     0
  0
VISUALSTYLE
  5
4C3
102
{ACAD_REACTORS
330
4C0
102
}
330
4C0
100
AcDbVisualStyle
  2
Gouraud
 70
     2
 71
     2
 72
     2
 73
     1
 90
        2
 40
-0.6
 41
30.0
 62
     5
 63
     7
 74
     0
 91
        4
 64
     7
 65
   257
 75
     1
175
     1
 42
1.0
 92
        0
 66
     7
 43
1.0
 76
     1
 77
     6
 78
     2
 67
     7
 79
     5
170
     0
171
     0
290
     0
174
     0
 93
       13
 44
0.0
173
     0
291
     1
 45
0.0
1001
ACAD
1000
AcDbSavedByObjectVersion
1070
     0
  0
VISUALSTYLE
  5
4C4
102
{ACAD_REACTORS
330
4C0
102
}
330
4C0
100
AcDbVisualStyle
  2
GouraudWithEdges
 70
     3
 71
     2
 72
     2
 73
     1
 90
        2
 40
-0.6
 41
30.0
 62
     5
 63
     7
 74
     1
 91
        4
 64
     7
 65
   257
 75
     1
175
     1
 42
1.0
 92
        0
 66
   257
 43
1.0
 76
     1
 77
     6
 78
     2
 67
     7
 79
     5
170
     0
171
     0
290
     0
174
     0
 93
       13
 44
0.0
173
     0
291
     1
 45
0.0
1001
ACAD
1000
AcDbSavedByObjectVersion
1070
     0
  0
VISUALSTYLE
  5
4CE
102
{ACAD_REACTORS
330
4C0
102
}
330
4C0
100
AcDbVisualStyle
  2
Linepattern
 70
    14
 71
     2
 72
     2
 73
     0
 90
        0
 40
-0.6
 41
-30.0
 62
     5
 63
     7
 74
     1
 91
        4
 64
     7
 65
   257
 75
     7
175
     7
 42
1.0
 92
        8
 66
     7
 43
1.0
 76
     1
 77
     6
 78
     2
 67
     7
 79
     5
170
     0
171
     0
290
     0
174
     0
 93
        1
 44
0.0
173
     0
291
     1
 45
0.0
1001
ACAD
1000
AcDbSavedByObjectVersion
1070
     0
  0
VISUALSTYLE
  5
4CA
102
{ACAD_REACTORS
330
4C0
102
}
330
4C0
100
AcDbVisualStyle
  2
Realistic
 70
     8
 71
     2
 72
     2
 73
     0
 90
        0
 40
-0.6
 41
-30.0
 62
     5
 63
     7
 74
     1
 91
        0
 64
     7
 65
   257
 75
     1
175
     1
 42
1.0
 92
        8
 66
     8
 43
1.0
 76
     1
 77
     6
 78
     2
 67
     7
 79
     5
170
     0
171
     0
290
     0
174
     0
 93
       13
 44
0.0
173
     0
291
     0
 45
0.0
1001
ACAD
1000
AcDbSavedByObjectVersion
1070
     0
  0
VISUALSTYLE
  5
4CD
102
{ACAD_REACTORS
330
4C0
102
}
330
4C0
100
AcDbVisualStyle
  2
Thicken
 70
    13
 71
     2
 72
     2
 73
     0
 90
        0
 40
-0.6
 41
-30.0
 62
     5
 63
     7
 74
     1
 91
        4
 64
     7
 65
   257
 75
     1
175
     1
 42
1.0
 92
       12
 66
     7
 43
1.0
 76
     1
 77
     6
 78
     2
 67
     7
 79
     5
170
     0
171
     0
290
     0
174
     0
 93
        1
 44
0.0
173
     0
291
     1
 45
0.0
1001
ACAD
1000
AcDbSavedByObjectVersion
1070
     0
  0
DICTIONARYVAR
  5
532
102
{ACAD_REACTORS
330
531
102
}
330
531
100
DictionaryVariables
280
     0
  1
STANDARD
  0
DICTIONARYVAR
  5
6B0
102
{ACAD_REACTORS
330
531
102
}
330
531
100
DictionaryVariables
280
     0
  1
1
  0
DICTIONARYVAR
  5
6AF
102
{ACAD_REACTORS
330
531
102
}
330
531
100
DictionaryVariables
280
     0
  1
0
  0
DICTIONARYVAR
  5
6AE
102
{ACAD_REACTORS
330
531
102
}
330
531
100
DictionaryVariables
280
     0
  1
127
  0
DICTIONARY
  5
6E6
330
4D7
100
AcDbDictionary
280
     1
281
     1
  3
ACAD_XREC_ROUNDTRIP
360
6E7
  0
DICTIONARY
  5
6E8
330
4D8
100
AcDbDictionary
280
     1
281
     1
  3
ACAD_XREC_ROUNDTRIP
360
6E9
  0
DICTIONARY
  5
6E0
330
4BE
100
AcDbDictionary
280
     1
281
     1
  3
ACAD_XREC_ROUNDTRIP
360
6E1
  0
DICTIONARY
  5
6DE
330
4BD
100
AcDbDictionary
280
     1
281
     1
  3
ACAD_XREC_ROUNDTRIP
360
6DF
  0
DICTIONARY
  5
6E2
330
4BF
100
AcDbDictionary
280
     1
281
     1
  3
ACAD_XREC_ROUNDTRIP
360
6E3
  0
DICTIONARY
  5
6E4
330
4D3
100
AcDbDictionary
280
     1
281
     1
  3
ACAD_XREC_ROUNDTRIP
360
6E5
  0
XRECORD
  5
6E7
102
{ACAD_REACTORS
330
6E6
102
}
330
6E6
100
AcDbXrecord
280
     1
102
SHADEPLOT
 70
     0
102
SHADEPLOTRESLEVEL
 70
     2
102
SHADEPLOTCUSTOMDPI
 70
   300
  0
XRECORD
  5
6E9
102
{ACAD_REACTORS
330
6E8
102
}
330
6E8
100
AcDbXrecord
280
     1
102
SHADEPLOT
 70
     0
102
SHADEPLOTRESLEVEL
 70
     2
102
SHADEPLOTCUSTOMDPI
 70
   300
  0
XRECORD
  5
6E1
102
{ACAD_REACTORS
330
6E0
102
}
330
6E0
100
AcDbXrecord
280
     1
102
MATERIAL
148
0.0
149
0.0
149
0.0
 93
        0
 94
       63
282
     0
 72
     1
 77
     1
171
     1
175
     1
179
     1
273
     0
  0
XRECORD
  5
6DF
102
{ACAD_REACTORS
330
6DE
102
}
330
6DE
100
AcDbXrecord
280
     1
102
MATERIAL
148
0.0
149
0.0
149
0.0
 93
        0
 94
       63
282
     0
 72
     1
 77
     1
171
     1
175
     1
179
     1
273
     0
  0
XRECORD
  5
6E3
102
{ACAD_REACTORS
330
6E2
102
}
330
6E2
100
AcDbXrecord
280
     1
102
MATERIAL
148
0.0
149
0.0
149
0.0
 93
        0
 94
       63
282
     0
 72
     1
 77
     1
171
     1
175
     1
179
     1
273
     0
  0
XRECORD
  5
6E5
102
{ACAD_REACTORS
330
6E4
102
}
330
6E4
100
AcDbXrecord
280
     1
102
ACAD_ROUNDTRIP_PRE2007_TABLESTYLE
 90
      512
 91
        0
  1

 92
      512
 93
        0
  2

 94
      512
 95
        0
  3

  0
ENDSEC
  0
EOF
