  0
SECTION
  2
HEADER
  9
$ACADVER
  1
AC1018
  9
$ACADMAINTVER
 70
   104
  9
$DWGCODEPAGE
  3
ANSI_932
  9
$LASTSAVEDBY
  1
toragi12
  9
$INSBASE
 10
0.0
 20
0.0
 30
0.0
  9
$EXTMIN
 10
50.0
 20
50.0
 30
-0.2000000000000001
  9
$EXTMAX
 10
260.0
 20
198.5
 30
0.05
  9
$LIMMIN
 10
0.0
 20
0.0
  9
$LIMMAX
 10
420.0
 20
297.0
  9
$ORTHOMODE
 70
     0
  9
$REGENMODE
 70
     1
  9
$FILLMODE
 70
     1
  9
$QTEXTMODE
 70
     0
  9
$MIRRTEXT
 70
     1
  9
$LTSCALE
 40
2.0
  9
$ATTMODE
 70
     1
  9
$TEXTSIZE
 40
2.5
  9
$TRACEWID
 40
1.0
  9
$TEXTSTYLE
  7
Standard
  9
$CLAYER
  8
002寸法
  9
$CELTYPE
  6
ByLayer
  9
$CECOLOR
 62
   256
  9
$CELTSCALE
 40
1.0
  9
$DISPSILH
 70
     0
  9
$DIMSCALE
 40
1.0
  9
$DIMASZ
 40
5.0
  9
$DIMEXO
 40
1.0
  9
$DIMDLI
 40
3.75
  9
$DIMRND
 40
0.0
  9
$DIMDLE
 40
0.0
  9
$DIMEXE
 40
1.5
  9
$DIMTP
 40
0.0
  9
$DIMTM
 40
0.0
  9
$DIMTXT
 40
6.0
  9
$DIMCEN
 40
5.0
  9
$DIMTSZ
 40
0.0
  9
$DIMTOL
 70
     0
  9
$DIMLIM
 70
     0
  9
$DIMTIH
 70
     0
  9
$DIMTOH
 70
     0
  9
$DIMSE1
 70
     0
  9
$DIMSE2
 70
     0
  9
$DIMTAD
 70
     3
  9
$DIMZIN
 70
     8
  9
$DIMBLK
  1

  9
$DIMASO
 70
     1
  9
$DIMSHO
 70
     1
  9
$DIMPOST
  1

  9
$DIMAPOST
  1

  9
$DIMALT
 70
     0
  9
$DIMALTD
 70
     4
  9
$DIMALTF
 40
0.0394
  9
$DIMLFAC
 40
1.0
  9
$DIMTOFL
 70
     1
  9
$DIMTVP
 40
0.0
  9
$DIMTIX
 70
     0
  9
$DIMSOXD
 70
     0
  9
$DIMSAH
 70
     1
  9
$DIMBLK1
  1
OPEN
  9
$DIMBLK2
  1
OPEN
  9
$DIMSTYLE
  2
通常ｘ0.5
  9
$DIMCLRD
 70
   256
  9
$DIMCLRE
 70
   256
  9
$DIMCLRT
 70
     2
  9
$DIMTFAC
 40
1.0
  9
$DIMGAP
 40
1.0
  9
$DIMJUST
 70
     0
  9
$DIMSD1
 70
     0
  9
$DIMSD2
 70
     0
  9
$DIMTOLJ
 70
     1
  9
$DIMTZIN
 70
     0
  9
$DIMALTZ
 70
     0
  9
$DIMALTTZ
 70
     0
  9
$DIMUPT
 70
     0
  9
$DIMDEC
 70
     2
  9
$DIMTDEC
 70
     2
  9
$DIMALTU
 70
     8
  9
$DIMALTTD
 70
     4
  9
$DIMTXSTY
  7
Standard
  9
$DIMAUNIT
 70
     0
  9
$DIMADEC
 70
     2
  9
$DIMALTRND
 40
0.0
  9
$DIMAZIN
 70
     2
  9
$DIMDSEP
 70
    46
  9
$DIMATFIT
 70
     3
  9
$DIMFRAC
 70
     0
  9
$DIMLDRBLK
  1
OPEN
  9
$DIMLUNIT
 70
     2
  9
$DIMLWD
 70
    -1
  9
$DIMLWE
 70
    -1
  9
$DIMTMOVE
 70
     0
  9
$LUNITS
 70
     2
  9
$LUPREC
 70
     8
  9
$SKETCHINC
 40
1.0
  9
$FILLETRAD
 40
2.0
  9
$AUNITS
 70
     0
  9
$AUPREC
 70
     6
  9
$MENU
  1
.
  9
$ELEVATION
 40
0.0
  9
$PELEVATION
 40
0.0
  9
$THICKNESS
 40
0.0
  9
$LIMCHECK
 70
     0
  9
$CHAMFERA
 40
0.4
  9
$CHAMFERB
 40
0.4
  9
$CHAMFERC
 40
45.0
  9
$CHAMFERD
 40
3.141592653589793
  9
$SKPOLY
 70
     0
  9
$TDCREATE
 40
2453536.500536378
  9
$TDUCREATE
 40
2453536.125536377
  9
$TDUPDATE
 40
2459816.728500336
  9
$TDUUPDATE
 40
2459816.353500336
  9
$TDINDWG
 40
1.6392564120
  9
$TDUSRTIMER
 40
1.6392564120
  9
$USRTIMER
 70
     1
  9
$ANGBASE
 50
0.0
  9
$ANGDIR
 70
     0
  9
$PDMODE
 70
     0
  9
$PDSIZE
 40
0.0
  9
$PLINEWID
 40
0.0
  9
$SPLFRAME
 70
     0
  9
$SPLINETYPE
 70
     6
  9
$SPLINESEGS
 70
     8
  9
$HANDSEED
  5
888A
  9
$SURFTAB1
 70
     6
  9
$SURFTAB2
 70
     6
  9
$SURFTYPE
 70
     6
  9
$SURFU
 70
     6
  9
$SURFV
 70
     6
  9
$UCSBASE
  2

  9
$UCSNAME
  2

  9
$UCSORG
 10
0.0
 20
0.0
 30
0.0
  9
$UCSXDIR
 10
1.0
 20
0.0
 30
0.0
  9
$UCSYDIR
 10
0.0
 20
1.0
 30
0.0
  9
$UCSORTHOREF
  2

  9
$UCSORTHOVIEW
 70
     1
  9
$UCSORGTOP
 10
0.0
 20
0.0
 30
0.0
  9
$UCSORGBOTTOM
 10
0.0
 20
0.0
 30
0.0
  9
$UCSORGLEFT
 10
0.0
 20
0.0
 30
0.0
  9
$UCSORGRIGHT
 10
0.0
 20
0.0
 30
0.0
  9
$UCSORGFRONT
 10
0.0
 20
0.0
 30
0.0
  9
$UCSORGBACK
 10
0.0
 20
0.0
 30
0.0
  9
$PUCSBASE
  2

  9
$PUCSNAME
  2

  9
$PUCSORG
 10
0.0
 20
0.0
 30
0.0
  9
$PUCSXDIR
 10
1.0
 20
0.0
 30
0.0
  9
$PUCSYDIR
 10
0.0
 20
1.0
 30
0.0
  9
$PUCSORTHOREF
  2

  9
$PUCSORTHOVIEW
 70
     0
  9
$PUCSORGTOP
 10
0.0
 20
0.0
 30
0.0
  9
$PUCSORGBOTTOM
 10
0.0
 20
0.0
 30
0.0
  9
$PUCSORGLEFT
 10
0.0
 20
0.0
 30
0.0
  9
$PUCSORGRIGHT
 10
0.0
 20
0.0
 30
0.0
  9
$PUCSORGFRONT
 10
0.0
 20
0.0
 30
0.0
  9
$PUCSORGBACK
 10
0.0
 20
0.0
 30
0.0
  9
$USERI1
 70
     0
  9
$USERI2
 70
     0
  9
$USERI3
 70
     0
  9
$USERI4
 70
     0
  9
$USERI5
 70
     0
  9
$USERR1
 40
0.0
  9
$USERR2
 40
0.0
  9
$USERR3
 40
0.0
  9
$USERR4
 40
0.0
  9
$USERR5
 40
0.0
  9
$WORLDVIEW
 70
     1
  9
$SHADEDGE
 70
     3
  9
$SHADEDIF
 70
    70
  9
$TILEMODE
 70
     1
  9
$MAXACTVP
 70
    48
  9
$PINSBASE
 10
0.0
 20
0.0
 30
0.0
  9
$PLIMCHECK
 70
     0
  9
$PEXTMIN
 10
0.0
 20
0.0
 30
0.0
  9
$PEXTMAX
 10
594.0
 20
420.0
 30
0.0
  9
$PLIMMIN
 10
0.0
 20
0.0
  9
$PLIMMAX
 10
594.1060180664062
 20
420.1159973144531
  9
$UNITMODE
 70
     0
  9
$VISRETAIN
 70
     1
  9
$PLINEGEN
 70
     0
  9
$PSLTSCALE
 70
     1
  9
$TREEDEPTH
 70
  3020
  9
$CMLSTYLE
  2
Standard
  9
$CMLJUST
 70
     0
  9
$CMLSCALE
 40
20.0
  9
$PROXYGRAPHICS
 70
     1
  9
$MEASUREMENT
 70
     1
  9
$CELWEIGHT
370
    -1
  9
$ENDCAPS
280
     0
  9
$JOINSTYLE
280
     0
  9
$LWDISPLAY
290
     0
  9
$INSUNITS
 70
     4
  9
$HYPERLINKBASE
  1

  9
$STYLESHEET
  1
SHOWA.ctb
  9
$XEDIT
290
     1
  9
$CEPSNTYPE
380
     0
  9
$PSTYLEMODE
290
     1
  9
$FINGERPRINTGUID
  2
{FDEAD578-A652-11D2-9A35-0060089B3A3F}
  9
$VERSIONGUID
  2
{AFC7BA2D-FE87-4CA5-A13F-5C86CB949F43}
  9
$EXTNAMES
290
     1
  9
$PSVPSCALE
 40
0.0
  9
$OLESTARTUP
290
     0
  9
$SORTENTS
280
   127
  9
$INDEXCTL
280
     0
  9
$HIDETEXT
280
     1
  9
$XCLIPFRAME
290
     0
  9
$HALOGAP
280
     0
  9
$OBSCOLOR
 70
   257
  9
$OBSLTYPE
280
     0
  9
$INTERSECTIONDISPLAY
280
     0
  9
$INTERSECTIONCOLOR
 70
   257
  9
$DIMASSOC
280
     2
  9
$PROJECTNAME
  1

  0
ENDSEC
  0
SECTION
  2
CLASSES
  0
CLASS
  1
ACDBDICTIONARYWDFLT
  2
AcDbDictionaryWithDefault
  3
ObjectDBX Classes
 90
        0
 91
        1
280
     0
281
     0
  0
CLASS
  1
DICTIONARYVAR
  2
AcDbDictionaryVar
  3
ObjectDBX Classes
 90
        0
 91
       13
280
     0
281
     0
  0
CLASS
  1
DIMASSOC
  2
AcDbDimAssoc
  3
"AcDbDimAssoc|Product Desc:     AcDim ARX App For Dimension|Company:          Autodesk, Inc.|WEB Address:      www.autodesk.com"
 90
        0
 91
       16
280
     0
281
     0
  0
CLASS
  1
TABLESTYLE
  2
AcDbTableStyle
  3
ObjectDBX Classes
 90
     4095
 91
        1
280
     0
281
     0
  0
CLASS
  1
SORTENTSTABLE
  2
AcDbSortentsTable
  3
ObjectDBX Classes
 90
        0
 91
        3
280
     0
281
     0
  0
CLASS
  1
LARGE_RADIAL_DIMENSION
  2
AcDbRadialDimensionLarge
  3
ObjectDBX Classes
 90
     1025
 91
        0
280
     0
281
     1
  0
CLASS
  1
MATERIAL
  2
AcDbMaterial
  3
ObjectDBX Classes
 90
     1153
 91
        3
280
     0
281
     0
  0
CLASS
  1
VISUALSTYLE
  2
AcDbVisualStyle
  3
ObjectDBX Classes
 90
     4095
 91
       24
280
     0
281
     0
  0
CLASS
  1
SCALE
  2
AcDbScale
  3
ObjectDBX Classes
 90
     1153
 91
       17
280
     0
281
     0
  0
CLASS
  1
MLEADERSTYLE
  2
AcDbMLeaderStyle
  3
ACDB_MLEADERSTYLE_CLASS
 90
     4095
 91
        1
280
     0
281
     0
  0
CLASS
  1
ACDBSECTIONVIEWSTYLE
  2
AcDbSectionViewStyle
  3
ObjectDBX Classes
 90
     1025
 91
        1
280
     0
281
     0
  0
CLASS
  1
ACDBDETAILVIEWSTYLE
  2
AcDbDetailViewStyle
  3
ObjectDBX Classes
 90
     1025
 91
        1
280
     0
281
     0
  0
CLASS
  1
CELLSTYLEMAP
  2
AcDbCellStyleMap
  3
ObjectDBX Classes
 90
     1152
 91
        1
280
     0
281
     0
  0
ENDSEC
  0
SECTION
  2
TABLES
  0
TABLE
  2
VPORT
  5
8
330
0
100
AcDbSymbolTable
 70
     1
  0
VPORT
  5
7E3A
330
8
100
AcDbSymbolTableRecord
100
AcDbViewportTableRecord
  2
*Active
 70
     0
 10
0.0
 20
0.0
 11
1.0
 21
1.0
 12
295.6360209083417
 22
96.70244266103871
 13
0.0
 23
0.0
 14
10.0
 24
10.0
 15
10.0
 25
10.0
 16
0.0
 26
0.0
 36
1.0
 17
0.0
 27
0.0
 37
0.0
 40
419.0413125308431
 41
1.886585365853658
 42
50.0
 43
0.0
 44
0.0
 50
0.0
 51
0.0
 71
     0
 72
   100
 73
     1
 74
     3
 75
     0
 76
     0
 77
     0
 78
     0
281
     0
 65
     1
110
0.0
120
0.0
130
0.0
111
1.0
121
0.0
131
0.0
112
0.0
122
1.0
132
0.0
 79
     0
146
0.0
1001
ACAD_NAV_VCDISPLAY
1070
     3
  0
ENDTAB
  0
TABLE
  2
LTYPE
  5
5
330
0
100
AcDbSymbolTable
 70
    12
  0
LTYPE
  5
14
330
5
100
AcDbSymbolTableRecord
100
AcDbLinetypeTableRecord
  2
ByBlock
 70
     0
  3

 72
    65
 73
     0
 40
0.0
  0
LTYPE
  5
15
330
5
100
AcDbSymbolTableRecord
100
AcDbLinetypeTableRecord
  2
ByLayer
 70
     0
  3

 72
    65
 73
     0
 40
0.0
  0
LTYPE
  5
16
330
5
100
AcDbSymbolTableRecord
100
AcDbLinetypeTableRecord
  2
Continuous
 70
     0
  3
Solid line
 72
    65
 73
     0
 40
0.0
  0
LTYPE
  5
84A
330
5
100
AcDbSymbolTableRecord
100
AcDbLinetypeTableRecord
  2
CENTER
 70
     0
  3
Center ____ _ ____ _ ____ _ ____ _ ____ _ ____
 72
    65
 73
     4
 40
2.0
 49
1.25
 74
     0
 49
-0.25
 74
     0
 49
0.25
 74
     0
 49
-0.25
 74
     0
  0
LTYPE
  5
84B
330
5
100
AcDbSymbolTableRecord
100
AcDbLinetypeTableRecord
  2
CENTER2
 70
     0
  3
Center (.5x) ___ _ ___ _ ___ _ ___ _ ___ _ ___
 72
    65
 73
     4
 40
1.125
 49
0.75
 74
     0
 49
-0.125
 74
     0
 49
0.125
 74
     0
 49
-0.125
 74
     0
  0
LTYPE
  5
84C
330
5
100
AcDbSymbolTableRecord
100
AcDbLinetypeTableRecord
  2
CENTERX2
 70
     0
  3
Center (2x) ________  __  ________  __  _____
 72
    65
 73
     4
 40
4.0
 49
2.5
 74
     0
 49
-0.5
 74
     0
 49
0.5
 74
     0
 49
-0.5
 74
     0
  0
LTYPE
  5
84D
330
5
100
AcDbSymbolTableRecord
100
AcDbLinetypeTableRecord
  2
DASHED
 70
     0
  3
Dashed __ __ __ __ __ __ __ __ __ __ __ __ __ _
 72
    65
 73
     2
 40
0.75
 49
0.5
 74
     0
 49
-0.25
 74
     0
  0
LTYPE
  5
84E
330
5
100
AcDbSymbolTableRecord
100
AcDbLinetypeTableRecord
  2
DASHED2
 70
     0
  3
Dashed (.5x) _ _ _ _ _ _ _ _ _ _ _ _ _ _ _ _ _
 72
    65
 73
     2
 40
0.375
 49
0.25
 74
     0
 49
-0.125
 74
     0
  0
LTYPE
  5
84F
330
5
100
AcDbSymbolTableRecord
100
AcDbLinetypeTableRecord
  2
DASHEDX2
 70
     0
  3
Dashed (2x) ____  ____  ____  ____  ____  ___
 72
    65
 73
     2
 40
1.5
 49
1.0
 74
     0
 49
-0.5
 74
     0
  0
LTYPE
  5
850
330
5
100
AcDbSymbolTableRecord
100
AcDbLinetypeTableRecord
  2
PHANTOM
 70
     0
  3
Phantom ______  __  __  ______  __  __  ______
 72
    65
 73
     6
 40
2.5
 49
1.25
 74
     0
 49
-0.25
 74
     0
 49
0.25
 74
     0
 49
-0.25
 74
     0
 49
0.25
 74
     0
 49
-0.25
 74
     0
  0
LTYPE
  5
851
330
5
100
AcDbSymbolTableRecord
100
AcDbLinetypeTableRecord
  2
PHANTOM2
 70
     0
  3
Phantom (.5x) ___ _ _ ___ _ _ ___ _ _ ___ _ _
 72
    65
 73
     6
 40
1.25
 49
0.625
 74
     0
 49
-0.125
 74
     0
 49
0.125
 74
     0
 49
-0.125
 74
     0
 49
0.125
 74
     0
 49
-0.125
 74
     0
  0
LTYPE
  5
852
330
5
100
AcDbSymbolTableRecord
100
AcDbLinetypeTableRecord
  2
PHANTOMX2
 70
     0
  3
Phantom (2x) ____________    ____    ____   _
 72
    65
 73
     6
 40
5.0
 49
2.5
 74
     0
 49
-0.5
 74
     0
 49
0.5
 74
     0
 49
-0.5
 74
     0
 49
0.5
 74
     0
 49
-0.5
 74
     0
  0
LTYPE
  5
54A0
330
5
100
AcDbSymbolTableRecord
100
AcDbLinetypeTableRecord
  2
LTYPE1
 70
     0
  3
CENTER
 72
    65
 73
     4
 40
10.0
 49
7.0
 74
     0
 49
-1.0
 74
     0
 49
1.0
 74
     0
 49
-1.0
 74
     0
  0
LTYPE
  5
54A1
330
5
100
AcDbSymbolTableRecord
100
AcDbLinetypeTableRecord
  2
LTYPE2
 70
     0
  3
HIDDEN
 72
    65
 73
     2
 40
2.0
 49
1.199999999999999
 74
     0
 49
-0.8
 74
     0
  0
ENDTAB
  0
TABLE
  2
LAYER
  5
2
102
{ACAD_XDICTIONARY
360
A17
102
}
330
0
100
AcDbSymbolTable
 70
    11
  0
LAYER
  5
10
102
{ACAD_XDICTIONARY
360
831D
102
}
330
2
100
AcDbSymbolTableRecord
100
AcDbLayerTableRecord
  2
0
 70
     0
 62
     7
  6
Continuous
370
    -3
390
F
  0
LAYER
  5
8E
330
2
100
AcDbSymbolTableRecord
100
AcDbLayerTableRecord
  2
DEFPOINTS
 70
     0
 62
     7
  6
Continuous
290
     0
370
    -3
390
F
  0
LAYER
  5
2C2
102
{ACAD_XDICTIONARY
360
831F
102
}
330
2
100
AcDbSymbolTableRecord
100
AcDbLayerTableRecord
  2
002寸法
 70
     0
 62
     1
  6
Continuous
370
    -3
390
F
  0
LAYER
  5
847
102
{ACAD_XDICTIONARY
360
8321
102
}
330
2
100
AcDbSymbolTableRecord
100
AcDbLayerTableRecord
  2
001センタ
 70
     0
 62
     1
  6
CENTER
370
    -3
390
F
  0
LAYER
  5
A15
102
{ACAD_XDICTIONARY
360
8323
102
}
330
2
100
AcDbSymbolTableRecord
100
AcDbLayerTableRecord
  2
外形線
 70
     0
 62
     3
  6
Continuous
370
    -3
390
F
1001
AcAecLayerStandard
1000

1000

  0
LAYER
  5
A1A
102
{ACAD_XDICTIONARY
360
8325
102
}
330
2
100
AcDbSymbolTableRecord
100
AcDbLayerTableRecord
  2
かくれ線
 70
     0
 62
     3
  6
DASHED2
370
    -3
390
F
1001
AcAecLayerStandard
1000

1000

  0
LAYER
  5
4E86
102
{ACAD_XDICTIONARY
360
8327
102
}
330
2
100
AcDbSymbolTableRecord
100
AcDbLayerTableRecord
  2
LY_1
 70
     0
 62
     7
  6
Continuous
370
    -3
390
F
  0
LAYER
  5
54A2
102
{ACAD_XDICTIONARY
360
8329
102
}
330
2
100
AcDbSymbolTableRecord
100
AcDbLayerTableRecord
  2
5
 70
     0
 62
     7
  6
Continuous
370
    -3
390
F
  0
LAYER
  5
5FAC
102
{ACAD_XDICTIONARY
360
832B
102
}
330
2
100
AcDbSymbolTableRecord
100
AcDbLayerTableRecord
  2
6
 70
     0
 62
     7
  6
Continuous
370
    -3
390
F
  0
LAYER
  5
5FAD
102
{ACAD_XDICTIONARY
360
832D
102
}
330
2
100
AcDbSymbolTableRecord
100
AcDbLayerTableRecord
  2
7
 70
     0
 62
     7
  6
Continuous
370
    -3
390
F
  0
LAYER
  5
7F24
102
{ACAD_XDICTIONARY
360
7F25
102
}
330
2
100
AcDbSymbolTableRecord
100
AcDbLayerTableRecord
  2
003注釈
 70
     0
 62
     2
  6
Continuous
370
    -3
390
F
1001
AcAecLayerStandard
1000

1000

1001
AcCmTransparency
1071
        0
  0
ENDTAB
  0
TABLE
  2
STYLE
  5
3
330
0
100
AcDbSymbolTable
 70
    12
  0
STYLE
  5
11
330
3
100
AcDbSymbolTableRecord
100
AcDbTextStyleTableRecord
  2
Standard
 70
     0
 40
0.0
 41
0.9
 50
0.0
 71
     0
 42
2.5
  3
romans.shx
  4
extfont2.shx
  0
STYLE
  5
2C3
330
3
100
AcDbSymbolTableRecord
100
AcDbTextStyleTableRecord
  2
表題
 70
     0
 40
0.0
 41
1.0
 50
0.0
 71
     0
 42
2.5
  3
HGRSMP.TTF
  4

1001
ACAD
1000
HGMaruGothicMPRO
1071
    32818
  0
STYLE
  5
849
330
3
100
AcDbSymbolTableRecord
100
AcDbTextStyleTableRecord
  2

 70
     1
 40
0.0
 41
1.0
 50
0.0
 71
     0
 42
2.5
  3
ltypeshp.shx
  4

  0
STYLE
  5
2EBB
330
3
100
AcDbSymbolTableRecord
100
AcDbTextStyleTableRecord
  2
スタイル1
 70
     0
 40
0.0
 41
1.0
 50
0.0
 71
     0
 42
2.5
  3

  4

1001
ACAD
1000
MS Gothic
1071
    32817
  0
STYLE
  5
2EBC
330
3
100
AcDbSymbolTableRecord
100
AcDbTextStyleTableRecord
  2
スタイル2
 70
     0
 40
0.0
 41
0.9
 50
0.0
 71
     0
 42
2.5
  3
romans.shx
  4
extfont2.shx
  0
STYLE
  5
4E87
330
3
100
AcDbSymbolTableRecord
100
AcDbTextStyleTableRecord
  2
MX_NOTE_STANDARD
 70
     0
 40
0.0
 41
1.0
 50
0.0
 71
     0
 42
3.2
  3
txt.shx
  4
extfont.shx
  0
STYLE
  5
54A3
330
3
100
AcDbSymbolTableRecord
100
AcDbTextStyleTableRecord
  2
KANJI2
 70
     0
 40
4.0
 41
0.875
 50
0.0
 71
     0
 42
4.0
  3
txt.shx
  4
bigfont
  0
STYLE
  5
54A4
330
3
100
AcDbSymbolTableRecord
100
AcDbTextStyleTableRecord
  2
KANJI3
 70
     0
 40
3.2
 41
0.875
 50
0.0
 71
     0
 42
3.2
  3
txt.shx
  4
bigfont
  0
STYLE
  5
54A5
330
3
100
AcDbSymbolTableRecord
100
AcDbTextStyleTableRecord
  2
KANJI4
 70
     0
 40
4.0
 41
0.875
 50
0.0
 71
     0
 42
4.0
  3
txt.shx
  4
bigfont
  0
STYLE
  5
54A6
330
3
100
AcDbSymbolTableRecord
100
AcDbTextStyleTableRecord
  2
KANJI5
 70
     0
 40
4.0
 41
0.65
 50
0.0
 71
     0
 42
4.0
  3
txt.shx
  4
bigfont
  0
STYLE
  5
5C25
330
3
100
AcDbSymbolTableRecord
100
AcDbTextStyleTableRecord
  2
KANJI0
 70
     0
 40
4.0
 41
0.875
 50
0.0
 71
     0
 42
4.0
  3
txt.shx
  4
bigfont
  0
STYLE
  5
5FAE
330
3
100
AcDbSymbolTableRecord
100
AcDbTextStyleTableRecord
  2
KANJI1
 70
     0
 40
1.75
 41
1.0
 50
0.0
 71
     0
 42
1.75
  3
txt.shx
  4
bigfont
  0
ENDTAB
  0
TABLE
  2
VIEW
  5
6
330
0
100
AcDbSymbolTable
 70
     0
  0
ENDTAB
  0
TABLE
  2
UCS
  5
7
330
0
100
AcDbSymbolTable
 70
     0
  0
ENDTAB
  0
TABLE
  2
APPID
  5
9
330
0
100
AcDbSymbolTable
 70
    11
  0
APPID
  5
12
330
9
100
AcDbSymbolTableRecord
100
AcDbRegAppTableRecord
  2
ACAD
 70
     0
  0
APPID
  5
9C5
330
9
100
AcDbSymbolTableRecord
100
AcDbRegAppTableRecord
  2
ACAD_EXEMPT_FROM_CAD_STANDARDS
 70
     0
  0
APPID
  5
A16
330
9
100
AcDbSymbolTableRecord
100
AcDbRegAppTableRecord
  2
AcAecLayerStandard
 70
     0
  0
APPID
  5
2EBD
330
9
100
AcDbSymbolTableRecord
100
AcDbRegAppTableRecord
  2
ACAD_PSEXT
 70
     0
  0
APPID
  5
38B3
330
9
100
AcDbSymbolTableRecord
100
AcDbRegAppTableRecord
  2
ACAD_DSTYLE_DIMJOGGED_JOGANGLE_SYMBOL
 70
     0
  0
APPID
  5
4E89
330
9
100
AcDbSymbolTableRecord
100
AcDbRegAppTableRecord
  2
CONTENTBLOCKDESCRIPTION
 70
     0
  0
APPID
  5
7F26
330
9
100
AcDbSymbolTableRecord
100
AcDbRegAppTableRecord
  2
ACAD_NAV_VCDISPLAY
 70
     0
  0
APPID
  5
7F27
330
9
100
AcDbSymbolTableRecord
100
AcDbRegAppTableRecord
  2
AcCmTransparency
 70
     0
  0
APPID
  5
7F28
330
9
100
AcDbSymbolTableRecord
100
AcDbRegAppTableRecord
  2
GradientColor1ACI
 70
     0
  0
APPID
  5
7F29
330
9
100
AcDbSymbolTableRecord
100
AcDbRegAppTableRecord
  2
GradientColor2ACI
 70
     0
  0
APPID
  5
8885
330
9
100
AcDbSymbolTableRecord
100
AcDbRegAppTableRecord
  2
ACAD_MLEADERVER
 70
     0
  0
ENDTAB
  0
TABLE
  2
DIMSTYLE
  5
A
330
0
100
AcDbSymbolTable
 70
     9
100
AcDbDimStyleTable
 71
     2
340
43C
340
43A
  0
DIMSTYLE
105
8F
330
A
100
AcDbSymbolTableRecord
100
AcDbDimStyleTableRecord
  2
通常x3
 70
     0
 40
0.0
 41
0.833
 42
0.167
 43
3.75
 44
0.4
 73
     0
 74
     0
 77
     3
 78
     8
140
1.167
141
2.0
143
0.0394
147
0.4
171
     4
172
     1
173
     1
176
   256
177
   256
178
     2
271
     3
272
     3
273
     8
274
     4
340
11
341
86
343
86
344
86
371
    -1
372
    -1
  0
DIMSTYLE
105
275
330
A
100
AcDbSymbolTableRecord
100
AcDbDimStyleTableRecord
  2
通常x2
 70
     0
 40
0.0
 41
1.25
 42
0.25
 43
3.75
 44
0.5
 73
     0
 74
     0
 77
     3
 78
     8
140
1.75
141
2.0
143
0.0394
147
0.5
171
     4
172
     1
173
     1
176
   256
177
   256
178
     2
271
     3
272
     3
273
     8
274
     4
340
11
341
86
343
86
344
86
371
    -1
372
    -1
  0
DIMSTYLE
105
2C4
330
A
100
AcDbSymbolTableRecord
100
AcDbDimStyleTableRecord
  2
通常x0.7
 70
     0
 41
2.5
 42
0.715
 43
3.75
 44
1.07
 73
     0
 74
     0
 77
     3
 78
     8
 79
     2
140
4.299999999999999
141
2.5
143
0.0394
147
0.715
171
     4
172
     1
173
     1
176
   256
177
   256
178
     2
179
     2
271
     2
272
     2
273
     8
274
     4
340
11
341
86
343
86
344
86
371
    -1
372
    -1
  0
DIMSTYLE
105
439
330
A
100
AcDbSymbolTableRecord
100
AcDbDimStyleTableRecord
  2
通常x0.75
 70
     0
 41
3.333
 42
0.667
 43
3.75
 44
1.0
 73
     0
 74
     0
 77
     3
 78
     8
 79
     2
140
4.0
141
2.5
143
0.0394
147
0.667
171
     4
172
     1
173
     1
176
   256
177
   256
178
     2
179
     2
271
     2
272
     2
273
     8
274
     4
340
11
341
86
343
86
344
86
371
    -1
372
    -1
  0
DIMSTYLE
105
43A
330
A
100
AcDbSymbolTableRecord
100
AcDbDimStyleTableRecord
  2
通常x1
 70
     0
 41
2.5
 42
0.5
 43
3.75
 44
0.75
 73
     0
 74
     0
 77
     3
 78
     8
 79
     2
140
3.0
141
2.5
143
0.0394
147
0.5
171
     4
172
     1
173
     1
176
   256
177
   256
178
     2
179
     2
271
     2
272
     2
273
     8
274
     4
340
11
341
86
343
86
344
86
371
    -1
372
    -1
  0
DIMSTYLE
105
43B
330
A
100
AcDbSymbolTableRecord
100
AcDbDimStyleTableRecord
  2
通常ｘ0.33
 70
     0
 41
7.5
 42
1.5
 43
3.75
 44
2.25
 73
     0
 74
     0
 77
     3
 78
     8
 79
     2
140
9.0
141
5.0
143
0.0394
147
1.5
171
     4
172
     1
173
     1
176
   256
177
   256
178
     2
179
     2
271
     2
272
     2
273
     8
274
     4
340
11
341
86
343
86
344
86
371
    -1
372
    -1
  0
DIMSTYLE
105
43C
102
{ACAD_REACTORS
330
84F6
330
84F9
330
84FC
330
84FF
330
8502
330
8505
330
850D
330
8515
330
879A
330
879D
330
87A0
330
87A3
330
87A6
330
87A9
330
87AC
330
87B2
102
}
330
A
100
AcDbSymbolTableRecord
100
AcDbDimStyleTableRecord
  2
通常ｘ0.5
 70
     0
 41
5.0
 42
1.0
 43
3.75
 44
1.5
 73
     0
 74
     0
 77
     3
 78
     8
 79
     2
140
6.0
141
5.0
143
0.0394
147
1.0
171
     4
172
     1
173
     1
176
   256
177
   256
178
     2
179
     2
271
     2
272
     2
273
     8
274
     4
340
11
341
86
343
86
344
86
371
    -1
372
    -1
1001
ACAD_DSTYLE_DIMJOGGED_JOGANGLE_SYMBOL
1070
   384
1040
1.570796326794896
  0
DIMSTYLE
105
4E88
330
A
100
AcDbSymbolTableRecord
100
AcDbDimStyleTableRecord
  2
MXDIMSTYLE
 70
     0
 41
2.5
 42
0.0
 43
3.75
 44
1.27
 73
     0
 74
     0
 77
     1
 78
     8
140
3.2
141
2.5
143
0.03937
147
1.0
171
     4
172
     1
173
     1
271
     2
272
     2
274
     4
283
     0
340
4E87
341
4E79
343
4E79
344
4E79
  0
DIMSTYLE
105
54A7
330
A
100
AcDbSymbolTableRecord
100
AcDbDimStyleTableRecord
  2
Standard
 70
     0
340
11
  0
ENDTAB
  0
TABLE
  2
BLOCK_RECORD
  5
1
330
0
100
AcDbSymbolTable
 70
    53
  0
BLOCK_RECORD
  5
1F
102
{ACAD_XDICTIONARY
360
CA
102
}
330
1
100
AcDbSymbolTableRecord
100
AcDbBlockTableRecord
  2
*Model_Space
340
22
  0
BLOCK_RECORD
  5
50
102
{ACAD_XDICTIONARY
360
CE
102
}
330
1
100
AcDbSymbolTableRecord
100
AcDbBlockTableRecord
  2
*Paper_Space
340
51
  0
BLOCK_RECORD
  5
55
102
{ACAD_XDICTIONARY
360
CC
102
}
330
1
100
AcDbSymbolTableRecord
100
AcDbBlockTableRecord
  2
*Paper_Space0
340
56
  0
BLOCK_RECORD
  5
86
330
1
100
AcDbSymbolTableRecord
100
AcDbBlockTableRecord
  2
_OPEN
340
0
102
{BLKREFS
331
8612
331
8613
331
861B
331
861C
331
8626
331
8627
331
862F
331
8630
331
863A
331
863B
331
864B
331
864C
331
8656
331
8657
331
865F
331
87BC
331
87BD
331
87C8
331
87C9
331
87D6
331
87D7
331
87E2
331
87E3
331
87F0
331
87F1
331
8807
331
8808
331
881E
331
881F
331
8827
102
}
  0
BLOCK_RECORD
  5
19E1
330
1
100
AcDbSymbolTableRecord
100
AcDbBlockTableRecord
  2
_DotSmall
340
0
  0
BLOCK_RECORD
  5
1C0B
330
1
100
AcDbSymbolTableRecord
100
AcDbBlockTableRecord
  2
_None
340
0
  0
BLOCK_RECORD
  5
2328
330
1
100
AcDbSymbolTableRecord
100
AcDbBlockTableRecord
  2
_ClosedBlank
340
0
  0
BLOCK_RECORD
  5
2339
330
1
100
AcDbSymbolTableRecord
100
AcDbBlockTableRecord
  2
_Closed
340
0
  0
BLOCK_RECORD
  5
4D22
330
1
100
AcDbSymbolTableRecord
100
AcDbBlockTableRecord
  2
MS_7
340
0
102
{BLKREFS
331
4E77
102
}
  0
BLOCK_RECORD
  5
4E35
330
1
100
AcDbSymbolTableRecord
100
AcDbBlockTableRecord
  2
MS_8
340
0
  0
BLOCK_RECORD
  5
4E75
330
1
100
AcDbSymbolTableRecord
100
AcDbBlockTableRecord
  2
MS_9
340
0
102
{BLKREFS
331
4E58
102
}
  0
BLOCK_RECORD
  5
4E79
330
1
100
AcDbSymbolTableRecord
100
AcDbBlockTableRecord
  2
_OPEN30
340
0
  0
BLOCK_RECORD
  5
4E7F
330
1
100
AcDbSymbolTableRecord
100
AcDbBlockTableRecord
  2
$DOTFIL
340
0
102
{BLKREFS
331
4E53
331
4E54
331
4E55
331
4E56
102
}
1001
CONTENTBLOCKDESCRIPTION
1071
        0
1000
ICAD/MX Dot symbol^M^Jradius_len : sacle
  0
BLOCK_RECORD
  5
584D
330
1
100
AcDbSymbolTableRecord
100
AcDbBlockTableRecord
  2
_Integral
340
0
  0
BLOCK_RECORD
  5
758F
102
{ACAD_XDICTIONARY
360
7595
102
}
330
1
100
AcDbSymbolTableRecord
100
AcDbBlockTableRecord
  2
A$C0D0E4EDA
340
0
1001
ACAD
1000
DesignCenter Data
1002
{
1070
     1
1070
     4
1002
}
  0
BLOCK_RECORD
  5
759A
102
{ACAD_XDICTIONARY
360
759C
102
}
330
1
100
AcDbSymbolTableRecord
100
AcDbBlockTableRecord
  2
A$C5D86632D
340
0
1001
ACAD
1000
DesignCenter Data
1002
{
1070
     1
1070
     4
1002
}
  0
BLOCK_RECORD
  5
8518
330
1
100
AcDbSymbolTableRecord
100
AcDbBlockTableRecord
  2
*D29
340
0
  0
BLOCK_RECORD
  5
8524
330
1
100
AcDbSymbolTableRecord
100
AcDbBlockTableRecord
  2
*D30
340
0
  0
BLOCK_RECORD
  5
8530
330
1
100
AcDbSymbolTableRecord
100
AcDbBlockTableRecord
  2
*D31
340
0
  0
BLOCK_RECORD
  5
853E
330
1
100
AcDbSymbolTableRecord
100
AcDbBlockTableRecord
  2
*D32
340
0
  0
BLOCK_RECORD
  5
854A
330
1
100
AcDbSymbolTableRecord
100
AcDbBlockTableRecord
  2
*D33
340
0
  0
BLOCK_RECORD
  5
8558
330
1
100
AcDbSymbolTableRecord
100
AcDbBlockTableRecord
  2
*D34
340
0
  0
BLOCK_RECORD
  5
8561
330
1
100
AcDbSymbolTableRecord
100
AcDbBlockTableRecord
  2
*D35
340
0
  0
BLOCK_RECORD
  5
856F
330
1
100
AcDbSymbolTableRecord
100
AcDbBlockTableRecord
  2
*D36
340
0
  0
BLOCK_RECORD
  5
87B6
330
1
100
AcDbSymbolTableRecord
100
AcDbBlockTableRecord
  2
*D45
340
0
  0
BLOCK_RECORD
  5
87C2
330
1
100
AcDbSymbolTableRecord
100
AcDbBlockTableRecord
  2
*D46
340
0
  0
BLOCK_RECORD
  5
87CE
330
1
100
AcDbSymbolTableRecord
100
AcDbBlockTableRecord
  2
*D47
340
0
  0
BLOCK_RECORD
  5
87DC
330
1
100
AcDbSymbolTableRecord
100
AcDbBlockTableRecord
  2
*D48
340
0
  0
BLOCK_RECORD
  5
87E8
330
1
100
AcDbSymbolTableRecord
100
AcDbBlockTableRecord
  2
*D49
340
0
  0
BLOCK_RECORD
  5
87F6
330
1
100
AcDbSymbolTableRecord
100
AcDbBlockTableRecord
  2
*D50
340
0
  0
BLOCK_RECORD
  5
87FF
330
1
100
AcDbSymbolTableRecord
100
AcDbBlockTableRecord
  2
*D51
340
0
  0
BLOCK_RECORD
  5
880D
330
1
100
AcDbSymbolTableRecord
100
AcDbBlockTableRecord
  2
*D52
340
0
  0
ENDTAB
  0
ENDSEC
  0
SECTION
  2
BLOCKS
  0
BLOCK
  5
20
330
1F
100
AcDbEntity
  8
0
100
AcDbBlockBegin
  2
*Model_Space
 70
     0
 10
0.0
 20
0.0
 30
0.0
  3
*Model_Space
  1

  0
ENDBLK
  5
21
330
1F
100
AcDbEntity
  8
0
100
AcDbBlockEnd
  0
BLOCK
  5
52
330
50
100
AcDbEntity
 67
     1
  8
0
100
AcDbBlockBegin
  2
*Paper_Space
 70
     0
 10
0.0
 20
0.0
 30
0.0
  3
*Paper_Space
  1

  0
ENDBLK
  5
53
330
50
100
AcDbEntity
 67
     1
  8
0
100
AcDbBlockEnd
  0
BLOCK
  5
57
330
55
100
AcDbEntity
 67
     1
  8
0
100
AcDbBlockBegin
  2
*Paper_Space0
 70
     0
 10
0.0
 20
0.0
 30
0.0
  3
*Paper_Space0
  1

  0
VIEWPORT
  5
71
330
55
100
AcDbEntity
 67
     1
  8
0
100
AcDbViewport
 10
624.3069786144651
 20
364.2100612216505
 30
0.0
 40
994.7676969426769
 41
882.6811958787132
 68
     0
 69
     0
 12
624.3069786144651
 22
364.2100612216505
 13
0.0
 23
0.0
 14
0.5
 24
0.5
 15
10.0
 25
10.0
 16
0.0
 26
0.0
 36
1.0
 17
0.0
 27
0.0
 37
0.0
 42
50.0
 43
0.0
 44
0.0
 45
882.6811958787132
 50
0.0
 51
0.0
 72
   100
 90
    33056
  1

281
     0
 71
     1
 74
     0
110
0.0
120
0.0
130
0.0
111
1.0
121
0.0
131
0.0
112
0.0
122
1.0
132
0.0
 79
     0
146
0.0
170
     0
  0
VIEWPORT
  5
73
330
55
100
AcDbEntity
 67
     1
  8
0
100
AcDbViewport
 10
693.0
 20
140.5
 30
0.0
 40
419.9999999999999
 41
297.0
 68
     0
 69
     0
 12
804.0
 22
148.5
 13
0.0
 23
0.0
 14
10.0
 24
10.0
 15
10.0
 25
10.0
 16
0.0
 26
0.0
 36
1.0
 17
0.0
 27
0.0
 37
0.0
 42
50.0
 43
0.0
 44
0.0
 45
297.0
 50
0.0
 51
0.0
 72
   100
 90
    32864
  1

281
     0
 71
     1
 74
     0
110
0.0
120
0.0
130
0.0
111
1.0
121
0.0
131
0.0
112
0.0
122
1.0
132
0.0
 79
     0
146
0.0
170
     0
  0
ENDBLK
  5
58
330
55
100
AcDbEntity
 67
     1
  8
0
100
AcDbBlockEnd
  0
BLOCK
  5
8A
330
86
100
AcDbEntity
  8
0
100
AcDbBlockBegin
  2
_OPEN
 70
     0
 10
0.0
 20
0.0
 30
0.0
  3
_OPEN
  1

  0
LINE
  5
87
330
86
100
AcDbEntity
  8
0
  6
ByBlock
 62
     0
100
AcDbLine
 10
-1.0
 20
0.1666666666666666
 30
0.0
 11
0.0
 21
0.0
 31
0.0
  0
LINE
  5
88
330
86
100
AcDbEntity
  8
0
  6
ByBlock
 62
     0
100
AcDbLine
 10
0.0
 20
0.0
 30
0.0
 11
-1.0
 21
-0.1666666666666666
 31
0.0
  0
LINE
  5
89
330
86
100
AcDbEntity
  8
0
  6
ByBlock
 62
     0
100
AcDbLine
 10
0.0
 20
0.0
 30
0.0
 11
-1.0
 21
0.0
 31
0.0
  0
ENDBLK
  5
8B
330
86
100
AcDbEntity
  8
0
100
AcDbBlockEnd
  0
BLOCK
  5
19E3
330
19E1
100
AcDbEntity
  8
0
100
AcDbBlockBegin
  2
_DotSmall
 70
     0
 10
0.0
 20
0.0
 30
0.0
  3
_DotSmall
  1

  0
LWPOLYLINE
  5
19E2
330
19E1
100
AcDbEntity
  8
0
  6
ByBlock
 62
     0
100
AcDbPolyline
 90
        2
 70
     1
 43
0.5
 10
-0.0625
 20
0.0
 42
1.0
 10
0.0625
 20
0.0
 42
1.0
  0
ENDBLK
  5
19E4
330
19E1
100
AcDbEntity
  8
0
100
AcDbBlockEnd
  0
BLOCK
  5
1C0C
330
1C0B
100
AcDbEntity
  8
0
100
AcDbBlockBegin
  2
_None
 70
     0
 10
0.0
 20
0.0
 30
0.0
  3
_None
  1

  0
ENDBLK
  5
1C0D
330
1C0B
100
AcDbEntity
  8
0
100
AcDbBlockEnd
  0
BLOCK
  5
232C
330
2328
100
AcDbEntity
  8
0
100
AcDbBlockBegin
  2
_ClosedBlank
 70
     0
 10
0.0
 20
0.0
 30
0.0
  3
_ClosedBlank
  1

  0
LINE
  5
2329
330
2328
100
AcDbEntity
  8
0
  6
ByBlock
 62
     0
370
    -2
100
AcDbLine
 10
-1.0
 20
0.1666666666666666
 30
0.0
 11
0.0
 21
0.0
 31
0.0
  0
LINE
  5
232A
330
2328
100
AcDbEntity
  8
0
  6
ByBlock
 62
     0
370
    -2
100
AcDbLine
 10
0.0
 20
0.0
 30
0.0
 11
-1.0
 21
-0.1666666666666666
 31
0.0
  0
LINE
  5
232B
330
2328
100
AcDbEntity
  8
0
  6
ByBlock
 62
     0
370
    -2
100
AcDbLine
 10
-1.0
 20
0.1666666666666666
 30
0.0
 11
-1.0
 21
-0.1666666666666666
 31
0.0
  0
ENDBLK
  5
232D
330
2328
100
AcDbEntity
  8
0
100
AcDbBlockEnd
  0
BLOCK
  5
233E
330
2339
100
AcDbEntity
  8
0
100
AcDbBlockBegin
  2
_Closed
 70
     0
 10
0.0
 20
0.0
 30
0.0
  3
_Closed
  1

  0
LINE
  5
233A
330
2339
100
AcDbEntity
  8
0
  6
ByBlock
 62
     0
370
    -2
100
AcDbLine
 10
-1.0
 20
0.1666666666666666
 30
0.0
 11
0.0
 21
0.0
 31
0.0
  0
LINE
  5
233B
330
2339
100
AcDbEntity
  8
0
  6
ByBlock
 62
     0
370
    -2
100
AcDbLine
 10
0.0
 20
0.0
 30
0.0
 11
-1.0
 21
-0.1666666666666666
 31
0.0
  0
LINE
  5
233C
330
2339
100
AcDbEntity
  8
0
  6
ByBlock
 62
     0
370
    -2
100
AcDbLine
 10
-1.0
 20
0.1666666666666666
 30
0.0
 11
-1.0
 21
-0.1666666666666666
 31
0.0
  0
LINE
  5
233D
330
2339
100
AcDbEntity
  8
0
  6
ByBlock
 62
     0
370
    -2
100
AcDbLine
 10
0.0
 20
0.0
 30
0.0
 11
-1.0
 21
0.0
 31
0.0
  0
ENDBLK
  5
233F
330
2339
100
AcDbEntity
  8
0
100
AcDbBlockEnd
  0
BLOCK
  5
4D23
330
4D22
100
AcDbEntity
  8
0
370
    -2
390
F
100
AcDbBlockBegin
  2
MS_7
 70
     0
 10
0.0
 20
0.0
 30
0.0
  3
MS_7
  1

  0
LWPOLYLINE
  5
4D24
330
4D22
100
AcDbEntity
  8
0
  6
Continuous
 62
   110
390
F
100
AcDbPolyline
 90
        2
 70
     0
 43
0.05
 10
40.802765
 20
1.145259
 10
40.802765
 20
-1.077304
  0
LWPOLYLINE
  5
4D25
330
4D22
100
AcDbEntity
  8
0
  6
Continuous
 62
   110
390
F
100
AcDbPolyline
 90
        2
 70
     0
 43
0.025
 10
40.815265
 20
1.145259
 42
1.0
 10
40.790265
 20
1.145259
 42
1.0
  0
LWPOLYLINE
  5
4D26
330
4D22
100
AcDbEntity
  8
0
  6
Continuous
 62
   110
390
F
100
AcDbPolyline
 90
        2
 70
     0
 43
0.025
 10
40.815265
 20
-1.077304
 42
-1.0
 10
40.790265
 20
-1.077304
 42
-1.0
  0
LWPOLYLINE
  5
4D27
330
4D22
100
AcDbEntity
  8
0
  6
Continuous
 62
   110
390
F
100
AcDbPolyline
 90
        2
 70
     0
 43
0.05
 10
40.123169
 20
0.397181
 10
41.511749
 20
0.397181
  0
LWPOLYLINE
  5
4D28
330
4D22
100
AcDbEntity
  8
0
  6
Continuous
 62
   110
390
F
100
AcDbPolyline
 90
        2
 70
     0
 43
0.025
 10
40.123169
 20
0.4096810000000001
 42
1.0
 10
40.123169
 20
0.384681
 42
1.0
  0
LWPOLYLINE
  5
4D29
330
4D22
100
AcDbEntity
  8
0
  6
Continuous
 62
   110
390
F
100
AcDbPolyline
 90
        2
 70
     0
 43
0.025
 10
41.511749
 20
0.4096810000000001
 42
-1.0
 10
41.511749
 20
0.384681
 42
-1.0
  0
LWPOLYLINE
  5
4D2A
330
4D22
100
AcDbEntity
  8
0
  6
Continuous
 62
   110
390
F
100
AcDbPolyline
 90
        2
 70
     0
 43
0.05
 10
39.944748
 20
-1.077304
 10
41.584946
 20
-1.077304
  0
LWPOLYLINE
  5
4D2B
330
4D22
100
AcDbEntity
  8
0
  6
Continuous
 62
   110
390
F
100
AcDbPolyline
 90
        2
 70
     0
 43
0.025
 10
39.944748
 20
-1.064804
 42
1.0
 10
39.944748
 20
-1.089803999999999
 42
1.0
  0
LWPOLYLINE
  5
4D2C
330
4D22
100
AcDbEntity
  8
0
  6
Continuous
 62
   110
390
F
100
AcDbPolyline
 90
        2
 70
     0
 43
0.025
 10
41.584946
 20
-1.064804
 42
-1.0
 10
41.584946
 20
-1.089803999999999
 42
-1.0
  0
LWPOLYLINE
  5
4D2D
330
4D22
100
AcDbEntity
  8
0
  6
Continuous
 62
   110
390
F
100
AcDbPolyline
 90
        2
 70
     0
 43
0.05
 10
39.501221
 20
-0.046359
 10
39.501221
 20
-1.310327
  0
LWPOLYLINE
  5
4D2E
330
4D22
100
AcDbEntity
  8
0
  6
Continuous
 62
   110
390
F
100
AcDbPolyline
 90
        2
 70
     0
 43
0.025
 10
39.513721
 20
-0.046359
 42
1.0
 10
39.48872100000001
 20
-0.046359
 42
1.0
  0
LWPOLYLINE
  5
4D2F
330
4D22
100
AcDbEntity
  8
0
  6
Continuous
 62
   110
390
F
100
AcDbPolyline
 90
        2
 70
     0
 43
0.025
 10
39.513721
 20
-1.310327
 42
-1.0
 10
39.48872100000001
 20
-1.310327
 42
-1.0
  0
LWPOLYLINE
  5
4D30
330
4D22
100
AcDbEntity
  8
0
  6
Continuous
 62
   110
390
F
100
AcDbPolyline
 90
        3
 70
     0
 43
0.05
 10
39.570565
 20
0.031502
 10
39.82682
 20
-0.229727
 10
40.129843
 20
-0.446192
  0
LWPOLYLINE
  5
4D31
330
4D22
100
AcDbEntity
  8
0
  6
Continuous
 62
   110
390
F
100
AcDbPolyline
 90
        2
 70
     0
 43
0.025
 10
39.579488
 20
0.040255
 42
1.0
 10
39.561641
 20
0.022748
 42
1.0
  0
LWPOLYLINE
  5
4D32
330
4D22
100
AcDbEntity
  8
0
  6
Continuous
 62
   110
390
F
100
AcDbPolyline
 90
        2
 70
     0
 43
0.025
 10
40.137109
 20
-0.4360210000000001
 42
-1.0
 10
40.122577
 20
-0.4563640000000001
 42
-1.0
  0
LWPOLYLINE
  5
4D33
330
4D22
100
AcDbEntity
  8
0
  6
Continuous
 62
   110
390
F
100
AcDbPolyline
 90
        5
 70
     0
 43
0.05
 10
38.89733300000001
 20
-0.535983
 10
39.232006
 20
-0.299729
 10
39.524232
 20
-0.021213
 10
39.76755
 20
0.293404
 10
39.956578
 20
0.637167
  0
LWPOLYLINE
  5
4D34
330
4D22
100
AcDbEntity
  8
0
  6
Continuous
 62
   110
390
F
100
AcDbPolyline
 90
        2
 70
     0
 43
0.025
 10
38.890124
 20
-0.525771
 42
1.0
 10
38.90454099999999
 20
-0.546195
 42
1.0
  0
LWPOLYLINE
  5
4D35
330
4D22
100
AcDbEntity
  8
0
  6
Continuous
 62
   110
390
F
100
AcDbPolyline
 90
        2
 70
     0
 43
0.025
 10
39.945625
 20
0.6431899999999999
 42
-1.0
 10
39.967531
 20
0.631145
 42
-1.0
  0
LWPOLYLINE
  5
4D36
330
4D22
100
AcDbEntity
  8
0
  6
Continuous
 62
   110
390
F
100
AcDbPolyline
 90
        2
 70
     0
 43
0.05
 10
39.501221
 20
1.189662
 10
39.501221
 20
0.6371720000000001
  0
LWPOLYLINE
  5
4D37
330
4D22
100
AcDbEntity
  8
0
  6
Continuous
 62
   110
390
F
100
AcDbPolyline
 90
        2
 70
     0
 43
0.025
 10
39.513721
 20
1.189662
 42
1.0
 10
39.48872100000001
 20
1.189662
 42
1.0
  0
LWPOLYLINE
  5
4D38
330
4D22
100
AcDbEntity
  8
0
  6
Continuous
 62
   110
390
F
100
AcDbPolyline
 90
        2
 70
     0
 43
0.025
 10
39.513721
 20
0.6371720000000001
 42
-1.0
 10
39.48872100000001
 20
0.6371720000000001
 42
-1.0
  0
LWPOLYLINE
  5
4D39
330
4D22
100
AcDbEntity
  8
0
  6
Continuous
 62
   110
390
F
100
AcDbPolyline
 90
        2
 70
     0
 43
0.05
 10
38.91066
 20
0.6371720000000001
 10
39.956573
 20
0.6371720000000001
  0
LWPOLYLINE
  5
4D3A
330
4D22
100
AcDbEntity
  8
0
  6
Continuous
 62
   110
390
F
100
AcDbPolyline
 90
        2
 70
     0
 43
0.025
 10
38.91066
 20
0.649672
 42
1.0
 10
38.91066
 20
0.624672
 42
1.0
  0
LWPOLYLINE
  5
4D3B
330
4D22
100
AcDbEntity
  8
0
  6
Continuous
 62
   110
390
F
100
AcDbPolyline
 90
        2
 70
     0
 43
0.025
 10
39.956573
 20
0.649672
 42
-1.0
 10
39.956573
 20
0.624672
 42
-1.0
  0
LWPOLYLINE
  5
4D3C
330
4D22
100
AcDbEntity
  8
0
  6
Continuous
 62
   110
390
F
100
AcDbPolyline
 90
        3
 70
     0
 43
0.05
 10
38.17865300000001
 20
-1.173059
 10
37.81035300000001
 20
-0.79743
 10
37.398061
 20
-0.4612420000000001
  0
LWPOLYLINE
  5
4D3D
330
4D22
100
AcDbEntity
  8
0
  6
Continuous
 62
   110
390
F
100
AcDbPolyline
 90
        2
 70
     0
 43
0.025
 10
38.169727
 20
-1.18181
 42
1.0
 10
38.187578
 20
-1.164307999999999
 42
1.0
  0
LWPOLYLINE
  5
4D3E
330
4D22
100
AcDbEntity
  8
0
  6
Continuous
 62
   110
390
F
100
AcDbPolyline
 90
        2
 70
     0
 43
0.025
 10
37.390161
 20
-0.4709290000000001
 42
-1.0
 10
37.40596
 20
-0.451554
 42
-1.0
  0
LWPOLYLINE
  5
4D3F
330
4D22
100
AcDbEntity
  8
0
  6
Continuous
 62
   110
390
F
100
AcDbPolyline
 90
        3
 70
     0
 43
0.05
 10
35.84020800000001
 20
-1.066378
 10
36.88532100000001
 20
-1.015255
 10
37.924886
 20
-0.905395
  0
LWPOLYLINE
  5
4D40
330
4D22
100
AcDbEntity
  8
0
  6
Continuous
 62
   110
390
F
100
AcDbPolyline
 90
        2
 70
     0
 43
0.025
 10
35.839597
 20
-1.053892999999999
 42
1.0
 10
35.840818
 20
-1.078862999999999
 42
1.0
  0
LWPOLYLINE
  5
4D41
330
4D22
100
AcDbEntity
  8
0
  6
Continuous
 62
   110
390
F
100
AcDbPolyline
 90
        2
 70
     0
 43
0.025
 10
37.923572
 20
-0.8929639999999999
 42
-1.0
 10
37.926199
 20
-0.9178259999999999
 42
-1.0
  0
LWPOLYLINE
  5
4D42
330
4D22
100
AcDbEntity
  8
0
  6
Continuous
 62
   110
390
F
100
AcDbPolyline
 90
        3
 70
     0
 43
0.05
 10
36.288987
 20
-1.051668999999999
 10
36.583557
 20
-0.6294880000000001
 10
36.804417
 20
-0.171997
  0
LWPOLYLINE
  5
4D43
330
4D22
100
AcDbEntity
  8
0
  6
Continuous
 62
   110
390
F
100
AcDbPolyline
 90
        2
 70
     0
 43
0.025
 10
36.278735
 20
-1.044516
 42
1.0
 10
36.299238
 20
-1.058821999999999
 42
1.0
  0
LWPOLYLINE
  5
4D44
330
4D22
100
AcDbEntity
  8
0
  6
Continuous
 62
   110
390
F
100
AcDbPolyline
 90
        2
 70
     0
 43
0.025
 10
36.79316
 20
-0.166563
 42
-1.0
 10
36.815674
 20
-0.177432
 42
-1.0
  0
LWPOLYLINE
  5
4D45
330
4D22
100
AcDbEntity
  8
0
  6
Continuous
 62
   110
390
F
100
AcDbPolyline
 90
        2
 70
     0
 43
0.05
 10
38.274643
 20
-0.171987
 10
35.756119
 20
-0.171987
  0
LWPOLYLINE
  5
4D46
330
4D22
100
AcDbEntity
  8
0
  6
Continuous
 62
   110
390
F
100
AcDbPolyline
 90
        2
 70
     0
 43
0.025
 10
38.274643
 20
-0.184487
 42
1.0
 10
38.274643
 20
-0.159487
 42
1.0
  0
LWPOLYLINE
  5
4D47
330
4D22
100
AcDbEntity
  8
0
  6
Continuous
 62
   110
390
F
100
AcDbPolyline
 90
        2
 70
     0
 43
0.025
 10
35.756119
 20
-0.184487
 42
-1.0
 10
35.756119
 20
-0.159487
 42
-1.0
  0
LWPOLYLINE
  5
4D48
330
4D22
100
AcDbEntity
  8
0
  6
Continuous
 62
   110
390
F
100
AcDbPolyline
 90
        2
 70
     0
 43
0.05
 10
36.220718
 20
0.329411
 10
37.807724
 20
0.329411
  0
LWPOLYLINE
  5
4D49
330
4D22
100
AcDbEntity
  8
0
  6
Continuous
 62
   110
390
F
100
AcDbPolyline
 90
        2
 70
     0
 43
0.025
 10
36.220718
 20
0.341911
 42
1.0
 10
36.220718
 20
0.316911
 42
1.0
  0
LWPOLYLINE
  5
4D4A
330
4D22
100
AcDbEntity
  8
0
  6
Continuous
 62
   110
390
F
100
AcDbPolyline
 90
        2
 70
     0
 43
0.025
 10
37.807724
 20
0.341911
 42
-1.0
 10
37.807724
 20
0.316911
 42
-1.0
  0
LWPOLYLINE
  5
4D4B
330
4D22
100
AcDbEntity
  8
0
  6
Continuous
 62
   110
390
F
100
AcDbPolyline
 90
        3
 70
     0
 43
0.05
 10
35.717081
 20
0.292817
 10
36.422439
 20
0.585476
 10
37.01664500000001
 20
1.036853
  0
LWPOLYLINE
  5
4D4C
330
4D22
100
AcDbEntity
  8
0
  6
Continuous
 62
   110
390
F
100
AcDbPolyline
 90
        2
 70
     0
 43
0.025
 10
35.71229000000001
 20
0.304362
 42
1.0
 10
35.721871
 20
0.281271
 42
1.0
  0
LWPOLYLINE
  5
4D4D
330
4D22
100
AcDbEntity
  8
0
  6
Continuous
 62
   110
390
F
100
AcDbPolyline
 90
        2
 70
     0
 43
0.025
 10
37.009084
 20
1.046807
 42
-1.0
 10
37.024206
 20
1.026899
 42
-1.0
  0
LWPOLYLINE
  5
4D4E
330
4D22
100
AcDbEntity
  8
0
  6
Continuous
 62
   110
390
F
100
AcDbPolyline
 90
        5
 70
     0
 43
0.05
 10
37.023055
 20
1.044715999999999
 10
37.30025100000001
 20
0.8036429999999999
 10
37.612538
 20
0.6006540000000001
 10
37.953573
 20
0.439874
 10
38.316425
 20
0.324569
  0
LWPOLYLINE
  5
4D4F
330
4D22
100
AcDbEntity
  8
0
  6
Continuous
 62
   110
390
F
100
AcDbPolyline
 90
        2
 70
     0
 43
0.025
 10
37.031258
 20
1.054147999999999
 42
1.0
 10
37.014852
 20
1.035284
 42
1.0
  0
LWPOLYLINE
  5
4D50
330
4D22
100
AcDbEntity
  8
0
  6
Continuous
 62
   110
390
F
100
AcDbPolyline
 90
        2
 70
     0
 43
0.025
 10
38.320211
 20
0.336482
 42
-1.0
 10
38.31264
 20
0.312656
 42
-1.0
  0
LWPOLYLINE
  5
4D51
330
4D22
100
AcDbEntity
  8
0
  6
Continuous
 62
   110
390
F
100
AcDbPolyline
 90
        3
 70
     0
 43
0.05
 10
34.900021
 20
0.7901630000000001
 10
34.75929199999999
 20
0.9497909999999999
 10
34.60952600000001
 20
1.102546999999999
  0
LWPOLYLINE
  5
4D52
330
4D22
100
AcDbEntity
  8
0
  6
Continuous
 62
   110
390
F
100
AcDbPolyline
 90
        2
 70
     0
 43
0.025
 10
34.890644
 20
0.7818970000000001
 42
1.0
 10
34.909397
 20
0.798429
 42
1.0
  0
LWPOLYLINE
  5
4D53
330
4D22
100
AcDbEntity
  8
0
  6
Continuous
 62
   110
390
F
100
AcDbPolyline
 90
        2
 70
     0
 43
0.025
 10
34.6006
 20
1.093795999999999
 42
-1.0
 10
34.618451
 20
1.111297999999999
 42
-1.0
  0
LWPOLYLINE
  5
4D54
330
4D22
100
AcDbEntity
  8
0
  6
Continuous
 62
   110
390
F
100
AcDbPolyline
 90
        2
 70
     0
 43
0.05
 10
32.476013
 20
0.6116890000000001
 10
35.097122
 20
0.6116890000000001
  0
LWPOLYLINE
  5
4D55
330
4D22
100
AcDbEntity
  8
0
  6
Continuous
 62
   110
390
F
100
AcDbPolyline
 90
        2
 70
     0
 43
0.025
 10
32.476013
 20
0.624189
 42
1.0
 10
32.476013
 20
0.5991890000000001
 42
1.0
  0
LWPOLYLINE
  5
4D56
330
4D22
100
AcDbEntity
  8
0
  6
Continuous
 62
   110
390
F
100
AcDbPolyline
 90
        2
 70
     0
 43
0.025
 10
35.097122
 20
0.624189
 42
-1.0
 10
35.097122
 20
0.5991890000000001
 42
-1.0
  0
LWPOLYLINE
  5
4D57
330
4D22
100
AcDbEntity
  8
0
  6
Continuous
 62
   110
390
F
100
AcDbPolyline
 90
        3
 70
     0
 43
0.05
 10
34.184024
 20
1.171495
 10
34.182358
 20
0.8915319999999999
 10
34.19177
 20
0.611694
  0
LWPOLYLINE
  5
4D58
330
4D22
100
AcDbEntity
  8
0
  6
Continuous
 62
   110
390
F
100
AcDbPolyline
 90
        2
 70
     0
 43
0.025
 10
34.196524
 20
1.17142
 42
1.0
 10
34.171524
 20
1.171569
 42
1.0
  0
LWPOLYLINE
  5
4D59
330
4D22
100
AcDbEntity
  8
0
  6
Continuous
 62
   110
390
F
100
AcDbPolyline
 90
        2
 70
     0
 43
0.025
 10
34.204263
 20
0.6121140000000001
 42
-1.0
 10
34.179277
 20
0.611274
 42
-1.0
  0
LWPOLYLINE
  5
4D5A
330
4D22
100
AcDbEntity
  8
0
  6
Continuous
 62
   110
390
F
100
AcDbPolyline
 90
        3
 70
     0
 43
0.05
 10
34.865621
 20
-1.105370999999999
 10
34.98888200000001
 20
-0.864759
 10
35.075834
 20
-0.611511
  0
LWPOLYLINE
  5
4D5B
330
4D22
100
AcDbEntity
  8
0
  6
Continuous
 62
   110
390
F
100
AcDbPolyline
 90
        2
 70
     0
 43
0.025
 10
34.85449600000001
 20
-1.099671999999999
 42
1.0
 10
34.876746
 20
-1.11107
 42
1.0
  0
LWPOLYLINE
  5
4D5C
330
4D22
100
AcDbEntity
  8
0
  6
Continuous
 62
   110
390
F
100
AcDbPolyline
 90
        2
 70
     0
 43
0.025
 10
35.064011
 20
-0.607452
 42
-1.0
 10
35.087657
 20
-0.61557
 42
-1.0
  0
LWPOLYLINE
  5
4D5D
330
4D22
100
AcDbEntity
  8
0
  6
Continuous
 62
   110
390
F
100
AcDbPolyline
 90
       15
 70
     0
 43
0.05
 10
34.67547000000001
 20
-1.125887
 10
34.68697000000001
 20
-1.135912
 10
34.69987000000001
 20
-1.144431999999999
 10
34.713929
 20
-1.151289
 10
34.728888
 20
-1.156357
 10
34.744469
 20
-1.159542
 10
34.760384
 20
-1.160784
 10
34.776339
 20
-1.160061
 10
34.792037
 20
-1.157385
 10
34.807188
 20
-1.152806999999999
 10
34.821511
 20
-1.146411999999999
 10
34.834741
 20
-1.138317
 10
34.84663300000001
 20
-1.128673
 10
34.856966
 20
-1.117658
 10
34.86555
 20
-1.105477
  0
LWPOLYLINE
  5
4D5E
330
4D22
100
AcDbEntity
  8
0
  6
Continuous
 62
   110
390
F
100
AcDbPolyline
 90
        2
 70
     0
 43
0.025
 10
34.683684
 20
-1.116465
 42
1.0
 10
34.667256
 20
-1.13531
 42
1.0
  0
LWPOLYLINE
  5
4D5F
330
4D22
100
AcDbEntity
  8
0
  6
Continuous
 62
   110
390
F
100
AcDbPolyline
 90
        2
 70
     0
 43
0.025
 10
34.85533200000001
 20
-1.098276999999999
 42
-1.0
 10
34.875768
 20
-1.112677
 42
-1.0
  0
LWPOLYLINE
  5
4D60
330
4D22
100
AcDbEntity
  8
0
  6
Continuous
 62
   110
390
F
100
AcDbPolyline
 90
        3
 70
     0
 43
0.05
 10
34.445664
 20
-0.77359
 10
34.54047
 20
-0.9603059999999999
 10
34.675277
 20
-1.125695
  0
LWPOLYLINE
  5
4D61
330
4D22
100
AcDbEntity
  8
0
  6
Continuous
 62
   110
390
F
100
AcDbPolyline
 90
        2
 70
     0
 43
0.025
 10
34.456809
 20
-0.767931
 42
1.0
 10
34.434518
 20
-0.779249
 42
1.0
  0
LWPOLYLINE
  5
4D62
330
4D22
100
AcDbEntity
  8
0
  6
Continuous
 62
   110
390
F
100
AcDbPolyline
 90
        2
 70
     0
 43
0.025
 10
34.684966
 20
-1.117797999999999
 42
-1.0
 10
34.665588
 20
-1.133593
 42
-1.0
  0
LWPOLYLINE
  5
4D63
330
4D22
100
AcDbEntity
  8
0
  6
Continuous
 62
   110
390
F
100
AcDbPolyline
 90
        3
 70
     0
 43
0.05
 10
34.27452000000001
 20
-0.13981
 10
34.343832
 20
-0.460041
 10
34.445439
 20
-0.773147
  0
LWPOLYLINE
  5
4D64
330
4D22
100
AcDbEntity
  8
0
  6
Continuous
 62
   110
390
F
100
AcDbPolyline
 90
        2
 70
     0
 43
0.025
 10
34.286737
 20
-0.137165
 42
1.0
 10
34.262303
 20
-0.142454
 42
1.0
  0
LWPOLYLINE
  5
4D65
330
4D22
100
AcDbEntity
  8
0
  6
Continuous
 62
   110
390
F
100
AcDbPolyline
 90
        2
 70
     0
 43
0.025
 10
34.457329
 20
-0.769288
 42
-1.0
 10
34.43355
 20
-0.7770050000000001
 42
-1.0
  0
LWPOLYLINE
  5
4D66
330
4D22
100
AcDbEntity
  8
0
  6
Continuous
 62
   110
390
F
100
AcDbPolyline
 90
        3
 70
     0
 43
0.05
 10
34.191676
 20
0.611691
 10
34.22284400000001
 20
0.235124
 10
34.274512
 20
-0.139596
  0
LWPOLYLINE
  5
4D67
330
4D22
100
AcDbEntity
  8
0
  6
Continuous
 62
   110
390
F
100
AcDbPolyline
 90
        2
 70
     0
 43
0.025
 10
34.204133
 20
0.6127229999999999
 42
1.0
 10
34.179219
 20
0.6106600000000002
 42
1.0
  0
LWPOLYLINE
  5
4D68
330
4D22
100
AcDbEntity
  8
0
  6
Continuous
 62
   110
390
F
100
AcDbPolyline
 90
        2
 70
     0
 43
0.025
 10
34.286895
 20
-0.137889
 42
-1.0
 10
34.26212899999999
 20
-0.141304
 42
-1.0
  0
LWPOLYLINE
  5
4D69
330
4D22
100
AcDbEntity
  8
0
  6
Continuous
 62
   110
390
F
100
AcDbPolyline
 90
        2
 70
     0
 43
0.05
 10
33.911362
 20
-0.006212
 10
32.582947
 20
-0.006212
  0
LWPOLYLINE
  5
4D6A
330
4D22
100
AcDbEntity
  8
0
  6
Continuous
 62
   110
390
F
100
AcDbPolyline
 90
        2
 70
     0
 43
0.025
 10
33.911362
 20
-0.018712
 42
1.0
 10
33.911362
 20
0.006288
 42
1.0
  0
LWPOLYLINE
  5
4D6B
330
4D22
100
AcDbEntity
  8
0
  6
Continuous
 62
   110
390
F
100
AcDbPolyline
 90
        2
 70
     0
 43
0.025
 10
32.582947
 20
-0.018712
 42
-1.0
 10
32.582947
 20
0.006288
 42
-1.0
  0
LWPOLYLINE
  5
4D6C
330
4D22
100
AcDbEntity
  8
0
  6
Continuous
 62
   110
390
F
100
AcDbPolyline
 90
        2
 70
     0
 43
0.05
 10
33.257034
 20
-0.006212
 10
33.257034
 20
-0.9539609999999999
  0
LWPOLYLINE
  5
4D6D
330
4D22
100
AcDbEntity
  8
0
  6
Continuous
 62
   110
390
F
100
AcDbPolyline
 90
        2
 70
     0
 43
0.025
 10
33.269534
 20
-0.006212
 42
1.0
 10
33.244534
 20
-0.006212
 42
1.0
  0
LWPOLYLINE
  5
4D6E
330
4D22
100
AcDbEntity
  8
0
  6
Continuous
 62
   110
390
F
100
AcDbPolyline
 90
        2
 70
     0
 43
0.025
 10
33.269534
 20
-0.9539609999999999
 42
-1.0
 10
33.244534
 20
-0.9539609999999999
 42
-1.0
  0
LWPOLYLINE
  5
4D6F
330
4D22
100
AcDbEntity
  8
0
  6
Continuous
 62
   110
390
F
100
AcDbPolyline
 90
        3
 70
     0
 43
0.05
 10
32.482839
 20
-1.072581
 10
33.243203
 20
-0.9564989999999999
 10
33.993878
 20
-0.7969890000000001
  0
LWPOLYLINE
  5
4D70
330
4D22
100
AcDbEntity
  8
0
  6
Continuous
 62
   110
390
F
100
AcDbPolyline
 90
        2
 70
     0
 43
0.025
 10
32.480953
 20
-1.060224
 42
1.0
 10
32.484726
 20
-1.084937
 42
1.0
  0
LWPOLYLINE
  5
4D71
330
4D22
100
AcDbEntity
  8
0
  6
Continuous
 62
   110
390
F
100
AcDbPolyline
 90
        2
 70
     0
 43
0.025
 10
33.99128
 20
-0.784762
 42
-1.0
 10
33.996476
 20
-0.8092159999999999
 42
-1.0
  0
LWPOLYLINE
  5
4D72
330
4D22
100
AcDbEntity
  8
0
  6
Continuous
 62
   110
390
F
100
AcDbPolyline
 90
        5
 70
     0
 43
0.05
 10
30.156809
 20
-1.007778999999999
 10
30.46073
 20
-0.790589
 10
30.720446
 20
-0.530704
 10
30.92871500000001
 20
-0.235367
 10
31.079731
 20
0.087186
  0
LWPOLYLINE
  5
4D73
330
4D22
100
AcDbEntity
  8
0
  6
Continuous
 62
   110
390
F
100
AcDbPolyline
 90
        2
 70
     0
 43
0.025
 10
30.149541
 20
-0.9976089999999999
 42
1.0
 10
30.164077
 20
-1.017948999999999
 42
1.0
  0
LWPOLYLINE
  5
4D74
330
4D22
100
AcDbEntity
  8
0
  6
Continuous
 62
   110
390
F
100
AcDbPolyline
 90
        2
 70
     0
 43
0.025
 10
31.06841
 20
0.092486
 42
-1.0
 10
31.091052
 20
0.081886
 42
-1.0
  0
LWPOLYLINE
  5
4D75
330
4D22
100
AcDbEntity
  8
0
  6
Continuous
 62
   110
390
F
100
AcDbPolyline
 90
        3
 70
     0
 43
0.05
 10
31.079722
 20
0.087177
 10
31.436317
 20
-0.477801
 10
31.941603
 20
-0.9408659999999999
  0
LWPOLYLINE
  5
4D76
330
4D22
100
AcDbEntity
  8
0
  6
Continuous
 62
   110
390
F
100
AcDbPolyline
 90
        2
 70
     0
 43
0.025
 10
31.090293
 20
0.093849
 42
1.0
 10
31.069152
 20
0.080505
 42
1.0
  0
LWPOLYLINE
  5
4D77
330
4D22
100
AcDbEntity
  8
0
  6
Continuous
 62
   110
390
F
100
AcDbPolyline
 90
        2
 70
     0
 43
0.025
 10
31.950049
 20
-0.9316499999999999
 42
-1.0
 10
31.93315800000001
 20
-0.9500809999999999
 42
-1.0
  0
LWPOLYLINE
  5
4D78
330
4D22
100
AcDbEntity
  8
0
  6
Continuous
 62
   110
390
F
100
AcDbPolyline
 90
        2
 70
     0
 43
0.05
 10
31.976822
 20
0.087186
 10
30.239685
 20
0.087186
  0
LWPOLYLINE
  5
4D79
330
4D22
100
AcDbEntity
  8
0
  6
Continuous
 62
   110
390
F
100
AcDbPolyline
 90
        2
 70
     0
 43
0.025
 10
31.976822
 20
0.074686
 42
1.0
 10
31.976822
 20
0.099686
 42
1.0
  0
LWPOLYLINE
  5
4D7A
330
4D22
100
AcDbEntity
  8
0
  6
Continuous
 62
   110
390
F
100
AcDbPolyline
 90
        2
 70
     0
 43
0.025
 10
30.239685
 20
0.074686
 42
-1.0
 10
30.239685
 20
0.099686
 42
-1.0
  0
LWPOLYLINE
  5
4D7B
330
4D22
100
AcDbEntity
  8
0
  6
Continuous
 62
   110
390
F
100
AcDbPolyline
 90
        2
 70
     0
 43
0.05
 10
31.079727
 20
1.199381999999999
 10
31.079727
 20
-1.320578
  0
LWPOLYLINE
  5
4D7C
330
4D22
100
AcDbEntity
  8
0
  6
Continuous
 62
   110
390
F
100
AcDbPolyline
 90
        2
 70
     0
 43
0.025
 10
31.092227
 20
1.199381999999999
 42
1.0
 10
31.06722700000001
 20
1.199381999999999
 42
1.0
  0
LWPOLYLINE
  5
4D7D
330
4D22
100
AcDbEntity
  8
0
  6
Continuous
 62
   110
390
F
100
AcDbPolyline
 90
        2
 70
     0
 43
0.025
 10
31.092227
 20
-1.320578
 42
-1.0
 10
31.06722700000001
 20
-1.320578
 42
-1.0
  0
LWPOLYLINE
  5
4D7E
330
4D22
100
AcDbEntity
  8
0
  6
Continuous
 62
   110
390
F
100
AcDbPolyline
 90
        2
 70
     0
 43
0.05
 10
31.848694
 20
0.6652779999999999
 10
30.491913
 20
0.6652779999999999
  0
LWPOLYLINE
  5
4D7F
330
4D22
100
AcDbEntity
  8
0
  6
Continuous
 62
   110
390
F
100
AcDbPolyline
 90
        2
 70
     0
 43
0.025
 10
31.848694
 20
0.652778
 42
1.0
 10
31.848694
 20
0.677778
 42
1.0
  0
LWPOLYLINE
  5
4D80
330
4D22
100
AcDbEntity
  8
0
  6
Continuous
 62
   110
390
F
100
AcDbPolyline
 90
        2
 70
     0
 43
0.025
 10
30.491913
 20
0.652778
 42
-1.0
 10
30.491913
 20
0.677778
 42
-1.0
  0
LWPOLYLINE
  5
4D81
330
4D22
100
AcDbEntity
  8
0
  6
Continuous
 62
   110
390
F
100
AcDbPolyline
 90
        3
 70
     0
 43
0.05
 10
30.31785
 20
0.372564
 10
30.517317
 20
0.721478
 10
30.631637
 20
1.100403
  0
LWPOLYLINE
  5
4D82
330
4D22
100
AcDbEntity
  8
0
  6
Continuous
 62
   110
390
F
100
AcDbPolyline
 90
        2
 70
     0
 43
0.025
 10
30.306999
 20
0.378768
 42
1.0
 10
30.328702
 20
0.36636
 42
1.0
  0
LWPOLYLINE
  5
4D83
330
4D22
100
AcDbEntity
  8
0
  6
Continuous
 62
   110
390
F
100
AcDbPolyline
 90
        2
 70
     0
 43
0.025
 10
30.619669
 20
1.104012999999999
 42
-1.0
 10
30.643604
 20
1.096791999999999
 42
-1.0
  0
LWPOLYLINE
  5
4D84
330
4D22
100
AcDbEntity
  8
0
  6
Continuous
 62
   110
390
F
100
AcDbPolyline
 90
        3
 70
     0
 43
0.05
 10
29.81390300000001
 20
0.549289
 10
30.028779
 20
0.182065
 10
30.288117
 20
-0.160888
  0
LWPOLYLINE
  5
4D85
330
4D22
100
AcDbEntity
  8
0
  6
Continuous
 62
   110
390
F
100
AcDbPolyline
 90
        2
 70
     0
 43
0.025
 10
29.824692
 20
0.5556020000000001
 42
1.0
 10
29.803115
 20
0.542976
 42
1.0
  0
LWPOLYLINE
  5
4D86
330
4D22
100
AcDbEntity
  8
0
  6
Continuous
 62
   110
390
F
100
AcDbPolyline
 90
        2
 70
     0
 43
0.025
 10
30.298087
 20
-0.153348
 42
-1.0
 10
30.278147
 20
-0.168427
 42
-1.0
  0
LWPOLYLINE
  5
4D87
330
4D22
100
AcDbEntity
  8
0
  6
Continuous
 62
   110
390
F
100
AcDbPolyline
 90
        3
 70
     0
 43
0.05
 10
29.230892
 20
-0.4688410000000001
 10
29.578672
 20
0.010316
 10
29.812011
 20
0.5431960000000001
  0
LWPOLYLINE
  5
4D88
330
4D22
100
AcDbEntity
  8
0
  6
Continuous
 62
   110
390
F
100
AcDbPolyline
 90
        2
 70
     0
 43
0.025
 10
29.220775
 20
-0.461499
 42
1.0
 10
29.241008
 20
-0.4761840000000001
 42
1.0
  0
LWPOLYLINE
  5
4D89
330
4D22
100
AcDbEntity
  8
0
  6
Continuous
 62
   110
390
F
100
AcDbPolyline
 90
        2
 70
     0
 43
0.025
 10
29.80056
 20
0.5482090000000001
 42
-1.0
 10
29.823461
 20
0.538182
 42
-1.0
  0
LWPOLYLINE
  5
4D8A
330
4D22
100
AcDbEntity
  8
0
  6
Continuous
 62
   110
390
F
100
AcDbPolyline
 90
        2
 70
     0
 43
0.05
 10
30.197159
 20
0.549296
 10
29.245865
 20
0.549296
  0
LWPOLYLINE
  5
4D8B
330
4D22
100
AcDbEntity
  8
0
  6
Continuous
 62
   110
390
F
100
AcDbPolyline
 90
        2
 70
     0
 43
0.025
 10
30.197159
 20
0.536796
 42
1.0
 10
30.197159
 20
0.561796
 42
1.0
  0
LWPOLYLINE
  5
4D8C
330
4D22
100
AcDbEntity
  8
0
  6
Continuous
 62
   110
390
F
100
AcDbPolyline
 90
        2
 70
     0
 43
0.025
 10
29.245865
 20
0.536796
 42
-1.0
 10
29.245865
 20
0.561796
 42
-1.0
  0
LWPOLYLINE
  5
4D8D
330
4D22
100
AcDbEntity
  8
0
  6
Continuous
 62
   110
390
F
100
AcDbPolyline
 90
        2
 70
     0
 43
0.05
 10
29.813904
 20
1.197016999999999
 10
29.813904
 20
-1.322679
  0
LWPOLYLINE
  5
4D8E
330
4D22
100
AcDbEntity
  8
0
  6
Continuous
 62
   110
390
F
100
AcDbPolyline
 90
        2
 70
     0
 43
0.025
 10
29.826404
 20
1.197016999999999
 42
1.0
 10
29.801404
 20
1.197016999999999
 42
1.0
  0
LWPOLYLINE
  5
4D8F
330
4D22
100
AcDbEntity
  8
0
  6
Continuous
 62
   110
390
F
100
AcDbPolyline
 90
        2
 70
     0
 43
0.025
 10
29.826404
 20
-1.322679
 42
-1.0
 10
29.801404
 20
-1.322679
 42
-1.0
  0
LWPOLYLINE
  5
4D90
330
4D22
100
AcDbEntity
  8
0
  6
Continuous
 62
   110
390
F
100
AcDbPolyline
 90
        2
 70
     0
 43
0.05
 10
28.548813
 20
0.648204
 10
27.207596
 20
0.648204
  0
LWPOLYLINE
  5
4D91
330
4D22
100
AcDbEntity
  8
0
  6
Continuous
 62
   110
390
F
100
AcDbPolyline
 90
        2
 70
     0
 43
0.025
 10
28.548813
 20
0.6357040000000001
 42
1.0
 10
28.548813
 20
0.660704
 42
1.0
  0
LWPOLYLINE
  5
4D92
330
4D22
100
AcDbEntity
  8
0
  6
Continuous
 62
   110
390
F
100
AcDbPolyline
 90
        2
 70
     0
 43
0.025
 10
27.207596
 20
0.6357040000000001
 42
-1.0
 10
27.207596
 20
0.660704
 42
-1.0
  0
LWPOLYLINE
  5
4D93
330
4D22
100
AcDbEntity
  8
0
  6
Continuous
 62
   110
390
F
100
AcDbPolyline
 90
        5
 70
     0
 43
0.05
 10
26.40809
 20
-0.11521
 10
26.750246
 20
0.125122
 10
27.039813
 20
0.4165310000000001
 10
27.267601
 20
0.749771
 10
27.426383
 20
1.114266999999999
  0
LWPOLYLINE
  5
4D94
330
4D22
100
AcDbEntity
  8
0
  6
Continuous
 62
   110
390
F
100
AcDbPolyline
 90
        2
 70
     0
 43
0.025
 10
26.400905
 20
-0.104981
 42
1.0
 10
26.415274
 20
-0.125439
 42
1.0
  0
LWPOLYLINE
  5
4D95
330
4D22
100
AcDbEntity
  8
0
  6
Continuous
 62
   110
390
F
100
AcDbPolyline
 90
        2
 70
     0
 43
0.025
 10
27.414923
 20
1.119259
 42
-1.0
 10
27.437843
 20
1.109275
 42
-1.0
  0
LWPOLYLINE
  5
4D96
330
4D22
100
AcDbEntity
  8
0
  6
Continuous
 62
   110
390
F
100
AcDbPolyline
 90
        3
 70
     0
 43
0.05
 10
26.69541300000001
 20
-1.110376
 10
27.177558
 20
-0.9840549999999998
 10
27.623722
 20
-0.776058
  0
LWPOLYLINE
  5
4D97
330
4D22
100
AcDbEntity
  8
0
  6
Continuous
 62
   110
390
F
100
AcDbPolyline
 90
        2
 70
     0
 43
0.025
 10
26.692245
 20
-1.098284
 42
1.0
 10
26.698581
 20
-1.122468
 42
1.0
  0
LWPOLYLINE
  5
4D98
330
4D22
100
AcDbEntity
  8
0
  6
Continuous
 62
   110
390
F
100
AcDbPolyline
 90
        2
 70
     0
 43
0.025
 10
27.618441
 20
-0.764728
 42
-1.0
 10
27.629004
 20
-0.787387
 42
-1.0
  0
LWPOLYLINE
  5
4D99
330
4D22
100
AcDbEntity
  8
0
  6
Continuous
 62
   110
390
F
100
AcDbPolyline
 90
        3
 70
     0
 43
0.05
 10
27.623921
 20
-0.7759450000000001
 10
27.980241
 20
-0.5060310000000001
 10
28.251129
 20
-0.164475
  0
LWPOLYLINE
  5
4D9A
330
4D22
100
AcDbEntity
  8
0
  6
Continuous
 62
   110
390
F
100
AcDbPolyline
 90
        2
 70
     0
 43
0.025
 10
27.616373
 20
-0.7659810000000001
 42
1.0
 10
27.631468
 20
-0.7859090000000001
 42
1.0
  0
LWPOLYLINE
  5
4D9B
330
4D22
100
AcDbEntity
  8
0
  6
Continuous
 62
   110
390
F
100
AcDbPolyline
 90
        2
 70
     0
 43
0.025
 10
28.241335
 20
-0.156708
 42
-1.0
 10
28.260922
 20
-0.172243
 42
-1.0
  0
LWPOLYLINE
  5
4D9C
330
4D22
100
AcDbEntity
  8
0
  6
Continuous
 62
   110
390
F
100
AcDbPolyline
 90
        3
 70
     0
 43
0.05
 10
28.251165
 20
-0.164433
 10
28.43984000000001
 20
0.229959
 10
28.54882100000001
 20
0.648215
  0
LWPOLYLINE
  5
4D9D
330
4D22
100
AcDbEntity
  8
0
  6
Continuous
 62
   110
390
F
100
AcDbPolyline
 90
        2
 70
     0
 43
0.025
 10
28.239889
 20
-0.159039
 42
1.0
 10
28.262441
 20
-0.169827
 42
1.0
  0
LWPOLYLINE
  5
4D9E
330
4D22
100
AcDbEntity
  8
0
  6
Continuous
 62
   110
390
F
100
AcDbPolyline
 90
        2
 70
     0
 43
0.025
 10
28.536725
 20
0.651366
 42
-1.0
 10
28.560917
 20
0.6450630000000001
 42
-1.0
  0
LWPOLYLINE
  5
4D9F
330
4D22
100
AcDbEntity
  8
0
  6
Continuous
 62
   110
390
F
100
AcDbPolyline
 90
        3
 70
     0
 43
0.05
 10
24.376503
 20
-0.360206
 10
24.258534
 20
-0.016326
 10
24.094979
 20
0.311944
  0
LWPOLYLINE
  5
4DA0
330
4D22
100
AcDbEntity
  8
0
  6
Continuous
 62
   110
390
F
100
AcDbPolyline
 90
        2
 70
     0
 43
0.025
 10
24.36468
 20
-0.364262
 42
1.0
 10
24.388327
 20
-0.35615
 42
1.0
  0
LWPOLYLINE
  5
4DA1
330
4D22
100
AcDbEntity
  8
0
  6
Continuous
 62
   110
390
F
100
AcDbPolyline
 90
        2
 70
     0
 43
0.025
 10
24.083791
 20
0.30637
 42
-1.0
 10
24.106167
 20
0.317519
 42
-1.0
  0
LWPOLYLINE
  5
4DA2
330
4D22
100
AcDbEntity
  8
0
  6
Continuous
 62
   110
390
F
100
AcDbPolyline
 90
        3
 70
     0
 43
0.05
 10
25.079934
 20
-0.237326
 10
24.988218
 20
0.108086
 10
24.850583
 20
0.4408020000000001
  0
LWPOLYLINE
  5
4DA3
330
4D22
100
AcDbEntity
  8
0
  6
Continuous
 62
   110
390
F
100
AcDbPolyline
 90
        2
 70
     0
 43
0.025
 10
25.067853
 20
-0.240534
 42
1.0
 10
25.092016
 20
-0.234118
 42
1.0
  0
LWPOLYLINE
  5
4DA4
330
4D22
100
AcDbEntity
  8
0
  6
Continuous
 62
   110
390
F
100
AcDbPolyline
 90
        2
 70
     0
 43
0.025
 10
24.839032
 20
0.436024
 42
-1.0
 10
24.862134
 20
0.44558
 42
-1.0
  0
LWPOLYLINE
  5
4DA5
330
4D22
100
AcDbEntity
  8
0
  6
Continuous
 62
   110
390
F
100
AcDbPolyline
 90
        3
 70
     0
 43
0.05
 10
24.469443
 20
-1.195354999999999
 10
24.777078
 20
-1.123728999999999
 10
25.070712
 20
-1.014127
  0
LWPOLYLINE
  5
4DA6
330
4D22
100
AcDbEntity
  8
0
  6
Continuous
 62
   110
390
F
100
AcDbPolyline
 90
        2
 70
     0
 43
0.025
 10
24.466608
 20
-1.183181
 42
1.0
 10
24.472277
 20
-1.207529
 42
1.0
  0
LWPOLYLINE
  5
4DA7
330
4D22
100
AcDbEntity
  8
0
  6
Continuous
 62
   110
390
F
100
AcDbPolyline
 90
        2
 70
     0
 43
0.025
 10
25.066341
 20
-1.002415999999999
 42
-1.0
 10
25.075083
 20
-1.025838
 42
-1.0
  0
LWPOLYLINE
  5
4DA8
330
4D22
100
AcDbEntity
  8
0
  6
Continuous
 62
   110
390
F
100
AcDbPolyline
 90
        5
 70
     0
 43
0.05
 10
25.070723
 20
-1.014110999999999
 10
25.270212
 20
-0.9028120000000001
 10
25.443904
 20
-0.7604820000000001
 10
25.585971
 20
-0.591895
 10
25.691647
 20
-0.4027070000000001
  0
LWPOLYLINE
  5
4DA9
330
4D22
100
AcDbEntity
  8
0
  6
Continuous
 62
   110
390
F
100
AcDbPolyline
 90
        2
 70
     0
 43
0.025
 10
25.064632
 20
-1.003195
 42
1.0
 10
25.076813
 20
-1.025027
 42
1.0
  0
LWPOLYLINE
  5
4DAA
330
4D22
100
AcDbEntity
  8
0
  6
Continuous
 62
   110
390
F
100
AcDbPolyline
 90
        2
 70
     0
 43
0.025
 10
25.680734
 20
-0.396611
 42
-1.0
 10
25.70256
 20
-0.4088020000000001
 42
-1.0
  0
LWPOLYLINE
  5
4DAB
330
4D22
100
AcDbEntity
  8
0
  6
Continuous
 62
   110
390
F
100
AcDbPolyline
 90
        3
 70
     0
 43
0.05
 10
25.687204
 20
-0.41277
 10
25.816333
 20
-0.039261
 10
25.878076
 20
0.348069
  0
LWPOLYLINE
  5
4DAC
330
4D22
100
AcDbEntity
  8
0
  6
Continuous
 62
   110
390
F
100
AcDbPolyline
 90
        2
 70
     0
 43
0.025
 10
25.67539
 20
-0.408686
 42
1.0
 10
25.699018
 20
-0.4168540000000001
 42
1.0
  0
LWPOLYLINE
  5
4DAD
330
4D22
100
AcDbEntity
  8
0
  6
Continuous
 62
   110
390
F
100
AcDbPolyline
 90
        2
 70
     0
 43
0.025
 10
25.865732
 20
0.350037
 42
-1.0
 10
25.89042
 20
0.346101
 42
-1.0
  0
LWPOLYLINE
  5
4DAE
330
4D22
100
AcDbEntity
  8
0
  6
Continuous
 62
   110
390
F
100
AcDbPolyline
 90
        2
 70
     0
 43
0.05
 10
23.417709
 20
0.821986
 10
21.099182
 20
0.821986
  0
LWPOLYLINE
  5
4DAF
330
4D22
100
AcDbEntity
  8
0
  6
Continuous
 62
   110
390
F
100
AcDbPolyline
 90
        2
 70
     0
 43
0.025
 10
23.417709
 20
0.8094859999999998
 42
1.0
 10
23.417709
 20
0.834486
 42
1.0
  0
LWPOLYLINE
  5
4DB0
330
4D22
100
AcDbEntity
  8
0
  6
Continuous
 62
   110
390
F
100
AcDbPolyline
 90
        2
 70
     0
 43
0.025
 10
21.099182
 20
0.8094859999999998
 42
-1.0
 10
21.099182
 20
0.834486
 42
-1.0
  0
ELLIPSE
  5
4DB1
330
4D22
100
AcDbEntity
  8
0
  6
Continuous
 62
   110
390
F
100
AcDbEllipse
 10
20.127106
 20
1.159159
 30
0.0
 11
3.311667442321776
 21
0.0
 31
0.0
210
0.0
220
0.0
230
1.0
 40
0.904175
 41
6.113636020814076
 42
6.170342747365132
  0
LWPOLYLINE
  5
4DB2
330
4D22
100
AcDbEntity
  8
0
  6
Continuous
 62
   110
390
F
100
AcDbPolyline
 90
        5
 70
     0
 43
0.05
 10
23.060272
 20
0.065517
 10
23.180185
 20
0.195931
 10
23.27698
 20
0.341201
 10
23.348444
 20
0.4980060000000001
 10
23.392941
 20
0.6627609999999999
  0
LWPOLYLINE
  5
4DB3
330
4D22
100
AcDbEntity
  8
0
  6
Continuous
 62
   110
390
F
100
AcDbPolyline
 90
        2
 70
     0
 43
0.025
 10
23.051071
 20
0.073978
 42
1.0
 10
23.069474
 20
0.057057
 42
1.0
  0
LWPOLYLINE
  5
4DB4
330
4D22
100
AcDbEntity
  8
0
  6
Continuous
 62
   110
390
F
100
AcDbPolyline
 90
        2
 70
     0
 43
0.025
 10
23.380874
 20
0.666021
 42
-1.0
 10
23.405009
 20
0.659502
 42
-1.0
  0
LWPOLYLINE
  5
4DB5
330
4D22
100
AcDbEntity
  8
0
  6
Continuous
 62
   110
390
F
100
AcDbPolyline
 90
        3
 70
     0
 43
0.05
 10
22.614638
 20
-0.202883
 10
22.853399
 20
-0.090362
 10
23.060242
 20
0.065485
  0
LWPOLYLINE
  5
4DB6
330
4D22
100
AcDbEntity
  8
0
  6
Continuous
 62
   110
390
F
100
AcDbPolyline
 90
        2
 70
     0
 43
0.025
 10
22.609309
 20
-0.191576
 42
1.0
 10
22.619967
 20
-0.21419
 42
1.0
  0
LWPOLYLINE
  5
4DB7
330
4D22
100
AcDbEntity
  8
0
  6
Continuous
 62
   110
390
F
100
AcDbPolyline
 90
        2
 70
     0
 43
0.025
 10
23.05272
 20
0.075469
 42
-1.0
 10
23.067764
 20
0.055502
 42
-1.0
  0
LWPOLYLINE
  5
4DB8
330
4D22
100
AcDbEntity
  8
0
  6
Continuous
 62
   110
390
F
100
AcDbPolyline
 90
        3
 70
     0
 43
0.05
 10
21.30829
 20
-1.104637
 10
21.626081
 20
-0.966309
 10
21.906231
 20
-0.7725710000000001
  0
LWPOLYLINE
  5
4DB9
330
4D22
100
AcDbEntity
  8
0
  6
Continuous
 62
   110
390
F
100
AcDbPolyline
 90
        2
 70
     0
 43
0.025
 10
21.303301
 20
-1.093175
 42
1.0
 10
21.313279
 20
-1.116098
 42
1.0
  0
LWPOLYLINE
  5
4DBA
330
4D22
100
AcDbEntity
  8
0
  6
Continuous
 62
   110
390
F
100
AcDbPolyline
 90
        2
 70
     0
 43
0.025
 10
21.899121
 20
-0.762289
 42
-1.0
 10
21.913341
 20
-0.7828520000000001
 42
-1.0
  0
LWPOLYLINE
  5
4DBB
330
4D22
100
AcDbEntity
  8
0
  6
Continuous
 62
   110
390
F
100
AcDbPolyline
 90
        5
 70
     0
 43
0.05
 10
21.906259
 20
-0.7725310000000001
 10
22.039449
 20
-0.6358600000000001
 10
22.142135
 20
-0.47914
 10
22.21072
 20
-0.307862
 10
22.242802
 20
-0.128028
  0
LWPOLYLINE
  5
4DBC
330
4D22
100
AcDbEntity
  8
0
  6
Continuous
 62
   110
390
F
100
AcDbPolyline
 90
        2
 70
     0
 43
0.025
 10
21.897307
 20
-0.763807
 42
1.0
 10
21.915211
 20
-0.781255
 42
1.0
  0
LWPOLYLINE
  5
4DBD
330
4D22
100
AcDbEntity
  8
0
  6
Continuous
 62
   110
390
F
100
AcDbPolyline
 90
        2
 70
     0
 43
0.025
 10
22.230496
 20
-0.125833
 42
-1.0
 10
22.255108
 20
-0.130224
 42
-1.0
  0
LWPOLYLINE
  5
4DBE
330
4D22
100
AcDbEntity
  8
0
  6
Continuous
 62
   110
390
F
100
AcDbPolyline
 90
        3
 70
     0
 43
0.05
 10
22.242801
 20
-0.128006
 10
22.256129
 20
0.156193
 10
22.254432
 20
0.4406450000000001
  0
LWPOLYLINE
  5
4DBF
330
4D22
100
AcDbEntity
  8
0
  6
Continuous
 62
   110
390
F
100
AcDbPolyline
 90
        2
 70
     0
 43
0.025
 10
22.230315
 20
-0.127421
 42
1.0
 10
22.255287
 20
-0.128592
 42
1.0
  0
LWPOLYLINE
  5
4DC0
330
4D22
100
AcDbEntity
  8
0
  6
Continuous
 62
   110
390
F
100
AcDbPolyline
 90
        2
 70
     0
 43
0.025
 10
22.241932
 20
0.44057
 42
-1.0
 10
22.266932
 20
0.440719
 42
-1.0
  0
LWPOLYLINE
  5
4DC1
330
4D22
100
AcDbEntity
  8
0
  6
Continuous
 62
   110
390
F
100
AcDbPolyline
 90
        2
 70
     0
 43
0.05
 10
19.93780499999999
 20
-1.324518
 10
19.93780499999999
 20
0.021128
  0
LWPOLYLINE
  5
4DC2
330
4D22
100
AcDbEntity
  8
0
  6
Continuous
 62
   110
390
F
100
AcDbPolyline
 90
        2
 70
     0
 43
0.025
 10
19.925305
 20
-1.324518
 42
1.0
 10
19.950305
 20
-1.324518
 42
1.0
  0
LWPOLYLINE
  5
4DC3
330
4D22
100
AcDbEntity
  8
0
  6
Continuous
 62
   110
390
F
100
AcDbPolyline
 90
        2
 70
     0
 43
0.025
 10
19.925305
 20
0.021128
 42
-1.0
 10
19.950305
 20
0.021128
 42
-1.0
  0
LWPOLYLINE
  5
4DC4
330
4D22
100
AcDbEntity
  8
0
  6
Continuous
 62
   110
390
F
100
AcDbPolyline
 90
        5
 70
     0
 43
0.05
 10
18.836836
 20
-0.521768
 10
19.321294
 20
-0.337633
 10
19.771201
 20
-0.092077
 10
20.177098
 20
0.209733
 10
20.530447
 20
0.5614520000000001
  0
LWPOLYLINE
  5
4DC5
330
4D22
100
AcDbEntity
  8
0
  6
Continuous
 62
   110
390
F
100
AcDbPolyline
 90
        2
 70
     0
 43
0.025
 10
18.832395
 20
-0.510084
 42
1.0
 10
18.841278
 20
-0.5334529999999999
 42
1.0
  0
LWPOLYLINE
  5
4DC6
330
4D22
100
AcDbEntity
  8
0
  6
Continuous
 62
   110
390
F
100
AcDbPolyline
 90
        2
 70
     0
 43
0.025
 10
20.521629
 20
0.5703110000000001
 42
-1.0
 10
20.539266
 20
0.552592
 42
-1.0
  0
LINE
  5
4DC7
330
4D22
100
AcDbEntity
  8
0
  6
Continuous
 62
     3
390
F
100
AcDbLine
 10
17.396591
 20
0.069191
 30
0.0
 11
17.396591
 21
0.204226
 31
0.0
  0
LWPOLYLINE
  5
4DC8
330
4D22
100
AcDbEntity
  8
0
  6
Continuous
 62
   110
390
F
100
AcDbPolyline
 90
        3
 70
     0
 43
0.05
 10
16.494334
 20
-1.096152
 10
16.722111
 20
-1.023465999999999
 10
16.936746
 20
-0.923282
  0
LWPOLYLINE
  5
4DC9
330
4D22
100
AcDbEntity
  8
0
  6
Continuous
 62
   110
390
F
100
AcDbPolyline
 90
        2
 70
     0
 43
0.025
 10
16.490534
 20
-1.084243
 42
1.0
 10
16.498134
 20
-1.10806
 42
1.0
  0
LWPOLYLINE
  5
4DCA
330
4D22
100
AcDbEntity
  8
0
  6
Continuous
 62
   110
390
F
100
AcDbPolyline
 90
        2
 70
     0
 43
0.025
 10
16.931459
 20
-0.911955
 42
-1.0
 10
16.942033
 20
-0.934609
 42
-1.0
  0
LWPOLYLINE
  5
4DCB
330
4D22
100
AcDbEntity
  8
0
  6
Continuous
 62
   110
390
F
100
AcDbPolyline
 90
        8
 70
     0
 43
0.05
 10
16.936682
 20
-0.9233069999999999
 10
17.04279
 20
-0.855295
 10
17.137168
 20
-0.774374
 10
17.217912
 20
-0.682178
 10
17.283393
 20
-0.5805670000000001
 10
17.33229
 20
-0.4715920000000001
 10
17.363614
 20
-0.357452
 10
17.363614
 20
-0.357452
  0
LWPOLYLINE
  5
4DCC
330
4D22
100
AcDbEntity
  8
0
  6
Continuous
 62
   110
390
F
100
AcDbPolyline
 90
        2
 70
     0
 43
0.025
 10
16.929937
 20
-0.9127829999999999
 42
1.0
 10
16.943428
 20
-0.9338309999999999
 42
1.0
  0
LWPOLYLINE
  5
4DCD
330
4D22
100
AcDbEntity
  8
0
  6
Continuous
 62
   110
390
F
100
AcDbPolyline
 90
        2
 70
     0
 43
0.025
 10
17.351114
 20
-0.357452
 42
-1.0
 10
17.376114
 20
-0.357452
 42
-1.0
  0
LWPOLYLINE
  5
4DCE
330
4D22
100
AcDbEntity
  8
0
  6
Continuous
 62
   110
390
F
100
AcDbPolyline
 90
        5
 70
     0
 43
0.05
 10
17.363643
 20
-0.35731
 10
17.390888
 20
-0.162433
 10
17.397578
 20
0.033902
 10
17.397169
 20
0.051548
 10
17.396594
 20
0.06919
  0
LWPOLYLINE
  5
4DCF
330
4D22
100
AcDbEntity
  8
0
  6
Continuous
 62
   110
390
F
100
AcDbPolyline
 90
        2
 70
     0
 43
0.025
 10
17.351264
 20
-0.35558
 42
1.0
 10
17.376023
 20
-0.359041
 42
1.0
  0
LWPOLYLINE
  5
4DD0
330
4D22
100
AcDbEntity
  8
0
  6
Continuous
 62
   110
390
F
100
AcDbPolyline
 90
        2
 70
     0
 43
0.025
 10
17.384101
 20
0.068783
 42
-1.0
 10
17.409087
 20
0.069597
 42
-1.0
  0
LWPOLYLINE
  5
4DD1
330
4D22
100
AcDbEntity
  8
0
  6
Continuous
 62
   110
390
F
100
AcDbPolyline
 90
        2
 70
     0
 43
0.05
 10
18.236023
 20
0.8817549999999998
 10
16.37034599999999
 20
0.8817549999999998
  0
LWPOLYLINE
  5
4DD2
330
4D22
100
AcDbEntity
  8
0
  6
Continuous
 62
   110
390
F
100
AcDbPolyline
 90
        2
 70
     0
 43
0.025
 10
18.236023
 20
0.8692549999999998
 42
1.0
 10
18.236023
 20
0.8942549999999998
 42
1.0
  0
LWPOLYLINE
  5
4DD3
330
4D22
100
AcDbEntity
  8
0
  6
Continuous
 62
   110
390
F
100
AcDbPolyline
 90
        2
 70
     0
 43
0.025
 10
16.37034599999999
 20
0.8692549999999998
 42
-1.0
 10
16.37034599999999
 20
0.8942549999999998
 42
-1.0
  0
LWPOLYLINE
  5
4DD4
330
4D22
100
AcDbEntity
  8
0
  6
Continuous
 62
   110
390
F
100
AcDbPolyline
 90
        2
 70
     0
 43
0.05
 10
18.588165
 20
0.204226
 10
16.011795
 20
0.204226
  0
LWPOLYLINE
  5
4DD5
330
4D22
100
AcDbEntity
  8
0
  6
Continuous
 62
   110
390
F
100
AcDbPolyline
 90
        2
 70
     0
 43
0.025
 10
18.588165
 20
0.191726
 42
1.0
 10
18.588165
 20
0.216726
 42
1.0
  0
LWPOLYLINE
  5
4DD6
330
4D22
100
AcDbEntity
  8
0
  6
Continuous
 62
   110
390
F
100
AcDbPolyline
 90
        2
 70
     0
 43
0.025
 10
16.011795
 20
0.191726
 42
-1.0
 10
16.011795
 20
0.216726
 42
-1.0
  0
LINE
  5
4DD7
330
4D22
100
AcDbEntity
  8
0
  6
Continuous
 62
   110
390
F
100
AcDbLine
 10
1.697743999999999
 20
1.402496999999999
 30
0.0
 11
-1.697750999999999
 21
1.402496999999999
 31
0.0
  0
ARC
  5
4DD8
330
4D22
100
AcDbEntity
  8
0
  6
Continuous
 62
     3
390
F
100
AcDbCircle
 10
10.083317
 20
-0.8107029999999999
 30
0.0
 40
0.374296
100
AcDbArc
 50
206.468604
 51
269.999909
  0
ARC
  5
4DD9
330
4D22
100
AcDbEntity
  8
0
  6
Continuous
 62
     3
390
F
100
AcDbCircle
 10
8.997539999999998
 20
-1.034997999999999
 30
0.0
 40
0.15
100
AcDbArc
 50
269.999963
 51
24.775254
  0
ARC
  5
4DDA
330
4D22
100
AcDbEntity
  8
0
  6
Continuous
 62
     3
390
F
100
AcDbCircle
 10
7.229613999999999
 20
-1.034997999999999
 30
0.0
 40
0.15
100
AcDbArc
 50
157.416189
 51
269.999782
  0
ARC
  5
4DDB
330
4D22
100
AcDbEntity
  8
0
  6
Continuous
 62
     3
390
F
100
AcDbCircle
 10
6.536646
 20
-0.8285829999999998
 30
0.0
 40
0.356415
100
AcDbArc
 50
270.000018
 51
335.817992
  0
LINE
  5
4DDC
330
4D22
100
AcDbEntity
  8
0
  6
Continuous
 62
   110
390
F
100
AcDbLine
 10
10.38274
 20
-1.184998999999999
 30
0.0
 11
10.083317
 21
-1.184998999999999
 31
0.0
  0
LINE
  5
4DDD
330
4D22
100
AcDbEntity
  8
0
  6
Continuous
 62
   110
390
F
100
AcDbLine
 10
8.997539999999998
 20
-1.184998999999999
 30
0.0
 11
8.550240999999999
 21
-1.184998999999999
 31
0.0
  0
LINE
  5
4DDE
330
4D22
100
AcDbEntity
  8
0
  6
Continuous
 62
   110
390
F
100
AcDbLine
 10
7.612239999999999
 20
-1.184998999999999
 30
0.0
 11
7.229613999999999
 21
-1.184998999999999
 31
0.0
  0
LINE
  5
4DDF
330
4D22
100
AcDbEntity
  8
0
  6
Continuous
 62
   110
390
F
100
AcDbLine
 10
6.536646
 20
-1.184998999999999
 30
0.0
 11
6.282242
 21
-1.184998999999999
 31
0.0
  0
ARC
  5
4DE0
330
4D22
100
AcDbEntity
  8
0
  6
Continuous
 62
   110
390
F
100
AcDbCircle
 10
12.493843
 20
-0.047451
 30
0.0
 40
1.208022999999999
100
AcDbArc
 50
249.577261
 51
343.3291850000001
  0
ARC
  5
4DE1
330
4D22
100
AcDbEntity
  8
0
  6
Continuous
 62
   110
390
F
100
AcDbCircle
 10
12.526917
 20
0.041381
 30
0.0
 40
1.302812
100
AcDbArc
 50
145.263917
 51
249.577353
  0
ARC
  5
4DE2
330
4D22
100
AcDbEntity
  8
0
  6
Continuous
 62
   110
390
F
100
AcDbCircle
 10
12.466441
 20
0.083313
 30
0.0
 40
1.229219999999999
100
AcDbArc
 50
16.454779
 51
145.263917
  0
LINE
  5
4DE3
330
4D22
100
AcDbEntity
  8
0
  6
Continuous
 62
   110
390
F
100
AcDbLine
 10
7.403452999999999
 20
-0.2305
 30
0.0
 11
8.792600999999999
 21
-0.2305
 31
0.0
  0
LINE
  5
4DE4
330
4D22
100
AcDbEntity
  8
0
  6
Continuous
 62
   110
390
F
100
AcDbLine
 10
7.091116999999999
 20
-0.977393
 30
0.0
 11
7.328568999999999
 21
-0.406501
 31
0.0
  0
LINE
  5
4DE5
330
4D22
100
AcDbEntity
  8
0
  6
Continuous
 62
   110
390
F
100
AcDbLine
 10
8.069963000000001
 20
1.345739999999999
 30
0.0
 11
7.403452999999999
 21
-0.230501
 31
0.0
  0
LINE
  5
4DE6
330
4D22
100
AcDbEntity
  8
0
  6
Continuous
 62
   110
390
F
100
AcDbLine
 10
7.953663999999999
 20
1.456998
 30
0.0
 11
6.861785
 21
-0.974585
 31
0.0
  0
ARC
  5
4DE7
330
4D22
100
AcDbEntity
  8
0
  6
Continuous
 62
     3
390
F
100
AcDbCircle
 10
5.174241
 20
-0.884999
 30
0.0
 40
0.3
100
AcDbArc
 50
270.000018
 51
0.0
  0
ARC
  5
4DE8
330
4D22
100
AcDbEntity
  8
0
  6
Continuous
 62
     3
390
F
100
AcDbCircle
 10
5.070740999999999
 20
0.8999979999999998
 30
0.0
 40
0.3
100
AcDbArc
 50
0.0
 51
89.99998199999998
  0
ARC
  5
4DE9
330
4D22
100
AcDbEntity
  8
0
  6
Continuous
 62
     3
390
F
100
AcDbCircle
 10
4.128241
 20
0.4505
 30
0.0
 40
0.28
100
AcDbArc
 50
270.000018
 51
0.0
  0
ARC
  5
4DEA
330
4D22
100
AcDbEntity
  8
0
  6
Continuous
 62
     3
390
F
100
AcDbCircle
 10
4.128241
 20
-0.314
 30
0.0
 40
0.28
100
AcDbArc
 50
0.0
 51
89.99998199999998
  0
ARC
  5
4DEB
330
4D22
100
AcDbEntity
  8
0
  6
Continuous
 62
     3
390
F
100
AcDbCircle
 10
2.70524
 20
0.919998
 30
0.0
 40
0.28
100
AcDbArc
 50
0.0
 51
89.99998199999998
  0
ARC
  5
4DEC
330
4D22
100
AcDbEntity
  8
0
  6
Continuous
 62
     3
390
F
100
AcDbCircle
 10
2.70524
 20
-0.9049979999999999
 30
0.0
 40
0.28
100
AcDbArc
 50
270.000018
 51
0.0
  0
LINE
  5
4DED
330
4D22
100
AcDbEntity
  8
0
  6
Continuous
 62
   110
390
F
100
AcDbLine
 10
4.588741999999999
 20
-0.4535000000000001
 30
0.0
 11
4.588741999999999
 21
0.548
 31
0.0
  0
LINE
  5
4DEE
330
4D22
100
AcDbEntity
  8
0
  6
Continuous
 62
   110
390
F
100
AcDbLine
 10
4.408241
 20
-0.314
 30
0.0
 11
4.408241
 21
-0.4535000000000001
 31
0.0
  0
LINE
  5
4DEF
330
4D22
100
AcDbEntity
  8
0
  6
Continuous
 62
   110
390
F
100
AcDbLine
 10
4.408241
 20
0.548
 30
0.0
 11
4.408241
 21
0.4505
 31
0.0
  0
LINE
  5
4DF0
330
4D22
100
AcDbEntity
  8
0
  6
Continuous
 62
   110
390
F
100
AcDbLine
 10
3.560741999999999
 20
-1.184998999999999
 30
0.0
 11
3.560741999999999
 21
-0.034
 31
0.0
  0
LINE
  5
4DF1
330
4D22
100
AcDbEntity
  8
0
  6
Continuous
 62
   110
390
F
100
AcDbLine
 10
3.560741999999999
 20
0.1705
 30
0.0
 11
3.560741999999999
 21
1.199997999999999
 31
0.0
  0
LINE
  5
4DF2
330
4D22
100
AcDbEntity
  8
0
  6
Continuous
 62
   110
390
F
100
AcDbLine
 10
2.985240999999999
 20
0.919998
 30
0.0
 11
2.985240999999999
 21
-0.9049979999999999
 31
0.0
  0
LINE
  5
4DF3
330
4D22
100
AcDbEntity
  8
0
  6
Continuous
 62
   110
390
F
100
AcDbLine
 10
3.560741999999999
 20
-0.034
 30
0.0
 11
4.128241
 21
-0.034
 31
0.0
  0
LINE
  5
4DF4
330
4D22
100
AcDbEntity
  8
0
  6
Continuous
 62
   110
390
F
100
AcDbLine
 10
4.128241
 20
0.1705
 30
0.0
 11
3.560741999999999
 21
0.1705
 31
0.0
  0
LINE
  5
4DF5
330
4D22
100
AcDbEntity
  8
0
  6
Continuous
 62
   110
390
F
100
AcDbLine
 10
2.70524
 20
-1.184998999999999
 30
0.0
 11
2.416741999999999
 21
-1.184998999999999
 31
0.0
  0
LINE
  5
4DF6
330
4D22
100
AcDbEntity
  8
0
  6
Continuous
 62
   110
390
F
100
AcDbLine
 10
2.416741999999999
 20
1.199997999999999
 30
0.0
 11
2.70524
 21
1.199997999999999
 31
0.0
  0
LINE
  5
4DF7
330
4D22
100
AcDbEntity
  8
0
  6
Continuous
 62
   110
390
F
100
AcDbLine
 10
5.370741
 20
0.8999979999999998
 30
0.0
 11
5.370741
 21
0.553
 31
0.0
  0
LINE
  5
4DF8
330
4D22
100
AcDbEntity
  8
0
  6
Continuous
 62
   110
390
F
100
AcDbLine
 10
5.474241
 20
-0.454
 30
0.0
 11
5.474241
 21
-0.884999
 31
0.0
  0
LINE
  5
4DF9
330
4D22
100
AcDbEntity
  8
0
  6
Continuous
 62
   110
390
F
100
AcDbLine
 10
5.174241
 20
-1.184998999999999
 30
0.0
 11
3.560741999999999
 21
-1.184998999999999
 31
0.0
  0
LINE
  5
4DFA
330
4D22
100
AcDbEntity
  8
0
  6
Continuous
 62
   110
390
F
100
AcDbLine
 10
3.560741999999999
 20
1.199997999999999
 30
0.0
 11
5.070740999999999
 21
1.199997999999999
 31
0.0
  0
ARC
  5
4DFB
330
4D22
100
AcDbEntity
  8
0
  6
Continuous
 62
     3
390
F
100
AcDbCircle
 10
-0.600761
 20
-0.9049979999999999
 30
0.0
 40
0.28
100
AcDbArc
 50
270.000018
 51
0.0
  0
ARC
  5
4DFC
330
4D22
100
AcDbEntity
  8
0
  6
Continuous
 62
     3
390
F
100
AcDbCircle
 10
0.600749
 20
-0.9049979999999999
 30
0.0
 40
0.28
100
AcDbArc
 50
179.999964
 51
270.000001
  0
ARC
  5
4DFD
330
4D22
100
AcDbEntity
  8
0
  6
Continuous
 62
     3
390
F
100
AcDbCircle
 10
1.211742
 20
0.9224979999999998
 30
0.0
 40
0.28
100
AcDbArc
 50
0.0
 51
89.99998199999998
  0
ARC
  5
4DFE
330
4D22
100
AcDbEntity
  8
0
  6
Continuous
 62
     3
390
F
100
AcDbCircle
 10
-1.202749
 20
0.9224979999999998
 30
0.0
 40
0.28
100
AcDbArc
 50
89.99998199999998
 51
179.999964
  0
LINE
  5
4DFF
330
4D22
100
AcDbEntity
  8
0
  6
Continuous
 62
   110
390
F
100
AcDbLine
 10
-0.600761
 20
-1.184998999999999
 30
0.0
 11
-0.991253
 21
-1.184998999999999
 31
0.0
  0
LINE
  5
4E00
330
4D22
100
AcDbEntity
  8
0
  6
Continuous
 62
   110
390
F
100
AcDbLine
 10
0.991244
 20
-1.184998999999999
 30
0.0
 11
0.600749
 21
-1.184998999999999
 31
0.0
  0
LINE
  5
4E01
330
4D22
100
AcDbEntity
  8
0
  6
Continuous
 62
   110
390
F
100
AcDbLine
 10
0.3207489999999999
 20
-0.9049979999999999
 30
0.0
 11
0.3207489999999999
 21
1.202496999999999
 31
0.0
  0
LINE
  5
4E02
330
4D22
100
AcDbEntity
  8
0
  6
Continuous
 62
   110
390
F
100
AcDbLine
 10
-0.320761
 20
1.202496999999999
 30
0.0
 11
-0.320761
 21
-0.9049979999999999
 31
0.0
  0
LINE
  5
4E03
330
4D22
100
AcDbEntity
  8
0
  6
Continuous
 62
   110
390
F
100
AcDbLine
 10
-1.48275
 20
0.3655
 30
0.0
 11
-1.48275
 21
0.9224979999999998
 31
0.0
  0
LINE
  5
4E04
330
4D22
100
AcDbEntity
  8
0
  6
Continuous
 62
   110
390
F
100
AcDbLine
 10
1.491743
 20
0.9224979999999998
 30
0.0
 11
1.491743
 21
0.3655
 31
0.0
  0
LINE
  5
4E05
330
4D22
100
AcDbEntity
  8
0
  6
Continuous
 62
   110
390
F
100
AcDbLine
 10
0.3207489999999999
 20
1.202496999999999
 30
0.0
 11
1.211742
 21
1.202496999999999
 31
0.0
  0
LINE
  5
4E06
330
4D22
100
AcDbEntity
  8
0
  6
Continuous
 62
   110
390
F
100
AcDbLine
 10
-1.202749
 20
1.202496999999999
 30
0.0
 11
-0.320761
 21
1.202496999999999
 31
0.0
  0
ARC
  5
4E07
330
4D22
100
AcDbEntity
  8
0
  6
Continuous
 62
   110
390
F
100
AcDbCircle
 10
12.498027
 20
0.068537
 30
0.0
 40
1.564667
100
AcDbArc
 50
282.878968
 51
342.805661
  0
ARC
  5
4E08
330
4D22
100
AcDbEntity
  8
0
  6
Continuous
 62
   110
390
F
100
AcDbCircle
 10
12.354294
 20
0.6971880000000001
 30
0.0
 40
2.20954
100
AcDbArc
 50
244.534614
 51
282.878859
  0
ARC
  5
4E09
330
4D22
100
AcDbEntity
  8
0
  6
Continuous
 62
   110
390
F
100
AcDbCircle
 10
12.123942
 20
0.213494
 30
0.0
 40
1.673795
100
AcDbArc
 50
217.690167
 51
244.534614
  0
LINE
  5
4E0A
330
4D22
100
AcDbEntity
  8
0
  6
Continuous
 62
   110
390
F
100
AcDbLine
 10
8.872669
 20
-0.4065
 30
0.0
 11
9.133734
 21
-0.9721379999999999
 31
0.0
  0
LINE
  5
4E0B
330
4D22
100
AcDbEntity
  8
0
  6
Continuous
 62
   110
390
F
100
AcDbLine
 10
9.748255
 20
-0.977528
 30
0.0
 11
8.536108
 21
1.457000999999999
 31
0.0
  0
LINE
  5
4E0C
330
4D22
100
AcDbEntity
  8
0
  6
Continuous
 62
   110
390
F
100
AcDbLine
 10
8.7926
 20
-0.230499
 30
0.0
 11
8.069964
 21
1.345741
 31
0.0
  0
POINT
  5
4E0D
330
4D22
100
AcDbEntity
  8
0
  6
Continuous
 62
   170
390
F
100
AcDbPoint
 10
0.0
 20
0.0
 30
0.0
  0
ARC
  5
4E0E
330
4D22
100
AcDbEntity
  8
0
  6
Continuous
 62
   110
390
F
100
AcDbCircle
 10
13.409663
 20
1.430745
 30
0.0
 40
0.182711
100
AcDbArc
 50
242.1529
 51
346.083541
  0
LINE
  5
4E0F
330
4D22
100
AcDbEntity
  8
0
  6
Continuous
 62
   110
390
F
100
AcDbLine
 10
13.609978
 20
1.479496999999999
 30
0.0
 11
13.587008
 21
1.386798999999999
 31
0.0
  0
LINE
  5
4E10
330
4D22
100
AcDbEntity
  8
0
  6
Continuous
 62
   110
390
F
100
AcDbLine
 10
13.854741
 20
1.479499999999999
 30
0.0
 11
13.609978
 21
1.479499999999999
 31
0.0
  0
LINE
  5
4E11
330
4D22
100
AcDbEntity
  8
0
  6
Continuous
 62
   110
390
F
100
AcDbLine
 10
13.854741
 20
0.4315
 30
0.0
 11
13.854741
 21
1.479499999999999
 31
0.0
  0
LINE
  5
4E12
330
4D22
100
AcDbEntity
  8
0
  6
Continuous
 62
   110
390
F
100
AcDbLine
 10
13.645317
 20
0.4315
 30
0.0
 11
13.854741
 21
0.4315
 31
0.0
  0
ARC
  5
4E13
330
4D22
100
AcDbEntity
  8
0
  6
Continuous
 62
   110
390
F
100
AcDbCircle
 10
12.3189
 20
-0.633733
 30
0.0
 40
2.152204999999999
100
AcDbArc
 50
62.150186
 51
114.395014
  0
ARC
  5
4E14
330
4D22
100
AcDbEntity
  8
0
  6
Continuous
 62
   110
390
F
100
AcDbCircle
 10
12.121306
 20
-0.198037
 30
0.0
 40
1.673797999999999
100
AcDbArc
 50
114.395068
 51
141.575451
  0
ARC
  5
4E15
330
4D22
100
AcDbEntity
  8
0
  6
Continuous
 62
   110
390
F
100
AcDbCircle
 10
11.859799
 20
0.009413
 30
0.0
 40
1.339998
100
AcDbArc
 50
141.575451
 51
217.69015
  0
LINE
  5
4E16
330
4D22
100
AcDbEntity
  8
0
  6
Continuous
 62
   110
390
F
100
AcDbLine
 10
13.992764
 20
-0.3939999999999999
 30
0.0
 11
13.651091
 21
-0.3939999999999999
 31
0.0
  0
LINE
  5
4E17
330
4D22
100
AcDbEntity
  8
0
  6
Continuous
 62
   110
390
F
100
AcDbLine
 10
8.550240999999999
 20
-1.399999
 30
0.0
 11
10.38274
 21
-1.399999
 31
0.0
  0
LINE
  5
4E18
330
4D22
100
AcDbEntity
  8
0
  6
Continuous
 62
   110
390
F
100
AcDbLine
 10
10.38274
 20
-1.399999
 30
0.0
 11
10.38274
 21
-1.184998999999999
 31
0.0
  0
LINE
  5
4E19
330
4D22
100
AcDbEntity
  8
0
  6
Continuous
 62
   110
390
F
100
AcDbLine
 10
8.536108999999999
 20
1.456998999999999
 30
0.0
 11
7.953664999999999
 21
1.456998999999999
 31
0.0
  0
LINE
  5
4E1A
330
4D22
100
AcDbEntity
  8
0
  6
Continuous
 62
   110
390
F
100
AcDbLine
 10
6.282242
 20
-1.184998999999999
 30
0.0
 11
6.282242
 21
-1.399999
 31
0.0
  0
LINE
  5
4E1B
330
4D22
100
AcDbEntity
  8
0
  6
Continuous
 62
   110
390
F
100
AcDbLine
 10
6.282242
 20
-1.399999
 30
0.0
 11
7.612239999999999
 21
-1.399999
 31
0.0
  0
LINE
  5
4E1C
330
4D22
100
AcDbEntity
  8
0
  6
Continuous
 62
   110
390
F
100
AcDbLine
 10
7.612239999999999
 20
-1.399999
 30
0.0
 11
7.612239999999999
 21
-1.184998999999999
 31
0.0
  0
LINE
  5
4E1D
330
4D22
100
AcDbEntity
  8
0
  6
Continuous
 62
   110
390
F
100
AcDbLine
 10
7.328567999999998
 20
-0.4065
 30
0.0
 11
8.872669
 21
-0.4065
 31
0.0
  0
LINE
  5
4E1E
330
4D22
100
AcDbEntity
  8
0
  6
Continuous
 62
   110
390
F
100
AcDbLine
 10
8.550240999999999
 20
-1.184998999999999
 30
0.0
 11
8.550240999999999
 21
-1.399999
 31
0.0
  0
LINE
  5
4E1F
330
4D22
100
AcDbEntity
  8
0
  6
Continuous
 62
   110
390
F
100
AcDbLine
 10
5.665243
 20
-1.399999
 30
0.0
 11
5.665243
 21
-0.454
 31
0.0
  0
LINE
  5
4E20
330
4D22
100
AcDbEntity
  8
0
  6
Continuous
 62
   110
390
F
100
AcDbLine
 10
5.665243
 20
-0.454
 30
0.0
 11
5.474241
 21
-0.454
 31
0.0
  0
LINE
  5
4E21
330
4D22
100
AcDbEntity
  8
0
  6
Continuous
 62
   110
390
F
100
AcDbLine
 10
4.408241
 20
-0.4535000000000001
 30
0.0
 11
4.588741999999999
 21
-0.4535000000000001
 31
0.0
  0
LINE
  5
4E22
330
4D22
100
AcDbEntity
  8
0
  6
Continuous
 62
   110
390
F
100
AcDbLine
 10
4.588741999999999
 20
0.548
 30
0.0
 11
4.408241
 21
0.548
 31
0.0
  0
LINE
  5
4E23
330
4D22
100
AcDbEntity
  8
0
  6
Continuous
 62
   110
390
F
100
AcDbLine
 10
5.370741
 20
0.553
 30
0.0
 11
5.539239
 21
0.553
 31
0.0
  0
LINE
  5
4E24
330
4D22
100
AcDbEntity
  8
0
  6
Continuous
 62
   110
390
F
100
AcDbLine
 10
5.539239
 20
0.553
 30
0.0
 11
5.539239
 21
1.399999
 31
0.0
  0
LINE
  5
4E25
330
4D22
100
AcDbEntity
  8
0
  6
Continuous
 62
   110
390
F
100
AcDbLine
 10
5.539239
 20
1.399999
 30
0.0
 11
2.416741999999999
 21
1.399999
 31
0.0
  0
LINE
  5
4E26
330
4D22
100
AcDbEntity
  8
0
  6
Continuous
 62
   110
390
F
100
AcDbLine
 10
2.416741999999999
 20
1.399999
 30
0.0
 11
2.416741999999999
 21
1.199997999999999
 31
0.0
  0
LINE
  5
4E27
330
4D22
100
AcDbEntity
  8
0
  6
Continuous
 62
   110
390
F
100
AcDbLine
 10
2.416741999999999
 20
-1.184998999999999
 30
0.0
 11
2.416741999999999
 21
-1.399999
 31
0.0
  0
LINE
  5
4E28
330
4D22
100
AcDbEntity
  8
0
  6
Continuous
 62
   110
390
F
100
AcDbLine
 10
2.416741999999999
 20
-1.399999
 30
0.0
 11
5.665243
 21
-1.399999
 31
0.0
  0
LINE
  5
4E29
330
4D22
100
AcDbEntity
  8
0
  6
Continuous
 62
   110
390
F
100
AcDbLine
 10
-0.991253
 20
-1.184998999999999
 30
0.0
 11
-0.991253
 21
-1.399999
 31
0.0
  0
LINE
  5
4E2A
330
4D22
100
AcDbEntity
  8
0
  6
Continuous
 62
   110
390
F
100
AcDbLine
 10
-0.991253
 20
-1.399999
 30
0.0
 11
0.991244
 21
-1.399999
 31
0.0
  0
LINE
  5
4E2B
330
4D22
100
AcDbEntity
  8
0
  6
Continuous
 62
   110
390
F
100
AcDbLine
 10
0.991244
 20
-1.399999
 30
0.0
 11
0.991244
 21
-1.184998999999999
 31
0.0
  0
LINE
  5
4E2C
330
4D22
100
AcDbEntity
  8
0
  6
Continuous
 62
   110
390
F
100
AcDbLine
 10
1.697743999999999
 20
0.3655
 30
0.0
 11
1.697743999999999
 21
1.402496999999999
 31
0.0
  0
LINE
  5
4E2D
330
4D22
100
AcDbEntity
  8
0
  6
Continuous
 62
   110
390
F
100
AcDbLine
 10
1.491743
 20
0.3655
 30
0.0
 11
1.697743999999999
 21
0.3655
 31
0.0
  0
LINE
  5
4E2E
330
4D22
100
AcDbEntity
  8
0
  6
Continuous
 62
   110
390
F
100
AcDbLine
 10
-1.697750999999999
 20
1.402496999999999
 30
0.0
 11
-1.697750999999999
 21
0.3655
 31
0.0
  0
LINE
  5
4E2F
330
4D22
100
AcDbEntity
  8
0
  6
Continuous
 62
   110
390
F
100
AcDbLine
 10
-1.697750999999999
 20
0.3655
 30
0.0
 11
-1.48275
 21
0.3655
 31
0.0
  0
HATCH
  5
4E30
330
4D22
100
AcDbEntity
  8
0
  6
Continuous
 62
   110
390
F
100
AcDbHatch
 10
0.0
 20
0.0
 30
0.0
210
0.0
220
0.0
230
1.0
  2
SOLID
 70
     1
 71
     0
 91
        1
 92
        1
 93
       20
 72
     1
 10
1.697744369506835
 20
1.40249729156494
 11
-1.69775104522705
 21
1.40249729156494
 72
     1
 10
-1.69775104522705
 20
1.40249729156494
 11
-1.69775104522705
 21
0.3654999732971191
 72
     1
 10
-1.69775104522705
 20
0.3654999732971191
 11
-1.482749938964843
 21
0.3654999732971191
 72
     1
 10
-1.482749938964843
 20
0.3654999732971191
 11
-1.482749938964843
 21
0.9224978685379028
 72
     2
 10
-1.202749252319335
 20
0.9224978685379028
 40
0.2799999713897705
 50
180.0
 51
270.0
 73
     0
 72
     1
 10
-1.202749252319335
 20
1.202497482299804
 11
-0.32076096534729
 21
1.202497482299804
 72
     1
 10
-0.32076096534729
 20
1.202497482299804
 11
-0.32076096534729
 21
-0.9049984812736513
 72
     2
 10
-0.6007609367370606
 20
-0.9049984812736513
 40
0.2799999713897705
 50
0.0
 51
90.0
 73
     0
 72
     1
 10
-0.6007609367370606
 20
-1.184998512268065
 11
-0.9912532567977903
 21
-1.184998512268065
 72
     1
 10
-0.9912532567977903
 20
-1.184998512268065
 11
-0.9912532567977903
 21
-1.399998664855957
 72
     1
 10
-0.9912532567977903
 20
-1.399998664855957
 11
0.9912437200546262
 21
-1.399998664855957
 72
     1
 10
0.9912437200546262
 20
-1.399998664855957
 11
0.9912437200546262
 21
-1.184998512268065
 72
     1
 10
0.9912437200546262
 20
-1.184998512268065
 11
0.6007487773895264
 21
-1.184998512268065
 72
     2
 10
0.6007487773895264
 20
-0.9049984812736513
 40
0.2799999713897705
 50
89.999999
 51
180.000036
 73
     0
 72
     1
 10
0.3207488059997559
 20
-0.9049984812736513
 11
0.3207488059997559
 21
1.202497482299805
 72
     1
 10
0.3207488059997559
 20
1.202497482299804
 11
1.211742401123047
 21
1.202497482299804
 72
     2
 10
1.211742401123047
 20
0.9224978685379028
 40
0.2799999713897705
 50
270.000018
 51
360.0
 73
     0
 72
     1
 10
1.491743087768554
 20
0.9224978685379028
 11
1.491743087768554
 21
0.3654999732971191
 72
     1
 10
1.491743087768554
 20
0.3654999732971191
 11
1.697744369506835
 21
0.3654999732971191
 72
     1
 10
1.697744369506835
 20
0.3654999732971191
 11
1.697744369506835
 21
1.40249729156494
 97
        0
 75
     0
 76
     1
 98
        1
 10
0.0
 20
0.0
450
        0
451
        0
460
0.0
461
0.0
452
        0
462
0.0
453
        0
470

  0
HATCH
  5
4E31
330
4D22
100
AcDbEntity
  8
0
  6
Continuous
 62
   110
390
F
100
AcDbHatch
 10
0.0
 20
0.0
 30
0.0
210
0.0
220
0.0
230
1.0
  2
SOLID
 70
     1
 71
     0
 91
        1
 92
        1
 93
       30
 72
     1
 10
5.539238929748535
 20
1.399998664855957
 11
2.416742324829102
 21
1.399998664855957
 72
     1
 10
2.416742324829102
 20
1.399998664855957
 11
2.416742324829102
 21
1.199997901916504
 72
     1
 10
2.416742324829102
 20
1.199997901916504
 11
2.705240249633789
 21
1.199997901916504
 72
     2
 10
2.705240249633789
 20
0.9199978709220886
 40
0.2799999713897705
 50
270.000018
 51
360.0
 73
     0
 72
     1
 10
2.985240936279296
 20
0.9199978709220886
 11
2.985240936279296
 21
-0.9049984812736511
 72
     2
 10
2.705240249633789
 20
-0.9049984812736513
 40
0.2799999713897705
 50
0.0
 51
89.99998199999996
 73
     0
 72
     1
 10
2.705240249633789
 20
-1.184998512268065
 11
2.416742324829102
 21
-1.184998512268065
 72
     1
 10
2.416742324829102
 20
-1.184998512268065
 11
2.416742324829102
 21
-1.399998664855957
 72
     1
 10
2.416742324829102
 20
-1.399998664855957
 11
5.66524314880371
 21
-1.399998664855957
 72
     1
 10
5.66524314880371
 20
-1.399998664855957
 11
5.66524314880371
 21
-0.4539997577667237
 72
     1
 10
5.66524314880371
 20
-0.4539997577667236
 11
5.474241256713867
 21
-0.4539997577667236
 72
     1
 10
5.474241256713867
 20
-0.4539997577667236
 11
5.474241256713867
 21
-0.8849985003471374
 72
     2
 10
5.174241065979003
 20
-0.8849985003471374
 40
0.2999999523162842
 50
0.0
 51
89.99998199999996
 73
     0
 72
     1
 10
5.174241065979003
 20
-1.184998512268065
 11
3.560742378234863
 21
-1.184998512268065
 72
     1
 10
3.560742378234863
 20
-1.184998512268065
 11
3.560742378234863
 21
-0.0339998565614224
 72
     1
 10
3.560742378234863
 20
-0.0339998565614223
 11
4.128240585327147
 21
-0.0339998565614223
 72
     2
 10
4.128240585327147
 20
-0.3139998316764832
 40
0.2799999713897705
 50
270.000018
 51
360.0
 73
     0
 72
     1
 10
4.408241271972656
 20
-0.3139998316764832
 11
4.408241271972656
 21
-0.4534997344017029
 72
     1
 10
4.408241271972656
 20
-0.4534997344017029
 11
4.58874225616455
 21
-0.4534997344017029
 72
     1
 10
4.58874225616455
 20
-0.4534997344017029
 11
4.58874225616455
 21
0.547999918460846
 72
     1
 10
4.58874225616455
 20
0.5479999184608461
 11
4.408241271972656
 21
0.5479999184608461
 72
     1
 10
4.408241271972656
 20
0.5479999184608461
 11
4.408241271972656
 21
0.4504998922348024
 72
     2
 10
4.128240585327147
 20
0.4504998922348024
 40
0.2799999713897705
 50
0.0
 51
89.99998199999996
 73
     0
 72
     1
 10
4.128240585327147
 20
0.1704999208450317
 11
3.560742378234863
 21
0.1704999208450317
 72
     1
 10
3.560742378234863
 20
0.1704999208450317
 11
3.560742378234863
 21
1.199997901916504
 72
     1
 10
3.560742378234863
 20
1.199997901916504
 11
5.070740699768066
 21
1.199997901916504
 72
     2
 10
5.070740699768066
 20
0.8999978899955749
 40
0.2999999523162842
 50
270.000018
 51
360.0
 73
     0
 72
     1
 10
5.370740890502929
 20
0.8999978899955749
 11
5.370740890502929
 21
0.5529999732971192
 72
     1
 10
5.370740890502929
 20
0.5529999732971192
 11
5.539238929748535
 21
0.5529999732971192
 72
     1
 10
5.539238929748535
 20
0.5529999732971192
 11
5.539238929748535
 21
1.399998664855957
 97
        0
 75
     0
 76
     1
 98
        1
 10
0.0
 20
0.0
450
        0
451
        0
460
0.0
461
0.0
452
        0
462
0.0
453
        0
470

  0
HATCH
  5
4E32
330
4D22
100
AcDbEntity
  8
0
  6
Continuous
 62
   110
390
F
100
AcDbHatch
 10
0.0
 20
0.0
 30
0.0
210
0.0
220
0.0
230
1.0
  2
SOLID
 70
     1
 71
     0
 91
        2
 92
        1
 93
       20
 72
     1
 10
7.953664624435987
 20
1.456998825073242
 11
6.861785565204755
 21
-0.9745843274282359
 72
     2
 10
6.536645889282227
 20
-0.8285834789276123
 40
0.3564149737358093
 50
24.182006
 51
90.0
 73
     0
 72
     1
 10
6.536645889282227
 20
-1.184998512268065
 11
6.282241821289062
 21
-1.184998512268065
 72
     1
 10
6.282241821289062
 20
-1.184998512268065
 11
6.282241821289062
 21
-1.399998664855957
 72
     1
 10
6.282241821289062
 20
-1.399998664855957
 11
7.612239837646483
 21
-1.399998664855957
 72
     1
 10
7.612239837646483
 20
-1.399998664855957
 11
7.612239837646483
 21
-1.184998512268065
 72
     1
 10
7.612239837646483
 20
-1.184998512268065
 11
7.2296142578125
 21
-1.184998512268065
 72
     2
 10
7.2296142578125
 20
-1.034997940063477
 40
0.1499999761581421
 50
90.000218
 51
202.583811
 73
     0
 72
     1
 10
7.091117148675607
 20
-0.9773929472913208
 11
7.328568535983208
 21
-0.4065005295233847
 72
     1
 10
7.328568458557128
 20
-0.4064997434616089
 11
8.872669219970703
 21
-0.4064997434616089
 72
     1
 10
8.872669097735524
 20
-0.4064997004948623
 11
9.133734007329168
 21
-0.9721382152125102
 72
     2
 10
8.997540473937988
 20
-1.034997940063477
 40
0.1499999761581421
 50
335.224746
 51
450.000037
 73
     0
 72
     1
 10
8.997540473937988
 20
-1.184998512268065
 11
8.550241470336914
 21
-1.184998512268065
 72
     1
 10
8.550241470336914
 20
-1.184998512268065
 11
8.550241470336914
 21
-1.399998664855957
 72
     1
 10
8.550241470336914
 20
-1.399998664855957
 11
10.38274002075195
 21
-1.399998664855957
 72
     1
 10
10.38274002075195
 20
-1.399998664855957
 11
10.38274002075195
 21
-1.184998512268065
 72
     1
 10
10.38274002075195
 20
-1.184998512268065
 11
10.08331680297852
 21
-1.184998512268065
 72
     2
 10
10.08331680297852
 20
-0.8107025027275085
 40
0.3742959499359131
 50
90.00009099999999
 51
153.531396
 73
     0
 72
     1
 10
9.74825479523133
 20
-0.9775278957636148
 11
8.536107789160043
 21
1.457001166520285
 72
     1
 10
8.536107789160043
 20
1.456998825073242
 11
7.953664624435987
 21
1.456998825073242
 97
        0
 92
        1
 93
        3
 72
     1
 10
7.403452846854691
 20
-0.2304997444152832
 11
8.792600688464773
 21
-0.2304997444152832
 72
     1
 10
8.792600671736636
 20
-0.2304997520843948
 11
8.06996380383893
 21
1.345741186562464
 72
     1
 10
8.069963815278754
 20
1.345741181725153
 11
7.403452846854691
 21
-0.2304997444152832
 97
        0
 75
     0
 76
     1
 98
        1
 10
0.0
 20
0.0
450
        0
451
        0
460
0.0
461
0.0
452
        0
462
0.0
453
        0
470

  0
HATCH
  5
4E33
330
4D22
100
AcDbEntity
  8
0
  6
Continuous
 62
   110
390
F
100
AcDbHatch
 10
0.0
 20
0.0
 30
0.0
210
0.0
220
0.0
230
1.0
  2
SOLID
 70
     1
 71
     0
 91
        1
 92
        1
 93
       15
 72
     1
 10
13.85474109649658
 20
1.479499816894531
 11
13.60997772216797
 21
1.479499816894531
 72
     1
 10
13.60997777694996
 20
1.479496788040705
 11
13.58700837320902
 21
1.386799231420809
 72
     2
 10
13.40966320037842
 20
1.430745124816895
 40
0.1827106475830078
 50
13.916459
 51
117.8471
 73
     0
 72
     2
 10
12.3189001083374
 20
-0.6337334513664246
 40
2.15220546722412
 50
62.150186
 51
114.395014
 73
     1
 72
     2
 10
12.12130641937256
 20
-0.1980373859405518
 40
1.673797607421875
 50
114.395068
 51
141.575451
 73
     1
 72
     2
 10
11.8597993850708
 20
0.0094127617776394
 40
1.339998245239258
 50
141.575451
 51
217.69015
 73
     1
 72
     2
 10
12.12394237518311
 20
0.2134939432144165
 40
1.673794746398925
 50
217.690167
 51
244.534614
 73
     1
 72
     2
 10
12.35429382324219
 20
0.6971880793571473
 40
2.209540367126464
 50
244.534614
 51
282.878859
 73
     1
 72
     2
 10
12.49802684783936
 20
0.0685369372367859
 40
1.564666748046875
 50
282.878968
 51
342.805661
 73
     1
 72
     1
 10
13.99276447296143
 20
-0.3939999341964722
 11
13.65109062194824
 21
-0.3939999341964722
 72
     2
 10
12.49384307861328
 20
-0.0474512092769146
 40
1.208023071289062
 50
16.670815
 51
110.422739
 73
     0
 72
     2
 10
12.52691650390625
 20
0.0413809753954411
 40
1.302811622619629
 50
110.422647
 51
214.736083
 73
     0
 72
     2
 10
12.46644115447998
 20
0.0833129286766052
 40
1.229220390319823
 50
214.736083
 51
343.545221
 73
     0
 72
     1
 10
13.64531707763672
 20
0.4315000772476196
 11
13.85474109649658
 21
0.4315000772476196
 72
     1
 10
13.85474109649658
 20
0.4315000772476196
 11
13.85474109649658
 21
1.479499816894531
 97
        0
 75
     0
 76
     1
 98
        1
 10
0.0
 20
0.0
450
        0
451
        0
460
0.0
461
0.0
452
        0
462
0.0
453
        0
470

  0
ENDBLK
  5
4E34
330
4D22
100
AcDbEntity
  8
0
370
    -2
390
F
100
AcDbBlockEnd
  0
BLOCK
  5
4E36
330
4E35
100
AcDbEntity
  8
0
370
    -2
390
F
100
AcDbBlockBegin
  2
MS_8
 70
     0
 10
0.0
 20
0.0
 30
0.0
  3
MS_8
  1

  0
LINE
  5
4E37
330
4E35
100
AcDbEntity
  8
0
  6
Continuous
 62
   110
390
F
100
AcDbLine
 10
-102.0
 20
12.0
 30
0.0
 11
-84.0
 21
19.5
 31
0.0
  0
LINE
  5
4E38
330
4E35
100
AcDbEntity
  8
0
  6
Continuous
 62
     3
390
F
100
AcDbLine
 10
-102.0
 20
19.5
 30
0.0
 11
-84.0
 21
19.5
 31
0.0
  0
LINE
  5
4E39
330
4E35
100
AcDbEntity
  8
0
  6
Continuous
 62
     3
390
F
100
AcDbLine
 10
-102.0
 20
35.0
 30
0.0
 11
-102.0
 21
12.0
 31
0.0
  0
LINE
  5
4E3A
330
4E35
100
AcDbEntity
  8
0
  6
Continuous
 62
     3
390
F
100
AcDbLine
 10
-102.0
 20
28.0
 30
0.0
 11
-84.0
 21
28.0
 31
0.0
  0
LINE
  5
4E3B
330
4E35
100
AcDbEntity
  8
0
  6
CENTER
 62
   110
390
F
100
AcDbLine
 10
-99.0
 20
22.699997
 30
0.0
 11
-86.5
 21
22.699997
 31
0.0
  0
LINE
  5
4E3C
330
4E35
100
AcDbEntity
  8
0
  6
CENTER
 62
   110
390
F
100
AcDbLine
 10
-96.0
 20
24.599991
 30
0.0
 11
-96.0
 21
20.799988
 31
0.0
  0
LINE
  5
4E3D
330
4E35
100
AcDbEntity
  8
0
  6
Continuous
 62
   110
390
F
100
AcDbLine
 10
-92.0
 20
23.299988
 30
0.0
 11
-92.0
 21
22.099991
 31
0.0
  0
LINE
  5
4E3E
330
4E35
100
AcDbEntity
  8
0
  6
Continuous
 62
   110
390
F
100
AcDbLine
 10
-88.49999999999999
 20
24.099991
 30
0.0
 11
-88.49999999999999
 21
21.299988
 31
0.0
  0
LINE
  5
4E3F
330
4E35
100
AcDbEntity
  8
0
  6
Continuous
 62
   110
390
F
100
AcDbLine
 10
-91.99998499999999
 20
23.299982
 30
0.0
 11
-88.499995
 21
24.099982
 31
0.0
  0
LINE
  5
4E40
330
4E35
100
AcDbEntity
  8
0
  6
Continuous
 62
   110
390
F
100
AcDbLine
 10
-91.99998499999999
 20
22.099986
 30
0.0
 11
-88.499995
 21
21.299985
 31
0.0
  0
CIRCLE
  5
4E41
330
4E35
100
AcDbEntity
  8
0
  6
Continuous
 62
   110
390
F
100
AcDbCircle
 10
-96.0
 20
22.699997
 30
0.0
 40
0.6
  0
CIRCLE
  5
4E42
330
4E35
100
AcDbEntity
  8
0
  6
Continuous
 62
   110
390
F
100
AcDbCircle
 10
-96.0
 20
22.699997
 30
0.0
 40
1.399999999999999
  0
MTEXT
  5
4E43
330
4E35
100
AcDbEntity
  8
0
  6
Continuous
 62
   110
390
F
100
AcDbMText
 10
-98.499969
 20
27.399963
 30
0.0
 40
2.0
 41
0.0
 71
     2
 72
     1
  1
\A1;N
  7
MX_NOTE_STANDARD
 73
     1
 44
0.8999959999999999
  0
MTEXT
  5
4E44
330
4E35
100
AcDbEntity
  8
0
  6
Continuous
 62
   110
390
F
100
AcDbMText
 10
-96.69995100000001
 20
27.399963
 30
0.0
 40
2.0
 41
0.0
 71
     2
 72
     1
  1
\A1;G
  7
MX_NOTE_STANDARD
 73
     1
 44
0.8999959999999999
  0
MTEXT
  5
4E45
330
4E35
100
AcDbEntity
  8
0
  6
Continuous
 62
   110
390
F
100
AcDbMText
 10
-94.99993899999999
 20
27.399963
 30
0.0
 40
2.0
 41
0.0
 71
     2
 72
     1
  1
\A1;L
  7
MX_NOTE_STANDARD
 73
     1
 44
0.8999959999999999
  0
MTEXT
  5
4E46
330
4E35
100
AcDbEntity
  8
0
  6
Continuous
 62
   110
390
F
100
AcDbMText
 10
-93.49993899999999
 20
27.399963
 30
0.0
 40
2.0
 41
0.0
 71
     2
 72
     1
  1
\A1;E
  7
MX_NOTE_STANDARD
 73
     1
 44
0.8999959999999999
  0
MTEXT
  5
4E47
330
4E35
100
AcDbEntity
  8
0
  6
Continuous
 62
   110
390
F
100
AcDbMText
 10
-100.299988
 20
27.399963
 30
0.0
 40
2.0
 41
0.0
 71
     2
 72
     1
  1
\A1;A
  7
MX_NOTE_STANDARD
 73
     1
 44
0.8999959999999999
  0
MTEXT
  5
4E48
330
4E35
100
AcDbEntity
  8
0
  6
Continuous
 62
   110
390
F
100
AcDbMText
 10
-100.299988
 20
18.899994
 30
0.0
 40
2.0
 41
0.0
 71
     2
 72
     1
  1
\A1;S
  7
MX_NOTE_STANDARD
 73
     1
 44
0.8999959999999999
  0
MTEXT
  5
4E49
330
4E35
100
AcDbEntity
  8
0
  6
Continuous
 62
   110
390
F
100
AcDbMText
 10
-98.499969
 20
18.899994
 30
0.0
 40
2.0
 41
0.0
 71
     2
 72
     1
  1
\A1;C
  7
MX_NOTE_STANDARD
 73
     1
 44
0.8999959999999999
  0
MTEXT
  5
4E4A
330
4E35
100
AcDbEntity
  8
0
  6
Continuous
 62
   110
390
F
100
AcDbMText
 10
-96.79995699999999
 20
18.899994
 30
0.0
 40
2.0
 41
0.0
 71
     2
 72
     1
  1
\A1;A
  7
MX_NOTE_STANDARD
 73
     1
 44
0.8999959999999999
  0
MTEXT
  5
4E4B
330
4E35
100
AcDbEntity
  8
0
  6
Continuous
 62
   110
390
F
100
AcDbMText
 10
-95.09994499999999
 20
18.899994
 30
0.0
 40
2.0
 41
0.0
 71
     2
 72
     1
  1
\A1;L
  7
MX_NOTE_STANDARD
 73
     1
 44
0.8999959999999999
  0
MTEXT
  5
4E4C
330
4E35
100
AcDbEntity
  8
0
  6
Continuous
 62
   110
390
F
100
AcDbMText
 10
-93.49993899999999
 20
18.899994
 30
0.0
 40
2.0
 41
0.0
 71
     2
 72
     1
  1
\A1;E
  7
MX_NOTE_STANDARD
 73
     1
 44
0.8999959999999999
  0
MTEXT
  5
4E4D
330
4E35
100
AcDbEntity
  8
0
  6
Continuous
 62
   110
390
F
100
AcDbMText
 10
-100.299988
 20
31.5
 30
0.0
 40
2.0
 41
0.0
 71
     2
 72
     1
  1
\A1;U
  7
MX_NOTE_STANDARD
 73
     1
 44
0.8999959999999999
  0
MTEXT
  5
4E4E
330
4E35
100
AcDbEntity
  8
0
  6
Continuous
 62
   110
390
F
100
AcDbMText
 10
-98.59997599999999
 20
31.5
 30
0.0
 40
2.0
 41
0.0
 71
     2
 72
     1
  1
\A1;N
  7
MX_NOTE_STANDARD
 73
     1
 44
0.8999959999999999
  0
MTEXT
  5
4E4F
330
4E35
100
AcDbEntity
  8
0
  6
Continuous
 62
   110
390
F
100
AcDbMText
 10
-97.399979
 20
31.5
 30
0.0
 40
2.0
 41
0.0
 71
     2
 72
     1
  1
\W1.500;\A1;I
  7
MX_NOTE_STANDARD
 73
     1
 44
0.8999959999999999
  0
MTEXT
  5
4E50
330
4E35
100
AcDbEntity
  8
0
  6
Continuous
 62
   110
390
F
100
AcDbMText
 10
-96.19999700000001
 20
31.5
 30
0.0
 40
2.0
 41
0.0
 71
     2
 72
     1
  1
\A1;T
  7
MX_NOTE_STANDARD
 73
     1
 44
0.8999959999999999
  0
MTEXT
  5
4E51
330
4E35
100
AcDbEntity
  8
0
  6
Continuous
 62
   110
390
F
100
AcDbMText
 10
-93.69998199999999
 20
31.049988
 30
0.0
 40
1.5
 41
0.0
 71
     2
 72
     1
  1
\W0.833;\A1;ｍ
  7
MX_NOTE_STANDARD
 73
     1
 44
0.8999950000000001
  0
MTEXT
  5
4E52
330
4E35
100
AcDbEntity
  8
0
  6
Continuous
 62
   110
390
F
100
AcDbMText
 10
-91.49996899999999
 20
31.049988
 30
0.0
 40
1.5
 41
0.0
 71
     2
 72
     1
  1
\W0.833;\A1;ｍ
  7
MX_NOTE_STANDARD
 73
     1
 44
0.8999950000000001
  0
INSERT
  5
4E53
330
4E35
100
AcDbEntity
  8
0
  6
ByBlock
 62
   110
390
F
100
AcDbBlockReference
  2
$DOTFIL
 10
-93.0
 20
14.5
 30
0.0
 41
0.1
 42
0.1
 43
0.1
  0
INSERT
  5
4E54
330
4E35
100
AcDbEntity
  8
0
  6
ByBlock
 62
   110
390
F
100
AcDbBlockReference
  2
$DOTFIL
 10
-93.0
 20
13.25
 30
0.0
 41
0.1
 42
0.1
 43
0.1
  0
INSERT
  5
4E55
330
4E35
100
AcDbEntity
  8
0
  6
ByBlock
 62
   110
390
F
100
AcDbBlockReference
  2
$DOTFIL
 10
-93.0
 20
14.5
 30
0.0
 41
0.1
 42
0.1
 43
0.1
  0
INSERT
  5
4E56
330
4E35
100
AcDbEntity
  8
0
  6
ByBlock
 62
   110
390
F
100
AcDbBlockReference
  2
$DOTFIL
 10
-93.0
 20
13.25
 30
0.0
 41
0.1
 42
0.1
 43
0.1
  0
LINE
  5
4E57
330
4E35
100
AcDbEntity
  8
0
  6
Continuous
 62
     3
390
F
100
AcDbLine
 10
-84.0
 20
35.0
 30
0.0
 11
-84.0
 21
12.0
 31
0.0
  0
INSERT
  5
4E58
330
4E35
100
AcDbEntity
  8
0
  6
ByBlock
390
F
100
AcDbBlockReference
  2
MS_9
 10
0.9516209999999999
 20
-11.128533
 30
0.0
  0
MTEXT
  5
4E59
330
4E35
100
AcDbEntity
  8
0
  6
Continuous
 62
   110
390
F
100
AcDbMText
 10
-36.709985
 20
11.037711
 30
0.0
 40
3.2
 41
0.0
 71
     1
 72
     1
  1
\W1.406;\A1;1
  7
MX_NOTE_STANDARD
 73
     1
 44
0.9
  0
MTEXT
  5
4E5A
330
4E35
100
AcDbEntity
  8
0
  6
Continuous
 62
   110
390
F
100
AcDbMText
 10
-23.955134
 20
11.07877
 30
0.0
 40
3.2
 41
0.0
 71
     1
 72
     1
  1
\W1.406;\A1;1
  7
MX_NOTE_STANDARD
 73
     1
 44
0.9
  0
POINT
  5
4E5B
330
4E35
100
AcDbEntity
  8
0
  6
Continuous
 62
   170
390
F
100
AcDbPoint
 10
0.0
 20
0.0
 30
0.0
  0
LINE
  5
4E5C
330
4E35
100
AcDbEntity
  8
0
  6
Continuous
 62
     3
390
F
100
AcDbLine
 10
-190.0
 20
12.0
 30
0.0
 11
-15.0
 21
12.0
 31
0.0
  0
LINE
  5
4E5D
330
4E35
100
AcDbEntity
  8
0
  6
Continuous
 62
     3
390
F
100
AcDbLine
 10
-15.0
 20
287.0
 30
0.0
 11
-15.0
 21
7.0
 31
0.0
  0
LINE
  5
4E5E
330
4E35
100
AcDbEntity
  8
0
  6
Continuous
 62
     3
390
F
100
AcDbLine
 10
-84.0
 20
35.0
 30
0.0
 11
-84.0
 21
12.0
 31
0.0
  0
LINE
  5
4E5F
330
4E35
100
AcDbEntity
  8
0
  6
Continuous
 62
     3
390
F
100
AcDbLine
 10
-190.0
 20
287.0
 30
0.0
 11
-190.0
 21
12.0
 31
0.0
  0
LINE
  5
4E60
330
4E35
100
AcDbEntity
  8
0
  6
Continuous
 62
     3
390
F
100
AcDbLine
 10
-50.700001
 20
12.0
 30
0.0
 11
-50.700001
 21
7.0
 31
0.0
  0
LINE
  5
4E61
330
4E35
100
AcDbEntity
  8
0
  6
Continuous
 62
     3
390
F
100
AcDbLine
 10
-50.700001
 20
7.0
 30
0.0
 11
-15.0
 21
7.0
 31
0.0
  0
LINE
  5
4E62
330
4E35
100
AcDbEntity
  8
0
  6
Continuous
 62
     3
390
F
100
AcDbLine
 10
-84.0
 20
22.0
 30
0.0
 11
-15.0
 21
22.0
 31
0.0
  0
LINE
  5
4E63
330
4E35
100
AcDbEntity
  8
0
  6
Continuous
 62
     3
390
F
100
AcDbLine
 10
-102.0
 20
35.0
 30
0.0
 11
-15.0
 21
35.0
 31
0.0
  0
LINE
  5
4E64
330
4E35
100
AcDbEntity
  8
0
  6
Continuous
 62
     3
390
F
100
AcDbLine
 10
-190.0
 20
287.0
 30
0.0
 11
-15.0
 21
287.0
 31
0.0
  0
LINE
  5
4E65
330
4E35
100
AcDbEntity
  8
0
  6
Continuous
 62
   110
390
F
100
AcDbLine
 10
-10.0
 20
297.0
 30
0.0
 11
10.0
 21
297.0
 31
0.0
  0
LINE
  5
4E66
330
4E35
100
AcDbEntity
  8
0
  6
Continuous
 62
   110
390
F
100
AcDbLine
 10
-220.0
 20
0.0
 30
0.0
 11
-200.0
 21
0.0
 31
0.0
  0
LINE
  5
4E67
330
4E35
100
AcDbEntity
  8
0
  6
Continuous
 62
   110
390
F
100
AcDbLine
 10
-10.0
 20
0.0
 30
0.0
 11
10.0
 21
0.0
 31
0.0
  0
LINE
  5
4E68
330
4E35
100
AcDbEntity
  8
0
  6
Continuous
 62
   110
390
F
100
AcDbLine
 10
-210.0
 20
307.0
 30
0.0
 11
-210.0
 21
287.0
 31
0.0
  0
LINE
  5
4E69
330
4E35
100
AcDbEntity
  8
0
  6
Continuous
 62
   110
390
F
100
AcDbLine
 10
-210.0
 20
10.0
 30
0.0
 11
-210.0
 21
-10.0
 31
0.0
  0
LINE
  5
4E6A
330
4E35
100
AcDbEntity
  8
0
  6
Continuous
 62
   110
390
F
100
AcDbLine
 10
0.0
 20
10.0
 30
0.0
 11
0.0
 21
-10.0
 31
0.0
  0
LINE
  5
4E6B
330
4E35
100
AcDbEntity
  8
0
  6
Continuous
 62
   110
390
F
100
AcDbLine
 10
0.0
 20
307.0
 30
0.0
 11
0.0
 21
287.0
 31
0.0
  0
LINE
  5
4E6C
330
4E35
100
AcDbEntity
  8
0
  6
Continuous
 62
   110
390
F
100
AcDbLine
 10
-220.0
 20
297.0
 30
0.0
 11
-200.0
 21
297.0
 31
0.0
  0
MTEXT
  5
4E6D
330
4E35
100
AcDbEntity
  8
0
  6
Continuous
 62
   110
390
F
100
AcDbMText
 10
-47.5
 20
10.5
 30
0.0
 40
2.0
 41
0.0
 71
     2
 72
     1
  1
\A1;S
  7
MX_NOTE_STANDARD
 73
     1
 44
0.8999959999999999
  0
MTEXT
  5
4E6E
330
4E35
100
AcDbEntity
  8
0
  6
Continuous
 62
   110
390
F
100
AcDbMText
 10
-45.799988
 20
10.5
 30
0.0
 40
2.0
 41
0.0
 71
     2
 72
     1
  1
\A1;H
  7
MX_NOTE_STANDARD
 73
     1
 44
0.8999959999999999
  0
MTEXT
  5
4E6F
330
4E35
100
AcDbEntity
  8
0
  6
Continuous
 62
   110
390
F
100
AcDbMText
 10
-44.09997599999999
 20
10.5
 30
0.0
 40
2.0
 41
0.0
 71
     2
 72
     1
  1
\A1;E
  7
MX_NOTE_STANDARD
 73
     1
 44
0.8999959999999999
  0
MTEXT
  5
4E70
330
4E35
100
AcDbEntity
  8
0
  6
Continuous
 62
   110
390
F
100
AcDbMText
 10
-42.399963
 20
10.5
 30
0.0
 40
2.0
 41
0.0
 71
     2
 72
     1
  1
\A1;E
  7
MX_NOTE_STANDARD
 73
     1
 44
0.8999959999999999
  0
MTEXT
  5
4E71
330
4E35
100
AcDbEntity
  8
0
  6
Continuous
 62
   110
390
F
100
AcDbMText
 10
-40.69995099999999
 20
10.5
 30
0.0
 40
2.0
 41
0.0
 71
     2
 72
     1
  1
\A1;T
  7
MX_NOTE_STANDARD
 73
     1
 44
0.8999959999999999
  0
MTEXT
  5
4E72
330
4E35
100
AcDbEntity
  8
0
  6
Continuous
 62
   110
390
F
100
AcDbMText
 10
-30.349991
 20
10.5
 30
0.0
 40
2.0
 41
0.0
 71
     2
 72
     1
  1
\A1;O
  7
MX_NOTE_STANDARD
 73
     1
 44
0.8999959999999999
  0
MTEXT
  5
4E73
330
4E35
100
AcDbEntity
  8
0
  6
Continuous
 62
   110
390
F
100
AcDbMText
 10
-28.549988
 20
10.5
 30
0.0
 40
2.0
 41
0.0
 71
     2
 72
     1
  1
\A1;F
  7
MX_NOTE_STANDARD
 73
     1
 44
0.8999959999999999
  0
ENDBLK
  5
4E74
330
4E35
100
AcDbEntity
  8
0
370
    -2
390
F
100
AcDbBlockEnd
  0
BLOCK
  5
4E76
330
4E75
100
AcDbEntity
  8
0
370
    -2
390
F
100
AcDbBlockBegin
  2
MS_9
 70
     0
 10
0.0
 20
0.0
 30
0.0
  3
MS_9
  1

  0
INSERT
  5
4E77
330
4E75
100
AcDbEntity
  8
0
  6
ByBlock
390
F
100
AcDbBlockReference
  2
MS_7
 10
-74.468594
 20
28.183239
 30
0.0
 41
1.199999999999999
 42
1.199999999999999
 43
1.199999999999999
  0
ENDBLK
  5
4E78
330
4E75
100
AcDbEntity
  8
0
370
    -2
390
F
100
AcDbBlockEnd
  0
BLOCK
  5
4E7A
330
4E79
100
AcDbEntity
  8
0
  6
ByBlock
 62
     0
370
    -2
390
F
100
AcDbBlockBegin
  2
_OPEN30
 70
     0
 10
0.0
 20
0.0
 30
0.0
  3
_OPEN30
  1

  0
LINE
  5
4E7B
330
4E79
100
AcDbEntity
  8
0
  6
ByBlock
 62
     0
370
    -2
390
F
100
AcDbLine
 10
-1.0
 20
0.267949
 30
0.0
 11
0.0
 21
0.0
 31
0.0
  0
LINE
  5
4E7C
330
4E79
100
AcDbEntity
  8
0
  6
ByBlock
 62
     0
370
    -2
390
F
100
AcDbLine
 10
0.0
 20
0.0
 30
0.0
 11
-1.0
 21
-0.267949
 31
0.0
  0
LINE
  5
4E7D
330
4E79
100
AcDbEntity
  8
0
  6
ByBlock
 62
     0
370
    -2
390
F
100
AcDbLine
 10
0.0
 20
0.0
 30
0.0
 11
-1.0
 21
0.0
 31
0.0
  0
ENDBLK
  5
4E7E
330
4E79
100
AcDbEntity
  8
0
  6
ByBlock
 62
     0
370
    -2
390
F
100
AcDbBlockEnd
  0
BLOCK
  5
4E80
330
4E7F
100
AcDbEntity
  8
0
  6
ByBlock
 62
     0
370
    -2
390
F
100
AcDbBlockBegin
  2
$DOTFIL
 70
     0
 10
0.0
 20
0.0
 30
0.0
  3
$DOTFIL
  1

  0
POLYLINE
  5
4E81
330
4E7F
100
AcDbEntity
  8
0
  6
Continuous
 62
     0
370
    -2
390
F
100
AcDb2dPolyline
 66
     1
 10
0.0
 20
0.0
 30
0.0
 70
     1
 40
1.0
 41
1.0
  0
VERTEX
  5
4E82
330
4E81
100
AcDbEntity
  8
0
  6
Continuous
 62
     0
370
    -2
390
F
100
AcDbVertex
100
AcDb2dVertex
 10
-0.5
 20
0.0
 30
0.0
 42
1.0
  0
VERTEX
  5
4E83
330
4E81
100
AcDbEntity
  8
0
  6
Continuous
 62
     0
370
    -2
390
F
100
AcDbVertex
100
AcDb2dVertex
 10
0.5
 20
0.0
 30
0.0
 42
1.0
  0
SEQEND
  5
4E84
330
4E81
100
AcDbEntity
  8
0
  6
Continuous
 62
     0
370
    -2
390
F
  0
ENDBLK
  5
4E85
330
4E7F
100
AcDbEntity
  8
0
  6
ByBlock
 62
     0
370
    -2
390
F
100
AcDbBlockEnd
  0
BLOCK
  5
5850
330
584D
100
AcDbEntity
  8
0
100
AcDbBlockBegin
  2
_Integral
 70
     0
 10
0.0
 20
0.0
 30
0.0
  3
_Integral
  1

  0
ARC
  5
584E
330
584D
100
AcDbEntity
  8
0
  6
ByBlock
 62
     0
370
    -2
100
AcDbCircle
 10
0.44488802
 20
-0.09133463
 30
0.0
 40
0.4541666700000001
100
AcDbArc
 50
101.9999999980395
 51
167.9999999799193
  0
ARC
  5
584F
330
584D
100
AcDbEntity
  8
0
  6
ByBlock
 62
     0
370
    -2
100
AcDbCircle
 10
-0.44488802
 20
0.09133463
 30
0.0
 40
0.4541666700000001
100
AcDbArc
 50
282.0000000215427
 51
348.0000000034225
  0
ENDBLK
  5
5851
330
584D
100
AcDbEntity
  8
0
100
AcDbBlockEnd
  0
BLOCK
  5
7597
330
758F
100
AcDbEntity
  8
0
100
AcDbBlockBegin
  2
A$C0D0E4EDA
 70
     0
 10
0.0
 20
0.0
 30
0.0
  3
A$C0D0E4EDA
  1

  0
LINE
  5
7590
330
758F
100
AcDbEntity
  8
002寸法
100
AcDbLine
 10
0.0
 20
5.0
 30
0.05
 11
0.388228568000045
 21
3.551111260999959
 31
0.05
  0
LINE
  5
7591
330
758F
100
AcDbEntity
  8
002寸法
100
AcDbLine
 10
0.0
 20
5.0
 30
0.0
 11
-0.388228568000045
 21
3.551111260999959
 31
0.0
  0
LINE
  5
7592
330
758F
100
AcDbEntity
  8
002寸法
100
AcDbLine
 10
0.0
 20
5.0
 30
0.0
 11
0.0
 21
0.0
 31
0.0
  0
TEXT
  5
7593
330
758F
100
AcDbEntity
  8
外形線
 62
     2
100
AcDbText
 10
-9.793406872349351
 20
2.462156194798467
 30
0.0
 40
2.0
  1
負荷方向
 41
0.9
100
AcDbText
  0
TEXT
  5
7594
330
758F
100
AcDbEntity
  8
外形線
 62
     2
100
AcDbText
 10
-10.79340687234935
 20
-0.0378438052015326
 30
0.0
 40
2.0
  1
 （＋）
 41
0.9
100
AcDbText
  0
ENDBLK
  5
7598
330
758F
100
AcDbEntity
  8
0
100
AcDbBlockEnd
  0
BLOCK
  5
759E
330
759A
100
AcDbEntity
  8
0
100
AcDbBlockBegin
  2
A$C5D86632D
 70
     0
 10
0.0
 20
0.0
 30
0.0
  3
A$C5D86632D
  1

  0
LINE
  5
759B
330
759A
100
AcDbEntity
  8
外形線
100
AcDbLine
 10
0.0
 20
0.0
 30
0.0
 11
0.25
 21
0.0
 31
0.0
  0
ENDBLK
  5
759F
330
759A
100
AcDbEntity
  8
0
100
AcDbBlockEnd
  0
BLOCK
  5
8519
330
8518
100
AcDbEntity
  8
0
100
AcDbBlockBegin
  2
*D29
 70
     1
 10
0.0
 20
0.0
 30
0.0
  3
*D29
  1

  0
LINE
  5
860F
330
8518
100
AcDbEntity
  8
002寸法
440
 16777216
100
AcDbLine
 10
96.82298150522013
 20
123.4192926136142
 30
0.0
 11
96.82298150522013
 21
115.3882245872975
 31
0.0
  0
LINE
  5
8610
330
8518
100
AcDbEntity
  8
002寸法
440
 16777216
100
AcDbLine
 10
108.8229815052201
 20
123.4192926136142
 30
0.0
 11
108.8229815052201
 21
115.3882245872975
 31
0.0
  0
LINE
  5
8611
330
8518
100
AcDbEntity
  8
002寸法
440
 16777216
100
AcDbLine
 10
98.32298150522014
 20
116.1382245872975
 30
0.0
 11
107.3229815052201
 21
116.1382245872975
 31
0.0
  0
INSERT
  5
8612
330
8518
100
AcDbEntity
  8
002寸法
440
 16777216
100
AcDbBlockReference
  2
_OPEN
 10
96.82298150522013
 20
116.1382245872975
 30
0.0
 41
1.5
 42
1.5
 43
1.5
 50
180.0
  0
INSERT
  5
8613
330
8518
100
AcDbEntity
  8
002寸法
440
 16777216
100
AcDbBlockReference
  2
_OPEN
 10
108.8229815052201
 20
116.1382245872975
 30
0.0
 41
1.5
 42
1.5
 43
1.5
  0
MTEXT
  5
8614
330
8518
100
AcDbEntity
  8
002寸法
 62
     2
440
 16777216
100
AcDbMText
 10
102.2978019937488
 20
117.6382245872975
 30
0.0
 40
2.0
 41
0.0
 71
     5
 72
     1
  1
\A1;\U+03C612
 73
     1
 44
1.0
  0
POINT
  5
8615
330
8518
100
AcDbEntity
  8
DEFPOINTS
 62
     0
440
 16777216
100
AcDbPoint
 10
96.82298150522013
 20
123.9192926136142
 30
0.0
  0
POINT
  5
8616
330
8518
100
AcDbEntity
  8
DEFPOINTS
 62
     0
440
 16777216
100
AcDbPoint
 10
108.8229815052201
 20
123.9192926136142
 30
0.0
  0
POINT
  5
8617
330
8518
100
AcDbEntity
  8
DEFPOINTS
 62
     0
440
 16777216
100
AcDbPoint
 10
108.8229815052201
 20
116.1382245872975
 30
0.0
  0
ENDBLK
  5
851A
330
8518
100
AcDbEntity
  8
0
100
AcDbBlockEnd
  0
BLOCK
  5
8525
330
8524
100
AcDbEntity
  8
0
100
AcDbBlockBegin
  2
*D30
 70
     1
 10
0.0
 20
0.0
 30
0.0
  3
*D30
  1

  0
LINE
  5
8618
330
8524
100
AcDbEntity
  8
002寸法
440
 16777216
100
AcDbLine
 10
96.82298150522013
 20
123.4192926136142
 30
0.0
 11
96.82298150522013
 21
109.752859436045
 31
0.0
  0
LINE
  5
8619
330
8524
100
AcDbEntity
  8
002寸法
440
 16777216
100
AcDbLine
 10
113.8229815052201
 20
123.4692926136142
 30
0.0
 11
113.8229815052201
 21
109.752859436045
 31
0.0
  0
LINE
  5
861A
330
8524
100
AcDbEntity
  8
002寸法
440
 16777216
100
AcDbLine
 10
98.32298150522014
 20
110.502859436045
 30
0.0
 11
112.3229815052201
 21
110.502859436045
 31
0.0
  0
INSERT
  5
861B
330
8524
100
AcDbEntity
  8
002寸法
440
 16777216
100
AcDbBlockReference
  2
_OPEN
 10
96.82298150522013
 20
110.502859436045
 30
0.0
 41
1.5
 42
1.5
 43
1.5
 50
180.0
  0
INSERT
  5
861C
330
8524
100
AcDbEntity
  8
002寸法
440
 16777216
100
AcDbBlockReference
  2
_OPEN
 10
113.8229815052201
 20
110.502859436045
 30
0.0
 41
1.5
 42
1.5
 43
1.5
  0
MTEXT
  5
861D
330
8524
100
AcDbEntity
  8
002寸法
 62
     2
440
 16777216
100
AcDbMText
 10
105.4725885388727
 20
112.2766689598545
 30
0.0
 40
2.0
 41
0.0
 71
     5
 72
     1
  1
\A1;(17)
 73
     1
 44
1.0
  0
POINT
  5
861E
330
8524
100
AcDbEntity
  8
DEFPOINTS
 62
     0
440
 16777216
100
AcDbPoint
 10
96.82298150522013
 20
123.9192926136142
 30
0.0
  0
POINT
  5
861F
330
8524
100
AcDbEntity
  8
DEFPOINTS
 62
     0
440
 16777216
100
AcDbPoint
 10
113.8229815052201
 20
123.9692926136142
 30
0.0
  0
POINT
  5
8620
330
8524
100
AcDbEntity
  8
DEFPOINTS
 62
     0
440
 16777216
100
AcDbPoint
 10
113.8229815052201
 20
110.502859436045
 30
0.0
  0
ENDBLK
  5
8526
330
8524
100
AcDbEntity
  8
0
100
AcDbBlockEnd
  0
BLOCK
  5
8531
330
8530
100
AcDbEntity
  8
0
100
AcDbBlockBegin
  2
*D31
 70
     1
 10
0.0
 20
0.0
 30
0.0
  3
*D31
  1

  0
LINE
  5
8621
330
8530
100
AcDbEntity
  8
002寸法
440
 16777216
100
AcDbLine
 10
96.32298150522013
 20
126.9192926136142
 30
0.0
 11
88.18287047586887
 21
126.9192926136142
 31
0.0
  0
LINE
  5
8622
330
8530
100
AcDbEntity
  8
002寸法
440
 16777216
100
AcDbLine
 10
102.3229815052201
 20
127.6192926136142
 30
0.0
 11
88.18287047586887
 21
127.6192926136142
 31
0.0
  0
LINE
  5
8623
330
8530
100
AcDbEntity
  8
002寸法
440
 16777216
100
AcDbLine
 10
88.93287047586886
 20
125.4192926136142
 30
0.0
 11
88.93287047586886
 21
123.9192926136142
 31
0.0
  0
LINE
  5
8624
330
8530
100
AcDbEntity
  8
002寸法
440
 16777216
100
AcDbLine
 10
88.93287047586886
 20
129.1192926136142
 30
0.0
 11
88.93287047586886
 21
135.3907211850428
 31
0.0
  0
LINE
  5
8625
330
8530
100
AcDbEntity
  8
002寸法
440
 16777216
100
AcDbLine
 10
88.93287047586886
 20
126.9192926136142
 30
0.0
 11
88.93287047586886
 21
127.6192926136142
 31
0.0
  0
INSERT
  5
8626
330
8530
100
AcDbEntity
  8
002寸法
440
 16777216
100
AcDbBlockReference
  2
_OPEN
 10
88.93287047586886
 20
126.9192926136142
 30
0.0
 41
1.5
 42
1.5
 43
1.5
 50
90.0
  0
INSERT
  5
8627
330
8530
100
AcDbEntity
  8
002寸法
440
 16777216
100
AcDbBlockReference
  2
_OPEN
 10
88.93287047586886
 20
127.6192926136142
 30
0.0
 41
1.5
 42
1.5
 43
1.5
 50
270.0
  0
MTEXT
  5
8628
330
8530
100
AcDbEntity
  8
002寸法
 62
     2
440
 16777216
100
AcDbMText
 10
87.43287047586886
 20
133.0050068993285
 30
0.0
 40
2.0
 41
0.0
 71
     5
 72
     1
  1
\A1;0.7
 11
0.0000000000000001
 21
1.0
 31
0.0
 73
     1
 44
1.0
  0
POINT
  5
8629
330
8530
100
AcDbEntity
  8
DEFPOINTS
 62
     0
440
 16777216
100
AcDbPoint
 10
96.82298150522013
 20
126.9192926136142
 30
0.0
  0
POINT
  5
862A
330
8530
100
AcDbEntity
  8
DEFPOINTS
 62
     0
440
 16777216
100
AcDbPoint
 10
102.8229815052201
 20
127.6192926136142
 30
0.0
  0
POINT
  5
862B
330
8530
100
AcDbEntity
  8
DEFPOINTS
 62
     0
440
 16777216
100
AcDbPoint
 10
88.93287047586886
 20
127.6192926136142
 30
0.0
  0
ENDBLK
  5
8532
330
8530
100
AcDbEntity
  8
0
100
AcDbBlockEnd
  0
BLOCK
  5
853F
330
853E
100
AcDbEntity
  8
0
100
AcDbBlockBegin
  2
*D32
 70
     1
 10
0.0
 20
0.0
 30
0.0
  3
*D32
  1

  0
LINE
  5
862C
330
853E
100
AcDbEntity
  8
002寸法
440
 16777216
100
AcDbLine
 10
102.3229815052201
 20
127.6192926136142
 30
0.0
 11
83.17672635155737
 21
127.6192926136142
 31
0.0
  0
LINE
  5
862D
330
853E
100
AcDbEntity
  8
002寸法
440
 16777216
100
AcDbLine
 10
96.57298150522013
 20
123.6192926136142
 30
0.0
 11
83.17672635155737
 21
123.6192926136142
 31
0.0
  0
LINE
  5
862E
330
853E
100
AcDbEntity
  8
002寸法
440
 16777216
100
AcDbLine
 10
83.92672635155738
 20
126.1192926136142
 30
0.0
 11
83.92672635155738
 21
125.1192926136142
 31
0.0
  0
INSERT
  5
862F
330
853E
100
AcDbEntity
  8
002寸法
440
 16777216
100
AcDbBlockReference
  2
_OPEN
 10
83.92672635155738
 20
127.6192926136142
 30
0.0
 41
1.5
 42
1.5
 43
1.5
 50
90.0
  0
INSERT
  5
8630
330
853E
100
AcDbEntity
  8
002寸法
440
 16777216
100
AcDbBlockReference
  2
_OPEN
 10
83.92672635155738
 20
123.6192926136142
 30
0.0
 41
1.5
 42
1.5
 43
1.5
 50
270.0
  0
MTEXT
  5
8631
330
853E
100
AcDbEntity
  8
002寸法
 62
     2
440
 16777216
100
AcDbMText
 10
82.42672635155736
 20
125.6192926136142
 30
0.0
 40
2.0
 41
0.0
 71
     5
 72
     1
  1
\A1;4
 11
0.0000000000000001
 21
1.0
 31
0.0
 73
     1
 44
1.0
  0
POINT
  5
8632
330
853E
100
AcDbEntity
  8
DEFPOINTS
 62
     0
440
 16777216
100
AcDbPoint
 10
102.8229815052201
 20
127.6192926136142
 30
0.0
  0
POINT
  5
8633
330
853E
100
AcDbEntity
  8
DEFPOINTS
 62
     0
440
 16777216
100
AcDbPoint
 10
97.07298150522014
 20
123.6192926136142
 30
0.0
  0
POINT
  5
8634
330
853E
100
AcDbEntity
  8
DEFPOINTS
 62
     0
440
 16777216
100
AcDbPoint
 10
83.92672635155738
 20
123.6192926136142
 30
0.0
  0
ENDBLK
  5
8540
330
853E
100
AcDbEntity
  8
0
100
AcDbBlockEnd
  0
BLOCK
  5
854B
330
854A
100
AcDbEntity
  8
0
100
AcDbBlockBegin
  2
*D33
 70
     1
 10
0.0
 20
0.0
 30
0.0
  3
*D33
  1

  0
LINE
  5
8635
330
854A
100
AcDbEntity
  8
002寸法
440
 16777216
100
AcDbLine
 10
101.922981505321
 20
127.9053497236142
 30
0.0
 11
101.922981505321
 21
132.7647256706502
 31
0.0
  0
LINE
  5
8636
330
854A
100
AcDbEntity
  8
002寸法
440
 16777216
100
AcDbLine
 10
103.7229815052201
 20
127.9053497235634
 30
0.0
 11
103.7229815052201
 21
132.7647256706502
 31
0.0
  0
LINE
  5
8637
330
854A
100
AcDbEntity
  8
002寸法
440
 16777216
100
AcDbLine
 10
105.2229815052201
 20
132.0147256706502
 30
0.0
 11
106.7229815052201
 21
132.0147256706502
 31
0.0
  0
LINE
  5
8638
330
854A
100
AcDbEntity
  8
002寸法
440
 16777216
100
AcDbLine
 10
100.422981505321
 20
132.0147256706502
 30
0.0
 11
91.59441007674956
 21
132.0147256706502
 31
0.0
  0
LINE
  5
8639
330
854A
100
AcDbEntity
  8
002寸法
440
 16777216
100
AcDbLine
 10
103.7229815052201
 20
132.0147256706502
 30
0.0
 11
101.922981505321
 21
132.0147256706502
 31
0.0
  0
INSERT
  5
863A
330
854A
100
AcDbEntity
  8
002寸法
440
 16777216
100
AcDbBlockReference
  2
_OPEN
 10
103.7229815052201
 20
132.0147256706502
 30
0.0
 41
1.5
 42
1.5
 43
1.5
 50
180.0
  0
INSERT
  5
863B
330
854A
100
AcDbEntity
  8
002寸法
440
 16777216
100
AcDbBlockReference
  2
_OPEN
 10
101.922981505321
 20
132.0147256706502
 30
0.0
 41
1.5
 42
1.5
 43
1.5
  0
MTEXT
  5
863C
330
854A
100
AcDbEntity
  8
002寸法
 62
     2
440
 16777216
100
AcDbMText
 10
95.00869579103527
 20
133.5147256706502
 30
0.0
 40
2.0
 41
0.0
 71
     5
 72
     1
  1
\A1;\U+03C61.8
 73
     1
 44
1.0
  0
POINT
  5
863D
330
854A
100
AcDbEntity
  8
DEFPOINTS
 62
     0
440
 16777216
100
AcDbPoint
 10
101.922981505321
 20
127.4053497236142
 30
0.0
  0
POINT
  5
863E
330
854A
100
AcDbEntity
  8
DEFPOINTS
 62
     0
440
 16777216
100
AcDbPoint
 10
103.7229815052201
 20
127.4053497235634
 30
0.0
  0
POINT
  5
863F
330
854A
100
AcDbEntity
  8
DEFPOINTS
 62
     0
440
 16777216
100
AcDbPoint
 10
103.7229815052201
 20
132.0147256706502
 30
0.0
  0
ENDBLK
  5
854C
330
854A
100
AcDbEntity
  8
0
100
AcDbBlockEnd
  0
BLOCK
  5
8559
330
8558
100
AcDbEntity
  8
0
100
AcDbBlockBegin
  2
*D34
 70
     1
 10
0.0
 20
0.0
 30
0.0
  3
*D34
  1

  0
LINE
  5
865C
330
8558
100
AcDbEntity
  8
002寸法
440
 16777216
100
AcDbLine
 10
106.9267161792892
 20
139.8377651813107
 30
0.0
 11
103.793535514035
 21
128.9820332988252
 31
0.0
  0
MTEXT
  5
865D
330
8558
100
AcDbEntity
  8
002寸法
 62
     2
440
 16777216
100
AcDbMText
 10
104.0742105139788
 20
137.1668815086964
 30
0.0
 40
2.0
 41
0.0
 71
     5
 72
     1
  1
\A1;SR2
 11
0.2773011453756993
 21
0.9607830529174238
 31
0.0
 73
     1
 44
1.0
  0
LINE
  5
865E
330
8558
100
AcDbEntity
  8
002寸法
440
 16777216
100
AcDbLine
 10
102.8229815052201
 20
125.6192926136142
 30
0.0
 11
103.3775837959715
 21
127.5408587194491
 31
0.0
  0
INSERT
  5
865F
330
8558
100
AcDbEntity
  8
002寸法
440
 16777216
100
AcDbBlockReference
  2
_OPEN
 10
103.3775837959715
 20
127.5408587194491
 30
0.0
 41
1.5
 42
1.5
 43
1.5
 50
253.9008055395613
  0
POINT
  5
8660
330
8558
100
AcDbEntity
  8
DEFPOINTS
 62
     0
440
 16777216
100
AcDbPoint
 10
103.3775837959715
 20
127.5408587194491
 30
0.0
  0
POINT
  5
8661
330
8558
100
AcDbEntity
  8
DEFPOINTS
 62
     0
440
 16777216
100
AcDbPoint
 10
102.8229815052201
 20
125.6192926136142
 30
0.0
  0
ENDBLK
  5
855A
330
8558
100
AcDbEntity
  8
0
100
AcDbBlockEnd
  0
BLOCK
  5
8562
330
8561
100
AcDbEntity
  8
0
100
AcDbBlockBegin
  2
*D35
 70
     1
 10
0.0
 20
0.0
 30
0.0
  3
*D35
  1

  0
LINE
  5
8646
330
8561
100
AcDbEntity
  8
002寸法
440
 16777216
100
AcDbLine
 10
113.3229815052201
 20
123.9692926136142
 30
0.0
 11
112.2547670893267
 21
123.9692926136142
 31
0.0
  0
LINE
  5
8647
330
8561
100
AcDbEntity
  8
002寸法
440
 16777216
100
AcDbLine
 10
113.3229815052201
 20
126.2692926136142
 30
0.0
 11
112.2547670893267
 21
126.2692926136142
 31
0.0
  0
LINE
  5
8648
330
8561
100
AcDbEntity
  8
002寸法
440
 16777216
100
AcDbLine
 10
113.0047670893266
 20
122.4692926136142
 30
0.0
 11
113.0047670893266
 21
120.9692926136142
 31
0.0
  0
LINE
  5
8649
330
8561
100
AcDbEntity
  8
002寸法
440
 16777216
100
AcDbLine
 10
113.0047670893266
 20
127.7692926136142
 30
0.0
 11
113.0047670893266
 21
138.6792926136142
 31
0.0
  0
LINE
  5
864A
330
8561
100
AcDbEntity
  8
002寸法
440
 16777216
100
AcDbLine
 10
113.0047670893266
 20
123.9692926136142
 30
0.0
 11
113.0047670893266
 21
126.2692926136142
 31
0.0
  0
INSERT
  5
864B
330
8561
100
AcDbEntity
  8
002寸法
440
 16777216
100
AcDbBlockReference
  2
_OPEN
 10
113.0047670893266
 20
123.9692926136142
 30
0.0
 41
1.5
 42
1.5
 43
1.5
 50
90.0
  0
INSERT
  5
864C
330
8561
100
AcDbEntity
  8
002寸法
440
 16777216
100
AcDbBlockReference
  2
_OPEN
 10
113.0047670893266
 20
126.2692926136142
 30
0.0
 41
1.5
 42
1.5
 43
1.5
 50
270.0
  0
MTEXT
  5
864D
330
8561
100
AcDbEntity
  8
002寸法
 62
     2
440
 16777216
100
AcDbMText
 10
111.2309575655171
 20
134.3492926136143
 30
0.0
 40
2.0
 41
0.0
 71
     5
 72
     1
  1
\A1;(\U+03C62.3)
 11
0.0000000000000001
 21
1.0
 31
0.0
 73
     1
 44
1.0
  0
POINT
  5
864E
330
8561
100
AcDbEntity
  8
DEFPOINTS
 62
     0
440
 16777216
100
AcDbPoint
 10
113.8229815052201
 20
123.9692926136142
 30
0.0
  0
POINT
  5
864F
330
8561
100
AcDbEntity
  8
DEFPOINTS
 62
     0
440
 16777216
100
AcDbPoint
 10
113.8229815052201
 20
126.2692926136142
 30
0.0
  0
POINT
  5
8650
330
8561
100
AcDbEntity
  8
DEFPOINTS
 62
     0
440
 16777216
100
AcDbPoint
 10
113.0047670893266
 20
126.2692926136142
 30
0.0
  0
ENDBLK
  5
8563
330
8561
100
AcDbEntity
  8
0
100
AcDbBlockEnd
  0
BLOCK
  5
8570
330
856F
100
AcDbEntity
  8
0
100
AcDbBlockBegin
  2
*D36
 70
     1
 10
0.0
 20
0.0
 30
0.0
  3
*D36
  1

  0
LINE
  5
8651
330
856F
100
AcDbEntity
  8
002寸法
440
 16777216
100
AcDbLine
 10
123.5942484299249
 20
125.1192926136142
 30
0.0
 11
125.9229718696762
 21
125.1192926136142
 31
0.0
  0
LINE
  5
8652
330
856F
100
AcDbEntity
  8
002寸法
440
 16777216
100
AcDbLine
 10
109.5729815052201
 20
123.6192926136142
 30
0.0
 11
125.9229718696762
 21
123.6192926136142
 31
0.0
  0
LINE
  5
8653
330
856F
100
AcDbEntity
  8
002寸法
440
 16777216
100
AcDbLine
 10
124.4229718696762
 20
126.6192926136142
 30
0.0
 11
124.4229718696762
 21
128.1192926136142
 31
0.0
  0
LINE
  5
8654
330
856F
100
AcDbEntity
  8
002寸法
440
 16777216
100
AcDbLine
 10
124.4229718696762
 20
122.1192926136142
 30
0.0
 11
124.4229718696762
 21
114.1192926136142
 31
0.0
  0
LINE
  5
8655
330
856F
100
AcDbEntity
  8
002寸法
440
 16777216
100
AcDbLine
 10
124.4229718696762
 20
125.1192926136142
 30
0.0
 11
124.4229718696762
 21
123.6192926136142
 31
0.0
  0
INSERT
  5
8656
330
856F
100
AcDbEntity
  8
002寸法
440
 16777216
100
AcDbBlockReference
  2
_OPEN
 10
124.4229718696762
 20
125.1192926136142
 30
0.0
 41
1.5
 42
1.5
 43
1.5
 50
270.0
  0
INSERT
  5
8657
330
856F
100
AcDbEntity
  8
002寸法
440
 16777216
100
AcDbBlockReference
  2
_OPEN
 10
124.4229718696762
 20
123.6192926136142
 30
0.0
 41
1.5
 42
1.5
 43
1.5
 50
90.0
  0
MTEXT
  5
8658
330
856F
100
AcDbEntity
  8
002寸法
 62
     2
440
 16777216
100
AcDbMText
 10
122.6491623458666
 20
117.3692926136142
 30
0.0
 40
2.0
 41
0.0
 71
     5
 72
     1
  1
\A1;(1.5)
 11
0.0000000000000001
 21
1.0
 31
0.0
 73
     1
 44
1.0
  0
POINT
  5
8659
330
856F
100
AcDbEntity
  8
DEFPOINTS
 62
     0
440
 16777216
100
AcDbPoint
 10
122.5942484299249
 20
125.1192926136142
 30
0.0
  0
POINT
  5
865A
330
856F
100
AcDbEntity
  8
DEFPOINTS
 62
     0
440
 16777216
100
AcDbPoint
 10
108.5729815052201
 20
123.6192926136142
 30
0.0
  0
POINT
  5
865B
330
856F
100
AcDbEntity
  8
DEFPOINTS
 62
     0
440
 16777216
100
AcDbPoint
 10
124.4229718696762
 20
123.6192926136142
 30
0.0
  0
ENDBLK
  5
8571
330
856F
100
AcDbEntity
  8
0
100
AcDbBlockEnd
  0
BLOCK
  5
87B7
330
87B6
100
AcDbEntity
  8
0
100
AcDbBlockBegin
  2
*D45
 70
     1
 10
0.0
 20
0.0
 30
0.0
  3
*D45
  1

  0
LINE
  5
87B9
330
87B6
100
AcDbEntity
  8
002寸法
440
 16777216
100
AcDbLine
 10
194.2850422516906
 20
123.3976235258469
 30
0.0
 11
194.2850422516906
 21
114.2212807676088
 31
0.0
  0
LINE
  5
87BA
330
87B6
100
AcDbEntity
  8
002寸法
440
 16777216
100
AcDbLine
 10
214.2850422516906
 20
123.3976235258469
 30
0.0
 11
214.2850422516906
 21
114.2212807676088
 31
0.0
  0
LINE
  5
87BB
330
87B6
100
AcDbEntity
  8
002寸法
440
 16777216
100
AcDbLine
 10
195.7850422516905
 20
114.9712807676088
 30
0.0
 11
212.7850422516906
 21
114.9712807676088
 31
0.0
  0
INSERT
  5
87BC
330
87B6
100
AcDbEntity
  8
002寸法
440
 16777216
100
AcDbBlockReference
  2
_OPEN
 10
194.2850422516906
 20
114.9712807676088
 30
0.0
 41
1.5
 42
1.5
 43
1.5
 50
180.0
  0
INSERT
  5
87BD
330
87B6
100
AcDbEntity
  8
002寸法
440
 16777216
100
AcDbBlockReference
  2
_OPEN
 10
214.2850422516906
 20
114.9712807676088
 30
0.0
 41
1.5
 42
1.5
 43
1.5
  0
MTEXT
  5
87BE
330
87B6
100
AcDbEntity
  8
002寸法
 62
     2
440
 16777216
100
AcDbMText
 10
204.2850422516906
 20
116.4712807676088
 30
0.0
 40
2.0
 41
0.0
 71
     5
 72
     1
  1
\A1;\U+03C620
 73
     1
 44
1.0
  0
POINT
  5
87BF
330
87B6
100
AcDbEntity
  8
DEFPOINTS
 62
     0
440
 16777216
100
AcDbPoint
 10
194.2850422516906
 20
123.8976235258469
 30
-0.15
  0
POINT
  5
87C0
330
87B6
100
AcDbEntity
  8
DEFPOINTS
 62
     0
440
 16777216
100
AcDbPoint
 10
214.2850422516906
 20
123.8976235258469
 30
-0.15
  0
POINT
  5
87C1
330
87B6
100
AcDbEntity
  8
DEFPOINTS
 62
     0
440
 16777216
100
AcDbPoint
 10
214.2850422516906
 20
114.9712807676088
 30
0.0
  0
ENDBLK
  5
87B8
330
87B6
100
AcDbEntity
  8
0
100
AcDbBlockEnd
  0
BLOCK
  5
87C3
330
87C2
100
AcDbEntity
  8
0
100
AcDbBlockBegin
  2
*D46
 70
     1
 10
0.0
 20
0.0
 30
0.0
  3
*D46
  1

  0
LINE
  5
87C5
330
87C2
100
AcDbEntity
  8
002寸法
440
 16777216
100
AcDbLine
 10
194.2850422516906
 20
123.3976235258469
 30
0.0
 11
194.2850422516906
 21
108.3077610177839
 31
0.0
  0
LINE
  5
87C6
330
87C2
100
AcDbEntity
  8
002寸法
440
 16777216
100
AcDbLine
 10
219.2850422516906
 20
124.2976235258469
 30
0.0
 11
219.2850422516906
 21
108.3077610177839
 31
0.0
  0
LINE
  5
87C7
330
87C2
100
AcDbEntity
  8
002寸法
440
 16777216
100
AcDbLine
 10
195.7850422516905
 20
109.0577610177839
 30
0.0
 11
217.7850422516906
 21
109.0577610177839
 31
0.0
  0
INSERT
  5
87C8
330
87C2
100
AcDbEntity
  8
002寸法
440
 16777216
100
AcDbBlockReference
  2
_OPEN
 10
194.2850422516906
 20
109.0577610177839
 30
0.0
 41
1.5
 42
1.5
 43
1.5
 50
180.0
  0
INSERT
  5
87C9
330
87C2
100
AcDbEntity
  8
002寸法
440
 16777216
100
AcDbBlockReference
  2
_OPEN
 10
219.2850422516906
 20
109.0577610177839
 30
0.0
 41
1.5
 42
1.5
 43
1.5
  0
MTEXT
  5
87CA
330
87C2
100
AcDbEntity
  8
002寸法
 62
     2
440
 16777216
100
AcDbMText
 10
206.5964983762005
 20
110.8315705415934
 30
0.0
 40
2.0
 41
0.0
 71
     5
 72
     1
  1
\A1;(25)
 73
     1
 44
1.0
  0
POINT
  5
87CB
330
87C2
100
AcDbEntity
  8
DEFPOINTS
 62
     0
440
 16777216
100
AcDbPoint
 10
194.2850422516906
 20
123.8976235258469
 30
-0.15
  0
POINT
  5
87CC
330
87C2
100
AcDbEntity
  8
DEFPOINTS
 62
     0
440
 16777216
100
AcDbPoint
 10
219.2850422516906
 20
124.7976235258469
 30
-0.15
  0
POINT
  5
87CD
330
87C2
100
AcDbEntity
  8
DEFPOINTS
 62
     0
440
 16777216
100
AcDbPoint
 10
219.2850422516906
 20
109.0577610177839
 30
0.0
  0
ENDBLK
  5
87C4
330
87C2
100
AcDbEntity
  8
0
100
AcDbBlockEnd
  0
BLOCK
  5
87CF
330
87CE
100
AcDbEntity
  8
0
100
AcDbBlockBegin
  2
*D47
 70
     1
 10
0.0
 20
0.0
 30
0.0
  3
*D47
  1

  0
LINE
  5
87D1
330
87CE
100
AcDbEntity
  8
002寸法
440
 16777216
100
AcDbLine
 10
193.7850422516906
 20
130.2976235258469
 30
0.0
 11
187.8718369900066
 21
130.2976235258469
 31
0.0
  0
LINE
  5
87D2
330
87CE
100
AcDbEntity
  8
002寸法
440
 16777216
100
AcDbLine
 10
203.7850422516906
 20
132.2976235258469
 30
0.0
 11
187.8718369900066
 21
132.2976235258469
 31
0.0
  0
LINE
  5
87D3
330
87CE
100
AcDbEntity
  8
002寸法
440
 16777216
100
AcDbLine
 10
188.6218369900066
 20
128.797623525847
 30
0.0
 11
188.6218369900066
 21
127.2976235258469
 31
0.0
  0
LINE
  5
87D4
330
87CE
100
AcDbEntity
  8
002寸法
440
 16777216
100
AcDbLine
 10
188.6218369900066
 20
133.7976235258469
 30
0.0
 11
188.6218369900066
 21
135.2976235258469
 31
0.0
  0
LINE
  5
87D5
330
87CE
100
AcDbEntity
  8
002寸法
440
 16777216
100
AcDbLine
 10
188.6218369900066
 20
130.2976235258469
 30
0.0
 11
188.6218369900066
 21
132.2976235258469
 31
0.0
  0
INSERT
  5
87D6
330
87CE
100
AcDbEntity
  8
002寸法
440
 16777216
100
AcDbBlockReference
  2
_OPEN
 10
188.6218369900066
 20
130.2976235258469
 30
0.0
 41
1.5
 42
1.5
 43
1.5
 50
90.0
  0
INSERT
  5
87D7
330
87CE
100
AcDbEntity
  8
002寸法
440
 16777216
100
AcDbBlockReference
  2
_OPEN
 10
188.6218369900066
 20
132.2976235258469
 30
0.0
 41
1.5
 42
1.5
 43
1.5
 50
270.0
  0
MTEXT
  5
87D8
330
87CE
100
AcDbEntity
  8
002寸法
 62
     2
440
 16777216
100
AcDbMText
 10
187.1218369900066
 20
131.297623525847
 30
0.0
 40
2.0
 41
0.0
 71
     5
 72
     1
  1
\A1;2
 11
0.0000000000000001
 21
1.0
 31
0.0
 73
     1
 44
1.0
  0
POINT
  5
87D9
330
87CE
100
AcDbEntity
  8
DEFPOINTS
 62
     0
440
 16777216
100
AcDbPoint
 10
194.2850422516906
 20
130.2976235258469
 30
-0.15
  0
POINT
  5
87DA
330
87CE
100
AcDbEntity
  8
DEFPOINTS
 62
     0
440
 16777216
100
AcDbPoint
 10
204.2850422516906
 20
132.2976235258469
 30
-0.15
  0
POINT
  5
87DB
330
87CE
100
AcDbEntity
  8
DEFPOINTS
 62
     0
440
 16777216
100
AcDbPoint
 10
188.6218369900066
 20
132.2976235258469
 30
0.0
  0
ENDBLK
  5
87D0
330
87CE
100
AcDbEntity
  8
0
100
AcDbBlockEnd
  0
BLOCK
  5
87DD
330
87DC
100
AcDbEntity
  8
0
100
AcDbBlockBegin
  2
*D48
 70
     1
 10
0.0
 20
0.0
 30
0.0
  3
*D48
  1

  0
LINE
  5
87DF
330
87DC
100
AcDbEntity
  8
002寸法
440
 16777216
100
AcDbLine
 10
203.7850422516906
 20
132.2976235258469
 30
0.0
 11
182.1863734313681
 21
132.2976235258469
 31
0.0
  0
LINE
  5
87E0
330
87DC
100
AcDbEntity
  8
002寸法
440
 16777216
100
AcDbLine
 10
194.0350422516906
 20
122.7976235258469
 30
0.0
 11
182.1863734313681
 21
122.7976235258469
 31
0.0
  0
LINE
  5
87E1
330
87DC
100
AcDbEntity
  8
002寸法
440
 16777216
100
AcDbLine
 10
182.9363734313681
 20
130.797623525847
 30
0.0
 11
182.9363734313681
 21
124.2976235258469
 31
0.0
  0
INSERT
  5
87E2
330
87DC
100
AcDbEntity
  8
002寸法
440
 16777216
100
AcDbBlockReference
  2
_OPEN
 10
182.9363734313681
 20
132.2976235258469
 30
0.0
 41
1.5
 42
1.5
 43
1.5
 50
90.0
  0
INSERT
  5
87E3
330
87DC
100
AcDbEntity
  8
002寸法
440
 16777216
100
AcDbBlockReference
  2
_OPEN
 10
182.9363734313681
 20
122.7976235258469
 30
0.0
 41
1.5
 42
1.5
 43
1.5
 50
270.0
  0
MTEXT
  5
87E4
330
87DC
100
AcDbEntity
  8
002寸法
 62
     2
440
 16777216
100
AcDbMText
 10
181.4363734313681
 20
127.547623525847
 30
0.0
 40
2.0
 41
0.0
 71
     5
 72
     1
  1
\A1;9.5
 11
0.0000000000000001
 21
1.0
 31
0.0
 73
     1
 44
1.0
  0
POINT
  5
87E5
330
87DC
100
AcDbEntity
  8
DEFPOINTS
 62
     0
440
 16777216
100
AcDbPoint
 10
204.2850422516906
 20
132.2976235258469
 30
-0.15
  0
POINT
  5
87E6
330
87DC
100
AcDbEntity
  8
DEFPOINTS
 62
     0
440
 16777216
100
AcDbPoint
 10
194.5350422516906
 20
122.7976235258469
 30
-0.1
  0
POINT
  5
87E7
330
87DC
100
AcDbEntity
  8
DEFPOINTS
 62
     0
440
 16777216
100
AcDbPoint
 10
182.9363734313681
 20
122.7976235258469
 30
0.0
  0
ENDBLK
  5
87DE
330
87DC
100
AcDbEntity
  8
0
100
AcDbBlockEnd
  0
BLOCK
  5
87E9
330
87E8
100
AcDbEntity
  8
0
100
AcDbBlockBegin
  2
*D49
 70
     1
 10
0.0
 20
0.0
 30
0.0
  3
*D49
  1

  0
LINE
  5
87EB
330
87E8
100
AcDbEntity
  8
002寸法
440
 16777216
100
AcDbLine
 10
203.0350422516906
 20
132.5972945638469
 30
0.0
 11
203.0350422516906
 21
135.8503331284249
 31
0.0
  0
LINE
  5
87EC
330
87E8
100
AcDbEntity
  8
002寸法
440
 16777216
100
AcDbLine
 10
205.5350422516906
 20
132.5972945638469
 30
0.0
 11
205.5350422516906
 21
135.8503331284249
 31
0.0
  0
LINE
  5
87ED
330
87E8
100
AcDbEntity
  8
002寸法
440
 16777216
100
AcDbLine
 10
207.0350422516906
 20
135.1003331284249
 30
0.0
 11
208.5350422516906
 21
135.1003331284249
 31
0.0
  0
LINE
  5
87EE
330
87E8
100
AcDbEntity
  8
002寸法
440
 16777216
100
AcDbLine
 10
201.5350422516906
 20
135.1003331284249
 30
0.0
 11
192.7064708231191
 21
135.1003331284249
 31
0.0
  0
LINE
  5
87EF
330
87E8
100
AcDbEntity
  8
002寸法
440
 16777216
100
AcDbLine
 10
205.5350422516906
 20
135.1003331284249
 30
0.0
 11
203.0350422516906
 21
135.1003331284249
 31
0.0
  0
INSERT
  5
87F0
330
87E8
100
AcDbEntity
  8
002寸法
440
 16777216
100
AcDbBlockReference
  2
_OPEN
 10
205.5350422516906
 20
135.1003331284249
 30
0.0
 41
1.5
 42
1.5
 43
1.5
 50
180.0
  0
INSERT
  5
87F1
330
87E8
100
AcDbEntity
  8
002寸法
440
 16777216
100
AcDbBlockReference
  2
_OPEN
 10
203.0350422516906
 20
135.1003331284249
 30
0.0
 41
1.5
 42
1.5
 43
1.5
  0
MTEXT
  5
87F2
330
87E8
100
AcDbEntity
  8
002寸法
 62
     2
440
 16777216
100
AcDbMText
 10
196.1207565374049
 20
136.6003331284249
 30
0.0
 40
2.0
 41
0.0
 71
     5
 72
     1
  1
\A1;\U+03C62.5
 73
     1
 44
1.0
  0
POINT
  5
87F3
330
87E8
100
AcDbEntity
  8
DEFPOINTS
 62
     0
440
 16777216
100
AcDbPoint
 10
203.0350422516906
 20
132.0972945638469
 30
-0.15
  0
POINT
  5
87F4
330
87E8
100
AcDbEntity
  8
DEFPOINTS
 62
     0
440
 16777216
100
AcDbPoint
 10
205.5350422516906
 20
132.0972945638469
 30
-0.15
  0
POINT
  5
87F5
330
87E8
100
AcDbEntity
  8
DEFPOINTS
 62
     0
440
 16777216
100
AcDbPoint
 10
205.5350422516906
 20
135.1003331284249
 30
0.0
  0
ENDBLK
  5
87EA
330
87E8
100
AcDbEntity
  8
0
100
AcDbBlockEnd
  0
BLOCK
  5
87F7
330
87F6
100
AcDbEntity
  8
0
100
AcDbBlockBegin
  2
*D50
 70
     1
 10
0.0
 20
0.0
 30
0.0
  3
*D50
  1

  0
LINE
  5
8824
330
87F6
100
AcDbEntity
  8
002寸法
440
 16777216
100
AcDbLine
 10
206.5753683090877
 20
145.2101231172231
 30
0.0
 11
205.0231265829668
 21
133.7478741182438
 31
0.0
  0
MTEXT
  5
8825
330
87F6
100
AcDbEntity
  8
002寸法
 62
     2
440
 16777216
100
AcDbMText
 10
204.1371886888815
 20
142.1092715987508
 30
0.0
 40
2.0
 41
0.0
 71
     5
 72
     1
  1
\A1;SR4
 11
0.1341971511411368
 21
0.9909546531631015
 31
0.0
 73
     1
 44
1.0
  0
LINE
  5
8826
330
87F6
100
AcDbEntity
  8
002寸法
440
 16777216
100
AcDbLine
 10
204.2850422516906
 20
128.2976235258469
 30
0.0
 11
204.8218308562551
 21
132.2614421384991
 31
0.0
  0
INSERT
  5
8827
330
87F6
100
AcDbEntity
  8
002寸法
440
 16777216
100
AcDbBlockReference
  2
_OPEN
 10
204.8218308562551
 20
132.2614421384991
 30
0.0
 41
1.5
 42
1.5
 43
1.5
 50
262.2878023970553
  0
POINT
  5
8828
330
87F6
100
AcDbEntity
  8
DEFPOINTS
 62
     0
440
 16777216
100
AcDbPoint
 10
204.8218308562551
 20
132.2614421384991
 30
-0.15
  0
POINT
  5
8829
330
87F6
100
AcDbEntity
  8
DEFPOINTS
 62
     0
440
 16777216
100
AcDbPoint
 10
204.2850422516906
 20
128.2976235258469
 30
-0.15
  0
ENDBLK
  5
87F8
330
87F6
100
AcDbEntity
  8
0
100
AcDbBlockEnd
  0
BLOCK
  5
8800
330
87FF
100
AcDbEntity
  8
0
100
AcDbBlockBegin
  2
*D51
 70
     1
 10
0.0
 20
0.0
 30
0.0
  3
*D51
  1

  0
LINE
  5
8802
330
87FF
100
AcDbEntity
  8
002寸法
440
 16777216
100
AcDbLine
 10
218.7850422516906
 20
127.7976235258469
 30
0.0
 11
217.5759369194266
 21
127.7976235258469
 31
0.0
  0
LINE
  5
8803
330
87FF
100
AcDbEntity
  8
002寸法
440
 16777216
100
AcDbLine
 10
218.7850422516906
 20
124.7976235258469
 30
0.0
 11
217.5759369194266
 21
124.7976235258469
 31
0.0
  0
LINE
  5
8804
330
87FF
100
AcDbEntity
  8
002寸法
440
 16777216
100
AcDbLine
 10
218.3259369194266
 20
123.2976235258469
 30
0.0
 11
218.3259369194266
 21
121.7976235258469
 31
0.0
  0
LINE
  5
8805
330
87FF
100
AcDbEntity
  8
002寸法
440
 16777216
100
AcDbLine
 10
218.3259369194266
 20
129.2976235258469
 30
0.0
 11
218.3259369194266
 21
137.1361949544184
 31
0.0
  0
LINE
  5
8806
330
87FF
100
AcDbEntity
  8
002寸法
440
 16777216
100
AcDbLine
 10
218.3259369194266
 20
124.7976235258469
 30
0.0
 11
218.3259369194266
 21
127.7976235258469
 31
0.0
  0
INSERT
  5
8807
330
87FF
100
AcDbEntity
  8
002寸法
440
 16777216
100
AcDbBlockReference
  2
_OPEN
 10
218.3259369194266
 20
124.7976235258469
 30
0.0
 41
1.5
 42
1.5
 43
1.5
 50
90.0
  0
INSERT
  5
8808
330
87FF
100
AcDbEntity
  8
002寸法
440
 16777216
100
AcDbBlockReference
  2
_OPEN
 10
218.3259369194266
 20
127.7976235258469
 30
0.0
 41
1.5
 42
1.5
 43
1.5
 50
270.0
  0
MTEXT
  5
8809
330
87FF
100
AcDbEntity
  8
002寸法
 62
     2
440
 16777216
100
AcDbMText
 10
216.5521273956171
 20
134.0919092401327
 30
0.0
 40
2.0
 41
0.0
 71
     5
 72
     1
  1
\A1;(\U+03C63)
 11
0.0000000000000001
 21
1.0
 31
0.0
 73
     1
 44
1.0
  0
POINT
  5
880A
330
87FF
100
AcDbEntity
  8
DEFPOINTS
 62
     0
440
 16777216
100
AcDbPoint
 10
219.2850422516906
 20
127.7976235258469
 30
-0.15
  0
POINT
  5
880B
330
87FF
100
AcDbEntity
  8
DEFPOINTS
 62
     0
440
 16777216
100
AcDbPoint
 10
219.2850422516906
 20
124.7976235258469
 30
-0.15
  0
POINT
  5
880C
330
87FF
100
AcDbEntity
  8
DEFPOINTS
 62
     0
440
 16777216
100
AcDbPoint
 10
218.3259369194266
 20
124.7976235258469
 30
0.0
  0
ENDBLK
  5
8801
330
87FF
100
AcDbEntity
  8
0
100
AcDbBlockEnd
  0
BLOCK
  5
880E
330
880D
100
AcDbEntity
  8
0
100
AcDbBlockBegin
  2
*D52
 70
     1
 10
0.0
 20
0.0
 30
0.0
  3
*D52
  1

  0
LINE
  5
881A
330
880D
100
AcDbEntity
  8
002寸法
440
 16777216
100
AcDbLine
 10
225.6593257498946
 20
126.2976235258469
 30
0.0
 11
231.2140613700574
 21
126.2976235258469
 31
0.0
  0
LINE
  5
881B
330
880D
100
AcDbEntity
  8
002寸法
440
 16777216
100
AcDbLine
 10
215.0350422516906
 20
122.7976235258469
 30
0.0
 11
231.2140613700574
 21
122.7976235258469
 31
0.0
  0
LINE
  5
881C
330
880D
100
AcDbEntity
  8
002寸法
440
 16777216
100
AcDbLine
 10
229.7140613700574
 20
124.7976235258469
 30
0.0
 11
229.7140613700574
 21
124.2976235258469
 31
0.0
  0
LINE
  5
881D
330
880D
100
AcDbEntity
  8
002寸法
440
 16777216
100
AcDbLine
 10
229.7140613700574
 20
122.7976235258469
 30
0.0
 11
229.7140613700574
 21
114.7976235258469
 31
0.0
  0
INSERT
  5
881E
330
880D
100
AcDbEntity
  8
002寸法
440
 16777216
100
AcDbBlockReference
  2
_OPEN
 10
229.7140613700574
 20
126.2976235258469
 30
0.0
 41
1.5
 42
1.5
 43
1.5
 50
90.0
  0
INSERT
  5
881F
330
880D
100
AcDbEntity
  8
002寸法
440
 16777216
100
AcDbBlockReference
  2
_OPEN
 10
229.7140613700574
 20
122.7976235258469
 30
0.0
 41
1.5
 42
1.5
 43
1.5
 50
270.0
  0
MTEXT
  5
8820
330
880D
100
AcDbEntity
  8
002寸法
 62
     2
440
 16777216
100
AcDbMText
 10
227.9402518462478
 20
118.0476235258469
 30
0.0
 40
2.0
 41
0.0
 71
     5
 72
     1
  1
\A1;(3.4)
 11
0.0000000000000001
 21
1.0
 31
0.0
 73
     1
 44
1.0
  0
POINT
  5
8821
330
880D
100
AcDbEntity
  8
DEFPOINTS
 62
     0
440
 16777216
100
AcDbPoint
 10
224.6593257498946
 20
126.2976235258469
 30
-0.15
  0
POINT
  5
8822
330
880D
100
AcDbEntity
  8
DEFPOINTS
 62
     0
440
 16777216
100
AcDbPoint
 10
214.0350422516906
 20
122.7976235258469
 30
-0.15
  0
POINT
  5
8823
330
880D
100
AcDbEntity
  8
DEFPOINTS
 62
     0
440
 16777216
100
AcDbPoint
 10
229.7140613700574
 20
122.7976235258469
 30
0.0
  0
ENDBLK
  5
880F
330
880D
100
AcDbEntity
  8
0
100
AcDbBlockEnd
  0
ENDSEC
  0
SECTION
  2
ENTITIES
  0
LWPOLYLINE
  5
846D
330
1F
100
AcDbEntity
  8
DEFPOINTS
100
AcDbPolyline
 90
        4
 70
     1
 43
0.0
 10
50.0
 20
50.0
 10
155.0
 20
50.0
 10
155.0
 20
198.5
 10
50.0
 20
198.5
  0
LWPOLYLINE
  5
846E
330
1F
100
AcDbEntity
  8
DEFPOINTS
100
AcDbPolyline
 90
        4
 70
     1
 43
0.0
 10
62.25
 20
55.0
 10
149.25
 20
55.0
 10
149.25
 20
193.5
 10
62.25
 20
193.5
  0
MTEXT
  5
84AE
330
1F
100
AcDbEntity
  8
外形線
 62
     2
100
AcDbMText
 10
127.1249377490067
 20
87.79324695860635
 30
0.0
 40
2.0
 41
21.02424856319385
 71
     1
 72
     5
  1
10,20,50N
 73
     1
 44
1.0
  0
MTEXT
  5
84B2
330
1F
100
AcDbEntity
  8
002寸法
100
AcDbMText
 10
66.20831567400796
 20
100.5361535346775
 30
0.0
 40
2.0
 41
33.07247058294115
 71
     1
 72
     5
  1
{\C2;ケーブル結線}
 73
     1
 44
1.0
  0
LINE
  5
84B3
330
1F
100
AcDbEntity
  8
002寸法
100
AcDbLine
 10
75.86883114253907
 20
94.79442705711567
 30
0.0
 11
69.92913418057219
 21
88.85473009514868
 31
0.0
  0
LINE
  5
84B4
330
1F
100
AcDbEntity
  8
002寸法
100
AcDbLine
 10
69.92913418057219
 20
88.85473009514868
 30
0.0
 11
75.86883114253907
 21
82.91503313318171
 31
0.0
  0
LINE
  5
84B5
330
1F
100
AcDbEntity
  8
002寸法
100
AcDbLine
 10
75.86883114253907
 20
82.91503313318171
 30
0.0
 11
81.8085281045062
 21
88.85473009514868
 31
0.0
  0
LINE
  5
84B6
330
1F
100
AcDbEntity
  8
002寸法
100
AcDbLine
 10
81.8085281045062
 20
88.85473009514868
 30
0.0
 11
75.86883114253907
 21
94.79442705711567
 31
0.0
  0
LINE
  5
84B7
330
1F
100
AcDbEntity
  8
002寸法
100
AcDbLine
 10
75.86883114253907
 20
94.79442705711567
 30
0.0
 11
90.56883114253912
 21
94.79442705711567
 31
0.0
  0
LINE
  5
84B8
330
1F
100
AcDbEntity
  8
002寸法
100
AcDbLine
 10
75.86883114253907
 20
82.91503313318171
 30
0.0
 11
90.56883114253912
 21
82.91503313318171
 31
0.0
  0
LINE
  5
84B9
330
1F
100
AcDbEntity
  8
002寸法
100
AcDbLine
 10
81.8085281045062
 20
88.85473009514868
 30
0.0
 11
90.62852810450612
 21
88.85473009514868
 31
0.0
  0
LINE
  5
84BA
330
1F
100
AcDbEntity
  8
002寸法
100
AcDbLine
 10
69.92913418057219
 20
88.85473009514868
 30
0.0
 11
69.92913418057219
 21
77.01073009514868
 31
0.0
  0
LINE
  5
84BB
330
1F
100
AcDbEntity
  8
002寸法
100
AcDbLine
 10
69.92913418057219
 20
77.01073009514868
 30
0.0
 11
90.36743424503312
 21
77.01073009514868
 31
0.0
  0
MTEXT
  5
84BC
330
1F
100
AcDbEntity
  8
002寸法
100
AcDbMText
 10
92.32036278834289
 20
95.87732468929251
 30
0.0
 40
1.799999999999999
 41
33.07247058294115
 71
     1
 72
     5
  1
{\C2;赤：入力(+)}
 73
     1
 44
1.0
  0
MTEXT
  5
84BD
330
1F
100
AcDbEntity
  8
002寸法
100
AcDbMText
 10
92.39911409796581
 20
89.77753074484814
 30
0.0
 40
1.799999999999999
 41
33.07247058294115
 71
     1
 72
     5
  1
{\C2;黒：出力(-)}
 73
     1
 44
1.0
  0
MTEXT
  5
84BE
330
1F
100
AcDbEntity
  8
002寸法
100
AcDbMText
 10
92.4112967304444
 20
83.91488994598352
 30
0.0
 40
1.799999999999999
 41
33.07247058294115
 71
     1
 72
     5
  1
{\C2;青：入力(-)}
 73
     1
 44
1.0
  0
MTEXT
  5
84BF
330
1F
100
AcDbEntity
  8
002寸法
100
AcDbMText
 10
92.60842757127306
 20
77.93766677678099
 30
0.0
 40
1.799999999999999
 41
33.07247058294115
 71
     1
 72
     5
  1
{\C2;白：出力(+)}
 73
     1
 44
1.0
  0
ARC
  5
84C0
330
1F
100
AcDbEntity
  8
002寸法
 48
3.0
100
AcDbCircle
 10
85.79767687811203
 20
94.79442705711567
 30
0.0
 40
1.259999999999999
100
AcDbArc
 50
0.0
 51
180.0
  0
ARC
  5
84C1
330
1F
100
AcDbEntity
  8
002寸法
 48
3.0
100
AcDbCircle
 10
85.79767687811203
 20
77.01073009514868
 30
0.0
 40
1.259999999999999
100
AcDbArc
 50
180.0
 51
0.0
  0
LINE
  5
84C2
330
1F
100
AcDbEntity
  8
002寸法
 48
3.0
100
AcDbLine
 10
84.53767687811206
 20
94.79442705711567
 30
0.0
 11
84.53767687811206
 21
77.01073009514868
 31
0.0
  0
LINE
  5
84C3
330
1F
100
AcDbEntity
  8
002寸法
 48
3.0
100
AcDbLine
 10
87.05767687811203
 20
94.79442705711567
 30
0.0
 11
87.05767687811203
 21
77.01073009514868
 31
0.0
  0
LINE
  5
84C4
330
1F
100
AcDbEntity
  8
002寸法
100
AcDbLine
 10
85.79767687811203
 20
75.7507300951487
 30
0.0
 11
85.79767687811203
 21
71.40435516382422
 31
0.0
  0
LINE
  5
84C5
330
1F
100
AcDbEntity
  8
002寸法
100
AcDbLine
 10
85.79767687811203
 20
71.40435516382422
 30
0.0
 11
90.385944366972
 21
71.40435516382422
 31
0.0
  0
MTEXT
  5
84C6
330
1F
100
AcDbEntity
  8
002寸法
100
AcDbMText
 10
92.72550762168089
 20
72.31504457525528
 30
0.0
 40
1.799999999999999
 41
33.07247058294115
 71
     1
 72
     5
  1
{\C2;シールド}
 73
     1
 44
1.0
  0
ARC
  5
84C7
330
1F
100
AcDbEntity
  8
外形線
100
AcDbCircle
 10
113.8229815052201
 20
167.6692926136142
 30
0.0
 40
0.2
100
AcDbArc
 50
270.0
 51
315.0000000000005
  0
LINE
  5
84C8
330
1F
100
AcDbEntity
  8
外形線
100
AcDbLine
 10
113.9644028612201
 20
167.5278712576142
 30
0.0
 11
113.9972455742201
 21
167.5607139696142
 31
0.0
  0
ARC
  5
84C9
330
1F
100
AcDbEntity
  8
外形線
100
AcDbCircle
 10
114.1386669302201
 20
167.4192926136142
 30
0.0
 40
0.2
100
AcDbArc
 50
90.0
 51
135.0000000000004
  0
ARC
  5
84CA
330
1F
100
AcDbEntity
  8
外形線
100
AcDbCircle
 10
113.8229815052201
 20
169.5692926136142
 30
0.0
 40
0.2
100
AcDbArc
 50
44.99999999999956
 51
90.0
  0
LINE
  5
84CB
330
1F
100
AcDbEntity
  8
外形線
100
AcDbLine
 10
113.9644028612201
 20
169.7107139696142
 30
0.0
 11
113.9972455742201
 21
169.6778712576142
 31
0.0
  0
ARC
  5
84CC
330
1F
100
AcDbEntity
  8
外形線
100
AcDbCircle
 10
114.1386669302201
 20
169.8192926136142
 30
0.0
 40
0.2
100
AcDbArc
 50
224.9999999999996
 51
270.0
  0
CIRCLE
  5
84CD
330
1F
100
AcDbEntity
  8
外形線
100
AcDbCircle
 10
102.8229815052201
 20
168.6192926136142
 30
0.0
 40
6.0
  0
CIRCLE
  5
84CE
330
1F
100
AcDbEntity
  8
外形線
100
AcDbCircle
 10
102.8229815052201
 20
168.6192926136142
 30
0.0
 40
0.9
  0
LINE
  5
84CF
330
1F
100
AcDbEntity
  8
001センタ
100
AcDbLine
 10
102.8229815052201
 20
177.1192926136142
 30
0.0
 11
102.8229815052201
 21
160.1192926136142
 31
0.0
  0
LINE
  5
84D0
330
1F
100
AcDbEntity
  8
外形線
100
AcDbLine
 10
128.8229815052201
 20
169.6192926136142
 30
0.0
 11
114.1386669302201
 21
169.6192926136142
 31
0.0
  0
LINE
  5
84D1
330
1F
100
AcDbEntity
  8
外形線
100
AcDbLine
 10
114.1386669302201
 20
167.6192926136142
 30
0.0
 11
128.8229815052201
 21
167.6192926136142
 31
0.0
  0
ARC
  5
84D2
330
1F
100
AcDbEntity
  8
外形線
100
AcDbCircle
 10
128.5563148382201
 20
169.1192926136142
 30
0.0
 40
0.566666667
100
AcDbArc
 50
298.0724869359987
 51
61.92751306400135
  0
ARC
  5
84D3
330
1F
100
AcDbEntity
  8
外形線
100
AcDbCircle
 10
129.0896481722201
 20
168.1192926136142
 30
0.0
 40
0.566666667
100
AcDbArc
 50
118.0724869359986
 51
241.9275130640013
  0
ARC
  5
84D4
330
1F
100
AcDbEntity
  8
外形線
100
AcDbCircle
 10
128.5563148382201
 20
168.1192926136142
 30
0.0
 40
0.566666667
100
AcDbArc
 50
298.0724869359987
 51
61.92751306400135
  0
LINE
  5
84D5
330
1F
100
AcDbEntity
  8
001センタ
100
AcDbLine
 10
94.32298150522013
 20
168.6192926136142
 30
0.0
 11
131.3229815052201
 21
168.6192926136142
 31
0.0
  0
LWPOLYLINE
  5
84D6
102
{ACAD_REACTORS
330
84F8
330
84FE
102
}
330
1F
100
AcDbEntity
  8
外形線
100
AcDbPolyline
 90
        4
 70
     1
 43
0.0
 10
108.8229815052201
 20
123.9192926136142
 10
96.82298150522013
 20
123.9192926136142
 10
96.82298150522013
 20
126.9192926136142
 10
108.8229815052201
 20
126.9192926136142
  0
LINE
  5
84D7
330
1F
100
AcDbEntity
  8
001センタ
100
AcDbLine
 10
102.8229815052201
 20
129.4192926136142
 30
0.0
 11
102.8229815052201
 21
121.4192926136142
 31
0.0
  0
LINE
  5
84D8
330
1F
100
AcDbEntity
  8
外形線
100
AcDbLine
 10
97.07298150522014
 20
123.9192926136142
 30
0.0
 11
97.07298150522014
 21
123.6192926136142
 31
0.0
  0
LINE
  5
84D9
330
1F
100
AcDbEntity
  8
外形線
100
AcDbLine
 10
108.5729815052201
 20
123.6192926136142
 30
0.0
 11
108.5729815052201
 21
123.9192926136142
 31
0.0
  0
LINE
  5
84DA
102
{ACAD_REACTORS
330
8501
330
8517
102
}
330
1F
100
AcDbEntity
  8
外形線
100
AcDbLine
 10
108.5729815052201
 20
123.6192926136142
 30
0.0
 11
97.07298150522014
 21
123.6192926136142
 31
0.0
  0
ARC
  5
84DB
102
{ACAD_REACTORS
330
84FE
330
8504
330
8507
102
}
330
1F
100
AcDbEntity
  8
外形線
100
AcDbCircle
 10
102.8229815052201
 20
125.6192926136142
 30
0.0
 40
2.0
100
AcDbArc
 50
63.25631604999887
 51
116.7436839500011
  0
LINE
  5
84DC
102
{ACAD_REACTORS
330
8504
102
}
330
1F
100
AcDbEntity
  8
外形線
100
AcDbLine
 10
103.7229815052201
 20
127.4053497236142
 30
0.0
 11
103.7229815052201
 21
126.9192926136142
 31
0.0
  0
LINE
  5
84DD
330
1F
100
AcDbEntity
  8
外形線
100
AcDbLine
 10
101.9229815052201
 20
126.9192926136142
 30
0.0
 11
101.9229815052201
 21
127.4053497236142
 31
0.0
  0
LINE
  5
84DE
102
{ACAD_REACTORS
330
8504
102
}
330
1F
100
AcDbEntity
  8
外形線
100
AcDbLine
 10
103.7229815052201
 20
127.4053497236142
 30
0.0
 11
101.9229815052201
 21
127.4053497236142
 31
0.0
  0
ARC
  5
84DF
102
{ACAD_REACTORS
330
850F
102
}
330
1F
100
AcDbEntity
  8
外形線
100
AcDbCircle
 10
113.8229815052201
 20
126.0692926136142
 30
0.0
 40
0.2
100
AcDbArc
 50
44.99999999999956
 51
90.0
  0
LINE
  5
84E0
330
1F
100
AcDbEntity
  8
外形線
100
AcDbLine
 10
113.9644028612201
 20
126.2107139696142
 30
0.0
 11
113.9972455742201
 21
126.1778712576142
 31
0.0
  0
ARC
  5
84E1
330
1F
100
AcDbEntity
  8
外形線
100
AcDbCircle
 10
114.1386669302201
 20
126.3192926136142
 30
0.0
 40
0.2
100
AcDbArc
 50
224.9999999999996
 51
270.0
  0
LINE
  5
84E2
330
1F
100
AcDbEntity
  8
外形線
100
AcDbLine
 10
113.8229815052201
 20
125.8692926136142
 30
0.0
 11
113.8229815052201
 21
125.1192926136142
 31
0.0
  0
LINE
  5
84E3
330
1F
100
AcDbEntity
  8
外形線
100
AcDbLine
 10
128.8229815052201
 20
126.1192926136142
 30
0.0
 11
114.1386669302201
 21
126.1192926136142
 31
0.0
  0
LINE
  5
84E4
330
1F
100
AcDbEntity
  8
001センタ
100
AcDbLine
 10
106.3229815052201
 20
125.1192926136142
 30
0.0
 11
131.3229815052201
 21
125.1192926136142
 31
0.0
  0
ARC
  5
84E5
330
1F
100
AcDbEntity
  8
外形線
100
AcDbCircle
 10
128.5563148382201
 20
125.6192926136142
 30
0.0
 40
0.566666667
100
AcDbArc
 50
298.0724869359987
 51
61.92751306400135
  0
ARC
  5
84E6
330
1F
100
AcDbEntity
  8
外形線
100
AcDbCircle
 10
129.0896481722201
 20
124.6192926136142
 30
0.0
 40
0.566666667
100
AcDbArc
 50
118.0724869359986
 51
241.9275130640013
  0
ARC
  5
84E7
330
1F
100
AcDbEntity
  8
外形線
100
AcDbCircle
 10
128.5563148382201
 20
124.6192926136142
 30
0.0
 40
0.566666667
100
AcDbArc
 50
298.0724869359987
 51
61.92751306400135
  0
ARC
  5
84E8
330
1F
100
AcDbEntity
  8
外形線
100
AcDbCircle
 10
113.8229815052201
 20
124.1692926136142
 30
0.05
 40
0.2
100
AcDbArc
 50
270.0
 51
315.0000000000005
  0
LINE
  5
84E9
330
1F
100
AcDbEntity
  8
外形線
100
AcDbLine
 10
113.9644028612201
 20
124.0278712576142
 30
0.05
 11
113.9972455742201
 21
124.0607139696142
 31
0.05
  0
ARC
  5
84EA
330
1F
100
AcDbEntity
  8
外形線
100
AcDbCircle
 10
114.1386669302201
 20
123.9192926136142
 30
0.0
 40
0.2
100
AcDbArc
 50
90.0
 51
135.0000000000004
  0
LINE
  5
84EB
330
1F
100
AcDbEntity
  8
外形線
100
AcDbLine
 10
128.8229815052201
 20
124.1192926136142
 30
0.0
 11
114.1386669302201
 21
124.1192926136142
 31
0.0
  0
LINE
  5
84EC
330
1F
100
AcDbEntity
  8
外形線
100
AcDbLine
 10
109.0729815052201
 20
126.2692926136142
 30
0.0
 11
109.0729815052201
 21
123.9692926136142
 31
0.0
  0
LINE
  5
84ED
330
1F
100
AcDbEntity
  8
外形線
100
AcDbLine
 10
109.0729815052201
 20
126.2692926136142
 30
0.0
 11
113.8229815052201
 21
126.2692926136142
 31
0.0
  0
LINE
  5
84EE
102
{ACAD_REACTORS
330
84FB
102
}
330
1F
100
AcDbEntity
  8
外形線
100
AcDbLine
 10
109.0729815052201
 20
123.9692926136142
 30
0.0
 11
113.8229815052201
 21
123.9692926136142
 31
0.0
  0
LINE
  5
84EF
330
1F
100
AcDbEntity
  8
外形線
100
AcDbLine
 10
108.8229815052201
 20
126.0192926136142
 30
0.0
 11
109.0729815052201
 21
126.0192926136142
 31
0.0
  0
LINE
  5
84F0
330
1F
100
AcDbEntity
  8
外形線
100
AcDbLine
 10
108.8229815052201
 20
124.2192926136142
 30
0.0
 11
109.0729815052201
 21
124.2192926136142
 31
0.0
  0
LINE
  5
84F1
330
1F
100
AcDbEntity
  8
外形線
100
AcDbLine
 10
109.0229815052201
 20
169.7692926136142
 30
0.0
 11
109.0229815052201
 21
167.4692926136142
 31
0.0
  0
LINE
  5
84F2
330
1F
100
AcDbEntity
  8
外形線
100
AcDbLine
 10
109.0229815052201
 20
169.7692926136142
 30
0.0
 11
113.8229815052201
 21
169.7692926136142
 31
0.0
  0
LINE
  5
84F3
330
1F
100
AcDbEntity
  8
外形線
100
AcDbLine
 10
113.8229815052201
 20
167.4692926136142
 30
0.0
 11
109.0229815052201
 21
167.4692926136142
 31
0.0
  0
LINE
  5
84F4
330
1F
100
AcDbEntity
  8
外形線
100
AcDbLine
 10
109.0229815052201
 20
169.5192926136142
 30
0.0
 11
108.7550974852201
 21
169.5192926136142
 31
0.0
  0
LINE
  5
84F5
330
1F
100
AcDbEntity
  8
外形線
100
AcDbLine
 10
109.0229815052201
 20
167.7192926136142
 30
0.0
 11
108.7550974852201
 21
167.7192926136142
 31
0.0
  0
DIMENSION
  5
84F6
102
{ACAD_XDICTIONARY
360
84F7
102
}
102
{ACAD_REACTORS
330
84F8
102
}
330
1F
100
AcDbEntity
  8
002寸法
100
AcDbDimension
  2
*D29
 10
108.8229815052201
 20
116.1382245872975
 30
0.0
 11
102.2978019937488
 21
116.1382245872975
 31
0.0
 70
   160
  1
\U+03C6<>
 71
     5
 42
12.0
  3
通常ｘ0.5
100
AcDbAlignedDimension
 13
96.82298150522013
 23
123.9192926136142
 33
0.0
 14
108.8229815052201
 24
123.9192926136142
 34
0.0
100
AcDbRotatedDimension
1001
ACAD
1000
DSTYLE
1002
{
1070
   147
1040
0.5
1070
    42
1040
0.5
1070
    44
1040
0.75
1070
   140
1040
2.0
1070
    41
1040
1.5
1002
}
  0
DIMENSION
  5
84F9
102
{ACAD_XDICTIONARY
360
84FA
102
}
102
{ACAD_REACTORS
330
84FB
102
}
330
1F
100
AcDbEntity
  8
002寸法
100
AcDbDimension
  2
*D30
 10
113.8229815052201
 20
110.502859436045
 30
0.0
 11
105.4725885388727
 21
110.502859436045
 31
0.0
 70
   160
  1
(<>)
 71
     5
 42
17.0
  3
通常ｘ0.5
100
AcDbAlignedDimension
 13
96.82298150522013
 23
123.9192926136142
 33
0.0
 14
113.8229815052201
 24
123.9692926136142
 34
0.0
100
AcDbRotatedDimension
1001
ACAD
1000
DSTYLE
1002
{
1070
   147
1040
0.25
1070
    42
1040
0.5
1070
    44
1040
0.75
1070
   140
1040
2.0
1070
    41
1040
1.5
1002
}
  0
DIMENSION
  5
84FC
102
{ACAD_XDICTIONARY
360
84FD
102
}
102
{ACAD_REACTORS
330
84FE
102
}
330
1F
100
AcDbEntity
  8
002寸法
100
AcDbDimension
  2
*D31
 10
88.93287047586886
 20
127.6192926136142
 30
0.0
 11
87.43287047586886
 21
133.0050068993285
 31
0.0
 70
    32
 71
     5
 42
0.6999999999999887
  3
通常ｘ0.5
100
AcDbAlignedDimension
 13
96.82298150522013
 23
126.9192926136142
 33
0.0
 14
102.8229815052201
 24
127.6192926136142
 34
0.0
 50
90.0
100
AcDbRotatedDimension
1001
ACAD
1000
DSTYLE
1002
{
1070
   147
1040
0.5
1070
    42
1040
0.5
1070
    44
1040
0.75
1070
   140
1040
2.0
1070
    41
1040
1.5
1002
}
  0
DIMENSION
  5
84FF
102
{ACAD_XDICTIONARY
360
8500
102
}
102
{ACAD_REACTORS
330
8501
102
}
330
1F
100
AcDbEntity
  8
002寸法
100
AcDbDimension
  2
*D32
 10
83.92672635155738
 20
123.6192926136142
 30
0.0
 11
83.92672635155737
 21
125.6192926136142
 31
0.0
 70
   160
 71
     5
 42
4.0
  3
通常ｘ0.5
100
AcDbAlignedDimension
 13
102.8229815052201
 23
127.6192926136142
 33
0.0
 14
97.07298150522014
 24
123.6192926136142
 34
0.0
 50
90.0
100
AcDbRotatedDimension
1001
ACAD
1000
DSTYLE
1002
{
1070
   147
1040
0.5
1070
    42
1040
0.5
1070
    44
1040
0.75
1070
   140
1040
2.0
1070
    41
1040
1.5
1002
}
  0
DIMENSION
  5
8502
102
{ACAD_XDICTIONARY
360
8503
102
}
102
{ACAD_REACTORS
330
8504
102
}
330
1F
100
AcDbEntity
  8
002寸法
100
AcDbDimension
  2
*D33
 10
103.7229815052201
 20
132.0147256706502
 30
0.0
 11
95.00869579103527
 21
132.0147256706502
 31
0.0
 70
   160
  1
\U+03C6<>
 71
     5
 42
1.799999999899114
  3
通常ｘ0.5
100
AcDbAlignedDimension
 13
101.922981505321
 23
127.4053497236142
 33
0.0
 14
103.7229815052201
 24
127.4053497235634
 34
0.0
100
AcDbRotatedDimension
1001
ACAD
1000
DSTYLE
1002
{
1070
   147
1040
0.5
1070
    42
1040
0.5
1070
    44
1040
0.75
1070
   140
1040
2.0
1070
    41
1040
1.5
1002
}
  0
DIMENSION
  5
8505
102
{ACAD_XDICTIONARY
360
8506
102
}
102
{ACAD_REACTORS
330
8507
102
}
330
1F
100
AcDbEntity
  8
002寸法
100
AcDbDimension
  2
*D34
 10
102.8229815052201
 20
125.6192926136142
 30
0.0
 11
105.9957766198136
 21
136.612279217945
 31
0.0
 70
   164
  1
S<>
 71
     5
 42
2.000000000000028
  3
通常ｘ0.5
100
AcDbRadialDimension
 15
103.3775837959715
 25
127.5408587194491
 35
0.0
 40
0.0
1001
ACAD
1000
DSTYLE
1002
{
1070
   140
1040
2.0
1070
    41
1040
1.5
1070
   288
1070
     1
1002
}
  0
LINE
  5
8508
330
1F
100
AcDbEntity
  8
002寸法
100
AcDbLine
 10
102.8229815052201
 20
144.4561266455633
 30
0.05
 11
103.2112100732202
 21
145.9050153845634
 31
0.05
  0
LINE
  5
8509
330
1F
100
AcDbEntity
  8
002寸法
100
AcDbLine
 10
102.8229815052201
 20
144.4561266455633
 30
0.0
 11
102.4347529372201
 21
145.9050153845634
 31
0.0
  0
LINE
  5
850A
330
1F
100
AcDbEntity
  8
002寸法
100
AcDbLine
 10
102.8229815052201
 20
144.4561266455633
 30
0.0
 11
102.8229815052201
 21
149.4561266455633
 31
0.0
  0
TEXT
  5
850B
330
1F
100
AcDbEntity
  8
外形線
 62
     2
100
AcDbText
 10
104.2056359080715
 20
147.2191022051145
 30
0.0
 40
2.0
  1
負荷方向
 41
0.9
100
AcDbText
  0
TEXT
  5
850C
330
1F
100
AcDbEntity
  8
外形線
 62
     2
100
AcDbText
 10
103.2056359080715
 20
144.7191022051145
 30
0.0
 40
2.0
  1
 （＋）
 41
0.9
100
AcDbText
  0
DIMENSION
  5
850D
102
{ACAD_XDICTIONARY
360
850E
102
}
102
{ACAD_REACTORS
330
850F
102
}
330
1F
100
AcDbEntity
  8
002寸法
100
AcDbDimension
  2
*D35
 10
113.0047670893266
 20
126.2692926136142
 30
0.0
 11
113.0047670893266
 21
134.3492926136143
 31
0.0
 70
   160
  1
(\U+03C6<>)
 71
     5
 42
2.299999999999982
  3
通常ｘ0.5
100
AcDbAlignedDimension
 13
113.8229815052201
 23
123.9692926136142
 33
0.0
 14
113.8229815052201
 24
126.2692926136142
 34
0.0
 50
90.0
100
AcDbRotatedDimension
1001
ACAD
1000
DSTYLE
1002
{
1070
   147
1040
0.25
1070
    42
1040
0.5
1070
    44
1040
0.75
1070
   140
1040
2.0
1070
    41
1040
1.5
1002
}
  0
LINE
  5
8510
330
1F
100
AcDbEntity
  8
外形線
100
AcDbLine
 10
114.1386669302201
 20
125.7692926136142
 30
0.0
 11
114.1386669302201
 21
124.4692926136142
 31
0.0
  0
LINE
  5
8511
330
1F
100
AcDbEntity
  8
外形線
100
AcDbLine
 10
113.8229815052201
 20
124.3692926136142
 30
0.0
 11
113.8229815052201
 21
125.1192926136142
 31
0.0
  0
LINE
  5
8512
330
1F
100
AcDbEntity
  8
外形線
100
AcDbLine
 10
113.7729815052201
 20
169.3692926136142
 30
0.0
 11
113.7729815052201
 21
168.6192926136142
 31
0.0
  0
LINE
  5
8513
330
1F
100
AcDbEntity
  8
外形線
100
AcDbLine
 10
114.0886669302201
 20
169.2692926136142
 30
0.0
 11
114.0886669302201
 21
167.9692926136142
 31
0.0
  0
LINE
  5
8514
330
1F
100
AcDbEntity
  8
外形線
100
AcDbLine
 10
113.7729815052201
 20
167.8692926136142
 30
0.0
 11
113.7729815052201
 21
168.6192926136142
 31
0.0
  0
DIMENSION
  5
8515
102
{ACAD_XDICTIONARY
360
8516
102
}
102
{ACAD_REACTORS
330
8517
102
}
330
1F
100
AcDbEntity
  8
002寸法
100
AcDbDimension
  2
*D36
 10
124.4229718696762
 20
123.6192926136142
 30
0.0
 11
122.6491623458666
 21
117.3692926136142
 31
0.0
 70
    32
  1
(<>)
 71
     5
 42
1.5
  3
通常ｘ0.5
100
AcDbAlignedDimension
 13
122.5942484299249
 23
125.1192926136142
 33
0.0
 14
108.5729815052201
 24
123.6192926136142
 34
0.0
 50
90.0
100
AcDbRotatedDimension
1001
ACAD
1000
DSTYLE
1002
{
1070
   147
1040
0.25
1070
   140
1040
2.0
1070
    41
1040
1.5
1002
}
  0
LINE
  5
857F
330
1F
100
AcDbEntity
  8
DEFPOINTS
 62
     0
100
AcDbLine
 10
107.25
 20
55.0
 30
0.0
 11
107.25
 21
77.0
 31
0.0
  0
LINE
  5
8580
330
1F
100
AcDbEntity
  8
DEFPOINTS
 62
     0
100
AcDbLine
 10
149.25
 20
60.5
 30
0.0
 11
107.25
 21
60.5
 31
0.0
  0
LINE
  5
8581
330
1F
100
AcDbEntity
  8
DEFPOINTS
 62
     0
100
AcDbLine
 10
149.25
 20
66.0
 30
0.0
 11
107.25
 21
66.0
 31
0.0
  0
LINE
  5
8582
330
1F
100
AcDbEntity
  8
DEFPOINTS
 62
     0
100
AcDbLine
 10
149.25
 20
77.0
 30
0.0
 11
107.25
 21
77.0
 31
0.0
  0
LINE
  5
8583
330
1F
100
AcDbEntity
  8
DEFPOINTS
 62
     0
100
AcDbLine
 10
149.25
 20
74.0
 30
0.0
 11
107.25
 21
74.0
 31
0.0
  0
LINE
  5
8586
330
1F
100
AcDbEntity
  8
DEFPOINTS
 62
     0
100
AcDbLine
 10
139.25
 20
77.0
 30
0.0
 11
139.25
 21
66.0
 31
0.0
  0
LINE
  5
8587
330
1F
100
AcDbEntity
  8
DEFPOINTS
 62
     0
100
AcDbLine
 10
129.25
 20
77.0
 30
0.0
 11
129.25
 21
66.0
 31
0.0
  0
LINE
  5
8588
330
1F
100
AcDbEntity
  8
DEFPOINTS
 62
     0
100
AcDbLine
 10
119.25
 20
77.0
 30
0.0
 11
119.25
 21
66.0
 31
0.0
  0
LINE
  5
8589
330
1F
100
AcDbEntity
  8
DEFPOINTS
 62
     0
100
AcDbLine
 10
119.25
 20
70.0
 30
0.0
 11
107.25
 21
70.0
 31
0.0
  0
MTEXT
  5
858E
330
1F
100
AcDbEntity
  8
002寸法
 62
     2
100
AcDbMText
 10
112.5689082247535
 20
57.71901272783712
 30
0.0
 40
1.8
 41
25.10589447007442
 71
     1
 72
     5
  1
S-0172-A3-1
 73
     1
 44
1.0
  0
MTEXT
  5
8590
330
1F
100
AcDbEntity
  8
002寸法
 62
     2
100
AcDbMText
 10
112.5689082247535
 20
63.21901272783714
 30
0.0
 40
1.8
 41
25.10589447007442
 71
     1
 72
     5
  1
9E01-L43A-  N
 73
     1
 44
1.0
  0
MTEXT
  5
8594
330
1F
100
AcDbEntity
  8
002寸法
 62
     2
100
AcDbMText
 10
112.154007185959
 20
73.6894298505552
 30
0.0
 40
1.8
 41
25.10589447007442
 71
     1
 72
     5
  1
1  1
 73
     1
 44
1.0
  0
LINE
  5
85A8
330
1F
100
AcDbEntity
  8
002寸法
 62
     2
100
AcDbLine
 10
128.749959370335
 20
63.10057248649563
 30
0.0
 11
128.7499593703351
 21
61.50057248649563
 31
0.0
  0
LINE
  5
85AA
330
1F
100
AcDbEntity
  8
002寸法
 62
     2
100
AcDbLine
 10
131.2499593703351
 20
61.50057248649563
 30
0.0
 11
131.249959370335
 21
63.10057248649563
 31
0.0
  0
LINE
  5
85AC
330
1F
100
AcDbEntity
  8
002寸法
 62
     2
100
AcDbLine
 10
128.7499593703351
 20
61.50057248649564
 30
0.0
 11
131.2499593703351
 21
61.50057248649564
 31
0.0
  0
LINE
  5
85AD
330
1F
100
AcDbEntity
  8
002寸法
 62
     2
100
AcDbLine
 10
131.2499593703351
 20
63.10057248649563
 30
0.0
 11
128.7499593703351
 21
63.10057248649563
 31
0.0
  0
LWPOLYLINE
  5
8741
330
1F
100
AcDbEntity
  8
DEFPOINTS
100
AcDbPolyline
 90
        4
 70
     1
 43
0.0
 10
155.0
 20
50.0
 10
260.0
 20
50.0
 10
260.0
 20
198.5
 10
155.0
 20
198.5
  0
LWPOLYLINE
  5
8742
330
1F
100
AcDbEntity
  8
DEFPOINTS
100
AcDbPolyline
 90
        4
 70
     1
 43
0.0
 10
167.25
 20
55.0
 10
254.25
 20
55.0
 10
254.25
 20
193.5
 10
167.25
 20
193.5
  0
MTEXT
  5
8743
330
1F
100
AcDbEntity
  8
002寸法
100
AcDbMText
 10
171.2083156740079
 20
100.5361535346775
 30
0.0
 40
2.0
 41
33.07247058294115
 71
     1
 72
     5
  1
{\C2;ケーブル結線}
 73
     1
 44
1.0
  0
LINE
  5
8744
330
1F
100
AcDbEntity
  8
002寸法
100
AcDbLine
 10
180.8688311425391
 20
94.79442705711567
 30
0.0
 11
174.9291341805722
 21
88.85473009514868
 31
0.0
  0
LINE
  5
8745
330
1F
100
AcDbEntity
  8
002寸法
100
AcDbLine
 10
174.9291341805722
 20
88.85473009514868
 30
0.0
 11
180.8688311425391
 21
82.91503313318171
 31
0.0
  0
LINE
  5
8746
330
1F
100
AcDbEntity
  8
002寸法
100
AcDbLine
 10
180.8688311425391
 20
82.91503313318171
 30
0.0
 11
186.8085281045062
 21
88.85473009514868
 31
0.0
  0
LINE
  5
8747
330
1F
100
AcDbEntity
  8
002寸法
100
AcDbLine
 10
186.8085281045062
 20
88.85473009514868
 30
0.0
 11
180.8688311425391
 21
94.79442705711567
 31
0.0
  0
LINE
  5
8748
330
1F
100
AcDbEntity
  8
002寸法
100
AcDbLine
 10
180.8688311425391
 20
94.79442705711567
 30
0.0
 11
195.5688311425391
 21
94.79442705711567
 31
0.0
  0
LINE
  5
8749
330
1F
100
AcDbEntity
  8
002寸法
100
AcDbLine
 10
180.8688311425391
 20
82.91503313318171
 30
0.0
 11
195.5688311425391
 21
82.91503313318171
 31
0.0
  0
LINE
  5
874A
330
1F
100
AcDbEntity
  8
002寸法
100
AcDbLine
 10
186.8085281045062
 20
88.85473009514868
 30
0.0
 11
195.6285281045061
 21
88.85473009514868
 31
0.0
  0
LINE
  5
874B
330
1F
100
AcDbEntity
  8
002寸法
100
AcDbLine
 10
174.9291341805722
 20
88.85473009514868
 30
0.0
 11
174.9291341805722
 21
77.01073009514868
 31
0.0
  0
LINE
  5
874C
330
1F
100
AcDbEntity
  8
002寸法
100
AcDbLine
 10
174.9291341805722
 20
77.01073009514868
 30
0.0
 11
195.3674342450331
 21
77.01073009514868
 31
0.0
  0
MTEXT
  5
874D
330
1F
100
AcDbEntity
  8
002寸法
100
AcDbMText
 10
197.3203627883428
 20
95.87732468929251
 30
0.0
 40
1.799999999999999
 41
33.07247058294115
 71
     1
 72
     5
  1
{\C2;赤：入力(+)}
 73
     1
 44
1.0
  0
MTEXT
  5
874E
330
1F
100
AcDbEntity
  8
002寸法
100
AcDbMText
 10
197.3991140979658
 20
89.77753074484814
 30
0.0
 40
1.799999999999999
 41
33.07247058294115
 71
     1
 72
     5
  1
{\C2;黒：出力(-)}
 73
     1
 44
1.0
  0
MTEXT
  5
874F
330
1F
100
AcDbEntity
  8
002寸法
100
AcDbMText
 10
197.4112967304444
 20
83.91488994598352
 30
0.0
 40
1.799999999999999
 41
33.07247058294115
 71
     1
 72
     5
  1
{\C2;青：入力(-)}
 73
     1
 44
1.0
  0
MTEXT
  5
8750
330
1F
100
AcDbEntity
  8
002寸法
100
AcDbMText
 10
197.6084275712731
 20
77.93766677678099
 30
0.0
 40
1.799999999999999
 41
33.07247058294115
 71
     1
 72
     5
  1
{\C2;白：出力(+)}
 73
     1
 44
1.0
  0
ARC
  5
8751
330
1F
100
AcDbEntity
  8
002寸法
 48
3.0
100
AcDbCircle
 10
190.797676878112
 20
94.79442705711567
 30
0.0
 40
1.259999999999999
100
AcDbArc
 50
0.0
 51
180.0
  0
ARC
  5
8752
330
1F
100
AcDbEntity
  8
002寸法
 48
3.0
100
AcDbCircle
 10
190.797676878112
 20
77.01073009514868
 30
0.0
 40
1.259999999999999
100
AcDbArc
 50
180.0
 51
0.0
  0
LINE
  5
8753
330
1F
100
AcDbEntity
  8
002寸法
 48
3.0
100
AcDbLine
 10
189.537676878112
 20
94.79442705711567
 30
0.0
 11
189.537676878112
 21
77.01073009514868
 31
0.0
  0
LINE
  5
8754
330
1F
100
AcDbEntity
  8
002寸法
 48
3.0
100
AcDbLine
 10
192.057676878112
 20
94.79442705711567
 30
0.0
 11
192.057676878112
 21
77.01073009514868
 31
0.0
  0
LINE
  5
8755
330
1F
100
AcDbEntity
  8
002寸法
100
AcDbLine
 10
190.797676878112
 20
75.7507300951487
 30
0.0
 11
190.797676878112
 21
71.40435516382422
 31
0.0
  0
LINE
  5
8756
330
1F
100
AcDbEntity
  8
002寸法
100
AcDbLine
 10
190.797676878112
 20
71.40435516382422
 30
0.0
 11
195.385944366972
 21
71.40435516382422
 31
0.0
  0
MTEXT
  5
8757
330
1F
100
AcDbEntity
  8
002寸法
100
AcDbMText
 10
197.7255076216809
 20
72.31504457525528
 30
0.0
 40
1.799999999999999
 41
33.07247058294115
 71
     1
 72
     5
  1
{\C2;シールド}
 73
     1
 44
1.0
  0
LINE
  5
8758
330
1F
100
AcDbEntity
  8
DEFPOINTS
 62
     0
100
AcDbLine
 10
254.25
 20
60.5
 30
0.0
 11
212.25
 21
60.5
 31
0.0
  0
LINE
  5
8759
330
1F
100
AcDbEntity
  8
DEFPOINTS
 62
     0
100
AcDbLine
 10
254.25
 20
66.0
 30
0.0
 11
212.25
 21
66.0
 31
0.0
  0
LINE
  5
875A
330
1F
100
AcDbEntity
  8
DEFPOINTS
 62
     0
100
AcDbLine
 10
254.25
 20
77.0
 30
0.0
 11
212.25
 21
77.0
 31
0.0
  0
LINE
  5
875B
330
1F
100
AcDbEntity
  8
DEFPOINTS
 62
     0
100
AcDbLine
 10
254.25
 20
74.0
 30
0.0
 11
212.25
 21
74.0
 31
0.0
  0
LINE
  5
875C
330
1F
100
AcDbEntity
  8
DEFPOINTS
 62
     0
100
AcDbLine
 10
224.25
 20
70.0
 30
0.0
 11
212.25
 21
70.0
 31
0.0
  0
LINE
  5
875D
330
1F
100
AcDbEntity
  8
DEFPOINTS
 62
     0
100
AcDbLine
 10
212.25
 20
55.0
 30
0.0
 11
212.25
 21
77.0
 31
0.0
  0
LINE
  5
875E
330
1F
100
AcDbEntity
  8
DEFPOINTS
 62
     0
100
AcDbLine
 10
244.25
 20
77.0
 30
0.0
 11
244.25
 21
66.0
 31
0.0
  0
LINE
  5
875F
330
1F
100
AcDbEntity
  8
DEFPOINTS
 62
     0
100
AcDbLine
 10
234.25
 20
77.0
 30
0.0
 11
234.25
 21
66.0
 31
0.0
  0
LINE
  5
8760
330
1F
100
AcDbEntity
  8
DEFPOINTS
 62
     0
100
AcDbLine
 10
224.25
 20
77.0
 30
0.0
 11
224.25
 21
66.0
 31
0.0
  0
MTEXT
  5
8761
330
1F
100
AcDbEntity
  8
002寸法
 62
     2
100
AcDbMText
 10
217.5689082247535
 20
57.71901272783714
 30
0.0
 40
1.8
 41
25.10589447007442
 71
     1
 72
     5
  1
S-0172-A4-1
 73
     1
 44
1.0
  0
MTEXT
  5
8762
330
1F
100
AcDbEntity
  8
002寸法
 62
     2
100
AcDbMText
 10
217.5689082247535
 20
63.21901272783714
 30
0.0
 40
1.8
 41
25.10589447007442
 71
     1
 72
     5
  1
9E01-L43A-  N
 73
     1
 44
1.0
  0
MTEXT
  5
8763
330
1F
100
AcDbEntity
  8
002寸法
 62
     2
100
AcDbMText
 10
217.154007185959
 20
73.6894298505552
 30
0.0
 40
1.8
 41
25.10589447007442
 71
     1
 72
     5
  1
1  1
 73
     1
 44
1.0
  0
LINE
  5
8764
330
1F
100
AcDbEntity
  8
002寸法
 62
     2
100
AcDbLine
 10
233.749959370335
 20
63.10057248649565
 30
0.0
 11
233.7499593703352
 21
61.50057248649563
 31
0.0
  0
LINE
  5
8765
330
1F
100
AcDbEntity
  8
002寸法
 62
     2
100
AcDbLine
 10
233.7499593703351
 20
61.50057248649563
 30
0.0
 11
236.2499593703351
 21
61.50057248649563
 31
0.0
  0
LINE
  5
8766
330
1F
100
AcDbEntity
  8
002寸法
 62
     2
100
AcDbLine
 10
236.2499593703351
 20
61.50057248649563
 30
0.0
 11
236.2499593703351
 21
63.10057248649565
 31
0.0
  0
LINE
  5
8767
330
1F
100
AcDbEntity
  8
002寸法
 62
     2
100
AcDbLine
 10
236.2499593703351
 20
63.10057248649565
 30
0.0
 11
233.7499593703351
 21
63.10057248649565
 31
0.0
  0
CIRCLE
  5
8768
330
1F
100
AcDbEntity
  8
外形線
100
AcDbCircle
 10
204.2850422516906
 20
172.8976235258469
 30
-0.15
 40
1.25
  0
CIRCLE
  5
8769
330
1F
100
AcDbEntity
  8
外形線
100
AcDbCircle
 10
204.2850422516906
 20
172.8976235258469
 30
-0.15
 40
10.0
  0
LINE
  5
876A
330
1F
100
AcDbEntity
  8
001センタ
100
AcDbLine
 10
204.2850422516906
 20
160.8976235258469
 30
-0.15
 11
204.2850422516906
 21
184.8976235258469
 31
-0.15
  0
LINE
  5
876B
330
1F
100
AcDbEntity
  8
001センタ
100
AcDbLine
 10
192.2850422516906
 20
172.8976235258469
 30
-0.15
 11
216.2850422516906
 21
172.8976235258469
 31
-0.15
  0
LINE
  5
876C
330
1F
100
AcDbEntity
  8
001センタ
100
AcDbLine
 10
216.2850422516906
 20
172.8976235258469
 30
-0.15
 11
246.7850422516906
 21
172.8976235258469
 31
-0.15
  0
LINE
  5
876D
330
1F
100
AcDbEntity
  8
外形線
100
AcDbLine
 10
194.2850422516906
 20
130.2976235258469
 30
-0.15
 11
194.2850422516906
 21
123.8976235258469
 31
-0.15
  0
LINE
  5
876E
102
{ACAD_REACTORS
330
879C
102
}
330
1F
100
AcDbEntity
  8
外形線
100
AcDbLine
 10
214.2850422516906
 20
123.8976235258469
 30
-0.15
 11
194.2850422516906
 21
123.8976235258469
 31
-0.15
  0
LINE
  5
876F
102
{ACAD_REACTORS
330
87A2
102
}
330
1F
100
AcDbEntity
  8
外形線
100
AcDbLine
 10
214.2850422516906
 20
130.2976235258469
 30
-0.15
 11
194.2850422516906
 21
130.2976235258469
 31
-0.15
  0
LINE
  5
8770
102
{ACAD_REACTORS
330
879C
102
}
330
1F
100
AcDbEntity
  8
外形線
100
AcDbLine
 10
214.2850422516906
 20
130.2976235258469
 30
-0.15
 11
214.2850422516906
 21
123.8976235258469
 31
-0.15
  0
LINE
  5
8771
102
{ACAD_REACTORS
330
87B4
102
}
330
1F
100
AcDbEntity
  8
001センタ
100
AcDbLine
 10
246.7850422516906
 20
126.2976235258469
 30
-0.15
 11
211.7850422516906
 21
126.2976235258469
 31
-0.15
  0
LINE
  5
8772
330
1F
100
AcDbEntity
  8
外形線
100
AcDbLine
 10
205.5350422516906
 20
132.0972945638469
 30
-0.15
 11
205.5350422516906
 21
130.2976235258469
 31
-0.15
  0
LINE
  5
8773
102
{ACAD_REACTORS
330
87A8
102
}
330
1F
100
AcDbEntity
  8
外形線
100
AcDbLine
 10
205.5350422516906
 20
132.0972945638469
 30
-0.15
 11
203.0350422516906
 21
132.0972945638469
 31
-0.15
  0
LINE
  5
8774
102
{ACAD_REACTORS
330
87A8
102
}
330
1F
100
AcDbEntity
  8
外形線
100
AcDbLine
 10
203.0350422516906
 20
132.0972945638469
 30
-0.15
 11
203.0350422516906
 21
130.2976235258469
 31
-0.15
  0
ARC
  5
8775
102
{ACAD_REACTORS
330
87A2
330
87AB
102
}
330
1F
100
AcDbEntity
  8
外形線
100
AcDbCircle
 10
204.2850422516906
 20
128.2976235258469
 30
-0.15
 40
4.0
100
AcDbArc
 50
71.7900431360016
 51
108.2099568639984
  0
LINE
  5
8776
330
1F
100
AcDbEntity
  8
外形線
100
AcDbLine
 10
204.2850422516906
 20
147.2976235258469
 30
-0.1
 11
204.6732708196906
 21
148.7465122648469
 31
-0.1
  0
LINE
  5
8777
330
1F
100
AcDbEntity
  8
外形線
100
AcDbLine
 10
204.2850422516906
 20
147.2976235258469
 30
-0.15
 11
203.8968136836906
 21
148.7465122648469
 31
-0.15
  0
LINE
  5
8778
330
1F
100
AcDbEntity
  8
外形線
100
AcDbLine
 10
204.2850422516906
 20
147.2976235258469
 30
-0.15
 11
204.2850422516906
 21
152.2976235258469
 31
-0.15
  0
TEXT
  5
8779
330
1F
100
AcDbEntity
  8
外形線
100
AcDbText
 10
205.7850422516906
 20
149.7976235258469
 30
-0.15
 40
2.0
  1
負荷方向
 41
0.875
  7
KANJI2
100
AcDbText
  0
TEXT
  5
877A
330
1F
100
AcDbEntity
  8
外形線
100
AcDbText
 10
204.7850422516906
 20
147.2976235258469
 30
-0.15
 40
2.0
  1
（＋）
 41
0.875
  7
KANJI2
100
AcDbText
  0
LINE
  5
877B
330
1F
100
AcDbEntity
  8
外形線
100
AcDbLine
 10
219.2850422516906
 20
127.7976235258469
 30
-0.15
 11
219.4582473326906
 21
127.6976235258469
 31
-0.15
  0
LINE
  5
877C
330
1F
100
AcDbEntity
  8
外形線
100
AcDbLine
 10
219.4582473326906
 20
127.6976235258469
 30
-0.15
 11
244.2850422516906
 21
127.6976235258469
 31
-0.15
  0
LINE
  5
877D
330
1F
100
AcDbEntity
  8
外形線
100
AcDbLine
 10
219.2850422516906
 20
124.7976235258469
 30
-0.15
 11
219.4582473326906
 21
124.8976235258469
 31
-0.15
  0
LINE
  5
877E
330
1F
100
AcDbEntity
  8
外形線
100
AcDbLine
 10
219.4582473326906
 20
124.8976235258469
 30
-0.15
 11
244.2850422516906
 21
124.8976235258469
 31
-0.15
  0
LINE
  5
877F
330
1F
100
AcDbEntity
  8
外形線
100
AcDbLine
 10
219.2850422516906
 20
127.4976235258469
 30
-0.15
 11
219.2850422516906
 21
125.0976235258469
 31
-0.15
  0
ARC
  5
8780
330
1F
100
AcDbEntity
  8
外形線
100
AcDbCircle
 10
243.7600422516906
 20
126.9976235258469
 30
-0.15
 40
0.875
100
AcDbArc
 50
306.8698976460004
 51
53.13010235399964
  0
ARC
  5
8781
330
1F
100
AcDbEntity
  8
外形線
100
AcDbCircle
 10
243.7600422516906
 20
125.5976235258469
 30
-0.15
 40
0.875
100
AcDbArc
 50
306.8698976460004
 51
53.13010235399964
  0
ARC
  5
8782
330
1F
100
AcDbEntity
  8
外形線
100
AcDbCircle
 10
244.8100422516906
 20
125.5976235258469
 30
-0.15
 40
0.875
100
AcDbArc
 50
126.8698976460003
 51
233.1301023539996
  0
LINE
  5
8783
330
1F
100
AcDbEntity
  8
外形線
100
AcDbLine
 10
219.2850422516906
 20
174.3976235258469
 30
-0.15
 11
219.4582473326906
 21
174.2976235258469
 31
-0.15
  0
LINE
  5
8784
330
1F
100
AcDbEntity
  8
外形線
100
AcDbLine
 10
219.4582473326906
 20
174.2976235258469
 30
-0.15
 11
244.2850422516906
 21
174.2976235258469
 31
-0.15
  0
LINE
  5
8785
330
1F
100
AcDbEntity
  8
外形線
100
AcDbLine
 10
219.2850422516906
 20
171.3976235258469
 30
-0.15
 11
219.4582473326906
 21
171.4976235258469
 31
-0.15
  0
LINE
  5
8786
330
1F
100
AcDbEntity
  8
外形線
100
AcDbLine
 10
219.4582473326906
 20
171.4976235258469
 30
-0.15
 11
244.2850422516906
 21
171.4976235258469
 31
-0.15
  0
LINE
  5
8787
330
1F
100
AcDbEntity
  8
外形線
100
AcDbLine
 10
219.2850422516906
 20
173.8976235258469
 30
-0.15
 11
219.2850422516906
 21
171.8976235258469
 31
-0.15
  0
LINE
  5
8788
330
1F
100
AcDbEntity
  8
外形線
100
AcDbLine
 10
219.4582473326906
 20
173.7976235258469
 30
-0.15
 11
219.4582473326906
 21
171.9976235258469
 31
-0.15
  0
ARC
  5
8789
330
1F
100
AcDbEntity
  8
外形線
100
AcDbCircle
 10
243.7600422516906
 20
173.5976235258469
 30
-0.15
 40
0.875
100
AcDbArc
 50
306.8698976460004
 51
53.13010235399964
  0
ARC
  5
878A
330
1F
100
AcDbEntity
  8
外形線
100
AcDbCircle
 10
243.7600422516906
 20
172.1976235258469
 30
-0.15
 40
0.875
100
AcDbArc
 50
306.8698976460004
 51
53.13010235399964
  0
ARC
  5
878B
330
1F
100
AcDbEntity
  8
外形線
100
AcDbCircle
 10
244.8100422516906
 20
172.1976235258469
 30
-0.15
 40
0.875
100
AcDbArc
 50
126.8698976460003
 51
233.1301023539996
  0
LINE
  5
878C
330
1F
100
AcDbEntity
  8
外形線
100
AcDbLine
 10
214.5350422516906
 20
127.7976235258469
 30
-0.1
 11
214.5350422516906
 21
124.7976235258469
 31
-0.1
  0
LINE
  5
878D
102
{ACAD_REACTORS
330
879F
102
}
330
1F
100
AcDbEntity
  8
外形線
100
AcDbLine
 10
214.5350422516906
 20
124.7976235258469
 30
-0.15
 11
219.2850422516906
 21
124.7976235258469
 31
-0.15
  0
LINE
  5
878E
102
{ACAD_REACTORS
330
87AE
102
}
330
1F
100
AcDbEntity
  8
外形線
100
AcDbLine
 10
214.5350422516906
 20
127.7976235258469
 30
-0.15
 11
219.2850422516906
 21
127.7976235258469
 31
-0.15
  0
LINE
  5
878F
330
1F
100
AcDbEntity
  8
外形線
100
AcDbLine
 10
214.2850422516906
 20
127.5476235258469
 30
-0.15
 11
214.5350422516906
 21
127.5476235258469
 31
-0.15
  0
LINE
  5
8790
330
1F
100
AcDbEntity
  8
外形線
100
AcDbLine
 10
214.2850422516906
 20
125.0476235258469
 30
-0.15
 11
214.5350422516906
 21
125.0476235258469
 31
-0.15
  0
LINE
  5
8791
330
1F
100
AcDbEntity
  8
外形線
100
AcDbLine
 10
214.5350422516906
 20
174.3976235258469
 30
-0.15
 11
214.5350422516906
 21
171.3976235258469
 31
-0.15
  0
LINE
  5
8792
330
1F
100
AcDbEntity
  8
外形線
100
AcDbLine
 10
214.5350422516906
 20
174.3976235258469
 30
-0.15
 11
219.2850422516906
 21
174.3976235258469
 31
-0.15
  0
LINE
  5
8793
330
1F
100
AcDbEntity
  8
外形線
100
AcDbLine
 10
214.5350422516906
 20
171.3976235258469
 30
-0.15
 11
219.2850422516906
 21
171.3976235258469
 31
-0.15
  0
LINE
  5
8794
330
1F
100
AcDbEntity
  8
外形線
100
AcDbLine
 10
214.5350422516906
 20
171.6476235258469
 30
-0.15
 11
214.2066096676906
 21
171.6476235258469
 31
-0.15
  0
LINE
  5
8795
330
1F
100
AcDbEntity
  8
外形線
100
AcDbLine
 10
214.5350422516906
 20
174.1476235258469
 30
-0.15
 11
214.2066096676906
 21
174.1476235258469
 31
-0.15
  0
LINE
  5
8796
102
{ACAD_REACTORS
330
87A5
102
}
330
1F
100
AcDbEntity
  8
外形線
100
AcDbLine
 10
194.5350422516906
 20
123.8976235258469
 30
-0.1
 11
194.5350422516906
 21
122.7976235258469
 31
-0.1
  0
LINE
  5
8797
330
1F
100
AcDbEntity
  8
外形線
100
AcDbLine
 10
214.0350422516906
 20
123.8976235258469
 30
-0.15
 11
214.0350422516906
 21
122.7976235258469
 31
-0.15
  0
LINE
  5
8798
102
{ACAD_REACTORS
330
87B4
102
}
330
1F
100
AcDbEntity
  8
外形線
100
AcDbLine
 10
214.0350422516906
 20
122.7976235258469
 30
-0.15
 11
194.5350422516906
 21
122.7976235258469
 31
-0.15
  0
LINE
  5
8799
330
1F
100
AcDbEntity
  8
001センタ
100
AcDbLine
 10
204.2850422516906
 20
134.7976235258469
 30
-0.15
 11
204.2850422516906
 21
120.2976235258469
 31
-0.15
  0
DIMENSION
  5
879A
102
{ACAD_XDICTIONARY
360
879B
102
}
102
{ACAD_REACTORS
330
879C
102
}
330
1F
100
AcDbEntity
  8
002寸法
100
AcDbDimension
  2
*D45
 10
214.2850422516906
 20
114.9712807676088
 30
0.0
 11
204.2850422516906
 21
116.4712807676088
 31
0.0
 70
    32
  1
\U+03C6<>
 71
     5
 42
20.0
  3
通常ｘ0.5
100
AcDbAlignedDimension
 13
194.2850422516906
 23
123.8976235258469
 33
-0.15
 14
214.2850422516906
 24
123.8976235258469
 34
-0.15
100
AcDbRotatedDimension
1001
ACAD
1000
DSTYLE
1002
{
1070
   147
1040
0.5
1070
    42
1040
0.5
1070
    44
1040
0.75
1070
   140
1040
2.0
1070
    41
1040
1.5
1002
}
  0
DIMENSION
  5
879D
102
{ACAD_XDICTIONARY
360
879E
102
}
102
{ACAD_REACTORS
330
879F
102
}
330
1F
100
AcDbEntity
  8
002寸法
100
AcDbDimension
  2
*D46
 10
219.2850422516906
 20
109.0577610177839
 30
0.0
 11
206.5964983762005
 21
109.0577610177839
 31
0.0
 70
   160
  1
(<>)
 71
     5
 42
25.0
  3
通常ｘ0.5
100
AcDbAlignedDimension
 13
194.2850422516906
 23
123.8976235258469
 33
-0.15
 14
219.2850422516906
 24
124.7976235258469
 34
-0.15
100
AcDbRotatedDimension
1001
ACAD
1000
DSTYLE
1002
{
1070
   147
1040
0.25
1070
    42
1040
0.5
1070
    44
1040
0.75
1070
   140
1040
2.0
1070
    41
1040
1.5
1002
}
  0
DIMENSION
  5
87A0
102
{ACAD_XDICTIONARY
360
87A1
102
}
102
{ACAD_REACTORS
330
87A2
102
}
330
1F
100
AcDbEntity
  8
002寸法
100
AcDbDimension
  2
*D47
 10
188.6218369900066
 20
132.2976235258469
 30
0.0
 11
188.6218369900066
 21
131.297623525847
 31
0.0
 70
   160
 71
     5
 42
2.0
  3
通常ｘ0.5
100
AcDbAlignedDimension
 13
194.2850422516906
 23
130.2976235258469
 33
-0.15
 14
204.2850422516906
 24
132.2976235258469
 34
-0.15
 50
90.0
100
AcDbRotatedDimension
1001
ACAD
1000
DSTYLE
1002
{
1070
   147
1040
0.5
1070
    42
1040
0.5
1070
    44
1040
0.75
1070
   140
1040
2.0
1070
    41
1040
1.5
1002
}
  0
DIMENSION
  5
87A3
102
{ACAD_XDICTIONARY
360
87A4
102
}
102
{ACAD_REACTORS
330
87A5
102
}
330
1F
100
AcDbEntity
  8
002寸法
100
AcDbDimension
  2
*D48
 10
182.9363734313681
 20
122.7976235258469
 30
0.0
 11
181.4363734313681
 21
127.547623525847
 31
0.0
 70
    32
 71
     5
 42
9.500000000000014
  3
通常ｘ0.5
100
AcDbAlignedDimension
 13
204.2850422516906
 23
132.2976235258469
 33
-0.15
 14
194.5350422516906
 24
122.7976235258469
 34
-0.1
 50
90.0
100
AcDbRotatedDimension
1001
ACAD
1000
DSTYLE
1002
{
1070
   147
1040
0.5
1070
    42
1040
0.5
1070
    44
1040
0.75
1070
   140
1040
2.0
1070
    41
1040
1.5
1002
}
  0
DIMENSION
  5
87A6
102
{ACAD_XDICTIONARY
360
87A7
102
}
102
{ACAD_REACTORS
330
87A8
102
}
330
1F
100
AcDbEntity
  8
002寸法
100
AcDbDimension
  2
*D49
 10
205.5350422516906
 20
135.1003331284249
 30
0.0
 11
196.1207565374049
 21
135.1003331284249
 31
0.0
 70
   160
  1
\U+03C6<>
 71
     5
 42
2.5
  3
通常ｘ0.5
100
AcDbAlignedDimension
 13
203.0350422516906
 23
132.0972945638469
 33
-0.15
 14
205.5350422516906
 24
132.0972945638469
 34
-0.15
100
AcDbRotatedDimension
1001
ACAD
1000
DSTYLE
1002
{
1070
   147
1040
0.5
1070
    42
1040
0.5
1070
    44
1040
0.75
1070
   140
1040
2.0
1070
    41
1040
1.5
1002
}
  0
DIMENSION
  5
87A9
102
{ACAD_XDICTIONARY
360
87AA
102
}
102
{ACAD_REACTORS
330
87AB
102
}
330
1F
100
AcDbEntity
  8
002寸法
100
AcDbDimension
  2
*D50
 10
204.2850422516906
 20
128.2976235258469
 30
-0.15
 11
206.1190979952078
 21
141.8408772964685
 31
0.0
 70
   164
  1
S<>
 71
     5
 42
3.999999999999801
  3
通常ｘ0.5
100
AcDbRadialDimension
 15
204.8218308562551
 25
132.2614421384991
 35
-0.15
 40
0.0
1001
ACAD
1000
DSTYLE
1002
{
1070
   140
1040
2.0
1070
    41
1040
1.5
1070
   288
1070
     1
1002
}
  0
DIMENSION
  5
87AC
102
{ACAD_XDICTIONARY
360
87AD
102
}
102
{ACAD_REACTORS
330
87AE
102
}
330
1F
100
AcDbEntity
  8
002寸法
100
AcDbDimension
  2
*D51
 10
218.3259369194266
 20
124.7976235258469
 30
0.0
 11
218.3259369194266
 21
134.0919092401327
 31
0.0
 70
   160
  1
(\U+03C6<>)
 71
     5
 42
3.0
  3
通常ｘ0.5
100
AcDbAlignedDimension
 13
219.2850422516906
 23
127.7976235258469
 33
-0.15
 14
219.2850422516906
 24
124.7976235258469
 34
-0.15
 50
90.0
100
AcDbRotatedDimension
1001
ACAD
1000
DSTYLE
1002
{
1070
   147
1040
0.25
1070
    42
1040
0.5
1070
    44
1040
0.75
1070
   140
1040
2.0
1070
    41
1040
1.5
1002
}
  0
LINE
  5
87AF
330
1F
100
AcDbEntity
  8
外形線
100
AcDbLine
 10
219.4582473326906
 20
127.2976235258469
 30
-0.1499999999999999
 11
219.4582473326906
 21
125.2976235258469
 31
-0.1499999999999999
  0
LINE
  5
87B0
330
1F
100
AcDbEntity
  8
外形線
100
AcDbLine
 10
219.2850422516906
 20
174.097623525847
 30
-0.2000000000000001
 11
219.2850422516906
 21
171.697623525847
 31
-0.2000000000000001
  0
LINE
  5
87B1
330
1F
100
AcDbEntity
  8
外形線
100
AcDbLine
 10
219.4582473326906
 20
173.897623525847
 30
-0.2
 11
219.4582473326906
 21
171.897623525847
 31
-0.2
  0
DIMENSION
  5
87B2
102
{ACAD_XDICTIONARY
360
87B3
102
}
102
{ACAD_REACTORS
330
87B4
102
}
330
1F
100
AcDbEntity
  8
002寸法
100
AcDbDimension
  2
*D52
 10
229.7140613700574
 20
122.7976235258469
 30
0.0
 11
227.9402518462478
 21
118.0476235258469
 31
0.0
 70
    32
  1
(3.4)
 71
     5
 42
3.500000000000042
  3
通常ｘ0.5
100
AcDbAlignedDimension
 13
224.6593257498946
 23
126.2976235258469
 33
-0.15
 14
214.0350422516906
 24
122.7976235258469
 34
-0.15
 50
90.0
100
AcDbRotatedDimension
1001
ACAD
1000
DSTYLE
1002
{
1070
   147
1040
0.25
1070
   140
1040
2.0
1070
    41
1040
1.5
1002
}
  0
MTEXT
  5
87B5
330
1F
100
AcDbEntity
  8
外形線
 62
     2
100
AcDbMText
 10
221.4347766518409
 20
91.78333527006714
 30
0.0
 40
2.0
 41
21.02424856319385
 71
     1
 72
     5
  1
100,200,500N,1,2kN
 73
     1
 44
1.0
  0
VIEWPORT
  5
6B
330
50
100
AcDbEntity
 67
     1
  8
0
100
AcDbViewport
 10
-37.14995086896897
 20
629.8932672482501
 30
0.0
 40
4704.388931953014
 41
4174.316939620281
 68
     1
 69
     1
 12
-37.14995086896897
 22
629.8932672482501
 13
0.0
 23
0.0
 14
1.0
 24
1.0
 15
10.0
 25
10.0
 16
0.0
 26
0.0
 36
1.0
 17
0.0
 27
0.0
 37
0.0
 42
50.0
 43
0.0
 44
0.0
 45
4174.316939620281
 50
0.0
 51
0.0
 72
   100
 90
    32800
  1

281
     0
 71
     1
 74
     0
110
0.0
120
0.0
130
0.0
111
1.0
121
0.0
131
0.0
112
0.0
122
1.0
132
0.0
 79
     0
146
0.0
170
     0
  0
VIEWPORT
  5
6D
330
50
100
AcDbEntity
 67
     1
  8
0
100
AcDbViewport
 10
297.0
 20
210.0
 30
0.0
 40
594.0
 41
420.0
 68
     2
 69
     2
 12
297.0058350011193
 22
210.0
 13
0.0
 23
0.0
 14
10.0
 24
10.0
 15
10.0
 25
10.0
 16
0.0
 26
0.0
 36
1.0
 17
0.0
 27
0.0
 37
0.0
 42
50.0
 43
0.0
 44
0.0
 45
420.0
 50
0.0
 51
0.0
 72
   100
 90
    32864
  1

281
     0
 71
     1
 74
     0
110
0.0
120
0.0
130
0.0
111
1.0
121
0.0
131
0.0
112
0.0
122
1.0
132
0.0
 79
     0
146
0.0
170
     0
  0
ENDSEC
  0
SECTION
  2
OBJECTS
  0
DICTIONARY
  5
C
330
0
100
AcDbDictionary
281
     1
  3
ACAD_2007HEADERVARS_RT
350
8846
  3
ACAD_CIP_PREVIOUS_PRODUCT_INFO
350
7E9D
  3
ACAD_COLOR
350
99C
  3
ACAD_DETAILVIEWSTYLE
350
7E90
  3
ACAD_GROUP
350
D
  3
ACAD_LAYOUT
350
1A
  3
ACAD_MATERIAL
350
99B
  3
ACAD_MLEADERSTYLE
350
7E8C
  3
ACAD_MLINESTYLE
350
17
  3
ACAD_PLOTSETTINGS
350
19
  3
ACAD_PLOTSTYLENAME
350
E
  3
ACAD_SCALELIST
350
7E7A
  3
ACAD_SECTIONVIEWSTYLE
350
7E8E
  3
ACAD_TABLESTYLE
350
99D
  3
ACAD_VISUALSTYLE
350
7E61
  3
AcadDim
350
461C
  3
ACDB_RECOMPOSE_DATA
350
8845
  3
AcDbVariableDictionary
350
5E
  3
AcDsDecomposeData
350
884E
  0
DICTIONARY
  5
A17
330
2
100
AcDbDictionary
280
     1
281
     1
  3
ACAD_LAYERFILTERS
360
A1C
  3
ACAD_LAYERSTATES
360
29CC
  3
ACLYDICTIONARY
360
A1B
  0
DICTIONARY
  5
831D
330
10
100
AcDbDictionary
280
     1
281
     1
  3
ADSK_XREC_LAYER_RECONCILED
360
831E
  0
DICTIONARY
  5
831F
330
2C2
100
AcDbDictionary
280
     1
281
     1
  3
ADSK_XREC_LAYER_RECONCILED
360
8320
  0
DICTIONARY
  5
8321
330
847
100
AcDbDictionary
280
     1
281
     1
  3
ADSK_XREC_LAYER_RECONCILED
360
8322
  0
DICTIONARY
  5
8323
330
A15
100
AcDbDictionary
280
     1
281
     1
  3
ADSK_XREC_LAYER_RECONCILED
360
8324
  0
DICTIONARY
  5
8325
330
A1A
100
AcDbDictionary
280
     1
281
     1
  3
ADSK_XREC_LAYER_RECONCILED
360
8326
  0
DICTIONARY
  5
8327
330
4E86
100
AcDbDictionary
280
     1
281
     1
  3
ADSK_XREC_LAYER_RECONCILED
360
8328
  0
DICTIONARY
  5
8329
330
54A2
100
AcDbDictionary
280
     1
281
     1
  3
ADSK_XREC_LAYER_RECONCILED
360
832A
  0
DICTIONARY
  5
832B
330
5FAC
100
AcDbDictionary
280
     1
281
     1
  3
ADSK_XREC_LAYER_RECONCILED
360
832C
  0
DICTIONARY
  5
832D
330
5FAD
100
AcDbDictionary
280
     1
281
     1
  3
ADSK_XREC_LAYER_RECONCILED
360
832E
  0
DICTIONARY
  5
7F25
330
7F24
100
AcDbDictionary
280
     1
281
     1
  3
ADSK_XREC_LAYER_RECONCILED
360
832F
  0
DICTIONARY
  5
CA
330
1F
100
AcDbDictionary
280
     1
281
     1
  3
ACAD_LAYOUTSELFREF
360
98D
  3
ACAD_SORTENTS
360
A49
  0
DICTIONARY
  5
CE
330
50
100
AcDbDictionary
280
     1
281
     1
  3
ACAD_LAYOUTSELFREF
360
98E
  0
DICTIONARY
  5
CC
330
55
100
AcDbDictionary
280
     1
281
     1
  3
ACAD_LAYOUTSELFREF
360
98F
  0
DICTIONARY
  5
7595
330
758F
100
AcDbDictionary
280
     1
281
     1
  3
ACAD_SORTENTS
360
7596
  0
DICTIONARY
  5
759C
330
759A
100
AcDbDictionary
280
     1
281
     1
  3
ACAD_SORTENTS
360
759D
  0
DICTIONARY
  5
84F7
330
84F6
100
AcDbDictionary
280
     1
281
     1
  3
ACAD_DIMASSOC
360
84F8
  0
DICTIONARY
  5
84FA
330
84F9
100
AcDbDictionary
280
     1
281
     1
  3
ACAD_DIMASSOC
360
84FB
  0
DICTIONARY
  5
84FD
330
84FC
100
AcDbDictionary
280
     1
281
     1
  3
ACAD_DIMASSOC
360
84FE
  0
DICTIONARY
  5
8500
330
84FF
100
AcDbDictionary
280
     1
281
     1
  3
ACAD_DIMASSOC
360
8501
  0
DICTIONARY
  5
8503
330
8502
100
AcDbDictionary
280
     1
281
     1
  3
ACAD_DIMASSOC
360
8504
  0
DICTIONARY
  5
8506
330
8505
100
AcDbDictionary
280
     1
281
     1
  3
ACAD_DIMASSOC
360
8507
  0
DICTIONARY
  5
850E
330
850D
100
AcDbDictionary
280
     1
281
     1
  3
ACAD_DIMASSOC
360
850F
  0
DICTIONARY
  5
8516
330
8515
100
AcDbDictionary
280
     1
281
     1
  3
ACAD_DIMASSOC
360
8517
  0
DICTIONARY
  5
879B
330
879A
100
AcDbDictionary
280
     1
281
     1
  3
ACAD_DIMASSOC
360
879C
  0
DICTIONARY
  5
879E
330
879D
100
AcDbDictionary
280
     1
281
     1
  3
ACAD_DIMASSOC
360
879F
  0
DICTIONARY
  5
87A1
330
87A0
100
AcDbDictionary
280
     1
281
     1
  3
ACAD_DIMASSOC
360
87A2
  0
DICTIONARY
  5
87A4
330
87A3
100
AcDbDictionary
280
     1
281
     1
  3
ACAD_DIMASSOC
360
87A5
  0
DICTIONARY
  5
87A7
330
87A6
100
AcDbDictionary
280
     1
281
     1
  3
ACAD_DIMASSOC
360
87A8
  0
DICTIONARY
  5
87AA
330
87A9
100
AcDbDictionary
280
     1
281
     1
  3
ACAD_DIMASSOC
360
87AB
  0
DICTIONARY
  5
87AD
330
87AC
100
AcDbDictionary
280
     1
281
     1
  3
ACAD_DIMASSOC
360
87AE
  0
DICTIONARY
  5
87B3
330
87B2
100
AcDbDictionary
280
     1
281
     1
  3
ACAD_DIMASSOC
360
87B4
  0
DICTIONARY
  5
8846
102
{ACAD_REACTORS
330
C
102
}
330
C
100
AcDbDictionary
281
     1
  3
DIMJOGANG
350
8847
  0
XRECORD
  5
7E9D
102
{ACAD_REACTORS
330
C
102
}
330
C
100
AcDbXrecord
280
     1
300
ACDLT
300
2014
300
ACDLT_F_S
  0
DICTIONARY
  5
99C
102
{ACAD_REACTORS
330
C
102
}
330
C
100
AcDbDictionary
281
     1
  0
DICTIONARY
  5
7E90
102
{ACAD_REACTORS
330
C
102
}
330
C
100
AcDbDictionary
281
     1
  3
Metric50
350
7E91
  0
DICTIONARY
  5
D
102
{ACAD_REACTORS
330
C
102
}
330
C
100
AcDbDictionary
281
     1
  0
DICTIONARY
  5
1A
102
{ACAD_REACTORS
330
C
102
}
330
C
100
AcDbDictionary
281
     1
  3
Model
350
22
  3
ﾚｲｱｳﾄ1
350
51
  3
ﾚｲｱｳﾄ2
350
56
  0
DICTIONARY
  5
99B
102
{ACAD_REACTORS
330
C
102
}
330
C
100
AcDbDictionary
281
     1
  3
ByBlock
350
7E51
  3
ByLayer
350
7E49
  3
Global
350
7E59
  0
DICTIONARY
  5
7E8C
102
{ACAD_REACTORS
330
C
102
}
330
C
100
AcDbDictionary
281
     1
  3
Standard
350
7E8D
  0
DICTIONARY
  5
17
102
{ACAD_REACTORS
330
C
102
}
330
C
100
AcDbDictionary
281
     1
  3
Standard
350
18
  0
DICTIONARY
  5
19
102
{ACAD_REACTORS
330
C
102
}
330
C
100
AcDbDictionary
281
     1
  0
ACDBDICTIONARYWDFLT
  5
E
102
{ACAD_REACTORS
330
C
102
}
330
C
100
AcDbDictionary
281
     1
  3
Normal
350
F
100
AcDbDictionaryWithDefault
340
F
  0
DICTIONARY
  5
7E7A
102
{ACAD_REACTORS
330
C
102
}
330
C
100
AcDbDictionary
281
     1
  3
A0
350
7E7B
  3
A1
350
7E7C
  3
A2
350
7E7D
  3
A3
350
7E7E
  3
A4
350
7E7F
  3
A5
350
7E80
  3
A6
350
7E81
  3
A7
350
7E82
  3
A8
350
7E83
  3
A9
350
7E84
  3
B0
350
7E85
  3
B1
350
7E86
  3
B2
350
7E87
  3
B3
350
7E88
  3
B4
350
7E89
  3
B5
350
7E8A
  3
B6
350
7E8B
  0
DICTIONARY
  5
7E8E
102
{ACAD_REACTORS
330
C
102
}
330
C
100
AcDbDictionary
281
     1
  3
Metric50
350
7E8F
  0
DICTIONARY
  5
99D
102
{ACAD_REACTORS
330
C
102
}
330
C
100
AcDbDictionary
281
     1
  3
Standard
350
99E
  0
DICTIONARY
  5
7E61
102
{ACAD_REACTORS
330
C
102
}
330
C
100
AcDbDictionary
281
     1
  3
2dWireframe
350
7E67
  3
Basic
350
7E66
  3
Brighten
350
7E6D
  3
ColorChange
350
7E71
  3
Conceptual
350
7E6A
  3
Dim
350
7E6C
  3
EdgeColorOff
350
7E79
  3
Facepattern
350
7E70
  3
Flat
350
7E62
  3
FlatWithEdges
350
7E63
  3
Gouraud
350
7E64
  3
GouraudWithEdges
350
7E65
  3
Hidden
350
7E69
  3
JitterOff
350
7E77
  3
Linepattern
350
7E6F
  3
OverhangOff
350
7E78
  3
Realistic
350
7E6B
  3
Shaded
350
7E76
  3
Shaded with edges
350
7E75
  3
Shades of Gray
350
7E72
  3
Sketchy
350
7E73
  3
Thicken
350
7E6E
  3
Wireframe
350
7E68
  3
X-Ray
350
7E74
  0
XRECORD
  5
461C
102
{ACAD_REACTORS
330
C
102
}
330
C
100
AcDbXrecord
280
     1
 90
   990106
  3

 60
     0
 61
     0
 62
     1
 63
     3
 64
     0
 65
     0
 66
     0
 67
     3
 68
     1
 69
     0
 70
     0
 71
     0
 72
     0
 40
0.0
170
     0
  0
XRECORD
  5
8845
102
{ACAD_REACTORS
330
C
102
}
330
C
100
AcDbXrecord
280
     1
 90
        1
330
99E
  0
DICTIONARY
  5
5E
102
{ACAD_REACTORS
330
C
102
}
330
C
100
AcDbDictionary
281
     1
  3
CANNOSCALE
350
8364
  3
CMLEADERSTYLE
350
8360
  3
CTABLESTYLE
350
9B4
  3
CVIEWDETAILSTYLE
350
8361
  3
CVIEWSECTIONSTYLE
350
8362
  3
DIMASSOC
350
5F
  3
HIDETEXT
350
63
  3
LAYEREVAL
350
8366
  3
LAYERNOTIFY
350
8367
  3
LIGHTINGUNITS
350
8365
  3
MSLTSCALE
350
8363
  3
PROJECTNAME
350
9B5
  3
XCLIPFRAME
350
8842
  0
DICTIONARY
  5
884E
102
{ACAD_REACTORS
330
C
102
}
330
C
100
AcDbDictionary
281
     1
  3
AcDsRecords
350
8850
  3
AcDsSchemas
350
884F
1001
ACAD
1070
     2
  0
DICTIONARY
  5
A1C
102
{ACAD_REACTORS
330
A17
102
}
330
A17
100
AcDbDictionary
281
     1
  0
DICTIONARY
  5
29CC
102
{ACAD_REACTORS
330
A17
102
}
330
A17
100
AcDbDictionary
281
     1
  0
DICTIONARY
  5
A1B
102
{ACAD_REACTORS
330
A17
102
}
330
A17
100
AcDbDictionary
281
     1
1001
ACAD
1000
<All
  0
XRECORD
  5
831E
102
{ACAD_REACTORS
330
831D
102
}
330
831D
100
AcDbXrecord
280
     1
290
     1
  0
XRECORD
  5
8320
102
{ACAD_REACTORS
330
831F
102
}
330
831F
100
AcDbXrecord
280
     1
290
     1
  0
XRECORD
  5
8322
102
{ACAD_REACTORS
330
8321
102
}
330
8321
100
AcDbXrecord
280
     1
290
     1
  0
XRECORD
  5
8324
102
{ACAD_REACTORS
330
8323
102
}
330
8323
100
AcDbXrecord
280
     1
290
     1
  0
XRECORD
  5
8326
102
{ACAD_REACTORS
330
8325
102
}
330
8325
100
AcDbXrecord
280
     1
290
     1
  0
XRECORD
  5
8328
102
{ACAD_REACTORS
330
8327
102
}
330
8327
100
AcDbXrecord
280
     1
290
     1
  0
XRECORD
  5
832A
102
{ACAD_REACTORS
330
8329
102
}
330
8329
100
AcDbXrecord
280
     1
290
     1
  0
XRECORD
  5
832C
102
{ACAD_REACTORS
330
832B
102
}
330
832B
100
AcDbXrecord
280
     1
290
     1
  0
XRECORD
  5
832E
102
{ACAD_REACTORS
330
832D
102
}
330
832D
100
AcDbXrecord
280
     1
290
     1
  0
XRECORD
  5
832F
102
{ACAD_REACTORS
330
7F25
102
}
330
7F25
100
AcDbXrecord
280
     1
290
     1
  0
XRECORD
  5
98D
102
{ACAD_REACTORS
330
CA
102
}
330
CA
100
AcDbXrecord
280
     1
340
1F
  0
SORTENTSTABLE
  5
A49
102
{ACAD_REACTORS
330
CA
102
}
330
CA
100
AcDbSortentsTable
330
1F
331
84C0
  5
84C0
331
84C8
  5
84C8
331
84FF
  5
84FF
331
84D0
  5
84D0
331
84D8
  5
84D8
331
85AD
  5
85AD
331
84E0
  5
84E0
331
84E8
  5
84E8
331
84F0
  5
84F0
331
84B9
  5
84B9
331
84C1
  5
84C1
331
8586
  5
8587
331
84C9
  5
84C9
331
858E
  5
858F
331
84D1
  5
84D1
331
8508
  5
8508
331
84D9
  5
84D9
331
8510
  5
8510
331
84E1
  5
84E1
331
84E9
  5
84E9
331
84F1
  5
84F1
331
84B2
  5
84B2
331
857F
  5
8585
331
84BA
  5
84BA
331
84C2
  5
84C2
331
84F9
  5
84F9
331
8587
  5
8589
331
84CA
  5
84CA
331
84D2
  5
84D2
331
8509
  5
8509
331
84DA
  5
84DA
331
8511
  5
8511
331
84E2
  5
84E2
331
84EA
  5
84EA
331
84F2
  5
84F2
331
84B3
  5
84B3
331
84BB
  5
84BB
331
8580
  5
857F
331
84C3
  5
84C3
331
8588
  5
858B
331
84CB
  5
84CB
331
8502
  5
8502
331
8590
  5
8590
331
84D3
  5
84D3
331
850A
  5
850A
331
85A8
  5
85A8
331
84DB
  5
84DB
331
8512
  5
8512
331
84E3
  5
84E3
331
84EB
  5
84EB
331
84F3
  5
84F3
331
84B4
  5
84B4
331
84BC
  5
84BC
331
8581
  5
8580
331
84C4
  5
84C4
331
8589
  5
8584
331
84CC
  5
84CC
331
84D4
  5
84D4
331
850B
  5
850B
331
84DC
  5
84DC
331
8513
  5
8513
331
84E4
  5
84E4
331
846D
  5
846D
331
84EC
  5
84EC
331
84F4
  5
84F4
331
84B5
  5
84B5
331
84BD
  5
84BD
331
8582
  5
8581
331
84C5
  5
84C5
331
84FC
  5
84FC
331
84CD
  5
84CD
331
84D5
  5
84D5
331
850C
  5
850C
331
85AA
  5
85AB
331
84DD
  5
84DD
331
8514
  5
8514
331
84E5
  5
84E5
331
846E
  5
846E
331
84ED
  5
84ED
331
84AE
  5
84AE
331
84F5
  5
84F5
331
84B6
  5
84B6
331
84BE
  5
84BE
331
8583
  5
8582
331
84C6
  5
84C6
331
84CE
  5
84CE
331
8505
  5
8505
331
84D6
  5
84D6
331
850D
  5
850D
331
84DE
  5
84DE
331
8515
  5
8515
331
84E6
  5
84E6
331
84EE
  5
84EE
331
84F6
  5
84F6
331
84B7
  5
84B7
331
84BF
  5
84BF
331
84C7
  5
84C7
331
84CF
  5
84CF
331
8594
  5
8594
331
84D7
  5
84D7
331
85AC
  5
85AA
331
84DF
  5
84DF
331
84E7
  5
84E7
331
84EF
  5
84EF
331
84B8
  5
84B8
  0
XRECORD
  5
98E
102
{ACAD_REACTORS
330
CE
102
}
330
CE
100
AcDbXrecord
280
     1
340
50
  0
XRECORD
  5
98F
102
{ACAD_REACTORS
330
CC
102
}
330
CC
100
AcDbXrecord
280
     1
340
55
  0
SORTENTSTABLE
  5
7596
102
{ACAD_REACTORS
330
7595
102
}
330
7595
100
AcDbSortentsTable
330
758F
  0
SORTENTSTABLE
  5
759D
102
{ACAD_REACTORS
330
759C
102
}
330
759C
100
AcDbSortentsTable
330
759A
  0
DIMASSOC
  5
84F8
102
{ACAD_REACTORS
330
84F7
102
}
330
84F7
100
AcDbDimAssoc
330
84F6
 90
        3
 70
     0
 71
     0
  1
AcDbOsnapPointRef
 72
     1
331
84D6
 73
     2
 91
        1
 40
1.0
 10
0.0
 20
0.0
 30
2.000000000000000E+50
 75
     0
  1
AcDbOsnapPointRef
 72
    13
331
84D6
 73
     2
 91
        1
 40
0.0
 10
0.0
 20
0.0
 30
2.000000000000000E+50
 75
     0
  0
DIMASSOC
  5
84FB
102
{ACAD_REACTORS
330
84FA
102
}
330
84FA
100
AcDbDimAssoc
330
84F9
 90
        2
 70
     0
 71
     0
  1
AcDbOsnapPointRef
 72
     1
331
84EE
 73
     2
 91
        0
 40
1.0
 10
0.0
 20
0.0
 30
2.000000000000000E+50
 75
     0
  0
DIMASSOC
  5
84FE
102
{ACAD_REACTORS
330
84FD
102
}
330
84FD
100
AcDbDimAssoc
330
84FC
 90
        3
 70
     0
 71
     0
  1
AcDbOsnapPointRef
 72
     1
331
84D6
 73
     2
 91
        2
 40
1.0
 10
0.0
 20
0.0
 30
2.000000000000000E+50
 75
     0
  1
AcDbOsnapPointRef
 72
     2
331
84DB
 73
     2
 91
        0
 40
1.570796326794896
 10
0.0
 20
0.0
 30
0.0
 75
     0
  0
DIMASSOC
  5
8501
102
{ACAD_REACTORS
330
8500
102
}
330
8500
100
AcDbDimAssoc
330
84FF
 90
        2
 70
     0
 71
     0
  1
AcDbOsnapPointRef
 72
     1
331
84DA
 73
     2
 91
        0
 40
1.0
 10
0.0
 20
0.0
 30
2.000000000000000E+50
 75
     0
  0
DIMASSOC
  5
8504
102
{ACAD_REACTORS
330
8503
102
}
330
8503
100
AcDbDimAssoc
330
8502
 90
        3
 70
     0
 71
     0
  1
AcDbOsnapPointRef
 72
    11
331
84DE
 73
     2
 91
        0
 40
0.9999999999439774
 10
0.0
 20
0.0
 30
0.0
332
84DB
 74
     2
 92
        0
 75
     0
  1
AcDbOsnapPointRef
 72
    11
331
84DC
 73
     2
 91
        0
 40
0.0
 10
0.0
 20
0.0
 30
0.0
332
84DB
 74
     2
 92
        0
 75
     0
  0
DIMASSOC
  5
8507
102
{ACAD_REACTORS
330
8506
102
}
330
8506
100
AcDbDimAssoc
330
8505
 90
        2
 70
     0
 71
     0
  1
AcDbOsnapPointRef
 72
     3
331
84DB
 73
     2
 91
        0
 40
0.0
 10
0.0
 20
0.0
 30
0.0
 75
     0
  0
DIMASSOC
  5
850F
102
{ACAD_REACTORS
330
850E
102
}
330
850E
100
AcDbDimAssoc
330
850D
 90
        2
 70
     0
 71
     0
  1
AcDbOsnapPointRef
 72
     1
331
84DF
 73
     2
 91
        0
 40
1.570796326794896
 10
0.0
 20
0.0
 30
2.000000000000000E+50
 75
     0
  0
DIMASSOC
  5
8517
102
{ACAD_REACTORS
330
8516
102
}
330
8516
100
AcDbDimAssoc
330
8515
 90
        2
 70
     0
 71
     0
  1
AcDbOsnapPointRef
 72
    13
331
84DA
 73
     2
 91
        0
 40
0.0
 10
0.0
 20
0.0
 30
2.000000000000000E+50
 75
     0
  0
DIMASSOC
  5
879C
102
{ACAD_REACTORS
330
879B
102
}
330
879B
100
AcDbDimAssoc
330
879A
 90
        3
 70
     0
 71
     0
  1
AcDbOsnapPointRef
 72
     1
331
876E
 73
     2
 91
        0
 40
1.0
 10
0.0
 20
0.0
 30
2.000000000000000E+50
 75
     0
  1
AcDbOsnapPointRef
 72
     1
331
8770
 73
     2
 91
        0
 40
1.0
 10
0.0
 20
0.0
 30
2.000000000000000E+50
 75
     0
  0
DIMASSOC
  5
879F
102
{ACAD_REACTORS
330
879E
102
}
330
879E
100
AcDbDimAssoc
330
879D
 90
        2
 70
     0
 71
     0
  1
AcDbOsnapPointRef
 72
     1
331
878D
 73
     2
 91
        0
 40
1.0
 10
0.0
 20
0.0
 30
2.000000000000000E+50
 75
     0
  0
DIMASSOC
  5
87A2
102
{ACAD_REACTORS
330
87A1
102
}
330
87A1
100
AcDbDimAssoc
330
87A0
 90
        3
 70
     0
 71
     0
  1
AcDbOsnapPointRef
 72
     1
331
876F
 73
     2
 91
        0
 40
1.0
 10
0.0
 20
0.0
 30
2.000000000000000E+50
 75
     0
  1
AcDbOsnapPointRef
 72
     2
331
8775
 73
     2
 91
        0
 40
1.570796326794896
 10
0.0
 20
0.0
 30
0.0
 75
     0
  0
DIMASSOC
  5
87A5
102
{ACAD_REACTORS
330
87A4
102
}
330
87A4
100
AcDbDimAssoc
330
87A3
 90
        2
 70
     0
 71
     0
  1
AcDbOsnapPointRef
 72
     1
331
8796
 73
     2
 91
        0
 40
1.0
 10
0.0
 20
0.0
 30
2.000000000000000E+50
 75
     0
  0
DIMASSOC
  5
87A8
102
{ACAD_REACTORS
330
87A7
102
}
330
87A7
100
AcDbDimAssoc
330
87A6
 90
        3
 70
     0
 71
     0
  1
AcDbOsnapPointRef
 72
    13
331
8774
 73
     2
 91
        0
 40
0.0
 10
0.0
 20
0.0
 30
2.000000000000000E+50
 75
     0
  1
AcDbOsnapPointRef
 72
    13
331
8773
 73
     2
 91
        0
 40
0.0
 10
0.0
 20
0.0
 30
2.000000000000000E+50
 75
     0
  0
DIMASSOC
  5
87AB
102
{ACAD_REACTORS
330
87AA
102
}
330
87AA
100
AcDbDimAssoc
330
87A9
 90
        2
 70
     0
 71
     0
  1
AcDbOsnapPointRef
 72
     3
331
8775
 73
     2
 91
        0
 40
0.0
 10
0.0
 20
0.0
 30
0.0
 75
     0
  0
DIMASSOC
  5
87AE
102
{ACAD_REACTORS
330
87AD
102
}
330
87AD
100
AcDbDimAssoc
330
87AC
 90
        1
 70
     0
 71
     0
  1
AcDbOsnapPointRef
 72
     1
331
878E
 73
     2
 91
        0
 40
1.0
 10
0.0
 20
0.0
 30
2.000000000000000E+50
 75
     0
  0
DIMASSOC
  5
87B4
102
{ACAD_REACTORS
330
87B3
102
}
330
87B3
100
AcDbDimAssoc
330
87B2
 90
        3
 70
     0
 71
     0
  1
AcDbOsnapPointRef
 72
    10
331
8771
 73
     2
 91
        0
 40
0.6321633286227423
 10
0.0
 20
0.0
 30
0.0
 75
     0
  1
AcDbOsnapPointRef
 72
    13
331
8798
 73
     2
 91
        0
 40
0.0
 10
0.0
 20
0.0
 30
2.000000000000000E+50
 75
     0
  0
XRECORD
  5
8847
102
{ACAD_REACTORS
330
8846
102
}
330
8846
100
AcDbXrecord
280
     1
 40
1.570796326794896
  0
ACDBDETAILVIEWSTYLE
  5
7E91
102
{ACAD_XDICTIONARY
360
835D
102
}
102
{ACAD_REACTORS
330
7E90
102
}
330
7E90
100
AcDbModelDocViewStyle
 70
     0
  3
Metric50
290
     0
100
AcDbDetailViewStyle
 70
     0
 71
     0
 90
        3
 71
     1
340
11
 62
   256
 40
5.0
340
0
 62
   256
 40
5.0
300

 40
0.0
280
     1
 71
     2
340
16
 90
       25
 62
   256
 71
     3
340
11
 62
   256
 40
5.0
 90
        0
 40
15.0
 90
        1
300
%<\AcVar ViewDetailId>% (%<\AcVar ViewScale \f "%sn">%)
 71
     4
340
16
 90
       25
 62
   256
340
16
 90
       25
 62
   256
280
     0
  0
LAYOUT
  5
22
102
{ACAD_REACTORS
330
1A
102
}
330
1A
100
AcDbPlotSettings
  1

  2
none_device
  4
ANSI_A_(8.50_x_11.00_Inches)
  6

 40
6.349999904632568
 41
19.04999923706055
 42
6.350006103515625
 43
19.04998779296875
 44
215.8999938964844
 45
279.3999938964844
 46
0.0
 47
0.0
 48
0.0
 49
0.0
140
0.0
141
0.0
142
1.0
143
78.436453180766
 70
 11952
 72
     0
 73
     1
 74
     0
  7
SHOWA.ctb
 75
     0
147
0.0127491741332998
 76
     0
 77
     2
 78
   300
148
0.0
149
0.0
100
AcDbLayout
  1
Model
 70
     1
 71
     0
 10
0.0
 20
0.0
 11
12.0
 21
9.0
 12
0.0
 22
0.0
 32
0.0
 14
0.0
 24
0.0
 34
0.0
 15
0.0
 25
0.0
 35
0.0
146
0.0
 13
0.0
 23
0.0
 33
0.0
 16
1.0
 26
0.0
 36
0.0
 17
0.0
 27
1.0
 37
0.0
 76
     0
330
1F
331
7E3A
  0
LAYOUT
  5
51
102
{ACAD_XDICTIONARY
360
29CE
102
}
102
{ACAD_REACTORS
330
1A
102
}
330
1A
100
AcDbPlotSettings
  1

  2
HP designjet 110
  4
User620
  6

 40
0.0
 41
0.16937255859375
 42
0.169342041015625
 43
0.0
 44
420.1159973144531
 45
594.1060180664062
 46
0.0
 47
0.0
 48
0.0
 49
0.0
140
0.0
141
0.0
142
1.0
143
1.0
 70
   688
 72
     1
 73
     1
 74
     5
  7
SHOWA.ctb
 75
    16
147
1.0
 76
     0
 77
     2
 78
   300
148
0.0
149
0.0
100
AcDbLayout
  1
ﾚｲｱｳﾄ1
 70
     1
 71
     1
 10
0.0
 20
0.0
 11
594.1060180664062
 21
420.1159973144531
 12
0.0
 22
0.0
 32
0.0
 14
0.0
 24
0.0
 34
0.0
 15
594.0
 25
420.0
 35
0.0
146
0.0
 13
0.0
 23
0.0
 33
0.0
 16
1.0
 26
0.0
 36
0.0
 17
0.0
 27
1.0
 37
0.0
 76
     0
330
50
331
6B
  0
LAYOUT
  5
56
102
{ACAD_XDICTIONARY
360
29D5
102
}
102
{ACAD_REACTORS
330
1A
102
}
330
1A
100
AcDbPlotSettings
  1

  2
LASERSHOT LBP-730
  4
A3
  6

 40
5.873749732971191
 41
5.746733665466308
 42
6.000732421875
 43
5.873748779296875
 44
296.9683227539062
 45
419.9889831542968
 46
0.0
 47
0.0
 48
488.9032378878416
 49
-2.276414387510897
140
700.793313719932
141
251.8619201678336
142
1.0
143
1.0
 70
   688
 72
     1
 73
     1
 74
     4
  7
SHOWA.ctb
 75
    16
147
1.0
 76
     0
 77
     2
 78
   300
148
-488.9032378878416
149
2.276414387510897
100
AcDbLayout
  1
ﾚｲｱｳﾄ2
 70
     1
 71
     2
 10
483.0294891085446
 20
-8.150164120482088
 11
903.0184722628415
 21
288.8181586334241
 12
0.0
 22
0.0
 32
0.0
 14
483.0
 24
-8.0
 34
0.0
 15
903.0
 25
289.0
 35
0.0
146
0.0
 13
0.0
 23
0.0
 33
0.0
 16
1.0
 26
0.0
 36
0.0
 17
0.0
 27
1.0
 37
0.0
 76
     0
330
55
331
71
  0
MATERIAL
  5
7E51
102
{ACAD_XDICTIONARY
360
7E52
102
}
102
{ACAD_REACTORS
330
99B
102
}
330
99B
100
AcDbMaterial
  1
ByBlock
 72
     0
 43
0.0008202099737533
 43
0.0
 43
0.0
 43
0.0
 43
0.0
 43
0.0008202099737533
 43
0.0
 43
0.0
 43
0.0
 43
0.0
 43
1.0
 43
0.0
 43
0.0
 43
0.0
 43
0.0
 43
1.0
 77
     0
 47
0.0008202099737533
 47
0.0
 47
0.0
 47
0.0
 47
0.0
 47
0.0008202099737533
 47
0.0
 47
0.0
 47
0.0
 47
0.0
 47
1.0
 47
0.0
 47
0.0
 47
0.0
 47
0.0
 47
1.0
171
     0
 49
0.0008202099737533
 49
0.0
 49
0.0
 49
0.0
 49
0.0
 49
0.0008202099737533
 49
0.0
 49
0.0
 49
0.0
 49
0.0
 49
1.0
 49
0.0
 49
0.0
 49
0.0
 49
0.0
 49
1.0
175
     0
142
0.0008202099737533
142
0.0
142
0.0
142
0.0
142
0.0
142
0.0008202099737533
142
0.0
142
0.0
142
0.0
142
0.0
142
1.0
142
0.0
142
0.0
142
0.0
142
0.0
142
1.0
179
     0
144
0.0008202099737533
144
0.0
144
0.0
144
0.0
144
0.0
144
0.0008202099737533
144
0.0
144
0.0
144
0.0
144
0.0
144
1.0
144
0.0
144
0.0
144
0.0
144
0.0
144
1.0
147
0.0008202099737533
147
0.0
147
0.0
147
0.0
147
0.0
147
0.0008202099737533
147
0.0
147
0.0
147
0.0
147
0.0
147
1.0
147
0.0
147
0.0
147
0.0
147
0.0
147
1.0
  0
MATERIAL
  5
7E49
102
{ACAD_XDICTIONARY
360
7E4A
102
}
102
{ACAD_REACTORS
330
99B
102
}
330
99B
100
AcDbMaterial
  1
ByLayer
 72
     0
 43
0.0008202099737533
 43
0.0
 43
0.0
 43
0.0
 43
0.0
 43
0.0008202099737533
 43
0.0
 43
0.0
 43
0.0
 43
0.0
 43
1.0
 43
0.0
 43
0.0
 43
0.0
 43
0.0
 43
1.0
 77
     0
 47
0.0008202099737533
 47
0.0
 47
0.0
 47
0.0
 47
0.0
 47
0.0008202099737533
 47
0.0
 47
0.0
 47
0.0
 47
0.0
 47
1.0
 47
0.0
 47
0.0
 47
0.0
 47
0.0
 47
1.0
171
     0
 49
0.0008202099737533
 49
0.0
 49
0.0
 49
0.0
 49
0.0
 49
0.0008202099737533
 49
0.0
 49
0.0
 49
0.0
 49
0.0
 49
1.0
 49
0.0
 49
0.0
 49
0.0
 49
0.0
 49
1.0
175
     0
142
0.0008202099737533
142
0.0
142
0.0
142
0.0
142
0.0
142
0.0008202099737533
142
0.0
142
0.0
142
0.0
142
0.0
142
1.0
142
0.0
142
0.0
142
0.0
142
0.0
142
1.0
179
     0
144
0.0008202099737533
144
0.0
144
0.0
144
0.0
144
0.0
144
0.0008202099737533
144
0.0
144
0.0
144
0.0
144
0.0
144
1.0
144
0.0
144
0.0
144
0.0
144
0.0
144
1.0
147
0.0008202099737533
147
0.0
147
0.0
147
0.0
147
0.0
147
0.0008202099737533
147
0.0
147
0.0
147
0.0
147
0.0
147
1.0
147
0.0
147
0.0
147
0.0
147
0.0
147
1.0
  0
MATERIAL
  5
7E59
102
{ACAD_XDICTIONARY
360
7E5A
102
}
102
{ACAD_REACTORS
330
99B
102
}
330
99B
100
AcDbMaterial
  1
Global
 72
     0
 43
0.0008202099737533
 43
0.0
 43
0.0
 43
0.0
 43
0.0
 43
0.0008202099737533
 43
0.0
 43
0.0
 43
0.0
 43
0.0
 43
1.0
 43
0.0
 43
0.0
 43
0.0
 43
0.0
 43
1.0
 77
     0
 47
0.0008202099737533
 47
0.0
 47
0.0
 47
0.0
 47
0.0
 47
0.0008202099737533
 47
0.0
 47
0.0
 47
0.0
 47
0.0
 47
1.0
 47
0.0
 47
0.0
 47
0.0
 47
0.0
 47
1.0
171
     0
 49
0.0008202099737533
 49
0.0
 49
0.0
 49
0.0
 49
0.0
 49
0.0008202099737533
 49
0.0
 49
0.0
 49
0.0
 49
0.0
 49
1.0
 49
0.0
 49
0.0
 49
0.0
 49
0.0
 49
1.0
175
     0
142
0.0008202099737533
142
0.0
142
0.0
142
0.0
142
0.0
142
0.0008202099737533
142
0.0
142
0.0
142
0.0
142
0.0
142
1.0
142
0.0
142
0.0
142
0.0
142
0.0
142
1.0
179
     0
144
0.0008202099737533
144
0.0
144
0.0
144
0.0
144
0.0
144
0.0008202099737533
144
0.0
144
0.0
144
0.0
144
0.0
144
1.0
144
0.0
144
0.0
144
0.0
144
0.0
144
1.0
147
0.0008202099737533
147
0.0
147
0.0
147
0.0
147
0.0
147
0.0008202099737533
147
0.0
147
0.0
147
0.0
147
0.0
147
1.0
147
0.0
147
0.0
147
0.0
147
0.0
147
1.0
  0
MLEADERSTYLE
  5
7E8D
102
{ACAD_XDICTIONARY
360
8886
102
}
102
{ACAD_REACTORS
330
7E8C
102
}
330
7E8C
100
AcDbMLeaderStyle
170
     2
171
     1
172
     0
 90
        2
 40
0.0
 41
0.0
173
     1
 91
-1056964608
340
14
 92
       -2
290
     1
 42
2.0
291
     1
 43
0.36
  3
Standard
 44
4.0
300

342
11
174
     1
178
     6
175
     1
176
     0
 93
-1056964608
 45
4.0
292
     0
297
     0
 46
4.0
 94
-1056964608
 47
1.0
 49
1.0
140
1.0
293
     1
141
0.0
294
     1
177
     0
142
1.0
295
     0
296
     0
143
0.125
1001
ACAD_MLEADERVER
1070
     2
  0
MLINESTYLE
  5
18
102
{ACAD_REACTORS
330
17
102
}
330
17
100
AcDbMlineStyle
  2
STANDARD
 70
     0
  3

 62
   256
 51
90.0
 52
90.0
 71
     2
 49
0.5
 62
   256
  6
BYLAYER
 49
-0.5
 62
   256
  6
BYLAYER
  0
ACDBPLACEHOLDER
  5
F
102
{ACAD_REACTORS
330
E
102
}
330
E
  0
SCALE
  5
7E7B
102
{ACAD_REACTORS
330
7E7A
102
}
330
7E7A
100
AcDbScale
 70
     0
300
1:1
140
1.0
141
1.0
290
     1
  0
SCALE
  5
7E7C
102
{ACAD_REACTORS
330
7E7A
102
}
330
7E7A
100
AcDbScale
 70
     0
300
1:2
140
1.0
141
2.0
290
     0
  0
SCALE
  5
7E7D
102
{ACAD_REACTORS
330
7E7A
102
}
330
7E7A
100
AcDbScale
 70
     0
300
1:4
140
1.0
141
4.0
290
     0
  0
SCALE
  5
7E7E
102
{ACAD_REACTORS
330
7E7A
102
}
330
7E7A
100
AcDbScale
 70
     0
300
1:5
140
1.0
141
5.0
290
     0
  0
SCALE
  5
7E7F
102
{ACAD_REACTORS
330
7E7A
102
}
330
7E7A
100
AcDbScale
 70
     0
300
1:8
140
1.0
141
8.0
290
     0
  0
SCALE
  5
7E80
102
{ACAD_REACTORS
330
7E7A
102
}
330
7E7A
100
AcDbScale
 70
     0
300
1:10
140
1.0
141
10.0
290
     0
  0
SCALE
  5
7E81
102
{ACAD_REACTORS
330
7E7A
102
}
330
7E7A
100
AcDbScale
 70
     0
300
1:16
140
1.0
141
16.0
290
     0
  0
SCALE
  5
7E82
102
{ACAD_REACTORS
330
7E7A
102
}
330
7E7A
100
AcDbScale
 70
     0
300
1:20
140
1.0
141
20.0
290
     0
  0
SCALE
  5
7E83
102
{ACAD_REACTORS
330
7E7A
102
}
330
7E7A
100
AcDbScale
 70
     0
300
1:30
140
1.0
141
30.0
290
     0
  0
SCALE
  5
7E84
102
{ACAD_REACTORS
330
7E7A
102
}
330
7E7A
100
AcDbScale
 70
     0
300
1:40
140
1.0
141
40.0
290
     0
  0
SCALE
  5
7E85
102
{ACAD_REACTORS
330
7E7A
102
}
330
7E7A
100
AcDbScale
 70
     0
300
1:50
140
1.0
141
50.0
290
     0
  0
SCALE
  5
7E86
102
{ACAD_REACTORS
330
7E7A
102
}
330
7E7A
100
AcDbScale
 70
     0
300
1:100
140
1.0
141
100.0
290
     0
  0
SCALE
  5
7E87
102
{ACAD_REACTORS
330
7E7A
102
}
330
7E7A
100
AcDbScale
 70
     0
300
2:1
140
2.0
141
1.0
290
     0
  0
SCALE
  5
7E88
102
{ACAD_REACTORS
330
7E7A
102
}
330
7E7A
100
AcDbScale
 70
     0
300
4:1
140
4.0
141
1.0
290
     0
  0
SCALE
  5
7E89
102
{ACAD_REACTORS
330
7E7A
102
}
330
7E7A
100
AcDbScale
 70
     0
300
8:1
140
8.0
141
1.0
290
     0
  0
SCALE
  5
7E8A
102
{ACAD_REACTORS
330
7E7A
102
}
330
7E7A
100
AcDbScale
 70
     0
300
10:1
140
10.0
141
1.0
290
     0
  0
SCALE
  5
7E8B
102
{ACAD_REACTORS
330
7E7A
102
}
330
7E7A
100
AcDbScale
 70
     0
300
100:1
140
100.0
141
1.0
290
     0
  0
ACDBSECTIONVIEWSTYLE
  5
7E8F
102
{ACAD_XDICTIONARY
360
835B
102
}
102
{ACAD_REACTORS
330
7E8E
102
}
330
7E8E
100
AcDbModelDocViewStyle
 70
     0
  3
Metric50
290
     0
100
AcDbSectionViewStyle
 70
     0
 71
     0
 90
      102
 71
     1
340
11
 62
   256
 40
5.0
340
0
340
0
 62
   256
 40
5.0
300
I, O, Q, S, X, Z
 40
10.0
 90
        0
 40
2.5
 90
        0
 71
     2
340
16
 90
       25
 62
   256
340
16
 90
       50
 62
   256
 40
5.0
 40
2.5
 40
5.0
 71
     3
340
11
 62
   256
 40
5.0
 90
        0
 40
15.0
 90
        1
300
%<\AcVar ViewSectionStartId>%-%<\AcVar ViewSectionEndId>% (%<\AcVar ViewScale \f "%sn">%)
 71
     4
 62
   256
 62
   257
300
ANSI31
 40
1.0
 90
        0
290
     0
290
     0
 90
        6
 40
0.0
 40
1.570796326794896
 40
0.2617993877991494
 40
1.308996938995747
 40
-0.2617993877991494
 40
1.832595714594046
  0
TABLESTYLE
  5
99E
102
{ACAD_XDICTIONARY
360
8843
102
}
102
{ACAD_REACTORS
330
99D
102
}
330
99D
100
AcDbTableStyle
  3
Standard
 70
     0
 71
     0
 40
1.5
 41
1.5
280
     0
281
     0
  7
Standard
140
4.5
170
     2
 62
     0
 63
     7
283
     0
274
    -2
284
     1
 64
     0
275
    -2
285
     1
 65
     0
276
    -2
286
     1
 66
     0
277
    -2
287
     1
 67
     0
278
    -2
288
     1
 68
     0
279
    -2
289
     1
 69
     0
  7
Standard
140
6.0
170
     5
 62
     0
 63
     7
283
     0
274
    -2
284
     1
 64
     0
275
    -2
285
     1
 65
     0
276
    -2
286
     1
 66
     0
277
    -2
287
     1
 67
     0
278
    -2
288
     1
 68
     0
279
    -2
289
     1
 69
     0
  7
Standard
140
4.5
170
     5
 62
     0
 63
     7
283
     0
274
    -2
284
     1
 64
     0
275
    -2
285
     1
 65
     0
276
    -2
286
     1
 66
     0
277
    -2
287
     1
 67
     0
278
    -2
288
     1
 68
     0
279
    -2
289
     1
 69
     0
  0
VISUALSTYLE
  5
7E67
102
{ACAD_XDICTIONARY
360
885F
102
}
102
{ACAD_REACTORS
330
7E61
102
}
330
7E61
100
AcDbVisualStyle
  2
2dWireframe
 70
     4
 71
     0
 72
     2
 73
     0
 90
        0
 40
-0.6
 41
-30.0
 62
     5
 63
     7
421
 16777215
 74
     1
 91
        4
 64
     7
 65
   257
 75
     1
175
     1
 42
1.0
 92
        0
 66
   257
 43
1.0
 76
     1
 77
     6
 78
     2
 67
     7
 79
     5
170
     0
171
     0
290
     0
174
     0
 93
        1
 44
0.0
173
     0
291
     0
 45
0.0
1001
ACAD
1000
AcDbSavedByObjectVersion
1070
     0
  0
VISUALSTYLE
  5
7E66
102
{ACAD_XDICTIONARY
360
885D
102
}
102
{ACAD_REACTORS
330
7E61
102
}
330
7E61
100
AcDbVisualStyle
  2
Basic
 70
     7
 71
     1
 72
     0
 73
     1
 90
        0
 40
-0.6
 41
-30.0
 62
     5
 63
     7
421
 16777215
 74
     0
 91
        4
 64
     7
 65
   257
 75
     1
175
     1
 42
1.0
 92
        8
 66
     7
 43
1.0
 76
     1
 77
     6
 78
     2
 67
     7
 79
     5
170
     0
171
     0
290
     0
174
     0
 93
        1
 44
0.0
173
     0
291
     1
 45
0.0
1001
ACAD
1000
AcDbSavedByObjectVersion
1070
     0
  0
VISUALSTYLE
  5
7E6D
102
{ACAD_XDICTIONARY
360
886B
102
}
102
{ACAD_REACTORS
330
7E61
102
}
330
7E61
100
AcDbVisualStyle
  2
Brighten
 70
    12
 71
     2
 72
     2
 73
     0
 90
        0
 40
-0.6
 41
-30.0
 62
     5
 63
     7
421
 16777215
 74
     1
 91
        4
 64
     7
 65
   257
 75
     1
175
     1
 42
1.0
 92
        8
 66
     7
 43
1.0
 76
     1
 77
     6
 78
     2
 67
     7
 79
     5
170
     0
171
     0
290
     0
174
     0
 93
        1
 44
50.0
173
     0
291
     1
 45
0.0
1001
ACAD
1000
AcDbSavedByObjectVersion
1070
     0
  0
VISUALSTYLE
  5
7E71
102
{ACAD_XDICTIONARY
360
8873
102
}
102
{ACAD_REACTORS
330
7E61
102
}
330
7E61
100
AcDbVisualStyle
  2
ColorChange
 70
    16
 71
     2
 72
     2
 73
     3
 90
        0
 40
-0.6
 41
-30.0
 62
     5
 63
     8
421
  8421504
 74
     1
 91
        4
 64
     7
 65
   257
 75
     1
175
     1
 42
1.0
 92
        8
 66
     8
424
  8421504
 43
1.0
 76
     1
 77
     6
 78
     2
 67
     7
 79
     5
170
     0
171
     0
290
     0
174
     0
 93
        1
 44
0.0
173
     0
291
     1
 45
0.0
1001
ACAD
1000
AcDbSavedByObjectVersion
1070
     0
  0
VISUALSTYLE
  5
7E6A
102
{ACAD_XDICTIONARY
360
8865
102
}
102
{ACAD_REACTORS
330
7E61
102
}
330
7E61
100
AcDbVisualStyle
  2
Conceptual
 70
     9
 71
     3
 72
     2
 73
     0
 90
        0
 40
-0.6
 41
-30.0
 62
     5
 63
     7
421
 16777215
 74
     2
 91
        2
 64
     7
 65
   257
 75
     1
175
     1
 42
179.0
 92
        8
 66
     7
 43
1.0
 76
     1
 77
     6
 78
     2
 67
     7
 79
     3
170
     0
171
     0
290
     0
174
     0
 93
        1
 44
0.0
173
     0
291
     0
 45
0.0
1001
ACAD
1000
AcDbSavedByObjectVersion
1070
     0
  0
VISUALSTYLE
  5
7E6C
102
{ACAD_XDICTIONARY
360
8869
102
}
102
{ACAD_REACTORS
330
7E61
102
}
330
7E61
100
AcDbVisualStyle
  2
Dim
 70
    11
 71
     2
 72
     2
 73
     0
 90
        0
 40
-0.6
 41
-30.0
 62
     5
 63
     7
421
 16777215
 74
     1
 91
        4
 64
     7
 65
   257
 75
     1
175
     1
 42
1.0
 92
        8
 66
     7
 43
1.0
 76
     1
 77
     6
 78
     2
 67
     7
 79
     5
170
     0
171
     0
290
     0
174
     0
 93
        1
 44
-50.0
173
     0
291
     1
 45
0.0
1001
ACAD
1000
AcDbSavedByObjectVersion
1070
     0
  0
VISUALSTYLE
  5
7E79
102
{ACAD_XDICTIONARY
360
8883
102
}
102
{ACAD_REACTORS
330
7E61
102
}
330
7E61
100
AcDbVisualStyle
  2
EdgeColorOff
 70
    22
 71
     2
 72
     2
 73
     0
 90
        0
 40
-0.6
 41
-30.0
 62
     5
 63
     7
421
 16777215
 74
     1
 91
        4
 64
     7
 65
   257
 75
     1
175
     1
 42
1.0
 92
        8
 66
     7
 43
1.0
 76
     1
 77
     6
 78
     2
 67
     7
 79
     5
170
     0
171
     0
290
     0
174
     0
 93
        1
 44
0.0
173
     0
291
     1
 45
0.0
1001
ACAD
1000
AcDbSavedByObjectVersion
1070
     0
  0
VISUALSTYLE
  5
7E70
102
{ACAD_XDICTIONARY
360
8871
102
}
102
{ACAD_REACTORS
330
7E61
102
}
330
7E61
100
AcDbVisualStyle
  2
Facepattern
 70
    15
 71
     2
 72
     2
 73
     0
 90
        0
 40
-0.6
 41
-30.0
 62
     5
 63
     7
421
 16777215
 74
     1
 91
        4
 64
     7
 65
   257
 75
     1
175
     1
 42
1.0
 92
        8
 66
     7
 43
1.0
 76
     1
 77
     6
 78
     2
 67
     7
 79
     5
170
     0
171
     0
290
     0
174
     0
 93
        1
 44
0.0
173
     0
291
     1
 45
0.0
1001
ACAD
1000
AcDbSavedByObjectVersion
1070
     0
  0
VISUALSTYLE
  5
7E62
102
{ACAD_XDICTIONARY
360
8855
102
}
102
{ACAD_REACTORS
330
7E61
102
}
330
7E61
100
AcDbVisualStyle
  2
Flat
 70
     0
 71
     2
 72
     1
 73
     1
 90
        2
 40
-0.6
 41
30.0
 62
     5
 63
     7
421
 16777215
 74
     0
 91
        0
 64
     7
 65
   257
 75
     1
175
     1
 42
1.0
 92
        8
 66
     7
 43
1.0
 76
     1
 77
     6
 78
     2
 67
     7
 79
     5
170
     0
171
     0
290
     0
174
     0
 93
       13
 44
0.0
173
     0
291
     1
 45
0.0
1001
ACAD
1000
AcDbSavedByObjectVersion
1070
     0
  0
VISUALSTYLE
  5
7E63
102
{ACAD_XDICTIONARY
360
8857
102
}
102
{ACAD_REACTORS
330
7E61
102
}
330
7E61
100
AcDbVisualStyle
  2
FlatWithEdges
 70
     1
 71
     2
 72
     1
 73
     1
 90
        2
 40
-0.6
 41
30.0
 62
     5
 63
     7
421
 16777215
 74
     1
 91
        0
 64
     7
 65
   257
 75
     1
175
     1
 42
1.0
 92
        0
 66
   257
 43
1.0
 76
     1
 77
     6
 78
     2
 67
     7
 79
     5
170
     0
171
     0
290
     0
174
     0
 93
       13
 44
0.0
173
     0
291
     1
 45
0.0
1001
ACAD
1000
AcDbSavedByObjectVersion
1070
     0
  0
VISUALSTYLE
  5
7E64
102
{ACAD_XDICTIONARY
360
8859
102
}
102
{ACAD_REACTORS
330
7E61
102
}
330
7E61
100
AcDbVisualStyle
  2
Gouraud
 70
     2
 71
     2
 72
     2
 73
     1
 90
        2
 40
-0.6
 41
30.0
 62
     5
 63
     7
421
 16777215
 74
     0
 91
        0
 64
     7
 65
   257
 75
     1
175
     1
 42
1.0
 92
        0
 66
     7
 43
1.0
 76
     1
 77
     6
 78
     2
 67
     7
 79
     5
170
     0
171
     0
290
     0
174
     0
 93
       13
 44
0.0
173
     0
291
     1
 45
0.0
1001
ACAD
1000
AcDbSavedByObjectVersion
1070
     0
  0
VISUALSTYLE
  5
7E65
102
{ACAD_XDICTIONARY
360
885B
102
}
102
{ACAD_REACTORS
330
7E61
102
}
330
7E61
100
AcDbVisualStyle
  2
GouraudWithEdges
 70
     3
 71
     2
 72
     2
 73
     1
 90
        2
 40
-0.6
 41
30.0
 62
     5
 63
     7
421
 16777215
 74
     1
 91
        0
 64
     7
 65
   257
 75
     1
175
     1
 42
1.0
 92
        0
 66
   257
 43
1.0
 76
     1
 77
     6
 78
     2
 67
     7
 79
     5
170
     0
171
     0
290
     0
174
     0
 93
       13
 44
0.0
173
     0
291
     1
 45
0.0
1001
ACAD
1000
AcDbSavedByObjectVersion
1070
     0
  0
VISUALSTYLE
  5
7E69
102
{ACAD_XDICTIONARY
360
8863
102
}
102
{ACAD_REACTORS
330
7E61
102
}
330
7E61
100
AcDbVisualStyle
  2
Hidden
 70
     6
 71
     1
 72
     2
 73
     2
 90
        0
 40
-0.6
 41
-30.0
 62
     5
 63
     7
421
 16777215
 74
     2
 91
        2
 64
     7
 65
   257
 75
     2
175
     1
 42
40.0
 92
        0
 66
   257
 43
1.0
 76
     1
 77
     6
 78
     2
 67
     7
 79
     3
170
     0
171
     0
290
     0
174
     0
 93
        1
 44
0.0
173
     0
291
     0
 45
0.0
1001
ACAD
1000
AcDbSavedByObjectVersion
1070
     0
  0
VISUALSTYLE
  5
7E77
102
{ACAD_XDICTIONARY
360
887F
102
}
102
{ACAD_REACTORS
330
7E61
102
}
330
7E61
100
AcDbVisualStyle
  2
JitterOff
 70
    20
 71
     2
 72
     2
 73
     0
 90
        0
 40
-0.6
 41
-30.0
 62
     5
 63
     7
421
 16777215
 74
     1
 91
        4
 64
     7
 65
   257
 75
     1
175
     1
 42
1.0
 92
       10
 66
     7
 43
1.0
 76
     1
 77
     6
 78
     2
 67
     7
 79
     5
170
     0
171
     0
290
     0
174
     0
 93
        1
 44
0.0
173
     0
291
     1
 45
0.0
1001
ACAD
1000
AcDbSavedByObjectVersion
1070
     0
  0
VISUALSTYLE
  5
7E6F
102
{ACAD_XDICTIONARY
360
886F
102
}
102
{ACAD_REACTORS
330
7E61
102
}
330
7E61
100
AcDbVisualStyle
  2
Linepattern
 70
    14
 71
     2
 72
     2
 73
     0
 90
        0
 40
-0.6
 41
-30.0
 62
     5
 63
     7
421
 16777215
 74
     1
 91
        4
 64
     7
 65
   257
 75
     7
175
     7
 42
1.0
 92
        8
 66
     7
 43
1.0
 76
     1
 77
     6
 78
     2
 67
     7
 79
     5
170
     0
171
     0
290
     0
174
     0
 93
        1
 44
0.0
173
     0
291
     1
 45
0.0
1001
ACAD
1000
AcDbSavedByObjectVersion
1070
     0
  0
VISUALSTYLE
  5
7E78
102
{ACAD_XDICTIONARY
360
8881
102
}
102
{ACAD_REACTORS
330
7E61
102
}
330
7E61
100
AcDbVisualStyle
  2
OverhangOff
 70
    21
 71
     2
 72
     2
 73
     0
 90
        0
 40
-0.6
 41
-30.0
 62
     5
 63
     7
421
 16777215
 74
     1
 91
        4
 64
     7
 65
   257
 75
     1
175
     1
 42
1.0
 92
        9
 66
     7
 43
1.0
 76
     1
 77
     6
 78
     2
 67
     7
 79
     5
170
     0
171
     0
290
     0
174
     0
 93
        1
 44
0.0
173
     0
291
     1
 45
0.0
1001
ACAD
1000
AcDbSavedByObjectVersion
1070
     0
  0
VISUALSTYLE
  5
7E6B
102
{ACAD_XDICTIONARY
360
8867
102
}
102
{ACAD_REACTORS
330
7E61
102
}
330
7E61
100
AcDbVisualStyle
  2
Realistic
 70
     8
 71
     2
 72
     3
 73
     0
 90
        2
 40
-0.6
 41
30.0
 62
     5
 63
     7
421
 16777215
 74
     0
 91
        0
 64
     7
 65
   257
 75
     1
175
     1
 42
1.0
 92
        8
 66
   257
 43
1.0
 76
     1
 77
     6
 78
     2
 67
     7
 79
     3
170
     0
171
     0
290
     0
174
     0
 93
       13
 44
0.0
173
     0
291
     0
 45
0.0
1001
ACAD
1000
AcDbSavedByObjectVersion
1070
     0
  0
VISUALSTYLE
  5
7E76
102
{ACAD_XDICTIONARY
360
887D
102
}
102
{ACAD_REACTORS
330
7E61
102
}
330
7E61
100
AcDbVisualStyle
  2
Shaded
 70
    27
 71
     2
 72
     2
 73
     1
 90
        2
 40
-0.6
 41
30.0
 62
     5
 63
     7
421
 16777215
 74
     0
 91
        4
 64
     7
 65
   257
 75
     1
175
     1
 42
1.0
 92
        8
 66
   257
 43
1.0
 76
     1
 77
     6
 78
     2
 67
     8
425
  7895160
 79
     3
170
     0
171
     0
290
     0
174
     0
 93
        5
 44
0.0
173
     0
291
     0
 45
0.0
1001
ACAD
1000
AcDbSavedByObjectVersion
1070
     0
  0
VISUALSTYLE
  5
7E75
102
{ACAD_XDICTIONARY
360
887B
102
}
102
{ACAD_REACTORS
330
7E61
102
}
330
7E61
100
AcDbVisualStyle
  2
Shaded with edges
 70
    26
 71
     2
 72
     2
 73
     1
 90
        2
 40
-0.6
 41
30.0
 62
     5
 63
     7
421
 16777215
 74
     1
 91
       10
 64
     7
 65
   257
 75
     2
175
     1
 42
1.0
 92
        8
 66
   257
 43
1.0
 76
     1
 77
     6
 78
     2
 67
     7
 79
     3
170
     0
171
     0
290
     0
174
     0
 93
        5
 44
0.0
173
     0
291
     0
 45
0.0
1001
ACAD
1000
AcDbSavedByObjectVersion
1070
     0
  0
VISUALSTYLE
  5
7E72
102
{ACAD_XDICTIONARY
360
8875
102
}
102
{ACAD_REACTORS
330
7E61
102
}
330
7E61
100
AcDbVisualStyle
  2
Shades of Gray
 70
    23
 71
     2
 72
     2
 73
     3
 90
        0
 40
-0.6
 41
-30.0
 62
     5
 63
     7
421
 16777215
 74
     2
 91
        2
 64
     7
 65
     7
 75
     1
175
     1
 42
40.0
 92
        8
 66
     7
 43
1.0
 76
     1
 77
     6
 78
     2
 67
     7
 79
     3
170
     0
171
     0
290
     0
174
     0
 93
        1
 44
0.0
173
     0
291
     0
 45
0.0
1001
ACAD
1000
AcDbSavedByObjectVersion
1070
     0
  0
VISUALSTYLE
  5
7E73
102
{ACAD_XDICTIONARY
360
8877
102
}
102
{ACAD_REACTORS
330
7E61
102
}
330
7E61
100
AcDbVisualStyle
  2
Sketchy
 70
    24
 71
     1
 72
     2
 73
     2
 90
        0
 40
-0.6
 41
-30.0
 62
     5
 63
     7
421
 16777215
 74
     2
 91
        2
 64
     7
 65
     7
 75
     1
175
     1
 42
40.0
 92
       11
 66
     7
 43
1.0
 76
     1
 77
     6
 78
     2
 67
     7
 79
     6
170
     0
171
     0
290
     0
174
     0
 93
        1
 44
0.0
173
     0
291
     0
 45
0.0
1001
ACAD
1000
AcDbSavedByObjectVersion
1070
     0
  0
VISUALSTYLE
  5
7E6E
102
{ACAD_XDICTIONARY
360
886D
102
}
102
{ACAD_REACTORS
330
7E61
102
}
330
7E61
100
AcDbVisualStyle
  2
Thicken
 70
    13
 71
     2
 72
     2
 73
     0
 90
        0
 40
-0.6
 41
-30.0
 62
     5
 63
     7
421
 16777215
 74
     1
 91
        4
 64
     7
 65
   257
 75
     1
175
     1
 42
1.0
 92
       12
 66
     7
 43
1.0
 76
     1
 77
     6
 78
     2
 67
     7
 79
     5
170
     0
171
     0
290
     0
174
     0
 93
        1
 44
0.0
173
     0
291
     1
 45
0.0
1001
ACAD
1000
AcDbSavedByObjectVersion
1070
     0
  0
VISUALSTYLE
  5
7E68
102
{ACAD_XDICTIONARY
360
8861
102
}
102
{ACAD_REACTORS
330
7E61
102
}
330
7E61
100
AcDbVisualStyle
  2
Wireframe
 70
     5
 71
     0
 72
     2
 73
     0
 90
        0
 40
-0.6
 41
-30.0
 62
     5
 63
     7
421
 16777215
 74
     1
 91
        4
 64
     7
 65
   257
 75
     1
175
     1
 42
1.0
 92
        0
 66
   257
 43
1.0
 76
     1
 77
     6
 78
     2
 67
     7
 79
     3
170
     0
171
     0
290
     0
174
     0
 93
        1
 44
0.0
173
     0
291
     0
 45
0.0
1001
ACAD
1000
AcDbSavedByObjectVersion
1070
     0
  0
VISUALSTYLE
  5
7E74
102
{ACAD_XDICTIONARY
360
8879
102
}
102
{ACAD_REACTORS
330
7E61
102
}
330
7E61
100
AcDbVisualStyle
  2
X-Ray
 70
    25
 71
     2
 72
     2
 73
     1
 90
        1
 40
0.5
 41
-30.0
 62
     5
 63
     7
421
 16777215
 74
     1
 91
        0
 64
     7
 65
   257
 75
     1
175
     1
 42
1.0
 92
        8
 66
     7
 43
1.0
 76
     1
 77
     6
 78
     2
 67
     7
 79
     3
170
     0
171
     0
290
     0
174
     0
 93
       13
 44
0.0
173
     0
291
     0
 45
0.0
1001
ACAD
1000
AcDbSavedByObjectVersion
1070
     0
  0
DICTIONARYVAR
  5
8364
102
{ACAD_REACTORS
330
5E
102
}
330
5E
100
DictionaryVariables
280
     0
  1
1:1
  0
DICTIONARYVAR
  5
8360
102
{ACAD_REACTORS
330
5E
102
}
330
5E
100
DictionaryVariables
280
     0
  1
STANDARD
  0
DICTIONARYVAR
  5
9B4
102
{ACAD_REACTORS
330
5E
102
}
330
5E
100
DictionaryVariables
280
     0
  1
STANDARD
  0
DICTIONARYVAR
  5
8361
102
{ACAD_REACTORS
330
5E
102
}
330
5E
100
DictionaryVariables
280
     0
  1
Metric50
  0
DICTIONARYVAR
  5
8362
102
{ACAD_REACTORS
330
5E
102
}
330
5E
100
DictionaryVariables
280
     0
  1
Metric50
  0
DICTIONARYVAR
  5
5F
102
{ACAD_REACTORS
330
5E
102
}
330
5E
100
DictionaryVariables
280
     0
  1
2
  0
DICTIONARYVAR
  5
63
102
{ACAD_REACTORS
330
5E
102
}
330
5E
100
DictionaryVariables
280
     0
  1
1
  0
DICTIONARYVAR
  5
8366
102
{ACAD_REACTORS
330
5E
102
}
330
5E
100
DictionaryVariables
280
     0
  1
1
  0
DICTIONARYVAR
  5
8367
102
{ACAD_REACTORS
330
5E
102
}
330
5E
100
DictionaryVariables
280
     0
  1
15
  0
DICTIONARYVAR
  5
8365
102
{ACAD_REACTORS
330
5E
102
}
330
5E
100
DictionaryVariables
280
     0
  1
0
  0
DICTIONARYVAR
  5
8363
102
{ACAD_REACTORS
330
5E
102
}
330
5E
100
DictionaryVariables
280
     0
  1
0
  0
DICTIONARYVAR
  5
9B5
102
{ACAD_REACTORS
330
5E
102
}
330
5E
100
DictionaryVariables
280
     0
  1

  0
DICTIONARYVAR
  5
8842
102
{ACAD_REACTORS
330
5E
102
}
330
5E
100
DictionaryVariables
280
     0
  1
2
  0
DICTIONARY
  5
8850
102
{ACAD_REACTORS
330
884E
102
}
330
884E
100
AcDbDictionary
281
     1
  0
DICTIONARY
  5
884F
102
{ACAD_REACTORS
330
884E
102
}
330
884E
100
AcDbDictionary
281
     1
  3
2118827008
350
8848
  3
2118827016
350
8849
  3
2118827024
350
884A
  3
2118827032
350
884B
  3
2118827040
350
884C
  3
2118827048
350
884D
  0
DICTIONARY
  5
835D
330
7E91
100
AcDbDictionary
280
     1
281
     1
  3
ACAD_XREC_ROUNDTRIP
360
8889
  0
DICTIONARY
  5
29CE
330
51
100
AcDbDictionary
280
     1
281
     1
  0
DICTIONARY
  5
29D5
330
56
100
AcDbDictionary
280
     1
281
     1
  0
DICTIONARY
  5
7E52
330
7E51
100
AcDbDictionary
280
     1
281
     1
  3
ACAD_XREC_ROUNDTRIP
360
8853
  3
BUMPTILE
360
7E54
  3
DIFFUSETILE
360
7E53
  3
OPACITYTILE
360
7E57
  3
REFLECTIONTILE
360
7E56
  3
REFRACTIONTILE
360
7E58
  3
SPECULARTILE
360
7E55
  0
DICTIONARY
  5
7E4A
330
7E49
100
AcDbDictionary
280
     1
281
     1
  3
ACAD_XREC_ROUNDTRIP
360
8852
  3
BUMPTILE
360
7E4C
  3
DIFFUSETILE
360
7E4B
  3
OPACITYTILE
360
7E4F
  3
REFLECTIONTILE
360
7E4E
  3
REFRACTIONTILE
360
7E50
  3
SPECULARTILE
360
7E4D
  0
DICTIONARY
  5
7E5A
330
7E59
100
AcDbDictionary
280
     1
281
     1
  3
ACAD_XREC_ROUNDTRIP
360
8854
  3
BUMPTILE
360
7E5C
  3
DIFFUSETILE
360
7E5B
  3
OPACITYTILE
360
7E5F
  3
REFLECTIONTILE
360
7E5E
  3
REFRACTIONTILE
360
7E60
  3
SPECULARTILE
360
7E5D
  0
DICTIONARY
  5
8886
330
7E8D
100
AcDbDictionary
280
     1
281
     1
  3
ACAD_XREC_ROUNDTRIP
360
8887
  0
DICTIONARY
  5
835B
330
7E8F
100
AcDbDictionary
280
     1
281
     1
  3
ACAD_XREC_ROUNDTRIP
360
8888
  0
DICTIONARY
  5
8843
330
99E
100
AcDbDictionary
280
     1
281
     1
  3
ACAD_ROUNDTRIP_2008_TABLESTYLE_CELLSTYLEMAP
360
8844
  3
ACAD_XREC_ROUNDTRIP
360
8851
  0
DICTIONARY
  5
885F
330
7E67
100
AcDbDictionary
280
     1
281
     1
  3
ACAD_XREC_ROUNDTRIP
360
8860
  0
DICTIONARY
  5
885D
330
7E66
100
AcDbDictionary
280
     1
281
     1
  3
ACAD_XREC_ROUNDTRIP
360
885E
  0
DICTIONARY
  5
886B
330
7E6D
100
AcDbDictionary
280
     1
281
     1
  3
ACAD_XREC_ROUNDTRIP
360
886C
  0
DICTIONARY
  5
8873
330
7E71
100
AcDbDictionary
280
     1
281
     1
  3
ACAD_XREC_ROUNDTRIP
360
8874
  0
DICTIONARY
  5
8865
330
7E6A
100
AcDbDictionary
280
     1
281
     1
  3
ACAD_XREC_ROUNDTRIP
360
8866
  0
DICTIONARY
  5
8869
330
7E6C
100
AcDbDictionary
280
     1
281
     1
  3
ACAD_XREC_ROUNDTRIP
360
886A
  0
DICTIONARY
  5
8883
330
7E79
100
AcDbDictionary
280
     1
281
     1
  3
ACAD_XREC_ROUNDTRIP
360
8884
  0
DICTIONARY
  5
8871
330
7E70
100
AcDbDictionary
280
     1
281
     1
  3
ACAD_XREC_ROUNDTRIP
360
8872
  0
DICTIONARY
  5
8855
330
7E62
100
AcDbDictionary
280
     1
281
     1
  3
ACAD_XREC_ROUNDTRIP
360
8856
  0
DICTIONARY
  5
8857
330
7E63
100
AcDbDictionary
280
     1
281
     1
  3
ACAD_XREC_ROUNDTRIP
360
8858
  0
DICTIONARY
  5
8859
330
7E64
100
AcDbDictionary
280
     1
281
     1
  3
ACAD_XREC_ROUNDTRIP
360
885A
  0
DICTIONARY
  5
885B
330
7E65
100
AcDbDictionary
280
     1
281
     1
  3
ACAD_XREC_ROUNDTRIP
360
885C
  0
DICTIONARY
  5
8863
330
7E69
100
AcDbDictionary
280
     1
281
     1
  3
ACAD_XREC_ROUNDTRIP
360
8864
  0
DICTIONARY
  5
887F
330
7E77
100
AcDbDictionary
280
     1
281
     1
  3
ACAD_XREC_ROUNDTRIP
360
8880
  0
DICTIONARY
  5
886F
330
7E6F
100
AcDbDictionary
280
     1
281
     1
  3
ACAD_XREC_ROUNDTRIP
360
8870
  0
DICTIONARY
  5
8881
330
7E78
100
AcDbDictionary
280
     1
281
     1
  3
ACAD_XREC_ROUNDTRIP
360
8882
  0
DICTIONARY
  5
8867
330
7E6B
100
AcDbDictionary
280
     1
281
     1
  3
ACAD_XREC_ROUNDTRIP
360
8868
  0
DICTIONARY
  5
887D
330
7E76
100
AcDbDictionary
280
     1
281
     1
  3
ACAD_XREC_ROUNDTRIP
360
887E
  0
DICTIONARY
  5
887B
330
7E75
100
AcDbDictionary
280
     1
281
     1
  3
ACAD_XREC_ROUNDTRIP
360
887C
  0
DICTIONARY
  5
8875
330
7E72
100
AcDbDictionary
280
     1
281
     1
  3
ACAD_XREC_ROUNDTRIP
360
8876
  0
DICTIONARY
  5
8877
330
7E73
100
AcDbDictionary
280
     1
281
     1
  3
ACAD_XREC_ROUNDTRIP
360
8878
  0
DICTIONARY
  5
886D
330
7E6E
100
AcDbDictionary
280
     1
281
     1
  3
ACAD_XREC_ROUNDTRIP
360
886E
  0
DICTIONARY
  5
8861
330
7E68
100
AcDbDictionary
280
     1
281
     1
  3
ACAD_XREC_ROUNDTRIP
360
8862
  0
DICTIONARY
  5
8879
330
7E74
100
AcDbDictionary
280
     1
281
     1
  3
ACAD_XREC_ROUNDTRIP
360
887A
  0
XRECORD
  5
8848
102
{ACAD_REACTORS
330
884F
102
}
330
884F
100
AcDbXrecord
280
     1
  1
AcDb3DSolid_ASM_Data
102
{ATTRRECORD
341
884A
  2
AcDbDs::TreatedAsObjectData
280
     1
291
     1
102
ATTRRECORD}
102
{ATTRRECORD
341
884B
  2
AcDbDs::Legacy
280
     1
291
     1
102
ATTRRECORD}
  2
AcDbDs::ID
280
    10
 91
        8
102
{ATTRRECORD
341
884C
  2
AcDs:Indexable
280
     1
291
     1
102
ATTRRECORD}
102
{ATTRRECORD
341
884D
  2
AcDbDs::HandleAttribute
280
     7
282
     1
102
ATTRRECORD}
  2
ASM_Data
280
    15
 91
        0
  0
XRECORD
  5
8849
102
{ACAD_REACTORS
330
884F
102
}
330
884F
100
AcDbXrecord
280
     1
  1
AcDb_Thumbnail_Schema
102
{ATTRRECORD
341
884A
  2
AcDbDs::TreatedAsObjectData
280
     1
291
     1
102
ATTRRECORD}
102
{ATTRRECORD
341
884B
  2
AcDbDs::Legacy
280
     1
291
     1
102
ATTRRECORD}
  2
AcDbDs::ID
280
    10
 91
        8
102
{ATTRRECORD
341
884C
  2
AcDs:Indexable
280
     1
291
     1
102
ATTRRECORD}
102
{ATTRRECORD
341
884D
  2
AcDbDs::HandleAttribute
280
     7
282
     1
102
ATTRRECORD}
  2
Thumbnail_Data
280
    15
 91
        0
  0
XRECORD
  5
884A
102
{ACAD_REACTORS
330
884F
102
}
330
884F
100
AcDbXrecord
280
     1
  1
AcDbDs::TreatedAsObjectDataSchema
  2
AcDbDs::TreatedAsObjectData
280
     1
 91
        0
  0
XRECORD
  5
884B
102
{ACAD_REACTORS
330
884F
102
}
330
884F
100
AcDbXrecord
280
     1
  1
AcDbDs::LegacySchema
  2
AcDbDs::Legacy
280
     1
 91
        0
  0
XRECORD
  5
884C
102
{ACAD_REACTORS
330
884F
102
}
330
884F
100
AcDbXrecord
280
     1
  1
AcDbDs::IndexedPropertySchema
  2
AcDs:Indexable
280
     1
 91
        0
  0
XRECORD
  5
884D
102
{ACAD_REACTORS
330
884F
102
}
330
884F
100
AcDbXrecord
280
     1
  1
AcDbDs::HandleAttributeSchema
  2
AcDbDs::HandleAttribute
280
     7
 91
        1
284
     1
  0
XRECORD
  5
8889
102
{ACAD_REACTORS
330
835D
102
}
330
835D
100
AcDbXrecord
280
     1
102
DISPLAYNAME
  1
Metric50
102
FLAGS
 90
        0
  0
XRECORD
  5
8853
102
{ACAD_REACTORS
330
7E52
102
}
330
7E52
100
AcDbXrecord
280
     1
102
MATERIAL
148
0.0
149
0.0
149
0.0
 93
        0
 94
      127
282
     0
 72
     0
 77
     0
171
     0
175
     0
179
     0
273
     0
  0
XRECORD
  5
7E54
102
{ACAD_REACTORS
330
7E52
102
}
330
7E52
100
AcDbXrecord
280
     1
270
     1
271
     1
  0
XRECORD
  5
7E53
102
{ACAD_REACTORS
330
7E52
102
}
330
7E52
100
AcDbXrecord
280
     1
270
     1
271
     1
  0
XRECORD
  5
7E57
102
{ACAD_REACTORS
330
7E52
102
}
330
7E52
100
AcDbXrecord
280
     1
270
     1
271
     1
  0
XRECORD
  5
7E56
102
{ACAD_REACTORS
330
7E52
102
}
330
7E52
100
AcDbXrecord
280
     1
270
     1
271
     1
  0
XRECORD
  5
7E58
102
{ACAD_REACTORS
330
7E52
102
}
330
7E52
100
AcDbXrecord
280
     1
270
     1
271
     1
  0
XRECORD
  5
7E55
102
{ACAD_REACTORS
330
7E52
102
}
330
7E52
100
AcDbXrecord
280
     1
270
     1
271
     1
  0
XRECORD
  5
8852
102
{ACAD_REACTORS
330
7E4A
102
}
330
7E4A
100
AcDbXrecord
280
     1
102
MATERIAL
148
0.0
149
0.0
149
0.0
 93
        0
 94
      127
282
     0
 72
     0
 77
     0
171
     0
175
     0
179
     0
273
     0
  0
XRECORD
  5
7E4C
102
{ACAD_REACTORS
330
7E4A
102
}
330
7E4A
100
AcDbXrecord
280
     1
270
     1
271
     1
  0
XRECORD
  5
7E4B
102
{ACAD_REACTORS
330
7E4A
102
}
330
7E4A
100
AcDbXrecord
280
     1
270
     1
271
     1
  0
XRECORD
  5
7E4F
102
{ACAD_REACTORS
330
7E4A
102
}
330
7E4A
100
AcDbXrecord
280
     1
270
     1
271
     1
  0
XRECORD
  5
7E4E
102
{ACAD_REACTORS
330
7E4A
102
}
330
7E4A
100
AcDbXrecord
280
     1
270
     1
271
     1
  0
XRECORD
  5
7E50
102
{ACAD_REACTORS
330
7E4A
102
}
330
7E4A
100
AcDbXrecord
280
     1
270
     1
271
     1
  0
XRECORD
  5
7E4D
102
{ACAD_REACTORS
330
7E4A
102
}
330
7E4A
100
AcDbXrecord
280
     1
270
     1
271
     1
  0
XRECORD
  5
8854
102
{ACAD_REACTORS
330
7E5A
102
}
330
7E5A
100
AcDbXrecord
280
     1
102
MATERIAL
148
0.0
149
0.0
149
0.0
 93
        0
 94
      127
282
     0
 72
     0
 77
     0
171
     0
175
     0
179
     0
273
     0
  0
XRECORD
  5
7E5C
102
{ACAD_REACTORS
330
7E5A
102
}
330
7E5A
100
AcDbXrecord
280
     1
270
     1
271
     1
  0
XRECORD
  5
7E5B
102
{ACAD_REACTORS
330
7E5A
102
}
330
7E5A
100
AcDbXrecord
280
     1
270
     1
271
     1
  0
XRECORD
  5
7E5F
102
{ACAD_REACTORS
330
7E5A
102
}
330
7E5A
100
AcDbXrecord
280
     1
270
     1
271
     1
  0
XRECORD
  5
7E5E
102
{ACAD_REACTORS
330
7E5A
102
}
330
7E5A
100
AcDbXrecord
280
     1
270
     1
271
     1
  0
XRECORD
  5
7E60
102
{ACAD_REACTORS
330
7E5A
102
}
330
7E5A
100
AcDbXrecord
280
     1
270
     1
271
     1
  0
XRECORD
  5
7E5D
102
{ACAD_REACTORS
330
7E5A
102
}
330
7E5A
100
AcDbXrecord
280
     1
270
     1
271
     1
  0
XRECORD
  5
8887
102
{ACAD_REACTORS
330
8886
102
}
330
8886
100
AcDbXrecord
280
     1
102
ACAD_ROUNDTRIP_2012_MLEADER_STYLE
298
     1
  0
XRECORD
  5
8888
102
{ACAD_REACTORS
330
835B
102
}
330
835B
100
AcDbXrecord
280
     1
102
DISPLAYNAME
  1
Metric50
102
FLAGS
 90
        0
  0
CELLSTYLEMAP
  5
8844
102
{ACAD_REACTORS
330
8843
102
}
330
8843
100
AcDbCellStyleMap
 90
        3
300
CELLSTYLE
  1
TABLEFORMAT_BEGIN
 90
        5
170
     1
 91
        0
 92
    32768
 62
   257
 93
        1
300
CONTENTFORMAT
  1
CONTENTFORMAT_BEGIN
 90
        0
 91
        0
 92
        4
 93
        0
300

 40
0.0
140
1.0
 94
        5
 62
     0
340
11
144
6.0
309
CONTENTFORMAT_END
171
     1
301
MARGIN
  1
CELLMARGIN_BEGIN
 40
1.5
 40
1.5
 40
1.5
 40
1.5
 40
0.18
 40
0.18
309
CELLMARGIN_END
 94
        6
 95
        1
302
GRIDFORMAT
  1
GRIDFORMAT_BEGIN
 90
        0
 91
        1
 62
     0
 92
       -2
340
0
 93
        0
 40
0.045
309
GRIDFORMAT_END
 95
        2
302
GRIDFORMAT
  1
GRIDFORMAT_BEGIN
 90
        0
 91
        1
 62
     0
 92
       -2
340
0
 93
        0
 40
0.045
309
GRIDFORMAT_END
 95
        4
302
GRIDFORMAT
  1
GRIDFORMAT_BEGIN
 90
        0
 91
        1
 62
     0
 92
       -2
340
0
 93
        0
 40
0.045
309
GRIDFORMAT_END
 95
        8
302
GRIDFORMAT
  1
GRIDFORMAT_BEGIN
 90
        0
 91
        1
 62
     0
 92
       -2
340
0
 93
        0
 40
0.045
309
GRIDFORMAT_END
 95
       16
302
GRIDFORMAT
  1
GRIDFORMAT_BEGIN
 90
        0
 91
        1
 62
     0
 92
       -2
340
0
 93
        0
 40
0.045
309
GRIDFORMAT_END
 95
       32
302
GRIDFORMAT
  1
GRIDFORMAT_BEGIN
 90
        0
 91
        1
 62
     0
 92
       -2
340
0
 93
        0
 40
0.045
309
GRIDFORMAT_END
309
TABLEFORMAT_END
  1
CELLSTYLE_BEGIN
 90
        1
 91
        1
300
_TITLE
309
CELLSTYLE_END
300
CELLSTYLE
  1
TABLEFORMAT_BEGIN
 90
        5
170
     1
 91
        0
 92
        0
 62
   257
 93
        1
300
CONTENTFORMAT
  1
CONTENTFORMAT_BEGIN
 90
        0
 91
        0
 92
        4
 93
        0
300

 40
0.0
140
1.0
 94
        5
 62
     0
340
11
144
4.5
309
CONTENTFORMAT_END
171
     1
301
MARGIN
  1
CELLMARGIN_BEGIN
 40
1.5
 40
1.5
 40
1.5
 40
1.5
 40
0.18
 40
0.18
309
CELLMARGIN_END
 94
        6
 95
        1
302
GRIDFORMAT
  1
GRIDFORMAT_BEGIN
 90
        0
 91
        1
 62
     0
 92
       -2
340
0
 93
        0
 40
0.045
309
GRIDFORMAT_END
 95
        2
302
GRIDFORMAT
  1
GRIDFORMAT_BEGIN
 90
        0
 91
        1
 62
     0
 92
       -2
340
0
 93
        0
 40
0.045
309
GRIDFORMAT_END
 95
        4
302
GRIDFORMAT
  1
GRIDFORMAT_BEGIN
 90
        0
 91
        1
 62
     0
 92
       -2
340
0
 93
        0
 40
0.045
309
GRIDFORMAT_END
 95
        8
302
GRIDFORMAT
  1
GRIDFORMAT_BEGIN
 90
        0
 91
        1
 62
     0
 92
       -2
340
0
 93
        0
 40
0.045
309
GRIDFORMAT_END
 95
       16
302
GRIDFORMAT
  1
GRIDFORMAT_BEGIN
 90
        0
 91
        1
 62
     0
 92
       -2
340
0
 93
        0
 40
0.045
309
GRIDFORMAT_END
 95
       32
302
GRIDFORMAT
  1
GRIDFORMAT_BEGIN
 90
        0
 91
        1
 62
     0
 92
       -2
340
0
 93
        0
 40
0.045
309
GRIDFORMAT_END
309
TABLEFORMAT_END
  1
CELLSTYLE_BEGIN
 90
        2
 91
        1
300
_HEADER
309
CELLSTYLE_END
300
CELLSTYLE
  1
TABLEFORMAT_BEGIN
 90
        5
170
     1
 91
        0
 92
        0
 62
   257
 93
        1
300
CONTENTFORMAT
  1
CONTENTFORMAT_BEGIN
 90
        0
 91
        0
 92
        4
 93
        0
300

 40
0.0
140
1.0
 94
        2
 62
     0
340
11
144
4.5
309
CONTENTFORMAT_END
171
     1
301
MARGIN
  1
CELLMARGIN_BEGIN
 40
1.5
 40
1.5
 40
1.5
 40
1.5
 40
0.18
 40
0.18
309
CELLMARGIN_END
 94
        6
 95
        1
302
GRIDFORMAT
  1
GRIDFORMAT_BEGIN
 90
        0
 91
        1
 62
     0
 92
       -2
340
0
 93
        0
 40
0.045
309
GRIDFORMAT_END
 95
        2
302
GRIDFORMAT
  1
GRIDFORMAT_BEGIN
 90
        0
 91
        1
 62
     0
 92
       -2
340
0
 93
        0
 40
0.045
309
GRIDFORMAT_END
 95
        4
302
GRIDFORMAT
  1
GRIDFORMAT_BEGIN
 90
        0
 91
        1
 62
     0
 92
       -2
340
0
 93
        0
 40
0.045
309
GRIDFORMAT_END
 95
        8
302
GRIDFORMAT
  1
GRIDFORMAT_BEGIN
 90
        0
 91
        1
 62
     0
 92
       -2
340
0
 93
        0
 40
0.045
309
GRIDFORMAT_END
 95
       16
302
GRIDFORMAT
  1
GRIDFORMAT_BEGIN
 90
        0
 91
        1
 62
     0
 92
       -2
340
0
 93
        0
 40
0.045
309
GRIDFORMAT_END
 95
       32
302
GRIDFORMAT
  1
GRIDFORMAT_BEGIN
 90
        0
 91
        1
 62
     0
 92
       -2
340
0
 93
        0
 40
0.045
309
GRIDFORMAT_END
309
TABLEFORMAT_END
  1
CELLSTYLE_BEGIN
 90
        3
 91
        2
300
_DATA
309
CELLSTYLE_END
  0
XRECORD
  5
8851
102
{ACAD_REACTORS
330
8843
102
}
330
8843
100
AcDbXrecord
280
     1
102
ACAD_ROUNDTRIP_PRE2007_TABLESTYLE
 90
        4
 91
        0
  1

 92
        4
 93
        0
  2

 94
        4
 95
        0
  3

  0
XRECORD
  5
8860
102
{ACAD_REACTORS
330
885F
102
}
330
885F
100
AcDbXrecord
280
     1
102
RTVSPost2010Prop28
280
     1
102
RTVSPost2010PropOp28
 70
     1
102
RTVSPost2010Prop29
280
     1
102
RTVSPost2010PropOp29
 70
     1
102
RTVSPost2010Prop30
280
     0
102
RTVSPost2010PropOp30
 70
     1
102
RTVSPost2010Prop31
280
     0
102
RTVSPost2010PropOp31
 70
     1
102
RTVSPost2010Prop32
280
     0
102
RTVSPost2010PropOp32
 70
     1
102
RTVSPost2010Prop33
280
     0
102
RTVSPost2010PropOp33
 70
     1
102
RTVSPost2010Prop34
280
     0
102
RTVSPost2010PropOp34
 70
     1
102
RTVSPost2010Prop35
280
     0
102
RTVSPost2010PropOp35
 70
     1
102
RTVSPost2010Prop36
280
     0
102
RTVSPost2010PropOp36
 70
     1
102
RTVSPost2010Prop37
 90
       50
102
RTVSPost2010PropOp37
 70
     1
102
RTVSPost2010Prop38
140
0.0
102
RTVSPost2010PropOp38
 70
     1
102
RTVSPost2010Prop39
140
1.0
102
RTVSPost2010PropOp39
 70
     1
102
RTVSPost2010Prop40
 90
        0
102
RTVSPost2010PropOp40
 70
     1
102
RTVSPost2010Prop41ColorIndex
 90
       18
102
RTVSPost2010Prop41ColorRGB
 90
        0
102
RTVSPost2010PropOp41
 70
     1
102
RTVSPost2010Prop42
 90
       50
102
RTVSPost2010PropOp42
 70
     1
102
RTVSPost2010Prop43
 90
        3
102
RTVSPost2010PropOp43
 70
     1
102
RTVSPost2010Prop44ColorIndex
 90
        5
102
RTVSPost2010Prop44ColorRGB
 90
      255
102
RTVSPost2010PropOp44
 70
     1
102
RTVSPost2010Prop45
280
     0
102
RTVSPost2010PropOp45
 70
     1
102
RTVSPost2010Prop46
 90
       50
102
RTVSPost2010PropOp46
 70
     1
102
RTVSPost2010Prop47
 90
       50
102
RTVSPost2010PropOp47
 70
     1
102
RTVSPost2010Prop48
 90
       50
102
RTVSPost2010PropOp48
 70
     1
102
RTVSPost2010Prop49
280
     0
102
RTVSPost2010PropOp49
 70
     1
102
RTVSPost2010Prop50
 90
       50
102
RTVSPost2010PropOp50
 70
     1
102
RTVSPost2010Prop51ColorIndex
 90
      256
102
RTVSPost2010Prop51ColorRGB
 90
-16777216
102
RTVSPost2010PropOp51
 70
     0
102
RTVSPost2010Prop52
140
1.0
102
RTVSPost2010PropOp52
 70
     0
102
RTVSPost2010Prop53
 90
        2
102
RTVSPost2010PropOp53
 70
     1
102
RTVSPost2010Prop54
  1
strokes_ogs.tif
102
RTVSPost2010PropOp54
 70
     1
102
RTVSPost2010Prop55
280
     0
102
RTVSPost2010PropOp55
 70
     1
102
RTVSPost2010Prop56
140
1.0
102
RTVSPost2010PropOp56
 70
     1
102
RTVSPost2010Prop57
140
1.0
102
RTVSPost2010PropOp57
 70
     1
102
RTVSPropertyOp0
 70
     1
102
RTVSPropertyOp1
 70
     1
102
RTVSPropertyOp2
 70
     1
102
RTVSPropertyOp3
 70
     1
102
RTVSPropertyOp4
 70
     1
102
RTVSPropertyOp5
 70
     1
102
RTVSPropertyOp6
 70
     1
102
RTVSPropertyOp7
 70
     1
102
RTVSPropertyOp8
 70
     1
102
RTVSPropertyOp9
 70
     1
102
RTVSPropertyOp10
 70
     1
102
RTVSPropertyOp11
 70
     1
102
RTVSPropertyOp12
 70
     1
102
RTVSPropertyOp13
 70
     1
102
RTVSPropertyOp14
 70
     1
102
RTVSPropertyOp15
 70
     1
102
RTVSPropertyOp16
 70
     1
102
RTVSPropertyOp17
 70
     1
102
RTVSPropertyOp18
 70
     1
102
RTVSPropertyOp19
 70
     1
102
RTVSPropertyOp20
 70
     1
102
RTVSPropertyOp21
 70
     1
102
RTVSPropertyOp22
 70
     1
102
RTVSPropertyOp23
 70
     1
102
RTVSPropertyOp24
 70
     1
102
RTVSPropertyOp25
 70
     1
102
RTVSPropertyOp26
 70
     1
102
RTVSPropertyOp27
 70
     1
102
RTVSPropertyOp28
 70
     1
102
RTVSPropertyOp29
 70
     1
102
RTVSPropertyOp30
 70
     1
102
RTVSPropertyOp31
 70
     1
102
RTVSPropertyOp32
 70
     1
102
RTVSPropertyOp33
 70
     1
102
RTVSPropertyOp34
 70
     1
102
RTVSPropertyOp35
 70
     1
102
RTVSPropertyOp36
 70
     1
102
RTVSPropertyOp37
 70
     1
102
RTVSPropertyOp38
 70
     1
102
RTVSPropertyOp39
 70
     1
102
RTVSPropertyOp40
 70
     1
102
RTVSPropertyOp41
 70
     1
102
RTVSPropertyOp42
 70
     1
102
RTVSPropertyOp43
 70
     1
102
RTVSPropertyOp44
 70
     1
102
RTVSPropertyOp45
 70
     1
102
RTVSPropertyOp46
 70
     1
102
RTVSPropertyOp47
 70
     1
102
RTVSPropertyOp48
 70
     1
102
RTVSPropertyOp49
 70
     1
102
RTVSPropertyOp50
 70
     1
102
RTVSPropertyOp51
 70
     0
102
RTVSPropertyOp52
 70
     0
102
RTVSPropertyOp53
 70
     1
102
RTVSPropertyOp54
 70
     1
102
RTVSPropertyOp55
 70
     1
102
RTVSPropertyOp56
 70
     1
102
RTVSPropertyOp57
 70
     1
102
RTVSPropertyOp58
 70
     1
102
RTVSPropertyOp59
 70
     1
102
RTVSPropertyOp60
 70
     1
102
RTVSPropertyOp61
 70
     1
102
RTVSPropertyOp62
 70
     1
  0
XRECORD
  5
885E
102
{ACAD_REACTORS
330
885D
102
}
330
885D
100
AcDbXrecord
280
     1
102
RTVSPost2010Prop28
280
     0
102
RTVSPost2010PropOp28
 70
     1
102
RTVSPost2010Prop29
280
     1
102
RTVSPost2010PropOp29
 70
     1
102
RTVSPost2010Prop30
280
     1
102
RTVSPost2010PropOp30
 70
     1
102
RTVSPost2010Prop31
280
     0
102
RTVSPost2010PropOp31
 70
     1
102
RTVSPost2010Prop32
280
     0
102
RTVSPost2010PropOp32
 70
     1
102
RTVSPost2010Prop33
280
     0
102
RTVSPost2010PropOp33
 70
     1
102
RTVSPost2010Prop34
280
     0
102
RTVSPost2010PropOp34
 70
     1
102
RTVSPost2010Prop35
280
     0
102
RTVSPost2010PropOp35
 70
     1
102
RTVSPost2010Prop36
280
     0
102
RTVSPost2010PropOp36
 70
     1
102
RTVSPost2010Prop37
 90
       50
102
RTVSPost2010PropOp37
 70
     1
102
RTVSPost2010Prop38
140
0.0
102
RTVSPost2010PropOp38
 70
     1
102
RTVSPost2010Prop39
140
1.0
102
RTVSPost2010PropOp39
 70
     1
102
RTVSPost2010Prop40
 90
        0
102
RTVSPost2010PropOp40
 70
     1
102
RTVSPost2010Prop41ColorIndex
 90
       18
102
RTVSPost2010Prop41ColorRGB
 90
        0
102
RTVSPost2010PropOp41
 70
     1
102
RTVSPost2010Prop42
 90
       50
102
RTVSPost2010PropOp42
 70
     1
102
RTVSPost2010Prop43
 90
        3
102
RTVSPost2010PropOp43
 70
     1
102
RTVSPost2010Prop44ColorIndex
 90
        5
102
RTVSPost2010Prop44ColorRGB
 90
      255
102
RTVSPost2010PropOp44
 70
     1
102
RTVSPost2010Prop45
280
     0
102
RTVSPost2010PropOp45
 70
     1
102
RTVSPost2010Prop46
 90
       50
102
RTVSPost2010PropOp46
 70
     1
102
RTVSPost2010Prop47
 90
       50
102
RTVSPost2010PropOp47
 70
     1
102
RTVSPost2010Prop48
 90
       50
102
RTVSPost2010PropOp48
 70
     1
102
RTVSPost2010Prop49
280
     0
102
RTVSPost2010PropOp49
 70
     1
102
RTVSPost2010Prop50
 90
       50
102
RTVSPost2010PropOp50
 70
     1
102
RTVSPost2010Prop51ColorIndex
 90
      256
102
RTVSPost2010Prop51ColorRGB
 90
-16777216
102
RTVSPost2010PropOp51
 70
     0
102
RTVSPost2010Prop52
140
1.0
102
RTVSPost2010PropOp52
 70
     0
102
RTVSPost2010Prop53
 90
        2
102
RTVSPost2010PropOp53
 70
     1
102
RTVSPost2010Prop54
  1
strokes_ogs.tif
102
RTVSPost2010PropOp54
 70
     1
102
RTVSPost2010Prop55
280
     0
102
RTVSPost2010PropOp55
 70
     1
102
RTVSPost2010Prop56
140
1.0
102
RTVSPost2010PropOp56
 70
     1
102
RTVSPost2010Prop57
140
1.0
102
RTVSPost2010PropOp57
 70
     1
102
RTVSPropertyOp0
 70
     1
102
RTVSPropertyOp1
 70
     1
102
RTVSPropertyOp2
 70
     1
102
RTVSPropertyOp3
 70
     1
102
RTVSPropertyOp4
 70
     1
102
RTVSPropertyOp5
 70
     1
102
RTVSPropertyOp6
 70
     1
102
RTVSPropertyOp7
 70
     1
102
RTVSPropertyOp8
 70
     1
102
RTVSPropertyOp9
 70
     1
102
RTVSPropertyOp10
 70
     1
102
RTVSPropertyOp11
 70
     1
102
RTVSPropertyOp12
 70
     1
102
RTVSPropertyOp13
 70
     1
102
RTVSPropertyOp14
 70
     1
102
RTVSPropertyOp15
 70
     1
102
RTVSPropertyOp16
 70
     1
102
RTVSPropertyOp17
 70
     1
102
RTVSPropertyOp18
 70
     1
102
RTVSPropertyOp19
 70
     1
102
RTVSPropertyOp20
 70
     1
102
RTVSPropertyOp21
 70
     1
102
RTVSPropertyOp22
 70
     1
102
RTVSPropertyOp23
 70
     1
102
RTVSPropertyOp24
 70
     1
102
RTVSPropertyOp25
 70
     1
102
RTVSPropertyOp26
 70
     1
102
RTVSPropertyOp27
 70
     1
102
RTVSPropertyOp28
 70
     1
102
RTVSPropertyOp29
 70
     1
102
RTVSPropertyOp30
 70
     1
102
RTVSPropertyOp31
 70
     1
102
RTVSPropertyOp32
 70
     1
102
RTVSPropertyOp33
 70
     1
102
RTVSPropertyOp34
 70
     1
102
RTVSPropertyOp35
 70
     1
102
RTVSPropertyOp36
 70
     1
102
RTVSPropertyOp37
 70
     1
102
RTVSPropertyOp38
 70
     1
102
RTVSPropertyOp39
 70
     1
102
RTVSPropertyOp40
 70
     1
102
RTVSPropertyOp41
 70
     1
102
RTVSPropertyOp42
 70
     1
102
RTVSPropertyOp43
 70
     1
102
RTVSPropertyOp44
 70
     1
102
RTVSPropertyOp45
 70
     1
102
RTVSPropertyOp46
 70
     1
102
RTVSPropertyOp47
 70
     1
102
RTVSPropertyOp48
 70
     1
102
RTVSPropertyOp49
 70
     1
102
RTVSPropertyOp50
 70
     1
102
RTVSPropertyOp51
 70
     0
102
RTVSPropertyOp52
 70
     0
102
RTVSPropertyOp53
 70
     1
102
RTVSPropertyOp54
 70
     1
102
RTVSPropertyOp55
 70
     1
102
RTVSPropertyOp56
 70
     1
102
RTVSPropertyOp57
 70
     1
102
RTVSPropertyOp58
 70
     1
102
RTVSPropertyOp59
 70
     1
102
RTVSPropertyOp60
 70
     1
102
RTVSPropertyOp61
 70
     1
102
RTVSPropertyOp62
 70
     1
  0
XRECORD
  5
886C
102
{ACAD_REACTORS
330
886B
102
}
330
886B
100
AcDbXrecord
280
     1
102
RTVSPost2010Prop28
280
     0
102
RTVSPost2010PropOp28
 70
     1
102
RTVSPost2010Prop29
280
     1
102
RTVSPost2010PropOp29
 70
     1
102
RTVSPost2010Prop30
280
     1
102
RTVSPost2010PropOp30
 70
     1
102
RTVSPost2010Prop31
280
     0
102
RTVSPost2010PropOp31
 70
     1
102
RTVSPost2010Prop32
280
     0
102
RTVSPost2010PropOp32
 70
     1
102
RTVSPost2010Prop33
280
     0
102
RTVSPost2010PropOp33
 70
     1
102
RTVSPost2010Prop34
280
     0
102
RTVSPost2010PropOp34
 70
     1
102
RTVSPost2010Prop35
280
     0
102
RTVSPost2010PropOp35
 70
     1
102
RTVSPost2010Prop36
280
     0
102
RTVSPost2010PropOp36
 70
     1
102
RTVSPost2010Prop37
 90
       50
102
RTVSPost2010PropOp37
 70
     1
102
RTVSPost2010Prop38
140
0.0
102
RTVSPost2010PropOp38
 70
     1
102
RTVSPost2010Prop39
140
1.0
102
RTVSPost2010PropOp39
 70
     1
102
RTVSPost2010Prop40
 90
        0
102
RTVSPost2010PropOp40
 70
     1
102
RTVSPost2010Prop41ColorIndex
 90
       18
102
RTVSPost2010Prop41ColorRGB
 90
        0
102
RTVSPost2010PropOp41
 70
     1
102
RTVSPost2010Prop42
 90
       50
102
RTVSPost2010PropOp42
 70
     1
102
RTVSPost2010Prop43
 90
        3
102
RTVSPost2010PropOp43
 70
     1
102
RTVSPost2010Prop44ColorIndex
 90
        5
102
RTVSPost2010Prop44ColorRGB
 90
      255
102
RTVSPost2010PropOp44
 70
     1
102
RTVSPost2010Prop45
280
     0
102
RTVSPost2010PropOp45
 70
     1
102
RTVSPost2010Prop46
 90
       50
102
RTVSPost2010PropOp46
 70
     1
102
RTVSPost2010Prop47
 90
       50
102
RTVSPost2010PropOp47
 70
     1
102
RTVSPost2010Prop48
 90
       50
102
RTVSPost2010PropOp48
 70
     1
102
RTVSPost2010Prop49
280
     0
102
RTVSPost2010PropOp49
 70
     1
102
RTVSPost2010Prop50
 90
       50
102
RTVSPost2010PropOp50
 70
     1
102
RTVSPost2010Prop51ColorIndex
 90
      256
102
RTVSPost2010Prop51ColorRGB
 90
-16777216
102
RTVSPost2010PropOp51
 70
     0
102
RTVSPost2010Prop52
140
1.0
102
RTVSPost2010PropOp52
 70
     0
102
RTVSPost2010Prop53
 90
        2
102
RTVSPost2010PropOp53
 70
     1
102
RTVSPost2010Prop54
  1
strokes_ogs.tif
102
RTVSPost2010PropOp54
 70
     1
102
RTVSPost2010Prop55
280
     0
102
RTVSPost2010PropOp55
 70
     1
102
RTVSPost2010Prop56
140
1.0
102
RTVSPost2010PropOp56
 70
     1
102
RTVSPost2010Prop57
140
1.0
102
RTVSPost2010PropOp57
 70
     1
102
RTVSPropertyOp0
 70
     1
102
RTVSPropertyOp1
 70
     1
102
RTVSPropertyOp2
 70
     1
102
RTVSPropertyOp3
 70
     1
102
RTVSPropertyOp4
 70
     1
102
RTVSPropertyOp5
 70
     1
102
RTVSPropertyOp6
 70
     1
102
RTVSPropertyOp7
 70
     1
102
RTVSPropertyOp8
 70
     1
102
RTVSPropertyOp9
 70
     1
102
RTVSPropertyOp10
 70
     1
102
RTVSPropertyOp11
 70
     1
102
RTVSPropertyOp12
 70
     1
102
RTVSPropertyOp13
 70
     1
102
RTVSPropertyOp14
 70
     1
102
RTVSPropertyOp15
 70
     1
102
RTVSPropertyOp16
 70
     1
102
RTVSPropertyOp17
 70
     1
102
RTVSPropertyOp18
 70
     1
102
RTVSPropertyOp19
 70
     1
102
RTVSPropertyOp20
 70
     1
102
RTVSPropertyOp21
 70
     1
102
RTVSPropertyOp22
 70
     1
102
RTVSPropertyOp23
 70
     1
102
RTVSPropertyOp24
 70
     1
102
RTVSPropertyOp25
 70
     1
102
RTVSPropertyOp26
 70
     1
102
RTVSPropertyOp27
 70
     1
102
RTVSPropertyOp28
 70
     1
102
RTVSPropertyOp29
 70
     1
102
RTVSPropertyOp30
 70
     1
102
RTVSPropertyOp31
 70
     1
102
RTVSPropertyOp32
 70
     1
102
RTVSPropertyOp33
 70
     1
102
RTVSPropertyOp34
 70
     1
102
RTVSPropertyOp35
 70
     1
102
RTVSPropertyOp36
 70
     1
102
RTVSPropertyOp37
 70
     1
102
RTVSPropertyOp38
 70
     1
102
RTVSPropertyOp39
 70
     1
102
RTVSPropertyOp40
 70
     1
102
RTVSPropertyOp41
 70
     1
102
RTVSPropertyOp42
 70
     1
102
RTVSPropertyOp43
 70
     1
102
RTVSPropertyOp44
 70
     1
102
RTVSPropertyOp45
 70
     1
102
RTVSPropertyOp46
 70
     1
102
RTVSPropertyOp47
 70
     1
102
RTVSPropertyOp48
 70
     1
102
RTVSPropertyOp49
 70
     1
102
RTVSPropertyOp50
 70
     1
102
RTVSPropertyOp51
 70
     0
102
RTVSPropertyOp52
 70
     0
102
RTVSPropertyOp53
 70
     1
102
RTVSPropertyOp54
 70
     1
102
RTVSPropertyOp55
 70
     1
102
RTVSPropertyOp56
 70
     1
102
RTVSPropertyOp57
 70
     1
102
RTVSPropertyOp58
 70
     1
102
RTVSPropertyOp59
 70
     1
102
RTVSPropertyOp60
 70
     1
102
RTVSPropertyOp61
 70
     1
102
RTVSPropertyOp62
 70
     1
  0
XRECORD
  5
8874
102
{ACAD_REACTORS
330
8873
102
}
330
8873
100
AcDbXrecord
280
     1
102
RTVSPost2010Prop28
280
     0
102
RTVSPost2010PropOp28
 70
     1
102
RTVSPost2010Prop29
280
     1
102
RTVSPost2010PropOp29
 70
     1
102
RTVSPost2010Prop30
280
     1
102
RTVSPost2010PropOp30
 70
     1
102
RTVSPost2010Prop31
280
     0
102
RTVSPost2010PropOp31
 70
     1
102
RTVSPost2010Prop32
280
     0
102
RTVSPost2010PropOp32
 70
     1
102
RTVSPost2010Prop33
280
     0
102
RTVSPost2010PropOp33
 70
     1
102
RTVSPost2010Prop34
280
     0
102
RTVSPost2010PropOp34
 70
     1
102
RTVSPost2010Prop35
280
     0
102
RTVSPost2010PropOp35
 70
     1
102
RTVSPost2010Prop36
280
     0
102
RTVSPost2010PropOp36
 70
     1
102
RTVSPost2010Prop37
 90
       50
102
RTVSPost2010PropOp37
 70
     1
102
RTVSPost2010Prop38
140
0.0
102
RTVSPost2010PropOp38
 70
     1
102
RTVSPost2010Prop39
140
1.0
102
RTVSPost2010PropOp39
 70
     1
102
RTVSPost2010Prop40
 90
        0
102
RTVSPost2010PropOp40
 70
     1
102
RTVSPost2010Prop41ColorIndex
 90
       18
102
RTVSPost2010Prop41ColorRGB
 90
        0
102
RTVSPost2010PropOp41
 70
     1
102
RTVSPost2010Prop42
 90
       50
102
RTVSPost2010PropOp42
 70
     1
102
RTVSPost2010Prop43
 90
        3
102
RTVSPost2010PropOp43
 70
     1
102
RTVSPost2010Prop44ColorIndex
 90
        5
102
RTVSPost2010Prop44ColorRGB
 90
      255
102
RTVSPost2010PropOp44
 70
     1
102
RTVSPost2010Prop45
280
     0
102
RTVSPost2010PropOp45
 70
     1
102
RTVSPost2010Prop46
 90
       50
102
RTVSPost2010PropOp46
 70
     1
102
RTVSPost2010Prop47
 90
       50
102
RTVSPost2010PropOp47
 70
     1
102
RTVSPost2010Prop48
 90
       50
102
RTVSPost2010PropOp48
 70
     1
102
RTVSPost2010Prop49
280
     0
102
RTVSPost2010PropOp49
 70
     1
102
RTVSPost2010Prop50
 90
       50
102
RTVSPost2010PropOp50
 70
     1
102
RTVSPost2010Prop51ColorIndex
 90
      256
102
RTVSPost2010Prop51ColorRGB
 90
-16777216
102
RTVSPost2010PropOp51
 70
     0
102
RTVSPost2010Prop52
140
1.0
102
RTVSPost2010PropOp52
 70
     0
102
RTVSPost2010Prop53
 90
        2
102
RTVSPost2010PropOp53
 70
     1
102
RTVSPost2010Prop54
  1
strokes_ogs.tif
102
RTVSPost2010PropOp54
 70
     1
102
RTVSPost2010Prop55
280
     0
102
RTVSPost2010PropOp55
 70
     1
102
RTVSPost2010Prop56
140
1.0
102
RTVSPost2010PropOp56
 70
     1
102
RTVSPost2010Prop57
140
1.0
102
RTVSPost2010PropOp57
 70
     1
102
RTVSPropertyOp0
 70
     1
102
RTVSPropertyOp1
 70
     1
102
RTVSPropertyOp2
 70
     1
102
RTVSPropertyOp3
 70
     1
102
RTVSPropertyOp4
 70
     1
102
RTVSPropertyOp5
 70
     1
102
RTVSPropertyOp6
 70
     1
102
RTVSPropertyOp7
 70
     1
102
RTVSPropertyOp8
 70
     1
102
RTVSPropertyOp9
 70
     1
102
RTVSPropertyOp10
 70
     1
102
RTVSPropertyOp11
 70
     1
102
RTVSPropertyOp12
 70
     1
102
RTVSPropertyOp13
 70
     1
102
RTVSPropertyOp14
 70
     1
102
RTVSPropertyOp15
 70
     1
102
RTVSPropertyOp16
 70
     1
102
RTVSPropertyOp17
 70
     1
102
RTVSPropertyOp18
 70
     1
102
RTVSPropertyOp19
 70
     1
102
RTVSPropertyOp20
 70
     1
102
RTVSPropertyOp21
 70
     1
102
RTVSPropertyOp22
 70
     1
102
RTVSPropertyOp23
 70
     1
102
RTVSPropertyOp24
 70
     1
102
RTVSPropertyOp25
 70
     1
102
RTVSPropertyOp26
 70
     1
102
RTVSPropertyOp27
 70
     1
102
RTVSPropertyOp28
 70
     1
102
RTVSPropertyOp29
 70
     1
102
RTVSPropertyOp30
 70
     1
102
RTVSPropertyOp31
 70
     1
102
RTVSPropertyOp32
 70
     1
102
RTVSPropertyOp33
 70
     1
102
RTVSPropertyOp34
 70
     1
102
RTVSPropertyOp35
 70
     1
102
RTVSPropertyOp36
 70
     1
102
RTVSPropertyOp37
 70
     1
102
RTVSPropertyOp38
 70
     1
102
RTVSPropertyOp39
 70
     1
102
RTVSPropertyOp40
 70
     1
102
RTVSPropertyOp41
 70
     1
102
RTVSPropertyOp42
 70
     1
102
RTVSPropertyOp43
 70
     1
102
RTVSPropertyOp44
 70
     1
102
RTVSPropertyOp45
 70
     1
102
RTVSPropertyOp46
 70
     1
102
RTVSPropertyOp47
 70
     1
102
RTVSPropertyOp48
 70
     1
102
RTVSPropertyOp49
 70
     1
102
RTVSPropertyOp50
 70
     1
102
RTVSPropertyOp51
 70
     0
102
RTVSPropertyOp52
 70
     0
102
RTVSPropertyOp53
 70
     1
102
RTVSPropertyOp54
 70
     1
102
RTVSPropertyOp55
 70
     1
102
RTVSPropertyOp56
 70
     1
102
RTVSPropertyOp57
 70
     1
102
RTVSPropertyOp58
 70
     1
102
RTVSPropertyOp59
 70
     1
102
RTVSPropertyOp60
 70
     1
102
RTVSPropertyOp61
 70
     1
102
RTVSPropertyOp62
 70
     1
  0
XRECORD
  5
8866
102
{ACAD_REACTORS
330
8865
102
}
330
8865
100
AcDbXrecord
280
     1
102
RTVSPost2010Prop28
280
     0
102
RTVSPost2010PropOp28
 70
     1
102
RTVSPost2010Prop29
280
     1
102
RTVSPost2010PropOp29
 70
     1
102
RTVSPost2010Prop30
280
     1
102
RTVSPost2010PropOp30
 70
     1
102
RTVSPost2010Prop31
280
     0
102
RTVSPost2010PropOp31
 70
     1
102
RTVSPost2010Prop32
280
     0
102
RTVSPost2010PropOp32
 70
     1
102
RTVSPost2010Prop33
280
     0
102
RTVSPost2010PropOp33
 70
     1
102
RTVSPost2010Prop34
280
     0
102
RTVSPost2010PropOp34
 70
     1
102
RTVSPost2010Prop35
280
     0
102
RTVSPost2010PropOp35
 70
     1
102
RTVSPost2010Prop36
280
     0
102
RTVSPost2010PropOp36
 70
     1
102
RTVSPost2010Prop37
 90
       50
102
RTVSPost2010PropOp37
 70
     1
102
RTVSPost2010Prop38
140
0.0
102
RTVSPost2010PropOp38
 70
     1
102
RTVSPost2010Prop39
140
1.0
102
RTVSPost2010PropOp39
 70
     1
102
RTVSPost2010Prop40
 90
        0
102
RTVSPost2010PropOp40
 70
     1
102
RTVSPost2010Prop41ColorIndex
 90
       18
102
RTVSPost2010Prop41ColorRGB
 90
        0
102
RTVSPost2010PropOp41
 70
     1
102
RTVSPost2010Prop42
 90
       50
102
RTVSPost2010PropOp42
 70
     1
102
RTVSPost2010Prop43
 90
        3
102
RTVSPost2010PropOp43
 70
     1
102
RTVSPost2010Prop44ColorIndex
 90
        5
102
RTVSPost2010Prop44ColorRGB
 90
      255
102
RTVSPost2010PropOp44
 70
     1
102
RTVSPost2010Prop45
280
     0
102
RTVSPost2010PropOp45
 70
     1
102
RTVSPost2010Prop46
 90
       50
102
RTVSPost2010PropOp46
 70
     1
102
RTVSPost2010Prop47
 90
       50
102
RTVSPost2010PropOp47
 70
     1
102
RTVSPost2010Prop48
 90
       50
102
RTVSPost2010PropOp48
 70
     1
102
RTVSPost2010Prop49
280
     0
102
RTVSPost2010PropOp49
 70
     1
102
RTVSPost2010Prop50
 90
       50
102
RTVSPost2010PropOp50
 70
     1
102
RTVSPost2010Prop51ColorIndex
 90
      256
102
RTVSPost2010Prop51ColorRGB
 90
-16777216
102
RTVSPost2010PropOp51
 70
     0
102
RTVSPost2010Prop52
140
1.0
102
RTVSPost2010PropOp52
 70
     0
102
RTVSPost2010Prop53
 90
        2
102
RTVSPost2010PropOp53
 70
     1
102
RTVSPost2010Prop54
  1
strokes_ogs.tif
102
RTVSPost2010PropOp54
 70
     1
102
RTVSPost2010Prop55
280
     0
102
RTVSPost2010PropOp55
 70
     1
102
RTVSPost2010Prop56
140
1.0
102
RTVSPost2010PropOp56
 70
     1
102
RTVSPost2010Prop57
140
1.0
102
RTVSPost2010PropOp57
 70
     1
102
RTVSPropertyOp0
 70
     1
102
RTVSPropertyOp1
 70
     1
102
RTVSPropertyOp2
 70
     1
102
RTVSPropertyOp3
 70
     1
102
RTVSPropertyOp4
 70
     1
102
RTVSPropertyOp5
 70
     1
102
RTVSPropertyOp6
 70
     1
102
RTVSPropertyOp7
 70
     1
102
RTVSPropertyOp8
 70
     1
102
RTVSPropertyOp9
 70
     1
102
RTVSPropertyOp10
 70
     1
102
RTVSPropertyOp11
 70
     1
102
RTVSPropertyOp12
 70
     1
102
RTVSPropertyOp13
 70
     1
102
RTVSPropertyOp14
 70
     1
102
RTVSPropertyOp15
 70
     1
102
RTVSPropertyOp16
 70
     1
102
RTVSPropertyOp17
 70
     1
102
RTVSPropertyOp18
 70
     1
102
RTVSPropertyOp19
 70
     1
102
RTVSPropertyOp20
 70
     1
102
RTVSPropertyOp21
 70
     1
102
RTVSPropertyOp22
 70
     1
102
RTVSPropertyOp23
 70
     1
102
RTVSPropertyOp24
 70
     1
102
RTVSPropertyOp25
 70
     1
102
RTVSPropertyOp26
 70
     1
102
RTVSPropertyOp27
 70
     1
102
RTVSPropertyOp28
 70
     1
102
RTVSPropertyOp29
 70
     1
102
RTVSPropertyOp30
 70
     1
102
RTVSPropertyOp31
 70
     1
102
RTVSPropertyOp32
 70
     1
102
RTVSPropertyOp33
 70
     1
102
RTVSPropertyOp34
 70
     1
102
RTVSPropertyOp35
 70
     1
102
RTVSPropertyOp36
 70
     1
102
RTVSPropertyOp37
 70
     1
102
RTVSPropertyOp38
 70
     1
102
RTVSPropertyOp39
 70
     1
102
RTVSPropertyOp40
 70
     1
102
RTVSPropertyOp41
 70
     1
102
RTVSPropertyOp42
 70
     1
102
RTVSPropertyOp43
 70
     1
102
RTVSPropertyOp44
 70
     1
102
RTVSPropertyOp45
 70
     1
102
RTVSPropertyOp46
 70
     1
102
RTVSPropertyOp47
 70
     1
102
RTVSPropertyOp48
 70
     1
102
RTVSPropertyOp49
 70
     1
102
RTVSPropertyOp50
 70
     1
102
RTVSPropertyOp51
 70
     0
102
RTVSPropertyOp52
 70
     0
102
RTVSPropertyOp53
 70
     1
102
RTVSPropertyOp54
 70
     1
102
RTVSPropertyOp55
 70
     1
102
RTVSPropertyOp56
 70
     1
102
RTVSPropertyOp57
 70
     1
102
RTVSPropertyOp58
 70
     1
102
RTVSPropertyOp59
 70
     1
102
RTVSPropertyOp60
 70
     1
102
RTVSPropertyOp61
 70
     1
102
RTVSPropertyOp62
 70
     1
  0
XRECORD
  5
886A
102
{ACAD_REACTORS
330
8869
102
}
330
8869
100
AcDbXrecord
280
     1
102
RTVSPost2010Prop28
280
     0
102
RTVSPost2010PropOp28
 70
     1
102
RTVSPost2010Prop29
280
     1
102
RTVSPost2010PropOp29
 70
     1
102
RTVSPost2010Prop30
280
     1
102
RTVSPost2010PropOp30
 70
     1
102
RTVSPost2010Prop31
280
     0
102
RTVSPost2010PropOp31
 70
     1
102
RTVSPost2010Prop32
280
     0
102
RTVSPost2010PropOp32
 70
     1
102
RTVSPost2010Prop33
280
     0
102
RTVSPost2010PropOp33
 70
     1
102
RTVSPost2010Prop34
280
     0
102
RTVSPost2010PropOp34
 70
     1
102
RTVSPost2010Prop35
280
     0
102
RTVSPost2010PropOp35
 70
     1
102
RTVSPost2010Prop36
280
     0
102
RTVSPost2010PropOp36
 70
     1
102
RTVSPost2010Prop37
 90
       50
102
RTVSPost2010PropOp37
 70
     1
102
RTVSPost2010Prop38
140
0.0
102
RTVSPost2010PropOp38
 70
     1
102
RTVSPost2010Prop39
140
1.0
102
RTVSPost2010PropOp39
 70
     1
102
RTVSPost2010Prop40
 90
        0
102
RTVSPost2010PropOp40
 70
     1
102
RTVSPost2010Prop41ColorIndex
 90
       18
102
RTVSPost2010Prop41ColorRGB
 90
        0
102
RTVSPost2010PropOp41
 70
     1
102
RTVSPost2010Prop42
 90
       50
102
RTVSPost2010PropOp42
 70
     1
102
RTVSPost2010Prop43
 90
        3
102
RTVSPost2010PropOp43
 70
     1
102
RTVSPost2010Prop44ColorIndex
 90
        5
102
RTVSPost2010Prop44ColorRGB
 90
      255
102
RTVSPost2010PropOp44
 70
     1
102
RTVSPost2010Prop45
280
     0
102
RTVSPost2010PropOp45
 70
     1
102
RTVSPost2010Prop46
 90
       50
102
RTVSPost2010PropOp46
 70
     1
102
RTVSPost2010Prop47
 90
       50
102
RTVSPost2010PropOp47
 70
     1
102
RTVSPost2010Prop48
 90
       50
102
RTVSPost2010PropOp48
 70
     1
102
RTVSPost2010Prop49
280
     0
102
RTVSPost2010PropOp49
 70
     1
102
RTVSPost2010Prop50
 90
       50
102
RTVSPost2010PropOp50
 70
     1
102
RTVSPost2010Prop51ColorIndex
 90
      256
102
RTVSPost2010Prop51ColorRGB
 90
-16777216
102
RTVSPost2010PropOp51
 70
     0
102
RTVSPost2010Prop52
140
1.0
102
RTVSPost2010PropOp52
 70
     0
102
RTVSPost2010Prop53
 90
        2
102
RTVSPost2010PropOp53
 70
     1
102
RTVSPost2010Prop54
  1
strokes_ogs.tif
102
RTVSPost2010PropOp54
 70
     1
102
RTVSPost2010Prop55
280
     0
102
RTVSPost2010PropOp55
 70
     1
102
RTVSPost2010Prop56
140
1.0
102
RTVSPost2010PropOp56
 70
     1
102
RTVSPost2010Prop57
140
1.0
102
RTVSPost2010PropOp57
 70
     1
102
RTVSPropertyOp0
 70
     1
102
RTVSPropertyOp1
 70
     1
102
RTVSPropertyOp2
 70
     1
102
RTVSPropertyOp3
 70
     1
102
RTVSPropertyOp4
 70
     1
102
RTVSPropertyOp5
 70
     1
102
RTVSPropertyOp6
 70
     1
102
RTVSPropertyOp7
 70
     1
102
RTVSPropertyOp8
 70
     1
102
RTVSPropertyOp9
 70
     1
102
RTVSPropertyOp10
 70
     1
102
RTVSPropertyOp11
 70
     1
102
RTVSPropertyOp12
 70
     1
102
RTVSPropertyOp13
 70
     1
102
RTVSPropertyOp14
 70
     1
102
RTVSPropertyOp15
 70
     1
102
RTVSPropertyOp16
 70
     1
102
RTVSPropertyOp17
 70
     1
102
RTVSPropertyOp18
 70
     1
102
RTVSPropertyOp19
 70
     1
102
RTVSPropertyOp20
 70
     1
102
RTVSPropertyOp21
 70
     1
102
RTVSPropertyOp22
 70
     1
102
RTVSPropertyOp23
 70
     1
102
RTVSPropertyOp24
 70
     1
102
RTVSPropertyOp25
 70
     1
102
RTVSPropertyOp26
 70
     1
102
RTVSPropertyOp27
 70
     1
102
RTVSPropertyOp28
 70
     1
102
RTVSPropertyOp29
 70
     1
102
RTVSPropertyOp30
 70
     1
102
RTVSPropertyOp31
 70
     1
102
RTVSPropertyOp32
 70
     1
102
RTVSPropertyOp33
 70
     1
102
RTVSPropertyOp34
 70
     1
102
RTVSPropertyOp35
 70
     1
102
RTVSPropertyOp36
 70
     1
102
RTVSPropertyOp37
 70
     1
102
RTVSPropertyOp38
 70
     1
102
RTVSPropertyOp39
 70
     1
102
RTVSPropertyOp40
 70
     1
102
RTVSPropertyOp41
 70
     1
102
RTVSPropertyOp42
 70
     1
102
RTVSPropertyOp43
 70
     1
102
RTVSPropertyOp44
 70
     1
102
RTVSPropertyOp45
 70
     1
102
RTVSPropertyOp46
 70
     1
102
RTVSPropertyOp47
 70
     1
102
RTVSPropertyOp48
 70
     1
102
RTVSPropertyOp49
 70
     1
102
RTVSPropertyOp50
 70
     1
102
RTVSPropertyOp51
 70
     0
102
RTVSPropertyOp52
 70
     0
102
RTVSPropertyOp53
 70
     1
102
RTVSPropertyOp54
 70
     1
102
RTVSPropertyOp55
 70
     1
102
RTVSPropertyOp56
 70
     1
102
RTVSPropertyOp57
 70
     1
102
RTVSPropertyOp58
 70
     1
102
RTVSPropertyOp59
 70
     1
102
RTVSPropertyOp60
 70
     1
102
RTVSPropertyOp61
 70
     1
102
RTVSPropertyOp62
 70
     1
  0
XRECORD
  5
8884
102
{ACAD_REACTORS
330
8883
102
}
330
8883
100
AcDbXrecord
280
     1
102
RTVSPost2010Prop28
280
     0
102
RTVSPost2010PropOp28
 70
     0
102
RTVSPost2010Prop29
280
     1
102
RTVSPost2010PropOp29
 70
     0
102
RTVSPost2010Prop30
280
     1
102
RTVSPost2010PropOp30
 70
     0
102
RTVSPost2010Prop31
280
     0
102
RTVSPost2010PropOp31
 70
     0
102
RTVSPost2010Prop32
280
     0
102
RTVSPost2010PropOp32
 70
     0
102
RTVSPost2010Prop33
280
     0
102
RTVSPost2010PropOp33
 70
     0
102
RTVSPost2010Prop34
280
     0
102
RTVSPost2010PropOp34
 70
     0
102
RTVSPost2010Prop35
280
     0
102
RTVSPost2010PropOp35
 70
     0
102
RTVSPost2010Prop36
280
     0
102
RTVSPost2010PropOp36
 70
     0
102
RTVSPost2010Prop37
 90
       50
102
RTVSPost2010PropOp37
 70
     0
102
RTVSPost2010Prop38
140
0.0
102
RTVSPost2010PropOp38
 70
     0
102
RTVSPost2010Prop39
140
1.0
102
RTVSPost2010PropOp39
 70
     0
102
RTVSPost2010Prop40
 90
        0
102
RTVSPost2010PropOp40
 70
     0
102
RTVSPost2010Prop41ColorIndex
 90
       18
102
RTVSPost2010Prop41ColorRGB
 90
        0
102
RTVSPost2010PropOp41
 70
     0
102
RTVSPost2010Prop42
 90
       50
102
RTVSPost2010PropOp42
 70
     0
102
RTVSPost2010Prop43
 90
        3
102
RTVSPost2010PropOp43
 70
     0
102
RTVSPost2010Prop44ColorIndex
 90
        5
102
RTVSPost2010Prop44ColorRGB
 90
      255
102
RTVSPost2010PropOp44
 70
     0
102
RTVSPost2010Prop45
280
     0
102
RTVSPost2010PropOp45
 70
     0
102
RTVSPost2010Prop46
 90
       50
102
RTVSPost2010PropOp46
 70
     0
102
RTVSPost2010Prop47
 90
       50
102
RTVSPost2010PropOp47
 70
     0
102
RTVSPost2010Prop48
 90
       50
102
RTVSPost2010PropOp48
 70
     0
102
RTVSPost2010Prop49
280
     0
102
RTVSPost2010PropOp49
 70
     0
102
RTVSPost2010Prop50
 90
       50
102
RTVSPost2010PropOp50
 70
     0
102
RTVSPost2010Prop51ColorIndex
 90
      256
102
RTVSPost2010Prop51ColorRGB
 90
-16777216
102
RTVSPost2010PropOp51
 70
     0
102
RTVSPost2010Prop52
140
1.0
102
RTVSPost2010PropOp52
 70
     0
102
RTVSPost2010Prop53
 90
        2
102
RTVSPost2010PropOp53
 70
     0
102
RTVSPost2010Prop54
  1
strokes_ogs.tif
102
RTVSPost2010PropOp54
 70
     0
102
RTVSPost2010Prop55
280
     0
102
RTVSPost2010PropOp55
 70
     0
102
RTVSPost2010Prop56
140
1.0
102
RTVSPost2010PropOp56
 70
     0
102
RTVSPost2010Prop57
140
1.0
102
RTVSPost2010PropOp57
 70
     0
102
RTVSPropertyOp0
 70
     0
102
RTVSPropertyOp1
 70
     0
102
RTVSPropertyOp2
 70
     0
102
RTVSPropertyOp3
 70
     0
102
RTVSPropertyOp4
 70
     0
102
RTVSPropertyOp5
 70
     0
102
RTVSPropertyOp6
 70
     0
102
RTVSPropertyOp7
 70
     0
102
RTVSPropertyOp8
 70
     0
102
RTVSPropertyOp9
 70
     0
102
RTVSPropertyOp10
 70
     0
102
RTVSPropertyOp11
 70
     0
102
RTVSPropertyOp12
 70
     0
102
RTVSPropertyOp13
 70
     0
102
RTVSPropertyOp14
 70
     2
102
RTVSPropertyOp15
 70
     0
102
RTVSPropertyOp16
 70
     0
102
RTVSPropertyOp17
 70
     0
102
RTVSPropertyOp18
 70
     0
102
RTVSPropertyOp19
 70
     0
102
RTVSPropertyOp20
 70
     0
102
RTVSPropertyOp21
 70
     0
102
RTVSPropertyOp22
 70
     0
102
RTVSPropertyOp23
 70
     0
102
RTVSPropertyOp24
 70
     0
102
RTVSPropertyOp25
 70
     0
102
RTVSPropertyOp26
 70
     0
102
RTVSPropertyOp27
 70
     0
102
RTVSPropertyOp28
 70
     0
102
RTVSPropertyOp29
 70
     0
102
RTVSPropertyOp30
 70
     0
102
RTVSPropertyOp31
 70
     0
102
RTVSPropertyOp32
 70
     0
102
RTVSPropertyOp33
 70
     0
102
RTVSPropertyOp34
 70
     0
102
RTVSPropertyOp35
 70
     0
102
RTVSPropertyOp36
 70
     0
102
RTVSPropertyOp37
 70
     0
102
RTVSPropertyOp38
 70
     0
102
RTVSPropertyOp39
 70
     0
102
RTVSPropertyOp40
 70
     0
102
RTVSPropertyOp41
 70
     0
102
RTVSPropertyOp42
 70
     0
102
RTVSPropertyOp43
 70
     0
102
RTVSPropertyOp44
 70
     0
102
RTVSPropertyOp45
 70
     0
102
RTVSPropertyOp46
 70
     0
102
RTVSPropertyOp47
 70
     0
102
RTVSPropertyOp48
 70
     0
102
RTVSPropertyOp49
 70
     0
102
RTVSPropertyOp50
 70
     0
102
RTVSPropertyOp51
 70
     0
102
RTVSPropertyOp52
 70
     0
102
RTVSPropertyOp53
 70
     0
102
RTVSPropertyOp54
 70
     0
102
RTVSPropertyOp55
 70
     0
102
RTVSPropertyOp56
 70
     0
102
RTVSPropertyOp57
 70
     0
102
RTVSPropertyOp58
 70
     1
102
RTVSPropertyOp59
 70
     1
102
RTVSPropertyOp60
 70
     1
102
RTVSPropertyOp61
 70
     1
102
RTVSPropertyOp62
 70
     1
  0
XRECORD
  5
8872
102
{ACAD_REACTORS
330
8871
102
}
330
8871
100
AcDbXrecord
280
     1
102
RTVSPost2010Prop28
280
     0
102
RTVSPost2010PropOp28
 70
     1
102
RTVSPost2010Prop29
280
     1
102
RTVSPost2010PropOp29
 70
     1
102
RTVSPost2010Prop30
280
     1
102
RTVSPost2010PropOp30
 70
     1
102
RTVSPost2010Prop31
280
     0
102
RTVSPost2010PropOp31
 70
     1
102
RTVSPost2010Prop32
280
     0
102
RTVSPost2010PropOp32
 70
     1
102
RTVSPost2010Prop33
280
     0
102
RTVSPost2010PropOp33
 70
     1
102
RTVSPost2010Prop34
280
     0
102
RTVSPost2010PropOp34
 70
     1
102
RTVSPost2010Prop35
280
     0
102
RTVSPost2010PropOp35
 70
     1
102
RTVSPost2010Prop36
280
     0
102
RTVSPost2010PropOp36
 70
     1
102
RTVSPost2010Prop37
 90
       50
102
RTVSPost2010PropOp37
 70
     1
102
RTVSPost2010Prop38
140
0.0
102
RTVSPost2010PropOp38
 70
     1
102
RTVSPost2010Prop39
140
1.0
102
RTVSPost2010PropOp39
 70
     1
102
RTVSPost2010Prop40
 90
        0
102
RTVSPost2010PropOp40
 70
     1
102
RTVSPost2010Prop41ColorIndex
 90
       18
102
RTVSPost2010Prop41ColorRGB
 90
        0
102
RTVSPost2010PropOp41
 70
     1
102
RTVSPost2010Prop42
 90
       50
102
RTVSPost2010PropOp42
 70
     1
102
RTVSPost2010Prop43
 90
        3
102
RTVSPost2010PropOp43
 70
     1
102
RTVSPost2010Prop44ColorIndex
 90
        5
102
RTVSPost2010Prop44ColorRGB
 90
      255
102
RTVSPost2010PropOp44
 70
     1
102
RTVSPost2010Prop45
280
     0
102
RTVSPost2010PropOp45
 70
     1
102
RTVSPost2010Prop46
 90
       50
102
RTVSPost2010PropOp46
 70
     1
102
RTVSPost2010Prop47
 90
       50
102
RTVSPost2010PropOp47
 70
     1
102
RTVSPost2010Prop48
 90
       50
102
RTVSPost2010PropOp48
 70
     1
102
RTVSPost2010Prop49
280
     0
102
RTVSPost2010PropOp49
 70
     1
102
RTVSPost2010Prop50
 90
       50
102
RTVSPost2010PropOp50
 70
     1
102
RTVSPost2010Prop51ColorIndex
 90
      256
102
RTVSPost2010Prop51ColorRGB
 90
-16777216
102
RTVSPost2010PropOp51
 70
     0
102
RTVSPost2010Prop52
140
1.0
102
RTVSPost2010PropOp52
 70
     0
102
RTVSPost2010Prop53
 90
        2
102
RTVSPost2010PropOp53
 70
     1
102
RTVSPost2010Prop54
  1
strokes_ogs.tif
102
RTVSPost2010PropOp54
 70
     1
102
RTVSPost2010Prop55
280
     0
102
RTVSPost2010PropOp55
 70
     1
102
RTVSPost2010Prop56
140
1.0
102
RTVSPost2010PropOp56
 70
     1
102
RTVSPost2010Prop57
140
1.0
102
RTVSPost2010PropOp57
 70
     1
102
RTVSPropertyOp0
 70
     1
102
RTVSPropertyOp1
 70
     1
102
RTVSPropertyOp2
 70
     1
102
RTVSPropertyOp3
 70
     1
102
RTVSPropertyOp4
 70
     1
102
RTVSPropertyOp5
 70
     1
102
RTVSPropertyOp6
 70
     1
102
RTVSPropertyOp7
 70
     1
102
RTVSPropertyOp8
 70
     1
102
RTVSPropertyOp9
 70
     1
102
RTVSPropertyOp10
 70
     1
102
RTVSPropertyOp11
 70
     1
102
RTVSPropertyOp12
 70
     1
102
RTVSPropertyOp13
 70
     1
102
RTVSPropertyOp14
 70
     1
102
RTVSPropertyOp15
 70
     1
102
RTVSPropertyOp16
 70
     1
102
RTVSPropertyOp17
 70
     1
102
RTVSPropertyOp18
 70
     1
102
RTVSPropertyOp19
 70
     1
102
RTVSPropertyOp20
 70
     1
102
RTVSPropertyOp21
 70
     1
102
RTVSPropertyOp22
 70
     1
102
RTVSPropertyOp23
 70
     1
102
RTVSPropertyOp24
 70
     1
102
RTVSPropertyOp25
 70
     1
102
RTVSPropertyOp26
 70
     1
102
RTVSPropertyOp27
 70
     1
102
RTVSPropertyOp28
 70
     1
102
RTVSPropertyOp29
 70
     1
102
RTVSPropertyOp30
 70
     1
102
RTVSPropertyOp31
 70
     1
102
RTVSPropertyOp32
 70
     1
102
RTVSPropertyOp33
 70
     1
102
RTVSPropertyOp34
 70
     1
102
RTVSPropertyOp35
 70
     1
102
RTVSPropertyOp36
 70
     1
102
RTVSPropertyOp37
 70
     1
102
RTVSPropertyOp38
 70
     1
102
RTVSPropertyOp39
 70
     1
102
RTVSPropertyOp40
 70
     1
102
RTVSPropertyOp41
 70
     1
102
RTVSPropertyOp42
 70
     1
102
RTVSPropertyOp43
 70
     1
102
RTVSPropertyOp44
 70
     1
102
RTVSPropertyOp45
 70
     1
102
RTVSPropertyOp46
 70
     1
102
RTVSPropertyOp47
 70
     1
102
RTVSPropertyOp48
 70
     1
102
RTVSPropertyOp49
 70
     1
102
RTVSPropertyOp50
 70
     1
102
RTVSPropertyOp51
 70
     0
102
RTVSPropertyOp52
 70
     0
102
RTVSPropertyOp53
 70
     1
102
RTVSPropertyOp54
 70
     1
102
RTVSPropertyOp55
 70
     1
102
RTVSPropertyOp56
 70
     1
102
RTVSPropertyOp57
 70
     1
102
RTVSPropertyOp58
 70
     1
102
RTVSPropertyOp59
 70
     1
102
RTVSPropertyOp60
 70
     1
102
RTVSPropertyOp61
 70
     1
102
RTVSPropertyOp62
 70
     1
  0
XRECORD
  5
8856
102
{ACAD_REACTORS
330
8855
102
}
330
8855
100
AcDbXrecord
280
     1
102
RTVSPost2010Prop28
280
     0
102
RTVSPost2010PropOp28
 70
     1
102
RTVSPost2010Prop29
280
     1
102
RTVSPost2010PropOp29
 70
     1
102
RTVSPost2010Prop30
280
     1
102
RTVSPost2010PropOp30
 70
     1
102
RTVSPost2010Prop31
280
     0
102
RTVSPost2010PropOp31
 70
     1
102
RTVSPost2010Prop32
280
     0
102
RTVSPost2010PropOp32
 70
     1
102
RTVSPost2010Prop33
280
     0
102
RTVSPost2010PropOp33
 70
     1
102
RTVSPost2010Prop34
280
     0
102
RTVSPost2010PropOp34
 70
     1
102
RTVSPost2010Prop35
280
     0
102
RTVSPost2010PropOp35
 70
     1
102
RTVSPost2010Prop36
280
     0
102
RTVSPost2010PropOp36
 70
     1
102
RTVSPost2010Prop37
 90
       50
102
RTVSPost2010PropOp37
 70
     1
102
RTVSPost2010Prop38
140
0.0
102
RTVSPost2010PropOp38
 70
     1
102
RTVSPost2010Prop39
140
1.0
102
RTVSPost2010PropOp39
 70
     1
102
RTVSPost2010Prop40
 90
        0
102
RTVSPost2010PropOp40
 70
     1
102
RTVSPost2010Prop41ColorIndex
 90
       18
102
RTVSPost2010Prop41ColorRGB
 90
        0
102
RTVSPost2010PropOp41
 70
     1
102
RTVSPost2010Prop42
 90
       50
102
RTVSPost2010PropOp42
 70
     1
102
RTVSPost2010Prop43
 90
        3
102
RTVSPost2010PropOp43
 70
     1
102
RTVSPost2010Prop44ColorIndex
 90
        5
102
RTVSPost2010Prop44ColorRGB
 90
      255
102
RTVSPost2010PropOp44
 70
     1
102
RTVSPost2010Prop45
280
     0
102
RTVSPost2010PropOp45
 70
     1
102
RTVSPost2010Prop46
 90
       50
102
RTVSPost2010PropOp46
 70
     1
102
RTVSPost2010Prop47
 90
       50
102
RTVSPost2010PropOp47
 70
     1
102
RTVSPost2010Prop48
 90
       50
102
RTVSPost2010PropOp48
 70
     1
102
RTVSPost2010Prop49
280
     0
102
RTVSPost2010PropOp49
 70
     1
102
RTVSPost2010Prop50
 90
       50
102
RTVSPost2010PropOp50
 70
     1
102
RTVSPost2010Prop51ColorIndex
 90
      256
102
RTVSPost2010Prop51ColorRGB
 90
-16777216
102
RTVSPost2010PropOp51
 70
     0
102
RTVSPost2010Prop52
140
1.0
102
RTVSPost2010PropOp52
 70
     0
102
RTVSPost2010Prop53
 90
        2
102
RTVSPost2010PropOp53
 70
     1
102
RTVSPost2010Prop54
  1
strokes_ogs.tif
102
RTVSPost2010PropOp54
 70
     1
102
RTVSPost2010Prop55
280
     0
102
RTVSPost2010PropOp55
 70
     1
102
RTVSPost2010Prop56
140
1.0
102
RTVSPost2010PropOp56
 70
     1
102
RTVSPost2010Prop57
140
1.0
102
RTVSPost2010PropOp57
 70
     1
102
RTVSPropertyOp0
 70
     1
102
RTVSPropertyOp1
 70
     1
102
RTVSPropertyOp2
 70
     1
102
RTVSPropertyOp3
 70
     1
102
RTVSPropertyOp4
 70
     1
102
RTVSPropertyOp5
 70
     1
102
RTVSPropertyOp6
 70
     1
102
RTVSPropertyOp7
 70
     1
102
RTVSPropertyOp8
 70
     1
102
RTVSPropertyOp9
 70
     1
102
RTVSPropertyOp10
 70
     1
102
RTVSPropertyOp11
 70
     1
102
RTVSPropertyOp12
 70
     1
102
RTVSPropertyOp13
 70
     1
102
RTVSPropertyOp14
 70
     1
102
RTVSPropertyOp15
 70
     1
102
RTVSPropertyOp16
 70
     1
102
RTVSPropertyOp17
 70
     1
102
RTVSPropertyOp18
 70
     1
102
RTVSPropertyOp19
 70
     1
102
RTVSPropertyOp20
 70
     1
102
RTVSPropertyOp21
 70
     1
102
RTVSPropertyOp22
 70
     1
102
RTVSPropertyOp23
 70
     1
102
RTVSPropertyOp24
 70
     1
102
RTVSPropertyOp25
 70
     1
102
RTVSPropertyOp26
 70
     1
102
RTVSPropertyOp27
 70
     1
102
RTVSPropertyOp28
 70
     1
102
RTVSPropertyOp29
 70
     1
102
RTVSPropertyOp30
 70
     1
102
RTVSPropertyOp31
 70
     1
102
RTVSPropertyOp32
 70
     1
102
RTVSPropertyOp33
 70
     1
102
RTVSPropertyOp34
 70
     1
102
RTVSPropertyOp35
 70
     1
102
RTVSPropertyOp36
 70
     1
102
RTVSPropertyOp37
 70
     1
102
RTVSPropertyOp38
 70
     1
102
RTVSPropertyOp39
 70
     1
102
RTVSPropertyOp40
 70
     1
102
RTVSPropertyOp41
 70
     1
102
RTVSPropertyOp42
 70
     1
102
RTVSPropertyOp43
 70
     1
102
RTVSPropertyOp44
 70
     1
102
RTVSPropertyOp45
 70
     1
102
RTVSPropertyOp46
 70
     1
102
RTVSPropertyOp47
 70
     1
102
RTVSPropertyOp48
 70
     1
102
RTVSPropertyOp49
 70
     1
102
RTVSPropertyOp50
 70
     1
102
RTVSPropertyOp51
 70
     0
102
RTVSPropertyOp52
 70
     0
102
RTVSPropertyOp53
 70
     1
102
RTVSPropertyOp54
 70
     1
102
RTVSPropertyOp55
 70
     1
102
RTVSPropertyOp56
 70
     1
102
RTVSPropertyOp57
 70
     1
102
RTVSPropertyOp58
 70
     1
102
RTVSPropertyOp59
 70
     1
102
RTVSPropertyOp60
 70
     1
102
RTVSPropertyOp61
 70
     1
102
RTVSPropertyOp62
 70
     1
  0
XRECORD
  5
8858
102
{ACAD_REACTORS
330
8857
102
}
330
8857
100
AcDbXrecord
280
     1
102
RTVSPost2010Prop28
280
     0
102
RTVSPost2010PropOp28
 70
     1
102
RTVSPost2010Prop29
280
     1
102
RTVSPost2010PropOp29
 70
     1
102
RTVSPost2010Prop30
280
     1
102
RTVSPost2010PropOp30
 70
     1
102
RTVSPost2010Prop31
280
     0
102
RTVSPost2010PropOp31
 70
     1
102
RTVSPost2010Prop32
280
     0
102
RTVSPost2010PropOp32
 70
     1
102
RTVSPost2010Prop33
280
     0
102
RTVSPost2010PropOp33
 70
     1
102
RTVSPost2010Prop34
280
     0
102
RTVSPost2010PropOp34
 70
     1
102
RTVSPost2010Prop35
280
     0
102
RTVSPost2010PropOp35
 70
     1
102
RTVSPost2010Prop36
280
     0
102
RTVSPost2010PropOp36
 70
     1
102
RTVSPost2010Prop37
 90
       50
102
RTVSPost2010PropOp37
 70
     1
102
RTVSPost2010Prop38
140
0.0
102
RTVSPost2010PropOp38
 70
     1
102
RTVSPost2010Prop39
140
1.0
102
RTVSPost2010PropOp39
 70
     1
102
RTVSPost2010Prop40
 90
        0
102
RTVSPost2010PropOp40
 70
     1
102
RTVSPost2010Prop41ColorIndex
 90
       18
102
RTVSPost2010Prop41ColorRGB
 90
        0
102
RTVSPost2010PropOp41
 70
     1
102
RTVSPost2010Prop42
 90
       50
102
RTVSPost2010PropOp42
 70
     1
102
RTVSPost2010Prop43
 90
        3
102
RTVSPost2010PropOp43
 70
     1
102
RTVSPost2010Prop44ColorIndex
 90
        5
102
RTVSPost2010Prop44ColorRGB
 90
      255
102
RTVSPost2010PropOp44
 70
     1
102
RTVSPost2010Prop45
280
     0
102
RTVSPost2010PropOp45
 70
     1
102
RTVSPost2010Prop46
 90
       50
102
RTVSPost2010PropOp46
 70
     1
102
RTVSPost2010Prop47
 90
       50
102
RTVSPost2010PropOp47
 70
     1
102
RTVSPost2010Prop48
 90
       50
102
RTVSPost2010PropOp48
 70
     1
102
RTVSPost2010Prop49
280
     0
102
RTVSPost2010PropOp49
 70
     1
102
RTVSPost2010Prop50
 90
       50
102
RTVSPost2010PropOp50
 70
     1
102
RTVSPost2010Prop51ColorIndex
 90
      256
102
RTVSPost2010Prop51ColorRGB
 90
-16777216
102
RTVSPost2010PropOp51
 70
     0
102
RTVSPost2010Prop52
140
1.0
102
RTVSPost2010PropOp52
 70
     0
102
RTVSPost2010Prop53
 90
        2
102
RTVSPost2010PropOp53
 70
     1
102
RTVSPost2010Prop54
  1
strokes_ogs.tif
102
RTVSPost2010PropOp54
 70
     1
102
RTVSPost2010Prop55
280
     0
102
RTVSPost2010PropOp55
 70
     1
102
RTVSPost2010Prop56
140
1.0
102
RTVSPost2010PropOp56
 70
     1
102
RTVSPost2010Prop57
140
1.0
102
RTVSPost2010PropOp57
 70
     1
102
RTVSPropertyOp0
 70
     1
102
RTVSPropertyOp1
 70
     1
102
RTVSPropertyOp2
 70
     1
102
RTVSPropertyOp3
 70
     1
102
RTVSPropertyOp4
 70
     1
102
RTVSPropertyOp5
 70
     1
102
RTVSPropertyOp6
 70
     1
102
RTVSPropertyOp7
 70
     1
102
RTVSPropertyOp8
 70
     1
102
RTVSPropertyOp9
 70
     1
102
RTVSPropertyOp10
 70
     1
102
RTVSPropertyOp11
 70
     1
102
RTVSPropertyOp12
 70
     1
102
RTVSPropertyOp13
 70
     1
102
RTVSPropertyOp14
 70
     1
102
RTVSPropertyOp15
 70
     1
102
RTVSPropertyOp16
 70
     1
102
RTVSPropertyOp17
 70
     1
102
RTVSPropertyOp18
 70
     1
102
RTVSPropertyOp19
 70
     1
102
RTVSPropertyOp20
 70
     1
102
RTVSPropertyOp21
 70
     1
102
RTVSPropertyOp22
 70
     1
102
RTVSPropertyOp23
 70
     1
102
RTVSPropertyOp24
 70
     1
102
RTVSPropertyOp25
 70
     1
102
RTVSPropertyOp26
 70
     1
102
RTVSPropertyOp27
 70
     1
102
RTVSPropertyOp28
 70
     1
102
RTVSPropertyOp29
 70
     1
102
RTVSPropertyOp30
 70
     1
102
RTVSPropertyOp31
 70
     1
102
RTVSPropertyOp32
 70
     1
102
RTVSPropertyOp33
 70
     1
102
RTVSPropertyOp34
 70
     1
102
RTVSPropertyOp35
 70
     1
102
RTVSPropertyOp36
 70
     1
102
RTVSPropertyOp37
 70
     1
102
RTVSPropertyOp38
 70
     1
102
RTVSPropertyOp39
 70
     1
102
RTVSPropertyOp40
 70
     1
102
RTVSPropertyOp41
 70
     1
102
RTVSPropertyOp42
 70
     1
102
RTVSPropertyOp43
 70
     1
102
RTVSPropertyOp44
 70
     1
102
RTVSPropertyOp45
 70
     1
102
RTVSPropertyOp46
 70
     1
102
RTVSPropertyOp47
 70
     1
102
RTVSPropertyOp48
 70
     1
102
RTVSPropertyOp49
 70
     1
102
RTVSPropertyOp50
 70
     1
102
RTVSPropertyOp51
 70
     0
102
RTVSPropertyOp52
 70
     0
102
RTVSPropertyOp53
 70
     1
102
RTVSPropertyOp54
 70
     1
102
RTVSPropertyOp55
 70
     1
102
RTVSPropertyOp56
 70
     1
102
RTVSPropertyOp57
 70
     1
102
RTVSPropertyOp58
 70
     1
102
RTVSPropertyOp59
 70
     1
102
RTVSPropertyOp60
 70
     1
102
RTVSPropertyOp61
 70
     1
102
RTVSPropertyOp62
 70
     1
  0
XRECORD
  5
885A
102
{ACAD_REACTORS
330
8859
102
}
330
8859
100
AcDbXrecord
280
     1
102
RTVSPost2010Prop28
280
     0
102
RTVSPost2010PropOp28
 70
     1
102
RTVSPost2010Prop29
280
     1
102
RTVSPost2010PropOp29
 70
     1
102
RTVSPost2010Prop30
280
     1
102
RTVSPost2010PropOp30
 70
     1
102
RTVSPost2010Prop31
280
     0
102
RTVSPost2010PropOp31
 70
     1
102
RTVSPost2010Prop32
280
     0
102
RTVSPost2010PropOp32
 70
     1
102
RTVSPost2010Prop33
280
     0
102
RTVSPost2010PropOp33
 70
     1
102
RTVSPost2010Prop34
280
     0
102
RTVSPost2010PropOp34
 70
     1
102
RTVSPost2010Prop35
280
     0
102
RTVSPost2010PropOp35
 70
     1
102
RTVSPost2010Prop36
280
     0
102
RTVSPost2010PropOp36
 70
     1
102
RTVSPost2010Prop37
 90
       50
102
RTVSPost2010PropOp37
 70
     1
102
RTVSPost2010Prop38
140
0.0
102
RTVSPost2010PropOp38
 70
     1
102
RTVSPost2010Prop39
140
1.0
102
RTVSPost2010PropOp39
 70
     1
102
RTVSPost2010Prop40
 90
        0
102
RTVSPost2010PropOp40
 70
     1
102
RTVSPost2010Prop41ColorIndex
 90
       18
102
RTVSPost2010Prop41ColorRGB
 90
        0
102
RTVSPost2010PropOp41
 70
     1
102
RTVSPost2010Prop42
 90
       50
102
RTVSPost2010PropOp42
 70
     1
102
RTVSPost2010Prop43
 90
        3
102
RTVSPost2010PropOp43
 70
     1
102
RTVSPost2010Prop44ColorIndex
 90
        5
102
RTVSPost2010Prop44ColorRGB
 90
      255
102
RTVSPost2010PropOp44
 70
     1
102
RTVSPost2010Prop45
280
     0
102
RTVSPost2010PropOp45
 70
     1
102
RTVSPost2010Prop46
 90
       50
102
RTVSPost2010PropOp46
 70
     1
102
RTVSPost2010Prop47
 90
       50
102
RTVSPost2010PropOp47
 70
     1
102
RTVSPost2010Prop48
 90
       50
102
RTVSPost2010PropOp48
 70
     1
102
RTVSPost2010Prop49
280
     0
102
RTVSPost2010PropOp49
 70
     1
102
RTVSPost2010Prop50
 90
       50
102
RTVSPost2010PropOp50
 70
     1
102
RTVSPost2010Prop51ColorIndex
 90
      256
102
RTVSPost2010Prop51ColorRGB
 90
-16777216
102
RTVSPost2010PropOp51
 70
     0
102
RTVSPost2010Prop52
140
1.0
102
RTVSPost2010PropOp52
 70
     0
102
RTVSPost2010Prop53
 90
        2
102
RTVSPost2010PropOp53
 70
     1
102
RTVSPost2010Prop54
  1
strokes_ogs.tif
102
RTVSPost2010PropOp54
 70
     1
102
RTVSPost2010Prop55
280
     0
102
RTVSPost2010PropOp55
 70
     1
102
RTVSPost2010Prop56
140
1.0
102
RTVSPost2010PropOp56
 70
     1
102
RTVSPost2010Prop57
140
1.0
102
RTVSPost2010PropOp57
 70
     1
102
RTVSPropertyOp0
 70
     1
102
RTVSPropertyOp1
 70
     1
102
RTVSPropertyOp2
 70
     1
102
RTVSPropertyOp3
 70
     1
102
RTVSPropertyOp4
 70
     1
102
RTVSPropertyOp5
 70
     1
102
RTVSPropertyOp6
 70
     1
102
RTVSPropertyOp7
 70
     1
102
RTVSPropertyOp8
 70
     1
102
RTVSPropertyOp9
 70
     1
102
RTVSPropertyOp10
 70
     1
102
RTVSPropertyOp11
 70
     1
102
RTVSPropertyOp12
 70
     1
102
RTVSPropertyOp13
 70
     1
102
RTVSPropertyOp14
 70
     1
102
RTVSPropertyOp15
 70
     1
102
RTVSPropertyOp16
 70
     1
102
RTVSPropertyOp17
 70
     1
102
RTVSPropertyOp18
 70
     1
102
RTVSPropertyOp19
 70
     1
102
RTVSPropertyOp20
 70
     1
102
RTVSPropertyOp21
 70
     1
102
RTVSPropertyOp22
 70
     1
102
RTVSPropertyOp23
 70
     1
102
RTVSPropertyOp24
 70
     1
102
RTVSPropertyOp25
 70
     1
102
RTVSPropertyOp26
 70
     1
102
RTVSPropertyOp27
 70
     1
102
RTVSPropertyOp28
 70
     1
102
RTVSPropertyOp29
 70
     1
102
RTVSPropertyOp30
 70
     1
102
RTVSPropertyOp31
 70
     1
102
RTVSPropertyOp32
 70
     1
102
RTVSPropertyOp33
 70
     1
102
RTVSPropertyOp34
 70
     1
102
RTVSPropertyOp35
 70
     1
102
RTVSPropertyOp36
 70
     1
102
RTVSPropertyOp37
 70
     1
102
RTVSPropertyOp38
 70
     1
102
RTVSPropertyOp39
 70
     1
102
RTVSPropertyOp40
 70
     1
102
RTVSPropertyOp41
 70
     1
102
RTVSPropertyOp42
 70
     1
102
RTVSPropertyOp43
 70
     1
102
RTVSPropertyOp44
 70
     1
102
RTVSPropertyOp45
 70
     1
102
RTVSPropertyOp46
 70
     1
102
RTVSPropertyOp47
 70
     1
102
RTVSPropertyOp48
 70
     1
102
RTVSPropertyOp49
 70
     1
102
RTVSPropertyOp50
 70
     1
102
RTVSPropertyOp51
 70
     0
102
RTVSPropertyOp52
 70
     0
102
RTVSPropertyOp53
 70
     1
102
RTVSPropertyOp54
 70
     1
102
RTVSPropertyOp55
 70
     1
102
RTVSPropertyOp56
 70
     1
102
RTVSPropertyOp57
 70
     1
102
RTVSPropertyOp58
 70
     1
102
RTVSPropertyOp59
 70
     1
102
RTVSPropertyOp60
 70
     1
102
RTVSPropertyOp61
 70
     1
102
RTVSPropertyOp62
 70
     1
  0
XRECORD
  5
885C
102
{ACAD_REACTORS
330
885B
102
}
330
885B
100
AcDbXrecord
280
     1
102
RTVSPost2010Prop28
280
     0
102
RTVSPost2010PropOp28
 70
     1
102
RTVSPost2010Prop29
280
     1
102
RTVSPost2010PropOp29
 70
     1
102
RTVSPost2010Prop30
280
     1
102
RTVSPost2010PropOp30
 70
     1
102
RTVSPost2010Prop31
280
     0
102
RTVSPost2010PropOp31
 70
     1
102
RTVSPost2010Prop32
280
     0
102
RTVSPost2010PropOp32
 70
     1
102
RTVSPost2010Prop33
280
     0
102
RTVSPost2010PropOp33
 70
     1
102
RTVSPost2010Prop34
280
     0
102
RTVSPost2010PropOp34
 70
     1
102
RTVSPost2010Prop35
280
     0
102
RTVSPost2010PropOp35
 70
     1
102
RTVSPost2010Prop36
280
     0
102
RTVSPost2010PropOp36
 70
     1
102
RTVSPost2010Prop37
 90
       50
102
RTVSPost2010PropOp37
 70
     1
102
RTVSPost2010Prop38
140
0.0
102
RTVSPost2010PropOp38
 70
     1
102
RTVSPost2010Prop39
140
1.0
102
RTVSPost2010PropOp39
 70
     1
102
RTVSPost2010Prop40
 90
        0
102
RTVSPost2010PropOp40
 70
     1
102
RTVSPost2010Prop41ColorIndex
 90
       18
102
RTVSPost2010Prop41ColorRGB
 90
        0
102
RTVSPost2010PropOp41
 70
     1
102
RTVSPost2010Prop42
 90
       50
102
RTVSPost2010PropOp42
 70
     1
102
RTVSPost2010Prop43
 90
        3
102
RTVSPost2010PropOp43
 70
     1
102
RTVSPost2010Prop44ColorIndex
 90
        5
102
RTVSPost2010Prop44ColorRGB
 90
      255
102
RTVSPost2010PropOp44
 70
     1
102
RTVSPost2010Prop45
280
     0
102
RTVSPost2010PropOp45
 70
     1
102
RTVSPost2010Prop46
 90
       50
102
RTVSPost2010PropOp46
 70
     1
102
RTVSPost2010Prop47
 90
       50
102
RTVSPost2010PropOp47
 70
     1
102
RTVSPost2010Prop48
 90
       50
102
RTVSPost2010PropOp48
 70
     1
102
RTVSPost2010Prop49
280
     0
102
RTVSPost2010PropOp49
 70
     1
102
RTVSPost2010Prop50
 90
       50
102
RTVSPost2010PropOp50
 70
     1
102
RTVSPost2010Prop51ColorIndex
 90
      256
102
RTVSPost2010Prop51ColorRGB
 90
-16777216
102
RTVSPost2010PropOp51
 70
     0
102
RTVSPost2010Prop52
140
1.0
102
RTVSPost2010PropOp52
 70
     0
102
RTVSPost2010Prop53
 90
        2
102
RTVSPost2010PropOp53
 70
     1
102
RTVSPost2010Prop54
  1
strokes_ogs.tif
102
RTVSPost2010PropOp54
 70
     1
102
RTVSPost2010Prop55
280
     0
102
RTVSPost2010PropOp55
 70
     1
102
RTVSPost2010Prop56
140
1.0
102
RTVSPost2010PropOp56
 70
     1
102
RTVSPost2010Prop57
140
1.0
102
RTVSPost2010PropOp57
 70
     1
102
RTVSPropertyOp0
 70
     1
102
RTVSPropertyOp1
 70
     1
102
RTVSPropertyOp2
 70
     1
102
RTVSPropertyOp3
 70
     1
102
RTVSPropertyOp4
 70
     1
102
RTVSPropertyOp5
 70
     1
102
RTVSPropertyOp6
 70
     1
102
RTVSPropertyOp7
 70
     1
102
RTVSPropertyOp8
 70
     1
102
RTVSPropertyOp9
 70
     1
102
RTVSPropertyOp10
 70
     1
102
RTVSPropertyOp11
 70
     1
102
RTVSPropertyOp12
 70
     1
102
RTVSPropertyOp13
 70
     1
102
RTVSPropertyOp14
 70
     1
102
RTVSPropertyOp15
 70
     1
102
RTVSPropertyOp16
 70
     1
102
RTVSPropertyOp17
 70
     1
102
RTVSPropertyOp18
 70
     1
102
RTVSPropertyOp19
 70
     1
102
RTVSPropertyOp20
 70
     1
102
RTVSPropertyOp21
 70
     1
102
RTVSPropertyOp22
 70
     1
102
RTVSPropertyOp23
 70
     1
102
RTVSPropertyOp24
 70
     1
102
RTVSPropertyOp25
 70
     1
102
RTVSPropertyOp26
 70
     1
102
RTVSPropertyOp27
 70
     1
102
RTVSPropertyOp28
 70
     1
102
RTVSPropertyOp29
 70
     1
102
RTVSPropertyOp30
 70
     1
102
RTVSPropertyOp31
 70
     1
102
RTVSPropertyOp32
 70
     1
102
RTVSPropertyOp33
 70
     1
102
RTVSPropertyOp34
 70
     1
102
RTVSPropertyOp35
 70
     1
102
RTVSPropertyOp36
 70
     1
102
RTVSPropertyOp37
 70
     1
102
RTVSPropertyOp38
 70
     1
102
RTVSPropertyOp39
 70
     1
102
RTVSPropertyOp40
 70
     1
102
RTVSPropertyOp41
 70
     1
102
RTVSPropertyOp42
 70
     1
102
RTVSPropertyOp43
 70
     1
102
RTVSPropertyOp44
 70
     1
102
RTVSPropertyOp45
 70
     1
102
RTVSPropertyOp46
 70
     1
102
RTVSPropertyOp47
 70
     1
102
RTVSPropertyOp48
 70
     1
102
RTVSPropertyOp49
 70
     1
102
RTVSPropertyOp50
 70
     1
102
RTVSPropertyOp51
 70
     0
102
RTVSPropertyOp52
 70
     0
102
RTVSPropertyOp53
 70
     1
102
RTVSPropertyOp54
 70
     1
102
RTVSPropertyOp55
 70
     1
102
RTVSPropertyOp56
 70
     1
102
RTVSPropertyOp57
 70
     1
102
RTVSPropertyOp58
 70
     1
102
RTVSPropertyOp59
 70
     1
102
RTVSPropertyOp60
 70
     1
102
RTVSPropertyOp61
 70
     1
102
RTVSPropertyOp62
 70
     1
  0
XRECORD
  5
8864
102
{ACAD_REACTORS
330
8863
102
}
330
8863
100
AcDbXrecord
280
     1
102
RTVSPost2010Prop28
280
     0
102
RTVSPost2010PropOp28
 70
     1
102
RTVSPost2010Prop29
280
     1
102
RTVSPost2010PropOp29
 70
     1
102
RTVSPost2010Prop30
280
     1
102
RTVSPost2010PropOp30
 70
     1
102
RTVSPost2010Prop31
280
     0
102
RTVSPost2010PropOp31
 70
     1
102
RTVSPost2010Prop32
280
     0
102
RTVSPost2010PropOp32
 70
     1
102
RTVSPost2010Prop33
280
     0
102
RTVSPost2010PropOp33
 70
     1
102
RTVSPost2010Prop34
280
     0
102
RTVSPost2010PropOp34
 70
     1
102
RTVSPost2010Prop35
280
     0
102
RTVSPost2010PropOp35
 70
     1
102
RTVSPost2010Prop36
280
     0
102
RTVSPost2010PropOp36
 70
     1
102
RTVSPost2010Prop37
 90
       50
102
RTVSPost2010PropOp37
 70
     1
102
RTVSPost2010Prop38
140
0.0
102
RTVSPost2010PropOp38
 70
     1
102
RTVSPost2010Prop39
140
1.0
102
RTVSPost2010PropOp39
 70
     1
102
RTVSPost2010Prop40
 90
        0
102
RTVSPost2010PropOp40
 70
     1
102
RTVSPost2010Prop41ColorIndex
 90
       18
102
RTVSPost2010Prop41ColorRGB
 90
        0
102
RTVSPost2010PropOp41
 70
     1
102
RTVSPost2010Prop42
 90
       50
102
RTVSPost2010PropOp42
 70
     1
102
RTVSPost2010Prop43
 90
        3
102
RTVSPost2010PropOp43
 70
     1
102
RTVSPost2010Prop44ColorIndex
 90
        5
102
RTVSPost2010Prop44ColorRGB
 90
      255
102
RTVSPost2010PropOp44
 70
     1
102
RTVSPost2010Prop45
280
     0
102
RTVSPost2010PropOp45
 70
     1
102
RTVSPost2010Prop46
 90
       50
102
RTVSPost2010PropOp46
 70
     1
102
RTVSPost2010Prop47
 90
       50
102
RTVSPost2010PropOp47
 70
     1
102
RTVSPost2010Prop48
 90
       50
102
RTVSPost2010PropOp48
 70
     1
102
RTVSPost2010Prop49
280
     0
102
RTVSPost2010PropOp49
 70
     1
102
RTVSPost2010Prop50
 90
       50
102
RTVSPost2010PropOp50
 70
     1
102
RTVSPost2010Prop51ColorIndex
 90
      256
102
RTVSPost2010Prop51ColorRGB
 90
-16777216
102
RTVSPost2010PropOp51
 70
     0
102
RTVSPost2010Prop52
140
1.0
102
RTVSPost2010PropOp52
 70
     0
102
RTVSPost2010Prop53
 90
        2
102
RTVSPost2010PropOp53
 70
     1
102
RTVSPost2010Prop54
  1
strokes_ogs.tif
102
RTVSPost2010PropOp54
 70
     1
102
RTVSPost2010Prop55
280
     0
102
RTVSPost2010PropOp55
 70
     1
102
RTVSPost2010Prop56
140
1.0
102
RTVSPost2010PropOp56
 70
     1
102
RTVSPost2010Prop57
140
1.0
102
RTVSPost2010PropOp57
 70
     1
102
RTVSPropertyOp0
 70
     1
102
RTVSPropertyOp1
 70
     1
102
RTVSPropertyOp2
 70
     1
102
RTVSPropertyOp3
 70
     1
102
RTVSPropertyOp4
 70
     1
102
RTVSPropertyOp5
 70
     1
102
RTVSPropertyOp6
 70
     1
102
RTVSPropertyOp7
 70
     1
102
RTVSPropertyOp8
 70
     1
102
RTVSPropertyOp9
 70
     1
102
RTVSPropertyOp10
 70
     1
102
RTVSPropertyOp11
 70
     1
102
RTVSPropertyOp12
 70
     1
102
RTVSPropertyOp13
 70
     1
102
RTVSPropertyOp14
 70
     1
102
RTVSPropertyOp15
 70
     1
102
RTVSPropertyOp16
 70
     1
102
RTVSPropertyOp17
 70
     1
102
RTVSPropertyOp18
 70
     1
102
RTVSPropertyOp19
 70
     1
102
RTVSPropertyOp20
 70
     1
102
RTVSPropertyOp21
 70
     1
102
RTVSPropertyOp22
 70
     1
102
RTVSPropertyOp23
 70
     1
102
RTVSPropertyOp24
 70
     1
102
RTVSPropertyOp25
 70
     1
102
RTVSPropertyOp26
 70
     1
102
RTVSPropertyOp27
 70
     1
102
RTVSPropertyOp28
 70
     1
102
RTVSPropertyOp29
 70
     1
102
RTVSPropertyOp30
 70
     1
102
RTVSPropertyOp31
 70
     1
102
RTVSPropertyOp32
 70
     1
102
RTVSPropertyOp33
 70
     1
102
RTVSPropertyOp34
 70
     1
102
RTVSPropertyOp35
 70
     1
102
RTVSPropertyOp36
 70
     1
102
RTVSPropertyOp37
 70
     1
102
RTVSPropertyOp38
 70
     1
102
RTVSPropertyOp39
 70
     1
102
RTVSPropertyOp40
 70
     1
102
RTVSPropertyOp41
 70
     1
102
RTVSPropertyOp42
 70
     1
102
RTVSPropertyOp43
 70
     1
102
RTVSPropertyOp44
 70
     1
102
RTVSPropertyOp45
 70
     1
102
RTVSPropertyOp46
 70
     1
102
RTVSPropertyOp47
 70
     1
102
RTVSPropertyOp48
 70
     1
102
RTVSPropertyOp49
 70
     1
102
RTVSPropertyOp50
 70
     1
102
RTVSPropertyOp51
 70
     0
102
RTVSPropertyOp52
 70
     0
102
RTVSPropertyOp53
 70
     1
102
RTVSPropertyOp54
 70
     1
102
RTVSPropertyOp55
 70
     1
102
RTVSPropertyOp56
 70
     1
102
RTVSPropertyOp57
 70
     1
102
RTVSPropertyOp58
 70
     1
102
RTVSPropertyOp59
 70
     1
102
RTVSPropertyOp60
 70
     1
102
RTVSPropertyOp61
 70
     1
102
RTVSPropertyOp62
 70
     1
  0
XRECORD
  5
8880
102
{ACAD_REACTORS
330
887F
102
}
330
887F
100
AcDbXrecord
280
     1
102
RTVSPost2010Prop28
280
     0
102
RTVSPost2010PropOp28
 70
     0
102
RTVSPost2010Prop29
280
     1
102
RTVSPost2010PropOp29
 70
     0
102
RTVSPost2010Prop30
280
     1
102
RTVSPost2010PropOp30
 70
     0
102
RTVSPost2010Prop31
280
     0
102
RTVSPost2010PropOp31
 70
     0
102
RTVSPost2010Prop32
280
     0
102
RTVSPost2010PropOp32
 70
     0
102
RTVSPost2010Prop33
280
     0
102
RTVSPost2010PropOp33
 70
     0
102
RTVSPost2010Prop34
280
     0
102
RTVSPost2010PropOp34
 70
     0
102
RTVSPost2010Prop35
280
     0
102
RTVSPost2010PropOp35
 70
     0
102
RTVSPost2010Prop36
280
     0
102
RTVSPost2010PropOp36
 70
     0
102
RTVSPost2010Prop37
 90
       50
102
RTVSPost2010PropOp37
 70
     0
102
RTVSPost2010Prop38
140
0.0
102
RTVSPost2010PropOp38
 70
     0
102
RTVSPost2010Prop39
140
1.0
102
RTVSPost2010PropOp39
 70
     0
102
RTVSPost2010Prop40
 90
        0
102
RTVSPost2010PropOp40
 70
     0
102
RTVSPost2010Prop41ColorIndex
 90
       18
102
RTVSPost2010Prop41ColorRGB
 90
        0
102
RTVSPost2010PropOp41
 70
     0
102
RTVSPost2010Prop42
 90
       50
102
RTVSPost2010PropOp42
 70
     0
102
RTVSPost2010Prop43
 90
        3
102
RTVSPost2010PropOp43
 70
     0
102
RTVSPost2010Prop44ColorIndex
 90
        5
102
RTVSPost2010Prop44ColorRGB
 90
      255
102
RTVSPost2010PropOp44
 70
     0
102
RTVSPost2010Prop45
280
     0
102
RTVSPost2010PropOp45
 70
     0
102
RTVSPost2010Prop46
 90
       50
102
RTVSPost2010PropOp46
 70
     0
102
RTVSPost2010Prop47
 90
       50
102
RTVSPost2010PropOp47
 70
     0
102
RTVSPost2010Prop48
 90
       50
102
RTVSPost2010PropOp48
 70
     0
102
RTVSPost2010Prop49
280
     0
102
RTVSPost2010PropOp49
 70
     0
102
RTVSPost2010Prop50
 90
       50
102
RTVSPost2010PropOp50
 70
     0
102
RTVSPost2010Prop51ColorIndex
 90
      256
102
RTVSPost2010Prop51ColorRGB
 90
-16777216
102
RTVSPost2010PropOp51
 70
     0
102
RTVSPost2010Prop52
140
1.0
102
RTVSPost2010PropOp52
 70
     0
102
RTVSPost2010Prop53
 90
        2
102
RTVSPost2010PropOp53
 70
     0
102
RTVSPost2010Prop54
  1
strokes_ogs.tif
102
RTVSPost2010PropOp54
 70
     0
102
RTVSPost2010Prop55
280
     0
102
RTVSPost2010PropOp55
 70
     0
102
RTVSPost2010Prop56
140
1.0
102
RTVSPost2010PropOp56
 70
     0
102
RTVSPost2010Prop57
140
1.0
102
RTVSPost2010PropOp57
 70
     0
102
RTVSPropertyOp0
 70
     0
102
RTVSPropertyOp1
 70
     0
102
RTVSPropertyOp2
 70
     0
102
RTVSPropertyOp3
 70
     0
102
RTVSPropertyOp4
 70
     0
102
RTVSPropertyOp5
 70
     0
102
RTVSPropertyOp6
 70
     0
102
RTVSPropertyOp7
 70
     0
102
RTVSPropertyOp8
 70
     0
102
RTVSPropertyOp9
 70
     0
102
RTVSPropertyOp10
 70
     0
102
RTVSPropertyOp11
 70
     0
102
RTVSPropertyOp12
 70
     0
102
RTVSPropertyOp13
 70
     0
102
RTVSPropertyOp14
 70
     2
102
RTVSPropertyOp15
 70
     0
102
RTVSPropertyOp16
 70
     0
102
RTVSPropertyOp17
 70
     0
102
RTVSPropertyOp18
 70
     0
102
RTVSPropertyOp19
 70
     0
102
RTVSPropertyOp20
 70
     0
102
RTVSPropertyOp21
 70
     0
102
RTVSPropertyOp22
 70
     0
102
RTVSPropertyOp23
 70
     0
102
RTVSPropertyOp24
 70
     0
102
RTVSPropertyOp25
 70
     0
102
RTVSPropertyOp26
 70
     0
102
RTVSPropertyOp27
 70
     0
102
RTVSPropertyOp28
 70
     0
102
RTVSPropertyOp29
 70
     0
102
RTVSPropertyOp30
 70
     0
102
RTVSPropertyOp31
 70
     0
102
RTVSPropertyOp32
 70
     0
102
RTVSPropertyOp33
 70
     0
102
RTVSPropertyOp34
 70
     0
102
RTVSPropertyOp35
 70
     0
102
RTVSPropertyOp36
 70
     0
102
RTVSPropertyOp37
 70
     0
102
RTVSPropertyOp38
 70
     0
102
RTVSPropertyOp39
 70
     0
102
RTVSPropertyOp40
 70
     0
102
RTVSPropertyOp41
 70
     0
102
RTVSPropertyOp42
 70
     0
102
RTVSPropertyOp43
 70
     0
102
RTVSPropertyOp44
 70
     0
102
RTVSPropertyOp45
 70
     0
102
RTVSPropertyOp46
 70
     0
102
RTVSPropertyOp47
 70
     0
102
RTVSPropertyOp48
 70
     0
102
RTVSPropertyOp49
 70
     0
102
RTVSPropertyOp50
 70
     0
102
RTVSPropertyOp51
 70
     0
102
RTVSPropertyOp52
 70
     0
102
RTVSPropertyOp53
 70
     0
102
RTVSPropertyOp54
 70
     0
102
RTVSPropertyOp55
 70
     0
102
RTVSPropertyOp56
 70
     0
102
RTVSPropertyOp57
 70
     0
102
RTVSPropertyOp58
 70
     1
102
RTVSPropertyOp59
 70
     1
102
RTVSPropertyOp60
 70
     1
102
RTVSPropertyOp61
 70
     1
102
RTVSPropertyOp62
 70
     1
  0
XRECORD
  5
8870
102
{ACAD_REACTORS
330
886F
102
}
330
886F
100
AcDbXrecord
280
     1
102
RTVSPost2010Prop28
280
     0
102
RTVSPost2010PropOp28
 70
     1
102
RTVSPost2010Prop29
280
     1
102
RTVSPost2010PropOp29
 70
     1
102
RTVSPost2010Prop30
280
     1
102
RTVSPost2010PropOp30
 70
     1
102
RTVSPost2010Prop31
280
     0
102
RTVSPost2010PropOp31
 70
     1
102
RTVSPost2010Prop32
280
     0
102
RTVSPost2010PropOp32
 70
     1
102
RTVSPost2010Prop33
280
     0
102
RTVSPost2010PropOp33
 70
     1
102
RTVSPost2010Prop34
280
     0
102
RTVSPost2010PropOp34
 70
     1
102
RTVSPost2010Prop35
280
     0
102
RTVSPost2010PropOp35
 70
     1
102
RTVSPost2010Prop36
280
     0
102
RTVSPost2010PropOp36
 70
     1
102
RTVSPost2010Prop37
 90
       50
102
RTVSPost2010PropOp37
 70
     1
102
RTVSPost2010Prop38
140
0.0
102
RTVSPost2010PropOp38
 70
     1
102
RTVSPost2010Prop39
140
1.0
102
RTVSPost2010PropOp39
 70
     1
102
RTVSPost2010Prop40
 90
        0
102
RTVSPost2010PropOp40
 70
     1
102
RTVSPost2010Prop41ColorIndex
 90
       18
102
RTVSPost2010Prop41ColorRGB
 90
        0
102
RTVSPost2010PropOp41
 70
     1
102
RTVSPost2010Prop42
 90
       50
102
RTVSPost2010PropOp42
 70
     1
102
RTVSPost2010Prop43
 90
        3
102
RTVSPost2010PropOp43
 70
     1
102
RTVSPost2010Prop44ColorIndex
 90
        5
102
RTVSPost2010Prop44ColorRGB
 90
      255
102
RTVSPost2010PropOp44
 70
     1
102
RTVSPost2010Prop45
280
     0
102
RTVSPost2010PropOp45
 70
     1
102
RTVSPost2010Prop46
 90
       50
102
RTVSPost2010PropOp46
 70
     1
102
RTVSPost2010Prop47
 90
       50
102
RTVSPost2010PropOp47
 70
     1
102
RTVSPost2010Prop48
 90
       50
102
RTVSPost2010PropOp48
 70
     1
102
RTVSPost2010Prop49
280
     0
102
RTVSPost2010PropOp49
 70
     1
102
RTVSPost2010Prop50
 90
       50
102
RTVSPost2010PropOp50
 70
     1
102
RTVSPost2010Prop51ColorIndex
 90
      256
102
RTVSPost2010Prop51ColorRGB
 90
-16777216
102
RTVSPost2010PropOp51
 70
     0
102
RTVSPost2010Prop52
140
1.0
102
RTVSPost2010PropOp52
 70
     0
102
RTVSPost2010Prop53
 90
        2
102
RTVSPost2010PropOp53
 70
     1
102
RTVSPost2010Prop54
  1
strokes_ogs.tif
102
RTVSPost2010PropOp54
 70
     1
102
RTVSPost2010Prop55
280
     0
102
RTVSPost2010PropOp55
 70
     1
102
RTVSPost2010Prop56
140
1.0
102
RTVSPost2010PropOp56
 70
     1
102
RTVSPost2010Prop57
140
1.0
102
RTVSPost2010PropOp57
 70
     1
102
RTVSPropertyOp0
 70
     1
102
RTVSPropertyOp1
 70
     1
102
RTVSPropertyOp2
 70
     1
102
RTVSPropertyOp3
 70
     1
102
RTVSPropertyOp4
 70
     1
102
RTVSPropertyOp5
 70
     1
102
RTVSPropertyOp6
 70
     1
102
RTVSPropertyOp7
 70
     1
102
RTVSPropertyOp8
 70
     1
102
RTVSPropertyOp9
 70
     1
102
RTVSPropertyOp10
 70
     1
102
RTVSPropertyOp11
 70
     1
102
RTVSPropertyOp12
 70
     1
102
RTVSPropertyOp13
 70
     1
102
RTVSPropertyOp14
 70
     1
102
RTVSPropertyOp15
 70
     1
102
RTVSPropertyOp16
 70
     1
102
RTVSPropertyOp17
 70
     1
102
RTVSPropertyOp18
 70
     1
102
RTVSPropertyOp19
 70
     1
102
RTVSPropertyOp20
 70
     1
102
RTVSPropertyOp21
 70
     1
102
RTVSPropertyOp22
 70
     1
102
RTVSPropertyOp23
 70
     1
102
RTVSPropertyOp24
 70
     1
102
RTVSPropertyOp25
 70
     1
102
RTVSPropertyOp26
 70
     1
102
RTVSPropertyOp27
 70
     1
102
RTVSPropertyOp28
 70
     1
102
RTVSPropertyOp29
 70
     1
102
RTVSPropertyOp30
 70
     1
102
RTVSPropertyOp31
 70
     1
102
RTVSPropertyOp32
 70
     1
102
RTVSPropertyOp33
 70
     1
102
RTVSPropertyOp34
 70
     1
102
RTVSPropertyOp35
 70
     1
102
RTVSPropertyOp36
 70
     1
102
RTVSPropertyOp37
 70
     1
102
RTVSPropertyOp38
 70
     1
102
RTVSPropertyOp39
 70
     1
102
RTVSPropertyOp40
 70
     1
102
RTVSPropertyOp41
 70
     1
102
RTVSPropertyOp42
 70
     1
102
RTVSPropertyOp43
 70
     1
102
RTVSPropertyOp44
 70
     1
102
RTVSPropertyOp45
 70
     1
102
RTVSPropertyOp46
 70
     1
102
RTVSPropertyOp47
 70
     1
102
RTVSPropertyOp48
 70
     1
102
RTVSPropertyOp49
 70
     1
102
RTVSPropertyOp50
 70
     1
102
RTVSPropertyOp51
 70
     0
102
RTVSPropertyOp52
 70
     0
102
RTVSPropertyOp53
 70
     1
102
RTVSPropertyOp54
 70
     1
102
RTVSPropertyOp55
 70
     1
102
RTVSPropertyOp56
 70
     1
102
RTVSPropertyOp57
 70
     1
102
RTVSPropertyOp58
 70
     1
102
RTVSPropertyOp59
 70
     1
102
RTVSPropertyOp60
 70
     1
102
RTVSPropertyOp61
 70
     1
102
RTVSPropertyOp62
 70
     1
  0
XRECORD
  5
8882
102
{ACAD_REACTORS
330
8881
102
}
330
8881
100
AcDbXrecord
280
     1
102
RTVSPost2010Prop28
280
     0
102
RTVSPost2010PropOp28
 70
     0
102
RTVSPost2010Prop29
280
     1
102
RTVSPost2010PropOp29
 70
     0
102
RTVSPost2010Prop30
280
     1
102
RTVSPost2010PropOp30
 70
     0
102
RTVSPost2010Prop31
280
     0
102
RTVSPost2010PropOp31
 70
     0
102
RTVSPost2010Prop32
280
     0
102
RTVSPost2010PropOp32
 70
     0
102
RTVSPost2010Prop33
280
     0
102
RTVSPost2010PropOp33
 70
     0
102
RTVSPost2010Prop34
280
     0
102
RTVSPost2010PropOp34
 70
     0
102
RTVSPost2010Prop35
280
     0
102
RTVSPost2010PropOp35
 70
     0
102
RTVSPost2010Prop36
280
     0
102
RTVSPost2010PropOp36
 70
     0
102
RTVSPost2010Prop37
 90
       50
102
RTVSPost2010PropOp37
 70
     0
102
RTVSPost2010Prop38
140
0.0
102
RTVSPost2010PropOp38
 70
     0
102
RTVSPost2010Prop39
140
1.0
102
RTVSPost2010PropOp39
 70
     0
102
RTVSPost2010Prop40
 90
        0
102
RTVSPost2010PropOp40
 70
     0
102
RTVSPost2010Prop41ColorIndex
 90
       18
102
RTVSPost2010Prop41ColorRGB
 90
        0
102
RTVSPost2010PropOp41
 70
     0
102
RTVSPost2010Prop42
 90
       50
102
RTVSPost2010PropOp42
 70
     0
102
RTVSPost2010Prop43
 90
        3
102
RTVSPost2010PropOp43
 70
     0
102
RTVSPost2010Prop44ColorIndex
 90
        5
102
RTVSPost2010Prop44ColorRGB
 90
      255
102
RTVSPost2010PropOp44
 70
     0
102
RTVSPost2010Prop45
280
     0
102
RTVSPost2010PropOp45
 70
     0
102
RTVSPost2010Prop46
 90
       50
102
RTVSPost2010PropOp46
 70
     0
102
RTVSPost2010Prop47
 90
       50
102
RTVSPost2010PropOp47
 70
     0
102
RTVSPost2010Prop48
 90
       50
102
RTVSPost2010PropOp48
 70
     0
102
RTVSPost2010Prop49
280
     0
102
RTVSPost2010PropOp49
 70
     0
102
RTVSPost2010Prop50
 90
       50
102
RTVSPost2010PropOp50
 70
     0
102
RTVSPost2010Prop51ColorIndex
 90
      256
102
RTVSPost2010Prop51ColorRGB
 90
-16777216
102
RTVSPost2010PropOp51
 70
     0
102
RTVSPost2010Prop52
140
1.0
102
RTVSPost2010PropOp52
 70
     0
102
RTVSPost2010Prop53
 90
        2
102
RTVSPost2010PropOp53
 70
     0
102
RTVSPost2010Prop54
  1
strokes_ogs.tif
102
RTVSPost2010PropOp54
 70
     0
102
RTVSPost2010Prop55
280
     0
102
RTVSPost2010PropOp55
 70
     0
102
RTVSPost2010Prop56
140
1.0
102
RTVSPost2010PropOp56
 70
     0
102
RTVSPost2010Prop57
140
1.0
102
RTVSPost2010PropOp57
 70
     0
102
RTVSPropertyOp0
 70
     0
102
RTVSPropertyOp1
 70
     0
102
RTVSPropertyOp2
 70
     0
102
RTVSPropertyOp3
 70
     0
102
RTVSPropertyOp4
 70
     0
102
RTVSPropertyOp5
 70
     0
102
RTVSPropertyOp6
 70
     0
102
RTVSPropertyOp7
 70
     0
102
RTVSPropertyOp8
 70
     0
102
RTVSPropertyOp9
 70
     0
102
RTVSPropertyOp10
 70
     0
102
RTVSPropertyOp11
 70
     0
102
RTVSPropertyOp12
 70
     0
102
RTVSPropertyOp13
 70
     0
102
RTVSPropertyOp14
 70
     2
102
RTVSPropertyOp15
 70
     0
102
RTVSPropertyOp16
 70
     0
102
RTVSPropertyOp17
 70
     0
102
RTVSPropertyOp18
 70
     0
102
RTVSPropertyOp19
 70
     0
102
RTVSPropertyOp20
 70
     0
102
RTVSPropertyOp21
 70
     0
102
RTVSPropertyOp22
 70
     0
102
RTVSPropertyOp23
 70
     0
102
RTVSPropertyOp24
 70
     0
102
RTVSPropertyOp25
 70
     0
102
RTVSPropertyOp26
 70
     0
102
RTVSPropertyOp27
 70
     0
102
RTVSPropertyOp28
 70
     0
102
RTVSPropertyOp29
 70
     0
102
RTVSPropertyOp30
 70
     0
102
RTVSPropertyOp31
 70
     0
102
RTVSPropertyOp32
 70
     0
102
RTVSPropertyOp33
 70
     0
102
RTVSPropertyOp34
 70
     0
102
RTVSPropertyOp35
 70
     0
102
RTVSPropertyOp36
 70
     0
102
RTVSPropertyOp37
 70
     0
102
RTVSPropertyOp38
 70
     0
102
RTVSPropertyOp39
 70
     0
102
RTVSPropertyOp40
 70
     0
102
RTVSPropertyOp41
 70
     0
102
RTVSPropertyOp42
 70
     0
102
RTVSPropertyOp43
 70
     0
102
RTVSPropertyOp44
 70
     0
102
RTVSPropertyOp45
 70
     0
102
RTVSPropertyOp46
 70
     0
102
RTVSPropertyOp47
 70
     0
102
RTVSPropertyOp48
 70
     0
102
RTVSPropertyOp49
 70
     0
102
RTVSPropertyOp50
 70
     0
102
RTVSPropertyOp51
 70
     0
102
RTVSPropertyOp52
 70
     0
102
RTVSPropertyOp53
 70
     0
102
RTVSPropertyOp54
 70
     0
102
RTVSPropertyOp55
 70
     0
102
RTVSPropertyOp56
 70
     0
102
RTVSPropertyOp57
 70
     0
102
RTVSPropertyOp58
 70
     1
102
RTVSPropertyOp59
 70
     1
102
RTVSPropertyOp60
 70
     1
102
RTVSPropertyOp61
 70
     1
102
RTVSPropertyOp62
 70
     1
  0
XRECORD
  5
8868
102
{ACAD_REACTORS
330
8867
102
}
330
8867
100
AcDbXrecord
280
     1
102
RTVSPost2010Prop28
280
     0
102
RTVSPost2010PropOp28
 70
     1
102
RTVSPost2010Prop29
280
     1
102
RTVSPost2010PropOp29
 70
     1
102
RTVSPost2010Prop30
280
     1
102
RTVSPost2010PropOp30
 70
     1
102
RTVSPost2010Prop31
280
     0
102
RTVSPost2010PropOp31
 70
     1
102
RTVSPost2010Prop32
280
     0
102
RTVSPost2010PropOp32
 70
     1
102
RTVSPost2010Prop33
280
     0
102
RTVSPost2010PropOp33
 70
     1
102
RTVSPost2010Prop34
280
     0
102
RTVSPost2010PropOp34
 70
     1
102
RTVSPost2010Prop35
280
     0
102
RTVSPost2010PropOp35
 70
     1
102
RTVSPost2010Prop36
280
     0
102
RTVSPost2010PropOp36
 70
     1
102
RTVSPost2010Prop37
 90
       50
102
RTVSPost2010PropOp37
 70
     1
102
RTVSPost2010Prop38
140
0.0
102
RTVSPost2010PropOp38
 70
     1
102
RTVSPost2010Prop39
140
1.0
102
RTVSPost2010PropOp39
 70
     1
102
RTVSPost2010Prop40
 90
        0
102
RTVSPost2010PropOp40
 70
     1
102
RTVSPost2010Prop41ColorIndex
 90
       18
102
RTVSPost2010Prop41ColorRGB
 90
        0
102
RTVSPost2010PropOp41
 70
     1
102
RTVSPost2010Prop42
 90
       50
102
RTVSPost2010PropOp42
 70
     1
102
RTVSPost2010Prop43
 90
        3
102
RTVSPost2010PropOp43
 70
     1
102
RTVSPost2010Prop44ColorIndex
 90
        5
102
RTVSPost2010Prop44ColorRGB
 90
      255
102
RTVSPost2010PropOp44
 70
     1
102
RTVSPost2010Prop45
280
     0
102
RTVSPost2010PropOp45
 70
     1
102
RTVSPost2010Prop46
 90
       50
102
RTVSPost2010PropOp46
 70
     1
102
RTVSPost2010Prop47
 90
       50
102
RTVSPost2010PropOp47
 70
     1
102
RTVSPost2010Prop48
 90
       50
102
RTVSPost2010PropOp48
 70
     1
102
RTVSPost2010Prop49
280
     0
102
RTVSPost2010PropOp49
 70
     1
102
RTVSPost2010Prop50
 90
       50
102
RTVSPost2010PropOp50
 70
     1
102
RTVSPost2010Prop51ColorIndex
 90
      256
102
RTVSPost2010Prop51ColorRGB
 90
-16777216
102
RTVSPost2010PropOp51
 70
     0
102
RTVSPost2010Prop52
140
1.0
102
RTVSPost2010PropOp52
 70
     0
102
RTVSPost2010Prop53
 90
        2
102
RTVSPost2010PropOp53
 70
     1
102
RTVSPost2010Prop54
  1
strokes_ogs.tif
102
RTVSPost2010PropOp54
 70
     1
102
RTVSPost2010Prop55
280
     0
102
RTVSPost2010PropOp55
 70
     1
102
RTVSPost2010Prop56
140
1.0
102
RTVSPost2010PropOp56
 70
     1
102
RTVSPost2010Prop57
140
1.0
102
RTVSPost2010PropOp57
 70
     1
102
RTVSPropertyOp0
 70
     1
102
RTVSPropertyOp1
 70
     1
102
RTVSPropertyOp2
 70
     1
102
RTVSPropertyOp3
 70
     1
102
RTVSPropertyOp4
 70
     1
102
RTVSPropertyOp5
 70
     1
102
RTVSPropertyOp6
 70
     1
102
RTVSPropertyOp7
 70
     1
102
RTVSPropertyOp8
 70
     1
102
RTVSPropertyOp9
 70
     1
102
RTVSPropertyOp10
 70
     1
102
RTVSPropertyOp11
 70
     1
102
RTVSPropertyOp12
 70
     1
102
RTVSPropertyOp13
 70
     1
102
RTVSPropertyOp14
 70
     1
102
RTVSPropertyOp15
 70
     1
102
RTVSPropertyOp16
 70
     1
102
RTVSPropertyOp17
 70
     1
102
RTVSPropertyOp18
 70
     1
102
RTVSPropertyOp19
 70
     1
102
RTVSPropertyOp20
 70
     1
102
RTVSPropertyOp21
 70
     1
102
RTVSPropertyOp22
 70
     1
102
RTVSPropertyOp23
 70
     1
102
RTVSPropertyOp24
 70
     1
102
RTVSPropertyOp25
 70
     1
102
RTVSPropertyOp26
 70
     1
102
RTVSPropertyOp27
 70
     1
102
RTVSPropertyOp28
 70
     1
102
RTVSPropertyOp29
 70
     1
102
RTVSPropertyOp30
 70
     1
102
RTVSPropertyOp31
 70
     1
102
RTVSPropertyOp32
 70
     1
102
RTVSPropertyOp33
 70
     1
102
RTVSPropertyOp34
 70
     1
102
RTVSPropertyOp35
 70
     1
102
RTVSPropertyOp36
 70
     1
102
RTVSPropertyOp37
 70
     1
102
RTVSPropertyOp38
 70
     1
102
RTVSPropertyOp39
 70
     1
102
RTVSPropertyOp40
 70
     1
102
RTVSPropertyOp41
 70
     1
102
RTVSPropertyOp42
 70
     1
102
RTVSPropertyOp43
 70
     1
102
RTVSPropertyOp44
 70
     1
102
RTVSPropertyOp45
 70
     1
102
RTVSPropertyOp46
 70
     1
102
RTVSPropertyOp47
 70
     1
102
RTVSPropertyOp48
 70
     1
102
RTVSPropertyOp49
 70
     1
102
RTVSPropertyOp50
 70
     1
102
RTVSPropertyOp51
 70
     0
102
RTVSPropertyOp52
 70
     0
102
RTVSPropertyOp53
 70
     1
102
RTVSPropertyOp54
 70
     1
102
RTVSPropertyOp55
 70
     1
102
RTVSPropertyOp56
 70
     1
102
RTVSPropertyOp57
 70
     1
102
RTVSPropertyOp58
 70
     1
102
RTVSPropertyOp59
 70
     1
102
RTVSPropertyOp60
 70
     1
102
RTVSPropertyOp61
 70
     1
102
RTVSPropertyOp62
 70
     1
  0
XRECORD
  5
887E
102
{ACAD_REACTORS
330
887D
102
}
330
887D
100
AcDbXrecord
280
     1
102
RTVSPost2010Prop28
280
     0
102
RTVSPost2010PropOp28
 70
     1
102
RTVSPost2010Prop29
280
     1
102
RTVSPost2010PropOp29
 70
     1
102
RTVSPost2010Prop30
280
     1
102
RTVSPost2010PropOp30
 70
     1
102
RTVSPost2010Prop31
280
     0
102
RTVSPost2010PropOp31
 70
     1
102
RTVSPost2010Prop32
280
     0
102
RTVSPost2010PropOp32
 70
     1
102
RTVSPost2010Prop33
280
     0
102
RTVSPost2010PropOp33
 70
     1
102
RTVSPost2010Prop34
280
     0
102
RTVSPost2010PropOp34
 70
     1
102
RTVSPost2010Prop35
280
     0
102
RTVSPost2010PropOp35
 70
     1
102
RTVSPost2010Prop36
280
     0
102
RTVSPost2010PropOp36
 70
     1
102
RTVSPost2010Prop37
 90
       50
102
RTVSPost2010PropOp37
 70
     1
102
RTVSPost2010Prop38
140
0.0
102
RTVSPost2010PropOp38
 70
     1
102
RTVSPost2010Prop39
140
1.0
102
RTVSPost2010PropOp39
 70
     1
102
RTVSPost2010Prop40
 90
        0
102
RTVSPost2010PropOp40
 70
     1
102
RTVSPost2010Prop41ColorIndex
 90
       18
102
RTVSPost2010Prop41ColorRGB
 90
        0
102
RTVSPost2010PropOp41
 70
     1
102
RTVSPost2010Prop42
 90
       50
102
RTVSPost2010PropOp42
 70
     1
102
RTVSPost2010Prop43
 90
        3
102
RTVSPost2010PropOp43
 70
     1
102
RTVSPost2010Prop44ColorIndex
 90
        5
102
RTVSPost2010Prop44ColorRGB
 90
      255
102
RTVSPost2010PropOp44
 70
     1
102
RTVSPost2010Prop45
280
     0
102
RTVSPost2010PropOp45
 70
     1
102
RTVSPost2010Prop46
 90
       50
102
RTVSPost2010PropOp46
 70
     1
102
RTVSPost2010Prop47
 90
       50
102
RTVSPost2010PropOp47
 70
     1
102
RTVSPost2010Prop48
 90
       50
102
RTVSPost2010PropOp48
 70
     1
102
RTVSPost2010Prop49
280
     0
102
RTVSPost2010PropOp49
 70
     1
102
RTVSPost2010Prop50
 90
       50
102
RTVSPost2010PropOp50
 70
     1
102
RTVSPost2010Prop51ColorIndex
 90
      256
102
RTVSPost2010Prop51ColorRGB
 90
-16777216
102
RTVSPost2010PropOp51
 70
     0
102
RTVSPost2010Prop52
140
1.0
102
RTVSPost2010PropOp52
 70
     0
102
RTVSPost2010Prop53
 90
        2
102
RTVSPost2010PropOp53
 70
     1
102
RTVSPost2010Prop54
  1
strokes_ogs.tif
102
RTVSPost2010PropOp54
 70
     1
102
RTVSPost2010Prop55
280
     0
102
RTVSPost2010PropOp55
 70
     1
102
RTVSPost2010Prop56
140
1.0
102
RTVSPost2010PropOp56
 70
     1
102
RTVSPost2010Prop57
140
1.0
102
RTVSPost2010PropOp57
 70
     1
102
RTVSPropertyOp0
 70
     1
102
RTVSPropertyOp1
 70
     1
102
RTVSPropertyOp2
 70
     1
102
RTVSPropertyOp3
 70
     1
102
RTVSPropertyOp4
 70
     1
102
RTVSPropertyOp5
 70
     1
102
RTVSPropertyOp6
 70
     1
102
RTVSPropertyOp7
 70
     1
102
RTVSPropertyOp8
 70
     1
102
RTVSPropertyOp9
 70
     1
102
RTVSPropertyOp10
 70
     1
102
RTVSPropertyOp11
 70
     1
102
RTVSPropertyOp12
 70
     1
102
RTVSPropertyOp13
 70
     1
102
RTVSPropertyOp14
 70
     1
102
RTVSPropertyOp15
 70
     1
102
RTVSPropertyOp16
 70
     1
102
RTVSPropertyOp17
 70
     1
102
RTVSPropertyOp18
 70
     1
102
RTVSPropertyOp19
 70
     1
102
RTVSPropertyOp20
 70
     1
102
RTVSPropertyOp21
 70
     1
102
RTVSPropertyOp22
 70
     1
102
RTVSPropertyOp23
 70
     1
102
RTVSPropertyOp24
 70
     1
102
RTVSPropertyOp25
 70
     1
102
RTVSPropertyOp26
 70
     1
102
RTVSPropertyOp27
 70
     1
102
RTVSPropertyOp28
 70
     1
102
RTVSPropertyOp29
 70
     1
102
RTVSPropertyOp30
 70
     1
102
RTVSPropertyOp31
 70
     1
102
RTVSPropertyOp32
 70
     1
102
RTVSPropertyOp33
 70
     1
102
RTVSPropertyOp34
 70
     1
102
RTVSPropertyOp35
 70
     1
102
RTVSPropertyOp36
 70
     1
102
RTVSPropertyOp37
 70
     1
102
RTVSPropertyOp38
 70
     1
102
RTVSPropertyOp39
 70
     1
102
RTVSPropertyOp40
 70
     1
102
RTVSPropertyOp41
 70
     1
102
RTVSPropertyOp42
 70
     1
102
RTVSPropertyOp43
 70
     1
102
RTVSPropertyOp44
 70
     1
102
RTVSPropertyOp45
 70
     1
102
RTVSPropertyOp46
 70
     1
102
RTVSPropertyOp47
 70
     1
102
RTVSPropertyOp48
 70
     1
102
RTVSPropertyOp49
 70
     1
102
RTVSPropertyOp50
 70
     1
102
RTVSPropertyOp51
 70
     0
102
RTVSPropertyOp52
 70
     0
102
RTVSPropertyOp53
 70
     1
102
RTVSPropertyOp54
 70
     1
102
RTVSPropertyOp55
 70
     1
102
RTVSPropertyOp56
 70
     1
102
RTVSPropertyOp57
 70
     1
102
RTVSPropertyOp58
 70
     1
102
RTVSPropertyOp59
 70
     1
102
RTVSPropertyOp60
 70
     1
102
RTVSPropertyOp61
 70
     1
102
RTVSPropertyOp62
 70
     1
  0
XRECORD
  5
887C
102
{ACAD_REACTORS
330
887B
102
}
330
887B
100
AcDbXrecord
280
     1
102
RTVSPost2010Prop28
280
     0
102
RTVSPost2010PropOp28
 70
     1
102
RTVSPost2010Prop29
280
     1
102
RTVSPost2010PropOp29
 70
     1
102
RTVSPost2010Prop30
280
     1
102
RTVSPost2010PropOp30
 70
     1
102
RTVSPost2010Prop31
280
     0
102
RTVSPost2010PropOp31
 70
     1
102
RTVSPost2010Prop32
280
     0
102
RTVSPost2010PropOp32
 70
     1
102
RTVSPost2010Prop33
280
     0
102
RTVSPost2010PropOp33
 70
     1
102
RTVSPost2010Prop34
280
     0
102
RTVSPost2010PropOp34
 70
     1
102
RTVSPost2010Prop35
280
     0
102
RTVSPost2010PropOp35
 70
     1
102
RTVSPost2010Prop36
280
     0
102
RTVSPost2010PropOp36
 70
     1
102
RTVSPost2010Prop37
 90
       50
102
RTVSPost2010PropOp37
 70
     1
102
RTVSPost2010Prop38
140
0.0
102
RTVSPost2010PropOp38
 70
     1
102
RTVSPost2010Prop39
140
1.0
102
RTVSPost2010PropOp39
 70
     1
102
RTVSPost2010Prop40
 90
        0
102
RTVSPost2010PropOp40
 70
     1
102
RTVSPost2010Prop41ColorIndex
 90
       18
102
RTVSPost2010Prop41ColorRGB
 90
        0
102
RTVSPost2010PropOp41
 70
     1
102
RTVSPost2010Prop42
 90
       50
102
RTVSPost2010PropOp42
 70
     1
102
RTVSPost2010Prop43
 90
        3
102
RTVSPost2010PropOp43
 70
     1
102
RTVSPost2010Prop44ColorIndex
 90
        5
102
RTVSPost2010Prop44ColorRGB
 90
      255
102
RTVSPost2010PropOp44
 70
     1
102
RTVSPost2010Prop45
280
     0
102
RTVSPost2010PropOp45
 70
     1
102
RTVSPost2010Prop46
 90
       50
102
RTVSPost2010PropOp46
 70
     1
102
RTVSPost2010Prop47
 90
       50
102
RTVSPost2010PropOp47
 70
     1
102
RTVSPost2010Prop48
 90
       50
102
RTVSPost2010PropOp48
 70
     1
102
RTVSPost2010Prop49
280
     0
102
RTVSPost2010PropOp49
 70
     1
102
RTVSPost2010Prop50
 90
       50
102
RTVSPost2010PropOp50
 70
     1
102
RTVSPost2010Prop51ColorIndex
 90
      256
102
RTVSPost2010Prop51ColorRGB
 90
-16777216
102
RTVSPost2010PropOp51
 70
     0
102
RTVSPost2010Prop52
140
1.0
102
RTVSPost2010PropOp52
 70
     0
102
RTVSPost2010Prop53
 90
        2
102
RTVSPost2010PropOp53
 70
     1
102
RTVSPost2010Prop54
  1
strokes_ogs.tif
102
RTVSPost2010PropOp54
 70
     1
102
RTVSPost2010Prop55
280
     0
102
RTVSPost2010PropOp55
 70
     1
102
RTVSPost2010Prop56
140
1.0
102
RTVSPost2010PropOp56
 70
     1
102
RTVSPost2010Prop57
140
1.0
102
RTVSPost2010PropOp57
 70
     1
102
RTVSPropertyOp0
 70
     1
102
RTVSPropertyOp1
 70
     1
102
RTVSPropertyOp2
 70
     1
102
RTVSPropertyOp3
 70
     1
102
RTVSPropertyOp4
 70
     1
102
RTVSPropertyOp5
 70
     1
102
RTVSPropertyOp6
 70
     1
102
RTVSPropertyOp7
 70
     1
102
RTVSPropertyOp8
 70
     1
102
RTVSPropertyOp9
 70
     1
102
RTVSPropertyOp10
 70
     1
102
RTVSPropertyOp11
 70
     1
102
RTVSPropertyOp12
 70
     1
102
RTVSPropertyOp13
 70
     1
102
RTVSPropertyOp14
 70
     1
102
RTVSPropertyOp15
 70
     1
102
RTVSPropertyOp16
 70
     1
102
RTVSPropertyOp17
 70
     1
102
RTVSPropertyOp18
 70
     1
102
RTVSPropertyOp19
 70
     1
102
RTVSPropertyOp20
 70
     1
102
RTVSPropertyOp21
 70
     1
102
RTVSPropertyOp22
 70
     1
102
RTVSPropertyOp23
 70
     1
102
RTVSPropertyOp24
 70
     1
102
RTVSPropertyOp25
 70
     1
102
RTVSPropertyOp26
 70
     1
102
RTVSPropertyOp27
 70
     1
102
RTVSPropertyOp28
 70
     1
102
RTVSPropertyOp29
 70
     1
102
RTVSPropertyOp30
 70
     1
102
RTVSPropertyOp31
 70
     1
102
RTVSPropertyOp32
 70
     1
102
RTVSPropertyOp33
 70
     1
102
RTVSPropertyOp34
 70
     1
102
RTVSPropertyOp35
 70
     1
102
RTVSPropertyOp36
 70
     1
102
RTVSPropertyOp37
 70
     1
102
RTVSPropertyOp38
 70
     1
102
RTVSPropertyOp39
 70
     1
102
RTVSPropertyOp40
 70
     1
102
RTVSPropertyOp41
 70
     1
102
RTVSPropertyOp42
 70
     1
102
RTVSPropertyOp43
 70
     1
102
RTVSPropertyOp44
 70
     1
102
RTVSPropertyOp45
 70
     1
102
RTVSPropertyOp46
 70
     1
102
RTVSPropertyOp47
 70
     1
102
RTVSPropertyOp48
 70
     1
102
RTVSPropertyOp49
 70
     1
102
RTVSPropertyOp50
 70
     1
102
RTVSPropertyOp51
 70
     0
102
RTVSPropertyOp52
 70
     0
102
RTVSPropertyOp53
 70
     1
102
RTVSPropertyOp54
 70
     1
102
RTVSPropertyOp55
 70
     1
102
RTVSPropertyOp56
 70
     1
102
RTVSPropertyOp57
 70
     1
102
RTVSPropertyOp58
 70
     1
102
RTVSPropertyOp59
 70
     1
102
RTVSPropertyOp60
 70
     1
102
RTVSPropertyOp61
 70
     1
102
RTVSPropertyOp62
 70
     1
  0
XRECORD
  5
8876
102
{ACAD_REACTORS
330
8875
102
}
330
8875
100
AcDbXrecord
280
     1
102
RTVSPost2010Prop28
280
     0
102
RTVSPost2010PropOp28
 70
     1
102
RTVSPost2010Prop29
280
     1
102
RTVSPost2010PropOp29
 70
     1
102
RTVSPost2010Prop30
280
     1
102
RTVSPost2010PropOp30
 70
     1
102
RTVSPost2010Prop31
280
     0
102
RTVSPost2010PropOp31
 70
     1
102
RTVSPost2010Prop32
280
     0
102
RTVSPost2010PropOp32
 70
     1
102
RTVSPost2010Prop33
280
     0
102
RTVSPost2010PropOp33
 70
     1
102
RTVSPost2010Prop34
280
     0
102
RTVSPost2010PropOp34
 70
     1
102
RTVSPost2010Prop35
280
     0
102
RTVSPost2010PropOp35
 70
     1
102
RTVSPost2010Prop36
280
     0
102
RTVSPost2010PropOp36
 70
     1
102
RTVSPost2010Prop37
 90
       50
102
RTVSPost2010PropOp37
 70
     1
102
RTVSPost2010Prop38
140
0.0
102
RTVSPost2010PropOp38
 70
     1
102
RTVSPost2010Prop39
140
1.0
102
RTVSPost2010PropOp39
 70
     1
102
RTVSPost2010Prop40
 90
        0
102
RTVSPost2010PropOp40
 70
     1
102
RTVSPost2010Prop41ColorIndex
 90
       18
102
RTVSPost2010Prop41ColorRGB
 90
        0
102
RTVSPost2010PropOp41
 70
     1
102
RTVSPost2010Prop42
 90
       50
102
RTVSPost2010PropOp42
 70
     1
102
RTVSPost2010Prop43
 90
        3
102
RTVSPost2010PropOp43
 70
     1
102
RTVSPost2010Prop44ColorIndex
 90
        5
102
RTVSPost2010Prop44ColorRGB
 90
      255
102
RTVSPost2010PropOp44
 70
     1
102
RTVSPost2010Prop45
280
     0
102
RTVSPost2010PropOp45
 70
     1
102
RTVSPost2010Prop46
 90
       50
102
RTVSPost2010PropOp46
 70
     1
102
RTVSPost2010Prop47
 90
       50
102
RTVSPost2010PropOp47
 70
     1
102
RTVSPost2010Prop48
 90
       50
102
RTVSPost2010PropOp48
 70
     1
102
RTVSPost2010Prop49
280
     0
102
RTVSPost2010PropOp49
 70
     1
102
RTVSPost2010Prop50
 90
       50
102
RTVSPost2010PropOp50
 70
     1
102
RTVSPost2010Prop51ColorIndex
 90
      256
102
RTVSPost2010Prop51ColorRGB
 90
-16777216
102
RTVSPost2010PropOp51
 70
     0
102
RTVSPost2010Prop52
140
1.0
102
RTVSPost2010PropOp52
 70
     0
102
RTVSPost2010Prop53
 90
        2
102
RTVSPost2010PropOp53
 70
     1
102
RTVSPost2010Prop54
  1
strokes_ogs.tif
102
RTVSPost2010PropOp54
 70
     1
102
RTVSPost2010Prop55
280
     0
102
RTVSPost2010PropOp55
 70
     1
102
RTVSPost2010Prop56
140
1.0
102
RTVSPost2010PropOp56
 70
     1
102
RTVSPost2010Prop57
140
1.0
102
RTVSPost2010PropOp57
 70
     1
102
RTVSPropertyOp0
 70
     1
102
RTVSPropertyOp1
 70
     1
102
RTVSPropertyOp2
 70
     1
102
RTVSPropertyOp3
 70
     1
102
RTVSPropertyOp4
 70
     1
102
RTVSPropertyOp5
 70
     1
102
RTVSPropertyOp6
 70
     1
102
RTVSPropertyOp7
 70
     1
102
RTVSPropertyOp8
 70
     1
102
RTVSPropertyOp9
 70
     1
102
RTVSPropertyOp10
 70
     1
102
RTVSPropertyOp11
 70
     1
102
RTVSPropertyOp12
 70
     1
102
RTVSPropertyOp13
 70
     1
102
RTVSPropertyOp14
 70
     1
102
RTVSPropertyOp15
 70
     1
102
RTVSPropertyOp16
 70
     1
102
RTVSPropertyOp17
 70
     1
102
RTVSPropertyOp18
 70
     1
102
RTVSPropertyOp19
 70
     1
102
RTVSPropertyOp20
 70
     1
102
RTVSPropertyOp21
 70
     1
102
RTVSPropertyOp22
 70
     1
102
RTVSPropertyOp23
 70
     1
102
RTVSPropertyOp24
 70
     1
102
RTVSPropertyOp25
 70
     1
102
RTVSPropertyOp26
 70
     1
102
RTVSPropertyOp27
 70
     1
102
RTVSPropertyOp28
 70
     1
102
RTVSPropertyOp29
 70
     1
102
RTVSPropertyOp30
 70
     1
102
RTVSPropertyOp31
 70
     1
102
RTVSPropertyOp32
 70
     1
102
RTVSPropertyOp33
 70
     1
102
RTVSPropertyOp34
 70
     1
102
RTVSPropertyOp35
 70
     1
102
RTVSPropertyOp36
 70
     1
102
RTVSPropertyOp37
 70
     1
102
RTVSPropertyOp38
 70
     1
102
RTVSPropertyOp39
 70
     1
102
RTVSPropertyOp40
 70
     1
102
RTVSPropertyOp41
 70
     1
102
RTVSPropertyOp42
 70
     1
102
RTVSPropertyOp43
 70
     1
102
RTVSPropertyOp44
 70
     1
102
RTVSPropertyOp45
 70
     1
102
RTVSPropertyOp46
 70
     1
102
RTVSPropertyOp47
 70
     1
102
RTVSPropertyOp48
 70
     1
102
RTVSPropertyOp49
 70
     1
102
RTVSPropertyOp50
 70
     1
102
RTVSPropertyOp51
 70
     0
102
RTVSPropertyOp52
 70
     0
102
RTVSPropertyOp53
 70
     1
102
RTVSPropertyOp54
 70
     1
102
RTVSPropertyOp55
 70
     1
102
RTVSPropertyOp56
 70
     1
102
RTVSPropertyOp57
 70
     1
102
RTVSPropertyOp58
 70
     1
102
RTVSPropertyOp59
 70
     1
102
RTVSPropertyOp60
 70
     1
102
RTVSPropertyOp61
 70
     1
102
RTVSPropertyOp62
 70
     1
  0
XRECORD
  5
8878
102
{ACAD_REACTORS
330
8877
102
}
330
8877
100
AcDbXrecord
280
     1
102
RTVSPost2010Prop28
280
     0
102
RTVSPost2010PropOp28
 70
     1
102
RTVSPost2010Prop29
280
     1
102
RTVSPost2010PropOp29
 70
     1
102
RTVSPost2010Prop30
280
     1
102
RTVSPost2010PropOp30
 70
     1
102
RTVSPost2010Prop31
280
     0
102
RTVSPost2010PropOp31
 70
     1
102
RTVSPost2010Prop32
280
     0
102
RTVSPost2010PropOp32
 70
     1
102
RTVSPost2010Prop33
280
     0
102
RTVSPost2010PropOp33
 70
     1
102
RTVSPost2010Prop34
280
     0
102
RTVSPost2010PropOp34
 70
     1
102
RTVSPost2010Prop35
280
     0
102
RTVSPost2010PropOp35
 70
     1
102
RTVSPost2010Prop36
280
     0
102
RTVSPost2010PropOp36
 70
     1
102
RTVSPost2010Prop37
 90
       50
102
RTVSPost2010PropOp37
 70
     1
102
RTVSPost2010Prop38
140
0.0
102
RTVSPost2010PropOp38
 70
     1
102
RTVSPost2010Prop39
140
1.0
102
RTVSPost2010PropOp39
 70
     1
102
RTVSPost2010Prop40
 90
        0
102
RTVSPost2010PropOp40
 70
     1
102
RTVSPost2010Prop41ColorIndex
 90
       18
102
RTVSPost2010Prop41ColorRGB
 90
        0
102
RTVSPost2010PropOp41
 70
     1
102
RTVSPost2010Prop42
 90
       50
102
RTVSPost2010PropOp42
 70
     1
102
RTVSPost2010Prop43
 90
        3
102
RTVSPost2010PropOp43
 70
     1
102
RTVSPost2010Prop44ColorIndex
 90
        5
102
RTVSPost2010Prop44ColorRGB
 90
      255
102
RTVSPost2010PropOp44
 70
     1
102
RTVSPost2010Prop45
280
     0
102
RTVSPost2010PropOp45
 70
     1
102
RTVSPost2010Prop46
 90
       50
102
RTVSPost2010PropOp46
 70
     1
102
RTVSPost2010Prop47
 90
       50
102
RTVSPost2010PropOp47
 70
     1
102
RTVSPost2010Prop48
 90
       50
102
RTVSPost2010PropOp48
 70
     1
102
RTVSPost2010Prop49
280
     0
102
RTVSPost2010PropOp49
 70
     1
102
RTVSPost2010Prop50
 90
       50
102
RTVSPost2010PropOp50
 70
     1
102
RTVSPost2010Prop51ColorIndex
 90
      256
102
RTVSPost2010Prop51ColorRGB
 90
-16777216
102
RTVSPost2010PropOp51
 70
     0
102
RTVSPost2010Prop52
140
1.0
102
RTVSPost2010PropOp52
 70
     0
102
RTVSPost2010Prop53
 90
        2
102
RTVSPost2010PropOp53
 70
     1
102
RTVSPost2010Prop54
  1
strokes_ogs.tif
102
RTVSPost2010PropOp54
 70
     1
102
RTVSPost2010Prop55
280
     0
102
RTVSPost2010PropOp55
 70
     1
102
RTVSPost2010Prop56
140
1.0
102
RTVSPost2010PropOp56
 70
     1
102
RTVSPost2010Prop57
140
1.0
102
RTVSPost2010PropOp57
 70
     1
102
RTVSPropertyOp0
 70
     1
102
RTVSPropertyOp1
 70
     1
102
RTVSPropertyOp2
 70
     1
102
RTVSPropertyOp3
 70
     1
102
RTVSPropertyOp4
 70
     1
102
RTVSPropertyOp5
 70
     1
102
RTVSPropertyOp6
 70
     1
102
RTVSPropertyOp7
 70
     1
102
RTVSPropertyOp8
 70
     1
102
RTVSPropertyOp9
 70
     1
102
RTVSPropertyOp10
 70
     1
102
RTVSPropertyOp11
 70
     1
102
RTVSPropertyOp12
 70
     1
102
RTVSPropertyOp13
 70
     1
102
RTVSPropertyOp14
 70
     1
102
RTVSPropertyOp15
 70
     1
102
RTVSPropertyOp16
 70
     1
102
RTVSPropertyOp17
 70
     1
102
RTVSPropertyOp18
 70
     1
102
RTVSPropertyOp19
 70
     1
102
RTVSPropertyOp20
 70
     1
102
RTVSPropertyOp21
 70
     1
102
RTVSPropertyOp22
 70
     1
102
RTVSPropertyOp23
 70
     1
102
RTVSPropertyOp24
 70
     1
102
RTVSPropertyOp25
 70
     1
102
RTVSPropertyOp26
 70
     1
102
RTVSPropertyOp27
 70
     1
102
RTVSPropertyOp28
 70
     1
102
RTVSPropertyOp29
 70
     1
102
RTVSPropertyOp30
 70
     1
102
RTVSPropertyOp31
 70
     1
102
RTVSPropertyOp32
 70
     1
102
RTVSPropertyOp33
 70
     1
102
RTVSPropertyOp34
 70
     1
102
RTVSPropertyOp35
 70
     1
102
RTVSPropertyOp36
 70
     1
102
RTVSPropertyOp37
 70
     1
102
RTVSPropertyOp38
 70
     1
102
RTVSPropertyOp39
 70
     1
102
RTVSPropertyOp40
 70
     1
102
RTVSPropertyOp41
 70
     1
102
RTVSPropertyOp42
 70
     1
102
RTVSPropertyOp43
 70
     1
102
RTVSPropertyOp44
 70
     1
102
RTVSPropertyOp45
 70
     1
102
RTVSPropertyOp46
 70
     1
102
RTVSPropertyOp47
 70
     1
102
RTVSPropertyOp48
 70
     1
102
RTVSPropertyOp49
 70
     1
102
RTVSPropertyOp50
 70
     1
102
RTVSPropertyOp51
 70
     0
102
RTVSPropertyOp52
 70
     0
102
RTVSPropertyOp53
 70
     1
102
RTVSPropertyOp54
 70
     1
102
RTVSPropertyOp55
 70
     1
102
RTVSPropertyOp56
 70
     1
102
RTVSPropertyOp57
 70
     1
102
RTVSPropertyOp58
 70
     1
102
RTVSPropertyOp59
 70
     1
102
RTVSPropertyOp60
 70
     1
102
RTVSPropertyOp61
 70
     1
102
RTVSPropertyOp62
 70
     1
  0
XRECORD
  5
886E
102
{ACAD_REACTORS
330
886D
102
}
330
886D
100
AcDbXrecord
280
     1
102
RTVSPost2010Prop28
280
     0
102
RTVSPost2010PropOp28
 70
     1
102
RTVSPost2010Prop29
280
     1
102
RTVSPost2010PropOp29
 70
     1
102
RTVSPost2010Prop30
280
     1
102
RTVSPost2010PropOp30
 70
     1
102
RTVSPost2010Prop31
280
     0
102
RTVSPost2010PropOp31
 70
     1
102
RTVSPost2010Prop32
280
     0
102
RTVSPost2010PropOp32
 70
     1
102
RTVSPost2010Prop33
280
     0
102
RTVSPost2010PropOp33
 70
     1
102
RTVSPost2010Prop34
280
     0
102
RTVSPost2010PropOp34
 70
     1
102
RTVSPost2010Prop35
280
     0
102
RTVSPost2010PropOp35
 70
     1
102
RTVSPost2010Prop36
280
     0
102
RTVSPost2010PropOp36
 70
     1
102
RTVSPost2010Prop37
 90
       50
102
RTVSPost2010PropOp37
 70
     1
102
RTVSPost2010Prop38
140
0.0
102
RTVSPost2010PropOp38
 70
     1
102
RTVSPost2010Prop39
140
1.0
102
RTVSPost2010PropOp39
 70
     1
102
RTVSPost2010Prop40
 90
        0
102
RTVSPost2010PropOp40
 70
     1
102
RTVSPost2010Prop41ColorIndex
 90
       18
102
RTVSPost2010Prop41ColorRGB
 90
        0
102
RTVSPost2010PropOp41
 70
     1
102
RTVSPost2010Prop42
 90
       50
102
RTVSPost2010PropOp42
 70
     1
102
RTVSPost2010Prop43
 90
        3
102
RTVSPost2010PropOp43
 70
     1
102
RTVSPost2010Prop44ColorIndex
 90
        5
102
RTVSPost2010Prop44ColorRGB
 90
      255
102
RTVSPost2010PropOp44
 70
     1
102
RTVSPost2010Prop45
280
     0
102
RTVSPost2010PropOp45
 70
     1
102
RTVSPost2010Prop46
 90
       50
102
RTVSPost2010PropOp46
 70
     1
102
RTVSPost2010Prop47
 90
       50
102
RTVSPost2010PropOp47
 70
     1
102
RTVSPost2010Prop48
 90
       50
102
RTVSPost2010PropOp48
 70
     1
102
RTVSPost2010Prop49
280
     0
102
RTVSPost2010PropOp49
 70
     1
102
RTVSPost2010Prop50
 90
       50
102
RTVSPost2010PropOp50
 70
     1
102
RTVSPost2010Prop51ColorIndex
 90
      256
102
RTVSPost2010Prop51ColorRGB
 90
-16777216
102
RTVSPost2010PropOp51
 70
     0
102
RTVSPost2010Prop52
140
1.0
102
RTVSPost2010PropOp52
 70
     0
102
RTVSPost2010Prop53
 90
        2
102
RTVSPost2010PropOp53
 70
     1
102
RTVSPost2010Prop54
  1
strokes_ogs.tif
102
RTVSPost2010PropOp54
 70
     1
102
RTVSPost2010Prop55
280
     0
102
RTVSPost2010PropOp55
 70
     1
102
RTVSPost2010Prop56
140
1.0
102
RTVSPost2010PropOp56
 70
     1
102
RTVSPost2010Prop57
140
1.0
102
RTVSPost2010PropOp57
 70
     1
102
RTVSPropertyOp0
 70
     1
102
RTVSPropertyOp1
 70
     1
102
RTVSPropertyOp2
 70
     1
102
RTVSPropertyOp3
 70
     1
102
RTVSPropertyOp4
 70
     1
102
RTVSPropertyOp5
 70
     1
102
RTVSPropertyOp6
 70
     1
102
RTVSPropertyOp7
 70
     1
102
RTVSPropertyOp8
 70
     1
102
RTVSPropertyOp9
 70
     1
102
RTVSPropertyOp10
 70
     1
102
RTVSPropertyOp11
 70
     1
102
RTVSPropertyOp12
 70
     1
102
RTVSPropertyOp13
 70
     1
102
RTVSPropertyOp14
 70
     1
102
RTVSPropertyOp15
 70
     1
102
RTVSPropertyOp16
 70
     1
102
RTVSPropertyOp17
 70
     1
102
RTVSPropertyOp18
 70
     1
102
RTVSPropertyOp19
 70
     1
102
RTVSPropertyOp20
 70
     1
102
RTVSPropertyOp21
 70
     1
102
RTVSPropertyOp22
 70
     1
102
RTVSPropertyOp23
 70
     1
102
RTVSPropertyOp24
 70
     1
102
RTVSPropertyOp25
 70
     1
102
RTVSPropertyOp26
 70
     1
102
RTVSPropertyOp27
 70
     1
102
RTVSPropertyOp28
 70
     1
102
RTVSPropertyOp29
 70
     1
102
RTVSPropertyOp30
 70
     1
102
RTVSPropertyOp31
 70
     1
102
RTVSPropertyOp32
 70
     1
102
RTVSPropertyOp33
 70
     1
102
RTVSPropertyOp34
 70
     1
102
RTVSPropertyOp35
 70
     1
102
RTVSPropertyOp36
 70
     1
102
RTVSPropertyOp37
 70
     1
102
RTVSPropertyOp38
 70
     1
102
RTVSPropertyOp39
 70
     1
102
RTVSPropertyOp40
 70
     1
102
RTVSPropertyOp41
 70
     1
102
RTVSPropertyOp42
 70
     1
102
RTVSPropertyOp43
 70
     1
102
RTVSPropertyOp44
 70
     1
102
RTVSPropertyOp45
 70
     1
102
RTVSPropertyOp46
 70
     1
102
RTVSPropertyOp47
 70
     1
102
RTVSPropertyOp48
 70
     1
102
RTVSPropertyOp49
 70
     1
102
RTVSPropertyOp50
 70
     1
102
RTVSPropertyOp51
 70
     0
102
RTVSPropertyOp52
 70
     0
102
RTVSPropertyOp53
 70
     1
102
RTVSPropertyOp54
 70
     1
102
RTVSPropertyOp55
 70
     1
102
RTVSPropertyOp56
 70
     1
102
RTVSPropertyOp57
 70
     1
102
RTVSPropertyOp58
 70
     1
102
RTVSPropertyOp59
 70
     1
102
RTVSPropertyOp60
 70
     1
102
RTVSPropertyOp61
 70
     1
102
RTVSPropertyOp62
 70
     1
  0
XRECORD
  5
8862
102
{ACAD_REACTORS
330
8861
102
}
330
8861
100
AcDbXrecord
280
     1
102
RTVSPost2010Prop28
280
     0
102
RTVSPost2010PropOp28
 70
     1
102
RTVSPost2010Prop29
280
     1
102
RTVSPost2010PropOp29
 70
     1
102
RTVSPost2010Prop30
280
     1
102
RTVSPost2010PropOp30
 70
     1
102
RTVSPost2010Prop31
280
     0
102
RTVSPost2010PropOp31
 70
     1
102
RTVSPost2010Prop32
280
     0
102
RTVSPost2010PropOp32
 70
     1
102
RTVSPost2010Prop33
280
     0
102
RTVSPost2010PropOp33
 70
     1
102
RTVSPost2010Prop34
280
     0
102
RTVSPost2010PropOp34
 70
     1
102
RTVSPost2010Prop35
280
     0
102
RTVSPost2010PropOp35
 70
     1
102
RTVSPost2010Prop36
280
     0
102
RTVSPost2010PropOp36
 70
     1
102
RTVSPost2010Prop37
 90
       50
102
RTVSPost2010PropOp37
 70
     1
102
RTVSPost2010Prop38
140
0.0
102
RTVSPost2010PropOp38
 70
     1
102
RTVSPost2010Prop39
140
1.0
102
RTVSPost2010PropOp39
 70
     1
102
RTVSPost2010Prop40
 90
        0
102
RTVSPost2010PropOp40
 70
     1
102
RTVSPost2010Prop41ColorIndex
 90
       18
102
RTVSPost2010Prop41ColorRGB
 90
        0
102
RTVSPost2010PropOp41
 70
     1
102
RTVSPost2010Prop42
 90
       50
102
RTVSPost2010PropOp42
 70
     1
102
RTVSPost2010Prop43
 90
        3
102
RTVSPost2010PropOp43
 70
     1
102
RTVSPost2010Prop44ColorIndex
 90
        5
102
RTVSPost2010Prop44ColorRGB
 90
      255
102
RTVSPost2010PropOp44
 70
     1
102
RTVSPost2010Prop45
280
     0
102
RTVSPost2010PropOp45
 70
     1
102
RTVSPost2010Prop46
 90
       50
102
RTVSPost2010PropOp46
 70
     1
102
RTVSPost2010Prop47
 90
       50
102
RTVSPost2010PropOp47
 70
     1
102
RTVSPost2010Prop48
 90
       50
102
RTVSPost2010PropOp48
 70
     1
102
RTVSPost2010Prop49
280
     0
102
RTVSPost2010PropOp49
 70
     1
102
RTVSPost2010Prop50
 90
       50
102
RTVSPost2010PropOp50
 70
     1
102
RTVSPost2010Prop51ColorIndex
 90
      256
102
RTVSPost2010Prop51ColorRGB
 90
-16777216
102
RTVSPost2010PropOp51
 70
     0
102
RTVSPost2010Prop52
140
1.0
102
RTVSPost2010PropOp52
 70
     0
102
RTVSPost2010Prop53
 90
        2
102
RTVSPost2010PropOp53
 70
     1
102
RTVSPost2010Prop54
  1
strokes_ogs.tif
102
RTVSPost2010PropOp54
 70
     1
102
RTVSPost2010Prop55
280
     0
102
RTVSPost2010PropOp55
 70
     1
102
RTVSPost2010Prop56
140
1.0
102
RTVSPost2010PropOp56
 70
     1
102
RTVSPost2010Prop57
140
1.0
102
RTVSPost2010PropOp57
 70
     1
102
RTVSPropertyOp0
 70
     1
102
RTVSPropertyOp1
 70
     1
102
RTVSPropertyOp2
 70
     1
102
RTVSPropertyOp3
 70
     1
102
RTVSPropertyOp4
 70
     1
102
RTVSPropertyOp5
 70
     1
102
RTVSPropertyOp6
 70
     1
102
RTVSPropertyOp7
 70
     1
102
RTVSPropertyOp8
 70
     1
102
RTVSPropertyOp9
 70
     1
102
RTVSPropertyOp10
 70
     1
102
RTVSPropertyOp11
 70
     1
102
RTVSPropertyOp12
 70
     1
102
RTVSPropertyOp13
 70
     1
102
RTVSPropertyOp14
 70
     1
102
RTVSPropertyOp15
 70
     1
102
RTVSPropertyOp16
 70
     1
102
RTVSPropertyOp17
 70
     1
102
RTVSPropertyOp18
 70
     1
102
RTVSPropertyOp19
 70
     1
102
RTVSPropertyOp20
 70
     1
102
RTVSPropertyOp21
 70
     1
102
RTVSPropertyOp22
 70
     1
102
RTVSPropertyOp23
 70
     1
102
RTVSPropertyOp24
 70
     1
102
RTVSPropertyOp25
 70
     1
102
RTVSPropertyOp26
 70
     1
102
RTVSPropertyOp27
 70
     1
102
RTVSPropertyOp28
 70
     1
102
RTVSPropertyOp29
 70
     1
102
RTVSPropertyOp30
 70
     1
102
RTVSPropertyOp31
 70
     1
102
RTVSPropertyOp32
 70
     1
102
RTVSPropertyOp33
 70
     1
102
RTVSPropertyOp34
 70
     1
102
RTVSPropertyOp35
 70
     1
102
RTVSPropertyOp36
 70
     1
102
RTVSPropertyOp37
 70
     1
102
RTVSPropertyOp38
 70
     1
102
RTVSPropertyOp39
 70
     1
102
RTVSPropertyOp40
 70
     1
102
RTVSPropertyOp41
 70
     1
102
RTVSPropertyOp42
 70
     1
102
RTVSPropertyOp43
 70
     1
102
RTVSPropertyOp44
 70
     1
102
RTVSPropertyOp45
 70
     1
102
RTVSPropertyOp46
 70
     1
102
RTVSPropertyOp47
 70
     1
102
RTVSPropertyOp48
 70
     1
102
RTVSPropertyOp49
 70
     1
102
RTVSPropertyOp50
 70
     1
102
RTVSPropertyOp51
 70
     0
102
RTVSPropertyOp52
 70
     0
102
RTVSPropertyOp53
 70
     1
102
RTVSPropertyOp54
 70
     1
102
RTVSPropertyOp55
 70
     1
102
RTVSPropertyOp56
 70
     1
102
RTVSPropertyOp57
 70
     1
102
RTVSPropertyOp58
 70
     1
102
RTVSPropertyOp59
 70
     1
102
RTVSPropertyOp60
 70
     1
102
RTVSPropertyOp61
 70
     1
102
RTVSPropertyOp62
 70
     1
  0
XRECORD
  5
887A
102
{ACAD_REACTORS
330
8879
102
}
330
8879
100
AcDbXrecord
280
     1
102
RTVSPost2010Prop28
280
     0
102
RTVSPost2010PropOp28
 70
     1
102
RTVSPost2010Prop29
280
     1
102
RTVSPost2010PropOp29
 70
     1
102
RTVSPost2010Prop30
280
     1
102
RTVSPost2010PropOp30
 70
     1
102
RTVSPost2010Prop31
280
     0
102
RTVSPost2010PropOp31
 70
     1
102
RTVSPost2010Prop32
280
     0
102
RTVSPost2010PropOp32
 70
     1
102
RTVSPost2010Prop33
280
     0
102
RTVSPost2010PropOp33
 70
     1
102
RTVSPost2010Prop34
280
     0
102
RTVSPost2010PropOp34
 70
     1
102
RTVSPost2010Prop35
280
     0
102
RTVSPost2010PropOp35
 70
     1
102
RTVSPost2010Prop36
280
     0
102
RTVSPost2010PropOp36
 70
     1
102
RTVSPost2010Prop37
 90
       50
102
RTVSPost2010PropOp37
 70
     1
102
RTVSPost2010Prop38
140
0.0
102
RTVSPost2010PropOp38
 70
     1
102
RTVSPost2010Prop39
140
1.0
102
RTVSPost2010PropOp39
 70
     1
102
RTVSPost2010Prop40
 90
        0
102
RTVSPost2010PropOp40
 70
     1
102
RTVSPost2010Prop41ColorIndex
 90
       18
102
RTVSPost2010Prop41ColorRGB
 90
        0
102
RTVSPost2010PropOp41
 70
     1
102
RTVSPost2010Prop42
 90
       50
102
RTVSPost2010PropOp42
 70
     1
102
RTVSPost2010Prop43
 90
        3
102
RTVSPost2010PropOp43
 70
     1
102
RTVSPost2010Prop44ColorIndex
 90
        5
102
RTVSPost2010Prop44ColorRGB
 90
      255
102
RTVSPost2010PropOp44
 70
     1
102
RTVSPost2010Prop45
280
     0
102
RTVSPost2010PropOp45
 70
     1
102
RTVSPost2010Prop46
 90
       50
102
RTVSPost2010PropOp46
 70
     1
102
RTVSPost2010Prop47
 90
       50
102
RTVSPost2010PropOp47
 70
     1
102
RTVSPost2010Prop48
 90
       50
102
RTVSPost2010PropOp48
 70
     1
102
RTVSPost2010Prop49
280
     0
102
RTVSPost2010PropOp49
 70
     1
102
RTVSPost2010Prop50
 90
       50
102
RTVSPost2010PropOp50
 70
     1
102
RTVSPost2010Prop51ColorIndex
 90
      256
102
RTVSPost2010Prop51ColorRGB
 90
-16777216
102
RTVSPost2010PropOp51
 70
     0
102
RTVSPost2010Prop52
140
1.0
102
RTVSPost2010PropOp52
 70
     0
102
RTVSPost2010Prop53
 90
        2
102
RTVSPost2010PropOp53
 70
     1
102
RTVSPost2010Prop54
  1
strokes_ogs.tif
102
RTVSPost2010PropOp54
 70
     1
102
RTVSPost2010Prop55
280
     0
102
RTVSPost2010PropOp55
 70
     1
102
RTVSPost2010Prop56
140
1.0
102
RTVSPost2010PropOp56
 70
     1
102
RTVSPost2010Prop57
140
1.0
102
RTVSPost2010PropOp57
 70
     1
102
RTVSPropertyOp0
 70
     1
102
RTVSPropertyOp1
 70
     1
102
RTVSPropertyOp2
 70
     1
102
RTVSPropertyOp3
 70
     1
102
RTVSPropertyOp4
 70
     1
102
RTVSPropertyOp5
 70
     1
102
RTVSPropertyOp6
 70
     1
102
RTVSPropertyOp7
 70
     1
102
RTVSPropertyOp8
 70
     1
102
RTVSPropertyOp9
 70
     1
102
RTVSPropertyOp10
 70
     1
102
RTVSPropertyOp11
 70
     1
102
RTVSPropertyOp12
 70
     1
102
RTVSPropertyOp13
 70
     1
102
RTVSPropertyOp14
 70
     1
102
RTVSPropertyOp15
 70
     1
102
RTVSPropertyOp16
 70
     1
102
RTVSPropertyOp17
 70
     1
102
RTVSPropertyOp18
 70
     1
102
RTVSPropertyOp19
 70
     1
102
RTVSPropertyOp20
 70
     1
102
RTVSPropertyOp21
 70
     1
102
RTVSPropertyOp22
 70
     1
102
RTVSPropertyOp23
 70
     1
102
RTVSPropertyOp24
 70
     1
102
RTVSPropertyOp25
 70
     1
102
RTVSPropertyOp26
 70
     1
102
RTVSPropertyOp27
 70
     1
102
RTVSPropertyOp28
 70
     1
102
RTVSPropertyOp29
 70
     1
102
RTVSPropertyOp30
 70
     1
102
RTVSPropertyOp31
 70
     1
102
RTVSPropertyOp32
 70
     1
102
RTVSPropertyOp33
 70
     1
102
RTVSPropertyOp34
 70
     1
102
RTVSPropertyOp35
 70
     1
102
RTVSPropertyOp36
 70
     1
102
RTVSPropertyOp37
 70
     1
102
RTVSPropertyOp38
 70
     1
102
RTVSPropertyOp39
 70
     1
102
RTVSPropertyOp40
 70
     1
102
RTVSPropertyOp41
 70
     1
102
RTVSPropertyOp42
 70
     1
102
RTVSPropertyOp43
 70
     1
102
RTVSPropertyOp44
 70
     1
102
RTVSPropertyOp45
 70
     1
102
RTVSPropertyOp46
 70
     1
102
RTVSPropertyOp47
 70
     1
102
RTVSPropertyOp48
 70
     1
102
RTVSPropertyOp49
 70
     1
102
RTVSPropertyOp50
 70
     1
102
RTVSPropertyOp51
 70
     0
102
RTVSPropertyOp52
 70
     0
102
RTVSPropertyOp53
 70
     1
102
RTVSPropertyOp54
 70
     1
102
RTVSPropertyOp55
 70
     1
102
RTVSPropertyOp56
 70
     1
102
RTVSPropertyOp57
 70
     1
102
RTVSPropertyOp58
 70
     1
102
RTVSPropertyOp59
 70
     1
102
RTVSPropertyOp60
 70
     1
102
RTVSPropertyOp61
 70
     1
102
RTVSPropertyOp62
 70
     1
  0
ENDSEC
  0
EOF
