  0
SECTION
  2
HEADER
  9
$ACADVER
  1
AC1009
  9
$INSBASE
 10
0.0
 20
0.0
 30
0.0
  9
$EXTMIN
 10
1099.9666809363709
 20
-0.00270607653556
 30
-0.0000000000000129
  9
$EXTMAX
 10
1205.015764819291
 20
148.5510568960749
 30
0.0000000000000023
  9
$LIMMIN
 10
0.0
 20
0.0
  9
$LIMMAX
 10
420.0
 20
297.0
  9
$ORTHOMODE
 70
     0
  9
$REGENMODE
 70
     1
  9
$FILLMODE
 70
     1
  9
$QTEXTMODE
 70
     0
  9
$MIRRTEXT
 70
     1
  9
$DRAGMODE
 70
     2
  9
$LTSCALE
 40
2.0
  9
$OSMODE
 70
    39
  9
$ATTMODE
 70
     1
  9
$TEXTSIZE
 40
3.0
  9
$TRACEWID
 40
1.0
  9
$TEXTSTYLE
  7
STANDARD
  9
$CLAYER
  8
011形状
  9
$CELTYPE
  6
BYLAYER
  9
$CECOLOR
 62
   256
  9
$DIMSCALE
 40
0.0
  9
$DIMASZ
 40
1.25
  9
$DIMEXO
 40
0.25
  9
$DIMDLI
 40
3.75
  9
$DIMRND
 40
0.0
  9
$DIMDLE
 40
0.0
  9
$DIMEXE
 40
0.375
  9
$DIMTP
 40
0.0
  9
$DIMTM
 40
0.000000001
  9
$DIMTXT
 40
1.5
  9
$DIMCEN
 40
2.5
  9
$DIMTSZ
 40
0.0
  9
$DIMTOL
 70
     0
  9
$DIMLIM
 70
     0
  9
$DIMTIH
 70
     0
  9
$DIMTOH
 70
     0
  9
$DIMSE1
 70
     0
  9
$DIMSE2
 70
     0
  9
$DIMTAD
 70
     3
  9
$DIMZIN
 70
     8
  9
$DIMBLK
  1

  9
$DIMASO
 70
     1
  9
$DIMSHO
 70
     1
  9
$DIMPOST
  1

  9
$DIMAPOST
  1

  9
$DIMALT
 70
     0
  9
$DIMALTD
 70
     4
  9
$DIMALTF
 40
0.0394
  9
$DIMLFAC
 40
1.0
  9
$DIMTOFL
 70
     1
  9
$DIMTVP
 40
0.0
  9
$DIMTIX
 70
     0
  9
$DIMSOXD
 70
     0
  9
$DIMSAH
 70
     1
  9
$DIMBLK1
  1
OPEN
  9
$DIMBLK2
  1
OPEN
  9
$DIMSTYLE
  2
通常X2_0
  9
$DIMCLRD
 70
   256
  9
$DIMCLRE
 70
   256
  9
$DIMCLRT
 70
     2
  9
$DIMTFAC
 40
0.5
  9
$DIMGAP
 40
0.25
  9
$LUNITS
 70
     2
  9
$LUPREC
 70
     8
  9
$SKETCHINC
 40
1.0
  9
$FILLETRAD
 40
1.0
  9
$AUNITS
 70
     0
  9
$AUPREC
 70
     6
  9
$MENU
  1
.
  9
$ELEVATION
 40
0.0
  9
$PELEVATION
 40
0.0
  9
$THICKNESS
 40
0.0
  9
$LIMCHECK
 70
     0
  9
$BLIPMODE
 70
     0
  9
$CHAMFERA
 40
1.0
  9
$CHAMFERB
 40
1.0
  9
$SKPOLY
 70
     0
  9
$TDCREATE
 40
2453536.500536378
  9
$TDUPDATE
 40
2457944.59101015
  9
$TDINDWG
 40
0.9609651389
  9
$TDUSRTIMER
 40
0.9609651389
  9
$USRTIMER
 70
     1
  9
$ANGBASE
 50
0.0
  9
$ANGDIR
 70
     0
  9
$PDMODE
 70
     0
  9
$PDSIZE
 40
0.0
  9
$PLINEWID
 40
0.0
  9
$COORDS
 70
     1
  9
$SPLFRAME
 70
     0
  9
$SPLINETYPE
 70
     6
  9
$SPLINESEGS
 70
     8
  9
$ATTDIA
 70
     1
  9
$ATTREQ
 70
     1
  9
$HANDLING
 70
     1
  9
$HANDSEED
  5
639D
  9
$SURFTAB1
 70
     6
  9
$SURFTAB2
 70
     6
  9
$SURFTYPE
 70
     6
  9
$SURFU
 70
     6
  9
$SURFV
 70
     6
  9
$UCSNAME
  2

  9
$UCSORG
 10
1100.0
 20
0.0
 30
0.0
  9
$UCSXDIR
 10
1.0
 20
0.0
 30
0.0
  9
$UCSYDIR
 10
0.0
 20
1.0
 30
0.0
  9
$PUCSNAME
  2

  9
$PUCSORG
 10
0.0
 20
0.0
 30
0.0
  9
$PUCSXDIR
 10
1.0
 20
0.0
 30
0.0
  9
$PUCSYDIR
 10
0.0
 20
1.0
 30
0.0
  9
$USERI1
 70
     0
  9
$USERI2
 70
     0
  9
$USERI3
 70
     0
  9
$USERI4
 70
     0
  9
$USERI5
 70
     0
  9
$USERR1
 40
0.0
  9
$USERR2
 40
0.0
  9
$USERR3
 40
0.0
  9
$USERR4
 40
0.0
  9
$USERR5
 40
0.0
  9
$WORLDVIEW
 70
     1
  9
$SHADEDGE
 70
     3
  9
$SHADEDIF
 70
    70
  9
$TILEMODE
 70
     1
  9
$MAXACTVP
 70
    48
  9
$PLIMCHECK
 70
     0
  9
$PEXTMIN
 10
211.5
 20
-8.0
 30
0.0
  9
$PEXTMAX
 10
903.5
 20
300.0
 30
0.0
  9
$PLIMMIN
 10
483.02948910854462
 20
-8.1501641204820885
  9
$PLIMMAX
 10
903.01847226284156
 20
288.8181586334241
  9
$UNITMODE
 70
     0
  9
$VISRETAIN
 70
     1
  9
$PLINEGEN
 70
     0
  9
$PSLTSCALE
 70
     1
  0
ENDSEC
  0
SECTION
  2
TABLES
  0
TABLE
  2
VPORT
 70
     1
  0
VPORT
  2
*ACTIVE
 70
     0
 10
0.0
 20
0.0
 11
1.0
 21
1.0
 12
1152.491222877831
 22
74.274175409769683
 13
0.0
 23
0.0
 14
10.0
 24
10.0
 15
10.0
 25
10.0
 16
0.0
 26
0.0
 36
1.0
 17
0.0
 27
0.0
 37
0.0
 40
151.60449249307791
 41
2.0983827493261451
 42
50.0
 43
0.0
 44
0.0
 50
0.0
 51
0.0
 71
     0
 72
   100
 73
     1
 74
     3
 75
     0
 76
     1
 77
     0
 78
     0
  0
ENDTAB
  0
TABLE
  2
LTYPE
 70
    11
  0
LTYPE
  2
CONTINUOUS
 70
     0
  3
Solid line
 72
    65
 73
     0
 40
0.0
  0
LTYPE
  2
CENTER
 70
     0
  3
Center ____ _ ____ _ ____ _ ____ _ ____ _ ____
 72
    65
 73
     4
 40
2.0
 49
1.25
 49
-0.25
 49
0.25
 49
-0.25
  0
LTYPE
  2
CENTER2
 70
     0
  3
Center (.5x) ___ _ ___ _ ___ _ ___ _ ___ _ ___
 72
    65
 73
     4
 40
1.125
 49
0.75
 49
-0.125
 49
0.125
 49
-0.125
  0
LTYPE
  2
DASHED
 70
     0
  3
Dashed __ __ __ __ __ __ __ __ __ __ __ __ __ _
 72
    65
 73
     2
 40
0.75
 49
0.5
 49
-0.25
  0
LTYPE
  2
DASHED2
 70
     0
  3
Dashed (.5x) _ _ _ _ _ _ _ _ _ _ _ _ _ _ _ _ _
 72
    65
 73
     2
 40
0.375
 49
0.25
 49
-0.125
  0
LTYPE
  2
PHANTOM2
 70
     0
  3
Phantom (.5x) ___ _ _ ___ _ _ ___ _ _ ___ _ _
 72
    65
 73
     6
 40
1.25
 49
0.625
 49
-0.125
 49
0.125
 49
-0.125
 49
0.125
 49
-0.125
  0
LTYPE
  2
CENTERX2
 70
     0
  3
Center (2x) ________  __  ________  __  _____
 72
    65
 73
     4
 40
4.0
 49
2.5
 49
-0.5
 49
0.5
 49
-0.5
  0
LTYPE
  2
DASHEDX2
 70
     0
  3
Dashed (2x) ____  ____  ____  ____  ____  ___
 72
    65
 73
     2
 40
1.5
 49
1.0
 49
-0.5
  0
LTYPE
  2
PHANTOM
 70
     0
  3
Phantom ______  __  __  ______  __  __  ______
 72
    65
 73
     6
 40
2.5
 49
1.25
 49
-0.25
 49
0.25
 49
-0.25
 49
0.25
 49
-0.25
  0
LTYPE
  2
PHANTOMX2
 70
     0
  3
Phantom (2x) ____________    ____    ____   _
 72
    65
 73
     6
 40
5.0
 49
2.5
 49
-0.5
 49
0.5
 49
-0.5
 49
0.5
 49
-0.5
  0
ENDTAB
  0
TABLE
  2
LAYER
 70
    10
  0
LAYER
  2
0
 70
     0
 62
     7
  6
CONTINUOUS
  0
LAYER
  2
DEFPOINTS
 70
     0
 62
     7
  6
CONTINUOUS
  0
LAYER
  2
002寸法
 70
     0
 62
     1
  6
CONTINUOUS
  0
LAYER
  2
001センタ
 70
     0
 62
     1
  6
CENTER
  0
LAYER
  2
011形状
 70
     0
 62
     3
  6
CONTINUOUS
  0
LAYER
  2
003注釈
 70
     0
 62
     2
  6
CONTINUOUS
  0
LAYER
  2
051共通部品
 70
     0
 62
     3
  6
CONTINUOUS
  0
LAYER
  2
101購入品
 70
     0
 62
     3
  6
CONTINUOUS
  0
LAYER
  2
111治具
 70
     0
 62
     3
  6
CONTINUOUS
  0
LAYER
  2
052収納品
 70
     0
 62
     1
  6
PHANTOM
  0
ENDTAB
  0
TABLE
  2
STYLE
 70
     5
  0
STYLE
  2
STANDARD
 70
     0
 40
0.0
 41
0.9
 50
0.0
 71
     0
 42
3.0
  3
romans.shx
  4
extfont2.shx
  0
STYLE
  2
表題
 70
     0
 40
0.0
 41
1.0
 50
0.0
 71
     0
 42
2.5
  3
txt
  4

  0
STYLE
  2

 70
     1
 40
0.0
 41
1.0
 50
0.0
 71
     0
 42
2.5
  3
ltypeshp.shx
  4

  0
STYLE
  2
注釈
 70
     0
 40
3.0
 41
0.9
 50
0.0
 71
     0
 42
3.0
  3
romans.shx
  4
extfont2.shx
  0
ENDTAB
  0
TABLE
  2
VIEW
 70
     3
  0
ENDTAB
  0
TABLE
  2
UCS
 70
     0
  0
ENDTAB
  0
TABLE
  2
APPID
 70
    17
  0
APPID
  2
ACAD
 70
     0
  0
APPID
  2
ACAD_NAV_VCDISPLAY
 70
     0
  0
APPID
  2
ACAD_EXEMPT_FROM_CAD_STANDARDS
 70
     0
  0
APPID
  2
ACAUTHENVIRON
 70
     0
  0
APPID
  2
ACDBDYNAMICBLOCKTRUENAME
 70
     0
  0
APPID
  2
ACDBDYNAMICBLOCKGUID
 70
     0
  0
APPID
  2
ACADANNOPO
 70
     0
  0
APPID
  2
ACAECLAYERSTANDARD
 70
     0
  0
APPID
  2
ACCMTRANSPARENCY
 70
     0
  0
APPID
  2
ACAD_PSEXT
 70
     0
  0
APPID
  2
ACAD_DSTYLE_DIMJAG
 70
     0
  0
APPID
  2
ACAD_DSTYLE_DIMTALN
 70
     0
  0
APPID
  2
ACAD_DSTYLE_DIMRADIAL_EXTENSION
 70
     0
  0
APPID
  2
ACAD_MLEADERVER
 70
     0
  0
APPID
  2
CONTENTBLOCKDESCRIPTION
 70
     0
  0
APPID
  2
CONTENTBLOCKICON
 70
     0
  0
APPID
  2
AcDbAttr
 70
     0
  0
ENDTAB
  0
TABLE
  2
DIMSTYLE
 70
    20
  0
DIMSTYLE
  2
通常X1_0
 70
     0
  3

  4

  5

  6
OPEN
  7
OPEN
 40
1.0
 41
2.5
 42
0.5
 43
3.75
 44
0.75
 45
0.0
 46
0.0
 47
0.0
 48
0.000000001
140
3.0
141
2.5
142
0.0
143
0.0394
144
1.0
145
0.0
146
0.5
147
0.5
 71
     0
 72
     0
 73
     0
 74
     0
 75
     0
 76
     0
 77
     3
 78
     8
170
     0
171
     4
172
     1
173
     1
174
     0
175
     0
176
   256
177
   256
178
     2
  0
DIMSTYLE
  2
通常X3_0
 70
     0
  3

  4

  5

  6
OPEN
  7
OPEN
 40
0.0
 41
0.833
 42
0.167
 43
3.75
 44
0.25
 45
0.0
 46
0.0
 47
0.0
 48
0.000000001
140
1.0
141
2.5
142
0.0
143
0.0394
144
1.0
145
0.0
146
0.5
147
0.167
 71
     0
 72
     0
 73
     0
 74
     0
 75
     0
 76
     0
 77
     3
 78
     8
170
     0
171
     4
172
     1
173
     1
174
     0
175
     0
176
   256
177
   256
178
     2
  0
DIMSTYLE
  2
通常X2_0
 70
     0
  3

  4

  5

  6
OPEN
  7
OPEN
 40
0.0
 41
1.25
 42
0.25
 43
3.75
 44
0.375
 45
0.0
 46
0.0
 47
0.0
 48
0.000000001
140
1.5
141
2.5
142
0.0
143
0.0394
144
1.0
145
0.0
146
0.5
147
0.25
 71
     0
 72
     0
 73
     0
 74
     0
 75
     0
 76
     0
 77
     3
 78
     8
170
     0
171
     4
172
     1
173
     1
174
     0
175
     0
176
   256
177
   256
178
     2
  0
DIMSTYLE
  2
通常X2_3
 70
     0
  3

  4

  5

  6
OPEN
  7
OPEN
 40
1.0
 41
3.75
 42
0.75
 43
3.75
 44
1.125
 45
0.0
 46
0.0
 47
0.0
 48
0.0
140
4.5
141
2.5
142
0.0
143
0.0394
144
1.0
145
0.0
146
0.5
147
0.75
 71
     0
 72
     0
 73
     0
 74
     0
 75
     0
 76
     0
 77
     3
 78
     8
170
     0
171
     4
172
     1
173
     1
174
     0
175
     0
176
   256
177
   256
178
     2
  0
DIMSTYLE
  2
通常X3_4
 70
     0
  3

  4

  5

  6
OPEN
  7
OPEN
 40
1.0
 41
3.3330000000000002
 42
0.667
 43
3.75
 44
1.0
 45
0.0
 46
0.0
 47
0.0
 48
0.000000001
140
4.0
141
2.5
142
0.0
143
0.0394
144
1.0
145
0.0
146
0.5
147
0.667
 71
     0
 72
     0
 73
     0
 74
     0
 75
     0
 76
     0
 77
     3
 78
     8
170
     0
171
     4
172
     1
173
     1
174
     0
175
     0
176
   256
177
   256
178
     2
  0
DIMSTYLE
  2
通常X1_3
 70
     0
  3

  4

  5

  6
OPEN
  7
OPEN
 40
1.0
 41
7.5
 42
1.5
 43
3.75
 44
2.25
 45
0.0
 46
0.0
 47
0.0
 48
0.000000001
140
9.0
141
2.5
142
0.0
143
0.0394
144
1.0
145
0.0
146
0.5
147
1.5
 71
     0
 72
     0
 73
     0
 74
     0
 75
     0
 76
     0
 77
     3
 78
     8
170
     0
171
     4
172
     1
173
     1
174
     0
175
     0
176
   256
177
   256
178
     2
  0
DIMSTYLE
  2
通常X1_2
 70
     0
  3

  4

  5

  6
OPEN
  7
OPEN
 40
1.0
 41
5.0
 42
1.0
 43
3.75
 44
1.5
 45
0.0
 46
0.0
 47
0.0
 48
0.0
140
6.0
141
2.5
142
0.0
143
0.0394
144
1.0
145
0.0
146
0.5
147
1.0
 71
     0
 72
     0
 73
     0
 74
     0
 75
     0
 76
     0
 77
     3
 78
     8
170
     0
171
     4
172
     1
173
     1
174
     0
175
     0
176
   256
177
   256
178
     2
  0
DIMSTYLE
  2
通常X1_0$3
 70
     0
  3

  4

  5

  6
OPEN
  7
OPEN
 40
1.0
 41
2.5
 42
0.5
 43
3.75
 44
0.75
 45
0.0
 46
0.0
 47
0.0
 48
0.000000001
140
3.0
141
2.5
142
0.0
143
0.0394
144
1.0
145
0.0
146
0.5
147
0.5
 71
     0
 72
     0
 73
     0
 74
     0
 75
     0
 76
     0
 77
     3
 78
     8
170
     0
171
     4
172
     1
173
     1
174
     0
175
     0
176
   256
177
   256
178
     2
  0
DIMSTYLE
  2
通常X1_3$3
 70
     0
  3

  4

  5

  6
OPEN
  7
OPEN
 40
1.0
 41
7.5
 42
1.5
 43
3.75
 44
2.25
 45
0.0
 46
0.0
 47
0.0
 48
0.000000001
140
9.0
141
2.5
142
0.0
143
0.0394
144
1.0
145
0.0
146
0.5
147
1.5
 71
     0
 72
     0
 73
     0
 74
     0
 75
     0
 76
     0
 77
     3
 78
     8
170
     0
171
     4
172
     1
173
     1
174
     0
175
     0
176
   256
177
   256
178
     2
  0
DIMSTYLE
  2
通常X1_2$3
 70
     0
  3

  4

  5

  6
OPEN
  7
OPEN
 40
1.0
 41
5.0
 42
1.0
 43
3.75
 44
1.5
 45
0.0
 46
0.0
 47
0.0
 48
0.0
140
6.0
141
2.5
142
0.0
143
0.0394
144
1.0
145
0.0
146
0.5
147
1.0
 71
     0
 72
     0
 73
     0
 74
     0
 75
     0
 76
     0
 77
     3
 78
     8
170
     0
171
     4
172
     1
173
     1
174
     0
175
     0
176
   256
177
   256
178
     2
  0
DIMSTYLE
  2
通常X2_3$3
 70
     0
  3

  4

  5

  6
OPEN
  7
OPEN
 40
1.0
 41
3.75
 42
0.75
 43
3.75
 44
1.125
 45
0.0
 46
0.0
 47
0.0
 48
0.0
140
4.5
141
2.5
142
0.0
143
0.0394
144
1.0
145
0.0
146
0.5
147
0.75
 71
     0
 72
     0
 73
     0
 74
     0
 75
     0
 76
     0
 77
     3
 78
     8
170
     0
171
     4
172
     1
173
     1
174
     0
175
     0
176
   256
177
   256
178
     2
  0
DIMSTYLE
  2
通常X3_4$3
 70
     0
  3

  4

  5

  6
OPEN
  7
OPEN
 40
1.0
 41
3.3330000000000002
 42
0.667
 43
3.75
 44
1.0
 45
0.0
 46
0.0
 47
0.0
 48
0.000000001
140
4.0
141
10.0
142
0.0
143
0.0394
144
1.0
145
0.0
146
0.5
147
0.667
 71
     0
 72
     0
 73
     0
 74
     0
 75
     0
 76
     0
 77
     3
 78
     8
170
     0
171
     4
172
     1
173
     1
174
     0
175
     0
176
   256
177
   256
178
     2
  0
DIMSTYLE
  2
通常X2_0$3
 70
     0
  3

  4

  5

  6
OPEN
  7
OPEN
 40
0.0
 41
1.25
 42
0.25
 43
3.75
 44
0.5
 45
0.0
 46
0.0
 47
0.0
 48
0.000000001
140
1.5
141
2.5
142
0.0
143
0.0394
144
1.0
145
0.0
146
0.5
147
0.5
 71
     0
 72
     0
 73
     0
 74
     0
 75
     0
 76
     0
 77
     3
 78
     8
170
     0
171
     4
172
     1
173
     1
174
     0
175
     0
176
   256
177
   256
178
     2
  0
DIMSTYLE
  2
通常X3_0$3
 70
     0
  3

  4

  5

  6
OPEN
  7
OPEN
 40
0.0
 41
0.833
 42
0.167
 43
3.75
 44
0.4
 45
0.0
 46
0.0
 47
0.0
 48
0.000000001
140
1.0
141
2.5
142
0.0
143
0.0394
144
1.0
145
0.0
146
0.5
147
0.4
 71
     0
 72
     0
 73
     0
 74
     0
 75
     0
 76
     0
 77
     3
 78
     8
170
     0
171
     4
172
     1
173
     1
174
     0
175
     0
176
   256
177
   256
178
     2
  0
DIMSTYLE
  2
通常X1_5
 70
     0
  3

  4

  5

  6
OPEN
  7
OPEN
 40
1.0
 41
1.6669999999999989
 42
0.33
 43
3.75
 44
0.5
 45
0.0
 46
0.0
 47
0.0
 48
0.000000001
140
2.0
141
2.5
142
0.0
143
0.0394
144
1.0
145
0.0
146
0.5
147
0.33
 71
     0
 72
     0
 73
     0
 74
     0
 75
     0
 76
     0
 77
     3
 78
     9
170
     0
171
     4
172
     1
173
     1
174
     0
175
     0
176
   256
177
   256
178
     2
  0
DIMSTYLE
  2
通常X3_5
 70
     0
  3

  4

  5

  6
OPEN
  7
OPEN
 40
1.0
 41
4.1669999999999989
 42
0.833
 43
3.75
 44
1.25
 45
0.0
 46
0.0
 47
0.0
 48
0.000000001
140
5.0
141
2.5
142
0.0
143
0.0394
144
1.0
145
0.0
146
0.5
147
0.833
 71
     0
 72
     0
 73
     0
 74
     0
 75
     0
 76
     0
 77
     3
 78
     8
170
     0
171
     4
172
     1
173
     1
174
     0
175
     0
176
   256
177
   256
178
     2
  0
DIMSTYLE
  2
通常X3_5$3
 70
     0
  3

  4

  5

  6
OPEN
  7
OPEN
 40
1.0
 41
4.1669999999999989
 42
0.833
 43
3.75
 44
1.25
 45
0.0
 46
0.0
 47
0.0
 48
0.000000001
140
5.0
141
2.5
142
0.0
143
0.0394
144
1.0
145
0.0
146
0.5
147
0.833
 71
     0
 72
     0
 73
     0
 74
     0
 75
     0
 76
     0
 77
     3
 78
     8
170
     0
171
     4
172
     1
173
     1
174
     0
175
     0
176
   256
177
   256
178
     2
  0
DIMSTYLE
  2
通常X1_5$3
 70
     0
  3

  4

  5

  6
OPEN
  7
OPEN
 40
1.0
 41
1.6669999999999989
 42
0.33
 43
3.75
 44
0.5
 45
0.0
 46
0.0
 47
0.0
 48
0.000000001
140
2.0
141
2.5
142
0.0
143
0.0394
144
1.0
145
0.0
146
0.5
147
0.33
 71
     0
 72
     0
 73
     0
 74
     0
 75
     0
 76
     0
 77
     3
 78
     9
170
     0
171
     4
172
     1
173
     1
174
     0
175
     0
176
   256
177
   256
178
     2
  0
ENDTAB
  0
ENDSEC
  0
SECTION
  2
BLOCKS
  0
BLOCK
  8
0
  2
$MODEL_SPACE
 70
     0
 10
0.0
 20
0.0
 30
0.0
  3
$MODEL_SPACE
  1

  0
ENDBLK
  5
21
  8
0
  0
BLOCK
 67
     1
  8
0
  2
$PAPER_SPACE
 70
     0
 10
0.0
 20
0.0
 30
0.0
  3
$PAPER_SPACE
  1

  0
ENDBLK
  5
58
 67
     1
  8
0
  0
BLOCK
  8
0
  2
_OPEN
 70
     0
 10
0.0
 20
0.0
 30
0.0
  3
_OPEN
  1

  0
LINE
  5
87
  8
0
  6
BYBLOCK
 62
     0
 10
-1.0
 20
0.1666666666666666
 30
0.0
 11
0.0
 21
0.0
 31
0.0
  0
LINE
  5
88
  8
0
  6
BYBLOCK
 62
     0
 10
0.0
 20
0.0
 30
0.0
 11
-1.0
 21
-0.1666666666666666
 31
0.0
  0
LINE
  5
89
  8
0
  6
BYBLOCK
 62
     0
 10
0.0
 20
0.0
 30
0.0
 11
-1.0
 21
0.0
 31
0.0
  0
ENDBLK
  5
8B
  8
0
  0
BLOCK
  8
0
  2
A$C0C1533B0
 70
     0
 10
0.0
 20
0.0
 30
0.0
  3
A$C0C1533B0
  1

  0
LINE
  5
2C54
  8
0
 10
5.2469999999998427
 20
5.2469999999998427
 30
0.0
 11
0.0
 21
5.2469999999998427
 31
0.0
  0
LINE
  5
2C55
  8
0
 10
5.0984999999996026
 20
5.0984999999996026
 30
0.0
 11
0.1484999999997854
 21
5.0984999999996026
 31
0.0
  0
LINE
  5
2C56
  8
0
 10
3.415500000000065
 20
4.6529999999988831
 30
0.0
 11
3.11850000000004
 21
4.6529999999988831
 31
0.0
  0
LINE
  5
2C57
  8
0
 10
3.11850000000004
 20
4.6529999999988831
 30
0.0
 11
3.11850000000004
 21
3.266999999998915
 31
0.0
  0
LINE
  5
2C58
  8
0
 10
1.7325000000000721
 20
4.6529999999988831
 30
0.0
 11
1.7325000000000721
 21
3.266999999998915
 31
0.0
  0
LINE
  5
2C59
  8
0
 10
1.7325000000000721
 20
4.6529999999988831
 30
0.0
 11
1.336499999999887
 21
4.6529999999988831
 31
0.0
  0
LINE
  5
2C5A
  8
0
 10
2.0324722099007881
 20
1.0250351407994449
 30
0.0
 11
2.0390851008005479
 21
1.0150218869994201
 31
0.0
  0
LINE
  5
2C5B
  8
0
 10
2.1496148443002312
 20
0.9334853956993356
 30
0.0
 11
2.1694535159003858
 21
0.9221561139995628
 31
0.0
  0
LINE
  5
2C5C
  8
0
 10
2.0277487164003101
 20
1.03516283089948
 30
0.0
 11
2.0324722099007881
 21
1.0250351407994449
 31
0.0
  0
LINE
  5
2C5D
  8
0
 10
2.1694535159003858
 20
0.9221561139995628
 30
0.0
 11
2.1892921875009961
 21
0.9115134566995948
 31
0.0
  0
LINE
  5
2C5E
  8
0
 10
2.024914620300478
 20
1.045404958399331
 30
0.0
 11
2.0277487164003101
 21
1.03516283089948
 31
0.0
  0
LINE
  5
2C5F
  8
0
 10
2.1892921875009961
 20
0.9115134566995948
 30
0.0
 11
2.209130859099786
 21
0.9015574215995911
 31
0.0
  0
LINE
  5
2C60
  8
0
 10
2.0239699215999281
 20
1.0557615232992239
 30
0.0
 11
2.024914620300478
 21
1.045404958399331
 31
0.0
  0
LINE
  5
2C61
  8
0
 10
2.209130859099786
 20
0.9015574215995911
 30
0.0
 11
2.2293069238003218
 21
0.8904570157997113
 31
0.0
  0
LINE
  5
2C62
  8
0
 10
2.0245772283005858
 20
1.065202591199067
 30
0.0
 11
2.0239699215999281
 21
1.0557615232992239
 31
0.0
  0
LINE
  5
2C63
  8
0
 10
2.2293069238003218
 20
0.8904570157997113
 30
0.0
 11
2.2463789776998051
 21
0.8779833622995739
 31
0.0
  0
LINE
  5
2C64
  8
0
 10
2.0263991472997982
 20
1.0743003468994621
 30
0.0
 11
2.0245772283005858
 21
1.065202591199067
 31
0.0
  0
LINE
  5
2C65
  8
0
 10
2.2463789776998051
 20
0.8779833622995739
 30
0.0
 11
2.260347023000576
 21
0.8641364632994736
 31
0.0
  0
LINE
  5
2C66
  8
0
 10
2.0294356786002932
 20
1.0830547914995341
 30
0.0
 11
2.0263991472997982
 21
1.0743003468994621
 31
0.0
  0
LINE
  5
2C67
  8
0
 10
2.260347023000576
 20
0.8641364632994736
 30
0.0
 11
2.2712110574998401
 21
0.8489163187991835
 31
0.0
  0
LINE
  5
2C68
  8
0
 10
2.0336868222002522
 20
1.091465923899249
 30
0.0
 11
2.0294356786002932
 21
1.0830547914995341
 31
0.0
  0
LINE
  5
2C69
  8
0
 10
2.2712110574998401
 20
0.8489163187991835
 30
0.0
 11
2.2789710822999041
 21
0.8323229276991241
 31
0.0
  0
LINE
  5
2C6A
  8
0
 10
2.039152579200163
 20
1.099533745199551
 30
0.0
 11
2.0336868222002522
 21
1.091465923899249
 31
0.0
  0
LINE
  5
2C6B
  8
0
 10
2.2789710822999041
 20
0.8323229276991241
 30
0.0
 11
2.2836270963007328
 21
0.8143562899992957
 31
0.0
  0
LINE
  5
2C6C
  8
0
 10
2.0458329485004461
 20
1.1072582553993009
 30
0.0
 11
2.039152579200163
 21
1.099533745199551
 31
0.0
  0
LINE
  5
2C6D
  8
0
 10
2.2836270963007328
 20
0.8143562899992957
 30
0.0
 11
2.2851791017001228
 21
0.7950164067992774
 31
0.0
  0
LINE
  5
2C6E
  8
0
 10
2.0537279301006488
 20
1.1146394533993771
 30
0.0
 11
2.0458329485004461
 21
1.1072582553993009
 31
0.0
  0
LINE
  5
2C6F
  8
0
 10
2.2851791017001228
 20
0.7950164067992774
 30
0.0
 11
2.2841669245999578
 21
0.7755620850994092
 31
0.0
  0
LINE
  5
2C70
  8
0
 10
2.0605432561997068
 20
1.119846345199448
 30
0.0
 11
2.0537279301006488
 21
1.1146394533993771
 31
0.0
  0
LINE
  5
2C71
  8
0
 10
2.2841669245999578
 20
0.7755620850994092
 30
0.0
 11
2.2811303933003719
 21
0.7572521362992575
 31
0.0
  0
LINE
  5
2C72
  8
0
 10
2.067763452700091
 20
1.124252176299251
 30
0.0
 11
2.0605432561997068
 21
1.119846345199448
 31
0.0
  0
LINE
  5
2C73
  8
0
 10
2.2811303933003719
 20
0.7572521362992575
 30
0.0
 11
2.2760695078000022
 21
0.7400865592994707
 31
0.0
  0
LINE
  5
2C74
  8
0
 10
2.075388520700471
 20
1.127856947799045
 30
0.0
 11
2.067763452700091
 21
1.124252176299251
 31
0.0
  0
LINE
  5
2C75
  8
0
 10
2.2760695078000022
 20
0.7400865592994707
 30
0.0
 11
2.2689842670001781
 21
0.7240653540995936
 31
0.0
  0
LINE
  5
2C76
  8
0
 10
2.0834184591003568
 20
1.1306606585994809
 30
0.0
 11
2.075388520700471
 21
1.127856947799045
 31
0.0
  0
LINE
  5
2C77
  8
0
 10
2.2689842670001781
 20
0.7240653540995936
 30
0.0
 11
2.259874673100057
 21
0.709188520699172
 31
0.0
  0
LINE
  5
2C78
  8
0
 10
2.091853268999329
 20
1.1326633086991931
 30
0.0
 11
2.0834184591003568
 21
1.1306606585994809
 31
0.0
  0
LINE
  5
2C79
  8
0
 10
2.259874673100057
 20
0.709188520699172
 30
0.0
 11
2.2487407250000611
 21
0.6954560590995698
 31
0.0
  0
LINE
  5
2C7A
  8
0
 10
2.1006929493005368
 20
1.1338648991993521
 30
0.0
 11
2.091853268999329
 21
1.1326633086991931
 31
0.0
  0
LINE
  5
2C7B
  8
0
 10
2.2487407250000611
 20
0.6954560590995698
 30
0.0
 11
2.2355824216001561
 21
0.6828679681989343
 31
0.0
  0
LINE
  5
2C7C
  8
0
 10
2.1099374999998868
 20
1.1342654300992761
 30
0.0
 11
2.1006929493005368
 21
1.1338648991993521
 31
0.0
  0
LINE
  5
2C7D
  8
0
 10
2.2355824216001561
 20
0.6828679681989343
 30
0.0
 11
2.2216143774003281
 21
0.6724541856992801
 31
0.0
  0
LINE
  5
2C7E
  8
0
 10
2.1191820507006009
 20
1.1338648991993521
 30
0.0
 11
2.1099374999998868
 21
1.1342654300992761
 31
0.0
  0
LINE
  5
2C7F
  8
0
 10
2.2216143774003281
 20
0.6724541856992801
 30
0.0
 11
2.2061618061998161
 21
0.6636425223994138
 31
0.0
  0
LINE
  5
2C80
  8
0
 10
2.1280217310004441
 20
1.1326633086991931
 30
0.0
 11
2.1191820507006009
 21
1.1338648991993521
 31
0.0
  0
LINE
  5
2C81
  8
0
 10
2.2061618061998161
 20
0.6636425223994138
 30
0.0
 11
2.1892247091000172
 21
0.656432979399142
 31
0.0
  0
LINE
  5
2C82
  8
0
 10
2.1364565409003262
 20
1.1306606585994809
 30
0.0
 11
2.1280217310004441
 21
1.1326633086991931
 31
0.0
  0
LINE
  5
2C83
  8
0
 10
2.1892247091000172
 20
0.656432979399142
 30
0.0
 11
2.1708030849999882
 21
0.6508255577991804
 31
0.0
  0
LINE
  5
2C84
  8
0
 10
2.1444864793006668
 20
1.127856947799045
 30
0.0
 11
2.1364565409003262
 21
1.1306606585994809
 31
0.0
  0
LINE
  5
2C85
  8
0
 10
2.1708030849999882
 20
0.6508255577991804
 30
0.0
 11
2.1508969349997642
 21
0.6468202564994954
 31
0.0
  0
LINE
  5
2C86
  8
0
 10
2.1521115473001369
 20
1.124252176299251
 30
0.0
 11
2.1444864793006668
 21
1.127856947799045
 31
0.0
  0
LINE
  5
2C87
  8
0
 10
2.1508969349997642
 20
0.6468202564994954
 30
0.0
 11
2.1295062580002191
 21
0.6444170754994048
 31
0.0
  0
LINE
  5
2C88
  8
0
 10
2.159331743799612
 20
1.119846345199448
 30
0.0
 11
2.1521115473001369
 21
1.124252176299251
 31
0.0
  0
LINE
  5
2C89
  8
0
 10
2.1295062580002191
 20
0.6444170754994048
 30
0.0
 11
2.1066310551004781
 21
0.6436160158991698
 31
0.0
  0
LINE
  5
2C8A
  8
0
 10
2.1661470699009442
 20
1.1146394533993771
 30
0.0
 11
2.159331743799612
 21
1.119846345199448
 31
0.0
  0
LINE
  5
2C8B
  8
0
 10
2.1066310551004781
 20
0.6436160158991698
 30
0.0
 11
2.0847005497998898
 21
0.6443598567993832
 31
0.0
  0
LINE
  5
2C8C
  8
0
 10
2.1747843150005788
 20
1.1062283198991729
 30
0.0
 11
2.1661470699009442
 21
1.1146394533993771
 31
0.0
  0
LINE
  5
2C8D
  8
0
 10
2.0847005497998898
 20
0.6443598567993832
 30
0.0
 11
2.064254571499986
 21
0.6465913827996701
 31
0.0
  0
LINE
  5
2C8E
  8
0
 10
2.1818020763007548
 20
1.0970161267991889
 30
0.0
 11
2.1747843150005788
 21
1.1062283198991729
 31
0.0
  0
LINE
  5
2C8F
  8
0
 10
2.064254571499986
 20
0.6465913827996701
 30
0.0
 11
2.0452931201998581
 21
0.650310590599247
 31
0.0
  0
LINE
  5
2C90
  8
0
 10
2.1872003549001411
 20
1.0870028740991979
 30
0.0
 11
2.1818020763007548
 21
1.0970161267991889
 31
0.0
  0
LINE
  5
2C91
  8
0
 10
2.0452931201998581
 20
0.650310590599247
 30
0.0
 11
2.0278161947999251
 21
0.6555174823993184
 31
0.0
  0
LINE
  5
2C92
  8
0
 10
2.1909791497000688
 20
1.0761885606989381
 30
0.0
 11
2.1872003549001411
 21
1.0870028740991979
 31
0.0
  0
LINE
  5
2C93
  8
0
 10
2.0278161947999251
 20
0.6555174823993184
 30
0.0
 11
2.0118237963997672
 21
0.6622120570993957
 31
0.0
  0
LINE
  5
2C94
  8
0
 10
2.193138460700538
 20
1.0645731865990911
 30
0.0
 11
2.1909791497000688
 21
1.0761885606989381
 31
0.0
  0
LINE
  5
2C95
  8
0
 10
2.0118237963997672
 20
0.6622120570993957
 30
0.0
 11
1.9973159238998051
 21
0.6703943157995127
 31
0.0
  0
LINE
  5
2C96
  8
0
 10
2.193678287900183
 20
1.052156751799429
 30
0.0
 11
2.193138460700538
 21
1.0645731865990911
 31
0.0
  0
LINE
  5
2C97
  8
0
 10
1.9973159238998051
 20
0.6703943157995127
 30
0.0
 11
1.984292578400527
 21
0.6800642573994084
 31
0.0
  0
LINE
  5
2C98
  8
0
 10
2.1925986323999491
 20
1.038939257398851
 30
0.0
 11
2.193678287900183
 21
1.052156751799429
 31
0.0
  0
LINE
  5
2C99
  8
0
 10
1.984292578400527
 20
0.6800642573994084
 30
0.0
 11
1.970257054700596
 21
0.6932245330992828
 31
0.0
  0
LINE
  5
2C9A
  8
0
 10
2.2686468749998312
 20
1.038939257398851
 30
0.0
 11
2.1925986323999491
 21
1.038939257398851
 31
0.0
  0
LINE
  5
2C9B
  8
0
 10
1.970257054700596
 20
0.6932245330992828
 30
0.0
 11
1.9583808431002581
 21
0.707071432099383
 31
0.0
  0
LINE
  5
2C9C
  8
0
 10
2.2685119182001472
 20
1.0598812619996349
 30
0.0
 11
2.2686468749998312
 21
1.038939257398851
 31
0.0
  0
LINE
  5
2C9D
  8
0
 10
1.9583808431002581
 20
0.707071432099383
 30
0.0
 11
1.948663942499933
 21
0.7216049543994814
 31
0.0
  0
LINE
  5
2C9E
  8
0
 10
2.2662176504004492
 20
1.0794500199992849
 30
0.0
 11
2.2685119182001472
 21
1.0598812619996349
 31
0.0
  0
LINE
  5
2C9F
  8
0
 10
1.948663942499933
 20
0.7216049543994814
 30
0.0
 11
1.9411063540001121
 21
0.7368250999993508
 31
0.0
  0
LINE
  5
2CA0
  8
0
 10
2.2617640705002482
 20
1.097645531399166
 30
0.0
 11
2.2662176504004492
 21
1.0794500199992849
 31
0.0
  0
LINE
  5
2CA1
  8
0
 10
1.9411063540001121
 20
0.7368250999993508
 30
0.0
 11
1.935708075400725
 21
0.7527318677994117
 31
0.0
  0
LINE
  5
2CA2
  8
0
 10
2.2551511796004879
 20
1.114467797299312
 30
0.0
 11
2.2617640705002482
 21
1.097645531399166
 31
0.0
  0
LINE
  5
2CA3
  8
0
 10
1.935708075400725
 20
0.7527318677994117
 30
0.0
 11
1.9324691088995669
 21
0.7693252588992438
 31
0.0
  0
LINE
  5
2CA4
  8
0
 10
2.2463789776998051
 20
1.1299168165992339
 30
0.0
 11
2.2551511796004879
 21
1.114467797299312
 31
0.0
  0
LINE
  5
2CA5
  8
0
 10
1.9324691088995669
 20
0.7693252588992438
 30
0.0
 11
1.931389453400697
 21
0.7866052732993012
 31
0.0
  0
LINE
  5
2CA6
  8
0
 10
2.2354474648000169
 20
1.143992590399193
 30
0.0
 11
2.2463789776998051
 21
1.1299168165992339
 31
0.0
  0
LINE
  5
2CA7
  8
0
 10
1.931389453400697
 20
0.7866052732993012
 30
0.0
 11
1.931389453400697
 21
0.81464238239937
 31
0.0
  0
LINE
  5
2CA8
  8
0
 10
2.222356640900216
 20
1.1566951175993829
 30
0.0
 11
2.2354474648000169
 21
1.143992590399193
 31
0.0
  0
LINE
  5
2CA9
  8
0
 10
1.931389453400697
 20
0.81464238239937
 30
0.0
 11
2.0074376948996351
 21
0.81464238239937
 31
0.0
  0
LINE
  5
2CAA
  8
0
 10
2.21034547140016
 20
1.165621217199259
 30
0.0
 11
2.222356640900216
 21
1.1566951175993829
 31
0.0
  0
LINE
  5
2CAB
  8
0
 10
2.0074376948996351
 20
0.81464238239937
 30
0.0
 11
2.0074376948996351
 21
0.789408984099282
 31
0.0
  0
LINE
  5
2CAC
  8
0
 10
2.1969847339000799
 20
1.173174071299399
 30
0.0
 11
2.21034547140016
 21
1.165621217199259
 31
0.0
  0
LINE
  5
2CAD
  8
0
 10
2.0074376948996351
 20
0.789408984099282
 30
0.0
 11
2.0079775232006791
 21
0.7770497690994489
 31
0.0
  0
LINE
  5
2CAE
  8
0
 10
2.1822744262003648
 20
1.1793536787995429
 30
0.0
 11
2.1969847339000799
 21
1.173174071299399
 31
0.0
  0
LINE
  5
2CAF
  8
0
 10
2.0079775232006791
 20
0.7770497690994489
 30
0.0
 11
2.0095970069996829
 21
0.765606051099212
 31
0.0
  0
LINE
  5
2CB0
  8
0
 10
2.1662145483005579
 20
1.184160040799497
 30
0.0
 11
2.1822744262003648
 21
1.1793536787995429
 31
0.0
  0
LINE
  5
2CB1
  8
0
 10
2.0095970069996829
 20
0.765606051099212
 30
0.0
 11
2.012296145199798
 21
0.7550778300992534
 31
0.0
  0
LINE
  5
2CB2
  8
0
 10
2.1488051023998191
 20
1.1875931561990001
 30
0.0
 11
2.1662145483005579
 21
1.184160040799497
 31
0.0
  0
LINE
  5
2CB3
  8
0
 10
2.012296145199798
 20
0.7550778300992534
 30
0.0
 11
2.0160749400001801
 21
0.7454651071996068
 31
0.0
  0
LINE
  5
2CB4
  8
0
 10
2.1300460862994441
 20
1.1896530249991879
 30
0.0
 11
2.1488051023998191
 21
1.1875931561990001
 31
0.0
  0
LINE
  5
2CB5
  8
0
 10
2.0160749400001801
 20
0.7454651071996068
 30
0.0
 11
2.0209333903003421
 21
0.7367678812993291
 31
0.0
  0
LINE
  5
2CB6
  8
0
 10
2.1099374999998868
 20
1.1903396482994131
 30
0.0
 11
2.1300460862994441
 21
1.1896530249991879
 31
0.0
  0
LINE
  5
2CB7
  8
0
 10
2.0209333903003421
 20
0.7367678812993291
 30
0.0
 11
2.0268714961002838
 21
0.7289861523991023
 31
0.0
  0
LINE
  5
2CB8
  8
0
 10
2.093135359700681
 20
1.1895385886991781
 30
0.0
 11
2.1099374999998868
 21
1.1903396482994131
 31
0.0
  0
LINE
  5
2CB9
  8
0
 10
2.0268714961002838
 20
0.7289861523991023
 30
0.0
 11
2.0338892574004599
 21
0.7221199215994149
 31
0.0
  0
LINE
  5
2CBA
  8
0
 10
2.076738089799619
 20
1.187135407699315
 30
0.0
 11
2.093135359700681
 21
1.1895385886991781
 31
0.0
  0
LINE
  5
2CBB
  8
0
 10
2.0338892574004599
 20
0.7221199215994149
 30
0.0
 11
2.0417167606001381
 21
0.7161691888993574
 31
0.0
  0
LINE
  5
2CBC
  8
0
 10
2.0607456914003701
 20
1.1831301063994031
 30
0.0
 11
2.076738089799619
 21
1.187135407699315
 31
0.0
  0
LINE
  5
2CBD
  8
0
 10
2.0417167606001381
 20
0.7161691888993574
 30
0.0
 11
2.050084092099496
 21
0.7111339520995444
 31
0.0
  0
LINE
  5
2CBE
  8
0
 10
2.0451581633997189
 20
1.1775226836991799
 30
0.0
 11
2.0607456914003701
 21
1.1831301063994031
 31
0.0
  0
LINE
  5
2CBF
  8
0
 10
2.050084092099496
 20
0.7111339520995444
 30
0.0
 11
2.0589912508003181
 21
0.7070142144991678
 31
0.0
  0
LINE
  5
2CC0
  8
0
 10
2.0299755057999391
 20
1.170313141799169
 30
0.0
 11
2.0451581633997189
 21
1.1775226836991799
 31
0.0
  0
LINE
  5
2CC1
  8
0
 10
2.0589912508003181
 20
0.7070142144991678
 30
0.0
 11
2.0684382377994548
 21
0.7038099727990357
 31
0.0
  0
LINE
  5
2CC2
  8
0
 10
2.0151977197001538
 20
1.161501478499303
 30
0.0
 11
2.0299755057999391
 21
1.170313141799169
 31
0.0
  0
LINE
  5
2CC3
  8
0
 10
2.0684382377994548
 20
0.7038099727990357
 30
0.0
 11
2.078425052000056
 21
0.7015212291994432
 31
0.0
  0
LINE
  5
2CC4
  8
0
 10
2.00082480509991
 20
1.15108769489916
 30
0.0
 11
2.0151977197001538
 21
1.161501478499303
 31
0.0
  0
LINE
  5
2CC5
  8
0
 10
2.078425052000056
 20
0.7015212291994432
 30
0.0
 11
2.088951694500337
 21
0.7001479825992192
 31
0.0
  0
LINE
  5
2CC6
  8
0
 10
1.9868567598000479
 20
1.138671261199306
 30
0.0
 11
2.00082480509991
 21
1.15108769489916
 31
0.0
  0
LINE
  5
2CC7
  8
0
 10
2.088951694500337
 20
0.7001479825992192
 30
0.0
 11
2.100018164200264
 21
0.6996902340993075
 31
0.0
  0
LINE
  5
2CC8
  8
0
 10
1.975182983400827
 20
1.125453766799182
 30
0.0
 11
1.9868567598000479
 21
1.138671261199306
 31
0.0
  0
LINE
  5
2CC9
  8
0
 10
2.100018164200264
 20
0.6996902340993075
 30
0.0
 11
2.1145935151007502
 21
0.7001479825992192
 31
0.0
  0
LINE
  5
2CCA
  8
0
 10
1.965803475900429
 20
1.1114352116992441
 30
0.0
 11
1.975182983400827
 21
1.125453766799182
 31
0.0
  0
LINE
  5
2CCB
  8
0
 10
2.1145935151007502
 20
0.7001479825992192
 30
0.0
 11
2.128089210500093
 21
0.7015212291994432
 31
0.0
  0
LINE
  5
2CCC
  8
0
 10
1.958718236200184
 20
1.096615596999527
 30
0.0
 11
1.965803475900429
 21
1.1114352116992441
 31
0.0
  0
LINE
  5
2CCD
  8
0
 10
2.128089210500093
 20
0.7015212291994432
 30
0.0
 11
2.140505249300531
 21
0.7038099727990357
 31
0.0
  0
LINE
  5
2CCE
  8
0
 10
1.9539272643005461
 20
1.08099492159954
 30
0.0
 11
1.958718236200184
 21
1.096615596999527
 31
0.0
  0
LINE
  5
2CCF
  8
0
 10
2.140505249300531
 20
0.7038099727990357
 30
0.0
 11
2.1518416337003141
 21
0.7070142144991678
 31
0.0
  0
LINE
  5
2CD0
  8
0
 10
1.951430560199696
 20
1.0645731865990911
 30
0.0
 11
1.9539272643005461
 21
1.08099492159954
 31
0.0
  0
LINE
  5
2CD1
  8
0
 10
2.1518416337003141
 20
0.7070142144991678
 30
0.0
 11
2.1620983615002838
 21
0.7111339520995444
 31
0.0
  0
LINE
  5
2CD2
  8
0
 10
1.951228124999943
 20
1.047350390899509
 30
0.0
 11
1.951430560199696
 21
1.0645731865990911
 31
0.0
  0
LINE
  5
2CD3
  8
0
 10
2.1620983615002838
 20
0.7111339520995444
 30
0.0
 11
2.1712754349000529
 21
0.7161691888993574
 31
0.0
  0
LINE
  5
2CD4
  8
0
 10
1.9531850007997491
 20
1.0302420314994829
 30
0.0
 11
1.951228124999943
 21
1.047350390899509
 31
0.0
  0
LINE
  5
2CD5
  8
0
 10
2.1712754349000529
 20
0.7161691888993574
 30
0.0
 11
2.1793728517004629
 21
0.7221199215994149
 31
0.0
  0
LINE
  5
2CD6
  8
0
 10
1.9571662307998841
 20
1.01416360759913
 30
0.0
 11
1.9531850007997491
 21
1.0302420314994829
 31
0.0
  0
LINE
  5
2CD7
  8
0
 10
2.1793728517004629
 20
0.7221199215994149
 30
0.0
 11
2.1872678333002109
 21
0.7296155569995335
 31
0.0
  0
LINE
  5
2CD8
  8
0
 10
1.9631718150003501
 20
0.9991151191993594
 30
0.0
 11
1.9571662307998841
 21
1.01416360759913
 31
0.0
  0
LINE
  5
2CD9
  8
0
 10
2.1872678333002109
 20
0.7296155569995335
 30
0.0
 11
2.1939482025995849
 21
0.7376833782993799
 31
0.0
  0
LINE
  5
2CDA
  8
0
 10
1.9712017534002371
 20
0.9850965640996491
 30
0.0
 11
1.9631718150003501
 21
0.9991151191993594
 31
0.0
  0
LINE
  5
2CDB
  8
0
 10
2.1939482025995849
 20
0.7376833782993799
 30
0.0
 11
2.1994139584994619
 21
0.7463233854996361
 31
0.0
  0
LINE
  5
2CDC
  8
0
 10
1.981256047100032
 20
0.9721079444993847
 30
0.0
 11
1.9712017534002371
 21
0.9850965640996491
 31
0.0
  0
LINE
  5
2CDD
  8
0
 10
2.1994139584994619
 20
0.7463233854996361
 30
0.0
 11
2.203665103199909
 21
0.7555355785993925
 31
0.0
  0
LINE
  5
2CDE
  8
0
 10
1.993334693900578
 20
0.9601492581991806
 30
0.0
 11
1.981256047100032
 21
0.9721079444993847
 31
0.0
  0
LINE
  5
2CDF
  8
0
 10
2.203665103199909
 20
0.7555355785993925
 30
0.0
 11
2.206701634500404
 21
0.7653199575995587
 31
0.0
  0
LINE
  5
2CE0
  8
0
 10
2.0074376948996351
 20
0.9492205073993318
 30
0.0
 11
1.993334693900578
 21
0.9601492581991806
 31
0.0
  0
LINE
  5
2CE1
  8
0
 10
2.206701634500404
 20
0.7653199575995587
 30
0.0
 11
2.2085235535005259
 21
0.7756765224989977
 31
0.0
  0
LINE
  5
2CE2
  8
0
 10
2.0284235015005829
 20
0.9349158598993199
 30
0.0
 11
2.0074376948996351
 21
0.9492205073993318
 31
0.0
  0
LINE
  5
2CE3
  8
0
 10
2.2085235535005259
 20
0.7756765224989977
 30
0.0
 11
2.209130859099786
 21
0.7866052732993012
 31
0.0
  0
LINE
  5
2CE4
  8
0
 10
2.049814178500128
 20
0.9208400871993944
 30
0.0
 11
2.0284235015005829
 21
0.9349158598993199
 31
0.0
  0
LINE
  5
2CE5
  8
0
 10
2.209130859099786
 20
0.7866052732993012
 30
0.0
 11
2.208186160400146
 21
0.79827786609917
 31
0.0
  0
LINE
  5
2CE6
  8
0
 10
2.0716097259000881
 20
0.9069931881995216
 30
0.0
 11
2.049814178500128
 21
0.9208400871993944
 31
0.0
  0
LINE
  5
2CE7
  8
0
 10
2.208186160400146
 20
0.79827786609917
 30
0.0
 11
2.2053520643007678
 21
0.8092638355990403
 31
0.0
  0
LINE
  5
2CE8
  8
0
 10
2.0938101448000448
 20
0.8933751628992467
 30
0.0
 11
2.0716097259000881
 21
0.9069931881995216
 31
0.0
  0
LINE
  5
2CE9
  8
0
 10
2.2053520643007678
 20
0.8092638355990403
 30
0.0
 11
2.2006285719007792
 21
0.8195631817993671
 31
0.0
  0
LINE
  5
2CEA
  8
0
 10
2.1164154341004169
 20
0.8799860134990922
 30
0.0
 11
2.0938101448000448
 21
0.8933751628992467
 31
0.0
  0
LINE
  5
2CEB
  8
0
 10
2.2006285719007792
 20
0.8195631817993671
 30
0.0
 11
2.1940156810005642
 21
0.829175904699241
 31
0.0
  0
LINE
  5
2CEC
  8
0
 10
2.1394255938002971
 20
0.8668257377989903
 30
0.0
 11
2.1164154341004169
 21
0.8799860134990922
 31
0.0
  0
LINE
  5
2CED
  8
0
 10
2.1940156810005642
 20
0.829175904699241
 30
0.0
 11
2.185513392700158
 21
0.8381020053993779
 31
0.0
  0
LINE
  5
2CEE
  8
0
 10
2.1628406250001708
 20
0.8538943357993957
 30
0.0
 11
2.1394255938002971
 21
0.8668257377989903
 31
0.0
  0
LINE
  5
2CEF
  8
0
 10
2.185513392700158
 20
0.8381020053993779
 30
0.0
 11
2.1751217081005052
 21
0.8463414816992553
 31
0.0
  0
LINE
  5
2CF0
  8
0
 10
2.1751217081005052
 20
0.8463414816992553
 30
0.0
 11
2.1628406250001708
 21
0.8538943357993957
 31
0.0
  0
LINE
  5
2CF1
  8
0
 10
3.0489486324004238
 20
1.1717436059993811
 30
0.0
 11
3.0626467629999752
 21
1.1635613483990701
 31
0.0
  0
LINE
  5
2CF2
  8
0
 10
3.0343058031003229
 20
1.1784381817988101
 30
0.0
 11
3.0489486324004238
 21
1.1717436059993811
 31
0.0
  0
LINE
  5
2CF3
  8
0
 10
3.0626467629999752
 20
1.1635613483990701
 30
0.0
 11
3.0754001948998839
 21
1.1538914056993681
 31
0.0
  0
LINE
  5
2CF4
  8
0
 10
3.0187182762006151
 20
1.183645073599336
 30
0.0
 11
3.0343058031003229
 21
1.1784381817988101
 31
0.0
  0
LINE
  5
2CF5
  8
0
 10
3.0754001948998839
 20
1.1538914056993681
 30
0.0
 11
3.0946990393008491
 21
1.133979336599622
 31
0.0
  0
LINE
  5
2CF6
  8
0
 10
3.0021860494998691
 20
1.187364281399595
 30
0.0
 11
3.0187182762006151
 21
1.183645073599336
 31
0.0
  0
LINE
  5
2CF7
  8
0
 10
3.0946990393008491
 20
1.133979336599622
 30
0.0
 11
3.1110288308000231
 21
1.109489780299554
 31
0.0
  0
LINE
  5
2CF8
  8
0
 10
2.9847091241008452
 20
1.1895958062993941
 30
0.0
 11
3.0021860494998691
 21
1.187364281399595
 31
0.0
  0
LINE
  5
2CF9
  8
0
 10
3.1110288308000231
 20
1.109489780299554
 30
0.0
 11
3.1243895683001019
 21
1.080422735699357
 31
0.0
  0
LINE
  5
2CFA
  8
0
 10
2.9662875000003619
 20
1.1903396482994131
 30
0.0
 11
2.9847091241008452
 21
1.1895958062993941
 31
0.0
  0
LINE
  5
2CFB
  8
0
 10
3.1243895683001019
 20
1.080422735699357
 30
0.0
 11
3.1347812540002451
 21
1.0467782049993271
 31
0.0
  0
LINE
  5
2CFC
  8
0
 10
2.9469886555998519
 20
1.1895958062993941
 30
0.0
 11
2.9662875000003619
 21
1.1903396482994131
 31
0.0
  0
LINE
  5
2CFD
  8
0
 10
3.1347812540002451
 20
1.0467782049993271
 30
0.0
 11
3.1422038868004161
 21
1.0085561859991681
 31
0.0
  0
LINE
  5
2CFE
  8
0
 10
2.9287694678005201
 20
1.187364281399595
 30
0.0
 11
2.9469886555998519
 21
1.1895958062993941
 31
0.0
  0
LINE
  5
2CFF
  8
0
 10
3.1422038868004161
 20
1.0085561859991681
 30
0.0
 11
3.1466574656005828
 21
0.9657566808996307
 31
0.0
  0
LINE
  5
2D00
  8
0
 10
2.911629934400934
 20
1.183645073599336
 30
0.0
 11
2.9287694678005201
 21
1.187364281399595
 31
0.0
  0
LINE
  5
2D01
  8
0
 10
3.1466574656005828
 20
0.9657566808996307
 30
0.0
 11
3.148141992599903
 21
0.9183796874990549
 31
0.0
  0
LINE
  5
2D02
  8
0
 10
2.895570057599798
 20
1.1784381817988101
 30
0.0
 11
2.911629934400934
 21
1.183645073599336
 31
0.0
  0
LINE
  5
2D03
  8
0
 10
3.148141992599903
 20
0.9183796874990549
 30
0.0
 11
3.1466574656005828
 21
0.8702588531996298
 31
0.0
  0
LINE
  5
2D04
  8
0
 10
2.8805898363002589
 20
1.1717436059993811
 30
0.0
 11
2.895570057599798
 21
1.1784381817988101
 31
0.0
  0
LINE
  5
2D05
  8
0
 10
3.1466574656005828
 20
0.8702588531996298
 30
0.0
 11
3.1422038868004161
 21
0.8268299423993994
 31
0.0
  0
LINE
  5
2D06
  8
0
 10
2.8666892694009221
 20
1.1635613483990701
 30
0.0
 11
2.8805898363002589
 21
1.1717436059993811
 31
0.0
  0
LINE
  5
2D07
  8
0
 10
3.1422038868004161
 20
0.8268299423993994
 30
0.0
 11
3.1347812540002451
 21
0.788092957299341
 31
0.0
  0
LINE
  5
2D08
  8
0
 10
2.8538683591004879
 20
1.1538914056993681
 30
0.0
 11
2.8666892694009221
 21
1.1635613483990701
 31
0.0
  0
LINE
  5
2D09
  8
0
 10
3.1347812540002451
 20
0.788092957299341
 30
0.0
 11
3.1243895683001019
 21
0.7540478956993866
 31
0.0
  0
LINE
  5
2D0A
  8
0
 10
2.8345695158004669
 20
1.133979336599622
 30
0.0
 11
2.8538683591004879
 21
1.1538914056993681
 31
0.0
  0
LINE
  5
2D0B
  8
0
 10
3.1243895683001019
 20
0.7540478956993866
 30
0.0
 11
3.1110288308000231
 21
0.7246947586991155
 31
0.0
  0
LINE
  5
2D0C
  8
0
 10
2.8182397242999282
 20
1.109489780299554
 30
0.0
 11
2.8345695158004669
 21
1.133979336599622
 31
0.0
  0
LINE
  5
2D0D
  8
0
 10
3.1110288308000231
 20
0.7246947586991155
 30
0.0
 11
3.0946990393008491
 21
0.7000335462992098
 31
0.0
  0
LINE
  5
2D0E
  8
0
 10
2.8048789857002698
 20
1.080422735699357
 30
0.0
 11
2.8182397242999282
 21
1.109489780299554
 31
0.0
  0
LINE
  5
2D0F
  8
0
 10
3.0946990393008491
 20
0.7000335462992098
 30
0.0
 11
3.0754001948998839
 21
0.6800642573994084
 31
0.0
  0
LINE
  5
2D10
  8
0
 10
2.794487301100161
 20
1.0467782049993271
 30
0.0
 11
2.8048789857002698
 21
1.080422735699357
 31
0.0
  0
LINE
  5
2D11
  8
0
 10
3.0754001948998839
 20
0.6800642573994084
 30
0.0
 11
3.0626467629999752
 21
0.6703943157995127
 31
0.0
  0
LINE
  5
2D12
  8
0
 10
2.7870646682995348
 20
1.0085561859991681
 30
0.0
 11
2.794487301100161
 21
1.0467782049993271
 31
0.0
  0
LINE
  5
2D13
  8
0
 10
3.0626467629999752
 20
0.6703943157995127
 30
0.0
 11
3.0489486324004238
 21
0.6622120570993957
 31
0.0
  0
LINE
  5
2D14
  8
0
 10
2.7826110894993681
 20
0.9657566808996307
 30
0.0
 11
2.7870646682995348
 21
1.0085561859991681
 31
0.0
  0
LINE
  5
2D15
  8
0
 10
3.0489486324004238
 20
0.6622120570993957
 30
0.0
 11
3.0343058031003229
 21
0.6555174823993184
 31
0.0
  0
LINE
  5
2D16
  8
0
 10
2.7811265625000479
 20
0.9183796874990549
 30
0.0
 11
2.7826110894993681
 21
0.9657566808996307
 31
0.0
  0
LINE
  5
2D17
  8
0
 10
3.0343058031003229
 20
0.6555174823993184
 30
0.0
 11
3.0187182762006151
 21
0.650310590599247
 31
0.0
  0
LINE
  5
2D18
  8
0
 10
2.7826110894993681
 20
0.8702588531996298
 30
0.0
 11
2.7811265625000479
 21
0.9183796874990549
 31
0.0
  0
LINE
  5
2D19
  8
0
 10
3.0187182762006151
 20
0.650310590599247
 30
0.0
 11
3.0021860494998691
 21
0.6465913827996701
 31
0.0
  0
LINE
  5
2D1A
  8
0
 10
2.7870646682995348
 20
0.8268299423993994
 30
0.0
 11
2.7826110894993681
 21
0.8702588531996298
 31
0.0
  0
LINE
  5
2D1B
  8
0
 10
3.0021860494998691
 20
0.6465913827996701
 30
0.0
 11
2.9847091241008452
 21
0.6443598567993832
 31
0.0
  0
LINE
  5
2D1C
  8
0
 10
2.794487301100161
 20
0.788092957299341
 30
0.0
 11
2.7870646682995348
 21
0.8268299423993994
 31
0.0
  0
LINE
  5
2D1D
  8
0
 10
2.9847091241008452
 20
0.6443598567993832
 30
0.0
 11
2.9662875000003619
 21
0.6436160158991698
 31
0.0
  0
LINE
  5
2D1E
  8
0
 10
2.8048789857002698
 20
0.7540478956993866
 30
0.0
 11
2.794487301100161
 21
0.788092957299341
 31
0.0
  0
LINE
  5
2D1F
  8
0
 10
2.9662875000003619
 20
0.6436160158991698
 30
0.0
 11
2.9469886555998519
 21
0.6443598567993832
 31
0.0
  0
LINE
  5
2D20
  8
0
 10
2.8182397242999282
 20
0.7246947586991155
 30
0.0
 11
2.8048789857002698
 21
0.7540478956993866
 31
0.0
  0
LINE
  5
2D21
  8
0
 10
2.9469886555998519
 20
0.6443598567993832
 30
0.0
 11
2.9287694678005201
 21
0.6465913827996701
 31
0.0
  0
LINE
  5
2D22
  8
0
 10
2.8345695158004669
 20
0.7000335462992098
 30
0.0
 11
2.8182397242999282
 21
0.7246947586991155
 31
0.0
  0
LINE
  5
2D23
  8
0
 10
2.9287694678005201
 20
0.6465913827996701
 30
0.0
 11
2.911629934400934
 21
0.650310590599247
 31
0.0
  0
LINE
  5
2D24
  8
0
 10
2.8538683591004879
 20
0.6800642573994084
 30
0.0
 11
2.8345695158004669
 21
0.7000335462992098
 31
0.0
  0
LINE
  5
2D25
  8
0
 10
2.911629934400934
 20
0.650310590599247
 30
0.0
 11
2.895570057599798
 21
0.6555174823993184
 31
0.0
  0
LINE
  5
2D26
  8
0
 10
2.8666892694009221
 20
0.6703943157995127
 30
0.0
 11
2.8538683591004879
 21
0.6800642573994084
 31
0.0
  0
LINE
  5
2D27
  8
0
 10
2.895570057599798
 20
0.6555174823993184
 30
0.0
 11
2.8805898363002589
 21
0.6622120570993957
 31
0.0
  0
LINE
  5
2D28
  8
0
 10
2.8805898363002589
 20
0.6622120570993957
 30
0.0
 11
2.8666892694009221
 21
0.6703943157995127
 31
0.0
  0
LINE
  5
2D29
  8
0
 10
3.8557019534000569
 20
1.1903396482994131
 30
0.0
 11
4.0210242182001821
 21
0.6436160158991698
 31
0.0
  0
LINE
  5
2D2A
  8
0
 10
3.7895730466002528
 20
1.1903396482994131
 30
0.0
 11
3.8557019534000569
 21
1.1903396482994131
 31
0.0
  0
LINE
  5
2D2B
  8
0
 10
4.0210242182001821
 20
0.6436160158991698
 30
0.0
 11
3.9416695318004709
 21
0.6436160158991698
 31
0.0
  0
LINE
  5
2D2C
  8
0
 10
3.6242507807005491
 20
0.6436160158991698
 30
0.0
 11
3.7895730466002528
 21
1.1903396482994131
 31
0.0
  0
LINE
  5
2D2D
  8
0
 10
3.9416695318004709
 20
0.6436160158991698
 30
0.0
 11
3.8953792965999119
 21
0.8034275391992196
 31
0.0
  0
LINE
  5
2D2E
  8
0
 10
3.7036054682002941
 20
0.6436160158991698
 30
0.0
 11
3.6242507807005491
 21
0.6436160158991698
 31
0.0
  0
LINE
  5
2D2F
  8
0
 10
3.8953792965999119
 20
0.8034275391992196
 30
0.0
 11
3.749895703400397
 21
0.8034275391992196
 31
0.0
  0
LINE
  5
2D30
  8
0
 10
3.749895703400397
 20
0.8034275391992196
 30
0.0
 11
3.7036054682002941
 21
0.6436160158991698
 31
0.0
  0
LINE
  5
2D31
  8
0
 10
3.8193310551005188
 20
1.0417429692993201
 30
0.0
 11
3.7664279300997801
 21
0.8566980465993765
 31
0.0
  0
LINE
  5
2D32
  8
0
 10
3.7664279300997801
 20
0.8566980465993765
 30
0.0
 11
3.8788470699005302
 21
0.8566980465993765
 31
0.0
  0
LINE
  5
2D33
  8
0
 10
3.8259439449007
 20
1.0417429692993201
 30
0.0
 11
3.8193310551005188
 21
1.0417429692993201
 31
0.0
  0
LINE
  5
2D34
  8
0
 10
3.8788470699005302
 20
0.8566980465993765
 30
0.0
 11
3.8259439449007
 21
1.0417429692993201
 31
0.0
  0
LINE
  5
2D35
  8
0
 10
0.0
 20
0.0
 30
0.0
 11
5.2469999999998427
 21
0.0
 31
0.0
  0
LINE
  5
2D36
  8
0
 10
0.1484999999997854
 20
0.1484999999997854
 30
0.0
 11
5.0984999999996026
 21
0.1484999999997854
 31
0.0
  0
LINE
  5
2D37
  8
0
 10
3.415500000000065
 20
2.276999999999588
 30
0.0
 11
3.11850000000004
 21
2.276999999999588
 31
0.0
  0
LINE
  5
2D38
  8
0
 10
3.11850000000004
 20
2.5599985850992648
 30
0.0
 11
3.11850000000004
 21
2.276999999999588
 31
0.0
  0
ARC
  5
2D39
  8
0
 10
2.4255000000002829
 20
3.266999999998915
 30
0.0
 40
0.9899999999999987
 50
225.57299599901029
 51
314.42700398160042
  0
LINE
  5
2D3A
  8
0
 10
1.7324999999982531
 20
2.5599985855756131
 30
0.0
 11
1.7325000000000721
 21
0.6434999999992215
 31
0.0
  0
LINE
  5
2D3B
  8
0
 10
1.7325000000000721
 20
0.6434999999992215
 30
0.0
 11
1.336499999999887
 21
0.6434999999992215
 31
0.0
  0
LINE
  5
2D3C
  8
0
 10
3.592849218199262
 20
1.1903396482994131
 30
0.0
 11
3.5201074216006409
 21
0.6436160158991698
 31
0.0
  0
LINE
  5
2D3D
  8
0
 10
3.5267203125004012
 20
1.1903396482994131
 30
0.0
 11
3.592849218199262
 21
1.1903396482994131
 31
0.0
  0
LINE
  5
2D3E
  8
0
 10
3.5201074216006409
 20
0.6436160158991698
 30
0.0
 11
3.4539785158999621
 21
0.6436160158991698
 31
0.0
  0
LINE
  5
2D3F
  8
0
 10
3.4837365233001938
 20
0.8398757817990372
 30
0.0
 11
3.5267203125004012
 21
1.1903396482994131
 31
0.0
  0
LINE
  5
2D40
  8
0
 10
3.4539785158999621
 20
0.6436160158991698
 30
0.0
 11
3.3944625000003721
 21
1.052957812499244
 31
0.0
  0
LINE
  5
2D41
  8
0
 10
3.4771236323999801
 20
0.8398757817990372
 30
0.0
 11
3.4837365233001938
 21
0.8398757817990372
 31
0.0
  0
LINE
  5
2D42
  8
0
 10
3.3944625000003721
 20
1.052957812499244
 30
0.0
 11
3.3878496091001571
 21
1.052957812499244
 31
0.0
  0
LINE
  5
2D43
  8
0
 10
3.4275269534009558
 20
1.1903396482994131
 30
0.0
 11
3.4771236323999801
 21
0.8398757817990372
 31
0.0
  0
LINE
  5
2D44
  8
0
 10
3.3878496091001571
 20
1.052957812499244
 30
0.0
 11
3.3283335932001128
 21
0.6436160158991698
 31
0.0
  0
LINE
  5
2D45
  8
0
 10
3.3547851556995729
 20
1.1903396482994131
 30
0.0
 11
3.4275269534009558
 21
1.1903396482994131
 31
0.0
  0
LINE
  5
2D46
  8
0
 10
3.3283335932001128
 20
0.6436160158991698
 30
0.0
 11
3.262204687500343
 21
0.6436160158991698
 31
0.0
  0
LINE
  5
2D47
  8
0
 10
3.30518847669964
 20
0.8398757817990372
 30
0.0
 11
3.3547851556995729
 21
1.1903396482994131
 31
0.0
  0
LINE
  5
2D48
  8
0
 10
3.262204687500343
 20
0.6436160158991698
 30
0.0
 11
3.1894628909003582
 21
1.1903396482994131
 31
0.0
  0
LINE
  5
2D49
  8
0
 10
3.2985755858007901
 20
0.8398757817990372
 30
0.0
 11
3.30518847669964
 21
0.8398757817990372
 31
0.0
  0
LINE
  5
2D4A
  8
0
 10
3.1894628909003582
 20
1.1903396482994131
 30
0.0
 11
3.255591796600128
 21
1.1903396482994131
 31
0.0
  0
LINE
  5
2D4B
  8
0
 10
3.255591796600128
 20
1.1903396482994131
 30
0.0
 11
3.2985755858007901
 21
0.8398757817990372
 31
0.0
  0
LINE
  5
2D4C
  8
0
 10
3.0205401941002492
 20
1.118530317299246
 30
0.0
 11
3.01183547060009
 21
1.1241949575996839
 31
0.0
  0
LINE
  5
2D4D
  8
0
 10
3.01183547060009
 20
1.1241949575996839
 30
0.0
 11
3.0029957902997921
 21
1.1288296634993451
 31
0.0
  0
LINE
  5
2D4E
  8
0
 10
3.029109960799814
 20
1.1118357425991681
 30
0.0
 11
3.0205401941002492
 21
1.118530317299246
 31
0.0
  0
LINE
  5
2D4F
  8
0
 10
3.0029957902997921
 20
1.1288296634993451
 30
0.0
 11
2.9940211532002641
 21
1.13243443499914
 31
0.0
  0
LINE
  5
2D50
  8
0
 10
3.0405138236001221
 20
1.098961559299368
 30
0.0
 11
3.029109960799814
 21
1.1118357425991681
 31
0.0
  0
LINE
  5
2D51
  8
0
 10
2.9940211532002641
 20
1.13243443499914
 30
0.0
 11
2.984911559300599
 21
1.1350092709992621
 31
0.0
  0
LINE
  5
2D52
  8
0
 10
3.0501632458008312
 20
1.0811665776991499
 30
0.0
 11
3.0405138236001221
 21
1.098961559299368
 31
0.0
  0
LINE
  5
2D53
  8
0
 10
2.984911559300599
 20
1.1350092709992621
 30
0.0
 11
2.9756670086003392
 21
1.136554173699323
 31
0.0
  0
LINE
  5
2D54
  8
0
 10
3.0580582274005792
 20
1.058450796699389
 30
0.0
 11
3.0501632458008312
 21
1.0811665776991499
 31
0.0
  0
LINE
  5
2D55
  8
0
 10
2.9756670086003392
 20
1.136554173699323
 30
0.0
 11
2.9662875000003619
 21
1.137069140899257
 31
0.0
  0
LINE
  5
2D56
  8
0
 10
3.0641987683998191
 20
1.0308142184992439
 30
0.0
 11
3.0580582274005792
 21
1.058450796699389
 31
0.0
  0
LINE
  5
2D57
  8
0
 10
2.9662875000003619
 20
1.137069140899257
 30
0.0
 11
2.9560307722003918
 21
1.136554173699323
 31
0.0
  0
LINE
  5
2D58
  8
0
 10
3.068584868799916
 20
0.9982568397995237
 30
0.0
 11
3.0641987683998191
 21
1.0308142184992439
 31
0.0
  0
LINE
  5
2D59
  8
0
 10
2.9560307722003918
 20
1.136554173699323
 30
0.0
 11
2.946043956900211
 21
1.1350092709992621
 31
0.0
  0
LINE
  5
2D5A
  8
0
 10
3.0712165296999951
 20
0.9607786627991573
 30
0.0
 11
3.068584868799916
 21
0.9982568397995237
 31
0.0
  0
LINE
  5
2D5B
  8
0
 10
2.946043956900211
 20
1.1350092709992621
 30
0.0
 11
2.9363270563007968
 21
1.13243443499914
 31
0.0
  0
LINE
  5
2D5C
  8
0
 10
3.0720937500000209
 20
0.9183796874990549
 30
0.0
 11
3.0712165296999951
 21
0.9607786627991573
 31
0.0
  0
LINE
  5
2D5D
  8
0
 10
2.9363270563007968
 20
1.13243443499914
 30
0.0
 11
2.9268800703998741
 21
1.1288296634993451
 31
0.0
  0
LINE
  5
2D5E
  8
0
 10
3.0712165296999951
 20
0.8752368701991599
 30
0.0
 11
3.0720937500000209
 21
0.9183796874990549
 31
0.0
  0
LINE
  5
2D5F
  8
0
 10
2.9268800703998741
 20
1.1288296634993451
 30
0.0
 11
2.9177029970005601
 21
1.1241949575996839
 31
0.0
  0
LINE
  5
2D60
  8
0
 10
3.068584868799916
 20
0.8371292885992716
 30
0.0
 11
3.0712165296999951
 21
0.8752368701991599
 31
0.0
  0
LINE
  5
2D61
  8
0
 10
2.9177029970005601
 20
1.1241949575996839
 30
0.0
 11
2.9087958382997381
 21
1.118530317299246
 31
0.0
  0
LINE
  5
2D62
  8
0
 10
3.0641987683998191
 20
0.8040569437994236
 30
0.0
 11
3.068584868799916
 21
0.8371292885992716
 31
0.0
  0
LINE
  5
2D63
  8
0
 10
2.9087958382997381
 20
1.118530317299246
 30
0.0
 11
2.9001585932001031
 21
1.1118357425991681
 31
0.0
  0
LINE
  5
2D64
  8
0
 10
3.0580582274005792
 20
0.7760198346993548
 30
0.0
 11
3.0641987683998191
 21
0.8040569437994236
 31
0.0
  0
LINE
  5
2D65
  8
0
 10
2.9001585932001031
 20
1.1118357425991681
 30
0.0
 11
2.8887547314998301
 21
1.098961559299368
 31
0.0
  0
LINE
  5
2D66
  8
0
 10
3.0501632458008312
 20
0.7530179612990651
 30
0.0
 11
3.0580582274005792
 21
0.7760198346993548
 31
0.0
  0
LINE
  5
2D67
  8
0
 10
2.8887547314998301
 20
1.098961559299368
 30
0.0
 11
2.8791053093000301
 21
1.0811665776991499
 31
0.0
  0
LINE
  5
2D68
  8
0
 10
3.0405138236001221
 20
0.7350513235994641
 30
0.0
 11
3.0501632458008312
 21
0.7530179612990651
 31
0.0
  0
LINE
  5
2D69
  8
0
 10
2.8791053093000301
 20
1.0811665776991499
 30
0.0
 11
2.8712103277002821
 21
1.058450796699389
 31
0.0
  0
LINE
  5
2D6A
  8
0
 10
3.029109960799814
 20
0.7221199215994149
 30
0.0
 11
3.0405138236001221
 21
0.7350513235994641
 31
0.0
  0
LINE
  5
2D6B
  8
0
 10
2.8712103277002821
 20
1.058450796699389
 30
0.0
 11
2.8650697867001318
 21
1.0308142184992439
 31
0.0
  0
LINE
  5
2D6C
  8
0
 10
3.0205401941002492
 20
0.7154253468993375
 30
0.0
 11
3.029109960799814
 21
0.7221199215994149
 31
0.0
  0
LINE
  5
2D6D
  8
0
 10
2.8650697867001318
 20
1.0308142184992439
 30
0.0
 11
2.860683685200001
 21
0.9982568397995237
 31
0.0
  0
LINE
  5
2D6E
  8
0
 10
3.01183547060009
 20
0.7097607065995817
 30
0.0
 11
3.0205401941002492
 21
0.7154253468993375
 31
0.0
  0
LINE
  5
2D6F
  8
0
 10
2.860683685200001
 20
0.9982568397995237
 30
0.0
 11
2.8580520253999562
 21
0.9607786627991573
 31
0.0
  0
LINE
  5
2D70
  8
0
 10
3.0029957902997921
 20
0.705126000699238
 30
0.0
 11
3.01183547060009
 21
0.7097607065995817
 31
0.0
  0
LINE
  5
2D71
  8
0
 10
2.8580520253999562
 20
0.9607786627991573
 30
0.0
 11
2.8571748050999299
 21
0.9183796874990549
 31
0.0
  0
LINE
  5
2D72
  8
0
 10
2.9940211532002641
 20
0.7015212291994432
 30
0.0
 11
3.0029957902997921
 21
0.705126000699238
 31
0.0
  0
LINE
  5
2D73
  8
0
 10
2.8571748050999299
 20
0.9183796874990549
 30
0.0
 11
2.8580520253999562
 21
0.8752368701991599
 31
0.0
  0
LINE
  5
2D74
  8
0
 10
2.984911559300599
 20
0.6989463931993214
 30
0.0
 11
2.9940211532002641
 21
0.7015212291994432
 31
0.0
  0
LINE
  5
2D75
  8
0
 10
2.8580520253999562
 20
0.8752368701991599
 30
0.0
 11
2.860683685200001
 21
0.8371292885992716
 31
0.0
  0
LINE
  5
2D76
  8
0
 10
2.9756670086003392
 20
0.6974014904994874
 30
0.0
 11
2.984911559300599
 21
0.6989463931993214
 31
0.0
  0
LINE
  5
2D77
  8
0
 10
2.860683685200001
 20
0.8371292885992716
 30
0.0
 11
2.8650697867001318
 21
0.8040569437994236
 31
0.0
  0
LINE
  5
2D78
  8
0
 10
2.9662875000003619
 20
0.6968865232993267
 30
0.0
 11
2.9756670086003392
 21
0.6974014904994874
 31
0.0
  0
LINE
  5
2D79
  8
0
 10
2.8650697867001318
 20
0.8040569437994236
 30
0.0
 11
2.8712103277002821
 21
0.7760198346993548
 31
0.0
  0
LINE
  5
2D7A
  8
0
 10
2.9560307722003918
 20
0.6974014904994874
 30
0.0
 11
2.9662875000003619
 21
0.6968865232993267
 31
0.0
  0
LINE
  5
2D7B
  8
0
 10
2.8712103277002821
 20
0.7760198346993548
 30
0.0
 11
2.8791053093000301
 21
0.7530179612990651
 31
0.0
  0
LINE
  5
2D7C
  8
0
 10
2.946043956900211
 20
0.6989463931993214
 30
0.0
 11
2.9560307722003918
 21
0.6974014904994874
 31
0.0
  0
LINE
  5
2D7D
  8
0
 10
2.8791053093000301
 20
0.7530179612990651
 30
0.0
 11
2.8887547314998301
 21
0.7350513235994641
 31
0.0
  0
LINE
  5
2D7E
  8
0
 10
2.9363270563007968
 20
0.7015212291994432
 30
0.0
 11
2.946043956900211
 21
0.6989463931993214
 31
0.0
  0
LINE
  5
2D7F
  8
0
 10
2.8887547314998301
 20
0.7350513235994641
 30
0.0
 11
2.9001585932001031
 21
0.7221199215994149
 31
0.0
  0
LINE
  5
2D80
  8
0
 10
2.9268800703998741
 20
0.705126000699238
 30
0.0
 11
2.9363270563007968
 21
0.7015212291994432
 31
0.0
  0
LINE
  5
2D81
  8
0
 10
2.9001585932001031
 20
0.7221199215994149
 30
0.0
 11
2.9087958382997381
 21
0.7154253468993375
 31
0.0
  0
LINE
  5
2D82
  8
0
 10
2.9177029970005601
 20
0.7097607065995817
 30
0.0
 11
2.9268800703998741
 21
0.705126000699238
 31
0.0
  0
LINE
  5
2D83
  8
0
 10
2.9087958382997381
 20
0.7154253468993375
 30
0.0
 11
2.9177029970005601
 21
0.7097607065995817
 31
0.0
  0
LINE
  5
2D84
  8
0
 10
2.7067412108003732
 20
1.1903396482994131
 30
0.0
 11
2.7067412108003732
 21
0.6436160158991698
 31
0.0
  0
LINE
  5
2D85
  8
0
 10
2.630692969300525
 20
1.1903396482994131
 30
0.0
 11
2.7067412108003732
 21
1.1903396482994131
 31
0.0
  0
LINE
  5
2D86
  8
0
 10
2.7067412108003732
 20
0.6436160158991698
 30
0.0
 11
2.630692969300525
 21
0.6436160158991698
 31
0.0
  0
LINE
  5
2D87
  8
0
 10
2.630692969300525
 20
0.9716501948992117
 30
0.0
 11
2.630692969300525
 21
1.1903396482994131
 31
0.0
  0
LINE
  5
2D88
  8
0
 10
2.630692969300525
 20
0.6436160158991698
 30
0.0
 11
2.630692969300525
 21
0.7809978516993397
 31
0.0
  0
LINE
  5
2D89
  8
0
 10
2.4422255858007702
 20
0.9716501948992117
 30
0.0
 11
2.630692969300525
 21
0.9716501948992117
 31
0.0
  0
LINE
  5
2D8A
  8
0
 10
2.630692969300525
 20
0.7809978516993397
 30
0.0
 11
2.630692969300525
 21
0.9183796874990549
 31
0.0
  0
LINE
  5
2D8B
  8
0
 10
2.4422255858007702
 20
1.1903396482994131
 30
0.0
 11
2.4422255858007702
 21
0.9716501948992117
 31
0.0
  0
LINE
  5
2D8C
  8
0
 10
2.630692969300525
 20
0.9183796874990549
 30
0.0
 11
2.4422255858007702
 21
0.9183796874990549
 31
0.0
  0
LINE
  5
2D8D
  8
0
 10
2.366177344300012
 20
1.1903396482994131
 30
0.0
 11
2.4422255858007702
 21
1.1903396482994131
 31
0.0
  0
LINE
  5
2D8E
  8
0
 10
2.4422255858007702
 20
0.9183796874990549
 30
0.0
 11
2.4422255858007702
 21
0.6436160158991698
 31
0.0
  0
LINE
  5
2D8F
  8
0
 10
2.366177344300012
 20
0.6436160158991698
 30
0.0
 11
2.366177344300012
 21
1.1903396482994131
 31
0.0
  0
LINE
  5
2D90
  8
0
 10
2.4422255858007702
 20
0.6436160158991698
 30
0.0
 11
2.366177344300012
 21
0.6436160158991698
 31
0.0
  0
LINE
  5
2D91
  8
0
 10
2.0702601557004519
 20
0.9856687499993768
 30
0.0
 11
2.090098828400186
 21
0.9715929761994175
 31
0.0
  0
LINE
  5
2D92
  8
0
 10
2.0579790736996979
 20
0.9953386915990449
 30
0.0
 11
2.0702601557004519
 21
0.9856687499993768
 31
0.0
  0
LINE
  5
2D93
  8
0
 10
2.090098828400186
 20
0.9715929761994175
 30
0.0
 11
2.1099374999998868
 21
0.9582038267994903
 31
0.0
  0
LINE
  5
2D94
  8
0
 10
2.0475873880004651
 20
1.0051230705994381
 30
0.0
 11
2.0579790736996979
 21
0.9953386915990449
 31
0.0
  0
LINE
  5
2D95
  8
0
 10
2.1099374999998868
 20
0.9582038267994903
 30
0.0
 11
2.129776171600497
 21
0.9455012995997549
 31
0.0
  0
LINE
  5
2D96
  8
0
 10
2.0390851008005479
 20
1.0150218869994201
 30
0.0
 11
2.0475873880004651
 21
1.0051230705994381
 31
0.0
  0
LINE
  5
2D97
  8
0
 10
2.129776171600497
 20
0.9455012995997549
 30
0.0
 11
2.1496148443002312
 21
0.9334853956993356
 31
0.0
  0
LINE
  5
2D98
  8
0
 10
5.2469999999998427
 20
0.0
 30
0.0
 11
5.2469999999998427
 21
5.2469999999998427
 31
0.0
  0
LINE
  5
2D99
  8
0
 10
0.0
 20
5.2469999999998427
 30
0.0
 11
0.0
 21
0.0
 31
0.0
  0
LINE
  5
2D9A
  8
0
 10
5.0984999999996026
 20
0.1484999999997854
 30
0.0
 11
5.0984999999996026
 21
5.0984999999996026
 31
0.0
  0
LINE
  5
2D9B
  8
0
 10
0.1484999999997854
 20
5.0984999999996026
 30
0.0
 11
0.1484999999997854
 21
0.1484999999997854
 31
0.0
  0
LINE
  5
2D9C
  8
0
 10
3.415500000000065
 20
4.6529999999988831
 30
0.0
 11
3.415500000000065
 21
2.276999999999588
 31
0.0
  0
ARC
  5
2D9D
  8
0
 10
2.4255000000002829
 20
3.266999999998915
 30
0.0
 40
0.692999999999999
 50
179.9999999999996
 51
0.0
  0
LINE
  5
2D9E
  8
0
 10
1.336499999999887
 20
4.6529999999988831
 30
0.0
 11
1.336499999999887
 21
0.6434999999992215
 31
0.0
  0
ENDBLK
  5
2DA0
  8
0
  0
BLOCK
  8
0
  2
_
 70
     0
 10
0.0
 20
0.0
 30
0.0
  3
_
  1

  0
ARC
  5
42F6
  8
002寸法
 10
-1.2990381056765721
 20
0.0
 30
0.0
 40
1.5
 50
30.000000000001251
 51
180.0
  0
ARC
  5
42F7
  8
002寸法
 10
1.299038105676743
 20
1.5
 30
0.0
 40
1.5
 50
209.9999999999998
 51
0.0
  0
ENDBLK
  5
42F5
  8
0
  0
BLOCK
  8
0
  2
_0
 70
     0
 10
0.0
 20
0.0
 30
0.0
  3
_0
  1

  0
POLYLINE
  5
4304
  8
002寸法
 66
     1
 10
0.0
 20
0.0
 30
0.0
 70
     1
  0
VERTEX
  5
61EA
  8
002寸法
 10
0.0
 20
0.0
 30
0.0
  0
VERTEX
  5
61EB
  8
002寸法
 10
1.5
 20
2.5980762113532592
 30
0.0
  0
VERTEX
  5
61EC
  8
002寸法
 10
-1.5
 20
2.5980762113532592
 30
0.0
  0
SEQEND
  5
61ED
  8
002寸法
  0
ENDBLK
  5
4303
  8
0
  0
BLOCK
  8
0
  2
__
 70
     0
 10
0.0
 20
0.0
 30
0.0
  3
__
  1

  0
POLYLINE
  5
431A
  8
002寸法
 66
     1
 10
0.0
 20
0.0
 30
0.0
 70
     1
  0
VERTEX
  5
61F0
  8
002寸法
 10
-1.4999999999999429
 20
0.0
 30
0.0
  0
VERTEX
  5
61F1
  8
002寸法
 10
0.0000000000000568
 20
2.5980762113532592
 30
0.0
  0
VERTEX
  5
61F2
  8
002寸法
 10
-2.9999999999999432
 20
2.5980762113532592
 30
0.0
  0
SEQEND
  5
61F3
  8
002寸法
  0
POLYLINE
  5
431B
  8
002寸法
 66
     1
 10
0.0
 20
0.0
 30
0.0
 70
     1
  0
VERTEX
  5
61F4
  8
002寸法
 10
1.500000000000056
 20
0.0
 30
0.0
  0
VERTEX
  5
61F5
  8
002寸法
 10
3.000000000000056
 20
2.5980762113532592
 30
0.0
  0
VERTEX
  5
61F6
  8
002寸法
 10
0.0000000000000568
 20
2.5980762113532592
 30
0.0
  0
SEQEND
  5
61F7
  8
002寸法
  0
ENDBLK
  5
4319
  8
0
  0
BLOCK
  8
0
  2
___
 70
     0
 10
0.0
 20
0.0
 30
0.0
  3
___
  1

  0
POLYLINE
  5
4332
  8
002寸法
 66
     1
 10
0.0
 20
0.0
 30
0.0
 70
     1
  0
VERTEX
  5
61FA
  8
002寸法
 10
-3.0
 20
0.0
 30
0.0
  0
VERTEX
  5
61FB
  8
002寸法
 10
-1.5
 20
2.5980762113532592
 30
0.0
  0
VERTEX
  5
61FC
  8
002寸法
 10
-4.5
 20
2.5980762113532592
 30
0.0
  0
SEQEND
  5
61FD
  8
002寸法
  0
POLYLINE
  5
4333
  8
002寸法
 66
     1
 10
0.0
 20
0.0
 30
0.0
 70
     1
  0
VERTEX
  5
61FE
  8
002寸法
 10
0.0
 20
0.0
 30
0.0
  0
VERTEX
  5
61FF
  8
002寸法
 10
1.5
 20
2.5980762113532592
 30
0.0
  0
VERTEX
  5
6200
  8
002寸法
 10
-1.5
 20
2.5980762113532592
 30
0.0
  0
SEQEND
  5
6201
  8
002寸法
  0
POLYLINE
  5
4334
  8
002寸法
 66
     1
 10
0.0
 20
0.0
 30
0.0
 70
     1
  0
VERTEX
  5
6202
  8
002寸法
 10
3.0
 20
0.0
 30
0.0
  0
VERTEX
  5
6203
  8
002寸法
 10
4.5
 20
2.5980762113532592
 30
0.0
  0
VERTEX
  5
6204
  8
002寸法
 10
1.5
 20
2.5980762113532592
 30
0.0
  0
SEQEND
  5
6205
  8
002寸法
  0
ENDBLK
  5
4331
  8
0
  0
BLOCK
  8
0
  2
____
 70
     0
 10
0.0
 20
0.0
 30
0.0
  3
____
  1

  0
POLYLINE
  5
4342
  8
002寸法
 66
     1
 10
0.0
 20
0.0
 30
0.0
 70
     1
  0
VERTEX
  5
6208
  8
002寸法
 10
-4.5
 20
0.0
 30
0.0
  0
VERTEX
  5
6209
  8
002寸法
 10
-3.0
 20
2.5980762113532592
 30
0.0
  0
VERTEX
  5
620A
  8
002寸法
 10
-6.0
 20
2.5980762113532592
 30
0.0
  0
SEQEND
  5
620B
  8
002寸法
  0
POLYLINE
  5
4343
  8
002寸法
 66
     1
 10
0.0
 20
0.0
 30
0.0
 70
     1
  0
VERTEX
  5
620C
  8
002寸法
 10
-1.5
 20
0.0
 30
0.0
  0
VERTEX
  5
620D
  8
002寸法
 10
0.0
 20
2.5980762113532592
 30
0.0
  0
VERTEX
  5
620E
  8
002寸法
 10
-3.0
 20
2.5980762113532592
 30
0.0
  0
SEQEND
  5
620F
  8
002寸法
  0
POLYLINE
  5
4344
  8
002寸法
 66
     1
 10
0.0
 20
0.0
 30
0.0
 70
     1
  0
VERTEX
  5
6210
  8
002寸法
 10
1.5
 20
0.0
 30
0.0
  0
VERTEX
  5
6211
  8
002寸法
 10
3.0
 20
2.5980762113532592
 30
0.0
  0
VERTEX
  5
6212
  8
002寸法
 10
0.0
 20
2.5980762113532592
 30
0.0
  0
SEQEND
  5
6213
  8
002寸法
  0
POLYLINE
  5
4345
  8
002寸法
 66
     1
 10
0.0
 20
0.0
 30
0.0
 70
     1
  0
VERTEX
  5
6214
  8
002寸法
 10
4.5
 20
0.0
 30
0.0
  0
VERTEX
  5
6215
  8
002寸法
 10
6.0
 20
2.5980762113532592
 30
0.0
  0
VERTEX
  5
6216
  8
002寸法
 10
3.0
 20
2.5980762113532592
 30
0.0
  0
SEQEND
  5
6217
  8
002寸法
  0
ENDBLK
  5
4341
  8
0
  0
BLOCK
  8
0
  2
___G
 70
     0
 10
0.0
 20
0.0
 30
0.0
  3
___G
  1

  0
POLYLINE
  5
4354
  8
002寸法
 66
     1
 10
0.0
 20
0.0
 30
0.0
 70
     1
  0
VERTEX
  5
621A
  8
002寸法
 10
-3.0
 20
0.0
 30
0.0
  0
VERTEX
  5
621B
  8
002寸法
 10
-1.5
 20
2.5980762113532592
 30
0.0
  0
VERTEX
  5
621C
  8
002寸法
 10
-4.5
 20
2.5980762113532592
 30
0.0
  0
SEQEND
  5
621D
  8
002寸法
  0
POLYLINE
  5
4355
  8
002寸法
 66
     1
 10
0.0
 20
0.0
 30
0.0
 70
     1
  0
VERTEX
  5
621E
  8
002寸法
 10
0.0
 20
0.0
 30
0.0
  0
VERTEX
  5
621F
  8
002寸法
 10
1.5
 20
2.5980762113532592
 30
0.0
  0
VERTEX
  5
6220
  8
002寸法
 10
-1.5
 20
2.5980762113532592
 30
0.0
  0
SEQEND
  5
6221
  8
002寸法
  0
POLYLINE
  5
4356
  8
002寸法
 66
     1
 10
0.0
 20
0.0
 30
0.0
 70
     1
  0
VERTEX
  5
6222
  8
002寸法
 10
3.0
 20
0.0
 30
0.0
  0
VERTEX
  5
6223
  8
002寸法
 10
4.5
 20
2.5980762113532592
 30
0.0
  0
VERTEX
  5
6224
  8
002寸法
 10
1.5
 20
2.5980762113532592
 30
0.0
  0
SEQEND
  5
6225
  8
002寸法
  0
LINE
  5
4357
  8
002寸法
 10
4.5
 20
2.5980762113532592
 30
0.0
 11
7.0
 21
6.9282032302754706
 31
0.0
  0
LINE
  5
4358
  8
002寸法
 10
7.0
 20
6.9282032302754706
 30
0.0
 11
10.0
 21
6.9282032302754706
 31
0.0
  0
INSERT
  5
4359
  8
011形状
  2
*U20
 10
0.0
 20
0.0
 30
0.0
  0
ENDBLK
  5
4353
  8
0
  0
BLOCK
  8
0
  2
_TAGCIRCLE
 70
     2
 10
0.0
 20
0.0
 30
0.0
  3
_TAGCIRCLE
  1

  0
CIRCLE
  5
4422
  8
0
  6
BYBLOCK
 10
0.0
 20
0.0
 30
0.0
 40
4.0
  0
ATTDEF
  5
4423
  8
002寸法
 62
     2
 10
-6.7999999999999989
 20
-1.5
 30
0.0
 40
3.0
  1
タグ番号
 72
     1
 11
0.0
 21
-1.5
 31
0.0
  3
タグ番号を入力
  2
タグ番号
 70
     0
  0
ENDBLK
  5
43E5
  8
0
  0
BLOCK
  8
0
  2
訂正記号
 70
     2
 10
0.0
 20
0.0
 30
0.0
  3
訂正記号
  1

  0
POLYLINE
  5
45CE
  8
002寸法
 66
     1
 10
0.0
 20
0.0
 30
0.0
 70
     1
  0
VERTEX
  5
6230
  8
002寸法
 10
0.0
 20
4.3301270189222123
 30
0.0
  0
VERTEX
  5
6231
  8
002寸法
 10
-2.5
 20
0.0
 30
0.0
  0
VERTEX
  5
6232
  8
002寸法
 10
2.5
 20
0.0
 30
0.0
  0
SEQEND
  5
6233
  8
002寸法
  0
ATTDEF
  5
45CF
  8
002寸法
 62
     2
 10
-3.3999999999999999
 20
0.4433756729740637
 30
0.0
 40
2.0
  1
1
 41
0.75
 72
     1
 11
0.0
 21
1.443375672974063
 31
0.0
  3

  2
訂正番号
 70
     0
 74
     2
1001
AcDbAttr
1070
     0
1070
     1
  0
ENDBLK
  5
4475
  8
0
  0
BLOCK
  8
0
  2
A$C4741278F
 70
     0
 10
0.0
 20
0.0
 30
0.0
  3
A$C4741278F
  1

  0
POLYLINE
  5
4FCA
  8
003注釈
 66
     1
 10
0.0
 20
0.0
 30
0.0
 70
     1
  0
VERTEX
  5
623F
  8
003注釈
 10
4.9999975654500304
 20
1.250001047003934
 30
0.0
  0
VERTEX
  5
6240
  8
003注釈
 10
2.499997565450037
 20
1.250001047003934
 30
0.0
  0
VERTEX
  5
6241
  8
003注釈
 10
2.499997565450037
 20
0.0000010470039342
 30
0.0
  0
VERTEX
  5
6242
  8
003注釈
 10
-0.0000024345499625
 20
2.5000010470039342
 30
0.0
  0
VERTEX
  5
6243
  8
003注釈
 10
2.499997565450037
 20
5.0000010470039342
 30
0.0
  0
VERTEX
  5
6244
  8
003注釈
 10
2.499997565450037
 20
3.7500010470039342
 30
0.0
  0
VERTEX
  5
6245
  8
003注釈
 10
4.9999975654500304
 20
3.7500010470039622
 30
0.0
  0
SEQEND
  5
6246
  8
003注釈
  0
LINE
  5
4FCB
  8
0
 10
-0.0000024345499625
 20
2.5000010470039342
 30
0.0
 11
4.9999975654500304
 21
2.5000010470039342
 31
0.0
  0
LINE
  5
4FCC
  8
0
 10
2.499997565450037
 20
3.7500010470039342
 30
0.0
 11
2.499997565450037
 21
1.250001047003934
 31
0.0
  0
ENDBLK
  5
4FD0
  8
0
  0
BLOCK
  8
0
  2
*D14
 70
     1
 10
0.0
 20
0.0
 30
0.0
  3
*D14
  1

  0
LINE
  5
6154
  8
002寸法
 10
1145.0
 20
74.750000000000014
 30
0.0
 11
1145.0
 21
80.875000000000014
 31
0.0
  0
LINE
  5
6155
  8
002寸法
 10
1155.0
 20
74.750000000000014
 30
0.0
 11
1155.0
 21
80.875000000000014
 31
0.0
  0
LINE
  5
6156
  8
002寸法
 10
1146.25
 20
80.500000000000014
 30
0.0
 11
1153.75
 21
80.500000000000014
 31
0.0
  0
INSERT
  5
6157
  8
002寸法
  2
_OPEN
 10
1145.0
 20
80.500000000000014
 30
0.0
 41
1.25
 42
1.25
 43
1.25
 50
180.0
  0
INSERT
  5
6158
  8
002寸法
  2
_OPEN
 10
1155.0
 20
80.500000000000014
 30
0.0
 41
1.25
 42
1.25
 43
1.25
  0
INSERT
  5
6159
  8
011形状
  2
*U31
 10
0.0
 20
0.0
 30
0.0
  0
POINT
  5
615A
  8
DEFPOINTS
 62
     0
 10
1145.0
 20
74.500000000000014
 30
0.0
  0
POINT
  5
615B
  8
DEFPOINTS
 62
     0
 10
1155.0
 20
74.500000000000014
 30
0.0
  0
POINT
  5
615C
  8
DEFPOINTS
 62
     0
 10
1155.0
 20
80.500000000000014
 30
0.0
  0
ENDBLK
  5
608E
  8
0
  0
BLOCK
  8
0
  2
*D15
 70
     1
 10
0.0
 20
0.0
 30
0.0
  3
*D15
  1

  0
LINE
  5
615D
  8
002寸法
 10
1137.5
 20
69.75
 30
0.0
 11
1137.5
 21
62.125
 31
0.0
  0
LINE
  5
615E
  8
002寸法
 10
1162.5
 20
69.75
 30
0.0
 11
1162.5
 21
62.125
 31
0.0
  0
LINE
  5
615F
  8
002寸法
 10
1138.75
 20
62.5
 30
0.0
 11
1161.25
 21
62.5
 31
0.0
  0
INSERT
  5
6160
  8
002寸法
  2
_OPEN
 10
1137.5
 20
62.5
 30
0.0
 41
1.25
 42
1.25
 43
1.25
 50
180.0
  0
INSERT
  5
6161
  8
002寸法
  2
_OPEN
 10
1162.5
 20
62.5
 30
0.0
 41
1.25
 42
1.25
 43
1.25
  0
INSERT
  5
6162
  8
011形状
  2
*U32
 10
0.0
 20
0.0
 30
0.0
  0
POINT
  5
6163
  8
DEFPOINTS
 62
     0
 10
1137.5
 20
70.0
 30
0.0
  0
POINT
  5
6164
  8
DEFPOINTS
 62
     0
 10
1162.5
 20
70.0
 30
0.0
  0
POINT
  5
6165
  8
DEFPOINTS
 62
     0
 10
1162.5
 20
62.5
 30
0.0
  0
ENDBLK
  5
60A6
  8
0
  0
BLOCK
  8
0
  2
*D16
 70
     1
 10
0.0
 20
0.0
 30
0.0
  3
*D16
  1

  0
LINE
  5
60C9
  8
002寸法
 10
1137.25
 20
70.0
 30
0.0
 11
1132.125
 21
70.0
 31
0.0
  0
LINE
  5
60CA
  8
002寸法
 10
1137.25
 20
74.500000000000014
 30
0.0
 11
1132.125
 21
74.500000000000014
 31
0.0
  0
LINE
  5
60CB
  8
002寸法
 10
1132.5
 20
71.25
 30
0.0
 11
1132.5
 21
73.250000000000014
 31
0.0
  0
INSERT
  5
60CC
  8
002寸法
  2
_OPEN
 10
1132.5
 20
70.0
 30
0.0
 41
1.25
 42
1.25
 43
1.25
 50
270.0
  0
INSERT
  5
60CD
  8
002寸法
  2
_OPEN
 10
1132.5
 20
74.500000000000014
 30
0.0
 41
1.25
 42
1.25
 43
1.25
 50
90.0
  0
INSERT
  5
60CE
  8
011形状
  2
*U29
 10
0.0
 20
0.0
 30
0.0
  0
POINT
  5
60CF
  8
DEFPOINTS
 62
     0
 10
1137.5
 20
70.0
 30
0.0
  0
POINT
  5
60D0
  8
DEFPOINTS
 62
     0
 10
1137.5
 20
74.500000000000014
 30
0.0
  0
POINT
  5
60D1
  8
DEFPOINTS
 62
     0
 10
1132.5
 20
74.500000000000014
 30
0.0
  0
ENDBLK
  5
60BE
  8
0
  0
BLOCK
  8
0
  2
*D17
 70
     1
 10
0.0
 20
0.0
 30
0.0
  3
*D17
  1

  0
LINE
  5
6385
  8
002寸法
 10
1137.25
 20
74.500000000000014
 30
0.0
 11
1132.125
 21
74.500000000000014
 31
0.0
  0
LINE
  5
6386
  8
002寸法
 10
1145.75
 20
75.500000000000014
 30
0.0
 11
1132.125
 21
75.500000000000014
 31
0.0
  0
LINE
  5
6387
  8
002寸法
 10
1132.5
 20
73.250000000000014
 30
0.0
 11
1132.5
 21
72.000000000000014
 31
0.0
  0
LINE
  5
6388
  8
002寸法
 10
1132.5
 20
76.750000000000014
 30
0.0
 11
1132.5
 21
78.000000000000014
 31
0.0
  0
TEXT
  8
002寸法
  40
1.5
  5
639C
  62
2
  72
0
  71
0
 10
1131.50
 20
75.4250
 30
0.000000
  1
1
  0
LINE
  5
638A
  8
002寸法
 10
1132.5
 20
74.500000000000014
 30
0.0
 11
1132.5
 21
75.500000000000014
 31
0.0
  0
INSERT
  5
638B
  8
002寸法
  2
_OPEN
 10
1132.5
 20
74.500000000000014
 30
0.0
 41
1.25
 42
1.25
 43
1.25
 50
90.0
  0
INSERT
  5
638C
  8
002寸法
  2
_OPEN
 10
1132.5
 20
75.500000000000014
 30
0.0
 41
1.25
 42
1.25
 43
1.25
 50
270.0
  0
POINT
  5
638D
  8
DEFPOINTS
 62
     0
 10
1137.5
 20
74.500000000000014
 30
0.0
  0
POINT
  5
638E
  8
DEFPOINTS
 62
     0
 10
1146.0
 20
75.500000000000014
 30
0.0
  0
POINT
  5
638F
  8
DEFPOINTS
 62
     0
 10
1132.5
 20
75.500000000000014
 30
0.0
  0
ENDBLK
  5
60D6
  8
0
  0
BLOCK
  8
0
  2
*D18
 70
     1
 10
0.0
 20
0.0
 30
0.0
  3
*D18
  1

  0
LINE
  5
60FD
  8
002寸法
 10
1137.25
 20
70.0
 30
0.0
 11
1127.125
 21
70.0
 31
0.0
  0
LINE
  5
60FE
  8
002寸法
 10
1145.75
 20
75.500000000000014
 30
0.0
 11
1127.125
 21
75.500000000000014
 31
0.0
  0
LINE
  5
60FF
  8
002寸法
 10
1127.5
 20
71.25
 30
0.0
 11
1127.5
 21
74.250000000000014
 31
0.0
  0
INSERT
  5
6100
  8
002寸法
  2
_OPEN
 10
1127.5
 20
70.0
 30
0.0
 41
1.25
 42
1.25
 43
1.25
 50
270.0
  0
INSERT
  5
6101
  8
002寸法
  2
_OPEN
 10
1127.5
 20
75.500000000000014
 30
0.0
 41
1.25
 42
1.25
 43
1.25
 50
90.0
  0
INSERT
  5
6102
  8
011形状
  2
*U30
 10
0.0
 20
0.0
 30
0.0
  0
POINT
  5
6103
  8
DEFPOINTS
 62
     0
 10
1137.5
 20
70.0
 30
0.0
  0
POINT
  5
6104
  8
DEFPOINTS
 62
     0
 10
1146.0
 20
75.500000000000014
 30
0.0
  0
POINT
  5
6105
  8
DEFPOINTS
 62
     0
 10
1127.5
 20
75.500000000000014
 30
0.0
  0
ENDBLK
  5
60F2
  8
0
  0
BLOCK
  8
0
  2
*U20
 70
     1
 10
0.0
 20
0.0
 30
0.0
  3
*U20
  1

  0
TEXT
  5
6227
  8
002寸法
 62
     2
 10
7.1499999999999986
 20
7.9282032302754706
 30
0.0
 40
3.0
  1
G
 41
0.9
  0
ENDBLK
  5
6229
  8
0
  0
BLOCK
  8
0
  2
*U21
 70
     1
 10
0.0
 20
0.0
 30
0.0
  3
*U21
  1

  0
SOLID
  5
6256
  8
DEFPOINTS
  6
CONTINUOUS
 10
1168.674501205548
 20
8.1418804254880115
 30
0.0
 11
1168.674501205548
 21
8.0321554254879857
 31
0.0
 12
1170.3509837055481
 22
8.0321554254879857
 32
0.0
 13
1170.3509837055481
 23
8.0321554254879857
 33
0.0
210
0.0
220
0.0
230
1.0
  0
SOLID
  5
6257
  8
DEFPOINTS
  6
CONTINUOUS
 10
-1168.674501205548
 20
8.1418804254880115
 30
0.0
 11
-1170.3509837055481
 21
8.1418804254880115
 31
0.0
 12
-1170.3509837055481
 22
8.0321554254879857
 32
0.0
 13
-1170.3509837055481
 23
8.0321554254879857
 33
0.0
210
0.0
220
0.0
230
-1.0
  0
SOLID
  5
6258
  8
DEFPOINTS
  6
CONTINUOUS
 10
1166.3093499555471
 20
8.1418804254880115
 30
0.0
 11
1166.3093499555471
 21
8.0321554254879857
 31
0.0
 12
1166.9630799555471
 22
8.0321554254879857
 32
0.0
 13
1166.9630799555471
 23
8.0321554254879857
 33
0.0
  0
SOLID
  5
6259
  8
DEFPOINTS
  6
CONTINUOUS
 10
-1166.3093499555471
 20
8.1418804254880115
 30
0.0
 11
-1166.9630799555471
 21
8.1418804254880115
 31
0.0
 12
-1166.9630799555471
 22
8.0321554254879857
 32
0.0
 13
-1166.9630799555471
 23
8.0321554254879857
 33
0.0
210
0.0
220
0.0
230
-1.0
  0
SOLID
  5
625A
  8
DEFPOINTS
  6
CONTINUOUS
 10
1165.8178974555469
 20
8.1418804254880115
 30
0.0
 11
1165.8178974555481
 21
8.0321554254879857
 31
0.0
 12
1166.2539099555479
 22
8.0321554254879857
 32
0.0
 13
1166.2539099555479
 23
8.0321554254879857
 33
0.0
210
0.0
220
0.0
230
1.0
  0
SOLID
  5
625B
  8
DEFPOINTS
  6
CONTINUOUS
 10
-1165.8178974555469
 20
8.1418804254880115
 30
0.0
 11
-1166.2539099555479
 21
8.1418804254880115
 31
0.0
 12
-1166.2539099555479
 22
8.0321554254879857
 32
0.0
 13
-1166.2539099555479
 23
8.0321554254879857
 33
0.0
210
0.0
220
0.0
230
-1.0
  0
SOLID
  5
625C
  8
DEFPOINTS
  6
CONTINUOUS
 10
1163.8327474150481
 20
8.1418804254880115
 30
0.0
 11
1163.8327474150481
 21
8.0321554254879857
 31
0.0
 12
1164.836442415047
 22
8.0321554254879857
 32
0.0
 13
1164.836442415047
 23
8.0321554254879857
 33
0.0
210
0.0
220
0.0
230
1.0
  0
SOLID
  5
625D
  8
DEFPOINTS
  6
CONTINUOUS
 10
-1163.8327474150481
 20
8.1418804254880115
 30
0.0
 11
-1164.836442415047
 21
8.1418804254880115
 31
0.0
 12
-1164.836442415047
 22
8.0321554254879857
 32
0.0
 13
-1164.836442415047
 23
8.0321554254879857
 33
0.0
210
0.0
220
0.0
230
-1.0
  0
SOLID
  5
625E
  8
DEFPOINTS
  6
CONTINUOUS
 10
1163.042149915048
 20
8.1418804254880115
 30
0.0
 11
1163.042149915048
 21
8.0321554254879857
 31
0.0
 12
1163.7686449150481
 22
8.0321554254879857
 32
0.0
 13
1163.7686449150481
 23
8.0321554254879857
 33
0.0
210
0.0
220
0.0
230
1.0
  0
SOLID
  5
625F
  8
DEFPOINTS
  6
CONTINUOUS
 10
-1163.042149915048
 20
8.1418804254880115
 30
0.0
 11
-1163.7686449150469
 21
8.1418804254880115
 31
0.0
 12
-1163.7686449150481
 22
8.0321554254879857
 32
0.0
 13
-1163.7686449150481
 23
8.0321554254879857
 33
0.0
210
0.0
220
0.0
230
-1.0
  0
SOLID
  5
6260
  8
DEFPOINTS
  6
CONTINUOUS
 10
1161.0659387055471
 20
8.1418804254880115
 30
0.0
 11
1161.0659387055471
 21
8.0321554254879857
 31
0.0
 12
1162.078007455548
 22
8.0321554254879857
 32
0.0
 13
1162.078007455548
 23
8.0321554254879857
 33
0.0
210
0.0
220
0.0
230
1.0
  0
SOLID
  5
6261
  8
DEFPOINTS
  6
CONTINUOUS
 10
-1161.0659387055471
 20
8.1418804254880115
 30
0.0
 11
-1162.078007455548
 21
8.1418804254880115
 31
0.0
 12
-1162.078007455548
 22
8.0321554254879857
 32
0.0
 13
-1162.078007455548
 23
8.0321554254879857
 33
0.0
210
0.0
220
0.0
230
-1.0
  0
SOLID
  5
6262
  8
DEFPOINTS
  6
CONTINUOUS
 10
1160.297863705548
 20
8.1418804254880115
 30
0.0
 11
1160.297863705548
 21
8.0321554254879857
 31
0.0
 12
1160.9966387055481
 22
8.0321554254879857
 32
0.0
 13
1160.9966387055481
 23
8.0321554254879857
 33
0.0
210
0.0
220
0.0
230
1.0
  0
SOLID
  5
6263
  8
DEFPOINTS
  6
CONTINUOUS
 10
-1160.297863705548
 20
8.1418804254880115
 30
0.0
 11
-1160.9966387055481
 21
8.1418804254880115
 31
0.0
 12
-1160.9966387055481
 22
8.0321554254879857
 32
0.0
 13
-1160.9966387055481
 23
8.0321554254879857
 33
0.0
210
0.0
220
0.0
230
-1.0
  0
SOLID
  5
6264
  8
DEFPOINTS
  6
CONTINUOUS
 10
1170.0091037055479
 20
8.0321554254879857
 30
0.0
 11
1170.0091037055479
 21
7.9296491754880662
 31
0.0
 12
1170.3509837055481
 22
7.9296491754880662
 32
0.0
 13
1170.3509837055481
 23
7.9296491754880662
 33
0.0
210
0.0
220
0.0
230
1.0
  0
SOLID
  5
6265
  8
DEFPOINTS
  6
CONTINUOUS
 10
-1170.0091037055479
 20
8.0321554254879857
 30
0.0
 11
-1170.3509837055481
 21
8.0321554254879857
 31
0.0
 12
-1170.3509837055481
 22
7.9296491754880662
 32
0.0
 13
-1170.3509837055481
 23
7.9296491754880662
 33
0.0
210
0.0
220
0.0
230
-1.0
  0
SOLID
  5
6266
  8
DEFPOINTS
  6
CONTINUOUS
 10
1169.3426687055471
 20
8.0321554254879857
 30
0.0
 11
1169.3426687055471
 21
7.9296491754880662
 31
0.0
 12
1169.663181205548
 22
7.9296491754880662
 32
0.0
 13
1169.663181205548
 23
7.9296491754880662
 33
0.0
210
0.0
220
0.0
230
1.0
  0
SOLID
  5
6267
  8
DEFPOINTS
  6
CONTINUOUS
 10
-1169.3426687055471
 20
8.0321554254879857
 30
0.0
 11
-1169.6631812055471
 21
8.0321554254879857
 31
0.0
 12
-1169.663181205548
 22
7.9296491754880662
 32
0.0
 13
-1169.663181205548
 23
7.9296491754880662
 33
0.0
210
0.0
220
0.0
230
-1.0
  0
SOLID
  5
6268
  8
DEFPOINTS
  6
CONTINUOUS
 10
1168.674501205548
 20
8.0321554254879857
 30
0.0
 11
1168.674501205548
 21
7.9296491754880662
 31
0.0
 12
1169.0140712055479
 22
7.9296491754880662
 32
0.0
 13
1169.0140712055479
 23
7.9296491754880662
 33
0.0
210
0.0
220
0.0
230
1.0
  0
SOLID
  5
6269
  8
DEFPOINTS
  6
CONTINUOUS
 10
-1168.674501205548
 20
8.0321554254879857
 30
0.0
 11
-1169.0140712055479
 21
8.0321554254879857
 31
0.0
 12
-1169.0140712055479
 22
7.9296491754880662
 32
0.0
 13
-1169.0140712055479
 23
7.9296491754880662
 33
0.0
210
0.0
220
0.0
230
-1.0
  0
SOLID
  5
626A
  8
DEFPOINTS
  6
CONTINUOUS
 10
1166.693387455548
 20
8.0321554254879857
 30
0.0
 11
1166.693387455548
 21
7.86641292548802
 31
0.0
 12
1166.9630799555471
 22
7.86641292548802
 32
0.0
 13
1166.9630799555471
 23
7.86641292548802
 33
0.0
210
0.0
220
0.0
230
1.0
  0
SOLID
  5
626B
  8
DEFPOINTS
  6
CONTINUOUS
 10
-1166.693387455548
 20
8.0321554254879857
 30
0.0
 11
-1166.9630799555471
 21
8.0321554254879857
 31
0.0
 12
-1166.9630799555471
 22
7.86641292548802
 32
0.0
 13
-1166.9630799555471
 23
7.86641292548802
 33
0.0
210
0.0
220
0.0
230
-1.0
  0
SOLID
  5
626C
  8
DEFPOINTS
  6
CONTINUOUS
 10
1166.3093499555471
 20
8.0321554254879857
 30
0.0
 11
1166.3093499555471
 21
7.86641292548802
 31
0.0
 12
1166.5871274555479
 22
7.86641292548802
 32
0.0
 13
1166.5871274555479
 23
7.86641292548802
 33
0.0
210
0.0
220
0.0
230
1.0
  0
SOLID
  5
626D
  8
DEFPOINTS
  6
CONTINUOUS
 10
-1166.3093499555471
 20
8.0321554254879857
 30
0.0
 11
-1166.587127455547
 21
8.0321554254879857
 31
0.0
 12
-1166.5871274555479
 22
7.86641292548802
 32
0.0
 13
-1166.5871274555479
 23
7.86641292548802
 33
0.0
210
0.0
220
0.0
230
-1.0
  0
SOLID
  5
626E
  8
DEFPOINTS
  6
CONTINUOUS
 10
1163.277192415047
 20
8.0321554254879857
 30
0.0
 11
1163.2771924150479
 21
7.86641292548802
 31
0.0
 12
1163.589042415048
 22
7.86641292548802
 32
0.0
 13
1163.589042415048
 23
7.86641292548802
 33
0.0
210
0.0
220
0.0
230
1.0
  0
SOLID
  5
626F
  8
DEFPOINTS
  6
CONTINUOUS
 10
-1163.277192415047
 20
8.0321554254879857
 30
0.0
 11
-1163.589042415048
 21
8.0321554254879857
 31
0.0
 12
-1163.589042415048
 22
7.86641292548802
 32
0.0
 13
-1163.589042415048
 23
7.86641292548802
 33
0.0
210
0.0
220
0.0
230
-1.0
  0
SOLID
  5
6270
  8
DEFPOINTS
  6
CONTINUOUS
 10
1168.674501205548
 20
7.9296491754880662
 30
0.0
 11
1168.674501205548
 21
7.8170366754881107
 31
0.0
 12
1170.3509837055481
 22
7.8170366754881107
 32
0.0
 13
1170.3509837055481
 23
7.8170366754881107
 33
0.0
  0
SOLID
  5
6271
  8
DEFPOINTS
  6
CONTINUOUS
 10
-1168.674501205548
 20
7.9296491754880662
 30
0.0
 11
-1170.3509837055481
 21
7.9296491754880662
 31
0.0
 12
-1170.3509837055481
 22
7.8170366754881107
 32
0.0
 13
-1170.3509837055481
 23
7.8170366754881107
 33
0.0
210
0.0
220
0.0
230
-1.0
  0
SOLID
  5
6272
  8
DEFPOINTS
  6
CONTINUOUS
 10
1166.3093499555471
 20
7.86641292548802
 30
0.0
 11
1166.3093499555471
 21
7.754955425488105
 31
0.0
 12
1166.9630799555471
 22
7.754955425488105
 32
0.0
 13
1166.9630799555471
 23
7.754955425488105
 33
0.0
  0
SOLID
  5
6273
  8
DEFPOINTS
  6
CONTINUOUS
 10
-1166.3093499555471
 20
7.86641292548802
 30
0.0
 11
-1166.9630799555471
 21
7.86641292548802
 31
0.0
 12
-1166.9630799555471
 22
7.754955425488105
 32
0.0
 13
-1166.9630799555471
 23
7.754955425488105
 33
0.0
210
0.0
220
0.0
230
-1.0
  0
SOLID
  5
6274
  8
DEFPOINTS
  6
CONTINUOUS
 10
1165.8178974555481
 20
7.86641292548802
 30
0.0
 11
1165.8178974555481
 21
7.754955425488105
 31
0.0
 12
1166.2539099555479
 22
7.754955425488105
 32
0.0
 13
1166.2539099555479
 23
7.754955425488105
 33
0.0
  0
SOLID
  5
6275
  8
DEFPOINTS
  6
CONTINUOUS
 10
-1165.8178974555481
 20
7.86641292548802
 30
0.0
 11
-1166.2539099555479
 21
7.86641292548802
 31
0.0
 12
-1166.2539099555479
 22
7.754955425488105
 32
0.0
 13
-1166.2539099555479
 23
7.754955425488105
 33
0.0
210
0.0
220
0.0
230
-1.0
  0
SOLID
  5
6276
  8
DEFPOINTS
  6
CONTINUOUS
 10
1163.042149915048
 20
7.86641292548802
 30
0.0
 11
1163.042149915048
 21
7.754955425488105
 31
0.0
 12
1163.7686449150469
 22
7.754955425488105
 32
0.0
 13
1163.7686449150469
 23
7.754955425488105
 33
0.0
210
0.0
220
0.0
230
1.0
  0
SOLID
  5
6277
  8
DEFPOINTS
  6
CONTINUOUS
 10
-1163.042149915048
 20
7.86641292548802
 30
0.0
 11
-1163.7686449150469
 21
7.86641292548802
 31
0.0
 12
-1163.7686449150469
 22
7.754955425488105
 32
0.0
 13
-1163.7686449150469
 23
7.754955425488105
 33
0.0
210
0.0
220
0.0
230
-1.0
  0
SOLID
  5
6278
  8
DEFPOINTS
  6
CONTINUOUS
 10
1161.7560512055479
 20
8.0321554254879857
 30
0.0
 11
1161.7561655555471
 21
7.7335879254881092
 31
0.0
 12
1162.078007455548
 22
7.7335879254881092
 32
0.0
 13
1162.078007455548
 23
7.7335879254881092
 33
0.0
210
0.0
220
0.0
230
1.0
  0
SOLID
  5
6279
  8
DEFPOINTS
  6
CONTINUOUS
 10
-1161.7560512055479
 20
8.0321554254879857
 30
0.0
 11
-1162.078007455548
 21
8.0321554254879857
 31
0.0
 12
-1162.078007455548
 22
7.7335879254881092
 32
0.0
 13
-1162.078007455548
 23
7.7335879254881092
 33
0.0
210
0.0
220
0.0
230
-1.0
  0
SOLID
  5
627A
  8
DEFPOINTS
  6
CONTINUOUS
 10
1161.7561655555471
 20
7.7335879254881092
 30
0.0
 11
1161.6441305555479
 21
7.729545425488026
 31
0.0
 12
1162.078007455548
 22
7.729545425488026
 32
0.0
 13
1162.078007455548
 23
7.729545425488026
 33
0.0
210
0.0
220
0.0
230
1.0
  0
SOLID
  5
627B
  8
DEFPOINTS
  6
CONTINUOUS
 10
-1161.7561655555471
 20
7.7335879254881092
 30
0.0
 11
-1162.078007455548
 21
7.7335879254881092
 31
0.0
 12
-1162.078007455548
 22
7.729545425488026
 32
0.0
 13
-1162.078007455548
 23
7.729545425488026
 33
0.0
210
0.0
220
0.0
230
-1.0
  0
SOLID
  5
627C
  8
DEFPOINTS
  6
CONTINUOUS
 10
1168.674501205548
 20
7.754955425488105
 30
0.0
 11
1168.674501205548
 21
7.6486954254880848
 31
0.0
 12
1170.3509837055481
 22
7.6486954254880848
 32
0.0
 13
1170.3509837055481
 23
7.6486954254880848
 33
0.0
  0
SOLID
  5
627D
  8
DEFPOINTS
  6
CONTINUOUS
 10
-1168.674501205548
 20
7.754955425488105
 30
0.0
 11
-1170.3509837055481
 21
7.754955425488105
 31
0.0
 12
-1170.3509837055481
 22
7.6486954254880848
 32
0.0
 13
-1170.3509837055481
 23
7.6486954254880848
 33
0.0
210
0.0
220
0.0
230
-1.0
  0
SOLID
  5
627E
  8
DEFPOINTS
  6
CONTINUOUS
 10
1163.277192415047
 20
7.754955425488105
 30
0.0
 11
1163.1875548824221
 21
7.6394554254879941
 31
0.0
 12
1163.770948705547
 22
7.6394554254879941
 32
0.0
 13
1163.770948705547
 23
7.6394554254879941
 33
0.0
  0
SOLID
  5
627F
  8
DEFPOINTS
  6
CONTINUOUS
 10
-1163.277192415047
 20
7.754955425488105
 30
0.0
 11
-1163.589042415048
 21
7.754955425488105
 31
0.0
 12
-1163.770948705547
 22
7.6394554254879941
 32
0.0
 13
-1163.770948705547
 23
7.6394554254879941
 33
0.0
210
0.0
220
0.0
230
-1.0
  0
SOLID
  5
6280
  8
DEFPOINTS
  6
CONTINUOUS
 10
1166.693387455548
 20
7.754955425488105
 30
0.0
 11
1166.693387455548
 21
7.6348354254880633
 31
0.0
 12
1166.9630799555471
 22
7.6348354254880633
 32
0.0
 13
1166.9630799555471
 23
7.6348354254880633
 33
0.0
210
0.0
220
0.0
230
1.0
  0
SOLID
  5
6281
  8
DEFPOINTS
  6
CONTINUOUS
 10
-1166.693387455548
 20
7.754955425488105
 30
0.0
 11
-1166.9630799555471
 21
7.754955425488105
 31
0.0
 12
-1166.9630799555471
 22
7.6348354254880633
 32
0.0
 13
-1166.9630799555471
 23
7.6348354254880633
 33
0.0
210
0.0
220
0.0
230
-1.0
  0
SOLID
  5
6282
  8
DEFPOINTS
  6
CONTINUOUS
 10
1166.3093499555471
 20
7.754955425488105
 30
0.0
 11
1166.3093499555471
 21
7.6348354254880633
 31
0.0
 12
1166.5871274555479
 22
7.6348354254880633
 32
0.0
 13
1166.5871274555479
 23
7.6348354254880633
 33
0.0
210
0.0
220
0.0
230
1.0
  0
SOLID
  5
6283
  8
DEFPOINTS
  6
CONTINUOUS
 10
-1166.3093499555471
 20
7.754955425488105
 30
0.0
 11
-1166.5871274555479
 21
7.754955425488105
 31
0.0
 12
-1166.5871274555479
 22
7.6348354254880633
 32
0.0
 13
-1166.5871274555479
 23
7.6348354254880633
 33
0.0
210
0.0
220
0.0
230
-1.0
  0
SOLID
  5
6284
  8
DEFPOINTS
  6
CONTINUOUS
 10
1160.713663705548
 20
8.0321554254879857
 30
0.0
 11
1160.7136637055471
 21
7.6348354254880633
 31
0.0
 12
1160.9966387055481
 22
7.6348354254880633
 32
0.0
 13
1160.9966387055481
 23
7.6348354254880633
 33
0.0
210
0.0
220
0.0
230
1.0
  0
SOLID
  5
6285
  8
DEFPOINTS
  6
CONTINUOUS
 10
-1160.713663705548
 20
8.0321554254879857
 30
0.0
 11
-1160.9966387055481
 21
8.0321554254879857
 31
0.0
 12
-1160.9966387055481
 22
7.6348354254880633
 32
0.0
 13
-1160.9966387055481
 23
7.6348354254880633
 33
0.0
210
0.0
220
0.0
230
-1.0
  0
SOLID
  5
6286
  8
DEFPOINTS
  6
CONTINUOUS
 10
1160.297863705548
 20
8.0321554254879857
 30
0.0
 11
1160.297863705548
 21
7.6348354254880633
 31
0.0
 12
1160.5860362055471
 22
7.6348354254880633
 32
0.0
 13
1160.5860362055471
 23
7.6348354254880633
 33
0.0
210
0.0
220
0.0
230
1.0
  0
SOLID
  5
6287
  8
DEFPOINTS
  6
CONTINUOUS
 10
-1160.297863705548
 20
8.0321554254879857
 30
0.0
 11
-1160.5860362055471
 21
8.0321554254879857
 31
0.0
 12
-1160.5860362055471
 22
7.6348354254880633
 32
0.0
 13
-1160.5860362055471
 23
7.6348354254880633
 33
0.0
210
0.0
220
0.0
230
-1.0
  0
SOLID
  5
6288
  8
DEFPOINTS
  6
CONTINUOUS
 10
1161.6441305555479
 20
7.729545425488026
 30
0.0
 11
1161.673468705548
 21
7.6134679254880657
 31
0.0
 12
1162.078007455548
 22
7.6134679254880657
 32
0.0
 13
1162.078007455548
 23
7.6134679254880657
 33
0.0
210
0.0
220
0.0
230
1.0
  0
SOLID
  5
6289
  8
DEFPOINTS
  6
CONTINUOUS
 10
-1161.6441305555479
 20
7.729545425488026
 30
0.0
 11
-1162.078007455548
 21
7.729545425488026
 31
0.0
 12
-1162.078007455548
 22
7.6134679254880657
 32
0.0
 13
-1162.078007455548
 23
7.6134679254880657
 33
0.0
210
0.0
220
0.0
230
-1.0
  0
SOLID
  5
628A
  8
DEFPOINTS
  6
CONTINUOUS
 10
1161.2640274150481
 20
8.0321554254879857
 30
0.0
 11
1161.065938705548
 21
7.6134679254880657
 31
0.0
 12
1161.426298705547
 22
7.6134679254880657
 32
0.0
 13
1161.426298705547
 23
7.6134679254880657
 33
0.0
210
0.0
220
0.0
230
1.0
  0
SOLID
  5
628B
  8
DEFPOINTS
  6
CONTINUOUS
 10
-1161.2640274150481
 20
8.0321554254879857
 30
0.0
 11
-1161.6243874150471
 21
8.0321554254879857
 31
0.0
 12
-1161.426298705547
 22
7.6134679254880657
 32
0.0
 13
-1161.426298705547
 23
7.6134679254880657
 33
0.0
210
0.0
220
0.0
230
-1.0
  0
SOLID
  5
628C
  8
DEFPOINTS
  6
CONTINUOUS
 10
1169.3426687055471
 20
7.6486954254880848
 30
0.0
 11
1169.3426687055471
 21
7.545611675487975
 31
0.0
 12
1169.6631812055471
 22
7.545611675487975
 32
0.0
 13
1169.6631812055471
 23
7.545611675487975
 33
0.0
  0
SOLID
  5
628D
  8
DEFPOINTS
  6
CONTINUOUS
 10
-1169.3426687055471
 20
7.6486954254880848
 30
0.0
 11
-1169.6631812055471
 21
7.6486954254880848
 31
0.0
 12
-1169.6631812055471
 22
7.545611675487975
 32
0.0
 13
-1169.6631812055471
 23
7.545611675487975
 33
0.0
210
0.0
220
0.0
230
-1.0
  0
SOLID
  5
628E
  8
DEFPOINTS
  6
CONTINUOUS
 10
1166.3093499555471
 20
7.6348354254880633
 30
0.0
 11
1166.3093499555471
 21
7.5152929254880974
 31
0.0
 12
1166.9630799555471
 22
7.5152929254880974
 32
0.0
 13
1166.9630799555471
 23
7.5152929254880974
 33
0.0
210
0.0
220
0.0
230
1.0
  0
SOLID
  5
628F
  8
DEFPOINTS
  6
CONTINUOUS
 10
-1166.3093499555471
 20
7.6348354254880633
 30
0.0
 11
-1166.9630799555471
 21
7.6348354254880633
 31
0.0
 12
-1166.9630799555471
 22
7.5152929254880974
 32
0.0
 13
-1166.9630799555471
 23
7.5152929254880974
 33
0.0
210
0.0
220
0.0
230
-1.0
  0
SOLID
  5
6290
  8
DEFPOINTS
  6
CONTINUOUS
 10
1160.297863705548
 20
7.6348354254880633
 30
0.0
 11
1160.297863705548
 21
7.5152929254880974
 31
0.0
 12
1160.9966387055481
 22
7.5152929254880974
 32
0.0
 13
1160.9966387055481
 23
7.5152929254880974
 33
0.0
210
0.0
220
0.0
230
1.0
  0
SOLID
  5
6291
  8
DEFPOINTS
  6
CONTINUOUS
 10
-1160.297863705548
 20
7.6348354254880633
 30
0.0
 11
-1160.9966387055481
 21
7.6348354254880633
 31
0.0
 12
-1160.9966387055481
 22
7.5152929254880974
 32
0.0
 13
-1160.9966387055481
 23
7.5152929254880974
 33
0.0
210
0.0
220
0.0
230
-1.0
  0
SOLID
  5
6292
  8
DEFPOINTS
  6
CONTINUOUS
 10
1163.1875548824221
 20
7.6394554254879941
 30
0.0
 11
1163.045031205547
 21
7.4558104254881519
 31
0.0
 12
1163.7710907333319
 22
7.4558104254881519
 32
0.0
 13
1163.7710907333319
 23
7.4558104254881519
 33
0.0
210
0.0
220
0.0
230
1.0
  0
SOLID
  5
6293
  8
DEFPOINTS
  6
CONTINUOUS
 10
-1163.1875548824221
 20
7.6394554254879941
 30
0.0
 11
-1163.770948705547
 21
7.6394554254879941
 31
0.0
 12
-1163.7710907333319
 22
7.4558104254881519
 32
0.0
 13
-1163.7710907333319
 23
7.4558104254881519
 33
0.0
210
0.0
220
0.0
230
-1.0
  0
SOLID
  5
6294
  8
DEFPOINTS
  6
CONTINUOUS
 10
1168.606331853048
 20
7.545611675487975
 30
0.0
 11
1168.606331853048
 21
7.4399291754879178
 31
0.0
 12
1170.402381205547
 22
7.4399291754879178
 32
0.0
 13
1170.402381205547
 23
7.4399291754879178
 33
0.0
210
0.0
220
0.0
230
1.0
  0
SOLID
  5
6295
  8
DEFPOINTS
  6
CONTINUOUS
 10
-1168.606331853048
 20
7.545611675487975
 30
0.0
 11
-1170.402381205547
 21
7.545611675487975
 31
0.0
 12
-1170.402381205547
 22
7.4399291754879178
 32
0.0
 13
-1170.402381205547
 23
7.4399291754879178
 33
0.0
210
0.0
220
0.0
230
-1.0
  0
SOLID
  5
6296
  8
DEFPOINTS
  6
CONTINUOUS
 10
1163.045031205547
 20
7.4558104254881519
 30
0.0
 11
1163.045049636677
 21
7.4191711712063571
 31
0.0
 12
1163.7711190694811
 22
7.4191711712063571
 32
0.0
 13
1163.7711190694811
 23
7.4191711712063571
 33
0.0
210
0.0
220
0.0
230
1.0
  0
SOLID
  5
6297
  8
DEFPOINTS
  6
CONTINUOUS
 10
-1163.045031205547
 20
7.4558104254881519
 30
0.0
 11
-1163.7710907333319
 21
7.4558104254881519
 31
0.0
 12
-1163.7711190694811
 22
7.4191711712063571
 32
0.0
 13
-1163.7711190694811
 23
7.4191711712063571
 33
0.0
210
0.0
220
0.0
230
-1.0
  0
SOLID
  5
6298
  8
DEFPOINTS
  6
CONTINUOUS
 10
1166.693387455548
 20
7.5152929254880974
 30
0.0
 11
1166.693387455548
 21
7.4003704254880631
 31
0.0
 12
1166.9630799555471
 22
7.4003704254880631
 32
0.0
 13
1166.9630799555471
 23
7.4003704254880631
 33
0.0
  0
SOLID
  5
6299
  8
DEFPOINTS
  6
CONTINUOUS
 10
-1166.693387455548
 20
7.5152929254880974
 30
0.0
 11
-1166.9630799555471
 21
7.5152929254880974
 31
0.0
 12
-1166.9630799555471
 22
7.4003704254880631
 32
0.0
 13
-1166.9630799555471
 23
7.4003704254880631
 33
0.0
210
0.0
220
0.0
230
-1.0
  0
SOLID
  5
629A
  8
DEFPOINTS
  6
CONTINUOUS
 10
1166.3093499555471
 20
7.5152929254880974
 30
0.0
 11
1166.3093499555471
 21
7.4003704254880631
 31
0.0
 12
1166.5871274555479
 22
7.4003704254880631
 32
0.0
 13
1166.5871274555479
 23
7.4003704254880631
 33
0.0
210
0.0
220
0.0
230
1.0
  0
SOLID
  5
629B
  8
DEFPOINTS
  6
CONTINUOUS
 10
-1166.3093499555471
 20
7.5152929254880974
 30
0.0
 11
-1166.587127455547
 21
7.5152929254880974
 31
0.0
 12
-1166.5871274555479
 22
7.4003704254880631
 32
0.0
 13
-1166.5871274555479
 23
7.4003704254880631
 33
0.0
210
0.0
220
0.0
230
-1.0
  0
SOLID
  5
629C
  8
DEFPOINTS
  6
CONTINUOUS
 10
1161.0659387055471
 20
7.5152929254880974
 30
0.0
 11
1161.0659387055471
 21
7.3997929254881001
 31
0.0
 12
1162.078007455548
 22
7.3997929254881001
 32
0.0
 13
1162.078007455548
 23
7.3997929254881001
 33
0.0
  0
SOLID
  5
629D
  8
DEFPOINTS
  6
CONTINUOUS
 10
-1161.0659387055471
 20
7.5152929254880974
 30
0.0
 11
-1162.078007455548
 21
7.5152929254880974
 31
0.0
 12
-1162.078007455548
 22
7.3997929254881001
 32
0.0
 13
-1162.078007455548
 23
7.3997929254881001
 33
0.0
210
0.0
220
0.0
230
-1.0
  0
SOLID
  5
629E
  8
DEFPOINTS
  6
CONTINUOUS
 10
-1163.765606705274
 20
7.3070630331920929
 30
0.0
 11
-1163.7712057719259
 21
7.3070630331920929
 31
0.0
 12
-1163.7712085227161
 22
7.3035062022942148
 32
0.0
 13
-1163.7712085227161
 23
7.3035062022942148
 33
0.0
210
0.0
220
0.0
230
-1.0
  0
SOLID
  5
629F
  8
DEFPOINTS
  6
CONTINUOUS
 10
1163.589042415048
 20
7.4191711712063571
 30
0.0
 11
1163.765606705274
 21
7.3070630331920929
 31
0.0
 12
1163.7712057719259
 22
7.3070630331920929
 32
0.0
 13
1163.7712057719259
 23
7.3070630331920929
 33
0.0
210
0.0
220
0.0
230
1.0
  0
SOLID
  5
62A0
  8
DEFPOINTS
  6
CONTINUOUS
 10
-1163.589042415048
 20
7.4191711712063571
 30
0.0
 11
-1163.7711190694811
 21
7.4191711712063571
 31
0.0
 12
-1163.7712057719259
 22
7.3070630331920929
 32
0.0
 13
-1163.7712057719259
 23
7.3070630331920929
 33
0.0
210
0.0
220
0.0
230
-1.0
  0
SOLID
  5
62A1
  8
DEFPOINTS
  6
CONTINUOUS
 10
1163.045049636677
 20
7.4191711712063571
 30
0.0
 11
1163.0451060319201
 21
7.3070630331920929
 31
0.0
 12
1163.589042415048
 22
7.3070630331920929
 32
0.0
 13
1163.589042415048
 23
7.3070630331920929
 33
0.0
210
0.0
220
0.0
230
1.0
  0
SOLID
  5
62A2
  8
DEFPOINTS
  6
CONTINUOUS
 10
-1163.045049636677
 20
7.4191711712063571
 30
0.0
 11
-1163.589042415048
 21
7.4191711712063571
 31
0.0
 12
-1163.589042415048
 22
7.3070630331920929
 32
0.0
 13
-1163.589042415048
 23
7.3070630331920929
 33
0.0
210
0.0
220
0.0
230
-1.0
  0
SOLID
  5
62A3
  8
DEFPOINTS
  6
CONTINUOUS
 10
1163.277192415047
 20
7.3070630331920929
 30
0.0
 11
1163.277192415047
 21
7.3035062022942148
 31
0.0
 12
1163.589042415048
 22
7.3035062022942148
 32
0.0
 13
1163.589042415048
 23
7.3035062022942148
 33
0.0
  0
SOLID
  5
62A4
  8
DEFPOINTS
  6
CONTINUOUS
 10
-1163.277192415047
 20
7.3070630331920929
 30
0.0
 11
-1163.589042415048
 21
7.3070630331920929
 31
0.0
 12
-1163.589042415048
 22
7.3035062022942148
 32
0.0
 13
-1163.589042415048
 23
7.3035062022942148
 33
0.0
210
0.0
220
0.0
230
-1.0
  0
SOLID
  5
62A5
  8
DEFPOINTS
  6
CONTINUOUS
 10
1163.0451060319201
 20
7.3070630331920929
 30
0.0
 11
1163.0451078211599
 21
7.3035062022942148
 31
0.0
 12
1163.2744320207059
 22
7.3035062022942148
 32
0.0
 13
1163.2744320207059
 23
7.3035062022942148
 33
0.0
  0
SOLID
  5
62A6
  8
DEFPOINTS
  6
CONTINUOUS
 10
-1163.0451060319201
 20
7.3070630331920929
 30
0.0
 11
-1163.277192415047
 21
7.3070630331920929
 31
0.0
 12
-1163.2744320207059
 22
7.3035062022942148
 32
0.0
 13
-1163.2744320207059
 23
7.3035062022942148
 33
0.0
210
0.0
220
0.0
230
-1.0
  0
SOLID
  5
62A7
  8
DEFPOINTS
  6
CONTINUOUS
 10
1167.005814955548
 20
8.1418804254880115
 30
0.0
 11
1167.005814955548
 21
7.2808279254879826
 31
0.0
 12
1167.2662674555479
 22
7.2808279254879826
 32
0.0
 13
1167.2662674555479
 23
7.2808279254879826
 33
0.0
210
0.0
220
0.0
230
1.0
  0
SOLID
  5
62A8
  8
DEFPOINTS
  6
CONTINUOUS
 10
-1167.005814955548
 20
8.1418804254880115
 30
0.0
 11
-1167.2662674555479
 21
8.1418804254880115
 31
0.0
 12
-1167.2662674555479
 22
7.2808279254879826
 32
0.0
 13
-1167.2662674555479
 23
7.2808279254879826
 33
0.0
210
0.0
220
0.0
230
-1.0
  0
SOLID
  5
62A9
  8
DEFPOINTS
  6
CONTINUOUS
 10
1166.3093499555471
 20
7.4003704254880631
 30
0.0
 11
1166.3093499555471
 21
7.2808279254879826
 31
0.0
 12
1166.9630799555471
 22
7.2808279254879826
 32
0.0
 13
1166.9630799555471
 23
7.2808279254879826
 33
0.0
210
0.0
220
0.0
230
1.0
  0
SOLID
  5
62AA
  8
DEFPOINTS
  6
CONTINUOUS
 10
-1166.3093499555471
 20
7.4003704254880631
 30
0.0
 11
-1166.9630799555471
 21
7.4003704254880631
 31
0.0
 12
-1166.9630799555471
 22
7.2808279254879826
 32
0.0
 13
-1166.9630799555471
 23
7.2808279254879826
 33
0.0
210
0.0
220
0.0
230
-1.0
  0
SOLID
  5
62AB
  8
DEFPOINTS
  6
CONTINUOUS
 10
1166.3668174900481
 20
7.2808279254879826
 30
0.0
 11
1166.3648490994731
 21
7.2772553579879959
 31
0.0
 12
1166.927200155641
 22
7.2772553579879959
 32
0.0
 13
1166.927200155641
 23
7.2772553579879959
 33
0.0
  0
SOLID
  5
62AC
  8
DEFPOINTS
  6
CONTINUOUS
 10
-1166.3668174900481
 20
7.2808279254879826
 30
0.0
 11
-1166.924846713548
 21
7.2808279254879826
 31
0.0
 12
-1166.927200155641
 22
7.2772553579879959
 32
0.0
 13
-1166.927200155641
 23
7.2772553579879959
 33
0.0
210
0.0
220
0.0
230
-1.0
  0
SOLID
  5
62AD
  8
DEFPOINTS
  6
CONTINUOUS
 10
1168.6063318530471
 20
7.3564804254880301
 30
0.0
 11
1168.6063318530471
 21
7.255417925488131
 31
0.0
 12
1170.402381205548
 22
7.255417925488131
 32
0.0
 13
1170.402381205548
 23
7.255417925488131
 33
0.0
  0
SOLID
  5
62AE
  8
DEFPOINTS
  6
CONTINUOUS
 10
-1168.6063318530471
 20
7.3564804254880301
 30
0.0
 11
-1170.402381205547
 21
7.3564804254880301
 31
0.0
 12
-1170.402381205548
 22
7.255417925488131
 32
0.0
 13
-1170.402381205548
 23
7.255417925488131
 33
0.0
210
0.0
220
0.0
230
-1.0
  0
SOLID
  5
62AF
  8
DEFPOINTS
  6
CONTINUOUS
 10
1167.3374993400471
 20
8.1418804254880115
 30
0.0
 11
1167.3374993400471
 21
7.1254804254879209
 31
0.0
 12
1167.615276840048
 22
7.1254804254879209
 32
0.0
 13
1167.615276840048
 23
7.1254804254879209
 33
0.0
  0
SOLID
  5
62B0
  8
DEFPOINTS
  6
CONTINUOUS
 10
-1167.3374993400471
 20
8.1418804254880115
 30
0.0
 11
-1167.615276840048
 21
8.1418804254880115
 31
0.0
 12
-1167.615276840048
 22
7.1254804254879209
 32
0.0
 13
-1167.615276840048
 23
7.1254804254879209
 33
0.0
210
0.0
220
0.0
230
-1.0
  0
SOLID
  5
62B1
  8
DEFPOINTS
  6
CONTINUOUS
 10
1164.5032249150479
 20
8.0321554254879857
 30
0.0
 11
1164.503224915047
 21
7.1254804254879209
 31
0.0
 12
1164.836442415047
 22
7.1254804254879209
 32
0.0
 13
1164.836442415047
 23
7.1254804254879209
 33
0.0
210
0.0
220
0.0
230
1.0
  0
SOLID
  5
62B2
  8
DEFPOINTS
  6
CONTINUOUS
 10
-1164.5032249150479
 20
8.0321554254879857
 30
0.0
 11
-1164.836442415047
 21
8.0321554254879857
 31
0.0
 12
-1164.836442415047
 22
7.1254804254879209
 32
0.0
 13
-1164.836442415047
 23
7.1254804254879209
 33
0.0
210
0.0
220
0.0
230
-1.0
  0
SOLID
  5
62B3
  8
DEFPOINTS
  6
CONTINUOUS
 10
1163.8327474150481
 20
8.0321554254879857
 30
0.0
 11
1163.8327474150481
 21
7.1254804254879209
 31
0.0
 12
1164.157302415048
 22
7.1254804254879209
 32
0.0
 13
1164.157302415048
 23
7.1254804254879209
 33
0.0
210
0.0
220
0.0
230
1.0
  0
SOLID
  5
62B4
  8
DEFPOINTS
  6
CONTINUOUS
 10
-1163.8327474150481
 20
8.0321554254879857
 30
0.0
 11
-1164.157302415048
 21
8.0321554254879857
 31
0.0
 12
-1164.157302415048
 22
7.1254804254879209
 32
0.0
 13
-1164.157302415048
 23
7.1254804254879209
 33
0.0
210
0.0
220
0.0
230
-1.0
  0
SOLID
  5
62B5
  8
DEFPOINTS
  6
CONTINUOUS
 10
1161.7560512055479
 20
7.3997929254881001
 30
0.0
 11
1161.7560512055479
 21
7.1254804254879209
 31
0.0
 12
1162.078007455548
 22
7.1254804254879209
 32
0.0
 13
1162.078007455548
 23
7.1254804254879209
 33
0.0
210
0.0
220
0.0
230
1.0
  0
SOLID
  5
62B6
  8
DEFPOINTS
  6
CONTINUOUS
 10
-1161.7560512055479
 20
7.3997929254881001
 30
0.0
 11
-1162.078007455548
 21
7.3997929254881001
 31
0.0
 12
-1162.078007455548
 22
7.1254804254879209
 32
0.0
 13
-1162.078007455548
 23
7.1254804254879209
 33
0.0
210
0.0
220
0.0
230
-1.0
  0
SOLID
  5
62B7
  8
DEFPOINTS
  6
CONTINUOUS
 10
1161.0659387055471
 20
7.3997929254881001
 30
0.0
 11
1161.0659387055471
 21
7.1254804254879209
 31
0.0
 12
1161.396557455548
 22
7.1254804254879209
 32
0.0
 13
1161.396557455548
 23
7.1254804254879209
 33
0.0
210
0.0
220
0.0
230
1.0
  0
SOLID
  5
62B8
  8
DEFPOINTS
  6
CONTINUOUS
 10
-1161.0659387055471
 20
7.3997929254881001
 30
0.0
 11
-1161.396557455548
 21
7.3997929254881001
 31
0.0
 12
-1161.396557455548
 22
7.1254804254879209
 32
0.0
 13
-1161.396557455548
 23
7.1254804254879209
 33
0.0
210
0.0
220
0.0
230
-1.0
  0
SOLID
  5
62B9
  8
DEFPOINTS
  6
CONTINUOUS
 10
1160.7136637055471
 20
7.5152929254880974
 30
0.0
 11
1160.7136637055471
 21
7.1254804254879209
 31
0.0
 12
1160.9966387055481
 22
7.1254804254879209
 32
0.0
 13
1160.9966387055481
 23
7.1254804254879209
 33
0.0
210
0.0
220
0.0
230
1.0
  0
SOLID
  5
62BA
  8
DEFPOINTS
  6
CONTINUOUS
 10
-1160.7136637055471
 20
7.5152929254880974
 30
0.0
 11
-1160.9966387055481
 21
7.5152929254880974
 31
0.0
 12
-1160.9966387055481
 22
7.1254804254879209
 32
0.0
 13
-1160.9966387055481
 23
7.1254804254879209
 33
0.0
210
0.0
220
0.0
230
-1.0
  0
SOLID
  5
62BB
  8
DEFPOINTS
  6
CONTINUOUS
 10
1160.297863705548
 20
7.5152929254880974
 30
0.0
 11
1160.297863705548
 21
7.1254804254879209
 31
0.0
 12
1160.586036205548
 22
7.1254804254879209
 32
0.0
 13
1160.586036205548
 23
7.1254804254879209
 33
0.0
210
0.0
220
0.0
230
1.0
  0
SOLID
  5
62BC
  8
DEFPOINTS
  6
CONTINUOUS
 10
-1160.297863705548
 20
7.5152929254880974
 30
0.0
 11
-1160.586036205548
 21
7.5152929254880974
 31
0.0
 12
-1160.586036205548
 22
7.1254804254879209
 32
0.0
 13
-1160.586036205548
 23
7.1254804254879209
 33
0.0
210
0.0
220
0.0
230
-1.0
  0
SOLID
  5
62BD
  8
DEFPOINTS
  6
CONTINUOUS
 10
-1163.0452082698571
 20
7.1038241754880573
 30
0.0
 11
-1163.1194622871039
 21
7.1038241754880573
 31
0.0
 12
-1163.045256368848
 22
7.008208161871039
 32
0.0
 13
-1163.045256368848
 23
7.008208161871039
 33
0.0
210
0.0
220
0.0
230
-1.0
  0
SOLID
  5
62BE
  8
DEFPOINTS
  6
CONTINUOUS
 10
1170.081868705548
 20
7.255417925488131
 30
0.0
 11
1170.0818687055471
 21
7.1038241754880573
 31
0.0
 12
1170.402381205548
 22
7.1038241754880573
 32
0.0
 13
1170.402381205548
 23
7.1038241754880573
 33
0.0
210
0.0
220
0.0
230
1.0
  0
SOLID
  5
62BF
  8
DEFPOINTS
  6
CONTINUOUS
 10
-1170.081868705548
 20
7.255417925488131
 30
0.0
 11
-1170.402381205548
 21
7.255417925488131
 31
0.0
 12
-1170.402381205548
 22
7.1038241754880573
 32
0.0
 13
-1170.402381205548
 23
7.1038241754880573
 33
0.0
210
0.0
220
0.0
230
-1.0
  0
SOLID
  5
62C0
  8
DEFPOINTS
  6
CONTINUOUS
 10
1169.3426687055471
 20
7.255417925488131
 30
0.0
 11
1169.342668705548
 21
7.1038241754880573
 31
0.0
 12
1169.6631812055471
 22
7.1038241754880573
 32
0.0
 13
1169.6631812055471
 23
7.1038241754880573
 33
0.0
210
0.0
220
0.0
230
1.0
  0
SOLID
  5
62C1
  8
DEFPOINTS
  6
CONTINUOUS
 10
-1169.3426687055471
 20
7.255417925488131
 30
0.0
 11
-1169.6631812055471
 21
7.255417925488131
 31
0.0
 12
-1169.6631812055471
 22
7.1038241754880573
 32
0.0
 13
-1169.6631812055471
 23
7.1038241754880573
 33
0.0
210
0.0
220
0.0
230
-1.0
  0
SOLID
  5
62C2
  8
DEFPOINTS
  6
CONTINUOUS
 10
1168.6063318530471
 20
7.255417925488131
 30
0.0
 11
1168.6063318530471
 21
7.1038241754880573
 31
0.0
 12
1168.928601205547
 22
7.1038241754880573
 32
0.0
 13
1168.928601205547
 23
7.1038241754880573
 33
0.0
210
0.0
220
0.0
230
1.0
  0
SOLID
  5
62C3
  8
DEFPOINTS
  6
CONTINUOUS
 10
-1168.6063318530471
 20
7.255417925488131
 30
0.0
 11
-1168.9286012055479
 21
7.255417925488131
 31
0.0
 12
-1168.928601205547
 22
7.1038241754880573
 32
0.0
 13
-1168.928601205547
 23
7.1038241754880573
 33
0.0
210
0.0
220
0.0
230
-1.0
  0
SOLID
  5
62C4
  8
DEFPOINTS
  6
CONTINUOUS
 10
1163.0451078211599
 20
7.3035062022942148
 30
0.0
 11
1163.0452082698571
 21
7.1038241754880573
 31
0.0
 12
1163.1194622871039
 22
7.1038241754880573
 32
0.0
 13
1163.1194622871039
 23
7.1038241754880573
 33
0.0
210
0.0
220
0.0
230
1.0
  0
SOLID
  5
62C5
  8
DEFPOINTS
  6
CONTINUOUS
 10
-1163.0451078211599
 20
7.3035062022942148
 30
0.0
 11
-1163.2744320207059
 21
7.3035062022942148
 31
0.0
 12
-1163.1194622871039
 22
7.1038241754880573
 32
0.0
 13
-1163.1194622871039
 23
7.1038241754880573
 33
0.0
210
0.0
220
0.0
230
-1.0
  0
SOLID
  5
62C6
  8
DEFPOINTS
  6
CONTINUOUS
 10
1168.6063318530471
 20
7.1038241754880573
 30
0.0
 11
1168.6063318530471
 21
7.0042054254880659
 31
0.0
 12
1170.402381205548
 22
7.0042054254880659
 32
0.0
 13
1170.402381205548
 23
7.0042054254880659
 33
0.0
210
0.0
220
0.0
230
1.0
  0
SOLID
  5
62C7
  8
DEFPOINTS
  6
CONTINUOUS
 10
-1168.6063318530471
 20
7.1038241754880573
 30
0.0
 11
-1170.402381205548
 21
7.1038241754880573
 31
0.0
 12
-1170.402381205548
 22
7.0042054254880659
 32
0.0
 13
-1170.402381205548
 23
7.0042054254880659
 33
0.0
210
0.0
220
0.0
230
-1.0
  0
SOLID
  5
62C8
  8
DEFPOINTS
  6
CONTINUOUS
 10
1167.2066315865479
 20
7.1254804254879209
 30
0.0
 11
1167.2499724885481
 21
7.0042054254880659
 31
0.0
 12
1167.615276840048
 22
7.0042054254880659
 32
0.0
 13
1167.615276840048
 23
7.0042054254880659
 33
0.0
210
0.0
220
0.0
230
1.0
  0
SOLID
  5
62C9
  8
DEFPOINTS
  6
CONTINUOUS
 10
-1167.2066315865479
 20
7.1254804254879209
 30
0.0
 11
-1167.615276840048
 21
7.1254804254879209
 31
0.0
 12
-1167.615276840048
 22
7.0042054254880659
 32
0.0
 13
-1167.615276840048
 23
7.0042054254880659
 33
0.0
210
0.0
220
0.0
230
-1.0
  0
SOLID
  5
62CA
  8
DEFPOINTS
  6
CONTINUOUS
 10
1166.6393018400479
 20
7.2772553579879959
 30
0.0
 11
1166.8191744955479
 21
7.0042054254880659
 31
0.0
 12
1167.1070728115481
 22
7.0042054254880659
 32
0.0
 13
1167.1070728115481
 23
7.0042054254880659
 33
0.0
  0
SOLID
  5
62CB
  8
DEFPOINTS
  6
CONTINUOUS
 10
-1166.6393018400479
 20
7.2772553579879959
 30
0.0
 11
-1166.927200155641
 21
7.2772553579879959
 31
0.0
 12
-1167.1070728115481
 22
7.0042054254880659
 32
0.0
 13
-1167.1070728115481
 23
7.0042054254880659
 33
0.0
210
0.0
220
0.0
230
-1.0
  0
SOLID
  5
62CC
  8
DEFPOINTS
  6
CONTINUOUS
 10
1166.3648490994731
 20
7.2772553579879959
 30
0.0
 11
1166.2144057800469
 21
7.0042054254880659
 31
0.0
 12
1166.488858520835
 22
7.0042054254880659
 32
0.0
 13
1166.488858520835
 23
7.0042054254880659
 33
0.0
210
0.0
220
0.0
230
1.0
  0
SOLID
  5
62CD
  8
DEFPOINTS
  6
CONTINUOUS
 10
-1166.3648490994731
 20
7.2772553579879959
 30
0.0
 11
-1166.6393018400479
 21
7.2772553579879959
 31
0.0
 12
-1166.488858520835
 22
7.0042054254880659
 32
0.0
 13
-1166.488858520835
 23
7.0042054254880659
 33
0.0
210
0.0
220
0.0
230
-1.0
  0
SOLID
  5
62CE
  8
DEFPOINTS
  6
CONTINUOUS
 10
1165.9675045865481
 20
7.5586054254881674
 30
0.0
 11
1165.8178974555481
 21
7.0042054254880659
 31
0.0
 12
1166.1043028240481
 22
7.0042054254880659
 32
0.0
 13
1166.1043028240481
 23
7.0042054254880659
 33
0.0
210
0.0
220
0.0
230
1.0
  0
SOLID
  5
62CF
  8
DEFPOINTS
  6
CONTINUOUS
 10
-1165.9675045865481
 20
7.5586054254881674
 30
0.0
 11
-1166.253909955547
 21
7.5586054254881674
 31
0.0
 12
-1166.1043028240481
 22
7.0042054254880659
 32
0.0
 13
-1166.1043028240481
 23
7.0042054254880659
 33
0.0
210
0.0
220
0.0
230
-1.0
  0
SOLID
  5
62D0
  8
DEFPOINTS
  6
CONTINUOUS
 10
1163.8327474150481
 20
7.1254804254879209
 30
0.0
 11
1163.8327474150481
 21
7.0042054254880659
 31
0.0
 12
1164.836442415047
 22
7.0042054254880659
 32
0.0
 13
1164.836442415047
 23
7.0042054254880659
 33
0.0
  0
SOLID
  5
62D1
  8
DEFPOINTS
  6
CONTINUOUS
 10
-1163.8327474150481
 20
7.1254804254879209
 30
0.0
 11
-1164.836442415047
 21
7.1254804254879209
 31
0.0
 12
-1164.836442415047
 22
7.0042054254880659
 32
0.0
 13
-1164.836442415047
 23
7.0042054254880659
 33
0.0
210
0.0
220
0.0
230
-1.0
  0
SOLID
  5
62D2
  8
DEFPOINTS
  6
CONTINUOUS
 10
1163.277192415047
 20
7.3035062022942148
 30
0.0
 11
1163.2771924150479
 21
7.0042054254880659
 31
0.0
 12
1163.5890424150471
 22
7.0042054254880659
 32
0.0
 13
1163.5890424150471
 23
7.0042054254880659
 33
0.0
  0
SOLID
  5
62D3
  8
DEFPOINTS
  6
CONTINUOUS
 10
-1163.277192415047
 20
7.3035062022942148
 30
0.0
 11
-1163.589042415048
 21
7.3035062022942148
 31
0.0
 12
-1163.5890424150471
 22
7.0042054254880659
 32
0.0
 13
-1163.5890424150471
 23
7.0042054254880659
 33
0.0
210
0.0
220
0.0
230
-1.0
  0
SOLID
  5
62D4
  8
DEFPOINTS
  6
CONTINUOUS
 10
1161.0659387055471
 20
7.1254804254879209
 30
0.0
 11
1161.0659387055471
 21
7.0042054254880659
 31
0.0
 12
1162.078007455548
 22
7.0042054254880659
 32
0.0
 13
1162.078007455548
 23
7.0042054254880659
 33
0.0
210
0.0
220
0.0
230
1.0
  0
SOLID
  5
62D5
  8
DEFPOINTS
  6
CONTINUOUS
 10
-1161.0659387055471
 20
7.1254804254879209
 30
0.0
 11
-1162.078007455548
 21
7.1254804254879209
 31
0.0
 12
-1162.078007455548
 22
7.0042054254880659
 32
0.0
 13
-1162.078007455548
 23
7.0042054254880659
 33
0.0
210
0.0
220
0.0
230
-1.0
  0
SOLID
  5
62D6
  8
DEFPOINTS
  6
CONTINUOUS
 10
1160.297863705548
 20
7.1254804254879209
 30
0.0
 11
1160.297863705548
 21
7.0042054254880659
 31
0.0
 12
1160.9966387055481
 22
7.0042054254880659
 32
0.0
 13
1160.9966387055481
 23
7.0042054254880659
 33
0.0
210
0.0
220
0.0
230
1.0
  0
SOLID
  5
62D7
  8
DEFPOINTS
  6
CONTINUOUS
 10
-1160.297863705548
 20
7.1254804254879209
 30
0.0
 11
-1160.9966387055481
 21
7.1254804254879209
 31
0.0
 12
-1160.9966387055481
 22
7.0042054254880659
 32
0.0
 13
-1160.9966387055481
 23
7.0042054254880659
 33
0.0
210
0.0
220
0.0
230
-1.0
  0
LINE
  5
62D8
  8
DEFPOINTS
  6
CONTINUOUS
 10
1168.674501205548
 20
8.1418804254880115
 30
0.0
 11
1168.674501205548
 21
8.0321554254879857
 31
0.0
  0
LINE
  5
62D9
  8
DEFPOINTS
  6
CONTINUOUS
 10
1170.3509837055481
 20
8.1418804254880115
 30
0.0
 11
1170.3509837055481
 21
8.0321554254879857
 31
0.0
  0
LINE
  5
62DA
  8
DEFPOINTS
  6
CONTINUOUS
 10
1166.3093499555471
 20
8.1418804254880115
 30
0.0
 11
1166.3093499555471
 21
8.0321554254879857
 31
0.0
  0
LINE
  5
62DB
  8
DEFPOINTS
  6
CONTINUOUS
 10
1166.9630799555471
 20
8.1418804254880115
 30
0.0
 11
1166.9630799555471
 21
8.0321554254879857
 31
0.0
  0
LINE
  5
62DC
  8
DEFPOINTS
  6
CONTINUOUS
 10
1165.8178974555469
 20
8.1418804254880115
 30
0.0
 11
1165.8178974555481
 21
8.0321554254879857
 31
0.0
  0
LINE
  5
62DD
  8
DEFPOINTS
  6
CONTINUOUS
 10
1166.2539099555479
 20
8.1418804254880115
 30
0.0
 11
1166.2539099555479
 21
8.0321554254879857
 31
0.0
  0
LINE
  5
62DE
  8
DEFPOINTS
  6
CONTINUOUS
 10
1163.8327474150481
 20
8.1418804254880115
 30
0.0
 11
1163.8327474150481
 21
8.0321554254879857
 31
0.0
  0
LINE
  5
62DF
  8
DEFPOINTS
  6
CONTINUOUS
 10
1164.836442415047
 20
8.1418804254880115
 30
0.0
 11
1164.836442415047
 21
8.0321554254879857
 31
0.0
  0
LINE
  5
62E0
  8
DEFPOINTS
  6
CONTINUOUS
 10
1163.042149915048
 20
8.1418804254880115
 30
0.0
 11
1163.042149915048
 21
8.0321554254879857
 31
0.0
  0
LINE
  5
62E1
  8
DEFPOINTS
  6
CONTINUOUS
 10
1163.7686449150469
 20
8.1418804254880115
 30
0.0
 11
1163.7686449150481
 21
8.0321554254879857
 31
0.0
  0
LINE
  5
62E2
  8
DEFPOINTS
  6
CONTINUOUS
 10
1161.0659387055471
 20
8.1418804254880115
 30
0.0
 11
1161.0659387055471
 21
8.0321554254879857
 31
0.0
  0
LINE
  5
62E3
  8
DEFPOINTS
  6
CONTINUOUS
 10
1162.078007455548
 20
8.1418804254880115
 30
0.0
 11
1162.078007455548
 21
8.0321554254879857
 31
0.0
  0
LINE
  5
62E4
  8
DEFPOINTS
  6
CONTINUOUS
 10
1160.297863705548
 20
8.1418804254880115
 30
0.0
 11
1160.297863705548
 21
8.0321554254879857
 31
0.0
  0
LINE
  5
62E5
  8
DEFPOINTS
  6
CONTINUOUS
 10
1160.9966387055481
 20
8.1418804254880115
 30
0.0
 11
1160.9966387055481
 21
8.0321554254879857
 31
0.0
  0
LINE
  5
62E6
  8
DEFPOINTS
  6
CONTINUOUS
 10
1170.0091037055479
 20
8.0321554254879857
 30
0.0
 11
1170.0091037055479
 21
7.9296491754880662
 31
0.0
  0
LINE
  5
62E7
  8
DEFPOINTS
  6
CONTINUOUS
 10
1170.3509837055481
 20
8.0321554254879857
 30
0.0
 11
1170.3509837055481
 21
7.9296491754880662
 31
0.0
  0
LINE
  5
62E8
  8
DEFPOINTS
  6
CONTINUOUS
 10
1169.3426687055471
 20
8.0321554254879857
 30
0.0
 11
1169.3426687055471
 21
7.9296491754880662
 31
0.0
  0
LINE
  5
62E9
  8
DEFPOINTS
  6
CONTINUOUS
 10
1169.6631812055471
 20
8.0321554254879857
 30
0.0
 11
1169.663181205548
 21
7.9296491754880662
 31
0.0
  0
LINE
  5
62EA
  8
DEFPOINTS
  6
CONTINUOUS
 10
1168.674501205548
 20
8.0321554254879857
 30
0.0
 11
1168.674501205548
 21
7.9296491754880662
 31
0.0
  0
LINE
  5
62EB
  8
DEFPOINTS
  6
CONTINUOUS
 10
1169.0140712055479
 20
8.0321554254879857
 30
0.0
 11
1169.0140712055479
 21
7.9296491754880662
 31
0.0
  0
LINE
  5
62EC
  8
DEFPOINTS
  6
CONTINUOUS
 10
1166.693387455548
 20
8.0321554254879857
 30
0.0
 11
1166.693387455548
 21
7.86641292548802
 31
0.0
  0
LINE
  5
62ED
  8
DEFPOINTS
  6
CONTINUOUS
 10
1166.9630799555471
 20
8.0321554254879857
 30
0.0
 11
1166.9630799555471
 21
7.86641292548802
 31
0.0
  0
LINE
  5
62EE
  8
DEFPOINTS
  6
CONTINUOUS
 10
1166.3093499555471
 20
8.0321554254879857
 30
0.0
 11
1166.3093499555471
 21
7.86641292548802
 31
0.0
  0
LINE
  5
62EF
  8
DEFPOINTS
  6
CONTINUOUS
 10
1166.587127455547
 20
8.0321554254879857
 30
0.0
 11
1166.5871274555479
 21
7.86641292548802
 31
0.0
  0
LINE
  5
62F0
  8
DEFPOINTS
  6
CONTINUOUS
 10
1163.277192415047
 20
8.0321554254879857
 30
0.0
 11
1163.2771924150479
 21
7.86641292548802
 31
0.0
  0
LINE
  5
62F1
  8
DEFPOINTS
  6
CONTINUOUS
 10
1163.589042415048
 20
8.0321554254879857
 30
0.0
 11
1163.589042415048
 21
7.86641292548802
 31
0.0
  0
LINE
  5
62F2
  8
DEFPOINTS
  6
CONTINUOUS
 10
1168.674501205548
 20
7.9296491754880662
 30
0.0
 11
1168.674501205548
 21
7.8170366754881107
 31
0.0
  0
LINE
  5
62F3
  8
DEFPOINTS
  6
CONTINUOUS
 10
1170.3509837055481
 20
7.9296491754880662
 30
0.0
 11
1170.3509837055481
 21
7.8170366754881107
 31
0.0
  0
LINE
  5
62F4
  8
DEFPOINTS
  6
CONTINUOUS
 10
1166.3093499555471
 20
7.86641292548802
 30
0.0
 11
1166.3093499555471
 21
7.754955425488105
 31
0.0
  0
LINE
  5
62F5
  8
DEFPOINTS
  6
CONTINUOUS
 10
1166.9630799555471
 20
7.86641292548802
 30
0.0
 11
1166.9630799555471
 21
7.754955425488105
 31
0.0
  0
LINE
  5
62F6
  8
DEFPOINTS
  6
CONTINUOUS
 10
1165.8178974555481
 20
7.86641292548802
 30
0.0
 11
1165.8178974555481
 21
7.754955425488105
 31
0.0
  0
LINE
  5
62F7
  8
DEFPOINTS
  6
CONTINUOUS
 10
1166.2539099555479
 20
7.86641292548802
 30
0.0
 11
1166.2539099555479
 21
7.754955425488105
 31
0.0
  0
LINE
  5
62F8
  8
DEFPOINTS
  6
CONTINUOUS
 10
1163.042149915048
 20
7.86641292548802
 30
0.0
 11
1163.042149915048
 21
7.754955425488105
 31
0.0
  0
LINE
  5
62F9
  8
DEFPOINTS
  6
CONTINUOUS
 10
1163.7686449150469
 20
7.86641292548802
 30
0.0
 11
1163.7686449150469
 21
7.754955425488105
 31
0.0
  0
LINE
  5
62FA
  8
DEFPOINTS
  6
CONTINUOUS
 10
1161.7560512055479
 20
8.0321554254879857
 30
0.0
 11
1161.7561655555471
 21
7.7335879254881092
 31
0.0
  0
LINE
  5
62FB
  8
DEFPOINTS
  6
CONTINUOUS
 10
1162.078007455548
 20
8.0321554254879857
 30
0.0
 11
1162.078007455548
 21
7.7335879254881092
 31
0.0
  0
LINE
  5
62FC
  8
DEFPOINTS
  6
CONTINUOUS
 10
1161.7561655555471
 20
7.7335879254881092
 30
0.0
 11
1161.6441305555479
 21
7.729545425488026
 31
0.0
  0
LINE
  5
62FD
  8
DEFPOINTS
  6
CONTINUOUS
 10
1162.078007455548
 20
7.7335879254881092
 30
0.0
 11
1162.078007455548
 21
7.729545425488026
 31
0.0
  0
LINE
  5
62FE
  8
DEFPOINTS
  6
CONTINUOUS
 10
1168.674501205548
 20
7.754955425488105
 30
0.0
 11
1168.674501205548
 21
7.6486954254880848
 31
0.0
  0
LINE
  5
62FF
  8
DEFPOINTS
  6
CONTINUOUS
 10
1170.3509837055481
 20
7.754955425488105
 30
0.0
 11
1170.3509837055481
 21
7.6486954254880848
 31
0.0
  0
LINE
  5
6300
  8
DEFPOINTS
  6
CONTINUOUS
 10
1163.277192415047
 20
7.754955425488105
 30
0.0
 11
1163.1875548824221
 21
7.6394554254879941
 31
0.0
  0
LINE
  5
6301
  8
DEFPOINTS
  6
CONTINUOUS
 10
1163.589042415048
 20
7.754955425488105
 30
0.0
 11
1163.770948705547
 21
7.6394554254879941
 31
0.0
  0
LINE
  5
6302
  8
DEFPOINTS
  6
CONTINUOUS
 10
1166.693387455548
 20
7.754955425488105
 30
0.0
 11
1166.693387455548
 21
7.6348354254880633
 31
0.0
  0
LINE
  5
6303
  8
DEFPOINTS
  6
CONTINUOUS
 10
1166.9630799555471
 20
7.754955425488105
 30
0.0
 11
1166.9630799555471
 21
7.6348354254880633
 31
0.0
  0
LINE
  5
6304
  8
DEFPOINTS
  6
CONTINUOUS
 10
1166.3093499555471
 20
7.754955425488105
 30
0.0
 11
1166.3093499555471
 21
7.6348354254880633
 31
0.0
  0
LINE
  5
6305
  8
DEFPOINTS
  6
CONTINUOUS
 10
1166.5871274555479
 20
7.754955425488105
 30
0.0
 11
1166.5871274555479
 21
7.6348354254880633
 31
0.0
  0
LINE
  5
6306
  8
DEFPOINTS
  6
CONTINUOUS
 10
1160.713663705548
 20
8.0321554254879857
 30
0.0
 11
1160.7136637055471
 21
7.6348354254880633
 31
0.0
  0
LINE
  5
6307
  8
DEFPOINTS
  6
CONTINUOUS
 10
1160.9966387055481
 20
8.0321554254879857
 30
0.0
 11
1160.9966387055481
 21
7.6348354254880633
 31
0.0
  0
LINE
  5
6308
  8
DEFPOINTS
  6
CONTINUOUS
 10
1160.297863705548
 20
8.0321554254879857
 30
0.0
 11
1160.297863705548
 21
7.6348354254880633
 31
0.0
  0
LINE
  5
6309
  8
DEFPOINTS
  6
CONTINUOUS
 10
1160.5860362055471
 20
8.0321554254879857
 30
0.0
 11
1160.5860362055471
 21
7.6348354254880633
 31
0.0
  0
LINE
  5
630A
  8
DEFPOINTS
  6
CONTINUOUS
 10
1161.6441305555479
 20
7.729545425488026
 30
0.0
 11
1161.673468705548
 21
7.6134679254880657
 31
0.0
  0
LINE
  5
630B
  8
DEFPOINTS
  6
CONTINUOUS
 10
1162.078007455548
 20
7.729545425488026
 30
0.0
 11
1162.078007455548
 21
7.6134679254880657
 31
0.0
  0
LINE
  5
630C
  8
DEFPOINTS
  6
CONTINUOUS
 10
1161.2640274150481
 20
8.0321554254879857
 30
0.0
 11
1161.065938705548
 21
7.6134679254880657
 31
0.0
  0
LINE
  5
630D
  8
DEFPOINTS
  6
CONTINUOUS
 10
1161.6243874150471
 20
8.0321554254879857
 30
0.0
 11
1161.426298705547
 21
7.6134679254880657
 31
0.0
  0
LINE
  5
630E
  8
DEFPOINTS
  6
CONTINUOUS
 10
1169.3426687055471
 20
7.6486954254880848
 30
0.0
 11
1169.3426687055471
 21
7.545611675487975
 31
0.0
  0
LINE
  5
630F
  8
DEFPOINTS
  6
CONTINUOUS
 10
1169.6631812055471
 20
7.6486954254880848
 30
0.0
 11
1169.6631812055471
 21
7.545611675487975
 31
0.0
  0
LINE
  5
6310
  8
DEFPOINTS
  6
CONTINUOUS
 10
1166.3093499555471
 20
7.6348354254880633
 30
0.0
 11
1166.3093499555471
 21
7.5152929254880974
 31
0.0
  0
LINE
  5
6311
  8
DEFPOINTS
  6
CONTINUOUS
 10
1166.9630799555471
 20
7.6348354254880633
 30
0.0
 11
1166.9630799555471
 21
7.5152929254880974
 31
0.0
  0
LINE
  5
6312
  8
DEFPOINTS
  6
CONTINUOUS
 10
1160.297863705548
 20
7.6348354254880633
 30
0.0
 11
1160.297863705548
 21
7.5152929254880974
 31
0.0
  0
LINE
  5
6313
  8
DEFPOINTS
  6
CONTINUOUS
 10
1160.9966387055481
 20
7.6348354254880633
 30
0.0
 11
1160.9966387055481
 21
7.5152929254880974
 31
0.0
  0
LINE
  5
6314
  8
DEFPOINTS
  6
CONTINUOUS
 10
1163.1875548824221
 20
7.6394554254879941
 30
0.0
 11
1163.045031205547
 21
7.4558104254881519
 31
0.0
  0
LINE
  5
6315
  8
DEFPOINTS
  6
CONTINUOUS
 10
1163.770948705547
 20
7.6394554254879941
 30
0.0
 11
1163.7710907333319
 21
7.4558104254881519
 31
0.0
  0
LINE
  5
6316
  8
DEFPOINTS
  6
CONTINUOUS
 10
1168.606331853048
 20
7.545611675487975
 30
0.0
 11
1168.606331853048
 21
7.4399291754879178
 31
0.0
  0
LINE
  5
6317
  8
DEFPOINTS
  6
CONTINUOUS
 10
1170.402381205547
 20
7.545611675487975
 30
0.0
 11
1170.402381205547
 21
7.4399291754879178
 31
0.0
  0
LINE
  5
6318
  8
DEFPOINTS
  6
CONTINUOUS
 10
1163.045031205547
 20
7.4558104254881519
 30
0.0
 11
1163.045049636677
 21
7.4191711712063571
 31
0.0
  0
LINE
  5
6319
  8
DEFPOINTS
  6
CONTINUOUS
 10
1163.7710907333319
 20
7.4558104254881519
 30
0.0
 11
1163.7711190694811
 21
7.4191711712063571
 31
0.0
  0
LINE
  5
631A
  8
DEFPOINTS
  6
CONTINUOUS
 10
1166.693387455548
 20
7.5152929254880974
 30
0.0
 11
1166.693387455548
 21
7.4003704254880631
 31
0.0
  0
LINE
  5
631B
  8
DEFPOINTS
  6
CONTINUOUS
 10
1166.9630799555471
 20
7.5152929254880974
 30
0.0
 11
1166.9630799555471
 21
7.4003704254880631
 31
0.0
  0
LINE
  5
631C
  8
DEFPOINTS
  6
CONTINUOUS
 10
1166.3093499555471
 20
7.5152929254880974
 30
0.0
 11
1166.3093499555471
 21
7.4003704254880631
 31
0.0
  0
LINE
  5
631D
  8
DEFPOINTS
  6
CONTINUOUS
 10
1166.587127455547
 20
7.5152929254880974
 30
0.0
 11
1166.5871274555479
 21
7.4003704254880631
 31
0.0
  0
LINE
  5
631E
  8
DEFPOINTS
  6
CONTINUOUS
 10
1161.0659387055471
 20
7.5152929254880974
 30
0.0
 11
1161.0659387055471
 21
7.3997929254881001
 31
0.0
  0
LINE
  5
631F
  8
DEFPOINTS
  6
CONTINUOUS
 10
1162.078007455548
 20
7.5152929254880974
 30
0.0
 11
1162.078007455548
 21
7.3997929254881001
 31
0.0
  0
LINE
  5
6320
  8
DEFPOINTS
  6
CONTINUOUS
 10
1163.7712057719259
 20
7.3070630331920929
 30
0.0
 11
1163.7712085227161
 21
7.3035062022942148
 31
0.0
  0
LINE
  5
6321
  8
DEFPOINTS
  6
CONTINUOUS
 10
1163.7712085227161
 20
7.3035062022942148
 30
0.0
 11
1163.765606705274
 21
7.3070630331920929
 31
0.0
  0
LINE
  5
6322
  8
DEFPOINTS
  6
CONTINUOUS
 10
1163.589042415048
 20
7.4191711712063571
 30
0.0
 11
1163.765606705274
 21
7.3070630331920929
 31
0.0
  0
LINE
  5
6323
  8
DEFPOINTS
  6
CONTINUOUS
 10
1163.7711190694811
 20
7.4191711712063571
 30
0.0
 11
1163.7712057719259
 21
7.3070630331920929
 31
0.0
  0
LINE
  5
6324
  8
DEFPOINTS
  6
CONTINUOUS
 10
1163.045049636677
 20
7.4191711712063571
 30
0.0
 11
1163.0451060319201
 21
7.3070630331920929
 31
0.0
  0
LINE
  5
6325
  8
DEFPOINTS
  6
CONTINUOUS
 10
1163.589042415048
 20
7.4191711712063571
 30
0.0
 11
1163.589042415048
 21
7.3070630331920929
 31
0.0
  0
LINE
  5
6326
  8
DEFPOINTS
  6
CONTINUOUS
 10
1163.589042415048
 20
7.3070630331920929
 30
0.0
 11
1163.589042415048
 21
7.3035062022942148
 31
0.0
  0
LINE
  5
6327
  8
DEFPOINTS
  6
CONTINUOUS
 10
1163.0451060319201
 20
7.3070630331920929
 30
0.0
 11
1163.0451078211599
 21
7.3035062022942148
 31
0.0
  0
LINE
  5
6328
  8
DEFPOINTS
  6
CONTINUOUS
 10
1167.005814955548
 20
8.1418804254880115
 30
0.0
 11
1167.005814955548
 21
7.2808279254879826
 31
0.0
  0
LINE
  5
6329
  8
DEFPOINTS
  6
CONTINUOUS
 10
1167.2662674555479
 20
8.1418804254880115
 30
0.0
 11
1167.2662674555479
 21
7.2808279254879826
 31
0.0
  0
LINE
  5
632A
  8
DEFPOINTS
  6
CONTINUOUS
 10
1166.3093499555471
 20
7.4003704254880631
 30
0.0
 11
1166.3093499555471
 21
7.2808279254879826
 31
0.0
  0
LINE
  5
632B
  8
DEFPOINTS
  6
CONTINUOUS
 10
1166.9630799555471
 20
7.4003704254880631
 30
0.0
 11
1166.9630799555471
 21
7.2808279254879826
 31
0.0
  0
LINE
  5
632C
  8
DEFPOINTS
  6
CONTINUOUS
 10
1166.3668174900481
 20
7.2808279254879826
 30
0.0
 11
1166.3648490994731
 21
7.2772553579879959
 31
0.0
  0
LINE
  5
632D
  8
DEFPOINTS
  6
CONTINUOUS
 10
1166.924846713548
 20
7.2808279254879826
 30
0.0
 11
1166.927200155641
 21
7.2772553579879959
 31
0.0
  0
LINE
  5
632E
  8
DEFPOINTS
  6
CONTINUOUS
 10
1168.6063318530471
 20
7.3564804254880301
 30
0.0
 11
1168.6063318530471
 21
7.255417925488131
 31
0.0
  0
LINE
  5
632F
  8
DEFPOINTS
  6
CONTINUOUS
 10
1170.402381205547
 20
7.3564804254880301
 30
0.0
 11
1170.402381205548
 21
7.255417925488131
 31
0.0
  0
LINE
  5
6330
  8
DEFPOINTS
  6
CONTINUOUS
 10
1167.3374993400471
 20
8.1418804254880115
 30
0.0
 11
1167.3374993400471
 21
7.1254804254879209
 31
0.0
  0
LINE
  5
6331
  8
DEFPOINTS
  6
CONTINUOUS
 10
1167.615276840048
 20
8.1418804254880115
 30
0.0
 11
1167.615276840048
 21
7.1254804254879209
 31
0.0
  0
LINE
  5
6332
  8
DEFPOINTS
  6
CONTINUOUS
 10
1164.5032249150479
 20
8.0321554254879857
 30
0.0
 11
1164.503224915047
 21
7.1254804254879209
 31
0.0
  0
LINE
  5
6333
  8
DEFPOINTS
  6
CONTINUOUS
 10
1164.836442415047
 20
8.0321554254879857
 30
0.0
 11
1164.836442415047
 21
7.1254804254879209
 31
0.0
  0
LINE
  5
6334
  8
DEFPOINTS
  6
CONTINUOUS
 10
1163.8327474150481
 20
8.0321554254879857
 30
0.0
 11
1163.8327474150481
 21
7.1254804254879209
 31
0.0
  0
LINE
  5
6335
  8
DEFPOINTS
  6
CONTINUOUS
 10
1164.157302415048
 20
8.0321554254879857
 30
0.0
 11
1164.157302415048
 21
7.1254804254879209
 31
0.0
  0
LINE
  5
6336
  8
DEFPOINTS
  6
CONTINUOUS
 10
1161.7560512055479
 20
7.3997929254881001
 30
0.0
 11
1161.7560512055479
 21
7.1254804254879209
 31
0.0
  0
LINE
  5
6337
  8
DEFPOINTS
  6
CONTINUOUS
 10
1162.078007455548
 20
7.3997929254881001
 30
0.0
 11
1162.078007455548
 21
7.1254804254879209
 31
0.0
  0
LINE
  5
6338
  8
DEFPOINTS
  6
CONTINUOUS
 10
1161.0659387055471
 20
7.3997929254881001
 30
0.0
 11
1161.0659387055471
 21
7.1254804254879209
 31
0.0
  0
LINE
  5
6339
  8
DEFPOINTS
  6
CONTINUOUS
 10
1161.396557455548
 20
7.3997929254881001
 30
0.0
 11
1161.396557455548
 21
7.1254804254879209
 31
0.0
  0
LINE
  5
633A
  8
DEFPOINTS
  6
CONTINUOUS
 10
1160.7136637055471
 20
7.5152929254880974
 30
0.0
 11
1160.7136637055471
 21
7.1254804254879209
 31
0.0
  0
LINE
  5
633B
  8
DEFPOINTS
  6
CONTINUOUS
 10
1160.9966387055481
 20
7.5152929254880974
 30
0.0
 11
1160.9966387055481
 21
7.1254804254879209
 31
0.0
  0
LINE
  5
633C
  8
DEFPOINTS
  6
CONTINUOUS
 10
1160.297863705548
 20
7.5152929254880974
 30
0.0
 11
1160.297863705548
 21
7.1254804254879209
 31
0.0
  0
LINE
  5
633D
  8
DEFPOINTS
  6
CONTINUOUS
 10
1160.586036205548
 20
7.5152929254880974
 30
0.0
 11
1160.586036205548
 21
7.1254804254879209
 31
0.0
  0
LINE
  5
633E
  8
DEFPOINTS
  6
CONTINUOUS
 10
1163.1194622871039
 20
7.1038241754880573
 30
0.0
 11
1163.045256368848
 21
7.008208161871039
 31
0.0
  0
LINE
  5
633F
  8
DEFPOINTS
  6
CONTINUOUS
 10
1163.045256368848
 20
7.008208161871039
 30
0.0
 11
1163.0452082698571
 21
7.1038241754880573
 31
0.0
  0
LINE
  5
6340
  8
DEFPOINTS
  6
CONTINUOUS
 10
1170.081868705548
 20
7.255417925488131
 30
0.0
 11
1170.0818687055471
 21
7.1038241754880573
 31
0.0
  0
LINE
  5
6341
  8
DEFPOINTS
  6
CONTINUOUS
 10
1170.402381205548
 20
7.255417925488131
 30
0.0
 11
1170.402381205548
 21
7.1038241754880573
 31
0.0
  0
LINE
  5
6342
  8
DEFPOINTS
  6
CONTINUOUS
 10
1169.3426687055471
 20
7.255417925488131
 30
0.0
 11
1169.342668705548
 21
7.1038241754880573
 31
0.0
  0
LINE
  5
6343
  8
DEFPOINTS
  6
CONTINUOUS
 10
1169.6631812055471
 20
7.255417925488131
 30
0.0
 11
1169.6631812055471
 21
7.1038241754880573
 31
0.0
  0
LINE
  5
6344
  8
DEFPOINTS
  6
CONTINUOUS
 10
1168.6063318530471
 20
7.255417925488131
 30
0.0
 11
1168.6063318530471
 21
7.1038241754880573
 31
0.0
  0
LINE
  5
6345
  8
DEFPOINTS
  6
CONTINUOUS
 10
1168.9286012055479
 20
7.255417925488131
 30
0.0
 11
1168.928601205547
 21
7.1038241754880573
 31
0.0
  0
LINE
  5
6346
  8
DEFPOINTS
  6
CONTINUOUS
 10
1163.0451078211599
 20
7.3035062022942148
 30
0.0
 11
1163.0452082698571
 21
7.1038241754880573
 31
0.0
  0
LINE
  5
6347
  8
DEFPOINTS
  6
CONTINUOUS
 10
1163.2744320207059
 20
7.3035062022942148
 30
0.0
 11
1163.1194622871039
 21
7.1038241754880573
 31
0.0
  0
LINE
  5
6348
  8
DEFPOINTS
  6
CONTINUOUS
 10
1168.6063318530471
 20
7.1038241754880573
 30
0.0
 11
1168.6063318530471
 21
7.0042054254880659
 31
0.0
  0
LINE
  5
6349
  8
DEFPOINTS
  6
CONTINUOUS
 10
1170.402381205548
 20
7.1038241754880573
 30
0.0
 11
1170.402381205548
 21
7.0042054254880659
 31
0.0
  0
LINE
  5
634A
  8
DEFPOINTS
  6
CONTINUOUS
 10
1167.2066315865479
 20
7.1254804254879209
 30
0.0
 11
1167.2499724885481
 21
7.0042054254880659
 31
0.0
  0
LINE
  5
634B
  8
DEFPOINTS
  6
CONTINUOUS
 10
1167.615276840048
 20
7.1254804254879209
 30
0.0
 11
1167.615276840048
 21
7.0042054254880659
 31
0.0
  0
LINE
  5
634C
  8
DEFPOINTS
  6
CONTINUOUS
 10
1166.6393018400479
 20
7.2772553579879959
 30
0.0
 11
1166.8191744955479
 21
7.0042054254880659
 31
0.0
  0
LINE
  5
634D
  8
DEFPOINTS
  6
CONTINUOUS
 10
1166.927200155641
 20
7.2772553579879959
 30
0.0
 11
1167.1070728115481
 21
7.0042054254880659
 31
0.0
  0
LINE
  5
634E
  8
DEFPOINTS
  6
CONTINUOUS
 10
1166.3648490994731
 20
7.2772553579879959
 30
0.0
 11
1166.2144057800469
 21
7.0042054254880659
 31
0.0
  0
LINE
  5
634F
  8
DEFPOINTS
  6
CONTINUOUS
 10
1166.6393018400479
 20
7.2772553579879959
 30
0.0
 11
1166.488858520835
 21
7.0042054254880659
 31
0.0
  0
LINE
  5
6350
  8
DEFPOINTS
  6
CONTINUOUS
 10
1165.9675045865481
 20
7.5586054254881674
 30
0.0
 11
1165.8178974555481
 21
7.0042054254880659
 31
0.0
  0
LINE
  5
6351
  8
DEFPOINTS
  6
CONTINUOUS
 10
1166.253909955547
 20
7.5586054254881674
 30
0.0
 11
1166.1043028240481
 21
7.0042054254880659
 31
0.0
  0
LINE
  5
6352
  8
DEFPOINTS
  6
CONTINUOUS
 10
1163.8327474150481
 20
7.1254804254879209
 30
0.0
 11
1163.8327474150481
 21
7.0042054254880659
 31
0.0
  0
LINE
  5
6353
  8
DEFPOINTS
  6
CONTINUOUS
 10
1164.836442415047
 20
7.1254804254879209
 30
0.0
 11
1164.836442415047
 21
7.0042054254880659
 31
0.0
  0
LINE
  5
6354
  8
DEFPOINTS
  6
CONTINUOUS
 10
1163.277192415047
 20
7.3035062022942148
 30
0.0
 11
1163.2771924150479
 21
7.0042054254880659
 31
0.0
  0
LINE
  5
6355
  8
DEFPOINTS
  6
CONTINUOUS
 10
1163.589042415048
 20
7.3035062022942148
 30
0.0
 11
1163.5890424150471
 21
7.0042054254880659
 31
0.0
  0
LINE
  5
6356
  8
DEFPOINTS
  6
CONTINUOUS
 10
1161.0659387055471
 20
7.1254804254879209
 30
0.0
 11
1161.0659387055471
 21
7.0042054254880659
 31
0.0
  0
LINE
  5
6357
  8
DEFPOINTS
  6
CONTINUOUS
 10
1162.078007455548
 20
7.1254804254879209
 30
0.0
 11
1162.078007455548
 21
7.0042054254880659
 31
0.0
  0
LINE
  5
6358
  8
DEFPOINTS
  6
CONTINUOUS
 10
1160.297863705548
 20
7.1254804254879209
 30
0.0
 11
1160.297863705548
 21
7.0042054254880659
 31
0.0
  0
LINE
  5
6359
  8
DEFPOINTS
  6
CONTINUOUS
 10
1160.9966387055481
 20
7.1254804254879209
 30
0.0
 11
1160.9966387055481
 21
7.0042054254880659
 31
0.0
  0
ENDBLK
  5
635B
  8
0
  0
BLOCK
  8
0
  2
*U22
 70
     1
 10
0.0
 20
0.0
 30
0.0
  3
*U22
  1

  0
TEXT
  5
6362
  8
003注釈
 10
1167.0928571428569
 20
18.333333333333218
 30
0.0
 40
1.0
  1
2017.
 41
0.9
  0
TEXT
  5
6363
  8
003注釈
 10
1167.071428571428
 20
16.666666666666551
 30
0.0
 40
1.0
  1
07.10
 41
0.9
  0
ENDBLK
  5
6365
  8
0
  0
BLOCK
  8
0
  2
*U23
 70
     1
 10
0.0
 20
0.0
 30
0.0
  3
*U23
  1

  0
TEXT
  5
6367
  8
003注釈
 10
1134.5571428571429
 20
11.749999999999879
 30
0.0
 40
1.5
  1
2  1
 41
0.9
  0
ENDBLK
  5
6369
  8
0
  0
BLOCK
  8
0
  2
*U24
 70
     1
 10
0.0
 20
0.0
 30
0.0
  3
*U24
  1

  0
TEXT
  5
636B
  8
003注釈
 10
1167.5599999999999
 20
11.749999999999879
 30
0.0
 40
1.5
  1
益子
 41
0.9
  0
ENDBLK
  5
636D
  8
0
  0
BLOCK
  8
0
  2
*U25
 70
     1
 10
0.0
 20
0.0
 30
0.0
  3
*U25
  1

  0
TEXT
  5
636F
  8
003注釈
 10
1174.8071428571429
 20
38.5
 30
0.0
 40
1.5
  1
5,10,20,50,100 N
 41
0.9
  0
ENDBLK
  5
6371
  8
0
  0
BLOCK
  8
0
  2
*U26
 70
     1
 10
0.0
 20
0.0
 30
0.0
  3
*U26
  1

  0
TEXT
  5
6373
  8
003注釈
 10
1175.0
 20
16.99999999999995
 30
0.0
 40
1.5
  1
外観図
 41
0.9
  0
ENDBLK
  5
6375
  8
0
  0
BLOCK
  8
0
  2
*U27
 70
     1
 10
0.0
 20
0.0
 30
0.0
  3
*U27
  1

  0
TEXT
  5
6377
  8
003注釈
 10
1174.8071428571429
 20
6.0
 30
0.0
 40
1.5
  1
S-0003-A001
 41
0.9
  0
ENDBLK
  5
6379
  8
0
  0
BLOCK
  8
0
  2
*U28
 70
     1
 10
0.0
 20
0.0
 30
0.0
  3
*U28
  1

  0
TEXT
  5
637B
  8
003注釈
 10
1174.742857142857
 20
11.49999999999995
 30
0.0
 40
1.5
  1
MR-□N
 41
0.9
  0
ENDBLK
  5
637D
  8
0
  0
BLOCK
  8
0
  2
*U29
 70
     1
 10
0.0
 20
0.0
 30
0.0
  3
*U29
  1

  0
TEXT
  5
6382
  8
002寸法
 62
     2
 10
1132.25
 20
70.642857142857338
 30
0.0
 40
1.5
  1
4.5
 50
90.0
 41
0.9
  0
ENDBLK
  5
6384
  8
0
  0
BLOCK
  8
0
  2
*U30
 70
     1
 10
0.0
 20
0.0
 30
0.0
  3
*U30
  1

  0
TEXT
  5
6391
  8
002寸法
 62
     2
 10
1127.25
 20
71.142857142857338
 30
0.0
 40
1.5
  1
5.5
 50
90.0
 41
0.9
  0
ENDBLK
  5
6393
  8
0
  0
BLOCK
  8
0
  2
*U31
 70
     1
 10
0.0
 20
0.0
 30
0.0
  3
*U31
  1

  0
TEXT
  5
6395
  8
002寸法
 62
     2
 10
1147.8657142857139
 20
80.750000000000014
 30
0.0
 40
1.5
  1
\U+03C610
 41
0.9
  0
ENDBLK
  5
6397
  8
0
  0
BLOCK
  8
0
  2
*U32
 70
     1
 10
0.0
 20
0.0
 30
0.0
  3
*U32
  1

  0
TEXT
  5
6399
  8
002寸法
 62
     2
 10
1147.8657142857139
 20
62.75
 30
0.0
 40
1.5
  1
\U+03C625
 41
0.9
  0
ENDBLK
  5
639B
  8
0
  0
ENDSEC
  0
SECTION
  2
ENTITIES
  0
POLYLINE
  5
597E
  8
DEFPOINTS
 66
     1
 10
0.0
 20
0.0
 30
0.0
 70
     1
  0
VERTEX
  5
624B
  8
DEFPOINTS
 10
1100.0
 20
0.0
 30
0.0
  0
VERTEX
  5
624C
  8
DEFPOINTS
 10
1205.0
 20
0.0
 30
0.0
  0
VERTEX
  5
624D
  8
DEFPOINTS
 10
1205.0
 20
148.5
 30
0.0
  0
VERTEX
  5
624E
  8
DEFPOINTS
 10
1100.0
 20
148.5
 30
0.0
  0
SEQEND
  5
624F
  8
DEFPOINTS
  0
POLYLINE
  5
597F
  8
DEFPOINTS
 66
     1
 10
0.0
 20
0.0
 30
0.0
 70
     1
  0
VERTEX
  5
6250
  8
DEFPOINTS
 10
1112.5
 20
5.0
 30
0.0
  0
VERTEX
  5
6251
  8
DEFPOINTS
 10
1200.0
 20
5.0
 30
0.0
  0
VERTEX
  5
6252
  8
DEFPOINTS
 10
1200.0
 20
143.5
 30
0.0
  0
VERTEX
  5
6253
  8
DEFPOINTS
 10
1112.5
 20
143.5
 30
0.0
  0
SEQEND
  5
6254
  8
DEFPOINTS
  0
TEXT
  5
5980
  8
DEFPOINTS
 10
1141.837421230332
 20
6.1667102523500708
 30
0.0
 40
3.75
  1
Ａ４
 41
0.7222222220000001
  7
表題
  0
TEXT
  5
5981
  8
DEFPOINTS
 10
1165.1923280618209
 20
14.749999999999879
 30
0.0
 40
1.0
  1
製図
  7
表題
 72
     2
 11
1167.831503319552
 21
14.749999999999879
 31
0.0
  0
INSERT
  5
5982
  8
DEFPOINTS
  6
CONTINUOUS
  2
*U21
 10
0.0
 20
0.0
 30
0.0
1001
ACAD
1002
{
1000
R14_HATCH_DATA
1000
5982
1011
1.0
1021
-0.0
1031
-0.0
1021
0.0
1031
0.0
1011
0.0
1021
-0.0
1031
-0.0
1021
1.0
1031
0.0
1011
0.0
1021
-0.0
1031
-0.0
1021
0.0
1031
1.0
1040
0.0
1010
0.0
1020
0.0
1030
1.0
1000
SOLID,_O
1070
     1
1070
     0
1071
       25
1071
        7
1070
     0
1070
     1
1071
        4
1040
1160.9966387055481
1040
8.1418804254881252
1040
1160.297863705548
1040
8.1418804254881252
1040
1160.297863705548
1040
7.0042054254880659
1040
1160.9966387055481
1040
7.0042054254880659
1071
        0
1071
       22
1070
     0
1070
     1
1071
        4
1040
1160.7136637055471
1040
7.5152929254880974
1040
1160.7136637055471
1040
7.1254804254880346
1040
1160.586036205548
1040
7.1254804254880346
1040
1160.586036205548
1040
7.5152929254880974
1071
        0
1071
       22
1070
     0
1070
     1
1071
        4
1040
1160.7136637055471
1040
7.6348354254880633
1040
1160.5860362055471
1040
7.6348354254880633
1040
1160.5860362055471
1040
8.0321554254879857
1040
1160.713663705548
1040
8.0321554254880994
1071
        0
1071
        7
1070
     0
1070
     1
1071
        4
1040
1162.078007455548
1040
7.5152929254880974
1040
1161.0659387055471
1040
7.5152929254880974
1040
1161.0659387055471
1040
7.0042054254880659
1040
1162.078007455548
1040
7.0042054254880659
1071
        0
1071
       22
1070
     0
1070
     1
1071
        4
1040
1161.396557455548
1040
7.3997929254881001
1040
1161.7560512055479
1040
7.3997929254881001
1040
1161.7560512055479
1040
7.1254804254880346
1040
1161.396557455548
1040
7.1254804254880346
1071
        0
1071
        7
1070
     0
1070
     1
1071
       12
1040
1161.6243874150471
1040
8.0321554254879857
1040
1161.7560512055479
1040
8.0321554254879857
1040
1161.7561655555471
1040
7.7335879254881092
1040
1161.6441305555479
1040
7.729545425488026
1040
1161.673468705548
1040
7.6134679254881803
1040
1162.078007455548
1040
7.6134679254880657
1040
1162.078007455548
1040
8.1418804254881252
1040
1161.0659387055471
1040
8.1418804254881252
1040
1161.0659387055471
1040
8.0321554254880994
1040
1161.2640274150481
1040
8.0321554254879857
1040
1161.065938705548
1040
7.6134679254880657
1040
1161.426298705547
1040
7.6134679254881803
1071
        0
1071
        7
1070
     0
1070
     1
1071
       22
1040
1163.770948705547
1040
7.6394554254879941
1040
1163.589042415048
1040
7.754955425488105
1040
1163.7686449150469
1040
7.754955425488105
1040
1163.7686449150469
1040
7.86641292548802
1040
1163.589042415048
1040
7.86641292548802
1040
1163.589042415048
1040
8.0321554254880994
1040
1163.7686449150481
1040
8.0321554254879857
1040
1163.7686449150469
1040
8.1418804254881252
1040
1163.042149915048
1040
8.1418804254881252
1040
1163.042149915048
1040
8.0321554254879857
1040
1163.277192415047
1040
8.0321554254880994
1040
1163.2771924150479
1040
7.86641292548802
1040
1163.042149915048
1040
7.86641292548802
1040
1163.042149915048
1040
7.754955425488105
1040
1163.277192415047
1040
7.754955425488105
1040
1163.045031205547
1040
7.4558104254881519
1040
1163.045256368848
1040
7.008208161871039
1040
1163.277192415047
1040
7.3070630331920929
1040
1163.2771924150479
1040
7.0042054254880659
1040
1163.5890424150471
1040
7.0042054254880659
1040
1163.589042415048
1040
7.4191711712063571
1040
1163.7712085227161
1040
7.3035062022942148
1071
        0
1071
        7
1070
     0
1070
     1
1071
        4
1040
1164.836442415047
1040
8.1418804254881252
1040
1163.8327474150481
1040
8.1418804254881252
1040
1163.8327474150481
1040
7.0042054254880659
1040
1164.836442415047
1040
7.0042054254880659
1071
        0
1071
       22
1070
     0
1070
     1
1071
        4
1040
1164.157302415048
1040
8.0321554254879857
1040
1164.5032249150479
1040
8.0321554254879857
1040
1164.503224915047
1040
7.1254804254881492
1040
1164.157302415048
1040
7.1254804254879209
1071
        0
1071
        7
1070
     0
1070
     1
1071
        4
1040
1166.2539099555479
1040
8.1418804254880115
1040
1165.8178974555469
1040
8.1418804254880115
1040
1165.8178974555481
1040
8.0321554254880994
1040
1166.2539099555479
1040
8.0321554254879857
1071
        0
1071
        7
1070
     0
1070
     1
1071
        4
1040
1166.2539099555479
1040
7.86641292548802
1040
1165.8178974555481
1040
7.86641292548802
1040
1165.8178974555481
1040
7.754955425488105
1040
1166.2539099555479
1040
7.754955425488105
1071
        0
1071
        7
1070
     0
1070
     1
1071
        4
1040
1166.253909955547
1040
7.5586054254881674
1040
1165.9675045865481
1040
7.5586054254881674
1040
1165.8178974555481
1040
7.0042054254880659
1040
1166.1043028240481
1040
7.0042054254880659
1071
        0
1071
        7
1070
     0
1070
     1
1071
       11
1040
1166.9630799555471
1040
8.1418804254881252
1040
1166.3093499555471
1040
8.1418804254881252
1040
1166.3093499555471
1040
7.2808279254879826
1040
1166.3668174900481
1040
7.2808279254879826
1040
1166.2144057800469
1040
7.0042054254880659
1040
1166.488858520835
1040
7.0042054254880659
1040
1166.6393018400479
1040
7.2772553579879959
1040
1166.8191744955479
1040
7.0042054254880659
1040
1167.1070728115481
1040
7.0042054254880659
1040
1166.924846713548
1040
7.2808279254879826
1040
1166.9630799555471
1040
7.2808279254879826
1071
        0
1071
       22
1070
     0
1070
     1
1071
        4
1040
1166.587127455547
1040
7.5152929254880974
1040
1166.693387455548
1040
7.5152929254880974
1040
1166.693387455548
1040
7.4003704254880631
1040
1166.5871274555479
1040
7.4003704254881759
1071
        0
1071
       22
1070
     0
1070
     1
1071
        4
1040
1166.5871274555479
1040
7.6348354254880633
1040
1166.5871274555479
1040
7.754955425488105
1040
1166.693387455548
1040
7.754955425488105
1040
1166.693387455548
1040
7.6348354254880633
1071
        0
1071
       22
1070
     0
1070
     1
1071
        4
1040
1166.5871274555479
1040
7.8664129254881336
1040
1166.587127455547
1040
8.0321554254880994
1040
1166.693387455548
1040
8.0321554254879857
1040
1166.693387455548
1040
7.86641292548802
1071
        0
1071
        7
1070
     0
1070
     1
1071
        4
1040
1167.2662674555479
1040
8.1418804254881252
1040
1167.005814955548
1040
8.1418804254881252
1040
1167.005814955548
1040
7.2808279254879826
1040
1167.2662674555479
1040
7.2808279254879826
1071
        0
1071
        7
1070
     0
1070
     1
1071
        6
1040
1167.615276840048
1040
8.1418804254881252
1040
1167.3374993400471
1040
8.1418804254881252
1040
1167.3374993400471
1040
7.1254804254879209
1040
1167.2066315865479
1040
7.1254804254879209
1040
1167.2499724885481
1040
7.0042054254880659
1040
1167.615276840048
1040
7.0042054254880659
1071
        0
1071
        7
1070
     0
1070
     1
1071
        4
1040
1170.402381205547
1040
7.3564804254881428
1040
1168.6063318530471
1040
7.3564804254880301
1040
1168.6063318530471
1040
7.0042054254880659
1040
1170.402381205548
1040
7.0042054254880659
1071
        0
1071
       22
1070
     0
1070
     1
1071
        4
1040
1169.6631812055471
1040
7.2554179254882447
1040
1170.081868705548
1040
7.2554179254882447
1040
1170.0818687055471
1040
7.1038241754880573
1040
1169.6631812055471
1040
7.1038241754880573
1071
        0
1071
       22
1070
     0
1070
     1
1071
        4
1040
1169.342668705548
1040
7.1038241754880573
1040
1168.928601205547
1040
7.1038241754880573
1040
1168.9286012055479
1040
7.255417925488131
1040
1169.3426687055471
1040
7.255417925488131
1071
        0
1071
        7
1070
     0
1070
     1
1071
       12
1040
1170.402381205547
1040
7.545611675487975
1040
1169.6631812055471
1040
7.545611675487975
1040
1169.6631812055471
1040
7.6486954254880848
1040
1170.3509837055481
1040
7.6486954254880848
1040
1170.3509837055481
1040
7.754955425488105
1040
1168.674501205548
1040
7.754955425488105
1040
1168.674501205548
1040
7.6486954254880848
1040
1169.3426687055471
1040
7.6486954254880848
1040
1169.3426687055471
1040
7.545611675487975
1040
1168.606331853048
1040
7.545611675487975
1040
1168.606331853048
1040
7.4399291754879178
1040
1170.402381205547
1040
7.4399291754879178
1071
        0
1071
        7
1070
     0
1070
     1
1071
        4
1040
1170.3509837055481
1040
8.1418804254881252
1040
1168.674501205548
1040
8.1418804254881252
1040
1168.674501205548
1040
7.8170366754881107
1040
1170.3509837055481
1040
7.8170366754881107
1071
        0
1071
       22
1070
     0
1070
     1
1071
        4
1040
1169.663181205548
1040
7.9296491754880662
1040
1169.6631812055471
1040
8.0321554254879857
1040
1170.0091037055479
1040
8.0321554254879857
1040
1170.0091037055479
1040
7.9296491754880662
1071
        0
1071
       22
1070
     0
1070
     1
1071
        4
1040
1169.3426687055471
1040
7.9296491754880662
1040
1169.0140712055479
1040
7.9296491754880662
1040
1169.0140712055479
1040
8.0321554254880994
1040
1169.3426687055471
1040
8.0321554254880994
1071
        0
1070
     1
1070
     1
1040
0.0129395892018505
1071
       25
1040
1160.8426640284611
1040
7.5528824120309528
1040
0.0
1040
1160.8426640284611
1040
7.5528824120309528
1040
0.0
1040
1160.8426640284611
1040
7.5528824120309528
1040
0.0
1040
1161.2419338662339
1040
7.3200340964217503
1040
0.0
1040
1161.2419338662339
1040
7.3200340964217503
1040
0.0
1040
1161.225294553464
1040
7.7857347515636093
1040
0.0
1040
1163.504448213205
1040
7.536251539179716
1040
0.0
1040
1164.036807996903
1040
7.536251539179716
1040
0.0
1040
1164.036807996903
1040
7.536251539179716
1040
0.0
1040
1166.075128722651
1040
8.105926335044046
1040
0.0
1040
1166.095613543657
1040
7.7987159264529282
1040
0.0
1040
1166.054638990395
1040
7.3413126000843931
1040
0.0
1040
1166.4097223178369
1040
7.4846769209037802
1040
0.0
1040
1166.4097223178369
1040
7.4846769209037802
1040
0.0
1040
1166.4097223178369
1040
7.4846769209037802
1040
0.0
1040
1166.4097223178369
1040
7.4846769209037802
1040
0.0
1040
1167.1745167991551
1040
7.6485230086753973
1040
0.0
1040
1167.5364267631819
1040
7.6826579456209174
1040
0.0
1040
1169.543477564368
1040
7.2029661109714871
1040
0.0
1040
1169.543477564368
1040
7.2029661109714871
1040
0.0
1040
1169.543477564368
1040
7.2029661109714871
1040
0.0
1040
1169.497493536777
1040
7.535414563241261
1040
0.0
1040
1169.52225605596
1040
7.9103073529985286
1040
0.0
1040
1169.52225605596
1040
7.9103073529985286
1040
0.0
1040
1169.52225605596
1040
7.9103073529985286
1040
0.0
1002
}
  0
TEXT
  5
5983
  8
DEFPOINTS
 10
1165.1565842186551
 20
20.24999999999989
 30
0.0
 40
1.0
  1
作成日付
  7
表題
 72
     1
 11
1167.795759476387
 21
20.24999999999989
 31
0.0
  0
LINE
  5
5984
  8
DEFPOINTS
 10
1133.0
 20
21.49999999999989
 30
0.0
 11
1200.0
 21
21.5
 31
0.0
  0
LINE
  5
5985
  8
DEFPOINTS
 10
1133.0
 20
10.499999999999879
 30
0.0
 11
1200.0
 21
10.5
 31
0.0
  0
LINE
  5
5986
  8
DEFPOINTS
 10
1133.0
 20
15.999999999999879
 30
0.0
 11
1200.0
 21
16.0
 31
0.0
  0
LINE
  5
5987
  8
DEFPOINTS
 10
1112.5
 20
29.5
 30
0.0
 11
1200.0
 21
29.5
 31
0.0
  0
LINE
  5
5988
  8
DEFPOINTS
 10
1112.5
 20
25.5
 30
0.0
 11
1200.0
 21
25.5
 31
0.0
  0
POLYLINE
  5
5989
  8
DEFPOINTS
 66
     1
 10
0.0
 20
0.0
 30
0.0
 70
     1
  0
VERTEX
  5
635C
  8
DEFPOINTS
 10
1112.5
 20
33.5
 30
0.0
  0
VERTEX
  5
635D
  8
DEFPOINTS
 10
1200.0
 20
33.5
 30
0.0
  0
VERTEX
  5
635E
  8
DEFPOINTS
 10
1200.0
 20
5.0
 30
0.0
  0
VERTEX
  5
635F
  8
DEFPOINTS
 10
1112.5
 20
5.0
 30
0.0
  0
SEQEND
  5
6360
  8
DEFPOINTS
  0
TEXT
  5
598A
  8
DEFPOINTS
 10
1133.508453382432
 20
20.24999999999989
 30
0.0
 40
1.0
  1
熱処理
  7
表題
 72
     2
 11
1137.4672162690299
 21
20.24999999999989
 31
0.0
  0
TEXT
  5
598B
  8
DEFPOINTS
 10
1132.25
 20
30.180412371133912
 30
0.0
 40
1.0
  1
承認
 50
90.0
  7
表題
 72
     1
 11
1132.25
 21
31.49999999999989
 31
0.0
  0
TEXT
  5
598C
  8
DEFPOINTS
 10
1132.25
 20
26.180412371133912
 30
0.0
 40
1.0
  1
氏名
 50
90.0
  7
表題
 72
     1
 11
1132.25
 21
27.49999999999989
 31
0.0
  0
TEXT
  5
598D
  8
DEFPOINTS
 10
1133.365335051546
 20
14.72644120111465
 30
0.0
 40
1.0
  1
尺度
  7
表題
 72
     2
 11
1136.004510309278
 21
14.72644120111465
 31
0.0
  0
TEXT
  5
598E
  8
DEFPOINTS
 10
1132.25
 20
5.3808857190450592
 30
0.0
 40
1.0
  1
記号
 50
90.0
  7
表題
 72
     2
 11
1132.25
 21
8.0200609767770175
 31
0.0
  0
TEXT
  5
598F
  8
DEFPOINTS
 10
1132.25
 20
9.3814432989689571
 30
0.0
 40
1.0
  1
来歴　改訂記事
 50
90.0
  7
表題
 72
     1
 11
1132.25
 21
13.99999999999989
 31
0.0
  0
TEXT
  5
5990
  8
DEFPOINTS
 10
1132.25
 20
20.08247422680401
 30
0.0
 40
1.0
  1
年 月 日
 50
90.0
  7
表題
 72
     1
 11
1132.25
 21
22.49999999999989
 31
0.0
  0
LINE
  5
5991
  8
DEFPOINTS
 10
1133.0
 20
33.5
 30
0.0
 11
1133.0
 21
5.0
 31
0.0
  0
LINE
  5
5992
  8
DEFPOINTS
 10
1130.0
 20
33.5
 30
0.0
 11
1130.0
 21
5.0
 31
0.0
  0
LINE
  5
5993
  8
DEFPOINTS
 10
1123.0
 20
33.5
 30
0.0
 11
1123.0
 21
5.0
 31
0.0
  0
LINE
  5
5994
  8
DEFPOINTS
 10
1126.5
 20
33.5
 30
0.0
 11
1126.5
 21
5.0
 31
0.0
  0
LINE
  5
5995
  8
DEFPOINTS
 10
1119.5
 20
33.5
 30
0.0
 11
1119.5
 21
5.0
 31
0.0
  0
LINE
  5
5996
  8
DEFPOINTS
 10
1116.0
 20
33.5
 30
0.0
 11
1116.0
 21
5.0
 31
0.0
  0
LINE
  5
5997
  8
DEFPOINTS
 10
1112.5
 20
19.5
 30
0.0
 11
1133.0
 21
19.5
 31
0.0
  0
LINE
  5
5998
  8
DEFPOINTS
 10
1112.5
 20
8.5
 30
0.0
 11
1133.0
 21
8.5
 31
0.0
  0
LINE
  5
5999
  8
DEFPOINTS
 10
1156.0
 20
33.5
 30
0.0
 11
1156.0
 21
21.49999999999989
 31
0.0
  0
LINE
  5
599A
  8
DEFPOINTS
 10
1157.0
 20
21.499999999999929
 30
0.0
 11
1157.0
 21
10.5
 31
0.0
  0
TEXT
  5
599B
  8
DEFPOINTS
 10
1157.3961860569309
 20
14.749999999999879
 30
0.0
 40
1.0
  1
設計
  7
表題
 72
     2
 11
1160.0353613146631
 21
14.749999999999879
 31
0.0
  0
TEXT
  5
599C
  8
DEFPOINTS
 10
1153.9557032475241
 20
7.079509847620101
 30
0.0
 40
1.25
  1
株式会社
  0
TEXT
  5
599D
  8
DEFPOINTS
 10
1157.180412371134
 20
20.24999999999989
 30
0.0
 40
1.0
  1
台数
  7
表題
 72
     1
 11
1158.5
 21
20.24999999999989
 31
0.0
  0
LINE
  5
599E
  8
DEFPOINTS
 10
1165.0
 20
21.49999999999989
 30
0.0
 11
1165.0
 21
10.499999999999879
 31
0.0
  0
LINE
  5
599F
  8
DEFPOINTS
 10
1138.0
 20
33.5
 30
0.0
 11
1138.0
 21
21.49999999999989
 31
0.0
  0
TEXT
  5
59A0
  8
DEFPOINTS
 10
1141.180412371134
 20
14.749999999999879
 30
0.0
 40
1.0
  1
承認
  7
表題
 72
     1
 11
1142.5
 21
14.749999999999879
 31
0.0
  0
LINE
  5
59A1
  8
DEFPOINTS
 10
1141.0
 20
16.0
 30
0.0
 11
1141.0
 21
5.0
 31
0.0
  0
LINE
  5
59A2
  8
DEFPOINTS
 10
1149.0
 20
16.0
 30
0.0
 11
1149.0
 21
5.0
 31
0.0
  0
TEXT
  5
59A3
  8
DEFPOINTS
 10
1145.317452935665
 20
20.24999999999989
 30
0.0
 40
1.0
  1
表面処理
  7
表題
 72
     2
 11
1150.5958034511291
 21
20.24999999999989
 31
0.0
  0
LINE
  5
59A4
  8
DEFPOINTS
 10
1145.0
 20
21.49999999999989
 30
0.0
 11
1145.0
 21
16.0
 31
0.0
  0
TEXT
  5
59A5
  8
DEFPOINTS
 10
1149.2659515250391
 20
14.749999999999879
 30
0.0
 40
1.0
  1
検図
  7
表題
 72
     2
 11
1151.905126782771
 21
14.749999999999879
 31
0.0
  0
LINE
  5
59A6
  8
DEFPOINTS
 10
1177.5
 20
33.5
 30
0.0
 11
1177.5
 21
21.49999999999989
 31
0.0
  0
LINE
  5
59A7
  8
DEFPOINTS
 10
1182.5
 20
33.5
 30
0.0
 11
1182.5
 21
21.49999999999989
 31
0.0
  0
LINE
  5
59A8
  8
DEFPOINTS
 10
1172.5
 20
33.5
 30
0.0
 11
1172.5
 21
21.49999999999989
 31
0.0
  0
LINE
  5
59A9
  8
DEFPOINTS
 10
1167.5
 20
33.5
 30
0.0
 11
1167.5
 21
21.49999999999989
 31
0.0
  0
LINE
  5
59AA
  8
DEFPOINTS
 10
1173.0
 20
21.499999999999961
 30
0.0
 11
1173.0
 21
5.0
 31
0.0
  0
TEXT
  5
59AB
  8
DEFPOINTS
 10
1173.4750526602879
 20
9.2499999999998863
 30
0.0
 40
1.0
  1
図面番号
  7
表題
 72
     2
 11
1178.7534031757521
 21
9.2499999999998863
 31
0.0
  0
TEXT
  5
59AC
  8
DEFPOINTS
 10
1173.38804448835
 20
20.24999999999989
 30
0.0
 40
1.0
  1
名称
  7
表題
 72
     2
 11
1176.0272197460829
 21
20.24999999999989
 31
0.0
  0
TEXT
  5
59AD
  8
DEFPOINTS
 10
1134.5295269848691
 20
5.8131080380234152
 30
0.0
 40
1.875
  1
角法
  7
表題
  0
TEXT
  5
59AE
  8
DEFPOINTS
 10
1134.5295269848691
 20
8.3131080380234152
 30
0.0
 40
1.875
  1
第３
  7
表題
  0
TEXT
  5
59AF
  8
DEFPOINTS
 10
1133.5631443298971
 20
22.866690476406919
 30
0.0
 40
1.5
  1
番号
  7
表題
  0
TEXT
  5
59B0
  8
DEFPOINTS
 10
1142.6520618556699
 20
22.784793814432831
 30
0.0
 40
1.5
  1
部　品　名
  7
表題
  0
TEXT
  5
59B1
  8
DEFPOINTS
 10
1158.75
 20
23.0
 30
0.0
 40
1.5
  1
材　 質
  7
表題
  0
TEXT
  5
59B2
  8
DEFPOINTS
 10
1168.852264009304
 20
22.417541165087581
 30
0.0
 40
0.75
  1
個数
  7
表題
 72
     2
 11
1170.831645452603
 21
22.417541165087581
 31
0.0
  0
TEXT
  5
59B3
  8
DEFPOINTS
 10
1168.4110104847609
 20
23.701693735539671
 30
0.0
 40
0.75
  1
1台分
  7
表題
 72
     2
 11
1171.1249280105339
 21
23.701693735539671
 31
0.0
  0
TEXT
  5
59B4
  8
DEFPOINTS
 10
1174.102264009304
 20
22.41754116508751
 30
0.0
 40
0.75
  1
個数
  7
表題
 72
     2
 11
1176.081645452603
 21
22.41754116508751
 31
0.0
  0
TEXT
  5
59B5
  8
DEFPOINTS
 10
1172.6433700158079
 20
23.701693735539589
 30
0.0
 40
0.75
  1
1セット分
  7
表題
 72
     2
 11
1177.336668984881
 21
23.701693735539589
 31
0.0
  0
TEXT
  5
59B6
  8
DEFPOINTS
 10
1178.0
 20
22.75
 30
0.0
 40
1.5
  1
総数
  7
表題
  0
TEXT
  5
59B7
  8
DEFPOINTS
 10
1185.0
 20
22.75
 30
0.0
 40
1.5
  1
　摘　　　要
  7
表題
 72
     1
 11
1190.9381443298971
 21
22.75
 31
0.0
  0
LINE
  5
59B8
  8
DEFPOINTS
 10
1152.5
 20
0.0
 30
0.0
 11
1152.5
 21
5.0
 31
0.0
  0
LINE
  5
59B9
  8
DEFPOINTS
 10
1152.5
 20
148.5
 30
0.0
 11
1152.5
 21
143.5
 31
0.0
  0
LINE
  5
59BA
  8
DEFPOINTS
 10
1100.0
 20
74.25
 30
0.0
 11
1112.5
 21
74.25
 31
0.0
  0
LINE
  5
59BB
  8
DEFPOINTS
 10
1110.0
 20
99.25
 30
0.0
 11
1112.5
 21
99.25
 31
0.0
  0
LINE
  5
59BC
  8
DEFPOINTS
 10
1110.0
 20
124.25
 30
0.0
 11
1112.5
 21
124.25
 31
0.0
  0
LINE
  5
59BD
  8
DEFPOINTS
 10
1110.0
 20
24.25
 30
0.0
 11
1112.5
 21
24.25
 31
0.0
  0
LINE
  5
59BE
  8
DEFPOINTS
 10
1110.0
 20
49.25
 30
0.0
 11
1112.5
 21
49.25
 31
0.0
  0
LINE
  5
59BF
  8
DEFPOINTS
 10
1178.75
 20
2.5
 30
0.0
 11
1178.75
 21
5.0
 31
0.0
  0
LINE
  5
59C0
  8
DEFPOINTS
 10
1126.25
 20
2.5
 30
0.0
 11
1126.25
 21
5.0
 31
0.0
  0
LINE
  5
59C1
  8
DEFPOINTS
 10
1202.5
 20
24.25
 30
0.0
 11
1200.0
 21
24.25
 31
0.0
  0
LINE
  5
59C2
  8
DEFPOINTS
 10
1202.5
 20
49.25
 30
0.0
 11
1200.0
 21
49.25
 31
0.0
  0
LINE
  5
59C3
  8
DEFPOINTS
 10
1205.0
 20
74.25
 30
0.0
 11
1200.0
 21
74.25
 31
0.0
  0
LINE
  5
59C4
  8
DEFPOINTS
 10
1202.5
 20
99.25
 30
0.0
 11
1200.0
 21
99.25
 31
0.0
  0
LINE
  5
59C5
  8
DEFPOINTS
 10
1202.5
 20
124.25
 30
0.0
 11
1200.0
 21
124.25
 31
0.0
  0
LINE
  5
59C6
  8
DEFPOINTS
 10
1127.5
 20
2.5
 30
0.0
 11
1177.5
 21
2.5
 31
0.0
  0
LINE
  5
59C7
  8
DEFPOINTS
 10
1127.5
 20
2.5
 30
0.0
 11
1127.5
 21
5.0
 31
0.0
  0
LINE
  5
59C8
  8
DEFPOINTS
 10
1132.5
 20
2.5
 30
0.0
 11
1132.5
 21
5.0
 31
0.0
  0
LINE
  5
59C9
  8
DEFPOINTS
 10
1142.5
 20
2.5
 30
0.0
 11
1142.5
 21
5.0
 31
0.0
  0
LINE
  5
59CA
  8
DEFPOINTS
 10
1137.5
 20
2.5
 30
0.0
 11
1137.5
 21
5.0
 31
0.0
  0
LINE
  5
59CB
  8
DEFPOINTS
 10
1147.5
 20
2.5
 30
0.0
 11
1147.5
 21
5.0
 31
0.0
  0
LINE
  5
59CC
  8
DEFPOINTS
 10
1167.5
 20
2.5
 30
0.0
 11
1167.5
 21
5.0
 31
0.0
  0
LINE
  5
59CD
  8
DEFPOINTS
 10
1172.5
 20
2.5
 30
0.0
 11
1172.5
 21
5.0
 31
0.0
  0
LINE
  5
59CE
  8
DEFPOINTS
 10
1157.5
 20
2.5
 30
0.0
 11
1157.5
 21
5.0
 31
0.0
  0
LINE
  5
59CF
  8
DEFPOINTS
 10
1162.5
 20
2.5
 30
0.0
 11
1162.5
 21
5.0
 31
0.0
  0
LINE
  5
59D0
  8
DEFPOINTS
 10
1177.5
 20
2.5
 30
0.0
 11
1177.5
 21
5.0
 31
0.0
  0
LINE
  5
59D1
  8
DEFPOINTS
 10
1178.75
 20
146.0
 30
0.0
 11
1178.75
 21
143.5
 31
0.0
  0
LINE
  5
59D2
  8
DEFPOINTS
 10
1126.25
 20
146.0
 30
0.0
 11
1126.25
 21
143.5
 31
0.0
  0
INSERT
  5
59D3
  8
DEFPOINTS
  2
A$C0C1533B0
 10
1151.073203247523
 20
6.5745098476202202
 30
0.0
 41
0.5
 42
0.5
 43
0.5
  0
LINE
  5
59D4
  8
DEFPOINTS
 10
1195.0
 20
10.5
 30
0.0
 11
1195.0
 21
5.0
 31
0.0
  0
INSERT
  5
59D9
  8
011形状
  2
*U22
 10
0.0
 20
0.0
 30
0.0
  0
INSERT
  5
59DA
  8
011形状
  2
*U23
 10
0.0
 20
0.0
 30
0.0
  0
INSERT
  5
59DB
  8
011形状
  2
*U24
 10
0.0
 20
0.0
 30
0.0
  0
INSERT
  5
5C6D
  8
011形状
  2
*U25
 10
0.0
 20
0.0
 30
0.0
  0
INSERT
  5
5E7C
  8
011形状
  2
*U26
 10
0.0
 20
0.0
 30
0.0
  0
INSERT
  5
5E7D
  8
011形状
  2
*U27
 10
0.0
 20
0.0
 30
0.0
  0
INSERT
  5
5E7E
  8
011形状
  2
*U28
 10
0.0
 20
0.0
 30
0.0
  0
LINE
  5
6052
  8
011形状
 10
1137.5
 20
70.0
 30
0.0
 11
1162.5
 21
70.0
 31
0.0
  0
LINE
  5
6053
  8
011形状
 10
1162.5
 20
70.0
 30
0.0
 11
1162.5
 21
71.700000000000003
 31
0.0
  0
LINE
  5
6054
  8
011形状
 10
1137.5
 20
70.0
 30
0.0
 11
1137.5
 21
71.700000000000003
 31
0.0
  0
LINE
  5
6055
  8
011形状
 10
1137.5
 20
71.700000000000003
 30
0.0
 11
1162.5
 21
71.700000000000003
 31
0.0
  0
LINE
  5
6056
  8
011形状
 10
1137.5
 20
72.799999999999997
 30
0.0
 11
1162.5
 21
72.799999999999997
 31
0.0
  0
LINE
  5
6057
  8
011形状
 10
1162.5
 20
72.799999999999997
 30
0.0
 11
1162.5
 21
74.500000000000014
 31
0.0
  0
LINE
  5
6058
  8
011形状
 10
1137.5
 20
72.799999999999997
 30
0.0
 11
1137.5
 21
74.500000000000014
 31
0.0
  0
LINE
  5
6059
  8
011形状
 10
1137.5
 20
74.500000000000014
 30
0.0
 11
1162.5
 21
74.500000000000014
 31
0.0
  0
ARC
  5
605C
  8
011形状
 10
1136.8437499999991
 20
72.250000000000099
 30
0.0
 40
0.8562500000009334
 50
320.033786956244
 51
39.966213043755317
  0
LINE
  5
605F
  8
011形状
 10
1146.0
 20
75.500000000000014
 30
0.0
 11
1154.0
 21
75.500000000000014
 31
0.0
  0
ARC
  5
6060
  8
011形状
 10
1146.0
 20
74.500000000000014
 30
0.0
 40
1.0
 50
90.0
 51
180.0
  0
ARC
  5
6061
  8
011形状
 10
1154.0
 20
74.500000000000014
 30
0.0
 40
1.0
 50
0.0
 51
90.0
  0
LINE
  5
6062
  8
001センタ
 10
1150.0
 20
67.5
 30
0.0
 11
1150.0
 21
78.000000000000014
 31
0.0
  0
CIRCLE
  5
6063
  8
011形状
 10
1150.0
 20
115.0
 30
0.0
 40
5.0
  0
CIRCLE
  5
6064
  8
011形状
 10
1150.0
 20
115.0
 30
0.0
 40
12.5
  0
LINE
  5
6073
  8
101購入品
 10
1165.299038105677
 20
70.750000000000114
 30
0.0
 11
1187.5
 21
70.750000000000114
 31
0.0
  0
LINE
  5
6074
  8
001センタ
 10
1157.5
 20
72.250000000000114
 30
0.0
 11
1192.5
 21
72.250000000000114
 31
0.0
  0
LINE
  5
6075
  8
101購入品
 10
1165.2990381056759
 20
73.750000000000114
 30
0.0
 11
1187.5
 21
73.750000000000114
 31
0.0
  0
ARC
  5
6076
  8
101購入品
 10
1186.9375
 20
73.000000000000114
 30
0.0
 40
0.9375
 50
306.86989764600042
 51
53.130102353999639
  0
ARC
  5
6077
  8
101購入品
 10
1186.9375
 20
71.500000000000114
 30
0.0
 40
0.9375
 50
306.86989764600042
 51
53.130102353999639
  0
ARC
  5
6078
  8
101購入品
 10
1188.0625
 20
71.500000000000114
 30
0.0
 40
0.9375
 50
126.8698976460003
 51
233.1301023539996
  0
LINE
  5
6079
  8
011形状
 10
1162.5
 20
70.0
 30
0.0
 11
1165.299038105677
 21
70.750000000000114
 31
0.0
  0
LINE
  5
607A
  8
011形状
 10
1165.299038105677
 20
70.750000000000114
 30
0.0
 11
1165.299038105677
 21
73.750000000000114
 31
0.0
  0
LINE
  5
607B
  8
011形状
 10
1162.5
 20
74.500000000000014
 30
0.0
 11
1165.2990381056759
 21
73.750000000000114
 31
0.0
  0
LINE
  5
607C
  8
101購入品
 10
1165.299038105677
 20
113.5
 30
0.0
 11
1187.5
 21
113.5
 31
0.0
  0
LINE
  5
607D
  8
001センタ
 10
1135.0
 20
115.0
 30
0.0
 11
1190.0
 21
115.0
 31
0.0
  0
LINE
  5
607E
  8
101購入品
 10
1165.2990381056759
 20
116.5
 30
0.0
 11
1187.5
 21
116.5
 31
0.0
  0
ARC
  5
607F
  8
101購入品
 10
1186.9375
 20
115.75
 30
0.0
 40
0.9375
 50
306.86989764600042
 51
53.130102353999639
  0
ARC
  5
6080
  8
101購入品
 10
1186.9375
 20
114.25
 30
0.0
 40
0.9375
 50
306.86989764600042
 51
53.130102353999639
  0
ARC
  5
6081
  8
101購入品
 10
1188.0625
 20
114.25
 30
0.0
 40
0.9375
 50
126.8698976460003
 51
233.1301023539996
  0
LINE
  5
6083
  8
011形状
 10
1165.299038105677
 20
113.5
 30
0.0
 11
1165.299038105677
 21
116.5
 31
0.0
  0
LINE
  5
6085
  8
001センタ
 10
1150.0
 20
100.0
 30
0.0
 11
1150.0
 21
130.0
 31
0.0
  0
LINE
  5
6086
  8
011形状
 10
1165.299038105677
 20
116.4999999999998
 30
0.0
 11
1161.1514419589171
 21
120.6475961467592
 31
0.0
  0
LINE
  5
6087
  8
011形状
 10
1165.299038105677
 20
113.5
 30
0.0
 11
1161.1514419589171
 21
109.3524038532406
 31
0.0
  0
DIMENSION
  5
608B
  8
002寸法
  2
*D14
 10
1155.0
 20
80.500000000000014
 30
0.0
 11
1150.0
 21
81.500000000000014
 31
0.0
 70
     0
 13
1145.0
 23
74.500000000000014
 33
0.0
 14
1155.0
 24
74.500000000000014
 34
0.0
1001
ACAD
1000
DSTYLE
1002
{
1070
     3
1000
\U+03C6<>
1070
    40
1040
1.0
1002
}
  0
DIMENSION
  5
60A3
  8
002寸法
  2
*D15
 10
1162.5
 20
62.5
 30
0.0
 11
1150.0
 21
63.5
 31
0.0
 70
     0
 13
1137.5
 23
70.0
 33
0.0
 14
1162.5
 24
70.0
 34
0.0
1001
ACAD
1000
DSTYLE
1002
{
1070
     3
1000
\U+03C6<>
1070
    40
1040
1.0
1002
}
  0
DIMENSION
  5
60BB
  8
002寸法
  2
*D16
 10
1132.5
 20
74.500000000000014
 30
0.0
 11
1131.5
 21
72.250000000000185
 31
0.0
 70
     0
 13
1137.5
 23
70.0
 33
0.0
 14
1137.5
 24
74.500000000000014
 34
0.0
 50
90.0
1001
ACAD
1000
DSTYLE
1002
{
1070
    40
1040
1.0
1002
}
  0
DIMENSION
  5
60D3
  8
002寸法
  2
*D17
 10
1132.5
 20
75.500000000000014
 30
0.0
 11
1132.5
 21
77.375000000000014
 31
0.0
 70
   128
 13
1137.5
 23
74.500000000000014
 33
0.0
 14
1146.0
 24
75.500000000000014
 34
0.0
 50
90.0
1001
ACAD
1000
DSTYLE
1002
{
1070
   287
1070
     4
1070
    40
1040
1.0
1070
   279
1070
     1
1002
}
  0
DIMENSION
  5
60EF
  8
002寸法
  2
*D18
 10
1127.5
 20
75.500000000000014
 30
0.0
 11
1126.5
 21
72.750000000000185
 31
0.0
 70
     0
 13
1137.5
 23
70.0
 33
0.0
 14
1146.0
 24
75.500000000000014
 34
0.0
 50
90.0
1001
ACAD
1000
DSTYLE
1002
{
1070
    40
1040
1.0
1002
}
  0
VIEWPORT
  5
71
 67
     1
  8
0
 10
624.30697861446504
 20
307.75602246587403
 30
0.0
 40
994.76769694267671
 41
769.77311836716035
 68
     1
 69
     1
1001
ACAD
1000
MVIEW
1002
{
1070
    16
1010
0.0
1020
0.0
1030
0.0
1010
0.0
1020
0.0
1030
1.0
1040
0.0
1040
769.77311836716035
1040
624.30697861446504
1040
307.75602246587403
1040
50.0
1040
0.0
1040
0.0
1070
     0
1070
   100
1070
     1
1070
     1
1070
     1
1070
     0
1070
     0
1070
     0
1040
0.0
1040
0.0
1040
0.0
1040
0.5
1040
0.5
1040
10.0
1040
10.0
1070
     0
1002
{
1002
}
1002
}
  0
VIEWPORT
  5
73
 67
     1
  8
0
 10
693.0
 20
140.5
 30
0.0
 40
419.99999999999989
 41
297.0
 68
     2
 69
     2
1001
ACAD
1000
MVIEW
1002
{
1070
    16
1010
0.0
1020
0.0
1030
0.0
1010
0.0
1020
0.0
1030
1.0
1040
0.0
1040
297.0
1040
804.0
1040
148.5
1040
50.0
1040
0.0
1040
0.0
1070
     0
1070
   100
1070
     1
1070
     3
1070
     0
1070
     0
1070
     0
1070
     0
1040
0.0
1040
0.0
1040
0.0
1040
10.0
1040
10.0
1040
10.0
1040
10.0
1070
     0
1002
{
1002
}
1002
}
  0
ENDSEC
  0
EOF
