  0
SECTION
  2
HEADER
  9
$ACADVER
  1
AC1009
  9
$INSBASE
 10
0.0
 20
0.0
 30
0.0
  9
$EXTMIN
 10
600.0
 20
0.0
 30
-0.5
  9
$EXTMAX
 10
1020.0
 20
297.0
 30
0.0
  9
$LIMMIN
 10
0.0
 20
0.0
  9
$LIMMAX
 10
420.0
 20
297.0
  9
$ORTHOMODE
 70
     0
  9
$REGENMODE
 70
     1
  9
$FILLMODE
 70
     1
  9
$QTEXTMODE
 70
     0
  9
$MIRRTEXT
 70
     1
  9
$DRAGMODE
 70
     2
  9
$LTSCALE
 40
2.0
  9
$OSMODE
 70
    63
  9
$ATTMODE
 70
     1
  9
$TEXTSIZE
 40
3.0
  9
$TRACEWID
 40
1.0
  9
$TEXTSTYLE
  7
STANDARD
  9
$CLAYER
  8
011形状
  9
$CELTYPE
  6
BYLAYER
  9
$CECOLOR
 62
   256
  9
$DIMSCALE
 40
1.0
  9
$DIMASZ
 40
2.5
  9
$DIMEXO
 40
0.5
  9
$DIMDLI
 40
3.75
  9
$DIMRND
 40
0.0
  9
$DIMDLE
 40
0.0
  9
$DIMEXE
 40
0.75
  9
$DIMTP
 40
0.0
  9
$DIMTM
 40
0.000000001
  9
$DIMTXT
 40
3.0
  9
$DIMCEN
 40
2.5
  9
$DIMTSZ
 40
0.0
  9
$DIMTOL
 70
     0
  9
$DIMLIM
 70
     0
  9
$DIMTIH
 70
     0
  9
$DIMTOH
 70
     0
  9
$DIMSE1
 70
     0
  9
$DIMSE2
 70
     0
  9
$DIMTAD
 70
     3
  9
$DIMZIN
 70
     8
  9
$DIMBLK
  1

  9
$DIMASO
 70
     1
  9
$DIMSHO
 70
     1
  9
$DIMPOST
  1

  9
$DIMAPOST
  1

  9
$DIMALT
 70
     0
  9
$DIMALTD
 70
     4
  9
$DIMALTF
 40
0.0394
  9
$DIMLFAC
 40
1.0
  9
$DIMTOFL
 70
     1
  9
$DIMTVP
 40
0.0
  9
$DIMTIX
 70
     0
  9
$DIMSOXD
 70
     0
  9
$DIMSAH
 70
     1
  9
$DIMBLK1
  1
OPEN
  9
$DIMBLK2
  1
OPEN
  9
$DIMSTYLE
  2
通常X1_0
  9
$DIMCLRD
 70
   256
  9
$DIMCLRE
 70
   256
  9
$DIMCLRT
 70
     2
  9
$DIMTFAC
 40
0.5
  9
$DIMGAP
 40
0.5
  9
$LUNITS
 70
     2
  9
$LUPREC
 70
     8
  9
$SKETCHINC
 40
1.0
  9
$FILLETRAD
 40
1.0
  9
$AUNITS
 70
     0
  9
$AUPREC
 70
     6
  9
$MENU
  1
.
  9
$ELEVATION
 40
0.0
  9
$PELEVATION
 40
0.0
  9
$THICKNESS
 40
0.0
  9
$LIMCHECK
 70
     0
  9
$BLIPMODE
 70
     0
  9
$CHAMFERA
 40
1.0
  9
$CHAMFERB
 40
1.0
  9
$SKPOLY
 70
     0
  9
$TDCREATE
 40
2453536.500536378
  9
$TDUPDATE
 40
2460019.4719810528
  9
$TDINDWG
 40
1.3290231481000001
  9
$TDUSRTIMER
 40
1.3290231481000001
  9
$USRTIMER
 70
     1
  9
$ANGBASE
 50
0.0
  9
$ANGDIR
 70
     0
  9
$PDMODE
 70
     0
  9
$PDSIZE
 40
0.0
  9
$PLINEWID
 40
0.0
  9
$COORDS
 70
     1
  9
$SPLFRAME
 70
     0
  9
$SPLINETYPE
 70
     6
  9
$SPLINESEGS
 70
     8
  9
$ATTDIA
 70
     1
  9
$ATTREQ
 70
     1
  9
$HANDLING
 70
     1
  9
$HANDSEED
  5
715C
  9
$SURFTAB1
 70
     6
  9
$SURFTAB2
 70
     6
  9
$SURFTYPE
 70
     6
  9
$SURFU
 70
     6
  9
$SURFV
 70
     6
  9
$UCSNAME
  2

  9
$UCSORG
 10
600.0
 20
0.0
 30
0.0
  9
$UCSXDIR
 10
1.0
 20
0.0
 30
0.0
  9
$UCSYDIR
 10
0.0
 20
1.0
 30
0.0
  9
$PUCSNAME
  2

  9
$PUCSORG
 10
0.0
 20
0.0
 30
0.0
  9
$PUCSXDIR
 10
1.0
 20
0.0
 30
0.0
  9
$PUCSYDIR
 10
0.0
 20
1.0
 30
0.0
  9
$USERI1
 70
     0
  9
$USERI2
 70
     0
  9
$USERI3
 70
     0
  9
$USERI4
 70
     0
  9
$USERI5
 70
     0
  9
$USERR1
 40
0.0
  9
$USERR2
 40
0.0
  9
$USERR3
 40
0.0
  9
$USERR4
 40
0.0
  9
$USERR5
 40
0.0
  9
$WORLDVIEW
 70
     1
  9
$SHADEDGE
 70
     3
  9
$SHADEDIF
 70
    70
  9
$TILEMODE
 70
     1
  9
$MAXACTVP
 70
    48
  9
$PLIMCHECK
 70
     0
  9
$PEXTMIN
 10
211.5
 20
-8.0
 30
0.0
  9
$PEXTMAX
 10
903.5
 20
300.0
 30
0.0
  9
$PLIMMIN
 10
483.02948910854462
 20
-8.1501641204820885
  9
$PLIMMAX
 10
903.01847226284156
 20
288.8181586334241
  9
$UNITMODE
 70
     0
  9
$VISRETAIN
 70
     1
  9
$PLINEGEN
 70
     0
  9
$PSLTSCALE
 70
     1
  0
ENDSEC
  0
SECTION
  2
TABLES
  0
TABLE
  2
VPORT
 70
     1
  0
VPORT
  2
*ACTIVE
 70
     0
 10
0.0
 20
0.0
 11
1.0
 21
1.0
 12
810.00595552385664
 22
153.3869590049166
 13
0.0
 23
0.0
 14
10.0
 24
10.0
 15
10.0
 25
10.0
 16
0.0
 26
0.0
 36
1.0
 17
0.0
 27
0.0
 37
0.0
 40
299.66575175535911
 41
2.1195652173913042
 42
50.0
 43
0.0
 44
0.0
 50
0.0
 51
0.0
 71
     0
 72
   100
 73
     1
 74
     3
 75
     0
 76
     1
 77
     0
 78
     0
  0
ENDTAB
  0
TABLE
  2
LTYPE
 70
    10
  0
LTYPE
  2
CONTINUOUS
 70
     0
  3
Solid line
 72
    65
 73
     0
 40
0.0
  0
LTYPE
  2
CENTER
 70
     0
  3
Center ____ _ ____ _ ____ _ ____ _ ____ _ ____
 72
    65
 73
     4
 40
2.0
 49
1.25
 49
-0.25
 49
0.25
 49
-0.25
  0
LTYPE
  2
CENTER2
 70
     0
  3
Center (.5x) ___ _ ___ _ ___ _ ___ _ ___ _ ___
 72
    65
 73
     4
 40
1.125
 49
0.75
 49
-0.125
 49
0.125
 49
-0.125
  0
LTYPE
  2
DASHED
 70
     0
  3
Dashed __ __ __ __ __ __ __ __ __ __ __ __ __ _
 72
    65
 73
     2
 40
0.75
 49
0.5
 49
-0.25
  0
LTYPE
  2
DASHED2
 70
     0
  3
Dashed (.5x) _ _ _ _ _ _ _ _ _ _ _ _ _ _ _ _ _
 72
    65
 73
     2
 40
0.375
 49
0.25
 49
-0.125
  0
LTYPE
  2
PHANTOM2
 70
     0
  3
Phantom (.5x) ___ _ _ ___ _ _ ___ _ _ ___ _ _
 72
    65
 73
     6
 40
1.25
 49
0.625
 49
-0.125
 49
0.125
 49
-0.125
 49
0.125
 49
-0.125
  0
LTYPE
  2
CENTERX2
 70
     0
  3
Center (2x) ________  __  ________  __  _____
 72
    65
 73
     4
 40
4.0
 49
2.5
 49
-0.5
 49
0.5
 49
-0.5
  0
LTYPE
  2
DASHEDX2
 70
     0
  3
Dashed (2x) ____  ____  ____  ____  ____  ___
 72
    65
 73
     2
 40
1.5
 49
1.0
 49
-0.5
  0
LTYPE
  2
PHANTOM
 70
     0
  3
Phantom ______  __  __  ______  __  __  ______
 72
    65
 73
     6
 40
2.5
 49
1.25
 49
-0.25
 49
0.25
 49
-0.25
 49
0.25
 49
-0.25
  0
LTYPE
  2
PHANTOMX2
 70
     0
  3
Phantom (2x) ____________    ____    ____   _
 72
    65
 73
     6
 40
5.0
 49
2.5
 49
-0.5
 49
0.5
 49
-0.5
 49
0.5
 49
-0.5
  0
ENDTAB
  0
TABLE
  2
LAYER
 70
    10
  0
LAYER
  2
0
 70
     0
 62
     7
  6
CONTINUOUS
  0
LAYER
  2
DEFPOINTS
 70
     0
 62
     7
  6
CONTINUOUS
  0
LAYER
  2
002寸法
 70
     0
 62
     1
  6
CONTINUOUS
  0
LAYER
  2
001センタ
 70
     0
 62
     1
  6
CENTER
  0
LAYER
  2
011形状
 70
     0
 62
     3
  6
CONTINUOUS
  0
LAYER
  2
003注釈
 70
     0
 62
     2
  6
CONTINUOUS
  0
LAYER
  2
051共通部品
 70
     0
 62
     3
  6
CONTINUOUS
  0
LAYER
  2
101購入品
 70
     0
 62
     3
  6
CONTINUOUS
  0
LAYER
  2
111治具
 70
     0
 62
     3
  6
CONTINUOUS
  0
LAYER
  2
052収納品
 70
     0
 62
     1
  6
PHANTOM
  0
ENDTAB
  0
TABLE
  2
STYLE
 70
     4
  0
STYLE
  2
STANDARD
 70
     0
 40
0.0
 41
0.9
 50
0.0
 71
     0
 42
3.0
  3
romans.shx
  4
extfont2.shx
  0
STYLE
  2
表題
 70
     0
 40
0.0
 41
1.0
 50
0.0
 71
     0
 42
2.5
  3
txt
  4

  0
STYLE
  2

 70
     1
 40
0.0
 41
1.0
 50
0.0
 71
     0
 42
2.5
  3
ltypeshp.shx
  4

  0
STYLE
  2
注釈
 70
     0
 40
3.0
 41
0.9
 50
0.0
 71
     0
 42
3.0
  3
romans.shx
  4
extfont2.shx
  0
ENDTAB
  0
TABLE
  2
VIEW
 70
     1
  0
ENDTAB
  0
TABLE
  2
UCS
 70
     0
  0
ENDTAB
  0
TABLE
  2
APPID
 70
    20
  0
APPID
  2
ACAD
 70
     0
  0
APPID
  2
ACAD_NAV_VCDISPLAY
 70
     0
  0
APPID
  2
ACAD_EXEMPT_FROM_CAD_STANDARDS
 70
     0
  0
APPID
  2
ACAUTHENVIRON
 70
     0
  0
APPID
  2
ACDBDYNAMICBLOCKTRUENAME
 70
     0
  0
APPID
  2
ACDBDYNAMICBLOCKGUID
 70
     0
  0
APPID
  2
ACADANNOPO
 70
     0
  0
APPID
  2
ACAECLAYERSTANDARD
 70
     0
  0
APPID
  2
ACCMTRANSPARENCY
 70
     0
  0
APPID
  2
ACAD_PSEXT
 70
     0
  0
APPID
  2
ACAD_DSTYLE_DIMJAG
 70
     0
  0
APPID
  2
ACAD_DSTYLE_DIMTALN
 70
     0
  0
APPID
  2
ACAD_DSTYLE_DIMRADIAL_EXTENSION
 70
     0
  0
APPID
  2
ACAD_DSTYLE_DIMBREAK
 70
     0
  0
APPID
  2
GRADIENTCOLOR1ACI
 70
     0
  0
APPID
  2
GRADIENTCOLOR2ACI
 70
     0
  0
APPID
  2
ACAD_MLEADERVER
 70
     0
  0
APPID
  2
CONTENTBLOCKDESCRIPTION
 70
     0
  0
APPID
  2
CONTENTBLOCKICON
 70
     0
  0
APPID
  2
AcDbAttr
 70
     0
  0
ENDTAB
  0
TABLE
  2
DIMSTYLE
 70
    24
  0
DIMSTYLE
  2
通常X1_0
 70
     0
  3

  4

  5

  6
OPEN
  7
OPEN
 40
1.0
 41
2.5
 42
0.5
 43
3.75
 44
0.75
 45
0.0
 46
0.0
 47
0.0
 48
0.000000001
140
3.0
141
2.5
142
0.0
143
0.0394
144
1.0
145
0.0
146
0.5
147
0.5
 71
     0
 72
     0
 73
     0
 74
     0
 75
     0
 76
     0
 77
     3
 78
     8
170
     0
171
     4
172
     1
173
     1
174
     0
175
     0
176
   256
177
   256
178
     2
  0
DIMSTYLE
  2
通常X3_0
 70
     0
  3

  4

  5

  6
OPEN
  7
OPEN
 40
0.0
 41
0.833
 42
0.167
 43
3.75
 44
0.25
 45
0.0
 46
0.0
 47
0.0
 48
0.000000001
140
1.0
141
2.5
142
0.0
143
0.0394
144
1.0
145
0.0
146
0.5
147
0.167
 71
     0
 72
     0
 73
     0
 74
     0
 75
     0
 76
     0
 77
     3
 78
     8
170
     0
171
     4
172
     1
173
     1
174
     0
175
     0
176
   256
177
   256
178
     2
  0
DIMSTYLE
  2
通常X2_0
 70
     0
  3

  4

  5

  6
OPEN
  7
OPEN
 40
0.0
 41
1.25
 42
0.25
 43
3.75
 44
0.375
 45
0.0
 46
0.0
 47
0.0
 48
0.000000001
140
1.5
141
2.5
142
0.0
143
0.0394
144
1.0
145
0.0
146
0.5
147
0.25
 71
     0
 72
     0
 73
     0
 74
     0
 75
     0
 76
     0
 77
     3
 78
     8
170
     0
171
     4
172
     1
173
     1
174
     0
175
     0
176
   256
177
   256
178
     2
  0
DIMSTYLE
  2
通常X2_3
 70
     0
  3

  4

  5

  6
OPEN
  7
OPEN
 40
1.0
 41
3.75
 42
0.75
 43
3.75
 44
1.125
 45
0.0
 46
0.0
 47
0.0
 48
0.0
140
4.5
141
2.5
142
0.0
143
0.0394
144
1.0
145
0.0
146
0.5
147
0.75
 71
     0
 72
     0
 73
     0
 74
     0
 75
     0
 76
     0
 77
     3
 78
     8
170
     0
171
     4
172
     1
173
     1
174
     0
175
     0
176
   256
177
   256
178
     2
  0
DIMSTYLE
  2
通常X3_4
 70
     0
  3

  4

  5

  6
OPEN
  7
OPEN
 40
1.0
 41
3.3330000000000002
 42
0.667
 43
3.75
 44
1.0
 45
0.0
 46
0.0
 47
0.0
 48
0.000000001
140
4.0
141
2.5
142
0.0
143
0.0394
144
1.0
145
0.0
146
0.5
147
0.667
 71
     0
 72
     0
 73
     0
 74
     0
 75
     0
 76
     0
 77
     3
 78
     8
170
     0
171
     4
172
     1
173
     1
174
     0
175
     0
176
   256
177
   256
178
     2
  0
DIMSTYLE
  2
通常X1_3
 70
     0
  3

  4

  5

  6
OPEN
  7
OPEN
 40
1.0
 41
7.5
 42
1.5
 43
3.75
 44
2.25
 45
0.0
 46
0.0
 47
0.0
 48
0.000000001
140
9.0
141
2.5
142
0.0
143
0.0394
144
1.0
145
0.0
146
0.5
147
1.5
 71
     0
 72
     0
 73
     0
 74
     0
 75
     0
 76
     0
 77
     3
 78
     8
170
     0
171
     4
172
     1
173
     1
174
     0
175
     0
176
   256
177
   256
178
     2
  0
DIMSTYLE
  2
通常X1_2
 70
     0
  3

  4

  5

  6
OPEN
  7
OPEN
 40
1.0
 41
5.0
 42
1.0
 43
3.75
 44
1.5
 45
0.0
 46
0.0
 47
0.0
 48
0.0
140
6.0
141
2.5
142
0.0
143
0.0394
144
1.0
145
0.0
146
0.5
147
1.0
 71
     0
 72
     0
 73
     0
 74
     0
 75
     0
 76
     0
 77
     3
 78
     8
170
     0
171
     4
172
     1
173
     1
174
     0
175
     0
176
   256
177
   256
178
     2
  0
DIMSTYLE
  2
通常X1_0$3
 70
     0
  3

  4

  5

  6
OPEN
  7
OPEN
 40
1.0
 41
2.5
 42
0.5
 43
3.75
 44
0.75
 45
0.0
 46
0.0
 47
0.0
 48
0.000000001
140
3.0
141
2.5
142
0.0
143
0.0394
144
1.0
145
0.0
146
0.5
147
0.5
 71
     0
 72
     0
 73
     0
 74
     0
 75
     0
 76
     0
 77
     3
 78
     8
170
     0
171
     4
172
     1
173
     1
174
     0
175
     0
176
   256
177
   256
178
     2
  0
DIMSTYLE
  2
通常X1_3$3
 70
     0
  3

  4

  5

  6
OPEN
  7
OPEN
 40
1.0
 41
7.5
 42
1.5
 43
3.75
 44
2.25
 45
0.0
 46
0.0
 47
0.0
 48
0.000000001
140
9.0
141
2.5
142
0.0
143
0.0394
144
1.0
145
0.0
146
0.5
147
1.5
 71
     0
 72
     0
 73
     0
 74
     0
 75
     0
 76
     0
 77
     3
 78
     8
170
     0
171
     4
172
     1
173
     1
174
     0
175
     0
176
   256
177
   256
178
     2
  0
DIMSTYLE
  2
通常X1_2$3
 70
     0
  3

  4

  5

  6
OPEN
  7
OPEN
 40
1.0
 41
5.0
 42
1.0
 43
3.75
 44
1.5
 45
0.0
 46
0.0
 47
0.0
 48
0.0
140
6.0
141
2.5
142
0.0
143
0.0394
144
1.0
145
0.0
146
0.5
147
1.0
 71
     0
 72
     0
 73
     0
 74
     0
 75
     0
 76
     0
 77
     3
 78
     8
170
     0
171
     4
172
     1
173
     1
174
     0
175
     0
176
   256
177
   256
178
     2
  0
DIMSTYLE
  2
通常X2_3$3
 70
     0
  3

  4

  5

  6
OPEN
  7
OPEN
 40
1.0
 41
3.75
 42
0.75
 43
3.75
 44
1.125
 45
0.0
 46
0.0
 47
0.0
 48
0.0
140
4.5
141
2.5
142
0.0
143
0.0394
144
1.0
145
0.0
146
0.5
147
0.75
 71
     0
 72
     0
 73
     0
 74
     0
 75
     0
 76
     0
 77
     3
 78
     8
170
     0
171
     4
172
     1
173
     1
174
     0
175
     0
176
   256
177
   256
178
     2
  0
DIMSTYLE
  2
通常X3_4$3
 70
     0
  3

  4

  5

  6
OPEN
  7
OPEN
 40
1.0
 41
3.3330000000000002
 42
0.667
 43
3.75
 44
1.0
 45
0.0
 46
0.0
 47
0.0
 48
0.000000001
140
4.0
141
10.0
142
0.0
143
0.0394
144
1.0
145
0.0
146
0.5
147
0.667
 71
     0
 72
     0
 73
     0
 74
     0
 75
     0
 76
     0
 77
     3
 78
     8
170
     0
171
     4
172
     1
173
     1
174
     0
175
     0
176
   256
177
   256
178
     2
  0
DIMSTYLE
  2
通常X2_0$3
 70
     0
  3

  4

  5

  6
OPEN
  7
OPEN
 40
0.0
 41
1.25
 42
0.25
 43
3.75
 44
0.5
 45
0.0
 46
0.0
 47
0.0
 48
0.000000001
140
1.5
141
2.5
142
0.0
143
0.0394
144
1.0
145
0.0
146
0.5
147
0.5
 71
     0
 72
     0
 73
     0
 74
     0
 75
     0
 76
     0
 77
     3
 78
     8
170
     0
171
     4
172
     1
173
     1
174
     0
175
     0
176
   256
177
   256
178
     2
  0
DIMSTYLE
  2
通常X3_0$3
 70
     0
  3

  4

  5

  6
OPEN
  7
OPEN
 40
0.0
 41
0.833
 42
0.167
 43
3.75
 44
0.4
 45
0.0
 46
0.0
 47
0.0
 48
0.000000001
140
1.0
141
2.5
142
0.0
143
0.0394
144
1.0
145
0.0
146
0.5
147
0.4
 71
     0
 72
     0
 73
     0
 74
     0
 75
     0
 76
     0
 77
     3
 78
     8
170
     0
171
     4
172
     1
173
     1
174
     0
175
     0
176
   256
177
   256
178
     2
  0
DIMSTYLE
  2
通常X1_5
 70
     0
  3

  4

  5

  6
OPEN
  7
OPEN
 40
1.0
 41
1.6669999999999989
 42
0.33
 43
3.75
 44
0.5
 45
0.0
 46
0.0
 47
0.0
 48
0.000000001
140
2.0
141
2.5
142
0.0
143
0.0394
144
1.0
145
0.0
146
0.5
147
0.33
 71
     0
 72
     0
 73
     0
 74
     0
 75
     0
 76
     0
 77
     3
 78
     9
170
     0
171
     4
172
     1
173
     1
174
     0
175
     0
176
   256
177
   256
178
     2
  0
DIMSTYLE
  2
通常X3_5
 70
     0
  3

  4

  5

  6
OPEN
  7
OPEN
 40
1.0
 41
4.1669999999999989
 42
0.833
 43
3.75
 44
1.25
 45
0.0
 46
0.0
 47
0.0
 48
0.000000001
140
5.0
141
2.5
142
0.0
143
0.0394
144
1.0
145
0.0
146
0.5
147
0.833
 71
     0
 72
     0
 73
     0
 74
     0
 75
     0
 76
     0
 77
     3
 78
     8
170
     0
171
     4
172
     1
173
     1
174
     0
175
     0
176
   256
177
   256
178
     2
  0
DIMSTYLE
  2
通常X3_5$3
 70
     0
  3

  4

  5

  6
OPEN
  7
OPEN
 40
1.0
 41
4.1669999999999989
 42
0.833
 43
3.75
 44
1.25
 45
0.0
 46
0.0
 47
0.0
 48
0.000000001
140
5.0
141
2.5
142
0.0
143
0.0394
144
1.0
145
0.0
146
0.5
147
0.833
 71
     0
 72
     0
 73
     0
 74
     0
 75
     0
 76
     0
 77
     3
 78
     8
170
     0
171
     4
172
     1
173
     1
174
     0
175
     0
176
   256
177
   256
178
     2
  0
DIMSTYLE
  2
通常X1_5$3
 70
     0
  3

  4

  5

  6
OPEN
  7
OPEN
 40
1.0
 41
1.6669999999999989
 42
0.33
 43
3.75
 44
0.5
 45
0.0
 46
0.0
 47
0.0
 48
0.000000001
140
2.0
141
2.5
142
0.0
143
0.0394
144
1.0
145
0.0
146
0.5
147
0.33
 71
     0
 72
     0
 73
     0
 74
     0
 75
     0
 76
     0
 77
     3
 78
     9
170
     0
171
     4
172
     1
173
     1
174
     0
175
     0
176
   256
177
   256
178
     2
  0
DIMSTYLE
  2
通常X5_0
 70
     0
  3

  4

  5

  6
OPEN
  7
OPEN
 40
0.0
 41
0.5
 42
0.1
 43
3.75
 44
0.15
 45
0.0
 46
0.0
 47
0.0
 48
0.000000001
140
0.6
141
2.5
142
0.0
143
0.0394
144
1.0
145
0.0
146
0.5
147
0.1
 71
     0
 72
     0
 73
     0
 74
     0
 75
     0
 76
     0
 77
     3
 78
     8
170
     0
171
     4
172
     1
173
     1
174
     0
175
     0
176
   256
177
   256
178
     2
  0
DIMSTYLE
  2
通常X5_0$3
 70
     0
  3

  4

  5

  6
OPEN
  7
OPEN
 40
0.0
 41
0.5
 42
0.1
 43
3.75
 44
0.15
 45
0.0
 46
0.0
 47
0.0
 48
0.000000001
140
0.6
141
2.5
142
0.0
143
0.0394
144
1.0
145
0.0
146
0.5
147
0.1
 71
     0
 72
     0
 73
     0
 74
     0
 75
     0
 76
     0
 77
     3
 78
     8
170
     0
171
     4
172
     1
173
     1
174
     0
175
     0
176
   256
177
   256
178
     2
  0
DIMSTYLE
  2
通常X1_50
 70
     0
  3

  4

  5

  6
OPEN
  7
OPEN
 40
1.0
 41
12.5
 42
2.5
 43
3.75
 44
3.75
 45
0.0
 46
0.0
 47
0.0
 48
0.000000001
140
15.0
141
2.5
142
0.0
143
0.0394
144
1.0
145
0.0
146
0.5
147
2.5
 71
     0
 72
     0
 73
     0
 74
     0
 75
     0
 76
     0
 77
     3
 78
     8
170
     0
171
     4
172
     1
173
     1
174
     0
175
     0
176
   256
177
   256
178
     2
  0
DIMSTYLE
  2
通常X1_5$30
 70
     0
  3

  4

  5

  6
OPEN
  7
OPEN
 40
1.0
 41
12.5
 42
2.5
 43
3.75
 44
3.75
 45
0.0
 46
0.0
 47
0.0
 48
0.000000001
140
15.0
141
2.5
142
0.0
143
0.0394
144
1.0
145
0.0
146
0.5
147
2.5
 71
     0
 72
     0
 73
     0
 74
     0
 75
     0
 76
     0
 77
     3
 78
     8
170
     0
171
     4
172
     1
173
     1
174
     0
175
     0
176
   256
177
   256
178
     2
  0
DIMSTYLE
  2
通常X1_10
 70
     0
  3

  4

  5

  6
OPEN
  7
OPEN
 40
1.0
 41
25.0
 42
5.0
 43
3.75
 44
7.5
 45
0.0
 46
0.0
 47
0.0
 48
0.000000001
140
30.0
141
2.5
142
0.0
143
0.0394
144
1.0
145
0.0
146
0.5
147
5.0
 71
     0
 72
     0
 73
     0
 74
     0
 75
     0
 76
     0
 77
     3
 78
     8
170
     0
171
     4
172
     1
173
     1
174
     0
175
     0
176
   256
177
   256
178
     2
  0
DIMSTYLE
  2
通常X1_10$3
 70
     0
  3

  4

  5

  6
OPEN
  7
OPEN
 40
1.0
 41
25.0
 42
5.0
 43
3.75
 44
7.5
 45
0.0
 46
0.0
 47
0.0
 48
0.000000001
140
30.0
141
2.5
142
0.0
143
0.0394
144
1.0
145
0.0
146
0.5
147
5.0
 71
     0
 72
     0
 73
     0
 74
     0
 75
     0
 76
     0
 77
     3
 78
     8
170
     0
171
     4
172
     1
173
     1
174
     0
175
     0
176
   256
177
   256
178
     2
  0
ENDTAB
  0
ENDSEC
  0
SECTION
  2
BLOCKS
  0
BLOCK
  8
0
  2
$MODEL_SPACE
 70
     0
 10
0.0
 20
0.0
 30
0.0
  3
$MODEL_SPACE
  1

  0
ENDBLK
  5
21
  8
0
  0
BLOCK
 67
     1
  8
0
  2
$PAPER_SPACE
 70
     0
 10
0.0
 20
0.0
 30
0.0
  3
$PAPER_SPACE
  1

  0
ENDBLK
  5
58
 67
     1
  8
0
  0
BLOCK
  8
0
  2
_OPEN
 70
     0
 10
0.0
 20
0.0
 30
0.0
  3
_OPEN
  1

  0
LINE
  5
87
  8
0
  6
BYBLOCK
 62
     0
 10
-1.0
 20
0.1666666666666666
 30
0.0
 11
0.0
 21
0.0
 31
0.0
  0
LINE
  5
88
  8
0
  6
BYBLOCK
 62
     0
 10
0.0
 20
0.0
 30
0.0
 11
-1.0
 21
-0.1666666666666666
 31
0.0
  0
LINE
  5
89
  8
0
  6
BYBLOCK
 62
     0
 10
0.0
 20
0.0
 30
0.0
 11
-1.0
 21
0.0
 31
0.0
  0
ENDBLK
  5
8B
  8
0
  0
BLOCK
  8
0
  2
A$C0C1533B0
 70
     0
 10
0.0
 20
0.0
 30
0.0
  3
A$C0C1533B0
  1

  0
LINE
  5
2C54
  8
0
 10
5.2469999999998427
 20
5.2469999999998427
 30
0.0
 11
0.0
 21
5.2469999999998427
 31
0.0
  0
LINE
  5
2C55
  8
0
 10
5.0984999999996026
 20
5.0984999999996026
 30
0.0
 11
0.1484999999997854
 21
5.0984999999996026
 31
0.0
  0
LINE
  5
2C56
  8
0
 10
3.415500000000065
 20
4.6529999999988831
 30
0.0
 11
3.11850000000004
 21
4.6529999999988831
 31
0.0
  0
LINE
  5
2C57
  8
0
 10
3.11850000000004
 20
4.6529999999988831
 30
0.0
 11
3.11850000000004
 21
3.266999999998915
 31
0.0
  0
LINE
  5
2C58
  8
0
 10
1.7325000000000721
 20
4.6529999999988831
 30
0.0
 11
1.7325000000000721
 21
3.266999999998915
 31
0.0
  0
LINE
  5
2C59
  8
0
 10
1.7325000000000721
 20
4.6529999999988831
 30
0.0
 11
1.336499999999887
 21
4.6529999999988831
 31
0.0
  0
LINE
  5
2C5A
  8
0
 10
2.0324722099007881
 20
1.0250351407994449
 30
0.0
 11
2.0390851008005479
 21
1.0150218869994201
 31
0.0
  0
LINE
  5
2C5B
  8
0
 10
2.1496148443002312
 20
0.9334853956993356
 30
0.0
 11
2.1694535159003858
 21
0.9221561139995628
 31
0.0
  0
LINE
  5
2C5C
  8
0
 10
2.0277487164003101
 20
1.03516283089948
 30
0.0
 11
2.0324722099007881
 21
1.0250351407994449
 31
0.0
  0
LINE
  5
2C5D
  8
0
 10
2.1694535159003858
 20
0.9221561139995628
 30
0.0
 11
2.1892921875009961
 21
0.9115134566995948
 31
0.0
  0
LINE
  5
2C5E
  8
0
 10
2.024914620300478
 20
1.045404958399331
 30
0.0
 11
2.0277487164003101
 21
1.03516283089948
 31
0.0
  0
LINE
  5
2C5F
  8
0
 10
2.1892921875009961
 20
0.9115134566995948
 30
0.0
 11
2.209130859099786
 21
0.9015574215995911
 31
0.0
  0
LINE
  5
2C60
  8
0
 10
2.0239699215999281
 20
1.0557615232992239
 30
0.0
 11
2.024914620300478
 21
1.045404958399331
 31
0.0
  0
LINE
  5
2C61
  8
0
 10
2.209130859099786
 20
0.9015574215995911
 30
0.0
 11
2.2293069238003218
 21
0.8904570157997113
 31
0.0
  0
LINE
  5
2C62
  8
0
 10
2.0245772283005858
 20
1.065202591199067
 30
0.0
 11
2.0239699215999281
 21
1.0557615232992239
 31
0.0
  0
LINE
  5
2C63
  8
0
 10
2.2293069238003218
 20
0.8904570157997113
 30
0.0
 11
2.2463789776998051
 21
0.8779833622995739
 31
0.0
  0
LINE
  5
2C64
  8
0
 10
2.0263991472997982
 20
1.0743003468994621
 30
0.0
 11
2.0245772283005858
 21
1.065202591199067
 31
0.0
  0
LINE
  5
2C65
  8
0
 10
2.2463789776998051
 20
0.8779833622995739
 30
0.0
 11
2.260347023000576
 21
0.8641364632994736
 31
0.0
  0
LINE
  5
2C66
  8
0
 10
2.0294356786002932
 20
1.0830547914995341
 30
0.0
 11
2.0263991472997982
 21
1.0743003468994621
 31
0.0
  0
LINE
  5
2C67
  8
0
 10
2.260347023000576
 20
0.8641364632994736
 30
0.0
 11
2.2712110574998401
 21
0.8489163187991835
 31
0.0
  0
LINE
  5
2C68
  8
0
 10
2.0336868222002522
 20
1.091465923899249
 30
0.0
 11
2.0294356786002932
 21
1.0830547914995341
 31
0.0
  0
LINE
  5
2C69
  8
0
 10
2.2712110574998401
 20
0.8489163187991835
 30
0.0
 11
2.2789710822999041
 21
0.8323229276991241
 31
0.0
  0
LINE
  5
2C6A
  8
0
 10
2.039152579200163
 20
1.099533745199551
 30
0.0
 11
2.0336868222002522
 21
1.091465923899249
 31
0.0
  0
LINE
  5
2C6B
  8
0
 10
2.2789710822999041
 20
0.8323229276991241
 30
0.0
 11
2.2836270963007328
 21
0.8143562899992957
 31
0.0
  0
LINE
  5
2C6C
  8
0
 10
2.0458329485004461
 20
1.1072582553993009
 30
0.0
 11
2.039152579200163
 21
1.099533745199551
 31
0.0
  0
LINE
  5
2C6D
  8
0
 10
2.2836270963007328
 20
0.8143562899992957
 30
0.0
 11
2.2851791017001228
 21
0.7950164067992774
 31
0.0
  0
LINE
  5
2C6E
  8
0
 10
2.0537279301006488
 20
1.1146394533993771
 30
0.0
 11
2.0458329485004461
 21
1.1072582553993009
 31
0.0
  0
LINE
  5
2C6F
  8
0
 10
2.2851791017001228
 20
0.7950164067992774
 30
0.0
 11
2.2841669245999578
 21
0.7755620850994092
 31
0.0
  0
LINE
  5
2C70
  8
0
 10
2.0605432561997068
 20
1.119846345199448
 30
0.0
 11
2.0537279301006488
 21
1.1146394533993771
 31
0.0
  0
LINE
  5
2C71
  8
0
 10
2.2841669245999578
 20
0.7755620850994092
 30
0.0
 11
2.2811303933003719
 21
0.7572521362992575
 31
0.0
  0
LINE
  5
2C72
  8
0
 10
2.067763452700091
 20
1.124252176299251
 30
0.0
 11
2.0605432561997068
 21
1.119846345199448
 31
0.0
  0
LINE
  5
2C73
  8
0
 10
2.2811303933003719
 20
0.7572521362992575
 30
0.0
 11
2.2760695078000022
 21
0.7400865592994707
 31
0.0
  0
LINE
  5
2C74
  8
0
 10
2.075388520700471
 20
1.127856947799045
 30
0.0
 11
2.067763452700091
 21
1.124252176299251
 31
0.0
  0
LINE
  5
2C75
  8
0
 10
2.2760695078000022
 20
0.7400865592994707
 30
0.0
 11
2.2689842670001781
 21
0.7240653540995936
 31
0.0
  0
LINE
  5
2C76
  8
0
 10
2.0834184591003568
 20
1.1306606585994809
 30
0.0
 11
2.075388520700471
 21
1.127856947799045
 31
0.0
  0
LINE
  5
2C77
  8
0
 10
2.2689842670001781
 20
0.7240653540995936
 30
0.0
 11
2.259874673100057
 21
0.709188520699172
 31
0.0
  0
LINE
  5
2C78
  8
0
 10
2.091853268999329
 20
1.1326633086991931
 30
0.0
 11
2.0834184591003568
 21
1.1306606585994809
 31
0.0
  0
LINE
  5
2C79
  8
0
 10
2.259874673100057
 20
0.709188520699172
 30
0.0
 11
2.2487407250000611
 21
0.6954560590995698
 31
0.0
  0
LINE
  5
2C7A
  8
0
 10
2.1006929493005368
 20
1.1338648991993521
 30
0.0
 11
2.091853268999329
 21
1.1326633086991931
 31
0.0
  0
LINE
  5
2C7B
  8
0
 10
2.2487407250000611
 20
0.6954560590995698
 30
0.0
 11
2.2355824216001561
 21
0.6828679681989343
 31
0.0
  0
LINE
  5
2C7C
  8
0
 10
2.1099374999998868
 20
1.1342654300992761
 30
0.0
 11
2.1006929493005368
 21
1.1338648991993521
 31
0.0
  0
LINE
  5
2C7D
  8
0
 10
2.2355824216001561
 20
0.6828679681989343
 30
0.0
 11
2.2216143774003281
 21
0.6724541856992801
 31
0.0
  0
LINE
  5
2C7E
  8
0
 10
2.1191820507006009
 20
1.1338648991993521
 30
0.0
 11
2.1099374999998868
 21
1.1342654300992761
 31
0.0
  0
LINE
  5
2C7F
  8
0
 10
2.2216143774003281
 20
0.6724541856992801
 30
0.0
 11
2.2061618061998161
 21
0.6636425223994138
 31
0.0
  0
LINE
  5
2C80
  8
0
 10
2.1280217310004441
 20
1.1326633086991931
 30
0.0
 11
2.1191820507006009
 21
1.1338648991993521
 31
0.0
  0
LINE
  5
2C81
  8
0
 10
2.2061618061998161
 20
0.6636425223994138
 30
0.0
 11
2.1892247091000172
 21
0.656432979399142
 31
0.0
  0
LINE
  5
2C82
  8
0
 10
2.1364565409003262
 20
1.1306606585994809
 30
0.0
 11
2.1280217310004441
 21
1.1326633086991931
 31
0.0
  0
LINE
  5
2C83
  8
0
 10
2.1892247091000172
 20
0.656432979399142
 30
0.0
 11
2.1708030849999882
 21
0.6508255577991804
 31
0.0
  0
LINE
  5
2C84
  8
0
 10
2.1444864793006668
 20
1.127856947799045
 30
0.0
 11
2.1364565409003262
 21
1.1306606585994809
 31
0.0
  0
LINE
  5
2C85
  8
0
 10
2.1708030849999882
 20
0.6508255577991804
 30
0.0
 11
2.1508969349997642
 21
0.6468202564994954
 31
0.0
  0
LINE
  5
2C86
  8
0
 10
2.1521115473001369
 20
1.124252176299251
 30
0.0
 11
2.1444864793006668
 21
1.127856947799045
 31
0.0
  0
LINE
  5
2C87
  8
0
 10
2.1508969349997642
 20
0.6468202564994954
 30
0.0
 11
2.1295062580002191
 21
0.6444170754994048
 31
0.0
  0
LINE
  5
2C88
  8
0
 10
2.159331743799612
 20
1.119846345199448
 30
0.0
 11
2.1521115473001369
 21
1.124252176299251
 31
0.0
  0
LINE
  5
2C89
  8
0
 10
2.1295062580002191
 20
0.6444170754994048
 30
0.0
 11
2.1066310551004781
 21
0.6436160158991698
 31
0.0
  0
LINE
  5
2C8A
  8
0
 10
2.1661470699009442
 20
1.1146394533993771
 30
0.0
 11
2.159331743799612
 21
1.119846345199448
 31
0.0
  0
LINE
  5
2C8B
  8
0
 10
2.1066310551004781
 20
0.6436160158991698
 30
0.0
 11
2.0847005497998898
 21
0.6443598567993832
 31
0.0
  0
LINE
  5
2C8C
  8
0
 10
2.1747843150005788
 20
1.1062283198991729
 30
0.0
 11
2.1661470699009442
 21
1.1146394533993771
 31
0.0
  0
LINE
  5
2C8D
  8
0
 10
2.0847005497998898
 20
0.6443598567993832
 30
0.0
 11
2.064254571499986
 21
0.6465913827996701
 31
0.0
  0
LINE
  5
2C8E
  8
0
 10
2.1818020763007548
 20
1.0970161267991889
 30
0.0
 11
2.1747843150005788
 21
1.1062283198991729
 31
0.0
  0
LINE
  5
2C8F
  8
0
 10
2.064254571499986
 20
0.6465913827996701
 30
0.0
 11
2.0452931201998581
 21
0.650310590599247
 31
0.0
  0
LINE
  5
2C90
  8
0
 10
2.1872003549001411
 20
1.0870028740991979
 30
0.0
 11
2.1818020763007548
 21
1.0970161267991889
 31
0.0
  0
LINE
  5
2C91
  8
0
 10
2.0452931201998581
 20
0.650310590599247
 30
0.0
 11
2.0278161947999251
 21
0.6555174823993184
 31
0.0
  0
LINE
  5
2C92
  8
0
 10
2.1909791497000688
 20
1.0761885606989381
 30
0.0
 11
2.1872003549001411
 21
1.0870028740991979
 31
0.0
  0
LINE
  5
2C93
  8
0
 10
2.0278161947999251
 20
0.6555174823993184
 30
0.0
 11
2.0118237963997672
 21
0.6622120570993957
 31
0.0
  0
LINE
  5
2C94
  8
0
 10
2.193138460700538
 20
1.0645731865990911
 30
0.0
 11
2.1909791497000688
 21
1.0761885606989381
 31
0.0
  0
LINE
  5
2C95
  8
0
 10
2.0118237963997672
 20
0.6622120570993957
 30
0.0
 11
1.9973159238998051
 21
0.6703943157995127
 31
0.0
  0
LINE
  5
2C96
  8
0
 10
2.193678287900183
 20
1.052156751799429
 30
0.0
 11
2.193138460700538
 21
1.0645731865990911
 31
0.0
  0
LINE
  5
2C97
  8
0
 10
1.9973159238998051
 20
0.6703943157995127
 30
0.0
 11
1.984292578400527
 21
0.6800642573994084
 31
0.0
  0
LINE
  5
2C98
  8
0
 10
2.1925986323999491
 20
1.038939257398851
 30
0.0
 11
2.193678287900183
 21
1.052156751799429
 31
0.0
  0
LINE
  5
2C99
  8
0
 10
1.984292578400527
 20
0.6800642573994084
 30
0.0
 11
1.970257054700596
 21
0.6932245330992828
 31
0.0
  0
LINE
  5
2C9A
  8
0
 10
2.2686468749998312
 20
1.038939257398851
 30
0.0
 11
2.1925986323999491
 21
1.038939257398851
 31
0.0
  0
LINE
  5
2C9B
  8
0
 10
1.970257054700596
 20
0.6932245330992828
 30
0.0
 11
1.9583808431002581
 21
0.707071432099383
 31
0.0
  0
LINE
  5
2C9C
  8
0
 10
2.2685119182001472
 20
1.0598812619996349
 30
0.0
 11
2.2686468749998312
 21
1.038939257398851
 31
0.0
  0
LINE
  5
2C9D
  8
0
 10
1.9583808431002581
 20
0.707071432099383
 30
0.0
 11
1.948663942499933
 21
0.7216049543994814
 31
0.0
  0
LINE
  5
2C9E
  8
0
 10
2.2662176504004492
 20
1.0794500199992849
 30
0.0
 11
2.2685119182001472
 21
1.0598812619996349
 31
0.0
  0
LINE
  5
2C9F
  8
0
 10
1.948663942499933
 20
0.7216049543994814
 30
0.0
 11
1.9411063540001121
 21
0.7368250999993508
 31
0.0
  0
LINE
  5
2CA0
  8
0
 10
2.2617640705002482
 20
1.097645531399166
 30
0.0
 11
2.2662176504004492
 21
1.0794500199992849
 31
0.0
  0
LINE
  5
2CA1
  8
0
 10
1.9411063540001121
 20
0.7368250999993508
 30
0.0
 11
1.935708075400725
 21
0.7527318677994117
 31
0.0
  0
LINE
  5
2CA2
  8
0
 10
2.2551511796004879
 20
1.114467797299312
 30
0.0
 11
2.2617640705002482
 21
1.097645531399166
 31
0.0
  0
LINE
  5
2CA3
  8
0
 10
1.935708075400725
 20
0.7527318677994117
 30
0.0
 11
1.9324691088995669
 21
0.7693252588992438
 31
0.0
  0
LINE
  5
2CA4
  8
0
 10
2.2463789776998051
 20
1.1299168165992339
 30
0.0
 11
2.2551511796004879
 21
1.114467797299312
 31
0.0
  0
LINE
  5
2CA5
  8
0
 10
1.9324691088995669
 20
0.7693252588992438
 30
0.0
 11
1.931389453400697
 21
0.7866052732993012
 31
0.0
  0
LINE
  5
2CA6
  8
0
 10
2.2354474648000169
 20
1.143992590399193
 30
0.0
 11
2.2463789776998051
 21
1.1299168165992339
 31
0.0
  0
LINE
  5
2CA7
  8
0
 10
1.931389453400697
 20
0.7866052732993012
 30
0.0
 11
1.931389453400697
 21
0.81464238239937
 31
0.0
  0
LINE
  5
2CA8
  8
0
 10
2.222356640900216
 20
1.1566951175993829
 30
0.0
 11
2.2354474648000169
 21
1.143992590399193
 31
0.0
  0
LINE
  5
2CA9
  8
0
 10
1.931389453400697
 20
0.81464238239937
 30
0.0
 11
2.0074376948996351
 21
0.81464238239937
 31
0.0
  0
LINE
  5
2CAA
  8
0
 10
2.21034547140016
 20
1.165621217199259
 30
0.0
 11
2.222356640900216
 21
1.1566951175993829
 31
0.0
  0
LINE
  5
2CAB
  8
0
 10
2.0074376948996351
 20
0.81464238239937
 30
0.0
 11
2.0074376948996351
 21
0.789408984099282
 31
0.0
  0
LINE
  5
2CAC
  8
0
 10
2.1969847339000799
 20
1.173174071299399
 30
0.0
 11
2.21034547140016
 21
1.165621217199259
 31
0.0
  0
LINE
  5
2CAD
  8
0
 10
2.0074376948996351
 20
0.789408984099282
 30
0.0
 11
2.0079775232006791
 21
0.7770497690994489
 31
0.0
  0
LINE
  5
2CAE
  8
0
 10
2.1822744262003648
 20
1.1793536787995429
 30
0.0
 11
2.1969847339000799
 21
1.173174071299399
 31
0.0
  0
LINE
  5
2CAF
  8
0
 10
2.0079775232006791
 20
0.7770497690994489
 30
0.0
 11
2.0095970069996829
 21
0.765606051099212
 31
0.0
  0
LINE
  5
2CB0
  8
0
 10
2.1662145483005579
 20
1.184160040799497
 30
0.0
 11
2.1822744262003648
 21
1.1793536787995429
 31
0.0
  0
LINE
  5
2CB1
  8
0
 10
2.0095970069996829
 20
0.765606051099212
 30
0.0
 11
2.012296145199798
 21
0.7550778300992534
 31
0.0
  0
LINE
  5
2CB2
  8
0
 10
2.1488051023998191
 20
1.1875931561990001
 30
0.0
 11
2.1662145483005579
 21
1.184160040799497
 31
0.0
  0
LINE
  5
2CB3
  8
0
 10
2.012296145199798
 20
0.7550778300992534
 30
0.0
 11
2.0160749400001801
 21
0.7454651071996068
 31
0.0
  0
LINE
  5
2CB4
  8
0
 10
2.1300460862994441
 20
1.1896530249991879
 30
0.0
 11
2.1488051023998191
 21
1.1875931561990001
 31
0.0
  0
LINE
  5
2CB5
  8
0
 10
2.0160749400001801
 20
0.7454651071996068
 30
0.0
 11
2.0209333903003421
 21
0.7367678812993291
 31
0.0
  0
LINE
  5
2CB6
  8
0
 10
2.1099374999998868
 20
1.1903396482994131
 30
0.0
 11
2.1300460862994441
 21
1.1896530249991879
 31
0.0
  0
LINE
  5
2CB7
  8
0
 10
2.0209333903003421
 20
0.7367678812993291
 30
0.0
 11
2.0268714961002838
 21
0.7289861523991023
 31
0.0
  0
LINE
  5
2CB8
  8
0
 10
2.093135359700681
 20
1.1895385886991781
 30
0.0
 11
2.1099374999998868
 21
1.1903396482994131
 31
0.0
  0
LINE
  5
2CB9
  8
0
 10
2.0268714961002838
 20
0.7289861523991023
 30
0.0
 11
2.0338892574004599
 21
0.7221199215994149
 31
0.0
  0
LINE
  5
2CBA
  8
0
 10
2.076738089799619
 20
1.187135407699315
 30
0.0
 11
2.093135359700681
 21
1.1895385886991781
 31
0.0
  0
LINE
  5
2CBB
  8
0
 10
2.0338892574004599
 20
0.7221199215994149
 30
0.0
 11
2.0417167606001381
 21
0.7161691888993574
 31
0.0
  0
LINE
  5
2CBC
  8
0
 10
2.0607456914003701
 20
1.1831301063994031
 30
0.0
 11
2.076738089799619
 21
1.187135407699315
 31
0.0
  0
LINE
  5
2CBD
  8
0
 10
2.0417167606001381
 20
0.7161691888993574
 30
0.0
 11
2.050084092099496
 21
0.7111339520995444
 31
0.0
  0
LINE
  5
2CBE
  8
0
 10
2.0451581633997189
 20
1.1775226836991799
 30
0.0
 11
2.0607456914003701
 21
1.1831301063994031
 31
0.0
  0
LINE
  5
2CBF
  8
0
 10
2.050084092099496
 20
0.7111339520995444
 30
0.0
 11
2.0589912508003181
 21
0.7070142144991678
 31
0.0
  0
LINE
  5
2CC0
  8
0
 10
2.0299755057999391
 20
1.170313141799169
 30
0.0
 11
2.0451581633997189
 21
1.1775226836991799
 31
0.0
  0
LINE
  5
2CC1
  8
0
 10
2.0589912508003181
 20
0.7070142144991678
 30
0.0
 11
2.0684382377994548
 21
0.7038099727990357
 31
0.0
  0
LINE
  5
2CC2
  8
0
 10
2.0151977197001538
 20
1.161501478499303
 30
0.0
 11
2.0299755057999391
 21
1.170313141799169
 31
0.0
  0
LINE
  5
2CC3
  8
0
 10
2.0684382377994548
 20
0.7038099727990357
 30
0.0
 11
2.078425052000056
 21
0.7015212291994432
 31
0.0
  0
LINE
  5
2CC4
  8
0
 10
2.00082480509991
 20
1.15108769489916
 30
0.0
 11
2.0151977197001538
 21
1.161501478499303
 31
0.0
  0
LINE
  5
2CC5
  8
0
 10
2.078425052000056
 20
0.7015212291994432
 30
0.0
 11
2.088951694500337
 21
0.7001479825992192
 31
0.0
  0
LINE
  5
2CC6
  8
0
 10
1.9868567598000479
 20
1.138671261199306
 30
0.0
 11
2.00082480509991
 21
1.15108769489916
 31
0.0
  0
LINE
  5
2CC7
  8
0
 10
2.088951694500337
 20
0.7001479825992192
 30
0.0
 11
2.100018164200264
 21
0.6996902340993075
 31
0.0
  0
LINE
  5
2CC8
  8
0
 10
1.975182983400827
 20
1.125453766799182
 30
0.0
 11
1.9868567598000479
 21
1.138671261199306
 31
0.0
  0
LINE
  5
2CC9
  8
0
 10
2.100018164200264
 20
0.6996902340993075
 30
0.0
 11
2.1145935151007502
 21
0.7001479825992192
 31
0.0
  0
LINE
  5
2CCA
  8
0
 10
1.965803475900429
 20
1.1114352116992441
 30
0.0
 11
1.975182983400827
 21
1.125453766799182
 31
0.0
  0
LINE
  5
2CCB
  8
0
 10
2.1145935151007502
 20
0.7001479825992192
 30
0.0
 11
2.128089210500093
 21
0.7015212291994432
 31
0.0
  0
LINE
  5
2CCC
  8
0
 10
1.958718236200184
 20
1.096615596999527
 30
0.0
 11
1.965803475900429
 21
1.1114352116992441
 31
0.0
  0
LINE
  5
2CCD
  8
0
 10
2.128089210500093
 20
0.7015212291994432
 30
0.0
 11
2.140505249300531
 21
0.7038099727990357
 31
0.0
  0
LINE
  5
2CCE
  8
0
 10
1.9539272643005461
 20
1.08099492159954
 30
0.0
 11
1.958718236200184
 21
1.096615596999527
 31
0.0
  0
LINE
  5
2CCF
  8
0
 10
2.140505249300531
 20
0.7038099727990357
 30
0.0
 11
2.1518416337003141
 21
0.7070142144991678
 31
0.0
  0
LINE
  5
2CD0
  8
0
 10
1.951430560199696
 20
1.0645731865990911
 30
0.0
 11
1.9539272643005461
 21
1.08099492159954
 31
0.0
  0
LINE
  5
2CD1
  8
0
 10
2.1518416337003141
 20
0.7070142144991678
 30
0.0
 11
2.1620983615002838
 21
0.7111339520995444
 31
0.0
  0
LINE
  5
2CD2
  8
0
 10
1.951228124999943
 20
1.047350390899509
 30
0.0
 11
1.951430560199696
 21
1.0645731865990911
 31
0.0
  0
LINE
  5
2CD3
  8
0
 10
2.1620983615002838
 20
0.7111339520995444
 30
0.0
 11
2.1712754349000529
 21
0.7161691888993574
 31
0.0
  0
LINE
  5
2CD4
  8
0
 10
1.9531850007997491
 20
1.0302420314994829
 30
0.0
 11
1.951228124999943
 21
1.047350390899509
 31
0.0
  0
LINE
  5
2CD5
  8
0
 10
2.1712754349000529
 20
0.7161691888993574
 30
0.0
 11
2.1793728517004629
 21
0.7221199215994149
 31
0.0
  0
LINE
  5
2CD6
  8
0
 10
1.9571662307998841
 20
1.01416360759913
 30
0.0
 11
1.9531850007997491
 21
1.0302420314994829
 31
0.0
  0
LINE
  5
2CD7
  8
0
 10
2.1793728517004629
 20
0.7221199215994149
 30
0.0
 11
2.1872678333002109
 21
0.7296155569995335
 31
0.0
  0
LINE
  5
2CD8
  8
0
 10
1.9631718150003501
 20
0.9991151191993594
 30
0.0
 11
1.9571662307998841
 21
1.01416360759913
 31
0.0
  0
LINE
  5
2CD9
  8
0
 10
2.1872678333002109
 20
0.7296155569995335
 30
0.0
 11
2.1939482025995849
 21
0.7376833782993799
 31
0.0
  0
LINE
  5
2CDA
  8
0
 10
1.9712017534002371
 20
0.9850965640996491
 30
0.0
 11
1.9631718150003501
 21
0.9991151191993594
 31
0.0
  0
LINE
  5
2CDB
  8
0
 10
2.1939482025995849
 20
0.7376833782993799
 30
0.0
 11
2.1994139584994619
 21
0.7463233854996361
 31
0.0
  0
LINE
  5
2CDC
  8
0
 10
1.981256047100032
 20
0.9721079444993847
 30
0.0
 11
1.9712017534002371
 21
0.9850965640996491
 31
0.0
  0
LINE
  5
2CDD
  8
0
 10
2.1994139584994619
 20
0.7463233854996361
 30
0.0
 11
2.203665103199909
 21
0.7555355785993925
 31
0.0
  0
LINE
  5
2CDE
  8
0
 10
1.993334693900578
 20
0.9601492581991806
 30
0.0
 11
1.981256047100032
 21
0.9721079444993847
 31
0.0
  0
LINE
  5
2CDF
  8
0
 10
2.203665103199909
 20
0.7555355785993925
 30
0.0
 11
2.206701634500404
 21
0.7653199575995587
 31
0.0
  0
LINE
  5
2CE0
  8
0
 10
2.0074376948996351
 20
0.9492205073993318
 30
0.0
 11
1.993334693900578
 21
0.9601492581991806
 31
0.0
  0
LINE
  5
2CE1
  8
0
 10
2.206701634500404
 20
0.7653199575995587
 30
0.0
 11
2.2085235535005259
 21
0.7756765224989977
 31
0.0
  0
LINE
  5
2CE2
  8
0
 10
2.0284235015005829
 20
0.9349158598993199
 30
0.0
 11
2.0074376948996351
 21
0.9492205073993318
 31
0.0
  0
LINE
  5
2CE3
  8
0
 10
2.2085235535005259
 20
0.7756765224989977
 30
0.0
 11
2.209130859099786
 21
0.7866052732993012
 31
0.0
  0
LINE
  5
2CE4
  8
0
 10
2.049814178500128
 20
0.9208400871993944
 30
0.0
 11
2.0284235015005829
 21
0.9349158598993199
 31
0.0
  0
LINE
  5
2CE5
  8
0
 10
2.209130859099786
 20
0.7866052732993012
 30
0.0
 11
2.208186160400146
 21
0.79827786609917
 31
0.0
  0
LINE
  5
2CE6
  8
0
 10
2.0716097259000881
 20
0.9069931881995216
 30
0.0
 11
2.049814178500128
 21
0.9208400871993944
 31
0.0
  0
LINE
  5
2CE7
  8
0
 10
2.208186160400146
 20
0.79827786609917
 30
0.0
 11
2.2053520643007678
 21
0.8092638355990403
 31
0.0
  0
LINE
  5
2CE8
  8
0
 10
2.0938101448000448
 20
0.8933751628992467
 30
0.0
 11
2.0716097259000881
 21
0.9069931881995216
 31
0.0
  0
LINE
  5
2CE9
  8
0
 10
2.2053520643007678
 20
0.8092638355990403
 30
0.0
 11
2.2006285719007792
 21
0.8195631817993671
 31
0.0
  0
LINE
  5
2CEA
  8
0
 10
2.1164154341004169
 20
0.8799860134990922
 30
0.0
 11
2.0938101448000448
 21
0.8933751628992467
 31
0.0
  0
LINE
  5
2CEB
  8
0
 10
2.2006285719007792
 20
0.8195631817993671
 30
0.0
 11
2.1940156810005642
 21
0.829175904699241
 31
0.0
  0
LINE
  5
2CEC
  8
0
 10
2.1394255938002971
 20
0.8668257377989903
 30
0.0
 11
2.1164154341004169
 21
0.8799860134990922
 31
0.0
  0
LINE
  5
2CED
  8
0
 10
2.1940156810005642
 20
0.829175904699241
 30
0.0
 11
2.185513392700158
 21
0.8381020053993779
 31
0.0
  0
LINE
  5
2CEE
  8
0
 10
2.1628406250001708
 20
0.8538943357993957
 30
0.0
 11
2.1394255938002971
 21
0.8668257377989903
 31
0.0
  0
LINE
  5
2CEF
  8
0
 10
2.185513392700158
 20
0.8381020053993779
 30
0.0
 11
2.1751217081005052
 21
0.8463414816992553
 31
0.0
  0
LINE
  5
2CF0
  8
0
 10
2.1751217081005052
 20
0.8463414816992553
 30
0.0
 11
2.1628406250001708
 21
0.8538943357993957
 31
0.0
  0
LINE
  5
2CF1
  8
0
 10
3.0489486324004238
 20
1.1717436059993811
 30
0.0
 11
3.0626467629999752
 21
1.1635613483990701
 31
0.0
  0
LINE
  5
2CF2
  8
0
 10
3.0343058031003229
 20
1.1784381817988101
 30
0.0
 11
3.0489486324004238
 21
1.1717436059993811
 31
0.0
  0
LINE
  5
2CF3
  8
0
 10
3.0626467629999752
 20
1.1635613483990701
 30
0.0
 11
3.0754001948998839
 21
1.1538914056993681
 31
0.0
  0
LINE
  5
2CF4
  8
0
 10
3.0187182762006151
 20
1.183645073599336
 30
0.0
 11
3.0343058031003229
 21
1.1784381817988101
 31
0.0
  0
LINE
  5
2CF5
  8
0
 10
3.0754001948998839
 20
1.1538914056993681
 30
0.0
 11
3.0946990393008491
 21
1.133979336599622
 31
0.0
  0
LINE
  5
2CF6
  8
0
 10
3.0021860494998691
 20
1.187364281399595
 30
0.0
 11
3.0187182762006151
 21
1.183645073599336
 31
0.0
  0
LINE
  5
2CF7
  8
0
 10
3.0946990393008491
 20
1.133979336599622
 30
0.0
 11
3.1110288308000231
 21
1.109489780299554
 31
0.0
  0
LINE
  5
2CF8
  8
0
 10
2.9847091241008452
 20
1.1895958062993941
 30
0.0
 11
3.0021860494998691
 21
1.187364281399595
 31
0.0
  0
LINE
  5
2CF9
  8
0
 10
3.1110288308000231
 20
1.109489780299554
 30
0.0
 11
3.1243895683001019
 21
1.080422735699357
 31
0.0
  0
LINE
  5
2CFA
  8
0
 10
2.9662875000003619
 20
1.1903396482994131
 30
0.0
 11
2.9847091241008452
 21
1.1895958062993941
 31
0.0
  0
LINE
  5
2CFB
  8
0
 10
3.1243895683001019
 20
1.080422735699357
 30
0.0
 11
3.1347812540002451
 21
1.0467782049993271
 31
0.0
  0
LINE
  5
2CFC
  8
0
 10
2.9469886555998519
 20
1.1895958062993941
 30
0.0
 11
2.9662875000003619
 21
1.1903396482994131
 31
0.0
  0
LINE
  5
2CFD
  8
0
 10
3.1347812540002451
 20
1.0467782049993271
 30
0.0
 11
3.1422038868004161
 21
1.0085561859991681
 31
0.0
  0
LINE
  5
2CFE
  8
0
 10
2.9287694678005201
 20
1.187364281399595
 30
0.0
 11
2.9469886555998519
 21
1.1895958062993941
 31
0.0
  0
LINE
  5
2CFF
  8
0
 10
3.1422038868004161
 20
1.0085561859991681
 30
0.0
 11
3.1466574656005828
 21
0.9657566808996307
 31
0.0
  0
LINE
  5
2D00
  8
0
 10
2.911629934400934
 20
1.183645073599336
 30
0.0
 11
2.9287694678005201
 21
1.187364281399595
 31
0.0
  0
LINE
  5
2D01
  8
0
 10
3.1466574656005828
 20
0.9657566808996307
 30
0.0
 11
3.148141992599903
 21
0.9183796874990549
 31
0.0
  0
LINE
  5
2D02
  8
0
 10
2.895570057599798
 20
1.1784381817988101
 30
0.0
 11
2.911629934400934
 21
1.183645073599336
 31
0.0
  0
LINE
  5
2D03
  8
0
 10
3.148141992599903
 20
0.9183796874990549
 30
0.0
 11
3.1466574656005828
 21
0.8702588531996298
 31
0.0
  0
LINE
  5
2D04
  8
0
 10
2.8805898363002589
 20
1.1717436059993811
 30
0.0
 11
2.895570057599798
 21
1.1784381817988101
 31
0.0
  0
LINE
  5
2D05
  8
0
 10
3.1466574656005828
 20
0.8702588531996298
 30
0.0
 11
3.1422038868004161
 21
0.8268299423993994
 31
0.0
  0
LINE
  5
2D06
  8
0
 10
2.8666892694009221
 20
1.1635613483990701
 30
0.0
 11
2.8805898363002589
 21
1.1717436059993811
 31
0.0
  0
LINE
  5
2D07
  8
0
 10
3.1422038868004161
 20
0.8268299423993994
 30
0.0
 11
3.1347812540002451
 21
0.788092957299341
 31
0.0
  0
LINE
  5
2D08
  8
0
 10
2.8538683591004879
 20
1.1538914056993681
 30
0.0
 11
2.8666892694009221
 21
1.1635613483990701
 31
0.0
  0
LINE
  5
2D09
  8
0
 10
3.1347812540002451
 20
0.788092957299341
 30
0.0
 11
3.1243895683001019
 21
0.7540478956993866
 31
0.0
  0
LINE
  5
2D0A
  8
0
 10
2.8345695158004669
 20
1.133979336599622
 30
0.0
 11
2.8538683591004879
 21
1.1538914056993681
 31
0.0
  0
LINE
  5
2D0B
  8
0
 10
3.1243895683001019
 20
0.7540478956993866
 30
0.0
 11
3.1110288308000231
 21
0.7246947586991155
 31
0.0
  0
LINE
  5
2D0C
  8
0
 10
2.8182397242999282
 20
1.109489780299554
 30
0.0
 11
2.8345695158004669
 21
1.133979336599622
 31
0.0
  0
LINE
  5
2D0D
  8
0
 10
3.1110288308000231
 20
0.7246947586991155
 30
0.0
 11
3.0946990393008491
 21
0.7000335462992098
 31
0.0
  0
LINE
  5
2D0E
  8
0
 10
2.8048789857002698
 20
1.080422735699357
 30
0.0
 11
2.8182397242999282
 21
1.109489780299554
 31
0.0
  0
LINE
  5
2D0F
  8
0
 10
3.0946990393008491
 20
0.7000335462992098
 30
0.0
 11
3.0754001948998839
 21
0.6800642573994084
 31
0.0
  0
LINE
  5
2D10
  8
0
 10
2.794487301100161
 20
1.0467782049993271
 30
0.0
 11
2.8048789857002698
 21
1.080422735699357
 31
0.0
  0
LINE
  5
2D11
  8
0
 10
3.0754001948998839
 20
0.6800642573994084
 30
0.0
 11
3.0626467629999752
 21
0.6703943157995127
 31
0.0
  0
LINE
  5
2D12
  8
0
 10
2.7870646682995348
 20
1.0085561859991681
 30
0.0
 11
2.794487301100161
 21
1.0467782049993271
 31
0.0
  0
LINE
  5
2D13
  8
0
 10
3.0626467629999752
 20
0.6703943157995127
 30
0.0
 11
3.0489486324004238
 21
0.6622120570993957
 31
0.0
  0
LINE
  5
2D14
  8
0
 10
2.7826110894993681
 20
0.9657566808996307
 30
0.0
 11
2.7870646682995348
 21
1.0085561859991681
 31
0.0
  0
LINE
  5
2D15
  8
0
 10
3.0489486324004238
 20
0.6622120570993957
 30
0.0
 11
3.0343058031003229
 21
0.6555174823993184
 31
0.0
  0
LINE
  5
2D16
  8
0
 10
2.7811265625000479
 20
0.9183796874990549
 30
0.0
 11
2.7826110894993681
 21
0.9657566808996307
 31
0.0
  0
LINE
  5
2D17
  8
0
 10
3.0343058031003229
 20
0.6555174823993184
 30
0.0
 11
3.0187182762006151
 21
0.650310590599247
 31
0.0
  0
LINE
  5
2D18
  8
0
 10
2.7826110894993681
 20
0.8702588531996298
 30
0.0
 11
2.7811265625000479
 21
0.9183796874990549
 31
0.0
  0
LINE
  5
2D19
  8
0
 10
3.0187182762006151
 20
0.650310590599247
 30
0.0
 11
3.0021860494998691
 21
0.6465913827996701
 31
0.0
  0
LINE
  5
2D1A
  8
0
 10
2.7870646682995348
 20
0.8268299423993994
 30
0.0
 11
2.7826110894993681
 21
0.8702588531996298
 31
0.0
  0
LINE
  5
2D1B
  8
0
 10
3.0021860494998691
 20
0.6465913827996701
 30
0.0
 11
2.9847091241008452
 21
0.6443598567993832
 31
0.0
  0
LINE
  5
2D1C
  8
0
 10
2.794487301100161
 20
0.788092957299341
 30
0.0
 11
2.7870646682995348
 21
0.8268299423993994
 31
0.0
  0
LINE
  5
2D1D
  8
0
 10
2.9847091241008452
 20
0.6443598567993832
 30
0.0
 11
2.9662875000003619
 21
0.6436160158991698
 31
0.0
  0
LINE
  5
2D1E
  8
0
 10
2.8048789857002698
 20
0.7540478956993866
 30
0.0
 11
2.794487301100161
 21
0.788092957299341
 31
0.0
  0
LINE
  5
2D1F
  8
0
 10
2.9662875000003619
 20
0.6436160158991698
 30
0.0
 11
2.9469886555998519
 21
0.6443598567993832
 31
0.0
  0
LINE
  5
2D20
  8
0
 10
2.8182397242999282
 20
0.7246947586991155
 30
0.0
 11
2.8048789857002698
 21
0.7540478956993866
 31
0.0
  0
LINE
  5
2D21
  8
0
 10
2.9469886555998519
 20
0.6443598567993832
 30
0.0
 11
2.9287694678005201
 21
0.6465913827996701
 31
0.0
  0
LINE
  5
2D22
  8
0
 10
2.8345695158004669
 20
0.7000335462992098
 30
0.0
 11
2.8182397242999282
 21
0.7246947586991155
 31
0.0
  0
LINE
  5
2D23
  8
0
 10
2.9287694678005201
 20
0.6465913827996701
 30
0.0
 11
2.911629934400934
 21
0.650310590599247
 31
0.0
  0
LINE
  5
2D24
  8
0
 10
2.8538683591004879
 20
0.6800642573994084
 30
0.0
 11
2.8345695158004669
 21
0.7000335462992098
 31
0.0
  0
LINE
  5
2D25
  8
0
 10
2.911629934400934
 20
0.650310590599247
 30
0.0
 11
2.895570057599798
 21
0.6555174823993184
 31
0.0
  0
LINE
  5
2D26
  8
0
 10
2.8666892694009221
 20
0.6703943157995127
 30
0.0
 11
2.8538683591004879
 21
0.6800642573994084
 31
0.0
  0
LINE
  5
2D27
  8
0
 10
2.895570057599798
 20
0.6555174823993184
 30
0.0
 11
2.8805898363002589
 21
0.6622120570993957
 31
0.0
  0
LINE
  5
2D28
  8
0
 10
2.8805898363002589
 20
0.6622120570993957
 30
0.0
 11
2.8666892694009221
 21
0.6703943157995127
 31
0.0
  0
LINE
  5
2D29
  8
0
 10
3.8557019534000569
 20
1.1903396482994131
 30
0.0
 11
4.0210242182001821
 21
0.6436160158991698
 31
0.0
  0
LINE
  5
2D2A
  8
0
 10
3.7895730466002528
 20
1.1903396482994131
 30
0.0
 11
3.8557019534000569
 21
1.1903396482994131
 31
0.0
  0
LINE
  5
2D2B
  8
0
 10
4.0210242182001821
 20
0.6436160158991698
 30
0.0
 11
3.9416695318004709
 21
0.6436160158991698
 31
0.0
  0
LINE
  5
2D2C
  8
0
 10
3.6242507807005491
 20
0.6436160158991698
 30
0.0
 11
3.7895730466002528
 21
1.1903396482994131
 31
0.0
  0
LINE
  5
2D2D
  8
0
 10
3.9416695318004709
 20
0.6436160158991698
 30
0.0
 11
3.8953792965999119
 21
0.8034275391992196
 31
0.0
  0
LINE
  5
2D2E
  8
0
 10
3.7036054682002941
 20
0.6436160158991698
 30
0.0
 11
3.6242507807005491
 21
0.6436160158991698
 31
0.0
  0
LINE
  5
2D2F
  8
0
 10
3.8953792965999119
 20
0.8034275391992196
 30
0.0
 11
3.749895703400397
 21
0.8034275391992196
 31
0.0
  0
LINE
  5
2D30
  8
0
 10
3.749895703400397
 20
0.8034275391992196
 30
0.0
 11
3.7036054682002941
 21
0.6436160158991698
 31
0.0
  0
LINE
  5
2D31
  8
0
 10
3.8193310551005188
 20
1.0417429692993201
 30
0.0
 11
3.7664279300997801
 21
0.8566980465993765
 31
0.0
  0
LINE
  5
2D32
  8
0
 10
3.7664279300997801
 20
0.8566980465993765
 30
0.0
 11
3.8788470699005302
 21
0.8566980465993765
 31
0.0
  0
LINE
  5
2D33
  8
0
 10
3.8259439449007
 20
1.0417429692993201
 30
0.0
 11
3.8193310551005188
 21
1.0417429692993201
 31
0.0
  0
LINE
  5
2D34
  8
0
 10
3.8788470699005302
 20
0.8566980465993765
 30
0.0
 11
3.8259439449007
 21
1.0417429692993201
 31
0.0
  0
LINE
  5
2D35
  8
0
 10
0.0
 20
0.0
 30
0.0
 11
5.2469999999998427
 21
0.0
 31
0.0
  0
LINE
  5
2D36
  8
0
 10
0.1484999999997854
 20
0.1484999999997854
 30
0.0
 11
5.0984999999996026
 21
0.1484999999997854
 31
0.0
  0
LINE
  5
2D37
  8
0
 10
3.415500000000065
 20
2.276999999999588
 30
0.0
 11
3.11850000000004
 21
2.276999999999588
 31
0.0
  0
LINE
  5
2D38
  8
0
 10
3.11850000000004
 20
2.5599985850992648
 30
0.0
 11
3.11850000000004
 21
2.276999999999588
 31
0.0
  0
ARC
  5
2D39
  8
0
 10
2.4255000000002829
 20
3.266999999998915
 30
0.0
 40
0.9899999999999987
 50
225.57299599901029
 51
314.42700398160042
  0
LINE
  5
2D3A
  8
0
 10
1.7324999999982531
 20
2.5599985855756131
 30
0.0
 11
1.7325000000000721
 21
0.6434999999992215
 31
0.0
  0
LINE
  5
2D3B
  8
0
 10
1.7325000000000721
 20
0.6434999999992215
 30
0.0
 11
1.336499999999887
 21
0.6434999999992215
 31
0.0
  0
LINE
  5
2D3C
  8
0
 10
3.592849218199262
 20
1.1903396482994131
 30
0.0
 11
3.5201074216006409
 21
0.6436160158991698
 31
0.0
  0
LINE
  5
2D3D
  8
0
 10
3.5267203125004012
 20
1.1903396482994131
 30
0.0
 11
3.592849218199262
 21
1.1903396482994131
 31
0.0
  0
LINE
  5
2D3E
  8
0
 10
3.5201074216006409
 20
0.6436160158991698
 30
0.0
 11
3.4539785158999621
 21
0.6436160158991698
 31
0.0
  0
LINE
  5
2D3F
  8
0
 10
3.4837365233001938
 20
0.8398757817990372
 30
0.0
 11
3.5267203125004012
 21
1.1903396482994131
 31
0.0
  0
LINE
  5
2D40
  8
0
 10
3.4539785158999621
 20
0.6436160158991698
 30
0.0
 11
3.3944625000003721
 21
1.052957812499244
 31
0.0
  0
LINE
  5
2D41
  8
0
 10
3.4771236323999801
 20
0.8398757817990372
 30
0.0
 11
3.4837365233001938
 21
0.8398757817990372
 31
0.0
  0
LINE
  5
2D42
  8
0
 10
3.3944625000003721
 20
1.052957812499244
 30
0.0
 11
3.3878496091001571
 21
1.052957812499244
 31
0.0
  0
LINE
  5
2D43
  8
0
 10
3.4275269534009558
 20
1.1903396482994131
 30
0.0
 11
3.4771236323999801
 21
0.8398757817990372
 31
0.0
  0
LINE
  5
2D44
  8
0
 10
3.3878496091001571
 20
1.052957812499244
 30
0.0
 11
3.3283335932001128
 21
0.6436160158991698
 31
0.0
  0
LINE
  5
2D45
  8
0
 10
3.3547851556995729
 20
1.1903396482994131
 30
0.0
 11
3.4275269534009558
 21
1.1903396482994131
 31
0.0
  0
LINE
  5
2D46
  8
0
 10
3.3283335932001128
 20
0.6436160158991698
 30
0.0
 11
3.262204687500343
 21
0.6436160158991698
 31
0.0
  0
LINE
  5
2D47
  8
0
 10
3.30518847669964
 20
0.8398757817990372
 30
0.0
 11
3.3547851556995729
 21
1.1903396482994131
 31
0.0
  0
LINE
  5
2D48
  8
0
 10
3.262204687500343
 20
0.6436160158991698
 30
0.0
 11
3.1894628909003582
 21
1.1903396482994131
 31
0.0
  0
LINE
  5
2D49
  8
0
 10
3.2985755858007901
 20
0.8398757817990372
 30
0.0
 11
3.30518847669964
 21
0.8398757817990372
 31
0.0
  0
LINE
  5
2D4A
  8
0
 10
3.1894628909003582
 20
1.1903396482994131
 30
0.0
 11
3.255591796600128
 21
1.1903396482994131
 31
0.0
  0
LINE
  5
2D4B
  8
0
 10
3.255591796600128
 20
1.1903396482994131
 30
0.0
 11
3.2985755858007901
 21
0.8398757817990372
 31
0.0
  0
LINE
  5
2D4C
  8
0
 10
3.0205401941002492
 20
1.118530317299246
 30
0.0
 11
3.01183547060009
 21
1.1241949575996839
 31
0.0
  0
LINE
  5
2D4D
  8
0
 10
3.01183547060009
 20
1.1241949575996839
 30
0.0
 11
3.0029957902997921
 21
1.1288296634993451
 31
0.0
  0
LINE
  5
2D4E
  8
0
 10
3.029109960799814
 20
1.1118357425991681
 30
0.0
 11
3.0205401941002492
 21
1.118530317299246
 31
0.0
  0
LINE
  5
2D4F
  8
0
 10
3.0029957902997921
 20
1.1288296634993451
 30
0.0
 11
2.9940211532002641
 21
1.13243443499914
 31
0.0
  0
LINE
  5
2D50
  8
0
 10
3.0405138236001221
 20
1.098961559299368
 30
0.0
 11
3.029109960799814
 21
1.1118357425991681
 31
0.0
  0
LINE
  5
2D51
  8
0
 10
2.9940211532002641
 20
1.13243443499914
 30
0.0
 11
2.984911559300599
 21
1.1350092709992621
 31
0.0
  0
LINE
  5
2D52
  8
0
 10
3.0501632458008312
 20
1.0811665776991499
 30
0.0
 11
3.0405138236001221
 21
1.098961559299368
 31
0.0
  0
LINE
  5
2D53
  8
0
 10
2.984911559300599
 20
1.1350092709992621
 30
0.0
 11
2.9756670086003392
 21
1.136554173699323
 31
0.0
  0
LINE
  5
2D54
  8
0
 10
3.0580582274005792
 20
1.058450796699389
 30
0.0
 11
3.0501632458008312
 21
1.0811665776991499
 31
0.0
  0
LINE
  5
2D55
  8
0
 10
2.9756670086003392
 20
1.136554173699323
 30
0.0
 11
2.9662875000003619
 21
1.137069140899257
 31
0.0
  0
LINE
  5
2D56
  8
0
 10
3.0641987683998191
 20
1.0308142184992439
 30
0.0
 11
3.0580582274005792
 21
1.058450796699389
 31
0.0
  0
LINE
  5
2D57
  8
0
 10
2.9662875000003619
 20
1.137069140899257
 30
0.0
 11
2.9560307722003918
 21
1.136554173699323
 31
0.0
  0
LINE
  5
2D58
  8
0
 10
3.068584868799916
 20
0.9982568397995237
 30
0.0
 11
3.0641987683998191
 21
1.0308142184992439
 31
0.0
  0
LINE
  5
2D59
  8
0
 10
2.9560307722003918
 20
1.136554173699323
 30
0.0
 11
2.946043956900211
 21
1.1350092709992621
 31
0.0
  0
LINE
  5
2D5A
  8
0
 10
3.0712165296999951
 20
0.9607786627991573
 30
0.0
 11
3.068584868799916
 21
0.9982568397995237
 31
0.0
  0
LINE
  5
2D5B
  8
0
 10
2.946043956900211
 20
1.1350092709992621
 30
0.0
 11
2.9363270563007968
 21
1.13243443499914
 31
0.0
  0
LINE
  5
2D5C
  8
0
 10
3.0720937500000209
 20
0.9183796874990549
 30
0.0
 11
3.0712165296999951
 21
0.9607786627991573
 31
0.0
  0
LINE
  5
2D5D
  8
0
 10
2.9363270563007968
 20
1.13243443499914
 30
0.0
 11
2.9268800703998741
 21
1.1288296634993451
 31
0.0
  0
LINE
  5
2D5E
  8
0
 10
3.0712165296999951
 20
0.8752368701991599
 30
0.0
 11
3.0720937500000209
 21
0.9183796874990549
 31
0.0
  0
LINE
  5
2D5F
  8
0
 10
2.9268800703998741
 20
1.1288296634993451
 30
0.0
 11
2.9177029970005601
 21
1.1241949575996839
 31
0.0
  0
LINE
  5
2D60
  8
0
 10
3.068584868799916
 20
0.8371292885992716
 30
0.0
 11
3.0712165296999951
 21
0.8752368701991599
 31
0.0
  0
LINE
  5
2D61
  8
0
 10
2.9177029970005601
 20
1.1241949575996839
 30
0.0
 11
2.9087958382997381
 21
1.118530317299246
 31
0.0
  0
LINE
  5
2D62
  8
0
 10
3.0641987683998191
 20
0.8040569437994236
 30
0.0
 11
3.068584868799916
 21
0.8371292885992716
 31
0.0
  0
LINE
  5
2D63
  8
0
 10
2.9087958382997381
 20
1.118530317299246
 30
0.0
 11
2.9001585932001031
 21
1.1118357425991681
 31
0.0
  0
LINE
  5
2D64
  8
0
 10
3.0580582274005792
 20
0.7760198346993548
 30
0.0
 11
3.0641987683998191
 21
0.8040569437994236
 31
0.0
  0
LINE
  5
2D65
  8
0
 10
2.9001585932001031
 20
1.1118357425991681
 30
0.0
 11
2.8887547314998301
 21
1.098961559299368
 31
0.0
  0
LINE
  5
2D66
  8
0
 10
3.0501632458008312
 20
0.7530179612990651
 30
0.0
 11
3.0580582274005792
 21
0.7760198346993548
 31
0.0
  0
LINE
  5
2D67
  8
0
 10
2.8887547314998301
 20
1.098961559299368
 30
0.0
 11
2.8791053093000301
 21
1.0811665776991499
 31
0.0
  0
LINE
  5
2D68
  8
0
 10
3.0405138236001221
 20
0.7350513235994641
 30
0.0
 11
3.0501632458008312
 21
0.7530179612990651
 31
0.0
  0
LINE
  5
2D69
  8
0
 10
2.8791053093000301
 20
1.0811665776991499
 30
0.0
 11
2.8712103277002821
 21
1.058450796699389
 31
0.0
  0
LINE
  5
2D6A
  8
0
 10
3.029109960799814
 20
0.7221199215994149
 30
0.0
 11
3.0405138236001221
 21
0.7350513235994641
 31
0.0
  0
LINE
  5
2D6B
  8
0
 10
2.8712103277002821
 20
1.058450796699389
 30
0.0
 11
2.8650697867001318
 21
1.0308142184992439
 31
0.0
  0
LINE
  5
2D6C
  8
0
 10
3.0205401941002492
 20
0.7154253468993375
 30
0.0
 11
3.029109960799814
 21
0.7221199215994149
 31
0.0
  0
LINE
  5
2D6D
  8
0
 10
2.8650697867001318
 20
1.0308142184992439
 30
0.0
 11
2.860683685200001
 21
0.9982568397995237
 31
0.0
  0
LINE
  5
2D6E
  8
0
 10
3.01183547060009
 20
0.7097607065995817
 30
0.0
 11
3.0205401941002492
 21
0.7154253468993375
 31
0.0
  0
LINE
  5
2D6F
  8
0
 10
2.860683685200001
 20
0.9982568397995237
 30
0.0
 11
2.8580520253999562
 21
0.9607786627991573
 31
0.0
  0
LINE
  5
2D70
  8
0
 10
3.0029957902997921
 20
0.705126000699238
 30
0.0
 11
3.01183547060009
 21
0.7097607065995817
 31
0.0
  0
LINE
  5
2D71
  8
0
 10
2.8580520253999562
 20
0.9607786627991573
 30
0.0
 11
2.8571748050999299
 21
0.9183796874990549
 31
0.0
  0
LINE
  5
2D72
  8
0
 10
2.9940211532002641
 20
0.7015212291994432
 30
0.0
 11
3.0029957902997921
 21
0.705126000699238
 31
0.0
  0
LINE
  5
2D73
  8
0
 10
2.8571748050999299
 20
0.9183796874990549
 30
0.0
 11
2.8580520253999562
 21
0.8752368701991599
 31
0.0
  0
LINE
  5
2D74
  8
0
 10
2.984911559300599
 20
0.6989463931993214
 30
0.0
 11
2.9940211532002641
 21
0.7015212291994432
 31
0.0
  0
LINE
  5
2D75
  8
0
 10
2.8580520253999562
 20
0.8752368701991599
 30
0.0
 11
2.860683685200001
 21
0.8371292885992716
 31
0.0
  0
LINE
  5
2D76
  8
0
 10
2.9756670086003392
 20
0.6974014904994874
 30
0.0
 11
2.984911559300599
 21
0.6989463931993214
 31
0.0
  0
LINE
  5
2D77
  8
0
 10
2.860683685200001
 20
0.8371292885992716
 30
0.0
 11
2.8650697867001318
 21
0.8040569437994236
 31
0.0
  0
LINE
  5
2D78
  8
0
 10
2.9662875000003619
 20
0.6968865232993267
 30
0.0
 11
2.9756670086003392
 21
0.6974014904994874
 31
0.0
  0
LINE
  5
2D79
  8
0
 10
2.8650697867001318
 20
0.8040569437994236
 30
0.0
 11
2.8712103277002821
 21
0.7760198346993548
 31
0.0
  0
LINE
  5
2D7A
  8
0
 10
2.9560307722003918
 20
0.6974014904994874
 30
0.0
 11
2.9662875000003619
 21
0.6968865232993267
 31
0.0
  0
LINE
  5
2D7B
  8
0
 10
2.8712103277002821
 20
0.7760198346993548
 30
0.0
 11
2.8791053093000301
 21
0.7530179612990651
 31
0.0
  0
LINE
  5
2D7C
  8
0
 10
2.946043956900211
 20
0.6989463931993214
 30
0.0
 11
2.9560307722003918
 21
0.6974014904994874
 31
0.0
  0
LINE
  5
2D7D
  8
0
 10
2.8791053093000301
 20
0.7530179612990651
 30
0.0
 11
2.8887547314998301
 21
0.7350513235994641
 31
0.0
  0
LINE
  5
2D7E
  8
0
 10
2.9363270563007968
 20
0.7015212291994432
 30
0.0
 11
2.946043956900211
 21
0.6989463931993214
 31
0.0
  0
LINE
  5
2D7F
  8
0
 10
2.8887547314998301
 20
0.7350513235994641
 30
0.0
 11
2.9001585932001031
 21
0.7221199215994149
 31
0.0
  0
LINE
  5
2D80
  8
0
 10
2.9268800703998741
 20
0.705126000699238
 30
0.0
 11
2.9363270563007968
 21
0.7015212291994432
 31
0.0
  0
LINE
  5
2D81
  8
0
 10
2.9001585932001031
 20
0.7221199215994149
 30
0.0
 11
2.9087958382997381
 21
0.7154253468993375
 31
0.0
  0
LINE
  5
2D82
  8
0
 10
2.9177029970005601
 20
0.7097607065995817
 30
0.0
 11
2.9268800703998741
 21
0.705126000699238
 31
0.0
  0
LINE
  5
2D83
  8
0
 10
2.9087958382997381
 20
0.7154253468993375
 30
0.0
 11
2.9177029970005601
 21
0.7097607065995817
 31
0.0
  0
LINE
  5
2D84
  8
0
 10
2.7067412108003732
 20
1.1903396482994131
 30
0.0
 11
2.7067412108003732
 21
0.6436160158991698
 31
0.0
  0
LINE
  5
2D85
  8
0
 10
2.630692969300525
 20
1.1903396482994131
 30
0.0
 11
2.7067412108003732
 21
1.1903396482994131
 31
0.0
  0
LINE
  5
2D86
  8
0
 10
2.7067412108003732
 20
0.6436160158991698
 30
0.0
 11
2.630692969300525
 21
0.6436160158991698
 31
0.0
  0
LINE
  5
2D87
  8
0
 10
2.630692969300525
 20
0.9716501948992117
 30
0.0
 11
2.630692969300525
 21
1.1903396482994131
 31
0.0
  0
LINE
  5
2D88
  8
0
 10
2.630692969300525
 20
0.6436160158991698
 30
0.0
 11
2.630692969300525
 21
0.7809978516993397
 31
0.0
  0
LINE
  5
2D89
  8
0
 10
2.4422255858007702
 20
0.9716501948992117
 30
0.0
 11
2.630692969300525
 21
0.9716501948992117
 31
0.0
  0
LINE
  5
2D8A
  8
0
 10
2.630692969300525
 20
0.7809978516993397
 30
0.0
 11
2.630692969300525
 21
0.9183796874990549
 31
0.0
  0
LINE
  5
2D8B
  8
0
 10
2.4422255858007702
 20
1.1903396482994131
 30
0.0
 11
2.4422255858007702
 21
0.9716501948992117
 31
0.0
  0
LINE
  5
2D8C
  8
0
 10
2.630692969300525
 20
0.9183796874990549
 30
0.0
 11
2.4422255858007702
 21
0.9183796874990549
 31
0.0
  0
LINE
  5
2D8D
  8
0
 10
2.366177344300012
 20
1.1903396482994131
 30
0.0
 11
2.4422255858007702
 21
1.1903396482994131
 31
0.0
  0
LINE
  5
2D8E
  8
0
 10
2.4422255858007702
 20
0.9183796874990549
 30
0.0
 11
2.4422255858007702
 21
0.6436160158991698
 31
0.0
  0
LINE
  5
2D8F
  8
0
 10
2.366177344300012
 20
0.6436160158991698
 30
0.0
 11
2.366177344300012
 21
1.1903396482994131
 31
0.0
  0
LINE
  5
2D90
  8
0
 10
2.4422255858007702
 20
0.6436160158991698
 30
0.0
 11
2.366177344300012
 21
0.6436160158991698
 31
0.0
  0
LINE
  5
2D91
  8
0
 10
2.0702601557004519
 20
0.9856687499993768
 30
0.0
 11
2.090098828400186
 21
0.9715929761994175
 31
0.0
  0
LINE
  5
2D92
  8
0
 10
2.0579790736996979
 20
0.9953386915990449
 30
0.0
 11
2.0702601557004519
 21
0.9856687499993768
 31
0.0
  0
LINE
  5
2D93
  8
0
 10
2.090098828400186
 20
0.9715929761994175
 30
0.0
 11
2.1099374999998868
 21
0.9582038267994903
 31
0.0
  0
LINE
  5
2D94
  8
0
 10
2.0475873880004651
 20
1.0051230705994381
 30
0.0
 11
2.0579790736996979
 21
0.9953386915990449
 31
0.0
  0
LINE
  5
2D95
  8
0
 10
2.1099374999998868
 20
0.9582038267994903
 30
0.0
 11
2.129776171600497
 21
0.9455012995997549
 31
0.0
  0
LINE
  5
2D96
  8
0
 10
2.0390851008005479
 20
1.0150218869994201
 30
0.0
 11
2.0475873880004651
 21
1.0051230705994381
 31
0.0
  0
LINE
  5
2D97
  8
0
 10
2.129776171600497
 20
0.9455012995997549
 30
0.0
 11
2.1496148443002312
 21
0.9334853956993356
 31
0.0
  0
LINE
  5
2D98
  8
0
 10
5.2469999999998427
 20
0.0
 30
0.0
 11
5.2469999999998427
 21
5.2469999999998427
 31
0.0
  0
LINE
  5
2D99
  8
0
 10
0.0
 20
5.2469999999998427
 30
0.0
 11
0.0
 21
0.0
 31
0.0
  0
LINE
  5
2D9A
  8
0
 10
5.0984999999996026
 20
0.1484999999997854
 30
0.0
 11
5.0984999999996026
 21
5.0984999999996026
 31
0.0
  0
LINE
  5
2D9B
  8
0
 10
0.1484999999997854
 20
5.0984999999996026
 30
0.0
 11
0.1484999999997854
 21
0.1484999999997854
 31
0.0
  0
LINE
  5
2D9C
  8
0
 10
3.415500000000065
 20
4.6529999999988831
 30
0.0
 11
3.415500000000065
 21
2.276999999999588
 31
0.0
  0
ARC
  5
2D9D
  8
0
 10
2.4255000000002829
 20
3.266999999998915
 30
0.0
 40
0.692999999999999
 50
179.9999999999996
 51
0.0
  0
LINE
  5
2D9E
  8
0
 10
1.336499999999887
 20
4.6529999999988831
 30
0.0
 11
1.336499999999887
 21
0.6434999999992215
 31
0.0
  0
ENDBLK
  5
2DA0
  8
0
  0
BLOCK
  8
0
  2
_
 70
     0
 10
0.0
 20
0.0
 30
0.0
  3
_
  1

  0
ARC
  5
42F6
  8
002寸法
 10
-1.2990381056765721
 20
0.0
 30
0.0
 40
1.5
 50
30.000000000001251
 51
180.0
  0
ARC
  5
42F7
  8
002寸法
 10
1.299038105676743
 20
1.5
 30
0.0
 40
1.5
 50
209.9999999999998
 51
0.0
  0
ENDBLK
  5
42F5
  8
0
  0
BLOCK
  8
0
  2
_0
 70
     0
 10
0.0
 20
0.0
 30
0.0
  3
_0
  1

  0
POLYLINE
  5
4304
  8
002寸法
 66
     1
 10
0.0
 20
0.0
 30
0.0
 70
     1
  0
VERTEX
  5
6F71
  8
002寸法
 10
0.0
 20
0.0
 30
0.0
  0
VERTEX
  5
6F72
  8
002寸法
 10
1.5
 20
2.5980762113532592
 30
0.0
  0
VERTEX
  5
6F73
  8
002寸法
 10
-1.5
 20
2.5980762113532592
 30
0.0
  0
SEQEND
  5
6F74
  8
002寸法
  0
ENDBLK
  5
4303
  8
0
  0
BLOCK
  8
0
  2
__
 70
     0
 10
0.0
 20
0.0
 30
0.0
  3
__
  1

  0
POLYLINE
  5
431A
  8
002寸法
 66
     1
 10
0.0
 20
0.0
 30
0.0
 70
     1
  0
VERTEX
  5
6F77
  8
002寸法
 10
-1.4999999999999429
 20
0.0
 30
0.0
  0
VERTEX
  5
6F78
  8
002寸法
 10
0.0000000000000568
 20
2.5980762113532592
 30
0.0
  0
VERTEX
  5
6F79
  8
002寸法
 10
-2.9999999999999432
 20
2.5980762113532592
 30
0.0
  0
SEQEND
  5
6F7A
  8
002寸法
  0
POLYLINE
  5
431B
  8
002寸法
 66
     1
 10
0.0
 20
0.0
 30
0.0
 70
     1
  0
VERTEX
  5
6F7B
  8
002寸法
 10
1.500000000000056
 20
0.0
 30
0.0
  0
VERTEX
  5
6F7C
  8
002寸法
 10
3.000000000000056
 20
2.5980762113532592
 30
0.0
  0
VERTEX
  5
6F7D
  8
002寸法
 10
0.0000000000000568
 20
2.5980762113532592
 30
0.0
  0
SEQEND
  5
6F7E
  8
002寸法
  0
ENDBLK
  5
4319
  8
0
  0
BLOCK
  8
0
  2
___
 70
     0
 10
0.0
 20
0.0
 30
0.0
  3
___
  1

  0
POLYLINE
  5
4332
  8
002寸法
 66
     1
 10
0.0
 20
0.0
 30
0.0
 70
     1
  0
VERTEX
  5
6F81
  8
002寸法
 10
-3.0
 20
0.0
 30
0.0
  0
VERTEX
  5
6F82
  8
002寸法
 10
-1.5
 20
2.5980762113532592
 30
0.0
  0
VERTEX
  5
6F83
  8
002寸法
 10
-4.5
 20
2.5980762113532592
 30
0.0
  0
SEQEND
  5
6F84
  8
002寸法
  0
POLYLINE
  5
4333
  8
002寸法
 66
     1
 10
0.0
 20
0.0
 30
0.0
 70
     1
  0
VERTEX
  5
6F85
  8
002寸法
 10
0.0
 20
0.0
 30
0.0
  0
VERTEX
  5
6F86
  8
002寸法
 10
1.5
 20
2.5980762113532592
 30
0.0
  0
VERTEX
  5
6F87
  8
002寸法
 10
-1.5
 20
2.5980762113532592
 30
0.0
  0
SEQEND
  5
6F88
  8
002寸法
  0
POLYLINE
  5
4334
  8
002寸法
 66
     1
 10
0.0
 20
0.0
 30
0.0
 70
     1
  0
VERTEX
  5
6F89
  8
002寸法
 10
3.0
 20
0.0
 30
0.0
  0
VERTEX
  5
6F8A
  8
002寸法
 10
4.5
 20
2.5980762113532592
 30
0.0
  0
VERTEX
  5
6F8B
  8
002寸法
 10
1.5
 20
2.5980762113532592
 30
0.0
  0
SEQEND
  5
6F8C
  8
002寸法
  0
ENDBLK
  5
4331
  8
0
  0
BLOCK
  8
0
  2
____
 70
     0
 10
0.0
 20
0.0
 30
0.0
  3
____
  1

  0
POLYLINE
  5
4342
  8
002寸法
 66
     1
 10
0.0
 20
0.0
 30
0.0
 70
     1
  0
VERTEX
  5
6F8F
  8
002寸法
 10
-4.5
 20
0.0
 30
0.0
  0
VERTEX
  5
6F90
  8
002寸法
 10
-3.0
 20
2.5980762113532592
 30
0.0
  0
VERTEX
  5
6F91
  8
002寸法
 10
-6.0
 20
2.5980762113532592
 30
0.0
  0
SEQEND
  5
6F92
  8
002寸法
  0
POLYLINE
  5
4343
  8
002寸法
 66
     1
 10
0.0
 20
0.0
 30
0.0
 70
     1
  0
VERTEX
  5
6F93
  8
002寸法
 10
-1.5
 20
0.0
 30
0.0
  0
VERTEX
  5
6F94
  8
002寸法
 10
0.0
 20
2.5980762113532592
 30
0.0
  0
VERTEX
  5
6F95
  8
002寸法
 10
-3.0
 20
2.5980762113532592
 30
0.0
  0
SEQEND
  5
6F96
  8
002寸法
  0
POLYLINE
  5
4344
  8
002寸法
 66
     1
 10
0.0
 20
0.0
 30
0.0
 70
     1
  0
VERTEX
  5
6F97
  8
002寸法
 10
1.5
 20
0.0
 30
0.0
  0
VERTEX
  5
6F98
  8
002寸法
 10
3.0
 20
2.5980762113532592
 30
0.0
  0
VERTEX
  5
6F99
  8
002寸法
 10
0.0
 20
2.5980762113532592
 30
0.0
  0
SEQEND
  5
6F9A
  8
002寸法
  0
POLYLINE
  5
4345
  8
002寸法
 66
     1
 10
0.0
 20
0.0
 30
0.0
 70
     1
  0
VERTEX
  5
6F9B
  8
002寸法
 10
4.5
 20
0.0
 30
0.0
  0
VERTEX
  5
6F9C
  8
002寸法
 10
6.0
 20
2.5980762113532592
 30
0.0
  0
VERTEX
  5
6F9D
  8
002寸法
 10
3.0
 20
2.5980762113532592
 30
0.0
  0
SEQEND
  5
6F9E
  8
002寸法
  0
ENDBLK
  5
4341
  8
0
  0
BLOCK
  8
0
  2
___G
 70
     0
 10
0.0
 20
0.0
 30
0.0
  3
___G
  1

  0
POLYLINE
  5
4354
  8
002寸法
 66
     1
 10
0.0
 20
0.0
 30
0.0
 70
     1
  0
VERTEX
  5
6FA1
  8
002寸法
 10
-3.0
 20
0.0
 30
0.0
  0
VERTEX
  5
6FA2
  8
002寸法
 10
-1.5
 20
2.5980762113532592
 30
0.0
  0
VERTEX
  5
6FA3
  8
002寸法
 10
-4.5
 20
2.5980762113532592
 30
0.0
  0
SEQEND
  5
6FA4
  8
002寸法
  0
POLYLINE
  5
4355
  8
002寸法
 66
     1
 10
0.0
 20
0.0
 30
0.0
 70
     1
  0
VERTEX
  5
6FA5
  8
002寸法
 10
0.0
 20
0.0
 30
0.0
  0
VERTEX
  5
6FA6
  8
002寸法
 10
1.5
 20
2.5980762113532592
 30
0.0
  0
VERTEX
  5
6FA7
  8
002寸法
 10
-1.5
 20
2.5980762113532592
 30
0.0
  0
SEQEND
  5
6FA8
  8
002寸法
  0
POLYLINE
  5
4356
  8
002寸法
 66
     1
 10
0.0
 20
0.0
 30
0.0
 70
     1
  0
VERTEX
  5
6FA9
  8
002寸法
 10
3.0
 20
0.0
 30
0.0
  0
VERTEX
  5
6FAA
  8
002寸法
 10
4.5
 20
2.5980762113532592
 30
0.0
  0
VERTEX
  5
6FAB
  8
002寸法
 10
1.5
 20
2.5980762113532592
 30
0.0
  0
SEQEND
  5
6FAC
  8
002寸法
  0
LINE
  5
4357
  8
002寸法
 10
4.5
 20
2.5980762113532592
 30
0.0
 11
7.0
 21
6.9282032302754706
 31
0.0
  0
LINE
  5
4358
  8
002寸法
 10
7.0
 20
6.9282032302754706
 30
0.0
 11
10.0
 21
6.9282032302754706
 31
0.0
  0
INSERT
  5
4359
  8
011形状
  2
*U22
 10
0.0
 20
0.0
 30
0.0
  0
ENDBLK
  5
4353
  8
0
  0
BLOCK
  8
0
  2
_TAGCIRCLE
 70
     2
 10
0.0
 20
0.0
 30
0.0
  3
_TAGCIRCLE
  1

  0
CIRCLE
  5
4422
  8
0
  6
BYBLOCK
 10
0.0
 20
0.0
 30
0.0
 40
4.0
  0
ATTDEF
  5
4423
  8
002寸法
 62
     2
 10
-6.7999999999999989
 20
-1.5
 30
0.0
 40
3.0
  1
タグ番号
 72
     1
 11
0.0
 21
-1.5
 31
0.0
  3
タグ番号を入力
  2
タグ番号
 70
     0
  0
ENDBLK
  5
43E5
  8
0
  0
BLOCK
  8
0
  2
訂正記号
 70
     2
 10
0.0
 20
0.0
 30
0.0
  3
訂正記号
  1

  0
POLYLINE
  5
45CE
  8
002寸法
 66
     1
 10
0.0
 20
0.0
 30
0.0
 70
     1
  0
VERTEX
  5
6FB7
  8
002寸法
 10
0.0
 20
4.3301270189222123
 30
0.0
  0
VERTEX
  5
6FB8
  8
002寸法
 10
-2.5
 20
0.0
 30
0.0
  0
VERTEX
  5
6FB9
  8
002寸法
 10
2.5
 20
0.0
 30
0.0
  0
SEQEND
  5
6FBA
  8
002寸法
  0
ATTDEF
  5
45CF
  8
002寸法
 62
     2
 10
-3.3999999999999999
 20
0.4433756729740637
 30
0.0
 40
2.0
  1
1
 41
0.75
 72
     1
 11
0.0
 21
1.443375672974063
 31
0.0
  3

  2
訂正番号
 70
     0
 74
     2
1001
AcDbAttr
1070
     0
1070
     1
  0
ENDBLK
  5
4475
  8
0
  0
BLOCK
  8
0
  2
A$C4741278F
 70
     0
 10
0.0
 20
0.0
 30
0.0
  3
A$C4741278F
  1

  0
POLYLINE
  5
4FCA
  8
003注釈
 66
     1
 10
0.0
 20
0.0
 30
0.0
 70
     1
  0
VERTEX
  5
6FC6
  8
003注釈
 10
4.9999975654500304
 20
1.250001047003934
 30
0.0
  0
VERTEX
  5
6FC7
  8
003注釈
 10
2.499997565450037
 20
1.250001047003934
 30
0.0
  0
VERTEX
  5
6FC8
  8
003注釈
 10
2.499997565450037
 20
0.0000010470039342
 30
0.0
  0
VERTEX
  5
6FC9
  8
003注釈
 10
-0.0000024345499625
 20
2.5000010470039342
 30
0.0
  0
VERTEX
  5
6FCA
  8
003注釈
 10
2.499997565450037
 20
5.0000010470039342
 30
0.0
  0
VERTEX
  5
6FCB
  8
003注釈
 10
2.499997565450037
 20
3.7500010470039342
 30
0.0
  0
VERTEX
  5
6FCC
  8
003注釈
 10
4.9999975654500304
 20
3.7500010470039622
 30
0.0
  0
SEQEND
  5
6FCD
  8
003注釈
  0
LINE
  5
4FCB
  8
0
 10
-0.0000024345499625
 20
2.5000010470039342
 30
0.0
 11
4.9999975654500304
 21
2.5000010470039342
 31
0.0
  0
LINE
  5
4FCC
  8
0
 10
2.499997565450037
 20
3.7500010470039342
 30
0.0
 11
2.499997565450037
 21
1.250001047003934
 31
0.0
  0
ENDBLK
  5
4FD0
  8
0
  0
BLOCK
  8
0
  2
*D12
 70
     1
 10
0.0
 20
0.0
 30
0.0
  3
*D12
  1

  0
LINE
  5
6E65
  8
002寸法
 10
688.29999999999995
 20
210.5
 30
0.0
 11
688.29999999999995
 21
246.75
 31
0.0
  0
LINE
  5
6E66
  8
002寸法
 10
857.69999999999993
 20
210.5
 30
0.0
 11
857.69999999999993
 21
246.75
 31
0.0
  0
LINE
  5
6E67
  8
002寸法
 10
690.79999999999995
 20
246.0
 30
0.0
 11
855.20000000000005
 21
246.0
 31
0.0
  0
INSERT
  5
6E68
  8
002寸法
  2
_OPEN
 10
688.29999999999995
 20
246.0
 30
0.0
 41
2.5
 42
2.5
 43
2.5
 50
180.0
  0
INSERT
  5
6E69
  8
002寸法
  2
_OPEN
 10
857.69999999999993
 20
246.0
 30
0.0
 41
2.5
 42
2.5
 43
2.5
  0
INSERT
  5
6E6A
  8
011形状
  2
*U60
 10
0.0
 20
0.0
 30
0.0
  0
POINT
  5
6E6B
  8
DEFPOINTS
 62
     0
 10
688.29999999999995
 20
210.0
 30
0.0
  0
POINT
  5
6E6C
  8
DEFPOINTS
 62
     0
 10
857.69999999999993
 20
210.0
 30
0.0
  0
POINT
  5
6E6D
  8
DEFPOINTS
 62
     0
 10
857.69999999999993
 20
246.0
 30
0.0
  0
ENDBLK
  5
6E03
  8
0
  0
BLOCK
  8
0
  2
*D13
 70
     1
 10
0.0
 20
0.0
 30
0.0
  3
*D13
  1

  0
LINE
  5
6E10
  8
002寸法
 10
752.5
 20
207.5
 30
0.0
 11
725.25
 21
207.5
 31
0.0
  0
LINE
  5
6E11
  8
002寸法
 10
752.5
 20
212.5
 30
0.0
 11
725.25
 21
212.5
 31
0.0
  0
LINE
  5
6E12
  8
002寸法
 10
726.0
 20
215.0
 30
0.0
 11
726.0
 21
217.5
 31
0.0
  0
LINE
  5
6E13
  8
002寸法
 10
726.0
 20
205.0
 30
0.0
 11
726.0
 21
196.6142857142857
 31
0.0
  0
LINE
  5
6E14
  8
002寸法
 10
726.0
 20
212.5
 30
0.0
 11
726.0
 21
207.5
 31
0.0
  0
INSERT
  5
6E15
  8
002寸法
  2
_OPEN
 10
726.0
 20
212.5
 30
0.0
 41
2.5
 42
2.5
 43
2.5
 50
270.0
  0
INSERT
  5
6E16
  8
002寸法
  2
_OPEN
 10
726.0
 20
207.5
 30
0.0
 41
2.5
 42
2.5
 43
2.5
 50
90.0
  0
INSERT
  5
6E17
  8
011形状
  2
*U53
 10
0.0
 20
0.0
 30
0.0
  0
POINT
  5
6E18
  8
DEFPOINTS
 62
     0
 10
753.0
 20
207.5
 30
0.0
  0
POINT
  5
6E19
  8
DEFPOINTS
 62
     0
 10
753.0
 20
212.5
 30
-0.5
  0
POINT
  5
6E1A
  8
DEFPOINTS
 62
     0
 10
726.0
 20
212.5
 30
0.0
  0
ENDBLK
  5
6E0F
  8
0
  0
BLOCK
  8
0
  2
*D14
 70
     1
 10
0.0
 20
0.0
 30
0.0
  3
*D14
  1

  0
LINE
  5
6E1E
  8
002寸法
 10
851.5
 20
194.0
 30
0.0
 11
897.24999999999727
 21
194.0
 31
0.0
  0
LINE
  5
6E1F
  8
002寸法
 10
851.5
 20
226.0
 30
0.0
 11
897.24999999999727
 21
226.0
 31
0.0
  0
LINE
  5
6E20
  8
002寸法
 10
896.49999999999727
 20
196.5
 30
0.0
 11
896.49999999999727
 21
223.5
 31
0.0
  0
INSERT
  5
6E21
  8
002寸法
  2
_OPEN
 10
896.49999999999727
 20
194.0
 30
0.0
 41
2.5
 42
2.5
 43
2.5
 50
270.0
  0
INSERT
  5
6E22
  8
002寸法
  2
_OPEN
 10
896.49999999999727
 20
226.0
 30
0.0
 41
2.5
 42
2.5
 43
2.5
 50
90.0
  0
INSERT
  5
6E23
  8
011形状
  2
*U54
 10
0.0
 20
0.0
 30
0.0
  0
POINT
  5
6E24
  8
DEFPOINTS
 62
     0
 10
851.0
 20
194.0
 30
0.0
  0
POINT
  5
6E25
  8
DEFPOINTS
 62
     0
 10
851.0
 20
226.0
 30
0.0
  0
POINT
  5
6E26
  8
DEFPOINTS
 62
     0
 10
896.49999999999727
 20
226.0
 30
0.0
  0
ENDBLK
  5
6E1D
  8
0
  0
BLOCK
  8
0
  2
*D15
 70
     1
 10
0.0
 20
0.0
 30
0.0
  3
*D15
  1

  0
LINE
  5
6E2A
  8
002寸法
 10
755.0
 20
129.5
 30
0.0
 11
755.0
 21
92.249999999999986
 31
0.0
  0
LINE
  5
6E2B
  8
002寸法
 10
795.0
 20
107.5
 30
0.0
 11
795.0
 21
92.249999999999986
 31
0.0
  0
LINE
  5
6E2C
  8
002寸法
 10
757.5
 20
93.0
 30
0.0
 11
792.49999999999989
 21
93.0
 31
0.0
  0
INSERT
  5
6E2D
  8
002寸法
  2
_OPEN
 10
755.0
 20
93.0
 30
0.0
 41
2.5
 42
2.5
 43
2.5
 50
180.0
  0
INSERT
  5
6E2E
  8
002寸法
  2
_OPEN
 10
795.0
 20
93.0
 30
0.0
 41
2.5
 42
2.5
 43
2.5
  0
INSERT
  5
6E2F
  8
011形状
  2
*U55
 10
0.0
 20
0.0
 30
0.0
  0
POINT
  5
6E30
  8
DEFPOINTS
 62
     0
 10
755.0
 20
130.0
 30
0.0
  0
POINT
  5
6E31
  8
DEFPOINTS
 62
     0
 10
795.0
 20
108.0
 30
0.0
  0
POINT
  5
6E32
  8
DEFPOINTS
 62
     0
 10
795.0
 20
93.0
 30
0.0
  0
ENDBLK
  5
6E29
  8
0
  0
BLOCK
  8
0
  2
*D16
 70
     1
 10
0.0
 20
0.0
 30
0.0
  3
*D16
  1

  0
LINE
  5
6E36
  8
002寸法
 10
851.5
 20
130.0
 30
0.0
 11
897.24999999999727
 21
130.0
 31
0.0
  0
LINE
  5
6E37
  8
002寸法
 10
851.5
 20
157.0
 30
0.0
 11
897.24999999999727
 21
157.0
 31
0.0
  0
LINE
  5
6E38
  8
002寸法
 10
896.49999999999727
 20
132.5
 30
0.0
 11
896.49999999999727
 21
154.5
 31
0.0
  0
INSERT
  5
6E39
  8
002寸法
  2
_OPEN
 10
896.49999999999727
 20
130.0
 30
0.0
 41
2.5
 42
2.5
 43
2.5
 50
270.0
  0
INSERT
  5
6E3A
  8
002寸法
  2
_OPEN
 10
896.49999999999727
 20
157.0
 30
0.0
 41
2.5
 42
2.5
 43
2.5
 50
90.0
  0
INSERT
  5
6E3B
  8
011形状
  2
*U56
 10
0.0
 20
0.0
 30
0.0
  0
POINT
  5
6E3C
  8
DEFPOINTS
 62
     0
 10
851.0
 20
130.0
 30
0.0
  0
POINT
  5
6E3D
  8
DEFPOINTS
 62
     0
 10
851.0
 20
157.0
 30
0.0
  0
POINT
  5
6E3E
  8
DEFPOINTS
 62
     0
 10
896.49999999999727
 20
157.0
 30
0.0
  0
ENDBLK
  5
6E35
  8
0
  0
BLOCK
  8
0
  2
*D17
 70
     1
 10
0.0
 20
0.0
 30
0.0
  3
*D17
  1

  0
LINE
  5
6E42
  8
002寸法
 10
953.5
 20
118.0
 30
0.0
 11
981.75
 21
118.0
 31
0.0
  0
LINE
  5
6E43
  8
002寸法
 10
956.49999999999989
 20
145.0
 30
0.0
 11
981.75
 21
145.0
 31
0.0
  0
LINE
  5
6E44
  8
002寸法
 10
981.0
 20
120.5
 30
0.0
 11
981.0
 21
142.5
 31
0.0
  0
INSERT
  5
6E45
  8
002寸法
  2
_OPEN
 10
981.0
 20
118.0
 30
0.0
 41
2.5
 42
2.5
 43
2.5
 50
270.0
  0
INSERT
  5
6E46
  8
002寸法
  2
_OPEN
 10
981.0
 20
145.0
 30
0.0
 41
2.5
 42
2.5
 43
2.5
 50
90.0
  0
INSERT
  5
6E47
  8
011形状
  2
*U57
 10
0.0
 20
0.0
 30
0.0
  0
POINT
  5
6E48
  8
DEFPOINTS
 62
     0
 10
953.0
 20
118.0
 30
0.0
  0
POINT
  5
6E49
  8
DEFPOINTS
 62
     0
 10
956.0
 20
145.0
 30
0.0
  0
POINT
  5
6E4A
  8
DEFPOINTS
 62
     0
 10
981.0
 20
145.0
 30
0.0
  0
ENDBLK
  5
6E41
  8
0
  0
BLOCK
  8
0
  2
*D18
 70
     1
 10
0.0
 20
0.0
 30
0.0
  3
*D18
  1

  0
LINE
  5
6E4E
  8
002寸法
 10
947.0
 20
108.5
 30
0.0
 11
947.0
 21
92.249999999999986
 31
0.0
  0
LINE
  5
6E4F
  8
002寸法
 10
953.0
 20
108.5
 30
0.0
 11
953.0
 21
92.249999999999986
 31
0.0
  0
LINE
  5
6E50
  8
002寸法
 10
944.5
 20
93.0
 30
0.0
 11
942.0
 21
93.0
 31
0.0
  0
LINE
  5
6E51
  8
002寸法
 10
955.49999999999989
 20
93.0
 30
0.0
 11
958.0
 21
93.0
 31
0.0
  0
LINE
  5
6E52
  8
002寸法
 10
947.0
 20
93.0
 30
0.0
 11
953.0
 21
93.0
 31
0.0
  0
INSERT
  5
6E53
  8
002寸法
  2
_OPEN
 10
947.0
 20
93.0
 30
0.0
 41
2.5
 42
2.5
 43
2.5
  0
INSERT
  5
6E54
  8
002寸法
  2
_OPEN
 10
953.0
 20
93.0
 30
0.0
 41
2.5
 42
2.5
 43
2.5
 50
180.0
  0
INSERT
  5
6E55
  8
011形状
  2
*U58
 10
0.0
 20
0.0
 30
0.0
  0
POINT
  5
6E56
  8
DEFPOINTS
 62
     0
 10
947.0
 20
109.0
 30
0.0
  0
POINT
  5
6E57
  8
DEFPOINTS
 62
     0
 10
953.0
 20
109.0
 30
0.0
  0
POINT
  5
6E58
  8
DEFPOINTS
 62
     0
 10
953.0
 20
93.0
 30
0.0
  0
ENDBLK
  5
6E4D
  8
0
  0
BLOCK
  8
0
  2
*D19
 70
     1
 10
0.0
 20
0.0
 30
0.0
  3
*D19
  1

  0
LINE
  5
6E5C
  8
002寸法
 10
688.29999999999995
 20
210.5
 30
0.0
 11
688.29999999999995
 21
236.75
 31
0.0
  0
LINE
  5
6E5D
  8
002寸法
 10
755.0
 20
226.5
 30
0.0
 11
755.0
 21
236.75
 31
0.0
  0
LINE
  5
6E5E
  8
002寸法
 10
690.79999999999995
 20
236.0
 30
0.0
 11
752.5
 21
236.0
 31
0.0
  0
INSERT
  5
6E5F
  8
002寸法
  2
_OPEN
 10
688.29999999999995
 20
236.0
 30
0.0
 41
2.5
 42
2.5
 43
2.5
 50
180.0
  0
INSERT
  5
6E60
  8
002寸法
  2
_OPEN
 10
755.0
 20
236.0
 30
0.0
 41
2.5
 42
2.5
 43
2.5
  0
INSERT
  5
6E61
  8
011形状
  2
*U59
 10
0.0
 20
0.0
 30
0.0
  0
POINT
  5
6E62
  8
DEFPOINTS
 62
     0
 10
688.29999999999995
 20
210.0
 30
0.0
  0
POINT
  5
6E63
  8
DEFPOINTS
 62
     0
 10
755.0
 20
226.0
 30
0.0
  0
POINT
  5
6E64
  8
DEFPOINTS
 62
     0
 10
755.0
 20
236.0
 30
0.0
  0
ENDBLK
  5
6E5B
  8
0
  0
BLOCK
  8
0
  2
*D20
 70
     1
 10
0.0
 20
0.0
 30
0.0
  3
*D20
  1

  0
LINE
  5
7128
  8
002寸法
 10
755.0
 20
226.5
 30
0.0
 11
755.0
 21
236.75
 31
0.0
  0
LINE
  5
7129
  8
002寸法
 10
851.0
 20
226.5
 30
0.0
 11
851.0
 21
236.75
 31
0.0
  0
LINE
  5
712A
  8
002寸法
 10
757.5
 20
236.0
 30
0.0
 11
848.49999999999989
 21
236.0
 31
0.0
  0
INSERT
  5
712B
  8
002寸法
  2
_OPEN
 10
755.0
 20
236.0
 30
0.0
 41
2.5
 42
2.5
 43
2.5
 50
180.0
  0
INSERT
  5
712C
  8
002寸法
  2
_OPEN
 10
851.0
 20
236.0
 30
0.0
 41
2.5
 42
2.5
 43
2.5
  0
TEXT
  8
002寸法
  40
3
  5
715A
  62
2
  72
0
  71
0
 10
803.000
 20
234.100
 30
0.000000
  1
96
  0
POINT
  5
712E
  8
DEFPOINTS
 62
     0
 10
755.0
 20
226.0
 30
0.0
  0
POINT
  5
712F
  8
DEFPOINTS
 62
     0
 10
851.0
 20
226.0
 30
0.0
  0
POINT
  5
7130
  8
DEFPOINTS
 62
     0
 10
851.0
 20
236.0
 30
0.0
  0
ENDBLK
  5
6E70
  8
0
  0
BLOCK
  8
0
  2
*D21
 70
     1
 10
0.0
 20
0.0
 30
0.0
  3
*D21
  1

  0
LINE
  5
7131
  8
002寸法
 10
851.0
 20
226.5
 30
0.0
 11
851.0
 21
236.75
 31
0.0
  0
LINE
  5
7132
  8
002寸法
 10
857.69999999999993
 20
210.5
 30
0.0
 11
857.69999999999993
 21
236.75
 31
0.0
  0
LINE
  5
7133
  8
002寸法
 10
853.5
 20
236.0
 30
0.0
 11
855.20000000000005
 21
236.0
 31
0.0
  0
INSERT
  5
7134
  8
002寸法
  2
_OPEN
 10
851.0
 20
236.0
 30
0.0
 41
2.5
 42
2.5
 43
2.5
 50
180.0
  0
INSERT
  5
7135
  8
002寸法
  2
_OPEN
 10
857.69999999999993
 20
236.0
 30
0.0
 41
2.5
 42
2.5
 43
2.5
  0
TEXT
  8
002寸法
  40
3
  5
715B
  62
2
  72
0
  71
0
 10
854.350
 20
234.100
 30
0.000000
  1
6.7
  0
POINT
  5
7137
  8
DEFPOINTS
 62
     0
 10
851.0
 20
226.0
 30
0.0
  0
POINT
  5
7138
  8
DEFPOINTS
 62
     0
 10
857.69999999999993
 20
210.0
 30
0.0
  0
POINT
  5
7139
  8
DEFPOINTS
 62
     0
 10
857.69999999999993
 20
236.0
 30
0.0
  0
ENDBLK
  5
6E7C
  8
0
  0
BLOCK
  8
0
  2
*U22
 70
     1
 10
0.0
 20
0.0
 30
0.0
  3
*U22
  1

  0
TEXT
  5
6FAE
  8
002寸法
 62
     2
 10
7.1499999999999986
 20
7.9282032302754706
 30
0.0
 40
3.0
  1
G
 41
0.9
  0
ENDBLK
  5
6FB0
  8
0
  0
BLOCK
  8
0
  2
*U23
 70
     1
 10
0.0
 20
0.0
 30
0.0
  3
*U23
  1

  0
TEXT
  5
6FE2
  8
DEFPOINTS
 10
929.82087628865975
 20
53.307989690721662
 30
0.0
 40
2.5
  1
尺　度
  7
表題
  0
ENDBLK
  5
6FE4
  8
0
  0
BLOCK
  8
0
  2
*U24
 70
     1
 10
0.0
 20
0.0
 30
0.0
  3
*U24
  1

  0
TEXT
  5
6FE6
  8
DEFPOINTS
 10
951.80154639175259
 20
53.353092783505147
 30
0.0
 40
2.5
  1
承　認
  7
表題
  0
ENDBLK
  5
6FE8
  8
0
  0
BLOCK
  8
0
  2
*U25
 70
     1
 10
0.0
 20
0.0
 30
0.0
  3
*U25
  1

  0
TEXT
  5
6FEA
  8
DEFPOINTS
 10
971.36597938144337
 20
53.301546391752581
 30
0.0
 40
2.5
  1
査　閲
  7
表題
  0
ENDBLK
  5
6FEC
  8
0
  0
BLOCK
  8
0
  2
*U26
 70
     1
 10
0.0
 20
0.0
 30
0.0
  3
*U26
  1

  0
TEXT
  5
6FEE
  8
DEFPOINTS
 10
990.80798969072168
 20
53.333762886597938
 30
0.0
 40
2.5
  1
作　成
  7
表題
  0
ENDBLK
  5
6FF0
  8
0
  0
BLOCK
  8
0
  2
*U27
 70
     1
 10
0.0
 20
0.0
 30
0.0
  3
*U27
  1

  0
TEXT
  5
6FF2
  8
DEFPOINTS
 10
932.77061855670092
 20
45.0
 30
0.0
 40
3.0
  1
：
  7
表題
  0
ENDBLK
  5
6FF4
  8
0
  0
BLOCK
  8
0
  2
*U28
 70
     1
 10
0.0
 20
0.0
 30
0.0
  3
*U28
  1

  0
TEXT
  5
6FF6
  8
DEFPOINTS
 10
928.12628865979377
 20
38.301546391752581
 30
0.0
 40
2.5
  1
第三角法
  7
表題
  0
ENDBLK
  5
6FF8
  8
0
  0
BLOCK
  8
0
  2
*U29
 70
     1
 10
0.0
 20
0.0
 30
0.0
  3
*U29
  1

  0
TEXT
  5
6FFA
  8
DEFPOINTS
 10
922.84536082474222
 20
32.855670103092791
 30
0.0
 40
2.0
  1
名　　称
  7
表題
  0
ENDBLK
  5
6FFC
  8
0
  0
BLOCK
  8
0
  2
*U30
 70
     1
 10
0.0
 20
0.0
 30
0.0
  3
*U30
  1

  0
TEXT
  5
6FFE
  8
DEFPOINTS
 10
922.80412371134014
 20
22.407216494845361
 30
0.0
 40
2.0
  1
図　　番
  7
表題
  0
ENDBLK
  5
7000
  8
0
  0
BLOCK
  8
0
  2
*U31
 70
     1
 10
0.0
 20
0.0
 30
0.0
  3
*U31
  1

  0
TEXT
  5
7002
  8
DEFPOINTS
 10
987.97938144329885
 20
22.5
 30
0.0
 40
2.0
  1
SHT
  7
表題
  0
ENDBLK
  5
7004
  8
0
  0
BLOCK
  8
0
  2
*U32
 70
     1
 10
0.0
 20
0.0
 30
0.0
  3
*U32
  1

  0
TEXT
  5
7006
  8
DEFPOINTS
 10
996.03608247422676
 20
17.061855670103089
 30
0.0
 40
3.0
  1
／
  7
表題
  0
ENDBLK
  5
7008
  8
0
  0
BLOCK
  8
0
  2
*U33
 70
     1
 10
0.0
 20
0.0
 30
0.0
  3
*U33
  1

  0
TEXT
  5
700F
  8
DEFPOINTS
 10
929.82989690721649
 20
278.56185567010311
 30
0.0
 40
2.0
  1
版数
  7
表題
  0
ENDBLK
  5
7011
  8
0
  0
BLOCK
  8
0
  2
*U34
 70
     1
 10
0.0
 20
0.0
 30
0.0
  3
*U34
  1

  0
TEXT
  5
7013
  8
DEFPOINTS
 10
940.48453608247416
 20
278.54639175257739
 30
0.0
 40
2.0
  1
日付／変更記事／通知No.
  7
表題
  0
ENDBLK
  5
7015
  8
0
  0
BLOCK
  8
0
  2
*U35
 70
     1
 10
0.0
 20
0.0
 30
0.0
  3
*U35
  1

  0
TEXT
  5
7017
  8
DEFPOINTS
 10
977.86082474226794
 20
278.58247422680409
 30
0.0
 40
2.0
  1
承認
  7
表題
  0
ENDBLK
  5
7019
  8
0
  0
BLOCK
  8
0
  2
*U36
 70
     1
 10
0.0
 20
0.0
 30
0.0
  3
*U36
  1

  0
TEXT
  5
701B
  8
DEFPOINTS
 10
987.91237113402065
 20
278.54123711340208
 30
0.0
 40
2.0
  1
査閲
  7
表題
  0
ENDBLK
  5
701D
  8
0
  0
BLOCK
  8
0
  2
*U37
 70
     1
 10
0.0
 20
0.0
 30
0.0
  3
*U37
  1

  0
TEXT
  5
701F
  8
DEFPOINTS
 10
997.86597938144325
 20
278.56701030927837
 30
0.0
 40
2.0
  1
作成
  7
表題
  0
ENDBLK
  5
7021
  8
0
  0
BLOCK
  8
0
  2
*U38
 70
     1
 10
0.0
 20
0.0
 30
0.0
  3
*U38
  1

  0
TEXT
  5
7023
  8
003注釈
 10
928.32142857142856
 20
45.0
 30
0.0
 40
3.0
  1
1   1
 41
0.9
  0
ENDBLK
  5
7025
  8
0
  0
BLOCK
  8
0
  2
*U39
 70
     1
 10
0.0
 20
0.0
 30
0.0
  3
*U39
  1

  0
TEXT
  5
7027
  8
003注釈
 10
927.11428571428576
 20
27.0
 30
0.0
 40
3.0
  1
9E08-D3B-50
 41
0.9
  0
ENDBLK
  5
7029
  8
0
  0
BLOCK
  8
0
  2
*U40
 70
     1
 10
0.0
 20
0.0
 30
0.0
  3
*U40
  1

  0
TEXT
  5
702B
  8
003注釈
 10
937.39285714285711
 20
21.0
 30
0.0
 40
2.5
  1
A11810-A7-1
 41
0.9
  0
ENDBLK
  5
702D
  8
0
  0
BLOCK
  8
0
  2
*U41
 70
     1
 10
0.0
 20
0.0
 30
0.0
  3
*U41
  1

  0
TEXT
  5
7033
  8
003注釈
 10
658.60571428571427
 20
214.0
 30
0.0
 40
3.0
  1
変位方向(+)
 41
0.9
  0
ENDBLK
  5
7035
  8
0
  0
BLOCK
  8
0
  2
*X42
 70
     1
 10
0.0
 20
0.0
 30
0.0
  3
*X42
  1

  0
LINE
  5
7043
  8
0
 62
     0
 10
856.65800544150909
 20
213.5199999999999
 30
0.0
 11
855.74199455849248
 21
213.5199999999999
 31
0.0
  0
LINE
  5
7044
  8
0
 62
     0
 10
856.60245014017005
 20
212.88499999999991
 30
0.0
 11
855.79754985983152
 21
212.88499999999991
 31
0.0
  0
LINE
  5
7045
  8
0
 62
     0
 10
856.54689483883112
 20
212.25
 30
0.0
 11
855.85310516117045
 21
212.25
 31
0.0
  0
LINE
  5
7046
  8
0
 62
     0
 10
856.49133953749219
 20
211.6149999999999
 30
0.0
 11
855.90866046250926
 21
211.6149999999999
 31
0.0
  0
LINE
  5
7047
  8
0
 62
     0
 10
856.43578423615315
 20
210.9799999999999
 30
0.0
 11
855.9642157638483
 21
210.9799999999999
 31
0.0
  0
LINE
  5
7048
  8
0
 62
     0
 10
856.38022893481445
 20
210.345
 30
0.0
 11
856.01977106518734
 21
210.345
 31
0.0
  0
LINE
  5
7049
  8
0
 62
     0
 10
856.32467363347519
 20
209.70999999999989
 30
0.0
 11
856.07532636652616
 21
209.70999999999989
 31
0.0
  0
LINE
  5
704A
  8
0
 62
     0
 10
856.26911833213637
 20
209.0749999999999
 30
0.0
 11
856.13088166786531
 21
209.0749999999999
 31
0.0
  0
LINE
  5
704B
  8
0
 62
     0
 10
856.21356303079745
 20
208.44
 30
0.0
 11
856.18643696920424
 21
208.44
 31
0.0
  0
ENDBLK
  5
704D
  8
0
  0
BLOCK
  8
0
  2
*X43
 70
     1
 10
0.0
 20
0.0
 30
0.0
  3
*X43
  1

  0
LINE
  5
704F
  8
0
 62
     0
 10
694.15566243270246
 20
212.25
 30
0.0
 11
690.44433756729734
 21
212.25
 31
0.0
  0
LINE
  5
7050
  8
0
 62
     0
 10
693.78904501176714
 20
211.61500000000001
 30
0.0
 11
690.81095498823265
 21
211.61500000000001
 31
0.0
  0
LINE
  5
7051
  8
0
 62
     0
 10
693.42242759083172
 20
210.9799999999999
 30
0.0
 11
691.17757240916819
 21
210.9799999999999
 31
0.0
  0
LINE
  5
7052
  8
0
 62
     0
 10
693.05581016989629
 20
210.345
 30
0.0
 11
691.54418983010362
 21
210.345
 31
0.0
  0
LINE
  5
7053
  8
0
 62
     0
 10
692.68919274896086
 20
209.71000000000001
 30
0.0
 11
691.91080725103905
 21
209.71000000000001
 31
0.0
  0
LINE
  5
7054
  8
0
 62
     0
 10
692.32257532802544
 20
209.0749999999999
 30
0.0
 11
692.27742467197436
 21
209.0749999999999
 31
0.0
  0
ENDBLK
  5
7056
  8
0
  0
BLOCK
  8
0
  2
*U44
 70
     1
 10
0.0
 20
0.0
 30
0.0
  3
*U44
  1

  0
TEXT
  5
7058
  8
011形状
 10
813.74999999999989
 20
204.46428571428569
 30
0.0
 40
2.5
  1
30
 50
270.0
 41
0.9
  0
ENDBLK
  5
705A
  8
0
  0
BLOCK
  8
0
  2
*U45
 70
     1
 10
0.0
 20
0.0
 30
0.0
  3
*U45
  1

  0
TEXT
  5
705C
  8
011形状
 10
803.74999999999989
 20
204.46428571428569
 30
0.0
 40
2.5
  1
20
 50
270.0
 41
0.9
  0
ENDBLK
  5
705E
  8
0
  0
BLOCK
  8
0
  2
*U46
 70
     1
 10
0.0
 20
0.0
 30
0.0
  3
*U46
  1

  0
TEXT
  5
7060
  8
011形状
 10
793.75
 20
204.46428571428569
 30
0.0
 40
2.5
  1
10
 50
270.0
 41
0.9
  0
ENDBLK
  5
7062
  8
0
  0
BLOCK
  8
0
  2
*U47
 70
     1
 10
0.0
 20
0.0
 30
0.0
  3
*U47
  1

  0
TEXT
  5
7064
  8
011形状
 10
783.75
 20
202.32142857142861
 30
0.0
 40
2.5
  1
0
 50
270.0
 41
0.9
  0
ENDBLK
  5
7066
  8
0
  0
BLOCK
  8
0
  2
*U48
 70
     1
 10
0.0
 20
0.0
 30
0.0
  3
*U48
  1

  0
TEXT
  5
7068
  8
011形状
 10
837.65714285714284
 20
202.90571428571431
 30
0.0
 40
0.8
  1
m/m
 50
270.0
 41
0.9
  0
ENDBLK
  5
706A
  8
0
  0
BLOCK
  8
0
  2
*X49
 70
     1
 10
0.0
 20
0.0
 30
0.0
  3
*X49
  1

  0
LINE
  5
7102
  8
0
 62
     0
 10
694.15566243270246
 20
147.24999999999989
 30
0.0
 11
690.44433756729734
 21
147.24999999999989
 31
0.0
  0
LINE
  5
7103
  8
0
 62
     0
 10
693.78904501176714
 20
146.6149999999999
 30
0.0
 11
690.81095498823265
 21
146.6149999999999
 31
0.0
  0
LINE
  5
7104
  8
0
 62
     0
 10
693.42242759083172
 20
145.9799999999999
 30
0.0
 11
691.17757240916819
 21
145.9799999999999
 31
0.0
  0
LINE
  5
7105
  8
0
 62
     0
 10
693.05581016989629
 20
145.34499999999991
 30
0.0
 11
691.54418983010362
 21
145.34499999999991
 31
0.0
  0
LINE
  5
7106
  8
0
 62
     0
 10
692.68919274896086
 20
144.70999999999989
 30
0.0
 11
691.91080725103905
 21
144.70999999999989
 31
0.0
  0
LINE
  5
7107
  8
0
 62
     0
 10
692.32257532802544
 20
144.0749999999999
 30
0.0
 11
692.27742467197436
 21
144.0749999999999
 31
0.0
  0
ENDBLK
  5
7109
  8
0
  0
BLOCK
  8
0
  2
*U50
 70
     1
 10
0.0
 20
0.0
 30
0.0
  3
*U50
  1

  0
TEXT
  5
710D
  8
002寸法
 62
     2
 10
809.45999999999992
 20
92.619237886466834
 30
0.0
 40
3.0
  1
\U+03C66.5取付穴
 41
0.9
  0
POLYLINE
  5
710E
  8
002寸法
  6
BYBLOCK
 66
     1
 10
0.0
 20
0.0
 30
0.0
  0
VERTEX
  5
710F
  8
002寸法
  6
BYBLOCK
 10
797.87499999999989
 20
113.0203539282395
 30
0.0
  0
VERTEX
  5
7110
  8
002寸法
  6
BYBLOCK
 10
810.0
 20
92.01923788646684
 30
0.0
  0
SEQEND
  5
7111
  8
002寸法
  6
BYBLOCK
  0
INSERT
  5
7112
  8
002寸法
  2
_OPEN
 10
796.625
 20
115.18541743770059
 30
0.0
 41
2.5
 42
2.5
 43
2.5
 50
119.9999999999999
  0
POLYLINE
  5
7113
  8
002寸法
  6
BYBLOCK
 66
     1
 10
0.0
 20
0.0
 30
0.0
  0
VERTEX
  5
7114
  8
002寸法
  6
BYBLOCK
 10
810.0
 20
92.01923788646684
 30
0.0
  0
VERTEX
  5
7115
  8
002寸法
  6
BYBLOCK
 10
828.12857142857126
 20
92.01923788646684
 30
0.0
  0
SEQEND
  5
7116
  8
002寸法
  6
BYBLOCK
  0
ENDBLK
  5
7118
  8
0
  0
BLOCK
  8
0
  2
*U51
 70
     1
 10
0.0
 20
0.0
 30
0.0
  3
*U51
  1

  0
TEXT
  5
7121
  8
011形状
 10
833.75
 20
204.46428571428569
 30
0.0
 40
2.5
  1
50
 50
270.0
 41
0.9
  0
ENDBLK
  5
7123
  8
0
  0
BLOCK
  8
0
  2
*U52
 70
     1
 10
0.0
 20
0.0
 30
0.0
  3
*U52
  1

  0
TEXT
  5
7125
  8
011形状
 10
823.75
 20
204.46428571428569
 30
0.0
 40
2.5
  1
40
 50
270.0
 41
0.9
  0
ENDBLK
  5
7127
  8
0
  0
BLOCK
  8
0
  2
*U53
 70
     1
 10
0.0
 20
0.0
 30
0.0
  3
*U53
  1

  0
TEXT
  5
713B
  8
002寸法
 62
     2
 10
725.49999999999989
 20
196.57428571428579
 30
0.0
 40
3.0
  1
\U+03C65
 50
90.0
 41
0.9
  0
ENDBLK
  5
713D
  8
0
  0
BLOCK
  8
0
  2
*U54
 70
     1
 10
0.0
 20
0.0
 30
0.0
  3
*U54
  1

  0
TEXT
  5
713F
  8
002寸法
 62
     2
 10
895.99999999999716
 20
207.42857142857159
 30
0.0
 40
3.0
  1
32
 50
90.0
 41
0.9
  0
ENDBLK
  5
7141
  8
0
  0
BLOCK
  8
0
  2
*U55
 70
     1
 10
0.0
 20
0.0
 30
0.0
  3
*U55
  1

  0
TEXT
  5
7143
  8
002寸法
 62
     2
 10
772.42857142857144
 20
93.499999999999986
 30
0.0
 40
3.0
  1
40
 41
0.9
  0
ENDBLK
  5
7145
  8
0
  0
BLOCK
  8
0
  2
*U56
 70
     1
 10
0.0
 20
0.0
 30
0.0
  3
*U56
  1

  0
TEXT
  5
7147
  8
002寸法
 62
     2
 10
895.99999999999716
 20
140.92857142857159
 30
0.0
 40
3.0
  1
27
 50
90.0
 41
0.9
  0
ENDBLK
  5
7149
  8
0
  0
BLOCK
  8
0
  2
*U57
 70
     1
 10
0.0
 20
0.0
 30
0.0
  3
*U57
  1

  0
TEXT
  5
714B
  8
002寸法
 62
     2
 10
980.49999999999989
 20
128.92857142857159
 30
0.0
 40
3.0
  1
27
 50
90.0
 41
0.9
  0
ENDBLK
  5
714D
  8
0
  0
BLOCK
  8
0
  2
*U58
 70
     1
 10
0.0
 20
0.0
 30
0.0
  3
*U58
  1

  0
TEXT
  5
714F
  8
002寸法
 62
     2
 10
948.64999999999986
 20
93.499999999999986
 30
0.0
 40
3.0
  1
6
 41
0.9
  0
ENDBLK
  5
7151
  8
0
  0
BLOCK
  8
0
  2
*U59
 70
     1
 10
0.0
 20
0.0
 30
0.0
  3
*U59
  1

  0
TEXT
  5
7153
  8
002寸法
 62
     2
 10
717.08571428571418
 20
236.5
 30
0.0
 40
3.0
  1
66.7
 41
0.9
  0
ENDBLK
  5
7155
  8
0
  0
BLOCK
  8
0
  2
*U60
 70
     1
 10
0.0
 20
0.0
 30
0.0
  3
*U60
  1

  0
TEXT
  5
7157
  8
002寸法
 62
     2
 10
766.9571428571428
 20
246.5
 30
0.0
 40
3.0
  1
169.4
 41
0.9
  0
ENDBLK
  5
7159
  8
0
  0
ENDSEC
  0
SECTION
  2
ENTITIES
  0
POLYLINE
  5
5F8A
  8
DEFPOINTS
 66
     1
 10
0.0
 20
0.0
 30
0.0
 70
     1
  0
VERTEX
  5
6FD2
  8
DEFPOINTS
 10
600.0
 20
0.0
 30
0.0
  0
VERTEX
  5
6FD3
  8
DEFPOINTS
 10
1020.0
 20
0.0
 30
0.0
  0
VERTEX
  5
6FD4
  8
DEFPOINTS
 10
1020.0
 20
297.0
 30
0.0
  0
VERTEX
  5
6FD5
  8
DEFPOINTS
 10
600.0
 20
297.0
 30
0.0
  0
SEQEND
  5
6FD6
  8
DEFPOINTS
  0
POLYLINE
  5
5F8B
  8
DEFPOINTS
 66
     1
 10
0.0
 20
0.0
 30
0.0
 70
     1
  0
VERTEX
  5
6FD7
  8
DEFPOINTS
 10
624.5
 20
14.5
 30
0.0
  0
VERTEX
  5
6FD8
  8
DEFPOINTS
 10
1005.5
 20
14.5
 30
0.0
  0
VERTEX
  5
6FD9
  8
DEFPOINTS
 10
1005.5
 20
282.5
 30
0.0
  0
VERTEX
  5
6FDA
  8
DEFPOINTS
 10
624.5
 20
282.5
 30
0.0
  0
SEQEND
  5
6FDB
  8
DEFPOINTS
  0
LINE
  5
5FC3
  8
DEFPOINTS
  6
CENTER
 10
810.00000000000011
 20
297.0
 30
0.0
 11
810.00000000000011
 21
282.5
 31
0.0
  0
LINE
  5
5FE1
  8
DEFPOINTS
  6
CENTER
 10
600.0
 20
148.5
 30
0.0
 11
624.5
 21
148.5
 31
0.0
  0
POLYLINE
  5
5FEB
  8
DEFPOINTS
 66
     1
 10
0.0
 20
0.0
 30
0.0
 70
     1
  0
VERTEX
  5
6FDC
  8
DEFPOINTS
 10
922.49999999999989
 20
14.5
 30
0.0
  0
VERTEX
  5
6FDD
  8
DEFPOINTS
 10
1005.5
 20
14.5
 30
0.0
  0
VERTEX
  5
6FDE
  8
DEFPOINTS
 10
1005.5
 20
57.5
 30
0.0
  0
VERTEX
  5
6FDF
  8
DEFPOINTS
 10
922.49999999999989
 20
57.5
 30
0.0
  0
SEQEND
  5
6FE0
  8
DEFPOINTS
  0
LINE
  5
5FEC
  8
DEFPOINTS
 10
922.49999999999989
 20
51.5
 30
0.0
 11
1005.5
 21
51.5
 31
0.0
  0
LINE
  5
5FED
  8
DEFPOINTS
 10
922.49999999999989
 20
35.5
 30
0.0
 11
1005.5
 21
35.5
 31
0.0
  0
LINE
  5
5FEE
  8
DEFPOINTS
 10
922.49999999999989
 20
25.0
 30
0.0
 11
1005.5
 21
25.0
 31
0.0
  0
LINE
  5
5FEF
  8
DEFPOINTS
 10
947.0
 20
35.5
 30
0.0
 11
947.0
 21
57.5
 31
0.0
  0
LINE
  5
5FF0
  8
DEFPOINTS
 10
966.5
 20
35.5
 30
0.0
 11
966.5
 21
57.5
 31
0.0
  0
LINE
  5
5FF1
  8
DEFPOINTS
 10
986.0
 20
35.5
 30
0.0
 11
986.0
 21
57.5
 31
0.0
  0
LINE
  5
5FF2
  8
DEFPOINTS
 10
922.49999999999989
 20
43.5
 30
0.0
 11
947.0
 21
43.5
 31
0.0
  0
LINE
  5
5FF3
  8
DEFPOINTS
 10
987.5
 20
14.5
 30
0.0
 11
987.5
 21
25.0
 31
0.0
  0
INSERT
  5
5FF4
  8
011形状
  2
*U23
 10
0.0
 20
0.0
 30
0.0
  0
INSERT
  5
5FF6
  8
011形状
  2
*U24
 10
0.0
 20
0.0
 30
0.0
  0
INSERT
  5
5FF7
  8
011形状
  2
*U25
 10
0.0
 20
0.0
 30
0.0
  0
INSERT
  5
5FF8
  8
011形状
  2
*U26
 10
0.0
 20
0.0
 30
0.0
  0
INSERT
  5
5FF9
  8
011形状
  2
*U27
 10
0.0
 20
0.0
 30
0.0
  0
INSERT
  5
5FFA
  8
011形状
  2
*U28
 10
0.0
 20
0.0
 30
0.0
  0
INSERT
  5
5FFB
  8
011形状
  2
*U29
 10
0.0
 20
0.0
 30
0.0
  0
INSERT
  5
5FFF
  8
011形状
  2
*U30
 10
0.0
 20
0.0
 30
0.0
  0
INSERT
  5
6000
  8
011形状
  2
*U31
 10
0.0
 20
0.0
 30
0.0
  0
INSERT
  5
6001
  8
011形状
  2
*U32
 10
0.0
 20
0.0
 30
0.0
  0
POLYLINE
  5
6013
  8
DEFPOINTS
 66
     1
 10
0.0
 20
0.0
 30
0.0
 70
     1
  0
VERTEX
  5
7009
  8
DEFPOINTS
 10
928.5
 20
270.5
 30
0.0
  0
VERTEX
  5
700A
  8
DEFPOINTS
 10
1005.5
 20
270.5
 30
0.0
  0
VERTEX
  5
700B
  8
DEFPOINTS
 10
1005.5
 20
282.5
 30
0.0
  0
VERTEX
  5
700C
  8
DEFPOINTS
 10
928.5
 20
282.5
 30
0.0
  0
SEQEND
  5
700D
  8
DEFPOINTS
  0
LINE
  5
6014
  8
DEFPOINTS
 10
928.5
 20
276.5
 30
0.0
 11
1005.5
 21
276.5
 31
0.0
  0
LINE
  5
6015
  8
DEFPOINTS
 10
936.5
 20
270.5
 30
0.0
 11
936.5
 21
282.5
 31
0.0
  0
LINE
  5
6016
  8
DEFPOINTS
 10
975.5
 20
270.5
 30
0.0
 11
975.5
 21
282.5
 31
0.0
  0
LINE
  5
6017
  8
DEFPOINTS
 10
985.5
 20
270.5
 30
0.0
 11
985.5
 21
282.5
 31
0.0
  0
LINE
  5
6018
  8
DEFPOINTS
 10
995.5
 20
270.5
 30
0.0
 11
995.5
 21
282.5
 31
0.0
  0
INSERT
  5
6019
  8
011形状
  2
*U33
 10
0.0
 20
0.0
 30
0.0
  0
INSERT
  5
601A
  8
011形状
  2
*U34
 10
0.0
 20
0.0
 30
0.0
  0
INSERT
  5
601B
  8
011形状
  2
*U35
 10
0.0
 20
0.0
 30
0.0
  0
INSERT
  5
601C
  8
011形状
  2
*U36
 10
0.0
 20
0.0
 30
0.0
  0
INSERT
  5
601D
  8
011形状
  2
*U37
 10
0.0
 20
0.0
 30
0.0
  0
INSERT
  5
6037
  8
011形状
  2
*U38
 10
0.0
 20
0.0
 30
0.0
  0
INSERT
  5
6038
  8
011形状
  2
*U39
 10
0.0
 20
0.0
 30
0.0
  0
INSERT
  5
603A
  8
011形状
  2
*U40
 10
0.0
 20
0.0
 30
0.0
  0
LINE
  5
604B
  8
DEFPOINTS
  6
CENTER
 10
1005.5
 20
148.5
 30
0.0
 11
1020.0
 21
148.5
 31
0.0
  0
DIMENSION
  5
6C74
  8
002寸法
  2
*D13
 10
726.0
 20
212.5
 30
0.0
 11
724.0
 21
199.55714285714291
 31
0.0
 70
     0
 13
753.0
 23
207.5
 33
0.0
 14
753.0
 24
212.5
 34
-0.5
 50
90.0
1001
ACAD
1000
DSTYLE
1002
{
1070
   280
1070
     1
1070
     3
1000
\U+03C6<>
1002
}
  0
LINE
  5
6C77
  8
001センタ
 10
886.49999999999727
 20
198.9999999999977
 30
0.0
 11
846.0
 21
199.00000000000051
 31
0.0
  0
INSERT
  5
6C78
  8
011形状
  2
*U41
 10
0.0
 20
0.0
 30
0.0
  0
LINE
  5
6C79
  8
DEFPOINTS
 10
673.29999999999995
 20
210.0
 30
0.0
 11
663.29999999999995
 21
210.0
 31
0.0
  0
POLYLINE
  5
6C7A
  8
003注釈
 66
     1
 10
0.0
 20
0.0
 30
0.0
 70
     1
  0
VERTEX
  5
7036
  8
003注釈
 10
663.29999999999995
 20
211.0
 30
0.0
  0
VERTEX
  5
7037
  8
003注釈
 10
668.29999999999995
 20
211.0
 30
0.0
  0
VERTEX
  5
7038
  8
003注釈
 10
668.29999999999995
 20
212.5
 30
0.0
  0
VERTEX
  5
7039
  8
003注釈
 10
673.29999999999995
 20
210.0
 30
0.0
  0
VERTEX
  5
703A
  8
003注釈
 10
668.29999999999995
 20
207.5
 30
0.0
  0
VERTEX
  5
703B
  8
003注釈
 10
668.29999999999995
 20
209.0
 30
0.0
  0
VERTEX
  5
703C
  8
003注釈
 10
663.29999999999995
 20
209.0
 30
0.0
  0
SEQEND
  5
703D
  8
003注釈
  0
LINE
  5
6C7B
  8
011形状
 10
755.0
 20
157.0
 30
0.0
 11
755.0
 21
130.0
 31
0.0
  0
LINE
  5
6C7C
  8
011形状
 10
755.0
 20
151.0
 30
0.0
 11
754.0
 21
151.0
 31
0.0
  0
LINE
  5
6C7D
  8
011形状
 10
754.0
 20
151.0
 30
0.0
 11
753.0
 21
150.0
 31
0.0
  0
LINE
  5
6C7E
  8
011形状
 10
753.0
 20
150.0
 30
0.0
 11
753.0
 21
140.0
 31
0.0
  0
LINE
  5
6C7F
  8
011形状
 10
753.0
 20
140.0
 30
0.0
 11
754.0
 21
139.0
 31
0.0
  0
LINE
  5
6C80
  8
011形状
 10
754.0
 20
139.0
 30
0.0
 11
755.0
 21
139.0
 31
0.0
  0
LINE
  5
6C81
  8
011形状
 10
754.0
 20
139.0
 30
0.0
 11
754.0
 21
151.0
 31
0.0
  0
LINE
  5
6C82
  8
011形状
 10
755.0
 20
226.0
 30
0.0
 11
755.0
 21
194.0
 31
0.0
  0
LINE
  5
6C83
  8
011形状
 10
756.21897847300011
 20
222.535898385
 30
0.0
 11
755.0
 21
222.535898385
 31
0.0
  0
LINE
  5
6C84
  8
011形状
 10
756.21897847300011
 20
197.464101615
 30
0.0
 11
755.0
 21
197.464101615
 31
0.0
  0
LINE
  5
6C85
  8
011形状
 10
755.0
 20
216.0
 30
0.0
 11
754.0
 21
216.0
 31
0.0
  0
LINE
  5
6C86
  8
011形状
 10
754.0
 20
216.0
 30
0.0
 11
753.0
 21
215.0
 31
0.0
  0
LINE
  5
6C87
  8
011形状
 10
753.0
 20
215.0
 30
0.0
 11
753.0
 21
205.0
 31
0.0
  0
LINE
  5
6C88
  8
011形状
 10
753.0
 20
205.0
 30
0.0
 11
754.0
 21
204.0
 31
0.0
  0
LINE
  5
6C89
  8
011形状
 10
754.0
 20
204.0
 30
0.0
 11
755.0
 21
204.0
 31
0.0
  0
LINE
  5
6C8A
  8
011形状
 10
754.0
 20
204.0
 30
0.0
 11
754.0
 21
216.0
 31
0.0
  0
ARC
  5
6C8B
  8
011形状
 10
762.0
 20
219.0
 30
0.0
 40
2.0
 50
90.0
 51
180.0
  0
LINE
  5
6C8C
  8
011形状
 10
760.0
 20
219.0
 30
0.0
 11
760.0
 21
201.0
 31
0.0
  0
ARC
  5
6C8D
  8
011形状
 10
762.0
 20
201.0
 30
0.0
 40
2.0
 50
180.0
 51
270.0
  0
LINE
  5
6C8E
  8
011形状
 10
805.0
 20
211.0
 30
0.0
 11
805.0
 21
215.0
 31
0.0
  0
LINE
  5
6C8F
  8
011形状
 10
806.0
 20
211.0
 30
0.0
 11
806.0
 21
213.0
 31
0.0
  0
LINE
  5
6C90
  8
011形状
 10
807.0
 20
211.0
 30
0.0
 11
807.0
 21
213.0
 31
0.0
  0
LINE
  5
6C91
  8
011形状
 10
809.0
 20
211.0
 30
0.0
 11
809.0
 21
213.0
 31
0.0
  0
LINE
  5
6C92
  8
011形状
 10
810.0
 20
211.0
 30
0.0
 11
810.0
 21
214.0
 31
0.0
  0
LINE
  5
6C93
  8
011形状
 10
811.0
 20
211.0
 30
0.0
 11
811.0
 21
213.0
 31
0.0
  0
LINE
  5
6C94
  8
011形状
 10
812.0
 20
211.0
 30
0.0
 11
812.0
 21
213.0
 31
0.0
  0
LINE
  5
6C95
  8
011形状
 10
813.0
 20
211.0
 30
0.0
 11
813.0
 21
213.0
 31
0.0
  0
LINE
  5
6C96
  8
011形状
 10
808.0
 20
211.0
 30
0.0
 11
808.0
 21
213.0
 31
0.0
  0
LINE
  5
6C97
  8
011形状
 10
814.0
 20
211.0
 30
0.0
 11
814.0
 21
213.0
 31
0.0
  0
LINE
  5
6C98
  8
011形状
 10
815.0
 20
211.0
 30
0.0
 11
815.0
 21
215.0
 31
0.0
  0
LINE
  5
6C99
  8
011形状
 10
816.0
 20
211.0
 30
0.0
 11
816.0
 21
213.0
 31
0.0
  0
LINE
  5
6C9A
  8
011形状
 10
817.0
 20
211.0
 30
0.0
 11
817.0
 21
213.0
 31
0.0
  0
LINE
  5
6C9B
  8
011形状
 10
819.0
 20
211.0
 30
0.0
 11
819.0
 21
213.0
 31
0.0
  0
LINE
  5
6C9C
  8
011形状
 10
820.0
 20
211.0
 30
0.0
 11
820.0
 21
214.0
 31
0.0
  0
LINE
  5
6C9D
  8
011形状
 10
821.0
 20
211.0
 30
0.0
 11
821.0
 21
213.0
 31
0.0
  0
LINE
  5
6C9E
  8
011形状
 10
822.0
 20
211.0
 30
0.0
 11
822.0
 21
213.0
 31
0.0
  0
LINE
  5
6C9F
  8
011形状
 10
823.0
 20
211.0
 30
0.0
 11
823.0
 21
213.0
 31
0.0
  0
LINE
  5
6CA0
  8
011形状
 10
818.0
 20
211.0
 30
0.0
 11
818.0
 21
213.0
 31
0.0
  0
LINE
  5
6CA1
  8
011形状
 10
824.0
 20
211.0
 30
0.0
 11
824.0
 21
213.0
 31
0.0
  0
LINE
  5
6CA2
  8
011形状
 10
825.0
 20
211.0
 30
0.0
 11
825.0
 21
215.0
 31
0.0
  0
LINE
  5
6CA3
  8
011形状
 10
826.0
 20
211.0
 30
0.0
 11
826.0
 21
213.0
 31
0.0
  0
LINE
  5
6CA4
  8
011形状
 10
827.0
 20
211.0
 30
0.0
 11
827.0
 21
213.0
 31
0.0
  0
LINE
  5
6CA5
  8
011形状
 10
829.0
 20
211.0
 30
0.0
 11
829.0
 21
213.0
 31
0.0
  0
LINE
  5
6CA6
  8
011形状
 10
830.0
 20
211.0
 30
0.0
 11
830.0
 21
214.0
 31
0.0
  0
LINE
  5
6CA7
  8
011形状
 10
831.0
 20
211.0
 30
0.0
 11
831.0
 21
213.0
 31
0.0
  0
LINE
  5
6CA8
  8
011形状
 10
832.0
 20
211.0
 30
0.0
 11
832.0
 21
213.0
 31
0.0
  0
LINE
  5
6CA9
  8
011形状
 10
833.0
 20
211.0
 30
0.0
 11
833.0
 21
213.0
 31
0.0
  0
LINE
  5
6CAA
  8
011形状
 10
828.0
 20
211.0
 30
0.0
 11
828.0
 21
213.0
 31
0.0
  0
LINE
  5
6CAB
  8
011形状
 10
834.0
 20
211.0
 30
0.0
 11
834.0
 21
213.0
 31
0.0
  0
LINE
  5
6CAC
  8
011形状
 10
835.0
 20
211.0
 30
0.0
 11
835.0
 21
215.0
 31
0.0
  0
LINE
  5
6CAD
  8
011形状
 10
805.0
 20
209.0
 30
0.0
 11
805.0
 21
205.0
 31
0.0
  0
LINE
  5
6CAE
  8
011形状
 10
806.0
 20
209.0
 30
0.0
 11
806.0
 21
207.0
 31
0.0
  0
LINE
  5
6CAF
  8
011形状
 10
807.0
 20
209.0
 30
0.0
 11
807.0
 21
207.0
 31
0.0
  0
LINE
  5
6CB0
  8
011形状
 10
809.0
 20
209.0
 30
0.0
 11
809.0
 21
207.0
 31
0.0
  0
LINE
  5
6CB1
  8
011形状
 10
810.0
 20
209.0
 30
0.0
 11
810.0
 21
206.0
 31
0.0
  0
LINE
  5
6CB2
  8
011形状
 10
811.0
 20
209.0
 30
0.0
 11
811.0
 21
207.0
 31
0.0
  0
LINE
  5
6CB3
  8
011形状
 10
812.0
 20
209.0
 30
0.0
 11
812.0
 21
207.0
 31
0.0
  0
LINE
  5
6CB4
  8
011形状
 10
813.0
 20
209.0
 30
0.0
 11
813.0
 21
207.0
 31
0.0
  0
LINE
  5
6CB5
  8
011形状
 10
808.0
 20
209.0
 30
0.0
 11
808.0
 21
207.0
 31
0.0
  0
LINE
  5
6CB6
  8
011形状
 10
814.0
 20
209.0
 30
0.0
 11
814.0
 21
207.0
 31
0.0
  0
LINE
  5
6CB7
  8
011形状
 10
815.0
 20
209.0
 30
0.0
 11
815.0
 21
205.0
 31
0.0
  0
LINE
  5
6CB8
  8
011形状
 10
816.0
 20
209.0
 30
0.0
 11
816.0
 21
207.0
 31
0.0
  0
LINE
  5
6CB9
  8
011形状
 10
817.0
 20
209.0
 30
0.0
 11
817.0
 21
207.0
 31
0.0
  0
LINE
  5
6CBA
  8
011形状
 10
819.0
 20
209.0
 30
0.0
 11
819.0
 21
207.0
 31
0.0
  0
LINE
  5
6CBB
  8
011形状
 10
820.0
 20
209.0
 30
0.0
 11
820.0
 21
206.0
 31
0.0
  0
LINE
  5
6CBC
  8
011形状
 10
821.0
 20
209.0
 30
0.0
 11
821.0
 21
207.0
 31
0.0
  0
LINE
  5
6CBD
  8
011形状
 10
822.0
 20
209.0
 30
0.0
 11
822.0
 21
207.0
 31
0.0
  0
LINE
  5
6CBE
  8
011形状
 10
823.0
 20
209.0
 30
0.0
 11
823.0
 21
207.0
 31
0.0
  0
LINE
  5
6CBF
  8
011形状
 10
818.0
 20
209.0
 30
0.0
 11
818.0
 21
207.0
 31
0.0
  0
LINE
  5
6CC0
  8
011形状
 10
824.0
 20
209.0
 30
0.0
 11
824.0
 21
207.0
 31
0.0
  0
LINE
  5
6CC1
  8
011形状
 10
825.0
 20
209.0
 30
0.0
 11
825.0
 21
205.0
 31
0.0
  0
LINE
  5
6CC2
  8
011形状
 10
826.0
 20
209.0
 30
0.0
 11
826.0
 21
207.0
 31
0.0
  0
LINE
  5
6CC3
  8
011形状
 10
827.0
 20
209.0
 30
0.0
 11
827.0
 21
207.0
 31
0.0
  0
LINE
  5
6CC4
  8
011形状
 10
829.0
 20
209.0
 30
0.0
 11
829.0
 21
207.0
 31
0.0
  0
LINE
  5
6CC5
  8
011形状
 10
830.0
 20
209.0
 30
0.0
 11
830.0
 21
206.0
 31
0.0
  0
LINE
  5
6CC6
  8
011形状
 10
831.0
 20
209.0
 30
0.0
 11
831.0
 21
207.0
 31
0.0
  0
LINE
  5
6CC7
  8
011形状
 10
832.0
 20
209.0
 30
0.0
 11
832.0
 21
207.0
 31
0.0
  0
LINE
  5
6CC8
  8
011形状
 10
833.0
 20
209.0
 30
0.0
 11
833.0
 21
207.0
 31
0.0
  0
LINE
  5
6CC9
  8
011形状
 10
828.0
 20
209.0
 30
0.0
 11
828.0
 21
207.0
 31
0.0
  0
LINE
  5
6CCA
  8
011形状
 10
834.0
 20
209.0
 30
0.0
 11
834.0
 21
207.0
 31
0.0
  0
LINE
  5
6CCB
  8
011形状
 10
934.0
 20
154.0
 30
-0.5
 11
966.0
 21
154.0
 31
-0.5
  0
LINE
  5
6CCC
  8
011形状
 10
965.0
 20
153.0
 30
0.0
 11
935.0
 21
153.0
 31
0.0
  0
LINE
  5
6CCD
  8
011形状
 10
934.0
 20
155.0
 30
0.0
 11
937.46410161499989
 21
157.0
 31
0.0
  0
LINE
  5
6CCE
  8
011形状
 10
934.0
 20
155.0
 30
0.0
 11
934.0
 21
154.0
 31
0.0
  0
LINE
  5
6CCF
  8
011形状
 10
966.0
 20
155.0
 30
0.0
 11
962.535898385
 21
157.0
 31
0.0
  0
LINE
  5
6CD0
  8
011形状
 10
966.0
 20
155.0
 30
0.0
 11
966.0
 21
154.0
 31
0.0
  0
LINE
  5
6CD1
  8
011形状
 10
937.46410161499989
 20
157.0
 30
0.0
 11
962.535898385
 21
157.0
 31
0.0
  0
LINE
  5
6CD2
  8
011形状
 10
934.0
 20
135.0
 30
0.0
 11
934.0
 21
154.0
 31
0.0
  0
LINE
  5
6CD3
  8
011形状
 10
966.0
 20
154.0
 30
0.0
 11
966.0
 21
135.0
 31
0.0
  0
LINE
  5
6CD4
  8
011形状
 10
965.0
 20
135.0
 30
0.0
 11
965.0
 21
153.0
 31
0.0
  0
LINE
  5
6CD5
  8
011形状
 10
935.0
 20
153.0
 30
0.0
 11
934.99999999999989
 21
147.30940107772449
 31
0.0
  0
LINE
  5
6CD6
  8
011形状
 10
934.99999999999989
 20
142.6905989229999
 30
0.0
 11
935.0
 21
135.0
 31
0.0
  0
LINE
  5
6CD7
  8
011形状
 10
935.0
 20
135.0
 30
0.0
 11
934.0
 21
135.0
 31
0.0
  0
LINE
  5
6CD8
  8
011形状
 10
934.0
 20
130.0
 30
0.0
 11
966.0
 21
130.0
 31
0.0
  0
LINE
  5
6CD9
  8
011形状
 10
966.0
 20
130.0
 30
0.0
 11
966.0
 21
135.0
 31
0.0
  0
LINE
  5
6CDA
  8
011形状
 10
934.0
 20
135.0
 30
0.0
 11
934.0
 21
130.0
 31
0.0
  0
LINE
  5
6CDB
  8
001センタ
 10
950.0
 20
162.0
 30
0.0
 11
950.0
 21
103.0
 31
0.0
  0
LINE
  5
6CDC
  8
011形状
 10
952.0
 20
108.0
 30
0.0
 11
953.0
 21
109.0
 31
0.0
  0
LINE
  5
6CDD
  8
011形状
 10
952.0
 20
108.0
 30
0.0
 11
948.0
 21
108.0
 31
0.0
  0
LINE
  5
6CDE
  8
011形状
 10
947.0
 20
109.0
 30
0.0
 11
948.0
 21
108.0
 31
0.0
  0
ARC
  5
6CDF
  8
011形状
 10
954.0
 20
129.0
 30
0.0
 40
1.0
 50
90.0
 51
180.0
  0
ARC
  5
6CE0
  8
011形状
 10
946.0
 20
129.0
 30
0.0
 40
1.0
 50
0.0
 51
90.0
  0
LINE
  5
6CE1
  8
011形状
 10
953.0
 20
129.0
 30
0.0
 11
953.0
 21
109.0
 31
0.0
  0
LINE
  5
6CE2
  8
011形状
 10
947.0
 20
129.0
 30
0.0
 11
947.0
 21
109.0
 31
0.0
  0
LINE
  5
6CE3
  8
011形状
 10
952.0
 20
108.0
 30
0.0
 11
952.0
 21
129.0
 31
0.0
  0
LINE
  5
6CE4
  8
011形状
 10
948.0
 20
108.0
 30
0.0
 11
948.0
 21
129.0
 31
0.0
  0
LINE
  5
6CE5
  8
001センタ
 10
930.13999999985469
 20
137.00000000031989
 30
0.0
 11
940.0
 21
136.99999999967079
 31
0.0
  0
LINE
  5
6CE6
  8
011形状
 10
965.0
 20
135.0
 30
0.0
 11
966.0
 21
135.0
 31
0.0
  0
LINE
  5
6CE7
  8
001センタ
 10
942.0
 20
118.0
 30
0.0
 11
958.0
 21
118.0
 31
0.0
  0
CIRCLE
  5
6CE8
  8
011形状
 10
950.0
 20
145.0
 30
0.0
 40
4.0
  0
CIRCLE
  5
6CE9
  8
011形状
 10
950.0
 20
145.0
 30
0.0
 40
5.0
  0
CIRCLE
  5
6CEA
  8
011形状
 10
950.0
 20
145.0
 30
0.0
 40
6.0
  0
LINE
  5
6CEB
  8
001センタ
 10
939.0
 20
145.0
 30
0.0
 11
961.0
 21
145.0
 31
0.0
  0
LINE
  5
6CEC
  8
011形状
 10
782.0
 20
211.0
 30
0.0
 11
838.0
 21
211.0
 31
0.0
  0
LINE
  5
6CED
  8
011形状
 10
838.0
 20
209.0
 30
0.0
 11
782.0
 21
209.0
 31
0.0
  0
ARC
  5
6CEE
  8
011形状
 10
838.0
 20
210.0
 30
0.0
 40
1.0
 50
270.0
 51
90.0
  0
LINE
  5
6CEF
  8
011形状
 10
835.0
 20
209.0
 30
0.0
 11
835.0
 21
205.0
 31
0.0
  0
POLYLINE
  5
6CF0
  8
011形状
 66
     1
 10
0.0
 20
0.0
 30
0.0
  0
VERTEX
  5
703E
  8
011形状
 10
851.0
 20
194.0
 30
0.0
  0
VERTEX
  5
703F
  8
011形状
 10
851.0
 20
226.0
 30
0.0
  0
VERTEX
  5
7040
  8
011形状
 10
755.0
 20
226.0
 30
0.0
  0
SEQEND
  5
7041
  8
011形状
  0
LINE
  5
6CF1
  8
011形状
 10
849.78102152700023
 20
222.535898385
 30
0.0
 11
851.0
 21
222.535898385
 31
0.0
  0
LINE
  5
6CF2
  8
011形状
 10
758.78102152700012
 20
222.535898385
 30
0.0
 11
847.21897847300022
 21
222.535898385
 31
0.0
  0
LINE
  5
6CF3
  8
011形状
 10
851.0
 20
194.0
 30
0.0
 11
755.0
 21
194.0
 31
0.0
  0
LINE
  5
6CF4
  8
011形状
 10
758.78102152700012
 20
197.464101615
 30
0.0
 11
847.21897847300022
 21
197.464101615
 31
0.0
  0
LINE
  5
6CF5
  8
011形状
 10
849.78102152700023
 20
197.464101615
 30
0.0
 11
851.0
 21
197.464101615
 31
0.0
  0
LINE
  5
6CF6
  8
011形状
 10
851.0
 20
216.0
 30
0.0
 11
852.0
 21
216.0
 31
0.0
  0
LINE
  5
6CF7
  8
011形状
 10
852.0
 20
216.0
 30
0.0
 11
853.0
 21
215.0
 31
0.0
  0
LINE
  5
6CF8
  8
011形状
 10
853.0
 20
215.0
 30
0.0
 11
853.0
 21
205.0
 31
0.0
  0
LINE
  5
6CF9
  8
011形状
 10
853.0
 20
205.0
 30
0.0
 11
852.0
 21
204.0
 31
0.0
  0
LINE
  5
6CFA
  8
011形状
 10
852.0
 20
204.0
 30
0.0
 11
851.0
 21
204.0
 31
0.0
  0
LINE
  5
6CFB
  8
011形状
 10
852.0
 20
204.0
 30
0.0
 11
852.0
 21
216.0
 31
0.0
  0
LINE
  5
6CFC
  8
011形状
 10
853.0
 20
213.25
 30
0.0
 11
853.70000000000005
 21
213.25
 31
0.0
  0
LINE
  5
6CFD
  8
011形状
 10
853.70000000000005
 20
206.75
 30
0.0
 11
853.0
 21
206.75
 31
0.0
  0
LINE
  5
6CFE
  8
011形状
 10
853.70000000000005
 20
213.25
 30
0.0
 11
853.70000000000005
 21
206.75
 31
0.0
  0
LINE
  5
6CFF
  8
011形状
 10
853.70000000000005
 20
212.25
 30
0.0
 11
855.70000000000005
 21
212.25
 31
0.0
  0
LINE
  5
6D00
  8
011形状
 10
853.70000000000005
 20
207.75
 30
0.0
 11
855.70000000000005
 21
207.75
 31
0.0
  0
LINE
  5
6D01
  8
011形状
 10
855.70000000000005
 20
214.0
 30
0.0
 11
855.70000000000005
 21
206.0
 31
0.0
  0
LINE
  5
6D02
  8
011形状
 10
855.70000000000005
 20
206.0
 30
0.0
 11
856.70000000000005
 21
206.0
 31
0.0
  0
LINE
  5
6D03
  8
011形状
 10
856.70000000000005
 20
206.0
 30
0.0
 11
856.70000000000005
 21
214.0
 31
0.0
  0
INSERT
  5
6D04
  8
011形状
  6
CONTINUOUS
 62
     1
  2
*X42
 10
0.0
 20
0.0
 30
0.0
1001
GRADIENTCOLOR1ACI
1070
     5
1001
GRADIENTCOLOR2ACI
1070
     2
1001
ACAD
1000
HATCH
1002
{
1070
    19
1000
ANSI31
1040
0.2
1040
2.3561944901923439
1000
R14_HATCH_DATA
1000
6D04
1011
1.0
1021
0.0
1031
0.0
1021
0.0
1031
0.0
1011
0.0
1021
0.0
1031
0.0
1021
1.0
1031
0.0
1011
0.0
1021
0.0
1031
0.0
1021
0.0
1031
1.0
1040
0.0
1010
0.0
1020
0.0
1030
1.0
1000
ANSI31
1070
     0
1070
     0
1071
        1
1071
        7
1070
     0
1070
     1
1071
        3
1040
856.70000000000164
1040
214.0
1040
855.70000000000005
1040
214.0
1040
856.20000000000084
1040
208.284973848611
1071
        0
1070
     1
1070
     1
1040
2.3561944901923439
1040
0.2
1070
     0
1070
     1
1040
3.1415926535897931
1040
625.0
1040
-10.0
1040
-0.0000000000000001
1040
-0.6349999999999999
1070
     0
1040
0.0231991454953564
1071
        1
1040
856.21806983113402
1040
213.01978848629511
1040
0.0
1002
}
  0
LINE
  5
6D05
  8
011形状
 10
856.70000000000005
 20
214.0
 30
0.0
 11
855.70000000000005
 21
214.0
 31
0.0
  0
ARC
  5
6D06
  8
011形状
 10
849.20000000000005
 20
210.0
 30
0.0
 40
8.5
 50
331.9275130639947
 51
28.072486936005198
  0
ARC
  5
6D07
  8
011形状
 10
844.0
 20
219.0
 30
0.0
 40
2.0
 50
0.0
 51
90.0
  0
LINE
  5
6D08
  8
011形状
 10
844.0
 20
221.0
 30
0.0
 11
762.0
 21
221.0
 31
0.0
  0
LINE
  5
6D09
  8
011形状
 10
846.0
 20
201.0
 30
0.0
 11
846.0
 21
219.0
 31
0.0
  0
LINE
  5
6D0A
  8
011形状
 10
762.0
 20
199.0
 30
0.0
 11
844.0
 21
199.0
 31
0.0
  0
ARC
  5
6D0B
  8
011形状
 10
844.0
 20
201.0
 30
0.0
 40
2.0
 50
270.0
 51
0.0
  0
CIRCLE
  5
6D0C
  8
011形状
 10
795.0
 20
118.0
 30
0.0
 40
3.25
  0
ARC
  5
6D0D
  8
011形状
 10
795.0
 20
118.0
 30
0.0
 40
10.0
 50
180.0
 51
0.0
  0
LINE
  5
6D0E
  8
011形状
 10
805.0
 20
118.0
 30
0.0
 11
805.0
 21
127.0
 31
0.0
  0
LINE
  5
6D0F
  8
011形状
 10
785.0
 20
118.0
 30
0.0
 11
785.0
 21
127.0
 31
0.0
  0
ARC
  5
6D10
  8
011形状
 10
808.0
 20
127.0
 30
0.0
 40
3.0
 50
90.0
 51
180.0
  0
ARC
  5
6D11
  8
011形状
 10
782.0
 20
127.0
 30
0.0
 40
3.0
 50
0.0
 51
90.0
  0
ARC
  5
6D12
  8
011形状
 10
795.0
 20
118.0
 30
0.0
 40
9.0
 50
180.0
 51
0.0
  0
LINE
  5
6D13
  8
011形状
 10
804.0
 20
118.0
 30
0.0
 11
804.0
 21
127.0
 31
0.0
  0
LINE
  5
6D14
  8
011形状
 10
786.0
 20
118.0
 30
0.0
 11
786.0
 21
127.0
 31
0.0
  0
LINE
  5
6D15
  8
001センタ
 10
780.0
 20
118.0
 30
0.0
 11
810.0
 21
118.0
 31
0.0
  0
LINE
  5
6D16
  8
001センタ
 10
795.0
 20
103.0
 30
0.0
 11
795.0
 21
133.0
 31
0.0
  0
LINE
  5
6D17
  8
011形状
 10
851.0
 20
130.0
 30
0.0
 11
851.0
 21
157.0
 31
0.0
  0
LINE
  5
6D18
  8
011形状
 10
851.0
 20
151.0
 30
0.0
 11
852.0
 21
151.0
 31
0.0
  0
LINE
  5
6D19
  8
011形状
 10
852.0
 20
151.0
 30
0.0
 11
853.0
 21
150.0
 31
0.0
  0
LINE
  5
6D1A
  8
011形状
 10
853.0
 20
150.0
 30
0.0
 11
853.0
 21
147.75
 31
0.0
  0
LINE
  5
6D1B
  8
011形状
 10
853.0
 20
142.25
 30
0.0
 11
853.0
 21
140.0
 31
0.0
  0
LINE
  5
6D1C
  8
011形状
 10
853.0
 20
140.0
 30
0.0
 11
852.0
 21
139.0
 31
0.0
  0
LINE
  5
6D1D
  8
011形状
 10
852.0
 20
139.0
 30
0.0
 11
851.0
 21
139.0
 31
0.0
  0
LINE
  5
6D1E
  8
011形状
 10
852.0
 20
139.0
 30
0.0
 11
852.00000000000011
 21
140.38119784599999
 31
0.0
  0
LINE
  5
6D1F
  8
011形状
 10
852.0
 20
149.61880215400001
 30
0.0
 11
852.0
 21
151.0
 31
0.0
  0
LINE
  5
6D20
  8
011形状
 10
853.0
 20
148.25
 30
0.0
 11
853.70000000000005
 21
148.25
 31
0.0
  0
LINE
  5
6D21
  8
011形状
 10
853.70000000000005
 20
141.75
 30
0.0
 11
853.0
 21
141.75
 31
0.0
  0
LINE
  5
6D22
  8
011形状
 10
853.70000000000005
 20
148.25
 30
0.0
 11
853.70000000000005
 21
147.75
 31
0.0
  0
LINE
  5
6D23
  8
011形状
 10
853.70000000000005
 20
142.25
 30
0.0
 11
853.70000000000005
 21
141.75
 31
0.0
  0
LINE
  5
6D24
  8
011形状
 10
851.0
 20
157.0
 30
0.0
 11
755.0
 21
157.0
 31
0.0
  0
LINE
  5
6D25
  8
011形状
 10
851.0
 20
155.0
 30
0.0
 11
755.0
 21
155.0
 31
0.0
  0
LINE
  5
6D26
  8
011形状
 10
851.0
 20
154.0
 30
0.0
 11
755.0
 21
154.0
 31
0.0
  0
LINE
  5
6D27
  8
011形状
 10
851.0
 20
130.0
 30
0.0
 11
755.0
 21
130.0
 31
0.0
  0
LINE
  5
6D28
  8
011形状
 10
851.0
 20
135.0
 30
0.0
 11
755.0
 21
135.0
 31
0.0
  0
LINE
  5
6D29
  8
011形状
 10
698.29999999999995
 20
148.25
 30
0.0
 11
699.0
 21
148.25
 31
0.0
  0
LINE
  5
6D2A
  8
011形状
 10
699.0
 20
141.75
 30
0.0
 11
698.29999999999995
 21
141.75
 31
0.0
  0
LINE
  5
6D2B
  8
011形状
 10
699.0
 20
148.25
 30
0.0
 11
699.0
 21
141.75
 31
0.0
  0
LINE
  5
6D2C
  8
011形状
 10
698.29999999999995
 20
148.25
 30
0.0
 11
698.29999999999995
 21
141.75
 31
0.0
  0
LINE
  5
6D2D
  8
011形状
 10
694.29999999999995
 20
142.5
 30
0.0
 11
694.29999999999995
 21
147.5
 31
0.0
  0
LINE
  5
6D2E
  8
011形状
 10
690.29999999999995
 20
147.5
 30
0.0
 11
690.29999999999995
 21
142.5
 31
0.0
  0
LINE
  5
6D2F
  8
011形状
 10
690.29999999999995
 20
147.5
 30
0.0
 11
689.29999999999995
 21
146.92264973100001
 31
0.0
  0
LINE
  5
6D30
  8
011形状
 10
694.29999999999995
 20
147.5
 30
0.0
 11
690.29999999999995
 21
147.5
 31
0.0
  0
LINE
  5
6D31
  8
011形状
 10
690.29999999999995
 20
142.5
 30
0.0
 11
689.29999999999995
 21
143.07735026899999
 31
0.0
  0
LINE
  5
6D32
  8
011形状
 10
694.29999999999995
 20
142.5
 30
0.0
 11
690.29999999999995
 21
142.5
 31
0.0
  0
LINE
  5
6D33
  8
011形状
 10
689.29999999999995
 20
146.92264973100001
 30
0.0
 11
689.29999999999995
 21
143.07735026899999
 31
0.0
  0
ARC
  5
6D34
  8
011形状
 10
689.79999999999995
 20
145.0
 30
0.0
 40
1.5
 50
109.47122063499729
 51
250.52877936599759
  0
LINE
  5
6D35
  8
011形状
 10
694.29999999999995
 20
146.75
 30
0.0
 11
698.29999999999995
 21
146.75
 31
0.0
  0
LINE
  5
6D36
  8
011形状
 10
698.29999999999995
 20
143.25
 30
0.0
 11
694.29999999999995
 21
143.25
 31
0.0
  0
LINE
  5
6D37
  8
011形状
 10
699.0
 20
147.5
 30
0.0
 11
753.0
 21
147.5
 31
0.0
  0
LINE
  5
6D38
  8
011形状
 10
699.0
 20
142.5
 30
0.0
 11
753.0
 21
142.5
 31
0.0
  0
LINE
  5
6D39
  8
011形状
 10
698.29999999999995
 20
213.25
 30
0.0
 11
699.0
 21
213.25
 31
0.0
  0
LINE
  5
6D3A
  8
011形状
 10
699.0
 20
206.75
 30
0.0
 11
698.29999999999995
 21
206.75
 31
0.0
  0
LINE
  5
6D3B
  8
011形状
 10
699.0
 20
213.25
 30
0.0
 11
699.0
 21
206.75
 31
0.0
  0
LINE
  5
6D3C
  8
011形状
 10
698.29999999999995
 20
213.25
 30
0.0
 11
698.29999999999995
 21
206.75
 31
0.0
  0
LINE
  5
6D3D
  8
011形状
 10
694.29999999999995
 20
207.5
 30
0.0
 11
694.29999999999995
 21
212.5
 31
0.0
  0
LINE
  5
6D3E
  8
011形状
 10
690.29999999999995
 20
212.5
 30
0.0
 11
690.29999999999995
 21
207.5
 31
0.0
  0
LINE
  5
6D3F
  8
011形状
 10
690.29999999999995
 20
212.5
 30
0.0
 11
689.29999999999995
 21
211.92264973100001
 31
0.0
  0
INSERT
  5
6D40
  8
011形状
  6
CONTINUOUS
 62
     1
  2
*X43
 10
0.0
 20
0.0
 30
0.0
1001
GRADIENTCOLOR1ACI
1070
     5
1001
GRADIENTCOLOR2ACI
1070
     2
1001
ACAD
1000
HATCH
1002
{
1070
    19
1000
ANSI31
1040
0.2
1040
2.3561944901923439
1000
R14_HATCH_DATA
1000
6D40
1011
1.0
1021
0.0
1031
0.0
1021
0.0
1031
0.0
1011
0.0
1021
0.0
1031
0.0
1021
1.0
1031
0.0
1011
0.0
1021
0.0
1031
0.0
1021
0.0
1031
1.0
1040
0.0
1010
0.0
1020
0.0
1030
1.0
1000
ANSI31
1070
     0
1070
     0
1071
        1
1071
        7
1070
     0
1070
     1
1071
        3
1040
694.29999999999995
1040
212.5
1040
690.29999999999995
1040
212.5
1040
692.29999999999995
1040
209.03589838486229
1071
        0
1070
     1
1070
     1
1040
2.3561944901923439
1040
0.2
1070
     0
1070
     1
1040
3.1415926535897931
1040
585.0
1040
-10.0
1040
-0.0000000000000001
1040
-0.6349999999999999
1070
     0
1040
0.0122957584907129
1071
        1
1040
691.80148343087228
1040
211.59470572078769
1040
0.0
1002
}
  0
LINE
  5
6D41
  8
011形状
 10
694.29999999999995
 20
212.5
 30
0.0
 11
690.29999999999995
 21
212.5
 31
0.0
  0
LINE
  5
6D42
  8
011形状
 10
690.29999999999995
 20
207.5
 30
0.0
 11
689.29999999999995
 21
208.07735026899999
 31
0.0
  0
LINE
  5
6D43
  8
011形状
 10
694.29999999999995
 20
207.5
 30
0.0
 11
690.29999999999995
 21
207.5
 31
0.0
  0
LINE
  5
6D44
  8
011形状
 10
689.29999999999995
 20
211.92264973100001
 30
0.0
 11
689.29999999999995
 21
208.07735026899999
 31
0.0
  0
ARC
  5
6D45
  8
011形状
 10
689.79999999999995
 20
210.0
 30
0.0
 40
1.5
 50
109.47122063499729
 51
250.52877936599759
  0
LINE
  5
6D46
  8
011形状
 10
694.29999999999995
 20
211.75
 30
0.0
 11
698.29999999999995
 21
211.75
 31
0.0
  0
LINE
  5
6D47
  8
011形状
 10
698.29999999999995
 20
208.25
 30
0.0
 11
694.29999999999995
 21
208.25
 31
0.0
  0
LINE
  5
6D48
  8
011形状
 10
699.0
 20
212.5
 30
-0.5
 11
753.0
 21
212.5
 31
-0.5
  0
LINE
  5
6D49
  8
011形状
 10
699.0
 20
207.5
 30
0.0
 11
753.0
 21
207.5
 31
0.0
  0
LINE
  5
6D4A
  8
001センタ
 10
683.29999999999995
 20
210.0
 30
0.0
 11
862.70000000000005
 21
210.0
 31
0.0
  0
LINE
  5
6D4B
  8
001センタ
 10
683.29999999999995
 20
145.0
 30
0.0
 11
862.70000000000005
 21
145.0
 31
0.0
  0
INSERT
  5
6D4E
  8
011形状
  2
*U44
 10
0.0
 20
0.0
 30
0.0
  0
INSERT
  5
6D4F
  8
011形状
  2
*U45
 10
0.0
 20
0.0
 30
0.0
  0
INSERT
  5
6D50
  8
011形状
  2
*U46
 10
0.0
 20
0.0
 30
0.0
  0
INSERT
  5
6D51
  8
011形状
  2
*U47
 10
0.0
 20
0.0
 30
0.0
  0
INSERT
  5
6D52
  8
011形状
  2
*U48
 10
0.0
 20
0.0
 30
0.0
  0
POLYLINE
  5
6D53
  8
101購入品
 66
     1
 10
0.0
 20
0.0
 30
0.0
  0
VERTEX
  5
706B
  8
101購入品
 10
932.90607991103377
 20
138.52444110352619
 30
0.0
 42
0.1745425982096203
  0
VERTEX
  5
706C
  8
101購入品
 10
932.90607991066975
 20
135.47555889681689
 30
0.0
 42
0.289050120373521
  0
VERTEX
  5
706D
  8
101購入品
 10
933.44455505439976
 20
135.05554449679991
 30
0.0
  0
VERTEX
  5
706E
  8
101購入品
 10
934.0
 20
135.0000000016
 30
0.0
  0
VERTEX
  5
706F
  8
101購入品
 10
934.0
 20
138.9999999984
 30
0.0
  0
VERTEX
  5
7070
  8
101購入品
 10
933.44455505423207
 20
138.94445550333489
 30
0.0
 42
0.289050120373521
  0
VERTEX
  5
7071
  8
101購入品
 10
932.90607991066975
 20
138.52444110318311
 30
0.0
  0
SEQEND
  5
7072
  8
101購入品
  0
LINE
  5
6D54
  8
001センタ
 10
969.86000000014531
 20
137.00000000031989
 30
0.0
 11
960.0
 21
136.99999999967079
 31
0.0
  0
POLYLINE
  5
6D55
  8
101購入品
 66
     1
 10
0.0
 20
0.0
 30
0.0
  0
VERTEX
  5
7073
  8
101購入品
 10
967.09392008896612
 20
138.52444110352619
 30
0.0
 42
-0.1745425982096203
  0
VERTEX
  5
7074
  8
101購入品
 10
967.09392008933037
 20
135.47555889681689
 30
0.0
 42
-0.289050120373521
  0
VERTEX
  5
7075
  8
101購入品
 10
966.55544494560013
 20
135.05554449679991
 30
0.0
  0
VERTEX
  5
7076
  8
101購入品
 10
966.0
 20
135.0000000016
 30
0.0
  0
VERTEX
  5
7077
  8
101購入品
 10
966.0
 20
138.9999999984
 30
0.0
  0
VERTEX
  5
7078
  8
101購入品
 10
966.55544494576804
 20
138.94445550333489
 30
0.0
 42
-0.289050120373521
  0
VERTEX
  5
7079
  8
101購入品
 10
967.09392008933037
 20
138.52444110318311
 30
0.0
  0
SEQEND
  5
707A
  8
101購入品
  0
LINE
  5
6D56
  8
001センタ
 10
844.0
 20
137.0
 30
0.0
 11
853.0
 21
137.0
 31
0.0
  0
LINE
  5
6D57
  8
001センタ
 10
848.49999999999989
 20
132.5
 30
0.0
 11
848.49999999999989
 21
141.5
 31
0.0
  0
CIRCLE
  5
6D58
  8
101購入品
 10
848.49999999999989
 20
137.0
 30
0.0
 40
1.9999999984000001
  0
POLYLINE
  5
6D59
  8
101購入品
 66
     1
 10
0.0
 20
0.0
 30
0.0
 70
     1
  0
VERTEX
  5
707B
  8
101購入品
 10
847.71428571519994
 20
137.21428571359999
 30
0.0
 42
0.4142135628417161
  0
VERTEX
  5
707C
  8
101購入品
 10
848.28571428639998
 20
137.78571428571419
 30
0.0
  0
VERTEX
  5
707D
  8
101購入品
 10
848.28571428559997
 20
138.28571428480021
 30
0.0
  0
VERTEX
  5
707E
  8
101購入品
 10
848.71428571440003
 20
138.28571428480021
 30
0.0
  0
VERTEX
  5
707F
  8
101購入品
 10
848.71428571359991
 20
137.78571428571419
 30
0.0
 42
0.4142135633104067
  0
VERTEX
  5
7080
  8
101購入品
 10
849.28571428571433
 20
137.21428571359999
 30
0.0
  0
VERTEX
  5
7081
  8
101購入品
 10
849.78571428479995
 20
137.21428571440009
 30
0.0
  0
VERTEX
  5
7082
  8
101購入品
 10
849.78571428479995
 20
136.78571428560011
 30
0.0
  0
VERTEX
  5
7083
  8
101購入品
 10
849.28571428571433
 20
136.78571428640021
 30
0.0
 42
0.4142135633104066
  0
VERTEX
  5
7084
  8
101購入品
 10
848.71428571359991
 20
136.21428571428569
 30
0.0
  0
VERTEX
  5
7085
  8
101購入品
 10
848.71428571440003
 20
135.7142857152003
 30
0.0
  0
VERTEX
  5
7086
  8
101購入品
 10
848.28571428559997
 20
135.7142857152003
 30
0.0
  0
VERTEX
  5
7087
  8
101購入品
 10
848.28571428639998
 20
136.21428571428569
 30
0.0
 42
0.4142135633103601
  0
VERTEX
  5
7088
  8
101購入品
 10
847.71428571428555
 20
136.78571428640041
 30
0.0
  0
VERTEX
  5
7089
  8
101購入品
 10
847.21428571520005
 20
136.78571428560011
 30
0.0
  0
VERTEX
  5
708A
  8
101購入品
 10
847.21428571520005
 20
137.21428571440009
 30
0.0
  0
SEQEND
  5
708B
  8
101購入品
  0
LINE
  5
6D5A
  8
001センタ
 10
753.0
 20
137.0
 30
0.0
 11
762.0
 21
137.0
 31
0.0
  0
LINE
  5
6D5B
  8
001センタ
 10
757.5
 20
132.5
 30
0.0
 11
757.5
 21
141.5
 31
0.0
  0
CIRCLE
  5
6D5C
  8
101購入品
 10
757.5
 20
137.0
 30
0.0
 40
1.9999999984000001
  0
POLYLINE
  5
6D5D
  8
101購入品
 66
     1
 10
0.0
 20
0.0
 30
0.0
 70
     1
  0
VERTEX
  5
708C
  8
101購入品
 10
756.71428571520005
 20
137.21428571359999
 30
0.0
 42
0.4142135628417161
  0
VERTEX
  5
708D
  8
101購入品
 10
757.28571428639987
 20
137.78571428571419
 30
0.0
  0
VERTEX
  5
708E
  8
101購入品
 10
757.28571428559985
 20
138.28571428480021
 30
0.0
  0
VERTEX
  5
708F
  8
101購入品
 10
757.71428571440003
 20
138.28571428480021
 30
0.0
  0
VERTEX
  5
7090
  8
101購入品
 10
757.71428571360002
 20
137.78571428571419
 30
0.0
 42
0.4142135633104067
  0
VERTEX
  5
7091
  8
101購入品
 10
758.28571428571433
 20
137.21428571359999
 30
0.0
  0
VERTEX
  5
7092
  8
101購入品
 10
758.78571428479995
 20
137.21428571440009
 30
0.0
  0
VERTEX
  5
7093
  8
101購入品
 10
758.78571428479995
 20
136.78571428560011
 30
0.0
  0
VERTEX
  5
7094
  8
101購入品
 10
758.28571428571433
 20
136.78571428640021
 30
0.0
 42
0.4142135633104066
  0
VERTEX
  5
7095
  8
101購入品
 10
757.71428571360002
 20
136.21428571428569
 30
0.0
  0
VERTEX
  5
7096
  8
101購入品
 10
757.71428571440003
 20
135.7142857152003
 30
0.0
  0
VERTEX
  5
7097
  8
101購入品
 10
757.28571428559985
 20
135.7142857152003
 30
0.0
  0
VERTEX
  5
7098
  8
101購入品
 10
757.28571428639987
 20
136.21428571428569
 30
0.0
 42
0.4142135633103601
  0
VERTEX
  5
7099
  8
101購入品
 10
756.71428571428555
 20
136.78571428640041
 30
0.0
  0
VERTEX
  5
709A
  8
101購入品
 10
756.21428571520005
 20
136.78571428560011
 30
0.0
  0
VERTEX
  5
709B
  8
101購入品
 10
756.21428571520005
 20
137.21428571440009
 30
0.0
  0
SEQEND
  5
709C
  8
101購入品
  0
LINE
  5
6D5E
  8
001センタ
 10
757.50000000025409
 20
229.86000000014531
 30
0.0
 11
757.49999999960505
 21
220.0
 31
0.0
  0
POLYLINE
  5
6D5F
  8
101購入品
 66
     1
 10
0.0
 20
0.0
 30
0.0
  0
VERTEX
  5
709D
  8
101購入品
 10
759.02444110346028
 20
227.09392008896609
 30
0.0
 42
0.1745425982096203
  0
VERTEX
  5
709E
  8
101購入品
 10
755.97555889675107
 20
227.0939200893304
 30
0.0
 42
0.289050120373521
  0
VERTEX
  5
709F
  8
101購入品
 10
755.55554449673411
 20
226.5554449456001
 30
0.0
  0
VERTEX
  5
70A0
  8
101購入品
 10
755.5000000015342
 20
226.0
 30
0.0
  0
VERTEX
  5
70A1
  8
101購入品
 10
759.49999999833415
 20
226.0
 30
0.0
  0
VERTEX
  5
70A2
  8
101購入品
 10
759.44445550326907
 20
226.5554449457679
 30
0.0
 42
0.289050120373521
  0
VERTEX
  5
70A3
  8
101購入品
 10
759.02444110311717
 20
227.0939200893304
 30
0.0
  0
SEQEND
  5
70A4
  8
101購入品
  0
LINE
  5
6D60
  8
001センタ
 10
848.50000000025409
 20
229.86000000014531
 30
0.0
 11
848.49999999960505
 21
220.0
 31
0.0
  0
POLYLINE
  5
6D61
  8
101購入品
 66
     1
 10
0.0
 20
0.0
 30
0.0
  0
VERTEX
  5
70A5
  8
101購入品
 10
850.02444110346039
 20
227.09392008896609
 30
0.0
 42
0.1745425982096203
  0
VERTEX
  5
70A6
  8
101購入品
 10
846.97555889675095
 20
227.0939200893304
 30
0.0
 42
0.289050120373521
  0
VERTEX
  5
70A7
  8
101購入品
 10
846.55554449673411
 20
226.5554449456001
 30
0.0
  0
VERTEX
  5
70A8
  8
101購入品
 10
846.5000000015342
 20
226.0
 30
0.0
  0
VERTEX
  5
70A9
  8
101購入品
 10
850.49999999833415
 20
226.0
 30
0.0
  0
VERTEX
  5
70AA
  8
101購入品
 10
850.44445550326907
 20
226.5554449457679
 30
0.0
 42
0.289050120373521
  0
VERTEX
  5
70AB
  8
101購入品
 10
850.02444110311717
 20
227.0939200893304
 30
0.0
  0
SEQEND
  5
70AC
  8
101購入品
  0
POLYLINE
  5
6D62
  8
101購入品
 66
     1
 10
0.0
 20
0.0
 30
0.0
  0
VERTEX
  5
70AD
  8
101購入品
 10
759.02444110346028
 20
192.9060799110338
 30
0.0
 42
-0.1745425982096203
  0
VERTEX
  5
70AE
  8
101購入品
 10
755.97555889675107
 20
192.9060799106696
 30
0.0
 42
-0.289050120373521
  0
VERTEX
  5
70AF
  8
101購入品
 10
755.55554449673411
 20
193.4445550543999
 30
0.0
  0
VERTEX
  5
70B0
  8
101購入品
 10
755.5000000015342
 20
194.0
 30
0.0
  0
VERTEX
  5
70B1
  8
101購入品
 10
759.49999999833415
 20
194.0
 30
0.0
  0
VERTEX
  5
70B2
  8
101購入品
 10
759.44445550326907
 20
193.4445550542321
 30
0.0
 42
-0.289050120373521
  0
VERTEX
  5
70B3
  8
101購入品
 10
759.02444110311717
 20
192.9060799106696
 30
0.0
  0
SEQEND
  5
70B4
  8
101購入品
  0
LINE
  5
6D63
  8
001センタ
 10
848.50000000025409
 20
190.13999999985469
 30
0.0
 11
848.49999999960505
 21
200.0
 31
0.0
  0
POLYLINE
  5
6D64
  8
101購入品
 66
     1
 10
0.0
 20
0.0
 30
0.0
  0
VERTEX
  5
70B5
  8
101購入品
 10
850.02444110346039
 20
192.9060799110338
 30
0.0
 42
-0.1745425982096203
  0
VERTEX
  5
70B6
  8
101購入品
 10
846.97555889675095
 20
192.9060799106696
 30
0.0
 42
-0.289050120373521
  0
VERTEX
  5
70B7
  8
101購入品
 10
846.55554449673411
 20
193.4445550543999
 30
0.0
  0
VERTEX
  5
70B8
  8
101購入品
 10
846.5000000015342
 20
194.0
 30
0.0
  0
VERTEX
  5
70B9
  8
101購入品
 10
850.49999999833415
 20
194.0
 30
0.0
  0
VERTEX
  5
70BA
  8
101購入品
 10
850.44445550326907
 20
193.4445550542321
 30
0.0
 42
-0.289050120373521
  0
VERTEX
  5
70BB
  8
101購入品
 10
850.02444110311717
 20
192.9060799106696
 30
0.0
  0
SEQEND
  5
70BC
  8
101購入品
  0
LINE
  5
6D65
  8
001センタ
 10
753.99999999967088
 20
221.0
 30
0.0
 11
760.99999999967076
 21
221.0
 31
0.0
  0
LINE
  5
6D66
  8
001センタ
 10
757.49999999967076
 20
217.5
 30
0.0
 11
757.49999999967076
 21
224.5
 31
0.0
  0
CIRCLE
  5
6D67
  8
101購入品
 10
757.49999999967076
 20
221.0
 30
0.0
 40
1.9999999984000001
  0
POLYLINE
  5
6D68
  8
101購入品
 66
     1
 10
0.0
 20
0.0
 30
0.0
 70
     1
  0
VERTEX
  5
70BD
  8
101購入品
 10
756.71428571487093
 20
221.21428571359999
 30
0.0
 42
0.4142135628417161
  0
VERTEX
  5
70BE
  8
101購入品
 10
757.28571428607086
 20
221.78571428571419
 30
0.0
  0
VERTEX
  5
70BF
  8
101購入品
 10
757.28571428527084
 20
222.28571428480021
 30
0.0
  0
VERTEX
  5
70C0
  8
101購入品
 10
757.7142857140708
 20
222.28571428480021
 30
0.0
  0
VERTEX
  5
70C1
  8
101購入品
 10
757.7142857132709
 20
221.78571428571419
 30
0.0
 42
0.4142135633104067
  0
VERTEX
  5
70C2
  8
101購入品
 10
758.28571428538521
 20
221.21428571359999
 30
0.0
  0
VERTEX
  5
70C3
  8
101購入品
 10
758.78571428447083
 20
221.21428571440021
 30
0.0
  0
VERTEX
  5
70C4
  8
101購入品
 10
758.78571428447083
 20
220.78571428560011
 30
0.0
  0
VERTEX
  5
70C5
  8
101購入品
 10
758.28571428538521
 20
220.78571428640021
 30
0.0
 42
0.4142135633104066
  0
VERTEX
  5
70C6
  8
101購入品
 10
757.7142857132709
 20
220.21428571428581
 30
0.0
  0
VERTEX
  5
70C7
  8
101購入品
 10
757.7142857140708
 20
219.7142857152003
 30
0.0
  0
VERTEX
  5
70C8
  8
101購入品
 10
757.28571428527084
 20
219.7142857152003
 30
0.0
  0
VERTEX
  5
70C9
  8
101購入品
 10
757.28571428607086
 20
220.21428571428581
 30
0.0
 42
0.4142135633103601
  0
VERTEX
  5
70CA
  8
101購入品
 10
756.71428571395654
 20
220.78571428640041
 30
0.0
  0
VERTEX
  5
70CB
  8
101購入品
 10
756.21428571487093
 20
220.78571428560011
 30
0.0
  0
VERTEX
  5
70CC
  8
101購入品
 10
756.21428571487093
 20
221.21428571440021
 30
0.0
  0
SEQEND
  5
70CD
  8
101購入品
  0
LINE
  5
6D69
  8
001センタ
 10
844.99999999967088
 20
221.0
 30
0.0
 11
851.99999999967088
 21
221.0
 31
0.0
  0
LINE
  5
6D6A
  8
001センタ
 10
848.49999999967088
 20
217.5
 30
0.0
 11
848.49999999967088
 21
224.5
 31
0.0
  0
CIRCLE
  5
6D6B
  8
101購入品
 10
848.49999999967088
 20
221.0
 30
0.0
 40
1.9999999984000001
  0
POLYLINE
  5
6D6C
  8
101購入品
 66
     1
 10
0.0
 20
0.0
 30
0.0
 70
     1
  0
VERTEX
  5
70CE
  8
101購入品
 10
847.71428571487093
 20
221.21428571359999
 30
0.0
 42
0.4142135628417161
  0
VERTEX
  5
70CF
  8
101購入品
 10
848.28571428607086
 20
221.78571428571419
 30
0.0
  0
VERTEX
  5
70D0
  8
101購入品
 10
848.28571428527084
 20
222.28571428480021
 30
0.0
  0
VERTEX
  5
70D1
  8
101購入品
 10
848.71428571407091
 20
222.28571428480021
 30
0.0
  0
VERTEX
  5
70D2
  8
101購入品
 10
848.71428571327078
 20
221.78571428571419
 30
0.0
 42
0.4142135633104067
  0
VERTEX
  5
70D3
  8
101購入品
 10
849.28571428538521
 20
221.21428571359999
 30
0.0
  0
VERTEX
  5
70D4
  8
101購入品
 10
849.78571428447083
 20
221.21428571440021
 30
0.0
  0
VERTEX
  5
70D5
  8
101購入品
 10
849.78571428447083
 20
220.78571428560011
 30
0.0
  0
VERTEX
  5
70D6
  8
101購入品
 10
849.28571428538521
 20
220.78571428640021
 30
0.0
 42
0.4142135633104066
  0
VERTEX
  5
70D7
  8
101購入品
 10
848.71428571327078
 20
220.21428571428581
 30
0.0
  0
VERTEX
  5
70D8
  8
101購入品
 10
848.71428571407091
 20
219.7142857152003
 30
0.0
  0
VERTEX
  5
70D9
  8
101購入品
 10
848.28571428527084
 20
219.7142857152003
 30
0.0
  0
VERTEX
  5
70DA
  8
101購入品
 10
848.28571428607086
 20
220.21428571428581
 30
0.0
 42
0.4142135633103601
  0
VERTEX
  5
70DB
  8
101購入品
 10
847.71428571395654
 20
220.78571428640041
 30
0.0
  0
VERTEX
  5
70DC
  8
101購入品
 10
847.21428571487093
 20
220.78571428560011
 30
0.0
  0
VERTEX
  5
70DD
  8
101購入品
 10
847.21428571487093
 20
221.21428571440021
 30
0.0
  0
SEQEND
  5
70DE
  8
101購入品
  0
LINE
  5
6D6D
  8
001センタ
 10
753.99999999967088
 20
199.0
 30
0.0
 11
760.99999999967076
 21
199.0
 31
0.0
  0
LINE
  5
6D6E
  8
001センタ
 10
757.49999999967076
 20
195.5
 30
0.0
 11
757.49999999967076
 21
202.5
 31
0.0
  0
CIRCLE
  5
6D6F
  8
101購入品
 10
757.49999999967076
 20
199.0
 30
0.0
 40
1.9999999984000001
  0
POLYLINE
  5
6D70
  8
101購入品
 66
     1
 10
0.0
 20
0.0
 30
0.0
 70
     1
  0
VERTEX
  5
70DF
  8
101購入品
 10
756.71428571487093
 20
199.21428571359999
 30
0.0
 42
0.4142135628417161
  0
VERTEX
  5
70E0
  8
101購入品
 10
757.28571428607086
 20
199.78571428571419
 30
0.0
  0
VERTEX
  5
70E1
  8
101購入品
 10
757.28571428527084
 20
200.28571428480021
 30
0.0
  0
VERTEX
  5
70E2
  8
101購入品
 10
757.7142857140708
 20
200.28571428480021
 30
0.0
  0
VERTEX
  5
70E3
  8
101購入品
 10
757.7142857132709
 20
199.78571428571419
 30
0.0
 42
0.4142135633104067
  0
VERTEX
  5
70E4
  8
101購入品
 10
758.28571428538521
 20
199.21428571359999
 30
0.0
  0
VERTEX
  5
70E5
  8
101購入品
 10
758.78571428447083
 20
199.21428571440009
 30
0.0
  0
VERTEX
  5
70E6
  8
101購入品
 10
758.78571428447083
 20
198.78571428559999
 30
0.0
  0
VERTEX
  5
70E7
  8
101購入品
 10
758.28571428538521
 20
198.78571428640021
 30
0.0
 42
0.4142135633104066
  0
VERTEX
  5
70E8
  8
101購入品
 10
757.7142857132709
 20
198.21428571428581
 30
0.0
  0
VERTEX
  5
70E9
  8
101購入品
 10
757.7142857140708
 20
197.7142857152003
 30
0.0
  0
VERTEX
  5
70EA
  8
101購入品
 10
757.28571428527084
 20
197.7142857152003
 30
0.0
  0
VERTEX
  5
70EB
  8
101購入品
 10
757.28571428607086
 20
198.21428571428581
 30
0.0
 42
0.4142135633103601
  0
VERTEX
  5
70EC
  8
101購入品
 10
756.71428571395654
 20
198.78571428640041
 30
0.0
  0
VERTEX
  5
70ED
  8
101購入品
 10
756.21428571487093
 20
198.78571428559999
 30
0.0
  0
VERTEX
  5
70EE
  8
101購入品
 10
756.21428571487093
 20
199.21428571440009
 30
0.0
  0
SEQEND
  5
70EF
  8
101購入品
  0
LINE
  5
6D71
  8
001センタ
 10
844.99999999967088
 20
199.0
 30
0.0
 11
851.99999999967088
 21
199.0
 31
0.0
  0
LINE
  5
6D72
  8
001センタ
 10
848.49999999967088
 20
195.5
 30
0.0
 11
848.49999999967088
 21
202.5
 31
0.0
  0
CIRCLE
  5
6D73
  8
101購入品
 10
848.49999999967088
 20
199.0
 30
0.0
 40
1.9999999984000001
  0
POLYLINE
  5
6D74
  8
101購入品
 66
     1
 10
0.0
 20
0.0
 30
0.0
 70
     1
  0
VERTEX
  5
70F0
  8
101購入品
 10
847.71428571487093
 20
199.21428571359999
 30
0.0
 42
0.4142135628417161
  0
VERTEX
  5
70F1
  8
101購入品
 10
848.28571428607086
 20
199.78571428571419
 30
0.0
  0
VERTEX
  5
70F2
  8
101購入品
 10
848.28571428527084
 20
200.28571428480021
 30
0.0
  0
VERTEX
  5
70F3
  8
101購入品
 10
848.71428571407091
 20
200.28571428480021
 30
0.0
  0
VERTEX
  5
70F4
  8
101購入品
 10
848.71428571327078
 20
199.78571428571419
 30
0.0
 42
0.4142135633104067
  0
VERTEX
  5
70F5
  8
101購入品
 10
849.28571428538521
 20
199.21428571359999
 30
0.0
  0
VERTEX
  5
70F6
  8
101購入品
 10
849.78571428447083
 20
199.21428571440009
 30
0.0
  0
VERTEX
  5
70F7
  8
101購入品
 10
849.78571428447083
 20
198.78571428559999
 30
0.0
  0
VERTEX
  5
70F8
  8
101購入品
 10
849.28571428538521
 20
198.78571428640021
 30
0.0
 42
0.4142135633104066
  0
VERTEX
  5
70F9
  8
101購入品
 10
848.71428571327078
 20
198.21428571428581
 30
0.0
  0
VERTEX
  5
70FA
  8
101購入品
 10
848.71428571407091
 20
197.7142857152003
 30
0.0
  0
VERTEX
  5
70FB
  8
101購入品
 10
848.28571428527084
 20
197.7142857152003
 30
0.0
  0
VERTEX
  5
70FC
  8
101購入品
 10
848.28571428607086
 20
198.21428571428581
 30
0.0
 42
0.4142135633103601
  0
VERTEX
  5
70FD
  8
101購入品
 10
847.71428571395654
 20
198.78571428640041
 30
0.0
  0
VERTEX
  5
70FE
  8
101購入品
 10
847.21428571487093
 20
198.78571428559999
 30
0.0
  0
VERTEX
  5
70FF
  8
101購入品
 10
847.21428571487093
 20
199.21428571440009
 30
0.0
  0
SEQEND
  5
7100
  8
101購入品
  0
INSERT
  5
6D75
  8
011形状
  6
CONTINUOUS
 62
     1
  2
*X49
 10
0.0
 20
0.0
 30
0.0
1001
GRADIENTCOLOR1ACI
1070
     5
1001
GRADIENTCOLOR2ACI
1070
     2
1001
ACAD
1000
HATCH
1002
{
1070
    19
1000
ANSI31
1040
0.2
1040
2.3561944901923439
1000
R14_HATCH_DATA
1000
6D75
1011
1.0
1021
0.0
1031
0.0
1021
0.0
1031
0.0
1011
0.0
1021
0.0
1031
0.0
1021
1.0
1031
0.0
1011
0.0
1021
0.0
1031
0.0
1021
0.0
1031
1.0
1040
0.0
1010
0.0
1020
0.0
1030
1.0
1000
ANSI31
1070
     0
1070
     0
1071
        1
1071
        7
1070
     0
1070
     1
1071
        3
1040
694.29999999999995
1040
147.5
1040
690.29999999999995
1040
147.5
1040
692.29999999999995
1040
144.03589838486229
1071
        0
1070
     1
1070
     1
1040
2.3561944901923439
1040
0.2
1070
     0
1070
     1
1040
3.1415926535897931
1040
585.0
1040
-75.0
1040
-0.0000000000000001
1040
-0.6349999999999999
1070
     0
1040
0.0122957584907129
1071
        1
1040
691.80148343087228
1040
146.59470572078769
1040
0.0
1002
}
  0
DIMENSION
  5
6D76
  8
002寸法
  2
*D14
 10
896.49999999999727
 20
226.0
 30
0.0
 11
894.49999999999727
 21
210.00000000000011
 31
0.0
 70
     0
 13
851.0
 23
194.0
 33
0.0
 14
851.0
 24
226.0
 34
0.0
 50
90.0
  0
LINE
  5
6D79
  8
001センタ
 10
757.50000000025409
 20
190.13999999985469
 30
0.0
 11
757.49999999960505
 21
200.0
 31
0.0
  0
DIMENSION
  5
6D7A
  8
002寸法
  2
*D15
 10
795.0
 20
93.0
 30
0.0
 11
775.0
 21
95.0
 31
0.0
 70
     0
 13
755.0
 23
130.0
 33
0.0
 14
795.0
 24
108.0
 34
0.0
  0
INSERT
  5
6D7D
  8
011形状
  2
*U50
 10
0.0
 20
0.0
 30
0.0
1001
ACAD_MLEADERVER
1070
     2
  0
LINE
  5
6D7E
  8
101購入品
 10
861.5
 20
195.0
 30
0.0
 11
861.5
 21
203.0
 31
0.0
  0
ARC
  5
6D7F
  8
101購入品
 10
855.71925910399989
 20
201.0
 30
0.0
 40
5.7807408960000002
 50
339.75858895899802
 51
20.241411041002021
  0
ARC
  5
6D80
  8
101購入品
 10
855.71925910399989
 20
197.0
 30
0.0
 40
5.7807408960000002
 50
339.75858895899802
 51
20.241411041002021
  0
LINE
  5
6D81
  8
101購入品
 10
854.49999999999989
 20
195.0
 30
0.0
 11
854.49999999999989
 21
203.0
 31
0.0
  0
LINE
  5
6D82
  8
101購入品
 10
861.5
 20
203.0
 30
0.0
 11
854.49999999999989
 21
203.0
 31
0.0
  0
LINE
  5
6D83
  8
101購入品
 10
854.49999999999989
 20
195.0
 30
0.0
 11
861.5
 21
195.0
 31
0.0
  0
LINE
  5
6D84
  8
101購入品
 10
851.5
 20
194.38119784599999
 30
0.0
 11
851.5
 21
203.61880215400001
 31
0.0
  0
LINE
  5
6D85
  8
101購入品
 10
851.0
 20
194.38119784599999
 30
0.0
 11
851.0
 21
203.61880215400001
 31
0.0
  0
LINE
  5
6D86
  8
101購入品
 10
851.5
 20
194.38119784599999
 30
0.0
 11
851.0
 21
194.38119784599999
 31
0.0
  0
LINE
  5
6D87
  8
101購入品
 10
851.5
 20
203.61880215400001
 30
0.0
 11
851.0
 21
203.61880215400001
 31
0.0
  0
LINE
  5
6D88
  8
101購入品
 10
852.5
 20
203.0
 30
0.0
 11
851.5
 21
203.0
 31
0.0
  0
LINE
  5
6D89
  8
101購入品
 10
852.5
 20
195.0
 30
0.0
 11
851.5
 21
195.0
 31
0.0
  0
LINE
  5
6D8A
  8
101購入品
 10
852.5
 20
195.0
 30
0.0
 11
852.5
 21
203.0
 31
0.0
  0
LINE
  5
6D8B
  8
101購入品
 10
851.5
 20
199.0
 30
0.0
 11
852.5
 21
199.0
 31
0.0
  0
LINE
  5
6D8C
  8
101購入品
 10
854.49999999999989
 20
199.0
 30
0.0
 11
861.14300000000003
 21
199.0
 31
0.0
  0
LINE
  5
6D8D
  8
101購入品
 10
854.49999999999989
 20
202.5
 30
0.0
 11
853.74999999999989
 21
202.5
 31
0.0
  0
LINE
  5
6D8E
  8
101購入品
 10
854.49999999999989
 20
195.5
 30
0.0
 11
853.74999999999989
 21
195.5
 31
0.0
  0
LINE
  5
6D8F
  8
101購入品
 10
852.5
 20
196.25
 30
0.0
 11
853.74999999999989
 21
196.25
 31
0.0
  0
LINE
  5
6D90
  8
101購入品
 10
853.74999999999989
 20
195.5
 30
0.0
 11
853.74999999999989
 21
202.5
 31
0.0
  0
LINE
  5
6D91
  8
101購入品
 10
852.5
 20
201.75
 30
0.0
 11
853.74999999999989
 21
201.75
 31
0.0
  0
LINE
  5
6D92
  8
101購入品
 62
     1
 10
854.49999999999989
 20
201.75
 30
0.0
 11
853.74999999999989
 21
201.75
 31
0.0
  0
LINE
  5
6D93
  8
101購入品
 62
     1
 10
854.49999999999989
 20
196.25
 30
0.0
 11
853.74999999999989
 21
196.25
 31
0.0
  0
ARC
  5
6D94
  8
101購入品
 10
880.75
 20
200.0
 30
0.0
 40
1.25
 50
306.86989764600042
 51
53.130102353999639
  0
ARC
  5
6D95
  8
101購入品
 10
880.75
 20
198.0
 30
0.0
 40
1.25
 50
306.86989764600042
 51
53.130102353999639
  0
ARC
  5
6D96
  8
101購入品
 10
882.24999999999989
 20
198.0
 30
0.0
 40
1.25
 50
126.8698976460003
 51
233.1301023539996
  0
LINE
  5
6D97
  8
101購入品
 10
861.49999999999454
 20
201.0
 30
0.0
 11
881.49999999999466
 21
201.0
 31
0.0
  0
LINE
  5
6D98
  8
101購入品
 10
861.49999999999454
 20
197.0
 30
0.0
 11
881.49999999999466
 21
197.0
 31
0.0
  0
ARC
  5
6D99
  8
101購入品
 10
853.85726558999988
 20
145.0
 30
0.0
 40
7.6427344100000001
 50
342.4120462259998
 51
17.58795377400012
  0
ARC
  5
6D9A
  8
101購入品
 10
859.45534180100015
 20
148.464101615
 30
0.0
 40
2.0446581990000001
 50
325.61575253199572
 51
34.384247468004283
  0
ARC
  5
6D9B
  8
101購入品
 10
859.45534180100015
 20
141.535898385
 30
0.0
 40
2.0446581990000001
 50
325.61575253199572
 51
34.384247468004283
  0
LINE
  5
6D9C
  8
101購入品
 10
861.5
 20
141.0
 30
0.0
 11
861.14273441
 21
140.38119784599999
 31
0.0
  0
LINE
  5
6D9D
  8
101購入品
 10
861.5
 20
149.0
 30
0.0
 11
861.14273441
 21
149.61880215400001
 31
0.0
  0
LINE
  5
6D9E
  8
101購入品
 10
861.5
 20
141.0
 30
0.0
 11
861.5
 21
149.0
 31
0.0
  0
LINE
  5
6D9F
  8
101購入品
 10
854.49999999999989
 20
140.38119784599999
 30
0.0
 11
861.14273441
 21
140.38119784599999
 31
0.0
  0
LINE
  5
6DA0
  8
101購入品
 10
854.49999999999989
 20
149.61880215400001
 30
0.0
 11
861.14273441
 21
149.61880215400001
 31
0.0
  0
LINE
  5
6DA1
  8
101購入品
 10
854.49999999999989
 20
140.38119784599999
 30
0.0
 11
854.49999999999989
 21
149.61880215400001
 31
0.0
  0
LINE
  5
6DA2
  8
101購入品
 10
852.5
 20
140.38119784599999
 30
0.0
 11
852.5
 21
149.61880215400001
 31
0.0
  0
LINE
  5
6DA3
  8
101購入品
 10
851.5
 20
140.38119784599999
 30
0.0
 11
851.5
 21
149.61880215400001
 31
0.0
  0
LINE
  5
6DA4
  8
101購入品
 10
851.5
 20
140.38119784599999
 30
0.0
 11
852.5
 21
140.38119784599999
 31
0.0
  0
LINE
  5
6DA5
  8
101購入品
 10
851.5
 20
149.61880215400001
 30
0.0
 11
852.5
 21
149.61880215400001
 31
0.0
  0
LINE
  5
6DA6
  8
101購入品
 10
851.5
 20
142.6905989229999
 30
0.0
 11
852.5
 21
142.6905989229999
 31
0.0
  0
LINE
  5
6DA7
  8
101購入品
 10
851.5
 20
147.30940107699999
 30
0.0
 11
852.5
 21
147.30940107699999
 31
0.0
  0
LINE
  5
6DA8
  8
101購入品
 10
854.49999999999989
 20
142.6905989229999
 30
0.0
 11
861.14273441
 21
142.6905989229999
 31
0.0
  0
LINE
  5
6DA9
  8
101購入品
 10
854.49999999999989
 20
147.30940107699999
 30
0.0
 11
861.14273441
 21
147.30940107699999
 31
0.0
  0
LINE
  5
6DAA
  8
101購入品
 10
851.0
 20
140.38119784599999
 30
0.0
 11
851.0
 21
149.61880215400001
 31
0.0
  0
LINE
  5
6DAB
  8
101購入品
 10
851.5
 20
140.38119784599999
 30
0.0
 11
851.0
 21
140.38119784599999
 31
0.0
  0
LINE
  5
6DAC
  8
101購入品
 10
851.5
 20
149.61880215400001
 30
0.0
 11
851.0
 21
149.61880215400001
 31
0.0
  0
LINE
  5
6DAD
  8
101購入品
 10
854.49999999999989
 20
141.5
 30
0.0
 11
853.74999999999989
 21
141.5
 31
0.0
  0
LINE
  5
6DAE
  8
101購入品
 10
853.74999999999989
 20
141.5
 30
0.0
 11
853.74999999999989
 21
148.5
 31
0.0
  0
LINE
  5
6DAF
  8
101購入品
 10
854.49999999999989
 20
148.5
 30
0.0
 11
853.74999999999989
 21
148.5
 31
0.0
  0
LINE
  5
6DB0
  8
101購入品
 10
852.5
 20
147.75
 30
0.0
 11
853.74999999999989
 21
147.75
 31
0.0
  0
LINE
  5
6DB1
  8
101購入品
 10
852.5
 20
142.25
 30
0.0
 11
853.74999999999989
 21
142.25
 31
0.0
  0
LINE
  5
6DB2
  8
101購入品
 62
     1
 10
854.49999999999989
 20
142.25
 30
0.0
 11
853.74999999999989
 21
142.25
 31
0.0
  0
LINE
  5
6DB3
  8
101購入品
 62
     1
 10
854.49999999999989
 20
147.75
 30
0.0
 11
853.74999999999989
 21
147.75
 31
0.0
  0
LINE
  5
6DB4
  8
001センタ
 10
886.5
 20
145.0
 30
0.0
 11
841.5
 21
145.0
 31
0.0
  0
ARC
  5
6DB5
  8
101購入品
 10
880.75
 20
144.0
 30
0.0
 40
1.25
 50
306.86989764600042
 51
53.130102353999639
  0
ARC
  5
6DB6
  8
101購入品
 10
880.75
 20
146.0
 30
0.0
 40
1.25
 50
306.86989764600042
 51
53.130102353999639
  0
ARC
  5
6DB7
  8
101購入品
 10
882.24999999999989
 20
144.0
 30
0.0
 40
1.25
 50
126.8698976460003
 51
233.1301023539996
  0
LINE
  5
6DB8
  8
101購入品
 10
861.49999999999454
 20
147.0
 30
0.0
 11
881.49999999999466
 21
147.0
 31
0.0
  0
LINE
  5
6DB9
  8
101購入品
 10
861.49999999999454
 20
143.0
 30
0.0
 11
881.49999999999466
 21
143.0
 31
0.0
  0
POLYLINE
  5
6DBA
  8
101購入品
 66
     1
 10
0.0
 20
0.0
 30
0.0
 70
     1
  0
VERTEX
  5
7119
  8
101購入品
 10
935.0
 20
142.6905989229999
 30
0.0
  0
VERTEX
  5
711A
  8
101購入品
 10
939.0
 20
140.38119784599991
 30
0.0
  0
VERTEX
  5
711B
  8
101購入品
 10
943.0
 20
142.6905989229999
 30
0.0
  0
VERTEX
  5
711C
  8
101購入品
 10
943.0
 20
147.3094010769999
 30
0.0
  0
VERTEX
  5
711D
  8
101購入品
 10
939.0
 20
149.61880215400001
 30
0.0
  0
VERTEX
  5
711E
  8
101購入品
 10
935.0
 20
147.3094010769999
 30
0.0
  0
SEQEND
  5
711F
  8
101購入品
  0
CIRCLE
  5
6DBB
  8
101購入品
 10
939.0
 20
145.0
 30
0.0
 40
4.0
  0
CIRCLE
  5
6DBC
  8
101購入品
 10
939.0
 20
145.0
 30
0.0
 40
4.618802153999999
  0
LINE
  5
6DBD
  8
001センタ
 10
939.0
 20
137.88119784599991
 30
0.0
 11
939.0
 21
152.11880215400001
 31
0.0
  0
LINE
  5
6DBE
  8
001センタ
 10
946.11880215399992
 20
145.0
 30
0.0
 11
931.88119784599985
 21
145.0
 31
0.0
  0
CIRCLE
  5
6DBF
  8
101購入品
 10
939.0
 20
145.0
 30
0.0
 40
2.2000000000000002
  0
CIRCLE
  5
6DC0
  8
101購入品
 10
939.0
 20
145.0
 30
0.0
 40
2.0
  0
DIMENSION
  5
6DC1
  8
002寸法
  2
*D16
 10
896.49999999999727
 20
157.0
 30
0.0
 11
894.49999999999727
 21
143.50000000000011
 31
0.0
 70
     0
 13
851.0
 23
130.0
 33
0.0
 14
851.0
 24
157.0
 34
0.0
 50
90.0
  0
DIMENSION
  5
6DC4
  8
002寸法
  2
*D17
 10
981.0
 20
145.0
 30
0.0
 11
979.0
 21
131.50000000000011
 31
0.0
 70
     0
 13
953.0
 23
118.0
 33
0.0
 14
956.0
 24
145.0
 34
0.0
 50
90.0
  0
LINE
  5
6DC7
  8
011形状
  6
DASHED
 62
     1
 10
947.0
 20
121.25
 30
0.0
 11
953.0
 21
121.25
 31
0.0
  0
LINE
  5
6DC8
  8
011形状
  6
DASHED
 62
     1
 10
947.0
 20
114.75
 30
0.0
 11
953.0
 21
114.75
 31
0.0
  0
ARC
  5
6DC9
  8
011形状
 10
782.0
 20
210.0
 30
0.0
 40
1.0
 50
90.0
 51
270.0
  0
LINE
  5
6DCA
  8
011形状
 10
785.0
 20
211.0
 30
0.0
 11
785.0
 21
215.0
 31
0.0
  0
LINE
  5
6DCB
  8
011形状
 10
786.0
 20
211.0
 30
0.0
 11
786.0
 21
213.0
 31
0.0
  0
LINE
  5
6DCC
  8
011形状
 10
787.0
 20
211.0
 30
0.0
 11
787.0
 21
213.0
 31
0.0
  0
LINE
  5
6DCD
  8
011形状
 10
789.0
 20
211.0
 30
0.0
 11
789.0
 21
213.0
 31
0.0
  0
LINE
  5
6DCE
  8
011形状
 10
790.0
 20
211.0
 30
0.0
 11
790.0
 21
214.0
 31
0.0
  0
LINE
  5
6DCF
  8
011形状
 10
791.0
 20
211.0
 30
0.0
 11
791.0
 21
213.0
 31
0.0
  0
LINE
  5
6DD0
  8
011形状
 10
792.0
 20
211.0
 30
0.0
 11
792.0
 21
213.0
 31
0.0
  0
LINE
  5
6DD1
  8
011形状
 10
793.0
 20
211.0
 30
0.0
 11
793.0
 21
213.0
 31
0.0
  0
LINE
  5
6DD2
  8
011形状
 10
788.0
 20
211.0
 30
0.0
 11
788.0
 21
213.0
 31
0.0
  0
LINE
  5
6DD3
  8
011形状
 10
794.0
 20
211.0
 30
0.0
 11
794.0
 21
213.0
 31
0.0
  0
LINE
  5
6DD4
  8
011形状
 10
795.0
 20
211.0
 30
0.0
 11
795.0
 21
215.0
 31
0.0
  0
LINE
  5
6DD5
  8
011形状
 10
796.0
 20
211.0
 30
0.0
 11
796.0
 21
213.0
 31
0.0
  0
LINE
  5
6DD6
  8
011形状
 10
797.0
 20
211.0
 30
0.0
 11
797.0
 21
213.0
 31
0.0
  0
LINE
  5
6DD7
  8
011形状
 10
799.0
 20
211.0
 30
0.0
 11
799.0
 21
213.0
 31
0.0
  0
LINE
  5
6DD8
  8
011形状
 10
800.0
 20
211.0
 30
0.0
 11
800.0
 21
214.0
 31
0.0
  0
LINE
  5
6DD9
  8
011形状
 10
801.0
 20
211.0
 30
0.0
 11
801.0
 21
213.0
 31
0.0
  0
LINE
  5
6DDA
  8
011形状
 10
802.0
 20
211.0
 30
0.0
 11
802.0
 21
213.0
 31
0.0
  0
LINE
  5
6DDB
  8
011形状
 10
803.0
 20
211.0
 30
0.0
 11
803.0
 21
213.0
 31
0.0
  0
LINE
  5
6DDC
  8
011形状
 10
798.0
 20
211.0
 30
0.0
 11
798.0
 21
213.0
 31
0.0
  0
LINE
  5
6DDD
  8
011形状
 10
804.0
 20
211.0
 30
0.0
 11
804.0
 21
213.0
 31
0.0
  0
LINE
  5
6DDE
  8
011形状
 10
785.0
 20
209.0
 30
0.0
 11
785.0
 21
205.0
 31
0.0
  0
LINE
  5
6DDF
  8
011形状
 10
786.0
 20
209.0
 30
0.0
 11
786.0
 21
207.0
 31
0.0
  0
LINE
  5
6DE0
  8
011形状
 10
787.0
 20
209.0
 30
0.0
 11
787.0
 21
207.0
 31
0.0
  0
LINE
  5
6DE1
  8
011形状
 10
789.0
 20
209.0
 30
0.0
 11
789.0
 21
207.0
 31
0.0
  0
LINE
  5
6DE2
  8
011形状
 10
790.0
 20
209.0
 30
0.0
 11
790.0
 21
206.0
 31
0.0
  0
LINE
  5
6DE3
  8
011形状
 10
791.0
 20
209.0
 30
0.0
 11
791.0
 21
207.0
 31
0.0
  0
LINE
  5
6DE4
  8
011形状
 10
792.0
 20
209.0
 30
0.0
 11
792.0
 21
207.0
 31
0.0
  0
LINE
  5
6DE5
  8
011形状
 10
793.0
 20
209.0
 30
0.0
 11
793.0
 21
207.0
 31
0.0
  0
LINE
  5
6DE6
  8
011形状
 10
788.0
 20
209.0
 30
0.0
 11
788.0
 21
207.0
 31
0.0
  0
LINE
  5
6DE7
  8
011形状
 10
794.0
 20
209.0
 30
0.0
 11
794.0
 21
207.0
 31
0.0
  0
LINE
  5
6DE8
  8
011形状
 10
795.0
 20
209.0
 30
0.0
 11
795.0
 21
205.0
 31
0.0
  0
LINE
  5
6DE9
  8
011形状
 10
796.0
 20
209.0
 30
0.0
 11
796.0
 21
207.0
 31
0.0
  0
LINE
  5
6DEA
  8
011形状
 10
797.0
 20
209.0
 30
0.0
 11
797.0
 21
207.0
 31
0.0
  0
LINE
  5
6DEB
  8
011形状
 10
799.0
 20
209.0
 30
0.0
 11
799.0
 21
207.0
 31
0.0
  0
LINE
  5
6DEC
  8
011形状
 10
800.0
 20
209.0
 30
0.0
 11
800.0
 21
206.0
 31
0.0
  0
LINE
  5
6DED
  8
011形状
 10
801.0
 20
209.0
 30
0.0
 11
801.0
 21
207.0
 31
0.0
  0
LINE
  5
6DEE
  8
011形状
 10
802.0
 20
209.0
 30
0.0
 11
802.0
 21
207.0
 31
0.0
  0
LINE
  5
6DEF
  8
011形状
 10
803.0
 20
209.0
 30
0.0
 11
803.0
 21
207.0
 31
0.0
  0
LINE
  5
6DF0
  8
011形状
 10
798.0
 20
209.0
 30
0.0
 11
798.0
 21
207.0
 31
0.0
  0
LINE
  5
6DF1
  8
011形状
 10
804.0
 20
209.0
 30
0.0
 11
804.0
 21
207.0
 31
0.0
  0
INSERT
  5
6DF2
  8
011形状
  2
*U51
 10
0.0
 20
0.0
 30
0.0
  0
INSERT
  5
6DF3
  8
011形状
  2
*U52
 10
0.0
 20
0.0
 30
0.0
  0
DIMENSION
  5
6DF4
  8
002寸法
  2
*D18
 10
953.0
 20
93.0
 30
0.0
 11
950.0
 21
95.0
 31
0.0
 70
     0
 13
947.0
 23
109.0
 33
0.0
 14
953.0
 24
109.0
 34
0.0
  0
DIMENSION
  5
6DF7
  8
002寸法
  2
*D19
 10
755.0
 20
236.0
 30
0.0
 11
721.64999999999986
 21
238.0
 31
0.0
 70
     0
 13
688.29999999999995
 23
210.0
 33
0.0
 14
755.0
 24
226.0
 34
0.0
  0
DIMENSION
  5
6DFA
  8
002寸法
  2
*D12
 10
857.69999999999993
 20
246.0
 30
0.0
 11
773.0
 21
248.0
 31
0.0
 70
     0
 13
688.29999999999995
 23
210.0
 33
0.0
 14
857.69999999999993
 24
210.0
 34
0.0
  0
DIMENSION
  5
6DFB
  8
002寸法
  2
*D20
 10
851.0
 20
236.0
 30
0.0
 11
803.0
 21
238.0
 31
0.0
 70
     0
 13
755.0
 23
226.0
 33
0.0
 14
851.0
 24
226.0
 34
0.0
1001
ACAD
1000
DSTYLE
1002
{
1070
   287
1070
     4
1070
   279
1070
     1
1002
}
  0
DIMENSION
  5
6DFE
  8
002寸法
  2
*D21
 10
857.69999999999993
 20
236.0
 30
0.0
 11
854.34999999999991
 21
238.0
 31
0.0
 70
     0
 13
851.0
 23
226.0
 33
0.0
 14
857.69999999999993
 24
210.0
 34
0.0
1001
ACAD
1000
DSTYLE
1002
{
1070
   287
1070
     4
1070
   279
1070
     1
1002
}
  0
LINE
  5
6F08
  8
DEFPOINTS
  6
CENTER
 10
810.00000000000011
 20
14.5
 30
0.0
 11
810.00000000000011
 21
0.0
 31
0.0
  0
VIEWPORT
  5
71
 67
     1
  8
0
 10
624.30697861446504
 20
307.75602246587403
 30
0.0
 40
994.76769694267671
 41
769.77311836716035
 68
     1
 69
     1
1001
ACAD
1000
MVIEW
1002
{
1070
    16
1010
0.0
1020
0.0
1030
0.0
1010
0.0
1020
0.0
1030
1.0
1040
0.0
1040
769.77311836716035
1040
624.30697861446504
1040
307.75602246587403
1040
50.0
1040
0.0
1040
0.0
1070
     0
1070
   100
1070
     1
1070
     1
1070
     1
1070
     0
1070
     0
1070
     0
1040
0.0
1040
0.0
1040
0.0
1040
0.5
1040
0.5
1040
10.0
1040
10.0
1070
     0
1002
{
1002
}
1002
}
  0
VIEWPORT
  5
73
 67
     1
  8
0
 10
693.0
 20
140.5
 30
0.0
 40
419.99999999999989
 41
297.0
 68
     2
 69
     2
1001
ACAD
1000
MVIEW
1002
{
1070
    16
1010
0.0
1020
0.0
1030
0.0
1010
0.0
1020
0.0
1030
1.0
1040
0.0
1040
297.0
1040
804.0
1040
148.5
1040
50.0
1040
0.0
1040
0.0
1070
     0
1070
   100
1070
     1
1070
     3
1070
     0
1070
     0
1070
     0
1070
     0
1040
0.0
1040
0.0
1040
0.0
1040
10.0
1040
10.0
1040
10.0
1040
10.0
1070
     0
1002
{
1002
}
1002
}
  0
ENDSEC
  0
EOF
