  0
SECTION
  2
HEADER
  9
$ACADVER
  1
AC1009
  9
$INSBASE
 10
0.0
 20
0.0
 30
0.0
  9
$EXTMIN
 10
600.0
 20
0.0
 30
0.0
  9
$EXTMAX
 10
1440.0
 20
594.0
 30
0.1
  9
$LIMMIN
 10
0.0
 20
0.0
  9
$LIMMAX
 10
420.0
 20
297.0
  9
$ORTHOMODE
 70
     0
  9
$REGENMODE
 70
     1
  9
$FILLMODE
 70
     1
  9
$QTEXTMODE
 70
     0
  9
$MIRRTEXT
 70
     1
  9
$DRAGMODE
 70
     2
  9
$LTSCALE
 40
2.0
  9
$OSMODE
 70
    63
  9
$ATTMODE
 70
     1
  9
$TEXTSIZE
 40
3.0
  9
$TRACEWID
 40
1.0
  9
$TEXTSTYLE
  7
STANDARD
  9
$CLAYER
  8
011形状
  9
$CELTYPE
  6
BYLAYER
  9
$CECOLOR
 62
   256
  9
$DIMSCALE
 40
1.0
  9
$DIMASZ
 40
2.5
  9
$DIMEXO
 40
0.5
  9
$DIMDLI
 40
3.75
  9
$DIMRND
 40
0.0
  9
$DIMDLE
 40
0.0
  9
$DIMEXE
 40
0.75
  9
$DIMTP
 40
0.0
  9
$DIMTM
 40
0.000000001
  9
$DIMTXT
 40
3.0
  9
$DIMCEN
 40
2.5
  9
$DIMTSZ
 40
0.0
  9
$DIMTOL
 70
     0
  9
$DIMLIM
 70
     0
  9
$DIMTIH
 70
     0
  9
$DIMTOH
 70
     0
  9
$DIMSE1
 70
     0
  9
$DIMSE2
 70
     0
  9
$DIMTAD
 70
     3
  9
$DIMZIN
 70
     8
  9
$DIMBLK
  1

  9
$DIMASO
 70
     1
  9
$DIMSHO
 70
     1
  9
$DIMPOST
  1

  9
$DIMAPOST
  1

  9
$DIMALT
 70
     0
  9
$DIMALTD
 70
     4
  9
$DIMALTF
 40
0.0394
  9
$DIMLFAC
 40
1.0
  9
$DIMTOFL
 70
     1
  9
$DIMTVP
 40
0.0
  9
$DIMTIX
 70
     0
  9
$DIMSOXD
 70
     0
  9
$DIMSAH
 70
     1
  9
$DIMBLK1
  1
OPEN
  9
$DIMBLK2
  1
OPEN
  9
$DIMSTYLE
  2
通常X1_0
  9
$DIMCLRD
 70
   256
  9
$DIMCLRE
 70
   256
  9
$DIMCLRT
 70
     2
  9
$DIMTFAC
 40
0.5
  9
$DIMGAP
 40
0.5
  9
$LUNITS
 70
     2
  9
$LUPREC
 70
     8
  9
$SKETCHINC
 40
1.0
  9
$FILLETRAD
 40
1.0
  9
$AUNITS
 70
     0
  9
$AUPREC
 70
     6
  9
$MENU
  1
.
  9
$ELEVATION
 40
0.0
  9
$PELEVATION
 40
0.0
  9
$THICKNESS
 40
0.0
  9
$LIMCHECK
 70
     0
  9
$BLIPMODE
 70
     0
  9
$CHAMFERA
 40
1.0
  9
$CHAMFERB
 40
1.0
  9
$SKPOLY
 70
     0
  9
$TDCREATE
 40
2453536.500536378
  9
$TDUPDATE
 40
2460019.4748906712
  9
$TDINDWG
 40
1.3305056944
  9
$TDUSRTIMER
 40
1.3305056944
  9
$USRTIMER
 70
     1
  9
$ANGBASE
 50
0.0
  9
$ANGDIR
 70
     0
  9
$PDMODE
 70
     0
  9
$PDSIZE
 40
0.0
  9
$PLINEWID
 40
0.0
  9
$COORDS
 70
     1
  9
$SPLFRAME
 70
     0
  9
$SPLINETYPE
 70
     6
  9
$SPLINESEGS
 70
     8
  9
$ATTDIA
 70
     1
  9
$ATTREQ
 70
     1
  9
$HANDLING
 70
     1
  9
$HANDSEED
  5
7847
  9
$SURFTAB1
 70
     6
  9
$SURFTAB2
 70
     6
  9
$SURFTYPE
 70
     6
  9
$SURFU
 70
     6
  9
$SURFV
 70
     6
  9
$UCSNAME
  2

  9
$UCSORG
 10
600.0
 20
0.0
 30
0.0
  9
$UCSXDIR
 10
1.0
 20
0.0
 30
0.0
  9
$UCSYDIR
 10
0.0
 20
1.0
 30
0.0
  9
$PUCSNAME
  2

  9
$PUCSORG
 10
0.0
 20
0.0
 30
0.0
  9
$PUCSXDIR
 10
1.0
 20
0.0
 30
0.0
  9
$PUCSYDIR
 10
0.0
 20
1.0
 30
0.0
  9
$USERI1
 70
     0
  9
$USERI2
 70
     0
  9
$USERI3
 70
     0
  9
$USERI4
 70
     0
  9
$USERI5
 70
     0
  9
$USERR1
 40
0.0
  9
$USERR2
 40
0.0
  9
$USERR3
 40
0.0
  9
$USERR4
 40
0.0
  9
$USERR5
 40
0.0
  9
$WORLDVIEW
 70
     1
  9
$SHADEDGE
 70
     3
  9
$SHADEDIF
 70
    70
  9
$TILEMODE
 70
     1
  9
$MAXACTVP
 70
    48
  9
$PLIMCHECK
 70
     0
  9
$PEXTMIN
 10
211.5
 20
-8.0
 30
0.0
  9
$PEXTMAX
 10
903.5
 20
300.0
 30
0.0
  9
$PLIMMIN
 10
483.02948910854462
 20
-8.1501641204820885
  9
$PLIMMAX
 10
903.01847226284156
 20
288.8181586334241
  9
$UNITMODE
 70
     0
  9
$VISRETAIN
 70
     1
  9
$PLINEGEN
 70
     0
  9
$PSLTSCALE
 70
     1
  0
ENDSEC
  0
SECTION
  2
TABLES
  0
TABLE
  2
VPORT
 70
     1
  0
VPORT
  2
*ACTIVE
 70
     0
 10
0.0
 20
0.0
 11
1.0
 21
1.0
 12
1020.012822900983
 22
306.76482216614897
 13
0.0
 23
0.0
 14
10.0
 24
10.0
 15
10.0
 25
10.0
 16
0.0
 26
0.0
 36
1.0
 17
0.0
 27
0.0
 37
0.0
 40
599.86277282245373
 41
2.1195652173913042
 42
50.0
 43
0.0
 44
0.0
 50
0.0
 51
0.0
 71
     0
 72
   100
 73
     1
 74
     3
 75
     0
 76
     1
 77
     0
 78
     0
  0
ENDTAB
  0
TABLE
  2
LTYPE
 70
    10
  0
LTYPE
  2
CONTINUOUS
 70
     0
  3
Solid line
 72
    65
 73
     0
 40
0.0
  0
LTYPE
  2
CENTER
 70
     0
  3
Center ____ _ ____ _ ____ _ ____ _ ____ _ ____
 72
    65
 73
     4
 40
2.0
 49
1.25
 49
-0.25
 49
0.25
 49
-0.25
  0
LTYPE
  2
CENTER2
 70
     0
  3
Center (.5x) ___ _ ___ _ ___ _ ___ _ ___ _ ___
 72
    65
 73
     4
 40
1.125
 49
0.75
 49
-0.125
 49
0.125
 49
-0.125
  0
LTYPE
  2
DASHED
 70
     0
  3
Dashed __ __ __ __ __ __ __ __ __ __ __ __ __ _
 72
    65
 73
     2
 40
0.75
 49
0.5
 49
-0.25
  0
LTYPE
  2
DASHED2
 70
     0
  3
Dashed (.5x) _ _ _ _ _ _ _ _ _ _ _ _ _ _ _ _ _
 72
    65
 73
     2
 40
0.375
 49
0.25
 49
-0.125
  0
LTYPE
  2
PHANTOM2
 70
     0
  3
Phantom (.5x) ___ _ _ ___ _ _ ___ _ _ ___ _ _
 72
    65
 73
     6
 40
1.25
 49
0.625
 49
-0.125
 49
0.125
 49
-0.125
 49
0.125
 49
-0.125
  0
LTYPE
  2
CENTERX2
 70
     0
  3
Center (2x) ________  __  ________  __  _____
 72
    65
 73
     4
 40
4.0
 49
2.5
 49
-0.5
 49
0.5
 49
-0.5
  0
LTYPE
  2
DASHEDX2
 70
     0
  3
Dashed (2x) ____  ____  ____  ____  ____  ___
 72
    65
 73
     2
 40
1.5
 49
1.0
 49
-0.5
  0
LTYPE
  2
PHANTOM
 70
     0
  3
Phantom ______  __  __  ______  __  __  ______
 72
    65
 73
     6
 40
2.5
 49
1.25
 49
-0.25
 49
0.25
 49
-0.25
 49
0.25
 49
-0.25
  0
LTYPE
  2
PHANTOMX2
 70
     0
  3
Phantom (2x) ____________    ____    ____   _
 72
    65
 73
     6
 40
5.0
 49
2.5
 49
-0.5
 49
0.5
 49
-0.5
 49
0.5
 49
-0.5
  0
ENDTAB
  0
TABLE
  2
LAYER
 70
    10
  0
LAYER
  2
0
 70
     0
 62
     7
  6
CONTINUOUS
  0
LAYER
  2
DEFPOINTS
 70
     0
 62
     7
  6
CONTINUOUS
  0
LAYER
  2
002寸法
 70
     0
 62
     1
  6
CONTINUOUS
  0
LAYER
  2
001センタ
 70
     0
 62
     1
  6
CENTER
  0
LAYER
  2
011形状
 70
     0
 62
     3
  6
CONTINUOUS
  0
LAYER
  2
003注釈
 70
     0
 62
     2
  6
CONTINUOUS
  0
LAYER
  2
051共通部品
 70
     0
 62
     3
  6
CONTINUOUS
  0
LAYER
  2
101購入品
 70
     0
 62
     3
  6
CONTINUOUS
  0
LAYER
  2
111治具
 70
     0
 62
     3
  6
CONTINUOUS
  0
LAYER
  2
052収納品
 70
     0
 62
     1
  6
PHANTOM
  0
ENDTAB
  0
TABLE
  2
STYLE
 70
     4
  0
STYLE
  2
STANDARD
 70
     0
 40
0.0
 41
0.9
 50
0.0
 71
     0
 42
3.0
  3
romans.shx
  4
extfont2.shx
  0
STYLE
  2
表題
 70
     0
 40
0.0
 41
1.0
 50
0.0
 71
     0
 42
2.5
  3
txt
  4

  0
STYLE
  2

 70
     1
 40
0.0
 41
1.0
 50
0.0
 71
     0
 42
2.5
  3
ltypeshp.shx
  4

  0
STYLE
  2
注釈
 70
     0
 40
3.0
 41
0.9
 50
0.0
 71
     0
 42
3.0
  3
romans.shx
  4
extfont2.shx
  0
ENDTAB
  0
TABLE
  2
VIEW
 70
     1
  0
ENDTAB
  0
TABLE
  2
UCS
 70
     0
  0
ENDTAB
  0
TABLE
  2
APPID
 70
    20
  0
APPID
  2
ACAD
 70
     0
  0
APPID
  2
ACAD_NAV_VCDISPLAY
 70
     0
  0
APPID
  2
ACAD_EXEMPT_FROM_CAD_STANDARDS
 70
     0
  0
APPID
  2
ACAUTHENVIRON
 70
     0
  0
APPID
  2
ACDBDYNAMICBLOCKTRUENAME
 70
     0
  0
APPID
  2
ACDBDYNAMICBLOCKGUID
 70
     0
  0
APPID
  2
ACADANNOPO
 70
     0
  0
APPID
  2
ACAECLAYERSTANDARD
 70
     0
  0
APPID
  2
ACCMTRANSPARENCY
 70
     0
  0
APPID
  2
ACAD_PSEXT
 70
     0
  0
APPID
  2
ACAD_DSTYLE_DIMJAG
 70
     0
  0
APPID
  2
ACAD_DSTYLE_DIMTALN
 70
     0
  0
APPID
  2
ACAD_DSTYLE_DIMRADIAL_EXTENSION
 70
     0
  0
APPID
  2
ACAD_DSTYLE_DIMBREAK
 70
     0
  0
APPID
  2
GRADIENTCOLOR1ACI
 70
     0
  0
APPID
  2
GRADIENTCOLOR2ACI
 70
     0
  0
APPID
  2
ACAD_MLEADERVER
 70
     0
  0
APPID
  2
CONTENTBLOCKDESCRIPTION
 70
     0
  0
APPID
  2
CONTENTBLOCKICON
 70
     0
  0
APPID
  2
AcDbAttr
 70
     0
  0
ENDTAB
  0
TABLE
  2
DIMSTYLE
 70
    24
  0
DIMSTYLE
  2
通常X1_0
 70
     0
  3

  4

  5

  6
OPEN
  7
OPEN
 40
1.0
 41
2.5
 42
0.5
 43
3.75
 44
0.75
 45
0.0
 46
0.0
 47
0.0
 48
0.000000001
140
3.0
141
2.5
142
0.0
143
0.0394
144
1.0
145
0.0
146
0.5
147
0.5
 71
     0
 72
     0
 73
     0
 74
     0
 75
     0
 76
     0
 77
     3
 78
     8
170
     0
171
     4
172
     1
173
     1
174
     0
175
     0
176
   256
177
   256
178
     2
  0
DIMSTYLE
  2
通常X3_0
 70
     0
  3

  4

  5

  6
OPEN
  7
OPEN
 40
0.0
 41
0.833
 42
0.167
 43
3.75
 44
0.25
 45
0.0
 46
0.0
 47
0.0
 48
0.000000001
140
1.0
141
2.5
142
0.0
143
0.0394
144
1.0
145
0.0
146
0.5
147
0.167
 71
     0
 72
     0
 73
     0
 74
     0
 75
     0
 76
     0
 77
     3
 78
     8
170
     0
171
     4
172
     1
173
     1
174
     0
175
     0
176
   256
177
   256
178
     2
  0
DIMSTYLE
  2
通常X2_0
 70
     0
  3

  4

  5

  6
OPEN
  7
OPEN
 40
0.0
 41
1.25
 42
0.25
 43
3.75
 44
0.375
 45
0.0
 46
0.0
 47
0.0
 48
0.000000001
140
1.5
141
2.5
142
0.0
143
0.0394
144
1.0
145
0.0
146
0.5
147
0.25
 71
     0
 72
     0
 73
     0
 74
     0
 75
     0
 76
     0
 77
     3
 78
     8
170
     0
171
     4
172
     1
173
     1
174
     0
175
     0
176
   256
177
   256
178
     2
  0
DIMSTYLE
  2
通常X2_3
 70
     0
  3

  4

  5

  6
OPEN
  7
OPEN
 40
1.0
 41
3.75
 42
0.75
 43
3.75
 44
1.125
 45
0.0
 46
0.0
 47
0.0
 48
0.0
140
4.5
141
2.5
142
0.0
143
0.0394
144
1.0
145
0.0
146
0.5
147
0.75
 71
     0
 72
     0
 73
     0
 74
     0
 75
     0
 76
     0
 77
     3
 78
     8
170
     0
171
     4
172
     1
173
     1
174
     0
175
     0
176
   256
177
   256
178
     2
  0
DIMSTYLE
  2
通常X3_4
 70
     0
  3

  4

  5

  6
OPEN
  7
OPEN
 40
1.0
 41
3.3330000000000002
 42
0.667
 43
3.75
 44
1.0
 45
0.0
 46
0.0
 47
0.0
 48
0.000000001
140
4.0
141
2.5
142
0.0
143
0.0394
144
1.0
145
0.0
146
0.5
147
0.667
 71
     0
 72
     0
 73
     0
 74
     0
 75
     0
 76
     0
 77
     3
 78
     8
170
     0
171
     4
172
     1
173
     1
174
     0
175
     0
176
   256
177
   256
178
     2
  0
DIMSTYLE
  2
通常X1_3
 70
     0
  3

  4

  5

  6
OPEN
  7
OPEN
 40
1.0
 41
7.5
 42
1.5
 43
3.75
 44
2.25
 45
0.0
 46
0.0
 47
0.0
 48
0.000000001
140
9.0
141
2.5
142
0.0
143
0.0394
144
1.0
145
0.0
146
0.5
147
1.5
 71
     0
 72
     0
 73
     0
 74
     0
 75
     0
 76
     0
 77
     3
 78
     8
170
     0
171
     4
172
     1
173
     1
174
     0
175
     0
176
   256
177
   256
178
     2
  0
DIMSTYLE
  2
通常X1_2
 70
     0
  3

  4

  5

  6
OPEN
  7
OPEN
 40
1.0
 41
5.0
 42
1.0
 43
3.75
 44
1.5
 45
0.0
 46
0.0
 47
0.0
 48
0.0
140
6.0
141
2.5
142
0.0
143
0.0394
144
1.0
145
0.0
146
0.5
147
1.0
 71
     0
 72
     0
 73
     0
 74
     0
 75
     0
 76
     0
 77
     3
 78
     8
170
     0
171
     4
172
     1
173
     1
174
     0
175
     0
176
   256
177
   256
178
     2
  0
DIMSTYLE
  2
通常X1_0$3
 70
     0
  3

  4

  5

  6
OPEN
  7
OPEN
 40
1.0
 41
2.5
 42
0.5
 43
3.75
 44
0.75
 45
0.0
 46
0.0
 47
0.0
 48
0.000000001
140
3.0
141
2.5
142
0.0
143
0.0394
144
1.0
145
0.0
146
0.5
147
0.5
 71
     0
 72
     0
 73
     0
 74
     0
 75
     0
 76
     0
 77
     3
 78
     8
170
     0
171
     4
172
     1
173
     1
174
     0
175
     0
176
   256
177
   256
178
     2
  0
DIMSTYLE
  2
通常X1_3$3
 70
     0
  3

  4

  5

  6
OPEN
  7
OPEN
 40
1.0
 41
7.5
 42
1.5
 43
3.75
 44
2.25
 45
0.0
 46
0.0
 47
0.0
 48
0.000000001
140
9.0
141
2.5
142
0.0
143
0.0394
144
1.0
145
0.0
146
0.5
147
1.5
 71
     0
 72
     0
 73
     0
 74
     0
 75
     0
 76
     0
 77
     3
 78
     8
170
     0
171
     4
172
     1
173
     1
174
     0
175
     0
176
   256
177
   256
178
     2
  0
DIMSTYLE
  2
通常X1_2$3
 70
     0
  3

  4

  5

  6
OPEN
  7
OPEN
 40
1.0
 41
5.0
 42
1.0
 43
3.75
 44
1.5
 45
0.0
 46
0.0
 47
0.0
 48
0.0
140
6.0
141
2.5
142
0.0
143
0.0394
144
1.0
145
0.0
146
0.5
147
1.0
 71
     0
 72
     0
 73
     0
 74
     0
 75
     0
 76
     0
 77
     3
 78
     8
170
     0
171
     4
172
     1
173
     1
174
     0
175
     0
176
   256
177
   256
178
     2
  0
DIMSTYLE
  2
通常X2_3$3
 70
     0
  3

  4

  5

  6
OPEN
  7
OPEN
 40
1.0
 41
3.75
 42
0.75
 43
3.75
 44
1.125
 45
0.0
 46
0.0
 47
0.0
 48
0.0
140
4.5
141
2.5
142
0.0
143
0.0394
144
1.0
145
0.0
146
0.5
147
0.75
 71
     0
 72
     0
 73
     0
 74
     0
 75
     0
 76
     0
 77
     3
 78
     8
170
     0
171
     4
172
     1
173
     1
174
     0
175
     0
176
   256
177
   256
178
     2
  0
DIMSTYLE
  2
通常X3_4$3
 70
     0
  3

  4

  5

  6
OPEN
  7
OPEN
 40
1.0
 41
3.3330000000000002
 42
0.667
 43
3.75
 44
1.0
 45
0.0
 46
0.0
 47
0.0
 48
0.000000001
140
4.0
141
10.0
142
0.0
143
0.0394
144
1.0
145
0.0
146
0.5
147
0.667
 71
     0
 72
     0
 73
     0
 74
     0
 75
     0
 76
     0
 77
     3
 78
     8
170
     0
171
     4
172
     1
173
     1
174
     0
175
     0
176
   256
177
   256
178
     2
  0
DIMSTYLE
  2
通常X2_0$3
 70
     0
  3

  4

  5

  6
OPEN
  7
OPEN
 40
0.0
 41
1.25
 42
0.25
 43
3.75
 44
0.5
 45
0.0
 46
0.0
 47
0.0
 48
0.000000001
140
1.5
141
2.5
142
0.0
143
0.0394
144
1.0
145
0.0
146
0.5
147
0.5
 71
     0
 72
     0
 73
     0
 74
     0
 75
     0
 76
     0
 77
     3
 78
     8
170
     0
171
     4
172
     1
173
     1
174
     0
175
     0
176
   256
177
   256
178
     2
  0
DIMSTYLE
  2
通常X3_0$3
 70
     0
  3

  4

  5

  6
OPEN
  7
OPEN
 40
0.0
 41
0.833
 42
0.167
 43
3.75
 44
0.4
 45
0.0
 46
0.0
 47
0.0
 48
0.000000001
140
1.0
141
2.5
142
0.0
143
0.0394
144
1.0
145
0.0
146
0.5
147
0.4
 71
     0
 72
     0
 73
     0
 74
     0
 75
     0
 76
     0
 77
     3
 78
     8
170
     0
171
     4
172
     1
173
     1
174
     0
175
     0
176
   256
177
   256
178
     2
  0
DIMSTYLE
  2
通常X1_5
 70
     0
  3

  4

  5

  6
OPEN
  7
OPEN
 40
1.0
 41
1.6669999999999989
 42
0.33
 43
3.75
 44
0.5
 45
0.0
 46
0.0
 47
0.0
 48
0.000000001
140
2.0
141
2.5
142
0.0
143
0.0394
144
1.0
145
0.0
146
0.5
147
0.33
 71
     0
 72
     0
 73
     0
 74
     0
 75
     0
 76
     0
 77
     3
 78
     9
170
     0
171
     4
172
     1
173
     1
174
     0
175
     0
176
   256
177
   256
178
     2
  0
DIMSTYLE
  2
通常X3_5
 70
     0
  3

  4

  5

  6
OPEN
  7
OPEN
 40
1.0
 41
4.1669999999999989
 42
0.833
 43
3.75
 44
1.25
 45
0.0
 46
0.0
 47
0.0
 48
0.000000001
140
5.0
141
2.5
142
0.0
143
0.0394
144
1.0
145
0.0
146
0.5
147
0.833
 71
     0
 72
     0
 73
     0
 74
     0
 75
     0
 76
     0
 77
     3
 78
     8
170
     0
171
     4
172
     1
173
     1
174
     0
175
     0
176
   256
177
   256
178
     2
  0
DIMSTYLE
  2
通常X3_5$3
 70
     0
  3

  4

  5

  6
OPEN
  7
OPEN
 40
1.0
 41
4.1669999999999989
 42
0.833
 43
3.75
 44
1.25
 45
0.0
 46
0.0
 47
0.0
 48
0.000000001
140
5.0
141
2.5
142
0.0
143
0.0394
144
1.0
145
0.0
146
0.5
147
0.833
 71
     0
 72
     0
 73
     0
 74
     0
 75
     0
 76
     0
 77
     3
 78
     8
170
     0
171
     4
172
     1
173
     1
174
     0
175
     0
176
   256
177
   256
178
     2
  0
DIMSTYLE
  2
通常X1_5$3
 70
     0
  3

  4

  5

  6
OPEN
  7
OPEN
 40
1.0
 41
1.6669999999999989
 42
0.33
 43
3.75
 44
0.5
 45
0.0
 46
0.0
 47
0.0
 48
0.000000001
140
2.0
141
2.5
142
0.0
143
0.0394
144
1.0
145
0.0
146
0.5
147
0.33
 71
     0
 72
     0
 73
     0
 74
     0
 75
     0
 76
     0
 77
     3
 78
     9
170
     0
171
     4
172
     1
173
     1
174
     0
175
     0
176
   256
177
   256
178
     2
  0
DIMSTYLE
  2
通常X5_0
 70
     0
  3

  4

  5

  6
OPEN
  7
OPEN
 40
0.0
 41
0.5
 42
0.1
 43
3.75
 44
0.15
 45
0.0
 46
0.0
 47
0.0
 48
0.000000001
140
0.6
141
2.5
142
0.0
143
0.0394
144
1.0
145
0.0
146
0.5
147
0.1
 71
     0
 72
     0
 73
     0
 74
     0
 75
     0
 76
     0
 77
     3
 78
     8
170
     0
171
     4
172
     1
173
     1
174
     0
175
     0
176
   256
177
   256
178
     2
  0
DIMSTYLE
  2
通常X5_0$3
 70
     0
  3

  4

  5

  6
OPEN
  7
OPEN
 40
0.0
 41
0.5
 42
0.1
 43
3.75
 44
0.15
 45
0.0
 46
0.0
 47
0.0
 48
0.000000001
140
0.6
141
2.5
142
0.0
143
0.0394
144
1.0
145
0.0
146
0.5
147
0.1
 71
     0
 72
     0
 73
     0
 74
     0
 75
     0
 76
     0
 77
     3
 78
     8
170
     0
171
     4
172
     1
173
     1
174
     0
175
     0
176
   256
177
   256
178
     2
  0
DIMSTYLE
  2
通常X1_50
 70
     0
  3

  4

  5

  6
OPEN
  7
OPEN
 40
1.0
 41
12.5
 42
2.5
 43
3.75
 44
3.75
 45
0.0
 46
0.0
 47
0.0
 48
0.000000001
140
15.0
141
2.5
142
0.0
143
0.0394
144
1.0
145
0.0
146
0.5
147
2.5
 71
     0
 72
     0
 73
     0
 74
     0
 75
     0
 76
     0
 77
     3
 78
     8
170
     0
171
     4
172
     1
173
     1
174
     0
175
     0
176
   256
177
   256
178
     2
  0
DIMSTYLE
  2
通常X1_5$30
 70
     0
  3

  4

  5

  6
OPEN
  7
OPEN
 40
1.0
 41
12.5
 42
2.5
 43
3.75
 44
3.75
 45
0.0
 46
0.0
 47
0.0
 48
0.000000001
140
15.0
141
2.5
142
0.0
143
0.0394
144
1.0
145
0.0
146
0.5
147
2.5
 71
     0
 72
     0
 73
     0
 74
     0
 75
     0
 76
     0
 77
     3
 78
     8
170
     0
171
     4
172
     1
173
     1
174
     0
175
     0
176
   256
177
   256
178
     2
  0
DIMSTYLE
  2
通常X1_10
 70
     0
  3

  4

  5

  6
OPEN
  7
OPEN
 40
1.0
 41
25.0
 42
5.0
 43
3.75
 44
7.5
 45
0.0
 46
0.0
 47
0.0
 48
0.000000001
140
30.0
141
2.5
142
0.0
143
0.0394
144
1.0
145
0.0
146
0.5
147
5.0
 71
     0
 72
     0
 73
     0
 74
     0
 75
     0
 76
     0
 77
     3
 78
     8
170
     0
171
     4
172
     1
173
     1
174
     0
175
     0
176
   256
177
   256
178
     2
  0
DIMSTYLE
  2
通常X1_10$3
 70
     0
  3

  4

  5

  6
OPEN
  7
OPEN
 40
1.0
 41
25.0
 42
5.0
 43
3.75
 44
7.5
 45
0.0
 46
0.0
 47
0.0
 48
0.000000001
140
30.0
141
2.5
142
0.0
143
0.0394
144
1.0
145
0.0
146
0.5
147
5.0
 71
     0
 72
     0
 73
     0
 74
     0
 75
     0
 76
     0
 77
     3
 78
     8
170
     0
171
     4
172
     1
173
     1
174
     0
175
     0
176
   256
177
   256
178
     2
  0
ENDTAB
  0
ENDSEC
  0
SECTION
  2
BLOCKS
  0
BLOCK
  8
0
  2
$MODEL_SPACE
 70
     0
 10
0.0
 20
0.0
 30
0.0
  3
$MODEL_SPACE
  1

  0
ENDBLK
  5
21
  8
0
  0
BLOCK
 67
     1
  8
0
  2
$PAPER_SPACE
 70
     0
 10
0.0
 20
0.0
 30
0.0
  3
$PAPER_SPACE
  1

  0
ENDBLK
  5
58
 67
     1
  8
0
  0
BLOCK
  8
0
  2
_OPEN
 70
     0
 10
0.0
 20
0.0
 30
0.0
  3
_OPEN
  1

  0
LINE
  5
87
  8
0
  6
BYBLOCK
 62
     0
 10
-1.0
 20
0.1666666666666666
 30
0.0
 11
0.0
 21
0.0
 31
0.0
  0
LINE
  5
88
  8
0
  6
BYBLOCK
 62
     0
 10
0.0
 20
0.0
 30
0.0
 11
-1.0
 21
-0.1666666666666666
 31
0.0
  0
LINE
  5
89
  8
0
  6
BYBLOCK
 62
     0
 10
0.0
 20
0.0
 30
0.0
 11
-1.0
 21
0.0
 31
0.0
  0
ENDBLK
  5
8B
  8
0
  0
BLOCK
  8
0
  2
A$C0C1533B0
 70
     0
 10
0.0
 20
0.0
 30
0.0
  3
A$C0C1533B0
  1

  0
LINE
  5
2C54
  8
0
 10
5.2469999999998427
 20
5.2469999999998427
 30
0.0
 11
0.0
 21
5.2469999999998427
 31
0.0
  0
LINE
  5
2C55
  8
0
 10
5.0984999999996026
 20
5.0984999999996026
 30
0.0
 11
0.1484999999997854
 21
5.0984999999996026
 31
0.0
  0
LINE
  5
2C56
  8
0
 10
3.415500000000065
 20
4.6529999999988831
 30
0.0
 11
3.11850000000004
 21
4.6529999999988831
 31
0.0
  0
LINE
  5
2C57
  8
0
 10
3.11850000000004
 20
4.6529999999988831
 30
0.0
 11
3.11850000000004
 21
3.266999999998915
 31
0.0
  0
LINE
  5
2C58
  8
0
 10
1.7325000000000721
 20
4.6529999999988831
 30
0.0
 11
1.7325000000000721
 21
3.266999999998915
 31
0.0
  0
LINE
  5
2C59
  8
0
 10
1.7325000000000721
 20
4.6529999999988831
 30
0.0
 11
1.336499999999887
 21
4.6529999999988831
 31
0.0
  0
LINE
  5
2C5A
  8
0
 10
2.0324722099007881
 20
1.0250351407994449
 30
0.0
 11
2.0390851008005479
 21
1.0150218869994201
 31
0.0
  0
LINE
  5
2C5B
  8
0
 10
2.1496148443002312
 20
0.9334853956993356
 30
0.0
 11
2.1694535159003858
 21
0.9221561139995628
 31
0.0
  0
LINE
  5
2C5C
  8
0
 10
2.0277487164003101
 20
1.03516283089948
 30
0.0
 11
2.0324722099007881
 21
1.0250351407994449
 31
0.0
  0
LINE
  5
2C5D
  8
0
 10
2.1694535159003858
 20
0.9221561139995628
 30
0.0
 11
2.1892921875009961
 21
0.9115134566995948
 31
0.0
  0
LINE
  5
2C5E
  8
0
 10
2.024914620300478
 20
1.045404958399331
 30
0.0
 11
2.0277487164003101
 21
1.03516283089948
 31
0.0
  0
LINE
  5
2C5F
  8
0
 10
2.1892921875009961
 20
0.9115134566995948
 30
0.0
 11
2.209130859099786
 21
0.9015574215995911
 31
0.0
  0
LINE
  5
2C60
  8
0
 10
2.0239699215999281
 20
1.0557615232992239
 30
0.0
 11
2.024914620300478
 21
1.045404958399331
 31
0.0
  0
LINE
  5
2C61
  8
0
 10
2.209130859099786
 20
0.9015574215995911
 30
0.0
 11
2.2293069238003218
 21
0.8904570157997113
 31
0.0
  0
LINE
  5
2C62
  8
0
 10
2.0245772283005858
 20
1.065202591199067
 30
0.0
 11
2.0239699215999281
 21
1.0557615232992239
 31
0.0
  0
LINE
  5
2C63
  8
0
 10
2.2293069238003218
 20
0.8904570157997113
 30
0.0
 11
2.2463789776998051
 21
0.8779833622995739
 31
0.0
  0
LINE
  5
2C64
  8
0
 10
2.0263991472997982
 20
1.0743003468994621
 30
0.0
 11
2.0245772283005858
 21
1.065202591199067
 31
0.0
  0
LINE
  5
2C65
  8
0
 10
2.2463789776998051
 20
0.8779833622995739
 30
0.0
 11
2.260347023000576
 21
0.8641364632994736
 31
0.0
  0
LINE
  5
2C66
  8
0
 10
2.0294356786002932
 20
1.0830547914995341
 30
0.0
 11
2.0263991472997982
 21
1.0743003468994621
 31
0.0
  0
LINE
  5
2C67
  8
0
 10
2.260347023000576
 20
0.8641364632994736
 30
0.0
 11
2.2712110574998401
 21
0.8489163187991835
 31
0.0
  0
LINE
  5
2C68
  8
0
 10
2.0336868222002522
 20
1.091465923899249
 30
0.0
 11
2.0294356786002932
 21
1.0830547914995341
 31
0.0
  0
LINE
  5
2C69
  8
0
 10
2.2712110574998401
 20
0.8489163187991835
 30
0.0
 11
2.2789710822999041
 21
0.8323229276991241
 31
0.0
  0
LINE
  5
2C6A
  8
0
 10
2.039152579200163
 20
1.099533745199551
 30
0.0
 11
2.0336868222002522
 21
1.091465923899249
 31
0.0
  0
LINE
  5
2C6B
  8
0
 10
2.2789710822999041
 20
0.8323229276991241
 30
0.0
 11
2.2836270963007328
 21
0.8143562899992957
 31
0.0
  0
LINE
  5
2C6C
  8
0
 10
2.0458329485004461
 20
1.1072582553993009
 30
0.0
 11
2.039152579200163
 21
1.099533745199551
 31
0.0
  0
LINE
  5
2C6D
  8
0
 10
2.2836270963007328
 20
0.8143562899992957
 30
0.0
 11
2.2851791017001228
 21
0.7950164067992774
 31
0.0
  0
LINE
  5
2C6E
  8
0
 10
2.0537279301006488
 20
1.1146394533993771
 30
0.0
 11
2.0458329485004461
 21
1.1072582553993009
 31
0.0
  0
LINE
  5
2C6F
  8
0
 10
2.2851791017001228
 20
0.7950164067992774
 30
0.0
 11
2.2841669245999578
 21
0.7755620850994092
 31
0.0
  0
LINE
  5
2C70
  8
0
 10
2.0605432561997068
 20
1.119846345199448
 30
0.0
 11
2.0537279301006488
 21
1.1146394533993771
 31
0.0
  0
LINE
  5
2C71
  8
0
 10
2.2841669245999578
 20
0.7755620850994092
 30
0.0
 11
2.2811303933003719
 21
0.7572521362992575
 31
0.0
  0
LINE
  5
2C72
  8
0
 10
2.067763452700091
 20
1.124252176299251
 30
0.0
 11
2.0605432561997068
 21
1.119846345199448
 31
0.0
  0
LINE
  5
2C73
  8
0
 10
2.2811303933003719
 20
0.7572521362992575
 30
0.0
 11
2.2760695078000022
 21
0.7400865592994707
 31
0.0
  0
LINE
  5
2C74
  8
0
 10
2.075388520700471
 20
1.127856947799045
 30
0.0
 11
2.067763452700091
 21
1.124252176299251
 31
0.0
  0
LINE
  5
2C75
  8
0
 10
2.2760695078000022
 20
0.7400865592994707
 30
0.0
 11
2.2689842670001781
 21
0.7240653540995936
 31
0.0
  0
LINE
  5
2C76
  8
0
 10
2.0834184591003568
 20
1.1306606585994809
 30
0.0
 11
2.075388520700471
 21
1.127856947799045
 31
0.0
  0
LINE
  5
2C77
  8
0
 10
2.2689842670001781
 20
0.7240653540995936
 30
0.0
 11
2.259874673100057
 21
0.709188520699172
 31
0.0
  0
LINE
  5
2C78
  8
0
 10
2.091853268999329
 20
1.1326633086991931
 30
0.0
 11
2.0834184591003568
 21
1.1306606585994809
 31
0.0
  0
LINE
  5
2C79
  8
0
 10
2.259874673100057
 20
0.709188520699172
 30
0.0
 11
2.2487407250000611
 21
0.6954560590995698
 31
0.0
  0
LINE
  5
2C7A
  8
0
 10
2.1006929493005368
 20
1.1338648991993521
 30
0.0
 11
2.091853268999329
 21
1.1326633086991931
 31
0.0
  0
LINE
  5
2C7B
  8
0
 10
2.2487407250000611
 20
0.6954560590995698
 30
0.0
 11
2.2355824216001561
 21
0.6828679681989343
 31
0.0
  0
LINE
  5
2C7C
  8
0
 10
2.1099374999998868
 20
1.1342654300992761
 30
0.0
 11
2.1006929493005368
 21
1.1338648991993521
 31
0.0
  0
LINE
  5
2C7D
  8
0
 10
2.2355824216001561
 20
0.6828679681989343
 30
0.0
 11
2.2216143774003281
 21
0.6724541856992801
 31
0.0
  0
LINE
  5
2C7E
  8
0
 10
2.1191820507006009
 20
1.1338648991993521
 30
0.0
 11
2.1099374999998868
 21
1.1342654300992761
 31
0.0
  0
LINE
  5
2C7F
  8
0
 10
2.2216143774003281
 20
0.6724541856992801
 30
0.0
 11
2.2061618061998161
 21
0.6636425223994138
 31
0.0
  0
LINE
  5
2C80
  8
0
 10
2.1280217310004441
 20
1.1326633086991931
 30
0.0
 11
2.1191820507006009
 21
1.1338648991993521
 31
0.0
  0
LINE
  5
2C81
  8
0
 10
2.2061618061998161
 20
0.6636425223994138
 30
0.0
 11
2.1892247091000172
 21
0.656432979399142
 31
0.0
  0
LINE
  5
2C82
  8
0
 10
2.1364565409003262
 20
1.1306606585994809
 30
0.0
 11
2.1280217310004441
 21
1.1326633086991931
 31
0.0
  0
LINE
  5
2C83
  8
0
 10
2.1892247091000172
 20
0.656432979399142
 30
0.0
 11
2.1708030849999882
 21
0.6508255577991804
 31
0.0
  0
LINE
  5
2C84
  8
0
 10
2.1444864793006668
 20
1.127856947799045
 30
0.0
 11
2.1364565409003262
 21
1.1306606585994809
 31
0.0
  0
LINE
  5
2C85
  8
0
 10
2.1708030849999882
 20
0.6508255577991804
 30
0.0
 11
2.1508969349997642
 21
0.6468202564994954
 31
0.0
  0
LINE
  5
2C86
  8
0
 10
2.1521115473001369
 20
1.124252176299251
 30
0.0
 11
2.1444864793006668
 21
1.127856947799045
 31
0.0
  0
LINE
  5
2C87
  8
0
 10
2.1508969349997642
 20
0.6468202564994954
 30
0.0
 11
2.1295062580002191
 21
0.6444170754994048
 31
0.0
  0
LINE
  5
2C88
  8
0
 10
2.159331743799612
 20
1.119846345199448
 30
0.0
 11
2.1521115473001369
 21
1.124252176299251
 31
0.0
  0
LINE
  5
2C89
  8
0
 10
2.1295062580002191
 20
0.6444170754994048
 30
0.0
 11
2.1066310551004781
 21
0.6436160158991698
 31
0.0
  0
LINE
  5
2C8A
  8
0
 10
2.1661470699009442
 20
1.1146394533993771
 30
0.0
 11
2.159331743799612
 21
1.119846345199448
 31
0.0
  0
LINE
  5
2C8B
  8
0
 10
2.1066310551004781
 20
0.6436160158991698
 30
0.0
 11
2.0847005497998898
 21
0.6443598567993832
 31
0.0
  0
LINE
  5
2C8C
  8
0
 10
2.1747843150005788
 20
1.1062283198991729
 30
0.0
 11
2.1661470699009442
 21
1.1146394533993771
 31
0.0
  0
LINE
  5
2C8D
  8
0
 10
2.0847005497998898
 20
0.6443598567993832
 30
0.0
 11
2.064254571499986
 21
0.6465913827996701
 31
0.0
  0
LINE
  5
2C8E
  8
0
 10
2.1818020763007548
 20
1.0970161267991889
 30
0.0
 11
2.1747843150005788
 21
1.1062283198991729
 31
0.0
  0
LINE
  5
2C8F
  8
0
 10
2.064254571499986
 20
0.6465913827996701
 30
0.0
 11
2.0452931201998581
 21
0.650310590599247
 31
0.0
  0
LINE
  5
2C90
  8
0
 10
2.1872003549001411
 20
1.0870028740991979
 30
0.0
 11
2.1818020763007548
 21
1.0970161267991889
 31
0.0
  0
LINE
  5
2C91
  8
0
 10
2.0452931201998581
 20
0.650310590599247
 30
0.0
 11
2.0278161947999251
 21
0.6555174823993184
 31
0.0
  0
LINE
  5
2C92
  8
0
 10
2.1909791497000688
 20
1.0761885606989381
 30
0.0
 11
2.1872003549001411
 21
1.0870028740991979
 31
0.0
  0
LINE
  5
2C93
  8
0
 10
2.0278161947999251
 20
0.6555174823993184
 30
0.0
 11
2.0118237963997672
 21
0.6622120570993957
 31
0.0
  0
LINE
  5
2C94
  8
0
 10
2.193138460700538
 20
1.0645731865990911
 30
0.0
 11
2.1909791497000688
 21
1.0761885606989381
 31
0.0
  0
LINE
  5
2C95
  8
0
 10
2.0118237963997672
 20
0.6622120570993957
 30
0.0
 11
1.9973159238998051
 21
0.6703943157995127
 31
0.0
  0
LINE
  5
2C96
  8
0
 10
2.193678287900183
 20
1.052156751799429
 30
0.0
 11
2.193138460700538
 21
1.0645731865990911
 31
0.0
  0
LINE
  5
2C97
  8
0
 10
1.9973159238998051
 20
0.6703943157995127
 30
0.0
 11
1.984292578400527
 21
0.6800642573994084
 31
0.0
  0
LINE
  5
2C98
  8
0
 10
2.1925986323999491
 20
1.038939257398851
 30
0.0
 11
2.193678287900183
 21
1.052156751799429
 31
0.0
  0
LINE
  5
2C99
  8
0
 10
1.984292578400527
 20
0.6800642573994084
 30
0.0
 11
1.970257054700596
 21
0.6932245330992828
 31
0.0
  0
LINE
  5
2C9A
  8
0
 10
2.2686468749998312
 20
1.038939257398851
 30
0.0
 11
2.1925986323999491
 21
1.038939257398851
 31
0.0
  0
LINE
  5
2C9B
  8
0
 10
1.970257054700596
 20
0.6932245330992828
 30
0.0
 11
1.9583808431002581
 21
0.707071432099383
 31
0.0
  0
LINE
  5
2C9C
  8
0
 10
2.2685119182001472
 20
1.0598812619996349
 30
0.0
 11
2.2686468749998312
 21
1.038939257398851
 31
0.0
  0
LINE
  5
2C9D
  8
0
 10
1.9583808431002581
 20
0.707071432099383
 30
0.0
 11
1.948663942499933
 21
0.7216049543994814
 31
0.0
  0
LINE
  5
2C9E
  8
0
 10
2.2662176504004492
 20
1.0794500199992849
 30
0.0
 11
2.2685119182001472
 21
1.0598812619996349
 31
0.0
  0
LINE
  5
2C9F
  8
0
 10
1.948663942499933
 20
0.7216049543994814
 30
0.0
 11
1.9411063540001121
 21
0.7368250999993508
 31
0.0
  0
LINE
  5
2CA0
  8
0
 10
2.2617640705002482
 20
1.097645531399166
 30
0.0
 11
2.2662176504004492
 21
1.0794500199992849
 31
0.0
  0
LINE
  5
2CA1
  8
0
 10
1.9411063540001121
 20
0.7368250999993508
 30
0.0
 11
1.935708075400725
 21
0.7527318677994117
 31
0.0
  0
LINE
  5
2CA2
  8
0
 10
2.2551511796004879
 20
1.114467797299312
 30
0.0
 11
2.2617640705002482
 21
1.097645531399166
 31
0.0
  0
LINE
  5
2CA3
  8
0
 10
1.935708075400725
 20
0.7527318677994117
 30
0.0
 11
1.9324691088995669
 21
0.7693252588992438
 31
0.0
  0
LINE
  5
2CA4
  8
0
 10
2.2463789776998051
 20
1.1299168165992339
 30
0.0
 11
2.2551511796004879
 21
1.114467797299312
 31
0.0
  0
LINE
  5
2CA5
  8
0
 10
1.9324691088995669
 20
0.7693252588992438
 30
0.0
 11
1.931389453400697
 21
0.7866052732993012
 31
0.0
  0
LINE
  5
2CA6
  8
0
 10
2.2354474648000169
 20
1.143992590399193
 30
0.0
 11
2.2463789776998051
 21
1.1299168165992339
 31
0.0
  0
LINE
  5
2CA7
  8
0
 10
1.931389453400697
 20
0.7866052732993012
 30
0.0
 11
1.931389453400697
 21
0.81464238239937
 31
0.0
  0
LINE
  5
2CA8
  8
0
 10
2.222356640900216
 20
1.1566951175993829
 30
0.0
 11
2.2354474648000169
 21
1.143992590399193
 31
0.0
  0
LINE
  5
2CA9
  8
0
 10
1.931389453400697
 20
0.81464238239937
 30
0.0
 11
2.0074376948996351
 21
0.81464238239937
 31
0.0
  0
LINE
  5
2CAA
  8
0
 10
2.21034547140016
 20
1.165621217199259
 30
0.0
 11
2.222356640900216
 21
1.1566951175993829
 31
0.0
  0
LINE
  5
2CAB
  8
0
 10
2.0074376948996351
 20
0.81464238239937
 30
0.0
 11
2.0074376948996351
 21
0.789408984099282
 31
0.0
  0
LINE
  5
2CAC
  8
0
 10
2.1969847339000799
 20
1.173174071299399
 30
0.0
 11
2.21034547140016
 21
1.165621217199259
 31
0.0
  0
LINE
  5
2CAD
  8
0
 10
2.0074376948996351
 20
0.789408984099282
 30
0.0
 11
2.0079775232006791
 21
0.7770497690994489
 31
0.0
  0
LINE
  5
2CAE
  8
0
 10
2.1822744262003648
 20
1.1793536787995429
 30
0.0
 11
2.1969847339000799
 21
1.173174071299399
 31
0.0
  0
LINE
  5
2CAF
  8
0
 10
2.0079775232006791
 20
0.7770497690994489
 30
0.0
 11
2.0095970069996829
 21
0.765606051099212
 31
0.0
  0
LINE
  5
2CB0
  8
0
 10
2.1662145483005579
 20
1.184160040799497
 30
0.0
 11
2.1822744262003648
 21
1.1793536787995429
 31
0.0
  0
LINE
  5
2CB1
  8
0
 10
2.0095970069996829
 20
0.765606051099212
 30
0.0
 11
2.012296145199798
 21
0.7550778300992534
 31
0.0
  0
LINE
  5
2CB2
  8
0
 10
2.1488051023998191
 20
1.1875931561990001
 30
0.0
 11
2.1662145483005579
 21
1.184160040799497
 31
0.0
  0
LINE
  5
2CB3
  8
0
 10
2.012296145199798
 20
0.7550778300992534
 30
0.0
 11
2.0160749400001801
 21
0.7454651071996068
 31
0.0
  0
LINE
  5
2CB4
  8
0
 10
2.1300460862994441
 20
1.1896530249991879
 30
0.0
 11
2.1488051023998191
 21
1.1875931561990001
 31
0.0
  0
LINE
  5
2CB5
  8
0
 10
2.0160749400001801
 20
0.7454651071996068
 30
0.0
 11
2.0209333903003421
 21
0.7367678812993291
 31
0.0
  0
LINE
  5
2CB6
  8
0
 10
2.1099374999998868
 20
1.1903396482994131
 30
0.0
 11
2.1300460862994441
 21
1.1896530249991879
 31
0.0
  0
LINE
  5
2CB7
  8
0
 10
2.0209333903003421
 20
0.7367678812993291
 30
0.0
 11
2.0268714961002838
 21
0.7289861523991023
 31
0.0
  0
LINE
  5
2CB8
  8
0
 10
2.093135359700681
 20
1.1895385886991781
 30
0.0
 11
2.1099374999998868
 21
1.1903396482994131
 31
0.0
  0
LINE
  5
2CB9
  8
0
 10
2.0268714961002838
 20
0.7289861523991023
 30
0.0
 11
2.0338892574004599
 21
0.7221199215994149
 31
0.0
  0
LINE
  5
2CBA
  8
0
 10
2.076738089799619
 20
1.187135407699315
 30
0.0
 11
2.093135359700681
 21
1.1895385886991781
 31
0.0
  0
LINE
  5
2CBB
  8
0
 10
2.0338892574004599
 20
0.7221199215994149
 30
0.0
 11
2.0417167606001381
 21
0.7161691888993574
 31
0.0
  0
LINE
  5
2CBC
  8
0
 10
2.0607456914003701
 20
1.1831301063994031
 30
0.0
 11
2.076738089799619
 21
1.187135407699315
 31
0.0
  0
LINE
  5
2CBD
  8
0
 10
2.0417167606001381
 20
0.7161691888993574
 30
0.0
 11
2.050084092099496
 21
0.7111339520995444
 31
0.0
  0
LINE
  5
2CBE
  8
0
 10
2.0451581633997189
 20
1.1775226836991799
 30
0.0
 11
2.0607456914003701
 21
1.1831301063994031
 31
0.0
  0
LINE
  5
2CBF
  8
0
 10
2.050084092099496
 20
0.7111339520995444
 30
0.0
 11
2.0589912508003181
 21
0.7070142144991678
 31
0.0
  0
LINE
  5
2CC0
  8
0
 10
2.0299755057999391
 20
1.170313141799169
 30
0.0
 11
2.0451581633997189
 21
1.1775226836991799
 31
0.0
  0
LINE
  5
2CC1
  8
0
 10
2.0589912508003181
 20
0.7070142144991678
 30
0.0
 11
2.0684382377994548
 21
0.7038099727990357
 31
0.0
  0
LINE
  5
2CC2
  8
0
 10
2.0151977197001538
 20
1.161501478499303
 30
0.0
 11
2.0299755057999391
 21
1.170313141799169
 31
0.0
  0
LINE
  5
2CC3
  8
0
 10
2.0684382377994548
 20
0.7038099727990357
 30
0.0
 11
2.078425052000056
 21
0.7015212291994432
 31
0.0
  0
LINE
  5
2CC4
  8
0
 10
2.00082480509991
 20
1.15108769489916
 30
0.0
 11
2.0151977197001538
 21
1.161501478499303
 31
0.0
  0
LINE
  5
2CC5
  8
0
 10
2.078425052000056
 20
0.7015212291994432
 30
0.0
 11
2.088951694500337
 21
0.7001479825992192
 31
0.0
  0
LINE
  5
2CC6
  8
0
 10
1.9868567598000479
 20
1.138671261199306
 30
0.0
 11
2.00082480509991
 21
1.15108769489916
 31
0.0
  0
LINE
  5
2CC7
  8
0
 10
2.088951694500337
 20
0.7001479825992192
 30
0.0
 11
2.100018164200264
 21
0.6996902340993075
 31
0.0
  0
LINE
  5
2CC8
  8
0
 10
1.975182983400827
 20
1.125453766799182
 30
0.0
 11
1.9868567598000479
 21
1.138671261199306
 31
0.0
  0
LINE
  5
2CC9
  8
0
 10
2.100018164200264
 20
0.6996902340993075
 30
0.0
 11
2.1145935151007502
 21
0.7001479825992192
 31
0.0
  0
LINE
  5
2CCA
  8
0
 10
1.965803475900429
 20
1.1114352116992441
 30
0.0
 11
1.975182983400827
 21
1.125453766799182
 31
0.0
  0
LINE
  5
2CCB
  8
0
 10
2.1145935151007502
 20
0.7001479825992192
 30
0.0
 11
2.128089210500093
 21
0.7015212291994432
 31
0.0
  0
LINE
  5
2CCC
  8
0
 10
1.958718236200184
 20
1.096615596999527
 30
0.0
 11
1.965803475900429
 21
1.1114352116992441
 31
0.0
  0
LINE
  5
2CCD
  8
0
 10
2.128089210500093
 20
0.7015212291994432
 30
0.0
 11
2.140505249300531
 21
0.7038099727990357
 31
0.0
  0
LINE
  5
2CCE
  8
0
 10
1.9539272643005461
 20
1.08099492159954
 30
0.0
 11
1.958718236200184
 21
1.096615596999527
 31
0.0
  0
LINE
  5
2CCF
  8
0
 10
2.140505249300531
 20
0.7038099727990357
 30
0.0
 11
2.1518416337003141
 21
0.7070142144991678
 31
0.0
  0
LINE
  5
2CD0
  8
0
 10
1.951430560199696
 20
1.0645731865990911
 30
0.0
 11
1.9539272643005461
 21
1.08099492159954
 31
0.0
  0
LINE
  5
2CD1
  8
0
 10
2.1518416337003141
 20
0.7070142144991678
 30
0.0
 11
2.1620983615002838
 21
0.7111339520995444
 31
0.0
  0
LINE
  5
2CD2
  8
0
 10
1.951228124999943
 20
1.047350390899509
 30
0.0
 11
1.951430560199696
 21
1.0645731865990911
 31
0.0
  0
LINE
  5
2CD3
  8
0
 10
2.1620983615002838
 20
0.7111339520995444
 30
0.0
 11
2.1712754349000529
 21
0.7161691888993574
 31
0.0
  0
LINE
  5
2CD4
  8
0
 10
1.9531850007997491
 20
1.0302420314994829
 30
0.0
 11
1.951228124999943
 21
1.047350390899509
 31
0.0
  0
LINE
  5
2CD5
  8
0
 10
2.1712754349000529
 20
0.7161691888993574
 30
0.0
 11
2.1793728517004629
 21
0.7221199215994149
 31
0.0
  0
LINE
  5
2CD6
  8
0
 10
1.9571662307998841
 20
1.01416360759913
 30
0.0
 11
1.9531850007997491
 21
1.0302420314994829
 31
0.0
  0
LINE
  5
2CD7
  8
0
 10
2.1793728517004629
 20
0.7221199215994149
 30
0.0
 11
2.1872678333002109
 21
0.7296155569995335
 31
0.0
  0
LINE
  5
2CD8
  8
0
 10
1.9631718150003501
 20
0.9991151191993594
 30
0.0
 11
1.9571662307998841
 21
1.01416360759913
 31
0.0
  0
LINE
  5
2CD9
  8
0
 10
2.1872678333002109
 20
0.7296155569995335
 30
0.0
 11
2.1939482025995849
 21
0.7376833782993799
 31
0.0
  0
LINE
  5
2CDA
  8
0
 10
1.9712017534002371
 20
0.9850965640996491
 30
0.0
 11
1.9631718150003501
 21
0.9991151191993594
 31
0.0
  0
LINE
  5
2CDB
  8
0
 10
2.1939482025995849
 20
0.7376833782993799
 30
0.0
 11
2.1994139584994619
 21
0.7463233854996361
 31
0.0
  0
LINE
  5
2CDC
  8
0
 10
1.981256047100032
 20
0.9721079444993847
 30
0.0
 11
1.9712017534002371
 21
0.9850965640996491
 31
0.0
  0
LINE
  5
2CDD
  8
0
 10
2.1994139584994619
 20
0.7463233854996361
 30
0.0
 11
2.203665103199909
 21
0.7555355785993925
 31
0.0
  0
LINE
  5
2CDE
  8
0
 10
1.993334693900578
 20
0.9601492581991806
 30
0.0
 11
1.981256047100032
 21
0.9721079444993847
 31
0.0
  0
LINE
  5
2CDF
  8
0
 10
2.203665103199909
 20
0.7555355785993925
 30
0.0
 11
2.206701634500404
 21
0.7653199575995587
 31
0.0
  0
LINE
  5
2CE0
  8
0
 10
2.0074376948996351
 20
0.9492205073993318
 30
0.0
 11
1.993334693900578
 21
0.9601492581991806
 31
0.0
  0
LINE
  5
2CE1
  8
0
 10
2.206701634500404
 20
0.7653199575995587
 30
0.0
 11
2.2085235535005259
 21
0.7756765224989977
 31
0.0
  0
LINE
  5
2CE2
  8
0
 10
2.0284235015005829
 20
0.9349158598993199
 30
0.0
 11
2.0074376948996351
 21
0.9492205073993318
 31
0.0
  0
LINE
  5
2CE3
  8
0
 10
2.2085235535005259
 20
0.7756765224989977
 30
0.0
 11
2.209130859099786
 21
0.7866052732993012
 31
0.0
  0
LINE
  5
2CE4
  8
0
 10
2.049814178500128
 20
0.9208400871993944
 30
0.0
 11
2.0284235015005829
 21
0.9349158598993199
 31
0.0
  0
LINE
  5
2CE5
  8
0
 10
2.209130859099786
 20
0.7866052732993012
 30
0.0
 11
2.208186160400146
 21
0.79827786609917
 31
0.0
  0
LINE
  5
2CE6
  8
0
 10
2.0716097259000881
 20
0.9069931881995216
 30
0.0
 11
2.049814178500128
 21
0.9208400871993944
 31
0.0
  0
LINE
  5
2CE7
  8
0
 10
2.208186160400146
 20
0.79827786609917
 30
0.0
 11
2.2053520643007678
 21
0.8092638355990403
 31
0.0
  0
LINE
  5
2CE8
  8
0
 10
2.0938101448000448
 20
0.8933751628992467
 30
0.0
 11
2.0716097259000881
 21
0.9069931881995216
 31
0.0
  0
LINE
  5
2CE9
  8
0
 10
2.2053520643007678
 20
0.8092638355990403
 30
0.0
 11
2.2006285719007792
 21
0.8195631817993671
 31
0.0
  0
LINE
  5
2CEA
  8
0
 10
2.1164154341004169
 20
0.8799860134990922
 30
0.0
 11
2.0938101448000448
 21
0.8933751628992467
 31
0.0
  0
LINE
  5
2CEB
  8
0
 10
2.2006285719007792
 20
0.8195631817993671
 30
0.0
 11
2.1940156810005642
 21
0.829175904699241
 31
0.0
  0
LINE
  5
2CEC
  8
0
 10
2.1394255938002971
 20
0.8668257377989903
 30
0.0
 11
2.1164154341004169
 21
0.8799860134990922
 31
0.0
  0
LINE
  5
2CED
  8
0
 10
2.1940156810005642
 20
0.829175904699241
 30
0.0
 11
2.185513392700158
 21
0.8381020053993779
 31
0.0
  0
LINE
  5
2CEE
  8
0
 10
2.1628406250001708
 20
0.8538943357993957
 30
0.0
 11
2.1394255938002971
 21
0.8668257377989903
 31
0.0
  0
LINE
  5
2CEF
  8
0
 10
2.185513392700158
 20
0.8381020053993779
 30
0.0
 11
2.1751217081005052
 21
0.8463414816992553
 31
0.0
  0
LINE
  5
2CF0
  8
0
 10
2.1751217081005052
 20
0.8463414816992553
 30
0.0
 11
2.1628406250001708
 21
0.8538943357993957
 31
0.0
  0
LINE
  5
2CF1
  8
0
 10
3.0489486324004238
 20
1.1717436059993811
 30
0.0
 11
3.0626467629999752
 21
1.1635613483990701
 31
0.0
  0
LINE
  5
2CF2
  8
0
 10
3.0343058031003229
 20
1.1784381817988101
 30
0.0
 11
3.0489486324004238
 21
1.1717436059993811
 31
0.0
  0
LINE
  5
2CF3
  8
0
 10
3.0626467629999752
 20
1.1635613483990701
 30
0.0
 11
3.0754001948998839
 21
1.1538914056993681
 31
0.0
  0
LINE
  5
2CF4
  8
0
 10
3.0187182762006151
 20
1.183645073599336
 30
0.0
 11
3.0343058031003229
 21
1.1784381817988101
 31
0.0
  0
LINE
  5
2CF5
  8
0
 10
3.0754001948998839
 20
1.1538914056993681
 30
0.0
 11
3.0946990393008491
 21
1.133979336599622
 31
0.0
  0
LINE
  5
2CF6
  8
0
 10
3.0021860494998691
 20
1.187364281399595
 30
0.0
 11
3.0187182762006151
 21
1.183645073599336
 31
0.0
  0
LINE
  5
2CF7
  8
0
 10
3.0946990393008491
 20
1.133979336599622
 30
0.0
 11
3.1110288308000231
 21
1.109489780299554
 31
0.0
  0
LINE
  5
2CF8
  8
0
 10
2.9847091241008452
 20
1.1895958062993941
 30
0.0
 11
3.0021860494998691
 21
1.187364281399595
 31
0.0
  0
LINE
  5
2CF9
  8
0
 10
3.1110288308000231
 20
1.109489780299554
 30
0.0
 11
3.1243895683001019
 21
1.080422735699357
 31
0.0
  0
LINE
  5
2CFA
  8
0
 10
2.9662875000003619
 20
1.1903396482994131
 30
0.0
 11
2.9847091241008452
 21
1.1895958062993941
 31
0.0
  0
LINE
  5
2CFB
  8
0
 10
3.1243895683001019
 20
1.080422735699357
 30
0.0
 11
3.1347812540002451
 21
1.0467782049993271
 31
0.0
  0
LINE
  5
2CFC
  8
0
 10
2.9469886555998519
 20
1.1895958062993941
 30
0.0
 11
2.9662875000003619
 21
1.1903396482994131
 31
0.0
  0
LINE
  5
2CFD
  8
0
 10
3.1347812540002451
 20
1.0467782049993271
 30
0.0
 11
3.1422038868004161
 21
1.0085561859991681
 31
0.0
  0
LINE
  5
2CFE
  8
0
 10
2.9287694678005201
 20
1.187364281399595
 30
0.0
 11
2.9469886555998519
 21
1.1895958062993941
 31
0.0
  0
LINE
  5
2CFF
  8
0
 10
3.1422038868004161
 20
1.0085561859991681
 30
0.0
 11
3.1466574656005828
 21
0.9657566808996307
 31
0.0
  0
LINE
  5
2D00
  8
0
 10
2.911629934400934
 20
1.183645073599336
 30
0.0
 11
2.9287694678005201
 21
1.187364281399595
 31
0.0
  0
LINE
  5
2D01
  8
0
 10
3.1466574656005828
 20
0.9657566808996307
 30
0.0
 11
3.148141992599903
 21
0.9183796874990549
 31
0.0
  0
LINE
  5
2D02
  8
0
 10
2.895570057599798
 20
1.1784381817988101
 30
0.0
 11
2.911629934400934
 21
1.183645073599336
 31
0.0
  0
LINE
  5
2D03
  8
0
 10
3.148141992599903
 20
0.9183796874990549
 30
0.0
 11
3.1466574656005828
 21
0.8702588531996298
 31
0.0
  0
LINE
  5
2D04
  8
0
 10
2.8805898363002589
 20
1.1717436059993811
 30
0.0
 11
2.895570057599798
 21
1.1784381817988101
 31
0.0
  0
LINE
  5
2D05
  8
0
 10
3.1466574656005828
 20
0.8702588531996298
 30
0.0
 11
3.1422038868004161
 21
0.8268299423993994
 31
0.0
  0
LINE
  5
2D06
  8
0
 10
2.8666892694009221
 20
1.1635613483990701
 30
0.0
 11
2.8805898363002589
 21
1.1717436059993811
 31
0.0
  0
LINE
  5
2D07
  8
0
 10
3.1422038868004161
 20
0.8268299423993994
 30
0.0
 11
3.1347812540002451
 21
0.788092957299341
 31
0.0
  0
LINE
  5
2D08
  8
0
 10
2.8538683591004879
 20
1.1538914056993681
 30
0.0
 11
2.8666892694009221
 21
1.1635613483990701
 31
0.0
  0
LINE
  5
2D09
  8
0
 10
3.1347812540002451
 20
0.788092957299341
 30
0.0
 11
3.1243895683001019
 21
0.7540478956993866
 31
0.0
  0
LINE
  5
2D0A
  8
0
 10
2.8345695158004669
 20
1.133979336599622
 30
0.0
 11
2.8538683591004879
 21
1.1538914056993681
 31
0.0
  0
LINE
  5
2D0B
  8
0
 10
3.1243895683001019
 20
0.7540478956993866
 30
0.0
 11
3.1110288308000231
 21
0.7246947586991155
 31
0.0
  0
LINE
  5
2D0C
  8
0
 10
2.8182397242999282
 20
1.109489780299554
 30
0.0
 11
2.8345695158004669
 21
1.133979336599622
 31
0.0
  0
LINE
  5
2D0D
  8
0
 10
3.1110288308000231
 20
0.7246947586991155
 30
0.0
 11
3.0946990393008491
 21
0.7000335462992098
 31
0.0
  0
LINE
  5
2D0E
  8
0
 10
2.8048789857002698
 20
1.080422735699357
 30
0.0
 11
2.8182397242999282
 21
1.109489780299554
 31
0.0
  0
LINE
  5
2D0F
  8
0
 10
3.0946990393008491
 20
0.7000335462992098
 30
0.0
 11
3.0754001948998839
 21
0.6800642573994084
 31
0.0
  0
LINE
  5
2D10
  8
0
 10
2.794487301100161
 20
1.0467782049993271
 30
0.0
 11
2.8048789857002698
 21
1.080422735699357
 31
0.0
  0
LINE
  5
2D11
  8
0
 10
3.0754001948998839
 20
0.6800642573994084
 30
0.0
 11
3.0626467629999752
 21
0.6703943157995127
 31
0.0
  0
LINE
  5
2D12
  8
0
 10
2.7870646682995348
 20
1.0085561859991681
 30
0.0
 11
2.794487301100161
 21
1.0467782049993271
 31
0.0
  0
LINE
  5
2D13
  8
0
 10
3.0626467629999752
 20
0.6703943157995127
 30
0.0
 11
3.0489486324004238
 21
0.6622120570993957
 31
0.0
  0
LINE
  5
2D14
  8
0
 10
2.7826110894993681
 20
0.9657566808996307
 30
0.0
 11
2.7870646682995348
 21
1.0085561859991681
 31
0.0
  0
LINE
  5
2D15
  8
0
 10
3.0489486324004238
 20
0.6622120570993957
 30
0.0
 11
3.0343058031003229
 21
0.6555174823993184
 31
0.0
  0
LINE
  5
2D16
  8
0
 10
2.7811265625000479
 20
0.9183796874990549
 30
0.0
 11
2.7826110894993681
 21
0.9657566808996307
 31
0.0
  0
LINE
  5
2D17
  8
0
 10
3.0343058031003229
 20
0.6555174823993184
 30
0.0
 11
3.0187182762006151
 21
0.650310590599247
 31
0.0
  0
LINE
  5
2D18
  8
0
 10
2.7826110894993681
 20
0.8702588531996298
 30
0.0
 11
2.7811265625000479
 21
0.9183796874990549
 31
0.0
  0
LINE
  5
2D19
  8
0
 10
3.0187182762006151
 20
0.650310590599247
 30
0.0
 11
3.0021860494998691
 21
0.6465913827996701
 31
0.0
  0
LINE
  5
2D1A
  8
0
 10
2.7870646682995348
 20
0.8268299423993994
 30
0.0
 11
2.7826110894993681
 21
0.8702588531996298
 31
0.0
  0
LINE
  5
2D1B
  8
0
 10
3.0021860494998691
 20
0.6465913827996701
 30
0.0
 11
2.9847091241008452
 21
0.6443598567993832
 31
0.0
  0
LINE
  5
2D1C
  8
0
 10
2.794487301100161
 20
0.788092957299341
 30
0.0
 11
2.7870646682995348
 21
0.8268299423993994
 31
0.0
  0
LINE
  5
2D1D
  8
0
 10
2.9847091241008452
 20
0.6443598567993832
 30
0.0
 11
2.9662875000003619
 21
0.6436160158991698
 31
0.0
  0
LINE
  5
2D1E
  8
0
 10
2.8048789857002698
 20
0.7540478956993866
 30
0.0
 11
2.794487301100161
 21
0.788092957299341
 31
0.0
  0
LINE
  5
2D1F
  8
0
 10
2.9662875000003619
 20
0.6436160158991698
 30
0.0
 11
2.9469886555998519
 21
0.6443598567993832
 31
0.0
  0
LINE
  5
2D20
  8
0
 10
2.8182397242999282
 20
0.7246947586991155
 30
0.0
 11
2.8048789857002698
 21
0.7540478956993866
 31
0.0
  0
LINE
  5
2D21
  8
0
 10
2.9469886555998519
 20
0.6443598567993832
 30
0.0
 11
2.9287694678005201
 21
0.6465913827996701
 31
0.0
  0
LINE
  5
2D22
  8
0
 10
2.8345695158004669
 20
0.7000335462992098
 30
0.0
 11
2.8182397242999282
 21
0.7246947586991155
 31
0.0
  0
LINE
  5
2D23
  8
0
 10
2.9287694678005201
 20
0.6465913827996701
 30
0.0
 11
2.911629934400934
 21
0.650310590599247
 31
0.0
  0
LINE
  5
2D24
  8
0
 10
2.8538683591004879
 20
0.6800642573994084
 30
0.0
 11
2.8345695158004669
 21
0.7000335462992098
 31
0.0
  0
LINE
  5
2D25
  8
0
 10
2.911629934400934
 20
0.650310590599247
 30
0.0
 11
2.895570057599798
 21
0.6555174823993184
 31
0.0
  0
LINE
  5
2D26
  8
0
 10
2.8666892694009221
 20
0.6703943157995127
 30
0.0
 11
2.8538683591004879
 21
0.6800642573994084
 31
0.0
  0
LINE
  5
2D27
  8
0
 10
2.895570057599798
 20
0.6555174823993184
 30
0.0
 11
2.8805898363002589
 21
0.6622120570993957
 31
0.0
  0
LINE
  5
2D28
  8
0
 10
2.8805898363002589
 20
0.6622120570993957
 30
0.0
 11
2.8666892694009221
 21
0.6703943157995127
 31
0.0
  0
LINE
  5
2D29
  8
0
 10
3.8557019534000569
 20
1.1903396482994131
 30
0.0
 11
4.0210242182001821
 21
0.6436160158991698
 31
0.0
  0
LINE
  5
2D2A
  8
0
 10
3.7895730466002528
 20
1.1903396482994131
 30
0.0
 11
3.8557019534000569
 21
1.1903396482994131
 31
0.0
  0
LINE
  5
2D2B
  8
0
 10
4.0210242182001821
 20
0.6436160158991698
 30
0.0
 11
3.9416695318004709
 21
0.6436160158991698
 31
0.0
  0
LINE
  5
2D2C
  8
0
 10
3.6242507807005491
 20
0.6436160158991698
 30
0.0
 11
3.7895730466002528
 21
1.1903396482994131
 31
0.0
  0
LINE
  5
2D2D
  8
0
 10
3.9416695318004709
 20
0.6436160158991698
 30
0.0
 11
3.8953792965999119
 21
0.8034275391992196
 31
0.0
  0
LINE
  5
2D2E
  8
0
 10
3.7036054682002941
 20
0.6436160158991698
 30
0.0
 11
3.6242507807005491
 21
0.6436160158991698
 31
0.0
  0
LINE
  5
2D2F
  8
0
 10
3.8953792965999119
 20
0.8034275391992196
 30
0.0
 11
3.749895703400397
 21
0.8034275391992196
 31
0.0
  0
LINE
  5
2D30
  8
0
 10
3.749895703400397
 20
0.8034275391992196
 30
0.0
 11
3.7036054682002941
 21
0.6436160158991698
 31
0.0
  0
LINE
  5
2D31
  8
0
 10
3.8193310551005188
 20
1.0417429692993201
 30
0.0
 11
3.7664279300997801
 21
0.8566980465993765
 31
0.0
  0
LINE
  5
2D32
  8
0
 10
3.7664279300997801
 20
0.8566980465993765
 30
0.0
 11
3.8788470699005302
 21
0.8566980465993765
 31
0.0
  0
LINE
  5
2D33
  8
0
 10
3.8259439449007
 20
1.0417429692993201
 30
0.0
 11
3.8193310551005188
 21
1.0417429692993201
 31
0.0
  0
LINE
  5
2D34
  8
0
 10
3.8788470699005302
 20
0.8566980465993765
 30
0.0
 11
3.8259439449007
 21
1.0417429692993201
 31
0.0
  0
LINE
  5
2D35
  8
0
 10
0.0
 20
0.0
 30
0.0
 11
5.2469999999998427
 21
0.0
 31
0.0
  0
LINE
  5
2D36
  8
0
 10
0.1484999999997854
 20
0.1484999999997854
 30
0.0
 11
5.0984999999996026
 21
0.1484999999997854
 31
0.0
  0
LINE
  5
2D37
  8
0
 10
3.415500000000065
 20
2.276999999999588
 30
0.0
 11
3.11850000000004
 21
2.276999999999588
 31
0.0
  0
LINE
  5
2D38
  8
0
 10
3.11850000000004
 20
2.5599985850992648
 30
0.0
 11
3.11850000000004
 21
2.276999999999588
 31
0.0
  0
ARC
  5
2D39
  8
0
 10
2.4255000000002829
 20
3.266999999998915
 30
0.0
 40
0.9899999999999987
 50
225.57299599901029
 51
314.42700398160042
  0
LINE
  5
2D3A
  8
0
 10
1.7324999999982531
 20
2.5599985855756131
 30
0.0
 11
1.7325000000000721
 21
0.6434999999992215
 31
0.0
  0
LINE
  5
2D3B
  8
0
 10
1.7325000000000721
 20
0.6434999999992215
 30
0.0
 11
1.336499999999887
 21
0.6434999999992215
 31
0.0
  0
LINE
  5
2D3C
  8
0
 10
3.592849218199262
 20
1.1903396482994131
 30
0.0
 11
3.5201074216006409
 21
0.6436160158991698
 31
0.0
  0
LINE
  5
2D3D
  8
0
 10
3.5267203125004012
 20
1.1903396482994131
 30
0.0
 11
3.592849218199262
 21
1.1903396482994131
 31
0.0
  0
LINE
  5
2D3E
  8
0
 10
3.5201074216006409
 20
0.6436160158991698
 30
0.0
 11
3.4539785158999621
 21
0.6436160158991698
 31
0.0
  0
LINE
  5
2D3F
  8
0
 10
3.4837365233001938
 20
0.8398757817990372
 30
0.0
 11
3.5267203125004012
 21
1.1903396482994131
 31
0.0
  0
LINE
  5
2D40
  8
0
 10
3.4539785158999621
 20
0.6436160158991698
 30
0.0
 11
3.3944625000003721
 21
1.052957812499244
 31
0.0
  0
LINE
  5
2D41
  8
0
 10
3.4771236323999801
 20
0.8398757817990372
 30
0.0
 11
3.4837365233001938
 21
0.8398757817990372
 31
0.0
  0
LINE
  5
2D42
  8
0
 10
3.3944625000003721
 20
1.052957812499244
 30
0.0
 11
3.3878496091001571
 21
1.052957812499244
 31
0.0
  0
LINE
  5
2D43
  8
0
 10
3.4275269534009558
 20
1.1903396482994131
 30
0.0
 11
3.4771236323999801
 21
0.8398757817990372
 31
0.0
  0
LINE
  5
2D44
  8
0
 10
3.3878496091001571
 20
1.052957812499244
 30
0.0
 11
3.3283335932001128
 21
0.6436160158991698
 31
0.0
  0
LINE
  5
2D45
  8
0
 10
3.3547851556995729
 20
1.1903396482994131
 30
0.0
 11
3.4275269534009558
 21
1.1903396482994131
 31
0.0
  0
LINE
  5
2D46
  8
0
 10
3.3283335932001128
 20
0.6436160158991698
 30
0.0
 11
3.262204687500343
 21
0.6436160158991698
 31
0.0
  0
LINE
  5
2D47
  8
0
 10
3.30518847669964
 20
0.8398757817990372
 30
0.0
 11
3.3547851556995729
 21
1.1903396482994131
 31
0.0
  0
LINE
  5
2D48
  8
0
 10
3.262204687500343
 20
0.6436160158991698
 30
0.0
 11
3.1894628909003582
 21
1.1903396482994131
 31
0.0
  0
LINE
  5
2D49
  8
0
 10
3.2985755858007901
 20
0.8398757817990372
 30
0.0
 11
3.30518847669964
 21
0.8398757817990372
 31
0.0
  0
LINE
  5
2D4A
  8
0
 10
3.1894628909003582
 20
1.1903396482994131
 30
0.0
 11
3.255591796600128
 21
1.1903396482994131
 31
0.0
  0
LINE
  5
2D4B
  8
0
 10
3.255591796600128
 20
1.1903396482994131
 30
0.0
 11
3.2985755858007901
 21
0.8398757817990372
 31
0.0
  0
LINE
  5
2D4C
  8
0
 10
3.0205401941002492
 20
1.118530317299246
 30
0.0
 11
3.01183547060009
 21
1.1241949575996839
 31
0.0
  0
LINE
  5
2D4D
  8
0
 10
3.01183547060009
 20
1.1241949575996839
 30
0.0
 11
3.0029957902997921
 21
1.1288296634993451
 31
0.0
  0
LINE
  5
2D4E
  8
0
 10
3.029109960799814
 20
1.1118357425991681
 30
0.0
 11
3.0205401941002492
 21
1.118530317299246
 31
0.0
  0
LINE
  5
2D4F
  8
0
 10
3.0029957902997921
 20
1.1288296634993451
 30
0.0
 11
2.9940211532002641
 21
1.13243443499914
 31
0.0
  0
LINE
  5
2D50
  8
0
 10
3.0405138236001221
 20
1.098961559299368
 30
0.0
 11
3.029109960799814
 21
1.1118357425991681
 31
0.0
  0
LINE
  5
2D51
  8
0
 10
2.9940211532002641
 20
1.13243443499914
 30
0.0
 11
2.984911559300599
 21
1.1350092709992621
 31
0.0
  0
LINE
  5
2D52
  8
0
 10
3.0501632458008312
 20
1.0811665776991499
 30
0.0
 11
3.0405138236001221
 21
1.098961559299368
 31
0.0
  0
LINE
  5
2D53
  8
0
 10
2.984911559300599
 20
1.1350092709992621
 30
0.0
 11
2.9756670086003392
 21
1.136554173699323
 31
0.0
  0
LINE
  5
2D54
  8
0
 10
3.0580582274005792
 20
1.058450796699389
 30
0.0
 11
3.0501632458008312
 21
1.0811665776991499
 31
0.0
  0
LINE
  5
2D55
  8
0
 10
2.9756670086003392
 20
1.136554173699323
 30
0.0
 11
2.9662875000003619
 21
1.137069140899257
 31
0.0
  0
LINE
  5
2D56
  8
0
 10
3.0641987683998191
 20
1.0308142184992439
 30
0.0
 11
3.0580582274005792
 21
1.058450796699389
 31
0.0
  0
LINE
  5
2D57
  8
0
 10
2.9662875000003619
 20
1.137069140899257
 30
0.0
 11
2.9560307722003918
 21
1.136554173699323
 31
0.0
  0
LINE
  5
2D58
  8
0
 10
3.068584868799916
 20
0.9982568397995237
 30
0.0
 11
3.0641987683998191
 21
1.0308142184992439
 31
0.0
  0
LINE
  5
2D59
  8
0
 10
2.9560307722003918
 20
1.136554173699323
 30
0.0
 11
2.946043956900211
 21
1.1350092709992621
 31
0.0
  0
LINE
  5
2D5A
  8
0
 10
3.0712165296999951
 20
0.9607786627991573
 30
0.0
 11
3.068584868799916
 21
0.9982568397995237
 31
0.0
  0
LINE
  5
2D5B
  8
0
 10
2.946043956900211
 20
1.1350092709992621
 30
0.0
 11
2.9363270563007968
 21
1.13243443499914
 31
0.0
  0
LINE
  5
2D5C
  8
0
 10
3.0720937500000209
 20
0.9183796874990549
 30
0.0
 11
3.0712165296999951
 21
0.9607786627991573
 31
0.0
  0
LINE
  5
2D5D
  8
0
 10
2.9363270563007968
 20
1.13243443499914
 30
0.0
 11
2.9268800703998741
 21
1.1288296634993451
 31
0.0
  0
LINE
  5
2D5E
  8
0
 10
3.0712165296999951
 20
0.8752368701991599
 30
0.0
 11
3.0720937500000209
 21
0.9183796874990549
 31
0.0
  0
LINE
  5
2D5F
  8
0
 10
2.9268800703998741
 20
1.1288296634993451
 30
0.0
 11
2.9177029970005601
 21
1.1241949575996839
 31
0.0
  0
LINE
  5
2D60
  8
0
 10
3.068584868799916
 20
0.8371292885992716
 30
0.0
 11
3.0712165296999951
 21
0.8752368701991599
 31
0.0
  0
LINE
  5
2D61
  8
0
 10
2.9177029970005601
 20
1.1241949575996839
 30
0.0
 11
2.9087958382997381
 21
1.118530317299246
 31
0.0
  0
LINE
  5
2D62
  8
0
 10
3.0641987683998191
 20
0.8040569437994236
 30
0.0
 11
3.068584868799916
 21
0.8371292885992716
 31
0.0
  0
LINE
  5
2D63
  8
0
 10
2.9087958382997381
 20
1.118530317299246
 30
0.0
 11
2.9001585932001031
 21
1.1118357425991681
 31
0.0
  0
LINE
  5
2D64
  8
0
 10
3.0580582274005792
 20
0.7760198346993548
 30
0.0
 11
3.0641987683998191
 21
0.8040569437994236
 31
0.0
  0
LINE
  5
2D65
  8
0
 10
2.9001585932001031
 20
1.1118357425991681
 30
0.0
 11
2.8887547314998301
 21
1.098961559299368
 31
0.0
  0
LINE
  5
2D66
  8
0
 10
3.0501632458008312
 20
0.7530179612990651
 30
0.0
 11
3.0580582274005792
 21
0.7760198346993548
 31
0.0
  0
LINE
  5
2D67
  8
0
 10
2.8887547314998301
 20
1.098961559299368
 30
0.0
 11
2.8791053093000301
 21
1.0811665776991499
 31
0.0
  0
LINE
  5
2D68
  8
0
 10
3.0405138236001221
 20
0.7350513235994641
 30
0.0
 11
3.0501632458008312
 21
0.7530179612990651
 31
0.0
  0
LINE
  5
2D69
  8
0
 10
2.8791053093000301
 20
1.0811665776991499
 30
0.0
 11
2.8712103277002821
 21
1.058450796699389
 31
0.0
  0
LINE
  5
2D6A
  8
0
 10
3.029109960799814
 20
0.7221199215994149
 30
0.0
 11
3.0405138236001221
 21
0.7350513235994641
 31
0.0
  0
LINE
  5
2D6B
  8
0
 10
2.8712103277002821
 20
1.058450796699389
 30
0.0
 11
2.8650697867001318
 21
1.0308142184992439
 31
0.0
  0
LINE
  5
2D6C
  8
0
 10
3.0205401941002492
 20
0.7154253468993375
 30
0.0
 11
3.029109960799814
 21
0.7221199215994149
 31
0.0
  0
LINE
  5
2D6D
  8
0
 10
2.8650697867001318
 20
1.0308142184992439
 30
0.0
 11
2.860683685200001
 21
0.9982568397995237
 31
0.0
  0
LINE
  5
2D6E
  8
0
 10
3.01183547060009
 20
0.7097607065995817
 30
0.0
 11
3.0205401941002492
 21
0.7154253468993375
 31
0.0
  0
LINE
  5
2D6F
  8
0
 10
2.860683685200001
 20
0.9982568397995237
 30
0.0
 11
2.8580520253999562
 21
0.9607786627991573
 31
0.0
  0
LINE
  5
2D70
  8
0
 10
3.0029957902997921
 20
0.705126000699238
 30
0.0
 11
3.01183547060009
 21
0.7097607065995817
 31
0.0
  0
LINE
  5
2D71
  8
0
 10
2.8580520253999562
 20
0.9607786627991573
 30
0.0
 11
2.8571748050999299
 21
0.9183796874990549
 31
0.0
  0
LINE
  5
2D72
  8
0
 10
2.9940211532002641
 20
0.7015212291994432
 30
0.0
 11
3.0029957902997921
 21
0.705126000699238
 31
0.0
  0
LINE
  5
2D73
  8
0
 10
2.8571748050999299
 20
0.9183796874990549
 30
0.0
 11
2.8580520253999562
 21
0.8752368701991599
 31
0.0
  0
LINE
  5
2D74
  8
0
 10
2.984911559300599
 20
0.6989463931993214
 30
0.0
 11
2.9940211532002641
 21
0.7015212291994432
 31
0.0
  0
LINE
  5
2D75
  8
0
 10
2.8580520253999562
 20
0.8752368701991599
 30
0.0
 11
2.860683685200001
 21
0.8371292885992716
 31
0.0
  0
LINE
  5
2D76
  8
0
 10
2.9756670086003392
 20
0.6974014904994874
 30
0.0
 11
2.984911559300599
 21
0.6989463931993214
 31
0.0
  0
LINE
  5
2D77
  8
0
 10
2.860683685200001
 20
0.8371292885992716
 30
0.0
 11
2.8650697867001318
 21
0.8040569437994236
 31
0.0
  0
LINE
  5
2D78
  8
0
 10
2.9662875000003619
 20
0.6968865232993267
 30
0.0
 11
2.9756670086003392
 21
0.6974014904994874
 31
0.0
  0
LINE
  5
2D79
  8
0
 10
2.8650697867001318
 20
0.8040569437994236
 30
0.0
 11
2.8712103277002821
 21
0.7760198346993548
 31
0.0
  0
LINE
  5
2D7A
  8
0
 10
2.9560307722003918
 20
0.6974014904994874
 30
0.0
 11
2.9662875000003619
 21
0.6968865232993267
 31
0.0
  0
LINE
  5
2D7B
  8
0
 10
2.8712103277002821
 20
0.7760198346993548
 30
0.0
 11
2.8791053093000301
 21
0.7530179612990651
 31
0.0
  0
LINE
  5
2D7C
  8
0
 10
2.946043956900211
 20
0.6989463931993214
 30
0.0
 11
2.9560307722003918
 21
0.6974014904994874
 31
0.0
  0
LINE
  5
2D7D
  8
0
 10
2.8791053093000301
 20
0.7530179612990651
 30
0.0
 11
2.8887547314998301
 21
0.7350513235994641
 31
0.0
  0
LINE
  5
2D7E
  8
0
 10
2.9363270563007968
 20
0.7015212291994432
 30
0.0
 11
2.946043956900211
 21
0.6989463931993214
 31
0.0
  0
LINE
  5
2D7F
  8
0
 10
2.8887547314998301
 20
0.7350513235994641
 30
0.0
 11
2.9001585932001031
 21
0.7221199215994149
 31
0.0
  0
LINE
  5
2D80
  8
0
 10
2.9268800703998741
 20
0.705126000699238
 30
0.0
 11
2.9363270563007968
 21
0.7015212291994432
 31
0.0
  0
LINE
  5
2D81
  8
0
 10
2.9001585932001031
 20
0.7221199215994149
 30
0.0
 11
2.9087958382997381
 21
0.7154253468993375
 31
0.0
  0
LINE
  5
2D82
  8
0
 10
2.9177029970005601
 20
0.7097607065995817
 30
0.0
 11
2.9268800703998741
 21
0.705126000699238
 31
0.0
  0
LINE
  5
2D83
  8
0
 10
2.9087958382997381
 20
0.7154253468993375
 30
0.0
 11
2.9177029970005601
 21
0.7097607065995817
 31
0.0
  0
LINE
  5
2D84
  8
0
 10
2.7067412108003732
 20
1.1903396482994131
 30
0.0
 11
2.7067412108003732
 21
0.6436160158991698
 31
0.0
  0
LINE
  5
2D85
  8
0
 10
2.630692969300525
 20
1.1903396482994131
 30
0.0
 11
2.7067412108003732
 21
1.1903396482994131
 31
0.0
  0
LINE
  5
2D86
  8
0
 10
2.7067412108003732
 20
0.6436160158991698
 30
0.0
 11
2.630692969300525
 21
0.6436160158991698
 31
0.0
  0
LINE
  5
2D87
  8
0
 10
2.630692969300525
 20
0.9716501948992117
 30
0.0
 11
2.630692969300525
 21
1.1903396482994131
 31
0.0
  0
LINE
  5
2D88
  8
0
 10
2.630692969300525
 20
0.6436160158991698
 30
0.0
 11
2.630692969300525
 21
0.7809978516993397
 31
0.0
  0
LINE
  5
2D89
  8
0
 10
2.4422255858007702
 20
0.9716501948992117
 30
0.0
 11
2.630692969300525
 21
0.9716501948992117
 31
0.0
  0
LINE
  5
2D8A
  8
0
 10
2.630692969300525
 20
0.7809978516993397
 30
0.0
 11
2.630692969300525
 21
0.9183796874990549
 31
0.0
  0
LINE
  5
2D8B
  8
0
 10
2.4422255858007702
 20
1.1903396482994131
 30
0.0
 11
2.4422255858007702
 21
0.9716501948992117
 31
0.0
  0
LINE
  5
2D8C
  8
0
 10
2.630692969300525
 20
0.9183796874990549
 30
0.0
 11
2.4422255858007702
 21
0.9183796874990549
 31
0.0
  0
LINE
  5
2D8D
  8
0
 10
2.366177344300012
 20
1.1903396482994131
 30
0.0
 11
2.4422255858007702
 21
1.1903396482994131
 31
0.0
  0
LINE
  5
2D8E
  8
0
 10
2.4422255858007702
 20
0.9183796874990549
 30
0.0
 11
2.4422255858007702
 21
0.6436160158991698
 31
0.0
  0
LINE
  5
2D8F
  8
0
 10
2.366177344300012
 20
0.6436160158991698
 30
0.0
 11
2.366177344300012
 21
1.1903396482994131
 31
0.0
  0
LINE
  5
2D90
  8
0
 10
2.4422255858007702
 20
0.6436160158991698
 30
0.0
 11
2.366177344300012
 21
0.6436160158991698
 31
0.0
  0
LINE
  5
2D91
  8
0
 10
2.0702601557004519
 20
0.9856687499993768
 30
0.0
 11
2.090098828400186
 21
0.9715929761994175
 31
0.0
  0
LINE
  5
2D92
  8
0
 10
2.0579790736996979
 20
0.9953386915990449
 30
0.0
 11
2.0702601557004519
 21
0.9856687499993768
 31
0.0
  0
LINE
  5
2D93
  8
0
 10
2.090098828400186
 20
0.9715929761994175
 30
0.0
 11
2.1099374999998868
 21
0.9582038267994903
 31
0.0
  0
LINE
  5
2D94
  8
0
 10
2.0475873880004651
 20
1.0051230705994381
 30
0.0
 11
2.0579790736996979
 21
0.9953386915990449
 31
0.0
  0
LINE
  5
2D95
  8
0
 10
2.1099374999998868
 20
0.9582038267994903
 30
0.0
 11
2.129776171600497
 21
0.9455012995997549
 31
0.0
  0
LINE
  5
2D96
  8
0
 10
2.0390851008005479
 20
1.0150218869994201
 30
0.0
 11
2.0475873880004651
 21
1.0051230705994381
 31
0.0
  0
LINE
  5
2D97
  8
0
 10
2.129776171600497
 20
0.9455012995997549
 30
0.0
 11
2.1496148443002312
 21
0.9334853956993356
 31
0.0
  0
LINE
  5
2D98
  8
0
 10
5.2469999999998427
 20
0.0
 30
0.0
 11
5.2469999999998427
 21
5.2469999999998427
 31
0.0
  0
LINE
  5
2D99
  8
0
 10
0.0
 20
5.2469999999998427
 30
0.0
 11
0.0
 21
0.0
 31
0.0
  0
LINE
  5
2D9A
  8
0
 10
5.0984999999996026
 20
0.1484999999997854
 30
0.0
 11
5.0984999999996026
 21
5.0984999999996026
 31
0.0
  0
LINE
  5
2D9B
  8
0
 10
0.1484999999997854
 20
5.0984999999996026
 30
0.0
 11
0.1484999999997854
 21
0.1484999999997854
 31
0.0
  0
LINE
  5
2D9C
  8
0
 10
3.415500000000065
 20
4.6529999999988831
 30
0.0
 11
3.415500000000065
 21
2.276999999999588
 31
0.0
  0
ARC
  5
2D9D
  8
0
 10
2.4255000000002829
 20
3.266999999998915
 30
0.0
 40
0.692999999999999
 50
179.9999999999996
 51
0.0
  0
LINE
  5
2D9E
  8
0
 10
1.336499999999887
 20
4.6529999999988831
 30
0.0
 11
1.336499999999887
 21
0.6434999999992215
 31
0.0
  0
ENDBLK
  5
2DA0
  8
0
  0
BLOCK
  8
0
  2
_
 70
     0
 10
0.0
 20
0.0
 30
0.0
  3
_
  1

  0
ARC
  5
42F6
  8
002寸法
 10
-1.2990381056765721
 20
0.0
 30
0.0
 40
1.5
 50
30.000000000001251
 51
180.0
  0
ARC
  5
42F7
  8
002寸法
 10
1.299038105676743
 20
1.5
 30
0.0
 40
1.5
 50
209.9999999999998
 51
0.0
  0
ENDBLK
  5
42F5
  8
0
  0
BLOCK
  8
0
  2
_0
 70
     0
 10
0.0
 20
0.0
 30
0.0
  3
_0
  1

  0
POLYLINE
  5
4304
  8
002寸法
 66
     1
 10
0.0
 20
0.0
 30
0.0
 70
     1
  0
VERTEX
  5
768B
  8
002寸法
 10
0.0
 20
0.0
 30
0.0
  0
VERTEX
  5
768C
  8
002寸法
 10
1.5
 20
2.5980762113532592
 30
0.0
  0
VERTEX
  5
768D
  8
002寸法
 10
-1.5
 20
2.5980762113532592
 30
0.0
  0
SEQEND
  5
768E
  8
002寸法
  0
ENDBLK
  5
4303
  8
0
  0
BLOCK
  8
0
  2
__
 70
     0
 10
0.0
 20
0.0
 30
0.0
  3
__
  1

  0
POLYLINE
  5
431A
  8
002寸法
 66
     1
 10
0.0
 20
0.0
 30
0.0
 70
     1
  0
VERTEX
  5
7691
  8
002寸法
 10
-1.4999999999999429
 20
0.0
 30
0.0
  0
VERTEX
  5
7692
  8
002寸法
 10
0.0000000000000568
 20
2.5980762113532592
 30
0.0
  0
VERTEX
  5
7693
  8
002寸法
 10
-2.9999999999999432
 20
2.5980762113532592
 30
0.0
  0
SEQEND
  5
7694
  8
002寸法
  0
POLYLINE
  5
431B
  8
002寸法
 66
     1
 10
0.0
 20
0.0
 30
0.0
 70
     1
  0
VERTEX
  5
7695
  8
002寸法
 10
1.500000000000056
 20
0.0
 30
0.0
  0
VERTEX
  5
7696
  8
002寸法
 10
3.000000000000056
 20
2.5980762113532592
 30
0.0
  0
VERTEX
  5
7697
  8
002寸法
 10
0.0000000000000568
 20
2.5980762113532592
 30
0.0
  0
SEQEND
  5
7698
  8
002寸法
  0
ENDBLK
  5
4319
  8
0
  0
BLOCK
  8
0
  2
___
 70
     0
 10
0.0
 20
0.0
 30
0.0
  3
___
  1

  0
POLYLINE
  5
4332
  8
002寸法
 66
     1
 10
0.0
 20
0.0
 30
0.0
 70
     1
  0
VERTEX
  5
769B
  8
002寸法
 10
-3.0
 20
0.0
 30
0.0
  0
VERTEX
  5
769C
  8
002寸法
 10
-1.5
 20
2.5980762113532592
 30
0.0
  0
VERTEX
  5
769D
  8
002寸法
 10
-4.5
 20
2.5980762113532592
 30
0.0
  0
SEQEND
  5
769E
  8
002寸法
  0
POLYLINE
  5
4333
  8
002寸法
 66
     1
 10
0.0
 20
0.0
 30
0.0
 70
     1
  0
VERTEX
  5
769F
  8
002寸法
 10
0.0
 20
0.0
 30
0.0
  0
VERTEX
  5
76A0
  8
002寸法
 10
1.5
 20
2.5980762113532592
 30
0.0
  0
VERTEX
  5
76A1
  8
002寸法
 10
-1.5
 20
2.5980762113532592
 30
0.0
  0
SEQEND
  5
76A2
  8
002寸法
  0
POLYLINE
  5
4334
  8
002寸法
 66
     1
 10
0.0
 20
0.0
 30
0.0
 70
     1
  0
VERTEX
  5
76A3
  8
002寸法
 10
3.0
 20
0.0
 30
0.0
  0
VERTEX
  5
76A4
  8
002寸法
 10
4.5
 20
2.5980762113532592
 30
0.0
  0
VERTEX
  5
76A5
  8
002寸法
 10
1.5
 20
2.5980762113532592
 30
0.0
  0
SEQEND
  5
76A6
  8
002寸法
  0
ENDBLK
  5
4331
  8
0
  0
BLOCK
  8
0
  2
____
 70
     0
 10
0.0
 20
0.0
 30
0.0
  3
____
  1

  0
POLYLINE
  5
4342
  8
002寸法
 66
     1
 10
0.0
 20
0.0
 30
0.0
 70
     1
  0
VERTEX
  5
76A9
  8
002寸法
 10
-4.5
 20
0.0
 30
0.0
  0
VERTEX
  5
76AA
  8
002寸法
 10
-3.0
 20
2.5980762113532592
 30
0.0
  0
VERTEX
  5
76AB
  8
002寸法
 10
-6.0
 20
2.5980762113532592
 30
0.0
  0
SEQEND
  5
76AC
  8
002寸法
  0
POLYLINE
  5
4343
  8
002寸法
 66
     1
 10
0.0
 20
0.0
 30
0.0
 70
     1
  0
VERTEX
  5
76AD
  8
002寸法
 10
-1.5
 20
0.0
 30
0.0
  0
VERTEX
  5
76AE
  8
002寸法
 10
0.0
 20
2.5980762113532592
 30
0.0
  0
VERTEX
  5
76AF
  8
002寸法
 10
-3.0
 20
2.5980762113532592
 30
0.0
  0
SEQEND
  5
76B0
  8
002寸法
  0
POLYLINE
  5
4344
  8
002寸法
 66
     1
 10
0.0
 20
0.0
 30
0.0
 70
     1
  0
VERTEX
  5
76B1
  8
002寸法
 10
1.5
 20
0.0
 30
0.0
  0
VERTEX
  5
76B2
  8
002寸法
 10
3.0
 20
2.5980762113532592
 30
0.0
  0
VERTEX
  5
76B3
  8
002寸法
 10
0.0
 20
2.5980762113532592
 30
0.0
  0
SEQEND
  5
76B4
  8
002寸法
  0
POLYLINE
  5
4345
  8
002寸法
 66
     1
 10
0.0
 20
0.0
 30
0.0
 70
     1
  0
VERTEX
  5
76B5
  8
002寸法
 10
4.5
 20
0.0
 30
0.0
  0
VERTEX
  5
76B6
  8
002寸法
 10
6.0
 20
2.5980762113532592
 30
0.0
  0
VERTEX
  5
76B7
  8
002寸法
 10
3.0
 20
2.5980762113532592
 30
0.0
  0
SEQEND
  5
76B8
  8
002寸法
  0
ENDBLK
  5
4341
  8
0
  0
BLOCK
  8
0
  2
___G
 70
     0
 10
0.0
 20
0.0
 30
0.0
  3
___G
  1

  0
POLYLINE
  5
4354
  8
002寸法
 66
     1
 10
0.0
 20
0.0
 30
0.0
 70
     1
  0
VERTEX
  5
76BB
  8
002寸法
 10
-3.0
 20
0.0
 30
0.0
  0
VERTEX
  5
76BC
  8
002寸法
 10
-1.5
 20
2.5980762113532592
 30
0.0
  0
VERTEX
  5
76BD
  8
002寸法
 10
-4.5
 20
2.5980762113532592
 30
0.0
  0
SEQEND
  5
76BE
  8
002寸法
  0
POLYLINE
  5
4355
  8
002寸法
 66
     1
 10
0.0
 20
0.0
 30
0.0
 70
     1
  0
VERTEX
  5
76BF
  8
002寸法
 10
0.0
 20
0.0
 30
0.0
  0
VERTEX
  5
76C0
  8
002寸法
 10
1.5
 20
2.5980762113532592
 30
0.0
  0
VERTEX
  5
76C1
  8
002寸法
 10
-1.5
 20
2.5980762113532592
 30
0.0
  0
SEQEND
  5
76C2
  8
002寸法
  0
POLYLINE
  5
4356
  8
002寸法
 66
     1
 10
0.0
 20
0.0
 30
0.0
 70
     1
  0
VERTEX
  5
76C3
  8
002寸法
 10
3.0
 20
0.0
 30
0.0
  0
VERTEX
  5
76C4
  8
002寸法
 10
4.5
 20
2.5980762113532592
 30
0.0
  0
VERTEX
  5
76C5
  8
002寸法
 10
1.5
 20
2.5980762113532592
 30
0.0
  0
SEQEND
  5
76C6
  8
002寸法
  0
LINE
  5
4357
  8
002寸法
 10
4.5
 20
2.5980762113532592
 30
0.0
 11
7.0
 21
6.9282032302754706
 31
0.0
  0
LINE
  5
4358
  8
002寸法
 10
7.0
 20
6.9282032302754706
 30
0.0
 11
10.0
 21
6.9282032302754706
 31
0.0
  0
INSERT
  5
4359
  8
011形状
  2
*U23
 10
0.0
 20
0.0
 30
0.0
  0
ENDBLK
  5
4353
  8
0
  0
BLOCK
  8
0
  2
_TAGCIRCLE
 70
     2
 10
0.0
 20
0.0
 30
0.0
  3
_TAGCIRCLE
  1

  0
CIRCLE
  5
4422
  8
0
  6
BYBLOCK
 10
0.0
 20
0.0
 30
0.0
 40
4.0
  0
ATTDEF
  5
4423
  8
002寸法
 62
     2
 10
-6.7999999999999989
 20
-1.5
 30
0.0
 40
3.0
  1
タグ番号
 72
     1
 11
0.0
 21
-1.5
 31
0.0
  3
タグ番号を入力
  2
タグ番号
 70
     0
  0
ENDBLK
  5
43E5
  8
0
  0
BLOCK
  8
0
  2
訂正記号
 70
     2
 10
0.0
 20
0.0
 30
0.0
  3
訂正記号
  1

  0
POLYLINE
  5
45CE
  8
002寸法
 66
     1
 10
0.0
 20
0.0
 30
0.0
 70
     1
  0
VERTEX
  5
76D1
  8
002寸法
 10
0.0
 20
4.3301270189222123
 30
0.0
  0
VERTEX
  5
76D2
  8
002寸法
 10
-2.5
 20
0.0
 30
0.0
  0
VERTEX
  5
76D3
  8
002寸法
 10
2.5
 20
0.0
 30
0.0
  0
SEQEND
  5
76D4
  8
002寸法
  0
ATTDEF
  5
45CF
  8
002寸法
 62
     2
 10
-3.3999999999999999
 20
0.4433756729740637
 30
0.0
 40
2.0
  1
1
 41
0.75
 72
     1
 11
0.0
 21
1.443375672974063
 31
0.0
  3

  2
訂正番号
 70
     0
 74
     2
1001
AcDbAttr
1070
     0
1070
     1
  0
ENDBLK
  5
4475
  8
0
  0
BLOCK
  8
0
  2
A$C4741278F
 70
     0
 10
0.0
 20
0.0
 30
0.0
  3
A$C4741278F
  1

  0
POLYLINE
  5
4FCA
  8
003注釈
 66
     1
 10
0.0
 20
0.0
 30
0.0
 70
     1
  0
VERTEX
  5
76E0
  8
003注釈
 10
4.9999975654500304
 20
1.250001047003934
 30
0.0
  0
VERTEX
  5
76E1
  8
003注釈
 10
2.499997565450037
 20
1.250001047003934
 30
0.0
  0
VERTEX
  5
76E2
  8
003注釈
 10
2.499997565450037
 20
0.0000010470039342
 30
0.0
  0
VERTEX
  5
76E3
  8
003注釈
 10
-0.0000024345499625
 20
2.5000010470039342
 30
0.0
  0
VERTEX
  5
76E4
  8
003注釈
 10
2.499997565450037
 20
5.0000010470039342
 30
0.0
  0
VERTEX
  5
76E5
  8
003注釈
 10
2.499997565450037
 20
3.7500010470039342
 30
0.0
  0
VERTEX
  5
76E6
  8
003注釈
 10
4.9999975654500304
 20
3.7500010470039622
 30
0.0
  0
SEQEND
  5
76E7
  8
003注釈
  0
LINE
  5
4FCB
  8
0
 10
-0.0000024345499625
 20
2.5000010470039342
 30
0.0
 11
4.9999975654500304
 21
2.5000010470039342
 31
0.0
  0
LINE
  5
4FCC
  8
0
 10
2.499997565450037
 20
3.7500010470039342
 30
0.0
 11
2.499997565450037
 21
1.250001047003934
 31
0.0
  0
ENDBLK
  5
4FD0
  8
0
  0
BLOCK
  8
0
  2
*D12
 70
     1
 10
0.0
 20
0.0
 30
0.0
  3
*D12
  1

  0
LINE
  5
7563
  8
002寸法
 10
1223.0
 20
389.5
 30
0.0
 11
1291.0
 21
389.5
 31
0.0
  0
LINE
  5
7564
  8
002寸法
 10
1223.0
 20
430.49999999999989
 30
0.0
 11
1291.0
 21
430.49999999999989
 31
0.0
  0
LINE
  5
7565
  8
002寸法
 10
1289.5
 20
394.5
 30
0.0
 11
1289.5
 21
425.49999999999989
 31
0.0
  0
INSERT
  5
7566
  8
002寸法
  2
_OPEN
 10
1289.5
 20
389.5
 30
0.0
 41
5.0
 42
5.0
 43
5.0
 50
270.0
  0
INSERT
  5
7567
  8
002寸法
  2
_OPEN
 10
1289.5
 20
430.49999999999989
 30
0.0
 41
5.0
 42
5.0
 43
5.0
 50
90.0
  0
INSERT
  5
7568
  8
011形状
  2
*U70
 10
0.0
 20
0.0
 30
0.0
  0
POINT
  5
7569
  8
DEFPOINTS
 62
     0
 10
1222.0
 20
389.5
 30
0.0
  0
POINT
  5
756A
  8
DEFPOINTS
 62
     0
 10
1222.0
 20
430.49999999999989
 30
0.0
  0
POINT
  5
756B
  8
DEFPOINTS
 62
     0
 10
1289.5
 20
430.49999999999989
 30
0.0
  0
ENDBLK
  5
74C6
  8
0
  0
BLOCK
  8
0
  2
*D13
 70
     1
 10
0.0
 20
0.0
 30
0.0
  3
*D13
  1

  0
LINE
  5
756C
  8
002寸法
 10
1224.0
 20
240.0
 30
0.0
 11
1291.0
 21
240.0
 31
0.0
  0
LINE
  5
756D
  8
002寸法
 10
1226.5
 20
270.0
 30
0.0
 11
1291.0
 21
270.0
 31
0.0
  0
LINE
  5
756E
  8
002寸法
 10
1289.5
 20
245.0
 30
0.0
 11
1289.5
 21
265.0
 31
0.0
  0
INSERT
  5
756F
  8
002寸法
  2
_OPEN
 10
1289.5
 20
240.0
 30
0.0
 41
5.0
 42
5.0
 43
5.0
 50
270.0
  0
INSERT
  5
7570
  8
002寸法
  2
_OPEN
 10
1289.5
 20
270.0
 30
0.0
 41
5.0
 42
5.0
 43
5.0
 50
90.0
  0
INSERT
  5
7571
  8
011形状
  2
*U71
 10
0.0
 20
0.0
 30
0.0
  0
POINT
  5
7572
  8
DEFPOINTS
 62
     0
 10
1223.0
 20
240.0
 30
0.0
  0
POINT
  5
7573
  8
DEFPOINTS
 62
     0
 10
1225.5
 20
270.0
 30
0.0
  0
POINT
  5
7574
  8
DEFPOINTS
 62
     0
 10
1289.5
 20
270.0
 30
0.0
  0
ENDBLK
  5
74D2
  8
0
  0
BLOCK
  8
0
  2
*D14
 70
     1
 10
0.0
 20
0.0
 30
0.0
  3
*D14
  1

  0
LINE
  5
7575
  8
002寸法
 10
1349.0
 20
228.0
 30
0.0
 11
1396.9666936238821
 21
228.0
 31
0.0
  0
LINE
  5
7576
  8
002寸法
 10
1355.0
 20
256.0
 30
0.0
 11
1396.9666936238821
 21
256.0
 31
0.0
  0
LINE
  5
7577
  8
002寸法
 10
1395.4666936238809
 20
233.0
 30
0.0
 11
1395.4666936238809
 21
251.0
 31
0.0
  0
INSERT
  5
7578
  8
002寸法
  2
_OPEN
 10
1395.4666936238809
 20
228.0
 30
0.0
 41
5.0
 42
5.0
 43
5.0
 50
270.0
  0
INSERT
  5
7579
  8
002寸法
  2
_OPEN
 10
1395.4666936238809
 20
256.0
 30
0.0
 41
5.0
 42
5.0
 43
5.0
 50
90.0
  0
INSERT
  5
757A
  8
011形状
  2
*U72
 10
0.0
 20
0.0
 30
0.0
  0
POINT
  5
757B
  8
DEFPOINTS
 62
     0
 10
1348.0
 20
228.0
 30
0.0
  0
POINT
  5
757C
  8
DEFPOINTS
 62
     0
 10
1354.0
 20
256.0
 30
0.0
  0
POINT
  5
757D
  8
DEFPOINTS
 62
     0
 10
1395.4666936238809
 20
256.0
 30
0.0
  0
ENDBLK
  5
74DE
  8
0
  0
BLOCK
  8
0
  2
*D15
 70
     1
 10
0.0
 20
0.0
 30
0.0
  3
*D15
  1

  0
LINE
  5
757E
  8
002寸法
 10
960.0
 20
241.0
 30
0.0
 11
960.0
 21
186.5
 31
0.0
  0
LINE
  5
757F
  8
002寸法
 10
1040.0
 20
217.0
 30
0.0
 11
1040.0
 21
186.5
 31
0.0
  0
LINE
  5
7580
  8
002寸法
 10
965.0
 20
188.0
 30
0.0
 11
1035.0
 21
188.0
 31
0.0
  0
INSERT
  5
7581
  8
002寸法
  2
_OPEN
 10
960.0
 20
188.0
 30
0.0
 41
5.0
 42
5.0
 43
5.0
 50
180.0
  0
INSERT
  5
7582
  8
002寸法
  2
_OPEN
 10
1040.0
 20
188.0
 30
0.0
 41
5.0
 42
5.0
 43
5.0
  0
INSERT
  5
7583
  8
011形状
  2
*U73
 10
0.0
 20
0.0
 30
0.0
  0
POINT
  5
7584
  8
DEFPOINTS
 62
     0
 10
960.0
 20
242.0
 30
0.0
  0
POINT
  5
7585
  8
DEFPOINTS
 62
     0
 10
1040.0
 20
218.0
 30
0.0
  0
POINT
  5
7586
  8
DEFPOINTS
 62
     0
 10
1040.0
 20
188.0
 30
0.0
  0
ENDBLK
  5
74EA
  8
0
  0
BLOCK
  8
0
  2
*D16
 70
     1
 10
0.0
 20
0.0
 30
0.0
  3
*D16
  1

  0
LINE
  5
7800
  8
002寸法
 10
1040.0
 20
217.0
 30
0.0
 11
1040.0
 21
186.5
 31
0.0
  0
LINE
  5
7801
  8
002寸法
 10
1160.0
 20
217.0
 30
0.0
 11
1160.0
 21
186.5
 31
0.0
  0
LINE
  5
7802
  8
002寸法
 10
1045.0
 20
188.0
 30
0.0
 11
1155.0
 21
188.0
 31
0.0
  0
INSERT
  5
7803
  8
002寸法
  2
_OPEN
 10
1040.0
 20
188.0
 30
0.0
 41
5.0
 42
5.0
 43
5.0
 50
180.0
  0
INSERT
  5
7804
  8
002寸法
  2
_OPEN
 10
1160.0
 20
188.0
 30
0.0
 41
5.0
 42
5.0
 43
5.0
  0
TEXT
  8
002寸法
  40
6
  5
7845
  62
2
  72
0
  71
0
 10
1100.00
 20
184.200
 30
0.000000
  1
120
  0
POINT
  5
7806
  8
DEFPOINTS
 62
     0
 10
1040.0
 20
218.0
 30
0.0
  0
POINT
  5
7807
  8
DEFPOINTS
 62
     0
 10
1160.0
 20
218.0
 30
0.0
  0
POINT
  5
7808
  8
DEFPOINTS
 62
     0
 10
1160.0
 20
188.0
 30
0.0
  0
ENDBLK
  5
74F6
  8
0
  0
BLOCK
  8
0
  2
*D17
 70
     1
 10
0.0
 20
0.0
 30
0.0
  3
*D17
  1

  0
LINE
  5
7590
  8
002寸法
 10
1342.0
 20
217.0
 30
0.0
 11
1342.0
 21
186.5
 31
0.0
  0
LINE
  5
7591
  8
002寸法
 10
1348.0
 20
217.0
 30
0.0
 11
1348.0
 21
186.5
 31
0.0
  0
LINE
  5
7592
  8
002寸法
 10
1337.0
 20
188.0
 30
0.0
 11
1332.0
 21
188.0
 31
0.0
  0
LINE
  5
7593
  8
002寸法
 10
1353.0
 20
188.0
 30
0.0
 11
1358.0
 21
188.0
 31
0.0
  0
LINE
  5
7594
  8
002寸法
 10
1342.0
 20
188.0
 30
0.0
 11
1348.0
 21
188.0
 31
0.0
  0
INSERT
  5
7595
  8
002寸法
  2
_OPEN
 10
1342.0
 20
188.0
 30
0.0
 41
5.0
 42
5.0
 43
5.0
  0
INSERT
  5
7596
  8
002寸法
  2
_OPEN
 10
1348.0
 20
188.0
 30
0.0
 41
5.0
 42
5.0
 43
5.0
 50
180.0
  0
INSERT
  5
7597
  8
011形状
  2
*U74
 10
0.0
 20
0.0
 30
0.0
  0
POINT
  5
7598
  8
DEFPOINTS
 62
     0
 10
1342.0
 20
218.0
 30
0.0
  0
POINT
  5
7599
  8
DEFPOINTS
 62
     0
 10
1348.0
 20
218.0
 30
0.0
  0
POINT
  5
759A
  8
DEFPOINTS
 62
     0
 10
1348.0
 20
188.0
 30
0.0
  0
ENDBLK
  5
7502
  8
0
  0
BLOCK
  8
0
  2
*D18
 70
     1
 10
0.0
 20
0.0
 30
0.0
  3
*D18
  1

  0
LINE
  5
759B
  8
002寸法
 10
724.0
 20
411.0
 30
0.0
 11
724.0
 21
452.0
 31
0.0
  0
LINE
  5
759C
  8
002寸法
 10
959.49999999999977
 20
428.0
 30
0.0
 11
959.49999999999977
 21
452.0
 31
0.0
  0
LINE
  5
759D
  8
002寸法
 10
729.0
 20
450.49999999999989
 30
0.0
 11
954.49999999999989
 21
450.49999999999989
 31
0.0
  0
INSERT
  5
759E
  8
002寸法
  2
_OPEN
 10
724.0
 20
450.49999999999989
 30
0.0
 41
5.0
 42
5.0
 43
5.0
 50
180.0
  0
INSERT
  5
759F
  8
002寸法
  2
_OPEN
 10
959.49999999999977
 20
450.49999999999989
 30
0.0
 41
5.0
 42
5.0
 43
5.0
  0
INSERT
  5
75A0
  8
011形状
  2
*U75
 10
0.0
 20
0.0
 30
0.0
  0
POINT
  5
75A1
  8
DEFPOINTS
 62
     0
 10
724.0
 20
410.0
 30
0.0
  0
POINT
  5
75A2
  8
DEFPOINTS
 62
     0
 10
959.49999999999977
 20
427.0
 30
0.0
  0
POINT
  5
75A3
  8
DEFPOINTS
 62
     0
 10
959.49999999999977
 20
450.49999999999989
 30
0.0
  0
ENDBLK
  5
7510
  8
0
  0
BLOCK
  8
0
  2
*D19
 70
     1
 10
0.0
 20
0.0
 30
0.0
  3
*D19
  1

  0
LINE
  5
75A4
  8
002寸法
 10
724.0
 20
411.0
 30
0.0
 11
724.0
 21
472.0
 31
0.0
  0
LINE
  5
75A5
  8
002寸法
 10
1234.0
 20
411.0
 30
0.0
 11
1234.0
 21
472.0
 31
0.0
  0
LINE
  5
75A6
  8
002寸法
 10
729.0
 20
470.5
 30
0.0
 11
1229.0
 21
470.5
 31
0.0
  0
INSERT
  5
75A7
  8
002寸法
  2
_OPEN
 10
724.0
 20
470.5
 30
0.0
 41
5.0
 42
5.0
 43
5.0
 50
180.0
  0
INSERT
  5
75A8
  8
002寸法
  2
_OPEN
 10
1234.0
 20
470.5
 30
0.0
 41
5.0
 42
5.0
 43
5.0
  0
INSERT
  5
75A9
  8
011形状
  2
*U76
 10
0.0
 20
0.0
 30
0.0
  0
POINT
  5
75AA
  8
DEFPOINTS
 62
     0
 10
724.0
 20
410.0
 30
0.0
  0
POINT
  5
75AB
  8
DEFPOINTS
 62
     0
 10
1234.0
 20
410.0
 30
0.0
  0
POINT
  5
75AC
  8
DEFPOINTS
 62
     0
 10
1234.0
 20
470.5
 30
0.0
  0
ENDBLK
  5
751C
  8
0
  0
BLOCK
  8
0
  2
*D20
 70
     1
 10
0.0
 20
0.0
 30
0.0
  3
*D20
  1

  0
LINE
  5
7818
  8
002寸法
 10
959.49999999999977
 20
428.0
 30
0.0
 11
959.49999999999977
 21
452.0
 31
0.0
  0
LINE
  5
7819
  8
002寸法
 10
1225.5
 20
428.0
 30
0.0
 11
1225.5
 21
452.0
 31
0.0
  0
LINE
  5
781A
  8
002寸法
 10
964.49999999999989
 20
450.49999999999989
 30
0.0
 11
1220.5
 21
450.49999999999989
 31
0.0
  0
INSERT
  5
781B
  8
002寸法
  2
_OPEN
 10
959.49999999999977
 20
450.49999999999989
 30
0.0
 41
5.0
 42
5.0
 43
5.0
 50
180.0
  0
INSERT
  5
781C
  8
002寸法
  2
_OPEN
 10
1225.5
 20
450.49999999999989
 30
0.0
 41
5.0
 42
5.0
 43
5.0
  0
TEXT
  8
002寸法
  40
6
  5
7846
  62
2
  72
0
  71
0
 10
1092.50
 20
446.700
 30
0.000000
  1
266
  0
POINT
  5
781E
  8
DEFPOINTS
 62
     0
 10
959.49999999999977
 20
427.0
 30
0.0
  0
POINT
  5
781F
  8
DEFPOINTS
 62
     0
 10
1225.5
 20
427.0
 30
0.0
  0
POINT
  5
7820
  8
DEFPOINTS
 62
     0
 10
1225.5
 20
450.49999999999989
 30
0.0
  0
ENDBLK
  5
7528
  8
0
  0
BLOCK
  8
0
  2
*D21
 70
     1
 10
0.0
 20
0.0
 30
0.0
  3
*D21
  1

  0
LINE
  5
75B6
  8
002寸法
 10
1225.5
 20
428.0
 30
0.0
 11
1225.5
 21
452.0
 31
0.0
  0
LINE
  5
75B7
  8
002寸法
 10
1234.0
 20
411.0
 30
0.0
 11
1234.0
 21
452.0
 31
0.0
  0
LINE
  5
75B8
  8
002寸法
 10
1220.5
 20
450.49999999999989
 30
0.0
 11
1215.5
 21
450.49999999999989
 31
0.0
  0
LINE
  5
75B9
  8
002寸法
 10
1239.0
 20
450.49999999999989
 30
0.0
 11
1257.3142857142859
 21
450.49999999999989
 31
0.0
  0
LINE
  5
75BA
  8
002寸法
 10
1225.5
 20
450.49999999999989
 30
0.0
 11
1234.0
 21
450.49999999999989
 31
0.0
  0
INSERT
  5
75BB
  8
002寸法
  2
_OPEN
 10
1225.5
 20
450.49999999999989
 30
0.0
 41
5.0
 42
5.0
 43
5.0
  0
INSERT
  5
75BC
  8
002寸法
  2
_OPEN
 10
1234.0
 20
450.49999999999989
 30
0.0
 41
5.0
 42
5.0
 43
5.0
 50
180.0
  0
INSERT
  5
75BD
  8
011形状
  2
*U77
 10
0.0
 20
0.0
 30
0.0
  0
POINT
  5
75BE
  8
DEFPOINTS
 62
     0
 10
1225.5
 20
427.0
 30
0.0
  0
POINT
  5
75BF
  8
DEFPOINTS
 62
     0
 10
1234.0
 20
410.0
 30
0.0
  0
POINT
  5
75C0
  8
DEFPOINTS
 62
     0
 10
1234.0
 20
450.49999999999989
 30
0.0
  0
ENDBLK
  5
7534
  8
0
  0
BLOCK
  8
0
  2
*D22
 70
     1
 10
0.0
 20
0.0
 30
0.0
  3
*D22
  1

  0
LINE
  5
7558
  8
002寸法
 10
939.0
 20
407.0
 30
0.0
 11
835.5
 21
407.0
 31
0.0
  0
LINE
  5
7559
  8
002寸法
 10
939.0
 20
413.0
 30
0.0
 11
835.5
 21
413.0
 31
0.0
  0
LINE
  5
755A
  8
002寸法
 10
837.0
 20
418.0
 30
0.0
 11
837.0
 21
423.0
 31
0.0
  0
LINE
  5
755B
  8
002寸法
 10
837.0
 20
402.0
 30
0.0
 11
837.0
 21
385.22857142857151
 31
0.0
  0
LINE
  5
755C
  8
002寸法
 10
837.0
 20
413.0
 30
0.0
 11
837.0
 21
407.0
 31
0.0
  0
INSERT
  5
755D
  8
002寸法
  2
_OPEN
 10
837.0
 20
413.0
 30
0.0
 41
5.0
 42
5.0
 43
5.0
 50
270.0
  0
INSERT
  5
755E
  8
002寸法
  2
_OPEN
 10
837.0
 20
407.0
 30
0.0
 41
5.0
 42
5.0
 43
5.0
 50
90.0
  0
INSERT
  5
755F
  8
011形状
  2
*U69
 10
0.0
 20
0.0
 30
0.0
  0
POINT
  5
7560
  8
DEFPOINTS
 62
     0
 10
940.0
 20
407.0
 30
0.0
  0
POINT
  5
7561
  8
DEFPOINTS
 62
     0
 10
940.0
 20
413.0
 30
0.0
  0
POINT
  5
7562
  8
DEFPOINTS
 62
     0
 10
837.0
 20
413.0
 30
0.0
  0
ENDBLK
  5
7542
  8
0
  0
BLOCK
  8
0
  2
*U23
 70
     1
 10
0.0
 20
0.0
 30
0.0
  3
*U23
  1

  0
TEXT
  5
76C8
  8
002寸法
 62
     2
 10
7.1499999999999986
 20
7.9282032302754706
 30
0.0
 40
3.0
  1
G
 41
0.9
  0
ENDBLK
  5
76CA
  8
0
  0
BLOCK
  8
0
  2
*U24
 70
     1
 10
0.0
 20
0.0
 30
0.0
  3
*U24
  1

  0
TEXT
  5
76FC
  8
DEFPOINTS
 10
1259.641752577319
 20
106.6159793814433
 30
0.0
 40
5.0
  1
尺　度
  7
表題
  0
ENDBLK
  5
76FE
  8
0
  0
BLOCK
  8
0
  2
*U25
 70
     1
 10
0.0
 20
0.0
 30
0.0
  3
*U25
  1

  0
TEXT
  5
7700
  8
DEFPOINTS
 10
1303.603092783505
 20
106.70618556701029
 30
0.0
 40
5.0
  1
承　認
  7
表題
  0
ENDBLK
  5
7702
  8
0
  0
BLOCK
  8
0
  2
*U26
 70
     1
 10
0.0
 20
0.0
 30
0.0
  3
*U26
  1

  0
TEXT
  5
7704
  8
DEFPOINTS
 10
1342.7319587628861
 20
106.6030927835051
 30
0.0
 40
5.0
  1
査　閲
  7
表題
  0
ENDBLK
  5
7706
  8
0
  0
BLOCK
  8
0
  2
*U27
 70
     1
 10
0.0
 20
0.0
 30
0.0
  3
*U27
  1

  0
TEXT
  5
7708
  8
DEFPOINTS
 10
1381.6159793814429
 20
106.66752577319581
 30
0.0
 40
5.0
  1
作　成
  7
表題
  0
ENDBLK
  5
770A
  8
0
  0
BLOCK
  8
0
  2
*U28
 70
     1
 10
0.0
 20
0.0
 30
0.0
  3
*U28
  1

  0
TEXT
  5
770C
  8
DEFPOINTS
 10
1265.5412371134021
 20
90.0
 30
0.0
 40
6.0
  1
：
  7
表題
  0
ENDBLK
  5
770E
  8
0
  0
BLOCK
  8
0
  2
*U29
 70
     1
 10
0.0
 20
0.0
 30
0.0
  3
*U29
  1

  0
TEXT
  5
7710
  8
DEFPOINTS
 10
1256.2525773195871
 20
76.603092783505161
 30
0.0
 40
5.0
  1
第三角法
  7
表題
  0
ENDBLK
  5
7712
  8
0
  0
BLOCK
  8
0
  2
*U30
 70
     1
 10
0.0
 20
0.0
 30
0.0
  3
*U30
  1

  0
TEXT
  5
7714
  8
DEFPOINTS
 10
1245.690721649484
 20
65.711340206185568
 30
0.0
 40
4.0
  1
名　　称
  7
表題
  0
ENDBLK
  5
7716
  8
0
  0
BLOCK
  8
0
  2
*U31
 70
     1
 10
0.0
 20
0.0
 30
0.0
  3
*U31
  1

  0
TEXT
  5
7718
  8
DEFPOINTS
 10
1245.6082474226801
 20
44.814432989690722
 30
0.0
 40
4.0
  1
図　　番
  7
表題
  0
ENDBLK
  5
771A
  8
0
  0
BLOCK
  8
0
  2
*U32
 70
     1
 10
0.0
 20
0.0
 30
0.0
  3
*U32
  1

  0
TEXT
  5
771C
  8
DEFPOINTS
 10
1375.9587628865979
 20
45.0
 30
0.0
 40
4.0
  1
SHT
  7
表題
  0
ENDBLK
  5
771E
  8
0
  0
BLOCK
  8
0
  2
*U33
 70
     1
 10
0.0
 20
0.0
 30
0.0
  3
*U33
  1

  0
TEXT
  5
7720
  8
DEFPOINTS
 10
1392.0721649484531
 20
34.123711340206192
 30
0.0
 40
6.0
  1
／
  7
表題
  0
ENDBLK
  5
7722
  8
0
  0
BLOCK
  8
0
  2
*U34
 70
     1
 10
0.0
 20
0.0
 30
0.0
  3
*U34
  1

  0
TEXT
  5
7729
  8
DEFPOINTS
 10
1259.659793814433
 20
557.12371134020611
 30
0.0
 40
4.0
  1
版数
  7
表題
  0
ENDBLK
  5
772B
  8
0
  0
BLOCK
  8
0
  2
*U35
 70
     1
 10
0.0
 20
0.0
 30
0.0
  3
*U35
  1

  0
TEXT
  5
772D
  8
DEFPOINTS
 10
1280.9690721649481
 20
557.09278350515467
 30
0.0
 40
4.0
  1
日付／変更記事／通知No.
  7
表題
  0
ENDBLK
  5
772F
  8
0
  0
BLOCK
  8
0
  2
*U36
 70
     1
 10
0.0
 20
0.0
 30
0.0
  3
*U36
  1

  0
TEXT
  5
7731
  8
DEFPOINTS
 10
1355.7216494845361
 20
557.16494845360819
 30
0.0
 40
4.0
  1
承認
  7
表題
  0
ENDBLK
  5
7733
  8
0
  0
BLOCK
  8
0
  2
*U37
 70
     1
 10
0.0
 20
0.0
 30
0.0
  3
*U37
  1

  0
TEXT
  5
7735
  8
DEFPOINTS
 10
1375.8247422680411
 20
557.08247422680415
 30
0.0
 40
4.0
  1
査閲
  7
表題
  0
ENDBLK
  5
7737
  8
0
  0
BLOCK
  8
0
  2
*U38
 70
     1
 10
0.0
 20
0.0
 30
0.0
  3
*U38
  1

  0
TEXT
  5
7739
  8
DEFPOINTS
 10
1395.7319587628861
 20
557.13402061855675
 30
0.0
 40
4.0
  1
作成
  7
表題
  0
ENDBLK
  5
773B
  8
0
  0
BLOCK
  8
0
  2
*U39
 70
     1
 10
0.0
 20
0.0
 30
0.0
  3
*U39
  1

  0
TEXT
  5
773D
  8
003注釈
 10
1255.8714285714279
 20
90.0
 30
0.0
 40
6.0
  1
1   2
 41
0.9
  0
ENDBLK
  5
773F
  8
0
  0
BLOCK
  8
0
  2
*U40
 70
     1
 10
0.0
 20
0.0
 30
0.0
  3
*U40
  1

  0
TEXT
  5
7741
  8
003注釈
 10
1254.2285714285711
 20
54.0
 30
0.0
 40
6.0
  1
9E08-D3B-200
 41
0.9
  0
ENDBLK
  5
7743
  8
0
  0
BLOCK
  8
0
  2
*U41
 70
     1
 10
0.0
 20
0.0
 30
0.0
  3
*U41
  1

  0
TEXT
  5
7745
  8
003注釈
 10
1274.785714285714
 20
42.0
 30
0.0
 40
5.0
  1
A11810-A9-1
 41
0.9
  0
ENDBLK
  5
7747
  8
0
  0
BLOCK
  8
0
  2
*U42
 70
     1
 10
0.0
 20
0.0
 30
0.0
  3
*U42
  1

  0
TEXT
  5
774D
  8
003注釈
 10
669.61142857142852
 20
417.9999999999867
 30
0.0
 40
6.0
  1
負荷方向(+)
 41
0.9
  0
ENDBLK
  5
774F
  8
0
  0
BLOCK
  8
0
  2
*U43
 70
     1
 10
0.0
 20
0.0
 30
0.0
  3
*U43
  1

  0
TEXT
  5
7783
  8
011形状
 10
1002.5
 20
413.18571428571431
 30
0.0
 40
3.0
  1
0
 50
270.0
 41
0.9
  0
ENDBLK
  5
7785
  8
0
  0
BLOCK
  8
0
  2
*U44
 70
     1
 10
0.0
 20
0.0
 30
0.0
  3
*U44
  1

  0
TEXT
  5
7787
  8
011形状
 10
1012.5
 20
415.75714285714281
 30
0.0
 40
3.0
  1
10
 50
270.0
 41
0.9
  0
ENDBLK
  5
7789
  8
0
  0
BLOCK
  8
0
  2
*U45
 70
     1
 10
0.0
 20
0.0
 30
0.0
  3
*U45
  1

  0
TEXT
  5
778B
  8
011形状
 10
1022.5
 20
415.75714285714281
 30
0.0
 40
3.0
  1
20
 50
270.0
 41
0.9
  0
ENDBLK
  5
778D
  8
0
  0
BLOCK
  8
0
  2
*U46
 70
     1
 10
0.0
 20
0.0
 30
0.0
  3
*U46
  1

  0
TEXT
  5
778F
  8
011形状
 10
1032.5
 20
415.75714285714281
 30
0.0
 40
3.0
  1
30
 50
270.0
 41
0.9
  0
ENDBLK
  5
7791
  8
0
  0
BLOCK
  8
0
  2
*U47
 70
     1
 10
0.0
 20
0.0
 30
0.0
  3
*U47
  1

  0
TEXT
  5
7793
  8
011形状
 10
1042.5
 20
415.75714285714281
 30
0.0
 40
3.0
  1
40
 50
270.0
 41
0.9
  0
ENDBLK
  5
7795
  8
0
  0
BLOCK
  8
0
  2
*U48
 70
     1
 10
0.0
 20
0.0
 30
0.0
  3
*U48
  1

  0
TEXT
  5
7797
  8
011形状
 10
1052.5
 20
415.75714285714281
 30
0.0
 40
3.0
  1
50
 50
270.0
 41
0.9
  0
ENDBLK
  5
7799
  8
0
  0
BLOCK
  8
0
  2
*U49
 70
     1
 10
0.0
 20
0.0
 30
0.0
  3
*U49
  1

  0
TEXT
  5
779B
  8
011形状
 10
1062.5
 20
415.75714285714281
 30
0.0
 40
3.0
  1
60
 50
270.0
 41
0.9
  0
ENDBLK
  5
779D
  8
0
  0
BLOCK
  8
0
  2
*U50
 70
     1
 10
0.0
 20
0.0
 30
0.0
  3
*U50
  1

  0
TEXT
  5
779F
  8
011形状
 10
1072.5
 20
415.75714285714281
 30
0.0
 40
3.0
  1
70
 50
270.0
 41
0.9
  0
ENDBLK
  5
77A1
  8
0
  0
BLOCK
  8
0
  2
*U51
 70
     1
 10
0.0
 20
0.0
 30
0.0
  3
*U51
  1

  0
TEXT
  5
77A3
  8
011形状
 10
1082.5
 20
415.75714285714281
 30
0.0
 40
3.0
  1
80
 50
270.0
 41
0.9
  0
ENDBLK
  5
77A5
  8
0
  0
BLOCK
  8
0
  2
*U52
 70
     1
 10
0.0
 20
0.0
 30
0.0
  3
*U52
  1

  0
TEXT
  5
77A7
  8
011形状
 10
1092.5
 20
415.75714285714281
 30
0.0
 40
3.0
  1
90
 50
270.0
 41
0.9
  0
ENDBLK
  5
77A9
  8
0
  0
BLOCK
  8
0
  2
*U53
 70
     1
 10
0.0
 20
0.0
 30
0.0
  3
*U53
  1

  0
TEXT
  5
77AB
  8
011形状
 10
1102.5
 20
418.32857142857142
 30
0.0
 40
3.0
  1
100
 50
270.0
 41
0.9
  0
ENDBLK
  5
77AD
  8
0
  0
BLOCK
  8
0
  2
*U54
 70
     1
 10
0.0
 20
0.0
 30
0.0
  3
*U54
  1

  0
TEXT
  5
77AF
  8
011形状
 10
1112.5
 20
418.32857142857142
 30
0.0
 40
3.0
  1
110
 50
270.0
 41
0.9
  0
ENDBLK
  5
77B1
  8
0
  0
BLOCK
  8
0
  2
*U55
 70
     1
 10
0.0
 20
0.0
 30
0.0
  3
*U55
  1

  0
TEXT
  5
77B3
  8
011形状
 10
1122.5
 20
418.32857142857142
 30
0.0
 40
3.0
  1
120
 50
270.0
 41
0.9
  0
ENDBLK
  5
77B5
  8
0
  0
BLOCK
  8
0
  2
*U56
 70
     1
 10
0.0
 20
0.0
 30
0.0
  3
*U56
  1

  0
TEXT
  5
77B7
  8
011形状
 10
1132.5
 20
418.32857142857142
 30
0.0
 40
3.0
  1
130
 50
270.0
 41
0.9
  0
ENDBLK
  5
77B9
  8
0
  0
BLOCK
  8
0
  2
*U57
 70
     1
 10
0.0
 20
0.0
 30
0.0
  3
*U57
  1

  0
TEXT
  5
77BB
  8
011形状
 10
1142.5
 20
418.32857142857142
 30
0.0
 40
3.0
  1
140
 50
270.0
 41
0.9
  0
ENDBLK
  5
77BD
  8
0
  0
BLOCK
  8
0
  2
*U58
 70
     1
 10
0.0
 20
0.0
 30
0.0
  3
*U58
  1

  0
TEXT
  5
77BF
  8
011形状
 10
1152.5
 20
418.32857142857142
 30
0.0
 40
3.0
  1
150
 50
270.0
 41
0.9
  0
ENDBLK
  5
77C1
  8
0
  0
BLOCK
  8
0
  2
*U59
 70
     1
 10
0.0
 20
0.0
 30
0.0
  3
*U59
  1

  0
TEXT
  5
77C3
  8
011形状
 10
1162.5
 20
418.32857142857142
 30
0.0
 40
3.0
  1
160
 50
270.0
 41
0.9
  0
ENDBLK
  5
77C5
  8
0
  0
BLOCK
  8
0
  2
*U60
 70
     1
 10
0.0
 20
0.0
 30
0.0
  3
*U60
  1

  0
TEXT
  5
77C7
  8
011形状
 10
1172.5
 20
418.32857142857142
 30
0.0
 40
3.0
  1
170
 50
270.0
 41
0.9
  0
ENDBLK
  5
77C9
  8
0
  0
BLOCK
  8
0
  2
*U61
 70
     1
 10
0.0
 20
0.0
 30
0.0
  3
*U61
  1

  0
TEXT
  5
77CB
  8
011形状
 10
1182.5
 20
418.32857142857142
 30
0.0
 40
3.0
  1
180
 50
270.0
 41
0.9
  0
ENDBLK
  5
77CD
  8
0
  0
BLOCK
  8
0
  2
*U62
 70
     1
 10
0.0
 20
0.0
 30
0.0
  3
*U62
  1

  0
TEXT
  5
77CF
  8
011形状
 10
1192.5
 20
418.32857142857142
 30
0.0
 40
3.0
  1
190
 50
270.0
 41
0.9
  0
ENDBLK
  5
77D1
  8
0
  0
BLOCK
  8
0
  2
*U63
 70
     1
 10
0.0
 20
0.0
 30
0.0
  3
*U63
  1

  0
TEXT
  5
77D3
  8
011形状
 10
1202.5
 20
418.32857142857142
 30
0.0
 40
3.0
  1
200
 50
270.0
 41
0.9
  0
ENDBLK
  5
77D5
  8
0
  0
BLOCK
  8
0
  2
*X64
 70
     1
 10
0.0
 20
0.0
 30
0.0
  3
*X64
  1

  0
LINE
  5
77D7
  8
0
 62
     0
 10
1232.9580054415089
 20
413.51999999999998
 30
0.0
 11
1232.041994558492
 21
413.51999999999998
 31
0.0
  0
LINE
  5
77D8
  8
0
 62
     0
 10
1232.90245014017
 20
412.88499999999988
 30
0.0
 11
1232.0975498598309
 21
412.88499999999988
 31
0.0
  0
LINE
  5
77D9
  8
0
 62
     0
 10
1232.8468948388311
 20
412.25
 30
0.0
 11
1232.1531051611701
 21
412.25
 31
0.0
  0
LINE
  5
77DA
  8
0
 62
     0
 10
1232.7913395374919
 20
411.6149999999999
 30
0.0
 11
1232.208660462509
 21
411.6149999999999
 31
0.0
  0
LINE
  5
77DB
  8
0
 62
     0
 10
1232.735784236153
 20
410.9799999999999
 30
0.0
 11
1232.2642157638479
 21
410.9799999999999
 31
0.0
  0
LINE
  5
77DC
  8
0
 62
     0
 10
1232.6802289348141
 20
410.34499999999991
 30
0.0
 11
1232.3197710651871
 21
410.34499999999991
 31
0.0
  0
LINE
  5
77DD
  8
0
 62
     0
 10
1232.6246736334749
 20
409.70999999999992
 30
0.0
 11
1232.375326366526
 21
409.70999999999992
 31
0.0
  0
LINE
  5
77DE
  8
0
 62
     0
 10
1232.569118332136
 20
409.07499999999982
 30
0.0
 11
1232.4308816678649
 21
409.07499999999982
 31
0.0
  0
LINE
  5
77DF
  8
0
 62
     0
 10
1232.5135630307971
 20
408.43999999999988
 30
0.0
 11
1232.4864369692041
 21
408.43999999999988
 31
0.0
  0
ENDBLK
  5
77E1
  8
0
  0
BLOCK
  8
0
  2
*X65
 70
     1
 10
0.0
 20
0.0
 30
0.0
  3
*X65
  1

  0
LINE
  5
77E3
  8
0
 62
     0
 10
729.85566243270262
 20
412.25
 30
0.0
 11
726.14433756729738
 21
412.25
 31
0.0
  0
LINE
  5
77E4
  8
0
 62
     0
 10
729.48904501176708
 20
411.61500000000001
 30
0.0
 11
726.5109549882327
 21
411.61500000000001
 31
0.0
  0
LINE
  5
77E5
  8
0
 62
     0
 10
729.12242759083176
 20
410.9799999999999
 30
0.0
 11
726.87757240916824
 21
410.9799999999999
 31
0.0
  0
LINE
  5
77E6
  8
0
 62
     0
 10
728.75581016989634
 20
410.34500000000003
 30
0.0
 11
727.24418983010355
 21
410.34500000000003
 31
0.0
  0
LINE
  5
77E7
  8
0
 62
     0
 10
728.38919274896091
 20
409.70999999999998
 30
0.0
 11
727.61080725103909
 21
409.70999999999998
 31
0.0
  0
LINE
  5
77E8
  8
0
 62
     0
 10
728.02257532802537
 20
409.07499999999987
 30
0.0
 11
727.97742467197452
 21
409.07499999999987
 31
0.0
  0
ENDBLK
  5
77EA
  8
0
  0
BLOCK
  8
0
  2
*X66
 70
     1
 10
0.0
 20
0.0
 30
0.0
  3
*X66
  1

  0
LINE
  5
77EC
  8
0
 62
     0
 10
1232.9580054415089
 20
259.4752395178939
 30
0.0
 11
1232.041994558492
 21
259.4752395178939
 31
0.0
  0
LINE
  5
77ED
  8
0
 62
     0
 10
1232.90245014017
 20
258.84023951789391
 30
0.0
 11
1232.0975498598309
 21
258.84023951789391
 31
0.0
  0
LINE
  5
77EE
  8
0
 62
     0
 10
1232.8468948388311
 20
258.20523951789392
 30
0.0
 11
1232.1531051611701
 21
258.20523951789392
 31
0.0
  0
LINE
  5
77EF
  8
0
 62
     0
 10
1232.7913395374919
 20
257.57023951789392
 30
0.0
 11
1232.208660462509
 21
257.57023951789392
 31
0.0
  0
LINE
  5
77F0
  8
0
 62
     0
 10
1232.735784236153
 20
256.93523951789388
 30
0.0
 11
1232.2642157638479
 21
256.93523951789388
 31
0.0
  0
LINE
  5
77F1
  8
0
 62
     0
 10
1232.6802289348141
 20
256.30023951789389
 30
0.0
 11
1232.3197710651871
 21
256.30023951789389
 31
0.0
  0
LINE
  5
77F2
  8
0
 62
     0
 10
1232.6246736334749
 20
255.66523951789389
 30
0.0
 11
1232.375326366526
 21
255.66523951789389
 31
0.0
  0
LINE
  5
77F3
  8
0
 62
     0
 10
1232.569118332136
 20
255.03023951789379
 30
0.0
 11
1232.4308816678649
 21
255.03023951789379
 31
0.0
  0
LINE
  5
77F4
  8
0
 62
     0
 10
1232.5135630307971
 20
254.3952395178938
 30
0.0
 11
1232.4864369692041
 21
254.3952395178938
 31
0.0
  0
ENDBLK
  5
77F6
  8
0
  0
BLOCK
  8
0
  2
*X67
 70
     1
 10
0.0
 20
0.0
 30
0.0
  3
*X67
  1

  0
LINE
  5
77F8
  8
0
 62
     0
 10
729.85566243270262
 20
258.20523951790148
 30
0.0
 11
726.14433756729738
 21
258.20523951790148
 31
0.0
  0
LINE
  5
77F9
  8
0
 62
     0
 10
729.48904501176708
 20
257.57023951790143
 30
0.0
 11
726.5109549882327
 21
257.57023951790143
 31
0.0
  0
LINE
  5
77FA
  8
0
 62
     0
 10
729.12242759083176
 20
256.93523951790138
 30
0.0
 11
726.87757240916824
 21
256.93523951790138
 31
0.0
  0
LINE
  5
77FB
  8
0
 62
     0
 10
728.75581016989634
 20
256.30023951790139
 30
0.0
 11
727.24418983010355
 21
256.30023951790139
 31
0.0
  0
LINE
  5
77FC
  8
0
 62
     0
 10
728.38919274896091
 20
255.6652395179014
 30
0.0
 11
727.61080725103909
 21
255.6652395179014
 31
0.0
  0
LINE
  5
77FD
  8
0
 62
     0
 10
728.02257532802537
 20
255.03023951790149
 30
0.0
 11
727.97742467197452
 21
255.03023951790149
 31
0.0
  0
ENDBLK
  5
77FF
  8
0
  0
BLOCK
  8
0
  2
*U68
 70
     1
 10
0.0
 20
0.0
 30
0.0
  3
*U68
  1

  0
TEXT
  5
780C
  8
002寸法
 62
     2
 10
1187.512842676033
 20
200.91572875253809
 30
0.0
 40
6.0
  1
2-\U+03C66.5取付穴
 41
0.9
  0
POLYLINE
  5
780D
  8
002寸法
  6
BYBLOCK
 66
     1
 10
0.0
 20
0.0
 30
0.0
  0
VERTEX
  5
780E
  8
002寸法
  6
BYBLOCK
 10
1165.833630944788
 20
222.16636905521111
 30
0.0
  0
VERTEX
  5
780F
  8
002寸法
  6
BYBLOCK
 10
1188.2842712474619
 20
199.7157287525381
 30
0.0
  0
SEQEND
  5
7810
  8
002寸法
  6
BYBLOCK
  0
INSERT
  5
7811
  8
002寸法
  2
_OPEN
 10
1162.298097038856
 20
225.70190296114379
 30
0.0
 41
5.0
 42
5.0
 43
5.0
 50
134.99999999999989
  0
POLYLINE
  5
7812
  8
002寸法
  6
BYBLOCK
 66
     1
 10
0.0
 20
0.0
 30
0.0
  0
VERTEX
  5
7813
  8
002寸法
  6
BYBLOCK
 10
1188.2842712474619
 20
199.7157287525381
 30
0.0
  0
VERTEX
  5
7814
  8
002寸法
  6
BYBLOCK
 10
1236.6785569617471
 20
199.7157287525381
 30
0.0
  0
SEQEND
  5
7815
  8
002寸法
  6
BYBLOCK
  0
ENDBLK
  5
7817
  8
0
  0
BLOCK
  8
0
  2
*U69
 70
     1
 10
0.0
 20
0.0
 30
0.0
  3
*U69
  1

  0
TEXT
  5
7822
  8
002寸法
 62
     2
 10
835.99999999999989
 20
385.14857142857159
 30
0.0
 40
6.0
  1
\U+03C66
 50
90.0
 41
0.9
  0
ENDBLK
  5
7824
  8
0
  0
BLOCK
  8
0
  2
*U70
 70
     1
 10
0.0
 20
0.0
 30
0.0
  3
*U70
  1

  0
TEXT
  5
7826
  8
002寸法
 62
     2
 10
1288.5
 20
405.6285714285716
 30
0.0
 40
6.0
  1
41
 50
90.0
 41
0.9
  0
ENDBLK
  5
7828
  8
0
  0
BLOCK
  8
0
  2
*U71
 70
     1
 10
0.0
 20
0.0
 30
0.0
  3
*U71
  1

  0
TEXT
  5
782A
  8
002寸法
 62
     2
 10
1288.5
 20
249.857142857143
 30
0.0
 40
6.0
  1
30
 50
90.0
 41
0.9
  0
ENDBLK
  5
782C
  8
0
  0
BLOCK
  8
0
  2
*U72
 70
     1
 10
0.0
 20
0.0
 30
0.0
  3
*U72
  1

  0
TEXT
  5
782E
  8
002寸法
 62
     2
 10
1394.4666936238809
 20
236.857142857143
 30
0.0
 40
6.0
  1
28
 50
90.0
 41
0.9
  0
ENDBLK
  5
7830
  8
0
  0
BLOCK
  8
0
  2
*U73
 70
     1
 10
0.0
 20
0.0
 30
0.0
  3
*U73
  1

  0
TEXT
  5
7832
  8
002寸法
 62
     2
 10
994.85714285714278
 20
189.0
 30
0.0
 40
6.0
  1
80
 41
0.9
  0
ENDBLK
  5
7834
  8
0
  0
BLOCK
  8
0
  2
*U74
 70
     1
 10
0.0
 20
0.0
 30
0.0
  3
*U74
  1

  0
TEXT
  5
7836
  8
002寸法
 62
     2
 10
1342.3
 20
189.0
 30
0.0
 40
6.0
  1
6
 41
0.9
  0
ENDBLK
  5
7838
  8
0
  0
BLOCK
  8
0
  2
*U75
 70
     1
 10
0.0
 20
0.0
 30
0.0
  3
*U75
  1

  0
TEXT
  5
783A
  8
002寸法
 62
     2
 10
830.17857142857133
 20
451.49999999999989
 30
0.0
 40
6.0
  1
235.5
 41
0.9
  0
ENDBLK
  5
783C
  8
0
  0
BLOCK
  8
0
  2
*U76
 70
     1
 10
0.0
 20
0.0
 30
0.0
  3
*U76
  1

  0
TEXT
  5
783E
  8
002寸法
 62
     2
 10
971.28571428571422
 20
471.49999999999989
 30
0.0
 40
6.0
  1
510
 41
0.9
  0
ENDBLK
  5
7840
  8
0
  0
BLOCK
  8
0
  2
*U77
 70
     1
 10
0.0
 20
0.0
 30
0.0
  3
*U77
  1

  0
TEXT
  5
7842
  8
002寸法
 62
     2
 10
1244.2285714285711
 20
451.49999999999989
 30
0.0
 40
6.0
  1
8.5
 41
0.9
  0
ENDBLK
  5
7844
  8
0
  0
ENDSEC
  0
SECTION
  2
ENTITIES
  0
POLYLINE
  5
5F8A
  8
DEFPOINTS
 66
     1
 10
0.0
 20
0.0
 30
0.0
 70
     1
  0
VERTEX
  5
76EC
  8
DEFPOINTS
 10
600.0
 20
0.0
 30
0.0
  0
VERTEX
  5
76ED
  8
DEFPOINTS
 10
1440.0
 20
0.0
 30
0.0
  0
VERTEX
  5
76EE
  8
DEFPOINTS
 10
1440.0
 20
594.0
 30
0.0
  0
VERTEX
  5
76EF
  8
DEFPOINTS
 10
600.0
 20
594.0
 30
0.0
  0
SEQEND
  5
76F0
  8
DEFPOINTS
  0
POLYLINE
  5
5F8B
  8
DEFPOINTS
 66
     1
 10
0.0
 20
0.0
 30
0.0
 70
     1
  0
VERTEX
  5
76F1
  8
DEFPOINTS
 10
649.0
 20
29.0
 30
0.0
  0
VERTEX
  5
76F2
  8
DEFPOINTS
 10
1411.0
 20
29.0
 30
0.0
  0
VERTEX
  5
76F3
  8
DEFPOINTS
 10
1411.0
 20
565.0
 30
0.0
  0
VERTEX
  5
76F4
  8
DEFPOINTS
 10
649.0
 20
565.0
 30
0.0
  0
SEQEND
  5
76F5
  8
DEFPOINTS
  0
LINE
  5
5FC3
  8
DEFPOINTS
  6
CENTER
 10
1020.0
 20
594.0
 30
0.0
 11
1020.0
 21
565.0
 31
0.0
  0
LINE
  5
5FE1
  8
DEFPOINTS
  6
CENTER
 10
600.0
 20
297.0
 30
0.0
 11
649.0
 21
297.0
 31
0.0
  0
POLYLINE
  5
5FEB
  8
DEFPOINTS
 66
     1
 10
0.0
 20
0.0
 30
0.0
 70
     1
  0
VERTEX
  5
76F6
  8
DEFPOINTS
 10
1245.0
 20
29.0
 30
0.0
  0
VERTEX
  5
76F7
  8
DEFPOINTS
 10
1411.0
 20
29.0
 30
0.0
  0
VERTEX
  5
76F8
  8
DEFPOINTS
 10
1411.0
 20
115.0
 30
0.0
  0
VERTEX
  5
76F9
  8
DEFPOINTS
 10
1245.0
 20
115.0
 30
0.0
  0
SEQEND
  5
76FA
  8
DEFPOINTS
  0
LINE
  5
5FEC
  8
DEFPOINTS
 10
1245.0
 20
103.0
 30
0.0
 11
1411.0
 21
103.0
 31
0.0
  0
LINE
  5
5FED
  8
DEFPOINTS
 10
1245.0
 20
71.0
 30
0.0
 11
1411.0
 21
71.0
 31
0.0
  0
LINE
  5
5FEE
  8
DEFPOINTS
 10
1245.0
 20
50.0
 30
0.0
 11
1411.0
 21
50.0
 31
0.0
  0
LINE
  5
5FEF
  8
DEFPOINTS
 10
1294.0
 20
71.0
 30
0.0
 11
1294.0
 21
115.0
 31
0.0
  0
LINE
  5
5FF0
  8
DEFPOINTS
 10
1333.0
 20
71.0
 30
0.0
 11
1333.0
 21
115.0
 31
0.0
  0
LINE
  5
5FF1
  8
DEFPOINTS
 10
1372.0
 20
71.0
 30
0.0
 11
1372.0
 21
115.0
 31
0.0
  0
LINE
  5
5FF2
  8
DEFPOINTS
 10
1245.0
 20
87.0
 30
0.0
 11
1294.0
 21
87.0
 31
0.0
  0
LINE
  5
5FF3
  8
DEFPOINTS
 10
1375.0
 20
29.0
 30
0.0
 11
1375.0
 21
50.0
 31
0.0
  0
INSERT
  5
5FF4
  8
011形状
  2
*U24
 10
0.0
 20
0.0
 30
0.0
  0
INSERT
  5
5FF6
  8
011形状
  2
*U25
 10
0.0
 20
0.0
 30
0.0
  0
INSERT
  5
5FF7
  8
011形状
  2
*U26
 10
0.0
 20
0.0
 30
0.0
  0
INSERT
  5
5FF8
  8
011形状
  2
*U27
 10
0.0
 20
0.0
 30
0.0
  0
INSERT
  5
5FF9
  8
011形状
  2
*U28
 10
0.0
 20
0.0
 30
0.0
  0
INSERT
  5
5FFA
  8
011形状
  2
*U29
 10
0.0
 20
0.0
 30
0.0
  0
INSERT
  5
5FFB
  8
011形状
  2
*U30
 10
0.0
 20
0.0
 30
0.0
  0
INSERT
  5
5FFF
  8
011形状
  2
*U31
 10
0.0
 20
0.0
 30
0.0
  0
INSERT
  5
6000
  8
011形状
  2
*U32
 10
0.0
 20
0.0
 30
0.0
  0
INSERT
  5
6001
  8
011形状
  2
*U33
 10
0.0
 20
0.0
 30
0.0
  0
POLYLINE
  5
6013
  8
DEFPOINTS
 66
     1
 10
0.0
 20
0.0
 30
0.0
 70
     1
  0
VERTEX
  5
7723
  8
DEFPOINTS
 10
1257.0
 20
541.0
 30
0.0
  0
VERTEX
  5
7724
  8
DEFPOINTS
 10
1411.0
 20
541.0
 30
0.0
  0
VERTEX
  5
7725
  8
DEFPOINTS
 10
1411.0
 20
565.0
 30
0.0
  0
VERTEX
  5
7726
  8
DEFPOINTS
 10
1257.0
 20
565.0
 30
0.0
  0
SEQEND
  5
7727
  8
DEFPOINTS
  0
LINE
  5
6014
  8
DEFPOINTS
 10
1257.0
 20
553.0
 30
0.0
 11
1411.0
 21
553.0
 31
0.0
  0
LINE
  5
6015
  8
DEFPOINTS
 10
1273.0
 20
541.0
 30
0.0
 11
1273.0
 21
565.0
 31
0.0
  0
LINE
  5
6016
  8
DEFPOINTS
 10
1351.0
 20
541.0
 30
0.0
 11
1351.0
 21
565.0
 31
0.0
  0
LINE
  5
6017
  8
DEFPOINTS
 10
1371.0
 20
541.0
 30
0.0
 11
1371.0
 21
565.0
 31
0.0
  0
LINE
  5
6018
  8
DEFPOINTS
 10
1391.0
 20
541.0
 30
0.0
 11
1391.0
 21
565.0
 31
0.0
  0
INSERT
  5
6019
  8
011形状
  2
*U34
 10
0.0
 20
0.0
 30
0.0
  0
INSERT
  5
601A
  8
011形状
  2
*U35
 10
0.0
 20
0.0
 30
0.0
  0
INSERT
  5
601B
  8
011形状
  2
*U36
 10
0.0
 20
0.0
 30
0.0
  0
INSERT
  5
601C
  8
011形状
  2
*U37
 10
0.0
 20
0.0
 30
0.0
  0
INSERT
  5
601D
  8
011形状
  2
*U38
 10
0.0
 20
0.0
 30
0.0
  0
INSERT
  5
6037
  8
011形状
  2
*U39
 10
0.0
 20
0.0
 30
0.0
  0
INSERT
  5
6038
  8
011形状
  2
*U40
 10
0.0
 20
0.0
 30
0.0
  0
INSERT
  5
603A
  8
011形状
  2
*U41
 10
0.0
 20
0.0
 30
0.0
  0
LINE
  5
604B
  8
DEFPOINTS
  6
CENTER
 10
1411.0
 20
297.0
 30
0.0
 11
1440.0
 21
297.0
 31
0.0
  0
DIMENSION
  5
7203
  8
002寸法
  2
*D22
 10
837.0
 20
413.0
 30
0.0
 11
832.99999999999977
 21
391.11428571428593
 31
0.0
 70
     0
 13
940.0
 23
407.0
 33
0.0
 14
940.0
 24
413.0
 34
0.0
 50
90.0
1001
ACAD
1000
DSTYLE
1002
{
1070
   280
1070
     1
1070
     3
1000
\U+03C6<>
1002
}
  0
INSERT
  5
7206
  8
011形状
  2
*U42
 10
0.0
 20
0.0
 30
0.0
  0
LINE
  5
7207
  8
DEFPOINTS
 10
699.0
 20
409.9999999999867
 30
0.0
 11
679.0
 21
409.9999999999867
 31
0.0
  0
POLYLINE
  5
7208
  8
003注釈
 66
     1
 10
0.0
 20
0.0
 30
0.0
 70
     1
  0
VERTEX
  5
7750
  8
003注釈
 10
679.0
 20
411.99999999998658
 30
0.0
  0
VERTEX
  5
7751
  8
003注釈
 10
689.0
 20
411.99999999998658
 30
0.0
  0
VERTEX
  5
7752
  8
003注釈
 10
689.0
 20
414.9999999999867
 30
0.0
  0
VERTEX
  5
7753
  8
003注釈
 10
699.0
 20
409.9999999999867
 30
0.0
  0
VERTEX
  5
7754
  8
003注釈
 10
689.0
 20
404.9999999999867
 30
0.0
  0
VERTEX
  5
7755
  8
003注釈
 10
689.0
 20
407.99999999998658
 30
0.0
  0
VERTEX
  5
7756
  8
003注釈
 10
679.0
 20
407.99999999998658
 30
0.0
  0
SEQEND
  5
7757
  8
003注釈
  0
POLYLINE
  5
7209
  8
011形状
 66
     1
 10
0.0
 20
0.0
 30
0.0
 70
     1
  0
VERTEX
  5
7758
  8
011形状
 10
962.0
 20
240.0
 30
0.0
  0
VERTEX
  5
7759
  8
011形状
 10
1223.0
 20
240.0
 30
0.0
 42
0.4142135623730951
  0
VERTEX
  5
775A
  8
011形状
 10
1225.0
 20
242.0
 30
0.0
  0
VERTEX
  5
775B
  8
011形状
 10
1225.0
 20
266.0
 30
0.0
  0
VERTEX
  5
775C
  8
011形状
 10
960.0
 20
266.0
 30
0.0
  0
VERTEX
  5
775D
  8
011形状
 10
960.0
 20
242.0
 30
0.0
 42
0.4142135623730951
  0
SEQEND
  5
775E
  8
011形状
  0
LINE
  5
720A
  8
001センタ
 10
714.0
 20
255.95523951788829
 30
0.0
 11
1244.0
 21
255.955239517894
 31
0.0
  0
CIRCLE
  5
720B
  8
011形状
 10
1160.0
 20
228.0
 30
0.0
 40
3.25
  0
ARC
  5
720C
  8
011形状
 10
1160.0
 20
228.0
 30
0.0
 40
10.0
 50
180.0000000000081
 51
359.99999999999022
  0
LINE
  5
720D
  8
011形状
 10
1170.0
 20
228.0
 30
0.0
 11
1170.7707613699631
 21
237.2491364395612
 31
0.0
  0
ARC
  5
720E
  8
011形状
 10
1173.7603986446979
 20
237.0
 30
0.0
 40
3.0
 50
90.0
 51
175.23635830927299
  0
ARC
  5
720F
  8
011形状
 10
1160.0
 20
188.5
 30
0.0
 40
50.0
 50
77.551612568472919
 51
102.4472819133229
  0
LINE
  5
7210
  8
001センタ
 10
1139.0
 20
228.0
 30
0.0
 11
1181.0
 21
228.0
 31
0.0
  0
LINE
  5
7211
  8
011形状
 10
1150.0
 20
228.0
 30
0.0
 11
1149.229238630036
 21
237.2491364395612
 31
0.0
  0
ARC
  5
7212
  8
011形状
 10
1146.2396013553021
 20
237.0
 30
0.0
 40
3.0
 50
4.7636416907273604
 51
90.0
  0
LINE
  5
7213
  8
001センタ
 10
1160.0
 20
208.0
 30
0.0
 11
1160.0
 21
250.0
 31
0.0
  0
CIRCLE
  5
7214
  8
011形状
 10
1040.0
 20
228.0
 30
0.0
 40
3.25
  0
ARC
  5
7215
  8
011形状
 10
1040.0
 20
228.0
 30
0.0
 40
10.0
 50
180.0000000000081
 51
359.99999999999022
  0
LINE
  5
7216
  8
011形状
 10
1050.0
 20
228.0
 30
0.0
 11
1050.7707613699631
 21
237.2491364395612
 31
0.0
  0
ARC
  5
7217
  8
011形状
 10
1053.7603986446979
 20
237.0
 30
0.0
 40
3.0
 50
90.0
 51
175.23635830927299
  0
ARC
  5
7218
  8
011形状
 10
1040.0
 20
188.5
 30
0.0
 40
50.0
 50
77.551612568472919
 51
102.4472819133229
  0
LINE
  5
7219
  8
001センタ
 10
1019.0
 20
228.0
 30
0.0
 11
1060.9999999999991
 21
228.0
 31
0.0
  0
LINE
  5
721A
  8
011形状
 10
1030.0
 20
228.0
 30
0.0
 11
1029.2292386300369
 21
237.2491364395612
 31
0.0
  0
ARC
  5
721B
  8
011形状
 10
1026.2396013553021
 20
237.0
 30
0.0
 40
3.0
 50
4.7636416907273604
 51
90.0
  0
LINE
  5
721C
  8
001センタ
 10
1040.0
 20
208.0
 30
0.0
 11
1040.0
 21
250.0
 31
0.0
  0
POLYLINE
  5
721D
  8
011形状
 66
     1
 10
0.0
 20
0.0
 30
0.0
 70
     1
  0
VERTEX
  5
775F
  8
011形状
 10
1327.0
 20
240.0
 30
0.0
  0
VERTEX
  5
7760
  8
011形状
 10
1363.0
 20
240.0
 30
0.0
 42
0.4142135623730951
  0
VERTEX
  5
7761
  8
011形状
 10
1365.0
 20
242.0
 30
0.0
  0
VERTEX
  5
7762
  8
011形状
 10
1365.0
 20
266.0
 30
0.0
  0
VERTEX
  5
7763
  8
011形状
 10
1325.0
 20
266.0
 30
0.0
  0
VERTEX
  5
7764
  8
011形状
 10
1325.0
 20
242.0
 30
0.0
 42
0.4142135623730951
  0
SEQEND
  5
7765
  8
011形状
  0
LINE
  5
721E
  8
011形状
 10
1342.0
 20
218.0
 30
0.0
 11
1348.0
 21
218.0
 31
0.0
  0
LINE
  5
721F
  8
011形状
 10
1342.0
 20
218.0
 30
0.0
 11
1342.0
 21
237.32452908948829
 31
0.0
  0
LINE
  5
7220
  8
011形状
 10
1341.5
 20
237.32452908948829
 30
0.0
 11
1341.5
 21
239.0
 31
0.0
  0
LINE
  5
7221
  8
011形状
 10
1348.0
 20
218.0
 30
0.0
 11
1348.0
 21
237.32452908948829
 31
0.0
  0
LINE
  5
7222
  8
011形状
 10
1341.5
 20
237.32452908948829
 30
0.0
 11
1342.0
 21
237.32452908948829
 31
0.0
  0
LINE
  5
7223
  8
011形状
 10
1348.0
 20
237.32452908948829
 30
0.0
 11
1348.5
 21
237.32452908948829
 31
0.0
  0
ARC
  5
7224
  8
011形状
 10
1340.5
 20
239.0
 30
0.0
 40
1.0
 50
0.0
 51
90.0
  0
LINE
  5
7225
  8
011形状
 10
1348.5
 20
237.32452908948829
 30
0.0
 11
1348.5
 21
239.0
 31
0.0
  0
ARC
  5
7226
  8
011形状
 10
1349.5
 20
239.0
 30
0.0
 40
1.0
 50
90.0
 51
180.0
  0
LINE
  5
7227
  8
001センタ
 10
1345.0
 20
208.0
 30
0.0
 11
1345.0
 21
280.0
 31
0.0
  0
LINE
  5
7228
  8
011形状
  6
DASHED
 62
     1
 10
1342.0
 20
231.25
 30
0.0
 11
1348.0
 21
231.25
 31
0.0
  0
LINE
  5
7229
  8
011形状
  6
DASHED
 62
     1
 10
1342.0
 20
224.75
 30
0.0
 11
1348.0
 21
224.75
 31
0.0
  0
LINE
  5
722A
  8
001センタ
 10
1332.0
 20
228.0
 30
0.0
 11
1358.0
 21
228.0
 31
0.0
  0
LINE
  5
722B
  8
001センタ
 10
1330.5
 20
256.0
 30
0.0
 11
1359.5
 21
256.0
 31
0.0
  0
POLYLINE
  5
722C
  8
011形状
 66
     1
 10
0.0
 20
0.0
 30
0.0
 70
     1
  0
VERTEX
  5
7766
  8
011形状
 10
959.49999999999977
 20
266.0
 30
0.0
  0
VERTEX
  5
7767
  8
011形状
 10
1225.5
 20
266.0
 30
0.0
  0
VERTEX
  5
7768
  8
011形状
 10
1225.5
 20
270.0
 30
0.0
  0
VERTEX
  5
7769
  8
011形状
 10
959.49999999999977
 20
270.0
 30
0.0
  0
SEQEND
  5
776A
  8
011形状
  0
POLYLINE
  5
722D
  8
011形状
 66
     1
 10
0.0
 20
0.0
 30
0.0
 70
     1
  0
VERTEX
  5
776B
  8
011形状
 10
1324.5
 20
266.0
 30
0.0
  0
VERTEX
  5
776C
  8
011形状
 10
1365.5
 20
266.0
 30
0.0
  0
VERTEX
  5
776D
  8
011形状
 10
1365.5
 20
270.0
 30
0.0
  0
VERTEX
  5
776E
  8
011形状
 10
1324.5
 20
270.0
 30
0.0
  0
SEQEND
  5
776F
  8
011形状
  0
POLYLINE
  5
722E
  8
011形状
 66
     1
 10
0.0
 20
0.0
 30
0.0
 70
     1
  0
VERTEX
  5
7770
  8
011形状
 10
962.99999999999989
 20
389.5
 30
0.0
  0
VERTEX
  5
7771
  8
011形状
 10
1222.0
 20
389.5
 30
0.0
 42
0.4142135623730951
  0
VERTEX
  5
7772
  8
011形状
 10
1225.5
 20
393.0
 30
0.0
  0
VERTEX
  5
7773
  8
011形状
 10
1225.5
 20
427.0
 30
0.0
 42
0.4142135623730951
  0
VERTEX
  5
7774
  8
011形状
 10
1222.0
 20
430.49999999999989
 30
0.0
  0
VERTEX
  5
7775
  8
011形状
 10
962.99999999999989
 20
430.49999999999989
 30
0.0
 42
0.4142135623730951
  0
VERTEX
  5
7776
  8
011形状
 10
959.49999999999977
 20
427.0
 30
0.0
  0
VERTEX
  5
7777
  8
011形状
 10
959.49999999999977
 20
393.0
 30
0.0
 42
0.4142135623730951
  0
SEQEND
  5
7778
  8
011形状
  0
LINE
  5
722F
  8
001センタ
 10
714.0
 20
409.9999999999867
 30
0.0
 11
1244.0
 21
410.00000000000023
 31
0.0
  0
LINE
  5
7230
  8
011形状
 10
734.0
 20
413.0
 30
0.0
 11
940.0
 21
413.0
 31
0.0
  0
LINE
  5
7231
  8
011形状
 10
1227.0
 20
413.0
 30
0.0
 11
1230.0
 21
413.0
 31
0.0
  0
LINE
  5
7232
  8
011形状
 10
734.0
 20
407.0
 30
0.0
 11
940.0
 21
407.0
 31
0.0
  0
LINE
  5
7233
  8
011形状
 10
1227.0
 20
407.0
 30
0.0
 11
1230.0
 21
407.0
 31
0.0
  0
CIRCLE
  5
7234
  8
101購入品
 10
964.99999999999977
 20
392.5
 30
0.0
 40
2.6000000000000001
  0
ARC
  5
7235
  8
101購入品
 10
966.28639999999984
 20
391.2136000000001
 30
0.0
 40
1.0988999999999971
 50
89.999619211547326
 51
180.0003807884396
  0
ARC
  5
7236
  8
101購入品
 10
966.28639999999984
 20
393.78640000000001
 30
0.0
 40
1.0988999999999971
 50
179.9996192115473
 51
270.00038078845267
  0
ARC
  5
7237
  8
101購入品
 10
964.99999999999977
 20
392.5
 30
0.0
 40
1.3
 50
81.707262714762052
 51
90.0
  0
ARC
  5
7238
  8
101購入品
 10
964.99999999999977
 20
392.5
 30
0.0
 40
1.3
 50
90.0
 51
98.292737285237934
  0
ARC
  5
7239
  8
101購入品
 10
963.71359999999993
 20
391.2136000000001
 30
0.0
 40
1.0988999999999971
 50
359.99961921154733
 51
90.000380788452674
  0
ARC
  5
723A
  8
101購入品
 10
964.99999999999977
 20
392.5
 30
0.0
 40
1.3
 50
171.70726271474899
 51
180.0
  0
ARC
  5
723B
  8
101購入品
 10
964.99999999999977
 20
392.5
 30
0.0
 40
1.3
 50
180.0
 51
188.29273728525089
  0
ARC
  5
723C
  8
101購入品
 10
964.99999999999977
 20
392.5
 30
0.0
 40
1.3
 50
270.0
 51
278.29273728523788
  0
ARC
  5
723D
  8
101購入品
 10
964.99999999999977
 20
392.5
 30
0.0
 40
1.3
 50
261.70726271476212
 51
270.0
  0
ARC
  5
723E
  8
101購入品
 10
963.71359999999993
 20
393.78640000000001
 30
0.0
 40
1.0988999999999971
 50
269.99961921154733
 51
0.0003807884396375
  0
ARC
  5
723F
  8
101購入品
 10
964.99999999999977
 20
392.5
 30
0.0
 40
1.3
 50
351.70726271474899
 51
0.0
  0
ARC
  5
7240
  8
101購入品
 10
964.99999999999977
 20
392.5
 30
0.0
 40
1.3
 50
0.0
 51
8.2927372852510057
  0
LINE
  5
7241
  8
001センタ
 10
964.99999999999977
 20
389.00000000000023
 30
0.0
 11
964.99999999999977
 21
396.0
 31
0.0
  0
LINE
  5
7242
  8
001センタ
 10
961.49999999999977
 20
392.5
 30
0.0
 11
968.49999999999977
 21
392.5
 31
0.0
  0
CIRCLE
  5
7243
  8
101購入品
 10
1016.0
 20
392.5
 30
0.0
 40
2.6000000000000001
  0
ARC
  5
7244
  8
101購入品
 10
1017.2864
 20
391.2136000000001
 30
0.0
 40
1.0988999999999971
 50
89.999619211547326
 51
180.0003807884396
  0
ARC
  5
7245
  8
101購入品
 10
1017.2864
 20
393.78640000000001
 30
0.0
 40
1.0988999999999971
 50
179.9996192115473
 51
270.00038078845267
  0
ARC
  5
7246
  8
101購入品
 10
1016.0
 20
392.5
 30
0.0
 40
1.3
 50
81.707262714762052
 51
90.0
  0
ARC
  5
7247
  8
101購入品
 10
1016.0
 20
392.5
 30
0.0
 40
1.3
 50
90.0
 51
98.292737285237934
  0
ARC
  5
7248
  8
101購入品
 10
1014.7136
 20
391.2136000000001
 30
0.0
 40
1.0988999999999971
 50
359.99961921154733
 51
90.000380788452674
  0
ARC
  5
7249
  8
101購入品
 10
1016.0
 20
392.5
 30
0.0
 40
1.3
 50
171.70726271474899
 51
180.0
  0
ARC
  5
724A
  8
101購入品
 10
1016.0
 20
392.5
 30
0.0
 40
1.3
 50
180.0
 51
188.29273728525089
  0
ARC
  5
724B
  8
101購入品
 10
1016.0
 20
392.5
 30
0.0
 40
1.3
 50
270.0
 51
278.29273728523788
  0
ARC
  5
724C
  8
101購入品
 10
1016.0
 20
392.5
 30
0.0
 40
1.3
 50
261.70726271476212
 51
270.0
  0
ARC
  5
724D
  8
101購入品
 10
1014.7136
 20
393.78640000000001
 30
0.0
 40
1.0988999999999971
 50
269.99961921154733
 51
0.0003807884396375
  0
ARC
  5
724E
  8
101購入品
 10
1016.0
 20
392.5
 30
0.0
 40
1.3
 50
351.70726271474899
 51
0.0
  0
ARC
  5
724F
  8
101購入品
 10
1016.0
 20
392.5
 30
0.0
 40
1.3
 50
0.0
 51
8.2927372852510057
  0
LINE
  5
7250
  8
001センタ
 10
1016.0
 20
389.00000000000023
 30
0.0
 11
1016.0
 21
396.0
 31
0.0
  0
LINE
  5
7251
  8
001センタ
 10
1012.5
 20
392.5
 30
0.0
 11
1019.5
 21
392.5
 31
0.0
  0
CIRCLE
  5
7252
  8
101購入品
 10
1067.0
 20
392.5
 30
0.0
 40
2.6000000000000001
  0
ARC
  5
7253
  8
101購入品
 10
1068.2864
 20
391.2136000000001
 30
0.0
 40
1.0988999999999971
 50
89.999619211547326
 51
180.0003807884396
  0
ARC
  5
7254
  8
101購入品
 10
1068.2864
 20
393.78640000000001
 30
0.0
 40
1.0988999999999971
 50
179.9996192115473
 51
270.00038078845267
  0
ARC
  5
7255
  8
101購入品
 10
1067.0
 20
392.5
 30
0.0
 40
1.3
 50
81.707262714762052
 51
90.0
  0
ARC
  5
7256
  8
101購入品
 10
1067.0
 20
392.5
 30
0.0
 40
1.3
 50
90.0
 51
98.292737285237934
  0
ARC
  5
7257
  8
101購入品
 10
1065.7136
 20
391.2136000000001
 30
0.0
 40
1.0988999999999971
 50
359.99961921154733
 51
90.000380788452674
  0
ARC
  5
7258
  8
101購入品
 10
1067.0
 20
392.5
 30
0.0
 40
1.3
 50
171.70726271474899
 51
180.0
  0
ARC
  5
7259
  8
101購入品
 10
1067.0
 20
392.5
 30
0.0
 40
1.3
 50
180.0
 51
188.29273728525089
  0
ARC
  5
725A
  8
101購入品
 10
1067.0
 20
392.5
 30
0.0
 40
1.3
 50
270.0
 51
278.29273728523788
  0
ARC
  5
725B
  8
101購入品
 10
1067.0
 20
392.5
 30
0.0
 40
1.3
 50
261.70726271476212
 51
270.0
  0
ARC
  5
725C
  8
101購入品
 10
1065.7136
 20
393.78640000000001
 30
0.0
 40
1.0988999999999971
 50
269.99961921154733
 51
0.0003807884396375
  0
ARC
  5
725D
  8
101購入品
 10
1067.0
 20
392.5
 30
0.0
 40
1.3
 50
351.70726271474899
 51
0.0
  0
ARC
  5
725E
  8
101購入品
 10
1067.0
 20
392.5
 30
0.0
 40
1.3
 50
0.0
 51
8.2927372852510057
  0
LINE
  5
725F
  8
001センタ
 10
1067.0
 20
389.00000000000023
 30
0.0
 11
1067.0
 21
396.0
 31
0.0
  0
LINE
  5
7260
  8
001センタ
 10
1063.5
 20
392.5
 30
0.0
 11
1070.5
 21
392.5
 31
0.0
  0
CIRCLE
  5
7261
  8
101購入品
 10
1118.0
 20
392.5
 30
0.0
 40
2.6000000000000001
  0
ARC
  5
7262
  8
101購入品
 10
1119.2864
 20
391.2136000000001
 30
0.0
 40
1.0988999999999971
 50
89.999619211547326
 51
180.0003807884396
  0
ARC
  5
7263
  8
101購入品
 10
1119.2864
 20
393.78640000000001
 30
0.0
 40
1.0988999999999971
 50
179.9996192115473
 51
270.00038078845267
  0
ARC
  5
7264
  8
101購入品
 10
1118.0
 20
392.5
 30
0.0
 40
1.3
 50
81.707262714762052
 51
90.0
  0
ARC
  5
7265
  8
101購入品
 10
1118.0
 20
392.5
 30
0.0
 40
1.3
 50
90.0
 51
98.292737285237934
  0
ARC
  5
7266
  8
101購入品
 10
1116.7136
 20
391.2136000000001
 30
0.0
 40
1.0988999999999971
 50
359.99961921154733
 51
90.000380788452674
  0
ARC
  5
7267
  8
101購入品
 10
1118.0
 20
392.5
 30
0.0
 40
1.3
 50
171.70726271474899
 51
180.0
  0
ARC
  5
7268
  8
101購入品
 10
1118.0
 20
392.5
 30
0.0
 40
1.3
 50
180.0
 51
188.29273728525089
  0
ARC
  5
7269
  8
101購入品
 10
1118.0
 20
392.5
 30
0.0
 40
1.3
 50
270.0
 51
278.29273728523788
  0
ARC
  5
726A
  8
101購入品
 10
1118.0
 20
392.5
 30
0.0
 40
1.3
 50
261.70726271476212
 51
270.0
  0
ARC
  5
726B
  8
101購入品
 10
1116.7136
 20
393.78640000000001
 30
0.0
 40
1.0988999999999971
 50
269.99961921154733
 51
0.0003807884396375
  0
ARC
  5
726C
  8
101購入品
 10
1118.0
 20
392.5
 30
0.0
 40
1.3
 50
351.70726271474899
 51
0.0
  0
ARC
  5
726D
  8
101購入品
 10
1118.0
 20
392.5
 30
0.0
 40
1.3
 50
0.0
 51
8.2927372852510057
  0
LINE
  5
726E
  8
001センタ
 10
1118.0
 20
389.00000000000023
 30
0.0
 11
1118.0
 21
396.0
 31
0.0
  0
LINE
  5
726F
  8
001センタ
 10
1114.5
 20
392.5
 30
0.0
 11
1121.5
 21
392.5
 31
0.0
  0
CIRCLE
  5
7270
  8
101購入品
 10
1169.0
 20
392.5
 30
0.0
 40
2.6000000000000001
  0
ARC
  5
7271
  8
101購入品
 10
1170.2864
 20
391.2136000000001
 30
0.0
 40
1.0988999999999971
 50
89.999619211547326
 51
180.0003807884396
  0
ARC
  5
7272
  8
101購入品
 10
1170.2864
 20
393.78640000000001
 30
0.0
 40
1.0988999999999971
 50
179.9996192115473
 51
270.00038078845267
  0
ARC
  5
7273
  8
101購入品
 10
1169.0
 20
392.5
 30
0.0
 40
1.3
 50
81.707262714762052
 51
90.0
  0
ARC
  5
7274
  8
101購入品
 10
1169.0
 20
392.5
 30
0.0
 40
1.3
 50
90.0
 51
98.292737285237934
  0
ARC
  5
7275
  8
101購入品
 10
1167.7136
 20
391.2136000000001
 30
0.0
 40
1.0988999999999971
 50
359.99961921154733
 51
90.000380788452674
  0
ARC
  5
7276
  8
101購入品
 10
1169.0
 20
392.5
 30
0.0
 40
1.3
 50
171.70726271474899
 51
180.0
  0
ARC
  5
7277
  8
101購入品
 10
1169.0
 20
392.5
 30
0.0
 40
1.3
 50
180.0
 51
188.29273728525089
  0
ARC
  5
7278
  8
101購入品
 10
1169.0
 20
392.5
 30
0.0
 40
1.3
 50
270.0
 51
278.29273728523788
  0
ARC
  5
7279
  8
101購入品
 10
1169.0
 20
392.5
 30
0.0
 40
1.3
 50
261.70726271476212
 51
270.0
  0
ARC
  5
727A
  8
101購入品
 10
1167.7136
 20
393.78640000000001
 30
0.0
 40
1.0988999999999971
 50
269.99961921154733
 51
0.0003807884396375
  0
ARC
  5
727B
  8
101購入品
 10
1169.0
 20
392.5
 30
0.0
 40
1.3
 50
351.70726271474899
 51
0.0
  0
ARC
  5
727C
  8
101購入品
 10
1169.0
 20
392.5
 30
0.0
 40
1.3
 50
0.0
 51
8.2927372852510057
  0
LINE
  5
727D
  8
001センタ
 10
1169.0
 20
389.00000000000023
 30
0.0
 11
1169.0
 21
396.0
 31
0.0
  0
LINE
  5
727E
  8
001センタ
 10
1165.5
 20
392.5
 30
0.0
 11
1172.5
 21
392.5
 31
0.0
  0
CIRCLE
  5
727F
  8
101購入品
 10
1220.0
 20
392.5
 30
0.0
 40
2.6000000000000001
  0
ARC
  5
7280
  8
101購入品
 10
1221.2864
 20
391.2136000000001
 30
0.0
 40
1.0988999999999971
 50
89.999619211547326
 51
180.0003807884396
  0
ARC
  5
7281
  8
101購入品
 10
1221.2864
 20
393.78640000000001
 30
0.0
 40
1.0988999999999971
 50
179.9996192115473
 51
270.00038078845267
  0
ARC
  5
7282
  8
101購入品
 10
1220.0
 20
392.5
 30
0.0
 40
1.3
 50
81.707262714762052
 51
90.0
  0
ARC
  5
7283
  8
101購入品
 10
1220.0
 20
392.5
 30
0.0
 40
1.3
 50
90.0
 51
98.292737285237934
  0
ARC
  5
7284
  8
101購入品
 10
1218.7136
 20
391.2136000000001
 30
0.0
 40
1.0988999999999971
 50
359.99961921154733
 51
90.000380788452674
  0
ARC
  5
7285
  8
101購入品
 10
1220.0
 20
392.5
 30
0.0
 40
1.3
 50
171.70726271474899
 51
180.0
  0
ARC
  5
7286
  8
101購入品
 10
1220.0
 20
392.5
 30
0.0
 40
1.3
 50
180.0
 51
188.29273728525089
  0
ARC
  5
7287
  8
101購入品
 10
1220.0
 20
392.5
 30
0.0
 40
1.3
 50
270.0
 51
278.29273728523788
  0
ARC
  5
7288
  8
101購入品
 10
1220.0
 20
392.5
 30
0.0
 40
1.3
 50
261.70726271476212
 51
270.0
  0
ARC
  5
7289
  8
101購入品
 10
1218.7136
 20
393.78640000000001
 30
0.0
 40
1.0988999999999971
 50
269.99961921154733
 51
0.0003807884396375
  0
ARC
  5
728A
  8
101購入品
 10
1220.0
 20
392.5
 30
0.0
 40
1.3
 50
351.70726271474899
 51
0.0
  0
ARC
  5
728B
  8
101購入品
 10
1220.0
 20
392.5
 30
0.0
 40
1.3
 50
0.0
 51
8.2927372852510057
  0
LINE
  5
728C
  8
001センタ
 10
1220.0
 20
389.00000000000023
 30
0.0
 11
1220.0
 21
396.0
 31
0.0
  0
LINE
  5
728D
  8
001センタ
 10
1216.5
 20
392.5
 30
0.0
 11
1223.5
 21
392.5
 31
0.0
  0
CIRCLE
  5
728E
  8
101購入品
 10
964.99999999999977
 20
427.5
 30
0.0
 40
2.6000000000000001
  0
ARC
  5
728F
  8
101購入品
 10
966.28639999999984
 20
428.7863999999999
 30
0.0
 40
1.0988999999999971
 50
179.9996192115604
 51
270.00038078845267
  0
ARC
  5
7290
  8
101購入品
 10
966.28639999999984
 20
426.21359999999999
 30
0.0
 40
1.0988999999999971
 50
89.999619211547326
 51
180.0003807884527
  0
ARC
  5
7291
  8
101購入品
 10
964.99999999999977
 20
427.5
 30
0.0
 40
1.3
 50
270.0
 51
278.29273728523788
  0
ARC
  5
7292
  8
101購入品
 10
964.99999999999977
 20
427.5
 30
0.0
 40
1.3
 50
261.70726271476212
 51
270.0
  0
ARC
  5
7293
  8
101購入品
 10
963.71359999999993
 20
428.7863999999999
 30
0.0
 40
1.0988999999999971
 50
269.99961921154733
 51
0.0003807884526651
  0
ARC
  5
7294
  8
101購入品
 10
964.99999999999977
 20
427.5
 30
0.0
 40
1.3
 50
180.0
 51
188.29273728525089
  0
ARC
  5
7295
  8
101購入品
 10
964.99999999999977
 20
427.5
 30
0.0
 40
1.3
 50
171.70726271474899
 51
180.0
  0
ARC
  5
7296
  8
101購入品
 10
964.99999999999977
 20
427.5
 30
0.0
 40
1.3
 50
81.707262714762052
 51
90.0
  0
ARC
  5
7297
  8
101購入品
 10
964.99999999999977
 20
427.5
 30
0.0
 40
1.3
 50
90.0
 51
98.292737285237934
  0
ARC
  5
7298
  8
101購入品
 10
963.71359999999993
 20
426.21359999999999
 30
0.0
 40
1.0988999999999971
 50
359.99961921156029
 51
90.000380788452674
  0
ARC
  5
7299
  8
101購入品
 10
964.99999999999977
 20
427.5
 30
0.0
 40
1.3
 50
0.0
 51
8.2927372852510057
  0
ARC
  5
729A
  8
101購入品
 10
964.99999999999977
 20
427.5
 30
0.0
 40
1.3
 50
351.70726271474899
 51
0.0
  0
LINE
  5
729B
  8
001センタ
 10
964.99999999999977
 20
430.99999999999972
 30
0.0
 11
964.99999999999977
 21
424.0
 31
0.0
  0
LINE
  5
729C
  8
001センタ
 10
961.49999999999977
 20
427.5
 30
0.0
 11
968.49999999999977
 21
427.5
 31
0.0
  0
CIRCLE
  5
729D
  8
101購入品
 10
1016.0
 20
427.5
 30
0.0
 40
2.6000000000000001
  0
ARC
  5
729E
  8
101購入品
 10
1017.2864
 20
428.7863999999999
 30
0.0
 40
1.0988999999999971
 50
179.9996192115604
 51
270.00038078845267
  0
ARC
  5
729F
  8
101購入品
 10
1017.2864
 20
426.21359999999999
 30
0.0
 40
1.0988999999999971
 50
89.999619211547326
 51
180.0003807884527
  0
ARC
  5
72A0
  8
101購入品
 10
1016.0
 20
427.5
 30
0.0
 40
1.3
 50
270.0
 51
278.29273728523788
  0
ARC
  5
72A1
  8
101購入品
 10
1016.0
 20
427.5
 30
0.0
 40
1.3
 50
261.70726271476212
 51
270.0
  0
ARC
  5
72A2
  8
101購入品
 10
1014.7136
 20
428.7863999999999
 30
0.0
 40
1.0988999999999971
 50
269.99961921154733
 51
0.0003807884526651
  0
ARC
  5
72A3
  8
101購入品
 10
1016.0
 20
427.5
 30
0.0
 40
1.3
 50
180.0
 51
188.29273728525089
  0
ARC
  5
72A4
  8
101購入品
 10
1016.0
 20
427.5
 30
0.0
 40
1.3
 50
171.70726271474899
 51
180.0
  0
ARC
  5
72A5
  8
101購入品
 10
1016.0
 20
427.5
 30
0.0
 40
1.3
 50
81.707262714762052
 51
90.0
  0
ARC
  5
72A6
  8
101購入品
 10
1016.0
 20
427.5
 30
0.0
 40
1.3
 50
90.0
 51
98.292737285237934
  0
ARC
  5
72A7
  8
101購入品
 10
1014.7136
 20
426.21359999999999
 30
0.0
 40
1.0988999999999971
 50
359.99961921156029
 51
90.000380788452674
  0
ARC
  5
72A8
  8
101購入品
 10
1016.0
 20
427.5
 30
0.0
 40
1.3
 50
0.0
 51
8.2927372852510057
  0
ARC
  5
72A9
  8
101購入品
 10
1016.0
 20
427.5
 30
0.0
 40
1.3
 50
351.70726271474899
 51
0.0
  0
LINE
  5
72AA
  8
001センタ
 10
1016.0
 20
430.99999999999972
 30
0.0
 11
1016.0
 21
424.0
 31
0.0
  0
LINE
  5
72AB
  8
001センタ
 10
1012.5
 20
427.5
 30
0.0
 11
1019.5
 21
427.5
 31
0.0
  0
CIRCLE
  5
72AC
  8
101購入品
 10
1067.0
 20
427.5
 30
0.0
 40
2.6000000000000001
  0
ARC
  5
72AD
  8
101購入品
 10
1068.2864
 20
428.7863999999999
 30
0.0
 40
1.0988999999999971
 50
179.9996192115604
 51
270.00038078845267
  0
ARC
  5
72AE
  8
101購入品
 10
1068.2864
 20
426.21359999999999
 30
0.0
 40
1.0988999999999971
 50
89.999619211547326
 51
180.0003807884527
  0
ARC
  5
72AF
  8
101購入品
 10
1067.0
 20
427.5
 30
0.0
 40
1.3
 50
270.0
 51
278.29273728523788
  0
ARC
  5
72B0
  8
101購入品
 10
1067.0
 20
427.5
 30
0.0
 40
1.3
 50
261.70726271476212
 51
270.0
  0
ARC
  5
72B1
  8
101購入品
 10
1065.7136
 20
428.7863999999999
 30
0.0
 40
1.0988999999999971
 50
269.99961921154733
 51
0.0003807884526651
  0
ARC
  5
72B2
  8
101購入品
 10
1067.0
 20
427.5
 30
0.0
 40
1.3
 50
180.0
 51
188.29273728525089
  0
ARC
  5
72B3
  8
101購入品
 10
1067.0
 20
427.5
 30
0.0
 40
1.3
 50
171.70726271474899
 51
180.0
  0
ARC
  5
72B4
  8
101購入品
 10
1067.0
 20
427.5
 30
0.0
 40
1.3
 50
81.707262714762052
 51
90.0
  0
ARC
  5
72B5
  8
101購入品
 10
1067.0
 20
427.5
 30
0.0
 40
1.3
 50
90.0
 51
98.292737285237934
  0
ARC
  5
72B6
  8
101購入品
 10
1065.7136
 20
426.21359999999999
 30
0.0
 40
1.0988999999999971
 50
359.99961921156029
 51
90.000380788452674
  0
ARC
  5
72B7
  8
101購入品
 10
1067.0
 20
427.5
 30
0.0
 40
1.3
 50
0.0
 51
8.2927372852510057
  0
ARC
  5
72B8
  8
101購入品
 10
1067.0
 20
427.5
 30
0.0
 40
1.3
 50
351.70726271474899
 51
0.0
  0
LINE
  5
72B9
  8
001センタ
 10
1067.0
 20
430.99999999999972
 30
0.0
 11
1067.0
 21
424.0
 31
0.0
  0
LINE
  5
72BA
  8
001センタ
 10
1063.5
 20
427.5
 30
0.0
 11
1070.5
 21
427.5
 31
0.0
  0
CIRCLE
  5
72BB
  8
101購入品
 10
1118.0
 20
427.5
 30
0.0
 40
2.6000000000000001
  0
ARC
  5
72BC
  8
101購入品
 10
1119.2864
 20
428.7863999999999
 30
0.0
 40
1.0988999999999971
 50
179.9996192115604
 51
270.00038078845267
  0
ARC
  5
72BD
  8
101購入品
 10
1119.2864
 20
426.21359999999999
 30
0.0
 40
1.0988999999999971
 50
89.999619211547326
 51
180.0003807884527
  0
ARC
  5
72BE
  8
101購入品
 10
1118.0
 20
427.5
 30
0.0
 40
1.3
 50
270.0
 51
278.29273728523788
  0
ARC
  5
72BF
  8
101購入品
 10
1118.0
 20
427.5
 30
0.0
 40
1.3
 50
261.70726271476212
 51
270.0
  0
ARC
  5
72C0
  8
101購入品
 10
1116.7136
 20
428.7863999999999
 30
0.0
 40
1.0988999999999971
 50
269.99961921154733
 51
0.0003807884526651
  0
ARC
  5
72C1
  8
101購入品
 10
1118.0
 20
427.5
 30
0.0
 40
1.3
 50
180.0
 51
188.29273728525089
  0
ARC
  5
72C2
  8
101購入品
 10
1118.0
 20
427.5
 30
0.0
 40
1.3
 50
171.70726271474899
 51
180.0
  0
ARC
  5
72C3
  8
101購入品
 10
1118.0
 20
427.5
 30
0.0
 40
1.3
 50
81.707262714762052
 51
90.0
  0
ARC
  5
72C4
  8
101購入品
 10
1118.0
 20
427.5
 30
0.0
 40
1.3
 50
90.0
 51
98.292737285237934
  0
ARC
  5
72C5
  8
101購入品
 10
1116.7136
 20
426.21359999999999
 30
0.0
 40
1.0988999999999971
 50
359.99961921156029
 51
90.000380788452674
  0
ARC
  5
72C6
  8
101購入品
 10
1118.0
 20
427.5
 30
0.0
 40
1.3
 50
0.0
 51
8.2927372852510057
  0
ARC
  5
72C7
  8
101購入品
 10
1118.0
 20
427.5
 30
0.0
 40
1.3
 50
351.70726271474899
 51
0.0
  0
LINE
  5
72C8
  8
001センタ
 10
1118.0
 20
430.99999999999972
 30
0.0
 11
1118.0
 21
424.0
 31
0.0
  0
LINE
  5
72C9
  8
001センタ
 10
1114.5
 20
427.5
 30
0.0
 11
1121.5
 21
427.5
 31
0.0
  0
CIRCLE
  5
72CA
  8
101購入品
 10
1169.0
 20
427.5
 30
0.0
 40
2.6000000000000001
  0
ARC
  5
72CB
  8
101購入品
 10
1170.2864
 20
428.7863999999999
 30
0.0
 40
1.0988999999999971
 50
179.9996192115604
 51
270.00038078845267
  0
ARC
  5
72CC
  8
101購入品
 10
1170.2864
 20
426.21359999999999
 30
0.0
 40
1.0988999999999971
 50
89.999619211547326
 51
180.0003807884527
  0
ARC
  5
72CD
  8
101購入品
 10
1169.0
 20
427.5
 30
0.0
 40
1.3
 50
270.0
 51
278.29273728523788
  0
ARC
  5
72CE
  8
101購入品
 10
1169.0
 20
427.5
 30
0.0
 40
1.3
 50
261.70726271476212
 51
270.0
  0
ARC
  5
72CF
  8
101購入品
 10
1167.7136
 20
428.7863999999999
 30
0.0
 40
1.0988999999999971
 50
269.99961921154733
 51
0.0003807884526651
  0
ARC
  5
72D0
  8
101購入品
 10
1169.0
 20
427.5
 30
0.0
 40
1.3
 50
180.0
 51
188.29273728525089
  0
ARC
  5
72D1
  8
101購入品
 10
1169.0
 20
427.5
 30
0.0
 40
1.3
 50
171.70726271474899
 51
180.0
  0
ARC
  5
72D2
  8
101購入品
 10
1169.0
 20
427.5
 30
0.0
 40
1.3
 50
81.707262714762052
 51
90.0
  0
ARC
  5
72D3
  8
101購入品
 10
1169.0
 20
427.5
 30
0.0
 40
1.3
 50
90.0
 51
98.292737285237934
  0
ARC
  5
72D4
  8
101購入品
 10
1167.7136
 20
426.21359999999999
 30
0.0
 40
1.0988999999999971
 50
359.99961921156029
 51
90.000380788452674
  0
ARC
  5
72D5
  8
101購入品
 10
1169.0
 20
427.5
 30
0.0
 40
1.3
 50
0.0
 51
8.2927372852510057
  0
ARC
  5
72D6
  8
101購入品
 10
1169.0
 20
427.5
 30
0.0
 40
1.3
 50
351.70726271474899
 51
0.0
  0
LINE
  5
72D7
  8
001センタ
 10
1169.0
 20
430.99999999999972
 30
0.0
 11
1169.0
 21
424.0
 31
0.0
  0
LINE
  5
72D8
  8
001センタ
 10
1165.5
 20
427.5
 30
0.0
 11
1172.5
 21
427.5
 31
0.0
  0
CIRCLE
  5
72D9
  8
101購入品
 10
1220.0
 20
427.5
 30
0.0
 40
2.6000000000000001
  0
ARC
  5
72DA
  8
101購入品
 10
1221.2864
 20
428.7863999999999
 30
0.0
 40
1.0988999999999971
 50
179.9996192115604
 51
270.00038078845267
  0
ARC
  5
72DB
  8
101購入品
 10
1221.2864
 20
426.21359999999999
 30
0.0
 40
1.0988999999999971
 50
89.999619211547326
 51
180.0003807884527
  0
ARC
  5
72DC
  8
101購入品
 10
1220.0
 20
427.5
 30
0.0
 40
1.3
 50
270.0
 51
278.29273728523788
  0
ARC
  5
72DD
  8
101購入品
 10
1220.0
 20
427.5
 30
0.0
 40
1.3
 50
261.70726271476212
 51
270.0
  0
ARC
  5
72DE
  8
101購入品
 10
1218.7136
 20
428.7863999999999
 30
0.0
 40
1.0988999999999971
 50
269.99961921154733
 51
0.0003807884526651
  0
ARC
  5
72DF
  8
101購入品
 10
1220.0
 20
427.5
 30
0.0
 40
1.3
 50
180.0
 51
188.29273728525089
  0
ARC
  5
72E0
  8
101購入品
 10
1220.0
 20
427.5
 30
0.0
 40
1.3
 50
171.70726271474899
 51
180.0
  0
ARC
  5
72E1
  8
101購入品
 10
1220.0
 20
427.5
 30
0.0
 40
1.3
 50
81.707262714762052
 51
90.0
  0
ARC
  5
72E2
  8
101購入品
 10
1220.0
 20
427.5
 30
0.0
 40
1.3
 50
90.0
 51
98.292737285237934
  0
ARC
  5
72E3
  8
101購入品
 10
1218.7136
 20
426.21359999999999
 30
0.0
 40
1.0988999999999971
 50
359.99961921156029
 51
90.000380788452674
  0
ARC
  5
72E4
  8
101購入品
 10
1220.0
 20
427.5
 30
0.0
 40
1.3
 50
0.0
 51
8.2927372852510057
  0
ARC
  5
72E5
  8
101購入品
 10
1220.0
 20
427.5
 30
0.0
 40
1.3
 50
351.70726271474899
 51
0.0
  0
LINE
  5
72E6
  8
001センタ
 10
1220.0
 20
430.99999999999972
 30
0.0
 11
1220.0
 21
424.0
 31
0.0
  0
LINE
  5
72E7
  8
001センタ
 10
1216.5
 20
427.5
 30
0.0
 11
1223.5
 21
427.5
 31
0.0
  0
POLYLINE
  5
72E8
  8
011形状
 66
     1
 10
0.0
 20
0.0
 30
0.0
 70
     1
  0
VERTEX
  5
7779
  8
011形状
 10
1000.5
 20
400.0
 30
0.0
  0
VERTEX
  5
777A
  8
011形状
 10
1206.5
 20
400.0
 30
0.0
 42
0.4142135623730951
  0
VERTEX
  5
777B
  8
011形状
 10
1211.5
 20
405.0
 30
0.0
  0
VERTEX
  5
777C
  8
011形状
 10
1211.5
 20
415.0
 30
0.0
 42
0.4142135623730951
  0
VERTEX
  5
777D
  8
011形状
 10
1206.5
 20
420.0
 30
0.0
  0
VERTEX
  5
777E
  8
011形状
 10
1000.5
 20
420.0
 30
0.0
 42
0.4142135623730951
  0
VERTEX
  5
777F
  8
011形状
 10
995.49999999999977
 20
415.0
 30
0.0
  0
VERTEX
  5
7780
  8
011形状
 10
995.49999999999977
 20
405.0
 30
0.0
 42
0.4142135623730951
  0
SEQEND
  5
7781
  8
011形状
  0
LINE
  5
72EB
  8
011形状
 10
1004.0
 20
402.0
 30
0.0
 11
1004.0
 21
410.0
 31
0.0
  0
LINE
  5
72EC
  8
011形状
 10
1014.0
 20
402.0
 30
0.0
 11
1014.0
 21
410.0
 31
0.0
  0
LINE
  5
72ED
  8
011形状
 10
1009.0
 20
402.0
 30
0.0
 11
1009.0
 21
408.0
 31
0.0
  0
LINE
  5
72EE
  8
011形状
 10
1005.0
 20
402.0
 30
0.0
 11
1005.0
 21
406.5
 31
0.0
  0
LINE
  5
72EF
  8
011形状
 10
1006.0
 20
402.0
 30
0.0
 11
1006.0
 21
406.5
 31
0.0
  0
LINE
  5
72F0
  8
011形状
 10
1007.0
 20
402.0
 30
0.0
 11
1007.0
 21
406.5
 31
0.0
  0
LINE
  5
72F1
  8
011形状
 10
1008.0
 20
402.0
 30
0.0
 11
1008.0
 21
406.5
 31
0.0
  0
LINE
  5
72F2
  8
011形状
 10
1010.0
 20
402.0
 30
0.0
 11
1010.0
 21
406.5
 31
0.0
  0
LINE
  5
72F3
  8
011形状
 10
1011.0
 20
402.0
 30
0.0
 11
1011.0
 21
406.5
 31
0.0
  0
LINE
  5
72F4
  8
011形状
 10
1012.0
 20
402.0
 30
0.0
 11
1012.0
 21
406.5
 31
0.0
  0
LINE
  5
72F5
  8
011形状
 10
1013.0
 20
402.0
 30
0.0
 11
1013.0
 21
406.5
 31
0.0
  0
INSERT
  5
72F6
  8
011形状
  2
*U43
 10
0.0
 20
0.0
 30
0.0
  0
INSERT
  5
72F7
  8
011形状
  2
*U44
 10
0.0
 20
0.0
 30
0.0
  0
LINE
  5
72F8
  8
011形状
 10
1024.0
 20
402.0
 30
0.0
 11
1024.0
 21
410.0
 31
0.0
  0
LINE
  5
72F9
  8
011形状
 10
1019.0
 20
402.0
 30
0.0
 11
1019.0
 21
408.0
 31
0.0
  0
LINE
  5
72FA
  8
011形状
 10
1015.0
 20
402.0
 30
0.0
 11
1015.0
 21
406.5
 31
0.0
  0
LINE
  5
72FB
  8
011形状
 10
1016.0
 20
402.0
 30
0.0
 11
1016.0
 21
406.5
 31
0.0
  0
LINE
  5
72FC
  8
011形状
 10
1017.0
 20
402.0
 30
0.0
 11
1017.0
 21
406.5
 31
0.0
  0
LINE
  5
72FD
  8
011形状
 10
1018.0
 20
402.0
 30
0.0
 11
1018.0
 21
406.5
 31
0.0
  0
LINE
  5
72FE
  8
011形状
 10
1020.0
 20
402.0
 30
0.0
 11
1020.0
 21
406.5
 31
0.0
  0
LINE
  5
72FF
  8
011形状
 10
1021.0
 20
402.0
 30
0.0
 11
1021.0
 21
406.5
 31
0.0
  0
LINE
  5
7300
  8
011形状
 10
1022.0
 20
402.0
 30
0.0
 11
1022.0
 21
406.5
 31
0.0
  0
LINE
  5
7301
  8
011形状
 10
1023.0
 20
402.0
 30
0.0
 11
1023.0
 21
406.5
 31
0.0
  0
INSERT
  5
7302
  8
011形状
  2
*U45
 10
0.0
 20
0.0
 30
0.0
  0
LINE
  5
7303
  8
011形状
 10
1034.0
 20
402.0
 30
0.0
 11
1034.0
 21
410.0
 31
0.0
  0
LINE
  5
7304
  8
011形状
 10
1029.0
 20
402.0
 30
0.0
 11
1029.0
 21
408.0
 31
0.0
  0
LINE
  5
7305
  8
011形状
 10
1025.0
 20
402.0
 30
0.0
 11
1025.0
 21
406.5
 31
0.0
  0
LINE
  5
7306
  8
011形状
 10
1026.0
 20
402.0
 30
0.0
 11
1026.0
 21
406.5
 31
0.0
  0
LINE
  5
7307
  8
011形状
 10
1027.0
 20
402.0
 30
0.0
 11
1027.0
 21
406.5
 31
0.0
  0
LINE
  5
7308
  8
011形状
 10
1028.0
 20
402.0
 30
0.0
 11
1028.0
 21
406.5
 31
0.0
  0
LINE
  5
7309
  8
011形状
 10
1030.0
 20
402.0
 30
0.0
 11
1030.0
 21
406.5
 31
0.0
  0
LINE
  5
730A
  8
011形状
 10
1031.0
 20
402.0
 30
0.0
 11
1031.0
 21
406.5
 31
0.0
  0
LINE
  5
730B
  8
011形状
 10
1032.0
 20
402.0
 30
0.0
 11
1032.0
 21
406.5
 31
0.0
  0
LINE
  5
730C
  8
011形状
 10
1033.0
 20
402.0
 30
0.0
 11
1033.0
 21
406.5
 31
0.0
  0
INSERT
  5
730D
  8
011形状
  2
*U46
 10
0.0
 20
0.0
 30
0.0
  0
LINE
  5
730E
  8
011形状
 10
1044.0
 20
402.0
 30
0.0
 11
1044.0
 21
410.0
 31
0.0
  0
LINE
  5
730F
  8
011形状
 10
1039.0
 20
402.0
 30
0.0
 11
1039.0
 21
408.0
 31
0.0
  0
LINE
  5
7310
  8
011形状
 10
1035.0
 20
402.0
 30
0.0
 11
1035.0
 21
406.5
 31
0.0
  0
LINE
  5
7311
  8
011形状
 10
1036.0
 20
402.0
 30
0.0
 11
1036.0
 21
406.5
 31
0.0
  0
LINE
  5
7312
  8
011形状
 10
1037.0
 20
402.0
 30
0.0
 11
1037.0
 21
406.5
 31
0.0
  0
LINE
  5
7313
  8
011形状
 10
1038.0
 20
402.0
 30
0.0
 11
1038.0
 21
406.5
 31
0.0
  0
LINE
  5
7314
  8
011形状
 10
1040.0
 20
402.0
 30
0.0
 11
1040.0
 21
406.5
 31
0.0
  0
LINE
  5
7315
  8
011形状
 10
1041.0
 20
402.0
 30
0.0
 11
1041.0
 21
406.5
 31
0.0
  0
LINE
  5
7316
  8
011形状
 10
1042.0
 20
402.0
 30
0.0
 11
1042.0
 21
406.5
 31
0.0
  0
LINE
  5
7317
  8
011形状
 10
1043.0
 20
402.0
 30
0.0
 11
1043.0
 21
406.5
 31
0.0
  0
INSERT
  5
7318
  8
011形状
  2
*U47
 10
0.0
 20
0.0
 30
0.0
  0
LINE
  5
7319
  8
011形状
 10
1054.0
 20
402.0
 30
0.0
 11
1054.0
 21
410.0
 31
0.0
  0
LINE
  5
731A
  8
011形状
 10
1049.0
 20
402.0
 30
0.0
 11
1049.0
 21
408.0
 31
0.0
  0
LINE
  5
731B
  8
011形状
 10
1045.0
 20
402.0
 30
0.0
 11
1045.0
 21
406.5
 31
0.0
  0
LINE
  5
731C
  8
011形状
 10
1046.0
 20
402.0
 30
0.0
 11
1046.0
 21
406.5
 31
0.0
  0
LINE
  5
731D
  8
011形状
 10
1047.0
 20
402.0
 30
0.0
 11
1047.0
 21
406.5
 31
0.0
  0
LINE
  5
731E
  8
011形状
 10
1048.0
 20
402.0
 30
0.0
 11
1048.0
 21
406.5
 31
0.0
  0
LINE
  5
731F
  8
011形状
 10
1050.0
 20
402.0
 30
0.0
 11
1050.0
 21
406.5
 31
0.0
  0
LINE
  5
7320
  8
011形状
 10
1051.0
 20
402.0
 30
0.0
 11
1051.0
 21
406.5
 31
0.0
  0
LINE
  5
7321
  8
011形状
 10
1052.0
 20
402.0
 30
0.0
 11
1052.0
 21
406.5
 31
0.0
  0
LINE
  5
7322
  8
011形状
 10
1053.0
 20
402.0
 30
0.0
 11
1053.0
 21
406.5
 31
0.0
  0
INSERT
  5
7323
  8
011形状
  2
*U48
 10
0.0
 20
0.0
 30
0.0
  0
LINE
  5
7324
  8
011形状
 10
1064.0
 20
402.0
 30
0.0
 11
1064.0
 21
410.0
 31
0.0
  0
LINE
  5
7325
  8
011形状
 10
1059.0
 20
402.0
 30
0.0
 11
1059.0
 21
408.0
 31
0.0
  0
LINE
  5
7326
  8
011形状
 10
1055.0
 20
402.0
 30
0.0
 11
1055.0
 21
406.5
 31
0.0
  0
LINE
  5
7327
  8
011形状
 10
1056.0
 20
402.0
 30
0.0
 11
1056.0
 21
406.5
 31
0.0
  0
LINE
  5
7328
  8
011形状
 10
1057.0
 20
402.0
 30
0.0
 11
1057.0
 21
406.5
 31
0.0
  0
LINE
  5
7329
  8
011形状
 10
1058.0
 20
402.0
 30
0.0
 11
1058.0
 21
406.5
 31
0.0
  0
LINE
  5
732A
  8
011形状
 10
1060.0
 20
402.0
 30
0.0
 11
1060.0
 21
406.5
 31
0.0
  0
LINE
  5
732B
  8
011形状
 10
1061.0
 20
402.0
 30
0.0
 11
1061.0
 21
406.5
 31
0.0
  0
LINE
  5
732C
  8
011形状
 10
1062.0
 20
402.0
 30
0.0
 11
1062.0
 21
406.5
 31
0.0
  0
LINE
  5
732D
  8
011形状
 10
1063.0
 20
402.0
 30
0.0
 11
1063.0
 21
406.5
 31
0.0
  0
INSERT
  5
732E
  8
011形状
  2
*U49
 10
0.0
 20
0.0
 30
0.0
  0
LINE
  5
732F
  8
011形状
 10
1074.0
 20
402.0
 30
0.0
 11
1074.0
 21
410.0
 31
0.0
  0
LINE
  5
7330
  8
011形状
 10
1069.0
 20
402.0
 30
0.0
 11
1069.0
 21
408.0
 31
0.0
  0
LINE
  5
7331
  8
011形状
 10
1065.0
 20
402.0
 30
0.0
 11
1065.0
 21
406.5
 31
0.0
  0
LINE
  5
7332
  8
011形状
 10
1066.0
 20
402.0
 30
0.0
 11
1066.0
 21
406.5
 31
0.0
  0
LINE
  5
7333
  8
011形状
 10
1067.0
 20
402.0
 30
0.0
 11
1067.0
 21
406.5
 31
0.0
  0
LINE
  5
7334
  8
011形状
 10
1068.0
 20
402.0
 30
0.0
 11
1068.0
 21
406.5
 31
0.0
  0
LINE
  5
7335
  8
011形状
 10
1070.0
 20
402.0
 30
0.0
 11
1070.0
 21
406.5
 31
0.0
  0
LINE
  5
7336
  8
011形状
 10
1071.0
 20
402.0
 30
0.0
 11
1071.0
 21
406.5
 31
0.0
  0
LINE
  5
7337
  8
011形状
 10
1072.0
 20
402.0
 30
0.0
 11
1072.0
 21
406.5
 31
0.0
  0
LINE
  5
7338
  8
011形状
 10
1073.0
 20
402.0
 30
0.0
 11
1073.0
 21
406.5
 31
0.0
  0
INSERT
  5
7339
  8
011形状
  2
*U50
 10
0.0
 20
0.0
 30
0.0
  0
LINE
  5
733A
  8
011形状
 10
1084.0
 20
402.0
 30
0.0
 11
1084.0
 21
410.0
 31
0.0
  0
LINE
  5
733B
  8
011形状
 10
1079.0
 20
402.0
 30
0.0
 11
1079.0
 21
408.0
 31
0.0
  0
LINE
  5
733C
  8
011形状
 10
1075.0
 20
402.0
 30
0.0
 11
1075.0
 21
406.5
 31
0.0
  0
LINE
  5
733D
  8
011形状
 10
1076.0
 20
402.0
 30
0.0
 11
1076.0
 21
406.5
 31
0.0
  0
LINE
  5
733E
  8
011形状
 10
1077.0
 20
402.0
 30
0.0
 11
1077.0
 21
406.5
 31
0.0
  0
LINE
  5
733F
  8
011形状
 10
1078.0
 20
402.0
 30
0.0
 11
1078.0
 21
406.5
 31
0.0
  0
LINE
  5
7340
  8
011形状
 10
1080.0
 20
402.0
 30
0.0
 11
1080.0
 21
406.5
 31
0.0
  0
LINE
  5
7341
  8
011形状
 10
1081.0
 20
402.0
 30
0.0
 11
1081.0
 21
406.5
 31
0.0
  0
LINE
  5
7342
  8
011形状
 10
1082.0
 20
402.0
 30
0.0
 11
1082.0
 21
406.5
 31
0.0
  0
LINE
  5
7343
  8
011形状
 10
1083.0
 20
402.0
 30
0.0
 11
1083.0
 21
406.5
 31
0.0
  0
INSERT
  5
7344
  8
011形状
  2
*U51
 10
0.0
 20
0.0
 30
0.0
  0
LINE
  5
7345
  8
011形状
 10
1094.0
 20
402.0
 30
0.0
 11
1094.0
 21
410.0
 31
0.0
  0
LINE
  5
7346
  8
011形状
 10
1089.0
 20
402.0
 30
0.0
 11
1089.0
 21
408.0
 31
0.0
  0
LINE
  5
7347
  8
011形状
 10
1085.0
 20
402.0
 30
0.0
 11
1085.0
 21
406.5
 31
0.0
  0
LINE
  5
7348
  8
011形状
 10
1086.0
 20
402.0
 30
0.0
 11
1086.0
 21
406.5
 31
0.0
  0
LINE
  5
7349
  8
011形状
 10
1087.0
 20
402.0
 30
0.0
 11
1087.0
 21
406.5
 31
0.0
  0
LINE
  5
734A
  8
011形状
 10
1088.0
 20
402.0
 30
0.0
 11
1088.0
 21
406.5
 31
0.0
  0
LINE
  5
734B
  8
011形状
 10
1090.0
 20
402.0
 30
0.0
 11
1090.0
 21
406.5
 31
0.0
  0
LINE
  5
734C
  8
011形状
 10
1091.0
 20
402.0
 30
0.0
 11
1091.0
 21
406.5
 31
0.0
  0
LINE
  5
734D
  8
011形状
 10
1092.0
 20
402.0
 30
0.0
 11
1092.0
 21
406.5
 31
0.0
  0
LINE
  5
734E
  8
011形状
 10
1093.0
 20
402.0
 30
0.0
 11
1093.0
 21
406.5
 31
0.0
  0
INSERT
  5
734F
  8
011形状
  2
*U52
 10
0.0
 20
0.0
 30
0.0
  0
LINE
  5
7350
  8
011形状
 10
1104.0
 20
402.0
 30
0.0
 11
1104.0
 21
410.0
 31
0.0
  0
LINE
  5
7351
  8
011形状
 10
1099.0
 20
402.0
 30
0.0
 11
1099.0
 21
408.0
 31
0.0
  0
LINE
  5
7352
  8
011形状
 10
1095.0
 20
402.0
 30
0.0
 11
1095.0
 21
406.5
 31
0.0
  0
LINE
  5
7353
  8
011形状
 10
1096.0
 20
402.0
 30
0.0
 11
1096.0
 21
406.5
 31
0.0
  0
LINE
  5
7354
  8
011形状
 10
1097.0
 20
402.0
 30
0.0
 11
1097.0
 21
406.5
 31
0.0
  0
LINE
  5
7355
  8
011形状
 10
1098.0
 20
402.0
 30
0.0
 11
1098.0
 21
406.5
 31
0.0
  0
LINE
  5
7356
  8
011形状
 10
1100.0
 20
402.0
 30
0.0
 11
1100.0
 21
406.5
 31
0.0
  0
LINE
  5
7357
  8
011形状
 10
1101.0
 20
402.0
 30
0.0
 11
1101.0
 21
406.5
 31
0.0
  0
LINE
  5
7358
  8
011形状
 10
1102.0
 20
402.0
 30
0.0
 11
1102.0
 21
406.5
 31
0.0
  0
LINE
  5
7359
  8
011形状
 10
1103.0
 20
402.0
 30
0.0
 11
1103.0
 21
406.5
 31
0.0
  0
INSERT
  5
735A
  8
011形状
  2
*U53
 10
0.0
 20
0.0
 30
0.0
  0
LINE
  5
735B
  8
011形状
 10
1114.0
 20
402.0
 30
0.0
 11
1114.0
 21
410.0
 31
0.0
  0
LINE
  5
735C
  8
011形状
 10
1109.0
 20
402.0
 30
0.0
 11
1109.0
 21
408.0
 31
0.0
  0
LINE
  5
735D
  8
011形状
 10
1105.0
 20
402.0
 30
0.0
 11
1105.0
 21
406.5
 31
0.0
  0
LINE
  5
735E
  8
011形状
 10
1106.0
 20
402.0
 30
0.0
 11
1106.0
 21
406.5
 31
0.0
  0
LINE
  5
735F
  8
011形状
 10
1107.0
 20
402.0
 30
0.0
 11
1107.0
 21
406.5
 31
0.0
  0
LINE
  5
7360
  8
011形状
 10
1108.0
 20
402.0
 30
0.0
 11
1108.0
 21
406.5
 31
0.0
  0
LINE
  5
7361
  8
011形状
 10
1110.0
 20
402.0
 30
0.0
 11
1110.0
 21
406.5
 31
0.0
  0
LINE
  5
7362
  8
011形状
 10
1111.0
 20
402.0
 30
0.0
 11
1111.0
 21
406.5
 31
0.0
  0
LINE
  5
7363
  8
011形状
 10
1112.0
 20
402.0
 30
0.0
 11
1112.0
 21
406.5
 31
0.0
  0
LINE
  5
7364
  8
011形状
 10
1113.0
 20
402.0
 30
0.0
 11
1113.0
 21
406.5
 31
0.0
  0
INSERT
  5
7365
  8
011形状
  2
*U54
 10
0.0
 20
0.0
 30
0.0
  0
LINE
  5
7366
  8
011形状
 10
1124.0
 20
402.0
 30
0.0
 11
1124.0
 21
410.0
 31
0.0
  0
LINE
  5
7367
  8
011形状
 10
1119.0
 20
402.0
 30
0.0
 11
1119.0
 21
408.0
 31
0.0
  0
LINE
  5
7368
  8
011形状
 10
1115.0
 20
402.0
 30
0.0
 11
1115.0
 21
406.5
 31
0.0
  0
LINE
  5
7369
  8
011形状
 10
1116.0
 20
402.0
 30
0.0
 11
1116.0
 21
406.5
 31
0.0
  0
LINE
  5
736A
  8
011形状
 10
1117.0
 20
402.0
 30
0.0
 11
1117.0
 21
406.5
 31
0.0
  0
LINE
  5
736B
  8
011形状
 10
1118.0
 20
402.0
 30
0.0
 11
1118.0
 21
406.5
 31
0.0
  0
LINE
  5
736C
  8
011形状
 10
1120.0
 20
402.0
 30
0.0
 11
1120.0
 21
406.5
 31
0.0
  0
LINE
  5
736D
  8
011形状
 10
1121.0
 20
402.0
 30
0.0
 11
1121.0
 21
406.5
 31
0.0
  0
LINE
  5
736E
  8
011形状
 10
1122.0
 20
402.0
 30
0.0
 11
1122.0
 21
406.5
 31
0.0
  0
LINE
  5
736F
  8
011形状
 10
1123.0
 20
402.0
 30
0.0
 11
1123.0
 21
406.5
 31
0.0
  0
INSERT
  5
7370
  8
011形状
  2
*U55
 10
0.0
 20
0.0
 30
0.0
  0
LINE
  5
7371
  8
011形状
 10
1134.0
 20
402.0
 30
0.0
 11
1134.0
 21
410.0
 31
0.0
  0
LINE
  5
7372
  8
011形状
 10
1129.0
 20
402.0
 30
0.0
 11
1129.0
 21
408.0
 31
0.0
  0
LINE
  5
7373
  8
011形状
 10
1125.0
 20
402.0
 30
0.0
 11
1125.0
 21
406.5
 31
0.0
  0
LINE
  5
7374
  8
011形状
 10
1126.0
 20
402.0
 30
0.0
 11
1126.0
 21
406.5
 31
0.0
  0
LINE
  5
7375
  8
011形状
 10
1127.0
 20
402.0
 30
0.0
 11
1127.0
 21
406.5
 31
0.0
  0
LINE
  5
7376
  8
011形状
 10
1128.0
 20
402.0
 30
0.0
 11
1128.0
 21
406.5
 31
0.0
  0
LINE
  5
7377
  8
011形状
 10
1130.0
 20
402.0
 30
0.0
 11
1130.0
 21
406.5
 31
0.0
  0
LINE
  5
7378
  8
011形状
 10
1131.0
 20
402.0
 30
0.0
 11
1131.0
 21
406.5
 31
0.0
  0
LINE
  5
7379
  8
011形状
 10
1132.0
 20
402.0
 30
0.0
 11
1132.0
 21
406.5
 31
0.0
  0
LINE
  5
737A
  8
011形状
 10
1133.0
 20
402.0
 30
0.0
 11
1133.0
 21
406.5
 31
0.0
  0
INSERT
  5
737B
  8
011形状
  2
*U56
 10
0.0
 20
0.0
 30
0.0
  0
LINE
  5
737C
  8
011形状
 10
1144.0
 20
402.0
 30
0.0
 11
1144.0
 21
410.0
 31
0.0
  0
LINE
  5
737D
  8
011形状
 10
1139.0
 20
402.0
 30
0.0
 11
1139.0
 21
408.0
 31
0.0
  0
LINE
  5
737E
  8
011形状
 10
1135.0
 20
402.0
 30
0.0
 11
1135.0
 21
406.5
 31
0.0
  0
LINE
  5
737F
  8
011形状
 10
1136.0
 20
402.0
 30
0.0
 11
1136.0
 21
406.5
 31
0.0
  0
LINE
  5
7380
  8
011形状
 10
1137.0
 20
402.0
 30
0.0
 11
1137.0
 21
406.5
 31
0.0
  0
LINE
  5
7381
  8
011形状
 10
1138.0
 20
402.0
 30
0.0
 11
1138.0
 21
406.5
 31
0.0
  0
LINE
  5
7382
  8
011形状
 10
1140.0
 20
402.0
 30
0.0
 11
1140.0
 21
406.5
 31
0.0
  0
LINE
  5
7383
  8
011形状
 10
1141.0
 20
402.0
 30
0.0
 11
1141.0
 21
406.5
 31
0.0
  0
LINE
  5
7384
  8
011形状
 10
1142.0
 20
402.0
 30
0.0
 11
1142.0
 21
406.5
 31
0.0
  0
LINE
  5
7385
  8
011形状
 10
1143.0
 20
402.0
 30
0.0
 11
1143.0
 21
406.5
 31
0.0
  0
INSERT
  5
7386
  8
011形状
  2
*U57
 10
0.0
 20
0.0
 30
0.0
  0
LINE
  5
7387
  8
011形状
 10
1154.0
 20
402.0
 30
0.0
 11
1154.0
 21
410.0
 31
0.0
  0
LINE
  5
7388
  8
011形状
 10
1149.0
 20
402.0
 30
0.0
 11
1149.0
 21
408.0
 31
0.0
  0
LINE
  5
7389
  8
011形状
 10
1145.0
 20
402.0
 30
0.0
 11
1145.0
 21
406.5
 31
0.0
  0
LINE
  5
738A
  8
011形状
 10
1146.0
 20
402.0
 30
0.0
 11
1146.0
 21
406.5
 31
0.0
  0
LINE
  5
738B
  8
011形状
 10
1147.0
 20
402.0
 30
0.0
 11
1147.0
 21
406.5
 31
0.0
  0
LINE
  5
738C
  8
011形状
 10
1148.0
 20
402.0
 30
0.0
 11
1148.0
 21
406.5
 31
0.0
  0
LINE
  5
738D
  8
011形状
 10
1150.0
 20
402.0
 30
0.0
 11
1150.0
 21
406.5
 31
0.0
  0
LINE
  5
738E
  8
011形状
 10
1151.0
 20
402.0
 30
0.0
 11
1151.0
 21
406.5
 31
0.0
  0
LINE
  5
738F
  8
011形状
 10
1152.0
 20
402.0
 30
0.0
 11
1152.0
 21
406.5
 31
0.0
  0
LINE
  5
7390
  8
011形状
 10
1153.0
 20
402.0
 30
0.0
 11
1153.0
 21
406.5
 31
0.0
  0
INSERT
  5
7391
  8
011形状
  2
*U58
 10
0.0
 20
0.0
 30
0.0
  0
LINE
  5
7392
  8
011形状
 10
1164.0
 20
402.0
 30
0.0
 11
1164.0
 21
410.0
 31
0.0
  0
LINE
  5
7393
  8
011形状
 10
1159.0
 20
402.0
 30
0.0
 11
1159.0
 21
408.0
 31
0.0
  0
LINE
  5
7394
  8
011形状
 10
1155.0
 20
402.0
 30
0.0
 11
1155.0
 21
406.5
 31
0.0
  0
LINE
  5
7395
  8
011形状
 10
1156.0
 20
402.0
 30
0.0
 11
1156.0
 21
406.5
 31
0.0
  0
LINE
  5
7396
  8
011形状
 10
1157.0
 20
402.0
 30
0.0
 11
1157.0
 21
406.5
 31
0.0
  0
LINE
  5
7397
  8
011形状
 10
1158.0
 20
402.0
 30
0.0
 11
1158.0
 21
406.5
 31
0.0
  0
LINE
  5
7398
  8
011形状
 10
1160.0
 20
402.0
 30
0.0
 11
1160.0
 21
406.5
 31
0.0
  0
LINE
  5
7399
  8
011形状
 10
1161.0
 20
402.0
 30
0.0
 11
1161.0
 21
406.5
 31
0.0
  0
LINE
  5
739A
  8
011形状
 10
1162.0
 20
402.0
 30
0.0
 11
1162.0
 21
406.5
 31
0.0
  0
LINE
  5
739B
  8
011形状
 10
1163.0
 20
402.0
 30
0.0
 11
1163.0
 21
406.5
 31
0.0
  0
INSERT
  5
739C
  8
011形状
  2
*U59
 10
0.0
 20
0.0
 30
0.0
  0
LINE
  5
739D
  8
011形状
 10
1174.0
 20
402.0
 30
0.0
 11
1174.0
 21
410.0
 31
0.0
  0
LINE
  5
739E
  8
011形状
 10
1169.0
 20
402.0
 30
0.0
 11
1169.0
 21
408.0
 31
0.0
  0
LINE
  5
739F
  8
011形状
 10
1165.0
 20
402.0
 30
0.0
 11
1165.0
 21
406.5
 31
0.0
  0
LINE
  5
73A0
  8
011形状
 10
1166.0
 20
402.0
 30
0.0
 11
1166.0
 21
406.5
 31
0.0
  0
LINE
  5
73A1
  8
011形状
 10
1167.0
 20
402.0
 30
0.0
 11
1167.0
 21
406.5
 31
0.0
  0
LINE
  5
73A2
  8
011形状
 10
1168.0
 20
402.0
 30
0.0
 11
1168.0
 21
406.5
 31
0.0
  0
LINE
  5
73A3
  8
011形状
 10
1170.0
 20
402.0
 30
0.0
 11
1170.0
 21
406.5
 31
0.0
  0
LINE
  5
73A4
  8
011形状
 10
1171.0
 20
402.0
 30
0.0
 11
1171.0
 21
406.5
 31
0.0
  0
LINE
  5
73A5
  8
011形状
 10
1172.0
 20
402.0
 30
0.0
 11
1172.0
 21
406.5
 31
0.0
  0
LINE
  5
73A6
  8
011形状
 10
1173.0
 20
402.0
 30
0.0
 11
1173.0
 21
406.5
 31
0.0
  0
INSERT
  5
73A7
  8
011形状
  2
*U60
 10
0.0
 20
0.0
 30
0.0
  0
LINE
  5
73A8
  8
011形状
 10
1184.0
 20
402.0
 30
0.0
 11
1184.0
 21
410.0
 31
0.0
  0
LINE
  5
73A9
  8
011形状
 10
1179.0
 20
402.0
 30
0.0
 11
1179.0
 21
408.0
 31
0.0
  0
LINE
  5
73AA
  8
011形状
 10
1175.0
 20
402.0
 30
0.0
 11
1175.0
 21
406.5
 31
0.0
  0
LINE
  5
73AB
  8
011形状
 10
1176.0
 20
402.0
 30
0.0
 11
1176.0
 21
406.5
 31
0.0
  0
LINE
  5
73AC
  8
011形状
 10
1177.0
 20
402.0
 30
0.0
 11
1177.0
 21
406.5
 31
0.0
  0
LINE
  5
73AD
  8
011形状
 10
1178.0
 20
402.0
 30
0.0
 11
1178.0
 21
406.5
 31
0.0
  0
LINE
  5
73AE
  8
011形状
 10
1180.0
 20
402.0
 30
0.0
 11
1180.0
 21
406.5
 31
0.0
  0
LINE
  5
73AF
  8
011形状
 10
1181.0
 20
402.0
 30
0.0
 11
1181.0
 21
406.5
 31
0.0
  0
LINE
  5
73B0
  8
011形状
 10
1182.0
 20
402.0
 30
0.0
 11
1182.0
 21
406.5
 31
0.0
  0
LINE
  5
73B1
  8
011形状
 10
1183.0
 20
402.0
 30
0.0
 11
1183.0
 21
406.5
 31
0.0
  0
INSERT
  5
73B2
  8
011形状
  2
*U61
 10
0.0
 20
0.0
 30
0.0
  0
LINE
  5
73B3
  8
011形状
 10
1194.0
 20
402.0
 30
0.0
 11
1194.0
 21
410.0
 31
0.0
  0
LINE
  5
73B4
  8
011形状
 10
1189.0
 20
402.0
 30
0.0
 11
1189.0
 21
408.0
 31
0.0
  0
LINE
  5
73B5
  8
011形状
 10
1185.0
 20
402.0
 30
0.0
 11
1185.0
 21
406.5
 31
0.0
  0
LINE
  5
73B6
  8
011形状
 10
1186.0
 20
402.0
 30
0.0
 11
1186.0
 21
406.5
 31
0.0
  0
LINE
  5
73B7
  8
011形状
 10
1187.0
 20
402.0
 30
0.0
 11
1187.0
 21
406.5
 31
0.0
  0
LINE
  5
73B8
  8
011形状
 10
1188.0
 20
402.0
 30
0.0
 11
1188.0
 21
406.5
 31
0.0
  0
LINE
  5
73B9
  8
011形状
 10
1190.0
 20
402.0
 30
0.0
 11
1190.0
 21
406.5
 31
0.0
  0
LINE
  5
73BA
  8
011形状
 10
1191.0
 20
402.0
 30
0.0
 11
1191.0
 21
406.5
 31
0.0
  0
LINE
  5
73BB
  8
011形状
 10
1192.0
 20
402.0
 30
0.0
 11
1192.0
 21
406.5
 31
0.0
  0
LINE
  5
73BC
  8
011形状
 10
1193.0
 20
402.0
 30
0.0
 11
1193.0
 21
406.5
 31
0.0
  0
INSERT
  5
73BD
  8
011形状
  2
*U62
 10
0.0
 20
0.0
 30
0.0
  0
LINE
  5
73BE
  8
011形状
 10
1204.0
 20
402.0
 30
0.0
 11
1204.0
 21
410.0
 31
0.0
  0
LINE
  5
73BF
  8
011形状
 10
1199.0
 20
402.0
 30
0.0
 11
1199.0
 21
408.0
 31
0.0
  0
LINE
  5
73C0
  8
011形状
 10
1195.0
 20
402.0
 30
0.0
 11
1195.0
 21
406.5
 31
0.0
  0
LINE
  5
73C1
  8
011形状
 10
1196.0
 20
402.0
 30
0.0
 11
1196.0
 21
406.5
 31
0.0
  0
LINE
  5
73C2
  8
011形状
 10
1197.0
 20
402.0
 30
0.0
 11
1197.0
 21
406.5
 31
0.0
  0
LINE
  5
73C3
  8
011形状
 10
1198.0
 20
402.0
 30
0.0
 11
1198.0
 21
406.5
 31
0.0
  0
LINE
  5
73C4
  8
011形状
 10
1200.0
 20
402.0
 30
0.0
 11
1200.0
 21
406.5
 31
0.0
  0
LINE
  5
73C5
  8
011形状
 10
1201.0
 20
402.0
 30
0.0
 11
1201.0
 21
406.5
 31
0.0
  0
LINE
  5
73C6
  8
011形状
 10
1202.0
 20
402.0
 30
0.0
 11
1202.0
 21
406.5
 31
0.0
  0
LINE
  5
73C7
  8
011形状
 10
1203.0
 20
402.0
 30
0.0
 11
1203.0
 21
406.5
 31
0.0
  0
INSERT
  5
73C8
  8
011形状
  2
*U63
 10
0.0
 20
0.0
 30
0.0
  0
LINE
  5
73C9
  8
011形状
 10
960.0
 20
246.45523951789389
 30
0.0
 11
960.0
 21
265.45523951789392
 31
0.0
  0
LINE
  5
73CA
  8
011形状
 10
959.0
 20
246.45523951789389
 30
0.0
 11
959.0
 21
265.45523951789392
 31
0.0
  0
LINE
  5
73CB
  8
011形状
 10
958.0
 20
248.95523951789389
 30
0.0
 11
958.0
 21
262.95523951789392
 31
0.0
  0
LINE
  5
73CC
  8
011形状
 10
958.0
 20
248.95523951789389
 30
0.0
 11
959.0
 21
246.45523951789389
 31
0.0
  0
LINE
  5
73CD
  8
011形状
 10
959.0
 20
246.45523951789389
 30
0.0
 11
960.0
 21
246.45523951789389
 31
0.0
  0
LINE
  5
73CE
  8
011形状
 10
958.0
 20
262.95523951789392
 30
0.0
 11
959.0
 21
265.45523951789392
 31
0.0
  0
LINE
  5
73CF
  8
011形状
 10
959.0
 20
265.45523951789392
 30
0.0
 11
960.0
 21
265.45523951789392
 31
0.0
  0
LINE
  5
73D0
  8
011形状
 10
940.0
 20
252.95523951789389
 30
0.0
 11
940.0
 21
258.95523951789392
 31
0.0
  0
LINE
  5
73D1
  8
011形状
 10
940.0
 20
258.95523951789392
 30
0.0
 11
941.0
 21
260.95523951789392
 31
0.0
  0
LINE
  5
73D2
  8
011形状
 10
941.0
 20
260.95523951789392
 30
0.0
 11
958.0
 21
260.95523951789392
 31
0.0
  0
LINE
  5
73D3
  8
011形状
 10
940.0
 20
252.95523951789389
 30
0.0
 11
941.0
 21
250.95523951789389
 31
0.0
  0
LINE
  5
73D4
  8
011形状
 10
941.0
 20
250.95523951789389
 30
0.0
 11
958.0
 21
250.95523951789389
 31
0.0
  0
LINE
  5
73D5
  8
011形状
 10
941.0
 20
250.95523951789389
 30
0.0
 11
941.0
 21
260.95523951789392
 31
0.0
  0
LINE
  5
73D6
  8
011形状
 10
959.0
 20
400.49999999999989
 30
0.0
 11
959.0
 21
419.5
 31
0.0
  0
LINE
  5
73D7
  8
011形状
 10
958.0
 20
403.0
 30
0.0
 11
958.0
 21
417.0
 31
0.0
  0
LINE
  5
73D8
  8
011形状
 10
958.0
 20
403.0
 30
0.0
 11
959.0
 21
400.49999999999989
 31
0.0
  0
LINE
  5
73D9
  8
011形状
 10
959.0
 20
400.49999999999989
 30
0.0
 11
959.49999999999977
 21
400.49999999999989
 31
0.0
  0
LINE
  5
73DA
  8
011形状
 10
958.0
 20
417.0
 30
0.0
 11
959.0
 21
419.5
 31
0.0
  0
LINE
  5
73DB
  8
011形状
 10
959.0
 20
419.5
 30
0.0
 11
959.49999999999977
 21
419.5
 31
0.0
  0
LINE
  5
73DC
  8
011形状
 10
940.0
 20
407.0
 30
0.0
 11
940.0
 21
413.0
 31
0.0
  0
LINE
  5
73DD
  8
011形状
 10
940.0
 20
413.0
 30
0.0
 11
941.0
 21
415.0
 31
0.0
  0
LINE
  5
73DE
  8
011形状
 10
941.0
 20
415.0
 30
0.0
 11
958.0
 21
415.0
 31
0.0
  0
LINE
  5
73DF
  8
011形状
 10
940.0
 20
407.0
 30
0.0
 11
941.0
 21
405.0
 31
0.0
  0
LINE
  5
73E0
  8
011形状
 10
941.0
 20
405.0
 30
0.0
 11
958.0
 21
405.0
 31
0.0
  0
LINE
  5
73E1
  8
011形状
 10
941.0
 20
405.0
 30
0.0
 11
941.0
 21
415.0
 31
0.0
  0
LINE
  5
73E2
  8
011形状
 10
1225.0
 20
264.95523951789392
 30
0.0
 11
1225.0
 21
252.97577094299999
 31
0.0
  0
LINE
  5
73E3
  8
011形状
 10
1226.0
 20
264.95523951789392
 30
0.0
 11
1225.9999999999991
 21
253.0
 31
0.0
  0
LINE
  5
73E4
  8
011形状
 10
1227.0
 20
262.95523951789392
 30
0.0
 11
1227.0
 21
252.5
 31
0.0
  0
LINE
  5
73E5
  8
011形状
 10
1227.0
 20
262.95523951789392
 30
0.0
 11
1226.0
 21
264.95523951789392
 31
0.0
  0
LINE
  5
73E6
  8
011形状
 10
1226.0
 20
264.95523951789392
 30
0.0
 11
1225.0
 21
264.95523951789392
 31
0.0
  0
LINE
  5
73E7
  8
011形状
 10
1226.0
 20
419.0
 30
0.0
 11
1226.0
 21
402.24999999999989
 31
0.0
  0
LINE
  5
73E8
  8
011形状
 10
1226.0
 20
401.75
 30
0.0
 11
1226.0
 21
401.73431348299999
 31
0.0
  0
LINE
  5
73E9
  8
011形状
 10
1227.0
 20
416.5
 30
0.0
 11
1227.0
 21
402.5
 31
0.0
  0
LINE
  5
73EA
  8
011形状
 10
1227.0
 20
416.5
 30
0.0
 11
1226.0
 21
419.0
 31
0.0
  0
LINE
  5
73EB
  8
011形状
 10
1226.0
 20
419.0
 30
0.0
 11
1225.5
 21
419.0
 31
0.0
  0
LINE
  5
73EC
  8
011形状
 10
1227.0
 20
402.5
 30
0.0
 11
1226.875
 21
402.24999999999989
 31
0.0
  0
LINE
  5
73ED
  8
011形状
 10
1230.0
 20
407.0
 30
0.0
 11
1230.0
 21
413.0
 31
0.0
  0
LINE
  5
73EE
  8
011形状
 10
734.0
 20
407.0
 30
0.0
 11
734.0
 21
413.0
 31
0.0
  0
LINE
  5
73EF
  8
011形状
 10
1230.0
 20
412.25
 30
0.0
 11
1232.0
 21
412.25
 31
0.0
  0
LINE
  5
73F0
  8
011形状
 10
1230.0
 20
407.74999999999989
 30
0.0
 11
1232.0
 21
407.74999999999989
 31
0.0
  0
LINE
  5
73F1
  8
011形状
 10
1232.0
 20
414.0
 30
0.0
 11
1232.0
 21
406.0
 31
0.0
  0
LINE
  5
73F2
  8
011形状
 10
1232.0
 20
406.0
 30
0.0
 11
1233.0
 21
406.0
 31
0.0
  0
LINE
  5
73F3
  8
011形状
 10
1233.0
 20
406.0
 30
0.0
 11
1233.0
 21
414.0
 31
0.0
  0
INSERT
  5
73F4
  8
011形状
  6
CONTINUOUS
 62
     1
  2
*X64
 10
0.0
 20
0.0
 30
0.0
1001
GRADIENTCOLOR1ACI
1070
     5
1001
GRADIENTCOLOR2ACI
1070
     2
1001
ACAD
1000
HATCH
1002
{
1070
    19
1000
ANSI31
1040
0.2
1040
2.3561944901923439
1000
R14_HATCH_DATA
1000
73F4
1011
1.0
1021
6.7692131204121457E+125
1031
3.4996011596701508E+100
1021
0.0
1031
0.0
1011
0.0
1021
6.7692131204121457E+125
1031
3.4996011596701508E+100
1021
1.0
1031
0.0
1011
0.0
1021
6.7692131204121457E+125
1031
3.4996011596701508E+100
1021
0.0
1031
1.0
1040
0.0
1010
0.0
1020
0.0
1030
1.0
1000
ANSI31
1070
     0
1070
     0
1071
        1
1071
        7
1070
     0
1070
     1
1071
        3
1040
1233.0000000000009
1040
414.0
1040
1232.0
1040
414.0
1040
1232.5000000000009
1040
408.284973848611
1071
        0
1070
     1
1070
     1
1040
2.3561944901923439
1040
0.2
1070
     0
1070
     1
1040
3.1415926535897931
1040
1001.3
1040
190.0
1040
-0.0000000000000001
1040
-0.6349999999999999
1070
     0
1040
0.0231991454953564
1071
        1
1040
1232.518069831134
1040
413.019788486295
1040
0.0
1002
}
  0
LINE
  5
73F5
  8
011形状
 10
1233.0
 20
414.0
 30
0.0
 11
1232.0
 21
414.0
 31
0.0
  0
ARC
  5
73F6
  8
011形状
 10
1225.5
 20
410.0
 30
0.0
 40
8.5
 50
331.9275130639939
 51
28.07248693600603
  0
LINE
  5
73F7
  8
011形状
 10
730.0
 20
407.5
 30
0.0
 11
730.0
 21
412.5
 31
0.0
  0
LINE
  5
73F8
  8
011形状
 10
726.0
 20
412.5
 30
0.0
 11
726.0
 21
407.5
 31
0.0
  0
LINE
  5
73F9
  8
011形状
 10
726.0
 20
412.5
 30
0.0
 11
725.0
 21
411.92264973099992
 31
0.0
  0
INSERT
  5
73FA
  8
011形状
  6
CONTINUOUS
 62
     1
  2
*X65
 10
0.0
 20
0.0
 30
0.0
1001
GRADIENTCOLOR1ACI
1070
     5
1001
GRADIENTCOLOR2ACI
1070
     2
1001
ACAD
1000
HATCH
1002
{
1070
    19
1000
ANSI31
1040
0.2
1040
2.3561944901923439
1000
R14_HATCH_DATA
1000
73FA
1011
1.0
1021
6.7692131204121457E+125
1031
3.4996011596701508E+100
1021
0.0
1031
0.0
1011
0.0
1021
6.7692131204121457E+125
1031
3.4996011596701508E+100
1021
1.0
1031
0.0
1011
0.0
1021
6.7692131204121457E+125
1031
3.4996011596701508E+100
1021
0.0
1031
1.0
1040
0.0
1010
0.0
1020
0.0
1030
1.0
1000
ANSI31
1070
     0
1070
     0
1071
        1
1071
        7
1070
     0
1070
     1
1071
        3
1040
730.0
1040
412.5
1040
726.0
1040
412.5
1040
728.0
1040
409.03589838486232
1071
        0
1070
     1
1070
     1
1040
2.3561944901923439
1040
0.2
1070
     0
1070
     1
1040
3.1415926535897931
1040
620.70000000000005
1040
190.0
1040
-0.0000000000000001
1040
-0.6349999999999999
1070
     0
1040
0.0122957584907129
1071
        1
1040
727.50148343087244
1040
411.5947057207876
1040
0.0
1002
}
  0
LINE
  5
73FB
  8
011形状
 10
730.0
 20
412.5
 30
0.0
 11
726.0
 21
412.5
 31
0.0
  0
LINE
  5
73FC
  8
011形状
 10
726.0
 20
407.5
 30
0.0
 11
725.0
 21
408.07735026900002
 31
0.0
  0
LINE
  5
73FD
  8
011形状
 10
730.0
 20
407.5
 30
0.0
 11
726.0
 21
407.5
 31
0.0
  0
LINE
  5
73FE
  8
011形状
 10
725.0
 20
411.92264973099992
 30
0.0
 11
725.0
 21
408.07735026900002
 31
0.0
  0
ARC
  5
73FF
  8
011形状
 10
725.49999999999989
 20
410.0
 30
0.0
 40
1.5
 50
109.47122063499729
 51
250.52877936599751
  0
LINE
  5
7400
  8
011形状
 10
730.0
 20
411.74999999999989
 30
0.0
 11
734.0
 21
411.74999999999989
 31
0.0
  0
LINE
  5
7401
  8
011形状
 10
734.0
 20
408.25
 30
0.0
 11
730.0
 21
408.25
 31
0.0
  0
CIRCLE
  5
7402
  8
011形状
 10
1345.0
 20
256.0
 30
0.0
 40
4.0
  0
CIRCLE
  5
7403
  8
011形状
 10
1345.0
 20
256.0
 30
0.0
 40
7.0
  0
CIRCLE
  5
7404
  8
011形状
 10
1345.0
 20
256.0
 30
0.0
 40
9.0
  0
LINE
  5
7405
  8
101購入品
 10
1336.9843134830001
 20
250.68448309499991
 30
0.0
 11
1333.0156865169999
 21
252.97577094299999
 31
0.0
  0
ARC
  5
7406
  8
101購入品
 10
1332.5
 20
247.5
 30
0.0
 40
5.5
 50
24.61997732900026
 51
35.380022671002664
  0
LINE
  5
7407
  8
101購入品
 10
1331.9843134830001
 20
252.97577094299999
 30
0.0
 11
1328.0156865169999
 21
250.68448309499991
 31
0.0
  0
ARC
  5
7408
  8
101購入品
 10
1332.5
 20
247.5
 30
0.0
 40
5.5
 50
84.619977328994125
 51
95.380022671005889
  0
LINE
  5
7409
  8
101購入品
 10
1327.5
 20
249.79128784700001
 30
0.0
 11
1327.5
 21
245.20871215299999
 31
0.0
  0
ARC
  5
740A
  8
101購入品
 10
1332.5
 20
247.5
 30
0.0
 40
5.5
 50
144.61997732899721
 51
155.38002267099969
  0
LINE
  5
740B
  8
101購入品
 10
1328.0156865169999
 20
244.31551690500009
 30
0.0
 11
1331.9843134830001
 21
242.02422905700001
 31
0.0
  0
ARC
  5
740C
  8
101購入品
 10
1332.5
 20
247.5
 30
0.0
 40
5.5
 50
204.61997732900031
 51
215.38002267100271
  0
LINE
  5
740D
  8
101購入品
 10
1333.0156865169999
 20
242.02422905700001
 30
0.0
 11
1336.9843134830001
 21
244.31551690500009
 31
0.0
  0
ARC
  5
740E
  8
101購入品
 10
1332.5
 20
247.5
 30
0.0
 40
5.5
 50
264.61997732899408
 51
275.38002267099279
  0
LINE
  5
740F
  8
101購入品
 10
1337.5
 20
245.20871215299999
 30
0.0
 11
1337.5
 21
249.79128784700001
 31
0.0
  0
ARC
  5
7410
  8
101購入品
 10
1332.5
 20
247.5
 30
0.0
 40
5.5
 50
324.61997732899721
 51
335.38002267099972
  0
CIRCLE
  5
7411
  8
101購入品
 10
1332.5
 20
247.5
 30
0.0
 40
3.6000000000000001
  0
CIRCLE
  5
7412
  8
101購入品
 10
1332.5
 20
247.5
 30
0.0
 40
3.7999999999999989
  0
CIRCLE
  5
7413
  8
101購入品
 10
1332.5
 20
247.5
 30
0.0
 40
4.2199999999999989
  0
CIRCLE
  5
7414
  8
101購入品
 10
1332.5
 20
247.5
 30
0.0
 40
3.1000000000000001
  0
CIRCLE
  5
7415
  8
101購入品
 10
1332.5
 20
247.5
 30
0.0
 40
3.0
  0
LINE
  5
7416
  8
001センタ
 10
1332.5
 20
239.5
 30
0.0
 11
1332.5
 21
255.5
 31
0.0
  0
LINE
  5
7417
  8
001センタ
 10
1340.5
 20
247.5
 30
0.0
 11
1324.5
 21
247.5
 31
0.0
  0
LINE
  5
7418
  8
011形状
 10
1230.0
 20
258.20523951789392
 30
0.0
 11
1232.0
 21
258.20523951789392
 31
0.0
  0
LINE
  5
7419
  8
011形状
 10
1230.0
 20
253.70523951789389
 30
0.0
 11
1232.0
 21
253.70523951789389
 31
0.0
  0
LINE
  5
741A
  8
011形状
 10
1232.0
 20
259.95523951789392
 30
0.0
 11
1232.0
 21
253.0
 31
0.0
  0
LINE
  5
741B
  8
011形状
 10
1233.0
 20
253.0
 30
0.0
 11
1233.0
 21
259.95523951789392
 31
0.0
  0
INSERT
  5
741C
  8
011形状
  6
CONTINUOUS
 62
     1
  2
*X66
 10
0.0
 20
0.0
 30
0.0
1001
GRADIENTCOLOR1ACI
1070
     5
1001
GRADIENTCOLOR2ACI
1070
     2
1001
ACAD
1000
HATCH
1002
{
1070
    19
1000
ANSI31
1040
0.2
1040
2.3561944901923439
1000
R14_HATCH_DATA
1000
741C
1011
1.0
1021
6.7692131204121457E+125
1031
3.4996011596701508E+100
1021
0.0
1031
0.0
1011
0.0
1021
6.7692131204121457E+125
1031
3.4996011596701508E+100
1021
1.0
1031
0.0
1011
0.0
1021
6.7692131204121457E+125
1031
3.4996011596701508E+100
1021
0.0
1031
1.0
1040
0.0
1010
0.0
1020
0.0
1030
1.0
1000
ANSI31
1070
     0
1070
     0
1071
        1
1071
        7
1070
     0
1070
     1
1071
        3
1040
1233.0000000000009
1040
259.95523951789392
1040
1232.0
1040
259.95523951789392
1040
1232.5000000000009
1040
254.240213366505
1071
        0
1070
     1
1070
     1
1040
2.3561944901923439
1040
0.2
1070
     0
1070
     1
1040
3.1415926535897931
1040
1001.3
1040
35.955239517893922
1040
-0.0000000000000001
1040
-0.6349999999999999
1070
     0
1040
0.0231991454953564
1071
        1
1040
1232.518069831134
1040
258.97502800418903
1040
0.0
1002
}
  0
LINE
  5
741D
  8
011形状
 10
1233.0
 20
259.95523951789392
 30
0.0
 11
1232.0
 21
259.95523951789392
 31
0.0
  0
ARC
  5
741E
  8
011形状
 10
1225.5
 20
255.95523951789389
 30
0.0
 40
8.5
 50
339.65481199165129
 51
28.07248693600603
  0
LINE
  5
741F
  8
011形状
 10
1227.0
 20
258.95523951789392
 30
0.0
 11
1230.0
 21
258.95523951789392
 31
0.0
  0
LINE
  5
7420
  8
011形状
 10
1227.0
 20
252.95523951789389
 30
0.0
 11
1229.352739517894
 21
252.9552395178938
 31
0.0
  0
LINE
  5
7421
  8
011形状
 10
1230.0
 20
253.0
 30
0.0
 11
1230.0
 21
258.95523951789392
 31
0.0
  0
LINE
  5
7422
  8
011形状
 10
734.0
 20
258.95523951790148
 30
0.0
 11
940.0
 21
258.95523951790148
 31
0.0
  0
LINE
  5
7423
  8
011形状
 10
734.0
 20
252.9552395179015
 30
0.0
 11
940.0
 21
252.9552395179015
 31
0.0
  0
LINE
  5
7424
  8
011形状
 10
734.0
 20
252.9552395179015
 30
0.0
 11
734.0
 21
258.95523951790148
 31
0.0
  0
LINE
  5
7425
  8
011形状
 10
730.0
 20
253.4552395179015
 30
0.0
 11
730.0
 21
258.45523951790148
 31
0.0
  0
LINE
  5
7426
  8
011形状
 10
726.0
 20
258.45523951790148
 30
0.0
 11
726.0
 21
253.4552395179015
 31
0.0
  0
LINE
  5
7427
  8
011形状
 10
726.0
 20
258.45523951790148
 30
0.0
 11
725.0
 21
257.8778892489014
 31
0.0
  0
INSERT
  5
7428
  8
011形状
  6
CONTINUOUS
 62
     1
  2
*X67
 10
0.0
 20
0.0
 30
0.0
1001
GRADIENTCOLOR1ACI
1070
     5
1001
GRADIENTCOLOR2ACI
1070
     2
1001
ACAD
1000
HATCH
1002
{
1070
    19
1000
ANSI31
1040
0.2
1040
2.3561944901923439
1000
R14_HATCH_DATA
1000
7428
1011
1.0
1021
6.7692131204121457E+125
1031
3.4996011596701508E+100
1021
0.0
1031
0.0
1011
0.0
1021
6.7692131204121457E+125
1031
3.4996011596701508E+100
1021
1.0
1031
0.0
1011
0.0
1021
6.7692131204121457E+125
1031
3.4996011596701508E+100
1021
0.0
1031
1.0
1040
0.0
1010
0.0
1020
0.0
1030
1.0
1000
ANSI31
1070
     0
1070
     0
1071
        1
1071
        7
1070
     0
1070
     1
1071
        3
1040
730.0
1040
258.45523951790148
1040
726.0
1040
258.45523951790148
1040
728.0
1040
254.9911379027638
1071
        0
1070
     1
1070
     1
1040
2.3561944901923439
1040
0.2
1070
     0
1070
     1
1040
3.1415926535897931
1040
620.70000000000005
1040
35.955239517901511
1040
-0.0000000000000001
1040
-0.6349999999999999
1070
     0
1040
0.0122957584907129
1071
        1
1040
727.50148343087244
1040
257.54994523868919
1040
0.0
1002
}
  0
LINE
  5
7429
  8
011形状
 10
730.0
 20
258.45523951790148
 30
0.0
 11
726.0
 21
258.45523951790148
 31
0.0
  0
LINE
  5
742A
  8
011形状
 10
726.0
 20
253.4552395179015
 30
0.0
 11
725.0
 21
254.0325897869015
 31
0.0
  0
LINE
  5
742B
  8
011形状
 10
730.0
 20
253.4552395179015
 30
0.0
 11
726.0
 21
253.4552395179015
 31
0.0
  0
LINE
  5
742C
  8
011形状
 10
725.0
 20
257.8778892489014
 30
0.0
 11
725.0
 21
254.0325897869015
 31
0.0
  0
ARC
  5
742D
  8
011形状
 10
725.49999999999989
 20
255.9552395179015
 30
0.0
 40
1.5
 50
109.47122063499729
 51
250.52877936599751
  0
LINE
  5
742E
  8
011形状
 10
730.0
 20
257.70523951790148
 30
0.0
 11
734.0
 21
257.70523951790148
 31
0.0
  0
LINE
  5
742F
  8
011形状
 10
734.0
 20
254.2052395179015
 30
0.0
 11
730.0
 21
254.2052395179015
 31
0.0
  0
LINE
  5
7430
  8
101購入品
 10
1227.6249998850001
 20
252.0
 30
0.1
 11
1227.6249998850001
 21
243.0
 31
0.1
  0
LINE
  5
7431
  8
101購入品
 10
1227.6249998850001
 20
251.75
 30
0.0
 11
1227.0
 21
251.75
 31
0.0
  0
LINE
  5
7432
  8
101購入品
 10
1227.6249998850001
 20
243.25
 30
0.0
 11
1227.0
 21
243.25
 31
0.0
  0
LINE
  5
7433
  8
101購入品
 10
1225.0
 20
253.0
 30
0.0
 11
1225.0
 21
242.0
 31
0.0
  0
LINE
  5
7434
  8
101購入品
 10
1226.5
 20
253.0
 30
0.0
 11
1226.5
 21
252.97577094299999
 31
0.0
  0
LINE
  5
7435
  8
101購入品
 10
1226.5
 20
252.97577094299999
 30
0.0
 11
1225.0
 21
252.97577094299999
 31
0.0
  0
LINE
  5
7436
  8
101購入品
 10
1225.0
 20
250.68448309499991
 30
0.0
 11
1226.5
 21
250.68448309499991
 31
0.0
  0
LINE
  5
7437
  8
101購入品
 10
1226.5
 20
250.68448309499991
 30
0.0
 11
1226.5
 21
249.79128784700001
 31
0.0
  0
LINE
  5
7438
  8
101購入品
 10
1226.5
 20
249.79128784700001
 30
0.0
 11
1225.0
 21
249.79128784700001
 31
0.0
  0
LINE
  5
7439
  8
101購入品
 10
1226.5
 20
245.20871215299999
 30
0.0
 11
1225.0
 21
245.20871215299999
 31
0.0
  0
ARC
  5
743A
  8
101購入品
 10
1221.5
 20
247.5
 30
0.0
 40
5.5
 50
335.38002267099972
 51
24.619977329000271
  0
ARC
  5
743B
  8
101購入品
 10
1225.4375
 20
251.830127019
 30
0.0
 40
1.5625
 50
312.84364304399242
 51
47.156356956007578
  0
LINE
  5
743C
  8
101購入品
 10
1226.5
 20
253.0
 30
0.0
 11
1225.0
 21
253.0
 31
0.0
  0
LINE
  5
743D
  8
101購入品
 10
1226.5
 20
253.0
 30
0.0
 11
1227.0
 21
252.5
 31
0.0
  0
LINE
  5
743E
  8
101購入品
 10
1226.5
 20
242.0
 30
0.0
 11
1226.5
 21
242.02422905700001
 31
0.0
  0
LINE
  5
743F
  8
101購入品
 10
1226.5
 20
242.02422905700001
 30
0.0
 11
1225.0
 21
242.02422905700001
 31
0.0
  0
LINE
  5
7440
  8
101購入品
 10
1225.0
 20
244.31551690500009
 30
0.0
 11
1226.5
 21
244.31551690500009
 31
0.0
  0
LINE
  5
7441
  8
101購入品
 10
1226.5
 20
244.31551690500009
 30
0.0
 11
1226.5
 21
245.20871215299999
 31
0.0
  0
ARC
  5
7442
  8
101購入品
 10
1225.4375
 20
243.169872981
 30
0.0
 40
1.5625
 50
312.84364304399242
 51
47.156356956007578
  0
LINE
  5
7443
  8
101購入品
 10
1226.5
 20
242.0
 30
0.0
 11
1225.0
 21
242.0
 31
0.0
  0
LINE
  5
7444
  8
101購入品
 10
1226.5
 20
242.0
 30
0.0
 11
1227.0
 21
242.5
 31
0.0
  0
LINE
  5
7445
  8
101購入品
 10
1227.0
 20
252.5
 30
0.0
 11
1227.0
 21
242.5
 31
0.0
  0
LINE
  5
7446
  8
101購入品
 10
1238.0
 20
251.30000000000001
 30
0.0
 11
1239.0
 21
251.09999999999999
 31
0.0
  0
LINE
  5
7447
  8
101購入品
 10
1239.0
 20
251.09999999999999
 30
0.0
 11
1239.0
 21
243.90000000000001
 31
0.0
  0
LINE
  5
7448
  8
101購入品
 10
1239.0
 20
243.90000000000001
 30
0.0
 11
1238.0
 21
243.69999999999999
 31
0.0
  0
LINE
  5
7449
  8
101購入品
 10
1237.5999999999999
 20
251.30000000000001
 30
0.0
 11
1238.0
 21
251.30000000000001
 31
0.0
  0
LINE
  5
744A
  8
101購入品
 10
1238.0
 20
251.30000000000001
 30
0.0
 11
1238.0
 21
243.69999999999999
 31
0.0
  0
LINE
  5
744B
  8
101購入品
 10
1238.0
 20
243.69999999999999
 30
0.0
 11
1237.5999999999999
 21
243.69999999999999
 31
0.0
  0
LINE
  5
744C
  8
101購入品
 10
1237.5999999999999
 20
243.01568651700001
 30
0.0
 11
1237.5999999999999
 21
251.98431348299999
 31
0.0
  0
LINE
  5
744D
  8
101購入品
 10
1227.6249998850001
 20
252.0
 30
0.0
 11
1229.0975000000001
 21
252.0
 31
0.0
  0
LINE
  5
744E
  8
101購入品
 10
1229.0975000000001
 20
243.0
 30
0.0
 11
1227.6249998850001
 21
243.0
 31
0.0
  0
LINE
  5
744F
  8
101購入品
 62
     1
 10
1227.6249998850001
 20
243.25
 30
0.0
 11
1229.0975000000001
 21
243.25
 31
0.0
  0
LINE
  5
7450
  8
101購入品
 62
     1
 10
1227.6249998850001
 20
251.75
 30
0.0
 11
1229.0975000000001
 21
251.75
 31
0.0
  0
LINE
  5
7451
  8
101購入品
 10
1237.5999999999999
 20
251.98431348299999
 30
0.0
 11
1235.8407793490001
 21
253.0
 31
0.0
  0
LINE
  5
7452
  8
101購入品
 10
1237.5999999999999
 20
243.01568651700001
 30
0.0
 11
1235.8407793490001
 21
242.0
 31
0.0
  0
LINE
  5
7453
  8
101購入品
 10
1229.3975
 20
242.0
 30
0.0
 11
1229.0975000000001
 21
242.30000000000001
 31
0.0
  0
LINE
  5
7454
  8
101購入品
 10
1235.8407793490001
 20
253.0
 30
0.0
 11
1229.3975
 21
253.0
 31
0.0
  0
LINE
  5
7455
  8
101購入品
 10
1229.0975000000001
 20
252.69999999999999
 30
0.0
 11
1229.0975000000001
 21
242.30000000000001
 31
0.0
  0
LINE
  5
7456
  8
101購入品
 10
1229.3975
 20
253.0
 30
0.0
 11
1229.0975000000001
 21
252.69999999999999
 31
0.0
  0
LINE
  5
7457
  8
101購入品
 10
1235.8407793490001
 20
250.68448309499991
 30
0.0
 11
1229.3975
 21
250.68448309499991
 31
0.0
  0
LINE
  5
7458
  8
101購入品
 10
1229.3975
 20
249.79128784700001
 30
0.0
 11
1235.8407793490001
 21
249.79128784700001
 31
0.0
  0
LINE
  5
7459
  8
101購入品
 10
1235.8407793490001
 20
252.97577094299999
 30
0.0
 11
1229.3975
 21
252.97577094299999
 31
0.0
  0
LINE
  5
745A
  8
101購入品
 10
1235.8407793490001
 20
242.0
 30
0.0
 11
1229.3975
 21
242.0
 31
0.0
  0
LINE
  5
745B
  8
101購入品
 10
1235.8407793490001
 20
244.31551690500009
 30
0.0
 11
1229.3975
 21
244.31551690500009
 31
0.0
  0
LINE
  5
745C
  8
101購入品
 10
1229.3975
 20
245.20871215299999
 30
0.0
 11
1235.8407793490001
 21
245.20871215299999
 31
0.0
  0
LINE
  5
745D
  8
101購入品
 10
1235.8407793490001
 20
242.02422905700001
 30
0.0
 11
1229.3975
 21
242.02422905700001
 31
0.0
  0
ARC
  5
745E
  8
101購入品
 10
1235.5160198220001
 20
251.830127019
 30
0.0
 40
1.1907849299999991
 50
285.82662013199302
 51
74.173379868007018
  0
LINE
  5
745F
  8
101購入品
 10
1235.8407793490001
 20
253.0
 30
0.0
 11
1235.8407793490001
 21
252.97577094299999
 31
0.0
  0
LINE
  5
7460
  8
101購入品
 10
1235.8407793490001
 20
250.68448309499991
 30
0.0
 11
1235.8407793490001
 21
249.79128784700001
 31
0.0
  0
LINE
  5
7461
  8
101購入品
 10
1235.8407793490001
 20
242.02422905700001
 30
0.0
 11
1235.8407793490001
 21
242.0
 31
0.0
  0
LINE
  5
7462
  8
101購入品
 10
1235.8407793490001
 20
245.20871215299999
 30
0.0
 11
1235.8407793490001
 21
244.31551690500009
 31
0.0
  0
ARC
  5
7463
  8
101購入品
 10
1235.5160198220001
 20
243.169872981
 30
0.0
 40
1.1907849299999991
 50
285.82662013199302
 51
74.173379868007018
  0
ARC
  5
7464
  8
101購入品
 10
1233.242703137
 20
247.5
 30
0.0
 40
3.4641016150000001
 50
318.59037789100472
 51
41.409622108995151
  0
ARC
  5
7465
  8
101購入品
 10
1237.9974999999999
 20
247.5
 30
0.0
 40
8.9000000000000004
 50
165.08130647600069
 51
194.9186935239992
  0
LINE
  5
7466
  8
101購入品
 10
1229.3975
 20
242.02422905700001
 30
0.0
 11
1229.3975
 21
242.0
 31
0.0
  0
LINE
  5
7467
  8
101購入品
 10
1229.3975
 20
245.20871215299999
 30
0.0
 11
1229.3975
 21
244.31551690500009
 31
0.0
  0
ARC
  5
7468
  8
101購入品
 10
1231.4349999999999
 20
243.169872981
 30
0.0
 40
2.337499999999999
 50
150.65185640100671
 51
209.34814359899329
  0
LINE
  5
7469
  8
101購入品
 10
1229.3975
 20
250.68448309499991
 30
0.0
 11
1229.3975
 21
249.79128784700001
 31
0.0
  0
LINE
  5
746A
  8
101購入品
 10
1229.3975
 20
253.0
 30
0.0
 11
1229.3975
 21
252.97577094299999
 31
0.0
  0
ARC
  5
746B
  8
101購入品
 10
1231.4349999999999
 20
251.830127019
 30
0.0
 40
2.337499999999999
 50
150.65185640100671
 51
209.34814359899329
  0
LINE
  5
746C
  8
001センタ
 10
1269.0
 20
247.5
 30
0.0
 11
1215.0
 21
247.5
 31
0.0
  0
LINE
  5
746D
  8
101購入品
 10
1227.0
 20
402.24999999999989
 30
0.0
 11
1225.5
 21
402.24999999999989
 31
0.0
  0
LINE
  5
746E
  8
101購入品
 10
1227.0
 20
392.25
 30
0.0
 11
1225.4186985827939
 21
392.25
 31
0.0
  0
LINE
  5
746F
  8
101購入品
 10
1227.0
 20
402.24999999999989
 30
0.0
 11
1227.0
 21
392.25
 31
0.0
  0
ARC
  5
7470
  8
101購入品
 10
1222.8125
 20
399.75
 30
0.0
 40
4.1875
 50
331.71446503399972
 51
28.285534966000231
  0
ARC
  5
7471
  8
101購入品
 10
1222.8125
 20
394.75
 30
0.0
 40
4.1875
 50
331.71446503399972
 51
28.285534966000231
  0
LINE
  5
7472
  8
101購入品
 10
1225.5
 20
401.73431348299988
 30
0.0
 11
1226.5
 21
401.73431348299988
 31
0.0
  0
LINE
  5
7473
  8
101購入品
 10
1225.5
 20
397.76568651700001
 30
0.0
 11
1226.5
 21
397.76568651700001
 31
0.0
  0
LINE
  5
7474
  8
101購入品
 10
1225.0
 20
396.73431348299999
 30
0.0
 11
1226.5
 21
396.73431348299999
 31
0.0
  0
LINE
  5
7475
  8
101購入品
 10
1225.49214793382
 20
392.76568651700001
 30
0.0
 11
1226.5
 21
392.76568651700001
 31
0.0
  0
LINE
  5
7476
  8
101購入品
 10
1226.5
 20
402.24999999999989
 30
0.0
 11
1226.5
 21
401.73431348299988
 31
0.0
  0
LINE
  5
7477
  8
101購入品
 10
1226.5
 20
397.76568651700001
 30
0.0
 11
1226.5
 21
396.73431348299999
 31
0.0
  0
LINE
  5
7478
  8
101購入品
 10
1226.5
 20
392.76568651700001
 30
0.0
 11
1226.5
 21
392.25
 31
0.0
  0
LINE
  5
7479
  8
101購入品
 10
1227.6249998850001
 20
401.75
 30
0.0
 11
1227.6249998850001
 21
392.75
 31
0.0
  0
LINE
  5
747A
  8
101購入品
 10
1227.6249998850001
 20
401.49999999999989
 30
0.0
 11
1227.0
 21
401.49999999999989
 31
0.0
  0
LINE
  5
747B
  8
101購入品
 10
1227.6249998850001
 20
393.0
 30
0.0
 11
1227.0
 21
393.0
 31
0.0
  0
LINE
  5
747C
  8
101購入品
 10
1238.0
 20
401.05000000000001
 30
0.0
 11
1239.0
 21
400.84999999999991
 31
0.0
  0
LINE
  5
747D
  8
101購入品
 10
1239.0
 20
400.84999999999991
 30
0.0
 11
1239.0
 21
393.64999999999998
 31
0.0
  0
LINE
  5
747E
  8
101購入品
 10
1239.0
 20
393.64999999999998
 30
0.0
 11
1238.0
 21
393.44999999999999
 31
0.0
  0
LINE
  5
747F
  8
101購入品
 10
1237.5999999999999
 20
401.05000000000001
 30
0.0
 11
1238.0
 21
401.05000000000001
 31
0.0
  0
LINE
  5
7480
  8
101購入品
 10
1238.0
 20
401.05000000000001
 30
0.0
 11
1238.0
 21
393.44999999999999
 31
0.0
  0
LINE
  5
7481
  8
101購入品
 10
1238.0
 20
393.44999999999999
 30
0.0
 11
1237.5999999999999
 21
393.44999999999999
 31
0.0
  0
LINE
  5
7482
  8
101購入品
 10
1237.5999999999999
 20
392.76568651700001
 30
0.0
 11
1237.5999999999999
 21
401.73431348299988
 31
0.0
  0
LINE
  5
7483
  8
101購入品
 10
1227.6249998850001
 20
401.75
 30
0.0
 11
1229.0975000000001
 21
401.75
 31
0.0
  0
LINE
  5
7484
  8
101購入品
 10
1229.0975000000001
 20
392.75
 30
0.0
 11
1227.6249998850001
 21
392.75
 31
0.0
  0
LINE
  5
7485
  8
101購入品
 62
     1
 10
1227.6249998850001
 20
393.0
 30
0.0
 11
1229.0975000000001
 21
393.0
 31
0.0
  0
LINE
  5
7486
  8
101購入品
 62
     1
 10
1227.6249998850001
 20
401.49999999999989
 30
0.0
 11
1229.0975000000001
 21
401.49999999999989
 31
0.0
  0
LINE
  5
7487
  8
101購入品
 10
1237.5999999999999
 20
401.73431348299988
 30
0.0
 11
1236.7068047519999
 21
402.24999999999989
 31
0.0
  0
LINE
  5
7488
  8
101購入品
 10
1237.5999999999999
 20
392.76568651700001
 30
0.0
 11
1236.7068047519999
 21
392.25
 31
0.0
  0
LINE
  5
7489
  8
101購入品
 10
1229.0975000000001
 20
402.24999999999989
 30
0.0
 11
1229.0975000000001
 21
392.25
 31
0.0
  0
LINE
  5
748A
  8
101購入品
 10
1236.7068047519999
 20
392.25
 30
0.0
 11
1229.0975000000001
 21
392.25
 31
0.0
  0
LINE
  5
748B
  8
101購入品
 10
1236.7068047519999
 20
402.24999999999989
 30
0.0
 11
1229.0975000000001
 21
402.24999999999989
 31
0.0
  0
LINE
  5
748C
  8
101購入品
 10
1235.8407793490001
 20
401.73431348299988
 30
0.0
 11
1229.3975
 21
401.73431348299988
 31
0.0
  0
LINE
  5
748D
  8
101購入品
 10
1235.8407793490001
 20
397.76568651700001
 30
0.0
 11
1229.3975
 21
397.76568651700001
 31
0.0
  0
LINE
  5
748E
  8
101購入品
 10
1235.8407793490001
 20
396.73431348299999
 30
0.0
 11
1229.3975
 21
396.73431348299999
 31
0.0
  0
LINE
  5
748F
  8
101購入品
 10
1235.8407793490001
 20
392.76568651700001
 30
0.0
 11
1229.3975
 21
392.76568651700001
 31
0.0
  0
ARC
  5
7490
  8
101購入品
 10
1234.0004753650001
 20
399.75
 30
0.0
 40
2.7063293869999989
 50
312.84364304399242
 51
47.156356956007578
  0
ARC
  5
7491
  8
101購入品
 10
1234.0004753650001
 20
394.75
 30
0.0
 40
2.7063293869999989
 50
312.84364304399242
 51
47.156356956007578
  0
LINE
  5
7492
  8
101購入品
 10
1235.8407793490001
 20
402.24999999999989
 30
0.0
 11
1235.8407793490001
 21
401.73431348299988
 31
0.0
  0
LINE
  5
7493
  8
101購入品
 10
1235.8407793490001
 20
392.76568651700001
 30
0.0
 11
1235.8407793490001
 21
392.25
 31
0.0
  0
LINE
  5
7494
  8
101購入品
 10
1235.8407793490001
 20
397.76568651700001
 30
0.0
 11
1235.8407793490001
 21
396.73431348299999
 31
0.0
  0
LINE
  5
7495
  8
101購入品
 10
1229.3975
 20
402.24999999999989
 30
0.0
 11
1229.3975
 21
401.73431348299988
 31
0.0
  0
LINE
  5
7496
  8
101購入品
 10
1229.3975
 20
392.76568651700001
 30
0.0
 11
1229.3975
 21
392.25
 31
0.0
  0
LINE
  5
7497
  8
101購入品
 10
1229.3975
 20
397.76568651700001
 30
0.0
 11
1229.3975
 21
396.73431348299999
 31
0.0
  0
ARC
  5
7498
  8
101購入品
 10
1235.8099999999999
 20
399.75
 30
0.0
 40
6.7125000000000004
 50
162.80560057500259
 51
197.19439942499719
  0
ARC
  5
7499
  8
101購入品
 10
1235.8099999999999
 20
394.75
 30
0.0
 40
6.7125000000000004
 50
162.80560057500259
 51
197.19439942499719
  0
LINE
  5
749A
  8
001センタ
 10
1269.0
 20
397.25
 30
0.0
 11
1215.0
 21
397.25
 31
0.0
  0
ARC
  5
749B
  8
101購入品
 10
1257.875
 20
249.0
 30
0.0
 40
1.875
 50
306.86989764600042
 51
53.130102353999639
  0
LINE
  5
749C
  8
101購入品
 10
1259.0
 20
250.5
 30
0.0
 11
1239.0
 21
250.5
 31
0.0
  0
ARC
  5
749D
  8
101購入品
 10
1257.875
 20
246.0
 30
0.0
 40
1.875
 50
306.86989764600042
 51
53.130102353999639
  0
ARC
  5
749E
  8
101購入品
 10
1260.125
 20
246.0
 30
0.0
 40
1.875
 50
126.8698976460003
 51
233.1301023539996
  0
LINE
  5
749F
  8
101購入品
 10
1259.0
 20
244.5
 30
0.0
 11
1239.0
 21
244.5
 31
0.0
  0
ARC
  5
74A0
  8
101購入品
 10
1257.875
 20
398.75
 30
0.0
 40
1.875
 50
306.86989764600042
 51
53.130102353999639
  0
LINE
  5
74A1
  8
101購入品
 10
1259.0
 20
400.25
 30
0.0
 11
1239.0
 21
400.25
 31
0.0
  0
ARC
  5
74A2
  8
101購入品
 10
1257.875
 20
395.75
 30
0.0
 40
1.875
 50
306.86989764600042
 51
53.130102353999639
  0
ARC
  5
74A3
  8
101購入品
 10
1260.125
 20
395.75
 30
0.0
 40
1.875
 50
126.8698976460003
 51
233.1301023539996
  0
LINE
  5
74A4
  8
101購入品
 10
1259.0
 20
394.25
 30
0.0
 11
1239.0
 21
394.25
 31
0.0
  0
DIMENSION
  5
74A5
  8
002寸法
  2
*D12
 10
1289.5
 20
430.49999999999989
 30
0.0
 11
1285.5
 21
410.00000000000023
 31
0.0
 70
     0
 13
1222.0
 23
389.5
 33
0.0
 14
1222.0
 24
430.49999999999989
 34
0.0
 50
90.0
  0
DIMENSION
  5
74A8
  8
002寸法
  2
*D13
 10
1289.5
 20
270.0
 30
0.0
 11
1285.5
 21
255.0000000000002
 31
0.0
 70
     0
 13
1223.0
 23
240.0
 33
0.0
 14
1225.5
 24
270.0
 34
0.0
 50
90.0
  0
DIMENSION
  5
74AB
  8
002寸法
  2
*D14
 10
1395.4666936238809
 20
256.0
 30
0.0
 11
1391.4666936238809
 21
242.0000000000002
 31
0.0
 70
     0
 13
1348.0
 23
228.0
 33
0.0
 14
1354.0
 24
256.0
 34
0.0
 50
90.0
  0
DIMENSION
  5
74AE
  8
002寸法
  2
*D15
 10
1040.0
 20
188.0
 30
0.0
 11
1000.0
 21
192.0
 31
0.0
 70
     0
 13
960.0
 23
242.0
 33
0.0
 14
1040.0
 24
218.0
 34
0.0
  0
DIMENSION
  5
74B1
  8
002寸法
  2
*D16
 10
1160.0
 20
188.0
 30
0.0
 11
1100.0
 21
192.0
 31
0.0
 70
     0
 13
1040.0
 23
218.0
 33
0.0
 14
1160.0
 24
218.0
 34
0.0
1001
ACAD
1000
DSTYLE
1002
{
1070
   287
1070
     4
1070
   279
1070
     1
1002
}
  0
INSERT
  5
74B4
  8
011形状
  2
*U68
 10
0.0
 20
0.0
 30
0.0
1001
ACAD_MLEADERVER
1070
     2
  0
DIMENSION
  5
74B5
  8
002寸法
  2
*D17
 10
1348.0
 20
188.0
 30
0.0
 11
1345.0
 21
192.0
 31
0.0
 70
     0
 13
1342.0
 23
218.0
 33
0.0
 14
1348.0
 24
218.0
 34
0.0
  0
DIMENSION
  5
74B8
  8
002寸法
  2
*D18
 10
959.49999999999977
 20
450.49999999999989
 30
0.0
 11
841.75
 21
454.49999999999989
 31
0.0
 70
     0
 13
724.0
 23
410.0
 33
0.0
 14
959.49999999999977
 24
427.0
 34
0.0
  0
DIMENSION
  5
74BB
  8
002寸法
  2
*D19
 10
1234.0
 20
470.5
 30
0.0
 11
979.0
 21
474.5
 31
0.0
 70
     0
 13
724.0
 23
410.0
 33
0.0
 14
1234.0
 24
410.0
 34
0.0
  0
DIMENSION
  5
74BE
  8
002寸法
  2
*D20
 10
1225.5
 20
450.49999999999989
 30
0.0
 11
1092.5
 21
454.49999999999989
 31
0.0
 70
     0
 13
959.49999999999977
 23
427.0
 33
0.0
 14
1225.5
 24
427.0
 34
0.0
1001
ACAD
1000
DSTYLE
1002
{
1070
   287
1070
     4
1070
   279
1070
     1
1002
}
  0
DIMENSION
  5
74C1
  8
002寸法
  2
*D21
 10
1234.0
 20
450.49999999999989
 30
0.0
 11
1250.6571428571431
 21
454.49999999999989
 31
0.0
 70
     0
 13
1225.5
 23
427.0
 33
0.0
 14
1234.0
 24
410.0
 34
0.0
  0
LINE
  5
7622
  8
DEFPOINTS
  6
CENTER
 10
1020.0
 20
29.0
 30
0.0
 11
1020.0
 21
0.0
 31
0.0
  0
VIEWPORT
  5
71
 67
     1
  8
0
 10
624.30697861446504
 20
307.75602246587403
 30
0.0
 40
994.76769694267671
 41
769.77311836716035
 68
     1
 69
     1
1001
ACAD
1000
MVIEW
1002
{
1070
    16
1010
0.0
1020
0.0
1030
0.0
1010
0.0
1020
0.0
1030
1.0
1040
0.0
1040
769.77311836716035
1040
624.30697861446504
1040
307.75602246587403
1040
50.0
1040
0.0
1040
0.0
1070
     0
1070
   100
1070
     1
1070
     1
1070
     1
1070
     0
1070
     0
1070
     0
1040
0.0
1040
0.0
1040
0.0
1040
0.5
1040
0.5
1040
10.0
1040
10.0
1070
     0
1002
{
1002
}
1002
}
  0
VIEWPORT
  5
73
 67
     1
  8
0
 10
693.0
 20
140.5
 30
0.0
 40
419.99999999999989
 41
297.0
 68
     2
 69
     2
1001
ACAD
1000
MVIEW
1002
{
1070
    16
1010
0.0
1020
0.0
1030
0.0
1010
0.0
1020
0.0
1030
1.0
1040
0.0
1040
297.0
1040
804.0
1040
148.5
1040
50.0
1040
0.0
1040
0.0
1070
     0
1070
   100
1070
     1
1070
     3
1070
     0
1070
     0
1070
     0
1070
     0
1040
0.0
1040
0.0
1040
0.0
1040
10.0
1040
10.0
1040
10.0
1040
10.0
1070
     0
1002
{
1002
}
1002
}
  0
ENDSEC
  0
EOF
