  0
SECTION
  2
HEADER
  9
$ACADVER
  1
AC1027
  9
$ACADMAINTVER
 70
    57
  9
$DWGCODEPAGE
  3
ANSI_932
  9
$LASTSAVEDBY
  1
W10-TORAGI15
  9
$REQUIREDVERSIONS
160
                 0
  9
$INSBASE
 10
0.0
 20
0.0
 30
0.0
  9
$EXTMIN
 10
-0.0128164049386896
 20
-8.609325460355421
 30
-0.0015258207003583
  9
$EXTMAX
 10
85.03051816605795
 20
35.01384317997588
 30
0.0000000349246037
  9
$LIMMIN
 10
0.0
 20
0.0
  9
$LIMMAX
 10
420.0
 20
297.0
  9
$ORTHOMODE
 70
     0
  9
$REGENMODE
 70
     1
  9
$FILLMODE
 70
     1
  9
$QTEXTMODE
 70
     0
  9
$MIRRTEXT
 70
     1
  9
$LTSCALE
 40
2.0
  9
$ATTMODE
 70
     1
  9
$TEXTSIZE
 40
3.0
  9
$TRACEWID
 40
1.0
  9
$TEXTSTYLE
  7
Standard
  9
$CLAYER
  8
011形状
  9
$CELTYPE
  6
ByLayer
  9
$CECOLOR
 62
   256
  9
$CELTSCALE
 40
1.0
  9
$DISPSILH
 70
     0
  9
$DIMSCALE
 40
1.0
  9
$DIMASZ
 40
2.5
  9
$DIMEXO
 40
0.5
  9
$DIMDLI
 40
3.75
  9
$DIMRND
 40
0.0
  9
$DIMDLE
 40
0.0
  9
$DIMEXE
 40
0.75
  9
$DIMTP
 40
0.0
  9
$DIMTM
 40
0.000000001
  9
$DIMTXT
 40
3.0
  9
$DIMCEN
 40
2.5
  9
$DIMTSZ
 40
0.0
  9
$DIMTOL
 70
     0
  9
$DIMLIM
 70
     0
  9
$DIMTIH
 70
     0
  9
$DIMTOH
 70
     0
  9
$DIMSE1
 70
     0
  9
$DIMSE2
 70
     0
  9
$DIMTAD
 70
     3
  9
$DIMZIN
 70
     8
  9
$DIMBLK
  1

  9
$DIMASO
 70
     1
  9
$DIMSHO
 70
     1
  9
$DIMPOST
  1

  9
$DIMAPOST
  1

  9
$DIMALT
 70
     0
  9
$DIMALTD
 70
     4
  9
$DIMALTF
 40
0.0394
  9
$DIMLFAC
 40
1.0
  9
$DIMTOFL
 70
     1
  9
$DIMTVP
 40
0.0
  9
$DIMTIX
 70
     0
  9
$DIMSOXD
 70
     0
  9
$DIMSAH
 70
     1
  9
$DIMBLK1
  1
OPEN
  9
$DIMBLK2
  1
OPEN
  9
$DIMSTYLE
  2
通常x1.0
  9
$DIMCLRD
 70
   256
  9
$DIMCLRE
 70
   256
  9
$DIMCLRT
 70
     2
  9
$DIMTFAC
 40
0.5
  9
$DIMGAP
 40
0.5
  9
$DIMJUST
 70
     0
  9
$DIMSD1
 70
     0
  9
$DIMSD2
 70
     0
  9
$DIMTOLJ
 70
     0
  9
$DIMTZIN
 70
     8
  9
$DIMALTZ
 70
     0
  9
$DIMALTTZ
 70
     0
  9
$DIMUPT
 70
     0
  9
$DIMDEC
 70
     8
  9
$DIMTDEC
 70
     8
  9
$DIMALTU
 70
     8
  9
$DIMALTTD
 70
     4
  9
$DIMTXSTY
  7
Standard
  9
$DIMAUNIT
 70
     0
  9
$DIMADEC
 70
     8
  9
$DIMALTRND
 40
0.0
  9
$DIMAZIN
 70
     2
  9
$DIMDSEP
 70
    46
  9
$DIMATFIT
 70
     3
  9
$DIMFRAC
 70
     0
  9
$DIMLDRBLK
  1
OPEN
  9
$DIMLUNIT
 70
     2
  9
$DIMLWD
 70
    -1
  9
$DIMLWE
 70
    -1
  9
$DIMTMOVE
 70
     0
  9
$DIMFXL
 40
1.0
  9
$DIMFXLON
 70
     0
  9
$DIMJOGANG
 40
0.7853981633974483
  9
$DIMTFILL
 70
     0
  9
$DIMTFILLCLR
 70
     0
  9
$DIMARCSYM
 70
     0
  9
$DIMLTYPE
  6

  9
$DIMLTEX1
  6

  9
$DIMLTEX2
  6

  9
$DIMTXTDIRECTION
 70
     0
  9
$LUNITS
 70
     2
  9
$LUPREC
 70
     8
  9
$SKETCHINC
 40
1.0
  9
$FILLETRAD
 40
1.0
  9
$AUNITS
 70
     0
  9
$AUPREC
 70
     6
  9
$MENU
  1
.
  9
$ELEVATION
 40
0.0
  9
$PELEVATION
 40
0.0
  9
$THICKNESS
 40
0.0
  9
$LIMCHECK
 70
     0
  9
$CHAMFERA
 40
1.0
  9
$CHAMFERB
 40
1.0
  9
$CHAMFERC
 40
20.0
  9
$CHAMFERD
 40
0.0
  9
$SKPOLY
 70
     0
  9
$TDCREATE
 40
2453536.500536378
  9
$TDUCREATE
 40
2453536.125536377
  9
$TDUPDATE
 40
2458149.582070510
  9
$TDUUPDATE
 40
2458149.207070510
  9
$TDINDWG
 40
1.1402163889
  9
$TDUSRTIMER
 40
1.1402163889
  9
$USRTIMER
 70
     1
  9
$ANGBASE
 50
0.0
  9
$ANGDIR
 70
     0
  9
$PDMODE
 70
     0
  9
$PDSIZE
 40
0.0
  9
$PLINEWID
 40
0.0
  9
$SPLFRAME
 70
     0
  9
$SPLINETYPE
 70
     6
  9
$SPLINESEGS
 70
     8
  9
$HANDSEED
  5
CE18
  9
$SURFTAB1
 70
     6
  9
$SURFTAB2
 70
     6
  9
$SURFTYPE
 70
     6
  9
$SURFU
 70
     6
  9
$SURFV
 70
     6
  9
$UCSBASE
  2

  9
$UCSNAME
  2

  9
$UCSORG
 10
0.0
 20
0.0
 30
0.0
  9
$UCSXDIR
 10
1.0
 20
0.0
 30
0.0
  9
$UCSYDIR
 10
0.0
 20
1.0
 30
0.0
  9
$UCSORTHOREF
  2

  9
$UCSORTHOVIEW
 70
     0
  9
$UCSORGTOP
 10
0.0
 20
0.0
 30
0.0
  9
$UCSORGBOTTOM
 10
0.0
 20
0.0
 30
0.0
  9
$UCSORGLEFT
 10
0.0
 20
0.0
 30
0.0
  9
$UCSORGRIGHT
 10
0.0
 20
0.0
 30
0.0
  9
$UCSORGFRONT
 10
0.0
 20
0.0
 30
0.0
  9
$UCSORGBACK
 10
0.0
 20
0.0
 30
0.0
  9
$PUCSBASE
  2

  9
$PUCSNAME
  2

  9
$PUCSORG
 10
0.0
 20
0.0
 30
0.0
  9
$PUCSXDIR
 10
1.0
 20
0.0
 30
0.0
  9
$PUCSYDIR
 10
0.0
 20
1.0
 30
0.0
  9
$PUCSORTHOREF
  2

  9
$PUCSORTHOVIEW
 70
     0
  9
$PUCSORGTOP
 10
0.0
 20
0.0
 30
0.0
  9
$PUCSORGBOTTOM
 10
0.0
 20
0.0
 30
0.0
  9
$PUCSORGLEFT
 10
0.0
 20
0.0
 30
0.0
  9
$PUCSORGRIGHT
 10
0.0
 20
0.0
 30
0.0
  9
$PUCSORGFRONT
 10
0.0
 20
0.0
 30
0.0
  9
$PUCSORGBACK
 10
0.0
 20
0.0
 30
0.0
  9
$USERI1
 70
     0
  9
$USERI2
 70
     0
  9
$USERI3
 70
     0
  9
$USERI4
 70
     0
  9
$USERI5
 70
     0
  9
$USERR1
 40
0.0
  9
$USERR2
 40
0.0
  9
$USERR3
 40
0.0
  9
$USERR4
 40
0.0
  9
$USERR5
 40
0.0
  9
$WORLDVIEW
 70
     1
  9
$SHADEDGE
 70
     3
  9
$SHADEDIF
 70
    70
  9
$TILEMODE
 70
     1
  9
$MAXACTVP
 70
    48
  9
$PINSBASE
 10
0.0
 20
0.0
 30
0.0
  9
$PLIMCHECK
 70
     0
  9
$PEXTMIN
 10
211.5
 20
-8.0
 30
0.0
  9
$PEXTMAX
 10
903.5
 20
300.0
 30
0.0
  9
$PLIMMIN
 10
483.0294891085446
 20
-8.150164120482088
  9
$PLIMMAX
 10
903.0184722628415
 20
288.8181586334241
  9
$UNITMODE
 70
     0
  9
$VISRETAIN
 70
     1
  9
$PLINEGEN
 70
     0
  9
$PSLTSCALE
 70
     1
  9
$TREEDEPTH
 70
  3020
  9
$CMLSTYLE
  2
Standard
  9
$CMLJUST
 70
     0
  9
$CMLSCALE
 40
20.0
  9
$PROXYGRAPHICS
 70
     1
  9
$MEASUREMENT
 70
     1
  9
$CELWEIGHT
370
    -1
  9
$ENDCAPS
280
     0
  9
$JOINSTYLE
280
     0
  9
$LWDISPLAY
290
     0
  9
$INSUNITS
 70
     4
  9
$HYPERLINKBASE
  1

  9
$STYLESHEET
  1
catarog.ctb
  9
$XEDIT
290
     1
  9
$CEPSNTYPE
380
     0
  9
$PSTYLEMODE
290
     1
  9
$FINGERPRINTGUID
  2
{FDEAD578-A652-11D2-9A35-0060089B3A3F}
  9
$VERSIONGUID
  2
{A400C724-68FE-4FD8-8CD3-211E1FB28309}
  9
$EXTNAMES
290
     1
  9
$PSVPSCALE
 40
0.0
  9
$OLESTARTUP
290
     0
  9
$SORTENTS
280
   127
  9
$INDEXCTL
280
     0
  9
$HIDETEXT
280
     1
  9
$XCLIPFRAME
280
     2
  9
$HALOGAP
280
     0
  9
$OBSCOLOR
 70
   257
  9
$OBSLTYPE
280
     0
  9
$INTERSECTIONDISPLAY
280
     0
  9
$INTERSECTIONCOLOR
 70
   257
  9
$DIMASSOC
280
     2
  9
$PROJECTNAME
  1

  9
$CAMERADISPLAY
290
     0
  9
$LENSLENGTH
 40
50.0
  9
$CAMERAHEIGHT
 40
0.0
  9
$STEPSPERSEC
 40
2.0
  9
$STEPSIZE
 40
6.0
  9
$3DDWFPREC
 40
2.0
  9
$PSOLWIDTH
 40
0.25
  9
$PSOLHEIGHT
 40
4.0
  9
$LOFTANG1
 40
1.570796326794896
  9
$LOFTANG2
 40
1.570796326794896
  9
$LOFTMAG1
 40
0.0
  9
$LOFTMAG2
 40
0.0
  9
$LOFTPARAM
 70
     7
  9
$LOFTNORMALS
280
     1
  9
$LATITUDE
 40
37.795
  9
$LONGITUDE
 40
-122.394
  9
$NORTHDIRECTION
 40
0.0
  9
$TIMEZONE
 70
 -8000
  9
$LIGHTGLYPHDISPLAY
280
     1
  9
$TILEMODELIGHTSYNCH
280
     1
  9
$CMATERIAL
347
401D
  9
$SOLIDHIST
280
     0
  9
$SHOWHIST
280
     1
  9
$DWFFRAME
280
     2
  9
$DGNFRAME
280
     0
  9
$REALWORLDSCALE
290
     1
  9
$INTERFERECOLOR
 62
     1
  9
$INTERFEREOBJVS
345
403F
  9
$INTERFEREVPVS
346
403C
  9
$CSHADOW
280
     0
  9
$SHADOWPLANELOCATION
 40
0.0
  0
ENDSEC
  0
SECTION
  2
CLASSES
  0
CLASS
  1
ACDBDICTIONARYWDFLT
  2
AcDbDictionaryWithDefault
  3
ObjectDBX Classes
 90
        0
 91
        1
280
     0
281
     0
  0
CLASS
  1
DICTIONARYVAR
  2
AcDbDictionaryVar
  3
ObjectDBX Classes
 90
        0
 91
       12
280
     0
281
     0
  0
CLASS
  1
DIMASSOC
  2
AcDbDimAssoc
  3
"AcDbDimAssoc|Product Desc:     AcDim ARX App For Dimension|Company:          Autodesk, Inc.|WEB Address:      www.autodesk.com"
 90
        0
 91
        0
280
     0
281
     0
  0
CLASS
  1
MATERIAL
  2
AcDbMaterial
  3
ObjectDBX Classes
 90
     1153
 91
        3
280
     0
281
     0
  0
CLASS
  1
VISUALSTYLE
  2
AcDbVisualStyle
  3
ObjectDBX Classes
 90
     4095
 91
       24
280
     0
281
     0
  0
CLASS
  1
TABLESTYLE
  2
AcDbTableStyle
  3
ObjectDBX Classes
 90
     4095
 91
        1
280
     0
281
     0
  0
CLASS
  1
SCALE
  2
AcDbScale
  3
ObjectDBX Classes
 90
     1153
 91
       17
280
     0
281
     0
  0
CLASS
  1
MLEADERSTYLE
  2
AcDbMLeaderStyle
  3
ACDB_MLEADERSTYLE_CLASS
 90
     4095
 91
        3
280
     0
281
     0
  0
CLASS
  1
ACDBSECTIONVIEWSTYLE
  2
AcDbSectionViewStyle
  3
ObjectDBX Classes
 90
     1025
 91
        2
280
     0
281
     0
  0
CLASS
  1
ACDBDETAILVIEWSTYLE
  2
AcDbDetailViewStyle
  3
ObjectDBX Classes
 90
     1025
 91
        2
280
     0
281
     0
  0
CLASS
  1
ACAD_EVALUATION_GRAPH
  2
AcDbEvalGraph
  3
ObjectDBX Classes
 90
     1153
 91
        0
280
     0
281
     0
  0
CLASS
  1
ACAECUSTOBJ
  2
AcAeEditorObj
  3
AcAeEditorObj
 90
     1024
 91
        0
280
     0
281
     0
  0
CLASS
  1
ACDB_DYNAMICBLOCKPURGEPREVENTER_VERSION
  2
AcDbDynamicBlockPurgePreventer
  3
ObjectDBX Classes
 90
     1153
 91
        0
280
     0
281
     0
  0
CLASS
  1
SORTENTSTABLE
  2
AcDbSortentsTable
  3
ObjectDBX Classes
 90
        0
 91
        3
280
     0
281
     0
  0
CLASS
  1
MULTILEADER
  2
AcDbMLeader
  3
ACDB_MLEADER_CLASS
 90
     1025
 91
        0
280
     0
281
     1
  0
CLASS
  1
PLOTSETTINGS
  2
AcDbPlotSettings
  3
ObjectDBX Classes
 90
        0
 91
        7
280
     0
281
     0
  0
CLASS
  1
ACDBASSOCACTION
  2
AcDbAssocAction
  3
ObjectDBX Classes
 90
     1025
 91
        0
280
     0
281
     0
  0
CLASS
  1
ACDBASSOCARRAYACTIONBODY
  2
AcDbAssocArrayActionBody
  3
ObjectDBX Classes
 90
     1025
 91
        0
280
     0
281
     0
  0
CLASS
  1
ACDBASSOCDEPENDENCY
  2
AcDbAssocDependency
  3
ObjectDBX Classes
 90
     1025
 91
        0
280
     0
281
     0
  0
CLASS
  1
ACDBASSOCVERTEXACTIONPARAM
  2
AcDbAssocVertexActionParam
  3
ObjectDBX Classes
 90
     1025
 91
        0
280
     0
281
     0
  0
CLASS
  1
ACDBASSOCARRAYPOLARPARAMETERS
  2
AcDbAssocArrayPolarParameters
  3
ObjectDBX Classes
 90
     1025
 91
        0
280
     0
281
     0
  0
CLASS
  1
ACDBASSOCNETWORK
  2
AcDbAssocNetwork
  3
ObjectDBX Classes
 90
     1025
 91
        0
280
     0
281
     0
  0
CLASS
  1
ACARRAYJIGENTITY
  2
AcArrayJigEntity
  3
ACAD_ARRAY
 90
      129
 91
        0
280
     0
281
     1
  0
CLASS
  1
EXACXREFPANELOBJECT
  2
ExAcXREFPanelObject
  3
EXAC_ESW
 90
     1025
 91
        1
280
     0
281
     0
  0
CLASS
  1
NPOCOLLECTION
  2
AcDbImpNonPersistentObjectsCollection
  3
ObjectDBX Classes
 90
     1153
 91
        1
280
     0
281
     0
  0
CLASS
  1
CELLSTYLEMAP
  2
AcDbCellStyleMap
  3
ObjectDBX Classes
 90
     1152
 91
        1
280
     0
281
     0
  0
ENDSEC
  0
SECTION
  2
TABLES
  0
TABLE
  2
VPORT
  5
8
330
0
100
AcDbSymbolTable
 70
     1
  0
VPORT
  5
3FB5
330
8
100
AcDbSymbolTableRecord
100
AcDbViewportTableRecord
  2
*Active
 70
     0
 10
0.0
 20
0.0
 11
1.0
 21
1.0
 12
42.50885088055962
 22
13.20225885981023
 13
0.0
 23
0.0
 14
10.0
 24
10.0
 15
10.0
 25
10.0
 16
0.0
 26
0.0
 36
1.0
 17
0.0
 27
0.0
 37
0.0
 40
58.11332652199133
 41
1.471645919778699
 42
50.0
 43
0.0
 44
0.0
 50
0.0
 51
0.0
 71
     0
 72
   100
 73
     1
 74
     3
 75
     0
 76
     1
 77
     0
 78
     0
281
     0
 65
     1
110
0.0
120
0.0
130
0.0
111
1.0
121
0.0
131
0.0
112
0.0
122
1.0
132
0.0
 79
     0
146
0.0
348
403B
 60
     3
 61
     5
292
     1
282
     1
141
0.0
142
0.0
 63
   250
421
  3355443
1001
ACAD_NAV_VCDISPLAY
1070
     3
  0
ENDTAB
  0
TABLE
  2
LTYPE
  5
5
330
0
100
AcDbSymbolTable
 70
    10
  0
LTYPE
  5
14
330
5
100
AcDbSymbolTableRecord
100
AcDbLinetypeTableRecord
  2
ByBlock
 70
     0
  3

 72
    65
 73
     0
 40
0.0
  0
LTYPE
  5
15
330
5
100
AcDbSymbolTableRecord
100
AcDbLinetypeTableRecord
  2
ByLayer
 70
     0
  3

 72
    65
 73
     0
 40
0.0
  0
LTYPE
  5
16
330
5
100
AcDbSymbolTableRecord
100
AcDbLinetypeTableRecord
  2
Continuous
 70
     0
  3
Solid line
 72
    65
 73
     0
 40
0.0
  0
LTYPE
  5
84A
330
5
100
AcDbSymbolTableRecord
100
AcDbLinetypeTableRecord
  2
CENTER
 70
     0
  3
Center ____ _ ____ _ ____ _ ____ _ ____ _ ____
 72
    65
 73
     4
 40
2.0
 49
1.25
 74
     0
 49
-0.25
 74
     0
 49
0.25
 74
     0
 49
-0.25
 74
     0
  0
LTYPE
  5
3B1A
330
5
100
AcDbSymbolTableRecord
100
AcDbLinetypeTableRecord
  2
CENTER2
 70
     0
  3
Center (.5x) ___ _ ___ _ ___ _ ___ _ ___ _ ___
 72
    65
 73
     4
 40
1.125
 49
0.75
 74
     0
 49
-0.125
 74
     0
 49
0.125
 74
     0
 49
-0.125
 74
     0
  0
LTYPE
  5
3B1B
330
5
100
AcDbSymbolTableRecord
100
AcDbLinetypeTableRecord
  2
DASHED
 70
     0
  3
Dashed __ __ __ __ __ __ __ __ __ __ __ __ __ _
 72
    65
 73
     2
 40
0.75
 49
0.5
 74
     0
 49
-0.25
 74
     0
  0
LTYPE
  5
3B1C
330
5
100
AcDbSymbolTableRecord
100
AcDbLinetypeTableRecord
  2
DASHED2
 70
     0
  3
Dashed (.5x) _ _ _ _ _ _ _ _ _ _ _ _ _ _ _ _ _
 72
    65
 73
     2
 40
0.375
 49
0.25
 74
     0
 49
-0.125
 74
     0
  0
LTYPE
  5
3B1D
330
5
100
AcDbSymbolTableRecord
100
AcDbLinetypeTableRecord
  2
PHANTOM2
 70
     0
  3
Phantom (.5x) ___ _ _ ___ _ _ ___ _ _ ___ _ _
 72
    65
 73
     6
 40
1.25
 49
0.625
 74
     0
 49
-0.125
 74
     0
 49
0.125
 74
     0
 49
-0.125
 74
     0
 49
0.125
 74
     0
 49
-0.125
 74
     0
  0
LTYPE
  5
3B1E
330
5
100
AcDbSymbolTableRecord
100
AcDbLinetypeTableRecord
  2
CENTERX2
 70
     0
  3
Center (2x) ________  __  ________  __  _____
 72
    65
 73
     4
 40
4.0
 49
2.5
 74
     0
 49
-0.5
 74
     0
 49
0.5
 74
     0
 49
-0.5
 74
     0
  0
LTYPE
  5
3B1F
330
5
100
AcDbSymbolTableRecord
100
AcDbLinetypeTableRecord
  2
DASHEDX2
 70
     0
  3
Dashed (2x) ____  ____  ____  ____  ____  ___
 72
    65
 73
     2
 40
1.5
 49
1.0
 74
     0
 49
-0.5
 74
     0
  0
LTYPE
  5
3B20
330
5
100
AcDbSymbolTableRecord
100
AcDbLinetypeTableRecord
  2
PHANTOM
 70
     0
  3
Phantom ______  __  __  ______  __  __  ______
 72
    65
 73
     6
 40
2.5
 49
1.25
 74
     0
 49
-0.25
 74
     0
 49
0.25
 74
     0
 49
-0.25
 74
     0
 49
0.25
 74
     0
 49
-0.25
 74
     0
  0
LTYPE
  5
3B21
330
5
100
AcDbSymbolTableRecord
100
AcDbLinetypeTableRecord
  2
PHANTOMX2
 70
     0
  3
Phantom (2x) ____________    ____    ____   _
 72
    65
 73
     6
 40
5.0
 49
2.5
 74
     0
 49
-0.5
 74
     0
 49
0.5
 74
     0
 49
-0.5
 74
     0
 49
0.5
 74
     0
 49
-0.5
 74
     0
  0
ENDTAB
  0
TABLE
  2
LAYER
  5
2
102
{ACAD_XDICTIONARY
360
17A7
102
}
330
0
100
AcDbSymbolTable
 70
    10
  0
LAYER
  5
10
102
{ACAD_XDICTIONARY
360
407F
102
}
330
2
100
AcDbSymbolTableRecord
100
AcDbLayerTableRecord
  2
0
 70
     0
 62
     7
  6
Continuous
370
    -3
390
F
347
402D
348
0
  0
LAYER
  5
8E
330
2
100
AcDbSymbolTableRecord
100
AcDbLayerTableRecord
  2
DEFPOINTS
 70
     0
 62
     7
  6
Continuous
290
     0
370
    -3
390
F
347
402D
348
0
  0
LAYER
  5
2C2
102
{ACAD_XDICTIONARY
360
4081
102
}
330
2
100
AcDbSymbolTableRecord
100
AcDbLayerTableRecord
  2
002寸法
 70
     0
 62
     1
  6
Continuous
370
    -3
390
F
347
402D
348
0
  0
LAYER
  5
847
102
{ACAD_XDICTIONARY
360
4083
102
}
330
2
100
AcDbSymbolTableRecord
100
AcDbLayerTableRecord
  2
001センタ
 70
     0
 62
     1
  6
CENTER
370
    -3
390
F
347
402D
348
0
  0
LAYER
  5
44C8
102
{ACAD_XDICTIONARY
360
44C9
102
}
330
2
100
AcDbSymbolTableRecord
100
AcDbLayerTableRecord
  2
011形状
 70
     0
 62
     3
  6
Continuous
370
    -3
390
F
347
402D
348
0
1001
AcAecLayerStandard
1000

1000

1001
AcCmTransparency
1071
        0
  0
LAYER
  5
44CA
330
2
100
AcDbSymbolTableRecord
100
AcDbLayerTableRecord
  2
003注釈
 70
     0
 62
     2
  6
Continuous
370
    -3
390
F
347
402D
348
0
1001
AcAecLayerStandard
1000

1000

1001
AcCmTransparency
1071
        0
  0
LAYER
  5
49B0
330
2
100
AcDbSymbolTableRecord
100
AcDbLayerTableRecord
  2
051共通部品
 70
     0
 62
     3
  6
Continuous
370
    -3
390
F
347
402D
348
0
1001
AcAecLayerStandard
1000

1000

1001
AcCmTransparency
1071
        0
  0
LAYER
  5
49B1
330
2
100
AcDbSymbolTableRecord
100
AcDbLayerTableRecord
  2
101購入品
 70
     0
 62
     3
  6
Continuous
370
    -3
390
F
347
402D
348
0
1001
AcAecLayerStandard
1000

1000

1001
AcCmTransparency
1071
        0
  0
LAYER
  5
4E3F
330
2
100
AcDbSymbolTableRecord
100
AcDbLayerTableRecord
  2
111治具
 70
     0
 62
     3
  6
Continuous
370
    -3
390
F
347
402D
348
0
1001
AcAecLayerStandard
1000

1000

1001
AcCmTransparency
1071
        0
  0
LAYER
  5
555E
330
2
100
AcDbSymbolTableRecord
100
AcDbLayerTableRecord
  2
052収納品
 70
     0
 62
     1
  6
PHANTOM
370
    -3
390
F
347
402D
348
0
1001
AcAecLayerStandard
1000

1000

1001
AcCmTransparency
1071
        0
  0
ENDTAB
  0
TABLE
  2
STYLE
  5
3
330
0
100
AcDbSymbolTable
 70
     8
  0
STYLE
  5
11
330
3
100
AcDbSymbolTableRecord
100
AcDbTextStyleTableRecord
  2
Standard
 70
     0
 40
0.0
 41
0.9
 50
0.0
 71
     0
 42
3.0
  3
romans.shx
  4
extfont2.shx
  0
STYLE
  5
2C3
330
3
100
AcDbSymbolTableRecord
100
AcDbTextStyleTableRecord
  2
表題
 70
     0
 40
0.0
 41
1.0
 50
0.0
 71
     0
 42
2.5
  3
HGRSMP.TTF
  4

1001
ACAD
1000
HGMaruGothicMPRO
1071
    32818
  0
STYLE
  5
849
330
3
100
AcDbSymbolTableRecord
100
AcDbTextStyleTableRecord
  2

 70
     1
 40
0.0
 41
1.0
 50
0.0
 71
     0
 42
2.5
  3
ltypeshp.shx
  4

  0
STYLE
  5
44CB
330
3
100
AcDbSymbolTableRecord
100
AcDbTextStyleTableRecord
  2
注釈
 70
     0
 40
3.0
 41
0.9
 50
0.0
 71
     0
 42
3.0
  3
romans.shx
  4
extfont2.shx
  0
STYLE
  5
6071
330
3
100
AcDbSymbolTableRecord
100
AcDbTextStyleTableRecord
  2
KANJI0
 70
     0
 40
2.5
 41
1.0
 50
0.0
 71
     0
 42
2.5
  3
txt.shx
  4
bigfont
  0
STYLE
  5
6072
330
3
100
AcDbSymbolTableRecord
100
AcDbTextStyleTableRecord
  2
KANJI1
 70
     0
 40
1.0
 41
1.0
 50
0.0
 71
     0
 42
1.0
  3
txt.shx
  4
bigfont
  0
ENDTAB
  0
TABLE
  2
VIEW
  5
6
330
0
100
AcDbSymbolTable
 70
     5
  0
ENDTAB
  0
TABLE
  2
UCS
  5
7
330
0
100
AcDbSymbolTable
 70
     0
  0
ENDTAB
  0
TABLE
  2
APPID
  5
9
330
0
100
AcDbSymbolTable
 70
    13
  0
APPID
  5
12
330
9
100
AcDbSymbolTableRecord
100
AcDbRegAppTableRecord
  2
ACAD
 70
     0
  0
APPID
  5
4070
330
9
100
AcDbSymbolTableRecord
100
AcDbRegAppTableRecord
  2
ACAD_NAV_VCDISPLAY
 70
     0
  0
APPID
  5
40E3
330
9
100
AcDbSymbolTableRecord
100
AcDbRegAppTableRecord
  2
ACAD_EXEMPT_FROM_CAD_STANDARDS
 70
     0
  0
APPID
  5
411B
330
9
100
AcDbSymbolTableRecord
100
AcDbRegAppTableRecord
  2
ACAUTHENVIRON
 70
     0
  0
APPID
  5
416A
330
9
100
AcDbSymbolTableRecord
100
AcDbRegAppTableRecord
  2
AcDbDynamicBlockTrueName
 70
     0
  0
APPID
  5
416B
330
9
100
AcDbSymbolTableRecord
100
AcDbRegAppTableRecord
  2
AcDbDynamicBlockGUID
 70
     0
  0
APPID
  5
41C1
330
9
100
AcDbSymbolTableRecord
100
AcDbRegAppTableRecord
  2
AcadAnnoPO
 70
     0
  0
APPID
  5
44CC
330
9
100
AcDbSymbolTableRecord
100
AcDbRegAppTableRecord
  2
AcAecLayerStandard
 70
     0
  0
APPID
  5
44CD
330
9
100
AcDbSymbolTableRecord
100
AcDbRegAppTableRecord
  2
AcCmTransparency
 70
     0
  0
APPID
  5
47DB
330
9
100
AcDbSymbolTableRecord
100
AcDbRegAppTableRecord
  2
ACAD_PSEXT
 70
     0
  0
APPID
  5
498F
330
9
100
AcDbSymbolTableRecord
100
AcDbRegAppTableRecord
  2
ACAD_DSTYLE_DIMJAG
 70
     0
  0
APPID
  5
4990
330
9
100
AcDbSymbolTableRecord
100
AcDbRegAppTableRecord
  2
ACAD_DSTYLE_DIMTALN
 70
     0
  0
APPID
  5
499B
330
9
100
AcDbSymbolTableRecord
100
AcDbRegAppTableRecord
  2
ACAD_DSTYLE_DIMRADIAL_EXTENSION
 70
     0
  0
ENDTAB
  0
TABLE
  2
DIMSTYLE
  5
A
330
0
100
AcDbSymbolTable
 70
    21
100
AcDbDimStyleTable
 71
     5
340
3B22
340
3B31
340
3B23
340
3B26
340
3B24
  0
DIMSTYLE
105
3B22
102
{ACAD_REACTORS
330
CC9E
330
CC9F
330
CCA0
330
CCA1
102
}
330
A
100
AcDbSymbolTableRecord
100
AcDbDimStyleTableRecord
  2
通常x1.0
 70
     0
 41
2.5
 42
0.5
 43
3.75
 44
0.75
 48
0.000000001
 73
     0
 74
     0
 77
     3
 78
     8
 79
     2
140
3.0
141
2.5
143
0.0394
146
0.5
147
0.5
171
     4
172
     1
173
     1
176
   256
177
   256
178
     2
179
     8
271
     8
272
     8
273
     8
274
     4
283
     0
284
     8
340
11
341
86
343
86
344
86
371
    -1
372
    -1
  0
DIMSTYLE
105
3B23
330
A
100
AcDbSymbolTableRecord
100
AcDbDimStyleTableRecord
  2
通常x3.0
 70
     0
 40
0.0
 41
0.833
 42
0.167
 43
3.75
 44
0.25
 48
0.000000001
 73
     0
 74
     0
 77
     3
 78
     8
 79
     2
140
1.0
141
2.5
143
0.0394
146
0.5
147
0.167
171
     4
172
     1
173
     1
176
   256
177
   256
178
     2
179
     8
271
     8
272
     8
273
     8
274
     4
283
     0
284
     8
340
11
341
86
343
86
344
86
371
    -1
372
    -1
  0
DIMSTYLE
105
3B24
330
A
100
AcDbSymbolTableRecord
100
AcDbDimStyleTableRecord
  2
通常x2.0
 70
     0
 40
0.0
 41
1.25
 42
0.25
 43
3.75
 44
0.375
 48
0.000000001
 73
     0
 74
     0
 77
     3
 78
     8
 79
     2
140
1.5
141
2.5
143
0.0394
146
0.5
147
0.25
171
     4
172
     1
173
     1
176
   256
177
   256
178
     2
179
     8
271
     8
272
     8
273
     8
274
     4
283
     0
284
     8
340
11
341
86
343
86
344
86
371
    -1
372
    -1
  0
DIMSTYLE
105
3B25
330
A
100
AcDbSymbolTableRecord
100
AcDbDimStyleTableRecord
  2
通常x2%3
 70
     0
 41
3.75
 42
0.75
 43
3.75
 44
1.125
 73
     0
 74
     0
 77
     3
 78
     8
 79
     2
140
4.5
141
2.5
143
0.0394
146
0.5
147
0.75
171
     4
172
     1
173
     1
176
   256
177
   256
178
     2
179
     7
271
     8
272
     8
273
     8
274
     4
283
     0
284
     8
340
11
341
86
343
86
344
86
371
    -1
372
    -1
  0
DIMSTYLE
105
3B26
330
A
100
AcDbSymbolTableRecord
100
AcDbDimStyleTableRecord
  2
通常x3%4
 70
     0
 41
3.333
 42
0.667
 43
3.75
 44
1.0
 48
0.000000001
 73
     0
 74
     0
 77
     3
 78
     8
 79
     2
140
4.0
141
2.5
143
0.0394
146
0.5
147
0.667
171
     4
172
     1
173
     1
176
   256
177
   256
178
     2
179
     8
271
     8
272
     8
273
     8
274
     4
283
     0
284
     8
340
11
341
86
343
86
344
86
371
    -1
372
    -1
  0
DIMSTYLE
105
3B27
330
A
100
AcDbSymbolTableRecord
100
AcDbDimStyleTableRecord
  2
通常x1%3
 70
     0
 41
7.5
 42
1.5
 43
3.75
 44
2.25
 48
0.000000001
 73
     0
 74
     0
 77
     3
 78
     8
 79
     2
140
9.0
141
2.5
143
0.0394
146
0.5
147
1.5
171
     4
172
     1
173
     1
176
   256
177
   256
178
     2
179
     8
271
     8
272
     8
273
     8
274
     4
283
     0
284
     8
340
11
341
86
343
86
344
86
371
    -1
372
    -1
  0
DIMSTYLE
105
3B28
330
A
100
AcDbSymbolTableRecord
100
AcDbDimStyleTableRecord
  2
通常x1%2
 70
     0
 41
5.0
 42
1.0
 43
3.75
 44
1.5
 73
     0
 74
     0
 77
     3
 78
     8
 79
     2
140
6.0
141
2.5
143
0.0394
146
0.5
147
1.0
171
     4
172
     1
173
     1
176
   256
177
   256
178
     2
179
     8
271
     8
272
     8
273
     8
274
     4
283
     0
284
     8
340
11
341
86
343
86
344
86
371
    -1
372
    -1
  0
DIMSTYLE
105
3B29
330
A
100
AcDbSymbolTableRecord
100
AcDbDimStyleTableRecord
  2
通常x1.0$3
 70
     0
 41
2.5
 42
0.5
 43
3.75
 44
0.75
 48
0.000000001
 73
     0
 74
     0
 77
     3
 78
     8
 79
     2
140
3.0
141
2.5
143
0.0394
146
0.5
147
0.5
171
     4
172
     1
173
     1
176
   256
177
   256
178
     2
179
     8
271
     2
272
     2
273
     8
274
     4
283
     0
284
     8
289
     2
340
11
341
86
343
86
344
86
1001
ACAD_DSTYLE_DIMJAG
1070
   388
1040
1.5
1001
ACAD_DSTYLE_DIMTALN
1070
   392
1070
     0
  0
DIMSTYLE
105
3B2A
330
A
100
AcDbSymbolTableRecord
100
AcDbDimStyleTableRecord
  2
通常x1%3$3
 70
     0
 41
7.5
 42
1.5
 43
3.75
 44
2.25
 48
0.000000001
 73
     0
 74
     0
 77
     3
 78
     8
 79
     2
140
9.0
141
2.5
143
0.0394
146
0.5
147
1.5
171
     4
172
     1
173
     1
176
   256
177
   256
178
     2
179
     7
271
     8
272
     8
273
     8
274
     4
283
     0
284
     8
289
     2
340
11
341
86
343
86
344
86
371
    -1
372
    -1
1001
ACAD_DSTYLE_DIMJAG
1070
   388
1040
1.5
1001
ACAD_DSTYLE_DIMTALN
1070
   392
1070
     0
  0
DIMSTYLE
105
3B2B
330
A
100
AcDbSymbolTableRecord
100
AcDbDimStyleTableRecord
  2
通常x1%2$3
 70
     0
 41
5.0
 42
1.0
 43
3.75
 44
1.5
 73
     0
 74
     0
 77
     3
 78
     8
 79
     2
140
6.0
141
2.5
143
0.0394
146
0.5
147
1.0
171
     4
172
     1
173
     1
176
   256
177
   256
178
     2
179
     7
271
     8
272
     8
273
     8
274
     4
283
     0
284
     8
289
     2
340
11
341
86
343
86
344
86
371
    -1
372
    -1
1001
ACAD_DSTYLE_DIMJAG
1070
   388
1040
1.5
1001
ACAD_DSTYLE_DIMTALN
1070
   392
1070
     0
  0
DIMSTYLE
105
3B2C
330
A
100
AcDbSymbolTableRecord
100
AcDbDimStyleTableRecord
  2
通常x2%3$3
 70
     0
 41
3.75
 42
0.75
 43
3.75
 44
1.125
 73
     0
 74
     0
 77
     3
 78
     8
 79
     2
140
4.5
141
2.5
143
0.0394
146
0.5
147
0.75
171
     4
172
     1
173
     1
176
   256
177
   256
178
     2
179
     7
271
     8
272
     8
273
     8
274
     4
283
     0
284
     8
289
     2
340
11
341
86
343
86
344
86
371
    -1
372
    -1
1001
ACAD_DSTYLE_DIMJAG
1070
   388
1040
1.5
1001
ACAD_DSTYLE_DIMTALN
1070
   392
1070
     0
  0
DIMSTYLE
105
3B2D
330
A
100
AcDbSymbolTableRecord
100
AcDbDimStyleTableRecord
  2
通常x3%4$3
 70
     0
 41
3.333
 42
0.667
 43
3.75
 44
1.0
 48
0.000000001
 73
     0
 74
     0
 77
     3
 78
     8
 79
     2
140
4.0
141
10.0
143
0.0394
146
0.5
147
0.667
171
     4
172
     1
173
     1
176
   256
177
   256
178
     2
179
     7
271
     8
272
     8
273
     8
274
     4
283
     0
284
     8
289
     2
340
11
341
86
343
86
344
86
371
    -1
372
    -1
1001
ACAD_DSTYLE_DIMJAG
1070
   388
1040
1.5
1001
ACAD_DSTYLE_DIMTALN
1070
   392
1070
     0
  0
DIMSTYLE
105
3B2E
330
A
100
AcDbSymbolTableRecord
100
AcDbDimStyleTableRecord
  2
通常x2.0$3
 70
     0
 40
0.0
 41
1.25
 42
0.25
 43
3.75
 44
0.5
 48
0.000000001
 73
     0
 74
     0
 77
     3
 78
     8
 79
     2
140
1.5
141
2.5
143
0.0394
146
0.5
147
0.5
171
     4
172
     1
173
     1
176
   256
177
   256
178
     2
179
     5
271
     8
272
     8
273
     8
274
     4
283
     0
284
     8
289
     2
340
11
341
86
343
86
344
86
371
    -1
372
    -1
1001
ACAD_DSTYLE_DIMJAG
1070
   388
1040
1.5
1001
ACAD_DSTYLE_DIMTALN
1070
   392
1070
     0
  0
DIMSTYLE
105
3B2F
330
A
100
AcDbSymbolTableRecord
100
AcDbDimStyleTableRecord
  2
通常x3.0$3
 70
     0
 40
0.0
 41
0.833
 42
0.167
 43
3.75
 44
0.4
 48
0.000000001
 73
     0
 74
     0
 77
     3
 78
     8
 79
     2
140
1.0
141
2.5
143
0.0394
146
0.5
147
0.4
171
     4
172
     1
173
     1
176
   256
177
   256
178
     2
179
     8
271
     8
272
     8
273
     8
274
     4
283
     0
284
     8
289
     2
340
11
341
86
343
86
344
86
371
    -1
372
    -1
1001
ACAD_DSTYLE_DIMJAG
1070
   388
1040
1.5
1001
ACAD_DSTYLE_DIMTALN
1070
   392
1070
     0
  0
DIMSTYLE
105
3B30
330
A
100
AcDbSymbolTableRecord
100
AcDbDimStyleTableRecord
  2
通常x1.5
 70
     0
 41
1.666999999999999
 42
0.33
 43
3.75
 44
0.5
 48
0.000000001
 73
     0
 74
     0
 77
     3
 78
     9
 79
     2
140
2.0
141
2.5
143
0.0394
146
0.5
147
0.33
171
     4
172
     1
173
     1
176
   256
177
   256
178
     2
179
     8
271
     8
272
     8
273
     8
274
     4
283
     0
284
     8
340
11
341
86
343
86
344
86
  0
DIMSTYLE
105
3B31
330
A
100
AcDbSymbolTableRecord
100
AcDbDimStyleTableRecord
  2
通常x3%5
 70
     0
 41
4.166999999999999
 42
0.833
 43
3.75
 44
1.25
 48
0.000000001
 73
     0
 74
     0
 77
     3
 78
     8
 79
     2
140
5.0
141
2.5
143
0.0394
146
0.5
147
0.833
171
     4
172
     1
173
     1
176
   256
177
   256
178
     2
179
     8
271
     8
272
     8
273
     8
274
     4
283
     0
284
     8
340
11
341
86
343
86
344
86
371
    -1
372
    -1
  0
DIMSTYLE
105
3B32
330
A
100
AcDbSymbolTableRecord
100
AcDbDimStyleTableRecord
  2
通常x3%5$3
 70
     0
 41
4.166999999999999
 42
0.833
 43
3.75
 44
1.25
 48
0.000000001
 73
     0
 74
     0
 77
     3
 78
     8
 79
     2
140
5.0
141
2.5
143
0.0394
146
0.5
147
0.833
171
     4
172
     1
173
     1
176
   256
177
   256
178
     2
179
     8
271
     8
272
     8
273
     8
274
     4
283
     0
284
     8
289
     2
340
11
341
86
343
86
344
86
371
    -1
372
    -1
1001
ACAD_DSTYLE_DIMJAG
1070
   388
1040
1.5
1001
ACAD_DSTYLE_DIMTALN
1070
   392
1070
     0
  0
DIMSTYLE
105
3B33
330
A
100
AcDbSymbolTableRecord
100
AcDbDimStyleTableRecord
  2
通常x1.5$3
 70
     0
 41
1.666999999999999
 42
0.33
 43
3.75
 44
0.5
 48
0.000000001
 73
     0
 74
     0
 77
     3
 78
     9
 79
     2
140
2.0
141
2.5
143
0.0394
146
0.5
147
0.33
171
     4
172
     1
173
     1
176
   256
177
   256
178
     2
179
     8
271
     8
272
     8
273
     8
274
     4
283
     0
284
     8
289
     2
340
11
341
86
343
86
344
86
1001
ACAD_DSTYLE_DIMJAG
1070
   388
1040
1.5
1001
ACAD_DSTYLE_DIMTALN
1070
   392
1070
     0
  0
DIMSTYLE
105
6073
330
A
100
AcDbSymbolTableRecord
100
AcDbDimStyleTableRecord
  2
Standard
 70
     0
340
11
  0
ENDTAB
  0
TABLE
  2
BLOCK_RECORD
  5
1
330
0
100
AcDbSymbolTable
 70
    44
  0
BLOCK_RECORD
  5
1F
102
{ACAD_XDICTIONARY
360
CA
102
}
330
1
100
AcDbSymbolTableRecord
100
AcDbBlockTableRecord
  2
*Model_Space
340
22
 70
     0
280
     1
281
     0
  0
BLOCK_RECORD
  5
55
102
{ACAD_XDICTIONARY
360
CC
102
}
330
1
100
AcDbSymbolTableRecord
100
AcDbBlockTableRecord
  2
*Paper_Space
340
56
 70
     0
280
     1
281
     0
  0
BLOCK_RECORD
  5
50
102
{ACAD_XDICTIONARY
360
CE
102
}
330
1
100
AcDbSymbolTableRecord
100
AcDbBlockTableRecord
  2
*Paper_Space0
340
51
 70
     0
280
     1
281
     0
  0
BLOCK_RECORD
  5
86
330
1
100
AcDbSymbolTableRecord
100
AcDbBlockTableRecord
  2
_OPEN
340
0
102
{BLKREFS
331
CD8A
331
CD8B
331
CD93
331
CD94
331
CD9C
331
CD9D
331
CDA5
331
CDA6
331
CC53
331
CC54
331
CC5F
331
CC60
331
CC6B
331
CC6C
331
CC77
331
CC78
102
}
 70
     0
280
     1
281
     0
  0
BLOCK_RECORD
  5
2C53
330
1
100
AcDbSymbolTableRecord
100
AcDbBlockTableRecord
  2
A$C0C1533B0
340
0
 70
     0
280
     1
281
     0
  0
BLOCK_RECORD
  5
42F3
330
1
100
AcDbSymbolTableRecord
100
AcDbBlockTableRecord
  2
～
340
0
310
2800000020000000200000000100080000000000000400000000000000000000000000000000000000000000000080000080000000808000800000008000800080800000C0C0C000C0DCC000F0CAA6000020400000206000002080000020A0000020C0000020E00000400000004020000040400000406000004080000040A0
310
000040C0000040E00000600000006020000060400000606000006080000060A0000060C0000060E00000800000008020000080400000806000008080000080A0000080C0000080E00000A0000000A0200000A0400000A0600000A0800000A0A00000A0C00000A0E00000C0000000C0200000C0400000C0600000C0800000C0
310
A00000C0C00000C0E00000E0000000E0200000E0400000E0600000E0800000E0A00000E0C00000E0E00040000000400020004000400040006000400080004000A0004000C0004000E00040200000402020004020400040206000402080004020A0004020C0004020E000404000004040200040404000404060004040800040
310
40A0004040C0004040E00040600000406020004060400040606000406080004060A0004060C0004060E00040800000408020004080400040806000408080004080A0004080C0004080E00040A0000040A0200040A0400040A0600040A0800040A0A00040A0C00040A0E00040C0000040C0200040C0400040C0600040C08000
310
40C0A00040C0C00040C0E00040E0000040E0200040E0400040E0600040E0800040E0A00040E0C00040E0E00080000000800020008000400080006000800080008000A0008000C0008000E00080200000802020008020400080206000802080008020A0008020C0008020E00080400000804020008040400080406000804080
310
008040A0008040C0008040E00080600000806020008060400080606000806080008060A0008060C0008060E00080800000808020008080400080806000808080008080A0008080C0008080E00080A0000080A0200080A0400080A0600080A0800080A0A00080A0C00080A0E00080C0000080C0200080C0400080C0600080C0
310
800080C0A00080C0C00080C0E00080E0000080E0200080E0400080E0600080E0800080E0A00080E0C00080E0E000C0000000C0002000C0004000C0006000C0008000C000A000C000C000C000E000C0200000C0202000C0204000C0206000C0208000C020A000C020C000C020E000C0400000C0402000C0404000C0406000C0
310
408000C040A000C040C000C040E000C0600000C0602000C0604000C0606000C0608000C060A000C060C000C060E000C0800000C0802000C0804000C0806000C0808000C080A000C080C000C080E000C0A00000C0A02000C0A04000C0A06000C0A08000C0A0A000C0A0C000C0A0E000C0C00000C0C02000C0C04000C0C06000
310
C0C08000C0C0A000F0FBFF00A4A0A000808080000000FF0000FF000000FFFF00FF000000FF00FF00FFFF0000FFFFFF0000000000000000000000000000000000000000000000000000000000000000000000000000000000000000000000000000000000000000000000000000000000000000000000000000000000000000
310
00000000000000000000000000000000000000000000000000000000000000000000000000000000000000000000000000000000000000000000000000000000000000000000000000000000000000000000000000000000000000000000000000000000000000000000000000000000000000000000000000000000000000
310
00000000000000000000000000000000000000000000000000000000000000000000000000000000000000000000000000000000000000000000000000000000000000000000000000000000000000000000000000000000000000000000000000000000000000000000000000000000000000000000000000000000000000
310
00000000000000000000000000000000000000000000000000000000000000000000000000000000000000000000000000000000F9000000000000000000000000000000000000F9F9F9F9F9F90000000000000000F90000000000000000000000000000F9F9F9000000000000F9F9000000000000F9000000000000000000
310
00000000F90000000000000000000000F9000000000000F9000000000000000000000000F90000000000000000000000F9000000000000F9000000000000000000000000F9000000000000000000000000F90000000000F90000000000000000000000F900000000000000000000000000F9000000000000F9000000000000
310
00F9F9F90000000000000000000000000000F900000000000000F9F9F9F9F9F9F9000000000000000000000000000000000000F9000000000000000000000000000000000000000000000000000000000000000000000000000000000000000000000000000000000000000000000000000000000000000000000000000000
310
00000000000000000000000000000000000000000000000000000000000000000000000000000000000000000000000000000000000000000000000000000000000000000000000000000000000000000000000000000000000000000000000000000000000000000000000000000000000000000000000000000000000000
310
00000000000000000000000000000000000000000000000000000000000000000000000000000000000000000000000000000000000000000000000000000000000000000000000000000000000000000000000000000000000000000000000000000000000000000000000000000000000000000000000000000000000000
310
0000000000000000000000000000000000000000000000000000000000000000000000000000000000000000000000000000000000000000
 70
     4
280
     1
281
     0
  0
BLOCK_RECORD
  5
4301
330
1
100
AcDbSymbolTableRecord
100
AcDbBlockTableRecord
  2
▽
340
0
310
2800000020000000200000000100080000000000000400000000000000000000000000000000000000000000000080000080000000808000800000008000800080800000C0C0C000C0DCC000F0CAA6000020400000206000002080000020A0000020C0000020E00000400000004020000040400000406000004080000040A0
310
000040C0000040E00000600000006020000060400000606000006080000060A0000060C0000060E00000800000008020000080400000806000008080000080A0000080C0000080E00000A0000000A0200000A0400000A0600000A0800000A0A00000A0C00000A0E00000C0000000C0200000C0400000C0600000C0800000C0
310
A00000C0C00000C0E00000E0000000E0200000E0400000E0600000E0800000E0A00000E0C00000E0E00040000000400020004000400040006000400080004000A0004000C0004000E00040200000402020004020400040206000402080004020A0004020C0004020E000404000004040200040404000404060004040800040
310
40A0004040C0004040E00040600000406020004060400040606000406080004060A0004060C0004060E00040800000408020004080400040806000408080004080A0004080C0004080E00040A0000040A0200040A0400040A0600040A0800040A0A00040A0C00040A0E00040C0000040C0200040C0400040C0600040C08000
310
40C0A00040C0C00040C0E00040E0000040E0200040E0400040E0600040E0800040E0A00040E0C00040E0E00080000000800020008000400080006000800080008000A0008000C0008000E00080200000802020008020400080206000802080008020A0008020C0008020E00080400000804020008040400080406000804080
310
008040A0008040C0008040E00080600000806020008060400080606000806080008060A0008060C0008060E00080800000808020008080400080806000808080008080A0008080C0008080E00080A0000080A0200080A0400080A0600080A0800080A0A00080A0C00080A0E00080C0000080C0200080C0400080C0600080C0
310
800080C0A00080C0C00080C0E00080E0000080E0200080E0400080E0600080E0800080E0A00080E0C00080E0E000C0000000C0002000C0004000C0006000C0008000C000A000C000C000C000E000C0200000C0202000C0204000C0206000C0208000C020A000C020C000C020E000C0400000C0402000C0404000C0406000C0
310
408000C040A000C040C000C040E000C0600000C0602000C0604000C0606000C0608000C060A000C060C000C060E000C0800000C0802000C0804000C0806000C0808000C080A000C080C000C080E000C0A00000C0A02000C0A04000C0A06000C0A08000C0A0A000C0A0C000C0A0E000C0C00000C0C02000C0C04000C0C06000
310
C0C08000C0C0A000F0FBFF00A4A0A000808080000000FF0000FF000000FFFF00FF000000FF00FF00FFFF0000FFFFFF0000000000000000000000000000000000000000000000000000000000000000000000000000000000000000000000000000000000000000000000000000000000000000000000000000000000000000
310
000000000000000000000000000000000000000000000000000000000000000000F9000000000000000000000000000000000000000000000000000000000000F900F90000000000000000000000000000000000000000000000000000000000F900F900000000000000000000000000000000000000000000000000000000
310
F9000000F9000000000000000000000000000000000000000000000000000000F9000000F90000000000000000000000000000000000000000000000000000F90000000000F9000000000000000000000000000000000000000000000000F9000000000000F9000000000000000000000000000000000000000000000000F9
310
00000000000000F900000000000000000000000000000000000000000000F90000000000000000F900000000000000000000000000000000000000000000F9000000000000000000F90000000000000000000000000000000000000000F90000000000000000000000F9000000000000000000000000000000000000F90000
310
00000000000000000000F9000000000000000000000000000000000000F900000000000000000000000000F900000000000000000000000000000000F90000000000000000000000000000F900000000000000000000000000000000F9000000000000000000000000000000F90000000000000000000000000000F9000000
310
00000000000000000000000000F900000000000000000000000000F9000000000000000000000000000000000000F9000000000000000000000000F900000000000000000000000000000000000000F900000000000000000000F90000000000000000000000000000000000000000F900000000000000000000F900000000
310
0000000000000000000000000000000000F90000000000000000F900000000000000000000000000000000000000000000F900000000000000F9000000000000000000000000000000000000000000000000F9000000000000F9000000000000000000000000000000000000000000000000F90000000000F9000000000000
310
0000000000000000000000000000000000000000F900000000F90000000000000000000000000000000000000000000000000000F9000000F9F9F9F9F9F9F9F9F9F9F9F9F9F9F9F9F9F9F9F9F9F9F9F9F9F9F9F9F9F90000000000000000000000000000000000000000000000000000000000000000000000000000000000
310
0000000000000000000000000000000000000000000000000000000000000000000000000000000000000000000000000000000000000000
 70
     4
280
     1
281
     0
  0
BLOCK_RECORD
  5
4317
330
1
100
AcDbSymbolTableRecord
100
AcDbBlockTableRecord
  2
▽▽
340
0
310
2800000020000000200000000100080000000000000400000000000000000000000000000000000000000000000080000080000000808000800000008000800080800000C0C0C000C0DCC000F0CAA6000020400000206000002080000020A0000020C0000020E00000400000004020000040400000406000004080000040A0
310
000040C0000040E00000600000006020000060400000606000006080000060A0000060C0000060E00000800000008020000080400000806000008080000080A0000080C0000080E00000A0000000A0200000A0400000A0600000A0800000A0A00000A0C00000A0E00000C0000000C0200000C0400000C0600000C0800000C0
310
A00000C0C00000C0E00000E0000000E0200000E0400000E0600000E0800000E0A00000E0C00000E0E00040000000400020004000400040006000400080004000A0004000C0004000E00040200000402020004020400040206000402080004020A0004020C0004020E000404000004040200040404000404060004040800040
310
40A0004040C0004040E00040600000406020004060400040606000406080004060A0004060C0004060E00040800000408020004080400040806000408080004080A0004080C0004080E00040A0000040A0200040A0400040A0600040A0800040A0A00040A0C00040A0E00040C0000040C0200040C0400040C0600040C08000
310
40C0A00040C0C00040C0E00040E0000040E0200040E0400040E0600040E0800040E0A00040E0C00040E0E00080000000800020008000400080006000800080008000A0008000C0008000E00080200000802020008020400080206000802080008020A0008020C0008020E00080400000804020008040400080406000804080
310
008040A0008040C0008040E00080600000806020008060400080606000806080008060A0008060C0008060E00080800000808020008080400080806000808080008080A0008080C0008080E00080A0000080A0200080A0400080A0600080A0800080A0A00080A0C00080A0E00080C0000080C0200080C0400080C0600080C0
310
800080C0A00080C0C00080C0E00080E0000080E0200080E0400080E0600080E0800080E0A00080E0C00080E0E000C0000000C0002000C0004000C0006000C0008000C000A000C000C000C000E000C0200000C0202000C0204000C0206000C0208000C020A000C020C000C020E000C0400000C0402000C0404000C0406000C0
310
408000C040A000C040C000C040E000C0600000C0602000C0604000C0606000C0608000C060A000C060C000C060E000C0800000C0802000C0804000C0806000C0808000C080A000C080C000C080E000C0A00000C0A02000C0A04000C0A06000C0A08000C0A0A000C0A0C000C0A0E000C0C00000C0C02000C0C04000C0C06000
310
C0C08000C0C0A000F0FBFF00A4A0A000808080000000FF0000FF000000FFFF00FF000000FF00FF00FFFF0000FFFFFF0000000000000000000000000000000000000000000000000000000000000000000000000000000000000000000000000000000000000000000000000000000000000000000000000000000000000000
310
00000000000000000000000000000000000000000000000000000000000000000000000000000000000000000000000000000000000000000000000000000000000000000000000000000000000000000000000000000000000000000000000000000000000000000000000000000000000000000000000000000000000000
310
000000000000000000000000000000000000000000000000000000000000000000000000000000000000000000000000000000000000000000000000000000000000000000000000000000000000000000000000000000000000F90000000000000000000000000000F9000000000000000000000000000000F900F9000000
310
000000000000000000F900F90000000000000000000000000000F900F9000000000000000000000000F900F900000000000000000000000000F9000000F900000000000000000000F9000000F9000000000000000000000000F9000000F900000000000000000000F9000000F90000000000000000000000F90000000000F9
310
0000000000000000F90000000000F900000000000000000000F9000000000000F900000000000000F90000000000F9000000000000000000F900000000000000F9000000000000F900000000000000F90000000000000000F90000000000000000F90000000000F900000000000000F900000000000000F900000000000000
310
000000F9000000F9000000000000000000F9000000000000F900000000000000000000F9000000F9000000000000000000F90000000000F9000000000000000000000000F900F90000000000000000000000F900000000F9000000000000000000000000F900F90000000000000000000000F9000000F9F9F9F9F9F9F9F9F9
310
F9F9F9F9F9F9F9F9F9F9F9F9F9F9F9F9F9F9F9F9F900000000000000000000000000000000000000000000000000000000000000000000000000000000000000000000000000000000000000000000000000000000000000000000000000000000000000000000000000000000000000000000000000000000000000000000
310
00000000000000000000000000000000000000000000000000000000000000000000000000000000000000000000000000000000000000000000000000000000000000000000000000000000000000000000000000000000000000000000000000000000000000000000000000000000000000000000000000000000000000
310
0000000000000000000000000000000000000000000000000000000000000000000000000000000000000000000000000000000000000000
 70
     4
280
     1
281
     0
  0
BLOCK_RECORD
  5
432F
330
1
100
AcDbSymbolTableRecord
100
AcDbBlockTableRecord
  2
▽▽▽
340
0
310
2800000020000000200000000100080000000000000400000000000000000000000000000000000000000000000080000080000000808000800000008000800080800000C0C0C000C0DCC000F0CAA6000020400000206000002080000020A0000020C0000020E00000400000004020000040400000406000004080000040A0
310
000040C0000040E00000600000006020000060400000606000006080000060A0000060C0000060E00000800000008020000080400000806000008080000080A0000080C0000080E00000A0000000A0200000A0400000A0600000A0800000A0A00000A0C00000A0E00000C0000000C0200000C0400000C0600000C0800000C0
310
A00000C0C00000C0E00000E0000000E0200000E0400000E0600000E0800000E0A00000E0C00000E0E00040000000400020004000400040006000400080004000A0004000C0004000E00040200000402020004020400040206000402080004020A0004020C0004020E000404000004040200040404000404060004040800040
310
40A0004040C0004040E00040600000406020004060400040606000406080004060A0004060C0004060E00040800000408020004080400040806000408080004080A0004080C0004080E00040A0000040A0200040A0400040A0600040A0800040A0A00040A0C00040A0E00040C0000040C0200040C0400040C0600040C08000
310
40C0A00040C0C00040C0E00040E0000040E0200040E0400040E0600040E0800040E0A00040E0C00040E0E00080000000800020008000400080006000800080008000A0008000C0008000E00080200000802020008020400080206000802080008020A0008020C0008020E00080400000804020008040400080406000804080
310
008040A0008040C0008040E00080600000806020008060400080606000806080008060A0008060C0008060E00080800000808020008080400080806000808080008080A0008080C0008080E00080A0000080A0200080A0400080A0600080A0800080A0A00080A0C00080A0E00080C0000080C0200080C0400080C0600080C0
310
800080C0A00080C0C00080C0E00080E0000080E0200080E0400080E0600080E0800080E0A00080E0C00080E0E000C0000000C0002000C0004000C0006000C0008000C000A000C000C000C000E000C0200000C0202000C0204000C0206000C0208000C020A000C020C000C020E000C0400000C0402000C0404000C0406000C0
310
408000C040A000C040C000C040E000C0600000C0602000C0604000C0606000C0608000C060A000C060C000C060E000C0800000C0802000C0804000C0806000C0808000C080A000C080C000C080E000C0A00000C0A02000C0A04000C0A06000C0A08000C0A0A000C0A0C000C0A0E000C0C00000C0C02000C0C04000C0C06000
310
C0C08000C0C0A000F0FBFF00A4A0A000808080000000FF0000FF000000FFFF00FF000000FF00FF00FFFF0000FFFFFF0000000000000000000000000000000000000000000000000000000000000000000000000000000000000000000000000000000000000000000000000000000000000000000000000000000000000000
310
00000000000000000000000000000000000000000000000000000000000000000000000000000000000000000000000000000000000000000000000000000000000000000000000000000000000000000000000000000000000000000000000000000000000000000000000000000000000000000000000000000000000000
310
00000000000000000000000000000000000000000000000000000000000000000000000000000000000000000000000000000000000000000000000000000000000000000000000000000000000000000000000000000000000000000000000000000000000000000000000000000000000000000000000000000000000000
310
00000000000000000000000000000000000000000000000000F9000000000000000000F90000000000000000F90000000000000000000000F900F900000000000000F9F900000000000000F900F900000000000000000000F900F900000000000000F900F9000000000000F900F9000000000000000000F9000000F9000000
310
0000F90000F90000000000F9000000F90000000000000000F9000000F90000000000F9000000F900000000F9000000F900000000000000F90000000000F9000000F900000000F9000000F90000000000F9000000000000F90000000000F9000000F90000000000F90000F90000000000F90000000000F900000000000000F9
310
00F9000000000000F900F900000000000000F900000000F900000000000000F900F900000000000000F9F900000000000000F9000000F9F9F9F9F9F9F9F9F9F9F9F9F9F9F9F9F9F9F9F9F9F9F9F9F9F9F9F9F9F900000000000000000000000000000000000000000000000000000000000000000000000000000000000000
310
00000000000000000000000000000000000000000000000000000000000000000000000000000000000000000000000000000000000000000000000000000000000000000000000000000000000000000000000000000000000000000000000000000000000000000000000000000000000000000000000000000000000000
310
00000000000000000000000000000000000000000000000000000000000000000000000000000000000000000000000000000000000000000000000000000000000000000000000000000000000000000000000000000000000000000000000000000000000000000000000000000000000000000000000000000000000000
310
0000000000000000000000000000000000000000000000000000000000000000000000000000000000000000000000000000000000000000
 70
     4
280
     1
281
     0
  0
BLOCK_RECORD
  5
433F
330
1
100
AcDbSymbolTableRecord
100
AcDbBlockTableRecord
  2
▽▽▽▽
340
0
310
2800000020000000200000000100080000000000000400000000000000000000000000000000000000000000000080000080000000808000800000008000800080800000C0C0C000C0DCC000F0CAA6000020400000206000002080000020A0000020C0000020E00000400000004020000040400000406000004080000040A0
310
000040C0000040E00000600000006020000060400000606000006080000060A0000060C0000060E00000800000008020000080400000806000008080000080A0000080C0000080E00000A0000000A0200000A0400000A0600000A0800000A0A00000A0C00000A0E00000C0000000C0200000C0400000C0600000C0800000C0
310
A00000C0C00000C0E00000E0000000E0200000E0400000E0600000E0800000E0A00000E0C00000E0E00040000000400020004000400040006000400080004000A0004000C0004000E00040200000402020004020400040206000402080004020A0004020C0004020E000404000004040200040404000404060004040800040
310
40A0004040C0004040E00040600000406020004060400040606000406080004060A0004060C0004060E00040800000408020004080400040806000408080004080A0004080C0004080E00040A0000040A0200040A0400040A0600040A0800040A0A00040A0C00040A0E00040C0000040C0200040C0400040C0600040C08000
310
40C0A00040C0C00040C0E00040E0000040E0200040E0400040E0600040E0800040E0A00040E0C00040E0E00080000000800020008000400080006000800080008000A0008000C0008000E00080200000802020008020400080206000802080008020A0008020C0008020E00080400000804020008040400080406000804080
310
008040A0008040C0008040E00080600000806020008060400080606000806080008060A0008060C0008060E00080800000808020008080400080806000808080008080A0008080C0008080E00080A0000080A0200080A0400080A0600080A0800080A0A00080A0C00080A0E00080C0000080C0200080C0400080C0600080C0
310
800080C0A00080C0C00080C0E00080E0000080E0200080E0400080E0600080E0800080E0A00080E0C00080E0E000C0000000C0002000C0004000C0006000C0008000C000A000C000C000C000E000C0200000C0202000C0204000C0206000C0208000C020A000C020C000C020E000C0400000C0402000C0404000C0406000C0
310
408000C040A000C040C000C040E000C0600000C0602000C0604000C0606000C0608000C060A000C060C000C060E000C0800000C0802000C0804000C0806000C0808000C080A000C080C000C080E000C0A00000C0A02000C0A04000C0A06000C0A08000C0A0A000C0A0C000C0A0E000C0C00000C0C02000C0C04000C0C06000
310
C0C08000C0C0A000F0FBFF00A4A0A000808080000000FF0000FF000000FFFF00FF000000FF00FF00FFFF0000FFFFFF0000000000000000000000000000000000000000000000000000000000000000000000000000000000000000000000000000000000000000000000000000000000000000000000000000000000000000
310
00000000000000000000000000000000000000000000000000000000000000000000000000000000000000000000000000000000000000000000000000000000000000000000000000000000000000000000000000000000000000000000000000000000000000000000000000000000000000000000000000000000000000
310
00000000000000000000000000000000000000000000000000000000000000000000000000000000000000000000000000000000000000000000000000000000000000000000000000000000000000000000000000000000000000000000000000000000000000000000000000000000000000000000000000000000000000
310
0000000000000000000000000000000000000000000000000000000000000000000000000000000000000000000000000000000000000000F9000000000000F9000000000000F9000000000000F9000000000000000000F9F90000000000F900F90000000000F9F90000000000F9F90000000000000000F900F900000000F9
310
00F900000000F900F900000000F900F900000000000000F90000F9000000F9000000F9000000F90000F9000000F90000F9000000000000F9000000F90000F9000000F90000F9000000F90000F9000000F90000000000F900000000F900F90000000000F900F900000000F900F900000000F900000000F90000000000F9F900
310
00000000F9F90000000000F9F90000000000F9000000F9F9F9F9F9F9F9F9F9F9F9F9F9F9F9F9F9F9F9F9F9F9F9F9F9F9F9F9F9F9000000000000000000000000000000000000000000000000000000000000000000000000000000000000000000000000000000000000000000000000000000000000000000000000000000
310
00000000000000000000000000000000000000000000000000000000000000000000000000000000000000000000000000000000000000000000000000000000000000000000000000000000000000000000000000000000000000000000000000000000000000000000000000000000000000000000000000000000000000
310
00000000000000000000000000000000000000000000000000000000000000000000000000000000000000000000000000000000000000000000000000000000000000000000000000000000000000000000000000000000000000000000000000000000000000000000000000000000000000000000000000000000000000
310
0000000000000000000000000000000000000000000000000000000000000000000000000000000000000000000000000000000000000000
 70
     4
280
     1
281
     0
  0
BLOCK_RECORD
  5
4351
330
1
100
AcDbSymbolTableRecord
100
AcDbBlockTableRecord
  2
▽▽▽G
340
0
310
2800000020000000200000000100080000000000000400000000000000000000000000000000000000000000000080000080000000808000800000008000800080800000C0C0C000C0DCC000F0CAA6000020400000206000002080000020A0000020C0000020E00000400000004020000040400000406000004080000040A0
310
000040C0000040E00000600000006020000060400000606000006080000060A0000060C0000060E00000800000008020000080400000806000008080000080A0000080C0000080E00000A0000000A0200000A0400000A0600000A0800000A0A00000A0C00000A0E00000C0000000C0200000C0400000C0600000C0800000C0
310
A00000C0C00000C0E00000E0000000E0200000E0400000E0600000E0800000E0A00000E0C00000E0E00040000000400020004000400040006000400080004000A0004000C0004000E00040200000402020004020400040206000402080004020A0004020C0004020E000404000004040200040404000404060004040800040
310
40A0004040C0004040E00040600000406020004060400040606000406080004060A0004060C0004060E00040800000408020004080400040806000408080004080A0004080C0004080E00040A0000040A0200040A0400040A0600040A0800040A0A00040A0C00040A0E00040C0000040C0200040C0400040C0600040C08000
310
40C0A00040C0C00040C0E00040E0000040E0200040E0400040E0600040E0800040E0A00040E0C00040E0E00080000000800020008000400080006000800080008000A0008000C0008000E00080200000802020008020400080206000802080008020A0008020C0008020E00080400000804020008040400080406000804080
310
008040A0008040C0008040E00080600000806020008060400080606000806080008060A0008060C0008060E00080800000808020008080400080806000808080008080A0008080C0008080E00080A0000080A0200080A0400080A0600080A0800080A0A00080A0C00080A0E00080C0000080C0200080C0400080C0600080C0
310
800080C0A00080C0C00080C0E00080E0000080E0200080E0400080E0600080E0800080E0A00080E0C00080E0E000C0000000C0002000C0004000C0006000C0008000C000A000C000C000C000E000C0200000C0202000C0204000C0206000C0208000C020A000C020C000C020E000C0400000C0402000C0404000C0406000C0
310
408000C040A000C040C000C040E000C0600000C0602000C0604000C0606000C0608000C060A000C060C000C060E000C0800000C0802000C0804000C0806000C0808000C080A000C080C000C080E000C0A00000C0A02000C0A04000C0A06000C0A08000C0A0A000C0A0C000C0A0E000C0C00000C0C02000C0C04000C0C06000
310
C0C08000C0C0A000F0FBFF00A4A0A000808080000000FF0000FF000000FFFF00FF000000FF00FF00FFFF0000FFFFFF0000000000000000000000000000000000000000000000000000000000000000000000000000000000000000000000000000000000000000000000000000000000000000000000000000000000000000
310
00000000000000000000000000000000000000000000000000000000000000000000000000000000000000000000000000000000000000000000000000000000000000000000000000000000000000000000000000F90000000000F90000000000F9000000000000000000000000000000000000F900F9000000F900F90000
310
00F900F90000000000000000000000000000000000F900F9000000F900F9000000F900F900000000000000000000000000000000F9000000F900F9000000F900F9000000F9000000000000000000000000000000F9000000F900F9000000F900F9000000F90000000000000000000000000000F9F9F9F9F9F9F9F9F9F9F9F9
310
F9F9F9F9F9F9F90000000000000000000000000000000000000000000000000000000000000000F900000000000000000000000000000000000000000000000000000000000000F90000000000000000000000000000000000000000000000000000000000000000F900000000000000000000000000000000000000000000
310
00000000000000000000F900000000000000000000000000000000000000000000000000000000000000F90000000000000000000000000000000000000000000000000000000000000000F900000000000000000000000000000000000000000000000000000000000000F900000000000000000000000000000000000000
310
00000000000000000000000000F9F9F9F9F9F9F90000000000000000000000000000000000000000000000000000000000000000000000000000000000000000000000000000000000000000000000FBFB0000000000000000000000000000000000000000000000000000000000FBFB00FB00000000000000000000000000
310
000000000000000000000000000000FB000000FB000000000000000000000000000000000000000000000000000000FB00FBFBFB000000000000000000000000000000000000000000000000000000FB00000000000000000000000000000000000000000000000000000000000000FB0000FBFB0000000000000000000000
310
0000000000000000000000000000000000FBFBFB0000000000000000000000000000000000000000000000000000000000000000000000000000000000000000000000000000000000000000000000000000000000000000000000000000000000000000000000000000000000000000000000000000000000000000000000
310
0000000000000000000000000000000000000000000000000000000000000000000000000000000000000000000000000000000000000000
 70
     4
280
     1
281
     0
  0
BLOCK_RECORD
  5
43E1
102
{ACAD_XDICTIONARY
360
4424
102
}
330
1
100
AcDbSymbolTableRecord
100
AcDbBlockTableRecord
  2
_TagCircle
340
0
 70
     4
280
     1
281
     0
1001
AcDbDynamicBlockGUID
1000
{A185F119-35BB-4EBA-8BB2-CF48C0B887E0}
  0
BLOCK_RECORD
  5
4473
102
{ACAD_XDICTIONARY
360
45D0
102
}
330
1
100
AcDbSymbolTableRecord
100
AcDbBlockTableRecord
  2
訂正記号
340
0
310
2800000020000000200000000100080000000000000400000000000000000000000000000000000000000000000080000080000000808000800000008000800080800000C0C0C000C0DCC000F0CAA6000020400000206000002080000020A0000020C0000020E00000400000004020000040400000406000004080000040A0
310
000040C0000040E00000600000006020000060400000606000006080000060A0000060C0000060E00000800000008020000080400000806000008080000080A0000080C0000080E00000A0000000A0200000A0400000A0600000A0800000A0A00000A0C00000A0E00000C0000000C0200000C0400000C0600000C0800000C0
310
A00000C0C00000C0E00000E0000000E0200000E0400000E0600000E0800000E0A00000E0C00000E0E00040000000400020004000400040006000400080004000A0004000C0004000E00040200000402020004020400040206000402080004020A0004020C0004020E000404000004040200040404000404060004040800040
310
40A0004040C0004040E00040600000406020004060400040606000406080004060A0004060C0004060E00040800000408020004080400040806000408080004080A0004080C0004080E00040A0000040A0200040A0400040A0600040A0800040A0A00040A0C00040A0E00040C0000040C0200040C0400040C0600040C08000
310
40C0A00040C0C00040C0E00040E0000040E0200040E0400040E0600040E0800040E0A00040E0C00040E0E00080000000800020008000400080006000800080008000A0008000C0008000E00080200000802020008020400080206000802080008020A0008020C0008020E00080400000804020008040400080406000804080
310
008040A0008040C0008040E00080600000806020008060400080606000806080008060A0008060C0008060E00080800000808020008080400080806000808080008080A0008080C0008080E00080A0000080A0200080A0400080A0600080A0800080A0A00080A0C00080A0E00080C0000080C0200080C0400080C0600080C0
310
800080C0A00080C0C00080C0E00080E0000080E0200080E0400080E0600080E0800080E0A00080E0C00080E0E000C0000000C0002000C0004000C0006000C0008000C000A000C000C000C000E000C0200000C0202000C0204000C0206000C0208000C020A000C020C000C020E000C0400000C0402000C0404000C0406000C0
310
408000C040A000C040C000C040E000C0600000C0602000C0604000C0606000C0608000C060A000C060C000C060E000C0800000C0802000C0804000C0806000C0808000C080A000C080C000C080E000C0A00000C0A02000C0A04000C0A06000C0A08000C0A0A000C0A0C000C0A0E000C0C00000C0C02000C0C04000C0C06000
310
C0C08000C0C0A000F0FBFF00A4A0A000808080000000FF0000FF000000FFFF00FF000000FF00FF00FFFF0000FFFFFF0000000000000000000000000000000000000000000000000000000000000000000000000000000000000000000000000000000000000000000000000000000000000000000000000000000000000000
310
00000000000000000000000000000000000000000000000000000000000000000000000000000000000000000000000000000000000000000000000000000000000000000000000000000000000000000000000000000000000000000000000000000000000000000000000000000000000000000000000000000000000000
310
00000000000000000000000000000000000000000000000000000000000000000000000000000000000000000000000000000000000000000000000000000000000000000000000000000000000000000000000000000000000000000000000000000000000000000000000000000000000000000000000000000000000000
310
0000000000000000000000000000000000000000000000000000000000000000000000000000000000000000000000000000000000FBFBFB00FBFBFBFBFBFBF9F9F9F9F9F9F9F90000FBFBFB000000FB0000000000FBFBFB0000FBFB0000FBF9FB00FB00FBF9FB0000FBFBFB0000FB00FB00000000FBFBFB0000FBFBFBFB00
310
FBF9FBFB00FBF9FB00FBFBFBFBFB00FBFBFB00000000FBFBFB0000FBFB000000FBF900FBFBF9FBFBFBFBFBFBFBFBFBFBFBFBFB0000FBFBFBFBFB00FBFBFBFBFBFBFBF9FB00F9FBFB00FBFBFBFB0000FBFBFB00000000FBFB0000000000000000FB00F900F90000000000FBFBFB000000000000000000000000000000000000
310
00000000F9F9000000000000000000000000000000000000000000000000000000000000F9000000000000000000000000000000000000000000000000000000000000000000000000000000000000000000000000000000000000000000000000000000000000000000000000000000000000000000000000000000000000
310
00000000000000000000000000000000000000000000000000000000000000000000000000000000000000000000000000000000000000000000000000000000000000000000000000000000000000000000000000000000000000000000000000000000000000000000000000000000000000000000000000000000000000
310
00000000000000000000000000000000000000000000000000000000000000000000000000000000000000000000000000000000000000000000000000000000000000000000000000000000000000000000000000000000000000000000000000000000000000000000000000000000000000000000000000000000000000
310
0000000000000000000000000000000000000000000000000000000000000000000000000000000000000000000000000000000000000000
 70
     4
280
     1
281
     0
1001
AcDbDynamicBlockGUID
1000
{F82EA4CC-1B5D-4CB3-8489-7BA8698CDDE3}
  0
BLOCK_RECORD
  5
4FC9
102
{ACAD_XDICTIONARY
360
4FCD
102
}
330
1
100
AcDbSymbolTableRecord
100
AcDbBlockTableRecord
  2
A$C4741278F
340
0
 70
     4
280
     1
281
     0
  0
BLOCK_RECORD
  5
68EC
330
1
100
AcDbSymbolTableRecord
100
AcDbBlockTableRecord
  2
A$C2A300554
340
0
 70
     0
280
     1
281
     0
  0
BLOCK_RECORD
  5
C9FF
330
1
100
AcDbSymbolTableRecord
100
AcDbBlockTableRecord
  2
*U20
340
0
102
{BLKREFS
102
}
 70
     0
280
     1
281
     0
  0
BLOCK_RECORD
  5
CA0F
330
1
100
AcDbSymbolTableRecord
100
AcDbBlockTableRecord
  2
*U22
340
0
102
{BLKREFS
102
}
 70
     0
280
     1
281
     0
  0
BLOCK_RECORD
  5
CC4E
330
1
100
AcDbSymbolTableRecord
100
AcDbBlockTableRecord
  2
*D33
340
0
 70
     0
280
     1
281
     0
  0
BLOCK_RECORD
  5
CC5A
330
1
100
AcDbSymbolTableRecord
100
AcDbBlockTableRecord
  2
*D34
340
0
 70
     0
280
     1
281
     0
  0
BLOCK_RECORD
  5
CC66
330
1
100
AcDbSymbolTableRecord
100
AcDbBlockTableRecord
  2
*D35
340
0
 70
     0
280
     1
281
     0
  0
BLOCK_RECORD
  5
CC72
330
1
100
AcDbSymbolTableRecord
100
AcDbBlockTableRecord
  2
*D36
340
0
 70
     0
280
     1
281
     0
  0
BLOCK_RECORD
  5
CC7E
102
{ACAD_XDICTIONARY
360
CC8E
102
}
330
1
100
AcDbSymbolTableRecord
100
AcDbBlockTableRecord
  2
A$C77E44210
340
0
 70
     4
280
     1
281
     0
  0
BLOCK_RECORD
  5
CCA2
330
1
100
AcDbSymbolTableRecord
100
AcDbBlockTableRecord
  2
*D38
340
0
 70
     0
280
     1
281
     0
  0
BLOCK_RECORD
  5
CCAE
330
1
100
AcDbSymbolTableRecord
100
AcDbBlockTableRecord
  2
*D39
340
0
 70
     0
280
     1
281
     0
  0
BLOCK_RECORD
  5
CCBA
330
1
100
AcDbSymbolTableRecord
100
AcDbBlockTableRecord
  2
*D40
340
0
 70
     0
280
     1
281
     0
  0
BLOCK_RECORD
  5
CCC6
330
1
100
AcDbSymbolTableRecord
100
AcDbBlockTableRecord
  2
*D41
340
0
 70
     0
280
     1
281
     0
  0
ENDTAB
  0
ENDSEC
  0
SECTION
  2
BLOCKS
  0
BLOCK
  5
20
330
1F
100
AcDbEntity
  8
0
100
AcDbBlockBegin
  2
*Model_Space
 70
     0
 10
0.0
 20
0.0
 30
0.0
  3
*Model_Space
  1

  0
ENDBLK
  5
21
330
1F
100
AcDbEntity
  8
0
100
AcDbBlockEnd
  0
BLOCK
  5
57
330
55
100
AcDbEntity
 67
     1
  8
0
100
AcDbBlockBegin
  2
*Paper_Space
 70
     0
 10
0.0
 20
0.0
 30
0.0
  3
*Paper_Space
  1

  0
ENDBLK
  5
58
330
55
100
AcDbEntity
 67
     1
  8
0
100
AcDbBlockEnd
  0
BLOCK
  5
52
330
50
100
AcDbEntity
 67
     1
  8
0
100
AcDbBlockBegin
  2
*Paper_Space0
 70
     0
 10
0.0
 20
0.0
 30
0.0
  3
*Paper_Space0
  1

  0
VIEWPORT
  5
6B
330
50
100
AcDbEntity
 67
     1
  8
0
100
AcDbViewport
 10
-37.14995086896897
 20
362.914598858674
 30
0.0
 40
4704.388931953014
 41
3640.35960284113
 68
     0
 69
     0
 12
-37.14995086896897
 22
362.914598858674
 13
0.0
 23
0.0
 14
1.0
 24
1.0
 15
10.0
 25
10.0
 16
0.0
 26
0.0
 36
1.0
 17
0.0
 27
0.0
 37
0.0
 42
50.0
 43
0.0
 44
0.0
 45
3640.35960284113
 50
0.0
 51
0.0
 72
   100
 90
    32800
  1

281
     0
 71
     1
 74
     0
110
0.0
120
0.0
130
0.0
111
1.0
121
0.0
131
0.0
112
0.0
122
1.0
132
0.0
 79
     0
146
0.0
170
     0
 61
     5
348
403B
292
     1
282
     1
141
0.0
142
0.0
 63
   250
421
  3355443
  0
VIEWPORT
  5
6D
330
50
100
AcDbEntity
 67
     1
  8
0
100
AcDbViewport
 10
297.0
 20
210.0
 30
0.0
 40
594.0
 41
420.0
 68
     0
 69
     0
 12
297.0058350011193
 22
210.0
 13
0.0
 23
0.0
 14
10.0
 24
10.0
 15
10.0
 25
10.0
 16
0.0
 26
0.0
 36
1.0
 17
0.0
 27
0.0
 37
0.0
 42
50.0
 43
0.0
 44
0.0
 45
420.0
 50
0.0
 51
0.0
 72
   100
 90
    32864
  1

281
     0
 71
     1
 74
     0
110
0.0
120
0.0
130
0.0
111
1.0
121
0.0
131
0.0
112
0.0
122
1.0
132
0.0
 79
     0
146
0.0
170
     0
 61
     5
348
403B
292
     1
282
     1
141
0.0
142
0.0
 63
   250
421
  3355443
  0
ENDBLK
  5
53
330
50
100
AcDbEntity
 67
     1
  8
0
100
AcDbBlockEnd
  0
BLOCK
  5
8A
330
86
100
AcDbEntity
  8
0
100
AcDbBlockBegin
  2
_OPEN
 70
     0
 10
0.0
 20
0.0
 30
0.0
  3
_OPEN
  1

  0
LINE
  5
87
330
86
100
AcDbEntity
  8
0
  6
ByBlock
 62
     0
100
AcDbLine
 10
-1.0
 20
0.1666666666666666
 30
0.0
 11
0.0
 21
0.0
 31
0.0
  0
LINE
  5
88
330
86
100
AcDbEntity
  8
0
  6
ByBlock
 62
     0
100
AcDbLine
 10
0.0
 20
0.0
 30
0.0
 11
-1.0
 21
-0.1666666666666666
 31
0.0
  0
LINE
  5
89
330
86
100
AcDbEntity
  8
0
  6
ByBlock
 62
     0
100
AcDbLine
 10
0.0
 20
0.0
 30
0.0
 11
-1.0
 21
0.0
 31
0.0
  0
ENDBLK
  5
8B
330
86
100
AcDbEntity
  8
0
100
AcDbBlockEnd
  0
BLOCK
  5
2D9F
330
2C53
100
AcDbEntity
  8
0
100
AcDbBlockBegin
  2
A$C0C1533B0
 70
     0
 10
0.0
 20
0.0
 30
0.0
  3
A$C0C1533B0
  1

  0
LINE
  5
2C54
330
2C53
100
AcDbEntity
  8
0
100
AcDbLine
 10
5.246999999999843
 20
5.246999999999843
 30
0.0
 11
0.0
 21
5.246999999999843
 31
0.0
  0
LINE
  5
2C55
330
2C53
100
AcDbEntity
  8
0
100
AcDbLine
 10
5.098499999999603
 20
5.098499999999603
 30
0.0
 11
0.1484999999997854
 21
5.098499999999603
 31
0.0
  0
LINE
  5
2C56
330
2C53
100
AcDbEntity
  8
0
100
AcDbLine
 10
3.415500000000065
 20
4.652999999998883
 30
0.0
 11
3.11850000000004
 21
4.652999999998883
 31
0.0
  0
LINE
  5
2C57
330
2C53
100
AcDbEntity
  8
0
100
AcDbLine
 10
3.11850000000004
 20
4.652999999998883
 30
0.0
 11
3.11850000000004
 21
3.266999999998915
 31
0.0
  0
LINE
  5
2C58
330
2C53
100
AcDbEntity
  8
0
100
AcDbLine
 10
1.732500000000072
 20
4.652999999998883
 30
0.0
 11
1.732500000000072
 21
3.266999999998915
 31
0.0
  0
LINE
  5
2C59
330
2C53
100
AcDbEntity
  8
0
100
AcDbLine
 10
1.732500000000072
 20
4.652999999998883
 30
0.0
 11
1.336499999999887
 21
4.652999999998883
 31
0.0
  0
LINE
  5
2C5A
330
2C53
100
AcDbEntity
  8
0
100
AcDbLine
 10
2.032472209900788
 20
1.025035140799445
 30
0.0
 11
2.039085100800548
 21
1.01502188699942
 31
0.0
  0
LINE
  5
2C5B
330
2C53
100
AcDbEntity
  8
0
100
AcDbLine
 10
2.149614844300231
 20
0.9334853956993356
 30
0.0
 11
2.169453515900386
 21
0.9221561139995628
 31
0.0
  0
LINE
  5
2C5C
330
2C53
100
AcDbEntity
  8
0
100
AcDbLine
 10
2.02774871640031
 20
1.03516283089948
 30
0.0
 11
2.032472209900788
 21
1.025035140799445
 31
0.0
  0
LINE
  5
2C5D
330
2C53
100
AcDbEntity
  8
0
100
AcDbLine
 10
2.169453515900386
 20
0.9221561139995628
 30
0.0
 11
2.189292187500996
 21
0.9115134566995948
 31
0.0
  0
LINE
  5
2C5E
330
2C53
100
AcDbEntity
  8
0
100
AcDbLine
 10
2.024914620300478
 20
1.045404958399331
 30
0.0
 11
2.02774871640031
 21
1.03516283089948
 31
0.0
  0
LINE
  5
2C5F
330
2C53
100
AcDbEntity
  8
0
100
AcDbLine
 10
2.189292187500996
 20
0.9115134566995948
 30
0.0
 11
2.209130859099786
 21
0.9015574215995911
 31
0.0
  0
LINE
  5
2C60
330
2C53
100
AcDbEntity
  8
0
100
AcDbLine
 10
2.023969921599928
 20
1.055761523299224
 30
0.0
 11
2.024914620300478
 21
1.045404958399331
 31
0.0
  0
LINE
  5
2C61
330
2C53
100
AcDbEntity
  8
0
100
AcDbLine
 10
2.209130859099786
 20
0.9015574215995911
 30
0.0
 11
2.229306923800322
 21
0.8904570157997113
 31
0.0
  0
LINE
  5
2C62
330
2C53
100
AcDbEntity
  8
0
100
AcDbLine
 10
2.024577228300586
 20
1.065202591199067
 30
0.0
 11
2.023969921599928
 21
1.055761523299224
 31
0.0
  0
LINE
  5
2C63
330
2C53
100
AcDbEntity
  8
0
100
AcDbLine
 10
2.229306923800322
 20
0.8904570157997113
 30
0.0
 11
2.246378977699805
 21
0.8779833622995738
 31
0.0
  0
LINE
  5
2C64
330
2C53
100
AcDbEntity
  8
0
100
AcDbLine
 10
2.026399147299798
 20
1.074300346899462
 30
0.0
 11
2.024577228300586
 21
1.065202591199067
 31
0.0
  0
LINE
  5
2C65
330
2C53
100
AcDbEntity
  8
0
100
AcDbLine
 10
2.246378977699805
 20
0.8779833622995738
 30
0.0
 11
2.260347023000576
 21
0.8641364632994736
 31
0.0
  0
LINE
  5
2C66
330
2C53
100
AcDbEntity
  8
0
100
AcDbLine
 10
2.029435678600293
 20
1.083054791499534
 30
0.0
 11
2.026399147299798
 21
1.074300346899462
 31
0.0
  0
LINE
  5
2C67
330
2C53
100
AcDbEntity
  8
0
100
AcDbLine
 10
2.260347023000576
 20
0.8641364632994736
 30
0.0
 11
2.27121105749984
 21
0.8489163187991835
 31
0.0
  0
LINE
  5
2C68
330
2C53
100
AcDbEntity
  8
0
100
AcDbLine
 10
2.033686822200252
 20
1.091465923899249
 30
0.0
 11
2.029435678600293
 21
1.083054791499534
 31
0.0
  0
LINE
  5
2C69
330
2C53
100
AcDbEntity
  8
0
100
AcDbLine
 10
2.27121105749984
 20
0.8489163187991835
 30
0.0
 11
2.278971082299904
 21
0.8323229276991241
 31
0.0
  0
LINE
  5
2C6A
330
2C53
100
AcDbEntity
  8
0
100
AcDbLine
 10
2.039152579200163
 20
1.099533745199551
 30
0.0
 11
2.033686822200252
 21
1.091465923899249
 31
0.0
  0
LINE
  5
2C6B
330
2C53
100
AcDbEntity
  8
0
100
AcDbLine
 10
2.278971082299904
 20
0.8323229276991241
 30
0.0
 11
2.283627096300733
 21
0.8143562899992957
 31
0.0
  0
LINE
  5
2C6C
330
2C53
100
AcDbEntity
  8
0
100
AcDbLine
 10
2.045832948500446
 20
1.107258255399301
 30
0.0
 11
2.039152579200163
 21
1.099533745199551
 31
0.0
  0
LINE
  5
2C6D
330
2C53
100
AcDbEntity
  8
0
100
AcDbLine
 10
2.283627096300733
 20
0.8143562899992957
 30
0.0
 11
2.285179101700123
 21
0.7950164067992774
 31
0.0
  0
LINE
  5
2C6E
330
2C53
100
AcDbEntity
  8
0
100
AcDbLine
 10
2.053727930100649
 20
1.114639453399377
 30
0.0
 11
2.045832948500446
 21
1.107258255399301
 31
0.0
  0
LINE
  5
2C6F
330
2C53
100
AcDbEntity
  8
0
100
AcDbLine
 10
2.285179101700123
 20
0.7950164067992774
 30
0.0
 11
2.284166924599958
 21
0.7755620850994092
 31
0.0
  0
LINE
  5
2C70
330
2C53
100
AcDbEntity
  8
0
100
AcDbLine
 10
2.060543256199707
 20
1.119846345199448
 30
0.0
 11
2.053727930100649
 21
1.114639453399377
 31
0.0
  0
LINE
  5
2C71
330
2C53
100
AcDbEntity
  8
0
100
AcDbLine
 10
2.284166924599958
 20
0.7755620850994092
 30
0.0
 11
2.281130393300372
 21
0.7572521362992575
 31
0.0
  0
LINE
  5
2C72
330
2C53
100
AcDbEntity
  8
0
100
AcDbLine
 10
2.067763452700091
 20
1.124252176299251
 30
0.0
 11
2.060543256199707
 21
1.119846345199448
 31
0.0
  0
LINE
  5
2C73
330
2C53
100
AcDbEntity
  8
0
100
AcDbLine
 10
2.281130393300372
 20
0.7572521362992575
 30
0.0
 11
2.276069507800002
 21
0.7400865592994706
 31
0.0
  0
LINE
  5
2C74
330
2C53
100
AcDbEntity
  8
0
100
AcDbLine
 10
2.075388520700471
 20
1.127856947799045
 30
0.0
 11
2.067763452700091
 21
1.124252176299251
 31
0.0
  0
LINE
  5
2C75
330
2C53
100
AcDbEntity
  8
0
100
AcDbLine
 10
2.276069507800002
 20
0.7400865592994706
 30
0.0
 11
2.268984267000178
 21
0.7240653540995936
 31
0.0
  0
LINE
  5
2C76
330
2C53
100
AcDbEntity
  8
0
100
AcDbLine
 10
2.083418459100357
 20
1.130660658599481
 30
0.0
 11
2.075388520700471
 21
1.127856947799045
 31
0.0
  0
LINE
  5
2C77
330
2C53
100
AcDbEntity
  8
0
100
AcDbLine
 10
2.268984267000178
 20
0.7240653540995936
 30
0.0
 11
2.259874673100057
 21
0.709188520699172
 31
0.0
  0
LINE
  5
2C78
330
2C53
100
AcDbEntity
  8
0
100
AcDbLine
 10
2.091853268999329
 20
1.132663308699193
 30
0.0
 11
2.083418459100357
 21
1.130660658599481
 31
0.0
  0
LINE
  5
2C79
330
2C53
100
AcDbEntity
  8
0
100
AcDbLine
 10
2.259874673100057
 20
0.709188520699172
 30
0.0
 11
2.248740725000061
 21
0.6954560590995698
 31
0.0
  0
LINE
  5
2C7A
330
2C53
100
AcDbEntity
  8
0
100
AcDbLine
 10
2.100692949300537
 20
1.133864899199352
 30
0.0
 11
2.091853268999329
 21
1.132663308699193
 31
0.0
  0
LINE
  5
2C7B
330
2C53
100
AcDbEntity
  8
0
100
AcDbLine
 10
2.248740725000061
 20
0.6954560590995698
 30
0.0
 11
2.235582421600156
 21
0.6828679681989343
 31
0.0
  0
LINE
  5
2C7C
330
2C53
100
AcDbEntity
  8
0
100
AcDbLine
 10
2.109937499999887
 20
1.134265430099276
 30
0.0
 11
2.100692949300537
 21
1.133864899199352
 31
0.0
  0
LINE
  5
2C7D
330
2C53
100
AcDbEntity
  8
0
100
AcDbLine
 10
2.235582421600156
 20
0.6828679681989343
 30
0.0
 11
2.221614377400328
 21
0.6724541856992801
 31
0.0
  0
LINE
  5
2C7E
330
2C53
100
AcDbEntity
  8
0
100
AcDbLine
 10
2.119182050700601
 20
1.133864899199352
 30
0.0
 11
2.109937499999887
 21
1.134265430099276
 31
0.0
  0
LINE
  5
2C7F
330
2C53
100
AcDbEntity
  8
0
100
AcDbLine
 10
2.221614377400328
 20
0.6724541856992801
 30
0.0
 11
2.206161806199816
 21
0.6636425223994138
 31
0.0
  0
LINE
  5
2C80
330
2C53
100
AcDbEntity
  8
0
100
AcDbLine
 10
2.128021731000444
 20
1.132663308699193
 30
0.0
 11
2.119182050700601
 21
1.133864899199352
 31
0.0
  0
LINE
  5
2C81
330
2C53
100
AcDbEntity
  8
0
100
AcDbLine
 10
2.206161806199816
 20
0.6636425223994138
 30
0.0
 11
2.189224709100017
 21
0.656432979399142
 31
0.0
  0
LINE
  5
2C82
330
2C53
100
AcDbEntity
  8
0
100
AcDbLine
 10
2.136456540900326
 20
1.130660658599481
 30
0.0
 11
2.128021731000444
 21
1.132663308699193
 31
0.0
  0
LINE
  5
2C83
330
2C53
100
AcDbEntity
  8
0
100
AcDbLine
 10
2.189224709100017
 20
0.656432979399142
 30
0.0
 11
2.170803084999988
 21
0.6508255577991804
 31
0.0
  0
LINE
  5
2C84
330
2C53
100
AcDbEntity
  8
0
100
AcDbLine
 10
2.144486479300667
 20
1.127856947799045
 30
0.0
 11
2.136456540900326
 21
1.130660658599481
 31
0.0
  0
LINE
  5
2C85
330
2C53
100
AcDbEntity
  8
0
100
AcDbLine
 10
2.170803084999988
 20
0.6508255577991804
 30
0.0
 11
2.150896934999764
 21
0.6468202564994954
 31
0.0
  0
LINE
  5
2C86
330
2C53
100
AcDbEntity
  8
0
100
AcDbLine
 10
2.152111547300137
 20
1.124252176299251
 30
0.0
 11
2.144486479300667
 21
1.127856947799045
 31
0.0
  0
LINE
  5
2C87
330
2C53
100
AcDbEntity
  8
0
100
AcDbLine
 10
2.150896934999764
 20
0.6468202564994954
 30
0.0
 11
2.129506258000219
 21
0.6444170754994048
 31
0.0
  0
LINE
  5
2C88
330
2C53
100
AcDbEntity
  8
0
100
AcDbLine
 10
2.159331743799612
 20
1.119846345199448
 30
0.0
 11
2.152111547300137
 21
1.124252176299251
 31
0.0
  0
LINE
  5
2C89
330
2C53
100
AcDbEntity
  8
0
100
AcDbLine
 10
2.129506258000219
 20
0.6444170754994048
 30
0.0
 11
2.106631055100478
 21
0.6436160158991698
 31
0.0
  0
LINE
  5
2C8A
330
2C53
100
AcDbEntity
  8
0
100
AcDbLine
 10
2.166147069900944
 20
1.114639453399377
 30
0.0
 11
2.159331743799612
 21
1.119846345199448
 31
0.0
  0
LINE
  5
2C8B
330
2C53
100
AcDbEntity
  8
0
100
AcDbLine
 10
2.106631055100478
 20
0.6436160158991698
 30
0.0
 11
2.08470054979989
 21
0.6443598567993832
 31
0.0
  0
LINE
  5
2C8C
330
2C53
100
AcDbEntity
  8
0
100
AcDbLine
 10
2.174784315000579
 20
1.106228319899173
 30
0.0
 11
2.166147069900944
 21
1.114639453399377
 31
0.0
  0
LINE
  5
2C8D
330
2C53
100
AcDbEntity
  8
0
100
AcDbLine
 10
2.08470054979989
 20
0.6443598567993832
 30
0.0
 11
2.064254571499986
 21
0.6465913827996701
 31
0.0
  0
LINE
  5
2C8E
330
2C53
100
AcDbEntity
  8
0
100
AcDbLine
 10
2.181802076300755
 20
1.097016126799189
 30
0.0
 11
2.174784315000579
 21
1.106228319899173
 31
0.0
  0
LINE
  5
2C8F
330
2C53
100
AcDbEntity
  8
0
100
AcDbLine
 10
2.064254571499986
 20
0.6465913827996701
 30
0.0
 11
2.045293120199858
 21
0.650310590599247
 31
0.0
  0
LINE
  5
2C90
330
2C53
100
AcDbEntity
  8
0
100
AcDbLine
 10
2.187200354900141
 20
1.087002874099198
 30
0.0
 11
2.181802076300755
 21
1.097016126799189
 31
0.0
  0
LINE
  5
2C91
330
2C53
100
AcDbEntity
  8
0
100
AcDbLine
 10
2.045293120199858
 20
0.650310590599247
 30
0.0
 11
2.027816194799925
 21
0.6555174823993184
 31
0.0
  0
LINE
  5
2C92
330
2C53
100
AcDbEntity
  8
0
100
AcDbLine
 10
2.190979149700069
 20
1.076188560698938
 30
0.0
 11
2.187200354900141
 21
1.087002874099198
 31
0.0
  0
LINE
  5
2C93
330
2C53
100
AcDbEntity
  8
0
100
AcDbLine
 10
2.027816194799925
 20
0.6555174823993184
 30
0.0
 11
2.011823796399767
 21
0.6622120570993957
 31
0.0
  0
LINE
  5
2C94
330
2C53
100
AcDbEntity
  8
0
100
AcDbLine
 10
2.193138460700538
 20
1.064573186599091
 30
0.0
 11
2.190979149700069
 21
1.076188560698938
 31
0.0
  0
LINE
  5
2C95
330
2C53
100
AcDbEntity
  8
0
100
AcDbLine
 10
2.011823796399767
 20
0.6622120570993957
 30
0.0
 11
1.997315923899805
 21
0.6703943157995127
 31
0.0
  0
LINE
  5
2C96
330
2C53
100
AcDbEntity
  8
0
100
AcDbLine
 10
2.193678287900183
 20
1.052156751799429
 30
0.0
 11
2.193138460700538
 21
1.064573186599091
 31
0.0
  0
LINE
  5
2C97
330
2C53
100
AcDbEntity
  8
0
100
AcDbLine
 10
1.997315923899805
 20
0.6703943157995127
 30
0.0
 11
1.984292578400527
 21
0.6800642573994083
 31
0.0
  0
LINE
  5
2C98
330
2C53
100
AcDbEntity
  8
0
100
AcDbLine
 10
2.192598632399949
 20
1.038939257398851
 30
0.0
 11
2.193678287900183
 21
1.052156751799429
 31
0.0
  0
LINE
  5
2C99
330
2C53
100
AcDbEntity
  8
0
100
AcDbLine
 10
1.984292578400527
 20
0.6800642573994083
 30
0.0
 11
1.970257054700596
 21
0.6932245330992828
 31
0.0
  0
LINE
  5
2C9A
330
2C53
100
AcDbEntity
  8
0
100
AcDbLine
 10
2.268646874999831
 20
1.038939257398851
 30
0.0
 11
2.192598632399949
 21
1.038939257398851
 31
0.0
  0
LINE
  5
2C9B
330
2C53
100
AcDbEntity
  8
0
100
AcDbLine
 10
1.970257054700596
 20
0.6932245330992828
 30
0.0
 11
1.958380843100258
 21
0.707071432099383
 31
0.0
  0
LINE
  5
2C9C
330
2C53
100
AcDbEntity
  8
0
100
AcDbLine
 10
2.268511918200147
 20
1.059881261999635
 30
0.0
 11
2.268646874999831
 21
1.038939257398851
 31
0.0
  0
LINE
  5
2C9D
330
2C53
100
AcDbEntity
  8
0
100
AcDbLine
 10
1.958380843100258
 20
0.707071432099383
 30
0.0
 11
1.948663942499933
 21
0.7216049543994814
 31
0.0
  0
LINE
  5
2C9E
330
2C53
100
AcDbEntity
  8
0
100
AcDbLine
 10
2.266217650400449
 20
1.079450019999285
 30
0.0
 11
2.268511918200147
 21
1.059881261999635
 31
0.0
  0
LINE
  5
2C9F
330
2C53
100
AcDbEntity
  8
0
100
AcDbLine
 10
1.948663942499933
 20
0.7216049543994814
 30
0.0
 11
1.941106354000112
 21
0.7368250999993507
 31
0.0
  0
LINE
  5
2CA0
330
2C53
100
AcDbEntity
  8
0
100
AcDbLine
 10
2.261764070500248
 20
1.097645531399166
 30
0.0
 11
2.266217650400449
 21
1.079450019999285
 31
0.0
  0
LINE
  5
2CA1
330
2C53
100
AcDbEntity
  8
0
100
AcDbLine
 10
1.941106354000112
 20
0.7368250999993507
 30
0.0
 11
1.935708075400725
 21
0.7527318677994117
 31
0.0
  0
LINE
  5
2CA2
330
2C53
100
AcDbEntity
  8
0
100
AcDbLine
 10
2.255151179600488
 20
1.114467797299312
 30
0.0
 11
2.261764070500248
 21
1.097645531399166
 31
0.0
  0
LINE
  5
2CA3
330
2C53
100
AcDbEntity
  8
0
100
AcDbLine
 10
1.935708075400725
 20
0.7527318677994117
 30
0.0
 11
1.932469108899567
 21
0.7693252588992437
 31
0.0
  0
LINE
  5
2CA4
330
2C53
100
AcDbEntity
  8
0
100
AcDbLine
 10
2.246378977699805
 20
1.129916816599234
 30
0.0
 11
2.255151179600488
 21
1.114467797299312
 31
0.0
  0
LINE
  5
2CA5
330
2C53
100
AcDbEntity
  8
0
100
AcDbLine
 10
1.932469108899567
 20
0.7693252588992437
 30
0.0
 11
1.931389453400697
 21
0.7866052732993012
 31
0.0
  0
LINE
  5
2CA6
330
2C53
100
AcDbEntity
  8
0
100
AcDbLine
 10
2.235447464800017
 20
1.143992590399193
 30
0.0
 11
2.246378977699805
 21
1.129916816599234
 31
0.0
  0
LINE
  5
2CA7
330
2C53
100
AcDbEntity
  8
0
100
AcDbLine
 10
1.931389453400697
 20
0.7866052732993012
 30
0.0
 11
1.931389453400697
 21
0.81464238239937
 31
0.0
  0
LINE
  5
2CA8
330
2C53
100
AcDbEntity
  8
0
100
AcDbLine
 10
2.222356640900216
 20
1.156695117599383
 30
0.0
 11
2.235447464800017
 21
1.143992590399193
 31
0.0
  0
LINE
  5
2CA9
330
2C53
100
AcDbEntity
  8
0
100
AcDbLine
 10
1.931389453400697
 20
0.81464238239937
 30
0.0
 11
2.007437694899635
 21
0.81464238239937
 31
0.0
  0
LINE
  5
2CAA
330
2C53
100
AcDbEntity
  8
0
100
AcDbLine
 10
2.21034547140016
 20
1.165621217199259
 30
0.0
 11
2.222356640900216
 21
1.156695117599383
 31
0.0
  0
LINE
  5
2CAB
330
2C53
100
AcDbEntity
  8
0
100
AcDbLine
 10
2.007437694899635
 20
0.81464238239937
 30
0.0
 11
2.007437694899635
 21
0.789408984099282
 31
0.0
  0
LINE
  5
2CAC
330
2C53
100
AcDbEntity
  8
0
100
AcDbLine
 10
2.19698473390008
 20
1.173174071299399
 30
0.0
 11
2.21034547140016
 21
1.165621217199259
 31
0.0
  0
LINE
  5
2CAD
330
2C53
100
AcDbEntity
  8
0
100
AcDbLine
 10
2.007437694899635
 20
0.789408984099282
 30
0.0
 11
2.007977523200679
 21
0.7770497690994489
 31
0.0
  0
LINE
  5
2CAE
330
2C53
100
AcDbEntity
  8
0
100
AcDbLine
 10
2.182274426200365
 20
1.179353678799543
 30
0.0
 11
2.19698473390008
 21
1.173174071299399
 31
0.0
  0
LINE
  5
2CAF
330
2C53
100
AcDbEntity
  8
0
100
AcDbLine
 10
2.007977523200679
 20
0.7770497690994489
 30
0.0
 11
2.009597006999683
 21
0.765606051099212
 31
0.0
  0
LINE
  5
2CB0
330
2C53
100
AcDbEntity
  8
0
100
AcDbLine
 10
2.166214548300558
 20
1.184160040799497
 30
0.0
 11
2.182274426200365
 21
1.179353678799543
 31
0.0
  0
LINE
  5
2CB1
330
2C53
100
AcDbEntity
  8
0
100
AcDbLine
 10
2.009597006999683
 20
0.765606051099212
 30
0.0
 11
2.012296145199798
 21
0.7550778300992534
 31
0.0
  0
LINE
  5
2CB2
330
2C53
100
AcDbEntity
  8
0
100
AcDbLine
 10
2.148805102399819
 20
1.187593156199
 30
0.0
 11
2.166214548300558
 21
1.184160040799497
 31
0.0
  0
LINE
  5
2CB3
330
2C53
100
AcDbEntity
  8
0
100
AcDbLine
 10
2.012296145199798
 20
0.7550778300992534
 30
0.0
 11
2.01607494000018
 21
0.7454651071996068
 31
0.0
  0
LINE
  5
2CB4
330
2C53
100
AcDbEntity
  8
0
100
AcDbLine
 10
2.130046086299444
 20
1.189653024999188
 30
0.0
 11
2.148805102399819
 21
1.187593156199
 31
0.0
  0
LINE
  5
2CB5
330
2C53
100
AcDbEntity
  8
0
100
AcDbLine
 10
2.01607494000018
 20
0.7454651071996068
 30
0.0
 11
2.020933390300342
 21
0.7367678812993291
 31
0.0
  0
LINE
  5
2CB6
330
2C53
100
AcDbEntity
  8
0
100
AcDbLine
 10
2.109937499999887
 20
1.190339648299413
 30
0.0
 11
2.130046086299444
 21
1.189653024999188
 31
0.0
  0
LINE
  5
2CB7
330
2C53
100
AcDbEntity
  8
0
100
AcDbLine
 10
2.020933390300342
 20
0.7367678812993291
 30
0.0
 11
2.026871496100284
 21
0.7289861523991022
 31
0.0
  0
LINE
  5
2CB8
330
2C53
100
AcDbEntity
  8
0
100
AcDbLine
 10
2.093135359700681
 20
1.189538588699178
 30
0.0
 11
2.109937499999887
 21
1.190339648299413
 31
0.0
  0
LINE
  5
2CB9
330
2C53
100
AcDbEntity
  8
0
100
AcDbLine
 10
2.026871496100284
 20
0.7289861523991022
 30
0.0
 11
2.03388925740046
 21
0.7221199215994148
 31
0.0
  0
LINE
  5
2CBA
330
2C53
100
AcDbEntity
  8
0
100
AcDbLine
 10
2.076738089799619
 20
1.187135407699315
 30
0.0
 11
2.093135359700681
 21
1.189538588699178
 31
0.0
  0
LINE
  5
2CBB
330
2C53
100
AcDbEntity
  8
0
100
AcDbLine
 10
2.03388925740046
 20
0.7221199215994148
 30
0.0
 11
2.041716760600138
 21
0.7161691888993574
 31
0.0
  0
LINE
  5
2CBC
330
2C53
100
AcDbEntity
  8
0
100
AcDbLine
 10
2.06074569140037
 20
1.183130106399403
 30
0.0
 11
2.076738089799619
 21
1.187135407699315
 31
0.0
  0
LINE
  5
2CBD
330
2C53
100
AcDbEntity
  8
0
100
AcDbLine
 10
2.041716760600138
 20
0.7161691888993574
 30
0.0
 11
2.050084092099496
 21
0.7111339520995444
 31
0.0
  0
LINE
  5
2CBE
330
2C53
100
AcDbEntity
  8
0
100
AcDbLine
 10
2.045158163399719
 20
1.17752268369918
 30
0.0
 11
2.06074569140037
 21
1.183130106399403
 31
0.0
  0
LINE
  5
2CBF
330
2C53
100
AcDbEntity
  8
0
100
AcDbLine
 10
2.050084092099496
 20
0.7111339520995444
 30
0.0
 11
2.058991250800318
 21
0.7070142144991678
 31
0.0
  0
LINE
  5
2CC0
330
2C53
100
AcDbEntity
  8
0
100
AcDbLine
 10
2.029975505799939
 20
1.170313141799169
 30
0.0
 11
2.045158163399719
 21
1.17752268369918
 31
0.0
  0
LINE
  5
2CC1
330
2C53
100
AcDbEntity
  8
0
100
AcDbLine
 10
2.058991250800318
 20
0.7070142144991678
 30
0.0
 11
2.068438237799455
 21
0.7038099727990357
 31
0.0
  0
LINE
  5
2CC2
330
2C53
100
AcDbEntity
  8
0
100
AcDbLine
 10
2.015197719700154
 20
1.161501478499303
 30
0.0
 11
2.029975505799939
 21
1.170313141799169
 31
0.0
  0
LINE
  5
2CC3
330
2C53
100
AcDbEntity
  8
0
100
AcDbLine
 10
2.068438237799455
 20
0.7038099727990357
 30
0.0
 11
2.078425052000056
 21
0.7015212291994431
 31
0.0
  0
LINE
  5
2CC4
330
2C53
100
AcDbEntity
  8
0
100
AcDbLine
 10
2.00082480509991
 20
1.15108769489916
 30
0.0
 11
2.015197719700154
 21
1.161501478499303
 31
0.0
  0
LINE
  5
2CC5
330
2C53
100
AcDbEntity
  8
0
100
AcDbLine
 10
2.078425052000056
 20
0.7015212291994431
 30
0.0
 11
2.088951694500337
 21
0.7001479825992192
 31
0.0
  0
LINE
  5
2CC6
330
2C53
100
AcDbEntity
  8
0
100
AcDbLine
 10
1.986856759800048
 20
1.138671261199306
 30
0.0
 11
2.00082480509991
 21
1.15108769489916
 31
0.0
  0
LINE
  5
2CC7
330
2C53
100
AcDbEntity
  8
0
100
AcDbLine
 10
2.088951694500337
 20
0.7001479825992192
 30
0.0
 11
2.100018164200264
 21
0.6996902340993075
 31
0.0
  0
LINE
  5
2CC8
330
2C53
100
AcDbEntity
  8
0
100
AcDbLine
 10
1.975182983400827
 20
1.125453766799182
 30
0.0
 11
1.986856759800048
 21
1.138671261199306
 31
0.0
  0
LINE
  5
2CC9
330
2C53
100
AcDbEntity
  8
0
100
AcDbLine
 10
2.100018164200264
 20
0.6996902340993075
 30
0.0
 11
2.11459351510075
 21
0.7001479825992192
 31
0.0
  0
LINE
  5
2CCA
330
2C53
100
AcDbEntity
  8
0
100
AcDbLine
 10
1.965803475900429
 20
1.111435211699244
 30
0.0
 11
1.975182983400827
 21
1.125453766799182
 31
0.0
  0
LINE
  5
2CCB
330
2C53
100
AcDbEntity
  8
0
100
AcDbLine
 10
2.11459351510075
 20
0.7001479825992192
 30
0.0
 11
2.128089210500093
 21
0.7015212291994431
 31
0.0
  0
LINE
  5
2CCC
330
2C53
100
AcDbEntity
  8
0
100
AcDbLine
 10
1.958718236200184
 20
1.096615596999527
 30
0.0
 11
1.965803475900429
 21
1.111435211699244
 31
0.0
  0
LINE
  5
2CCD
330
2C53
100
AcDbEntity
  8
0
100
AcDbLine
 10
2.128089210500093
 20
0.7015212291994431
 30
0.0
 11
2.140505249300531
 21
0.7038099727990357
 31
0.0
  0
LINE
  5
2CCE
330
2C53
100
AcDbEntity
  8
0
100
AcDbLine
 10
1.953927264300546
 20
1.08099492159954
 30
0.0
 11
1.958718236200184
 21
1.096615596999527
 31
0.0
  0
LINE
  5
2CCF
330
2C53
100
AcDbEntity
  8
0
100
AcDbLine
 10
2.140505249300531
 20
0.7038099727990357
 30
0.0
 11
2.151841633700314
 21
0.7070142144991678
 31
0.0
  0
LINE
  5
2CD0
330
2C53
100
AcDbEntity
  8
0
100
AcDbLine
 10
1.951430560199696
 20
1.064573186599091
 30
0.0
 11
1.953927264300546
 21
1.08099492159954
 31
0.0
  0
LINE
  5
2CD1
330
2C53
100
AcDbEntity
  8
0
100
AcDbLine
 10
2.151841633700314
 20
0.7070142144991678
 30
0.0
 11
2.162098361500284
 21
0.7111339520995444
 31
0.0
  0
LINE
  5
2CD2
330
2C53
100
AcDbEntity
  8
0
100
AcDbLine
 10
1.951228124999943
 20
1.047350390899509
 30
0.0
 11
1.951430560199696
 21
1.064573186599091
 31
0.0
  0
LINE
  5
2CD3
330
2C53
100
AcDbEntity
  8
0
100
AcDbLine
 10
2.162098361500284
 20
0.7111339520995444
 30
0.0
 11
2.171275434900053
 21
0.7161691888993574
 31
0.0
  0
LINE
  5
2CD4
330
2C53
100
AcDbEntity
  8
0
100
AcDbLine
 10
1.953185000799749
 20
1.030242031499483
 30
0.0
 11
1.951228124999943
 21
1.047350390899509
 31
0.0
  0
LINE
  5
2CD5
330
2C53
100
AcDbEntity
  8
0
100
AcDbLine
 10
2.171275434900053
 20
0.7161691888993574
 30
0.0
 11
2.179372851700463
 21
0.7221199215994148
 31
0.0
  0
LINE
  5
2CD6
330
2C53
100
AcDbEntity
  8
0
100
AcDbLine
 10
1.957166230799884
 20
1.01416360759913
 30
0.0
 11
1.953185000799749
 21
1.030242031499483
 31
0.0
  0
LINE
  5
2CD7
330
2C53
100
AcDbEntity
  8
0
100
AcDbLine
 10
2.179372851700463
 20
0.7221199215994148
 30
0.0
 11
2.187267833300211
 21
0.7296155569995335
 31
0.0
  0
LINE
  5
2CD8
330
2C53
100
AcDbEntity
  8
0
100
AcDbLine
 10
1.96317181500035
 20
0.9991151191993594
 30
0.0
 11
1.957166230799884
 21
1.01416360759913
 31
0.0
  0
LINE
  5
2CD9
330
2C53
100
AcDbEntity
  8
0
100
AcDbLine
 10
2.187267833300211
 20
0.7296155569995335
 30
0.0
 11
2.193948202599585
 21
0.7376833782993799
 31
0.0
  0
LINE
  5
2CDA
330
2C53
100
AcDbEntity
  8
0
100
AcDbLine
 10
1.971201753400237
 20
0.9850965640996491
 30
0.0
 11
1.96317181500035
 21
0.9991151191993594
 31
0.0
  0
LINE
  5
2CDB
330
2C53
100
AcDbEntity
  8
0
100
AcDbLine
 10
2.193948202599585
 20
0.7376833782993799
 30
0.0
 11
2.199413958499462
 21
0.7463233854996361
 31
0.0
  0
LINE
  5
2CDC
330
2C53
100
AcDbEntity
  8
0
100
AcDbLine
 10
1.981256047100032
 20
0.9721079444993847
 30
0.0
 11
1.971201753400237
 21
0.9850965640996491
 31
0.0
  0
LINE
  5
2CDD
330
2C53
100
AcDbEntity
  8
0
100
AcDbLine
 10
2.199413958499462
 20
0.7463233854996361
 30
0.0
 11
2.203665103199909
 21
0.7555355785993925
 31
0.0
  0
LINE
  5
2CDE
330
2C53
100
AcDbEntity
  8
0
100
AcDbLine
 10
1.993334693900578
 20
0.9601492581991806
 30
0.0
 11
1.981256047100032
 21
0.9721079444993847
 31
0.0
  0
LINE
  5
2CDF
330
2C53
100
AcDbEntity
  8
0
100
AcDbLine
 10
2.203665103199909
 20
0.7555355785993925
 30
0.0
 11
2.206701634500404
 21
0.7653199575995587
 31
0.0
  0
LINE
  5
2CE0
330
2C53
100
AcDbEntity
  8
0
100
AcDbLine
 10
2.007437694899635
 20
0.9492205073993318
 30
0.0
 11
1.993334693900578
 21
0.9601492581991806
 31
0.0
  0
LINE
  5
2CE1
330
2C53
100
AcDbEntity
  8
0
100
AcDbLine
 10
2.206701634500404
 20
0.7653199575995587
 30
0.0
 11
2.208523553500526
 21
0.7756765224989977
 31
0.0
  0
LINE
  5
2CE2
330
2C53
100
AcDbEntity
  8
0
100
AcDbLine
 10
2.028423501500583
 20
0.9349158598993199
 30
0.0
 11
2.007437694899635
 21
0.9492205073993318
 31
0.0
  0
LINE
  5
2CE3
330
2C53
100
AcDbEntity
  8
0
100
AcDbLine
 10
2.208523553500526
 20
0.7756765224989977
 30
0.0
 11
2.209130859099786
 21
0.7866052732993012
 31
0.0
  0
LINE
  5
2CE4
330
2C53
100
AcDbEntity
  8
0
100
AcDbLine
 10
2.049814178500128
 20
0.9208400871993944
 30
0.0
 11
2.028423501500583
 21
0.9349158598993199
 31
0.0
  0
LINE
  5
2CE5
330
2C53
100
AcDbEntity
  8
0
100
AcDbLine
 10
2.209130859099786
 20
0.7866052732993012
 30
0.0
 11
2.208186160400146
 21
0.7982778660991699
 31
0.0
  0
LINE
  5
2CE6
330
2C53
100
AcDbEntity
  8
0
100
AcDbLine
 10
2.071609725900088
 20
0.9069931881995216
 30
0.0
 11
2.049814178500128
 21
0.9208400871993944
 31
0.0
  0
LINE
  5
2CE7
330
2C53
100
AcDbEntity
  8
0
100
AcDbLine
 10
2.208186160400146
 20
0.7982778660991699
 30
0.0
 11
2.205352064300768
 21
0.8092638355990402
 31
0.0
  0
LINE
  5
2CE8
330
2C53
100
AcDbEntity
  8
0
100
AcDbLine
 10
2.093810144800045
 20
0.8933751628992467
 30
0.0
 11
2.071609725900088
 21
0.9069931881995216
 31
0.0
  0
LINE
  5
2CE9
330
2C53
100
AcDbEntity
  8
0
100
AcDbLine
 10
2.205352064300768
 20
0.8092638355990402
 30
0.0
 11
2.200628571900779
 21
0.8195631817993671
 31
0.0
  0
LINE
  5
2CEA
330
2C53
100
AcDbEntity
  8
0
100
AcDbLine
 10
2.116415434100417
 20
0.8799860134990922
 30
0.0
 11
2.093810144800045
 21
0.8933751628992467
 31
0.0
  0
LINE
  5
2CEB
330
2C53
100
AcDbEntity
  8
0
100
AcDbLine
 10
2.200628571900779
 20
0.8195631817993671
 30
0.0
 11
2.194015681000564
 21
0.829175904699241
 31
0.0
  0
LINE
  5
2CEC
330
2C53
100
AcDbEntity
  8
0
100
AcDbLine
 10
2.139425593800297
 20
0.8668257377989903
 30
0.0
 11
2.116415434100417
 21
0.8799860134990922
 31
0.0
  0
LINE
  5
2CED
330
2C53
100
AcDbEntity
  8
0
100
AcDbLine
 10
2.194015681000564
 20
0.829175904699241
 30
0.0
 11
2.185513392700158
 21
0.8381020053993779
 31
0.0
  0
LINE
  5
2CEE
330
2C53
100
AcDbEntity
  8
0
100
AcDbLine
 10
2.162840625000171
 20
0.8538943357993957
 30
0.0
 11
2.139425593800297
 21
0.8668257377989903
 31
0.0
  0
LINE
  5
2CEF
330
2C53
100
AcDbEntity
  8
0
100
AcDbLine
 10
2.185513392700158
 20
0.8381020053993779
 30
0.0
 11
2.175121708100505
 21
0.8463414816992553
 31
0.0
  0
LINE
  5
2CF0
330
2C53
100
AcDbEntity
  8
0
100
AcDbLine
 10
2.175121708100505
 20
0.8463414816992553
 30
0.0
 11
2.162840625000171
 21
0.8538943357993957
 31
0.0
  0
LINE
  5
2CF1
330
2C53
100
AcDbEntity
  8
0
100
AcDbLine
 10
3.048948632400424
 20
1.171743605999381
 30
0.0
 11
3.062646762999975
 21
1.16356134839907
 31
0.0
  0
LINE
  5
2CF2
330
2C53
100
AcDbEntity
  8
0
100
AcDbLine
 10
3.034305803100323
 20
1.17843818179881
 30
0.0
 11
3.048948632400424
 21
1.171743605999381
 31
0.0
  0
LINE
  5
2CF3
330
2C53
100
AcDbEntity
  8
0
100
AcDbLine
 10
3.062646762999975
 20
1.16356134839907
 30
0.0
 11
3.075400194899884
 21
1.153891405699368
 31
0.0
  0
LINE
  5
2CF4
330
2C53
100
AcDbEntity
  8
0
100
AcDbLine
 10
3.018718276200615
 20
1.183645073599336
 30
0.0
 11
3.034305803100323
 21
1.17843818179881
 31
0.0
  0
LINE
  5
2CF5
330
2C53
100
AcDbEntity
  8
0
100
AcDbLine
 10
3.075400194899884
 20
1.153891405699368
 30
0.0
 11
3.094699039300849
 21
1.133979336599622
 31
0.0
  0
LINE
  5
2CF6
330
2C53
100
AcDbEntity
  8
0
100
AcDbLine
 10
3.002186049499869
 20
1.187364281399595
 30
0.0
 11
3.018718276200615
 21
1.183645073599336
 31
0.0
  0
LINE
  5
2CF7
330
2C53
100
AcDbEntity
  8
0
100
AcDbLine
 10
3.094699039300849
 20
1.133979336599622
 30
0.0
 11
3.111028830800023
 21
1.109489780299554
 31
0.0
  0
LINE
  5
2CF8
330
2C53
100
AcDbEntity
  8
0
100
AcDbLine
 10
2.984709124100845
 20
1.189595806299394
 30
0.0
 11
3.002186049499869
 21
1.187364281399595
 31
0.0
  0
LINE
  5
2CF9
330
2C53
100
AcDbEntity
  8
0
100
AcDbLine
 10
3.111028830800023
 20
1.109489780299554
 30
0.0
 11
3.124389568300102
 21
1.080422735699357
 31
0.0
  0
LINE
  5
2CFA
330
2C53
100
AcDbEntity
  8
0
100
AcDbLine
 10
2.966287500000362
 20
1.190339648299413
 30
0.0
 11
2.984709124100845
 21
1.189595806299394
 31
0.0
  0
LINE
  5
2CFB
330
2C53
100
AcDbEntity
  8
0
100
AcDbLine
 10
3.124389568300102
 20
1.080422735699357
 30
0.0
 11
3.134781254000245
 21
1.046778204999327
 31
0.0
  0
LINE
  5
2CFC
330
2C53
100
AcDbEntity
  8
0
100
AcDbLine
 10
2.946988655599852
 20
1.189595806299394
 30
0.0
 11
2.966287500000362
 21
1.190339648299413
 31
0.0
  0
LINE
  5
2CFD
330
2C53
100
AcDbEntity
  8
0
100
AcDbLine
 10
3.134781254000245
 20
1.046778204999327
 30
0.0
 11
3.142203886800416
 21
1.008556185999168
 31
0.0
  0
LINE
  5
2CFE
330
2C53
100
AcDbEntity
  8
0
100
AcDbLine
 10
2.92876946780052
 20
1.187364281399595
 30
0.0
 11
2.946988655599852
 21
1.189595806299394
 31
0.0
  0
LINE
  5
2CFF
330
2C53
100
AcDbEntity
  8
0
100
AcDbLine
 10
3.142203886800416
 20
1.008556185999168
 30
0.0
 11
3.146657465600583
 21
0.9657566808996307
 31
0.0
  0
LINE
  5
2D00
330
2C53
100
AcDbEntity
  8
0
100
AcDbLine
 10
2.911629934400934
 20
1.183645073599336
 30
0.0
 11
2.92876946780052
 21
1.187364281399595
 31
0.0
  0
LINE
  5
2D01
330
2C53
100
AcDbEntity
  8
0
100
AcDbLine
 10
3.146657465600583
 20
0.9657566808996307
 30
0.0
 11
3.148141992599903
 21
0.9183796874990548
 31
0.0
  0
LINE
  5
2D02
330
2C53
100
AcDbEntity
  8
0
100
AcDbLine
 10
2.895570057599798
 20
1.17843818179881
 30
0.0
 11
2.911629934400934
 21
1.183645073599336
 31
0.0
  0
LINE
  5
2D03
330
2C53
100
AcDbEntity
  8
0
100
AcDbLine
 10
3.148141992599903
 20
0.9183796874990548
 30
0.0
 11
3.146657465600583
 21
0.8702588531996298
 31
0.0
  0
LINE
  5
2D04
330
2C53
100
AcDbEntity
  8
0
100
AcDbLine
 10
2.880589836300259
 20
1.171743605999381
 30
0.0
 11
2.895570057599798
 21
1.17843818179881
 31
0.0
  0
LINE
  5
2D05
330
2C53
100
AcDbEntity
  8
0
100
AcDbLine
 10
3.146657465600583
 20
0.8702588531996298
 30
0.0
 11
3.142203886800416
 21
0.8268299423993994
 31
0.0
  0
LINE
  5
2D06
330
2C53
100
AcDbEntity
  8
0
100
AcDbLine
 10
2.866689269400922
 20
1.16356134839907
 30
0.0
 11
2.880589836300259
 21
1.171743605999381
 31
0.0
  0
LINE
  5
2D07
330
2C53
100
AcDbEntity
  8
0
100
AcDbLine
 10
3.142203886800416
 20
0.8268299423993994
 30
0.0
 11
3.134781254000245
 21
0.788092957299341
 31
0.0
  0
LINE
  5
2D08
330
2C53
100
AcDbEntity
  8
0
100
AcDbLine
 10
2.853868359100488
 20
1.153891405699368
 30
0.0
 11
2.866689269400922
 21
1.16356134839907
 31
0.0
  0
LINE
  5
2D09
330
2C53
100
AcDbEntity
  8
0
100
AcDbLine
 10
3.134781254000245
 20
0.788092957299341
 30
0.0
 11
3.124389568300102
 21
0.7540478956993866
 31
0.0
  0
LINE
  5
2D0A
330
2C53
100
AcDbEntity
  8
0
100
AcDbLine
 10
2.834569515800467
 20
1.133979336599622
 30
0.0
 11
2.853868359100488
 21
1.153891405699368
 31
0.0
  0
LINE
  5
2D0B
330
2C53
100
AcDbEntity
  8
0
100
AcDbLine
 10
3.124389568300102
 20
0.7540478956993866
 30
0.0
 11
3.111028830800023
 21
0.7246947586991155
 31
0.0
  0
LINE
  5
2D0C
330
2C53
100
AcDbEntity
  8
0
100
AcDbLine
 10
2.818239724299928
 20
1.109489780299554
 30
0.0
 11
2.834569515800467
 21
1.133979336599622
 31
0.0
  0
LINE
  5
2D0D
330
2C53
100
AcDbEntity
  8
0
100
AcDbLine
 10
3.111028830800023
 20
0.7246947586991155
 30
0.0
 11
3.094699039300849
 21
0.7000335462992098
 31
0.0
  0
LINE
  5
2D0E
330
2C53
100
AcDbEntity
  8
0
100
AcDbLine
 10
2.80487898570027
 20
1.080422735699357
 30
0.0
 11
2.818239724299928
 21
1.109489780299554
 31
0.0
  0
LINE
  5
2D0F
330
2C53
100
AcDbEntity
  8
0
100
AcDbLine
 10
3.094699039300849
 20
0.7000335462992098
 30
0.0
 11
3.075400194899884
 21
0.6800642573994083
 31
0.0
  0
LINE
  5
2D10
330
2C53
100
AcDbEntity
  8
0
100
AcDbLine
 10
2.794487301100161
 20
1.046778204999327
 30
0.0
 11
2.80487898570027
 21
1.080422735699357
 31
0.0
  0
LINE
  5
2D11
330
2C53
100
AcDbEntity
  8
0
100
AcDbLine
 10
3.075400194899884
 20
0.6800642573994083
 30
0.0
 11
3.062646762999975
 21
0.6703943157995127
 31
0.0
  0
LINE
  5
2D12
330
2C53
100
AcDbEntity
  8
0
100
AcDbLine
 10
2.787064668299535
 20
1.008556185999168
 30
0.0
 11
2.794487301100161
 21
1.046778204999327
 31
0.0
  0
LINE
  5
2D13
330
2C53
100
AcDbEntity
  8
0
100
AcDbLine
 10
3.062646762999975
 20
0.6703943157995127
 30
0.0
 11
3.048948632400424
 21
0.6622120570993957
 31
0.0
  0
LINE
  5
2D14
330
2C53
100
AcDbEntity
  8
0
100
AcDbLine
 10
2.782611089499368
 20
0.9657566808996307
 30
0.0
 11
2.787064668299535
 21
1.008556185999168
 31
0.0
  0
LINE
  5
2D15
330
2C53
100
AcDbEntity
  8
0
100
AcDbLine
 10
3.048948632400424
 20
0.6622120570993957
 30
0.0
 11
3.034305803100323
 21
0.6555174823993184
 31
0.0
  0
LINE
  5
2D16
330
2C53
100
AcDbEntity
  8
0
100
AcDbLine
 10
2.781126562500048
 20
0.9183796874990548
 30
0.0
 11
2.782611089499368
 21
0.9657566808996307
 31
0.0
  0
LINE
  5
2D17
330
2C53
100
AcDbEntity
  8
0
100
AcDbLine
 10
3.034305803100323
 20
0.6555174823993184
 30
0.0
 11
3.018718276200615
 21
0.650310590599247
 31
0.0
  0
LINE
  5
2D18
330
2C53
100
AcDbEntity
  8
0
100
AcDbLine
 10
2.782611089499368
 20
0.8702588531996298
 30
0.0
 11
2.781126562500048
 21
0.9183796874990548
 31
0.0
  0
LINE
  5
2D19
330
2C53
100
AcDbEntity
  8
0
100
AcDbLine
 10
3.018718276200615
 20
0.650310590599247
 30
0.0
 11
3.002186049499869
 21
0.6465913827996701
 31
0.0
  0
LINE
  5
2D1A
330
2C53
100
AcDbEntity
  8
0
100
AcDbLine
 10
2.787064668299535
 20
0.8268299423993994
 30
0.0
 11
2.782611089499368
 21
0.8702588531996298
 31
0.0
  0
LINE
  5
2D1B
330
2C53
100
AcDbEntity
  8
0
100
AcDbLine
 10
3.002186049499869
 20
0.6465913827996701
 30
0.0
 11
2.984709124100845
 21
0.6443598567993832
 31
0.0
  0
LINE
  5
2D1C
330
2C53
100
AcDbEntity
  8
0
100
AcDbLine
 10
2.794487301100161
 20
0.788092957299341
 30
0.0
 11
2.787064668299535
 21
0.8268299423993994
 31
0.0
  0
LINE
  5
2D1D
330
2C53
100
AcDbEntity
  8
0
100
AcDbLine
 10
2.984709124100845
 20
0.6443598567993832
 30
0.0
 11
2.966287500000362
 21
0.6436160158991698
 31
0.0
  0
LINE
  5
2D1E
330
2C53
100
AcDbEntity
  8
0
100
AcDbLine
 10
2.80487898570027
 20
0.7540478956993866
 30
0.0
 11
2.794487301100161
 21
0.788092957299341
 31
0.0
  0
LINE
  5
2D1F
330
2C53
100
AcDbEntity
  8
0
100
AcDbLine
 10
2.966287500000362
 20
0.6436160158991698
 30
0.0
 11
2.946988655599852
 21
0.6443598567993832
 31
0.0
  0
LINE
  5
2D20
330
2C53
100
AcDbEntity
  8
0
100
AcDbLine
 10
2.818239724299928
 20
0.7246947586991155
 30
0.0
 11
2.80487898570027
 21
0.7540478956993866
 31
0.0
  0
LINE
  5
2D21
330
2C53
100
AcDbEntity
  8
0
100
AcDbLine
 10
2.946988655599852
 20
0.6443598567993832
 30
0.0
 11
2.92876946780052
 21
0.6465913827996701
 31
0.0
  0
LINE
  5
2D22
330
2C53
100
AcDbEntity
  8
0
100
AcDbLine
 10
2.834569515800467
 20
0.7000335462992098
 30
0.0
 11
2.818239724299928
 21
0.7246947586991155
 31
0.0
  0
LINE
  5
2D23
330
2C53
100
AcDbEntity
  8
0
100
AcDbLine
 10
2.92876946780052
 20
0.6465913827996701
 30
0.0
 11
2.911629934400934
 21
0.650310590599247
 31
0.0
  0
LINE
  5
2D24
330
2C53
100
AcDbEntity
  8
0
100
AcDbLine
 10
2.853868359100488
 20
0.6800642573994083
 30
0.0
 11
2.834569515800467
 21
0.7000335462992098
 31
0.0
  0
LINE
  5
2D25
330
2C53
100
AcDbEntity
  8
0
100
AcDbLine
 10
2.911629934400934
 20
0.650310590599247
 30
0.0
 11
2.895570057599798
 21
0.6555174823993184
 31
0.0
  0
LINE
  5
2D26
330
2C53
100
AcDbEntity
  8
0
100
AcDbLine
 10
2.866689269400922
 20
0.6703943157995127
 30
0.0
 11
2.853868359100488
 21
0.6800642573994083
 31
0.0
  0
LINE
  5
2D27
330
2C53
100
AcDbEntity
  8
0
100
AcDbLine
 10
2.895570057599798
 20
0.6555174823993184
 30
0.0
 11
2.880589836300259
 21
0.6622120570993957
 31
0.0
  0
LINE
  5
2D28
330
2C53
100
AcDbEntity
  8
0
100
AcDbLine
 10
2.880589836300259
 20
0.6622120570993957
 30
0.0
 11
2.866689269400922
 21
0.6703943157995127
 31
0.0
  0
LINE
  5
2D29
330
2C53
100
AcDbEntity
  8
0
100
AcDbLine
 10
3.855701953400057
 20
1.190339648299413
 30
0.0
 11
4.021024218200182
 21
0.6436160158991698
 31
0.0
  0
LINE
  5
2D2A
330
2C53
100
AcDbEntity
  8
0
100
AcDbLine
 10
3.789573046600253
 20
1.190339648299413
 30
0.0
 11
3.855701953400057
 21
1.190339648299413
 31
0.0
  0
LINE
  5
2D2B
330
2C53
100
AcDbEntity
  8
0
100
AcDbLine
 10
4.021024218200182
 20
0.6436160158991698
 30
0.0
 11
3.941669531800471
 21
0.6436160158991698
 31
0.0
  0
LINE
  5
2D2C
330
2C53
100
AcDbEntity
  8
0
100
AcDbLine
 10
3.624250780700549
 20
0.6436160158991698
 30
0.0
 11
3.789573046600253
 21
1.190339648299413
 31
0.0
  0
LINE
  5
2D2D
330
2C53
100
AcDbEntity
  8
0
100
AcDbLine
 10
3.941669531800471
 20
0.6436160158991698
 30
0.0
 11
3.895379296599912
 21
0.8034275391992196
 31
0.0
  0
LINE
  5
2D2E
330
2C53
100
AcDbEntity
  8
0
100
AcDbLine
 10
3.703605468200294
 20
0.6436160158991698
 30
0.0
 11
3.624250780700549
 21
0.6436160158991698
 31
0.0
  0
LINE
  5
2D2F
330
2C53
100
AcDbEntity
  8
0
100
AcDbLine
 10
3.895379296599912
 20
0.8034275391992196
 30
0.0
 11
3.749895703400397
 21
0.8034275391992196
 31
0.0
  0
LINE
  5
2D30
330
2C53
100
AcDbEntity
  8
0
100
AcDbLine
 10
3.749895703400397
 20
0.8034275391992196
 30
0.0
 11
3.703605468200294
 21
0.6436160158991698
 31
0.0
  0
LINE
  5
2D31
330
2C53
100
AcDbEntity
  8
0
100
AcDbLine
 10
3.819331055100519
 20
1.04174296929932
 30
0.0
 11
3.76642793009978
 21
0.8566980465993765
 31
0.0
  0
LINE
  5
2D32
330
2C53
100
AcDbEntity
  8
0
100
AcDbLine
 10
3.76642793009978
 20
0.8566980465993765
 30
0.0
 11
3.87884706990053
 21
0.8566980465993765
 31
0.0
  0
LINE
  5
2D33
330
2C53
100
AcDbEntity
  8
0
100
AcDbLine
 10
3.8259439449007
 20
1.04174296929932
 30
0.0
 11
3.819331055100519
 21
1.04174296929932
 31
0.0
  0
LINE
  5
2D34
330
2C53
100
AcDbEntity
  8
0
100
AcDbLine
 10
3.87884706990053
 20
0.8566980465993765
 30
0.0
 11
3.8259439449007
 21
1.04174296929932
 31
0.0
  0
LINE
  5
2D35
330
2C53
100
AcDbEntity
  8
0
100
AcDbLine
 10
0.0
 20
0.0
 30
0.0
 11
5.246999999999843
 21
0.0
 31
0.0
  0
LINE
  5
2D36
330
2C53
100
AcDbEntity
  8
0
100
AcDbLine
 10
0.1484999999997854
 20
0.1484999999997854
 30
0.0
 11
5.098499999999603
 21
0.1484999999997854
 31
0.0
  0
LINE
  5
2D37
330
2C53
100
AcDbEntity
  8
0
100
AcDbLine
 10
3.415500000000065
 20
2.276999999999588
 30
0.0
 11
3.11850000000004
 21
2.276999999999588
 31
0.0
  0
LINE
  5
2D38
330
2C53
100
AcDbEntity
  8
0
100
AcDbLine
 10
3.11850000000004
 20
2.559998585099265
 30
0.0
 11
3.11850000000004
 21
2.276999999999588
 31
0.0
  0
ARC
  5
2D39
330
2C53
100
AcDbEntity
  8
0
100
AcDbCircle
 10
2.425500000000283
 20
3.266999999998915
 30
0.0
 40
0.9899999999999987
100
AcDbArc
 50
225.5729959990103
 51
314.4270039816004
  0
LINE
  5
2D3A
330
2C53
100
AcDbEntity
  8
0
100
AcDbLine
 10
1.732499999998253
 20
2.559998585575613
 30
0.0
 11
1.732500000000072
 21
0.6434999999992215
 31
0.0
  0
LINE
  5
2D3B
330
2C53
100
AcDbEntity
  8
0
100
AcDbLine
 10
1.732500000000072
 20
0.6434999999992215
 30
0.0
 11
1.336499999999887
 21
0.6434999999992215
 31
0.0
  0
LINE
  5
2D3C
330
2C53
100
AcDbEntity
  8
0
100
AcDbLine
 10
3.592849218199262
 20
1.190339648299413
 30
0.0
 11
3.520107421600641
 21
0.6436160158991698
 31
0.0
  0
LINE
  5
2D3D
330
2C53
100
AcDbEntity
  8
0
100
AcDbLine
 10
3.526720312500401
 20
1.190339648299413
 30
0.0
 11
3.592849218199262
 21
1.190339648299413
 31
0.0
  0
LINE
  5
2D3E
330
2C53
100
AcDbEntity
  8
0
100
AcDbLine
 10
3.520107421600641
 20
0.6436160158991698
 30
0.0
 11
3.453978515899962
 21
0.6436160158991698
 31
0.0
  0
LINE
  5
2D3F
330
2C53
100
AcDbEntity
  8
0
100
AcDbLine
 10
3.483736523300194
 20
0.8398757817990372
 30
0.0
 11
3.526720312500401
 21
1.190339648299413
 31
0.0
  0
LINE
  5
2D40
330
2C53
100
AcDbEntity
  8
0
100
AcDbLine
 10
3.453978515899962
 20
0.6436160158991698
 30
0.0
 11
3.394462500000372
 21
1.052957812499244
 31
0.0
  0
LINE
  5
2D41
330
2C53
100
AcDbEntity
  8
0
100
AcDbLine
 10
3.47712363239998
 20
0.8398757817990372
 30
0.0
 11
3.483736523300194
 21
0.8398757817990372
 31
0.0
  0
LINE
  5
2D42
330
2C53
100
AcDbEntity
  8
0
100
AcDbLine
 10
3.394462500000372
 20
1.052957812499244
 30
0.0
 11
3.387849609100157
 21
1.052957812499244
 31
0.0
  0
LINE
  5
2D43
330
2C53
100
AcDbEntity
  8
0
100
AcDbLine
 10
3.427526953400956
 20
1.190339648299413
 30
0.0
 11
3.47712363239998
 21
0.8398757817990372
 31
0.0
  0
LINE
  5
2D44
330
2C53
100
AcDbEntity
  8
0
100
AcDbLine
 10
3.387849609100157
 20
1.052957812499244
 30
0.0
 11
3.328333593200113
 21
0.6436160158991698
 31
0.0
  0
LINE
  5
2D45
330
2C53
100
AcDbEntity
  8
0
100
AcDbLine
 10
3.354785155699573
 20
1.190339648299413
 30
0.0
 11
3.427526953400956
 21
1.190339648299413
 31
0.0
  0
LINE
  5
2D46
330
2C53
100
AcDbEntity
  8
0
100
AcDbLine
 10
3.328333593200113
 20
0.6436160158991698
 30
0.0
 11
3.262204687500343
 21
0.6436160158991698
 31
0.0
  0
LINE
  5
2D47
330
2C53
100
AcDbEntity
  8
0
100
AcDbLine
 10
3.30518847669964
 20
0.8398757817990372
 30
0.0
 11
3.354785155699573
 21
1.190339648299413
 31
0.0
  0
LINE
  5
2D48
330
2C53
100
AcDbEntity
  8
0
100
AcDbLine
 10
3.262204687500343
 20
0.6436160158991698
 30
0.0
 11
3.189462890900358
 21
1.190339648299413
 31
0.0
  0
LINE
  5
2D49
330
2C53
100
AcDbEntity
  8
0
100
AcDbLine
 10
3.29857558580079
 20
0.8398757817990372
 30
0.0
 11
3.30518847669964
 21
0.8398757817990372
 31
0.0
  0
LINE
  5
2D4A
330
2C53
100
AcDbEntity
  8
0
100
AcDbLine
 10
3.189462890900358
 20
1.190339648299413
 30
0.0
 11
3.255591796600128
 21
1.190339648299413
 31
0.0
  0
LINE
  5
2D4B
330
2C53
100
AcDbEntity
  8
0
100
AcDbLine
 10
3.255591796600128
 20
1.190339648299413
 30
0.0
 11
3.29857558580079
 21
0.8398757817990372
 31
0.0
  0
LINE
  5
2D4C
330
2C53
100
AcDbEntity
  8
0
100
AcDbLine
 10
3.020540194100249
 20
1.118530317299246
 30
0.0
 11
3.01183547060009
 21
1.124194957599684
 31
0.0
  0
LINE
  5
2D4D
330
2C53
100
AcDbEntity
  8
0
100
AcDbLine
 10
3.01183547060009
 20
1.124194957599684
 30
0.0
 11
3.002995790299792
 21
1.128829663499345
 31
0.0
  0
LINE
  5
2D4E
330
2C53
100
AcDbEntity
  8
0
100
AcDbLine
 10
3.029109960799814
 20
1.111835742599168
 30
0.0
 11
3.020540194100249
 21
1.118530317299246
 31
0.0
  0
LINE
  5
2D4F
330
2C53
100
AcDbEntity
  8
0
100
AcDbLine
 10
3.002995790299792
 20
1.128829663499345
 30
0.0
 11
2.994021153200264
 21
1.13243443499914
 31
0.0
  0
LINE
  5
2D50
330
2C53
100
AcDbEntity
  8
0
100
AcDbLine
 10
3.040513823600122
 20
1.098961559299368
 30
0.0
 11
3.029109960799814
 21
1.111835742599168
 31
0.0
  0
LINE
  5
2D51
330
2C53
100
AcDbEntity
  8
0
100
AcDbLine
 10
2.994021153200264
 20
1.13243443499914
 30
0.0
 11
2.984911559300599
 21
1.135009270999262
 31
0.0
  0
LINE
  5
2D52
330
2C53
100
AcDbEntity
  8
0
100
AcDbLine
 10
3.050163245800831
 20
1.08116657769915
 30
0.0
 11
3.040513823600122
 21
1.098961559299368
 31
0.0
  0
LINE
  5
2D53
330
2C53
100
AcDbEntity
  8
0
100
AcDbLine
 10
2.984911559300599
 20
1.135009270999262
 30
0.0
 11
2.975667008600339
 21
1.136554173699323
 31
0.0
  0
LINE
  5
2D54
330
2C53
100
AcDbEntity
  8
0
100
AcDbLine
 10
3.058058227400579
 20
1.058450796699389
 30
0.0
 11
3.050163245800831
 21
1.08116657769915
 31
0.0
  0
LINE
  5
2D55
330
2C53
100
AcDbEntity
  8
0
100
AcDbLine
 10
2.975667008600339
 20
1.136554173699323
 30
0.0
 11
2.966287500000362
 21
1.137069140899257
 31
0.0
  0
LINE
  5
2D56
330
2C53
100
AcDbEntity
  8
0
100
AcDbLine
 10
3.064198768399819
 20
1.030814218499244
 30
0.0
 11
3.058058227400579
 21
1.058450796699389
 31
0.0
  0
LINE
  5
2D57
330
2C53
100
AcDbEntity
  8
0
100
AcDbLine
 10
2.966287500000362
 20
1.137069140899257
 30
0.0
 11
2.956030772200392
 21
1.136554173699323
 31
0.0
  0
LINE
  5
2D58
330
2C53
100
AcDbEntity
  8
0
100
AcDbLine
 10
3.068584868799916
 20
0.9982568397995237
 30
0.0
 11
3.064198768399819
 21
1.030814218499244
 31
0.0
  0
LINE
  5
2D59
330
2C53
100
AcDbEntity
  8
0
100
AcDbLine
 10
2.956030772200392
 20
1.136554173699323
 30
0.0
 11
2.946043956900211
 21
1.135009270999262
 31
0.0
  0
LINE
  5
2D5A
330
2C53
100
AcDbEntity
  8
0
100
AcDbLine
 10
3.071216529699995
 20
0.9607786627991572
 30
0.0
 11
3.068584868799916
 21
0.9982568397995237
 31
0.0
  0
LINE
  5
2D5B
330
2C53
100
AcDbEntity
  8
0
100
AcDbLine
 10
2.946043956900211
 20
1.135009270999262
 30
0.0
 11
2.936327056300797
 21
1.13243443499914
 31
0.0
  0
LINE
  5
2D5C
330
2C53
100
AcDbEntity
  8
0
100
AcDbLine
 10
3.072093750000021
 20
0.9183796874990548
 30
0.0
 11
3.071216529699995
 21
0.9607786627991572
 31
0.0
  0
LINE
  5
2D5D
330
2C53
100
AcDbEntity
  8
0
100
AcDbLine
 10
2.936327056300797
 20
1.13243443499914
 30
0.0
 11
2.926880070399874
 21
1.128829663499345
 31
0.0
  0
LINE
  5
2D5E
330
2C53
100
AcDbEntity
  8
0
100
AcDbLine
 10
3.071216529699995
 20
0.8752368701991599
 30
0.0
 11
3.072093750000021
 21
0.9183796874990548
 31
0.0
  0
LINE
  5
2D5F
330
2C53
100
AcDbEntity
  8
0
100
AcDbLine
 10
2.926880070399874
 20
1.128829663499345
 30
0.0
 11
2.91770299700056
 21
1.124194957599684
 31
0.0
  0
LINE
  5
2D60
330
2C53
100
AcDbEntity
  8
0
100
AcDbLine
 10
3.068584868799916
 20
0.8371292885992716
 30
0.0
 11
3.071216529699995
 21
0.8752368701991599
 31
0.0
  0
LINE
  5
2D61
330
2C53
100
AcDbEntity
  8
0
100
AcDbLine
 10
2.91770299700056
 20
1.124194957599684
 30
0.0
 11
2.908795838299738
 21
1.118530317299246
 31
0.0
  0
LINE
  5
2D62
330
2C53
100
AcDbEntity
  8
0
100
AcDbLine
 10
3.064198768399819
 20
0.8040569437994236
 30
0.0
 11
3.068584868799916
 21
0.8371292885992716
 31
0.0
  0
LINE
  5
2D63
330
2C53
100
AcDbEntity
  8
0
100
AcDbLine
 10
2.908795838299738
 20
1.118530317299246
 30
0.0
 11
2.900158593200103
 21
1.111835742599168
 31
0.0
  0
LINE
  5
2D64
330
2C53
100
AcDbEntity
  8
0
100
AcDbLine
 10
3.058058227400579
 20
0.7760198346993548
 30
0.0
 11
3.064198768399819
 21
0.8040569437994236
 31
0.0
  0
LINE
  5
2D65
330
2C53
100
AcDbEntity
  8
0
100
AcDbLine
 10
2.900158593200103
 20
1.111835742599168
 30
0.0
 11
2.88875473149983
 21
1.098961559299368
 31
0.0
  0
LINE
  5
2D66
330
2C53
100
AcDbEntity
  8
0
100
AcDbLine
 10
3.050163245800831
 20
0.7530179612990651
 30
0.0
 11
3.058058227400579
 21
0.7760198346993548
 31
0.0
  0
LINE
  5
2D67
330
2C53
100
AcDbEntity
  8
0
100
AcDbLine
 10
2.88875473149983
 20
1.098961559299368
 30
0.0
 11
2.87910530930003
 21
1.08116657769915
 31
0.0
  0
LINE
  5
2D68
330
2C53
100
AcDbEntity
  8
0
100
AcDbLine
 10
3.040513823600122
 20
0.7350513235994641
 30
0.0
 11
3.050163245800831
 21
0.7530179612990651
 31
0.0
  0
LINE
  5
2D69
330
2C53
100
AcDbEntity
  8
0
100
AcDbLine
 10
2.87910530930003
 20
1.08116657769915
 30
0.0
 11
2.871210327700282
 21
1.058450796699389
 31
0.0
  0
LINE
  5
2D6A
330
2C53
100
AcDbEntity
  8
0
100
AcDbLine
 10
3.029109960799814
 20
0.7221199215994148
 30
0.0
 11
3.040513823600122
 21
0.7350513235994641
 31
0.0
  0
LINE
  5
2D6B
330
2C53
100
AcDbEntity
  8
0
100
AcDbLine
 10
2.871210327700282
 20
1.058450796699389
 30
0.0
 11
2.865069786700132
 21
1.030814218499244
 31
0.0
  0
LINE
  5
2D6C
330
2C53
100
AcDbEntity
  8
0
100
AcDbLine
 10
3.020540194100249
 20
0.7154253468993375
 30
0.0
 11
3.029109960799814
 21
0.7221199215994148
 31
0.0
  0
LINE
  5
2D6D
330
2C53
100
AcDbEntity
  8
0
100
AcDbLine
 10
2.865069786700132
 20
1.030814218499244
 30
0.0
 11
2.860683685200001
 21
0.9982568397995237
 31
0.0
  0
LINE
  5
2D6E
330
2C53
100
AcDbEntity
  8
0
100
AcDbLine
 10
3.01183547060009
 20
0.7097607065995817
 30
0.0
 11
3.020540194100249
 21
0.7154253468993375
 31
0.0
  0
LINE
  5
2D6F
330
2C53
100
AcDbEntity
  8
0
100
AcDbLine
 10
2.860683685200001
 20
0.9982568397995237
 30
0.0
 11
2.858052025399956
 21
0.9607786627991572
 31
0.0
  0
LINE
  5
2D70
330
2C53
100
AcDbEntity
  8
0
100
AcDbLine
 10
3.002995790299792
 20
0.705126000699238
 30
0.0
 11
3.01183547060009
 21
0.7097607065995817
 31
0.0
  0
LINE
  5
2D71
330
2C53
100
AcDbEntity
  8
0
100
AcDbLine
 10
2.858052025399956
 20
0.9607786627991572
 30
0.0
 11
2.85717480509993
 21
0.9183796874990548
 31
0.0
  0
LINE
  5
2D72
330
2C53
100
AcDbEntity
  8
0
100
AcDbLine
 10
2.994021153200264
 20
0.7015212291994431
 30
0.0
 11
3.002995790299792
 21
0.705126000699238
 31
0.0
  0
LINE
  5
2D73
330
2C53
100
AcDbEntity
  8
0
100
AcDbLine
 10
2.85717480509993
 20
0.9183796874990548
 30
0.0
 11
2.858052025399956
 21
0.8752368701991599
 31
0.0
  0
LINE
  5
2D74
330
2C53
100
AcDbEntity
  8
0
100
AcDbLine
 10
2.984911559300599
 20
0.6989463931993214
 30
0.0
 11
2.994021153200264
 21
0.7015212291994431
 31
0.0
  0
LINE
  5
2D75
330
2C53
100
AcDbEntity
  8
0
100
AcDbLine
 10
2.858052025399956
 20
0.8752368701991599
 30
0.0
 11
2.860683685200001
 21
0.8371292885992716
 31
0.0
  0
LINE
  5
2D76
330
2C53
100
AcDbEntity
  8
0
100
AcDbLine
 10
2.975667008600339
 20
0.6974014904994874
 30
0.0
 11
2.984911559300599
 21
0.6989463931993214
 31
0.0
  0
LINE
  5
2D77
330
2C53
100
AcDbEntity
  8
0
100
AcDbLine
 10
2.860683685200001
 20
0.8371292885992716
 30
0.0
 11
2.865069786700132
 21
0.8040569437994236
 31
0.0
  0
LINE
  5
2D78
330
2C53
100
AcDbEntity
  8
0
100
AcDbLine
 10
2.966287500000362
 20
0.6968865232993267
 30
0.0
 11
2.975667008600339
 21
0.6974014904994874
 31
0.0
  0
LINE
  5
2D79
330
2C53
100
AcDbEntity
  8
0
100
AcDbLine
 10
2.865069786700132
 20
0.8040569437994236
 30
0.0
 11
2.871210327700282
 21
0.7760198346993548
 31
0.0
  0
LINE
  5
2D7A
330
2C53
100
AcDbEntity
  8
0
100
AcDbLine
 10
2.956030772200392
 20
0.6974014904994874
 30
0.0
 11
2.966287500000362
 21
0.6968865232993267
 31
0.0
  0
LINE
  5
2D7B
330
2C53
100
AcDbEntity
  8
0
100
AcDbLine
 10
2.871210327700282
 20
0.7760198346993548
 30
0.0
 11
2.87910530930003
 21
0.7530179612990651
 31
0.0
  0
LINE
  5
2D7C
330
2C53
100
AcDbEntity
  8
0
100
AcDbLine
 10
2.946043956900211
 20
0.6989463931993214
 30
0.0
 11
2.956030772200392
 21
0.6974014904994874
 31
0.0
  0
LINE
  5
2D7D
330
2C53
100
AcDbEntity
  8
0
100
AcDbLine
 10
2.87910530930003
 20
0.7530179612990651
 30
0.0
 11
2.88875473149983
 21
0.7350513235994641
 31
0.0
  0
LINE
  5
2D7E
330
2C53
100
AcDbEntity
  8
0
100
AcDbLine
 10
2.936327056300797
 20
0.7015212291994431
 30
0.0
 11
2.946043956900211
 21
0.6989463931993214
 31
0.0
  0
LINE
  5
2D7F
330
2C53
100
AcDbEntity
  8
0
100
AcDbLine
 10
2.88875473149983
 20
0.7350513235994641
 30
0.0
 11
2.900158593200103
 21
0.7221199215994148
 31
0.0
  0
LINE
  5
2D80
330
2C53
100
AcDbEntity
  8
0
100
AcDbLine
 10
2.926880070399874
 20
0.705126000699238
 30
0.0
 11
2.936327056300797
 21
0.7015212291994431
 31
0.0
  0
LINE
  5
2D81
330
2C53
100
AcDbEntity
  8
0
100
AcDbLine
 10
2.900158593200103
 20
0.7221199215994148
 30
0.0
 11
2.908795838299738
 21
0.7154253468993375
 31
0.0
  0
LINE
  5
2D82
330
2C53
100
AcDbEntity
  8
0
100
AcDbLine
 10
2.91770299700056
 20
0.7097607065995817
 30
0.0
 11
2.926880070399874
 21
0.705126000699238
 31
0.0
  0
LINE
  5
2D83
330
2C53
100
AcDbEntity
  8
0
100
AcDbLine
 10
2.908795838299738
 20
0.7154253468993375
 30
0.0
 11
2.91770299700056
 21
0.7097607065995817
 31
0.0
  0
LINE
  5
2D84
330
2C53
100
AcDbEntity
  8
0
100
AcDbLine
 10
2.706741210800373
 20
1.190339648299413
 30
0.0
 11
2.706741210800373
 21
0.6436160158991698
 31
0.0
  0
LINE
  5
2D85
330
2C53
100
AcDbEntity
  8
0
100
AcDbLine
 10
2.630692969300525
 20
1.190339648299413
 30
0.0
 11
2.706741210800373
 21
1.190339648299413
 31
0.0
  0
LINE
  5
2D86
330
2C53
100
AcDbEntity
  8
0
100
AcDbLine
 10
2.706741210800373
 20
0.6436160158991698
 30
0.0
 11
2.630692969300525
 21
0.6436160158991698
 31
0.0
  0
LINE
  5
2D87
330
2C53
100
AcDbEntity
  8
0
100
AcDbLine
 10
2.630692969300525
 20
0.9716501948992117
 30
0.0
 11
2.630692969300525
 21
1.190339648299413
 31
0.0
  0
LINE
  5
2D88
330
2C53
100
AcDbEntity
  8
0
100
AcDbLine
 10
2.630692969300525
 20
0.6436160158991698
 30
0.0
 11
2.630692969300525
 21
0.7809978516993397
 31
0.0
  0
LINE
  5
2D89
330
2C53
100
AcDbEntity
  8
0
100
AcDbLine
 10
2.44222558580077
 20
0.9716501948992117
 30
0.0
 11
2.630692969300525
 21
0.9716501948992117
 31
0.0
  0
LINE
  5
2D8A
330
2C53
100
AcDbEntity
  8
0
100
AcDbLine
 10
2.630692969300525
 20
0.7809978516993397
 30
0.0
 11
2.630692969300525
 21
0.9183796874990548
 31
0.0
  0
LINE
  5
2D8B
330
2C53
100
AcDbEntity
  8
0
100
AcDbLine
 10
2.44222558580077
 20
1.190339648299413
 30
0.0
 11
2.44222558580077
 21
0.9716501948992117
 31
0.0
  0
LINE
  5
2D8C
330
2C53
100
AcDbEntity
  8
0
100
AcDbLine
 10
2.630692969300525
 20
0.9183796874990548
 30
0.0
 11
2.44222558580077
 21
0.9183796874990548
 31
0.0
  0
LINE
  5
2D8D
330
2C53
100
AcDbEntity
  8
0
100
AcDbLine
 10
2.366177344300012
 20
1.190339648299413
 30
0.0
 11
2.44222558580077
 21
1.190339648299413
 31
0.0
  0
LINE
  5
2D8E
330
2C53
100
AcDbEntity
  8
0
100
AcDbLine
 10
2.44222558580077
 20
0.9183796874990548
 30
0.0
 11
2.44222558580077
 21
0.6436160158991698
 31
0.0
  0
LINE
  5
2D8F
330
2C53
100
AcDbEntity
  8
0
100
AcDbLine
 10
2.366177344300012
 20
0.6436160158991698
 30
0.0
 11
2.366177344300012
 21
1.190339648299413
 31
0.0
  0
LINE
  5
2D90
330
2C53
100
AcDbEntity
  8
0
100
AcDbLine
 10
2.44222558580077
 20
0.6436160158991698
 30
0.0
 11
2.366177344300012
 21
0.6436160158991698
 31
0.0
  0
LINE
  5
2D91
330
2C53
100
AcDbEntity
  8
0
100
AcDbLine
 10
2.070260155700452
 20
0.9856687499993768
 30
0.0
 11
2.090098828400186
 21
0.9715929761994175
 31
0.0
  0
LINE
  5
2D92
330
2C53
100
AcDbEntity
  8
0
100
AcDbLine
 10
2.057979073699698
 20
0.9953386915990449
 30
0.0
 11
2.070260155700452
 21
0.9856687499993768
 31
0.0
  0
LINE
  5
2D93
330
2C53
100
AcDbEntity
  8
0
100
AcDbLine
 10
2.090098828400186
 20
0.9715929761994175
 30
0.0
 11
2.109937499999887
 21
0.9582038267994903
 31
0.0
  0
LINE
  5
2D94
330
2C53
100
AcDbEntity
  8
0
100
AcDbLine
 10
2.047587388000465
 20
1.005123070599438
 30
0.0
 11
2.057979073699698
 21
0.9953386915990449
 31
0.0
  0
LINE
  5
2D95
330
2C53
100
AcDbEntity
  8
0
100
AcDbLine
 10
2.109937499999887
 20
0.9582038267994903
 30
0.0
 11
2.129776171600497
 21
0.9455012995997549
 31
0.0
  0
LINE
  5
2D96
330
2C53
100
AcDbEntity
  8
0
100
AcDbLine
 10
2.039085100800548
 20
1.01502188699942
 30
0.0
 11
2.047587388000465
 21
1.005123070599438
 31
0.0
  0
LINE
  5
2D97
330
2C53
100
AcDbEntity
  8
0
100
AcDbLine
 10
2.129776171600497
 20
0.9455012995997549
 30
0.0
 11
2.149614844300231
 21
0.9334853956993356
 31
0.0
  0
LINE
  5
2D98
330
2C53
100
AcDbEntity
  8
0
100
AcDbLine
 10
5.246999999999843
 20
0.0
 30
0.0
 11
5.246999999999843
 21
5.246999999999843
 31
0.0
  0
LINE
  5
2D99
330
2C53
100
AcDbEntity
  8
0
100
AcDbLine
 10
0.0
 20
5.246999999999843
 30
0.0
 11
0.0
 21
0.0
 31
0.0
  0
LINE
  5
2D9A
330
2C53
100
AcDbEntity
  8
0
100
AcDbLine
 10
5.098499999999603
 20
0.1484999999997854
 30
0.0
 11
5.098499999999603
 21
5.098499999999603
 31
0.0
  0
LINE
  5
2D9B
330
2C53
100
AcDbEntity
  8
0
100
AcDbLine
 10
0.1484999999997854
 20
5.098499999999603
 30
0.0
 11
0.1484999999997854
 21
0.1484999999997854
 31
0.0
  0
LINE
  5
2D9C
330
2C53
100
AcDbEntity
  8
0
100
AcDbLine
 10
3.415500000000065
 20
4.652999999998883
 30
0.0
 11
3.415500000000065
 21
2.276999999999588
 31
0.0
  0
ARC
  5
2D9D
330
2C53
100
AcDbEntity
  8
0
100
AcDbCircle
 10
2.425500000000283
 20
3.266999999998915
 30
0.0
 40
0.6929999999999989
100
AcDbArc
 50
179.9999999999996
 51
0.0
  0
LINE
  5
2D9E
330
2C53
100
AcDbEntity
  8
0
100
AcDbLine
 10
1.336499999999887
 20
4.652999999998883
 30
0.0
 11
1.336499999999887
 21
0.6434999999992215
 31
0.0
  0
ENDBLK
  5
2DA0
330
2C53
100
AcDbEntity
  8
0
100
AcDbBlockEnd
  0
BLOCK
  5
42F4
330
42F3
100
AcDbEntity
  8
0
100
AcDbBlockBegin
  2
～
 70
     0
 10
0.0
 20
0.0
 30
0.0
  3
～
  1

  4
仕上げ記号～
  0
ARC
  5
42F6
330
42F3
100
AcDbEntity
  8
002寸法
100
AcDbCircle
 10
-1.299038105676572
 20
0.0
 30
0.0
 40
1.5
100
AcDbArc
 50
30.00000000000125
 51
180.0
  0
ARC
  5
42F7
330
42F3
100
AcDbEntity
  8
002寸法
100
AcDbCircle
 10
1.299038105676743
 20
1.5
 30
0.0
 40
1.5
100
AcDbArc
 50
209.9999999999998
 51
0.0
  0
ENDBLK
  5
42F5
330
42F3
100
AcDbEntity
  8
0
100
AcDbBlockEnd
  0
BLOCK
  5
4302
330
4301
100
AcDbEntity
  8
0
100
AcDbBlockBegin
  2
▽
 70
     0
 10
0.0
 20
0.0
 30
0.0
  3
▽
  1

  4
仕上げ記号▽
  0
LWPOLYLINE
  5
4304
330
4301
100
AcDbEntity
  8
002寸法
100
AcDbPolyline
 90
        3
 70
     1
 43
0.0
 10
0.0
 20
0.0
 10
1.5
 20
2.598076211353259
 10
-1.5
 20
2.598076211353259
  0
ENDBLK
  5
4303
330
4301
100
AcDbEntity
  8
0
100
AcDbBlockEnd
  0
BLOCK
  5
4318
330
4317
100
AcDbEntity
  8
0
100
AcDbBlockBegin
  2
▽▽
 70
     0
 10
0.0
 20
0.0
 30
0.0
  3
▽▽
  1

  4
仕上げ記号▽×2
  0
LWPOLYLINE
  5
431A
330
4317
100
AcDbEntity
  8
002寸法
100
AcDbPolyline
 90
        3
 70
     1
 43
0.0
 10
-1.499999999999943
 20
0.0
 10
0.0000000000000568
 20
2.598076211353259
 10
-2.999999999999943
 20
2.598076211353259
  0
LWPOLYLINE
  5
431B
330
4317
100
AcDbEntity
  8
002寸法
100
AcDbPolyline
 90
        3
 70
     1
 43
0.0
 10
1.500000000000056
 20
0.0
 10
3.000000000000056
 20
2.598076211353259
 10
0.0000000000000568
 20
2.598076211353259
  0
ENDBLK
  5
4319
330
4317
100
AcDbEntity
  8
0
100
AcDbBlockEnd
  0
BLOCK
  5
4330
330
432F
100
AcDbEntity
  8
0
100
AcDbBlockBegin
  2
▽▽▽
 70
     0
 10
0.0
 20
0.0
 30
0.0
  3
▽▽▽
  1

  4
仕上げ記号▽×3
  0
LWPOLYLINE
  5
4332
330
432F
100
AcDbEntity
  8
002寸法
100
AcDbPolyline
 90
        3
 70
     1
 43
0.0
 10
-3.0
 20
0.0
 10
-1.5
 20
2.598076211353259
 10
-4.5
 20
2.598076211353259
  0
LWPOLYLINE
  5
4333
330
432F
100
AcDbEntity
  8
002寸法
100
AcDbPolyline
 90
        3
 70
     1
 43
0.0
 10
0.0
 20
0.0
 10
1.5
 20
2.598076211353259
 10
-1.5
 20
2.598076211353259
  0
LWPOLYLINE
  5
4334
330
432F
100
AcDbEntity
  8
002寸法
100
AcDbPolyline
 90
        3
 70
     1
 43
0.0
 10
3.0
 20
0.0
 10
4.5
 20
2.598076211353259
 10
1.5
 20
2.598076211353259
  0
ENDBLK
  5
4331
330
432F
100
AcDbEntity
  8
0
100
AcDbBlockEnd
  0
BLOCK
  5
4340
330
433F
100
AcDbEntity
  8
0
100
AcDbBlockBegin
  2
▽▽▽▽
 70
     0
 10
0.0
 20
0.0
 30
0.0
  3
▽▽▽▽
  1

  4
仕上げ記号▽×4
  0
LWPOLYLINE
  5
4342
330
433F
100
AcDbEntity
  8
002寸法
100
AcDbPolyline
 90
        3
 70
     1
 43
0.0
 10
-4.5
 20
0.0
 10
-3.0
 20
2.598076211353259
 10
-6.0
 20
2.598076211353259
  0
LWPOLYLINE
  5
4343
330
433F
100
AcDbEntity
  8
002寸法
100
AcDbPolyline
 90
        3
 70
     1
 43
0.0
 10
-1.5
 20
0.0
 10
0.0
 20
2.598076211353259
 10
-3.0
 20
2.598076211353259
  0
LWPOLYLINE
  5
4344
330
433F
100
AcDbEntity
  8
002寸法
100
AcDbPolyline
 90
        3
 70
     1
 43
0.0
 10
1.5
 20
0.0
 10
3.0
 20
2.598076211353259
 10
0.0
 20
2.598076211353259
  0
LWPOLYLINE
  5
4345
330
433F
100
AcDbEntity
  8
002寸法
100
AcDbPolyline
 90
        3
 70
     1
 43
0.0
 10
4.5
 20
0.0
 10
6.0
 20
2.598076211353259
 10
3.0
 20
2.598076211353259
  0
ENDBLK
  5
4341
330
433F
100
AcDbEntity
  8
0
100
AcDbBlockEnd
  0
BLOCK
  5
4352
330
4351
100
AcDbEntity
  8
0
100
AcDbBlockBegin
  2
▽▽▽G
 70
     0
 10
0.0
 20
0.0
 30
0.0
  3
▽▽▽G
  1

  4
仕上げ記号▽×3+研削
  0
LWPOLYLINE
  5
4354
330
4351
100
AcDbEntity
  8
002寸法
100
AcDbPolyline
 90
        3
 70
     1
 43
0.0
 10
-3.0
 20
0.0
 10
-1.5
 20
2.598076211353259
 10
-4.5
 20
2.598076211353259
  0
LWPOLYLINE
  5
4355
330
4351
100
AcDbEntity
  8
002寸法
100
AcDbPolyline
 90
        3
 70
     1
 43
0.0
 10
0.0
 20
0.0
 10
1.5
 20
2.598076211353259
 10
-1.5
 20
2.598076211353259
  0
LWPOLYLINE
  5
4356
330
4351
100
AcDbEntity
  8
002寸法
100
AcDbPolyline
 90
        3
 70
     1
 43
0.0
 10
3.0
 20
0.0
 10
4.5
 20
2.598076211353259
 10
1.5
 20
2.598076211353259
  0
LINE
  5
4357
330
4351
100
AcDbEntity
  8
002寸法
100
AcDbLine
 10
4.5
 20
2.598076211353259
 30
0.0
 11
7.0
 21
6.928203230275471
 31
0.0
  0
LINE
  5
4358
330
4351
100
AcDbEntity
  8
002寸法
100
AcDbLine
 10
7.0
 20
6.928203230275471
 30
0.0
 11
10.0
 21
6.928203230275471
 31
0.0
  0
MTEXT
  5
4359
330
4351
100
AcDbEntity
  8
002寸法
 62
     2
100
AcDbMText
 10
8.5
 20
7.928203230275471
 30
0.0
 40
3.0
 41
0.0
 46
0.0
 71
     8
 72
     5
  1
G
 73
     1
 44
1.0
  0
ENDBLK
  5
4353
330
4351
100
AcDbEntity
  8
0
100
AcDbBlockEnd
  0
BLOCK
  5
43E4
330
43E1
100
AcDbEntity
  8
0
100
AcDbBlockBegin
  2
_TagCircle
 70
     2
 10
0.0
 20
0.0
 30
0.0
  3
_TagCircle
  1

  0
CIRCLE
  5
4422
330
43E1
100
AcDbEntity
  8
0
  6
ByBlock
440
 16777216
370
    -2
100
AcDbCircle
 10
0.0
 20
0.0
 30
0.0
 40
4.0
  0
ATTDEF
  5
4423
330
43E1
100
AcDbEntity
  8
002寸法
 62
     2
440
 16777216
100
AcDbText
 10
-6.799999999999999
 20
-1.5
 30
0.0
 40
3.0
  1
タグ番号
 72
     1
 11
0.0
 21
-1.5
 31
0.0
100
AcDbAttributeDefinition
280
     0
  3
タグ番号を入力
  2
タグ番号
 70
     0
280
     0
  0
ENDBLK
  5
43E5
330
43E1
100
AcDbEntity
  8
0
100
AcDbBlockEnd
  0
BLOCK
  5
4474
330
4473
100
AcDbEntity
  8
0
100
AcDbBlockBegin
  2
訂正記号
 70
     2
 10
0.0
 20
0.0
 30
0.0
  3
訂正記号
  1

  4
訂正記号△
  0
LWPOLYLINE
  5
45CE
330
4473
100
AcDbEntity
  8
002寸法
100
AcDbPolyline
 90
        3
 70
     1
 43
0.0
 10
0.0
 20
4.330127018922212
 10
-2.5
 20
0.0
 10
2.5
 20
0.0
  0
ATTDEF
  5
45CF
330
4473
100
AcDbEntity
  8
002寸法
 62
     2
100
AcDbText
 10
-3.4
 20
0.4433756729740637
 30
0.0
 40
2.0
  1
1
 41
0.75
 72
     1
 11
0.0
 21
1.443375672974063
 31
0.0
100
AcDbAttributeDefinition
280
     0
  3

  2
訂正番号
 70
     0
 74
     2
280
     1
  0
ENDBLK
  5
4475
330
4473
100
AcDbEntity
  8
0
100
AcDbBlockEnd
  0
BLOCK
  5
4FCF
330
4FC9
100
AcDbEntity
  8
0
100
AcDbBlockBegin
  2
A$C4741278F
 70
     0
 10
0.0
 20
0.0
 30
0.0
  3
A$C4741278F
  1

  0
LWPOLYLINE
  5
4FCA
330
4FC9
100
AcDbEntity
  8
003注釈
100
AcDbPolyline
 90
        7
 70
     1
 43
0.0
 10
4.99999756545003
 20
1.250001047003934
 10
2.499997565450037
 20
1.250001047003934
 10
2.499997565450037
 20
0.0000010470039342
 10
-0.0000024345499625
 20
2.500001047003934
 10
2.499997565450037
 20
5.000001047003934
 10
2.499997565450037
 20
3.750001047003934
 10
4.99999756545003
 20
3.750001047003962
  0
LINE
  5
4FCB
330
4FC9
100
AcDbEntity
  8
0
100
AcDbLine
 10
-0.0000024345499625
 20
2.500001047003934
 30
0.0
 11
4.99999756545003
 21
2.500001047003934
 31
0.0
  0
LINE
  5
4FCC
330
4FC9
100
AcDbEntity
  8
0
100
AcDbLine
 10
2.499997565450037
 20
3.750001047003934
 30
0.0
 11
2.499997565450037
 21
1.250001047003934
 31
0.0
  0
ENDBLK
  5
4FD0
330
4FC9
100
AcDbEntity
  8
0
100
AcDbBlockEnd
  0
BLOCK
  5
6B08
330
68EC
100
AcDbEntity
  8
0
100
AcDbBlockBegin
  2
A$C2A300554
 70
     0
 10
0.0
 20
0.0
 30
0.0
  3
A$C2A300554
  1

  0
CIRCLE
  5
68ED
330
68EC
100
AcDbEntity
  8
0
100
AcDbCircle
 10
0.0
 20
0.0
 30
0.0
 40
15.5
  0
CIRCLE
  5
68EE
330
68EC
100
AcDbEntity
  8
0
100
AcDbCircle
 10
0.0
 20
0.0
 30
0.0
 40
23.0
  0
CIRCLE
  5
68EF
330
68EC
100
AcDbEntity
  8
0
100
AcDbCircle
 10
0.0
 20
0.0
 30
0.0
 40
26.4
  0
LINE
  5
68F0
330
68EC
100
AcDbEntity
  8
0
100
AcDbLine
 10
-1.444181948999997
 20
22.95461475400001
 30
0.0
 11
-1.31860091
 21
20.95856129700002
 31
0.0
  0
LINE
  5
68F1
330
68EC
100
AcDbEntity
  8
0
100
AcDbLine
 10
-2.882664372000007
 20
22.81863813000001
 30
0.0
 11
-2.631997905000005
 21
20.834408728
 31
0.0
  0
LINE
  5
68F2
330
68EC
100
AcDbEntity
  8
0
100
AcDbLine
 10
-4.309770235000002
 20
22.59260676700001
 30
0.0
 11
-3.935007605999999
 21
20.628032265
 31
0.0
  0
LINE
  5
68F3
330
68EC
100
AcDbEntity
  8
0
100
AcDbLine
 10
-5.719867405000002
 20
22.27741270599998
 30
0.0
 11
-5.222487630000003
 21
20.34024638400001
 31
0.0
  0
LINE
  5
68F4
330
68EC
100
AcDbEntity
  8
0
100
AcDbLine
 10
-7.107390871000006
 20
21.87429987499999
 30
0.0
 11
-6.180339887000002
 21
19.02113032599999
 31
0.0
  0
LINE
  5
68F5
330
68EC
100
AcDbEntity
  8
0
100
AcDbLine
 10
-8.466864712000003
 20
21.384859175
 30
0.0
 11
-7.730615606
 21
19.525306204
 31
0.0
  0
LINE
  5
68F6
330
68EC
100
AcDbEntity
  8
0
100
AcDbLine
 10
-9.79292370600001
 20
20.81102220700001
 30
0.0
 11
-8.941365122999997
 21
19.00136810200001
 31
0.0
  0
LINE
  5
68F7
330
68EC
100
AcDbEntity
  8
0
100
AcDbLine
 10
-11.08033450399999
 20
20.155053641
 30
0.0
 11
-10.116827156
 21
18.402440281
 31
0.0
  0
LINE
  5
68F8
330
68EC
100
AcDbEntity
  8
0
100
AcDbLine
 10
-12.324016285
 20
19.41954228700001
 30
0.0
 11
-11.252362695
 21
17.73088643599999
 31
0.0
  0
LINE
  5
68F9
330
68EC
100
AcDbEntity
  8
0
100
AcDbLine
 10
-13.51906080299999
 20
18.60739087099998
 30
0.0
 11
-11.755705046
 21
16.180339887
 31
0.0
  0
LINE
  5
68FA
330
68EC
100
AcDbEntity
  8
0
100
AcDbLine
 10
-14.66075176399999
 20
17.72180458400001
 30
0.0
 11
-13.38590378499999
 21
16.18077809799999
 31
0.0
  0
LINE
  5
68FB
330
68EC
100
AcDbEntity
  8
0
100
AcDbLine
 10
-15.744583436
 20
16.76627843099999
 30
0.0
 11
-14.37548922499999
 21
15.30834117599997
 31
0.0
  0
LINE
  5
68FC
330
68EC
100
AcDbEntity
  8
0
100
AcDbLine
 10
-16.766278431
 20
15.74458343599997
 30
0.0
 11
-15.308341176
 21
14.37548922499999
 31
0.0
  0
LINE
  5
68FD
330
68EC
100
AcDbEntity
  8
0
100
AcDbLine
 10
-17.721804584
 20
14.66075176400002
 30
0.0
 11
-16.18077809799999
 21
13.38590378500001
 31
0.0
  0
LINE
  5
68FE
330
68EC
100
AcDbEntity
  8
0
100
AcDbLine
 10
-18.607390871
 20
13.519060803
 30
0.0
 11
-16.180339887
 21
11.755705046
 31
0.0
  0
LINE
  5
68FF
330
68EC
100
AcDbEntity
  8
0
100
AcDbLine
 10
-19.419542287
 20
12.324016285
 30
0.0
 11
-17.730886436
 21
11.25236269499999
 31
0.0
  0
LINE
  5
6900
330
68EC
100
AcDbEntity
  8
0
100
AcDbLine
 10
-20.15505364100001
 20
11.080334504
 30
0.0
 11
-18.402440281
 21
10.116827156
 31
0.0
  0
LINE
  5
6901
330
68EC
100
AcDbEntity
  8
0
100
AcDbLine
 10
-20.811022207
 20
9.79292370600001
 30
0.0
 11
-19.001368102
 21
8.941365122999997
 31
0.0
  0
LINE
  5
6902
330
68EC
100
AcDbEntity
  8
0
100
AcDbLine
 10
-21.384859175
 20
8.466864712000017
 30
0.0
 11
-19.525306204
 21
7.730615606000014
 31
0.0
  0
LINE
  5
6903
330
68EC
100
AcDbEntity
  8
0
100
AcDbLine
 10
-21.87429987500001
 20
7.107390871000006
 30
0.0
 11
-19.021130326
 21
6.180339887000002
 31
0.0
  0
LINE
  5
6904
330
68EC
100
AcDbEntity
  8
0
100
AcDbLine
 10
-22.27741270600001
 20
5.719867405000002
 30
0.0
 11
-20.340246384
 21
5.222487629999989
 31
0.0
  0
LINE
  5
6905
330
68EC
100
AcDbEntity
  8
0
100
AcDbLine
 10
-22.59260676699999
 20
4.309770235000002
 30
0.0
 11
-20.628032265
 21
3.935007605999999
 31
0.0
  0
LINE
  5
6906
330
68EC
100
AcDbEntity
  8
0
100
AcDbLine
 10
-22.81863813
 20
2.882664371999993
 30
0.0
 11
-20.834408728
 21
2.631997904999991
 31
0.0
  0
LINE
  5
6907
330
68EC
100
AcDbEntity
  8
0
100
AcDbLine
 10
-22.95461475399999
 20
1.444181948999982
 30
0.0
 11
-20.958561297
 21
1.318600909999986
 31
0.0
  0
LINE
  5
6908
330
68EC
100
AcDbEntity
  8
0
100
AcDbLine
 10
-22.95461475399999
 20
-1.444181948999982
 30
0.0
 11
-20.958561297
 21
-1.318600909999986
 31
0.0
  0
LINE
  5
6909
330
68EC
100
AcDbEntity
  8
0
100
AcDbLine
 10
-22.81863813
 20
-2.882664371999993
 30
0.0
 11
-20.834408728
 21
-2.631997904999991
 31
0.0
  0
LINE
  5
690A
330
68EC
100
AcDbEntity
  8
0
100
AcDbLine
 10
-22.59260676699999
 20
-4.309770235000002
 30
0.0
 11
-20.628032265
 21
-3.935007605999999
 31
0.0
  0
LINE
  5
690B
330
68EC
100
AcDbEntity
  8
0
100
AcDbLine
 10
-22.27741270600001
 20
-5.719867405000002
 30
0.0
 11
-20.340246384
 21
-5.222487629999989
 31
0.0
  0
LINE
  5
690C
330
68EC
100
AcDbEntity
  8
0
100
AcDbLine
 10
-21.87429987500001
 20
-7.107390871000006
 30
0.0
 11
-19.021130326
 21
-6.180339887000002
 31
0.0
  0
LINE
  5
690D
330
68EC
100
AcDbEntity
  8
0
100
AcDbLine
 10
-21.384859175
 20
-8.466864712000017
 30
0.0
 11
-19.525306204
 21
-7.730615606000014
 31
0.0
  0
LINE
  5
690E
330
68EC
100
AcDbEntity
  8
0
100
AcDbLine
 10
-20.811022207
 20
-9.79292370600001
 30
0.0
 11
-19.001368102
 21
-8.941365122999997
 31
0.0
  0
LINE
  5
690F
330
68EC
100
AcDbEntity
  8
0
100
AcDbLine
 10
-20.15505364100001
 20
-11.080334504
 30
0.0
 11
-18.402440281
 21
-10.116827156
 31
0.0
  0
LINE
  5
6910
330
68EC
100
AcDbEntity
  8
0
100
AcDbLine
 10
-19.419542287
 20
-12.324016285
 30
0.0
 11
-17.730886436
 21
-11.25236269499999
 31
0.0
  0
LINE
  5
6911
330
68EC
100
AcDbEntity
  8
0
100
AcDbLine
 10
-18.607390871
 20
-13.519060803
 30
0.0
 11
-16.180339887
 21
-11.755705046
 31
0.0
  0
LINE
  5
6912
330
68EC
100
AcDbEntity
  8
0
100
AcDbLine
 10
-17.721804584
 20
-14.66075176399999
 30
0.0
 11
-16.18077809799999
 21
-13.38590378500001
 31
0.0
  0
LINE
  5
6913
330
68EC
100
AcDbEntity
  8
0
100
AcDbLine
 10
-16.766278431
 20
-15.744583436
 30
0.0
 11
-15.308341176
 21
-14.37548922499999
 31
0.0
  0
LINE
  5
6914
330
68EC
100
AcDbEntity
  8
0
100
AcDbLine
 10
-15.744583436
 20
-16.76627843100002
 30
0.0
 11
-14.37548922499999
 21
-15.308341176
 31
0.0
  0
LINE
  5
6915
330
68EC
100
AcDbEntity
  8
0
100
AcDbLine
 10
-14.66075176399999
 20
-17.72180458399998
 30
0.0
 11
-13.38590378499999
 21
-16.18077809799999
 31
0.0
  0
LINE
  5
6916
330
68EC
100
AcDbEntity
  8
0
100
AcDbLine
 10
-13.51906080299999
 20
-18.607390871
 30
0.0
 11
-11.755705046
 21
-16.180339887
 31
0.0
  0
LINE
  5
6917
330
68EC
100
AcDbEntity
  8
0
100
AcDbLine
 10
-12.324016285
 20
-19.41954228700001
 30
0.0
 11
-11.252362695
 21
-17.73088643599999
 31
0.0
  0
LINE
  5
6918
330
68EC
100
AcDbEntity
  8
0
100
AcDbLine
 10
-11.08033450399999
 20
-20.155053641
 30
0.0
 11
-10.116827156
 21
-18.402440281
 31
0.0
  0
LINE
  5
6919
330
68EC
100
AcDbEntity
  8
0
100
AcDbLine
 10
-9.79292370600001
 20
-20.81102220700001
 30
0.0
 11
-8.941365122999997
 21
-19.00136810200001
 31
0.0
  0
LINE
  5
691A
330
68EC
100
AcDbEntity
  8
0
100
AcDbLine
 10
-8.466864712000003
 20
-21.384859175
 30
0.0
 11
-7.730615606
 21
-19.525306204
 31
0.0
  0
LINE
  5
691B
330
68EC
100
AcDbEntity
  8
0
100
AcDbLine
 10
-7.107390871000006
 20
-21.87429987499999
 30
0.0
 11
-6.180339887000002
 21
-19.02113032599999
 31
0.0
  0
LINE
  5
691C
330
68EC
100
AcDbEntity
  8
0
100
AcDbLine
 10
-5.719867405000002
 20
-22.27741270600001
 30
0.0
 11
-5.222487630000003
 21
-20.34024638399998
 31
0.0
  0
LINE
  5
691D
330
68EC
100
AcDbEntity
  8
0
100
AcDbLine
 10
-4.309770235000002
 20
-22.59260676700001
 30
0.0
 11
-3.935007605999999
 21
-20.628032265
 31
0.0
  0
LINE
  5
691E
330
68EC
100
AcDbEntity
  8
0
100
AcDbLine
 10
-2.882664372000007
 20
-22.81863813000001
 30
0.0
 11
-2.631997905000005
 21
-20.834408728
 31
0.0
  0
LINE
  5
691F
330
68EC
100
AcDbEntity
  8
0
100
AcDbLine
 10
-1.444181948999997
 20
-22.95461475400001
 30
0.0
 11
-1.31860091
 21
-20.95856129700002
 31
0.0
  0
LINE
  5
6920
330
68EC
100
AcDbEntity
  8
0
100
AcDbLine
 10
1.444181948999997
 20
-22.95461475400001
 30
0.0
 11
1.31860091
 21
-20.95856129700002
 31
0.0
  0
LINE
  5
6921
330
68EC
100
AcDbEntity
  8
0
100
AcDbLine
 10
2.882664372000007
 20
-22.81863813000001
 30
0.0
 11
2.631997905000005
 21
-20.834408728
 31
0.0
  0
LINE
  5
6922
330
68EC
100
AcDbEntity
  8
0
100
AcDbLine
 10
4.309770235000002
 20
-22.59260676700001
 30
0.0
 11
3.935007605999999
 21
-20.628032265
 31
0.0
  0
LINE
  5
6923
330
68EC
100
AcDbEntity
  8
0
100
AcDbLine
 10
5.719867405000002
 20
-22.27741270600001
 30
0.0
 11
5.222487630000003
 21
-20.34024638399998
 31
0.0
  0
LINE
  5
6924
330
68EC
100
AcDbEntity
  8
0
100
AcDbLine
 10
7.107390871000006
 20
-21.87429987499999
 30
0.0
 11
6.180339887000002
 21
-19.02113032599999
 31
0.0
  0
LINE
  5
6925
330
68EC
100
AcDbEntity
  8
0
100
AcDbLine
 10
8.466864712000003
 20
-21.384859175
 30
0.0
 11
7.730615606
 21
-19.525306204
 31
0.0
  0
LINE
  5
6926
330
68EC
100
AcDbEntity
  8
0
100
AcDbLine
 10
9.79292370600001
 20
-20.81102220700001
 30
0.0
 11
8.941365122999997
 21
-19.00136810200001
 31
0.0
  0
LINE
  5
6927
330
68EC
100
AcDbEntity
  8
0
100
AcDbLine
 10
11.08033450399999
 20
-20.155053641
 30
0.0
 11
10.116827156
 21
-18.402440281
 31
0.0
  0
LINE
  5
6928
330
68EC
100
AcDbEntity
  8
0
100
AcDbLine
 10
12.324016285
 20
-19.41954228700001
 30
0.0
 11
11.252362695
 21
-17.73088643599999
 31
0.0
  0
LINE
  5
6929
330
68EC
100
AcDbEntity
  8
0
100
AcDbLine
 10
13.51906080299999
 20
-18.607390871
 30
0.0
 11
11.755705046
 21
-16.180339887
 31
0.0
  0
LINE
  5
692A
330
68EC
100
AcDbEntity
  8
0
100
AcDbLine
 10
14.66075176399999
 20
-17.72180458399998
 30
0.0
 11
13.38590378499999
 21
-16.18077809799999
 31
0.0
  0
LINE
  5
692B
330
68EC
100
AcDbEntity
  8
0
100
AcDbLine
 10
15.744583436
 20
-16.76627843100002
 30
0.0
 11
14.37548922499999
 21
-15.308341176
 31
0.0
  0
LINE
  5
692C
330
68EC
100
AcDbEntity
  8
0
100
AcDbLine
 10
16.766278431
 20
-15.744583436
 30
0.0
 11
15.308341176
 21
-14.37548922499999
 31
0.0
  0
LINE
  5
692D
330
68EC
100
AcDbEntity
  8
0
100
AcDbLine
 10
17.721804584
 20
-14.66075176399999
 30
0.0
 11
16.18077809799999
 21
-13.38590378500001
 31
0.0
  0
LINE
  5
692E
330
68EC
100
AcDbEntity
  8
0
100
AcDbLine
 10
18.607390871
 20
-13.519060803
 30
0.0
 11
16.180339887
 21
-11.755705046
 31
0.0
  0
LINE
  5
692F
330
68EC
100
AcDbEntity
  8
0
100
AcDbLine
 10
19.41954228700001
 20
-12.324016285
 30
0.0
 11
17.730886436
 21
-11.25236269499999
 31
0.0
  0
LINE
  5
6930
330
68EC
100
AcDbEntity
  8
0
100
AcDbLine
 10
20.15505364100001
 20
-11.080334504
 30
0.0
 11
18.402440281
 21
-10.116827156
 31
0.0
  0
LINE
  5
6931
330
68EC
100
AcDbEntity
  8
0
100
AcDbLine
 10
20.81102220700001
 20
-9.79292370600001
 30
0.0
 11
19.001368102
 21
-8.941365122999997
 31
0.0
  0
LINE
  5
6932
330
68EC
100
AcDbEntity
  8
0
100
AcDbLine
 10
21.384859175
 20
-8.466864712000017
 30
0.0
 11
19.525306204
 21
-7.730615606000014
 31
0.0
  0
LINE
  5
6933
330
68EC
100
AcDbEntity
  8
0
100
AcDbLine
 10
21.87429987500001
 20
-7.107390871000006
 30
0.0
 11
19.021130326
 21
-6.180339887000002
 31
0.0
  0
LINE
  5
6934
330
68EC
100
AcDbEntity
  8
0
100
AcDbLine
 10
22.27741270600001
 20
-5.719867405000002
 30
0.0
 11
20.340246384
 21
-5.222487629999989
 31
0.0
  0
LINE
  5
6935
330
68EC
100
AcDbEntity
  8
0
100
AcDbLine
 10
22.59260676700001
 20
-4.309770235000002
 30
0.0
 11
20.628032265
 21
-3.935007605999999
 31
0.0
  0
LINE
  5
6936
330
68EC
100
AcDbEntity
  8
0
100
AcDbLine
 10
22.81863813
 20
-2.882664371999993
 30
0.0
 11
20.83440872799998
 21
-2.631997904999991
 31
0.0
  0
LINE
  5
6937
330
68EC
100
AcDbEntity
  8
0
100
AcDbLine
 10
22.95461475399999
 20
-1.444181948999982
 30
0.0
 11
20.958561297
 21
-1.318600909999986
 31
0.0
  0
LINE
  5
6938
330
68EC
100
AcDbEntity
  8
0
100
AcDbLine
 10
22.95461475399999
 20
1.444181948999982
 30
0.0
 11
20.958561297
 21
1.318600909999986
 31
0.0
  0
LINE
  5
6939
330
68EC
100
AcDbEntity
  8
0
100
AcDbLine
 10
22.81863813
 20
2.882664371999993
 30
0.0
 11
20.83440872799998
 21
2.631997904999991
 31
0.0
  0
LINE
  5
693A
330
68EC
100
AcDbEntity
  8
0
100
AcDbLine
 10
22.59260676700001
 20
4.309770235000002
 30
0.0
 11
20.628032265
 21
3.935007605999999
 31
0.0
  0
LINE
  5
693B
330
68EC
100
AcDbEntity
  8
0
100
AcDbLine
 10
22.27741270600001
 20
5.719867405000002
 30
0.0
 11
20.340246384
 21
5.222487629999989
 31
0.0
  0
LINE
  5
693C
330
68EC
100
AcDbEntity
  8
0
100
AcDbLine
 10
21.87429987500001
 20
7.107390871000006
 30
0.0
 11
19.021130326
 21
6.180339887000002
 31
0.0
  0
LINE
  5
693D
330
68EC
100
AcDbEntity
  8
0
100
AcDbLine
 10
21.384859175
 20
8.466864712000017
 30
0.0
 11
19.525306204
 21
7.730615606000014
 31
0.0
  0
LINE
  5
693E
330
68EC
100
AcDbEntity
  8
0
100
AcDbLine
 10
20.81102220700001
 20
9.79292370600001
 30
0.0
 11
19.001368102
 21
8.941365122999997
 31
0.0
  0
LINE
  5
693F
330
68EC
100
AcDbEntity
  8
0
100
AcDbLine
 10
20.15505364100001
 20
11.080334504
 30
0.0
 11
18.402440281
 21
10.116827156
 31
0.0
  0
LINE
  5
6940
330
68EC
100
AcDbEntity
  8
0
100
AcDbLine
 10
19.41954228700001
 20
12.324016285
 30
0.0
 11
17.730886436
 21
11.25236269499999
 31
0.0
  0
LINE
  5
6941
330
68EC
100
AcDbEntity
  8
0
100
AcDbLine
 10
18.607390871
 20
13.519060803
 30
0.0
 11
16.180339887
 21
11.755705046
 31
0.0
  0
LINE
  5
6942
330
68EC
100
AcDbEntity
  8
0
100
AcDbLine
 10
17.721804584
 20
14.66075176400002
 30
0.0
 11
16.18077809799999
 21
13.38590378500001
 31
0.0
  0
LINE
  5
6943
330
68EC
100
AcDbEntity
  8
0
100
AcDbLine
 10
16.766278431
 20
15.74458343599997
 30
0.0
 11
15.308341176
 21
14.37548922499999
 31
0.0
  0
LINE
  5
6944
330
68EC
100
AcDbEntity
  8
0
100
AcDbLine
 10
15.744583436
 20
16.76627843099999
 30
0.0
 11
14.37548922499999
 21
15.30834117599997
 31
0.0
  0
LINE
  5
6945
330
68EC
100
AcDbEntity
  8
0
100
AcDbLine
 10
14.66075176399999
 20
17.72180458400001
 30
0.0
 11
13.38590378499999
 21
16.18077809799999
 31
0.0
  0
LINE
  5
6946
330
68EC
100
AcDbEntity
  8
0
100
AcDbLine
 10
13.51906080299999
 20
18.60739087099998
 30
0.0
 11
11.755705046
 21
16.180339887
 31
0.0
  0
LINE
  5
6947
330
68EC
100
AcDbEntity
  8
0
100
AcDbLine
 10
12.324016285
 20
19.41954228700001
 30
0.0
 11
11.252362695
 21
17.73088643599999
 31
0.0
  0
LINE
  5
6948
330
68EC
100
AcDbEntity
  8
0
100
AcDbLine
 10
11.08033450399999
 20
20.155053641
 30
0.0
 11
10.116827156
 21
18.402440281
 31
0.0
  0
LINE
  5
6949
330
68EC
100
AcDbEntity
  8
0
100
AcDbLine
 10
9.79292370600001
 20
20.81102220700001
 30
0.0
 11
8.941365122999997
 21
19.00136810200001
 31
0.0
  0
LINE
  5
694A
330
68EC
100
AcDbEntity
  8
0
100
AcDbLine
 10
8.466864712000003
 20
21.384859175
 30
0.0
 11
7.730615606
 21
19.525306204
 31
0.0
  0
LINE
  5
694B
330
68EC
100
AcDbEntity
  8
0
100
AcDbLine
 10
7.107390871000006
 20
21.87429987499999
 30
0.0
 11
6.180339887000002
 21
19.02113032599999
 31
0.0
  0
LINE
  5
694C
330
68EC
100
AcDbEntity
  8
0
100
AcDbLine
 10
5.719867405000002
 20
22.27741270599998
 30
0.0
 11
5.222487630000003
 21
20.34024638400001
 31
0.0
  0
LINE
  5
694D
330
68EC
100
AcDbEntity
  8
0
100
AcDbLine
 10
4.309770235000002
 20
22.59260676700001
 30
0.0
 11
3.935007605999999
 21
20.628032265
 31
0.0
  0
LINE
  5
694E
330
68EC
100
AcDbEntity
  8
0
100
AcDbLine
 10
2.882664372000007
 20
22.81863813000001
 30
0.0
 11
2.631997905000005
 21
20.834408728
 31
0.0
  0
LINE
  5
694F
330
68EC
100
AcDbEntity
  8
0
100
AcDbLine
 10
1.444181948999997
 20
22.95461475400001
 30
0.0
 11
1.31860091
 21
20.95856129700002
 31
0.0
  0
LINE
  5
6950
330
68EC
100
AcDbEntity
  8
0
100
AcDbLine
 10
20.0
 20
0.0
 30
0.0
 11
23.0
 21
0.0
 31
0.0
  0
LINE
  5
6951
330
68EC
100
AcDbEntity
  8
0
100
AcDbLine
 10
0.0
 20
-20.0
 30
0.0
 11
0.0
 21
-23.0
 31
0.0
  0
LINE
  5
6952
330
68EC
100
AcDbEntity
  8
0
100
AcDbLine
 10
-23.0
 20
0.0
 30
0.0
 11
-20.0
 21
0.0
 31
0.0
  0
LINE
  5
6953
330
68EC
100
AcDbEntity
  8
0
100
AcDbLine
 10
0.0
 20
23.0
 30
0.0
 11
0.0
 21
20.0
 31
0.0
  0
TEXT
  5
6954
330
68EC
100
AcDbEntity
  8
0
100
AcDbText
 10
-1.180520569999998
 20
17.13482148400001
 30
0.0
 40
2.5
  1
０
  7
KANJI0
100
AcDbText
  0
TEXT
  5
6955
330
68EC
100
AcDbEntity
  8
0
100
AcDbText
 10
8.493923113999997
 20
13.32364907299998
 30
0.0
 40
2.5
  1
１０
  7
KANJI0
100
AcDbText
  0
TEXT
  5
6956
330
68EC
100
AcDbEntity
  8
0
100
AcDbText
 10
14.50282259799999
 20
4.906714060000012
 30
0.0
 40
2.5
  1
２０
  7
KANJI0
100
AcDbText
  0
TEXT
  5
6957
330
68EC
100
AcDbEntity
  8
0
100
AcDbText
 10
14.338781697
 20
-7.119029142000016
 30
0.0
 40
2.5
  1
３０
  7
KANJI0
100
AcDbText
  0
TEXT
  5
6958
330
68EC
100
AcDbEntity
  8
0
100
AcDbText
 10
8.839510527999991
 20
-15.565569229
 30
0.0
 40
2.5
  1
４０
  7
KANJI0
100
AcDbText
  0
TEXT
  5
6959
330
68EC
100
AcDbEntity
  8
0
100
AcDbText
 10
-2.360548496000006
 20
-19.76700676199999
 30
0.0
 40
2.5
  1
５０
  7
KANJI0
100
AcDbText
  0
TEXT
  5
695A
330
68EC
100
AcDbEntity
  8
0
100
AcDbText
 10
-13.46687837599999
 20
-15.791964527
 30
0.0
 40
2.5
  1
６０
  7
KANJI0
100
AcDbText
  0
TEXT
  5
695B
330
68EC
100
AcDbEntity
  8
0
100
AcDbText
 10
-19.38567366399999
 20
-7.225143886000012
 30
0.0
 40
2.5
  1
７０
  7
KANJI0
100
AcDbText
  0
TEXT
  5
695C
330
68EC
100
AcDbEntity
  8
0
100
AcDbText
 10
-19.27999130899999
 20
5.067025572000005
 30
0.0
 40
2.5
  1
８０
  7
KANJI0
100
AcDbText
  0
TEXT
  5
695D
330
68EC
100
AcDbEntity
  8
0
100
AcDbText
 10
-12.57393826100001
 20
13.87467465700001
 30
0.0
 40
2.5
  1
９０
  7
KANJI0
100
AcDbText
  0
LINE
  5
695E
330
68EC
100
AcDbEntity
  8
0
100
AcDbLine
 10
3.400000000000005
 20
-45.0
 30
0.0
 11
-3.400000000000005
 21
-45.0
 31
0.0
  0
LINE
  5
695F
330
68EC
100
AcDbEntity
  8
0
100
AcDbLine
 10
2.25
 20
-56.0
 30
0.0
 11
-2.25
 21
-56.0
 31
0.0
  0
LINE
  5
6960
330
68EC
100
AcDbEntity
  8
0
100
AcDbLine
 10
-4.0
 20
-26.09521028800001
 30
0.0
 11
-4.0
 21
-40.49999999999999
 31
0.0
  0
LINE
  5
6961
330
68EC
100
AcDbEntity
  8
0
100
AcDbLine
 10
4.0
 20
-26.09521028800001
 30
0.0
 11
4.0
 21
-40.49999999999999
 31
0.0
  0
LINE
  5
6962
330
68EC
100
AcDbEntity
  8
0
100
AcDbLine
 10
-2.0
 20
-45.0
 30
0.0
 11
-2.0
 21
-56.0
 31
0.0
  0
LINE
  5
6963
330
68EC
100
AcDbEntity
  8
0
100
AcDbLine
 10
2.0
 20
-45.0
 30
0.0
 11
2.0
 21
-56.0
 31
0.0
  0
ARC
  5
6964
330
68EC
100
AcDbEntity
  8
0
100
AcDbCircle
 10
0.0
 20
34.155
 30
0.0
 40
7.344999999999999
100
AcDbArc
 50
59.75198538300002
 51
120.2480146169999
  0
TEXT
  5
6965
330
68EC
100
AcDbEntity
  8
0
100
AcDbText
 10
-0.5057763089999981
 20
15.77737551699999
 30
0.0
 40
1.0
  1
０
  7
KANJI1
100
AcDbText
  0
TEXT
  5
6966
330
68EC
100
AcDbEntity
  8
0
100
AcDbText
 10
9.920580865000005
 20
12.148407905
 30
0.0
 40
1.0
  1
９０
  7
KANJI1
100
AcDbText
  0
TEXT
  5
6967
330
68EC
100
AcDbEntity
  8
0
100
AcDbText
 10
15.30985903
 20
3.401542315
 30
0.0
 40
1.0
  1
８０
  7
KANJI1
100
AcDbText
  0
TEXT
  5
6968
330
68EC
100
AcDbEntity
  8
0
100
AcDbText
 10
15.48508487299999
 20
-3.925384782000008
 30
0.0
 40
1.0
  1
７０
  7
KANJI1
100
AcDbText
  0
TEXT
  5
6969
330
68EC
100
AcDbEntity
  8
0
100
AcDbText
 10
10.54195225499999
 20
-12.44472190600001
 30
0.0
 40
1.0
  1
６０
  7
KANJI1
100
AcDbText
  0
TEXT
  5
696A
330
68EC
100
AcDbEntity
  8
0
100
AcDbText
 10
-0.9163128170000049
 20
-16.899900419
 30
0.0
 40
1.0
  1
５０
  7
KANJI1
100
AcDbText
  0
TEXT
  5
696B
330
68EC
100
AcDbEntity
  8
0
100
AcDbText
 10
-12.45157817100001
 20
-12.60714796799999
 30
0.0
 40
1.0
  1
４０
  7
KANJI1
100
AcDbText
  0
TEXT
  5
696C
330
68EC
100
AcDbEntity
  8
0
100
AcDbText
 10
-17.26941116200001
 20
-4.173227800999995
 30
0.0
 40
1.0
  1
３０
  7
KANJI1
100
AcDbText
  0
TEXT
  5
696D
330
68EC
100
AcDbEntity
  8
0
100
AcDbText
 10
-16.95851521899999
 20
3.896377962999991
 30
0.0
 40
1.0
  1
２０
  7
KANJI1
100
AcDbText
  0
TEXT
  5
696E
330
68EC
100
AcDbEntity
  8
0
100
AcDbText
 10
-10.69063993999999
 20
12.73915973200002
 30
0.0
 40
1.0
  1
１０
  7
KANJI1
100
AcDbText
  0
LINE
  5
696F
330
68EC
100
AcDbEntity
  8
0
100
AcDbLine
 10
4.0
 20
-40.49999999999999
 30
0.0
 11
-4.0
 21
-40.49999999999999
 31
0.0
  0
LINE
  5
6970
330
68EC
100
AcDbEntity
  8
0
100
AcDbLine
 10
3.599999999999994
 20
-43.0
 30
0.0
 11
-3.599999999999994
 21
-43.0
 31
0.0
  0
LINE
  5
6971
330
68EC
100
AcDbEntity
  8
0
100
AcDbLine
 10
3.849999999999994
 20
-42.0
 30
0.0
 11
-3.849999999999994
 21
-42.0
 31
0.0
  0
LINE
  5
6972
330
68EC
100
AcDbEntity
  8
0
100
AcDbLine
 10
3.599999999999994
 20
-43.0
 30
0.0
 11
3.599999999999994
 21
-44.79999999999999
 31
0.0
  0
LINE
  5
6973
330
68EC
100
AcDbEntity
  8
0
100
AcDbLine
 10
-3.599999999999994
 20
-44.79999999999999
 30
0.0
 11
-3.599999999999994
 21
-43.0
 31
0.0
  0
LINE
  5
6974
330
68EC
100
AcDbEntity
  8
0
100
AcDbLine
 10
-3.599999999999994
 20
-44.79999999999999
 30
0.0
 11
-3.400000000000005
 21
-45.0
 31
0.0
  0
LINE
  5
6975
330
68EC
100
AcDbEntity
  8
0
100
AcDbLine
 10
3.599999999999994
 20
-44.79999999999999
 30
0.0
 11
3.400000000000005
 21
-45.0
 31
0.0
  0
LINE
  5
6976
330
68EC
100
AcDbEntity
  8
0
100
AcDbLine
 10
3.849999999999994
 20
-40.49999999999999
 30
0.0
 11
3.849999999999994
 21
-42.0
 31
0.0
  0
LINE
  5
6977
330
68EC
100
AcDbEntity
  8
0
100
AcDbLine
 10
-3.849999999999994
 20
-40.49999999999999
 30
0.0
 11
-3.849999999999994
 21
-42.0
 31
0.0
  0
ARC
  5
6978
330
68EC
100
AcDbEntity
  8
0
100
AcDbCircle
 10
-3.724999999999994
 20
-42.5
 30
0.0
 40
0.5153882030000001
100
AcDbArc
 50
284.0362434679999
 51
104.0362434679999
  0
ARC
  5
6979
330
68EC
100
AcDbEntity
  8
0
100
AcDbCircle
 10
3.724999999999994
 20
-42.5
 30
0.0
 40
0.5153882030000001
100
AcDbArc
 50
75.96375653200006
 51
255.9637565320001
  0
POINT
  5
697A
330
68EC
100
AcDbEntity
  8
0
100
AcDbPoint
 10
0.0
 20
41.5
 30
0.0
  0
POINT
  5
697B
330
68EC
100
AcDbEntity
  8
0
100
AcDbPoint
 10
0.0
 20
0.0
 30
0.0
  0
POINT
  5
697C
330
68EC
100
AcDbEntity
  8
0
100
AcDbPoint
 10
0.0
 20
0.0
 30
0.0
  0
POINT
  5
697D
330
68EC
100
AcDbEntity
  8
0
100
AcDbPoint
 10
4.0
 20
-35.21753058200001
 30
0.0
  0
POINT
  5
697E
330
68EC
100
AcDbEntity
  8
0
100
AcDbPoint
 10
-4.0
 20
-35.37961692299999
 30
0.0
  0
POINT
  5
697F
330
68EC
100
AcDbEntity
  8
0
100
AcDbPoint
 10
-4.0
 20
-34.650227704
 30
0.0
  0
POINT
  5
6980
330
68EC
100
AcDbEntity
  8
0
100
AcDbPoint
 10
-2.0
 20
-51.264100217
 30
0.0
  0
POINT
  5
6981
330
68EC
100
AcDbEntity
  8
0
100
AcDbPoint
 10
2.0
 20
-51.34514361499999
 30
0.0
  0
POINT
  5
6982
330
68EC
100
AcDbEntity
  8
0
100
AcDbPoint
 10
2.0
 20
-51.912446492
 30
0.0
  0
CIRCLE
  5
6983
330
68EC
100
AcDbEntity
  8
0
100
AcDbCircle
 10
0.0
 20
0.0
 30
0.0
 40
1.9
  0
CIRCLE
  5
6984
330
68EC
100
AcDbEntity
  8
0
100
AcDbCircle
 10
0.0
 20
0.0
 30
0.0
 40
1.5
  0
POINT
  5
6985
330
68EC
100
AcDbEntity
  8
0
100
AcDbPoint
 10
0.0
 20
0.0
 30
0.0
  0
POINT
  5
6986
330
68EC
100
AcDbEntity
  8
0
100
AcDbPoint
 10
0.0
 20
0.0
 30
0.0
  0
CIRCLE
  5
6987
330
68EC
100
AcDbEntity
  8
0
100
AcDbCircle
 10
0.0
 20
0.0
 30
0.0
 40
0.475
  0
ARC
  5
6988
330
68EC
100
AcDbEntity
  8
0
100
AcDbCircle
 10
-4.733884292999988
 20
0.3909469339999987
 30
0.0
 40
3.0
100
AcDbArc
 50
6.527720822999838
 51
35.99999999999967
  0
LINE
  5
6989
330
68EC
100
AcDbEntity
  8
0
100
AcDbLine
 10
-13.00408708
 20
17.74547320400001
 30
0.0
 11
-2.306833308999998
 21
2.154302690999998
 31
0.0
  0
ARC
  5
698A
330
68EC
100
AcDbEntity
  8
0
100
AcDbCircle
 10
1.091038067000013
 20
4.623000749999988
 30
0.0
 40
3.0
100
AcDbArc
 50
215.9999999999997
 51
245.4722791769998
  0
LINE
  5
698B
330
68EC
100
AcDbEntity
  8
0
100
AcDbLine
 10
-12.93127554999999
 20
17.79837387599997
 30
0.0
 11
-13.00408708
 21
17.74547320400001
 31
0.0
  0
LINE
  5
698C
330
68EC
100
AcDbEntity
  8
0
100
AcDbLine
 10
-12.93127554999999
 20
17.79837387599997
 30
0.0
 11
-12.858464021
 21
17.85127454900001
 31
0.0
  0
LINE
  5
698D
330
68EC
100
AcDbEntity
  8
0
100
AcDbLine
 10
-12.858464021
 20
17.85127454900001
 30
0.0
 11
-1.336012916000001
 21
2.859644992999989
 31
0.0
  0
POINT
  5
698E
330
68EC
100
AcDbEntity
  8
0
100
AcDbPoint
 10
-23.0
 20
0.0
 30
0.0
  0
POINT
  5
698F
330
68EC
100
AcDbEntity
  8
0
100
AcDbPoint
 10
23.0
 20
0.0
 30
0.0
  0
LINE
  5
6990
330
68EC
100
AcDbEntity
  8
0
100
AcDbLine
 10
3.700000000000002
 20
40.49999999999999
 30
0.0
 11
3.700000000000002
 21
34.0
 31
0.0
  0
LINE
  5
6991
330
68EC
100
AcDbEntity
  8
0
100
AcDbLine
 10
-3.700000000000002
 20
40.49999999999999
 30
0.0
 11
-3.700000000000002
 21
34.0
 31
0.0
  0
LINE
  5
6992
330
68EC
100
AcDbEntity
  8
0
100
AcDbLine
 10
4.0
 20
34.0
 30
0.0
 11
-4.0
 21
34.0
 31
0.0
  0
LINE
  5
6993
330
68EC
100
AcDbEntity
  8
0
100
AcDbLine
 10
4.0
 20
28.0
 30
0.0
 11
-4.0
 21
28.0
 31
0.0
  0
LINE
  5
6994
330
68EC
100
AcDbEntity
  8
0
100
AcDbLine
 10
-4.0
 20
34.0
 30
0.0
 11
-4.0
 21
28.0
 31
0.0
  0
LINE
  5
6995
330
68EC
100
AcDbEntity
  8
0
100
AcDbLine
 10
4.0
 20
34.0
 30
0.0
 11
4.0
 21
28.0
 31
0.0
  0
LINE
  5
6996
330
68EC
100
AcDbEntity
  8
0
100
AcDbLine
 10
3.700000000000002
 20
40.49999999999999
 30
0.0
 11
-3.700000000000002
 21
40.49999999999999
 31
0.0
  0
POINT
  5
6997
330
68EC
100
AcDbEntity
  8
0
100
AcDbPoint
 10
0.0
 20
41.5
 30
0.0
  0
POINT
  5
6998
330
68EC
100
AcDbEntity
  8
0
100
AcDbPoint
 10
0.0
 20
41.5
 30
0.0
  0
LINE
  5
6999
330
68EC
100
AcDbEntity
  8
0
100
AcDbLine
 10
-3.700000000000002
 20
28.0
 30
0.0
 11
-3.700000000000002
 21
26.13943381200002
 31
0.0
  0
LINE
  5
699A
330
68EC
100
AcDbEntity
  8
0
100
AcDbLine
 10
3.700000000000002
 20
28.0
 30
0.0
 11
3.700000000000002
 21
26.13943381200002
 31
0.0
  0
LINE
  5
699B
330
68EC
100
AcDbEntity
  8
0
100
AcDbLine
 10
2.5
 20
-56.2
 30
0.0
 11
2.5
 21
-59.29999999999999
 31
0.0
  0
LINE
  5
699C
330
68EC
100
AcDbEntity
  8
0
100
AcDbLine
 10
-2.5
 20
-56.2
 30
0.0
 11
-2.5
 21
-59.29999999999999
 31
0.0
  0
LINE
  5
699D
330
68EC
100
AcDbEntity
  8
0
100
AcDbLine
 10
-2.25
 20
-59.5
 30
0.0
 11
-1.299999999999997
 21
-64.0
 31
0.0
  0
LINE
  5
699E
330
68EC
100
AcDbEntity
  8
0
100
AcDbLine
 10
-2.25
 20
-59.5
 30
0.0
 11
2.25
 21
-59.5
 31
0.0
  0
LINE
  5
699F
330
68EC
100
AcDbEntity
  8
0
100
AcDbLine
 10
-2.5
 20
-59.29999999999999
 30
0.0
 11
2.5
 21
-59.29999999999999
 31
0.0
  0
LINE
  5
69A0
330
68EC
100
AcDbEntity
  8
0
100
AcDbLine
 10
-2.5
 20
-59.29999999999999
 30
0.0
 11
-2.25
 21
-59.5
 31
0.0
  0
POINT
  5
69A1
330
68EC
100
AcDbEntity
  8
0
100
AcDbPoint
 10
0.0
 20
-65.0
 30
0.0
  0
LINE
  5
69A2
330
68EC
100
AcDbEntity
  8
0
100
AcDbLine
 10
2.25
 20
-59.5
 30
0.0
 11
1.299999999999997
 21
-64.0
 31
0.0
  0
LINE
  5
69A3
330
68EC
100
AcDbEntity
  8
0
100
AcDbLine
 10
2.5
 20
-59.29999999999999
 30
0.0
 11
2.25
 21
-59.5
 31
0.0
  0
LINE
  5
69A4
330
68EC
100
AcDbEntity
  8
0
100
AcDbLine
 10
-1.299999999999997
 20
-64.0
 30
0.0
 11
1.299999999999997
 21
-64.0
 31
0.0
  0
ARC
  5
69A5
330
68EC
100
AcDbEntity
  8
0
100
AcDbCircle
 10
0.0
 20
-63.84999999999999
 30
0.0
 40
1.149999999999999
100
AcDbArc
 50
187.4947174540002
 51
352.5052825459998
  0
LINE
  5
69A6
330
68EC
100
AcDbEntity
  8
0
100
AcDbLine
 10
-2.5
 20
-56.2
 30
0.0
 11
2.5
 21
-56.2
 31
0.0
  0
LINE
  5
69A7
330
68EC
100
AcDbEntity
  8
0
100
AcDbLine
 10
-2.25
 20
-56.0
 30
0.0
 11
-2.5
 21
-56.2
 31
0.0
  0
POINT
  5
69A8
330
68EC
100
AcDbEntity
  8
0
100
AcDbPoint
 10
-2.25
 20
-56.0
 30
0.0
  0
LINE
  5
69A9
330
68EC
100
AcDbEntity
  8
0
100
AcDbLine
 10
2.25
 20
-56.0
 30
0.0
 11
2.5
 21
-56.2
 31
0.0
  0
POINT
  5
69AA
330
68EC
100
AcDbEntity
  8
0
100
AcDbPoint
 10
2.25
 20
-56.0
 30
0.0
  0
LINE
  5
69AB
330
68EC
100
AcDbEntity
  8
0
100
AcDbLine
 10
-31.40000000000001
 20
0.0
 30
0.0
 11
31.40000000000001
 21
0.0
 31
0.0
  0
LINE
  5
69AC
330
68EC
100
AcDbEntity
  8
0
100
AcDbLine
 10
0.0
 20
-70.0
 30
0.0
 11
0.0
 21
46.5
 31
0.0
  0
LINE
  5
69AD
330
68EC
100
AcDbEntity
  8
0
100
AcDbLine
 10
-4.0
 20
32.30330085900002
 30
0.0
 11
-2.303300858999989
 21
34.0
 31
0.0
  0
LINE
  5
69AE
330
68EC
100
AcDbEntity
  8
0
100
AcDbLine
 10
-0.5355339059999978
 20
34.0
 30
0.0
 11
-4.0
 21
30.53553390599998
 31
0.0
  0
LINE
  5
69AF
330
68EC
100
AcDbEntity
  8
0
100
AcDbLine
 10
-4.0
 20
28.76776695300001
 30
0.0
 11
1.232233047000008
 21
34.0
 31
0.0
  0
LINE
  5
69B0
330
68EC
100
AcDbEntity
  8
0
100
AcDbLine
 10
3.0
 20
34.0
 30
0.0
 11
-3.0
 21
28.0
 31
0.0
  0
LINE
  5
69B1
330
68EC
100
AcDbEntity
  8
0
100
AcDbLine
 10
-1.232233047000008
 20
28.0
 30
0.0
 11
4.0
 21
33.23223304699999
 31
0.0
  0
LINE
  5
69B2
330
68EC
100
AcDbEntity
  8
0
100
AcDbLine
 10
4.0
 20
31.46446609400002
 30
0.0
 11
0.5355339059999978
 21
28.0
 31
0.0
  0
LINE
  5
69B3
330
68EC
100
AcDbEntity
  8
0
100
AcDbLine
 10
2.303300858999989
 20
28.0
 30
0.0
 11
4.0
 21
29.69669914099998
 31
0.0
  0
LINE
  5
69B4
330
68EC
100
AcDbEntity
  8
0
100
AcDbLine
 10
-2.303300858999989
 20
28.0
 30
0.0
 11
-4.0
 21
29.69669914099998
 31
0.0
  0
LINE
  5
69B5
330
68EC
100
AcDbEntity
  8
0
100
AcDbLine
 10
-4.0
 20
31.46446609400002
 30
0.0
 11
-0.5355339059999978
 21
28.0
 31
0.0
  0
LINE
  5
69B6
330
68EC
100
AcDbEntity
  8
0
100
AcDbLine
 10
1.232233047000008
 20
28.0
 30
0.0
 11
-4.0
 21
33.23223304699999
 31
0.0
  0
LINE
  5
69B7
330
68EC
100
AcDbEntity
  8
0
100
AcDbLine
 10
-3.0
 20
34.0
 30
0.0
 11
3.0
 21
28.0
 31
0.0
  0
LINE
  5
69B8
330
68EC
100
AcDbEntity
  8
0
100
AcDbLine
 10
4.0
 20
28.76776695300001
 30
0.0
 11
-1.232233047000008
 21
34.0
 31
0.0
  0
LINE
  5
69B9
330
68EC
100
AcDbEntity
  8
0
100
AcDbLine
 10
0.5355339059999978
 20
34.0
 30
0.0
 11
4.0
 21
30.53553390599998
 31
0.0
  0
LINE
  5
69BA
330
68EC
100
AcDbEntity
  8
0
100
AcDbLine
 10
4.0
 20
32.30330085900002
 30
0.0
 11
2.303300858999989
 21
34.0
 31
0.0
  0
LINE
  5
69BB
330
68EC
100
AcDbEntity
  8
0
100
AcDbLine
 10
-1.985533906
 20
-56.2
 30
0.0
 11
-2.5
 21
-56.714466094
 31
0.0
  0
LINE
  5
69BC
330
68EC
100
AcDbEntity
  8
0
100
AcDbLine
 10
-2.5
 20
-58.48223304700001
 30
0.0
 11
-0.2177669529999946
 21
-56.2
 31
0.0
  0
LINE
  5
69BD
330
68EC
100
AcDbEntity
  8
0
100
AcDbLine
 10
1.549999999999997
 20
-56.2
 30
0.0
 11
-1.549999999999997
 21
-59.29999999999999
 31
0.0
  0
LINE
  5
69BE
330
68EC
100
AcDbEntity
  8
0
100
AcDbLine
 10
0.2177669529999946
 20
-59.29999999999999
 30
0.0
 11
2.5
 21
-57.01776695299999
 31
0.0
  0
LINE
  5
69BF
330
68EC
100
AcDbEntity
  8
0
100
AcDbLine
 10
2.5
 20
-58.785533906
 30
0.0
 11
1.985533906
 21
-59.29999999999999
 31
0.0
  0
LINE
  5
69C0
330
68EC
100
AcDbEntity
  8
0
100
AcDbLine
 10
-2.5
 20
-58.785533906
 30
0.0
 11
-1.985533906
 21
-59.29999999999999
 31
0.0
  0
LINE
  5
69C1
330
68EC
100
AcDbEntity
  8
0
100
AcDbLine
 10
-0.2177669529999946
 20
-59.29999999999999
 30
0.0
 11
-2.5
 21
-57.01776695299999
 31
0.0
  0
LINE
  5
69C2
330
68EC
100
AcDbEntity
  8
0
100
AcDbLine
 10
-1.549999999999997
 20
-56.2
 30
0.0
 11
1.549999999999997
 21
-59.29999999999999
 31
0.0
  0
LINE
  5
69C3
330
68EC
100
AcDbEntity
  8
0
100
AcDbLine
 10
2.5
 20
-58.48223304700001
 30
0.0
 11
0.2177669529999946
 21
-56.2
 31
0.0
  0
LINE
  5
69C4
330
68EC
100
AcDbEntity
  8
0
100
AcDbLine
 10
1.985533906
 20
-56.2
 30
0.0
 11
2.5
 21
-56.714466094
 31
0.0
  0
LINE
  5
69C5
330
68EC
100
AcDbEntity
  8
0
100
AcDbLine
 10
1.317518452000001
 20
-11.54180213500001
 30
0.0
 11
0.8419901939999903
 21
-11.38729363799999
 31
0.0
  0
LINE
  5
69C6
330
68EC
100
AcDbEntity
  8
0
100
AcDbLine
 10
1.317518452000001
 20
-8.606140687999982
 30
0.0
 11
0.8419901939999903
 21
-8.760649185000005
 31
0.0
  0
CIRCLE
  5
69C7
330
68EC
100
AcDbEntity
  8
0
100
AcDbCircle
 10
-3.200000000000002
 20
-10.07397141200002
 30
0.0
 40
4.75
  0
LINE
  5
69C8
330
68EC
100
AcDbEntity
  8
0
100
AcDbLine
 10
-3.055091642000007
 20
-8.616602066000012
 30
0.0
 11
-3.099999999999994
 21
-5.373971412000003
 31
0.0
  0
LINE
  5
69C9
330
68EC
100
AcDbEntity
  8
0
100
AcDbLine
 10
-3.344908357999997
 20
-8.616602066000012
 30
0.0
 11
-3.299999999999997
 21
-5.373971412000003
 31
0.0
  0
TEXT
  5
69CA
330
68EC
100
AcDbEntity
  8
0
100
AcDbText
 10
-7.016015565000003
 20
-11.78693130799999
 30
0.0
 40
1.0
  1
３
  7
KANJI1
100
AcDbText
  0
TEXT
  5
69CB
330
68EC
100
AcDbEntity
  8
0
100
AcDbText
 10
-6.986772561000009
 20
-9.524089557999985
 30
0.0
 40
1.0
  1
２
  7
KANJI1
100
AcDbText
  0
LINE
  5
69CC
330
68EC
100
AcDbEntity
  8
0
100
AcDbLine
 10
-7.717518452000007
 20
-8.606140687999982
 30
0.0
 11
-7.241990193999995
 21
-8.760649185000005
 31
0.0
  0
LINE
  5
69CD
330
68EC
100
AcDbEntity
  8
0
100
AcDbLine
 10
-7.717518452000007
 20
-11.54180213500001
 30
0.0
 11
-7.241990193999995
 21
-11.38729363799999
 31
0.0
  0
LINE
  5
69CE
330
68EC
100
AcDbEntity
  8
0
100
AcDbLine
 10
-3.200000000000002
 20
-14.82397141200002
 30
0.0
 11
-3.200000000000002
 21
-14.32397141200002
 31
0.0
  0
LINE
  5
69CF
330
68EC
100
AcDbEntity
  8
0
100
AcDbLine
 10
-0.4080200520000119
 20
-13.91680213500001
 30
0.0
 11
-0.7019126779999994
 21
-13.51229363799999
 31
0.0
  0
TEXT
  5
69D0
330
68EC
100
AcDbEntity
  8
0
100
AcDbText
 10
-1.605562637000005
 20
-13.39958236499998
 30
0.0
 40
1.0
  1
６
  7
KANJI1
100
AcDbText
  0
ARC
  5
69D1
330
68EC
100
AcDbEntity
  8
0
100
AcDbCircle
 10
-2.555139587000013
 20
-8.609678050000013
 30
0.0
 40
0.5
100
AcDbArc
 50
180.7934591210002
 51
246.2317787020004
  0
ARC
  5
69D2
330
68EC
100
AcDbEntity
  8
0
100
AcDbCircle
 10
-3.844860412999992
 20
-8.609678050000013
 30
0.0
 40
0.5
100
AcDbArc
 50
293.7682212979996
 51
359.2065408789998
  0
TEXT
  5
69D3
330
68EC
100
AcDbEntity
  8
0
100
AcDbText
 10
-3.71795162299999
 20
-13.996864122
 30
0.0
 40
1.0
  1
５
  7
KANJI1
100
AcDbText
  0
CIRCLE
  5
69D4
330
68EC
100
AcDbEntity
  8
0
100
AcDbCircle
 10
-3.200000000000002
 20
-10.07397141200002
 30
0.0
 40
0.75
  0
CIRCLE
  5
69D5
330
68EC
100
AcDbEntity
  8
0
100
AcDbCircle
 10
-3.200000000000002
 20
-10.07397141200002
 30
0.0
 40
0.4
  0
LINE
  5
69D6
330
68EC
100
AcDbEntity
  8
0
100
AcDbLine
 10
-5.991979947999993
 20
-13.91680213500001
 30
0.0
 11
-5.698087322000006
 21
-13.51229363799999
 31
0.0
  0
TEXT
  5
69D7
330
68EC
100
AcDbEntity
  8
0
100
AcDbText
 10
-5.821443192000003
 20
-13.522126136
 30
0.0
 40
1.0
  1
４
  7
KANJI1
100
AcDbText
  0
CIRCLE
  5
69D8
330
68EC
100
AcDbEntity
  8
0
100
AcDbCircle
 10
-3.200000000000002
 20
-10.07397141200002
 30
0.0
 40
1.1
  0
TEXT
  5
69D9
330
68EC
100
AcDbEntity
  8
0
100
AcDbText
 10
-0.1656661149999934
 20
-11.79546262600001
 30
0.0
 40
1.0
  1
７
  7
KANJI1
100
AcDbText
  0
TEXT
  5
69DA
330
68EC
100
AcDbEntity
  8
0
100
AcDbText
 10
-0.1054791839999893
 20
-9.491835240999989
 30
0.0
 40
1.0
  1
８
  7
KANJI1
100
AcDbText
  0
LINE
  5
69DB
330
68EC
100
AcDbEntity
  8
0
100
AcDbLine
 10
-3.200000000000002
 20
-5.32397141200002
 30
0.0
 11
-3.200000000000002
 21
-5.82397141200002
 31
0.0
  0
LINE
  5
69DC
330
68EC
100
AcDbEntity
  8
0
100
AcDbLine
 10
-0.4080200520000119
 20
-6.231140687999982
 30
0.0
 11
-0.7019126779999994
 21
-6.635649185000005
 31
0.0
  0
TEXT
  5
69DD
330
68EC
100
AcDbEntity
  8
0
100
AcDbText
 10
-1.602876700999999
 20
-7.772527462999988
 30
0.0
 40
1.0
  1
９
  7
KANJI1
100
AcDbText
  0
TEXT
  5
69DE
330
68EC
100
AcDbEntity
  8
0
100
AcDbText
 10
-3.686376439
 20
-7.046197482999986
 30
0.0
 40
1.0
  1
０
  7
KANJI1
100
AcDbText
  0
LINE
  5
69DF
330
68EC
100
AcDbEntity
  8
0
100
AcDbLine
 10
-3.099999999999994
 20
-5.373971412000003
 30
0.0
 11
-3.299999999999997
 21
-5.373971412000003
 31
0.0
  0
LINE
  5
69E0
330
68EC
100
AcDbEntity
  8
0
100
AcDbLine
 10
-5.991979947999993
 20
-6.231140687999982
 30
0.0
 11
-5.698087322000006
 21
-6.635649185000005
 31
0.0
  0
TEXT
  5
69E1
330
68EC
100
AcDbEntity
  8
0
100
AcDbText
 10
-5.626490214
 20
-7.721921551999997
 30
0.0
 40
1.0
  1
１
  7
KANJI1
100
AcDbText
  0
CIRCLE
  5
69E2
330
68EC
100
AcDbEntity
  8
0
100
AcDbCircle
 10
0.0
 20
0.0
 30
0.0
 40
25.0
  0
CIRCLE
  5
69E3
330
68EC
100
AcDbEntity
  8
0
100
AcDbCircle
 10
0.0
 20
0.0
 30
0.0
 40
25.5
  0
ARC
  5
69E4
330
68EC
100
AcDbEntity
  8
0
100
AcDbCircle
 10
-13.178632795
 20
22.82606157500001
 30
0.0
 40
7.64273441
100
AcDbArc
 50
102.4120462259998
 51
137.5879537739995
  0
ARC
  5
69E5
330
68EC
100
AcDbEntity
  8
0
100
AcDbCircle
 10
-12.97767090100001
 20
29.40618859400002
 30
0.0
 40
2.044658199
100
AcDbArc
 50
85.61575253199986
 51
154.3842474679995
  0
LINE
  5
69E6
330
68EC
100
AcDbEntity
  8
0
100
AcDbLine
 10
-13.53589838499999
 20
31.44486372900002
 30
0.0
 11
-12.821367205
 21
31.44486372900002
 31
0.0
  0
LINE
  5
69E7
330
68EC
100
AcDbEntity
  8
0
100
AcDbLine
 10
-13.53589838499999
 20
31.44486372900002
 30
0.0
 11
-20.464101615
 21
27.44486372900002
 31
0.0
  0
LINE
  5
69E8
330
68EC
100
AcDbEntity
  8
0
100
AcDbLine
 10
-11.5
 20
24.53738644099999
 30
0.0
 11
-14.821367205
 21
30.29016318999999
 31
0.0
  0
ARC
  5
69E9
330
68EC
100
AcDbEntity
  8
0
100
AcDbCircle
 10
-18.97767090100001
 20
25.94208697900001
 30
0.0
 40
2.044658199
100
AcDbArc
 50
85.61575253199986
 51
154.3842474679995
  0
LINE
  5
69EA
330
68EC
100
AcDbEntity
  8
0
100
AcDbLine
 10
-20.464101615
 20
27.44486372900002
 30
0.0
 11
-20.821367205
 21
26.82606157500001
 31
0.0
  0
LINE
  5
69EB
330
68EC
100
AcDbEntity
  8
0
100
AcDbLine
 10
-17.5
 20
21.073284825
 30
0.0
 11
-20.821367205
 21
26.82606157500001
 31
0.0
  0
LINE
  5
69EC
330
68EC
100
AcDbEntity
  8
0
100
AcDbLine
 10
-15.5
 20
22.227985364
 30
0.0
 11
-18.821367205
 21
27.98076211400001
 31
0.0
  0
LINE
  5
69ED
330
68EC
100
AcDbEntity
  8
0
100
AcDbLine
 10
-9.5
 20
25.69208697900001
 30
0.0
 11
-12.821367205
 21
31.44486372900002
 31
0.0
  0
LINE
  5
69EE
330
68EC
100
AcDbEntity
  8
0
100
AcDbLine
 10
-9.5
 20
25.69208697900001
 30
0.0
 11
-17.5
 21
21.073284825
 31
0.0
  0
LINE
  5
69EF
330
68EC
100
AcDbEntity
  8
0
100
AcDbLine
 10
-10.46891108700001
 20
25.13268590200002
 30
0.0
 11
-10.09391108700001
 21
24.48316684900002
 31
0.0
  0
LINE
  5
69F0
330
68EC
100
AcDbEntity
  8
0
100
AcDbLine
 10
-16.53108891299999
 20
21.63268590200002
 30
0.0
 11
-16.15608891299999
 21
20.98316684900002
 31
0.0
  0
LINE
  5
69F1
330
68EC
100
AcDbEntity
  8
0
100
AcDbLine
 10
-15.558747111
 20
21.32804230000002
 30
0.0
 11
-16.15608891299999
 21
20.98316684900002
 31
0.0
  0
LINE
  5
69F2
330
68EC
100
AcDbEntity
  8
0
100
AcDbLine
 10
-10.09391108700001
 20
24.48316684900002
 30
0.0
 11
-10.691252889
 21
24.13829139900002
 31
0.0
  0
LINE
  5
69F3
330
68EC
100
AcDbEntity
  8
0
100
AcDbLine
 10
-11.11843014
 20
24.75768590200002
 30
0.0
 11
-10.746620228
 21
24.11369224500001
 31
0.0
  0
LINE
  5
69F4
330
68EC
100
AcDbEntity
  8
0
100
AcDbLine
 10
-15.88156986
 20
22.00768590200002
 30
0.0
 11
-15.509759949
 21
21.36369224500001
 31
0.0
  0
LINE
  5
69F5
330
68EC
100
AcDbEntity
  8
0
100
AcDbLine
 10
-15.26795249600001
 20
30.44486182099999
 30
0.0
 11
-25.26795249600001
 21
47.765369897
 31
0.0
  0
LINE
  5
69F6
330
68EC
100
AcDbEntity
  8
0
100
AcDbLine
 10
-18.73205411100001
 20
28.44486182099999
 30
0.0
 11
-28.73205411100001
 21
45.765369897
 31
0.0
  0
ARC
  5
69F7
330
68EC
100
AcDbEntity
  8
0
100
AcDbCircle
 10
-27.4910221
 20
45.61585465900001
 30
0.0
 40
1.25
100
AcDbArc
 50
66.86989764700019
 51
173.1301023529993
  0
ARC
  5
69F8
330
68EC
100
AcDbEntity
  8
0
100
AcDbCircle
 10
-25.758971293
 20
46.615854659
 30
0.0
 40
1.25
100
AcDbArc
 50
66.86989764500038
 51
173.1301023539998
  0
ARC
  5
69F9
330
68EC
100
AcDbEntity
  8
0
100
AcDbCircle
 10
-26.508971293
 20
47.91489276499999
 30
0.0
 40
1.25
100
AcDbArc
 50
246.8698976470002
 51
353.1301023529993
  0
LINE
  5
69FA
330
68EC
100
AcDbEntity
  8
0
100
AcDbLine
 10
-29.5
 20
51.09549882299998
 30
0.0
 11
-10.678632795
 21
18.49593455599998
 31
0.0
  0
ARC
  5
69FB
330
68EC
100
AcDbEntity
  8
0
100
AcDbCircle
 10
206.166666667
 20
0.0
 30
0.0
 40
105.666666667
100
AcDbArc
 50
166.3144531750004
 51
193.6855468249995
  0
LINE
  5
69FC
330
68EC
100
AcDbEntity
  8
0
100
AcDbLine
 10
103.5
 20
25.0
 30
0.0
 11
103.5
 21
-25.0
 31
0.0
  0
LINE
  5
69FD
330
68EC
100
AcDbEntity
  8
0
100
AcDbLine
 10
104.7
 20
26.40000000000001
 30
0.0
 11
104.7
 21
-26.40000000000001
 31
0.0
  0
LINE
  5
69FE
330
68EC
100
AcDbEntity
  8
0
100
AcDbLine
 10
108.5
 20
26.40000000000001
 30
0.0
 11
108.5
 21
-26.40000000000001
 31
0.0
  0
LINE
  5
69FF
330
68EC
100
AcDbEntity
  8
0
100
AcDbLine
 10
110.0
 20
25.0
 30
0.0
 11
110.0
 21
-25.0
 31
0.0
  0
LINE
  5
6A00
330
68EC
100
AcDbEntity
  8
0
100
AcDbLine
 10
121.5
 20
24.40000000000001
 30
0.0
 11
121.5
 21
-24.40000000000001
 31
0.0
  0
LINE
  5
6A01
330
68EC
100
AcDbEntity
  8
0
100
AcDbLine
 10
104.7
 20
-25.5
 30
0.0
 11
103.5
 21
-25.0
 31
0.0
  0
LINE
  5
6A02
330
68EC
100
AcDbEntity
  8
0
100
AcDbLine
 10
110.0
 20
-25.0
 30
0.0
 11
108.5
 21
-25.0
 31
0.0
  0
LINE
  5
6A03
330
68EC
100
AcDbEntity
  8
0
100
AcDbLine
 10
104.7
 20
-26.40000000000001
 30
0.0
 11
108.5
 21
-26.40000000000001
 31
0.0
  0
LINE
  5
6A04
330
68EC
100
AcDbEntity
  8
0
100
AcDbLine
 10
104.7
 20
-22.40000000000001
 30
0.0
 11
108.5
 21
-22.40000000000001
 31
0.0
  0
LINE
  5
6A05
330
68EC
100
AcDbEntity
  8
0
100
AcDbLine
 10
104.7
 20
-23.40000000000001
 30
0.0
 11
108.5
 21
-23.40000000000001
 31
0.0
  0
LINE
  5
6A06
330
68EC
100
AcDbEntity
  8
0
100
AcDbLine
 10
104.7
 20
-24.40000000000001
 30
0.0
 11
108.5
 21
-24.40000000000001
 31
0.0
  0
LINE
  5
6A07
330
68EC
100
AcDbEntity
  8
0
100
AcDbLine
 10
104.7
 20
-25.40000000000001
 30
0.0
 11
108.5
 21
-25.40000000000001
 31
0.0
  0
ARC
  5
6A08
330
68EC
100
AcDbEntity
  8
0
100
AcDbCircle
 10
115.0
 20
34.155
 30
0.0
 40
7.344999999999999
100
AcDbArc
 50
59.75198538300002
 51
120.2480146169999
  0
LINE
  5
6A09
330
68EC
100
AcDbEntity
  8
0
100
AcDbLine
 10
104.7
 20
25.5
 30
0.0
 11
103.5
 21
25.0
 31
0.0
  0
LINE
  5
6A0A
330
68EC
100
AcDbEntity
  8
0
100
AcDbLine
 10
104.7
 20
-21.40000000000001
 30
0.0
 11
108.5
 21
-21.40000000000001
 31
0.0
  0
LINE
  5
6A0B
330
68EC
100
AcDbEntity
  8
0
100
AcDbLine
 10
108.5
 20
-2.0
 30
0.0
 11
104.7
 21
-2.0
 31
0.0
  0
LINE
  5
6A0C
330
68EC
100
AcDbEntity
  8
0
100
AcDbLine
 10
108.5
 20
-1.0
 30
0.0
 11
104.7
 21
-1.0
 31
0.0
  0
LINE
  5
6A0D
330
68EC
100
AcDbEntity
  8
0
100
AcDbLine
 10
108.5
 20
0.0
 30
0.0
 11
104.7
 21
0.0
 31
0.0
  0
LINE
  5
6A0E
330
68EC
100
AcDbEntity
  8
0
100
AcDbLine
 10
108.5
 20
1.0
 30
0.0
 11
104.7
 21
1.0
 31
0.0
  0
LINE
  5
6A0F
330
68EC
100
AcDbEntity
  8
0
100
AcDbLine
 10
108.5
 20
3.0
 30
0.0
 11
104.7
 21
3.0
 31
0.0
  0
LINE
  5
6A10
330
68EC
100
AcDbEntity
  8
0
100
AcDbLine
 10
108.5
 20
2.0
 30
0.0
 11
104.7
 21
2.0
 31
0.0
  0
LINE
  5
6A11
330
68EC
100
AcDbEntity
  8
0
100
AcDbLine
 10
104.7
 20
21.40000000000001
 30
0.0
 11
108.5
 21
21.40000000000001
 31
0.0
  0
LINE
  5
6A12
330
68EC
100
AcDbEntity
  8
0
100
AcDbLine
 10
104.7
 20
22.40000000000001
 30
0.0
 11
108.5
 21
22.40000000000001
 31
0.0
  0
LINE
  5
6A13
330
68EC
100
AcDbEntity
  8
0
100
AcDbLine
 10
104.7
 20
23.40000000000001
 30
0.0
 11
108.5
 21
23.40000000000001
 31
0.0
  0
LINE
  5
6A14
330
68EC
100
AcDbEntity
  8
0
100
AcDbLine
 10
104.7
 20
24.40000000000001
 30
0.0
 11
108.5
 21
24.40000000000001
 31
0.0
  0
LINE
  5
6A15
330
68EC
100
AcDbEntity
  8
0
100
AcDbLine
 10
110.0
 20
25.0
 30
0.0
 11
108.5
 21
25.0
 31
0.0
  0
LINE
  5
6A16
330
68EC
100
AcDbEntity
  8
0
100
AcDbLine
 10
104.7
 20
25.40000000000001
 30
0.0
 11
108.5
 21
25.40000000000001
 31
0.0
  0
LINE
  5
6A17
330
68EC
100
AcDbEntity
  8
0
100
AcDbLine
 10
104.7
 20
26.40000000000001
 30
0.0
 11
108.5
 21
26.40000000000001
 31
0.0
  0
LINE
  5
6A18
330
68EC
100
AcDbEntity
  8
0
100
AcDbLine
 10
117.0
 20
-45.0
 30
0.0
 11
117.0
 21
-56.0
 31
0.0
  0
LINE
  5
6A19
330
68EC
100
AcDbEntity
  8
0
100
AcDbLine
 10
113.0
 20
-45.0
 30
0.0
 11
113.0
 21
-56.0
 31
0.0
  0
LINE
  5
6A1A
330
68EC
100
AcDbEntity
  8
0
100
AcDbLine
 10
119.0
 20
-24.40000000000001
 30
0.0
 11
119.0
 21
-40.49999999999999
 31
0.0
  0
LINE
  5
6A1B
330
68EC
100
AcDbEntity
  8
0
100
AcDbLine
 10
111.0
 20
-24.40000000000001
 30
0.0
 11
111.0
 21
-40.49999999999999
 31
0.0
  0
LINE
  5
6A1C
330
68EC
100
AcDbEntity
  8
0
100
AcDbLine
 10
111.4
 20
-43.0
 30
0.0
 11
111.4
 21
-44.79999999999999
 31
0.0
  0
LINE
  5
6A1D
330
68EC
100
AcDbEntity
  8
0
100
AcDbLine
 10
118.6
 20
-44.79999999999999
 30
0.0
 11
118.6
 21
-43.0
 31
0.0
  0
LINE
  5
6A1E
330
68EC
100
AcDbEntity
  8
0
100
AcDbLine
 10
111.6
 20
-45.0
 30
0.0
 11
118.4
 21
-45.0
 31
0.0
  0
LINE
  5
6A1F
330
68EC
100
AcDbEntity
  8
0
100
AcDbLine
 10
111.4
 20
-44.79999999999999
 30
0.0
 11
111.6
 21
-45.0
 31
0.0
  0
LINE
  5
6A20
330
68EC
100
AcDbEntity
  8
0
100
AcDbLine
 10
118.6
 20
-44.79999999999999
 30
0.0
 11
118.4
 21
-45.0
 31
0.0
  0
LINE
  5
6A21
330
68EC
100
AcDbEntity
  8
0
100
AcDbLine
 10
111.15
 20
-42.0
 30
0.0
 11
118.85
 21
-42.0
 31
0.0
  0
LINE
  5
6A22
330
68EC
100
AcDbEntity
  8
0
100
AcDbLine
 10
111.4
 20
-43.0
 30
0.0
 11
118.6
 21
-43.0
 31
0.0
  0
LINE
  5
6A23
330
68EC
100
AcDbEntity
  8
0
100
AcDbLine
 10
111.0
 20
-40.49999999999999
 30
0.0
 11
119.0
 21
-40.49999999999999
 31
0.0
  0
ARC
  5
6A24
330
68EC
100
AcDbEntity
  8
0
100
AcDbCircle
 10
111.275
 20
-42.5
 30
0.0
 40
0.5153882030000001
100
AcDbArc
 50
284.0362434679999
 51
104.0362434679999
  0
LINE
  5
6A25
330
68EC
100
AcDbEntity
  8
0
100
AcDbLine
 10
111.15
 20
-40.49999999999999
 30
0.0
 11
111.15
 21
-42.0
 31
0.0
  0
ARC
  5
6A26
330
68EC
100
AcDbEntity
  8
0
100
AcDbCircle
 10
118.725
 20
-42.5
 30
0.0
 40
0.5153882030000001
100
AcDbArc
 50
75.96375653200006
 51
255.9637565320001
  0
LINE
  5
6A27
330
68EC
100
AcDbEntity
  8
0
100
AcDbLine
 10
118.85
 20
-40.49999999999999
 30
0.0
 11
118.85
 21
-42.0
 31
0.0
  0
POINT
  5
6A28
330
68EC
100
AcDbEntity
  8
0
100
AcDbPoint
 10
111.0
 20
-40.49999999999999
 30
0.0
  0
POINT
  5
6A29
330
68EC
100
AcDbEntity
  8
0
100
AcDbPoint
 10
111.6
 20
-45.0
 30
0.0
  0
LINE
  5
6A2A
330
68EC
100
AcDbEntity
  8
0
100
AcDbLine
 10
110.0
 20
24.40000000000001
 30
0.0
 11
121.5
 21
24.40000000000001
 31
0.0
  0
LINE
  5
6A2B
330
68EC
100
AcDbEntity
  8
0
100
AcDbLine
 10
110.0
 20
-24.40000000000001
 30
0.0
 11
121.5
 21
-24.40000000000001
 31
0.0
  0
POINT
  5
6A2C
330
68EC
100
AcDbEntity
  8
0
100
AcDbPoint
 10
121.5
 20
24.40000000000001
 30
0.0
  0
POINT
  5
6A2D
330
68EC
100
AcDbEntity
  8
0
100
AcDbPoint
 10
121.5
 20
24.40000000000001
 30
0.0
  0
POINT
  5
6A2E
330
68EC
100
AcDbEntity
  8
0
100
AcDbPoint
 10
121.5
 20
24.40000000000001
 30
0.0
  0
POINT
  5
6A2F
330
68EC
100
AcDbEntity
  8
0
100
AcDbPoint
 10
121.5
 20
-24.40000000000001
 30
0.0
  0
POINT
  5
6A30
330
68EC
100
AcDbEntity
  8
0
100
AcDbPoint
 10
115.0
 20
41.5
 30
0.0
  0
POINT
  5
6A31
330
68EC
100
AcDbEntity
  8
0
100
AcDbPoint
 10
104.7
 20
26.40000000000001
 30
0.0
  0
POINT
  5
6A32
330
68EC
100
AcDbEntity
  8
0
100
AcDbPoint
 10
104.7
 20
-26.40000000000001
 30
0.0
  0
POINT
  5
6A33
330
68EC
100
AcDbEntity
  8
0
100
AcDbPoint
 10
104.7
 20
-26.40000000000001
 30
0.0
  0
LINE
  5
6A34
330
68EC
100
AcDbEntity
  8
0
100
AcDbLine
 10
111.3
 20
40.49999999999999
 30
0.0
 11
111.3
 21
34.0
 31
0.0
  0
LINE
  5
6A35
330
68EC
100
AcDbEntity
  8
0
100
AcDbLine
 10
118.7
 20
40.49999999999999
 30
0.0
 11
118.7
 21
34.0
 31
0.0
  0
LINE
  5
6A36
330
68EC
100
AcDbEntity
  8
0
100
AcDbLine
 10
111.3
 20
40.49999999999999
 30
0.0
 11
118.7
 21
40.49999999999999
 31
0.0
  0
POINT
  5
6A37
330
68EC
100
AcDbEntity
  8
0
100
AcDbPoint
 10
115.0
 20
41.5
 30
0.0
  0
LINE
  5
6A38
330
68EC
100
AcDbEntity
  8
0
100
AcDbLine
 10
116.3
 20
-64.0
 30
0.0
 11
113.7
 21
-64.0
 31
0.0
  0
ARC
  5
6A39
330
68EC
100
AcDbEntity
  8
0
100
AcDbCircle
 10
115.0
 20
-63.84999999999999
 30
0.0
 40
1.149999999999999
100
AcDbArc
 50
187.4947174540002
 51
352.5052825459998
  0
LINE
  5
6A3A
330
68EC
100
AcDbEntity
  8
0
100
AcDbLine
 10
117.25
 20
-59.5
 30
0.0
 11
116.3
 21
-64.0
 31
0.0
  0
POINT
  5
6A3B
330
68EC
100
AcDbEntity
  8
0
100
AcDbPoint
 10
115.0
 20
-65.0
 30
0.0
  0
LINE
  5
6A3C
330
68EC
100
AcDbEntity
  8
0
100
AcDbLine
 10
112.75
 20
-59.5
 30
0.0
 11
113.7
 21
-64.0
 31
0.0
  0
LINE
  5
6A3D
330
68EC
100
AcDbEntity
  8
0
100
AcDbLine
 10
119.0
 20
34.0
 30
0.0
 11
111.0
 21
34.0
 31
0.0
  0
LINE
  5
6A3E
330
68EC
100
AcDbEntity
  8
0
100
AcDbLine
 10
119.0
 20
28.0
 30
0.0
 11
111.0
 21
28.0
 31
0.0
  0
LINE
  5
6A3F
330
68EC
100
AcDbEntity
  8
0
100
AcDbLine
 10
111.0
 20
34.0
 30
0.0
 11
111.0
 21
28.0
 31
0.0
  0
LINE
  5
6A40
330
68EC
100
AcDbEntity
  8
0
100
AcDbLine
 10
119.0
 20
34.0
 30
0.0
 11
119.0
 21
28.0
 31
0.0
  0
LINE
  5
6A41
330
68EC
100
AcDbEntity
  8
0
100
AcDbLine
 10
117.25
 20
-56.0
 30
0.0
 11
112.75
 21
-56.0
 31
0.0
  0
LINE
  5
6A42
330
68EC
100
AcDbEntity
  8
0
100
AcDbLine
 10
117.5
 20
-56.2
 30
0.0
 11
117.5
 21
-59.29999999999999
 31
0.0
  0
LINE
  5
6A43
330
68EC
100
AcDbEntity
  8
0
100
AcDbLine
 10
112.5
 20
-56.2
 30
0.0
 11
112.5
 21
-59.29999999999999
 31
0.0
  0
LINE
  5
6A44
330
68EC
100
AcDbEntity
  8
0
100
AcDbLine
 10
112.75
 20
-59.5
 30
0.0
 11
117.25
 21
-59.5
 31
0.0
  0
LINE
  5
6A45
330
68EC
100
AcDbEntity
  8
0
100
AcDbLine
 10
112.5
 20
-59.29999999999999
 30
0.0
 11
117.5
 21
-59.29999999999999
 31
0.0
  0
LINE
  5
6A46
330
68EC
100
AcDbEntity
  8
0
100
AcDbLine
 10
112.5
 20
-59.29999999999999
 30
0.0
 11
112.75
 21
-59.5
 31
0.0
  0
LINE
  5
6A47
330
68EC
100
AcDbEntity
  8
0
100
AcDbLine
 10
117.5
 20
-59.29999999999999
 30
0.0
 11
117.25
 21
-59.5
 31
0.0
  0
LINE
  5
6A48
330
68EC
100
AcDbEntity
  8
0
100
AcDbLine
 10
112.5
 20
-56.2
 30
0.0
 11
117.5
 21
-56.2
 31
0.0
  0
LINE
  5
6A49
330
68EC
100
AcDbEntity
  8
0
100
AcDbLine
 10
112.75
 20
-56.0
 30
0.0
 11
112.5
 21
-56.2
 31
0.0
  0
POINT
  5
6A4A
330
68EC
100
AcDbEntity
  8
0
100
AcDbPoint
 10
112.75
 20
-56.0
 30
0.0
  0
LINE
  5
6A4B
330
68EC
100
AcDbEntity
  8
0
100
AcDbLine
 10
117.25
 20
-56.0
 30
0.0
 11
117.5
 21
-56.2
 31
0.0
  0
POINT
  5
6A4C
330
68EC
100
AcDbEntity
  8
0
100
AcDbPoint
 10
117.25
 20
-56.0
 30
0.0
  0
LINE
  5
6A4D
330
68EC
100
AcDbEntity
  8
0
100
AcDbLine
 10
115.0
 20
48.259639929
 30
0.0
 11
115.0
 21
-70.0
 31
0.0
  0
LINE
  5
6A4E
330
68EC
100
AcDbEntity
  8
0
100
AcDbLine
 10
127.0
 20
23.30000000000001
 30
0.0
 11
127.0
 21
-23.30000000000001
 31
0.0
  0
POINT
  5
6A4F
330
68EC
100
AcDbEntity
  8
0
100
AcDbPoint
 10
127.0
 20
23.30000000000001
 30
0.0
  0
CIRCLE
  5
6A50
330
68EC
100
AcDbEntity
  8
0
100
AcDbCircle
 10
140.0
 20
0.0
 30
0.0
 40
3.25
  0
ARC
  5
6A51
330
68EC
100
AcDbEntity
  8
0
100
AcDbCircle
 10
-143.945
 20
0.0
 30
0.0
 40
271.945
100
AcDbArc
 50
355.0849237039998
 51
4.915076296000173
  0
LINE
  5
6A52
330
68EC
100
AcDbEntity
  8
0
100
AcDbLine
 10
127.0
 20
23.30000000000001
 30
0.0
 11
125.0
 21
23.30000000000001
 31
0.0
  0
LINE
  5
6A53
330
68EC
100
AcDbEntity
  8
0
100
AcDbLine
 10
127.0
 20
-23.30000000000001
 30
0.0
 11
125.0
 21
-23.30000000000001
 31
0.0
  0
LINE
  5
6A54
330
68EC
100
AcDbEntity
  8
0
100
AcDbLine
 10
125.0
 20
23.30000000000001
 30
0.0
 11
125.0
 21
-23.30000000000001
 31
0.0
  0
LINE
  5
6A55
330
68EC
100
AcDbEntity
  8
0
100
AcDbLine
 10
125.0
 20
23.30000000000001
 30
0.0
 11
121.5
 21
23.30000000000001
 31
0.0
  0
LINE
  5
6A56
330
68EC
100
AcDbEntity
  8
0
100
AcDbLine
 10
125.0
 20
-23.30000000000001
 30
0.0
 11
121.5
 21
-23.30000000000001
 31
0.0
  0
LINE
  5
6A57
330
68EC
100
AcDbEntity
  8
0
100
AcDbLine
 10
95.5
 20
0.0
 30
0.0
 11
152.0
 21
0.0
 31
0.0
  0
LINE
  5
6A58
330
68EC
100
AcDbEntity
  8
0
100
AcDbLine
 10
111.0
 20
32.30330085900002
 30
0.0
 11
112.696699141
 21
34.0
 31
0.0
  0
LINE
  5
6A59
330
68EC
100
AcDbEntity
  8
0
100
AcDbLine
 10
114.464466094
 20
34.0
 30
0.0
 11
111.0
 21
30.53553390599998
 31
0.0
  0
LINE
  5
6A5A
330
68EC
100
AcDbEntity
  8
0
100
AcDbLine
 10
111.0
 20
28.76776695300001
 30
0.0
 11
116.232233047
 21
34.0
 31
0.0
  0
LINE
  5
6A5B
330
68EC
100
AcDbEntity
  8
0
100
AcDbLine
 10
118.0
 20
34.0
 30
0.0
 11
112.0
 21
28.0
 31
0.0
  0
LINE
  5
6A5C
330
68EC
100
AcDbEntity
  8
0
100
AcDbLine
 10
113.767766953
 20
28.0
 30
0.0
 11
119.0
 21
33.23223304699999
 31
0.0
  0
LINE
  5
6A5D
330
68EC
100
AcDbEntity
  8
0
100
AcDbLine
 10
119.0
 20
31.46446609400002
 30
0.0
 11
115.5355339059999
 21
28.0
 31
0.0
  0
LINE
  5
6A5E
330
68EC
100
AcDbEntity
  8
0
100
AcDbLine
 10
117.303300859
 20
28.0
 30
0.0
 11
119.0
 21
29.69669914099998
 31
0.0
  0
LINE
  5
6A5F
330
68EC
100
AcDbEntity
  8
0
100
AcDbLine
 10
112.696699141
 20
28.0
 30
0.0
 11
111.0
 21
29.69669914099998
 31
0.0
  0
LINE
  5
6A60
330
68EC
100
AcDbEntity
  8
0
100
AcDbLine
 10
111.0
 20
31.46446609400002
 30
0.0
 11
114.464466094
 21
28.0
 31
0.0
  0
LINE
  5
6A61
330
68EC
100
AcDbEntity
  8
0
100
AcDbLine
 10
116.232233047
 20
28.0
 30
0.0
 11
111.0
 21
33.23223304699999
 31
0.0
  0
LINE
  5
6A62
330
68EC
100
AcDbEntity
  8
0
100
AcDbLine
 10
112.0
 20
34.0
 30
0.0
 11
118.0
 21
28.0
 31
0.0
  0
LINE
  5
6A63
330
68EC
100
AcDbEntity
  8
0
100
AcDbLine
 10
119.0
 20
28.76776695300001
 30
0.0
 11
113.767766953
 21
34.0
 31
0.0
  0
LINE
  5
6A64
330
68EC
100
AcDbEntity
  8
0
100
AcDbLine
 10
115.5355339059999
 20
34.0
 30
0.0
 11
119.0
 21
30.53553390599998
 31
0.0
  0
LINE
  5
6A65
330
68EC
100
AcDbEntity
  8
0
100
AcDbLine
 10
119.0
 20
32.30330085900002
 30
0.0
 11
117.303300859
 21
34.0
 31
0.0
  0
LINE
  5
6A66
330
68EC
100
AcDbEntity
  8
0
100
AcDbLine
 10
113.014466094
 20
-56.2
 30
0.0
 11
112.5
 21
-56.714466094
 31
0.0
  0
LINE
  5
6A67
330
68EC
100
AcDbEntity
  8
0
100
AcDbLine
 10
112.5
 20
-58.48223304700001
 30
0.0
 11
114.782233047
 21
-56.2
 31
0.0
  0
LINE
  5
6A68
330
68EC
100
AcDbEntity
  8
0
100
AcDbLine
 10
116.55
 20
-56.2
 30
0.0
 11
113.45
 21
-59.29999999999999
 31
0.0
  0
LINE
  5
6A69
330
68EC
100
AcDbEntity
  8
0
100
AcDbLine
 10
115.217766953
 20
-59.29999999999999
 30
0.0
 11
117.5
 21
-57.01776695299999
 31
0.0
  0
LINE
  5
6A6A
330
68EC
100
AcDbEntity
  8
0
100
AcDbLine
 10
117.5
 20
-58.785533906
 30
0.0
 11
116.9855339059999
 21
-59.29999999999999
 31
0.0
  0
LINE
  5
6A6B
330
68EC
100
AcDbEntity
  8
0
100
AcDbLine
 10
112.5
 20
-58.785533906
 30
0.0
 11
113.014466094
 21
-59.29999999999999
 31
0.0
  0
LINE
  5
6A6C
330
68EC
100
AcDbEntity
  8
0
100
AcDbLine
 10
114.782233047
 20
-59.29999999999999
 30
0.0
 11
112.5
 21
-57.01776695299999
 31
0.0
  0
LINE
  5
6A6D
330
68EC
100
AcDbEntity
  8
0
100
AcDbLine
 10
113.45
 20
-56.2
 30
0.0
 11
116.55
 21
-59.29999999999999
 31
0.0
  0
LINE
  5
6A6E
330
68EC
100
AcDbEntity
  8
0
100
AcDbLine
 10
117.5
 20
-58.48223304700001
 30
0.0
 11
115.217766953
 21
-56.2
 31
0.0
  0
LINE
  5
6A6F
330
68EC
100
AcDbEntity
  8
0
100
AcDbLine
 10
116.9855339059999
 20
-56.2
 30
0.0
 11
117.5
 21
-56.714466094
 31
0.0
  0
ARC
  5
6A70
330
68EC
100
AcDbEntity
  8
0
100
AcDbCircle
 10
140.0
 20
0.0
 30
0.0
 40
8.0
100
AcDbArc
 50
270.0
 51
90.0
  0
ARC
  5
6A71
330
68EC
100
AcDbEntity
  8
0
100
AcDbCircle
 10
129.334926129
 20
9.5
 30
0.0
 40
1.5
100
AcDbArc
 50
181.9909651369992
 51
270.0
  0
LINE
  5
6A72
330
68EC
100
AcDbEntity
  8
0
100
AcDbLine
 10
140.0
 20
8.0
 30
0.0
 11
129.334926129
 21
8.0
 31
0.0
  0
LINE
  5
6A73
330
68EC
100
AcDbEntity
  8
0
100
AcDbLine
 10
140.0
 20
-8.0
 30
0.0
 11
129.334926129
 21
-8.0
 31
0.0
  0
LINE
  5
6A74
330
68EC
100
AcDbEntity
  8
0
100
AcDbLine
 10
129.334926129
 20
7.599342077000017
 30
0.0
 11
140.0
 21
7.599342077000017
 31
0.0
  0
LINE
  5
6A75
330
68EC
100
AcDbEntity
  8
0
100
AcDbLine
 10
140.0
 20
-7.599342077000017
 30
0.0
 11
129.334926129
 21
-7.599342077000017
 31
0.0
  0
ARC
  5
6A76
330
68EC
100
AcDbEntity
  8
0
100
AcDbCircle
 10
140.0
 20
0.0
 30
0.0
 40
7.599342077
100
AcDbArc
 50
270.0
 51
90.0
  0
LINE
  5
6A77
330
68EC
100
AcDbEntity
  8
0
100
AcDbLine
 10
129.0
 20
7.637211957000005
 30
0.0
 11
129.0
 21
0.0
 31
0.0
  0
ARC
  5
6A78
330
68EC
100
AcDbEntity
  8
0
100
AcDbCircle
 10
129.334926129
 20
9.099342077000017
 30
0.0
 40
1.5
100
AcDbArc
 50
257.0980032639996
 51
270.0
  0
ARC
  5
6A79
330
68EC
100
AcDbEntity
  8
0
100
AcDbCircle
 10
129.334926129
 20
-9.5
 30
0.0
 40
1.5
100
AcDbArc
 50
90.0
 51
178.0090348630007
  0
ARC
  5
6A7A
330
68EC
100
AcDbEntity
  8
0
100
AcDbCircle
 10
129.334926129
 20
-9.099342077000017
 30
0.0
 40
1.5
100
AcDbArc
 50
90.0
 51
102.9019967360004
  0
LINE
  5
6A7B
330
68EC
100
AcDbEntity
  8
0
100
AcDbLine
 10
129.0
 20
-7.637211957000005
 30
0.0
 11
129.0
 21
0.0
 31
0.0
  0
LINE
  5
6A7C
330
68EC
100
AcDbEntity
  8
0
100
AcDbLine
 10
118.7
 20
28.0
 30
0.0
 11
118.7
 21
24.40000000000001
 31
0.0
  0
LINE
  5
6A7D
330
68EC
100
AcDbEntity
  8
0
100
AcDbLine
 10
111.3
 20
28.0
 30
0.0
 11
111.3
 21
24.40000000000001
 31
0.0
  0
LINE
  5
6A7E
330
68EC
100
AcDbEntity
  8
0
100
AcDbLine
 10
140.0
 20
5.0
 30
0.0
 11
140.0
 21
-5.0
 31
0.0
  0
CIRCLE
  5
6A7F
330
68EC
100
AcDbEntity
  8
0
100
AcDbCircle
 10
220.0
 20
0.0
 30
0.0
 40
24.5
  0
CIRCLE
  5
6A80
330
68EC
100
AcDbEntity
  8
0
100
AcDbCircle
 10
220.0
 20
0.0
 30
0.0
 40
8.0
  0
LINE
  5
6A81
330
68EC
100
AcDbEntity
  8
0
100
AcDbLine
 10
217.5
 20
-7.599342077000017
 30
0.0
 11
217.5
 21
7.599342077000017
 31
0.0
  0
ARC
  5
6A82
330
68EC
100
AcDbEntity
  8
0
100
AcDbCircle
 10
220.0
 20
0.0
 30
0.0
 40
26.4
100
AcDbArc
 50
98.05661386799982
 51
261.2852579810004
  0
ARC
  5
6A83
330
68EC
100
AcDbEntity
  8
0
100
AcDbCircle
 10
220.0
 20
34.155
 30
0.0
 40
7.344999999999999
100
AcDbArc
 50
59.75198538300002
 51
120.2480146169999
  0
POINT
  5
6A84
330
68EC
100
AcDbEntity
  8
0
100
AcDbPoint
 10
220.0
 20
41.5
 30
0.0
  0
POINT
  5
6A85
330
68EC
100
AcDbEntity
  8
0
100
AcDbPoint
 10
220.0
 20
8.0
 30
0.0
  0
POINT
  5
6A86
330
68EC
100
AcDbEntity
  8
0
100
AcDbPoint
 10
220.0
 20
-8.0
 30
0.0
  0
POINT
  5
6A87
330
68EC
100
AcDbEntity
  8
0
100
AcDbPoint
 10
217.5
 20
-7.599342077000017
 30
0.0
  0
POINT
  5
6A88
330
68EC
100
AcDbEntity
  8
0
100
AcDbPoint
 10
222.5
 20
-7.599342077000017
 30
0.0
  0
LINE
  5
6A89
330
68EC
100
AcDbEntity
  8
0
100
AcDbLine
 10
223.7
 20
40.49999999999999
 30
0.0
 11
223.7
 21
34.0
 31
0.0
  0
LINE
  5
6A8A
330
68EC
100
AcDbEntity
  8
0
100
AcDbLine
 10
216.3
 20
40.49999999999999
 30
0.0
 11
216.3
 21
34.0
 31
0.0
  0
LINE
  5
6A8B
330
68EC
100
AcDbEntity
  8
0
100
AcDbLine
 10
216.3
 20
28.0
 30
0.0
 11
216.3
 21
26.13943381200002
 31
0.0
  0
LINE
  5
6A8C
330
68EC
100
AcDbEntity
  8
0
100
AcDbLine
 10
223.7
 20
28.0
 30
0.0
 11
223.7
 21
26.13943381200002
 31
0.0
  0
LINE
  5
6A8D
330
68EC
100
AcDbEntity
  8
0
100
AcDbLine
 10
216.3
 20
40.49999999999999
 30
0.0
 11
223.7
 21
40.49999999999999
 31
0.0
  0
POINT
  5
6A8E
330
68EC
100
AcDbEntity
  8
0
100
AcDbPoint
 10
220.0
 20
41.5
 30
0.0
  0
LINE
  5
6A8F
330
68EC
100
AcDbEntity
  8
0
100
AcDbLine
 10
251.4
 20
0.0
 30
0.0
 11
188.6
 21
0.0
 31
0.0
  0
LINE
  5
6A90
330
68EC
100
AcDbEntity
  8
0
100
AcDbLine
 10
220.0
 20
-70.0
 30
0.0
 11
220.0
 21
46.5
 31
0.0
  0
LINE
  5
6A91
330
68EC
100
AcDbEntity
  8
0
100
AcDbLine
 10
216.0
 20
34.0
 30
0.0
 11
224.0
 21
34.0
 31
0.0
  0
LINE
  5
6A92
330
68EC
100
AcDbEntity
  8
0
100
AcDbLine
 10
216.0
 20
28.0
 30
0.0
 11
224.0
 21
28.0
 31
0.0
  0
LINE
  5
6A93
330
68EC
100
AcDbEntity
  8
0
100
AcDbLine
 10
224.0
 20
34.0
 30
0.0
 11
224.0
 21
28.0
 31
0.0
  0
LINE
  5
6A94
330
68EC
100
AcDbEntity
  8
0
100
AcDbLine
 10
216.0
 20
34.0
 30
0.0
 11
216.0
 21
28.0
 31
0.0
  0
LINE
  5
6A95
330
68EC
100
AcDbEntity
  8
0
100
AcDbLine
 10
218.0
 20
-45.0
 30
0.0
 11
218.0
 21
-56.0
 31
0.0
  0
LINE
  5
6A96
330
68EC
100
AcDbEntity
  8
0
100
AcDbLine
 10
222.0
 20
-45.0
 30
0.0
 11
222.0
 21
-56.0
 31
0.0
  0
LINE
  5
6A97
330
68EC
100
AcDbEntity
  8
0
100
AcDbLine
 10
223.6
 20
-43.0
 30
0.0
 11
223.6
 21
-44.79999999999999
 31
0.0
  0
LINE
  5
6A98
330
68EC
100
AcDbEntity
  8
0
100
AcDbLine
 10
216.4
 20
-44.79999999999999
 30
0.0
 11
216.4
 21
-43.0
 31
0.0
  0
LINE
  5
6A99
330
68EC
100
AcDbEntity
  8
0
100
AcDbLine
 10
223.4
 20
-45.0
 30
0.0
 11
216.6
 21
-45.0
 31
0.0
  0
LINE
  5
6A9A
330
68EC
100
AcDbEntity
  8
0
100
AcDbLine
 10
223.6
 20
-44.79999999999999
 30
0.0
 11
223.4
 21
-45.0
 31
0.0
  0
LINE
  5
6A9B
330
68EC
100
AcDbEntity
  8
0
100
AcDbLine
 10
216.4
 20
-44.79999999999999
 30
0.0
 11
216.6
 21
-45.0
 31
0.0
  0
LINE
  5
6A9C
330
68EC
100
AcDbEntity
  8
0
100
AcDbLine
 10
223.85
 20
-42.0
 30
0.0
 11
216.15
 21
-42.0
 31
0.0
  0
LINE
  5
6A9D
330
68EC
100
AcDbEntity
  8
0
100
AcDbLine
 10
223.6
 20
-43.0
 30
0.0
 11
216.4
 21
-43.0
 31
0.0
  0
LINE
  5
6A9E
330
68EC
100
AcDbEntity
  8
0
100
AcDbLine
 10
224.0
 20
-40.49999999999999
 30
0.0
 11
216.0
 21
-40.49999999999999
 31
0.0
  0
ARC
  5
6A9F
330
68EC
100
AcDbEntity
  8
0
100
AcDbCircle
 10
223.725
 20
-42.5
 30
0.0
 40
0.5153882030000001
100
AcDbArc
 50
75.96375653200006
 51
255.9637565320001
  0
LINE
  5
6AA0
330
68EC
100
AcDbEntity
  8
0
100
AcDbLine
 10
223.85
 20
-40.49999999999999
 30
0.0
 11
223.85
 21
-42.0
 31
0.0
  0
ARC
  5
6AA1
330
68EC
100
AcDbEntity
  8
0
100
AcDbCircle
 10
216.275
 20
-42.5
 30
0.0
 40
0.5153882030000001
100
AcDbArc
 50
284.0362434679999
 51
104.0362434679999
  0
LINE
  5
6AA2
330
68EC
100
AcDbEntity
  8
0
100
AcDbLine
 10
216.15
 20
-40.49999999999999
 30
0.0
 11
216.15
 21
-42.0
 31
0.0
  0
POINT
  5
6AA3
330
68EC
100
AcDbEntity
  8
0
100
AcDbPoint
 10
224.0
 20
-40.49999999999999
 30
0.0
  0
POINT
  5
6AA4
330
68EC
100
AcDbEntity
  8
0
100
AcDbPoint
 10
223.4
 20
-45.0
 30
0.0
  0
LINE
  5
6AA5
330
68EC
100
AcDbEntity
  8
0
100
AcDbLine
 10
218.7
 20
-64.0
 30
0.0
 11
221.3
 21
-64.0
 31
0.0
  0
ARC
  5
6AA6
330
68EC
100
AcDbEntity
  8
0
100
AcDbCircle
 10
220.0
 20
-63.84999999999999
 30
0.0
 40
1.149999999999999
100
AcDbArc
 50
187.4947174540002
 51
352.5052825459998
  0
LINE
  5
6AA7
330
68EC
100
AcDbEntity
  8
0
100
AcDbLine
 10
217.75
 20
-59.5
 30
0.0
 11
218.7
 21
-64.0
 31
0.0
  0
POINT
  5
6AA8
330
68EC
100
AcDbEntity
  8
0
100
AcDbPoint
 10
220.0
 20
-65.0
 30
0.0
  0
LINE
  5
6AA9
330
68EC
100
AcDbEntity
  8
0
100
AcDbLine
 10
222.25
 20
-59.5
 30
0.0
 11
221.3
 21
-64.0
 31
0.0
  0
LINE
  5
6AAA
330
68EC
100
AcDbEntity
  8
0
100
AcDbLine
 10
217.75
 20
-56.0
 30
0.0
 11
222.25
 21
-56.0
 31
0.0
  0
LINE
  5
6AAB
330
68EC
100
AcDbEntity
  8
0
100
AcDbLine
 10
217.5
 20
-56.2
 30
0.0
 11
217.5
 21
-59.29999999999999
 31
0.0
  0
LINE
  5
6AAC
330
68EC
100
AcDbEntity
  8
0
100
AcDbLine
 10
222.5
 20
-56.2
 30
0.0
 11
222.5
 21
-59.29999999999999
 31
0.0
  0
LINE
  5
6AAD
330
68EC
100
AcDbEntity
  8
0
100
AcDbLine
 10
222.25
 20
-59.5
 30
0.0
 11
217.75
 21
-59.5
 31
0.0
  0
LINE
  5
6AAE
330
68EC
100
AcDbEntity
  8
0
100
AcDbLine
 10
222.5
 20
-59.29999999999999
 30
0.0
 11
217.5
 21
-59.29999999999999
 31
0.0
  0
LINE
  5
6AAF
330
68EC
100
AcDbEntity
  8
0
100
AcDbLine
 10
222.5
 20
-59.29999999999999
 30
0.0
 11
222.25
 21
-59.5
 31
0.0
  0
LINE
  5
6AB0
330
68EC
100
AcDbEntity
  8
0
100
AcDbLine
 10
217.5
 20
-59.29999999999999
 30
0.0
 11
217.75
 21
-59.5
 31
0.0
  0
LINE
  5
6AB1
330
68EC
100
AcDbEntity
  8
0
100
AcDbLine
 10
222.5
 20
-56.2
 30
0.0
 11
217.5
 21
-56.2
 31
0.0
  0
LINE
  5
6AB2
330
68EC
100
AcDbEntity
  8
0
100
AcDbLine
 10
222.25
 20
-56.0
 30
0.0
 11
222.5
 21
-56.2
 31
0.0
  0
POINT
  5
6AB3
330
68EC
100
AcDbEntity
  8
0
100
AcDbPoint
 10
222.25
 20
-56.0
 30
0.0
  0
LINE
  5
6AB4
330
68EC
100
AcDbEntity
  8
0
100
AcDbLine
 10
217.75
 20
-56.0
 30
0.0
 11
217.5
 21
-56.2
 31
0.0
  0
POINT
  5
6AB5
330
68EC
100
AcDbEntity
  8
0
100
AcDbPoint
 10
217.75
 20
-56.0
 30
0.0
  0
LINE
  5
6AB6
330
68EC
100
AcDbEntity
  8
0
100
AcDbLine
 10
216.0
 20
-24.171263931
 30
0.0
 11
216.0
 21
-40.49999999999999
 31
0.0
  0
LINE
  5
6AB7
330
68EC
100
AcDbEntity
  8
0
100
AcDbLine
 10
224.0
 20
-24.171263931
 30
0.0
 11
224.0
 21
-40.49999999999999
 31
0.0
  0
CIRCLE
  5
6AB8
330
68EC
100
AcDbEntity
  8
0
100
AcDbCircle
 10
220.0
 20
0.0
 30
0.0
 40
23.1
  0
ARC
  5
6AB9
330
68EC
100
AcDbEntity
  8
0
100
AcDbCircle
 10
220.0
 20
0.0
 30
0.0
 40
26.4
100
AcDbArc
 50
278.7147420189996
 51
53.88935375099976
  0
ARC
  5
6ABA
330
68EC
100
AcDbEntity
  8
0
100
AcDbCircle
 10
220.0
 20
0.0
 30
0.0
 40
26.4
100
AcDbArc
 50
66.11064624899984
 51
81.94338613200017
  0
CIRCLE
  5
6ABB
330
68EC
100
AcDbEntity
  8
0
100
AcDbCircle
 10
220.0
 20
0.0
 30
0.0
 40
21.142492757
  0
ARC
  5
6ABC
330
68EC
100
AcDbEntity
  8
0
100
AcDbCircle
 10
233.178632795
 20
22.82606157500001
 30
0.0
 40
7.64273441
100
AcDbArc
 50
42.4120462260005
 51
77.58795377400017
  0
ARC
  5
6ABD
330
68EC
100
AcDbEntity
  8
0
100
AcDbCircle
 10
232.977670901
 20
29.40618859400002
 30
0.0
 40
2.044658199
100
AcDbArc
 50
25.61575253200054
 51
94.38424746800013
  0
LINE
  5
6ABE
330
68EC
100
AcDbEntity
  8
0
100
AcDbLine
 10
233.535898385
 20
31.44486372900002
 30
0.0
 11
232.821367205
 21
31.44486372900002
 31
0.0
  0
LINE
  5
6ABF
330
68EC
100
AcDbEntity
  8
0
100
AcDbLine
 10
233.535898385
 20
31.44486372900002
 30
0.0
 11
240.464101615
 21
27.44486372900002
 31
0.0
  0
LINE
  5
6AC0
330
68EC
100
AcDbEntity
  8
0
100
AcDbLine
 10
231.5
 20
24.53738644099999
 30
0.0
 11
234.821367205
 21
30.29016318999999
 31
0.0
  0
ARC
  5
6AC1
330
68EC
100
AcDbEntity
  8
0
100
AcDbCircle
 10
238.977670901
 20
25.94208697900001
 30
0.0
 40
2.044658199
100
AcDbArc
 50
25.61575253200054
 51
94.38424746800013
  0
LINE
  5
6AC2
330
68EC
100
AcDbEntity
  8
0
100
AcDbLine
 10
240.464101615
 20
27.44486372900002
 30
0.0
 11
240.821367205
 21
26.82606157500001
 31
0.0
  0
LINE
  5
6AC3
330
68EC
100
AcDbEntity
  8
0
100
AcDbLine
 10
237.5
 20
21.073284825
 30
0.0
 11
240.821367205
 21
26.82606157500001
 31
0.0
  0
LINE
  5
6AC4
330
68EC
100
AcDbEntity
  8
0
100
AcDbLine
 10
235.5
 20
22.227985364
 30
0.0
 11
238.821367205
 21
27.98076211400001
 31
0.0
  0
LINE
  5
6AC5
330
68EC
100
AcDbEntity
  8
0
100
AcDbLine
 10
229.5
 20
25.69208697900001
 30
0.0
 11
232.821367205
 21
31.44486372900002
 31
0.0
  0
LINE
  5
6AC6
330
68EC
100
AcDbEntity
  8
0
100
AcDbLine
 10
229.5
 20
25.69208697900001
 30
0.0
 11
237.5
 21
21.073284825
 31
0.0
  0
LINE
  5
6AC7
330
68EC
100
AcDbEntity
  8
0
100
AcDbLine
 10
230.468911087
 20
25.13268590200002
 30
0.0
 11
230.093911087
 21
24.48316684900002
 31
0.0
  0
LINE
  5
6AC8
330
68EC
100
AcDbEntity
  8
0
100
AcDbLine
 10
231.11843014
 20
24.75768590200002
 30
0.0
 11
230.74343014
 21
24.10816684900002
 31
0.0
  0
LINE
  5
6AC9
330
68EC
100
AcDbEntity
  8
0
100
AcDbLine
 10
230.093911087
 20
24.48316684900002
 30
0.0
 11
236.156088913
 21
20.98316684900002
 31
0.0
  0
LINE
  5
6ACA
330
68EC
100
AcDbEntity
  8
0
100
AcDbLine
 10
236.531088913
 20
21.63268590200002
 30
0.0
 11
236.156088913
 21
20.98316684900002
 31
0.0
  0
LINE
  5
6ACB
330
68EC
100
AcDbEntity
  8
0
100
AcDbLine
 10
235.88156986
 20
22.00768590200002
 30
0.0
 11
235.50656986
 21
21.35816684900001
 31
0.0
  0
LINE
  5
6ACC
330
68EC
100
AcDbEntity
  8
0
100
AcDbLine
 10
228.5
 20
23.96003617099998
 30
0.0
 11
236.5
 21
19.34123401799999
 31
0.0
  0
LINE
  5
6ACD
330
68EC
100
AcDbEntity
  8
0
100
AcDbLine
 10
234.88156986
 20
20.27563509500001
 30
0.0
 11
235.50656986
 21
21.35816684900001
 31
0.0
  0
LINE
  5
6ACE
330
68EC
100
AcDbEntity
  8
0
100
AcDbLine
 10
234.195456804
 20
19.968450268
 30
0.0
 11
234.5
 21
20.49593455599998
 31
0.0
  0
LINE
  5
6ACF
330
68EC
100
AcDbEntity
  8
0
100
AcDbLine
 10
236.030343581
 20
18.52776523700001
 30
0.0
 11
236.5
 21
19.34123401799999
 31
0.0
  0
LINE
  5
6AD0
330
68EC
100
AcDbEntity
  8
0
100
AcDbLine
 10
228.030343581
 20
23.14656739099999
 30
0.0
 11
228.5
 21
23.96003617099998
 31
0.0
  0
LINE
  5
6AD1
330
68EC
100
AcDbEntity
  8
0
100
AcDbLine
 10
230.11843014
 20
23.02563509500001
 30
0.0
 11
230.74343014
 21
24.10816684900002
 31
0.0
  0
LINE
  5
6AD2
330
68EC
100
AcDbEntity
  8
0
100
AcDbLine
 10
230.195456804
 20
22.27785134499999
 30
0.0
 11
230.5
 21
22.805335633
 31
0.0
  0
LINE
  5
6AD3
330
68EC
100
AcDbEntity
  8
0
100
AcDbLine
 10
222.5
 20
-7.599342077000017
 30
0.0
 11
222.5
 21
7.599342077000017
 31
0.0
  0
LINE
  5
6AD4
330
68EC
100
AcDbEntity
  8
0
100
AcDbLine
 10
217.5
 20
3.25
 30
0.0
 11
222.5
 21
3.25
 31
0.0
  0
LINE
  5
6AD5
330
68EC
100
AcDbEntity
  8
0
100
AcDbLine
 10
217.5
 20
-3.25
 30
0.0
 11
222.5
 21
-3.25
 31
0.0
  0
LINE
  5
6AD6
330
68EC
100
AcDbEntity
  8
0
100
AcDbLine
 10
221.985533906
 20
-56.2
 30
0.0
 11
222.5
 21
-56.714466094
 31
0.0
  0
LINE
  5
6AD7
330
68EC
100
AcDbEntity
  8
0
100
AcDbLine
 10
222.5
 20
-58.48223304700001
 30
0.0
 11
220.217766953
 21
-56.2
 31
0.0
  0
LINE
  5
6AD8
330
68EC
100
AcDbEntity
  8
0
100
AcDbLine
 10
218.45
 20
-56.2
 30
0.0
 11
221.55
 21
-59.29999999999999
 31
0.0
  0
LINE
  5
6AD9
330
68EC
100
AcDbEntity
  8
0
100
AcDbLine
 10
219.782233047
 20
-59.29999999999999
 30
0.0
 11
217.5
 21
-57.01776695299999
 31
0.0
  0
LINE
  5
6ADA
330
68EC
100
AcDbEntity
  8
0
100
AcDbLine
 10
217.5
 20
-58.785533906
 30
0.0
 11
218.014466094
 21
-59.29999999999999
 31
0.0
  0
LINE
  5
6ADB
330
68EC
100
AcDbEntity
  8
0
100
AcDbLine
 10
222.5
 20
-58.785533906
 30
0.0
 11
221.985533906
 21
-59.29999999999999
 31
0.0
  0
LINE
  5
6ADC
330
68EC
100
AcDbEntity
  8
0
100
AcDbLine
 10
220.217766953
 20
-59.29999999999999
 30
0.0
 11
222.5
 21
-57.01776695299999
 31
0.0
  0
LINE
  5
6ADD
330
68EC
100
AcDbEntity
  8
0
100
AcDbLine
 10
221.55
 20
-56.2
 30
0.0
 11
218.45
 21
-59.29999999999999
 31
0.0
  0
LINE
  5
6ADE
330
68EC
100
AcDbEntity
  8
0
100
AcDbLine
 10
217.5
 20
-58.48223304700001
 30
0.0
 11
219.782233047
 21
-56.2
 31
0.0
  0
LINE
  5
6ADF
330
68EC
100
AcDbEntity
  8
0
100
AcDbLine
 10
218.014466094
 20
-56.2
 30
0.0
 11
217.5
 21
-56.714466094
 31
0.0
  0
LINE
  5
6AE0
330
68EC
100
AcDbEntity
  8
0
100
AcDbLine
 10
224.0
 20
32.30330085900002
 30
0.0
 11
222.303300859
 21
34.0
 31
0.0
  0
LINE
  5
6AE1
330
68EC
100
AcDbEntity
  8
0
100
AcDbLine
 10
220.535533906
 20
34.0
 30
0.0
 11
224.0
 21
30.53553390599998
 31
0.0
  0
LINE
  5
6AE2
330
68EC
100
AcDbEntity
  8
0
100
AcDbLine
 10
224.0
 20
28.76776695300001
 30
0.0
 11
218.767766953
 21
34.0
 31
0.0
  0
LINE
  5
6AE3
330
68EC
100
AcDbEntity
  8
0
100
AcDbLine
 10
217.0
 20
34.0
 30
0.0
 11
223.0
 21
28.0
 31
0.0
  0
LINE
  5
6AE4
330
68EC
100
AcDbEntity
  8
0
100
AcDbLine
 10
221.232233047
 20
28.0
 30
0.0
 11
216.0
 21
33.23223304699999
 31
0.0
  0
LINE
  5
6AE5
330
68EC
100
AcDbEntity
  8
0
100
AcDbLine
 10
216.0
 20
31.46446609400002
 30
0.0
 11
219.464466094
 21
28.0
 31
0.0
  0
LINE
  5
6AE6
330
68EC
100
AcDbEntity
  8
0
100
AcDbLine
 10
217.696699141
 20
28.0
 30
0.0
 11
216.0
 21
29.69669914099998
 31
0.0
  0
LINE
  5
6AE7
330
68EC
100
AcDbEntity
  8
0
100
AcDbLine
 10
222.303300859
 20
28.0
 30
0.0
 11
224.0
 21
29.69669914099998
 31
0.0
  0
LINE
  5
6AE8
330
68EC
100
AcDbEntity
  8
0
100
AcDbLine
 10
224.0
 20
31.46446609400002
 30
0.0
 11
220.535533906
 21
28.0
 31
0.0
  0
LINE
  5
6AE9
330
68EC
100
AcDbEntity
  8
0
100
AcDbLine
 10
218.767766953
 20
28.0
 30
0.0
 11
224.0
 21
33.23223304699999
 31
0.0
  0
LINE
  5
6AEA
330
68EC
100
AcDbEntity
  8
0
100
AcDbLine
 10
223.0
 20
34.0
 30
0.0
 11
217.0
 21
28.0
 31
0.0
  0
LINE
  5
6AEB
330
68EC
100
AcDbEntity
  8
0
100
AcDbLine
 10
216.0
 20
28.76776695300001
 30
0.0
 11
221.232233047
 21
34.0
 31
0.0
  0
LINE
  5
6AEC
330
68EC
100
AcDbEntity
  8
0
100
AcDbLine
 10
219.464466094
 20
34.0
 30
0.0
 11
216.0
 21
30.53553390599998
 31
0.0
  0
LINE
  5
6AED
330
68EC
100
AcDbEntity
  8
0
100
AcDbLine
 10
216.0
 20
32.30330085900002
 30
0.0
 11
217.696699141
 21
34.0
 31
0.0
  0
ARC
  5
6AEE
330
68EC
100
AcDbEntity
  8
0
100
AcDbCircle
 10
220.0
 20
0.0
 30
0.0
 40
25.0
100
AcDbArc
 50
98.51104137499989
 51
49.35332117300024
  0
ARC
  5
6AEF
330
68EC
100
AcDbEntity
  8
0
100
AcDbCircle
 10
220.0
 20
0.0
 30
0.0
 40
25.0
100
AcDbArc
 50
70.64667882700009
 51
81.4889586250001
  0
LINE
  5
6AF0
330
68EC
100
AcDbEntity
  8
0
100
AcDbLine
 10
223.7
 20
28.0
 30
0.0
 11
223.7
 21
24.21900080500001
 31
0.0
  0
LINE
  5
6AF1
330
68EC
100
AcDbEntity
  8
0
100
AcDbLine
 10
216.3
 20
28.0
 30
0.0
 11
216.3
 21
24.21900080500001
 31
0.0
  0
LINE
  5
6AF2
330
68EC
100
AcDbEntity
  8
0
100
AcDbLine
 10
235.267952496
 20
30.44486182099999
 30
0.0
 11
245.267952496
 21
47.765369897
 31
0.0
  0
LINE
  5
6AF3
330
68EC
100
AcDbEntity
  8
0
100
AcDbLine
 10
238.732054111
 20
28.44486182099999
 30
0.0
 11
248.732054111
 21
45.765369897
 31
0.0
  0
ARC
  5
6AF4
330
68EC
100
AcDbEntity
  8
0
100
AcDbCircle
 10
245.7589779
 20
46.61585084400002
 30
0.0
 40
1.25
100
AcDbArc
 50
6.86989764700066
 51
113.1301023529998
  0
ARC
  5
6AF5
330
68EC
100
AcDbEntity
  8
0
100
AcDbCircle
 10
247.4910287069999
 20
45.61585084400002
 30
0.0
 40
1.25
100
AcDbArc
 50
6.869897644999687
 51
113.1301023540001
  0
ARC
  5
6AF6
330
68EC
100
AcDbEntity
  8
0
100
AcDbCircle
 10
248.2410287069999
 20
46.91488895
 30
0.0
 40
1.25
100
AcDbArc
 50
186.8698976470006
 51
293.1301023529998
  0
LINE
  5
6AF7
330
68EC
100
AcDbEntity
  8
0
100
AcDbLine
 10
249.5
 20
51.09549882299998
 30
0.0
 11
229.75
 21
16.88749537400002
 31
0.0
  0
CIRCLE
  5
6AF8
330
68EC
100
AcDbEntity
  8
0
100
AcDbCircle
 10
205.05
 20
14.94999999999999
 30
0.0
 40
2.0
  0
LINE
  5
6AF9
330
68EC
100
AcDbEntity
  8
0
100
AcDbLine
 10
206.171435061
 20
14.94999999999999
 30
0.0
 11
203.928564939
 21
14.94999999999999
 31
0.0
  0
LINE
  5
6AFA
330
68EC
100
AcDbEntity
  8
0
100
AcDbLine
 10
205.05
 20
16.07143506099999
 30
0.0
 11
205.05
 21
13.82856493900002
 31
0.0
  0
LINE
  5
6AFB
330
68EC
100
AcDbEntity
  8
0
100
AcDbLine
 10
202.928679656
 20
17.07132034400001
 30
0.0
 11
207.171320344
 21
12.82867965599999
 31
0.0
  0
CIRCLE
  5
6AFC
330
68EC
100
AcDbEntity
  8
0
100
AcDbCircle
 10
205.05
 20
-14.94999999999999
 30
0.0
 40
2.0
  0
LINE
  5
6AFD
330
68EC
100
AcDbEntity
  8
0
100
AcDbLine
 10
205.05
 20
-13.82856493899999
 30
0.0
 11
205.05
 21
-16.07143506100001
 31
0.0
  0
LINE
  5
6AFE
330
68EC
100
AcDbEntity
  8
0
100
AcDbLine
 10
203.928564939
 20
-14.94999999999999
 30
0.0
 11
206.171435061
 21
-14.94999999999999
 31
0.0
  0
LINE
  5
6AFF
330
68EC
100
AcDbEntity
  8
0
100
AcDbLine
 10
202.928679656
 20
-17.07132034399998
 30
0.0
 11
207.171320344
 21
-12.82867965599999
 31
0.0
  0
CIRCLE
  5
6B00
330
68EC
100
AcDbEntity
  8
0
100
AcDbCircle
 10
234.95
 20
-14.94999999999999
 30
0.0
 40
2.0
  0
LINE
  5
6B01
330
68EC
100
AcDbEntity
  8
0
100
AcDbLine
 10
233.828564939
 20
-14.94999999999999
 30
0.0
 11
236.071435061
 21
-14.94999999999999
 31
0.0
  0
LINE
  5
6B02
330
68EC
100
AcDbEntity
  8
0
100
AcDbLine
 10
234.95
 20
-16.07143506100001
 30
0.0
 11
234.95
 21
-13.82856493899999
 31
0.0
  0
LINE
  5
6B03
330
68EC
100
AcDbEntity
  8
0
100
AcDbLine
 10
237.071320344
 20
-17.07132034399998
 30
0.0
 11
232.828679656
 21
-12.82867965599999
 31
0.0
  0
CIRCLE
  5
6B04
330
68EC
100
AcDbEntity
  8
0
100
AcDbCircle
 10
234.95
 20
14.94999999999999
 30
0.0
 40
2.0
  0
LINE
  5
6B05
330
68EC
100
AcDbEntity
  8
0
100
AcDbLine
 10
234.95
 20
13.82856493900002
 30
0.0
 11
234.95
 21
16.07143506099999
 31
0.0
  0
LINE
  5
6B06
330
68EC
100
AcDbEntity
  8
0
100
AcDbLine
 10
236.071435061
 20
14.94999999999999
 30
0.0
 11
233.828564939
 21
14.94999999999999
 31
0.0
  0
LINE
  5
6B07
330
68EC
100
AcDbEntity
  8
0
100
AcDbLine
 10
237.071320344
 20
17.07132034400001
 30
0.0
 11
232.828679656
 21
12.82867965599999
 31
0.0
  0
ENDBLK
  5
6B09
330
68EC
100
AcDbEntity
  8
0
100
AcDbBlockEnd
  0
BLOCK
  5
CA00
330
C9FF
100
AcDbEntity
  8
0
100
AcDbBlockBegin
  2
*U20
 70
     1
 10
0.0
 20
0.0
 30
0.0
  3
*U20
  1

  0
CIRCLE
  5
CA01
330
C9FF
100
AcDbEntity
  8
011形状
100
AcDbCircle
 10
0.0
 20
0.0000000000000085
 30
0.0
 40
0.63
  0
CIRCLE
  5
CA02
330
C9FF
100
AcDbEntity
  8
011形状
 62
     1
100
AcDbCircle
 10
0.0
 20
0.0000000000000085
 30
0.0
 40
0.75
  0
ENDBLK
  5
CA03
330
C9FF
100
AcDbEntity
  8
0
100
AcDbBlockEnd
  0
BLOCK
  5
CA10
330
CA0F
100
AcDbEntity
  8
0
100
AcDbBlockBegin
  2
*U22
 70
     1
 10
0.0
 20
0.0
 30
0.0
  3
*U22
  1

  0
LINE
  5
CA11
330
CA0F
100
AcDbEntity
  8
001センタ
100
AcDbLine
 10
0.0
 20
-1.5
 30
0.0
 11
0.0
 21
1.5
 31
0.0
  0
ENDBLK
  5
CA12
330
CA0F
100
AcDbEntity
  8
0
100
AcDbBlockEnd
  0
BLOCK
  5
CC4F
330
CC4E
100
AcDbEntity
  8
0
100
AcDbBlockBegin
  2
*D33
 70
     1
 10
0.0
 20
0.0
 30
0.0
  3
*D33
  1

  0
LINE
  5
CC50
330
CC4E
100
AcDbEntity
  8
002寸法
440
 16777216
100
AcDbLine
 10
38.0
 20
101.0
 30
0.0
 11
38.0
 21
84.25
 31
0.0
  0
LINE
  5
CC51
330
CC4E
100
AcDbEntity
  8
002寸法
440
 16777216
100
AcDbLine
 10
63.0
 20
99.50000000000001
 30
0.0
 11
63.0
 21
84.25
 31
0.0
  0
LINE
  5
CC52
330
CC4E
100
AcDbEntity
  8
002寸法
440
 16777216
100
AcDbLine
 10
40.49999999999999
 20
85.0
 30
0.0
 11
60.5
 21
85.0
 31
0.0
  0
INSERT
  5
CC53
330
CC4E
100
AcDbEntity
  8
002寸法
440
 16777216
100
AcDbBlockReference
  2
_OPEN
 10
38.0
 20
85.0
 30
0.0
 41
2.5
 42
2.5
 43
2.5
 50
180.0
  0
INSERT
  5
CC54
330
CC4E
100
AcDbEntity
  8
002寸法
440
 16777216
100
AcDbBlockReference
  2
_OPEN
 10
63.0
 20
85.0
 30
0.0
 41
2.5
 42
2.5
 43
2.5
  0
MTEXT
  5
CC55
330
CC4E
100
AcDbEntity
  8
002寸法
 62
     2
440
 16777216
100
AcDbMText
 10
50.5
 20
87.0
 30
0.0
 40
3.0
 41
0.0
 46
0.0
 71
     5
 72
     1
  1
25
 73
     1
 44
1.0
  0
POINT
  5
CC56
330
CC4E
100
AcDbEntity
  8
DEFPOINTS
 62
     0
440
 16777216
100
AcDbPoint
 10
38.0
 20
101.5
 30
0.0
  0
POINT
  5
CC57
330
CC4E
100
AcDbEntity
  8
DEFPOINTS
 62
     0
440
 16777216
100
AcDbPoint
 10
63.0
 20
100.0
 30
0.0
  0
POINT
  5
CC58
330
CC4E
100
AcDbEntity
  8
DEFPOINTS
 62
     0
440
 16777216
100
AcDbPoint
 10
63.0
 20
85.0
 30
0.0
  0
ENDBLK
  5
CC59
330
CC4E
100
AcDbEntity
  8
0
100
AcDbBlockEnd
  0
BLOCK
  5
CC5B
330
CC5A
100
AcDbEntity
  8
0
100
AcDbBlockBegin
  2
*D34
 70
     1
 10
0.0
 20
0.0
 30
0.0
  3
*D34
  1

  0
LINE
  5
CC5C
330
CC5A
100
AcDbEntity
  8
002寸法
440
 16777216
100
AcDbLine
 10
63.0
 20
99.50000000000001
 30
0.0
 11
63.0
 21
84.25
 31
0.0
  0
LINE
  5
CC5D
330
CC5A
100
AcDbEntity
  8
002寸法
440
 16777216
100
AcDbLine
 10
77.0
 20
99.50000000000001
 30
0.0
 11
77.0
 21
84.25
 31
0.0
  0
LINE
  5
CC5E
330
CC5A
100
AcDbEntity
  8
002寸法
440
 16777216
100
AcDbLine
 10
65.5
 20
85.0
 30
0.0
 11
74.5
 21
85.0
 31
0.0
  0
INSERT
  5
CC5F
330
CC5A
100
AcDbEntity
  8
002寸法
440
 16777216
100
AcDbBlockReference
  2
_OPEN
 10
63.0
 20
85.0
 30
0.0
 41
2.5
 42
2.5
 43
2.5
 50
180.0
  0
INSERT
  5
CC60
330
CC5A
100
AcDbEntity
  8
002寸法
440
 16777216
100
AcDbBlockReference
  2
_OPEN
 10
77.0
 20
85.0
 30
0.0
 41
2.5
 42
2.5
 43
2.5
  0
MTEXT
  5
CC61
330
CC5A
100
AcDbEntity
  8
002寸法
 62
     2
440
 16777216
100
AcDbMText
 10
70.0
 20
87.0
 30
0.0
 40
3.0
 41
0.0
 46
0.0
 71
     5
 72
     1
  1
14
 73
     1
 44
1.0
  0
POINT
  5
CC62
330
CC5A
100
AcDbEntity
  8
DEFPOINTS
 62
     0
440
 16777216
100
AcDbPoint
 10
63.0
 20
100.0
 30
0.0
  0
POINT
  5
CC63
330
CC5A
100
AcDbEntity
  8
DEFPOINTS
 62
     0
440
 16777216
100
AcDbPoint
 10
77.0
 20
100.0
 30
0.0
  0
POINT
  5
CC64
330
CC5A
100
AcDbEntity
  8
DEFPOINTS
 62
     0
440
 16777216
100
AcDbPoint
 10
77.0
 20
85.0
 30
0.0
  0
ENDBLK
  5
CC65
330
CC5A
100
AcDbEntity
  8
0
100
AcDbBlockEnd
  0
BLOCK
  5
CC67
330
CC66
100
AcDbEntity
  8
0
100
AcDbBlockBegin
  2
*D35
 70
     1
 10
0.0
 20
0.0
 30
0.0
  3
*D35
  1

  0
LINE
  5
CC68
330
CC66
100
AcDbEntity
  8
002寸法
440
 16777216
100
AcDbLine
 10
77.5
 20
100.0
 30
0.0
 11
92.75
 21
100.0
 31
0.0
  0
LINE
  5
CC69
330
CC66
100
AcDbEntity
  8
002寸法
440
 16777216
100
AcDbLine
 10
77.5
 20
115.0
 30
0.0
 11
92.75
 21
115.0
 31
0.0
  0
LINE
  5
CC6A
330
CC66
100
AcDbEntity
  8
002寸法
440
 16777216
100
AcDbLine
 10
92.0
 20
102.5
 30
0.0
 11
92.0
 21
112.5
 31
0.0
  0
INSERT
  5
CC6B
330
CC66
100
AcDbEntity
  8
002寸法
440
 16777216
100
AcDbBlockReference
  2
_OPEN
 10
92.0
 20
100.0
 30
0.0
 41
2.5
 42
2.5
 43
2.5
 50
270.0
  0
INSERT
  5
CC6C
330
CC66
100
AcDbEntity
  8
002寸法
440
 16777216
100
AcDbBlockReference
  2
_OPEN
 10
92.0
 20
115.0
 30
0.0
 41
2.5
 42
2.5
 43
2.5
 50
90.0
  0
MTEXT
  5
CC6D
330
CC66
100
AcDbEntity
  8
002寸法
 62
     2
440
 16777216
100
AcDbMText
 10
89.99999999999998
 20
107.5
 30
0.0
 40
3.0
 41
0.0
 46
0.0
 71
     5
 72
     1
  1
15
 11
0.0000000000000001
 21
1.0
 31
0.0
 73
     1
 44
1.0
  0
POINT
  5
CC6E
330
CC66
100
AcDbEntity
  8
DEFPOINTS
 62
     0
440
 16777216
100
AcDbPoint
 10
77.0
 20
100.0
 30
0.0
  0
POINT
  5
CC6F
330
CC66
100
AcDbEntity
  8
DEFPOINTS
 62
     0
440
 16777216
100
AcDbPoint
 10
77.0
 20
115.0
 30
0.0
  0
POINT
  5
CC70
330
CC66
100
AcDbEntity
  8
DEFPOINTS
 62
     0
440
 16777216
100
AcDbPoint
 10
92.0
 20
115.0
 30
0.0
  0
ENDBLK
  5
CC71
330
CC66
100
AcDbEntity
  8
0
100
AcDbBlockEnd
  0
BLOCK
  5
CC73
330
CC72
100
AcDbEntity
  8
0
100
AcDbBlockBegin
  2
*D36
 70
     1
 10
0.0
 20
0.0
 30
0.0
  3
*D36
  1

  0
LINE
  5
CC74
330
CC72
100
AcDbEntity
  8
002寸法
440
 16777216
100
AcDbLine
 10
113.0
 20
99.50000000000001
 30
0.0
 11
113.0
 21
84.25
 31
0.0
  0
LINE
  5
CC75
330
CC72
100
AcDbEntity
  8
002寸法
440
 16777216
100
AcDbLine
 10
127.0
 20
99.50000000000001
 30
0.0
 11
127.0
 21
84.25
 31
0.0
  0
LINE
  5
CC76
330
CC72
100
AcDbEntity
  8
002寸法
440
 16777216
100
AcDbLine
 10
115.5
 20
85.0
 30
0.0
 11
124.5
 21
85.0
 31
0.0
  0
INSERT
  5
CC77
330
CC72
100
AcDbEntity
  8
002寸法
440
 16777216
100
AcDbBlockReference
  2
_OPEN
 10
113.0
 20
85.0
 30
0.0
 41
2.5
 42
2.5
 43
2.5
 50
180.0
  0
INSERT
  5
CC78
330
CC72
100
AcDbEntity
  8
002寸法
440
 16777216
100
AcDbBlockReference
  2
_OPEN
 10
127.0
 20
85.0
 30
0.0
 41
2.5
 42
2.5
 43
2.5
  0
MTEXT
  5
CC79
330
CC72
100
AcDbEntity
  8
002寸法
 62
     2
440
 16777216
100
AcDbMText
 10
120.0
 20
87.0
 30
0.0
 40
3.0
 41
0.0
 46
0.0
 71
     5
 72
     1
  1
14
 73
     1
 44
1.0
  0
POINT
  5
CC7A
330
CC72
100
AcDbEntity
  8
DEFPOINTS
 62
     0
440
 16777216
100
AcDbPoint
 10
113.0
 20
100.0
 30
0.0
  0
POINT
  5
CC7B
330
CC72
100
AcDbEntity
  8
DEFPOINTS
 62
     0
440
 16777216
100
AcDbPoint
 10
127.0
 20
100.0
 30
0.0
  0
POINT
  5
CC7C
330
CC72
100
AcDbEntity
  8
DEFPOINTS
 62
     0
440
 16777216
100
AcDbPoint
 10
127.0
 20
85.0
 30
0.0
  0
ENDBLK
  5
CC7D
330
CC72
100
AcDbEntity
  8
0
100
AcDbBlockEnd
  0
BLOCK
  5
CC90
330
CC7E
100
AcDbEntity
  8
0
100
AcDbBlockBegin
  2
A$C77E44210
 70
     0
 10
0.0
 20
0.0
 30
0.0
  3
A$C77E44210
  1

  0
LWPOLYLINE
  5
CC7F
330
CC7E
100
AcDbEntity
  8
011形状
100
AcDbPolyline
 90
        4
 70
     1
 43
0.0
 10
0.0
 20
0.0
 10
0.0
 20
15.0
 10
-14.0
 20
15.0
 10
-14.0
 20
0.0
  0
POINT
  5
CC80
330
CC7E
100
AcDbEntity
  8
011形状
100
AcDbPoint
 10
-39.0
 20
5.75
 30
0.0
  0
LINE
  5
CC81
330
CC7E
100
AcDbEntity
  8
011形状
100
AcDbLine
 10
-26.0
 20
7.5
 30
0.0
 11
-26.0
 21
0.5
 31
0.0
  0
LWPOLYLINE
  5
CC82
330
CC7E
100
AcDbEntity
  8
011形状
100
AcDbPolyline
 90
        6
 70
     0
 43
0.0
 10
-14.0
 20
0.5
 10
-26.0
 20
0.5
 10
-39.0
 20
1.5
 10
-39.0
 20
6.5
 10
-26.0
 20
7.5
 10
-14.0
 20
7.5
  0
LINE
  5
CC83
330
CC7E
100
AcDbEntity
  8
011形状
100
AcDbLine
 10
-39.0
 20
5.5
 30
0.0
 11
-59.0
 21
5.5
 31
0.0
  0
LINE
  5
CC84
330
CC7E
100
AcDbEntity
  8
011形状
100
AcDbLine
 10
-59.0
 20
2.5
 30
0.0
 11
-39.0
 21
2.5
 31
0.0
  0
ARC
  5
CC85
330
CC7E
100
AcDbEntity
  8
011形状
100
AcDbCircle
 10
-58.4375
 20
4.75
 30
0.0
 40
0.9375
100
AcDbArc
 50
126.8698976460003
 51
233.1301023539996
  0
ARC
  5
CC86
330
CC7E
100
AcDbEntity
  8
011形状
100
AcDbCircle
 10
-58.4375
 20
3.25
 30
0.0
 40
0.9375
100
AcDbArc
 50
126.8698976460003
 51
233.1301023539996
  0
ARC
  5
CC87
330
CC7E
100
AcDbEntity
  8
011形状
100
AcDbCircle
 10
-59.5625
 20
4.75
 30
0.0
 40
0.9375
100
AcDbArc
 50
306.8698976460004
 51
53.13010235399964
  0
LINE
  5
CC88
330
CC7E
100
AcDbEntity
  8
001センタ
100
AcDbLine
 10
-64.0
 20
4.0
 30
0.0
 11
-9.0
 21
4.0
 31
0.0
  0
LWPOLYLINE
  5
CC89
330
CC7E
100
AcDbEntity
  8
011形状
100
AcDbPolyline
 90
        4
 70
     1
 43
0.0
 10
50.0
 20
15.0
 10
36.0
 20
15.0
 10
36.0
 20
0.0
 10
50.0
 20
0.0
  0
DIMENSION
  5
CC8A
330
CC7E
100
AcDbEntity
  8
002寸法
100
AcDbDimension
280
     0
  2
*D33
 10
-14.0
 20
-15.0
 30
0.0
 11
-26.5
 21
-13.0
 31
0.0
 12
-77.0
 22
-100.0
 32
0.0
 71
     5
 42
25.0
 73
     0
 74
     0
 75
     0
  3
通常x1.0
100
AcDbAlignedDimension
 13
-39.0
 23
1.5
 33
0.0
 14
-14.0
 24
0.0
 34
0.0
100
AcDbRotatedDimension
  0
DIMENSION
  5
CC8B
330
CC7E
100
AcDbEntity
  8
002寸法
100
AcDbDimension
280
     0
  2
*D34
 10
0.0
 20
-15.0
 30
0.0
 11
-7.0
 21
-13.0
 31
0.0
 12
-77.0
 22
-100.0
 32
0.0
 71
     5
 42
14.0
 73
     0
 74
     0
 75
     0
  3
通常x1.0
100
AcDbAlignedDimension
 13
-14.0
 23
0.0
 33
0.0
 14
0.0
 24
0.0
 34
0.0
100
AcDbRotatedDimension
1001
ACAD
1000
DSTYLE
1002
{
1070
   279
1070
     1
1002
}
  0
DIMENSION
  5
CC8C
330
CC7E
100
AcDbEntity
  8
002寸法
100
AcDbDimension
280
     0
  2
*D35
 10
15.0
 20
15.0
 30
0.0
 11
12.99999999999997
 21
7.500000000000014
 31
0.0
 12
-77.0
 22
-100.0
 32
0.0
 71
     5
 42
15.0
 73
     0
 74
     0
 75
     0
  3
通常x1.0
100
AcDbAlignedDimension
 13
0.0
 23
0.0
 33
0.0
 14
0.0
 24
15.0
 34
0.0
 50
90.0
100
AcDbRotatedDimension
  0
DIMENSION
  5
CC8D
330
CC7E
100
AcDbEntity
  8
002寸法
100
AcDbDimension
280
     0
  2
*D36
 10
50.0
 20
-15.0
 30
0.0
 11
43.0
 21
-13.0
 31
0.0
 12
-77.0
 22
-100.0
 32
0.0
 71
     5
 42
14.0
 73
     0
 74
     0
 75
     0
  3
通常x1.0
100
AcDbAlignedDimension
 13
36.0
 23
0.0
 33
0.0
 14
50.0
 24
0.0
 34
0.0
100
AcDbRotatedDimension
  0
ENDBLK
  5
CC91
330
CC7E
100
AcDbEntity
  8
0
100
AcDbBlockEnd
  0
BLOCK
  5
CCA3
330
CCA2
100
AcDbEntity
  8
0
100
AcDbBlockBegin
  2
*D38
 70
     1
 10
0.0
 20
0.0
 30
0.0
  3
*D38
  1

  0
LINE
  5
CD87
330
CCA2
100
AcDbEntity
  8
002寸法
440
 16777216
100
AcDbLine
 10
16.0
 20
13.25
 30
0.0
 11
16.0
 21
7.125
 31
0.0
  0
LINE
  5
CD88
330
CCA2
100
AcDbEntity
  8
002寸法
440
 16777216
100
AcDbLine
 10
41.0
 20
11.75
 30
0.0
 11
41.0
 21
7.125
 31
0.0
  0
LINE
  5
CD89
330
CCA2
100
AcDbEntity
  8
002寸法
440
 16777216
100
AcDbLine
 10
17.25
 20
7.5
 30
0.0
 11
39.75
 21
7.5
 31
0.0
  0
INSERT
  5
CD8A
330
CCA2
100
AcDbEntity
  8
002寸法
440
 16777216
100
AcDbBlockReference
  2
_OPEN
 10
16.0
 20
7.5
 30
0.0
 41
1.25
 42
1.25
 43
1.25
 50
180.0
  0
INSERT
  5
CD8B
330
CCA2
100
AcDbEntity
  8
002寸法
440
 16777216
100
AcDbBlockReference
  2
_OPEN
 10
41.0
 20
7.5
 30
0.0
 41
1.25
 42
1.25
 43
1.25
  0
MTEXT
  5
CD8C
330
CCA2
100
AcDbEntity
  8
002寸法
 62
     2
440
 16777216
100
AcDbMText
 10
28.5
 20
8.5
 30
0.0
 40
1.5
 41
0.0
 46
0.0
 71
     5
 72
     1
  1
D
 73
     1
 44
1.0
  0
POINT
  5
CD8D
330
CCA2
100
AcDbEntity
  8
DEFPOINTS
 62
     0
440
 16777216
100
AcDbPoint
 10
16.0
 20
13.5
 30
0.0
  0
POINT
  5
CD8E
330
CCA2
100
AcDbEntity
  8
DEFPOINTS
 62
     0
440
 16777216
100
AcDbPoint
 10
41.0
 20
12.0
 30
0.0
  0
POINT
  5
CD8F
330
CCA2
100
AcDbEntity
  8
DEFPOINTS
 62
     0
440
 16777216
100
AcDbPoint
 10
41.0
 20
7.5
 30
0.0
  0
ENDBLK
  5
CCA4
330
CCA2
100
AcDbEntity
  8
0
100
AcDbBlockEnd
  0
BLOCK
  5
CCAF
330
CCAE
100
AcDbEntity
  8
0
100
AcDbBlockBegin
  2
*D39
 70
     1
 10
0.0
 20
0.0
 30
0.0
  3
*D39
  1

  0
LINE
  5
CD90
330
CCAE
100
AcDbEntity
  8
002寸法
440
 16777216
100
AcDbLine
 10
41.0
 20
11.75
 30
0.0
 11
41.0
 21
7.125
 31
0.0
  0
LINE
  5
CD91
330
CCAE
100
AcDbEntity
  8
002寸法
440
 16777216
100
AcDbLine
 10
55.0
 20
11.75
 30
0.0
 11
55.0
 21
7.125
 31
0.0
  0
LINE
  5
CD92
330
CCAE
100
AcDbEntity
  8
002寸法
440
 16777216
100
AcDbLine
 10
42.25
 20
7.5
 30
0.0
 11
53.75
 21
7.5
 31
0.0
  0
INSERT
  5
CD93
330
CCAE
100
AcDbEntity
  8
002寸法
440
 16777216
100
AcDbBlockReference
  2
_OPEN
 10
41.0
 20
7.5
 30
0.0
 41
1.25
 42
1.25
 43
1.25
 50
180.0
  0
INSERT
  5
CD94
330
CCAE
100
AcDbEntity
  8
002寸法
440
 16777216
100
AcDbBlockReference
  2
_OPEN
 10
55.0
 20
7.5
 30
0.0
 41
1.25
 42
1.25
 43
1.25
  0
MTEXT
  5
CD95
330
CCAE
100
AcDbEntity
  8
002寸法
 62
     2
440
 16777216
100
AcDbMText
 10
48.0
 20
8.5
 30
0.0
 40
1.5
 41
0.0
 46
0.0
 71
     5
 72
     1
  1
A
 73
     1
 44
1.0
  0
POINT
  5
CD96
330
CCAE
100
AcDbEntity
  8
DEFPOINTS
 62
     0
440
 16777216
100
AcDbPoint
 10
41.0
 20
12.0
 30
0.0
  0
POINT
  5
CD97
330
CCAE
100
AcDbEntity
  8
DEFPOINTS
 62
     0
440
 16777216
100
AcDbPoint
 10
55.0
 20
12.0
 30
0.0
  0
POINT
  5
CD98
330
CCAE
100
AcDbEntity
  8
DEFPOINTS
 62
     0
440
 16777216
100
AcDbPoint
 10
55.0
 20
7.5
 30
0.0
  0
ENDBLK
  5
CCB0
330
CCAE
100
AcDbEntity
  8
0
100
AcDbBlockEnd
  0
BLOCK
  5
CCBB
330
CCBA
100
AcDbEntity
  8
0
100
AcDbBlockBegin
  2
*D40
 70
     1
 10
0.0
 20
0.0
 30
0.0
  3
*D40
  1

  0
LINE
  5
CD99
330
CCBA
100
AcDbEntity
  8
002寸法
440
 16777216
100
AcDbLine
 10
55.25
 20
12.0
 30
0.0
 11
59.87499999999999
 21
12.0
 31
0.0
  0
LINE
  5
CD9A
330
CCBA
100
AcDbEntity
  8
002寸法
440
 16777216
100
AcDbLine
 10
55.25
 20
27.0
 30
0.0
 11
59.875
 21
27.0
 31
0.0
  0
LINE
  5
CD9B
330
CCBA
100
AcDbEntity
  8
002寸法
440
 16777216
100
AcDbLine
 10
59.49999999999999
 20
13.25
 30
0.0
 11
59.5
 21
25.75
 31
0.0
  0
INSERT
  5
CD9C
330
CCBA
100
AcDbEntity
  8
002寸法
440
 16777216
100
AcDbBlockReference
  2
_OPEN
 10
59.49999999999999
 20
12.0
 30
0.0
 41
1.25
 42
1.25
 43
1.25
 50
270.0
  0
INSERT
  5
CD9D
330
CCBA
100
AcDbEntity
  8
002寸法
440
 16777216
100
AcDbBlockReference
  2
_OPEN
 10
59.5
 20
27.0
 30
0.0
 41
1.25
 42
1.25
 43
1.25
 50
90.0
  0
MTEXT
  5
CD9E
330
CCBA
100
AcDbEntity
  8
002寸法
 62
     2
440
 16777216
100
AcDbMText
 10
58.49999999999999
 20
19.50000000000001
 30
0.0
 40
1.5
 41
0.0
 46
0.0
 71
     5
 72
     1
  1
C
 11
0.0000000000000001
 21
1.0
 31
0.0
 73
     1
 44
1.0
  0
POINT
  5
CD9F
330
CCBA
100
AcDbEntity
  8
DEFPOINTS
 62
     0
440
 16777216
100
AcDbPoint
 10
55.0
 20
12.0
 30
0.0
  0
POINT
  5
CDA0
330
CCBA
100
AcDbEntity
  8
DEFPOINTS
 62
     0
440
 16777216
100
AcDbPoint
 10
55.0
 20
27.0
 30
0.0
  0
POINT
  5
CDA1
330
CCBA
100
AcDbEntity
  8
DEFPOINTS
 62
     0
440
 16777216
100
AcDbPoint
 10
59.5
 20
27.0
 30
0.0
  0
ENDBLK
  5
CCBC
330
CCBA
100
AcDbEntity
  8
0
100
AcDbBlockEnd
  0
BLOCK
  5
CCC7
330
CCC6
100
AcDbEntity
  8
0
100
AcDbBlockBegin
  2
*D41
 70
     1
 10
0.0
 20
0.0
 30
0.0
  3
*D41
  1

  0
LINE
  5
CDA2
330
CCC6
100
AcDbEntity
  8
002寸法
440
 16777216
100
AcDbLine
 10
66.0
 20
11.75
 30
0.0
 11
66.0
 21
7.125
 31
0.0
  0
LINE
  5
CDA3
330
CCC6
100
AcDbEntity
  8
002寸法
440
 16777216
100
AcDbLine
 10
80.0
 20
11.75
 30
0.0
 11
80.0
 21
7.125
 31
0.0
  0
LINE
  5
CDA4
330
CCC6
100
AcDbEntity
  8
002寸法
440
 16777216
100
AcDbLine
 10
67.25
 20
7.5
 30
0.0
 11
78.75
 21
7.5
 31
0.0
  0
INSERT
  5
CDA5
330
CCC6
100
AcDbEntity
  8
002寸法
440
 16777216
100
AcDbBlockReference
  2
_OPEN
 10
66.0
 20
7.5
 30
0.0
 41
1.25
 42
1.25
 43
1.25
 50
180.0
  0
INSERT
  5
CDA6
330
CCC6
100
AcDbEntity
  8
002寸法
440
 16777216
100
AcDbBlockReference
  2
_OPEN
 10
80.0
 20
7.5
 30
0.0
 41
1.25
 42
1.25
 43
1.25
  0
MTEXT
  5
CDA7
330
CCC6
100
AcDbEntity
  8
002寸法
 62
     2
440
 16777216
100
AcDbMText
 10
73.0
 20
8.5
 30
0.0
 40
1.5
 41
0.0
 46
0.0
 71
     5
 72
     1
  1
B
 73
     1
 44
1.0
  0
POINT
  5
CDA8
330
CCC6
100
AcDbEntity
  8
DEFPOINTS
 62
     0
440
 16777216
100
AcDbPoint
 10
66.0
 20
12.0
 30
0.0
  0
POINT
  5
CDA9
330
CCC6
100
AcDbEntity
  8
DEFPOINTS
 62
     0
440
 16777216
100
AcDbPoint
 10
80.0
 20
12.0
 30
0.0
  0
POINT
  5
CDAA
330
CCC6
100
AcDbEntity
  8
DEFPOINTS
 62
     0
440
 16777216
100
AcDbPoint
 10
80.0
 20
7.5
 30
0.0
  0
ENDBLK
  5
CCC8
330
CCC6
100
AcDbEntity
  8
0
100
AcDbBlockEnd
  0
ENDSEC
  0
SECTION
  2
ENTITIES
  0
LWPOLYLINE
  5
6069
330
1F
100
AcDbEntity
  8
0
100
AcDbPolyline
 90
        4
 70
     1
 43
0.0
 10
0.0
 20
0.0
 10
85.0
 20
0.0
 10
85.0
 20
35.0
 10
-0.0000000000000071
 20
35.0
  0
MTEXT
  5
606A
330
1F
100
AcDbEntity
  8
003注釈
100
AcDbMText
 10
40.0
 20
-5.0
 30
0.0
 40
3.0
 41
0.0
 46
0.0
 71
     2
 72
     5
  1
\LSAH
 73
     1
 44
1.0
  0
LWPOLYLINE
  5
CC93
330
1F
100
AcDbEntity
  8
011形状
100
AcDbPolyline
 90
        4
 70
     1
 43
0.0
 10
55.0
 20
12.0
 10
55.0
 20
27.0
 10
41.0
 20
27.0
 10
41.0
 20
12.0
  0
POINT
  5
CC94
330
1F
100
AcDbEntity
  8
011形状
100
AcDbPoint
 10
16.0
 20
17.75
 30
0.0
  0
LINE
  5
CC95
330
1F
100
AcDbEntity
  8
011形状
100
AcDbLine
 10
29.0
 20
19.5
 30
0.0
 11
29.0
 21
12.5
 31
0.0
  0
LWPOLYLINE
  5
CC96
330
1F
100
AcDbEntity
  8
011形状
100
AcDbPolyline
 90
        6
 70
     0
 43
0.0
 10
41.0
 20
12.5
 10
29.0
 20
12.5
 10
16.0
 20
13.5
 10
16.0
 20
18.5
 10
29.0
 20
19.5
 10
41.0
 20
19.5
  0
LINE
  5
CC97
330
1F
100
AcDbEntity
  8
011形状
100
AcDbLine
 10
16.0
 20
17.5
 30
0.0
 11
6.0
 21
17.5
 31
0.0
  0
LINE
  5
CC98
330
1F
100
AcDbEntity
  8
011形状
100
AcDbLine
 10
6.0
 20
14.5
 30
0.0
 11
16.0
 21
14.5
 31
0.0
  0
ARC
  5
CC99
330
1F
100
AcDbEntity
  8
011形状
100
AcDbCircle
 10
6.5625
 20
16.75
 30
0.0
 40
0.9375
100
AcDbArc
 50
126.8698976460003
 51
233.1301023539996
  0
ARC
  5
CC9A
330
1F
100
AcDbEntity
  8
011形状
100
AcDbCircle
 10
6.5625
 20
15.25
 30
0.0
 40
0.9375
100
AcDbArc
 50
126.8698976460003
 51
233.1301023539996
  0
ARC
  5
CC9B
330
1F
100
AcDbEntity
  8
011形状
100
AcDbCircle
 10
5.4375
 20
16.75
 30
0.0
 40
0.9375
100
AcDbArc
 50
306.8698976460004
 51
53.13010235399964
  0
LINE
  5
CC9C
330
1F
100
AcDbEntity
  8
001センタ
100
AcDbLine
 10
4.5
 20
16.0
 30
0.0
 11
42.5
 21
16.0
 31
0.0
  0
LWPOLYLINE
  5
CC9D
330
1F
100
AcDbEntity
  8
011形状
100
AcDbPolyline
 90
        4
 70
     1
 43
0.0
 10
80.0
 20
27.00000000000001
 10
66.0
 20
27.00000000000001
 10
66.0
 20
12.0
 10
80.0
 20
12.0
  0
DIMENSION
  5
CC9E
330
1F
100
AcDbEntity
  8
002寸法
100
AcDbDimension
280
     0
  2
*D38
 10
41.0
 20
7.5
 30
0.0
 11
28.5
 21
8.5
 31
0.0
 70
    32
  1
D
 71
     5
 42
25.0
 73
     0
 74
     0
 75
     0
  3
通常x1.0
100
AcDbAlignedDimension
 13
16.0
 23
13.5
 33
0.0
 14
41.0
 24
12.0
 34
0.0
100
AcDbRotatedDimension
1001
ACAD
1000
DSTYLE
1002
{
1070
    40
1040
0.5
1002
}
  0
DIMENSION
  5
CC9F
330
1F
100
AcDbEntity
  8
002寸法
100
AcDbDimension
280
     0
  2
*D39
 10
55.0
 20
7.5
 30
0.0
 11
48.0
 21
8.5
 31
0.0
 70
    32
  1
A
 71
     5
 42
14.0
 73
     0
 74
     0
 75
     0
  3
通常x1.0
100
AcDbAlignedDimension
 13
41.0
 23
12.0
 33
0.0
 14
55.0
 24
12.0
 34
0.0
100
AcDbRotatedDimension
1001
ACAD
1000
DSTYLE
1002
{
1070
    40
1040
0.5
1070
   279
1070
     1
1002
}
  0
DIMENSION
  5
CCA0
330
1F
100
AcDbEntity
  8
002寸法
100
AcDbDimension
280
     0
  2
*D40
 10
59.5
 20
27.0
 30
0.0
 11
58.49999999999999
 21
19.50000000000001
 31
0.0
 70
    32
  1
C
 71
     5
 42
15.0
 73
     0
 74
     0
 75
     0
  3
通常x1.0
100
AcDbAlignedDimension
 13
55.0
 23
12.0
 33
0.0
 14
55.0
 24
27.0
 34
0.0
 50
90.0
100
AcDbRotatedDimension
1001
ACAD
1000
DSTYLE
1002
{
1070
    40
1040
0.5
1002
}
  0
DIMENSION
  5
CCA1
330
1F
100
AcDbEntity
  8
002寸法
100
AcDbDimension
280
     0
  2
*D41
 10
80.0
 20
7.5
 30
0.0
 11
73.0
 21
8.5
 31
0.0
 70
    32
  1
B
 71
     5
 42
14.0
 73
     0
 74
     0
 75
     0
  3
通常x1.0
100
AcDbAlignedDimension
 13
66.0
 23
12.0
 33
0.0
 14
80.0
 24
12.0
 34
0.0
100
AcDbRotatedDimension
1001
ACAD
1000
DSTYLE
1002
{
1070
    40
1040
0.5
1002
}
  0
VIEWPORT
  5
71
330
55
100
AcDbEntity
 67
     1
  8
0
100
AcDbViewport
 10
624.306978614465
 20
307.756022465874
 30
0.0
 40
994.7676969426767
 41
769.7731183671603
 68
     1
 69
     1
 12
624.306978614465
 22
307.756022465874
 13
0.0
 23
0.0
 14
0.5
 24
0.5
 15
10.0
 25
10.0
 16
0.0
 26
0.0
 36
1.0
 17
0.0
 27
0.0
 37
0.0
 42
50.0
 43
0.0
 44
0.0
 45
769.7731183671603
 50
0.0
 51
0.0
 72
   100
 90
    33056
  1

281
     0
 71
     1
 74
     0
110
0.0
120
0.0
130
0.0
111
1.0
121
0.0
131
0.0
112
0.0
122
1.0
132
0.0
 79
     0
146
0.0
170
     0
 61
     5
348
403B
292
     1
282
     1
141
0.0
142
0.0
 63
   250
421
  3355443
  0
VIEWPORT
  5
73
330
55
100
AcDbEntity
 67
     1
  8
0
100
AcDbViewport
 10
693.0
 20
140.5
 30
0.0
 40
419.9999999999999
 41
297.0
 68
     2
 69
     2
 12
804.0
 22
148.5
 13
0.0
 23
0.0
 14
10.0
 24
10.0
 15
10.0
 25
10.0
 16
0.0
 26
0.0
 36
1.0
 17
0.0
 27
0.0
 37
0.0
 42
50.0
 43
0.0
 44
0.0
 45
297.0
 50
0.0
 51
0.0
 72
   100
 90
    32864
  1

281
     0
 71
     1
 74
     0
110
0.0
120
0.0
130
0.0
111
1.0
121
0.0
131
0.0
112
0.0
122
1.0
132
0.0
 79
     0
146
0.0
170
     0
 61
     5
348
403B
292
     1
282
     1
141
0.0
142
0.0
 63
   250
421
  3355443
  0
ENDSEC
  0
SECTION
  2
OBJECTS
  0
DICTIONARY
  5
C
330
0
100
AcDbDictionary
281
     1
  3
ACAD_CIP_PREVIOUS_PRODUCT_INFO
350
406F
  3
ACAD_COLOR
350
404E
  3
ACAD_DETAILVIEWSTYLE
350
4067
  3
ACAD_GROUP
350
D
  3
ACAD_LAYOUT
350
1A
  3
ACAD_MATERIAL
350
401C
  3
ACAD_MLEADERSTYLE
350
4063
  3
ACAD_MLINESTYLE
350
17
  3
ACAD_PLOTSETTINGS
350
19
  3
ACAD_PLOTSTYLENAME
350
E
  3
ACAD_SCALELIST
350
4051
  3
ACAD_SECTIONVIEWSTYLE
350
4065
  3
ACAD_TABLESTYLE
350
404F
  3
ACAD_VISUALSTYLE
350
4035
  3
ACDB_RECOMPOSE_DATA
350
CE17
  3
AcDbVariableDictionary
350
5E
  0
DICTIONARY
  5
17A7
330
2
100
AcDbDictionary
280
     1
281
     1
  3
ACAD_LAYERSTATES
360
17A8
  0
DICTIONARY
  5
407F
330
10
100
AcDbDictionary
280
     1
281
     1
  3
ADSK_XREC_LAYER_RECONCILED
360
4080
  0
DICTIONARY
  5
4081
330
2C2
100
AcDbDictionary
280
     1
281
     1
  3
ADSK_XREC_LAYER_RECONCILED
360
4082
  0
DICTIONARY
  5
4083
330
847
100
AcDbDictionary
280
     1
281
     1
  3
ADSK_XREC_LAYER_RECONCILED
360
4084
  0
DICTIONARY
  5
44C9
330
44C8
100
AcDbDictionary
280
     1
281
     1
  0
DICTIONARY
  5
CA
330
1F
100
AcDbDictionary
280
     1
281
     1
  3
ACAD_LAYOUTSELFREF
360
400E
  3
ACAD_SORTENTS
360
41E0
  0
DICTIONARY
  5
CC
330
55
100
AcDbDictionary
280
     1
281
     1
  3
ACAD_LAYOUTSELFREF
360
4010
  0
DICTIONARY
  5
CE
330
50
100
AcDbDictionary
280
     1
281
     1
  3
ACAD_LAYOUTSELFREF
360
400F
  0
DICTIONARY
  5
4424
330
43E1
100
AcDbDictionary
280
     1
281
     1
  0
DICTIONARY
  5
45D0
330
4473
100
AcDbDictionary
280
     1
281
     1
  0
DICTIONARY
  5
4FCD
330
4FC9
100
AcDbDictionary
280
     1
281
     1
  3
ACAD_SORTENTS
360
4FCE
  0
DICTIONARY
  5
CC8E
330
CC7E
100
AcDbDictionary
280
     1
281
     1
  3
ACAD_SORTENTS
360
CC8F
  0
XRECORD
  5
406F
102
{ACAD_REACTORS
330
C
102
}
330
C
100
AcDbXrecord
280
     1
300
ACDLT
300
2014
300
ACDLT_F_S
  0
DICTIONARY
  5
404E
102
{ACAD_REACTORS
330
C
102
}
330
C
100
AcDbDictionary
281
     1
  0
DICTIONARY
  5
4067
102
{ACAD_REACTORS
330
C
102
}
330
C
100
AcDbDictionary
281
     1
  3
Imperial24
350
6075
  3
Metric50
350
4068
  0
DICTIONARY
  5
D
102
{ACAD_REACTORS
330
C
102
}
330
C
100
AcDbDictionary
281
     1
  0
DICTIONARY
  5
1A
102
{ACAD_REACTORS
330
C
102
}
330
C
100
AcDbDictionary
281
     1
  3
Model
350
22
  3
ﾚｲｱｳﾄ1
350
51
  3
ﾚｲｱｳﾄ2
350
56
  0
DICTIONARY
  5
401C
102
{ACAD_REACTORS
330
C
102
}
330
C
100
AcDbDictionary
281
     1
  3
ByBlock
350
4025
  3
ByLayer
350
401D
  3
Global
350
402D
  0
DICTIONARY
  5
4063
102
{ACAD_REACTORS
330
C
102
}
330
C
100
AcDbDictionary
281
     1
  3
Standard
350
4064
  3
引出線
350
438D
  3
風船
350
43C5
  0
DICTIONARY
  5
17
102
{ACAD_REACTORS
330
C
102
}
330
C
100
AcDbDictionary
281
     1
  3
Standard
350
18
  0
DICTIONARY
  5
19
102
{ACAD_REACTORS
330
C
102
}
330
C
100
AcDbDictionary
281
     1
  3
iPF610plus A2
350
4B73
  3
iPF610plus A3
350
4B48
  3
iPF610plus A4
350
4B7C
  3
LBP8610 A3
350
47AC
  3
LBP8610 A4
350
47B5
  3
LBP9100C A3
350
5056
  3
LBP9100C A4
350
505F
  0
ACDBDICTIONARYWDFLT
  5
E
102
{ACAD_REACTORS
330
C
102
}
330
C
100
AcDbDictionary
281
     1
  3
Normal
350
F
100
AcDbDictionaryWithDefault
340
F
  0
DICTIONARY
  5
4051
102
{ACAD_REACTORS
330
C
102
}
330
C
100
AcDbDictionary
281
     1
  3
A0
350
4052
  3
A1
350
4053
  3
A2
350
4054
  3
A3
350
4055
  3
A4
350
4056
  3
A5
350
4057
  3
A6
350
4058
  3
A7
350
4059
  3
A8
350
405A
  3
A9
350
405B
  3
B0
350
405C
  3
B1
350
405D
  3
B2
350
405E
  3
B3
350
405F
  3
B4
350
4060
  3
B5
350
4061
  3
B6
350
4062
  0
DICTIONARY
  5
4065
102
{ACAD_REACTORS
330
C
102
}
330
C
100
AcDbDictionary
281
     1
  3
Imperial24
350
6074
  3
Metric50
350
4066
  0
DICTIONARY
  5
404F
102
{ACAD_REACTORS
330
C
102
}
330
C
100
AcDbDictionary
281
     1
  3
Standard
350
4050
  0
DICTIONARY
  5
4035
102
{ACAD_REACTORS
330
C
102
}
330
C
100
AcDbDictionary
281
     1
  3
2dWireframe
350
403B
  3
Basic
350
403A
  3
Brighten
350
4041
  3
ColorChange
350
4045
  3
Conceptual
350
403E
  3
Dim
350
4040
  3
EdgeColorOff
350
404D
  3
Facepattern
350
4044
  3
Flat
350
4036
  3
FlatWithEdges
350
4037
  3
Gouraud
350
4038
  3
GouraudWithEdges
350
4039
  3
Hidden
350
403D
  3
JitterOff
350
404B
  3
Linepattern
350
4043
  3
OverhangOff
350
404C
  3
Realistic
350
403F
  3
Shaded
350
404A
  3
Shaded with edges
350
4049
  3
Shades of Gray
350
4046
  3
Sketchy
350
4047
  3
Thicken
350
4042
  3
Wireframe
350
403C
  3
X-Ray
350
4048
  0
XRECORD
  5
CE17
102
{ACAD_REACTORS
330
C
102
}
330
C
100
AcDbXrecord
280
     1
 90
        1
330
4050
330
4066
330
4068
330
6074
330
6075
  0
DICTIONARY
  5
5E
102
{ACAD_REACTORS
330
C
102
}
330
C
100
AcDbDictionary
281
     1
  3
CANNOSCALE
350
40D5
  3
CMLEADERSTYLE
350
40D1
  3
CTABLESTYLE
350
40D0
  3
CVIEWDETAILSTYLE
350
40D2
  3
CVIEWSECTIONSTYLE
350
40D3
  3
DIMASSOC
350
5F
  3
HIDETEXT
350
63
  3
LAYEREVAL
350
40D7
  3
LAYERNOTIFY
350
40D8
  3
LIGHTINGUNITS
350
40D6
  3
MIRRHATCH
350
5028
  3
MSLTSCALE
350
40D4
  0
DICTIONARY
  5
17A8
102
{ACAD_REACTORS
330
17A7
102
}
330
17A7
100
AcDbDictionary
281
     1
  0
XRECORD
  5
4080
102
{ACAD_REACTORS
330
407F
102
}
330
407F
100
AcDbXrecord
280
     1
290
     1
  0
XRECORD
  5
4082
102
{ACAD_REACTORS
330
4081
102
}
330
4081
100
AcDbXrecord
280
     1
290
     1
  0
XRECORD
  5
4084
102
{ACAD_REACTORS
330
4083
102
}
330
4083
100
AcDbXrecord
280
     1
290
     1
  0
XRECORD
  5
400E
102
{ACAD_REACTORS
330
CA
102
}
330
CA
100
AcDbXrecord
280
     1
340
1F
  0
SORTENTSTABLE
  5
41E0
102
{ACAD_REACTORS
330
CA
102
}
330
CA
100
AcDbSortentsTable
330
1F
331
6069
  5
6069
331
606A
  5
606A
  0
XRECORD
  5
4010
102
{ACAD_REACTORS
330
CC
102
}
330
CC
100
AcDbXrecord
280
     1
340
55
  0
XRECORD
  5
400F
102
{ACAD_REACTORS
330
CE
102
}
330
CE
100
AcDbXrecord
280
     1
340
50
  0
SORTENTSTABLE
  5
4FCE
102
{ACAD_REACTORS
330
4FCD
102
}
330
4FCD
100
AcDbSortentsTable
330
4FC9
  0
SORTENTSTABLE
  5
CC8F
102
{ACAD_REACTORS
330
CC8E
102
}
330
CC8E
100
AcDbSortentsTable
330
CC7E
  0
ACDBDETAILVIEWSTYLE
  5
6075
102
{ACAD_XDICTIONARY
360
7179
102
}
102
{ACAD_REACTORS
330
4067
102
}
330
4067
100
AcDbModelDocViewStyle
 70
     0
  3
Imperial24
290
     0
100
AcDbDetailViewStyle
 70
     0
 71
     0
 90
        3
 71
     1
340
11
 62
   256
 40
0.24
340
0
 62
   256
 40
0.24
300

 40
0.36
280
     3
 71
     2
340
16
 90
       25
 62
   256
 71
     3
340
11
 62
   256
 40
0.24
 90
        1
 40
0.75
 90
        1
300
%<\AcVar ViewType \f "%tc1">% %<\AcVar ViewDetailId>%\PSCALE %<\AcVar ViewScale \f "%sn">%
 71
     4
340
16
 90
       25
 62
   256
340
16
 90
       25
 62
   256
280
     0
  0
ACDBDETAILVIEWSTYLE
  5
4068
102
{ACAD_XDICTIONARY
360
40CD
102
}
102
{ACAD_REACTORS
330
4067
102
}
330
4067
100
AcDbModelDocViewStyle
 70
     0
  3
Metric50
290
     0
100
AcDbDetailViewStyle
 70
     0
 71
     0
 90
        3
 71
     1
340
11
 62
   256
 40
5.0
340
0
 62
   256
 40
5.0
300

 40
0.0
280
     1
 71
     2
340
16
 90
       25
 62
   256
 71
     3
340
11
 62
   256
 40
5.0
 90
        0
 40
15.0
 90
        1
300
%<\AcVar ViewDetailId>% (%<\AcVar ViewScale \f "%sn">%)
 71
     4
340
16
 90
       25
 62
   256
340
16
 90
       25
 62
   256
280
     0
  0
LAYOUT
  5
22
102
{ACAD_REACTORS
330
1A
102
}
330
1A
100
AcDbPlotSettings
  1

  2
none_device
  4
ISO_A4_(210.00_x_297.00_MM)
  6

 40
7.5
 41
20.0
 42
7.5
 43
20.0
 44
210.0
 45
297.0
 46
-7.5
 47
-20.0
 48
1014.0
 49
0.0
140
1224.0
141
297.0
142
1.0
143
1.0
 70
 11956
 72
     1
 73
     0
 74
     4
  7
catarog.ctb
 75
    16
147
1.0
 76
     0
 77
     2
 78
   300
148
-1014.0
149
0.0
100
AcDbLayout
  1
Model
 70
     1
 71
     0
 10
0.0
 20
0.0
 11
12.0
 21
9.0
 12
0.0
 22
0.0
 32
0.0
 14
0.0
 24
0.0
 34
0.0
 15
0.0
 25
0.0
 35
0.0
146
0.0
 13
0.0
 23
0.0
 33
0.0
 16
1.0
 26
0.0
 36
0.0
 17
0.0
 27
1.0
 37
0.0
 76
     0
330
1F
331
3FB5
1001
ACAD_PSEXT
1000
なし
1000
なし
1000
適切ではありません
1000
新しいプロッタ環境設定名を選択しない限り、レイアウトは印刷されません。
1070
     0
  0
LAYOUT
  5
51
102
{ACAD_REACTORS
330
1A
102
}
330
1A
100
AcDbPlotSettings
  1

  2
HP designjet 110
  4
User620
  6

 40
0.0
 41
0.16937255859375
 42
0.169342041015625
 43
0.0
 44
420.1159973144531
 45
594.1060180664062
 46
0.0
 47
0.0
 48
0.0
 49
0.0
140
0.0
141
0.0
142
1.0
143
1.0
 70
   688
 72
     1
 73
     1
 74
     5
  7
catarog.ctb
 75
    16
147
1.0
 76
     0
 77
     2
 78
   300
148
0.0
149
0.0
100
AcDbLayout
  1
ﾚｲｱｳﾄ1
 70
     1
 71
     1
 10
0.0
 20
0.0
 11
594.1060180664062
 21
420.1159973144531
 12
0.0
 22
0.0
 32
0.0
 14
0.0
 24
0.0
 34
0.0
 15
594.0
 25
420.0
 35
0.0
146
0.0
 13
0.0
 23
0.0
 33
0.0
 16
1.0
 26
0.0
 36
0.0
 17
0.0
 27
1.0
 37
0.0
 76
     0
330
50
331
6B
  0
LAYOUT
  5
56
102
{ACAD_REACTORS
330
1A
102
}
330
1A
100
AcDbPlotSettings
  1

  2
LASERSHOT LBP-730
  4
A3
  6

 40
5.873749732971191
 41
5.746733665466308
 42
6.000732421875
 43
5.873748779296875
 44
296.9683227539062
 45
419.9889831542968
 46
0.0
 47
0.0
 48
488.9032378878416
 49
-2.276414387510897
140
700.793313719932
141
251.8619201678336
142
1.0
143
1.0
 70
   688
 72
     1
 73
     1
 74
     4
  7
catarog.ctb
 75
    16
147
1.0
 76
     0
 77
     2
 78
   300
148
-488.9032378878416
149
2.276414387510897
100
AcDbLayout
  1
ﾚｲｱｳﾄ2
 70
     1
 71
     2
 10
483.0294891085446
 20
-8.150164120482088
 11
903.0184722628415
 21
288.8181586334241
 12
0.0
 22
0.0
 32
0.0
 14
211.5
 24
-8.0
 34
0.0
 15
903.5
 25
300.0
 35
0.0
146
0.0
 13
0.0
 23
0.0
 33
0.0
 16
1.0
 26
0.0
 36
0.0
 17
0.0
 27
1.0
 37
0.0
 76
     0
330
55
331
71
  0
MATERIAL
  5
4025
102
{ACAD_XDICTIONARY
360
4026
102
}
102
{ACAD_REACTORS
330
401C
102
}
330
401C
100
AcDbMaterial
  1
ByBlock
 72
     0
 43
0.0008202099737533
 43
0.0
 43
0.0
 43
0.0
 43
0.0
 43
0.0008202099737533
 43
0.0
 43
0.0
 43
0.0
 43
0.0
 43
1.0
 43
0.0
 43
0.0
 43
0.0
 43
0.0
 43
1.0
 77
     0
 47
0.0008202099737533
 47
0.0
 47
0.0
 47
0.0
 47
0.0
 47
0.0008202099737533
 47
0.0
 47
0.0
 47
0.0
 47
0.0
 47
1.0
 47
0.0
 47
0.0
 47
0.0
 47
0.0
 47
1.0
171
     0
 49
0.0008202099737533
 49
0.0
 49
0.0
 49
0.0
 49
0.0
 49
0.0008202099737533
 49
0.0
 49
0.0
 49
0.0
 49
0.0
 49
1.0
 49
0.0
 49
0.0
 49
0.0
 49
0.0
 49
1.0
175
     0
142
0.0008202099737533
142
0.0
142
0.0
142
0.0
142
0.0
142
0.0008202099737533
142
0.0
142
0.0
142
0.0
142
0.0
142
1.0
142
0.0
142
0.0
142
0.0
142
0.0
142
1.0
179
     0
144
0.0008202099737533
144
0.0
144
0.0
144
0.0
144
0.0
144
0.0008202099737533
144
0.0
144
0.0
144
0.0
144
0.0
144
1.0
144
0.0
144
0.0
144
0.0
144
0.0
144
1.0
147
0.0008202099737533
147
0.0
147
0.0
147
0.0
147
0.0
147
0.0008202099737533
147
0.0
147
0.0
147
0.0
147
0.0
147
1.0
147
0.0
147
0.0
147
0.0
147
0.0
147
1.0
  0
MATERIAL
  5
401D
102
{ACAD_XDICTIONARY
360
401E
102
}
102
{ACAD_REACTORS
330
401C
102
}
330
401C
100
AcDbMaterial
  1
ByLayer
 72
     0
 43
0.0008202099737533
 43
0.0
 43
0.0
 43
0.0
 43
0.0
 43
0.0008202099737533
 43
0.0
 43
0.0
 43
0.0
 43
0.0
 43
1.0
 43
0.0
 43
0.0
 43
0.0
 43
0.0
 43
1.0
 77
     0
 47
0.0008202099737533
 47
0.0
 47
0.0
 47
0.0
 47
0.0
 47
0.0008202099737533
 47
0.0
 47
0.0
 47
0.0
 47
0.0
 47
1.0
 47
0.0
 47
0.0
 47
0.0
 47
0.0
 47
1.0
171
     0
 49
0.0008202099737533
 49
0.0
 49
0.0
 49
0.0
 49
0.0
 49
0.0008202099737533
 49
0.0
 49
0.0
 49
0.0
 49
0.0
 49
1.0
 49
0.0
 49
0.0
 49
0.0
 49
0.0
 49
1.0
175
     0
142
0.0008202099737533
142
0.0
142
0.0
142
0.0
142
0.0
142
0.0008202099737533
142
0.0
142
0.0
142
0.0
142
0.0
142
1.0
142
0.0
142
0.0
142
0.0
142
0.0
142
1.0
179
     0
144
0.0008202099737533
144
0.0
144
0.0
144
0.0
144
0.0
144
0.0008202099737533
144
0.0
144
0.0
144
0.0
144
0.0
144
1.0
144
0.0
144
0.0
144
0.0
144
0.0
144
1.0
147
0.0008202099737533
147
0.0
147
0.0
147
0.0
147
0.0
147
0.0008202099737533
147
0.0
147
0.0
147
0.0
147
0.0
147
1.0
147
0.0
147
0.0
147
0.0
147
0.0
147
1.0
  0
MATERIAL
  5
402D
102
{ACAD_XDICTIONARY
360
402E
102
}
102
{ACAD_REACTORS
330
401C
102
}
330
401C
100
AcDbMaterial
  1
Global
 72
     0
 43
0.0008202099737533
 43
0.0
 43
0.0
 43
0.0
 43
0.0
 43
0.0008202099737533
 43
0.0
 43
0.0
 43
0.0
 43
0.0
 43
1.0
 43
0.0
 43
0.0
 43
0.0
 43
0.0
 43
1.0
 77
     0
 47
0.0008202099737533
 47
0.0
 47
0.0
 47
0.0
 47
0.0
 47
0.0008202099737533
 47
0.0
 47
0.0
 47
0.0
 47
0.0
 47
1.0
 47
0.0
 47
0.0
 47
0.0
 47
0.0
 47
1.0
171
     0
 49
0.0008202099737533
 49
0.0
 49
0.0
 49
0.0
 49
0.0
 49
0.0008202099737533
 49
0.0
 49
0.0
 49
0.0
 49
0.0
 49
1.0
 49
0.0
 49
0.0
 49
0.0
 49
0.0
 49
1.0
175
     0
142
0.0008202099737533
142
0.0
142
0.0
142
0.0
142
0.0
142
0.0008202099737533
142
0.0
142
0.0
142
0.0
142
0.0
142
1.0
142
0.0
142
0.0
142
0.0
142
0.0
142
1.0
179
     0
144
0.0008202099737533
144
0.0
144
0.0
144
0.0
144
0.0
144
0.0008202099737533
144
0.0
144
0.0
144
0.0
144
0.0
144
1.0
144
0.0
144
0.0
144
0.0
144
0.0
144
1.0
147
0.0008202099737533
147
0.0
147
0.0
147
0.0
147
0.0
147
0.0008202099737533
147
0.0
147
0.0
147
0.0
147
0.0
147
1.0
147
0.0
147
0.0
147
0.0
147
0.0
147
1.0
  0
MLEADERSTYLE
  5
4064
102
{ACAD_REACTORS
330
4063
102
}
330
4063
100
AcDbMLeaderStyle
179
     2
170
     2
171
     1
172
     0
 90
        2
 40
0.0
 41
0.0
173
     1
 91
-1056964608
340
14
 92
       -2
290
     1
 42
2.0
291
     1
 43
0.36
  3
Standard
 44
4.0
300

342
11
174
     1
178
     6
175
     1
176
     0
 93
-1056964608
 45
4.0
292
     0
297
     0
 46
4.0
 94
-1056964608
 47
1.0
 49
1.0
140
1.0
293
     1
141
0.0
294
     1
177
     0
142
1.0
295
     1
296
     0
143
0.125
271
     0
272
     9
273
     9
298
     1
  0
MLEADERSTYLE
  5
438D
102
{ACAD_REACTORS
330
4063
102
}
330
4063
100
AcDbMLeaderStyle
179
     2
170
     2
171
     1
172
     0
 90
        2
 40
0.0
 41
0.0
173
     1
 91
-1056964608
340
14
 92
       -2
290
     1
 42
0.0
291
     0
 43
-0.36
  3
Standard
341
86
 44
2.5
300

342
11
174
     5
178
     5
175
     1
176
     0
 93
-1023410174
 45
3.0
292
     0
297
     0
 46
4.0
 94
-1056964608
 47
1.0
 49
1.0
140
1.0
293
     1
141
0.0
294
     1
177
     0
142
1.0
295
     0
296
     0
143
0.125
271
     0
272
     9
273
    10
298
     0
  0
MLEADERSTYLE
  5
43C5
102
{ACAD_REACTORS
330
4063
102
}
330
4063
100
AcDbMLeaderStyle
179
     2
170
     1
171
     1
172
     0
 90
        2
 40
0.0
 41
0.0
173
     1
 91
-1056964608
340
14
 92
       -2
290
     1
 42
0.0
291
     0
 43
-0.36
  3
Standard
341
86
 44
2.5
300

342
11
174
     1
178
     1
175
     1
176
     0
 93
-1023410174
 45
3.0
292
     0
297
     0
 46
4.0
343
43E1
 94
-1073741824
 47
1.0
 49
1.0
140
1.0
293
     1
141
0.0
294
     1
177
     1
142
1.0
295
     1
296
     0
143
0.125
271
     0
272
     9
273
    10
298
     0
  0
MLINESTYLE
  5
18
102
{ACAD_REACTORS
330
17
102
}
330
17
100
AcDbMlineStyle
  2
STANDARD
 70
     0
  3

 62
   256
 51
90.0
 52
90.0
 71
     2
 49
0.5
 62
   256
  6
BYLAYER
 49
-0.5
 62
   256
  6
BYLAYER
  0
PLOTSETTINGS
  5
4B73
102
{ACAD_REACTORS
330
19
102
}
330
19
100
AcDbPlotSettings
  1
iPF610plus A2
  2
Canon iPF610 普通紙.pc3
  4
User66
  6

 40
2.963333368301391
 41
2.963363409042358
 42
2.96331787109375
 43
2.96331787109375
 44
419.9889831542968
 45
593.97900390625
 46
-4.5
 47
-6.0
 48
0.0
 49
0.0
140
594.0
141
420.0
142
1.0
143
1.0
 70
 11952
 72
     1
 73
     1
 74
     4
  7
yuasa.ctb
 75
    16
147
1.0
 76
     0
 77
     2
 78
   300
148
0.0
149
0.0
1001
ACAD_PSEXT
1000
Canon iPF610 普通紙.pc3
1000
Canon iPF610
1000
IP_192.168.0.23
1000

1070
     0
  0
PLOTSETTINGS
  5
4B48
102
{ACAD_REACTORS
330
19
102
}
330
19
100
AcDbPlotSettings
  1
iPF610plus A3
  2
Canon iPF610 普通紙.pc3
  4
A3
  6

 40
2.963333368301391
 41
2.963332891464233
 42
2.96331787109375
 43
2.963348388671875
 44
296.9683227539062
 45
419.9889831542968
 46
-2.979164242744445
 47
-2.968849062919616
 48
600.0
 49
0.0
140
1020.0
141
297.0
142
1.0
143
1.0
 70
 11956
 72
     1
 73
     1
 74
     4
  7
yuasa.ctb
 75
    16
147
1.0
 76
     0
 77
     2
 78
   300
148
-600.0
149
0.0
1001
ACAD_PSEXT
1000
Canon iPF610 普通紙.pc3
1000
Canon iPF610
1000
IP_192.168.0.23
1000

1070
     0
  0
PLOTSETTINGS
  5
4B7C
102
{ACAD_REACTORS
330
19
102
}
330
19
100
AcDbPlotSettings
  1
iPF610plus A4
  2
Canon iPF610 普通紙.pc3
  4
A4
  6

 40
2.963333368301391
 41
2.963332891464233
 42
2.963333129882812
 43
2.963348388671875
 44
209.9733276367187
 45
296.9683227539062
 46
-6.0
 47
-6.0
 48
1100.0
 49
0.0
140
1310.0
141
297.0
142
1.0
143
1.0
 70
 11952
 72
     1
 73
     0
 74
     4
  7
yuasa.ctb
 75
    16
147
1.0
 76
     0
 77
     2
 78
   300
148
-1100.0
149
0.0
1001
ACAD_PSEXT
1000
Canon iPF610 普通紙.pc3
1000
Canon iPF610
1000
IP_192.168.0.23
1000

1070
     0
  0
PLOTSETTINGS
  5
47AC
102
{ACAD_REACTORS
330
19
102
}
330
19
100
AcDbPlotSettings
  1
LBP8610 A3
  2
LBP8610 手差し.pc3
  4
A3
  6

 40
5.873749732971191
 41
5.873747825622558
 42
5.873748779296875
 43
5.873748779296875
 44
296.9259948730469
 45
419.9466552734374
 46
-5.910751819610595
 47
-5.900420665740966
 48
600.0
 49
0.0
140
1020.0
141
297.0
142
1.0
143
1.0
 70
 11956
 72
     1
 73
     1
 74
     4
  7
yuasa.ctb
 75
    16
147
1.0
 76
     0
 77
     2
 78
   300
148
-600.0
149
0.0
1001
ACAD_PSEXT
1000
LBP8610 手差し.pc3
1000
Canon LBP8630/8620/8610 LIPS
1000
IP_192.168.0.223
1000

1070
     0
  0
PLOTSETTINGS
  5
47B5
102
{ACAD_REACTORS
330
19
102
}
330
19
100
AcDbPlotSettings
  1
LBP8610 A4
  2
LBP8610 手差し.pc3
  4
A4
  6

 40
5.873749732971191
 41
5.873747825622558
 42
5.873748779296875
 43
5.873748779296875
 44
209.9733276367187
 45
296.9259948730469
 46
-6.5
 47
-4.5
 48
1100.0
 49
0.0
140
1310.0
141
297.0
142
1.0
143
1.0
 70
 11952
 72
     1
 73
     0
 74
     4
  7
yuasa.ctb
 75
    16
147
1.0
 76
     0
 77
     2
 78
   300
148
-1100.0
149
0.0
1001
ACAD_PSEXT
1000
LBP8610 手差し.pc3
1000
Canon LBP8630/8620/8610 LIPS
1000
IP_192.168.0.223
1000

1070
     0
  0
PLOTSETTINGS
  5
5056
102
{ACAD_REACTORS
330
19
102
}
330
19
100
AcDbPlotSettings
  1
LBP9100C A3
  2
Canon LBP9100C 手差し.pc3
  4
A3
  6

 40
5.789083003997802
 41
5.789072513580322
 42
5.7890625
 43
5.789093017578125
 44
296.9259948730469
 45
419.9466552734374
 46
-5.826075315475463
 47
-5.815755128860473
 48
600.0
 49
0.0
140
1020.0
141
297.0
142
1.0
143
1.0
 70
 11956
 72
     1
 73
     1
 74
     4
  7
yuasa.ctb
 75
    16
147
1.0
 76
     0
 77
     2
 78
   300
148
-600.0
149
0.0
1001
ACAD_PSEXT
1000
Canon LBP9100C 手差し.pc3
1000
Canon LBP9100C
1000
IP_192.168.0.215
1000

1070
     0
  0
PLOTSETTINGS
  5
505F
102
{ACAD_REACTORS
330
19
102
}
330
19
100
AcDbPlotSettings
  1
LBP9100C A4
  2
Canon LBP9100C 手差し.pc3
  4
A4
  6

 40
5.789083003997802
 41
5.789072513580322
 42
5.789077758789062
 43
5.789093017578125
 44
209.9733276367187
 45
296.9259948730469
 46
-5.802416563034057
 47
-5.826085329055786
 48
1100.0
 49
0.0
140
1310.0
141
297.0
142
1.0
143
1.0
 70
 11956
 72
     1
 73
     0
 74
     4
  7
yuasa.ctb
 75
    16
147
1.0
 76
     0
 77
     2
 78
   300
148
-1100.0
149
0.0
1001
ACAD_PSEXT
1000
Canon LBP9100C 手差し.pc3
1000
Canon LBP9100C
1000
IP_192.168.0.215
1000

1070
     0
  0
ACDBPLACEHOLDER
  5
F
102
{ACAD_REACTORS
330
E
102
}
330
E
  0
SCALE
  5
4052
102
{ACAD_REACTORS
330
4051
102
}
330
4051
100
AcDbScale
 70
     0
300
1:1
140
1.0
141
1.0
290
     1
  0
SCALE
  5
4053
102
{ACAD_REACTORS
330
4051
102
}
330
4051
100
AcDbScale
 70
     0
300
1:2
140
1.0
141
2.0
290
     0
  0
SCALE
  5
4054
102
{ACAD_REACTORS
330
4051
102
}
330
4051
100
AcDbScale
 70
     0
300
1:4
140
1.0
141
4.0
290
     0
  0
SCALE
  5
4055
102
{ACAD_REACTORS
330
4051
102
}
330
4051
100
AcDbScale
 70
     0
300
1:5
140
1.0
141
5.0
290
     0
  0
SCALE
  5
4056
102
{ACAD_REACTORS
330
4051
102
}
330
4051
100
AcDbScale
 70
     0
300
1:8
140
1.0
141
8.0
290
     0
  0
SCALE
  5
4057
102
{ACAD_REACTORS
330
4051
102
}
330
4051
100
AcDbScale
 70
     0
300
1:10
140
1.0
141
10.0
290
     0
  0
SCALE
  5
4058
102
{ACAD_REACTORS
330
4051
102
}
330
4051
100
AcDbScale
 70
     0
300
1:16
140
1.0
141
16.0
290
     0
  0
SCALE
  5
4059
102
{ACAD_REACTORS
330
4051
102
}
330
4051
100
AcDbScale
 70
     0
300
1:20
140
1.0
141
20.0
290
     0
  0
SCALE
  5
405A
102
{ACAD_REACTORS
330
4051
102
}
330
4051
100
AcDbScale
 70
     0
300
1:30
140
1.0
141
30.0
290
     0
  0
SCALE
  5
405B
102
{ACAD_REACTORS
330
4051
102
}
330
4051
100
AcDbScale
 70
     0
300
1:40
140
1.0
141
40.0
290
     0
  0
SCALE
  5
405C
102
{ACAD_REACTORS
330
4051
102
}
330
4051
100
AcDbScale
 70
     0
300
1:50
140
1.0
141
50.0
290
     0
  0
SCALE
  5
405D
102
{ACAD_REACTORS
330
4051
102
}
330
4051
100
AcDbScale
 70
     0
300
1:100
140
1.0
141
100.0
290
     0
  0
SCALE
  5
405E
102
{ACAD_REACTORS
330
4051
102
}
330
4051
100
AcDbScale
 70
     0
300
2:1
140
2.0
141
1.0
290
     0
  0
SCALE
  5
405F
102
{ACAD_REACTORS
330
4051
102
}
330
4051
100
AcDbScale
 70
     0
300
4:1
140
4.0
141
1.0
290
     0
  0
SCALE
  5
4060
102
{ACAD_REACTORS
330
4051
102
}
330
4051
100
AcDbScale
 70
     0
300
8:1
140
8.0
141
1.0
290
     0
  0
SCALE
  5
4061
102
{ACAD_REACTORS
330
4051
102
}
330
4051
100
AcDbScale
 70
     0
300
10:1
140
10.0
141
1.0
290
     0
  0
SCALE
  5
4062
102
{ACAD_REACTORS
330
4051
102
}
330
4051
100
AcDbScale
 70
     0
300
100:1
140
100.0
141
1.0
290
     0
  0
ACDBSECTIONVIEWSTYLE
  5
6074
102
{ACAD_XDICTIONARY
360
7177
102
}
102
{ACAD_REACTORS
330
4065
102
}
330
4065
100
AcDbModelDocViewStyle
 70
     0
  3
Imperial24
290
     0
100
AcDbSectionViewStyle
 70
     0
 71
     0
 90
       78
 71
     1
340
11
 62
   256
 40
0.24
340
0
340
0
 62
   256
 40
0.24
300
I, O, Q, S, X, Z
 40
0.48
 90
        3
 40
0.18
 90
        1
 71
     2
340
16
 90
       25
 62
   256
340
16
 90
       50
 62
   256
 40
0.24
 40
0.0
 40
0.24
 71
     3
340
11
 62
   256
 40
0.24
 90
        1
 40
0.75
 90
        1
300
%<\AcVar ViewType \f "%tc1">% %<\AcVar ViewSectionStartId>%-%<\AcVar ViewSectionEndId>%\PSCALE %<\AcVar ViewScale \f "%sn">%
 71
     4
 62
   256
 62
   257
300
ANSI31
 40
1.0
 90
        0
290
     0
290
     0
 90
        6
 40
0.0
 40
1.570796326794896
 40
0.2617993877991494
 40
1.308996938995747
 40
-0.2617993877991494
 40
1.832595714594046
  0
ACDBSECTIONVIEWSTYLE
  5
4066
102
{ACAD_XDICTIONARY
360
40CB
102
}
102
{ACAD_REACTORS
330
4065
102
}
330
4065
100
AcDbModelDocViewStyle
 70
     0
  3
Metric50
290
     0
100
AcDbSectionViewStyle
 70
     0
 71
     0
 90
      102
 71
     1
340
11
 62
   256
 40
5.0
340
0
340
0
 62
   256
 40
5.0
300
I, O, Q, S, X, Z
 40
10.0
 90
        0
 40
2.5
 90
        0
 71
     2
340
16
 90
       25
 62
   256
340
16
 90
       50
 62
   256
 40
5.0
 40
2.5
 40
5.0
 71
     3
340
11
 62
   256
 40
5.0
 90
        0
 40
15.0
 90
        1
300
%<\AcVar ViewSectionStartId>%-%<\AcVar ViewSectionEndId>% (%<\AcVar ViewScale \f "%sn">%)
 71
     4
 62
   256
 62
   257
300
ANSI31
 40
1.0
 90
        0
290
     0
290
     0
 90
        6
 40
0.0
 40
1.570796326794896
 40
0.2617993877991494
 40
1.308996938995747
 40
-0.2617993877991494
 40
1.832595714594046
  0
TABLESTYLE
  5
4050
102
{ACAD_XDICTIONARY
360
CE11
102
}
102
{ACAD_REACTORS
330
404F
102
}
330
404F
100
AcDbTableStyle
280
     0
  3
Standard
 70
     0
 71
     0
 40
1.5
 41
1.5
280
     0
281
     0
  7
Standard
140
4.5
170
     2
 62
     0
 63
     7
283
     0
 90
      512
 91
        0
  1

274
    -2
284
     1
 64
     0
275
    -2
285
     1
 65
     0
276
    -2
286
     1
 66
     0
277
    -2
287
     1
 67
     0
278
    -2
288
     1
 68
     0
279
    -2
289
     1
 69
     0
  7
Standard
140
6.0
170
     5
 62
     0
 63
     7
283
     0
 90
      512
 91
        0
  1

274
    -2
284
     1
 64
     0
275
    -2
285
     1
 65
     0
276
    -2
286
     1
 66
     0
277
    -2
287
     1
 67
     0
278
    -2
288
     1
 68
     0
279
    -2
289
     1
 69
     0
  7
Standard
140
4.5
170
     5
 62
     0
 63
     7
283
     0
 90
      512
 91
        0
  1

274
    -2
284
     1
 64
     0
275
    -2
285
     1
 65
     0
276
    -2
286
     1
 66
     0
277
    -2
287
     1
 67
     0
278
    -2
288
     1
 68
     0
279
    -2
289
     1
 69
     0
  0
VISUALSTYLE
  5
403B
102
{ACAD_REACTORS
330
4035
102
}
330
4035
100
AcDbVisualStyle
  2
2dWireframe
 70
     4
177
     3
291
     0
 70
    58
 90
        0
176
     1
 90
        2
176
     1
 90
        0
176
     1
 90
        0
176
     1
 40
0.6
176
     1
 40
30.0
176
     1
 62
     7
420
 16777215
176
     1
 90
        1
176
     1
 90
        4
176
     1
 62
     7
176
     1
 62
   257
176
     1
 90
        1
176
     1
 90
        1
176
     1
 40
1.0
176
     1
 90
        0
176
     1
 62
   257
176
     1
 40
1.0
176
     1
 90
        1
176
     1
 90
        6
176
     1
 90
        2
176
     1
 62
     7
176
     1
 90
        5
176
     1
 90
        0
176
     1
 90
        0
176
     1
290
     0
176
     1
 90
        1
176
     1
 40
0.0
176
     1
 90
        0
176
     1
290
     1
176
     1
290
     1
176
     1
290
     0
176
     1
290
     0
176
     1
290
     0
176
     1
290
     0
176
     1
290
     0
176
     1
290
     0
176
     1
290
     0
176
     1
 90
       50
176
     1
 40
0.0
176
     1
 40
1.0
176
     1
 90
        0
176
     1
 62
    18
420
        0
176
     1
 90
       50
176
     1
 90
        3
176
     1
 62
     5
420
      255
176
     1
290
     0
176
     1
 90
       50
176
     1
 90
       50
176
     1
 90
       50
176
     1
290
     0
176
     1
 90
       50
176
     1
 62
   256
176
     0
 40
1.0
176
     0
 90
        2
176
     1
  1
strokes_ogs.tif
176
     1
290
     0
176
     1
 40
1.0
176
     1
 40
1.0
176
     1
  0
VISUALSTYLE
  5
403A
102
{ACAD_REACTORS
330
4035
102
}
330
4035
100
AcDbVisualStyle
  2
Basic
 70
     7
177
     3
291
     1
 70
    58
 90
        1
176
     1
 90
        0
176
     1
 90
        1
176
     1
 90
        0
176
     1
 40
0.6
176
     1
 40
30.0
176
     1
 62
     7
420
 16777215
176
     1
 90
        0
176
     1
 90
        4
176
     1
 62
     7
176
     1
 62
   257
176
     1
 90
        1
176
     1
 90
        1
176
     1
 40
1.0
176
     1
 90
        8
176
     1
 62
     7
176
     1
 40
1.0
176
     1
 90
        1
176
     1
 90
        6
176
     1
 90
        2
176
     1
 62
     7
176
     1
 90
        5
176
     1
 90
        0
176
     1
 90
        0
176
     1
290
     0
176
     1
 90
        1
176
     1
 40
0.0
176
     1
 90
        0
176
     1
290
     0
176
     1
290
     1
176
     1
290
     1
176
     1
290
     0
176
     1
290
     0
176
     1
290
     0
176
     1
290
     0
176
     1
290
     0
176
     1
290
     0
176
     1
 90
       50
176
     1
 40
0.0
176
     1
 40
1.0
176
     1
 90
        0
176
     1
 62
    18
420
        0
176
     1
 90
       50
176
     1
 90
        3
176
     1
 62
     5
420
      255
176
     1
290
     0
176
     1
 90
       50
176
     1
 90
       50
176
     1
 90
       50
176
     1
290
     0
176
     1
 90
       50
176
     1
 62
   256
176
     0
 40
1.0
176
     0
 90
        2
176
     1
  1
strokes_ogs.tif
176
     1
290
     0
176
     1
 40
1.0
176
     1
 40
1.0
176
     1
  0
VISUALSTYLE
  5
4041
102
{ACAD_REACTORS
330
4035
102
}
330
4035
100
AcDbVisualStyle
  2
Brighten
 70
    12
177
     3
291
     1
 70
    58
 90
        2
176
     1
 90
        2
176
     1
 90
        0
176
     1
 90
        0
176
     1
 40
0.6
176
     1
 40
30.0
176
     1
 62
     7
420
 16777215
176
     1
 90
        1
176
     1
 90
        4
176
     1
 62
     7
176
     1
 62
   257
176
     1
 90
        1
176
     1
 90
        1
176
     1
 40
1.0
176
     1
 90
        8
176
     1
 62
     7
176
     1
 40
1.0
176
     1
 90
        1
176
     1
 90
        6
176
     1
 90
        2
176
     1
 62
     7
176
     1
 90
        5
176
     1
 90
        0
176
     1
 90
        0
176
     1
290
     0
176
     1
 90
        1
176
     1
 40
50.0
176
     1
 90
        0
176
     1
290
     0
176
     1
290
     1
176
     1
290
     1
176
     1
290
     0
176
     1
290
     0
176
     1
290
     0
176
     1
290
     0
176
     1
290
     0
176
     1
290
     0
176
     1
 90
       50
176
     1
 40
0.0
176
     1
 40
1.0
176
     1
 90
        0
176
     1
 62
    18
420
        0
176
     1
 90
       50
176
     1
 90
        3
176
     1
 62
     5
420
      255
176
     1
290
     0
176
     1
 90
       50
176
     1
 90
       50
176
     1
 90
       50
176
     1
290
     0
176
     1
 90
       50
176
     1
 62
   256
176
     0
 40
1.0
176
     0
 90
        2
176
     1
  1
strokes_ogs.tif
176
     1
290
     0
176
     1
 40
1.0
176
     1
 40
1.0
176
     1
  0
VISUALSTYLE
  5
4045
102
{ACAD_REACTORS
330
4035
102
}
330
4035
100
AcDbVisualStyle
  2
ColorChange
 70
    16
177
     3
291
     1
 70
    58
 90
        2
176
     1
 90
        2
176
     1
 90
        3
176
     1
 90
        0
176
     1
 40
0.6
176
     1
 40
30.0
176
     1
 62
     8
420
  8421504
176
     1
 90
        1
176
     1
 90
        4
176
     1
 62
     7
176
     1
 62
   257
176
     1
 90
        1
176
     1
 90
        1
176
     1
 40
1.0
176
     1
 90
        8
176
     1
 62
     8
420
  8421504
176
     1
 40
1.0
176
     1
 90
        1
176
     1
 90
        6
176
     1
 90
        2
176
     1
 62
     7
176
     1
 90
        5
176
     1
 90
        0
176
     1
 90
        0
176
     1
290
     0
176
     1
 90
        1
176
     1
 40
0.0
176
     1
 90
        0
176
     1
290
     0
176
     1
290
     1
176
     1
290
     1
176
     1
290
     0
176
     1
290
     0
176
     1
290
     0
176
     1
290
     0
176
     1
290
     0
176
     1
290
     0
176
     1
 90
       50
176
     1
 40
0.0
176
     1
 40
1.0
176
     1
 90
        0
176
     1
 62
    18
420
        0
176
     1
 90
       50
176
     1
 90
        3
176
     1
 62
     5
420
      255
176
     1
290
     0
176
     1
 90
       50
176
     1
 90
       50
176
     1
 90
       50
176
     1
290
     0
176
     1
 90
       50
176
     1
 62
   256
176
     0
 40
1.0
176
     0
 90
        2
176
     1
  1
strokes_ogs.tif
176
     1
290
     0
176
     1
 40
1.0
176
     1
 40
1.0
176
     1
  0
VISUALSTYLE
  5
403E
102
{ACAD_REACTORS
330
4035
102
}
330
4035
100
AcDbVisualStyle
  2
Conceptual
 70
     9
177
     3
291
     0
 70
    58
 90
        3
176
     1
 90
        2
176
     1
 90
        0
176
     1
 90
        0
176
     1
 40
0.6
176
     1
 40
30.0
176
     1
 62
     7
420
 16777215
176
     1
 90
        2
176
     1
 90
        2
176
     1
 62
     7
176
     1
 62
   257
176
     1
 90
        1
176
     1
 90
        1
176
     1
 40
179.0
176
     1
 90
        8
176
     1
 62
     7
176
     1
 40
1.0
176
     1
 90
        1
176
     1
 90
        6
176
     1
 90
        2
176
     1
 62
     7
176
     1
 90
        3
176
     1
 90
        0
176
     1
 90
        0
176
     1
290
     0
176
     1
 90
        1
176
     1
 40
0.0
176
     1
 90
        0
176
     1
290
     0
176
     1
290
     1
176
     1
290
     1
176
     1
290
     0
176
     1
290
     0
176
     1
290
     0
176
     1
290
     0
176
     1
290
     0
176
     1
290
     0
176
     1
 90
       50
176
     1
 40
0.0
176
     1
 40
1.0
176
     1
 90
        0
176
     1
 62
    18
420
        0
176
     1
 90
       50
176
     1
 90
        3
176
     1
 62
     5
420
      255
176
     1
290
     0
176
     1
 90
       50
176
     1
 90
       50
176
     1
 90
       50
176
     1
290
     0
176
     1
 90
       50
176
     1
 62
   256
176
     0
 40
1.0
176
     0
 90
        2
176
     1
  1
strokes_ogs.tif
176
     1
290
     0
176
     1
 40
1.0
176
     1
 40
1.0
176
     1
  0
VISUALSTYLE
  5
4040
102
{ACAD_REACTORS
330
4035
102
}
330
4035
100
AcDbVisualStyle
  2
Dim
 70
    11
177
     3
291
     1
 70
    58
 90
        2
176
     1
 90
        2
176
     1
 90
        0
176
     1
 90
        0
176
     1
 40
0.6
176
     1
 40
30.0
176
     1
 62
     7
420
 16777215
176
     1
 90
        1
176
     1
 90
        4
176
     1
 62
     7
176
     1
 62
   257
176
     1
 90
        1
176
     1
 90
        1
176
     1
 40
1.0
176
     1
 90
        8
176
     1
 62
     7
176
     1
 40
1.0
176
     1
 90
        1
176
     1
 90
        6
176
     1
 90
        2
176
     1
 62
     7
176
     1
 90
        5
176
     1
 90
        0
176
     1
 90
        0
176
     1
290
     0
176
     1
 90
        1
176
     1
 40
-50.0
176
     1
 90
        0
176
     1
290
     0
176
     1
290
     1
176
     1
290
     1
176
     1
290
     0
176
     1
290
     0
176
     1
290
     0
176
     1
290
     0
176
     1
290
     0
176
     1
290
     0
176
     1
 90
       50
176
     1
 40
0.0
176
     1
 40
1.0
176
     1
 90
        0
176
     1
 62
    18
420
        0
176
     1
 90
       50
176
     1
 90
        3
176
     1
 62
     5
420
      255
176
     1
290
     0
176
     1
 90
       50
176
     1
 90
       50
176
     1
 90
       50
176
     1
290
     0
176
     1
 90
       50
176
     1
 62
   256
176
     0
 40
1.0
176
     0
 90
        2
176
     1
  1
strokes_ogs.tif
176
     1
290
     0
176
     1
 40
1.0
176
     1
 40
1.0
176
     1
  0
VISUALSTYLE
  5
404D
102
{ACAD_REACTORS
330
4035
102
}
330
4035
100
AcDbVisualStyle
  2
EdgeColorOff
 70
    22
177
     3
291
     1
 70
    58
 90
        2
176
     0
 90
        2
176
     0
 90
        0
176
     0
 90
        0
176
     0
 40
0.6
176
     0
 40
30.0
176
     0
 62
     7
420
 16777215
176
     0
 90
        1
176
     0
 90
        4
176
     0
 62
     7
176
     0
 62
   257
176
     0
 90
        1
176
     0
 90
        1
176
     0
 40
1.0
176
     0
 90
        8
176
     2
 62
     7
176
     0
 40
1.0
176
     0
 90
        1
176
     0
 90
        6
176
     0
 90
        2
176
     0
 62
     7
176
     0
 90
        5
176
     0
 90
        0
176
     0
 90
        0
176
     0
290
     0
176
     0
 90
        1
176
     0
 40
0.0
176
     0
 90
        0
176
     0
290
     0
176
     0
290
     1
176
     0
290
     1
176
     0
290
     0
176
     0
290
     0
176
     0
290
     0
176
     0
290
     0
176
     0
290
     0
176
     0
290
     0
176
     0
 90
       50
176
     0
 40
0.0
176
     0
 40
1.0
176
     0
 90
        0
176
     0
 62
    18
420
        0
176
     0
 90
       50
176
     0
 90
        3
176
     0
 62
     5
420
      255
176
     0
290
     0
176
     0
 90
       50
176
     0
 90
       50
176
     0
 90
       50
176
     0
290
     0
176
     0
 90
       50
176
     0
 62
   256
176
     0
 40
1.0
176
     0
 90
        2
176
     0
  1
strokes_ogs.tif
176
     0
290
     0
176
     0
 40
1.0
176
     0
 40
1.0
176
     0
  0
VISUALSTYLE
  5
4044
102
{ACAD_REACTORS
330
4035
102
}
330
4035
100
AcDbVisualStyle
  2
Facepattern
 70
    15
177
     3
291
     1
 70
    58
 90
        2
176
     1
 90
        2
176
     1
 90
        0
176
     1
 90
        0
176
     1
 40
0.6
176
     1
 40
30.0
176
     1
 62
     7
420
 16777215
176
     1
 90
        1
176
     1
 90
        4
176
     1
 62
     7
176
     1
 62
   257
176
     1
 90
        1
176
     1
 90
        1
176
     1
 40
1.0
176
     1
 90
        8
176
     1
 62
     7
176
     1
 40
1.0
176
     1
 90
        1
176
     1
 90
        6
176
     1
 90
        2
176
     1
 62
     7
176
     1
 90
        5
176
     1
 90
        0
176
     1
 90
        0
176
     1
290
     0
176
     1
 90
        1
176
     1
 40
0.0
176
     1
 90
        0
176
     1
290
     0
176
     1
290
     1
176
     1
290
     1
176
     1
290
     0
176
     1
290
     0
176
     1
290
     0
176
     1
290
     0
176
     1
290
     0
176
     1
290
     0
176
     1
 90
       50
176
     1
 40
0.0
176
     1
 40
1.0
176
     1
 90
        0
176
     1
 62
    18
420
        0
176
     1
 90
       50
176
     1
 90
        3
176
     1
 62
     5
420
      255
176
     1
290
     0
176
     1
 90
       50
176
     1
 90
       50
176
     1
 90
       50
176
     1
290
     0
176
     1
 90
       50
176
     1
 62
   256
176
     0
 40
1.0
176
     0
 90
        2
176
     1
  1
strokes_ogs.tif
176
     1
290
     0
176
     1
 40
1.0
176
     1
 40
1.0
176
     1
  0
VISUALSTYLE
  5
4036
102
{ACAD_REACTORS
330
4035
102
}
330
4035
100
AcDbVisualStyle
  2
Flat
 70
     0
177
     3
291
     1
 70
    58
 90
        2
176
     1
 90
        1
176
     1
 90
        1
176
     1
 90
        2
176
     1
 40
0.6
176
     1
 40
30.0
176
     1
 62
     7
420
 16777215
176
     1
 90
        0
176
     1
 90
        0
176
     1
 62
     7
176
     1
 62
   257
176
     1
 90
        1
176
     1
 90
        1
176
     1
 40
1.0
176
     1
 90
        8
176
     1
 62
     7
176
     1
 40
1.0
176
     1
 90
        1
176
     1
 90
        6
176
     1
 90
        2
176
     1
 62
     7
176
     1
 90
        5
176
     1
 90
        0
176
     1
 90
        0
176
     1
290
     0
176
     1
 90
       13
176
     1
 40
0.0
176
     1
 90
        0
176
     1
290
     0
176
     1
290
     1
176
     1
290
     1
176
     1
290
     0
176
     1
290
     0
176
     1
290
     0
176
     1
290
     0
176
     1
290
     0
176
     1
290
     0
176
     1
 90
       50
176
     1
 40
0.0
176
     1
 40
1.0
176
     1
 90
        0
176
     1
 62
    18
420
        0
176
     1
 90
       50
176
     1
 90
        3
176
     1
 62
     5
420
      255
176
     1
290
     0
176
     1
 90
       50
176
     1
 90
       50
176
     1
 90
       50
176
     1
290
     0
176
     1
 90
       50
176
     1
 62
   256
176
     0
 40
1.0
176
     0
 90
        2
176
     1
  1
strokes_ogs.tif
176
     1
290
     0
176
     1
 40
1.0
176
     1
 40
1.0
176
     1
  0
VISUALSTYLE
  5
4037
102
{ACAD_REACTORS
330
4035
102
}
330
4035
100
AcDbVisualStyle
  2
FlatWithEdges
 70
     1
177
     3
291
     1
 70
    58
 90
        2
176
     1
 90
        1
176
     1
 90
        1
176
     1
 90
        2
176
     1
 40
0.6
176
     1
 40
30.0
176
     1
 62
     7
420
 16777215
176
     1
 90
        1
176
     1
 90
        0
176
     1
 62
     7
176
     1
 62
   257
176
     1
 90
        1
176
     1
 90
        1
176
     1
 40
1.0
176
     1
 90
        0
176
     1
 62
   257
176
     1
 40
1.0
176
     1
 90
        1
176
     1
 90
        6
176
     1
 90
        2
176
     1
 62
     7
176
     1
 90
        5
176
     1
 90
        0
176
     1
 90
        0
176
     1
290
     0
176
     1
 90
       13
176
     1
 40
0.0
176
     1
 90
        0
176
     1
290
     0
176
     1
290
     1
176
     1
290
     1
176
     1
290
     0
176
     1
290
     0
176
     1
290
     0
176
     1
290
     0
176
     1
290
     0
176
     1
290
     0
176
     1
 90
       50
176
     1
 40
0.0
176
     1
 40
1.0
176
     1
 90
        0
176
     1
 62
    18
420
        0
176
     1
 90
       50
176
     1
 90
        3
176
     1
 62
     5
420
      255
176
     1
290
     0
176
     1
 90
       50
176
     1
 90
       50
176
     1
 90
       50
176
     1
290
     0
176
     1
 90
       50
176
     1
 62
   256
176
     0
 40
1.0
176
     0
 90
        2
176
     1
  1
strokes_ogs.tif
176
     1
290
     0
176
     1
 40
1.0
176
     1
 40
1.0
176
     1
  0
VISUALSTYLE
  5
4038
102
{ACAD_REACTORS
330
4035
102
}
330
4035
100
AcDbVisualStyle
  2
Gouraud
 70
     2
177
     3
291
     1
 70
    58
 90
        2
176
     1
 90
        2
176
     1
 90
        1
176
     1
 90
        2
176
     1
 40
0.6
176
     1
 40
30.0
176
     1
 62
     7
420
 16777215
176
     1
 90
        0
176
     1
 90
        0
176
     1
 62
     7
176
     1
 62
   257
176
     1
 90
        1
176
     1
 90
        1
176
     1
 40
1.0
176
     1
 90
        0
176
     1
 62
     7
176
     1
 40
1.0
176
     1
 90
        1
176
     1
 90
        6
176
     1
 90
        2
176
     1
 62
     7
176
     1
 90
        5
176
     1
 90
        0
176
     1
 90
        0
176
     1
290
     0
176
     1
 90
       13
176
     1
 40
0.0
176
     1
 90
        0
176
     1
290
     0
176
     1
290
     1
176
     1
290
     1
176
     1
290
     0
176
     1
290
     0
176
     1
290
     0
176
     1
290
     0
176
     1
290
     0
176
     1
290
     0
176
     1
 90
       50
176
     1
 40
0.0
176
     1
 40
1.0
176
     1
 90
        0
176
     1
 62
    18
420
        0
176
     1
 90
       50
176
     1
 90
        3
176
     1
 62
     5
420
      255
176
     1
290
     0
176
     1
 90
       50
176
     1
 90
       50
176
     1
 90
       50
176
     1
290
     0
176
     1
 90
       50
176
     1
 62
   256
176
     0
 40
1.0
176
     0
 90
        2
176
     1
  1
strokes_ogs.tif
176
     1
290
     0
176
     1
 40
1.0
176
     1
 40
1.0
176
     1
  0
VISUALSTYLE
  5
4039
102
{ACAD_REACTORS
330
4035
102
}
330
4035
100
AcDbVisualStyle
  2
GouraudWithEdges
 70
     3
177
     3
291
     1
 70
    58
 90
        2
176
     1
 90
        2
176
     1
 90
        1
176
     1
 90
        2
176
     1
 40
0.6
176
     1
 40
30.0
176
     1
 62
     7
420
 16777215
176
     1
 90
        1
176
     1
 90
        0
176
     1
 62
     7
176
     1
 62
   257
176
     1
 90
        1
176
     1
 90
        1
176
     1
 40
1.0
176
     1
 90
        0
176
     1
 62
   257
176
     1
 40
1.0
176
     1
 90
        1
176
     1
 90
        6
176
     1
 90
        2
176
     1
 62
     7
176
     1
 90
        5
176
     1
 90
        0
176
     1
 90
        0
176
     1
290
     0
176
     1
 90
       13
176
     1
 40
0.0
176
     1
 90
        0
176
     1
290
     0
176
     1
290
     1
176
     1
290
     1
176
     1
290
     0
176
     1
290
     0
176
     1
290
     0
176
     1
290
     0
176
     1
290
     0
176
     1
290
     0
176
     1
 90
       50
176
     1
 40
0.0
176
     1
 40
1.0
176
     1
 90
        0
176
     1
 62
    18
420
        0
176
     1
 90
       50
176
     1
 90
        3
176
     1
 62
     5
420
      255
176
     1
290
     0
176
     1
 90
       50
176
     1
 90
       50
176
     1
 90
       50
176
     1
290
     0
176
     1
 90
       50
176
     1
 62
   256
176
     0
 40
1.0
176
     0
 90
        2
176
     1
  1
strokes_ogs.tif
176
     1
290
     0
176
     1
 40
1.0
176
     1
 40
1.0
176
     1
  0
VISUALSTYLE
  5
403D
102
{ACAD_REACTORS
330
4035
102
}
330
4035
100
AcDbVisualStyle
  2
Hidden
 70
     6
177
     3
291
     0
 70
    58
 90
        1
176
     1
 90
        2
176
     1
 90
        2
176
     1
 90
        0
176
     1
 40
0.6
176
     1
 40
30.0
176
     1
 62
     7
420
 16777215
176
     1
 90
        2
176
     1
 90
        2
176
     1
 62
     7
176
     1
 62
   257
176
     1
 90
        2
176
     1
 90
        1
176
     1
 40
40.0
176
     1
 90
        0
176
     1
 62
   257
176
     1
 40
1.0
176
     1
 90
        1
176
     1
 90
        6
176
     1
 90
        2
176
     1
 62
     7
176
     1
 90
        3
176
     1
 90
        0
176
     1
 90
        0
176
     1
290
     0
176
     1
 90
        1
176
     1
 40
0.0
176
     1
 90
        0
176
     1
290
     0
176
     1
290
     1
176
     1
290
     1
176
     1
290
     0
176
     1
290
     0
176
     1
290
     0
176
     1
290
     0
176
     1
290
     0
176
     1
290
     0
176
     1
 90
       50
176
     1
 40
0.0
176
     1
 40
1.0
176
     1
 90
        0
176
     1
 62
    18
420
        0
176
     1
 90
       50
176
     1
 90
        3
176
     1
 62
     5
420
      255
176
     1
290
     0
176
     1
 90
       50
176
     1
 90
       50
176
     1
 90
       50
176
     1
290
     0
176
     1
 90
       50
176
     1
 62
   256
176
     0
 40
1.0
176
     0
 90
        2
176
     1
  1
strokes_ogs.tif
176
     1
290
     0
176
     1
 40
1.0
176
     1
 40
1.0
176
     1
  0
VISUALSTYLE
  5
404B
102
{ACAD_REACTORS
330
4035
102
}
330
4035
100
AcDbVisualStyle
  2
JitterOff
 70
    20
177
     3
291
     1
 70
    58
 90
        2
176
     0
 90
        2
176
     0
 90
        0
176
     0
 90
        0
176
     0
 40
0.6
176
     0
 40
30.0
176
     0
 62
     7
420
 16777215
176
     0
 90
        1
176
     0
 90
        4
176
     0
 62
     7
176
     0
 62
   257
176
     0
 90
        1
176
     0
 90
        1
176
     0
 40
1.0
176
     0
 90
       10
176
     2
 62
     7
176
     0
 40
1.0
176
     0
 90
        1
176
     0
 90
        6
176
     0
 90
        2
176
     0
 62
     7
176
     0
 90
        5
176
     0
 90
        0
176
     0
 90
        0
176
     0
290
     0
176
     0
 90
        1
176
     0
 40
0.0
176
     0
 90
        0
176
     0
290
     0
176
     0
290
     1
176
     0
290
     1
176
     0
290
     0
176
     0
290
     0
176
     0
290
     0
176
     0
290
     0
176
     0
290
     0
176
     0
290
     0
176
     0
 90
       50
176
     0
 40
0.0
176
     0
 40
1.0
176
     0
 90
        0
176
     0
 62
    18
420
        0
176
     0
 90
       50
176
     0
 90
        3
176
     0
 62
     5
420
      255
176
     0
290
     0
176
     0
 90
       50
176
     0
 90
       50
176
     0
 90
       50
176
     0
290
     0
176
     0
 90
       50
176
     0
 62
   256
176
     0
 40
1.0
176
     0
 90
        2
176
     0
  1
strokes_ogs.tif
176
     0
290
     0
176
     0
 40
1.0
176
     0
 40
1.0
176
     0
  0
VISUALSTYLE
  5
4043
102
{ACAD_REACTORS
330
4035
102
}
330
4035
100
AcDbVisualStyle
  2
Linepattern
 70
    14
177
     3
291
     1
 70
    58
 90
        2
176
     1
 90
        2
176
     1
 90
        0
176
     1
 90
        0
176
     1
 40
0.6
176
     1
 40
30.0
176
     1
 62
     7
420
 16777215
176
     1
 90
        1
176
     1
 90
        4
176
     1
 62
     7
176
     1
 62
   257
176
     1
 90
        7
176
     1
 90
        7
176
     1
 40
1.0
176
     1
 90
        8
176
     1
 62
     7
176
     1
 40
1.0
176
     1
 90
        1
176
     1
 90
        6
176
     1
 90
        2
176
     1
 62
     7
176
     1
 90
        5
176
     1
 90
        0
176
     1
 90
        0
176
     1
290
     0
176
     1
 90
        1
176
     1
 40
0.0
176
     1
 90
        0
176
     1
290
     0
176
     1
290
     1
176
     1
290
     1
176
     1
290
     0
176
     1
290
     0
176
     1
290
     0
176
     1
290
     0
176
     1
290
     0
176
     1
290
     0
176
     1
 90
       50
176
     1
 40
0.0
176
     1
 40
1.0
176
     1
 90
        0
176
     1
 62
    18
420
        0
176
     1
 90
       50
176
     1
 90
        3
176
     1
 62
     5
420
      255
176
     1
290
     0
176
     1
 90
       50
176
     1
 90
       50
176
     1
 90
       50
176
     1
290
     0
176
     1
 90
       50
176
     1
 62
   256
176
     0
 40
1.0
176
     0
 90
        2
176
     1
  1
strokes_ogs.tif
176
     1
290
     0
176
     1
 40
1.0
176
     1
 40
1.0
176
     1
  0
VISUALSTYLE
  5
404C
102
{ACAD_REACTORS
330
4035
102
}
330
4035
100
AcDbVisualStyle
  2
OverhangOff
 70
    21
177
     3
291
     1
 70
    58
 90
        2
176
     0
 90
        2
176
     0
 90
        0
176
     0
 90
        0
176
     0
 40
0.6
176
     0
 40
30.0
176
     0
 62
     7
420
 16777215
176
     0
 90
        1
176
     0
 90
        4
176
     0
 62
     7
176
     0
 62
   257
176
     0
 90
        1
176
     0
 90
        1
176
     0
 40
1.0
176
     0
 90
        9
176
     2
 62
     7
176
     0
 40
1.0
176
     0
 90
        1
176
     0
 90
        6
176
     0
 90
        2
176
     0
 62
     7
176
     0
 90
        5
176
     0
 90
        0
176
     0
 90
        0
176
     0
290
     0
176
     0
 90
        1
176
     0
 40
0.0
176
     0
 90
        0
176
     0
290
     0
176
     0
290
     1
176
     0
290
     1
176
     0
290
     0
176
     0
290
     0
176
     0
290
     0
176
     0
290
     0
176
     0
290
     0
176
     0
290
     0
176
     0
 90
       50
176
     0
 40
0.0
176
     0
 40
1.0
176
     0
 90
        0
176
     0
 62
    18
420
        0
176
     0
 90
       50
176
     0
 90
        3
176
     0
 62
     5
420
      255
176
     0
290
     0
176
     0
 90
       50
176
     0
 90
       50
176
     0
 90
       50
176
     0
290
     0
176
     0
 90
       50
176
     0
 62
   256
176
     0
 40
1.0
176
     0
 90
        2
176
     0
  1
strokes_ogs.tif
176
     0
290
     0
176
     0
 40
1.0
176
     0
 40
1.0
176
     0
  0
VISUALSTYLE
  5
403F
102
{ACAD_REACTORS
330
4035
102
}
330
4035
100
AcDbVisualStyle
  2
Realistic
 70
     8
177
     3
291
     0
 70
    58
 90
        2
176
     1
 90
        3
176
     1
 90
        0
176
     1
 90
        2
176
     1
 40
0.6
176
     1
 40
30.0
176
     1
 62
     7
420
 16777215
176
     1
 90
        0
176
     1
 90
        0
176
     1
 62
     7
176
     1
 62
   257
176
     1
 90
        1
176
     1
 90
        1
176
     1
 40
1.0
176
     1
 90
        8
176
     1
 62
   257
176
     1
 40
1.0
176
     1
 90
        1
176
     1
 90
        6
176
     1
 90
        2
176
     1
 62
     7
176
     1
 90
        3
176
     1
 90
        0
176
     1
 90
        0
176
     1
290
     0
176
     1
 90
       13
176
     1
 40
0.0
176
     1
 90
        0
176
     1
290
     0
176
     1
290
     1
176
     1
290
     1
176
     1
290
     0
176
     1
290
     0
176
     1
290
     0
176
     1
290
     0
176
     1
290
     0
176
     1
290
     0
176
     1
 90
       50
176
     1
 40
0.0
176
     1
 40
1.0
176
     1
 90
        0
176
     1
 62
    18
420
        0
176
     1
 90
       50
176
     1
 90
        3
176
     1
 62
     5
420
      255
176
     1
290
     0
176
     1
 90
       50
176
     1
 90
       50
176
     1
 90
       50
176
     1
290
     0
176
     1
 90
       50
176
     1
 62
   256
176
     0
 40
1.0
176
     0
 90
        2
176
     1
  1
strokes_ogs.tif
176
     1
290
     0
176
     1
 40
1.0
176
     1
 40
1.0
176
     1
  0
VISUALSTYLE
  5
404A
102
{ACAD_REACTORS
330
4035
102
}
330
4035
100
AcDbVisualStyle
  2
Shaded
 70
    27
177
     3
291
     0
 70
    58
 90
        2
176
     1
 90
        2
176
     1
 90
        1
176
     1
 90
        2
176
     1
 40
0.6
176
     1
 40
30.0
176
     1
 62
     7
420
 16777215
176
     1
 90
        0
176
     1
 90
        4
176
     1
 62
     7
176
     1
 62
   257
176
     1
 90
        1
176
     1
 90
        1
176
     1
 40
1.0
176
     1
 90
        8
176
     1
 62
   257
176
     1
 40
1.0
176
     1
 90
        1
176
     1
 90
        6
176
     1
 90
        2
176
     1
 62
     8
420
  7895160
176
     1
 90
        3
176
     1
 90
        0
176
     1
 90
        0
176
     1
290
     0
176
     1
 90
        5
176
     1
 40
0.0
176
     1
 90
        0
176
     1
290
     0
176
     1
290
     1
176
     1
290
     1
176
     1
290
     0
176
     1
290
     0
176
     1
290
     0
176
     1
290
     0
176
     1
290
     0
176
     1
290
     0
176
     1
 90
       50
176
     1
 40
0.0
176
     1
 40
1.0
176
     1
 90
        0
176
     1
 62
    18
420
        0
176
     1
 90
       50
176
     1
 90
        3
176
     1
 62
     5
420
      255
176
     1
290
     0
176
     1
 90
       50
176
     1
 90
       50
176
     1
 90
       50
176
     1
290
     0
176
     1
 90
       50
176
     1
 62
   256
176
     0
 40
1.0
176
     0
 90
        2
176
     1
  1
strokes_ogs.tif
176
     1
290
     0
176
     1
 40
1.0
176
     1
 40
1.0
176
     1
  0
VISUALSTYLE
  5
4049
102
{ACAD_REACTORS
330
4035
102
}
330
4035
100
AcDbVisualStyle
  2
Shaded with edges
 70
    26
177
     3
291
     0
 70
    58
 90
        2
176
     1
 90
        2
176
     1
 90
        1
176
     1
 90
        2
176
     1
 40
0.6
176
     1
 40
30.0
176
     1
 62
     7
420
 16777215
176
     1
 90
        1
176
     1
 90
       10
176
     1
 62
     7
176
     1
 62
   257
176
     1
 90
        2
176
     1
 90
        1
176
     1
 40
1.0
176
     1
 90
        8
176
     1
 62
   257
176
     1
 40
1.0
176
     1
 90
        1
176
     1
 90
        6
176
     1
 90
        2
176
     1
 62
     7
176
     1
 90
        3
176
     1
 90
        0
176
     1
 90
        0
176
     1
290
     0
176
     1
 90
        5
176
     1
 40
0.0
176
     1
 90
        0
176
     1
290
     0
176
     1
290
     1
176
     1
290
     1
176
     1
290
     0
176
     1
290
     0
176
     1
290
     0
176
     1
290
     0
176
     1
290
     0
176
     1
290
     0
176
     1
 90
       50
176
     1
 40
0.0
176
     1
 40
1.0
176
     1
 90
        0
176
     1
 62
    18
420
        0
176
     1
 90
       50
176
     1
 90
        3
176
     1
 62
     5
420
      255
176
     1
290
     0
176
     1
 90
       50
176
     1
 90
       50
176
     1
 90
       50
176
     1
290
     0
176
     1
 90
       50
176
     1
 62
   256
176
     0
 40
1.0
176
     0
 90
        2
176
     1
  1
strokes_ogs.tif
176
     1
290
     0
176
     1
 40
1.0
176
     1
 40
1.0
176
     1
  0
VISUALSTYLE
  5
4046
102
{ACAD_REACTORS
330
4035
102
}
330
4035
100
AcDbVisualStyle
  2
Shades of Gray
 70
    23
177
     3
291
     0
 70
    58
 90
        2
176
     1
 90
        2
176
     1
 90
        3
176
     1
 90
        0
176
     1
 40
0.6
176
     1
 40
30.0
176
     1
 62
     7
420
 16777215
176
     1
 90
        2
176
     1
 90
        2
176
     1
 62
     7
176
     1
 62
     7
176
     1
 90
        1
176
     1
 90
        1
176
     1
 40
40.0
176
     1
 90
        8
176
     1
 62
     7
176
     1
 40
1.0
176
     1
 90
        1
176
     1
 90
        6
176
     1
 90
        2
176
     1
 62
     7
176
     1
 90
        3
176
     1
 90
        0
176
     1
 90
        0
176
     1
290
     0
176
     1
 90
        1
176
     1
 40
0.0
176
     1
 90
        0
176
     1
290
     0
176
     1
290
     1
176
     1
290
     1
176
     1
290
     0
176
     1
290
     0
176
     1
290
     0
176
     1
290
     0
176
     1
290
     0
176
     1
290
     0
176
     1
 90
       50
176
     1
 40
0.0
176
     1
 40
1.0
176
     1
 90
        0
176
     1
 62
    18
420
        0
176
     1
 90
       50
176
     1
 90
        3
176
     1
 62
     5
420
      255
176
     1
290
     0
176
     1
 90
       50
176
     1
 90
       50
176
     1
 90
       50
176
     1
290
     0
176
     1
 90
       50
176
     1
 62
   256
176
     0
 40
1.0
176
     0
 90
        2
176
     1
  1
strokes_ogs.tif
176
     1
290
     0
176
     1
 40
1.0
176
     1
 40
1.0
176
     1
  0
VISUALSTYLE
  5
4047
102
{ACAD_REACTORS
330
4035
102
}
330
4035
100
AcDbVisualStyle
  2
Sketchy
 70
    24
177
     3
291
     0
 70
    58
 90
        1
176
     1
 90
        2
176
     1
 90
        2
176
     1
 90
        0
176
     1
 40
0.6
176
     1
 40
30.0
176
     1
 62
     7
420
 16777215
176
     1
 90
        2
176
     1
 90
        2
176
     1
 62
     7
176
     1
 62
     7
176
     1
 90
        1
176
     1
 90
        1
176
     1
 40
40.0
176
     1
 90
       11
176
     1
 62
     7
176
     1
 40
1.0
176
     1
 90
        1
176
     1
 90
        6
176
     1
 90
        2
176
     1
 62
     7
176
     1
 90
        6
176
     1
 90
        0
176
     1
 90
        0
176
     1
290
     0
176
     1
 90
        1
176
     1
 40
0.0
176
     1
 90
        0
176
     1
290
     0
176
     1
290
     1
176
     1
290
     1
176
     1
290
     0
176
     1
290
     0
176
     1
290
     0
176
     1
290
     0
176
     1
290
     0
176
     1
290
     0
176
     1
 90
       50
176
     1
 40
0.0
176
     1
 40
1.0
176
     1
 90
        0
176
     1
 62
    18
420
        0
176
     1
 90
       50
176
     1
 90
        3
176
     1
 62
     5
420
      255
176
     1
290
     0
176
     1
 90
       50
176
     1
 90
       50
176
     1
 90
       50
176
     1
290
     0
176
     1
 90
       50
176
     1
 62
   256
176
     0
 40
1.0
176
     0
 90
        2
176
     1
  1
strokes_ogs.tif
176
     1
290
     0
176
     1
 40
1.0
176
     1
 40
1.0
176
     1
  0
VISUALSTYLE
  5
4042
102
{ACAD_REACTORS
330
4035
102
}
330
4035
100
AcDbVisualStyle
  2
Thicken
 70
    13
177
     3
291
     1
 70
    58
 90
        2
176
     1
 90
        2
176
     1
 90
        0
176
     1
 90
        0
176
     1
 40
0.6
176
     1
 40
30.0
176
     1
 62
     7
420
 16777215
176
     1
 90
        1
176
     1
 90
        4
176
     1
 62
     7
176
     1
 62
   257
176
     1
 90
        1
176
     1
 90
        1
176
     1
 40
1.0
176
     1
 90
       12
176
     1
 62
     7
176
     1
 40
1.0
176
     1
 90
        1
176
     1
 90
        6
176
     1
 90
        2
176
     1
 62
     7
176
     1
 90
        5
176
     1
 90
        0
176
     1
 90
        0
176
     1
290
     0
176
     1
 90
        1
176
     1
 40
0.0
176
     1
 90
        0
176
     1
290
     0
176
     1
290
     1
176
     1
290
     1
176
     1
290
     0
176
     1
290
     0
176
     1
290
     0
176
     1
290
     0
176
     1
290
     0
176
     1
290
     0
176
     1
 90
       50
176
     1
 40
0.0
176
     1
 40
1.0
176
     1
 90
        0
176
     1
 62
    18
420
        0
176
     1
 90
       50
176
     1
 90
        3
176
     1
 62
     5
420
      255
176
     1
290
     0
176
     1
 90
       50
176
     1
 90
       50
176
     1
 90
       50
176
     1
290
     0
176
     1
 90
       50
176
     1
 62
   256
176
     0
 40
1.0
176
     0
 90
        2
176
     1
  1
strokes_ogs.tif
176
     1
290
     0
176
     1
 40
1.0
176
     1
 40
1.0
176
     1
  0
VISUALSTYLE
  5
403C
102
{ACAD_REACTORS
330
4035
102
}
330
4035
100
AcDbVisualStyle
  2
Wireframe
 70
     5
177
     3
291
     0
 70
    58
 90
        0
176
     1
 90
        2
176
     1
 90
        0
176
     1
 90
        0
176
     1
 40
0.6
176
     1
 40
30.0
176
     1
 62
     7
420
 16777215
176
     1
 90
        1
176
     1
 90
        4
176
     1
 62
     7
176
     1
 62
   257
176
     1
 90
        1
176
     1
 90
        1
176
     1
 40
1.0
176
     1
 90
        0
176
     1
 62
   257
176
     1
 40
1.0
176
     1
 90
        1
176
     1
 90
        6
176
     1
 90
        2
176
     1
 62
     7
176
     1
 90
        3
176
     1
 90
        0
176
     1
 90
        0
176
     1
290
     0
176
     1
 90
        1
176
     1
 40
0.0
176
     1
 90
        0
176
     1
290
     0
176
     1
290
     1
176
     1
290
     1
176
     1
290
     0
176
     1
290
     0
176
     1
290
     0
176
     1
290
     0
176
     1
290
     0
176
     1
290
     0
176
     1
 90
       50
176
     1
 40
0.0
176
     1
 40
1.0
176
     1
 90
        0
176
     1
 62
    18
420
        0
176
     1
 90
       50
176
     1
 90
        3
176
     1
 62
     5
420
      255
176
     1
290
     0
176
     1
 90
       50
176
     1
 90
       50
176
     1
 90
       50
176
     1
290
     0
176
     1
 90
       50
176
     1
 62
   256
176
     0
 40
1.0
176
     0
 90
        2
176
     1
  1
strokes_ogs.tif
176
     1
290
     0
176
     1
 40
1.0
176
     1
 40
1.0
176
     1
  0
VISUALSTYLE
  5
4048
102
{ACAD_REACTORS
330
4035
102
}
330
4035
100
AcDbVisualStyle
  2
X-Ray
 70
    25
177
     3
291
     0
 70
    58
 90
        2
176
     1
 90
        2
176
     1
 90
        1
176
     1
 90
        1
176
     1
 40
0.5
176
     1
 40
30.0
176
     1
 62
     7
420
 16777215
176
     1
 90
        1
176
     1
 90
        0
176
     1
 62
     7
176
     1
 62
   257
176
     1
 90
        1
176
     1
 90
        1
176
     1
 40
1.0
176
     1
 90
        8
176
     1
 62
     7
176
     1
 40
1.0
176
     1
 90
        1
176
     1
 90
        6
176
     1
 90
        2
176
     1
 62
     7
176
     1
 90
        3
176
     1
 90
        0
176
     1
 90
        0
176
     1
290
     0
176
     1
 90
       13
176
     1
 40
0.0
176
     1
 90
        0
176
     1
290
     0
176
     1
290
     1
176
     1
290
     1
176
     1
290
     0
176
     1
290
     0
176
     1
290
     0
176
     1
290
     0
176
     1
290
     0
176
     1
290
     0
176
     1
 90
       50
176
     1
 40
0.0
176
     1
 40
1.0
176
     1
 90
        0
176
     1
 62
    18
420
        0
176
     1
 90
       50
176
     1
 90
        3
176
     1
 62
     5
420
      255
176
     1
290
     0
176
     1
 90
       50
176
     1
 90
       50
176
     1
 90
       50
176
     1
290
     0
176
     1
 90
       50
176
     1
 62
   256
176
     0
 40
1.0
176
     0
 90
        2
176
     1
  1
strokes_ogs.tif
176
     1
290
     0
176
     1
 40
1.0
176
     1
 40
1.0
176
     1
  0
DICTIONARYVAR
  5
40D5
102
{ACAD_REACTORS
330
5E
102
}
330
5E
100
DictionaryVariables
280
     0
  1
1:1
  0
DICTIONARYVAR
  5
40D1
102
{ACAD_REACTORS
330
5E
102
}
330
5E
100
DictionaryVariables
280
     0
  1
引出線
  0
DICTIONARYVAR
  5
40D0
102
{ACAD_REACTORS
330
5E
102
}
330
5E
100
DictionaryVariables
280
     0
  1
STANDARD
  0
DICTIONARYVAR
  5
40D2
102
{ACAD_REACTORS
330
5E
102
}
330
5E
100
DictionaryVariables
280
     0
  1
Metric50
  0
DICTIONARYVAR
  5
40D3
102
{ACAD_REACTORS
330
5E
102
}
330
5E
100
DictionaryVariables
280
     0
  1
Metric50
  0
DICTIONARYVAR
  5
5F
102
{ACAD_REACTORS
330
5E
102
}
330
5E
100
DictionaryVariables
280
     0
  1
2
  0
DICTIONARYVAR
  5
63
102
{ACAD_REACTORS
330
5E
102
}
330
5E
100
DictionaryVariables
280
     0
  1
1
  0
DICTIONARYVAR
  5
40D7
102
{ACAD_REACTORS
330
5E
102
}
330
5E
100
DictionaryVariables
280
     0
  1
1
  0
DICTIONARYVAR
  5
40D8
102
{ACAD_REACTORS
330
5E
102
}
330
5E
100
DictionaryVariables
280
     0
  1
15
  0
DICTIONARYVAR
  5
40D6
102
{ACAD_REACTORS
330
5E
102
}
330
5E
100
DictionaryVariables
280
     0
  1
0
  0
DICTIONARYVAR
  5
5028
102
{ACAD_REACTORS
330
5E
102
}
330
5E
100
DictionaryVariables
280
     0
  1
1
  0
DICTIONARYVAR
  5
40D4
102
{ACAD_REACTORS
330
5E
102
}
330
5E
100
DictionaryVariables
280
     0
  1
0
  0
DICTIONARY
  5
7179
330
6075
100
AcDbDictionary
280
     1
281
     1
  3
ACAD_XREC_ROUNDTRIP
360
CE16
  0
DICTIONARY
  5
40CD
330
4068
100
AcDbDictionary
280
     1
281
     1
  3
ACAD_XREC_ROUNDTRIP
360
CE14
  0
DICTIONARY
  5
4026
330
4025
100
AcDbDictionary
280
     1
281
     1
  3
BUMPTILE
360
4028
  3
DIFFUSETILE
360
4027
  3
OPACITYTILE
360
402B
  3
REFLECTIONTILE
360
402A
  3
REFRACTIONTILE
360
402C
  3
SPECULARTILE
360
4029
  0
DICTIONARY
  5
401E
330
401D
100
AcDbDictionary
280
     1
281
     1
  3
BUMPTILE
360
4020
  3
DIFFUSETILE
360
401F
  3
OPACITYTILE
360
4023
  3
REFLECTIONTILE
360
4022
  3
REFRACTIONTILE
360
4024
  3
SPECULARTILE
360
4021
  0
DICTIONARY
  5
402E
330
402D
100
AcDbDictionary
280
     1
281
     1
  3
BUMPTILE
360
4030
  3
DIFFUSETILE
360
402F
  3
OPACITYTILE
360
4033
  3
REFLECTIONTILE
360
4032
  3
REFRACTIONTILE
360
4034
  3
SPECULARTILE
360
4031
  0
DICTIONARY
  5
7177
330
6074
100
AcDbDictionary
280
     1
281
     1
  3
ACAD_XREC_ROUNDTRIP
360
CE15
  0
DICTIONARY
  5
40CB
330
4066
100
AcDbDictionary
280
     1
281
     1
  3
ACAD_XREC_ROUNDTRIP
360
CE13
  0
DICTIONARY
  5
CE11
330
4050
100
AcDbDictionary
280
     1
281
     1
  3
ACAD_ROUNDTRIP_2008_TABLESTYLE_CELLSTYLEMAP
360
CE12
  0
XRECORD
  5
CE16
102
{ACAD_REACTORS
330
7179
102
}
330
7179
100
AcDbXrecord
280
     1
102
DISPLAYNAME
  1
Imperial24
102
FLAGS
 90
        0
  0
XRECORD
  5
CE14
102
{ACAD_REACTORS
330
40CD
102
}
330
40CD
100
AcDbXrecord
280
     1
102
DISPLAYNAME
  1
Metric50
102
FLAGS
 90
        0
  0
XRECORD
  5
4028
102
{ACAD_REACTORS
330
4026
102
}
330
4026
100
AcDbXrecord
280
     1
270
     1
271
     1
  0
XRECORD
  5
4027
102
{ACAD_REACTORS
330
4026
102
}
330
4026
100
AcDbXrecord
280
     1
270
     1
271
     1
  0
XRECORD
  5
402B
102
{ACAD_REACTORS
330
4026
102
}
330
4026
100
AcDbXrecord
280
     1
270
     1
271
     1
  0
XRECORD
  5
402A
102
{ACAD_REACTORS
330
4026
102
}
330
4026
100
AcDbXrecord
280
     1
270
     1
271
     1
  0
XRECORD
  5
402C
102
{ACAD_REACTORS
330
4026
102
}
330
4026
100
AcDbXrecord
280
     1
270
     1
271
     1
  0
XRECORD
  5
4029
102
{ACAD_REACTORS
330
4026
102
}
330
4026
100
AcDbXrecord
280
     1
270
     1
271
     1
  0
XRECORD
  5
4020
102
{ACAD_REACTORS
330
401E
102
}
330
401E
100
AcDbXrecord
280
     1
270
     1
271
     1
  0
XRECORD
  5
401F
102
{ACAD_REACTORS
330
401E
102
}
330
401E
100
AcDbXrecord
280
     1
270
     1
271
     1
  0
XRECORD
  5
4023
102
{ACAD_REACTORS
330
401E
102
}
330
401E
100
AcDbXrecord
280
     1
270
     1
271
     1
  0
XRECORD
  5
4022
102
{ACAD_REACTORS
330
401E
102
}
330
401E
100
AcDbXrecord
280
     1
270
     1
271
     1
  0
XRECORD
  5
4024
102
{ACAD_REACTORS
330
401E
102
}
330
401E
100
AcDbXrecord
280
     1
270
     1
271
     1
  0
XRECORD
  5
4021
102
{ACAD_REACTORS
330
401E
102
}
330
401E
100
AcDbXrecord
280
     1
270
     1
271
     1
  0
XRECORD
  5
4030
102
{ACAD_REACTORS
330
402E
102
}
330
402E
100
AcDbXrecord
280
     1
270
     1
271
     1
  0
XRECORD
  5
402F
102
{ACAD_REACTORS
330
402E
102
}
330
402E
100
AcDbXrecord
280
     1
270
     1
271
     1
  0
XRECORD
  5
4033
102
{ACAD_REACTORS
330
402E
102
}
330
402E
100
AcDbXrecord
280
     1
270
     1
271
     1
  0
XRECORD
  5
4032
102
{ACAD_REACTORS
330
402E
102
}
330
402E
100
AcDbXrecord
280
     1
270
     1
271
     1
  0
XRECORD
  5
4034
102
{ACAD_REACTORS
330
402E
102
}
330
402E
100
AcDbXrecord
280
     1
270
     1
271
     1
  0
XRECORD
  5
4031
102
{ACAD_REACTORS
330
402E
102
}
330
402E
100
AcDbXrecord
280
     1
270
     1
271
     1
  0
XRECORD
  5
CE15
102
{ACAD_REACTORS
330
7177
102
}
330
7177
100
AcDbXrecord
280
     1
102
DISPLAYNAME
  1
Imperial24
102
FLAGS
 90
        0
  0
XRECORD
  5
CE13
102
{ACAD_REACTORS
330
40CB
102
}
330
40CB
100
AcDbXrecord
280
     1
102
DISPLAYNAME
  1
Metric50
102
FLAGS
 90
        0
  0
CELLSTYLEMAP
  5
CE12
102
{ACAD_REACTORS
330
CE11
102
}
330
CE11
100
AcDbCellStyleMap
 90
        3
300
CELLSTYLE
  1
TABLEFORMAT_BEGIN
 90
        5
170
     1
 91
        0
 92
    32768
 62
   257
 93
        1
300
CONTENTFORMAT
  1
CONTENTFORMAT_BEGIN
 90
        0
 91
        0
 92
      512
 93
        0
300

 40
0.0
140
1.0
 94
        5
 62
     0
340
11
144
6.0
309
CONTENTFORMAT_END
171
     1
301
MARGIN
  1
CELLMARGIN_BEGIN
 40
1.5
 40
1.5
 40
1.5
 40
1.5
 40
4.5
 40
4.5
309
CELLMARGIN_END
 94
        6
 95
        1
302
GRIDFORMAT
  1
GRIDFORMAT_BEGIN
 90
        0
 91
        1
 62
     0
 92
       -2
340
0
 93
        0
 40
1.125
309
GRIDFORMAT_END
 95
        2
302
GRIDFORMAT
  1
GRIDFORMAT_BEGIN
 90
        0
 91
        1
 62
     0
 92
       -2
340
0
 93
        0
 40
1.125
309
GRIDFORMAT_END
 95
        4
302
GRIDFORMAT
  1
GRIDFORMAT_BEGIN
 90
        0
 91
        1
 62
     0
 92
       -2
340
0
 93
        0
 40
1.125
309
GRIDFORMAT_END
 95
        8
302
GRIDFORMAT
  1
GRIDFORMAT_BEGIN
 90
        0
 91
        1
 62
     0
 92
       -2
340
0
 93
        0
 40
1.125
309
GRIDFORMAT_END
 95
       16
302
GRIDFORMAT
  1
GRIDFORMAT_BEGIN
 90
        0
 91
        1
 62
     0
 92
       -2
340
0
 93
        0
 40
1.125
309
GRIDFORMAT_END
 95
       32
302
GRIDFORMAT
  1
GRIDFORMAT_BEGIN
 90
        0
 91
        1
 62
     0
 92
       -2
340
0
 93
        0
 40
1.125
309
GRIDFORMAT_END
309
TABLEFORMAT_END
  1
CELLSTYLE_BEGIN
 90
        1
 91
        1
300
_TITLE
309
CELLSTYLE_END
300
CELLSTYLE
  1
TABLEFORMAT_BEGIN
 90
        5
170
     1
 91
        0
 92
        0
 62
   257
 93
        1
300
CONTENTFORMAT
  1
CONTENTFORMAT_BEGIN
 90
        0
 91
        0
 92
      512
 93
        0
300

 40
0.0
140
1.0
 94
        5
 62
     0
340
11
144
4.5
309
CONTENTFORMAT_END
171
     1
301
MARGIN
  1
CELLMARGIN_BEGIN
 40
1.5
 40
1.5
 40
1.5
 40
1.5
 40
4.5
 40
4.5
309
CELLMARGIN_END
 94
        6
 95
        1
302
GRIDFORMAT
  1
GRIDFORMAT_BEGIN
 90
        0
 91
        1
 62
     0
 92
       -2
340
0
 93
        0
 40
1.125
309
GRIDFORMAT_END
 95
        2
302
GRIDFORMAT
  1
GRIDFORMAT_BEGIN
 90
        0
 91
        1
 62
     0
 92
       -2
340
0
 93
        0
 40
1.125
309
GRIDFORMAT_END
 95
        4
302
GRIDFORMAT
  1
GRIDFORMAT_BEGIN
 90
        0
 91
        1
 62
     0
 92
       -2
340
0
 93
        0
 40
1.125
309
GRIDFORMAT_END
 95
        8
302
GRIDFORMAT
  1
GRIDFORMAT_BEGIN
 90
        0
 91
        1
 62
     0
 92
       -2
340
0
 93
        0
 40
1.125
309
GRIDFORMAT_END
 95
       16
302
GRIDFORMAT
  1
GRIDFORMAT_BEGIN
 90
        0
 91
        1
 62
     0
 92
       -2
340
0
 93
        0
 40
1.125
309
GRIDFORMAT_END
 95
       32
302
GRIDFORMAT
  1
GRIDFORMAT_BEGIN
 90
        0
 91
        1
 62
     0
 92
       -2
340
0
 93
        0
 40
1.125
309
GRIDFORMAT_END
309
TABLEFORMAT_END
  1
CELLSTYLE_BEGIN
 90
        2
 91
        1
300
_HEADER
309
CELLSTYLE_END
300
CELLSTYLE
  1
TABLEFORMAT_BEGIN
 90
        5
170
     1
 91
        0
 92
        0
 62
   257
 93
        1
300
CONTENTFORMAT
  1
CONTENTFORMAT_BEGIN
 90
        0
 91
        0
 92
      512
 93
        0
300

 40
0.0
140
1.0
 94
        2
 62
     0
340
11
144
4.5
309
CONTENTFORMAT_END
171
     1
301
MARGIN
  1
CELLMARGIN_BEGIN
 40
1.5
 40
1.5
 40
1.5
 40
1.5
 40
4.5
 40
4.5
309
CELLMARGIN_END
 94
        6
 95
        1
302
GRIDFORMAT
  1
GRIDFORMAT_BEGIN
 90
        0
 91
        1
 62
     0
 92
       -2
340
0
 93
        0
 40
1.125
309
GRIDFORMAT_END
 95
        2
302
GRIDFORMAT
  1
GRIDFORMAT_BEGIN
 90
        0
 91
        1
 62
     0
 92
       -2
340
0
 93
        0
 40
1.125
309
GRIDFORMAT_END
 95
        4
302
GRIDFORMAT
  1
GRIDFORMAT_BEGIN
 90
        0
 91
        1
 62
     0
 92
       -2
340
0
 93
        0
 40
1.125
309
GRIDFORMAT_END
 95
        8
302
GRIDFORMAT
  1
GRIDFORMAT_BEGIN
 90
        0
 91
        1
 62
     0
 92
       -2
340
0
 93
        0
 40
1.125
309
GRIDFORMAT_END
 95
       16
302
GRIDFORMAT
  1
GRIDFORMAT_BEGIN
 90
        0
 91
        1
 62
     0
 92
       -2
340
0
 93
        0
 40
1.125
309
GRIDFORMAT_END
 95
       32
302
GRIDFORMAT
  1
GRIDFORMAT_BEGIN
 90
        0
 91
        1
 62
     0
 92
       -2
340
0
 93
        0
 40
1.125
309
GRIDFORMAT_END
309
TABLEFORMAT_END
  1
CELLSTYLE_BEGIN
 90
        3
 91
        2
300
_DATA
309
CELLSTYLE_END
  0
ENDSEC
  0
SECTION
  2
ACDSDATA
 70
     2
 71
     6
  0
ACDSSCHEMA
 90
        0
  1
AcDb_Thumbnail_Schema
  2
AcDbDs::ID
280
    10
 91
        8
  2
Thumbnail_Data
280
    15
 91
        0
101
ACDSRECORD
 95
        0
 90
        1
  2
AcDbDs::TreatedAsObjectData
280
     1
291
     1
101
ACDSRECORD
 95
        0
 90
        2
  2
AcDbDs::Legacy
280
     1
291
     1
101
ACDSRECORD
  1
AcDbDs::ID
 90
        3
  2
AcDs:Indexable
280
     1
291
     1
101
ACDSRECORD
  1
AcDbDs::ID
 90
        4
  2
AcDbDs::HandleAttribute
280
     7
282
     1
  0
ACDSSCHEMA
 90
        1
  1
AcDbDs::TreatedAsObjectDataSchema
  2
AcDbDs::TreatedAsObjectData
280
     1
 91
        0
  0
ACDSSCHEMA
 90
        2
  1
AcDbDs::LegacySchema
  2
AcDbDs::Legacy
280
     1
 91
        0
  0
ACDSSCHEMA
 90
        3
  1
AcDbDs::IndexedPropertySchema
  2
AcDs:Indexable
280
     1
 91
        0
  0
ACDSSCHEMA
 90
        4
  1
AcDbDs::HandleAttributeSchema
  2
AcDbDs::HandleAttribute
280
     7
 91
        1
284
     1
  0
ACDSSCHEMA
 90
        5
  1
AcDb3DSolid_ASM_Data
  2
AcDbDs::ID
280
    10
 91
        8
  2
ASM_Data
280
    15
 91
        0
101
ACDSRECORD
 95
        5
 90
        1
  2
AcDbDs::TreatedAsObjectData
280
     1
291
     1
101
ACDSRECORD
 95
        5
 90
        2
  2
AcDbDs::Legacy
280
     1
291
     1
101
ACDSRECORD
  1
AcDbDs::ID
 90
        3
  2
AcDs:Indexable
280
     1
291
     1
101
ACDSRECORD
  1
AcDbDs::ID
 90
        4
  2
AcDbDs::HandleAttribute
280
     7
282
     1
  0
ACDSRECORD
 90
        0
  2
AcDbDs::ID
280
    10
320
22
  2
Thumbnail_Data
280
    15
 94
     2879
310
89504E470D0A1A0A0000000D4948445200000100000000AE0803000000EECD237E00000300504C5445212830000000C8C8C80000000000000000000000000000000000000000000000000000330000660000990000CC0000FF0033000033330033660033990033CC0033FF0066000066330066660066990066CC0066FF0099
310
000099330099660099990099CC0099FF00CC0000CC3300CC6600CC9900CCCC00CCFF00FF0000FF3300FF6600FF9900FFCC00FFFF3300003300333300663300993300CC3300FF3333003333333333663333993333CC3333FF3366003366333366663366993366CC3366FF3399003399333399663399993399CC3399FF33CC00
310
33CC3333CC6633CC9933CCCC33CCFF33FF0033FF3333FF6633FF9933FFCC33FFFF6600006600336600666600996600CC6600FF6633006633336633666633996633CC6633FF6666006666336666666666996666CC6666FF6699006699336699666699996699CC6699FF66CC0066CC3366CC6666CC9966CCCC66CCFF66FF0066
310
FF3366FF6666FF9966FFCC66FFFF9900009900339900669900999900CC9900FF9933009933339933669933999933CC9933FF9966009966339966669966999966CC9966FF9999009999339999669999999999CC9999FF99CC0099CC3399CC6699CC9999CCCC99CCFF99FF0099FF3399FF6699FF9999FFCC99FFFFCC0000CC00
310
33CC0066CC0099CC00CCCC00FFCC3300CC3333CC3366CC3399CC33CCCC33FFCC6600CC6633CC6666CC6699CC66CCCC66FFCC9900CC9933CC9966CC9999CC99CCCC99FFCCCC00CCCC33CCCC66CCCC99CCCCCCCCCCFFCCFF00CCFF33CCFF66CCFF99CCFFCCCCFFFFFF0000FF0033FF0066FF0099FF00CCFF00FFFF3300FF3333
310
FF3366FF3399FF33CCFF33FFFF6600FF6633FF6666FF6699FF66CCFF66FFFF9900FF9933FF9966FF9999FF99CCFF99FFFFCC00FFCC33FFCC66FFCC99FFCCCCFFCCFFFFFF00FFFF33FFFF66FFFF99FFFFCCFFFFFF0000000D0D0D1A1A1A2828283535354343435050505D5D5D6B6B6B787878868686939393A1A1A1AEAEAEBB
310
BBBBC9C9C9D6D6D6E4E4E4F1F1F1FFFFFF000000000000000000000000000000000000000000000000000000000000B21171F6000001D04944415478DAEDDD516E824014405196E3FE17302B79DBE87FA52546139011461C79E7B6357ED8091C06A448D261902449922449922465EA27752340EAAD0F000000000000000000
310
00000000000000000000000000008EEA525D796CCF505D016C7B65D933D429000A0000B9010600000000000000000000000000000000402680B87E650688B8FEF40E70D97A89BA0660E8136066AD2E6FDA05AEF501B0B625DF04D0C141B072F69E18A0DDCB00F40AD0E2D0FDCD00CFD73103C0D3E1CC80730394260D774FD6
310
9E77B90BA43F060000E04428F38990536100CF2A9FFF73F8B3374995CF5F10E90260EDF2502E8017DE43F65D14EDE2183034ABB4BB59BA7AA8D21540BB57968D2301000000000000CD973AC68FB1370E15AD00E617E2208085F538166076ACEE01A2E50CF84E80683603BE1160E137BBDA052A1A6FE3D856FC7DCF7CD4F2FA
310
522D2C448B19501ABC158E63D40D35BD726DA96A166AFC3CCA79C05E80730500000000000000000000000000000000000000404680ECFF674892244992A47777BB7D311E1FD2ACFFD2432A80FF279113209203DC8E01134044E5ADF5679B05D3E64F3803A6359EB67CDE7781BC3320EEEE638F94BB40DC8EFE1901622167C8
310
92244992244992A443FA057BE1C1BD63BDAF240000000049454E44AE42608282E5E4A4A10598A61680E4731EC209B699023527C07D014846E8110BB8B80A8C00205D0DBF0570DFD30F01E097CBE0CD48D06803C077224163D401B83703B67CF468004E84F1E368776E000AA7C04D006B0AD0F400BAC7017C392BFCC0141821
310
129C1E40572738C614D85D03F8CA07F05FA4B305DC1AE1B3EFFFF8DC7C0158008603400BC0CC005CBDC0D400C85503CD0840AA806607A0DF020EC4FC7B99EDF54C7DCC2816F07725981558C058B2002C00C301580D14160035005CC17BA875769F4F032056FCC762F7839DCE3E25A6024056E51F41D4B42F8A85DB30686101
310
548028D5A76AB57403044F02B81ACD8B9AD6F40B1FF038822EAB404E00710E584BD8F1817200F0FA6F052216434100EA004402E9852F5B2D86DA2C7912415F00D9BDC6EDCCC816CCB1F88F36F3A05324C87BB5240090AE9AD1873620D0130087C57E3B2F0CAD2439CB7F3C4DA0D75E80E5BE9B3BEE7436C0FB6530F506D006
310
00D23E38B9F687A26D06A756005500C4FEC5108293DF0360FEE03295008075FA45CCCFC5674F12E805C0D67EB93AD90C80F704CA0148C8BB7F96806C82D97DAC9802340120DF40DA8FB837040EB171312DD4001003F0B78538A81F13220918EF0F999F20D00D805BE4913C5625CF0865EAFA8040090038B3CEA31C14000845
310
44044500BC59CB1B310DC8497A24B80576E9125D0092AFCB70082050BE4240098063FD938D524220248CA00640B6D12B32C0616508092348E0C8FA00ECF5E72416F004ACF2B6CF92020BA8CD00E4839F1E0DF825D3ABFFE38E32FD00D04500D2600AE2269095CDBD1AC04703C81AE9791340C81EBCB285C6F7009238212B9E
310
1EBF83C45F00646763D1EDC1074D17ABC7DF03009F9FAA93053F0500BCA383443EBA67BD1ECE7A42E44F653B6B20F1460BE0DF5800C6B4808A6916ABE07500173B48BCCB0972E103E65A0598EA00204FA2A377F612AB02E04B00EC1F39360D1BE2F8ABAF0E85AB26B06BA81D5C803D3E53B617B804C03B734893C507F2A203
310
2444927C08EF1305E97618728940694608F1660057D640B93F4250910FA8AD03A25A06005916143E27448A00B077F92E299E159967FAFB43146D5961A42D05E0D6F9707124CD82BB9B435A00242743C91B5CDE154E32C5AA4E86DCD9A864BAE18FC678773698A9EBAC450B007178AE83BA3B1C0DABE2FEB438EC1058D9F1B8
310
9FF6FE6A547E34B6CF933EE3017ADE1021D7182E9E101753A081FE5D01C4FB2054B90CA11C805FF9DCFA9EDE07E396FA7706C062F17404E0E1AB92FDAAC6DCD24FFEC8B3765374B735D205205E9595FB5221E5C3D5E1D77655361B5C0EB7C5737FD8E2BA78D7C249640064C3EB03E45D565FDB75F9625F0CF7942170B5C1BC
310
BA828998F308DB3FF100A8B557D057329329C721E563BFE2198AA63257E8B77ED5BAC1C70B07BB02B045A41C2602CA50F8F9D2D1BE00C837CC41A576B84DF1704F00B6963EEA9D9F8152A3F2F1AE00763D8FF39418917600D6FCF92040546F011F5A1ECF048069019816C09587902E00CA5701431303386E9A3803001A6202
310
74F501343100338C01F4033088FEFD7CC0EC0046D1FF7B00AF175AB264C992254B962C59B264C9B8123B73BBF354331B004A5537D3E92F9A4F0D209D02F34D80BD054C0A60F900F20F629BD407A4246623602AB282A336F23F83236ED5BDEADE2C0000000049454E44AE426082C034C6728EFA8CFF91155C653B46607F0000
310
000049454E44AE42608244AE42608273E7C2DE4C102573CB9F00586BFB0E00F01600E0B11AB0F5012DFB01D8DB6FE1120080521738D52649DABC0B0052000A4001280005A000EE0C60FC18A1750082B6E1A236E700D08500E80200A400D404B63AC1E1E304E79E2637D3F6921384AD00988DCBDB008CDB5E21B0390A081A5C
310
36816B00E076009B1FAAFAD7005CFAC871FA559B0A40012800FD0F1715800250000A4001280005A00014800250000A4001280005A00014800250000A4001280005A00014800250000A4001280005A000148002783A80570BA8A8A8A8A8A8A8A8A8A8A8A8A85C2DC63E10CE3D15CE709F81793802FF5275D5143F1F0CC04368
310
0030EF00C09A0040F3BF147C2C0063BC63086F9A976A40A608EFF5016FD000FF7C5C0E80797A20305ECFA17C4AEC2B0018A168CAA8A2A2A2A2A2A2A2A272BDFC07BBB3769926160E520000000049454E44AE426082
  0
ENDSEC
  0
EOF
