  0
SECTION
  2
HEADER
  9
$ACADVER
  1
AC1009
  9
$INSBASE
 10
0.0
 20
0.0
 30
0.0
  9
$EXTMIN
 10
594.0
 20
0.0
 30
0.0
  9
$EXTMAX
 10
1854.0
 20
891.0
 30
0.0
  9
$LIMMIN
 10
0.0
 20
0.0
  9
$LIMMAX
 10
420.0
 20
297.0
  9
$ORTHOMODE
 70
     0
  9
$REGENMODE
 70
     1
  9
$FILLMODE
 70
     1
  9
$QTEXTMODE
 70
     0
  9
$MIRRTEXT
 70
     1
  9
$DRAGMODE
 70
     2
  9
$LTSCALE
 40
2.0
  9
$OSMODE
 70
    39
  9
$ATTMODE
 70
     1
  9
$TEXTSIZE
 40
3.0
  9
$TRACEWID
 40
1.0
  9
$TEXTSTYLE
  7
STANDARD
  9
$CLAYER
  8
011形状
  9
$CELTYPE
  6
BYLAYER
  9
$CECOLOR
 62
   256
  9
$DIMSCALE
 40
1.0
  9
$DIMASZ
 40
7.5
  9
$DIMEXO
 40
1.5
  9
$DIMDLI
 40
3.75
  9
$DIMRND
 40
0.0
  9
$DIMDLE
 40
0.0
  9
$DIMEXE
 40
2.25
  9
$DIMTP
 40
0.0
  9
$DIMTM
 40
0.000000001
  9
$DIMTXT
 40
9.0
  9
$DIMCEN
 40
2.5
  9
$DIMTSZ
 40
0.0
  9
$DIMTOL
 70
     0
  9
$DIMLIM
 70
     0
  9
$DIMTIH
 70
     0
  9
$DIMTOH
 70
     0
  9
$DIMSE1
 70
     0
  9
$DIMSE2
 70
     0
  9
$DIMTAD
 70
     3
  9
$DIMZIN
 70
     8
  9
$DIMBLK
  1

  9
$DIMASO
 70
     1
  9
$DIMSHO
 70
     1
  9
$DIMPOST
  1

  9
$DIMAPOST
  1

  9
$DIMALT
 70
     0
  9
$DIMALTD
 70
     4
  9
$DIMALTF
 40
0.0394
  9
$DIMLFAC
 40
1.0
  9
$DIMTOFL
 70
     1
  9
$DIMTVP
 40
0.0
  9
$DIMTIX
 70
     0
  9
$DIMSOXD
 70
     0
  9
$DIMSAH
 70
     1
  9
$DIMBLK1
  1
OPEN
  9
$DIMBLK2
  1
OPEN
  9
$DIMSTYLE
  2
通常X1_3
  9
$DIMCLRD
 70
   256
  9
$DIMCLRE
 70
   256
  9
$DIMCLRT
 70
     2
  9
$DIMTFAC
 40
0.5
  9
$DIMGAP
 40
1.5
  9
$LUNITS
 70
     2
  9
$LUPREC
 70
     8
  9
$SKETCHINC
 40
1.0
  9
$FILLETRAD
 40
10.0
  9
$AUNITS
 70
     0
  9
$AUPREC
 70
     6
  9
$MENU
  1
.
  9
$ELEVATION
 40
0.0
  9
$PELEVATION
 40
0.0
  9
$THICKNESS
 40
0.0
  9
$LIMCHECK
 70
     0
  9
$BLIPMODE
 70
     0
  9
$CHAMFERA
 40
10.0
  9
$CHAMFERB
 40
10.0
  9
$SKPOLY
 70
     0
  9
$TDCREATE
 40
2453536.500536378
  9
$TDUPDATE
 40
2457947.7225607182
  9
$TDINDWG
 40
1.0632967245
  9
$TDUSRTIMER
 40
1.0632967245
  9
$USRTIMER
 70
     1
  9
$ANGBASE
 50
0.0
  9
$ANGDIR
 70
     0
  9
$PDMODE
 70
     0
  9
$PDSIZE
 40
0.0
  9
$PLINEWID
 40
0.0
  9
$COORDS
 70
     1
  9
$SPLFRAME
 70
     0
  9
$SPLINETYPE
 70
     6
  9
$SPLINESEGS
 70
     8
  9
$ATTDIA
 70
     1
  9
$ATTREQ
 70
     1
  9
$HANDLING
 70
     1
  9
$HANDSEED
  5
8E6F
  9
$SURFTAB1
 70
     6
  9
$SURFTAB2
 70
     6
  9
$SURFTYPE
 70
     6
  9
$SURFU
 70
     6
  9
$SURFV
 70
     6
  9
$UCSNAME
  2

  9
$UCSORG
 10
594.0
 20
0.0
 30
0.0
  9
$UCSXDIR
 10
1.0
 20
0.0
 30
0.0
  9
$UCSYDIR
 10
0.0
 20
1.0
 30
0.0
  9
$PUCSNAME
  2

  9
$PUCSORG
 10
0.0
 20
0.0
 30
0.0
  9
$PUCSXDIR
 10
1.0
 20
0.0
 30
0.0
  9
$PUCSYDIR
 10
0.0
 20
1.0
 30
0.0
  9
$USERI1
 70
     0
  9
$USERI2
 70
     0
  9
$USERI3
 70
     0
  9
$USERI4
 70
     0
  9
$USERI5
 70
     0
  9
$USERR1
 40
0.0
  9
$USERR2
 40
0.0
  9
$USERR3
 40
0.0
  9
$USERR4
 40
0.0
  9
$USERR5
 40
0.0
  9
$WORLDVIEW
 70
     1
  9
$SHADEDGE
 70
     3
  9
$SHADEDIF
 70
    70
  9
$TILEMODE
 70
     1
  9
$MAXACTVP
 70
    48
  9
$PLIMCHECK
 70
     0
  9
$PEXTMIN
 10
211.5
 20
-8.0
 30
0.0
  9
$PEXTMAX
 10
903.5
 20
300.0
 30
0.0
  9
$PLIMMIN
 10
483.02948910854462
 20
-8.1501641204820885
  9
$PLIMMAX
 10
903.01847226284156
 20
288.8181586334241
  9
$UNITMODE
 70
     0
  9
$VISRETAIN
 70
     1
  9
$PLINEGEN
 70
     0
  9
$PSLTSCALE
 70
     1
  0
ENDSEC
  0
SECTION
  2
TABLES
  0
TABLE
  2
VPORT
 70
     1
  0
VPORT
  2
*ACTIVE
 70
     0
 10
0.0
 20
0.0
 11
1.0
 21
1.0
 12
1223.975268251477
 22
449.44034472046019
 13
0.0
 23
0.0
 14
10.0
 24
10.0
 15
10.0
 25
10.0
 16
0.0
 26
0.0
 36
1.0
 17
0.0
 27
0.0
 37
0.0
 40
906.5797732013699
 41
1.481638418079096
 42
50.0
 43
0.0
 44
0.0
 50
0.0
 51
0.0
 71
     0
 72
   100
 73
     1
 74
     3
 75
     0
 76
     1
 77
     0
 78
     0
  0
ENDTAB
  0
TABLE
  2
LTYPE
 70
    10
  0
LTYPE
  2
CONTINUOUS
 70
     0
  3
Solid line
 72
    65
 73
     0
 40
0.0
  0
LTYPE
  2
CENTER
 70
     0
  3
Center ____ _ ____ _ ____ _ ____ _ ____ _ ____
 72
    65
 73
     4
 40
2.0
 49
1.25
 49
-0.25
 49
0.25
 49
-0.25
  0
LTYPE
  2
CENTER2
 70
     0
  3
Center (.5x) ___ _ ___ _ ___ _ ___ _ ___ _ ___
 72
    65
 73
     4
 40
1.125
 49
0.75
 49
-0.125
 49
0.125
 49
-0.125
  0
LTYPE
  2
DASHED
 70
     0
  3
Dashed __ __ __ __ __ __ __ __ __ __ __ __ __ _
 72
    65
 73
     2
 40
0.75
 49
0.5
 49
-0.25
  0
LTYPE
  2
DASHED2
 70
     0
  3
Dashed (.5x) _ _ _ _ _ _ _ _ _ _ _ _ _ _ _ _ _
 72
    65
 73
     2
 40
0.375
 49
0.25
 49
-0.125
  0
LTYPE
  2
PHANTOM2
 70
     0
  3
Phantom (.5x) ___ _ _ ___ _ _ ___ _ _ ___ _ _
 72
    65
 73
     6
 40
1.25
 49
0.625
 49
-0.125
 49
0.125
 49
-0.125
 49
0.125
 49
-0.125
  0
LTYPE
  2
CENTERX2
 70
     0
  3
Center (2x) ________  __  ________  __  _____
 72
    65
 73
     4
 40
4.0
 49
2.5
 49
-0.5
 49
0.5
 49
-0.5
  0
LTYPE
  2
DASHEDX2
 70
     0
  3
Dashed (2x) ____  ____  ____  ____  ____  ___
 72
    65
 73
     2
 40
1.5
 49
1.0
 49
-0.5
  0
LTYPE
  2
PHANTOM
 70
     0
  3
Phantom ______  __  __  ______  __  __  ______
 72
    65
 73
     6
 40
2.5
 49
1.25
 49
-0.25
 49
0.25
 49
-0.25
 49
0.25
 49
-0.25
  0
LTYPE
  2
PHANTOMX2
 70
     0
  3
Phantom (2x) ____________    ____    ____   _
 72
    65
 73
     6
 40
5.0
 49
2.5
 49
-0.5
 49
0.5
 49
-0.5
 49
0.5
 49
-0.5
  0
ENDTAB
  0
TABLE
  2
LAYER
 70
     9
  0
LAYER
  2
0
 70
     0
 62
     7
  6
CONTINUOUS
  0
LAYER
  2
DEFPOINTS
 70
     0
 62
     7
  6
CONTINUOUS
  0
LAYER
  2
002寸法
 70
     0
 62
     1
  6
CONTINUOUS
  0
LAYER
  2
001センタ
 70
     0
 62
     1
  6
CENTER
  0
LAYER
  2
011形状
 70
     0
 62
     3
  6
CONTINUOUS
  0
LAYER
  2
003注釈
 70
     0
 62
     2
  6
CONTINUOUS
  0
LAYER
  2
051共通部品
 70
     0
 62
     3
  6
CONTINUOUS
  0
LAYER
  2
101購入品
 70
     0
 62
     3
  6
CONTINUOUS
  0
LAYER
  2
111治具
 70
     0
 62
     3
  6
CONTINUOUS
  0
ENDTAB
  0
TABLE
  2
STYLE
 70
     4
  0
STYLE
  2
STANDARD
 70
     0
 40
0.0
 41
0.9
 50
0.0
 71
     0
 42
3.0
  3
romans.shx
  4
extfont2.shx
  0
STYLE
  2
表題
 70
     0
 40
0.0
 41
1.0
 50
0.0
 71
     0
 42
2.5
  3
txt
  4

  0
STYLE
  2

 70
     1
 40
0.0
 41
1.0
 50
0.0
 71
     0
 42
2.5
  3
ltypeshp.shx
  4

  0
STYLE
  2
注釈
 70
     0
 40
3.0
 41
0.9
 50
0.0
 71
     0
 42
3.0
  3
romans.shx
  4
extfont2.shx
  0
ENDTAB
  0
TABLE
  2
VIEW
 70
     0
  0
ENDTAB
  0
TABLE
  2
UCS
 70
     0
  0
ENDTAB
  0
TABLE
  2
APPID
 70
    17
  0
APPID
  2
ACAD
 70
     0
  0
APPID
  2
ACAD_NAV_VCDISPLAY
 70
     0
  0
APPID
  2
ACAD_EXEMPT_FROM_CAD_STANDARDS
 70
     0
  0
APPID
  2
ACAUTHENVIRON
 70
     0
  0
APPID
  2
ACDBDYNAMICBLOCKTRUENAME
 70
     0
  0
APPID
  2
ACDBDYNAMICBLOCKGUID
 70
     0
  0
APPID
  2
ACADANNOPO
 70
     0
  0
APPID
  2
ACAECLAYERSTANDARD
 70
     0
  0
APPID
  2
ACCMTRANSPARENCY
 70
     0
  0
APPID
  2
ACAD_PSEXT
 70
     0
  0
APPID
  2
ACAD_DSTYLE_DIMJAG
 70
     0
  0
APPID
  2
ACAD_DSTYLE_DIMTALN
 70
     0
  0
APPID
  2
ACAD_DSTYLE_DIMRADIAL_EXTENSION
 70
     0
  0
APPID
  2
ACAD_MLEADERVER
 70
     0
  0
APPID
  2
CONTENTBLOCKDESCRIPTION
 70
     0
  0
APPID
  2
CONTENTBLOCKICON
 70
     0
  0
APPID
  2
AcDbAttr
 70
     0
  0
ENDTAB
  0
TABLE
  2
DIMSTYLE
 70
    19
  0
DIMSTYLE
  2
通常X1_0
 70
     0
  3

  4

  5

  6
OPEN
  7
OPEN
 40
1.0
 41
2.5
 42
0.5
 43
3.75
 44
0.75
 45
0.0
 46
0.0
 47
0.0
 48
0.000000001
140
3.0
141
2.5
142
0.0
143
0.0394
144
1.0
145
0.0
146
0.5
147
0.5
 71
     0
 72
     0
 73
     0
 74
     0
 75
     0
 76
     0
 77
     3
 78
     8
170
     0
171
     4
172
     1
173
     1
174
     0
175
     0
176
   256
177
   256
178
     2
  0
DIMSTYLE
  2
通常X3_0
 70
     0
  3

  4

  5

  6
OPEN
  7
OPEN
 40
0.0
 41
0.833
 42
0.167
 43
3.75
 44
0.25
 45
0.0
 46
0.0
 47
0.0
 48
0.000000001
140
1.0
141
2.5
142
0.0
143
0.0394
144
1.0
145
0.0
146
0.5
147
0.167
 71
     0
 72
     0
 73
     0
 74
     0
 75
     0
 76
     0
 77
     3
 78
     8
170
     0
171
     4
172
     1
173
     1
174
     0
175
     0
176
   256
177
   256
178
     2
  0
DIMSTYLE
  2
通常X2_0
 70
     0
  3

  4

  5

  6
OPEN
  7
OPEN
 40
0.0
 41
1.25
 42
0.25
 43
3.75
 44
0.375
 45
0.0
 46
0.0
 47
0.0
 48
0.000000001
140
1.5
141
2.5
142
0.0
143
0.0394
144
1.0
145
0.0
146
0.5
147
0.25
 71
     0
 72
     0
 73
     0
 74
     0
 75
     0
 76
     0
 77
     3
 78
     8
170
     0
171
     4
172
     1
173
     1
174
     0
175
     0
176
   256
177
   256
178
     2
  0
DIMSTYLE
  2
通常X2_3
 70
     0
  3

  4

  5

  6
OPEN
  7
OPEN
 40
1.0
 41
3.75
 42
0.75
 43
3.75
 44
1.125
 45
0.0
 46
0.0
 47
0.0
 48
0.0
140
4.5
141
2.5
142
0.0
143
0.0394
144
1.0
145
0.0
146
0.5
147
0.75
 71
     0
 72
     0
 73
     0
 74
     0
 75
     0
 76
     0
 77
     3
 78
     8
170
     0
171
     4
172
     1
173
     1
174
     0
175
     0
176
   256
177
   256
178
     2
  0
DIMSTYLE
  2
通常X3_4
 70
     0
  3

  4

  5

  6
OPEN
  7
OPEN
 40
1.0
 41
3.3330000000000002
 42
0.667
 43
3.75
 44
1.0
 45
0.0
 46
0.0
 47
0.0
 48
0.000000001
140
4.0
141
2.5
142
0.0
143
0.0394
144
1.0
145
0.0
146
0.5
147
0.667
 71
     0
 72
     0
 73
     0
 74
     0
 75
     0
 76
     0
 77
     3
 78
     8
170
     0
171
     4
172
     1
173
     1
174
     0
175
     0
176
   256
177
   256
178
     2
  0
DIMSTYLE
  2
通常X1_3
 70
     0
  3

  4

  5

  6
OPEN
  7
OPEN
 40
1.0
 41
7.5
 42
1.5
 43
3.75
 44
2.25
 45
0.0
 46
0.0
 47
0.0
 48
0.000000001
140
9.0
141
2.5
142
0.0
143
0.0394
144
1.0
145
0.0
146
0.5
147
1.5
 71
     0
 72
     0
 73
     0
 74
     0
 75
     0
 76
     0
 77
     3
 78
     8
170
     0
171
     4
172
     1
173
     1
174
     0
175
     0
176
   256
177
   256
178
     2
  0
DIMSTYLE
  2
通常X1_2
 70
     0
  3

  4

  5

  6
OPEN
  7
OPEN
 40
1.0
 41
5.0
 42
1.0
 43
3.75
 44
1.5
 45
0.0
 46
0.0
 47
0.0
 48
0.0
140
6.0
141
2.5
142
0.0
143
0.0394
144
1.0
145
0.0
146
0.5
147
1.0
 71
     0
 72
     0
 73
     0
 74
     0
 75
     0
 76
     0
 77
     3
 78
     8
170
     0
171
     4
172
     1
173
     1
174
     0
175
     0
176
   256
177
   256
178
     2
  0
DIMSTYLE
  2
通常X1_0$3
 70
     0
  3

  4

  5

  6
OPEN
  7
OPEN
 40
1.0
 41
2.5
 42
0.5
 43
3.75
 44
0.75
 45
0.0
 46
0.0
 47
0.0
 48
0.000000001
140
3.0
141
2.5
142
0.0
143
0.0394
144
1.0
145
0.0
146
0.5
147
0.5
 71
     0
 72
     0
 73
     0
 74
     0
 75
     0
 76
     0
 77
     3
 78
     8
170
     0
171
     4
172
     1
173
     1
174
     0
175
     0
176
   256
177
   256
178
     2
  0
DIMSTYLE
  2
通常X1_3$3
 70
     0
  3

  4

  5

  6
OPEN
  7
OPEN
 40
1.0
 41
7.5
 42
1.5
 43
3.75
 44
2.25
 45
0.0
 46
0.0
 47
0.0
 48
0.000000001
140
9.0
141
2.5
142
0.0
143
0.0394
144
1.0
145
0.0
146
0.5
147
1.5
 71
     0
 72
     0
 73
     0
 74
     0
 75
     0
 76
     0
 77
     3
 78
     8
170
     0
171
     4
172
     1
173
     1
174
     0
175
     0
176
   256
177
   256
178
     2
  0
DIMSTYLE
  2
通常X1_2$3
 70
     0
  3

  4

  5

  6
OPEN
  7
OPEN
 40
1.0
 41
5.0
 42
1.0
 43
3.75
 44
1.5
 45
0.0
 46
0.0
 47
0.0
 48
0.0
140
6.0
141
2.5
142
0.0
143
0.0394
144
1.0
145
0.0
146
0.5
147
1.0
 71
     0
 72
     0
 73
     0
 74
     0
 75
     0
 76
     0
 77
     3
 78
     8
170
     0
171
     4
172
     1
173
     1
174
     0
175
     0
176
   256
177
   256
178
     2
  0
DIMSTYLE
  2
通常X2_3$3
 70
     0
  3

  4

  5

  6
OPEN
  7
OPEN
 40
1.0
 41
3.75
 42
0.75
 43
3.75
 44
1.125
 45
0.0
 46
0.0
 47
0.0
 48
0.0
140
4.5
141
2.5
142
0.0
143
0.0394
144
1.0
145
0.0
146
0.5
147
0.75
 71
     0
 72
     0
 73
     0
 74
     0
 75
     0
 76
     0
 77
     3
 78
     8
170
     0
171
     4
172
     1
173
     1
174
     0
175
     0
176
   256
177
   256
178
     2
  0
DIMSTYLE
  2
通常X3_4$3
 70
     0
  3

  4

  5

  6
OPEN
  7
OPEN
 40
1.0
 41
3.3330000000000002
 42
0.667
 43
3.75
 44
1.0
 45
0.0
 46
0.0
 47
0.0
 48
0.000000001
140
4.0
141
10.0
142
0.0
143
0.0394
144
1.0
145
0.0
146
0.5
147
0.667
 71
     0
 72
     0
 73
     0
 74
     0
 75
     0
 76
     0
 77
     3
 78
     8
170
     0
171
     4
172
     1
173
     1
174
     0
175
     0
176
   256
177
   256
178
     2
  0
DIMSTYLE
  2
通常X2_0$3
 70
     0
  3

  4

  5

  6
OPEN
  7
OPEN
 40
0.0
 41
1.25
 42
0.25
 43
3.75
 44
0.5
 45
0.0
 46
0.0
 47
0.0
 48
0.000000001
140
1.5
141
2.5
142
0.0
143
0.0394
144
1.0
145
0.0
146
0.5
147
0.5
 71
     0
 72
     0
 73
     0
 74
     0
 75
     0
 76
     0
 77
     3
 78
     8
170
     0
171
     4
172
     1
173
     1
174
     0
175
     0
176
   256
177
   256
178
     2
  0
DIMSTYLE
  2
通常X3_0$3
 70
     0
  3

  4

  5

  6
OPEN
  7
OPEN
 40
0.0
 41
0.833
 42
0.167
 43
3.75
 44
0.4
 45
0.0
 46
0.0
 47
0.0
 48
0.000000001
140
1.0
141
2.5
142
0.0
143
0.0394
144
1.0
145
0.0
146
0.5
147
0.4
 71
     0
 72
     0
 73
     0
 74
     0
 75
     0
 76
     0
 77
     3
 78
     8
170
     0
171
     4
172
     1
173
     1
174
     0
175
     0
176
   256
177
   256
178
     2
  0
DIMSTYLE
  2
通常X1_5
 70
     0
  3

  4

  5

  6
OPEN
  7
OPEN
 40
1.0
 41
1.6669999999999989
 42
0.33
 43
3.75
 44
0.5
 45
0.0
 46
0.0
 47
0.0
 48
0.000000001
140
2.0
141
2.5
142
0.0
143
0.0394
144
1.0
145
0.0
146
0.5
147
0.33
 71
     0
 72
     0
 73
     0
 74
     0
 75
     0
 76
     0
 77
     3
 78
     9
170
     0
171
     4
172
     1
173
     1
174
     0
175
     0
176
   256
177
   256
178
     2
  0
DIMSTYLE
  2
通常X3_5
 70
     0
  3

  4

  5

  6
OPEN
  7
OPEN
 40
1.0
 41
4.1669999999999989
 42
0.833
 43
3.75
 44
1.25
 45
0.0
 46
0.0
 47
0.0
 48
0.000000001
140
5.0
141
2.5
142
0.0
143
0.0394
144
1.0
145
0.0
146
0.5
147
0.833
 71
     0
 72
     0
 73
     0
 74
     0
 75
     0
 76
     0
 77
     3
 78
     8
170
     0
171
     4
172
     1
173
     1
174
     0
175
     0
176
   256
177
   256
178
     2
  0
DIMSTYLE
  2
通常X3_5$3
 70
     0
  3

  4

  5

  6
OPEN
  7
OPEN
 40
1.0
 41
4.1669999999999989
 42
0.833
 43
3.75
 44
1.25
 45
0.0
 46
0.0
 47
0.0
 48
0.000000001
140
5.0
141
2.5
142
0.0
143
0.0394
144
1.0
145
0.0
146
0.5
147
0.833
 71
     0
 72
     0
 73
     0
 74
     0
 75
     0
 76
     0
 77
     3
 78
     8
170
     0
171
     4
172
     1
173
     1
174
     0
175
     0
176
   256
177
   256
178
     2
  0
DIMSTYLE
  2
通常X1_5$3
 70
     0
  3

  4

  5

  6
OPEN
  7
OPEN
 40
1.0
 41
1.6669999999999989
 42
0.33
 43
3.75
 44
0.5
 45
0.0
 46
0.0
 47
0.0
 48
0.000000001
140
2.0
141
2.5
142
0.0
143
0.0394
144
1.0
145
0.0
146
0.5
147
0.33
 71
     0
 72
     0
 73
     0
 74
     0
 75
     0
 76
     0
 77
     3
 78
     9
170
     0
171
     4
172
     1
173
     1
174
     0
175
     0
176
   256
177
   256
178
     2
  0
DIMSTYLE
  2
STANDARD
 70
     0
  3

  4

  5

  6

  7

 40
1.0
 41
0.18
 42
0.0625
 43
0.38
 44
0.18
 45
0.0
 46
0.0
 47
0.0
 48
0.0
140
0.18
141
0.09
142
0.0
143
25.399999999999999
144
1.0
145
0.0
146
1.0
147
0.09
 71
     0
 72
     0
 73
     1
 74
     1
 75
     0
 76
     0
 77
     0
 78
     0
170
     0
171
     2
172
     0
173
     0
174
     0
175
     0
176
     0
177
     0
178
     0
  0
ENDTAB
  0
ENDSEC
  0
SECTION
  2
BLOCKS
  0
BLOCK
  8
0
  2
$MODEL_SPACE
 70
     0
 10
0.0
 20
0.0
 30
0.0
  3
$MODEL_SPACE
  1

  0
ENDBLK
  5
21
  8
0
  0
BLOCK
 67
     1
  8
0
  2
$PAPER_SPACE
 70
     0
 10
0.0
 20
0.0
 30
0.0
  3
$PAPER_SPACE
  1

  0
ENDBLK
  5
58
 67
     1
  8
0
  0
BLOCK
  8
0
  2
_OPEN
 70
     0
 10
0.0
 20
0.0
 30
0.0
  3
_OPEN
  1

  0
LINE
  5
87
  8
0
  6
BYBLOCK
 62
     0
 10
-1.0
 20
0.1666666666666666
 30
0.0
 11
0.0
 21
0.0
 31
0.0
  0
LINE
  5
88
  8
0
  6
BYBLOCK
 62
     0
 10
0.0
 20
0.0
 30
0.0
 11
-1.0
 21
-0.1666666666666666
 31
0.0
  0
LINE
  5
89
  8
0
  6
BYBLOCK
 62
     0
 10
0.0
 20
0.0
 30
0.0
 11
-1.0
 21
0.0
 31
0.0
  0
ENDBLK
  5
8B
  8
0
  0
BLOCK
  8
0
  2
A$C0C1533B0
 70
     0
 10
0.0
 20
0.0
 30
0.0
  3
A$C0C1533B0
  1

  0
LINE
  5
2C54
  8
0
 10
5.2469999999998427
 20
5.2469999999998427
 30
0.0
 11
0.0
 21
5.2469999999998427
 31
0.0
  0
LINE
  5
2C55
  8
0
 10
5.0984999999996026
 20
5.0984999999996026
 30
0.0
 11
0.1484999999997854
 21
5.0984999999996026
 31
0.0
  0
LINE
  5
2C56
  8
0
 10
3.415500000000065
 20
4.6529999999988831
 30
0.0
 11
3.11850000000004
 21
4.6529999999988831
 31
0.0
  0
LINE
  5
2C57
  8
0
 10
3.11850000000004
 20
4.6529999999988831
 30
0.0
 11
3.11850000000004
 21
3.266999999998915
 31
0.0
  0
LINE
  5
2C58
  8
0
 10
1.7325000000000721
 20
4.6529999999988831
 30
0.0
 11
1.7325000000000721
 21
3.266999999998915
 31
0.0
  0
LINE
  5
2C59
  8
0
 10
1.7325000000000721
 20
4.6529999999988831
 30
0.0
 11
1.336499999999887
 21
4.6529999999988831
 31
0.0
  0
LINE
  5
2C5A
  8
0
 10
2.0324722099007881
 20
1.0250351407994449
 30
0.0
 11
2.0390851008005479
 21
1.0150218869994201
 31
0.0
  0
LINE
  5
2C5B
  8
0
 10
2.1496148443002312
 20
0.9334853956993356
 30
0.0
 11
2.1694535159003858
 21
0.9221561139995628
 31
0.0
  0
LINE
  5
2C5C
  8
0
 10
2.0277487164003101
 20
1.03516283089948
 30
0.0
 11
2.0324722099007881
 21
1.0250351407994449
 31
0.0
  0
LINE
  5
2C5D
  8
0
 10
2.1694535159003858
 20
0.9221561139995628
 30
0.0
 11
2.1892921875009961
 21
0.9115134566995948
 31
0.0
  0
LINE
  5
2C5E
  8
0
 10
2.024914620300478
 20
1.045404958399331
 30
0.0
 11
2.0277487164003101
 21
1.03516283089948
 31
0.0
  0
LINE
  5
2C5F
  8
0
 10
2.1892921875009961
 20
0.9115134566995948
 30
0.0
 11
2.209130859099786
 21
0.9015574215995911
 31
0.0
  0
LINE
  5
2C60
  8
0
 10
2.0239699215999281
 20
1.0557615232992239
 30
0.0
 11
2.024914620300478
 21
1.045404958399331
 31
0.0
  0
LINE
  5
2C61
  8
0
 10
2.209130859099786
 20
0.9015574215995911
 30
0.0
 11
2.2293069238003218
 21
0.8904570157997113
 31
0.0
  0
LINE
  5
2C62
  8
0
 10
2.0245772283005858
 20
1.065202591199067
 30
0.0
 11
2.0239699215999281
 21
1.0557615232992239
 31
0.0
  0
LINE
  5
2C63
  8
0
 10
2.2293069238003218
 20
0.8904570157997113
 30
0.0
 11
2.2463789776998051
 21
0.8779833622995739
 31
0.0
  0
LINE
  5
2C64
  8
0
 10
2.0263991472997982
 20
1.0743003468994621
 30
0.0
 11
2.0245772283005858
 21
1.065202591199067
 31
0.0
  0
LINE
  5
2C65
  8
0
 10
2.2463789776998051
 20
0.8779833622995739
 30
0.0
 11
2.260347023000576
 21
0.8641364632994736
 31
0.0
  0
LINE
  5
2C66
  8
0
 10
2.0294356786002932
 20
1.0830547914995341
 30
0.0
 11
2.0263991472997982
 21
1.0743003468994621
 31
0.0
  0
LINE
  5
2C67
  8
0
 10
2.260347023000576
 20
0.8641364632994736
 30
0.0
 11
2.2712110574998401
 21
0.8489163187991835
 31
0.0
  0
LINE
  5
2C68
  8
0
 10
2.0336868222002522
 20
1.091465923899249
 30
0.0
 11
2.0294356786002932
 21
1.0830547914995341
 31
0.0
  0
LINE
  5
2C69
  8
0
 10
2.2712110574998401
 20
0.8489163187991835
 30
0.0
 11
2.2789710822999041
 21
0.8323229276991241
 31
0.0
  0
LINE
  5
2C6A
  8
0
 10
2.039152579200163
 20
1.099533745199551
 30
0.0
 11
2.0336868222002522
 21
1.091465923899249
 31
0.0
  0
LINE
  5
2C6B
  8
0
 10
2.2789710822999041
 20
0.8323229276991241
 30
0.0
 11
2.2836270963007328
 21
0.8143562899992957
 31
0.0
  0
LINE
  5
2C6C
  8
0
 10
2.0458329485004461
 20
1.1072582553993009
 30
0.0
 11
2.039152579200163
 21
1.099533745199551
 31
0.0
  0
LINE
  5
2C6D
  8
0
 10
2.2836270963007328
 20
0.8143562899992957
 30
0.0
 11
2.2851791017001228
 21
0.7950164067992774
 31
0.0
  0
LINE
  5
2C6E
  8
0
 10
2.0537279301006488
 20
1.1146394533993771
 30
0.0
 11
2.0458329485004461
 21
1.1072582553993009
 31
0.0
  0
LINE
  5
2C6F
  8
0
 10
2.2851791017001228
 20
0.7950164067992774
 30
0.0
 11
2.2841669245999578
 21
0.7755620850994092
 31
0.0
  0
LINE
  5
2C70
  8
0
 10
2.0605432561997068
 20
1.119846345199448
 30
0.0
 11
2.0537279301006488
 21
1.1146394533993771
 31
0.0
  0
LINE
  5
2C71
  8
0
 10
2.2841669245999578
 20
0.7755620850994092
 30
0.0
 11
2.2811303933003719
 21
0.7572521362992575
 31
0.0
  0
LINE
  5
2C72
  8
0
 10
2.067763452700091
 20
1.124252176299251
 30
0.0
 11
2.0605432561997068
 21
1.119846345199448
 31
0.0
  0
LINE
  5
2C73
  8
0
 10
2.2811303933003719
 20
0.7572521362992575
 30
0.0
 11
2.2760695078000022
 21
0.7400865592994707
 31
0.0
  0
LINE
  5
2C74
  8
0
 10
2.075388520700471
 20
1.127856947799045
 30
0.0
 11
2.067763452700091
 21
1.124252176299251
 31
0.0
  0
LINE
  5
2C75
  8
0
 10
2.2760695078000022
 20
0.7400865592994707
 30
0.0
 11
2.2689842670001781
 21
0.7240653540995936
 31
0.0
  0
LINE
  5
2C76
  8
0
 10
2.0834184591003568
 20
1.1306606585994809
 30
0.0
 11
2.075388520700471
 21
1.127856947799045
 31
0.0
  0
LINE
  5
2C77
  8
0
 10
2.2689842670001781
 20
0.7240653540995936
 30
0.0
 11
2.259874673100057
 21
0.709188520699172
 31
0.0
  0
LINE
  5
2C78
  8
0
 10
2.091853268999329
 20
1.1326633086991931
 30
0.0
 11
2.0834184591003568
 21
1.1306606585994809
 31
0.0
  0
LINE
  5
2C79
  8
0
 10
2.259874673100057
 20
0.709188520699172
 30
0.0
 11
2.2487407250000611
 21
0.6954560590995698
 31
0.0
  0
LINE
  5
2C7A
  8
0
 10
2.1006929493005368
 20
1.1338648991993521
 30
0.0
 11
2.091853268999329
 21
1.1326633086991931
 31
0.0
  0
LINE
  5
2C7B
  8
0
 10
2.2487407250000611
 20
0.6954560590995698
 30
0.0
 11
2.2355824216001561
 21
0.6828679681989343
 31
0.0
  0
LINE
  5
2C7C
  8
0
 10
2.1099374999998868
 20
1.1342654300992761
 30
0.0
 11
2.1006929493005368
 21
1.1338648991993521
 31
0.0
  0
LINE
  5
2C7D
  8
0
 10
2.2355824216001561
 20
0.6828679681989343
 30
0.0
 11
2.2216143774003281
 21
0.6724541856992801
 31
0.0
  0
LINE
  5
2C7E
  8
0
 10
2.1191820507006009
 20
1.1338648991993521
 30
0.0
 11
2.1099374999998868
 21
1.1342654300992761
 31
0.0
  0
LINE
  5
2C7F
  8
0
 10
2.2216143774003281
 20
0.6724541856992801
 30
0.0
 11
2.2061618061998161
 21
0.6636425223994138
 31
0.0
  0
LINE
  5
2C80
  8
0
 10
2.1280217310004441
 20
1.1326633086991931
 30
0.0
 11
2.1191820507006009
 21
1.1338648991993521
 31
0.0
  0
LINE
  5
2C81
  8
0
 10
2.2061618061998161
 20
0.6636425223994138
 30
0.0
 11
2.1892247091000172
 21
0.656432979399142
 31
0.0
  0
LINE
  5
2C82
  8
0
 10
2.1364565409003262
 20
1.1306606585994809
 30
0.0
 11
2.1280217310004441
 21
1.1326633086991931
 31
0.0
  0
LINE
  5
2C83
  8
0
 10
2.1892247091000172
 20
0.656432979399142
 30
0.0
 11
2.1708030849999882
 21
0.6508255577991804
 31
0.0
  0
LINE
  5
2C84
  8
0
 10
2.1444864793006668
 20
1.127856947799045
 30
0.0
 11
2.1364565409003262
 21
1.1306606585994809
 31
0.0
  0
LINE
  5
2C85
  8
0
 10
2.1708030849999882
 20
0.6508255577991804
 30
0.0
 11
2.1508969349997642
 21
0.6468202564994954
 31
0.0
  0
LINE
  5
2C86
  8
0
 10
2.1521115473001369
 20
1.124252176299251
 30
0.0
 11
2.1444864793006668
 21
1.127856947799045
 31
0.0
  0
LINE
  5
2C87
  8
0
 10
2.1508969349997642
 20
0.6468202564994954
 30
0.0
 11
2.1295062580002191
 21
0.6444170754994048
 31
0.0
  0
LINE
  5
2C88
  8
0
 10
2.159331743799612
 20
1.119846345199448
 30
0.0
 11
2.1521115473001369
 21
1.124252176299251
 31
0.0
  0
LINE
  5
2C89
  8
0
 10
2.1295062580002191
 20
0.6444170754994048
 30
0.0
 11
2.1066310551004781
 21
0.6436160158991698
 31
0.0
  0
LINE
  5
2C8A
  8
0
 10
2.1661470699009442
 20
1.1146394533993771
 30
0.0
 11
2.159331743799612
 21
1.119846345199448
 31
0.0
  0
LINE
  5
2C8B
  8
0
 10
2.1066310551004781
 20
0.6436160158991698
 30
0.0
 11
2.0847005497998898
 21
0.6443598567993832
 31
0.0
  0
LINE
  5
2C8C
  8
0
 10
2.1747843150005788
 20
1.1062283198991729
 30
0.0
 11
2.1661470699009442
 21
1.1146394533993771
 31
0.0
  0
LINE
  5
2C8D
  8
0
 10
2.0847005497998898
 20
0.6443598567993832
 30
0.0
 11
2.064254571499986
 21
0.6465913827996701
 31
0.0
  0
LINE
  5
2C8E
  8
0
 10
2.1818020763007548
 20
1.0970161267991889
 30
0.0
 11
2.1747843150005788
 21
1.1062283198991729
 31
0.0
  0
LINE
  5
2C8F
  8
0
 10
2.064254571499986
 20
0.6465913827996701
 30
0.0
 11
2.0452931201998581
 21
0.650310590599247
 31
0.0
  0
LINE
  5
2C90
  8
0
 10
2.1872003549001411
 20
1.0870028740991979
 30
0.0
 11
2.1818020763007548
 21
1.0970161267991889
 31
0.0
  0
LINE
  5
2C91
  8
0
 10
2.0452931201998581
 20
0.650310590599247
 30
0.0
 11
2.0278161947999251
 21
0.6555174823993184
 31
0.0
  0
LINE
  5
2C92
  8
0
 10
2.1909791497000688
 20
1.0761885606989381
 30
0.0
 11
2.1872003549001411
 21
1.0870028740991979
 31
0.0
  0
LINE
  5
2C93
  8
0
 10
2.0278161947999251
 20
0.6555174823993184
 30
0.0
 11
2.0118237963997672
 21
0.6622120570993957
 31
0.0
  0
LINE
  5
2C94
  8
0
 10
2.193138460700538
 20
1.0645731865990911
 30
0.0
 11
2.1909791497000688
 21
1.0761885606989381
 31
0.0
  0
LINE
  5
2C95
  8
0
 10
2.0118237963997672
 20
0.6622120570993957
 30
0.0
 11
1.9973159238998051
 21
0.6703943157995127
 31
0.0
  0
LINE
  5
2C96
  8
0
 10
2.193678287900183
 20
1.052156751799429
 30
0.0
 11
2.193138460700538
 21
1.0645731865990911
 31
0.0
  0
LINE
  5
2C97
  8
0
 10
1.9973159238998051
 20
0.6703943157995127
 30
0.0
 11
1.984292578400527
 21
0.6800642573994084
 31
0.0
  0
LINE
  5
2C98
  8
0
 10
2.1925986323999491
 20
1.038939257398851
 30
0.0
 11
2.193678287900183
 21
1.052156751799429
 31
0.0
  0
LINE
  5
2C99
  8
0
 10
1.984292578400527
 20
0.6800642573994084
 30
0.0
 11
1.970257054700596
 21
0.6932245330992828
 31
0.0
  0
LINE
  5
2C9A
  8
0
 10
2.2686468749998312
 20
1.038939257398851
 30
0.0
 11
2.1925986323999491
 21
1.038939257398851
 31
0.0
  0
LINE
  5
2C9B
  8
0
 10
1.970257054700596
 20
0.6932245330992828
 30
0.0
 11
1.9583808431002581
 21
0.707071432099383
 31
0.0
  0
LINE
  5
2C9C
  8
0
 10
2.2685119182001472
 20
1.0598812619996349
 30
0.0
 11
2.2686468749998312
 21
1.038939257398851
 31
0.0
  0
LINE
  5
2C9D
  8
0
 10
1.9583808431002581
 20
0.707071432099383
 30
0.0
 11
1.948663942499933
 21
0.7216049543994814
 31
0.0
  0
LINE
  5
2C9E
  8
0
 10
2.2662176504004492
 20
1.0794500199992849
 30
0.0
 11
2.2685119182001472
 21
1.0598812619996349
 31
0.0
  0
LINE
  5
2C9F
  8
0
 10
1.948663942499933
 20
0.7216049543994814
 30
0.0
 11
1.9411063540001121
 21
0.7368250999993508
 31
0.0
  0
LINE
  5
2CA0
  8
0
 10
2.2617640705002482
 20
1.097645531399166
 30
0.0
 11
2.2662176504004492
 21
1.0794500199992849
 31
0.0
  0
LINE
  5
2CA1
  8
0
 10
1.9411063540001121
 20
0.7368250999993508
 30
0.0
 11
1.935708075400725
 21
0.7527318677994117
 31
0.0
  0
LINE
  5
2CA2
  8
0
 10
2.2551511796004879
 20
1.114467797299312
 30
0.0
 11
2.2617640705002482
 21
1.097645531399166
 31
0.0
  0
LINE
  5
2CA3
  8
0
 10
1.935708075400725
 20
0.7527318677994117
 30
0.0
 11
1.9324691088995669
 21
0.7693252588992438
 31
0.0
  0
LINE
  5
2CA4
  8
0
 10
2.2463789776998051
 20
1.1299168165992339
 30
0.0
 11
2.2551511796004879
 21
1.114467797299312
 31
0.0
  0
LINE
  5
2CA5
  8
0
 10
1.9324691088995669
 20
0.7693252588992438
 30
0.0
 11
1.931389453400697
 21
0.7866052732993012
 31
0.0
  0
LINE
  5
2CA6
  8
0
 10
2.2354474648000169
 20
1.143992590399193
 30
0.0
 11
2.2463789776998051
 21
1.1299168165992339
 31
0.0
  0
LINE
  5
2CA7
  8
0
 10
1.931389453400697
 20
0.7866052732993012
 30
0.0
 11
1.931389453400697
 21
0.81464238239937
 31
0.0
  0
LINE
  5
2CA8
  8
0
 10
2.222356640900216
 20
1.1566951175993829
 30
0.0
 11
2.2354474648000169
 21
1.143992590399193
 31
0.0
  0
LINE
  5
2CA9
  8
0
 10
1.931389453400697
 20
0.81464238239937
 30
0.0
 11
2.0074376948996351
 21
0.81464238239937
 31
0.0
  0
LINE
  5
2CAA
  8
0
 10
2.21034547140016
 20
1.165621217199259
 30
0.0
 11
2.222356640900216
 21
1.1566951175993829
 31
0.0
  0
LINE
  5
2CAB
  8
0
 10
2.0074376948996351
 20
0.81464238239937
 30
0.0
 11
2.0074376948996351
 21
0.789408984099282
 31
0.0
  0
LINE
  5
2CAC
  8
0
 10
2.1969847339000799
 20
1.173174071299399
 30
0.0
 11
2.21034547140016
 21
1.165621217199259
 31
0.0
  0
LINE
  5
2CAD
  8
0
 10
2.0074376948996351
 20
0.789408984099282
 30
0.0
 11
2.0079775232006791
 21
0.7770497690994489
 31
0.0
  0
LINE
  5
2CAE
  8
0
 10
2.1822744262003648
 20
1.1793536787995429
 30
0.0
 11
2.1969847339000799
 21
1.173174071299399
 31
0.0
  0
LINE
  5
2CAF
  8
0
 10
2.0079775232006791
 20
0.7770497690994489
 30
0.0
 11
2.0095970069996829
 21
0.765606051099212
 31
0.0
  0
LINE
  5
2CB0
  8
0
 10
2.1662145483005579
 20
1.184160040799497
 30
0.0
 11
2.1822744262003648
 21
1.1793536787995429
 31
0.0
  0
LINE
  5
2CB1
  8
0
 10
2.0095970069996829
 20
0.765606051099212
 30
0.0
 11
2.012296145199798
 21
0.7550778300992534
 31
0.0
  0
LINE
  5
2CB2
  8
0
 10
2.1488051023998191
 20
1.1875931561990001
 30
0.0
 11
2.1662145483005579
 21
1.184160040799497
 31
0.0
  0
LINE
  5
2CB3
  8
0
 10
2.012296145199798
 20
0.7550778300992534
 30
0.0
 11
2.0160749400001801
 21
0.7454651071996068
 31
0.0
  0
LINE
  5
2CB4
  8
0
 10
2.1300460862994441
 20
1.1896530249991879
 30
0.0
 11
2.1488051023998191
 21
1.1875931561990001
 31
0.0
  0
LINE
  5
2CB5
  8
0
 10
2.0160749400001801
 20
0.7454651071996068
 30
0.0
 11
2.0209333903003421
 21
0.7367678812993291
 31
0.0
  0
LINE
  5
2CB6
  8
0
 10
2.1099374999998868
 20
1.1903396482994131
 30
0.0
 11
2.1300460862994441
 21
1.1896530249991879
 31
0.0
  0
LINE
  5
2CB7
  8
0
 10
2.0209333903003421
 20
0.7367678812993291
 30
0.0
 11
2.0268714961002838
 21
0.7289861523991023
 31
0.0
  0
LINE
  5
2CB8
  8
0
 10
2.093135359700681
 20
1.1895385886991781
 30
0.0
 11
2.1099374999998868
 21
1.1903396482994131
 31
0.0
  0
LINE
  5
2CB9
  8
0
 10
2.0268714961002838
 20
0.7289861523991023
 30
0.0
 11
2.0338892574004599
 21
0.7221199215994149
 31
0.0
  0
LINE
  5
2CBA
  8
0
 10
2.076738089799619
 20
1.187135407699315
 30
0.0
 11
2.093135359700681
 21
1.1895385886991781
 31
0.0
  0
LINE
  5
2CBB
  8
0
 10
2.0338892574004599
 20
0.7221199215994149
 30
0.0
 11
2.0417167606001381
 21
0.7161691888993574
 31
0.0
  0
LINE
  5
2CBC
  8
0
 10
2.0607456914003701
 20
1.1831301063994031
 30
0.0
 11
2.076738089799619
 21
1.187135407699315
 31
0.0
  0
LINE
  5
2CBD
  8
0
 10
2.0417167606001381
 20
0.7161691888993574
 30
0.0
 11
2.050084092099496
 21
0.7111339520995444
 31
0.0
  0
LINE
  5
2CBE
  8
0
 10
2.0451581633997189
 20
1.1775226836991799
 30
0.0
 11
2.0607456914003701
 21
1.1831301063994031
 31
0.0
  0
LINE
  5
2CBF
  8
0
 10
2.050084092099496
 20
0.7111339520995444
 30
0.0
 11
2.0589912508003181
 21
0.7070142144991678
 31
0.0
  0
LINE
  5
2CC0
  8
0
 10
2.0299755057999391
 20
1.170313141799169
 30
0.0
 11
2.0451581633997189
 21
1.1775226836991799
 31
0.0
  0
LINE
  5
2CC1
  8
0
 10
2.0589912508003181
 20
0.7070142144991678
 30
0.0
 11
2.0684382377994548
 21
0.7038099727990357
 31
0.0
  0
LINE
  5
2CC2
  8
0
 10
2.0151977197001538
 20
1.161501478499303
 30
0.0
 11
2.0299755057999391
 21
1.170313141799169
 31
0.0
  0
LINE
  5
2CC3
  8
0
 10
2.0684382377994548
 20
0.7038099727990357
 30
0.0
 11
2.078425052000056
 21
0.7015212291994432
 31
0.0
  0
LINE
  5
2CC4
  8
0
 10
2.00082480509991
 20
1.15108769489916
 30
0.0
 11
2.0151977197001538
 21
1.161501478499303
 31
0.0
  0
LINE
  5
2CC5
  8
0
 10
2.078425052000056
 20
0.7015212291994432
 30
0.0
 11
2.088951694500337
 21
0.7001479825992192
 31
0.0
  0
LINE
  5
2CC6
  8
0
 10
1.9868567598000479
 20
1.138671261199306
 30
0.0
 11
2.00082480509991
 21
1.15108769489916
 31
0.0
  0
LINE
  5
2CC7
  8
0
 10
2.088951694500337
 20
0.7001479825992192
 30
0.0
 11
2.100018164200264
 21
0.6996902340993075
 31
0.0
  0
LINE
  5
2CC8
  8
0
 10
1.975182983400827
 20
1.125453766799182
 30
0.0
 11
1.9868567598000479
 21
1.138671261199306
 31
0.0
  0
LINE
  5
2CC9
  8
0
 10
2.100018164200264
 20
0.6996902340993075
 30
0.0
 11
2.1145935151007502
 21
0.7001479825992192
 31
0.0
  0
LINE
  5
2CCA
  8
0
 10
1.965803475900429
 20
1.1114352116992441
 30
0.0
 11
1.975182983400827
 21
1.125453766799182
 31
0.0
  0
LINE
  5
2CCB
  8
0
 10
2.1145935151007502
 20
0.7001479825992192
 30
0.0
 11
2.128089210500093
 21
0.7015212291994432
 31
0.0
  0
LINE
  5
2CCC
  8
0
 10
1.958718236200184
 20
1.096615596999527
 30
0.0
 11
1.965803475900429
 21
1.1114352116992441
 31
0.0
  0
LINE
  5
2CCD
  8
0
 10
2.128089210500093
 20
0.7015212291994432
 30
0.0
 11
2.140505249300531
 21
0.7038099727990357
 31
0.0
  0
LINE
  5
2CCE
  8
0
 10
1.9539272643005461
 20
1.08099492159954
 30
0.0
 11
1.958718236200184
 21
1.096615596999527
 31
0.0
  0
LINE
  5
2CCF
  8
0
 10
2.140505249300531
 20
0.7038099727990357
 30
0.0
 11
2.1518416337003141
 21
0.7070142144991678
 31
0.0
  0
LINE
  5
2CD0
  8
0
 10
1.951430560199696
 20
1.0645731865990911
 30
0.0
 11
1.9539272643005461
 21
1.08099492159954
 31
0.0
  0
LINE
  5
2CD1
  8
0
 10
2.1518416337003141
 20
0.7070142144991678
 30
0.0
 11
2.1620983615002838
 21
0.7111339520995444
 31
0.0
  0
LINE
  5
2CD2
  8
0
 10
1.951228124999943
 20
1.047350390899509
 30
0.0
 11
1.951430560199696
 21
1.0645731865990911
 31
0.0
  0
LINE
  5
2CD3
  8
0
 10
2.1620983615002838
 20
0.7111339520995444
 30
0.0
 11
2.1712754349000529
 21
0.7161691888993574
 31
0.0
  0
LINE
  5
2CD4
  8
0
 10
1.9531850007997491
 20
1.0302420314994829
 30
0.0
 11
1.951228124999943
 21
1.047350390899509
 31
0.0
  0
LINE
  5
2CD5
  8
0
 10
2.1712754349000529
 20
0.7161691888993574
 30
0.0
 11
2.1793728517004629
 21
0.7221199215994149
 31
0.0
  0
LINE
  5
2CD6
  8
0
 10
1.9571662307998841
 20
1.01416360759913
 30
0.0
 11
1.9531850007997491
 21
1.0302420314994829
 31
0.0
  0
LINE
  5
2CD7
  8
0
 10
2.1793728517004629
 20
0.7221199215994149
 30
0.0
 11
2.1872678333002109
 21
0.7296155569995335
 31
0.0
  0
LINE
  5
2CD8
  8
0
 10
1.9631718150003501
 20
0.9991151191993594
 30
0.0
 11
1.9571662307998841
 21
1.01416360759913
 31
0.0
  0
LINE
  5
2CD9
  8
0
 10
2.1872678333002109
 20
0.7296155569995335
 30
0.0
 11
2.1939482025995849
 21
0.7376833782993799
 31
0.0
  0
LINE
  5
2CDA
  8
0
 10
1.9712017534002371
 20
0.9850965640996491
 30
0.0
 11
1.9631718150003501
 21
0.9991151191993594
 31
0.0
  0
LINE
  5
2CDB
  8
0
 10
2.1939482025995849
 20
0.7376833782993799
 30
0.0
 11
2.1994139584994619
 21
0.7463233854996361
 31
0.0
  0
LINE
  5
2CDC
  8
0
 10
1.981256047100032
 20
0.9721079444993847
 30
0.0
 11
1.9712017534002371
 21
0.9850965640996491
 31
0.0
  0
LINE
  5
2CDD
  8
0
 10
2.1994139584994619
 20
0.7463233854996361
 30
0.0
 11
2.203665103199909
 21
0.7555355785993925
 31
0.0
  0
LINE
  5
2CDE
  8
0
 10
1.993334693900578
 20
0.9601492581991806
 30
0.0
 11
1.981256047100032
 21
0.9721079444993847
 31
0.0
  0
LINE
  5
2CDF
  8
0
 10
2.203665103199909
 20
0.7555355785993925
 30
0.0
 11
2.206701634500404
 21
0.7653199575995587
 31
0.0
  0
LINE
  5
2CE0
  8
0
 10
2.0074376948996351
 20
0.9492205073993318
 30
0.0
 11
1.993334693900578
 21
0.9601492581991806
 31
0.0
  0
LINE
  5
2CE1
  8
0
 10
2.206701634500404
 20
0.7653199575995587
 30
0.0
 11
2.2085235535005259
 21
0.7756765224989977
 31
0.0
  0
LINE
  5
2CE2
  8
0
 10
2.0284235015005829
 20
0.9349158598993199
 30
0.0
 11
2.0074376948996351
 21
0.9492205073993318
 31
0.0
  0
LINE
  5
2CE3
  8
0
 10
2.2085235535005259
 20
0.7756765224989977
 30
0.0
 11
2.209130859099786
 21
0.7866052732993012
 31
0.0
  0
LINE
  5
2CE4
  8
0
 10
2.049814178500128
 20
0.9208400871993944
 30
0.0
 11
2.0284235015005829
 21
0.9349158598993199
 31
0.0
  0
LINE
  5
2CE5
  8
0
 10
2.209130859099786
 20
0.7866052732993012
 30
0.0
 11
2.208186160400146
 21
0.79827786609917
 31
0.0
  0
LINE
  5
2CE6
  8
0
 10
2.0716097259000881
 20
0.9069931881995216
 30
0.0
 11
2.049814178500128
 21
0.9208400871993944
 31
0.0
  0
LINE
  5
2CE7
  8
0
 10
2.208186160400146
 20
0.79827786609917
 30
0.0
 11
2.2053520643007678
 21
0.8092638355990403
 31
0.0
  0
LINE
  5
2CE8
  8
0
 10
2.0938101448000448
 20
0.8933751628992467
 30
0.0
 11
2.0716097259000881
 21
0.9069931881995216
 31
0.0
  0
LINE
  5
2CE9
  8
0
 10
2.2053520643007678
 20
0.8092638355990403
 30
0.0
 11
2.2006285719007792
 21
0.8195631817993671
 31
0.0
  0
LINE
  5
2CEA
  8
0
 10
2.1164154341004169
 20
0.8799860134990922
 30
0.0
 11
2.0938101448000448
 21
0.8933751628992467
 31
0.0
  0
LINE
  5
2CEB
  8
0
 10
2.2006285719007792
 20
0.8195631817993671
 30
0.0
 11
2.1940156810005642
 21
0.829175904699241
 31
0.0
  0
LINE
  5
2CEC
  8
0
 10
2.1394255938002971
 20
0.8668257377989903
 30
0.0
 11
2.1164154341004169
 21
0.8799860134990922
 31
0.0
  0
LINE
  5
2CED
  8
0
 10
2.1940156810005642
 20
0.829175904699241
 30
0.0
 11
2.185513392700158
 21
0.8381020053993779
 31
0.0
  0
LINE
  5
2CEE
  8
0
 10
2.1628406250001708
 20
0.8538943357993957
 30
0.0
 11
2.1394255938002971
 21
0.8668257377989903
 31
0.0
  0
LINE
  5
2CEF
  8
0
 10
2.185513392700158
 20
0.8381020053993779
 30
0.0
 11
2.1751217081005052
 21
0.8463414816992553
 31
0.0
  0
LINE
  5
2CF0
  8
0
 10
2.1751217081005052
 20
0.8463414816992553
 30
0.0
 11
2.1628406250001708
 21
0.8538943357993957
 31
0.0
  0
LINE
  5
2CF1
  8
0
 10
3.0489486324004238
 20
1.1717436059993811
 30
0.0
 11
3.0626467629999752
 21
1.1635613483990701
 31
0.0
  0
LINE
  5
2CF2
  8
0
 10
3.0343058031003229
 20
1.1784381817988101
 30
0.0
 11
3.0489486324004238
 21
1.1717436059993811
 31
0.0
  0
LINE
  5
2CF3
  8
0
 10
3.0626467629999752
 20
1.1635613483990701
 30
0.0
 11
3.0754001948998839
 21
1.1538914056993681
 31
0.0
  0
LINE
  5
2CF4
  8
0
 10
3.0187182762006151
 20
1.183645073599336
 30
0.0
 11
3.0343058031003229
 21
1.1784381817988101
 31
0.0
  0
LINE
  5
2CF5
  8
0
 10
3.0754001948998839
 20
1.1538914056993681
 30
0.0
 11
3.0946990393008491
 21
1.133979336599622
 31
0.0
  0
LINE
  5
2CF6
  8
0
 10
3.0021860494998691
 20
1.187364281399595
 30
0.0
 11
3.0187182762006151
 21
1.183645073599336
 31
0.0
  0
LINE
  5
2CF7
  8
0
 10
3.0946990393008491
 20
1.133979336599622
 30
0.0
 11
3.1110288308000231
 21
1.109489780299554
 31
0.0
  0
LINE
  5
2CF8
  8
0
 10
2.9847091241008452
 20
1.1895958062993941
 30
0.0
 11
3.0021860494998691
 21
1.187364281399595
 31
0.0
  0
LINE
  5
2CF9
  8
0
 10
3.1110288308000231
 20
1.109489780299554
 30
0.0
 11
3.1243895683001019
 21
1.080422735699357
 31
0.0
  0
LINE
  5
2CFA
  8
0
 10
2.9662875000003619
 20
1.1903396482994131
 30
0.0
 11
2.9847091241008452
 21
1.1895958062993941
 31
0.0
  0
LINE
  5
2CFB
  8
0
 10
3.1243895683001019
 20
1.080422735699357
 30
0.0
 11
3.1347812540002451
 21
1.0467782049993271
 31
0.0
  0
LINE
  5
2CFC
  8
0
 10
2.9469886555998519
 20
1.1895958062993941
 30
0.0
 11
2.9662875000003619
 21
1.1903396482994131
 31
0.0
  0
LINE
  5
2CFD
  8
0
 10
3.1347812540002451
 20
1.0467782049993271
 30
0.0
 11
3.1422038868004161
 21
1.0085561859991681
 31
0.0
  0
LINE
  5
2CFE
  8
0
 10
2.9287694678005201
 20
1.187364281399595
 30
0.0
 11
2.9469886555998519
 21
1.1895958062993941
 31
0.0
  0
LINE
  5
2CFF
  8
0
 10
3.1422038868004161
 20
1.0085561859991681
 30
0.0
 11
3.1466574656005828
 21
0.9657566808996307
 31
0.0
  0
LINE
  5
2D00
  8
0
 10
2.911629934400934
 20
1.183645073599336
 30
0.0
 11
2.9287694678005201
 21
1.187364281399595
 31
0.0
  0
LINE
  5
2D01
  8
0
 10
3.1466574656005828
 20
0.9657566808996307
 30
0.0
 11
3.148141992599903
 21
0.9183796874990549
 31
0.0
  0
LINE
  5
2D02
  8
0
 10
2.895570057599798
 20
1.1784381817988101
 30
0.0
 11
2.911629934400934
 21
1.183645073599336
 31
0.0
  0
LINE
  5
2D03
  8
0
 10
3.148141992599903
 20
0.9183796874990549
 30
0.0
 11
3.1466574656005828
 21
0.8702588531996298
 31
0.0
  0
LINE
  5
2D04
  8
0
 10
2.8805898363002589
 20
1.1717436059993811
 30
0.0
 11
2.895570057599798
 21
1.1784381817988101
 31
0.0
  0
LINE
  5
2D05
  8
0
 10
3.1466574656005828
 20
0.8702588531996298
 30
0.0
 11
3.1422038868004161
 21
0.8268299423993994
 31
0.0
  0
LINE
  5
2D06
  8
0
 10
2.8666892694009221
 20
1.1635613483990701
 30
0.0
 11
2.8805898363002589
 21
1.1717436059993811
 31
0.0
  0
LINE
  5
2D07
  8
0
 10
3.1422038868004161
 20
0.8268299423993994
 30
0.0
 11
3.1347812540002451
 21
0.788092957299341
 31
0.0
  0
LINE
  5
2D08
  8
0
 10
2.8538683591004879
 20
1.1538914056993681
 30
0.0
 11
2.8666892694009221
 21
1.1635613483990701
 31
0.0
  0
LINE
  5
2D09
  8
0
 10
3.1347812540002451
 20
0.788092957299341
 30
0.0
 11
3.1243895683001019
 21
0.7540478956993866
 31
0.0
  0
LINE
  5
2D0A
  8
0
 10
2.8345695158004669
 20
1.133979336599622
 30
0.0
 11
2.8538683591004879
 21
1.1538914056993681
 31
0.0
  0
LINE
  5
2D0B
  8
0
 10
3.1243895683001019
 20
0.7540478956993866
 30
0.0
 11
3.1110288308000231
 21
0.7246947586991155
 31
0.0
  0
LINE
  5
2D0C
  8
0
 10
2.8182397242999282
 20
1.109489780299554
 30
0.0
 11
2.8345695158004669
 21
1.133979336599622
 31
0.0
  0
LINE
  5
2D0D
  8
0
 10
3.1110288308000231
 20
0.7246947586991155
 30
0.0
 11
3.0946990393008491
 21
0.7000335462992098
 31
0.0
  0
LINE
  5
2D0E
  8
0
 10
2.8048789857002698
 20
1.080422735699357
 30
0.0
 11
2.8182397242999282
 21
1.109489780299554
 31
0.0
  0
LINE
  5
2D0F
  8
0
 10
3.0946990393008491
 20
0.7000335462992098
 30
0.0
 11
3.0754001948998839
 21
0.6800642573994084
 31
0.0
  0
LINE
  5
2D10
  8
0
 10
2.794487301100161
 20
1.0467782049993271
 30
0.0
 11
2.8048789857002698
 21
1.080422735699357
 31
0.0
  0
LINE
  5
2D11
  8
0
 10
3.0754001948998839
 20
0.6800642573994084
 30
0.0
 11
3.0626467629999752
 21
0.6703943157995127
 31
0.0
  0
LINE
  5
2D12
  8
0
 10
2.7870646682995348
 20
1.0085561859991681
 30
0.0
 11
2.794487301100161
 21
1.0467782049993271
 31
0.0
  0
LINE
  5
2D13
  8
0
 10
3.0626467629999752
 20
0.6703943157995127
 30
0.0
 11
3.0489486324004238
 21
0.6622120570993957
 31
0.0
  0
LINE
  5
2D14
  8
0
 10
2.7826110894993681
 20
0.9657566808996307
 30
0.0
 11
2.7870646682995348
 21
1.0085561859991681
 31
0.0
  0
LINE
  5
2D15
  8
0
 10
3.0489486324004238
 20
0.6622120570993957
 30
0.0
 11
3.0343058031003229
 21
0.6555174823993184
 31
0.0
  0
LINE
  5
2D16
  8
0
 10
2.7811265625000479
 20
0.9183796874990549
 30
0.0
 11
2.7826110894993681
 21
0.9657566808996307
 31
0.0
  0
LINE
  5
2D17
  8
0
 10
3.0343058031003229
 20
0.6555174823993184
 30
0.0
 11
3.0187182762006151
 21
0.650310590599247
 31
0.0
  0
LINE
  5
2D18
  8
0
 10
2.7826110894993681
 20
0.8702588531996298
 30
0.0
 11
2.7811265625000479
 21
0.9183796874990549
 31
0.0
  0
LINE
  5
2D19
  8
0
 10
3.0187182762006151
 20
0.650310590599247
 30
0.0
 11
3.0021860494998691
 21
0.6465913827996701
 31
0.0
  0
LINE
  5
2D1A
  8
0
 10
2.7870646682995348
 20
0.8268299423993994
 30
0.0
 11
2.7826110894993681
 21
0.8702588531996298
 31
0.0
  0
LINE
  5
2D1B
  8
0
 10
3.0021860494998691
 20
0.6465913827996701
 30
0.0
 11
2.9847091241008452
 21
0.6443598567993832
 31
0.0
  0
LINE
  5
2D1C
  8
0
 10
2.794487301100161
 20
0.788092957299341
 30
0.0
 11
2.7870646682995348
 21
0.8268299423993994
 31
0.0
  0
LINE
  5
2D1D
  8
0
 10
2.9847091241008452
 20
0.6443598567993832
 30
0.0
 11
2.9662875000003619
 21
0.6436160158991698
 31
0.0
  0
LINE
  5
2D1E
  8
0
 10
2.8048789857002698
 20
0.7540478956993866
 30
0.0
 11
2.794487301100161
 21
0.788092957299341
 31
0.0
  0
LINE
  5
2D1F
  8
0
 10
2.9662875000003619
 20
0.6436160158991698
 30
0.0
 11
2.9469886555998519
 21
0.6443598567993832
 31
0.0
  0
LINE
  5
2D20
  8
0
 10
2.8182397242999282
 20
0.7246947586991155
 30
0.0
 11
2.8048789857002698
 21
0.7540478956993866
 31
0.0
  0
LINE
  5
2D21
  8
0
 10
2.9469886555998519
 20
0.6443598567993832
 30
0.0
 11
2.9287694678005201
 21
0.6465913827996701
 31
0.0
  0
LINE
  5
2D22
  8
0
 10
2.8345695158004669
 20
0.7000335462992098
 30
0.0
 11
2.8182397242999282
 21
0.7246947586991155
 31
0.0
  0
LINE
  5
2D23
  8
0
 10
2.9287694678005201
 20
0.6465913827996701
 30
0.0
 11
2.911629934400934
 21
0.650310590599247
 31
0.0
  0
LINE
  5
2D24
  8
0
 10
2.8538683591004879
 20
0.6800642573994084
 30
0.0
 11
2.8345695158004669
 21
0.7000335462992098
 31
0.0
  0
LINE
  5
2D25
  8
0
 10
2.911629934400934
 20
0.650310590599247
 30
0.0
 11
2.895570057599798
 21
0.6555174823993184
 31
0.0
  0
LINE
  5
2D26
  8
0
 10
2.8666892694009221
 20
0.6703943157995127
 30
0.0
 11
2.8538683591004879
 21
0.6800642573994084
 31
0.0
  0
LINE
  5
2D27
  8
0
 10
2.895570057599798
 20
0.6555174823993184
 30
0.0
 11
2.8805898363002589
 21
0.6622120570993957
 31
0.0
  0
LINE
  5
2D28
  8
0
 10
2.8805898363002589
 20
0.6622120570993957
 30
0.0
 11
2.8666892694009221
 21
0.6703943157995127
 31
0.0
  0
LINE
  5
2D29
  8
0
 10
3.8557019534000569
 20
1.1903396482994131
 30
0.0
 11
4.0210242182001821
 21
0.6436160158991698
 31
0.0
  0
LINE
  5
2D2A
  8
0
 10
3.7895730466002528
 20
1.1903396482994131
 30
0.0
 11
3.8557019534000569
 21
1.1903396482994131
 31
0.0
  0
LINE
  5
2D2B
  8
0
 10
4.0210242182001821
 20
0.6436160158991698
 30
0.0
 11
3.9416695318004709
 21
0.6436160158991698
 31
0.0
  0
LINE
  5
2D2C
  8
0
 10
3.6242507807005491
 20
0.6436160158991698
 30
0.0
 11
3.7895730466002528
 21
1.1903396482994131
 31
0.0
  0
LINE
  5
2D2D
  8
0
 10
3.9416695318004709
 20
0.6436160158991698
 30
0.0
 11
3.8953792965999119
 21
0.8034275391992196
 31
0.0
  0
LINE
  5
2D2E
  8
0
 10
3.7036054682002941
 20
0.6436160158991698
 30
0.0
 11
3.6242507807005491
 21
0.6436160158991698
 31
0.0
  0
LINE
  5
2D2F
  8
0
 10
3.8953792965999119
 20
0.8034275391992196
 30
0.0
 11
3.749895703400397
 21
0.8034275391992196
 31
0.0
  0
LINE
  5
2D30
  8
0
 10
3.749895703400397
 20
0.8034275391992196
 30
0.0
 11
3.7036054682002941
 21
0.6436160158991698
 31
0.0
  0
LINE
  5
2D31
  8
0
 10
3.8193310551005188
 20
1.0417429692993201
 30
0.0
 11
3.7664279300997801
 21
0.8566980465993765
 31
0.0
  0
LINE
  5
2D32
  8
0
 10
3.7664279300997801
 20
0.8566980465993765
 30
0.0
 11
3.8788470699005302
 21
0.8566980465993765
 31
0.0
  0
LINE
  5
2D33
  8
0
 10
3.8259439449007
 20
1.0417429692993201
 30
0.0
 11
3.8193310551005188
 21
1.0417429692993201
 31
0.0
  0
LINE
  5
2D34
  8
0
 10
3.8788470699005302
 20
0.8566980465993765
 30
0.0
 11
3.8259439449007
 21
1.0417429692993201
 31
0.0
  0
LINE
  5
2D35
  8
0
 10
0.0
 20
0.0
 30
0.0
 11
5.2469999999998427
 21
0.0
 31
0.0
  0
LINE
  5
2D36
  8
0
 10
0.1484999999997854
 20
0.1484999999997854
 30
0.0
 11
5.0984999999996026
 21
0.1484999999997854
 31
0.0
  0
LINE
  5
2D37
  8
0
 10
3.415500000000065
 20
2.276999999999588
 30
0.0
 11
3.11850000000004
 21
2.276999999999588
 31
0.0
  0
LINE
  5
2D38
  8
0
 10
3.11850000000004
 20
2.5599985850992648
 30
0.0
 11
3.11850000000004
 21
2.276999999999588
 31
0.0
  0
ARC
  5
2D39
  8
0
 10
2.4255000000002829
 20
3.266999999998915
 30
0.0
 40
0.9899999999999987
 50
225.57299599901029
 51
314.42700398160042
  0
LINE
  5
2D3A
  8
0
 10
1.7324999999982531
 20
2.5599985855756131
 30
0.0
 11
1.7325000000000721
 21
0.6434999999992215
 31
0.0
  0
LINE
  5
2D3B
  8
0
 10
1.7325000000000721
 20
0.6434999999992215
 30
0.0
 11
1.336499999999887
 21
0.6434999999992215
 31
0.0
  0
LINE
  5
2D3C
  8
0
 10
3.592849218199262
 20
1.1903396482994131
 30
0.0
 11
3.5201074216006409
 21
0.6436160158991698
 31
0.0
  0
LINE
  5
2D3D
  8
0
 10
3.5267203125004012
 20
1.1903396482994131
 30
0.0
 11
3.592849218199262
 21
1.1903396482994131
 31
0.0
  0
LINE
  5
2D3E
  8
0
 10
3.5201074216006409
 20
0.6436160158991698
 30
0.0
 11
3.4539785158999621
 21
0.6436160158991698
 31
0.0
  0
LINE
  5
2D3F
  8
0
 10
3.4837365233001938
 20
0.8398757817990372
 30
0.0
 11
3.5267203125004012
 21
1.1903396482994131
 31
0.0
  0
LINE
  5
2D40
  8
0
 10
3.4539785158999621
 20
0.6436160158991698
 30
0.0
 11
3.3944625000003721
 21
1.052957812499244
 31
0.0
  0
LINE
  5
2D41
  8
0
 10
3.4771236323999801
 20
0.8398757817990372
 30
0.0
 11
3.4837365233001938
 21
0.8398757817990372
 31
0.0
  0
LINE
  5
2D42
  8
0
 10
3.3944625000003721
 20
1.052957812499244
 30
0.0
 11
3.3878496091001571
 21
1.052957812499244
 31
0.0
  0
LINE
  5
2D43
  8
0
 10
3.4275269534009558
 20
1.1903396482994131
 30
0.0
 11
3.4771236323999801
 21
0.8398757817990372
 31
0.0
  0
LINE
  5
2D44
  8
0
 10
3.3878496091001571
 20
1.052957812499244
 30
0.0
 11
3.3283335932001128
 21
0.6436160158991698
 31
0.0
  0
LINE
  5
2D45
  8
0
 10
3.3547851556995729
 20
1.1903396482994131
 30
0.0
 11
3.4275269534009558
 21
1.1903396482994131
 31
0.0
  0
LINE
  5
2D46
  8
0
 10
3.3283335932001128
 20
0.6436160158991698
 30
0.0
 11
3.262204687500343
 21
0.6436160158991698
 31
0.0
  0
LINE
  5
2D47
  8
0
 10
3.30518847669964
 20
0.8398757817990372
 30
0.0
 11
3.3547851556995729
 21
1.1903396482994131
 31
0.0
  0
LINE
  5
2D48
  8
0
 10
3.262204687500343
 20
0.6436160158991698
 30
0.0
 11
3.1894628909003582
 21
1.1903396482994131
 31
0.0
  0
LINE
  5
2D49
  8
0
 10
3.2985755858007901
 20
0.8398757817990372
 30
0.0
 11
3.30518847669964
 21
0.8398757817990372
 31
0.0
  0
LINE
  5
2D4A
  8
0
 10
3.1894628909003582
 20
1.1903396482994131
 30
0.0
 11
3.255591796600128
 21
1.1903396482994131
 31
0.0
  0
LINE
  5
2D4B
  8
0
 10
3.255591796600128
 20
1.1903396482994131
 30
0.0
 11
3.2985755858007901
 21
0.8398757817990372
 31
0.0
  0
LINE
  5
2D4C
  8
0
 10
3.0205401941002492
 20
1.118530317299246
 30
0.0
 11
3.01183547060009
 21
1.1241949575996839
 31
0.0
  0
LINE
  5
2D4D
  8
0
 10
3.01183547060009
 20
1.1241949575996839
 30
0.0
 11
3.0029957902997921
 21
1.1288296634993451
 31
0.0
  0
LINE
  5
2D4E
  8
0
 10
3.029109960799814
 20
1.1118357425991681
 30
0.0
 11
3.0205401941002492
 21
1.118530317299246
 31
0.0
  0
LINE
  5
2D4F
  8
0
 10
3.0029957902997921
 20
1.1288296634993451
 30
0.0
 11
2.9940211532002641
 21
1.13243443499914
 31
0.0
  0
LINE
  5
2D50
  8
0
 10
3.0405138236001221
 20
1.098961559299368
 30
0.0
 11
3.029109960799814
 21
1.1118357425991681
 31
0.0
  0
LINE
  5
2D51
  8
0
 10
2.9940211532002641
 20
1.13243443499914
 30
0.0
 11
2.984911559300599
 21
1.1350092709992621
 31
0.0
  0
LINE
  5
2D52
  8
0
 10
3.0501632458008312
 20
1.0811665776991499
 30
0.0
 11
3.0405138236001221
 21
1.098961559299368
 31
0.0
  0
LINE
  5
2D53
  8
0
 10
2.984911559300599
 20
1.1350092709992621
 30
0.0
 11
2.9756670086003392
 21
1.136554173699323
 31
0.0
  0
LINE
  5
2D54
  8
0
 10
3.0580582274005792
 20
1.058450796699389
 30
0.0
 11
3.0501632458008312
 21
1.0811665776991499
 31
0.0
  0
LINE
  5
2D55
  8
0
 10
2.9756670086003392
 20
1.136554173699323
 30
0.0
 11
2.9662875000003619
 21
1.137069140899257
 31
0.0
  0
LINE
  5
2D56
  8
0
 10
3.0641987683998191
 20
1.0308142184992439
 30
0.0
 11
3.0580582274005792
 21
1.058450796699389
 31
0.0
  0
LINE
  5
2D57
  8
0
 10
2.9662875000003619
 20
1.137069140899257
 30
0.0
 11
2.9560307722003918
 21
1.136554173699323
 31
0.0
  0
LINE
  5
2D58
  8
0
 10
3.068584868799916
 20
0.9982568397995237
 30
0.0
 11
3.0641987683998191
 21
1.0308142184992439
 31
0.0
  0
LINE
  5
2D59
  8
0
 10
2.9560307722003918
 20
1.136554173699323
 30
0.0
 11
2.946043956900211
 21
1.1350092709992621
 31
0.0
  0
LINE
  5
2D5A
  8
0
 10
3.0712165296999951
 20
0.9607786627991573
 30
0.0
 11
3.068584868799916
 21
0.9982568397995237
 31
0.0
  0
LINE
  5
2D5B
  8
0
 10
2.946043956900211
 20
1.1350092709992621
 30
0.0
 11
2.9363270563007968
 21
1.13243443499914
 31
0.0
  0
LINE
  5
2D5C
  8
0
 10
3.0720937500000209
 20
0.9183796874990549
 30
0.0
 11
3.0712165296999951
 21
0.9607786627991573
 31
0.0
  0
LINE
  5
2D5D
  8
0
 10
2.9363270563007968
 20
1.13243443499914
 30
0.0
 11
2.9268800703998741
 21
1.1288296634993451
 31
0.0
  0
LINE
  5
2D5E
  8
0
 10
3.0712165296999951
 20
0.8752368701991599
 30
0.0
 11
3.0720937500000209
 21
0.9183796874990549
 31
0.0
  0
LINE
  5
2D5F
  8
0
 10
2.9268800703998741
 20
1.1288296634993451
 30
0.0
 11
2.9177029970005601
 21
1.1241949575996839
 31
0.0
  0
LINE
  5
2D60
  8
0
 10
3.068584868799916
 20
0.8371292885992716
 30
0.0
 11
3.0712165296999951
 21
0.8752368701991599
 31
0.0
  0
LINE
  5
2D61
  8
0
 10
2.9177029970005601
 20
1.1241949575996839
 30
0.0
 11
2.9087958382997381
 21
1.118530317299246
 31
0.0
  0
LINE
  5
2D62
  8
0
 10
3.0641987683998191
 20
0.8040569437994236
 30
0.0
 11
3.068584868799916
 21
0.8371292885992716
 31
0.0
  0
LINE
  5
2D63
  8
0
 10
2.9087958382997381
 20
1.118530317299246
 30
0.0
 11
2.9001585932001031
 21
1.1118357425991681
 31
0.0
  0
LINE
  5
2D64
  8
0
 10
3.0580582274005792
 20
0.7760198346993548
 30
0.0
 11
3.0641987683998191
 21
0.8040569437994236
 31
0.0
  0
LINE
  5
2D65
  8
0
 10
2.9001585932001031
 20
1.1118357425991681
 30
0.0
 11
2.8887547314998301
 21
1.098961559299368
 31
0.0
  0
LINE
  5
2D66
  8
0
 10
3.0501632458008312
 20
0.7530179612990651
 30
0.0
 11
3.0580582274005792
 21
0.7760198346993548
 31
0.0
  0
LINE
  5
2D67
  8
0
 10
2.8887547314998301
 20
1.098961559299368
 30
0.0
 11
2.8791053093000301
 21
1.0811665776991499
 31
0.0
  0
LINE
  5
2D68
  8
0
 10
3.0405138236001221
 20
0.7350513235994641
 30
0.0
 11
3.0501632458008312
 21
0.7530179612990651
 31
0.0
  0
LINE
  5
2D69
  8
0
 10
2.8791053093000301
 20
1.0811665776991499
 30
0.0
 11
2.8712103277002821
 21
1.058450796699389
 31
0.0
  0
LINE
  5
2D6A
  8
0
 10
3.029109960799814
 20
0.7221199215994149
 30
0.0
 11
3.0405138236001221
 21
0.7350513235994641
 31
0.0
  0
LINE
  5
2D6B
  8
0
 10
2.8712103277002821
 20
1.058450796699389
 30
0.0
 11
2.8650697867001318
 21
1.0308142184992439
 31
0.0
  0
LINE
  5
2D6C
  8
0
 10
3.0205401941002492
 20
0.7154253468993375
 30
0.0
 11
3.029109960799814
 21
0.7221199215994149
 31
0.0
  0
LINE
  5
2D6D
  8
0
 10
2.8650697867001318
 20
1.0308142184992439
 30
0.0
 11
2.860683685200001
 21
0.9982568397995237
 31
0.0
  0
LINE
  5
2D6E
  8
0
 10
3.01183547060009
 20
0.7097607065995817
 30
0.0
 11
3.0205401941002492
 21
0.7154253468993375
 31
0.0
  0
LINE
  5
2D6F
  8
0
 10
2.860683685200001
 20
0.9982568397995237
 30
0.0
 11
2.8580520253999562
 21
0.9607786627991573
 31
0.0
  0
LINE
  5
2D70
  8
0
 10
3.0029957902997921
 20
0.705126000699238
 30
0.0
 11
3.01183547060009
 21
0.7097607065995817
 31
0.0
  0
LINE
  5
2D71
  8
0
 10
2.8580520253999562
 20
0.9607786627991573
 30
0.0
 11
2.8571748050999299
 21
0.9183796874990549
 31
0.0
  0
LINE
  5
2D72
  8
0
 10
2.9940211532002641
 20
0.7015212291994432
 30
0.0
 11
3.0029957902997921
 21
0.705126000699238
 31
0.0
  0
LINE
  5
2D73
  8
0
 10
2.8571748050999299
 20
0.9183796874990549
 30
0.0
 11
2.8580520253999562
 21
0.8752368701991599
 31
0.0
  0
LINE
  5
2D74
  8
0
 10
2.984911559300599
 20
0.6989463931993214
 30
0.0
 11
2.9940211532002641
 21
0.7015212291994432
 31
0.0
  0
LINE
  5
2D75
  8
0
 10
2.8580520253999562
 20
0.8752368701991599
 30
0.0
 11
2.860683685200001
 21
0.8371292885992716
 31
0.0
  0
LINE
  5
2D76
  8
0
 10
2.9756670086003392
 20
0.6974014904994874
 30
0.0
 11
2.984911559300599
 21
0.6989463931993214
 31
0.0
  0
LINE
  5
2D77
  8
0
 10
2.860683685200001
 20
0.8371292885992716
 30
0.0
 11
2.8650697867001318
 21
0.8040569437994236
 31
0.0
  0
LINE
  5
2D78
  8
0
 10
2.9662875000003619
 20
0.6968865232993267
 30
0.0
 11
2.9756670086003392
 21
0.6974014904994874
 31
0.0
  0
LINE
  5
2D79
  8
0
 10
2.8650697867001318
 20
0.8040569437994236
 30
0.0
 11
2.8712103277002821
 21
0.7760198346993548
 31
0.0
  0
LINE
  5
2D7A
  8
0
 10
2.9560307722003918
 20
0.6974014904994874
 30
0.0
 11
2.9662875000003619
 21
0.6968865232993267
 31
0.0
  0
LINE
  5
2D7B
  8
0
 10
2.8712103277002821
 20
0.7760198346993548
 30
0.0
 11
2.8791053093000301
 21
0.7530179612990651
 31
0.0
  0
LINE
  5
2D7C
  8
0
 10
2.946043956900211
 20
0.6989463931993214
 30
0.0
 11
2.9560307722003918
 21
0.6974014904994874
 31
0.0
  0
LINE
  5
2D7D
  8
0
 10
2.8791053093000301
 20
0.7530179612990651
 30
0.0
 11
2.8887547314998301
 21
0.7350513235994641
 31
0.0
  0
LINE
  5
2D7E
  8
0
 10
2.9363270563007968
 20
0.7015212291994432
 30
0.0
 11
2.946043956900211
 21
0.6989463931993214
 31
0.0
  0
LINE
  5
2D7F
  8
0
 10
2.8887547314998301
 20
0.7350513235994641
 30
0.0
 11
2.9001585932001031
 21
0.7221199215994149
 31
0.0
  0
LINE
  5
2D80
  8
0
 10
2.9268800703998741
 20
0.705126000699238
 30
0.0
 11
2.9363270563007968
 21
0.7015212291994432
 31
0.0
  0
LINE
  5
2D81
  8
0
 10
2.9001585932001031
 20
0.7221199215994149
 30
0.0
 11
2.9087958382997381
 21
0.7154253468993375
 31
0.0
  0
LINE
  5
2D82
  8
0
 10
2.9177029970005601
 20
0.7097607065995817
 30
0.0
 11
2.9268800703998741
 21
0.705126000699238
 31
0.0
  0
LINE
  5
2D83
  8
0
 10
2.9087958382997381
 20
0.7154253468993375
 30
0.0
 11
2.9177029970005601
 21
0.7097607065995817
 31
0.0
  0
LINE
  5
2D84
  8
0
 10
2.7067412108003732
 20
1.1903396482994131
 30
0.0
 11
2.7067412108003732
 21
0.6436160158991698
 31
0.0
  0
LINE
  5
2D85
  8
0
 10
2.630692969300525
 20
1.1903396482994131
 30
0.0
 11
2.7067412108003732
 21
1.1903396482994131
 31
0.0
  0
LINE
  5
2D86
  8
0
 10
2.7067412108003732
 20
0.6436160158991698
 30
0.0
 11
2.630692969300525
 21
0.6436160158991698
 31
0.0
  0
LINE
  5
2D87
  8
0
 10
2.630692969300525
 20
0.9716501948992117
 30
0.0
 11
2.630692969300525
 21
1.1903396482994131
 31
0.0
  0
LINE
  5
2D88
  8
0
 10
2.630692969300525
 20
0.6436160158991698
 30
0.0
 11
2.630692969300525
 21
0.7809978516993397
 31
0.0
  0
LINE
  5
2D89
  8
0
 10
2.4422255858007702
 20
0.9716501948992117
 30
0.0
 11
2.630692969300525
 21
0.9716501948992117
 31
0.0
  0
LINE
  5
2D8A
  8
0
 10
2.630692969300525
 20
0.7809978516993397
 30
0.0
 11
2.630692969300525
 21
0.9183796874990549
 31
0.0
  0
LINE
  5
2D8B
  8
0
 10
2.4422255858007702
 20
1.1903396482994131
 30
0.0
 11
2.4422255858007702
 21
0.9716501948992117
 31
0.0
  0
LINE
  5
2D8C
  8
0
 10
2.630692969300525
 20
0.9183796874990549
 30
0.0
 11
2.4422255858007702
 21
0.9183796874990549
 31
0.0
  0
LINE
  5
2D8D
  8
0
 10
2.366177344300012
 20
1.1903396482994131
 30
0.0
 11
2.4422255858007702
 21
1.1903396482994131
 31
0.0
  0
LINE
  5
2D8E
  8
0
 10
2.4422255858007702
 20
0.9183796874990549
 30
0.0
 11
2.4422255858007702
 21
0.6436160158991698
 31
0.0
  0
LINE
  5
2D8F
  8
0
 10
2.366177344300012
 20
0.6436160158991698
 30
0.0
 11
2.366177344300012
 21
1.1903396482994131
 31
0.0
  0
LINE
  5
2D90
  8
0
 10
2.4422255858007702
 20
0.6436160158991698
 30
0.0
 11
2.366177344300012
 21
0.6436160158991698
 31
0.0
  0
LINE
  5
2D91
  8
0
 10
2.0702601557004519
 20
0.9856687499993768
 30
0.0
 11
2.090098828400186
 21
0.9715929761994175
 31
0.0
  0
LINE
  5
2D92
  8
0
 10
2.0579790736996979
 20
0.9953386915990449
 30
0.0
 11
2.0702601557004519
 21
0.9856687499993768
 31
0.0
  0
LINE
  5
2D93
  8
0
 10
2.090098828400186
 20
0.9715929761994175
 30
0.0
 11
2.1099374999998868
 21
0.9582038267994903
 31
0.0
  0
LINE
  5
2D94
  8
0
 10
2.0475873880004651
 20
1.0051230705994381
 30
0.0
 11
2.0579790736996979
 21
0.9953386915990449
 31
0.0
  0
LINE
  5
2D95
  8
0
 10
2.1099374999998868
 20
0.9582038267994903
 30
0.0
 11
2.129776171600497
 21
0.9455012995997549
 31
0.0
  0
LINE
  5
2D96
  8
0
 10
2.0390851008005479
 20
1.0150218869994201
 30
0.0
 11
2.0475873880004651
 21
1.0051230705994381
 31
0.0
  0
LINE
  5
2D97
  8
0
 10
2.129776171600497
 20
0.9455012995997549
 30
0.0
 11
2.1496148443002312
 21
0.9334853956993356
 31
0.0
  0
LINE
  5
2D98
  8
0
 10
5.2469999999998427
 20
0.0
 30
0.0
 11
5.2469999999998427
 21
5.2469999999998427
 31
0.0
  0
LINE
  5
2D99
  8
0
 10
0.0
 20
5.2469999999998427
 30
0.0
 11
0.0
 21
0.0
 31
0.0
  0
LINE
  5
2D9A
  8
0
 10
5.0984999999996026
 20
0.1484999999997854
 30
0.0
 11
5.0984999999996026
 21
5.0984999999996026
 31
0.0
  0
LINE
  5
2D9B
  8
0
 10
0.1484999999997854
 20
5.0984999999996026
 30
0.0
 11
0.1484999999997854
 21
0.1484999999997854
 31
0.0
  0
LINE
  5
2D9C
  8
0
 10
3.415500000000065
 20
4.6529999999988831
 30
0.0
 11
3.415500000000065
 21
2.276999999999588
 31
0.0
  0
ARC
  5
2D9D
  8
0
 10
2.4255000000002829
 20
3.266999999998915
 30
0.0
 40
0.692999999999999
 50
179.9999999999996
 51
0.0
  0
LINE
  5
2D9E
  8
0
 10
1.336499999999887
 20
4.6529999999988831
 30
0.0
 11
1.336499999999887
 21
0.6434999999992215
 31
0.0
  0
ENDBLK
  5
2DA0
  8
0
  0
BLOCK
  8
0
  2
_
 70
     0
 10
0.0
 20
0.0
 30
0.0
  3
_
  1

  0
ARC
  5
42F6
  8
002寸法
 10
-1.2990381056765721
 20
0.0
 30
0.0
 40
1.5
 50
30.000000000001251
 51
180.0
  0
ARC
  5
42F7
  8
002寸法
 10
1.299038105676743
 20
1.5
 30
0.0
 40
1.5
 50
209.9999999999998
 51
0.0
  0
ENDBLK
  5
42F5
  8
0
  0
BLOCK
  8
0
  2
_0
 70
     0
 10
0.0
 20
0.0
 30
0.0
  3
_0
  1

  0
POLYLINE
  5
4304
  8
002寸法
 66
     1
 10
0.0
 20
0.0
 30
0.0
 70
     1
  0
VERTEX
  5
8CD2
  8
002寸法
 10
0.0
 20
0.0
 30
0.0
  0
VERTEX
  5
8CD3
  8
002寸法
 10
1.5
 20
2.5980762113532592
 30
0.0
  0
VERTEX
  5
8CD4
  8
002寸法
 10
-1.5
 20
2.5980762113532592
 30
0.0
  0
SEQEND
  5
8CD5
  8
002寸法
  0
ENDBLK
  5
4303
  8
0
  0
BLOCK
  8
0
  2
__
 70
     0
 10
0.0
 20
0.0
 30
0.0
  3
__
  1

  0
POLYLINE
  5
431A
  8
002寸法
 66
     1
 10
0.0
 20
0.0
 30
0.0
 70
     1
  0
VERTEX
  5
8CD8
  8
002寸法
 10
-1.4999999999999429
 20
0.0
 30
0.0
  0
VERTEX
  5
8CD9
  8
002寸法
 10
0.0000000000000568
 20
2.5980762113532592
 30
0.0
  0
VERTEX
  5
8CDA
  8
002寸法
 10
-2.9999999999999432
 20
2.5980762113532592
 30
0.0
  0
SEQEND
  5
8CDB
  8
002寸法
  0
POLYLINE
  5
431B
  8
002寸法
 66
     1
 10
0.0
 20
0.0
 30
0.0
 70
     1
  0
VERTEX
  5
8CDC
  8
002寸法
 10
1.500000000000056
 20
0.0
 30
0.0
  0
VERTEX
  5
8CDD
  8
002寸法
 10
3.000000000000056
 20
2.5980762113532592
 30
0.0
  0
VERTEX
  5
8CDE
  8
002寸法
 10
0.0000000000000568
 20
2.5980762113532592
 30
0.0
  0
SEQEND
  5
8CDF
  8
002寸法
  0
ENDBLK
  5
4319
  8
0
  0
BLOCK
  8
0
  2
___
 70
     0
 10
0.0
 20
0.0
 30
0.0
  3
___
  1

  0
POLYLINE
  5
4332
  8
002寸法
 66
     1
 10
0.0
 20
0.0
 30
0.0
 70
     1
  0
VERTEX
  5
8CE2
  8
002寸法
 10
-3.0
 20
0.0
 30
0.0
  0
VERTEX
  5
8CE3
  8
002寸法
 10
-1.5
 20
2.5980762113532592
 30
0.0
  0
VERTEX
  5
8CE4
  8
002寸法
 10
-4.5
 20
2.5980762113532592
 30
0.0
  0
SEQEND
  5
8CE5
  8
002寸法
  0
POLYLINE
  5
4333
  8
002寸法
 66
     1
 10
0.0
 20
0.0
 30
0.0
 70
     1
  0
VERTEX
  5
8CE6
  8
002寸法
 10
0.0
 20
0.0
 30
0.0
  0
VERTEX
  5
8CE7
  8
002寸法
 10
1.5
 20
2.5980762113532592
 30
0.0
  0
VERTEX
  5
8CE8
  8
002寸法
 10
-1.5
 20
2.5980762113532592
 30
0.0
  0
SEQEND
  5
8CE9
  8
002寸法
  0
POLYLINE
  5
4334
  8
002寸法
 66
     1
 10
0.0
 20
0.0
 30
0.0
 70
     1
  0
VERTEX
  5
8CEA
  8
002寸法
 10
3.0
 20
0.0
 30
0.0
  0
VERTEX
  5
8CEB
  8
002寸法
 10
4.5
 20
2.5980762113532592
 30
0.0
  0
VERTEX
  5
8CEC
  8
002寸法
 10
1.5
 20
2.5980762113532592
 30
0.0
  0
SEQEND
  5
8CED
  8
002寸法
  0
ENDBLK
  5
4331
  8
0
  0
BLOCK
  8
0
  2
____
 70
     0
 10
0.0
 20
0.0
 30
0.0
  3
____
  1

  0
POLYLINE
  5
4342
  8
002寸法
 66
     1
 10
0.0
 20
0.0
 30
0.0
 70
     1
  0
VERTEX
  5
8CF0
  8
002寸法
 10
-4.5
 20
0.0
 30
0.0
  0
VERTEX
  5
8CF1
  8
002寸法
 10
-3.0
 20
2.5980762113532592
 30
0.0
  0
VERTEX
  5
8CF2
  8
002寸法
 10
-6.0
 20
2.5980762113532592
 30
0.0
  0
SEQEND
  5
8CF3
  8
002寸法
  0
POLYLINE
  5
4343
  8
002寸法
 66
     1
 10
0.0
 20
0.0
 30
0.0
 70
     1
  0
VERTEX
  5
8CF4
  8
002寸法
 10
-1.5
 20
0.0
 30
0.0
  0
VERTEX
  5
8CF5
  8
002寸法
 10
0.0
 20
2.5980762113532592
 30
0.0
  0
VERTEX
  5
8CF6
  8
002寸法
 10
-3.0
 20
2.5980762113532592
 30
0.0
  0
SEQEND
  5
8CF7
  8
002寸法
  0
POLYLINE
  5
4344
  8
002寸法
 66
     1
 10
0.0
 20
0.0
 30
0.0
 70
     1
  0
VERTEX
  5
8CF8
  8
002寸法
 10
1.5
 20
0.0
 30
0.0
  0
VERTEX
  5
8CF9
  8
002寸法
 10
3.0
 20
2.5980762113532592
 30
0.0
  0
VERTEX
  5
8CFA
  8
002寸法
 10
0.0
 20
2.5980762113532592
 30
0.0
  0
SEQEND
  5
8CFB
  8
002寸法
  0
POLYLINE
  5
4345
  8
002寸法
 66
     1
 10
0.0
 20
0.0
 30
0.0
 70
     1
  0
VERTEX
  5
8CFC
  8
002寸法
 10
4.5
 20
0.0
 30
0.0
  0
VERTEX
  5
8CFD
  8
002寸法
 10
6.0
 20
2.5980762113532592
 30
0.0
  0
VERTEX
  5
8CFE
  8
002寸法
 10
3.0
 20
2.5980762113532592
 30
0.0
  0
SEQEND
  5
8CFF
  8
002寸法
  0
ENDBLK
  5
4341
  8
0
  0
BLOCK
  8
0
  2
___G
 70
     0
 10
0.0
 20
0.0
 30
0.0
  3
___G
  1

  0
POLYLINE
  5
4354
  8
002寸法
 66
     1
 10
0.0
 20
0.0
 30
0.0
 70
     1
  0
VERTEX
  5
8D02
  8
002寸法
 10
-3.0
 20
0.0
 30
0.0
  0
VERTEX
  5
8D03
  8
002寸法
 10
-1.5
 20
2.5980762113532592
 30
0.0
  0
VERTEX
  5
8D04
  8
002寸法
 10
-4.5
 20
2.5980762113532592
 30
0.0
  0
SEQEND
  5
8D05
  8
002寸法
  0
POLYLINE
  5
4355
  8
002寸法
 66
     1
 10
0.0
 20
0.0
 30
0.0
 70
     1
  0
VERTEX
  5
8D06
  8
002寸法
 10
0.0
 20
0.0
 30
0.0
  0
VERTEX
  5
8D07
  8
002寸法
 10
1.5
 20
2.5980762113532592
 30
0.0
  0
VERTEX
  5
8D08
  8
002寸法
 10
-1.5
 20
2.5980762113532592
 30
0.0
  0
SEQEND
  5
8D09
  8
002寸法
  0
POLYLINE
  5
4356
  8
002寸法
 66
     1
 10
0.0
 20
0.0
 30
0.0
 70
     1
  0
VERTEX
  5
8D0A
  8
002寸法
 10
3.0
 20
0.0
 30
0.0
  0
VERTEX
  5
8D0B
  8
002寸法
 10
4.5
 20
2.5980762113532592
 30
0.0
  0
VERTEX
  5
8D0C
  8
002寸法
 10
1.5
 20
2.5980762113532592
 30
0.0
  0
SEQEND
  5
8D0D
  8
002寸法
  0
LINE
  5
4357
  8
002寸法
 10
4.5
 20
2.5980762113532592
 30
0.0
 11
7.0
 21
6.9282032302754706
 31
0.0
  0
LINE
  5
4358
  8
002寸法
 10
7.0
 20
6.9282032302754706
 30
0.0
 11
10.0
 21
6.9282032302754706
 31
0.0
  0
INSERT
  5
4359
  8
011形状
  2
*U57
 10
0.0
 20
0.0
 30
0.0
  0
ENDBLK
  5
4353
  8
0
  0
BLOCK
  8
0
  2
_TAGCIRCLE
 70
     2
 10
0.0
 20
0.0
 30
0.0
  3
_TAGCIRCLE
  1

  0
CIRCLE
  5
4422
  8
0
  6
BYBLOCK
 10
0.0
 20
0.0
 30
0.0
 40
4.0
  0
ATTDEF
  5
4423
  8
002寸法
 62
     2
 10
-6.7999999999999989
 20
-1.5
 30
0.0
 40
3.0
  1
タグ番号
 72
     1
 11
0.0
 21
-1.5
 31
0.0
  3
タグ番号を入力
  2
タグ番号
 70
     0
  0
ENDBLK
  5
43E5
  8
0
  0
BLOCK
  8
0
  2
訂正記号
 70
     2
 10
0.0
 20
0.0
 30
0.0
  3
訂正記号
  1

  0
POLYLINE
  5
45CE
  8
002寸法
 66
     1
 10
0.0
 20
0.0
 30
0.0
 70
     1
  0
VERTEX
  5
8D18
  8
002寸法
 10
0.0
 20
4.3301270189222123
 30
0.0
  0
VERTEX
  5
8D19
  8
002寸法
 10
-2.5
 20
0.0
 30
0.0
  0
VERTEX
  5
8D1A
  8
002寸法
 10
2.5
 20
0.0
 30
0.0
  0
SEQEND
  5
8D1B
  8
002寸法
  0
ATTDEF
  5
45CF
  8
002寸法
 62
     2
 10
-3.3999999999999999
 20
0.4433756729740637
 30
0.0
 40
2.0
  1
1
 41
0.75
 72
     1
 11
0.0
 21
1.443375672974063
 31
0.0
  3

  2
訂正番号
 70
     0
 74
     2
1001
AcDbAttr
1070
     0
1070
     1
  0
ENDBLK
  5
4475
  8
0
  0
BLOCK
  8
0
  2
A$C4741278F
 70
     0
 10
0.0
 20
0.0
 30
0.0
  3
A$C4741278F
  1

  0
POLYLINE
  5
4FCA
  8
003注釈
 66
     1
 10
0.0
 20
0.0
 30
0.0
 70
     1
  0
VERTEX
  5
8D54
  8
003注釈
 10
4.9999975654500304
 20
1.250001047003934
 30
0.0
  0
VERTEX
  5
8D55
  8
003注釈
 10
2.499997565450037
 20
1.250001047003934
 30
0.0
  0
VERTEX
  5
8D56
  8
003注釈
 10
2.499997565450037
 20
0.0000010470039342
 30
0.0
  0
VERTEX
  5
8D57
  8
003注釈
 10
-0.0000024345499625
 20
2.5000010470039342
 30
0.0
  0
VERTEX
  5
8D58
  8
003注釈
 10
2.499997565450037
 20
5.0000010470039342
 30
0.0
  0
VERTEX
  5
8D59
  8
003注釈
 10
2.499997565450037
 20
3.7500010470039342
 30
0.0
  0
VERTEX
  5
8D5A
  8
003注釈
 10
4.9999975654500304
 20
3.7500010470039622
 30
0.0
  0
SEQEND
  5
8D5B
  8
003注釈
  0
LINE
  5
4FCB
  8
0
 10
-0.0000024345499625
 20
2.5000010470039342
 30
0.0
 11
4.9999975654500304
 21
2.5000010470039342
 31
0.0
  0
LINE
  5
4FCC
  8
0
 10
2.499997565450037
 20
3.7500010470039342
 30
0.0
 11
2.499997565450037
 21
1.250001047003934
 31
0.0
  0
ENDBLK
  5
4FD0
  8
0
  0
BLOCK
  8
0
  2
*D34
 70
     1
 10
0.0
 20
0.0
 30
0.0
  3
*D34
  1

  0
LINE
  5
89B3
  8
002寸法
 10
1604.0
 20
727.0
 30
0.0
 11
1604.0
 21
757.75
 31
0.0
  0
LINE
  5
89B4
  8
002寸法
 10
1624.0
 20
727.0
 30
0.0
 11
1624.0
 21
757.75
 31
0.0
  0
LINE
  5
89B5
  8
002寸法
 10
1611.5
 20
755.49999999999989
 30
0.0
 11
1616.5
 21
755.49999999999989
 31
0.0
  0
INSERT
  5
89B6
  8
002寸法
  2
_OPEN
 10
1604.0
 20
755.49999999999989
 30
0.0
 41
7.5
 42
7.5
 43
7.5
 50
180.0
  0
INSERT
  5
89B7
  8
002寸法
  2
_OPEN
 10
1624.0
 20
755.49999999999989
 30
0.0
 41
7.5
 42
7.5
 43
7.5
  0
INSERT
  5
89B8
  8
011形状
  2
*U95
 10
0.0
 20
0.0
 30
0.0
  0
POINT
  5
89B9
  8
DEFPOINTS
 62
     0
 10
1604.0
 20
725.49999999999989
 30
0.0
  0
POINT
  5
89BA
  8
DEFPOINTS
 62
     0
 10
1624.0
 20
725.49999999999989
 30
0.0
  0
POINT
  5
89BB
  8
DEFPOINTS
 62
     0
 10
1624.0
 20
755.49999999999989
 30
0.0
  0
ENDBLK
  5
84FE
  8
0
  0
BLOCK
  8
0
  2
*D35
 70
     1
 10
0.0
 20
0.0
 30
0.0
  3
*D35
  1

  0
LINE
  5
8DC3
  8
002寸法
 10
1568.0
 20
584.0
 30
0.0
 11
1608.75
 21
584.0
 31
0.0
  0
LINE
  5
8DC4
  8
002寸法
 10
1568.0
 20
616.0
 30
0.0
 11
1608.75
 21
616.0
 31
0.0
  0
LINE
  5
8DC5
  8
002寸法
 10
1606.5
 20
591.5
 30
0.0
 11
1606.5
 21
608.49999999999989
 31
0.0
  0
TEXT
  8
002寸法
  40
9
  5
8E68
  62
2
  72
0
  71
0
 10
1599.75
 20
622.946
 30
0.000000
  1
32  0/-0.062
  0
INSERT
  5
8DC7
  8
002寸法
  2
_OPEN
 10
1606.5
 20
584.0
 30
0.0
 41
7.5
 42
7.5
 43
7.5
 50
270.0
  0
INSERT
  5
8DC8
  8
002寸法
  2
_OPEN
 10
1606.5
 20
616.0
 30
0.0
 41
7.5
 42
7.5
 43
7.5
 50
90.0
  0
POINT
  5
8DC9
  8
DEFPOINTS
 62
     0
 10
1566.5
 20
584.0
 30
0.0
  0
POINT
  5
8DCA
  8
DEFPOINTS
 62
     0
 10
1566.5
 20
616.0
 30
0.0
  0
POINT
  5
8DCB
  8
DEFPOINTS
 62
     0
 10
1606.5
 20
616.0
 30
0.0
  0
ENDBLK
  5
852E
  8
0
  0
BLOCK
  8
0
  2
*D36
 70
     1
 10
0.0
 20
0.0
 30
0.0
  3
*D36
  1

  0
LINE
  5
8DCC
  8
002寸法
 10
1556.5
 20
601.5
 30
0.0
 11
1556.5
 21
722.25
 31
0.0
  0
LINE
  5
8DCD
  8
002寸法
 10
1566.5
 20
617.49999999999989
 30
0.0
 11
1566.5
 21
722.25
 31
0.0
  0
LINE
  5
8DCE
  8
002寸法
 10
1549.0
 20
720.0
 30
0.0
 11
1541.5
 21
720.0
 31
0.0
  0
LINE
  5
8DCF
  8
002寸法
 10
1574.0
 20
720.0
 30
0.0
 11
1581.5
 21
720.0
 31
0.0
  0
TEXT
  8
002寸法
  40
9
  5
8E69
  62
2
  72
0
  71
0
 10
1561.50
 20
717.300
 30
0.000000
  1
10 +0.2/ 0
  0
LINE
  5
8DD1
  8
002寸法
 10
1556.5
 20
720.0
 30
0.0
 11
1566.5
 21
720.0
 31
0.0
  0
INSERT
  5
8DD2
  8
002寸法
  2
_OPEN
 10
1556.5
 20
720.0
 30
0.0
 41
7.5
 42
7.5
 43
7.5
  0
INSERT
  5
8DD3
  8
002寸法
  2
_OPEN
 10
1566.5
 20
720.0
 30
0.0
 41
7.5
 42
7.5
 43
7.5
 50
180.0
  0
POINT
  5
8DD4
  8
DEFPOINTS
 62
     0
 10
1556.5
 20
600.0
 30
0.0
  0
POINT
  5
8DD5
  8
DEFPOINTS
 62
     0
 10
1566.5
 20
616.0
 30
0.0
  0
POINT
  5
8DD6
  8
DEFPOINTS
 62
     0
 10
1566.5
 20
720.0
 30
0.0
  0
ENDBLK
  5
8558
  8
0
  0
BLOCK
  8
0
  2
*D37
 70
     1
 10
0.0
 20
0.0
 30
0.0
  3
*D37
  1

  0
LINE
  5
89D0
  8
002寸法
 10
1625.5
 20
483.49999999999989
 30
0.0
 11
1766.25
 21
483.49999999999989
 31
0.0
  0
LINE
  5
89D1
  8
002寸法
 10
1625.5
 20
716.5
 30
0.0
 11
1766.25
 21
716.5
 31
0.0
  0
LINE
  5
89D2
  8
002寸法
 10
1764.0
 20
490.99999999999989
 30
0.0
 11
1764.0
 21
709.0
 31
0.0
  0
INSERT
  5
89D3
  8
002寸法
  2
_OPEN
 10
1764.0
 20
483.49999999999989
 30
0.0
 41
7.5
 42
7.5
 43
7.5
 50
270.0
  0
INSERT
  5
89D4
  8
002寸法
  2
_OPEN
 10
1764.0
 20
716.5
 30
0.0
 41
7.5
 42
7.5
 43
7.5
 50
90.0
  0
INSERT
  5
89D5
  8
011形状
  2
*U96
 10
0.0
 20
0.0
 30
0.0
  0
POINT
  5
89D6
  8
DEFPOINTS
 62
     0
 10
1624.0
 20
483.49999999999989
 30
0.0
  0
POINT
  5
89D7
  8
DEFPOINTS
 62
     0
 10
1624.0
 20
716.5
 30
0.0
  0
POINT
  5
89D8
  8
DEFPOINTS
 62
     0
 10
1764.0
 20
716.5
 30
0.0
  0
ENDBLK
  5
85E0
  8
0
  0
BLOCK
  8
0
  2
*D38
 70
     1
 10
0.0
 20
0.0
 30
0.0
  3
*D38
  1

  0
LINE
  5
89D9
  8
002寸法
 10
1625.5
 20
474.5
 30
0.0
 11
1796.25
 21
474.49999999999989
 31
0.0
  0
LINE
  5
89DA
  8
002寸法
 10
1625.5
 20
725.49999999999989
 30
0.0
 11
1796.25
 21
725.49999999999989
 31
0.0
  0
LINE
  5
89DB
  8
002寸法
 10
1794.0
 20
481.99999999999989
 30
0.0
 11
1794.0
 21
717.99999999999977
 31
0.0
  0
INSERT
  5
89DC
  8
002寸法
  2
_OPEN
 10
1794.0
 20
474.49999999999989
 30
0.0
 41
7.5
 42
7.5
 43
7.5
 50
270.0
  0
INSERT
  5
89DD
  8
002寸法
  2
_OPEN
 10
1794.0
 20
725.49999999999989
 30
0.0
 41
7.5
 42
7.5
 43
7.5
 50
90.0
  0
INSERT
  5
89DE
  8
011形状
  2
*U97
 10
0.0
 20
0.0
 30
0.0
  0
POINT
  5
89DF
  8
DEFPOINTS
 62
     0
 10
1624.0
 20
474.5
 30
0.0
  0
POINT
  5
89E0
  8
DEFPOINTS
 62
     0
 10
1624.0
 20
725.49999999999989
 30
0.0
  0
POINT
  5
89E1
  8
DEFPOINTS
 62
     0
 10
1794.0
 20
725.49999999999989
 30
0.0
  0
ENDBLK
  5
85F8
  8
0
  0
BLOCK
  8
0
  2
*D39
 70
     1
 10
0.0
 20
0.0
 30
0.0
  3
*D39
  1

  0
LINE
  5
89E2
  8
002寸法
 10
1476.0
 20
590.5
 30
0.0
 11
1476.0
 21
427.24999999999989
 31
0.0
  0
LINE
  5
89E3
  8
002寸法
 10
1719.0
 20
598.5
 30
0.0
 11
1719.0
 21
427.24999999999989
 31
0.0
  0
LINE
  5
89E4
  8
002寸法
 10
1483.5
 20
429.49999999999989
 30
0.0
 11
1711.5
 21
429.49999999999989
 31
0.0
  0
INSERT
  5
89E5
  8
002寸法
  2
_OPEN
 10
1476.0
 20
429.49999999999989
 30
0.0
 41
7.5
 42
7.5
 43
7.5
 50
180.0
  0
INSERT
  5
89E6
  8
002寸法
  2
_OPEN
 10
1719.0
 20
429.49999999999989
 30
0.0
 41
7.5
 42
7.5
 43
7.5
  0
INSERT
  5
89E7
  8
011形状
  2
*U98
 10
0.0
 20
0.0
 30
0.0
  0
POINT
  5
89E8
  8
DEFPOINTS
 62
     0
 10
1476.0
 20
592.0
 30
0.0
  0
POINT
  5
89E9
  8
DEFPOINTS
 62
     0
 10
1719.0
 20
600.0
 30
0.0
  0
POINT
  5
89EA
  8
DEFPOINTS
 62
     0
 10
1719.0
 20
429.49999999999989
 30
0.0
  0
ENDBLK
  5
8610
  8
0
  0
BLOCK
  8
0
  2
*D40
 70
     1
 10
0.0
 20
0.0
 30
0.0
  3
*D40
  1

  0
LINE
  5
89EB
  8
002寸法
 10
1403.5
 20
542.49999999999989
 30
0.0
 11
1451.25
 21
542.49999999999989
 31
0.0
  0
LINE
  5
89EC
  8
002寸法
 10
1403.5
 20
657.5
 30
0.0
 11
1451.25
 21
657.5
 31
0.0
  0
LINE
  5
89ED
  8
002寸法
 10
1449.0
 20
550.0
 30
0.0
 11
1449.0
 21
650.0
 31
0.0
  0
INSERT
  5
89EE
  8
002寸法
  2
_OPEN
 10
1449.0
 20
542.49999999999989
 30
0.0
 41
7.5
 42
7.5
 43
7.5
 50
270.0
  0
INSERT
  5
89EF
  8
002寸法
  2
_OPEN
 10
1449.0
 20
657.5
 30
0.0
 41
7.5
 42
7.5
 43
7.5
 50
90.0
  0
INSERT
  5
89F0
  8
011形状
  2
*U99
 10
0.0
 20
0.0
 30
0.0
  0
POINT
  5
89F1
  8
DEFPOINTS
 62
     0
 10
1402.0
 20
542.49999999999989
 30
0.0
  0
POINT
  5
89F2
  8
DEFPOINTS
 62
     0
 10
1402.0
 20
657.5
 30
0.0
  0
POINT
  5
89F3
  8
DEFPOINTS
 62
     0
 10
1449.0
 20
657.5
 30
0.0
  0
ENDBLK
  5
863A
  8
0
  0
BLOCK
  8
0
  2
*D41
 70
     1
 10
0.0
 20
0.0
 30
0.0
  3
*D41
  1

  0
LINE
  5
89F4
  8
002寸法
 10
724.5
 20
542.49999999999989
 30
0.0
 11
691.75
 21
542.49999999999989
 31
0.0
  0
LINE
  5
89F5
  8
002寸法
 10
724.5
 20
657.5
 30
0.0
 11
691.75
 21
657.5
 31
0.0
  0
LINE
  5
89F6
  8
002寸法
 10
694.0
 20
550.0
 30
0.0
 11
694.0
 21
650.0
 31
0.0
  0
INSERT
  5
89F7
  8
002寸法
  2
_OPEN
 10
694.0
 20
542.49999999999989
 30
0.0
 41
7.5
 42
7.5
 43
7.5
 50
270.0
  0
INSERT
  5
89F8
  8
002寸法
  2
_OPEN
 10
694.0
 20
657.5
 30
0.0
 41
7.5
 42
7.5
 43
7.5
 50
90.0
  0
INSERT
  5
89F9
  8
011形状
  2
*U100
 10
0.0
 20
0.0
 30
0.0
  0
POINT
  5
89FA
  8
DEFPOINTS
 62
     0
 10
726.0
 20
542.49999999999989
 30
0.0
  0
POINT
  5
89FB
  8
DEFPOINTS
 62
     0
 10
726.0
 20
657.5
 30
0.0
  0
POINT
  5
89FC
  8
DEFPOINTS
 62
     0
 10
694.0
 20
657.5
 30
0.0
  0
ENDBLK
  5
8652
  8
0
  0
BLOCK
  8
0
  2
*D42
 70
     1
 10
0.0
 20
0.0
 30
0.0
  3
*D42
  1

  0
LINE
  5
89FD
  8
002寸法
 10
1062.0
 20
495.0
 30
0.0
 11
1140.25
 21
495.0
 31
0.0
  0
LINE
  5
89FE
  8
002寸法
 10
1062.0
 20
705.0
 30
0.0
 11
1140.25
 21
705.0
 31
0.0
  0
LINE
  5
89FF
  8
002寸法
 10
1138.0
 20
502.5
 30
0.0
 11
1138.0
 21
697.5
 31
0.0
  0
INSERT
  5
8A00
  8
002寸法
  2
_OPEN
 10
1138.0
 20
495.0
 30
0.0
 41
7.5
 42
7.5
 43
7.5
 50
270.0
  0
INSERT
  5
8A01
  8
002寸法
  2
_OPEN
 10
1138.0
 20
705.0
 30
0.0
 41
7.5
 42
7.5
 43
7.5
 50
90.0
  0
INSERT
  5
8A02
  8
011形状
  2
*U101
 10
0.0
 20
0.0
 30
0.0
  0
POINT
  5
8A03
  8
DEFPOINTS
 62
     0
 10
1060.5
 20
495.0
 30
0.0
  0
POINT
  5
8A04
  8
DEFPOINTS
 62
     0
 10
1060.5
 20
705.0
 30
0.0
  0
POINT
  5
8A05
  8
DEFPOINTS
 62
     0
 10
1138.0
 20
705.0
 30
0.0
  0
ENDBLK
  5
8722
  8
0
  0
BLOCK
  8
0
  2
*D43
 70
     1
 10
0.0
 20
0.0
 30
0.0
  3
*D43
  1

  0
LINE
  5
8A06
  8
002寸法
 10
983.5
 20
718.0
 30
0.0
 11
983.5
 21
757.75
 31
0.0
  0
LINE
  5
8A07
  8
002寸法
 10
1003.499999999999
 20
718.00000192204357
 30
0.0
 11
1003.499999999999
 21
757.75
 31
0.0
  0
LINE
  5
8A08
  8
002寸法
 10
991.0
 20
755.49999999999989
 30
0.0
 11
995.99999999999966
 21
755.49999999999989
 31
0.0
  0
INSERT
  5
8A09
  8
002寸法
  2
_OPEN
 10
983.5
 20
755.49999999999989
 30
0.0
 41
7.5
 42
7.5
 43
7.5
 50
180.0
  0
INSERT
  5
8A0A
  8
002寸法
  2
_OPEN
 10
1003.499999999999
 20
755.49999999999989
 30
0.0
 41
7.5
 42
7.5
 43
7.5
  0
INSERT
  5
8A0B
  8
011形状
  2
*U102
 10
0.0
 20
0.0
 30
0.0
  0
POINT
  5
8A0C
  8
DEFPOINTS
 62
     0
 10
983.5
 20
716.5
 30
0.0
  0
POINT
  5
8A0D
  8
DEFPOINTS
 62
     0
 10
1003.499999999999
 20
716.50000192204357
 30
0.0
  0
POINT
  5
8A0E
  8
DEFPOINTS
 62
     0
 10
1003.499999999999
 20
755.49999999999989
 30
0.0
  0
ENDBLK
  5
875E
  8
0
  0
BLOCK
  8
0
  2
*D44
 70
     1
 10
0.0
 20
0.0
 30
0.0
  3
*D44
  1

  0
LINE
  5
8A0F
  8
002寸法
 10
987.0
 20
711.5
 30
0.0
 11
895.25
 21
711.5
 31
0.0
  0
LINE
  5
8A10
  8
002寸法
 10
987.0
 20
721.49999999999989
 30
0.0
 11
895.25
 21
721.49999999999989
 31
0.0
  0
LINE
  5
8A11
  8
002寸法
 10
897.50000000000011
 20
704.0
 30
0.0
 11
897.50000000000011
 21
696.49999999999989
 31
0.0
  0
LINE
  5
8A12
  8
002寸法
 10
897.50000000000011
 20
729.0
 30
0.0
 11
897.50000000000011
 21
736.5
 31
0.0
  0
LINE
  5
8A13
  8
002寸法
 10
897.50000000000011
 20
711.5
 30
0.0
 11
897.50000000000011
 21
721.49999999999989
 31
0.0
  0
INSERT
  5
8A14
  8
002寸法
  2
_OPEN
 10
897.50000000000011
 20
711.5
 30
0.0
 41
7.5
 42
7.5
 43
7.5
 50
90.0
  0
INSERT
  5
8A15
  8
002寸法
  2
_OPEN
 10
897.50000000000011
 20
721.49999999999989
 30
0.0
 41
7.5
 42
7.5
 43
7.5
 50
270.0
  0
INSERT
  5
8A16
  8
011形状
  2
*U103
 10
0.0
 20
0.0
 30
0.0
  0
POINT
  5
8A17
  8
DEFPOINTS
 62
     0
 10
988.49999999999989
 20
711.5
 30
0.0
  0
POINT
  5
8A18
  8
DEFPOINTS
 62
     0
 10
988.49999999999989
 20
721.49999999999989
 30
0.0
  0
POINT
  5
8A19
  8
DEFPOINTS
 62
     0
 10
897.50000000000011
 20
721.49999999999989
 30
0.0
  0
ENDBLK
  5
8781
  8
0
  0
BLOCK
  8
0
  2
*D45
 70
     1
 10
0.0
 20
0.0
 30
0.0
  3
*D45
  1

  0
LINE
  5
8A1A
  8
002寸法
 10
924.0
 20
495.0
 30
0.0
 11
924.0
 21
427.24999999999989
 31
0.0
  0
LINE
  5
8A1B
  8
002寸法
 10
993.5
 20
473.0
 30
0.0
 11
993.5
 21
427.24999999999989
 31
0.0
  0
LINE
  5
8A1C
  8
002寸法
 10
931.49999999999989
 20
429.49999999999989
 30
0.0
 11
986.0
 21
429.49999999999989
 31
0.0
  0
INSERT
  5
8A1D
  8
002寸法
  2
_OPEN
 10
924.0
 20
429.49999999999989
 30
0.0
 41
7.5
 42
7.5
 43
7.5
 50
180.0
  0
INSERT
  5
8A1E
  8
002寸法
  2
_OPEN
 10
993.5
 20
429.49999999999989
 30
0.0
 41
7.5
 42
7.5
 43
7.5
  0
INSERT
  5
8A1F
  8
011形状
  2
*U104
 10
0.0
 20
0.0
 30
0.0
  0
POINT
  5
8A20
  8
DEFPOINTS
 62
     0
 10
924.0
 20
496.49999999999989
 30
0.0
  0
POINT
  5
8A21
  8
DEFPOINTS
 62
     0
 10
993.5
 20
474.5
 30
0.0
  0
POINT
  5
8A22
  8
DEFPOINTS
 62
     0
 10
993.5
 20
429.49999999999989
 30
0.0
  0
ENDBLK
  5
87A8
  8
0
  0
BLOCK
  8
0
  2
*D46
 70
     1
 10
0.0
 20
0.0
 30
0.0
  3
*D46
  1

  0
LINE
  5
8A23
  8
002寸法
 10
914.0
 20
539.5
 30
0.0
 11
914.0
 21
397.25
 31
0.0
  0
LINE
  5
8A24
  8
002寸法
 10
924.0
 20
495.0
 30
0.0
 11
924.0
 21
397.25
 31
0.0
  0
LINE
  5
8A25
  8
002寸法
 10
931.49999999999989
 20
399.5
 30
0.0
 11
939.0
 21
399.5
 31
0.0
  0
LINE
  5
8A26
  8
002寸法
 10
906.49999999999989
 20
399.5
 30
0.0
 11
884.04285714285732
 21
399.5
 31
0.0
  0
LINE
  5
8A27
  8
002寸法
 10
924.0
 20
399.5
 30
0.0
 11
914.0
 21
399.5
 31
0.0
  0
INSERT
  5
8A28
  8
002寸法
  2
_OPEN
 10
924.0
 20
399.5
 30
0.0
 41
7.5
 42
7.5
 43
7.5
 50
180.0
  0
INSERT
  5
8A29
  8
002寸法
  2
_OPEN
 10
914.0
 20
399.5
 30
0.0
 41
7.5
 42
7.5
 43
7.5
  0
INSERT
  5
8A2A
  8
011形状
  2
*U105
 10
0.0
 20
0.0
 30
0.0
  0
POINT
  5
8A2B
  8
DEFPOINTS
 62
     0
 10
914.0
 20
541.0
 30
0.0
  0
POINT
  5
8A2C
  8
DEFPOINTS
 62
     0
 10
924.0
 20
496.49999999999989
 30
0.0
  0
POINT
  5
8A2D
  8
DEFPOINTS
 62
     0
 10
924.0
 20
399.5
 30
0.0
  0
ENDBLK
  5
87C0
  8
0
  0
BLOCK
  8
0
  2
*D47
 70
     1
 10
0.0
 20
0.0
 30
0.0
  3
*D47
  1

  0
LINE
  5
8A2E
  8
002寸法
 10
724.0
 20
543.0
 30
0.0
 11
724.0
 21
367.25
 31
0.0
  0
LINE
  5
8A2F
  8
002寸法
 10
914.0
 20
539.5
 30
0.0
 11
914.0
 21
367.25
 31
0.0
  0
LINE
  5
8A30
  8
002寸法
 10
731.5
 20
369.5
 30
0.0
 11
906.49999999999989
 21
369.5
 31
0.0
  0
INSERT
  5
8A31
  8
002寸法
  2
_OPEN
 10
724.0
 20
369.5
 30
0.0
 41
7.5
 42
7.5
 43
7.5
 50
180.0
  0
INSERT
  5
8A32
  8
002寸法
  2
_OPEN
 10
914.0
 20
369.5
 30
0.0
 41
7.5
 42
7.5
 43
7.5
  0
INSERT
  5
8A33
  8
011形状
  2
*U106
 10
0.0
 20
0.0
 30
0.0
  0
POINT
  5
8A34
  8
DEFPOINTS
 62
     0
 10
724.0
 20
544.5
 30
0.0
  0
POINT
  5
8A35
  8
DEFPOINTS
 62
     0
 10
914.0
 20
541.0
 30
0.0
  0
POINT
  5
8A36
  8
DEFPOINTS
 62
     0
 10
914.0
 20
369.5
 30
0.0
  0
ENDBLK
  5
87DC
  8
0
  0
BLOCK
  8
0
  2
*D48
 70
     1
 10
0.0
 20
0.0
 30
0.0
  3
*D48
  1

  0
LINE
  5
8A37
  8
002寸法
 10
724.0
 20
543.0
 30
0.0
 11
724.0
 21
337.25
 31
0.0
  0
LINE
  5
8A38
  8
002寸法
 10
1404.0
 20
543.0
 30
0.0
 11
1404.0
 21
337.25
 31
0.0
  0
LINE
  5
8A39
  8
002寸法
 10
731.5
 20
339.5
 30
0.0
 11
1396.5
 21
339.5
 31
0.0
  0
INSERT
  5
8A3A
  8
002寸法
  2
_OPEN
 10
724.0
 20
339.5
 30
0.0
 41
7.5
 42
7.5
 43
7.5
 50
180.0
  0
INSERT
  5
8A3B
  8
002寸法
  2
_OPEN
 10
1404.0
 20
339.5
 30
0.0
 41
7.5
 42
7.5
 43
7.5
  0
INSERT
  5
8A3C
  8
011形状
  2
*U107
 10
0.0
 20
0.0
 30
0.0
  0
POINT
  5
8A3D
  8
DEFPOINTS
 62
     0
 10
724.0
 20
544.5
 30
0.0
  0
POINT
  5
8A3E
  8
DEFPOINTS
 62
     0
 10
1404.0
 20
544.5
 30
0.0
  0
POINT
  5
8A3F
  8
DEFPOINTS
 62
     0
 10
1404.0
 20
339.5
 30
0.0
  0
ENDBLK
  5
87F4
  8
0
  0
BLOCK
  8
0
  2
*D49
 70
     1
 10
0.0
 20
0.0
 30
0.0
  3
*D49
  1

  0
LINE
  5
8A40
  8
002寸法
 10
724.0
 20
543.0
 30
0.0
 11
724.0
 21
427.24999999999989
 31
0.0
  0
LINE
  5
8A41
  8
002寸法
 10
884.0
 20
598.5
 30
0.0
 11
884.0
 21
427.24999999999989
 31
0.0
  0
LINE
  5
8A42
  8
002寸法
 10
731.5
 20
429.49999999999989
 30
0.0
 11
876.5
 21
429.49999999999989
 31
0.0
  0
INSERT
  5
8A43
  8
002寸法
  2
_OPEN
 10
724.0
 20
429.49999999999989
 30
0.0
 41
7.5
 42
7.5
 43
7.5
 50
180.0
  0
INSERT
  5
8A44
  8
002寸法
  2
_OPEN
 10
884.0
 20
429.49999999999989
 30
0.0
 41
7.5
 42
7.5
 43
7.5
  0
INSERT
  5
8A45
  8
011形状
  2
*U108
 10
0.0
 20
0.0
 30
0.0
  0
POINT
  5
8A46
  8
DEFPOINTS
 62
     0
 10
724.0
 20
544.5
 30
0.0
  0
POINT
  5
8A47
  8
DEFPOINTS
 62
     0
 10
884.0
 20
600.0
 30
0.0
  0
POINT
  5
8A48
  8
DEFPOINTS
 62
     0
 10
884.0
 20
429.49999999999989
 30
0.0
  0
ENDBLK
  5
883D
  8
0
  0
BLOCK
  8
0
  2
*D50
 70
     1
 10
0.0
 20
0.0
 30
0.0
  3
*D50
  1

  0
LINE
  5
8A49
  8
002寸法
 10
1244.0
 20
598.5
 30
0.0
 11
1244.0
 21
427.24999999999989
 31
0.0
  0
LINE
  5
8A4A
  8
002寸法
 10
1404.0
 20
543.0
 30
0.0
 11
1404.0
 21
427.24999999999989
 31
0.0
  0
LINE
  5
8A4B
  8
002寸法
 10
1251.5
 20
429.49999999999989
 30
0.0
 11
1396.5
 21
429.49999999999989
 31
0.0
  0
INSERT
  5
8A4C
  8
002寸法
  2
_OPEN
 10
1244.0
 20
429.49999999999989
 30
0.0
 41
7.5
 42
7.5
 43
7.5
 50
180.0
  0
INSERT
  5
8A4D
  8
002寸法
  2
_OPEN
 10
1404.0
 20
429.49999999999989
 30
0.0
 41
7.5
 42
7.5
 43
7.5
  0
INSERT
  5
8A4E
  8
011形状
  2
*U109
 10
0.0
 20
0.0
 30
0.0
  0
POINT
  5
8A4F
  8
DEFPOINTS
 62
     0
 10
1244.0
 20
600.0
 30
0.0
  0
POINT
  5
8A50
  8
DEFPOINTS
 62
     0
 10
1404.0
 20
544.5
 30
0.0
  0
POINT
  5
8A51
  8
DEFPOINTS
 62
     0
 10
1404.0
 20
429.49999999999989
 30
0.0
  0
ENDBLK
  5
8855
  8
0
  0
BLOCK
  8
0
  2
*D51
 70
     1
 10
0.0
 20
0.0
 30
0.0
  3
*D51
  1

  0
LINE
  5
8DFF
  8
002寸法
 10
993.5
 20
473.0
 30
0.0
 11
993.5
 21
427.24999999999989
 31
0.0
  0
LINE
  5
8E00
  8
002寸法
 10
1063.0
 20
499.5
 30
0.0
 11
1063.0
 21
427.24999999999989
 31
0.0
  0
LINE
  5
8E01
  8
002寸法
 10
1001.0
 20
429.49999999999989
 30
0.0
 11
1055.5
 21
429.49999999999989
 31
0.0
  0
INSERT
  5
8E02
  8
002寸法
  2
_OPEN
 10
993.5
 20
429.49999999999989
 30
0.0
 41
7.5
 42
7.5
 43
7.5
 50
180.0
  0
INSERT
  5
8E03
  8
002寸法
  2
_OPEN
 10
1063.0
 20
429.49999999999989
 30
0.0
 41
7.5
 42
7.5
 43
7.5
  0
TEXT
  8
002寸法
  40
9
  5
8E6A
  62
2
  72
0
  71
0
 10
1028.25
 20
423.800
 30
0.000000
  1
69.5
  0
POINT
  5
8E05
  8
DEFPOINTS
 62
     0
 10
993.5
 20
474.5
 30
0.0
  0
POINT
  5
8E06
  8
DEFPOINTS
 62
     0
 10
1063.0
 20
501.0
 30
0.0
  0
POINT
  5
8E07
  8
DEFPOINTS
 62
     0
 10
1063.0
 20
429.49999999999989
 30
0.0
  0
ENDBLK
  5
886D
  8
0
  0
BLOCK
  8
0
  2
*D52
 70
     1
 10
0.0
 20
0.0
 30
0.0
  3
*D52
  1

  0
LINE
  5
8E08
  8
002寸法
 10
924.0
 20
495.0
 30
0.0
 11
924.0
 21
397.25
 31
0.0
  0
LINE
  5
8E09
  8
002寸法
 10
1063.0
 20
499.5
 30
0.0
 11
1063.0
 21
397.25
 31
0.0
  0
LINE
  5
8E0A
  8
002寸法
 10
931.49999999999989
 20
399.5
 30
0.0
 11
1055.5
 21
399.5
 31
0.0
  0
INSERT
  5
8E0B
  8
002寸法
  2
_OPEN
 10
924.0
 20
399.5
 30
0.0
 41
7.5
 42
7.5
 43
7.5
 50
180.0
  0
INSERT
  5
8E0C
  8
002寸法
  2
_OPEN
 10
1063.0
 20
399.5
 30
0.0
 41
7.5
 42
7.5
 43
7.5
  0
TEXT
  8
002寸法
  40
9
  5
8E6B
  62
2
  72
0
  71
0
 10
993.500
 20
393.800
 30
0.000000
  1
139
  0
POINT
  5
8E0E
  8
DEFPOINTS
 62
     0
 10
924.0
 20
496.49999999999989
 30
0.0
  0
POINT
  5
8E0F
  8
DEFPOINTS
 62
     0
 10
1063.0
 20
501.0
 30
0.0
  0
POINT
  5
8E10
  8
DEFPOINTS
 62
     0
 10
1063.0
 20
399.5
 30
0.0
  0
ENDBLK
  5
8885
  8
0
  0
BLOCK
  8
0
  2
*D53
 70
     1
 10
0.0
 20
0.0
 30
0.0
  3
*D53
  1

  0
LINE
  5
8E11
  8
002寸法
 10
1063.0
 20
499.5
 30
0.0
 11
1063.0
 21
397.25
 31
0.0
  0
LINE
  5
8E12
  8
002寸法
 10
1168.0
 20
524.5
 30
0.0
 11
1168.0
 21
397.25
 31
0.0
  0
LINE
  5
8E13
  8
002寸法
 10
1070.5
 20
399.5
 30
0.0
 11
1160.5
 21
399.5
 31
0.0
  0
INSERT
  5
8E14
  8
002寸法
  2
_OPEN
 10
1063.0
 20
399.5
 30
0.0
 41
7.5
 42
7.5
 43
7.5
 50
180.0
  0
INSERT
  5
8E15
  8
002寸法
  2
_OPEN
 10
1168.0
 20
399.5
 30
0.0
 41
7.5
 42
7.5
 43
7.5
  0
TEXT
  8
002寸法
  40
9
  5
8E6C
  62
2
  72
0
  71
0
 10
1115.50
 20
393.800
 30
0.000000
  1
105
  0
POINT
  5
8E17
  8
DEFPOINTS
 62
     0
 10
1063.0
 20
501.0
 30
0.0
  0
POINT
  5
8E18
  8
DEFPOINTS
 62
     0
 10
1168.0
 20
526.0
 30
0.0
  0
POINT
  5
8E19
  8
DEFPOINTS
 62
     0
 10
1168.0
 20
399.5
 30
0.0
  0
ENDBLK
  5
889D
  8
0
  0
BLOCK
  8
0
  2
*D54
 70
     1
 10
0.0
 20
0.0
 30
0.0
  3
*D54
  1

  0
LINE
  5
8E1A
  8
002寸法
 10
914.0
 20
539.5
 30
0.0
 11
914.0
 21
367.25
 31
0.0
  0
LINE
  5
8E1B
  8
002寸法
 10
1168.0
 20
524.5
 30
0.0
 11
1168.0
 21
367.25
 31
0.0
  0
LINE
  5
8E1C
  8
002寸法
 10
921.49999999999989
 20
369.5
 30
0.0
 11
1160.5
 21
369.5
 31
0.0
  0
INSERT
  5
8E1D
  8
002寸法
  2
_OPEN
 10
914.0
 20
369.5
 30
0.0
 41
7.5
 42
7.5
 43
7.5
 50
180.0
  0
INSERT
  5
8E1E
  8
002寸法
  2
_OPEN
 10
1168.0
 20
369.5
 30
0.0
 41
7.5
 42
7.5
 43
7.5
  0
TEXT
  8
002寸法
  40
9
  5
8E6D
  62
2
  72
0
  71
0
 10
1041.00
 20
363.800
 30
0.000000
  1
254
  0
POINT
  5
8E20
  8
DEFPOINTS
 62
     0
 10
914.0
 20
541.0
 30
0.0
  0
POINT
  5
8E21
  8
DEFPOINTS
 62
     0
 10
1168.0
 20
526.0
 30
0.0
  0
POINT
  5
8E22
  8
DEFPOINTS
 62
     0
 10
1168.0
 20
369.5
 30
0.0
  0
ENDBLK
  5
88B5
  8
0
  0
BLOCK
  8
0
  2
*D55
 70
     1
 10
0.0
 20
0.0
 30
0.0
  3
*D55
  1

  0
LINE
  5
8E23
  8
002寸法
 10
1168.0
 20
524.5
 30
0.0
 11
1168.0
 21
367.25
 31
0.0
  0
LINE
  5
8E24
  8
002寸法
 10
1404.0
 20
543.0
 30
0.0
 11
1404.0
 21
367.25
 31
0.0
  0
LINE
  5
8E25
  8
002寸法
 10
1175.5
 20
369.5
 30
0.0
 11
1396.5
 21
369.5
 31
0.0
  0
INSERT
  5
8E26
  8
002寸法
  2
_OPEN
 10
1168.0
 20
369.5
 30
0.0
 41
7.5
 42
7.5
 43
7.5
 50
180.0
  0
INSERT
  5
8E27
  8
002寸法
  2
_OPEN
 10
1404.0
 20
369.5
 30
0.0
 41
7.5
 42
7.5
 43
7.5
  0
TEXT
  8
002寸法
  40
9
  5
8E6E
  62
2
  72
0
  71
0
 10
1286.00
 20
363.800
 30
0.000000
  1
236
  0
POINT
  5
8E29
  8
DEFPOINTS
 62
     0
 10
1168.0
 20
526.0
 30
0.0
  0
POINT
  5
8E2A
  8
DEFPOINTS
 62
     0
 10
1404.0
 20
544.5
 30
0.0
  0
POINT
  5
8E2B
  8
DEFPOINTS
 62
     0
 10
1404.0
 20
369.5
 30
0.0
  0
ENDBLK
  5
88CD
  8
0
  0
BLOCK
  8
0
  2
*U56
 70
     1
 10
0.0
 20
0.0
 30
0.0
  3
*U56
  1

  0
SOLID
  5
8B8F
  8
DEFPOINTS
  6
CONTINUOUS
 10
1630.0470072332871
 20
48.851282552928069
 30
0.0
 11
1630.0470072332871
 21
48.192932552927907
 31
0.0
 12
1640.1059022332879
 22
48.192932552927907
 32
0.0
 13
1640.1059022332879
 23
48.192932552927907
 33
0.0
210
0.0
220
0.0
230
1.0
  0
SOLID
  5
8B90
  8
DEFPOINTS
  6
CONTINUOUS
 10
-1630.0470072332871
 20
48.851282552928069
 30
0.0
 11
-1640.1059022332879
 21
48.851282552928069
 31
0.0
 12
-1640.1059022332879
 22
48.192932552927907
 32
0.0
 13
-1640.1059022332879
 23
48.192932552927907
 33
0.0
210
0.0
220
0.0
230
-1.0
  0
SOLID
  5
8B91
  8
DEFPOINTS
  6
CONTINUOUS
 10
1615.856099733285
 20
48.851282552928069
 30
0.0
 11
1615.856099733285
 21
48.192932552927907
 31
0.0
 12
1619.7784797332861
 22
48.192932552927907
 32
0.0
 13
1619.7784797332861
 23
48.192932552927907
 33
0.0
210
0.0
220
0.0
230
1.0
  0
SOLID
  5
8B92
  8
DEFPOINTS
  6
CONTINUOUS
 10
-1615.856099733285
 20
48.851282552928069
 30
0.0
 11
-1619.7784797332861
 21
48.851282552928069
 31
0.0
 12
-1619.7784797332861
 22
48.192932552927907
 32
0.0
 13
-1619.7784797332861
 23
48.192932552927907
 33
0.0
210
0.0
220
0.0
230
-1.0
  0
SOLID
  5
8B93
  8
DEFPOINTS
  6
CONTINUOUS
 10
1612.9073847332861
 20
48.851282552928069
 30
0.0
 11
1612.907384733287
 21
48.192932552927907
 31
0.0
 12
1615.5234597332869
 22
48.192932552927907
 32
0.0
 13
1615.5234597332869
 23
48.192932552927907
 33
0.0
  0
SOLID
  5
8B94
  8
DEFPOINTS
  6
CONTINUOUS
 10
-1612.9073847332861
 20
48.851282552928069
 30
0.0
 11
-1615.523459733286
 21
48.851282552928069
 31
0.0
 12
-1615.5234597332869
 22
48.192932552927907
 32
0.0
 13
-1615.5234597332869
 23
48.192932552927907
 33
0.0
210
0.0
220
0.0
230
-1.0
  0
SOLID
  5
8B95
  8
DEFPOINTS
  6
CONTINUOUS
 10
1600.9964844902861
 20
48.851282552928069
 30
0.0
 11
1600.9964844902861
 21
48.192932552927907
 31
0.0
 12
1607.0186544902861
 22
48.192932552927907
 32
0.0
 13
1607.0186544902861
 23
48.192932552927907
 33
0.0
  0
SOLID
  5
8B96
  8
DEFPOINTS
  6
CONTINUOUS
 10
-1600.9964844902861
 20
48.851282552928069
 30
0.0
 11
-1607.0186544902861
 21
48.851282552928069
 31
0.0
 12
-1607.0186544902861
 22
48.192932552927907
 32
0.0
 13
-1607.0186544902861
 23
48.192932552927907
 33
0.0
210
0.0
220
0.0
230
-1.0
  0
SOLID
  5
8B97
  8
DEFPOINTS
  6
CONTINUOUS
 10
1596.2528994902859
 20
48.851282552928069
 30
0.0
 11
1596.2528994902859
 21
48.192932552927907
 31
0.0
 12
1600.6118694902871
 22
48.192932552927907
 32
0.0
 13
1600.6118694902871
 23
48.192932552927907
 33
0.0
210
0.0
220
0.0
230
1.0
  0
SOLID
  5
8B98
  8
DEFPOINTS
  6
CONTINUOUS
 10
-1596.2528994902859
 20
48.851282552928069
 30
0.0
 11
-1600.611869490285
 21
48.851282552928069
 31
0.0
 12
-1600.6118694902871
 22
48.192932552927907
 32
0.0
 13
-1600.6118694902871
 23
48.192932552927907
 33
0.0
210
0.0
220
0.0
230
-1.0
  0
SOLID
  5
8B99
  8
DEFPOINTS
  6
CONTINUOUS
 10
1584.3956322332849
 20
48.851282552928069
 30
0.0
 11
1584.3956322332849
 21
48.192932552927907
 31
0.0
 12
1590.4680447332869
 22
48.192932552927907
 32
0.0
 13
1590.4680447332869
 23
48.192932552927907
 33
0.0
210
0.0
220
0.0
230
1.0
  0
SOLID
  5
8B9A
  8
DEFPOINTS
  6
CONTINUOUS
 10
-1584.3956322332849
 20
48.851282552928069
 30
0.0
 11
-1590.4680447332869
 21
48.851282552928069
 31
0.0
 12
-1590.4680447332869
 22
48.192932552927907
 32
0.0
 13
-1590.4680447332869
 23
48.192932552927907
 33
0.0
210
0.0
220
0.0
230
-1.0
  0
SOLID
  5
8B9B
  8
DEFPOINTS
  6
CONTINUOUS
 10
1579.7871822332861
 20
48.851282552928069
 30
0.0
 11
1579.7871822332861
 21
48.192932552927907
 31
0.0
 12
1583.979832233287
 22
48.192932552927907
 32
0.0
 13
1583.979832233287
 23
48.192932552927907
 33
0.0
210
0.0
220
0.0
230
1.0
  0
SOLID
  5
8B9C
  8
DEFPOINTS
  6
CONTINUOUS
 10
-1579.7871822332861
 20
48.851282552928069
 30
0.0
 11
-1583.979832233287
 21
48.851282552928069
 31
0.0
 12
-1583.979832233287
 22
48.192932552927907
 32
0.0
 13
-1583.979832233287
 23
48.192932552927907
 33
0.0
210
0.0
220
0.0
230
-1.0
  0
SOLID
  5
8B9D
  8
DEFPOINTS
  6
CONTINUOUS
 10
1638.054622233286
 20
48.192932552927907
 30
0.0
 11
1638.054622233286
 21
47.577895052928397
 31
0.0
 12
1640.105902233287
 22
47.577895052928397
 32
0.0
 13
1640.105902233287
 23
47.577895052928397
 33
0.0
210
0.0
220
0.0
230
1.0
  0
SOLID
  5
8B9E
  8
DEFPOINTS
  6
CONTINUOUS
 10
-1638.054622233286
 20
48.192932552927907
 30
0.0
 11
-1640.1059022332879
 21
48.192932552927907
 31
0.0
 12
-1640.105902233287
 22
47.577895052928397
 32
0.0
 13
-1640.105902233287
 23
47.577895052928397
 33
0.0
210
0.0
220
0.0
230
-1.0
  0
SOLID
  5
8B9F
  8
DEFPOINTS
  6
CONTINUOUS
 10
1634.0560122332849
 20
48.192932552927907
 30
0.0
 11
1634.0560122332849
 21
47.577895052928397
 31
0.0
 12
1635.9790872332881
 22
47.577895052928397
 32
0.0
 13
1635.9790872332881
 23
47.577895052928397
 33
0.0
210
0.0
220
0.0
230
1.0
  0
SOLID
  5
8BA0
  8
DEFPOINTS
  6
CONTINUOUS
 10
-1634.0560122332849
 20
48.192932552927907
 30
0.0
 11
-1635.9790872332851
 21
48.192932552927907
 31
0.0
 12
-1635.9790872332881
 22
47.577895052928397
 32
0.0
 13
-1635.9790872332881
 23
47.577895052928397
 33
0.0
210
0.0
220
0.0
230
-1.0
  0
SOLID
  5
8BA1
  8
DEFPOINTS
  6
CONTINUOUS
 10
1630.0470072332871
 20
48.192932552927907
 30
0.0
 11
1630.0470072332871
 21
47.577895052928397
 31
0.0
 12
1632.0844272332879
 22
47.577895052928397
 32
0.0
 13
1632.0844272332879
 23
47.577895052928397
 33
0.0
210
0.0
220
0.0
230
1.0
  0
SOLID
  5
8BA2
  8
DEFPOINTS
  6
CONTINUOUS
 10
-1630.0470072332871
 20
48.192932552927907
 30
0.0
 11
-1632.0844272332879
 21
48.192932552927907
 31
0.0
 12
-1632.0844272332879
 22
47.577895052928397
 32
0.0
 13
-1632.0844272332879
 23
47.577895052928397
 33
0.0
210
0.0
220
0.0
230
-1.0
  0
SOLID
  5
8BA3
  8
DEFPOINTS
  6
CONTINUOUS
 10
1618.160324733288
 20
48.192932552927907
 30
0.0
 11
1618.160324733288
 21
47.198477552928118
 31
0.0
 12
1619.7784797332861
 22
47.198477552928118
 32
0.0
 13
1619.7784797332861
 23
47.198477552928118
 33
0.0
210
0.0
220
0.0
230
1.0
  0
SOLID
  5
8BA4
  8
DEFPOINTS
  6
CONTINUOUS
 10
-1618.160324733288
 20
48.192932552927907
 30
0.0
 11
-1619.7784797332861
 21
48.192932552927907
 31
0.0
 12
-1619.7784797332861
 22
47.198477552928118
 32
0.0
 13
-1619.7784797332861
 23
47.198477552928118
 33
0.0
210
0.0
220
0.0
230
-1.0
  0
SOLID
  5
8BA5
  8
DEFPOINTS
  6
CONTINUOUS
 10
1615.856099733285
 20
48.192932552927907
 30
0.0
 11
1615.856099733285
 21
47.198477552928118
 31
0.0
 12
1617.5227647332881
 22
47.198477552928118
 32
0.0
 13
1617.5227647332881
 23
47.198477552928118
 33
0.0
  0
SOLID
  5
8BA6
  8
DEFPOINTS
  6
CONTINUOUS
 10
-1615.856099733285
 20
48.192932552927907
 30
0.0
 11
-1617.5227647332849
 21
48.192932552927907
 31
0.0
 12
-1617.5227647332881
 22
47.198477552928118
 32
0.0
 13
-1617.5227647332881
 23
47.198477552928118
 33
0.0
210
0.0
220
0.0
230
-1.0
  0
SOLID
  5
8BA7
  8
DEFPOINTS
  6
CONTINUOUS
 10
1597.663154490285
 20
48.192932552927907
 30
0.0
 11
1597.663154490288
 21
47.198477552928118
 31
0.0
 12
1599.534254490286
 22
47.198477552928118
 32
0.0
 13
1599.534254490286
 23
47.198477552928118
 33
0.0
210
0.0
220
0.0
230
1.0
  0
SOLID
  5
8BA8
  8
DEFPOINTS
  6
CONTINUOUS
 10
-1597.663154490285
 20
48.192932552927907
 30
0.0
 11
-1599.534254490286
 21
48.192932552927907
 31
0.0
 12
-1599.534254490286
 22
47.198477552928118
 32
0.0
 13
-1599.534254490286
 23
47.198477552928118
 33
0.0
210
0.0
220
0.0
230
-1.0
  0
SOLID
  5
8BA9
  8
DEFPOINTS
  6
CONTINUOUS
 10
1630.0470072332871
 20
47.577895052928397
 30
0.0
 11
1630.0470072332871
 21
46.902220052928662
 31
0.0
 12
1640.105902233287
 22
46.902220052928662
 32
0.0
 13
1640.105902233287
 23
46.902220052928662
 33
0.0
  0
SOLID
  5
8BAA
  8
DEFPOINTS
  6
CONTINUOUS
 10
-1630.0470072332871
 20
47.577895052928397
 30
0.0
 11
-1640.105902233287
 21
47.577895052928397
 31
0.0
 12
-1640.105902233287
 22
46.902220052928662
 32
0.0
 13
-1640.105902233287
 23
46.902220052928662
 33
0.0
210
0.0
220
0.0
230
-1.0
  0
SOLID
  5
8BAB
  8
DEFPOINTS
  6
CONTINUOUS
 10
1615.856099733285
 20
47.198477552928118
 30
0.0
 11
1615.856099733285
 21
46.529732552928628
 31
0.0
 12
1619.7784797332861
 22
46.529732552928628
 32
0.0
 13
1619.7784797332861
 23
46.529732552928628
 33
0.0
  0
SOLID
  5
8BAC
  8
DEFPOINTS
  6
CONTINUOUS
 10
-1615.856099733285
 20
47.198477552928118
 30
0.0
 11
-1619.7784797332861
 21
47.198477552928118
 31
0.0
 12
-1619.7784797332861
 22
46.529732552928628
 32
0.0
 13
-1619.7784797332861
 23
46.529732552928628
 33
0.0
210
0.0
220
0.0
230
-1.0
  0
SOLID
  5
8BAD
  8
DEFPOINTS
  6
CONTINUOUS
 10
1612.907384733287
 20
47.198477552928118
 30
0.0
 11
1612.907384733287
 21
46.529732552928628
 31
0.0
 12
1615.523459733286
 22
46.529732552928628
 32
0.0
 13
1615.523459733286
 23
46.529732552928628
 33
0.0
210
0.0
220
0.0
230
1.0
  0
SOLID
  5
8BAE
  8
DEFPOINTS
  6
CONTINUOUS
 10
-1612.907384733287
 20
47.198477552928118
 30
0.0
 11
-1615.5234597332869
 21
47.198477552928118
 31
0.0
 12
-1615.523459733286
 22
46.529732552928628
 32
0.0
 13
-1615.523459733286
 23
46.529732552928628
 33
0.0
210
0.0
220
0.0
230
-1.0
  0
SOLID
  5
8BAF
  8
DEFPOINTS
  6
CONTINUOUS
 10
1596.2528994902859
 20
47.198477552928118
 30
0.0
 11
1596.252899490288
 21
46.529732552928628
 31
0.0
 12
1600.611869490285
 22
46.529732552928628
 32
0.0
 13
1600.611869490285
 23
46.529732552928628
 33
0.0
210
0.0
220
0.0
230
1.0
  0
SOLID
  5
8BB0
  8
DEFPOINTS
  6
CONTINUOUS
 10
-1596.2528994902859
 20
47.198477552928118
 30
0.0
 11
-1600.611869490285
 21
47.198477552928118
 31
0.0
 12
-1600.611869490285
 22
46.529732552928628
 32
0.0
 13
-1600.611869490285
 23
46.529732552928628
 33
0.0
210
0.0
220
0.0
230
-1.0
  0
SOLID
  5
8BB1
  8
DEFPOINTS
  6
CONTINUOUS
 10
1588.5363072332871
 20
48.192932552927907
 30
0.0
 11
1588.536993333285
 21
46.401527552928663
 31
0.0
 12
1590.4680447332869
 22
46.401527552928663
 32
0.0
 13
1590.4680447332869
 23
46.401527552928663
 33
0.0
210
0.0
220
0.0
230
1.0
  0
SOLID
  5
8BB2
  8
DEFPOINTS
  6
CONTINUOUS
 10
-1588.5363072332871
 20
48.192932552927907
 30
0.0
 11
-1590.4680447332869
 21
48.192932552927907
 31
0.0
 12
-1590.4680447332869
 22
46.401527552928663
 32
0.0
 13
-1590.4680447332869
 23
46.401527552928663
 33
0.0
210
0.0
220
0.0
230
-1.0
  0
SOLID
  5
8BB3
  8
DEFPOINTS
  6
CONTINUOUS
 10
1588.536993333285
 20
46.401527552928663
 30
0.0
 11
1587.86478333329
 21
46.377272552928162
 31
0.0
 12
1590.4680447332869
 22
46.377272552928162
 32
0.0
 13
1590.4680447332869
 23
46.377272552928162
 33
0.0
210
0.0
220
0.0
230
1.0
  0
SOLID
  5
8BB4
  8
DEFPOINTS
  6
CONTINUOUS
 10
-1588.536993333285
 20
46.401527552928663
 30
0.0
 11
-1590.4680447332869
 21
46.401527552928663
 31
0.0
 12
-1590.4680447332869
 22
46.377272552928162
 32
0.0
 13
-1590.4680447332869
 23
46.377272552928162
 33
0.0
210
0.0
220
0.0
230
-1.0
  0
SOLID
  5
8BB5
  8
DEFPOINTS
  6
CONTINUOUS
 10
1630.0470072332871
 20
46.529732552928628
 30
0.0
 11
1630.0470072332871
 21
45.892172552928507
 31
0.0
 12
1640.105902233287
 22
45.892172552928507
 32
0.0
 13
1640.105902233287
 23
45.892172552928507
 33
0.0
  0
SOLID
  5
8BB6
  8
DEFPOINTS
  6
CONTINUOUS
 10
-1630.0470072332871
 20
46.529732552928628
 30
0.0
 11
-1640.105902233287
 21
46.529732552928628
 31
0.0
 12
-1640.105902233287
 22
45.892172552928507
 32
0.0
 13
-1640.105902233287
 23
45.892172552928507
 33
0.0
210
0.0
220
0.0
230
-1.0
  0
SOLID
  5
8BB7
  8
DEFPOINTS
  6
CONTINUOUS
 10
1597.663154490285
 20
46.529732552928628
 30
0.0
 11
1597.125329294531
 21
45.836732552927963
 31
0.0
 12
1600.6256922332859
 22
45.836732552927963
 32
0.0
 13
1600.6256922332859
 23
45.836732552927963
 33
0.0
  0
SOLID
  5
8BB8
  8
DEFPOINTS
  6
CONTINUOUS
 10
-1597.663154490285
 20
46.529732552928628
 30
0.0
 11
-1599.534254490286
 21
46.529732552928628
 31
0.0
 12
-1600.6256922332859
 22
45.836732552927963
 32
0.0
 13
-1600.6256922332859
 23
45.836732552927963
 33
0.0
210
0.0
220
0.0
230
-1.0
  0
SOLID
  5
8BB9
  8
DEFPOINTS
  6
CONTINUOUS
 10
1618.160324733286
 20
46.529732552928628
 30
0.0
 11
1618.160324733286
 21
45.80901255292838
 31
0.0
 12
1619.7784797332861
 22
45.80901255292838
 32
0.0
 13
1619.7784797332861
 23
45.80901255292838
 33
0.0
210
0.0
220
0.0
230
1.0
  0
SOLID
  5
8BBA
  8
DEFPOINTS
  6
CONTINUOUS
 10
-1618.160324733286
 20
46.529732552928628
 30
0.0
 11
-1619.7784797332861
 21
46.529732552928628
 31
0.0
 12
-1619.7784797332861
 22
45.80901255292838
 32
0.0
 13
-1619.7784797332861
 23
45.80901255292838
 33
0.0
210
0.0
220
0.0
230
-1.0
  0
SOLID
  5
8BBB
  8
DEFPOINTS
  6
CONTINUOUS
 10
1615.856099733285
 20
46.529732552928628
 30
0.0
 11
1615.856099733285
 21
45.80901255292838
 31
0.0
 12
1617.5227647332881
 22
45.80901255292838
 32
0.0
 13
1617.5227647332881
 23
45.80901255292838
 33
0.0
210
0.0
220
0.0
230
1.0
  0
SOLID
  5
8BBC
  8
DEFPOINTS
  6
CONTINUOUS
 10
-1615.856099733285
 20
46.529732552928628
 30
0.0
 11
-1617.5227647332861
 21
46.529732552928628
 31
0.0
 12
-1617.5227647332881
 22
45.80901255292838
 32
0.0
 13
-1617.5227647332881
 23
45.80901255292838
 33
0.0
210
0.0
220
0.0
230
-1.0
  0
SOLID
  5
8BBD
  8
DEFPOINTS
  6
CONTINUOUS
 10
1582.2819822332899
 20
48.192932552927907
 30
0.0
 11
1582.281982233286
 21
45.80901255292838
 31
0.0
 12
1583.979832233287
 22
45.80901255292838
 32
0.0
 13
1583.979832233287
 23
45.80901255292838
 33
0.0
210
0.0
220
0.0
230
1.0
  0
SOLID
  5
8BBE
  8
DEFPOINTS
  6
CONTINUOUS
 10
-1582.2819822332899
 20
48.192932552927907
 30
0.0
 11
-1583.979832233287
 21
48.192932552927907
 31
0.0
 12
-1583.979832233287
 22
45.80901255292838
 32
0.0
 13
-1583.979832233287
 23
45.80901255292838
 33
0.0
210
0.0
220
0.0
230
-1.0
  0
SOLID
  5
8BBF
  8
DEFPOINTS
  6
CONTINUOUS
 10
1579.7871822332861
 20
48.192932552927907
 30
0.0
 11
1579.7871822332861
 21
45.80901255292838
 31
0.0
 12
1581.516217233285
 22
45.80901255292838
 32
0.0
 13
1581.516217233285
 23
45.80901255292838
 33
0.0
210
0.0
220
0.0
230
1.0
  0
SOLID
  5
8BC0
  8
DEFPOINTS
  6
CONTINUOUS
 10
-1579.7871822332861
 20
48.192932552927907
 30
0.0
 11
-1581.516217233285
 21
48.192932552927907
 31
0.0
 12
-1581.516217233285
 22
45.80901255292838
 32
0.0
 13
-1581.516217233285
 23
45.80901255292838
 33
0.0
210
0.0
220
0.0
230
-1.0
  0
SOLID
  5
8BC1
  8
DEFPOINTS
  6
CONTINUOUS
 10
1587.86478333329
 20
46.377272552928162
 30
0.0
 11
1588.0408122332899
 21
45.680807552928393
 31
0.0
 12
1590.4680447332869
 22
45.680807552928393
 32
0.0
 13
1590.4680447332869
 23
45.680807552928393
 33
0.0
210
0.0
220
0.0
230
1.0
  0
SOLID
  5
8BC2
  8
DEFPOINTS
  6
CONTINUOUS
 10
-1587.86478333329
 20
46.377272552928162
 30
0.0
 11
-1590.4680447332869
 21
46.377272552928162
 31
0.0
 12
-1590.4680447332869
 22
45.680807552928393
 32
0.0
 13
-1590.4680447332869
 23
45.680807552928393
 33
0.0
210
0.0
220
0.0
230
-1.0
  0
SOLID
  5
8BC3
  8
DEFPOINTS
  6
CONTINUOUS
 10
1585.584164490286
 20
48.192932552927907
 30
0.0
 11
1584.3956322332881
 21
45.680807552928393
 31
0.0
 12
1586.5577922332841
 22
45.680807552928393
 32
0.0
 13
1586.5577922332841
 23
45.680807552928393
 33
0.0
210
0.0
220
0.0
230
1.0
  0
SOLID
  5
8BC4
  8
DEFPOINTS
  6
CONTINUOUS
 10
-1585.584164490286
 20
48.192932552927907
 30
0.0
 11
-1587.7463244902849
 21
48.192932552927907
 31
0.0
 12
-1586.5577922332841
 22
45.680807552928393
 32
0.0
 13
-1586.5577922332841
 23
45.680807552928393
 33
0.0
210
0.0
220
0.0
230
-1.0
  0
SOLID
  5
8BC5
  8
DEFPOINTS
  6
CONTINUOUS
 10
1634.0560122332849
 20
45.892172552928507
 30
0.0
 11
1634.0560122332849
 21
45.273670052927848
 31
0.0
 12
1635.9790872332851
 22
45.273670052927848
 32
0.0
 13
1635.9790872332851
 23
45.273670052927848
 33
0.0
210
0.0
220
0.0
230
1.0
  0
SOLID
  5
8BC6
  8
DEFPOINTS
  6
CONTINUOUS
 10
-1634.0560122332849
 20
45.892172552928507
 30
0.0
 11
-1635.9790872332851
 21
45.892172552928507
 31
0.0
 12
-1635.9790872332851
 22
45.273670052927848
 32
0.0
 13
-1635.9790872332851
 23
45.273670052927848
 33
0.0
210
0.0
220
0.0
230
-1.0
  0
SOLID
  5
8BC7
  8
DEFPOINTS
  6
CONTINUOUS
 10
1615.856099733285
 20
45.80901255292838
 30
0.0
 11
1615.856099733285
 21
45.091757552928577
 31
0.0
 12
1619.7784797332861
 22
45.091757552928577
 32
0.0
 13
1619.7784797332861
 23
45.091757552928577
 33
0.0
210
0.0
220
0.0
230
1.0
  0
SOLID
  5
8BC8
  8
DEFPOINTS
  6
CONTINUOUS
 10
-1615.856099733285
 20
45.80901255292838
 30
0.0
 11
-1619.7784797332861
 21
45.80901255292838
 31
0.0
 12
-1619.7784797332861
 22
45.091757552928577
 32
0.0
 13
-1619.7784797332861
 23
45.091757552928577
 33
0.0
210
0.0
220
0.0
230
-1.0
  0
SOLID
  5
8BC9
  8
DEFPOINTS
  6
CONTINUOUS
 10
1579.7871822332861
 20
45.80901255292838
 30
0.0
 11
1579.7871822332861
 21
45.091757552928577
 31
0.0
 12
1583.979832233287
 22
45.091757552928577
 32
0.0
 13
1583.979832233287
 23
45.091757552928577
 33
0.0
210
0.0
220
0.0
230
1.0
  0
SOLID
  5
8BCA
  8
DEFPOINTS
  6
CONTINUOUS
 10
-1579.7871822332861
 20
45.80901255292838
 30
0.0
 11
-1583.979832233287
 21
45.80901255292838
 31
0.0
 12
-1583.979832233287
 22
45.091757552928577
 32
0.0
 13
-1583.979832233287
 23
45.091757552928577
 33
0.0
210
0.0
220
0.0
230
-1.0
  0
SOLID
  5
8BCB
  8
DEFPOINTS
  6
CONTINUOUS
 10
1597.125329294531
 20
45.836732552927963
 30
0.0
 11
1596.270187233285
 21
44.734862552928917
 31
0.0
 12
1600.6265443999921
 22
44.734862552928917
 32
0.0
 13
1600.6265443999921
 23
44.734862552928917
 33
0.0
  0
SOLID
  5
8BCC
  8
DEFPOINTS
  6
CONTINUOUS
 10
-1597.125329294531
 20
45.836732552927963
 30
0.0
 11
-1600.6256922332859
 21
45.836732552927963
 31
0.0
 12
-1600.6265443999921
 22
44.734862552928917
 32
0.0
 13
-1600.6265443999921
 23
44.734862552928917
 33
0.0
210
0.0
220
0.0
230
-1.0
  0
SOLID
  5
8BCD
  8
DEFPOINTS
  6
CONTINUOUS
 10
1629.637991118288
 20
45.273670052927848
 30
0.0
 11
1629.637991118288
 21
44.639575052927512
 31
0.0
 12
1640.414287233285
 22
44.639575052927512
 32
0.0
 13
1640.414287233285
 23
44.639575052927512
 33
0.0
210
0.0
220
0.0
230
1.0
  0
SOLID
  5
8BCE
  8
DEFPOINTS
  6
CONTINUOUS
 10
-1629.637991118288
 20
45.273670052927848
 30
0.0
 11
-1640.414287233285
 21
45.273670052927848
 31
0.0
 12
-1640.414287233285
 22
44.639575052927512
 32
0.0
 13
-1640.414287233285
 23
44.639575052927512
 33
0.0
210
0.0
220
0.0
230
-1.0
  0
SOLID
  5
8BCF
  8
DEFPOINTS
  6
CONTINUOUS
 10
1596.270187233285
 20
44.734862552928917
 30
0.0
 11
1596.2702978200639
 21
44.515027027238141
 31
0.0
 12
1600.6267144168869
 22
44.515027027238141
 32
0.0
 13
1600.6267144168869
 23
44.515027027238141
 33
0.0
  0
SOLID
  5
8BD0
  8
DEFPOINTS
  6
CONTINUOUS
 10
-1596.270187233285
 20
44.734862552928917
 30
0.0
 11
-1600.6265443999921
 21
44.734862552928917
 31
0.0
 12
-1600.6267144168869
 22
44.515027027238141
 32
0.0
 13
-1600.6267144168869
 23
44.515027027238141
 33
0.0
210
0.0
220
0.0
230
-1.0
  0
SOLID
  5
8BD1
  8
DEFPOINTS
  6
CONTINUOUS
 10
1618.160324733286
 20
45.091757552928577
 30
0.0
 11
1618.160324733286
 21
44.402222552928372
 31
0.0
 12
1619.7784797332861
 22
44.402222552928372
 32
0.0
 13
1619.7784797332861
 23
44.402222552928372
 33
0.0
210
0.0
220
0.0
230
1.0
  0
SOLID
  5
8BD2
  8
DEFPOINTS
  6
CONTINUOUS
 10
-1618.160324733286
 20
45.091757552928577
 30
0.0
 11
-1619.7784797332861
 21
45.091757552928577
 31
0.0
 12
-1619.7784797332861
 22
44.402222552928372
 32
0.0
 13
-1619.7784797332861
 23
44.402222552928372
 33
0.0
210
0.0
220
0.0
230
-1.0
  0
SOLID
  5
8BD3
  8
DEFPOINTS
  6
CONTINUOUS
 10
1615.856099733285
 20
45.091757552928577
 30
0.0
 11
1615.856099733285
 21
44.402222552928372
 31
0.0
 12
1617.5227647332861
 22
44.402222552928372
 32
0.0
 13
1617.5227647332861
 23
44.402222552928372
 33
0.0
210
0.0
220
0.0
230
1.0
  0
SOLID
  5
8BD4
  8
DEFPOINTS
  6
CONTINUOUS
 10
-1615.856099733285
 20
45.091757552928577
 30
0.0
 11
-1617.5227647332831
 21
45.091757552928577
 31
0.0
 12
-1617.5227647332861
 22
44.402222552928372
 32
0.0
 13
-1617.5227647332861
 23
44.402222552928372
 33
0.0
210
0.0
220
0.0
230
-1.0
  0
SOLID
  5
8BD5
  8
DEFPOINTS
  6
CONTINUOUS
 10
1584.3956322332849
 20
45.091757552928577
 30
0.0
 11
1584.3956322332849
 21
44.3987575529286
 31
0.0
 12
1590.4680447332869
 22
44.3987575529286
 32
0.0
 13
1590.4680447332869
 23
44.3987575529286
 33
0.0
  0
SOLID
  5
8BD6
  8
DEFPOINTS
  6
CONTINUOUS
 10
-1584.3956322332849
 20
45.091757552928577
 30
0.0
 11
-1590.4680447332869
 21
45.091757552928577
 31
0.0
 12
-1590.4680447332869
 22
44.3987575529286
 32
0.0
 13
-1590.4680447332869
 23
44.3987575529286
 33
0.0
210
0.0
220
0.0
230
-1.0
  0
SOLID
  5
8BD7
  8
DEFPOINTS
  6
CONTINUOUS
 10
-1600.593640231642
 20
43.842378199152563
 30
0.0
 11
-1600.627234631555
 21
43.842378199152563
 31
0.0
 12
-1600.6272511362949
 22
43.821037213765287
 32
0.0
 13
-1600.6272511362949
 23
43.821037213765287
 33
0.0
210
0.0
220
0.0
230
-1.0
  0
SOLID
  5
8BD8
  8
DEFPOINTS
  6
CONTINUOUS
 10
1599.534254490286
 20
44.515027027238141
 30
0.0
 11
1600.593640231642
 21
43.842378199152563
 31
0.0
 12
1600.627234631555
 22
43.842378199152563
 32
0.0
 13
1600.627234631555
 23
43.842378199152563
 33
0.0
210
0.0
220
0.0
230
1.0
  0
SOLID
  5
8BD9
  8
DEFPOINTS
  6
CONTINUOUS
 10
-1599.534254490286
 20
44.515027027238141
 30
0.0
 11
-1600.6267144168869
 21
44.515027027238141
 31
0.0
 12
-1600.627234631555
 22
43.842378199152563
 32
0.0
 13
-1600.627234631555
 23
43.842378199152563
 33
0.0
210
0.0
220
0.0
230
-1.0
  0
SOLID
  5
8BDA
  8
DEFPOINTS
  6
CONTINUOUS
 10
1596.2702978200639
 20
44.515027027238141
 30
0.0
 11
1596.2706361915209
 21
43.842378199152563
 31
0.0
 12
1599.534254490286
 22
43.842378199152563
 32
0.0
 13
1599.534254490286
 23
43.842378199152563
 33
0.0
210
0.0
220
0.0
230
1.0
  0
SOLID
  5
8BDB
  8
DEFPOINTS
  6
CONTINUOUS
 10
-1596.2702978200639
 20
44.515027027238141
 30
0.0
 11
-1599.534254490286
 21
44.515027027238141
 31
0.0
 12
-1599.534254490286
 22
43.842378199152563
 32
0.0
 13
-1599.534254490286
 23
43.842378199152563
 33
0.0
210
0.0
220
0.0
230
-1.0
  0
SOLID
  5
8BDC
  8
DEFPOINTS
  6
CONTINUOUS
 10
1597.663154490283
 20
43.842378199152563
 30
0.0
 11
1597.663154490283
 21
43.821037213765287
 31
0.0
 12
1599.534254490286
 22
43.821037213765287
 32
0.0
 13
1599.534254490286
 23
43.821037213765287
 33
0.0
210
0.0
220
0.0
230
1.0
  0
SOLID
  5
8BDD
  8
DEFPOINTS
  6
CONTINUOUS
 10
-1597.663154490283
 20
43.842378199152563
 30
0.0
 11
-1599.534254490286
 21
43.842378199152563
 31
0.0
 12
-1599.534254490286
 22
43.821037213765287
 32
0.0
 13
-1599.534254490286
 23
43.821037213765287
 33
0.0
210
0.0
220
0.0
230
-1.0
  0
SOLID
  5
8BDE
  8
DEFPOINTS
  6
CONTINUOUS
 10
1596.2706361915209
 20
43.842378199152563
 30
0.0
 11
1596.2706469269599
 21
43.821037213765287
 31
0.0
 12
1597.64659212424
 22
43.821037213765287
 32
0.0
 13
1597.64659212424
 23
43.821037213765287
 33
0.0
210
0.0
220
0.0
230
1.0
  0
SOLID
  5
8BDF
  8
DEFPOINTS
  6
CONTINUOUS
 10
-1596.2706361915209
 20
43.842378199152563
 30
0.0
 11
-1597.663154490283
 21
43.842378199152563
 31
0.0
 12
-1597.64659212424
 22
43.821037213765287
 32
0.0
 13
-1597.64659212424
 23
43.821037213765287
 33
0.0
210
0.0
220
0.0
230
-1.0
  0
SOLID
  5
8BE0
  8
DEFPOINTS
  6
CONTINUOUS
 10
1620.034889733286
 20
48.851282552928069
 30
0.0
 11
1620.034889733286
 21
43.684967552927901
 31
0.0
 12
1621.597604733287
 22
43.684967552927901
 32
0.0
 13
1621.597604733287
 23
43.684967552927901
 33
0.0
210
0.0
220
0.0
230
1.0
  0
SOLID
  5
8BE1
  8
DEFPOINTS
  6
CONTINUOUS
 10
-1620.034889733286
 20
48.851282552928069
 30
0.0
 11
-1621.597604733287
 21
48.851282552928069
 31
0.0
 12
-1621.597604733287
 22
43.684967552927901
 32
0.0
 13
-1621.597604733287
 23
43.684967552927901
 33
0.0
210
0.0
220
0.0
230
-1.0
  0
SOLID
  5
8BE2
  8
DEFPOINTS
  6
CONTINUOUS
 10
1615.856099733285
 20
44.402222552928372
 30
0.0
 11
1615.856099733285
 21
43.684967552927901
 31
0.0
 12
1619.7784797332861
 22
43.684967552927901
 32
0.0
 13
1619.7784797332861
 23
43.684967552927901
 33
0.0
210
0.0
220
0.0
230
1.0
  0
SOLID
  5
8BE3
  8
DEFPOINTS
  6
CONTINUOUS
 10
-1615.856099733285
 20
44.402222552928372
 30
0.0
 11
-1619.7784797332861
 21
44.402222552928372
 31
0.0
 12
-1619.7784797332861
 22
43.684967552927901
 32
0.0
 13
-1619.7784797332861
 23
43.684967552927901
 33
0.0
210
0.0
220
0.0
230
-1.0
  0
SOLID
  5
8BE4
  8
DEFPOINTS
  6
CONTINUOUS
 10
1616.200904940287
 20
43.684967552927901
 30
0.0
 11
1616.1890945968389
 21
43.663532147927967
 31
0.0
 12
1619.563200933846
 22
43.663532147927967
 32
0.0
 13
1619.563200933846
 23
43.663532147927967
 33
0.0
210
0.0
220
0.0
230
1.0
  0
SOLID
  5
8BE5
  8
DEFPOINTS
  6
CONTINUOUS
 10
-1616.200904940287
 20
43.684967552927901
 30
0.0
 11
-1619.5490802812881
 21
43.684967552927901
 31
0.0
 12
-1619.563200933846
 22
43.663532147927967
 32
0.0
 13
-1619.563200933846
 23
43.663532147927967
 33
0.0
210
0.0
220
0.0
230
-1.0
  0
SOLID
  5
8BE6
  8
DEFPOINTS
  6
CONTINUOUS
 10
1629.637991118286
 20
44.13888255292818
 30
0.0
 11
1629.637991118286
 21
43.532507552928777
 31
0.0
 12
1640.4142872332859
 22
43.532507552928777
 32
0.0
 13
1640.4142872332859
 23
43.532507552928777
 33
0.0
  0
SOLID
  5
8BE7
  8
DEFPOINTS
  6
CONTINUOUS
 10
-1629.637991118286
 20
44.13888255292818
 30
0.0
 11
-1640.414287233285
 21
44.13888255292818
 31
0.0
 12
-1640.4142872332859
 22
43.532507552928777
 32
0.0
 13
-1640.4142872332859
 23
43.532507552928777
 33
0.0
210
0.0
220
0.0
230
-1.0
  0
SOLID
  5
8BE8
  8
DEFPOINTS
  6
CONTINUOUS
 10
1622.024996040285
 20
48.851282552928069
 30
0.0
 11
1622.024996040285
 21
42.752882552927517
 31
0.0
 12
1623.691661040287
 22
42.752882552927517
 32
0.0
 13
1623.691661040287
 23
42.752882552927517
 33
0.0
210
0.0
220
0.0
230
1.0
  0
SOLID
  5
8BE9
  8
DEFPOINTS
  6
CONTINUOUS
 10
-1622.024996040285
 20
48.851282552928069
 30
0.0
 11
-1623.691661040288
 21
48.851282552928069
 31
0.0
 12
-1623.691661040287
 22
42.752882552927517
 32
0.0
 13
-1623.691661040287
 23
42.752882552927517
 33
0.0
210
0.0
220
0.0
230
-1.0
  0
SOLID
  5
8BEA
  8
DEFPOINTS
  6
CONTINUOUS
 10
1605.019349490289
 20
48.192932552927907
 30
0.0
 11
1605.019349490286
 21
42.752882552927517
 31
0.0
 12
1607.0186544902861
 22
42.752882552927517
 32
0.0
 13
1607.0186544902861
 23
42.752882552927517
 33
0.0
210
0.0
220
0.0
230
1.0
  0
SOLID
  5
8BEB
  8
DEFPOINTS
  6
CONTINUOUS
 10
-1605.019349490289
 20
48.192932552927907
 30
0.0
 11
-1607.0186544902861
 21
48.192932552927907
 31
0.0
 12
-1607.0186544902861
 22
42.752882552927517
 32
0.0
 13
-1607.0186544902861
 23
42.752882552927517
 33
0.0
210
0.0
220
0.0
230
-1.0
  0
SOLID
  5
8BEC
  8
DEFPOINTS
  6
CONTINUOUS
 10
1600.9964844902861
 20
48.192932552927907
 30
0.0
 11
1600.9964844902861
 21
42.752882552927517
 31
0.0
 12
1602.9438144902881
 22
42.752882552927517
 32
0.0
 13
1602.9438144902881
 23
42.752882552927517
 33
0.0
210
0.0
220
0.0
230
1.0
  0
SOLID
  5
8BED
  8
DEFPOINTS
  6
CONTINUOUS
 10
-1600.9964844902861
 20
48.192932552927907
 30
0.0
 11
-1602.9438144902861
 21
48.192932552927907
 31
0.0
 12
-1602.9438144902881
 22
42.752882552927517
 32
0.0
 13
-1602.9438144902881
 23
42.752882552927517
 33
0.0
210
0.0
220
0.0
230
-1.0
  0
SOLID
  5
8BEE
  8
DEFPOINTS
  6
CONTINUOUS
 10
1588.5363072332871
 20
44.3987575529286
 30
0.0
 11
1588.5363072332871
 21
42.752882552927517
 31
0.0
 12
1590.4680447332869
 22
42.752882552927517
 32
0.0
 13
1590.4680447332869
 23
42.752882552927517
 33
0.0
210
0.0
220
0.0
230
1.0
  0
SOLID
  5
8BEF
  8
DEFPOINTS
  6
CONTINUOUS
 10
-1588.5363072332871
 20
44.3987575529286
 30
0.0
 11
-1590.4680447332869
 21
44.3987575529286
 31
0.0
 12
-1590.4680447332869
 22
42.752882552927517
 32
0.0
 13
-1590.4680447332869
 23
42.752882552927517
 33
0.0
210
0.0
220
0.0
230
-1.0
  0
SOLID
  5
8BF0
  8
DEFPOINTS
  6
CONTINUOUS
 10
1584.3956322332849
 20
44.3987575529286
 30
0.0
 11
1584.3956322332849
 21
42.752882552927517
 31
0.0
 12
1586.379344733288
 22
42.752882552927517
 32
0.0
 13
1586.379344733288
 23
42.752882552927517
 33
0.0
210
0.0
220
0.0
230
1.0
  0
SOLID
  5
8BF1
  8
DEFPOINTS
  6
CONTINUOUS
 10
-1584.3956322332849
 20
44.3987575529286
 30
0.0
 11
-1586.3793447332871
 21
44.3987575529286
 31
0.0
 12
-1586.379344733288
 22
42.752882552927517
 32
0.0
 13
-1586.379344733288
 23
42.752882552927517
 33
0.0
210
0.0
220
0.0
230
-1.0
  0
SOLID
  5
8BF2
  8
DEFPOINTS
  6
CONTINUOUS
 10
1582.281982233286
 20
45.091757552928577
 30
0.0
 11
1582.281982233286
 21
42.752882552927517
 31
0.0
 12
1583.979832233287
 22
42.752882552927517
 32
0.0
 13
1583.979832233287
 23
42.752882552927517
 33
0.0
210
0.0
220
0.0
230
1.0
  0
SOLID
  5
8BF3
  8
DEFPOINTS
  6
CONTINUOUS
 10
-1582.281982233286
 20
45.091757552928577
 30
0.0
 11
-1583.979832233287
 21
45.091757552928577
 31
0.0
 12
-1583.979832233287
 22
42.752882552927517
 32
0.0
 13
-1583.979832233287
 23
42.752882552927517
 33
0.0
210
0.0
220
0.0
230
-1.0
  0
SOLID
  5
8BF4
  8
DEFPOINTS
  6
CONTINUOUS
 10
1579.7871822332861
 20
45.091757552928577
 30
0.0
 11
1579.7871822332861
 21
42.752882552927517
 31
0.0
 12
1581.5162172332871
 22
42.752882552927517
 32
0.0
 13
1581.5162172332871
 23
42.752882552927517
 33
0.0
210
0.0
220
0.0
230
1.0
  0
SOLID
  5
8BF5
  8
DEFPOINTS
  6
CONTINUOUS
 10
-1579.7871822332861
 20
45.091757552928577
 30
0.0
 11
-1581.5162172332871
 21
45.091757552928577
 31
0.0
 12
-1581.5162172332871
 22
42.752882552927517
 32
0.0
 13
-1581.5162172332871
 23
42.752882552927517
 33
0.0
210
0.0
220
0.0
230
-1.0
  0
SOLID
  5
8BF6
  8
DEFPOINTS
  6
CONTINUOUS
 10
-1596.271249619143
 20
42.622945052928337
 30
0.0
 11
-1596.716773722625
 21
42.622945052928337
 31
0.0
 12
-1596.2715382130889
 22
42.049248971226227
 32
0.0
 13
-1596.2715382130889
 23
42.049248971226227
 33
0.0
210
0.0
220
0.0
230
-1.0
  0
SOLID
  5
8BF7
  8
DEFPOINTS
  6
CONTINUOUS
 10
1638.491212233288
 20
43.532507552928777
 30
0.0
 11
1638.4912122332851
 21
42.622945052928337
 31
0.0
 12
1640.414287233287
 22
42.622945052928337
 32
0.0
 13
1640.414287233287
 23
42.622945052928337
 33
0.0
210
0.0
220
0.0
230
1.0
  0
SOLID
  5
8BF8
  8
DEFPOINTS
  6
CONTINUOUS
 10
-1638.491212233288
 20
43.532507552928777
 30
0.0
 11
-1640.4142872332859
 21
43.532507552928777
 31
0.0
 12
-1640.414287233287
 22
42.622945052928337
 32
0.0
 13
-1640.414287233287
 23
42.622945052928337
 33
0.0
210
0.0
220
0.0
230
-1.0
  0
SOLID
  5
8BF9
  8
DEFPOINTS
  6
CONTINUOUS
 10
1634.0560122332849
 20
43.532507552928777
 30
0.0
 11
1634.0560122332879
 21
42.622945052928337
 31
0.0
 12
1635.9790872332851
 22
42.622945052928337
 32
0.0
 13
1635.9790872332851
 23
42.622945052928337
 33
0.0
210
0.0
220
0.0
230
1.0
  0
SOLID
  5
8BFA
  8
DEFPOINTS
  6
CONTINUOUS
 10
-1634.0560122332849
 20
43.532507552928777
 30
0.0
 11
-1635.9790872332851
 21
43.532507552928777
 31
0.0
 12
-1635.9790872332851
 22
42.622945052928337
 32
0.0
 13
-1635.9790872332851
 23
42.622945052928337
 33
0.0
210
0.0
220
0.0
230
-1.0
  0
SOLID
  5
8BFB
  8
DEFPOINTS
  6
CONTINUOUS
 10
1629.637991118286
 20
43.532507552928777
 30
0.0
 11
1629.637991118286
 21
42.622945052928337
 31
0.0
 12
1631.5716072332871
 22
42.622945052928337
 32
0.0
 13
1631.5716072332871
 23
42.622945052928337
 33
0.0
210
0.0
220
0.0
230
1.0
  0
SOLID
  5
8BFC
  8
DEFPOINTS
  6
CONTINUOUS
 10
-1629.637991118286
 20
43.532507552928777
 30
0.0
 11
-1631.5716072332871
 21
43.532507552928777
 31
0.0
 12
-1631.5716072332871
 22
42.622945052928337
 32
0.0
 13
-1631.5716072332871
 23
42.622945052928337
 33
0.0
210
0.0
220
0.0
230
-1.0
  0
SOLID
  5
8BFD
  8
DEFPOINTS
  6
CONTINUOUS
 10
1596.2706469269599
 20
43.821037213765287
 30
0.0
 11
1596.271249619143
 21
42.622945052928337
 31
0.0
 12
1596.716773722625
 22
42.622945052928337
 32
0.0
 13
1596.716773722625
 23
42.622945052928337
 33
0.0
  0
SOLID
  5
8BFE
  8
DEFPOINTS
  6
CONTINUOUS
 10
-1596.2706469269599
 20
43.821037213765287
 30
0.0
 11
-1597.64659212424
 21
43.821037213765287
 31
0.0
 12
-1596.716773722625
 22
42.622945052928337
 32
0.0
 13
-1596.716773722625
 23
42.622945052928337
 33
0.0
210
0.0
220
0.0
230
-1.0
  0
SOLID
  5
8BFF
  8
DEFPOINTS
  6
CONTINUOUS
 10
1629.637991118286
 20
42.622945052928337
 30
0.0
 11
1629.637991118286
 21
42.025232552928401
 31
0.0
 12
1640.414287233287
 22
42.025232552928401
 32
0.0
 13
1640.414287233287
 23
42.025232552928401
 33
0.0
210
0.0
220
0.0
230
1.0
  0
SOLID
  5
8C00
  8
DEFPOINTS
  6
CONTINUOUS
 10
-1629.637991118286
 20
42.622945052928337
 30
0.0
 11
-1640.414287233287
 21
42.622945052928337
 31
0.0
 12
-1640.414287233287
 22
42.025232552928401
 32
0.0
 13
-1640.414287233287
 23
42.025232552928401
 33
0.0
210
0.0
220
0.0
230
-1.0
  0
SOLID
  5
8C01
  8
DEFPOINTS
  6
CONTINUOUS
 10
1621.2397895192869
 20
42.752882552927517
 30
0.0
 11
1621.499834931288
 21
42.025232552928401
 31
0.0
 12
1623.691661040287
 22
42.025232552928401
 32
0.0
 13
1623.691661040287
 23
42.025232552928401
 33
0.0
210
0.0
220
0.0
230
1.0
  0
SOLID
  5
8C02
  8
DEFPOINTS
  6
CONTINUOUS
 10
-1621.2397895192869
 20
42.752882552927517
 30
0.0
 11
-1623.691661040287
 21
42.752882552927517
 31
0.0
 12
-1623.691661040287
 22
42.025232552928401
 32
0.0
 13
-1623.691661040287
 23
42.025232552928401
 33
0.0
210
0.0
220
0.0
230
-1.0
  0
SOLID
  5
8C03
  8
DEFPOINTS
  6
CONTINUOUS
 10
1617.835811040288
 20
43.663532147927967
 30
0.0
 11
1618.915046973287
 21
42.025232552928401
 31
0.0
 12
1620.6424368692869
 22
42.025232552928401
 32
0.0
 13
1620.6424368692869
 23
42.025232552928401
 33
0.0
210
0.0
220
0.0
230
1.0
  0
SOLID
  5
8C04
  8
DEFPOINTS
  6
CONTINUOUS
 10
-1617.835811040288
 20
43.663532147927967
 30
0.0
 11
-1619.563200933846
 21
43.663532147927967
 31
0.0
 12
-1620.6424368692869
 22
42.025232552928401
 32
0.0
 13
-1620.6424368692869
 23
42.025232552928401
 33
0.0
210
0.0
220
0.0
230
-1.0
  0
SOLID
  5
8C05
  8
DEFPOINTS
  6
CONTINUOUS
 10
1616.1890945968389
 20
43.663532147927967
 30
0.0
 11
1615.2864346802839
 21
42.025232552928401
 31
0.0
 12
1616.9331511250141
 22
42.025232552928401
 32
0.0
 13
1616.9331511250141
 23
42.025232552928401
 33
0.0
210
0.0
220
0.0
230
1.0
  0
SOLID
  5
8C06
  8
DEFPOINTS
  6
CONTINUOUS
 10
-1616.1890945968389
 20
43.663532147927967
 30
0.0
 11
-1617.835811040288
 21
43.663532147927967
 31
0.0
 12
-1616.9331511250141
 22
42.025232552928401
 32
0.0
 13
-1616.9331511250141
 23
42.025232552928401
 33
0.0
210
0.0
220
0.0
230
-1.0
  0
SOLID
  5
8C07
  8
DEFPOINTS
  6
CONTINUOUS
 10
1613.805027519287
 20
45.351632552928997
 30
0.0
 11
1612.907384733287
 21
42.025232552928401
 31
0.0
 12
1614.625816944287
 22
42.025232552928401
 32
0.0
 13
1614.625816944287
 23
42.025232552928401
 33
0.0
210
0.0
220
0.0
230
1.0
  0
SOLID
  5
8C08
  8
DEFPOINTS
  6
CONTINUOUS
 10
-1613.805027519287
 20
45.351632552928997
 30
0.0
 11
-1615.523459733284
 21
45.351632552928997
 31
0.0
 12
-1614.625816944287
 22
42.025232552928401
 32
0.0
 13
-1614.625816944287
 23
42.025232552928401
 33
0.0
210
0.0
220
0.0
230
-1.0
  0
SOLID
  5
8C09
  8
DEFPOINTS
  6
CONTINUOUS
 10
1600.9964844902861
 20
42.752882552927517
 30
0.0
 11
1600.9964844902861
 21
42.025232552928401
 31
0.0
 12
1607.0186544902861
 22
42.025232552928401
 32
0.0
 13
1607.0186544902861
 23
42.025232552928401
 33
0.0
210
0.0
220
0.0
230
1.0
  0
SOLID
  5
8C0A
  8
DEFPOINTS
  6
CONTINUOUS
 10
-1600.9964844902861
 20
42.752882552927517
 30
0.0
 11
-1607.0186544902861
 21
42.752882552927517
 31
0.0
 12
-1607.0186544902861
 22
42.025232552928401
 32
0.0
 13
-1607.0186544902861
 23
42.025232552928401
 33
0.0
210
0.0
220
0.0
230
-1.0
  0
SOLID
  5
8C0B
  8
DEFPOINTS
  6
CONTINUOUS
 10
1597.663154490283
 20
43.821037213765287
 30
0.0
 11
1597.663154490288
 21
42.025232552928401
 31
0.0
 12
1599.5342544902851
 22
42.025232552928401
 32
0.0
 13
1599.5342544902851
 23
42.025232552928401
 33
0.0
210
0.0
220
0.0
230
1.0
  0
SOLID
  5
8C0C
  8
DEFPOINTS
  6
CONTINUOUS
 10
-1597.663154490283
 20
43.821037213765287
 30
0.0
 11
-1599.534254490286
 21
43.821037213765287
 31
0.0
 12
-1599.5342544902851
 22
42.025232552928401
 32
0.0
 13
-1599.5342544902851
 23
42.025232552928401
 33
0.0
210
0.0
220
0.0
230
-1.0
  0
SOLID
  5
8C0D
  8
DEFPOINTS
  6
CONTINUOUS
 10
1584.3956322332849
 20
42.752882552927517
 30
0.0
 11
1584.3956322332849
 21
42.025232552928401
 31
0.0
 12
1590.4680447332869
 22
42.025232552928401
 32
0.0
 13
1590.4680447332869
 23
42.025232552928401
 33
0.0
210
0.0
220
0.0
230
1.0
  0
SOLID
  5
8C0E
  8
DEFPOINTS
  6
CONTINUOUS
 10
-1584.3956322332849
 20
42.752882552927517
 30
0.0
 11
-1590.4680447332869
 21
42.752882552927517
 31
0.0
 12
-1590.4680447332869
 22
42.025232552928401
 32
0.0
 13
-1590.4680447332869
 23
42.025232552928401
 33
0.0
210
0.0
220
0.0
230
-1.0
  0
SOLID
  5
8C0F
  8
DEFPOINTS
  6
CONTINUOUS
 10
1579.7871822332861
 20
42.752882552927517
 30
0.0
 11
1579.7871822332861
 21
42.025232552928401
 31
0.0
 12
1583.979832233287
 22
42.025232552928401
 32
0.0
 13
1583.979832233287
 23
42.025232552928401
 33
0.0
210
0.0
220
0.0
230
1.0
  0
SOLID
  5
8C10
  8
DEFPOINTS
  6
CONTINUOUS
 10
-1579.7871822332861
 20
42.752882552927517
 30
0.0
 11
-1583.979832233287
 21
42.752882552927517
 31
0.0
 12
-1583.979832233287
 22
42.025232552928401
 32
0.0
 13
-1583.979832233287
 23
42.025232552928401
 33
0.0
210
0.0
220
0.0
230
-1.0
  0
LINE
  5
8C11
  8
DEFPOINTS
  6
CONTINUOUS
 10
1630.0470072332871
 20
48.851282552928069
 30
0.0
 11
1630.0470072332871
 21
48.192932552927907
 31
0.0
  0
LINE
  5
8C12
  8
DEFPOINTS
  6
CONTINUOUS
 10
1640.1059022332879
 20
48.851282552928069
 30
0.0
 11
1640.1059022332879
 21
48.192932552927907
 31
0.0
  0
LINE
  5
8C13
  8
DEFPOINTS
  6
CONTINUOUS
 10
1615.856099733285
 20
48.851282552928069
 30
0.0
 11
1615.856099733285
 21
48.192932552927907
 31
0.0
  0
LINE
  5
8C14
  8
DEFPOINTS
  6
CONTINUOUS
 10
1619.7784797332861
 20
48.851282552928069
 30
0.0
 11
1619.7784797332861
 21
48.192932552927907
 31
0.0
  0
LINE
  5
8C15
  8
DEFPOINTS
  6
CONTINUOUS
 10
1612.9073847332861
 20
48.851282552928069
 30
0.0
 11
1612.907384733287
 21
48.192932552927907
 31
0.0
  0
LINE
  5
8C16
  8
DEFPOINTS
  6
CONTINUOUS
 10
1615.523459733286
 20
48.851282552928069
 30
0.0
 11
1615.5234597332869
 21
48.192932552927907
 31
0.0
  0
LINE
  5
8C17
  8
DEFPOINTS
  6
CONTINUOUS
 10
1600.9964844902861
 20
48.851282552928069
 30
0.0
 11
1600.9964844902861
 21
48.192932552927907
 31
0.0
  0
LINE
  5
8C18
  8
DEFPOINTS
  6
CONTINUOUS
 10
1607.0186544902861
 20
48.851282552928069
 30
0.0
 11
1607.0186544902861
 21
48.192932552927907
 31
0.0
  0
LINE
  5
8C19
  8
DEFPOINTS
  6
CONTINUOUS
 10
1596.2528994902859
 20
48.851282552928069
 30
0.0
 11
1596.2528994902859
 21
48.192932552927907
 31
0.0
  0
LINE
  5
8C1A
  8
DEFPOINTS
  6
CONTINUOUS
 10
1600.611869490285
 20
48.851282552928069
 30
0.0
 11
1600.6118694902871
 21
48.192932552927907
 31
0.0
  0
LINE
  5
8C1B
  8
DEFPOINTS
  6
CONTINUOUS
 10
1584.3956322332849
 20
48.851282552928069
 30
0.0
 11
1584.3956322332849
 21
48.192932552927907
 31
0.0
  0
LINE
  5
8C1C
  8
DEFPOINTS
  6
CONTINUOUS
 10
1590.4680447332869
 20
48.851282552928069
 30
0.0
 11
1590.4680447332869
 21
48.192932552927907
 31
0.0
  0
LINE
  5
8C1D
  8
DEFPOINTS
  6
CONTINUOUS
 10
1579.7871822332861
 20
48.851282552928069
 30
0.0
 11
1579.7871822332861
 21
48.192932552927907
 31
0.0
  0
LINE
  5
8C1E
  8
DEFPOINTS
  6
CONTINUOUS
 10
1583.979832233287
 20
48.851282552928069
 30
0.0
 11
1583.979832233287
 21
48.192932552927907
 31
0.0
  0
LINE
  5
8C1F
  8
DEFPOINTS
  6
CONTINUOUS
 10
1638.054622233286
 20
48.192932552927907
 30
0.0
 11
1638.054622233286
 21
47.577895052928397
 31
0.0
  0
LINE
  5
8C20
  8
DEFPOINTS
  6
CONTINUOUS
 10
1640.1059022332879
 20
48.192932552927907
 30
0.0
 11
1640.105902233287
 21
47.577895052928397
 31
0.0
  0
LINE
  5
8C21
  8
DEFPOINTS
  6
CONTINUOUS
 10
1634.0560122332849
 20
48.192932552927907
 30
0.0
 11
1634.0560122332849
 21
47.577895052928397
 31
0.0
  0
LINE
  5
8C22
  8
DEFPOINTS
  6
CONTINUOUS
 10
1635.9790872332851
 20
48.192932552927907
 30
0.0
 11
1635.9790872332881
 21
47.577895052928397
 31
0.0
  0
LINE
  5
8C23
  8
DEFPOINTS
  6
CONTINUOUS
 10
1630.0470072332871
 20
48.192932552927907
 30
0.0
 11
1630.0470072332871
 21
47.577895052928397
 31
0.0
  0
LINE
  5
8C24
  8
DEFPOINTS
  6
CONTINUOUS
 10
1632.0844272332879
 20
48.192932552927907
 30
0.0
 11
1632.0844272332879
 21
47.577895052928397
 31
0.0
  0
LINE
  5
8C25
  8
DEFPOINTS
  6
CONTINUOUS
 10
1618.160324733288
 20
48.192932552927907
 30
0.0
 11
1618.160324733288
 21
47.198477552928118
 31
0.0
  0
LINE
  5
8C26
  8
DEFPOINTS
  6
CONTINUOUS
 10
1619.7784797332861
 20
48.192932552927907
 30
0.0
 11
1619.7784797332861
 21
47.198477552928118
 31
0.0
  0
LINE
  5
8C27
  8
DEFPOINTS
  6
CONTINUOUS
 10
1615.856099733285
 20
48.192932552927907
 30
0.0
 11
1615.856099733285
 21
47.198477552928118
 31
0.0
  0
LINE
  5
8C28
  8
DEFPOINTS
  6
CONTINUOUS
 10
1617.5227647332849
 20
48.192932552927907
 30
0.0
 11
1617.5227647332881
 21
47.198477552928118
 31
0.0
  0
LINE
  5
8C29
  8
DEFPOINTS
  6
CONTINUOUS
 10
1597.663154490285
 20
48.192932552927907
 30
0.0
 11
1597.663154490288
 21
47.198477552928118
 31
0.0
  0
LINE
  5
8C2A
  8
DEFPOINTS
  6
CONTINUOUS
 10
1599.534254490286
 20
48.192932552927907
 30
0.0
 11
1599.534254490286
 21
47.198477552928118
 31
0.0
  0
LINE
  5
8C2B
  8
DEFPOINTS
  6
CONTINUOUS
 10
1630.0470072332871
 20
47.577895052928397
 30
0.0
 11
1630.0470072332871
 21
46.902220052928662
 31
0.0
  0
LINE
  5
8C2C
  8
DEFPOINTS
  6
CONTINUOUS
 10
1640.105902233287
 20
47.577895052928397
 30
0.0
 11
1640.105902233287
 21
46.902220052928662
 31
0.0
  0
LINE
  5
8C2D
  8
DEFPOINTS
  6
CONTINUOUS
 10
1615.856099733285
 20
47.198477552928118
 30
0.0
 11
1615.856099733285
 21
46.529732552928628
 31
0.0
  0
LINE
  5
8C2E
  8
DEFPOINTS
  6
CONTINUOUS
 10
1619.7784797332861
 20
47.198477552928118
 30
0.0
 11
1619.7784797332861
 21
46.529732552928628
 31
0.0
  0
LINE
  5
8C2F
  8
DEFPOINTS
  6
CONTINUOUS
 10
1612.907384733287
 20
47.198477552928118
 30
0.0
 11
1612.907384733287
 21
46.529732552928628
 31
0.0
  0
LINE
  5
8C30
  8
DEFPOINTS
  6
CONTINUOUS
 10
1615.5234597332869
 20
47.198477552928118
 30
0.0
 11
1615.523459733286
 21
46.529732552928628
 31
0.0
  0
LINE
  5
8C31
  8
DEFPOINTS
  6
CONTINUOUS
 10
1596.2528994902859
 20
47.198477552928118
 30
0.0
 11
1596.252899490288
 21
46.529732552928628
 31
0.0
  0
LINE
  5
8C32
  8
DEFPOINTS
  6
CONTINUOUS
 10
1600.611869490285
 20
47.198477552928118
 30
0.0
 11
1600.611869490285
 21
46.529732552928628
 31
0.0
  0
LINE
  5
8C33
  8
DEFPOINTS
  6
CONTINUOUS
 10
1588.5363072332871
 20
48.192932552927907
 30
0.0
 11
1588.536993333285
 21
46.401527552928663
 31
0.0
  0
LINE
  5
8C34
  8
DEFPOINTS
  6
CONTINUOUS
 10
1590.4680447332869
 20
48.192932552927907
 30
0.0
 11
1590.4680447332869
 21
46.401527552928663
 31
0.0
  0
LINE
  5
8C35
  8
DEFPOINTS
  6
CONTINUOUS
 10
1588.536993333285
 20
46.401527552928663
 30
0.0
 11
1587.86478333329
 21
46.377272552928162
 31
0.0
  0
LINE
  5
8C36
  8
DEFPOINTS
  6
CONTINUOUS
 10
1590.4680447332869
 20
46.401527552928663
 30
0.0
 11
1590.4680447332869
 21
46.377272552928162
 31
0.0
  0
LINE
  5
8C37
  8
DEFPOINTS
  6
CONTINUOUS
 10
1630.0470072332871
 20
46.529732552928628
 30
0.0
 11
1630.0470072332871
 21
45.892172552928507
 31
0.0
  0
LINE
  5
8C38
  8
DEFPOINTS
  6
CONTINUOUS
 10
1640.105902233287
 20
46.529732552928628
 30
0.0
 11
1640.105902233287
 21
45.892172552928507
 31
0.0
  0
LINE
  5
8C39
  8
DEFPOINTS
  6
CONTINUOUS
 10
1597.663154490285
 20
46.529732552928628
 30
0.0
 11
1597.125329294531
 21
45.836732552927963
 31
0.0
  0
LINE
  5
8C3A
  8
DEFPOINTS
  6
CONTINUOUS
 10
1599.534254490286
 20
46.529732552928628
 30
0.0
 11
1600.6256922332859
 21
45.836732552927963
 31
0.0
  0
LINE
  5
8C3B
  8
DEFPOINTS
  6
CONTINUOUS
 10
1618.160324733286
 20
46.529732552928628
 30
0.0
 11
1618.160324733286
 21
45.80901255292838
 31
0.0
  0
LINE
  5
8C3C
  8
DEFPOINTS
  6
CONTINUOUS
 10
1619.7784797332861
 20
46.529732552928628
 30
0.0
 11
1619.7784797332861
 21
45.80901255292838
 31
0.0
  0
LINE
  5
8C3D
  8
DEFPOINTS
  6
CONTINUOUS
 10
1615.856099733285
 20
46.529732552928628
 30
0.0
 11
1615.856099733285
 21
45.80901255292838
 31
0.0
  0
LINE
  5
8C3E
  8
DEFPOINTS
  6
CONTINUOUS
 10
1617.5227647332861
 20
46.529732552928628
 30
0.0
 11
1617.5227647332881
 21
45.80901255292838
 31
0.0
  0
LINE
  5
8C3F
  8
DEFPOINTS
  6
CONTINUOUS
 10
1582.2819822332899
 20
48.192932552927907
 30
0.0
 11
1582.281982233286
 21
45.80901255292838
 31
0.0
  0
LINE
  5
8C40
  8
DEFPOINTS
  6
CONTINUOUS
 10
1583.979832233287
 20
48.192932552927907
 30
0.0
 11
1583.979832233287
 21
45.80901255292838
 31
0.0
  0
LINE
  5
8C41
  8
DEFPOINTS
  6
CONTINUOUS
 10
1579.7871822332861
 20
48.192932552927907
 30
0.0
 11
1579.7871822332861
 21
45.80901255292838
 31
0.0
  0
LINE
  5
8C42
  8
DEFPOINTS
  6
CONTINUOUS
 10
1581.516217233285
 20
48.192932552927907
 30
0.0
 11
1581.516217233285
 21
45.80901255292838
 31
0.0
  0
LINE
  5
8C43
  8
DEFPOINTS
  6
CONTINUOUS
 10
1587.86478333329
 20
46.377272552928162
 30
0.0
 11
1588.0408122332899
 21
45.680807552928393
 31
0.0
  0
LINE
  5
8C44
  8
DEFPOINTS
  6
CONTINUOUS
 10
1590.4680447332869
 20
46.377272552928162
 30
0.0
 11
1590.4680447332869
 21
45.680807552928393
 31
0.0
  0
LINE
  5
8C45
  8
DEFPOINTS
  6
CONTINUOUS
 10
1585.584164490286
 20
48.192932552927907
 30
0.0
 11
1584.3956322332881
 21
45.680807552928393
 31
0.0
  0
LINE
  5
8C46
  8
DEFPOINTS
  6
CONTINUOUS
 10
1587.7463244902849
 20
48.192932552927907
 30
0.0
 11
1586.5577922332841
 21
45.680807552928393
 31
0.0
  0
LINE
  5
8C47
  8
DEFPOINTS
  6
CONTINUOUS
 10
1634.0560122332849
 20
45.892172552928507
 30
0.0
 11
1634.0560122332849
 21
45.273670052927848
 31
0.0
  0
LINE
  5
8C48
  8
DEFPOINTS
  6
CONTINUOUS
 10
1635.9790872332851
 20
45.892172552928507
 30
0.0
 11
1635.9790872332851
 21
45.273670052927848
 31
0.0
  0
LINE
  5
8C49
  8
DEFPOINTS
  6
CONTINUOUS
 10
1615.856099733285
 20
45.80901255292838
 30
0.0
 11
1615.856099733285
 21
45.091757552928577
 31
0.0
  0
LINE
  5
8C4A
  8
DEFPOINTS
  6
CONTINUOUS
 10
1619.7784797332861
 20
45.80901255292838
 30
0.0
 11
1619.7784797332861
 21
45.091757552928577
 31
0.0
  0
LINE
  5
8C4B
  8
DEFPOINTS
  6
CONTINUOUS
 10
1579.7871822332861
 20
45.80901255292838
 30
0.0
 11
1579.7871822332861
 21
45.091757552928577
 31
0.0
  0
LINE
  5
8C4C
  8
DEFPOINTS
  6
CONTINUOUS
 10
1583.979832233287
 20
45.80901255292838
 30
0.0
 11
1583.979832233287
 21
45.091757552928577
 31
0.0
  0
LINE
  5
8C4D
  8
DEFPOINTS
  6
CONTINUOUS
 10
1597.125329294531
 20
45.836732552927963
 30
0.0
 11
1596.270187233285
 21
44.734862552928917
 31
0.0
  0
LINE
  5
8C4E
  8
DEFPOINTS
  6
CONTINUOUS
 10
1600.6256922332859
 20
45.836732552927963
 30
0.0
 11
1600.6265443999921
 21
44.734862552928917
 31
0.0
  0
LINE
  5
8C4F
  8
DEFPOINTS
  6
CONTINUOUS
 10
1629.637991118288
 20
45.273670052927848
 30
0.0
 11
1629.637991118288
 21
44.639575052927512
 31
0.0
  0
LINE
  5
8C50
  8
DEFPOINTS
  6
CONTINUOUS
 10
1640.414287233285
 20
45.273670052927848
 30
0.0
 11
1640.414287233285
 21
44.639575052927512
 31
0.0
  0
LINE
  5
8C51
  8
DEFPOINTS
  6
CONTINUOUS
 10
1596.270187233285
 20
44.734862552928917
 30
0.0
 11
1596.2702978200639
 21
44.515027027238141
 31
0.0
  0
LINE
  5
8C52
  8
DEFPOINTS
  6
CONTINUOUS
 10
1600.6265443999921
 20
44.734862552928917
 30
0.0
 11
1600.6267144168869
 21
44.515027027238141
 31
0.0
  0
LINE
  5
8C53
  8
DEFPOINTS
  6
CONTINUOUS
 10
1618.160324733286
 20
45.091757552928577
 30
0.0
 11
1618.160324733286
 21
44.402222552928372
 31
0.0
  0
LINE
  5
8C54
  8
DEFPOINTS
  6
CONTINUOUS
 10
1619.7784797332861
 20
45.091757552928577
 30
0.0
 11
1619.7784797332861
 21
44.402222552928372
 31
0.0
  0
LINE
  5
8C55
  8
DEFPOINTS
  6
CONTINUOUS
 10
1615.856099733285
 20
45.091757552928577
 30
0.0
 11
1615.856099733285
 21
44.402222552928372
 31
0.0
  0
LINE
  5
8C56
  8
DEFPOINTS
  6
CONTINUOUS
 10
1617.5227647332831
 20
45.091757552928577
 30
0.0
 11
1617.5227647332861
 21
44.402222552928372
 31
0.0
  0
LINE
  5
8C57
  8
DEFPOINTS
  6
CONTINUOUS
 10
1584.3956322332849
 20
45.091757552928577
 30
0.0
 11
1584.3956322332849
 21
44.3987575529286
 31
0.0
  0
LINE
  5
8C58
  8
DEFPOINTS
  6
CONTINUOUS
 10
1590.4680447332869
 20
45.091757552928577
 30
0.0
 11
1590.4680447332869
 21
44.3987575529286
 31
0.0
  0
LINE
  5
8C59
  8
DEFPOINTS
  6
CONTINUOUS
 10
1600.627234631555
 20
43.842378199152563
 30
0.0
 11
1600.6272511362949
 21
43.821037213765287
 31
0.0
  0
LINE
  5
8C5A
  8
DEFPOINTS
  6
CONTINUOUS
 10
1600.6272511362949
 20
43.821037213765287
 30
0.0
 11
1600.593640231642
 21
43.842378199152563
 31
0.0
  0
LINE
  5
8C5B
  8
DEFPOINTS
  6
CONTINUOUS
 10
1599.534254490286
 20
44.515027027238141
 30
0.0
 11
1600.593640231642
 21
43.842378199152563
 31
0.0
  0
LINE
  5
8C5C
  8
DEFPOINTS
  6
CONTINUOUS
 10
1600.6267144168869
 20
44.515027027238141
 30
0.0
 11
1600.627234631555
 21
43.842378199152563
 31
0.0
  0
LINE
  5
8C5D
  8
DEFPOINTS
  6
CONTINUOUS
 10
1596.2702978200639
 20
44.515027027238141
 30
0.0
 11
1596.2706361915209
 21
43.842378199152563
 31
0.0
  0
LINE
  5
8C5E
  8
DEFPOINTS
  6
CONTINUOUS
 10
1599.534254490286
 20
44.515027027238141
 30
0.0
 11
1599.534254490286
 21
43.842378199152563
 31
0.0
  0
LINE
  5
8C5F
  8
DEFPOINTS
  6
CONTINUOUS
 10
1599.534254490286
 20
43.842378199152563
 30
0.0
 11
1599.534254490286
 21
43.821037213765287
 31
0.0
  0
LINE
  5
8C60
  8
DEFPOINTS
  6
CONTINUOUS
 10
1596.2706361915209
 20
43.842378199152563
 30
0.0
 11
1596.2706469269599
 21
43.821037213765287
 31
0.0
  0
LINE
  5
8C61
  8
DEFPOINTS
  6
CONTINUOUS
 10
1620.034889733286
 20
48.851282552928069
 30
0.0
 11
1620.034889733286
 21
43.684967552927901
 31
0.0
  0
LINE
  5
8C62
  8
DEFPOINTS
  6
CONTINUOUS
 10
1621.597604733287
 20
48.851282552928069
 30
0.0
 11
1621.597604733287
 21
43.684967552927901
 31
0.0
  0
LINE
  5
8C63
  8
DEFPOINTS
  6
CONTINUOUS
 10
1615.856099733285
 20
44.402222552928372
 30
0.0
 11
1615.856099733285
 21
43.684967552927901
 31
0.0
  0
LINE
  5
8C64
  8
DEFPOINTS
  6
CONTINUOUS
 10
1619.7784797332861
 20
44.402222552928372
 30
0.0
 11
1619.7784797332861
 21
43.684967552927901
 31
0.0
  0
LINE
  5
8C65
  8
DEFPOINTS
  6
CONTINUOUS
 10
1616.200904940287
 20
43.684967552927901
 30
0.0
 11
1616.1890945968389
 21
43.663532147927967
 31
0.0
  0
LINE
  5
8C66
  8
DEFPOINTS
  6
CONTINUOUS
 10
1619.5490802812881
 20
43.684967552927901
 30
0.0
 11
1619.563200933846
 21
43.663532147927967
 31
0.0
  0
LINE
  5
8C67
  8
DEFPOINTS
  6
CONTINUOUS
 10
1629.637991118286
 20
44.13888255292818
 30
0.0
 11
1629.637991118286
 21
43.532507552928777
 31
0.0
  0
LINE
  5
8C68
  8
DEFPOINTS
  6
CONTINUOUS
 10
1640.414287233285
 20
44.13888255292818
 30
0.0
 11
1640.4142872332859
 21
43.532507552928777
 31
0.0
  0
LINE
  5
8C69
  8
DEFPOINTS
  6
CONTINUOUS
 10
1622.024996040285
 20
48.851282552928069
 30
0.0
 11
1622.024996040285
 21
42.752882552927517
 31
0.0
  0
LINE
  5
8C6A
  8
DEFPOINTS
  6
CONTINUOUS
 10
1623.691661040288
 20
48.851282552928069
 30
0.0
 11
1623.691661040287
 21
42.752882552927517
 31
0.0
  0
LINE
  5
8C6B
  8
DEFPOINTS
  6
CONTINUOUS
 10
1605.019349490289
 20
48.192932552927907
 30
0.0
 11
1605.019349490286
 21
42.752882552927517
 31
0.0
  0
LINE
  5
8C6C
  8
DEFPOINTS
  6
CONTINUOUS
 10
1607.0186544902861
 20
48.192932552927907
 30
0.0
 11
1607.0186544902861
 21
42.752882552927517
 31
0.0
  0
LINE
  5
8C6D
  8
DEFPOINTS
  6
CONTINUOUS
 10
1600.9964844902861
 20
48.192932552927907
 30
0.0
 11
1600.9964844902861
 21
42.752882552927517
 31
0.0
  0
LINE
  5
8C6E
  8
DEFPOINTS
  6
CONTINUOUS
 10
1602.9438144902861
 20
48.192932552927907
 30
0.0
 11
1602.9438144902881
 21
42.752882552927517
 31
0.0
  0
LINE
  5
8C6F
  8
DEFPOINTS
  6
CONTINUOUS
 10
1588.5363072332871
 20
44.3987575529286
 30
0.0
 11
1588.5363072332871
 21
42.752882552927517
 31
0.0
  0
LINE
  5
8C70
  8
DEFPOINTS
  6
CONTINUOUS
 10
1590.4680447332869
 20
44.3987575529286
 30
0.0
 11
1590.4680447332869
 21
42.752882552927517
 31
0.0
  0
LINE
  5
8C71
  8
DEFPOINTS
  6
CONTINUOUS
 10
1584.3956322332849
 20
44.3987575529286
 30
0.0
 11
1584.3956322332849
 21
42.752882552927517
 31
0.0
  0
LINE
  5
8C72
  8
DEFPOINTS
  6
CONTINUOUS
 10
1586.3793447332871
 20
44.3987575529286
 30
0.0
 11
1586.379344733288
 21
42.752882552927517
 31
0.0
  0
LINE
  5
8C73
  8
DEFPOINTS
  6
CONTINUOUS
 10
1582.281982233286
 20
45.091757552928577
 30
0.0
 11
1582.281982233286
 21
42.752882552927517
 31
0.0
  0
LINE
  5
8C74
  8
DEFPOINTS
  6
CONTINUOUS
 10
1583.979832233287
 20
45.091757552928577
 30
0.0
 11
1583.979832233287
 21
42.752882552927517
 31
0.0
  0
LINE
  5
8C75
  8
DEFPOINTS
  6
CONTINUOUS
 10
1579.7871822332861
 20
45.091757552928577
 30
0.0
 11
1579.7871822332861
 21
42.752882552927517
 31
0.0
  0
LINE
  5
8C76
  8
DEFPOINTS
  6
CONTINUOUS
 10
1581.5162172332871
 20
45.091757552928577
 30
0.0
 11
1581.5162172332871
 21
42.752882552927517
 31
0.0
  0
LINE
  5
8C77
  8
DEFPOINTS
  6
CONTINUOUS
 10
1596.716773722625
 20
42.622945052928337
 30
0.0
 11
1596.2715382130889
 21
42.049248971226227
 31
0.0
  0
LINE
  5
8C78
  8
DEFPOINTS
  6
CONTINUOUS
 10
1596.2715382130889
 20
42.049248971226227
 30
0.0
 11
1596.271249619143
 21
42.622945052928337
 31
0.0
  0
LINE
  5
8C79
  8
DEFPOINTS
  6
CONTINUOUS
 10
1638.491212233288
 20
43.532507552928777
 30
0.0
 11
1638.4912122332851
 21
42.622945052928337
 31
0.0
  0
LINE
  5
8C7A
  8
DEFPOINTS
  6
CONTINUOUS
 10
1640.4142872332859
 20
43.532507552928777
 30
0.0
 11
1640.414287233287
 21
42.622945052928337
 31
0.0
  0
LINE
  5
8C7B
  8
DEFPOINTS
  6
CONTINUOUS
 10
1634.0560122332849
 20
43.532507552928777
 30
0.0
 11
1634.0560122332879
 21
42.622945052928337
 31
0.0
  0
LINE
  5
8C7C
  8
DEFPOINTS
  6
CONTINUOUS
 10
1635.9790872332851
 20
43.532507552928777
 30
0.0
 11
1635.9790872332851
 21
42.622945052928337
 31
0.0
  0
LINE
  5
8C7D
  8
DEFPOINTS
  6
CONTINUOUS
 10
1629.637991118286
 20
43.532507552928777
 30
0.0
 11
1629.637991118286
 21
42.622945052928337
 31
0.0
  0
LINE
  5
8C7E
  8
DEFPOINTS
  6
CONTINUOUS
 10
1631.5716072332871
 20
43.532507552928777
 30
0.0
 11
1631.5716072332871
 21
42.622945052928337
 31
0.0
  0
LINE
  5
8C7F
  8
DEFPOINTS
  6
CONTINUOUS
 10
1596.2706469269599
 20
43.821037213765287
 30
0.0
 11
1596.271249619143
 21
42.622945052928337
 31
0.0
  0
LINE
  5
8C80
  8
DEFPOINTS
  6
CONTINUOUS
 10
1597.64659212424
 20
43.821037213765287
 30
0.0
 11
1596.716773722625
 21
42.622945052928337
 31
0.0
  0
LINE
  5
8C81
  8
DEFPOINTS
  6
CONTINUOUS
 10
1629.637991118286
 20
42.622945052928337
 30
0.0
 11
1629.637991118286
 21
42.025232552928401
 31
0.0
  0
LINE
  5
8C82
  8
DEFPOINTS
  6
CONTINUOUS
 10
1640.414287233287
 20
42.622945052928337
 30
0.0
 11
1640.414287233287
 21
42.025232552928401
 31
0.0
  0
LINE
  5
8C83
  8
DEFPOINTS
  6
CONTINUOUS
 10
1621.2397895192869
 20
42.752882552927517
 30
0.0
 11
1621.499834931288
 21
42.025232552928401
 31
0.0
  0
LINE
  5
8C84
  8
DEFPOINTS
  6
CONTINUOUS
 10
1623.691661040287
 20
42.752882552927517
 30
0.0
 11
1623.691661040287
 21
42.025232552928401
 31
0.0
  0
LINE
  5
8C85
  8
DEFPOINTS
  6
CONTINUOUS
 10
1617.835811040288
 20
43.663532147927967
 30
0.0
 11
1618.915046973287
 21
42.025232552928401
 31
0.0
  0
LINE
  5
8C86
  8
DEFPOINTS
  6
CONTINUOUS
 10
1619.563200933846
 20
43.663532147927967
 30
0.0
 11
1620.6424368692869
 21
42.025232552928401
 31
0.0
  0
LINE
  5
8C87
  8
DEFPOINTS
  6
CONTINUOUS
 10
1616.1890945968389
 20
43.663532147927967
 30
0.0
 11
1615.2864346802839
 21
42.025232552928401
 31
0.0
  0
LINE
  5
8C88
  8
DEFPOINTS
  6
CONTINUOUS
 10
1617.835811040288
 20
43.663532147927967
 30
0.0
 11
1616.9331511250141
 21
42.025232552928401
 31
0.0
  0
LINE
  5
8C89
  8
DEFPOINTS
  6
CONTINUOUS
 10
1613.805027519287
 20
45.351632552928997
 30
0.0
 11
1612.907384733287
 21
42.025232552928401
 31
0.0
  0
LINE
  5
8C8A
  8
DEFPOINTS
  6
CONTINUOUS
 10
1615.523459733284
 20
45.351632552928997
 30
0.0
 11
1614.625816944287
 21
42.025232552928401
 31
0.0
  0
LINE
  5
8C8B
  8
DEFPOINTS
  6
CONTINUOUS
 10
1600.9964844902861
 20
42.752882552927517
 30
0.0
 11
1600.9964844902861
 21
42.025232552928401
 31
0.0
  0
LINE
  5
8C8C
  8
DEFPOINTS
  6
CONTINUOUS
 10
1607.0186544902861
 20
42.752882552927517
 30
0.0
 11
1607.0186544902861
 21
42.025232552928401
 31
0.0
  0
LINE
  5
8C8D
  8
DEFPOINTS
  6
CONTINUOUS
 10
1597.663154490283
 20
43.821037213765287
 30
0.0
 11
1597.663154490288
 21
42.025232552928401
 31
0.0
  0
LINE
  5
8C8E
  8
DEFPOINTS
  6
CONTINUOUS
 10
1599.534254490286
 20
43.821037213765287
 30
0.0
 11
1599.5342544902851
 21
42.025232552928401
 31
0.0
  0
LINE
  5
8C8F
  8
DEFPOINTS
  6
CONTINUOUS
 10
1584.3956322332849
 20
42.752882552927517
 30
0.0
 11
1584.3956322332849
 21
42.025232552928401
 31
0.0
  0
LINE
  5
8C90
  8
DEFPOINTS
  6
CONTINUOUS
 10
1590.4680447332869
 20
42.752882552927517
 30
0.0
 11
1590.4680447332869
 21
42.025232552928401
 31
0.0
  0
LINE
  5
8C91
  8
DEFPOINTS
  6
CONTINUOUS
 10
1579.7871822332861
 20
42.752882552927517
 30
0.0
 11
1579.7871822332861
 21
42.025232552928401
 31
0.0
  0
LINE
  5
8C92
  8
DEFPOINTS
  6
CONTINUOUS
 10
1583.979832233287
 20
42.752882552927517
 30
0.0
 11
1583.979832233287
 21
42.025232552928401
 31
0.0
  0
ENDBLK
  5
8C94
  8
0
  0
BLOCK
  8
0
  2
*U57
 70
     1
 10
0.0
 20
0.0
 30
0.0
  3
*U57
  1

  0
TEXT
  5
8D0F
  8
002寸法
 62
     2
 10
7.1499999999999986
 20
7.9282032302754706
 30
0.0
 40
3.0
  1
G
 41
0.9
  0
ENDBLK
  5
8D11
  8
0
  0
BLOCK
  8
0
  2
*U58
 70
     1
 10
0.0
 20
0.0
 30
0.0
  3
*U58
  1

  0
TEXT
  5
8D1E
  8
003注釈
 10
1671.0
 20
101.9999999999997
 30
0.0
 40
9.0
  1
外観図
 41
0.9
  0
ENDBLK
  5
8D20
  8
0
  0
BLOCK
  8
0
  2
*U59
 70
     1
 10
0.0
 20
0.0
 30
0.0
  3
*U59
  1

  0
TEXT
  5
8D22
  8
003注釈
 10
1669.457142857143
 20
36.0
 30
0.0
 40
9.0
  1
I-0103-A012-2
 41
0.9
  0
ENDBLK
  5
8D24
  8
0
  0
BLOCK
  8
0
  2
*U60
 70
     1
 10
0.0
 20
0.0
 30
0.0
  3
*U60
  1

  0
TEXT
  5
8D26
  8
003注釈
 10
1670.6142857142861
 20
68.999999999999744
 30
0.0
 40
9.0
  1
TQP-20KNB
 41
0.9
  0
ENDBLK
  5
8D28
  8
0
  0
BLOCK
  8
0
  2
*U61
 70
     1
 10
0.0
 20
0.0
 30
0.0
  3
*U61
  1

  0
TEXT
  5
8D2A
  8
003注釈
 10
1620.557142857142
 20
109.9999999999993
 30
0.0
 40
6.0
  1
2016.
 41
0.9
  0
TEXT
  5
8D2B
  8
003注釈
 10
1620.3
 20
99.999999999999318
 30
0.0
 40
6.0
  1
07.14
 41
0.9
  0
ENDBLK
  5
8D2D
  8
0
  0
BLOCK
  8
0
  2
*U62
 70
     1
 10
0.0
 20
0.0
 30
0.0
  3
*U62
  1

  0
TEXT
  5
8D2F
  8
003注釈
 10
1423.6071428571429
 20
70.499999999999318
 30
0.0
 40
9.0
  1
1  3
 41
0.9
  0
ENDBLK
  5
8D31
  8
0
  0
BLOCK
  8
0
  2
*U63
 70
     1
 10
0.0
 20
0.0
 30
0.0
  3
*U63
  1

  0
TEXT
  5
8D33
  8
003注釈
 10
1623.3599999999999
 20
70.499999999999318
 30
0.0
 40
9.0
  1
益子
 41
0.9
  0
ENDBLK
  5
8D35
  8
0
  0
BLOCK
  8
0
  2
*U64
 70
     1
 10
0.0
 20
0.0
 30
0.0
  3
*U64
  1

  0
TEXT
  5
8D37
  8
003注釈
 10
1594.0
 20
259.28571428571428
 30
0.0
 40
9.0
  1
負荷方向　　：時計回り(-)/反時計回り(+)
 41
0.9
  0
TEXT
  5
8D38
  8
003注釈
 10
1594.0
 20
234.42857142857139
 30
0.0
 40
9.0
  1
使用キー寸法：32
 41
0.9
  0
TEXT
  5
8D39
  8
003注釈
 10
1677.468571428572
 20
240.42857142857139
 30
0.0
 40
4.5
  1
 0
 41
0.9
  0
TEXT
  5
8D3A
  8
003注釈
 10
1676.697142857143
 20
234.42857142857139
 30
0.0
 40
4.5
  1
-0.062
 41
0.9
  0
TEXT
  5
8D3B
  8
003注釈
 10
1699.068571428571
 20
234.42857142857139
 30
0.0
 40
9.0
  1
 \U+00D7 20
 41
0.9
  0
TEXT
  5
8D3C
  8
003注釈
 10
1740.4171428571431
 20
240.42857142857139
 30
0.0
 40
4.5
  1
 0
 41
0.9
  0
TEXT
  5
8D3D
  8
003注釈
 10
1739.6457142857139
 20
234.42857142857139
 30
0.0
 40
4.5
  1
-0.130
 41
0.9
  0
ENDBLK
  5
8D3F
  8
0
  0
BLOCK
  8
0
  2
*U65
 70
     1
 10
0.0
 20
0.0
 30
0.0
  3
*U65
  1

  0
TEXT
  5
8D45
  8
003注釈
 10
1386.0
 20
54.0
 30
0.0
 40
6.0
  1
来歴
 50
90.0
 41
0.9
  0
TEXT
  5
8D46
  8
003注釈
 10
1395.0
 20
52.971428571428568
 30
0.0
 40
6.0
  1
I-0103-A012
 50
90.0
 41
0.9
  0
ENDBLK
  5
8D48
  8
0
  0
BLOCK
  8
0
  2
*U66
 70
     1
 10
0.0
 20
0.0
 30
0.0
  3
*U66
  1

  0
TEXT
  5
8D4A
  8
003注釈
 10
1385.892304845413
 20
123.55714285714291
 30
0.0
 40
6.0
  1
2016.
 50
90.0
 41
0.9
  0
TEXT
  5
8D4B
  8
003注釈
 10
1394.892304845413
 20
123.3
 30
0.0
 40
6.0
  1
07.14
 50
90.0
 41
0.9
  0
ENDBLK
  5
8D4D
  8
0
  0
BLOCK
  8
0
  2
*U67
 70
     1
 10
0.0
 20
0.0
 30
0.0
  3
*U67
  1

  0
TEXT
  5
8D63
  8
002寸法
 62
     2
 10
887.0
 20
561.37714285714287
 30
0.0
 40
6.0
  1
\U+03C6135h7
 50
90.0
 41
0.9
  0
ENDBLK
  5
8D65
  8
0
  0
BLOCK
  8
0
  2
*U68
 70
     1
 10
0.0
 20
0.0
 30
0.0
  3
*U68
  1

  0
TEXT
  5
8D67
  8
002寸法
 62
     2
 10
1259.0
 20
561.37714285714287
 30
0.0
 40
6.0
  1
\U+03C6135h7
 50
90.0
 41
0.9
  0
ENDBLK
  5
8D69
  8
0
  0
BLOCK
  8
0
  2
*U69
 70
     1
 10
0.0
 20
0.0
 30
0.0
  3
*U69
  1

  0
TEXT
  5
8D6B
  8
002寸法
 62
     2
 10
1710.5
 20
562.28571428571411
 30
0.0
 40
6.0
  1
297
 50
90.0
 41
0.9
  0
ENDBLK
  5
8D6D
  8
0
  0
BLOCK
  8
0
  2
*U70
 70
     1
 10
0.0
 20
0.0
 30
0.0
  3
*U70
  1

  0
TEXT
  5
8D6F
  8
002寸法
 62
     2
 10
1770.5
 20
562.15714285714284
 30
0.0
 40
6.0
  1
324
 50
90.0
 41
0.9
  0
ENDBLK
  5
8D71
  8
0
  0
BLOCK
  8
0
  2
*U71
 70
     1
 10
0.0
 20
0.0
 30
0.0
  3
*U71
  1

  0
TEXT
  5
8D73
  8
002寸法
 62
     2
 10
1661.3571428571429
 20
748.0
 30
0.0
 40
6.0
  1
30
 41
0.9
  0
ENDBLK
  5
8D75
  8
0
  0
BLOCK
  8
0
  2
*U72
 70
     1
 10
0.0
 20
0.0
 30
0.0
  3
*U72
  1

  0
TEXT
  5
8D77
  8
002寸法
 62
     2
 10
1630.178571428572
 20
349.0
 30
0.0
 40
6.0
  1
307.5
 41
0.9
  0
ENDBLK
  5
8D79
  8
0
  0
BLOCK
  8
0
  2
*U73
 70
     1
 10
0.0
 20
0.0
 30
0.0
  3
*U73
  1

  0
TEXT
  5
8D7B
  8
002寸法
 62
     2
 10
1647.5
 20
542.46428571428612
 30
0.0
 40
6.0
  1
36
 50
90.0
 41
0.9
  0
TEXT
  5
8D7C
  8
002寸法
 62
     2
 10
1643.5
 20
552.75000000000045
 30
0.0
 40
3.0
  1
 0
 50
90.0
 41
0.9
  0
TEXT
  5
8D7D
  8
002寸法
 62
     2
 10
1647.5
 20
552.23571428571461
 30
0.0
 40
3.0
  1
-0.052
 50
90.0
 41
0.9
  0
ENDBLK
  5
8D7F
  8
0
  0
BLOCK
  8
0
  2
*U74
 70
     1
 10
0.0
 20
0.0
 30
0.0
  3
*U74
  1

  0
TEXT
  5
8D81
  8
002寸法
 62
     2
 10
1594.6500000000001
 20
700.0
 30
0.0
 40
6.0
  1
12
 41
0.9
  0
TEXT
  5
8D82
  8
002寸法
 62
     2
 10
1604.4214285714279
 20
704.0
 30
0.0
 40
3.0
  1
+0.2
 41
0.9
  0
TEXT
  5
8D83
  8
002寸法
 62
     2
 10
1604.9357142857141
 20
700.0
 30
0.0
 40
3.0
  1
 0
 41
0.9
  0
ENDBLK
  5
8D85
  8
0
  0
BLOCK
  8
0
  2
*U75
 70
     1
 10
0.0
 20
0.0
 30
0.0
  3
*U75
  1

  0
TEXT
  5
8D87
  8
002寸法
 62
     2
 10
1176.5
 20
566.39142857142849
 30
0.0
 40
6.0
  1
\U+03C6258
 50
90.0
 41
0.9
  0
ENDBLK
  5
8D89
  8
0
  0
BLOCK
  8
0
  2
*U76
 70
     1
 10
0.0
 20
0.0
 30
0.0
  3
*U76
  1

  0
TEXT
  5
8D8B
  8
002寸法
 62
     2
 10
999.85714285714232
 20
748.0
 30
0.0
 40
6.0
  1
30
 41
0.9
  0
ENDBLK
  5
8D8D
  8
0
  0
BLOCK
  8
0
  2
*U77
 70
     1
 10
0.0
 20
0.0
 30
0.0
  3
*U77
  1

  0
TEXT
  5
8D8F
  8
002寸法
 62
     2
 10
880.99999999999977
 20
697.97142857142887
 30
0.0
 40
6.0
  1
15
 50
90.0
 41
0.9
  0
ENDBLK
  5
8D91
  8
0
  0
BLOCK
  8
0
  2
*U78
 70
     1
 10
0.0
 20
0.0
 30
0.0
  3
*U78
  1

  0
TEXT
  5
8D93
  8
002寸法
 62
     2
 10
951.85714285714278
 20
351.25
 30
0.0
 40
6.0
  1
96
 41
0.9
  0
ENDBLK
  5
8D95
  8
0
  0
BLOCK
  8
0
  2
*U79
 70
     1
 10
0.0
 20
0.0
 30
0.0
  3
*U79
  1

  0
TEXT
  5
8D97
  8
002寸法
 62
     2
 10
767.29285714285709
 20
351.25
 30
0.0
 40
6.0
  1
172.5
 41
0.9
  0
ENDBLK
  5
8D99
  8
0
  0
BLOCK
  8
0
  2
*U80
 70
     1
 10
0.0
 20
0.0
 30
0.0
  3
*U80
  1

  0
TEXT
  5
8D9B
  8
002寸法
 62
     2
 10
861.90000000000032
 20
321.25
 30
0.0
 40
6.0
  1
6
 41
0.9
  0
ENDBLK
  5
8D9D
  8
0
  0
BLOCK
  8
0
  2
*U81
 70
     1
 10
0.0
 20
0.0
 30
0.0
  3
*U81
  1

  0
TEXT
  5
8D9F
  8
002寸法
 62
     2
 10
790.28571428571422
 20
291.25
 30
0.0
 40
6.0
  1
210
 41
0.9
  0
ENDBLK
  5
8DA1
  8
0
  0
BLOCK
  8
0
  2
*U82
 70
     1
 10
0.0
 20
0.0
 30
0.0
  3
*U82
  1

  0
TEXT
  5
8DA3
  8
002寸法
 62
     2
 10
1060.285714285714
 20
261.25
 30
0.0
 40
6.0
  1
750
 41
0.9
  0
ENDBLK
  5
8DA5
  8
0
  0
BLOCK
  8
0
  2
*U83
 70
     1
 10
0.0
 20
0.0
 30
0.0
  3
*U83
  1

  0
TEXT
  5
8DA7
  8
002寸法
 62
     2
 10
1344.792857142857
 20
351.25
 30
0.0
 40
6.0
  1
172.5
 41
0.9
  0
ENDBLK
  5
8DA9
  8
0
  0
BLOCK
  8
0
  2
*U84
 70
     1
 10
0.0
 20
0.0
 30
0.0
  3
*U84
  1

  0
TEXT
  5
8DAB
  8
002寸法
 62
     2
 10
1044.75
 20
351.25
 30
0.0
 40
6.0
  1
97.5
 41
0.9
  0
ENDBLK
  5
8DAD
  8
0
  0
BLOCK
  8
0
  2
*U85
 70
     1
 10
0.0
 20
0.0
 30
0.0
  3
*U85
  1

  0
TEXT
  5
8DAF
  8
002寸法
 62
     2
 10
993.79285714285709
 20
321.25
 30
0.0
 40
6.0
  1
193.5
 41
0.9
  0
ENDBLK
  5
8DB1
  8
0
  0
BLOCK
  8
0
  2
*U86
 70
     1
 10
0.0
 20
0.0
 30
0.0
  3
*U86
  1

  0
TEXT
  5
8DB3
  8
002寸法
 62
     2
 10
1159.028571428571
 20
321.25
 30
0.0
 40
6.0
  1
129
 41
0.9
  0
ENDBLK
  5
8DB5
  8
0
  0
BLOCK
  8
0
  2
*U87
 70
     1
 10
0.0
 20
0.0
 30
0.0
  3
*U87
  1

  0
TEXT
  5
8DB7
  8
002寸法
 62
     2
 10
1055.6785714285711
 20
291.25
 30
0.0
 40
6.0
  1
328.5
 41
0.9
  0
ENDBLK
  5
8DB9
  8
0
  0
BLOCK
  8
0
  2
*U88
 70
     1
 10
0.0
 20
0.0
 30
0.0
  3
*U88
  1

  0
TEXT
  5
8DBB
  8
002寸法
 62
     2
 10
1325.6785714285711
 20
291.25
 30
0.0
 40
6.0
  1
211.5
 41
0.9
  0
ENDBLK
  5
8DBD
  8
0
  0
BLOCK
  8
0
  2
*U89
 70
     1
 10
0.0
 20
0.0
 30
0.0
  3
*U89
  1

  0
INSERT
  5
8DD8
  8
002寸法
  2
_OPEN
 10
1002.035532546842
 20
720.03553526502265
 30
0.0
 41
7.5
 42
7.5
 43
7.5
 50
224.9999999999996
  0
POLYLINE
  5
8DD9
  8
002寸法
 66
     1
 10
0.0
 20
0.0
 30
0.0
  0
VERTEX
  5
8DDA
  8
002寸法
 10
1007.338833405741
 20
725.33883612392174
 30
0.0
  0
VERTEX
  5
8DDB
  8
002寸法
 10
1016.177668170573
 20
734.17767088875337
 30
0.0
  0
VERTEX
  5
8DDC
  8
002寸法
 10
1026.5115287013421
 20
744.51153141952261
 30
0.0
  0
SEQEND
  5
8DDD
  8
002寸法
  0
ENDBLK
  5
8DDF
  8
0
  0
BLOCK
  8
0
  2
*U90
 70
     1
 10
0.0
 20
0.0
 30
0.0
  3
*U90
  1

  0
TEXT
  5
8DE1
  8
002寸法
 62
     2
 10
1015.086703422457
 20
735.20802648419669
 30
0.0
 40
9.0
  1
R5
 50
45.0
 41
0.9
  0
ENDBLK
  5
8DE3
  8
0
  0
BLOCK
  8
0
  2
*U91
 70
     1
 10
0.0
 20
0.0
 30
0.0
  3
*U91
  1

  0
INSERT
  5
8DE5
  8
002寸法
  2
_OPEN
 10
984.96446609406735
 20
720.03553390593288
 30
0.0
 41
7.5
 42
7.5
 43
7.5
 50
315.00000000000051
  0
POLYLINE
  5
8DE6
  8
002寸法
 66
     1
 10
0.0
 20
0.0
 30
0.0
  0
VERTEX
  5
8DE7
  8
002寸法
 10
979.66116523516826
 20
725.33883476483197
 30
0.0
  0
VERTEX
  5
8DE8
  8
002寸法
 10
970.82233047033651
 20
734.1776695296636
 30
0.0
  0
VERTEX
  5
8DE9
  8
002寸法
 10
960.48846993956715
 20
744.51153006043273
 30
0.0
  0
SEQEND
  5
8DEA
  8
002寸法
  0
ENDBLK
  5
8DEC
  8
0
  0
BLOCK
  8
0
  2
*U92
 70
     1
 10
0.0
 20
0.0
 30
0.0
  3
*U92
  1

  0
TEXT
  5
8DEE
  8
002寸法
 62
     2
 10
960.45816536323082
 20
746.66315498032884
 30
0.0
 40
9.0
  1
R5
 50
315.0
 41
0.9
  0
ENDBLK
  5
8DF0
  8
0
  0
BLOCK
  8
0
  2
*U93
 70
     1
 10
0.0
 20
0.0
 30
0.0
  3
*U93
  1

  0
POLYLINE
  5
8DF2
  8
002寸法
 66
     1
 10
0.0
 20
0.0
 30
0.0
  0
VERTEX
  5
8DF3
  8
002寸法
 10
1002.035532546842
 20
720.03553526502265
 30
0.0
  0
VERTEX
  5
8DF4
  8
002寸法
 10
998.49999999999989
 20
716.50000271818044
 30
0.0
  0
SEQEND
  5
8DF5
  8
002寸法
  0
ENDBLK
  5
8DF7
  8
0
  0
BLOCK
  8
0
  2
*U94
 70
     1
 10
0.0
 20
0.0
 30
0.0
  3
*U94
  1

  0
POLYLINE
  5
8DF9
  8
002寸法
 66
     1
 10
0.0
 20
0.0
 30
0.0
  0
VERTEX
  5
8DFA
  8
002寸法
 10
984.96446745315779
 20
720.03553526502265
 30
0.0
  0
VERTEX
  5
8DFB
  8
002寸法
 10
988.49999999999989
 20
716.50000271818044
 30
0.0
  0
SEQEND
  5
8DFC
  8
002寸法
  0
ENDBLK
  5
8DFE
  8
0
  0
BLOCK
  8
0
  2
*U95
 70
     1
 10
0.0
 20
0.0
 30
0.0
  3
*U95
  1

  0
TEXT
  5
8E2D
  8
002寸法
 62
     2
 10
1606.285714285714
 20
757.0
 30
0.0
 40
9.0
  1
20
 41
0.9
  0
ENDBLK
  5
8E2F
  8
0
  0
BLOCK
  8
0
  2
*U96
 70
     1
 10
0.0
 20
0.0
 30
0.0
  3
*U96
  1

  0
TEXT
  5
8E31
  8
002寸法
 62
     2
 10
1762.5
 20
588.42857142857167
 30
0.0
 40
9.0
  1
233
 50
90.0
 41
0.9
  0
ENDBLK
  5
8E33
  8
0
  0
BLOCK
  8
0
  2
*U97
 70
     1
 10
0.0
 20
0.0
 30
0.0
  3
*U97
  1

  0
TEXT
  5
8E35
  8
002寸法
 62
     2
 10
1792.5
 20
589.58571428571452
 30
0.0
 40
9.0
  1
251
 50
90.0
 41
0.9
  0
ENDBLK
  5
8E37
  8
0
  0
BLOCK
  8
0
  2
*U98
 70
     1
 10
0.0
 20
0.0
 30
0.0
  3
*U98
  1

  0
TEXT
  5
8E39
  8
002寸法
 62
     2
 10
1585.9285714285711
 20
431.0
 30
0.0
 40
9.0
  1
243
 41
0.9
  0
ENDBLK
  5
8E3B
  8
0
  0
BLOCK
  8
0
  2
*U99
 70
     1
 10
0.0
 20
0.0
 30
0.0
  3
*U99
  1

  0
TEXT
  5
8E3D
  8
002寸法
 62
     2
 10
1447.5
 20
575.81571428571453
 30
0.0
 40
9.0
  1
\U+03C6115h7
 50
90.0
 41
0.9
  0
ENDBLK
  5
8E3F
  8
0
  0
BLOCK
  8
0
  2
*U100
 70
     1
 10
0.0
 20
0.0
 30
0.0
  3
*U100
  1

  0
TEXT
  5
8E41
  8
002寸法
 62
     2
 10
692.49999999999977
 20
575.81571428571442
 30
0.0
 40
9.0
  1
\U+03C6115h7
 50
90.0
 41
0.9
  0
ENDBLK
  5
8E43
  8
0
  0
BLOCK
  8
0
  2
*U101
 70
     1
 10
0.0
 20
0.0
 30
0.0
  3
*U101
  1

  0
TEXT
  5
8E45
  8
002寸法
 62
     2
 10
1136.5
 20
603.33714285714268
 30
0.0
 40
9.0
  1
\U+03C6210
 50
90.0
 41
0.9
  0
ENDBLK
  5
8E47
  8
0
  0
BLOCK
  8
0
  2
*U102
 70
     1
 10
0.0
 20
0.0
 30
0.0
  3
*U102
  1

  0
TEXT
  5
8E49
  8
002寸法
 62
     2
 10
985.78571428571399
 20
757.0
 30
0.0
 40
9.0
  1
20
 41
0.9
  0
ENDBLK
  5
8E4B
  8
0
  0
BLOCK
  8
0
  2
*U103
 70
     1
 10
0.0
 20
0.0
 30
0.0
  3
*U103
  1

  0
TEXT
  5
8E4D
  8
002寸法
 62
     2
 10
896.0
 20
708.20714285714314
 30
0.0
 40
9.0
  1
10
 50
90.0
 41
0.9
  0
ENDBLK
  5
8E4F
  8
0
  0
BLOCK
  8
0
  2
*U104
 70
     1
 10
0.0
 20
0.0
 30
0.0
  3
*U104
  1

  0
TEXT
  5
8E51
  8
002寸法
 62
     2
 10
945.05714285714294
 20
431.0
 30
0.0
 40
9.0
  1
69.5
 41
0.9
  0
ENDBLK
  5
8E53
  8
0
  0
BLOCK
  8
0
  2
*U105
 70
     1
 10
0.0
 20
0.0
 30
0.0
  3
*U105
  1

  0
TEXT
  5
8E55
  8
002寸法
 62
     2
 10
883.22857142857151
 20
401.0
 30
0.0
 40
9.0
  1
10
 41
0.9
  0
ENDBLK
  5
8E57
  8
0
  0
BLOCK
  8
0
  2
*U106
 70
     1
 10
0.0
 20
0.0
 30
0.0
  3
*U106
  1

  0
TEXT
  5
8E59
  8
002寸法
 62
     2
 10
806.85000000000002
 20
371.0
 30
0.0
 40
9.0
  1
190
 41
0.9
  0
ENDBLK
  5
8E5B
  8
0
  0
BLOCK
  8
0
  2
*U107
 70
     1
 10
0.0
 20
0.0
 30
0.0
  3
*U107
  1

  0
TEXT
  5
8E5D
  8
002寸法
 62
     2
 10
1052.235714285714
 20
341.0
 30
0.0
 40
9.0
  1
680
 41
0.9
  0
ENDBLK
  5
8E5F
  8
0
  0
BLOCK
  8
0
  2
*U108
 70
     1
 10
0.0
 20
0.0
 30
0.0
  3
*U108
  1

  0
TEXT
  5
8E61
  8
002寸法
 62
     2
 10
791.85000000000002
 20
431.0
 30
0.0
 40
9.0
  1
160
 41
0.9
  0
ENDBLK
  5
8E63
  8
0
  0
BLOCK
  8
0
  2
*U109
 70
     1
 10
0.0
 20
0.0
 30
0.0
  3
*U109
  1

  0
TEXT
  5
8E65
  8
002寸法
 62
     2
 10
1311.8499999999999
 20
431.0
 30
0.0
 40
9.0
  1
160
 41
0.9
  0
ENDBLK
  5
8E67
  8
0
  0
ENDSEC
  0
SECTION
  2
ENTITIES
  0
POLYLINE
  5
51C
  8
DEFPOINTS
 66
     1
 10
0.0
 20
0.0
 30
0.0
 70
     1
  0
VERTEX
  5
8B7F
  8
DEFPOINTS
 10
594.0
 20
0.0
 30
0.0
  0
VERTEX
  5
8B80
  8
DEFPOINTS
 10
1854.0
 20
0.0
 30
0.0
  0
VERTEX
  5
8B81
  8
DEFPOINTS
 10
1854.0
 20
891.0
 30
0.0
  0
VERTEX
  5
8B82
  8
DEFPOINTS
 10
594.0
 20
891.0
 30
0.0
  0
SEQEND
  5
8B83
  8
DEFPOINTS
  0
POLYLINE
  5
51E
  8
DEFPOINTS
 66
     1
 10
0.0
 20
0.0
 30
0.0
 70
     1
  0
VERTEX
  5
8B84
  8
DEFPOINTS
 10
667.49999999999989
 20
30.0
 30
0.0
  0
VERTEX
  5
8B85
  8
DEFPOINTS
 10
1822.5
 20
30.0
 30
0.0
  0
VERTEX
  5
8B86
  8
DEFPOINTS
 10
1822.5
 20
861.0
 30
0.0
  0
VERTEX
  5
8B87
  8
DEFPOINTS
 10
667.49999999999989
 20
861.0
 30
0.0
  0
SEQEND
  5
8B88
  8
DEFPOINTS
  0
TEXT
  5
564
  8
DEFPOINTS
 10
1469.024527381993
 20
37.00026151410043
 30
0.0
 40
22.5
  1
Ａ３
 41
0.7222222220000001
  7
表題
  0
LINE
  5
565
  8
DEFPOINTS
 10
1293.0
 20
177.0
 30
0.0
 11
1822.5
 21
177.0
 31
0.0
  0
LINE
  5
566
  8
DEFPOINTS
 10
1293.0
 20
153.0
 30
0.0
 11
1822.5
 21
153.0
 31
0.0
  0
POLYLINE
  5
567
  8
DEFPOINTS
 66
     1
 10
0.0
 20
0.0
 30
0.0
 70
     1
  0
VERTEX
  5
8B89
  8
DEFPOINTS
 10
1293.0
 20
201.0
 30
0.0
  0
VERTEX
  5
8B8A
  8
DEFPOINTS
 10
1822.5
 20
201.0
 30
0.0
  0
VERTEX
  5
8B8B
  8
DEFPOINTS
 10
1822.5
 20
30.0
 30
0.0
  0
VERTEX
  5
8B8C
  8
DEFPOINTS
 10
1293.0
 20
30.0
 30
0.0
  0
SEQEND
  5
8B8D
  8
DEFPOINTS
  0
LINE
  5
568
  8
DEFPOINTS
 10
1416.0
 20
62.999999999999318
 30
0.0
 11
1822.5
 21
63.0
 31
0.0
  0
LINE
  5
569
  8
DEFPOINTS
 10
1416.0
 20
95.999999999999318
 30
0.0
 11
1822.5
 21
96.0
 31
0.0
  0
LINE
  5
56A
  8
DEFPOINTS
 10
1415.9999999999991
 20
128.99999999999929
 30
0.0
 11
1822.5
 21
129.0
 31
0.0
  0
TEXT
  5
56C
  8
DEFPOINTS
 10
1608.939505311929
 20
121.4999999999993
 30
0.0
 40
6.0
  1
作成日付
  7
表題
 72
     1
 11
1624.7745568583209
 21
121.4999999999993
 31
0.0
  0
INSERT
  5
56D
  8
DEFPOINTS
  6
CONTINUOUS
  2
*U56
 10
0.0
 20
0.0
 30
0.0
1001
ACAD
1002
{
1000
R14_HATCH_DATA
1000
56D
1011
1.0
1021
0.0
1031
0.0
1021
0.0
1031
0.0
1011
0.0
1021
0.0
1031
0.0
1021
1.0
1031
0.0
1011
0.0
1021
0.0
1031
0.0
1021
0.0
1031
1.0
1040
0.0
1010
0.0
1020
0.0
1030
1.0
1000
SOLID,_O
1070
     1
1070
     0
1071
       25
1071
        7
1070
     0
1070
     1
1071
        4
1040
1583.979832233287
1040
48.851282552928751
1040
1579.7871822332861
1040
48.851282552928751
1040
1579.7871822332861
1040
42.025232552928401
1040
1583.979832233287
1040
42.025232552928401
1071
        0
1071
       22
1070
     0
1070
     1
1071
        4
1040
1582.281982233286
1040
45.091757552928577
1040
1582.281982233286
1040
42.752882552928213
1040
1581.5162172332871
1040
42.752882552928213
1040
1581.5162172332871
1040
45.091757552928577
1071
        0
1071
       22
1070
     0
1070
     1
1071
        4
1040
1582.281982233286
1040
45.80901255292838
1040
1581.516217233285
1040
45.80901255292838
1040
1581.516217233285
1040
48.192932552927907
1040
1582.2819822332899
1040
48.192932552928589
1071
        0
1071
        7
1070
     0
1070
     1
1071
        4
1040
1590.4680447332869
1040
45.091757552928577
1040
1584.3956322332849
1040
45.091757552928577
1040
1584.3956322332849
1040
42.025232552928401
1040
1590.4680447332869
1040
42.025232552928401
1071
        0
1071
       22
1070
     0
1070
     1
1071
        4
1040
1586.3793447332871
1040
44.3987575529286
1040
1588.5363072332871
1040
44.3987575529286
1040
1588.5363072332871
1040
42.752882552928213
1040
1586.379344733288
1040
42.752882552928213
1071
        0
1071
        7
1070
     0
1070
     1
1071
       12
1040
1587.7463244902849
1040
48.192932552927907
1040
1588.5363072332871
1040
48.192932552927907
1040
1588.536993333285
1040
46.401527552928663
1040
1587.86478333329
1040
46.377272552928162
1040
1588.0408122332899
1040
45.680807552929082
1040
1590.4680447332869
1040
45.680807552928393
1040
1590.4680447332869
1040
48.851282552928751
1040
1584.3956322332849
1040
48.851282552928751
1040
1584.3956322332849
1040
48.192932552928589
1040
1585.584164490286
1040
48.192932552927907
1040
1584.3956322332881
1040
45.680807552928393
1040
1586.557792233285
1040
45.680807552929082
1071
        0
1071
        7
1070
     0
1070
     1
1071
       22
1040
1600.6256922332859
1040
45.836732552927963
1040
1599.534254490286
1040
46.529732552928628
1040
1600.611869490285
1040
46.529732552928628
1040
1600.611869490285
1040
47.198477552928118
1040
1599.534254490286
1040
47.198477552928118
1040
1599.534254490286
1040
48.192932552928589
1040
1600.6118694902871
1040
48.192932552927907
1040
1600.611869490285
1040
48.851282552928751
1040
1596.2528994902859
1040
48.851282552928751
1040
1596.2528994902859
1040
48.192932552927907
1040
1597.663154490285
1040
48.192932552928589
1040
1597.663154490288
1040
47.198477552928118
1040
1596.2528994902859
1040
47.198477552928118
1040
1596.252899490288
1040
46.529732552928628
1040
1597.663154490285
1040
46.529732552928628
1040
1596.270187233285
1040
44.734862552928917
1040
1596.2715382130889
1040
42.049248971226227
1040
1597.663154490283
1040
43.842378199152563
1040
1597.663154490288
1040
42.025232552928401
1040
1599.5342544902851
1040
42.025232552928401
1040
1599.534254490286
1040
44.515027027238141
1040
1600.6272511362949
1040
43.821037213765287
1071
        0
1071
        7
1070
     0
1070
     1
1071
        4
1040
1607.0186544902861
1040
48.851282552928751
1040
1600.9964844902861
1040
48.851282552928751
1040
1600.9964844902861
1040
42.025232552928401
1040
1607.0186544902861
1040
42.025232552928401
1071
        0
1071
       22
1070
     0
1070
     1
1071
        4
1040
1602.9438144902861
1040
48.192932552927907
1040
1605.019349490289
1040
48.192932552927907
1040
1605.019349490286
1040
42.752882552928888
1040
1602.9438144902881
1040
42.752882552927517
1071
        0
1071
        7
1070
     0
1070
     1
1071
        4
1040
1615.523459733286
1040
48.851282552928069
1040
1612.9073847332861
1040
48.851282552928069
1040
1612.907384733287
1040
48.192932552928589
1040
1615.5234597332869
1040
48.192932552927907
1071
        0
1071
        7
1070
     0
1070
     1
1071
        4
1040
1615.5234597332869
1040
47.198477552928118
1040
1612.907384733287
1040
47.198477552928118
1040
1612.907384733287
1040
46.529732552928628
1040
1615.523459733286
1040
46.529732552928628
1071
        0
1071
        7
1070
     0
1070
     1
1071
        4
1040
1615.523459733284
1040
45.351632552928997
1040
1613.805027519287
1040
45.351632552928997
1040
1612.907384733287
1040
42.025232552928401
1040
1614.625816944287
1040
42.025232552928401
1071
        0
1071
        7
1070
     0
1070
     1
1071
       11
1040
1619.7784797332861
1040
48.851282552928751
1040
1615.856099733285
1040
48.851282552928751
1040
1615.856099733285
1040
43.684967552927901
1040
1616.200904940287
1040
43.684967552927901
1040
1615.2864346802839
1040
42.025232552928401
1040
1616.9331511250141
1040
42.025232552928401
1040
1617.835811040288
1040
43.663532147927967
1040
1618.915046973287
1040
42.025232552928401
1040
1620.6424368692869
1040
42.025232552928401
1040
1619.5490802812881
1040
43.684967552927901
1040
1619.7784797332861
1040
43.684967552927901
1071
        0
1071
       22
1070
     0
1070
     1
1071
        4
1040
1617.5227647332831
1040
45.091757552928577
1040
1618.160324733286
1040
45.091757552928577
1040
1618.160324733286
1040
44.402222552928372
1040
1617.5227647332861
1040
44.402222552929061
1071
        0
1071
       22
1070
     0
1070
     1
1071
        4
1040
1617.5227647332881
1040
45.80901255292838
1040
1617.5227647332861
1040
46.529732552928628
1040
1618.160324733286
1040
46.529732552928628
1040
1618.160324733286
1040
45.80901255292838
1071
        0
1071
       22
1070
     0
1070
     1
1071
        4
1040
1617.5227647332881
1040
47.198477552928807
1040
1617.5227647332849
1040
48.192932552928589
1040
1618.160324733288
1040
48.192932552927907
1040
1618.160324733288
1040
47.198477552928118
1071
        0
1071
        7
1070
     0
1070
     1
1071
        4
1040
1621.597604733287
1040
48.851282552928751
1040
1620.034889733286
1040
48.851282552928751
1040
1620.034889733286
1040
43.684967552927901
1040
1621.597604733287
1040
43.684967552927901
1071
        0
1071
        7
1070
     0
1070
     1
1071
        6
1040
1623.691661040288
1040
48.851282552928751
1040
1622.024996040285
1040
48.851282552928751
1040
1622.024996040285
1040
42.752882552927517
1040
1621.2397895192869
1040
42.752882552927517
1040
1621.499834931288
1040
42.025232552928401
1040
1623.691661040287
1040
42.025232552928401
1071
        0
1071
        7
1070
     0
1070
     1
1071
        4
1040
1640.414287233285
1040
44.138882552928862
1040
1629.637991118286
1040
44.13888255292818
1040
1629.637991118286
1040
42.025232552928401
1040
1640.414287233287
1040
42.025232552928401
1071
        0
1071
       22
1070
     0
1070
     1
1071
        4
1040
1635.9790872332851
1040
43.532507552929466
1040
1638.491212233288
1040
43.532507552929466
1040
1638.4912122332851
1040
42.622945052928337
1040
1635.9790872332851
1040
42.622945052928337
1071
        0
1071
       22
1070
     0
1070
     1
1071
        4
1040
1634.0560122332879
1040
42.622945052928337
1040
1631.5716072332871
1040
42.622945052928337
1040
1631.5716072332871
1040
43.532507552928777
1040
1634.0560122332849
1040
43.532507552928777
1071
        0
1071
        7
1070
     0
1070
     1
1071
       12
1040
1640.414287233285
1040
45.273670052927848
1040
1635.9790872332851
1040
45.273670052927848
1040
1635.9790872332851
1040
45.892172552928507
1040
1640.105902233287
1040
45.892172552928507
1040
1640.105902233287
1040
46.529732552928628
1040
1630.0470072332871
1040
46.529732552928628
1040
1630.0470072332871
1040
45.892172552928507
1040
1634.0560122332849
1040
45.892172552928507
1040
1634.0560122332849
1040
45.273670052927848
1040
1629.637991118288
1040
45.273670052927848
1040
1629.637991118288
1040
44.639575052927512
1040
1640.414287233285
1040
44.639575052927512
1071
        0
1071
        7
1070
     0
1070
     1
1071
        4
1040
1640.1059022332879
1040
48.851282552928751
1040
1630.0470072332871
1040
48.851282552928751
1040
1630.0470072332871
1040
46.902220052928662
1040
1640.105902233287
1040
46.902220052928662
1071
        0
1071
       22
1070
     0
1070
     1
1071
        4
1040
1635.9790872332881
1040
47.577895052928397
1040
1635.9790872332851
1040
48.192932552927907
1040
1638.054622233286
1040
48.192932552927907
1040
1638.054622233286
1040
47.577895052928397
1071
        0
1071
       22
1070
     0
1070
     1
1071
        4
1040
1634.0560122332849
1040
47.577895052928397
1040
1632.0844272332879
1040
47.577895052928397
1040
1632.0844272332879
1040
48.192932552928589
1040
1634.0560122332849
1040
48.192932552928589
1071
        0
1070
     1
1070
     1
1040
0.0129395892018505
1071
       25
1040
1583.0559841707679
1040
45.317294472185722
1040
0.0
1040
1583.0559841707679
1040
45.317294472185722
1040
0.0
1040
1583.0559841707679
1040
45.317294472185722
1040
0.0
1040
1585.4516031974069
1040
43.920204578530502
1040
0.0
1040
1585.4516031974069
1040
43.920204578530502
1040
0.0
1040
1585.3517673207821
1040
46.714408509381649
1040
0.0
1040
1599.0266892792331
1040
45.217509235078303
1040
0.0
1040
1602.220847981419
1040
45.217509235078303
1040
0.0
1040
1602.220847981419
1040
45.217509235078303
1040
0.0
1040
1614.4507723359061
1040
48.635558010264283
1040
0.0
1040
1614.5736812619441
1040
46.792295558717562
1040
0.0
1040
1614.3278339423739
1040
44.047875600506352
1040
0.0
1040
1616.4583339070221
1040
44.908061525422681
1040
0.0
1040
1616.4583339070221
1040
44.908061525422681
1040
0.0
1040
1616.4583339070221
1040
44.908061525422681
1040
0.0
1040
1616.4583339070221
1040
44.908061525422681
1040
0.0
1040
1621.0471007949291
1040
45.891138052052384
1040
0.0
1040
1623.218560579093
1040
46.095947673725497
1040
0.0
1040
1635.2608653862089
1040
43.217796665828928
1040
0.0
1040
1635.2608653862089
1040
43.217796665828928
1040
0.0
1040
1635.2608653862089
1040
43.217796665828928
1040
0.0
1040
1634.9849612206599
1040
45.212487379447559
1040
0.0
1040
1635.1335363357621
1040
47.46184411799117
1040
0.0
1040
1635.1335363357621
1040
47.46184411799117
1040
0.0
1040
1635.1335363357621
1040
47.46184411799117
1040
0.0
1002
}
  0
TEXT
  5
56E
  8
DEFPOINTS
 10
1609.153968370925
 20
88.499999999999318
 30
0.0
 40
6.0
  1
製図
  7
表題
 72
     2
 11
1624.9890199173169
 21
88.499999999999318
 31
0.0
  0
LINE
  5
570
  8
DEFPOINTS
 10
1293.0
 20
51.0
 30
0.0
 11
1416.0
 21
51.0
 31
0.0
  0
LINE
  5
571
  8
DEFPOINTS
 10
1293.0
 20
117.0
 30
0.0
 11
1416.0
 21
117.0
 31
0.0
  0
LINE
  5
572
  8
DEFPOINTS
 10
1416.0
 20
201.0
 30
0.0
 11
1416.0
 21
30.0
 31
0.0
  0
TEXT
  5
573
  8
DEFPOINTS
 10
1418.1920103092791
 20
88.358647206687934
 30
0.0
 40
6.0
  1
尺度
  7
表題
 72
     2
 11
1434.027061855671
 21
88.358647206687934
 31
0.0
  0
TEXT
  5
574
  8
DEFPOINTS
 10
1419.0507202945901
 20
121.4999999999993
 30
0.0
 40
6.0
  1
熱処理
  7
表題
 72
     2
 11
1442.8032976141781
 21
121.4999999999993
 31
0.0
  0
LINE
  5
576
  8
DEFPOINTS
 10
1314.0
 20
201.0
 30
0.0
 11
1314.0
 21
30.0
 31
0.0
  0
LINE
  5
577
  8
DEFPOINTS
 10
1335.0
 20
201.0
 30
0.0
 11
1335.0
 21
30.0
 31
0.0
  0
LINE
  5
578
  8
DEFPOINTS
 10
1377.0
 20
201.0
 30
0.0
 11
1377.0
 21
30.0
 31
0.0
  0
LINE
  5
579
  8
DEFPOINTS
 10
1356.0
 20
201.0
 30
0.0
 11
1356.0
 21
30.0
 31
0.0
  0
LINE
  5
57A
  8
DEFPOINTS
 10
1398.0
 20
201.0
 30
0.0
 11
1398.0
 21
30.0
 31
0.0
  0
TEXT
  5
57B
  8
DEFPOINTS
 10
1411.5
 20
120.494845360824
 30
0.0
 40
6.0
  1
年 月 日
 50
90.0
  7
表題
 72
     1
 11
1411.5
 21
134.99999999999929
 31
0.0
  0
TEXT
  5
57C
  8
DEFPOINTS
 10
1411.5
 20
56.28865979381375
 30
0.0
 40
6.0
  1
来歴　改訂記事
 50
90.0
  7
表題
 72
     1
 11
1411.5
 21
83.999999999999318
 31
0.0
  0
TEXT
  5
57D
  8
DEFPOINTS
 10
1411.5
 20
32.285314314270352
 30
0.0
 40
6.0
  1
記号
 50
90.0
  7
表題
 72
     2
 11
1411.5
 21
48.120365860662098
 31
0.0
  0
TEXT
  5
57E
  8
DEFPOINTS
 10
1411.5
 20
157.08247422680341
 30
0.0
 40
6.0
  1
氏名
 50
90.0
  7
表題
 72
     1
 11
1411.5
 21
164.99999999999929
 31
0.0
  0
TEXT
  5
57F
  8
DEFPOINTS
 10
1411.5
 20
181.08247422680341
 30
0.0
 40
6.0
  1
承認
 50
90.0
  7
表題
 72
     1
 11
1411.5
 21
188.99999999999929
 31
0.0
  0
LINE
  5
580
  8
DEFPOINTS
 10
1446.0
 20
201.0
 30
0.0
 11
1446.0
 21
128.99999999999929
 31
0.0
  0
TEXT
  5
581
  8
DEFPOINTS
 10
1513.5957091502351
 20
88.499999999999318
 30
0.0
 40
6.0
  1
検図
  7
表題
 72
     2
 11
1529.4307606966261
 21
88.499999999999318
 31
0.0
  0
LINE
  5
582
  8
DEFPOINTS
 10
1488.0
 20
128.99999999999929
 30
0.0
 11
1488.0
 21
96.0
 31
0.0
  0
TEXT
  5
583
  8
DEFPOINTS
 10
1489.90471761399
 20
121.4999999999993
 30
0.0
 40
6.0
  1
表面処理
  7
表題
 72
     2
 11
1521.5748207067729
 21
121.4999999999993
 31
0.0
  0
LINE
  5
584
  8
DEFPOINTS
 10
1512.0
 20
96.0
 30
0.0
 11
1512.0
 21
30.0
 31
0.0
  0
LINE
  5
585
  8
DEFPOINTS
 10
1464.0
 20
96.0
 30
0.0
 11
1464.0
 21
30.0
 31
0.0
  0
TEXT
  5
586
  8
DEFPOINTS
 10
1465.0824742268039
 20
88.499999999999318
 30
0.0
 40
6.0
  1
承認
  7
表題
 72
     1
 11
1473.0
 21
88.499999999999318
 31
0.0
  0
LINE
  5
587
  8
DEFPOINTS
 10
1608.0
 20
128.99999999999929
 30
0.0
 11
1608.0
 21
62.999999999999318
 31
0.0
  0
TEXT
  5
588
  8
DEFPOINTS
 10
1561.0824742268051
 20
121.4999999999993
 30
0.0
 40
6.0
  1
台数
  7
表題
 72
     1
 11
1569.0000000000009
 21
121.4999999999993
 31
0.0
  0
TEXT
  5
589
  8
DEFPOINTS
 10
1541.7342194851431
 20
42.477059085720597
 30
0.0
 40
7.5
  1
株式会社
  0
TEXT
  5
596
  8
DEFPOINTS
 10
1562.3771163415879
 20
88.499999999999318
 30
0.0
 40
6.0
  1
設計
  7
表題
 72
     2
 11
1578.2121678879801
 21
88.499999999999318
 31
0.0
  0
LINE
  5
597
  8
DEFPOINTS
 10
1560.0
 20
128.9999999999996
 30
0.0
 11
1560.0
 21
63.0
 31
0.0
  0
LINE
  5
598
  8
DEFPOINTS
 10
1554.0
 20
201.0
 30
0.0
 11
1554.0
 21
128.99999999999929
 31
0.0
  0
LINE
  5
59A
  8
DEFPOINTS
 10
1656.0
 20
201.0
 30
0.0
 11
1656.0
 21
30.0
 31
0.0
  0
TEXT
  5
59D
  8
DEFPOINTS
 10
1658.3282669301029
 20
121.4999999999993
 30
0.0
 40
6.0
  1
名称
  7
表題
 72
     2
 11
1674.1633184764951
 21
121.4999999999993
 31
0.0
  0
TEXT
  5
59E
  8
DEFPOINTS
 10
1658.8503159617269
 20
55.499999999999318
 30
0.0
 40
6.0
  1
図面番号
  7
表題
 72
     2
 11
1690.520419054511
 21
55.499999999999318
 31
0.0
  0
LINE
  5
59F
  8
DEFPOINTS
 10
1626.0
 20
201.0
 30
0.0
 11
1626.0
 21
128.99999999999929
 31
0.0
  0
LINE
  5
5A0
  8
DEFPOINTS
 10
1686.0
 20
201.0
 30
0.0
 11
1686.0
 21
128.99999999999929
 31
0.0
  0
LINE
  5
5A1
  8
DEFPOINTS
 10
1716.0
 20
201.0
 30
0.0
 11
1716.0
 21
128.99999999999929
 31
0.0
  0
TEXT
  5
5A2
  8
DEFPOINTS
 10
1425.1771619092131
 20
34.878648228140491
 30
0.0
 40
11.25
  1
角法
  7
表題
  0
TEXT
  5
5A4
  8
DEFPOINTS
 10
1425.1771619092131
 20
49.878648228140491
 30
0.0
 40
11.25
  1
第３
  7
表題
  0
TEXT
  5
102B
  8
DEFPOINTS
 10
1473.9123711340201
 20
136.70876288659699
 30
0.0
 40
9.0
  1
部　品　名
  7
表題
  0
TEXT
  5
102C
  8
DEFPOINTS
 10
1570.5
 20
138.0
 30
0.0
 40
9.0
  1
材　 質
  7
表題
  0
TEXT
  5
102D
  8
DEFPOINTS
 10
1727.9999999999991
 20
136.5
 30
0.0
 40
9.0
  1
　摘　　　要
  7
表題
 72
     1
 11
1763.6288659793811
 21
136.5
 31
0.0
  0
TEXT
  5
102E
  8
DEFPOINTS
 10
1656.860220094853
 20
142.21016241323761
 30
0.0
 40
4.5
  1
1セット分
  7
表題
 72
     2
 11
1685.020013909286
 21
142.21016241323761
 31
0.0
  0
TEXT
  5
102F
  8
DEFPOINTS
 10
1665.613584055824
 20
134.50524699052511
 30
0.0
 40
4.5
  1
個数
  7
表題
 72
     2
 11
1677.489872715618
 21
134.50524699052511
 31
0.0
  0
TEXT
  5
1030
  8
DEFPOINTS
 10
1631.466062908569
 20
142.2101624132379
 30
0.0
 40
4.5
  1
1台分
  7
表題
 72
     2
 11
1647.749568063208
 21
142.2101624132379
 31
0.0
  0
TEXT
  5
1031
  8
DEFPOINTS
 10
1634.113584055824
 20
134.50524699052551
 30
0.0
 40
4.5
  1
個数
  7
表題
 72
     2
 11
1645.9898727156169
 21
134.50524699052551
 31
0.0
  0
TEXT
  5
1032
  8
DEFPOINTS
 10
1690.4999999999991
 20
136.5
 30
0.0
 40
9.0
  1
総数
  7
表題
  0
TEXT
  5
1033
  8
DEFPOINTS
 10
1419.3788659793811
 20
137.2001428584415
 30
0.0
 40
9.0
  1
番号
  7
表題
  0
LINE
  5
1091
  8
DEFPOINTS
  6
CENTER
 10
1224.0
 20
891.0
 30
0.0
 11
1224.0
 21
0.0
 31
0.0
  0
INSERT
  5
2DA2
  8
DEFPOINTS
  2
A$C0C1533B0
 10
1524.4392194851421
 20
39.447059085721321
 30
0.0
 41
3.0
 42
3.0
 43
3.0
  0
LINE
  5
45FC
  8
DEFPOINTS
 10
1792.5
 20
63.0
 30
0.0
 11
1792.5
 21
30.0
 31
0.0
  0
INSERT
  5
4647
  8
011形状
  2
*U58
 10
0.0
 20
0.0
 30
0.0
  0
INSERT
  5
4648
  8
011形状
  2
*U59
 10
0.0
 20
0.0
 30
0.0
  0
INSERT
  5
4649
  8
011形状
  2
*U60
 10
0.0
 20
0.0
 30
0.0
  0
INSERT
  5
4681
  8
011形状
  2
*U61
 10
0.0
 20
0.0
 30
0.0
  0
INSERT
  5
4682
  8
011形状
  2
*U62
 10
0.0
 20
0.0
 30
0.0
  0
INSERT
  5
4683
  8
011形状
  2
*U63
 10
0.0
 20
0.0
 30
0.0
  0
INSERT
  5
475A
  8
011形状
  2
*U64
 10
0.0
 20
0.0
 30
0.0
  0
INSERT
  5
4A69
  8
011形状
  2
*U65
 10
0.0
 20
0.0
 30
0.0
  0
INSERT
  5
4A7A
  8
011形状
  2
*U66
 10
0.0
 20
0.0
 30
0.0
  0
LINE
  5
5540
  8
003注釈
 62
     1
 10
1396.93933982822
 20
31.060660171779819
 30
0.0
 11
1378.06066017178
 21
49.93933982822017
 31
0.0
  0
LINE
  5
5544
  8
003注釈
 62
     1
 10
1396.93933982822
 20
154.0606601717798
 30
0.0
 11
1377.984045701158
 21
175.8678983888216
 31
0.0
  0
LINE
  5
5545
  8
003注釈
 62
     1
 10
1396.93933982822
 20
178.0606601717798
 30
0.0
 11
1377.984045701158
 21
199.8678983888216
 31
0.0
  0
LINE
  5
82B2
  8
011形状
 10
726.0
 20
657.5
 30
0.0
 11
724.0
 21
655.49999999999989
 31
0.0
  0
LINE
  5
82B3
  8
011形状
 10
726.0
 20
542.49999999999989
 30
0.0
 11
724.0
 21
544.5
 31
0.0
  0
LINE
  5
82B4
  8
011形状
 10
724.0
 20
655.49999999999989
 30
0.0
 11
724.0
 21
544.5
 31
0.0
  0
LINE
  5
82B5
  8
011形状
 10
724.0
 20
616.0
 30
0.0
 11
868.0
 21
616.0
 31
0.0
  0
LINE
  5
82B6
  8
011形状
 10
724.0
 20
584.0
 30
0.0
 11
868.0
 21
584.0
 31
0.0
  0
ARC
  5
82B7
  8
011形状
 10
868.0
 20
600.0
 30
0.0
 40
16.0
 50
270.0
 51
90.0
  0
LINE
  5
82B8
  8
011形状
 10
726.0
 20
657.5
 30
0.0
 11
726.0
 21
616.0
 31
0.0
  0
LINE
  5
82B9
  8
011形状
 10
726.0
 20
584.0
 30
0.0
 11
726.0
 21
542.49999999999989
 31
0.0
  0
LINE
  5
82BA
  8
011形状
 10
924.0
 20
603.5
 30
0.0
 11
924.0
 21
596.49999999999989
 31
0.0
  0
LINE
  5
82BB
  8
011形状
 10
924.0
 20
603.5
 30
0.0
 11
922.79999999999995
 21
603.39999999999986
 31
0.0
  0
LINE
  5
82BC
  8
011形状
 10
924.0
 20
596.49999999999989
 30
0.0
 11
922.79999999999995
 21
596.60000000000002
 31
0.0
  0
ARC
  5
82BD
  8
011形状
 10
923.09999999999991
 20
598.10000000000002
 30
0.0
 40
1.5
 50
202.3999999999964
 51
259.00000000000063
  0
ARC
  5
82BE
  8
011形状
 10
923.09999999999991
 20
601.89999999999998
 30
0.0
 40
1.5
 50
100.9999999999993
 51
157.6000000000036
  0
ARC
  5
82BF
  8
011形状
 10
931.20000000000005
 20
600.0
 30
0.0
 40
9.8000000000000007
 50
165.69999999999891
 51
194.2000000000034
  0
LINE
  5
82C0
  8
011形状
 10
925.5
 20
705.0
 30
0.0
 11
925.5
 21
705.0
 31
0.0
  0
LINE
  5
82C1
  8
011形状
 10
924.0
 20
703.5
 30
0.0
 11
925.5
 21
705.0
 31
0.0
  0
LINE
  5
82C2
  8
011形状
 10
924.0
 20
496.49999999999989
 30
0.0
 11
925.5
 21
495.0
 31
0.0
  0
LINE
  5
82C3
  8
011形状
 10
925.5
 20
495.0
 30
0.0
 11
925.5
 21
705.0
 31
0.0
  0
LINE
  5
82C4
  8
011形状
 10
924.0
 20
703.5
 30
0.0
 11
924.0
 21
496.49999999999989
 31
0.0
  0
LINE
  5
82C5
  8
011形状
 10
1063.0
 20
603.5
 30
0.0
 11
1063.0
 21
596.49999999999989
 31
0.0
  0
LINE
  5
82C6
  8
011形状
 10
1063.0
 20
603.5
 30
0.0
 11
1064.2
 21
603.39999999999986
 31
0.0
  0
LINE
  5
82C7
  8
011形状
 10
1063.0
 20
596.49999999999989
 30
0.0
 11
1064.2
 21
596.60000000000002
 31
0.0
  0
ARC
  5
82C8
  8
011形状
 10
1063.9000000000001
 20
598.10000000000002
 30
0.0
 40
1.5
 50
280.99999999999932
 51
337.6000000000036
  0
ARC
  5
82C9
  8
011形状
 10
1063.9000000000001
 20
601.89999999999998
 30
0.0
 40
1.5
 50
22.39999999999641
 51
79.000000000000597
  0
ARC
  5
82CA
  8
011形状
 10
1055.8
 20
600.0
 30
0.0
 40
9.8000000000000007
 50
345.7999999999966
 51
14.300000000001029
  0
LINE
  5
82CB
  8
011形状
 10
1062.0
 20
700.0
 30
0.0
 11
1063.0
 21
699.0
 31
0.0
  0
LINE
  5
82CC
  8
011形状
 10
1062.0
 20
703.5
 30
0.0
 11
1060.5
 21
705.0
 31
0.0
  0
LINE
  5
82CD
  8
011形状
 10
1063.0
 20
501.0
 30
0.0
 11
1062.0
 21
500.0
 31
0.0
  0
LINE
  5
82CE
  8
011形状
 10
1060.5
 20
495.0
 30
0.0
 11
1062.0
 21
496.49999999999989
 31
0.0
  0
LINE
  5
82CF
  8
011形状
 10
1063.0
 20
699.0
 30
0.0
 11
1063.0
 21
501.0
 31
0.0
  0
LINE
  5
82D0
  8
011形状
 10
1062.0
 20
496.49999999999989
 30
0.0
 11
1062.0
 21
703.5
 31
0.0
  0
LINE
  5
82D1
  8
011形状
 10
1060.5
 20
705.0
 30
0.0
 11
1060.5
 21
495.0
 31
0.0
  0
LINE
  5
82D2
  8
011形状
 10
1060.5
 20
705.0
 30
0.0
 11
1059.5
 21
705.0
 31
0.0
  0
LINE
  5
82D3
  8
011形状
 10
925.5
 20
705.0
 30
0.0
 11
927.5
 21
705.0
 31
0.0
  0
LINE
  5
82D4
  8
011形状
 10
1060.5
 20
495.0
 30
0.0
 11
1059.5
 21
495.0
 31
0.0
  0
LINE
  5
82D5
  8
011形状
 10
925.5
 20
495.0
 30
0.0
 11
927.5
 21
495.0
 31
0.0
  0
LINE
  5
82D6
  8
011形状
 10
959.5
 20
705.0
 30
0.0
 11
939.0
 21
705.0
 31
0.0
  0
LINE
  5
82D7
  8
011形状
 10
1049.5
 20
705.0
 30
0.0
 11
1027.5
 21
705.0
 31
0.0
  0
LINE
  5
82D8
  8
011形状
 10
959.5
 20
675.740201501
 30
0.0
 11
1027.5
 21
675.740201501
 31
0.0
  0
LINE
  5
82D9
  8
011形状
 10
1027.5
 20
673.00815069299995
 30
0.0
 11
959.5
 21
673.00815069299995
 31
0.0
  0
LINE
  5
82DA
  8
011形状
 10
959.5
 20
705.39778967799998
 30
0.0
 11
959.5
 21
672.14212528999985
 31
0.0
  0
LINE
  5
82DB
  8
011形状
 10
959.5
 20
672.14212528999985
 30
0.0
 11
1027.5
 21
672.14212528999985
 31
0.0
  0
LINE
  5
82DC
  8
011形状
 10
1027.5
 20
705.39778967799998
 30
0.0
 11
1027.5
 21
672.14212528999985
 31
0.0
  0
LINE
  5
82DD
  8
011形状
 10
959.5
 20
705.39778967799998
 30
0.0
 11
1027.5
 21
705.39778967799998
 31
0.0
  0
LINE
  5
82DE
  8
011形状
 10
959.5
 20
524.25979849899988
 30
0.0
 11
1027.5
 21
524.25979849899988
 31
0.0
  0
LINE
  5
82DF
  8
011形状
 10
1027.5
 20
526.99184930699994
 30
0.0
 11
959.5
 21
526.99184930699994
 31
0.0
  0
LINE
  5
82E0
  8
011形状
 10
959.5
 20
494.60221032199991
 30
0.0
 11
959.5
 21
527.85787471000003
 31
0.0
  0
LINE
  5
82E1
  8
011形状
 10
959.5
 20
527.85787471000003
 30
0.0
 11
1027.5
 21
527.85787471000003
 31
0.0
  0
LINE
  5
82E2
  8
011形状
 10
1027.5
 20
494.60221032199991
 30
0.0
 11
1027.5
 21
527.85787471000003
 31
0.0
  0
LINE
  5
82E3
  8
011形状
 10
959.5
 20
494.60221032199991
 30
0.0
 11
1027.5
 21
494.60221032199991
 31
0.0
  0
LINE
  5
82E4
  8
011形状
 10
1049.5
 20
495.0
 30
0.0
 11
1027.5
 21
495.0
 31
0.0
  0
LINE
  5
82E5
  8
011形状
 10
959.5
 20
495.0
 30
0.0
 11
939.0
 21
495.0
 31
0.0
  0
LINE
  5
82E6
  8
011形状
 10
1063.0
 20
684.47337525399985
 30
0.0
 11
1063.0
 21
677.47337525399985
 31
0.0
  0
LINE
  5
82E7
  8
011形状
 10
1063.0
 20
684.47337525399985
 30
0.0
 11
1064.2
 21
684.37337525400005
 31
0.0
  0
LINE
  5
82E8
  8
011形状
 10
1063.0
 20
677.47337525399985
 30
0.0
 11
1064.2
 21
677.57337525399987
 31
0.0
  0
ARC
  5
82E9
  8
011形状
 10
1063.9000000000001
 20
679.07337525399987
 30
0.0
 40
1.5
 50
280.99999999999932
 51
337.6000000000036
  0
ARC
  5
82EA
  8
011形状
 10
1063.9000000000001
 20
682.87337525400005
 30
0.0
 40
1.5
 50
22.39999999999641
 51
79.000000000000597
  0
ARC
  5
82EB
  8
011形状
 10
1055.8
 20
680.97337525399985
 30
0.0
 40
9.8000000000000007
 50
345.7999999999966
 51
14.300000000001029
  0
LINE
  5
82EC
  8
001センタ
 10
1067.5999999999999
 20
680.97337525399985
 30
0.0
 11
1059.0
 21
680.97337525399985
 31
0.0
  0
LINE
  5
82ED
  8
011形状
 10
1063.0
 20
515.52662474599992
 30
0.0
 11
1063.0
 21
522.52662474599992
 31
0.0
  0
LINE
  5
82EE
  8
011形状
 10
1063.0
 20
515.52662474599992
 30
0.0
 11
1064.2
 21
515.62662474599995
 31
0.0
  0
LINE
  5
82EF
  8
011形状
 10
1063.0
 20
522.52662474599992
 30
0.0
 11
1064.2
 21
522.42662474600002
 31
0.0
  0
ARC
  5
82F0
  8
011形状
 10
1063.9000000000001
 20
520.92662474600002
 30
0.0
 40
1.5
 50
22.39999999999641
 51
79.000000000000597
  0
ARC
  5
82F1
  8
011形状
 10
1063.9000000000001
 20
517.12662474600006
 30
0.0
 40
1.5
 50
280.99999999999932
 51
337.6000000000036
  0
ARC
  5
82F2
  8
011形状
 10
1055.8
 20
519.02662474599992
 30
0.0
 40
9.8000000000000007
 50
345.69999999999902
 51
14.20000000000339
  0
LINE
  5
82F3
  8
001センタ
 10
1067.5999999999999
 20
519.02662474599992
 30
0.0
 11
1059.0
 21
519.02662474599992
 31
0.0
  0
LINE
  5
82F4
  8
011形状
 10
924.0
 20
684.47337525399985
 30
0.0
 11
924.0
 21
677.47337525399985
 31
0.0
  0
LINE
  5
82F5
  8
011形状
 10
924.0
 20
684.47337525399985
 30
0.0
 11
922.79999999999995
 21
684.37337525400005
 31
0.0
  0
LINE
  5
82F6
  8
011形状
 10
924.0
 20
677.47337525399985
 30
0.0
 11
922.79999999999995
 21
677.57337525399987
 31
0.0
  0
ARC
  5
82F7
  8
011形状
 10
923.09999999999991
 20
679.07337525399987
 30
0.0
 40
1.5
 50
202.3999999999964
 51
259.00000000000063
  0
ARC
  5
82F8
  8
011形状
 10
923.09999999999991
 20
682.87337525400005
 30
0.0
 40
1.5
 50
100.9999999999993
 51
157.6000000000036
  0
ARC
  5
82F9
  8
011形状
 10
931.20000000000005
 20
680.97337525399985
 30
0.0
 40
9.8000000000000007
 50
165.69999999999891
 51
194.2000000000034
  0
LINE
  5
82FA
  8
001センタ
 10
919.39999999999998
 20
680.97337525399985
 30
0.0
 11
928.0
 21
680.97337525399985
 31
0.0
  0
LINE
  5
82FB
  8
011形状
 10
924.0
 20
515.52662474599992
 30
0.0
 11
924.0
 21
522.52662474599992
 31
0.0
  0
LINE
  5
82FC
  8
011形状
 10
924.0
 20
515.52662474599992
 30
0.0
 11
922.79999999999995
 21
515.62662474599995
 31
0.0
  0
LINE
  5
82FD
  8
011形状
 10
924.0
 20
522.52662474599992
 30
0.0
 11
922.79999999999995
 21
522.42662474600002
 31
0.0
  0
ARC
  5
82FE
  8
011形状
 10
923.09999999999991
 20
520.92662474600002
 30
0.0
 40
1.5
 50
100.9999999999993
 51
157.6000000000036
  0
ARC
  5
82FF
  8
011形状
 10
923.09999999999991
 20
517.12662474600006
 30
0.0
 40
1.5
 50
202.3999999999964
 51
259.00000000000063
  0
ARC
  5
8300
  8
011形状
 10
931.20000000000005
 20
519.02662474599992
 30
0.0
 40
9.8000000000000007
 50
165.7999999999966
 51
194.30000000000101
  0
LINE
  5
8301
  8
001センタ
 10
919.39999999999998
 20
519.02662474599992
 30
0.0
 11
928.0
 21
519.02662474599992
 31
0.0
  0
LINE
  5
8302
  8
011形状
 10
924.0
 20
659.0
 30
0.0
 11
914.0
 21
659.0
 31
0.0
  0
LINE
  5
8303
  8
011形状
 10
914.0
 20
657.5
 30
0.0
 11
726.0
 21
657.5
 31
0.0
  0
LINE
  5
8304
  8
011形状
 10
924.0
 20
541.0
 30
0.0
 11
914.0
 21
541.0
 31
0.0
  0
LINE
  5
8305
  8
011形状
 10
914.0
 20
542.49999999999989
 30
0.0
 11
726.0
 21
542.49999999999989
 31
0.0
  0
LINE
  5
8306
  8
011形状
 10
914.0
 20
659.0
 30
0.0
 11
914.0
 21
541.0
 31
0.0
  0
ARC
  5
8307
  8
011形状
 10
970.5
 20
608.31021434299987
 30
0.0
 40
3.2000000000000002
 50
303.1528879289944
 51
236.8471120710056
  0
LINE
  5
8308
  8
011形状
 10
987.5
 20
587.0
 30
0.0
 11
1036.5
 21
587.0
 31
0.0
  0
LINE
  5
8309
  8
011形状
 10
1036.5
 20
587.0
 30
0.0
 11
1036.5
 21
613.0
 31
0.0
  0
LINE
  5
830A
  8
011形状
 10
1036.5
 20
613.0
 30
0.0
 11
987.5
 21
613.0
 31
0.0
  0
LINE
  5
830B
  8
011形状
 10
987.5
 20
613.0
 30
0.0
 11
987.5
 21
587.0
 31
0.0
  0
LINE
  5
830C
  8
011形状
 10
1013.5
 20
613.0
 30
0.0
 11
1013.5
 21
587.0
 31
0.0
  0
CIRCLE
  5
830D
  8
011形状
 10
990.49999999999989
 20
610.0
 30
0.0
 40
2.7999999999999989
  0
LINE
  5
830E
  8
001センタ
 10
986.20000000000005
 20
610.0
 30
0.0
 11
994.79999999999995
 21
610.0
 31
0.0
  0
LINE
  5
830F
  8
001センタ
 10
990.49999999999989
 20
605.70000000000005
 30
0.0
 11
990.49999999999989
 21
614.29999999999995
 31
0.0
  0
LINE
  5
8310
  8
011形状
 10
990.79999999999995
 20
608.20000000000005
 30
0.0
 11
990.20000000000005
 21
608.20000000000005
 31
0.0
  0
LINE
  5
8311
  8
011形状
 10
988.70000000000005
 20
609.70000000000005
 30
0.0
 11
988.70000000000005
 21
610.29999999999995
 31
0.0
  0
LINE
  5
8312
  8
011形状
 10
990.79999999999995
 20
611.79999999999995
 30
0.0
 11
990.20000000000005
 21
611.79999999999995
 31
0.0
  0
LINE
  5
8313
  8
011形状
 10
992.29999999999995
 20
609.70000000000005
 30
0.0
 11
992.29999999999995
 21
610.29999999999995
 31
0.0
  0
LINE
  5
8314
  8
011形状
 10
990.79999999999995
 20
611.79999999999995
 30
0.0
 11
990.79999999999995
 21
611.20000000000005
 31
0.0
  0
LINE
  5
8315
  8
011形状
 10
992.29999999999995
 20
610.29999999999995
 30
0.0
 11
991.69999999999993
 21
610.29999999999995
 31
0.0
  0
LINE
  5
8316
  8
011形状
 10
992.29999999999995
 20
609.70000000000005
 30
0.0
 11
991.69999999999993
 21
609.70000000000005
 31
0.0
  0
LINE
  5
8317
  8
011形状
 10
990.20000000000005
 20
608.20000000000005
 30
0.0
 11
990.20000000000005
 21
608.79999999999995
 31
0.0
  0
LINE
  5
8318
  8
011形状
 10
988.70000000000005
 20
610.29999999999995
 30
0.0
 11
989.29999999999984
 21
610.29999999999995
 31
0.0
  0
LINE
  5
8319
  8
011形状
 10
990.79999999999995
 20
611.79999999999995
 30
0.0
 11
990.79999999999995
 21
611.20000000000005
 31
0.0
  0
LINE
  5
831A
  8
011形状
 10
990.20000000000005
 20
611.79999999999995
 30
0.0
 11
990.20000000000005
 21
611.20000000000005
 31
0.0
  0
LINE
  5
831B
  8
011形状
 10
988.70000000000005
 20
609.70000000000005
 30
0.0
 11
989.29999999999984
 21
609.70000000000005
 31
0.0
  0
LINE
  5
831C
  8
011形状
 10
990.79999999999995
 20
608.20000000000005
 30
0.0
 11
990.79999999999995
 21
608.79999999999995
 31
0.0
  0
ARC
  5
831D
  8
011形状
 10
989.39999999999998
 20
611.10000000000002
 30
0.0
 40
0.8
 50
262.30000000000069
 51
7.6999999999984814
  0
ARC
  5
831E
  8
011形状
 10
989.39999999999998
 20
608.89999999999986
 30
0.0
 40
0.8
 50
352.30000000000149
 51
97.699999999999235
  0
ARC
  5
831F
  8
011形状
 10
991.60000000000002
 20
608.89999999999986
 30
0.0
 40
0.8
 50
82.300000000000736
 51
187.69999999999851
  0
ARC
  5
8320
  8
011形状
 10
991.60000000000002
 20
611.10000000000002
 30
0.0
 40
0.8
 50
172.30000000000149
 51
277.69999999999919
  0
CIRCLE
  5
8321
  8
011形状
 10
1010.5
 20
610.0
 30
0.0
 40
2.7999999999999989
  0
LINE
  5
8322
  8
001センタ
 10
1006.2
 20
610.0
 30
0.0
 11
1014.8
 21
610.0
 31
0.0
  0
LINE
  5
8323
  8
001センタ
 10
1010.5
 20
605.70000000000005
 30
0.0
 11
1010.5
 21
614.29999999999995
 31
0.0
  0
LINE
  5
8324
  8
011形状
 10
1010.8
 20
608.20000000000005
 30
0.0
 11
1010.2
 21
608.20000000000005
 31
0.0
  0
LINE
  5
8325
  8
011形状
 10
1008.7
 20
609.70000000000005
 30
0.0
 11
1008.7
 21
610.29999999999995
 31
0.0
  0
LINE
  5
8326
  8
011形状
 10
1010.8
 20
611.79999999999995
 30
0.0
 11
1010.2
 21
611.79999999999995
 31
0.0
  0
LINE
  5
8327
  8
011形状
 10
1012.3
 20
609.70000000000005
 30
0.0
 11
1012.3
 21
610.29999999999995
 31
0.0
  0
LINE
  5
8328
  8
011形状
 10
1010.8
 20
611.79999999999995
 30
0.0
 11
1010.8
 21
611.20000000000005
 31
0.0
  0
LINE
  5
8329
  8
011形状
 10
1012.3
 20
610.29999999999995
 30
0.0
 11
1011.7
 21
610.29999999999995
 31
0.0
  0
LINE
  5
832A
  8
011形状
 10
1012.3
 20
609.70000000000005
 30
0.0
 11
1011.7
 21
609.70000000000005
 31
0.0
  0
LINE
  5
832B
  8
011形状
 10
1010.2
 20
608.20000000000005
 30
0.0
 11
1010.2
 21
608.79999999999995
 31
0.0
  0
LINE
  5
832C
  8
011形状
 10
1008.7
 20
610.29999999999995
 30
0.0
 11
1009.3
 21
610.29999999999995
 31
0.0
  0
LINE
  5
832D
  8
011形状
 10
1010.8
 20
611.79999999999995
 30
0.0
 11
1010.8
 21
611.20000000000005
 31
0.0
  0
LINE
  5
832E
  8
011形状
 10
1010.2
 20
611.79999999999995
 30
0.0
 11
1010.2
 21
611.20000000000005
 31
0.0
  0
LINE
  5
832F
  8
011形状
 10
1008.7
 20
609.70000000000005
 30
0.0
 11
1009.3
 21
609.70000000000005
 31
0.0
  0
LINE
  5
8330
  8
011形状
 10
1010.8
 20
608.20000000000005
 30
0.0
 11
1010.8
 21
608.79999999999995
 31
0.0
  0
ARC
  5
8331
  8
011形状
 10
1009.4
 20
611.10000000000002
 30
0.0
 40
0.8
 50
262.30000000000069
 51
7.6999999999984814
  0
ARC
  5
8332
  8
011形状
 10
1009.4
 20
608.89999999999986
 30
0.0
 40
0.8
 50
352.30000000000149
 51
97.699999999999235
  0
ARC
  5
8333
  8
011形状
 10
1011.6
 20
608.89999999999986
 30
0.0
 40
0.8
 50
82.300000000000736
 51
187.69999999999851
  0
ARC
  5
8334
  8
011形状
 10
1011.6
 20
611.10000000000002
 30
0.0
 40
0.8
 50
172.30000000000149
 51
277.69999999999919
  0
CIRCLE
  5
8335
  8
011形状
 10
990.49999999999989
 20
590.0
 30
0.0
 40
2.7999999999999989
  0
LINE
  5
8336
  8
001センタ
 10
986.20000000000005
 20
590.0
 30
0.0
 11
994.79999999999995
 21
590.0
 31
0.0
  0
LINE
  5
8337
  8
001センタ
 10
990.49999999999989
 20
594.29999999999995
 30
0.0
 11
990.49999999999989
 21
585.70000000000005
 31
0.0
  0
LINE
  5
8338
  8
011形状
 10
990.79999999999995
 20
591.79999999999995
 30
0.0
 11
990.20000000000005
 21
591.79999999999995
 31
0.0
  0
LINE
  5
8339
  8
011形状
 10
988.70000000000005
 20
590.29999999999995
 30
0.0
 11
988.70000000000005
 21
589.70000000000005
 31
0.0
  0
LINE
  5
833A
  8
011形状
 10
990.79999999999995
 20
588.20000000000005
 30
0.0
 11
990.20000000000005
 21
588.20000000000005
 31
0.0
  0
LINE
  5
833B
  8
011形状
 10
992.29999999999995
 20
590.29999999999995
 30
0.0
 11
992.29999999999995
 21
589.70000000000005
 31
0.0
  0
LINE
  5
833C
  8
011形状
 10
990.79999999999995
 20
588.20000000000005
 30
0.0
 11
990.79999999999995
 21
588.79999999999995
 31
0.0
  0
LINE
  5
833D
  8
011形状
 10
992.29999999999995
 20
589.70000000000005
 30
0.0
 11
991.69999999999993
 21
589.70000000000005
 31
0.0
  0
LINE
  5
833E
  8
011形状
 10
992.29999999999995
 20
590.29999999999995
 30
0.0
 11
991.69999999999993
 21
590.29999999999995
 31
0.0
  0
LINE
  5
833F
  8
011形状
 10
990.20000000000005
 20
591.79999999999995
 30
0.0
 11
990.20000000000005
 21
591.20000000000005
 31
0.0
  0
LINE
  5
8340
  8
011形状
 10
988.70000000000005
 20
589.70000000000005
 30
0.0
 11
989.29999999999984
 21
589.70000000000005
 31
0.0
  0
LINE
  5
8341
  8
011形状
 10
990.79999999999995
 20
588.20000000000005
 30
0.0
 11
990.79999999999995
 21
588.79999999999995
 31
0.0
  0
LINE
  5
8342
  8
011形状
 10
990.20000000000005
 20
588.20000000000005
 30
0.0
 11
990.20000000000005
 21
588.79999999999995
 31
0.0
  0
LINE
  5
8343
  8
011形状
 10
988.70000000000005
 20
590.29999999999995
 30
0.0
 11
989.29999999999984
 21
590.29999999999995
 31
0.0
  0
LINE
  5
8344
  8
011形状
 10
990.79999999999995
 20
591.79999999999995
 30
0.0
 11
990.79999999999995
 21
591.20000000000005
 31
0.0
  0
ARC
  5
8345
  8
011形状
 10
989.39999999999998
 20
588.89999999999998
 30
0.0
 40
0.8
 50
352.30000000000149
 51
97.699999999999235
  0
ARC
  5
8346
  8
011形状
 10
989.39999999999998
 20
591.10000000000002
 30
0.0
 40
0.8
 50
262.30000000000069
 51
7.6999999999984814
  0
ARC
  5
8347
  8
011形状
 10
991.60000000000002
 20
591.10000000000002
 30
0.0
 40
0.8
 50
172.30000000000149
 51
277.69999999999919
  0
ARC
  5
8348
  8
011形状
 10
991.60000000000002
 20
588.89999999999998
 30
0.0
 40
0.8
 50
82.300000000000736
 51
187.69999999999851
  0
CIRCLE
  5
8349
  8
011形状
 10
1010.5
 20
590.0
 30
0.0
 40
2.7999999999999989
  0
LINE
  5
834A
  8
001センタ
 10
1006.2
 20
590.0
 30
0.0
 11
1014.8
 21
590.0
 31
0.0
  0
LINE
  5
834B
  8
001センタ
 10
1010.5
 20
594.29999999999995
 30
0.0
 11
1010.5
 21
585.70000000000005
 31
0.0
  0
LINE
  5
834C
  8
011形状
 10
1010.8
 20
591.79999999999995
 30
0.0
 11
1010.2
 21
591.79999999999995
 31
0.0
  0
LINE
  5
834D
  8
011形状
 10
1008.7
 20
590.29999999999995
 30
0.0
 11
1008.7
 21
589.70000000000005
 31
0.0
  0
LINE
  5
834E
  8
011形状
 10
1010.8
 20
588.20000000000005
 30
0.0
 11
1010.2
 21
588.20000000000005
 31
0.0
  0
LINE
  5
834F
  8
011形状
 10
1012.3
 20
590.29999999999995
 30
0.0
 11
1012.3
 21
589.70000000000005
 31
0.0
  0
LINE
  5
8350
  8
011形状
 10
1010.8
 20
588.20000000000005
 30
0.0
 11
1010.8
 21
588.79999999999995
 31
0.0
  0
LINE
  5
8351
  8
011形状
 10
1012.3
 20
589.70000000000005
 30
0.0
 11
1011.7
 21
589.70000000000005
 31
0.0
  0
LINE
  5
8352
  8
011形状
 10
1012.3
 20
590.29999999999995
 30
0.0
 11
1011.7
 21
590.29999999999995
 31
0.0
  0
LINE
  5
8353
  8
011形状
 10
1010.2
 20
591.79999999999995
 30
0.0
 11
1010.2
 21
591.20000000000005
 31
0.0
  0
LINE
  5
8354
  8
011形状
 10
1008.7
 20
589.70000000000005
 30
0.0
 11
1009.3
 21
589.70000000000005
 31
0.0
  0
LINE
  5
8355
  8
011形状
 10
1010.8
 20
588.20000000000005
 30
0.0
 11
1010.8
 21
588.79999999999995
 31
0.0
  0
LINE
  5
8356
  8
011形状
 10
1010.2
 20
588.20000000000005
 30
0.0
 11
1010.2
 21
588.79999999999995
 31
0.0
  0
LINE
  5
8357
  8
011形状
 10
1008.7
 20
590.29999999999995
 30
0.0
 11
1009.3
 21
590.29999999999995
 31
0.0
  0
LINE
  5
8358
  8
011形状
 10
1010.8
 20
591.79999999999995
 30
0.0
 11
1010.8
 21
591.20000000000005
 31
0.0
  0
ARC
  5
8359
  8
011形状
 10
1009.4
 20
588.89999999999998
 30
0.0
 40
0.8
 50
352.30000000000149
 51
97.699999999999235
  0
ARC
  5
835A
  8
011形状
 10
1009.4
 20
591.10000000000002
 30
0.0
 40
0.8
 50
262.30000000000069
 51
7.6999999999984814
  0
ARC
  5
835B
  8
011形状
 10
1011.6
 20
591.10000000000002
 30
0.0
 40
0.8
 50
172.30000000000149
 51
277.69999999999919
  0
ARC
  5
835C
  8
011形状
 10
1011.6
 20
588.89999999999998
 30
0.0
 40
0.8
 50
82.300000000000736
 51
187.69999999999851
  0
LINE
  5
835D
  8
001センタ
 10
1025.0
 20
613.0
 30
0.0
 11
1025.0
 21
587.0
 31
0.0
  0
CIRCLE
  5
835E
  8
011形状
 10
1025.0
 20
600.0
 30
0.0
 40
8.0
  0
CIRCLE
  5
835F
  8
011形状
 10
1025.0
 20
600.0
 30
0.0
 40
6.4000000000000004
  0
CIRCLE
  5
8360
  8
011形状
 10
1025.0
 20
600.0
 30
0.0
 40
5.0
  0
LINE
  5
8361
  8
011形状
 10
1014.5
 20
608.49999999999989
 30
0.0
 11
1014.5
 21
591.5
 31
0.0
  0
ARC
  5
8362
  8
011形状
 10
1016.5
 20
608.49999999999989
 30
0.0
 40
2.0
 50
90.0
 51
180.0
  0
LINE
  5
8363
  8
011形状
 10
1033.5
 20
610.5
 30
0.0
 11
1016.5
 21
610.5
 31
0.0
  0
CIRCLE
  5
8364
  8
011形状
 10
1017.0
 20
608.0
 30
0.0
 40
2.1000000000000001
  0
LINE
  5
8365
  8
011形状
 10
1018.26
 20
608.21000000000004
 30
0.0
 11
1018.26
 21
607.78999999999985
 31
0.0
  0
LINE
  5
8366
  8
011形状
 10
1017.21
 20
606.74000000000001
 30
0.0
 11
1016.79
 21
606.74000000000001
 31
0.0
  0
LINE
  5
8367
  8
011形状
 10
1015.74
 20
608.21000000000004
 30
0.0
 11
1015.74
 21
607.78999999999985
 31
0.0
  0
LINE
  5
8368
  8
011形状
 10
1017.21
 20
609.25999999999999
 30
0.0
 11
1016.79
 21
609.25999999999999
 31
0.0
  0
LINE
  5
8369
  8
011形状
 10
1015.74
 20
608.21000000000004
 30
0.0
 11
1016.16
 21
608.21000000000004
 31
0.0
  0
LINE
  5
836A
  8
011形状
 10
1016.79
 20
609.25999999999999
 30
0.0
 11
1016.79
 21
608.84000000000003
 31
0.0
  0
LINE
  5
836B
  8
011形状
 10
1017.21
 20
609.25999999999999
 30
0.0
 11
1017.21
 21
608.84000000000003
 31
0.0
  0
LINE
  5
836C
  8
011形状
 10
1018.26
 20
607.78999999999985
 30
0.0
 11
1017.84
 21
607.78999999999985
 31
0.0
  0
LINE
  5
836D
  8
011形状
 10
1016.79
 20
606.74000000000001
 30
0.0
 11
1016.79
 21
607.15999999999997
 31
0.0
  0
LINE
  5
836E
  8
011形状
 10
1015.74
 20
608.21000000000004
 30
0.0
 11
1016.16
 21
608.21000000000004
 31
0.0
  0
LINE
  5
836F
  8
011形状
 10
1015.74
 20
607.78999999999985
 30
0.0
 11
1016.16
 21
607.78999999999985
 31
0.0
  0
LINE
  5
8370
  8
011形状
 10
1017.21
 20
606.74000000000001
 30
0.0
 11
1017.21
 21
607.15999999999997
 31
0.0
  0
LINE
  5
8371
  8
011形状
 10
1018.26
 20
608.21000000000004
 30
0.0
 11
1017.84
 21
608.21000000000004
 31
0.0
  0
ARC
  5
8372
  8
011形状
 10
1016.23
 20
607.23000000000002
 30
0.0
 40
0.5600000000000001
 50
352.30000000000149
 51
97.699999999999235
  0
ARC
  5
8373
  8
011形状
 10
1017.77
 20
607.23000000000002
 30
0.0
 40
0.5600000000000001
 50
82.300000000000736
 51
187.69999999999851
  0
ARC
  5
8374
  8
011形状
 10
1017.77
 20
608.76999999999987
 30
0.0
 40
0.5600000000000001
 50
172.30000000000149
 51
277.69999999999919
  0
ARC
  5
8375
  8
011形状
 10
1016.23
 20
608.76999999999987
 30
0.0
 40
0.5600000000000001
 50
262.30000000000069
 51
7.6999999999984814
  0
LINE
  5
8376
  8
001センタ
 10
1017.0
 20
610.5
 30
0.0
 11
1017.0
 21
605.49999999999989
 31
0.0
  0
LINE
  5
8377
  8
001センタ
 10
1019.5
 20
608.0
 30
0.0
 11
1014.5
 21
608.0
 31
0.0
  0
LINE
  5
8378
  8
011形状
 10
1035.5
 20
608.49999999999989
 30
0.0
 11
1035.5
 21
591.5
 31
0.0
  0
ARC
  5
8379
  8
011形状
 10
1033.5
 20
608.49999999999989
 30
0.0
 40
2.0
 50
0.0
 51
90.0
  0
CIRCLE
  5
837A
  8
011形状
 10
1033.0
 20
608.0
 30
0.0
 40
2.1000000000000001
  0
LINE
  5
837B
  8
011形状
 10
1034.26
 20
608.21000000000004
 30
0.0
 11
1034.26
 21
607.78999999999985
 31
0.0
  0
LINE
  5
837C
  8
011形状
 10
1033.21
 20
606.74000000000001
 30
0.0
 11
1032.79
 21
606.74000000000001
 31
0.0
  0
LINE
  5
837D
  8
011形状
 10
1031.74
 20
608.21000000000004
 30
0.0
 11
1031.74
 21
607.78999999999985
 31
0.0
  0
LINE
  5
837E
  8
011形状
 10
1033.21
 20
609.25999999999999
 30
0.0
 11
1032.79
 21
609.25999999999999
 31
0.0
  0
LINE
  5
837F
  8
011形状
 10
1031.74
 20
608.21000000000004
 30
0.0
 11
1032.1600000000001
 21
608.21000000000004
 31
0.0
  0
LINE
  5
8380
  8
011形状
 10
1032.79
 20
609.25999999999999
 30
0.0
 11
1032.79
 21
608.84000000000003
 31
0.0
  0
LINE
  5
8381
  8
011形状
 10
1033.21
 20
609.25999999999999
 30
0.0
 11
1033.21
 21
608.84000000000003
 31
0.0
  0
LINE
  5
8382
  8
011形状
 10
1034.26
 20
607.78999999999985
 30
0.0
 11
1033.8399999999999
 21
607.78999999999985
 31
0.0
  0
LINE
  5
8383
  8
011形状
 10
1032.79
 20
606.74000000000001
 30
0.0
 11
1032.79
 21
607.15999999999997
 31
0.0
  0
LINE
  5
8384
  8
011形状
 10
1031.74
 20
608.21000000000004
 30
0.0
 11
1032.1600000000001
 21
608.21000000000004
 31
0.0
  0
LINE
  5
8385
  8
011形状
 10
1031.74
 20
607.78999999999985
 30
0.0
 11
1032.1600000000001
 21
607.78999999999985
 31
0.0
  0
LINE
  5
8386
  8
011形状
 10
1033.21
 20
606.74000000000001
 30
0.0
 11
1033.21
 21
607.15999999999997
 31
0.0
  0
LINE
  5
8387
  8
011形状
 10
1034.26
 20
608.21000000000004
 30
0.0
 11
1033.8399999999999
 21
608.21000000000004
 31
0.0
  0
ARC
  5
8388
  8
011形状
 10
1032.23
 20
607.23000000000002
 30
0.0
 40
0.5600000000000001
 50
352.30000000000149
 51
97.699999999999235
  0
ARC
  5
8389
  8
011形状
 10
1033.77
 20
607.23000000000002
 30
0.0
 40
0.5600000000000001
 50
82.300000000000736
 51
187.69999999999851
  0
ARC
  5
838A
  8
011形状
 10
1033.77
 20
608.76999999999987
 30
0.0
 40
0.5600000000000001
 50
172.30000000000149
 51
277.69999999999919
  0
ARC
  5
838B
  8
011形状
 10
1032.23
 20
608.76999999999987
 30
0.0
 40
0.5600000000000001
 50
262.30000000000069
 51
7.6999999999984814
  0
LINE
  5
838C
  8
001センタ
 10
1035.5
 20
608.0
 30
0.0
 11
1030.5
 21
608.0
 31
0.0
  0
LINE
  5
838D
  8
001センタ
 10
1033.0
 20
610.64999999999986
 30
0.0
 11
1033.0
 21
605.35000000000002
 31
0.0
  0
LINE
  5
838E
  8
011形状
 10
1033.5
 20
589.5
 30
0.0
 11
1016.5
 21
589.5
 31
0.0
  0
ARC
  5
838F
  8
011形状
 10
1033.5
 20
591.5
 30
0.0
 40
2.0
 50
270.0
 51
0.0
  0
CIRCLE
  5
8390
  8
011形状
 10
1033.0
 20
592.0
 30
0.0
 40
2.1000000000000001
  0
LINE
  5
8391
  8
011形状
 10
1034.26
 20
592.21000000000004
 30
0.0
 11
1034.26
 21
591.78999999999985
 31
0.0
  0
LINE
  5
8392
  8
011形状
 10
1033.21
 20
590.7399999999999
 30
0.0
 11
1032.79
 21
590.7399999999999
 31
0.0
  0
LINE
  5
8393
  8
011形状
 10
1031.74
 20
592.21000000000004
 30
0.0
 11
1031.74
 21
591.78999999999985
 31
0.0
  0
LINE
  5
8394
  8
011形状
 10
1033.21
 20
593.25999999999988
 30
0.0
 11
1032.79
 21
593.25999999999988
 31
0.0
  0
LINE
  5
8395
  8
011形状
 10
1031.74
 20
592.21000000000004
 30
0.0
 11
1032.1600000000001
 21
592.21000000000004
 31
0.0
  0
LINE
  5
8396
  8
011形状
 10
1032.79
 20
593.25999999999988
 30
0.0
 11
1032.79
 21
592.84000000000003
 31
0.0
  0
LINE
  5
8397
  8
011形状
 10
1033.21
 20
593.25999999999988
 30
0.0
 11
1033.21
 21
592.84000000000003
 31
0.0
  0
LINE
  5
8398
  8
011形状
 10
1034.26
 20
591.78999999999985
 30
0.0
 11
1033.8399999999999
 21
591.78999999999985
 31
0.0
  0
LINE
  5
8399
  8
011形状
 10
1032.79
 20
590.7399999999999
 30
0.0
 11
1032.79
 21
591.15999999999997
 31
0.0
  0
LINE
  5
839A
  8
011形状
 10
1031.74
 20
592.21000000000004
 30
0.0
 11
1032.1600000000001
 21
592.21000000000004
 31
0.0
  0
LINE
  5
839B
  8
011形状
 10
1031.74
 20
591.78999999999985
 30
0.0
 11
1032.1600000000001
 21
591.78999999999985
 31
0.0
  0
LINE
  5
839C
  8
011形状
 10
1033.21
 20
590.7399999999999
 30
0.0
 11
1033.21
 21
591.15999999999997
 31
0.0
  0
LINE
  5
839D
  8
011形状
 10
1034.26
 20
592.21000000000004
 30
0.0
 11
1033.8399999999999
 21
592.21000000000004
 31
0.0
  0
ARC
  5
839E
  8
011形状
 10
1032.23
 20
591.23000000000002
 30
0.0
 40
0.5600000000000001
 50
352.30000000000149
 51
97.699999999999235
  0
ARC
  5
839F
  8
011形状
 10
1033.77
 20
591.23000000000002
 30
0.0
 40
0.5600000000000001
 50
82.300000000000736
 51
187.69999999999851
  0
ARC
  5
83A0
  8
011形状
 10
1033.77
 20
592.76999999999987
 30
0.0
 40
0.5600000000000001
 50
172.30000000000149
 51
277.69999999999919
  0
ARC
  5
83A1
  8
011形状
 10
1032.23
 20
592.76999999999987
 30
0.0
 40
0.5600000000000001
 50
262.30000000000069
 51
7.6999999999984814
  0
LINE
  5
83A2
  8
001センタ
 10
1035.5
 20
592.0
 30
0.0
 11
1030.5
 21
592.0
 31
0.0
  0
LINE
  5
83A3
  8
001センタ
 10
1033.0
 20
594.5
 30
0.0
 11
1033.0
 21
589.54999999999995
 31
0.0
  0
ARC
  5
83A4
  8
011形状
 10
1016.5
 20
591.5
 30
0.0
 40
2.0
 50
180.0
 51
270.0
  0
CIRCLE
  5
83A5
  8
011形状
 10
1017.0
 20
592.0
 30
0.0
 40
2.1000000000000001
  0
LINE
  5
83A6
  8
011形状
 10
1018.26
 20
592.21000000000004
 30
0.0
 11
1018.26
 21
591.78999999999985
 31
0.0
  0
LINE
  5
83A7
  8
011形状
 10
1017.21
 20
590.7399999999999
 30
0.0
 11
1016.79
 21
590.7399999999999
 31
0.0
  0
LINE
  5
83A8
  8
011形状
 10
1015.74
 20
592.21000000000004
 30
0.0
 11
1015.74
 21
591.78999999999985
 31
0.0
  0
LINE
  5
83A9
  8
011形状
 10
1017.21
 20
593.25999999999988
 30
0.0
 11
1016.79
 21
593.25999999999988
 31
0.0
  0
LINE
  5
83AA
  8
011形状
 10
1015.74
 20
592.21000000000004
 30
0.0
 11
1016.16
 21
592.21000000000004
 31
0.0
  0
LINE
  5
83AB
  8
011形状
 10
1016.79
 20
593.25999999999988
 30
0.0
 11
1016.79
 21
592.84000000000003
 31
0.0
  0
LINE
  5
83AC
  8
011形状
 10
1017.21
 20
593.25999999999988
 30
0.0
 11
1017.21
 21
592.84000000000003
 31
0.0
  0
LINE
  5
83AD
  8
011形状
 10
1018.26
 20
591.78999999999985
 30
0.0
 11
1017.84
 21
591.78999999999985
 31
0.0
  0
LINE
  5
83AE
  8
011形状
 10
1016.79
 20
590.7399999999999
 30
0.0
 11
1016.79
 21
591.15999999999997
 31
0.0
  0
LINE
  5
83AF
  8
011形状
 10
1015.74
 20
592.21000000000004
 30
0.0
 11
1016.16
 21
592.21000000000004
 31
0.0
  0
LINE
  5
83B0
  8
011形状
 10
1015.74
 20
591.78999999999985
 30
0.0
 11
1016.16
 21
591.78999999999985
 31
0.0
  0
LINE
  5
83B1
  8
011形状
 10
1017.21
 20
590.7399999999999
 30
0.0
 11
1017.21
 21
591.15999999999997
 31
0.0
  0
LINE
  5
83B2
  8
011形状
 10
1018.26
 20
592.21000000000004
 30
0.0
 11
1017.84
 21
592.21000000000004
 31
0.0
  0
ARC
  5
83B3
  8
011形状
 10
1016.23
 20
591.23000000000002
 30
0.0
 40
0.5600000000000001
 50
352.30000000000149
 51
97.699999999999235
  0
ARC
  5
83B4
  8
011形状
 10
1017.77
 20
591.23000000000002
 30
0.0
 40
0.5600000000000001
 50
82.300000000000736
 51
187.69999999999851
  0
ARC
  5
83B5
  8
011形状
 10
1017.77
 20
592.76999999999987
 30
0.0
 40
0.5600000000000001
 50
172.30000000000149
 51
277.69999999999919
  0
ARC
  5
83B6
  8
011形状
 10
1016.23
 20
592.76999999999987
 30
0.0
 40
0.5600000000000001
 50
262.30000000000069
 51
7.6999999999984814
  0
LINE
  5
83B7
  8
001センタ
 10
1017.0
 20
594.64999999999986
 30
0.0
 11
1017.0
 21
589.5
 31
0.0
  0
LINE
  5
83B8
  8
001センタ
 10
1019.5
 20
592.0
 30
0.0
 11
1014.5
 21
592.0
 31
0.0
  0
LINE
  5
83B9
  8
011形状
 10
986.5
 20
622.25010367699986
 30
0.0
 11
947.49999999999989
 21
622.25010367699986
 31
0.0
  0
CIRCLE
  5
83BA
  8
011形状
 10
983.5
 20
619.39019879
 30
0.0
 40
2.7999999999999989
  0
LINE
  5
83BB
  8
001センタ
 10
979.19999999999993
 20
619.39019879
 30
0.0
 11
987.79999999999995
 21
619.39019879
 31
0.0
  0
LINE
  5
83BC
  8
001センタ
 10
983.5
 20
615.09019879000004
 30
0.0
 11
983.5
 21
623.69019878999995
 31
0.0
  0
LINE
  5
83BD
  8
011形状
 10
983.79999999999995
 20
617.59019879000004
 30
0.0
 11
983.20000000000005
 21
617.59019879000004
 31
0.0
  0
LINE
  5
83BE
  8
011形状
 10
981.70000000000005
 20
619.09019879000004
 30
0.0
 11
981.70000000000005
 21
619.69019878999995
 31
0.0
  0
LINE
  5
83BF
  8
011形状
 10
983.79999999999995
 20
621.19019878999995
 30
0.0
 11
983.20000000000005
 21
621.19019878999995
 31
0.0
  0
LINE
  5
83C0
  8
011形状
 10
985.29999999999995
 20
619.09019879000004
 30
0.0
 11
985.29999999999995
 21
619.69019878999995
 31
0.0
  0
LINE
  5
83C1
  8
011形状
 10
983.79999999999995
 20
621.19019878999995
 30
0.0
 11
983.79999999999995
 21
620.59019879000004
 31
0.0
  0
LINE
  5
83C2
  8
011形状
 10
985.29999999999995
 20
619.69019878999995
 30
0.0
 11
984.70000000000005
 21
619.69019878999995
 31
0.0
  0
LINE
  5
83C3
  8
011形状
 10
985.29999999999995
 20
619.09019879000004
 30
0.0
 11
984.70000000000005
 21
619.09019879000004
 31
0.0
  0
LINE
  5
83C4
  8
011形状
 10
983.20000000000005
 20
617.59019879000004
 30
0.0
 11
983.20000000000005
 21
618.19019878999995
 31
0.0
  0
LINE
  5
83C5
  8
011形状
 10
981.70000000000005
 20
619.69019878999995
 30
0.0
 11
982.29999999999995
 21
619.69019878999995
 31
0.0
  0
LINE
  5
83C6
  8
011形状
 10
983.79999999999995
 20
621.19019878999995
 30
0.0
 11
983.79999999999995
 21
620.59019879000004
 31
0.0
  0
LINE
  5
83C7
  8
011形状
 10
983.20000000000005
 20
621.19019878999995
 30
0.0
 11
983.20000000000005
 21
620.59019879000004
 31
0.0
  0
LINE
  5
83C8
  8
011形状
 10
981.70000000000005
 20
619.09019879000004
 30
0.0
 11
982.29999999999995
 21
619.09019879000004
 31
0.0
  0
LINE
  5
83C9
  8
011形状
 10
983.79999999999995
 20
617.59019879000004
 30
0.0
 11
983.79999999999995
 21
618.19019878999995
 31
0.0
  0
ARC
  5
83CA
  8
011形状
 10
982.39999999999986
 20
620.49019879000002
 30
0.0
 40
0.8
 50
262.30000000000069
 51
7.6999999999984814
  0
ARC
  5
83CB
  8
011形状
 10
982.39999999999986
 20
618.29019878999998
 30
0.0
 40
0.8
 50
352.30000000000149
 51
97.699999999999235
  0
ARC
  5
83CC
  8
011形状
 10
984.60000000000002
 20
618.29019878999998
 30
0.0
 40
0.8
 50
82.300000000000736
 51
187.69999999999851
  0
ARC
  5
83CD
  8
011形状
 10
984.60000000000002
 20
620.49019879000002
 30
0.0
 40
0.8
 50
172.30000000000149
 51
277.69999999999919
  0
CIRCLE
  5
83CE
  8
011形状
 10
950.5
 20
619.39019879
 30
0.0
 40
2.7999999999999989
  0
LINE
  5
83CF
  8
001センタ
 10
946.20000000000005
 20
619.39019879
 30
0.0
 11
954.79999999999995
 21
619.39019879
 31
0.0
  0
LINE
  5
83D0
  8
001センタ
 10
950.5
 20
615.09019879000004
 30
0.0
 11
950.5
 21
623.69019878999995
 31
0.0
  0
LINE
  5
83D1
  8
011形状
 10
950.79999999999995
 20
617.59019879000004
 30
0.0
 11
950.20000000000005
 21
617.59019879000004
 31
0.0
  0
LINE
  5
83D2
  8
011形状
 10
948.70000000000005
 20
619.09019879000004
 30
0.0
 11
948.70000000000005
 21
619.69019878999995
 31
0.0
  0
LINE
  5
83D3
  8
011形状
 10
950.79999999999995
 20
621.19019878999995
 30
0.0
 11
950.20000000000005
 21
621.19019878999995
 31
0.0
  0
LINE
  5
83D4
  8
011形状
 10
952.29999999999995
 20
619.09019879000004
 30
0.0
 11
952.29999999999995
 21
619.69019878999995
 31
0.0
  0
LINE
  5
83D5
  8
011形状
 10
950.79999999999995
 20
621.19019878999995
 30
0.0
 11
950.79999999999995
 21
620.59019879000004
 31
0.0
  0
LINE
  5
83D6
  8
011形状
 10
952.29999999999995
 20
619.69019878999995
 30
0.0
 11
951.70000000000005
 21
619.69019878999995
 31
0.0
  0
LINE
  5
83D7
  8
011形状
 10
952.29999999999995
 20
619.09019879000004
 30
0.0
 11
951.70000000000005
 21
619.09019879000004
 31
0.0
  0
LINE
  5
83D8
  8
011形状
 10
950.20000000000005
 20
617.59019879000004
 30
0.0
 11
950.20000000000005
 21
618.19019878999995
 31
0.0
  0
LINE
  5
83D9
  8
011形状
 10
948.70000000000005
 20
619.69019878999995
 30
0.0
 11
949.29999999999995
 21
619.69019878999995
 31
0.0
  0
LINE
  5
83DA
  8
011形状
 10
950.79999999999995
 20
621.19019878999995
 30
0.0
 11
950.79999999999995
 21
620.59019879000004
 31
0.0
  0
LINE
  5
83DB
  8
011形状
 10
950.20000000000005
 20
621.19019878999995
 30
0.0
 11
950.20000000000005
 21
620.59019879000004
 31
0.0
  0
LINE
  5
83DC
  8
011形状
 10
948.70000000000005
 20
619.09019879000004
 30
0.0
 11
949.29999999999995
 21
619.09019879000004
 31
0.0
  0
LINE
  5
83DD
  8
011形状
 10
950.79999999999995
 20
617.59019879000004
 30
0.0
 11
950.79999999999995
 21
618.19019878999995
 31
0.0
  0
ARC
  5
83DE
  8
011形状
 10
949.39999999999986
 20
620.49019879000002
 30
0.0
 40
0.8
 50
262.30000000000069
 51
7.6999999999984814
  0
ARC
  5
83DF
  8
011形状
 10
949.39999999999986
 20
618.29019878999998
 30
0.0
 40
0.8
 50
352.30000000000149
 51
97.699999999999235
  0
ARC
  5
83E0
  8
011形状
 10
951.60000000000002
 20
618.29019878999998
 30
0.0
 40
0.8
 50
82.300000000000736
 51
187.69999999999851
  0
ARC
  5
83E1
  8
011形状
 10
951.60000000000002
 20
620.49019879000002
 30
0.0
 40
0.8
 50
172.30000000000149
 51
277.69999999999919
  0
LINE
  5
83E2
  8
001センタ
 10
970.5
 20
580.0
 30
0.0
 11
970.5
 21
620.15243477699994
 31
0.0
  0
LINE
  5
83E3
  8
011形状
 10
947.49999999999989
 20
577.74989632300003
 30
0.0
 11
986.5
 21
577.74989632300003
 31
0.0
  0
LINE
  5
83E4
  8
011形状
 10
986.5
 20
577.74989632300003
 30
0.0
 11
986.5
 21
622.25010367699986
 31
0.0
  0
LINE
  5
83E5
  8
011形状
 10
947.49999999999989
 20
622.25010367699986
 30
0.0
 11
947.49999999999989
 21
577.74989632300003
 31
0.0
  0
CIRCLE
  5
83E6
  8
011形状
 10
950.5
 20
580.60980121
 30
0.0
 40
2.7999999999999989
  0
LINE
  5
83E7
  8
001センタ
 10
946.20000000000005
 20
580.60980121
 30
0.0
 11
954.79999999999995
 21
580.60980121
 31
0.0
  0
LINE
  5
83E8
  8
001センタ
 10
950.5
 20
584.90980120999996
 30
0.0
 11
950.5
 21
576.30980120999993
 31
0.0
  0
LINE
  5
83E9
  8
011形状
 10
950.79999999999995
 20
582.40980121000007
 30
0.0
 11
950.20000000000005
 21
582.40980121000007
 31
0.0
  0
LINE
  5
83EA
  8
011形状
 10
948.70000000000005
 20
580.90980120999996
 30
0.0
 11
948.70000000000005
 21
580.30980120999993
 31
0.0
  0
LINE
  5
83EB
  8
011形状
 10
950.79999999999995
 20
578.80980120999993
 30
0.0
 11
950.20000000000005
 21
578.80980120999993
 31
0.0
  0
LINE
  5
83EC
  8
011形状
 10
952.29999999999995
 20
580.90980120999996
 30
0.0
 11
952.29999999999995
 21
580.30980120999993
 31
0.0
  0
LINE
  5
83ED
  8
011形状
 10
950.79999999999995
 20
578.80980120999993
 30
0.0
 11
950.79999999999995
 21
579.40980120999996
 31
0.0
  0
LINE
  5
83EE
  8
011形状
 10
952.29999999999995
 20
580.30980120999993
 30
0.0
 11
951.70000000000005
 21
580.30980120999993
 31
0.0
  0
LINE
  5
83EF
  8
011形状
 10
952.29999999999995
 20
580.90980120999996
 30
0.0
 11
951.70000000000005
 21
580.90980120999996
 31
0.0
  0
LINE
  5
83F0
  8
011形状
 10
950.20000000000005
 20
582.40980121000007
 30
0.0
 11
950.20000000000005
 21
581.80980120999993
 31
0.0
  0
LINE
  5
83F1
  8
011形状
 10
948.70000000000005
 20
580.30980120999993
 30
0.0
 11
949.29999999999995
 21
580.30980120999993
 31
0.0
  0
LINE
  5
83F2
  8
011形状
 10
950.79999999999995
 20
578.80980120999993
 30
0.0
 11
950.79999999999995
 21
579.40980120999996
 31
0.0
  0
LINE
  5
83F3
  8
011形状
 10
950.20000000000005
 20
578.80980120999993
 30
0.0
 11
950.20000000000005
 21
579.40980120999996
 31
0.0
  0
LINE
  5
83F4
  8
011形状
 10
948.70000000000005
 20
580.90980120999996
 30
0.0
 11
949.29999999999995
 21
580.90980120999996
 31
0.0
  0
LINE
  5
83F5
  8
011形状
 10
950.79999999999995
 20
582.40980121000007
 30
0.0
 11
950.79999999999995
 21
581.80980120999993
 31
0.0
  0
ARC
  5
83F6
  8
011形状
 10
949.39999999999986
 20
579.50980120999986
 30
0.0
 40
0.8
 50
352.30000000000149
 51
97.699999999999235
  0
ARC
  5
83F7
  8
011形状
 10
949.39999999999986
 20
581.70980121000002
 30
0.0
 40
0.8
 50
262.30000000000069
 51
7.6999999999984814
  0
ARC
  5
83F8
  8
011形状
 10
951.60000000000002
 20
581.70980121000002
 30
0.0
 40
0.8
 50
172.30000000000149
 51
277.69999999999919
  0
ARC
  5
83F9
  8
011形状
 10
951.60000000000002
 20
579.50980120999986
 30
0.0
 40
0.8
 50
82.300000000000736
 51
187.69999999999851
  0
CIRCLE
  5
83FA
  8
011形状
 10
983.5
 20
580.60980121
 30
0.0
 40
2.7999999999999989
  0
LINE
  5
83FB
  8
001センタ
 10
979.19999999999993
 20
580.60980121
 30
0.0
 11
987.79999999999995
 21
580.60980121
 31
0.0
  0
LINE
  5
83FC
  8
001センタ
 10
983.5
 20
584.90980120999996
 30
0.0
 11
983.5
 21
576.30980120999993
 31
0.0
  0
LINE
  5
83FD
  8
011形状
 10
983.79999999999995
 20
582.40980121000007
 30
0.0
 11
983.20000000000005
 21
582.40980121000007
 31
0.0
  0
LINE
  5
83FE
  8
011形状
 10
981.70000000000005
 20
580.90980120999996
 30
0.0
 11
981.70000000000005
 21
580.30980120999993
 31
0.0
  0
LINE
  5
83FF
  8
011形状
 10
983.79999999999995
 20
578.80980120999993
 30
0.0
 11
983.20000000000005
 21
578.80980120999993
 31
0.0
  0
LINE
  5
8400
  8
011形状
 10
985.29999999999995
 20
580.90980120999996
 30
0.0
 11
985.29999999999995
 21
580.30980120999993
 31
0.0
  0
LINE
  5
8401
  8
011形状
 10
983.79999999999995
 20
578.80980120999993
 30
0.0
 11
983.79999999999995
 21
579.40980120999996
 31
0.0
  0
LINE
  5
8402
  8
011形状
 10
985.29999999999995
 20
580.30980120999993
 30
0.0
 11
984.70000000000005
 21
580.30980120999993
 31
0.0
  0
LINE
  5
8403
  8
011形状
 10
985.29999999999995
 20
580.90980120999996
 30
0.0
 11
984.70000000000005
 21
580.90980120999996
 31
0.0
  0
LINE
  5
8404
  8
011形状
 10
983.20000000000005
 20
582.40980121000007
 30
0.0
 11
983.20000000000005
 21
581.80980120999993
 31
0.0
  0
LINE
  5
8405
  8
011形状
 10
981.70000000000005
 20
580.30980120999993
 30
0.0
 11
982.29999999999995
 21
580.30980120999993
 31
0.0
  0
LINE
  5
8406
  8
011形状
 10
983.79999999999995
 20
578.80980120999993
 30
0.0
 11
983.79999999999995
 21
579.40980120999996
 31
0.0
  0
LINE
  5
8407
  8
011形状
 10
983.20000000000005
 20
578.80980120999993
 30
0.0
 11
983.20000000000005
 21
579.40980120999996
 31
0.0
  0
LINE
  5
8408
  8
011形状
 10
981.70000000000005
 20
580.90980120999996
 30
0.0
 11
982.29999999999995
 21
580.90980120999996
 31
0.0
  0
LINE
  5
8409
  8
011形状
 10
983.79999999999995
 20
582.40980121000007
 30
0.0
 11
983.79999999999995
 21
581.80980120999993
 31
0.0
  0
ARC
  5
840A
  8
011形状
 10
982.39999999999986
 20
579.50980120999986
 30
0.0
 40
0.8
 50
352.30000000000149
 51
97.699999999999235
  0
ARC
  5
840B
  8
011形状
 10
982.39999999999986
 20
581.70980121000002
 30
0.0
 40
0.8
 50
262.30000000000069
 51
7.6999999999984814
  0
ARC
  5
840C
  8
011形状
 10
984.60000000000002
 20
581.70980121000002
 30
0.0
 40
0.8
 50
172.30000000000149
 51
277.69999999999919
  0
ARC
  5
840D
  8
011形状
 10
984.60000000000002
 20
579.50980120999986
 30
0.0
 40
0.8
 50
82.300000000000736
 51
187.69999999999851
  0
LINE
  5
840E
  8
011形状
 10
972.25
 20
605.63112867799987
 30
0.0
 11
972.25
 21
596.22444985699985
 31
0.0
  0
LINE
  5
840F
  8
011形状
 10
968.75
 20
605.63112867799987
 30
0.0
 11
968.75
 21
596.22444985699985
 31
0.0
  0
CIRCLE
  5
8410
  8
011形状
 10
970.5
 20
589.95961417800004
 30
0.0
 40
5.5
  0
LINE
  5
8411
  8
011形状
 10
976.0
 20
591.01028645400004
 30
0.0
 11
976.0
 21
589.95961417800004
 31
0.0
  0
LINE
  5
8412
  8
011形状
 10
965.0
 20
591.01028645400004
 30
0.0
 11
965.0
 21
589.95961417800004
 31
0.0
  0
ARC
  5
8413
  8
011形状
 10
970.5
 20
591.01028645400004
 30
0.0
 40
5.5
 50
0.0
 51
180.0
  0
CIRCLE
  5
8414
  8
011形状
 10
970.5
 20
589.81634068599999
 30
0.0
 40
5.0
  0
ARC
  5
8415
  8
011形状
 10
970.5
 20
589.95961417800004
 30
0.0
 40
5.0
 50
0.0
 51
180.0
  0
LINE
  5
8416
  8
011形状
 10
975.5
 20
589.81634068599999
 30
0.0
 11
975.5
 21
589.95961417800004
 31
0.0
  0
LINE
  5
8417
  8
011形状
 10
965.49999999999989
 20
589.81634068599999
 30
0.0
 11
965.49999999999989
 21
589.95961417800004
 31
0.0
  0
LINE
  5
8418
  8
011形状
 10
1168.0
 20
657.5
 30
0.0
 11
1402.0
 21
657.5
 31
0.0
  0
LINE
  5
8419
  8
011形状
 10
1402.0
 20
657.5
 30
0.0
 11
1404.0
 21
655.49999999999989
 31
0.0
  0
LINE
  5
841A
  8
011形状
 10
1168.0
 20
542.49999999999989
 30
0.0
 11
1402.0
 21
542.49999999999989
 31
0.0
  0
LINE
  5
841B
  8
011形状
 10
1402.0
 20
542.49999999999989
 30
0.0
 11
1404.0
 21
544.5
 31
0.0
  0
LINE
  5
841C
  8
011形状
 10
1404.0
 20
544.5
 30
0.0
 11
1404.0
 21
655.49999999999989
 31
0.0
  0
LINE
  5
841D
  8
011形状
 10
1167.0
 20
675.0
 30
0.0
 11
1063.0
 21
675.0
 31
0.0
  0
LINE
  5
841E
  8
011形状
 10
1168.0
 20
674.0
 30
0.0
 11
1167.0
 21
675.0
 31
0.0
  0
LINE
  5
841F
  8
011形状
 10
1167.0
 20
525.0
 30
0.0
 11
1063.0
 21
525.0
 31
0.0
  0
LINE
  5
8420
  8
011形状
 10
1167.0
 20
525.0
 30
0.0
 11
1168.0
 21
526.0
 31
0.0
  0
LINE
  5
8421
  8
011形状
 10
1167.0
 20
675.0
 30
0.0
 11
1167.0
 21
525.0
 31
0.0
  0
LINE
  5
8422
  8
011形状
 10
1168.0
 20
674.0
 30
0.0
 11
1168.0
 21
526.0
 31
0.0
  0
LINE
  5
8423
  8
011形状
 10
1402.0
 20
542.49999999999989
 30
0.0
 11
1402.0
 21
584.0
 31
0.0
  0
LINE
  5
8424
  8
011形状
 10
1402.0
 20
616.0
 30
0.0
 11
1402.0
 21
657.5
 31
0.0
  0
LINE
  5
8425
  8
011形状
 10
1404.0
 20
584.0
 30
0.0
 11
1260.0
 21
584.0
 31
0.0
  0
LINE
  5
8426
  8
011形状
 10
1404.0
 20
616.0
 30
0.0
 11
1260.0
 21
616.0
 31
0.0
  0
ARC
  5
8427
  8
011形状
 10
1260.0
 20
600.0
 30
0.0
 40
16.0
 50
90.0
 51
270.0
  0
LINE
  5
8428
  8
001センタ
 10
1419.0
 20
600.0
 30
0.0
 11
709.0
 21
600.0
 31
0.0
  0
LINE
  5
8429
  8
011形状
 10
927.5
 20
723.5
 30
0.0
 11
927.5
 21
704.58203932499987
 31
0.0
  0
LINE
  5
842A
  8
011形状
 10
927.5
 20
723.5
 30
0.0
 11
929.49999999999989
 21
725.49999999999989
 31
0.0
  0
POINT
  5
842B
  8
011形状
 10
988.49999999999989
 20
721.49999999999989
 30
0.0
  0
POINT
  5
842C
  8
011形状
 10
983.5
 20
716.5
 30
0.0
  0
POINT
  5
842D
  8
011形状
 10
1003.5
 20
716.5
 30
0.0
  0
ARC
  5
842E
  8
011形状
 10
988.49999999999989
 20
716.5
 30
0.0
 40
5.0
 50
90.0
 51
270.0
  0
ARC
  5
842F
  8
011形状
 10
998.49999999999989
 20
716.5
 30
0.0
 40
5.0
 50
270.0
 51
90.000044049996362
  0
LINE
  5
8430
  8
001センタ
 10
1006.0
 20
716.5
 30
0.0
 11
981.0
 21
716.5
 31
0.0
  0
LINE
  5
8431
  8
011形状
 10
988.49999999999989
 20
721.49999999999989
 30
0.0
 11
998.49999999999989
 21
721.49999999999989
 31
0.0
  0
LINE
  5
8432
  8
011形状
 10
988.49999999999989
 20
711.5
 30
0.0
 11
998.49999999999989
 21
711.5
 31
0.0
  0
LINE
  5
8433
  8
011形状
 10
1059.5
 20
704.58203932499987
 30
0.0
 11
1059.5
 21
723.5
 31
0.0
  0
LINE
  5
8434
  8
011形状
 10
1059.5
 20
723.5
 30
0.0
 11
1057.5
 21
725.49999999999989
 31
0.0
  0
LINE
  5
8435
  8
011形状
 10
929.49999999999989
 20
725.49999999999989
 30
0.0
 11
1057.5
 21
725.49999999999989
 31
0.0
  0
LINE
  5
8436
  8
011形状
 10
1049.5
 20
707.5
 30
0.0
 11
1049.5
 21
704.58203932499987
 31
0.0
  0
LINE
  5
8437
  8
011形状
 10
939.0
 20
707.5
 30
0.0
 11
1049.5
 21
707.5
 31
0.0
  0
LINE
  5
8438
  8
011形状
 10
1049.5
 20
704.58203932499987
 30
0.0
 11
1059.5
 21
704.58203932499987
 31
0.0
  0
LINE
  5
8439
  8
011形状
 10
927.5
 20
704.58203932499987
 30
0.0
 11
939.0
 21
704.58203932499987
 31
0.0
  0
LINE
  5
843A
  8
011形状
 10
939.0
 20
704.58203932499987
 30
0.0
 11
939.0
 21
707.5
 31
0.0
  0
LINE
  5
843B
  8
001センタ
 10
998.49999999999989
 20
714.0
 30
0.0
 11
998.49999999999989
 21
719.0
 31
0.0
  0
LINE
  5
843C
  8
001センタ
 10
988.49999999999989
 20
714.0
 30
0.0
 11
988.49999999999989
 21
719.0
 31
0.0
  0
LINE
  5
843D
  8
001センタ
 10
993.5
 20
699.0
 30
0.0
 11
993.5
 21
734.0
 31
0.0
  0
LINE
  5
843E
  8
011形状
 10
927.5
 20
476.49999999999989
 30
0.0
 11
927.5
 21
495.41796067500002
 31
0.0
  0
LINE
  5
843F
  8
011形状
 10
927.5
 20
476.49999999999989
 30
0.0
 11
929.49999999999989
 21
474.5
 31
0.0
  0
POINT
  5
8440
  8
011形状
 10
988.49999999999989
 20
478.5
 30
0.0
  0
POINT
  5
8441
  8
011形状
 10
983.5
 20
483.49999999999989
 30
0.0
  0
POINT
  5
8442
  8
011形状
 10
1003.5
 20
483.49999999999989
 30
0.0
  0
ARC
  5
8443
  8
011形状
 10
988.49999999999989
 20
483.49999999999989
 30
0.0
 40
5.0
 50
90.0
 51
270.0
  0
ARC
  5
8444
  8
011形状
 10
998.49999999999989
 20
483.49999999999989
 30
0.0
 40
5.0
 50
269.99995595000371
 51
90.0
  0
LINE
  5
8445
  8
001センタ
 10
1006.0
 20
483.49999999999989
 30
0.0
 11
981.0
 21
483.49999999999989
 31
0.0
  0
LINE
  5
8446
  8
011形状
 10
988.49999999999989
 20
478.5
 30
0.0
 11
998.49999999999989
 21
478.5
 31
0.0
  0
LINE
  5
8447
  8
011形状
 10
988.49999999999989
 20
488.49999999999989
 30
0.0
 11
998.49999999999989
 21
488.49999999999989
 31
0.0
  0
LINE
  5
8448
  8
011形状
 10
1059.5
 20
495.41796067500002
 30
0.0
 11
1059.5
 21
476.49999999999989
 31
0.0
  0
LINE
  5
8449
  8
011形状
 10
1059.5
 20
476.49999999999989
 30
0.0
 11
1057.5
 21
474.5
 31
0.0
  0
LINE
  5
844A
  8
011形状
 10
929.49999999999989
 20
474.5
 30
0.0
 11
1057.5
 21
474.5
 31
0.0
  0
LINE
  5
844B
  8
011形状
 10
1049.5
 20
492.49999999999989
 30
0.0
 11
1049.5
 21
495.41796067500002
 31
0.0
  0
LINE
  5
844C
  8
011形状
 10
939.0
 20
492.49999999999989
 30
0.0
 11
1049.5
 21
492.49999999999989
 31
0.0
  0
LINE
  5
844D
  8
011形状
 10
1049.5
 20
495.41796067500002
 30
0.0
 11
1059.5
 21
495.41796067500002
 31
0.0
  0
LINE
  5
844E
  8
011形状
 10
927.5
 20
495.41796067500002
 30
0.0
 11
939.0
 21
495.41796067500002
 31
0.0
  0
LINE
  5
844F
  8
011形状
 10
939.0
 20
495.41796067500002
 30
0.0
 11
939.0
 21
492.49999999999989
 31
0.0
  0
LINE
  5
8450
  8
001センタ
 10
998.49999999999989
 20
486.0
 30
0.0
 11
998.49999999999989
 21
481.0
 31
0.0
  0
LINE
  5
8451
  8
001センタ
 10
988.49999999999989
 20
486.0
 30
0.0
 11
988.49999999999989
 21
481.0
 31
0.0
  0
LINE
  5
8452
  8
001センタ
 10
993.5
 20
501.0
 30
0.0
 11
993.5
 21
466.0
 31
0.0
  0
CIRCLE
  5
8453
  8
011形状
 10
1614.0
 20
600.0
 30
0.0
 40
105.0
  0
CIRCLE
  5
8454
  8
011形状
 10
1614.0
 20
600.0
 30
0.0
 40
103.5
  0
LINE
  5
8455
  8
011形状
 10
1604.0
 20
725.49999999999989
 30
0.0
 11
1624.0
 21
725.49999999999989
 31
0.0
  0
LINE
  5
8456
  8
011形状
 10
1604.0
 20
723.5
 30
0.0
 11
1624.0
 21
723.5
 31
0.0
  0
LINE
  5
8457
  8
011形状
  6
DASHED
 62
     1
 10
1604.0
 20
721.49999999999989
 30
0.0
 11
1624.0
 21
721.49999999999989
 31
0.0
  0
LINE
  5
8458
  8
011形状
  6
DASHED
 62
     1
 10
1604.0
 20
711.5
 30
0.0
 11
1624.0
 21
711.5
 31
0.0
  0
LINE
  5
8459
  8
011形状
  6
DASHED
 62
     1
 10
1604.0
 20
707.5
 30
0.0
 11
1624.0
 21
707.5
 31
0.0
  0
LINE
  5
845A
  8
001センタ
 10
1599.0
 20
716.5
 30
0.0
 11
1629.0
 21
716.5
 31
0.0
  0
LINE
  5
845B
  8
011形状
 10
1604.0
 20
704.52272480199986
 30
0.0
 11
1604.0
 21
725.49999999999989
 31
0.0
  0
LINE
  5
845C
  8
011形状
 10
1624.0
 20
704.52272480199986
 30
0.0
 11
1624.0
 21
725.49999999999989
 31
0.0
  0
LINE
  5
845D
  8
011形状
 10
1604.0
 20
474.5
 30
0.0
 11
1624.0
 21
474.5
 31
0.0
  0
LINE
  5
845E
  8
011形状
 10
1604.0
 20
476.49999999999989
 30
0.0
 11
1624.0
 21
476.49999999999989
 31
0.0
  0
LINE
  5
845F
  8
011形状
  6
DASHED
 62
     1
 10
1604.0
 20
478.5
 30
0.0
 11
1624.0
 21
478.5
 31
0.0
  0
LINE
  5
8460
  8
011形状
  6
DASHED
 62
     1
 10
1604.0
 20
488.49999999999989
 30
0.0
 11
1624.0
 21
488.49999999999989
 31
0.0
  0
LINE
  5
8461
  8
011形状
  6
DASHED
 62
     1
 10
1604.0
 20
492.49999999999989
 30
0.0
 11
1624.0
 21
492.49999999999989
 31
0.0
  0
LINE
  5
8462
  8
001センタ
 10
1599.0
 20
483.49999999999989
 30
0.0
 11
1629.0
 21
483.49999999999989
 31
0.0
  0
LINE
  5
8463
  8
011形状
 10
1604.0
 20
495.47727519799997
 30
0.0
 11
1604.0
 21
474.5
 31
0.0
  0
LINE
  5
8464
  8
011形状
 10
1624.0
 20
495.47727519799997
 30
0.0
 11
1624.0
 21
474.5
 31
0.0
  0
LINE
  5
8465
  8
011形状
 10
1488.5
 20
613.0
 30
0.0
 11
1488.5
 21
587.0
 31
0.0
  0
LINE
  5
8466
  8
011形状
 10
1476.0
 20
592.0
 30
0.0
 11
1476.0
 21
608.0
 31
0.0
  0
LINE
  5
8467
  8
011形状
 10
1487.0
 20
589.5
 30
0.0
 11
1487.0
 21
610.5
 31
0.0
  0
LINE
  5
8468
  8
011形状
 10
1488.5
 20
589.5
 30
0.0
 11
1488.5
 21
610.5
 31
0.0
  0
LINE
  5
8469
  8
011形状
 10
1487.0
 20
610.5
 30
0.0
 11
1488.5
 21
610.5
 31
0.0
  0
ARC
  5
846A
  8
011形状
 10
1487.1025
 20
608.0
 30
0.0
 40
2.1025
 50
92.794362055005806
 51
267.20563794499418
  0
LINE
  5
846B
  8
011形状
 10
1476.0
 20
608.0
 30
0.0
 11
1485.0
 21
608.0
 31
0.0
  0
LINE
  5
846C
  8
001センタ
 10
1485.0
 20
608.0
 30
0.0
 11
1490.0
 21
608.0
 31
0.0
  0
LINE
  5
846D
  8
011形状
 10
1487.0
 20
589.5
 30
0.0
 11
1488.5
 21
589.5
 31
0.0
  0
ARC
  5
846E
  8
011形状
 10
1487.1025
 20
592.0
 30
0.0
 40
2.1025
 50
92.794362055005806
 51
267.20563794499418
  0
LINE
  5
846F
  8
011形状
 10
1476.0
 20
592.0
 30
0.0
 11
1485.0
 21
592.0
 31
0.0
  0
LINE
  5
8470
  8
001センタ
 10
1485.0
 20
592.0
 30
0.0
 11
1490.0
 21
592.0
 31
0.0
  0
LINE
  5
8471
  8
011形状
 10
1488.5
 20
613.0
 30
0.0
 11
1486.0
 21
613.0
 31
0.0
  0
LINE
  5
8472
  8
011形状
 10
1486.0
 20
587.0
 30
0.0
 11
1488.5
 21
587.0
 31
0.0
  0
LINE
  5
8473
  8
011形状
 10
1486.0
 20
590.20974862100002
 30
0.0
 11
1486.0
 21
587.0
 31
0.0
  0
LINE
  5
8474
  8
011形状
 10
1486.0
 20
613.0
 30
0.0
 11
1486.0
 21
609.79025137899998
 31
0.0
  0
LINE
  5
8475
  8
011形状
 10
1486.0
 20
612.79999999999995
 30
0.0
 11
1485.0
 21
612.70000000000005
 31
0.0
  0
ARC
  5
8476
  8
011形状
 10
1485.2
 20
611.79999999999995
 30
0.0
 40
0.9
 50
102.60000000000041
 51
153.39999999999731
  0
ARC
  5
8477
  8
011形状
 10
1490.3
 20
610.0
 30
0.0
 40
6.2999999999999989
 50
159.39999999999651
 51
198.50940498199441
  0
LINE
  5
8478
  8
001センタ
 10
1482.5
 20
610.0
 30
0.0
 11
1490.0
 21
610.0
 31
0.0
  0
LINE
  5
8479
  8
011形状
 10
1486.0
 20
587.20000000000005
 30
0.0
 11
1485.0
 21
587.29999999999995
 31
0.0
  0
ARC
  5
847A
  8
011形状
 10
1485.2
 20
588.20000000000005
 30
0.0
 40
0.9
 50
206.60000000000261
 51
257.39999999999941
  0
ARC
  5
847B
  8
011形状
 10
1490.3
 20
590.0
 30
0.0
 40
6.2999999999999989
 50
161.49059501800559
 51
200.6000000000034
  0
LINE
  5
847C
  8
001センタ
 10
1482.5
 20
590.0
 30
0.0
 11
1490.0
 21
590.0
 31
0.0
  0
LINE
  5
847D
  8
011形状
 10
1488.5
 20
587.0
 30
0.0
 11
1509.9882361079999
 21
587.0
 31
0.0
  0
LINE
  5
847E
  8
011形状
 10
1488.5
 20
613.0
 30
0.0
 11
1509.9882361079999
 21
613.0
 31
0.0
  0
CIRCLE
  5
847F
  8
011形状
 10
1614.0
 20
600.0
 30
0.0
 40
100.0
  0
CIRCLE
  5
8480
  8
011形状
 10
1614.0
 20
600.0
 30
0.0
 40
99.0
  0
CIRCLE
  5
8481
  8
001センタ
 10
1614.0
 20
600.0
 30
0.0
 40
93.499999999999986
  0
CIRCLE
  5
8482
  8
011形状
 10
1520.5
 20
600.0
 30
0.0
 40
3.5
  0
LINE
  5
8483
  8
011形状
 10
1518.4000000000001
 20
600.39999999999986
 30
0.0
 11
1518.4000000000001
 21
599.60000000000002
 31
0.0
  0
LINE
  5
8484
  8
011形状
 10
1520.0999999999999
 20
597.89999999999998
 30
0.0
 11
1520.9000000000001
 21
597.89999999999998
 31
0.0
  0
LINE
  5
8485
  8
011形状
 10
1522.5999999999999
 20
599.60000000000002
 30
0.0
 11
1522.5999999999999
 21
600.39999999999986
 31
0.0
  0
LINE
  5
8486
  8
011形状
 10
1520.0999999999999
 20
602.10000000000002
 30
0.0
 11
1520.9000000000001
 21
602.10000000000002
 31
0.0
  0
LINE
  5
8487
  8
011形状
 10
1520.9000000000001
 20
597.89999999999998
 30
0.0
 11
1520.9000000000001
 21
598.70000000000005
 31
0.0
  0
LINE
  5
8488
  8
011形状
 10
1520.0999999999999
 20
597.89999999999998
 30
0.0
 11
1520.0999999999999
 21
598.70000000000005
 31
0.0
  0
LINE
  5
8489
  8
011形状
 10
1522.5999999999999
 20
599.60000000000002
 30
0.0
 11
1521.8
 21
599.60000000000002
 31
0.0
  0
LINE
  5
848A
  8
011形状
 10
1520.9000000000001
 20
602.10000000000002
 30
0.0
 11
1520.9000000000001
 21
601.29999999999995
 31
0.0
  0
LINE
  5
848B
  8
011形状
 10
1518.4000000000001
 20
600.39999999999986
 30
0.0
 11
1519.2
 21
600.39999999999986
 31
0.0
  0
LINE
  5
848C
  8
011形状
 10
1522.5999999999999
 20
600.39999999999986
 30
0.0
 11
1521.8
 21
600.39999999999986
 31
0.0
  0
LINE
  5
848D
  8
011形状
 10
1520.0999999999999
 20
602.10000000000002
 30
0.0
 11
1520.0999999999999
 21
601.29999999999995
 31
0.0
  0
LINE
  5
848E
  8
011形状
 10
1518.4000000000001
 20
599.60000000000002
 30
0.0
 11
1519.2
 21
599.60000000000002
 31
0.0
  0
ARC
  5
848F
  8
011形状
 10
1521.7
 20
598.79999999999995
 30
0.0
 40
0.8
 50
82.300000000000736
 51
187.69999999999851
  0
ARC
  5
8490
  8
011形状
 10
1521.7
 20
601.20000000000005
 30
0.0
 40
0.8
 50
172.30000000000149
 51
277.69999999999919
  0
ARC
  5
8491
  8
011形状
 10
1519.3
 20
601.20000000000005
 30
0.0
 40
0.8
 50
262.30000000000069
 51
7.6999999999984814
  0
ARC
  5
8492
  8
011形状
 10
1519.3
 20
598.79999999999995
 30
0.0
 40
0.8
 50
352.30000000000149
 51
97.699999999999235
  0
CIRCLE
  5
8493
  8
011形状
 10
1660.75
 20
519.02662474599992
 30
0.0
 40
3.5
  0
LINE
  5
8494
  8
001センタ
 10
1663.5
 20
514.26348502500002
 30
0.0
 11
1658.0
 21
523.78976446699994
 31
0.0
  0
LINE
  5
8495
  8
011形状
 10
1661.453589838
 20
517.007971398
 30
0.0
 11
1662.1464101619999
 21
517.40797139799986
 31
0.0
  0
LINE
  5
8496
  8
011形状
 10
1662.768653348
 20
519.730214585
 30
0.0
 11
1662.368653348
 21
520.42303490800009
 31
0.0
  0
LINE
  5
8497
  8
011形状
 10
1660.046410162
 20
521.04527809399985
 30
0.0
 11
1659.3535898380001
 21
520.64527809399999
 31
0.0
  0
LINE
  5
8498
  8
011形状
 10
1659.131346652
 20
517.63021458499998
 30
0.0
 11
1658.731346652
 21
518.32303490799995
 31
0.0
  0
LINE
  5
8499
  8
011形状
 10
1662.368653348
 20
520.42303490800009
 30
0.0
 11
1661.675833025
 21
520.02303490799989
 31
0.0
  0
LINE
  5
849A
  8
011形状
 10
1662.768653348
 20
519.730214585
 30
0.0
 11
1662.0758330250001
 21
519.33021458500002
 31
0.0
  0
LINE
  5
849B
  8
011形状
 10
1660.046410162
 20
521.04527809399985
 30
0.0
 11
1660.4464101619999
 21
520.35245777099988
 31
0.0
  0
LINE
  5
849C
  8
011形状
 10
1658.731346652
 20
518.32303490799995
 30
0.0
 11
1659.4241669749999
 21
518.72303490800005
 31
0.0
  0
LINE
  5
849D
  8
011形状
 10
1661.453589838
 20
517.007971398
 30
0.0
 11
1661.0535898380001
 21
517.70079172099997
 31
0.0
  0
LINE
  5
849E
  8
011形状
 10
1659.3535898380001
 20
520.64527809399999
 30
0.0
 11
1659.7535898379999
 21
519.95245777100001
 31
0.0
  0
LINE
  5
849F
  8
011形状
 10
1659.131346652
 20
517.63021458499998
 30
0.0
 11
1659.824166975
 21
518.03021458499995
 31
0.0
  0
LINE
  5
84A0
  8
011形状
 10
1662.1464101619999
 20
517.40797139799986
 30
0.0
 11
1661.7464101620001
 21
518.10079172099995
 31
0.0
  0
ARC
  5
84A1
  8
011形状
 10
1661.1892304850001
 20
520.66585523100002
 30
0.0
 40
0.8
 50
202.30000000000089
 51
307.69999999999982
  0
ARC
  5
84A2
  8
011形状
 10
1659.1107695149999
 20
519.46585523099986
 30
0.0
 40
0.8
 50
292.2999999999937
 51
37.699999999999719
  0
ARC
  5
84A3
  8
011形状
 10
1660.3107695149999
 20
517.38739426200004
 30
0.0
 40
0.8
 50
22.300000000000949
 51
127.6999999999998
  0
ARC
  5
84A4
  8
011形状
 10
1662.3892304850001
 20
518.58739426199986
 30
0.0
 40
0.8
 50
112.2999999999937
 51
217.6999999999997
  0
CIRCLE
  5
84A5
  8
011形状
 10
1660.75
 20
680.97337525399985
 30
0.0
 40
3.5
  0
LINE
  5
84A6
  8
001センタ
 10
1663.5
 20
685.73651497499986
 30
0.0
 11
1658.0
 21
676.21023553299995
 31
0.0
  0
LINE
  5
84A7
  8
011形状
 10
1662.1464101619999
 20
682.59202860199991
 30
0.0
 11
1661.453589838
 21
682.992028602
 31
0.0
  0
LINE
  5
84A8
  8
011形状
 10
1659.131346652
 20
682.36978541500002
 30
0.0
 11
1658.731346652
 21
681.67696509199993
 31
0.0
  0
LINE
  5
84A9
  8
011形状
 10
1659.3535898380001
 20
679.35472190600001
 30
0.0
 11
1660.046410162
 21
678.95472190600003
 31
0.0
  0
LINE
  5
84AA
  8
011形状
 10
1662.768653348
 20
680.26978541499989
 30
0.0
 11
1662.368653348
 21
679.57696509200002
 31
0.0
  0
LINE
  5
84AB
  8
011形状
 10
1658.731346652
 20
681.67696509199993
 30
0.0
 11
1659.4241669749999
 21
681.27696509199995
 31
0.0
  0
LINE
  5
84AC
  8
011形状
 10
1659.131346652
 20
682.36978541500002
 30
0.0
 11
1659.824166975
 21
681.96978541500005
 31
0.0
  0
LINE
  5
84AD
  8
011形状
 10
1659.3535898380001
 20
679.35472190600001
 30
0.0
 11
1659.7535898379999
 21
680.04754222899987
 31
0.0
  0
LINE
  5
84AE
  8
011形状
 10
1662.368653348
 20
679.57696509200002
 30
0.0
 11
1661.675833025
 21
679.976965092
 31
0.0
  0
LINE
  5
84AF
  8
011形状
 10
1662.1464101619999
 20
682.59202860199991
 30
0.0
 11
1661.7464101620001
 21
681.89920827900005
 31
0.0
  0
LINE
  5
84B0
  8
011形状
 10
1660.046410162
 20
678.95472190600003
 30
0.0
 11
1660.4464101619999
 21
679.64754222900001
 31
0.0
  0
LINE
  5
84B1
  8
011形状
 10
1662.768653348
 20
680.26978541499989
 30
0.0
 11
1662.0758330250001
 21
680.66978541499998
 31
0.0
  0
LINE
  5
84B2
  8
011形状
 10
1661.453589838
 20
682.992028602
 30
0.0
 11
1661.0535898380001
 21
682.29920827900003
 31
0.0
  0
ARC
  5
84B3
  8
011形状
 10
1659.1107695149999
 20
680.53414476900002
 30
0.0
 40
0.8
 50
322.30000000000018
 51
67.700000000006256
  0
ARC
  5
84B4
  8
011形状
 10
1661.1892304850001
 20
679.33414476899986
 30
0.0
 40
0.8
 50
52.300000000000189
 51
157.69999999999899
  0
ARC
  5
84B5
  8
011形状
 10
1662.3892304850001
 20
681.41260573800002
 30
0.0
 40
0.8
 50
142.3000000000003
 51
247.7000000000063
  0
ARC
  5
84B6
  8
011形状
 10
1660.3107695149999
 20
682.61260573799996
 30
0.0
 40
0.8
 50
232.30000000000021
 51
337.69999999999902
  0
LINE
  5
84B7
  8
011形状
 10
1510.3790373419999
 20
622.33150460199988
 30
0.0
 11
1511.3565935930001
 21
622.12083002999987
 31
0.0
  0
LINE
  5
84B8
  8
011形状
 10
1510.3790373419999
 20
577.668495398
 30
0.0
 11
1511.3565935930001
 21
577.87916997000002
 31
0.0
  0
ARC
  5
84B9
  8
011形状
 10
1614.0
 20
600.0
 30
0.0
 40
106.0
 50
167.8381132099988
 51
172.95542376299849
  0
ARC
  5
84BA
  8
011形状
 10
1614.0
 20
600.0
 30
0.0
 40
106.0
 50
187.04457623700151
 51
192.16188679000109
  0
ARC
  5
84BB
  8
011形状
 10
1614.0
 20
600.0
 30
0.0
 40
106.0
 50
172.95542376299849
 51
187.04457623700151
  0
LINE
  5
84BC
  8
011形状
 10
1715.6230589869999
 20
630.0
 30
0.0
 11
1717.6230589869999
 21
628.0
 31
0.0
  0
LINE
  5
84BD
  8
011形状
 10
1714.6230589869999
 20
630.0
 30
0.0
 11
1715.6230589869999
 21
630.0
 31
0.0
  0
LINE
  5
84BE
  8
011形状
  6
DASHED
 62
     1
 10
1714.6230589869999
 20
630.0
 30
0.0
 11
1714.6230589869999
 21
570.0
 31
0.0
  0
LINE
  5
84BF
  8
011形状
 10
1717.6230589869999
 20
572.0
 30
0.0
 11
1715.6230589869999
 21
570.0
 31
0.0
  0
LINE
  5
84C0
  8
011形状
 10
1715.6230589869999
 20
570.0
 30
0.0
 11
1714.6230589869999
 21
570.0
 31
0.0
  0
LINE
  5
84C1
  8
011形状
 10
1717.6230589869999
 20
583.05120517299986
 30
0.0
 11
1717.6230589869999
 21
572.0
 31
0.0
  0
LINE
  5
84C2
  8
011形状
  6
DASHED
 62
     1
 10
1717.6230589869999
 20
616.94879482699992
 30
0.0
 11
1717.6230589869999
 21
583.05120517299986
 31
0.0
  0
LINE
  5
84C3
  8
011形状
 10
1717.6230589869999
 20
628.0
 30
0.0
 11
1717.6230589869999
 21
616.94879482699992
 31
0.0
  0
LINE
  5
84C4
  8
011形状
 10
1537.2077083930001
 20
673.00815069299995
 30
0.0
 11
1537.9397592
 21
675.740201501
 31
0.0
  0
LINE
  5
84C5
  8
011形状
 10
1537.7077083930001
 20
672.14212528999985
 30
0.0
 11
1537.2077083930001
 21
673.00815069299995
 31
0.0
  0
LINE
  5
84C6
  8
011形状
  6
DASHED
 62
     1
 10
1537.7077083930001
 20
672.14212528999985
 30
0.0
 11
1589.66923262
 21
702.14212528999985
 31
0.0
  0
LINE
  5
84C7
  8
011形状
 10
1586.4371818120001
 20
703.740201501
 30
0.0
 11
1589.16923262
 21
703.00815069300006
 31
0.0
  0
LINE
  5
84C8
  8
011形状
 10
1589.16923262
 20
703.00815069300006
 30
0.0
 11
1589.66923262
 21
702.14212528999985
 31
0.0
  0
LINE
  5
84C9
  8
011形状
 10
1576.86655739
 20
698.21459891400002
 30
0.0
 11
1586.4371818120001
 21
703.740201501
 31
0.0
  0
LINE
  5
84CA
  8
011形状
  6
DASHED
 62
     1
 10
1547.5103836230001
 20
681.26580408799987
 30
0.0
 11
1576.86655739
 21
698.21459891400002
 31
0.0
  0
LINE
  5
84CB
  8
011形状
 10
1537.9397592
 20
675.740201501
 30
0.0
 11
1547.5103836230001
 21
681.26580408799987
 31
0.0
  0
LINE
  5
84CC
  8
011形状
 10
1589.16923262
 20
496.99184930699988
 30
0.0
 11
1586.4371818120001
 21
496.259798499
 31
0.0
  0
LINE
  5
84CD
  8
011形状
 10
1589.66923262
 20
497.85787470999998
 30
0.0
 11
1589.16923262
 21
496.99184930699988
 31
0.0
  0
LINE
  5
84CE
  8
011形状
  6
DASHED
 62
     1
 10
1589.66923262
 20
497.85787470999998
 30
0.0
 11
1537.7077083930001
 21
527.85787471000003
 31
0.0
  0
LINE
  5
84CF
  8
011形状
 10
1537.9397592
 20
524.25979849899988
 30
0.0
 11
1537.2077083930001
 21
526.99184930699994
 31
0.0
  0
LINE
  5
84D0
  8
011形状
 10
1537.2077083930001
 20
526.99184930699994
 30
0.0
 11
1537.7077083930001
 21
527.85787471000003
 31
0.0
  0
LINE
  5
84D1
  8
011形状
 10
1547.5103836230001
 20
518.7341959119999
 30
0.0
 11
1537.9397592
 21
524.25979849899988
 31
0.0
  0
LINE
  5
84D2
  8
011形状
  6
DASHED
 62
     1
 10
1576.86655739
 20
501.78540108599992
 30
0.0
 11
1547.5103836230001
 21
518.7341959119999
 31
0.0
  0
LINE
  5
84D3
  8
011形状
 10
1586.4371818120001
 20
496.259798499
 30
0.0
 11
1576.86655739
 21
501.78540108599992
 31
0.0
  0
CIRCLE
  5
84D4
  8
011形状
 10
1614.0
 20
600.0
 30
0.0
 40
57.5
  0
CIRCLE
  5
84D5
  8
011形状
 10
1614.0
 20
600.0
 30
0.0
 40
74.0
  0
CIRCLE
  5
84D6
  8
011形状
 10
1614.0
 20
600.0
 30
0.0
 40
75.0
  0
CIRCLE
  5
84D7
  8
011形状
 10
1614.0
 20
600.0
 30
0.0
 40
58.5
  0
ARC
  5
84DB
  8
011形状
 10
1614.0
 20
600.0
 30
0.0
 40
55.5
 50
196.75550605699871
 51
163.24449394300129
  0
LINE
  5
84DC
  8
011形状
 10
1490.5214621810001
 20
587.0
 30
0.0
 11
1490.695650182
 21
584.78524900900004
 31
0.0
  0
LINE
  5
84DD
  8
011形状
 10
1489.0168300810001
 20
587.0
 30
0.0
 11
1489.161064573
 21
585.16609938399995
 31
0.0
  0
LINE
  5
84DE
  8
011形状
 10
1490.695650182
 20
584.78524900900004
 30
0.0
 11
1501.6617860270001
 21
585.64772487799996
 31
0.0
  0
POINT
  5
84DF
  8
011形状
 10
1488.3769956010001
 20
595.13531378799996
 30
0.0
  0
LINE
  5
84E0
  8
011形状
 10
1489.161064573
 20
585.16609938399995
 30
0.0
 11
1490.6564467329999
 21
585.28370972900007
 31
0.0
  0
LINE
  5
84E1
  8
011形状
 10
1505.6102683399999
 20
586.45981318600002
 30
0.0
 11
1501.622582579
 21
586.14618559799999
 31
0.0
  0
LINE
  5
84E2
  8
001センタ
 10
1518.836433987
 20
592.51547852199997
 30
0.0
 11
1483.7844228849999
 21
589.75867210000001
 31
0.0
  0
LINE
  5
84E3
  8
011形状
  6
DASHED
 62
     1
 10
1488.3769956010001
 20
595.13531378799996
 30
0.0
 11
1489.872377762
 21
595.25292413399995
 31
0.0
  0
POINT
  5
84E4
  8
011形状
  6
DASHED
 62
     1
 10
1489.872377762
 20
595.25292413399995
 30
0.0
  0
LINE
  5
84E5
  8
011形状
  6
DASHED
 62
     1
 10
1489.872377762
 20
595.25292413399995
 30
0.0
 11
1488.3769956010001
 21
595.13531378799996
 31
0.0
  0
LINE
  5
84E6
  8
011形状
  6
DASHED
 62
     1
 10
1489.833174313
 20
595.75138485399987
 30
0.0
 11
1490.5214621810001
 21
587.0
 31
0.0
  0
LINE
  5
84E7
  8
011形状
  6
DASHED
 62
     1
 10
1500.799310158
 20
596.61386072300002
 30
0.0
 11
1489.833174313
 21
595.75138485399987
 31
0.0
  0
LINE
  5
84E8
  8
011形状
  6
DASHED
 62
     1
 10
1488.3769956010001
 20
595.13531378799996
 30
0.0
 11
1489.0168300810001
 21
587.0
 31
0.0
  0
LINE
  5
84E9
  8
011形状
  6
DASHED
 62
     1
 10
1500.8385136070001
 20
596.11540000299988
 30
0.0
 11
1504.8261993690001
 21
596.42902759100002
 31
0.0
  0
LINE
  5
84EA
  8
011形状
  6
DASHED
 62
     1
 10
1504.8261993690001
 20
596.42902759100002
 30
0.0
 11
1505.5677831749999
 21
587.0
 31
0.0
  0
LINE
  5
84EB
  8
011形状
  6
DASHED
 62
     1
 10
1501.55543091
 20
587.0
 30
0.0
 11
1500.799310158
 21
596.61386072300002
 31
0.0
  0
LINE
  5
84EC
  8
011形状
  6
DASHED
 62
     1
 10
1504.8261993690001
 20
596.42902759100002
 30
0.0
 11
1508.1249171320001
 21
594.85540790799996
 31
0.0
  0
LINE
  5
84ED
  8
011形状
 10
1505.6102683399999
 20
586.45981318600002
 30
0.0
 11
1506.3963332010001
 21
587.0
 31
0.0
  0
LINE
  5
84EE
  8
011形状
 10
1505.5677831749999
 20
587.0
 30
0.0
 11
1505.6102683399999
 21
586.45981318600002
 31
0.0
  0
LINE
  5
84EF
  8
011形状
 10
1501.6617860270001
 20
585.64772487799996
 30
0.0
 11
1501.55543091
 21
587.0
 31
0.0
  0
LINE
  5
84F0
  8
011形状
  6
DASHED
 62
     1
 10
1506.3963332010001
 20
587.0
 30
0.0
 11
1508.622421844
 21
588.529776728
 31
0.0
  0
LINE
  5
84F1
  8
001センタ
 10
1614.0
 20
459.49999999999989
 30
0.0
 11
1614.0
 21
740.5
 31
0.0
  0
LINE
  5
84F2
  8
001センタ
 10
1461.0
 20
600.0
 30
0.0
 11
1734.0
 21
600.0
 31
0.0
  0
LINE
  5
84F9
  8
001センタ
 10
1260.0
 20
574.0
 30
0.0
 11
1260.0
 21
626.0
 31
0.0
  0
LINE
  5
84FA
  8
001センタ
 10
868.0
 20
574.0
 30
0.0
 11
868.0
 21
626.0
 31
0.0
  0
DIMENSION
  5
84FB
  8
002寸法
  2
*D34
 10
1624.0
 20
755.49999999999989
 30
0.0
 11
1614.0
 21
761.5
 31
0.0
 70
     0
 13
1604.0
 23
725.49999999999989
 33
0.0
 14
1624.0
 24
725.49999999999989
 34
0.0
  0
POLYLINE
  5
8528
  8
011形状
 66
     1
 10
0.0
 20
0.0
 30
0.0
  0
VERTEX
  5
8DBE
  8
011形状
 10
1558.7709315669999
 20
616.0
 30
0.0
  0
VERTEX
  5
8DBF
  8
011形状
 10
1566.5
 20
616.0
 30
0.0
  0
VERTEX
  5
8DC0
  8
011形状
 10
1566.5
 20
584.0
 30
0.0
  0
VERTEX
  5
8DC1
  8
011形状
 10
1558.7709315669999
 20
584.0
 30
0.0
  0
SEQEND
  5
8DC2
  8
011形状
  0
DIMENSION
  5
852B
  8
002寸法
  2
*D35
 10
1606.5
 20
616.0
 30
0.0
 11
1599.75
 21
634.64642857142883
 31
0.0
 70
   128
  1
<>\H0.5x;\S 0^ -0.062
 13
1566.5
 23
584.0
 33
0.0
 14
1566.5
 24
616.0
 34
0.0
 50
90.0
1001
ACAD
1000
DSTYLE
1002
{
1070
   287
1070
     5
1070
   279
1070
     2
1002
}
  0
DIMENSION
  5
8555
  8
002寸法
  2
*D36
 10
1566.5
 20
720.0
 30
0.0
 11
1561.5
 21
729.0
 31
0.0
 70
   128
  1
<>\H0.5x;\S+0.2^  0
 13
1556.5
 23
600.0
 33
0.0
 14
1566.5
 24
616.0
 34
0.0
1001
ACAD
1000
DSTYLE
1002
{
1070
   287
1070
     5
1070
   279
1070
     2
1002
}
  0
DIMENSION
  5
85DD
  8
002寸法
  2
*D37
 10
1764.0
 20
716.5
 30
0.0
 11
1758.0
 21
600.00000000000023
 31
0.0
 70
     0
 13
1624.0
 23
483.49999999999989
 33
0.0
 14
1624.0
 24
716.5
 34
0.0
 50
90.0
1001
ACAD
1000
DSTYLE
1002
{
1070
   279
1070
     0
1002
}
  0
DIMENSION
  5
85F5
  8
002寸法
  2
*D38
 10
1794.0
 20
725.49999999999989
 30
0.0
 11
1794.0
 21
600.00000000000023
 31
0.0
 70
   128
 13
1624.0
 23
474.5
 33
0.0
 14
1624.0
 24
725.49999999999989
 34
0.0
 50
90.0
1001
ACAD
1000
DSTYLE
1002
{
1070
   279
1070
     0
1002
}
  0
DIMENSION
  5
860D
  8
002寸法
  2
*D39
 10
1719.0
 20
429.49999999999989
 30
0.0
 11
1597.5
 21
435.5
 31
0.0
 70
     0
 13
1476.0
 23
592.0
 33
0.0
 14
1719.0
 24
600.0
 34
0.0
  0
DIMENSION
  5
8637
  8
002寸法
  2
*D40
 10
1449.0
 20
657.5
 30
0.0
 11
1443.0
 21
600.00000000000023
 31
0.0
 70
     0
 13
1402.0
 23
542.49999999999989
 33
0.0
 14
1402.0
 24
657.5
 34
0.0
 50
90.0
1001
ACAD
1000
DSTYLE
1002
{
1070
     3
1000
\U+03C6<>h7
1002
}
  0
DIMENSION
  5
864F
  8
002寸法
  2
*D41
 10
694.0
 20
657.5
 30
0.0
 11
687.99999999999989
 21
600.0
 31
0.0
 70
     0
 13
726.0
 23
542.49999999999989
 33
0.0
 14
726.0
 24
657.5
 34
0.0
 50
90.0
1001
ACAD
1000
DSTYLE
1002
{
1070
     3
1000
\U+03C6<>h7
1002
}
  0
DIMENSION
  5
871F
  8
002寸法
  2
*D42
 10
1138.0
 20
705.0
 30
0.0
 11
1138.0
 21
620.0
 31
0.0
 70
   128
 13
1060.5
 23
495.0
 33
0.0
 14
1060.5
 24
705.0
 34
0.0
 50
90.0
1001
ACAD
1000
DSTYLE
1002
{
1070
     3
1000
\U+03C6<>
1002
}
  0
DIMENSION
  5
875B
  8
002寸法
  2
*D43
 10
1003.499999999999
 20
755.49999999999989
 30
0.0
 11
993.49999999999977
 21
761.5
 31
0.0
 70
     0
 13
983.5
 23
716.5
 33
0.0
 14
1003.499999999999
 24
716.50000192204357
 34
0.0
  0
INSERT
  5
8773
  8
011形状
  2
*U89
 10
0.0
 20
0.0
 30
0.0
  0
INSERT
  5
8774
  8
011形状
  2
*U90
 10
0.0
 20
0.0
 30
0.0
  0
INSERT
  5
8777
  8
011形状
  2
*U91
 10
0.0
 20
0.0
 30
0.0
  0
INSERT
  5
8778
  8
011形状
  2
*U92
 10
0.0
 20
0.0
 30
0.0
  0
INSERT
  5
877B
  8
011形状
  2
*U93
 10
0.0
 20
0.0
 30
0.0
1001
ACAD
1000
DSTYLE
1002
{
1070
    41
1040
2.5
1002
}
  0
INSERT
  5
877D
  8
011形状
  2
*U94
 10
0.0
 20
0.0
 30
0.0
1001
ACAD
1000
DSTYLE
1002
{
1070
    41
1040
2.5
1002
}
  0
DIMENSION
  5
877E
  8
002寸法
  2
*D44
 10
897.50000000000011
 20
721.49999999999989
 30
0.0
 11
897.49999999999989
 21
716.50000000000023
 31
0.0
 70
   128
 13
988.49999999999989
 23
711.5
 33
0.0
 14
988.49999999999989
 24
721.49999999999989
 34
0.0
 50
90.0
  0
DIMENSION
  5
87A5
  8
002寸法
  2
*D45
 10
993.5
 20
429.49999999999989
 30
0.0
 11
958.75
 21
435.5
 31
0.0
 70
     0
 13
924.0
 23
496.49999999999989
 33
0.0
 14
993.5
 24
474.5
 34
0.0
1001
ACAD
1000
DSTYLE
1002
{
1070
   279
1070
     0
1002
}
  0
DIMENSION
  5
87BD
  8
002寸法
  2
*D46
 10
924.0
 20
399.5
 30
0.0
 11
891.5214285714286
 21
399.5
 31
0.0
 70
   128
 13
914.0
 23
541.0
 33
0.0
 14
924.0
 24
496.49999999999989
 34
0.0
  0
DIMENSION
  5
87D9
  8
002寸法
  2
*D47
 10
914.0
 20
369.5
 30
0.0
 11
819.0
 21
369.5
 31
0.0
 70
   128
 13
724.0
 23
544.5
 33
0.0
 14
914.0
 24
541.0
 34
0.0
1001
ACAD
1000
DSTYLE
1002
{
1070
   279
1070
     0
1002
}
  0
DIMENSION
  5
87F1
  8
002寸法
  2
*D48
 10
1404.0
 20
339.5
 30
0.0
 11
1064.0
 21
339.5
 31
0.0
 70
   128
 13
724.0
 23
544.5
 33
0.0
 14
1404.0
 24
544.5
 34
0.0
1001
ACAD
1000
DSTYLE
1002
{
1070
   279
1070
     0
1002
}
  0
DIMENSION
  5
883A
  8
002寸法
  2
*D49
 10
884.0
 20
429.49999999999989
 30
0.0
 11
804.0
 21
435.5
 31
0.0
 70
     0
 13
724.0
 23
544.5
 33
0.0
 14
884.0
 24
600.0
 34
0.0
  0
DIMENSION
  5
8852
  8
002寸法
  2
*D50
 10
1404.0
 20
429.49999999999989
 30
0.0
 11
1324.0
 21
435.5
 31
0.0
 70
     0
 13
1244.0
 23
600.0
 33
0.0
 14
1404.0
 24
544.5
 34
0.0
  0
DIMENSION
  5
886A
  8
002寸法
  2
*D51
 10
1063.0
 20
429.49999999999989
 30
0.0
 11
1028.25
 21
435.5
 31
0.0
 70
     0
 13
993.5
 23
474.5
 33
0.0
 14
1063.0
 24
501.0
 34
0.0
1001
ACAD
1000
DSTYLE
1002
{
1070
   287
1070
     4
1070
   279
1070
     1
1002
}
  0
DIMENSION
  5
8882
  8
002寸法
  2
*D52
 10
1063.0
 20
399.5
 30
0.0
 11
993.5
 21
405.49999999999989
 31
0.0
 70
     0
 13
924.0
 23
496.49999999999989
 33
0.0
 14
1063.0
 24
501.0
 34
0.0
1001
ACAD
1000
DSTYLE
1002
{
1070
   287
1070
     4
1070
   279
1070
     1
1002
}
  0
DIMENSION
  5
889A
  8
002寸法
  2
*D53
 10
1168.0
 20
399.5
 30
0.0
 11
1115.5
 21
405.49999999999989
 31
0.0
 70
     0
 13
1063.0
 23
501.0
 33
0.0
 14
1168.0
 24
526.0
 34
0.0
1001
ACAD
1000
DSTYLE
1002
{
1070
   287
1070
     4
1070
   279
1070
     1
1002
}
  0
DIMENSION
  5
88B2
  8
002寸法
  2
*D54
 10
1168.0
 20
369.5
 30
0.0
 11
1041.0
 21
375.5
 31
0.0
 70
     0
 13
914.0
 23
541.0
 33
0.0
 14
1168.0
 24
526.0
 34
0.0
1001
ACAD
1000
DSTYLE
1002
{
1070
   287
1070
     4
1070
   279
1070
     1
1002
}
  0
DIMENSION
  5
88CA
  8
002寸法
  2
*D55
 10
1404.0
 20
369.5
 30
0.0
 11
1286.0
 21
375.5
 31
0.0
 70
     0
 13
1168.0
 23
526.0
 33
0.0
 14
1404.0
 24
544.5
 34
0.0
1001
ACAD
1000
DSTYLE
1002
{
1070
   287
1070
     4
1070
   279
1070
     1
1002
}
  0
LINE
  5
8B13
  8
002寸法
 10
1606.5
 20
616.0
 30
0.0
 11
1606.5
 21
652.0
 31
0.0
  0
VIEWPORT
  5
71
 67
     1
  8
0
 10
624.30697861446504
 20
307.75602246587403
 30
0.0
 40
994.76769694267671
 41
769.77311836716035
 68
     1
 69
     1
1001
ACAD
1000
MVIEW
1002
{
1070
    16
1010
0.0
1020
0.0
1030
0.0
1010
0.0
1020
0.0
1030
1.0
1040
0.0
1040
769.77311836716035
1040
624.30697861446504
1040
307.75602246587403
1040
50.0
1040
0.0
1040
0.0
1070
     0
1070
   100
1070
     1
1070
     1
1070
     1
1070
     0
1070
     0
1070
     0
1040
0.0
1040
0.0
1040
0.0
1040
0.5
1040
0.5
1040
10.0
1040
10.0
1070
     0
1002
{
1002
}
1002
}
  0
VIEWPORT
  5
73
 67
     1
  8
0
 10
693.0
 20
140.5
 30
0.0
 40
419.99999999999989
 41
297.0
 68
     2
 69
     2
1001
ACAD
1000
MVIEW
1002
{
1070
    16
1010
0.0
1020
0.0
1030
0.0
1010
0.0
1020
0.0
1030
1.0
1040
0.0
1040
297.0
1040
804.0
1040
148.5
1040
50.0
1040
0.0
1040
0.0
1070
     0
1070
   100
1070
     1
1070
     3
1070
     0
1070
     0
1070
     0
1070
     0
1040
0.0
1040
0.0
1040
0.0
1040
10.0
1040
10.0
1040
10.0
1040
10.0
1070
     0
1002
{
1002
}
1002
}
  0
ENDSEC
  0
EOF
