  0
SECTION
  2
HEADER
  9
$ACADVER
  1
AC1009
  9
$INSBASE
 10
0.0
 20
0.0
 30
0.0
  9
$EXTMIN
 10
594.0
 20
0.0
 30
0.0
  9
$EXTMAX
 10
1434.0
 20
594.0
 30
0.0
  9
$LIMMIN
 10
0.0
 20
0.0
  9
$LIMMAX
 10
420.0
 20
297.0
  9
$ORTHOMODE
 70
     0
  9
$REGENMODE
 70
     1
  9
$FILLMODE
 70
     1
  9
$QTEXTMODE
 70
     0
  9
$MIRRTEXT
 70
     1
  9
$DRAGMODE
 70
     2
  9
$LTSCALE
 40
2.0
  9
$OSMODE
 70
    39
  9
$ATTMODE
 70
     1
  9
$TEXTSIZE
 40
3.0
  9
$TRACEWID
 40
1.0
  9
$TEXTSTYLE
  7
STANDARD
  9
$CLAYER
  8
011形状
  9
$CELTYPE
  6
BYLAYER
  9
$CECOLOR
 62
   256
  9
$DIMSCALE
 40
1.0
  9
$DIMASZ
 40
5.0
  9
$DIMEXO
 40
1.0
  9
$DIMDLI
 40
3.75
  9
$DIMRND
 40
0.0
  9
$DIMDLE
 40
0.0
  9
$DIMEXE
 40
1.5
  9
$DIMTP
 40
0.0
  9
$DIMTM
 40
0.0
  9
$DIMTXT
 40
6.0
  9
$DIMCEN
 40
2.5
  9
$DIMTSZ
 40
0.0
  9
$DIMTOL
 70
     0
  9
$DIMLIM
 70
     0
  9
$DIMTIH
 70
     0
  9
$DIMTOH
 70
     0
  9
$DIMSE1
 70
     0
  9
$DIMSE2
 70
     0
  9
$DIMTAD
 70
     3
  9
$DIMZIN
 70
     8
  9
$DIMBLK
  1

  9
$DIMASO
 70
     1
  9
$DIMSHO
 70
     1
  9
$DIMPOST
  1

  9
$DIMAPOST
  1

  9
$DIMALT
 70
     0
  9
$DIMALTD
 70
     4
  9
$DIMALTF
 40
0.0394
  9
$DIMLFAC
 40
1.0
  9
$DIMTOFL
 70
     1
  9
$DIMTVP
 40
0.0
  9
$DIMTIX
 70
     0
  9
$DIMSOXD
 70
     0
  9
$DIMSAH
 70
     1
  9
$DIMBLK1
  1
OPEN
  9
$DIMBLK2
  1
OPEN
  9
$DIMSTYLE
  2
通常X1_2
  9
$DIMCLRD
 70
   256
  9
$DIMCLRE
 70
   256
  9
$DIMCLRT
 70
     2
  9
$DIMTFAC
 40
0.5
  9
$DIMGAP
 40
1.0
  9
$LUNITS
 70
     2
  9
$LUPREC
 70
     8
  9
$SKETCHINC
 40
1.0
  9
$FILLETRAD
 40
10.0
  9
$AUNITS
 70
     0
  9
$AUPREC
 70
     6
  9
$MENU
  1
.
  9
$ELEVATION
 40
0.0
  9
$PELEVATION
 40
0.0
  9
$THICKNESS
 40
0.0
  9
$LIMCHECK
 70
     0
  9
$BLIPMODE
 70
     0
  9
$CHAMFERA
 40
10.0
  9
$CHAMFERB
 40
10.0
  9
$SKPOLY
 70
     0
  9
$TDCREATE
 40
2453536.500536378
  9
$TDUPDATE
 40
2457947.7220749999
  9
$TDINDWG
 40
1.0617583333
  9
$TDUSRTIMER
 40
1.0617583333
  9
$USRTIMER
 70
     1
  9
$ANGBASE
 50
0.0
  9
$ANGDIR
 70
     0
  9
$PDMODE
 70
     0
  9
$PDSIZE
 40
0.0
  9
$PLINEWID
 40
0.0
  9
$COORDS
 70
     1
  9
$SPLFRAME
 70
     0
  9
$SPLINETYPE
 70
     6
  9
$SPLINESEGS
 70
     8
  9
$ATTDIA
 70
     1
  9
$ATTREQ
 70
     1
  9
$HANDLING
 70
     1
  9
$HANDSEED
  5
7872
  9
$SURFTAB1
 70
     6
  9
$SURFTAB2
 70
     6
  9
$SURFTYPE
 70
     6
  9
$SURFU
 70
     6
  9
$SURFV
 70
     6
  9
$UCSNAME
  2

  9
$UCSORG
 10
594.0
 20
0.0
 30
0.0
  9
$UCSXDIR
 10
1.0
 20
0.0
 30
0.0
  9
$UCSYDIR
 10
0.0
 20
1.0
 30
0.0
  9
$PUCSNAME
  2

  9
$PUCSORG
 10
0.0
 20
0.0
 30
0.0
  9
$PUCSXDIR
 10
1.0
 20
0.0
 30
0.0
  9
$PUCSYDIR
 10
0.0
 20
1.0
 30
0.0
  9
$USERI1
 70
     0
  9
$USERI2
 70
     0
  9
$USERI3
 70
     0
  9
$USERI4
 70
     0
  9
$USERI5
 70
     0
  9
$USERR1
 40
0.0
  9
$USERR2
 40
0.0
  9
$USERR3
 40
0.0
  9
$USERR4
 40
0.0
  9
$USERR5
 40
0.0
  9
$WORLDVIEW
 70
     1
  9
$SHADEDGE
 70
     3
  9
$SHADEDIF
 70
    70
  9
$TILEMODE
 70
     1
  9
$MAXACTVP
 70
    48
  9
$PLIMCHECK
 70
     0
  9
$PEXTMIN
 10
211.5
 20
-8.0
 30
0.0
  9
$PEXTMAX
 10
903.5
 20
300.0
 30
0.0
  9
$PLIMMIN
 10
483.02948910854462
 20
-8.1501641204820885
  9
$PLIMMAX
 10
903.01847226284156
 20
288.8181586334241
  9
$UNITMODE
 70
     0
  9
$VISRETAIN
 70
     1
  9
$PLINEGEN
 70
     0
  9
$PSLTSCALE
 70
     1
  0
ENDSEC
  0
SECTION
  2
TABLES
  0
TABLE
  2
VPORT
 70
     1
  0
VPORT
  2
*ACTIVE
 70
     0
 10
0.0
 20
0.0
 11
1.0
 21
1.0
 12
1014.012227764204
 22
299.64691431672122
 13
0.0
 23
0.0
 14
10.0
 24
10.0
 15
10.0
 25
10.0
 16
0.0
 26
0.0
 36
1.0
 17
0.0
 27
0.0
 37
0.0
 40
604.40588323048121
 41
1.481638418079096
 42
50.0
 43
0.0
 44
0.0
 50
0.0
 51
0.0
 71
     0
 72
   100
 73
     1
 74
     3
 75
     0
 76
     1
 77
     0
 78
     0
  0
ENDTAB
  0
TABLE
  2
LTYPE
 70
    10
  0
LTYPE
  2
CONTINUOUS
 70
     0
  3
Solid line
 72
    65
 73
     0
 40
0.0
  0
LTYPE
  2
CENTER
 70
     0
  3
Center ____ _ ____ _ ____ _ ____ _ ____ _ ____
 72
    65
 73
     4
 40
2.0
 49
1.25
 49
-0.25
 49
0.25
 49
-0.25
  0
LTYPE
  2
CENTER2
 70
     0
  3
Center (.5x) ___ _ ___ _ ___ _ ___ _ ___ _ ___
 72
    65
 73
     4
 40
1.125
 49
0.75
 49
-0.125
 49
0.125
 49
-0.125
  0
LTYPE
  2
DASHED
 70
     0
  3
Dashed __ __ __ __ __ __ __ __ __ __ __ __ __ _
 72
    65
 73
     2
 40
0.75
 49
0.5
 49
-0.25
  0
LTYPE
  2
DASHED2
 70
     0
  3
Dashed (.5x) _ _ _ _ _ _ _ _ _ _ _ _ _ _ _ _ _
 72
    65
 73
     2
 40
0.375
 49
0.25
 49
-0.125
  0
LTYPE
  2
PHANTOM2
 70
     0
  3
Phantom (.5x) ___ _ _ ___ _ _ ___ _ _ ___ _ _
 72
    65
 73
     6
 40
1.25
 49
0.625
 49
-0.125
 49
0.125
 49
-0.125
 49
0.125
 49
-0.125
  0
LTYPE
  2
CENTERX2
 70
     0
  3
Center (2x) ________  __  ________  __  _____
 72
    65
 73
     4
 40
4.0
 49
2.5
 49
-0.5
 49
0.5
 49
-0.5
  0
LTYPE
  2
DASHEDX2
 70
     0
  3
Dashed (2x) ____  ____  ____  ____  ____  ___
 72
    65
 73
     2
 40
1.5
 49
1.0
 49
-0.5
  0
LTYPE
  2
PHANTOM
 70
     0
  3
Phantom ______  __  __  ______  __  __  ______
 72
    65
 73
     6
 40
2.5
 49
1.25
 49
-0.25
 49
0.25
 49
-0.25
 49
0.25
 49
-0.25
  0
LTYPE
  2
PHANTOMX2
 70
     0
  3
Phantom (2x) ____________    ____    ____   _
 72
    65
 73
     6
 40
5.0
 49
2.5
 49
-0.5
 49
0.5
 49
-0.5
 49
0.5
 49
-0.5
  0
ENDTAB
  0
TABLE
  2
LAYER
 70
     9
  0
LAYER
  2
0
 70
     0
 62
     7
  6
CONTINUOUS
  0
LAYER
  2
DEFPOINTS
 70
     0
 62
     7
  6
CONTINUOUS
  0
LAYER
  2
002寸法
 70
     0
 62
     1
  6
CONTINUOUS
  0
LAYER
  2
001センタ
 70
     0
 62
     1
  6
CENTER
  0
LAYER
  2
011形状
 70
     0
 62
     3
  6
CONTINUOUS
  0
LAYER
  2
003注釈
 70
     0
 62
     2
  6
CONTINUOUS
  0
LAYER
  2
051共通部品
 70
     0
 62
     3
  6
CONTINUOUS
  0
LAYER
  2
101購入品
 70
     0
 62
     3
  6
CONTINUOUS
  0
LAYER
  2
111治具
 70
     0
 62
     3
  6
CONTINUOUS
  0
ENDTAB
  0
TABLE
  2
STYLE
 70
     4
  0
STYLE
  2
STANDARD
 70
     0
 40
0.0
 41
0.9
 50
0.0
 71
     0
 42
3.0
  3
romans.shx
  4
extfont2.shx
  0
STYLE
  2
表題
 70
     0
 40
0.0
 41
1.0
 50
0.0
 71
     0
 42
2.5
  3
txt
  4

  0
STYLE
  2

 70
     1
 40
0.0
 41
1.0
 50
0.0
 71
     0
 42
2.5
  3
ltypeshp.shx
  4

  0
STYLE
  2
注釈
 70
     0
 40
3.0
 41
0.9
 50
0.0
 71
     0
 42
3.0
  3
romans.shx
  4
extfont2.shx
  0
ENDTAB
  0
TABLE
  2
VIEW
 70
     0
  0
ENDTAB
  0
TABLE
  2
UCS
 70
     0
  0
ENDTAB
  0
TABLE
  2
APPID
 70
    17
  0
APPID
  2
ACAD
 70
     0
  0
APPID
  2
ACAD_NAV_VCDISPLAY
 70
     0
  0
APPID
  2
ACAD_EXEMPT_FROM_CAD_STANDARDS
 70
     0
  0
APPID
  2
ACAUTHENVIRON
 70
     0
  0
APPID
  2
ACDBDYNAMICBLOCKTRUENAME
 70
     0
  0
APPID
  2
ACDBDYNAMICBLOCKGUID
 70
     0
  0
APPID
  2
ACADANNOPO
 70
     0
  0
APPID
  2
ACAECLAYERSTANDARD
 70
     0
  0
APPID
  2
ACCMTRANSPARENCY
 70
     0
  0
APPID
  2
ACAD_PSEXT
 70
     0
  0
APPID
  2
ACAD_DSTYLE_DIMJAG
 70
     0
  0
APPID
  2
ACAD_DSTYLE_DIMTALN
 70
     0
  0
APPID
  2
ACAD_DSTYLE_DIMRADIAL_EXTENSION
 70
     0
  0
APPID
  2
ACAD_MLEADERVER
 70
     0
  0
APPID
  2
CONTENTBLOCKDESCRIPTION
 70
     0
  0
APPID
  2
CONTENTBLOCKICON
 70
     0
  0
APPID
  2
AcDbAttr
 70
     0
  0
ENDTAB
  0
TABLE
  2
DIMSTYLE
 70
    19
  0
DIMSTYLE
  2
通常X1_0
 70
     0
  3

  4

  5

  6
OPEN
  7
OPEN
 40
1.0
 41
2.5
 42
0.5
 43
3.75
 44
0.75
 45
0.0
 46
0.0
 47
0.0
 48
0.000000001
140
3.0
141
2.5
142
0.0
143
0.0394
144
1.0
145
0.0
146
0.5
147
0.5
 71
     0
 72
     0
 73
     0
 74
     0
 75
     0
 76
     0
 77
     3
 78
     8
170
     0
171
     4
172
     1
173
     1
174
     0
175
     0
176
   256
177
   256
178
     2
  0
DIMSTYLE
  2
通常X3_0
 70
     0
  3

  4

  5

  6
OPEN
  7
OPEN
 40
0.0
 41
0.833
 42
0.167
 43
3.75
 44
0.25
 45
0.0
 46
0.0
 47
0.0
 48
0.000000001
140
1.0
141
2.5
142
0.0
143
0.0394
144
1.0
145
0.0
146
0.5
147
0.167
 71
     0
 72
     0
 73
     0
 74
     0
 75
     0
 76
     0
 77
     3
 78
     8
170
     0
171
     4
172
     1
173
     1
174
     0
175
     0
176
   256
177
   256
178
     2
  0
DIMSTYLE
  2
通常X2_0
 70
     0
  3

  4

  5

  6
OPEN
  7
OPEN
 40
0.0
 41
1.25
 42
0.25
 43
3.75
 44
0.375
 45
0.0
 46
0.0
 47
0.0
 48
0.000000001
140
1.5
141
2.5
142
0.0
143
0.0394
144
1.0
145
0.0
146
0.5
147
0.25
 71
     0
 72
     0
 73
     0
 74
     0
 75
     0
 76
     0
 77
     3
 78
     8
170
     0
171
     4
172
     1
173
     1
174
     0
175
     0
176
   256
177
   256
178
     2
  0
DIMSTYLE
  2
通常X2_3
 70
     0
  3

  4

  5

  6
OPEN
  7
OPEN
 40
1.0
 41
3.75
 42
0.75
 43
3.75
 44
1.125
 45
0.0
 46
0.0
 47
0.0
 48
0.0
140
4.5
141
2.5
142
0.0
143
0.0394
144
1.0
145
0.0
146
0.5
147
0.75
 71
     0
 72
     0
 73
     0
 74
     0
 75
     0
 76
     0
 77
     3
 78
     8
170
     0
171
     4
172
     1
173
     1
174
     0
175
     0
176
   256
177
   256
178
     2
  0
DIMSTYLE
  2
通常X3_4
 70
     0
  3

  4

  5

  6
OPEN
  7
OPEN
 40
1.0
 41
3.3330000000000002
 42
0.667
 43
3.75
 44
1.0
 45
0.0
 46
0.0
 47
0.0
 48
0.000000001
140
4.0
141
2.5
142
0.0
143
0.0394
144
1.0
145
0.0
146
0.5
147
0.667
 71
     0
 72
     0
 73
     0
 74
     0
 75
     0
 76
     0
 77
     3
 78
     8
170
     0
171
     4
172
     1
173
     1
174
     0
175
     0
176
   256
177
   256
178
     2
  0
DIMSTYLE
  2
通常X1_3
 70
     0
  3

  4

  5

  6
OPEN
  7
OPEN
 40
1.0
 41
7.5
 42
1.5
 43
3.75
 44
2.25
 45
0.0
 46
0.0
 47
0.0
 48
0.000000001
140
9.0
141
2.5
142
0.0
143
0.0394
144
1.0
145
0.0
146
0.5
147
1.5
 71
     0
 72
     0
 73
     0
 74
     0
 75
     0
 76
     0
 77
     3
 78
     8
170
     0
171
     4
172
     1
173
     1
174
     0
175
     0
176
   256
177
   256
178
     2
  0
DIMSTYLE
  2
通常X1_2
 70
     0
  3

  4

  5

  6
OPEN
  7
OPEN
 40
1.0
 41
5.0
 42
1.0
 43
3.75
 44
1.5
 45
0.0
 46
0.0
 47
0.0
 48
0.0
140
6.0
141
2.5
142
0.0
143
0.0394
144
1.0
145
0.0
146
0.5
147
1.0
 71
     0
 72
     0
 73
     0
 74
     0
 75
     0
 76
     0
 77
     3
 78
     8
170
     0
171
     4
172
     1
173
     1
174
     0
175
     0
176
   256
177
   256
178
     2
  0
DIMSTYLE
  2
通常X1_0$3
 70
     0
  3

  4

  5

  6
OPEN
  7
OPEN
 40
1.0
 41
2.5
 42
0.5
 43
3.75
 44
0.75
 45
0.0
 46
0.0
 47
0.0
 48
0.000000001
140
3.0
141
2.5
142
0.0
143
0.0394
144
1.0
145
0.0
146
0.5
147
0.5
 71
     0
 72
     0
 73
     0
 74
     0
 75
     0
 76
     0
 77
     3
 78
     8
170
     0
171
     4
172
     1
173
     1
174
     0
175
     0
176
   256
177
   256
178
     2
  0
DIMSTYLE
  2
通常X1_3$3
 70
     0
  3

  4

  5

  6
OPEN
  7
OPEN
 40
1.0
 41
7.5
 42
1.5
 43
3.75
 44
2.25
 45
0.0
 46
0.0
 47
0.0
 48
0.000000001
140
9.0
141
2.5
142
0.0
143
0.0394
144
1.0
145
0.0
146
0.5
147
1.5
 71
     0
 72
     0
 73
     0
 74
     0
 75
     0
 76
     0
 77
     3
 78
     8
170
     0
171
     4
172
     1
173
     1
174
     0
175
     0
176
   256
177
   256
178
     2
  0
DIMSTYLE
  2
通常X1_2$3
 70
     0
  3

  4

  5

  6
OPEN
  7
OPEN
 40
1.0
 41
5.0
 42
1.0
 43
3.75
 44
1.5
 45
0.0
 46
0.0
 47
0.0
 48
0.0
140
6.0
141
2.5
142
0.0
143
0.0394
144
1.0
145
0.0
146
0.5
147
1.0
 71
     0
 72
     0
 73
     0
 74
     0
 75
     0
 76
     0
 77
     3
 78
     8
170
     0
171
     4
172
     1
173
     1
174
     0
175
     0
176
   256
177
   256
178
     2
  0
DIMSTYLE
  2
通常X2_3$3
 70
     0
  3

  4

  5

  6
OPEN
  7
OPEN
 40
1.0
 41
3.75
 42
0.75
 43
3.75
 44
1.125
 45
0.0
 46
0.0
 47
0.0
 48
0.0
140
4.5
141
2.5
142
0.0
143
0.0394
144
1.0
145
0.0
146
0.5
147
0.75
 71
     0
 72
     0
 73
     0
 74
     0
 75
     0
 76
     0
 77
     3
 78
     8
170
     0
171
     4
172
     1
173
     1
174
     0
175
     0
176
   256
177
   256
178
     2
  0
DIMSTYLE
  2
通常X3_4$3
 70
     0
  3

  4

  5

  6
OPEN
  7
OPEN
 40
1.0
 41
3.3330000000000002
 42
0.667
 43
3.75
 44
1.0
 45
0.0
 46
0.0
 47
0.0
 48
0.000000001
140
4.0
141
10.0
142
0.0
143
0.0394
144
1.0
145
0.0
146
0.5
147
0.667
 71
     0
 72
     0
 73
     0
 74
     0
 75
     0
 76
     0
 77
     3
 78
     8
170
     0
171
     4
172
     1
173
     1
174
     0
175
     0
176
   256
177
   256
178
     2
  0
DIMSTYLE
  2
通常X2_0$3
 70
     0
  3

  4

  5

  6
OPEN
  7
OPEN
 40
0.0
 41
1.25
 42
0.25
 43
3.75
 44
0.5
 45
0.0
 46
0.0
 47
0.0
 48
0.000000001
140
1.5
141
2.5
142
0.0
143
0.0394
144
1.0
145
0.0
146
0.5
147
0.5
 71
     0
 72
     0
 73
     0
 74
     0
 75
     0
 76
     0
 77
     3
 78
     8
170
     0
171
     4
172
     1
173
     1
174
     0
175
     0
176
   256
177
   256
178
     2
  0
DIMSTYLE
  2
通常X3_0$3
 70
     0
  3

  4

  5

  6
OPEN
  7
OPEN
 40
0.0
 41
0.833
 42
0.167
 43
3.75
 44
0.4
 45
0.0
 46
0.0
 47
0.0
 48
0.000000001
140
1.0
141
2.5
142
0.0
143
0.0394
144
1.0
145
0.0
146
0.5
147
0.4
 71
     0
 72
     0
 73
     0
 74
     0
 75
     0
 76
     0
 77
     3
 78
     8
170
     0
171
     4
172
     1
173
     1
174
     0
175
     0
176
   256
177
   256
178
     2
  0
DIMSTYLE
  2
通常X1_5
 70
     0
  3

  4

  5

  6
OPEN
  7
OPEN
 40
1.0
 41
1.6669999999999989
 42
0.33
 43
3.75
 44
0.5
 45
0.0
 46
0.0
 47
0.0
 48
0.000000001
140
2.0
141
2.5
142
0.0
143
0.0394
144
1.0
145
0.0
146
0.5
147
0.33
 71
     0
 72
     0
 73
     0
 74
     0
 75
     0
 76
     0
 77
     3
 78
     9
170
     0
171
     4
172
     1
173
     1
174
     0
175
     0
176
   256
177
   256
178
     2
  0
DIMSTYLE
  2
通常X3_5
 70
     0
  3

  4

  5

  6
OPEN
  7
OPEN
 40
1.0
 41
4.1669999999999989
 42
0.833
 43
3.75
 44
1.25
 45
0.0
 46
0.0
 47
0.0
 48
0.000000001
140
5.0
141
2.5
142
0.0
143
0.0394
144
1.0
145
0.0
146
0.5
147
0.833
 71
     0
 72
     0
 73
     0
 74
     0
 75
     0
 76
     0
 77
     3
 78
     8
170
     0
171
     4
172
     1
173
     1
174
     0
175
     0
176
   256
177
   256
178
     2
  0
DIMSTYLE
  2
通常X3_5$3
 70
     0
  3

  4

  5

  6
OPEN
  7
OPEN
 40
1.0
 41
4.1669999999999989
 42
0.833
 43
3.75
 44
1.25
 45
0.0
 46
0.0
 47
0.0
 48
0.000000001
140
5.0
141
2.5
142
0.0
143
0.0394
144
1.0
145
0.0
146
0.5
147
0.833
 71
     0
 72
     0
 73
     0
 74
     0
 75
     0
 76
     0
 77
     3
 78
     8
170
     0
171
     4
172
     1
173
     1
174
     0
175
     0
176
   256
177
   256
178
     2
  0
DIMSTYLE
  2
通常X1_5$3
 70
     0
  3

  4

  5

  6
OPEN
  7
OPEN
 40
1.0
 41
1.6669999999999989
 42
0.33
 43
3.75
 44
0.5
 45
0.0
 46
0.0
 47
0.0
 48
0.000000001
140
2.0
141
2.5
142
0.0
143
0.0394
144
1.0
145
0.0
146
0.5
147
0.33
 71
     0
 72
     0
 73
     0
 74
     0
 75
     0
 76
     0
 77
     3
 78
     9
170
     0
171
     4
172
     1
173
     1
174
     0
175
     0
176
   256
177
   256
178
     2
  0
DIMSTYLE
  2
STANDARD
 70
     0
  3

  4

  5

  6

  7

 40
1.0
 41
0.18
 42
0.0625
 43
0.38
 44
0.18
 45
0.0
 46
0.0
 47
0.0
 48
0.0
140
0.18
141
0.09
142
0.0
143
25.399999999999999
144
1.0
145
0.0
146
1.0
147
0.09
 71
     0
 72
     0
 73
     1
 74
     1
 75
     0
 76
     0
 77
     0
 78
     0
170
     0
171
     2
172
     0
173
     0
174
     0
175
     0
176
     0
177
     0
178
     0
  0
ENDTAB
  0
ENDSEC
  0
SECTION
  2
BLOCKS
  0
BLOCK
  8
0
  2
$MODEL_SPACE
 70
     0
 10
0.0
 20
0.0
 30
0.0
  3
$MODEL_SPACE
  1

  0
ENDBLK
  5
21
  8
0
  0
BLOCK
 67
     1
  8
0
  2
$PAPER_SPACE
 70
     0
 10
0.0
 20
0.0
 30
0.0
  3
$PAPER_SPACE
  1

  0
ENDBLK
  5
58
 67
     1
  8
0
  0
BLOCK
  8
0
  2
_OPEN
 70
     0
 10
0.0
 20
0.0
 30
0.0
  3
_OPEN
  1

  0
LINE
  5
87
  8
0
  6
BYBLOCK
 62
     0
 10
-1.0
 20
0.1666666666666666
 30
0.0
 11
0.0
 21
0.0
 31
0.0
  0
LINE
  5
88
  8
0
  6
BYBLOCK
 62
     0
 10
0.0
 20
0.0
 30
0.0
 11
-1.0
 21
-0.1666666666666666
 31
0.0
  0
LINE
  5
89
  8
0
  6
BYBLOCK
 62
     0
 10
0.0
 20
0.0
 30
0.0
 11
-1.0
 21
0.0
 31
0.0
  0
ENDBLK
  5
8B
  8
0
  0
BLOCK
  8
0
  2
A$C0C1533B0
 70
     0
 10
0.0
 20
0.0
 30
0.0
  3
A$C0C1533B0
  1

  0
LINE
  5
2C54
  8
0
 10
5.2469999999998427
 20
5.2469999999998427
 30
0.0
 11
0.0
 21
5.2469999999998427
 31
0.0
  0
LINE
  5
2C55
  8
0
 10
5.0984999999996026
 20
5.0984999999996026
 30
0.0
 11
0.1484999999997854
 21
5.0984999999996026
 31
0.0
  0
LINE
  5
2C56
  8
0
 10
3.415500000000065
 20
4.6529999999988831
 30
0.0
 11
3.11850000000004
 21
4.6529999999988831
 31
0.0
  0
LINE
  5
2C57
  8
0
 10
3.11850000000004
 20
4.6529999999988831
 30
0.0
 11
3.11850000000004
 21
3.266999999998915
 31
0.0
  0
LINE
  5
2C58
  8
0
 10
1.7325000000000721
 20
4.6529999999988831
 30
0.0
 11
1.7325000000000721
 21
3.266999999998915
 31
0.0
  0
LINE
  5
2C59
  8
0
 10
1.7325000000000721
 20
4.6529999999988831
 30
0.0
 11
1.336499999999887
 21
4.6529999999988831
 31
0.0
  0
LINE
  5
2C5A
  8
0
 10
2.0324722099007881
 20
1.0250351407994449
 30
0.0
 11
2.0390851008005479
 21
1.0150218869994201
 31
0.0
  0
LINE
  5
2C5B
  8
0
 10
2.1496148443002312
 20
0.9334853956993356
 30
0.0
 11
2.1694535159003858
 21
0.9221561139995628
 31
0.0
  0
LINE
  5
2C5C
  8
0
 10
2.0277487164003101
 20
1.03516283089948
 30
0.0
 11
2.0324722099007881
 21
1.0250351407994449
 31
0.0
  0
LINE
  5
2C5D
  8
0
 10
2.1694535159003858
 20
0.9221561139995628
 30
0.0
 11
2.1892921875009961
 21
0.9115134566995948
 31
0.0
  0
LINE
  5
2C5E
  8
0
 10
2.024914620300478
 20
1.045404958399331
 30
0.0
 11
2.0277487164003101
 21
1.03516283089948
 31
0.0
  0
LINE
  5
2C5F
  8
0
 10
2.1892921875009961
 20
0.9115134566995948
 30
0.0
 11
2.209130859099786
 21
0.9015574215995911
 31
0.0
  0
LINE
  5
2C60
  8
0
 10
2.0239699215999281
 20
1.0557615232992239
 30
0.0
 11
2.024914620300478
 21
1.045404958399331
 31
0.0
  0
LINE
  5
2C61
  8
0
 10
2.209130859099786
 20
0.9015574215995911
 30
0.0
 11
2.2293069238003218
 21
0.8904570157997113
 31
0.0
  0
LINE
  5
2C62
  8
0
 10
2.0245772283005858
 20
1.065202591199067
 30
0.0
 11
2.0239699215999281
 21
1.0557615232992239
 31
0.0
  0
LINE
  5
2C63
  8
0
 10
2.2293069238003218
 20
0.8904570157997113
 30
0.0
 11
2.2463789776998051
 21
0.8779833622995739
 31
0.0
  0
LINE
  5
2C64
  8
0
 10
2.0263991472997982
 20
1.0743003468994621
 30
0.0
 11
2.0245772283005858
 21
1.065202591199067
 31
0.0
  0
LINE
  5
2C65
  8
0
 10
2.2463789776998051
 20
0.8779833622995739
 30
0.0
 11
2.260347023000576
 21
0.8641364632994736
 31
0.0
  0
LINE
  5
2C66
  8
0
 10
2.0294356786002932
 20
1.0830547914995341
 30
0.0
 11
2.0263991472997982
 21
1.0743003468994621
 31
0.0
  0
LINE
  5
2C67
  8
0
 10
2.260347023000576
 20
0.8641364632994736
 30
0.0
 11
2.2712110574998401
 21
0.8489163187991835
 31
0.0
  0
LINE
  5
2C68
  8
0
 10
2.0336868222002522
 20
1.091465923899249
 30
0.0
 11
2.0294356786002932
 21
1.0830547914995341
 31
0.0
  0
LINE
  5
2C69
  8
0
 10
2.2712110574998401
 20
0.8489163187991835
 30
0.0
 11
2.2789710822999041
 21
0.8323229276991241
 31
0.0
  0
LINE
  5
2C6A
  8
0
 10
2.039152579200163
 20
1.099533745199551
 30
0.0
 11
2.0336868222002522
 21
1.091465923899249
 31
0.0
  0
LINE
  5
2C6B
  8
0
 10
2.2789710822999041
 20
0.8323229276991241
 30
0.0
 11
2.2836270963007328
 21
0.8143562899992957
 31
0.0
  0
LINE
  5
2C6C
  8
0
 10
2.0458329485004461
 20
1.1072582553993009
 30
0.0
 11
2.039152579200163
 21
1.099533745199551
 31
0.0
  0
LINE
  5
2C6D
  8
0
 10
2.2836270963007328
 20
0.8143562899992957
 30
0.0
 11
2.2851791017001228
 21
0.7950164067992774
 31
0.0
  0
LINE
  5
2C6E
  8
0
 10
2.0537279301006488
 20
1.1146394533993771
 30
0.0
 11
2.0458329485004461
 21
1.1072582553993009
 31
0.0
  0
LINE
  5
2C6F
  8
0
 10
2.2851791017001228
 20
0.7950164067992774
 30
0.0
 11
2.2841669245999578
 21
0.7755620850994092
 31
0.0
  0
LINE
  5
2C70
  8
0
 10
2.0605432561997068
 20
1.119846345199448
 30
0.0
 11
2.0537279301006488
 21
1.1146394533993771
 31
0.0
  0
LINE
  5
2C71
  8
0
 10
2.2841669245999578
 20
0.7755620850994092
 30
0.0
 11
2.2811303933003719
 21
0.7572521362992575
 31
0.0
  0
LINE
  5
2C72
  8
0
 10
2.067763452700091
 20
1.124252176299251
 30
0.0
 11
2.0605432561997068
 21
1.119846345199448
 31
0.0
  0
LINE
  5
2C73
  8
0
 10
2.2811303933003719
 20
0.7572521362992575
 30
0.0
 11
2.2760695078000022
 21
0.7400865592994707
 31
0.0
  0
LINE
  5
2C74
  8
0
 10
2.075388520700471
 20
1.127856947799045
 30
0.0
 11
2.067763452700091
 21
1.124252176299251
 31
0.0
  0
LINE
  5
2C75
  8
0
 10
2.2760695078000022
 20
0.7400865592994707
 30
0.0
 11
2.2689842670001781
 21
0.7240653540995936
 31
0.0
  0
LINE
  5
2C76
  8
0
 10
2.0834184591003568
 20
1.1306606585994809
 30
0.0
 11
2.075388520700471
 21
1.127856947799045
 31
0.0
  0
LINE
  5
2C77
  8
0
 10
2.2689842670001781
 20
0.7240653540995936
 30
0.0
 11
2.259874673100057
 21
0.709188520699172
 31
0.0
  0
LINE
  5
2C78
  8
0
 10
2.091853268999329
 20
1.1326633086991931
 30
0.0
 11
2.0834184591003568
 21
1.1306606585994809
 31
0.0
  0
LINE
  5
2C79
  8
0
 10
2.259874673100057
 20
0.709188520699172
 30
0.0
 11
2.2487407250000611
 21
0.6954560590995698
 31
0.0
  0
LINE
  5
2C7A
  8
0
 10
2.1006929493005368
 20
1.1338648991993521
 30
0.0
 11
2.091853268999329
 21
1.1326633086991931
 31
0.0
  0
LINE
  5
2C7B
  8
0
 10
2.2487407250000611
 20
0.6954560590995698
 30
0.0
 11
2.2355824216001561
 21
0.6828679681989343
 31
0.0
  0
LINE
  5
2C7C
  8
0
 10
2.1099374999998868
 20
1.1342654300992761
 30
0.0
 11
2.1006929493005368
 21
1.1338648991993521
 31
0.0
  0
LINE
  5
2C7D
  8
0
 10
2.2355824216001561
 20
0.6828679681989343
 30
0.0
 11
2.2216143774003281
 21
0.6724541856992801
 31
0.0
  0
LINE
  5
2C7E
  8
0
 10
2.1191820507006009
 20
1.1338648991993521
 30
0.0
 11
2.1099374999998868
 21
1.1342654300992761
 31
0.0
  0
LINE
  5
2C7F
  8
0
 10
2.2216143774003281
 20
0.6724541856992801
 30
0.0
 11
2.2061618061998161
 21
0.6636425223994138
 31
0.0
  0
LINE
  5
2C80
  8
0
 10
2.1280217310004441
 20
1.1326633086991931
 30
0.0
 11
2.1191820507006009
 21
1.1338648991993521
 31
0.0
  0
LINE
  5
2C81
  8
0
 10
2.2061618061998161
 20
0.6636425223994138
 30
0.0
 11
2.1892247091000172
 21
0.656432979399142
 31
0.0
  0
LINE
  5
2C82
  8
0
 10
2.1364565409003262
 20
1.1306606585994809
 30
0.0
 11
2.1280217310004441
 21
1.1326633086991931
 31
0.0
  0
LINE
  5
2C83
  8
0
 10
2.1892247091000172
 20
0.656432979399142
 30
0.0
 11
2.1708030849999882
 21
0.6508255577991804
 31
0.0
  0
LINE
  5
2C84
  8
0
 10
2.1444864793006668
 20
1.127856947799045
 30
0.0
 11
2.1364565409003262
 21
1.1306606585994809
 31
0.0
  0
LINE
  5
2C85
  8
0
 10
2.1708030849999882
 20
0.6508255577991804
 30
0.0
 11
2.1508969349997642
 21
0.6468202564994954
 31
0.0
  0
LINE
  5
2C86
  8
0
 10
2.1521115473001369
 20
1.124252176299251
 30
0.0
 11
2.1444864793006668
 21
1.127856947799045
 31
0.0
  0
LINE
  5
2C87
  8
0
 10
2.1508969349997642
 20
0.6468202564994954
 30
0.0
 11
2.1295062580002191
 21
0.6444170754994048
 31
0.0
  0
LINE
  5
2C88
  8
0
 10
2.159331743799612
 20
1.119846345199448
 30
0.0
 11
2.1521115473001369
 21
1.124252176299251
 31
0.0
  0
LINE
  5
2C89
  8
0
 10
2.1295062580002191
 20
0.6444170754994048
 30
0.0
 11
2.1066310551004781
 21
0.6436160158991698
 31
0.0
  0
LINE
  5
2C8A
  8
0
 10
2.1661470699009442
 20
1.1146394533993771
 30
0.0
 11
2.159331743799612
 21
1.119846345199448
 31
0.0
  0
LINE
  5
2C8B
  8
0
 10
2.1066310551004781
 20
0.6436160158991698
 30
0.0
 11
2.0847005497998898
 21
0.6443598567993832
 31
0.0
  0
LINE
  5
2C8C
  8
0
 10
2.1747843150005788
 20
1.1062283198991729
 30
0.0
 11
2.1661470699009442
 21
1.1146394533993771
 31
0.0
  0
LINE
  5
2C8D
  8
0
 10
2.0847005497998898
 20
0.6443598567993832
 30
0.0
 11
2.064254571499986
 21
0.6465913827996701
 31
0.0
  0
LINE
  5
2C8E
  8
0
 10
2.1818020763007548
 20
1.0970161267991889
 30
0.0
 11
2.1747843150005788
 21
1.1062283198991729
 31
0.0
  0
LINE
  5
2C8F
  8
0
 10
2.064254571499986
 20
0.6465913827996701
 30
0.0
 11
2.0452931201998581
 21
0.650310590599247
 31
0.0
  0
LINE
  5
2C90
  8
0
 10
2.1872003549001411
 20
1.0870028740991979
 30
0.0
 11
2.1818020763007548
 21
1.0970161267991889
 31
0.0
  0
LINE
  5
2C91
  8
0
 10
2.0452931201998581
 20
0.650310590599247
 30
0.0
 11
2.0278161947999251
 21
0.6555174823993184
 31
0.0
  0
LINE
  5
2C92
  8
0
 10
2.1909791497000688
 20
1.0761885606989381
 30
0.0
 11
2.1872003549001411
 21
1.0870028740991979
 31
0.0
  0
LINE
  5
2C93
  8
0
 10
2.0278161947999251
 20
0.6555174823993184
 30
0.0
 11
2.0118237963997672
 21
0.6622120570993957
 31
0.0
  0
LINE
  5
2C94
  8
0
 10
2.193138460700538
 20
1.0645731865990911
 30
0.0
 11
2.1909791497000688
 21
1.0761885606989381
 31
0.0
  0
LINE
  5
2C95
  8
0
 10
2.0118237963997672
 20
0.6622120570993957
 30
0.0
 11
1.9973159238998051
 21
0.6703943157995127
 31
0.0
  0
LINE
  5
2C96
  8
0
 10
2.193678287900183
 20
1.052156751799429
 30
0.0
 11
2.193138460700538
 21
1.0645731865990911
 31
0.0
  0
LINE
  5
2C97
  8
0
 10
1.9973159238998051
 20
0.6703943157995127
 30
0.0
 11
1.984292578400527
 21
0.6800642573994084
 31
0.0
  0
LINE
  5
2C98
  8
0
 10
2.1925986323999491
 20
1.038939257398851
 30
0.0
 11
2.193678287900183
 21
1.052156751799429
 31
0.0
  0
LINE
  5
2C99
  8
0
 10
1.984292578400527
 20
0.6800642573994084
 30
0.0
 11
1.970257054700596
 21
0.6932245330992828
 31
0.0
  0
LINE
  5
2C9A
  8
0
 10
2.2686468749998312
 20
1.038939257398851
 30
0.0
 11
2.1925986323999491
 21
1.038939257398851
 31
0.0
  0
LINE
  5
2C9B
  8
0
 10
1.970257054700596
 20
0.6932245330992828
 30
0.0
 11
1.9583808431002581
 21
0.707071432099383
 31
0.0
  0
LINE
  5
2C9C
  8
0
 10
2.2685119182001472
 20
1.0598812619996349
 30
0.0
 11
2.2686468749998312
 21
1.038939257398851
 31
0.0
  0
LINE
  5
2C9D
  8
0
 10
1.9583808431002581
 20
0.707071432099383
 30
0.0
 11
1.948663942499933
 21
0.7216049543994814
 31
0.0
  0
LINE
  5
2C9E
  8
0
 10
2.2662176504004492
 20
1.0794500199992849
 30
0.0
 11
2.2685119182001472
 21
1.0598812619996349
 31
0.0
  0
LINE
  5
2C9F
  8
0
 10
1.948663942499933
 20
0.7216049543994814
 30
0.0
 11
1.9411063540001121
 21
0.7368250999993508
 31
0.0
  0
LINE
  5
2CA0
  8
0
 10
2.2617640705002482
 20
1.097645531399166
 30
0.0
 11
2.2662176504004492
 21
1.0794500199992849
 31
0.0
  0
LINE
  5
2CA1
  8
0
 10
1.9411063540001121
 20
0.7368250999993508
 30
0.0
 11
1.935708075400725
 21
0.7527318677994117
 31
0.0
  0
LINE
  5
2CA2
  8
0
 10
2.2551511796004879
 20
1.114467797299312
 30
0.0
 11
2.2617640705002482
 21
1.097645531399166
 31
0.0
  0
LINE
  5
2CA3
  8
0
 10
1.935708075400725
 20
0.7527318677994117
 30
0.0
 11
1.9324691088995669
 21
0.7693252588992438
 31
0.0
  0
LINE
  5
2CA4
  8
0
 10
2.2463789776998051
 20
1.1299168165992339
 30
0.0
 11
2.2551511796004879
 21
1.114467797299312
 31
0.0
  0
LINE
  5
2CA5
  8
0
 10
1.9324691088995669
 20
0.7693252588992438
 30
0.0
 11
1.931389453400697
 21
0.7866052732993012
 31
0.0
  0
LINE
  5
2CA6
  8
0
 10
2.2354474648000169
 20
1.143992590399193
 30
0.0
 11
2.2463789776998051
 21
1.1299168165992339
 31
0.0
  0
LINE
  5
2CA7
  8
0
 10
1.931389453400697
 20
0.7866052732993012
 30
0.0
 11
1.931389453400697
 21
0.81464238239937
 31
0.0
  0
LINE
  5
2CA8
  8
0
 10
2.222356640900216
 20
1.1566951175993829
 30
0.0
 11
2.2354474648000169
 21
1.143992590399193
 31
0.0
  0
LINE
  5
2CA9
  8
0
 10
1.931389453400697
 20
0.81464238239937
 30
0.0
 11
2.0074376948996351
 21
0.81464238239937
 31
0.0
  0
LINE
  5
2CAA
  8
0
 10
2.21034547140016
 20
1.165621217199259
 30
0.0
 11
2.222356640900216
 21
1.1566951175993829
 31
0.0
  0
LINE
  5
2CAB
  8
0
 10
2.0074376948996351
 20
0.81464238239937
 30
0.0
 11
2.0074376948996351
 21
0.789408984099282
 31
0.0
  0
LINE
  5
2CAC
  8
0
 10
2.1969847339000799
 20
1.173174071299399
 30
0.0
 11
2.21034547140016
 21
1.165621217199259
 31
0.0
  0
LINE
  5
2CAD
  8
0
 10
2.0074376948996351
 20
0.789408984099282
 30
0.0
 11
2.0079775232006791
 21
0.7770497690994489
 31
0.0
  0
LINE
  5
2CAE
  8
0
 10
2.1822744262003648
 20
1.1793536787995429
 30
0.0
 11
2.1969847339000799
 21
1.173174071299399
 31
0.0
  0
LINE
  5
2CAF
  8
0
 10
2.0079775232006791
 20
0.7770497690994489
 30
0.0
 11
2.0095970069996829
 21
0.765606051099212
 31
0.0
  0
LINE
  5
2CB0
  8
0
 10
2.1662145483005579
 20
1.184160040799497
 30
0.0
 11
2.1822744262003648
 21
1.1793536787995429
 31
0.0
  0
LINE
  5
2CB1
  8
0
 10
2.0095970069996829
 20
0.765606051099212
 30
0.0
 11
2.012296145199798
 21
0.7550778300992534
 31
0.0
  0
LINE
  5
2CB2
  8
0
 10
2.1488051023998191
 20
1.1875931561990001
 30
0.0
 11
2.1662145483005579
 21
1.184160040799497
 31
0.0
  0
LINE
  5
2CB3
  8
0
 10
2.012296145199798
 20
0.7550778300992534
 30
0.0
 11
2.0160749400001801
 21
0.7454651071996068
 31
0.0
  0
LINE
  5
2CB4
  8
0
 10
2.1300460862994441
 20
1.1896530249991879
 30
0.0
 11
2.1488051023998191
 21
1.1875931561990001
 31
0.0
  0
LINE
  5
2CB5
  8
0
 10
2.0160749400001801
 20
0.7454651071996068
 30
0.0
 11
2.0209333903003421
 21
0.7367678812993291
 31
0.0
  0
LINE
  5
2CB6
  8
0
 10
2.1099374999998868
 20
1.1903396482994131
 30
0.0
 11
2.1300460862994441
 21
1.1896530249991879
 31
0.0
  0
LINE
  5
2CB7
  8
0
 10
2.0209333903003421
 20
0.7367678812993291
 30
0.0
 11
2.0268714961002838
 21
0.7289861523991023
 31
0.0
  0
LINE
  5
2CB8
  8
0
 10
2.093135359700681
 20
1.1895385886991781
 30
0.0
 11
2.1099374999998868
 21
1.1903396482994131
 31
0.0
  0
LINE
  5
2CB9
  8
0
 10
2.0268714961002838
 20
0.7289861523991023
 30
0.0
 11
2.0338892574004599
 21
0.7221199215994149
 31
0.0
  0
LINE
  5
2CBA
  8
0
 10
2.076738089799619
 20
1.187135407699315
 30
0.0
 11
2.093135359700681
 21
1.1895385886991781
 31
0.0
  0
LINE
  5
2CBB
  8
0
 10
2.0338892574004599
 20
0.7221199215994149
 30
0.0
 11
2.0417167606001381
 21
0.7161691888993574
 31
0.0
  0
LINE
  5
2CBC
  8
0
 10
2.0607456914003701
 20
1.1831301063994031
 30
0.0
 11
2.076738089799619
 21
1.187135407699315
 31
0.0
  0
LINE
  5
2CBD
  8
0
 10
2.0417167606001381
 20
0.7161691888993574
 30
0.0
 11
2.050084092099496
 21
0.7111339520995444
 31
0.0
  0
LINE
  5
2CBE
  8
0
 10
2.0451581633997189
 20
1.1775226836991799
 30
0.0
 11
2.0607456914003701
 21
1.1831301063994031
 31
0.0
  0
LINE
  5
2CBF
  8
0
 10
2.050084092099496
 20
0.7111339520995444
 30
0.0
 11
2.0589912508003181
 21
0.7070142144991678
 31
0.0
  0
LINE
  5
2CC0
  8
0
 10
2.0299755057999391
 20
1.170313141799169
 30
0.0
 11
2.0451581633997189
 21
1.1775226836991799
 31
0.0
  0
LINE
  5
2CC1
  8
0
 10
2.0589912508003181
 20
0.7070142144991678
 30
0.0
 11
2.0684382377994548
 21
0.7038099727990357
 31
0.0
  0
LINE
  5
2CC2
  8
0
 10
2.0151977197001538
 20
1.161501478499303
 30
0.0
 11
2.0299755057999391
 21
1.170313141799169
 31
0.0
  0
LINE
  5
2CC3
  8
0
 10
2.0684382377994548
 20
0.7038099727990357
 30
0.0
 11
2.078425052000056
 21
0.7015212291994432
 31
0.0
  0
LINE
  5
2CC4
  8
0
 10
2.00082480509991
 20
1.15108769489916
 30
0.0
 11
2.0151977197001538
 21
1.161501478499303
 31
0.0
  0
LINE
  5
2CC5
  8
0
 10
2.078425052000056
 20
0.7015212291994432
 30
0.0
 11
2.088951694500337
 21
0.7001479825992192
 31
0.0
  0
LINE
  5
2CC6
  8
0
 10
1.9868567598000479
 20
1.138671261199306
 30
0.0
 11
2.00082480509991
 21
1.15108769489916
 31
0.0
  0
LINE
  5
2CC7
  8
0
 10
2.088951694500337
 20
0.7001479825992192
 30
0.0
 11
2.100018164200264
 21
0.6996902340993075
 31
0.0
  0
LINE
  5
2CC8
  8
0
 10
1.975182983400827
 20
1.125453766799182
 30
0.0
 11
1.9868567598000479
 21
1.138671261199306
 31
0.0
  0
LINE
  5
2CC9
  8
0
 10
2.100018164200264
 20
0.6996902340993075
 30
0.0
 11
2.1145935151007502
 21
0.7001479825992192
 31
0.0
  0
LINE
  5
2CCA
  8
0
 10
1.965803475900429
 20
1.1114352116992441
 30
0.0
 11
1.975182983400827
 21
1.125453766799182
 31
0.0
  0
LINE
  5
2CCB
  8
0
 10
2.1145935151007502
 20
0.7001479825992192
 30
0.0
 11
2.128089210500093
 21
0.7015212291994432
 31
0.0
  0
LINE
  5
2CCC
  8
0
 10
1.958718236200184
 20
1.096615596999527
 30
0.0
 11
1.965803475900429
 21
1.1114352116992441
 31
0.0
  0
LINE
  5
2CCD
  8
0
 10
2.128089210500093
 20
0.7015212291994432
 30
0.0
 11
2.140505249300531
 21
0.7038099727990357
 31
0.0
  0
LINE
  5
2CCE
  8
0
 10
1.9539272643005461
 20
1.08099492159954
 30
0.0
 11
1.958718236200184
 21
1.096615596999527
 31
0.0
  0
LINE
  5
2CCF
  8
0
 10
2.140505249300531
 20
0.7038099727990357
 30
0.0
 11
2.1518416337003141
 21
0.7070142144991678
 31
0.0
  0
LINE
  5
2CD0
  8
0
 10
1.951430560199696
 20
1.0645731865990911
 30
0.0
 11
1.9539272643005461
 21
1.08099492159954
 31
0.0
  0
LINE
  5
2CD1
  8
0
 10
2.1518416337003141
 20
0.7070142144991678
 30
0.0
 11
2.1620983615002838
 21
0.7111339520995444
 31
0.0
  0
LINE
  5
2CD2
  8
0
 10
1.951228124999943
 20
1.047350390899509
 30
0.0
 11
1.951430560199696
 21
1.0645731865990911
 31
0.0
  0
LINE
  5
2CD3
  8
0
 10
2.1620983615002838
 20
0.7111339520995444
 30
0.0
 11
2.1712754349000529
 21
0.7161691888993574
 31
0.0
  0
LINE
  5
2CD4
  8
0
 10
1.9531850007997491
 20
1.0302420314994829
 30
0.0
 11
1.951228124999943
 21
1.047350390899509
 31
0.0
  0
LINE
  5
2CD5
  8
0
 10
2.1712754349000529
 20
0.7161691888993574
 30
0.0
 11
2.1793728517004629
 21
0.7221199215994149
 31
0.0
  0
LINE
  5
2CD6
  8
0
 10
1.9571662307998841
 20
1.01416360759913
 30
0.0
 11
1.9531850007997491
 21
1.0302420314994829
 31
0.0
  0
LINE
  5
2CD7
  8
0
 10
2.1793728517004629
 20
0.7221199215994149
 30
0.0
 11
2.1872678333002109
 21
0.7296155569995335
 31
0.0
  0
LINE
  5
2CD8
  8
0
 10
1.9631718150003501
 20
0.9991151191993594
 30
0.0
 11
1.9571662307998841
 21
1.01416360759913
 31
0.0
  0
LINE
  5
2CD9
  8
0
 10
2.1872678333002109
 20
0.7296155569995335
 30
0.0
 11
2.1939482025995849
 21
0.7376833782993799
 31
0.0
  0
LINE
  5
2CDA
  8
0
 10
1.9712017534002371
 20
0.9850965640996491
 30
0.0
 11
1.9631718150003501
 21
0.9991151191993594
 31
0.0
  0
LINE
  5
2CDB
  8
0
 10
2.1939482025995849
 20
0.7376833782993799
 30
0.0
 11
2.1994139584994619
 21
0.7463233854996361
 31
0.0
  0
LINE
  5
2CDC
  8
0
 10
1.981256047100032
 20
0.9721079444993847
 30
0.0
 11
1.9712017534002371
 21
0.9850965640996491
 31
0.0
  0
LINE
  5
2CDD
  8
0
 10
2.1994139584994619
 20
0.7463233854996361
 30
0.0
 11
2.203665103199909
 21
0.7555355785993925
 31
0.0
  0
LINE
  5
2CDE
  8
0
 10
1.993334693900578
 20
0.9601492581991806
 30
0.0
 11
1.981256047100032
 21
0.9721079444993847
 31
0.0
  0
LINE
  5
2CDF
  8
0
 10
2.203665103199909
 20
0.7555355785993925
 30
0.0
 11
2.206701634500404
 21
0.7653199575995587
 31
0.0
  0
LINE
  5
2CE0
  8
0
 10
2.0074376948996351
 20
0.9492205073993318
 30
0.0
 11
1.993334693900578
 21
0.9601492581991806
 31
0.0
  0
LINE
  5
2CE1
  8
0
 10
2.206701634500404
 20
0.7653199575995587
 30
0.0
 11
2.2085235535005259
 21
0.7756765224989977
 31
0.0
  0
LINE
  5
2CE2
  8
0
 10
2.0284235015005829
 20
0.9349158598993199
 30
0.0
 11
2.0074376948996351
 21
0.9492205073993318
 31
0.0
  0
LINE
  5
2CE3
  8
0
 10
2.2085235535005259
 20
0.7756765224989977
 30
0.0
 11
2.209130859099786
 21
0.7866052732993012
 31
0.0
  0
LINE
  5
2CE4
  8
0
 10
2.049814178500128
 20
0.9208400871993944
 30
0.0
 11
2.0284235015005829
 21
0.9349158598993199
 31
0.0
  0
LINE
  5
2CE5
  8
0
 10
2.209130859099786
 20
0.7866052732993012
 30
0.0
 11
2.208186160400146
 21
0.79827786609917
 31
0.0
  0
LINE
  5
2CE6
  8
0
 10
2.0716097259000881
 20
0.9069931881995216
 30
0.0
 11
2.049814178500128
 21
0.9208400871993944
 31
0.0
  0
LINE
  5
2CE7
  8
0
 10
2.208186160400146
 20
0.79827786609917
 30
0.0
 11
2.2053520643007678
 21
0.8092638355990403
 31
0.0
  0
LINE
  5
2CE8
  8
0
 10
2.0938101448000448
 20
0.8933751628992467
 30
0.0
 11
2.0716097259000881
 21
0.9069931881995216
 31
0.0
  0
LINE
  5
2CE9
  8
0
 10
2.2053520643007678
 20
0.8092638355990403
 30
0.0
 11
2.2006285719007792
 21
0.8195631817993671
 31
0.0
  0
LINE
  5
2CEA
  8
0
 10
2.1164154341004169
 20
0.8799860134990922
 30
0.0
 11
2.0938101448000448
 21
0.8933751628992467
 31
0.0
  0
LINE
  5
2CEB
  8
0
 10
2.2006285719007792
 20
0.8195631817993671
 30
0.0
 11
2.1940156810005642
 21
0.829175904699241
 31
0.0
  0
LINE
  5
2CEC
  8
0
 10
2.1394255938002971
 20
0.8668257377989903
 30
0.0
 11
2.1164154341004169
 21
0.8799860134990922
 31
0.0
  0
LINE
  5
2CED
  8
0
 10
2.1940156810005642
 20
0.829175904699241
 30
0.0
 11
2.185513392700158
 21
0.8381020053993779
 31
0.0
  0
LINE
  5
2CEE
  8
0
 10
2.1628406250001708
 20
0.8538943357993957
 30
0.0
 11
2.1394255938002971
 21
0.8668257377989903
 31
0.0
  0
LINE
  5
2CEF
  8
0
 10
2.185513392700158
 20
0.8381020053993779
 30
0.0
 11
2.1751217081005052
 21
0.8463414816992553
 31
0.0
  0
LINE
  5
2CF0
  8
0
 10
2.1751217081005052
 20
0.8463414816992553
 30
0.0
 11
2.1628406250001708
 21
0.8538943357993957
 31
0.0
  0
LINE
  5
2CF1
  8
0
 10
3.0489486324004238
 20
1.1717436059993811
 30
0.0
 11
3.0626467629999752
 21
1.1635613483990701
 31
0.0
  0
LINE
  5
2CF2
  8
0
 10
3.0343058031003229
 20
1.1784381817988101
 30
0.0
 11
3.0489486324004238
 21
1.1717436059993811
 31
0.0
  0
LINE
  5
2CF3
  8
0
 10
3.0626467629999752
 20
1.1635613483990701
 30
0.0
 11
3.0754001948998839
 21
1.1538914056993681
 31
0.0
  0
LINE
  5
2CF4
  8
0
 10
3.0187182762006151
 20
1.183645073599336
 30
0.0
 11
3.0343058031003229
 21
1.1784381817988101
 31
0.0
  0
LINE
  5
2CF5
  8
0
 10
3.0754001948998839
 20
1.1538914056993681
 30
0.0
 11
3.0946990393008491
 21
1.133979336599622
 31
0.0
  0
LINE
  5
2CF6
  8
0
 10
3.0021860494998691
 20
1.187364281399595
 30
0.0
 11
3.0187182762006151
 21
1.183645073599336
 31
0.0
  0
LINE
  5
2CF7
  8
0
 10
3.0946990393008491
 20
1.133979336599622
 30
0.0
 11
3.1110288308000231
 21
1.109489780299554
 31
0.0
  0
LINE
  5
2CF8
  8
0
 10
2.9847091241008452
 20
1.1895958062993941
 30
0.0
 11
3.0021860494998691
 21
1.187364281399595
 31
0.0
  0
LINE
  5
2CF9
  8
0
 10
3.1110288308000231
 20
1.109489780299554
 30
0.0
 11
3.1243895683001019
 21
1.080422735699357
 31
0.0
  0
LINE
  5
2CFA
  8
0
 10
2.9662875000003619
 20
1.1903396482994131
 30
0.0
 11
2.9847091241008452
 21
1.1895958062993941
 31
0.0
  0
LINE
  5
2CFB
  8
0
 10
3.1243895683001019
 20
1.080422735699357
 30
0.0
 11
3.1347812540002451
 21
1.0467782049993271
 31
0.0
  0
LINE
  5
2CFC
  8
0
 10
2.9469886555998519
 20
1.1895958062993941
 30
0.0
 11
2.9662875000003619
 21
1.1903396482994131
 31
0.0
  0
LINE
  5
2CFD
  8
0
 10
3.1347812540002451
 20
1.0467782049993271
 30
0.0
 11
3.1422038868004161
 21
1.0085561859991681
 31
0.0
  0
LINE
  5
2CFE
  8
0
 10
2.9287694678005201
 20
1.187364281399595
 30
0.0
 11
2.9469886555998519
 21
1.1895958062993941
 31
0.0
  0
LINE
  5
2CFF
  8
0
 10
3.1422038868004161
 20
1.0085561859991681
 30
0.0
 11
3.1466574656005828
 21
0.9657566808996307
 31
0.0
  0
LINE
  5
2D00
  8
0
 10
2.911629934400934
 20
1.183645073599336
 30
0.0
 11
2.9287694678005201
 21
1.187364281399595
 31
0.0
  0
LINE
  5
2D01
  8
0
 10
3.1466574656005828
 20
0.9657566808996307
 30
0.0
 11
3.148141992599903
 21
0.9183796874990549
 31
0.0
  0
LINE
  5
2D02
  8
0
 10
2.895570057599798
 20
1.1784381817988101
 30
0.0
 11
2.911629934400934
 21
1.183645073599336
 31
0.0
  0
LINE
  5
2D03
  8
0
 10
3.148141992599903
 20
0.9183796874990549
 30
0.0
 11
3.1466574656005828
 21
0.8702588531996298
 31
0.0
  0
LINE
  5
2D04
  8
0
 10
2.8805898363002589
 20
1.1717436059993811
 30
0.0
 11
2.895570057599798
 21
1.1784381817988101
 31
0.0
  0
LINE
  5
2D05
  8
0
 10
3.1466574656005828
 20
0.8702588531996298
 30
0.0
 11
3.1422038868004161
 21
0.8268299423993994
 31
0.0
  0
LINE
  5
2D06
  8
0
 10
2.8666892694009221
 20
1.1635613483990701
 30
0.0
 11
2.8805898363002589
 21
1.1717436059993811
 31
0.0
  0
LINE
  5
2D07
  8
0
 10
3.1422038868004161
 20
0.8268299423993994
 30
0.0
 11
3.1347812540002451
 21
0.788092957299341
 31
0.0
  0
LINE
  5
2D08
  8
0
 10
2.8538683591004879
 20
1.1538914056993681
 30
0.0
 11
2.8666892694009221
 21
1.1635613483990701
 31
0.0
  0
LINE
  5
2D09
  8
0
 10
3.1347812540002451
 20
0.788092957299341
 30
0.0
 11
3.1243895683001019
 21
0.7540478956993866
 31
0.0
  0
LINE
  5
2D0A
  8
0
 10
2.8345695158004669
 20
1.133979336599622
 30
0.0
 11
2.8538683591004879
 21
1.1538914056993681
 31
0.0
  0
LINE
  5
2D0B
  8
0
 10
3.1243895683001019
 20
0.7540478956993866
 30
0.0
 11
3.1110288308000231
 21
0.7246947586991155
 31
0.0
  0
LINE
  5
2D0C
  8
0
 10
2.8182397242999282
 20
1.109489780299554
 30
0.0
 11
2.8345695158004669
 21
1.133979336599622
 31
0.0
  0
LINE
  5
2D0D
  8
0
 10
3.1110288308000231
 20
0.7246947586991155
 30
0.0
 11
3.0946990393008491
 21
0.7000335462992098
 31
0.0
  0
LINE
  5
2D0E
  8
0
 10
2.8048789857002698
 20
1.080422735699357
 30
0.0
 11
2.8182397242999282
 21
1.109489780299554
 31
0.0
  0
LINE
  5
2D0F
  8
0
 10
3.0946990393008491
 20
0.7000335462992098
 30
0.0
 11
3.0754001948998839
 21
0.6800642573994084
 31
0.0
  0
LINE
  5
2D10
  8
0
 10
2.794487301100161
 20
1.0467782049993271
 30
0.0
 11
2.8048789857002698
 21
1.080422735699357
 31
0.0
  0
LINE
  5
2D11
  8
0
 10
3.0754001948998839
 20
0.6800642573994084
 30
0.0
 11
3.0626467629999752
 21
0.6703943157995127
 31
0.0
  0
LINE
  5
2D12
  8
0
 10
2.7870646682995348
 20
1.0085561859991681
 30
0.0
 11
2.794487301100161
 21
1.0467782049993271
 31
0.0
  0
LINE
  5
2D13
  8
0
 10
3.0626467629999752
 20
0.6703943157995127
 30
0.0
 11
3.0489486324004238
 21
0.6622120570993957
 31
0.0
  0
LINE
  5
2D14
  8
0
 10
2.7826110894993681
 20
0.9657566808996307
 30
0.0
 11
2.7870646682995348
 21
1.0085561859991681
 31
0.0
  0
LINE
  5
2D15
  8
0
 10
3.0489486324004238
 20
0.6622120570993957
 30
0.0
 11
3.0343058031003229
 21
0.6555174823993184
 31
0.0
  0
LINE
  5
2D16
  8
0
 10
2.7811265625000479
 20
0.9183796874990549
 30
0.0
 11
2.7826110894993681
 21
0.9657566808996307
 31
0.0
  0
LINE
  5
2D17
  8
0
 10
3.0343058031003229
 20
0.6555174823993184
 30
0.0
 11
3.0187182762006151
 21
0.650310590599247
 31
0.0
  0
LINE
  5
2D18
  8
0
 10
2.7826110894993681
 20
0.8702588531996298
 30
0.0
 11
2.7811265625000479
 21
0.9183796874990549
 31
0.0
  0
LINE
  5
2D19
  8
0
 10
3.0187182762006151
 20
0.650310590599247
 30
0.0
 11
3.0021860494998691
 21
0.6465913827996701
 31
0.0
  0
LINE
  5
2D1A
  8
0
 10
2.7870646682995348
 20
0.8268299423993994
 30
0.0
 11
2.7826110894993681
 21
0.8702588531996298
 31
0.0
  0
LINE
  5
2D1B
  8
0
 10
3.0021860494998691
 20
0.6465913827996701
 30
0.0
 11
2.9847091241008452
 21
0.6443598567993832
 31
0.0
  0
LINE
  5
2D1C
  8
0
 10
2.794487301100161
 20
0.788092957299341
 30
0.0
 11
2.7870646682995348
 21
0.8268299423993994
 31
0.0
  0
LINE
  5
2D1D
  8
0
 10
2.9847091241008452
 20
0.6443598567993832
 30
0.0
 11
2.9662875000003619
 21
0.6436160158991698
 31
0.0
  0
LINE
  5
2D1E
  8
0
 10
2.8048789857002698
 20
0.7540478956993866
 30
0.0
 11
2.794487301100161
 21
0.788092957299341
 31
0.0
  0
LINE
  5
2D1F
  8
0
 10
2.9662875000003619
 20
0.6436160158991698
 30
0.0
 11
2.9469886555998519
 21
0.6443598567993832
 31
0.0
  0
LINE
  5
2D20
  8
0
 10
2.8182397242999282
 20
0.7246947586991155
 30
0.0
 11
2.8048789857002698
 21
0.7540478956993866
 31
0.0
  0
LINE
  5
2D21
  8
0
 10
2.9469886555998519
 20
0.6443598567993832
 30
0.0
 11
2.9287694678005201
 21
0.6465913827996701
 31
0.0
  0
LINE
  5
2D22
  8
0
 10
2.8345695158004669
 20
0.7000335462992098
 30
0.0
 11
2.8182397242999282
 21
0.7246947586991155
 31
0.0
  0
LINE
  5
2D23
  8
0
 10
2.9287694678005201
 20
0.6465913827996701
 30
0.0
 11
2.911629934400934
 21
0.650310590599247
 31
0.0
  0
LINE
  5
2D24
  8
0
 10
2.8538683591004879
 20
0.6800642573994084
 30
0.0
 11
2.8345695158004669
 21
0.7000335462992098
 31
0.0
  0
LINE
  5
2D25
  8
0
 10
2.911629934400934
 20
0.650310590599247
 30
0.0
 11
2.895570057599798
 21
0.6555174823993184
 31
0.0
  0
LINE
  5
2D26
  8
0
 10
2.8666892694009221
 20
0.6703943157995127
 30
0.0
 11
2.8538683591004879
 21
0.6800642573994084
 31
0.0
  0
LINE
  5
2D27
  8
0
 10
2.895570057599798
 20
0.6555174823993184
 30
0.0
 11
2.8805898363002589
 21
0.6622120570993957
 31
0.0
  0
LINE
  5
2D28
  8
0
 10
2.8805898363002589
 20
0.6622120570993957
 30
0.0
 11
2.8666892694009221
 21
0.6703943157995127
 31
0.0
  0
LINE
  5
2D29
  8
0
 10
3.8557019534000569
 20
1.1903396482994131
 30
0.0
 11
4.0210242182001821
 21
0.6436160158991698
 31
0.0
  0
LINE
  5
2D2A
  8
0
 10
3.7895730466002528
 20
1.1903396482994131
 30
0.0
 11
3.8557019534000569
 21
1.1903396482994131
 31
0.0
  0
LINE
  5
2D2B
  8
0
 10
4.0210242182001821
 20
0.6436160158991698
 30
0.0
 11
3.9416695318004709
 21
0.6436160158991698
 31
0.0
  0
LINE
  5
2D2C
  8
0
 10
3.6242507807005491
 20
0.6436160158991698
 30
0.0
 11
3.7895730466002528
 21
1.1903396482994131
 31
0.0
  0
LINE
  5
2D2D
  8
0
 10
3.9416695318004709
 20
0.6436160158991698
 30
0.0
 11
3.8953792965999119
 21
0.8034275391992196
 31
0.0
  0
LINE
  5
2D2E
  8
0
 10
3.7036054682002941
 20
0.6436160158991698
 30
0.0
 11
3.6242507807005491
 21
0.6436160158991698
 31
0.0
  0
LINE
  5
2D2F
  8
0
 10
3.8953792965999119
 20
0.8034275391992196
 30
0.0
 11
3.749895703400397
 21
0.8034275391992196
 31
0.0
  0
LINE
  5
2D30
  8
0
 10
3.749895703400397
 20
0.8034275391992196
 30
0.0
 11
3.7036054682002941
 21
0.6436160158991698
 31
0.0
  0
LINE
  5
2D31
  8
0
 10
3.8193310551005188
 20
1.0417429692993201
 30
0.0
 11
3.7664279300997801
 21
0.8566980465993765
 31
0.0
  0
LINE
  5
2D32
  8
0
 10
3.7664279300997801
 20
0.8566980465993765
 30
0.0
 11
3.8788470699005302
 21
0.8566980465993765
 31
0.0
  0
LINE
  5
2D33
  8
0
 10
3.8259439449007
 20
1.0417429692993201
 30
0.0
 11
3.8193310551005188
 21
1.0417429692993201
 31
0.0
  0
LINE
  5
2D34
  8
0
 10
3.8788470699005302
 20
0.8566980465993765
 30
0.0
 11
3.8259439449007
 21
1.0417429692993201
 31
0.0
  0
LINE
  5
2D35
  8
0
 10
0.0
 20
0.0
 30
0.0
 11
5.2469999999998427
 21
0.0
 31
0.0
  0
LINE
  5
2D36
  8
0
 10
0.1484999999997854
 20
0.1484999999997854
 30
0.0
 11
5.0984999999996026
 21
0.1484999999997854
 31
0.0
  0
LINE
  5
2D37
  8
0
 10
3.415500000000065
 20
2.276999999999588
 30
0.0
 11
3.11850000000004
 21
2.276999999999588
 31
0.0
  0
LINE
  5
2D38
  8
0
 10
3.11850000000004
 20
2.5599985850992648
 30
0.0
 11
3.11850000000004
 21
2.276999999999588
 31
0.0
  0
ARC
  5
2D39
  8
0
 10
2.4255000000002829
 20
3.266999999998915
 30
0.0
 40
0.9899999999999987
 50
225.57299599901029
 51
314.42700398160042
  0
LINE
  5
2D3A
  8
0
 10
1.7324999999982531
 20
2.5599985855756131
 30
0.0
 11
1.7325000000000721
 21
0.6434999999992215
 31
0.0
  0
LINE
  5
2D3B
  8
0
 10
1.7325000000000721
 20
0.6434999999992215
 30
0.0
 11
1.336499999999887
 21
0.6434999999992215
 31
0.0
  0
LINE
  5
2D3C
  8
0
 10
3.592849218199262
 20
1.1903396482994131
 30
0.0
 11
3.5201074216006409
 21
0.6436160158991698
 31
0.0
  0
LINE
  5
2D3D
  8
0
 10
3.5267203125004012
 20
1.1903396482994131
 30
0.0
 11
3.592849218199262
 21
1.1903396482994131
 31
0.0
  0
LINE
  5
2D3E
  8
0
 10
3.5201074216006409
 20
0.6436160158991698
 30
0.0
 11
3.4539785158999621
 21
0.6436160158991698
 31
0.0
  0
LINE
  5
2D3F
  8
0
 10
3.4837365233001938
 20
0.8398757817990372
 30
0.0
 11
3.5267203125004012
 21
1.1903396482994131
 31
0.0
  0
LINE
  5
2D40
  8
0
 10
3.4539785158999621
 20
0.6436160158991698
 30
0.0
 11
3.3944625000003721
 21
1.052957812499244
 31
0.0
  0
LINE
  5
2D41
  8
0
 10
3.4771236323999801
 20
0.8398757817990372
 30
0.0
 11
3.4837365233001938
 21
0.8398757817990372
 31
0.0
  0
LINE
  5
2D42
  8
0
 10
3.3944625000003721
 20
1.052957812499244
 30
0.0
 11
3.3878496091001571
 21
1.052957812499244
 31
0.0
  0
LINE
  5
2D43
  8
0
 10
3.4275269534009558
 20
1.1903396482994131
 30
0.0
 11
3.4771236323999801
 21
0.8398757817990372
 31
0.0
  0
LINE
  5
2D44
  8
0
 10
3.3878496091001571
 20
1.052957812499244
 30
0.0
 11
3.3283335932001128
 21
0.6436160158991698
 31
0.0
  0
LINE
  5
2D45
  8
0
 10
3.3547851556995729
 20
1.1903396482994131
 30
0.0
 11
3.4275269534009558
 21
1.1903396482994131
 31
0.0
  0
LINE
  5
2D46
  8
0
 10
3.3283335932001128
 20
0.6436160158991698
 30
0.0
 11
3.262204687500343
 21
0.6436160158991698
 31
0.0
  0
LINE
  5
2D47
  8
0
 10
3.30518847669964
 20
0.8398757817990372
 30
0.0
 11
3.3547851556995729
 21
1.1903396482994131
 31
0.0
  0
LINE
  5
2D48
  8
0
 10
3.262204687500343
 20
0.6436160158991698
 30
0.0
 11
3.1894628909003582
 21
1.1903396482994131
 31
0.0
  0
LINE
  5
2D49
  8
0
 10
3.2985755858007901
 20
0.8398757817990372
 30
0.0
 11
3.30518847669964
 21
0.8398757817990372
 31
0.0
  0
LINE
  5
2D4A
  8
0
 10
3.1894628909003582
 20
1.1903396482994131
 30
0.0
 11
3.255591796600128
 21
1.1903396482994131
 31
0.0
  0
LINE
  5
2D4B
  8
0
 10
3.255591796600128
 20
1.1903396482994131
 30
0.0
 11
3.2985755858007901
 21
0.8398757817990372
 31
0.0
  0
LINE
  5
2D4C
  8
0
 10
3.0205401941002492
 20
1.118530317299246
 30
0.0
 11
3.01183547060009
 21
1.1241949575996839
 31
0.0
  0
LINE
  5
2D4D
  8
0
 10
3.01183547060009
 20
1.1241949575996839
 30
0.0
 11
3.0029957902997921
 21
1.1288296634993451
 31
0.0
  0
LINE
  5
2D4E
  8
0
 10
3.029109960799814
 20
1.1118357425991681
 30
0.0
 11
3.0205401941002492
 21
1.118530317299246
 31
0.0
  0
LINE
  5
2D4F
  8
0
 10
3.0029957902997921
 20
1.1288296634993451
 30
0.0
 11
2.9940211532002641
 21
1.13243443499914
 31
0.0
  0
LINE
  5
2D50
  8
0
 10
3.0405138236001221
 20
1.098961559299368
 30
0.0
 11
3.029109960799814
 21
1.1118357425991681
 31
0.0
  0
LINE
  5
2D51
  8
0
 10
2.9940211532002641
 20
1.13243443499914
 30
0.0
 11
2.984911559300599
 21
1.1350092709992621
 31
0.0
  0
LINE
  5
2D52
  8
0
 10
3.0501632458008312
 20
1.0811665776991499
 30
0.0
 11
3.0405138236001221
 21
1.098961559299368
 31
0.0
  0
LINE
  5
2D53
  8
0
 10
2.984911559300599
 20
1.1350092709992621
 30
0.0
 11
2.9756670086003392
 21
1.136554173699323
 31
0.0
  0
LINE
  5
2D54
  8
0
 10
3.0580582274005792
 20
1.058450796699389
 30
0.0
 11
3.0501632458008312
 21
1.0811665776991499
 31
0.0
  0
LINE
  5
2D55
  8
0
 10
2.9756670086003392
 20
1.136554173699323
 30
0.0
 11
2.9662875000003619
 21
1.137069140899257
 31
0.0
  0
LINE
  5
2D56
  8
0
 10
3.0641987683998191
 20
1.0308142184992439
 30
0.0
 11
3.0580582274005792
 21
1.058450796699389
 31
0.0
  0
LINE
  5
2D57
  8
0
 10
2.9662875000003619
 20
1.137069140899257
 30
0.0
 11
2.9560307722003918
 21
1.136554173699323
 31
0.0
  0
LINE
  5
2D58
  8
0
 10
3.068584868799916
 20
0.9982568397995237
 30
0.0
 11
3.0641987683998191
 21
1.0308142184992439
 31
0.0
  0
LINE
  5
2D59
  8
0
 10
2.9560307722003918
 20
1.136554173699323
 30
0.0
 11
2.946043956900211
 21
1.1350092709992621
 31
0.0
  0
LINE
  5
2D5A
  8
0
 10
3.0712165296999951
 20
0.9607786627991573
 30
0.0
 11
3.068584868799916
 21
0.9982568397995237
 31
0.0
  0
LINE
  5
2D5B
  8
0
 10
2.946043956900211
 20
1.1350092709992621
 30
0.0
 11
2.9363270563007968
 21
1.13243443499914
 31
0.0
  0
LINE
  5
2D5C
  8
0
 10
3.0720937500000209
 20
0.9183796874990549
 30
0.0
 11
3.0712165296999951
 21
0.9607786627991573
 31
0.0
  0
LINE
  5
2D5D
  8
0
 10
2.9363270563007968
 20
1.13243443499914
 30
0.0
 11
2.9268800703998741
 21
1.1288296634993451
 31
0.0
  0
LINE
  5
2D5E
  8
0
 10
3.0712165296999951
 20
0.8752368701991599
 30
0.0
 11
3.0720937500000209
 21
0.9183796874990549
 31
0.0
  0
LINE
  5
2D5F
  8
0
 10
2.9268800703998741
 20
1.1288296634993451
 30
0.0
 11
2.9177029970005601
 21
1.1241949575996839
 31
0.0
  0
LINE
  5
2D60
  8
0
 10
3.068584868799916
 20
0.8371292885992716
 30
0.0
 11
3.0712165296999951
 21
0.8752368701991599
 31
0.0
  0
LINE
  5
2D61
  8
0
 10
2.9177029970005601
 20
1.1241949575996839
 30
0.0
 11
2.9087958382997381
 21
1.118530317299246
 31
0.0
  0
LINE
  5
2D62
  8
0
 10
3.0641987683998191
 20
0.8040569437994236
 30
0.0
 11
3.068584868799916
 21
0.8371292885992716
 31
0.0
  0
LINE
  5
2D63
  8
0
 10
2.9087958382997381
 20
1.118530317299246
 30
0.0
 11
2.9001585932001031
 21
1.1118357425991681
 31
0.0
  0
LINE
  5
2D64
  8
0
 10
3.0580582274005792
 20
0.7760198346993548
 30
0.0
 11
3.0641987683998191
 21
0.8040569437994236
 31
0.0
  0
LINE
  5
2D65
  8
0
 10
2.9001585932001031
 20
1.1118357425991681
 30
0.0
 11
2.8887547314998301
 21
1.098961559299368
 31
0.0
  0
LINE
  5
2D66
  8
0
 10
3.0501632458008312
 20
0.7530179612990651
 30
0.0
 11
3.0580582274005792
 21
0.7760198346993548
 31
0.0
  0
LINE
  5
2D67
  8
0
 10
2.8887547314998301
 20
1.098961559299368
 30
0.0
 11
2.8791053093000301
 21
1.0811665776991499
 31
0.0
  0
LINE
  5
2D68
  8
0
 10
3.0405138236001221
 20
0.7350513235994641
 30
0.0
 11
3.0501632458008312
 21
0.7530179612990651
 31
0.0
  0
LINE
  5
2D69
  8
0
 10
2.8791053093000301
 20
1.0811665776991499
 30
0.0
 11
2.8712103277002821
 21
1.058450796699389
 31
0.0
  0
LINE
  5
2D6A
  8
0
 10
3.029109960799814
 20
0.7221199215994149
 30
0.0
 11
3.0405138236001221
 21
0.7350513235994641
 31
0.0
  0
LINE
  5
2D6B
  8
0
 10
2.8712103277002821
 20
1.058450796699389
 30
0.0
 11
2.8650697867001318
 21
1.0308142184992439
 31
0.0
  0
LINE
  5
2D6C
  8
0
 10
3.0205401941002492
 20
0.7154253468993375
 30
0.0
 11
3.029109960799814
 21
0.7221199215994149
 31
0.0
  0
LINE
  5
2D6D
  8
0
 10
2.8650697867001318
 20
1.0308142184992439
 30
0.0
 11
2.860683685200001
 21
0.9982568397995237
 31
0.0
  0
LINE
  5
2D6E
  8
0
 10
3.01183547060009
 20
0.7097607065995817
 30
0.0
 11
3.0205401941002492
 21
0.7154253468993375
 31
0.0
  0
LINE
  5
2D6F
  8
0
 10
2.860683685200001
 20
0.9982568397995237
 30
0.0
 11
2.8580520253999562
 21
0.9607786627991573
 31
0.0
  0
LINE
  5
2D70
  8
0
 10
3.0029957902997921
 20
0.705126000699238
 30
0.0
 11
3.01183547060009
 21
0.7097607065995817
 31
0.0
  0
LINE
  5
2D71
  8
0
 10
2.8580520253999562
 20
0.9607786627991573
 30
0.0
 11
2.8571748050999299
 21
0.9183796874990549
 31
0.0
  0
LINE
  5
2D72
  8
0
 10
2.9940211532002641
 20
0.7015212291994432
 30
0.0
 11
3.0029957902997921
 21
0.705126000699238
 31
0.0
  0
LINE
  5
2D73
  8
0
 10
2.8571748050999299
 20
0.9183796874990549
 30
0.0
 11
2.8580520253999562
 21
0.8752368701991599
 31
0.0
  0
LINE
  5
2D74
  8
0
 10
2.984911559300599
 20
0.6989463931993214
 30
0.0
 11
2.9940211532002641
 21
0.7015212291994432
 31
0.0
  0
LINE
  5
2D75
  8
0
 10
2.8580520253999562
 20
0.8752368701991599
 30
0.0
 11
2.860683685200001
 21
0.8371292885992716
 31
0.0
  0
LINE
  5
2D76
  8
0
 10
2.9756670086003392
 20
0.6974014904994874
 30
0.0
 11
2.984911559300599
 21
0.6989463931993214
 31
0.0
  0
LINE
  5
2D77
  8
0
 10
2.860683685200001
 20
0.8371292885992716
 30
0.0
 11
2.8650697867001318
 21
0.8040569437994236
 31
0.0
  0
LINE
  5
2D78
  8
0
 10
2.9662875000003619
 20
0.6968865232993267
 30
0.0
 11
2.9756670086003392
 21
0.6974014904994874
 31
0.0
  0
LINE
  5
2D79
  8
0
 10
2.8650697867001318
 20
0.8040569437994236
 30
0.0
 11
2.8712103277002821
 21
0.7760198346993548
 31
0.0
  0
LINE
  5
2D7A
  8
0
 10
2.9560307722003918
 20
0.6974014904994874
 30
0.0
 11
2.9662875000003619
 21
0.6968865232993267
 31
0.0
  0
LINE
  5
2D7B
  8
0
 10
2.8712103277002821
 20
0.7760198346993548
 30
0.0
 11
2.8791053093000301
 21
0.7530179612990651
 31
0.0
  0
LINE
  5
2D7C
  8
0
 10
2.946043956900211
 20
0.6989463931993214
 30
0.0
 11
2.9560307722003918
 21
0.6974014904994874
 31
0.0
  0
LINE
  5
2D7D
  8
0
 10
2.8791053093000301
 20
0.7530179612990651
 30
0.0
 11
2.8887547314998301
 21
0.7350513235994641
 31
0.0
  0
LINE
  5
2D7E
  8
0
 10
2.9363270563007968
 20
0.7015212291994432
 30
0.0
 11
2.946043956900211
 21
0.6989463931993214
 31
0.0
  0
LINE
  5
2D7F
  8
0
 10
2.8887547314998301
 20
0.7350513235994641
 30
0.0
 11
2.9001585932001031
 21
0.7221199215994149
 31
0.0
  0
LINE
  5
2D80
  8
0
 10
2.9268800703998741
 20
0.705126000699238
 30
0.0
 11
2.9363270563007968
 21
0.7015212291994432
 31
0.0
  0
LINE
  5
2D81
  8
0
 10
2.9001585932001031
 20
0.7221199215994149
 30
0.0
 11
2.9087958382997381
 21
0.7154253468993375
 31
0.0
  0
LINE
  5
2D82
  8
0
 10
2.9177029970005601
 20
0.7097607065995817
 30
0.0
 11
2.9268800703998741
 21
0.705126000699238
 31
0.0
  0
LINE
  5
2D83
  8
0
 10
2.9087958382997381
 20
0.7154253468993375
 30
0.0
 11
2.9177029970005601
 21
0.7097607065995817
 31
0.0
  0
LINE
  5
2D84
  8
0
 10
2.7067412108003732
 20
1.1903396482994131
 30
0.0
 11
2.7067412108003732
 21
0.6436160158991698
 31
0.0
  0
LINE
  5
2D85
  8
0
 10
2.630692969300525
 20
1.1903396482994131
 30
0.0
 11
2.7067412108003732
 21
1.1903396482994131
 31
0.0
  0
LINE
  5
2D86
  8
0
 10
2.7067412108003732
 20
0.6436160158991698
 30
0.0
 11
2.630692969300525
 21
0.6436160158991698
 31
0.0
  0
LINE
  5
2D87
  8
0
 10
2.630692969300525
 20
0.9716501948992117
 30
0.0
 11
2.630692969300525
 21
1.1903396482994131
 31
0.0
  0
LINE
  5
2D88
  8
0
 10
2.630692969300525
 20
0.6436160158991698
 30
0.0
 11
2.630692969300525
 21
0.7809978516993397
 31
0.0
  0
LINE
  5
2D89
  8
0
 10
2.4422255858007702
 20
0.9716501948992117
 30
0.0
 11
2.630692969300525
 21
0.9716501948992117
 31
0.0
  0
LINE
  5
2D8A
  8
0
 10
2.630692969300525
 20
0.7809978516993397
 30
0.0
 11
2.630692969300525
 21
0.9183796874990549
 31
0.0
  0
LINE
  5
2D8B
  8
0
 10
2.4422255858007702
 20
1.1903396482994131
 30
0.0
 11
2.4422255858007702
 21
0.9716501948992117
 31
0.0
  0
LINE
  5
2D8C
  8
0
 10
2.630692969300525
 20
0.9183796874990549
 30
0.0
 11
2.4422255858007702
 21
0.9183796874990549
 31
0.0
  0
LINE
  5
2D8D
  8
0
 10
2.366177344300012
 20
1.1903396482994131
 30
0.0
 11
2.4422255858007702
 21
1.1903396482994131
 31
0.0
  0
LINE
  5
2D8E
  8
0
 10
2.4422255858007702
 20
0.9183796874990549
 30
0.0
 11
2.4422255858007702
 21
0.6436160158991698
 31
0.0
  0
LINE
  5
2D8F
  8
0
 10
2.366177344300012
 20
0.6436160158991698
 30
0.0
 11
2.366177344300012
 21
1.1903396482994131
 31
0.0
  0
LINE
  5
2D90
  8
0
 10
2.4422255858007702
 20
0.6436160158991698
 30
0.0
 11
2.366177344300012
 21
0.6436160158991698
 31
0.0
  0
LINE
  5
2D91
  8
0
 10
2.0702601557004519
 20
0.9856687499993768
 30
0.0
 11
2.090098828400186
 21
0.9715929761994175
 31
0.0
  0
LINE
  5
2D92
  8
0
 10
2.0579790736996979
 20
0.9953386915990449
 30
0.0
 11
2.0702601557004519
 21
0.9856687499993768
 31
0.0
  0
LINE
  5
2D93
  8
0
 10
2.090098828400186
 20
0.9715929761994175
 30
0.0
 11
2.1099374999998868
 21
0.9582038267994903
 31
0.0
  0
LINE
  5
2D94
  8
0
 10
2.0475873880004651
 20
1.0051230705994381
 30
0.0
 11
2.0579790736996979
 21
0.9953386915990449
 31
0.0
  0
LINE
  5
2D95
  8
0
 10
2.1099374999998868
 20
0.9582038267994903
 30
0.0
 11
2.129776171600497
 21
0.9455012995997549
 31
0.0
  0
LINE
  5
2D96
  8
0
 10
2.0390851008005479
 20
1.0150218869994201
 30
0.0
 11
2.0475873880004651
 21
1.0051230705994381
 31
0.0
  0
LINE
  5
2D97
  8
0
 10
2.129776171600497
 20
0.9455012995997549
 30
0.0
 11
2.1496148443002312
 21
0.9334853956993356
 31
0.0
  0
LINE
  5
2D98
  8
0
 10
5.2469999999998427
 20
0.0
 30
0.0
 11
5.2469999999998427
 21
5.2469999999998427
 31
0.0
  0
LINE
  5
2D99
  8
0
 10
0.0
 20
5.2469999999998427
 30
0.0
 11
0.0
 21
0.0
 31
0.0
  0
LINE
  5
2D9A
  8
0
 10
5.0984999999996026
 20
0.1484999999997854
 30
0.0
 11
5.0984999999996026
 21
5.0984999999996026
 31
0.0
  0
LINE
  5
2D9B
  8
0
 10
0.1484999999997854
 20
5.0984999999996026
 30
0.0
 11
0.1484999999997854
 21
0.1484999999997854
 31
0.0
  0
LINE
  5
2D9C
  8
0
 10
3.415500000000065
 20
4.6529999999988831
 30
0.0
 11
3.415500000000065
 21
2.276999999999588
 31
0.0
  0
ARC
  5
2D9D
  8
0
 10
2.4255000000002829
 20
3.266999999998915
 30
0.0
 40
0.692999999999999
 50
179.9999999999996
 51
0.0
  0
LINE
  5
2D9E
  8
0
 10
1.336499999999887
 20
4.6529999999988831
 30
0.0
 11
1.336499999999887
 21
0.6434999999992215
 31
0.0
  0
ENDBLK
  5
2DA0
  8
0
  0
BLOCK
  8
0
  2
_
 70
     0
 10
0.0
 20
0.0
 30
0.0
  3
_
  1

  0
ARC
  5
42F6
  8
002寸法
 10
-1.2990381056765721
 20
0.0
 30
0.0
 40
1.5
 50
30.000000000001251
 51
180.0
  0
ARC
  5
42F7
  8
002寸法
 10
1.299038105676743
 20
1.5
 30
0.0
 40
1.5
 50
209.9999999999998
 51
0.0
  0
ENDBLK
  5
42F5
  8
0
  0
BLOCK
  8
0
  2
_0
 70
     0
 10
0.0
 20
0.0
 30
0.0
  3
_0
  1

  0
POLYLINE
  5
4304
  8
002寸法
 66
     1
 10
0.0
 20
0.0
 30
0.0
 70
     1
  0
VERTEX
  5
7738
  8
002寸法
 10
0.0
 20
0.0
 30
0.0
  0
VERTEX
  5
7739
  8
002寸法
 10
1.5
 20
2.5980762113532592
 30
0.0
  0
VERTEX
  5
773A
  8
002寸法
 10
-1.5
 20
2.5980762113532592
 30
0.0
  0
SEQEND
  5
773B
  8
002寸法
  0
ENDBLK
  5
4303
  8
0
  0
BLOCK
  8
0
  2
__
 70
     0
 10
0.0
 20
0.0
 30
0.0
  3
__
  1

  0
POLYLINE
  5
431A
  8
002寸法
 66
     1
 10
0.0
 20
0.0
 30
0.0
 70
     1
  0
VERTEX
  5
773E
  8
002寸法
 10
-1.4999999999999429
 20
0.0
 30
0.0
  0
VERTEX
  5
773F
  8
002寸法
 10
0.0000000000000568
 20
2.5980762113532592
 30
0.0
  0
VERTEX
  5
7740
  8
002寸法
 10
-2.9999999999999432
 20
2.5980762113532592
 30
0.0
  0
SEQEND
  5
7741
  8
002寸法
  0
POLYLINE
  5
431B
  8
002寸法
 66
     1
 10
0.0
 20
0.0
 30
0.0
 70
     1
  0
VERTEX
  5
7742
  8
002寸法
 10
1.500000000000056
 20
0.0
 30
0.0
  0
VERTEX
  5
7743
  8
002寸法
 10
3.000000000000056
 20
2.5980762113532592
 30
0.0
  0
VERTEX
  5
7744
  8
002寸法
 10
0.0000000000000568
 20
2.5980762113532592
 30
0.0
  0
SEQEND
  5
7745
  8
002寸法
  0
ENDBLK
  5
4319
  8
0
  0
BLOCK
  8
0
  2
___
 70
     0
 10
0.0
 20
0.0
 30
0.0
  3
___
  1

  0
POLYLINE
  5
4332
  8
002寸法
 66
     1
 10
0.0
 20
0.0
 30
0.0
 70
     1
  0
VERTEX
  5
7748
  8
002寸法
 10
-3.0
 20
0.0
 30
0.0
  0
VERTEX
  5
7749
  8
002寸法
 10
-1.5
 20
2.5980762113532592
 30
0.0
  0
VERTEX
  5
774A
  8
002寸法
 10
-4.5
 20
2.5980762113532592
 30
0.0
  0
SEQEND
  5
774B
  8
002寸法
  0
POLYLINE
  5
4333
  8
002寸法
 66
     1
 10
0.0
 20
0.0
 30
0.0
 70
     1
  0
VERTEX
  5
774C
  8
002寸法
 10
0.0
 20
0.0
 30
0.0
  0
VERTEX
  5
774D
  8
002寸法
 10
1.5
 20
2.5980762113532592
 30
0.0
  0
VERTEX
  5
774E
  8
002寸法
 10
-1.5
 20
2.5980762113532592
 30
0.0
  0
SEQEND
  5
774F
  8
002寸法
  0
POLYLINE
  5
4334
  8
002寸法
 66
     1
 10
0.0
 20
0.0
 30
0.0
 70
     1
  0
VERTEX
  5
7750
  8
002寸法
 10
3.0
 20
0.0
 30
0.0
  0
VERTEX
  5
7751
  8
002寸法
 10
4.5
 20
2.5980762113532592
 30
0.0
  0
VERTEX
  5
7752
  8
002寸法
 10
1.5
 20
2.5980762113532592
 30
0.0
  0
SEQEND
  5
7753
  8
002寸法
  0
ENDBLK
  5
4331
  8
0
  0
BLOCK
  8
0
  2
____
 70
     0
 10
0.0
 20
0.0
 30
0.0
  3
____
  1

  0
POLYLINE
  5
4342
  8
002寸法
 66
     1
 10
0.0
 20
0.0
 30
0.0
 70
     1
  0
VERTEX
  5
7756
  8
002寸法
 10
-4.5
 20
0.0
 30
0.0
  0
VERTEX
  5
7757
  8
002寸法
 10
-3.0
 20
2.5980762113532592
 30
0.0
  0
VERTEX
  5
7758
  8
002寸法
 10
-6.0
 20
2.5980762113532592
 30
0.0
  0
SEQEND
  5
7759
  8
002寸法
  0
POLYLINE
  5
4343
  8
002寸法
 66
     1
 10
0.0
 20
0.0
 30
0.0
 70
     1
  0
VERTEX
  5
775A
  8
002寸法
 10
-1.5
 20
0.0
 30
0.0
  0
VERTEX
  5
775B
  8
002寸法
 10
0.0
 20
2.5980762113532592
 30
0.0
  0
VERTEX
  5
775C
  8
002寸法
 10
-3.0
 20
2.5980762113532592
 30
0.0
  0
SEQEND
  5
775D
  8
002寸法
  0
POLYLINE
  5
4344
  8
002寸法
 66
     1
 10
0.0
 20
0.0
 30
0.0
 70
     1
  0
VERTEX
  5
775E
  8
002寸法
 10
1.5
 20
0.0
 30
0.0
  0
VERTEX
  5
775F
  8
002寸法
 10
3.0
 20
2.5980762113532592
 30
0.0
  0
VERTEX
  5
7760
  8
002寸法
 10
0.0
 20
2.5980762113532592
 30
0.0
  0
SEQEND
  5
7761
  8
002寸法
  0
POLYLINE
  5
4345
  8
002寸法
 66
     1
 10
0.0
 20
0.0
 30
0.0
 70
     1
  0
VERTEX
  5
7762
  8
002寸法
 10
4.5
 20
0.0
 30
0.0
  0
VERTEX
  5
7763
  8
002寸法
 10
6.0
 20
2.5980762113532592
 30
0.0
  0
VERTEX
  5
7764
  8
002寸法
 10
3.0
 20
2.5980762113532592
 30
0.0
  0
SEQEND
  5
7765
  8
002寸法
  0
ENDBLK
  5
4341
  8
0
  0
BLOCK
  8
0
  2
___G
 70
     0
 10
0.0
 20
0.0
 30
0.0
  3
___G
  1

  0
POLYLINE
  5
4354
  8
002寸法
 66
     1
 10
0.0
 20
0.0
 30
0.0
 70
     1
  0
VERTEX
  5
7768
  8
002寸法
 10
-3.0
 20
0.0
 30
0.0
  0
VERTEX
  5
7769
  8
002寸法
 10
-1.5
 20
2.5980762113532592
 30
0.0
  0
VERTEX
  5
776A
  8
002寸法
 10
-4.5
 20
2.5980762113532592
 30
0.0
  0
SEQEND
  5
776B
  8
002寸法
  0
POLYLINE
  5
4355
  8
002寸法
 66
     1
 10
0.0
 20
0.0
 30
0.0
 70
     1
  0
VERTEX
  5
776C
  8
002寸法
 10
0.0
 20
0.0
 30
0.0
  0
VERTEX
  5
776D
  8
002寸法
 10
1.5
 20
2.5980762113532592
 30
0.0
  0
VERTEX
  5
776E
  8
002寸法
 10
-1.5
 20
2.5980762113532592
 30
0.0
  0
SEQEND
  5
776F
  8
002寸法
  0
POLYLINE
  5
4356
  8
002寸法
 66
     1
 10
0.0
 20
0.0
 30
0.0
 70
     1
  0
VERTEX
  5
7770
  8
002寸法
 10
3.0
 20
0.0
 30
0.0
  0
VERTEX
  5
7771
  8
002寸法
 10
4.5
 20
2.5980762113532592
 30
0.0
  0
VERTEX
  5
7772
  8
002寸法
 10
1.5
 20
2.5980762113532592
 30
0.0
  0
SEQEND
  5
7773
  8
002寸法
  0
LINE
  5
4357
  8
002寸法
 10
4.5
 20
2.5980762113532592
 30
0.0
 11
7.0
 21
6.9282032302754706
 31
0.0
  0
LINE
  5
4358
  8
002寸法
 10
7.0
 20
6.9282032302754706
 30
0.0
 11
10.0
 21
6.9282032302754706
 31
0.0
  0
INSERT
  5
4359
  8
011形状
  2
*U35
 10
0.0
 20
0.0
 30
0.0
  0
ENDBLK
  5
4353
  8
0
  0
BLOCK
  8
0
  2
_TAGCIRCLE
 70
     2
 10
0.0
 20
0.0
 30
0.0
  3
_TAGCIRCLE
  1

  0
CIRCLE
  5
4422
  8
0
  6
BYBLOCK
 10
0.0
 20
0.0
 30
0.0
 40
4.0
  0
ATTDEF
  5
4423
  8
002寸法
 62
     2
 10
-6.7999999999999989
 20
-1.5
 30
0.0
 40
3.0
  1
タグ番号
 72
     1
 11
0.0
 21
-1.5
 31
0.0
  3
タグ番号を入力
  2
タグ番号
 70
     0
  0
ENDBLK
  5
43E5
  8
0
  0
BLOCK
  8
0
  2
訂正記号
 70
     2
 10
0.0
 20
0.0
 30
0.0
  3
訂正記号
  1

  0
POLYLINE
  5
45CE
  8
002寸法
 66
     1
 10
0.0
 20
0.0
 30
0.0
 70
     1
  0
VERTEX
  5
777E
  8
002寸法
 10
0.0
 20
4.3301270189222123
 30
0.0
  0
VERTEX
  5
777F
  8
002寸法
 10
-2.5
 20
0.0
 30
0.0
  0
VERTEX
  5
7780
  8
002寸法
 10
2.5
 20
0.0
 30
0.0
  0
SEQEND
  5
7781
  8
002寸法
  0
ATTDEF
  5
45CF
  8
002寸法
 62
     2
 10
-3.3999999999999999
 20
0.4433756729740637
 30
0.0
 40
2.0
  1
1
 41
0.75
 72
     1
 11
0.0
 21
1.443375672974063
 31
0.0
  3

  2
訂正番号
 70
     0
 74
     2
1001
AcDbAttr
1070
     0
1070
     1
  0
ENDBLK
  5
4475
  8
0
  0
BLOCK
  8
0
  2
A$C4741278F
 70
     0
 10
0.0
 20
0.0
 30
0.0
  3
A$C4741278F
  1

  0
POLYLINE
  5
4FCA
  8
003注釈
 66
     1
 10
0.0
 20
0.0
 30
0.0
 70
     1
  0
VERTEX
  5
77BA
  8
003注釈
 10
4.9999975654500304
 20
1.250001047003934
 30
0.0
  0
VERTEX
  5
77BB
  8
003注釈
 10
2.499997565450037
 20
1.250001047003934
 30
0.0
  0
VERTEX
  5
77BC
  8
003注釈
 10
2.499997565450037
 20
0.0000010470039342
 30
0.0
  0
VERTEX
  5
77BD
  8
003注釈
 10
-0.0000024345499625
 20
2.5000010470039342
 30
0.0
  0
VERTEX
  5
77BE
  8
003注釈
 10
2.499997565450037
 20
5.0000010470039342
 30
0.0
  0
VERTEX
  5
77BF
  8
003注釈
 10
2.499997565450037
 20
3.7500010470039342
 30
0.0
  0
VERTEX
  5
77C0
  8
003注釈
 10
4.9999975654500304
 20
3.7500010470039622
 30
0.0
  0
SEQEND
  5
77C1
  8
003注釈
  0
LINE
  5
4FCB
  8
0
 10
-0.0000024345499625
 20
2.5000010470039342
 30
0.0
 11
4.9999975654500304
 21
2.5000010470039342
 31
0.0
  0
LINE
  5
4FCC
  8
0
 10
2.499997565450037
 20
3.7500010470039342
 30
0.0
 11
2.499997565450037
 21
1.250001047003934
 31
0.0
  0
ENDBLK
  5
4FD0
  8
0
  0
BLOCK
  8
0
  2
*D12
 70
     1
 10
0.0
 20
0.0
 30
0.0
  3
*D12
  1

  0
LINE
  5
72CF
  8
002寸法
 10
1272.5
 20
289.5
 30
0.0
 11
1363.0
 21
289.5
 31
0.0
  0
LINE
  5
72D0
  8
002寸法
 10
1272.5
 20
450.49999999999989
 30
0.0
 11
1363.0
 21
450.49999999999989
 31
0.0
  0
LINE
  5
72D1
  8
002寸法
 10
1361.5
 20
294.5
 30
0.0
 11
1361.5
 21
445.5
 31
0.0
  0
INSERT
  5
72D2
  8
002寸法
  2
_OPEN
 10
1361.5
 20
289.5
 30
0.0
 41
5.0
 42
5.0
 43
5.0
 50
270.0
  0
INSERT
  5
72D3
  8
002寸法
  2
_OPEN
 10
1361.5
 20
450.49999999999989
 30
0.0
 41
5.0
 42
5.0
 43
5.0
 50
90.0
  0
INSERT
  5
72D4
  8
011形状
  2
*U52
 10
0.0
 20
0.0
 30
0.0
  0
POINT
  5
72D5
  8
DEFPOINTS
 62
     0
 10
1271.5
 20
289.5
 30
0.0
  0
POINT
  5
72D6
  8
DEFPOINTS
 62
     0
 10
1271.5
 20
450.49999999999989
 30
0.0
  0
POINT
  5
72D7
  8
DEFPOINTS
 62
     0
 10
1361.5
 20
450.49999999999989
 30
0.0
  0
ENDBLK
  5
714A
  8
0
  0
BLOCK
  8
0
  2
*D13
 70
     1
 10
0.0
 20
0.0
 30
0.0
  3
*D13
  1

  0
LINE
  5
72D8
  8
002寸法
 10
1272.5
 20
280.5
 30
0.0
 11
1383.0
 21
280.5
 31
0.0
  0
LINE
  5
72D9
  8
002寸法
 10
1272.5
 20
459.49999999999989
 30
0.0
 11
1383.0
 21
459.49999999999989
 31
0.0
  0
LINE
  5
72DA
  8
002寸法
 10
1381.5
 20
285.5
 30
0.0
 11
1381.5
 21
454.49999999999989
 31
0.0
  0
INSERT
  5
72DB
  8
002寸法
  2
_OPEN
 10
1381.5
 20
280.5
 30
0.0
 41
5.0
 42
5.0
 43
5.0
 50
270.0
  0
INSERT
  5
72DC
  8
002寸法
  2
_OPEN
 10
1381.5
 20
459.49999999999989
 30
0.0
 41
5.0
 42
5.0
 43
5.0
 50
90.0
  0
INSERT
  5
72DD
  8
011形状
  2
*U53
 10
0.0
 20
0.0
 30
0.0
  0
POINT
  5
72DE
  8
DEFPOINTS
 62
     0
 10
1271.5
 20
280.5
 30
0.0
  0
POINT
  5
72DF
  8
DEFPOINTS
 62
     0
 10
1271.5
 20
459.49999999999989
 30
0.0
  0
POINT
  5
72E0
  8
DEFPOINTS
 62
     0
 10
1381.5
 20
459.49999999999989
 30
0.0
  0
ENDBLK
  5
7162
  8
0
  0
BLOCK
  8
0
  2
*D14
 70
     1
 10
0.0
 20
0.0
 30
0.0
  3
*D14
  1

  0
LINE
  5
7307
  8
002寸法
 10
1075.0
 20
338.5
 30
0.0
 11
1107.5
 21
338.5
 31
0.0
  0
LINE
  5
7308
  8
002寸法
 10
1075.0
 20
401.49999999999989
 30
0.0
 11
1107.5
 21
401.49999999999989
 31
0.0
  0
LINE
  5
7309
  8
002寸法
 10
1106.0
 20
343.5
 30
0.0
 11
1106.0
 21
396.5
 31
0.0
  0
INSERT
  5
730A
  8
002寸法
  2
_OPEN
 10
1106.0
 20
338.5
 30
0.0
 41
5.0
 42
5.0
 43
5.0
 50
270.0
  0
INSERT
  5
730B
  8
002寸法
  2
_OPEN
 10
1106.0
 20
401.49999999999989
 30
0.0
 41
5.0
 42
5.0
 43
5.0
 50
90.0
  0
INSERT
  5
730C
  8
011形状
  2
*U57
 10
0.0
 20
0.0
 30
0.0
  0
POINT
  5
730D
  8
DEFPOINTS
 62
     0
 10
1074.0
 20
338.5
 30
0.0
  0
POINT
  5
730E
  8
DEFPOINTS
 62
     0
 10
1074.0
 20
401.49999999999989
 30
0.0
  0
POINT
  5
730F
  8
DEFPOINTS
 62
     0
 10
1106.0
 20
401.49999999999989
 30
0.0
  0
ENDBLK
  5
717A
  8
0
  0
BLOCK
  8
0
  2
*D15
 70
     1
 10
0.0
 20
0.0
 30
0.0
  3
*D15
  1

  0
LINE
  5
7310
  8
002寸法
 10
903.5
 20
302.5
 30
0.0
 11
1127.5
 21
302.5
 31
0.0
  0
LINE
  5
7311
  8
002寸法
 10
903.5
 20
437.5
 30
0.0
 11
1127.5
 21
437.5
 31
0.0
  0
LINE
  5
7312
  8
002寸法
 10
1126.0
 20
307.5
 30
0.0
 11
1126.0
 21
432.5
 31
0.0
  0
INSERT
  5
7313
  8
002寸法
  2
_OPEN
 10
1126.0
 20
302.5
 30
0.0
 41
5.0
 42
5.0
 43
5.0
 50
270.0
  0
INSERT
  5
7314
  8
002寸法
  2
_OPEN
 10
1126.0
 20
437.5
 30
0.0
 41
5.0
 42
5.0
 43
5.0
 50
90.0
  0
INSERT
  5
7315
  8
011形状
  2
*U58
 10
0.0
 20
0.0
 30
0.0
  0
POINT
  5
7316
  8
DEFPOINTS
 62
     0
 10
902.5
 20
302.5
 30
0.0
  0
POINT
  5
7317
  8
DEFPOINTS
 62
     0
 10
902.5
 20
437.5
 30
0.0
  0
POINT
  5
7318
  8
DEFPOINTS
 62
     0
 10
1126.0
 20
437.5
 30
0.0
  0
ENDBLK
  5
7192
  8
0
  0
BLOCK
  8
0
  2
*D16
 70
     1
 10
0.0
 20
0.0
 30
0.0
  3
*D16
  1

  0
LINE
  5
7319
  8
002寸法
 10
692.0
 20
338.5
 30
0.0
 11
669.5
 21
338.5
 31
0.0
  0
LINE
  5
731A
  8
002寸法
 10
692.0
 20
401.49999999999989
 30
0.0
 11
669.5
 21
401.49999999999989
 31
0.0
  0
LINE
  5
731B
  8
002寸法
 10
671.0
 20
343.5
 30
0.0
 11
671.0
 21
396.5
 31
0.0
  0
INSERT
  5
731C
  8
002寸法
  2
_OPEN
 10
671.0
 20
338.5
 30
0.0
 41
5.0
 42
5.0
 43
5.0
 50
270.0
  0
INSERT
  5
731D
  8
002寸法
  2
_OPEN
 10
671.0
 20
401.49999999999989
 30
0.0
 41
5.0
 42
5.0
 43
5.0
 50
90.0
  0
INSERT
  5
731E
  8
011形状
  2
*U59
 10
0.0
 20
0.0
 30
0.0
  0
POINT
  5
731F
  8
DEFPOINTS
 62
     0
 10
693.0
 20
338.5
 30
0.0
  0
POINT
  5
7320
  8
DEFPOINTS
 62
     0
 10
693.0
 20
401.49999999999989
 30
0.0
  0
POINT
  5
7321
  8
DEFPOINTS
 62
     0
 10
671.0
 20
401.49999999999989
 30
0.0
  0
ENDBLK
  5
71AA
  8
0
  0
BLOCK
  8
0
  2
*D17
 70
     1
 10
0.0
 20
0.0
 30
0.0
  3
*D17
  1

  0
LINE
  5
72E1
  8
002寸法
 10
1256.5
 20
460.5
 30
0.0
 11
1256.5
 21
481.0
 31
0.0
  0
LINE
  5
72E2
  8
002寸法
 10
1271.5
 20
460.5
 30
0.0
 11
1271.5
 21
481.0
 31
0.0
  0
LINE
  5
72E3
  8
002寸法
 10
1261.5
 20
479.49999999999989
 30
0.0
 11
1266.5
 21
479.49999999999989
 31
0.0
  0
INSERT
  5
72E4
  8
002寸法
  2
_OPEN
 10
1256.5
 20
479.49999999999989
 30
0.0
 41
5.0
 42
5.0
 43
5.0
 50
180.0
  0
INSERT
  5
72E5
  8
002寸法
  2
_OPEN
 10
1271.5
 20
479.49999999999989
 30
0.0
 41
5.0
 42
5.0
 43
5.0
  0
INSERT
  5
72E6
  8
011形状
  2
*U54
 10
0.0
 20
0.0
 30
0.0
  0
POINT
  5
72E7
  8
DEFPOINTS
 62
     0
 10
1256.5
 20
459.49999999999989
 30
0.0
  0
POINT
  5
72E8
  8
DEFPOINTS
 62
     0
 10
1271.5
 20
459.49999999999989
 30
0.0
  0
POINT
  5
72E9
  8
DEFPOINTS
 62
     0
 10
1271.5
 20
479.49999999999989
 30
0.0
  0
ENDBLK
  5
7213
  8
0
  0
BLOCK
  8
0
  2
*D18
 70
     1
 10
0.0
 20
0.0
 30
0.0
  3
*D18
  1

  0
LINE
  5
72EA
  8
002寸法
 10
1163.5
 20
361.0
 30
0.0
 11
1163.5
 21
249.0
 31
0.0
  0
LINE
  5
72EB
  8
002寸法
 10
1331.5
 20
369.0
 30
0.0
 11
1331.5
 21
249.0
 31
0.0
  0
LINE
  5
72EC
  8
002寸法
 10
1168.5
 20
250.5
 30
0.0
 11
1326.5
 21
250.5
 31
0.0
  0
INSERT
  5
72ED
  8
002寸法
  2
_OPEN
 10
1163.5
 20
250.5
 30
0.0
 41
5.0
 42
5.0
 43
5.0
 50
180.0
  0
INSERT
  5
72EE
  8
002寸法
  2
_OPEN
 10
1331.5
 20
250.5
 30
0.0
 41
5.0
 42
5.0
 43
5.0
  0
INSERT
  5
72EF
  8
011形状
  2
*U55
 10
0.0
 20
0.0
 30
0.0
  0
POINT
  5
72F0
  8
DEFPOINTS
 62
     0
 10
1163.5
 20
362.0
 30
0.0
  0
POINT
  5
72F1
  8
DEFPOINTS
 62
     0
 10
1331.5
 20
370.0
 30
0.0
  0
POINT
  5
72F2
  8
DEFPOINTS
 62
     0
 10
1331.5
 20
250.5
 30
0.0
  0
ENDBLK
  5
722B
  8
0
  0
BLOCK
  8
0
  2
*D19
 70
     1
 10
0.0
 20
0.0
 30
0.0
  3
*D19
  1

  0
LINE
  5
77F4
  8
002寸法
 10
1232.8130823040001
 20
361.0
 30
0.0
 11
1220.0
 21
361.0
 31
0.0
  0
LINE
  5
77F5
  8
002寸法
 10
1232.8130823040001
 20
379.00000000082929
 30
0.0
 11
1220.0
 21
379.00000000082929
 31
0.0
  0
LINE
  5
77F6
  8
002寸法
 10
1221.5
 20
366.0
 30
0.0
 11
1221.5
 21
374.00000000082929
 31
0.0
  0
TEXT
  8
002寸法
  40
6
  5
786C
  62
2
  72
0
  71
0
 10
1217.00
 20
374.329
 30
0.000000
  1
18  0/-0.043
  0
INSERT
  5
77F8
  8
002寸法
  2
_OPEN
 10
1221.5
 20
361.0
 30
0.0
 41
5.0
 42
5.0
 43
5.0
 50
270.0
  0
INSERT
  5
77F9
  8
002寸法
  2
_OPEN
 10
1221.5
 20
379.00000000082929
 30
0.0
 41
5.0
 42
5.0
 43
5.0
 50
90.0
  0
POINT
  5
77FA
  8
DEFPOINTS
 62
     0
 10
1233.8130823040001
 20
361.0
 30
0.0
  0
POINT
  5
77FB
  8
DEFPOINTS
 62
     0
 10
1233.8130823040001
 20
379.00000000082929
 30
0.0
  0
POINT
  5
77FC
  8
DEFPOINTS
 62
     0
 10
1221.5
 20
379.00000000082929
 30
0.0
  0
ENDBLK
  5
7243
  8
0
  0
BLOCK
  8
0
  2
*D20
 70
     1
 10
0.0
 20
0.0
 30
0.0
  3
*D20
  1

  0
LINE
  5
72FC
  8
002寸法
 10
1232.5
 20
371.0
 30
0.0
 11
1232.5
 21
405.49999999999989
 31
0.0
  0
LINE
  5
72FD
  8
002寸法
 10
1239.5
 20
380.0
 30
0.0
 11
1239.5
 21
405.49999999999989
 31
0.0
  0
LINE
  5
72FE
  8
002寸法
 10
1227.5
 20
404.0
 30
0.0
 11
1222.5
 21
404.0
 31
0.0
  0
LINE
  5
72FF
  8
002寸法
 10
1244.5
 20
404.0
 30
0.0
 11
1249.5
 21
404.0
 31
0.0
  0
LINE
  5
7300
  8
002寸法
 10
1232.5
 20
404.0
 30
0.0
 11
1239.5
 21
404.0
 31
0.0
  0
INSERT
  5
7301
  8
002寸法
  2
_OPEN
 10
1232.5
 20
404.0
 30
0.0
 41
5.0
 42
5.0
 43
5.0
  0
INSERT
  5
7302
  8
002寸法
  2
_OPEN
 10
1239.5
 20
404.0
 30
0.0
 41
5.0
 42
5.0
 43
5.0
 50
180.0
  0
INSERT
  5
7303
  8
011形状
  2
*U56
 10
0.0
 20
0.0
 30
0.0
  0
POINT
  5
7304
  8
DEFPOINTS
 62
     0
 10
1232.5
 20
370.0
 30
0.0
  0
POINT
  5
7305
  8
DEFPOINTS
 62
     0
 10
1239.5
 20
379.0
 30
0.0
  0
POINT
  5
7306
  8
DEFPOINTS
 62
     0
 10
1239.5
 20
404.0
 30
0.0
  0
ENDBLK
  5
725B
  8
0
  0
BLOCK
  8
0
  2
*D21
 70
     1
 10
0.0
 20
0.0
 30
0.0
  3
*D21
  1

  0
LINE
  5
7330
  8
002寸法
 10
837.0
 20
451.49999999999989
 30
0.0
 11
837.0
 21
481.0
 31
0.0
  0
LINE
  5
7331
  8
002寸法
 10
857.0
 20
451.49999999999989
 30
0.0
 11
857.0
 21
481.0
 31
0.0
  0
LINE
  5
7332
  8
002寸法
 10
842.0
 20
479.49999999999989
 30
0.0
 11
852.0
 21
479.49999999999989
 31
0.0
  0
INSERT
  5
7333
  8
002寸法
  2
_OPEN
 10
837.0
 20
479.49999999999989
 30
0.0
 41
5.0
 42
5.0
 43
5.0
 50
180.0
  0
INSERT
  5
7334
  8
002寸法
  2
_OPEN
 10
857.0
 20
479.49999999999989
 30
0.0
 41
5.0
 42
5.0
 43
5.0
  0
INSERT
  5
7335
  8
011形状
  2
*U60
 10
0.0
 20
0.0
 30
0.0
  0
POINT
  5
7336
  8
DEFPOINTS
 62
     0
 10
837.0
 20
450.49999999999989
 30
0.0
  0
POINT
  5
7337
  8
DEFPOINTS
 62
     0
 10
857.0
 20
450.49999999999989
 30
0.0
  0
POINT
  5
7338
  8
DEFPOINTS
 62
     0
 10
857.0
 20
479.49999999999989
 30
0.0
  0
ENDBLK
  5
7325
  8
0
  0
BLOCK
  8
0
  2
*D22
 70
     1
 10
0.0
 20
0.0
 30
0.0
  3
*D22
  1

  0
LINE
  5
734A
  8
002寸法
 10
841.0
 20
445.5
 30
0.0
 11
771.0
 21
445.5
 31
0.0
  0
LINE
  5
734B
  8
002寸法
 10
841.0
 20
455.49999999999989
 30
0.0
 11
771.0
 21
455.49999999999989
 31
0.0
  0
LINE
  5
734C
  8
002寸法
 10
772.5
 20
440.5
 30
0.0
 11
772.5
 21
435.5
 31
0.0
  0
LINE
  5
734D
  8
002寸法
 10
772.5
 20
460.5
 30
0.0
 11
772.5
 21
465.5
 31
0.0
  0
LINE
  5
734E
  8
002寸法
 10
772.5
 20
445.5
 30
0.0
 11
772.5
 21
455.49999999999989
 31
0.0
  0
INSERT
  5
734F
  8
002寸法
  2
_OPEN
 10
772.5
 20
445.5
 30
0.0
 41
5.0
 42
5.0
 43
5.0
 50
90.0
  0
INSERT
  5
7350
  8
002寸法
  2
_OPEN
 10
772.5
 20
455.49999999999989
 30
0.0
 41
5.0
 42
5.0
 43
5.0
 50
270.0
  0
INSERT
  5
7351
  8
011形状
  2
*U61
 10
0.0
 20
0.0
 30
0.0
  0
POINT
  5
7352
  8
DEFPOINTS
 62
     0
 10
842.0
 20
445.5
 30
0.0
  0
POINT
  5
7353
  8
DEFPOINTS
 62
     0
 10
842.0
 20
455.49999999999989
 30
0.0
  0
POINT
  5
7354
  8
DEFPOINTS
 62
     0
 10
772.5
 20
455.49999999999989
 30
0.0
  0
ENDBLK
  5
733D
  8
0
  0
BLOCK
  8
0
  2
*D23
 70
     1
 10
0.0
 20
0.0
 30
0.0
  3
*D23
  1

  0
LINE
  5
73E0
  8
002寸法
 10
791.0
 20
303.0
 30
0.0
 11
791.0
 21
249.0
 31
0.0
  0
LINE
  5
73E1
  8
002寸法
 10
847.0
 20
283.5
 30
0.0
 11
847.0
 21
249.0
 31
0.0
  0
LINE
  5
73E2
  8
002寸法
 10
796.0
 20
250.5
 30
0.0
 11
842.0
 21
250.5
 31
0.0
  0
INSERT
  5
73E3
  8
002寸法
  2
_OPEN
 10
791.0
 20
250.5
 30
0.0
 41
5.0
 42
5.0
 43
5.0
 50
180.0
  0
INSERT
  5
73E4
  8
002寸法
  2
_OPEN
 10
847.0
 20
250.5
 30
0.0
 41
5.0
 42
5.0
 43
5.0
  0
INSERT
  5
73E5
  8
011形状
  2
*U62
 10
0.0
 20
0.0
 30
0.0
  0
POINT
  5
73E6
  8
DEFPOINTS
 62
     0
 10
791.0
 20
304.0
 30
0.0
  0
POINT
  5
73E7
  8
DEFPOINTS
 62
     0
 10
847.0
 20
284.5
 30
0.0
  0
POINT
  5
73E8
  8
DEFPOINTS
 62
     0
 10
847.0
 20
250.5
 30
0.0
  0
ENDBLK
  5
7359
  8
0
  0
BLOCK
  8
0
  2
*D24
 70
     1
 10
0.0
 20
0.0
 30
0.0
  3
*D24
  1

  0
LINE
  5
74E3
  8
002寸法
 10
788.0
 20
336.0
 30
0.0
 11
788.0
 21
229.0
 31
0.0
  0
LINE
  5
74E4
  8
002寸法
 10
791.0
 20
303.0
 30
0.0
 11
791.0
 21
229.0
 31
0.0
  0
LINE
  5
74E5
  8
002寸法
 10
796.0
 20
230.5
 30
0.0
 11
801.0
 21
230.5
 31
0.0
  0
LINE
  5
74E6
  8
002寸法
 10
783.0
 20
230.5
 30
0.0
 11
772.39999999999998
 21
230.5
 31
0.0
  0
LINE
  5
74E7
  8
002寸法
 10
791.0
 20
230.5
 30
0.0
 11
788.0
 21
230.5
 31
0.0
  0
INSERT
  5
74E8
  8
002寸法
  2
_OPEN
 10
791.0
 20
230.5
 30
0.0
 41
5.0
 42
5.0
 43
5.0
 50
180.0
  0
INSERT
  5
74E9
  8
002寸法
  2
_OPEN
 10
788.0
 20
230.5
 30
0.0
 41
5.0
 42
5.0
 43
5.0
  0
INSERT
  5
74EA
  8
011形状
  2
*U67
 10
0.0
 20
0.0
 30
0.0
  0
POINT
  5
74EB
  8
DEFPOINTS
 62
     0
 10
788.0
 20
337.0
 30
0.0
  0
POINT
  5
74EC
  8
DEFPOINTS
 62
     0
 10
791.0
 20
304.0
 30
0.0
  0
POINT
  5
74ED
  8
DEFPOINTS
 62
     0
 10
791.0
 20
230.5
 30
0.0
  0
ENDBLK
  5
7371
  8
0
  0
BLOCK
  8
0
  2
*D25
 70
     1
 10
0.0
 20
0.0
 30
0.0
  3
*D25
  1

  0
LINE
  5
73F4
  8
002寸法
 10
691.0
 20
339.5
 30
0.0
 11
691.0
 21
209.0
 31
0.0
  0
LINE
  5
73F5
  8
002寸法
 10
788.0
 20
336.0
 30
0.0
 11
788.0
 21
209.0
 31
0.0
  0
LINE
  5
73F6
  8
002寸法
 10
696.0
 20
210.5
 30
0.0
 11
783.0
 21
210.5
 31
0.0
  0
INSERT
  5
73F7
  8
002寸法
  2
_OPEN
 10
691.0
 20
210.5
 30
0.0
 41
5.0
 42
5.0
 43
5.0
 50
180.0
  0
INSERT
  5
73F8
  8
002寸法
  2
_OPEN
 10
788.0
 20
210.5
 30
0.0
 41
5.0
 42
5.0
 43
5.0
  0
INSERT
  5
73F9
  8
011形状
  2
*U63
 10
0.0
 20
0.0
 30
0.0
  0
POINT
  5
73FA
  8
DEFPOINTS
 62
     0
 10
691.0
 20
340.5
 30
0.0
  0
POINT
  5
73FB
  8
DEFPOINTS
 62
     0
 10
788.0
 20
337.0
 30
0.0
  0
POINT
  5
73FC
  8
DEFPOINTS
 62
     0
 10
788.0
 20
210.5
 30
0.0
  0
ENDBLK
  5
738D
  8
0
  0
BLOCK
  8
0
  2
*D26
 70
     1
 10
0.0
 20
0.0
 30
0.0
  3
*D26
  1

  0
LINE
  5
73FD
  8
002寸法
 10
691.0
 20
339.5
 30
0.0
 11
691.0
 21
189.0
 31
0.0
  0
LINE
  5
73FE
  8
002寸法
 10
1076.0
 20
339.5
 30
0.0
 11
1076.0
 21
189.0
 31
0.0
  0
LINE
  5
73FF
  8
002寸法
 10
696.0
 20
190.5
 30
0.0
 11
1071.0
 21
190.5
 31
0.0
  0
INSERT
  5
7400
  8
002寸法
  2
_OPEN
 10
691.0
 20
190.5
 30
0.0
 41
5.0
 42
5.0
 43
5.0
 50
180.0
  0
INSERT
  5
7401
  8
002寸法
  2
_OPEN
 10
1076.0
 20
190.5
 30
0.0
 41
5.0
 42
5.0
 43
5.0
  0
INSERT
  5
7402
  8
011形状
  2
*U64
 10
0.0
 20
0.0
 30
0.0
  0
POINT
  5
7403
  8
DEFPOINTS
 62
     0
 10
691.0
 20
340.5
 30
0.0
  0
POINT
  5
7404
  8
DEFPOINTS
 62
     0
 10
1076.0
 20
340.5
 30
0.0
  0
POINT
  5
7405
  8
DEFPOINTS
 62
     0
 10
1076.0
 20
190.5
 30
0.0
  0
ENDBLK
  5
73A5
  8
0
  0
BLOCK
  8
0
  2
*D27
 70
     1
 10
0.0
 20
0.0
 30
0.0
  3
*D27
  1

  0
LINE
  5
7414
  8
002寸法
 10
691.0
 20
338.5
 30
0.0
 11
691.0
 21
249.0
 31
0.0
  0
LINE
  5
7415
  8
002寸法
 10
771.0
 20
369.0
 30
0.0
 11
771.0
 21
249.0
 31
0.0
  0
LINE
  5
7416
  8
002寸法
 10
696.0
 20
250.5
 30
0.0
 11
766.0
 21
250.5
 31
0.0
  0
INSERT
  5
7417
  8
002寸法
  2
_OPEN
 10
691.0
 20
250.5
 30
0.0
 41
5.0
 42
5.0
 43
5.0
 50
180.0
  0
INSERT
  5
7418
  8
002寸法
  2
_OPEN
 10
771.0
 20
250.5
 30
0.0
 41
5.0
 42
5.0
 43
5.0
  0
INSERT
  5
7419
  8
011形状
  2
*U65
 10
0.0
 20
0.0
 30
0.0
  0
POINT
  5
741A
  8
DEFPOINTS
 62
     0
 10
691.0
 20
339.5
 30
0.0
  0
POINT
  5
741B
  8
DEFPOINTS
 62
     0
 10
771.0
 20
370.0
 30
0.0
  0
POINT
  5
741C
  8
DEFPOINTS
 62
     0
 10
771.0
 20
250.5
 30
0.0
  0
ENDBLK
  5
7409
  8
0
  0
BLOCK
  8
0
  2
*D28
 70
     1
 10
0.0
 20
0.0
 30
0.0
  3
*D28
  1

  0
LINE
  5
7837
  8
002寸法
 10
847.0
 20
283.5
 30
0.0
 11
847.0
 21
249.0
 31
0.0
  0
LINE
  5
7838
  8
002寸法
 10
905.0
 20
307.5
 30
0.0
 11
905.0
 21
249.0
 31
0.0
  0
LINE
  5
7839
  8
002寸法
 10
852.0
 20
250.5
 30
0.0
 11
900.0
 21
250.5
 31
0.0
  0
INSERT
  5
783A
  8
002寸法
  2
_OPEN
 10
847.0
 20
250.5
 30
0.0
 41
5.0
 42
5.0
 43
5.0
 50
180.0
  0
INSERT
  5
783B
  8
002寸法
  2
_OPEN
 10
905.0
 20
250.5
 30
0.0
 41
5.0
 42
5.0
 43
5.0
  0
TEXT
  8
002寸法
  40
6
  5
786D
  62
2
  72
0
  71
0
 10
876.000
 20
246.700
 30
0.000000
  1
58
  0
POINT
  5
783D
  8
DEFPOINTS
 62
     0
 10
847.0
 20
284.5
 30
0.0
  0
POINT
  5
783E
  8
DEFPOINTS
 62
     0
 10
905.0
 20
308.5
 30
0.0
  0
POINT
  5
783F
  8
DEFPOINTS
 62
     0
 10
905.0
 20
250.5
 30
0.0
  0
ENDBLK
  5
7421
  8
0
  0
BLOCK
  8
0
  2
*D29
 70
     1
 10
0.0
 20
0.0
 30
0.0
  3
*D29
  1

  0
LINE
  5
7840
  8
002寸法
 10
791.0
 20
303.0
 30
0.0
 11
791.0
 21
229.0
 31
0.0
  0
LINE
  5
7841
  8
002寸法
 10
905.0
 20
307.5
 30
0.0
 11
905.0
 21
229.0
 31
0.0
  0
LINE
  5
7842
  8
002寸法
 10
796.0
 20
230.5
 30
0.0
 11
900.0
 21
230.5
 31
0.0
  0
INSERT
  5
7843
  8
002寸法
  2
_OPEN
 10
791.0
 20
230.5
 30
0.0
 41
5.0
 42
5.0
 43
5.0
 50
180.0
  0
INSERT
  5
7844
  8
002寸法
  2
_OPEN
 10
905.0
 20
230.5
 30
0.0
 41
5.0
 42
5.0
 43
5.0
  0
TEXT
  8
002寸法
  40
6
  5
786E
  62
2
  72
0
  71
0
 10
848.000
 20
226.700
 30
0.000000
  1
114
  0
POINT
  5
7846
  8
DEFPOINTS
 62
     0
 10
791.0
 20
304.0
 30
0.0
  0
POINT
  5
7847
  8
DEFPOINTS
 62
     0
 10
905.0
 20
308.5
 30
0.0
  0
POINT
  5
7848
  8
DEFPOINTS
 62
     0
 10
905.0
 20
230.5
 30
0.0
  0
ENDBLK
  5
7439
  8
0
  0
BLOCK
  8
0
  2
*D30
 70
     1
 10
0.0
 20
0.0
 30
0.0
  3
*D30
  1

  0
LINE
  5
7849
  8
002寸法
 10
905.0
 20
307.5
 30
0.0
 11
905.0
 21
229.0
 31
0.0
  0
LINE
  5
784A
  8
002寸法
 10
979.0
 20
332.5
 30
0.0
 11
979.0
 21
229.0
 31
0.0
  0
LINE
  5
784B
  8
002寸法
 10
910.0
 20
230.5
 30
0.0
 11
974.0
 21
230.5
 31
0.0
  0
INSERT
  5
784C
  8
002寸法
  2
_OPEN
 10
905.0
 20
230.5
 30
0.0
 41
5.0
 42
5.0
 43
5.0
 50
180.0
  0
INSERT
  5
784D
  8
002寸法
  2
_OPEN
 10
979.0
 20
230.5
 30
0.0
 41
5.0
 42
5.0
 43
5.0
  0
TEXT
  8
002寸法
  40
6
  5
786F
  62
2
  72
0
  71
0
 10
942.000
 20
226.700
 30
0.000000
  1
74
  0
POINT
  5
784F
  8
DEFPOINTS
 62
     0
 10
905.0
 20
308.5
 30
0.0
  0
POINT
  5
7850
  8
DEFPOINTS
 62
     0
 10
979.0
 20
333.5
 30
0.0
  0
POINT
  5
7851
  8
DEFPOINTS
 62
     0
 10
979.0
 20
230.5
 30
0.0
  0
ENDBLK
  5
7451
  8
0
  0
BLOCK
  8
0
  2
*D31
 70
     1
 10
0.0
 20
0.0
 30
0.0
  3
*D31
  1

  0
LINE
  5
7852
  8
002寸法
 10
788.0
 20
336.0
 30
0.0
 11
788.0
 21
209.0
 31
0.0
  0
LINE
  5
7853
  8
002寸法
 10
979.0
 20
332.5
 30
0.0
 11
979.0
 21
209.0
 31
0.0
  0
LINE
  5
7854
  8
002寸法
 10
793.0
 20
210.5
 30
0.0
 11
974.0
 21
210.5
 31
0.0
  0
INSERT
  5
7855
  8
002寸法
  2
_OPEN
 10
788.0
 20
210.5
 30
0.0
 41
5.0
 42
5.0
 43
5.0
 50
180.0
  0
INSERT
  5
7856
  8
002寸法
  2
_OPEN
 10
979.0
 20
210.5
 30
0.0
 41
5.0
 42
5.0
 43
5.0
  0
TEXT
  8
002寸法
  40
6
  5
7870
  62
2
  72
0
  71
0
 10
883.500
 20
206.700
 30
0.000000
  1
191
  0
POINT
  5
7858
  8
DEFPOINTS
 62
     0
 10
788.0
 20
337.0
 30
0.0
  0
POINT
  5
7859
  8
DEFPOINTS
 62
     0
 10
979.0
 20
333.5
 30
0.0
  0
POINT
  5
785A
  8
DEFPOINTS
 62
     0
 10
979.0
 20
210.5
 30
0.0
  0
ENDBLK
  5
7481
  8
0
  0
BLOCK
  8
0
  2
*D32
 70
     1
 10
0.0
 20
0.0
 30
0.0
  3
*D32
  1

  0
LINE
  5
785B
  8
002寸法
 10
979.0
 20
332.5
 30
0.0
 11
979.0
 21
209.0
 31
0.0
  0
LINE
  5
785C
  8
002寸法
 10
1076.0
 20
339.5
 30
0.0
 11
1076.0
 21
209.0
 31
0.0
  0
LINE
  5
785D
  8
002寸法
 10
984.0
 20
210.5
 30
0.0
 11
1071.0
 21
210.5
 31
0.0
  0
INSERT
  5
785E
  8
002寸法
  2
_OPEN
 10
979.0
 20
210.5
 30
0.0
 41
5.0
 42
5.0
 43
5.0
 50
180.0
  0
INSERT
  5
785F
  8
002寸法
  2
_OPEN
 10
1076.0
 20
210.5
 30
0.0
 41
5.0
 42
5.0
 43
5.0
  0
TEXT
  8
002寸法
  40
6
  5
7871
  62
2
  72
0
  71
0
 10
1027.50
 20
206.700
 30
0.000000
  1
97
  0
POINT
  5
7861
  8
DEFPOINTS
 62
     0
 10
979.0
 20
333.5
 30
0.0
  0
POINT
  5
7862
  8
DEFPOINTS
 62
     0
 10
1076.0
 20
340.5
 30
0.0
  0
POINT
  5
7863
  8
DEFPOINTS
 62
     0
 10
1076.0
 20
210.5
 30
0.0
  0
ENDBLK
  5
7499
  8
0
  0
BLOCK
  8
0
  2
*D33
 70
     1
 10
0.0
 20
0.0
 30
0.0
  3
*D33
  1

  0
LINE
  5
74BC
  8
002寸法
 10
996.0
 20
369.0
 30
0.0
 11
996.0
 21
249.0
 31
0.0
  0
LINE
  5
74BD
  8
002寸法
 10
1076.0
 20
339.5
 30
0.0
 11
1076.0
 21
249.0
 31
0.0
  0
LINE
  5
74BE
  8
002寸法
 10
1001.0
 20
250.5
 30
0.0
 11
1071.0
 21
250.5
 31
0.0
  0
INSERT
  5
74BF
  8
002寸法
  2
_OPEN
 10
996.0
 20
250.5
 30
0.0
 41
5.0
 42
5.0
 43
5.0
 50
180.0
  0
INSERT
  5
74C0
  8
002寸法
  2
_OPEN
 10
1076.0
 20
250.5
 30
0.0
 41
5.0
 42
5.0
 43
5.0
  0
INSERT
  5
74C1
  8
011形状
  2
*U66
 10
0.0
 20
0.0
 30
0.0
  0
POINT
  5
74C2
  8
DEFPOINTS
 62
     0
 10
996.0
 20
370.0
 30
0.0
  0
POINT
  5
74C3
  8
DEFPOINTS
 62
     0
 10
1076.0
 20
340.5
 30
0.0
  0
POINT
  5
74C4
  8
DEFPOINTS
 62
     0
 10
1076.0
 20
250.5
 30
0.0
  0
ENDBLK
  5
74B1
  8
0
  0
BLOCK
  8
0
  2
*U34
 70
     1
 10
0.0
 20
0.0
 30
0.0
  3
*U34
  1

  0
SOLID
  5
75F5
  8
DEFPOINTS
  6
CONTINUOUS
 10
1284.698004822191
 20
32.567521701952053
 30
0.0
 11
1284.698004822191
 21
32.128621701951943
 31
0.0
 12
1291.403934822192
 22
32.128621701951943
 32
0.0
 13
1291.403934822192
 23
32.128621701951943
 33
0.0
210
0.0
220
0.0
230
1.0
  0
SOLID
  5
75F6
  8
DEFPOINTS
  6
CONTINUOUS
 10
-1284.698004822191
 20
32.567521701952053
 30
0.0
 11
-1291.403934822192
 21
32.567521701952053
 31
0.0
 12
-1291.403934822192
 22
32.128621701951943
 32
0.0
 13
-1291.403934822192
 23
32.128621701951943
 33
0.0
210
0.0
220
0.0
230
-1.0
  0
SOLID
  5
75F7
  8
DEFPOINTS
  6
CONTINUOUS
 10
1275.2373998221899
 20
32.567521701952053
 30
0.0
 11
1275.2373998221899
 21
32.128621701951943
 31
0.0
 12
1277.852319822191
 22
32.128621701951943
 32
0.0
 13
1277.852319822191
 23
32.128621701951943
 33
0.0
  0
SOLID
  5
75F8
  8
DEFPOINTS
  6
CONTINUOUS
 10
-1275.2373998221899
 20
32.567521701952053
 30
0.0
 11
-1277.852319822191
 21
32.567521701952053
 31
0.0
 12
-1277.852319822191
 22
32.128621701951943
 32
0.0
 13
-1277.852319822191
 23
32.128621701951943
 33
0.0
210
0.0
220
0.0
230
-1.0
  0
SOLID
  5
75F9
  8
DEFPOINTS
  6
CONTINUOUS
 10
1273.27158982219
 20
32.567521701952053
 30
0.0
 11
1273.271589822192
 21
32.128621701951943
 31
0.0
 12
1275.0156398221909
 22
32.128621701951943
 32
0.0
 13
1275.0156398221909
 23
32.128621701951943
 33
0.0
210
0.0
220
0.0
230
1.0
  0
SOLID
  5
75FA
  8
DEFPOINTS
  6
CONTINUOUS
 10
-1273.27158982219
 20
32.567521701952053
 30
0.0
 11
-1275.0156398221909
 21
32.567521701952053
 31
0.0
 12
-1275.0156398221909
 22
32.128621701951943
 32
0.0
 13
-1275.0156398221909
 23
32.128621701951943
 33
0.0
210
0.0
220
0.0
230
-1.0
  0
SOLID
  5
75FB
  8
DEFPOINTS
  6
CONTINUOUS
 10
1265.3309896601911
 20
32.567521701952053
 30
0.0
 11
1265.3309896601911
 21
32.128621701951943
 31
0.0
 12
1269.3457696601911
 22
32.128621701951943
 32
0.0
 13
1269.3457696601911
 23
32.128621701951943
 33
0.0
  0
SOLID
  5
75FC
  8
DEFPOINTS
  6
CONTINUOUS
 10
-1265.3309896601911
 20
32.567521701952053
 30
0.0
 11
-1269.3457696601911
 21
32.567521701952053
 31
0.0
 12
-1269.3457696601911
 22
32.128621701951943
 32
0.0
 13
-1269.3457696601911
 23
32.128621701951943
 33
0.0
210
0.0
220
0.0
230
-1.0
  0
SOLID
  5
75FD
  8
DEFPOINTS
  6
CONTINUOUS
 10
1262.1685996601909
 20
32.567521701952053
 30
0.0
 11
1262.1685996601909
 21
32.128621701951943
 31
0.0
 12
1265.0745796601909
 22
32.128621701951943
 32
0.0
 13
1265.0745796601909
 23
32.128621701951943
 33
0.0
210
0.0
220
0.0
230
1.0
  0
SOLID
  5
75FE
  8
DEFPOINTS
  6
CONTINUOUS
 10
-1262.1685996601909
 20
32.567521701952053
 30
0.0
 11
-1265.07457966019
 21
32.567521701952053
 31
0.0
 12
-1265.0745796601909
 22
32.128621701951943
 32
0.0
 13
-1265.0745796601909
 23
32.128621701951943
 33
0.0
210
0.0
220
0.0
230
-1.0
  0
SOLID
  5
75FF
  8
DEFPOINTS
  6
CONTINUOUS
 10
1254.2637548221901
 20
32.567521701952053
 30
0.0
 11
1254.2637548221901
 21
32.128621701951943
 31
0.0
 12
1258.3120298221911
 22
32.128621701951943
 32
0.0
 13
1258.3120298221911
 23
32.128621701951943
 33
0.0
210
0.0
220
0.0
230
1.0
  0
SOLID
  5
7600
  8
DEFPOINTS
  6
CONTINUOUS
 10
-1254.2637548221901
 20
32.567521701952053
 30
0.0
 11
-1258.3120298221911
 21
32.567521701952053
 31
0.0
 12
-1258.3120298221911
 22
32.128621701951943
 32
0.0
 13
-1258.3120298221911
 23
32.128621701951943
 33
0.0
210
0.0
220
0.0
230
-1.0
  0
SOLID
  5
7601
  8
DEFPOINTS
  6
CONTINUOUS
 10
1251.191454822191
 20
32.567521701952053
 30
0.0
 11
1251.191454822191
 21
32.128621701951943
 31
0.0
 12
1253.986554822191
 22
32.128621701951943
 32
0.0
 13
1253.986554822191
 23
32.128621701951943
 33
0.0
210
0.0
220
0.0
230
1.0
  0
SOLID
  5
7602
  8
DEFPOINTS
  6
CONTINUOUS
 10
-1251.191454822191
 20
32.567521701952053
 30
0.0
 11
-1253.986554822191
 21
32.567521701952053
 31
0.0
 12
-1253.986554822191
 22
32.128621701951943
 32
0.0
 13
-1253.986554822191
 23
32.128621701951943
 33
0.0
210
0.0
220
0.0
230
-1.0
  0
SOLID
  5
7603
  8
DEFPOINTS
  6
CONTINUOUS
 10
1290.0364148221911
 20
32.128621701951943
 30
0.0
 11
1290.0364148221911
 21
31.718596701952269
 31
0.0
 12
1291.4039348221911
 22
31.718596701952269
 32
0.0
 13
1291.4039348221911
 23
31.718596701952269
 33
0.0
210
0.0
220
0.0
230
1.0
  0
SOLID
  5
7604
  8
DEFPOINTS
  6
CONTINUOUS
 10
-1290.0364148221911
 20
32.128621701951943
 30
0.0
 11
-1291.403934822192
 21
32.128621701951943
 31
0.0
 12
-1291.4039348221911
 22
31.718596701952269
 32
0.0
 13
-1291.4039348221911
 23
31.718596701952269
 33
0.0
210
0.0
220
0.0
230
-1.0
  0
SOLID
  5
7605
  8
DEFPOINTS
  6
CONTINUOUS
 10
1287.37067482219
 20
32.128621701951943
 30
0.0
 11
1287.37067482219
 21
31.718596701952269
 31
0.0
 12
1288.6527248221921
 22
31.718596701952269
 32
0.0
 13
1288.6527248221921
 23
31.718596701952269
 33
0.0
210
0.0
220
0.0
230
1.0
  0
SOLID
  5
7606
  8
DEFPOINTS
  6
CONTINUOUS
 10
-1287.37067482219
 20
32.128621701951943
 30
0.0
 11
-1288.6527248221901
 21
32.128621701951943
 31
0.0
 12
-1288.6527248221921
 22
31.718596701952269
 32
0.0
 13
-1288.6527248221921
 23
31.718596701952269
 33
0.0
210
0.0
220
0.0
230
-1.0
  0
SOLID
  5
7607
  8
DEFPOINTS
  6
CONTINUOUS
 10
1284.698004822191
 20
32.128621701951943
 30
0.0
 11
1284.698004822191
 21
31.718596701952269
 31
0.0
 12
1286.0562848221921
 22
31.718596701952269
 32
0.0
 13
1286.0562848221921
 23
31.718596701952269
 33
0.0
  0
SOLID
  5
7608
  8
DEFPOINTS
  6
CONTINUOUS
 10
-1284.698004822191
 20
32.128621701951943
 30
0.0
 11
-1286.0562848221921
 21
32.128621701951943
 31
0.0
 12
-1286.0562848221921
 22
31.718596701952269
 32
0.0
 13
-1286.0562848221921
 23
31.718596701952269
 33
0.0
210
0.0
220
0.0
230
-1.0
  0
SOLID
  5
7609
  8
DEFPOINTS
  6
CONTINUOUS
 10
1276.7735498221921
 20
32.128621701951943
 30
0.0
 11
1276.7735498221921
 21
31.46565170195208
 31
0.0
 12
1277.852319822191
 22
31.46565170195208
 32
0.0
 13
1277.852319822191
 23
31.46565170195208
 33
0.0
210
0.0
220
0.0
230
1.0
  0
SOLID
  5
760A
  8
DEFPOINTS
  6
CONTINUOUS
 10
-1276.7735498221921
 20
32.128621701951943
 30
0.0
 11
-1277.852319822191
 21
32.128621701951943
 31
0.0
 12
-1277.852319822191
 22
31.46565170195208
 32
0.0
 13
-1277.852319822191
 23
31.46565170195208
 33
0.0
210
0.0
220
0.0
230
-1.0
  0
SOLID
  5
760B
  8
DEFPOINTS
  6
CONTINUOUS
 10
1275.2373998221899
 20
32.128621701951943
 30
0.0
 11
1275.2373998221899
 21
31.46565170195208
 31
0.0
 12
1276.348509822192
 22
31.46565170195208
 32
0.0
 13
1276.348509822192
 23
31.46565170195208
 33
0.0
210
0.0
220
0.0
230
1.0
  0
SOLID
  5
760C
  8
DEFPOINTS
  6
CONTINUOUS
 10
-1275.2373998221899
 20
32.128621701951943
 30
0.0
 11
-1276.34850982219
 21
32.128621701951943
 31
0.0
 12
-1276.348509822192
 22
31.46565170195208
 32
0.0
 13
-1276.348509822192
 23
31.46565170195208
 33
0.0
210
0.0
220
0.0
230
-1.0
  0
SOLID
  5
760D
  8
DEFPOINTS
  6
CONTINUOUS
 10
1263.1087696601901
 20
32.128621701951943
 30
0.0
 11
1263.1087696601919
 21
31.46565170195208
 31
0.0
 12
1264.356169660191
 22
31.46565170195208
 32
0.0
 13
1264.356169660191
 23
31.46565170195208
 33
0.0
210
0.0
220
0.0
230
1.0
  0
SOLID
  5
760E
  8
DEFPOINTS
  6
CONTINUOUS
 10
-1263.1087696601901
 20
32.128621701951943
 30
0.0
 11
-1264.356169660191
 21
32.128621701951943
 31
0.0
 12
-1264.356169660191
 22
31.46565170195208
 32
0.0
 13
-1264.356169660191
 23
31.46565170195208
 33
0.0
210
0.0
220
0.0
230
-1.0
  0
SOLID
  5
760F
  8
DEFPOINTS
  6
CONTINUOUS
 10
1284.698004822191
 20
31.718596701952269
 30
0.0
 11
1284.698004822191
 21
31.26814670195245
 31
0.0
 12
1291.4039348221911
 22
31.26814670195245
 32
0.0
 13
1291.4039348221911
 23
31.26814670195245
 33
0.0
  0
SOLID
  5
7610
  8
DEFPOINTS
  6
CONTINUOUS
 10
-1284.698004822191
 20
31.718596701952269
 30
0.0
 11
-1291.4039348221911
 21
31.718596701952269
 31
0.0
 12
-1291.4039348221911
 22
31.26814670195245
 32
0.0
 13
-1291.4039348221911
 23
31.26814670195245
 33
0.0
210
0.0
220
0.0
230
-1.0
  0
SOLID
  5
7611
  8
DEFPOINTS
  6
CONTINUOUS
 10
1275.2373998221899
 20
31.46565170195208
 30
0.0
 11
1275.2373998221899
 21
31.01982170195242
 31
0.0
 12
1277.852319822191
 22
31.01982170195242
 32
0.0
 13
1277.852319822191
 23
31.01982170195242
 33
0.0
  0
SOLID
  5
7612
  8
DEFPOINTS
  6
CONTINUOUS
 10
-1275.2373998221899
 20
31.46565170195208
 30
0.0
 11
-1277.852319822191
 21
31.46565170195208
 31
0.0
 12
-1277.852319822191
 22
31.01982170195242
 32
0.0
 13
-1277.852319822191
 23
31.01982170195242
 33
0.0
210
0.0
220
0.0
230
-1.0
  0
SOLID
  5
7613
  8
DEFPOINTS
  6
CONTINUOUS
 10
1273.271589822192
 20
31.46565170195208
 30
0.0
 11
1273.271589822192
 21
31.01982170195242
 31
0.0
 12
1275.0156398221909
 22
31.01982170195242
 32
0.0
 13
1275.0156398221909
 23
31.01982170195242
 33
0.0
210
0.0
220
0.0
230
1.0
  0
SOLID
  5
7614
  8
DEFPOINTS
  6
CONTINUOUS
 10
-1273.271589822192
 20
31.46565170195208
 30
0.0
 11
-1275.0156398221909
 21
31.46565170195208
 31
0.0
 12
-1275.0156398221909
 22
31.01982170195242
 32
0.0
 13
-1275.0156398221909
 23
31.01982170195242
 33
0.0
210
0.0
220
0.0
230
-1.0
  0
SOLID
  5
7615
  8
DEFPOINTS
  6
CONTINUOUS
 10
1262.1685996601909
 20
31.46565170195208
 30
0.0
 11
1262.1685996601921
 21
31.01982170195242
 31
0.0
 12
1265.07457966019
 22
31.01982170195242
 32
0.0
 13
1265.07457966019
 23
31.01982170195242
 33
0.0
210
0.0
220
0.0
230
1.0
  0
SOLID
  5
7616
  8
DEFPOINTS
  6
CONTINUOUS
 10
-1262.1685996601909
 20
31.46565170195208
 30
0.0
 11
-1265.07457966019
 21
31.46565170195208
 31
0.0
 12
-1265.07457966019
 22
31.01982170195242
 32
0.0
 13
-1265.07457966019
 23
31.01982170195242
 33
0.0
210
0.0
220
0.0
230
-1.0
  0
SOLID
  5
7617
  8
DEFPOINTS
  6
CONTINUOUS
 10
1257.0242048221919
 20
32.128621701951943
 30
0.0
 11
1257.02466222219
 21
30.934351701952441
 31
0.0
 12
1258.3120298221911
 22
30.934351701952441
 32
0.0
 13
1258.3120298221911
 23
30.934351701952441
 33
0.0
210
0.0
220
0.0
230
1.0
  0
SOLID
  5
7618
  8
DEFPOINTS
  6
CONTINUOUS
 10
-1257.0242048221919
 20
32.128621701951943
 30
0.0
 11
-1258.3120298221911
 21
32.128621701951943
 31
0.0
 12
-1258.3120298221911
 22
30.934351701952441
 32
0.0
 13
-1258.3120298221911
 23
30.934351701952441
 33
0.0
210
0.0
220
0.0
230
-1.0
  0
SOLID
  5
7619
  8
DEFPOINTS
  6
CONTINUOUS
 10
1257.02466222219
 20
30.934351701952441
 30
0.0
 11
1256.576522222193
 21
30.918181701952111
 31
0.0
 12
1258.3120298221911
 22
30.918181701952111
 32
0.0
 13
1258.3120298221911
 23
30.918181701952111
 33
0.0
210
0.0
220
0.0
230
1.0
  0
SOLID
  5
761A
  8
DEFPOINTS
  6
CONTINUOUS
 10
-1257.02466222219
 20
30.934351701952441
 30
0.0
 11
-1258.3120298221911
 21
30.934351701952441
 31
0.0
 12
-1258.3120298221911
 22
30.918181701952111
 32
0.0
 13
-1258.3120298221911
 23
30.918181701952111
 33
0.0
210
0.0
220
0.0
230
-1.0
  0
SOLID
  5
761B
  8
DEFPOINTS
  6
CONTINUOUS
 10
1284.698004822191
 20
31.01982170195242
 30
0.0
 11
1284.698004822191
 21
30.594781701952339
 31
0.0
 12
1291.4039348221911
 22
30.594781701952339
 32
0.0
 13
1291.4039348221911
 23
30.594781701952339
 33
0.0
  0
SOLID
  5
761C
  8
DEFPOINTS
  6
CONTINUOUS
 10
-1284.698004822191
 20
31.01982170195242
 30
0.0
 11
-1291.4039348221911
 21
31.01982170195242
 31
0.0
 12
-1291.4039348221911
 22
30.594781701952339
 32
0.0
 13
-1291.4039348221911
 23
30.594781701952339
 33
0.0
210
0.0
220
0.0
230
-1.0
  0
SOLID
  5
761D
  8
DEFPOINTS
  6
CONTINUOUS
 10
1263.1087696601901
 20
31.01982170195242
 30
0.0
 11
1262.7502195296879
 21
30.55782170195198
 31
0.0
 12
1265.0837948221899
 22
30.55782170195198
 32
0.0
 13
1265.0837948221899
 23
30.55782170195198
 33
0.0
210
0.0
220
0.0
230
1.0
  0
SOLID
  5
761E
  8
DEFPOINTS
  6
CONTINUOUS
 10
-1263.1087696601901
 20
31.01982170195242
 30
0.0
 11
-1264.356169660191
 21
31.01982170195242
 31
0.0
 12
-1265.0837948221899
 22
30.55782170195198
 32
0.0
 13
-1265.0837948221899
 23
30.55782170195198
 33
0.0
210
0.0
220
0.0
230
-1.0
  0
SOLID
  5
761F
  8
DEFPOINTS
  6
CONTINUOUS
 10
1276.7735498221909
 20
31.01982170195242
 30
0.0
 11
1276.7735498221909
 21
30.53934170195225
 31
0.0
 12
1277.852319822191
 22
30.53934170195225
 32
0.0
 13
1277.852319822191
 23
30.53934170195225
 33
0.0
210
0.0
220
0.0
230
1.0
  0
SOLID
  5
7620
  8
DEFPOINTS
  6
CONTINUOUS
 10
-1276.7735498221909
 20
31.01982170195242
 30
0.0
 11
-1277.852319822191
 21
31.01982170195242
 31
0.0
 12
-1277.852319822191
 22
30.53934170195225
 32
0.0
 13
-1277.852319822191
 23
30.53934170195225
 33
0.0
210
0.0
220
0.0
230
-1.0
  0
SOLID
  5
7621
  8
DEFPOINTS
  6
CONTINUOUS
 10
1275.2373998221899
 20
31.01982170195242
 30
0.0
 11
1275.2373998221899
 21
30.53934170195225
 31
0.0
 12
1276.348509822192
 22
30.53934170195225
 32
0.0
 13
1276.348509822192
 23
30.53934170195225
 33
0.0
210
0.0
220
0.0
230
1.0
  0
SOLID
  5
7622
  8
DEFPOINTS
  6
CONTINUOUS
 10
-1275.2373998221899
 20
31.01982170195242
 30
0.0
 11
-1276.3485098221911
 21
31.01982170195242
 31
0.0
 12
-1276.348509822192
 22
30.53934170195225
 32
0.0
 13
-1276.348509822192
 23
30.53934170195225
 33
0.0
210
0.0
220
0.0
230
-1.0
  0
SOLID
  5
7623
  8
DEFPOINTS
  6
CONTINUOUS
 10
1252.854654822193
 20
32.128621701951943
 30
0.0
 11
1252.8546548221909
 21
30.53934170195225
 31
0.0
 12
1253.986554822191
 22
30.53934170195225
 32
0.0
 13
1253.986554822191
 23
30.53934170195225
 33
0.0
210
0.0
220
0.0
230
1.0
  0
SOLID
  5
7624
  8
DEFPOINTS
  6
CONTINUOUS
 10
-1252.854654822193
 20
32.128621701951943
 30
0.0
 11
-1253.986554822191
 21
32.128621701951943
 31
0.0
 12
-1253.986554822191
 22
30.53934170195225
 32
0.0
 13
-1253.986554822191
 23
30.53934170195225
 33
0.0
210
0.0
220
0.0
230
-1.0
  0
SOLID
  5
7625
  8
DEFPOINTS
  6
CONTINUOUS
 10
1251.191454822191
 20
32.128621701951943
 30
0.0
 11
1251.191454822191
 21
30.53934170195225
 31
0.0
 12
1252.3441448221899
 22
30.53934170195225
 32
0.0
 13
1252.3441448221899
 23
30.53934170195225
 33
0.0
210
0.0
220
0.0
230
1.0
  0
SOLID
  5
7626
  8
DEFPOINTS
  6
CONTINUOUS
 10
-1251.191454822191
 20
32.128621701951943
 30
0.0
 11
-1252.3441448221899
 21
32.128621701951943
 31
0.0
 12
-1252.3441448221899
 22
30.53934170195225
 32
0.0
 13
-1252.3441448221899
 23
30.53934170195225
 33
0.0
210
0.0
220
0.0
230
-1.0
  0
SOLID
  5
7627
  8
DEFPOINTS
  6
CONTINUOUS
 10
1256.576522222193
 20
30.918181701952111
 30
0.0
 11
1256.693874822193
 21
30.45387170195227
 31
0.0
 12
1258.3120298221911
 22
30.45387170195227
 32
0.0
 13
1258.3120298221911
 23
30.45387170195227
 33
0.0
  0
SOLID
  5
7628
  8
DEFPOINTS
  6
CONTINUOUS
 10
-1256.576522222193
 20
30.918181701952111
 30
0.0
 11
-1258.3120298221911
 21
30.918181701952111
 31
0.0
 12
-1258.3120298221911
 22
30.45387170195227
 32
0.0
 13
-1258.3120298221911
 23
30.45387170195227
 33
0.0
210
0.0
220
0.0
230
-1.0
  0
SOLID
  5
7629
  8
DEFPOINTS
  6
CONTINUOUS
 10
1255.05610966019
 20
32.128621701951943
 30
0.0
 11
1254.2637548221919
 21
30.45387170195227
 31
0.0
 12
1255.705194822189
 22
30.45387170195227
 32
0.0
 13
1255.705194822189
 23
30.45387170195227
 33
0.0
210
0.0
220
0.0
230
1.0
  0
SOLID
  5
762A
  8
DEFPOINTS
  6
CONTINUOUS
 10
-1255.05610966019
 20
32.128621701951943
 30
0.0
 11
-1256.4975496601901
 21
32.128621701951943
 31
0.0
 12
-1255.705194822189
 22
30.45387170195227
 32
0.0
 13
-1255.705194822189
 23
30.45387170195227
 33
0.0
210
0.0
220
0.0
230
-1.0
  0
SOLID
  5
762B
  8
DEFPOINTS
  6
CONTINUOUS
 10
1287.37067482219
 20
30.594781701952339
 30
0.0
 11
1287.37067482219
 21
30.18244670195191
 31
0.0
 12
1288.6527248221901
 22
30.18244670195191
 32
0.0
 13
1288.6527248221901
 23
30.18244670195191
 33
0.0
  0
SOLID
  5
762C
  8
DEFPOINTS
  6
CONTINUOUS
 10
-1287.37067482219
 20
30.594781701952339
 30
0.0
 11
-1288.6527248221901
 21
30.594781701952339
 31
0.0
 12
-1288.6527248221901
 22
30.18244670195191
 32
0.0
 13
-1288.6527248221901
 23
30.18244670195191
 33
0.0
210
0.0
220
0.0
230
-1.0
  0
SOLID
  5
762D
  8
DEFPOINTS
  6
CONTINUOUS
 10
1275.2373998221899
 20
30.53934170195225
 30
0.0
 11
1275.2373998221899
 21
30.061171701952389
 31
0.0
 12
1277.852319822191
 22
30.061171701952389
 32
0.0
 13
1277.852319822191
 23
30.061171701952389
 33
0.0
210
0.0
220
0.0
230
1.0
  0
SOLID
  5
762E
  8
DEFPOINTS
  6
CONTINUOUS
 10
-1275.2373998221899
 20
30.53934170195225
 30
0.0
 11
-1277.852319822191
 21
30.53934170195225
 31
0.0
 12
-1277.852319822191
 22
30.061171701952389
 32
0.0
 13
-1277.852319822191
 23
30.061171701952389
 33
0.0
210
0.0
220
0.0
230
-1.0
  0
SOLID
  5
762F
  8
DEFPOINTS
  6
CONTINUOUS
 10
1251.191454822191
 20
30.53934170195225
 30
0.0
 11
1251.191454822191
 21
30.061171701952389
 31
0.0
 12
1253.986554822191
 22
30.061171701952389
 32
0.0
 13
1253.986554822191
 23
30.061171701952389
 33
0.0
210
0.0
220
0.0
230
1.0
  0
SOLID
  5
7630
  8
DEFPOINTS
  6
CONTINUOUS
 10
-1251.191454822191
 20
30.53934170195225
 30
0.0
 11
-1253.986554822191
 21
30.53934170195225
 31
0.0
 12
-1253.986554822191
 22
30.061171701952389
 32
0.0
 13
-1253.986554822191
 23
30.061171701952389
 33
0.0
210
0.0
220
0.0
230
-1.0
  0
SOLID
  5
7631
  8
DEFPOINTS
  6
CONTINUOUS
 10
1262.7502195296879
 20
30.55782170195198
 30
0.0
 11
1262.18012482219
 21
29.823241701952611
 31
0.0
 12
1265.0843629333281
 22
29.823241701952611
 32
0.0
 13
1265.0843629333281
 23
29.823241701952611
 33
0.0
210
0.0
220
0.0
230
1.0
  0
SOLID
  5
7632
  8
DEFPOINTS
  6
CONTINUOUS
 10
-1262.7502195296879
 20
30.55782170195198
 30
0.0
 11
-1265.0837948221899
 21
30.55782170195198
 31
0.0
 12
-1265.0843629333281
 22
29.823241701952611
 32
0.0
 13
-1265.0843629333281
 23
29.823241701952611
 33
0.0
210
0.0
220
0.0
230
-1.0
  0
SOLID
  5
7633
  8
DEFPOINTS
  6
CONTINUOUS
 10
1284.425327412192
 20
30.18244670195191
 30
0.0
 11
1284.425327412192
 21
29.759716701951682
 31
0.0
 12
1291.60952482219
 22
29.759716701951682
 32
0.0
 13
1291.60952482219
 23
29.759716701951682
 33
0.0
210
0.0
220
0.0
230
1.0
  0
SOLID
  5
7634
  8
DEFPOINTS
  6
CONTINUOUS
 10
-1284.425327412192
 20
30.18244670195191
 30
0.0
 11
-1291.60952482219
 21
30.18244670195191
 31
0.0
 12
-1291.60952482219
 22
29.759716701951682
 32
0.0
 13
-1291.60952482219
 23
29.759716701951682
 33
0.0
210
0.0
220
0.0
230
-1.0
  0
SOLID
  5
7635
  8
DEFPOINTS
  6
CONTINUOUS
 10
1262.18012482219
 20
29.823241701952611
 30
0.0
 11
1262.1801985467091
 21
29.676684684825432
 31
0.0
 12
1265.0844762779241
 22
29.676684684825432
 32
0.0
 13
1265.0844762779241
 23
29.676684684825432
 33
0.0
210
0.0
220
0.0
230
1.0
  0
SOLID
  5
7636
  8
DEFPOINTS
  6
CONTINUOUS
 10
-1262.18012482219
 20
29.823241701952611
 30
0.0
 11
-1265.0843629333281
 21
29.823241701952611
 31
0.0
 12
-1265.0844762779241
 22
29.676684684825432
 32
0.0
 13
-1265.0844762779241
 23
29.676684684825432
 33
0.0
210
0.0
220
0.0
230
-1.0
  0
SOLID
  5
7637
  8
DEFPOINTS
  6
CONTINUOUS
 10
1276.7735498221909
 20
30.061171701952389
 30
0.0
 11
1276.7735498221909
 21
29.601481701952249
 31
0.0
 12
1277.852319822191
 22
29.601481701952249
 32
0.0
 13
1277.852319822191
 23
29.601481701952249
 33
0.0
  0
SOLID
  5
7638
  8
DEFPOINTS
  6
CONTINUOUS
 10
-1276.7735498221909
 20
30.061171701952389
 30
0.0
 11
-1277.852319822191
 21
30.061171701952389
 31
0.0
 12
-1277.852319822191
 22
29.601481701952249
 32
0.0
 13
-1277.852319822191
 23
29.601481701952249
 33
0.0
210
0.0
220
0.0
230
-1.0
  0
SOLID
  5
7639
  8
DEFPOINTS
  6
CONTINUOUS
 10
1275.2373998221899
 20
30.061171701952389
 30
0.0
 11
1275.2373998221899
 21
29.601481701952249
 31
0.0
 12
1276.3485098221911
 22
29.601481701952249
 32
0.0
 13
1276.3485098221911
 23
29.601481701952249
 33
0.0
210
0.0
220
0.0
230
1.0
  0
SOLID
  5
763A
  8
DEFPOINTS
  6
CONTINUOUS
 10
-1275.2373998221899
 20
30.061171701952389
 30
0.0
 11
-1276.348509822189
 21
30.061171701952389
 31
0.0
 12
-1276.3485098221911
 22
29.601481701952249
 32
0.0
 13
-1276.3485098221911
 23
29.601481701952249
 33
0.0
210
0.0
220
0.0
230
-1.0
  0
SOLID
  5
763B
  8
DEFPOINTS
  6
CONTINUOUS
 10
1254.2637548221901
 20
30.061171701952389
 30
0.0
 11
1254.2637548221901
 21
29.5991717019524
 31
0.0
 12
1258.3120298221911
 22
29.5991717019524
 32
0.0
 13
1258.3120298221911
 23
29.5991717019524
 33
0.0
  0
SOLID
  5
763C
  8
DEFPOINTS
  6
CONTINUOUS
 10
-1254.2637548221901
 20
30.061171701952389
 30
0.0
 11
-1258.3120298221911
 21
30.061171701952389
 31
0.0
 12
-1258.3120298221911
 22
29.5991717019524
 32
0.0
 13
-1258.3120298221911
 23
29.5991717019524
 33
0.0
210
0.0
220
0.0
230
-1.0
  0
SOLID
  5
763D
  8
DEFPOINTS
  6
CONTINUOUS
 10
-1265.062426821094
 20
29.228252132768372
 30
0.0
 11
-1265.0848230877029
 21
29.228252132768372
 31
0.0
 12
-1265.0848340908631
 22
29.214024809176859
 32
0.0
 13
-1265.0848340908631
 23
29.214024809176859
 33
0.0
210
0.0
220
0.0
230
-1.0
  0
SOLID
  5
763E
  8
DEFPOINTS
  6
CONTINUOUS
 10
1264.356169660191
 20
29.676684684825432
 30
0.0
 11
1265.062426821094
 21
29.228252132768372
 31
0.0
 12
1265.0848230877029
 22
29.228252132768372
 32
0.0
 13
1265.0848230877029
 23
29.228252132768372
 33
0.0
210
0.0
220
0.0
230
1.0
  0
SOLID
  5
763F
  8
DEFPOINTS
  6
CONTINUOUS
 10
-1264.356169660191
 20
29.676684684825432
 30
0.0
 11
-1265.0844762779241
 21
29.676684684825432
 31
0.0
 12
-1265.0848230877029
 22
29.228252132768372
 32
0.0
 13
-1265.0848230877029
 23
29.228252132768372
 33
0.0
210
0.0
220
0.0
230
-1.0
  0
SOLID
  5
7640
  8
DEFPOINTS
  6
CONTINUOUS
 10
1262.1801985467091
 20
29.676684684825432
 30
0.0
 11
1262.1804241276809
 21
29.228252132768372
 31
0.0
 12
1264.356169660191
 22
29.228252132768372
 32
0.0
 13
1264.356169660191
 23
29.228252132768372
 33
0.0
210
0.0
220
0.0
230
1.0
  0
SOLID
  5
7641
  8
DEFPOINTS
  6
CONTINUOUS
 10
-1262.1801985467091
 20
29.676684684825432
 30
0.0
 11
-1264.356169660191
 21
29.676684684825432
 31
0.0
 12
-1264.356169660191
 22
29.228252132768372
 32
0.0
 13
-1264.356169660191
 23
29.228252132768372
 33
0.0
210
0.0
220
0.0
230
-1.0
  0
SOLID
  5
7642
  8
DEFPOINTS
  6
CONTINUOUS
 10
1263.108769660189
 20
29.228252132768372
 30
0.0
 11
1263.108769660189
 21
29.214024809176859
 31
0.0
 12
1264.356169660191
 22
29.214024809176859
 32
0.0
 13
1264.356169660191
 23
29.214024809176859
 33
0.0
  0
SOLID
  5
7643
  8
DEFPOINTS
  6
CONTINUOUS
 10
-1263.108769660189
 20
29.228252132768372
 30
0.0
 11
-1264.356169660191
 21
29.228252132768372
 31
0.0
 12
-1264.356169660191
 22
29.214024809176859
 32
0.0
 13
-1264.356169660191
 23
29.214024809176859
 33
0.0
210
0.0
220
0.0
230
-1.0
  0
SOLID
  5
7644
  8
DEFPOINTS
  6
CONTINUOUS
 10
1262.1804241276809
 20
29.228252132768372
 30
0.0
 11
1262.18043128464
 21
29.214024809176859
 31
0.0
 12
1263.0977280828261
 22
29.214024809176859
 32
0.0
 13
1263.0977280828261
 23
29.214024809176859
 33
0.0
210
0.0
220
0.0
230
1.0
  0
SOLID
  5
7645
  8
DEFPOINTS
  6
CONTINUOUS
 10
-1262.1804241276809
 20
29.228252132768372
 30
0.0
 11
-1263.108769660189
 21
29.228252132768372
 31
0.0
 12
-1263.0977280828261
 22
29.214024809176859
 32
0.0
 13
-1263.0977280828261
 23
29.214024809176859
 33
0.0
210
0.0
220
0.0
230
-1.0
  0
SOLID
  5
7646
  8
DEFPOINTS
  6
CONTINUOUS
 10
1278.023259822191
 20
32.567521701952053
 30
0.0
 11
1278.023259822191
 21
29.123311701951931
 31
0.0
 12
1279.0650698221909
 22
29.123311701951931
 32
0.0
 13
1279.0650698221909
 23
29.123311701951931
 33
0.0
210
0.0
220
0.0
230
1.0
  0
SOLID
  5
7647
  8
DEFPOINTS
  6
CONTINUOUS
 10
-1278.023259822191
 20
32.567521701952053
 30
0.0
 11
-1279.0650698221909
 21
32.567521701952053
 31
0.0
 12
-1279.0650698221909
 22
29.123311701951931
 32
0.0
 13
-1279.0650698221909
 23
29.123311701951931
 33
0.0
210
0.0
220
0.0
230
-1.0
  0
SOLID
  5
7648
  8
DEFPOINTS
  6
CONTINUOUS
 10
1275.2373998221899
 20
29.601481701952249
 30
0.0
 11
1275.2373998221899
 21
29.123311701951931
 31
0.0
 12
1277.852319822191
 22
29.123311701951931
 32
0.0
 13
1277.852319822191
 23
29.123311701951931
 33
0.0
210
0.0
220
0.0
230
1.0
  0
SOLID
  5
7649
  8
DEFPOINTS
  6
CONTINUOUS
 10
-1275.2373998221899
 20
29.601481701952249
 30
0.0
 11
-1277.852319822191
 21
29.601481701952249
 31
0.0
 12
-1277.852319822191
 22
29.123311701951931
 32
0.0
 13
-1277.852319822191
 23
29.123311701951931
 33
0.0
210
0.0
220
0.0
230
-1.0
  0
SOLID
  5
764A
  8
DEFPOINTS
  6
CONTINUOUS
 10
1275.4672699601911
 20
29.123311701951931
 30
0.0
 11
1275.4593963978921
 21
29.109021431951991
 31
0.0
 12
1277.708800622564
 22
29.109021431951991
 32
0.0
 13
1277.708800622564
 23
29.109021431951991
 33
0.0
210
0.0
220
0.0
230
1.0
  0
SOLID
  5
764B
  8
DEFPOINTS
  6
CONTINUOUS
 10
-1275.4672699601911
 20
29.123311701951931
 30
0.0
 11
-1277.699386854192
 21
29.123311701951931
 31
0.0
 12
-1277.708800622564
 22
29.109021431951991
 32
0.0
 13
-1277.708800622564
 23
29.109021431951991
 33
0.0
210
0.0
220
0.0
230
-1.0
  0
SOLID
  5
764C
  8
DEFPOINTS
  6
CONTINUOUS
 10
1284.4253274121911
 20
29.42592170195212
 30
0.0
 11
1284.4253274121911
 21
29.021671701952531
 31
0.0
 12
1291.60952482219
 22
29.021671701952531
 32
0.0
 13
1291.60952482219
 23
29.021671701952531
 33
0.0
  0
SOLID
  5
764D
  8
DEFPOINTS
  6
CONTINUOUS
 10
-1284.4253274121911
 20
29.42592170195212
 30
0.0
 11
-1291.60952482219
 21
29.42592170195212
 31
0.0
 12
-1291.60952482219
 22
29.021671701952531
 32
0.0
 13
-1291.60952482219
 23
29.021671701952531
 33
0.0
210
0.0
220
0.0
230
-1.0
  0
SOLID
  5
764E
  8
DEFPOINTS
  6
CONTINUOUS
 10
1279.3499973601899
 20
32.567521701952053
 30
0.0
 11
1279.3499973601899
 21
28.501921701951691
 31
0.0
 12
1280.4611073601909
 22
28.501921701951691
 32
0.0
 13
1280.4611073601909
 23
28.501921701951691
 33
0.0
210
0.0
220
0.0
230
1.0
  0
SOLID
  5
764F
  8
DEFPOINTS
  6
CONTINUOUS
 10
-1279.3499973601899
 20
32.567521701952053
 30
0.0
 11
-1280.461107360192
 21
32.567521701952053
 31
0.0
 12
-1280.4611073601909
 22
28.501921701951691
 32
0.0
 13
-1280.4611073601909
 23
28.501921701951691
 33
0.0
210
0.0
220
0.0
230
-1.0
  0
SOLID
  5
7650
  8
DEFPOINTS
  6
CONTINUOUS
 10
1268.012899660192
 20
32.128621701951943
 30
0.0
 11
1268.01289966019
 21
28.501921701951691
 31
0.0
 12
1269.3457696601911
 22
28.501921701951691
 32
0.0
 13
1269.3457696601911
 23
28.501921701951691
 33
0.0
210
0.0
220
0.0
230
1.0
  0
SOLID
  5
7651
  8
DEFPOINTS
  6
CONTINUOUS
 10
-1268.012899660192
 20
32.128621701951943
 30
0.0
 11
-1269.3457696601911
 21
32.128621701951943
 31
0.0
 12
-1269.3457696601911
 22
28.501921701951691
 32
0.0
 13
-1269.3457696601911
 23
28.501921701951691
 33
0.0
210
0.0
220
0.0
230
-1.0
  0
SOLID
  5
7652
  8
DEFPOINTS
  6
CONTINUOUS
 10
1265.3309896601911
 20
32.128621701951943
 30
0.0
 11
1265.3309896601911
 21
28.501921701951691
 31
0.0
 12
1266.6292096601919
 22
28.501921701951691
 32
0.0
 13
1266.6292096601919
 23
28.501921701951691
 33
0.0
210
0.0
220
0.0
230
1.0
  0
SOLID
  5
7653
  8
DEFPOINTS
  6
CONTINUOUS
 10
-1265.3309896601911
 20
32.128621701951943
 30
0.0
 11
-1266.629209660191
 21
32.128621701951943
 31
0.0
 12
-1266.6292096601919
 22
28.501921701951691
 32
0.0
 13
-1266.6292096601919
 23
28.501921701951691
 33
0.0
210
0.0
220
0.0
230
-1.0
  0
SOLID
  5
7654
  8
DEFPOINTS
  6
CONTINUOUS
 10
1257.0242048221919
 20
29.5991717019524
 30
0.0
 11
1257.0242048221919
 21
28.501921701951691
 31
0.0
 12
1258.3120298221911
 22
28.501921701951691
 32
0.0
 13
1258.3120298221911
 23
28.501921701951691
 33
0.0
210
0.0
220
0.0
230
1.0
  0
SOLID
  5
7655
  8
DEFPOINTS
  6
CONTINUOUS
 10
-1257.0242048221919
 20
29.5991717019524
 30
0.0
 11
-1258.3120298221911
 21
29.5991717019524
 31
0.0
 12
-1258.3120298221911
 22
28.501921701951691
 32
0.0
 13
-1258.3120298221911
 23
28.501921701951691
 33
0.0
210
0.0
220
0.0
230
-1.0
  0
SOLID
  5
7656
  8
DEFPOINTS
  6
CONTINUOUS
 10
1254.2637548221901
 20
29.5991717019524
 30
0.0
 11
1254.2637548221901
 21
28.501921701951691
 31
0.0
 12
1255.5862298221921
 22
28.501921701951691
 32
0.0
 13
1255.5862298221921
 23
28.501921701951691
 33
0.0
210
0.0
220
0.0
230
1.0
  0
SOLID
  5
7657
  8
DEFPOINTS
  6
CONTINUOUS
 10
-1254.2637548221901
 20
29.5991717019524
 30
0.0
 11
-1255.5862298221909
 21
29.5991717019524
 31
0.0
 12
-1255.5862298221921
 22
28.501921701951691
 32
0.0
 13
-1255.5862298221921
 23
28.501921701951691
 33
0.0
210
0.0
220
0.0
230
-1.0
  0
SOLID
  5
7658
  8
DEFPOINTS
  6
CONTINUOUS
 10
1252.8546548221909
 20
30.061171701952389
 30
0.0
 11
1252.8546548221909
 21
28.501921701951691
 31
0.0
 12
1253.986554822191
 22
28.501921701951691
 32
0.0
 13
1253.986554822191
 23
28.501921701951691
 33
0.0
210
0.0
220
0.0
230
1.0
  0
SOLID
  5
7659
  8
DEFPOINTS
  6
CONTINUOUS
 10
-1252.8546548221909
 20
30.061171701952389
 30
0.0
 11
-1253.986554822191
 21
30.061171701952389
 31
0.0
 12
-1253.986554822191
 22
28.501921701951691
 32
0.0
 13
-1253.986554822191
 23
28.501921701951691
 33
0.0
210
0.0
220
0.0
230
-1.0
  0
SOLID
  5
765A
  8
DEFPOINTS
  6
CONTINUOUS
 10
1251.191454822191
 20
30.061171701952389
 30
0.0
 11
1251.191454822191
 21
28.501921701951691
 31
0.0
 12
1252.3441448221911
 22
28.501921701951691
 32
0.0
 13
1252.3441448221911
 23
28.501921701951691
 33
0.0
210
0.0
220
0.0
230
1.0
  0
SOLID
  5
765B
  8
DEFPOINTS
  6
CONTINUOUS
 10
-1251.191454822191
 20
30.061171701952389
 30
0.0
 11
-1252.3441448221911
 21
30.061171701952389
 31
0.0
 12
-1252.3441448221911
 22
28.501921701951691
 32
0.0
 13
-1252.3441448221911
 23
28.501921701951691
 33
0.0
210
0.0
220
0.0
230
-1.0
  0
SOLID
  5
765C
  8
DEFPOINTS
  6
CONTINUOUS
 10
-1262.180833079429
 20
28.415296701952229
 30
0.0
 11
-1262.477849148416
 21
28.415296701952229
 31
0.0
 12
-1262.181025475393
 22
28.032832647484149
 32
0.0
 13
-1262.181025475393
 23
28.032832647484149
 33
0.0
210
0.0
220
0.0
230
-1.0
  0
SOLID
  5
765D
  8
DEFPOINTS
  6
CONTINUOUS
 10
1290.327474822192
 20
29.021671701952531
 30
0.0
 11
1290.32747482219
 21
28.415296701952229
 31
0.0
 12
1291.6095248221909
 22
28.415296701952229
 32
0.0
 13
1291.6095248221909
 23
28.415296701952229
 33
0.0
210
0.0
220
0.0
230
1.0
  0
SOLID
  5
765E
  8
DEFPOINTS
  6
CONTINUOUS
 10
-1290.327474822192
 20
29.021671701952531
 30
0.0
 11
-1291.60952482219
 21
29.021671701952531
 31
0.0
 12
-1291.6095248221909
 22
28.415296701952229
 32
0.0
 13
-1291.6095248221909
 23
28.415296701952229
 33
0.0
210
0.0
220
0.0
230
-1.0
  0
SOLID
  5
765F
  8
DEFPOINTS
  6
CONTINUOUS
 10
1287.37067482219
 20
29.021671701952531
 30
0.0
 11
1287.3706748221921
 21
28.415296701952229
 31
0.0
 12
1288.6527248221901
 22
28.415296701952229
 32
0.0
 13
1288.6527248221901
 23
28.415296701952229
 33
0.0
210
0.0
220
0.0
230
1.0
  0
SOLID
  5
7660
  8
DEFPOINTS
  6
CONTINUOUS
 10
-1287.37067482219
 20
29.021671701952531
 30
0.0
 11
-1288.6527248221901
 21
29.021671701952531
 31
0.0
 12
-1288.6527248221901
 22
28.415296701952229
 32
0.0
 13
-1288.6527248221901
 23
28.415296701952229
 33
0.0
210
0.0
220
0.0
230
-1.0
  0
SOLID
  5
7661
  8
DEFPOINTS
  6
CONTINUOUS
 10
1284.4253274121911
 20
29.021671701952531
 30
0.0
 11
1284.4253274121911
 21
28.415296701952229
 31
0.0
 12
1285.714404822191
 22
28.415296701952229
 32
0.0
 13
1285.714404822191
 23
28.415296701952229
 33
0.0
210
0.0
220
0.0
230
1.0
  0
SOLID
  5
7662
  8
DEFPOINTS
  6
CONTINUOUS
 10
-1284.4253274121911
 20
29.021671701952531
 30
0.0
 11
-1285.7144048221919
 21
29.021671701952531
 31
0.0
 12
-1285.714404822191
 22
28.415296701952229
 32
0.0
 13
-1285.714404822191
 23
28.415296701952229
 33
0.0
210
0.0
220
0.0
230
-1.0
  0
SOLID
  5
7663
  8
DEFPOINTS
  6
CONTINUOUS
 10
1262.18043128464
 20
29.214024809176859
 30
0.0
 11
1262.180833079429
 21
28.415296701952229
 31
0.0
 12
1262.477849148416
 22
28.415296701952229
 32
0.0
 13
1262.477849148416
 23
28.415296701952229
 33
0.0
210
0.0
220
0.0
230
1.0
  0
SOLID
  5
7664
  8
DEFPOINTS
  6
CONTINUOUS
 10
-1262.18043128464
 20
29.214024809176859
 30
0.0
 11
-1263.0977280828261
 21
29.214024809176859
 31
0.0
 12
-1262.477849148416
 22
28.415296701952229
 32
0.0
 13
-1262.477849148416
 23
28.415296701952229
 33
0.0
210
0.0
220
0.0
230
-1.0
  0
SOLID
  5
7665
  8
DEFPOINTS
  6
CONTINUOUS
 10
1284.4253274121911
 20
28.415296701952229
 30
0.0
 11
1284.4253274121911
 21
28.016821701952271
 31
0.0
 12
1291.609524822192
 22
28.016821701952271
 32
0.0
 13
1291.609524822192
 23
28.016821701952271
 33
0.0
210
0.0
220
0.0
230
1.0
  0
SOLID
  5
7666
  8
DEFPOINTS
  6
CONTINUOUS
 10
-1284.4253274121911
 20
28.415296701952229
 30
0.0
 11
-1291.6095248221909
 21
28.415296701952229
 31
0.0
 12
-1291.609524822192
 22
28.016821701952271
 32
0.0
 13
-1291.609524822192
 23
28.016821701952271
 33
0.0
210
0.0
220
0.0
230
-1.0
  0
SOLID
  5
7667
  8
DEFPOINTS
  6
CONTINUOUS
 10
1278.8265263461919
 20
28.501921701951691
 30
0.0
 11
1278.999889954192
 21
28.016821701952271
 31
0.0
 12
1280.4611073601909
 22
28.016821701952271
 32
0.0
 13
1280.4611073601909
 23
28.016821701952271
 33
0.0
  0
SOLID
  5
7668
  8
DEFPOINTS
  6
CONTINUOUS
 10
-1278.8265263461919
 20
28.501921701951691
 30
0.0
 11
-1280.4611073601909
 21
28.501921701951691
 31
0.0
 12
-1280.4611073601909
 22
28.016821701952271
 32
0.0
 13
-1280.4611073601909
 23
28.016821701952271
 33
0.0
210
0.0
220
0.0
230
-1.0
  0
SOLID
  5
7669
  8
DEFPOINTS
  6
CONTINUOUS
 10
1276.557207360192
 20
29.109021431951991
 30
0.0
 11
1277.2766979821911
 21
28.016821701952271
 31
0.0
 12
1278.4282912461911
 22
28.016821701952271
 32
0.0
 13
1278.4282912461911
 23
28.016821701952271
 33
0.0
  0
SOLID
  5
766A
  8
DEFPOINTS
  6
CONTINUOUS
 10
-1276.557207360192
 20
29.109021431951991
 30
0.0
 11
-1277.708800622564
 21
29.109021431951991
 31
0.0
 12
-1278.4282912461911
 22
28.016821701952271
 32
0.0
 13
-1278.4282912461911
 23
28.016821701952271
 33
0.0
210
0.0
220
0.0
230
-1.0
  0
SOLID
  5
766B
  8
DEFPOINTS
  6
CONTINUOUS
 10
1275.4593963978921
 20
29.109021431951991
 30
0.0
 11
1274.8576231201901
 21
28.016821701952271
 31
0.0
 12
1275.955434083342
 22
28.016821701952271
 32
0.0
 13
1275.955434083342
 23
28.016821701952271
 33
0.0
210
0.0
220
0.0
230
1.0
  0
SOLID
  5
766C
  8
DEFPOINTS
  6
CONTINUOUS
 10
-1275.4593963978921
 20
29.109021431951991
 30
0.0
 11
-1276.557207360192
 21
29.109021431951991
 31
0.0
 12
-1275.955434083342
 22
28.016821701952271
 32
0.0
 13
-1275.955434083342
 23
28.016821701952271
 33
0.0
210
0.0
220
0.0
230
-1.0
  0
SOLID
  5
766D
  8
DEFPOINTS
  6
CONTINUOUS
 10
1273.870018346191
 20
30.23442170195267
 30
0.0
 11
1273.271589822192
 21
28.016821701952271
 31
0.0
 12
1274.417211296191
 22
28.016821701952271
 32
0.0
 13
1274.417211296191
 23
28.016821701952271
 33
0.0
210
0.0
220
0.0
230
1.0
  0
SOLID
  5
766E
  8
DEFPOINTS
  6
CONTINUOUS
 10
-1273.870018346191
 20
30.23442170195267
 30
0.0
 11
-1275.01563982219
 21
30.23442170195267
 31
0.0
 12
-1274.417211296191
 22
28.016821701952271
 32
0.0
 13
-1274.417211296191
 23
28.016821701952271
 33
0.0
210
0.0
220
0.0
230
-1.0
  0
SOLID
  5
766F
  8
DEFPOINTS
  6
CONTINUOUS
 10
1265.3309896601911
 20
28.501921701951691
 30
0.0
 11
1265.3309896601911
 21
28.016821701952271
 31
0.0
 12
1269.3457696601911
 22
28.016821701952271
 32
0.0
 13
1269.3457696601911
 23
28.016821701952271
 33
0.0
210
0.0
220
0.0
230
1.0
  0
SOLID
  5
7670
  8
DEFPOINTS
  6
CONTINUOUS
 10
-1265.3309896601911
 20
28.501921701951691
 30
0.0
 11
-1269.3457696601911
 21
28.501921701951691
 31
0.0
 12
-1269.3457696601911
 22
28.016821701952271
 32
0.0
 13
-1269.3457696601911
 23
28.016821701952271
 33
0.0
210
0.0
220
0.0
230
-1.0
  0
SOLID
  5
7671
  8
DEFPOINTS
  6
CONTINUOUS
 10
1263.108769660189
 20
29.214024809176859
 30
0.0
 11
1263.1087696601919
 21
28.016821701952271
 31
0.0
 12
1264.3561696601901
 22
28.016821701952271
 32
0.0
 13
1264.3561696601901
 23
28.016821701952271
 33
0.0
210
0.0
220
0.0
230
1.0
  0
SOLID
  5
7672
  8
DEFPOINTS
  6
CONTINUOUS
 10
-1263.108769660189
 20
29.214024809176859
 30
0.0
 11
-1264.356169660191
 21
29.214024809176859
 31
0.0
 12
-1264.3561696601901
 22
28.016821701952271
 32
0.0
 13
-1264.3561696601901
 23
28.016821701952271
 33
0.0
210
0.0
220
0.0
230
-1.0
  0
SOLID
  5
7673
  8
DEFPOINTS
  6
CONTINUOUS
 10
1254.2637548221901
 20
28.501921701951691
 30
0.0
 11
1254.2637548221901
 21
28.016821701952271
 31
0.0
 12
1258.3120298221911
 22
28.016821701952271
 32
0.0
 13
1258.3120298221911
 23
28.016821701952271
 33
0.0
210
0.0
220
0.0
230
1.0
  0
SOLID
  5
7674
  8
DEFPOINTS
  6
CONTINUOUS
 10
-1254.2637548221901
 20
28.501921701951691
 30
0.0
 11
-1258.3120298221911
 21
28.501921701951691
 31
0.0
 12
-1258.3120298221911
 22
28.016821701952271
 32
0.0
 13
-1258.3120298221911
 23
28.016821701952271
 33
0.0
210
0.0
220
0.0
230
-1.0
  0
SOLID
  5
7675
  8
DEFPOINTS
  6
CONTINUOUS
 10
1251.191454822191
 20
28.501921701951691
 30
0.0
 11
1251.191454822191
 21
28.016821701952271
 31
0.0
 12
1253.986554822191
 22
28.016821701952271
 32
0.0
 13
1253.986554822191
 23
28.016821701952271
 33
0.0
210
0.0
220
0.0
230
1.0
  0
SOLID
  5
7676
  8
DEFPOINTS
  6
CONTINUOUS
 10
-1251.191454822191
 20
28.501921701951691
 30
0.0
 11
-1253.986554822191
 21
28.501921701951691
 31
0.0
 12
-1253.986554822191
 22
28.016821701952271
 32
0.0
 13
-1253.986554822191
 23
28.016821701952271
 33
0.0
210
0.0
220
0.0
230
-1.0
  0
LINE
  5
7677
  8
DEFPOINTS
  6
CONTINUOUS
 10
1284.698004822191
 20
32.567521701952053
 30
0.0
 11
1284.698004822191
 21
32.128621701951943
 31
0.0
  0
LINE
  5
7678
  8
DEFPOINTS
  6
CONTINUOUS
 10
1291.403934822192
 20
32.567521701952053
 30
0.0
 11
1291.403934822192
 21
32.128621701951943
 31
0.0
  0
LINE
  5
7679
  8
DEFPOINTS
  6
CONTINUOUS
 10
1275.2373998221899
 20
32.567521701952053
 30
0.0
 11
1275.2373998221899
 21
32.128621701951943
 31
0.0
  0
LINE
  5
767A
  8
DEFPOINTS
  6
CONTINUOUS
 10
1277.852319822191
 20
32.567521701952053
 30
0.0
 11
1277.852319822191
 21
32.128621701951943
 31
0.0
  0
LINE
  5
767B
  8
DEFPOINTS
  6
CONTINUOUS
 10
1273.27158982219
 20
32.567521701952053
 30
0.0
 11
1273.271589822192
 21
32.128621701951943
 31
0.0
  0
LINE
  5
767C
  8
DEFPOINTS
  6
CONTINUOUS
 10
1275.0156398221909
 20
32.567521701952053
 30
0.0
 11
1275.0156398221909
 21
32.128621701951943
 31
0.0
  0
LINE
  5
767D
  8
DEFPOINTS
  6
CONTINUOUS
 10
1265.3309896601911
 20
32.567521701952053
 30
0.0
 11
1265.3309896601911
 21
32.128621701951943
 31
0.0
  0
LINE
  5
767E
  8
DEFPOINTS
  6
CONTINUOUS
 10
1269.3457696601911
 20
32.567521701952053
 30
0.0
 11
1269.3457696601911
 21
32.128621701951943
 31
0.0
  0
LINE
  5
767F
  8
DEFPOINTS
  6
CONTINUOUS
 10
1262.1685996601909
 20
32.567521701952053
 30
0.0
 11
1262.1685996601909
 21
32.128621701951943
 31
0.0
  0
LINE
  5
7680
  8
DEFPOINTS
  6
CONTINUOUS
 10
1265.07457966019
 20
32.567521701952053
 30
0.0
 11
1265.0745796601909
 21
32.128621701951943
 31
0.0
  0
LINE
  5
7681
  8
DEFPOINTS
  6
CONTINUOUS
 10
1254.2637548221901
 20
32.567521701952053
 30
0.0
 11
1254.2637548221901
 21
32.128621701951943
 31
0.0
  0
LINE
  5
7682
  8
DEFPOINTS
  6
CONTINUOUS
 10
1258.3120298221911
 20
32.567521701952053
 30
0.0
 11
1258.3120298221911
 21
32.128621701951943
 31
0.0
  0
LINE
  5
7683
  8
DEFPOINTS
  6
CONTINUOUS
 10
1251.191454822191
 20
32.567521701952053
 30
0.0
 11
1251.191454822191
 21
32.128621701951943
 31
0.0
  0
LINE
  5
7684
  8
DEFPOINTS
  6
CONTINUOUS
 10
1253.986554822191
 20
32.567521701952053
 30
0.0
 11
1253.986554822191
 21
32.128621701951943
 31
0.0
  0
LINE
  5
7685
  8
DEFPOINTS
  6
CONTINUOUS
 10
1290.0364148221911
 20
32.128621701951943
 30
0.0
 11
1290.0364148221911
 21
31.718596701952269
 31
0.0
  0
LINE
  5
7686
  8
DEFPOINTS
  6
CONTINUOUS
 10
1291.403934822192
 20
32.128621701951943
 30
0.0
 11
1291.4039348221911
 21
31.718596701952269
 31
0.0
  0
LINE
  5
7687
  8
DEFPOINTS
  6
CONTINUOUS
 10
1287.37067482219
 20
32.128621701951943
 30
0.0
 11
1287.37067482219
 21
31.718596701952269
 31
0.0
  0
LINE
  5
7688
  8
DEFPOINTS
  6
CONTINUOUS
 10
1288.6527248221901
 20
32.128621701951943
 30
0.0
 11
1288.6527248221921
 21
31.718596701952269
 31
0.0
  0
LINE
  5
7689
  8
DEFPOINTS
  6
CONTINUOUS
 10
1284.698004822191
 20
32.128621701951943
 30
0.0
 11
1284.698004822191
 21
31.718596701952269
 31
0.0
  0
LINE
  5
768A
  8
DEFPOINTS
  6
CONTINUOUS
 10
1286.0562848221921
 20
32.128621701951943
 30
0.0
 11
1286.0562848221921
 21
31.718596701952269
 31
0.0
  0
LINE
  5
768B
  8
DEFPOINTS
  6
CONTINUOUS
 10
1276.7735498221921
 20
32.128621701951943
 30
0.0
 11
1276.7735498221921
 21
31.46565170195208
 31
0.0
  0
LINE
  5
768C
  8
DEFPOINTS
  6
CONTINUOUS
 10
1277.852319822191
 20
32.128621701951943
 30
0.0
 11
1277.852319822191
 21
31.46565170195208
 31
0.0
  0
LINE
  5
768D
  8
DEFPOINTS
  6
CONTINUOUS
 10
1275.2373998221899
 20
32.128621701951943
 30
0.0
 11
1275.2373998221899
 21
31.46565170195208
 31
0.0
  0
LINE
  5
768E
  8
DEFPOINTS
  6
CONTINUOUS
 10
1276.34850982219
 20
32.128621701951943
 30
0.0
 11
1276.348509822192
 21
31.46565170195208
 31
0.0
  0
LINE
  5
768F
  8
DEFPOINTS
  6
CONTINUOUS
 10
1263.1087696601901
 20
32.128621701951943
 30
0.0
 11
1263.1087696601919
 21
31.46565170195208
 31
0.0
  0
LINE
  5
7690
  8
DEFPOINTS
  6
CONTINUOUS
 10
1264.356169660191
 20
32.128621701951943
 30
0.0
 11
1264.356169660191
 21
31.46565170195208
 31
0.0
  0
LINE
  5
7691
  8
DEFPOINTS
  6
CONTINUOUS
 10
1284.698004822191
 20
31.718596701952269
 30
0.0
 11
1284.698004822191
 21
31.26814670195245
 31
0.0
  0
LINE
  5
7692
  8
DEFPOINTS
  6
CONTINUOUS
 10
1291.4039348221911
 20
31.718596701952269
 30
0.0
 11
1291.4039348221911
 21
31.26814670195245
 31
0.0
  0
LINE
  5
7693
  8
DEFPOINTS
  6
CONTINUOUS
 10
1275.2373998221899
 20
31.46565170195208
 30
0.0
 11
1275.2373998221899
 21
31.01982170195242
 31
0.0
  0
LINE
  5
7694
  8
DEFPOINTS
  6
CONTINUOUS
 10
1277.852319822191
 20
31.46565170195208
 30
0.0
 11
1277.852319822191
 21
31.01982170195242
 31
0.0
  0
LINE
  5
7695
  8
DEFPOINTS
  6
CONTINUOUS
 10
1273.271589822192
 20
31.46565170195208
 30
0.0
 11
1273.271589822192
 21
31.01982170195242
 31
0.0
  0
LINE
  5
7696
  8
DEFPOINTS
  6
CONTINUOUS
 10
1275.0156398221909
 20
31.46565170195208
 30
0.0
 11
1275.0156398221909
 21
31.01982170195242
 31
0.0
  0
LINE
  5
7697
  8
DEFPOINTS
  6
CONTINUOUS
 10
1262.1685996601909
 20
31.46565170195208
 30
0.0
 11
1262.1685996601921
 21
31.01982170195242
 31
0.0
  0
LINE
  5
7698
  8
DEFPOINTS
  6
CONTINUOUS
 10
1265.07457966019
 20
31.46565170195208
 30
0.0
 11
1265.07457966019
 21
31.01982170195242
 31
0.0
  0
LINE
  5
7699
  8
DEFPOINTS
  6
CONTINUOUS
 10
1257.0242048221919
 20
32.128621701951943
 30
0.0
 11
1257.02466222219
 21
30.934351701952441
 31
0.0
  0
LINE
  5
769A
  8
DEFPOINTS
  6
CONTINUOUS
 10
1258.3120298221911
 20
32.128621701951943
 30
0.0
 11
1258.3120298221911
 21
30.934351701952441
 31
0.0
  0
LINE
  5
769B
  8
DEFPOINTS
  6
CONTINUOUS
 10
1257.02466222219
 20
30.934351701952441
 30
0.0
 11
1256.576522222193
 21
30.918181701952111
 31
0.0
  0
LINE
  5
769C
  8
DEFPOINTS
  6
CONTINUOUS
 10
1258.3120298221911
 20
30.934351701952441
 30
0.0
 11
1258.3120298221911
 21
30.918181701952111
 31
0.0
  0
LINE
  5
769D
  8
DEFPOINTS
  6
CONTINUOUS
 10
1284.698004822191
 20
31.01982170195242
 30
0.0
 11
1284.698004822191
 21
30.594781701952339
 31
0.0
  0
LINE
  5
769E
  8
DEFPOINTS
  6
CONTINUOUS
 10
1291.4039348221911
 20
31.01982170195242
 30
0.0
 11
1291.4039348221911
 21
30.594781701952339
 31
0.0
  0
LINE
  5
769F
  8
DEFPOINTS
  6
CONTINUOUS
 10
1263.1087696601901
 20
31.01982170195242
 30
0.0
 11
1262.7502195296879
 21
30.55782170195198
 31
0.0
  0
LINE
  5
76A0
  8
DEFPOINTS
  6
CONTINUOUS
 10
1264.356169660191
 20
31.01982170195242
 30
0.0
 11
1265.0837948221899
 21
30.55782170195198
 31
0.0
  0
LINE
  5
76A1
  8
DEFPOINTS
  6
CONTINUOUS
 10
1276.7735498221909
 20
31.01982170195242
 30
0.0
 11
1276.7735498221909
 21
30.53934170195225
 31
0.0
  0
LINE
  5
76A2
  8
DEFPOINTS
  6
CONTINUOUS
 10
1277.852319822191
 20
31.01982170195242
 30
0.0
 11
1277.852319822191
 21
30.53934170195225
 31
0.0
  0
LINE
  5
76A3
  8
DEFPOINTS
  6
CONTINUOUS
 10
1275.2373998221899
 20
31.01982170195242
 30
0.0
 11
1275.2373998221899
 21
30.53934170195225
 31
0.0
  0
LINE
  5
76A4
  8
DEFPOINTS
  6
CONTINUOUS
 10
1276.3485098221911
 20
31.01982170195242
 30
0.0
 11
1276.348509822192
 21
30.53934170195225
 31
0.0
  0
LINE
  5
76A5
  8
DEFPOINTS
  6
CONTINUOUS
 10
1252.854654822193
 20
32.128621701951943
 30
0.0
 11
1252.8546548221909
 21
30.53934170195225
 31
0.0
  0
LINE
  5
76A6
  8
DEFPOINTS
  6
CONTINUOUS
 10
1253.986554822191
 20
32.128621701951943
 30
0.0
 11
1253.986554822191
 21
30.53934170195225
 31
0.0
  0
LINE
  5
76A7
  8
DEFPOINTS
  6
CONTINUOUS
 10
1251.191454822191
 20
32.128621701951943
 30
0.0
 11
1251.191454822191
 21
30.53934170195225
 31
0.0
  0
LINE
  5
76A8
  8
DEFPOINTS
  6
CONTINUOUS
 10
1252.3441448221899
 20
32.128621701951943
 30
0.0
 11
1252.3441448221899
 21
30.53934170195225
 31
0.0
  0
LINE
  5
76A9
  8
DEFPOINTS
  6
CONTINUOUS
 10
1256.576522222193
 20
30.918181701952111
 30
0.0
 11
1256.693874822193
 21
30.45387170195227
 31
0.0
  0
LINE
  5
76AA
  8
DEFPOINTS
  6
CONTINUOUS
 10
1258.3120298221911
 20
30.918181701952111
 30
0.0
 11
1258.3120298221911
 21
30.45387170195227
 31
0.0
  0
LINE
  5
76AB
  8
DEFPOINTS
  6
CONTINUOUS
 10
1255.05610966019
 20
32.128621701951943
 30
0.0
 11
1254.2637548221919
 21
30.45387170195227
 31
0.0
  0
LINE
  5
76AC
  8
DEFPOINTS
  6
CONTINUOUS
 10
1256.4975496601901
 20
32.128621701951943
 30
0.0
 11
1255.705194822189
 21
30.45387170195227
 31
0.0
  0
LINE
  5
76AD
  8
DEFPOINTS
  6
CONTINUOUS
 10
1287.37067482219
 20
30.594781701952339
 30
0.0
 11
1287.37067482219
 21
30.18244670195191
 31
0.0
  0
LINE
  5
76AE
  8
DEFPOINTS
  6
CONTINUOUS
 10
1288.6527248221901
 20
30.594781701952339
 30
0.0
 11
1288.6527248221901
 21
30.18244670195191
 31
0.0
  0
LINE
  5
76AF
  8
DEFPOINTS
  6
CONTINUOUS
 10
1275.2373998221899
 20
30.53934170195225
 30
0.0
 11
1275.2373998221899
 21
30.061171701952389
 31
0.0
  0
LINE
  5
76B0
  8
DEFPOINTS
  6
CONTINUOUS
 10
1277.852319822191
 20
30.53934170195225
 30
0.0
 11
1277.852319822191
 21
30.061171701952389
 31
0.0
  0
LINE
  5
76B1
  8
DEFPOINTS
  6
CONTINUOUS
 10
1251.191454822191
 20
30.53934170195225
 30
0.0
 11
1251.191454822191
 21
30.061171701952389
 31
0.0
  0
LINE
  5
76B2
  8
DEFPOINTS
  6
CONTINUOUS
 10
1253.986554822191
 20
30.53934170195225
 30
0.0
 11
1253.986554822191
 21
30.061171701952389
 31
0.0
  0
LINE
  5
76B3
  8
DEFPOINTS
  6
CONTINUOUS
 10
1262.7502195296879
 20
30.55782170195198
 30
0.0
 11
1262.18012482219
 21
29.823241701952611
 31
0.0
  0
LINE
  5
76B4
  8
DEFPOINTS
  6
CONTINUOUS
 10
1265.0837948221899
 20
30.55782170195198
 30
0.0
 11
1265.0843629333281
 21
29.823241701952611
 31
0.0
  0
LINE
  5
76B5
  8
DEFPOINTS
  6
CONTINUOUS
 10
1284.425327412192
 20
30.18244670195191
 30
0.0
 11
1284.425327412192
 21
29.759716701951682
 31
0.0
  0
LINE
  5
76B6
  8
DEFPOINTS
  6
CONTINUOUS
 10
1291.60952482219
 20
30.18244670195191
 30
0.0
 11
1291.60952482219
 21
29.759716701951682
 31
0.0
  0
LINE
  5
76B7
  8
DEFPOINTS
  6
CONTINUOUS
 10
1262.18012482219
 20
29.823241701952611
 30
0.0
 11
1262.1801985467091
 21
29.676684684825432
 31
0.0
  0
LINE
  5
76B8
  8
DEFPOINTS
  6
CONTINUOUS
 10
1265.0843629333281
 20
29.823241701952611
 30
0.0
 11
1265.0844762779241
 21
29.676684684825432
 31
0.0
  0
LINE
  5
76B9
  8
DEFPOINTS
  6
CONTINUOUS
 10
1276.7735498221909
 20
30.061171701952389
 30
0.0
 11
1276.7735498221909
 21
29.601481701952249
 31
0.0
  0
LINE
  5
76BA
  8
DEFPOINTS
  6
CONTINUOUS
 10
1277.852319822191
 20
30.061171701952389
 30
0.0
 11
1277.852319822191
 21
29.601481701952249
 31
0.0
  0
LINE
  5
76BB
  8
DEFPOINTS
  6
CONTINUOUS
 10
1275.2373998221899
 20
30.061171701952389
 30
0.0
 11
1275.2373998221899
 21
29.601481701952249
 31
0.0
  0
LINE
  5
76BC
  8
DEFPOINTS
  6
CONTINUOUS
 10
1276.348509822189
 20
30.061171701952389
 30
0.0
 11
1276.3485098221911
 21
29.601481701952249
 31
0.0
  0
LINE
  5
76BD
  8
DEFPOINTS
  6
CONTINUOUS
 10
1254.2637548221901
 20
30.061171701952389
 30
0.0
 11
1254.2637548221901
 21
29.5991717019524
 31
0.0
  0
LINE
  5
76BE
  8
DEFPOINTS
  6
CONTINUOUS
 10
1258.3120298221911
 20
30.061171701952389
 30
0.0
 11
1258.3120298221911
 21
29.5991717019524
 31
0.0
  0
LINE
  5
76BF
  8
DEFPOINTS
  6
CONTINUOUS
 10
1265.0848230877029
 20
29.228252132768372
 30
0.0
 11
1265.0848340908631
 21
29.214024809176859
 31
0.0
  0
LINE
  5
76C0
  8
DEFPOINTS
  6
CONTINUOUS
 10
1265.0848340908631
 20
29.214024809176859
 30
0.0
 11
1265.062426821094
 21
29.228252132768372
 31
0.0
  0
LINE
  5
76C1
  8
DEFPOINTS
  6
CONTINUOUS
 10
1264.356169660191
 20
29.676684684825432
 30
0.0
 11
1265.062426821094
 21
29.228252132768372
 31
0.0
  0
LINE
  5
76C2
  8
DEFPOINTS
  6
CONTINUOUS
 10
1265.0844762779241
 20
29.676684684825432
 30
0.0
 11
1265.0848230877029
 21
29.228252132768372
 31
0.0
  0
LINE
  5
76C3
  8
DEFPOINTS
  6
CONTINUOUS
 10
1262.1801985467091
 20
29.676684684825432
 30
0.0
 11
1262.1804241276809
 21
29.228252132768372
 31
0.0
  0
LINE
  5
76C4
  8
DEFPOINTS
  6
CONTINUOUS
 10
1264.356169660191
 20
29.676684684825432
 30
0.0
 11
1264.356169660191
 21
29.228252132768372
 31
0.0
  0
LINE
  5
76C5
  8
DEFPOINTS
  6
CONTINUOUS
 10
1264.356169660191
 20
29.228252132768372
 30
0.0
 11
1264.356169660191
 21
29.214024809176859
 31
0.0
  0
LINE
  5
76C6
  8
DEFPOINTS
  6
CONTINUOUS
 10
1262.1804241276809
 20
29.228252132768372
 30
0.0
 11
1262.18043128464
 21
29.214024809176859
 31
0.0
  0
LINE
  5
76C7
  8
DEFPOINTS
  6
CONTINUOUS
 10
1278.023259822191
 20
32.567521701952053
 30
0.0
 11
1278.023259822191
 21
29.123311701951931
 31
0.0
  0
LINE
  5
76C8
  8
DEFPOINTS
  6
CONTINUOUS
 10
1279.0650698221909
 20
32.567521701952053
 30
0.0
 11
1279.0650698221909
 21
29.123311701951931
 31
0.0
  0
LINE
  5
76C9
  8
DEFPOINTS
  6
CONTINUOUS
 10
1275.2373998221899
 20
29.601481701952249
 30
0.0
 11
1275.2373998221899
 21
29.123311701951931
 31
0.0
  0
LINE
  5
76CA
  8
DEFPOINTS
  6
CONTINUOUS
 10
1277.852319822191
 20
29.601481701952249
 30
0.0
 11
1277.852319822191
 21
29.123311701951931
 31
0.0
  0
LINE
  5
76CB
  8
DEFPOINTS
  6
CONTINUOUS
 10
1275.4672699601911
 20
29.123311701951931
 30
0.0
 11
1275.4593963978921
 21
29.109021431951991
 31
0.0
  0
LINE
  5
76CC
  8
DEFPOINTS
  6
CONTINUOUS
 10
1277.699386854192
 20
29.123311701951931
 30
0.0
 11
1277.708800622564
 21
29.109021431951991
 31
0.0
  0
LINE
  5
76CD
  8
DEFPOINTS
  6
CONTINUOUS
 10
1284.4253274121911
 20
29.42592170195212
 30
0.0
 11
1284.4253274121911
 21
29.021671701952531
 31
0.0
  0
LINE
  5
76CE
  8
DEFPOINTS
  6
CONTINUOUS
 10
1291.60952482219
 20
29.42592170195212
 30
0.0
 11
1291.60952482219
 21
29.021671701952531
 31
0.0
  0
LINE
  5
76CF
  8
DEFPOINTS
  6
CONTINUOUS
 10
1279.3499973601899
 20
32.567521701952053
 30
0.0
 11
1279.3499973601899
 21
28.501921701951691
 31
0.0
  0
LINE
  5
76D0
  8
DEFPOINTS
  6
CONTINUOUS
 10
1280.461107360192
 20
32.567521701952053
 30
0.0
 11
1280.4611073601909
 21
28.501921701951691
 31
0.0
  0
LINE
  5
76D1
  8
DEFPOINTS
  6
CONTINUOUS
 10
1268.012899660192
 20
32.128621701951943
 30
0.0
 11
1268.01289966019
 21
28.501921701951691
 31
0.0
  0
LINE
  5
76D2
  8
DEFPOINTS
  6
CONTINUOUS
 10
1269.3457696601911
 20
32.128621701951943
 30
0.0
 11
1269.3457696601911
 21
28.501921701951691
 31
0.0
  0
LINE
  5
76D3
  8
DEFPOINTS
  6
CONTINUOUS
 10
1265.3309896601911
 20
32.128621701951943
 30
0.0
 11
1265.3309896601911
 21
28.501921701951691
 31
0.0
  0
LINE
  5
76D4
  8
DEFPOINTS
  6
CONTINUOUS
 10
1266.629209660191
 20
32.128621701951943
 30
0.0
 11
1266.6292096601919
 21
28.501921701951691
 31
0.0
  0
LINE
  5
76D5
  8
DEFPOINTS
  6
CONTINUOUS
 10
1257.0242048221919
 20
29.5991717019524
 30
0.0
 11
1257.0242048221919
 21
28.501921701951691
 31
0.0
  0
LINE
  5
76D6
  8
DEFPOINTS
  6
CONTINUOUS
 10
1258.3120298221911
 20
29.5991717019524
 30
0.0
 11
1258.3120298221911
 21
28.501921701951691
 31
0.0
  0
LINE
  5
76D7
  8
DEFPOINTS
  6
CONTINUOUS
 10
1254.2637548221901
 20
29.5991717019524
 30
0.0
 11
1254.2637548221901
 21
28.501921701951691
 31
0.0
  0
LINE
  5
76D8
  8
DEFPOINTS
  6
CONTINUOUS
 10
1255.5862298221909
 20
29.5991717019524
 30
0.0
 11
1255.5862298221921
 21
28.501921701951691
 31
0.0
  0
LINE
  5
76D9
  8
DEFPOINTS
  6
CONTINUOUS
 10
1252.8546548221909
 20
30.061171701952389
 30
0.0
 11
1252.8546548221909
 21
28.501921701951691
 31
0.0
  0
LINE
  5
76DA
  8
DEFPOINTS
  6
CONTINUOUS
 10
1253.986554822191
 20
30.061171701952389
 30
0.0
 11
1253.986554822191
 21
28.501921701951691
 31
0.0
  0
LINE
  5
76DB
  8
DEFPOINTS
  6
CONTINUOUS
 10
1251.191454822191
 20
30.061171701952389
 30
0.0
 11
1251.191454822191
 21
28.501921701951691
 31
0.0
  0
LINE
  5
76DC
  8
DEFPOINTS
  6
CONTINUOUS
 10
1252.3441448221911
 20
30.061171701952389
 30
0.0
 11
1252.3441448221911
 21
28.501921701951691
 31
0.0
  0
LINE
  5
76DD
  8
DEFPOINTS
  6
CONTINUOUS
 10
1262.477849148416
 20
28.415296701952229
 30
0.0
 11
1262.181025475393
 21
28.032832647484149
 31
0.0
  0
LINE
  5
76DE
  8
DEFPOINTS
  6
CONTINUOUS
 10
1262.181025475393
 20
28.032832647484149
 30
0.0
 11
1262.180833079429
 21
28.415296701952229
 31
0.0
  0
LINE
  5
76DF
  8
DEFPOINTS
  6
CONTINUOUS
 10
1290.327474822192
 20
29.021671701952531
 30
0.0
 11
1290.32747482219
 21
28.415296701952229
 31
0.0
  0
LINE
  5
76E0
  8
DEFPOINTS
  6
CONTINUOUS
 10
1291.60952482219
 20
29.021671701952531
 30
0.0
 11
1291.6095248221909
 21
28.415296701952229
 31
0.0
  0
LINE
  5
76E1
  8
DEFPOINTS
  6
CONTINUOUS
 10
1287.37067482219
 20
29.021671701952531
 30
0.0
 11
1287.3706748221921
 21
28.415296701952229
 31
0.0
  0
LINE
  5
76E2
  8
DEFPOINTS
  6
CONTINUOUS
 10
1288.6527248221901
 20
29.021671701952531
 30
0.0
 11
1288.6527248221901
 21
28.415296701952229
 31
0.0
  0
LINE
  5
76E3
  8
DEFPOINTS
  6
CONTINUOUS
 10
1284.4253274121911
 20
29.021671701952531
 30
0.0
 11
1284.4253274121911
 21
28.415296701952229
 31
0.0
  0
LINE
  5
76E4
  8
DEFPOINTS
  6
CONTINUOUS
 10
1285.7144048221919
 20
29.021671701952531
 30
0.0
 11
1285.714404822191
 21
28.415296701952229
 31
0.0
  0
LINE
  5
76E5
  8
DEFPOINTS
  6
CONTINUOUS
 10
1262.18043128464
 20
29.214024809176859
 30
0.0
 11
1262.180833079429
 21
28.415296701952229
 31
0.0
  0
LINE
  5
76E6
  8
DEFPOINTS
  6
CONTINUOUS
 10
1263.0977280828261
 20
29.214024809176859
 30
0.0
 11
1262.477849148416
 21
28.415296701952229
 31
0.0
  0
LINE
  5
76E7
  8
DEFPOINTS
  6
CONTINUOUS
 10
1284.4253274121911
 20
28.415296701952229
 30
0.0
 11
1284.4253274121911
 21
28.016821701952271
 31
0.0
  0
LINE
  5
76E8
  8
DEFPOINTS
  6
CONTINUOUS
 10
1291.6095248221909
 20
28.415296701952229
 30
0.0
 11
1291.609524822192
 21
28.016821701952271
 31
0.0
  0
LINE
  5
76E9
  8
DEFPOINTS
  6
CONTINUOUS
 10
1278.8265263461919
 20
28.501921701951691
 30
0.0
 11
1278.999889954192
 21
28.016821701952271
 31
0.0
  0
LINE
  5
76EA
  8
DEFPOINTS
  6
CONTINUOUS
 10
1280.4611073601909
 20
28.501921701951691
 30
0.0
 11
1280.4611073601909
 21
28.016821701952271
 31
0.0
  0
LINE
  5
76EB
  8
DEFPOINTS
  6
CONTINUOUS
 10
1276.557207360192
 20
29.109021431951991
 30
0.0
 11
1277.2766979821911
 21
28.016821701952271
 31
0.0
  0
LINE
  5
76EC
  8
DEFPOINTS
  6
CONTINUOUS
 10
1277.708800622564
 20
29.109021431951991
 30
0.0
 11
1278.4282912461911
 21
28.016821701952271
 31
0.0
  0
LINE
  5
76ED
  8
DEFPOINTS
  6
CONTINUOUS
 10
1275.4593963978921
 20
29.109021431951991
 30
0.0
 11
1274.8576231201901
 21
28.016821701952271
 31
0.0
  0
LINE
  5
76EE
  8
DEFPOINTS
  6
CONTINUOUS
 10
1276.557207360192
 20
29.109021431951991
 30
0.0
 11
1275.955434083342
 21
28.016821701952271
 31
0.0
  0
LINE
  5
76EF
  8
DEFPOINTS
  6
CONTINUOUS
 10
1273.870018346191
 20
30.23442170195267
 30
0.0
 11
1273.271589822192
 21
28.016821701952271
 31
0.0
  0
LINE
  5
76F0
  8
DEFPOINTS
  6
CONTINUOUS
 10
1275.01563982219
 20
30.23442170195267
 30
0.0
 11
1274.417211296191
 21
28.016821701952271
 31
0.0
  0
LINE
  5
76F1
  8
DEFPOINTS
  6
CONTINUOUS
 10
1265.3309896601911
 20
28.501921701951691
 30
0.0
 11
1265.3309896601911
 21
28.016821701952271
 31
0.0
  0
LINE
  5
76F2
  8
DEFPOINTS
  6
CONTINUOUS
 10
1269.3457696601911
 20
28.501921701951691
 30
0.0
 11
1269.3457696601911
 21
28.016821701952271
 31
0.0
  0
LINE
  5
76F3
  8
DEFPOINTS
  6
CONTINUOUS
 10
1263.108769660189
 20
29.214024809176859
 30
0.0
 11
1263.1087696601919
 21
28.016821701952271
 31
0.0
  0
LINE
  5
76F4
  8
DEFPOINTS
  6
CONTINUOUS
 10
1264.356169660191
 20
29.214024809176859
 30
0.0
 11
1264.3561696601901
 21
28.016821701952271
 31
0.0
  0
LINE
  5
76F5
  8
DEFPOINTS
  6
CONTINUOUS
 10
1254.2637548221901
 20
28.501921701951691
 30
0.0
 11
1254.2637548221901
 21
28.016821701952271
 31
0.0
  0
LINE
  5
76F6
  8
DEFPOINTS
  6
CONTINUOUS
 10
1258.3120298221911
 20
28.501921701951691
 30
0.0
 11
1258.3120298221911
 21
28.016821701952271
 31
0.0
  0
LINE
  5
76F7
  8
DEFPOINTS
  6
CONTINUOUS
 10
1251.191454822191
 20
28.501921701951691
 30
0.0
 11
1251.191454822191
 21
28.016821701952271
 31
0.0
  0
LINE
  5
76F8
  8
DEFPOINTS
  6
CONTINUOUS
 10
1253.986554822191
 20
28.501921701951691
 30
0.0
 11
1253.986554822191
 21
28.016821701952271
 31
0.0
  0
ENDBLK
  5
76FA
  8
0
  0
BLOCK
  8
0
  2
*U35
 70
     1
 10
0.0
 20
0.0
 30
0.0
  3
*U35
  1

  0
TEXT
  5
7775
  8
002寸法
 62
     2
 10
7.1499999999999986
 20
7.9282032302754706
 30
0.0
 40
3.0
  1
G
 41
0.9
  0
ENDBLK
  5
7777
  8
0
  0
BLOCK
  8
0
  2
*U36
 70
     1
 10
0.0
 20
0.0
 30
0.0
  3
*U36
  1

  0
TEXT
  5
7784
  8
003注釈
 10
1312.0
 20
67.999999999999815
 30
0.0
 40
6.0
  1
外観図
 41
0.9
  0
ENDBLK
  5
7786
  8
0
  0
BLOCK
  8
0
  2
*U37
 70
     1
 10
0.0
 20
0.0
 30
0.0
  3
*U37
  1

  0
TEXT
  5
7788
  8
003注釈
 10
1310.9714285714281
 20
24.0
 30
0.0
 40
6.0
  1
I-0103-A010-2
 41
0.9
  0
ENDBLK
  5
778A
  8
0
  0
BLOCK
  8
0
  2
*U38
 70
     1
 10
0.0
 20
0.0
 30
0.0
  3
*U38
  1

  0
TEXT
  5
778C
  8
003注釈
 10
1311.742857142857
 20
45.999999999999822
 30
0.0
 40
6.0
  1
TQP-□NB
 41
0.9
  0
ENDBLK
  5
778E
  8
0
  0
BLOCK
  8
0
  2
*U39
 70
     1
 10
0.0
 20
0.0
 30
0.0
  3
*U39
  1

  0
TEXT
  5
7790
  8
003注釈
 10
1278.3714285714279
 20
73.333333333332874
 30
0.0
 40
4.0
  1
2016.
 41
0.9
  0
TEXT
  5
7791
  8
003注釈
 10
1278.2
 20
66.666666666666202
 30
0.0
 40
4.0
  1
07.14
 41
0.9
  0
ENDBLK
  5
7793
  8
0
  0
BLOCK
  8
0
  2
*U40
 70
     1
 10
0.0
 20
0.0
 30
0.0
  3
*U40
  1

  0
TEXT
  5
7795
  8
003注釈
 10
1147.071428571428
 20
46.999999999999538
 30
0.0
 40
6.0
  1
1  2
 41
0.9
  0
ENDBLK
  5
7797
  8
0
  0
BLOCK
  8
0
  2
*U41
 70
     1
 10
0.0
 20
0.0
 30
0.0
  3
*U41
  1

  0
TEXT
  5
7799
  8
003注釈
 10
1280.24
 20
46.999999999999538
 30
0.0
 40
6.0
  1
益子
 41
0.9
  0
ENDBLK
  5
779B
  8
0
  0
BLOCK
  8
0
  2
*U42
 70
     1
 10
0.0
 20
0.0
 30
0.0
  3
*U42
  1

  0
TEXT
  5
779D
  8
003注釈
 10
1264.0
 20
192.8571428571428
 30
0.0
 40
6.0
  1
負荷方向　　：時計回り(-)/反時計回り(+)
 41
0.9
  0
TEXT
  5
779E
  8
003注釈
 10
1264.0
 20
176.28571428571431
 30
0.0
 40
6.0
  1
使用キー寸法：18
 41
0.9
  0
TEXT
  5
779F
  8
003注釈
 10
1319.6457142857139
 20
180.28571428571419
 30
0.0
 40
3.0
  1
 0
 41
0.9
  0
TEXT
  5
77A0
  8
003注釈
 10
1319.1314285714279
 20
176.28571428571431
 30
0.0
 40
3.0
  1
-0.043
 41
0.9
  0
TEXT
  5
77A1
  8
003注釈
 10
1334.045714285714
 20
176.28571428571431
 30
0.0
 40
6.0
  1
 \U+00D7 11
 41
0.9
  0
TEXT
  5
77A2
  8
003注釈
 10
1361.6114285714291
 20
180.28571428571419
 30
0.0
 40
3.0
  1
 0
 41
0.9
  0
TEXT
  5
77A3
  8
003注釈
 10
1361.0971428571429
 20
176.28571428571431
 30
0.0
 40
3.0
  1
-0.110
 41
0.9
  0
ENDBLK
  5
77A5
  8
0
  0
BLOCK
  8
0
  2
*U43
 70
     1
 10
0.0
 20
0.0
 30
0.0
  3
*U43
  1

  0
TEXT
  5
77AB
  8
003注釈
 10
1122.0
 20
36.0
 30
0.0
 40
4.0
  1
来歴
 50
90.0
 41
0.9
  0
TEXT
  5
77AC
  8
003注釈
 10
1128.0
 20
35.314285714285717
 30
0.0
 40
4.0
  1
I-0103-A010
 50
90.0
 41
0.9
  0
ENDBLK
  5
77AE
  8
0
  0
BLOCK
  8
0
  2
*U44
 70
     1
 10
0.0
 20
0.0
 30
0.0
  3
*U44
  1

  0
TEXT
  5
77B0
  8
003注釈
 10
1121.9282032302749
 20
82.371428571428609
 30
0.0
 40
4.0
  1
2016.
 50
90.0
 41
0.9
  0
TEXT
  5
77B1
  8
003注釈
 10
1127.9282032302749
 20
82.200000000000045
 30
0.0
 40
4.0
  1
07.14
 50
90.0
 41
0.9
  0
ENDBLK
  5
77B3
  8
0
  0
BLOCK
  8
0
  2
*U45
 70
     1
 10
0.0
 20
0.0
 30
0.0
  3
*U45
  1

  0
INSERT
  5
77C9
  8
002寸法
  2
_OPEN
 10
855.53553390593277
 20
454.03553390593271
 30
0.0
 41
2.5
 42
2.5
 43
2.5
 50
44.999999999999538
  0
POLYLINE
  5
77CA
  8
002寸法
 66
     1
 10
0.0
 20
0.0
 30
0.0
  0
VERTEX
  5
77CB
  8
002寸法
 10
853.76776695296644
 20
452.26776695296633
 30
0.0
  0
VERTEX
  5
77CC
  8
002寸法
 10
852.0
 20
450.49999999999989
 30
0.0
  0
SEQEND
  5
77CD
  8
002寸法
  0
ENDBLK
  5
77CF
  8
0
  0
BLOCK
  8
0
  2
*U46
 70
     1
 10
0.0
 20
0.0
 30
0.0
  3
*U46
  1

  0
INSERT
  5
77D1
  8
002寸法
  2
_OPEN
 10
838.46446609406723
 20
454.03553390593271
 30
0.0
 41
2.5
 42
2.5
 43
2.5
 50
135.0000000000004
  0
POLYLINE
  5
77D2
  8
002寸法
 66
     1
 10
0.0
 20
0.0
 30
0.0
  0
VERTEX
  5
77D3
  8
002寸法
 10
840.23223304703345
 20
452.26776695296633
 30
0.0
  0
VERTEX
  5
77D4
  8
002寸法
 10
842.0
 20
450.49999999999989
 30
0.0
  0
SEQEND
  5
77D5
  8
002寸法
  0
ENDBLK
  5
77D7
  8
0
  0
BLOCK
  8
0
  2
*U47
 70
     1
 10
0.0
 20
0.0
 30
0.0
  3
*U47
  1

  0
TEXT
  5
77D9
  8
003注釈
 10
1292.4571428571419
 20
144.0
 30
0.0
 40
6.0
  1
1,2 kN･m
 41
0.9
  0
ENDBLK
  5
77DB
  8
0
  0
BLOCK
  8
0
  2
*U48
 70
     1
 10
0.0
 20
0.0
 30
0.0
  3
*U48
  1

  0
POLYLINE
  5
77DD
  8
002寸法
 66
     1
 10
0.0
 20
0.0
 30
0.0
  0
VERTEX
  5
77DE
  8
002寸法
 10
855.53553390593277
 20
454.0355339059326
 30
0.0
  0
VERTEX
  5
77DF
  8
002寸法
 10
864.37436867076462
 20
462.87436867076462
 30
0.0
  0
VERTEX
  5
77E0
  8
002寸法
 10
871.26360902461045
 20
469.76360902461062
 30
0.0
  0
SEQEND
  5
77E1
  8
002寸法
  0
ENDBLK
  5
77E3
  8
0
  0
BLOCK
  8
0
  2
*U49
 70
     1
 10
0.0
 20
0.0
 30
0.0
  3
*U49
  1

  0
TEXT
  5
77E5
  8
002寸法
 62
     2
 10
863.64705883868692
 20
463.56127240106008
 30
0.0
 40
6.0
  1
R5
 50
45.0
 41
0.9
  0
ENDBLK
  5
77E7
  8
0
  0
BLOCK
  8
0
  2
*U50
 70
     1
 10
0.0
 20
0.0
 30
0.0
  3
*U50
  1

  0
POLYLINE
  5
77E9
  8
002寸法
 66
     1
 10
0.0
 20
0.0
 30
0.0
  0
VERTEX
  5
77EA
  8
002寸法
 10
838.46446609406723
 20
454.0355339059326
 30
0.0
  0
VERTEX
  5
77EB
  8
002寸法
 10
829.62563132923549
 20
462.87436867076451
 30
0.0
  0
VERTEX
  5
77EC
  8
002寸法
 10
822.73639097538933
 20
469.7636090246105
 30
0.0
  0
SEQEND
  5
77ED
  8
002寸法
  0
ENDBLK
  5
77EF
  8
0
  0
BLOCK
  8
0
  2
*U51
 70
     1
 10
0.0
 20
0.0
 30
0.0
  3
*U51
  1

  0
TEXT
  5
77F1
  8
002寸法
 62
     2
 10
822.7161879244984
 20
471.19802563787482
 30
0.0
 40
6.0
  1
R5
 50
315.0
 41
0.9
  0
ENDBLK
  5
77F3
  8
0
  0
BLOCK
  8
0
  2
*U52
 70
     1
 10
0.0
 20
0.0
 30
0.0
  3
*U52
  1

  0
TEXT
  5
77FE
  8
002寸法
 62
     2
 10
1360.5
 20
362.67142857142881
 30
0.0
 40
6.0
  1
161
 50
90.0
 41
0.9
  0
ENDBLK
  5
7800
  8
0
  0
BLOCK
  8
0
  2
*U53
 70
     1
 10
0.0
 20
0.0
 30
0.0
  3
*U53
  1

  0
TEXT
  5
7802
  8
002寸法
 62
     2
 10
1380.5
 20
362.02857142857158
 30
0.0
 40
6.0
  1
179
 50
90.0
 41
0.9
  0
ENDBLK
  5
7804
  8
0
  0
BLOCK
  8
0
  2
*U54
 70
     1
 10
0.0
 20
0.0
 30
0.0
  3
*U54
  1

  0
TEXT
  5
7806
  8
002寸法
 62
     2
 10
1258.4714285714281
 20
480.49999999999989
 30
0.0
 40
6.0
  1
15
 41
0.9
  0
ENDBLK
  5
7808
  8
0
  0
BLOCK
  8
0
  2
*U55
 70
     1
 10
0.0
 20
0.0
 30
0.0
  3
*U55
  1

  0
TEXT
  5
780A
  8
002寸法
 62
     2
 10
1239.4000000000001
 20
251.5
 30
0.0
 40
6.0
  1
168
 41
0.9
  0
ENDBLK
  5
780C
  8
0
  0
BLOCK
  8
0
  2
*U56
 70
     1
 10
0.0
 20
0.0
 30
0.0
  3
*U56
  1

  0
TEXT
  5
780E
  8
002寸法
 62
     2
 10
1228.6071428571429
 20
405.0
 30
0.0
 40
6.0
  1
7
 41
0.9
  0
TEXT
  5
780F
  8
002寸法
 62
     2
 10
1233.235714285714
 20
409.0
 30
0.0
 40
3.0
  1
+0.2
 41
0.9
  0
TEXT
  5
7810
  8
002寸法
 62
     2
 10
1233.75
 20
405.0
 30
0.0
 40
3.0
  1
 0
 41
0.9
  0
ENDBLK
  5
7812
  8
0
  0
BLOCK
  8
0
  2
*U57
 70
     1
 10
0.0
 20
0.0
 30
0.0
  3
*U57
  1

  0
TEXT
  5
7814
  8
002寸法
 62
     2
 10
1105.0
 20
356.4485714285716
 30
0.0
 40
6.0
  1
\U+03C663h7
 50
90.0
 41
0.9
  0
ENDBLK
  5
7816
  8
0
  0
BLOCK
  8
0
  2
*U58
 70
     1
 10
0.0
 20
0.0
 30
0.0
  3
*U58
  1

  0
TEXT
  5
7818
  8
002寸法
 62
     2
 10
1125.0
 20
358.89142857142872
 30
0.0
 40
6.0
  1
\U+03C6135
 50
90.0
 41
0.9
  0
ENDBLK
  5
781A
  8
0
  0
BLOCK
  8
0
  2
*U59
 70
     1
 10
0.0
 20
0.0
 30
0.0
  3
*U59
  1

  0
TEXT
  5
781C
  8
002寸法
 62
     2
 10
669.99999999999989
 20
356.44857142857148
 30
0.0
 40
6.0
  1
\U+03C663h7
 50
90.0
 41
0.9
  0
ENDBLK
  5
781E
  8
0
  0
BLOCK
  8
0
  2
*U60
 70
     1
 10
0.0
 20
0.0
 30
0.0
  3
*U60
  1

  0
TEXT
  5
7820
  8
002寸法
 62
     2
 10
841.85714285714266
 20
480.49999999999989
 30
0.0
 40
6.0
  1
20
 41
0.9
  0
ENDBLK
  5
7822
  8
0
  0
BLOCK
  8
0
  2
*U61
 70
     1
 10
0.0
 20
0.0
 30
0.0
  3
*U61
  1

  0
TEXT
  5
7824
  8
002寸法
 62
     2
 10
771.49999999999977
 20
444.9714285714287
 30
0.0
 40
6.0
  1
10
 50
90.0
 41
0.9
  0
ENDBLK
  5
7826
  8
0
  0
BLOCK
  8
0
  2
*U62
 70
     1
 10
0.0
 20
0.0
 30
0.0
  3
*U62
  1

  0
TEXT
  5
7828
  8
002寸法
 62
     2
 10
813.85714285714266
 20
251.5
 30
0.0
 40
6.0
  1
56
 41
0.9
  0
ENDBLK
  5
782A
  8
0
  0
BLOCK
  8
0
  2
*U63
 70
     1
 10
0.0
 20
0.0
 30
0.0
  3
*U63
  1

  0
TEXT
  5
782C
  8
002寸法
 62
     2
 10
734.35714285714266
 20
211.5
 30
0.0
 40
6.0
  1
97
 41
0.9
  0
ENDBLK
  5
782E
  8
0
  0
BLOCK
  8
0
  2
*U64
 70
     1
 10
0.0
 20
0.0
 30
0.0
  3
*U64
  1

  0
TEXT
  5
7830
  8
002寸法
 62
     2
 10
875.78571428571422
 20
191.5
 30
0.0
 40
6.0
  1
385
 41
0.9
  0
ENDBLK
  5
7832
  8
0
  0
BLOCK
  8
0
  2
*U65
 70
     1
 10
0.0
 20
0.0
 30
0.0
  3
*U65
  1

  0
TEXT
  5
7834
  8
002寸法
 62
     2
 10
725.85714285714278
 20
251.5
 30
0.0
 40
6.0
  1
80
 41
0.9
  0
ENDBLK
  5
7836
  8
0
  0
BLOCK
  8
0
  2
*U66
 70
     1
 10
0.0
 20
0.0
 30
0.0
  3
*U66
  1

  0
TEXT
  5
7865
  8
002寸法
 62
     2
 10
1030.8571428571429
 20
251.5
 30
0.0
 40
6.0
  1
80
 41
0.9
  0
ENDBLK
  5
7867
  8
0
  0
BLOCK
  8
0
  2
*U67
 70
     1
 10
0.0
 20
0.0
 30
0.0
  3
*U67
  1

  0
TEXT
  5
7869
  8
002寸法
 62
     2
 10
772.62857142857138
 20
231.5
 30
0.0
 40
6.0
  1
3
 41
0.9
  0
ENDBLK
  5
786B
  8
0
  0
ENDSEC
  0
SECTION
  2
ENTITIES
  0
POLYLINE
  5
51C
  8
DEFPOINTS
 66
     1
 10
0.0
 20
0.0
 30
0.0
 70
     1
  0
VERTEX
  5
75E5
  8
DEFPOINTS
 10
594.0
 20
0.0
 30
0.0
  0
VERTEX
  5
75E6
  8
DEFPOINTS
 10
1434.0
 20
0.0
 30
0.0
  0
VERTEX
  5
75E7
  8
DEFPOINTS
 10
1434.0
 20
594.0
 30
0.0
  0
VERTEX
  5
75E8
  8
DEFPOINTS
 10
594.0
 20
594.0
 30
0.0
  0
SEQEND
  5
75E9
  8
DEFPOINTS
  0
POLYLINE
  5
51E
  8
DEFPOINTS
 66
     1
 10
0.0
 20
0.0
 30
0.0
 70
     1
  0
VERTEX
  5
75EA
  8
DEFPOINTS
 10
643.0
 20
20.0
 30
0.0
  0
VERTEX
  5
75EB
  8
DEFPOINTS
 10
1413.0
 20
20.0
 30
0.0
  0
VERTEX
  5
75EC
  8
DEFPOINTS
 10
1413.0
 20
574.0
 30
0.0
  0
VERTEX
  5
75ED
  8
DEFPOINTS
 10
643.0
 20
574.0
 30
0.0
  0
SEQEND
  5
75EE
  8
DEFPOINTS
  0
TEXT
  5
564
  8
DEFPOINTS
 10
1177.3496849213279
 20
24.66684100940029
 30
0.0
 40
15.0
  1
Ａ３
 41
0.7222222220000001
  7
表題
  0
LINE
  5
565
  8
DEFPOINTS
 10
1060.0
 20
118.0
 30
0.0
 11
1413.0
 21
118.0
 31
0.0
  0
LINE
  5
566
  8
DEFPOINTS
 10
1060.0
 20
102.0
 30
0.0
 11
1413.0
 21
102.0
 31
0.0
  0
POLYLINE
  5
567
  8
DEFPOINTS
 66
     1
 10
0.0
 20
0.0
 30
0.0
 70
     1
  0
VERTEX
  5
75EF
  8
DEFPOINTS
 10
1060.0
 20
134.0
 30
0.0
  0
VERTEX
  5
75F0
  8
DEFPOINTS
 10
1413.0
 20
134.0
 30
0.0
  0
VERTEX
  5
75F1
  8
DEFPOINTS
 10
1413.0
 20
20.0
 30
0.0
  0
VERTEX
  5
75F2
  8
DEFPOINTS
 10
1060.0
 20
20.0
 30
0.0
  0
SEQEND
  5
75F3
  8
DEFPOINTS
  0
LINE
  5
568
  8
DEFPOINTS
 10
1142.0
 20
41.999999999999538
 30
0.0
 11
1413.0
 21
42.0
 31
0.0
  0
LINE
  5
569
  8
DEFPOINTS
 10
1142.0
 20
63.999999999999552
 30
0.0
 11
1413.0
 21
64.0
 31
0.0
  0
LINE
  5
56A
  8
DEFPOINTS
 10
1141.9999999999991
 20
85.999999999999545
 30
0.0
 11
1413.0
 21
86.0
 31
0.0
  0
TEXT
  5
56C
  8
DEFPOINTS
 10
1270.626336874619
 20
80.999999999999545
 30
0.0
 40
4.0
  1
作成日付
  7
表題
 72
     1
 11
1281.1830379055471
 21
80.999999999999545
 31
0.0
  0
INSERT
  5
56D
  8
DEFPOINTS
  6
CONTINUOUS
  2
*U34
 10
0.0
 20
0.0
 30
0.0
1001
ACAD
1002
{
1000
R14_HATCH_DATA
1000
56D
1011
1.0
1021
0.0
1031
0.0
1021
0.0
1031
0.0
1011
0.0
1021
0.0
1031
0.0
1021
1.0
1031
0.0
1011
0.0
1021
0.0
1031
0.0
1021
0.0
1031
1.0
1040
0.0
1010
0.0
1020
0.0
1030
1.0
1000
SOLID,_O
1070
     1
1070
     0
1071
       25
1071
        7
1070
     0
1070
     1
1071
        4
1040
1253.986554822191
1040
32.567521701952501
1040
1251.191454822191
1040
32.567521701952501
1040
1251.191454822191
1040
28.016821701952271
1040
1253.986554822191
1040
28.016821701952271
1071
        0
1071
       22
1070
     0
1070
     1
1071
        4
1040
1252.8546548221909
1040
30.061171701952389
1040
1252.8546548221909
1040
28.501921701952138
1040
1252.3441448221911
1040
28.501921701952138
1040
1252.3441448221911
1040
30.061171701952389
1071
        0
1071
       22
1070
     0
1070
     1
1071
        4
1040
1252.8546548221909
1040
30.53934170195225
1040
1252.3441448221899
1040
30.53934170195225
1040
1252.3441448221899
1040
32.128621701951943
1040
1252.854654822193
1040
32.128621701952397
1071
        0
1071
        7
1070
     0
1070
     1
1071
        4
1040
1258.3120298221911
1040
30.061171701952389
1040
1254.2637548221901
1040
30.061171701952389
1040
1254.2637548221901
1040
28.016821701952271
1040
1258.3120298221911
1040
28.016821701952271
1071
        0
1071
       22
1070
     0
1070
     1
1071
        4
1040
1255.5862298221909
1040
29.5991717019524
1040
1257.0242048221919
1040
29.5991717019524
1040
1257.0242048221919
1040
28.501921701952138
1040
1255.5862298221921
1040
28.501921701952138
1071
        0
1071
        7
1070
     0
1070
     1
1071
       12
1040
1256.4975496601901
1040
32.128621701951943
1040
1257.0242048221919
1040
32.128621701951943
1040
1257.02466222219
1040
30.934351701952441
1040
1256.576522222193
1040
30.918181701952111
1040
1256.693874822193
1040
30.453871701952721
1040
1258.3120298221911
1040
30.45387170195227
1040
1258.3120298221911
1040
32.567521701952501
1040
1254.2637548221901
1040
32.567521701952501
1040
1254.2637548221901
1040
32.128621701952397
1040
1255.05610966019
1040
32.128621701951943
1040
1254.2637548221919
1040
30.45387170195227
1040
1255.7051948221899
1040
30.453871701952721
1071
        0
1071
        7
1070
     0
1070
     1
1071
       22
1040
1265.0837948221899
1040
30.55782170195198
1040
1264.356169660191
1040
31.01982170195242
1040
1265.07457966019
1040
31.01982170195242
1040
1265.07457966019
1040
31.46565170195208
1040
1264.356169660191
1040
31.46565170195208
1040
1264.356169660191
1040
32.128621701952397
1040
1265.0745796601909
1040
32.128621701951943
1040
1265.07457966019
1040
32.567521701952501
1040
1262.1685996601909
1040
32.567521701952501
1040
1262.1685996601909
1040
32.128621701951943
1040
1263.1087696601901
1040
32.128621701952397
1040
1263.1087696601919
1040
31.46565170195208
1040
1262.1685996601909
1040
31.46565170195208
1040
1262.1685996601921
1040
31.01982170195242
1040
1263.1087696601901
1040
31.01982170195242
1040
1262.18012482219
1040
29.823241701952611
1040
1262.181025475393
1040
28.032832647484149
1040
1263.108769660189
1040
29.228252132768372
1040
1263.1087696601919
1040
28.016821701952271
1040
1264.3561696601901
1040
28.016821701952271
1040
1264.356169660191
1040
29.676684684825432
1040
1265.0848340908631
1040
29.214024809176859
1071
        0
1071
        7
1070
     0
1070
     1
1071
        4
1040
1269.3457696601911
1040
32.567521701952501
1040
1265.3309896601911
1040
32.567521701952501
1040
1265.3309896601911
1040
28.016821701952271
1040
1269.3457696601911
1040
28.016821701952271
1071
        0
1071
       22
1070
     0
1070
     1
1071
        4
1040
1266.629209660191
1040
32.128621701951943
1040
1268.012899660192
1040
32.128621701951943
1040
1268.01289966019
1040
28.5019217019526
1040
1266.6292096601919
1040
28.501921701951691
1071
        0
1071
        7
1070
     0
1070
     1
1071
        4
1040
1275.0156398221909
1040
32.567521701952053
1040
1273.27158982219
1040
32.567521701952053
1040
1273.271589822192
1040
32.128621701952397
1040
1275.0156398221909
1040
32.128621701951943
1071
        0
1071
        7
1070
     0
1070
     1
1071
        4
1040
1275.0156398221909
1040
31.46565170195208
1040
1273.271589822192
1040
31.46565170195208
1040
1273.271589822192
1040
31.01982170195242
1040
1275.0156398221909
1040
31.01982170195242
1071
        0
1071
        7
1070
     0
1070
     1
1071
        4
1040
1275.01563982219
1040
30.23442170195267
1040
1273.870018346191
1040
30.23442170195267
1040
1273.271589822192
1040
28.016821701952271
1040
1274.417211296191
1040
28.016821701952271
1071
        0
1071
        7
1070
     0
1070
     1
1071
       11
1040
1277.852319822191
1040
32.567521701952501
1040
1275.2373998221899
1040
32.567521701952501
1040
1275.2373998221899
1040
29.123311701951931
1040
1275.4672699601911
1040
29.123311701951931
1040
1274.8576231201901
1040
28.016821701952271
1040
1275.955434083342
1040
28.016821701952271
1040
1276.557207360192
1040
29.109021431951991
1040
1277.2766979821911
1040
28.016821701952271
1040
1278.4282912461911
1040
28.016821701952271
1040
1277.699386854192
1040
29.123311701951931
1040
1277.852319822191
1040
29.123311701951931
1071
        0
1071
       22
1070
     0
1070
     1
1071
        4
1040
1276.348509822189
1040
30.061171701952389
1040
1276.7735498221909
1040
30.061171701952389
1040
1276.7735498221909
1040
29.601481701952249
1040
1276.3485098221911
1040
29.601481701952711
1071
        0
1071
       22
1070
     0
1070
     1
1071
        4
1040
1276.348509822192
1040
30.53934170195225
1040
1276.3485098221911
1040
31.01982170195242
1040
1276.7735498221909
1040
31.01982170195242
1040
1276.7735498221909
1040
30.53934170195225
1071
        0
1071
       22
1070
     0
1070
     1
1071
        4
1040
1276.348509822192
1040
31.465651701952542
1040
1276.34850982219
1040
32.128621701952397
1040
1276.7735498221921
1040
32.128621701951943
1040
1276.7735498221921
1040
31.46565170195208
1071
        0
1071
        7
1070
     0
1070
     1
1071
        4
1040
1279.0650698221909
1040
32.567521701952501
1040
1278.023259822191
1040
32.567521701952501
1040
1278.023259822191
1040
29.123311701951931
1040
1279.0650698221909
1040
29.123311701951931
1071
        0
1071
        7
1070
     0
1070
     1
1071
        6
1040
1280.461107360192
1040
32.567521701952501
1040
1279.3499973601899
1040
32.567521701952501
1040
1279.3499973601899
1040
28.501921701951691
1040
1278.8265263461919
1040
28.501921701951691
1040
1278.999889954192
1040
28.016821701952271
1040
1280.4611073601909
1040
28.016821701952271
1071
        0
1071
        7
1070
     0
1070
     1
1071
        4
1040
1291.60952482219
1040
29.425921701952579
1040
1284.4253274121911
1040
29.42592170195212
1040
1284.4253274121911
1040
28.016821701952271
1040
1291.609524822192
1040
28.016821701952271
1071
        0
1071
       22
1070
     0
1070
     1
1071
        4
1040
1288.6527248221901
1040
29.021671701952979
1040
1290.327474822192
1040
29.021671701952979
1040
1290.32747482219
1040
28.415296701952229
1040
1288.6527248221901
1040
28.415296701952229
1071
        0
1071
       22
1070
     0
1070
     1
1071
        4
1040
1287.3706748221921
1040
28.415296701952229
1040
1285.714404822191
1040
28.415296701952229
1040
1285.7144048221919
1040
29.021671701952531
1040
1287.37067482219
1040
29.021671701952531
1071
        0
1071
        7
1070
     0
1070
     1
1071
       12
1040
1291.60952482219
1040
30.18244670195191
1040
1288.6527248221901
1040
30.18244670195191
1040
1288.6527248221901
1040
30.594781701952339
1040
1291.4039348221911
1040
30.594781701952339
1040
1291.4039348221911
1040
31.01982170195242
1040
1284.698004822191
1040
31.01982170195242
1040
1284.698004822191
1040
30.594781701952339
1040
1287.37067482219
1040
30.594781701952339
1040
1287.37067482219
1040
30.18244670195191
1040
1284.425327412192
1040
30.18244670195191
1040
1284.425327412192
1040
29.759716701951682
1040
1291.60952482219
1040
29.759716701951682
1071
        0
1071
        7
1070
     0
1070
     1
1071
        4
1040
1291.403934822192
1040
32.567521701952501
1040
1284.698004822191
1040
32.567521701952501
1040
1284.698004822191
1040
31.26814670195245
1040
1291.4039348221911
1040
31.26814670195245
1071
        0
1071
       22
1070
     0
1070
     1
1071
        4
1040
1288.6527248221921
1040
31.718596701952269
1040
1288.6527248221901
1040
32.128621701951943
1040
1290.0364148221911
1040
32.128621701951943
1040
1290.0364148221911
1040
31.718596701952269
1071
        0
1071
       22
1070
     0
1070
     1
1071
        4
1040
1287.37067482219
1040
31.718596701952269
1040
1286.0562848221921
1040
31.718596701952269
1040
1286.0562848221921
1040
32.128621701952397
1040
1287.37067482219
1040
32.128621701952397
1071
        0
1070
     1
1070
     1
1040
0.0129395892018505
1071
       25
1040
1253.3706561138449
1040
30.211529648123818
1040
0.0
1040
1253.3706561138449
1040
30.211529648123818
1040
0.0
1040
1253.3706561138449
1040
30.211529648123818
1040
0.0
1040
1254.967735464938
1040
29.280136385687001
1040
0.0
1040
1254.967735464938
1040
29.280136385687001
1040
0.0
1040
1254.901178213855
1040
31.142939006254441
1040
0.0
1040
1264.0177928528219
1040
30.145006156718871
1040
0.0
1040
1266.1472319876129
1040
30.145006156718871
1040
0.0
1040
1266.1472319876129
1040
30.145006156718871
1040
0.0
1040
1274.3005148906041
1040
32.423705340176191
1040
0.0
1040
1274.3824541746301
1040
31.194863705811709
1040
0.0
1040
1274.218555961583
1040
29.365250400337569
1040
0.0
1040
1275.638889271348
1040
29.938707683615121
1040
0.0
1040
1275.638889271348
1040
29.938707683615121
1040
0.0
1040
1275.638889271348
1040
29.938707683615121
1040
0.0
1040
1275.638889271348
1040
29.938707683615121
1040
0.0
1040
1278.6980671966189
1040
30.594092034701589
1040
0.0
1040
1280.1457070527281
1040
30.73063178248367
1040
0.0
1040
1288.1739102574729
1040
28.811864443885948
1040
0.0
1040
1288.1739102574729
1040
28.811864443885948
1040
0.0
1040
1288.1739102574729
1040
28.811864443885948
1040
0.0
1040
1287.989974147107
1040
30.141658252965051
1040
0.0
1040
1288.0890242238411
1040
31.641229411994122
1040
0.0
1040
1288.0890242238411
1040
31.641229411994122
1040
0.0
1040
1288.0890242238411
1040
31.641229411994122
1040
0.0
1002
}
  0
TEXT
  5
56E
  8
DEFPOINTS
 10
1270.7693122472831
 20
58.999999999999552
 30
0.0
 40
4.0
  1
製図
  7
表題
 72
     2
 11
1281.3260132782109
 21
58.999999999999552
 31
0.0
  0
LINE
  5
570
  8
DEFPOINTS
 10
1060.0
 20
34.0
 30
0.0
 11
1142.0
 21
34.0
 31
0.0
  0
LINE
  5
571
  8
DEFPOINTS
 10
1060.0
 20
78.0
 30
0.0
 11
1142.0
 21
78.0
 31
0.0
  0
LINE
  5
572
  8
DEFPOINTS
 10
1142.0
 20
134.0
 30
0.0
 11
1142.0
 21
20.0
 31
0.0
  0
TEXT
  5
573
  8
DEFPOINTS
 10
1143.4613402061859
 20
58.90576480445862
 30
0.0
 40
4.0
  1
尺度
  7
表題
 72
     2
 11
1154.018041237113
 21
58.90576480445862
 31
0.0
  0
TEXT
  5
574
  8
DEFPOINTS
 10
1144.033813529727
 20
80.999999999999545
 30
0.0
 40
4.0
  1
熱処理
  7
表題
 72
     2
 11
1159.8688650761189
 21
80.999999999999545
 31
0.0
  0
LINE
  5
576
  8
DEFPOINTS
 10
1074.0
 20
134.0
 30
0.0
 11
1074.0
 21
20.0
 31
0.0
  0
LINE
  5
577
  8
DEFPOINTS
 10
1088.0
 20
134.0
 30
0.0
 11
1088.0
 21
20.0
 31
0.0
  0
LINE
  5
578
  8
DEFPOINTS
 10
1116.0
 20
134.0
 30
0.0
 11
1116.0
 21
20.0
 31
0.0
  0
LINE
  5
579
  8
DEFPOINTS
 10
1102.0
 20
134.0
 30
0.0
 11
1102.0
 21
20.0
 31
0.0
  0
LINE
  5
57A
  8
DEFPOINTS
 10
1130.0
 20
134.0
 30
0.0
 11
1130.0
 21
20.0
 31
0.0
  0
TEXT
  5
57B
  8
DEFPOINTS
 10
1139.0
 20
80.329896907216039
 30
0.0
 40
4.0
  1
年 月 日
 50
90.0
  7
表題
 72
     1
 11
1139.0
 21
89.999999999999545
 31
0.0
  0
TEXT
  5
57C
  8
DEFPOINTS
 10
1139.0
 20
37.525773195875843
 30
0.0
 40
4.0
  1
来歴　改訂記事
 50
90.0
  7
表題
 72
     1
 11
1139.0
 21
55.999999999999552
 31
0.0
  0
TEXT
  5
57D
  8
DEFPOINTS
 10
1139.0
 20
21.52354287618024
 30
0.0
 40
4.0
  1
記号
 50
90.0
  7
表題
 72
     2
 11
1139.0
 21
32.08024390710807
 31
0.0
  0
TEXT
  5
57E
  8
DEFPOINTS
 10
1139.0
 20
104.7216494845356
 30
0.0
 40
4.0
  1
氏名
 50
90.0
  7
表題
 72
     1
 11
1139.0
 21
109.9999999999995
 31
0.0
  0
TEXT
  5
57F
  8
DEFPOINTS
 10
1139.0
 20
120.7216494845356
 30
0.0
 40
4.0
  1
承認
 50
90.0
  7
表題
 72
     1
 11
1139.0
 21
125.9999999999995
 31
0.0
  0
LINE
  5
580
  8
DEFPOINTS
 10
1162.0
 20
134.0
 30
0.0
 11
1162.0
 21
85.999999999999545
 31
0.0
  0
TEXT
  5
581
  8
DEFPOINTS
 10
1207.0638061001559
 20
58.999999999999552
 30
0.0
 40
4.0
  1
検図
  7
表題
 72
     2
 11
1217.620507131084
 21
58.999999999999552
 31
0.0
  0
LINE
  5
582
  8
DEFPOINTS
 10
1190.0
 20
85.999999999999545
 30
0.0
 11
1190.0
 21
64.0
 31
0.0
  0
TEXT
  5
583
  8
DEFPOINTS
 10
1191.2698117426601
 20
80.999999999999545
 30
0.0
 40
4.0
  1
表面処理
  7
表題
 72
     2
 11
1212.383213804515
 21
80.999999999999545
 31
0.0
  0
LINE
  5
584
  8
DEFPOINTS
 10
1206.0
 20
64.0
 30
0.0
 11
1206.0
 21
20.0
 31
0.0
  0
LINE
  5
585
  8
DEFPOINTS
 10
1174.0
 20
64.0
 30
0.0
 11
1174.0
 21
20.0
 31
0.0
  0
TEXT
  5
586
  8
DEFPOINTS
 10
1174.7216494845361
 20
58.999999999999552
 30
0.0
 40
4.0
  1
承認
  7
表題
 72
     1
 11
1180.0
 21
58.999999999999552
 31
0.0
  0
LINE
  5
587
  8
DEFPOINTS
 10
1270.0
 20
85.999999999999545
 30
0.0
 11
1270.0
 21
41.999999999999538
 31
0.0
  0
TEXT
  5
588
  8
DEFPOINTS
 10
1238.721649484537
 20
80.999999999999545
 30
0.0
 40
4.0
  1
台数
  7
表題
 72
     1
 11
1244.0000000000009
 21
80.999999999999545
 31
0.0
  0
TEXT
  5
589
  8
DEFPOINTS
 10
1225.8228129900949
 20
28.318039390480411
 30
0.0
 40
5.0
  1
株式会社
  0
TEXT
  5
596
  8
DEFPOINTS
 10
1239.5847442277261
 20
58.999999999999552
 30
0.0
 40
4.0
  1
設計
  7
表題
 72
     2
 11
1250.1414452586539
 21
58.999999999999552
 31
0.0
  0
LINE
  5
597
  8
DEFPOINTS
 10
1238.0
 20
85.999999999999716
 30
0.0
 11
1238.0
 21
42.0
 31
0.0
  0
LINE
  5
598
  8
DEFPOINTS
 10
1234.0
 20
134.0
 30
0.0
 11
1234.0
 21
85.999999999999545
 31
0.0
  0
LINE
  5
59A
  8
DEFPOINTS
 10
1302.0
 20
134.0
 30
0.0
 11
1302.0
 21
20.0
 31
0.0
  0
TEXT
  5
59D
  8
DEFPOINTS
 10
1303.552177953402
 20
80.999999999999545
 30
0.0
 40
4.0
  1
名称
  7
表題
 72
     2
 11
1314.10887898433
 21
80.999999999999545
 31
0.0
  0
TEXT
  5
59E
  8
DEFPOINTS
 10
1303.9002106411519
 20
36.999999999999552
 30
0.0
 40
4.0
  1
図面番号
  7
表題
 72
     2
 11
1325.0136127030071
 21
36.999999999999552
 31
0.0
  0
LINE
  5
59F
  8
DEFPOINTS
 10
1282.0
 20
134.0
 30
0.0
 11
1282.0
 21
85.999999999999545
 31
0.0
  0
LINE
  5
5A0
  8
DEFPOINTS
 10
1322.0
 20
134.0
 30
0.0
 11
1322.0
 21
85.999999999999545
 31
0.0
  0
LINE
  5
5A1
  8
DEFPOINTS
 10
1342.0
 20
134.0
 30
0.0
 11
1342.0
 21
85.999999999999545
 31
0.0
  0
TEXT
  5
5A2
  8
DEFPOINTS
 10
1148.1181079394751
 20
23.252432152093661
 30
0.0
 40
7.5
  1
角法
  7
表題
  0
TEXT
  5
5A4
  8
DEFPOINTS
 10
1148.1181079394751
 20
33.252432152093661
 30
0.0
 40
7.5
  1
第３
  7
表題
  0
TEXT
  5
102B
  8
DEFPOINTS
 10
1180.6082474226801
 20
91.139175257731338
 30
0.0
 40
6.0
  1
部　品　名
  7
表題
  0
TEXT
  5
102C
  8
DEFPOINTS
 10
1245.0
 20
92.0
 30
0.0
 40
6.0
  1
材　 質
  7
表題
  0
TEXT
  5
102D
  8
DEFPOINTS
 10
1350.0
 20
91.000000000000028
 30
0.0
 40
6.0
  1
　摘　　　要
  7
表題
 72
     1
 11
1373.7525773195871
 21
91.000000000000028
 31
0.0
  0
TEXT
  5
102E
  8
DEFPOINTS
 10
1302.5734800632349
 20
94.806774942158384
 30
0.0
 40
3.0
  1
1セット分
  7
表題
 72
     2
 11
1321.3466759395239
 21
94.806774942158384
 31
0.0
  0
TEXT
  5
102F
  8
DEFPOINTS
 10
1308.409056037216
 20
89.670164660350054
 30
0.0
 40
3.0
  1
個数
  7
表題
 72
     2
 11
1316.3265818104121
 21
89.670164660350054
 31
0.0
  0
TEXT
  5
1030
  8
DEFPOINTS
 10
1285.644041939046
 20
94.80677494215864
 30
0.0
 40
3.0
  1
1台分
  7
表題
 72
     2
 11
1296.499712042139
 21
94.80677494215864
 31
0.0
  0
TEXT
  5
1031
  8
DEFPOINTS
 10
1287.409056037216
 20
89.670164660350309
 30
0.0
 40
3.0
  1
個数
  7
表題
 72
     2
 11
1295.326581810411
 21
89.670164660350309
 31
0.0
  0
TEXT
  5
1032
  8
DEFPOINTS
 10
1325.0
 20
91.000000000000028
 30
0.0
 40
6.0
  1
総数
  7
表題
  0
TEXT
  5
1033
  8
DEFPOINTS
 10
1144.2525773195871
 20
91.466761905627664
 30
0.0
 40
6.0
  1
番号
  7
表題
  0
LINE
  5
1091
  8
DEFPOINTS
  6
CENTER
 10
1014.0
 20
594.0
 30
0.0
 11
1014.0
 21
0.0
 31
0.0
  0
INSERT
  5
2DA2
  8
DEFPOINTS
  2
A$C0C1533B0
 10
1214.2928129900949
 20
26.298039390480881
 30
0.0
 41
2.0
 42
2.0
 43
2.0
  0
LINE
  5
45FC
  8
DEFPOINTS
 10
1393.0
 20
42.0
 30
0.0
 11
1393.0
 21
20.0
 31
0.0
  0
INSERT
  5
4647
  8
011形状
  2
*U36
 10
0.0
 20
0.0
 30
0.0
  0
INSERT
  5
4648
  8
011形状
  2
*U37
 10
0.0
 20
0.0
 30
0.0
  0
INSERT
  5
4649
  8
011形状
  2
*U38
 10
0.0
 20
0.0
 30
0.0
  0
INSERT
  5
4681
  8
011形状
  2
*U39
 10
0.0
 20
0.0
 30
0.0
  0
INSERT
  5
4682
  8
011形状
  2
*U40
 10
0.0
 20
0.0
 30
0.0
  0
INSERT
  5
4683
  8
011形状
  2
*U41
 10
0.0
 20
0.0
 30
0.0
  0
INSERT
  5
475A
  8
011形状
  2
*U42
 10
0.0
 20
0.0
 30
0.0
  0
INSERT
  5
4A69
  8
011形状
  2
*U43
 10
0.0
 20
0.0
 30
0.0
  0
INSERT
  5
4A7A
  8
011形状
  2
*U44
 10
0.0
 20
0.0
 30
0.0
  0
LINE
  5
5540
  8
003注釈
 62
     1
 10
1129.2928932188131
 20
20.70710678118655
 30
0.0
 11
1116.707106781186
 21
33.292893218813447
 31
0.0
  0
LINE
  5
5544
  8
003注釈
 62
     1
 10
1129.2928932188131
 20
102.7071067811865
 30
0.0
 11
1116.6560304674381
 21
117.2452655925477
 31
0.0
  0
LINE
  5
5545
  8
003注釈
 62
     1
 10
1129.2928932188131
 20
118.7071067811865
 30
0.0
 11
1116.6560304674381
 21
133.2452655925477
 31
0.0
  0
INSERT
  5
627B
  8
011形状
  2
*U45
 10
0.0
 20
0.0
 30
0.0
1001
ACAD
1000
DSTYLE
1002
{
1070
    41
1040
2.5
1002
}
  0
INSERT
  5
628A
  8
011形状
  2
*U46
 10
0.0
 20
0.0
 30
0.0
1001
ACAD
1000
DSTYLE
1002
{
1070
    41
1040
2.5
1002
}
  0
INSERT
  5
6470
  8
011形状
  2
*U47
 10
0.0
 20
0.0
 30
0.0
  0
INSERT
  5
6A96
  8
011形状
  2
*U48
 10
0.0
 20
0.0
 30
0.0
  0
INSERT
  5
6A97
  8
011形状
  2
*U49
 10
0.0
 20
0.0
 30
0.0
  0
INSERT
  5
6A99
  8
011形状
  2
*U50
 10
0.0
 20
0.0
 30
0.0
  0
INSERT
  5
6A9A
  8
011形状
  2
*U51
 10
0.0
 20
0.0
 30
0.0
  0
CIRCLE
  5
6EE3
  8
011形状
 10
1264.0
 20
370.0
 30
0.0
 40
67.5
  0
LINE
  5
6EE4
  8
011形状
 10
1176.0
 20
383.0
 30
0.0
 11
1176.0
 21
357.0
 31
0.0
  0
LINE
  5
6EE5
  8
011形状
 10
1163.5
 20
362.0
 30
0.0
 11
1163.5
 21
378.0
 31
0.0
  0
LINE
  5
6EE6
  8
011形状
 10
1174.5
 20
359.5
 30
0.0
 11
1174.5
 21
380.5
 31
0.0
  0
LINE
  5
6EE7
  8
011形状
 10
1176.0
 20
359.5
 30
0.0
 11
1176.0
 21
380.5
 31
0.0
  0
LINE
  5
6EE8
  8
011形状
 10
1174.5
 20
380.5
 30
0.0
 11
1176.0
 21
380.5
 31
0.0
  0
ARC
  5
6EE9
  8
011形状
 10
1174.6025
 20
378.0
 30
0.0
 40
2.1025
 50
92.794362055005806
 51
267.20563794499418
  0
LINE
  5
6EEA
  8
011形状
 10
1163.5
 20
378.0
 30
0.0
 11
1172.5
 21
378.0
 31
0.0
  0
LINE
  5
6EEB
  8
001センタ
 10
1172.5
 20
378.0
 30
0.0
 11
1177.5
 21
378.0
 31
0.0
  0
LINE
  5
6EEC
  8
011形状
 10
1174.5
 20
359.5
 30
0.0
 11
1176.0
 21
359.5
 31
0.0
  0
ARC
  5
6EED
  8
011形状
 10
1174.6025
 20
362.0
 30
0.0
 40
2.1025
 50
92.794362055005806
 51
267.20563794499418
  0
LINE
  5
6EEE
  8
011形状
 10
1163.5
 20
362.0
 30
0.0
 11
1172.5
 21
362.0
 31
0.0
  0
LINE
  5
6EEF
  8
001センタ
 10
1172.5
 20
362.0
 30
0.0
 11
1177.5
 21
362.0
 31
0.0
  0
LINE
  5
6EF0
  8
011形状
 10
1176.0
 20
383.0
 30
0.0
 11
1173.5
 21
383.0
 31
0.0
  0
LINE
  5
6EF1
  8
011形状
 10
1173.5
 20
357.0
 30
0.0
 11
1176.0
 21
357.0
 31
0.0
  0
LINE
  5
6EF2
  8
011形状
 10
1173.5
 20
360.2097486209999
 30
0.0
 11
1173.5
 21
357.0
 31
0.0
  0
LINE
  5
6EF3
  8
011形状
 10
1173.5
 20
383.0
 30
0.0
 11
1173.5
 21
379.79025137899998
 31
0.0
  0
LINE
  5
6EF4
  8
011形状
 10
1173.5
 20
382.80000000000001
 30
0.0
 11
1172.5
 21
382.69999999999999
 31
0.0
  0
ARC
  5
6EF5
  8
011形状
 10
1172.7
 20
381.80000000000001
 30
0.0
 40
0.9
 50
102.60000000000061
 51
153.3999999999975
  0
ARC
  5
6EF6
  8
011形状
 10
1177.8
 20
380.0
 30
0.0
 40
6.2999999999999989
 50
159.3999999999966
 51
198.50940498199719
  0
LINE
  5
6EF7
  8
001センタ
 10
1170.0
 20
380.0
 30
0.0
 11
1177.5
 21
380.0
 31
0.0
  0
LINE
  5
6EF8
  8
011形状
 10
1173.5
 20
357.19999999999999
 30
0.0
 11
1172.5
 21
357.30000000000001
 31
0.0
  0
ARC
  5
6EF9
  8
011形状
 10
1172.7
 20
358.19999999999999
 30
0.0
 40
0.9
 50
206.6000000000025
 51
257.39999999999958
  0
ARC
  5
6EFA
  8
011形状
 10
1177.8
 20
360.0
 30
0.0
 40
6.2999999999999989
 50
161.49059501800261
 51
200.6000000000034
  0
LINE
  5
6EFB
  8
001センタ
 10
1170.0
 20
360.0
 30
0.0
 11
1177.5
 21
360.0
 31
0.0
  0
LINE
  5
6EFC
  8
011形状
 10
1176.0
 20
383.0
 30
0.0
 11
1197.7636806580001
 21
383.0
 31
0.0
  0
LINE
  5
6EFD
  8
011形状
 10
1176.0
 20
357.0
 30
0.0
 11
1197.7636806580001
 21
357.0
 31
0.0
  0
LINE
  5
6EFE
  8
011形状
 10
1256.5
 20
459.49999999999989
 30
0.0
 11
1271.5
 21
459.49999999999989
 31
0.0
  0
LINE
  5
6EFF
  8
011形状
 10
1271.5
 20
280.5
 30
0.0
 11
1256.5
 21
280.5
 31
0.0
  0
LINE
  5
6F00
  8
011形状
 10
1271.5
 20
459.49999999999989
 30
0.0
 11
1271.5
 21
437.08203932499993
 31
0.0
  0
LINE
  5
6F01
  8
011形状
 10
1271.5
 20
302.91796067500002
 30
0.0
 11
1271.5
 21
280.5
 31
0.0
  0
LINE
  5
6F02
  8
011形状
 10
1256.5
 20
280.5
 30
0.0
 11
1256.5
 21
302.91796067500002
 31
0.0
  0
LINE
  5
6F03
  8
011形状
 10
1256.5
 20
437.08203932499993
 30
0.0
 11
1256.5
 21
459.49999999999989
 31
0.0
  0
LINE
  5
6F04
  8
011形状
 10
1256.5
 20
282.5
 30
0.0
 11
1271.5
 21
282.5
 31
0.0
  0
LINE
  5
6F05
  8
001センタ
 10
1251.5
 20
289.5
 30
0.0
 11
1276.5
 21
289.5
 31
0.0
  0
LINE
  5
6F06
  8
011形状
  6
DASHED
 62
     1
 10
1256.5
 20
284.5
 30
0.0
 11
1271.5
 21
284.5
 31
0.0
  0
LINE
  5
6F07
  8
011形状
  6
DASHED
 62
     1
 10
1256.5
 20
298.5
 30
0.0
 11
1271.5
 21
298.5
 31
0.0
  0
LINE
  5
6F08
  8
011形状
  6
DASHED
 62
     1
 10
1256.5
 20
294.5
 30
0.0
 11
1271.5
 21
294.5
 31
0.0
  0
LINE
  5
6F09
  8
001センタ
 10
1251.5
 20
450.49999999999989
 30
0.0
 11
1276.5
 21
450.49999999999989
 31
0.0
  0
LINE
  5
6F0A
  8
011形状
  6
DASHED
 62
     1
 10
1256.5
 20
455.49999999999989
 30
0.0
 11
1271.5
 21
455.49999999999989
 31
0.0
  0
LINE
  5
6F0B
  8
011形状
  6
DASHED
 62
     1
 10
1256.5
 20
441.5
 30
0.0
 11
1271.5
 21
441.5
 31
0.0
  0
LINE
  5
6F0C
  8
011形状
  6
DASHED
 62
     1
 10
1256.5
 20
445.5
 30
0.0
 11
1271.5
 21
445.5
 31
0.0
  0
LINE
  5
6F0D
  8
011形状
 10
1256.5
 20
457.5
 30
0.0
 11
1271.5
 21
457.5
 31
0.0
  0
CIRCLE
  5
6F0E
  8
011形状
 10
1264.0
 20
370.0
 30
0.0
 40
61.5
  0
CIRCLE
  5
6F0F
  8
011形状
 10
1264.0
 20
370.0
 30
0.0
 40
62.5
  0
CIRCLE
  5
6F10
  8
011形状
 10
1264.0
 20
370.0
 30
0.0
 40
66.0
  0
CIRCLE
  5
6F11
  8
011形状
 10
1208.0
 20
370.0
 30
0.0
 40
3.5
  0
LINE
  5
6F12
  8
011形状
 10
1205.9000000000001
 20
370.39999999999998
 30
0.0
 11
1205.9000000000001
 21
369.60000000000002
 31
0.0
  0
LINE
  5
6F13
  8
011形状
 10
1207.5999999999999
 20
367.89999999999998
 30
0.0
 11
1208.4000000000001
 21
367.89999999999998
 31
0.0
  0
LINE
  5
6F14
  8
011形状
 10
1210.0999999999999
 20
369.60000000000002
 30
0.0
 11
1210.0999999999999
 21
370.39999999999998
 31
0.0
  0
LINE
  5
6F15
  8
011形状
 10
1207.5999999999999
 20
372.10000000000002
 30
0.0
 11
1208.4000000000001
 21
372.10000000000002
 31
0.0
  0
LINE
  5
6F16
  8
011形状
 10
1208.4000000000001
 20
367.89999999999998
 30
0.0
 11
1208.4000000000001
 21
368.69999999999999
 31
0.0
  0
LINE
  5
6F17
  8
011形状
 10
1207.5999999999999
 20
367.89999999999998
 30
0.0
 11
1207.5999999999999
 21
368.69999999999999
 31
0.0
  0
LINE
  5
6F18
  8
011形状
 10
1210.0999999999999
 20
369.60000000000002
 30
0.0
 11
1209.3
 21
369.60000000000002
 31
0.0
  0
LINE
  5
6F19
  8
011形状
 10
1208.4000000000001
 20
372.10000000000002
 30
0.0
 11
1208.4000000000001
 21
371.30000000000001
 31
0.0
  0
LINE
  5
6F1A
  8
011形状
 10
1205.9000000000001
 20
370.39999999999998
 30
0.0
 11
1206.7
 21
370.39999999999998
 31
0.0
  0
LINE
  5
6F1B
  8
011形状
 10
1210.0999999999999
 20
370.39999999999998
 30
0.0
 11
1209.3
 21
370.39999999999998
 31
0.0
  0
LINE
  5
6F1C
  8
011形状
 10
1207.5999999999999
 20
372.10000000000002
 30
0.0
 11
1207.5999999999999
 21
371.30000000000001
 31
0.0
  0
LINE
  5
6F1D
  8
011形状
 10
1205.9000000000001
 20
369.60000000000002
 30
0.0
 11
1206.7
 21
369.60000000000002
 31
0.0
  0
ARC
  5
6F1E
  8
011形状
 10
1209.2
 20
368.80000000000001
 30
0.0
 40
0.8
 50
82.300000000000693
 51
187.69999999999851
  0
ARC
  5
6F1F
  8
011形状
 10
1209.2
 20
371.19999999999999
 30
0.0
 40
0.8
 50
172.30000000000149
 51
277.69999999999931
  0
ARC
  5
6F20
  8
011形状
 10
1206.8
 20
371.19999999999999
 30
0.0
 40
0.8
 50
262.30000000000069
 51
7.6999999999984654
  0
ARC
  5
6F21
  8
011形状
 10
1206.8
 20
368.80000000000001
 30
0.0
 40
0.8
 50
352.3000000000016
 51
97.699999999999321
  0
CIRCLE
  5
6F22
  8
011形状
 10
1291.9999999987581
 20
321.50257738833278
 30
0.0
 40
3.5
  0
LINE
  5
6F23
  8
001センタ
 10
1289.2499999987581
 20
326.26571710933291
 30
0.0
 11
1294.7499999987581
 21
316.73943766733282
 31
0.0
  0
LINE
  5
6F24
  8
011形状
 10
1294.0186533467579
 20
322.20616722633281
 30
0.0
 11
1293.618653346758
 21
322.89898755033278
 31
0.0
  0
LINE
  5
6F25
  8
011形状
 10
1291.2964101597579
 20
323.52123073633288
 30
0.0
 11
1290.6035898367579
 21
323.12123073633279
 31
0.0
  0
LINE
  5
6F26
  8
011形状
 10
1289.981346650758
 20
320.79898755033292
 30
0.0
 11
1290.3813466507579
 21
320.1061672263329
 31
0.0
  0
LINE
  5
6F27
  8
011形状
 10
1293.396410159758
 20
319.88392404033289
 30
0.0
 11
1292.7035898367581
 21
319.48392404033279
 31
0.0
  0
LINE
  5
6F28
  8
011形状
 10
1290.6035898367579
 20
323.12123073633279
 30
0.0
 11
1291.003589836758
 21
322.42841041333281
 31
0.0
  0
LINE
  5
6F29
  8
011形状
 10
1291.2964101597579
 20
323.52123073633288
 30
0.0
 11
1291.696410159758
 21
322.8284104133329
 31
0.0
  0
LINE
  5
6F2A
  8
011形状
 10
1289.981346650758
 20
320.79898755033292
 30
0.0
 11
1290.674166973758
 21
321.19898755033302
 31
0.0
  0
LINE
  5
6F2B
  8
011形状
 10
1292.7035898367581
 20
319.48392404033279
 30
0.0
 11
1292.303589836758
 21
320.17674436333277
 31
0.0
  0
LINE
  5
6F2C
  8
011形状
 10
1294.0186533467579
 20
322.20616722633281
 30
0.0
 11
1293.3258330237579
 21
321.80616722633272
 31
0.0
  0
LINE
  5
6F2D
  8
011形状
 10
1290.3813466507579
 20
320.1061672263329
 30
0.0
 11
1291.0741669737581
 21
320.50616722633299
 31
0.0
  0
LINE
  5
6F2E
  8
011形状
 10
1293.396410159758
 20
319.88392404033289
 30
0.0
 11
1292.9964101597579
 21
320.57674436333281
 31
0.0
  0
LINE
  5
6F2F
  8
011形状
 10
1293.618653346758
 20
322.89898755033278
 30
0.0
 11
1292.9258330237581
 21
322.49898755033269
 31
0.0
  0
ARC
  5
6F30
  8
011形状
 10
1290.360769513758
 20
321.94180787333289
 30
0.0
 40
0.8
 50
292.30000000000689
 51
37.699999999999839
  0
ARC
  5
6F31
  8
011形状
 10
1291.560769513758
 20
319.86334690333268
 30
0.0
 40
0.8
 50
22.300000000006939
 51
127.6999999999999
  0
ARC
  5
6F32
  8
011形状
 10
1293.639230482758
 20
321.06334690333279
 30
0.0
 40
0.8
 50
112.3000000000069
 51
217.6999999999999
  0
ARC
  5
6F33
  8
011形状
 10
1292.4392304827579
 20
323.14180787333288
 30
0.0
 40
0.8
 50
202.30000000000689
 51
307.69999999999987
  0
CIRCLE
  5
6F34
  8
011形状
 10
1292.0
 20
418.49742261199992
 30
0.0
 40
3.5
  0
LINE
  5
6F35
  8
001センタ
 10
1294.75
 20
423.260562333
 30
0.0
 11
1289.25
 21
413.73428289099991
 31
0.0
  0
LINE
  5
6F36
  8
011形状
 10
1293.3964101619999
 20
420.11607595999988
 30
0.0
 11
1292.703589838
 21
420.51607596000002
 31
0.0
  0
LINE
  5
6F37
  8
011形状
 10
1290.381346652
 20
419.89383277299999
 30
0.0
 11
1289.981346652
 21
419.20101245000001
 31
0.0
  0
LINE
  5
6F38
  8
011形状
 10
1290.6035898380001
 20
416.87876926400003
 30
0.0
 11
1291.296410162
 21
416.47876926399999
 31
0.0
  0
LINE
  5
6F39
  8
011形状
 10
1294.018653348
 20
417.79383277300002
 30
0.0
 11
1293.618653348
 21
417.10101244999993
 31
0.0
  0
LINE
  5
6F3A
  8
011形状
 10
1289.981346652
 20
419.20101245000001
 30
0.0
 11
1290.6741669749999
 21
418.80101244999992
 31
0.0
  0
LINE
  5
6F3B
  8
011形状
 10
1290.381346652
 20
419.89383277299999
 30
0.0
 11
1291.074166975
 21
419.49383277300001
 31
0.0
  0
LINE
  5
6F3C
  8
011形状
 10
1290.6035898380001
 20
416.87876926400003
 30
0.0
 11
1291.0035898379999
 21
417.57158958699989
 31
0.0
  0
LINE
  5
6F3D
  8
011形状
 10
1293.618653348
 20
417.10101244999993
 30
0.0
 11
1292.925833025
 21
417.50101244999991
 31
0.0
  0
LINE
  5
6F3E
  8
011形状
 10
1293.3964101619999
 20
420.11607595999988
 30
0.0
 11
1292.9964101620001
 21
419.4232556369999
 31
0.0
  0
LINE
  5
6F3F
  8
011形状
 10
1291.296410162
 20
416.47876926399999
 30
0.0
 11
1291.6964101619999
 21
417.17158958699991
 31
0.0
  0
LINE
  5
6F40
  8
011形状
 10
1294.018653348
 20
417.79383277300002
 30
0.0
 11
1293.3258330250001
 21
418.193832773
 31
0.0
  0
LINE
  5
6F41
  8
011形状
 10
1292.703589838
 20
420.51607596000002
 30
0.0
 11
1292.3035898380001
 21
419.82325563699987
 31
0.0
  0
ARC
  5
6F42
  8
011形状
 10
1290.3607695149999
 20
418.05819212699993
 30
0.0
 40
0.8
 50
322.30000000000018
 51
67.699999999993111
  0
ARC
  5
6F43
  8
011形状
 10
1292.4392304850001
 20
416.858192127
 30
0.0
 40
0.8
 50
52.300000000000068
 51
157.69999999999899
  0
ARC
  5
6F44
  8
011形状
 10
1293.6392304850001
 20
418.93665309599999
 30
0.0
 40
0.8
 50
142.30000000000021
 51
247.69999999999311
  0
ARC
  5
6F45
  8
011形状
 10
1291.5607695149999
 20
420.13665309599992
 30
0.0
 40
0.8
 50
232.3000000000001
 51
337.69999999999902
  0
CIRCLE
  5
6F46
  8
001センタ
 10
1264.0
 20
370.0
 30
0.0
 40
56.0
  0
CIRCLE
  5
6F47
  8
011形状
 10
1264.0
 20
370.0
 30
0.0
 40
31.5
  0
CIRCLE
  5
6F48
  8
011形状
 10
1264.0
 20
370.0
 30
0.0
 40
36.5
  0
CIRCLE
  5
6F49
  8
011形状
 10
1264.0
 20
370.0
 30
0.0
 40
37.5
  0
LINE
  5
6F4A
  8
011形状
 10
1233.8130823040001
 20
379.0
 30
0.0
 11
1239.5
 21
379.0
 31
0.0
  0
LINE
  5
6F4B
  8
011形状
 10
1239.5
 20
379.0
 30
0.0
 11
1239.5
 21
361.0
 31
0.0
  0
LINE
  5
6F4C
  8
011形状
 10
1239.5
 20
361.0
 30
0.0
 11
1233.8130823040001
 21
361.0
 31
0.0
  0
ARC
  5
6F4D
  8
011形状
 10
1264.0
 20
370.0
 30
0.0
 40
29.5
 50
197.763262486
 51
162.236737514
  0
LINE
  5
6F4E
  8
011形状
 10
1327.4669331120001
 20
398.0
 30
0.0
 11
1327.4669331120001
 21
392.982567335
 31
0.0
  0
LINE
  5
6F4F
  8
011形状
 10
1325.4669331120001
 20
400.0
 30
0.0
 11
1327.4669331120001
 21
398.0
 31
0.0
  0
LINE
  5
6F50
  8
011形状
 10
1324.4669331120001
 20
400.0
 30
0.0
 11
1325.4669331120001
 21
400.0
 31
0.0
  0
LINE
  5
6F51
  8
011形状
  6
DASHED
 62
     1
 10
1324.4669331120001
 20
400.0
 30
0.0
 11
1324.4669331120001
 21
340.0
 31
0.0
  0
LINE
  5
6F52
  8
011形状
  6
DASHED
 62
     1
 10
1327.4669331120001
 20
392.982567335
 30
0.0
 11
1327.4669331120001
 21
347.017432665
 31
0.0
  0
LINE
  5
6F53
  8
011形状
 10
1327.4669331120001
 20
342.0
 30
0.0
 11
1325.4669331120001
 21
340.0
 31
0.0
  0
LINE
  5
6F54
  8
011形状
 10
1327.4669331120001
 20
347.017432665
 30
0.0
 11
1327.4669331120001
 21
342.0
 31
0.0
  0
LINE
  5
6F55
  8
011形状
 10
1325.4669331120001
 20
340.0
 30
0.0
 11
1324.4669331120001
 21
340.0
 31
0.0
  0
LINE
  5
6F56
  8
011形状
 10
1208.0178221379999
 20
410.96397637500002
 30
0.0
 11
1212.3630462870001
 21
413.47269270800001
 31
0.0
  0
LINE
  5
6F57
  8
011形状
 10
1207.28577133
 20
408.23192556799989
 30
0.0
 11
1208.0178221379999
 21
410.96397637500002
 31
0.0
  0
LINE
  5
6F58
  8
011形状
 10
1207.78577133
 20
407.36590016399998
 30
0.0
 11
1207.28577133
 21
408.23192556799989
 31
0.0
  0
LINE
  5
6F59
  8
011形状
  6
DASHED
 62
     1
 10
1207.78577133
 20
407.36590016399998
 30
0.0
 11
1259.7472955569999
 21
437.36590016399998
 31
0.0
  0
LINE
  5
6F5A
  8
011形状
  6
DASHED
 62
     1
 10
1212.3630462870001
 20
413.47269270800001
 30
0.0
 11
1252.170020601
 21
436.45526004300001
 31
0.0
  0
LINE
  5
6F5B
  8
011形状
 10
1252.170020601
 20
436.45526004300001
 30
0.0
 11
1256.5
 21
438.95517481500002
 31
0.0
  0
LINE
  5
6F5C
  8
011形状
 10
1256.51524475
 20
438.9639763749999
 30
0.0
 11
1259.2472955569999
 21
438.23192556800001
 31
0.0
  0
LINE
  5
6F5D
  8
011形状
 10
1259.2472955569999
 20
438.23192556800001
 30
0.0
 11
1259.7472955569999
 21
437.36590016399998
 31
0.0
  0
LINE
  5
6F5E
  8
011形状
 10
1256.5
 20
438.95517481500002
 30
0.0
 11
1256.51524475
 21
438.9639763749999
 31
0.0
  0
LINE
  5
6F5F
  8
011形状
 10
1208.0178221379999
 20
329.03602362499998
 30
0.0
 11
1212.3630462870001
 21
326.52730729199999
 31
0.0
  0
LINE
  5
6F60
  8
011形状
 10
1207.28577133
 20
331.76807443199999
 30
0.0
 11
1208.0178221379999
 21
329.03602362499998
 31
0.0
  0
LINE
  5
6F61
  8
011形状
 10
1207.78577133
 20
332.63409983600002
 30
0.0
 11
1207.28577133
 21
331.76807443199999
 31
0.0
  0
LINE
  5
6F62
  8
011形状
  6
DASHED
 62
     1
 10
1207.78577133
 20
332.63409983600002
 30
0.0
 11
1259.7472955569999
 21
302.63409983600002
 31
0.0
  0
LINE
  5
6F63
  8
011形状
  6
DASHED
 62
     1
 10
1212.3630462870001
 20
326.52730729199999
 30
0.0
 11
1252.170020601
 21
303.54473995699999
 31
0.0
  0
LINE
  5
6F64
  8
011形状
 10
1252.170020601
 20
303.54473995699999
 30
0.0
 11
1256.5
 21
301.04482518499998
 31
0.0
  0
LINE
  5
6F65
  8
011形状
 10
1256.51524475
 20
301.03602362499998
 30
0.0
 11
1259.2472955569999
 21
301.76807443199999
 31
0.0
  0
LINE
  5
6F66
  8
011形状
 10
1259.2472955569999
 20
301.76807443199999
 30
0.0
 11
1259.7472955569999
 21
302.63409983600002
 31
0.0
  0
LINE
  5
6F67
  8
011形状
 10
1256.5
 20
301.04482518499998
 30
0.0
 11
1256.51524475
 21
301.03602362499998
 31
0.0
  0
LINE
  5
6F68
  8
011形状
 10
1199.1621790219999
 20
392.09766889999997
 30
0.0
 11
1200.108716554
 21
391.77507519400001
 31
0.0
  0
LINE
  5
6F69
  8
011形状
 10
1199.1621790219999
 20
347.90233110000003
 30
0.0
 11
1200.108716554
 21
348.22492480599999
 31
0.0
  0
LINE
  5
6F6A
  8
011形状
 10
1199.0432365290001
 20
348.07492578300003
 30
0.0
 11
1197.4705142160001
 21
353.44954619100002
 31
0.0
  0
LINE
  5
6F6B
  8
011形状
 10
1199.0432365290001
 20
348.07492578300003
 30
0.0
 11
1198.055398558
 21
347.89005787799999
 31
0.0
  0
LINE
  5
6F6C
  8
011形状
 10
1197.4705142160001
 20
353.44954619100002
 30
0.0
 11
1196.538844899
 21
353.07272755600002
 31
0.0
  0
ARC
  5
6F6D
  8
011形状
 10
1196.983554571
 20
352.26511793099991
 30
0.0
 40
0.9
 50
118.910540149997
 51
169.7105401500005
  0
ARC
  5
6F6E
  8
011形状
 10
1197.994590344
 20
348.810004811
 30
0.0
 40
0.9
 50
222.91054014999861
 51
273.71054014999169
  0
ARC
  5
6F6F
  8
011形状
 10
1202.383816043
 20
351.96986204900003
 30
0.0
 40
6.2999999999999989
 50
175.71054015000101
 51
216.91054014999989
  0
LINE
  5
6F70
  8
001センタ
 10
1194.8977376180001
 20
349.77928454099998
 30
0.0
 11
1201.136136305
 21
351.60476579800002
 31
0.0
  0
LINE
  5
6F71
  8
011形状
 10
1199.0432365290001
 20
391.92507421699997
 30
0.0
 11
1197.4705142160001
 21
386.55045380899998
 31
0.0
  0
LINE
  5
6F72
  8
011形状
 10
1199.0432365290001
 20
391.92507421699997
 30
0.0
 11
1198.055398558
 21
392.10994212200001
 31
0.0
  0
LINE
  5
6F73
  8
011形状
 10
1197.4705142160001
 20
386.55045380899998
 30
0.0
 11
1196.538844899
 21
386.92727244399998
 31
0.0
  0
ARC
  5
6F74
  8
011形状
 10
1196.983554571
 20
387.73488206899998
 30
0.0
 40
0.9
 50
190.28945984999939
 51
241.0894598500029
  0
ARC
  5
6F75
  8
011形状
 10
1197.994590344
 20
391.189995189
 30
0.0
 40
0.9
 50
86.289459850008271
 51
137.0894598500013
  0
ARC
  5
6F76
  8
011形状
 10
1202.383816043
 20
388.03013795099997
 30
0.0
 40
6.2999999999999989
 50
143.08945985000011
 51
184.28945984999899
  0
LINE
  5
6F77
  8
001センタ
 10
1194.8977376180001
 20
390.22071545900002
 30
0.0
 11
1201.136136305
 21
388.39523420199998
 31
0.0
  0
LINE
  5
6F78
  8
011形状
 10
1178.6892938880001
 20
354.03259897499998
 30
0.0
 11
1189.608048565
 21
355.36706377799999
 31
0.0
  0
POINT
  5
6F79
  8
011形状
 10
1175.9265654840001
 20
364.27307414799998
 30
0.0
  0
LINE
  5
6F7A
  8
011形状
 10
1177.139715305
 20
354.34693353300003
 30
0.0
 11
1178.6286363969989
 21
354.528906006
 31
0.0
  0
LINE
  5
6F7B
  8
011形状
 10
1193.5178473200001
 20
356.34863073700001
 30
0.0
 11
1189.547391074
 21
355.863370809
 31
0.0
  0
LINE
  5
6F7C
  8
001センタ
 10
1206.4706326519999
 20
362.96889451800001
 30
0.0
 11
1171.570070087
 21
358.70342892999997
 31
0.0
  0
LINE
  5
6F7D
  8
011形状
 10
1193.5178473200001
 20
356.34863073700001
 30
0.0
 11
1194.383248723
 21
357.0
 31
0.0
  0
LINE
  5
6F7E
  8
011形状
 10
1193.4382384840001
 20
357.0
 30
0.0
 11
1193.5178473200001
 21
356.34863073700001
 31
0.0
  0
LINE
  5
6F7F
  8
011形状
 10
1189.608048565
 20
355.36706377799999
 30
0.0
 11
1189.4084748979999
 21
357.0
 31
0.0
  0
LINE
  5
6F80
  8
011形状
 10
1178.326625036
 20
357.0
 30
0.0
 11
1178.6892938880001
 21
354.03259897499998
 31
0.0
  0
LINE
  5
6F81
  8
011形状
 10
1176.8154636920001
 20
357.0
 30
0.0
 11
1177.139715305
 21
354.34693353300003
 31
0.0
  0
LINE
  5
6F82
  8
011形状
  6
DASHED
 62
     1
 10
1175.9265654840001
 20
364.27307414799998
 30
0.0
 11
1176.8154636920001
 21
357.0
 31
0.0
  0
LINE
  5
6F83
  8
011形状
  6
DASHED
 62
     1
 10
1188.273583762
 20
366.28581845500003
 30
0.0
 11
1177.3548290849999
 21
364.95135365200002
 31
0.0
  0
LINE
  5
6F84
  8
011形状
  6
DASHED
 62
     1
 10
1175.9265654840001
 20
364.27307414799998
 30
0.0
 11
1177.4154865769999
 21
364.45504662100001
 31
0.0
  0
POINT
  5
6F85
  8
011形状
  6
DASHED
 62
     1
 10
1177.4154865769999
 20
364.45504662100001
 30
0.0
  0
LINE
  5
6F86
  8
011形状
  6
DASHED
 62
     1
 10
1177.4154865769999
 20
364.45504662100001
 30
0.0
 11
1175.9265654840001
 21
364.27307414799998
 31
0.0
  0
LINE
  5
6F87
  8
011形状
  6
DASHED
 62
     1
 10
1177.3548290849999
 20
364.95135365200002
 30
0.0
 11
1178.326625036
 21
357.0
 31
0.0
  0
LINE
  5
6F88
  8
011形状
  6
DASHED
 62
     1
 10
1188.3342412530001
 20
365.78951142400001
 30
0.0
 11
1192.304697499
 21
366.2747713519999
 31
0.0
  0
LINE
  5
6F89
  8
011形状
  6
DASHED
 62
     1
 10
1192.304697499
 20
366.2747713519999
 30
0.0
 11
1195.6951239380001
 21
364.83338543000002
 31
0.0
  0
LINE
  5
6F8A
  8
011形状
  6
DASHED
 62
     1
 10
1192.304697499
 20
366.2747713519999
 30
0.0
 11
1193.4382384840001
 21
357.0
 31
0.0
  0
LINE
  5
6F8B
  8
011形状
  6
DASHED
 62
     1
 10
1189.4084748979999
 20
357.0
 30
0.0
 11
1188.273583762
 21
366.28581845500003
 31
0.0
  0
ARC
  5
6F8C
  8
011形状
 10
1264.0
 20
370.0
 30
0.0
 40
68.5
 50
161.18014600000009
 51
169.05999483300161
  0
ARC
  5
6F8D
  8
011形状
 10
1264.0
 20
370.0
 30
0.0
 40
68.5
 50
190.9400051669983
 51
198.81985399999991
  0
LINE
  5
6F8E
  8
011形状
  6
DASHED
 62
     1
 10
1194.383248723
 20
357.0
 30
0.0
 11
1196.461337365
 21
358.564133201
 31
0.0
  0
ARC
  5
6F8F
  8
011形状
 10
1264.0
 20
370.0
 30
0.0
 40
68.5
 50
169.05999483300161
 51
190.9400051669983
  0
CIRCLE
  5
6F90
  8
011形状
 10
1264.0
 20
370.0
 30
0.0
 40
32.5
  0
LINE
  5
6F91
  8
001センタ
 10
1264.0
 20
270.5
 30
0.0
 11
1264.0
 21
469.5
 31
0.0
  0
LINE
  5
6F92
  8
001センタ
 10
1153.5
 20
370.0
 30
0.0
 11
1341.5
 21
370.0
 31
0.0
  0
LINE
  5
6F93
  8
011形状
 10
904.0
 20
432.5
 30
0.0
 11
905.0
 21
431.5
 31
0.0
  0
LINE
  5
6F94
  8
011形状
 10
905.0
 20
308.5
 30
0.0
 11
904.0
 21
307.5
 31
0.0
  0
LINE
  5
6F95
  8
011形状
 10
905.0
 20
431.5
 30
0.0
 11
905.0
 21
308.5
 31
0.0
  0
LINE
  5
6F96
  8
011形状
 10
792.49999999999989
 20
437.5
 30
0.0
 11
792.49999999999989
 21
437.5
 31
0.0
  0
LINE
  5
6F97
  8
011形状
 10
791.0
 20
436.0
 30
0.0
 11
792.49999999999989
 21
437.5
 31
0.0
  0
LINE
  5
6F98
  8
011形状
 10
902.5
 20
437.5
 30
0.0
 11
901.5
 21
437.5
 31
0.0
  0
LINE
  5
6F99
  8
011形状
 10
904.0
 20
436.0
 30
0.0
 11
902.5
 21
437.5
 31
0.0
  0
LINE
  5
6F9A
  8
011形状
 10
902.5
 20
302.5
 30
0.0
 11
901.5
 21
302.5
 31
0.0
  0
LINE
  5
6F9B
  8
011形状
 10
904.0
 20
304.0
 30
0.0
 11
904.0
 21
436.0
 31
0.0
  0
LINE
  5
6F9C
  8
011形状
 10
902.5
 20
302.5
 30
0.0
 11
904.0
 21
304.0
 31
0.0
  0
LINE
  5
6F9D
  8
011形状
 10
792.49999999999989
 20
302.5
 30
0.0
 11
792.49999999999989
 21
437.5
 31
0.0
  0
LINE
  5
6F9E
  8
011形状
 10
791.0
 20
436.0
 30
0.0
 11
791.0
 21
304.0
 31
0.0
  0
LINE
  5
6F9F
  8
011形状
 10
791.0
 20
304.0
 30
0.0
 11
792.49999999999989
 21
302.5
 31
0.0
  0
LINE
  5
6FA0
  8
011形状
 10
905.0
 20
421.99742261199992
 30
0.0
 11
905.0
 21
414.99742261199992
 31
0.0
  0
LINE
  5
6FA1
  8
011形状
 10
905.0
 20
421.99742261199992
 30
0.0
 11
906.20000000000005
 21
421.8974226119999
 31
0.0
  0
LINE
  5
6FA2
  8
011形状
 10
905.0
 20
414.99742261199992
 30
0.0
 11
906.20000000000005
 21
415.09742261199989
 31
0.0
  0
ARC
  5
6FA3
  8
011形状
 10
905.89999999999986
 20
416.59742261199989
 30
0.0
 40
1.5
 50
280.99999999999932
 51
337.60000000000048
  0
ARC
  5
6FA4
  8
011形状
 10
905.89999999999986
 20
420.3974226119999
 30
0.0
 40
1.5
 50
22.399999999999501
 51
79.000000000000753
  0
ARC
  5
6FA5
  8
011形状
 10
897.79999999999995
 20
418.49742261199992
 30
0.0
 40
9.8000000000000007
 50
345.79999999999978
 51
14.30000000000093
  0
LINE
  5
6FA6
  8
001センタ
 10
909.60000000000002
 20
418.49742261199992
 30
0.0
 11
901.0
 21
418.49742261199992
 31
0.0
  0
LINE
  5
6FA7
  8
011形状
 10
905.0
 20
373.5
 30
0.0
 11
905.0
 21
366.5
 31
0.0
  0
LINE
  5
6FA8
  8
011形状
 10
905.0
 20
373.5
 30
0.0
 11
906.20000000000005
 21
373.39999999999998
 31
0.0
  0
LINE
  5
6FA9
  8
011形状
 10
905.0
 20
366.5
 30
0.0
 11
906.20000000000005
 21
366.60000000000002
 31
0.0
  0
ARC
  5
6FAA
  8
011形状
 10
905.89999999999986
 20
368.10000000000002
 30
0.0
 40
1.5
 50
280.99999999999932
 51
337.60000000000048
  0
ARC
  5
6FAB
  8
011形状
 10
905.89999999999986
 20
371.89999999999998
 30
0.0
 40
1.5
 50
22.399999999999501
 51
79.000000000000753
  0
ARC
  5
6FAC
  8
011形状
 10
897.79999999999995
 20
370.0
 30
0.0
 40
9.8000000000000007
 50
345.79999999999978
 51
14.30000000000093
  0
LINE
  5
6FAD
  8
011形状
 10
905.0
 20
318.00257738800002
 30
0.0
 11
905.0
 21
325.00257738800002
 31
0.0
  0
LINE
  5
6FAE
  8
011形状
 10
905.0
 20
318.00257738800002
 30
0.0
 11
906.20000000000005
 21
318.10257738799999
 31
0.0
  0
LINE
  5
6FAF
  8
011形状
 10
905.0
 20
325.00257738800002
 30
0.0
 11
906.20000000000005
 21
324.902577388
 31
0.0
  0
ARC
  5
6FB0
  8
011形状
 10
905.89999999999986
 20
323.402577388
 30
0.0
 40
1.5
 50
22.399999999999501
 51
79.000000000000753
  0
ARC
  5
6FB1
  8
011形状
 10
905.89999999999986
 20
319.60257738799999
 30
0.0
 40
1.5
 50
280.99999999999932
 51
337.60000000000048
  0
ARC
  5
6FB2
  8
011形状
 10
897.79999999999995
 20
321.50257738800002
 30
0.0
 40
9.8000000000000007
 50
345.69999999999902
 51
14.20000000000023
  0
LINE
  5
6FB3
  8
001センタ
 10
909.60000000000002
 20
321.50257738800002
 30
0.0
 11
901.0
 21
321.50257738800002
 31
0.0
  0
LINE
  5
6FB4
  8
011形状
 10
902.5
 20
437.5
 30
0.0
 11
902.5
 21
302.5
 31
0.0
  0
LINE
  5
6FB5
  8
011形状
 10
791.0
 20
421.99742261199992
 30
0.0
 11
791.0
 21
414.99742261199992
 31
0.0
  0
LINE
  5
6FB6
  8
011形状
 10
791.0
 20
421.99742261199992
 30
0.0
 11
789.79999999999995
 21
421.8974226119999
 31
0.0
  0
LINE
  5
6FB7
  8
011形状
 10
791.0
 20
414.99742261199992
 30
0.0
 11
789.79999999999995
 21
415.09742261199989
 31
0.0
  0
ARC
  5
6FB8
  8
011形状
 10
790.10000000000002
 20
416.59742261199989
 30
0.0
 40
1.5
 50
202.39999999999949
 51
259.00000000000068
  0
ARC
  5
6FB9
  8
011形状
 10
790.10000000000002
 20
420.3974226119999
 30
0.0
 40
1.5
 50
100.9999999999992
 51
157.60000000000051
  0
ARC
  5
6FBA
  8
011形状
 10
798.20000000000005
 20
418.49742261199992
 30
0.0
 40
9.8000000000000007
 50
165.69999999999899
 51
194.20000000000019
  0
LINE
  5
6FBB
  8
001センタ
 10
786.39999999999986
 20
418.49742261199992
 30
0.0
 11
795.0
 21
418.49742261199992
 31
0.0
  0
LINE
  5
6FBC
  8
011形状
 10
791.0
 20
373.5
 30
0.0
 11
791.0
 21
366.5
 31
0.0
  0
LINE
  5
6FBD
  8
011形状
 10
791.0
 20
373.5
 30
0.0
 11
789.79999999999995
 21
373.39999999999998
 31
0.0
  0
LINE
  5
6FBE
  8
011形状
 10
791.0
 20
366.5
 30
0.0
 11
789.79999999999995
 21
366.60000000000002
 31
0.0
  0
ARC
  5
6FBF
  8
011形状
 10
790.10000000000002
 20
368.10000000000002
 30
0.0
 40
1.5
 50
202.39999999999949
 51
259.00000000000068
  0
ARC
  5
6FC0
  8
011形状
 10
790.10000000000002
 20
371.89999999999998
 30
0.0
 40
1.5
 50
100.9999999999992
 51
157.60000000000051
  0
ARC
  5
6FC1
  8
011形状
 10
798.20000000000005
 20
370.0
 30
0.0
 40
9.8000000000000007
 50
165.69999999999899
 51
194.20000000000019
  0
LINE
  5
6FC2
  8
011形状
 10
791.0
 20
318.00257738800002
 30
0.0
 11
791.0
 21
325.00257738800002
 31
0.0
  0
LINE
  5
6FC3
  8
011形状
 10
791.0
 20
318.00257738800002
 30
0.0
 11
789.79999999999995
 21
318.10257738799999
 31
0.0
  0
LINE
  5
6FC4
  8
011形状
 10
791.0
 20
325.00257738800002
 30
0.0
 11
789.79999999999995
 21
324.902577388
 31
0.0
  0
ARC
  5
6FC5
  8
011形状
 10
790.10000000000002
 20
323.402577388
 30
0.0
 40
1.5
 50
100.9999999999992
 51
157.60000000000051
  0
ARC
  5
6FC6
  8
011形状
 10
790.10000000000002
 20
319.60257738799999
 30
0.0
 40
1.5
 50
202.39999999999949
 51
259.00000000000068
  0
ARC
  5
6FC7
  8
011形状
 10
798.20000000000005
 20
321.50257738800002
 30
0.0
 40
9.8000000000000007
 50
165.7999999999997
 51
194.30000000000089
  0
LINE
  5
6FC8
  8
001センタ
 10
786.39999999999986
 20
321.50257738800002
 30
0.0
 11
795.0
 21
321.50257738800002
 31
0.0
  0
LINE
  5
6FC9
  8
011形状
 10
788.0
 20
403.0
 30
0.0
 11
788.0
 21
337.0
 31
0.0
  0
LINE
  5
6FCA
  8
011形状
 10
791.0
 20
403.0
 30
0.0
 11
788.0
 21
403.0
 31
0.0
  0
LINE
  5
6FCB
  8
011形状
 10
791.0
 20
337.0
 30
0.0
 11
788.0
 21
337.0
 31
0.0
  0
LINE
  5
6FCC
  8
011形状
 10
788.0
 20
401.49999999999989
 30
0.0
 11
693.0
 21
401.49999999999989
 31
0.0
  0
LINE
  5
6FCD
  8
011形状
 10
693.0
 20
401.49999999999989
 30
0.0
 11
691.0
 21
399.5
 31
0.0
  0
LINE
  5
6FCE
  8
011形状
 10
788.0
 20
338.5
 30
0.0
 11
693.0
 21
338.5
 31
0.0
  0
LINE
  5
6FCF
  8
011形状
 10
691.0
 20
399.5
 30
0.0
 11
691.0
 21
340.5
 31
0.0
  0
LINE
  5
6FD0
  8
011形状
 10
693.0
 20
338.5
 30
0.0
 11
691.0
 21
340.5
 31
0.0
  0
LINE
  5
6FD1
  8
011形状
 10
691.0
 20
379.0
 30
0.0
 11
762.0
 21
379.0
 31
0.0
  0
LINE
  5
6FD2
  8
011形状
 10
691.0
 20
361.0
 30
0.0
 11
762.0
 21
361.0
 31
0.0
  0
ARC
  5
6FD3
  8
011形状
 10
762.0
 20
370.0
 30
0.0
 40
9.0
 50
270.0
 51
90.0
  0
LINE
  5
6FD4
  8
011形状
 10
693.0
 20
361.0
 30
0.0
 11
693.0
 21
338.5
 31
0.0
  0
LINE
  5
6FD5
  8
011形状
 10
693.0
 20
401.49999999999989
 30
0.0
 11
693.0
 21
379.0
 31
0.0
  0
LINE
  5
6FD6
  8
011形状
 10
978.0
 20
407.5
 30
0.0
 11
978.0
 21
332.5
 31
0.0
  0
LINE
  5
6FD7
  8
011形状
 10
978.0
 20
407.5
 30
0.0
 11
905.0
 21
407.5
 31
0.0
  0
LINE
  5
6FD8
  8
011形状
 10
979.0
 20
406.5
 30
0.0
 11
978.0
 21
407.5
 31
0.0
  0
LINE
  5
6FD9
  8
011形状
 10
978.0
 20
332.5
 30
0.0
 11
905.0
 21
332.5
 31
0.0
  0
LINE
  5
6FDA
  8
011形状
 10
979.0
 20
406.5
 30
0.0
 11
979.0
 21
333.5
 31
0.0
  0
LINE
  5
6FDB
  8
011形状
 10
978.0
 20
332.5
 30
0.0
 11
979.0
 21
333.5
 31
0.0
  0
LINE
  5
6FDC
  8
011形状
 10
979.0
 20
338.5
 30
0.0
 11
1074.0
 21
338.5
 31
0.0
  0
LINE
  5
6FDD
  8
011形状
 10
1074.0
 20
338.5
 30
0.0
 11
1076.0
 21
340.5
 31
0.0
  0
LINE
  5
6FDE
  8
011形状
 10
979.0
 20
401.49999999999989
 30
0.0
 11
1074.0
 21
401.49999999999989
 31
0.0
  0
LINE
  5
6FDF
  8
011形状
 10
1076.0
 20
340.5
 30
0.0
 11
1076.0
 21
399.5
 31
0.0
  0
LINE
  5
6FE0
  8
011形状
 10
1074.0
 20
401.49999999999989
 30
0.0
 11
1076.0
 21
399.5
 31
0.0
  0
LINE
  5
6FE1
  8
011形状
 10
1076.0
 20
361.0
 30
0.0
 11
1005.0
 21
361.0
 31
0.0
  0
LINE
  5
6FE2
  8
011形状
 10
1076.0
 20
379.0
 30
0.0
 11
1005.0
 21
379.0
 31
0.0
  0
ARC
  5
6FE3
  8
011形状
 10
1005.0
 20
370.0
 30
0.0
 40
9.0
 50
90.0
 51
270.0
  0
LINE
  5
6FE4
  8
011形状
 10
1074.0
 20
379.0
 30
0.0
 11
1074.0
 21
401.49999999999989
 31
0.0
  0
LINE
  5
6FE5
  8
011形状
 10
1074.0
 20
338.5
 30
0.0
 11
1074.0
 21
361.0
 31
0.0
  0
LINE
  5
6FE6
  8
011形状
 10
890.0
 20
437.5
 30
0.0
 11
881.0
 21
437.5
 31
0.0
  0
LINE
  5
6FE7
  8
011形状
 10
881.0
 20
407.36590016399998
 30
0.0
 11
881.0
 21
438.9639763749999
 31
0.0
  0
LINE
  5
6FE8
  8
011形状
 10
813.0
 20
437.5
 30
0.0
 11
804.0
 21
437.5
 31
0.0
  0
LINE
  5
6FE9
  8
011形状
 10
813.0
 20
438.9639763749999
 30
0.0
 11
813.0
 21
407.36590016399998
 31
0.0
  0
LINE
  5
6FEA
  8
011形状
 10
813.0
 20
407.36590016399998
 30
0.0
 11
881.0
 21
407.36590016399998
 31
0.0
  0
LINE
  5
6FEB
  8
011形状
 10
813.0
 20
410.96397637500002
 30
0.0
 11
881.0
 21
410.96397637500002
 31
0.0
  0
LINE
  5
6FEC
  8
011形状
 10
813.0
 20
408.23192556799989
 30
0.0
 11
881.0
 21
408.23192556799989
 31
0.0
  0
LINE
  5
6FED
  8
011形状
 10
881.0
 20
438.9639763749999
 30
0.0
 11
813.0
 21
438.9639763749999
 31
0.0
  0
LINE
  5
6FEE
  8
011形状
 10
801.0
 20
347.90233110000003
 30
0.0
 11
840.0
 21
347.90233110000003
 31
0.0
  0
LINE
  5
6FEF
  8
011形状
 10
840.0
 20
347.90233110000003
 30
0.0
 11
840.0
 21
392.09766889999997
 31
0.0
  0
LINE
  5
6FF0
  8
011形状
 10
840.0
 20
392.09766889999997
 30
0.0
 11
801.0
 21
392.09766889999997
 31
0.0
  0
LINE
  5
6FF1
  8
011形状
 10
801.0
 20
392.09766889999997
 30
0.0
 11
801.0
 21
347.90233110000003
 31
0.0
  0
CIRCLE
  5
6FF2
  8
011形状
 10
837.0
 20
389.237764013
 30
0.0
 40
2.7999999999999989
  0
LINE
  5
6FF3
  8
001センタ
 10
832.69999999999993
 20
389.237764013
 30
0.0
 11
841.29999999999995
 21
389.237764013
 31
0.0
  0
LINE
  5
6FF4
  8
001センタ
 10
837.0
 20
384.93776401300011
 30
0.0
 11
837.0
 21
393.53776401300001
 31
0.0
  0
LINE
  5
6FF5
  8
011形状
 10
837.29999999999995
 20
387.43776401300011
 30
0.0
 11
836.70000000000005
 21
387.43776401300011
 31
0.0
  0
LINE
  5
6FF6
  8
011形状
 10
835.20000000000005
 20
388.93776401300011
 30
0.0
 11
835.20000000000005
 21
389.53776401300001
 31
0.0
  0
LINE
  5
6FF7
  8
011形状
 10
837.29999999999995
 20
391.03776401300001
 30
0.0
 11
836.70000000000005
 21
391.03776401300001
 31
0.0
  0
LINE
  5
6FF8
  8
011形状
 10
838.79999999999995
 20
388.93776401300011
 30
0.0
 11
838.79999999999995
 21
389.53776401300001
 31
0.0
  0
LINE
  5
6FF9
  8
011形状
 10
837.29999999999995
 20
391.03776401300001
 30
0.0
 11
837.29999999999995
 21
390.43776401300011
 31
0.0
  0
LINE
  5
6FFA
  8
011形状
 10
838.79999999999995
 20
389.53776401300001
 30
0.0
 11
838.20000000000005
 21
389.53776401300001
 31
0.0
  0
LINE
  5
6FFB
  8
011形状
 10
838.79999999999995
 20
388.93776401300011
 30
0.0
 11
838.20000000000005
 21
388.93776401300011
 31
0.0
  0
LINE
  5
6FFC
  8
011形状
 10
836.70000000000005
 20
387.43776401300011
 30
0.0
 11
836.70000000000005
 21
388.03776401300001
 31
0.0
  0
LINE
  5
6FFD
  8
011形状
 10
835.20000000000005
 20
389.53776401300001
 30
0.0
 11
835.79999999999995
 21
389.53776401300001
 31
0.0
  0
LINE
  5
6FFE
  8
011形状
 10
837.29999999999995
 20
391.03776401300001
 30
0.0
 11
837.29999999999995
 21
390.43776401300011
 31
0.0
  0
LINE
  5
6FFF
  8
011形状
 10
836.70000000000005
 20
391.03776401300001
 30
0.0
 11
836.70000000000005
 21
390.43776401300011
 31
0.0
  0
LINE
  5
7000
  8
011形状
 10
835.20000000000005
 20
388.93776401300011
 30
0.0
 11
835.79999999999995
 21
388.93776401300011
 31
0.0
  0
LINE
  5
7001
  8
011形状
 10
837.29999999999995
 20
387.43776401300011
 30
0.0
 11
837.29999999999995
 21
388.03776401300001
 31
0.0
  0
ARC
  5
7002
  8
011形状
 10
835.89999999999986
 20
390.33776401300003
 30
0.0
 40
0.8
 50
262.30000000000069
 51
7.6999999999984654
  0
ARC
  5
7003
  8
011形状
 10
835.89999999999986
 20
388.13776401300009
 30
0.0
 40
0.8
 50
352.3000000000016
 51
97.699999999999321
  0
ARC
  5
7004
  8
011形状
 10
838.10000000000002
 20
388.13776401300009
 30
0.0
 40
0.8
 50
82.300000000000693
 51
187.69999999999851
  0
ARC
  5
7005
  8
011形状
 10
838.10000000000002
 20
390.33776401300003
 30
0.0
 40
0.8
 50
172.30000000000149
 51
277.69999999999931
  0
CIRCLE
  5
7006
  8
011形状
 10
804.0
 20
389.237764013
 30
0.0
 40
2.7999999999999989
  0
LINE
  5
7007
  8
001センタ
 10
799.70000000000005
 20
389.237764013
 30
0.0
 11
808.29999999999995
 21
389.237764013
 31
0.0
  0
LINE
  5
7008
  8
001センタ
 10
804.0
 20
384.93776401300011
 30
0.0
 11
804.0
 21
393.53776401300001
 31
0.0
  0
LINE
  5
7009
  8
011形状
 10
804.29999999999995
 20
387.43776401300011
 30
0.0
 11
803.70000000000005
 21
387.43776401300011
 31
0.0
  0
LINE
  5
700A
  8
011形状
 10
802.20000000000005
 20
388.93776401300011
 30
0.0
 11
802.20000000000005
 21
389.53776401300001
 31
0.0
  0
LINE
  5
700B
  8
011形状
 10
804.29999999999995
 20
391.03776401300001
 30
0.0
 11
803.70000000000005
 21
391.03776401300001
 31
0.0
  0
LINE
  5
700C
  8
011形状
 10
805.79999999999995
 20
388.93776401300011
 30
0.0
 11
805.79999999999995
 21
389.53776401300001
 31
0.0
  0
LINE
  5
700D
  8
011形状
 10
804.29999999999995
 20
391.03776401300001
 30
0.0
 11
804.29999999999995
 21
390.43776401300011
 31
0.0
  0
LINE
  5
700E
  8
011形状
 10
805.79999999999995
 20
389.53776401300001
 30
0.0
 11
805.20000000000005
 21
389.53776401300001
 31
0.0
  0
LINE
  5
700F
  8
011形状
 10
805.79999999999995
 20
388.93776401300011
 30
0.0
 11
805.20000000000005
 21
388.93776401300011
 31
0.0
  0
LINE
  5
7010
  8
011形状
 10
803.70000000000005
 20
387.43776401300011
 30
0.0
 11
803.70000000000005
 21
388.03776401300001
 31
0.0
  0
LINE
  5
7011
  8
011形状
 10
802.20000000000005
 20
389.53776401300001
 30
0.0
 11
802.79999999999995
 21
389.53776401300001
 31
0.0
  0
LINE
  5
7012
  8
011形状
 10
804.29999999999995
 20
391.03776401300001
 30
0.0
 11
804.29999999999995
 21
390.43776401300011
 31
0.0
  0
LINE
  5
7013
  8
011形状
 10
803.70000000000005
 20
391.03776401300001
 30
0.0
 11
803.70000000000005
 21
390.43776401300011
 31
0.0
  0
LINE
  5
7014
  8
011形状
 10
802.20000000000005
 20
388.93776401300011
 30
0.0
 11
802.79999999999995
 21
388.93776401300011
 31
0.0
  0
LINE
  5
7015
  8
011形状
 10
804.29999999999995
 20
387.43776401300011
 30
0.0
 11
804.29999999999995
 21
388.03776401300001
 31
0.0
  0
ARC
  5
7016
  8
011形状
 10
802.89999999999986
 20
390.33776401300003
 30
0.0
 40
0.8
 50
262.30000000000069
 51
7.6999999999984654
  0
ARC
  5
7017
  8
011形状
 10
802.89999999999986
 20
388.13776401300009
 30
0.0
 40
0.8
 50
352.3000000000016
 51
97.699999999999321
  0
ARC
  5
7018
  8
011形状
 10
805.10000000000002
 20
388.13776401300009
 30
0.0
 40
0.8
 50
82.300000000000693
 51
187.69999999999851
  0
ARC
  5
7019
  8
011形状
 10
805.10000000000002
 20
390.33776401300003
 30
0.0
 40
0.8
 50
172.30000000000149
 51
277.69999999999931
  0
CIRCLE
  5
701A
  8
011形状
 10
804.0
 20
350.76223927400002
 30
0.0
 40
2.7999999999999989
  0
LINE
  5
701B
  8
001センタ
 10
799.70000000000005
 20
350.76223927400002
 30
0.0
 11
808.29999999999995
 21
350.76223927400002
 31
0.0
  0
LINE
  5
701C
  8
001センタ
 10
804.0
 20
346.46223927400001
 30
0.0
 11
804.0
 21
355.06223927399998
 31
0.0
  0
LINE
  5
701D
  8
011形状
 10
804.29999999999995
 20
348.96223927400001
 30
0.0
 11
803.70000000000005
 21
348.96223927400001
 31
0.0
  0
LINE
  5
701E
  8
011形状
 10
802.20000000000005
 20
350.46223927400001
 30
0.0
 11
802.20000000000005
 21
351.06223927399998
 31
0.0
  0
LINE
  5
701F
  8
011形状
 10
804.29999999999995
 20
352.56223927399998
 30
0.0
 11
803.70000000000005
 21
352.56223927399998
 31
0.0
  0
LINE
  5
7020
  8
011形状
 10
805.79999999999995
 20
350.46223927400001
 30
0.0
 11
805.79999999999995
 21
351.06223927399998
 31
0.0
  0
LINE
  5
7021
  8
011形状
 10
804.29999999999995
 20
352.56223927399998
 30
0.0
 11
804.29999999999995
 21
351.96223927400001
 31
0.0
  0
LINE
  5
7022
  8
011形状
 10
805.79999999999995
 20
351.06223927399998
 30
0.0
 11
805.20000000000005
 21
351.06223927399998
 31
0.0
  0
LINE
  5
7023
  8
011形状
 10
805.79999999999995
 20
350.46223927400001
 30
0.0
 11
805.20000000000005
 21
350.46223927400001
 31
0.0
  0
LINE
  5
7024
  8
011形状
 10
803.70000000000005
 20
348.96223927400001
 30
0.0
 11
803.70000000000005
 21
349.56223927399998
 31
0.0
  0
LINE
  5
7025
  8
011形状
 10
802.20000000000005
 20
351.06223927399998
 30
0.0
 11
802.79999999999995
 21
351.06223927399998
 31
0.0
  0
LINE
  5
7026
  8
011形状
 10
804.29999999999995
 20
352.56223927399998
 30
0.0
 11
804.29999999999995
 21
351.96223927400001
 31
0.0
  0
LINE
  5
7027
  8
011形状
 10
803.70000000000005
 20
352.56223927399998
 30
0.0
 11
803.70000000000005
 21
351.96223927400001
 31
0.0
  0
LINE
  5
7028
  8
011形状
 10
802.20000000000005
 20
350.46223927400001
 30
0.0
 11
802.79999999999995
 21
350.46223927400001
 31
0.0
  0
LINE
  5
7029
  8
011形状
 10
804.29999999999995
 20
348.96223927400001
 30
0.0
 11
804.29999999999995
 21
349.56223927399998
 31
0.0
  0
ARC
  5
702A
  8
011形状
 10
802.89999999999986
 20
351.86223927399999
 30
0.0
 40
0.8
 50
262.30000000000069
 51
7.6999999999984654
  0
ARC
  5
702B
  8
011形状
 10
802.89999999999986
 20
349.662239274
 30
0.0
 40
0.8
 50
352.3000000000016
 51
97.699999999999321
  0
ARC
  5
702C
  8
011形状
 10
805.10000000000002
 20
349.662239274
 30
0.0
 40
0.8
 50
82.300000000000693
 51
187.69999999999851
  0
ARC
  5
702D
  8
011形状
 10
805.10000000000002
 20
351.86223927399999
 30
0.0
 40
0.8
 50
172.30000000000149
 51
277.69999999999931
  0
CIRCLE
  5
702E
  8
011形状
 10
837.0
 20
350.76223927400002
 30
0.0
 40
2.7999999999999989
  0
LINE
  5
702F
  8
001センタ
 10
832.69999999999993
 20
350.76223927400002
 30
0.0
 11
841.29999999999995
 21
350.76223927400002
 31
0.0
  0
LINE
  5
7030
  8
001センタ
 10
837.0
 20
346.46223927400001
 30
0.0
 11
837.0
 21
355.06223927399998
 31
0.0
  0
LINE
  5
7031
  8
011形状
 10
837.29999999999995
 20
348.96223927400001
 30
0.0
 11
836.70000000000005
 21
348.96223927400001
 31
0.0
  0
LINE
  5
7032
  8
011形状
 10
835.20000000000005
 20
350.46223927400001
 30
0.0
 11
835.20000000000005
 21
351.06223927399998
 31
0.0
  0
LINE
  5
7033
  8
011形状
 10
837.29999999999995
 20
352.56223927399998
 30
0.0
 11
836.70000000000005
 21
352.56223927399998
 31
0.0
  0
LINE
  5
7034
  8
011形状
 10
838.79999999999995
 20
350.46223927400001
 30
0.0
 11
838.79999999999995
 21
351.06223927399998
 31
0.0
  0
LINE
  5
7035
  8
011形状
 10
837.29999999999995
 20
352.56223927399998
 30
0.0
 11
837.29999999999995
 21
351.96223927400001
 31
0.0
  0
LINE
  5
7036
  8
011形状
 10
838.79999999999995
 20
351.06223927399998
 30
0.0
 11
838.20000000000005
 21
351.06223927399998
 31
0.0
  0
LINE
  5
7037
  8
011形状
 10
838.79999999999995
 20
350.46223927400001
 30
0.0
 11
838.20000000000005
 21
350.46223927400001
 31
0.0
  0
LINE
  5
7038
  8
011形状
 10
836.70000000000005
 20
348.96223927400001
 30
0.0
 11
836.70000000000005
 21
349.56223927399998
 31
0.0
  0
LINE
  5
7039
  8
011形状
 10
835.20000000000005
 20
351.06223927399998
 30
0.0
 11
835.79999999999995
 21
351.06223927399998
 31
0.0
  0
LINE
  5
703A
  8
011形状
 10
837.29999999999995
 20
352.56223927399998
 30
0.0
 11
837.29999999999995
 21
351.96223927400001
 31
0.0
  0
LINE
  5
703B
  8
011形状
 10
836.70000000000005
 20
352.56223927399998
 30
0.0
 11
836.70000000000005
 21
351.96223927400001
 31
0.0
  0
LINE
  5
703C
  8
011形状
 10
835.20000000000005
 20
350.46223927400001
 30
0.0
 11
835.79999999999995
 21
350.46223927400001
 31
0.0
  0
LINE
  5
703D
  8
011形状
 10
837.29999999999995
 20
348.96223927400001
 30
0.0
 11
837.29999999999995
 21
349.56223927399998
 31
0.0
  0
ARC
  5
703E
  8
011形状
 10
835.89999999999986
 20
351.86223927399999
 30
0.0
 40
0.8
 50
262.30000000000069
 51
7.6999999999984654
  0
ARC
  5
703F
  8
011形状
 10
835.89999999999986
 20
349.662239274
 30
0.0
 40
0.8
 50
352.3000000000016
 51
97.699999999999321
  0
ARC
  5
7040
  8
011形状
 10
838.10000000000002
 20
349.662239274
 30
0.0
 40
0.8
 50
82.300000000000693
 51
187.69999999999851
  0
ARC
  5
7041
  8
011形状
 10
838.10000000000002
 20
351.86223927399999
 30
0.0
 40
0.8
 50
172.30000000000149
 51
277.69999999999931
  0
ARC
  5
7042
  8
011形状
 10
824.0
 20
378.31021434299998
 30
0.0
 40
3.2000000000000002
 50
303.15288792899452
 51
236.8471120710054
  0
LINE
  5
7043
  8
001センタ
 10
824.0
 20
350.0
 30
0.0
 11
824.0
 21
390.0
 31
0.0
  0
LINE
  5
7044
  8
011形状
 10
841.0
 20
357.0
 30
0.0
 11
890.0
 21
357.0
 31
0.0
  0
LINE
  5
7045
  8
011形状
 10
890.0
 20
357.0
 30
0.0
 11
890.0
 21
383.0
 31
0.0
  0
LINE
  5
7046
  8
011形状
 10
890.0
 20
383.0
 30
0.0
 11
841.0
 21
383.0
 31
0.0
  0
LINE
  5
7047
  8
011形状
 10
841.0
 20
383.0
 30
0.0
 11
841.0
 21
357.0
 31
0.0
  0
LINE
  5
7048
  8
011形状
 10
867.0
 20
383.0
 30
0.0
 11
867.0
 21
357.0
 31
0.0
  0
CIRCLE
  5
7049
  8
011形状
 10
844.0
 20
380.0
 30
0.0
 40
2.7999999999999989
  0
LINE
  5
704A
  8
001センタ
 10
839.70000000000005
 20
380.0
 30
0.0
 11
848.29999999999995
 21
380.0
 31
0.0
  0
LINE
  5
704B
  8
001センタ
 10
844.0
 20
375.69999999999999
 30
0.0
 11
844.0
 21
384.30000000000001
 31
0.0
  0
LINE
  5
704C
  8
011形状
 10
844.29999999999995
 20
378.19999999999999
 30
0.0
 11
843.70000000000005
 21
378.19999999999999
 31
0.0
  0
LINE
  5
704D
  8
011形状
 10
842.20000000000005
 20
379.69999999999999
 30
0.0
 11
842.20000000000005
 21
380.30000000000001
 31
0.0
  0
LINE
  5
704E
  8
011形状
 10
844.29999999999995
 20
381.80000000000001
 30
0.0
 11
843.70000000000005
 21
381.80000000000001
 31
0.0
  0
LINE
  5
704F
  8
011形状
 10
845.79999999999995
 20
379.69999999999999
 30
0.0
 11
845.79999999999995
 21
380.30000000000001
 31
0.0
  0
LINE
  5
7050
  8
011形状
 10
844.29999999999995
 20
381.80000000000001
 30
0.0
 11
844.29999999999995
 21
381.19999999999999
 31
0.0
  0
LINE
  5
7051
  8
011形状
 10
845.79999999999995
 20
380.30000000000001
 30
0.0
 11
845.19999999999993
 21
380.30000000000001
 31
0.0
  0
LINE
  5
7052
  8
011形状
 10
845.79999999999995
 20
379.69999999999999
 30
0.0
 11
845.19999999999993
 21
379.69999999999999
 31
0.0
  0
LINE
  5
7053
  8
011形状
 10
843.70000000000005
 20
378.19999999999999
 30
0.0
 11
843.70000000000005
 21
378.80000000000001
 31
0.0
  0
LINE
  5
7054
  8
011形状
 10
842.20000000000005
 20
380.30000000000001
 30
0.0
 11
842.79999999999995
 21
380.30000000000001
 31
0.0
  0
LINE
  5
7055
  8
011形状
 10
844.29999999999995
 20
381.80000000000001
 30
0.0
 11
844.29999999999995
 21
381.19999999999999
 31
0.0
  0
LINE
  5
7056
  8
011形状
 10
843.70000000000005
 20
381.80000000000001
 30
0.0
 11
843.70000000000005
 21
381.19999999999999
 31
0.0
  0
LINE
  5
7057
  8
011形状
 10
842.20000000000005
 20
379.69999999999999
 30
0.0
 11
842.79999999999995
 21
379.69999999999999
 31
0.0
  0
LINE
  5
7058
  8
011形状
 10
844.29999999999995
 20
378.19999999999999
 30
0.0
 11
844.29999999999995
 21
378.80000000000001
 31
0.0
  0
ARC
  5
7059
  8
011形状
 10
842.89999999999998
 20
381.10000000000002
 30
0.0
 40
0.8
 50
262.30000000000069
 51
7.6999999999984654
  0
ARC
  5
705A
  8
011形状
 10
842.89999999999998
 20
378.89999999999998
 30
0.0
 40
0.8
 50
352.3000000000016
 51
97.699999999999321
  0
ARC
  5
705B
  8
011形状
 10
845.10000000000002
 20
378.89999999999998
 30
0.0
 40
0.8
 50
82.300000000000693
 51
187.69999999999851
  0
ARC
  5
705C
  8
011形状
 10
845.10000000000002
 20
381.10000000000002
 30
0.0
 40
0.8
 50
172.30000000000149
 51
277.69999999999931
  0
CIRCLE
  5
705D
  8
011形状
 10
864.0
 20
380.0
 30
0.0
 40
2.7999999999999989
  0
LINE
  5
705E
  8
001センタ
 10
859.70000000000005
 20
380.0
 30
0.0
 11
868.29999999999995
 21
380.0
 31
0.0
  0
LINE
  5
705F
  8
001センタ
 10
864.0
 20
375.69999999999999
 30
0.0
 11
864.0
 21
384.30000000000001
 31
0.0
  0
LINE
  5
7060
  8
011形状
 10
864.29999999999984
 20
378.19999999999999
 30
0.0
 11
863.70000000000005
 21
378.19999999999999
 31
0.0
  0
LINE
  5
7061
  8
011形状
 10
862.19999999999993
 20
379.69999999999999
 30
0.0
 11
862.19999999999993
 21
380.30000000000001
 31
0.0
  0
LINE
  5
7062
  8
011形状
 10
864.29999999999984
 20
381.80000000000001
 30
0.0
 11
863.70000000000005
 21
381.80000000000001
 31
0.0
  0
LINE
  5
7063
  8
011形状
 10
865.79999999999995
 20
379.69999999999999
 30
0.0
 11
865.79999999999995
 21
380.30000000000001
 31
0.0
  0
LINE
  5
7064
  8
011形状
 10
864.29999999999984
 20
381.80000000000001
 30
0.0
 11
864.29999999999984
 21
381.19999999999999
 31
0.0
  0
LINE
  5
7065
  8
011形状
 10
865.79999999999995
 20
380.30000000000001
 30
0.0
 11
865.20000000000005
 21
380.30000000000001
 31
0.0
  0
LINE
  5
7066
  8
011形状
 10
865.79999999999995
 20
379.69999999999999
 30
0.0
 11
865.20000000000005
 21
379.69999999999999
 31
0.0
  0
LINE
  5
7067
  8
011形状
 10
863.70000000000005
 20
378.19999999999999
 30
0.0
 11
863.70000000000005
 21
378.80000000000001
 31
0.0
  0
LINE
  5
7068
  8
011形状
 10
862.19999999999993
 20
380.30000000000001
 30
0.0
 11
862.79999999999995
 21
380.30000000000001
 31
0.0
  0
LINE
  5
7069
  8
011形状
 10
864.29999999999984
 20
381.80000000000001
 30
0.0
 11
864.29999999999984
 21
381.19999999999999
 31
0.0
  0
LINE
  5
706A
  8
011形状
 10
863.70000000000005
 20
381.80000000000001
 30
0.0
 11
863.70000000000005
 21
381.19999999999999
 31
0.0
  0
LINE
  5
706B
  8
011形状
 10
862.19999999999993
 20
379.69999999999999
 30
0.0
 11
862.79999999999995
 21
379.69999999999999
 31
0.0
  0
LINE
  5
706C
  8
011形状
 10
864.29999999999984
 20
378.19999999999999
 30
0.0
 11
864.29999999999984
 21
378.80000000000001
 31
0.0
  0
ARC
  5
706D
  8
011形状
 10
862.89999999999986
 20
381.10000000000002
 30
0.0
 40
0.8
 50
262.30000000000069
 51
7.6999999999984654
  0
ARC
  5
706E
  8
011形状
 10
862.89999999999986
 20
378.89999999999998
 30
0.0
 40
0.8
 50
352.3000000000016
 51
97.699999999999321
  0
ARC
  5
706F
  8
011形状
 10
865.09999999999991
 20
378.89999999999998
 30
0.0
 40
0.8
 50
82.300000000000693
 51
187.69999999999851
  0
ARC
  5
7070
  8
011形状
 10
865.09999999999991
 20
381.10000000000002
 30
0.0
 40
0.8
 50
172.30000000000149
 51
277.69999999999931
  0
CIRCLE
  5
7071
  8
011形状
 10
844.0
 20
360.0
 30
0.0
 40
2.7999999999999989
  0
LINE
  5
7072
  8
001センタ
 10
839.70000000000005
 20
360.0
 30
0.0
 11
848.29999999999995
 21
360.0
 31
0.0
  0
LINE
  5
7073
  8
001センタ
 10
844.0
 20
364.30000000000001
 30
0.0
 11
844.0
 21
355.69999999999999
 31
0.0
  0
LINE
  5
7074
  8
011形状
 10
844.29999999999995
 20
361.80000000000001
 30
0.0
 11
843.70000000000005
 21
361.80000000000001
 31
0.0
  0
LINE
  5
7075
  8
011形状
 10
842.20000000000005
 20
360.30000000000001
 30
0.0
 11
842.20000000000005
 21
359.69999999999999
 31
0.0
  0
LINE
  5
7076
  8
011形状
 10
844.29999999999995
 20
358.19999999999999
 30
0.0
 11
843.70000000000005
 21
358.19999999999999
 31
0.0
  0
LINE
  5
7077
  8
011形状
 10
845.79999999999995
 20
360.30000000000001
 30
0.0
 11
845.79999999999995
 21
359.69999999999999
 31
0.0
  0
LINE
  5
7078
  8
011形状
 10
844.29999999999995
 20
358.19999999999999
 30
0.0
 11
844.29999999999995
 21
358.80000000000001
 31
0.0
  0
LINE
  5
7079
  8
011形状
 10
845.79999999999995
 20
359.69999999999999
 30
0.0
 11
845.19999999999993
 21
359.69999999999999
 31
0.0
  0
LINE
  5
707A
  8
011形状
 10
845.79999999999995
 20
360.30000000000001
 30
0.0
 11
845.19999999999993
 21
360.30000000000001
 31
0.0
  0
LINE
  5
707B
  8
011形状
 10
843.70000000000005
 20
361.80000000000001
 30
0.0
 11
843.70000000000005
 21
361.19999999999999
 31
0.0
  0
LINE
  5
707C
  8
011形状
 10
842.20000000000005
 20
359.69999999999999
 30
0.0
 11
842.79999999999995
 21
359.69999999999999
 31
0.0
  0
LINE
  5
707D
  8
011形状
 10
844.29999999999995
 20
358.19999999999999
 30
0.0
 11
844.29999999999995
 21
358.80000000000001
 31
0.0
  0
LINE
  5
707E
  8
011形状
 10
843.70000000000005
 20
358.19999999999999
 30
0.0
 11
843.70000000000005
 21
358.80000000000001
 31
0.0
  0
LINE
  5
707F
  8
011形状
 10
842.20000000000005
 20
360.30000000000001
 30
0.0
 11
842.79999999999995
 21
360.30000000000001
 31
0.0
  0
LINE
  5
7080
  8
011形状
 10
844.29999999999995
 20
361.80000000000001
 30
0.0
 11
844.29999999999995
 21
361.19999999999999
 31
0.0
  0
ARC
  5
7081
  8
011形状
 10
842.89999999999998
 20
358.89999999999998
 30
0.0
 40
0.8
 50
352.3000000000016
 51
97.699999999999321
  0
ARC
  5
7082
  8
011形状
 10
842.89999999999998
 20
361.10000000000002
 30
0.0
 40
0.8
 50
262.30000000000069
 51
7.6999999999984654
  0
ARC
  5
7083
  8
011形状
 10
845.10000000000002
 20
361.10000000000002
 30
0.0
 40
0.8
 50
172.30000000000149
 51
277.69999999999931
  0
ARC
  5
7084
  8
011形状
 10
845.10000000000002
 20
358.89999999999998
 30
0.0
 40
0.8
 50
82.300000000000693
 51
187.69999999999851
  0
CIRCLE
  5
7085
  8
011形状
 10
864.0
 20
360.0
 30
0.0
 40
2.7999999999999989
  0
LINE
  5
7086
  8
001センタ
 10
859.70000000000005
 20
360.0
 30
0.0
 11
868.29999999999995
 21
360.0
 31
0.0
  0
LINE
  5
7087
  8
001センタ
 10
864.0
 20
364.30000000000001
 30
0.0
 11
864.0
 21
355.69999999999999
 31
0.0
  0
LINE
  5
7088
  8
011形状
 10
864.29999999999984
 20
361.80000000000001
 30
0.0
 11
863.70000000000005
 21
361.80000000000001
 31
0.0
  0
LINE
  5
7089
  8
011形状
 10
862.19999999999993
 20
360.30000000000001
 30
0.0
 11
862.19999999999993
 21
359.69999999999999
 31
0.0
  0
LINE
  5
708A
  8
011形状
 10
864.29999999999984
 20
358.19999999999999
 30
0.0
 11
863.70000000000005
 21
358.19999999999999
 31
0.0
  0
LINE
  5
708B
  8
011形状
 10
865.79999999999995
 20
360.30000000000001
 30
0.0
 11
865.79999999999995
 21
359.69999999999999
 31
0.0
  0
LINE
  5
708C
  8
011形状
 10
864.29999999999984
 20
358.19999999999999
 30
0.0
 11
864.29999999999984
 21
358.80000000000001
 31
0.0
  0
LINE
  5
708D
  8
011形状
 10
865.79999999999995
 20
359.69999999999999
 30
0.0
 11
865.20000000000005
 21
359.69999999999999
 31
0.0
  0
LINE
  5
708E
  8
011形状
 10
865.79999999999995
 20
360.30000000000001
 30
0.0
 11
865.20000000000005
 21
360.30000000000001
 31
0.0
  0
LINE
  5
708F
  8
011形状
 10
863.70000000000005
 20
361.80000000000001
 30
0.0
 11
863.70000000000005
 21
361.19999999999999
 31
0.0
  0
LINE
  5
7090
  8
011形状
 10
862.19999999999993
 20
359.69999999999999
 30
0.0
 11
862.79999999999995
 21
359.69999999999999
 31
0.0
  0
LINE
  5
7091
  8
011形状
 10
864.29999999999984
 20
358.19999999999999
 30
0.0
 11
864.29999999999984
 21
358.80000000000001
 31
0.0
  0
LINE
  5
7092
  8
011形状
 10
863.70000000000005
 20
358.19999999999999
 30
0.0
 11
863.70000000000005
 21
358.80000000000001
 31
0.0
  0
LINE
  5
7093
  8
011形状
 10
862.19999999999993
 20
360.30000000000001
 30
0.0
 11
862.79999999999995
 21
360.30000000000001
 31
0.0
  0
LINE
  5
7094
  8
011形状
 10
864.29999999999984
 20
361.80000000000001
 30
0.0
 11
864.29999999999984
 21
361.19999999999999
 31
0.0
  0
ARC
  5
7095
  8
011形状
 10
862.89999999999986
 20
358.89999999999998
 30
0.0
 40
0.8
 50
352.3000000000016
 51
97.699999999999321
  0
ARC
  5
7096
  8
011形状
 10
862.89999999999986
 20
361.10000000000002
 30
0.0
 40
0.8
 50
262.30000000000069
 51
7.6999999999984654
  0
ARC
  5
7097
  8
011形状
 10
865.09999999999991
 20
361.10000000000002
 30
0.0
 40
0.8
 50
172.30000000000149
 51
277.69999999999931
  0
ARC
  5
7098
  8
011形状
 10
865.09999999999991
 20
358.89999999999998
 30
0.0
 40
0.8
 50
82.300000000000693
 51
187.69999999999851
  0
LINE
  5
7099
  8
001センタ
 10
878.5
 20
383.0
 30
0.0
 11
878.5
 21
357.0
 31
0.0
  0
CIRCLE
  5
709A
  8
011形状
 10
878.5
 20
370.0
 30
0.0
 40
8.0
  0
CIRCLE
  5
709B
  8
011形状
 10
878.5
 20
370.0
 30
0.0
 40
6.4000000000000004
  0
CIRCLE
  5
709C
  8
011形状
 10
878.5
 20
370.0
 30
0.0
 40
5.0
  0
LINE
  5
709D
  8
011形状
 10
868.0
 20
378.5
 30
0.0
 11
868.0
 21
361.5
 31
0.0
  0
ARC
  5
709E
  8
011形状
 10
870.0
 20
378.5
 30
0.0
 40
2.0
 50
90.0
 51
180.0
  0
LINE
  5
709F
  8
011形状
 10
887.0
 20
380.5
 30
0.0
 11
870.0
 21
380.5
 31
0.0
  0
CIRCLE
  5
70A0
  8
011形状
 10
870.5
 20
378.0
 30
0.0
 40
2.1000000000000001
  0
LINE
  5
70A1
  8
011形状
 10
871.75999999999999
 20
378.20999999999998
 30
0.0
 11
871.75999999999999
 21
377.79000000000002
 31
0.0
  0
LINE
  5
70A2
  8
011形状
 10
870.71000000000004
 20
376.74000000000001
 30
0.0
 11
870.28999999999985
 21
376.74000000000001
 31
0.0
  0
LINE
  5
70A3
  8
011形状
 10
869.24000000000012
 20
378.20999999999998
 30
0.0
 11
869.24000000000012
 21
377.79000000000002
 31
0.0
  0
LINE
  5
70A4
  8
011形状
 10
870.71000000000004
 20
379.25999999999999
 30
0.0
 11
870.28999999999985
 21
379.25999999999999
 31
0.0
  0
LINE
  5
70A5
  8
011形状
 10
869.24000000000012
 20
378.20999999999998
 30
0.0
 11
869.66000000000008
 21
378.20999999999998
 31
0.0
  0
LINE
  5
70A6
  8
011形状
 10
870.28999999999985
 20
379.25999999999999
 30
0.0
 11
870.28999999999985
 21
378.83999999999997
 31
0.0
  0
LINE
  5
70A7
  8
011形状
 10
870.71000000000004
 20
379.25999999999999
 30
0.0
 11
870.71000000000004
 21
378.83999999999997
 31
0.0
  0
LINE
  5
70A8
  8
011形状
 10
871.75999999999999
 20
377.79000000000002
 30
0.0
 11
871.34000000000003
 21
377.79000000000002
 31
0.0
  0
LINE
  5
70A9
  8
011形状
 10
870.28999999999985
 20
376.74000000000001
 30
0.0
 11
870.28999999999985
 21
377.16000000000003
 31
0.0
  0
LINE
  5
70AA
  8
011形状
 10
869.24000000000012
 20
378.20999999999998
 30
0.0
 11
869.66000000000008
 21
378.20999999999998
 31
0.0
  0
LINE
  5
70AB
  8
011形状
 10
869.24000000000012
 20
377.79000000000002
 30
0.0
 11
869.66000000000008
 21
377.79000000000002
 31
0.0
  0
LINE
  5
70AC
  8
011形状
 10
870.71000000000004
 20
376.74000000000001
 30
0.0
 11
870.71000000000004
 21
377.16000000000003
 31
0.0
  0
LINE
  5
70AD
  8
011形状
 10
871.75999999999999
 20
378.20999999999998
 30
0.0
 11
871.34000000000003
 21
378.20999999999998
 31
0.0
  0
ARC
  5
70AE
  8
011形状
 10
869.73000000000002
 20
377.23000000000002
 30
0.0
 40
0.5600000000000001
 50
352.3000000000016
 51
97.699999999999321
  0
ARC
  5
70AF
  8
011形状
 10
871.26999999999987
 20
377.23000000000002
 30
0.0
 40
0.5600000000000001
 50
82.300000000000693
 51
187.69999999999851
  0
ARC
  5
70B0
  8
011形状
 10
871.26999999999987
 20
378.76999999999998
 30
0.0
 40
0.5600000000000001
 50
172.30000000000149
 51
277.69999999999931
  0
ARC
  5
70B1
  8
011形状
 10
869.73000000000002
 20
378.76999999999998
 30
0.0
 40
0.5600000000000001
 50
262.30000000000069
 51
7.6999999999984654
  0
LINE
  5
70B2
  8
001センタ
 10
870.5
 20
380.5
 30
0.0
 11
870.5
 21
375.5
 31
0.0
  0
LINE
  5
70B3
  8
001センタ
 10
873.0
 20
378.0
 30
0.0
 11
868.0
 21
378.0
 31
0.0
  0
LINE
  5
70B4
  8
011形状
 10
889.0
 20
378.5
 30
0.0
 11
889.0
 21
361.5
 31
0.0
  0
ARC
  5
70B5
  8
011形状
 10
887.0
 20
378.5
 30
0.0
 40
2.0
 50
0.0
 51
90.0
  0
CIRCLE
  5
70B6
  8
011形状
 10
886.5
 20
378.0
 30
0.0
 40
2.1000000000000001
  0
LINE
  5
70B7
  8
011形状
 10
887.75999999999988
 20
378.20999999999998
 30
0.0
 11
887.75999999999988
 21
377.79000000000002
 31
0.0
  0
LINE
  5
70B8
  8
011形状
 10
886.71000000000004
 20
376.74000000000001
 30
0.0
 11
886.28999999999985
 21
376.74000000000001
 31
0.0
  0
LINE
  5
70B9
  8
011形状
 10
885.24000000000012
 20
378.20999999999998
 30
0.0
 11
885.24000000000012
 21
377.79000000000002
 31
0.0
  0
LINE
  5
70BA
  8
011形状
 10
886.71000000000004
 20
379.25999999999999
 30
0.0
 11
886.28999999999985
 21
379.25999999999999
 31
0.0
  0
LINE
  5
70BB
  8
011形状
 10
885.24000000000012
 20
378.20999999999998
 30
0.0
 11
885.65999999999997
 21
378.20999999999998
 31
0.0
  0
LINE
  5
70BC
  8
011形状
 10
886.28999999999985
 20
379.25999999999999
 30
0.0
 11
886.28999999999985
 21
378.83999999999997
 31
0.0
  0
LINE
  5
70BD
  8
011形状
 10
886.71000000000004
 20
379.25999999999999
 30
0.0
 11
886.71000000000004
 21
378.83999999999997
 31
0.0
  0
LINE
  5
70BE
  8
011形状
 10
887.75999999999988
 20
377.79000000000002
 30
0.0
 11
887.34000000000003
 21
377.79000000000002
 31
0.0
  0
LINE
  5
70BF
  8
011形状
 10
886.28999999999985
 20
376.74000000000001
 30
0.0
 11
886.28999999999985
 21
377.16000000000003
 31
0.0
  0
LINE
  5
70C0
  8
011形状
 10
885.24000000000012
 20
378.20999999999998
 30
0.0
 11
885.65999999999997
 21
378.20999999999998
 31
0.0
  0
LINE
  5
70C1
  8
011形状
 10
885.24000000000012
 20
377.79000000000002
 30
0.0
 11
885.65999999999997
 21
377.79000000000002
 31
0.0
  0
LINE
  5
70C2
  8
011形状
 10
886.71000000000004
 20
376.74000000000001
 30
0.0
 11
886.71000000000004
 21
377.16000000000003
 31
0.0
  0
LINE
  5
70C3
  8
011形状
 10
887.75999999999988
 20
378.20999999999998
 30
0.0
 11
887.34000000000003
 21
378.20999999999998
 31
0.0
  0
ARC
  5
70C4
  8
011形状
 10
885.73000000000002
 20
377.23000000000002
 30
0.0
 40
0.5600000000000001
 50
352.3000000000016
 51
97.699999999999321
  0
ARC
  5
70C5
  8
011形状
 10
887.26999999999998
 20
377.23000000000002
 30
0.0
 40
0.5600000000000001
 50
82.300000000000693
 51
187.69999999999851
  0
ARC
  5
70C6
  8
011形状
 10
887.26999999999998
 20
378.76999999999998
 30
0.0
 40
0.5600000000000001
 50
172.30000000000149
 51
277.69999999999931
  0
ARC
  5
70C7
  8
011形状
 10
885.73000000000002
 20
378.76999999999998
 30
0.0
 40
0.5600000000000001
 50
262.30000000000069
 51
7.6999999999984654
  0
LINE
  5
70C8
  8
001センタ
 10
889.0
 20
378.0
 30
0.0
 11
884.0
 21
378.0
 31
0.0
  0
LINE
  5
70C9
  8
001センタ
 10
886.5
 20
380.64999999999998
 30
0.0
 11
886.5
 21
375.35000000000002
 31
0.0
  0
LINE
  5
70CA
  8
011形状
 10
887.0
 20
359.5
 30
0.0
 11
870.0
 21
359.5
 31
0.0
  0
ARC
  5
70CB
  8
011形状
 10
887.0
 20
361.5
 30
0.0
 40
2.0
 50
270.0
 51
0.0
  0
CIRCLE
  5
70CC
  8
011形状
 10
886.5
 20
362.0
 30
0.0
 40
2.1000000000000001
  0
LINE
  5
70CD
  8
011形状
 10
887.75999999999988
 20
362.20999999999998
 30
0.0
 11
887.75999999999988
 21
361.79000000000002
 31
0.0
  0
LINE
  5
70CE
  8
011形状
 10
886.71000000000004
 20
360.74000000000001
 30
0.0
 11
886.28999999999985
 21
360.74000000000001
 31
0.0
  0
LINE
  5
70CF
  8
011形状
 10
885.24000000000012
 20
362.20999999999998
 30
0.0
 11
885.24000000000012
 21
361.79000000000002
 31
0.0
  0
LINE
  5
70D0
  8
011形状
 10
886.71000000000004
 20
363.25999999999999
 30
0.0
 11
886.28999999999985
 21
363.25999999999999
 31
0.0
  0
LINE
  5
70D1
  8
011形状
 10
885.24000000000012
 20
362.20999999999998
 30
0.0
 11
885.65999999999997
 21
362.20999999999998
 31
0.0
  0
LINE
  5
70D2
  8
011形状
 10
886.28999999999985
 20
363.25999999999999
 30
0.0
 11
886.28999999999985
 21
362.83999999999997
 31
0.0
  0
LINE
  5
70D3
  8
011形状
 10
886.71000000000004
 20
363.25999999999999
 30
0.0
 11
886.71000000000004
 21
362.83999999999997
 31
0.0
  0
LINE
  5
70D4
  8
011形状
 10
887.75999999999988
 20
361.79000000000002
 30
0.0
 11
887.34000000000003
 21
361.79000000000002
 31
0.0
  0
LINE
  5
70D5
  8
011形状
 10
886.28999999999985
 20
360.74000000000001
 30
0.0
 11
886.28999999999985
 21
361.16000000000003
 31
0.0
  0
LINE
  5
70D6
  8
011形状
 10
885.24000000000012
 20
362.20999999999998
 30
0.0
 11
885.65999999999997
 21
362.20999999999998
 31
0.0
  0
LINE
  5
70D7
  8
011形状
 10
885.24000000000012
 20
361.79000000000002
 30
0.0
 11
885.65999999999997
 21
361.79000000000002
 31
0.0
  0
LINE
  5
70D8
  8
011形状
 10
886.71000000000004
 20
360.74000000000001
 30
0.0
 11
886.71000000000004
 21
361.16000000000003
 31
0.0
  0
LINE
  5
70D9
  8
011形状
 10
887.75999999999988
 20
362.20999999999998
 30
0.0
 11
887.34000000000003
 21
362.20999999999998
 31
0.0
  0
ARC
  5
70DA
  8
011形状
 10
885.73000000000002
 20
361.23000000000002
 30
0.0
 40
0.5600000000000001
 50
352.3000000000016
 51
97.699999999999321
  0
ARC
  5
70DB
  8
011形状
 10
887.26999999999998
 20
361.23000000000002
 30
0.0
 40
0.5600000000000001
 50
82.300000000000693
 51
187.69999999999851
  0
ARC
  5
70DC
  8
011形状
 10
887.26999999999998
 20
362.76999999999998
 30
0.0
 40
0.5600000000000001
 50
172.30000000000149
 51
277.69999999999931
  0
ARC
  5
70DD
  8
011形状
 10
885.73000000000002
 20
362.76999999999998
 30
0.0
 40
0.5600000000000001
 50
262.30000000000069
 51
7.6999999999984654
  0
LINE
  5
70DE
  8
001センタ
 10
889.0
 20
362.0
 30
0.0
 11
884.0
 21
362.0
 31
0.0
  0
LINE
  5
70DF
  8
001センタ
 10
886.5
 20
364.5
 30
0.0
 11
886.5
 21
359.55000000000001
 31
0.0
  0
ARC
  5
70E0
  8
011形状
 10
870.0
 20
361.5
 30
0.0
 40
2.0
 50
180.0
 51
270.0
  0
CIRCLE
  5
70E1
  8
011形状
 10
870.5
 20
362.0
 30
0.0
 40
2.1000000000000001
  0
LINE
  5
70E2
  8
011形状
 10
871.75999999999999
 20
362.20999999999998
 30
0.0
 11
871.75999999999999
 21
361.79000000000002
 31
0.0
  0
LINE
  5
70E3
  8
011形状
 10
870.71000000000004
 20
360.74000000000001
 30
0.0
 11
870.28999999999985
 21
360.74000000000001
 31
0.0
  0
LINE
  5
70E4
  8
011形状
 10
869.24000000000012
 20
362.20999999999998
 30
0.0
 11
869.24000000000012
 21
361.79000000000002
 31
0.0
  0
LINE
  5
70E5
  8
011形状
 10
870.71000000000004
 20
363.25999999999999
 30
0.0
 11
870.28999999999985
 21
363.25999999999999
 31
0.0
  0
LINE
  5
70E6
  8
011形状
 10
869.24000000000012
 20
362.20999999999998
 30
0.0
 11
869.66000000000008
 21
362.20999999999998
 31
0.0
  0
LINE
  5
70E7
  8
011形状
 10
870.28999999999985
 20
363.25999999999999
 30
0.0
 11
870.28999999999985
 21
362.83999999999997
 31
0.0
  0
LINE
  5
70E8
  8
011形状
 10
870.71000000000004
 20
363.25999999999999
 30
0.0
 11
870.71000000000004
 21
362.83999999999997
 31
0.0
  0
LINE
  5
70E9
  8
011形状
 10
871.75999999999999
 20
361.79000000000002
 30
0.0
 11
871.34000000000003
 21
361.79000000000002
 31
0.0
  0
LINE
  5
70EA
  8
011形状
 10
870.28999999999985
 20
360.74000000000001
 30
0.0
 11
870.28999999999985
 21
361.16000000000003
 31
0.0
  0
LINE
  5
70EB
  8
011形状
 10
869.24000000000012
 20
362.20999999999998
 30
0.0
 11
869.66000000000008
 21
362.20999999999998
 31
0.0
  0
LINE
  5
70EC
  8
011形状
 10
869.24000000000012
 20
361.79000000000002
 30
0.0
 11
869.66000000000008
 21
361.79000000000002
 31
0.0
  0
LINE
  5
70ED
  8
011形状
 10
870.71000000000004
 20
360.74000000000001
 30
0.0
 11
870.71000000000004
 21
361.16000000000003
 31
0.0
  0
LINE
  5
70EE
  8
011形状
 10
871.75999999999999
 20
362.20999999999998
 30
0.0
 11
871.34000000000003
 21
362.20999999999998
 31
0.0
  0
ARC
  5
70EF
  8
011形状
 10
869.73000000000002
 20
361.23000000000002
 30
0.0
 40
0.5600000000000001
 50
352.3000000000016
 51
97.699999999999321
  0
ARC
  5
70F0
  8
011形状
 10
871.26999999999987
 20
361.23000000000002
 30
0.0
 40
0.5600000000000001
 50
82.300000000000693
 51
187.69999999999851
  0
ARC
  5
70F1
  8
011形状
 10
871.26999999999987
 20
362.76999999999998
 30
0.0
 40
0.5600000000000001
 50
172.30000000000149
 51
277.69999999999931
  0
ARC
  5
70F2
  8
011形状
 10
869.73000000000002
 20
362.76999999999998
 30
0.0
 40
0.5600000000000001
 50
262.30000000000069
 51
7.6999999999984654
  0
LINE
  5
70F3
  8
001センタ
 10
870.5
 20
364.64999999999998
 30
0.0
 11
870.5
 21
359.5
 31
0.0
  0
LINE
  5
70F4
  8
001センタ
 10
873.0
 20
362.0
 30
0.0
 11
868.0
 21
362.0
 31
0.0
  0
CIRCLE
  5
70F5
  8
011形状
 10
824.0
 20
359.31000383999998
 30
0.0
 40
5.0
  0
CIRCLE
  5
70F6
  8
011形状
 10
824.0
 20
359.49197631300001
 30
0.0
 40
5.5
  0
LINE
  5
70F7
  8
011形状
 10
829.49999999999989
 20
359.49197631300001
 30
0.0
 11
829.49999999999989
 21
360.82644111600001
 31
0.0
  0
LINE
  5
70F8
  8
011形状
 10
818.5
 20
360.82644111600001
 30
0.0
 11
818.5
 21
359.49197631300001
 31
0.0
  0
ARC
  5
70F9
  8
011形状
 10
824.0
 20
360.82644111600001
 30
0.0
 40
5.5
 50
0.0
 51
180.0
  0
LINE
  5
70FA
  8
011形状
 10
825.75
 20
375.63112867799998
 30
0.0
 11
825.75
 21
366.04060451999999
 31
0.0
  0
LINE
  5
70FB
  8
011形状
 10
822.25
 20
375.63112867799998
 30
0.0
 11
822.25
 21
366.04060451999999
 31
0.0
  0
LINE
  5
70FC
  8
011形状
 10
881.0
 20
332.63409983600002
 30
0.0
 11
881.0
 21
301.03602362499998
 31
0.0
  0
LINE
  5
70FD
  8
011形状
 10
890.0
 20
302.5
 30
0.0
 11
881.0
 21
302.5
 31
0.0
  0
LINE
  5
70FE
  8
011形状
 10
813.0
 20
301.03602362499998
 30
0.0
 11
813.0
 21
332.63409983600002
 31
0.0
  0
LINE
  5
70FF
  8
011形状
 10
813.0
 20
302.5
 30
0.0
 11
804.0
 21
302.5
 31
0.0
  0
LINE
  5
7100
  8
011形状
 10
813.0
 20
332.63409983600002
 30
0.0
 11
881.0
 21
332.63409983600002
 31
0.0
  0
LINE
  5
7101
  8
011形状
 10
813.0
 20
329.03602362499998
 30
0.0
 11
881.0
 21
329.03602362499998
 31
0.0
  0
LINE
  5
7102
  8
011形状
 10
813.0
 20
331.76807443199999
 30
0.0
 11
881.0
 21
331.76807443199999
 31
0.0
  0
LINE
  5
7103
  8
011形状
 10
881.0
 20
301.03602362499998
 30
0.0
 11
813.0
 21
301.03602362499998
 31
0.0
  0
LINE
  5
7104
  8
011形状
 10
804.0
 20
437.08203932499993
 30
0.0
 11
804.0
 21
441.5
 31
0.0
  0
LINE
  5
7105
  8
011形状
 10
804.0
 20
441.5
 30
0.0
 11
890.0
 21
441.5
 31
0.0
  0
LINE
  5
7106
  8
011形状
 10
792.49999999999989
 20
457.5
 30
0.0
 11
792.49999999999989
 21
437.08203932499993
 31
0.0
  0
LINE
  5
7107
  8
011形状
 10
792.49999999999989
 20
457.5
 30
0.0
 11
794.5
 21
459.49999999999989
 31
0.0
  0
LINE
  5
7108
  8
011形状
 10
794.5
 20
459.49999999999989
 30
0.0
 11
899.5
 21
459.49999999999989
 31
0.0
  0
LINE
  5
7109
  8
011形状
 10
792.49999999999989
 20
437.08203932499993
 30
0.0
 11
804.0
 21
437.08203932499993
 31
0.0
  0
LINE
  5
710A
  8
011形状
 10
842.0
 20
445.5
 30
0.0
 11
852.0
 21
445.5
 31
0.0
  0
LINE
  5
710B
  8
001センタ
 10
859.5
 20
450.49999999999989
 30
0.0
 11
834.5
 21
450.49999999999989
 31
0.0
  0
LINE
  5
710C
  8
011形状
 10
842.0
 20
455.49999999999989
 30
0.0
 11
852.0
 21
455.49999999999989
 31
0.0
  0
LINE
  5
710D
  8
011形状
 10
901.5
 20
437.08203932499993
 30
0.0
 11
901.5
 21
457.5
 31
0.0
  0
LINE
  5
710E
  8
011形状
 10
901.5
 20
457.5
 30
0.0
 11
899.5
 21
459.49999999999989
 31
0.0
  0
LINE
  5
710F
  8
011形状
 10
890.0
 20
437.08203932499993
 30
0.0
 11
901.5
 21
437.08203932499993
 31
0.0
  0
LINE
  5
7110
  8
011形状
 10
890.0
 20
441.5
 30
0.0
 11
890.0
 21
437.08203932499993
 31
0.0
  0
ARC
  5
7111
  8
011形状
 10
842.0
 20
450.49999999999989
 30
0.0
 40
5.0
 50
90.0
 51
270.0
  0
ARC
  5
7112
  8
011形状
 10
852.0
 20
450.49999999999989
 30
0.0
 40
5.0
 50
270.0
 51
90.000044049996362
  0
LINE
  5
7113
  8
001センタ
 10
852.0
 20
448.0
 30
0.0
 11
852.0
 21
453.0
 31
0.0
  0
LINE
  5
7114
  8
001センタ
 10
842.0
 20
448.0
 30
0.0
 11
842.0
 21
453.0
 31
0.0
  0
LINE
  5
7115
  8
001センタ
 10
847.0
 20
443.0
 30
0.0
 11
847.0
 21
458.0
 31
0.0
  0
LINE
  5
7116
  8
011形状
 10
804.0
 20
302.91796067500002
 30
0.0
 11
804.0
 21
298.5
 31
0.0
  0
LINE
  5
7117
  8
011形状
 10
804.0
 20
298.5
 30
0.0
 11
890.0
 21
298.5
 31
0.0
  0
LINE
  5
7118
  8
011形状
 10
792.49999999999989
 20
282.5
 30
0.0
 11
792.49999999999989
 21
302.91796067500002
 31
0.0
  0
LINE
  5
7119
  8
011形状
 10
792.49999999999989
 20
282.5
 30
0.0
 11
794.5
 21
280.5
 31
0.0
  0
LINE
  5
711A
  8
011形状
 10
794.5
 20
280.5
 30
0.0
 11
899.5
 21
280.5
 31
0.0
  0
LINE
  5
711B
  8
011形状
 10
792.49999999999989
 20
302.91796067500002
 30
0.0
 11
804.0
 21
302.91796067500002
 31
0.0
  0
LINE
  5
711C
  8
011形状
 10
842.0
 20
294.5
 30
0.0
 11
852.0
 21
294.5
 31
0.0
  0
LINE
  5
711D
  8
001センタ
 10
859.5
 20
289.5
 30
0.0
 11
834.5
 21
289.5
 31
0.0
  0
LINE
  5
711E
  8
011形状
 10
842.0
 20
284.5
 30
0.0
 11
852.0
 21
284.5
 31
0.0
  0
LINE
  5
711F
  8
011形状
 10
901.5
 20
302.91796067500002
 30
0.0
 11
901.5
 21
282.5
 31
0.0
  0
LINE
  5
7120
  8
011形状
 10
901.5
 20
282.5
 30
0.0
 11
899.5
 21
280.5
 31
0.0
  0
LINE
  5
7121
  8
011形状
 10
890.0
 20
302.91796067500002
 30
0.0
 11
901.5
 21
302.91796067500002
 31
0.0
  0
LINE
  5
7122
  8
011形状
 10
890.0
 20
298.5
 30
0.0
 11
890.0
 21
302.91796067500002
 31
0.0
  0
ARC
  5
7123
  8
011形状
 10
842.0
 20
289.5
 30
0.0
 40
5.0
 50
90.0
 51
270.0
  0
ARC
  5
7124
  8
011形状
 10
852.0
 20
289.5
 30
0.0
 40
5.0
 50
269.99995594999058
 51
90.0
  0
LINE
  5
7125
  8
001センタ
 10
852.0
 20
292.0
 30
0.0
 11
852.0
 21
287.0
 31
0.0
  0
LINE
  5
7126
  8
001センタ
 10
842.0
 20
292.0
 30
0.0
 11
842.0
 21
287.0
 31
0.0
  0
LINE
  5
7127
  8
001センタ
 10
847.0
 20
297.0
 30
0.0
 11
847.0
 21
282.0
 31
0.0
  0
LINE
  5
7128
  8
001センタ
 10
1086.0
 20
370.0
 30
0.0
 11
681.0
 21
370.0
 31
0.0
  0
LINE
  5
7129
  8
001センタ
 10
1005.0
 20
382.0
 30
0.0
 11
1005.0
 21
358.0
 31
0.0
  0
LINE
  5
712A
  8
001センタ
 10
762.0
 20
382.0
 30
0.0
 11
762.0
 21
358.0
 31
0.0
  0
DIMENSION
  5
7147
  8
002寸法
  2
*D12
 10
1361.5
 20
450.49999999999989
 30
0.0
 11
1357.5
 21
370.00000000000023
 31
0.0
 70
     0
 13
1271.5
 23
289.5
 33
0.0
 14
1271.5
 24
450.49999999999989
 34
0.0
 50
90.0
1001
ACAD
1000
DSTYLE
1002
{
1070
   279
1070
     0
1002
}
  0
DIMENSION
  5
715F
  8
002寸法
  2
*D13
 10
1381.5
 20
459.49999999999989
 30
0.0
 11
1381.5
 21
370.00000000000023
 31
0.0
 70
   128
 13
1271.5
 23
280.5
 33
0.0
 14
1271.5
 24
459.49999999999989
 34
0.0
 50
90.0
1001
ACAD
1000
DSTYLE
1002
{
1070
   279
1070
     0
1002
}
  0
DIMENSION
  5
7177
  8
002寸法
  2
*D14
 10
1106.0
 20
401.49999999999989
 30
0.0
 11
1102.0
 21
370.00000000000023
 31
0.0
 70
     0
 13
1074.0
 23
338.5
 33
0.0
 14
1074.0
 24
401.49999999999989
 34
0.0
 50
90.0
1001
ACAD
1000
DSTYLE
1002
{
1070
     3
1000
\U+03C6<>h7
1070
   279
1070
     0
1002
}
  0
DIMENSION
  5
718F
  8
002寸法
  2
*D15
 10
1126.0
 20
437.5
 30
0.0
 11
1126.0
 21
370.00000000000011
 31
0.0
 70
   128
 13
902.5
 23
302.5
 33
0.0
 14
902.5
 24
437.5
 34
0.0
 50
90.0
1001
ACAD
1000
DSTYLE
1002
{
1070
     3
1000
\U+03C6<>
1070
   279
1070
     0
1002
}
  0
DIMENSION
  5
71A7
  8
002寸法
  2
*D16
 10
671.0
 20
401.49999999999989
 30
0.0
 11
666.99999999999989
 21
370.00000000000011
 31
0.0
 70
     0
 13
693.0
 23
338.5
 33
0.0
 14
693.0
 24
401.49999999999989
 34
0.0
 50
90.0
1001
ACAD
1000
DSTYLE
1002
{
1070
     3
1000
\U+03C6<>h7
1002
}
  0
DIMENSION
  5
7210
  8
002寸法
  2
*D17
 10
1271.5
 20
479.49999999999989
 30
0.0
 11
1264.0
 21
483.49999999999989
 31
0.0
 70
     0
 13
1256.5
 23
459.49999999999989
 33
0.0
 14
1271.5
 24
459.49999999999989
 34
0.0
  0
DIMENSION
  5
7228
  8
002寸法
  2
*D18
 10
1331.5
 20
250.5
 30
0.0
 11
1247.5
 21
254.5
 31
0.0
 70
     0
 13
1163.5
 23
362.0
 33
0.0
 14
1331.5
 24
370.0
 34
0.0
  0
DIMENSION
  5
7240
  8
002寸法
  2
*D19
 10
1221.5
 20
379.00000000082929
 30
0.0
 11
1217.0
 21
382.12857142940101
 31
0.0
 70
   128
  1
<>\H0.5x;\S 0^ -0.043
 13
1233.8130823040001
 23
361.0
 33
0.0
 14
1233.8130823040001
 24
379.00000000082929
 34
0.0
 50
90.0
1001
ACAD
1000
DSTYLE
1002
{
1070
   287
1070
     5
1070
   279
1070
     2
1002
}
  0
DIMENSION
  5
7258
  8
002寸法
  2
*D20
 10
1239.5
 20
404.0
 30
0.0
 11
1236.0
 21
404.0
 31
0.0
 70
   128
  1
<>\H0.5x;\S+0.2^  0
 13
1232.5
 23
370.0
 33
0.0
 14
1239.5
 24
379.0
 34
0.0
  0
DIMENSION
  5
7322
  8
002寸法
  2
*D21
 10
857.0
 20
479.49999999999989
 30
0.0
 11
847.0
 21
483.49999999999989
 31
0.0
 70
     0
 13
837.0
 23
450.49999999999989
 33
0.0
 14
857.0
 24
450.49999999999989
 34
0.0
  0
DIMENSION
  5
733A
  8
002寸法
  2
*D22
 10
772.5
 20
455.49999999999989
 30
0.0
 11
768.49999999999977
 21
450.50000000000011
 31
0.0
 70
     0
 13
842.0
 23
445.5
 33
0.0
 14
842.0
 24
455.49999999999989
 34
0.0
 50
90.0
  0
DIMENSION
  5
7356
  8
002寸法
  2
*D23
 10
847.0
 20
250.5
 30
0.0
 11
819.0
 21
254.5
 31
0.0
 70
     0
 13
791.0
 23
304.0
 33
0.0
 14
847.0
 24
284.5
 34
0.0
1001
ACAD
1000
DSTYLE
1002
{
1070
   279
1070
     0
1002
}
  0
DIMENSION
  5
736E
  8
002寸法
  2
*D24
 10
791.0
 20
230.5
 30
0.0
 11
775.20000000000005
 21
230.5
 31
0.0
 70
   128
 13
788.0
 23
337.0
 33
0.0
 14
791.0
 24
304.0
 34
0.0
  0
DIMENSION
  5
738A
  8
002寸法
  2
*D25
 10
788.0
 20
210.5
 30
0.0
 11
739.5
 21
210.5
 31
0.0
 70
   128
 13
691.0
 23
340.5
 33
0.0
 14
788.0
 24
337.0
 34
0.0
1001
ACAD
1000
DSTYLE
1002
{
1070
   279
1070
     0
1002
}
  0
DIMENSION
  5
73A2
  8
002寸法
  2
*D26
 10
1076.0
 20
190.5
 30
0.0
 11
883.5
 21
190.5
 31
0.0
 70
   128
 13
691.0
 23
340.5
 33
0.0
 14
1076.0
 24
340.5
 34
0.0
1001
ACAD
1000
DSTYLE
1002
{
1070
   279
1070
     0
1002
}
  0
DIMENSION
  5
7406
  8
002寸法
  2
*D27
 10
771.0
 20
250.5
 30
0.0
 11
731.0
 21
254.5
 31
0.0
 70
     0
 13
691.0
 23
339.5
 33
0.0
 14
771.0
 24
370.0
 34
0.0
  0
DIMENSION
  5
741E
  8
002寸法
  2
*D28
 10
905.0
 20
250.5
 30
0.0
 11
876.0
 21
254.5
 31
0.0
 70
     0
 13
847.0
 23
284.5
 33
0.0
 14
905.0
 24
308.5
 34
0.0
1001
ACAD
1000
DSTYLE
1002
{
1070
   287
1070
     4
1070
   279
1070
     1
1002
}
  0
DIMENSION
  5
7436
  8
002寸法
  2
*D29
 10
905.0
 20
230.5
 30
0.0
 11
848.0
 21
234.5
 31
0.0
 70
     0
 13
791.0
 23
304.0
 33
0.0
 14
905.0
 24
308.5
 34
0.0
1001
ACAD
1000
DSTYLE
1002
{
1070
   287
1070
     4
1070
   279
1070
     1
1002
}
  0
DIMENSION
  5
744E
  8
002寸法
  2
*D30
 10
979.0
 20
230.5
 30
0.0
 11
942.0
 21
234.5
 31
0.0
 70
     0
 13
905.0
 23
308.5
 33
0.0
 14
979.0
 24
333.5
 34
0.0
1001
ACAD
1000
DSTYLE
1002
{
1070
   287
1070
     4
1070
   279
1070
     1
1002
}
  0
DIMENSION
  5
747E
  8
002寸法
  2
*D31
 10
979.0
 20
210.5
 30
0.0
 11
883.5
 21
214.5
 31
0.0
 70
     0
 13
788.0
 23
337.0
 33
0.0
 14
979.0
 24
333.5
 34
0.0
1001
ACAD
1000
DSTYLE
1002
{
1070
   287
1070
     4
1070
   279
1070
     1
1002
}
  0
DIMENSION
  5
7496
  8
002寸法
  2
*D32
 10
1076.0
 20
210.5
 30
0.0
 11
1027.5
 21
214.5
 31
0.0
 70
     0
 13
979.0
 23
333.5
 33
0.0
 14
1076.0
 24
340.5
 34
0.0
1001
ACAD
1000
DSTYLE
1002
{
1070
   287
1070
     4
1070
   279
1070
     1
1002
}
  0
DIMENSION
  5
74AE
  8
002寸法
  2
*D33
 10
1076.0
 20
250.5
 30
0.0
 11
1036.0
 21
254.5
 31
0.0
 70
     0
 13
996.0
 23
370.0
 33
0.0
 14
1076.0
 24
340.5
 34
0.0
  0
LINE
  5
759A
  8
002寸法
 10
1221.5
 20
379.00000000082929
 30
0.0
 11
1221.5
 21
394.00000000082929
 31
0.0
  0
VIEWPORT
  5
71
 67
     1
  8
0
 10
624.30697861446504
 20
307.75602246587403
 30
0.0
 40
994.76769694267671
 41
769.77311836716035
 68
     1
 69
     1
1001
ACAD
1000
MVIEW
1002
{
1070
    16
1010
0.0
1020
0.0
1030
0.0
1010
0.0
1020
0.0
1030
1.0
1040
0.0
1040
769.77311836716035
1040
624.30697861446504
1040
307.75602246587403
1040
50.0
1040
0.0
1040
0.0
1070
     0
1070
   100
1070
     1
1070
     1
1070
     1
1070
     0
1070
     0
1070
     0
1040
0.0
1040
0.0
1040
0.0
1040
0.5
1040
0.5
1040
10.0
1040
10.0
1070
     0
1002
{
1002
}
1002
}
  0
VIEWPORT
  5
73
 67
     1
  8
0
 10
693.0
 20
140.5
 30
0.0
 40
419.99999999999989
 41
297.0
 68
     2
 69
     2
1001
ACAD
1000
MVIEW
1002
{
1070
    16
1010
0.0
1020
0.0
1030
0.0
1010
0.0
1020
0.0
1030
1.0
1040
0.0
1040
297.0
1040
804.0
1040
148.5
1040
50.0
1040
0.0
1040
0.0
1070
     0
1070
   100
1070
     1
1070
     3
1070
     0
1070
     0
1070
     0
1070
     0
1040
0.0
1040
0.0
1040
0.0
1040
10.0
1040
10.0
1040
10.0
1040
10.0
1070
     0
1002
{
1002
}
1002
}
  0
ENDSEC
  0
EOF
