  0
SECTION
  2
HEADER
  9
$ACADVER
  1
AC1015
  9
$ACADMAINTVER
 70
     6
  9
$DWGCODEPAGE
  3
ANSI_932
  9
$INSBASE
 10
0.0
 20
0.0
 30
0.0
  9
$EXTMIN
 10
0.0000000000001137
 20
0.0
 30
0.0
  9
$EXTMAX
 10
420.0000000000001
 20
297.0
 30
0.0
  9
$LIMMIN
 10
0.0
 20
0.0
  9
$LIMMAX
 10
420.0
 20
297.0
  9
$ORTHOMODE
 70
     0
  9
$REGENMODE
 70
     1
  9
$FILLMODE
 70
     1
  9
$QTEXTMODE
 70
     0
  9
$MIRRTEXT
 70
     1
  9
$LTSCALE
 40
2.0
  9
$ATTMODE
 70
     1
  9
$TEXTSIZE
 40
2.5
  9
$TRACEWID
 40
1.0
  9
$TEXTSTYLE
  7
Standard
  9
$CLAYER
  8
011形状
  9
$CELTYPE
  6
ByLayer
  9
$CECOLOR
 62
   256
  9
$CELTSCALE
 40
1.0
  9
$DISPSILH
 70
     0
  9
$DIMSCALE
 40
1.0
  9
$DIMASZ
 40
2.5
  9
$DIMEXO
 40
0.5
  9
$DIMDLI
 40
3.75
  9
$DIMRND
 40
0.0
  9
$DIMDLE
 40
0.0
  9
$DIMEXE
 40
0.75
  9
$DIMTP
 40
0.0
  9
$DIMTM
 40
0.000000001
  9
$DIMTXT
 40
3.0
  9
$DIMCEN
 40
2.5
  9
$DIMTSZ
 40
0.0
  9
$DIMTOL
 70
     0
  9
$DIMLIM
 70
     0
  9
$DIMTIH
 70
     0
  9
$DIMTOH
 70
     0
  9
$DIMSE1
 70
     0
  9
$DIMSE2
 70
     0
  9
$DIMTAD
 70
     3
  9
$DIMZIN
 70
     8
  9
$DIMBLK
  1

  9
$DIMASO
 70
     1
  9
$DIMSHO
 70
     1
  9
$DIMPOST
  1

  9
$DIMAPOST
  1

  9
$DIMALT
 70
     0
  9
$DIMALTD
 70
     4
  9
$DIMALTF
 40
0.0394
  9
$DIMLFAC
 40
1.0
  9
$DIMTOFL
 70
     1
  9
$DIMTVP
 40
0.0
  9
$DIMTIX
 70
     0
  9
$DIMSOXD
 70
     0
  9
$DIMSAH
 70
     1
  9
$DIMBLK1
  1
OPEN
  9
$DIMBLK2
  1
OPEN
  9
$DIMSTYLE
  2
通常x1.0
  9
$DIMCLRD
 70
   256
  9
$DIMCLRE
 70
   256
  9
$DIMCLRT
 70
     2
  9
$DIMTFAC
 40
0.5
  9
$DIMGAP
 40
0.5
  9
$DIMJUST
 70
     0
  9
$DIMSD1
 70
     0
  9
$DIMSD2
 70
     0
  9
$DIMTOLJ
 70
     0
  9
$DIMTZIN
 70
     8
  9
$DIMALTZ
 70
     0
  9
$DIMALTTZ
 70
     0
  9
$DIMUPT
 70
     0
  9
$DIMDEC
 70
     8
  9
$DIMTDEC
 70
     8
  9
$DIMALTU
 70
     8
  9
$DIMALTTD
 70
     4
  9
$DIMTXSTY
  7
Standard
  9
$DIMAUNIT
 70
     0
  9
$DIMADEC
 70
     8
  9
$DIMALTRND
 40
0.0
  9
$DIMAZIN
 70
     2
  9
$DIMDSEP
 70
    46
  9
$DIMATFIT
 70
     3
  9
$DIMFRAC
 70
     0
  9
$DIMLDRBLK
  1
OPEN
  9
$DIMLUNIT
 70
     2
  9
$DIMLWD
 70
    -1
  9
$DIMLWE
 70
    -1
  9
$DIMTMOVE
 70
     0
  9
$LUNITS
 70
     2
  9
$LUPREC
 70
     8
  9
$SKETCHINC
 40
1.0
  9
$FILLETRAD
 40
10.0
  9
$AUNITS
 70
     0
  9
$AUPREC
 70
     6
  9
$MENU
  1
.
  9
$ELEVATION
 40
0.0
  9
$PELEVATION
 40
0.0
  9
$THICKNESS
 40
0.0
  9
$LIMCHECK
 70
     0
  9
$CHAMFERA
 40
0.5
  9
$CHAMFERB
 40
0.5
  9
$CHAMFERC
 40
20.0
  9
$CHAMFERD
 40
0.0
  9
$SKPOLY
 70
     0
  9
$TDCREATE
 40
2453536.875536378
  9
$TDUCREATE
 40
2453536.500536378
  9
$TDUPDATE
 40
2460020.409867442
  9
$TDUUPDATE
 40
2460020.034867442
  9
$TDINDWG
 40
0.5554524421
  9
$TDUSRTIMER
 40
0.0094340625
  9
$USRTIMER
 70
     1
  9
$ANGBASE
 50
0.0
  9
$ANGDIR
 70
     0
  9
$PDMODE
 70
     0
  9
$PDSIZE
 40
0.0
  9
$PLINEWID
 40
0.0
  9
$SPLFRAME
 70
     0
  9
$SPLINETYPE
 70
     6
  9
$SPLINESEGS
 70
     8
  9
$HANDSEED
  5
5DA5
  9
$SURFTAB1
 70
     6
  9
$SURFTAB2
 70
     6
  9
$SURFTYPE
 70
     6
  9
$SURFU
 70
     6
  9
$SURFV
 70
     6
  9
$UCSBASE
  2

  9
$UCSNAME
  2

  9
$UCSORG
 10
0.0
 20
0.0
 30
0.0
  9
$UCSXDIR
 10
1.0
 20
0.0
 30
0.0
  9
$UCSYDIR
 10
0.0
 20
1.0
 30
0.0
  9
$UCSORTHOREF
  2

  9
$UCSORTHOVIEW
 70
     1
  9
$UCSORGTOP
 10
0.0
 20
0.0
 30
0.0
  9
$UCSORGBOTTOM
 10
0.0
 20
0.0
 30
0.0
  9
$UCSORGLEFT
 10
0.0
 20
0.0
 30
0.0
  9
$UCSORGRIGHT
 10
0.0
 20
0.0
 30
0.0
  9
$UCSORGFRONT
 10
0.0
 20
0.0
 30
0.0
  9
$UCSORGBACK
 10
0.0
 20
0.0
 30
0.0
  9
$PUCSBASE
  2

  9
$PUCSNAME
  2

  9
$PUCSORG
 10
0.0
 20
0.0
 30
0.0
  9
$PUCSXDIR
 10
1.0
 20
0.0
 30
0.0
  9
$PUCSYDIR
 10
0.0
 20
1.0
 30
0.0
  9
$PUCSORTHOREF
  2

  9
$PUCSORTHOVIEW
 70
     0
  9
$PUCSORGTOP
 10
0.0
 20
0.0
 30
0.0
  9
$PUCSORGBOTTOM
 10
0.0
 20
0.0
 30
0.0
  9
$PUCSORGLEFT
 10
0.0
 20
0.0
 30
0.0
  9
$PUCSORGRIGHT
 10
0.0
 20
0.0
 30
0.0
  9
$PUCSORGFRONT
 10
0.0
 20
0.0
 30
0.0
  9
$PUCSORGBACK
 10
0.0
 20
0.0
 30
0.0
  9
$USERI1
 70
     0
  9
$USERI2
 70
     0
  9
$USERI3
 70
     0
  9
$USERI4
 70
     0
  9
$USERI5
 70
     0
  9
$USERR1
 40
0.0
  9
$USERR2
 40
0.0
  9
$USERR3
 40
0.0
  9
$USERR4
 40
0.0
  9
$USERR5
 40
0.0
  9
$WORLDVIEW
 70
     1
  9
$SHADEDGE
 70
     3
  9
$SHADEDIF
 70
    70
  9
$TILEMODE
 70
     1
  9
$MAXACTVP
 70
    48
  9
$PINSBASE
 10
0.0
 20
0.0
 30
0.0
  9
$PLIMCHECK
 70
     0
  9
$PEXTMIN
 10
211.5
 20
-8.0
 30
0.0
  9
$PEXTMAX
 10
903.5
 20
300.0
 30
0.0
  9
$PLIMMIN
 10
483.0294891085447
 20
-8.150164120482088
  9
$PLIMMAX
 10
903.0184722628416
 20
288.8181586334242
  9
$UNITMODE
 70
     0
  9
$VISRETAIN
 70
     1
  9
$PLINEGEN
 70
     0
  9
$PSLTSCALE
 70
     1
  9
$TREEDEPTH
 70
  3020
  9
$CMLSTYLE
  2
Standard
  9
$CMLJUST
 70
     0
  9
$CMLSCALE
 40
20.0
  9
$PROXYGRAPHICS
 70
     1
  9
$MEASUREMENT
 70
     1
  9
$CELWEIGHT
370
    -1
  9
$ENDCAPS
280
     0
  9
$JOINSTYLE
280
     0
  9
$LWDISPLAY
290
     0
  9
$INSUNITS
 70
     4
  9
$HYPERLINKBASE
  1

  9
$STYLESHEET
  1
yuasa.ctb
  9
$XEDIT
290
     1
  9
$CEPSNTYPE
380
     0
  9
$PSTYLEMODE
290
     1
  9
$FINGERPRINTGUID
  2
{FDEAD578-A652-11D2-9A35-0060089B3A3F}
  9
$VERSIONGUID
  2
{8416E7F1-6FFE-4CC7-850C-33E48B8EC752}
  9
$EXTNAMES
290
     1
  9
$PSVPSCALE
 40
0.0
  9
$OLESTARTUP
290
     0
  0
ENDSEC
  0
SECTION
  2
CLASSES
  0
CLASS
  1
ACDBDICTIONARYWDFLT
  2
AcDbDictionaryWithDefault
  3
ObjectDBX Classes
 90
        0
280
     0
281
     0
  0
CLASS
  1
ACDBPLACEHOLDER
  2
AcDbPlaceHolder
  3
ObjectDBX Classes
 90
        0
280
     0
281
     0
  0
CLASS
  1
LAYOUT
  2
AcDbLayout
  3
ObjectDBX Classes
 90
        0
280
     0
281
     0
  0
CLASS
  1
DICTIONARYVAR
  2
AcDbDictionaryVar
  3
ObjectDBX Classes
 90
        0
280
     0
281
     0
  0
CLASS
  1
LONG_TRANSACTION
  2
AcDbLongTransaction
  3
ObjectDBX Classes
 90
        0
280
     0
281
     0
  0
CLASS
  1
LWPOLYLINE
  2
AcDbPolyline
  3
ObjectDBX Classes
 90
        0
280
     0
281
     1
  0
CLASS
  1
HATCH
  2
AcDbHatch
  3
ObjectDBX Classes
 90
        0
280
     0
281
     1
  0
CLASS
  1
XRECORD
  2
AcDbXrecord
  3
ObjectDBX Classes
 90
        0
280
     0
281
     0
  0
CLASS
  1
LONG_TRANSACTION
  2
AcDbLongTransaction
  3
ObjectDBX Classes
 90
        0
280
     0
281
     0
  0
CLASS
  1
LWPOLYLINE
  2
AcDbPolyline
  3
ObjectDBX Classes
 90
        0
280
     0
281
     1
  0
CLASS
  1
HATCH
  2
AcDbHatch
  3
ObjectDBX Classes
 90
        0
280
     0
281
     1
  0
CLASS
  1
XRECORD
  2
AcDbXrecord
  3
ObjectDBX Classes
 90
        0
280
     0
281
     0
  0
CLASS
  1
DIMASSOC
  2
AcDbDimAssoc
  3
"AcDbDimAssoc|Product Desc:     AcDim ARX App For Dimension|Company:          Autodesk, Inc.|WEB Address:      www.autodesk.com"
 90
        0
280
     0
281
     0
  0
CLASS
  1
LONG_TRANSACTION
  2
AcDbLongTransaction
  3
ObjectDBX Classes
 90
        0
280
     0
281
     0
  0
CLASS
  1
LWPOLYLINE
  2
AcDbPolyline
  3
ObjectDBX Classes
 90
        0
280
     0
281
     1
  0
CLASS
  1
HATCH
  2
AcDbHatch
  3
ObjectDBX Classes
 90
        0
280
     0
281
     1
  0
CLASS
  1
XRECORD
  2
AcDbXrecord
  3
ObjectDBX Classes
 90
        0
280
     0
281
     0
  0
CLASS
  1
LONG_TRANSACTION
  2
AcDbLongTransaction
  3
ObjectDBX Classes
 90
        0
280
     0
281
     0
  0
CLASS
  1
LWPOLYLINE
  2
AcDbPolyline
  3
ObjectDBX Classes
 90
        0
280
     0
281
     1
  0
CLASS
  1
HATCH
  2
AcDbHatch
  3
ObjectDBX Classes
 90
        0
280
     0
281
     1
  0
CLASS
  1
XRECORD
  2
AcDbXrecord
  3
ObjectDBX Classes
 90
        0
280
     0
281
     0
  0
CLASS
  1
LONG_TRANSACTION
  2
AcDbLongTransaction
  3
ObjectDBX Classes
 90
        0
280
     0
281
     0
  0
CLASS
  1
LWPOLYLINE
  2
AcDbPolyline
  3
ObjectDBX Classes
 90
        0
280
     0
281
     1
  0
CLASS
  1
HATCH
  2
AcDbHatch
  3
ObjectDBX Classes
 90
        0
280
     0
281
     1
  0
CLASS
  1
XRECORD
  2
AcDbXrecord
  3
ObjectDBX Classes
 90
        0
280
     0
281
     0
  0
CLASS
  1
LONG_TRANSACTION
  2
AcDbLongTransaction
  3
ObjectDBX Classes
 90
        0
280
     0
281
     0
  0
CLASS
  1
LWPOLYLINE
  2
AcDbPolyline
  3
ObjectDBX Classes
 90
        0
280
     0
281
     1
  0
CLASS
  1
HATCH
  2
AcDbHatch
  3
ObjectDBX Classes
 90
        0
280
     0
281
     1
  0
CLASS
  1
XRECORD
  2
AcDbXrecord
  3
ObjectDBX Classes
 90
        0
280
     0
281
     0
  0
CLASS
  1
LONG_TRANSACTION
  2
AcDbLongTransaction
  3
ObjectDBX Classes
 90
        0
280
     0
281
     0
  0
CLASS
  1
LWPOLYLINE
  2
AcDbPolyline
  3
ObjectDBX Classes
 90
        0
280
     0
281
     1
  0
CLASS
  1
HATCH
  2
AcDbHatch
  3
ObjectDBX Classes
 90
        0
280
     0
281
     1
  0
CLASS
  1
XRECORD
  2
AcDbXrecord
  3
ObjectDBX Classes
 90
        0
280
     0
281
     0
  0
CLASS
  1
LONG_TRANSACTION
  2
AcDbLongTransaction
  3
ObjectDBX Classes
 90
        0
280
     0
281
     0
  0
CLASS
  1
LWPOLYLINE
  2
AcDbPolyline
  3
ObjectDBX Classes
 90
        0
280
     0
281
     1
  0
CLASS
  1
HATCH
  2
AcDbHatch
  3
ObjectDBX Classes
 90
        0
280
     0
281
     1
  0
CLASS
  1
XRECORD
  2
AcDbXrecord
  3
ObjectDBX Classes
 90
        0
280
     0
281
     0
  0
CLASS
  1
LONG_TRANSACTION
  2
AcDbLongTransaction
  3
ObjectDBX Classes
 90
        0
280
     0
281
     0
  0
CLASS
  1
LWPOLYLINE
  2
AcDbPolyline
  3
ObjectDBX Classes
 90
        0
280
     0
281
     1
  0
CLASS
  1
HATCH
  2
AcDbHatch
  3
ObjectDBX Classes
 90
        0
280
     0
281
     1
  0
CLASS
  1
XRECORD
  2
AcDbXrecord
  3
ObjectDBX Classes
 90
        0
280
     0
281
     0
  0
CLASS
  1
LONG_TRANSACTION
  2
AcDbLongTransaction
  3
ObjectDBX Classes
 90
        0
280
     0
281
     0
  0
CLASS
  1
LWPOLYLINE
  2
AcDbPolyline
  3
ObjectDBX Classes
 90
        0
280
     0
281
     1
  0
CLASS
  1
HATCH
  2
AcDbHatch
  3
ObjectDBX Classes
 90
        0
280
     0
281
     1
  0
CLASS
  1
XRECORD
  2
AcDbXrecord
  3
ObjectDBX Classes
 90
        0
280
     0
281
     0
  0
CLASS
  1
LONG_TRANSACTION
  2
AcDbLongTransaction
  3
ObjectDBX Classes
 90
        0
280
     0
281
     0
  0
CLASS
  1
LWPOLYLINE
  2
AcDbPolyline
  3
ObjectDBX Classes
 90
        0
280
     0
281
     1
  0
CLASS
  1
HATCH
  2
AcDbHatch
  3
ObjectDBX Classes
 90
        0
280
     0
281
     1
  0
CLASS
  1
XRECORD
  2
AcDbXrecord
  3
ObjectDBX Classes
 90
        0
280
     0
281
     0
  0
CLASS
  1
LONG_TRANSACTION
  2
AcDbLongTransaction
  3
ObjectDBX Classes
 90
        0
280
     0
281
     0
  0
CLASS
  1
LWPOLYLINE
  2
AcDbPolyline
  3
ObjectDBX Classes
 90
        0
280
     0
281
     1
  0
CLASS
  1
HATCH
  2
AcDbHatch
  3
ObjectDBX Classes
 90
        0
280
     0
281
     1
  0
CLASS
  1
XRECORD
  2
AcDbXrecord
  3
ObjectDBX Classes
 90
        0
280
     0
281
     0
  0
CLASS
  1
LONG_TRANSACTION
  2
AcDbLongTransaction
  3
ObjectDBX Classes
 90
        0
280
     0
281
     0
  0
CLASS
  1
LWPOLYLINE
  2
AcDbPolyline
  3
ObjectDBX Classes
 90
        0
280
     0
281
     1
  0
CLASS
  1
HATCH
  2
AcDbHatch
  3
ObjectDBX Classes
 90
        0
280
     0
281
     1
  0
CLASS
  1
XRECORD
  2
AcDbXrecord
  3
ObjectDBX Classes
 90
        0
280
     0
281
     0
  0
CLASS
  1
LONG_TRANSACTION
  2
AcDbLongTransaction
  3
ObjectDBX Classes
 90
        0
280
     0
281
     0
  0
CLASS
  1
LWPOLYLINE
  2
AcDbPolyline
  3
ObjectDBX Classes
 90
        0
280
     0
281
     1
  0
CLASS
  1
HATCH
  2
AcDbHatch
  3
ObjectDBX Classes
 90
        0
280
     0
281
     1
  0
CLASS
  1
XRECORD
  2
AcDbXrecord
  3
ObjectDBX Classes
 90
        0
280
     0
281
     0
  0
CLASS
  1
LONG_TRANSACTION
  2
AcDbLongTransaction
  3
ObjectDBX Classes
 90
        0
280
     0
281
     0
  0
CLASS
  1
LWPOLYLINE
  2
AcDbPolyline
  3
ObjectDBX Classes
 90
        0
280
     0
281
     1
  0
CLASS
  1
HATCH
  2
AcDbHatch
  3
ObjectDBX Classes
 90
        0
280
     0
281
     1
  0
CLASS
  1
XRECORD
  2
AcDbXrecord
  3
ObjectDBX Classes
 90
        0
280
     0
281
     0
  0
CLASS
  1
LONG_TRANSACTION
  2
AcDbLongTransaction
  3
ObjectDBX Classes
 90
        0
280
     0
281
     0
  0
CLASS
  1
LWPOLYLINE
  2
AcDbPolyline
  3
ObjectDBX Classes
 90
        0
280
     0
281
     1
  0
CLASS
  1
HATCH
  2
AcDbHatch
  3
ObjectDBX Classes
 90
        0
280
     0
281
     1
  0
CLASS
  1
XRECORD
  2
AcDbXrecord
  3
ObjectDBX Classes
 90
        0
280
     0
281
     0
  0
CLASS
  1
LONG_TRANSACTION
  2
AcDbLongTransaction
  3
ObjectDBX Classes
 90
        0
280
     0
281
     0
  0
CLASS
  1
LWPOLYLINE
  2
AcDbPolyline
  3
ObjectDBX Classes
 90
        0
280
     0
281
     1
  0
CLASS
  1
HATCH
  2
AcDbHatch
  3
ObjectDBX Classes
 90
        0
280
     0
281
     1
  0
CLASS
  1
XRECORD
  2
AcDbXrecord
  3
ObjectDBX Classes
 90
        0
280
     0
281
     0
  0
CLASS
  1
LONG_TRANSACTION
  2
AcDbLongTransaction
  3
ObjectDBX Classes
 90
        0
280
     0
281
     0
  0
CLASS
  1
LWPOLYLINE
  2
AcDbPolyline
  3
ObjectDBX Classes
 90
        0
280
     0
281
     1
  0
CLASS
  1
HATCH
  2
AcDbHatch
  3
ObjectDBX Classes
 90
        0
280
     0
281
     1
  0
CLASS
  1
XRECORD
  2
AcDbXrecord
  3
ObjectDBX Classes
 90
        0
280
     0
281
     0
  0
CLASS
  1
LONG_TRANSACTION
  2
AcDbLongTransaction
  3
ObjectDBX Classes
 90
        0
280
     0
281
     0
  0
CLASS
  1
LWPOLYLINE
  2
AcDbPolyline
  3
ObjectDBX Classes
 90
        0
280
     0
281
     1
  0
CLASS
  1
HATCH
  2
AcDbHatch
  3
ObjectDBX Classes
 90
        0
280
     0
281
     1
  0
CLASS
  1
XRECORD
  2
AcDbXrecord
  3
ObjectDBX Classes
 90
        0
280
     0
281
     0
  0
CLASS
  1
LONG_TRANSACTION
  2
AcDbLongTransaction
  3
ObjectDBX Classes
 90
        0
280
     0
281
     0
  0
CLASS
  1
LWPOLYLINE
  2
AcDbPolyline
  3
ObjectDBX Classes
 90
        0
280
     0
281
     1
  0
CLASS
  1
HATCH
  2
AcDbHatch
  3
ObjectDBX Classes
 90
        0
280
     0
281
     1
  0
CLASS
  1
XRECORD
  2
AcDbXrecord
  3
ObjectDBX Classes
 90
        0
280
     0
281
     0
  0
CLASS
  1
LONG_TRANSACTION
  2
AcDbLongTransaction
  3
ObjectDBX Classes
 90
        0
280
     0
281
     0
  0
CLASS
  1
LWPOLYLINE
  2
AcDbPolyline
  3
ObjectDBX Classes
 90
        0
280
     0
281
     1
  0
CLASS
  1
HATCH
  2
AcDbHatch
  3
ObjectDBX Classes
 90
        0
280
     0
281
     1
  0
CLASS
  1
XRECORD
  2
AcDbXrecord
  3
ObjectDBX Classes
 90
        0
280
     0
281
     0
  0
CLASS
  1
LONG_TRANSACTION
  2
AcDbLongTransaction
  3
ObjectDBX Classes
 90
        0
280
     0
281
     0
  0
CLASS
  1
LWPOLYLINE
  2
AcDbPolyline
  3
ObjectDBX Classes
 90
        0
280
     0
281
     1
  0
CLASS
  1
HATCH
  2
AcDbHatch
  3
ObjectDBX Classes
 90
        0
280
     0
281
     1
  0
CLASS
  1
XRECORD
  2
AcDbXrecord
  3
ObjectDBX Classes
 90
        0
280
     0
281
     0
  0
CLASS
  1
LONG_TRANSACTION
  2
AcDbLongTransaction
  3
ObjectDBX Classes
 90
        0
280
     0
281
     0
  0
CLASS
  1
LWPOLYLINE
  2
AcDbPolyline
  3
ObjectDBX Classes
 90
        0
280
     0
281
     1
  0
CLASS
  1
HATCH
  2
AcDbHatch
  3
ObjectDBX Classes
 90
        0
280
     0
281
     1
  0
CLASS
  1
XRECORD
  2
AcDbXrecord
  3
ObjectDBX Classes
 90
        0
280
     0
281
     0
  0
CLASS
  1
LONG_TRANSACTION
  2
AcDbLongTransaction
  3
ObjectDBX Classes
 90
        0
280
     0
281
     0
  0
CLASS
  1
LWPOLYLINE
  2
AcDbPolyline
  3
ObjectDBX Classes
 90
        0
280
     0
281
     1
  0
CLASS
  1
HATCH
  2
AcDbHatch
  3
ObjectDBX Classes
 90
        0
280
     0
281
     1
  0
CLASS
  1
XRECORD
  2
AcDbXrecord
  3
ObjectDBX Classes
 90
        0
280
     0
281
     0
  0
CLASS
  1
LONG_TRANSACTION
  2
AcDbLongTransaction
  3
ObjectDBX Classes
 90
        0
280
     0
281
     0
  0
CLASS
  1
LWPOLYLINE
  2
AcDbPolyline
  3
ObjectDBX Classes
 90
        0
280
     0
281
     1
  0
CLASS
  1
HATCH
  2
AcDbHatch
  3
ObjectDBX Classes
 90
        0
280
     0
281
     1
  0
CLASS
  1
XRECORD
  2
AcDbXrecord
  3
ObjectDBX Classes
 90
        0
280
     0
281
     0
  0
CLASS
  1
LONG_TRANSACTION
  2
AcDbLongTransaction
  3
ObjectDBX Classes
 90
        0
280
     0
281
     0
  0
CLASS
  1
LWPOLYLINE
  2
AcDbPolyline
  3
ObjectDBX Classes
 90
        0
280
     0
281
     1
  0
CLASS
  1
HATCH
  2
AcDbHatch
  3
ObjectDBX Classes
 90
        0
280
     0
281
     1
  0
CLASS
  1
XRECORD
  2
AcDbXrecord
  3
ObjectDBX Classes
 90
        0
280
     0
281
     0
  0
CLASS
  1
LONG_TRANSACTION
  2
AcDbLongTransaction
  3
ObjectDBX Classes
 90
        0
280
     0
281
     0
  0
CLASS
  1
LWPOLYLINE
  2
AcDbPolyline
  3
ObjectDBX Classes
 90
        0
280
     0
281
     1
  0
CLASS
  1
HATCH
  2
AcDbHatch
  3
ObjectDBX Classes
 90
        0
280
     0
281
     1
  0
CLASS
  1
XRECORD
  2
AcDbXrecord
  3
ObjectDBX Classes
 90
        0
280
     0
281
     0
  0
CLASS
  1
LONG_TRANSACTION
  2
AcDbLongTransaction
  3
ObjectDBX Classes
 90
        0
280
     0
281
     0
  0
CLASS
  1
LWPOLYLINE
  2
AcDbPolyline
  3
ObjectDBX Classes
 90
        0
280
     0
281
     1
  0
CLASS
  1
HATCH
  2
AcDbHatch
  3
ObjectDBX Classes
 90
        0
280
     0
281
     1
  0
CLASS
  1
XRECORD
  2
AcDbXrecord
  3
ObjectDBX Classes
 90
        0
280
     0
281
     0
  0
CLASS
  1
LONG_TRANSACTION
  2
AcDbLongTransaction
  3
ObjectDBX Classes
 90
        0
280
     0
281
     0
  0
CLASS
  1
LWPOLYLINE
  2
AcDbPolyline
  3
ObjectDBX Classes
 90
        0
280
     0
281
     1
  0
CLASS
  1
HATCH
  2
AcDbHatch
  3
ObjectDBX Classes
 90
        0
280
     0
281
     1
  0
CLASS
  1
XRECORD
  2
AcDbXrecord
  3
ObjectDBX Classes
 90
        0
280
     0
281
     0
  0
CLASS
  1
LONG_TRANSACTION
  2
AcDbLongTransaction
  3
ObjectDBX Classes
 90
        0
280
     0
281
     0
  0
CLASS
  1
LWPOLYLINE
  2
AcDbPolyline
  3
ObjectDBX Classes
 90
        0
280
     0
281
     1
  0
CLASS
  1
HATCH
  2
AcDbHatch
  3
ObjectDBX Classes
 90
        0
280
     0
281
     1
  0
CLASS
  1
XRECORD
  2
AcDbXrecord
  3
ObjectDBX Classes
 90
        0
280
     0
281
     0
  0
CLASS
  1
LONG_TRANSACTION
  2
AcDbLongTransaction
  3
ObjectDBX Classes
 90
        0
280
     0
281
     0
  0
CLASS
  1
LWPOLYLINE
  2
AcDbPolyline
  3
ObjectDBX Classes
 90
        0
280
     0
281
     1
  0
CLASS
  1
HATCH
  2
AcDbHatch
  3
ObjectDBX Classes
 90
        0
280
     0
281
     1
  0
CLASS
  1
XRECORD
  2
AcDbXrecord
  3
ObjectDBX Classes
 90
        0
280
     0
281
     0
  0
CLASS
  1
LONG_TRANSACTION
  2
AcDbLongTransaction
  3
ObjectDBX Classes
 90
        0
280
     0
281
     0
  0
CLASS
  1
LWPOLYLINE
  2
AcDbPolyline
  3
ObjectDBX Classes
 90
        0
280
     0
281
     1
  0
CLASS
  1
HATCH
  2
AcDbHatch
  3
ObjectDBX Classes
 90
        0
280
     0
281
     1
  0
CLASS
  1
XRECORD
  2
AcDbXrecord
  3
ObjectDBX Classes
 90
        0
280
     0
281
     0
  0
CLASS
  1
LONG_TRANSACTION
  2
AcDbLongTransaction
  3
ObjectDBX Classes
 90
        0
280
     0
281
     0
  0
CLASS
  1
LWPOLYLINE
  2
AcDbPolyline
  3
ObjectDBX Classes
 90
        0
280
     0
281
     1
  0
CLASS
  1
HATCH
  2
AcDbHatch
  3
ObjectDBX Classes
 90
        0
280
     0
281
     1
  0
CLASS
  1
XRECORD
  2
AcDbXrecord
  3
ObjectDBX Classes
 90
        0
280
     0
281
     0
  0
CLASS
  1
VISUALSTYLE
  2
AcDbVisualStyle
  3
ObjectDBX Classes
 90
     4095
280
     0
281
     0
  0
CLASS
  1
SCALE
  2
AcDbScale
  3
ObjectDBX Classes
 90
     1153
280
     0
281
     0
  0
CLASS
  1
MATERIAL
  2
AcDbMaterial
  3
ObjectDBX Classes
 90
     1153
280
     0
281
     0
  0
CLASS
  1
TABLESTYLE
  2
AcDbTableStyle
  3
ObjectDBX Classes
 90
     4095
280
     0
281
     0
  0
CLASS
  1
MLEADERSTYLE
  2
AcDbMLeaderStyle
  3
ACDB_MLEADERSTYLE_CLASS
 90
     4095
280
     0
281
     0
  0
CLASS
  1
SUN
  2
AcDbSun
  3
SCENEOE
 90
     1153
280
     0
281
     0
  0
CLASS
  1
RASTERVARIABLES
  2
AcDbRasterVariables
  3
ISM
 90
        0
280
     0
281
     0
  0
CLASS
  1
SORTENTSTABLE
  2
AcDbSortentsTable
  3
ObjectDBX Classes
 90
        0
280
     0
281
     0
  0
ENDSEC
  0
SECTION
  2
TABLES
  0
TABLE
  2
VPORT
  5
8
330
0
100
AcDbSymbolTable
 70
     1
  0
VPORT
  5
3FB5
330
8
100
AcDbSymbolTableRecord
100
AcDbViewportTableRecord
  2
*Active
 70
     0
 10
0.0
 20
0.0
 11
1.0
 21
1.0
 12
210.0000000000001
 22
148.5
 13
0.0
 23
0.0
 14
0.5
 24
0.5
 15
10.0
 25
10.0
 16
0.0
 26
0.0
 36
1.0
 17
0.0
 27
0.0
 37
0.0
 40
302.94
 41
1.450418160095579
 42
50.0
 43
0.0
 44
0.0
 50
0.0
 51
0.0
 71
    16
 72
   100
 73
     1
 74
     3
 75
     0
 76
     1
 77
     0
 78
     0
281
     0
 65
     1
110
0.0
120
0.0
130
0.0
111
1.0
121
0.0
131
0.0
112
0.0
122
1.0
132
0.0
 79
     1
146
0.0
  0
ENDTAB
  0
TABLE
  2
LTYPE
  5
5
330
0
100
AcDbSymbolTable
 70
     2
  0
LTYPE
  5
14
330
5
100
AcDbSymbolTableRecord
100
AcDbLinetypeTableRecord
  2
ByBlock
 70
     0
  3

 72
    65
 73
     0
 40
0.0
  0
LTYPE
  5
15
330
5
100
AcDbSymbolTableRecord
100
AcDbLinetypeTableRecord
  2
ByLayer
 70
     0
  3

 72
    65
 73
     0
 40
0.0
  0
LTYPE
  5
16
330
5
100
AcDbSymbolTableRecord
100
AcDbLinetypeTableRecord
  2
Continuous
 70
     0
  3
Solid line
 72
    65
 73
     0
 40
0.0
  0
LTYPE
  5
84A
330
5
100
AcDbSymbolTableRecord
100
AcDbLinetypeTableRecord
  2
CENTER
 70
     0
  3
Center ____ _ ____ _ ____ _ ____ _ ____ _ ____
 72
    65
 73
     4
 40
2.0
 49
1.25
 74
     0
 49
-0.25
 74
     0
 49
0.25
 74
     0
 49
-0.25
 74
     0
  0
ENDTAB
  0
TABLE
  2
LAYER
  5
2
102
{ACAD_XDICTIONARY
360
17A7
102
}
330
0
100
AcDbSymbolTable
 70
     5
  0
LAYER
  5
10
330
2
100
AcDbSymbolTableRecord
100
AcDbLayerTableRecord
  2
0
 70
     0
 62
     7
  6
Continuous
370
    -3
390
F
  0
LAYER
  5
8E
330
2
100
AcDbSymbolTableRecord
100
AcDbLayerTableRecord
  2
DEFPOINTS
 70
     0
 62
     7
  6
Continuous
290
     0
370
    -3
390
F
  0
LAYER
  5
2C2
330
2
100
AcDbSymbolTableRecord
100
AcDbLayerTableRecord
  2
002寸法
 70
     0
 62
     1
  6
Continuous
370
    -3
390
F
  0
LAYER
  5
847
330
2
100
AcDbSymbolTableRecord
100
AcDbLayerTableRecord
  2
001センタ
 70
     0
 62
     1
  6
CENTER
370
    -3
390
F
  0
LAYER
  5
5101
330
2
100
AcDbSymbolTableRecord
100
AcDbLayerTableRecord
  2
011形状
 70
     0
 62
     3
  6
Continuous
370
    -3
390
F
1001
AcAecLayerStandard
1000

1000

1001
AcCmTransparency
1071
        0
  0
ENDTAB
  0
TABLE
  2
STYLE
  5
3
330
0
100
AcDbSymbolTable
 70
     3
  0
STYLE
  5
11
330
3
100
AcDbSymbolTableRecord
100
AcDbTextStyleTableRecord
  2
Standard
 70
     0
 40
0.0
 41
0.9
 50
0.0
 71
     0
 42
2.5
  3
romans.shx
  4
extfont2.shx
  0
STYLE
  5
2C3
330
3
100
AcDbSymbolTableRecord
100
AcDbTextStyleTableRecord
  2
表題
 70
     0
 40
0.0
 41
1.0
 50
0.0
 71
     0
 42
2.5
  3
HGRSMP.TTF
  4

1001
ACAD
1000
HGMaruGothicMPRO
1071
    32818
  0
STYLE
  5
5186
330
3
100
AcDbSymbolTableRecord
100
AcDbTextStyleTableRecord
  2
スタイル1
 70
     0
 40
0.0
 41
1.0
 50
0.0
 71
     0
 42
2.5
  3
MS Gothic.ttf
  4

1001
ACAD
1000
MS Gothic
1071
    32817
  0
ENDTAB
  0
TABLE
  2
VIEW
  5
6
330
0
100
AcDbSymbolTable
 70
     0
  0
ENDTAB
  0
TABLE
  2
UCS
  5
7
330
0
100
AcDbSymbolTable
 70
     0
  0
ENDTAB
  0
TABLE
  2
APPID
  5
9
330
0
100
AcDbSymbolTable
 70
    11
  0
APPID
  5
12
330
9
100
AcDbSymbolTableRecord
100
AcDbRegAppTableRecord
  2
ACAD
 70
     0
  0
APPID
  5
4065
330
9
100
AcDbSymbolTableRecord
100
AcDbRegAppTableRecord
  2
AcAecLayerStandard
 70
     0
  0
APPID
  5
406E
330
9
100
AcDbSymbolTableRecord
100
AcDbRegAppTableRecord
  2
PLOTTRANSPARENCY
 70
     0
  0
APPID
  5
5086
330
9
100
AcDbSymbolTableRecord
100
AcDbRegAppTableRecord
  2
ACAD_DSTYLE_DIMRADIAL_EXTENSION
 70
     0
  0
APPID
  5
5104
330
9
100
AcDbSymbolTableRecord
100
AcDbRegAppTableRecord
  2
AcCmTransparency
 70
     0
  0
APPID
  5
5112
330
9
100
AcDbSymbolTableRecord
100
AcDbRegAppTableRecord
  2
ACAD_DSTYLE_DIMBREAK
 70
     0
  0
APPID
  5
5113
330
9
100
AcDbSymbolTableRecord
100
AcDbRegAppTableRecord
  2
ACAD_DSTYLE_DIMJAG
 70
     0
  0
APPID
  5
5114
330
9
100
AcDbSymbolTableRecord
100
AcDbRegAppTableRecord
  2
ACAD_DSTYLE_DIMTALN
 70
     0
  0
APPID
  5
5116
330
9
100
AcDbSymbolTableRecord
100
AcDbRegAppTableRecord
  2
ACAD_NAV_VCDISPLAY
 70
     0
  0
APPID
  5
5117
330
9
100
AcDbSymbolTableRecord
100
AcDbRegAppTableRecord
  2
ACAD_PSEXT
 70
     0
  0
APPID
  5
57D3
330
9
100
AcDbSymbolTableRecord
100
AcDbRegAppTableRecord
  2
HATCHBACKGROUNDCOLOR
 70
     0
  0
ENDTAB
  0
TABLE
  2
DIMSTYLE
  5
A
330
0
100
AcDbSymbolTable
 70
     2
100
AcDbDimStyleTable
  0
DIMSTYLE
105
3B22
330
A
100
AcDbSymbolTableRecord
100
AcDbDimStyleTableRecord
  2
通常x1.0
 70
     0
 41
2.5
 42
0.5
 43
3.75
 44
0.75
 48
0.000000001
 73
     0
 74
     0
 77
     3
 78
     8
 79
     2
140
3.0
141
2.5
143
0.0394
146
0.5
147
0.5
171
     4
172
     1
173
     1
176
   256
177
   256
271
     8
178
     2
179
     8
271
     8
272
     8
273
     8
274
     4
283
     0
284
     8
340
11
341
86
343
86
344
86
371
    -1
372
    -1
  0
DIMSTYLE
105
5183
102
{ACAD_REACTORS
330
5474
330
5483
330
5496
330
54B7
330
54C6
330
54D5
330
54E4
330
54F3
330
551A
330
552B
330
553A
330
5549
330
5868
330
5877
330
588B
330
58AB
330
58BA
330
58C9
330
58D8
330
58E7
330
590E
330
591F
330
592E
330
593D
330
5B63
330
5B72
330
5B86
330
5BA8
330
5BB7
330
5BC6
330
5BD5
330
5BE4
330
5C0B
330
5C1C
330
5C2B
330
5C3C
330
5CAF
330
5CB2
330
5CB7
330
5CCC
330
5CCF
330
5CD2
330
5CD5
330
5CD8
330
5CF3
330
5D04
330
5D07
330
5D0A
102
}
330
A
100
AcDbSymbolTableRecord
100
AcDbDimStyleTableRecord
  2
通常x1
 70
     0
 41
2.0
 42
0.5
 43
3.75
 44
0.75
 73
     0
 74
     0
 77
     3
 78
     8
 79
     2
140
4.0
141
2.5
143
0.0394
147
0.5
171
     4
172
     1
173
     1
176
     1
177
     1
271
     2
178
     2
179
     2
271
     2
272
     2
273
     8
274
     4
340
11
341
86
343
86
344
86
371
    -1
372
    -1
  0
ENDTAB
  0
TABLE
  2
BLOCK_RECORD
  5
1
330
0
100
AcDbSymbolTable
 70
    12
  0
BLOCK_RECORD
  5
1F
102
{ACAD_XDICTIONARY
360
57CA
102
}
330
1
100
AcDbSymbolTableRecord
100
AcDbBlockTableRecord
  2
*Model_Space
340
22
  0
BLOCK_RECORD
  5
55
330
1
100
AcDbSymbolTableRecord
100
AcDbBlockTableRecord
  2
*Paper_Space
340
56
  0
BLOCK_RECORD
  5
50
330
1
100
AcDbSymbolTableRecord
100
AcDbBlockTableRecord
  2
*PAPER_SPACE0
340
51
  0
BLOCK_RECORD
  5
86
330
1
100
AcDbSymbolTableRecord
100
AcDbBlockTableRecord
  2
_OPEN
340
0
102
{BLKREFS
331
3DA0
331
3DA1
331
3D95
331
3D96
331
3ED6
331
3ED7
331
3D80
331
3D81
331
3D77
331
3D78
331
3D6E
331
3D6F
331
3D65
331
3D66
331
3D5C
331
3D5D
331
3D54
331
3D55
331
3DDC
331
3DDD
331
3ECE
331
3ECF
331
3DCC
331
3DCD
331
3DC4
331
3DC5
331
3DBC
331
3DBD
331
3D4C
331
3D4D
331
3DAB
331
3DAC
331
3DEC
331
3DED
331
3DE4
331
3DE5
331
5258
331
5259
331
5267
331
5268
331
5276
331
5277
331
5287
331
5288
331
5294
331
5295
331
52A5
331
52A6
331
52B4
331
52B5
331
52C0
331
52C1
331
52CD
331
52CE
331
52DA
331
52DB
331
5375
331
5376
331
5381
331
5382
331
538D
331
538E
331
539B
331
539C
331
53A7
331
53A8
331
53B6
331
53B7
331
53C5
331
53C6
331
53D1
331
53D2
331
53DD
331
53DE
331
53E9
331
53EA
331
547C
331
547D
331
548E
331
548F
331
549D
331
549E
331
54BF
331
54C0
331
54CE
331
54CF
331
54DD
331
54DE
331
54EC
331
54ED
331
54FB
331
54FC
331
5533
331
5534
331
5542
331
5543
331
5619
331
561A
331
5628
331
5629
331
5635
331
5636
331
5641
331
5642
331
564D
331
564E
331
5659
331
565A
331
5665
331
5666
331
5671
331
5672
331
567D
331
567E
331
568B
331
568C
331
56FD
331
56FE
331
570C
331
570D
331
571B
331
571C
331
572C
331
572D
331
5739
331
573A
331
574A
331
574B
331
575A
331
575B
331
5767
331
5768
331
5774
331
5775
331
5781
331
5782
331
57A9
331
57AA
331
57B8
331
57B9
331
5870
331
5871
331
5882
331
5883
331
5892
331
5893
331
58B3
331
58B4
331
58C2
331
58C3
331
58D1
331
58D2
331
58E0
331
58E1
331
58EF
331
58F0
331
5927
331
5928
331
5936
331
5937
331
5A1C
331
5A1D
331
5A2B
331
5A2C
331
5A38
331
5A39
331
5A44
331
5A45
331
5A50
331
5A51
331
5A5C
331
5A5D
331
5A68
331
5A69
331
5A74
331
5A75
331
5A80
331
5A81
331
5A8E
331
5A8F
331
5D1C
331
5D1D
331
5D2B
331
5D2C
331
5D38
331
5D39
331
5D44
331
5D45
331
5D50
331
5D51
331
5D5C
331
5D5D
331
5D68
331
5D69
331
5D74
331
5D75
331
5D80
331
5D81
331
5D8E
331
5D8F
102
}
  0
BLOCK_RECORD
  5
5D16
330
1
100
AcDbSymbolTableRecord
100
AcDbBlockTableRecord
  2
*D121
340
0
  0
BLOCK_RECORD
  5
5D22
330
1
100
AcDbSymbolTableRecord
100
AcDbBlockTableRecord
  2
*D122
340
0
  0
BLOCK_RECORD
  5
5D31
330
1
100
AcDbSymbolTableRecord
100
AcDbBlockTableRecord
  2
*D123
340
0
  0
BLOCK_RECORD
  5
5D3E
330
1
100
AcDbSymbolTableRecord
100
AcDbBlockTableRecord
  2
*D124
340
0
  0
BLOCK_RECORD
  5
5D4A
330
1
100
AcDbSymbolTableRecord
100
AcDbBlockTableRecord
  2
*D125
340
0
  0
BLOCK_RECORD
  5
5D56
330
1
100
AcDbSymbolTableRecord
100
AcDbBlockTableRecord
  2
*D126
340
0
  0
BLOCK_RECORD
  5
5D62
330
1
100
AcDbSymbolTableRecord
100
AcDbBlockTableRecord
  2
*D127
340
0
  0
BLOCK_RECORD
  5
5D6E
330
1
100
AcDbSymbolTableRecord
100
AcDbBlockTableRecord
  2
*D128
340
0
  0
BLOCK_RECORD
  5
5D7A
330
1
100
AcDbSymbolTableRecord
100
AcDbBlockTableRecord
  2
*D129
340
0
  0
BLOCK_RECORD
  5
5D86
330
1
100
AcDbSymbolTableRecord
100
AcDbBlockTableRecord
  2
*D130
340
0
  0
ENDTAB
  0
ENDSEC
  0
SECTION
  2
BLOCKS
  0
BLOCK
  5
20
330
1F
100
AcDbEntity
  8
0
100
AcDbBlockBegin
  2
*Model_Space
 70
     0
 10
0.0
 20
0.0
 30
0.0
  3
*Model_Space
  1

  0
ENDBLK
  5
21
330
1F
100
AcDbEntity
  8
0
100
AcDbBlockEnd
  0
BLOCK
  5
57
330
55
100
AcDbEntity
 67
     1
  8
0
100
AcDbBlockBegin
  2
*Paper_Space
 70
     0
 10
0.0
 20
0.0
 30
0.0
  3
*Paper_Space
  1

  0
ENDBLK
  5
58
330
55
100
AcDbEntity
 67
     1
  8
0
100
AcDbBlockEnd
  0
BLOCK
  5
52
330
50
100
AcDbEntity
  8
0
100
AcDbBlockBegin
  2
*PAPER_SPACE0
 70
     0
 10
0.0
 20
0.0
 30
0.0
  3
*PAPER_SPACE0
  1

  0
VIEWPORT
  5
6B
330
50
100
AcDbEntity
  8
0
100
AcDbViewport
 10
-37.14995086896897
 20
362.914598858674
 30
0.0
 40
4704.388931953015
 41
3640.359602841129
 68
     1
 69
     1
 12
-37.14995086896897
 22
362.914598858674
 13
0.0
 23
0.0
 14
1.0
 24
1.0
 15
10.0
 25
10.0
 16
0.0
 26
0.0
 36
1.0
 17
0.0
 27
0.0
 37
0.0
 42
50.0
 43
0.0
 44
0.0
 45
3640.359602841129
 50
0.0
 51
0.0
 72
   100
 90
   557216
  1

281
     0
 71
     1
 74
     0
110
0.0
120
0.0
130
0.0
111
1.0
121
0.0
131
0.0
112
0.0
122
1.0
132
0.0
 79
     0
146
0.0
  0
VIEWPORT
  5
6D
330
50
100
AcDbEntity
  8
0
100
AcDbViewport
 10
297.0
 20
210.0
 30
0.0
 40
594.0
 41
420.0
 68
     2
 69
     2
 12
297.0058350011193
 22
210.0
 13
0.0
 23
0.0
 14
10.0
 24
10.0
 15
10.0
 25
10.0
 16
0.0
 26
0.0
 36
1.0
 17
0.0
 27
0.0
 37
0.0
 42
50.0
 43
0.0
 44
0.0
 45
420.0
 50
0.0
 51
0.0
 72
   100
 90
   557280
  1

281
     0
 71
     1
 74
     0
110
0.0
120
0.0
130
0.0
111
1.0
121
0.0
131
0.0
112
0.0
122
1.0
132
0.0
 79
     0
146
0.0
  0
ENDBLK
  5
53
330
50
100
AcDbEntity
  8
0
100
AcDbBlockEnd
  0
BLOCK
  5
8A
330
86
100
AcDbEntity
  8
0
100
AcDbBlockBegin
  2
_OPEN
 70
     0
 10
0.0
 20
0.0
 30
0.0
  3
_OPEN
  1

  0
LINE
  5
87
330
86
100
AcDbEntity
  8
0
  6
ByBlock
 62
     0
100
AcDbLine
 10
-1.0
 20
0.1666666666666667
 30
0.0
 11
0.0
 21
0.0
 31
0.0
  0
LINE
  5
88
330
86
100
AcDbEntity
  8
0
  6
ByBlock
 62
     0
100
AcDbLine
 10
0.0
 20
0.0
 30
0.0
 11
-1.0
 21
-0.1666666666666667
 31
0.0
  0
LINE
  5
89
330
86
100
AcDbEntity
  8
0
  6
ByBlock
 62
     0
100
AcDbLine
 10
0.0
 20
0.0
 30
0.0
 11
-1.0
 21
0.0
 31
0.0
  0
ENDBLK
  5
8B
330
86
100
AcDbEntity
  8
0
100
AcDbBlockEnd
  0
BLOCK
  5
5D17
330
5D16
100
AcDbEntity
  8
0
100
AcDbBlockBegin
  2
*D121
 70
     1
 10
0.0
 20
0.0
 30
0.0
  3
*D121
  1

  0
LINE
  5
5D19
330
5D16
100
AcDbEntity
  8
002寸法
 62
     1
100
AcDbLine
 10
330.499999999995
 20
185.5000000000027
 30
0.0
 11
353.2051249929626
 21
185.4999999999444
 31
0.0
  0
LINE
  5
5D1A
330
5D16
100
AcDbEntity
  8
002寸法
 62
     1
100
AcDbLine
 10
330.4999999999968
 20
215.5000000000026
 30
0.0
 11
353.2051249930396
 21
215.4999999999443
 31
0.0
  0
LINE
  5
5D1B
330
5D16
100
AcDbEntity
  8
002寸法
 62
     1
100
AcDbLine
 10
352.4551249929677
 20
187.4999999999463
 30
0.0
 11
352.4551249930345
 21
213.4999999999463
 31
0.0
  0
INSERT
  5
5D1C
330
5D16
100
AcDbEntity
  8
002寸法
 62
     1
100
AcDbBlockReference
  2
_OPEN
 10
352.4551249929626
 20
185.4999999999463
 30
0.0
 41
2.0
 42
2.0
 43
2.0
 50
269.9999999998529
  0
INSERT
  5
5D1D
330
5D16
100
AcDbEntity
  8
002寸法
 62
     1
100
AcDbBlockReference
  2
_OPEN
 10
352.4551249930396
 20
215.4999999999463
 30
0.0
 41
2.0
 42
2.0
 43
2.0
 50
89.9999999998529
  0
MTEXT
  5
5D1E
330
5D16
100
AcDbEntity
  8
002寸法
 62
     2
100
AcDbMText
 10
350.455124993001
 20
200.4999999999514
 30
0.0
 40
3.0
 41
0.0
 71
     5
 72
     1
  1
\A1;%%C30
 11
2.567427751879833E-12
 21
1.0
 31
0.0
 73
     1
 44
1.0
  0
POINT
  5
5D1F
330
5D16
100
AcDbEntity
  8
DEFPOINTS
 62
     0
100
AcDbPoint
 10
329.999999999995
 20
185.500000000004
 30
0.0
  0
POINT
  5
5D20
330
5D16
100
AcDbEntity
  8
DEFPOINTS
 62
     0
100
AcDbPoint
 10
329.9999999999968
 20
215.5000000000039
 30
0.0
  0
POINT
  5
5D21
330
5D16
100
AcDbEntity
  8
DEFPOINTS
 62
     0
100
AcDbPoint
 10
352.4551249930396
 20
215.4999999999463
 30
0.0
  0
ENDBLK
  5
5D18
330
5D16
100
AcDbEntity
  8
0
100
AcDbBlockEnd
  0
BLOCK
  5
5D23
330
5D22
100
AcDbEntity
  8
0
100
AcDbBlockBegin
  2
*D122
 70
     1
 10
0.0
 20
0.0
 30
0.0
  3
*D122
  1

  0
LINE
  5
5D25
330
5D22
100
AcDbEntity
  8
002寸法
 62
     1
100
AcDbLine
 10
245.4999999999998
 20
198.5000000000025
 30
0.0
 11
234.0862944750228
 21
198.5000000000318
 31
0.0
  0
LINE
  5
5D26
330
5D22
100
AcDbEntity
  8
002寸法
 62
     1
100
AcDbLine
 10
245.4999999999955
 20
202.500000000003
 30
0.0
 11
234.086294475033
 21
202.5000000000324
 31
0.0
  0
LINE
  5
5D27
330
5D22
100
AcDbEntity
  8
002寸法
 62
     1
100
AcDbLine
 10
234.8362944750228
 20
198.5000000000299
 30
0.0
 11
234.8362944749833
 21
183.093784622195
 31
0.0
  0
LINE
  5
5D28
330
5D22
100
AcDbEntity
  8
002寸法
 62
     1
100
AcDbLine
 10
234.8362944750228
 20
198.5000000000299
 30
0.0
 11
234.836294475033
 21
202.5000000000304
 31
0.0
  0
LINE
  5
5D29
330
5D22
100
AcDbEntity
  8
002寸法
 62
     1
100
AcDbLine
 10
234.8362944750177
 20
196.5000000000299
 30
0.0
 11
234.8362944750126
 21
194.5000000000299
 31
0.0
  0
LINE
  5
5D2A
330
5D22
100
AcDbEntity
  8
002寸法
 62
     1
100
AcDbLine
 10
234.8362944750382
 20
204.5000000000304
 30
0.0
 11
234.8362944750433
 21
206.5000000000304
 31
0.0
  0
INSERT
  5
5D2B
330
5D22
100
AcDbEntity
  8
002寸法
 62
     1
100
AcDbBlockReference
  2
_OPEN
 10
234.8362944750228
 20
198.5000000000299
 30
0.0
 41
2.0
 42
2.0
 43
2.0
 50
89.99999999985303
  0
INSERT
  5
5D2C
330
5D22
100
AcDbEntity
  8
002寸法
 62
     1
100
AcDbBlockReference
  2
_OPEN
 10
234.836294475033
 20
202.5000000000304
 30
0.0
 41
2.0
 42
2.0
 43
2.0
 50
269.9999999998531
  0
MTEXT
  5
5D2D
330
5D22
100
AcDbEntity
  8
002寸法
 62
     2
100
AcDbMText
 10
232.8362944749902
 20
185.7794989079144
 30
0.0
 40
3.0
 41
0.0
 71
     5
 72
     1
  1
\A1;%%C4
 11
2.565059276093597E-12
 21
1.0
 31
0.0
 73
     1
 44
1.0
  0
POINT
  5
5D2E
330
5D22
100
AcDbEntity
  8
DEFPOINTS
 62
     0
100
AcDbPoint
 10
245.9999999999998
 20
198.5000000000012
 30
0.0
  0
POINT
  5
5D2F
330
5D22
100
AcDbEntity
  8
DEFPOINTS
 62
     0
100
AcDbPoint
 10
245.9999999999955
 20
202.5000000000018
 30
0.0
  0
POINT
  5
5D30
330
5D22
100
AcDbEntity
  8
DEFPOINTS
 62
     0
100
AcDbPoint
 10
234.8362944750329
 20
202.5000000000304
 30
0.0
  0
ENDBLK
  5
5D24
330
5D22
100
AcDbEntity
  8
0
100
AcDbBlockEnd
  0
BLOCK
  5
5D32
330
5D31
100
AcDbEntity
  8
0
100
AcDbBlockBegin
  2
*D123
 70
     1
 10
0.0
 20
0.0
 30
0.0
  3
*D123
  1

  0
LINE
  5
5D34
330
5D31
100
AcDbEntity
  8
002寸法
 62
     1
100
AcDbLine
 10
245.4999999999968
 20
203.000000000004
 30
0.0
 11
228.6157473327462
 21
203.0000000000474
 31
0.0
  0
LINE
  5
5D35
330
5D31
100
AcDbEntity
  8
002寸法
 62
     1
100
AcDbLine
 10
245.499999999995
 20
198.0000000000014
 30
0.0
 11
228.6157473327334
 21
198.0000000000448
 31
0.0
  0
LINE
  5
5D36
330
5D31
100
AcDbEntity
  8
002寸法
 62
     1
100
AcDbLine
 10
229.3657473327334
 20
198.0000000000429
 30
0.0
 11
229.3657473326953
 21
183.2014665145537
 31
0.0
  0
LINE
  5
5D37
330
5D31
100
AcDbEntity
  8
002寸法
 62
     1
100
AcDbLine
 10
229.3657473327411
 20
201.0000000000454
 30
0.0
 11
229.3657473327385
 21
200.0000000000429
 31
0.0
  0
INSERT
  5
5D38
330
5D31
100
AcDbEntity
  8
002寸法
 62
     1
100
AcDbBlockReference
  2
_OPEN
 10
229.3657473327462
 20
203.0000000000454
 30
0.0
 41
2.0
 42
2.0
 43
2.0
 50
89.99999999985279
  0
INSERT
  5
5D39
330
5D31
100
AcDbEntity
  8
002寸法
 62
     1
100
AcDbBlockReference
  2
_OPEN
 10
229.3657473327334
 20
198.0000000000429
 30
0.0
 41
2.0
 42
2.0
 43
2.0
 50
269.9999999998528
  0
MTEXT
  5
5D3A
330
5D31
100
AcDbEntity
  8
002寸法
 62
     2
100
AcDbMText
 10
227.3657473327021
 20
185.8228950859874
 30
0.0
 40
3.0
 41
0.0
 71
     5
 72
     1
  1
\A1;%%C5
 11
2.569322532507208E-12
 21
1.0
 31
0.0
 73
     1
 44
1.0
  0
POINT
  5
5D3B
330
5D31
100
AcDbEntity
  8
DEFPOINTS
 62
     0
100
AcDbPoint
 10
245.9999999999968
 20
203.0000000000027
 30
0.0
  0
POINT
  5
5D3C
330
5D31
100
AcDbEntity
  8
DEFPOINTS
 62
     0
100
AcDbPoint
 10
245.999999999995
 20
198.0000000000002
 30
0.0
  0
POINT
  5
5D3D
330
5D31
100
AcDbEntity
  8
DEFPOINTS
 62
     0
100
AcDbPoint
 10
229.3657473327333
 20
198.0000000000429
 30
0.0
  0
ENDBLK
  5
5D33
330
5D31
100
AcDbEntity
  8
0
100
AcDbBlockEnd
  0
BLOCK
  5
5D3F
330
5D3E
100
AcDbEntity
  8
0
100
AcDbBlockBegin
  2
*D124
 70
     1
 10
0.0
 20
0.0
 30
0.0
  3
*D124
  1

  0
LINE
  5
5D41
330
5D3E
100
AcDbEntity
  8
002寸法
 62
     1
100
AcDbLine
 10
171.0000000000002
 20
195.757359312879
 30
0.0
 11
171.0000000000002
 21
172.1924213152231
 31
0.0
  0
LINE
  5
5D42
330
5D3E
100
AcDbEntity
  8
002寸法
 62
     1
100
AcDbLine
 10
187.9999999999973
 20
195.757359312879
 30
0.0
 11
187.9999999999973
 21
172.1924213152231
 31
0.0
  0
LINE
  5
5D43
330
5D3E
100
AcDbEntity
  8
002寸法
 62
     1
100
AcDbLine
 10
173.0000000000002
 20
172.9424213152231
 30
0.0
 11
185.9999999999973
 21
172.9424213152231
 31
0.0
  0
INSERT
  5
5D44
330
5D3E
100
AcDbEntity
  8
002寸法
 62
     1
100
AcDbBlockReference
  2
_OPEN
 10
171.0000000000002
 20
172.9424213152231
 30
0.0
 41
2.0
 42
2.0
 43
2.0
 50
180.0
  0
INSERT
  5
5D45
330
5D3E
100
AcDbEntity
  8
002寸法
 62
     1
100
AcDbBlockReference
  2
_OPEN
 10
187.9999999999973
 20
172.9424213152231
 30
0.0
 41
2.0
 42
2.0
 43
2.0
  0
MTEXT
  5
5D46
330
5D3E
100
AcDbEntity
  8
002寸法
 62
     2
100
AcDbMText
 10
179.4999999999987
 20
174.9424213152231
 30
0.0
 40
3.0
 41
0.0
 71
     5
 72
     1
  1
\A1;17
 73
     1
 44
1.0
  0
POINT
  5
5D47
330
5D3E
100
AcDbEntity
  8
DEFPOINTS
 62
     0
100
AcDbPoint
 10
171.0000000000002
 20
196.257359312879
 30
0.0
  0
POINT
  5
5D48
330
5D3E
100
AcDbEntity
  8
DEFPOINTS
 62
     0
100
AcDbPoint
 10
187.9999999999973
 20
196.257359312879
 30
0.0
  0
POINT
  5
5D49
330
5D3E
100
AcDbEntity
  8
DEFPOINTS
 62
     0
100
AcDbPoint
 10
187.9999999999973
 20
172.9424213152231
 30
0.0
  0
ENDBLK
  5
5D40
330
5D3E
100
AcDbEntity
  8
0
100
AcDbBlockEnd
  0
BLOCK
  5
5D4B
330
5D4A
100
AcDbEntity
  8
0
100
AcDbBlockBegin
  2
*D125
 70
     1
 10
0.0
 20
0.0
 30
0.0
  3
*D125
  1

  0
LINE
  5
5D4D
330
5D4A
100
AcDbEntity
  8
002寸法
 62
     1
 48
3.0
100
AcDbLine
 10
343.5000000000014
 20
192.7000000000013
 30
0.0
 11
343.5000000000014
 21
160.3370751771421
 31
0.0
  0
LINE
  5
5D4E
330
5D4A
100
AcDbEntity
  8
002寸法
 62
     1
 48
3.0
100
AcDbLine
 10
245.999999999995
 20
197.5000000000002
 30
0.0
 11
245.999999999995
 21
160.3370751771421
 31
0.0
  0
LINE
  5
5D4F
330
5D4A
100
AcDbEntity
  8
002寸法
 62
     1
 48
3.0
100
AcDbLine
 10
341.5000000000014
 20
161.0870751771421
 30
0.0
 11
247.999999999995
 21
161.0870751771421
 31
0.0
  0
INSERT
  5
5D50
330
5D4A
100
AcDbEntity
  8
002寸法
 62
     1
100
AcDbBlockReference
  2
_OPEN
 10
343.5000000000014
 20
161.0870751771421
 30
0.0
 41
2.0
 42
2.0
 43
2.0
  0
INSERT
  5
5D51
330
5D4A
100
AcDbEntity
  8
002寸法
 62
     1
100
AcDbBlockReference
  2
_OPEN
 10
245.999999999995
 20
161.0870751771421
 30
0.0
 41
2.0
 42
2.0
 43
2.0
 50
180.0
  0
MTEXT
  5
5D52
330
5D4A
100
AcDbEntity
  8
002寸法
 62
     2
100
AcDbMText
 10
294.7499999999982
 20
163.0870751771421
 30
0.0
 40
3.0
 41
0.0
 71
     5
 72
     1
  1
\A1;97.5
 73
     1
 44
1.0
  0
POINT
  5
5D53
330
5D4A
100
AcDbEntity
  8
DEFPOINTS
 62
     0
100
AcDbPoint
 10
343.5000000000014
 20
193.2000000000013
 30
0.0
  0
POINT
  5
5D54
330
5D4A
100
AcDbEntity
  8
DEFPOINTS
 62
     0
100
AcDbPoint
 10
245.999999999995
 20
198.0000000000002
 30
0.0
  0
POINT
  5
5D55
330
5D4A
100
AcDbEntity
  8
DEFPOINTS
 62
     0
100
AcDbPoint
 10
245.999999999995
 20
161.0870751771421
 30
0.0
  0
ENDBLK
  5
5D4C
330
5D4A
100
AcDbEntity
  8
0
100
AcDbBlockEnd
  0
BLOCK
  5
5D57
330
5D56
100
AcDbEntity
  8
0
100
AcDbBlockBegin
  2
*D126
 70
     1
 10
0.0
 20
0.0
 30
0.0
  3
*D126
  1

  0
LINE
  5
5D59
330
5D56
100
AcDbEntity
  8
002寸法
 62
     1
 48
3.0
100
AcDbLine
 10
275.9999999999998
 20
188.0000000000008
 30
0.0
 11
275.9999999999998
 21
172.211414040441
 31
0.0
  0
LINE
  5
5D5A
330
5D56
100
AcDbEntity
  8
002寸法
 62
     1
 48
3.0
100
AcDbLine
 10
343.5000000000014
 20
192.7000000000013
 30
0.0
 11
343.5000000000014
 21
172.211414040441
 31
0.0
  0
LINE
  5
5D5B
330
5D56
100
AcDbEntity
  8
002寸法
 62
     1
 48
3.0
100
AcDbLine
 10
277.9999999999998
 20
172.961414040441
 30
0.0
 11
341.5000000000014
 21
172.961414040441
 31
0.0
  0
INSERT
  5
5D5C
330
5D56
100
AcDbEntity
  8
002寸法
 62
     1
100
AcDbBlockReference
  2
_OPEN
 10
275.9999999999998
 20
172.961414040441
 30
0.0
 41
2.0
 42
2.0
 43
2.0
 50
180.0
  0
INSERT
  5
5D5D
330
5D56
100
AcDbEntity
  8
002寸法
 62
     1
100
AcDbBlockReference
  2
_OPEN
 10
343.5000000000014
 20
172.961414040441
 30
0.0
 41
2.0
 42
2.0
 43
2.0
  0
MTEXT
  5
5D5E
330
5D56
100
AcDbEntity
  8
002寸法
 62
     2
100
AcDbMText
 10
309.7500000000006
 20
174.961414040441
 30
0.0
 40
3.0
 41
0.0
 71
     5
 72
     1
  1
\A1;67.5
 73
     1
 44
1.0
  0
POINT
  5
5D5F
330
5D56
100
AcDbEntity
  8
DEFPOINTS
 62
     0
100
AcDbPoint
 10
275.9999999999998
 20
188.5000000000008
 30
0.0
  0
POINT
  5
5D60
330
5D56
100
AcDbEntity
  8
DEFPOINTS
 62
     0
100
AcDbPoint
 10
343.5000000000014
 20
193.2000000000013
 30
0.0
  0
POINT
  5
5D61
330
5D56
100
AcDbEntity
  8
DEFPOINTS
 62
     0
100
AcDbPoint
 10
343.5000000000014
 20
172.961414040441
 30
0.0
  0
ENDBLK
  5
5D58
330
5D56
100
AcDbEntity
  8
0
100
AcDbBlockEnd
  0
BLOCK
  5
5D63
330
5D62
100
AcDbEntity
  8
0
100
AcDbBlockBegin
  2
*D127
 70
     1
 10
0.0
 20
0.0
 30
0.0
  3
*D127
  1

  0
LINE
  5
5D65
330
5D62
100
AcDbEntity
  8
002寸法
 62
     1
 48
3.0
100
AcDbLine
 10
263.9999999999977
 20
190.5000000000021
 30
0.0
 11
263.9999999999977
 21
172.211414040441
 31
0.0
  0
LINE
  5
5D66
330
5D62
100
AcDbEntity
  8
002寸法
 62
     1
 48
3.0
100
AcDbLine
 10
275.9999999999998
 20
188.0000000000008
 30
0.0
 11
275.9999999999998
 21
172.211414040441
 31
0.0
  0
LINE
  5
5D67
330
5D62
100
AcDbEntity
  8
002寸法
 62
     1
 48
3.0
100
AcDbLine
 10
265.9999999999977
 20
172.961414040441
 30
0.0
 11
273.9999999999998
 21
172.961414040441
 31
0.0
  0
INSERT
  5
5D68
330
5D62
100
AcDbEntity
  8
002寸法
 62
     1
100
AcDbBlockReference
  2
_OPEN
 10
263.9999999999977
 20
172.961414040441
 30
0.0
 41
2.0
 42
2.0
 43
2.0
 50
180.0
  0
INSERT
  5
5D69
330
5D62
100
AcDbEntity
  8
002寸法
 62
     1
100
AcDbBlockReference
  2
_OPEN
 10
275.9999999999998
 20
172.961414040441
 30
0.0
 41
2.0
 42
2.0
 43
2.0
  0
MTEXT
  5
5D6A
330
5D62
100
AcDbEntity
  8
002寸法
 62
     2
100
AcDbMText
 10
269.9999999999987
 20
174.961414040441
 30
0.0
 40
3.0
 41
0.0
 71
     5
 72
     1
  1
\A1;12
 73
     1
 44
1.0
  0
POINT
  5
5D6B
330
5D62
100
AcDbEntity
  8
DEFPOINTS
 62
     0
100
AcDbPoint
 10
263.9999999999977
 20
191.0000000000021
 30
0.0
  0
POINT
  5
5D6C
330
5D62
100
AcDbEntity
  8
DEFPOINTS
 62
     0
100
AcDbPoint
 10
275.9999999999998
 20
188.5000000000008
 30
0.0
  0
POINT
  5
5D6D
330
5D62
100
AcDbEntity
  8
DEFPOINTS
 62
     0
100
AcDbPoint
 10
275.9999999999998
 20
172.961414040441
 30
0.0
  0
ENDBLK
  5
5D64
330
5D62
100
AcDbEntity
  8
0
100
AcDbBlockEnd
  0
BLOCK
  5
5D6F
330
5D6E
100
AcDbEntity
  8
0
100
AcDbBlockBegin
  2
*D128
 70
     1
 10
0.0
 20
0.0
 30
0.0
  3
*D128
  1

  0
LINE
  5
5D71
330
5D6E
100
AcDbEntity
  8
002寸法
 62
     1
 48
3.0
100
AcDbLine
 10
264.4845884115352
 20
210.3221174017403
 30
0.0
 11
218.8883124557865
 21
210.3221174018573
 31
0.0
  0
LINE
  5
5D72
330
5D6E
100
AcDbEntity
  8
002寸法
 62
     1
 48
3.0
100
AcDbLine
 10
263.4999999999977
 20
191.0000000000034
 30
0.0
 11
218.8883124557369
 21
191.0000000001179
 31
0.0
  0
LINE
  5
5D73
330
5D6E
100
AcDbEntity
  8
002寸法
 62
     1
 48
3.0
100
AcDbLine
 10
219.6383124557814
 20
208.3221174018554
 30
0.0
 11
219.6383124557421
 21
193.000000000116
 31
0.0
  0
INSERT
  5
5D74
330
5D6E
100
AcDbEntity
  8
002寸法
 62
     1
100
AcDbBlockReference
  2
_OPEN
 10
219.6383124557865
 20
210.3221174018554
 30
0.0
 41
2.0
 42
2.0
 43
2.0
 50
89.99999999985293
  0
INSERT
  5
5D75
330
5D6E
100
AcDbEntity
  8
002寸法
 62
     1
100
AcDbBlockReference
  2
_OPEN
 10
219.6383124557369
 20
191.000000000116
 30
0.0
 41
2.0
 42
2.0
 43
2.0
 50
269.9999999998529
  0
MTEXT
  5
5D76
330
5D6E
100
AcDbEntity
  8
002寸法
 62
     2
100
AcDbMText
 10
217.6383124557617
 20
200.6610587009908
 30
0.0
 40
3.0
 41
0.0
 71
     5
 72
     1
  1
\A1;%%C19
 11
2.566793375947002E-12
 21
1.0
 31
0.0
 73
     1
 44
1.0
  0
POINT
  5
5D77
330
5D6E
100
AcDbEntity
  8
DEFPOINTS
 62
     0
100
AcDbPoint
 10
264.9845884115352
 20
210.322117401739
 30
0.0
  0
POINT
  5
5D78
330
5D6E
100
AcDbEntity
  8
DEFPOINTS
 62
     0
100
AcDbPoint
 10
263.9999999999977
 20
191.0000000000021
 30
0.0
  0
POINT
  5
5D79
330
5D6E
100
AcDbEntity
  8
DEFPOINTS
 62
     0
100
AcDbPoint
 10
219.6383124557369
 20
191.000000000116
 30
0.0
  0
ENDBLK
  5
5D70
330
5D6E
100
AcDbEntity
  8
0
100
AcDbBlockEnd
  0
BLOCK
  5
5D7B
330
5D7A
100
AcDbEntity
  8
0
100
AcDbBlockBegin
  2
*D129
 70
     1
 10
0.0
 20
0.0
 30
0.0
  3
*D129
  1

  0
LINE
  5
5D7D
330
5D7A
100
AcDbEntity
  8
002寸法
 62
     1
 48
3.0
100
AcDbLine
 10
248.9999999999984
 20
192.6689999999951
 30
0.0
 11
248.9999999999984
 21
172.2114140404375
 31
0.0
  0
LINE
  5
5D7E
330
5D7A
100
AcDbEntity
  8
002寸法
 62
     1
 48
3.0
100
AcDbLine
 10
263.9999999999977
 20
190.5000000000021
 30
0.0
 11
263.9999999999977
 21
172.2114140404375
 31
0.0
  0
LINE
  5
5D7F
330
5D7A
100
AcDbEntity
  8
002寸法
 62
     1
 48
3.0
100
AcDbLine
 10
250.9999999999984
 20
172.9614140404375
 30
0.0
 11
261.9999999999977
 21
172.9614140404375
 31
0.0
  0
INSERT
  5
5D80
330
5D7A
100
AcDbEntity
  8
002寸法
 62
     1
100
AcDbBlockReference
  2
_OPEN
 10
248.9999999999984
 20
172.9614140404375
 30
0.0
 41
2.0
 42
2.0
 43
2.0
 50
180.0
  0
INSERT
  5
5D81
330
5D7A
100
AcDbEntity
  8
002寸法
 62
     1
100
AcDbBlockReference
  2
_OPEN
 10
263.9999999999977
 20
172.9614140404375
 30
0.0
 41
2.0
 42
2.0
 43
2.0
  0
MTEXT
  5
5D82
330
5D7A
100
AcDbEntity
  8
002寸法
 62
     2
100
AcDbMText
 10
256.4999999999981
 20
174.9614140404375
 30
0.0
 40
3.0
 41
0.0
 71
     5
 72
     1
  1
\A1;15
 73
     1
 44
1.0
  0
POINT
  5
5D83
330
5D7A
100
AcDbEntity
  8
DEFPOINTS
 62
     0
100
AcDbPoint
 10
248.9999999999984
 20
193.1689999999951
 30
0.0
  0
POINT
  5
5D84
330
5D7A
100
AcDbEntity
  8
DEFPOINTS
 62
     0
100
AcDbPoint
 10
263.9999999999977
 20
191.0000000000021
 30
0.0
  0
POINT
  5
5D85
330
5D7A
100
AcDbEntity
  8
DEFPOINTS
 62
     0
100
AcDbPoint
 10
263.9999999999977
 20
172.9614140404375
 30
0.0
  0
ENDBLK
  5
5D7C
330
5D7A
100
AcDbEntity
  8
0
100
AcDbBlockEnd
  0
BLOCK
  5
5D87
330
5D86
100
AcDbEntity
  8
0
100
AcDbBlockBegin
  2
*D130
 70
     1
 10
0.0
 20
0.0
 30
0.0
  3
*D130
  1

  0
LINE
  5
5D89
330
5D86
100
AcDbEntity
  8
002寸法
 62
     1
 48
3.0
100
AcDbLine
 10
245.999999999995
 20
197.5000000000002
 30
0.0
 11
245.999999999995
 21
172.2266997264528
 31
0.0
  0
LINE
  5
5D8A
330
5D86
100
AcDbEntity
  8
002寸法
 62
     1
 48
3.0
100
AcDbLine
 10
248.9999999999984
 20
192.6689999999951
 30
0.0
 11
248.9999999999984
 21
172.2266997264528
 31
0.0
  0
LINE
  5
5D8B
330
5D86
100
AcDbEntity
  8
002寸法
 62
     1
 48
3.0
100
AcDbLine
 10
245.999999999995
 20
172.9766997264528
 30
0.0
 11
248.9999999999984
 21
172.9766997264528
 31
0.0
  0
LINE
  5
5D8C
330
5D86
100
AcDbEntity
  8
002寸法
 62
     1
 48
3.0
100
AcDbLine
 10
243.999999999995
 20
172.9766997264528
 30
0.0
 11
241.999999999995
 21
172.9766997264528
 31
0.0
  0
LINE
  5
5D8D
330
5D86
100
AcDbEntity
  8
002寸法
 62
     1
 48
3.0
100
AcDbLine
 10
250.9999999999984
 20
172.9766997264528
 30
0.0
 11
252.9999999999984
 21
172.9766997264528
 31
0.0
  0
INSERT
  5
5D8E
330
5D86
100
AcDbEntity
  8
002寸法
 62
     1
100
AcDbBlockReference
  2
_OPEN
 10
245.999999999995
 20
172.9766997264528
 30
0.0
 41
2.0
 42
2.0
 43
2.0
  0
INSERT
  5
5D8F
330
5D86
100
AcDbEntity
  8
002寸法
 62
     1
100
AcDbBlockReference
  2
_OPEN
 10
248.9999999999984
 20
172.9766997264528
 30
0.0
 41
2.0
 42
2.0
 43
2.0
 50
180.0
  0
MTEXT
  5
5D90
330
5D86
100
AcDbEntity
  8
002寸法
 62
     2
100
AcDbMText
 10
247.4999999999967
 20
174.9766997264528
 30
0.0
 40
3.0
 41
0.0
 71
     5
 72
     1
  1
\A1;3
 73
     1
 44
1.0
  0
POINT
  5
5D91
330
5D86
100
AcDbEntity
  8
DEFPOINTS
 62
     0
100
AcDbPoint
 10
245.999999999995
 20
198.0000000000002
 30
0.0
  0
POINT
  5
5D92
330
5D86
100
AcDbEntity
  8
DEFPOINTS
 62
     0
100
AcDbPoint
 10
248.9999999999984
 20
193.1689999999951
 30
0.0
  0
POINT
  5
5D93
330
5D86
100
AcDbEntity
  8
DEFPOINTS
 62
     0
100
AcDbPoint
 10
248.9999999999984
 20
172.9766997264528
 30
0.0
  0
ENDBLK
  5
5D88
330
5D86
100
AcDbEntity
  8
0
100
AcDbBlockEnd
  0
ENDSEC
  0
SECTION
  2
ENTITIES
  0
LWPOLYLINE
  5
519C
330
1F
100
AcDbEntity
  8
DEFPOINTS
100
AcDbPolyline
 90
        4
 70
     1
 43
0.0
 10
0.0
 20
0.0
 10
420.0
 20
0.0
 10
420.0
 20
297.0
 10
0.0
 20
297.0
  0
LWPOLYLINE
  5
519D
330
1F
100
AcDbEntity
  8
DEFPOINTS
100
AcDbPolyline
 90
        4
 70
     1
 43
0.0
 10
24.5
 20
14.5
 10
405.5
 20
14.5
 10
405.5
 20
282.5
 10
24.5
 20
282.5
  0
LINE
  5
519E
330
1F
100
AcDbEntity
  8
DEFPOINTS
  6
CENTER
 48
4.0
100
AcDbLine
 10
210.0
 20
297.0
 30
0.0
 11
210.0
 21
282.5
 31
0.0
  0
LINE
  5
519F
330
1F
100
AcDbEntity
  8
DEFPOINTS
  6
CENTER
 48
4.0
100
AcDbLine
 10
210.0
 20
14.5
 30
0.0
 11
210.0
 21
0.0
 31
0.0
  0
LINE
  5
51A0
330
1F
100
AcDbEntity
  8
DEFPOINTS
  6
CENTER
 48
4.0
100
AcDbLine
 10
0.0
 20
148.5
 30
0.0
 11
24.5
 21
148.5
 31
0.0
  0
LINE
  5
51A1
330
1F
100
AcDbEntity
  8
DEFPOINTS
  6
CENTER
 48
4.0
100
AcDbLine
 10
405.5
 20
148.5
 30
0.0
 11
420.0
 21
148.5
 31
0.0
  0
LWPOLYLINE
  5
51A2
330
1F
100
AcDbEntity
  8
DEFPOINTS
100
AcDbPolyline
 90
        4
 70
     1
 43
0.0
 10
322.5
 20
14.5
 10
405.5
 20
14.5
 10
405.5
 20
57.5
 10
322.5
 20
57.5
  0
LINE
  5
51A3
330
1F
100
AcDbEntity
  8
DEFPOINTS
100
AcDbLine
 10
322.5
 20
51.5
 30
0.0
 11
405.5
 21
51.5
 31
0.0
  0
LINE
  5
51A4
330
1F
100
AcDbEntity
  8
DEFPOINTS
100
AcDbLine
 10
322.5
 20
35.5
 30
0.0
 11
405.5
 21
35.5
 31
0.0
  0
LINE
  5
51A5
330
1F
100
AcDbEntity
  8
DEFPOINTS
100
AcDbLine
 10
322.5
 20
25.0
 30
0.0
 11
405.5
 21
25.0
 31
0.0
  0
LINE
  5
51A6
330
1F
100
AcDbEntity
  8
DEFPOINTS
100
AcDbLine
 10
347.0
 20
35.5
 30
0.0
 11
347.0
 21
57.5
 31
0.0
  0
LINE
  5
51A7
330
1F
100
AcDbEntity
  8
DEFPOINTS
100
AcDbLine
 10
366.5
 20
35.5
 30
0.0
 11
366.5
 21
57.5
 31
0.0
  0
LINE
  5
51A8
330
1F
100
AcDbEntity
  8
DEFPOINTS
100
AcDbLine
 10
386.0
 20
35.5
 30
0.0
 11
386.0
 21
57.5
 31
0.0
  0
LINE
  5
51A9
330
1F
100
AcDbEntity
  8
DEFPOINTS
100
AcDbLine
 10
322.5
 20
43.5
 30
0.0
 11
347.0
 21
43.5
 31
0.0
  0
LINE
  5
51AA
330
1F
100
AcDbEntity
  8
DEFPOINTS
100
AcDbLine
 10
387.5
 20
14.5
 30
0.0
 11
387.5
 21
25.0
 31
0.0
  0
MTEXT
  5
51AB
330
1F
100
AcDbEntity
  8
DEFPOINTS
100
AcDbMText
 10
334.75
 20
54.5
 30
0.0
 40
2.5
 41
0.0
 71
     5
 72
     5
  1
尺　度
  7
表題
 73
     1
 44
1.0
  0
MTEXT
  5
51AC
330
1F
100
AcDbEntity
  8
DEFPOINTS
100
AcDbMText
 10
356.75
 20
54.5
 30
0.0
 40
2.5
 41
0.0
 71
     5
 72
     5
  1
承　認
  7
表題
 73
     1
 44
1.0
  0
MTEXT
  5
51AD
330
1F
100
AcDbEntity
  8
DEFPOINTS
100
AcDbMText
 10
376.25
 20
54.5
 30
0.0
 40
2.5
 41
0.0
 71
     5
 72
     5
  1
査　閲
  7
表題
 73
     1
 44
1.0
  0
MTEXT
  5
51AE
330
1F
100
AcDbEntity
  8
DEFPOINTS
100
AcDbMText
 10
395.75
 20
54.5
 30
0.0
 40
2.5
 41
0.0
 71
     5
 72
     5
  1
作　成
  7
表題
 73
     1
 44
1.0
  0
MTEXT
  5
51AF
330
1F
100
AcDbEntity
  8
DEFPOINTS
100
AcDbMText
 10
334.75
 20
46.5
 30
0.0
 40
3.0
 41
0.0
 71
     5
 72
     5
  1
：
  7
表題
 73
     1
 44
1.0
  0
MTEXT
  5
51B0
330
1F
100
AcDbEntity
  8
DEFPOINTS
100
AcDbMText
 10
334.75
 20
39.5
 30
0.0
 40
2.5
 41
0.0
 71
     5
 72
     5
  1
第三角法
  7
表題
 73
     1
 44
1.0
  0
MTEXT
  5
51B1
330
1F
100
AcDbEntity
  8
DEFPOINTS
100
AcDbMText
 10
323.0
 20
35.0
 30
0.0
 40
2.0
 41
0.0
 71
     1
 72
     5
  1
名　　称
  7
表題
 73
     1
 44
1.0
  0
MTEXT
  5
51B2
330
1F
100
AcDbEntity
  8
DEFPOINTS
100
AcDbMText
 10
323.0
 20
24.5
 30
0.0
 40
2.0
 41
0.0
 71
     1
 72
     5
  1
図　　番
  7
表題
 73
     1
 44
1.0
  0
MTEXT
  5
51B3
330
1F
100
AcDbEntity
  8
DEFPOINTS
100
AcDbMText
 10
388.0
 20
24.5
 30
0.0
 40
2.0
 41
0.0
 71
     1
 72
     5
  1
SHT
  7
表題
 73
     1
 44
1.0
  0
MTEXT
  5
51B4
330
1F
100
AcDbEntity
  8
DEFPOINTS
100
AcDbMText
 10
398.0
 20
18.5
 30
0.0
 40
3.0
 41
0.0
 71
     5
 72
     5
  1
／
  7
表題
 73
     1
 44
1.0
  0
LWPOLYLINE
  5
51B5
330
1F
100
AcDbEntity
  8
DEFPOINTS
100
AcDbPolyline
 90
        4
 70
     1
 43
0.0
 10
328.5
 20
270.5
 10
405.5
 20
270.5
 10
405.5
 20
282.5
 10
328.5
 20
282.5
  0
LINE
  5
51B6
330
1F
100
AcDbEntity
  8
DEFPOINTS
100
AcDbLine
 10
328.5
 20
276.5
 30
0.0
 11
405.5
 21
276.5
 31
0.0
  0
LINE
  5
51B7
330
1F
100
AcDbEntity
  8
DEFPOINTS
100
AcDbLine
 10
336.5
 20
270.5
 30
0.0
 11
336.5
 21
282.5
 31
0.0
  0
LINE
  5
51B8
330
1F
100
AcDbEntity
  8
DEFPOINTS
100
AcDbLine
 10
375.5
 20
270.5
 30
0.0
 11
375.5
 21
282.5
 31
0.0
  0
LINE
  5
51B9
330
1F
100
AcDbEntity
  8
DEFPOINTS
100
AcDbLine
 10
385.5
 20
270.5
 30
0.0
 11
385.5
 21
282.5
 31
0.0
  0
LINE
  5
51BA
330
1F
100
AcDbEntity
  8
DEFPOINTS
100
AcDbLine
 10
395.5
 20
270.5
 30
0.0
 11
395.5
 21
282.5
 31
0.0
  0
MTEXT
  5
51BB
330
1F
100
AcDbEntity
  8
DEFPOINTS
100
AcDbMText
 10
332.5
 20
279.5
 30
0.0
 40
2.0
 41
0.0
 71
     5
 72
     5
  1
版数
  7
表題
 73
     1
 44
1.0
  0
MTEXT
  5
51BC
330
1F
100
AcDbEntity
  8
DEFPOINTS
100
AcDbMText
 10
356.0
 20
279.5
 30
0.0
 40
2.0
 41
0.0
 71
     5
 72
     5
  1
日付／変更記事／通知No.
  7
表題
 73
     1
 44
1.0
  0
MTEXT
  5
51BD
330
1F
100
AcDbEntity
  8
DEFPOINTS
100
AcDbMText
 10
380.5
 20
279.5
 30
0.0
 40
2.0
 41
0.0
 71
     5
 72
     5
  1
承認
  7
表題
 73
     1
 44
1.0
  0
MTEXT
  5
51BE
330
1F
100
AcDbEntity
  8
DEFPOINTS
100
AcDbMText
 10
390.5
 20
279.5
 30
0.0
 40
2.0
 41
0.0
 71
     5
 72
     5
  1
査閲
  7
表題
 73
     1
 44
1.0
  0
MTEXT
  5
51BF
330
1F
100
AcDbEntity
  8
DEFPOINTS
100
AcDbMText
 10
400.5
 20
279.5
 30
0.0
 40
2.0
 41
0.0
 71
     5
 72
     5
  1
作成
  7
表題
 73
     1
 44
1.0
  0
LINE
  5
5C4B
102
{ACAD_REACTORS
102
}
330
1F
100
AcDbEntity
  8
011形状
100
AcDbLine
 10
171.0000000000002
 20
196.257359312879
 30
0.0
 11
170.9999999999982
 21
204.742640687113
 31
0.0
  0
CIRCLE
  5
5C4C
330
1F
100
AcDbEntity
  8
011形状
100
AcDbCircle
 10
179.4999999999959
 20
200.4999999999996
 30
0.0
 40
11.99999999999993
  0
LINE
  5
5C4D
330
1F
100
AcDbEntity
  8
001センタ
 62
     1
 48
2.0
100
AcDbLine
 10
160.4999999999959
 20
200.5000000000012
 30
0.0
 11
198.4999999999959
 21
200.5000000000016
 31
0.0
  0
CIRCLE
  5
5C4E
330
1F
100
AcDbEntity
  8
011形状
100
AcDbCircle
 10
179.4999999999959
 20
200.4999999999996
 30
0.0
 40
14.49166435056588
  0
CIRCLE
  5
5C4F
330
1F
100
AcDbEntity
  8
011形状
100
AcDbCircle
 10
179.4999999999959
 20
200.4999999999996
 30
0.0
 40
14.99999999999996
  0
CIRCLE
  5
5C50
330
1F
100
AcDbEntity
  8
011形状
100
AcDbCircle
 10
179.4999999999959
 20
200.4999999999996
 30
0.0
 40
9.49999999999996
  0
LINE
  5
5C51
330
1F
100
AcDbEntity
  8
011形状
100
AcDbLine
 10
180.0757653858236
 20
209.9825362757244
 30
0.0
 11
187.4242346141766
 21
205.7398955886046
 31
0.0
  0
LINE
  5
5C52
330
1F
100
AcDbEntity
  8
011形状
100
AcDbLine
 10
187.4242346141746
 20
195.2601044113918
 30
0.0
 11
180.0757653858236
 21
191.0174637242704
 31
0.0
  0
LINE
  5
5C53
330
1F
100
AcDbEntity
  8
011形状
100
AcDbLine
 10
178.9242346141755
 20
191.0174637242711
 30
0.0
 11
171.5757653858261
 21
195.260104411391
 31
0.0
  0
LINE
  5
5C54
330
1F
100
AcDbEntity
  8
011形状
100
AcDbLine
 10
171.5757653858282
 20
205.7398955886038
 30
0.0
 11
178.9242346141755
 21
209.9825362757252
 31
0.0
  0
LINE
  5
5C55
330
1F
100
AcDbEntity
  8
001センタ
 62
     1
 48
2.0
100
AcDbLine
 10
179.499999999998
 20
180.4917140719242
 30
0.0
 11
179.4999999999959
 21
228.0624673249125
 31
0.0
  0
LINE
  5
5C56
330
1F
100
AcDbEntity
  8
011形状
100
AcDbLine
 10
263.9999999999959
 20
196.2573593128819
 30
0.0
 11
274.4999999999945
 21
196.2573593128805
 31
0.0
  0
LINE
  5
5C57
330
1F
100
AcDbEntity
  8
011形状
 48
2.0
100
AcDbLine
 10
275.9999999999973
 20
210.0000000000013
 30
0.0
 11
263.9999999999955
 21
210.000000000003
 31
0.0
  0
LINE
  5
5C58
102
{ACAD_REACTORS
102
}
330
1F
100
AcDbEntity
  8
011形状
 48
2.0
100
AcDbLine
 10
275.9999999999995
 20
191.0000000000004
 30
0.0
 11
263.9999999999977
 21
191.0000000000021
 31
0.0
  0
LINE
  5
5C59
330
1F
100
AcDbEntity
  8
011形状
 62
     1
100
AcDbLine
 10
263.9999999999975
 20
204.7426406871231
 30
0.0
 11
274.4999999999945
 21
196.2573593128805
 31
0.0
  0
LINE
  5
5C5A
330
1F
100
AcDbEntity
  8
001センタ
 62
     1
 48
2.0
100
AcDbLine
 10
241.9999999999959
 20
200.4999999999985
 30
0.0
 11
347.5
 21
200.4999999999985
 31
0.0
  0
LINE
  5
5C5B
102
{ACAD_REACTORS
102
}
330
1F
100
AcDbEntity
  8
011形状
100
AcDbLine
 10
187.9999999999991
 20
204.742640687113
 30
0.0
 11
187.9999999999973
 21
196.257359312879
 31
0.0
  0
HATCH
  5
5C5C
330
1F
100
AcDbEntity
  8
002寸法
 62
     1
 48
3.0
100
AcDbHatch
 10
0.0
 20
0.0
 30
0.0
210
0.0
220
0.0
230
1.0
  2
_USER
 70
     0
 71
     0
 91
        1
 92
        7
 72
     0
 73
     1
 93
        6
 10
251.3466796875005
 20
202.5000000000026
 10
249.9999999999804
 20
205.267195575738
 10
248.9999999999977
 20
207.0826678247197
 10
248.9999999999991
 20
203.0000000000023
 10
245.9999999999968
 20
203.0000000000027
 10
245.9999999999955
 20
202.5000000000018
 97
        0
 75
     0
 76
     0
 52
315.0000000000006
 41
0.9999999999999999
 77
     0
 78
     1
 53
315.0000000000006
 43
1241.969518492693
 44
803.1715635056589
 45
0.7071067811865404
 46
0.7071067811865546
 79
     0
 47
0.0191371452242119
 98
        1
 10
249.8365472993114
 20
203.6268627281138
1001
ACAD
1010
0.0
1020
0.0
1030
0.0
  0
LINE
  5
5C5D
102
{ACAD_REACTORS
102
}
330
1F
100
AcDbEntity
  8
011形状
100
AcDbLine
 10
245.9999999999955
 20
202.5000000000018
 30
0.0
 11
251.3466796875005
 21
202.5000000000026
 31
0.0
  0
HATCH
  5
5C5E
330
1F
100
AcDbEntity
  8
002寸法
 62
     1
 48
3.0
100
AcDbHatch
 10
0.0
 20
0.0
 30
0.0
210
0.0
220
0.0
230
1.0
  2
_USER
 70
     0
 71
     0
 91
        1
 92
        7
 72
     0
 73
     1
 93
        7
 10
249.9999999999995
 20
196.9321547520692
 10
250.6403018966948
 20
197.7889746197521
 10
251.3466796875014
 20
198.500000000002
 10
245.9999999999998
 20
198.5000000000012
 10
245.999999999995
 20
198.0000000000002
 10
248.9999999999973
 20
197.9999999999998
 10
248.9999999999955
 20
195.5940049322526
 97
        0
 75
     0
 76
     0
 52
315.0000000000006
 41
0.9999999999999999
 77
     0
 78
     1
 53
315.0000000000006
 43
1241.969518492693
 44
803.1715635056589
 45
0.7071067811865404
 46
0.7071067811865546
 79
     0
 47
0.0130901147848204
 98
        1
 10
249.4146011736711
 20
197.813712706962
1001
ACAD
1010
0.0
1020
0.0
1030
0.0
  0
LINE
  5
5C5F
102
{ACAD_REACTORS
102
}
330
1F
100
AcDbEntity
  8
011形状
100
AcDbLine
 10
245.9999999999998
 20
198.5000000000012
 30
0.0
 11
251.3466796875014
 21
198.500000000002
 31
0.0
  0
LINE
  5
5C60
330
1F
100
AcDbEntity
  8
011形状
 48
2.0
100
AcDbLine
 10
248.9999999999991
 20
207.8309999999984
 30
0.0
 11
249.9999999999964
 21
208.8309999999979
 31
0.0
  0
CIRCLE
  5
5C61
330
1F
100
AcDbEntity
  8
011形状
100
AcDbCircle
 10
179.4999999999959
 20
200.4999999999996
 30
0.0
 40
1.99583217528243
  0
CIRCLE
  5
5C62
330
1F
100
AcDbEntity
  8
011形状
100
AcDbCircle
 10
179.4999999999959
 20
200.4999999999996
 30
0.0
 40
2.495832175282487
  0
LINE
  5
5C63
330
1F
100
AcDbEntity
  8
011形状
 48
2.0
100
AcDbLine
 10
277.499999999995
 20
215.5000000000002
 30
0.0
 11
278.4999999999968
 21
215.4999999999977
 31
0.0
  0
LINE
  5
5C64
330
1F
100
AcDbEntity
  8
011形状
100
AcDbLine
 10
287.2499999999945
 20
226.3076202561144
 30
0.0
 11
287.2499999999995
 21
215.1713289009388
 31
0.0
  0
LINE
  5
5C65
102
{ACAD_REACTORS
102
}
330
1F
100
AcDbEntity
  8
011形状
 48
2.0
100
AcDbLine
 10
263.9999999999955
 20
210.000000000003
 30
0.0
 11
263.9999999999977
 21
191.0000000000021
 31
0.0
  0
LINE
  5
5C66
330
1F
100
AcDbEntity
  8
011形状
 48
2.0
100
AcDbLine
 10
329.999999999995
 20
185.500000000004
 30
0.0
 11
330.9999999999923
 21
186.4999999999997
 31
0.0
  0
LINE
  5
5C67
330
1F
100
AcDbEntity
  8
011形状
 48
2.0
100
AcDbLine
 10
330.9999999999923
 20
186.4999999999997
 30
0.0
 11
330.9999999999964
 21
214.4999999999994
 31
0.0
  0
LINE
  5
5C68
102
{ACAD_REACTORS
102
}
330
1F
100
AcDbEntity
  8
011形状
 48
2.0
100
AcDbLine
 10
327.9999999999948
 20
185.5000000000018
 30
0.0
 11
329.999999999995
 21
185.500000000004
 31
0.0
  0
LINE
  5
5C69
330
1F
100
AcDbEntity
  8
011形状
 48
2.0
100
AcDbLine
 10
276.5
 20
186.5
 30
0.0
 11
277.4999999999968
 21
185.5000000000002
 31
0.0
  0
HATCH
  5
5C6A
330
1F
100
AcDbEntity
  8
011形状
 62
     1
100
AcDbHatch
 10
0.0
 20
0.0
 30
0.0
210
0.0
220
0.0
230
1.0
  2
SOLID
 70
     1
 71
     1
 91
        2
 92
        7
 72
     1
 73
     1
 93
        3
 10
276.5000000000003
 20
212.5000000000016
 42
0.0
 10
276.5000000000002
 20
213.000000000001
 42
0.4142135623731317
 10
275.9999999999998
 20
212.5000000000009
 42
0.0
 97
        3
330
5C86
330
5D0F
330
5D10
 92
        7
 72
     1
 73
     1
 93
        3
 10
276.5
 20
188.0000000000006
 42
0.0
 10
276.5
 20
188.5
 42
0.0
 10
275.9999999999998
 20
188.5000000000007
 42
0.4142135623729985
 97
        3
330
5C6B
330
5D0E
330
5D0D
 75
     0
 76
     1
 47
0.0
 98
        2
 10
276.2371790437744
 20
212.7824211660611
 10
276.1833356816846
 20
188.1887426133365
1001
ACAD
1010
0.0
1020
0.0
1030
0.0
1001
HATCHBACKGROUNDCOLOR
1071
-939524096
1000

1000

  0
LINE
  5
5C6B
102
{ACAD_REACTORS
330
5C6A
102
}
330
1F
100
AcDbEntity
  8
011形状
100
AcDbLine
 10
276.5
 20
186.5
 30
0.0
 11
276.5
 21
188.5
 31
0.0
  0
LINE
  5
5C6C
330
1F
100
AcDbEntity
  8
011形状
 48
2.0
100
AcDbLine
 10
277.4999999999968
 20
185.5000000000002
 30
0.0
 11
289.4999999999948
 21
185.4999999999985
 31
0.0
  0
LINE
  5
5C6D
102
{ACAD_REACTORS
102
}
330
1F
100
AcDbEntity
  8
011形状
 48
2.0
100
AcDbLine
 10
245.9999999999968
 20
203.0000000000027
 30
0.0
 11
248.9999999999991
 21
203.0000000000023
 31
0.0
  0
LINE
  5
5C6E
102
{ACAD_REACTORS
102
}
330
1F
100
AcDbEntity
  8
011形状
 48
2.0
100
AcDbLine
 10
245.999999999995
 20
198.0000000000002
 30
0.0
 11
248.9999999999973
 21
197.9999999999998
 31
0.0
  0
LINE
  5
5C6F
330
1F
100
AcDbEntity
  8
011形状
 48
2.0
100
AcDbLine
 10
245.999999999995
 20
198.0000000000002
 30
0.0
 11
248.9999999999973
 21
197.9999999999998
 31
0.0
  0
LINE
  5
5C70
330
1F
100
AcDbEntity
  8
011形状
 48
2.0
100
AcDbLine
 10
245.9999999999968
 20
203.0000000000027
 30
0.0
 11
245.999999999995
 21
198.0000000000002
 31
0.0
  0
LINE
  5
5C71
102
{ACAD_REACTORS
102
}
330
1F
100
AcDbEntity
  8
011形状
 48
2.0
100
AcDbLine
 10
245.9999999999968
 20
203.0000000000027
 30
0.0
 11
245.999999999995
 21
198.0000000000002
 31
0.0
  0
POLYLINE
  5
5C72
330
1F
100
AcDbEntity
  8
002寸法
 62
     1
100
AcDb3dPolyline
 66
     1
 10
0.0
 20
0.0
 30
0.0
 70
     8
  0
VERTEX
  5
5C73
330
5C72
100
AcDbEntity
  8
002寸法
 62
     1
100
AcDbVertex
100
AcDb3dPolylineVertex
 10
248.9999999999955
 20
195.5940049322526
 30
0.0
 70
    32
  0
VERTEX
  5
5C74
330
5C72
100
AcDbEntity
  8
002寸法
 62
     1
100
AcDbVertex
100
AcDb3dPolylineVertex
 10
249.9999999999995
 20
196.9321547520692
 30
0.0
 70
    32
  0
VERTEX
  5
5C75
330
5C72
100
AcDbEntity
  8
002寸法
 62
     1
100
AcDbVertex
100
AcDb3dPolylineVertex
 10
250.6403018966948
 20
197.7889746197521
 30
0.0
 70
    32
  0
VERTEX
  5
5C76
330
5C72
100
AcDbEntity
  8
002寸法
 62
     1
100
AcDbVertex
100
AcDb3dPolylineVertex
 10
251.3466796875014
 20
198.500000000002
 30
0.0
 70
    32
  0
VERTEX
  5
5C77
330
5C72
100
AcDbEntity
  8
002寸法
 62
     1
100
AcDbVertex
100
AcDb3dPolylineVertex
 10
251.9661136046379
 20
199.4451578600911
 30
0.0
 70
    32
  0
VERTEX
  5
5C78
330
5C72
100
AcDbEntity
  8
002寸法
 62
     1
100
AcDbVertex
100
AcDb3dPolylineVertex
 10
252.1896455078081
 20
200.5037070392125
 30
0.0
 70
    32
  0
VERTEX
  5
5C79
330
5C72
100
AcDbEntity
  8
002寸法
 62
     1
100
AcDbVertex
100
AcDb3dPolylineVertex
 10
251.8990300637429
 20
201.5222871529289
 30
0.0
 70
    32
  0
VERTEX
  5
5C7A
330
5C72
100
AcDbEntity
  8
002寸法
 62
     1
100
AcDbVertex
100
AcDb3dPolylineVertex
 10
251.3466796875005
 20
202.5000000000026
 30
0.0
 70
    32
  0
VERTEX
  5
5C7B
330
5C72
100
AcDbEntity
  8
002寸法
 62
     1
100
AcDbVertex
100
AcDb3dPolylineVertex
 10
249.9999999999804
 20
205.267195575738
 30
0.0
 70
    32
  0
VERTEX
  5
5C7C
330
5C72
100
AcDbEntity
  8
002寸法
 62
     1
100
AcDbVertex
100
AcDb3dPolylineVertex
 10
248.9999999999977
 20
207.0826678247197
 30
0.0
 70
    32
  0
SEQEND
  5
5C7D
330
5C72
100
AcDbEntity
  8
002寸法
 62
     1
  0
POLYLINE
  5
5C7E
330
1F
100
AcDbEntity
  8
011形状
 48
2.0
100
AcDb3dPolyline
 66
     1
 10
0.0
 20
0.0
 30
0.0
 70
     8
  0
VERTEX
  5
5C7F
330
5C7E
100
AcDbEntity
  8
011形状
 48
2.0
100
AcDbVertex
100
AcDb3dPolylineVertex
 10
249.0
 20
196.205661742309
 30
0.0
 70
    32
  0
VERTEX
  5
5C80
330
5C7E
100
AcDbEntity
  8
011形状
 48
2.0
100
AcDbVertex
100
AcDb3dPolylineVertex
 10
249.0
 20
196.205661742309
 30
0.0
 70
    32
  0
SEQEND
  5
5C81
330
5C7E
100
AcDbEntity
  8
011形状
 48
2.0
  0
LINE
  5
5C82
330
1F
100
AcDbEntity
  8
011形状
 48
2.0
100
AcDbLine
 10
286.3378874871682
 20
226.3000000000006
 30
0.0
 11
287.2499999999945
 21
226.3000000000003
 31
0.0
  0
LINE
  5
5C83
330
1F
100
AcDbEntity
  8
011形状
 48
2.0
100
AcDbLine
 10
287.2499999999945
 20
226.3000000000003
 30
0.0
 11
286.7499999999986
 21
226.8000000000026
 31
0.0
  0
LINE
  5
5C84
330
1F
100
AcDbEntity
  8
011形状
 48
2.0
100
AcDbLine
 10
278.7499999999961
 20
226.3000000000003
 30
0.0
 11
279.2499999999982
 21
226.8
 31
0.0
  0
LINE
  5
5C85
330
1F
100
AcDbEntity
  8
011形状
 48
2.0
100
AcDbLine
 10
278.7499999999961
 20
226.3076202561144
 30
0.0
 11
278.7499999999966
 21
215.171328900941
 31
0.0
  0
LINE
  5
5C86
102
{ACAD_REACTORS
330
5C6A
102
}
330
1F
100
AcDbEntity
  8
011形状
100
AcDbLine
 10
276.5
 20
214.5000000000015
 30
0.0
 11
276.5000000000005
 21
212.5000000000015
 31
0.0
  0
LINE
  5
5C87
330
1F
100
AcDbEntity
  8
011形状
 48
2.0
100
AcDbLine
 10
275.9999999999966
 20
212.5000000000008
 30
0.0
 11
275.9999999999973
 21
210.0000000000013
 31
0.0
  0
LINE
  5
5C88
102
{ACAD_REACTORS
102
}
330
1F
100
AcDbEntity
  8
011形状
 48
2.0
100
AcDbLine
 10
275.9999999999998
 20
188.5000000000008
 30
0.0
 11
275.9999999999995
 21
191.0000000000004
 31
0.0
  0
LINE
  5
5C89
330
1F
100
AcDbEntity
  8
001センタ
 62
     1
 48
2.0
100
AcDbLine
 10
282.9999999999973
 20
208.1055186379347
 30
0.0
 11
282.9999999999973
 21
228.1055186379347
 31
0.0
  0
LINE
  5
5C8A
330
1F
100
AcDbEntity
  8
011形状
 48
2.0
100
AcDbLine
 10
277.5
 20
215.500000000001
 30
0.0
 11
276.5
 21
214.5000000000015
 31
0.0
  0
LINE
  5
5C8B
330
1F
100
AcDbEntity
  8
011形状
 48
2.0
100
AcDbLine
 10
332.4999999999932
 20
189.9999999999985
 30
0.0
 11
330.9999999999941
 21
189.9999999999987
 31
0.0
  0
LINE
  5
5C8C
330
1F
100
AcDbEntity
  8
011形状
 48
2.0
100
AcDbLine
 10
334.499999999993
 20
194.0000000000013
 30
0.0
 11
334.4999999999925
 21
191.0000000000027
 31
0.0
  0
LINE
  5
5C8D
330
1F
100
AcDbEntity
  8
011形状
 48
2.0
100
AcDbLine
 10
332.4999999999952
 20
195.0000000000011
 30
0.0
 11
332.4999999999932
 21
189.9999999999985
 31
0.0
  0
LINE
  5
5C8E
330
1F
100
AcDbEntity
  8
011形状
 48
2.0
100
AcDbLine
 10
334.499999999993
 20
194.0000000000013
 30
0.0
 11
334.4999999999925
 21
191.0000000000027
 31
0.0
  0
LINE
  5
5C8F
330
1F
100
AcDbEntity
  8
001センタ
 62
     1
100
AcDbLine
 10
327.9999999999982
 20
192.5000000000005
 30
0.0
 11
335.9999999999957
 21
192.5000000000018
 31
0.0
  0
LINE
  5
5C90
330
1F
100
AcDbEntity
  8
011形状
 48
2.0
100
AcDbLine
 10
332.4999999999964
 20
210.9999999999997
 30
0.0
 11
332.4999999999932
 21
189.9999999999985
 31
0.0
  0
LINE
  5
5C91
330
1F
100
AcDbEntity
  8
011形状
 48
2.0
100
AcDbLine
 10
332.4999999999952
 20
195.0000000000011
 30
0.0
 11
332.4999999999932
 21
189.9999999999985
 31
0.0
  0
LINE
  5
5C92
330
1F
100
AcDbEntity
  8
011形状
 48
2.0
100
AcDbLine
 10
330.9999999999932
 20
210.9999999999999
 30
0.0
 11
330.9999999999941
 21
189.9999999999987
 31
0.0
  0
LINE
  5
5C93
102
{ACAD_REACTORS
102
}
330
1F
100
AcDbEntity
  8
011形状
 48
2.0
100
AcDbLine
 10
327.999999999993
 20
215.5000000000018
 30
0.0
 11
329.9999999999968
 21
215.5000000000039
 31
0.0
  0
LINE
  5
5C94
330
1F
100
AcDbEntity
  8
011形状
 48
2.0
100
AcDbLine
 10
334.4999999999941
 20
210.0000000000035
 30
0.0
 11
334.4999999999936
 21
207.0000000000013
 31
0.0
  0
LINE
  5
5C95
330
1F
100
AcDbEntity
  8
011形状
 48
2.0
100
AcDbLine
 10
332.4999999999964
 20
210.9999999999997
 30
0.0
 11
332.499999999998
 21
206.0000000000009
 31
0.0
  0
ARC
  5
5C96
330
1F
100
AcDbEntity
  8
011形状
 48
2.0
100
AcDbCircle
 10
332.4999999999959
 20
192.4999999999998
 30
0.0
 40
2.499999999999965
100
AcDbArc
 50
36.86989764579191
 51
89.99999999984888
  0
LINE
  5
5C97
330
1F
100
AcDbEntity
  8
011形状
 48
2.0
100
AcDbLine
 10
330.9999999999932
 20
210.9999999999999
 30
0.0
 11
330.9999999999941
 21
189.9999999999987
 31
0.0
  0
LINE
  5
5C98
330
1F
100
AcDbEntity
  8
011形状
 48
2.0
100
AcDbLine
 10
330.9999999999932
 20
210.9999999999999
 30
0.0
 11
332.4999999999964
 21
210.9999999999997
 31
0.0
  0
LINE
  5
5C99
330
1F
100
AcDbEntity
  8
011形状
 48
2.0
100
AcDbLine
 10
332.4999999999964
 20
210.9999999999997
 30
0.0
 11
332.499999999998
 21
206.0000000000009
 31
0.0
  0
LINE
  5
5C9A
330
1F
100
AcDbEntity
  8
001センタ
 62
     1
100
AcDbLine
 10
327.9999999999991
 20
208.4999999999991
 30
0.0
 11
335.9999999999932
 21
208.5000000000004
 31
0.0
  0
ARC
  5
5C9B
330
1F
100
AcDbEntity
  8
011形状
 48
2.0
100
AcDbCircle
 10
332.4999999999936
 20
208.4999999999985
 30
0.0
 40
2.5
100
AcDbArc
 50
36.86989764579921
 51
90.00000200630554
  0
ARC
  5
5C9C
330
1F
100
AcDbEntity
  8
011形状
 48
2.0
100
AcDbCircle
 10
332.4999999999936
 20
208.4999999999985
 30
0.0
 40
2.499999999999886
100
AcDbArc
 50
269.9999999998489
 51
323.1301023542867
  0
LINE
  5
5C9D
330
1F
100
AcDbEntity
  8
011形状
 48
2.0
100
AcDbLine
 10
339.463208501877
 20
208.8000000000018
 30
0.0
 11
341.5367914981175
 21
208.8000000000004
 31
0.0
  0
LINE
  5
5C9E
330
1F
100
AcDbEntity
  8
011形状
 48
2.0
100
AcDbLine
 10
342.4999999999993
 20
208.8000000000032
 30
0.0
 11
334.4999999999945
 21
208.8000000000019
 31
0.0
  0
LINE
  5
5C9F
330
1F
100
AcDbEntity
  8
011形状
 48
2.0
100
AcDbLine
 10
330.9999999999964
 20
214.4999999999994
 30
0.0
 11
329.9999999999968
 21
215.5000000000039
 31
0.0
  0
ARC
  5
5CA0
330
1F
100
AcDbEntity
  8
011形状
 48
2.0
100
AcDbCircle
 10
332.4999999999959
 20
192.4999999999998
 30
0.0
 40
2.499999999999949
100
AcDbArc
 50
269.9999959344241
 51
323.1301023542951
  0
ARC
  5
5CA1
330
1F
100
AcDbEntity
  8
011形状
 48
2.0
100
AcDbCircle
 10
332.4999999999959
 20
192.4999999999998
 30
0.0
 40
2.499999999999949
100
AcDbArc
 50
269.9999959344241
 51
323.1301023542951
  0
LINE
  5
5CA2
330
1F
100
AcDbEntity
  8
011形状
 48
2.0
100
AcDbLine
 10
332.4999999999932
 20
189.9999999999985
 30
0.0
 11
330.9999999999941
 21
189.9999999999987
 31
0.0
  0
LINE
  5
5CA3
102
{ACAD_REACTORS
102
}
330
1F
100
AcDbEntity
  8
011形状
 48
2.0
100
AcDbLine
 10
343.5000000000014
 20
193.2000000000013
 30
0.0
 11
343.4999999999986
 21
207.7999999999987
 31
0.0
  0
LINE
  5
5CA4
330
1F
100
AcDbEntity
  8
011形状
 48
2.0
100
AcDbLine
 10
343.5000000000014
 20
193.2000000000013
 30
0.0
 11
343.4999999999986
 21
207.7999999999987
 31
0.0
  0
ARC
  5
5CA5
330
1F
100
AcDbEntity
  8
011形状
 48
2.0
100
AcDbCircle
 10
342.4999999999993
 20
193.2000000000039
 30
0.0
 40
0.9999999999999999
100
AcDbArc
 50
269.9999999998567
 51
359.9999999999544
  0
ARC
  5
5CA6
330
1F
100
AcDbEntity
  8
011形状
 48
2.0
100
AcDbCircle
 10
342.5000000000005
 20
207.8000000000013
 30
0.0
 40
0.9999999999999999
100
AcDbArc
 50
359.9999999999577
 51
89.9999999998567
  0
LINE
  5
5CA7
330
1F
100
AcDbEntity
  8
011形状
 48
2.0
100
AcDbLine
 10
332.4999999999964
 20
210.9999999999997
 30
0.0
 11
332.4999999999932
 21
189.9999999999985
 31
0.0
  0
LINE
  5
5CA8
330
1F
100
AcDbEntity
  8
011形状
 48
2.0
100
AcDbLine
 10
334.4999999999955
 20
192.2000000000006
 30
0.0
 11
342.4999999999968
 21
192.2000000000019
 31
0.0
  0
LINE
  5
5CA9
330
1F
100
AcDbEntity
  8
011形状
 48
2.0
100
AcDbLine
 10
334.4999999999955
 20
192.2000000000006
 30
0.0
 11
342.4999999999968
 21
192.2000000000019
 31
0.0
  0
ARC
  5
5CAA
330
1F
100
AcDbEntity
  8
011形状
 48
2.0
100
AcDbCircle
 10
332.4999999999959
 20
192.4999999999998
 30
0.0
 40
2.499999999999965
100
AcDbArc
 50
36.86989764579191
 51
89.99999999984888
  0
LINE
  5
5CAB
330
1F
100
AcDbEntity
  8
011形状
 48
2.0
100
AcDbLine
 10
334.4999999999941
 20
210.0000000000035
 30
0.0
 11
334.4999999999936
 21
207.0000000000013
 31
0.0
  0
LINE
  5
5CAC
330
1F
100
AcDbEntity
  8
011形状
 48
2.0
100
AcDbLine
 10
330.9999999999932
 20
210.9999999999999
 30
0.0
 11
332.4999999999964
 21
210.9999999999997
 31
0.0
  0
ARC
  5
5CAD
330
1F
100
AcDbEntity
  8
011形状
 48
2.0
100
AcDbCircle
 10
332.4999999999936
 20
208.4999999999985
 30
0.0
 40
2.499999999999886
100
AcDbArc
 50
269.9999999998489
 51
323.1301023542867
  0
ARC
  5
5CAE
330
1F
100
AcDbEntity
  8
011形状
 48
2.0
100
AcDbCircle
 10
332.4999999999936
 20
208.4999999999985
 30
0.0
 40
2.5
100
AcDbArc
 50
36.86989764579921
 51
90.00000200630554
  0
DIMENSION
  5
5CAF
102
{ACAD_REACTORS
102
}
102
{ACAD_XDICTIONARY
360
5CB0
102
}
330
1F
100
AcDbEntity
  8
002寸法
 62
     1
100
AcDbDimension
  2
*D121
 10
352.4551249930396
 20
215.4999999999463
 30
0.0
 11
350.455124993001
 21
200.4999999999514
 31
0.0
 70
    32
  1
%%C30
 71
     5
 42
29.99999999999994
  3
通常x1
100
AcDbAlignedDimension
 13
329.999999999995
 23
185.500000000004
 33
0.0
 14
329.9999999999968
 24
215.5000000000039
 34
0.0
 50
89.99999999985288
100
AcDbRotatedDimension
1001
ACAD
1000
DSTYLE
1002
{
1070
    41
1040
2.0
1070
   140
1040
3.0
1002
}
  0
DIMENSION
  5
5CB2
102
{ACAD_REACTORS
102
}
102
{ACAD_XDICTIONARY
360
5CB3
102
}
330
1F
100
AcDbEntity
  8
002寸法
 62
     1
100
AcDbDimension
  2
*D122
 10
234.836294475033
 20
202.5000000000304
 30
0.0
 11
234.8362944749902
 21
185.7794989079093
 31
0.0
 70
   160
  1
%%C4
 71
     5
 42
4.000000000000568
  3
通常x1
100
AcDbAlignedDimension
 13
245.9999999999998
 23
198.5000000000012
 33
0.0
 14
245.9999999999955
 24
202.5000000000018
 34
0.0
 50
89.99999999985288
100
AcDbRotatedDimension
1001
ACAD
1000
DSTYLE
1002
{
1070
    41
1040
2.0
1070
   140
1040
3.0
1002
}
  0
MTEXT
  5
5CB5
330
1F
100
AcDbEntity
  8
002寸法
 62
     1
100
AcDbMText
 10
238.1524769184664
 20
236.724800176359
 30
0.0
 40
3.0
 41
15.53602845213027
 71
     1
 72
     5
  1
{\C2;G 3/8}
 73
     1
 44
1.0
  0
LINE
  5
5CB6
330
1F
100
AcDbEntity
  8
002寸法
 62
     1
100
AcDbLine
 10
237.4595132042455
 20
231.9860233296737
 30
0.0
 11
251.8917203422175
 21
231.986023329671
 31
0.0
  0
DIMENSION
  5
5CB7
102
{ACAD_REACTORS
102
}
102
{ACAD_XDICTIONARY
360
5CB8
102
}
330
1F
100
AcDbEntity
  8
002寸法
 62
     1
100
AcDbDimension
  2
*D123
 10
229.3657473327334
 20
198.0000000000429
 30
0.0
 11
229.3657473327021
 21
185.8228950859822
 31
0.0
 70
   160
  1
%%C5
 71
     5
 42
5.000000000002558
  3
通常x1
100
AcDbAlignedDimension
 13
245.9999999999968
 23
203.0000000000027
 33
0.0
 14
245.999999999995
 24
198.0000000000002
 34
0.0
 50
89.99999999985288
100
AcDbRotatedDimension
1001
ACAD
1000
DSTYLE
1002
{
1070
    41
1040
2.0
1070
   140
1040
3.0
1002
}
  0
LINE
  5
5CBA
330
1F
100
AcDbEntity
  8
011形状
100
AcDbLine
 10
263.9999999999975
 20
204.7426406871231
 30
0.0
 11
274.4999999999964
 21
204.7426406871216
 31
0.0
  0
LINE
  5
5CBB
330
1F
100
AcDbEntity
  8
011形状
100
AcDbLine
 10
263.9999999999959
 20
205.7426562771495
 30
0.0
 11
274.4999999999982
 21
205.742656277148
 31
0.0
  0
LINE
  5
5CBC
330
1F
100
AcDbEntity
  8
011形状
100
AcDbLine
 10
263.9999999999955
 20
209.982536275725
 30
0.0
 11
274.4999999999977
 21
209.9825362757235
 31
0.0
  0
LINE
  5
5CBD
330
1F
100
AcDbEntity
  8
011形状
 62
     1
100
AcDbLine
 10
263.9999999999959
 20
196.2573593128819
 30
0.0
 11
274.4999999999964
 21
204.7426406871216
 31
0.0
  0
LINE
  5
5CBE
330
1F
100
AcDbEntity
  8
011形状
 62
     1
100
AcDbLine
 10
263.9999999999959
 20
205.7426562771495
 30
0.0
 11
274.4999999999977
 21
209.9825362757235
 31
0.0
  0
LINE
  5
5CBF
330
1F
100
AcDbEntity
  8
011形状
 62
     1
100
AcDbLine
 10
263.9999999999955
 20
209.982536275725
 30
0.0
 11
274.4999999999982
 21
205.742656277148
 31
0.0
  0
LINE
  5
5CC0
330
1F
100
AcDbEntity
  8
011形状
 48
2.0
100
AcDbLine
 10
327.999999999993
 20
215.5000000000018
 30
0.0
 11
327.9999999999948
 21
185.5000000000018
 31
0.0
  0
LINE
  5
5CC1
330
1F
100
AcDbEntity
  8
011形状
100
AcDbLine
 10
274.4999999999964
 20
204.7426406871216
 30
0.0
 11
274.4999999999945
 21
196.2573593128805
 31
0.0
  0
LINE
  5
5CC2
330
1F
100
AcDbEntity
  8
011形状
100
AcDbLine
 10
274.4999999999982
 20
205.742656277148
 30
0.0
 11
274.4999999999977
 21
209.9825362757235
 31
0.0
  0
LINE
  5
5CC3
330
1F
100
AcDbEntity
  8
011形状
 48
2.0
100
AcDbLine
 10
289.4999999999966
 20
215.4999999999985
 30
0.0
 11
289.4999999999948
 21
185.4999999999985
 31
0.0
  0
ELLIPSE
  5
5CC4
330
1F
100
AcDbEntity
  8
011形状
 48
2.0
100
AcDbEllipse
 10
283.0
 20
215.5
 30
0.0
 11
-4.499999999999999
 21
-1.856766151421552E-13
 31
0.0
210
0.0
220
0.0
230
1.0
 40
0.2222222222222223
 41
6.283185307179586
 42
9.42477796076908
  0
LINE
  5
5CC5
330
1F
100
AcDbEntity
  8
011形状
 48
2.0
100
AcDbLine
 10
275.9999999999995
 20
191.0000000000004
 30
0.0
 11
276.0000000000009
 21
210.0000000000013
 31
0.0
  0
LINE
  5
5CC6
330
1F
100
AcDbEntity
  8
011形状
 48
2.0
100
AcDbLine
 10
278.4999999999968
 20
215.4999999999977
 30
0.0
 11
278.7499999999936
 21
215.4999999999952
 31
0.0
  0
LINE
  5
5CC7
330
1F
100
AcDbEntity
  8
011形状
 48
2.0
100
AcDbLine
 10
287.5
 20
215.4999999999999
 30
0.0
 11
327.999999999993
 21
215.5000000000018
 31
0.0
  0
LINE
  5
5CC8
330
1F
100
AcDbEntity
  8
011形状
 48
2.0
100
AcDbLine
 10
287.5
 20
215.4999999999999
 30
0.0
 11
287.2499999999993
 21
215.4999999999995
 31
0.0
  0
LINE
  5
5CC9
330
1F
100
AcDbEntity
  8
011形状
 48
2.0
100
AcDbLine
 10
277.499999999995
 20
215.5000000000002
 30
0.0
 11
277.4999999999968
 21
185.5000000000002
 31
0.0
  0
LINE
  5
5CCA
330
1F
100
AcDbEntity
  8
011形状
 48
2.0
100
AcDbLine
 10
329.9999999999961
 20
215.500000000004
 30
0.0
 11
329.999999999995
 21
185.500000000004
 31
0.0
  0
LINE
  5
5CCB
330
1F
100
AcDbEntity
  8
011形状
 48
2.0
100
AcDbLine
 10
289.4999999999948
 20
185.4999999999985
 30
0.0
 11
327.9999999999948
 21
185.5000000000018
 31
0.0
  0
DIMENSION
  5
5CCC
102
{ACAD_REACTORS
102
}
102
{ACAD_XDICTIONARY
360
5CCD
102
}
330
1F
100
AcDbEntity
  8
002寸法
 62
     1
100
AcDbDimension
  2
*D124
 10
187.9999999999973
 20
172.9424213152231
 30
0.0
 11
179.4999999999987
 21
174.9424213152231
 31
0.0
 70
    32
 71
     5
 42
16.99999999999704
  3
通常x1
100
AcDbAlignedDimension
 13
171.0000000000002
 23
196.257359312879
 33
0.0
 14
187.9999999999973
 24
196.257359312879
 34
0.0
 50
-0.0000000000429388
100
AcDbRotatedDimension
1001
ACAD
1000
DSTYLE
1002
{
1070
   140
1040
3.0
1002
}
  0
DIMENSION
  5
5CCF
102
{ACAD_REACTORS
102
}
102
{ACAD_XDICTIONARY
360
5CD0
102
}
330
1F
100
AcDbEntity
  8
002寸法
 62
     1
 48
3.0
100
AcDbDimension
  2
*D125
 10
245.999999999995
 20
161.0870751771421
 30
0.0
 11
294.7499999999982
 21
163.0870751771421
 31
0.0
 70
    32
 71
     5
 42
97.50000000000996
  3
通常x1
100
AcDbAlignedDimension
 13
343.5000000000014
 23
193.2000000000013
 33
0.0
 14
245.999999999995
 24
198.0000000000002
 34
0.0
 50
-0.0000000000429388
100
AcDbRotatedDimension
1001
ACAD
1000
DSTYLE
1002
{
1070
    41
1040
2.0
1070
   140
1040
3.0
1002
}
  0
DIMENSION
  5
5CD2
102
{ACAD_REACTORS
102
}
102
{ACAD_XDICTIONARY
360
5CD3
102
}
330
1F
100
AcDbEntity
  8
002寸法
 62
     1
 48
3.0
100
AcDbDimension
  2
*D126
 10
343.5000000000014
 20
172.961414040441
 30
0.0
 11
309.7500000000006
 21
174.961414040441
 31
0.0
 70
    32
 71
     5
 42
67.49999999999807
  3
通常x1
100
AcDbAlignedDimension
 13
275.9999999999998
 23
188.5000000000008
 33
0.0
 14
343.5000000000014
 24
193.2000000000013
 34
0.0
 50
-0.0000000000429388
100
AcDbRotatedDimension
1001
ACAD
1000
DSTYLE
1002
{
1070
    41
1040
2.0
1070
   140
1040
3.0
1002
}
  0
DIMENSION
  5
5CD5
102
{ACAD_REACTORS
102
}
102
{ACAD_XDICTIONARY
360
5CD6
102
}
330
1F
100
AcDbEntity
  8
002寸法
 62
     1
 48
3.0
100
AcDbDimension
  2
*D127
 10
275.9999999999998
 20
172.961414040441
 30
0.0
 11
269.9999999999987
 21
174.961414040441
 31
0.0
 70
    32
 71
     5
 42
12.00000000000392
  3
通常x1
100
AcDbAlignedDimension
 13
263.9999999999977
 23
191.0000000000021
 33
0.0
 14
275.9999999999998
 24
188.5000000000008
 34
0.0
 50
-0.0000000000429388
100
AcDbRotatedDimension
1001
ACAD
1000
DSTYLE
1002
{
1070
    41
1040
2.0
1070
   140
1040
3.0
1002
}
  0
DIMENSION
  5
5CD8
102
{ACAD_REACTORS
102
}
102
{ACAD_XDICTIONARY
360
5CD9
102
}
330
1F
100
AcDbEntity
  8
002寸法
 62
     1
 48
3.0
100
AcDbDimension
  2
*D128
 10
219.6383124557369
 20
191.000000000116
 30
0.0
 11
217.6383124557617
 21
200.6610587009908
 31
0.0
 70
    32
  1
%%C19
 71
     5
 42
19.3221174017394
  3
通常x1
100
AcDbAlignedDimension
 13
264.9845884115352
 23
210.322117401739
 33
0.0
 14
263.9999999999977
 24
191.0000000000021
 34
0.0
 50
-90.0000000001471
100
AcDbRotatedDimension
1001
ACAD
1000
DSTYLE
1002
{
1070
    41
1040
2.0
1070
   140
1040
3.0
1002
}
  0
LINE
  5
5CDB
330
1F
100
AcDbEntity
  8
011形状
100
AcDbLine
 10
175.2499999999943
 20
226.3000000000005
 30
0.0
 11
175.2499999999977
 21
214.8853223808159
 31
0.0
  0
LINE
  5
5CDC
330
1F
100
AcDbEntity
  8
011形状
100
AcDbLine
 10
183.7499999999968
 20
226.3000000000471
 30
0.0
 11
183.7499999999961
 21
214.8853223808153
 31
0.0
  0
LINE
  5
5CDD
330
1F
100
AcDbEntity
  8
011形状
100
AcDbLine
 10
175.2499999999943
 20
226.3000000000005
 30
0.0
 11
175.7499999999959
 21
226.8000000000019
 31
0.0
  0
LINE
  5
5CDF
330
1F
100
AcDbEntity
  8
011形状
100
AcDbLine
 10
175.7499999999959
 20
226.8000000000019
 30
0.0
 11
183.2499999999959
 21
226.8000000000009
 31
0.0
  0
LINE
  5
5CE4
330
1F
100
AcDbEntity
  8
011形状
100
AcDbLine
 10
175.2499999999943
 20
226.3000000000005
 30
0.0
 11
176.1621125128272
 21
226.3000000000055
 31
0.0
  0
LINE
  5
5CE5
330
1F
100
AcDbEntity
  8
011形状
100
AcDbLine
 10
176.8692192940152
 20
226.3000000000054
 30
0.0
 11
183.7499999999968
 21
226.3000000000293
 31
0.0
  0
LINE
  5
5CE6
330
1F
100
AcDbEntity
  8
011形状
 48
2.0
100
AcDbLine
 10
286.0052038200402
 20
226.7999999999998
 30
0.0
 11
286.3378874871682
 21
226.3000000000006
 31
0.0
  0
LINE
  5
5CE7
330
1F
100
AcDbEntity
  8
011形状
 48
2.0
100
AcDbLine
 10
285.2744211146078
 20
226.8000000000004
 30
0.0
 11
285.6307807059802
 21
226.3000000000008
 31
0.0
  0
LINE
  5
5CE8
330
1F
100
AcDbEntity
  8
011形状
 48
2.0
100
AcDbLine
 10
285.6307807059802
 20
226.3000000000008
 30
0.0
 11
285.630780705985
 21
225.2999999999988
 31
0.0
  0
LINE
  5
5CE9
330
1F
100
AcDbEntity
  8
011形状
 48
2.0
100
AcDbLine
 10
285.630780705985
 20
225.2999999999988
 30
0.0
 11
286.3378874871692
 21
225.2999999999986
 31
0.0
  0
LINE
  5
5CEA
330
1F
100
AcDbEntity
  8
011形状
 48
2.0
100
AcDbLine
 10
286.3378874871692
 20
225.2999999999986
 30
0.0
 11
286.3378874871682
 21
226.3000000000006
 31
0.0
  0
LINE
  5
5CEB
330
1F
100
AcDbEntity
  8
011形状
 48
3.0
100
AcDbLine
 10
285.6307807059802
 20
226.3000000000008
 30
0.0
 11
278.7499999999961
 21
226.3000000000003
 31
0.0
  0
LINE
  5
5CEC
330
1F
100
AcDbEntity
  8
011形状
 48
3.0
100
AcDbLine
 10
286.7499999999986
 20
226.8000000000026
 30
0.0
 11
279.2499999999982
 21
226.8
 31
0.0
  0
LINE
  5
5CED
330
1F
100
AcDbEntity
  8
011形状
 48
2.0
100
AcDbLine
 10
177.2255788853863
 20
226.7999999999823
 30
0.0
 11
176.8692192940152
 21
226.3000000000054
 31
0.0
  0
LINE
  5
5CEE
330
1F
100
AcDbEntity
  8
011形状
 48
2.0
100
AcDbLine
 10
176.1621125128272
 20
226.3000000000055
 30
0.0
 11
176.5184721041985
 21
226.7999999999788
 31
0.0
  0
LINE
  5
5CEF
330
1F
100
AcDbEntity
  8
011形状
 48
2.0
100
AcDbLine
 10
176.1621125128354
 20
225.3000000000036
 30
0.0
 11
176.8692192940234
 21
225.3000000000034
 31
0.0
  0
LINE
  5
5CF0
330
1F
100
AcDbEntity
  8
011形状
 48
2.0
100
AcDbLine
 10
176.1621125128272
 20
226.3000000000055
 30
0.0
 11
176.1621125128318
 21
225.3000000000036
 31
0.0
  0
LINE
  5
5CF1
330
1F
100
AcDbEntity
  8
011形状
 48
2.0
100
AcDbLine
 10
176.8692192940152
 20
226.3000000000054
 30
0.0
 11
176.8692192940198
 21
225.3000000000034
 31
0.0
  0
MTEXT
  5
5CF2
330
1F
100
AcDbEntity
  8
002寸法
 62
     1
 48
3.0
100
AcDbMText
 10
308.3924834980887
 20
239.4324434037802
 30
0.0
 40
3.5
 41
13.33147200352596
 71
     1
 72
     5
  1
{\C2;ﾄﾞﾚﾝｺｯｸ}
 73
     1
 44
1.0
  0
LEADER
  5
5CF3
330
1F
100
AcDbEntity
  8
002寸法
 62
     1
 48
3.0
100
AcDbLeader
  3
通常x1
 76
     2
 10
287.2542708626793
 20
220.7420150622715
 30
0.0
 10
307.2384004034832
 20
235.3564438505187
 30
0.0
211
1.003036087347809E-14
221
-1.0
231
0.0
1001
ACAD
1000
DSTYLE
1002
{
1070
    41
1040
2.0
1070
   147
1040
0.5
1070
    77
1070
     0
1002
}
  0
CIRCLE
  5
5CF4
330
1F
100
AcDbEntity
  8
011形状
 62
     1
 48
3.0
100
AcDbCircle
 10
179.4999999999995
 20
200.4999999999996
 30
0.0
 40
7.474999999999999
  0
CIRCLE
  5
5CF5
330
1F
100
AcDbEntity
  8
011形状
 48
3.0
100
AcDbCircle
 10
179.4999999999995
 20
200.4999999999996
 30
0.0
 40
8.330999999999998
  0
LINE
  5
5CF6
330
1F
100
AcDbEntity
  8
011形状
 48
2.0
100
AcDbLine
 10
249.9999999999964
 20
208.8309999999979
 30
0.0
 11
262.4999999999991
 21
208.8309999999985
 31
0.0
  0
LINE
  5
5CF7
330
1F
100
AcDbEntity
  8
011形状
 62
     1
 48
3.0
100
AcDbLine
 10
249.1439999999966
 20
207.9749999999967
 30
0.0
 11
262.499999999998
 21
207.9749999999985
 31
0.0
  0
LINE
  5
5CF8
330
1F
100
AcDbEntity
  8
011形状
 48
2.0
100
AcDbLine
 10
249.9999999999964
 20
208.8309999999977
 30
0.0
 11
249.9999999999804
 21
205.267195575738
 31
0.0
  0
LINE
  5
5CF9
330
1F
100
AcDbEntity
  8
011形状
 48
2.0
100
AcDbLine
 10
248.9999999999991
 20
203.0000000000023
 30
0.0
 11
248.9999999999991
 21
207.8309999999984
 31
0.0
  0
LINE
  5
5CFA
330
1F
100
AcDbEntity
  8
011形状
 48
2.0
100
AcDbLine
 10
248.9999999999984
 20
193.1689999999951
 30
0.0
 11
249.9999999999977
 21
192.1689999999978
 31
0.0
  0
LINE
  5
5CFB
330
1F
100
AcDbEntity
  8
011形状
 48
2.0
100
AcDbLine
 10
249.9999999999977
 20
192.1689999999978
 30
0.0
 11
262.4999999999968
 21
192.1689999999985
 31
0.0
  0
LINE
  5
5CFC
330
1F
100
AcDbEntity
  8
011形状
 48
2.0
100
AcDbLine
 10
249.9999999999995
 20
196.9321547520692
 30
0.0
 11
249.9999999999977
 21
192.1689999999978
 31
0.0
  0
LINE
  5
5CFD
102
{ACAD_REACTORS
102
}
330
1F
100
AcDbEntity
  8
011形状
 48
2.0
100
AcDbLine
 10
248.9999999999973
 20
197.9999999999998
 30
0.0
 11
248.9999999999984
 21
193.1689999999951
 31
0.0
  0
LINE
  5
5CFE
330
1F
100
AcDbEntity
  8
011形状
 48
2.0
100
AcDbLine
 10
262.4999999999991
 20
208.8309999999985
 30
0.0
 11
262.4999999999968
 21
192.1689999999985
 31
0.0
  0
LINE
  5
5CFF
330
1F
100
AcDbEntity
  8
011形状
 62
     1
 48
3.0
100
AcDbLine
 10
249.1439999999966
 20
193.0249999999967
 30
0.0
 11
262.499999999998
 21
193.0249999999985
 31
0.0
  0
LINE
  5
5D00
330
1F
100
AcDbEntity
  8
011形状
 62
     1
 48
2.0
100
AcDbLine
 10
262.5812973169413
 20
207.9749999999991
 30
0.0
 11
262.499999999998
 21
207.9749999999985
 31
0.0
  0
ARC
  5
5D01
330
1F
100
AcDbEntity
  8
011形状
 48
2.0
100
AcDbCircle
 10
263.2499999999968
 20
208.3146126052927
 30
0.0
 40
0.7500000000001136
100
AcDbArc
 50
179.9999999999913
 51
359.9999999999913
  0
LINE
  5
5D02
330
1F
100
AcDbEntity
  8
011形状
 62
     1
 48
2.0
100
AcDbLine
 10
262.5812973169377
 20
193.0249999999991
 30
0.0
 11
262.499999999998
 21
193.0249999999985
 31
0.0
  0
ARC
  5
5D03
330
1F
100
AcDbEntity
  8
011形状
 48
2.0
100
AcDbCircle
 10
263.249999999997
 20
192.6853873947126
 30
0.0
 40
0.7500000000001136
100
AcDbArc
 50
359.9999999999913
 51
179.9999999999913
  0
DIMENSION
  5
5D04
102
{ACAD_REACTORS
102
}
102
{ACAD_XDICTIONARY
360
5D05
102
}
330
1F
100
AcDbEntity
  8
002寸法
 62
     1
 48
3.0
100
AcDbDimension
  2
*D129
 10
263.9999999999977
 20
172.9614140404375
 30
0.0
 11
256.4999999999981
 21
174.9614140404375
 31
0.0
 70
    32
 71
     5
 42
15.00000000000094
  3
通常x1
100
AcDbAlignedDimension
 13
248.9999999999984
 23
193.1689999999951
 33
0.0
 14
263.9999999999977
 24
191.0000000000021
 34
0.0
 50
-0.0000000000429388
100
AcDbRotatedDimension
1001
ACAD
1000
DSTYLE
1002
{
1070
   140
1040
3.0
1070
    41
1040
2.0
1002
}
  0
DIMENSION
  5
5D07
102
{ACAD_REACTORS
102
}
102
{ACAD_XDICTIONARY
360
5D08
102
}
330
1F
100
AcDbEntity
  8
002寸法
 62
     1
 48
3.0
100
AcDbDimension
  2
*D130
 10
248.9999999999984
 20
172.9766997264528
 30
0.0
 11
247.4999999999967
 21
174.9766997264528
 31
0.0
 70
    32
 71
     5
 42
3.000000000007031
  3
通常x1
100
AcDbAlignedDimension
 13
245.999999999995
 23
198.0000000000002
 33
0.0
 14
248.9999999999984
 24
193.1689999999951
 34
0.0
 50
-0.0000000000429388
100
AcDbRotatedDimension
1001
ACAD
1000
DSTYLE
1002
{
1070
    41
1040
2.0
1070
   140
1040
3.0
1002
}
  0
LEADER
  5
5D0A
330
1F
100
AcDbEntity
  8
002寸法
 62
     1
 48
3.0
100
AcDbLeader
  3
通常x1
 76
     2
 10
256.2499999999977
 20
208.8309999999981
 30
0.0
 10
237.4595132042455
 20
231.9860233296737
 30
0.0
211
1.003036087347809E-14
221
-1.0
231
0.0
1001
ACAD
1000
DSTYLE
1002
{
1070
    41
1040
2.0
1070
   147
1040
0.5
1070
    77
1070
     0
1002
}
  0
LINE
  5
5D0B
330
1F
100
AcDbEntity
  8
002寸法
 62
     1
100
AcDbLine
 10
307.234129540801
 20
235.3564438505194
 30
0.0
 11
321.9282606585125
 21
235.3592207818105
 31
0.0
  0
LINE
  5
5D0C
330
1F
100
AcDbEntity
  8
011形状
100
AcDbLine
 10
276.5
 20
188.5
 30
0.0
 11
276.5000000000005
 21
212.5000000000015
 31
0.0
  0
ARC
  5
5D0D
102
{ACAD_REACTORS
330
5C6A
102
}
330
1F
100
AcDbEntity
  8
011形状
 62
     1
100
AcDbCircle
 10
276.5
 20
188.5000000000008
 30
0.0
 40
0.5000000000002274
100
AcDbArc
 50
180.0000000000065
 51
270.0
  0
LINE
  5
5D0E
102
{ACAD_REACTORS
330
5C6A
102
}
330
1F
100
AcDbEntity
  8
011形状
 62
     1
100
AcDbLine
 10
275.9999999999998
 20
188.5000000000007
 30
0.0
 11
276.5
 21
188.5
 31
0.0
  0
ARC
  5
5D0F
102
{ACAD_REACTORS
330
5C6A
102
}
330
1F
100
AcDbEntity
  8
011形状
 62
     1
100
AcDbCircle
 10
276.5
 20
212.5000000000008
 30
0.0
 40
0.5000000000002274
100
AcDbArc
 50
90.0
 51
179.9999999999935
  0
LINE
  5
5D10
102
{ACAD_REACTORS
330
5C6A
102
}
330
1F
100
AcDbEntity
  8
011形状
 62
     1
100
AcDbLine
 10
275.9999999999998
 20
212.5000000000009
 30
0.0
 11
276.5
 21
212.5000000000016
 31
0.0
  0
LINE
  5
5D11
330
1F
100
AcDbEntity
  8
011形状
100
AcDbLine
 10
263.9999999999959
 20
195.2573437228475
 30
0.0
 11
274.4999999999982
 21
195.257343722849
 31
0.0
  0
LINE
  5
5D12
330
1F
100
AcDbEntity
  8
011形状
100
AcDbLine
 10
263.9999999999955
 20
191.017463724272
 30
0.0
 11
274.4999999999977
 21
191.0174637242735
 31
0.0
  0
LINE
  5
5D13
330
1F
100
AcDbEntity
  8
011形状
 62
     1
100
AcDbLine
 10
263.9999999999959
 20
195.2573437228475
 30
0.0
 11
274.4999999999977
 21
191.0174637242735
 31
0.0
  0
LINE
  5
5D14
330
1F
100
AcDbEntity
  8
011形状
 62
     1
100
AcDbLine
 10
263.9999999999955
 20
191.017463724272
 30
0.0
 11
274.4999999999982
 21
195.257343722849
 31
0.0
  0
LINE
  5
5D15
330
1F
100
AcDbEntity
  8
011形状
100
AcDbLine
 10
274.4999999999982
 20
195.257343722849
 30
0.0
 11
274.4999999999977
 21
191.0174637242735
 31
0.0
  0
LINE
  5
5D94
330
1F
100
AcDbEntity
  8
011形状
100
AcDbLine
 10
183.7499999999968
 20
226.3000000000008
 30
0.0
 11
183.2499999999968
 21
226.8000000000009
 31
0.0
  0
MTEXT
  5
5D97
330
1F
100
AcDbEntity
  8
002寸法
 62
     2
100
AcDbMText
 10
348.8638150456027
 20
22.77383655874291
 30
0.0
 40
3.0
 41
40.86607986040144
 71
     1
 72
     5
  1
{\C2;H-0146-A3-1}
 73
     1
 44
1.0
  0
MTEXT
  5
5D98
330
1F
100
AcDbEntity
  8
002寸法
 62
     2
100
AcDbMText
 10
329.9010727525565
 20
48.53851565687
 30
0.0
 40
4.0
 41
9.502568762344254
 71
     1
 72
     5
  1
1 1
 73
     1
 44
1.0
1001
ACAD
1000
ACAD_MTEXT_DEFINED_HEIGHT_BEGIN
1070
    46
1040
3.999999999999996
1000
ACAD_MTEXT_DEFINED_HEIGHT_END
  0
MTEXT
  5
5D99
330
1F
100
AcDbEntity
  8
002寸法
 62
     2
100
AcDbMText
 10
346.1584570670893
 20
33.03888773557628
 30
0.0
 40
3.0
 41
54.08847168008788
 71
     1
 72
     5
  1
9E02-P13A-500KPA
 73
     1
 44
1.0
1001
ACAD
1000
ACAD_MTEXT_DEFINED_HEIGHT_BEGIN
1070
    46
1040
5.792493576613198
1000
ACAD_MTEXT_DEFINED_HEIGHT_END
  0
MTEXT
  5
5D9A
330
1F
100
AcDbEntity
  8
002寸法
 62
     1
100
AcDbMText
 10
41.82255928505401
 20
95.09846490164819
 30
0.0
 40
3.0
 41
57.08089009979875
 71
     1
 72
     5
  1
{\C2;温度補償範囲    \P許容温度範囲    \P零点の温度特性        \P出力の温度特性              \P絶縁抵抗        \Pｹｰﾌﾞﾙｼｰﾙﾄﾞ処理\Pｺﾈｸﾀ    \P付属ｹｰﾌﾞﾙ   \P         }
  7
スタイル1
 73
     1
 44
1.0
  0
MTEXT
  5
5D9B
330
1F
100
AcDbEntity
  8
002寸法
 62
     1
100
AcDbMText
 10
41.93369686519509
 20
151.8135188591386
 30
0.0
 40
3.0
 41
56.67432897820964
 71
     1
 72
     5
  1
{\C2;許容過負荷      \P限界過負荷    \P定格出力      \P入力抵抗       \P出力抵抗        \P推奨印加電圧        \P許容印加電圧   \P直線性          \Pﾋｽﾃﾘｼｽ   \P繰り返し性         \P初期平行度    }
  7
スタイル1
 73
     1
 44
1.0
  0
MTEXT
  5
5D9C
330
1F
100
AcDbEntity
  8
002寸法
 62
     1
100
AcDbMText
 10
45.37196135467457
 20
164.2789063496475
 30
0.0
 40
3.0
 41
12.63447706017225
 71
     1
 72
     5
  1
{\C2;仕様}
  7
スタイル1
 73
     1
 44
1.0
  0
LINE
  5
5D9D
330
1F
100
AcDbEntity
  8
002寸法
 62
     1
100
AcDbLine
 10
43.94699300172579
 20
159.1850667171802
 30
0.0
 11
56.35574572575933
 21
159.1850667171802
 31
0.0
  0
MTEXT
  5
5D9E
330
1F
100
AcDbEntity
  8
002寸法
 62
     1
 48
2.0
100
AcDbMText
 10
41.82255928505401
 20
156.9909114455677
 30
0.0
 40
3.0
 41
108.5626159247295
 71
     1
 72
     5
  1
{\C2;定格容量                     500 kPa}
  7
スタイル1
 73
     1
 44
1.0
  0
MTEXT
  5
5D9F
330
1F
100
AcDbEntity
  8
002寸法
 62
     1
100
AcDbMText
 10
98.6957845270772
 20
152.0322146356775
 30
0.0
 40
3.0
 41
91.84817965074382
 71
     1
 72
     5
  1
{\C2;150 ％(定格荷重に対して)\P200 ％(定格荷重に対して)         \P0.75 mV/V ± 1 ％(1500×10 strain)\P400 Ω± 60 Ω\P350 Ω± 3.5Ω\PAC.DC.10 V\PAC.DC.15 V\P± 0.2 ％R.O.\P± 0.2 ％R.O.\P± 0.1 ％R.O.\P±  10 ％R.O.}
  7
スタイル1
 73
     1
 44
1.0
  0
MTEXT
  5
5DA0
330
1F
100
AcDbEntity
  8
002寸法
 62
     1
100
AcDbMText
 10
98.6957845270772
 20
95.81522543829487
 30
0.0
 40
3.0
 41
103.726856923268
 71
     1
 72
     5
  1
{\C2;-10～+60 ℃\P-20～+80 ℃  \P± 0.02 ％R.O./℃   \P± 0.02 ％/℃\P1000 MΩ/50 Ｖ以上\Pﾌﾛｰﾃｨﾝｸﾞ\PPRC03-21A10-7F\P%%C8 mm 4芯ｼｰﾙﾄﾞｹｰﾌﾞﾙ 5 m ×1本 \P 両端ｺﾈｸﾀ：PRC03-12A10-7M}
  7
スタイル1
 73
     1
 44
1.0
  0
MTEXT
  5
5DA1
330
1F
100
AcDbEntity
  8
002寸法
 62
     1
100
AcDbMText
 10
149.0966095033982
 20
142.3536032841057
 30
0.0
 40
1.5
 41
5.789814992627726
 71
     1
 72
     5
  1
{\C2;-6}
  7
スタイル1
 73
     1
 44
1.0
  0
VIEWPORT
  5
71
330
55
100
AcDbEntity
 67
     1
  8
0
100
AcDbViewport
 10
624.306978614465
 20
307.756022465874
 30
0.0
 40
994.7676969426768
 41
769.7731183671604
 68
     1
 69
     1
 12
624.306978614465
 22
307.756022465874
 13
0.0
 23
0.0
 14
0.5
 24
0.5
 15
10.0
 25
10.0
 16
0.0
 26
0.0
 36
1.0
 17
0.0
 27
0.0
 37
0.0
 42
50.0
 43
0.0
 44
0.0
 45
769.7731183671604
 50
0.0
 51
0.0
 72
   100
 90
   557472
  1

281
     0
 71
     1
 74
     0
110
0.0
120
0.0
130
0.0
111
1.0
121
0.0
131
0.0
112
0.0
122
1.0
132
0.0
 79
     0
146
0.0
  0
VIEWPORT
  5
73
330
55
100
AcDbEntity
 67
     1
  8
0
100
AcDbViewport
 10
693.0
 20
140.5
 30
0.0
 40
419.9999999999999
 41
297.0
 68
     2
 69
     2
 12
804.0
 22
148.5
 13
0.0
 23
0.0
 14
10.0
 24
10.0
 15
10.0
 25
10.0
 16
0.0
 26
0.0
 36
1.0
 17
0.0
 27
0.0
 37
0.0
 42
50.0
 43
0.0
 44
0.0
 45
297.0
 50
0.0
 51
0.0
 72
   100
 90
   557280
  1

281
     0
 71
     1
 74
     0
110
0.0
120
0.0
130
0.0
111
1.0
121
0.0
131
0.0
112
0.0
122
1.0
132
0.0
 79
     0
146
0.0
  0
ENDSEC
  0
SECTION
  2
OBJECTS
  0
DICTIONARY
  5
C
330
0
100
AcDbDictionary
281
     1
  3
ACAD_DETAILVIEWSTYLE
350
50FE
  3
ACAD_GROUP
350
D
  3
ACAD_IMAGE_VARS
350
4060
  3
ACAD_LAYOUT
350
1A
  3
ACAD_MLINESTYLE
350
17
  3
ACAD_PLOTSETTINGS
350
19
  3
ACAD_PLOTSTYLENAME
350
E
  3
ACAD_SCALELIST
350
4034
  3
ACAD_SECTIONVIEWSTYLE
350
50FF
  3
AcadDim
350
50D7
  3
AcDbVariableDictionary
350
5E
  3
APPDATA
350
405E
  3
DWGPROPS
350
5DA4
  0
DICTIONARY
  5
17A7
330
2
100
AcDbDictionary
280
     1
281
     1
  3
ACAD_LAYERSTATES
360
17A8
  0
DICTIONARY
  5
57CA
330
1F
100
AcDbDictionary
280
     1
281
     1
  3
ACAD_SORTENTS
360
57CB
  0
DICTIONARY
  5
5CB0
330
5CAF
100
AcDbDictionary
280
     1
281
     1
  0
DICTIONARY
  5
5CB3
330
5CB2
100
AcDbDictionary
280
     1
281
     1
  0
DICTIONARY
  5
5CB8
330
5CB7
100
AcDbDictionary
280
     1
281
     1
  0
DICTIONARY
  5
5CCD
330
5CCC
100
AcDbDictionary
280
     1
281
     1
  0
DICTIONARY
  5
5CD0
330
5CCF
100
AcDbDictionary
280
     1
281
     1
  0
DICTIONARY
  5
5CD3
330
5CD2
100
AcDbDictionary
280
     1
281
     1
  0
DICTIONARY
  5
5CD6
330
5CD5
100
AcDbDictionary
280
     1
281
     1
  0
DICTIONARY
  5
5CD9
330
5CD8
100
AcDbDictionary
280
     1
281
     1
  0
DICTIONARY
  5
5D05
330
5D04
100
AcDbDictionary
280
     1
281
     1
  0
DICTIONARY
  5
5D08
330
5D07
100
AcDbDictionary
280
     1
281
     1
  0
DICTIONARY
  5
50FE
102
{ACAD_REACTORS
330
C
102
}
330
C
100
AcDbDictionary
281
     1
  0
DICTIONARY
  5
D
102
{ACAD_REACTORS
330
C
102
}
330
C
100
AcDbDictionary
281
     1
  0
RASTERVARIABLES
  5
4060
102
{ACAD_REACTORS
330
C
102
}
330
C
100
AcDbRasterVariables
 90
        0
 70
     1
 71
     1
 72
     1
  0
DICTIONARY
  5
1A
102
{ACAD_REACTORS
330
C
102
}
330
C
100
AcDbDictionary
281
     1
  3
Model
350
22
  3
ﾚｲｱｳﾄ1
350
51
  3
ﾚｲｱｳﾄ2
350
56
  0
DICTIONARY
  5
17
102
{ACAD_REACTORS
330
C
102
}
330
C
100
AcDbDictionary
281
     1
  3
Standard
350
18
  0
DICTIONARY
  5
19
102
{ACAD_REACTORS
330
C
102
}
330
C
100
AcDbDictionary
281
     1
  0
ACDBDICTIONARYWDFLT
  5
E
102
{ACAD_REACTORS
330
C
102
}
330
C
100
AcDbDictionary
281
     1
  3
Normal
350
F
100
AcDbDictionaryWithDefault
340
F
  0
DICTIONARY
  5
4034
102
{ACAD_REACTORS
330
C
102
}
330
C
100
AcDbDictionary
281
     1
  3
A0
350
4035
  3
A1
350
4036
  3
A2
350
4037
  3
A3
350
4038
  3
A4
350
4039
  3
A5
350
403A
  3
A6
350
403B
  3
A7
350
403C
  3
A8
350
403D
  3
A9
350
403E
  3
B0
350
403F
  3
B1
350
4040
  3
B2
350
4041
  3
B3
350
4042
  3
B4
350
4043
  3
B5
350
4044
  3
B6
350
4045
  3
B7
350
4046
  3
B8
350
4047
  3
B9
350
4048
  3
C0
350
4049
  3
C1
350
404A
  3
C2
350
404B
  3
C3
350
404C
  3
C4
350
404D
  3
C5
350
404E
  3
C6
350
404F
  3
C7
350
4050
  3
C8
350
4051
  3
C9
350
4052
  3
D0
350
4053
  3
D1
350
4054
  3
D2
350
4055
  0
DICTIONARY
  5
50FF
102
{ACAD_REACTORS
330
C
102
}
330
C
100
AcDbDictionary
281
     1
  0
XRECORD
  5
50D7
102
{ACAD_REACTORS
330
C
102
}
330
C
100
AcDbXrecord
280
     1
340
0
 72
     0
 71
     0
 70
     0
 69
     0
 68
     1
 67
     3
 66
     0
 65
     0
 64
     0
 63
     5
 62
     5
 61
     0
 60
     0
 40
0.0
  0
DICTIONARY
  5
5E
102
{ACAD_REACTORS
330
C
102
}
330
C
100
AcDbDictionary
281
     1
  3
DIMASSOC
350
5F
  3
HIDETEXT
350
63
  0
DICTIONARY
  5
405E
102
{ACAD_REACTORS
330
C
102
}
330
C
100
AcDbDictionary
281
     1
  0
XRECORD
  5
5DA4
102
{ACAD_REACTORS
330
C
102
}
330
C
100
AcDbXrecord
280
     1
  1
DWGPROPS COOKIE
  2

  3

  4

  6

  7

  8
yuasa
  9

300
=
301
=
302
=
303
=
304
=
305
=
306
=
307
=
308
=
309
=
 40
0.0
 41
2453536.500536378
 42
2460020.034867442
  1

 90
        0
  0
DICTIONARY
  5
17A8
102
{ACAD_REACTORS
330
17A7
102
}
330
17A7
100
AcDbDictionary
281
     1
  0
SORTENTSTABLE
  5
57CB
102
{ACAD_REACTORS
330
57CA
102
}
330
57CA
100
AcDbSortentsTable
330
1F
331
0
  5
555C
331
0
  5
555E
331
0
  5
555F
331
0
  5
5560
331
0
  5
5561
331
0
  5
5564
331
0
  5
5565
331
0
  5
5566
331
0
  5
5567
331
0
  5
5568
331
0
  5
5569
331
0
  5
556A
331
0
  5
556B
331
0
  5
556C
331
0
  5
556D
331
0
  5
556E
331
0
  5
556F
331
0
  5
5570
331
0
  5
5571
331
0
  5
5572
331
0
  5
5573
331
0
  5
5577
331
0
  5
5578
331
0
  5
5579
331
0
  5
557A
331
0
  5
5586
331
0
  5
558A
331
0
  5
558B
331
0
  5
558C
331
0
  5
558D
331
0
  5
558E
331
0
  5
558F
331
0
  5
5590
331
0
  5
5591
331
0
  5
5597
331
0
  5
5598
331
0
  5
5599
331
0
  5
559A
331
0
  5
559B
331
0
  5
559D
331
0
  5
559E
331
0
  5
559F
331
0
  5
55A0
331
0
  5
55A1
331
0
  5
55A2
331
0
  5
55A3
331
0
  5
55A4
331
0
  5
55A5
331
0
  5
55A6
331
0
  5
55A7
331
0
  5
55A8
331
0
  5
55A9
331
0
  5
55AA
331
0
  5
55AB
331
0
  5
55AC
331
0
  5
55AD
331
0
  5
55AE
331
0
  5
55AF
331
0
  5
55B0
331
0
  5
55B1
331
0
  5
55B2
331
0
  5
55B3
331
0
  5
55B4
331
0
  5
55B5
331
0
  5
55B6
331
0
  5
55B7
331
0
  5
55B8
331
0
  5
55B9
331
0
  5
55BC
331
0
  5
55BF
331
0
  5
55C0
331
0
  5
55C1
331
0
  5
55C2
331
0
  5
55C3
331
0
  5
55C4
331
0
  5
55C5
331
0
  5
55C6
331
0
  5
55C7
331
0
  5
55C8
331
0
  5
55C9
331
0
  5
55CA
331
0
  5
55CB
331
0
  5
55CC
331
0
  5
55CD
331
0
  5
55CE
331
0
  5
55CF
331
0
  5
55D0
331
0
  5
55D1
331
0
  5
55D2
331
0
  5
55D3
331
0
  5
55D4
331
0
  5
55D8
331
0
  5
55DB
331
0
  5
55DE
331
0
  5
55E1
331
0
  5
55E4
331
0
  5
55E5
331
0
  5
55E6
331
0
  5
55E7
331
0
  5
55E8
331
0
  5
55E9
331
0
  5
55EA
331
0
  5
55EB
331
0
  5
55EC
331
0
  5
55ED
331
0
  5
55EE
331
0
  5
55EF
331
0
  5
55F0
331
0
  5
55F1
331
0
  5
55F2
331
0
  5
55F3
331
0
  5
55F4
331
0
  5
55F5
331
0
  5
55F6
331
0
  5
55F7
331
0
  5
55F8
331
0
  5
55F9
331
0
  5
55FA
331
0
  5
55FB
331
0
  5
55FC
331
0
  5
55FD
331
0
  5
55FE
331
0
  5
55FF
331
0
  5
5600
331
0
  5
5601
331
0
  5
5602
331
0
  5
5603
331
0
  5
5604
331
0
  5
5605
331
0
  5
5606
331
0
  5
5607
331
0
  5
5608
331
0
  5
5609
331
0
  5
560A
331
0
  5
560B
331
0
  5
560C
331
0
  5
560D
331
0
  5
5610
331
0
  5
5611
331
0
  5
5612
331
0
  5
579F
331
0
  5
57A0
331
0
  5
57AF
331
0
  5
57BF
331
0
  5
57C0
331
0
  5
57C5
331
0
  5
57C6
331
0
  5
57C7
331
0
  5
57C8
331
0
  5
57CE
331
0
  5
57CF
331
0
  5
57D0
331
0
  5
57D1
331
0
  5
57D2
331
0
  5
5576
  0
LAYOUT
  5
22
102
{ACAD_REACTORS
330
1A
102
}
330
1A
100
AcDbPlotSettings
  1

  2
seisan LBP-1110.pc3
  4
A4
  6

 40
5.535083293914795
 41
5.873747825622559
 42
5.577423095703125
 43
5.873748779296875
 44
209.9733276367188
 45
296.9683227539062
 46
-5.57
 47
-5.89
 48
1014.0
 49
0.0
140
1224.0
141
297.0
142
1.0
143
1.0
 70
 11956
 72
     1
 73
     0
 74
     4
  7
yuasa.ctb
 75
    16
147
1.0
148
-1014.0
149
0.0
100
AcDbLayout
  1
Model
 70
     1
 71
     0
 10
0.0
 20
0.0
 11
12.0
 21
9.0
 12
0.0
 22
0.0
 32
0.0
 14
0.0000000000001137
 24
0.0
 34
0.0
 15
420.0000000000001
 25
297.0
 35
0.0
146
0.0
 13
0.0
 23
0.0
 33
0.0
 16
1.0
 26
0.0
 36
0.0
 17
0.0
 27
1.0
 37
0.0
 76
     0
330
1F
331
3FB5
  0
LAYOUT
  5
51
102
{ACAD_REACTORS
330
1A
102
}
330
1A
100
AcDbPlotSettings
  1

  2
HP designjet 110
  4
User620
  6

 40
0.0
 41
0.16937255859375
 42
0.169342041015625
 43
0.0
 44
420.1159973144531
 45
594.1060180664062
 46
0.0
 47
0.0
 48
0.0
 49
0.0
140
0.0
141
0.0
142
1.0
143
1.0
 70
   688
 72
     1
 73
     1
 74
     5
  7
yuasa.ctb
 75
    16
147
1.0
148
0.0
149
0.0
100
AcDbLayout
  1
ﾚｲｱｳﾄ1
 70
     1
 71
     1
 10
0.0
 20
0.0
 11
594.1060180664062
 21
420.1159973144531
 12
0.0
 22
0.0
 32
0.0
 14
0.0
 24
0.0
 34
0.0
 15
594.0
 25
420.0
 35
0.0
146
0.0
 13
0.0
 23
0.0
 33
0.0
 16
1.0
 26
0.0
 36
0.0
 17
0.0
 27
1.0
 37
0.0
 76
     0
330
50
331
6B
  0
LAYOUT
  5
56
102
{ACAD_REACTORS
330
1A
102
}
330
1A
100
AcDbPlotSettings
  1

  2
LASERSHOT LBP-730
  4
A3
  6

 40
5.873749732971191
 41
5.746733665466309
 42
6.000732421875
 43
5.873748779296875
 44
296.9683227539062
 45
419.9889831542969
 46
0.0
 47
0.0
 48
488.9032378878416
 49
-2.276414387510897
140
700.793313719932
141
251.8619201678336
142
1.0
143
1.0
 70
   688
 72
     1
 73
     1
 74
     4
  7
yuasa.ctb
 75
    16
147
1.0
148
-488.9032378878416
149
2.276414387510897
100
AcDbLayout
  1
ﾚｲｱｳﾄ2
 70
     1
 71
     2
 10
483.0294891085447
 20
-8.150164120482088
 11
903.0184722628416
 21
288.8181586334242
 12
0.0
 22
0.0
 32
0.0
 14
211.5
 24
-8.0
 34
0.0
 15
903.5
 25
300.0
 35
0.0
146
0.0
 13
0.0
 23
0.0
 33
0.0
 16
1.0
 26
0.0
 36
0.0
 17
0.0
 27
1.0
 37
0.0
 76
     0
330
55
331
71
  0
MLINESTYLE
  5
18
102
{ACAD_REACTORS
330
17
102
}
330
17
100
AcDbMlineStyle
  2
STANDARD
 70
     0
  3

 62
   256
 51
90.0
 52
90.0
 71
     2
 49
0.5
 62
   256
  6
BYLAYER
 49
-0.5
 62
   256
  6
BYLAYER
  0
ACDBPLACEHOLDER
  5
F
102
{ACAD_REACTORS
330
E
102
}
330
E
  0
SCALE
  5
4035
102
{ACAD_REACTORS
330
4034
102
}
330
4034
100
AcDbScale
 70
     0
300
1:1
140
1.0
141
1.0
290
     1
  0
SCALE
  5
4036
102
{ACAD_REACTORS
330
4034
102
}
330
4034
100
AcDbScale
 70
     0
300
1:2
140
1.0
141
2.0
290
     0
  0
SCALE
  5
4037
102
{ACAD_REACTORS
330
4034
102
}
330
4034
100
AcDbScale
 70
     0
300
1:4
140
1.0
141
4.0
290
     0
  0
SCALE
  5
4038
102
{ACAD_REACTORS
330
4034
102
}
330
4034
100
AcDbScale
 70
     0
300
1:5
140
1.0
141
5.0
290
     0
  0
SCALE
  5
4039
102
{ACAD_REACTORS
330
4034
102
}
330
4034
100
AcDbScale
 70
     0
300
1:8
140
1.0
141
8.0
290
     0
  0
SCALE
  5
403A
102
{ACAD_REACTORS
330
4034
102
}
330
4034
100
AcDbScale
 70
     0
300
1:10
140
1.0
141
10.0
290
     0
  0
SCALE
  5
403B
102
{ACAD_REACTORS
330
4034
102
}
330
4034
100
AcDbScale
 70
     0
300
1:16
140
1.0
141
16.0
290
     0
  0
SCALE
  5
403C
102
{ACAD_REACTORS
330
4034
102
}
330
4034
100
AcDbScale
 70
     0
300
1:20
140
1.0
141
20.0
290
     0
  0
SCALE
  5
403D
102
{ACAD_REACTORS
330
4034
102
}
330
4034
100
AcDbScale
 70
     0
300
1:30
140
1.0
141
30.0
290
     0
  0
SCALE
  5
403E
102
{ACAD_REACTORS
330
4034
102
}
330
4034
100
AcDbScale
 70
     0
300
1:40
140
1.0
141
40.0
290
     0
  0
SCALE
  5
403F
102
{ACAD_REACTORS
330
4034
102
}
330
4034
100
AcDbScale
 70
     0
300
1:50
140
1.0
141
50.0
290
     0
  0
SCALE
  5
4040
102
{ACAD_REACTORS
330
4034
102
}
330
4034
100
AcDbScale
 70
     0
300
1:100
140
1.0
141
100.0
290
     0
  0
SCALE
  5
4041
102
{ACAD_REACTORS
330
4034
102
}
330
4034
100
AcDbScale
 70
     0
300
2:1
140
2.0
141
1.0
290
     0
  0
SCALE
  5
4042
102
{ACAD_REACTORS
330
4034
102
}
330
4034
100
AcDbScale
 70
     0
300
4:1
140
4.0
141
1.0
290
     0
  0
SCALE
  5
4043
102
{ACAD_REACTORS
330
4034
102
}
330
4034
100
AcDbScale
 70
     0
300
8:1
140
8.0
141
1.0
290
     0
  0
SCALE
  5
4044
102
{ACAD_REACTORS
330
4034
102
}
330
4034
100
AcDbScale
 70
     0
300
10:1
140
10.0
141
1.0
290
     0
  0
SCALE
  5
4045
102
{ACAD_REACTORS
330
4034
102
}
330
4034
100
AcDbScale
 70
     0
300
100:1
140
100.0
141
1.0
290
     0
  0
SCALE
  5
4046
102
{ACAD_REACTORS
330
4034
102
}
330
4034
100
AcDbScale
 70
     0
300
1/128" = 1'-0"
140
0.0078125
141
12.0
290
     0
  0
SCALE
  5
4047
102
{ACAD_REACTORS
330
4034
102
}
330
4034
100
AcDbScale
 70
     0
300
1/64" = 1'-0"
140
0.015625
141
12.0
290
     0
  0
SCALE
  5
4048
102
{ACAD_REACTORS
330
4034
102
}
330
4034
100
AcDbScale
 70
     0
300
1/32" = 1'-0"
140
0.03125
141
12.0
290
     0
  0
SCALE
  5
4049
102
{ACAD_REACTORS
330
4034
102
}
330
4034
100
AcDbScale
 70
     0
300
1/16" = 1'-0"
140
0.0625
141
12.0
290
     0
  0
SCALE
  5
404A
102
{ACAD_REACTORS
330
4034
102
}
330
4034
100
AcDbScale
 70
     0
300
3/32" = 1'-0"
140
0.09375
141
12.0
290
     0
  0
SCALE
  5
404B
102
{ACAD_REACTORS
330
4034
102
}
330
4034
100
AcDbScale
 70
     0
300
1/8" = 1'-0"
140
0.125
141
12.0
290
     0
  0
SCALE
  5
404C
102
{ACAD_REACTORS
330
4034
102
}
330
4034
100
AcDbScale
 70
     0
300
3/16" = 1'-0"
140
0.1875
141
12.0
290
     0
  0
SCALE
  5
404D
102
{ACAD_REACTORS
330
4034
102
}
330
4034
100
AcDbScale
 70
     0
300
1/4" = 1'-0"
140
0.25
141
12.0
290
     0
  0
SCALE
  5
404E
102
{ACAD_REACTORS
330
4034
102
}
330
4034
100
AcDbScale
 70
     0
300
3/8" = 1'-0"
140
0.375
141
12.0
290
     0
  0
SCALE
  5
404F
102
{ACAD_REACTORS
330
4034
102
}
330
4034
100
AcDbScale
 70
     0
300
1/2" = 1'-0"
140
0.5
141
12.0
290
     0
  0
SCALE
  5
4050
102
{ACAD_REACTORS
330
4034
102
}
330
4034
100
AcDbScale
 70
     0
300
3/4" = 1'-0"
140
0.75
141
12.0
290
     0
  0
SCALE
  5
4051
102
{ACAD_REACTORS
330
4034
102
}
330
4034
100
AcDbScale
 70
     0
300
1" = 1'-0"
140
1.0
141
12.0
290
     0
  0
SCALE
  5
4052
102
{ACAD_REACTORS
330
4034
102
}
330
4034
100
AcDbScale
 70
     0
300
1-1/2" = 1'-0"
140
1.5
141
12.0
290
     0
  0
SCALE
  5
4053
102
{ACAD_REACTORS
330
4034
102
}
330
4034
100
AcDbScale
 70
     0
300
3" = 1'-0"
140
3.0
141
12.0
290
     0
  0
SCALE
  5
4054
102
{ACAD_REACTORS
330
4034
102
}
330
4034
100
AcDbScale
 70
     0
300
6" = 1'-0"
140
6.0
141
12.0
290
     0
  0
SCALE
  5
4055
102
{ACAD_REACTORS
330
4034
102
}
330
4034
100
AcDbScale
 70
     0
300
1'-0" = 1'-0"
140
12.0
141
12.0
290
     0
  0
DICTIONARYVAR
  5
5F
102
{ACAD_REACTORS
330
5E
102
}
330
5E
100
DictionaryVariables
280
     0
  1
2
  0
DICTIONARYVAR
  5
63
102
{ACAD_REACTORS
330
5E
102
}
330
5E
100
DictionaryVariables
280
     0
  1
1
  0
ENDSEC
  0
EOF
