  0
SECTION
  2
HEADER
  9
$ACADVER
  1
AC1009
  9
$INSBASE
 10
0.0
 20
0.0
 30
0.0
  9
$EXTMIN
 10
104.6825397119659
 20
155.73911162922519
 30
0.0
  9
$EXTMAX
 10
1161.6825397119651
 20
690.73911162922525
 30
0.0
  9
$LIMMIN
 10
0.0
 20
0.0
  9
$LIMMAX
 10
409.88999999999987
 20
282.88999999999987
  9
$ORTHOMODE
 70
     0
  9
$REGENMODE
 70
     1
  9
$FILLMODE
 70
     1
  9
$QTEXTMODE
 70
     0
  9
$MIRRTEXT
 70
     1
  9
$DRAGMODE
 70
     2
  9
$LTSCALE
 40
10.0
  9
$OSMODE
 70
   311
  9
$ATTMODE
 70
     1
  9
$TEXTSIZE
 40
3.5
  9
$TRACEWID
 40
1.0
  9
$TEXTSTYLE
  7
AD-STANDARD
  9
$CLAYER
  8
MEASURE
  9
$CELTYPE
  6
BYLAYER
  9
$CECOLOR
 62
   256
  9
$DIMSCALE
 40
3.0
  9
$DIMASZ
 40
2.5
  9
$DIMEXO
 40
1.0
  9
$DIMDLI
 40
0.38
  9
$DIMRND
 40
0.0
  9
$DIMDLE
 40
0.0
  9
$DIMEXE
 40
2.0
  9
$DIMTP
 40
0.0
  9
$DIMTM
 40
0.0
  9
$DIMTXT
 40
3.5
  9
$DIMCEN
 40
0.0
  9
$DIMTSZ
 40
0.0
  9
$DIMTOL
 70
     0
  9
$DIMLIM
 70
     0
  9
$DIMTIH
 70
     0
  9
$DIMTOH
 70
     0
  9
$DIMSE1
 70
     0
  9
$DIMSE2
 70
     0
  9
$DIMTAD
 70
     1
  9
$DIMZIN
 70
     8
  9
$DIMBLK
  1

  9
$DIMASO
 70
     1
  9
$DIMSHO
 70
     1
  9
$DIMPOST
  1

  9
$DIMAPOST
  1

  9
$DIMALT
 70
     0
  9
$DIMALTD
 70
     2
  9
$DIMALTF
 40
25.399999999999999
  9
$DIMLFAC
 40
1.0
  9
$DIMTOFL
 70
     1
  9
$DIMTVP
 40
0.0
  9
$DIMTIX
 70
     0
  9
$DIMSOXD
 70
     0
  9
$DIMSAH
 70
     0
  9
$DIMBLK1
  1

  9
$DIMBLK2
  1

  9
$DIMSTYLE
  2
AD-STANDARD
  9
$DIMCLRD
 70
     9
  9
$DIMCLRE
 70
     9
  9
$DIMCLRT
 70
     2
  9
$DIMTFAC
 40
1.0
  9
$DIMGAP
 40
0.5
  9
$LUNITS
 70
     2
  9
$LUPREC
 70
     4
  9
$SKETCHINC
 40
1.0
  9
$FILLETRAD
 40
0.0
  9
$AUNITS
 70
     0
  9
$AUPREC
 70
     0
  9
$MENU
  1
.
  9
$ELEVATION
 40
0.0
  9
$PELEVATION
 40
0.0
  9
$THICKNESS
 40
0.0
  9
$LIMCHECK
 70
     0
  9
$BLIPMODE
 70
     0
  9
$CHAMFERA
 40
0.0
  9
$CHAMFERB
 40
0.0
  9
$SKPOLY
 70
     0
  9
$TDCREATE
 40
2453138.3738298612
  9
$TDUPDATE
 40
2453943.3494246169
  9
$TDINDWG
 40
0.0647741204
  9
$TDUSRTIMER
 40
0.0647741204
  9
$USRTIMER
 70
     1
  9
$ANGBASE
 50
0.0
  9
$ANGDIR
 70
     0
  9
$PDMODE
 70
     0
  9
$PDSIZE
 40
0.0
  9
$PLINEWID
 40
0.0
  9
$COORDS
 70
     1
  9
$SPLFRAME
 70
     0
  9
$SPLINETYPE
 70
     6
  9
$SPLINESEGS
 70
     8
  9
$ATTDIA
 70
     0
  9
$ATTREQ
 70
     1
  9
$HANDLING
 70
 22529
  9
$HANDSEED
  5
17A9
  9
$SURFTAB1
 70
     6
  9
$SURFTAB2
 70
     6
  9
$SURFTYPE
 70
     6
  9
$SURFU
 70
     6
  9
$SURFV
 70
     6
  9
$UCSNAME
  2

  9
$UCSORG
 10
0.0
 20
0.0
 30
0.0
  9
$UCSXDIR
 10
1.0
 20
0.0
 30
0.0
  9
$UCSYDIR
 10
0.0
 20
1.0
 30
0.0
  9
$PUCSNAME
  2

  9
$PUCSORG
 10
0.0
 20
0.0
 30
0.0
  9
$PUCSXDIR
 10
1.0
 20
0.0
 30
0.0
  9
$PUCSYDIR
 10
0.0
 20
1.0
 30
0.0
  9
$USERI1
 70
     0
  9
$USERI2
 70
     0
  9
$USERI3
 70
     0
  9
$USERI4
 70
     0
  9
$USERI5
 70
     0
  9
$USERR1
 40
0.0
  9
$USERR2
 40
0.0
  9
$USERR3
 40
0.0
  9
$USERR4
 40
0.0
  9
$USERR5
 40
0.0
  9
$WORLDVIEW
 70
     1
  9
$SHADEDGE
 70
     3
  9
$SHADEDIF
 70
    70
  9
$TILEMODE
 70
     0
  9
$MAXACTVP
 70
    16
  9
$PLIMCHECK
 70
     0
  9
$PEXTMIN
 10
3.0
 20
3.0
 30
0.0
  9
$PEXTMAX
 10
410.0
 20
287.0
 30
0.0
  9
$PLIMMIN
 10
-3.17498779296875
 20
-3.1749999523162842
  9
$PLIMMAX
 10
416.98333740234369
 20
293.85682988166798
  9
$UNITMODE
 70
     0
  9
$VISRETAIN
 70
     0
  9
$PLINEGEN
 70
     0
  9
$PSLTSCALE
 70
     1
  0
ENDSEC
  0
SECTION
  2
TABLES
  0
TABLE
  2
VPORT
 70
     3
  0
VPORT
  2
*ACTIVE
 70
     0
 10
0.0
 20
0.0
 11
1.0
 21
1.0
 12
687.27113493951595
 22
441.23819203614102
 13
0.0
 23
0.0
 14
168.0
 24
168.0
 15
0.0
 25
0.0
 16
0.0
 26
0.0
 36
1.0
 17
0.0
 27
0.0
 37
0.0
 40
1708.6128449623291
 41
1.2185929648241201
 42
50.0
 43
0.0
 44
0.0
 50
0.0
 51
0.0
 71
     0
 72
   100
 73
     1
 74
     0
 75
     0
 76
     0
 77
     0
 78
     1
  0
ENDTAB
  0
TABLE
  2
LTYPE
 70
     4
  0
LTYPE
  2
CONTINUOUS
 70
     0
  3
Solid line
 72
    65
 73
     0
 40
0.0
  0
LTYPE
  2
CENTER
 70
     0
  3
____ _ ____ _ ____ _ ____ _ ____ _ ____ _ ____ 
 72
    65
 73
     4
 40
2.0
 49
1.25
 49
-0.25
 49
0.25
 49
-0.25
  0
LTYPE
  2
HIDDEN
 70
     0
  3
__ __ __ __ __ __ __ __ __ __ __ __ __ __ __ __
 72
    65
 73
     2
 40
0.375
 49
0.25
 49
-0.125
  0
LTYPE
  2
PHANTOM
 70
     0
  3
Phantom ______  __  __  ______  __  __  ______
 72
    65
 73
     6
 40
63.5
 49
31.75
 49
-6.3499999999999988
 49
6.3499999999999988
 49
-6.3499999999999988
 49
6.3499999999999988
 49
-6.3499999999999988
  0
ENDTAB
  0
TABLE
  2
LAYER
 70
    12
  0
LAYER
  2
0
 70
     0
 62
     7
  6
CONTINUOUS
  0
LAYER
  2
HOJO
 70
     0
 62
     4
  6
CONTINUOUS
  0
LAYER
  2
MEASURE
 70
     0
 62
     9
  6
CONTINUOUS
  0
LAYER
  2
DEFPOINTS
 70
     0
 62
     7
  6
CONTINUOUS
  0
LAYER
  2
NEJI
 70
     0
 62
     7
  6
CONTINUOUS
  0
LAYER
  2
CENTER
 70
     0
 62
     9
  6
CENTER
  0
LAYER
  2
NOTE
 70
     0
 62
     2
  6
CONTINUOUS
  0
LAYER
  2
_0-0_フレ_ム
 70
     0
 62
     7
  6
CONTINUOUS
  0
LAYER
  2
_0-1_DISP
 70
     0
 62
     7
  6
CONTINUOUS
  0
LAYER
  2
_0-3_下パネル
 70
     0
 62
     7
  6
CONTINUOUS
  0
LAYER
  2
_0-5_CPUぼ_ど
 70
     0
 62
     7
  6
CONTINUOUS
  0
LAYER
  2
_0-F_Ａ３
 70
     0
 62
     7
  6
CONTINUOUS
  0
ENDTAB
  0
TABLE
  2
STYLE
 70
     5
  0
STYLE
  2
STANDARD
 70
     0
 40
0.0
 41
0.8
 50
0.0
 71
     0
 42
84.175084175084166
  3
TXT
  4
bigfont.shx
  0
STYLE
  2
AD-STANDARD
 70
     0
 40
0.0
 41
0.8
 50
0.0
 71
     0
 42
3.5
  3
C:\Program Files\AutoCAD LT\romans.shx
  4
bigfont.shx
  0
STYLE
  2
ROMAND
 70
     0
 40
5.0
 41
1.0
 50
0.0
 71
     0
 42
4.5
  3
romand
  4

  0
STYLE
  2
FORM
 70
     0
 40
3.5
 41
0.8
 50
0.0
 71
     0
 42
3.5
  3
ROMANS.SHX
  4
BIGFONT.SHX
  0
ENDTAB
  0
TABLE
  2
VIEW
 70
     0
  0
ENDTAB
  0
TABLE
  2
UCS
 70
     0
  0
ENDTAB
  0
TABLE
  2
APPID
 70
     5
  0
APPID
  2
ACAD
 70
     0
  0
APPID
  2
CONTENTTABDATA
 70
     0
  0
APPID
  2
CONTENTCURRENTTAB
 70
     0
  0
APPID
  2
CONTENTBLOCKDESCRIPTION
 70
     0
  0
APPID
  2
CONTENTBLOCKICON
 70
     0
  0
ENDTAB
  0
TABLE
  2
DIMSTYLE
 70
     2
  0
DIMSTYLE
  2
STANDARD
 70
     0
  3

  4

  5

  6

  7

 40
1.0
 41
0.18
 42
0.0625
 43
0.38
 44
0.18
 45
0.0
 46
0.0
 47
0.0
 48
0.0
140
0.18
141
0.09
142
0.0
143
25.399999999999999
144
1.0
145
0.0
146
1.0
147
0.09
 71
     0
 72
     0
 73
     1
 74
     1
 75
     0
 76
     0
 77
     0
 78
     0
170
     0
171
     2
172
     0
173
     0
174
     0
175
     0
176
     0
177
     0
178
     0
  0
DIMSTYLE
  2
AD-STANDARD
 70
     0
  3

  4

  5

  6

  7

 40
3.0
 41
2.5
 42
1.0
 43
0.38
 44
2.0
 45
0.0
 46
0.0
 47
0.0
 48
0.0
140
3.5
141
0.0
142
0.0
143
25.399999999999999
144
1.0
145
0.0
146
1.0
147
0.5
 71
     0
 72
     0
 73
     0
 74
     0
 75
     0
 76
     0
 77
     1
 78
     8
170
     0
171
     2
172
     1
173
     0
174
     0
175
     0
176
     9
177
     9
178
     2
  0
ENDTAB
  0
ENDSEC
  0
SECTION
  2
BLOCKS
  0
BLOCK
  8
0
  2
$MODEL_SPACE
 70
     0
 10
0.0
 20
0.0
 30
0.0
  3
$MODEL_SPACE
  1

  0
ENDBLK
  5
1C
  8
0
  0
BLOCK
 67
     1
  8
0
  2
$PAPER_SPACE
 70
     0
 10
0.0
 20
0.0
 30
0.0
  3
$PAPER_SPACE
  1

  0
ENDBLK
  5
1686
 67
     1
  8
0
  0
BLOCK
  8
0
  2
*D1
 70
     1
 10
0.0
 20
0.0
 30
0.0
  3
*D1
  1

  0
LINE
  5
16AB
  8
MEASURE
 62
     9
 10
179.68253971196589
 20
587.73911162922525
 30
0.0
 11
179.68253971196589
 21
642.73911162922525
 31
0.0
  0
LINE
  5
16AC
  8
MEASURE
 62
     9
 10
779.68253971196589
 20
587.73911162922525
 30
0.0
 11
779.68253971196589
 21
642.73911162922525
 31
0.0
  0
LINE
  5
16AD
  8
MEASURE
 62
     9
 10
187.182539711966
 20
636.73911162922525
 30
0.0
 11
772.18253971196589
 21
636.73911162922525
 31
0.0
  0
SOLID
  5
16AE
  8
MEASURE
 62
     9
 10
187.182539711966
 20
637.98911162922525
 30
0.0
 11
187.182539711966
 21
635.48911162922525
 31
0.0
 12
179.68253971196589
 22
636.73911162922525
 32
0.0
 13
179.68253971196589
 23
636.73911162922525
 33
0.0
  0
SOLID
  5
16AF
  8
MEASURE
 62
     9
 10
772.18253971196589
 20
637.98911162922525
 30
0.0
 11
772.18253971196589
 21
635.48911162922525
 31
0.0
 12
779.68253971196589
 22
636.73911162922525
 32
0.0
 13
779.68253971196589
 23
636.73911162922525
 33
0.0
  0
TEXT
  5
16B0
  8
MEASURE
 62
     2
 10
467.48253971196601
 20
638.23911162922525
 30
0.0
 40
10.5
  1
600
 41
0.8
  7
AD-STANDARD
  0
POINT
  5
16B1
  8
DEFPOINTS
 62
     0
 10
179.68253971196589
 20
584.73911162922525
 30
0.0
  0
POINT
  5
16B2
  8
DEFPOINTS
 62
     0
 10
779.68253971196589
 20
584.73911162922525
 30
0.0
  0
POINT
  5
16B3
  8
DEFPOINTS
 62
     0
 10
779.68253971196589
 20
636.73911162922525
 30
0.0
  0
ENDBLK
  5
90E
  8
0
  0
BLOCK
  8
0
  2
*D2
 70
     1
 10
0.0
 20
0.0
 30
0.0
  3
*D2
  1

  0
LINE
  5
16A2
  8
MEASURE
 62
     9
 10
819.682539711966
 20
543.23911162922525
 30
0.0
 11
819.682539711966
 21
663.73911162922525
 31
0.0
  0
LINE
  5
16A3
  8
MEASURE
 62
     9
 10
139.682539711966
 20
543.23911162922525
 30
0.0
 11
139.682539711966
 21
663.73911162922525
 31
0.0
  0
LINE
  5
16A4
  8
MEASURE
 62
     9
 10
812.18253971196611
 20
657.73911162922525
 30
0.0
 11
147.18253971196589
 21
657.73911162922525
 31
0.0
  0
SOLID
  5
16A5
  8
MEASURE
 62
     9
 10
812.18253971196611
 20
658.98911162922525
 30
0.0
 11
812.18253971196611
 21
656.48911162922525
 31
0.0
 12
819.682539711966
 22
657.73911162922525
 32
0.0
 13
819.682539711966
 23
657.73911162922525
 33
0.0
  0
SOLID
  5
16A6
  8
MEASURE
 62
     9
 10
147.18253971196589
 20
658.98911162922525
 30
0.0
 11
147.18253971196589
 21
656.48911162922525
 31
0.0
 12
139.682539711966
 22
657.73911162922525
 32
0.0
 13
139.682539711966
 23
657.73911162922525
 33
0.0
  0
TEXT
  5
16A7
  8
MEASURE
 62
     2
 10
467.48253971196601
 20
659.23911162922525
 30
0.0
 40
10.5
  1
680
 41
0.8
  7
AD-STANDARD
  0
POINT
  5
16A8
  8
DEFPOINTS
 62
     0
 10
819.682539711966
 20
540.23911162922525
 30
0.0
  0
POINT
  5
16A9
  8
DEFPOINTS
 62
     0
 10
139.682539711966
 20
540.23911162922525
 30
0.0
  0
POINT
  5
16AA
  8
DEFPOINTS
 62
     0
 10
139.682539711966
 20
657.73911162922525
 30
0.0
  0
ENDBLK
  5
924
  8
0
  0
BLOCK
  8
0
  2
*D3
 70
     1
 10
0.0
 20
0.0
 30
0.0
  3
*D3
  1

  0
LINE
  5
1699
  8
MEASURE
 62
     9
 10
839.68253971196589
 20
558.23911162922525
 30
0.0
 11
839.68253971196589
 21
684.73911162922525
 31
0.0
  0
LINE
  5
169A
  8
MEASURE
 62
     9
 10
119.682539711966
 20
558.23911162922525
 30
0.0
 11
119.682539711966
 21
684.73911162922525
 31
0.0
  0
LINE
  5
169B
  8
MEASURE
 62
     9
 10
832.182539711966
 20
678.73911162922525
 30
0.0
 11
127.182539711966
 21
678.73911162922525
 31
0.0
  0
SOLID
  5
169C
  8
MEASURE
 62
     9
 10
832.182539711966
 20
679.98911162922525
 30
0.0
 11
832.182539711966
 21
677.48911162922525
 31
0.0
 12
839.68253971196589
 22
678.73911162922525
 32
0.0
 13
839.68253971196589
 23
678.73911162922525
 33
0.0
  0
SOLID
  5
169D
  8
MEASURE
 62
     9
 10
127.182539711966
 20
679.98911162922525
 30
0.0
 11
127.182539711966
 21
677.48911162922525
 31
0.0
 12
119.682539711966
 22
678.73911162922525
 32
0.0
 13
119.682539711966
 23
678.73911162922525
 33
0.0
  0
TEXT
  5
169E
  8
MEASURE
 62
     2
 10
467.68253971196589
 20
680.23911162922525
 30
0.0
 40
10.5
  1
720
 41
0.8
  7
AD-STANDARD
  0
POINT
  5
169F
  8
DEFPOINTS
 62
     0
 10
839.68253971196589
 20
555.23911162922525
 30
0.0
  0
POINT
  5
16A0
  8
DEFPOINTS
 62
     0
 10
119.682539711966
 20
555.23911162922525
 30
0.0
  0
POINT
  5
16A1
  8
DEFPOINTS
 62
     0
 10
119.682539711966
 20
678.73911162922525
 30
0.0
  0
ENDBLK
  5
98D
  8
0
  0
BLOCK
  8
0
  2
*D4
 70
     1
 10
0.0
 20
0.0
 30
0.0
  3
*D4
  1

  0
LINE
  5
16DA
  8
MEASURE
 62
     9
 10
717.68254471196599
 20
381.73911162922519
 30
0.0
 11
717.68254471196599
 21
336.73911162922519
 31
0.0
  0
LINE
  5
16DB
  8
MEASURE
 62
     9
 10
789.682539711966
 20
412.73911162922519
 30
0.0
 11
789.682539711966
 21
336.73911162922519
 31
0.0
  0
LINE
  5
16DC
  8
MEASURE
 62
     9
 10
725.18254471196587
 20
342.73911162922519
 30
0.0
 11
782.182539711966
 21
342.73911162922519
 31
0.0
  0
SOLID
  5
16DD
  8
MEASURE
 62
     9
 10
725.18254471196587
 20
343.98911162922519
 30
0.0
 11
725.18254471196587
 21
341.48911162922519
 31
0.0
 12
717.68254471196599
 22
342.73911162922519
 32
0.0
 13
717.68254471196599
 23
342.73911162922519
 33
0.0
  0
SOLID
  5
16DE
  8
MEASURE
 62
     9
 10
782.182539711966
 20
343.98911162922519
 30
0.0
 11
782.182539711966
 21
341.48911162922519
 31
0.0
 12
789.682539711966
 22
342.73911162922519
 32
0.0
 13
789.682539711966
 23
342.73911162922519
 33
0.0
  0
TEXT
  5
16DF
  8
MEASURE
 62
     2
 10
745.68254221196594
 20
344.23911162922519
 30
0.0
 40
10.5
  1
72
 41
0.8
  7
AD-STANDARD
  0
POINT
  5
16E0
  8
DEFPOINTS
 62
     0
 10
717.68254471196599
 20
384.73911162922519
 30
0.0
  0
POINT
  5
16E1
  8
DEFPOINTS
 62
     0
 10
789.682539711966
 20
415.73911162922519
 30
0.0
  0
POINT
  5
16E2
  8
DEFPOINTS
 62
     0
 10
789.682539711966
 20
342.73911162922519
 30
0.0
  0
ENDBLK
  5
9D0
  8
0
  0
BLOCK
  8
0
  2
*D5
 70
     1
 10
0.0
 20
0.0
 30
0.0
  3
*D5
  1

  0
LINE
  5
16E3
  8
MEASURE
 62
     9
 10
717.68254471196599
 20
381.73911162922519
 30
0.0
 11
717.68254471196599
 21
336.73911162922519
 31
0.0
  0
LINE
  5
16E4
  8
MEASURE
 62
     9
 10
677.682539711966
 20
392.13911162922528
 30
0.0
 11
677.682539711966
 21
336.73911162922519
 31
0.0
  0
LINE
  5
16E5
  8
MEASURE
 62
     9
 10
710.18254471196599
 20
342.73911162922519
 30
0.0
 11
685.182539711966
 21
342.73911162922519
 31
0.0
  0
SOLID
  5
16E6
  8
MEASURE
 62
     9
 10
710.18254471196599
 20
343.98911162922519
 30
0.0
 11
710.18254471196599
 21
341.48911162922519
 31
0.0
 12
717.68254471196599
 22
342.73911162922519
 32
0.0
 13
717.68254471196599
 23
342.73911162922519
 33
0.0
  0
SOLID
  5
16E7
  8
MEASURE
 62
     9
 10
685.182539711966
 20
343.98911162922519
 30
0.0
 11
685.182539711966
 21
341.48911162922519
 31
0.0
 12
677.682539711966
 22
342.73911162922519
 32
0.0
 13
677.682539711966
 23
342.73911162922519
 33
0.0
  0
TEXT
  5
16E8
  8
MEASURE
 62
     2
 10
689.68254221196594
 20
344.23911162922519
 30
0.0
 40
10.5
  1
40
 41
0.8
  7
AD-STANDARD
  0
POINT
  5
16E9
  8
DEFPOINTS
 62
     0
 10
717.68254471196599
 20
384.73911162922519
 30
0.0
  0
POINT
  5
16EA
  8
DEFPOINTS
 62
     0
 10
677.682539711966
 20
395.13911162922523
 30
0.0
  0
POINT
  5
16EB
  8
DEFPOINTS
 62
     0
 10
677.682539711966
 20
342.73911162922519
 30
0.0
  0
ENDBLK
  5
9E6
  8
0
  0
BLOCK
  8
0
  2
*D6
 70
     1
 10
0.0
 20
0.0
 30
0.0
  3
*D6
  1

  0
LINE
  5
16EC
  8
MEASURE
 62
     9
 10
677.682539711966
 20
392.13911162922528
 30
0.0
 11
677.682539711966
 21
336.73911162922519
 31
0.0
  0
LINE
  5
16ED
  8
MEASURE
 62
     9
 10
637.682539711966
 20
392.13911162922528
 30
0.0
 11
637.682539711966
 21
336.73911162922519
 31
0.0
  0
LINE
  5
16EE
  8
MEASURE
 62
     9
 10
670.182539711966
 20
342.73911162922519
 30
0.0
 11
645.182539711966
 21
342.73911162922519
 31
0.0
  0
SOLID
  5
16EF
  8
MEASURE
 62
     9
 10
670.182539711966
 20
343.98911162922519
 30
0.0
 11
670.182539711966
 21
341.48911162922519
 31
0.0
 12
677.682539711966
 22
342.73911162922519
 32
0.0
 13
677.682539711966
 23
342.73911162922519
 33
0.0
  0
SOLID
  5
16F0
  8
MEASURE
 62
     9
 10
645.182539711966
 20
343.98911162922519
 30
0.0
 11
645.182539711966
 21
341.48911162922519
 31
0.0
 12
637.682539711966
 22
342.73911162922519
 32
0.0
 13
637.682539711966
 23
342.73911162922519
 33
0.0
  0
TEXT
  5
16F1
  8
MEASURE
 62
     2
 10
649.682539711966
 20
344.23911162922519
 30
0.0
 40
10.5
  1
40
 41
0.8
  7
AD-STANDARD
  0
POINT
  5
16F2
  8
DEFPOINTS
 62
     0
 10
677.682539711966
 20
395.13911162922523
 30
0.0
  0
POINT
  5
16F3
  8
DEFPOINTS
 62
     0
 10
637.682539711966
 20
395.13911162922523
 30
0.0
  0
POINT
  5
16F4
  8
DEFPOINTS
 62
     0
 10
637.682539711966
 20
342.73911162922519
 30
0.0
  0
ENDBLK
  5
9F3
  8
0
  0
BLOCK
  8
0
  2
*D7
 70
     1
 10
0.0
 20
0.0
 30
0.0
  3
*D7
  1

  0
LINE
  5
16D1
  8
MEASURE
 62
     9
 10
789.682539711966
 20
412.73911162922519
 30
0.0
 11
789.682539711966
 21
315.73911162922519
 31
0.0
  0
LINE
  5
16D2
  8
MEASURE
 62
     9
 10
839.68253971196589
 20
452.23911162922519
 30
0.0
 11
839.68253971196589
 21
315.73911162922519
 31
0.0
  0
LINE
  5
16D3
  8
MEASURE
 62
     9
 10
797.18253971196589
 20
321.73911162922519
 30
0.0
 11
832.182539711966
 21
321.73911162922519
 31
0.0
  0
SOLID
  5
16D4
  8
MEASURE
 62
     9
 10
797.18253971196589
 20
322.98911162922519
 30
0.0
 11
797.18253971196589
 21
320.48911162922519
 31
0.0
 12
789.682539711966
 22
321.73911162922519
 32
0.0
 13
789.682539711966
 23
321.73911162922519
 33
0.0
  0
SOLID
  5
16D5
  8
MEASURE
 62
     9
 10
832.182539711966
 20
322.98911162922519
 30
0.0
 11
832.182539711966
 21
320.48911162922519
 31
0.0
 12
839.68253971196589
 22
321.73911162922519
 32
0.0
 13
839.68253971196589
 23
321.73911162922519
 33
0.0
  0
TEXT
  5
16D6
  8
MEASURE
 62
     2
 10
806.68253971196589
 20
323.23911162922519
 30
0.0
 40
10.5
  1
50
 41
0.8
  7
AD-STANDARD
  0
POINT
  5
16D7
  8
DEFPOINTS
 62
     0
 10
789.682539711966
 20
415.73911162922519
 30
0.0
  0
POINT
  5
16D8
  8
DEFPOINTS
 62
     0
 10
839.68253971196589
 20
455.23911162922519
 30
0.0
  0
POINT
  5
16D9
  8
DEFPOINTS
 62
     0
 10
839.68253971196589
 20
321.73911162922519
 30
0.0
  0
ENDBLK
  5
A00
  8
0
  0
BLOCK
  8
0
  2
*D8
 70
     1
 10
0.0
 20
0.0
 30
0.0
  3
*D8
  1

  0
LINE
  5
1690
  8
MEASURE
 62
     9
 10
789.682539711966
 20
412.73911162922519
 30
0.0
 11
789.682539711966
 21
315.73911162922519
 31
0.0
  0
LINE
  5
1691
  8
MEASURE
 62
     9
 10
169.682539711966
 20
412.73911162922519
 30
0.0
 11
169.682539711966
 21
315.73911162922519
 31
0.0
  0
LINE
  5
1692
  8
MEASURE
 62
     9
 10
782.182539711966
 20
321.73911162922519
 30
0.0
 11
177.182539711966
 21
321.73911162922519
 31
0.0
  0
SOLID
  5
1693
  8
MEASURE
 62
     9
 10
782.182539711966
 20
322.98911162922519
 30
0.0
 11
782.182539711966
 21
320.48911162922519
 31
0.0
 12
789.682539711966
 22
321.73911162922519
 32
0.0
 13
789.682539711966
 23
321.73911162922519
 33
0.0
  0
SOLID
  5
1694
  8
MEASURE
 62
     9
 10
177.182539711966
 20
322.98911162922519
 30
0.0
 11
177.182539711966
 21
320.48911162922519
 31
0.0
 12
169.682539711966
 22
321.73911162922519
 32
0.0
 13
169.682539711966
 23
321.73911162922519
 33
0.0
  0
TEXT
  5
1695
  8
MEASURE
 62
     2
 10
467.48253971196601
 20
323.23911162922519
 30
0.0
 40
10.5
  1
620
 41
0.8
  7
AD-STANDARD
  0
POINT
  5
1696
  8
DEFPOINTS
 62
     0
 10
789.682539711966
 20
415.73911162922519
 30
0.0
  0
POINT
  5
1697
  8
DEFPOINTS
 62
     0
 10
169.682539711966
 20
415.73911162922519
 30
0.0
  0
POINT
  5
1698
  8
DEFPOINTS
 62
     0
 10
169.682539711966
 20
321.73911162922519
 30
0.0
  0
ENDBLK
  5
A16
  8
0
  0
BLOCK
  8
0
  2
*D9
 70
     1
 10
0.0
 20
0.0
 30
0.0
  3
*D9
  1

  0
LINE
  5
16B4
  8
MEASURE
 62
     9
 10
169.682539711966
 20
412.73911162922519
 30
0.0
 11
169.682539711966
 21
315.73911162922519
 31
0.0
  0
LINE
  5
16B5
  8
MEASURE
 62
     9
 10
119.682539711966
 20
452.23911162922519
 30
0.0
 11
119.6825397119659
 21
315.73911162922519
 31
0.0
  0
LINE
  5
16B6
  8
MEASURE
 62
     9
 10
162.182539711966
 20
321.73911162922519
 30
0.0
 11
127.1825397119659
 21
321.73911162922519
 31
0.0
  0
SOLID
  5
16B7
  8
MEASURE
 62
     9
 10
162.182539711966
 20
322.98911162922519
 30
0.0
 11
162.182539711966
 21
320.48911162922519
 31
0.0
 12
169.682539711966
 22
321.73911162922519
 32
0.0
 13
169.682539711966
 23
321.73911162922519
 33
0.0
  0
SOLID
  5
16B8
  8
MEASURE
 62
     9
 10
127.1825397119659
 20
322.98911162922519
 30
0.0
 11
127.1825397119659
 21
320.48911162922519
 31
0.0
 12
119.6825397119659
 22
321.73911162922519
 32
0.0
 13
119.6825397119659
 23
321.73911162922519
 33
0.0
  0
TEXT
  5
16B9
  8
MEASURE
 62
     2
 10
136.682539711966
 20
323.23911162922519
 30
0.0
 40
10.5
  1
50
 41
0.8
  7
AD-STANDARD
  0
POINT
  5
16BA
  8
DEFPOINTS
 62
     0
 10
169.682539711966
 20
415.73911162922519
 30
0.0
  0
POINT
  5
16BB
  8
DEFPOINTS
 62
     0
 10
119.682539711966
 20
455.23911162922519
 30
0.0
  0
POINT
  5
16BC
  8
DEFPOINTS
 62
     0
 10
119.6825397119659
 20
321.73911162922519
 30
0.0
  0
ENDBLK
  5
A23
  8
0
  0
BLOCK
  8
0
  2
*D10
 70
     1
 10
0.0
 20
0.0
 30
0.0
  3
*D10
  1

  0
LINE
  5
1722
  8
MEASURE
 62
     9
 10
822.68253971196589
 20
540.23911162922525
 30
0.0
 11
887.682539711966
 21
540.23911162922525
 31
0.0
  0
LINE
  5
1723
  8
MEASURE
 62
     9
 10
822.68253971196589
 20
470.23911162922519
 30
0.0
 11
887.682539711966
 21
470.23911162922519
 31
0.0
  0
LINE
  5
1724
  8
MEASURE
 62
     9
 10
881.68253971196589
 20
532.73911162922525
 30
0.0
 11
881.68253971196589
 21
477.73911162922519
 31
0.0
  0
SOLID
  5
1725
  8
MEASURE
 62
     9
 10
880.432539711966
 20
532.73911162922525
 30
0.0
 11
882.932539711966
 21
532.73911162922525
 31
0.0
 12
881.68253971196589
 22
540.23911162922525
 32
0.0
 13
881.68253971196589
 23
540.23911162922525
 33
0.0
  0
SOLID
  5
1726
  8
MEASURE
 62
     9
 10
880.432539711966
 20
477.73911162922519
 30
0.0
 11
882.932539711966
 21
477.73911162922519
 31
0.0
 12
881.68253971196589
 22
470.23911162922519
 32
0.0
 13
881.68253971196589
 23
470.23911162922519
 33
0.0
  0
TEXT
  5
1727
  8
MEASURE
 62
     2
 10
880.18253971196577
 20
497.23911162922542
 30
0.0
 40
10.5
  1
70
 50
90.0
 41
0.8
  7
AD-STANDARD
  0
POINT
  5
1728
  8
DEFPOINTS
 62
     0
 10
819.682539711966
 20
540.23911162922525
 30
0.0
  0
POINT
  5
1729
  8
DEFPOINTS
 62
     0
 10
819.682539711966
 20
470.23911162922519
 30
0.0
  0
POINT
  5
172A
  8
DEFPOINTS
 62
     0
 10
881.68253971196589
 20
470.23911162922519
 30
0.0
  0
ENDBLK
  5
A30
  8
0
  0
BLOCK
  8
0
  2
*D11
 70
     1
 10
0.0
 20
0.0
 30
0.0
  3
*D11
  1

  0
LINE
  5
1719
  8
MEASURE
 62
     9
 10
837.682539711966
 20
560.23911162922525
 30
0.0
 11
908.682539711966
 21
560.23911162922525
 31
0.0
  0
LINE
  5
171A
  8
MEASURE
 62
     9
 10
837.682539711966
 20
450.23911162922519
 30
0.0
 11
908.682539711966
 21
450.23911162922508
 31
0.0
  0
LINE
  5
171B
  8
MEASURE
 62
     9
 10
902.682539711966
 20
552.73911162922525
 30
0.0
 11
902.682539711966
 21
457.73911162922508
 31
0.0
  0
SOLID
  5
171C
  8
MEASURE
 62
     9
 10
901.43253971196611
 20
552.73911162922525
 30
0.0
 11
903.93253971196589
 21
552.73911162922525
 31
0.0
 12
902.682539711966
 22
560.23911162922525
 32
0.0
 13
902.682539711966
 23
560.23911162922525
 33
0.0
  0
SOLID
  5
171D
  8
MEASURE
 62
     9
 10
901.43253971196611
 20
457.73911162922508
 30
0.0
 11
903.93253971196589
 21
457.73911162922508
 31
0.0
 12
902.682539711966
 22
450.23911162922508
 32
0.0
 13
902.682539711966
 23
450.23911162922508
 33
0.0
  0
TEXT
  5
171E
  8
MEASURE
 62
     2
 10
901.18253971196589
 20
492.6391116292254
 30
0.0
 40
10.5
  1
110
 50
90.0
 41
0.8
  7
AD-STANDARD
  0
POINT
  5
171F
  8
DEFPOINTS
 62
     0
 10
834.682539711966
 20
560.23911162922525
 30
0.0
  0
POINT
  5
1720
  8
DEFPOINTS
 62
     0
 10
834.682539711966
 20
450.23911162922519
 30
0.0
  0
POINT
  5
1721
  8
DEFPOINTS
 62
     0
 10
902.682539711966
 20
450.23911162922508
 30
0.0
  0
ENDBLK
  5
A46
  8
0
  0
BLOCK
  8
0
  2
*D12
 70
     1
 10
0.0
 20
0.0
 30
0.0
  3
*D12
  1

  0
LINE
  5
1707
  8
MEASURE
 62
     9
 10
782.682539711966
 20
584.73911162922525
 30
0.0
 11
929.68253971196589
 21
584.73911162922525
 31
0.0
  0
LINE
  5
1708
  8
MEASURE
 62
     9
 10
782.682539711966
 20
425.73911162922519
 30
0.0
 11
929.68253971196589
 21
425.73911162922519
 31
0.0
  0
LINE
  5
1709
  8
MEASURE
 62
     9
 10
923.68253971196589
 20
577.23911162922525
 30
0.0
 11
923.68253971196589
 21
433.23911162922508
 31
0.0
  0
SOLID
  5
170A
  8
MEASURE
 62
     9
 10
922.432539711966
 20
577.23911162922525
 30
0.0
 11
924.932539711966
 21
577.23911162922525
 31
0.0
 12
923.68253971196589
 22
584.73911162922525
 32
0.0
 13
923.68253971196589
 23
584.73911162922525
 33
0.0
  0
SOLID
  5
170B
  8
MEASURE
 62
     9
 10
922.432539711966
 20
433.23911162922508
 30
0.0
 11
924.932539711966
 21
433.23911162922508
 31
0.0
 12
923.68253971196589
 22
425.73911162922519
 32
0.0
 13
923.68253971196589
 23
425.73911162922519
 33
0.0
  0
TEXT
  5
170C
  8
MEASURE
 62
     2
 10
922.18253971196577
 20
492.83911162922539
 30
0.0
 40
10.5
  1
159
 50
90.0
 41
0.8
  7
AD-STANDARD
  0
POINT
  5
170D
  8
DEFPOINTS
 62
     0
 10
779.68253971196589
 20
584.73911162922525
 30
0.0
  0
POINT
  5
170E
  8
DEFPOINTS
 62
     0
 10
779.68253971196589
 20
425.73911162922519
 30
0.0
  0
POINT
  5
170F
  8
DEFPOINTS
 62
     0
 10
923.68253971196589
 20
425.73911162922519
 30
0.0
  0
ENDBLK
  5
A5C
  8
0
  0
BLOCK
  8
0
  2
*D13
 70
     1
 10
0.0
 20
0.0
 30
0.0
  3
*D13
  1

  0
LINE
  5
16FE
  8
MEASURE
 62
     9
 10
792.68253971196589
 20
594.73911162922525
 30
0.0
 11
950.682539711966
 21
594.73911162922525
 31
0.0
  0
LINE
  5
16FF
  8
MEASURE
 62
     9
 10
792.68253971196589
 20
415.73911162922519
 30
0.0
 11
950.682539711966
 21
415.73911162922508
 31
0.0
  0
LINE
  5
1700
  8
MEASURE
 62
     9
 10
944.682539711966
 20
587.23911162922525
 30
0.0
 11
944.682539711966
 21
423.23911162922519
 31
0.0
  0
SOLID
  5
1701
  8
MEASURE
 62
     9
 10
943.43253971196611
 20
587.23911162922525
 30
0.0
 11
945.93253971196589
 21
587.23911162922525
 31
0.0
 12
944.682539711966
 22
594.73911162922525
 32
0.0
 13
944.682539711966
 23
594.73911162922525
 33
0.0
  0
SOLID
  5
1702
  8
MEASURE
 62
     9
 10
943.43253971196611
 20
423.23911162922519
 30
0.0
 11
945.93253971196589
 21
423.23911162922519
 31
0.0
 12
944.682539711966
 22
415.73911162922508
 32
0.0
 13
944.682539711966
 23
415.73911162922508
 33
0.0
  0
TEXT
  5
1703
  8
MEASURE
 62
     2
 10
943.18253971196589
 20
492.83911162922539
 30
0.0
 40
10.5
  1
179
 50
90.0
 41
0.8
  7
AD-STANDARD
  0
POINT
  5
1704
  8
DEFPOINTS
 62
     0
 10
789.682539711966
 20
594.73911162922525
 30
0.0
  0
POINT
  5
1705
  8
DEFPOINTS
 62
     0
 10
789.682539711966
 20
415.73911162922519
 30
0.0
  0
POINT
  5
1706
  8
DEFPOINTS
 62
     0
 10
944.682539711966
 20
415.73911162922508
 30
0.0
  0
ENDBLK
  5
A72
  8
0
  0
BLOCK
  8
0
  2
*D14
 70
     1
 10
0.0
 20
0.0
 30
0.0
  3
*D14
  1

  0
LINE
  5
16C6
  8
MEASURE
 62
     9
 10
792.68253971196589
 20
415.73911162922519
 30
0.0
 11
950.682539711966
 21
415.73911162922508
 31
0.0
  0
LINE
  5
16C7
  8
MEASURE
 62
     9
 10
743.38424971196594
 20
384.73911162922519
 30
0.0
 11
950.682539711966
 21
384.73911162922508
 31
0.0
  0
LINE
  5
16C8
  8
MEASURE
 62
     9
 10
944.682539711966
 20
423.23911162922519
 30
0.0
 11
944.682539711966
 21
430.73911162922519
 31
0.0
  0
LINE
  5
16C9
  8
MEASURE
 62
     9
 10
944.682539711966
 20
377.23911162922519
 30
0.0
 11
944.682539711966
 21
323.69911162922517
 31
0.0
  0
LINE
  5
16CA
  8
MEASURE
 62
     9
 10
944.682539711966
 20
415.73911162922508
 30
0.0
 11
944.682539711966
 21
384.73911162922508
 31
0.0
  0
SOLID
  5
16CB
  8
MEASURE
 62
     9
 10
943.43253971196611
 20
423.23911162922519
 30
0.0
 11
945.93253971196589
 21
423.23911162922519
 31
0.0
 12
944.682539711966
 22
415.73911162922508
 32
0.0
 13
944.682539711966
 23
415.73911162922508
 33
0.0
  0
SOLID
  5
16CC
  8
MEASURE
 62
     9
 10
943.43253971196611
 20
377.23911162922519
 30
0.0
 11
945.93253971196589
 21
377.23911162922519
 31
0.0
 12
944.682539711966
 22
384.73911162922508
 32
0.0
 13
944.682539711966
 23
384.73911162922508
 33
0.0
  0
TEXT
  5
16CD
  8
MEASURE
 62
     2
 10
943.18253971196589
 20
323.59911162922532
 30
0.0
 40
10.5
  1
MAX 35
 50
90.0
 41
0.8
  7
AD-STANDARD
  0
POINT
  5
16CE
  8
DEFPOINTS
 62
     0
 10
789.682539711966
 20
415.73911162922519
 30
0.0
  0
POINT
  5
16CF
  8
DEFPOINTS
 62
     0
 10
740.38424971196594
 20
384.73911162922519
 30
0.0
  0
POINT
  5
16D0
  8
DEFPOINTS
 62
     0
 10
944.682539711966
 20
384.73911162922508
 30
0.0
  0
ENDBLK
  5
AC2
  8
0
  0
BLOCK
  8
0
  2
*D15
 70
     1
 10
0.0
 20
0.0
 30
0.0
  3
*D15
  1

  0
LINE
  5
173D
  8
MEASURE
 62
     9
 10
1070.682539711966
 20
597.73911162922525
 30
0.0
 11
1070.682539711966
 21
684.73911162922525
 31
0.0
  0
LINE
  5
173E
  8
MEASURE
 62
     9
 10
1146.6825397119651
 20
597.73911162922525
 30
0.0
 11
1146.6825397119651
 21
684.73911162922525
 31
0.0
  0
LINE
  5
173F
  8
MEASURE
 62
     9
 10
1078.1825397119651
 20
678.73911162922525
 30
0.0
 11
1139.1825397119651
 21
678.73911162922525
 31
0.0
  0
SOLID
  5
1740
  8
MEASURE
 62
     9
 10
1078.1825397119651
 20
679.98911162922525
 30
0.0
 11
1078.1825397119651
 21
677.48911162922525
 31
0.0
 12
1070.682539711966
 22
678.73911162922525
 32
0.0
 13
1070.682539711966
 23
678.73911162922525
 33
0.0
  0
SOLID
  5
1741
  8
MEASURE
 62
     9
 10
1139.1825397119651
 20
679.98911162922525
 30
0.0
 11
1139.1825397119651
 21
677.48911162922525
 31
0.0
 12
1146.6825397119651
 22
678.73911162922525
 32
0.0
 13
1146.6825397119651
 23
678.73911162922525
 33
0.0
  0
TEXT
  5
1742
  8
MEASURE
 62
     2
 10
1100.682539711966
 20
680.23911162922525
 30
0.0
 40
10.5
  1
76
 41
0.8
  7
AD-STANDARD
  0
POINT
  5
1743
  8
DEFPOINTS
 62
     0
 10
1070.682539711966
 20
594.73911162922525
 30
0.0
  0
POINT
  5
1744
  8
DEFPOINTS
 62
     0
 10
1146.6825397119651
 20
594.73911162922525
 30
0.0
  0
POINT
  5
1745
  8
DEFPOINTS
 62
     0
 10
1146.6825397119651
 20
678.73911162922525
 30
0.0
  0
ENDBLK
  5
ADD
  8
0
  0
BLOCK
  8
0
  2
*D16
 70
     1
 10
0.0
 20
0.0
 30
0.0
  3
*D16
  1

  0
LINE
  5
1710
  8
MEASURE
 62
     9
 10
661.14622971196604
 20
555.23911162922525
 30
0.0
 11
713.697939711966
 21
555.23911162922525
 31
0.0
  0
LINE
  5
1711
  8
MEASURE
 62
     9
 10
649.4816997119658
 20
455.23911162922519
 30
0.0
 11
713.697939711966
 21
455.23911162922519
 31
0.0
  0
LINE
  5
1712
  8
MEASURE
 62
     9
 10
707.697939711966
 20
547.73911162922525
 30
0.0
 11
707.697939711966
 21
462.73911162922519
 31
0.0
  0
SOLID
  5
1713
  8
MEASURE
 62
     9
 10
706.447939711966
 20
547.73911162922525
 30
0.0
 11
708.947939711966
 21
547.73911162922525
 31
0.0
 12
707.697939711966
 22
555.23911162922525
 32
0.0
 13
707.697939711966
 23
555.23911162922525
 33
0.0
  0
SOLID
  5
1714
  8
MEASURE
 62
     9
 10
706.447939711966
 20
462.73911162922519
 30
0.0
 11
708.947939711966
 21
462.73911162922519
 31
0.0
 12
707.697939711966
 22
455.23911162922519
 32
0.0
 13
707.697939711966
 23
455.23911162922519
 33
0.0
  0
TEXT
  5
1715
  8
MEASURE
 62
     2
 10
706.19793971196577
 20
492.63911162922528
 30
0.0
 40
10.5
  1
100
 50
90.0
 41
0.8
  7
AD-STANDARD
  0
POINT
  5
1716
  8
DEFPOINTS
 62
     0
 10
658.14622971196604
 20
555.23911162922525
 30
0.0
  0
POINT
  5
1717
  8
DEFPOINTS
 62
     0
 10
646.48169971196592
 20
455.23911162922519
 30
0.0
  0
POINT
  5
1718
  8
DEFPOINTS
 62
     0
 10
707.697939711966
 20
455.23911162922519
 30
0.0
  0
ENDBLK
  5
AEA
  8
0
  0
BLOCK
  8
0
  2
*D17
 70
     1
 10
0.0
 20
0.0
 30
0.0
  3
*D17
  1

  0
LINE
  5
1734
  8
MEASURE
 62
     9
 10
1111.1825397119651
 20
540.23911162922525
 30
0.0
 11
1022.682539711966
 21
540.23911162922525
 31
0.0
  0
LINE
  5
1735
  8
MEASURE
 62
     9
 10
1111.1825397119651
 20
470.23911162922519
 30
0.0
 11
1022.682539711966
 21
470.23911162922519
 31
0.0
  0
LINE
  5
1736
  8
MEASURE
 62
     9
 10
1028.682539711966
 20
532.73911162922525
 30
0.0
 11
1028.682539711966
 21
477.73911162922519
 31
0.0
  0
SOLID
  5
1737
  8
MEASURE
 62
     9
 10
1027.432539711966
 20
532.73911162922525
 30
0.0
 11
1029.932539711966
 21
532.73911162922525
 31
0.0
 12
1028.682539711966
 22
540.23911162922525
 32
0.0
 13
1028.682539711966
 23
540.23911162922525
 33
0.0
  0
SOLID
  5
1738
  8
MEASURE
 62
     9
 10
1027.432539711966
 20
477.73911162922519
 30
0.0
 11
1029.932539711966
 21
477.73911162922519
 31
0.0
 12
1028.682539711966
 22
470.23911162922519
 32
0.0
 13
1028.682539711966
 23
470.23911162922519
 33
0.0
  0
TEXT
  5
1739
  8
MEASURE
 62
     2
 10
1027.182539711966
 20
497.23911162922542
 30
0.0
 40
10.5
  1
70
 50
90.0
 41
0.8
  7
AD-STANDARD
  0
POINT
  5
173A
  8
DEFPOINTS
 62
     0
 10
1114.182539711966
 20
540.23911162922525
 30
0.0
  0
POINT
  5
173B
  8
DEFPOINTS
 62
     0
 10
1114.182539711966
 20
470.23911162922519
 30
0.0
  0
POINT
  5
173C
  8
DEFPOINTS
 62
     0
 10
1028.682539711966
 20
470.23911162922519
 30
0.0
  0
ENDBLK
  5
1571
  8
0
  0
BLOCK
  8
0
  2
*D18
 70
     1
 10
0.0
 20
0.0
 30
0.0
  3
*D18
  1

  0
LINE
  5
172B
  8
MEASURE
 62
     9
 10
1114.182539711966
 20
543.23911162922525
 30
0.0
 11
1114.182539711966
 21
663.73911162922525
 31
0.0
  0
LINE
  5
172C
  8
MEASURE
 62
     9
 10
1146.6825397119651
 20
597.73911162922525
 30
0.0
 11
1146.6825397119651
 21
663.73911162922525
 31
0.0
  0
LINE
  5
172D
  8
MEASURE
 62
     9
 10
1121.682539711966
 20
657.73911162922525
 30
0.0
 11
1139.1825397119651
 21
657.73911162922525
 31
0.0
  0
SOLID
  5
172E
  8
MEASURE
 62
     9
 10
1121.682539711966
 20
658.98911162922525
 30
0.0
 11
1121.682539711966
 21
656.48911162922525
 31
0.0
 12
1114.182539711966
 22
657.73911162922525
 32
0.0
 13
1114.182539711966
 23
657.73911162922525
 33
0.0
  0
SOLID
  5
172F
  8
MEASURE
 62
     9
 10
1139.1825397119651
 20
658.98911162922525
 30
0.0
 11
1139.1825397119651
 21
656.48911162922525
 31
0.0
 12
1146.6825397119651
 22
657.73911162922525
 32
0.0
 13
1146.6825397119651
 23
657.73911162922525
 33
0.0
  0
TEXT
  5
1730
  8
MEASURE
 62
     2
 10
1116.432539711966
 20
659.23911162922525
 30
0.0
 40
10.5
  1
32.5
 41
0.8
  7
AD-STANDARD
  0
POINT
  5
1731
  8
DEFPOINTS
 62
     0
 10
1114.182539711966
 20
540.23911162922525
 30
0.0
  0
POINT
  5
1732
  8
DEFPOINTS
 62
     0
 10
1146.6825397119651
 20
594.73911162922525
 30
0.0
  0
POINT
  5
1733
  8
DEFPOINTS
 62
     0
 10
1146.6825397119651
 20
657.73911162922525
 30
0.0
  0
ENDBLK
  5
15A1
  8
0
  0
BLOCK
  8
0
  2
*D19
 70
     1
 10
0.0
 20
0.0
 30
0.0
  3
*D19
  1

  0
LINE
  5
16F5
  8
MEASURE
 62
     9
 10
815.07202698791423
 20
530.25196126381275
 30
0.0
 11
811.92849558515172
 21
523.44254056012255
 31
0.0
  0
LINE
  5
16F6
  8
MEASURE
 62
     9
 10
824.29305243601755
 20
550.22626199463753
 30
0.0
 11
864.23123093942786
 21
636.73911162922559
 31
0.0
  0
LINE
  5
16F7
  8
MEASURE
 62
     9
 10
864.23123093942786
 20
636.73911162922559
 30
0.0
 11
878.93123093942768
 21
636.7391116292257
 31
0.0
  0
LINE
  5
16F8
  8
MEASURE
 62
     9
 10
818.21555839067685
 20
537.06138196750305
 30
0.0
 11
821.14952103325481
 21
543.41684129094722
 31
0.0
  0
SOLID
  5
16F9
  8
MEASURE
 62
     9
 10
813.93712353729904
 20
530.77588316427318
 30
0.0
 11
816.20693043852918
 21
529.72803936335242
 31
0.0
 12
818.21555839067685
 22
537.06138196750305
 32
0.0
 13
818.21555839067685
 23
537.06138196750305
 33
0.0
  0
SOLID
  5
16FA
  8
MEASURE
 62
     9
 10
823.15814898540236
 20
550.75018389509785
 30
0.0
 11
825.42795588663262
 21
549.70234009417698
 31
0.0
 12
821.14952103325481
 22
543.41684129094722
 32
0.0
 13
821.14952103325481
 23
543.41684129094722
 33
0.0
  0
TEXT
  5
16FB
  8
MEASURE
 62
     2
 10
864.93123093942859
 20
638.23911162922548
 30
0.0
 40
10.5
  1
\U+22057
 41
0.8
  7
AD-STANDARD
  0
POINT
  5
16FC
  8
DEFPOINTS
 62
     0
 10
821.14952103325481
 20
543.41684129094722
 30
0.0
  0
POINT
  5
16FD
  8
DEFPOINTS
 62
     0
 10
818.21555839067685
 20
537.06138196750305
 30
0.0
  0
ENDBLK
  5
1632
  8
0
  0
BLOCK
  8
0
  2
*D20
 70
     1
 10
0.0
 20
0.0
 30
0.0
  3
*D20
  1

  0
LINE
  5
16BD
  8
MEASURE
 62
     9
 10
1113.682539711966
 20
381.73911162922519
 30
0.0
 11
1113.682539711966
 21
336.73911162922519
 31
0.0
  0
LINE
  5
16BE
  8
MEASURE
 62
     9
 10
1146.6825397119651
 20
412.73911162922519
 30
0.0
 11
1146.6825397119651
 21
336.73911162922519
 31
0.0
  0
LINE
  5
16BF
  8
MEASURE
 62
     9
 10
1121.182539711966
 20
342.73911162922519
 30
0.0
 11
1139.1825397119651
 21
342.73911162922519
 31
0.0
  0
SOLID
  5
16C0
  8
MEASURE
 62
     9
 10
1121.182539711966
 20
343.98911162922519
 30
0.0
 11
1121.182539711966
 21
341.48911162922519
 31
0.0
 12
1113.682539711966
 22
342.73911162922519
 32
0.0
 13
1113.682539711966
 23
342.73911162922519
 33
0.0
  0
SOLID
  5
16C1
  8
MEASURE
 62
     9
 10
1139.1825397119651
 20
343.98911162922519
 30
0.0
 11
1139.1825397119651
 21
341.48911162922519
 31
0.0
 12
1146.6825397119651
 22
342.73911162922519
 32
0.0
 13
1146.6825397119651
 23
342.73911162922519
 33
0.0
  0
TEXT
  5
16C2
  8
MEASURE
 62
     2
 10
1122.182539711966
 20
344.23911162922519
 30
0.0
 40
10.5
  1
33
 41
0.8
  7
AD-STANDARD
  0
POINT
  5
16C3
  8
DEFPOINTS
 62
     0
 10
1113.682539711966
 20
384.73911162922519
 30
0.0
  0
POINT
  5
16C4
  8
DEFPOINTS
 62
     0
 10
1146.6825397119651
 20
415.73911162922519
 30
0.0
  0
POINT
  5
16C5
  8
DEFPOINTS
 62
     0
 10
1146.6825397119651
 20
342.73911162922519
 30
0.0
  0
ENDBLK
  5
165A
  8
0
  0
ENDSEC
  0
SECTION
  2
ENTITIES
  0
LINE
  5
66D
  8
_0-0_フレ_ム
  6
CONTINUOUS
 62
     7
 10
751.682539711966
 20
169.98911162922519
 30
0.0
 11
405.68253971196589
 21
169.98911162922519
 31
0.0
  0
LINE
  5
66E
  8
_0-0_フレ_ム
  6
CONTINUOUS
 62
     7
 10
751.682539711966
 20
218.48911162922519
 30
0.0
 11
405.68253971196589
 21
218.48911162922519
 31
0.0
  0
LINE
  5
66F
  8
_0-5_CPUぼ_ど
  6
CONTINUOUS
 62
     7
 10
179.68253971196589
 20
425.73911162922519
 30
0.0
 11
779.68253971196589
 21
425.73911162922519
 31
0.0
  0
LINE
  5
671
  8
_0-5_CPUぼ_ど
  6
CONTINUOUS
 62
     7
 10
179.68253971196589
 20
584.73911162922525
 30
0.0
 11
779.68253971196589
 21
584.73911162922525
 31
0.0
  0
CIRCLE
  5
675
  8
_0-0_フレ_ム
  6
CONTINUOUS
 62
     7
 10
632.37655971196602
 20
457.73911162922519
 30
0.0
 40
2.5
  0
LINE
  5
67A
  8
_0-0_フレ_ム
  6
CONTINUOUS
 62
     7
 10
169.682539711966
 20
594.73911162922525
 30
0.0
 11
789.682539711966
 21
594.73911162922525
 31
0.0
  0
LINE
  5
67B
  8
_0-0_フレ_ム
  6
CONTINUOUS
 62
     7
 10
169.682539711966
 20
237.73911162922519
 30
0.0
 11
789.682539711966
 21
237.73911162922519
 31
0.0
  0
LINE
  5
67C
  8
_0-0_フレ_ム
  6
CONTINUOUS
 62
     7
 10
169.682539711966
 20
161.73911162922519
 30
0.0
 11
789.682539711966
 21
161.73911162922519
 31
0.0
  0
LINE
  5
67D
  8
_0-0_フレ_ム
  6
CONTINUOUS
 62
     7
 10
169.682539711966
 20
415.73911162922519
 30
0.0
 11
789.682539711966
 21
415.73911162922519
 31
0.0
  0
LINE
  5
67E
  8
_0-5_CPUぼ_ど
  6
CONTINUOUS
 62
     7
 10
179.68253971196589
 20
584.73911162922525
 30
0.0
 11
179.68253971196589
 21
425.73911162922519
 31
0.0
  0
LINE
  5
67F
  8
_0-0_フレ_ム
  6
CONTINUOUS
 62
     7
 10
169.682539711966
 20
594.73911162922525
 30
0.0
 11
169.682539711966
 21
415.73911162922519
 31
0.0
  0
LINE
  5
692
  8
_0-0_フレ_ム
  6
CONTINUOUS
 62
     7
 10
179.68253971196589
 20
425.73911162922519
 30
0.0
 11
169.682539711966
 21
415.73911162922519
 31
0.0
  0
LINE
  5
695
  8
_0-0_フレ_ム
  6
CONTINUOUS
 62
     7
 10
402.682539711966
 20
172.98911162922519
 30
0.0
 11
402.682539711966
 21
215.48911162922519
 31
0.0
  0
ARC
  5
696
  8
_0-0_フレ_ム
  6
CONTINUOUS
 62
     7
 10
405.68253971196589
 20
172.98911162922519
 30
0.0
 40
3.0
 50
180.0
 51
270.0
  0
ARC
  5
699
  8
_0-0_フレ_ム
  6
CONTINUOUS
 62
     7
 10
405.68253971196589
 20
215.48911162922519
 30
0.0
 40
3.0
 50
90.0
 51
180.0
  0
CIRCLE
  5
6A4
  8
_0-0_フレ_ム
  6
CONTINUOUS
 62
     7
 10
239.42912971196591
 20
457.73911162922519
 30
0.0
 40
2.5
  0
CIRCLE
  5
6A5
  8
_0-0_フレ_ム
  6
CONTINUOUS
 62
     7
 10
238.2088297119659
 20
505.23911162922519
 30
0.0
 40
2.5
  0
CIRCLE
  5
6AA
  8
_0-0_フレ_ム
  6
CONTINUOUS
 62
     7
 10
139.682539711966
 20
470.23911162922519
 30
0.0
 40
3.5
  0
CIRCLE
  5
6AB
  8
_0-0_フレ_ム
  6
CONTINUOUS
 62
     7
 10
139.682539711966
 20
540.23911162922525
 30
0.0
 40
3.5
  0
LINE
  5
6AC
  8
_0-0_フレ_ム
  6
CONTINUOUS
 62
     7
 10
124.682539711966
 20
450.23911162922519
 30
0.0
 11
169.682539711966
 21
450.23911162922519
 31
0.0
  0
LINE
  5
6AD
  8
_0-0_フレ_ム
  6
CONTINUOUS
 62
     7
 10
124.682539711966
 20
560.23911162922525
 30
0.0
 11
169.682539711966
 21
560.23911162922525
 31
0.0
  0
LINE
  5
6B0
  8
_0-0_フレ_ム
  6
CONTINUOUS
 62
     7
 10
119.682539711966
 20
455.23911162922519
 30
0.0
 11
119.682539711966
 21
555.23911162922525
 31
0.0
  0
ARC
  5
6B2
  8
_0-0_フレ_ム
  6
CONTINUOUS
 62
     7
 10
124.682539711966
 20
455.23911162922519
 30
0.0
 40
5.0
 50
180.0
 51
270.0
  0
ARC
  5
6B3
  8
_0-0_フレ_ム
  6
CONTINUOUS
 62
     7
 10
124.682539711966
 20
555.23911162922525
 30
0.0
 40
5.0
 50
90.0
 51
180.0
  0
LINE
  5
6B4
  8
_0-0_フレ_ム
  6
CONTINUOUS
 62
     7
 10
167.3825397119659
 20
560.23911162922525
 30
0.0
 11
167.3825397119659
 21
450.23911162922519
 31
0.0
  0
CIRCLE
  5
6B6
  8
_0-1_DISP
  6
CONTINUOUS
 62
     7
 10
210.46460971196601
 20
499.23911162922519
 30
0.0
 40
2.5
  0
CIRCLE
  5
6B7
  8
_0-1_DISP
  6
CONTINUOUS
 62
     7
 10
206.167149711966
 20
464.23911162922519
 30
0.0
 40
2.5
  0
CIRCLE
  5
6B8
  8
_0-0_フレ_ム
  6
CONTINUOUS
 62
     7
 10
218.2714197119659
 20
457.73911162922519
 30
0.0
 40
2.5
  0
CIRCLE
  5
6B9
  8
_0-0_フレ_ム
  6
CONTINUOUS
 62
     7
 10
211.21884971196599
 20
457.73911162922519
 30
0.0
 40
2.5
  0
CIRCLE
  5
6BA
  8
_0-0_フレ_ム
  6
CONTINUOUS
 62
     7
 10
225.32398971196599
 20
457.73911162922519
 30
0.0
 40
2.5
  0
CIRCLE
  5
6BB
  8
_0-0_フレ_ム
  6
CONTINUOUS
 62
     7
 10
232.376559711966
 20
457.73911162922519
 30
0.0
 40
2.5
  0
CIRCLE
  5
6BC
  8
_0-1_DISP
  6
CONTINUOUS
 62
     7
 10
208.7456297119659
 20
485.23911162922519
 30
0.0
 40
2.5
  0
CIRCLE
  5
6BD
  8
_0-1_DISP
  6
CONTINUOUS
 62
     7
 10
207.02663971196591
 20
471.23911162922519
 30
0.0
 40
2.5
  0
CIRCLE
  5
6BE
  8
_0-1_DISP
  6
CONTINUOUS
 62
     7
 10
207.88612971196591
 20
478.23911162922519
 30
0.0
 40
2.5
  0
CIRCLE
  5
6BF
  8
_0-1_DISP
  6
CONTINUOUS
 62
     7
 10
209.60511971196601
 20
492.23911162922519
 30
0.0
 40
2.5
  0
CIRCLE
  5
6C0
  8
_0-0_フレ_ム
  6
CONTINUOUS
 62
     7
 10
217.05111971196601
 20
505.23911162922519
 30
0.0
 40
2.5
  0
CIRCLE
  5
6C1
  8
_0-1_DISP
  6
CONTINUOUS
 62
     7
 10
214.51649971196599
 20
532.23911162922525
 30
0.0
 40
2.5
  0
CIRCLE
  5
6C2
  8
_0-1_DISP
  6
CONTINUOUS
 62
     7
 10
213.657009711966
 20
525.23911162922525
 30
0.0
 40
2.5
  0
CIRCLE
  5
6C3
  8
_0-1_DISP
  6
CONTINUOUS
 62
     7
 10
212.79751971196589
 20
518.23911162922525
 30
0.0
 40
2.5
  0
CIRCLE
  5
6C4
  8
_0-1_DISP
  6
CONTINUOUS
 62
     7
 10
211.93801971196601
 20
511.23911162922519
 30
0.0
 40
2.5
  0
CIRCLE
  5
6C5
  8
_0-0_フレ_ム
  6
CONTINUOUS
 62
     7
 10
224.10368971196601
 20
505.23911162922519
 30
0.0
 40
2.5
  0
CIRCLE
  5
6C6
  8
_0-0_フレ_ム
  6
CONTINUOUS
 62
     7
 10
231.15625971196599
 20
505.23911162922519
 30
0.0
 40
2.5
  0
CIRCLE
  5
6C7
  8
_0-1_DISP
  6
CONTINUOUS
 62
     7
 10
216.23547971196589
 20
546.23911162922525
 30
0.0
 40
2.5
  0
CIRCLE
  5
6C8
  8
_0-1_DISP
  6
CONTINUOUS
 62
     7
 10
215.3759897119659
 20
539.23911162922525
 30
0.0
 40
2.5
  0
CIRCLE
  5
6C9
  8
_0-0_フレ_ム
  6
CONTINUOUS
 62
     7
 10
236.98851971196589
 20
552.73911162922525
 30
0.0
 40
2.5
  0
CIRCLE
  5
6CA
  8
_0-0_フレ_ム
  6
CONTINUOUS
 62
     7
 10
229.93595971196601
 20
552.73911162922525
 30
0.0
 40
2.5
  0
CIRCLE
  5
6CB
  8
_0-0_フレ_ム
  6
CONTINUOUS
 62
     7
 10
222.883389711966
 20
552.73911162922525
 30
0.0
 40
2.5
  0
LINE
  5
6D4
  8
_0-0_フレ_ム
  6
CONTINUOUS
 62
     7
 10
169.682539711966
 20
594.73911162922525
 30
0.0
 11
179.68253971196589
 21
584.73911162922525
 31
0.0
  0
CIRCLE
  5
6DD
  8
_0-0_フレ_ム
  6
CONTINUOUS
 62
     7
 10
338.14622971196587
 20
552.73911162922525
 30
0.0
 40
2.5
  0
CIRCLE
  5
6DF
  8
_0-1_DISP
  6
CONTINUOUS
 62
     7
 10
340.61945971196599
 20
525.23911162922525
 30
0.0
 40
2.5
  0
CIRCLE
  5
6E0
  8
_0-1_DISP
  6
CONTINUOUS
 62
     7
 10
338.90047971196589
 20
511.23911162922519
 30
0.0
 40
2.5
  0
CIRCLE
  5
6E1
  8
_0-1_DISP
  6
CONTINUOUS
 62
     7
 10
339.75996971196588
 20
518.23911162922525
 30
0.0
 40
2.5
  0
CIRCLE
  5
6E2
  8
_0-1_DISP
  6
CONTINUOUS
 62
     7
 10
341.47894971196592
 20
532.23911162922525
 30
0.0
 40
2.5
  0
CIRCLE
  5
6E3
  8
_0-1_DISP
  6
CONTINUOUS
 62
     7
 10
337.42705971196602
 20
499.23911162922519
 30
0.0
 40
2.5
  0
CIRCLE
  5
6E5
  8
_0-1_DISP
  6
CONTINUOUS
 62
     7
 10
257.42705971196602
 20
499.23911162922519
 30
0.0
 40
2.5
  0
CIRCLE
  5
6E6
  8
_0-1_DISP
  6
CONTINUOUS
 62
     7
 10
290.46460971196598
 20
499.23911162922519
 30
0.0
 40
2.5
  0
CIRCLE
  5
6E7
  8
_0-0_フレ_ム
  6
CONTINUOUS
 62
     7
 10
291.21884971196602
 20
457.73911162922519
 30
0.0
 40
2.5
  0
CIRCLE
  5
6E8
  8
_0-1_DISP
  6
CONTINUOUS
 62
     7
 10
287.88612971196591
 20
478.23911162922519
 30
0.0
 40
2.5
  0
CIRCLE
  5
6E9
  8
_0-1_DISP
  6
CONTINUOUS
 62
     7
 10
288.74562971196588
 20
485.23911162922519
 30
0.0
 40
2.5
  0
CIRCLE
  5
6EA
  8
_0-1_DISP
  6
CONTINUOUS
 62
     7
 10
289.60511971196598
 20
492.23911162922519
 30
0.0
 40
2.5
  0
CIRCLE
  5
6EB
  8
_0-1_DISP
  6
CONTINUOUS
 62
     7
 10
253.12959971196591
 20
464.23911162922519
 30
0.0
 40
2.5
  0
CIRCLE
  5
6EC
  8
_0-1_DISP
  6
CONTINUOUS
 62
     7
 10
286.16714971196598
 20
464.23911162922519
 30
0.0
 40
2.5
  0
CIRCLE
  5
6ED
  8
_0-0_フレ_ム
  6
CONTINUOUS
 62
     7
 10
246.481699711966
 20
457.73911162922519
 30
0.0
 40
2.5
  0
CIRCLE
  5
6EE
  8
_0-1_DISP
  6
CONTINUOUS
 62
     7
 10
255.70807971196589
 20
485.23911162922519
 30
0.0
 40
2.5
  0
CIRCLE
  5
6EF
  8
_0-1_DISP
  6
CONTINUOUS
 62
     7
 10
254.8485797119659
 20
478.23911162922519
 30
0.0
 40
2.5
  0
CIRCLE
  5
6F0
  8
_0-1_DISP
  6
CONTINUOUS
 62
     7
 10
253.98908971196599
 20
471.23911162922519
 30
0.0
 40
2.5
  0
CIRCLE
  5
6F1
  8
_0-1_DISP
  6
CONTINUOUS
 62
     7
 10
256.56756971196592
 20
492.23911162922519
 30
0.0
 40
2.5
  0
CIRCLE
  5
6F2
  8
_0-1_DISP
  6
CONTINUOUS
 62
     7
 10
287.02663971196603
 20
471.23911162922519
 30
0.0
 40
2.5
  0
CIRCLE
  5
6F3
  8
_0-1_DISP
  6
CONTINUOUS
 62
     7
 10
333.12959971196602
 20
464.23911162922519
 30
0.0
 40
2.5
  0
CIRCLE
  5
6F4
  8
_0-0_フレ_ム
  6
CONTINUOUS
 62
     7
 10
312.37655971196602
 20
457.73911162922519
 30
0.0
 40
2.5
  0
CIRCLE
  5
6F5
  8
_0-0_フレ_ム
  6
CONTINUOUS
 62
     7
 10
298.2714197119659
 20
457.73911162922519
 30
0.0
 40
2.5
  0
CIRCLE
  5
6F6
  8
_0-0_フレ_ム
  6
CONTINUOUS
 62
     7
 10
305.32398971196602
 20
457.73911162922519
 30
0.0
 40
2.5
  0
CIRCLE
  5
6F7
  8
_0-0_フレ_ム
  6
CONTINUOUS
 62
     7
 10
326.48169971196597
 20
457.73911162922519
 30
0.0
 40
2.5
  0
CIRCLE
  5
6F8
  8
_0-0_フレ_ム
  6
CONTINUOUS
 62
     7
 10
319.42912971196591
 20
457.73911162922519
 30
0.0
 40
2.5
  0
CIRCLE
  5
6F9
  8
_0-1_DISP
  6
CONTINUOUS
 62
     7
 10
335.70807971196592
 20
485.23911162922519
 30
0.0
 40
2.5
  0
CIRCLE
  5
6FA
  8
_0-1_DISP
  6
CONTINUOUS
 62
     7
 10
334.84857971196601
 20
478.23911162922519
 30
0.0
 40
2.5
  0
CIRCLE
  5
6FB
  8
_0-1_DISP
  6
CONTINUOUS
 62
     7
 10
333.98908971196602
 20
471.23911162922519
 30
0.0
 40
2.5
  0
CIRCLE
  5
6FC
  8
_0-1_DISP
  6
CONTINUOUS
 62
     7
 10
336.56756971196592
 20
492.23911162922519
 30
0.0
 40
2.5
  0
CIRCLE
  5
6FD
  8
_0-1_DISP
  6
CONTINUOUS
 62
     7
 10
291.93801971196592
 20
511.23911162922519
 30
0.0
 40
2.5
  0
CIRCLE
  5
6FE
  8
_0-1_DISP
  6
CONTINUOUS
 62
     7
 10
259.75996971196588
 20
518.23911162922525
 30
0.0
 40
2.5
  0
CIRCLE
  5
6FF
  8
_0-0_フレ_ム
  6
CONTINUOUS
 62
     7
 10
252.31395971196599
 20
505.23911162922519
 30
0.0
 40
2.5
  0
CIRCLE
  5
700
  8
_0-0_フレ_ム
  6
CONTINUOUS
 62
     7
 10
245.26139971196599
 20
505.23911162922519
 30
0.0
 40
2.5
  0
CIRCLE
  5
701
  8
_0-1_DISP
  6
CONTINUOUS
 62
     7
 10
258.900479711966
 20
511.23911162922519
 30
0.0
 40
2.5
  0
CIRCLE
  5
702
  8
_0-1_DISP
  6
CONTINUOUS
 62
     7
 10
260.61945971196599
 20
525.23911162922525
 30
0.0
 40
2.5
  0
CIRCLE
  5
703
  8
_0-1_DISP
  6
CONTINUOUS
 62
     7
 10
261.47894971196592
 20
532.23911162922525
 30
0.0
 40
2.5
  0
CIRCLE
  5
704
  8
_0-1_DISP
  6
CONTINUOUS
 62
     7
 10
263.197939711966
 20
546.23911162922525
 30
0.0
 40
2.5
  0
CIRCLE
  5
705
  8
_0-0_フレ_ム
  6
CONTINUOUS
 62
     7
 10
258.14622971196599
 20
552.73911162922525
 30
0.0
 40
2.5
  0
CIRCLE
  5
706
  8
_0-0_フレ_ム
  6
CONTINUOUS
 62
     7
 10
251.0936597119659
 20
552.73911162922525
 30
0.0
 40
2.5
  0
CIRCLE
  5
707
  8
_0-0_フレ_ム
  6
CONTINUOUS
 62
     7
 10
244.04108971196601
 20
552.73911162922525
 30
0.0
 40
2.5
  0
CIRCLE
  5
708
  8
_0-1_DISP
  6
CONTINUOUS
 62
     7
 10
262.33843971196592
 20
539.23911162922525
 30
0.0
 40
2.5
  0
CIRCLE
  5
709
  8
_0-1_DISP
  6
CONTINUOUS
 62
     7
 10
292.797519711966
 20
518.23911162922525
 30
0.0
 40
2.5
  0
CIRCLE
  5
70A
  8
_0-0_フレ_ム
  6
CONTINUOUS
 62
     7
 10
304.10368971196601
 20
505.23911162922519
 30
0.0
 40
2.5
  0
CIRCLE
  5
70B
  8
_0-0_フレ_ム
  6
CONTINUOUS
 62
     7
 10
297.0511197119659
 20
505.23911162922519
 30
0.0
 40
2.5
  0
CIRCLE
  5
70C
  8
_0-0_フレ_ム
  6
CONTINUOUS
 62
     7
 10
311.15625971196602
 20
505.23911162922519
 30
0.0
 40
2.5
  0
CIRCLE
  5
70D
  8
_0-1_DISP
  6
CONTINUOUS
 62
     7
 10
294.51649971196588
 20
532.23911162922525
 30
0.0
 40
2.5
  0
CIRCLE
  5
70E
  8
_0-1_DISP
  6
CONTINUOUS
 62
     7
 10
293.65700971196588
 20
525.23911162922525
 30
0.0
 40
2.5
  0
CIRCLE
  5
70F
  8
_0-0_フレ_ム
  6
CONTINUOUS
 62
     7
 10
325.26139971196602
 20
505.23911162922519
 30
0.0
 40
2.5
  0
CIRCLE
  5
710
  8
_0-0_フレ_ム
  6
CONTINUOUS
 62
     7
 10
318.2088297119659
 20
505.23911162922519
 30
0.0
 40
2.5
  0
CIRCLE
  5
711
  8
_0-0_フレ_ム
  6
CONTINUOUS
 62
     7
 10
332.31395971196588
 20
505.23911162922519
 30
0.0
 40
2.5
  0
CIRCLE
  5
712
  8
_0-0_フレ_ム
  6
CONTINUOUS
 62
     7
 10
316.98851971196592
 20
552.73911162922525
 30
0.0
 40
2.5
  0
CIRCLE
  5
713
  8
_0-0_フレ_ム
  6
CONTINUOUS
 62
     7
 10
309.93595971196601
 20
552.73911162922525
 30
0.0
 40
2.5
  0
CIRCLE
  5
714
  8
_0-0_フレ_ム
  6
CONTINUOUS
 62
     7
 10
302.883389711966
 20
552.73911162922525
 30
0.0
 40
2.5
  0
CIRCLE
  5
715
  8
_0-1_DISP
  6
CONTINUOUS
 62
     7
 10
296.23547971196598
 20
546.23911162922525
 30
0.0
 40
2.5
  0
CIRCLE
  5
716
  8
_0-1_DISP
  6
CONTINUOUS
 62
     7
 10
295.37598971196587
 20
539.23911162922525
 30
0.0
 40
2.5
  0
CIRCLE
  5
717
  8
_0-0_フレ_ム
  6
CONTINUOUS
 62
     7
 10
331.09365971196598
 20
552.73911162922525
 30
0.0
 40
2.5
  0
CIRCLE
  5
718
  8
_0-0_フレ_ム
  6
CONTINUOUS
 62
     7
 10
324.04108971196592
 20
552.73911162922525
 30
0.0
 40
2.5
  0
CIRCLE
  5
71A
  8
_0-1_DISP
  6
CONTINUOUS
 62
     7
 10
417.42705971196602
 20
499.23911162922519
 30
0.0
 40
2.5
  0
CIRCLE
  5
71B
  8
_0-1_DISP
  6
CONTINUOUS
 62
     7
 10
370.46460971196598
 20
499.23911162922519
 30
0.0
 40
2.5
  0
CIRCLE
  5
71C
  8
_0-1_DISP
  6
CONTINUOUS
 62
     7
 10
366.16714971196598
 20
464.23911162922519
 30
0.0
 40
2.5
  0
CIRCLE
  5
71D
  8
_0-0_フレ_ム
  6
CONTINUOUS
 62
     7
 10
378.2714197119659
 20
457.73911162922519
 30
0.0
 40
2.5
  0
CIRCLE
  5
71E
  8
_0-0_フレ_ム
  6
CONTINUOUS
 62
     7
 10
371.21884971196602
 20
457.73911162922519
 30
0.0
 40
2.5
  0
CIRCLE
  5
71F
  8
_0-0_フレ_ム
  6
CONTINUOUS
 62
     7
 10
385.32398971196602
 20
457.73911162922519
 30
0.0
 40
2.5
  0
CIRCLE
  5
720
  8
_0-1_DISP
  6
CONTINUOUS
 62
     7
 10
368.74562971196599
 20
485.23911162922519
 30
0.0
 40
2.5
  0
CIRCLE
  5
721
  8
_0-1_DISP
  6
CONTINUOUS
 62
     7
 10
367.02663971196603
 20
471.23911162922519
 30
0.0
 40
2.5
  0
CIRCLE
  5
722
  8
_0-1_DISP
  6
CONTINUOUS
 62
     7
 10
367.88612971196591
 20
478.23911162922519
 30
0.0
 40
2.5
  0
CIRCLE
  5
723
  8
_0-1_DISP
  6
CONTINUOUS
 62
     7
 10
369.60511971196593
 20
492.23911162922519
 30
0.0
 40
2.5
  0
CIRCLE
  5
724
  8
_0-1_DISP
  6
CONTINUOUS
 62
     7
 10
413.12959971196602
 20
464.23911162922519
 30
0.0
 40
2.5
  0
CIRCLE
  5
725
  8
_0-0_フレ_ム
  6
CONTINUOUS
 62
     7
 10
399.42912971196591
 20
457.73911162922519
 30
0.0
 40
2.5
  0
CIRCLE
  5
726
  8
_0-0_フレ_ム
  6
CONTINUOUS
 62
     7
 10
392.37655971196602
 20
457.73911162922519
 30
0.0
 40
2.5
  0
CIRCLE
  5
727
  8
_0-0_フレ_ム
  6
CONTINUOUS
 62
     7
 10
406.48169971196597
 20
457.73911162922519
 30
0.0
 40
2.5
  0
CIRCLE
  5
728
  8
_0-1_DISP
  6
CONTINUOUS
 62
     7
 10
427.682539711966
 20
455.23911162922519
 30
0.0
 40
2.5
  0
CIRCLE
  5
729
  8
_0-1_DISP
  6
CONTINUOUS
 62
     7
 10
427.682539711966
 20
462.23911162922519
 30
0.0
 40
2.5
  0
CIRCLE
  5
72C
  8
_0-1_DISP
  6
CONTINUOUS
 62
     7
 10
434.68253971196589
 20
455.23911162922519
 30
0.0
 40
2.5
  0
CIRCLE
  5
72D
  8
_0-1_DISP
  6
CONTINUOUS
 62
     7
 10
434.68253971196589
 20
462.23911162922519
 30
0.0
 40
2.5
  0
CIRCLE
  5
72E
  8
_0-1_DISP
  6
CONTINUOUS
 62
     7
 10
414.84857971196601
 20
478.23911162922519
 30
0.0
 40
2.5
  0
CIRCLE
  5
72F
  8
_0-1_DISP
  6
CONTINUOUS
 62
     7
 10
413.98908971196602
 20
471.23911162922519
 30
0.0
 40
2.5
  0
CIRCLE
  5
730
  8
_0-1_DISP
  6
CONTINUOUS
 62
     7
 10
415.70807971196592
 20
485.23911162922519
 30
0.0
 40
2.5
  0
CIRCLE
  5
731
  8
_0-1_DISP
  6
CONTINUOUS
 62
     7
 10
416.56756971196597
 20
492.23911162922519
 30
0.0
 40
2.5
  0
CIRCLE
  5
732
  8
_0-0_フレ_ム
  6
CONTINUOUS
 62
     7
 10
389.93595971196589
 20
552.73911162922525
 30
0.0
 40
2.5
  0
CIRCLE
  5
734
  8
_0-1_DISP
  6
CONTINUOUS
 62
     7
 10
372.79751971196589
 20
518.23911162922525
 30
0.0
 40
2.5
  0
CIRCLE
  5
735
  8
_0-0_フレ_ム
  6
CONTINUOUS
 62
     7
 10
377.0511197119659
 20
505.23911162922519
 30
0.0
 40
2.5
  0
CIRCLE
  5
736
  8
_0-1_DISP
  6
CONTINUOUS
 62
     7
 10
371.93801971196592
 20
511.23911162922519
 30
0.0
 40
2.5
  0
CIRCLE
  5
737
  8
_0-0_フレ_ム
  6
CONTINUOUS
 62
     7
 10
384.10368971196601
 20
505.23911162922519
 30
0.0
 40
2.5
  0
CIRCLE
  5
738
  8
_0-1_DISP
  6
CONTINUOUS
 62
     7
 10
374.51649971196599
 20
532.23911162922525
 30
0.0
 40
2.5
  0
CIRCLE
  5
739
  8
_0-1_DISP
  6
CONTINUOUS
 62
     7
 10
373.657009711966
 20
525.23911162922525
 30
0.0
 40
2.5
  0
CIRCLE
  5
73A
  8
_0-1_DISP
  6
CONTINUOUS
 62
     7
 10
342.33843971196592
 20
539.23911162922525
 30
0.0
 40
2.5
  0
CIRCLE
  5
73B
  8
_0-1_DISP
  6
CONTINUOUS
 62
     7
 10
343.19793971196589
 20
546.23911162922525
 30
0.0
 40
2.5
  0
CIRCLE
  5
73C
  8
_0-0_フレ_ム
  6
CONTINUOUS
 62
     7
 10
382.883389711966
 20
552.73911162922525
 30
0.0
 40
2.5
  0
CIRCLE
  5
73D
  8
_0-1_DISP
  6
CONTINUOUS
 62
     7
 10
376.23547971196592
 20
546.23911162922525
 30
0.0
 40
2.5
  0
CIRCLE
  5
73E
  8
_0-1_DISP
  6
CONTINUOUS
 62
     7
 10
375.37598971196587
 20
539.23911162922525
 30
0.0
 40
2.5
  0
CIRCLE
  5
73F
  8
_0-0_フレ_ム
  6
CONTINUOUS
 62
     7
 10
412.31395971196588
 20
505.23911162922519
 30
0.0
 40
2.5
  0
CIRCLE
  5
740
  8
_0-0_フレ_ム
  6
CONTINUOUS
 62
     7
 10
398.2088297119659
 20
505.23911162922519
 30
0.0
 40
2.5
  0
CIRCLE
  5
741
  8
_0-0_フレ_ム
  6
CONTINUOUS
 62
     7
 10
391.15625971196602
 20
505.23911162922519
 30
0.0
 40
2.5
  0
CIRCLE
  5
742
  8
_0-0_フレ_ム
  6
CONTINUOUS
 62
     7
 10
405.26139971196602
 20
505.23911162922519
 30
0.0
 40
2.5
  0
CIRCLE
  5
743
  8
_0-1_DISP
  6
CONTINUOUS
 62
     7
 10
419.75996971196599
 20
518.23911162922525
 30
0.0
 40
2.5
  0
CIRCLE
  5
744
  8
_0-1_DISP
  6
CONTINUOUS
 62
     7
 10
418.90047971196589
 20
511.23911162922519
 30
0.0
 40
2.5
  0
CIRCLE
  5
745
  8
_0-1_DISP
  6
CONTINUOUS
 62
     7
 10
420.61945971196599
 20
525.23911162922525
 30
0.0
 40
2.5
  0
CIRCLE
  5
746
  8
_0-1_DISP
  6
CONTINUOUS
 62
     7
 10
421.47894971196592
 20
532.23911162922525
 30
0.0
 40
2.5
  0
CIRCLE
  5
747
  8
_0-0_フレ_ム
  6
CONTINUOUS
 62
     7
 10
411.09365971196598
 20
552.73911162922525
 30
0.0
 40
2.5
  0
CIRCLE
  5
748
  8
_0-0_フレ_ム
  6
CONTINUOUS
 62
     7
 10
404.04108971196592
 20
552.73911162922525
 30
0.0
 40
2.5
  0
CIRCLE
  5
749
  8
_0-0_フレ_ム
  6
CONTINUOUS
 62
     7
 10
396.98851971196592
 20
552.73911162922525
 30
0.0
 40
2.5
  0
CIRCLE
  5
74A
  8
_0-0_フレ_ム
  6
CONTINUOUS
 62
     7
 10
418.14622971196599
 20
552.73911162922525
 30
0.0
 40
2.5
  0
CIRCLE
  5
74B
  8
_0-1_DISP
  6
CONTINUOUS
 62
     7
 10
423.19793971196589
 20
546.23911162922525
 30
0.0
 40
2.5
  0
CIRCLE
  5
74C
  8
_0-1_DISP
  6
CONTINUOUS
 62
     7
 10
422.33843971196598
 20
539.23911162922525
 30
0.0
 40
2.5
  0
CIRCLE
  5
74D
  8
_0-0_フレ_ム
  6
CONTINUOUS
 62
     7
 10
538.27141971196602
 20
457.73911162922519
 30
0.0
 40
2.5
  0
CIRCLE
  5
74E
  8
_0-0_フレ_ム
  6
CONTINUOUS
 62
     7
 10
537.05111971196595
 20
505.23911162922519
 30
0.0
 40
2.5
  0
CIRCLE
  5
750
  8
_0-1_DISP
  6
CONTINUOUS
 62
     7
 10
536.23547971196604
 20
546.23911162922525
 30
0.0
 40
2.5
  0
CIRCLE
  5
751
  8
_0-1_DISP
  6
CONTINUOUS
 62
     7
 10
535.37598971196587
 20
539.23911162922525
 30
0.0
 40
2.5
  0
CIRCLE
  5
752
  8
_0-1_DISP
  6
CONTINUOUS
 62
     7
 10
534.51649971196593
 20
532.23911162922525
 30
0.0
 40
2.5
  0
CIRCLE
  5
753
  8
_0-1_DISP
  6
CONTINUOUS
 62
     7
 10
533.65700971196588
 20
525.23911162922525
 30
0.0
 40
2.5
  0
CIRCLE
  5
754
  8
_0-1_DISP
  6
CONTINUOUS
 62
     7
 10
530.46460971196586
 20
499.23911162922519
 30
0.0
 40
2.5
  0
CIRCLE
  5
756
  8
_0-1_DISP
  6
CONTINUOUS
 62
     7
 10
497.42705971196602
 20
499.23911162922519
 30
0.0
 40
2.5
  0
CIRCLE
  5
757
  8
_0-1_DISP
  6
CONTINUOUS
 62
     7
 10
450.46460971196598
 20
499.23911162922519
 30
0.0
 40
2.5
  0
CIRCLE
  5
758
  8
_0-0_フレ_ム
  6
CONTINUOUS
 62
     7
 10
486.48169971196592
 20
457.73911162922519
 30
0.0
 40
2.5
  0
CIRCLE
  5
759
  8
_0-1_DISP
  6
CONTINUOUS
 62
     7
 10
446.16714971196598
 20
464.23911162922519
 30
0.0
 40
2.5
  0
CIRCLE
  5
75A
  8
_0-0_フレ_ム
  6
CONTINUOUS
 62
     7
 10
451.2188497119659
 20
457.73911162922519
 30
0.0
 40
2.5
  0
CIRCLE
  5
75B
  8
_0-0_フレ_ム
  6
CONTINUOUS
 62
     7
 10
458.2714197119659
 20
457.73911162922519
 30
0.0
 40
2.5
  0
CIRCLE
  5
75C
  8
_0-0_フレ_ム
  6
CONTINUOUS
 62
     7
 10
472.37655971196602
 20
457.73911162922519
 30
0.0
 40
2.5
  0
CIRCLE
  5
75D
  8
_0-0_フレ_ム
  6
CONTINUOUS
 62
     7
 10
465.32398971196602
 20
457.73911162922519
 30
0.0
 40
2.5
  0
CIRCLE
  5
75E
  8
_0-0_フレ_ム
  6
CONTINUOUS
 62
     7
 10
479.42912971196603
 20
457.73911162922519
 30
0.0
 40
2.5
  0
CIRCLE
  5
75F
  8
_0-1_DISP
  6
CONTINUOUS
 62
     7
 10
448.74562971196599
 20
485.23911162922519
 30
0.0
 40
2.5
  0
CIRCLE
  5
760
  8
_0-1_DISP
  6
CONTINUOUS
 62
     7
 10
447.88612971196602
 20
478.23911162922519
 30
0.0
 40
2.5
  0
CIRCLE
  5
761
  8
_0-1_DISP
  6
CONTINUOUS
 62
     7
 10
447.02663971196603
 20
471.23911162922519
 30
0.0
 40
2.5
  0
CIRCLE
  5
762
  8
_0-1_DISP
  6
CONTINUOUS
 62
     7
 10
449.60511971196593
 20
492.23911162922519
 30
0.0
 40
2.5
  0
CIRCLE
  5
763
  8
_0-1_DISP
  6
CONTINUOUS
 62
     7
 10
526.16714971196586
 20
464.23911162922519
 30
0.0
 40
2.5
  0
CIRCLE
  5
764
  8
_0-1_DISP
  6
CONTINUOUS
 62
     7
 10
493.12959971196602
 20
464.23911162922519
 30
0.0
 40
2.5
  0
CIRCLE
  5
765
  8
_0-1_DISP
  6
CONTINUOUS
 62
     7
 10
507.682539711966
 20
455.23911162922519
 30
0.0
 40
2.5
  0
CIRCLE
  5
766
  8
_0-1_DISP
  6
CONTINUOUS
 62
     7
 10
507.682539711966
 20
462.23911162922519
 30
0.0
 40
2.5
  0
CIRCLE
  5
767
  8
_0-1_DISP
  6
CONTINUOUS
 62
     7
 10
514.682539711966
 20
455.23911162922519
 30
0.0
 40
2.5
  0
CIRCLE
  5
768
  8
_0-1_DISP
  6
CONTINUOUS
 62
     7
 10
514.682539711966
 20
462.23911162922519
 30
0.0
 40
2.5
  0
CIRCLE
  5
769
  8
_0-0_フレ_ム
  6
CONTINUOUS
 62
     7
 10
531.21884971196596
 20
457.73911162922519
 30
0.0
 40
2.5
  0
CIRCLE
  5
76A
  8
_0-1_DISP
  6
CONTINUOUS
 62
     7
 10
495.70807971196598
 20
485.23911162922519
 30
0.0
 40
2.5
  0
CIRCLE
  5
76B
  8
_0-1_DISP
  6
CONTINUOUS
 62
     7
 10
494.8485797119659
 20
478.23911162922519
 30
0.0
 40
2.5
  0
CIRCLE
  5
76C
  8
_0-1_DISP
  6
CONTINUOUS
 62
     7
 10
493.98908971196602
 20
471.23911162922519
 30
0.0
 40
2.5
  0
CIRCLE
  5
76D
  8
_0-1_DISP
  6
CONTINUOUS
 62
     7
 10
496.56756971196592
 20
492.23911162922519
 30
0.0
 40
2.5
  0
CIRCLE
  5
76E
  8
_0-1_DISP
  6
CONTINUOUS
 62
     7
 10
528.74562971196599
 20
485.23911162922519
 30
0.0
 40
2.5
  0
CIRCLE
  5
76F
  8
_0-1_DISP
  6
CONTINUOUS
 62
     7
 10
527.02663971196603
 20
471.23911162922519
 30
0.0
 40
2.5
  0
CIRCLE
  5
770
  8
_0-1_DISP
  6
CONTINUOUS
 62
     7
 10
527.88612971196596
 20
478.23911162922519
 30
0.0
 40
2.5
  0
CIRCLE
  5
771
  8
_0-1_DISP
  6
CONTINUOUS
 62
     7
 10
529.60511971196593
 20
492.23911162922519
 30
0.0
 40
2.5
  0
CIRCLE
  5
772
  8
_0-0_フレ_ム
  6
CONTINUOUS
 62
     7
 10
485.26139971196591
 20
505.23911162922519
 30
0.0
 40
2.5
  0
CIRCLE
  5
774
  8
_0-0_フレ_ム
  6
CONTINUOUS
 62
     7
 10
464.10368971196601
 20
505.23911162922519
 30
0.0
 40
2.5
  0
CIRCLE
  5
775
  8
_0-1_DISP
  6
CONTINUOUS
 62
     7
 10
452.79751971196589
 20
518.23911162922525
 30
0.0
 40
2.5
  0
CIRCLE
  5
776
  8
_0-1_DISP
  6
CONTINUOUS
 62
     7
 10
451.93801971196598
 20
511.23911162922519
 30
0.0
 40
2.5
  0
CIRCLE
  5
777
  8
_0-0_フレ_ム
  6
CONTINUOUS
 62
     7
 10
457.0511197119659
 20
505.23911162922519
 30
0.0
 40
2.5
  0
CIRCLE
  5
778
  8
_0-1_DISP
  6
CONTINUOUS
 62
     7
 10
454.51649971196588
 20
532.23911162922525
 30
0.0
 40
2.5
  0
CIRCLE
  5
779
  8
_0-1_DISP
  6
CONTINUOUS
 62
     7
 10
453.657009711966
 20
525.23911162922525
 30
0.0
 40
2.5
  0
CIRCLE
  5
77A
  8
_0-0_フレ_ム
  6
CONTINUOUS
 62
     7
 10
471.15625971196602
 20
505.23911162922519
 30
0.0
 40
2.5
  0
CIRCLE
  5
77B
  8
_0-0_フレ_ム
  6
CONTINUOUS
 62
     7
 10
478.20882971196602
 20
505.23911162922519
 30
0.0
 40
2.5
  0
CIRCLE
  5
77C
  8
_0-0_フレ_ム
  6
CONTINUOUS
 62
     7
 10
462.883389711966
 20
552.73911162922525
 30
0.0
 40
2.5
  0
CIRCLE
  5
77D
  8
_0-1_DISP
  6
CONTINUOUS
 62
     7
 10
456.23547971196598
 20
546.23911162922525
 30
0.0
 40
2.5
  0
CIRCLE
  5
77E
  8
_0-1_DISP
  6
CONTINUOUS
 62
     7
 10
455.37598971196587
 20
539.23911162922525
 30
0.0
 40
2.5
  0
CIRCLE
  5
77F
  8
_0-0_フレ_ム
  6
CONTINUOUS
 62
     7
 10
484.04108971196592
 20
552.73911162922525
 30
0.0
 40
2.5
  0
CIRCLE
  5
780
  8
_0-0_フレ_ム
  6
CONTINUOUS
 62
     7
 10
476.98851971196592
 20
552.73911162922525
 30
0.0
 40
2.5
  0
CIRCLE
  5
781
  8
_0-0_フレ_ム
  6
CONTINUOUS
 62
     7
 10
469.93595971196589
 20
552.73911162922525
 30
0.0
 40
2.5
  0
CIRCLE
  5
782
  8
_0-1_DISP
  6
CONTINUOUS
 62
     7
 10
499.75996971196588
 20
518.23911162922525
 30
0.0
 40
2.5
  0
CIRCLE
  5
783
  8
_0-1_DISP
  6
CONTINUOUS
 62
     7
 10
498.900479711966
 20
511.23911162922519
 30
0.0
 40
2.5
  0
CIRCLE
  5
784
  8
_0-0_フレ_ム
  6
CONTINUOUS
 62
     7
 10
492.31395971196599
 20
505.23911162922519
 30
0.0
 40
2.5
  0
CIRCLE
  5
785
  8
_0-1_DISP
  6
CONTINUOUS
 62
     7
 10
500.61945971196599
 20
525.23911162922525
 30
0.0
 40
2.5
  0
CIRCLE
  5
786
  8
_0-1_DISP
  6
CONTINUOUS
 62
     7
 10
501.47894971196592
 20
532.23911162922525
 30
0.0
 40
2.5
  0
CIRCLE
  5
787
  8
_0-1_DISP
  6
CONTINUOUS
 62
     7
 10
532.79751971196595
 20
518.23911162922525
 30
0.0
 40
2.5
  0
CIRCLE
  5
788
  8
_0-1_DISP
  6
CONTINUOUS
 62
     7
 10
531.93801971196604
 20
511.23911162922519
 30
0.0
 40
2.5
  0
CIRCLE
  5
789
  8
_0-0_フレ_ム
  6
CONTINUOUS
 62
     7
 10
498.14622971196599
 20
552.73911162922525
 30
0.0
 40
2.5
  0
CIRCLE
  5
78A
  8
_0-0_フレ_ム
  6
CONTINUOUS
 62
     7
 10
491.09365971196598
 20
552.73911162922525
 30
0.0
 40
2.5
  0
CIRCLE
  5
78B
  8
_0-1_DISP
  6
CONTINUOUS
 62
     7
 10
502.33843971196592
 20
539.23911162922525
 30
0.0
 40
2.5
  0
CIRCLE
  5
78C
  8
_0-1_DISP
  6
CONTINUOUS
 62
     7
 10
503.197939711966
 20
546.23911162922525
 30
0.0
 40
2.5
  0
CIRCLE
  5
78D
  8
_0-1_DISP
  6
CONTINUOUS
 62
     7
 10
610.46460971196586
 20
499.23911162922519
 30
0.0
 40
2.5
  0
CIRCLE
  5
78F
  8
_0-1_DISP
  6
CONTINUOUS
 62
     7
 10
577.42705971196585
 20
499.23911162922519
 30
0.0
 40
2.5
  0
CIRCLE
  5
790
  8
_0-1_DISP
  6
CONTINUOUS
 62
     7
 10
587.682539711966
 20
455.23911162922519
 30
0.0
 40
2.5
  0
CIRCLE
  5
791
  8
_0-1_DISP
  6
CONTINUOUS
 62
     7
 10
587.682539711966
 20
462.23911162922519
 30
0.0
 40
2.5
  0
CIRCLE
  5
792
  8
_0-1_DISP
  6
CONTINUOUS
 62
     7
 10
573.12959971196585
 20
464.23911162922519
 30
0.0
 40
2.5
  0
CIRCLE
  5
793
  8
_0-0_フレ_ム
  6
CONTINUOUS
 62
     7
 10
559.42912971196597
 20
457.73911162922519
 30
0.0
 40
2.5
  0
CIRCLE
  5
794
  8
_0-0_フレ_ム
  6
CONTINUOUS
 62
     7
 10
545.32398971196585
 20
457.73911162922519
 30
0.0
 40
2.5
  0
CIRCLE
  5
795
  8
_0-0_フレ_ム
  6
CONTINUOUS
 62
     7
 10
552.37655971196602
 20
457.73911162922519
 30
0.0
 40
2.5
  0
CIRCLE
  5
796
  8
_0-0_フレ_ム
  6
CONTINUOUS
 62
     7
 10
566.4816997119658
 20
457.73911162922519
 30
0.0
 40
2.5
  0
CIRCLE
  5
797
  8
_0-1_DISP
  6
CONTINUOUS
 62
     7
 10
575.70807971196598
 20
485.23911162922519
 30
0.0
 40
2.5
  0
CIRCLE
  5
798
  8
_0-1_DISP
  6
CONTINUOUS
 62
     7
 10
574.84857971196595
 20
478.23911162922519
 30
0.0
 40
2.5
  0
CIRCLE
  5
799
  8
_0-1_DISP
  6
CONTINUOUS
 62
     7
 10
573.98908971196602
 20
471.23911162922519
 30
0.0
 40
2.5
  0
CIRCLE
  5
79A
  8
_0-1_DISP
  6
CONTINUOUS
 62
     7
 10
576.56756971196603
 20
492.23911162922519
 30
0.0
 40
2.5
  0
CIRCLE
  5
79B
  8
_0-1_DISP
  6
CONTINUOUS
 62
     7
 10
606.16714971196586
 20
464.23911162922519
 30
0.0
 40
2.5
  0
CIRCLE
  5
79C
  8
_0-0_フレ_ム
  6
CONTINUOUS
 62
     7
 10
611.21884971196585
 20
457.73911162922519
 30
0.0
 40
2.5
  0
CIRCLE
  5
79D
  8
_0-1_DISP
  6
CONTINUOUS
 62
     7
 10
594.682539711966
 20
455.23911162922519
 30
0.0
 40
2.5
  0
CIRCLE
  5
79E
  8
_0-1_DISP
  6
CONTINUOUS
 62
     7
 10
594.682539711966
 20
462.23911162922519
 30
0.0
 40
2.5
  0
CIRCLE
  5
79F
  8
_0-0_フレ_ム
  6
CONTINUOUS
 62
     7
 10
618.2714197119659
 20
457.73911162922519
 30
0.0
 40
2.5
  0
CIRCLE
  5
7A0
  8
_0-0_フレ_ム
  6
CONTINUOUS
 62
     7
 10
625.32398971196596
 20
457.73911162922519
 30
0.0
 40
2.5
  0
CIRCLE
  5
7A1
  8
_0-1_DISP
  6
CONTINUOUS
 62
     7
 10
607.88612971196608
 20
478.23911162922519
 30
0.0
 40
2.5
  0
CIRCLE
  5
7A2
  8
_0-1_DISP
  6
CONTINUOUS
 62
     7
 10
608.74562971196588
 20
485.23911162922519
 30
0.0
 40
2.5
  0
CIRCLE
  5
7A3
  8
_0-1_DISP
  6
CONTINUOUS
 62
     7
 10
609.60511971196593
 20
492.23911162922519
 30
0.0
 40
2.5
  0
CIRCLE
  5
7A4
  8
_0-1_DISP
  6
CONTINUOUS
 62
     7
 10
607.02663971196591
 20
471.23911162922519
 30
0.0
 40
2.5
  0
CIRCLE
  5
7A5
  8
_0-1_DISP
  6
CONTINUOUS
 62
     7
 10
583.197939711966
 20
546.23911162922525
 30
0.0
 40
2.5
  0
CIRCLE
  5
7A6
  8
_0-0_フレ_ム
  6
CONTINUOUS
 62
     7
 10
558.20882971196602
 20
505.23911162922519
 30
0.0
 40
2.5
  0
CIRCLE
  5
7A7
  8
_0-0_フレ_ム
  6
CONTINUOUS
 62
     7
 10
544.1036897119659
 20
505.23911162922519
 30
0.0
 40
2.5
  0
CIRCLE
  5
7A8
  8
_0-0_フレ_ム
  6
CONTINUOUS
 62
     7
 10
551.15625971196596
 20
505.23911162922519
 30
0.0
 40
2.5
  0
CIRCLE
  5
7A9
  8
_0-1_DISP
  6
CONTINUOUS
 62
     7
 10
579.75996971196594
 20
518.23911162922525
 30
0.0
 40
2.5
  0
CIRCLE
  5
7AA
  8
_0-0_フレ_ム
  6
CONTINUOUS
 62
     7
 10
572.31395971196605
 20
505.23911162922519
 30
0.0
 40
2.5
  0
CIRCLE
  5
7AB
  8
_0-0_フレ_ム
  6
CONTINUOUS
 62
     7
 10
565.26139971196585
 20
505.23911162922519
 30
0.0
 40
2.5
  0
CIRCLE
  5
7AC
  8
_0-1_DISP
  6
CONTINUOUS
 62
     7
 10
578.900479711966
 20
511.23911162922519
 30
0.0
 40
2.5
  0
CIRCLE
  5
7AD
  8
_0-1_DISP
  6
CONTINUOUS
 62
     7
 10
580.61945971196599
 20
525.23911162922525
 30
0.0
 40
2.5
  0
CIRCLE
  5
7AE
  8
_0-1_DISP
  6
CONTINUOUS
 62
     7
 10
581.47894971196592
 20
532.23911162922525
 30
0.0
 40
2.5
  0
CIRCLE
  5
7AF
  8
_0-0_フレ_ム
  6
CONTINUOUS
 62
     7
 10
556.98851971196586
 20
552.73911162922525
 30
0.0
 40
2.5
  0
CIRCLE
  5
7B0
  8
_0-0_フレ_ム
  6
CONTINUOUS
 62
     7
 10
549.93595971196601
 20
552.73911162922525
 30
0.0
 40
2.5
  0
CIRCLE
  5
7B1
  8
_0-0_フレ_ム
  6
CONTINUOUS
 62
     7
 10
542.88338971196595
 20
552.73911162922525
 30
0.0
 40
2.5
  0
CIRCLE
  5
7B2
  8
_0-0_フレ_ム
  6
CONTINUOUS
 62
     7
 10
578.14622971196604
 20
552.73911162922525
 30
0.0
 40
2.5
  0
CIRCLE
  5
7B3
  8
_0-0_フレ_ム
  6
CONTINUOUS
 62
     7
 10
571.09365971196587
 20
552.73911162922525
 30
0.0
 40
2.5
  0
CIRCLE
  5
7B4
  8
_0-0_フレ_ム
  6
CONTINUOUS
 62
     7
 10
564.04108971196604
 20
552.73911162922525
 30
0.0
 40
2.5
  0
CIRCLE
  5
7B5
  8
_0-1_DISP
  6
CONTINUOUS
 62
     7
 10
582.33843971196586
 20
539.23911162922525
 30
0.0
 40
2.5
  0
CIRCLE
  5
7B6
  8
_0-1_DISP
  6
CONTINUOUS
 62
     7
 10
611.93801971196604
 20
511.23911162922519
 30
0.0
 40
2.5
  0
CIRCLE
  5
7B7
  8
_0-1_DISP
  6
CONTINUOUS
 62
     7
 10
612.79751971196595
 20
518.23911162922525
 30
0.0
 40
2.5
  0
CIRCLE
  5
7B8
  8
_0-0_フレ_ム
  6
CONTINUOUS
 62
     7
 10
624.10368971196601
 20
505.23911162922519
 30
0.0
 40
2.5
  0
CIRCLE
  5
7B9
  8
_0-0_フレ_ム
  6
CONTINUOUS
 62
     7
 10
617.05111971196595
 20
505.23911162922519
 30
0.0
 40
2.5
  0
CIRCLE
  5
7BA
  8
_0-0_フレ_ム
  6
CONTINUOUS
 62
     7
 10
631.15625971196596
 20
505.23911162922519
 30
0.0
 40
2.5
  0
CIRCLE
  5
7BB
  8
_0-1_DISP
  6
CONTINUOUS
 62
     7
 10
614.51649971196593
 20
532.23911162922525
 30
0.0
 40
2.5
  0
CIRCLE
  5
7BC
  8
_0-1_DISP
  6
CONTINUOUS
 62
     7
 10
613.65700971196588
 20
525.23911162922525
 30
0.0
 40
2.5
  0
CIRCLE
  5
7BD
  8
_0-0_フレ_ム
  6
CONTINUOUS
 62
     7
 10
629.93595971196601
 20
552.73911162922525
 30
0.0
 40
2.5
  0
CIRCLE
  5
7BE
  8
_0-0_フレ_ム
  6
CONTINUOUS
 62
     7
 10
622.88338971196595
 20
552.73911162922525
 30
0.0
 40
2.5
  0
CIRCLE
  5
7BF
  8
_0-1_DISP
  6
CONTINUOUS
 62
     7
 10
616.23547971196604
 20
546.23911162922525
 30
0.0
 40
2.5
  0
CIRCLE
  5
7C0
  8
_0-1_DISP
  6
CONTINUOUS
 62
     7
 10
615.37598971196599
 20
539.23911162922525
 30
0.0
 40
2.5
  0
LINE
  5
7C9
  8
_0-5_CPUぼ_ど
  6
CONTINUOUS
 62
     7
 10
779.68253971196589
 20
584.73911162922525
 30
0.0
 11
779.68253971196589
 21
425.73911162922519
 31
0.0
  0
LINE
  5
7CC
  8
_0-F_Ａ３
  6
CONTINUOUS
 62
     7
 10
1070.682539711966
 20
594.73911162922525
 30
0.0
 11
1070.682539711966
 21
415.73911162922519
 31
0.0
  0
LINE
  5
7CD
  8
_0-0_フレ_ム
  6
CONTINUOUS
 62
     7
 10
1146.6825397119651
 20
594.73911162922525
 30
0.0
 11
1146.6825397119651
 21
415.73911162922519
 31
0.0
  0
LINE
  5
7CE
  8
_0-0_フレ_ム
  6
CONTINUOUS
 62
     7
 10
789.682539711966
 20
594.73911162922525
 30
0.0
 11
789.682539711966
 21
415.73911162922519
 31
0.0
  0
LINE
  5
7D2
  8
_0-0_フレ_ム
  6
CONTINUOUS
 62
     7
 10
1070.682539711966
 20
415.73911162922519
 30
0.0
 11
1146.6825397119651
 21
415.73911162922519
 31
0.0
  0
LINE
  5
7D7
  8
_0-0_フレ_ム
  6
CONTINUOUS
 62
     7
 10
791.682539711966
 20
161.73911162922519
 30
0.0
 11
839.68253971196589
 21
161.73911162922519
 31
0.0
  0
LINE
  5
7D8
  8
_0-0_フレ_ム
  6
CONTINUOUS
 62
     7
 10
791.98253971196596
 20
164.0391116292252
 30
0.0
 11
839.68253971196589
 21
164.0391116292252
 31
0.0
  0
CIRCLE
  5
7DB
  8
_0-3_下パネル
  6
CONTINUOUS
 62
     7
 10
717.68253971196589
 20
194.23911162922519
 30
0.0
 40
13.0
  0
CIRCLE
  5
7DC
  8
_0-3_下パネル
  6
CONTINUOUS
 62
     7
 10
717.68253971196589
 20
194.23911162922519
 30
0.0
 40
6.75
  0
LINE
  5
7DD
  8
_0-3_下パネル
  6
CONTINUOUS
 62
     7
 10
717.68253971196589
 20
181.5374116292252
 30
0.0
 11
728.682539711966
 21
187.8882116292252
 31
0.0
  0
LINE
  5
7DE
  8
_0-3_下パネル
  6
CONTINUOUS
 62
     7
 10
728.682539711966
 20
200.58991162922521
 30
0.0
 11
717.68253971196589
 21
206.94081162922521
 31
0.0
  0
CIRCLE
  5
7DF
  8
_0-3_下パネル
  6
CONTINUOUS
 62
     7
 10
717.64640971196604
 20
194.23911162922519
 30
0.0
 40
11.0
  0
LINE
  5
7F4
  8
_0-3_下パネル
  6
CONTINUOUS
 62
     7
 10
717.68253971196589
 20
181.5374116292252
 30
0.0
 11
706.682539711966
 21
187.8882116292252
 31
0.0
  0
LINE
  5
7FD
  8
_0-3_下パネル
  6
CONTINUOUS
 62
     7
 10
706.682539711966
 20
200.58991162922521
 30
0.0
 11
717.68253971196589
 21
206.94081162922521
 31
0.0
  0
LINE
  5
7FE
  8
_0-3_下パネル
  6
CONTINUOUS
 62
     7
 10
706.682539711966
 20
200.58991162922521
 30
0.0
 11
706.682539711966
 21
187.8882116292252
 31
0.0
  0
LINE
  5
7FF
  8
_0-0_フレ_ム
  6
CONTINUOUS
 62
     7
 10
791.98253971196596
 20
222.73911162922519
 30
0.0
 11
791.98253971196596
 21
164.0391116292252
 31
0.0
  0
LINE
  5
800
  8
_0-0_フレ_ム
  6
CONTINUOUS
 62
     7
 10
789.682539711966
 20
161.73911162922519
 30
0.0
 11
789.682539711966
 21
237.73911162922519
 31
0.0
  0
LINE
  5
803
  8
_0-0_フレ_ム
  6
CONTINUOUS
 62
     7
 10
754.68253971196589
 20
172.98911162922519
 30
0.0
 11
754.68253971196589
 21
215.48911162922519
 31
0.0
  0
ARC
  5
804
  8
_0-0_フレ_ム
  6
CONTINUOUS
 62
     7
 10
751.682539711966
 20
172.98911162922519
 30
0.0
 40
3.0
 50
270.0
 51
0.0
  0
LINE
  5
807
  8
_0-3_下パネル
  6
CONTINUOUS
 62
     7
 10
728.682539711966
 20
200.58991162922521
 30
0.0
 11
728.682539711966
 21
187.8882116292252
 31
0.0
  0
ARC
  5
809
  8
_0-0_フレ_ム
  6
CONTINUOUS
 62
     7
 10
751.682539711966
 20
215.48911162922519
 30
0.0
 40
3.0
 50
0.0
 51
90.0
  0
ARC
  5
80D
  8
_0-0_フレ_ム
  6
CONTINUOUS
 62
     7
 10
791.682539711966
 20
163.73911162922519
 30
0.0
 40
2.0
 50
180.0
 51
270.0
  0
LINE
  5
813
  8
_0-0_フレ_ム
  6
CONTINUOUS
 62
     7
 10
789.682539711966
 20
222.73911162922519
 30
0.0
 11
791.98253971196596
 21
222.73911162922519
 31
0.0
  0
LINE
  5
814
  8
_0-5_CPUぼ_ど
  6
CONTINUOUS
 62
     7
 10
706.182539711966
 20
391.73911162922519
 30
0.0
 11
729.182539711966
 21
391.73911162922519
 31
0.0
  0
LINE
  5
815
  8
_0-3_下パネル
  6
CONTINUOUS
 62
     7
 10
706.182539711966
 20
391.73911162922519
 30
0.0
 11
729.182539711966
 21
391.73911162922519
 31
0.0
  0
LINE
  5
816
  8
_0-5_CPUぼ_ど
  6
CONTINUOUS
 62
     7
 10
704.432539711966
 20
414.23911162922519
 30
0.0
 11
730.932539711966
 21
414.23911162922519
 31
0.0
  0
LINE
  5
817
  8
_0-5_CPUぼ_ど
  6
CONTINUOUS
 62
     7
 10
704.432539711966
 20
412.73911162922519
 30
0.0
 11
730.932539711966
 21
412.73911162922519
 31
0.0
  0
LINE
  5
818
  8
_0-3_下パネル
  6
CONTINUOUS
 62
     7
 10
723.682539711966
 20
394.23911162922519
 30
0.0
 11
722.48253971196596
 21
398.73911162922519
 31
0.0
  0
LINE
  5
819
  8
_0-3_下パネル
  6
CONTINUOUS
 62
     7
 10
704.432539711966
 20
398.73911162922519
 30
0.0
 11
730.932539711966
 21
398.73911162922519
 31
0.0
  0
LINE
  5
81A
  8
_0-3_下パネル
  6
CONTINUOUS
 62
     7
 10
704.98083971196604
 20
389.73911162922519
 30
0.0
 11
730.38424971196594
 21
389.73911162922519
 31
0.0
  0
LINE
  5
81B
  8
_0-3_下パネル
  6
CONTINUOUS
 62
     7
 10
704.98083971196604
 20
384.73911162922519
 30
0.0
 11
730.38424971196594
 21
384.73911162922519
 31
0.0
  0
LINE
  5
82E
  8
_0-5_CPUぼ_ど
  6
CONTINUOUS
 62
     7
 10
672.18253971196589
 20
395.13911162922523
 30
0.0
 11
683.182539711966
 21
395.13911162922523
 31
0.0
  0
ARC
  5
82F
  8
_0-5_CPUぼ_ど
  6
CONTINUOUS
 62
     7
 10
677.682539711966
 20
410.38911162922528
 30
0.0
 40
12.75
 50
241.92751000000001
 51
298.0724800000001
  0
LINE
  5
830
  8
_0-5_CPUぼ_ど
  6
CONTINUOUS
 62
     7
 10
667.38253971196605
 20
414.73911162922519
 30
0.0
 11
681.81028193502664
 21
414.73911162922519
 31
0.0
  0
LINE
  5
831
  8
_0-5_CPUぼ_ど
  6
CONTINUOUS
 62
     7
 10
667.38253971196605
 20
413.73911162922519
 30
0.0
 11
687.98253971196596
 21
413.73911162922519
 31
0.0
  0
LINE
  5
832
  8
_0-5_CPUぼ_ど
  6
CONTINUOUS
 62
     7
 10
667.38253971196605
 20
409.73911162922519
 30
0.0
 11
687.98253971196596
 21
409.73911162922519
 31
0.0
  0
LINE
  5
833
  8
_0-5_CPUぼ_ど
  6
CONTINUOUS
 62
     7
 10
667.38253971196605
 20
407.73911162922519
 30
0.0
 11
687.98253971196596
 21
407.73911162922519
 31
0.0
  0
LINE
  5
834
  8
_0-5_CPUぼ_ど
  6
CONTINUOUS
 62
     7
 10
647.98253971196596
 20
398.63911162922528
 30
0.0
 11
643.18253971196589
 21
395.13911162922523
 31
0.0
  0
LINE
  5
835
  8
_0-5_CPUぼ_ど
  6
CONTINUOUS
 62
     7
 10
627.38253971196605
 20
398.63911162922528
 30
0.0
 11
632.182539711966
 21
395.13911162922523
 31
0.0
  0
LINE
  5
836
  8
_0-5_CPUぼ_ど
  6
CONTINUOUS
 62
     7
 10
667.38253971196605
 20
398.63911162922528
 30
0.0
 11
672.18253971196589
 21
395.13911162922523
 31
0.0
  0
LINE
  5
837
  8
_0-5_CPUぼ_ど
  6
CONTINUOUS
 62
     7
 10
632.182539711966
 20
395.13911162922523
 30
0.0
 11
643.18253971196589
 21
395.13911162922523
 31
0.0
  0
LINE
  5
838
  8
_0-5_CPUぼ_ど
  6
CONTINUOUS
 62
     7
 10
647.98253971196596
 20
415.73911162922519
 30
0.0
 11
647.98253971196596
 21
409.73911162922519
 31
0.0
  0
LINE
  5
839
  8
_0-5_CPUぼ_ど
  6
CONTINUOUS
 62
     7
 10
627.38253971196605
 20
415.73911162922519
 30
0.0
 11
627.38253971196605
 21
409.73911162922519
 31
0.0
  0
ARC
  5
83A
  8
_0-5_CPUぼ_ど
  6
CONTINUOUS
 62
     7
 10
637.682539711966
 20
410.38911162922528
 30
0.0
 40
12.75
 50
241.92751000000001
 51
298.0724800000001
  0
LINE
  5
83B
  8
_0-5_CPUぼ_ど
  6
CONTINUOUS
 62
     7
 10
627.38253971196605
 20
413.73911162922519
 30
0.0
 11
647.98253971196596
 21
413.73911162922519
 31
0.0
  0
LINE
  5
83C
  8
_0-5_CPUぼ_ど
  6
CONTINUOUS
 62
     7
 10
627.38253971196605
 20
409.73911162922519
 30
0.0
 11
647.98253971196596
 21
409.73911162922519
 31
0.0
  0
LINE
  5
83D
  8
_0-5_CPUぼ_ど
  6
CONTINUOUS
 62
     7
 10
627.38253971196605
 20
407.73911162922519
 30
0.0
 11
647.98253971196596
 21
407.73911162922519
 31
0.0
  0
LINE
  5
83E
  8
_0-5_CPUぼ_ど
  6
CONTINUOUS
 62
     7
 10
627.38253971196605
 20
407.73911162922519
 30
0.0
 11
627.38253971196605
 21
398.63911162922528
 31
0.0
  0
LINE
  5
83F
  8
_0-5_CPUぼ_ど
  6
CONTINUOUS
 62
     7
 10
631.682539711966
 20
407.73911162922519
 30
0.0
 11
631.682539711966
 21
399.13911162922523
 31
0.0
  0
ARC
  5
840
  8
_0-5_CPUぼ_ど
  6
CONTINUOUS
 62
     7
 10
629.53253971196602
 20
399.92991162922522
 30
0.0
 40
2.2908333000000001
 50
200.1949999999994
 51
339.80498999999941
  0
LINE
  5
841
  8
_0-5_CPUぼ_ど
  6
CONTINUOUS
 62
     7
 10
631.682539711966
 20
413.73911162922519
 30
0.0
 11
631.682539711966
 21
409.73911162922519
 31
0.0
  0
LINE
  5
842
  8
_0-5_CPUぼ_ど
  6
CONTINUOUS
 62
     7
 10
647.98253971196596
 20
407.73911162922519
 30
0.0
 11
647.98253971196596
 21
398.63911162922528
 31
0.0
  0
LINE
  5
843
  8
_0-5_CPUぼ_ど
  6
CONTINUOUS
 62
     7
 10
643.682539711966
 20
407.73911162922519
 30
0.0
 11
643.682539711966
 21
399.13911162922523
 31
0.0
  0
ARC
  5
844
  8
_0-5_CPUぼ_ど
  6
CONTINUOUS
 62
     7
 10
645.83253971196598
 20
399.92991162922522
 30
0.0
 40
2.2908333000000001
 50
200.1949999999994
 51
339.80498999999941
  0
LINE
  5
845
  8
_0-5_CPUぼ_ど
  6
CONTINUOUS
 62
     7
 10
643.682539711966
 20
413.73911162922519
 30
0.0
 11
643.682539711966
 21
409.73911162922519
 31
0.0
  0
LINE
  5
846
  8
_0-5_CPUぼ_ど
  6
CONTINUOUS
 62
     7
 10
627.38253971196605
 20
414.73911162922519
 30
0.0
 11
647.98253971196596
 21
414.73911162922519
 31
0.0
  0
LINE
  5
847
  8
_0-5_CPUぼ_ど
  6
CONTINUOUS
 62
     7
 10
667.38253971196605
 20
415.73911162922519
 30
0.0
 11
667.38253971196605
 21
409.73911162922519
 31
0.0
  0
LINE
  5
848
  8
_0-5_CPUぼ_ど
  6
CONTINUOUS
 62
     7
 10
667.38253971196605
 20
407.73911162922519
 30
0.0
 11
667.38253971196605
 21
398.63911162922528
 31
0.0
  0
LINE
  5
849
  8
_0-5_CPUぼ_ど
  6
CONTINUOUS
 62
     7
 10
671.68253971196589
 20
407.73911162922519
 30
0.0
 11
671.68253971196589
 21
399.13911162922523
 31
0.0
  0
ARC
  5
84A
  8
_0-5_CPUぼ_ど
  6
CONTINUOUS
 62
     7
 10
669.53253971196602
 20
399.92991162922522
 30
0.0
 40
2.2908333000000001
 50
200.1949999999994
 51
339.80498999999941
  0
LINE
  5
84B
  8
_0-5_CPUぼ_ど
  6
CONTINUOUS
 62
     7
 10
671.68253971196589
 20
413.73911162922519
 30
0.0
 11
671.68253971196589
 21
409.73911162922519
 31
0.0
  0
LINE
  5
84C
  8
_0-5_CPUぼ_ど
  6
CONTINUOUS
 62
     7
 10
687.98253971196596
 20
398.63911162922528
 30
0.0
 11
683.182539711966
 21
395.13911162922523
 31
0.0
  0
LINE
  5
84D
  8
_0-3_下パネル
  6
CONTINUOUS
 62
     7
 10
706.182539711966
 20
398.73911162922519
 30
0.0
 11
706.182539711966
 21
391.73911162922519
 31
0.0
  0
LINE
  5
84E
  8
_0-3_下パネル
  6
CONTINUOUS
 62
     7
 10
711.682539711966
 20
412.73911162922519
 30
0.0
 11
711.682539711966
 21
394.23911162922519
 31
0.0
  0
LINE
  5
84F
  8
_0-3_下パネル
  6
CONTINUOUS
 62
     7
 10
711.682539711966
 20
394.23911162922519
 30
0.0
 11
712.88253971196605
 21
398.73911162922519
 31
0.0
  0
LINE
  5
850
  8
_0-3_下パネル
  6
CONTINUOUS
 62
     7
 10
710.48253971196596
 20
398.73911162922519
 30
0.0
 11
711.682539711966
 21
394.23911162922519
 31
0.0
  0
LINE
  5
851
  8
_0-3_下パネル
  6
CONTINUOUS
 62
     7
 10
704.432539711966
 20
398.73911162922519
 30
0.0
 11
706.182539711966
 21
394.23911162922519
 31
0.0
  0
LINE
  5
852
  8
_0-3_下パネル
  6
CONTINUOUS
 62
     7
 10
707.682539711966
 20
391.73911162922519
 30
0.0
 11
707.682539711966
 21
389.73911162922519
 31
0.0
  0
LINE
  5
853
  8
_0-3_下パネル
  6
CONTINUOUS
 62
     7
 10
704.98083971196604
 20
389.73911162922519
 30
0.0
 11
704.98083971196604
 21
384.73911162922519
 31
0.0
  0
LINE
  5
854
  8
_0-3_下パネル
  6
CONTINUOUS
 62
     7
 10
711.33168971196585
 20
389.73911162922519
 30
0.0
 11
711.33168971196585
 21
384.73911162922519
 31
0.0
  0
LINE
  5
855
  8
_0-5_CPUぼ_ど
  6
CONTINUOUS
 62
     7
 10
687.98253971196596
 20
415.73911162922519
 30
0.0
 11
687.98253971196596
 21
409.73911162922519
 31
0.0
  0
ARC
  5
856
  8
_0-5_CPUぼ_ど
  6
CONTINUOUS
 62
     7
 10
685.83253971196586
 20
399.92991162922522
 30
0.0
 40
2.2908333000000001
 50
200.1949999999994
 51
339.80498999999941
  0
LINE
  5
857
  8
_0-5_CPUぼ_ど
  6
CONTINUOUS
 62
     7
 10
683.68253971196589
 20
407.73911162922519
 30
0.0
 11
683.68253971196589
 21
399.13911162922523
 31
0.0
  0
LINE
  5
858
  8
_0-5_CPUぼ_ど
  6
CONTINUOUS
 62
     7
 10
683.68253971196589
 20
413.73911162922519
 30
0.0
 11
683.68253971196589
 21
409.73911162922519
 31
0.0
  0
LINE
  5
859
  8
_0-5_CPUぼ_ど
  6
CONTINUOUS
 62
     7
 10
687.98253971196596
 20
407.73911162922519
 30
0.0
 11
687.98253971196596
 21
398.63911162922528
 31
0.0
  0
LINE
  5
85A
  8
_0-3_下パネル
  6
CONTINUOUS
 62
     7
 10
704.432539711966
 20
415.73911162922519
 30
0.0
 11
704.432539711966
 21
398.73911162922519
 31
0.0
  0
LINE
  5
85F
  8
_0-0_フレ_ム
  6
CONTINUOUS
 62
     7
 10
779.68253971196589
 20
425.73911162922519
 30
0.0
 11
789.682539711966
 21
415.73911162922519
 31
0.0
  0
LINE
  5
860
  8
_0-3_下パネル
  6
CONTINUOUS
 62
     7
 10
729.182539711966
 20
398.73911162922519
 30
0.0
 11
729.182539711966
 21
391.73911162922519
 31
0.0
  0
LINE
  5
861
  8
_0-3_下パネル
  6
CONTINUOUS
 62
     7
 10
723.682539711966
 20
412.73911162922519
 30
0.0
 11
723.682539711966
 21
394.23911162922519
 31
0.0
  0
LINE
  5
862
  8
_0-3_下パネル
  6
CONTINUOUS
 62
     7
 10
723.682539711966
 20
394.23911162922519
 30
0.0
 11
724.88253971196605
 21
398.73911162922519
 31
0.0
  0
LINE
  5
863
  8
_0-3_下パネル
  6
CONTINUOUS
 62
     7
 10
729.182539711966
 20
394.23911162922519
 30
0.0
 11
730.932539711966
 21
398.73911162922519
 31
0.0
  0
LINE
  5
864
  8
_0-3_下パネル
  6
CONTINUOUS
 62
     7
 10
727.682539711966
 20
391.73911162922519
 30
0.0
 11
727.682539711966
 21
389.73911162922519
 31
0.0
  0
LINE
  5
865
  8
_0-3_下パネル
  6
CONTINUOUS
 62
     7
 10
730.38424971196594
 20
389.73911162922519
 30
0.0
 11
730.38424971196594
 21
384.73911162922519
 31
0.0
  0
LINE
  5
866
  8
_0-3_下パネル
  6
CONTINUOUS
 62
     7
 10
724.03339971196601
 20
389.73911162922519
 30
0.0
 11
724.03339971196601
 21
384.73911162922519
 31
0.0
  0
LINE
  5
867
  8
_0-3_下パネル
  6
CONTINUOUS
 62
     7
 10
730.932539711966
 20
415.73911162922519
 30
0.0
 11
730.932539711966
 21
398.73911162922519
 31
0.0
  0
LINE
  5
872
  8
_0-3_下パネル
  6
CONTINUOUS
 62
     7
 10
1125.1825397119651
 20
398.73911162922519
 30
0.0
 11
1125.1825397119651
 21
391.73911162922519
 31
0.0
  0
LINE
  5
873
  8
_0-3_下パネル
  6
CONTINUOUS
 62
     7
 10
1102.182539711966
 20
398.73911162922519
 30
0.0
 11
1102.182539711966
 21
391.73911162922519
 31
0.0
  0
LINE
  5
874
  8
_0-3_下パネル
  6
CONTINUOUS
 62
     7
 10
1119.682539711966
 20
412.73911162922519
 30
0.0
 11
1119.682539711966
 21
394.23911162922519
 31
0.0
  0
LINE
  5
875
  8
_0-3_下パネル
  6
CONTINUOUS
 62
     7
 10
1107.682539711966
 20
412.73911162922519
 30
0.0
 11
1107.682539711966
 21
394.23911162922519
 31
0.0
  0
LINE
  5
876
  8
_0-3_下パネル
  6
CONTINUOUS
 62
     7
 10
1119.682539711966
 20
394.23911162922519
 30
0.0
 11
1118.482539711966
 21
398.73911162922519
 31
0.0
  0
LINE
  5
877
  8
_0-3_下パネル
  6
CONTINUOUS
 62
     7
 10
1119.682539711966
 20
394.23911162922519
 30
0.0
 11
1120.8825397119649
 21
398.73911162922519
 31
0.0
  0
LINE
  5
878
  8
_0-3_下パネル
  6
CONTINUOUS
 62
     7
 10
1107.682539711966
 20
394.23911162922519
 30
0.0
 11
1108.8825397119649
 21
398.73911162922519
 31
0.0
  0
LINE
  5
879
  8
_0-3_下パネル
  6
CONTINUOUS
 62
     7
 10
1106.482539711966
 20
398.73911162922519
 30
0.0
 11
1107.682539711966
 21
394.23911162922519
 31
0.0
  0
LINE
  5
87A
  8
_0-3_下パネル
  6
CONTINUOUS
 62
     7
 10
1125.1825397119651
 20
394.23911162922519
 30
0.0
 11
1126.9325397119651
 21
398.73911162922519
 31
0.0
  0
LINE
  5
87B
  8
_0-3_下パネル
  6
CONTINUOUS
 62
     7
 10
1100.432539711966
 20
398.73911162922519
 30
0.0
 11
1102.182539711966
 21
394.23911162922519
 31
0.0
  0
LINE
  5
87C
  8
_0-5_CPUぼ_ど
  6
CONTINUOUS
 62
     7
 10
1102.182539711966
 20
391.73911162922519
 30
0.0
 11
1125.1825397119651
 21
391.73911162922519
 31
0.0
  0
LINE
  5
87D
  8
_0-3_下パネル
  6
CONTINUOUS
 62
     7
 10
1102.182539711966
 20
391.73911162922519
 30
0.0
 11
1125.1825397119651
 21
391.73911162922519
 31
0.0
  0
LINE
  5
87E
  8
_0-3_下パネル
  6
CONTINUOUS
 62
     7
 10
1100.9808397119659
 20
389.73911162922519
 30
0.0
 11
1126.3842397119649
 21
389.73911162922519
 31
0.0
  0
LINE
  5
87F
  8
_0-3_下パネル
  6
CONTINUOUS
 62
     7
 10
1100.9808397119659
 20
384.73911162922519
 30
0.0
 11
1126.3842397119649
 21
384.73911162922519
 31
0.0
  0
LINE
  5
880
  8
_0-3_下パネル
  6
CONTINUOUS
 62
     7
 10
1100.9808397119659
 20
389.73911162922519
 30
0.0
 11
1100.9808397119659
 21
384.73911162922519
 31
0.0
  0
LINE
  5
881
  8
_0-3_下パネル
  6
CONTINUOUS
 62
     7
 10
1103.682539711966
 20
391.73911162922519
 30
0.0
 11
1103.682539711966
 21
389.73911162922519
 31
0.0
  0
LINE
  5
882
  8
_0-3_下パネル
  6
CONTINUOUS
 62
     7
 10
1107.3317397119649
 20
389.73911162922519
 30
0.0
 11
1107.3317397119649
 21
384.73911162922519
 31
0.0
  0
LINE
  5
883
  8
_0-3_下パネル
  6
CONTINUOUS
 62
     7
 10
1123.682539711966
 20
391.73911162922519
 30
0.0
 11
1123.682539711966
 21
389.73911162922519
 31
0.0
  0
LINE
  5
884
  8
_0-3_下パネル
  6
CONTINUOUS
 62
     7
 10
1126.3842397119649
 20
389.73911162922519
 30
0.0
 11
1126.3842397119649
 21
384.73911162922519
 31
0.0
  0
LINE
  5
885
  8
_0-3_下パネル
  6
CONTINUOUS
 62
     7
 10
1120.0334397119659
 20
389.73911162922519
 30
0.0
 11
1120.0334397119659
 21
384.73911162922519
 31
0.0
  0
LINE
  5
886
  8
_0-5_CPUぼ_ど
  6
CONTINUOUS
 62
     7
 10
1100.432539711966
 20
414.23911162922519
 30
0.0
 11
1126.9325397119651
 21
414.23911162922519
 31
0.0
  0
LINE
  5
887
  8
_0-5_CPUぼ_ど
  6
CONTINUOUS
 62
     7
 10
1100.432539711966
 20
412.73911162922519
 30
0.0
 11
1126.9325397119651
 21
412.73911162922519
 31
0.0
  0
LINE
  5
888
  8
_0-3_下パネル
  6
CONTINUOUS
 62
     7
 10
1100.432539711966
 20
398.73911162922519
 30
0.0
 11
1126.9325397119651
 21
398.73911162922519
 31
0.0
  0
LINE
  5
889
  8
_0-3_下パネル
  6
CONTINUOUS
 62
     7
 10
1100.432539711966
 20
414.33422205733478
 30
0.0
 11
1100.432539711966
 21
398.73911162922519
 31
0.0
  0
LINE
  5
88A
  8
_0-3_下パネル
  6
CONTINUOUS
 62
     7
 10
1126.932539711966
 20
414.7199744966756
 30
0.0
 11
1126.9325397119651
 21
398.73911162922519
 31
0.0
  0
LINE
  5
88D
  8
_0-0_フレ_ム
  6
CONTINUOUS
 62
     7
 10
1086.682539711966
 20
450.23911162922519
 30
0.0
 11
1146.6825397119651
 21
450.23911162922519
 31
0.0
  0
LINE
  5
88E
  8
_0-0_フレ_ム
  6
CONTINUOUS
 62
     7
 10
1086.682539711966
 20
560.23911162922525
 30
0.0
 11
1146.6825397119651
 21
560.23911162922525
 31
0.0
  0
LINE
  5
890
  8
_0-0_フレ_ム
  6
CONTINUOUS
 62
     7
 10
1070.682539711966
 20
594.73911162922525
 30
0.0
 11
1146.6825397119651
 21
594.73911162922525
 31
0.0
  0
LINE
  5
898
  8
_0-0_フレ_ム
  6
CONTINUOUS
 62
     7
 10
834.682539711966
 20
450.23911162922519
 30
0.0
 11
789.682539711966
 21
450.23911162922519
 31
0.0
  0
LINE
  5
899
  8
_0-0_フレ_ム
  6
CONTINUOUS
 62
     7
 10
834.682539711966
 20
560.23911162922525
 30
0.0
 11
789.682539711966
 21
560.23911162922525
 31
0.0
  0
CIRCLE
  5
89C
  8
_0-1_DISP
  6
CONTINUOUS
 62
     7
 10
657.42705971196585
 20
499.23911162922519
 30
0.0
 40
2.5
  0
CIRCLE
  5
89D
  8
_0-1_DISP
  6
CONTINUOUS
 62
     7
 10
653.12959971196585
 20
464.23911162922519
 30
0.0
 40
2.5
  0
CIRCLE
  5
89E
  8
_0-0_フレ_ム
  6
CONTINUOUS
 62
     7
 10
646.48169971196592
 20
457.73911162922519
 30
0.0
 40
2.5
  0
CIRCLE
  5
89F
  8
_0-0_フレ_ム
  6
CONTINUOUS
 62
     7
 10
639.42912971196608
 20
457.73911162922519
 30
0.0
 40
2.5
  0
CIRCLE
  5
8A0
  8
_0-1_DISP
  6
CONTINUOUS
 62
     7
 10
656.56756971196603
 20
492.23911162922519
 30
0.0
 40
2.5
  0
CIRCLE
  5
8A1
  8
_0-1_DISP
  6
CONTINUOUS
 62
     7
 10
655.70807971196598
 20
485.23911162922519
 30
0.0
 40
2.5
  0
CIRCLE
  5
8A2
  8
_0-1_DISP
  6
CONTINUOUS
 62
     7
 10
654.84857971196595
 20
478.23911162922519
 30
0.0
 40
2.5
  0
CIRCLE
  5
8A3
  8
_0-1_DISP
  6
CONTINUOUS
 62
     7
 10
653.98908971196602
 20
471.23911162922519
 30
0.0
 40
2.5
  0
CIRCLE
  5
8A4
  8
_0-1_DISP
  6
CONTINUOUS
 62
     7
 10
660.61945971196587
 20
525.23911162922525
 30
0.0
 40
2.5
  0
CIRCLE
  5
8A5
  8
_0-1_DISP
  6
CONTINUOUS
 62
     7
 10
658.900479711966
 20
511.23911162922519
 30
0.0
 40
2.5
  0
CIRCLE
  5
8A6
  8
_0-1_DISP
  6
CONTINUOUS
 62
     7
 10
659.75996971196594
 20
518.23911162922525
 30
0.0
 40
2.5
  0
CIRCLE
  5
8A7
  8
_0-1_DISP
  6
CONTINUOUS
 62
     7
 10
661.47894971196592
 20
532.23911162922525
 30
0.0
 40
2.5
  0
CIRCLE
  5
8A8
  8
_0-0_フレ_ム
  6
CONTINUOUS
 62
     7
 10
645.26139971196596
 20
505.23911162922519
 30
0.0
 40
2.5
  0
CIRCLE
  5
8A9
  8
_0-0_フレ_ム
  6
CONTINUOUS
 62
     7
 10
638.2088297119659
 20
505.23911162922519
 30
0.0
 40
2.5
  0
CIRCLE
  5
8AA
  8
_0-0_フレ_ム
  6
CONTINUOUS
 62
     7
 10
652.31395971196605
 20
505.23911162922519
 30
0.0
 40
2.5
  0
CIRCLE
  5
8AB
  8
_0-0_フレ_ム
  6
CONTINUOUS
 62
     7
 10
658.14622971196604
 20
552.73911162922525
 30
0.0
 40
2.5
  0
CIRCLE
  5
8AC
  8
_0-0_フレ_ム
  6
CONTINUOUS
 62
     7
 10
651.09365971196587
 20
552.73911162922525
 30
0.0
 40
2.5
  0
CIRCLE
  5
8AD
  8
_0-0_フレ_ム
  6
CONTINUOUS
 62
     7
 10
644.04108971196604
 20
552.73911162922525
 30
0.0
 40
2.5
  0
CIRCLE
  5
8AE
  8
_0-0_フレ_ム
  6
CONTINUOUS
 62
     7
 10
636.98851971196598
 20
552.73911162922525
 30
0.0
 40
2.5
  0
CIRCLE
  5
8AF
  8
_0-1_DISP
  6
CONTINUOUS
 62
     7
 10
662.33843971196586
 20
539.23911162922525
 30
0.0
 40
2.5
  0
CIRCLE
  5
8B0
  8
_0-1_DISP
  6
CONTINUOUS
 62
     7
 10
663.197939711966
 20
546.23911162922525
 30
0.0
 40
2.5
  0
LINE
  5
8B1
  8
_0-0_フレ_ム
  6
CONTINUOUS
 62
     7
 10
791.98253971196596
 20
560.23911162922525
 30
0.0
 11
791.98253971196596
 21
450.23911162922519
 31
0.0
  0
CIRCLE
  5
8B4
  8
_0-0_フレ_ム
  6
CONTINUOUS
 62
     7
 10
819.682539711966
 20
470.23911162922519
 30
0.0
 40
3.5
  0
CIRCLE
  5
8B6
  8
_0-0_フレ_ム
  6
CONTINUOUS
 62
     7
 10
819.682539711966
 20
540.23911162922525
 30
0.0
 40
3.5
  0
LINE
  5
8B8
  8
_0-0_フレ_ム
  6
CONTINUOUS
 62
     7
 10
779.68253971196589
 20
584.73911162922525
 30
0.0
 11
789.682539711966
 21
594.73911162922525
 31
0.0
  0
LINE
  5
8C8
  8
_0-0_フレ_ム
  6
CONTINUOUS
 62
     7
 10
839.68253971196589
 20
455.23911162922519
 30
0.0
 11
839.68253971196589
 21
555.23911162922525
 31
0.0
  0
ARC
  5
8CB
  8
_0-0_フレ_ム
  6
CONTINUOUS
 62
     7
 10
834.682539711966
 20
455.23911162922519
 30
0.0
 40
5.0
 50
270.0
 51
0.0
  0
ARC
  5
8D3
  8
_0-0_フレ_ム
  6
CONTINUOUS
 62
     7
 10
834.682539711966
 20
555.23911162922525
 30
0.0
 40
5.0
 50
0.0
 51
90.0
  0
LINE
  5
8D7
  8
_0-0_フレ_ム
  6
CONTINUOUS
 62
     7
 10
1081.682539711966
 20
455.23911162922519
 30
0.0
 11
1081.682539711966
 21
555.23911162922525
 31
0.0
  0
ARC
  5
8D8
  8
_0-0_フレ_ム
  6
CONTINUOUS
 62
     7
 10
1086.682539711966
 20
455.23911162922519
 30
0.0
 40
5.0
 50
180.0
 51
270.0
  0
ARC
  5
8D9
  8
_0-0_フレ_ム
  6
CONTINUOUS
 62
     7
 10
1086.682539711966
 20
555.23911162922525
 30
0.0
 40
5.0
 50
90.0
 51
180.0
  0
LINE
  5
8E5
  8
_0-0_フレ_ム
  6
CONTINUOUS
 62
     7
 10
1144.382539711966
 20
560.23911162922525
 30
0.0
 11
1144.382539711966
 21
450.23911162922519
 31
0.0
  0
LINE
  5
8F4
  8
CENTER
 10
810.18253971196589
 20
540.23911162922525
 30
0.0
 11
829.182539711966
 21
540.23911162922525
 31
0.0
  0
LINE
  5
8F5
  8
CENTER
 10
819.682539711966
 20
530.73911162922525
 30
0.0
 11
819.682539711966
 21
549.73911162922525
 31
0.0
  0
LINE
  5
8F7
  8
CENTER
 10
810.18253971196589
 20
470.23911162922519
 30
0.0
 11
829.182539711966
 21
470.23911162922519
 31
0.0
  0
LINE
  5
8F8
  8
CENTER
 10
819.682539711966
 20
460.73911162922519
 30
0.0
 11
819.682539711966
 21
479.73911162922519
 31
0.0
  0
LINE
  5
8F9
  8
CENTER
 10
130.182539711966
 20
540.23911162922525
 30
0.0
 11
149.182539711966
 21
540.23911162922525
 31
0.0
  0
LINE
  5
8FA
  8
CENTER
 10
139.682539711966
 20
530.73911162922525
 30
0.0
 11
139.682539711966
 21
549.73911162922525
 31
0.0
  0
LINE
  5
8FB
  8
CENTER
 10
130.182539711966
 20
470.23911162922519
 30
0.0
 11
149.182539711966
 21
470.23911162922519
 31
0.0
  0
LINE
  5
8FC
  8
CENTER
 10
139.682539711966
 20
460.73911162922519
 30
0.0
 11
139.682539711966
 21
479.73911162922519
 31
0.0
  0
LINE
  5
8FD
  8
CENTER
 10
104.6825397119659
 20
505.23911162922519
 30
0.0
 11
854.68253971196589
 21
505.23911162922519
 31
0.0
  0
LINE
  5
8FE
  8
CENTER
 10
637.682539711966
 20
389.13911162922523
 30
0.0
 11
637.682539711966
 21
421.73911162922519
 31
0.0
  0
LINE
  5
8FF
  8
CENTER
 10
677.682539711966
 20
389.13911162922523
 30
0.0
 11
677.682539711966
 21
421.73911162922519
 31
0.0
  0
LINE
  5
900
  8
CENTER
 10
717.68254471196599
 20
378.73911162922519
 30
0.0
 11
717.68254471196599
 21
421.73911162922519
 31
0.0
  0
DIMENSION
  5
902
  8
MEASURE
  2
*D1
 10
779.68253971196589
 20
636.73911162922525
 30
0.0
 11
479.68253971196589
 21
643.48911162922525
 31
0.0
 70
     0
 13
179.68253971196589
 23
584.73911162922525
 33
0.0
 14
779.68253971196589
 24
584.73911162922525
 34
0.0
  0
DIMENSION
  5
918
  8
MEASURE
  2
*D2
 10
139.682539711966
 20
657.73911162922525
 30
0.0
 11
479.68253971196589
 21
664.48911162922525
 31
0.0
 70
     0
 13
819.682539711966
 23
540.23911162922525
 33
0.0
 14
139.682539711966
 24
540.23911162922525
 34
0.0
  0
DIMENSION
  5
981
  8
MEASURE
  2
*D3
 10
119.682539711966
 20
678.73911162922525
 30
0.0
 11
479.68253971196589
 21
685.48911162922525
 31
0.0
 70
     0
 13
839.68253971196589
 23
555.23911162922525
 33
0.0
 14
119.682539711966
 24
555.23911162922525
 34
0.0
  0
DIMENSION
  5
9C4
  8
MEASURE
  2
*D4
 10
789.682539711966
 20
342.73911162922519
 30
0.0
 11
753.68254221196594
 21
349.48911162922519
 31
0.0
 70
     0
 13
717.68254471196599
 23
384.73911162922519
 33
0.0
 14
789.682539711966
 24
415.73911162922519
 34
0.0
  0
DIMENSION
  5
9DA
  8
MEASURE
  2
*D5
 10
677.682539711966
 20
342.73911162922519
 30
0.0
 11
697.68254221196594
 21
349.48911162922519
 31
0.0
 70
     0
 13
717.68254471196599
 23
384.73911162922519
 33
0.0
 14
677.682539711966
 24
395.13911162922523
 34
0.0
  0
DIMENSION
  5
9E7
  8
MEASURE
  2
*D6
 10
637.682539711966
 20
342.73911162922519
 30
0.0
 11
657.682539711966
 21
349.48911162922519
 31
0.0
 70
     0
 13
677.682539711966
 23
395.13911162922523
 33
0.0
 14
637.682539711966
 24
395.13911162922523
 34
0.0
  0
DIMENSION
  5
9F4
  8
MEASURE
  2
*D7
 10
839.68253971196589
 20
321.73911162922519
 30
0.0
 11
814.68253971196589
 21
328.48911162922519
 31
0.0
 70
     0
 13
789.682539711966
 23
415.73911162922519
 33
0.0
 14
839.68253971196589
 24
455.23911162922519
 34
0.0
  0
DIMENSION
  5
A0A
  8
MEASURE
  2
*D8
 10
169.682539711966
 20
321.73911162922519
 30
0.0
 11
479.68253971196589
 21
328.48911162922519
 31
0.0
 70
     0
 13
789.682539711966
 23
415.73911162922519
 33
0.0
 14
169.682539711966
 24
415.73911162922519
 34
0.0
  0
DIMENSION
  5
A17
  8
MEASURE
  2
*D9
 10
119.6825397119659
 20
321.73911162922519
 30
0.0
 11
144.682539711966
 21
328.48911162922519
 31
0.0
 70
     0
 13
169.682539711966
 23
415.73911162922519
 33
0.0
 14
119.682539711966
 24
455.23911162922519
 34
0.0
  0
DIMENSION
  5
A24
  8
MEASURE
  2
*D10
 10
881.68253971196589
 20
470.23911162922519
 30
0.0
 11
874.93253971196577
 21
505.23911162922542
 31
0.0
 70
     0
 13
819.682539711966
 23
540.23911162922525
 33
0.0
 14
819.682539711966
 24
470.23911162922519
 34
0.0
 50
90.0
  0
DIMENSION
  5
A3A
  8
MEASURE
  2
*D11
 10
902.682539711966
 20
450.23911162922508
 30
0.0
 11
895.93253971196589
 21
505.23911162922542
 31
0.0
 70
     0
 13
834.682539711966
 23
560.23911162922525
 33
0.0
 14
834.682539711966
 24
450.23911162922519
 34
0.0
 50
90.0
  0
DIMENSION
  5
A50
  8
MEASURE
  2
*D12
 10
923.68253971196589
 20
425.73911162922519
 30
0.0
 11
916.93253971196577
 21
505.23911162922542
 31
0.0
 70
     0
 13
779.68253971196589
 23
584.73911162922525
 33
0.0
 14
779.68253971196589
 24
425.73911162922519
 34
0.0
 50
90.0
  0
DIMENSION
  5
A66
  8
MEASURE
  2
*D13
 10
944.682539711966
 20
415.73911162922508
 30
0.0
 11
937.93253971196589
 21
505.23911162922542
 31
0.0
 70
     0
 13
789.682539711966
 23
594.73911162922525
 33
0.0
 14
789.682539711966
 24
415.73911162922519
 34
0.0
 50
90.0
  0
DIMENSION
  5
AB6
  8
MEASURE
  2
*D14
 10
944.682539711966
 20
384.73911162922508
 30
0.0
 11
937.93253971196589
 21
346.71911162922532
 31
0.0
 70
     0
  1
MAX 35
 13
789.682539711966
 23
415.73911162922519
 33
0.0
 14
740.38424971196594
 24
384.73911162922519
 34
0.0
 50
90.0
  0
LINE
  5
ACE
  8
CENTER
 10
1113.682539711966
 20
378.73911162922519
 30
0.0
 11
1113.682539711966
 21
421.73911162922519
 31
0.0
  0
LINE
  5
ACF
  8
CENTER
 10
1138.3825397119649
 20
540.23911162922514
 30
0.0
 11
1152.6825397119651
 21
540.23911162922514
 31
0.0
  0
LINE
  5
AD0
  8
CENTER
 10
1138.382539711966
 20
470.23911162922519
 30
0.0
 11
1152.6825397119651
 21
470.23911162922508
 31
0.0
  0
DIMENSION
  5
AD1
  8
MEASURE
  2
*D15
 10
1146.6825397119651
 20
678.73911162922525
 30
0.0
 11
1108.682539711966
 21
685.48911162922525
 31
0.0
 70
     0
 13
1070.682539711966
 23
594.73911162922525
 33
0.0
 14
1146.6825397119651
 24
594.73911162922525
 34
0.0
  0
DIMENSION
  5
ADE
  8
MEASURE
  2
*D16
 10
707.697939711966
 20
455.23911162922519
 30
0.0
 11
700.94793971196577
 21
505.23911162922531
 31
0.0
 70
     0
 13
658.14622971196604
 23
555.23911162922525
 33
0.0
 14
646.48169971196592
 24
455.23911162922519
 34
0.0
 50
90.0
  0
LINE
  5
B25
  8
_0-0_フレ_ム
 10
839.68253971196589
 20
164.0391116292252
 30
0.0
 11
839.68253971196589
 21
161.73911162922519
 31
0.0
  0
LINE
  5
B26
  8
_0-0_フレ_ム
  6
CONTINUOUS
 62
     7
 10
169.682539711966
 20
161.73911162922519
 30
0.0
 11
169.682539711966
 21
237.73911162922519
 31
0.0
  0
LINE
  5
B27
  8
_0-0_フレ_ム
  6
CONTINUOUS
 62
     7
 10
167.38253971196599
 20
222.73911162922519
 30
0.0
 11
167.38253971196599
 21
164.0391116292252
 31
0.0
  0
LINE
  5
B28
  8
_0-0_フレ_ム
  6
CONTINUOUS
 62
     7
 10
167.682539711966
 20
161.73911162922519
 30
0.0
 11
119.682539711966
 21
161.73911162922519
 31
0.0
  0
LINE
  5
B29
  8
_0-0_フレ_ム
  6
CONTINUOUS
 62
     7
 10
167.38253971196599
 20
164.0391116292252
 30
0.0
 11
119.682539711966
 21
164.0391116292252
 31
0.0
  0
ARC
  5
B2A
  8
_0-0_フレ_ム
  6
CONTINUOUS
 62
     7
 10
167.682539711966
 20
163.73911162922519
 30
0.0
 40
2.0
 50
270.0
 51
0.000000000000007
  0
LINE
  5
B2D
  8
_0-0_フレ_ム
 10
119.682539711966
 20
164.0391116292252
 30
0.0
 11
119.682539711966
 21
161.73911162922519
 31
0.0
  0
LINE
  5
B35
  8
_0-0_フレ_ム
  6
CONTINUOUS
 62
     7
 10
169.682539711966
 20
222.73911162922519
 30
0.0
 11
167.38253971196599
 21
222.73911162922519
 31
0.0
  0
LINE
  5
B36
  8
CENTER
 10
139.682539711966
 20
155.73911162922519
 30
0.0
 11
139.682539711966
 21
170.0391116292252
 31
0.0
  0
LINE
  5
B37
  8
CENTER
 10
819.682539711966
 20
155.73911162922519
 30
0.0
 11
819.682539711966
 21
170.0391116292252
 31
0.0
  0
LINE
  5
B3D
  8
CENTER
 10
698.64640971196604
 20
194.23911162922519
 30
0.0
 11
736.64640971196604
 21
194.23911162922519
 31
0.0
  0
LINE
  5
B3E
  8
CENTER
 10
717.64640971196604
 20
175.23911162922519
 30
0.0
 11
717.64640971196604
 21
213.23911162922519
 31
0.0
  0
LINE
  5
1075
  8
_0-3_下パネル
  6
CONTINUOUS
 62
     7
 10
646.446409711966
 20
199.31975162922521
 30
0.0
 11
646.446409711966
 21
189.15839162922509
 31
0.0
  0
LINE
  5
1076
  8
_0-3_下パネル
  6
CONTINUOUS
 62
     7
 10
628.84640971196609
 20
199.31975162922521
 30
0.0
 11
628.84640971196609
 21
189.15839162922509
 31
0.0
  0
CIRCLE
  5
1077
  8
_0-3_下パネル
  6
CONTINUOUS
 62
     7
 10
637.61749971196605
 20
194.23911162922519
 30
0.0
 40
8.8000000000000007
  0
CIRCLE
  5
1078
  8
_0-3_下パネル
  6
CONTINUOUS
 62
     7
 10
637.64640971196604
 20
194.23911162922519
 30
0.0
 40
5.4000000000000004
  0
CIRCLE
  5
1079
  8
_0-3_下パネル
  6
CONTINUOUS
 62
     7
 10
637.64640971196604
 20
194.23911162922519
 30
0.0
 40
10.4
  0
LINE
  5
107A
  8
_0-3_下パネル
  6
CONTINUOUS
 62
     7
 10
637.64640971196604
 20
184.07775162922511
 30
0.0
 11
646.446409711966
 21
189.15839162922509
 31
0.0
  0
LINE
  5
107B
  8
_0-3_下パネル
  6
CONTINUOUS
 62
     7
 10
637.64640971196604
 20
184.07775162922511
 30
0.0
 11
628.84640971196609
 21
189.15839162922509
 31
0.0
  0
LINE
  5
107C
  8
_0-3_下パネル
  6
CONTINUOUS
 62
     7
 10
646.446409711966
 20
199.31975162922521
 30
0.0
 11
637.64640971196604
 21
204.40047162922511
 31
0.0
  0
LINE
  5
107D
  8
_0-3_下パネル
  6
CONTINUOUS
 62
     7
 10
628.84640971196609
 20
199.31975162922521
 30
0.0
 11
637.64640971196604
 21
204.40047162922511
 31
0.0
  0
LINE
  5
107E
  8
_0-3_下パネル
  6
CONTINUOUS
 62
     7
 10
686.44640971196588
 20
199.31975162922521
 30
0.0
 11
686.44640971196588
 21
189.15839162922509
 31
0.0
  0
CIRCLE
  5
107F
  8
_0-3_下パネル
  6
CONTINUOUS
 62
     7
 10
677.64640971196604
 20
194.23911162922519
 30
0.0
 40
5.4000000000000004
  0
LINE
  5
1080
  8
_0-3_下パネル
  6
CONTINUOUS
 62
     7
 10
668.84640971196609
 20
199.31975162922521
 30
0.0
 11
668.84640971196609
 21
189.15839162922509
 31
0.0
  0
CIRCLE
  5
1081
  8
_0-3_下パネル
  6
CONTINUOUS
 62
     7
 10
677.61749971196605
 20
194.23911162922519
 30
0.0
 40
8.8000000000000007
  0
CIRCLE
  5
1082
  8
_0-3_下パネル
  6
CONTINUOUS
 62
     7
 10
677.64640971196604
 20
194.23911162922519
 30
0.0
 40
10.4
  0
LINE
  5
1083
  8
_0-3_下パネル
  6
CONTINUOUS
 62
     7
 10
677.64640971196604
 20
184.07775162922511
 30
0.0
 11
686.44640971196588
 21
189.15839162922509
 31
0.0
  0
LINE
  5
1084
  8
_0-3_下パネル
  6
CONTINUOUS
 62
     7
 10
677.64640971196604
 20
184.07775162922511
 30
0.0
 11
668.84640971196609
 21
189.15839162922509
 31
0.0
  0
LINE
  5
1085
  8
_0-3_下パネル
  6
CONTINUOUS
 62
     7
 10
686.44640971196588
 20
199.31975162922521
 30
0.0
 11
677.64640971196604
 21
204.40047162922511
 31
0.0
  0
LINE
  5
1086
  8
_0-3_下パネル
  6
CONTINUOUS
 62
     7
 10
668.84640971196609
 20
199.31975162922521
 30
0.0
 11
677.64640971196604
 21
204.40047162922511
 31
0.0
  0
LINE
  5
1087
  8
CENTER
 10
677.61749971196605
 20
177.83913711058949
 30
0.0
 11
677.61749971196605
 21
210.63908614786089
 31
0.0
  0
LINE
  5
1088
  8
CENTER
 10
661.24640971196595
 20
194.23911162922519
 30
0.0
 11
694.04640971196602
 21
194.23911162922519
 31
0.0
  0
LINE
  5
108A
  8
CENTER
 10
621.27531971196595
 20
194.23911162922519
 30
0.0
 11
654.07531971196602
 21
194.23911162922519
 31
0.0
  0
LINE
  5
108B
  8
CENTER
 10
637.64640971196604
 20
177.83913711058949
 30
0.0
 11
637.64640971196604
 21
210.63908614786089
 31
0.0
  0
LINE
  5
10A2
  8
CENTER
 10
1103.682539711966
 20
540.23911162922525
 30
0.0
 11
1124.6825397119651
 21
540.23911162922525
 31
0.0
  0
LINE
  5
10A3
  8
CENTER
 10
1114.182539711966
 20
529.73911162922525
 30
0.0
 11
1114.182539711966
 21
550.73911162922525
 31
0.0
  0
LINE
  5
10A5
  8
CENTER
 10
1114.182539711966
 20
459.73911162922519
 30
0.0
 11
1114.182539711966
 21
480.73911162922519
 31
0.0
  0
LINE
  5
10A6
  8
CENTER
 10
1103.682539711966
 20
470.23911162922519
 30
0.0
 11
1124.6825397119651
 21
470.23911162922519
 31
0.0
  0
POLYLINE
  5
122D
  8
NEJI
 66
     1
 10
0.0
 20
0.0
 30
0.0
 70
     1
  0
VERTEX
  5
1766
  8
NEJI
 10
166.3825397119659
 20
535.23911162922525
 30
0.0
  0
VERTEX
  5
1767
  8
NEJI
 10
167.3825397119659
 20
535.23911162922525
 30
0.0
  0
VERTEX
  5
1768
  8
NEJI
 10
167.3825397119659
 20
545.23911162922525
 30
0.0
  0
VERTEX
  5
1769
  8
NEJI
 10
166.3825397119659
 20
545.23911162922525
 30
0.0
  0
SEQEND
  5
176A
  8
NEJI
  0
POLYLINE
  5
122E
  8
NEJI
 66
     1
 10
0.0
 20
0.0
 30
0.0
 70
     1
  0
VERTEX
  5
176B
  8
NEJI
 10
164.68253971196589
 20
535.98911162922525
 30
0.0
  0
VERTEX
  5
176C
  8
NEJI
 10
166.3825397119659
 20
535.98911162922525
 30
0.0
  0
VERTEX
  5
176D
  8
NEJI
 10
166.3825397119659
 20
544.48911162922525
 30
0.0
  0
VERTEX
  5
176E
  8
NEJI
 10
164.68253971196589
 20
544.48911162922525
 30
0.0
  0
SEQEND
  5
176F
  8
NEJI
  0
LINE
  5
122F
  8
NEJI
 10
164.68253971196589
 20
544.73911162922525
 30
0.0
 11
164.68253971196589
 21
535.73911162922525
 31
0.0
  0
ARC
  5
1230
  8
NEJI
 10
173.38253971196599
 20
540.23911162922525
 30
0.0
 40
12.00000000000006
 50
164.2140103589897
 51
195.78598964101019
  0
ARC
  5
1232
  8
NEJI
 10
163.37478044807901
 20
537.40984414167895
 30
0.0
 40
1.6000000000000001
 50
195.78598964101019
 51
266.99999999999949
  0
LINE
  5
1234
  8
NEJI
 10
164.68253971196589
 20
535.73911162922525
 30
0.0
 11
163.29104291809031
 21
535.81203688607172
 31
0.0
  0
ARC
  5
1235
  8
NEJI
 10
163.37478044807901
 20
543.06837911677144
 30
0.0
 40
1.6000000000000001
 50
93.000000000000526
 51
164.2140103589897
  0
LINE
  5
1237
  8
NEJI
 10
163.29104291809031
 20
544.66618637237877
 30
0.0
 11
164.68253971196589
 21
544.73911162922525
 31
0.0
  0
LINE
  5
123A
  8
NEJI
 10
163.29104291809031
 20
465.81203688607172
 30
0.0
 11
164.68253971196589
 21
465.73911162922519
 31
0.0
  0
LINE
  5
123B
  8
NEJI
 10
164.68253971196589
 20
474.73911162922519
 30
0.0
 11
163.29104291809031
 21
474.66618637237877
 31
0.0
  0
ARC
  5
123C
  8
NEJI
 10
173.38253971196599
 20
470.23911162922519
 30
0.0
 40
12.00000000000006
 50
164.2140103589897
 51
195.78598964101019
  0
ARC
  5
123D
  8
NEJI
 10
163.37478044807901
 20
473.06837911677138
 30
0.0
 40
1.6000000000000001
 50
93.000000000000526
 51
164.2140103589897
  0
ARC
  5
123E
  8
NEJI
 10
163.37478044807901
 20
467.409844141679
 30
0.0
 40
1.6000000000000001
 50
195.78598964101019
 51
266.99999999999949
  0
LINE
  5
123F
  8
NEJI
 10
164.68253971196589
 20
465.73911162922519
 30
0.0
 11
164.68253971196589
 21
474.73911162922519
 31
0.0
  0
POLYLINE
  5
1240
  8
NEJI
 66
     1
 10
0.0
 20
0.0
 30
0.0
 70
     1
  0
VERTEX
  5
1770
  8
NEJI
 10
164.68253971196589
 20
474.48911162922519
 30
0.0
  0
VERTEX
  5
1771
  8
NEJI
 10
166.3825397119659
 20
474.48911162922519
 30
0.0
  0
VERTEX
  5
1772
  8
NEJI
 10
166.3825397119659
 20
465.98911162922519
 30
0.0
  0
VERTEX
  5
1773
  8
NEJI
 10
164.68253971196589
 20
465.98911162922519
 30
0.0
  0
SEQEND
  5
1774
  8
NEJI
  0
POLYLINE
  5
1241
  8
NEJI
 66
     1
 10
0.0
 20
0.0
 30
0.0
 70
     1
  0
VERTEX
  5
1775
  8
NEJI
 10
166.3825397119659
 20
475.23911162922519
 30
0.0
  0
VERTEX
  5
1776
  8
NEJI
 10
167.3825397119659
 20
475.23911162922519
 30
0.0
  0
VERTEX
  5
1777
  8
NEJI
 10
167.3825397119659
 20
465.23911162922519
 30
0.0
  0
VERTEX
  5
1778
  8
NEJI
 10
166.3825397119659
 20
465.23911162922519
 30
0.0
  0
SEQEND
  5
1779
  8
NEJI
  0
LINE
  5
1243
  8
NEJI
 10
796.07403650584172
 20
544.66618637237877
 30
0.0
 11
794.682539711966
 21
544.73911162922525
 31
0.0
  0
LINE
  5
1244
  8
NEJI
 10
794.682539711966
 20
535.73911162922525
 30
0.0
 11
796.07403650584172
 21
535.81203688607172
 31
0.0
  0
ARC
  5
1245
  8
NEJI
 10
785.98253971196596
 20
540.23911162922525
 30
0.0
 40
12.00000000000006
 50
344.2140103589897
 51
15.78598964101027
  0
ARC
  5
1246
  8
NEJI
 10
795.99029897585285
 20
537.40984414167895
 30
0.0
 40
1.6000000000000001
 50
273.00000000000051
 51
344.2140103589897
  0
ARC
  5
1247
  8
NEJI
 10
795.99029897585285
 20
543.06837911677144
 30
0.0
 40
1.6000000000000001
 50
15.78598964101027
 51
86.999999999999488
  0
LINE
  5
1248
  8
NEJI
 10
794.682539711966
 20
544.73911162922525
 30
0.0
 11
794.682539711966
 21
535.73911162922525
 31
0.0
  0
POLYLINE
  5
1249
  8
NEJI
 66
     1
 10
0.0
 20
0.0
 30
0.0
 70
     1
  0
VERTEX
  5
177A
  8
NEJI
 10
794.682539711966
 20
535.98911162922525
 30
0.0
  0
VERTEX
  5
177B
  8
NEJI
 10
792.98253971196596
 20
535.98911162922525
 30
0.0
  0
VERTEX
  5
177C
  8
NEJI
 10
792.98253971196596
 20
544.48911162922525
 30
0.0
  0
VERTEX
  5
177D
  8
NEJI
 10
794.682539711966
 20
544.48911162922525
 30
0.0
  0
SEQEND
  5
177E
  8
NEJI
  0
POLYLINE
  5
124A
  8
NEJI
 66
     1
 10
0.0
 20
0.0
 30
0.0
 70
     1
  0
VERTEX
  5
177F
  8
NEJI
 10
792.98253971196596
 20
535.23911162922525
 30
0.0
  0
VERTEX
  5
1780
  8
NEJI
 10
791.98253971196607
 20
535.23911162922525
 30
0.0
  0
VERTEX
  5
1781
  8
NEJI
 10
791.98253971196607
 20
545.23911162922525
 30
0.0
  0
VERTEX
  5
1782
  8
NEJI
 10
792.98253971196596
 20
545.23911162922525
 30
0.0
  0
SEQEND
  5
1783
  8
NEJI
  0
LINE
  5
124B
  8
NEJI
 10
796.07403650584172
 20
465.81203688607172
 30
0.0
 11
794.682539711966
 21
465.73911162922519
 31
0.0
  0
LINE
  5
124C
  8
NEJI
 10
794.682539711966
 20
474.73911162922519
 30
0.0
 11
796.07403650584172
 21
474.66618637237877
 31
0.0
  0
ARC
  5
124D
  8
NEJI
 10
785.98253971196596
 20
470.23911162922519
 30
0.0
 40
12.00000000000006
 50
344.2140103589897
 51
15.78598964101027
  0
ARC
  5
124E
  8
NEJI
 10
795.99029897585285
 20
473.06837911677138
 30
0.0
 40
1.6000000000000001
 50
15.78598964101027
 51
86.999999999999488
  0
ARC
  5
124F
  8
NEJI
 10
795.99029897585285
 20
467.409844141679
 30
0.0
 40
1.6000000000000001
 50
273.00000000000051
 51
344.2140103589897
  0
LINE
  5
1250
  8
NEJI
 10
794.682539711966
 20
465.73911162922519
 30
0.0
 11
794.682539711966
 21
474.73911162922519
 31
0.0
  0
POLYLINE
  5
1251
  8
NEJI
 66
     1
 10
0.0
 20
0.0
 30
0.0
 70
     1
  0
VERTEX
  5
1784
  8
NEJI
 10
794.682539711966
 20
474.48911162922519
 30
0.0
  0
VERTEX
  5
1785
  8
NEJI
 10
792.98253971196596
 20
474.48911162922519
 30
0.0
  0
VERTEX
  5
1786
  8
NEJI
 10
792.98253971196596
 20
465.98911162922519
 30
0.0
  0
VERTEX
  5
1787
  8
NEJI
 10
794.682539711966
 20
465.98911162922519
 30
0.0
  0
SEQEND
  5
1788
  8
NEJI
  0
POLYLINE
  5
1252
  8
NEJI
 66
     1
 10
0.0
 20
0.0
 30
0.0
 70
     1
  0
VERTEX
  5
1789
  8
NEJI
 10
792.98253971196596
 20
475.23911162922519
 30
0.0
  0
VERTEX
  5
178A
  8
NEJI
 10
791.98253971196607
 20
475.23911162922519
 30
0.0
  0
VERTEX
  5
178B
  8
NEJI
 10
791.98253971196607
 20
465.23911162922519
 30
0.0
  0
VERTEX
  5
178C
  8
NEJI
 10
792.98253971196596
 20
465.23911162922519
 30
0.0
  0
SEQEND
  5
178D
  8
NEJI
  0
LINE
  5
1256
  8
NEJI
 10
1114.662539711966
 20
538.60711162922496
 30
0.0
 11
1114.9985397119649
 21
539.42311162922522
 31
0.0
  0
LINE
  5
1257
  8
NEJI
 10
1113.366539711966
 20
539.42311162922545
 30
0.0
 11
1113.7025397119651
 21
538.60711162922541
 31
0.0
  0
CIRCLE
  5
1258
  8
NEJI
 10
1114.182539711966
 20
540.23911162922525
 30
0.0
 40
4.5
  0
CIRCLE
  5
1259
  8
NEJI
 10
1114.182539711966
 20
540.23911162922525
 30
0.0
 40
5.0
  0
LINE
  5
125A
  8
NEJI
 10
1114.662539711966
 20
537.8391116292247
 30
0.0
 11
1114.662539711966
 21
538.60711162922496
 31
0.0
  0
LINE
  5
125B
  8
NEJI
 10
1113.7025397119651
 20
538.60711162922541
 30
0.0
 11
1113.7025397119651
 21
537.83911162922516
 31
0.0
  0
LINE
  5
125C
  8
NEJI
 10
1113.7025397119651
 20
537.83911162922516
 30
0.0
 11
1114.662539711966
 21
537.8391116292247
 31
0.0
  0
LINE
  5
125D
  8
NEJI
 10
1116.5825397119661
 20
540.71911162922538
 30
0.0
 11
1115.8145397119649
 21
540.71911162922538
 31
0.0
  0
LINE
  5
125E
  8
NEJI
 10
1115.8145397119649
 20
539.75911162922455
 30
0.0
 11
1116.582539711965
 21
539.75911162922455
 31
0.0
  0
LINE
  5
125F
  8
NEJI
 10
1115.8145397119649
 20
540.71911162922538
 30
0.0
 11
1114.9985397119649
 21
541.05511162922505
 31
0.0
  0
LINE
  5
1260
  8
NEJI
 10
1114.9985397119649
 20
541.05511162922505
 30
0.0
 11
1114.662539711966
 21
541.8711116292252
 31
0.0
  0
LINE
  5
1261
  8
NEJI
 10
1114.662539711966
 20
541.8711116292252
 30
0.0
 11
1114.662539711966
 21
542.63911162922523
 31
0.0
  0
LINE
  5
1262
  8
NEJI
 10
1114.9985397119649
 20
539.42311162922522
 30
0.0
 11
1115.8145397119649
 21
539.75911162922455
 31
0.0
  0
LINE
  5
1263
  8
NEJI
 10
1112.5505397119659
 20
540.71911162922549
 30
0.0
 11
1111.7825397119659
 21
540.71911162922549
 31
0.0
  0
LINE
  5
1264
  8
NEJI
 10
1113.366539711966
 20
541.05511162922505
 30
0.0
 11
1112.5505397119659
 21
540.71911162922549
 31
0.0
  0
LINE
  5
1265
  8
NEJI
 10
1113.7025397119651
 20
541.8711116292252
 30
0.0
 11
1113.366539711966
 21
541.05511162922505
 31
0.0
  0
LINE
  5
1266
  8
NEJI
 10
1113.7025397119651
 20
542.63911162922545
 30
0.0
 11
1113.7025397119651
 21
541.8711116292252
 31
0.0
  0
LINE
  5
1267
  8
NEJI
 10
1112.5505397119659
 20
539.75911162922512
 30
0.0
 11
1113.366539711966
 21
539.42311162922545
 31
0.0
  0
LINE
  5
1268
  8
NEJI
 10
1111.782539711965
 20
539.75911162922512
 30
0.0
 11
1112.5505397119659
 21
539.75911162922512
 31
0.0
  0
LINE
  5
1269
  8
NEJI
 10
1111.7825397119659
 20
540.71911162922549
 30
0.0
 11
1111.782539711965
 21
539.75911162922512
 31
0.0
  0
LINE
  5
126A
  8
NEJI
 10
1113.7025397119651
 20
542.63911162922545
 30
0.0
 11
1114.662539711966
 21
542.63911162922523
 31
0.0
  0
LINE
  5
126B
  8
NEJI
 10
1116.5825397119661
 20
540.71911162922538
 30
0.0
 11
1116.582539711965
 21
539.75911162922455
 31
0.0
  0
LINE
  5
126D
  8
NEJI
 10
1114.662539711966
 20
468.60711162922502
 30
0.0
 11
1114.9985397119649
 21
469.42311162922522
 31
0.0
  0
LINE
  5
126E
  8
NEJI
 10
1113.366539711966
 20
469.42311162922539
 30
0.0
 11
1113.7025397119651
 21
468.60711162922541
 31
0.0
  0
CIRCLE
  5
126F
  8
NEJI
 10
1114.182539711966
 20
470.23911162922519
 30
0.0
 40
4.5
  0
CIRCLE
  5
1270
  8
NEJI
 10
1114.182539711966
 20
470.23911162922519
 30
0.0
 40
5.0
  0
LINE
  5
1271
  8
NEJI
 10
1114.662539711966
 20
467.8391116292247
 30
0.0
 11
1114.662539711966
 21
468.60711162922502
 31
0.0
  0
LINE
  5
1272
  8
NEJI
 10
1113.7025397119651
 20
468.60711162922541
 30
0.0
 11
1113.7025397119651
 21
467.83911162922521
 31
0.0
  0
LINE
  5
1273
  8
NEJI
 10
1113.7025397119651
 20
467.83911162922521
 30
0.0
 11
1114.662539711966
 21
467.8391116292247
 31
0.0
  0
LINE
  5
1274
  8
NEJI
 10
1116.5825397119661
 20
470.71911162922532
 30
0.0
 11
1115.8145397119649
 21
470.71911162922532
 31
0.0
  0
LINE
  5
1275
  8
NEJI
 10
1115.8145397119649
 20
469.75911162922472
 30
0.0
 11
1116.582539711965
 21
469.75911162922472
 31
0.0
  0
LINE
  5
1276
  8
NEJI
 10
1115.8145397119649
 20
470.71911162922532
 30
0.0
 11
1114.9985397119649
 21
471.055111629225
 31
0.0
  0
LINE
  5
1277
  8
NEJI
 10
1114.9985397119649
 20
471.055111629225
 30
0.0
 11
1114.662539711966
 21
471.8711116292252
 31
0.0
  0
LINE
  5
1278
  8
NEJI
 10
1114.662539711966
 20
471.8711116292252
 30
0.0
 11
1114.662539711966
 21
472.63911162922523
 31
0.0
  0
LINE
  5
1279
  8
NEJI
 10
1114.9985397119649
 20
469.42311162922522
 30
0.0
 11
1115.8145397119649
 21
469.75911162922472
 31
0.0
  0
LINE
  5
127A
  8
NEJI
 10
1112.5505397119659
 20
470.71911162922561
 30
0.0
 11
1111.7825397119659
 21
470.71911162922561
 31
0.0
  0
LINE
  5
127B
  8
NEJI
 10
1113.366539711966
 20
471.055111629225
 30
0.0
 11
1112.5505397119659
 21
470.71911162922561
 31
0.0
  0
LINE
  5
127C
  8
NEJI
 10
1113.7025397119651
 20
471.8711116292252
 30
0.0
 11
1113.366539711966
 21
471.055111629225
 31
0.0
  0
LINE
  5
127D
  8
NEJI
 10
1113.7025397119651
 20
472.63911162922551
 30
0.0
 11
1113.7025397119651
 21
471.8711116292252
 31
0.0
  0
LINE
  5
127E
  8
NEJI
 10
1112.5505397119659
 20
469.75911162922512
 30
0.0
 11
1113.366539711966
 21
469.42311162922539
 31
0.0
  0
LINE
  5
127F
  8
NEJI
 10
1111.782539711965
 20
469.75911162922512
 30
0.0
 11
1112.5505397119659
 21
469.75911162922512
 31
0.0
  0
LINE
  5
1280
  8
NEJI
 10
1111.7825397119659
 20
470.71911162922561
 30
0.0
 11
1111.782539711965
 21
469.75911162922512
 31
0.0
  0
LINE
  5
1281
  8
NEJI
 10
1113.7025397119651
 20
472.63911162922551
 30
0.0
 11
1114.662539711966
 21
472.63911162922523
 31
0.0
  0
LINE
  5
1282
  8
NEJI
 10
1116.5825397119661
 20
470.71911162922532
 30
0.0
 11
1116.582539711965
 21
469.75911162922472
 31
0.0
  0
CIRCLE
  5
1284
  8
NEJI
 10
1089.182539711966
 20
569.73911162922525
 30
0.0
 40
4.0
  0
LINE
  5
1285
  8
NEJI
 10
1091.232539711966
 20
570.14911162922533
 30
0.0
 11
1091.232539711965
 21
569.32911162922471
 31
0.0
  0
LINE
  5
1286
  8
NEJI
 10
1087.132539711966
 20
570.14911162922544
 30
0.0
 11
1087.132539711966
 21
569.32911162922505
 31
0.0
  0
LINE
  5
1287
  8
NEJI
 10
1087.132539711966
 20
569.32911162922505
 30
0.0
 11
1087.788539711966
 21
569.32911162922505
 31
0.0
  0
LINE
  5
1288
  8
NEJI
 10
1088.7725397119659
 20
571.78911162922543
 30
0.0
 11
1089.5925397119661
 21
571.7891116292252
 31
0.0
  0
LINE
  5
1289
  8
NEJI
 10
1088.7725397119659
 20
571.78911162922543
 30
0.0
 11
1088.7725397119659
 21
571.13311162922514
 31
0.0
  0
LINE
  5
128A
  8
NEJI
 10
1088.7725397119659
 20
571.13311162922514
 30
0.0
 11
1088.4855397119661
 21
570.43611162922502
 31
0.0
  0
LINE
  5
128B
  8
NEJI
 10
1088.4855397119661
 20
570.43611162922502
 30
0.0
 11
1087.788539711966
 21
570.14911162922544
 31
0.0
  0
LINE
  5
128C
  8
NEJI
 10
1087.788539711966
 20
570.14911162922544
 30
0.0
 11
1087.132539711966
 21
570.14911162922544
 31
0.0
  0
LINE
  5
128D
  8
NEJI
 10
1089.5925397119661
 20
571.13311162922514
 30
0.0
 11
1089.5925397119661
 21
571.7891116292252
 31
0.0
  0
LINE
  5
128E
  8
NEJI
 10
1089.8795397119659
 20
570.43611162922502
 30
0.0
 11
1089.5925397119661
 21
571.13311162922514
 31
0.0
  0
LINE
  5
128F
  8
NEJI
 10
1090.576539711966
 20
570.14911162922533
 30
0.0
 11
1089.8795397119659
 21
570.43611162922502
 31
0.0
  0
LINE
  5
1290
  8
NEJI
 10
1089.5925397119661
 20
568.34511162922513
 30
0.0
 11
1089.8795397119659
 21
569.04211162922513
 31
0.0
  0
LINE
  5
1291
  8
NEJI
 10
1088.4855397119661
 20
569.04211162922525
 30
0.0
 11
1088.772539711965
 21
568.34511162922524
 31
0.0
  0
LINE
  5
1292
  8
NEJI
 10
1088.772539711965
 20
567.68911162922507
 30
0.0
 11
1089.5925397119661
 21
567.68911162922473
 31
0.0
  0
LINE
  5
1293
  8
NEJI
 10
1089.5925397119661
 20
567.68911162922473
 30
0.0
 11
1089.5925397119661
 21
568.34511162922513
 31
0.0
  0
LINE
  5
1294
  8
NEJI
 10
1088.772539711965
 20
568.34511162922524
 30
0.0
 11
1088.772539711965
 21
567.68911162922507
 31
0.0
  0
LINE
  5
1295
  8
NEJI
 10
1089.8795397119659
 20
569.04211162922513
 30
0.0
 11
1090.576539711966
 21
569.32911162922471
 31
0.0
  0
LINE
  5
1296
  8
NEJI
 10
1087.788539711966
 20
569.32911162922505
 30
0.0
 11
1088.4855397119661
 21
569.04211162922525
 31
0.0
  0
LINE
  5
1297
  8
NEJI
 10
1090.576539711966
 20
569.32911162922471
 30
0.0
 11
1091.232539711965
 21
569.32911162922471
 31
0.0
  0
LINE
  5
1298
  8
NEJI
 10
1091.232539711966
 20
570.14911162922533
 30
0.0
 11
1090.576539711966
 21
570.14911162922533
 31
0.0
  0
LINE
  5
129A
  8
NEJI
 10
1129.788539711966
 20
569.32911162922505
 30
0.0
 11
1130.4855397119661
 21
569.04211162922525
 31
0.0
  0
LINE
  5
129B
  8
NEJI
 10
1130.772539711965
 20
568.34511162922524
 30
0.0
 11
1130.772539711965
 21
567.68911162922507
 31
0.0
  0
LINE
  5
129C
  8
NEJI
 10
1131.5925397119661
 20
567.68911162922473
 30
0.0
 11
1131.5925397119661
 21
568.34511162922513
 31
0.0
  0
LINE
  5
129D
  8
NEJI
 10
1130.772539711965
 20
567.68911162922507
 30
0.0
 11
1131.5925397119661
 21
567.68911162922473
 31
0.0
  0
LINE
  5
129E
  8
NEJI
 10
1130.4855397119661
 20
569.04211162922525
 30
0.0
 11
1130.772539711965
 21
568.34511162922524
 31
0.0
  0
LINE
  5
129F
  8
NEJI
 10
1131.5925397119661
 20
568.34511162922513
 30
0.0
 11
1131.8795397119659
 21
569.04211162922513
 31
0.0
  0
LINE
  5
12A0
  8
NEJI
 10
1131.8795397119659
 20
570.43611162922502
 30
0.0
 11
1131.5925397119661
 21
571.13311162922514
 31
0.0
  0
LINE
  5
12A1
  8
NEJI
 10
1131.5925397119661
 20
571.13311162922514
 30
0.0
 11
1131.5925397119661
 21
571.7891116292252
 31
0.0
  0
LINE
  5
12A2
  8
NEJI
 10
1129.788539711966
 20
570.14911162922544
 30
0.0
 11
1129.132539711966
 21
570.14911162922544
 31
0.0
  0
LINE
  5
12A3
  8
NEJI
 10
1130.4855397119661
 20
570.43611162922502
 30
0.0
 11
1129.788539711966
 21
570.14911162922544
 31
0.0
  0
LINE
  5
12A4
  8
NEJI
 10
1130.772539711965
 20
571.13311162922514
 30
0.0
 11
1130.4855397119661
 21
570.43611162922502
 31
0.0
  0
LINE
  5
12A5
  8
NEJI
 10
1130.772539711965
 20
571.78911162922543
 30
0.0
 11
1130.772539711965
 21
571.13311162922514
 31
0.0
  0
LINE
  5
12A6
  8
NEJI
 10
1130.772539711965
 20
571.78911162922543
 30
0.0
 11
1131.5925397119661
 21
571.7891116292252
 31
0.0
  0
LINE
  5
12A7
  8
NEJI
 10
1129.1325397119649
 20
569.32911162922505
 30
0.0
 11
1129.788539711966
 21
569.32911162922505
 31
0.0
  0
LINE
  5
12A8
  8
NEJI
 10
1129.132539711966
 20
570.14911162922544
 30
0.0
 11
1129.1325397119649
 21
569.32911162922505
 31
0.0
  0
LINE
  5
12A9
  8
NEJI
 10
1133.232539711966
 20
570.14911162922533
 30
0.0
 11
1133.232539711966
 21
569.32911162922471
 31
0.0
  0
LINE
  5
12AA
  8
NEJI
 10
1132.5765397119651
 20
570.14911162922533
 30
0.0
 11
1131.8795397119659
 21
570.43611162922502
 31
0.0
  0
LINE
  5
12AB
  8
NEJI
 10
1131.8795397119659
 20
569.04211162922513
 30
0.0
 11
1132.5765397119651
 21
569.32911162922471
 31
0.0
  0
LINE
  5
12AC
  8
NEJI
 10
1132.5765397119651
 20
569.32911162922471
 30
0.0
 11
1133.232539711966
 21
569.32911162922471
 31
0.0
  0
LINE
  5
12AD
  8
NEJI
 10
1133.232539711966
 20
570.14911162922533
 30
0.0
 11
1132.5765397119651
 21
570.14911162922533
 31
0.0
  0
CIRCLE
  5
12AE
  8
NEJI
 10
1131.1825397119651
 20
569.73911162922525
 30
0.0
 40
4.0
  0
CIRCLE
  5
12B0
  8
NEJI
 10
1131.1825397119651
 20
440.73911162922519
 30
0.0
 40
4.0
  0
LINE
  5
12B1
  8
NEJI
 10
1133.232539711966
 20
441.14911162922522
 30
0.0
 11
1132.5765397119651
 21
441.14911162922522
 31
0.0
  0
LINE
  5
12B2
  8
NEJI
 10
1132.5765397119651
 20
440.32911162922471
 30
0.0
 11
1133.232539711966
 21
440.32911162922471
 31
0.0
  0
LINE
  5
12B3
  8
NEJI
 10
1129.788539711966
 20
440.32911162922511
 30
0.0
 11
1130.4855397119661
 21
440.0421116292253
 31
0.0
  0
LINE
  5
12B4
  8
NEJI
 10
1131.8795397119659
 20
440.04211162922508
 30
0.0
 11
1132.5765397119651
 21
440.32911162922471
 31
0.0
  0
LINE
  5
12B5
  8
NEJI
 10
1130.772539711965
 20
439.3451116292253
 30
0.0
 11
1130.772539711965
 21
438.68911162922512
 31
0.0
  0
LINE
  5
12B6
  8
NEJI
 10
1131.5925397119661
 20
438.68911162922473
 30
0.0
 11
1131.5925397119661
 21
439.34511162922507
 31
0.0
  0
LINE
  5
12B7
  8
NEJI
 10
1130.772539711965
 20
438.68911162922512
 30
0.0
 11
1131.5925397119661
 21
438.68911162922473
 31
0.0
  0
LINE
  5
12B8
  8
NEJI
 10
1130.4855397119661
 20
440.0421116292253
 30
0.0
 11
1130.772539711965
 21
439.3451116292253
 31
0.0
  0
LINE
  5
12B9
  8
NEJI
 10
1131.5925397119661
 20
439.34511162922507
 30
0.0
 11
1131.8795397119659
 21
440.04211162922508
 31
0.0
  0
LINE
  5
12BA
  8
NEJI
 10
1132.5765397119651
 20
441.14911162922522
 30
0.0
 11
1131.8795397119659
 21
441.43611162922502
 31
0.0
  0
LINE
  5
12BB
  8
NEJI
 10
1131.8795397119659
 20
441.43611162922502
 30
0.0
 11
1131.5925397119661
 21
442.13311162922508
 31
0.0
  0
LINE
  5
12BC
  8
NEJI
 10
1131.5925397119661
 20
442.13311162922508
 30
0.0
 11
1131.5925397119661
 21
442.7891116292252
 31
0.0
  0
LINE
  5
12BD
  8
NEJI
 10
1129.788539711966
 20
441.1491116292255
 30
0.0
 11
1129.132539711966
 21
441.1491116292255
 31
0.0
  0
LINE
  5
12BE
  8
NEJI
 10
1130.4855397119661
 20
441.43611162922502
 30
0.0
 11
1129.788539711966
 21
441.1491116292255
 31
0.0
  0
LINE
  5
12BF
  8
NEJI
 10
1130.772539711965
 20
442.13311162922508
 30
0.0
 11
1130.4855397119661
 21
441.43611162922502
 31
0.0
  0
LINE
  5
12C0
  8
NEJI
 10
1130.772539711965
 20
442.78911162922537
 30
0.0
 11
1130.772539711965
 21
442.13311162922508
 31
0.0
  0
LINE
  5
12C1
  8
NEJI
 10
1130.772539711965
 20
442.78911162922537
 30
0.0
 11
1131.5925397119661
 21
442.7891116292252
 31
0.0
  0
LINE
  5
12C2
  8
NEJI
 10
1129.1325397119649
 20
440.32911162922511
 30
0.0
 11
1129.788539711966
 21
440.32911162922511
 31
0.0
  0
LINE
  5
12C3
  8
NEJI
 10
1129.132539711966
 20
441.1491116292255
 30
0.0
 11
1129.1325397119649
 21
440.32911162922511
 31
0.0
  0
LINE
  5
12C4
  8
NEJI
 10
1133.232539711966
 20
441.14911162922522
 30
0.0
 11
1133.232539711966
 21
440.32911162922471
 31
0.0
  0
CIRCLE
  5
12C6
  8
NEJI
 10
1089.182539711966
 20
440.73911162922519
 30
0.0
 40
4.0
  0
LINE
  5
12C7
  8
NEJI
 10
1091.232539711966
 20
441.14911162922522
 30
0.0
 11
1090.576539711966
 21
441.14911162922522
 31
0.0
  0
LINE
  5
12C8
  8
NEJI
 10
1090.576539711966
 20
440.32911162922471
 30
0.0
 11
1091.232539711965
 21
440.32911162922471
 31
0.0
  0
LINE
  5
12C9
  8
NEJI
 10
1087.788539711966
 20
440.32911162922511
 30
0.0
 11
1088.4855397119661
 21
440.0421116292253
 31
0.0
  0
LINE
  5
12CA
  8
NEJI
 10
1089.8795397119659
 20
440.04211162922508
 30
0.0
 11
1090.576539711966
 21
440.32911162922471
 31
0.0
  0
LINE
  5
12CB
  8
NEJI
 10
1088.772539711965
 20
439.3451116292253
 30
0.0
 11
1088.772539711965
 21
438.68911162922512
 31
0.0
  0
LINE
  5
12CC
  8
NEJI
 10
1089.5925397119661
 20
438.68911162922473
 30
0.0
 11
1089.5925397119661
 21
439.34511162922507
 31
0.0
  0
LINE
  5
12CD
  8
NEJI
 10
1088.772539711965
 20
438.68911162922512
 30
0.0
 11
1089.5925397119661
 21
438.68911162922473
 31
0.0
  0
LINE
  5
12CE
  8
NEJI
 10
1088.4855397119661
 20
440.0421116292253
 30
0.0
 11
1088.772539711965
 21
439.3451116292253
 31
0.0
  0
LINE
  5
12CF
  8
NEJI
 10
1089.5925397119661
 20
439.34511162922507
 30
0.0
 11
1089.8795397119659
 21
440.04211162922508
 31
0.0
  0
LINE
  5
12D0
  8
NEJI
 10
1090.576539711966
 20
441.14911162922522
 30
0.0
 11
1089.8795397119659
 21
441.43611162922502
 31
0.0
  0
LINE
  5
12D1
  8
NEJI
 10
1089.8795397119659
 20
441.43611162922502
 30
0.0
 11
1089.5925397119661
 21
442.13311162922508
 31
0.0
  0
LINE
  5
12D2
  8
NEJI
 10
1089.5925397119661
 20
442.13311162922508
 30
0.0
 11
1089.5925397119661
 21
442.7891116292252
 31
0.0
  0
LINE
  5
12D3
  8
NEJI
 10
1087.788539711966
 20
441.1491116292255
 30
0.0
 11
1087.132539711966
 21
441.1491116292255
 31
0.0
  0
LINE
  5
12D4
  8
NEJI
 10
1088.4855397119661
 20
441.43611162922502
 30
0.0
 11
1087.788539711966
 21
441.1491116292255
 31
0.0
  0
LINE
  5
12D5
  8
NEJI
 10
1088.7725397119659
 20
442.13311162922508
 30
0.0
 11
1088.4855397119661
 21
441.43611162922502
 31
0.0
  0
LINE
  5
12D6
  8
NEJI
 10
1088.7725397119659
 20
442.78911162922537
 30
0.0
 11
1088.7725397119659
 21
442.13311162922508
 31
0.0
  0
LINE
  5
12D7
  8
NEJI
 10
1088.7725397119659
 20
442.78911162922537
 30
0.0
 11
1089.5925397119661
 21
442.7891116292252
 31
0.0
  0
LINE
  5
12D8
  8
NEJI
 10
1087.132539711966
 20
440.32911162922511
 30
0.0
 11
1087.788539711966
 21
440.32911162922511
 31
0.0
  0
LINE
  5
12D9
  8
NEJI
 10
1087.132539711966
 20
441.1491116292255
 30
0.0
 11
1087.132539711966
 21
440.32911162922511
 31
0.0
  0
LINE
  5
12DA
  8
NEJI
 10
1091.232539711966
 20
441.14911162922522
 30
0.0
 11
1091.232539711965
 21
440.32911162922471
 31
0.0
  0
LINE
  5
12DD
  8
NEJI
 10
163.2910429180904
 20
192.8120368860717
 30
0.0
 11
164.682539711966
 21
192.73911162922519
 31
0.0
  0
LINE
  5
12DE
  8
NEJI
 10
164.682539711966
 20
201.73911162922519
 30
0.0
 11
163.2910429180904
 21
201.66618637237869
 31
0.0
  0
ARC
  5
12DF
  8
NEJI
 10
173.3825397119661
 20
197.23911162922519
 30
0.0
 40
12.00000000000006
 50
164.2140103589897
 51
195.78598964101019
  0
ARC
  5
12E0
  8
NEJI
 10
163.37478044807909
 20
200.06837911677141
 30
0.0
 40
1.6000000000000001
 50
93.000000000000526
 51
164.2140103589897
  0
ARC
  5
12E1
  8
NEJI
 10
163.37478044807909
 20
194.409844141679
 30
0.0
 40
1.6000000000000001
 50
195.78598964101019
 51
266.99999999999949
  0
LINE
  5
12E2
  8
NEJI
 10
164.682539711966
 20
192.73911162922519
 30
0.0
 11
164.682539711966
 21
201.73911162922519
 31
0.0
  0
POLYLINE
  5
12E3
  8
NEJI
 66
     1
 10
0.0
 20
0.0
 30
0.0
 70
     1
  0
VERTEX
  5
178E
  8
NEJI
 10
164.682539711966
 20
201.48911162922519
 30
0.0
  0
VERTEX
  5
178F
  8
NEJI
 10
166.38253971196599
 20
201.48911162922519
 30
0.0
  0
VERTEX
  5
1790
  8
NEJI
 10
166.38253971196599
 20
192.98911162922519
 30
0.0
  0
VERTEX
  5
1791
  8
NEJI
 10
164.682539711966
 20
192.98911162922519
 30
0.0
  0
SEQEND
  5
1792
  8
NEJI
  0
POLYLINE
  5
12E4
  8
NEJI
 66
     1
 10
0.0
 20
0.0
 30
0.0
 70
     1
  0
VERTEX
  5
1793
  8
NEJI
 10
166.38253971196599
 20
202.23911162922519
 30
0.0
  0
VERTEX
  5
1794
  8
NEJI
 10
167.38253971196599
 20
202.23911162922519
 30
0.0
  0
VERTEX
  5
1795
  8
NEJI
 10
167.38253971196599
 20
192.23911162922519
 30
0.0
  0
VERTEX
  5
1796
  8
NEJI
 10
166.38253971196599
 20
192.23911162922519
 30
0.0
  0
SEQEND
  5
1797
  8
NEJI
  0
LINE
  5
12E6
  8
NEJI
 10
796.07403650584149
 20
192.8120368860717
 30
0.0
 11
794.682539711966
 21
192.73911162922519
 31
0.0
  0
LINE
  5
12E7
  8
NEJI
 10
794.682539711966
 20
201.73911162922519
 30
0.0
 11
796.07403650584149
 21
201.66618637237869
 31
0.0
  0
ARC
  5
12E8
  8
NEJI
 10
785.98253971196596
 20
197.23911162922519
 30
0.0
 40
12.00000000000006
 50
344.2140103589897
 51
15.78598964101027
  0
ARC
  5
12E9
  8
NEJI
 10
795.99029897585285
 20
200.06837911677141
 30
0.0
 40
1.6000000000000001
 50
15.78598964101027
 51
86.999999999999488
  0
ARC
  5
12EA
  8
NEJI
 10
795.99029897585285
 20
194.409844141679
 30
0.0
 40
1.6000000000000001
 50
273.00000000000051
 51
344.2140103589897
  0
LINE
  5
12EB
  8
NEJI
 10
794.682539711966
 20
192.73911162922519
 30
0.0
 11
794.682539711966
 21
201.73911162922519
 31
0.0
  0
POLYLINE
  5
12EC
  8
NEJI
 66
     1
 10
0.0
 20
0.0
 30
0.0
 70
     1
  0
VERTEX
  5
1798
  8
NEJI
 10
794.682539711966
 20
201.48911162922519
 30
0.0
  0
VERTEX
  5
1799
  8
NEJI
 10
792.98253971196596
 20
201.48911162922519
 30
0.0
  0
VERTEX
  5
179A
  8
NEJI
 10
792.98253971196596
 20
192.98911162922519
 30
0.0
  0
VERTEX
  5
179B
  8
NEJI
 10
794.682539711966
 20
192.98911162922519
 30
0.0
  0
SEQEND
  5
179C
  8
NEJI
  0
POLYLINE
  5
12ED
  8
NEJI
 66
     1
 10
0.0
 20
0.0
 30
0.0
 70
     1
  0
VERTEX
  5
179D
  8
NEJI
 10
792.98253971196596
 20
202.23911162922519
 30
0.0
  0
VERTEX
  5
179E
  8
NEJI
 10
791.98253971196596
 20
202.23911162922519
 30
0.0
  0
VERTEX
  5
179F
  8
NEJI
 10
791.98253971196596
 20
192.23911162922519
 30
0.0
  0
VERTEX
  5
17A0
  8
NEJI
 10
792.98253971196596
 20
192.23911162922519
 30
0.0
  0
SEQEND
  5
17A1
  8
NEJI
  0
CIRCLE
  5
12EF
  8
NEJI
 10
774.682539711966
 20
215.23911162922519
 30
0.0
 40
4.0
  0
LINE
  5
12F0
  8
NEJI
 10
776.73253971196618
 20
215.6491116292253
 30
0.0
 11
776.07653971196589
 21
215.6491116292253
 31
0.0
  0
LINE
  5
12F1
  8
NEJI
 10
776.07653971196589
 20
214.82911162922471
 30
0.0
 11
776.73253971196596
 21
214.82911162922471
 31
0.0
  0
LINE
  5
12F2
  8
NEJI
 10
773.28853971196611
 20
214.82911162922511
 30
0.0
 11
773.98553971196611
 21
214.5421116292253
 31
0.0
  0
LINE
  5
12F3
  8
NEJI
 10
775.37953971196589
 20
214.5421116292251
 30
0.0
 11
776.07653971196589
 21
214.82911162922471
 31
0.0
  0
LINE
  5
12F4
  8
NEJI
 10
774.27253971196569
 20
213.8451116292253
 30
0.0
 11
774.27253971196569
 21
213.1891116292251
 31
0.0
  0
LINE
  5
12F5
  8
NEJI
 10
775.09253971196608
 20
213.1891116292247
 30
0.0
 11
775.09253971196608
 21
213.8451116292251
 31
0.0
  0
LINE
  5
12F6
  8
NEJI
 10
774.27253971196569
 20
213.1891116292251
 30
0.0
 11
775.09253971196608
 21
213.1891116292247
 31
0.0
  0
LINE
  5
12F7
  8
NEJI
 10
773.98553971196611
 20
214.5421116292253
 30
0.0
 11
774.27253971196569
 21
213.8451116292253
 31
0.0
  0
LINE
  5
12F8
  8
NEJI
 10
775.09253971196608
 20
213.8451116292251
 30
0.0
 11
775.37953971196589
 21
214.5421116292251
 31
0.0
  0
LINE
  5
12F9
  8
NEJI
 10
776.07653971196589
 20
215.6491116292253
 30
0.0
 11
775.37953971196589
 21
215.936111629225
 31
0.0
  0
LINE
  5
12FA
  8
NEJI
 10
775.37953971196589
 20
215.936111629225
 30
0.0
 11
775.0925397119662
 21
216.63311162922511
 31
0.0
  0
LINE
  5
12FB
  8
NEJI
 10
775.0925397119662
 20
216.63311162922511
 30
0.0
 11
775.0925397119662
 21
217.2891116292252
 31
0.0
  0
LINE
  5
12FC
  8
NEJI
 10
773.28853971196611
 20
215.6491116292255
 30
0.0
 11
772.63253971196605
 21
215.6491116292255
 31
0.0
  0
LINE
  5
12FD
  8
NEJI
 10
773.98553971196611
 20
215.936111629225
 30
0.0
 11
773.28853971196611
 21
215.6491116292255
 31
0.0
  0
LINE
  5
12FE
  8
NEJI
 10
774.27253971196592
 20
216.63311162922511
 30
0.0
 11
773.98553971196611
 21
215.936111629225
 31
0.0
  0
LINE
  5
12FF
  8
NEJI
 10
774.27253971196592
 20
217.2891116292254
 30
0.0
 11
774.27253971196592
 21
216.63311162922511
 31
0.0
  0
LINE
  5
1300
  8
NEJI
 10
774.27253971196592
 20
217.2891116292254
 30
0.0
 11
775.0925397119662
 21
217.2891116292252
 31
0.0
  0
LINE
  5
1301
  8
NEJI
 10
772.63253971196582
 20
214.82911162922511
 30
0.0
 11
773.28853971196611
 21
214.82911162922511
 31
0.0
  0
LINE
  5
1302
  8
NEJI
 10
772.63253971196605
 20
215.6491116292255
 30
0.0
 11
772.63253971196582
 21
214.82911162922511
 31
0.0
  0
LINE
  5
1303
  8
NEJI
 10
776.73253971196618
 20
215.6491116292253
 30
0.0
 11
776.73253971196596
 21
214.82911162922471
 31
0.0
  0
CIRCLE
  5
1305
  8
NEJI
 10
774.682539711966
 20
176.23911162922519
 30
0.0
 40
4.0
  0
LINE
  5
1306
  8
NEJI
 10
776.73253971196618
 20
176.6491116292253
 30
0.0
 11
776.07653971196589
 21
176.6491116292253
 31
0.0
  0
LINE
  5
1307
  8
NEJI
 10
776.07653971196589
 20
176.6491116292253
 30
0.0
 11
775.37953971196589
 21
176.936111629225
 31
0.0
  0
LINE
  5
1308
  8
NEJI
 10
775.37953971196589
 20
176.936111629225
 30
0.0
 11
775.0925397119662
 21
177.63311162922511
 31
0.0
  0
LINE
  5
1309
  8
NEJI
 10
775.0925397119662
 20
177.63311162922511
 30
0.0
 11
775.0925397119662
 21
178.2891116292252
 31
0.0
  0
LINE
  5
130A
  8
NEJI
 10
773.28853971196611
 20
176.6491116292255
 30
0.0
 11
772.63253971196605
 21
176.6491116292255
 31
0.0
  0
LINE
  5
130B
  8
NEJI
 10
773.98553971196611
 20
176.936111629225
 30
0.0
 11
773.28853971196611
 21
176.6491116292255
 31
0.0
  0
LINE
  5
130C
  8
NEJI
 10
774.27253971196592
 20
177.63311162922511
 30
0.0
 11
773.98553971196611
 21
176.936111629225
 31
0.0
  0
LINE
  5
130D
  8
NEJI
 10
774.27253971196592
 20
178.2891116292254
 30
0.0
 11
774.27253971196592
 21
177.63311162922511
 31
0.0
  0
LINE
  5
130E
  8
NEJI
 10
774.27253971196592
 20
178.2891116292254
 30
0.0
 11
775.0925397119662
 21
178.2891116292252
 31
0.0
  0
LINE
  5
130F
  8
NEJI
 10
772.63253971196582
 20
175.82911162922511
 30
0.0
 11
773.28853971196611
 21
175.82911162922511
 31
0.0
  0
LINE
  5
1310
  8
NEJI
 10
772.63253971196605
 20
176.6491116292255
 30
0.0
 11
772.63253971196582
 21
175.82911162922511
 31
0.0
  0
LINE
  5
1311
  8
NEJI
 10
776.73253971196618
 20
176.6491116292253
 30
0.0
 11
776.73253971196596
 21
175.82911162922471
 31
0.0
  0
LINE
  5
1312
  8
NEJI
 10
775.09253971196608
 20
174.8451116292251
 30
0.0
 11
775.37953971196589
 21
175.5421116292251
 31
0.0
  0
LINE
  5
1313
  8
NEJI
 10
773.98553971196611
 20
175.5421116292253
 30
0.0
 11
774.27253971196569
 21
174.8451116292253
 31
0.0
  0
LINE
  5
1314
  8
NEJI
 10
774.27253971196569
 20
174.1891116292251
 30
0.0
 11
775.09253971196608
 21
174.1891116292247
 31
0.0
  0
LINE
  5
1315
  8
NEJI
 10
775.09253971196608
 20
174.1891116292247
 30
0.0
 11
775.09253971196608
 21
174.8451116292251
 31
0.0
  0
LINE
  5
1316
  8
NEJI
 10
774.27253971196569
 20
174.8451116292253
 30
0.0
 11
774.27253971196569
 21
174.1891116292251
 31
0.0
  0
LINE
  5
1317
  8
NEJI
 10
775.37953971196589
 20
175.5421116292251
 30
0.0
 11
776.07653971196589
 21
175.82911162922471
 31
0.0
  0
LINE
  5
1318
  8
NEJI
 10
773.28853971196611
 20
175.82911162922511
 30
0.0
 11
773.98553971196611
 21
175.5421116292253
 31
0.0
  0
LINE
  5
1319
  8
NEJI
 10
776.07653971196589
 20
175.82911162922471
 30
0.0
 11
776.73253971196596
 21
175.82911162922471
 31
0.0
  0
LINE
  5
131B
  8
NEJI
 10
186.7325397119661
 20
176.6491116292253
 30
0.0
 11
186.07653971196581
 21
176.6491116292253
 31
0.0
  0
LINE
  5
131C
  8
NEJI
 10
186.07653971196581
 20
175.82911162922471
 30
0.0
 11
186.7325397119659
 21
175.82911162922471
 31
0.0
  0
LINE
  5
131D
  8
NEJI
 10
183.288539711966
 20
175.82911162922511
 30
0.0
 11
183.98553971196611
 21
175.5421116292253
 31
0.0
  0
LINE
  5
131E
  8
NEJI
 10
185.3795397119658
 20
175.5421116292251
 30
0.0
 11
186.07653971196581
 21
175.82911162922471
 31
0.0
  0
LINE
  5
131F
  8
NEJI
 10
184.27253971196561
 20
174.8451116292253
 30
0.0
 11
184.27253971196561
 21
174.1891116292251
 31
0.0
  0
LINE
  5
1320
  8
NEJI
 10
183.98553971196611
 20
175.5421116292253
 30
0.0
 11
184.27253971196561
 21
174.8451116292253
 31
0.0
  0
LINE
  5
1321
  8
NEJI
 10
185.092539711966
 20
174.8451116292251
 30
0.0
 11
185.3795397119658
 21
175.5421116292251
 31
0.0
  0
LINE
  5
1322
  8
NEJI
 10
186.07653971196581
 20
176.6491116292253
 30
0.0
 11
185.3795397119658
 21
176.936111629225
 31
0.0
  0
LINE
  5
1323
  8
NEJI
 10
185.3795397119658
 20
176.936111629225
 30
0.0
 11
185.09253971196631
 21
177.63311162922511
 31
0.0
  0
LINE
  5
1324
  8
NEJI
 10
185.09253971196631
 20
177.63311162922511
 30
0.0
 11
185.09253971196631
 21
178.2891116292252
 31
0.0
  0
LINE
  5
1325
  8
NEJI
 10
183.288539711966
 20
176.6491116292255
 30
0.0
 11
182.63253971196599
 21
176.6491116292255
 31
0.0
  0
LINE
  5
1326
  8
NEJI
 10
183.98553971196611
 20
176.936111629225
 30
0.0
 11
183.288539711966
 21
176.6491116292255
 31
0.0
  0
LINE
  5
1327
  8
NEJI
 10
184.27253971196589
 20
177.63311162922511
 30
0.0
 11
183.98553971196611
 21
176.936111629225
 31
0.0
  0
LINE
  5
1328
  8
NEJI
 10
184.27253971196589
 20
178.2891116292254
 30
0.0
 11
184.27253971196589
 21
177.63311162922511
 31
0.0
  0
LINE
  5
1329
  8
NEJI
 10
184.27253971196589
 20
178.2891116292254
 30
0.0
 11
185.09253971196631
 21
178.2891116292252
 31
0.0
  0
LINE
  5
132A
  8
NEJI
 10
182.63253971196579
 20
175.82911162922511
 30
0.0
 11
183.288539711966
 21
175.82911162922511
 31
0.0
  0
LINE
  5
132B
  8
NEJI
 10
182.63253971196599
 20
176.6491116292255
 30
0.0
 11
182.63253971196579
 21
175.82911162922511
 31
0.0
  0
LINE
  5
132C
  8
NEJI
 10
186.7325397119661
 20
176.6491116292253
 30
0.0
 11
186.7325397119659
 21
175.82911162922471
 31
0.0
  0
LINE
  5
132D
  8
NEJI
 10
185.092539711966
 20
174.1891116292247
 30
0.0
 11
185.092539711966
 21
174.8451116292251
 31
0.0
  0
LINE
  5
132E
  8
NEJI
 10
184.27253971196561
 20
174.1891116292251
 30
0.0
 11
185.092539711966
 21
174.1891116292247
 31
0.0
  0
CIRCLE
  5
132F
  8
NEJI
 10
184.68253971196589
 20
176.23911162922519
 30
0.0
 40
4.0
  0
CIRCLE
  5
1331
  8
NEJI
 10
184.68253971196589
 20
215.23911162922519
 30
0.0
 40
4.0
  0
LINE
  5
1332
  8
NEJI
 10
186.7325397119661
 20
215.6491116292253
 30
0.0
 11
186.07653971196581
 21
215.6491116292253
 31
0.0
  0
LINE
  5
1333
  8
NEJI
 10
186.07653971196581
 20
214.82911162922471
 30
0.0
 11
186.7325397119659
 21
214.82911162922471
 31
0.0
  0
LINE
  5
1334
  8
NEJI
 10
186.07653971196581
 20
215.6491116292253
 30
0.0
 11
185.3795397119658
 21
215.936111629225
 31
0.0
  0
LINE
  5
1335
  8
NEJI
 10
185.3795397119658
 20
215.936111629225
 30
0.0
 11
185.09253971196631
 21
216.63311162922511
 31
0.0
  0
LINE
  5
1336
  8
NEJI
 10
185.09253971196631
 20
216.63311162922511
 30
0.0
 11
185.09253971196631
 21
217.2891116292252
 31
0.0
  0
LINE
  5
1337
  8
NEJI
 10
183.288539711966
 20
215.6491116292255
 30
0.0
 11
182.63253971196599
 21
215.6491116292255
 31
0.0
  0
LINE
  5
1338
  8
NEJI
 10
183.98553971196611
 20
215.936111629225
 30
0.0
 11
183.288539711966
 21
215.6491116292255
 31
0.0
  0
LINE
  5
1339
  8
NEJI
 10
184.27253971196589
 20
216.63311162922511
 30
0.0
 11
183.98553971196611
 21
215.936111629225
 31
0.0
  0
LINE
  5
133A
  8
NEJI
 10
184.27253971196589
 20
217.2891116292254
 30
0.0
 11
184.27253971196589
 21
216.63311162922511
 31
0.0
  0
LINE
  5
133B
  8
NEJI
 10
184.27253971196589
 20
217.2891116292254
 30
0.0
 11
185.09253971196631
 21
217.2891116292252
 31
0.0
  0
LINE
  5
133C
  8
NEJI
 10
182.63253971196579
 20
214.82911162922511
 30
0.0
 11
183.288539711966
 21
214.82911162922511
 31
0.0
  0
LINE
  5
133D
  8
NEJI
 10
182.63253971196599
 20
215.6491116292255
 30
0.0
 11
182.63253971196579
 21
214.82911162922511
 31
0.0
  0
LINE
  5
133E
  8
NEJI
 10
186.7325397119661
 20
215.6491116292253
 30
0.0
 11
186.7325397119659
 21
214.82911162922471
 31
0.0
  0
LINE
  5
133F
  8
NEJI
 10
184.27253971196561
 20
213.1891116292251
 30
0.0
 11
185.092539711966
 21
213.1891116292247
 31
0.0
  0
LINE
  5
1340
  8
NEJI
 10
185.092539711966
 20
213.1891116292247
 30
0.0
 11
185.092539711966
 21
213.8451116292251
 31
0.0
  0
LINE
  5
1341
  8
NEJI
 10
185.092539711966
 20
213.8451116292251
 30
0.0
 11
185.3795397119658
 21
214.5421116292251
 31
0.0
  0
LINE
  5
1342
  8
NEJI
 10
183.98553971196611
 20
214.5421116292253
 30
0.0
 11
184.27253971196561
 21
213.8451116292253
 31
0.0
  0
LINE
  5
1343
  8
NEJI
 10
184.27253971196561
 20
213.8451116292253
 30
0.0
 11
184.27253971196561
 21
213.1891116292251
 31
0.0
  0
LINE
  5
1344
  8
NEJI
 10
185.3795397119658
 20
214.5421116292251
 30
0.0
 11
186.07653971196581
 21
214.82911162922471
 31
0.0
  0
LINE
  5
1345
  8
NEJI
 10
183.288539711966
 20
214.82911162922511
 30
0.0
 11
183.98553971196611
 21
214.5421116292253
 31
0.0
  0
CIRCLE
  5
1348
  8
NEJI
 10
460.182539711966
 20
212.23911162922519
 30
0.0
 40
3.149999999999999
  0
LINE
  5
1349
  8
NEJI
 10
459.83253971196581
 20
213.98911162922539
 30
0.0
 11
460.53253971196631
 21
213.98911162922519
 31
0.0
  0
LINE
  5
134A
  8
NEJI
 10
459.83253971196581
 20
213.98911162922539
 30
0.0
 11
459.83253971196581
 21
213.4291116292251
 31
0.0
  0
LINE
  5
134B
  8
NEJI
 10
459.83253971196581
 20
213.4291116292251
 30
0.0
 11
459.58753971196609
 21
212.83411162922511
 31
0.0
  0
LINE
  5
134C
  8
NEJI
 10
460.53253971196631
 20
213.4291116292251
 30
0.0
 11
460.53253971196631
 21
213.98911162922519
 31
0.0
  0
LINE
  5
134D
  8
NEJI
 10
460.77753971196591
 20
212.83411162922511
 30
0.0
 11
460.53253971196631
 21
213.4291116292251
 31
0.0
  0
LINE
  5
134E
  8
NEJI
 10
458.432539711966
 20
212.5891116292255
 30
0.0
 11
458.43253971196572
 21
211.8891116292252
 31
0.0
  0
LINE
  5
134F
  8
NEJI
 10
461.93253971196617
 20
212.5891116292253
 30
0.0
 11
461.93253971196589
 21
211.88911162922469
 31
0.0
  0
LINE
  5
1350
  8
NEJI
 10
459.83253971196581
 20
210.48911162922519
 30
0.0
 11
460.53253971196608
 21
210.48911162922491
 31
0.0
  0
LINE
  5
1351
  8
NEJI
 10
460.53253971196608
 20
210.48911162922491
 30
0.0
 11
460.53253971196608
 21
211.04911162922511
 31
0.0
  0
LINE
  5
1352
  8
NEJI
 10
460.53253971196608
 20
211.04911162922511
 30
0.0
 11
460.77753971196591
 21
211.64411162922519
 31
0.0
  0
LINE
  5
1353
  8
NEJI
 10
460.77753971196591
 20
211.64411162922519
 30
0.0
 11
461.37253971196589
 21
211.88911162922469
 31
0.0
  0
LINE
  5
1354
  8
NEJI
 10
461.37253971196589
 20
211.88911162922469
 30
0.0
 11
461.93253971196589
 21
211.88911162922469
 31
0.0
  0
LINE
  5
1355
  8
NEJI
 10
458.43253971196572
 20
211.8891116292252
 30
0.0
 11
458.992539711966
 21
211.8891116292252
 31
0.0
  0
LINE
  5
1356
  8
NEJI
 10
458.992539711966
 20
211.8891116292252
 30
0.0
 11
459.58753971196609
 21
211.64411162922539
 31
0.0
  0
LINE
  5
1357
  8
NEJI
 10
459.58753971196609
 20
211.64411162922539
 30
0.0
 11
459.83253971196581
 21
211.04911162922531
 31
0.0
  0
LINE
  5
1358
  8
NEJI
 10
459.83253971196581
 20
211.04911162922531
 30
0.0
 11
459.83253971196581
 21
210.48911162922519
 31
0.0
  0
LINE
  5
1359
  8
NEJI
 10
458.992539711966
 20
212.5891116292255
 30
0.0
 11
458.432539711966
 21
212.5891116292255
 31
0.0
  0
LINE
  5
135A
  8
NEJI
 10
461.93253971196617
 20
212.5891116292253
 30
0.0
 11
461.37253971196589
 21
212.5891116292253
 31
0.0
  0
LINE
  5
135B
  8
NEJI
 10
459.58753971196609
 20
212.83411162922511
 30
0.0
 11
458.992539711966
 21
212.5891116292255
 31
0.0
  0
LINE
  5
135C
  8
NEJI
 10
461.37253971196589
 20
212.5891116292253
 30
0.0
 11
460.77753971196591
 21
212.83411162922511
 31
0.0
  0
CIRCLE
  5
135E
  8
NEJI
 10
460.182539711966
 20
176.23911162922519
 30
0.0
 40
3.149999999999999
  0
LINE
  5
135F
  8
NEJI
 10
459.83253971196581
 20
177.98911162922539
 30
0.0
 11
460.53253971196631
 21
177.98911162922519
 31
0.0
  0
LINE
  5
1360
  8
NEJI
 10
459.83253971196581
 20
177.98911162922539
 30
0.0
 11
459.83253971196581
 21
177.4291116292251
 31
0.0
  0
LINE
  5
1361
  8
NEJI
 10
459.83253971196581
 20
177.4291116292251
 30
0.0
 11
459.58753971196609
 21
176.83411162922511
 31
0.0
  0
LINE
  5
1362
  8
NEJI
 10
460.53253971196631
 20
177.4291116292251
 30
0.0
 11
460.53253971196631
 21
177.98911162922519
 31
0.0
  0
LINE
  5
1363
  8
NEJI
 10
460.77753971196591
 20
176.83411162922511
 30
0.0
 11
460.53253971196631
 21
177.4291116292251
 31
0.0
  0
LINE
  5
1364
  8
NEJI
 10
458.432539711966
 20
176.58911162922541
 30
0.0
 11
458.43253971196572
 21
175.8891116292252
 31
0.0
  0
LINE
  5
1365
  8
NEJI
 10
461.93253971196617
 20
176.5891116292253
 30
0.0
 11
461.93253971196589
 21
175.88911162922469
 31
0.0
  0
LINE
  5
1366
  8
NEJI
 10
459.83253971196581
 20
174.48911162922519
 30
0.0
 11
460.53253971196608
 21
174.48911162922491
 31
0.0
  0
LINE
  5
1367
  8
NEJI
 10
460.53253971196608
 20
174.48911162922491
 30
0.0
 11
460.53253971196608
 21
175.04911162922519
 31
0.0
  0
LINE
  5
1368
  8
NEJI
 10
460.53253971196608
 20
175.04911162922519
 30
0.0
 11
460.77753971196591
 21
175.64411162922519
 31
0.0
  0
LINE
  5
1369
  8
NEJI
 10
460.77753971196591
 20
175.64411162922519
 30
0.0
 11
461.37253971196589
 21
175.88911162922469
 31
0.0
  0
LINE
  5
136A
  8
NEJI
 10
461.37253971196589
 20
175.88911162922469
 30
0.0
 11
461.93253971196589
 21
175.88911162922469
 31
0.0
  0
LINE
  5
136B
  8
NEJI
 10
458.43253971196572
 20
175.8891116292252
 30
0.0
 11
458.992539711966
 21
175.8891116292252
 31
0.0
  0
LINE
  5
136C
  8
NEJI
 10
458.992539711966
 20
175.8891116292252
 30
0.0
 11
459.58753971196609
 21
175.64411162922539
 31
0.0
  0
LINE
  5
136D
  8
NEJI
 10
459.58753971196609
 20
175.64411162922539
 30
0.0
 11
459.83253971196581
 21
175.04911162922531
 31
0.0
  0
LINE
  5
136E
  8
NEJI
 10
459.83253971196581
 20
175.04911162922531
 30
0.0
 11
459.83253971196581
 21
174.48911162922519
 31
0.0
  0
LINE
  5
136F
  8
NEJI
 10
458.992539711966
 20
176.58911162922541
 30
0.0
 11
458.432539711966
 21
176.58911162922541
 31
0.0
  0
LINE
  5
1370
  8
NEJI
 10
461.93253971196617
 20
176.5891116292253
 30
0.0
 11
461.37253971196589
 21
176.5891116292253
 31
0.0
  0
LINE
  5
1371
  8
NEJI
 10
459.58753971196609
 20
176.83411162922511
 30
0.0
 11
458.992539711966
 21
176.58911162922541
 31
0.0
  0
LINE
  5
1372
  8
NEJI
 10
461.37253971196589
 20
176.5891116292253
 30
0.0
 11
460.77753971196591
 21
176.83411162922511
 31
0.0
  0
CIRCLE
  5
1374
  8
NEJI
 10
577.182539711966
 20
176.23911162922519
 30
0.0
 40
3.149999999999999
  0
LINE
  5
1375
  8
NEJI
 10
576.83253971196575
 20
177.98911162922539
 30
0.0
 11
577.53253971196625
 21
177.98911162922519
 31
0.0
  0
LINE
  5
1376
  8
NEJI
 10
576.83253971196575
 20
177.98911162922539
 30
0.0
 11
576.83253971196575
 21
177.4291116292251
 31
0.0
  0
LINE
  5
1377
  8
NEJI
 10
576.83253971196575
 20
177.4291116292251
 30
0.0
 11
576.58753971196609
 21
176.83411162922511
 31
0.0
  0
LINE
  5
1378
  8
NEJI
 10
577.53253971196625
 20
177.4291116292251
 30
0.0
 11
577.53253971196625
 21
177.98911162922519
 31
0.0
  0
LINE
  5
1379
  8
NEJI
 10
577.7775397119658
 20
176.83411162922511
 30
0.0
 11
577.53253971196625
 21
177.4291116292251
 31
0.0
  0
LINE
  5
137A
  8
NEJI
 10
575.432539711966
 20
176.58911162922541
 30
0.0
 11
575.43253971196566
 21
175.8891116292252
 31
0.0
  0
LINE
  5
137B
  8
NEJI
 10
578.93253971196623
 20
176.5891116292253
 30
0.0
 11
578.932539711966
 21
175.88911162922469
 31
0.0
  0
LINE
  5
137C
  8
NEJI
 10
576.83253971196575
 20
174.48911162922519
 30
0.0
 11
577.53253971196614
 21
174.48911162922491
 31
0.0
  0
LINE
  5
137D
  8
NEJI
 10
577.53253971196614
 20
174.48911162922491
 30
0.0
 11
577.53253971196614
 21
175.04911162922519
 31
0.0
  0
LINE
  5
137E
  8
NEJI
 10
577.53253971196614
 20
175.04911162922519
 30
0.0
 11
577.7775397119658
 21
175.64411162922519
 31
0.0
  0
LINE
  5
137F
  8
NEJI
 10
577.7775397119658
 20
175.64411162922519
 30
0.0
 11
578.37253971196594
 21
175.88911162922469
 31
0.0
  0
LINE
  5
1380
  8
NEJI
 10
578.37253971196594
 20
175.88911162922469
 30
0.0
 11
578.932539711966
 21
175.88911162922469
 31
0.0
  0
LINE
  5
1381
  8
NEJI
 10
575.43253971196566
 20
175.8891116292252
 30
0.0
 11
575.99253971196595
 21
175.8891116292252
 31
0.0
  0
LINE
  5
1382
  8
NEJI
 10
575.99253971196595
 20
175.8891116292252
 30
0.0
 11
576.58753971196609
 21
175.64411162922539
 31
0.0
  0
LINE
  5
1383
  8
NEJI
 10
576.58753971196609
 20
175.64411162922539
 30
0.0
 11
576.83253971196575
 21
175.04911162922531
 31
0.0
  0
LINE
  5
1384
  8
NEJI
 10
576.83253971196575
 20
175.04911162922531
 30
0.0
 11
576.83253971196575
 21
174.48911162922519
 31
0.0
  0
LINE
  5
1385
  8
NEJI
 10
575.99253971196595
 20
176.58911162922541
 30
0.0
 11
575.432539711966
 21
176.58911162922541
 31
0.0
  0
LINE
  5
1386
  8
NEJI
 10
578.93253971196623
 20
176.5891116292253
 30
0.0
 11
578.37253971196594
 21
176.5891116292253
 31
0.0
  0
LINE
  5
1387
  8
NEJI
 10
576.58753971196609
 20
176.83411162922511
 30
0.0
 11
575.99253971196595
 21
176.58911162922541
 31
0.0
  0
LINE
  5
1388
  8
NEJI
 10
578.37253971196594
 20
176.5891116292253
 30
0.0
 11
577.7775397119658
 21
176.83411162922511
 31
0.0
  0
CIRCLE
  5
1389
  8
NEJI
 10
577.182539711966
 20
212.23911162922519
 30
0.0
 40
3.149999999999999
  0
LINE
  5
138A
  8
NEJI
 10
576.83253971196575
 20
213.98911162922539
 30
0.0
 11
577.53253971196625
 21
213.98911162922519
 31
0.0
  0
LINE
  5
138B
  8
NEJI
 10
576.83253971196575
 20
213.98911162922539
 30
0.0
 11
576.83253971196575
 21
213.4291116292251
 31
0.0
  0
LINE
  5
138C
  8
NEJI
 10
576.83253971196575
 20
213.4291116292251
 30
0.0
 11
576.58753971196609
 21
212.83411162922511
 31
0.0
  0
LINE
  5
138D
  8
NEJI
 10
577.53253971196625
 20
213.4291116292251
 30
0.0
 11
577.53253971196625
 21
213.98911162922519
 31
0.0
  0
LINE
  5
138E
  8
NEJI
 10
577.7775397119658
 20
212.83411162922511
 30
0.0
 11
577.53253971196625
 21
213.4291116292251
 31
0.0
  0
LINE
  5
138F
  8
NEJI
 10
575.432539711966
 20
212.5891116292255
 30
0.0
 11
575.43253971196566
 21
211.8891116292252
 31
0.0
  0
LINE
  5
1390
  8
NEJI
 10
578.93253971196623
 20
212.5891116292253
 30
0.0
 11
578.932539711966
 21
211.88911162922469
 31
0.0
  0
LINE
  5
1391
  8
NEJI
 10
576.83253971196575
 20
210.48911162922519
 30
0.0
 11
577.53253971196614
 21
210.48911162922491
 31
0.0
  0
LINE
  5
1392
  8
NEJI
 10
577.53253971196614
 20
210.48911162922491
 30
0.0
 11
577.53253971196614
 21
211.04911162922511
 31
0.0
  0
LINE
  5
1393
  8
NEJI
 10
577.53253971196614
 20
211.04911162922511
 30
0.0
 11
577.7775397119658
 21
211.64411162922519
 31
0.0
  0
LINE
  5
1394
  8
NEJI
 10
577.7775397119658
 20
211.64411162922519
 30
0.0
 11
578.37253971196594
 21
211.88911162922469
 31
0.0
  0
LINE
  5
1395
  8
NEJI
 10
578.37253971196594
 20
211.88911162922469
 30
0.0
 11
578.932539711966
 21
211.88911162922469
 31
0.0
  0
LINE
  5
1396
  8
NEJI
 10
575.43253971196566
 20
211.8891116292252
 30
0.0
 11
575.99253971196595
 21
211.8891116292252
 31
0.0
  0
LINE
  5
1397
  8
NEJI
 10
575.99253971196595
 20
211.8891116292252
 30
0.0
 11
576.58753971196609
 21
211.64411162922539
 31
0.0
  0
LINE
  5
1398
  8
NEJI
 10
576.58753971196609
 20
211.64411162922539
 30
0.0
 11
576.83253971196575
 21
211.04911162922531
 31
0.0
  0
LINE
  5
1399
  8
NEJI
 10
576.83253971196575
 20
211.04911162922531
 30
0.0
 11
576.83253971196575
 21
210.48911162922519
 31
0.0
  0
LINE
  5
139A
  8
NEJI
 10
575.99253971196595
 20
212.5891116292255
 30
0.0
 11
575.432539711966
 21
212.5891116292255
 31
0.0
  0
LINE
  5
139B
  8
NEJI
 10
578.93253971196623
 20
212.5891116292253
 30
0.0
 11
578.37253971196594
 21
212.5891116292253
 31
0.0
  0
LINE
  5
139C
  8
NEJI
 10
576.58753971196609
 20
212.83411162922511
 30
0.0
 11
575.99253971196595
 21
212.5891116292255
 31
0.0
  0
LINE
  5
139D
  8
NEJI
 10
578.37253971196594
 20
212.5891116292253
 30
0.0
 11
577.7775397119658
 21
212.83411162922511
 31
0.0
  0
CIRCLE
  5
13A0
  8
NEJI
 10
694.182539711966
 20
212.23911162922519
 30
0.0
 40
3.149999999999999
  0
LINE
  5
13A1
  8
NEJI
 10
693.83253971196575
 20
213.98911162922539
 30
0.0
 11
694.53253971196625
 21
213.98911162922519
 31
0.0
  0
LINE
  5
13A2
  8
NEJI
 10
693.83253971196575
 20
213.98911162922539
 30
0.0
 11
693.83253971196575
 21
213.4291116292251
 31
0.0
  0
LINE
  5
13A3
  8
NEJI
 10
694.53253971196625
 20
213.4291116292251
 30
0.0
 11
694.53253971196625
 21
213.98911162922519
 31
0.0
  0
CIRCLE
  5
13A4
  8
NEJI
 10
694.182539711966
 20
176.23911162922519
 30
0.0
 40
3.149999999999999
  0
LINE
  5
13A5
  8
NEJI
 10
693.83253971196575
 20
174.48911162922519
 30
0.0
 11
694.53253971196614
 21
174.48911162922491
 31
0.0
  0
LINE
  5
13A6
  8
NEJI
 10
694.53253971196614
 20
174.48911162922491
 30
0.0
 11
694.53253971196614
 21
175.04911162922519
 31
0.0
  0
LINE
  5
13A7
  8
NEJI
 10
693.83253971196575
 20
175.04911162922531
 30
0.0
 11
693.83253971196575
 21
174.48911162922519
 31
0.0
  0
LINE
  5
13A8
  8
NEJI
 10
695.37253971196594
 20
176.5891116292253
 30
0.0
 11
694.7775397119658
 21
176.83411162922511
 31
0.0
  0
LINE
  5
13A9
  8
NEJI
 10
693.58753971196609
 20
176.83411162922511
 30
0.0
 11
692.99253971196595
 21
176.58911162922541
 31
0.0
  0
LINE
  5
13AA
  8
NEJI
 10
695.93253971196623
 20
176.5891116292253
 30
0.0
 11
695.37253971196594
 21
176.5891116292253
 31
0.0
  0
LINE
  5
13AB
  8
NEJI
 10
692.99253971196595
 20
176.58911162922541
 30
0.0
 11
692.432539711966
 21
176.58911162922541
 31
0.0
  0
LINE
  5
13AC
  8
NEJI
 10
693.58753971196609
 20
175.64411162922539
 30
0.0
 11
693.83253971196575
 21
175.04911162922531
 31
0.0
  0
LINE
  5
13AD
  8
NEJI
 10
692.99253971196595
 20
175.8891116292252
 30
0.0
 11
693.58753971196609
 21
175.64411162922539
 31
0.0
  0
LINE
  5
13AE
  8
NEJI
 10
692.43253971196566
 20
175.8891116292252
 30
0.0
 11
692.99253971196595
 21
175.8891116292252
 31
0.0
  0
LINE
  5
13AF
  8
NEJI
 10
695.37253971196594
 20
175.88911162922469
 30
0.0
 11
695.932539711966
 21
175.88911162922469
 31
0.0
  0
LINE
  5
13B0
  8
NEJI
 10
694.7775397119658
 20
175.64411162922519
 30
0.0
 11
695.37253971196594
 21
175.88911162922469
 31
0.0
  0
LINE
  5
13B1
  8
NEJI
 10
694.53253971196614
 20
175.04911162922519
 30
0.0
 11
694.7775397119658
 21
175.64411162922519
 31
0.0
  0
LINE
  5
13B2
  8
NEJI
 10
695.93253971196623
 20
176.5891116292253
 30
0.0
 11
695.932539711966
 21
175.88911162922469
 31
0.0
  0
LINE
  5
13B3
  8
NEJI
 10
692.432539711966
 20
176.58911162922541
 30
0.0
 11
692.43253971196566
 21
175.8891116292252
 31
0.0
  0
LINE
  5
13B4
  8
NEJI
 10
694.7775397119658
 20
176.83411162922511
 30
0.0
 11
694.53253971196625
 21
177.4291116292251
 31
0.0
  0
LINE
  5
13B5
  8
NEJI
 10
694.53253971196625
 20
177.4291116292251
 30
0.0
 11
694.53253971196625
 21
177.98911162922519
 31
0.0
  0
LINE
  5
13B6
  8
NEJI
 10
693.83253971196575
 20
177.4291116292251
 30
0.0
 11
693.58753971196609
 21
176.83411162922511
 31
0.0
  0
LINE
  5
13B7
  8
NEJI
 10
693.83253971196575
 20
177.98911162922539
 30
0.0
 11
693.83253971196575
 21
177.4291116292251
 31
0.0
  0
LINE
  5
13B8
  8
NEJI
 10
693.83253971196575
 20
177.98911162922539
 30
0.0
 11
694.53253971196625
 21
177.98911162922519
 31
0.0
  0
LINE
  5
13B9
  8
NEJI
 10
695.37253971196594
 20
212.5891116292253
 30
0.0
 11
694.7775397119658
 21
212.83411162922511
 31
0.0
  0
LINE
  5
13BA
  8
NEJI
 10
693.58753971196609
 20
212.83411162922511
 30
0.0
 11
692.99253971196595
 21
212.5891116292255
 31
0.0
  0
LINE
  5
13BB
  8
NEJI
 10
695.93253971196623
 20
212.5891116292253
 30
0.0
 11
695.37253971196594
 21
212.5891116292253
 31
0.0
  0
LINE
  5
13BC
  8
NEJI
 10
692.99253971196595
 20
212.5891116292255
 30
0.0
 11
692.432539711966
 21
212.5891116292255
 31
0.0
  0
LINE
  5
13BD
  8
NEJI
 10
693.83253971196575
 20
211.04911162922531
 30
0.0
 11
693.83253971196575
 21
210.48911162922519
 31
0.0
  0
LINE
  5
13BE
  8
NEJI
 10
693.58753971196609
 20
211.64411162922539
 30
0.0
 11
693.83253971196575
 21
211.04911162922531
 31
0.0
  0
LINE
  5
13BF
  8
NEJI
 10
692.99253971196595
 20
211.8891116292252
 30
0.0
 11
693.58753971196609
 21
211.64411162922539
 31
0.0
  0
LINE
  5
13C0
  8
NEJI
 10
692.43253971196566
 20
211.8891116292252
 30
0.0
 11
692.99253971196595
 21
211.8891116292252
 31
0.0
  0
LINE
  5
13C1
  8
NEJI
 10
695.37253971196594
 20
211.88911162922469
 30
0.0
 11
695.932539711966
 21
211.88911162922469
 31
0.0
  0
LINE
  5
13C2
  8
NEJI
 10
694.7775397119658
 20
211.64411162922519
 30
0.0
 11
695.37253971196594
 21
211.88911162922469
 31
0.0
  0
LINE
  5
13C3
  8
NEJI
 10
694.53253971196614
 20
211.04911162922511
 30
0.0
 11
694.7775397119658
 21
211.64411162922519
 31
0.0
  0
LINE
  5
13C4
  8
NEJI
 10
694.53253971196614
 20
210.48911162922491
 30
0.0
 11
694.53253971196614
 21
211.04911162922511
 31
0.0
  0
LINE
  5
13C5
  8
NEJI
 10
693.83253971196575
 20
210.48911162922519
 30
0.0
 11
694.53253971196614
 21
210.48911162922491
 31
0.0
  0
LINE
  5
13C6
  8
NEJI
 10
695.93253971196623
 20
212.5891116292253
 30
0.0
 11
695.932539711966
 21
211.88911162922469
 31
0.0
  0
LINE
  5
13C7
  8
NEJI
 10
692.432539711966
 20
212.5891116292255
 30
0.0
 11
692.43253971196566
 21
211.8891116292252
 31
0.0
  0
LINE
  5
13C8
  8
NEJI
 10
694.7775397119658
 20
212.83411162922511
 30
0.0
 11
694.53253971196625
 21
213.4291116292251
 31
0.0
  0
LINE
  5
13C9
  8
NEJI
 10
693.83253971196575
 20
213.4291116292251
 30
0.0
 11
693.58753971196609
 21
212.83411162922511
 31
0.0
  0
CIRCLE
  5
13F1
  8
NEJI
 10
408.182539711966
 20
209.1391116292252
 30
0.0
 40
3.149999999999999
  0
LINE
  5
13F2
  8
NEJI
 10
407.83253971196592
 20
210.8891116292254
 30
0.0
 11
408.53253971196619
 21
210.8891116292252
 31
0.0
  0
LINE
  5
13F3
  8
NEJI
 10
407.83253971196592
 20
210.8891116292254
 30
0.0
 11
407.83253971196592
 21
210.32911162922511
 31
0.0
  0
LINE
  5
13F4
  8
NEJI
 10
407.83253971196592
 20
210.32911162922511
 30
0.0
 11
407.58753971196609
 21
209.73411162922511
 31
0.0
  0
LINE
  5
13F5
  8
NEJI
 10
408.53253971196619
 20
210.32911162922511
 30
0.0
 11
408.53253971196619
 21
210.8891116292252
 31
0.0
  0
LINE
  5
13F6
  8
NEJI
 10
408.7775397119658
 20
209.73411162922511
 30
0.0
 11
408.53253971196619
 21
210.32911162922511
 31
0.0
  0
LINE
  5
13F7
  8
NEJI
 10
406.432539711966
 20
209.48911162922539
 30
0.0
 11
406.43253971196577
 21
208.7891116292252
 31
0.0
  0
LINE
  5
13F8
  8
NEJI
 10
409.93253971196611
 20
209.48911162922531
 30
0.0
 11
409.932539711966
 21
208.78911162922469
 31
0.0
  0
LINE
  5
13F9
  8
NEJI
 10
407.83253971196569
 20
207.3891116292252
 30
0.0
 11
408.53253971196602
 21
207.3891116292248
 31
0.0
  0
LINE
  5
13FA
  8
NEJI
 10
408.53253971196602
 20
207.3891116292248
 30
0.0
 11
408.53253971196602
 21
207.94911162922509
 31
0.0
  0
LINE
  5
13FB
  8
NEJI
 10
408.53253971196602
 20
207.94911162922509
 30
0.0
 11
408.7775397119658
 21
208.5441116292252
 31
0.0
  0
LINE
  5
13FC
  8
NEJI
 10
408.7775397119658
 20
208.5441116292252
 30
0.0
 11
409.37253971196589
 21
208.78911162922469
 31
0.0
  0
LINE
  5
13FD
  8
NEJI
 10
409.37253971196589
 20
208.78911162922469
 30
0.0
 11
409.932539711966
 21
208.78911162922469
 31
0.0
  0
LINE
  5
13FE
  8
NEJI
 10
406.43253971196577
 20
208.7891116292252
 30
0.0
 11
406.992539711966
 21
208.7891116292252
 31
0.0
  0
LINE
  5
13FF
  8
NEJI
 10
406.992539711966
 20
208.7891116292252
 30
0.0
 11
407.58753971196609
 21
208.5441116292254
 31
0.0
  0
LINE
  5
1400
  8
NEJI
 10
407.58753971196609
 20
208.5441116292254
 30
0.0
 11
407.83253971196569
 21
207.9491116292252
 31
0.0
  0
LINE
  5
1401
  8
NEJI
 10
407.83253971196569
 20
207.9491116292252
 30
0.0
 11
407.83253971196569
 21
207.3891116292252
 31
0.0
  0
LINE
  5
1402
  8
NEJI
 10
406.992539711966
 20
209.48911162922539
 30
0.0
 11
406.432539711966
 21
209.48911162922539
 31
0.0
  0
LINE
  5
1403
  8
NEJI
 10
409.93253971196611
 20
209.48911162922531
 30
0.0
 11
409.37253971196589
 21
209.48911162922531
 31
0.0
  0
LINE
  5
1404
  8
NEJI
 10
407.58753971196609
 20
209.73411162922511
 30
0.0
 11
406.992539711966
 21
209.48911162922539
 31
0.0
  0
LINE
  5
1405
  8
NEJI
 10
409.37253971196589
 20
209.48911162922531
 30
0.0
 11
408.7775397119658
 21
209.73411162922511
 31
0.0
  0
CIRCLE
  5
1407
  8
NEJI
 10
408.182539711966
 20
179.1391116292252
 30
0.0
 40
3.149999999999999
  0
LINE
  5
1408
  8
NEJI
 10
407.83253971196592
 20
180.8891116292254
 30
0.0
 11
408.53253971196619
 21
180.8891116292252
 31
0.0
  0
LINE
  5
1409
  8
NEJI
 10
407.83253971196592
 20
180.8891116292254
 30
0.0
 11
407.83253971196592
 21
180.32911162922511
 31
0.0
  0
LINE
  5
140A
  8
NEJI
 10
407.83253971196592
 20
180.32911162922511
 30
0.0
 11
407.58753971196609
 21
179.73411162922511
 31
0.0
  0
LINE
  5
140B
  8
NEJI
 10
408.53253971196619
 20
180.32911162922511
 30
0.0
 11
408.53253971196619
 21
180.8891116292252
 31
0.0
  0
LINE
  5
140C
  8
NEJI
 10
408.7775397119658
 20
179.73411162922511
 30
0.0
 11
408.53253971196619
 21
180.32911162922511
 31
0.0
  0
LINE
  5
140D
  8
NEJI
 10
406.432539711966
 20
179.48911162922539
 30
0.0
 11
406.43253971196577
 21
178.7891116292252
 31
0.0
  0
LINE
  5
140E
  8
NEJI
 10
409.93253971196611
 20
179.48911162922531
 30
0.0
 11
409.932539711966
 21
178.78911162922469
 31
0.0
  0
LINE
  5
140F
  8
NEJI
 10
407.83253971196569
 20
177.3891116292252
 30
0.0
 11
408.53253971196602
 21
177.3891116292248
 31
0.0
  0
LINE
  5
1410
  8
NEJI
 10
408.53253971196602
 20
177.3891116292248
 30
0.0
 11
408.53253971196602
 21
177.94911162922509
 31
0.0
  0
LINE
  5
1411
  8
NEJI
 10
408.53253971196602
 20
177.94911162922509
 30
0.0
 11
408.7775397119658
 21
178.5441116292252
 31
0.0
  0
LINE
  5
1412
  8
NEJI
 10
408.7775397119658
 20
178.5441116292252
 30
0.0
 11
409.37253971196589
 21
178.78911162922469
 31
0.0
  0
LINE
  5
1413
  8
NEJI
 10
409.37253971196589
 20
178.78911162922469
 30
0.0
 11
409.932539711966
 21
178.78911162922469
 31
0.0
  0
LINE
  5
1414
  8
NEJI
 10
406.43253971196577
 20
178.7891116292252
 30
0.0
 11
406.992539711966
 21
178.7891116292252
 31
0.0
  0
LINE
  5
1415
  8
NEJI
 10
406.992539711966
 20
178.7891116292252
 30
0.0
 11
407.58753971196609
 21
178.5441116292254
 31
0.0
  0
LINE
  5
1416
  8
NEJI
 10
407.58753971196609
 20
178.5441116292254
 30
0.0
 11
407.83253971196569
 21
177.9491116292252
 31
0.0
  0
LINE
  5
1417
  8
NEJI
 10
407.83253971196569
 20
177.9491116292252
 30
0.0
 11
407.83253971196569
 21
177.3891116292252
 31
0.0
  0
LINE
  5
1418
  8
NEJI
 10
406.992539711966
 20
179.48911162922539
 30
0.0
 11
406.432539711966
 21
179.48911162922539
 31
0.0
  0
LINE
  5
1419
  8
NEJI
 10
409.93253971196611
 20
179.48911162922531
 30
0.0
 11
409.37253971196589
 21
179.48911162922531
 31
0.0
  0
LINE
  5
141A
  8
NEJI
 10
407.58753971196609
 20
179.73411162922511
 30
0.0
 11
406.992539711966
 21
179.48911162922539
 31
0.0
  0
LINE
  5
141B
  8
NEJI
 10
409.37253971196589
 20
179.48911162922531
 30
0.0
 11
408.7775397119658
 21
179.73411162922511
 31
0.0
  0
CIRCLE
  5
141D
  8
NEJI
 10
749.182539711966
 20
179.1391116292252
 30
0.0
 40
3.149999999999999
  0
LINE
  5
141E
  8
NEJI
 10
748.83253971196575
 20
180.8891116292254
 30
0.0
 11
749.53253971196625
 21
180.8891116292252
 31
0.0
  0
LINE
  5
141F
  8
NEJI
 10
748.83253971196575
 20
180.8891116292254
 30
0.0
 11
748.83253971196575
 21
180.32911162922511
 31
0.0
  0
LINE
  5
1420
  8
NEJI
 10
748.83253971196575
 20
180.32911162922511
 30
0.0
 11
748.5875397119662
 21
179.73411162922511
 31
0.0
  0
LINE
  5
1421
  8
NEJI
 10
749.53253971196625
 20
180.32911162922511
 30
0.0
 11
749.53253971196625
 21
180.8891116292252
 31
0.0
  0
LINE
  5
1422
  8
NEJI
 10
749.77753971196569
 20
179.73411162922511
 30
0.0
 11
749.53253971196625
 21
180.32911162922511
 31
0.0
  0
LINE
  5
1423
  8
NEJI
 10
747.432539711966
 20
179.48911162922539
 30
0.0
 11
747.43253971196566
 21
178.7891116292252
 31
0.0
  0
LINE
  5
1424
  8
NEJI
 10
750.93253971196623
 20
179.48911162922531
 30
0.0
 11
750.932539711966
 21
178.78911162922469
 31
0.0
  0
LINE
  5
1425
  8
NEJI
 10
748.83253971196575
 20
177.3891116292252
 30
0.0
 11
749.53253971196614
 21
177.3891116292248
 31
0.0
  0
LINE
  5
1426
  8
NEJI
 10
749.53253971196614
 20
177.3891116292248
 30
0.0
 11
749.53253971196614
 21
177.94911162922509
 31
0.0
  0
LINE
  5
1427
  8
NEJI
 10
749.53253971196614
 20
177.94911162922509
 30
0.0
 11
749.77753971196569
 21
178.5441116292252
 31
0.0
  0
LINE
  5
1428
  8
NEJI
 10
749.77753971196569
 20
178.5441116292252
 30
0.0
 11
750.37253971196594
 21
178.78911162922469
 31
0.0
  0
LINE
  5
1429
  8
NEJI
 10
750.37253971196594
 20
178.78911162922469
 30
0.0
 11
750.932539711966
 21
178.78911162922469
 31
0.0
  0
LINE
  5
142A
  8
NEJI
 10
747.43253971196566
 20
178.7891116292252
 30
0.0
 11
747.99253971196595
 21
178.7891116292252
 31
0.0
  0
LINE
  5
142B
  8
NEJI
 10
747.99253971196595
 20
178.7891116292252
 30
0.0
 11
748.5875397119662
 21
178.5441116292254
 31
0.0
  0
LINE
  5
142C
  8
NEJI
 10
748.5875397119662
 20
178.5441116292254
 30
0.0
 11
748.83253971196575
 21
177.9491116292252
 31
0.0
  0
LINE
  5
142D
  8
NEJI
 10
748.83253971196575
 20
177.9491116292252
 30
0.0
 11
748.83253971196575
 21
177.3891116292252
 31
0.0
  0
LINE
  5
142E
  8
NEJI
 10
747.99253971196595
 20
179.48911162922539
 30
0.0
 11
747.432539711966
 21
179.48911162922539
 31
0.0
  0
LINE
  5
142F
  8
NEJI
 10
750.93253971196623
 20
179.48911162922531
 30
0.0
 11
750.37253971196594
 21
179.48911162922531
 31
0.0
  0
LINE
  5
1430
  8
NEJI
 10
748.5875397119662
 20
179.73411162922511
 30
0.0
 11
747.99253971196595
 21
179.48911162922539
 31
0.0
  0
LINE
  5
1431
  8
NEJI
 10
750.37253971196594
 20
179.48911162922531
 30
0.0
 11
749.77753971196569
 21
179.73411162922511
 31
0.0
  0
CIRCLE
  5
1433
  8
NEJI
 10
749.182539711966
 20
209.1391116292252
 30
0.0
 40
3.149999999999999
  0
LINE
  5
1434
  8
NEJI
 10
748.83253971196575
 20
210.8891116292254
 30
0.0
 11
749.53253971196625
 21
210.8891116292252
 31
0.0
  0
LINE
  5
1435
  8
NEJI
 10
748.83253971196575
 20
210.8891116292254
 30
0.0
 11
748.83253971196575
 21
210.32911162922511
 31
0.0
  0
LINE
  5
1436
  8
NEJI
 10
748.83253971196575
 20
210.32911162922511
 30
0.0
 11
748.5875397119662
 21
209.73411162922511
 31
0.0
  0
LINE
  5
1437
  8
NEJI
 10
749.53253971196625
 20
210.32911162922511
 30
0.0
 11
749.53253971196625
 21
210.8891116292252
 31
0.0
  0
LINE
  5
1438
  8
NEJI
 10
749.77753971196569
 20
209.73411162922511
 30
0.0
 11
749.53253971196625
 21
210.32911162922511
 31
0.0
  0
LINE
  5
1439
  8
NEJI
 10
747.432539711966
 20
209.48911162922539
 30
0.0
 11
747.43253971196566
 21
208.7891116292252
 31
0.0
  0
LINE
  5
143A
  8
NEJI
 10
750.93253971196623
 20
209.48911162922531
 30
0.0
 11
750.932539711966
 21
208.78911162922469
 31
0.0
  0
LINE
  5
143B
  8
NEJI
 10
748.83253971196575
 20
207.3891116292252
 30
0.0
 11
749.53253971196614
 21
207.3891116292248
 31
0.0
  0
LINE
  5
143C
  8
NEJI
 10
749.53253971196614
 20
207.3891116292248
 30
0.0
 11
749.53253971196614
 21
207.94911162922509
 31
0.0
  0
LINE
  5
143D
  8
NEJI
 10
749.53253971196614
 20
207.94911162922509
 30
0.0
 11
749.77753971196569
 21
208.5441116292252
 31
0.0
  0
LINE
  5
143E
  8
NEJI
 10
749.77753971196569
 20
208.5441116292252
 30
0.0
 11
750.37253971196594
 21
208.78911162922469
 31
0.0
  0
LINE
  5
143F
  8
NEJI
 10
750.37253971196594
 20
208.78911162922469
 30
0.0
 11
750.932539711966
 21
208.78911162922469
 31
0.0
  0
LINE
  5
1440
  8
NEJI
 10
747.43253971196566
 20
208.7891116292252
 30
0.0
 11
747.99253971196595
 21
208.7891116292252
 31
0.0
  0
LINE
  5
1441
  8
NEJI
 10
747.99253971196595
 20
208.7891116292252
 30
0.0
 11
748.5875397119662
 21
208.5441116292254
 31
0.0
  0
LINE
  5
1442
  8
NEJI
 10
748.5875397119662
 20
208.5441116292254
 30
0.0
 11
748.83253971196575
 21
207.9491116292252
 31
0.0
  0
LINE
  5
1443
  8
NEJI
 10
748.83253971196575
 20
207.9491116292252
 30
0.0
 11
748.83253971196575
 21
207.3891116292252
 31
0.0
  0
LINE
  5
1444
  8
NEJI
 10
747.99253971196595
 20
209.48911162922539
 30
0.0
 11
747.432539711966
 21
209.48911162922539
 31
0.0
  0
LINE
  5
1445
  8
NEJI
 10
750.93253971196623
 20
209.48911162922531
 30
0.0
 11
750.37253971196594
 21
209.48911162922531
 31
0.0
  0
LINE
  5
1446
  8
NEJI
 10
748.5875397119662
 20
209.73411162922511
 30
0.0
 11
747.99253971196595
 21
209.48911162922539
 31
0.0
  0
LINE
  5
1447
  8
NEJI
 10
750.37253971196594
 20
209.48911162922531
 30
0.0
 11
749.77753971196569
 21
209.73411162922511
 31
0.0
  0
LINE
  5
144A
  8
NEJI
 10
751.90633582232442
 20
415.73911162922519
 30
0.0
 11
751.89041830730332
 21
415.43538734937738
 31
0.0
  0
LINE
  5
144B
  8
NEJI
 10
746.47466111662868
 20
415.43538734937738
 30
0.0
 11
746.45874360160747
 21
415.73911162922519
 31
0.0
  0
ARC
  5
144C
  8
NEJI
 10
749.182539711966
 20
421.23911162922548
 30
0.0
 40
7.0000000000002851
 50
253.4486324757805
 51
286.55136752421942
  0
ARC
  5
144D
  8
NEJI
 10
750.89178877254869
 20
415.48772330562042
 30
0.0
 40
1.0
 50
286.55136752421981
 51
357.00000000000102
  0
ARC
  5
144E
  8
NEJI
 10
747.47329065138319
 20
415.48772330562042
 30
0.0
 40
1.0
 50
182.99999999999889
 51
253.44863247577999
  0
ARC
  5
1455
  8
NEJI
 10
684.18253971196589
 20
421.23911162922548
 30
0.0
 40
7.0000000000002851
 50
253.4486324757805
 51
286.55136752421942
  0
LINE
  5
1456
  8
NEJI
 10
681.47466111662857
 20
415.43538734937738
 30
0.0
 11
681.45874360160758
 21
415.73911162922519
 31
0.0
  0
ARC
  5
1457
  8
NEJI
 10
682.47329065138319
 20
415.48772330562042
 30
0.0
 40
1.0
 50
182.99999999999889
 51
253.44863247577999
  0
LINE
  5
1458
  8
NEJI
 10
686.90633582232442
 20
415.73911162922519
 30
0.0
 11
686.89041830730332
 21
415.43538734937738
 31
0.0
  0
ARC
  5
1459
  8
NEJI
 10
685.89178877254858
 20
415.48772330562042
 30
0.0
 40
1.0
 50
286.55136752421981
 51
357.00000000000102
  0
ARC
  5
145B
  8
NEJI
 10
577.182539711966
 20
421.23911162922548
 30
0.0
 40
7.0000000000002851
 50
253.4486324757805
 51
286.55136752421942
  0
LINE
  5
145C
  8
NEJI
 10
574.47466111662857
 20
415.43538734937738
 30
0.0
 11
574.45874360160747
 21
415.73911162922519
 31
0.0
  0
ARC
  5
145D
  8
NEJI
 10
575.47329065138308
 20
415.48772330562042
 30
0.0
 40
1.0
 50
182.99999999999889
 51
253.44863247577999
  0
LINE
  5
145E
  8
NEJI
 10
579.90633582232442
 20
415.73911162922519
 30
0.0
 11
579.89041830730332
 21
415.43538734937738
 31
0.0
  0
ARC
  5
145F
  8
NEJI
 10
578.89178877254869
 20
415.48772330562042
 30
0.0
 40
1.0
 50
286.55136752421981
 51
357.00000000000102
  0
ARC
  5
1461
  8
NEJI
 10
461.89178877254858
 20
415.48772330562042
 30
0.0
 40
1.0
 50
286.55136752421981
 51
357.00000000000102
  0
ARC
  5
1462
  8
NEJI
 10
458.47329065138308
 20
415.48772330562042
 30
0.0
 40
1.0
 50
182.99999999999889
 51
253.44863247577999
  0
LINE
  5
1463
  8
NEJI
 10
457.47466111662862
 20
415.43538734937738
 30
0.0
 11
457.45874360160752
 21
415.73911162922519
 31
0.0
  0
ARC
  5
1464
  8
NEJI
 10
460.182539711966
 20
421.23911162922548
 30
0.0
 40
7.0000000000002851
 50
253.4486324757805
 51
286.55136752421942
  0
LINE
  5
1465
  8
NEJI
 10
462.90633582232442
 20
415.73911162922519
 30
0.0
 11
462.89041830730332
 21
415.43538734937738
 31
0.0
  0
ARC
  5
1467
  8
NEJI
 10
408.182539711966
 20
421.23911162922548
 30
0.0
 40
7.0000000000002851
 50
253.4486324757805
 51
286.55136752421942
  0
LINE
  5
1468
  8
NEJI
 10
405.47466111662868
 20
415.43538734937738
 30
0.0
 11
405.45874360160758
 21
415.73911162922519
 31
0.0
  0
ARC
  5
1469
  8
NEJI
 10
406.47329065138319
 20
415.48772330562042
 30
0.0
 40
1.0
 50
182.99999999999889
 51
253.44863247577999
  0
LINE
  5
146A
  8
NEJI
 10
410.90633582232431
 20
415.73911162922519
 30
0.0
 11
410.89041830730332
 21
415.43538734937738
 31
0.0
  0
ARC
  5
146B
  8
NEJI
 10
409.89178877254869
 20
415.48772330562042
 30
0.0
 40
1.0
 50
286.55136752421981
 51
357.00000000000102
  0
LINE
  5
146D
  8
_0-5_CPUぼ_ど
  6
CONTINUOUS
 62
     7
 10
686.55479748890525
 20
414.73911162922519
 30
0.0
 11
687.98253971196596
 21
414.73911162922519
 31
0.0
  0
ARC
  5
14E2
  8
NEJI
 10
1099.2825397119659
 20
421.23911162922548
 30
0.0
 40
7.0000000000002851
 50
253.4486324757805
 51
286.55136752421942
  0
LINE
  5
14E3
  8
NEJI
 10
1096.574661116628
 20
415.43538734937738
 30
0.0
 11
1096.5587436016069
 21
415.73911162922519
 31
0.0
  0
ARC
  5
14E4
  8
NEJI
 10
1097.5732906513831
 20
415.48772330562042
 30
0.0
 40
1.0
 50
182.99999999999889
 51
253.44863247577999
  0
LINE
  5
14E5
  8
NEJI
 10
1102.006335822324
 20
415.73911162922519
 30
0.0
 11
1101.9904183073029
 21
415.43538734937738
 31
0.0
  0
ARC
  5
14E6
  8
NEJI
 10
1100.991788772548
 20
415.48772330562042
 30
0.0
 40
1.0
 50
286.55136752421981
 51
357.00000000000102
  0
ARC
  5
14E8
  8
NEJI
 10
1129.282539711965
 20
421.23911162922548
 30
0.0
 40
7.0000000000002851
 50
253.4486324757805
 51
286.55136752421942
  0
LINE
  5
14E9
  8
NEJI
 10
1126.574661116628
 20
415.43538734937738
 30
0.0
 11
1126.5587436016069
 21
415.73911162922519
 31
0.0
  0
ARC
  5
14EA
  8
NEJI
 10
1127.573290651382
 20
415.48772330562042
 30
0.0
 40
1.0
 50
182.99999999999889
 51
253.44863247577999
  0
LINE
  5
14EB
  8
NEJI
 10
1132.006335822324
 20
415.73911162922519
 30
0.0
 11
1131.9904183073029
 21
415.43538734937738
 31
0.0
  0
ARC
  5
14EC
  8
NEJI
 10
1130.991788772548
 20
415.48772330562042
 30
0.0
 40
1.0
 50
286.55136752421981
 51
357.00000000000102
  0
ARC
  5
151D
  8
NEJI
 10
1096.1825397119651
 20
421.23911162922548
 30
0.0
 40
7.0000000000002851
 50
253.4486324757805
 51
282.79295372694821
  0
LINE
  5
151E
  8
NEJI
 10
1093.4746611166281
 20
415.43538734937738
 30
0.0
 11
1093.458743601607
 21
415.73911162922519
 31
0.0
  0
ARC
  5
151F
  8
NEJI
 10
1094.4732906513821
 20
415.48772330562042
 30
0.0
 40
1.0
 50
182.99999999999889
 51
253.44863247577999
  0
ARC
  5
1523
  8
NEJI
 10
1132.1825397119651
 20
421.23911162922548
 30
0.0
 40
7.0000000000002851
 50
258.04503129181001
 51
286.55136752421942
  0
LINE
  5
1526
  8
NEJI
 10
1134.9063358223241
 20
415.73911162922519
 30
0.0
 11
1134.8904183073021
 21
415.43538734937738
 31
0.0
  0
ARC
  5
1527
  8
NEJI
 10
1133.8917887725479
 20
415.48772330562042
 30
0.0
 40
1.0
 50
286.55136752421981
 51
357.00000000000102
  0
DIMENSION
  5
1565
  8
MEASURE
  2
*D17
 10
1028.682539711966
 20
470.23911162922519
 30
0.0
 11
1021.932539711966
 21
505.23911162922542
 31
0.0
 70
     0
 13
1114.182539711966
 23
540.23911162922525
 33
0.0
 14
1114.182539711966
 24
470.23911162922519
 34
0.0
 50
90.0
  0
DIMENSION
  5
1595
  8
MEASURE
  2
*D18
 10
1146.6825397119651
 20
657.73911162922525
 30
0.0
 11
1130.432539711966
 21
664.48911162922525
 31
0.0
 70
     0
 13
1114.182539711966
 23
540.23911162922525
 33
0.0
 14
1146.6825397119651
 24
594.73911162922525
 34
0.0
  0
LINE
  5
15F0
  8
CENTER
 10
1055.682539711966
 20
505.23911162922519
 30
0.0
 11
1161.6825397119651
 21
505.23911162922519
 31
0.0
  0
DIMENSION
  5
1627
  8
MEASURE
  2
*D19
 10
818.21555839067685
 20
537.06138196750305
 30
0.0
 11
872.33123093942856
 21
636.73911162922536
 31
0.0
 70
   131
 15
821.14952103325481
 25
543.41684129094722
 35
0.0
 40
0.0
1001
ACAD
1000
DSTYLE
1002
{
1070
    74
1070
     1
1002
}
  0
DIMENSION
  5
164E
  8
MEASURE
  2
*D20
 10
1146.6825397119651
 20
342.73911162922519
 30
0.0
 11
1130.182539711966
 21
349.48911162922519
 31
0.0
 70
     0
 13
1113.682539711966
 23
384.73911162922519
 33
0.0
 14
1146.6825397119651
 24
415.73911162922519
 34
0.0
  0
POLYLINE
  8
MEASURE
  5
17A4
  66
     1
 10
0.000000
 20
0.000000
 30
0.000000
  70
     8
  0
VERTEX
  8
MEASURE
  5
17A5
 10
1112.40
 20
465.569
 30
0.000000
  70
    32
  0
VERTEX
  8
MEASURE
  5
17A6
 10
1065.45
 20
342.739
 30
0.000000
  70
    32
  0
VERTEX
  8
MEASURE
  5
17A7
 10
1057.95
 20
342.739
 30
0.000000
  70
    32
  0
SEQEND
  8
MEASURE
  5
17A8
  0
TEXT
  5
165C
  8
MEASURE
 62
     2
 10
981.24655612086906
 20
344.23911162922519
 30
0.0
 40
10.5
  1
ネジ深さ 8mm
 41
0.8
  7
AD-STANDARD
  0
VIEWPORT
  5
168A
 67
     1
  8
0
 10
206.9041748046875
 20
145.3409149646759
 30
0.0
 40
444.52750805664061
 41
364.78752207534632
 68
     1
 69
     1
1001
ACAD
1000
MVIEW
1002
{
1070
    16
1010
0.0
1020
0.0
1030
0.0
1010
0.0
1020
0.0
1030
1.0
1040
0.0
1040
364.78752207534632
1040
206.9041748046875
1040
145.3409149646759
1040
50.0
1040
0.0
1040
0.0
1070
     0
1070
   100
1070
     1
1070
     1
1070
     0
1070
     0
1070
     0
1070
     0
1040
0.0
1040
0.0
1040
0.0
1040
10.0
1040
10.0
1040
10.0
1040
10.0
1070
     0
1002
{
1002
}
1002
}
  0
VIEWPORT
  5
168C
 67
     1
  8
DEFPOINTS
 10
206.49999999999989
 20
145.0
 30
0.0
 40
407.0
 41
284.0
 68
     2
 69
     2
1001
ACAD
1000
MVIEW
1002
{
1070
    16
1010
0.0
1020
0.0
1030
0.0
1010
0.0
1020
0.0
1030
1.0
1040
0.0
1040
851.99999980968209
1040
639.44906221080214
1040
454.84318354561259
1040
50.0
1040
0.0
1040
0.0
1070
     0
1070
   100
1070
     1
1070
     0
1070
     0
1070
     0
1070
     0
1070
     1
1040
0.0
1040
0.0
1040
0.0
1040
168.0
1040
168.0
1040
0.0
1040
0.0
1070
     0
1002
{
1002
}
1002
}
  0
ENDSEC
  0
EOF
