  0
SECTION
  2
HEADER
  9
$ACADVER
  1
AC1015
  9
$ACADMAINTVER
 70
    20
  9
$DWGCODEPAGE
  3
ANSI_932
  9
$INSBASE
 10
0.0
 20
0.0
 30
0.0
  9
$EXTMIN
 10
-312.3949983991884
 20
26.28033167686158
 30
0.0
  9
$EXTMAX
 10
439.2027698807672
 20
466.6831079908468
 30
0.0
  9
$LIMMIN
 10
0.0
 20
0.0
  9
$LIMMAX
 10
805.18
 20
582.4199999999998
  9
$ORTHOMODE
 70
     1
  9
$REGENMODE
 70
     1
  9
$FILLMODE
 70
     1
  9
$QTEXTMODE
 70
     0
  9
$MIRRTEXT
 70
     1
  9
$LTSCALE
 40
0.2
  9
$ATTMODE
 70
     1
  9
$TEXTSIZE
 40
84.17508417508415
  9
$TRACEWID
 40
1.0
  9
$TEXTSTYLE
  7
STANDARD
  9
$CLAYER
  8
0
  9
$CELTYPE
  6
BYLAYER
  9
$CECOLOR
 62
   256
  9
$CELTSCALE
 40
1.0
  9
$DISPSILH
 70
     0
  9
$DIMSCALE
 40
1.0
  9
$DIMASZ
 40
0.18
  9
$DIMEXO
 40
0.0625
  9
$DIMDLI
 40
0.38
  9
$DIMRND
 40
0.0
  9
$DIMDLE
 40
0.0
  9
$DIMEXE
 40
0.18
  9
$DIMTP
 40
0.0
  9
$DIMTM
 40
0.0
  9
$DIMTXT
 40
0.18
  9
$DIMCEN
 40
0.09
  9
$DIMTSZ
 40
0.0
  9
$DIMTOL
 70
     0
  9
$DIMLIM
 70
     0
  9
$DIMTIH
 70
     1
  9
$DIMTOH
 70
     1
  9
$DIMSE1
 70
     0
  9
$DIMSE2
 70
     0
  9
$DIMTAD
 70
     0
  9
$DIMZIN
 70
     0
  9
$DIMBLK
  1

  9
$DIMASO
 70
     1
  9
$DIMSHO
 70
     1
  9
$DIMPOST
  1

  9
$DIMAPOST
  1

  9
$DIMALT
 70
     0
  9
$DIMALTD
 70
     2
  9
$DIMALTF
 40
25.4
  9
$DIMLFAC
 40
1.0
  9
$DIMTOFL
 70
     0
  9
$DIMTVP
 40
0.0
  9
$DIMTIX
 70
     0
  9
$DIMSOXD
 70
     0
  9
$DIMSAH
 70
     0
  9
$DIMBLK1
  1

  9
$DIMBLK2
  1

  9
$DIMSTYLE
  2
Standard
  9
$DIMCLRD
 70
     0
  9
$DIMCLRE
 70
     0
  9
$DIMCLRT
 70
     0
  9
$DIMTFAC
 40
1.0
  9
$DIMGAP
 40
0.09
  9
$DIMJUST
 70
     0
  9
$DIMSD1
 70
     0
  9
$DIMSD2
 70
     0
  9
$DIMTOLJ
 70
     1
  9
$DIMTZIN
 70
     0
  9
$DIMALTZ
 70
     0
  9
$DIMALTTZ
 70
     0
  9
$DIMUPT
 70
     0
  9
$DIMDEC
 70
     4
  9
$DIMTDEC
 70
     4
  9
$DIMALTU
 70
     2
  9
$DIMALTTD
 70
     2
  9
$DIMTXSTY
  7
STANDARD
  9
$DIMAUNIT
 70
     0
  9
$DIMADEC
 70
     0
  9
$DIMALTRND
 40
0.0
  9
$DIMAZIN
 70
     0
  9
$DIMDSEP
 70
    46
  9
$DIMATFIT
 70
     3
  9
$DIMFRAC
 70
     0
  9
$DIMLDRBLK
  1

  9
$DIMLUNIT
 70
     2
  9
$DIMLWD
 70
    -2
  9
$DIMLWE
 70
    -2
  9
$DIMTMOVE
 70
     0
  9
$LUNITS
 70
     2
  9
$LUPREC
 70
     4
  9
$SKETCHINC
 40
1.0
  9
$FILLETRAD
 40
0.0
  9
$AUNITS
 70
     0
  9
$AUPREC
 70
     0
  9
$MENU
  1
.
  9
$ELEVATION
 40
0.0
  9
$PELEVATION
 40
0.0
  9
$THICKNESS
 40
0.0
  9
$LIMCHECK
 70
     0
  9
$CHAMFERA
 40
0.5
  9
$CHAMFERB
 40
0.5
  9
$CHAMFERC
 40
673.4006734006732
  9
$CHAMFERD
 40
0.0
  9
$SKPOLY
 70
     0
  9
$TDCREATE
 40
2454335.402547176
  9
$TDUCREATE
 40
2454335.027547176
  9
$TDUPDATE
 40
2459613.607142477
  9
$TDUUPDATE
 40
2459613.232142477
  9
$TDINDWG
 40
0.0127127662
  9
$TDUSRTIMER
 40
0.0127125810
  9
$USRTIMER
 70
     1
  9
$ANGBASE
 50
0.0
  9
$ANGDIR
 70
     0
  9
$PDMODE
 70
     0
  9
$PDSIZE
 40
0.0
  9
$PLINEWID
 40
0.0
  9
$SPLFRAME
 70
     0
  9
$SPLINETYPE
 70
     6
  9
$SPLINESEGS
 70
     8
  9
$HANDSEED
  5
CC97
  9
$SURFTAB1
 70
     6
  9
$SURFTAB2
 70
     6
  9
$SURFTYPE
 70
     6
  9
$SURFU
 70
     6
  9
$SURFV
 70
     6
  9
$UCSBASE
  2

  9
$UCSNAME
  2

  9
$UCSORG
 10
0.0
 20
0.0
 30
0.0
  9
$UCSXDIR
 10
1.0
 20
0.0
 30
0.0
  9
$UCSYDIR
 10
0.0
 20
1.0
 30
0.0
  9
$UCSORTHOREF
  2

  9
$UCSORTHOVIEW
 70
     0
  9
$UCSORGTOP
 10
0.0
 20
0.0
 30
0.0
  9
$UCSORGBOTTOM
 10
0.0
 20
0.0
 30
0.0
  9
$UCSORGLEFT
 10
0.0
 20
0.0
 30
0.0
  9
$UCSORGRIGHT
 10
0.0
 20
0.0
 30
0.0
  9
$UCSORGFRONT
 10
0.0
 20
0.0
 30
0.0
  9
$UCSORGBACK
 10
0.0
 20
0.0
 30
0.0
  9
$PUCSBASE
  2

  9
$PUCSNAME
  2

  9
$PUCSORG
 10
0.0
 20
0.0
 30
0.0
  9
$PUCSXDIR
 10
1.0
 20
0.0
 30
0.0
  9
$PUCSYDIR
 10
0.0
 20
1.0
 30
0.0
  9
$PUCSORTHOREF
  2

  9
$PUCSORTHOVIEW
 70
     0
  9
$PUCSORGTOP
 10
0.0
 20
0.0
 30
0.0
  9
$PUCSORGBOTTOM
 10
0.0
 20
0.0
 30
0.0
  9
$PUCSORGLEFT
 10
0.0
 20
0.0
 30
0.0
  9
$PUCSORGRIGHT
 10
0.0
 20
0.0
 30
0.0
  9
$PUCSORGFRONT
 10
0.0
 20
0.0
 30
0.0
  9
$PUCSORGBACK
 10
0.0
 20
0.0
 30
0.0
  9
$USERI1
 70
     0
  9
$USERI2
 70
     0
  9
$USERI3
 70
     0
  9
$USERI4
 70
     0
  9
$USERI5
 70
     0
  9
$USERR1
 40
0.0
  9
$USERR2
 40
0.0
  9
$USERR3
 40
0.0
  9
$USERR4
 40
0.0
  9
$USERR5
 40
0.0
  9
$WORLDVIEW
 70
     1
  9
$SHADEDGE
 70
     3
  9
$SHADEDIF
 70
    70
  9
$TILEMODE
 70
     1
  9
$MAXACTVP
 70
    16
  9
$PINSBASE
 10
0.0
 20
0.0
 30
0.0
  9
$PLIMCHECK
 70
     0
  9
$PEXTMIN
 10
-5.025663325127425
 20
-5.018126058413372
 30
-0.0015258207003583
  9
$PEXTMAX
 10
836.0256672413388
 20
589.0181288244414
 30
0.0000000349246037
  9
$PLIMMIN
 10
-4.995361328125
 20
-4.995333194732666
  9
$PLIMMAX
 10
835.9139404296875
 20
588.9413123130797
  9
$UNITMODE
 70
     0
  9
$VISRETAIN
 70
     0
  9
$PLINEGEN
 70
     0
  9
$PSLTSCALE
 70
     1
  9
$TREEDEPTH
 70
  3020
  9
$CMLSTYLE
  2
STANDARD
  9
$CMLJUST
 70
     0
  9
$CMLSCALE
 40
1.0
  9
$PROXYGRAPHICS
 70
     1
  9
$MEASUREMENT
 70
     1
  9
$CELWEIGHT
370
    -1
  9
$ENDCAPS
280
     0
  9
$JOINSTYLE
280
     0
  9
$LWDISPLAY
290
     0
  9
$INSUNITS
 70
     0
  9
$HYPERLINKBASE
  1

  9
$STYLESHEET
  1

  9
$XEDIT
290
     1
  9
$CEPSNTYPE
380
     0
  9
$PSTYLEMODE
290
     1
  9
$FINGERPRINTGUID
  2
{FDA89352-16A5-4EE1-BCBC-38D07C76043D}
  9
$VERSIONGUID
  2
{745A0731-172D-4DE1-A6FE-B21111F0B708}
  9
$EXTNAMES
290
     1
  9
$PSVPSCALE
 40
0.0
  9
$OLESTARTUP
290
     0
  0
ENDSEC
  0
SECTION
  2
CLASSES
  0
CLASS
  1
ACDBDICTIONARYWDFLT
  2
AcDbDictionaryWithDefault
  3
ObjectDBX Classes
 90
        0
280
     0
281
     0
  0
CLASS
  1
ACDBPLACEHOLDER
  2
AcDbPlaceHolder
  3
ObjectDBX Classes
 90
        0
280
     0
281
     0
  0
CLASS
  1
LAYOUT
  2
AcDbLayout
  3
ObjectDBX Classes
 90
        0
280
     0
281
     0
  0
CLASS
  1
PLOTSETTINGS
  2
AcDbPlotSettings
  3
ObjectDBX Classes
 90
        0
280
     0
281
     0
  0
CLASS
  1
DICTIONARYVAR
  2
AcDbDictionaryVar
  3
ObjectDBX Classes
 90
        0
280
     0
281
     0
  0
CLASS
  1
TABLESTYLE
  2
AcDbTableStyle
  3
ObjectDBX Classes
 90
     4095
280
     0
281
     0
  0
CLASS
  1
SORTENTSTABLE
  2
AcDbSortentsTable
  3
ObjectDBX Classes
 90
        0
280
     0
281
     0
  0
CLASS
  1
DIMASSOC
  2
AcDbDimAssoc
  3
"AcDbDimAssoc|Product Desc:     AcDim ARX App For Dimension|Company:          Autodesk, Inc.|WEB Address:      www.autodesk.com"
 90
    32768
280
     0
281
     0
  0
CLASS
  1
MATERIAL
  2
AcDbMaterial
  3
ObjectDBX Classes
 90
     1153
280
     0
281
     0
  0
CLASS
  1
VISUALSTYLE
  2
AcDbVisualStyle
  3
ObjectDBX Classes
 90
     4095
280
     0
281
     0
  0
CLASS
  1
SCALE
  2
AcDbScale
  3
ObjectDBX Classes
 90
     1153
280
     0
281
     0
  0
CLASS
  1
MLEADERSTYLE
  2
AcDbMLeaderStyle
  3
ACDB_MLEADERSTYLE_CLASS
 90
     4095
280
     0
281
     0
  0
CLASS
  1
CELLSTYLEMAP
  2
AcDbCellStyleMap
  3
ObjectDBX Classes
 90
     1152
280
     0
281
     0
  0
ENDSEC
  0
SECTION
  2
TABLES
  0
TABLE
  2
VPORT
  5
8
102
{ACAD_XDICTIONARY
360
C8F3
102
}
330
0
100
AcDbSymbolTable
 70
     1
  0
VPORT
  5
BF65
330
8
100
AcDbSymbolTableRecord
100
AcDbViewportTableRecord
  2
*Active
 70
     0
 10
0.0
 20
0.0
 11
1.0
 21
1.0
 12
63.41551752014879
 22
246.4638358376524
 13
0.0
 23
0.0
 14
168.0
 24
168.0
 15
0.0
 25
0.0
 16
0.0
 26
0.0
 36
1.0
 17
0.0
 27
0.0
 37
0.0
 40
460.6567828252391
 41
1.638095238095238
 42
50.0
 43
0.0
 44
0.0
 50
0.0
 51
0.0
 71
     0
 72
   100
 73
     1
 74
     0
 75
     0
 76
     0
 77
     0
 78
     1
281
     0
 65
     1
110
0.0
120
0.0
130
0.0
111
1.0
121
0.0
131
0.0
112
0.0
122
1.0
132
0.0
 79
     0
146
0.0
  0
ENDTAB
  0
TABLE
  2
LTYPE
  5
5
330
0
100
AcDbSymbolTable
 70
     5
  0
LTYPE
  5
14
330
5
100
AcDbSymbolTableRecord
100
AcDbLinetypeTableRecord
  2
BYBLOCK
 70
     0
  3

 72
    65
 73
     0
 40
0.0
  0
LTYPE
  5
15
330
5
100
AcDbSymbolTableRecord
100
AcDbLinetypeTableRecord
  2
BYLAYER
 70
     0
  3

 72
    65
 73
     0
 40
0.0
  0
LTYPE
  5
16
330
5
100
AcDbSymbolTableRecord
100
AcDbLinetypeTableRecord
  2
CONTINUOUS
 70
     0
  3
Solid line
 72
    65
 73
     0
 40
0.0
  0
LTYPE
  5
205B
330
5
100
AcDbSymbolTableRecord
100
AcDbLinetypeTableRecord
  2
CENTER
 70
     0
  3
Center ____ _ ____ _ ____ _ ____ _ ____ _ ____
 72
    65
 73
     4
 40
50.8
 49
31.75
 74
     0
 49
-6.349999999999998
 74
     0
 49
6.349999999999998
 74
     0
 49
-6.349999999999998
 74
     0
  0
LTYPE
  5
A43A
330
5
100
AcDbSymbolTableRecord
100
AcDbLinetypeTableRecord
  2
HIDDEN
 70
     0
  3
Hidden __ __ __ __ __ __ __ __ __ __ __ __ __ _
 72
    65
 73
     2
 40
9.524999999999996
 49
6.349999999999998
 74
     0
 49
-3.174999999999998
 74
     0
  0
ENDTAB
  0
TABLE
  2
LAYER
  5
2
102
{ACAD_XDICTIONARY
360
4C3C
102
}
330
0
100
AcDbSymbolTable
 70
     7
  0
LAYER
  5
F
102
{ACAD_XDICTIONARY
360
C8E3
102
}
330
2
100
AcDbSymbolTableRecord
100
AcDbLayerTableRecord
  2
0
 70
     0
 62
     7
  6
CONTINUOUS
370
    -3
390
2DB
  0
LAYER
  5
72
330
2
100
AcDbSymbolTableRecord
100
AcDbLayerTableRecord
  2
DEFPOINTS
 70
     0
 62
     7
  6
CONTINUOUS
290
     0
370
    -3
390
2DB
  0
LAYER
  5
ABDA
102
{ACAD_XDICTIONARY
360
C8EB
102
}
330
2
100
AcDbSymbolTableRecord
100
AcDbLayerTableRecord
  2
MEASURE
 70
     0
 62
     8
  6
CONTINUOUS
370
    -3
390
2DB
  0
ENDTAB
  0
TABLE
  2
STYLE
  5
3
330
0
100
AcDbSymbolTable
 70
     8
  0
STYLE
  5
10
330
3
100
AcDbSymbolTableRecord
100
AcDbTextStyleTableRecord
  2
STANDARD
 70
     0
 40
0.0
 41
0.8
 50
0.0
 71
     0
 42
84.17508417508415
  3
TXT
  4
bigfont.shx
  0
STYLE
  5
63
330
3
100
AcDbSymbolTableRecord
100
AcDbTextStyleTableRecord
  2
AD-STANDARD
 70
     0
 40
0.0
 41
0.8
 50
0.0
 71
     0
 42
3.5
  3
C:\Program Files\AutoCAD LT\romans.shx
  4
bigfont.shx
  0
ENDTAB
  0
TABLE
  2
VIEW
  5
6
330
0
100
AcDbSymbolTable
 70
     3
  0
ENDTAB
  0
TABLE
  2
UCS
  5
7
330
0
100
AcDbSymbolTable
 70
     0
  0
ENDTAB
  0
TABLE
  2
APPID
  5
9
330
0
100
AcDbSymbolTable
 70
     9
  0
APPID
  5
11
330
9
100
AcDbSymbolTableRecord
100
AcDbRegAppTableRecord
  2
ACAD
 70
     0
  0
APPID
  5
22A
330
9
100
AcDbSymbolTableRecord
100
AcDbRegAppTableRecord
  2
CONTENTTABDATA
 70
     0
  0
APPID
  5
22B
330
9
100
AcDbSymbolTableRecord
100
AcDbRegAppTableRecord
  2
CONTENTCURRENTTAB
 70
     0
  0
APPID
  5
232
330
9
100
AcDbSymbolTableRecord
100
AcDbRegAppTableRecord
  2
CONTENTBLOCKDESCRIPTION
 70
     0
  0
APPID
  5
233
330
9
100
AcDbSymbolTableRecord
100
AcDbRegAppTableRecord
  2
CONTENTBLOCKICON
 70
     0
  0
APPID
  5
6108
330
9
100
AcDbSymbolTableRecord
100
AcDbRegAppTableRecord
  2
ACAD_PSEXT
 70
     0
  0
APPID
  5
A039
330
9
100
AcDbSymbolTableRecord
100
AcDbRegAppTableRecord
  2
ACAD_DSTYLE_DIMTEXT_FILL
 70
     0
  0
APPID
  5
ABDE
330
9
100
AcDbSymbolTableRecord
100
AcDbRegAppTableRecord
  2
AcAecLayerStandard
 70
     0
  0
APPID
  5
BFB4
330
9
100
AcDbSymbolTableRecord
100
AcDbRegAppTableRecord
  2
ACAD_MLEADERVER
 70
     0
  0
ENDTAB
  0
TABLE
  2
DIMSTYLE
  5
A
330
0
100
AcDbSymbolTable
 70
    18
100
AcDbDimStyleTable
 71
     1
340
ABDC
  0
DIMSTYLE
105
ABDC
330
A
100
AcDbSymbolTableRecord
100
AcDbDimStyleTableRecord
  2
Standard
 70
     0
340
10
  0
DIMSTYLE
105
ABDD
102
{ACAD_REACTORS
330
C684
330
C685
330
C686
330
C687
330
C688
330
C689
330
C68A
330
C68B
330
C68C
330
C68D
330
C68E
330
C68F
330
C690
330
C691
330
C692
330
C69E
330
C69F
330
C6A0
330
C6A1
330
C6A2
330
C6A3
330
C6A4
330
C6A5
330
C6A6
330
C6A7
330
C6A8
330
C6AB
102
}
330
A
100
AcDbSymbolTableRecord
100
AcDbDimStyleTableRecord
  2
AD-STANDARD
 70
     0
 41
2.5
 42
1.0
 43
8.0
 44
2.0
 47
0.1
 48
0.1000000001
 73
     0
 74
     0
 77
     1
 78
     8
 79
     2
140
3.5
141
-2.0
146
0.7
147
1.0
171
     4
172
     1
176
     8
177
     8
178
     2
179
     4
274
     4
284
     8
285
     8
286
     8
289
     0
340
63
  0
ENDTAB
  0
TABLE
  2
BLOCK_RECORD
  5
1
330
0
100
AcDbSymbolTable
 70
    39
  0
BLOCK_RECORD
  5
1A
102
{ACAD_XDICTIONARY
360
6129
102
}
330
1
100
AcDbSymbolTableRecord
100
AcDbBlockTableRecord
  2
*MODEL_SPACE
340
2DE
  0
BLOCK_RECORD
  5
4698
330
1
100
AcDbSymbolTableRecord
100
AcDbBlockTableRecord
  2
*Paper_Space
340
4697
  0
BLOCK_RECORD
  5
C6AC
330
1
100
AcDbSymbolTableRecord
100
AcDbBlockTableRecord
  2
*D11
340
0
  0
BLOCK_RECORD
  5
C6B8
330
1
100
AcDbSymbolTableRecord
100
AcDbBlockTableRecord
  2
*D12
340
0
  0
BLOCK_RECORD
  5
C6C4
330
1
100
AcDbSymbolTableRecord
100
AcDbBlockTableRecord
  2
*D13
340
0
  0
BLOCK_RECORD
  5
C6D0
330
1
100
AcDbSymbolTableRecord
100
AcDbBlockTableRecord
  2
*D14
340
0
  0
BLOCK_RECORD
  5
C6DC
330
1
100
AcDbSymbolTableRecord
100
AcDbBlockTableRecord
  2
*D15
340
0
  0
BLOCK_RECORD
  5
C6E8
330
1
100
AcDbSymbolTableRecord
100
AcDbBlockTableRecord
  2
*D16
340
0
  0
BLOCK_RECORD
  5
C6F4
330
1
100
AcDbSymbolTableRecord
100
AcDbBlockTableRecord
  2
*D17
340
0
  0
BLOCK_RECORD
  5
C700
330
1
100
AcDbSymbolTableRecord
100
AcDbBlockTableRecord
  2
*D18
340
0
  0
BLOCK_RECORD
  5
C70C
330
1
100
AcDbSymbolTableRecord
100
AcDbBlockTableRecord
  2
*D19
340
0
  0
BLOCK_RECORD
  5
C718
330
1
100
AcDbSymbolTableRecord
100
AcDbBlockTableRecord
  2
*D20
340
0
  0
BLOCK_RECORD
  5
C724
330
1
100
AcDbSymbolTableRecord
100
AcDbBlockTableRecord
  2
*D21
340
0
  0
BLOCK_RECORD
  5
C730
330
1
100
AcDbSymbolTableRecord
100
AcDbBlockTableRecord
  2
*D22
340
0
  0
BLOCK_RECORD
  5
C73C
330
1
100
AcDbSymbolTableRecord
100
AcDbBlockTableRecord
  2
*D23
340
0
  0
BLOCK_RECORD
  5
C748
330
1
100
AcDbSymbolTableRecord
100
AcDbBlockTableRecord
  2
*D24
340
0
  0
BLOCK_RECORD
  5
C754
330
1
100
AcDbSymbolTableRecord
100
AcDbBlockTableRecord
  2
*D25
340
0
  0
BLOCK_RECORD
  5
C760
330
1
100
AcDbSymbolTableRecord
100
AcDbBlockTableRecord
  2
*D26
340
0
  0
BLOCK_RECORD
  5
C76C
330
1
100
AcDbSymbolTableRecord
100
AcDbBlockTableRecord
  2
*D27
340
0
  0
BLOCK_RECORD
  5
C778
330
1
100
AcDbSymbolTableRecord
100
AcDbBlockTableRecord
  2
*D28
340
0
  0
BLOCK_RECORD
  5
C784
330
1
100
AcDbSymbolTableRecord
100
AcDbBlockTableRecord
  2
*D29
340
0
  0
BLOCK_RECORD
  5
C790
330
1
100
AcDbSymbolTableRecord
100
AcDbBlockTableRecord
  2
*D30
340
0
  0
BLOCK_RECORD
  5
C79C
330
1
100
AcDbSymbolTableRecord
100
AcDbBlockTableRecord
  2
*D31
340
0
  0
BLOCK_RECORD
  5
C7A8
330
1
100
AcDbSymbolTableRecord
100
AcDbBlockTableRecord
  2
*D32
340
0
  0
BLOCK_RECORD
  5
C7B4
330
1
100
AcDbSymbolTableRecord
100
AcDbBlockTableRecord
  2
*D33
340
0
  0
BLOCK_RECORD
  5
C7C0
330
1
100
AcDbSymbolTableRecord
100
AcDbBlockTableRecord
  2
*D34
340
0
  0
BLOCK_RECORD
  5
C7CC
330
1
100
AcDbSymbolTableRecord
100
AcDbBlockTableRecord
  2
*D35
340
0
  0
BLOCK_RECORD
  5
C7D8
330
1
100
AcDbSymbolTableRecord
100
AcDbBlockTableRecord
  2
*D36
340
0
  0
BLOCK_RECORD
  5
C7E4
330
1
100
AcDbSymbolTableRecord
100
AcDbBlockTableRecord
  2
*D37
340
0
  0
ENDTAB
  0
ENDSEC
  0
SECTION
  2
BLOCKS
  0
BLOCK
  5
1B
330
1A
100
AcDbEntity
  8
0
100
AcDbBlockBegin
  2
*MODEL_SPACE
 70
     0
 10
0.0
 20
0.0
 30
0.0
  3
*MODEL_SPACE
  1

  0
ENDBLK
  5
1C
330
1A
100
AcDbEntity
  8
0
100
AcDbBlockEnd
  0
BLOCK
  5
4746
330
4698
100
AcDbEntity
 67
     1
  8
0
100
AcDbBlockBegin
  2
*Paper_Space
 70
     0
 10
0.0
 20
0.0
 30
0.0
  3
*Paper_Space
  1

  0
ENDBLK
  5
4747
330
4698
100
AcDbEntity
 67
     1
  8
0
100
AcDbBlockEnd
  0
BLOCK
  5
C6AD
330
C6AC
100
AcDbEntity
  8
0
100
AcDbBlockBegin
  2
*D11
 70
     1
 10
0.0
 20
0.0
 30
0.0
  3
*D11
  1

  0
LINE
  5
CC32
330
C6AC
100
AcDbEntity
  8
MEASURE
 62
     8
370
    -2
100
AcDbLine
 10
162.8935903703723
 20
426.5691515056871
 30
0.0
 11
162.8935903703723
 21
464.1831079908467
 31
0.0
  0
LINE
  5
CC33
330
C6AC
100
AcDbEntity
  8
MEASURE
 62
     8
370
    -2
100
AcDbLine
 10
402.8935903703723
 20
426.5691515056871
 30
0.0
 11
402.8935903703723
 21
464.1831079908467
 31
0.0
  0
LINE
  5
CC34
330
C6AC
100
AcDbEntity
  8
MEASURE
 62
     8
370
    -2
100
AcDbLine
 10
165.3935903703723
 20
462.1831079908467
 30
0.0
 11
400.3935903703722
 21
462.1831079908467
 31
0.0
  0
SOLID
  5
CC35
330
C6AC
100
AcDbEntity
  8
MEASURE
 62
     8
100
AcDbTrace
 10
165.3935903703723
 20
462.5997746575134
 30
0.0
 11
165.3935903703723
 21
461.76644132418
 31
0.0
 12
162.8935903703723
 22
462.1831079908467
 32
0.0
 13
162.8935903703723
 23
462.1831079908467
 33
0.0
  0
SOLID
  5
CC36
330
C6AC
100
AcDbEntity
  8
MEASURE
 62
     8
100
AcDbTrace
 10
400.3935903703722
 20
462.5997746575134
 30
0.0
 11
400.3935903703722
 21
461.76644132418
 31
0.0
 12
402.8935903703723
 22
462.1831079908467
 32
0.0
 13
402.8935903703723
 23
462.1831079908467
 33
0.0
  0
MTEXT
  5
CC37
330
C6AC
100
AcDbEntity
  8
MEASURE
 62
     2
100
AcDbMText
 10
282.8935903703723
 20
464.9331079908467
 30
0.0
 40
3.5
 41
0.0
 71
     5
 72
     1
  1
\A1;240
  7
AD-STANDARD
 73
     1
 44
1.0
1001
ACAD
1000
MTEXTBEGIN
1070
    73
1070
     1
1070
    44
1040
1.0
1070
    74
1070
     0
1000
MTEXTEND
  0
POINT
  5
CC38
330
C6AC
100
AcDbEntity
  8
DEFPOINTS
 62
     0
100
AcDbPoint
 10
162.8935903703723
 20
425.5691515056871
 30
0.0
  0
POINT
  5
CC39
330
C6AC
100
AcDbEntity
  8
DEFPOINTS
 62
     0
100
AcDbPoint
 10
402.8935903703723
 20
425.5691515056871
 30
0.0
  0
POINT
  5
CC3A
330
C6AC
100
AcDbEntity
  8
DEFPOINTS
 62
     0
100
AcDbPoint
 10
402.8935903703723
 20
462.1831079908467
 30
0.0
  0
ENDBLK
  5
C6AE
330
C6AC
100
AcDbEntity
  8
0
100
AcDbBlockEnd
  0
BLOCK
  5
C6B9
330
C6B8
100
AcDbEntity
  8
0
100
AcDbBlockBegin
  2
*D12
 70
     1
 10
0.0
 20
0.0
 30
0.0
  3
*D12
  1

  0
LINE
  5
CC3B
330
C6B8
100
AcDbEntity
  8
MEASURE
 62
     8
370
    -2
100
AcDbLine
 10
161.8935903703723
 20
425.5691515056871
 30
0.0
 11
138.0103720050474
 21
425.5691515056871
 31
0.0
  0
LINE
  5
CC3C
330
C6B8
100
AcDbEntity
  8
MEASURE
 62
     8
370
    -2
100
AcDbLine
 10
161.893590370372
 20
317.5691515056872
 30
0.0
 11
138.0103720050474
 21
317.5691515056872
 31
0.0
  0
LINE
  5
CC3D
330
C6B8
100
AcDbEntity
  8
MEASURE
 62
     8
370
    -2
100
AcDbLine
 10
140.0103720050474
 20
423.0691515056871
 30
0.0
 11
140.0103720050474
 21
320.0691515056872
 31
0.0
  0
SOLID
  5
CC3E
330
C6B8
100
AcDbEntity
  8
MEASURE
 62
     8
100
AcDbTrace
 10
139.5937053383808
 20
423.0691515056871
 30
0.0
 11
140.4270386717141
 21
423.0691515056871
 31
0.0
 12
140.0103720050474
 22
425.5691515056871
 32
0.0
 13
140.0103720050474
 23
425.5691515056871
 33
0.0
  0
SOLID
  5
CC3F
330
C6B8
100
AcDbEntity
  8
MEASURE
 62
     8
100
AcDbTrace
 10
139.5937053383808
 20
320.0691515056872
 30
0.0
 11
140.4270386717141
 21
320.0691515056872
 31
0.0
 12
140.0103720050474
 22
317.5691515056872
 32
0.0
 13
140.0103720050474
 23
317.5691515056872
 33
0.0
  0
MTEXT
  5
CC40
330
C6B8
100
AcDbEntity
  8
MEASURE
 62
     2
100
AcDbMText
 10
137.2603720050473
 20
371.5691515056871
 30
0.0
 40
3.5
 41
0.0
 71
     5
 72
     1
  1
\A1;108
  7
AD-STANDARD
 11
0.0000000000000001
 21
1.0
 31
0.0
 73
     1
 44
1.0
1001
ACAD
1000
MTEXTBEGIN
1070
    73
1070
     1
1070
    44
1040
1.0
1070
    74
1070
     0
1000
MTEXTEND
  0
POINT
  5
CC41
330
C6B8
100
AcDbEntity
  8
DEFPOINTS
 62
     0
100
AcDbPoint
 10
162.8935903703723
 20
425.5691515056871
 30
0.0
  0
POINT
  5
CC42
330
C6B8
100
AcDbEntity
  8
DEFPOINTS
 62
     0
100
AcDbPoint
 10
162.893590370372
 20
317.5691515056872
 30
0.0
  0
POINT
  5
CC43
330
C6B8
100
AcDbEntity
  8
DEFPOINTS
 62
     0
100
AcDbPoint
 10
140.0103720050474
 20
317.5691515056872
 30
0.0
  0
ENDBLK
  5
C6BA
330
C6B8
100
AcDbEntity
  8
0
100
AcDbBlockEnd
  0
BLOCK
  5
C6C5
330
C6C4
100
AcDbEntity
  8
0
100
AcDbBlockBegin
  2
*D13
 70
     1
 10
0.0
 20
0.0
 30
0.0
  3
*D13
  1

  0
LINE
  5
CBEA
330
C6C4
100
AcDbEntity
  8
MEASURE
 62
     8
370
    -2
100
AcDbLine
 10
161.8935903703723
 20
230.8399024986833
 30
0.0
 11
135.7913596267117
 21
230.8399024986833
 31
0.0
  0
LINE
  5
CBEB
330
C6C4
100
AcDbEntity
  8
MEASURE
 62
     8
370
    -2
100
AcDbLine
 10
181.8935903703723
 20
58.83990249868327
 30
0.0
 11
135.7913596267117
 21
58.83990249868329
 31
0.0
  0
LINE
  5
CBEC
330
C6C4
100
AcDbEntity
  8
MEASURE
 62
     8
370
    -2
100
AcDbLine
 10
137.7913596267117
 20
228.3399024986833
 30
0.0
 11
137.7913596267117
 21
61.33990249868329
 31
0.0
  0
SOLID
  5
CBED
330
C6C4
100
AcDbEntity
  8
MEASURE
 62
     8
100
AcDbTrace
 10
137.3746929600451
 20
228.3399024986833
 30
0.0
 11
138.2080262933784
 21
228.3399024986833
 31
0.0
 12
137.7913596267117
 22
230.8399024986833
 32
0.0
 13
137.7913596267117
 23
230.8399024986833
 33
0.0
  0
SOLID
  5
CBEE
330
C6C4
100
AcDbEntity
  8
MEASURE
 62
     8
100
AcDbTrace
 10
137.374692960045
 20
61.33990249868329
 30
0.0
 11
138.2080262933783
 21
61.33990249868329
 31
0.0
 12
137.7913596267117
 22
58.83990249868329
 32
0.0
 13
137.7913596267117
 23
58.83990249868329
 33
0.0
  0
MTEXT
  5
CBEF
330
C6C4
100
AcDbEntity
  8
MEASURE
 62
     2
100
AcDbMText
 10
135.0413596267117
 20
144.8399024986833
 30
0.0
 40
3.5
 41
0.0
 71
     5
 72
     1
  1
\A1;172
  7
AD-STANDARD
 11
0.0000000000000001
 21
1.0
 31
0.0
 73
     1
 44
1.0
1001
ACAD
1000
MTEXTBEGIN
1070
    73
1070
     1
1070
    44
1040
1.0
1070
    74
1070
     0
1000
MTEXTEND
  0
POINT
  5
CBF0
330
C6C4
100
AcDbEntity
  8
DEFPOINTS
 62
     0
100
AcDbPoint
 10
162.8935903703723
 20
230.8399024986833
 30
0.0
  0
POINT
  5
CBF1
330
C6C4
100
AcDbEntity
  8
DEFPOINTS
 62
     0
100
AcDbPoint
 10
182.8935903703723
 20
58.83990249868327
 30
0.0
  0
POINT
  5
CBF2
330
C6C4
100
AcDbEntity
  8
DEFPOINTS
 62
     0
100
AcDbPoint
 10
137.7913596267117
 20
58.83990249868329
 30
0.0
  0
ENDBLK
  5
C6C6
330
C6C4
100
AcDbEntity
  8
0
100
AcDbBlockEnd
  0
BLOCK
  5
C6D1
330
C6D0
100
AcDbEntity
  8
0
100
AcDbBlockBegin
  2
*D14
 70
     1
 10
0.0
 20
0.0
 30
0.0
  3
*D14
  1

  0
LINE
  5
CBFC
330
C6D0
100
AcDbEntity
  8
MEASURE
 62
     8
370
    -2
100
AcDbLine
 10
161.8935903703723
 20
140.8399024986833
 30
0.0
 11
150.5847767782825
 21
140.8399024986833
 31
0.0
  0
LINE
  5
CBFD
330
C6D0
100
AcDbEntity
  8
MEASURE
 62
     8
370
    -2
100
AcDbLine
 10
181.8935903703723
 20
58.83990249868327
 30
0.0
 11
150.5847767782825
 21
58.83990249868328
 31
0.0
  0
LINE
  5
CBFE
330
C6D0
100
AcDbEntity
  8
MEASURE
 62
     8
370
    -2
100
AcDbLine
 10
152.5847767782825
 20
138.3399024986833
 30
0.0
 11
152.5847767782825
 21
61.33990249868328
 31
0.0
  0
SOLID
  5
CBFF
330
C6D0
100
AcDbEntity
  8
MEASURE
 62
     8
100
AcDbTrace
 10
152.1681101116159
 20
138.3399024986833
 30
0.0
 11
153.0014434449492
 21
138.3399024986833
 31
0.0
 12
152.5847767782825
 22
140.8399024986833
 32
0.0
 13
152.5847767782825
 23
140.8399024986833
 33
0.0
  0
SOLID
  5
CC00
330
C6D0
100
AcDbEntity
  8
MEASURE
 62
     8
100
AcDbTrace
 10
152.1681101116158
 20
61.33990249868328
 30
0.0
 11
153.0014434449491
 21
61.33990249868328
 31
0.0
 12
152.5847767782825
 22
58.83990249868328
 32
0.0
 13
152.5847767782825
 23
58.83990249868328
 33
0.0
  0
MTEXT
  5
CC01
330
C6D0
100
AcDbEntity
  8
MEASURE
 62
     2
100
AcDbMText
 10
149.8347767782825
 20
99.83990249868332
 30
0.0
 40
3.5
 41
0.0
 71
     5
 72
     1
  1
\A1;82
  7
AD-STANDARD
 11
0.0000000000000001
 21
1.0
 31
0.0
 73
     1
 44
1.0
1001
ACAD
1000
MTEXTBEGIN
1070
    73
1070
     1
1070
    44
1040
1.0
1070
    74
1070
     0
1000
MTEXTEND
  0
POINT
  5
CC02
330
C6D0
100
AcDbEntity
  8
DEFPOINTS
 62
     0
100
AcDbPoint
 10
162.8935903703723
 20
140.8399024986833
 30
0.0
  0
POINT
  5
CC03
330
C6D0
100
AcDbEntity
  8
DEFPOINTS
 62
     0
100
AcDbPoint
 10
182.8935903703723
 20
58.83990249868327
 30
0.0
  0
POINT
  5
CC04
330
C6D0
100
AcDbEntity
  8
DEFPOINTS
 62
     0
100
AcDbPoint
 10
152.5847767782825
 20
58.83990249868328
 30
0.0
  0
ENDBLK
  5
C6D2
330
C6D0
100
AcDbEntity
  8
0
100
AcDbBlockEnd
  0
BLOCK
  5
C6DD
330
C6DC
100
AcDbEntity
  8
0
100
AcDbBlockBegin
  2
*D15
 70
     1
 10
0.0
 20
0.0
 30
0.0
  3
*D15
  1

  0
LINE
  5
CBF3
330
C6DC
100
AcDbEntity
  8
MEASURE
 62
     8
370
    -2
100
AcDbLine
 10
300.8935903703723
 20
266.8399024986833
 30
0.0
 11
135.7913596267117
 21
266.8399024986833
 31
0.0
  0
LINE
  5
CBF4
330
C6DC
100
AcDbEntity
  8
MEASURE
 62
     8
370
    -2
100
AcDbLine
 10
161.8935903703723
 20
230.8399024986833
 30
0.0
 11
135.7913596267117
 21
230.8399024986833
 31
0.0
  0
LINE
  5
CBF5
330
C6DC
100
AcDbEntity
  8
MEASURE
 62
     8
370
    -2
100
AcDbLine
 10
137.7913596267117
 20
264.3399024986833
 30
0.0
 11
137.7913596267117
 21
233.3399024986833
 31
0.0
  0
SOLID
  5
CBF6
330
C6DC
100
AcDbEntity
  8
MEASURE
 62
     8
100
AcDbTrace
 10
137.374692960045
 20
264.3399024986833
 30
0.0
 11
138.2080262933783
 21
264.3399024986833
 31
0.0
 12
137.7913596267117
 22
266.8399024986833
 32
0.0
 13
137.7913596267117
 23
266.8399024986833
 33
0.0
  0
SOLID
  5
CBF7
330
C6DC
100
AcDbEntity
  8
MEASURE
 62
     8
100
AcDbTrace
 10
137.374692960045
 20
233.3399024986833
 30
0.0
 11
138.2080262933783
 21
233.3399024986833
 31
0.0
 12
137.7913596267117
 22
230.8399024986833
 32
0.0
 13
137.7913596267117
 23
230.8399024986833
 33
0.0
  0
MTEXT
  5
CBF8
330
C6DC
100
AcDbEntity
  8
MEASURE
 62
     2
100
AcDbMText
 10
135.0413596267117
 20
248.8399024986834
 30
0.0
 40
3.5
 41
0.0
 71
     5
 72
     1
  1
\A1;36
  7
AD-STANDARD
 11
0.0000000000000001
 21
1.0
 31
0.0
 73
     1
 44
1.0
1001
ACAD
1000
MTEXTBEGIN
1070
    73
1070
     1
1070
    44
1040
1.0
1070
    74
1070
     0
1000
MTEXTEND
  0
POINT
  5
CBF9
330
C6DC
100
AcDbEntity
  8
DEFPOINTS
 62
     0
100
AcDbPoint
 10
301.8935903703723
 20
266.8399024986833
 30
0.0
  0
POINT
  5
CBFA
330
C6DC
100
AcDbEntity
  8
DEFPOINTS
 62
     0
100
AcDbPoint
 10
162.8935903703723
 20
230.8399024986833
 30
0.0
  0
POINT
  5
CBFB
330
C6DC
100
AcDbEntity
  8
DEFPOINTS
 62
     0
100
AcDbPoint
 10
137.7913596267117
 20
230.8399024986833
 30
0.0
  0
ENDBLK
  5
C6DE
330
C6DC
100
AcDbEntity
  8
0
100
AcDbBlockEnd
  0
BLOCK
  5
C6E9
330
C6E8
100
AcDbEntity
  8
0
100
AcDbBlockBegin
  2
*D16
 70
     1
 10
0.0
 20
0.0
 30
0.0
  3
*D16
  1

  0
LINE
  5
CC56
330
C6E8
100
AcDbEntity
  8
MEASURE
 62
     8
370
    -2
100
AcDbLine
 10
243.8935903703722
 20
396.5691515056873
 30
0.0
 11
198.9749059522556
 21
396.5691515056873
 31
0.0
  0
LINE
  5
CC57
330
C6E8
100
AcDbEntity
  8
MEASURE
 62
     8
370
    -2
100
AcDbLine
 10
243.8935903703723
 20
346.5691515056871
 30
0.0
 11
198.9749059522556
 21
346.5691515056871
 31
0.0
  0
LINE
  5
CC58
330
C6E8
100
AcDbEntity
  8
MEASURE
 62
     8
370
    -2
100
AcDbLine
 10
200.9749059522556
 20
394.0691515056873
 30
0.0
 11
200.9749059522556
 21
349.0691515056871
 31
0.0
  0
SOLID
  5
CC59
330
C6E8
100
AcDbEntity
  8
MEASURE
 62
     8
100
AcDbTrace
 10
200.558239285589
 20
394.0691515056873
 30
0.0
 11
201.3915726189222
 21
394.0691515056873
 31
0.0
 12
200.9749059522556
 22
396.5691515056873
 32
0.0
 13
200.9749059522556
 23
396.5691515056873
 33
0.0
  0
SOLID
  5
CC5A
330
C6E8
100
AcDbEntity
  8
MEASURE
 62
     8
100
AcDbTrace
 10
200.558239285589
 20
349.0691515056871
 30
0.0
 11
201.3915726189222
 21
349.0691515056871
 31
0.0
 12
200.9749059522556
 22
346.5691515056871
 32
0.0
 13
200.9749059522556
 23
346.5691515056871
 33
0.0
  0
MTEXT
  5
CC5B
330
C6E8
100
AcDbEntity
  8
MEASURE
 62
     2
100
AcDbMText
 10
198.2249059522555
 20
371.5691515056873
 30
0.0
 40
3.5
 41
0.0
 71
     5
 72
     1
  1
\A1;50
  7
AD-STANDARD
 11
0.0000000000000001
 21
1.0
 31
0.0
 73
     1
 44
1.0
1001
ACAD
1000
MTEXTBEGIN
1070
    73
1070
     1
1070
    44
1040
1.0
1070
    74
1070
     0
1000
MTEXTEND
  0
POINT
  5
CC5C
330
C6E8
100
AcDbEntity
  8
DEFPOINTS
 62
     0
100
AcDbPoint
 10
244.8935903703722
 20
396.5691515056873
 30
0.0
  0
POINT
  5
CC5D
330
C6E8
100
AcDbEntity
  8
DEFPOINTS
 62
     0
100
AcDbPoint
 10
244.8935903703723
 20
346.5691515056871
 30
0.0
  0
POINT
  5
CC5E
330
C6E8
100
AcDbEntity
  8
DEFPOINTS
 62
     0
100
AcDbPoint
 10
200.9749059522556
 20
346.5691515056871
 30
0.0
  0
ENDBLK
  5
C6EA
330
C6E8
100
AcDbEntity
  8
0
100
AcDbBlockEnd
  0
BLOCK
  5
C6F5
330
C6F4
100
AcDbEntity
  8
0
100
AcDbBlockBegin
  2
*D17
 70
     1
 10
0.0
 20
0.0
 30
0.0
  3
*D17
  1

  0
LINE
  5
CC29
330
C6F4
100
AcDbEntity
  8
MEASURE
 62
     8
370
    -2
100
AcDbLine
 10
242.8935903703722
 20
395.5691515056873
 30
0.0
 11
242.8935903703722
 21
451.6169281595382
 31
0.0
  0
LINE
  5
CC2A
330
C6F4
100
AcDbEntity
  8
MEASURE
 62
     8
370
    -2
100
AcDbLine
 10
282.8935903703721
 20
395.5691515056873
 30
0.0
 11
282.8935903703721
 21
451.6169281595382
 31
0.0
  0
LINE
  5
CC2B
330
C6F4
100
AcDbEntity
  8
MEASURE
 62
     8
370
    -2
100
AcDbLine
 10
245.3935903703722
 20
449.6169281595381
 30
0.0
 11
280.3935903703721
 21
449.6169281595381
 31
0.0
  0
SOLID
  5
CC2C
330
C6F4
100
AcDbEntity
  8
MEASURE
 62
     8
100
AcDbTrace
 10
245.3935903703722
 20
450.0335948262049
 30
0.0
 11
245.3935903703722
 21
449.2002614928715
 31
0.0
 12
242.8935903703722
 22
449.6169281595381
 32
0.0
 13
242.8935903703722
 23
449.6169281595381
 33
0.0
  0
SOLID
  5
CC2D
330
C6F4
100
AcDbEntity
  8
MEASURE
 62
     8
100
AcDbTrace
 10
280.3935903703721
 20
450.0335948262049
 30
0.0
 11
280.3935903703721
 21
449.2002614928715
 31
0.0
 12
282.8935903703721
 22
449.6169281595381
 32
0.0
 13
282.8935903703721
 23
449.6169281595381
 33
0.0
  0
MTEXT
  5
CC2E
330
C6F4
100
AcDbEntity
  8
MEASURE
 62
     2
100
AcDbMText
 10
262.8935903703722
 20
452.3669281595381
 30
0.0
 40
3.5
 41
0.0
 71
     5
 72
     1
  1
\A1;40
  7
AD-STANDARD
 73
     1
 44
1.0
1001
ACAD
1000
MTEXTBEGIN
1070
    73
1070
     1
1070
    44
1040
1.0
1070
    74
1070
     0
1000
MTEXTEND
  0
POINT
  5
CC2F
330
C6F4
100
AcDbEntity
  8
DEFPOINTS
 62
     0
100
AcDbPoint
 10
242.8935903703722
 20
394.5691515056873
 30
0.0
  0
POINT
  5
CC30
330
C6F4
100
AcDbEntity
  8
DEFPOINTS
 62
     0
100
AcDbPoint
 10
282.8935903703721
 20
394.5691515056873
 30
0.0
  0
POINT
  5
CC31
330
C6F4
100
AcDbEntity
  8
DEFPOINTS
 62
     0
100
AcDbPoint
 10
282.8935903703721
 20
449.6169281595381
 30
0.0
  0
ENDBLK
  5
C6F6
330
C6F4
100
AcDbEntity
  8
0
100
AcDbBlockEnd
  0
BLOCK
  5
C701
330
C700
100
AcDbEntity
  8
0
100
AcDbBlockBegin
  2
*D18
 70
     1
 10
0.0
 20
0.0
 30
0.0
  3
*D18
  1

  0
LINE
  5
CC20
330
C700
100
AcDbEntity
  8
MEASURE
 62
     8
370
    -2
100
AcDbLine
 10
242.8935903703722
 20
395.5691515056873
 30
0.0
 11
242.8935903703722
 21
451.6892150287964
 31
0.0
  0
LINE
  5
CC21
330
C700
100
AcDbEntity
  8
MEASURE
 62
     8
370
    -2
100
AcDbLine
 10
162.8935903703723
 20
426.5691515056871
 30
0.0
 11
162.8935903703723
 21
451.6892150287964
 31
0.0
  0
LINE
  5
CC22
330
C700
100
AcDbEntity
  8
MEASURE
 62
     8
370
    -2
100
AcDbLine
 10
240.3935903703722
 20
449.6892150287965
 30
0.0
 11
165.3935903703723
 21
449.6892150287965
 31
0.0
  0
SOLID
  5
CC23
330
C700
100
AcDbEntity
  8
MEASURE
 62
     8
100
AcDbTrace
 10
240.3935903703722
 20
450.1058816954631
 30
0.0
 11
240.3935903703722
 21
449.2725483621297
 31
0.0
 12
242.8935903703722
 22
449.6892150287965
 32
0.0
 13
242.8935903703722
 23
449.6892150287965
 33
0.0
  0
SOLID
  5
CC24
330
C700
100
AcDbEntity
  8
MEASURE
 62
     8
100
AcDbTrace
 10
165.3935903703723
 20
450.1058816954631
 30
0.0
 11
165.3935903703723
 21
449.2725483621297
 31
0.0
 12
162.8935903703723
 22
449.6892150287965
 32
0.0
 13
162.8935903703723
 23
449.6892150287965
 33
0.0
  0
MTEXT
  5
CC25
330
C700
100
AcDbEntity
  8
MEASURE
 62
     2
100
AcDbMText
 10
202.8935903703723
 20
452.4392150287964
 30
0.0
 40
3.5
 41
0.0
 71
     5
 72
     1
  1
\A1;80
  7
AD-STANDARD
 73
     1
 44
1.0
1001
ACAD
1000
MTEXTBEGIN
1070
    73
1070
     1
1070
    44
1040
1.0
1070
    74
1070
     0
1000
MTEXTEND
  0
POINT
  5
CC26
330
C700
100
AcDbEntity
  8
DEFPOINTS
 62
     0
100
AcDbPoint
 10
242.8935903703722
 20
394.5691515056873
 30
0.0
  0
POINT
  5
CC27
330
C700
100
AcDbEntity
  8
DEFPOINTS
 62
     0
100
AcDbPoint
 10
162.8935903703723
 20
425.5691515056871
 30
0.0
  0
POINT
  5
CC28
330
C700
100
AcDbEntity
  8
DEFPOINTS
 62
     0
100
AcDbPoint
 10
162.8935903703723
 20
449.6892150287965
 30
0.0
  0
ENDBLK
  5
C702
330
C700
100
AcDbEntity
  8
0
100
AcDbBlockEnd
  0
BLOCK
  5
C70D
330
C70C
100
AcDbEntity
  8
0
100
AcDbBlockBegin
  2
*D19
 70
     1
 10
0.0
 20
0.0
 30
0.0
  3
*D19
  1

  0
LINE
  5
CBCF
330
C70C
100
AcDbEntity
  8
MEASURE
 62
     8
370
    -2
100
AcDbLine
 10
-61.18225742257617
 20
414.5691515056871
 30
0.0
 11
-61.18225742257617
 21
452.3561152084387
 31
0.0
  0
LINE
  5
CBD0
330
C70C
100
AcDbEntity
  8
MEASURE
 62
     8
370
    -2
100
AcDbLine
 10
38.81774257742382
 20
414.5691515056871
 30
0.0
 11
38.81774257742382
 21
452.3561152084387
 31
0.0
  0
LINE
  5
CBD1
330
C70C
100
AcDbEntity
  8
MEASURE
 62
     8
370
    -2
100
AcDbLine
 10
-58.68225742257617
 20
450.3561152084387
 30
0.0
 11
36.31774257742382
 21
450.3561152084387
 31
0.0
  0
SOLID
  5
CBD2
330
C70C
100
AcDbEntity
  8
MEASURE
 62
     8
100
AcDbTrace
 10
-58.68225742257617
 20
450.7727818751054
 30
0.0
 11
-58.68225742257617
 21
449.939448541772
 31
0.0
 12
-61.18225742257617
 22
450.3561152084387
 32
0.0
 13
-61.18225742257617
 23
450.3561152084387
 33
0.0
  0
SOLID
  5
CBD3
330
C70C
100
AcDbEntity
  8
MEASURE
 62
     8
100
AcDbTrace
 10
36.31774257742382
 20
450.7727818751054
 30
0.0
 11
36.31774257742382
 21
449.939448541772
 31
0.0
 12
38.81774257742382
 22
450.3561152084387
 32
0.0
 13
38.81774257742382
 23
450.3561152084387
 33
0.0
  0
MTEXT
  5
CBD4
330
C70C
100
AcDbEntity
  8
MEASURE
 62
     2
100
AcDbMText
 10
-11.18225742257618
 20
453.1061152084387
 30
0.0
 40
3.5
 41
0.0
 71
     5
 72
     1
  1
\A1;100
  7
AD-STANDARD
 73
     1
 44
1.0
1001
ACAD
1000
MTEXTBEGIN
1070
    73
1070
     1
1070
    44
1040
1.0
1070
    74
1070
     0
1000
MTEXTEND
  0
POINT
  5
CBD5
330
C70C
100
AcDbEntity
  8
DEFPOINTS
 62
     0
100
AcDbPoint
 10
-61.18225742257617
 20
413.5691515056871
 30
0.0
  0
POINT
  5
CBD6
330
C70C
100
AcDbEntity
  8
DEFPOINTS
 62
     0
100
AcDbPoint
 10
38.81774257742382
 20
413.5691515056871
 30
0.0
  0
POINT
  5
CBD7
330
C70C
100
AcDbEntity
  8
DEFPOINTS
 62
     0
100
AcDbPoint
 10
38.81774257742382
 20
450.3561152084387
 30
0.0
  0
ENDBLK
  5
C70E
330
C70C
100
AcDbEntity
  8
0
100
AcDbBlockEnd
  0
BLOCK
  5
C719
330
C718
100
AcDbEntity
  8
0
100
AcDbBlockBegin
  2
*D20
 70
     1
 10
0.0
 20
0.0
 30
0.0
  3
*D20
  1

  0
LINE
  5
CBC6
330
C718
100
AcDbEntity
  8
MEASURE
 62
     8
370
    -2
100
AcDbLine
 10
-61.18225742257617
 20
414.5691515056871
 30
0.0
 11
-61.18225742257617
 21
452.3561152084387
 31
0.0
  0
LINE
  5
CBC7
330
C718
100
AcDbEntity
  8
MEASURE
 62
     8
370
    -2
100
AcDbLine
 10
-95.68225742257608
 20
409.0691515056871
 30
0.0
 11
-95.68225742257608
 21
452.3561152084387
 31
0.0
  0
LINE
  5
CBC8
330
C718
100
AcDbEntity
  8
MEASURE
 62
     8
370
    -2
100
AcDbLine
 10
-63.68225742257617
 20
450.3561152084387
 30
0.0
 11
-93.18225742257608
 21
450.3561152084387
 31
0.0
  0
SOLID
  5
CBC9
330
C718
100
AcDbEntity
  8
MEASURE
 62
     8
100
AcDbTrace
 10
-63.68225742257617
 20
450.7727818751054
 30
0.0
 11
-63.68225742257617
 21
449.939448541772
 31
0.0
 12
-61.18225742257617
 22
450.3561152084387
 32
0.0
 13
-61.18225742257617
 23
450.3561152084387
 33
0.0
  0
SOLID
  5
CBCA
330
C718
100
AcDbEntity
  8
MEASURE
 62
     8
100
AcDbTrace
 10
-93.18225742257608
 20
450.7727818751054
 30
0.0
 11
-93.18225742257608
 21
449.939448541772
 31
0.0
 12
-95.68225742257608
 22
450.3561152084387
 32
0.0
 13
-95.68225742257608
 23
450.3561152084387
 33
0.0
  0
MTEXT
  5
CBCB
330
C718
100
AcDbEntity
  8
MEASURE
 62
     2
100
AcDbMText
 10
-78.43225742257613
 20
453.1061152084387
 30
0.0
 40
3.5
 41
0.0
 71
     5
 72
     1
  1
\A1;34.5
  7
AD-STANDARD
 73
     1
 44
1.0
1001
ACAD
1000
MTEXTBEGIN
1070
    73
1070
     1
1070
    44
1040
1.0
1070
    74
1070
     0
1000
MTEXTEND
  0
POINT
  5
CBCC
330
C718
100
AcDbEntity
  8
DEFPOINTS
 62
     0
100
AcDbPoint
 10
-61.18225742257617
 20
413.5691515056871
 30
0.0
  0
POINT
  5
CBCD
330
C718
100
AcDbEntity
  8
DEFPOINTS
 62
     0
100
AcDbPoint
 10
-95.68225742257608
 20
408.069151505687
 30
0.0
  0
POINT
  5
CBCE
330
C718
100
AcDbEntity
  8
DEFPOINTS
 62
     0
100
AcDbPoint
 10
-95.68225742257608
 20
450.3561152084387
 30
0.0
  0
ENDBLK
  5
C71A
330
C718
100
AcDbEntity
  8
0
100
AcDbBlockEnd
  0
BLOCK
  5
C725
330
C724
100
AcDbEntity
  8
0
100
AcDbBlockBegin
  2
*D21
 70
     1
 10
0.0
 20
0.0
 30
0.0
  3
*D21
  1

  0
LINE
  5
CC4D
330
C724
100
AcDbEntity
  8
MEASURE
 62
     8
370
    -2
100
AcDbLine
 10
38.81774257742382
 20
414.5691515056871
 30
0.0
 11
38.81774257742382
 21
452.3561152084387
 31
0.0
  0
LINE
  5
CC4E
330
C724
100
AcDbEntity
  8
MEASURE
 62
     8
370
    -2
100
AcDbLine
 10
75.31774257742381
 20
409.0691515056871
 30
0.0
 11
75.31774257742381
 21
452.3561152084387
 31
0.0
  0
LINE
  5
CC4F
330
C724
100
AcDbEntity
  8
MEASURE
 62
     8
370
    -2
100
AcDbLine
 10
41.31774257742382
 20
450.3561152084387
 30
0.0
 11
72.81774257742381
 21
450.3561152084387
 31
0.0
  0
SOLID
  5
CC50
330
C724
100
AcDbEntity
  8
MEASURE
 62
     8
100
AcDbTrace
 10
41.31774257742382
 20
450.7727818751054
 30
0.0
 11
41.31774257742382
 21
449.939448541772
 31
0.0
 12
38.81774257742382
 22
450.3561152084387
 32
0.0
 13
38.81774257742382
 23
450.3561152084387
 33
0.0
  0
SOLID
  5
CC51
330
C724
100
AcDbEntity
  8
MEASURE
 62
     8
100
AcDbTrace
 10
72.81774257742381
 20
450.7727818751054
 30
0.0
 11
72.81774257742381
 21
449.939448541772
 31
0.0
 12
75.31774257742381
 22
450.3561152084387
 32
0.0
 13
75.31774257742381
 23
450.3561152084387
 33
0.0
  0
MTEXT
  5
CC52
330
C724
100
AcDbEntity
  8
MEASURE
 62
     2
100
AcDbMText
 10
57.06774257742381
 20
453.1061152084387
 30
0.0
 40
3.5
 41
0.0
 71
     5
 72
     1
  1
\A1;36.5
  7
AD-STANDARD
 73
     1
 44
1.0
1001
ACAD
1000
MTEXTBEGIN
1070
    73
1070
     1
1070
    44
1040
1.0
1070
    74
1070
     0
1000
MTEXTEND
  0
POINT
  5
CC53
330
C724
100
AcDbEntity
  8
DEFPOINTS
 62
     0
100
AcDbPoint
 10
38.81774257742382
 20
413.5691515056871
 30
0.0
  0
POINT
  5
CC54
330
C724
100
AcDbEntity
  8
DEFPOINTS
 62
     0
100
AcDbPoint
 10
75.31774257742381
 20
408.069151505687
 30
0.0
  0
POINT
  5
CC55
330
C724
100
AcDbEntity
  8
DEFPOINTS
 62
     0
100
AcDbPoint
 10
75.31774257742381
 20
450.3561152084387
 30
0.0
  0
ENDBLK
  5
C726
330
C724
100
AcDbEntity
  8
0
100
AcDbBlockEnd
  0
BLOCK
  5
C731
330
C730
100
AcDbEntity
  8
0
100
AcDbBlockBegin
  2
*D22
 70
     1
 10
0.0
 20
0.0
 30
0.0
  3
*D22
  1

  0
LINE
  5
CBAB
330
C730
100
AcDbEntity
  8
MEASURE
 62
     8
370
    -2
100
AcDbLine
 10
-62.18225742257618
 20
413.5691515056871
 30
0.0
 11
-171.9117264571678
 21
413.5691515056871
 31
0.0
  0
LINE
  5
CBAC
330
C730
100
AcDbEntity
  8
MEASURE
 62
     8
370
    -2
100
AcDbLine
 10
-62.18225742257618
 20
329.5691515056871
 30
0.0
 11
-171.9117264571678
 21
329.5691515056872
 31
0.0
  0
LINE
  5
CBAD
330
C730
100
AcDbEntity
  8
MEASURE
 62
     8
370
    -2
100
AcDbLine
 10
-169.9117264571678
 20
411.0691515056871
 30
0.0
 11
-169.9117264571678
 21
332.0691515056872
 31
0.0
  0
SOLID
  5
CBAE
330
C730
100
AcDbEntity
  8
MEASURE
 62
     8
100
AcDbTrace
 10
-170.3283931238344
 20
411.0691515056871
 30
0.0
 11
-169.4950597905011
 21
411.0691515056871
 31
0.0
 12
-169.9117264571678
 22
413.5691515056871
 32
0.0
 13
-169.9117264571678
 23
413.5691515056871
 33
0.0
  0
SOLID
  5
CBAF
330
C730
100
AcDbEntity
  8
MEASURE
 62
     8
100
AcDbTrace
 10
-170.3283931238344
 20
332.0691515056872
 30
0.0
 11
-169.4950597905011
 21
332.0691515056872
 31
0.0
 12
-169.9117264571678
 22
329.5691515056872
 32
0.0
 13
-169.9117264571678
 23
329.5691515056872
 33
0.0
  0
MTEXT
  5
CBB0
330
C730
100
AcDbEntity
  8
MEASURE
 62
     2
100
AcDbMText
 10
-172.6617264571679
 20
371.5691515056871
 30
0.0
 40
3.5
 41
0.0
 71
     5
 72
     1
  1
\A1;84
  7
AD-STANDARD
 11
0.0000000000000001
 21
1.0
 31
0.0
 73
     1
 44
1.0
1001
ACAD
1000
MTEXTBEGIN
1070
    73
1070
     1
1070
    44
1040
1.0
1070
    74
1070
     0
1000
MTEXTEND
  0
POINT
  5
CBB1
330
C730
100
AcDbEntity
  8
DEFPOINTS
 62
     0
100
AcDbPoint
 10
-61.18225742257617
 20
413.5691515056871
 30
0.0
  0
POINT
  5
CBB2
330
C730
100
AcDbEntity
  8
DEFPOINTS
 62
     0
100
AcDbPoint
 10
-61.18225742257617
 20
329.5691515056871
 30
0.0
  0
POINT
  5
CBB3
330
C730
100
AcDbEntity
  8
DEFPOINTS
 62
     0
100
AcDbPoint
 10
-169.9117264571678
 20
329.5691515056872
 30
0.0
  0
ENDBLK
  5
C732
330
C730
100
AcDbEntity
  8
0
100
AcDbBlockEnd
  0
BLOCK
  5
C73D
330
C73C
100
AcDbEntity
  8
0
100
AcDbBlockBegin
  2
*D23
 70
     1
 10
0.0
 20
0.0
 30
0.0
  3
*D23
  1

  0
LINE
  5
CBA2
330
C73C
100
AcDbEntity
  8
MEASURE
 62
     8
370
    -2
100
AcDbLine
 10
-96.68225742257609
 20
410.0691515056871
 30
0.0
 11
-158.5976482991518
 21
410.0691515056871
 31
0.0
  0
LINE
  5
CBA3
330
C73C
100
AcDbEntity
  8
MEASURE
 62
     8
370
    -2
100
AcDbLine
 10
-96.68225742257609
 20
335.0691515056872
 30
0.0
 11
-158.5976482991518
 21
335.0691515056872
 31
0.0
  0
LINE
  5
CBA4
330
C73C
100
AcDbEntity
  8
MEASURE
 62
     8
370
    -2
100
AcDbLine
 10
-156.5976482991518
 20
407.5691515056871
 30
0.0
 11
-156.5976482991518
 21
337.5691515056872
 31
0.0
  0
SOLID
  5
CBA5
330
C73C
100
AcDbEntity
  8
MEASURE
 62
     8
100
AcDbTrace
 10
-157.0143149658185
 20
407.5691515056871
 30
0.0
 11
-156.1809816324851
 21
407.5691515056871
 31
0.0
 12
-156.5976482991518
 22
410.0691515056871
 32
0.0
 13
-156.5976482991518
 23
410.0691515056871
 33
0.0
  0
SOLID
  5
CBA6
330
C73C
100
AcDbEntity
  8
MEASURE
 62
     8
100
AcDbTrace
 10
-157.0143149658185
 20
337.5691515056872
 30
0.0
 11
-156.1809816324851
 21
337.5691515056872
 31
0.0
 12
-156.5976482991518
 22
335.0691515056872
 32
0.0
 13
-156.5976482991518
 23
335.0691515056872
 33
0.0
  0
MTEXT
  5
CBA7
330
C73C
100
AcDbEntity
  8
MEASURE
 62
     2
100
AcDbMText
 10
-159.3476482991518
 20
372.5691515056872
 30
0.0
 40
3.5
 41
0.0
 71
     5
 72
     1
  1
\A1;75
  7
AD-STANDARD
 11
0.0000000000000001
 21
1.0
 31
0.0
 73
     1
 44
1.0
1001
ACAD
1000
MTEXTBEGIN
1070
    73
1070
     1
1070
    44
1040
1.0
1070
    74
1070
     0
1000
MTEXTEND
  0
POINT
  5
CBA8
330
C73C
100
AcDbEntity
  8
DEFPOINTS
 62
     0
100
AcDbPoint
 10
-95.68225742257608
 20
410.0691515056871
 30
0.0
  0
POINT
  5
CBA9
330
C73C
100
AcDbEntity
  8
DEFPOINTS
 62
     0
100
AcDbPoint
 10
-95.68225742257608
 20
335.0691515056872
 30
0.0
  0
POINT
  5
CBAA
330
C73C
100
AcDbEntity
  8
DEFPOINTS
 62
     0
100
AcDbPoint
 10
-156.5976482991518
 20
335.0691515056872
 30
0.0
  0
ENDBLK
  5
C73E
330
C73C
100
AcDbEntity
  8
0
100
AcDbBlockEnd
  0
BLOCK
  5
C749
330
C748
100
AcDbEntity
  8
0
100
AcDbBlockBegin
  2
*D24
 70
     1
 10
0.0
 20
0.0
 30
0.0
  3
*D24
  1

  0
LINE
  5
CBE1
330
C748
100
AcDbEntity
  8
MEASURE
 62
     8
370
    -2
100
AcDbLine
 10
30.81774257742381
 20
421.569151505687
 30
0.0
 11
30.81774257742381
 21
439.7899380509558
 31
0.0
  0
LINE
  5
CBE2
330
C748
100
AcDbEntity
  8
MEASURE
 62
     8
370
    -2
100
AcDbLine
 10
46.81774257742381
 20
421.5691515056871
 30
0.0
 11
46.81774257742381
 21
439.7899380509558
 31
0.0
  0
LINE
  5
CBE3
330
C748
100
AcDbEntity
  8
MEASURE
 62
     8
370
    -2
100
AcDbLine
 10
33.31774257742381
 20
437.7899380509559
 30
0.0
 11
44.31774257742381
 21
437.7899380509559
 31
0.0
  0
SOLID
  5
CBE4
330
C748
100
AcDbEntity
  8
MEASURE
 62
     8
100
AcDbTrace
 10
33.31774257742381
 20
438.2066047176225
 30
0.0
 11
33.31774257742381
 21
437.3732713842891
 31
0.0
 12
30.81774257742381
 22
437.7899380509559
 32
0.0
 13
30.81774257742381
 23
437.7899380509559
 33
0.0
  0
SOLID
  5
CBE5
330
C748
100
AcDbEntity
  8
MEASURE
 62
     8
100
AcDbTrace
 10
44.31774257742381
 20
438.2066047176225
 30
0.0
 11
44.31774257742381
 21
437.3732713842891
 31
0.0
 12
46.81774257742381
 22
437.7899380509559
 32
0.0
 13
46.81774257742381
 23
437.7899380509559
 33
0.0
  0
MTEXT
  5
CBE6
330
C748
100
AcDbEntity
  8
MEASURE
 62
     2
100
AcDbMText
 10
38.81774257742382
 20
440.5399380509559
 30
0.0
 40
3.5
 41
0.0
 71
     5
 72
     1
  1
\A1;16
  7
AD-STANDARD
 73
     1
 44
1.0
1001
ACAD
1000
MTEXTBEGIN
1070
    73
1070
     1
1070
    44
1040
1.0
1070
    74
1070
     0
1000
MTEXTEND
  0
POINT
  5
CBE7
330
C748
100
AcDbEntity
  8
DEFPOINTS
 62
     0
100
AcDbPoint
 10
30.81774257742381
 20
420.569151505687
 30
0.0
  0
POINT
  5
CBE8
330
C748
100
AcDbEntity
  8
DEFPOINTS
 62
     0
100
AcDbPoint
 10
46.81774257742381
 20
420.569151505687
 30
0.0
  0
POINT
  5
CBE9
330
C748
100
AcDbEntity
  8
DEFPOINTS
 62
     0
100
AcDbPoint
 10
46.81774257742381
 20
437.7899380509559
 30
0.0
  0
ENDBLK
  5
C74A
330
C748
100
AcDbEntity
  8
0
100
AcDbBlockEnd
  0
BLOCK
  5
C755
330
C754
100
AcDbEntity
  8
0
100
AcDbBlockBegin
  2
*D25
 70
     1
 10
0.0
 20
0.0
 30
0.0
  3
*D25
  1

  0
LINE
  5
CBBD
330
C754
100
AcDbEntity
  8
MEASURE
 62
     8
370
    -2
100
AcDbLine
 10
-53.18225742257618
 20
421.569151505687
 30
0.0
 11
-53.18225742257618
 21
439.7899380509558
 31
0.0
  0
LINE
  5
CBBE
330
C754
100
AcDbEntity
  8
MEASURE
 62
     8
370
    -2
100
AcDbLine
 10
-69.18225742257618
 20
421.569151505687
 30
0.0
 11
-69.18225742257618
 21
439.7899380509558
 31
0.0
  0
LINE
  5
CBBF
330
C754
100
AcDbEntity
  8
MEASURE
 62
     8
370
    -2
100
AcDbLine
 10
-55.68225742257618
 20
437.7899380509559
 30
0.0
 11
-66.68225742257618
 21
437.7899380509559
 31
0.0
  0
SOLID
  5
CBC0
330
C754
100
AcDbEntity
  8
MEASURE
 62
     8
100
AcDbTrace
 10
-55.68225742257618
 20
438.2066047176225
 30
0.0
 11
-55.68225742257618
 21
437.3732713842891
 31
0.0
 12
-53.18225742257618
 22
437.7899380509559
 32
0.0
 13
-53.18225742257618
 23
437.7899380509559
 33
0.0
  0
SOLID
  5
CBC1
330
C754
100
AcDbEntity
  8
MEASURE
 62
     8
100
AcDbTrace
 10
-66.68225742257618
 20
438.2066047176225
 30
0.0
 11
-66.68225742257618
 21
437.3732713842891
 31
0.0
 12
-69.18225742257618
 22
437.7899380509559
 32
0.0
 13
-69.18225742257618
 23
437.7899380509559
 33
0.0
  0
MTEXT
  5
CBC2
330
C754
100
AcDbEntity
  8
MEASURE
 62
     2
100
AcDbMText
 10
-61.18225742257618
 20
440.5399380509559
 30
0.0
 40
3.5
 41
0.0
 71
     5
 72
     1
  1
\A1;16
  7
AD-STANDARD
 73
     1
 44
1.0
1001
ACAD
1000
MTEXTBEGIN
1070
    73
1070
     1
1070
    44
1040
1.0
1070
    74
1070
     0
1000
MTEXTEND
  0
POINT
  5
CBC3
330
C754
100
AcDbEntity
  8
DEFPOINTS
 62
     0
100
AcDbPoint
 10
-53.18225742257618
 20
420.569151505687
 30
0.0
  0
POINT
  5
CBC4
330
C754
100
AcDbEntity
  8
DEFPOINTS
 62
     0
100
AcDbPoint
 10
-69.18225742257618
 20
420.569151505687
 30
0.0
  0
POINT
  5
CBC5
330
C754
100
AcDbEntity
  8
DEFPOINTS
 62
     0
100
AcDbPoint
 10
-69.18225742257618
 20
437.7899380509559
 30
0.0
  0
ENDBLK
  5
C756
330
C754
100
AcDbEntity
  8
0
100
AcDbBlockEnd
  0
BLOCK
  5
C761
330
C760
100
AcDbEntity
  8
0
100
AcDbBlockBegin
  2
*D26
 70
     1
 10
0.0
 20
0.0
 30
0.0
  3
*D26
  1

  0
LINE
  5
CB75
330
C760
100
AcDbEntity
  8
MEASURE
 62
     8
370
    -2
100
AcDbLine
 10
-129.0154504488555
 20
160.3629716382641
 30
0.0
 11
-158.8700924269433
 21
160.3629716382641
 31
0.0
  0
LINE
  5
CB76
330
C760
100
AcDbEntity
  8
MEASURE
 62
     8
370
    -2
100
AcDbLine
 10
-96.68225742257618
 20
58.83990249868327
 30
0.0
 11
-158.8700924269433
 21
58.83990249868329
 31
0.0
  0
LINE
  5
CB77
330
C760
100
AcDbEntity
  8
MEASURE
 62
     8
370
    -2
100
AcDbLine
 10
-156.8700924269433
 20
157.8629716382641
 30
0.0
 11
-156.8700924269433
 21
61.33990249868329
 31
0.0
  0
SOLID
  5
CB78
330
C760
100
AcDbEntity
  8
MEASURE
 62
     8
100
AcDbTrace
 10
-157.2867590936099
 20
157.8629716382641
 30
0.0
 11
-156.4534257602766
 21
157.8629716382641
 31
0.0
 12
-156.8700924269433
 22
160.3629716382641
 32
0.0
 13
-156.8700924269433
 23
160.3629716382641
 33
0.0
  0
SOLID
  5
CB79
330
C760
100
AcDbEntity
  8
MEASURE
 62
     8
100
AcDbTrace
 10
-157.28675909361
 20
61.33990249868329
 30
0.0
 11
-156.4534257602766
 21
61.33990249868329
 31
0.0
 12
-156.8700924269433
 22
58.83990249868329
 32
0.0
 13
-156.8700924269433
 23
58.83990249868329
 33
0.0
  0
MTEXT
  5
CB7A
330
C760
100
AcDbEntity
  8
MEASURE
 62
     2
100
AcDbMText
 10
-159.6200924269433
 20
109.6014370684737
 30
0.0
 40
3.5
 41
0.0
 71
     5
 72
     1
  1
\A1;約101.5
  7
AD-STANDARD
 11
0.0000000000000001
 21
1.0
 31
0.0
 73
     1
 44
1.0
1001
ACAD
1000
MTEXTBEGIN
1070
    73
1070
     1
1070
    44
1040
1.0
1070
    74
1070
     0
1000
MTEXTEND
  0
POINT
  5
CB7B
330
C760
100
AcDbEntity
  8
DEFPOINTS
 62
     0
100
AcDbPoint
 10
-128.0154504488555
 20
160.3629716382641
 30
0.0
  0
POINT
  5
CB7C
330
C760
100
AcDbEntity
  8
DEFPOINTS
 62
     0
100
AcDbPoint
 10
-95.68225742257618
 20
58.83990249868327
 30
0.0
  0
POINT
  5
CB7D
330
C760
100
AcDbEntity
  8
DEFPOINTS
 62
     0
100
AcDbPoint
 10
-156.8700924269433
 20
58.83990249868329
 30
0.0
  0
ENDBLK
  5
C762
330
C760
100
AcDbEntity
  8
0
100
AcDbBlockEnd
  0
BLOCK
  5
C76D
330
C76C
100
AcDbEntity
  8
0
100
AcDbBlockBegin
  2
*D27
 70
     1
 10
0.0
 20
0.0
 30
0.0
  3
*D27
  1

  0
LINE
  5
CB6C
330
C76C
100
AcDbEntity
  8
MEASURE
 62
     8
370
    -2
100
AcDbLine
 10
-96.68225742257618
 20
133.8399024986832
 30
0.0
 11
-144.130399719279
 21
133.8399024986832
 31
0.0
  0
LINE
  5
CB6D
330
C76C
100
AcDbEntity
  8
MEASURE
 62
     8
370
    -2
100
AcDbLine
 10
-96.68225742257618
 20
58.83990249868327
 30
0.0
 11
-144.130399719279
 21
58.83990249868329
 31
0.0
  0
LINE
  5
CB6E
330
C76C
100
AcDbEntity
  8
MEASURE
 62
     8
370
    -2
100
AcDbLine
 10
-142.130399719279
 20
131.3399024986832
 30
0.0
 11
-142.130399719279
 21
61.33990249868328
 31
0.0
  0
SOLID
  5
CB6F
330
C76C
100
AcDbEntity
  8
MEASURE
 62
     8
100
AcDbTrace
 10
-142.5470663859456
 20
131.3399024986832
 30
0.0
 11
-141.7137330526123
 21
131.3399024986832
 31
0.0
 12
-142.130399719279
 22
133.8399024986832
 32
0.0
 13
-142.130399719279
 23
133.8399024986832
 33
0.0
  0
SOLID
  5
CB70
330
C76C
100
AcDbEntity
  8
MEASURE
 62
     8
100
AcDbTrace
 10
-142.5470663859456
 20
61.33990249868328
 30
0.0
 11
-141.7137330526123
 21
61.33990249868328
 31
0.0
 12
-142.130399719279
 22
58.83990249868328
 32
0.0
 13
-142.130399719279
 23
58.83990249868328
 33
0.0
  0
MTEXT
  5
CB71
330
C76C
100
AcDbEntity
  8
MEASURE
 62
     2
100
AcDbMText
 10
-144.880399719279
 20
96.33990249868324
 30
0.0
 40
3.5
 41
0.0
 71
     5
 72
     1
  1
\A1;75
  7
AD-STANDARD
 11
0.0000000000000001
 21
1.0
 31
0.0
 73
     1
 44
1.0
1001
ACAD
1000
MTEXTBEGIN
1070
    73
1070
     1
1070
    44
1040
1.0
1070
    74
1070
     0
1000
MTEXTEND
  0
POINT
  5
CB72
330
C76C
100
AcDbEntity
  8
DEFPOINTS
 62
     0
100
AcDbPoint
 10
-95.68225742257618
 20
133.8399024986832
 30
0.0
  0
POINT
  5
CB73
330
C76C
100
AcDbEntity
  8
DEFPOINTS
 62
     0
100
AcDbPoint
 10
-95.68225742257618
 20
58.83990249868327
 30
0.0
  0
POINT
  5
CB74
330
C76C
100
AcDbEntity
  8
DEFPOINTS
 62
     0
100
AcDbPoint
 10
-142.130399719279
 20
58.83990249868328
 30
0.0
  0
ENDBLK
  5
C76E
330
C76C
100
AcDbEntity
  8
0
100
AcDbBlockEnd
  0
BLOCK
  5
C779
330
C778
100
AcDbEntity
  8
0
100
AcDbBlockBegin
  2
*D28
 70
     1
 10
0.0
 20
0.0
 30
0.0
  3
*D28
  1

  0
LINE
  5
CB63
330
C778
100
AcDbEntity
  8
MEASURE
 62
     8
370
    -2
100
AcDbLine
 10
-213.2675668966821
 20
215.1245129145433
 30
0.0
 11
-171.6100778290573
 21
215.1245129145433
 31
0.0
  0
LINE
  5
CB64
330
C778
100
AcDbEntity
  8
MEASURE
 62
     8
370
    -2
100
AcDbLine
 10
-203.0175668966821
 20
58.83990249868327
 30
0.0
 11
-171.6100778290574
 21
58.83990249868326
 31
0.0
  0
LINE
  5
CB65
330
C778
100
AcDbEntity
  8
MEASURE
 62
     8
370
    -2
100
AcDbLine
 10
-173.6100778290573
 20
212.6245129145433
 30
0.0
 11
-173.6100778290574
 21
61.33990249868326
 31
0.0
  0
SOLID
  5
CB66
330
C778
100
AcDbEntity
  8
MEASURE
 62
     8
100
AcDbTrace
 10
-174.026744495724
 20
212.6245129145433
 30
0.0
 11
-173.1934111623907
 21
212.6245129145433
 31
0.0
 12
-173.6100778290573
 22
215.1245129145433
 32
0.0
 13
-173.6100778290573
 23
215.1245129145433
 33
0.0
  0
SOLID
  5
CB67
330
C778
100
AcDbEntity
  8
MEASURE
 62
     8
100
AcDbTrace
 10
-174.026744495724
 20
61.33990249868326
 30
0.0
 11
-173.1934111623907
 21
61.33990249868326
 31
0.0
 12
-173.6100778290574
 22
58.83990249868326
 32
0.0
 13
-173.6100778290574
 23
58.83990249868326
 33
0.0
  0
MTEXT
  5
CB68
330
C778
100
AcDbEntity
  8
MEASURE
 62
     2
100
AcDbMText
 10
-176.3600778290574
 20
136.9822077066132
 30
0.0
 40
3.5
 41
0.0
 71
     5
 72
     1
  1
\A1;約156
  7
AD-STANDARD
 11
0.0000000000000001
 21
1.0
 31
0.0
 73
     1
 44
1.0
1001
ACAD
1000
MTEXTBEGIN
1070
    73
1070
     1
1070
    44
1040
1.0
1070
    74
1070
     0
1000
MTEXTEND
  0
POINT
  5
CB69
330
C778
100
AcDbEntity
  8
DEFPOINTS
 62
     0
100
AcDbPoint
 10
-214.2675668966821
 20
215.1245129145433
 30
0.0
  0
POINT
  5
CB6A
330
C778
100
AcDbEntity
  8
DEFPOINTS
 62
     0
100
AcDbPoint
 10
-204.0175668966821
 20
58.83990249868327
 30
0.0
  0
POINT
  5
CB6B
330
C778
100
AcDbEntity
  8
DEFPOINTS
 62
     0
100
AcDbPoint
 10
-173.6100778290574
 20
58.83990249868326
 30
0.0
  0
ENDBLK
  5
C77A
330
C778
100
AcDbEntity
  8
0
100
AcDbBlockEnd
  0
BLOCK
  5
C785
330
C784
100
AcDbEntity
  8
0
100
AcDbBlockBegin
  2
*D29
 70
     1
 10
0.0
 20
0.0
 30
0.0
  3
*D29
  1

  0
LINE
  5
CBB4
330
C784
100
AcDbEntity
  8
MEASURE
 62
     8
370
    -2
100
AcDbLine
 10
-72.91545044885561
 20
330.8191515056872
 30
0.0
 11
-72.91545044885561
 21
287.9525336185082
 31
0.0
  0
LINE
  5
CBB5
330
C784
100
AcDbEntity
  8
MEASURE
 62
     8
370
    -2
100
AcDbLine
 10
-8.015450448855517
 20
330.8191515056872
 30
0.0
 11
-8.015450448855521
 21
287.9525336185082
 31
0.0
  0
LINE
  5
CBB6
330
C784
100
AcDbEntity
  8
MEASURE
 62
     8
370
    -2
100
AcDbLine
 10
-70.41545044885561
 20
289.9525336185082
 30
0.0
 11
-10.51545044885552
 21
289.9525336185082
 31
0.0
  0
SOLID
  5
CBB7
330
C784
100
AcDbEntity
  8
MEASURE
 62
     8
100
AcDbTrace
 10
-70.41545044885561
 20
290.3692002851749
 30
0.0
 11
-70.41545044885561
 21
289.5358669518415
 31
0.0
 12
-72.91545044885561
 22
289.9525336185082
 32
0.0
 13
-72.91545044885561
 23
289.9525336185082
 33
0.0
  0
SOLID
  5
CBB8
330
C784
100
AcDbEntity
  8
MEASURE
 62
     8
100
AcDbTrace
 10
-10.51545044885552
 20
290.3692002851749
 30
0.0
 11
-10.51545044885552
 21
289.5358669518415
 31
0.0
 12
-8.015450448855519
 22
289.9525336185082
 32
0.0
 13
-8.015450448855519
 23
289.9525336185082
 33
0.0
  0
MTEXT
  5
CBB9
330
C784
100
AcDbEntity
  8
MEASURE
 62
     2
100
AcDbMText
 10
-40.46545044885556
 20
292.7025336185082
 30
0.0
 40
3.5
 41
0.0
 71
     5
 72
     1
  1
\A1;64.9
  7
AD-STANDARD
 73
     1
 44
1.0
1001
ACAD
1000
MTEXTBEGIN
1070
    73
1070
     1
1070
    44
1040
1.0
1070
    74
1070
     0
1000
MTEXTEND
  0
POINT
  5
CBBA
330
C784
100
AcDbEntity
  8
DEFPOINTS
 62
     0
100
AcDbPoint
 10
-72.91545044885561
 20
331.8191515056871
 30
0.0
  0
POINT
  5
CBBB
330
C784
100
AcDbEntity
  8
DEFPOINTS
 62
     0
100
AcDbPoint
 10
-8.015450448855517
 20
331.8191515056871
 30
0.0
  0
POINT
  5
CBBC
330
C784
100
AcDbEntity
  8
DEFPOINTS
 62
     0
100
AcDbPoint
 10
-8.015450448855519
 20
289.9525336185082
 30
0.0
  0
ENDBLK
  5
C786
330
C784
100
AcDbEntity
  8
0
100
AcDbBlockEnd
  0
BLOCK
  5
C791
330
C790
100
AcDbEntity
  8
0
100
AcDbBlockBegin
  2
*D30
 70
     1
 10
0.0
 20
0.0
 30
0.0
  3
*D30
  1

  0
LINE
  5
CB5A
330
C790
100
AcDbEntity
  8
MEASURE
 62
     8
370
    -2
100
AcDbLine
 10
-293.1506522529218
 20
216.1245129145433
 30
0.0
 11
-293.1506522529218
 21
246.1229392605035
 31
0.0
  0
LINE
  5
CB5B
330
C790
100
AcDbEntity
  8
MEASURE
 62
     8
370
    -2
100
AcDbLine
 10
-214.8844815404424
 20
216.1245129145433
 30
0.0
 11
-214.8844815404424
 21
246.1229392605035
 31
0.0
  0
LINE
  5
CB5C
330
C790
100
AcDbEntity
  8
MEASURE
 62
     8
370
    -2
100
AcDbLine
 10
-290.6506522529218
 20
244.1229392605035
 30
0.0
 11
-217.3844815404424
 21
244.1229392605035
 31
0.0
  0
SOLID
  5
CB5D
330
C790
100
AcDbEntity
  8
MEASURE
 62
     8
100
AcDbTrace
 10
-290.6506522529218
 20
244.5396059271701
 30
0.0
 11
-290.6506522529218
 21
243.7062725938369
 31
0.0
 12
-293.1506522529218
 22
244.1229392605035
 32
0.0
 13
-293.1506522529218
 23
244.1229392605035
 33
0.0
  0
SOLID
  5
CB5E
330
C790
100
AcDbEntity
  8
MEASURE
 62
     8
100
AcDbTrace
 10
-217.3844815404424
 20
244.5396059271701
 30
0.0
 11
-217.3844815404424
 21
243.7062725938369
 31
0.0
 12
-214.8844815404424
 22
244.1229392605035
 32
0.0
 13
-214.8844815404424
 23
244.1229392605035
 33
0.0
  0
MTEXT
  5
CB5F
330
C790
100
AcDbEntity
  8
MEASURE
 62
     2
100
AcDbMText
 10
-254.0175668966821
 20
246.8729392605035
 30
0.0
 40
3.5
 41
0.0
 71
     5
 72
     1
  1
\A1;78.5
  7
AD-STANDARD
 73
     1
 44
1.0
1001
ACAD
1000
MTEXTBEGIN
1070
    73
1070
     1
1070
    44
1040
1.0
1070
    74
1070
     0
1000
MTEXTEND
  0
POINT
  5
CB60
330
C790
100
AcDbEntity
  8
DEFPOINTS
 62
     0
100
AcDbPoint
 10
-293.1506522529218
 20
215.1245129145433
 30
0.0
  0
POINT
  5
CB61
330
C790
100
AcDbEntity
  8
DEFPOINTS
 62
     0
100
AcDbPoint
 10
-214.8844815404424
 20
215.1245129145433
 30
0.0
  0
POINT
  5
CB62
330
C790
100
AcDbEntity
  8
DEFPOINTS
 62
     0
100
AcDbPoint
 10
-214.8844815404424
 20
244.1229392605035
 30
0.0
  0
ENDBLK
  5
C792
330
C790
100
AcDbEntity
  8
0
100
AcDbBlockEnd
  0
BLOCK
  5
C79D
330
C79C
100
AcDbEntity
  8
0
100
AcDbBlockBegin
  2
*D31
 70
     1
 10
0.0
 20
0.0
 30
0.0
  3
*D31
  1

  0
LINE
  5
CB99
330
C79C
100
AcDbEntity
  8
MEASURE
 62
     8
370
    -2
100
AcDbLine
 10
-129.0154504488555
 20
386.0236969602324
 30
0.0
 11
-146.7629169106976
 21
386.0236969602324
 31
0.0
  0
LINE
  5
CB9A
330
C79C
100
AcDbEntity
  8
MEASURE
 62
     8
370
    -2
100
AcDbLine
 10
-129.0154504488555
 20
357.1146060511417
 30
0.0
 11
-146.7629169106976
 21
357.1146060511417
 31
0.0
  0
LINE
  5
CB9B
330
C79C
100
AcDbEntity
  8
MEASURE
 62
     8
370
    -2
100
AcDbLine
 10
-144.7629169106976
 20
383.5236969602324
 30
0.0
 11
-144.7629169106976
 21
359.6146060511417
 31
0.0
  0
SOLID
  5
CB9C
330
C79C
100
AcDbEntity
  8
MEASURE
 62
     8
100
AcDbTrace
 10
-145.1795835773642
 20
383.5236969602324
 30
0.0
 11
-144.3462502440309
 21
383.5236969602324
 31
0.0
 12
-144.7629169106976
 22
386.0236969602324
 32
0.0
 13
-144.7629169106976
 23
386.0236969602324
 33
0.0
  0
SOLID
  5
CB9D
330
C79C
100
AcDbEntity
  8
MEASURE
 62
     8
100
AcDbTrace
 10
-145.1795835773642
 20
359.6146060511417
 30
0.0
 11
-144.3462502440309
 21
359.6146060511417
 31
0.0
 12
-144.7629169106976
 22
357.1146060511417
 32
0.0
 13
-144.7629169106976
 23
357.1146060511417
 33
0.0
  0
MTEXT
  5
CB9E
330
C79C
100
AcDbEntity
  8
MEASURE
 62
     2
100
AcDbMText
 10
-147.5129169106976
 20
371.5691515056869
 30
0.0
 40
3.5
 41
0.0
 71
     5
 72
     1
  1
\A1;29.6
  7
AD-STANDARD
 11
0.0000000000000001
 21
1.0
 31
0.0
 73
     1
 44
1.0
1001
ACAD
1000
MTEXTBEGIN
1070
    73
1070
     1
1070
    44
1040
1.0
1070
    74
1070
     0
1000
MTEXTEND
  0
POINT
  5
CB9F
330
C79C
100
AcDbEntity
  8
DEFPOINTS
 62
     0
100
AcDbPoint
 10
-128.0154504488555
 20
386.0236969602324
 30
0.0
  0
POINT
  5
CBA0
330
C79C
100
AcDbEntity
  8
DEFPOINTS
 62
     0
100
AcDbPoint
 10
-128.0154504488555
 20
357.1146060511417
 30
0.0
  0
POINT
  5
CBA1
330
C79C
100
AcDbEntity
  8
DEFPOINTS
 62
     0
100
AcDbPoint
 10
-144.7629169106976
 20
357.1146060511417
 30
0.0
  0
ENDBLK
  5
C79E
330
C79C
100
AcDbEntity
  8
0
100
AcDbBlockEnd
  0
BLOCK
  5
C7A9
330
C7A8
100
AcDbEntity
  8
0
100
AcDbBlockBegin
  2
*D32
 70
     1
 10
0.0
 20
0.0
 30
0.0
  3
*D32
  1

  0
LINE
  5
CB87
330
C7A8
100
AcDbEntity
  8
MEASURE
 62
     8
370
    -2
100
AcDbLine
 10
-128.0154504488555
 20
158.8629716382641
 30
0.0
 11
-128.0154504488555
 21
27.01951872576206
 31
0.0
  0
LINE
  5
CB88
330
C7A8
100
AcDbEntity
  8
MEASURE
 62
     8
370
    -2
100
AcDbLine
 10
-95.68225742257618
 20
57.83990249868327
 30
0.0
 11
-95.68225742257618
 21
27.01951872576205
 31
0.0
  0
LINE
  5
CB89
330
C7A8
100
AcDbEntity
  8
MEASURE
 62
     8
370
    -2
100
AcDbLine
 10
-125.5154504488555
 20
29.01951872576205
 30
0.0
 11
-98.18225742257618
 21
29.01951872576205
 31
0.0
  0
SOLID
  5
CB8A
330
C7A8
100
AcDbEntity
  8
MEASURE
 62
     8
100
AcDbTrace
 10
-125.5154504488555
 20
29.43618539242872
 30
0.0
 11
-125.5154504488555
 21
28.60285205909539
 31
0.0
 12
-128.0154504488555
 22
29.01951872576205
 32
0.0
 13
-128.0154504488555
 23
29.01951872576205
 33
0.0
  0
SOLID
  5
CB8B
330
C7A8
100
AcDbEntity
  8
MEASURE
 62
     8
100
AcDbTrace
 10
-98.18225742257618
 20
29.43618539242872
 30
0.0
 11
-98.18225742257618
 21
28.60285205909539
 31
0.0
 12
-95.68225742257618
 22
29.01951872576205
 32
0.0
 13
-95.68225742257618
 23
29.01951872576205
 33
0.0
  0
MTEXT
  5
CB8C
330
C7A8
100
AcDbEntity
  8
MEASURE
 62
     2
100
AcDbMText
 10
-111.8488539357158
 20
31.76951872576205
 30
0.0
 40
3.5
 41
0.0
 71
     5
 72
     1
  1
\A1;約33
  7
AD-STANDARD
 73
     1
 44
1.0
1001
ACAD
1000
MTEXTBEGIN
1070
    73
1070
     1
1070
    44
1040
1.0
1070
    74
1070
     0
1000
MTEXTEND
  0
POINT
  5
CB8D
330
C7A8
100
AcDbEntity
  8
DEFPOINTS
 62
     0
100
AcDbPoint
 10
-128.0154504488555
 20
159.8629716382641
 30
0.0
  0
POINT
  5
CB8E
330
C7A8
100
AcDbEntity
  8
DEFPOINTS
 62
     0
100
AcDbPoint
 10
-95.68225742257618
 20
58.83990249868327
 30
0.0
  0
POINT
  5
CB8F
330
C7A8
100
AcDbEntity
  8
DEFPOINTS
 62
     0
100
AcDbPoint
 10
-95.68225742257618
 20
29.01951872576205
 30
0.0
  0
ENDBLK
  5
C7AA
330
C7A8
100
AcDbEntity
  8
0
100
AcDbBlockEnd
  0
BLOCK
  5
C7B5
330
C7B4
100
AcDbEntity
  8
0
100
AcDbBlockBegin
  2
*D33
 70
     1
 10
0.0
 20
0.0
 30
0.0
  3
*D33
  1

  0
LINE
  5
CB7E
330
C7B4
100
AcDbEntity
  8
MEASURE
 62
     8
370
    -2
100
AcDbLine
 10
-95.68225742257618
 20
57.83990249868327
 30
0.0
 11
-95.68225742257618
 21
26.28033167686158
 31
0.0
  0
LINE
  5
CB7F
330
C7B4
100
AcDbEntity
  8
MEASURE
 62
     8
370
    -2
100
AcDbLine
 10
75.31774257742381
 20
57.83990249868327
 30
0.0
 11
75.31774257742381
 21
26.28033167686158
 31
0.0
  0
LINE
  5
CB80
330
C7B4
100
AcDbEntity
  8
MEASURE
 62
     8
370
    -2
100
AcDbLine
 10
-93.18225742257618
 20
28.28033167686158
 30
0.0
 11
72.81774257742381
 21
28.28033167686158
 31
0.0
  0
SOLID
  5
CB81
330
C7B4
100
AcDbEntity
  8
MEASURE
 62
     8
100
AcDbTrace
 10
-93.18225742257618
 20
28.69699834352825
 30
0.0
 11
-93.18225742257618
 21
27.86366501019491
 31
0.0
 12
-95.68225742257618
 22
28.28033167686158
 32
0.0
 13
-95.68225742257618
 23
28.28033167686158
 33
0.0
  0
SOLID
  5
CB82
330
C7B4
100
AcDbEntity
  8
MEASURE
 62
     8
100
AcDbTrace
 10
72.81774257742381
 20
28.69699834352825
 30
0.0
 11
72.81774257742381
 21
27.86366501019491
 31
0.0
 12
75.31774257742381
 22
28.28033167686158
 32
0.0
 13
75.31774257742381
 23
28.28033167686158
 33
0.0
  0
MTEXT
  5
CB83
330
C7B4
100
AcDbEntity
  8
MEASURE
 62
     2
100
AcDbMText
 10
-10.18225742257618
 20
31.03033167686158
 30
0.0
 40
3.5
 41
0.0
 71
     5
 72
     1
  1
\A1;171
  7
AD-STANDARD
 73
     1
 44
1.0
1001
ACAD
1000
MTEXTBEGIN
1070
    73
1070
     1
1070
    44
1040
1.0
1070
    74
1070
     0
1000
MTEXTEND
  0
POINT
  5
CB84
330
C7B4
100
AcDbEntity
  8
DEFPOINTS
 62
     0
100
AcDbPoint
 10
-95.68225742257618
 20
58.83990249868327
 30
0.0
  0
POINT
  5
CB85
330
C7B4
100
AcDbEntity
  8
DEFPOINTS
 62
     0
100
AcDbPoint
 10
75.31774257742381
 20
58.83990249868327
 30
0.0
  0
POINT
  5
CB86
330
C7B4
100
AcDbEntity
  8
DEFPOINTS
 62
     0
100
AcDbPoint
 10
75.31774257742381
 20
28.28033167686158
 30
0.0
  0
ENDBLK
  5
C7B6
330
C7B4
100
AcDbEntity
  8
0
100
AcDbBlockEnd
  0
BLOCK
  5
C7C1
330
C7C0
100
AcDbEntity
  8
0
100
AcDbBlockBegin
  2
*D34
 70
     1
 10
0.0
 20
0.0
 30
0.0
  3
*D34
  1

  0
LINE
  5
CC0E
330
C7C0
100
AcDbEntity
  8
MEASURE
 62
     8
370
    -2
100
AcDbLine
 10
162.8935903703723
 20
139.8399024986833
 30
0.0
 11
162.8935903703723
 21
26.28033167686158
 31
0.0
  0
LINE
  5
CC0F
330
C7C0
100
AcDbEntity
  8
MEASURE
 62
     8
370
    -2
100
AcDbLine
 10
182.8935903703723
 20
57.83990249868327
 30
0.0
 11
182.8935903703723
 21
26.28033167686158
 31
0.0
  0
LINE
  5
CC10
330
C7C0
100
AcDbEntity
  8
MEASURE
 62
     8
370
    -2
100
AcDbLine
 10
165.3935903703723
 20
28.28033167686158
 30
0.0
 11
180.3935903703723
 21
28.28033167686158
 31
0.0
  0
SOLID
  5
CC11
330
C7C0
100
AcDbEntity
  8
MEASURE
 62
     8
100
AcDbTrace
 10
165.3935903703723
 20
28.69699834352825
 30
0.0
 11
165.3935903703723
 21
27.86366501019491
 31
0.0
 12
162.8935903703723
 22
28.28033167686158
 32
0.0
 13
162.8935903703723
 23
28.28033167686158
 33
0.0
  0
SOLID
  5
CC12
330
C7C0
100
AcDbEntity
  8
MEASURE
 62
     8
100
AcDbTrace
 10
180.3935903703723
 20
28.69699834352825
 30
0.0
 11
180.3935903703723
 21
27.86366501019491
 31
0.0
 12
182.8935903703723
 22
28.28033167686158
 32
0.0
 13
182.8935903703723
 23
28.28033167686158
 33
0.0
  0
MTEXT
  5
CC13
330
C7C0
100
AcDbEntity
  8
MEASURE
 62
     2
100
AcDbMText
 10
172.8935903703723
 20
31.03033167686158
 30
0.0
 40
3.5
 41
0.0
 71
     5
 72
     1
  1
\A1;20
  7
AD-STANDARD
 73
     1
 44
1.0
1001
ACAD
1000
MTEXTBEGIN
1070
    73
1070
     1
1070
    44
1040
1.0
1070
    74
1070
     0
1000
MTEXTEND
  0
POINT
  5
CC14
330
C7C0
100
AcDbEntity
  8
DEFPOINTS
 62
     0
100
AcDbPoint
 10
162.8935903703723
 20
140.8399024986833
 30
0.0
  0
POINT
  5
CC15
330
C7C0
100
AcDbEntity
  8
DEFPOINTS
 62
     0
100
AcDbPoint
 10
182.8935903703723
 20
58.83990249868327
 30
0.0
  0
POINT
  5
CC16
330
C7C0
100
AcDbEntity
  8
DEFPOINTS
 62
     0
100
AcDbPoint
 10
182.8935903703723
 20
28.28033167686158
 30
0.0
  0
ENDBLK
  5
C7C2
330
C7C0
100
AcDbEntity
  8
0
100
AcDbBlockEnd
  0
BLOCK
  5
C7CD
330
C7CC
100
AcDbEntity
  8
0
100
AcDbBlockBegin
  2
*D35
 70
     1
 10
0.0
 20
0.0
 30
0.0
  3
*D35
  1

  0
LINE
  5
CC05
330
C7CC
100
AcDbEntity
  8
MEASURE
 62
     8
370
    -2
100
AcDbLine
 10
182.8935903703723
 20
55.83990249868327
 30
0.0
 11
182.8935903703723
 21
26.28033167686158
 31
0.0
  0
LINE
  5
CC06
330
C7CC
100
AcDbEntity
  8
MEASURE
 62
     8
370
    -2
100
AcDbLine
 10
402.8935903703723
 20
57.83990249868327
 30
0.0
 11
402.8935903703723
 21
26.28033167686158
 31
0.0
  0
LINE
  5
CC07
330
C7CC
100
AcDbEntity
  8
MEASURE
 62
     8
370
    -2
100
AcDbLine
 10
185.3935903703723
 20
28.28033167686158
 30
0.0
 11
400.3935903703722
 21
28.28033167686158
 31
0.0
  0
SOLID
  5
CC08
330
C7CC
100
AcDbEntity
  8
MEASURE
 62
     8
100
AcDbTrace
 10
185.3935903703723
 20
28.69699834352825
 30
0.0
 11
185.3935903703723
 21
27.86366501019491
 31
0.0
 12
182.8935903703723
 22
28.28033167686158
 32
0.0
 13
182.8935903703723
 23
28.28033167686158
 33
0.0
  0
SOLID
  5
CC09
330
C7CC
100
AcDbEntity
  8
MEASURE
 62
     8
100
AcDbTrace
 10
400.3935903703722
 20
28.69699834352825
 30
0.0
 11
400.3935903703722
 21
27.86366501019491
 31
0.0
 12
402.8935903703723
 22
28.28033167686158
 32
0.0
 13
402.8935903703723
 23
28.28033167686158
 33
0.0
  0
MTEXT
  5
CC0A
330
C7CC
100
AcDbEntity
  8
MEASURE
 62
     2
100
AcDbMText
 10
292.8935903703723
 20
31.03033167686158
 30
0.0
 40
3.5
 41
0.0
 71
     5
 72
     1
  1
\A1;220
  7
AD-STANDARD
 73
     1
 44
1.0
1001
ACAD
1000
MTEXTBEGIN
1070
    73
1070
     1
1070
    44
1040
1.0
1070
    74
1070
     0
1000
MTEXTEND
  0
POINT
  5
CC0B
330
C7CC
100
AcDbEntity
  8
DEFPOINTS
 62
     0
100
AcDbPoint
 10
182.8935903703723
 20
56.83990249868327
 30
0.0
  0
POINT
  5
CC0C
330
C7CC
100
AcDbEntity
  8
DEFPOINTS
 62
     0
100
AcDbPoint
 10
402.8935903703723
 20
58.83990249868327
 30
0.0
  0
POINT
  5
CC0D
330
C7CC
100
AcDbEntity
  8
DEFPOINTS
 62
     0
100
AcDbPoint
 10
402.8935903703723
 20
28.28033167686158
 30
0.0
  0
ENDBLK
  5
C7CE
330
C7CC
100
AcDbEntity
  8
0
100
AcDbBlockEnd
  0
BLOCK
  5
C7D9
330
C7D8
100
AcDbEntity
  8
0
100
AcDbBlockBegin
  2
*D36
 70
     1
 10
0.0
 20
0.0
 30
0.0
  3
*D36
  1

  0
LINE
  5
CB90
330
C7D8
100
AcDbEntity
  8
MEASURE
 62
     8
370
    -2
100
AcDbLine
 10
-69.18225742257618
 20
421.569151505687
 30
0.0
 11
-185.2258007271803
 21
421.5691515056871
 31
0.0
  0
LINE
  5
CB91
330
C7D8
100
AcDbEntity
  8
MEASURE
 62
     8
370
    -2
100
AcDbLine
 10
-69.68225742257629
 20
322.069151505687
 30
0.0
 11
-185.2258007271803
 21
322.069151505687
 31
0.0
  0
LINE
  5
CB92
330
C7D8
100
AcDbEntity
  8
MEASURE
 62
     8
370
    -2
100
AcDbLine
 10
-183.2258007271803
 20
419.0691515056871
 30
0.0
 11
-183.2258007271803
 21
324.569151505687
 31
0.0
  0
SOLID
  5
CB93
330
C7D8
100
AcDbEntity
  8
MEASURE
 62
     8
100
AcDbTrace
 10
-183.642467393847
 20
419.0691515056871
 30
0.0
 11
-182.8091340605137
 21
419.0691515056871
 31
0.0
 12
-183.2258007271803
 22
421.5691515056871
 32
0.0
 13
-183.2258007271803
 23
421.5691515056871
 33
0.0
  0
SOLID
  5
CB94
330
C7D8
100
AcDbEntity
  8
MEASURE
 62
     8
100
AcDbTrace
 10
-183.642467393847
 20
324.569151505687
 30
0.0
 11
-182.8091340605137
 21
324.569151505687
 31
0.0
 12
-183.2258007271803
 22
322.069151505687
 32
0.0
 13
-183.2258007271803
 23
322.069151505687
 33
0.0
  0
MTEXT
  5
CB95
330
C7D8
100
AcDbEntity
  8
MEASURE
 62
     2
100
AcDbMText
 10
-185.9758007271804
 20
371.819151505687
 30
0.0
 40
3.5
 41
0.0
 71
     5
 72
     1
  1
\A1;100
  7
AD-STANDARD
 11
0.0000000000000001
 21
1.0
 31
0.0
 73
     1
 44
1.0
1001
ACAD
1000
MTEXTBEGIN
1070
    73
1070
     1
1070
    44
1040
1.0
1070
    74
1070
     0
1000
MTEXTEND
  0
POINT
  5
CB96
330
C7D8
100
AcDbEntity
  8
DEFPOINTS
 62
     0
100
AcDbPoint
 10
-68.18225742257618
 20
421.569151505687
 30
0.0
  0
POINT
  5
CB97
330
C7D8
100
AcDbEntity
  8
DEFPOINTS
 62
     0
100
AcDbPoint
 10
-68.6822574225763
 20
322.069151505687
 30
0.0
  0
POINT
  5
CB98
330
C7D8
100
AcDbEntity
  8
DEFPOINTS
 62
     0
100
AcDbPoint
 10
-183.2258007271803
 20
322.069151505687
 30
0.0
  0
ENDBLK
  5
C7DA
330
C7D8
100
AcDbEntity
  8
0
100
AcDbBlockEnd
  0
BLOCK
  5
C7E5
330
C7E4
100
AcDbEntity
  8
0
100
AcDbBlockBegin
  2
*D37
 70
     1
 10
0.0
 20
0.0
 30
0.0
  3
*D37
  1

  0
LINE
  5
CC17
330
C7E4
100
AcDbEntity
  8
MEASURE
 62
     8
370
    -2
100
AcDbLine
 10
301.8935903703723
 20
267.8399024986833
 30
0.0
 11
301.8935903703723
 21
293.4309077163096
 31
0.0
  0
LINE
  5
CC18
330
C7E4
100
AcDbEntity
  8
MEASURE
 62
     8
370
    -2
100
AcDbLine
 10
323.8935903703723
 20
267.8399024986833
 30
0.0
 11
323.8935903703723
 21
293.4309077163096
 31
0.0
  0
LINE
  5
CC19
330
C7E4
100
AcDbEntity
  8
MEASURE
 62
     8
370
    -2
100
AcDbLine
 10
304.3935903703723
 20
291.4309077163096
 30
0.0
 11
321.3935903703723
 21
291.4309077163096
 31
0.0
  0
SOLID
  5
CC1A
330
C7E4
100
AcDbEntity
  8
MEASURE
 62
     8
100
AcDbTrace
 10
304.3935903703723
 20
291.8475743829763
 30
0.0
 11
304.3935903703723
 21
291.0142410496429
 31
0.0
 12
301.8935903703723
 22
291.4309077163096
 32
0.0
 13
301.8935903703723
 23
291.4309077163096
 33
0.0
  0
SOLID
  5
CC1B
330
C7E4
100
AcDbEntity
  8
MEASURE
 62
     8
100
AcDbTrace
 10
321.3935903703723
 20
291.8475743829763
 30
0.0
 11
321.3935903703723
 21
291.0142410496429
 31
0.0
 12
323.8935903703723
 22
291.4309077163096
 32
0.0
 13
323.8935903703723
 23
291.4309077163096
 33
0.0
  0
MTEXT
  5
CC1C
330
C7E4
100
AcDbEntity
  8
MEASURE
 62
     2
100
AcDbMText
 10
312.8935903703723
 20
294.1809077163096
 30
0.0
 40
3.5
 41
0.0
 71
     5
 72
     1
  1
\A1;22
  7
AD-STANDARD
 73
     1
 44
1.0
1001
ACAD
1000
MTEXTBEGIN
1070
    73
1070
     1
1070
    44
1040
1.0
1070
    74
1070
     0
1000
MTEXTEND
  0
POINT
  5
CC1D
330
C7E4
100
AcDbEntity
  8
DEFPOINTS
 62
     0
100
AcDbPoint
 10
301.8935903703723
 20
266.8399024986833
 30
0.0
  0
POINT
  5
CC1E
330
C7E4
100
AcDbEntity
  8
DEFPOINTS
 62
     0
100
AcDbPoint
 10
323.8935903703723
 20
266.8399024986833
 30
0.0
  0
POINT
  5
CC1F
330
C7E4
100
AcDbEntity
  8
DEFPOINTS
 62
     0
100
AcDbPoint
 10
323.8935903703723
 20
291.4309077163096
 30
0.0
  0
ENDBLK
  5
C7E6
330
C7E4
100
AcDbEntity
  8
0
100
AcDbBlockEnd
  0
ENDSEC
  0
SECTION
  2
ENTITIES
  0
MTEXT
  5
2E32
330
1A
100
AcDbEntity
  8
0
 62
     2
100
AcDbMText
 10
825.1560250125962
 20
206.1204309186096
 30
0.0
 40
3.5
 41
0.0
 71
     7
 72
     1
  1

  7
AD-STANDARD
 73
     1
 44
1.0
1001
ACAD
1000
MTEXTBEGIN
1070
    73
1070
     1
1070
    44
1040
1.0
1070
    74
1070
     0
1000
MTEXTEND
  0
LINE
  5
C3DF
330
1A
100
AcDbEntity
  8
0
  6
CENTER
 62
     9
100
AcDbLine
 10
-254.0175668966821
 20
219.5116358900592
 30
0.0
 11
-254.0175668966821
 21
44.31444621213199
 31
0.0
  0
LINE
  5
C3E0
330
1A
100
AcDbEntity
  8
0
100
AcDbLine
 10
-214.2675668966821
 20
215.1245129145433
 30
0.0
 11
-254.0175668966821
 21
160.1245129145433
 31
0.0
  0
LINE
  5
C3E1
330
1A
100
AcDbEntity
  8
0
  6
HIDDEN
100
AcDbLine
 10
-214.8844815404424
 20
215.1245129145433
 30
0.0
 11
-239.5630214421366
 21
180.9781055033941
 31
0.0
  0
LINE
  5
C3E2
330
1A
100
AcDbEntity
  8
0
  6
HIDDEN
100
AcDbLine
 10
-293.1506522529218
 20
215.1245129145433
 30
0.0
 11
-268.4721123512275
 21
180.9781055033941
 31
0.0
  0
LINE
  5
C3E3
330
1A
100
AcDbEntity
  8
0
100
AcDbLine
 10
-293.7675668966821
 20
215.1245129145433
 30
0.0
 11
-254.0175668966821
 21
160.1245129145433
 31
0.0
  0
LINE
  5
C3E4
330
1A
100
AcDbEntity
  8
0
100
AcDbLine
 10
-239.217566896682
 20
185.873347672793
 30
0.0
 11
-254.0175668966821
 21
165.1245129145433
 31
0.0
  0
LINE
  5
C3E5
330
1A
100
AcDbEntity
  8
0
100
AcDbLine
 10
-268.817566896682
 20
185.873347672793
 30
0.0
 11
-254.0175668966821
 21
165.1245129145433
 31
0.0
  0
ARC
  5
C3E6
330
1A
100
AcDbEntity
  8
0
100
AcDbCircle
 10
-259.994115243109
 20
182.1245129145433
 30
0.0
 40
2.0
100
AcDbArc
 50
180.0000000001083
 51
0.2687356619043516
  0
LINE
  5
C3E7
330
1A
100
AcDbEntity
  8
0
100
AcDbLine
 10
-268.4721123512276
 20
185.3890382619739
 30
0.0
 11
-268.4721123512276
 21
180.1245129145433
 31
0.0
  0
ARC
  5
C3E8
330
1A
100
AcDbEntity
  8
0
100
AcDbCircle
 10
-248.0410185502551
 20
182.1245129145433
 30
0.0
 40
2.0
100
AcDbArc
 50
179.7312643380956
 51
359.9999999998916
  0
LINE
  5
C3E9
330
1A
100
AcDbEntity
  8
0
100
AcDbLine
 10
-239.5630214421366
 20
185.3890382619739
 30
0.0
 11
-239.5630214421366
 21
180.1245129145433
 31
0.0
  0
LINE
  5
C3EA
330
1A
100
AcDbEntity
  8
0
100
AcDbLine
 10
-270.517566896682
 20
158.8399024986832
 30
0.0
 11
-254.017566896682
 21
158.8399024986832
 31
0.0
  0
LINE
  5
C3EB
330
1A
100
AcDbEntity
  8
0
100
AcDbLine
 10
-271.5175668966821
 20
159.8399024986832
 30
0.0
 11
-254.0175668966821
 21
159.8399024986832
 31
0.0
  0
LINE
  5
C3EC
330
1A
100
AcDbEntity
  8
0
100
AcDbLine
 10
-270.0175668966822
 20
142.8399024986832
 30
0.0
 11
-269.0175668966822
 21
142.8399024986832
 31
0.0
  0
LINE
  5
C3ED
330
1A
100
AcDbEntity
  8
0
100
AcDbLine
 10
-222.5175668966822
 20
134.8399024986832
 30
0.0
 11
-285.517566896682
 21
134.8399024986832
 31
0.0
  0
LINE
  5
C3EE
330
1A
100
AcDbEntity
  8
0
100
AcDbLine
 10
-304.0175668966821
 20
58.83990249868327
 30
0.0
 11
-254.0175668966821
 21
58.83990249868327
 31
0.0
  0
LINE
  5
C3EF
330
1A
100
AcDbEntity
  8
0
 62
     7
100
AcDbLine
 10
-290.5175668966821
 20
129.8399024986832
 30
0.0
 11
-290.5175668966822
 21
58.83990249868322
 31
0.0
  0
CIRCLE
  5
C3F0
330
1A
100
AcDbEntity
  8
0
100
AcDbCircle
 10
-281.5175668966821
 20
68.83990249868327
 30
0.0
 40
2.75
  0
LINE
  5
C3F1
330
1A
100
AcDbEntity
  8
0
100
AcDbLine
 10
-304.0175668966821
 20
60.83990249868327
 30
0.0
 11
-290.5175668966822
 21
60.83990249868327
 31
0.0
  0
LINE
  5
C3F2
330
1A
100
AcDbEntity
  8
0
  6
CENTER
 62
     9
100
AcDbLine
 10
-296.0175668966821
 20
65.82066042412236
 30
0.0
 11
-296.0175668966821
 21
55.39100198572771
 31
0.0
  0
LINE
  5
C3F3
330
1A
100
AcDbEntity
  8
0
100
AcDbLine
 10
-302.0175668966821
 20
60.83990249868327
 30
0.0
 11
-302.0175668966821
 21
58.83990249868327
 31
0.0
  0
LINE
  5
C3F4
330
1A
100
AcDbEntity
  8
0
100
AcDbLine
 10
-304.0175668966821
 20
60.83990249868327
 30
0.0
 11
-304.0175668966821
 21
58.83990249868327
 31
0.0
  0
ARC
  5
C3F5
330
1A
100
AcDbEntity
  8
0
100
AcDbCircle
 10
-290.5175668966822
 20
68.83990249868327
 30
0.0
 40
2.75
100
AcDbArc
 50
90.0
 51
270.0
  0
LINE
  5
C3F6
330
1A
100
AcDbEntity
  8
0
 62
     7
100
AcDbLine
 10
-271.5175668966821
 20
159.8399024986832
 30
0.0
 11
-271.5175668966821
 21
134.8399024986832
 31
0.0
  0
LINE
  5
C3F7
330
1A
100
AcDbEntity
  8
0
 62
     7
100
AcDbLine
 10
-270.517566896682
 20
158.8399024986832
 30
0.0
 11
-270.517566896682
 21
134.8399024986832
 31
0.0
  0
LINE
  5
C3F8
330
1A
100
AcDbEntity
  8
0
 62
     7
100
AcDbLine
 10
-270.0175668966821
 20
142.8399024986832
 30
0.0
 11
-270.0175668966821
 21
134.8399024986832
 31
0.0
  0
ARC
  5
C3F9
330
1A
100
AcDbEntity
  8
0
100
AcDbCircle
 10
-271.5175668966821
 20
138.8399024986832
 30
0.0
 40
2.75
100
AcDbArc
 50
90.0
 51
270.0
  0
ARC
  5
C3FA
330
1A
100
AcDbEntity
  8
0
100
AcDbCircle
 10
-285.517566896682
 20
129.8399024986832
 30
0.0
 40
5.0
100
AcDbArc
 50
90.0
 51
180.0
  0
LINE
  5
C3FB
330
1A
100
AcDbEntity
  8
0
 62
     7
100
AcDbLine
 10
-217.5175668966822
 20
129.8399024986832
 30
0.0
 11
-217.5175668966822
 21
58.83990249868322
 31
0.0
  0
CIRCLE
  5
C3FC
330
1A
100
AcDbEntity
  8
0
100
AcDbCircle
 10
-226.5175668966821
 20
68.83990249868327
 30
0.0
 40
2.75
  0
LINE
  5
C3FD
330
1A
100
AcDbEntity
  8
0
100
AcDbLine
 10
-204.0175668966821
 20
58.83990249868327
 30
0.0
 11
-254.0175668966821
 21
58.83990249868327
 31
0.0
  0
LINE
  5
C3FE
330
1A
100
AcDbEntity
  8
0
  6
CENTER
 62
     9
100
AcDbLine
 10
-212.0175668966821
 20
65.82066042412236
 30
0.0
 11
-212.0175668966821
 21
55.39100198572771
 31
0.0
  0
LINE
  5
C3FF
330
1A
100
AcDbEntity
  8
0
100
AcDbLine
 10
-204.0175668966821
 20
60.83990249868327
 30
0.0
 11
-217.5175668966822
 21
60.83990249868327
 31
0.0
  0
LINE
  5
C400
330
1A
100
AcDbEntity
  8
0
100
AcDbLine
 10
-204.0175668966821
 20
60.83990249868327
 30
0.0
 11
-204.0175668966821
 21
58.83990249868327
 31
0.0
  0
LINE
  5
C401
330
1A
100
AcDbEntity
  8
0
100
AcDbLine
 10
-206.0175668966821
 20
60.83990249868327
 30
0.0
 11
-206.0175668966821
 21
58.83990249868327
 31
0.0
  0
ARC
  5
C402
330
1A
100
AcDbEntity
  8
0
100
AcDbCircle
 10
-217.5175668966822
 20
68.83990249868327
 30
0.0
 40
2.75
100
AcDbArc
 50
270.0
 51
90.0
  0
LINE
  5
C403
330
1A
100
AcDbEntity
  8
0
 62
     7
100
AcDbLine
 10
-237.5175668966822
 20
158.8399024986832
 30
0.0
 11
-237.5175668966822
 21
134.8399024986832
 31
0.0
  0
LINE
  5
C404
330
1A
100
AcDbEntity
  8
0
 62
     7
100
AcDbLine
 10
-236.5175668966821
 20
159.8399024986832
 30
0.0
 11
-236.5175668966821
 21
134.8399024986832
 31
0.0
  0
LINE
  5
C405
330
1A
100
AcDbEntity
  8
0
 62
     7
100
AcDbLine
 10
-261.5175668966821
 20
153.98804815591
 30
0.0
 11
-261.5175668966822
 21
134.8399024986832
 31
0.0
  0
LINE
  5
C406
330
1A
100
AcDbEntity
  8
0
 62
     7
100
AcDbLine
 10
-246.5175668966821
 20
153.98804815591
 30
0.0
 11
-246.517566896682
 21
134.8399024986832
 31
0.0
  0
ARC
  5
C407
330
1A
100
AcDbEntity
  8
0
100
AcDbCircle
 10
-222.5175668966822
 20
129.8399024986832
 30
0.0
 40
5.0
100
AcDbArc
 50
0.0
 51
90.0
  0
LINE
  5
C408
330
1A
100
AcDbEntity
  8
0
 62
     7
100
AcDbLine
 10
-260.0175668966821
 20
142.8399024986832
 30
0.0
 11
-260.0175668966819
 21
134.8399024986832
 31
0.0
  0
CIRCLE
  5
C409
330
1A
100
AcDbEntity
  8
0
100
AcDbCircle
 10
-254.0175668966821
 20
138.8399024986832
 30
0.0
 40
1.5
  0
LINE
  5
C40A
330
1A
100
AcDbEntity
  8
0
 62
     7
100
AcDbLine
 10
-248.0175668966821
 20
142.8399024986832
 30
0.0
 11
-248.0175668966822
 21
134.8399024986832
 31
0.0
  0
LINE
  5
C40B
330
1A
100
AcDbEntity
  8
0
100
AcDbLine
 10
-260.0175668966822
 20
142.8399024986832
 30
0.0
 11
-254.0175668966821
 21
142.8399024986832
 31
0.0
  0
LINE
  5
C40C
330
1A
100
AcDbEntity
  8
0
100
AcDbLine
 10
-248.017566896682
 20
142.8399024986832
 30
0.0
 11
-254.0175668966821
 21
142.8399024986832
 31
0.0
  0
LINE
  5
C40D
330
1A
100
AcDbEntity
  8
0
 62
     7
100
AcDbLine
 10
-269.0175668966821
 20
142.8399024986832
 30
0.0
 11
-269.0175668966821
 21
134.8399024986832
 31
0.0
  0
ARC
  5
C40E
330
1A
100
AcDbEntity
  8
0
100
AcDbCircle
 10
-236.5175668966821
 20
138.8399024986832
 30
0.0
 40
2.75
100
AcDbArc
 50
270.0
 51
90.0
  0
LINE
  5
C40F
330
1A
100
AcDbEntity
  8
0
 62
     7
100
AcDbLine
 10
-238.017566896682
 20
142.8399024986832
 30
0.0
 11
-238.017566896682
 21
134.8399024986832
 31
0.0
  0
LINE
  5
C410
330
1A
100
AcDbEntity
  8
0
 62
     7
100
AcDbLine
 10
-239.0175668966821
 20
142.8399024986832
 30
0.0
 11
-239.0175668966821
 21
134.8399024986832
 31
0.0
  0
LINE
  5
C411
330
1A
100
AcDbEntity
  8
0
100
AcDbLine
 10
-238.017566896682
 20
142.8399024986832
 30
0.0
 11
-239.0175668966819
 21
142.8399024986832
 31
0.0
  0
LINE
  5
C412
330
1A
100
AcDbEntity
  8
0
100
AcDbLine
 10
-244.5827859195658
 20
171.8131787029832
 30
0.0
 11
-252.457467633821
 21
160.9173926832589
 31
0.0
  0
LINE
  5
C413
330
1A
100
AcDbEntity
  8
0
100
AcDbLine
 10
-263.4523478737983
 20
171.8131787029832
 30
0.0
 11
-255.577666159543
 21
160.9173926832589
 31
0.0
  0
LINE
  5
C414
330
1A
100
AcDbEntity
  8
0
100
AcDbLine
 10
-267.8551977074671
 20
180.1245129145433
 30
0.0
 11
-254.0175668966821
 21
160.9781055033941
 31
0.0
  0
LINE
  5
C415
330
1A
100
AcDbEntity
  8
0
100
AcDbLine
 10
-240.1799360858969
 20
180.1245129145433
 30
0.0
 11
-254.0175668966821
 21
160.9781055033941
 31
0.0
  0
LINE
  5
C416
330
1A
100
AcDbEntity
  8
0
100
AcDbLine
 10
-237.5175668966822
 20
158.8399024986832
 30
0.0
 11
-254.0175668966822
 21
158.8399024986832
 31
0.0
  0
LINE
  5
C417
330
1A
100
AcDbEntity
  8
0
100
AcDbLine
 10
-236.5175668966821
 20
159.8399024986832
 30
0.0
 11
-254.0175668966821
 21
159.8399024986832
 31
0.0
  0
LINE
  5
C418
330
1A
100
AcDbEntity
  8
0
100
AcDbLine
 10
-246.517566896682
 20
144.494883783098
 30
0.0
 11
-254.0175668966822
 21
144.494883783098
 31
0.0
  0
LINE
  5
C419
330
1A
100
AcDbEntity
  8
0
100
AcDbLine
 10
-246.5175668966821
 20
153.98804815591
 30
0.0
 11
-254.0175668966821
 21
153.98804815591
 31
0.0
  0
LINE
  5
C41A
330
1A
100
AcDbEntity
  8
0
100
AcDbLine
 10
-248.0175668966821
 20
154.9880481559101
 30
0.0
 11
-254.0175668966821
 21
154.9880481559101
 31
0.0
  0
LINE
  5
C41B
330
1A
100
AcDbEntity
  8
0
 62
     7
100
AcDbLine
 10
-248.0175668966821
 20
154.9880481559101
 30
0.0
 11
-248.0175668966821
 21
153.98804815591
 31
0.0
  0
CIRCLE
  5
C41C
330
1A
100
AcDbEntity
  8
0
100
AcDbCircle
 10
-250.9257785781532
 20
149.3245129145433
 30
0.0
 40
2.75
  0
CIRCLE
  5
C41D
330
1A
100
AcDbEntity
  8
0
100
AcDbCircle
 10
-257.109355215211
 20
149.3245129145433
 30
0.0
 40
2.75
  0
LINE
  5
C41E
330
1A
100
AcDbEntity
  8
0
 62
     7
100
AcDbLine
 10
-260.0175668966821
 20
154.9880481559101
 30
0.0
 11
-260.0175668966821
 21
153.98804815591
 31
0.0
  0
LINE
  5
C41F
330
1A
100
AcDbEntity
  8
0
100
AcDbLine
 10
-260.0175668966821
 20
154.9880481559101
 30
0.0
 11
-254.0175668966821
 21
154.9880481559101
 31
0.0
  0
LINE
  5
C420
330
1A
100
AcDbEntity
  8
0
100
AcDbLine
 10
-261.5175668966821
 20
153.98804815591
 30
0.0
 11
-254.0175668966821
 21
153.98804815591
 31
0.0
  0
LINE
  5
C421
330
1A
100
AcDbEntity
  8
0
100
AcDbLine
 10
-261.5175668966822
 20
144.494883783098
 30
0.0
 11
-254.017566896682
 21
144.494883783098
 31
0.0
  0
ARC
  5
C422
330
1A
100
AcDbEntity
  8
0
100
AcDbCircle
 10
-254.0175668966821
 20
154.9880481559101
 30
0.0
 40
2.75
100
AcDbArc
 50
0.0
 51
180.0
  0
LINE
  5
C423
330
1A
100
AcDbEntity
  8
0
  6
Continuous
 62
     7
100
AcDbLine
 10
-256.7217303532801
 20
155.48804815591
 30
0.0
 11
-251.3134034400841
 21
155.48804815591
 31
0.0
  0
LINE
  5
C424
330
1A
100
AcDbEntity
  8
0
100
AcDbLine
 10
-246.0175668966821
 20
158.3245129145433
 30
0.0
 11
-246.0175668966821
 21
143.3245129145433
 31
0.0
  0
LINE
  5
C425
330
1A
100
AcDbEntity
  8
0
100
AcDbLine
 10
-245.2175668966821
 20
160.1245129145433
 30
0.0
 11
-245.217566896682
 21
143.3245129145433
 31
0.0
  0
LINE
  5
C426
330
1A
100
AcDbEntity
  8
0
100
AcDbLine
 10
-262.817566896682
 20
160.1245129145433
 30
0.0
 11
-262.817566896682
 21
143.3245129145433
 31
0.0
  0
LINE
  5
C427
330
1A
100
AcDbEntity
  8
0
100
AcDbLine
 10
-262.0175668966821
 20
158.3245129145433
 30
0.0
 11
-262.0175668966821
 21
143.3245129145433
 31
0.0
  0
LINE
  5
C428
330
1A
100
AcDbEntity
  8
0
100
AcDbLine
 10
-262.817566896682
 20
143.3245129145433
 30
0.0
 11
-262.0175668966821
 21
143.3245129145433
 31
0.0
  0
LINE
  5
C429
330
1A
100
AcDbEntity
  8
0
100
AcDbLine
 10
-245.217566896682
 20
143.3245129145433
 30
0.0
 11
-246.0175668966821
 21
143.3245129145433
 31
0.0
  0
ARC
  5
C42A
330
1A
100
AcDbEntity
  8
0
100
AcDbCircle
 10
-252.0522251865415
 20
160.6245129145433
 30
0.0
 40
1.3
100
AcDbArc
 50
144.1433340119017
 51
270.0
  0
LINE
  5
C42B
330
1A
100
AcDbEntity
  8
0
100
AcDbLine
 10
-246.217566896682
 20
158.5245129145433
 30
0.0
 11
-254.0175668966821
 21
158.5245129145433
 31
0.0
  0
LINE
  5
C42C
330
1A
100
AcDbEntity
  8
0
100
AcDbLine
 10
-246.0175668966821
 20
159.3245129145433
 30
0.0
 11
-254.0175668966821
 21
159.3245129145433
 31
0.0
  0
LINE
  5
C42D
330
1A
100
AcDbEntity
  8
0
100
AcDbLine
 10
-262.317566896682
 20
159.3245129145433
 30
0.0
 11
-255.9829086068226
 21
159.3245129145433
 31
0.0
  0
LINE
  5
C42E
330
1A
100
AcDbEntity
  8
0
100
AcDbLine
 10
-262.817566896682
 20
160.1245129145433
 30
0.0
 11
-255.9829086068226
 21
160.1245129145433
 31
0.0
  0
LINE
  5
C42F
330
1A
100
AcDbEntity
  8
0
100
AcDbLine
 10
-262.0175668966821
 20
159.3245129145433
 30
0.0
 11
-254.0175668966821
 21
159.3245129145433
 31
0.0
  0
LINE
  5
C430
330
1A
100
AcDbEntity
  8
0
100
AcDbLine
 10
-261.817566896682
 20
158.5245129145433
 30
0.0
 11
-254.0175668966821
 21
158.5245129145433
 31
0.0
  0
ARC
  5
C431
330
1A
100
AcDbEntity
  8
0
100
AcDbCircle
 10
-261.817566896682
 20
158.3245129145433
 30
0.0
 40
0.2
100
AcDbArc
 50
90.0
 51
180.0
  0
ARC
  5
C432
330
1A
100
AcDbEntity
  8
0
100
AcDbCircle
 10
-262.317566896682
 20
158.8245129145433
 30
0.0
 40
0.5
100
AcDbArc
 50
90.0
 51
180.0
  0
ARC
  5
C433
330
1A
100
AcDbEntity
  8
0
100
AcDbCircle
 10
-255.9829086068226
 20
160.6245129145433
 30
0.0
 40
0.5
100
AcDbArc
 50
270.0
 51
35.85666598809825
  0
ARC
  5
C434
330
1A
100
AcDbEntity
  8
0
100
AcDbCircle
 10
-255.9829086068226
 20
160.6245129145433
 30
0.0
 40
1.3
100
AcDbArc
 50
270.0
 51
35.85666598809825
  0
ARC
  5
C435
330
1A
100
AcDbEntity
  8
0
100
AcDbCircle
 10
-252.0522251865415
 20
160.6245129145433
 30
0.0
 40
0.5
100
AcDbArc
 50
144.1433340119017
 51
270.0
  0
LINE
  5
C436
330
1A
100
AcDbEntity
  8
0
100
AcDbLine
 10
-245.2175668966821
 20
160.1245129145433
 30
0.0
 11
-252.0522251865415
 21
160.1245129145433
 31
0.0
  0
LINE
  5
C437
330
1A
100
AcDbEntity
  8
0
100
AcDbLine
 10
-245.717566896682
 20
159.3245129145433
 30
0.0
 11
-252.0522251865415
 21
159.3245129145433
 31
0.0
  0
ARC
  5
C438
330
1A
100
AcDbEntity
  8
0
100
AcDbCircle
 10
-245.717566896682
 20
158.8245129145433
 30
0.0
 40
0.5
100
AcDbArc
 50
0.0
 51
90.0
  0
ARC
  5
C439
330
1A
100
AcDbEntity
  8
0
100
AcDbCircle
 10
-246.217566896682
 20
158.3245129145433
 30
0.0
 40
0.2
100
AcDbArc
 50
0.0
 51
90.0
  0
LINE
  5
C43A
330
1A
100
AcDbEntity
  8
0
100
AcDbLine
 10
-244.5827859195657
 20
171.8131787029832
 30
0.0
 11
-245.231173835213
 21
172.2817863329282
 31
0.0
  0
LINE
  5
C43B
330
1A
100
AcDbEntity
  8
0
  6
HIDDEN
100
AcDbLine
 10
-239.5630214421366
 20
180.6245129145433
 30
0.0
 11
-242.9615243442782
 21
180.6245129145433
 31
0.0
  0
LINE
  5
C43C
330
1A
100
AcDbEntity
  8
0
  6
HIDDEN
100
AcDbLine
 10
-268.4721123512275
 20
180.6245129145433
 30
0.0
 11
-265.0736094490858
 21
180.6245129145433
 31
0.0
  0
LINE
  5
C43D
330
1A
100
AcDbEntity
  8
0
100
AcDbLine
 10
-268.4721123512275
 20
180.1245129145433
 30
0.0
 11
-264.7169629151372
 21
180.1245129145433
 31
0.0
  0
LINE
  5
C43E
330
1A
100
AcDbEntity
  8
0
100
AcDbLine
 10
-263.4523478737983
 20
171.8131787029832
 30
0.0
 11
-262.8039599581512
 21
172.2817863329282
 31
0.0
  0
LINE
  5
C43F
330
1A
100
AcDbEntity
  8
0
100
AcDbLine
 10
-239.5630214421366
 20
180.1245129145433
 30
0.0
 11
-243.3181708782269
 21
180.1245129145433
 31
0.0
  0
LINE
  5
C440
330
1A
100
AcDbEntity
  8
0
100
AcDbLine
 10
-293.7675668966821
 20
215.1245129145433
 30
0.0
 11
-254.0175668966821
 21
215.1245129145433
 31
0.0
  0
LINE
  5
C441
330
1A
100
AcDbEntity
  8
0
100
AcDbLine
 10
-214.2675668966821
 20
215.1245129145433
 30
0.0
 11
-254.0175668966821
 21
215.1245129145433
 31
0.0
  0
LINE
  5
C442
330
1A
100
AcDbEntity
  8
0
100
AcDbLine
 10
-239.217566896682
 20
199.1245129145433
 30
0.0
 11
-254.0175668966821
 21
199.1245129145433
 31
0.0
  0
LINE
  5
C443
330
1A
100
AcDbEntity
  8
0
  6
HIDDEN
100
AcDbLine
 10
-239.217566896682
 20
198.6245129145433
 30
0.0
 11
-254.0175668966821
 21
198.6245129145433
 31
0.0
  0
CIRCLE
  5
C444
330
1A
100
AcDbEntity
  8
0
100
AcDbCircle
 10
-248.0175668966821
 20
187.1245129145433
 30
0.0
 40
2.75
  0
CIRCLE
  5
C445
330
1A
100
AcDbEntity
  8
0
100
AcDbCircle
 10
-248.0410185502551
 20
187.1245129145433
 30
0.0
 40
3.0
  0
CIRCLE
  5
C446
330
1A
100
AcDbEntity
  8
0
100
AcDbCircle
 10
-259.994115243109
 20
187.1245129145433
 30
0.0
 40
3.0
  0
CIRCLE
  5
C447
330
1A
100
AcDbEntity
  8
0
100
AcDbCircle
 10
-260.0175668966821
 20
187.1245129145433
 30
0.0
 40
2.75
  0
LINE
  5
C448
330
1A
100
AcDbEntity
  8
0
100
AcDbLine
 10
-261.994115243109
 20
182.1245129145433
 30
0.0
 11
-262.0006107855853
 21
184.8942717531389
 31
0.0
  0
LINE
  5
C449
330
1A
100
AcDbEntity
  8
0
100
AcDbLine
 10
-258.0005835922515
 20
184.8826762663842
 30
0.0
 11
-257.994115243109
 21
182.1245129145433
 31
0.0
  0
LINE
  5
C44A
330
1A
100
AcDbEntity
  8
0
100
AcDbLine
 10
-250.0345502011125
 20
184.8826762663842
 30
0.0
 11
-250.0410185502551
 21
182.1245129145433
 31
0.0
  0
LINE
  5
C44B
330
1A
100
AcDbEntity
  8
0
100
AcDbLine
 10
-246.0410185502551
 20
182.1245129145433
 30
0.0
 11
-246.0345230077787
 21
184.8942717531389
 31
0.0
  0
ARC
  5
C44C
330
1A
100
AcDbEntity
  8
0
100
AcDbCircle
 10
-260.0175668966821
 20
192.1245129145433
 30
0.0
 40
2.0
100
AcDbArc
 50
0.0
 51
180.2687356616951
  0
LINE
  5
C44D
330
1A
100
AcDbEntity
  8
0
100
AcDbLine
 10
-262.0110492261457
 20
189.3453184684069
 30
0.0
 11
-262.0175668966821
 21
192.1245129145433
 31
0.0
  0
LINE
  5
C44E
330
1A
100
AcDbEntity
  8
0
100
AcDbLine
 10
-258.0175668966821
 20
192.1245129145433
 30
0.0
 11
-258.011120417642
 21
189.3756751748371
 31
0.0
  0
ARC
  5
C44F
330
1A
100
AcDbEntity
  8
0
100
AcDbCircle
 10
-248.0175668966821
 20
192.1245129145433
 30
0.0
 40
2.0
100
AcDbArc
 50
359.7312643383042
 51
180.0
  0
LINE
  5
C450
330
1A
100
AcDbEntity
  8
0
100
AcDbLine
 10
-250.0175668966821
 20
192.1245129145433
 30
0.0
 11
-250.024013375722
 21
189.3756751748371
 31
0.0
  0
LINE
  5
C451
330
1A
100
AcDbEntity
  8
0
100
AcDbLine
 10
-246.0240845672183
 20
189.3453184684069
 30
0.0
 11
-246.0175668966821
 21
192.1245129145433
 31
0.0
  0
LINE
  5
C452
330
1A
100
AcDbEntity
  8
0
 62
     7
100
AcDbLine
 10
-268.817566896682
 20
199.1245129145433
 30
0.0
 11
-268.817566896682
 21
185.873347672793
 31
0.0
  0
LINE
  5
C453
330
1A
100
AcDbEntity
  8
0
  6
HIDDEN
100
AcDbLine
 10
-268.817566896682
 20
198.6245129145433
 30
0.0
 11
-254.0175668966821
 21
198.6245129145433
 31
0.0
  0
LINE
  5
C454
330
1A
100
AcDbEntity
  8
0
100
AcDbLine
 10
-268.817566896682
 20
199.1245129145433
 30
0.0
 11
-254.0175668966821
 21
199.1245129145433
 31
0.0
  0
LINE
  5
C455
330
1A
100
AcDbEntity
  8
0
 62
     7
100
AcDbLine
 10
-239.217566896682
 20
199.1245129145433
 30
0.0
 11
-239.217566896682
 21
185.873347672793
 31
0.0
  0
LINE
  5
C456
330
1A
100
AcDbEntity
  8
0
  6
HIDDEN
100
AcDbLine
 10
-8.612537731537486
 20
214.8629716382641
 30
0.0
 11
-44.18617409517377
 21
160.3629716382641
 31
0.0
  0
LINE
  5
C457
330
1A
100
AcDbEntity
  8
0
100
AcDbLine
 10
-8.015450448855517
 20
214.8629716382641
 30
0.0
 11
-43.91545044885549
 21
159.8629716382641
 31
0.0
  0
LINE
  5
C458
330
1A
100
AcDbEntity
  8
0
100
AcDbLine
 10
-83.41545044885547
 20
179.8629716382641
 30
0.0
 11
-83.41545044885547
 21
198.862971638264
 31
0.0
  0
LINE
  5
C459
330
1A
100
AcDbEntity
  8
0
100
AcDbLine
 10
-82.9154504488555
 20
179.8629716382641
 30
0.0
 11
-82.9154504488555
 21
198.3629716382641
 31
0.0
  0
LINE
  5
C45A
330
1A
100
AcDbEntity
  8
0
  6
HIDDEN
100
AcDbLine
 10
-72.41545044885548
 20
214.8629716382641
 30
0.0
 11
-72.41545044885548
 21
179.8629716382641
 31
0.0
  0
LINE
  5
C45B
330
1A
100
AcDbEntity
  8
0
100
AcDbLine
 10
-72.91545044885548
 20
214.8629716382641
 30
0.0
 11
-72.91545044885548
 21
179.8629716382641
 31
0.0
  0
LINE
  5
C45C
330
1A
100
AcDbEntity
  8
0
100
AcDbLine
 10
-82.41545044885548
 20
191.862971638264
 30
0.0
 11
-82.41545044885548
 21
180.362971638264
 31
0.0
  0
LINE
  5
C45D
330
1A
100
AcDbEntity
  8
0
100
AcDbLine
 10
-82.9154504488555
 20
191.862971638264
 30
0.0
 11
-82.9154504488555
 21
179.8629716382641
 31
0.0
  0
LINE
  5
C45E
330
1A
100
AcDbEntity
  8
0
  6
HIDDEN
100
AcDbLine
 10
-104.0154504488555
 20
158.0629716382641
 30
0.0
 11
-24.01545044885552
 21
158.0629716382641
 31
0.0
  0
LINE
  5
C45F
330
1A
100
AcDbEntity
  8
0
100
AcDbLine
 10
-124.0154504488555
 20
159.0629716382641
 30
0.0
 11
-24.01545044885552
 21
159.0629716382641
 31
0.0
  0
LINE
  5
C460
330
1A
100
AcDbEntity
  8
0
100
AcDbLine
 10
-36.26545044885553
 20
143.0629716382641
 30
0.0
 11
-24.01545044885552
 21
143.0629716382641
 31
0.0
  0
LINE
  5
C461
330
1A
100
AcDbEntity
  8
0
100
AcDbLine
 10
-69.68225742257607
 20
141.8399024986833
 30
0.0
 11
-21.73739369390523
 21
141.8399024986833
 31
0.0
  0
LINE
  5
C462
330
1A
100
AcDbEntity
  8
0
100
AcDbLine
 10
-95.68225742257618
 20
58.83990249868327
 30
0.0
 11
75.31774257742381
 21
58.8399024986833
 31
0.0
  0
LINE
  5
C463
330
1A
100
AcDbEntity
  8
0
100
AcDbLine
 10
-95.68225742257618
 20
133.8399024986832
 30
0.0
 11
75.31774257742381
 21
133.8399024986832
 31
0.0
  0
LINE
  5
C464
330
1A
100
AcDbEntity
  8
0
 62
     7
100
AcDbLine
 10
-95.68225742257618
 20
58.83990249868327
 30
0.0
 11
-95.68225742257608
 21
133.8399024986832
 31
0.0
  0
LINE
  5
C465
330
1A
100
AcDbEntity
  8
0
  6
CENTER
 62
     9
100
AcDbLine
 10
-61.18225742257617
 20
54.34032190729489
 30
0.0
 11
-61.18225742257617
 21
66.15391629512988
 31
0.0
  0
LINE
  5
C466
330
1A
100
AcDbEntity
  8
0
100
AcDbLine
 10
-67.18225742257619
 20
58.83990249868327
 30
0.0
 11
-67.18225742257619
 21
60.83990249868327
 31
0.0
  0
LINE
  5
C467
330
1A
100
AcDbEntity
  8
0
100
AcDbLine
 10
-55.18225742257619
 20
58.83990249868327
 30
0.0
 11
-55.18225742257619
 21
60.83990249868327
 31
0.0
  0
LINE
  5
C468
330
1A
100
AcDbEntity
  8
0
100
AcDbLine
 10
-53.18225742257618
 20
58.83990249868327
 30
0.0
 11
-53.18225742257618
 21
60.83990249868327
 31
0.0
  0
LINE
  5
C469
330
1A
100
AcDbEntity
  8
0
100
AcDbLine
 10
-69.18225742257618
 20
58.83990249868327
 30
0.0
 11
-69.18225742257618
 21
60.83990249868327
 31
0.0
  0
LINE
  5
C46A
330
1A
100
AcDbEntity
  8
0
100
AcDbLine
 10
-69.18225742257618
 20
60.83990249868327
 30
0.0
 11
-53.18225742257618
 21
60.83990249868327
 31
0.0
  0
ARC
  5
C46B
330
1A
100
AcDbEntity
  8
0
100
AcDbCircle
 10
-95.68225742257618
 20
68.83990249868327
 30
0.0
 40
2.75
100
AcDbArc
 50
90.0
 51
270.0
  0
LINE
  5
C46C
330
1A
100
AcDbEntity
  8
0
100
AcDbLine
 10
-72.41545044885548
 20
179.8629716382641
 30
0.0
 11
-128.0154504488555
 21
179.8629716382641
 31
0.0
  0
LINE
  5
C46D
330
1A
100
AcDbEntity
  8
0
  6
HIDDEN
100
AcDbLine
 10
-124.0154504488555
 20
159.8629716382641
 30
0.0
 11
-43.91545044885549
 21
159.8629716382641
 31
0.0
  0
LINE
  5
C46E
330
1A
100
AcDbEntity
  8
0
100
AcDbLine
 10
-124.0154504488555
 20
171.551637426704
 30
0.0
 11
-43.91545044885549
 21
171.551637426704
 31
0.0
  0
LINE
  5
C46F
330
1A
100
AcDbEntity
  8
0
100
AcDbLine
 10
-124.0154504488555
 20
172.020245056649
 30
0.0
 11
-43.91545044885549
 21
172.020245056649
 31
0.0
  0
LINE
  5
C470
330
1A
100
AcDbEntity
  8
0
  6
HIDDEN
100
AcDbLine
 10
-44.18617409517377
 20
160.3629716382641
 30
0.0
 11
-128.0154504488555
 21
160.3629716382641
 31
0.0
  0
LINE
  5
C471
330
1A
100
AcDbEntity
  8
0
100
AcDbLine
 10
-128.0154504488555
 20
179.8629716382641
 30
0.0
 11
-128.0154504488555
 21
159.8629716382641
 31
0.0
  0
LINE
  5
C472
330
1A
100
AcDbEntity
  8
0
100
AcDbLine
 10
-124.0154504488555
 20
172.020245056649
 30
0.0
 11
-124.0154504488555
 21
159.0629716382641
 31
0.0
  0
LINE
  5
C473
330
1A
100
AcDbEntity
  8
0
100
AcDbLine
 10
-124.0154504488554
 20
159.8629716382641
 30
0.0
 11
-128.0154504488555
 21
159.8629716382641
 31
0.0
  0
LINE
  5
C474
330
1A
100
AcDbEntity
  8
0
100
AcDbLine
 10
-69.44281587900696
 20
143.0629716382641
 30
0.0
 11
-71.91412980669406
 21
133.8399024986832
 31
0.0
  0
LINE
  5
C475
330
1A
100
AcDbEntity
  8
0
100
AcDbLine
 10
-69.75339873312987
 20
143.0629716382641
 30
0.0
 11
-72.22471266081696
 21
133.8399024986832
 31
0.0
  0
LINE
  5
C476
330
1A
100
AcDbEntity
  8
0
100
AcDbLine
 10
-27.72118580848053
 20
143.0629716382641
 30
0.0
 11
-28.0489061967187
 21
141.8399024986833
 31
0.0
  0
LINE
  5
C477
330
1A
100
AcDbEntity
  8
0
100
AcDbLine
 10
-28.03176866260379
 20
143.0629716382641
 30
0.0
 11
-28.35948905084183
 21
141.8399024986833
 31
0.0
  0
LINE
  5
C478
330
1A
100
AcDbEntity
  8
0
100
AcDbLine
 10
-78.68225742257594
 20
141.8399024986833
 30
0.0
 11
-77.68225742257619
 21
141.8399024986833
 31
0.0
  0
LINE
  5
C479
330
1A
100
AcDbEntity
  8
0
100
AcDbLine
 10
-78.68225742257607
 20
133.8399024986832
 30
0.0
 11
-78.68225742257594
 21
141.8399024986833
 31
0.0
  0
LINE
  5
C47A
330
1A
100
AcDbEntity
  8
0
100
AcDbLine
 10
-77.68225742257607
 20
133.8399024986832
 30
0.0
 11
-77.68225742257607
 21
141.8399024986833
 31
0.0
  0
LINE
  5
C47B
330
1A
100
AcDbEntity
  8
0
100
AcDbLine
 10
-69.68225742257607
 20
133.8399024986832
 30
0.0
 11
-69.68225742257596
 21
141.8399024986833
 31
0.0
  0
CIRCLE
  5
C47C
330
1A
100
AcDbEntity
  8
0
100
AcDbCircle
 10
-62.68225742257607
 20
137.9645500927404
 30
0.0
 40
1.5
  0
CIRCLE
  5
C47D
330
1A
100
AcDbEntity
  8
0
100
AcDbCircle
 10
-37.68225742257607
 20
137.8399024986832
 30
0.0
 40
1.5
  0
LINE
  5
C47E
330
1A
100
AcDbEntity
  8
0
100
AcDbLine
 10
-104.0154504488555
 20
143.0629716382641
 30
0.0
 11
-66.76545044885552
 21
143.0629716382641
 31
0.0
  0
LINE
  5
C47F
330
1A
100
AcDbEntity
  8
0
100
AcDbLine
 10
-104.0154504488555
 20
159.0629716382641
 30
0.0
 11
-104.0154504488555
 21
143.0629716382641
 31
0.0
  0
LINE
  5
C480
330
1A
100
AcDbEntity
  8
0
100
AcDbLine
 10
-72.91545044885548
 20
180.362971638264
 30
0.0
 11
-82.41545044885548
 21
180.362971638264
 31
0.0
  0
LINE
  5
C481
330
1A
100
AcDbEntity
  8
0
100
AcDbLine
 10
-43.91545044885549
 20
172.020245056649
 30
0.0
 11
-43.91545044885549
 21
159.0629716382641
 31
0.0
  0
LINE
  5
C482
330
1A
100
AcDbEntity
  8
0
100
AcDbLine
 10
-61.26545044885553
 20
143.0629716382641
 30
0.0
 11
-41.76545044885553
 21
143.0629716382641
 31
0.0
  0
LINE
  5
C483
330
1A
100
AcDbEntity
  8
0
100
AcDbLine
 10
-64.0154504488555
 20
150.8129716382641
 30
0.0
 11
-60.65097082243642
 21
150.8129716382641
 31
0.0
  0
LINE
  5
C484
330
1A
100
AcDbEntity
  8
0
100
AcDbLine
 10
-62.26545044885551
 20
147.3129716382642
 30
0.0
 11
-60.92867586737373
 21
147.3129716382642
 31
0.0
  0
CIRCLE
  5
C485
330
1A
100
AcDbEntity
  8
0
100
AcDbCircle
 10
-59.0154504488555
 20
148.9221852654547
 30
0.0
 40
2.5
  0
ARC
  5
C486
330
1A
100
AcDbEntity
  8
0
100
AcDbCircle
 10
-64.0154504488555
 20
149.0629716382642
 30
0.0
 40
1.75
100
AcDbArc
 50
90.0
 51
180.0
  0
LINE
  5
C487
330
1A
100
AcDbEntity
  8
0
100
AcDbLine
 10
-62.26545044885551
 20
144.0629716382642
 30
0.0
 11
-61.26545044885553
 21
143.0629716382641
 31
0.0
  0
LINE
  5
C488
330
1A
100
AcDbEntity
  8
0
100
AcDbLine
 10
-65.76545044885552
 20
144.0629716382642
 30
0.0
 11
-66.76545044885552
 21
143.0629716382641
 31
0.0
  0
LINE
  5
C489
330
1A
100
AcDbEntity
  8
0
100
AcDbLine
 10
-62.26545044885551
 20
147.3129716382642
 30
0.0
 11
-62.26545044885551
 21
144.0629716382642
 31
0.0
  0
LINE
  5
C48A
330
1A
100
AcDbEntity
  8
0
100
AcDbLine
 10
-65.76545044885552
 20
149.0629716382642
 30
0.0
 11
-65.76545044885552
 21
144.0629716382642
 31
0.0
  0
LINE
  5
C48B
330
1A
100
AcDbEntity
  8
0
100
AcDbLine
 10
-37.26545044885553
 20
147.3129716382642
 30
0.0
 11
-35.87128413214475
 21
147.3129716382642
 31
0.0
  0
LINE
  5
C48C
330
1A
100
AcDbEntity
  8
0
100
AcDbLine
 10
-39.01545044885553
 20
150.8129716382641
 30
0.0
 11
-35.72415003730077
 21
150.8129716382641
 31
0.0
  0
CIRCLE
  5
C48D
330
1A
100
AcDbEntity
  8
0
100
AcDbCircle
 10
-34.01545044885552
 20
148.9880481559101
 30
0.0
 40
2.5
  0
ARC
  5
C48E
330
1A
100
AcDbEntity
  8
0
100
AcDbCircle
 10
-39.01545044885553
 20
149.0629716382642
 30
0.0
 40
1.75
100
AcDbArc
 50
90.0
 51
180.0
  0
LINE
  5
C48F
330
1A
100
AcDbEntity
  8
0
100
AcDbLine
 10
-37.26545044885553
 20
144.0629716382642
 30
0.0
 11
-36.26545044885553
 21
143.0629716382641
 31
0.0
  0
LINE
  5
C490
330
1A
100
AcDbEntity
  8
0
100
AcDbLine
 10
-40.76545044885551
 20
144.0629716382642
 30
0.0
 11
-41.76545044885553
 21
143.0629716382641
 31
0.0
  0
LINE
  5
C491
330
1A
100
AcDbEntity
  8
0
100
AcDbLine
 10
-37.26545044885553
 20
147.3129716382642
 30
0.0
 11
-37.26545044885553
 21
144.0629716382642
 31
0.0
  0
LINE
  5
C492
330
1A
100
AcDbEntity
  8
0
100
AcDbLine
 10
-40.76545044885551
 20
149.0629716382642
 30
0.0
 11
-40.76545044885551
 21
144.0629716382642
 31
0.0
  0
LINE
  5
C493
330
1A
100
AcDbEntity
  8
0
 62
     7
100
AcDbLine
 10
75.31774257742381
 20
58.8399024986833
 30
0.0
 11
75.31774257742381
 21
133.8399024986832
 31
0.0
  0
LINE
  5
C494
330
1A
100
AcDbEntity
  8
0
  6
CENTER
 62
     9
100
AcDbLine
 10
67.47392169224895
 20
88.83990249868325
 30
0.0
 11
117.684081683657
 21
88.83990249868325
 31
0.0
  0
LINE
  5
C495
330
1A
100
AcDbEntity
  8
0
 62
     9
100
AcDbLine
 10
71.88905389478498
 20
68.83990249868327
 30
0.0
 11
113.268949481121
 21
68.83990249868327
 31
0.0
  0
LINE
  5
C496
330
1A
100
AcDbEntity
  8
0
  6
CENTER
 62
     9
100
AcDbLine
 10
38.81774257742382
 20
54.34032190729489
 30
0.0
 11
38.81774257742382
 21
68.2498765268041
 31
0.0
  0
LINE
  5
C497
330
1A
100
AcDbEntity
  8
0
100
AcDbLine
 10
30.81774257742381
 20
58.83990249868327
 30
0.0
 11
30.81774257742381
 21
60.83990249868327
 31
0.0
  0
LINE
  5
C498
330
1A
100
AcDbEntity
  8
0
100
AcDbLine
 10
32.81774257742382
 20
58.83990249868327
 30
0.0
 11
32.81774257742382
 21
60.83990249868327
 31
0.0
  0
LINE
  5
C499
330
1A
100
AcDbEntity
  8
0
100
AcDbLine
 10
44.81774257742381
 20
58.83990249868327
 30
0.0
 11
44.81774257742381
 21
60.83990249868327
 31
0.0
  0
LINE
  5
C49A
330
1A
100
AcDbEntity
  8
0
100
AcDbLine
 10
46.81774257742381
 20
58.83990249868327
 30
0.0
 11
46.81774257742381
 21
60.83990249868327
 31
0.0
  0
LINE
  5
C49B
330
1A
100
AcDbEntity
  8
0
100
AcDbLine
 10
30.81774257742381
 20
60.83990249868327
 30
0.0
 11
46.81774257742381
 21
60.83990249868327
 31
0.0
  0
CIRCLE
  5
C49C
330
1A
100
AcDbEntity
  8
0
100
AcDbCircle
 10
-10.18225742257618
 20
68.82150226625981
 30
0.0
 40
2.75
  0
ARC
  5
C49D
330
1A
100
AcDbEntity
  8
0
100
AcDbCircle
 10
98.81774257742382
 20
85.83990249868326
 30
0.0
 40
3.0
100
AcDbArc
 50
270.0
 51
0.0
  0
LINE
  5
C49E
330
1A
100
AcDbEntity
  8
0
100
AcDbLine
 10
80.31774257742382
 20
79.83990249868326
 30
0.0
 11
80.31774257742382
 21
97.83990249868329
 31
0.0
  0
LINE
  5
C49F
330
1A
100
AcDbEntity
  8
0
100
AcDbLine
 10
75.31774257742381
 20
77.33990249868326
 30
0.0
 11
75.31774257742381
 21
100.3399024986832
 31
0.0
  0
LINE
  5
C4A0
330
1A
100
AcDbEntity
  8
0
100
AcDbLine
 10
80.31774257742382
 20
82.83990249868326
 30
0.0
 11
98.81774257742382
 21
82.83990249868326
 31
0.0
  0
LINE
  5
C4A1
330
1A
100
AcDbEntity
  8
0
100
AcDbLine
 10
77.20520118624155
 20
66.83990249868327
 30
0.0
 11
109.3131128297366
 21
66.83990249868327
 31
0.0
  0
LINE
  5
C4A2
330
1A
100
AcDbEntity
  8
0
100
AcDbLine
 10
77.20520118624155
 20
70.83990249868326
 30
0.0
 11
109.313112829709
 21
70.83990249868326
 31
0.0
  0
ARC
  5
C4A3
330
1A
100
AcDbEntity
  8
0
100
AcDbCircle
 10
75.31774257742381
 20
68.83990249868327
 30
0.0
 40
2.75
100
AcDbArc
 50
270.0
 51
90.0
  0
LINE
  5
C4A4
330
1A
100
AcDbEntity
  8
0
100
AcDbLine
 10
75.31774257742381
 20
79.83990249868326
 30
0.0
 11
80.31774257742382
 21
79.83990249868326
 31
0.0
  0
ARC
  5
C4A5
330
1A
100
AcDbEntity
  8
0
100
AcDbCircle
 10
110.0631128297267
 20
67.83990249868327
 30
0.0
 40
1.24999999999999
100
AcDbArc
 50
126.8698976458375
 51
233.1301023541546
  0
ARC
  5
C4A6
330
1A
100
AcDbEntity
  8
0
100
AcDbCircle
 10
108.5631128297267
 20
69.83990249868327
 30
0.0
 40
1.25
100
AcDbArc
 50
306.8698976458455
 51
53.13010235415447
  0
LINE
  5
C4A7
330
1A
100
AcDbEntity
  8
0
100
AcDbLine
 10
80.31774257742382
 20
94.83990249868329
 30
0.0
 11
98.81774257742382
 21
94.83990249868329
 31
0.0
  0
LINE
  5
C4A8
330
1A
100
AcDbEntity
  8
0
100
AcDbLine
 10
75.31774257742381
 20
97.83990249868329
 30
0.0
 11
80.31774257742382
 21
97.83990249868329
 31
0.0
  0
ARC
  5
C4A9
330
1A
100
AcDbEntity
  8
0
100
AcDbCircle
 10
113.9385172199481
 20
87.83990249868326
 30
0.0
 40
1.24999999999999
100
AcDbArc
 50
126.8698976458375
 51
233.1301023541546
  0
LINE
  5
C4AA
330
1A
100
AcDbEntity
  8
0
100
AcDbLine
 10
105.8177425774238
 20
85.83990249868326
 30
0.0
 11
105.8177425774238
 21
91.83990249868328
 31
0.0
  0
LINE
  5
C4AB
330
1A
100
AcDbEntity
  8
0
100
AcDbLine
 10
105.8177425774238
 20
85.83990249868326
 30
0.0
 11
105.8177425774238
 21
91.83990249868328
 31
0.0
  0
LINE
  5
C4AC
330
1A
100
AcDbEntity
  8
0
100
AcDbLine
 10
105.8177425774238
 20
86.83990249868328
 30
0.0
 11
113.1885172199481
 21
86.83990249868328
 31
0.0
  0
LINE
  5
C4AD
330
1A
100
AcDbEntity
  8
0
100
AcDbLine
 10
105.8177425774238
 20
90.83990249868326
 30
0.0
 11
113.1885172199481
 21
90.83990249868326
 31
0.0
  0
ARC
  5
C4AE
330
1A
100
AcDbEntity
  8
0
100
AcDbCircle
 10
112.4385172199481
 20
89.83990249868325
 30
0.0
 40
1.25
100
AcDbArc
 50
306.8698976458455
 51
53.13010235415447
  0
LINE
  5
C4AF
330
1A
100
AcDbEntity
  8
0
100
AcDbLine
 10
101.8177425774238
 20
85.83990249868326
 30
0.0
 11
101.8177425774238
 21
91.83990249868328
 31
0.0
  0
LINE
  5
C4B0
330
1A
100
AcDbEntity
  8
0
100
AcDbLine
 10
101.8177425774238
 20
85.8399024986835
 30
0.0
 11
105.8177425774238
 21
85.83990249868326
 31
0.0
  0
ARC
  5
C4B1
330
1A
100
AcDbEntity
  8
0
100
AcDbCircle
 10
98.81774257742382
 20
91.83990249868328
 30
0.0
 40
3.0
100
AcDbArc
 50
0.0
 51
90.0
  0
LINE
  5
C4B2
330
1A
100
AcDbEntity
  8
0
100
AcDbLine
 10
101.8177425774238
 20
91.83990249868328
 30
0.0
 11
105.8177425774238
 21
91.83990249868328
 31
0.0
  0
LINE
  5
C4B3
330
1A
100
AcDbEntity
  8
0
 62
     7
100
AcDbLine
 10
-23.88098723335418
 20
133.8399024986832
 30
0.0
 11
-17.18225742257618
 21
158.8399024986832
 31
0.0
  0
LINE
  5
C4B4
330
1A
100
AcDbEntity
  8
0
 62
     7
100
AcDbLine
 10
19.81774257742381
 20
133.8399024986832
 30
0.0
 11
19.81774257742381
 21
158.8399024986832
 31
0.0
  0
CIRCLE
  5
C4B5
330
1A
100
AcDbEntity
  8
0
100
AcDbCircle
 10
2.179849543185127
 20
137.8399024986832
 30
0.0
 40
2.75
  0
LINE
  5
C4B6
330
1A
100
AcDbEntity
  8
0
100
AcDbLine
 10
-17.18225742257618
 20
158.8399024986832
 30
0.0
 11
19.81774257742381
 21
158.8399024986832
 31
0.0
  0
LINE
  5
C4B7
330
1A
100
AcDbEntity
  8
0
100
AcDbLine
 10
-24.01545044885552
 20
159.0629716382641
 30
0.0
 11
-24.01545044885552
 21
143.0629716382641
 31
0.0
  0
LINE
  5
C4B8
330
1A
100
AcDbEntity
  8
0
100
AcDbLine
 10
-8.015450448855517
 20
214.8629716382641
 30
0.0
 11
-72.91545044885548
 21
214.8629716382641
 31
0.0
  0
LINE
  5
C4B9
330
1A
100
AcDbEntity
  8
0
100
AcDbLine
 10
-75.41545044885548
 20
198.3629716382641
 30
0.0
 11
-75.41545044885548
 21
198.862971638264
 31
0.0
  0
ARC
  5
C4BA
330
1A
100
AcDbEntity
  8
0
100
AcDbCircle
 10
-80.91545044885547
 20
189.862971638264
 30
0.0
 40
1.5
100
AcDbArc
 50
180.0
 51
270.0
  0
LINE
  5
C4BB
330
1A
100
AcDbEntity
  8
0
100
AcDbLine
 10
-82.41545044885548
 20
191.862971638264
 30
0.0
 11
-82.9154504488555
 21
191.862971638264
 31
0.0
  0
LINE
  5
C4BC
330
1A
100
AcDbEntity
  8
0
100
AcDbLine
 10
-83.41545044885547
 20
198.862971638264
 30
0.0
 11
-75.41545044885548
 21
198.862971638264
 31
0.0
  0
LINE
  5
C4BD
330
1A
100
AcDbEntity
  8
0
100
AcDbLine
 10
-82.9154504488555
 20
198.3629716382641
 30
0.0
 11
-75.41545044885548
 21
198.3629716382641
 31
0.0
  0
ARC
  5
C4BE
330
1A
100
AcDbEntity
  8
0
100
AcDbCircle
 10
-80.91545044885547
 20
183.8629716382641
 30
0.0
 40
1.5
100
AcDbArc
 50
90.0
 51
180.0
  0
LINE
  5
C4BF
330
1A
100
AcDbEntity
  8
0
100
AcDbLine
 10
-84.15512327849876
 20
183.9555872286809
 30
0.0
 11
-84.15512327849876
 21
189.7703560478474
 31
0.0
  0
ARC
  5
C4C0
330
1A
100
AcDbEntity
  8
0
100
AcDbCircle
 10
-83.41545044885547
 20
186.862971638264
 30
0.0
 40
3.0
100
AcDbArc
 50
90.0
 51
270.0
  0
LINE
  5
C4C1
330
1A
100
AcDbEntity
  8
0
100
AcDbLine
 10
-80.91545044885547
 20
188.3629716382643
 30
0.0
 11
-80.91545044885547
 21
185.362971638264
 31
0.0
  0
LINE
  5
C4C2
330
1A
100
AcDbEntity
  8
0
100
AcDbLine
 10
-95.68225742257618
 20
335.0691515056872
 30
0.0
 11
-95.68225742257618
 21
357.1146060511417
 31
0.0
  0
LINE
  5
C4C3
330
1A
100
AcDbEntity
  8
0
100
AcDbLine
 10
-95.68225742257608
 20
408.069151505687
 30
0.0
 11
-72.91545044885561
 21
408.069151505687
 31
0.0
  0
LINE
  5
C4C4
330
1A
100
AcDbEntity
  8
0
100
AcDbLine
 10
75.31774257742393
 20
335.0691515056872
 30
0.0
 11
75.31774257742381
 21
408.069151505687
 31
0.0
  0
LINE
  5
C4C5
330
1A
100
AcDbEntity
  8
0
100
AcDbLine
 10
-95.68225742257608
 20
335.0691515056872
 30
0.0
 11
-72.91545044885561
 21
335.0691515056872
 31
0.0
  0
LINE
  5
C4C6
330
1A
100
AcDbEntity
  8
0
100
AcDbLine
 10
-8.015450448855517
 20
331.8191515056871
 30
0.0
 11
-8.015450448855517
 21
410.7022368619267
 31
0.0
  0
LINE
  5
C4C7
330
1A
100
AcDbEntity
  8
0
100
AcDbLine
 10
-95.68225742257618
 20
371.5691515056871
 30
0.0
 11
-83.41545044885547
 21
371.5691515056871
 31
0.0
  0
LINE
  5
C4C8
330
1A
100
AcDbEntity
  8
0
100
AcDbLine
 10
75.31774257742381
 20
380.5691515056872
 30
0.0
 11
80.31774257742382
 21
380.5691515056872
 31
0.0
  0
LINE
  5
C4C9
330
1A
100
AcDbEntity
  8
0
100
AcDbLine
 10
75.31774257742381
 20
362.5691515056872
 30
0.0
 11
80.31774257742382
 21
362.5691515056872
 31
0.0
  0
LINE
  5
C4CA
330
1A
100
AcDbEntity
  8
0
100
AcDbLine
 10
101.8177425774238
 20
368.5691515056872
 30
0.0
 11
101.8177425774238
 21
374.5691515056872
 31
0.0
  0
ARC
  5
C4CB
330
1A
100
AcDbEntity
  8
0
100
AcDbCircle
 10
112.4385172199481
 20
372.5691515056872
 30
0.0
 40
1.25
100
AcDbArc
 50
306.8698976458455
 51
53.13010235415447
  0
LINE
  5
C4CC
330
1A
100
AcDbEntity
  8
0
100
AcDbLine
 10
105.8177425774238
 20
368.5691515056872
 30
0.0
 11
105.8177425774238
 21
374.5691515056872
 31
0.0
  0
LINE
  5
C4CD
330
1A
100
AcDbEntity
  8
0
100
AcDbLine
 10
105.8177425774238
 20
368.5691515056872
 30
0.0
 11
105.8177425774238
 21
374.5691515056872
 31
0.0
  0
LINE
  5
C4CE
330
1A
100
AcDbEntity
  8
0
100
AcDbLine
 10
80.31774257742382
 20
362.5691515056872
 30
0.0
 11
80.31774257742382
 21
380.5691515056872
 31
0.0
  0
ARC
  5
C4CF
330
1A
100
AcDbEntity
  8
0
100
AcDbCircle
 10
98.81774257742382
 20
368.5691515056872
 30
0.0
 40
3.0
100
AcDbArc
 50
270.0
 51
0.0
  0
LINE
  5
C4D0
330
1A
100
AcDbEntity
  8
0
100
AcDbLine
 10
80.31774257742382
 20
365.5691515056872
 30
0.0
 11
98.81774257742382
 21
365.5691515056872
 31
0.0
  0
LINE
  5
C4D1
330
1A
100
AcDbEntity
  8
0
100
AcDbLine
 10
101.8177425774238
 20
368.5691515056874
 30
0.0
 11
105.8177425774238
 21
368.5691515056872
 31
0.0
  0
LINE
  5
C4D2
330
1A
100
AcDbEntity
  8
0
100
AcDbLine
 10
105.8177425774238
 20
369.5691515056872
 30
0.0
 11
113.1885172199481
 21
369.5691515056872
 31
0.0
  0
ARC
  5
C4D3
330
1A
100
AcDbEntity
  8
0
100
AcDbCircle
 10
113.9385172199481
 20
370.5691515056872
 30
0.0
 40
1.24999999999999
100
AcDbArc
 50
126.8698976458375
 51
233.1301023541546
  0
ARC
  5
C4D4
330
1A
100
AcDbEntity
  8
0
100
AcDbCircle
 10
98.81774257742382
 20
374.5691515056872
 30
0.0
 40
3.0
100
AcDbArc
 50
0.0
 51
90.0
  0
LINE
  5
C4D5
330
1A
100
AcDbEntity
  8
0
100
AcDbLine
 10
80.31774257742382
 20
377.5691515056871
 30
0.0
 11
98.81774257742382
 21
377.5691515056871
 31
0.0
  0
LINE
  5
C4D6
330
1A
100
AcDbEntity
  8
0
100
AcDbLine
 10
101.8177425774238
 20
374.5691515056872
 30
0.0
 11
105.8177425774238
 21
374.5691515056872
 31
0.0
  0
LINE
  5
C4D7
330
1A
100
AcDbEntity
  8
0
100
AcDbLine
 10
105.8177425774238
 20
373.5691515056871
 30
0.0
 11
113.1885172199481
 21
373.5691515056871
 31
0.0
  0
LINE
  5
C4D8
330
1A
100
AcDbEntity
  8
0
100
AcDbLine
 10
-72.91545044885561
 20
331.8191515056871
 30
0.0
 11
-72.91545044885561
 21
410.7022368619265
 31
0.0
  0
LINE
  5
C4D9
330
1A
100
AcDbEntity
  8
0
100
AcDbLine
 10
-128.0154504488555
 20
357.1146060511417
 30
0.0
 11
-128.0154504488555
 21
386.0236969602324
 31
0.0
  0
LINE
  5
C4DA
330
1A
100
AcDbEntity
  8
0
100
AcDbLine
 10
-95.68225742257618
 20
371.5691515056871
 30
0.0
 11
-128.0154504488555
 21
371.5691515056871
 31
0.0
  0
LINE
  5
C4DB
330
1A
100
AcDbEntity
  8
0
100
AcDbLine
 10
-72.91545044885548
 20
410.7022368619267
 30
0.0
 11
-8.015450448855517
 21
410.7022368619267
 31
0.0
  0
LINE
  5
C4DC
330
1A
100
AcDbEntity
  8
0
100
AcDbLine
 10
-72.91545044885548
 20
331.819151505687
 30
0.0
 11
-8.015450448855517
 21
331.8191515056871
 31
0.0
  0
LINE
  5
C4DD
330
1A
100
AcDbEntity
  8
0
100
AcDbLine
 10
-8.015450448855517
 20
408.069151505687
 30
0.0
 11
75.31774257742381
 21
408.069151505687
 31
0.0
  0
LINE
  5
C4DE
330
1A
100
AcDbEntity
  8
0
100
AcDbLine
 10
-8.015450448855517
 20
335.0691515056872
 30
0.0
 11
75.31774257742393
 21
335.0691515056872
 31
0.0
  0
LINE
  5
C4DF
330
1A
100
AcDbEntity
  8
0
100
AcDbLine
 10
-128.0154504488556
 20
386.0236969602324
 30
0.0
 11
-72.91545044885548
 21
386.0236969602324
 31
0.0
  0
LINE
  5
C4E0
330
1A
100
AcDbEntity
  8
0
100
AcDbLine
 10
-128.0154504488555
 20
357.1146060511417
 30
0.0
 11
-72.91545044885561
 21
357.1146060511417
 31
0.0
  0
LINE
  5
C4E1
330
1A
100
AcDbEntity
  8
0
100
AcDbLine
 10
-95.68225742257608
 20
386.0236969602324
 30
0.0
 11
-95.68225742257608
 21
408.069151505687
 31
0.0
  0
LINE
  5
C4E2
330
1A
100
AcDbEntity
  8
0
100
AcDbLine
 10
-83.41545044885547
 20
357.1146060511417
 30
0.0
 11
-83.41545044885547
 21
386.0236969602324
 31
0.0
  0
LINE
  5
C4E3
330
1A
100
AcDbEntity
  8
0
100
AcDbLine
 10
-75.41545044885537
 20
357.1146060511417
 30
0.0
 11
-75.41545044885548
 21
386.0236969602324
 31
0.0
  0
LINE
  5
C4E4
330
1A
100
AcDbEntity
  8
0
100
AcDbLine
 10
-128.0154504488556
 20
385.4236969602324
 30
0.0
 11
-83.41545044885547
 21
385.4236969602324
 31
0.0
  0
LINE
  5
C4E5
330
1A
100
AcDbEntity
  8
0
100
AcDbLine
 10
-128.0154504488555
 20
357.7146060511417
 30
0.0
 11
-83.41545044885547
 21
357.7146060511417
 31
0.0
  0
LINE
  5
C4E6
330
1A
100
AcDbEntity
  8
0
100
AcDbLine
 10
-72.31545044885558
 20
331.8191515056871
 30
0.0
 11
-72.31545044885558
 21
410.7022368619265
 31
0.0
  0
LINE
  5
C4E7
330
1A
100
AcDbEntity
  8
0
100
AcDbLine
 10
-8.61545044885554
 20
331.8191515056871
 30
0.0
 11
-8.61545044885554
 21
410.7022368619267
 31
0.0
  0
LINE
  5
C4E8
330
1A
100
AcDbEntity
  8
0
100
AcDbLine
 10
-72.91545044885548
 20
332.4191515056869
 30
0.0
 11
-8.015450448855517
 21
332.4191515056871
 31
0.0
  0
LINE
  5
C4E9
330
1A
100
AcDbEntity
  8
0
100
AcDbLine
 10
-72.91545044885548
 20
410.1022368619267
 30
0.0
 11
-8.015450448855517
 21
410.1022368619267
 31
0.0
  0
LINE
  5
C4EA
330
1A
100
AcDbEntity
  8
0
100
AcDbLine
 10
-72.31545044885558
 20
371.5691515056871
 30
0.0
 11
-44.18617409517377
 21
371.5691515056871
 31
0.0
  0
LINE
  5
C4EB
330
1A
100
AcDbEntity
  8
0
100
AcDbLine
 10
-44.18617409517377
 20
371.5691515056871
 30
0.0
 11
-8.61545044885554
 21
410.1022368619267
 31
0.0
  0
LINE
  5
C4EC
330
1A
100
AcDbEntity
  8
0
100
AcDbLine
 10
-44.18617409517377
 20
371.5691515056871
 30
0.0
 11
-8.61545044885554
 21
332.4191515056871
 31
0.0
  0
LINE
  5
C4ED
330
1A
100
AcDbEntity
  8
0
100
AcDbLine
 10
19.8177425774237
 20
354.0691515056872
 30
0.0
 11
19.8177425774237
 21
388.0691515056868
 31
0.0
  0
LINE
  5
C4EE
330
1A
100
AcDbEntity
  8
0
100
AcDbLine
 10
-8.015450448855517
 20
388.0691515056869
 30
0.0
 11
19.81774257742381
 21
388.0691515056868
 31
0.0
  0
LINE
  5
C4EF
330
1A
100
AcDbEntity
  8
0
100
AcDbLine
 10
-8.015450448855517
 20
354.0691515056872
 30
0.0
 11
19.8177425774237
 21
354.0691515056872
 31
0.0
  0
LINE
  5
C4F0
330
1A
100
AcDbEntity
  8
0
100
AcDbLine
 10
30.81774257742404
 20
322.569151505687
 30
0.0
 11
30.81774257742393
 21
335.0691515056872
 31
0.0
  0
LINE
  5
C4F1
330
1A
100
AcDbEntity
  8
0
100
AcDbLine
 10
46.81774257742371
 20
322.569151505687
 30
0.0
 11
46.81774257742392
 21
335.0691515056872
 31
0.0
  0
LINE
  5
C4F2
330
1A
100
AcDbEntity
  8
0
100
AcDbLine
 10
-69.1822574225763
 20
322.569151505687
 30
0.0
 11
-69.18225742257607
 21
331.819151505687
 31
0.0
  0
LINE
  5
C4F3
330
1A
100
AcDbEntity
  8
0
100
AcDbLine
 10
-53.18225742257618
 20
322.569151505687
 30
0.0
 11
-53.18225742257618
 21
331.819151505687
 31
0.0
  0
LINE
  5
C4F4
330
1A
100
AcDbEntity
  8
0
100
AcDbLine
 10
-68.18225742257618
 20
421.569151505687
 30
0.0
 11
-54.18225742257618
 21
421.569151505687
 31
0.0
  0
LINE
  5
C4F5
330
1A
100
AcDbEntity
  8
0
100
AcDbLine
 10
-68.1822574225763
 20
321.569151505687
 30
0.0
 11
-54.18225742257618
 21
321.5691515056871
 31
0.0
  0
LINE
  5
C4F6
330
1A
100
AcDbEntity
  8
0
100
AcDbLine
 10
31.81774257742381
 20
421.569151505687
 30
0.0
 11
45.81774257742381
 21
421.5691515056871
 31
0.0
  0
LINE
  5
C4F7
330
1A
100
AcDbEntity
  8
0
100
AcDbLine
 10
31.81774257742404
 20
321.5691515056871
 30
0.0
 11
45.81774257742369
 21
321.569151505687
 31
0.0
  0
LINE
  5
C4F8
330
1A
100
AcDbEntity
  8
0
100
AcDbLine
 10
46.81774257742381
 20
408.069151505687
 30
0.0
 11
46.81774257742381
 21
420.569151505687
 31
0.0
  0
LINE
  5
C4F9
330
1A
100
AcDbEntity
  8
0
100
AcDbLine
 10
30.81774257742393
 20
408.069151505687
 30
0.0
 11
30.81774257742381
 21
420.569151505687
 31
0.0
  0
LINE
  5
C4FA
330
1A
100
AcDbEntity
  8
0
100
AcDbLine
 10
-53.18225742257618
 20
410.7022368619267
 30
0.0
 11
-53.18225742257618
 21
420.569151505687
 31
0.0
  0
LINE
  5
C4FB
330
1A
100
AcDbEntity
  8
0
100
AcDbLine
 10
-69.18225742257607
 20
410.7022368619265
 30
0.0
 11
-69.18225742257618
 21
420.569151505687
 31
0.0
  0
LINE
  5
C4FC
330
1A
100
AcDbEntity
  8
0
100
AcDbLine
 10
-68.18225742257618
 20
421.569151505687
 30
0.0
 11
-69.18225742257618
 21
420.569151505687
 31
0.0
  0
LINE
  5
C4FD
330
1A
100
AcDbEntity
  8
0
100
AcDbLine
 10
-54.18225742257618
 20
421.569151505687
 30
0.0
 11
-53.18225742257618
 21
420.569151505687
 31
0.0
  0
LINE
  5
C4FE
330
1A
100
AcDbEntity
  8
0
100
AcDbLine
 10
31.81774257742381
 20
421.569151505687
 30
0.0
 11
30.81774257742381
 21
420.569151505687
 31
0.0
  0
LINE
  5
C4FF
330
1A
100
AcDbEntity
  8
0
100
AcDbLine
 10
45.81774257742381
 20
421.5691515056871
 30
0.0
 11
46.81774257742381
 21
420.569151505687
 31
0.0
  0
LINE
  5
C500
330
1A
100
AcDbEntity
  8
0
100
AcDbLine
 10
46.81774257742371
 20
322.569151505687
 30
0.0
 11
45.81774257742369
 21
321.569151505687
 31
0.0
  0
LINE
  5
C501
330
1A
100
AcDbEntity
  8
0
100
AcDbLine
 10
30.81774257742404
 20
322.569151505687
 30
0.0
 11
31.81774257742404
 21
321.5691515056871
 31
0.0
  0
LINE
  5
C502
330
1A
100
AcDbEntity
  8
0
100
AcDbLine
 10
-53.18225742257618
 20
322.569151505687
 30
0.0
 11
-54.18225742257618
 21
321.5691515056871
 31
0.0
  0
LINE
  5
C503
330
1A
100
AcDbEntity
  8
0
100
AcDbLine
 10
-69.1822574225763
 20
322.569151505687
 30
0.0
 11
-68.1822574225763
 21
321.569151505687
 31
0.0
  0
CIRCLE
  5
C504
330
1A
100
AcDbEntity
  8
0
100
AcDbCircle
 10
38.81774257742382
 20
329.5691515056871
 30
0.0
 40
2.25
  0
CIRCLE
  5
C505
330
1A
100
AcDbEntity
  8
0
100
AcDbCircle
 10
-61.18225742257617
 20
329.5691515056871
 30
0.0
 40
2.25
  0
CIRCLE
  5
C506
330
1A
100
AcDbEntity
  8
0
100
AcDbCircle
 10
-61.18225742257617
 20
413.5691515056871
 30
0.0
 40
2.25
  0
CIRCLE
  5
C507
330
1A
100
AcDbEntity
  8
0
100
AcDbCircle
 10
38.81774257742382
 20
413.5691515056871
 30
0.0
 40
2.25
  0
LINE
  5
C508
330
1A
100
AcDbEntity
  8
0
 62
     9
100
AcDbLine
 10
32.81774257742382
 20
329.5691515056871
 30
0.0
 11
44.81774257742381
 21
329.5691515056871
 31
0.0
  0
LINE
  5
C509
330
1A
100
AcDbEntity
  8
0
 62
     9
100
AcDbLine
 10
38.81774257742382
 20
323.5691515056871
 30
0.0
 11
38.81774257742382
 21
335.5691515056872
 31
0.0
  0
LINE
  5
C50A
330
1A
100
AcDbEntity
  8
0
 62
     9
100
AcDbLine
 10
32.81774257742382
 20
413.5691515056871
 30
0.0
 11
44.81774257742381
 21
413.5691515056871
 31
0.0
  0
LINE
  5
C50B
330
1A
100
AcDbEntity
  8
0
 62
     9
100
AcDbLine
 10
38.81774257742382
 20
407.569151505687
 30
0.0
 11
38.81774257742382
 21
419.569151505687
 31
0.0
  0
LINE
  5
C50C
330
1A
100
AcDbEntity
  8
0
 62
     9
100
AcDbLine
 10
-67.18225742257619
 20
413.5691515056871
 30
0.0
 11
-55.18225742257619
 21
413.5691515056871
 31
0.0
  0
LINE
  5
C50D
330
1A
100
AcDbEntity
  8
0
 62
     9
100
AcDbLine
 10
-61.18225742257617
 20
407.569151505687
 30
0.0
 11
-61.18225742257617
 21
419.569151505687
 31
0.0
  0
LINE
  5
C50E
330
1A
100
AcDbEntity
  8
0
 62
     9
100
AcDbLine
 10
-67.18225742257619
 20
329.5691515056871
 30
0.0
 11
-55.18225742257619
 21
329.5691515056871
 31
0.0
  0
LINE
  5
C50F
330
1A
100
AcDbEntity
  8
0
 62
     9
100
AcDbLine
 10
-61.18225742257617
 20
323.5691515056871
 30
0.0
 11
-61.18225742257617
 21
335.5691515056872
 31
0.0
  0
LINE
  5
C510
330
1A
100
AcDbEntity
  8
0
 62
     9
100
AcDbLine
 10
-3.820150456814872
 20
137.8399024986832
 30
0.0
 11
8.179849543185127
 21
137.8399024986832
 31
0.0
  0
LINE
  5
C511
330
1A
100
AcDbEntity
  8
0
 62
     9
100
AcDbLine
 10
2.179849543185127
 20
131.8399024986832
 30
0.0
 11
2.179849543185127
 21
143.8399024986833
 31
0.0
  0
LINE
  5
C512
330
1A
100
AcDbEntity
  8
0
 62
     9
100
AcDbLine
 10
-16.18225742257618
 20
68.82150226625981
 30
0.0
 11
-4.182257422576184
 21
68.82150226625981
 31
0.0
  0
LINE
  5
C513
330
1A
100
AcDbEntity
  8
0
 62
     9
100
AcDbLine
 10
-10.18225742257618
 20
62.82150226625982
 30
0.0
 11
-10.18225742257618
 21
74.82150226625981
 31
0.0
  0
LINE
  5
C514
330
1A
100
AcDbEntity
  8
0
 62
     9
100
AcDbLine
 10
-232.5175668966821
 20
68.83990249868327
 30
0.0
 11
-220.5175668966821
 21
68.83990249868327
 31
0.0
  0
LINE
  5
C515
330
1A
100
AcDbEntity
  8
0
 62
     9
100
AcDbLine
 10
-226.5175668966821
 20
62.83990249868327
 30
0.0
 11
-226.5175668966821
 21
74.83990249868326
 31
0.0
  0
LINE
  5
C516
330
1A
100
AcDbEntity
  8
0
 62
     9
100
AcDbLine
 10
-287.5175668966821
 20
68.83990249868327
 30
0.0
 11
-275.517566896682
 21
68.83990249868327
 31
0.0
  0
LINE
  5
C517
330
1A
100
AcDbEntity
  8
0
 62
     9
100
AcDbLine
 10
-281.5175668966821
 20
62.83990249868327
 30
0.0
 11
-281.5175668966821
 21
74.83990249868326
 31
0.0
  0
LINE
  5
C518
330
1A
100
AcDbEntity
  8
0
 62
     9
100
AcDbLine
 10
-296.5600246340363
 20
68.83990249868327
 30
0.0
 11
-284.5600246340363
 21
68.83990249868327
 31
0.0
  0
LINE
  5
C519
330
1A
100
AcDbEntity
  8
0
 62
     9
100
AcDbLine
 10
-224.4615576475033
 20
68.83990249868327
 30
0.0
 11
-212.4615576475033
 21
68.83990249868327
 31
0.0
  0
LINE
  5
C51A
330
1A
100
AcDbEntity
  8
0
 62
     9
100
AcDbLine
 10
-103.1740277640882
 20
68.83990249868327
 30
0.0
 11
-91.17402776408823
 21
68.83990249868327
 31
0.0
  0
LINE
  5
C51B
330
1A
100
AcDbEntity
  8
0
  6
CENTER
 62
     9
100
AcDbLine
 10
67.47392169224895
 20
371.5691515056871
 30
0.0
 11
117.684081683657
 21
371.5691515056871
 31
0.0
  0
LINE
  5
C51C
330
1A
100
AcDbEntity
  8
0
  6
CENTER
 62
     8
100
AcDbLine
 10
439.2027698807672
 20
371.5691515056871
 30
0.0
 11
130.9610179078572
 21
371.5691515056871
 31
0.0
  0
LINE
  5
C51D
330
1A
100
AcDbEntity
  8
0
  6
HIDDEN
 62
     8
100
AcDbLine
 10
165.8935903703721
 20
320.5691515056872
 30
0.0
 11
399.8935903703723
 21
320.5691515056872
 31
0.0
  0
LINE
  5
C51E
330
1A
100
AcDbEntity
  8
0
  6
HIDDEN
 62
     8
100
AcDbLine
 10
165.8935903703722
 20
422.5691515056873
 30
0.0
 11
399.8935903703723
 21
422.5691515056871
 31
0.0
  0
LINE
  5
C51F
330
1A
100
AcDbEntity
  8
0
100
AcDbLine
 10
162.893590370372
 20
317.5691515056872
 30
0.0
 11
402.8935903703723
 21
317.5691515056872
 31
0.0
  0
LINE
  5
C520
330
1A
100
AcDbEntity
  8
0
100
AcDbLine
 10
162.8935903703723
 20
425.5691515056871
 30
0.0
 11
402.8935903703723
 21
425.5691515056871
 31
0.0
  0
LINE
  5
C521
330
1A
100
AcDbEntity
  8
0
100
AcDbLine
 10
402.8935903703723
 20
230.8399024986833
 30
0.0
 11
162.8935903703723
 21
230.8399024986833
 31
0.0
  0
LINE
  5
C522
330
1A
100
AcDbEntity
  8
0
100
AcDbLine
 10
402.8935903703723
 20
58.83990249868327
 30
0.0
 11
182.8935903703723
 21
58.83990249868327
 31
0.0
  0
LINE
  5
C523
330
1A
100
AcDbEntity
  8
0
  6
HIDDEN
 62
     8
 48
2.0
100
AcDbLine
 10
402.8935903703723
 20
227.8399024986833
 30
0.0
 11
162.8935903703723
 21
227.8399024986833
 31
0.0
  0
LINE
  5
C524
330
1A
100
AcDbEntity
  8
0
100
AcDbLine
 10
284.8935903703723
 20
235.8399024986833
 30
0.0
 11
284.8935903703723
 21
232.8399024986833
 31
0.0
  0
LINE
  5
C525
330
1A
100
AcDbEntity
  8
0
100
AcDbLine
 10
297.8935903703723
 20
235.8399024986833
 30
0.0
 11
297.8935903703723
 21
230.8399024986833
 31
0.0
  0
LINE
  5
C526
330
1A
100
AcDbEntity
  8
0
100
AcDbLine
 10
287.8935903703723
 20
235.8399024986833
 30
0.0
 11
287.8935903703723
 21
230.8399024986833
 31
0.0
  0
LINE
  5
C527
330
1A
100
AcDbEntity
  8
0
100
AcDbLine
 10
284.8935903703723
 20
235.8399024986833
 30
0.0
 11
284.8935903703723
 21
230.8399024986833
 31
0.0
  0
LINE
  5
C528
330
1A
100
AcDbEntity
  8
0
  6
CENTER
 62
     8
100
AcDbLine
 10
312.8935903703723
 20
248.7970107013954
 30
0.0
 11
312.8935903703723
 21
215.5931254594829
 31
0.0
  0
ARC
  5
C529
330
1A
100
AcDbEntity
  8
0
100
AcDbCircle
 10
234.8935903703723
 20
237.8399024986834
 30
0.0
 40
5.0
100
AcDbArc
 50
180.0
 51
270.0
  0
LINE
  5
C52A
330
1A
100
AcDbEntity
  8
0
100
AcDbLine
 10
307.8935903703723
 20
266.8399024986833
 30
0.0
 11
307.8935903703723
 21
230.8399024986833
 31
0.0
  0
LINE
  5
C52B
330
1A
100
AcDbEntity
  8
0
100
AcDbLine
 10
306.8935903703723
 20
266.8399024986833
 30
0.0
 11
306.8935903703723
 21
230.8399024986833
 31
0.0
  0
LINE
  5
C52C
330
1A
100
AcDbEntity
  8
0
100
AcDbLine
 10
304.8935903703723
 20
266.8399024986833
 30
0.0
 11
304.8935903703723
 21
230.8399024986833
 31
0.0
  0
LINE
  5
C52D
330
1A
100
AcDbEntity
  8
0
100
AcDbLine
 10
303.8935903703723
 20
266.8399024986833
 30
0.0
 11
303.8935903703723
 21
230.8399024986833
 31
0.0
  0
LINE
  5
C52E
330
1A
100
AcDbEntity
  8
0
100
AcDbLine
 10
317.8935903703723
 20
266.8399024986833
 30
0.0
 11
317.8935903703723
 21
230.8399024986833
 31
0.0
  0
LINE
  5
C52F
330
1A
100
AcDbEntity
  8
0
100
AcDbLine
 10
318.8935903703723
 20
266.8399024986833
 30
0.0
 11
318.8935903703723
 21
230.8399024986833
 31
0.0
  0
LINE
  5
C530
330
1A
100
AcDbEntity
  8
0
100
AcDbLine
 10
320.8935903703723
 20
266.8399024986833
 30
0.0
 11
320.8935903703723
 21
230.8399024986833
 31
0.0
  0
LINE
  5
C531
330
1A
100
AcDbEntity
  8
0
100
AcDbLine
 10
321.8935903703723
 20
266.8399024986833
 30
0.0
 11
321.8935903703723
 21
230.8399024986833
 31
0.0
  0
LINE
  5
C532
330
1A
100
AcDbEntity
  8
0
100
AcDbLine
 10
323.8935903703723
 20
266.8399024986833
 30
0.0
 11
323.8935903703723
 21
230.8399024986833
 31
0.0
  0
LINE
  5
C533
330
1A
100
AcDbEntity
  8
0
100
AcDbLine
 10
301.8935903703723
 20
266.8399024986833
 30
0.0
 11
301.8935903703723
 21
230.8399024986833
 31
0.0
  0
LINE
  5
C534
330
1A
100
AcDbEntity
  8
0
  6
HIDDEN
 62
     8
100
AcDbLine
 10
213.8061040188222
 20
58.83990249868327
 30
0.0
 11
384.8061040188222
 21
58.83990249868327
 31
0.0
  0
LINE
  5
C535
330
1A
100
AcDbEntity
  8
0
  6
HIDDEN
 62
     8
100
AcDbLine
 10
213.8061040188222
 20
133.8399024986832
 30
0.0
 11
384.8061040188222
 21
133.8399024986832
 31
0.0
  0
LINE
  5
C536
330
1A
100
AcDbEntity
  8
0
  6
HIDDEN
 62
     8
100
AcDbLine
 10
300.8758237098609
 20
214.8629716382641
 30
0.0
 11
265.3021873462246
 21
160.3629716382642
 31
0.0
  0
LINE
  5
C537
330
1A
100
AcDbEntity
  8
0
  6
HIDDEN
 62
     8
100
AcDbLine
 10
301.4729109925429
 20
214.8629716382641
 30
0.0
 11
265.5729109925429
 21
159.8629716382641
 31
0.0
  0
LINE
  5
C538
330
1A
100
AcDbEntity
  8
0
  6
HIDDEN
 62
     8
100
AcDbLine
 10
285.6073742080442
 20
133.8399024986832
 30
0.0
 11
292.3061040188222
 21
158.8399024986832
 31
0.0
  0
LINE
  5
C539
330
1A
100
AcDbEntity
  8
0
  6
HIDDEN
 62
     8
100
AcDbLine
 10
301.4729109925429
 20
214.8629716382641
 30
0.0
 11
236.5729109925429
 21
214.8629716382641
 31
0.0
  0
LINE
  5
C53A
330
1A
100
AcDbEntity
  8
0
  6
HIDDEN
 62
     8
100
AcDbLine
 10
213.8061040188222
 20
58.83990249868327
 30
0.0
 11
213.8061040188223
 21
133.8399024986832
 31
0.0
  0
LINE
  5
C53B
330
1A
100
AcDbEntity
  8
0
  6
HIDDEN
 62
     8
100
AcDbLine
 10
248.3061040188222
 20
54.34032190729489
 30
0.0
 11
248.3061040188222
 21
66.15391629512988
 31
0.0
  0
ARC
  5
C53C
330
1A
100
AcDbEntity
  8
0
  6
HIDDEN
 62
     8
100
AcDbCircle
 10
213.8061040188222
 20
68.83990249868327
 30
0.0
 40
2.75
100
AcDbArc
 50
90.0
 51
270.0
  0
LINE
  5
C53D
330
1A
100
AcDbEntity
  8
0
  6
HIDDEN
 62
     8
100
AcDbLine
 10
206.3143336773102
 20
68.83990249868327
 30
0.0
 11
218.3143336773102
 21
68.83990249868327
 31
0.0
  0
LINE
  5
C53E
330
1A
100
AcDbEntity
  8
0
  6
HIDDEN
 62
     8
100
AcDbLine
 10
240.3061040188222
 20
60.83990249868327
 30
0.0
 11
256.3061040188222
 21
60.83990249868327
 31
0.0
  0
LINE
  5
C53F
330
1A
100
AcDbEntity
  8
0
  6
HIDDEN
 62
     8
100
AcDbLine
 10
242.3061040188222
 20
58.83990249868327
 30
0.0
 11
242.3061040188222
 21
60.83990249868327
 31
0.0
  0
LINE
  5
C540
330
1A
100
AcDbEntity
  8
0
  6
HIDDEN
 62
     8
100
AcDbLine
 10
240.3061040188222
 20
58.83990249868327
 30
0.0
 11
240.3061040188222
 21
60.83990249868327
 31
0.0
  0
LINE
  5
C541
330
1A
100
AcDbEntity
  8
0
  6
HIDDEN
 62
     8
100
AcDbLine
 10
254.3061040188222
 20
58.83990249868327
 30
0.0
 11
254.3061040188222
 21
60.83990249868327
 31
0.0
  0
LINE
  5
C542
330
1A
100
AcDbEntity
  8
0
  6
HIDDEN
 62
     8
100
AcDbLine
 10
256.3061040188222
 20
58.83990249868327
 30
0.0
 11
256.3061040188222
 21
60.83990249868327
 31
0.0
  0
LINE
  5
C543
330
1A
100
AcDbEntity
  8
0
  6
HIDDEN
 62
     8
100
AcDbLine
 10
181.4729109925429
 20
179.8629716382641
 30
0.0
 11
181.4729109925429
 21
159.8629716382641
 31
0.0
  0
LINE
  5
C544
330
1A
100
AcDbEntity
  8
0
  6
HIDDEN
 62
     8
100
AcDbLine
 10
272.2229109925429
 20
147.3129716382642
 30
0.0
 11
272.2229109925429
 21
144.0629716382642
 31
0.0
  0
LINE
  5
C545
330
1A
100
AcDbEntity
  8
0
  6
HIDDEN
 62
     8
100
AcDbLine
 10
268.7229109925429
 20
149.0629716382642
 30
0.0
 11
268.7229109925429
 21
144.0629716382642
 31
0.0
  0
LINE
  5
C546
330
1A
100
AcDbEntity
  8
0
  6
HIDDEN
 62
     8
100
AcDbLine
 10
243.7229109925429
 20
149.0629716382642
 30
0.0
 11
243.7229109925429
 21
144.0629716382642
 31
0.0
  0
LINE
  5
C547
330
1A
100
AcDbEntity
  8
0
  6
HIDDEN
 62
     8
100
AcDbLine
 10
247.2229109925429
 20
147.3129716382642
 30
0.0
 11
247.2229109925429
 21
144.0629716382642
 31
0.0
  0
LINE
  5
C548
330
1A
100
AcDbEntity
  8
0
  6
HIDDEN
 62
     8
100
AcDbLine
 10
285.4729109925429
 20
159.0629716382641
 30
0.0
 11
285.4729109925429
 21
143.0629716382641
 31
0.0
  0
LINE
  5
C549
330
1A
100
AcDbEntity
  8
0
  6
HIDDEN
 62
     8
100
AcDbLine
 10
205.4729109925429
 20
159.0629716382641
 30
0.0
 11
205.4729109925429
 21
143.0629716382641
 31
0.0
  0
LINE
  5
C54A
330
1A
100
AcDbEntity
  8
0
  6
HIDDEN
 62
     8
100
AcDbLine
 10
205.4729109925429
 20
143.0629716382641
 30
0.0
 11
242.7229109925429
 21
143.0629716382641
 31
0.0
  0
LINE
  5
C54B
330
1A
100
AcDbEntity
  8
0
  6
HIDDEN
 62
     8
100
AcDbLine
 10
230.8061040188223
 20
133.8399024986832
 30
0.0
 11
230.8061040188225
 21
141.8399024986833
 31
0.0
  0
LINE
  5
C54C
330
1A
100
AcDbEntity
  8
0
  6
HIDDEN
 62
     8
100
AcDbLine
 10
231.8061040188224
 20
133.8399024986832
 30
0.0
 11
231.8061040188224
 21
141.8399024986833
 31
0.0
  0
LINE
  5
C54D
330
1A
100
AcDbEntity
  8
0
  6
HIDDEN
 62
     8
100
AcDbLine
 10
230.8061040188225
 20
141.8399024986833
 30
0.0
 11
231.8061040188222
 21
141.8399024986833
 31
0.0
  0
LINE
  5
C54E
330
1A
100
AcDbEntity
  8
0
  6
HIDDEN
 62
     8
100
AcDbLine
 10
239.8061040188224
 20
141.8399024986833
 30
0.0
 11
287.7509677474932
 21
141.8399024986833
 31
0.0
  0
LINE
  5
C54F
330
1A
100
AcDbEntity
  8
0
  6
HIDDEN
 62
     8
100
AcDbLine
 10
248.2229109925429
 20
143.0629716382641
 30
0.0
 11
267.7229109925429
 21
143.0629716382641
 31
0.0
  0
CIRCLE
  5
C550
330
1A
100
AcDbEntity
  8
0
  6
HIDDEN
 62
     8
100
AcDbCircle
 10
246.8061040188223
 20
137.9645500927404
 30
0.0
 40
1.5
  0
LINE
  5
C551
330
1A
100
AcDbEntity
  8
0
  6
HIDDEN
 62
     8
100
AcDbLine
 10
240.0455455623915
 20
143.0629716382641
 30
0.0
 11
237.5742316347043
 21
133.8399024986832
 31
0.0
  0
LINE
  5
C552
330
1A
100
AcDbEntity
  8
0
  6
HIDDEN
 62
     8
100
AcDbLine
 10
239.7349627082685
 20
143.0629716382641
 30
0.0
 11
237.2636487805814
 21
133.8399024986832
 31
0.0
  0
LINE
  5
C553
330
1A
100
AcDbEntity
  8
0
  6
HIDDEN
 62
     8
100
AcDbLine
 10
239.8061040188224
 20
133.8399024986832
 30
0.0
 11
239.8061040188224
 21
141.8399024986833
 31
0.0
  0
LINE
  5
C554
330
1A
100
AcDbEntity
  8
0
  6
HIDDEN
 62
     8
100
AcDbLine
 10
247.2229109925429
 20
144.0629716382642
 30
0.0
 11
248.2229109925429
 21
143.0629716382641
 31
0.0
  0
LINE
  5
C555
330
1A
100
AcDbEntity
  8
0
  6
HIDDEN
 62
     8
100
AcDbLine
 10
243.7229109925429
 20
144.0629716382642
 30
0.0
 11
242.7229109925429
 21
143.0629716382641
 31
0.0
  0
CIRCLE
  5
C556
330
1A
100
AcDbEntity
  8
0
  6
HIDDEN
 62
     8
100
AcDbCircle
 10
271.8061040188223
 20
137.8399024986832
 30
0.0
 40
1.5
  0
LINE
  5
C557
330
1A
100
AcDbEntity
  8
0
  6
HIDDEN
 62
     8
100
AcDbLine
 10
273.2229109925429
 20
143.0629716382641
 30
0.0
 11
285.4729109925429
 21
143.0629716382641
 31
0.0
  0
LINE
  5
C558
330
1A
100
AcDbEntity
  8
0
  6
HIDDEN
 62
     8
100
AcDbLine
 10
272.2229109925429
 20
144.0629716382642
 30
0.0
 11
273.2229109925429
 21
143.0629716382641
 31
0.0
  0
LINE
  5
C559
330
1A
100
AcDbEntity
  8
0
  6
HIDDEN
 62
     8
100
AcDbLine
 10
268.7229109925429
 20
144.0629716382642
 30
0.0
 11
267.7229109925429
 21
143.0629716382641
 31
0.0
  0
LINE
  5
C55A
330
1A
100
AcDbEntity
  8
0
  6
HIDDEN
 62
     8
100
AcDbLine
 10
281.7671756329179
 20
143.0629716382641
 30
0.0
 11
281.4394552446797
 21
141.8399024986833
 31
0.0
  0
LINE
  5
C55B
330
1A
100
AcDbEntity
  8
0
  6
HIDDEN
 62
     8
100
AcDbLine
 10
281.4565927787946
 20
143.0629716382641
 30
0.0
 11
281.1288723905566
 21
141.8399024986833
 31
0.0
  0
LINE
  5
C55C
330
1A
100
AcDbEntity
  8
0
  6
HIDDEN
 62
     8
100
AcDbLine
 10
185.4729109925429
 20
171.551637426704
 30
0.0
 11
265.5729109925429
 21
171.551637426704
 31
0.0
  0
LINE
  5
C55D
330
1A
100
AcDbEntity
  8
0
  6
HIDDEN
 62
     8
100
AcDbLine
 10
185.4729109925429
 20
172.020245056649
 30
0.0
 11
265.5729109925429
 21
172.020245056649
 31
0.0
  0
LINE
  5
C55E
330
1A
100
AcDbEntity
  8
0
  6
HIDDEN
 62
     8
100
AcDbLine
 10
205.4729109925429
 20
158.0629716382641
 30
0.0
 11
285.4729109925429
 21
158.0629716382641
 31
0.0
  0
LINE
  5
C55F
330
1A
100
AcDbEntity
  8
0
  6
HIDDEN
 62
     8
100
AcDbLine
 10
185.4729109925429
 20
159.0629716382641
 30
0.0
 11
285.4729109925429
 21
159.0629716382641
 31
0.0
  0
LINE
  5
C560
330
1A
100
AcDbEntity
  8
0
  6
HIDDEN
 62
     8
100
AcDbLine
 10
185.4729109925429
 20
159.8629716382642
 30
0.0
 11
265.5729109925429
 21
159.8629716382641
 31
0.0
  0
LINE
  5
C561
330
1A
100
AcDbEntity
  8
0
  6
HIDDEN
 62
     8
100
AcDbLine
 10
265.3021873462246
 20
160.3629716382642
 30
0.0
 11
181.4729109925429
 21
160.3629716382641
 31
0.0
  0
LINE
  5
C562
330
1A
100
AcDbEntity
  8
0
  6
HIDDEN
 62
     8
100
AcDbLine
 10
185.4729109925429
 20
172.020245056649
 30
0.0
 11
185.4729109925429
 21
159.0629716382641
 31
0.0
  0
LINE
  5
C563
330
1A
100
AcDbEntity
  8
0
  6
HIDDEN
 62
     8
100
AcDbLine
 10
185.4729109925429
 20
159.8629716382642
 30
0.0
 11
181.4729109925429
 21
159.8629716382641
 31
0.0
  0
LINE
  5
C564
330
1A
100
AcDbEntity
  8
0
  6
HIDDEN
 62
     8
100
AcDbLine
 10
265.5729109925429
 20
172.020245056649
 30
0.0
 11
265.5729109925429
 21
159.0629716382641
 31
0.0
  0
LINE
  5
C565
330
1A
100
AcDbEntity
  8
0
  6
HIDDEN
 62
     8
100
AcDbLine
 10
245.4729109925429
 20
150.8129716382641
 30
0.0
 11
248.837390618962
 21
150.8129716382641
 31
0.0
  0
LINE
  5
C566
330
1A
100
AcDbEntity
  8
0
  6
HIDDEN
 62
     8
100
AcDbLine
 10
247.2229109925429
 20
147.3129716382642
 30
0.0
 11
248.5596855740247
 21
147.3129716382642
 31
0.0
  0
CIRCLE
  5
C567
330
1A
100
AcDbEntity
  8
0
  6
HIDDEN
 62
     8
100
AcDbCircle
 10
250.4729109925429
 20
148.9221852654548
 30
0.0
 40
2.5
  0
ARC
  5
C568
330
1A
100
AcDbEntity
  8
0
  6
HIDDEN
 62
     8
100
AcDbCircle
 10
245.4729109925429
 20
149.0629716382642
 30
0.0
 40
1.75
100
AcDbArc
 50
90.0
 51
180.0
  0
CIRCLE
  5
C569
330
1A
100
AcDbEntity
  8
0
  6
HIDDEN
 62
     8
100
AcDbCircle
 10
275.4729109925429
 20
148.9880481559101
 30
0.0
 40
2.5
  0
LINE
  5
C56A
330
1A
100
AcDbEntity
  8
0
  6
HIDDEN
 62
     8
100
AcDbLine
 10
272.2229109925429
 20
147.3129716382642
 30
0.0
 11
273.6170773092537
 21
147.3129716382642
 31
0.0
  0
LINE
  5
C56B
330
1A
100
AcDbEntity
  8
0
  6
HIDDEN
 62
     8
100
AcDbLine
 10
270.4729109925429
 20
150.8129716382641
 30
0.0
 11
273.7642114040976
 21
150.8129716382641
 31
0.0
  0
ARC
  5
C56C
330
1A
100
AcDbEntity
  8
0
  6
HIDDEN
 62
     8
100
AcDbCircle
 10
270.4729109925429
 20
149.0629716382642
 30
0.0
 40
1.75
100
AcDbArc
 50
90.0
 51
180.0
  0
LINE
  5
C56D
330
1A
100
AcDbEntity
  8
0
  6
HIDDEN
 62
     8
100
AcDbLine
 10
237.0729109925429
 20
214.8629716382641
 30
0.0
 11
237.0729109925429
 21
179.8629716382641
 31
0.0
  0
LINE
  5
C56E
330
1A
100
AcDbEntity
  8
0
  6
HIDDEN
 62
     8
100
AcDbLine
 10
236.5729109925429
 20
214.8629716382641
 30
0.0
 11
236.5729109925429
 21
179.8629716382641
 31
0.0
  0
LINE
  5
C56F
330
1A
100
AcDbEntity
  8
0
  6
HIDDEN
 62
     8
100
AcDbLine
 10
237.0729109925429
 20
179.8629716382641
 30
0.0
 11
181.4729109925429
 21
179.8629716382641
 31
0.0
  0
LINE
  5
C570
330
1A
100
AcDbEntity
  8
0
  6
HIDDEN
 62
     8
100
AcDbLine
 10
236.5729109925429
 20
180.362971638264
 30
0.0
 11
227.0729109925429
 21
180.362971638264
 31
0.0
  0
LINE
  5
C571
330
1A
100
AcDbEntity
  8
0
  6
HIDDEN
 62
     8
100
AcDbLine
 10
227.0729109925429
 20
191.862971638264
 30
0.0
 11
227.0729109925429
 21
180.362971638264
 31
0.0
  0
LINE
  5
C572
330
1A
100
AcDbEntity
  8
0
  6
HIDDEN
 62
     8
100
AcDbLine
 10
226.5729109925429
 20
191.862971638264
 30
0.0
 11
226.5729109925429
 21
179.8629716382641
 31
0.0
  0
LINE
  5
C573
330
1A
100
AcDbEntity
  8
0
  6
HIDDEN
 62
     8
100
AcDbLine
 10
226.0729109925429
 20
179.8629716382641
 30
0.0
 11
226.0729109925429
 21
198.862971638264
 31
0.0
  0
LINE
  5
C574
330
1A
100
AcDbEntity
  8
0
  6
HIDDEN
 62
     8
100
AcDbLine
 10
226.5729109925429
 20
179.8629716382641
 30
0.0
 11
226.5729109925429
 21
198.3629716382641
 31
0.0
  0
ARC
  5
C575
330
1A
100
AcDbEntity
  8
0
  6
HIDDEN
 62
     8
100
AcDbCircle
 10
228.5729109925429
 20
189.862971638264
 30
0.0
 40
1.5
100
AcDbArc
 50
180.0
 51
270.0
  0
ARC
  5
C576
330
1A
100
AcDbEntity
  8
0
  6
HIDDEN
 62
     8
100
AcDbCircle
 10
228.5729109925429
 20
183.8629716382641
 30
0.0
 40
1.5
100
AcDbArc
 50
90.0
 51
180.0
  0
LINE
  5
C577
330
1A
100
AcDbEntity
  8
0
  6
HIDDEN
 62
     8
100
AcDbLine
 10
228.5729109925429
 20
188.3629716382643
 30
0.0
 11
228.5729109925429
 21
185.362971638264
 31
0.0
  0
LINE
  5
C578
330
1A
100
AcDbEntity
  8
0
  6
HIDDEN
 62
     8
100
AcDbLine
 10
225.3332381628997
 20
183.9555872286809
 30
0.0
 11
225.3332381628997
 21
189.7703560478474
 31
0.0
  0
ARC
  5
C579
330
1A
100
AcDbEntity
  8
0
  6
HIDDEN
 62
     8
100
AcDbCircle
 10
226.0729109925429
 20
186.862971638264
 30
0.0
 40
3.0
100
AcDbArc
 50
90.0
 51
270.0
  0
LINE
  5
C57A
330
1A
100
AcDbEntity
  8
0
  6
HIDDEN
 62
     8
100
AcDbLine
 10
227.0729109925429
 20
191.862971638264
 30
0.0
 11
226.5729109925429
 21
191.862971638264
 31
0.0
  0
LINE
  5
C57B
330
1A
100
AcDbEntity
  8
0
  6
HIDDEN
 62
     8
100
AcDbLine
 10
226.0729109925429
 20
198.862971638264
 30
0.0
 11
234.0729109925429
 21
198.862971638264
 31
0.0
  0
LINE
  5
C57C
330
1A
100
AcDbEntity
  8
0
  6
HIDDEN
 62
     8
100
AcDbLine
 10
226.5729109925429
 20
198.3629716382641
 30
0.0
 11
234.0729109925429
 21
198.3629716382641
 31
0.0
  0
LINE
  5
C57D
330
1A
100
AcDbEntity
  8
0
  6
HIDDEN
 62
     8
100
AcDbLine
 10
234.0729109925429
 20
198.3629716382641
 30
0.0
 11
234.0729109925429
 21
198.862971638264
 31
0.0
  0
LINE
  5
C57E
330
1A
100
AcDbEntity
  8
0
100
AcDbLine
 10
182.8935903703723
 20
58.83990249868327
 30
0.0
 11
182.8935903703723
 21
140.8399024986833
 31
0.0
  0
LINE
  5
C57F
330
1A
100
AcDbEntity
  8
0
  6
HIDDEN
 62
     8
100
AcDbLine
 10
384.8061040188222
 20
58.83990249868327
 30
0.0
 11
384.8061040188222
 21
133.8399024986832
 31
0.0
  0
LINE
  5
C580
330
1A
100
AcDbEntity
  8
0
  6
HIDDEN
 62
     8
100
AcDbLine
 10
348.3061040188222
 20
54.34032190729489
 30
0.0
 11
348.3061040188222
 21
68.2498765268041
 31
0.0
  0
LINE
  5
C581
330
1A
100
AcDbEntity
  8
0
  6
HIDDEN
 62
     8
100
AcDbLine
 10
381.3774153361834
 20
68.83990249868327
 30
0.0
 11
422.7573109225193
 21
68.83990249868327
 31
0.0
  0
LINE
  5
C582
330
1A
100
AcDbEntity
  8
0
  6
HIDDEN
 62
     8
100
AcDbLine
 10
389.8061040188222
 20
82.83990249868326
 30
0.0
 11
402.8935903703723
 21
82.83990249868326
 31
0.0
  0
LINE
  5
C583
330
1A
100
AcDbEntity
  8
0
  6
HIDDEN
 62
     8
100
AcDbLine
 10
386.6935626276399
 20
66.83990249868327
 30
0.0
 11
402.8935903703723
 21
66.83990249868327
 31
0.0
  0
LINE
  5
C584
330
1A
100
AcDbEntity
  8
0
  6
HIDDEN
 62
     8
100
AcDbLine
 10
386.6935626276399
 20
70.83990249868326
 30
0.0
 11
402.8935903703723
 21
70.83990249868326
 31
0.0
  0
LINE
  5
C585
330
1A
100
AcDbEntity
  8
0
  6
HIDDEN
 62
     8
100
AcDbLine
 10
389.8061040188222
 20
94.83990249868329
 30
0.0
 11
402.8935903703723
 21
94.83990249868329
 31
0.0
  0
LINE
  5
C586
330
1A
100
AcDbEntity
  8
0
  6
HIDDEN
 62
     8
100
AcDbLine
 10
376.9622831336473
 20
88.83990249868325
 30
0.0
 11
427.1724431250554
 21
88.83990249868325
 31
0.0
  0
LINE
  5
C587
330
1A
100
AcDbEntity
  8
0
  6
HIDDEN
 62
     8
100
AcDbLine
 10
389.8061040188222
 20
79.83990249868326
 30
0.0
 11
389.8061040188222
 21
97.83990249868329
 31
0.0
  0
LINE
  5
C588
330
1A
100
AcDbEntity
  8
0
  6
HIDDEN
 62
     8
100
AcDbLine
 10
384.8061040188222
 20
77.33990249868326
 30
0.0
 11
384.8061040188222
 21
100.3399024986832
 31
0.0
  0
LINE
  5
C589
330
1A
100
AcDbEntity
  8
0
  6
HIDDEN
 62
     8
100
AcDbLine
 10
340.3061040188222
 20
60.83990249868327
 30
0.0
 11
356.3061040188222
 21
60.83990249868327
 31
0.0
  0
CIRCLE
  5
C58A
330
1A
100
AcDbEntity
  8
0
  6
HIDDEN
 62
     8
100
AcDbCircle
 10
299.3061040188223
 20
68.82150226625981
 30
0.0
 40
2.75
  0
LINE
  5
C58B
330
1A
100
AcDbEntity
  8
0
  6
HIDDEN
 62
     8
100
AcDbLine
 10
299.3061040188223
 20
62.82150226625981
 30
0.0
 11
299.3061040188223
 21
74.82150226625981
 31
0.0
  0
LINE
  5
C58C
330
1A
100
AcDbEntity
  8
0
  6
HIDDEN
 62
     8
100
AcDbLine
 10
293.3061040188222
 20
68.82150226625981
 30
0.0
 11
305.3061040188222
 21
68.82150226625981
 31
0.0
  0
LINE
  5
C58D
330
1A
100
AcDbEntity
  8
0
  6
HIDDEN
 62
     8
100
AcDbLine
 10
340.3061040188222
 20
58.83990249868327
 30
0.0
 11
340.3061040188222
 21
60.83990249868327
 31
0.0
  0
LINE
  5
C58E
330
1A
100
AcDbEntity
  8
0
  6
HIDDEN
 62
     8
100
AcDbLine
 10
342.3061040188222
 20
58.83990249868327
 30
0.0
 11
342.3061040188222
 21
60.83990249868327
 31
0.0
  0
ARC
  5
C58F
330
1A
100
AcDbEntity
  8
0
  6
HIDDEN
 62
     8
100
AcDbCircle
 10
384.8061040188222
 20
68.83990249868327
 30
0.0
 40
2.75
100
AcDbArc
 50
270.0
 51
90.0
  0
LINE
  5
C590
330
1A
100
AcDbEntity
  8
0
  6
HIDDEN
 62
     8
100
AcDbLine
 10
356.3061040188222
 20
58.83990249868327
 30
0.0
 11
356.3061040188222
 21
60.83990249868327
 31
0.0
  0
LINE
  5
C591
330
1A
100
AcDbEntity
  8
0
  6
HIDDEN
 62
     8
100
AcDbLine
 10
354.3061040188222
 20
58.83990249868327
 30
0.0
 11
354.3061040188222
 21
60.83990249868327
 31
0.0
  0
LINE
  5
C592
330
1A
100
AcDbEntity
  8
0
  6
HIDDEN
 62
     8
100
AcDbLine
 10
384.8061040188222
 20
79.83990249868326
 30
0.0
 11
389.8061040188222
 21
79.83990249868326
 31
0.0
  0
LINE
  5
C593
330
1A
100
AcDbEntity
  8
0
  6
HIDDEN
 62
     8
100
AcDbLine
 10
384.8061040188222
 20
97.83990249868329
 30
0.0
 11
389.8061040188222
 21
97.83990249868329
 31
0.0
  0
LINE
  5
C594
330
1A
100
AcDbEntity
  8
0
 62
     7
100
AcDbLine
 10
415.3061040188221
 20
85.83990249868326
 30
0.0
 11
415.3061040188221
 21
91.83990249868328
 31
0.0
  0
LINE
  5
C595
330
1A
100
AcDbEntity
  8
0
 62
     7
100
AcDbLine
 10
415.3061040188221
 20
85.83990249868326
 30
0.0
 11
415.3061040188221
 21
91.83990249868328
 31
0.0
  0
LINE
  5
C596
330
1A
100
AcDbEntity
  8
0
 62
     7
100
AcDbLine
 10
411.3061040188221
 20
85.83990249868326
 30
0.0
 11
411.3061040188221
 21
91.83990249868328
 31
0.0
  0
ARC
  5
C597
330
1A
100
AcDbEntity
  8
0
 62
     7
100
AcDbCircle
 10
418.0514742711251
 20
69.83990249868327
 30
0.0
 40
1.25
100
AcDbArc
 50
306.8698976458455
 51
53.13010235415447
  0
ARC
  5
C598
330
1A
100
AcDbEntity
  8
0
 62
     7
100
AcDbCircle
 10
419.5514742711251
 20
67.83990249868327
 30
0.0
 40
1.24999999999999
100
AcDbArc
 50
126.8698976458375
 51
233.1301023541546
  0
ARC
  5
C599
330
1A
100
AcDbEntity
  8
0
 62
     7
100
AcDbCircle
 10
408.3061040188221
 20
85.83990249868326
 30
0.0
 40
3.0
100
AcDbArc
 50
270.0
 51
0.0
  0
LINE
  5
C59A
330
1A
100
AcDbEntity
  8
0
 62
     7
100
AcDbLine
 10
411.3061040188221
 20
85.8399024986835
 30
0.0
 11
415.3061040188221
 21
85.83990249868326
 31
0.0
  0
ARC
  5
C59B
330
1A
100
AcDbEntity
  8
0
 62
     7
100
AcDbCircle
 10
408.3061040188221
 20
91.83990249868328
 30
0.0
 40
3.0
100
AcDbArc
 50
0.0
 51
90.0
  0
LINE
  5
C59C
330
1A
100
AcDbEntity
  8
0
 62
     7
100
AcDbLine
 10
415.3061040188221
 20
90.83990249868326
 30
0.0
 11
422.6768786613464
 21
90.83990249868326
 31
0.0
  0
LINE
  5
C59D
330
1A
100
AcDbEntity
  8
0
 62
     7
100
AcDbLine
 10
411.3061040188221
 20
91.83990249868328
 30
0.0
 11
415.3061040188221
 21
91.83990249868328
 31
0.0
  0
LINE
  5
C59E
330
1A
100
AcDbEntity
  8
0
 62
     7
100
AcDbLine
 10
415.3061040188221
 20
86.83990249868328
 30
0.0
 11
422.6768786613464
 21
86.83990249868328
 31
0.0
  0
ARC
  5
C59F
330
1A
100
AcDbEntity
  8
0
 62
     7
100
AcDbCircle
 10
423.4268786613466
 20
87.83990249868326
 30
0.0
 40
1.24999999999999
100
AcDbArc
 50
126.8698976458375
 51
233.1301023541546
  0
ARC
  5
C5A0
330
1A
100
AcDbEntity
  8
0
 62
     7
100
AcDbCircle
 10
421.9268786613465
 20
89.83990249868325
 30
0.0
 40
1.25
100
AcDbArc
 50
306.8698976458455
 51
53.13010235415447
  0
LINE
  5
C5A1
330
1A
100
AcDbEntity
  8
0
100
AcDbLine
 10
182.8935903703723
 20
140.8399024986833
 30
0.0
 11
162.8935903703723
 21
140.8399024986833
 31
0.0
  0
LINE
  5
C5A2
330
1A
100
AcDbEntity
  8
0
100
AcDbLine
 10
162.8935903703723
 20
140.8399024986833
 30
0.0
 11
162.8935903703723
 21
230.8399024986833
 31
0.0
  0
LINE
  5
C5A3
330
1A
100
AcDbEntity
  8
0
  6
HIDDEN
 62
     8
 48
2.0
100
AcDbLine
 10
165.8935903703723
 20
140.8399024986833
 30
0.0
 11
165.8935903703723
 21
227.8399024986833
 31
0.0
  0
LINE
  5
C5A4
330
1A
100
AcDbEntity
  8
0
  6
HIDDEN
 62
     8
100
AcDbLine
 10
329.3061040188222
 20
133.8399024986832
 30
0.0
 11
329.3061040188222
 21
158.8399024986832
 31
0.0
  0
LINE
  5
C5A5
330
1A
100
AcDbEntity
  8
0
  6
HIDDEN
 62
     8
100
AcDbLine
 10
305.6682109845835
 20
137.8399024986832
 30
0.0
 11
317.6682109845835
 21
137.8399024986832
 31
0.0
  0
CIRCLE
  5
C5A6
330
1A
100
AcDbEntity
  8
0
  6
HIDDEN
 62
     8
100
AcDbCircle
 10
311.6682109845835
 20
137.8399024986832
 30
0.0
 40
2.75
  0
LINE
  5
C5A7
330
1A
100
AcDbEntity
  8
0
  6
HIDDEN
 62
     8
100
AcDbLine
 10
311.6682109845835
 20
131.8399024986832
 30
0.0
 11
311.6682109845835
 21
143.8399024986833
 31
0.0
  0
LINE
  5
C5A8
330
1A
100
AcDbEntity
  8
0
  6
HIDDEN
 62
     8
100
AcDbLine
 10
292.3061040188222
 20
158.8399024986832
 30
0.0
 11
329.3061040188222
 21
158.8399024986832
 31
0.0
  0
LINE
  5
C5A9
330
1A
100
AcDbEntity
  8
0
100
AcDbLine
 10
284.8935903703723
 20
232.8399024986833
 30
0.0
 11
234.8935903703723
 21
232.8399024986834
 31
0.0
  0
LINE
  5
C5AA
330
1A
100
AcDbEntity
  8
0
  6
HIDDEN
 62
     8
 48
2.0
100
AcDbLine
 10
302.8935903703722
 20
226.8399024986833
 30
0.0
 11
222.8935903703723
 21
226.8399024986833
 31
0.0
  0
LINE
  5
C5AB
330
1A
100
AcDbEntity
  8
0
  6
HIDDEN
 62
     8
 48
2.0
100
AcDbLine
 10
283.8935903703723
 20
212.8399024986833
 30
0.0
 11
242.8935903703723
 21
212.8399024986833
 31
0.0
  0
LINE
  5
C5AC
330
1A
100
AcDbEntity
  8
0
 62
     8
100
AcDbLine
 10
232.8935903703723
 20
227.8399024986833
 30
0.0
 11
242.8935903703723
 21
212.8399024986833
 31
0.0
  0
LINE
  5
C5AD
330
1A
100
AcDbEntity
  8
0
 62
     8
100
AcDbLine
 10
222.8935903703723
 20
227.8399024986833
 30
0.0
 11
222.8935903703723
 21
226.8399024986833
 31
0.0
  0
LINE
  5
C5AE
330
1A
100
AcDbEntity
  8
0
100
AcDbLine
 10
234.8935903703723
 20
232.8399024986833
 30
0.0
 11
234.8935903703723
 21
230.8399024986833
 31
0.0
  0
LINE
  5
C5AF
330
1A
100
AcDbEntity
  8
0
 62
     8
100
AcDbLine
 10
292.8935903703722
 20
227.8399024986833
 30
0.0
 11
283.8935903703723
 21
212.8399024986833
 31
0.0
  0
LINE
  5
C5B0
330
1A
100
AcDbEntity
  8
0
 62
     8
100
AcDbLine
 10
302.8935903703722
 20
227.8399024986833
 30
0.0
 11
302.8935903703722
 21
226.8399024986833
 31
0.0
  0
LINE
  5
C5B1
330
1A
100
AcDbEntity
  8
0
  6
HIDDEN
 62
     8
100
AcDbLine
 10
265.3021873462246
 20
371.5691515056871
 30
0.0
 11
300.8729109925429
 21
410.1022368619267
 31
0.0
  0
LINE
  5
C5B2
330
1A
100
AcDbEntity
  8
0
  6
HIDDEN
 62
     8
100
AcDbLine
 10
236.5729109925429
 20
331.8191515056869
 30
0.0
 11
301.4729109925429
 21
331.8191515056871
 31
0.0
  0
LINE
  5
C5B3
330
1A
100
AcDbEntity
  8
0
  6
HIDDEN
 62
     8
100
AcDbLine
 10
236.5729109925429
 20
332.4191515056869
 30
0.0
 11
301.4729109925429
 21
332.4191515056871
 31
0.0
  0
LINE
  5
C5B4
330
1A
100
AcDbEntity
  8
0
  6
HIDDEN
 62
     8
100
AcDbLine
 10
265.3021873462246
 20
371.5691515056871
 30
0.0
 11
300.8729109925429
 21
332.4191515056871
 31
0.0
  0
LINE
  5
C5B5
330
1A
100
AcDbEntity
  8
0
  6
HIDDEN
 62
     8
100
AcDbLine
 10
236.5729109925429
 20
410.7022368619267
 30
0.0
 11
301.4729109925429
 21
410.7022368619267
 31
0.0
  0
LINE
  5
C5B6
330
1A
100
AcDbEntity
  8
0
  6
HIDDEN
 62
     8
100
AcDbLine
 10
236.5729109925429
 20
410.1022368619267
 30
0.0
 11
301.4729109925429
 21
410.1022368619267
 31
0.0
  0
LINE
  5
C5B7
330
1A
100
AcDbEntity
  8
0
  6
HIDDEN
 62
     8
100
AcDbLine
 10
213.8061040188222
 20
335.0691515056872
 30
0.0
 11
213.8061040188222
 21
357.1146060511417
 31
0.0
  0
LINE
  5
C5B8
330
1A
100
AcDbEntity
  8
0
  6
HIDDEN
 62
     8
100
AcDbLine
 10
236.5729109925428
 20
331.8191515056871
 30
0.0
 11
236.5729109925428
 21
410.7022368619265
 31
0.0
  0
LINE
  5
C5B9
330
1A
100
AcDbEntity
  8
0
  6
HIDDEN
 62
     8
100
AcDbLine
 10
237.1729109925428
 20
331.8191515056871
 30
0.0
 11
237.1729109925428
 21
410.7022368619265
 31
0.0
  0
LINE
  5
C5BA
330
1A
100
AcDbEntity
  8
0
  6
HIDDEN
 62
     8
100
AcDbLine
 10
240.3061040188221
 20
322.5691515056869
 30
0.0
 11
240.3061040188223
 21
331.8191515056869
 31
0.0
  0
LINE
  5
C5BB
330
1A
100
AcDbEntity
  8
0
  6
HIDDEN
 62
     8
100
AcDbLine
 10
256.3061040188222
 20
322.569151505687
 30
0.0
 11
256.3061040188222
 21
331.8191515056869
 31
0.0
  0
LINE
  5
C5BC
330
1A
100
AcDbEntity
  8
0
  6
HIDDEN
 62
     8
100
AcDbLine
 10
248.3061040188222
 20
323.5691515056871
 30
0.0
 11
248.3061040188222
 21
335.5691515056872
 31
0.0
  0
LINE
  5
C5BD
330
1A
100
AcDbEntity
  8
0
  6
HIDDEN
 62
     8
100
AcDbLine
 10
241.3061040188221
 20
321.5691515056869
 30
0.0
 11
255.3061040188222
 21
321.5691515056871
 31
0.0
  0
LINE
  5
C5BE
330
1A
100
AcDbEntity
  8
0
  6
HIDDEN
 62
     8
100
AcDbLine
 10
240.3061040188221
 20
322.5691515056869
 30
0.0
 11
241.3061040188221
 21
321.5691515056869
 31
0.0
  0
LINE
  5
C5BF
330
1A
100
AcDbEntity
  8
0
  6
HIDDEN
 62
     8
100
AcDbLine
 10
256.3061040188222
 20
322.569151505687
 30
0.0
 11
255.3061040188222
 21
321.5691515056871
 31
0.0
  0
LINE
  5
C5C0
330
1A
100
AcDbEntity
  8
0
  6
HIDDEN
 62
     8
100
AcDbLine
 10
213.8061040188223
 20
335.0691515056872
 30
0.0
 11
236.5729109925428
 21
335.0691515056872
 31
0.0
  0
CIRCLE
  5
C5C1
330
1A
100
AcDbEntity
  8
0
  6
HIDDEN
 62
     8
100
AcDbCircle
 10
248.3061040188222
 20
329.5691515056871
 30
0.0
 40
2.25
  0
LINE
  5
C5C2
330
1A
100
AcDbEntity
  8
0
  6
HIDDEN
 62
     8
100
AcDbLine
 10
242.3061040188222
 20
329.5691515056871
 30
0.0
 11
254.3061040188222
 21
329.5691515056871
 31
0.0
  0
LINE
  5
C5C3
330
1A
100
AcDbEntity
  8
0
  6
HIDDEN
 62
     8
100
AcDbLine
 10
256.3061040188222
 20
410.7022368619267
 30
0.0
 11
256.3061040188222
 21
420.569151505687
 31
0.0
  0
LINE
  5
C5C4
330
1A
100
AcDbEntity
  8
0
  6
HIDDEN
 62
     8
100
AcDbLine
 10
240.3061040188223
 20
410.7022368619265
 30
0.0
 11
240.3061040188222
 21
420.569151505687
 31
0.0
  0
CIRCLE
  5
C5C5
330
1A
100
AcDbEntity
  8
0
  6
HIDDEN
 62
     8
100
AcDbCircle
 10
248.3061040188222
 20
413.5691515056871
 30
0.0
 40
2.25
  0
LINE
  5
C5C6
330
1A
100
AcDbEntity
  8
0
  6
HIDDEN
 62
     8
100
AcDbLine
 10
248.3061040188222
 20
407.569151505687
 30
0.0
 11
248.3061040188222
 21
419.569151505687
 31
0.0
  0
LINE
  5
C5C7
330
1A
100
AcDbEntity
  8
0
  6
HIDDEN
 62
     8
100
AcDbLine
 10
181.4729109925429
 20
357.1146060511417
 30
0.0
 11
181.4729109925429
 21
386.0236969602324
 31
0.0
  0
LINE
  5
C5C8
330
1A
100
AcDbEntity
  8
0
  6
HIDDEN
 62
     8
100
AcDbLine
 10
226.0729109925429
 20
357.1146060511417
 30
0.0
 11
226.0729109925429
 21
386.0236969602324
 31
0.0
  0
LINE
  5
C5C9
330
1A
100
AcDbEntity
  8
0
  6
HIDDEN
 62
     8
100
AcDbLine
 10
234.072910992543
 20
357.1146060511417
 30
0.0
 11
234.0729109925429
 21
386.0236969602324
 31
0.0
  0
LINE
  5
C5CA
330
1A
100
AcDbEntity
  8
0
  6
HIDDEN
 62
     8
100
AcDbLine
 10
181.4729109925429
 20
357.1146060511417
 30
0.0
 11
236.5729109925428
 21
357.1146060511417
 31
0.0
  0
LINE
  5
C5CB
330
1A
100
AcDbEntity
  8
0
  6
HIDDEN
 62
     8
100
AcDbLine
 10
181.4729109925429
 20
357.7146060511417
 30
0.0
 11
226.0729109925429
 21
357.7146060511417
 31
0.0
  0
LINE
  5
C5CC
330
1A
100
AcDbEntity
  8
0
  6
HIDDEN
 62
     8
100
AcDbLine
 10
213.8061040188222
 20
371.5691515056871
 30
0.0
 11
181.4729109925429
 21
371.5691515056871
 31
0.0
  0
LINE
  5
C5CD
330
1A
100
AcDbEntity
  8
0
  6
HIDDEN
 62
     8
100
AcDbLine
 10
213.8061040188222
 20
371.5691515056871
 30
0.0
 11
226.0729109925429
 21
371.5691515056871
 31
0.0
  0
LINE
  5
C5CE
330
1A
100
AcDbEntity
  8
0
  6
HIDDEN
 62
     8
100
AcDbLine
 10
237.1729109925428
 20
371.5691515056871
 30
0.0
 11
265.3021873462246
 21
371.5691515056871
 31
0.0
  0
LINE
  5
C5CF
330
1A
100
AcDbEntity
  8
0
  6
HIDDEN
 62
     8
100
AcDbLine
 10
213.8061040188223
 20
408.069151505687
 30
0.0
 11
236.5729109925428
 21
408.069151505687
 31
0.0
  0
LINE
  5
C5D0
330
1A
100
AcDbEntity
  8
0
  6
HIDDEN
 62
     8
100
AcDbLine
 10
181.4729109925428
 20
386.0236969602324
 30
0.0
 11
236.5729109925429
 21
386.0236969602324
 31
0.0
  0
LINE
  5
C5D1
330
1A
100
AcDbEntity
  8
0
  6
HIDDEN
 62
     8
100
AcDbLine
 10
213.8061040188223
 20
386.0236969602324
 30
0.0
 11
213.8061040188223
 21
408.069151505687
 31
0.0
  0
LINE
  5
C5D2
330
1A
100
AcDbEntity
  8
0
  6
HIDDEN
 62
     8
100
AcDbLine
 10
181.4729109925428
 20
385.4236969602324
 30
0.0
 11
226.0729109925429
 21
385.4236969602324
 31
0.0
  0
LINE
  5
C5D3
330
1A
100
AcDbEntity
  8
0
  6
HIDDEN
 62
     8
100
AcDbLine
 10
242.3061040188222
 20
413.5691515056871
 30
0.0
 11
254.3061040188222
 21
413.5691515056871
 31
0.0
  0
LINE
  5
C5D4
330
1A
100
AcDbEntity
  8
0
  6
HIDDEN
 62
     8
100
AcDbLine
 10
255.3061040188222
 20
421.569151505687
 30
0.0
 11
256.3061040188222
 21
420.569151505687
 31
0.0
  0
LINE
  5
C5D5
330
1A
100
AcDbEntity
  8
0
  6
HIDDEN
 62
     8
100
AcDbLine
 10
241.3061040188221
 20
421.569151505687
 30
0.0
 11
240.3061040188222
 21
420.569151505687
 31
0.0
  0
LINE
  5
C5D6
330
1A
100
AcDbEntity
  8
0
  6
HIDDEN
 62
     8
100
AcDbLine
 10
241.3061040188221
 20
421.569151505687
 30
0.0
 11
255.3061040188222
 21
421.569151505687
 31
0.0
  0
LINE
  5
C5D7
330
1A
100
AcDbEntity
  8
0
100
AcDbLine
 10
283.8935903703722
 20
367.0691515056873
 30
0.0
 11
283.8935903703722
 21
345.0691515056872
 31
0.0
  0
LINE
  5
C5D8
330
1A
100
AcDbEntity
  8
0
100
AcDbLine
 10
285.8935903703722
 20
367.0691515056873
 30
0.0
 11
285.8935903703722
 21
345.0691515056872
 31
0.0
  0
LINE
  5
C5D9
330
1A
100
AcDbEntity
  8
0
100
AcDbLine
 10
294.8935903703722
 20
367.0691515056873
 30
0.0
 11
294.8935903703722
 21
345.0691515056872
 31
0.0
  0
LINE
  5
C5DA
330
1A
100
AcDbEntity
  8
0
  6
HIDDEN
 62
     8
100
AcDbLine
 10
292.8935903703721
 20
345.8117921928066
 30
0.0
 11
282.8935903703724
 21
355.8117921928065
 31
0.0
  0
LINE
  5
C5DB
330
1A
100
AcDbEntity
  8
0
100
AcDbLine
 10
284.8935903703721
 20
341.5691515056872
 30
0.0
 11
284.8935903703722
 21
401.5691515056873
 31
0.0
  0
LINE
  5
C5DC
330
1A
100
AcDbEntity
  8
0
  6
HIDDEN
 62
     8
100
AcDbLine
 10
282.8935903703721
 20
348.5691515056871
 30
0.0
 11
282.8935903703721
 21
394.5691515056873
 31
0.0
  0
LINE
  5
C5DD
330
1A
100
AcDbEntity
  8
0
  6
HIDDEN
 62
     8
100
AcDbLine
 10
292.8935903703721
 20
341.5691515056872
 30
0.0
 11
292.8935903703723
 21
401.5691515056871
 31
0.0
  0
LINE
  5
C5DE
330
1A
100
AcDbEntity
  8
0
  6
HIDDEN
 62
     8
100
AcDbLine
 10
232.8935903703723
 20
345.8117921928066
 30
0.0
 11
242.8935903703721
 21
355.8117921928065
 31
0.0
  0
LINE
  5
C5DF
330
1A
100
AcDbEntity
  8
0
100
AcDbLine
 10
274.8935903703721
 20
367.0691515056873
 30
0.0
 11
274.8935903703722
 21
345.0691515056872
 31
0.0
  0
LINE
  5
C5E0
330
1A
100
AcDbEntity
  8
0
100
AcDbLine
 10
229.8935903703721
 20
341.5691515056873
 30
0.0
 11
229.8935903703722
 21
401.5691515056873
 31
0.0
  0
LINE
  5
C5E1
330
1A
100
AcDbEntity
  8
0
100
AcDbLine
 10
232.8935903703721
 20
341.5691515056873
 30
0.0
 11
232.8935903703722
 21
401.5691515056873
 31
0.0
  0
LINE
  5
C5E2
330
1A
100
AcDbEntity
  8
0
  6
HIDDEN
 62
     8
100
AcDbLine
 10
242.8935903703723
 20
348.5691515056871
 30
0.0
 11
242.8935903703722
 21
394.5691515056873
 31
0.0
  0
LINE
  5
C5E3
330
1A
100
AcDbEntity
  8
0
  6
HIDDEN
 62
     8
100
AcDbLine
 10
232.8935903703722
 20
341.5691515056872
 30
0.0
 11
232.8935903703723
 21
401.5691515056871
 31
0.0
  0
LINE
  5
C5E4
330
1A
100
AcDbEntity
  8
0
100
AcDbLine
 10
287.8935903703722
 20
331.5691515056871
 30
0.0
 11
287.8935903703722
 21
376.0691515056872
 31
0.0
  0
LINE
  5
C5E5
330
1A
100
AcDbEntity
  8
0
  6
HIDDEN
 62
     8
100
AcDbLine
 10
329.3061040188221
 20
354.0691515056872
 30
0.0
 11
329.3061040188221
 21
388.0691515056868
 31
0.0
  0
LINE
  5
C5E6
330
1A
100
AcDbEntity
  8
0
100
AcDbLine
 10
317.8935903703723
 20
414.5691515056872
 30
0.0
 11
317.8935903703723
 21
328.5691515056872
 31
0.0
  0
LINE
  5
C5E7
330
1A
100
AcDbEntity
  8
0
100
AcDbLine
 10
307.8935903703723
 20
414.5691515056872
 30
0.0
 11
307.8935903703723
 21
328.5691515056872
 31
0.0
  0
LINE
  5
C5E8
330
1A
100
AcDbEntity
  8
0
100
AcDbLine
 10
318.8935903703723
 20
414.5691515056872
 30
0.0
 11
318.8935903703723
 21
328.5691515056872
 31
0.0
  0
LINE
  5
C5E9
330
1A
100
AcDbEntity
  8
0
100
AcDbLine
 10
306.8935903703723
 20
414.5691515056872
 30
0.0
 11
306.8935903703723
 21
328.5691515056872
 31
0.0
  0
LINE
  5
C5EA
330
1A
100
AcDbEntity
  8
0
100
AcDbLine
 10
320.8935903703723
 20
414.5691515056872
 30
0.0
 11
320.8935903703723
 21
328.5691515056872
 31
0.0
  0
LINE
  5
C5EB
330
1A
100
AcDbEntity
  8
0
100
AcDbLine
 10
304.8935903703723
 20
414.5691515056872
 30
0.0
 11
304.8935903703723
 21
328.5691515056872
 31
0.0
  0
LINE
  5
C5EC
330
1A
100
AcDbEntity
  8
0
100
AcDbLine
 10
303.8935903703723
 20
414.5691515056872
 30
0.0
 11
303.8935903703723
 21
328.5691515056872
 31
0.0
  0
LINE
  5
C5ED
330
1A
100
AcDbEntity
  8
0
100
AcDbLine
 10
321.8935903703723
 20
414.5691515056872
 30
0.0
 11
321.8935903703723
 21
328.5691515056872
 31
0.0
  0
LINE
  5
C5EE
330
1A
100
AcDbEntity
  8
0
100
AcDbLine
 10
301.8935903703723
 20
414.5691515056872
 30
0.0
 11
301.8935903703723
 21
328.5691515056872
 31
0.0
  0
LINE
  5
C5EF
330
1A
100
AcDbEntity
  8
0
100
AcDbLine
 10
323.8935903703723
 20
414.5691515056872
 30
0.0
 11
323.8935903703723
 21
328.5691515056872
 31
0.0
  0
LINE
  5
C5F0
330
1A
100
AcDbEntity
  8
0
100
AcDbLine
 10
297.8935903703721
 20
331.5691515056871
 30
0.0
 11
297.8935903703722
 21
411.569151505687
 31
0.0
  0
LINE
  5
C5F1
330
1A
100
AcDbEntity
  8
0
  6
HIDDEN
 62
     8
100
AcDbLine
 10
222.8935903703723
 20
336.5691515056872
 30
0.0
 11
222.8935903703723
 21
406.5691515056871
 31
0.0
  0
LINE
  5
C5F2
330
1A
100
AcDbEntity
  8
0
  6
HIDDEN
 62
     8
100
AcDbLine
 10
302.8935903703721
 20
336.5691515056872
 30
0.0
 11
302.8935903703723
 21
406.5691515056871
 31
0.0
  0
LINE
  5
C5F3
330
1A
100
AcDbEntity
  8
0
  6
HIDDEN
 62
     8
100
AcDbLine
 10
165.8935903703722
 20
317.5691515056872
 30
0.0
 11
165.8935903703723
 21
425.5691515056871
 31
0.0
  0
LINE
  5
C5F4
330
1A
100
AcDbEntity
  8
0
100
AcDbLine
 10
162.8935903703722
 20
317.5691515056872
 30
0.0
 11
162.8935903703723
 21
425.5691515056871
 31
0.0
  0
LINE
  5
C5F5
330
1A
100
AcDbEntity
  8
0
  6
HIDDEN
 62
     8
100
AcDbLine
 10
301.4729109925429
 20
331.8191515056871
 30
0.0
 11
301.4729109925429
 21
410.7022368619267
 31
0.0
  0
LINE
  5
C5F6
330
1A
100
AcDbEntity
  8
0
  6
HIDDEN
 62
     8
100
AcDbLine
 10
300.8729109925429
 20
331.8191515056871
 30
0.0
 11
300.8729109925429
 21
410.7022368619267
 31
0.0
  0
LINE
  5
C5F7
330
1A
100
AcDbEntity
  8
0
  6
HIDDEN
 62
     8
100
AcDbLine
 10
384.8061040188223
 20
335.0691515056872
 30
0.0
 11
384.8061040188222
 21
408.069151505687
 31
0.0
  0
LINE
  5
C5F8
330
1A
100
AcDbEntity
  8
0
  6
HIDDEN
 62
     8
100
AcDbLine
 10
348.3061040188222
 20
323.5691515056871
 30
0.0
 11
348.3061040188222
 21
335.5691515056872
 31
0.0
  0
LINE
  5
C5F9
330
1A
100
AcDbEntity
  8
0
  6
HIDDEN
 62
     8
100
AcDbLine
 10
356.3061040188221
 20
322.5691515056869
 30
0.0
 11
356.3061040188224
 21
335.0691515056872
 31
0.0
  0
LINE
  5
C5FA
330
1A
100
AcDbEntity
  8
0
  6
HIDDEN
 62
     8
100
AcDbLine
 10
340.3061040188223
 20
322.569151505687
 30
0.0
 11
340.3061040188223
 21
335.0691515056872
 31
0.0
  0
LINE
  5
C5FB
330
1A
100
AcDbEntity
  8
0
  6
HIDDEN
 62
     8
100
AcDbLine
 10
341.3061040188225
 20
321.5691515056871
 30
0.0
 11
355.3061040188221
 21
321.5691515056869
 31
0.0
  0
LINE
  5
C5FC
330
1A
100
AcDbEntity
  8
0
  6
HIDDEN
 62
     8
100
AcDbLine
 10
340.3061040188223
 20
322.569151505687
 30
0.0
 11
341.3061040188225
 21
321.5691515056871
 31
0.0
  0
LINE
  5
C5FD
330
1A
100
AcDbEntity
  8
0
  6
HIDDEN
 62
     8
100
AcDbLine
 10
356.3061040188221
 20
322.5691515056869
 30
0.0
 11
355.3061040188221
 21
321.5691515056869
 31
0.0
  0
LINE
  5
C5FE
330
1A
100
AcDbEntity
  8
0
  6
HIDDEN
 62
     8
100
AcDbLine
 10
301.4729109925429
 20
335.0691515056872
 30
0.0
 11
384.8061040188223
 21
335.0691515056872
 31
0.0
  0
LINE
  5
C5FF
330
1A
100
AcDbEntity
  8
0
  6
HIDDEN
 62
     8
100
AcDbLine
 10
342.3061040188222
 20
329.5691515056871
 30
0.0
 11
354.3061040188222
 21
329.5691515056871
 31
0.0
  0
LINE
  5
C600
330
1A
100
AcDbEntity
  8
0
  6
HIDDEN
 62
     8
100
AcDbLine
 10
301.4729109925429
 20
354.0691515056872
 30
0.0
 11
329.3061040188221
 21
354.0691515056872
 31
0.0
  0
CIRCLE
  5
C601
330
1A
100
AcDbEntity
  8
0
  6
HIDDEN
 62
     8
100
AcDbCircle
 10
348.3061040188222
 20
329.5691515056871
 30
0.0
 40
2.25
  0
ARC
  5
C602
330
1A
100
AcDbEntity
  8
0
100
AcDbCircle
 10
278.3935903703723
 20
236.3399024986833
 30
0.0
 40
3.0
100
AcDbArc
 50
9.594068226859988
 51
170.40593177314
  0
LINE
  5
C603
330
1A
100
AcDbEntity
  8
0
100
AcDbLine
 10
283.8935903703723
 20
236.8399024986833
 30
0.0
 11
274.8935903703723
 21
236.8399024986833
 31
0.0
  0
LINE
  5
C604
330
1A
100
AcDbEntity
  8
0
100
AcDbLine
 10
287.8935903703723
 20
235.8399024986833
 30
0.0
 11
234.8935903703723
 21
235.8399024986834
 31
0.0
  0
LINE
  5
C605
330
1A
100
AcDbEntity
  8
0
100
AcDbLine
 10
232.8935903703723
 20
242.8399024986834
 30
0.0
 11
232.8935903703723
 21
237.8399024986834
 31
0.0
  0
LINE
  5
C606
330
1A
100
AcDbEntity
  8
0
100
AcDbLine
 10
229.8935903703723
 20
242.8399024986834
 30
0.0
 11
229.8935903703723
 21
237.8399024986834
 31
0.0
  0
ARC
  5
C607
330
1A
100
AcDbEntity
  8
0
100
AcDbCircle
 10
234.8935903703723
 20
237.8399024986834
 30
0.0
 40
2.0
100
AcDbArc
 50
180.0
 51
270.0
  0
LINE
  5
C608
330
1A
100
AcDbEntity
  8
0
100
AcDbLine
 10
232.8935903703723
 20
242.8399024986834
 30
0.0
 11
229.8935903703723
 21
242.8399024986834
 31
0.0
  0
LINE
  5
C609
330
1A
100
AcDbEntity
  8
0
100
AcDbLine
 10
274.8935903703723
 20
236.8399024986833
 30
0.0
 11
274.8935903703723
 21
235.8399024986833
 31
0.0
  0
LINE
  5
C60A
330
1A
100
AcDbEntity
  8
0
100
AcDbLine
 10
297.8935903703723
 20
235.8399024986833
 30
0.0
 11
287.8935903703723
 21
235.8399024986833
 31
0.0
  0
ARC
  5
C60B
330
1A
100
AcDbEntity
  8
0
100
AcDbCircle
 10
291.3935903703723
 20
236.3399024986833
 30
0.0
 40
3.0
100
AcDbArc
 50
9.594068226859988
 51
170.40593177314
  0
LINE
  5
C60C
330
1A
100
AcDbEntity
  8
0
100
AcDbLine
 10
294.8935903703723
 20
236.8399024986833
 30
0.0
 11
285.8935903703723
 21
236.8399024986833
 31
0.0
  0
CIRCLE
  5
C60D
330
1A
100
AcDbEntity
  8
0
100
AcDbCircle
 10
284.8935903703723
 20
236.8399024986833
 30
0.0
 40
1.0
  0
LINE
  5
C60E
330
1A
100
AcDbEntity
  8
0
100
AcDbLine
 10
294.8935903703723
 20
236.8399024986833
 30
0.0
 11
294.8935903703723
 21
235.8399024986833
 31
0.0
  0
LINE
  5
C60F
330
1A
100
AcDbEntity
  8
0
  6
HIDDEN
 62
     8
100
AcDbLine
 10
323.8935903703723
 20
260.8399024986833
 30
0.0
 11
301.8935903703723
 21
260.8399024986833
 31
0.0
  0
LINE
  5
C610
330
1A
100
AcDbEntity
  8
0
100
AcDbLine
 10
304.8935903703723
 20
265.8399024986833
 30
0.0
 11
303.8935903703723
 21
265.8399024986833
 31
0.0
  0
LINE
  5
C611
330
1A
100
AcDbEntity
  8
0
100
AcDbLine
 10
303.8935903703723
 20
266.8399024986833
 30
0.0
 11
301.8935903703723
 21
266.8399024986833
 31
0.0
  0
LINE
  5
C612
330
1A
100
AcDbEntity
  8
0
100
AcDbLine
 10
317.8935903703723
 20
266.8399024986833
 30
0.0
 11
307.8935903703723
 21
266.8399024986833
 31
0.0
  0
LINE
  5
C613
330
1A
100
AcDbEntity
  8
0
100
AcDbLine
 10
306.8935903703723
 20
266.8399024986833
 30
0.0
 11
304.8935903703723
 21
266.8399024986833
 31
0.0
  0
LINE
  5
C614
330
1A
100
AcDbEntity
  8
0
100
AcDbLine
 10
307.8935903703723
 20
265.8399024986833
 30
0.0
 11
306.8935903703723
 21
265.8399024986833
 31
0.0
  0
LINE
  5
C615
330
1A
100
AcDbEntity
  8
0
100
AcDbLine
 10
320.8935903703723
 20
266.8399024986833
 30
0.0
 11
318.8935903703723
 21
266.8399024986833
 31
0.0
  0
LINE
  5
C616
330
1A
100
AcDbEntity
  8
0
100
AcDbLine
 10
323.8935903703723
 20
266.8399024986834
 30
0.0
 11
321.8935903703723
 21
266.8399024986833
 31
0.0
  0
LINE
  5
C617
330
1A
100
AcDbEntity
  8
0
100
AcDbLine
 10
321.8935903703723
 20
265.8399024986833
 30
0.0
 11
320.8935903703723
 21
265.8399024986833
 31
0.0
  0
LINE
  5
C618
330
1A
100
AcDbEntity
  8
0
100
AcDbLine
 10
318.8935903703723
 20
265.8399024986833
 30
0.0
 11
317.8935903703723
 21
265.8399024986833
 31
0.0
  0
LINE
  5
C619
330
1A
100
AcDbEntity
  8
0
100
AcDbLine
 10
284.8935903703721
 20
341.5691515056872
 30
0.0
 11
229.8935903703721
 21
341.5691515056872
 31
0.0
  0
LINE
  5
C61A
330
1A
100
AcDbEntity
  8
0
  6
HIDDEN
 62
     8
100
AcDbLine
 10
244.8935903703723
 20
346.5691515056871
 30
0.0
 11
280.8935903703721
 21
346.5691515056871
 31
0.0
  0
LINE
  5
C61B
330
1A
100
AcDbEntity
  8
0
  6
HIDDEN
 62
     8
100
AcDbLine
 10
246.3935903703723
 20
350.8265108185678
 30
0.0
 11
279.3935903703723
 21
350.8265108185678
 31
0.0
  0
LINE
  5
C61C
330
1A
100
AcDbEntity
  8
0
  6
HIDDEN
 62
     8
100
AcDbLine
 10
232.8935903703722
 20
341.5691515056872
 30
0.0
 11
292.8935903703721
 21
341.5691515056872
 31
0.0
  0
LINE
  5
C61D
330
1A
100
AcDbEntity
  8
0
100
AcDbLine
 10
274.8935903703722
 20
345.0691515056872
 30
0.0
 11
294.8935903703721
 21
345.0691515056872
 31
0.0
  0
CIRCLE
  5
C61E
330
1A
100
AcDbEntity
  8
0
100
AcDbCircle
 10
278.3935903703722
 20
349.0691515056872
 30
0.0
 40
2.5
  0
LINE
  5
C61F
330
1A
100
AcDbEntity
  8
0
  6
HIDDEN
 62
     8
100
AcDbLine
 10
227.8935903703723
 20
331.5691515056871
 30
0.0
 11
297.8935903703721
 21
331.5691515056871
 31
0.0
  0
CIRCLE
  5
C620
330
1A
100
AcDbEntity
  8
0
100
AcDbCircle
 10
232.8935903703722
 20
336.5691515056872
 30
0.0
 40
2.799999999999998
  0
LINE
  5
C621
330
1A
100
AcDbEntity
  8
0
  6
HIDDEN
 62
     8
100
AcDbLine
 10
222.8935903703723
 20
336.5691515056872
 30
0.0
 11
227.8935903703723
 21
331.5691515056871
 31
0.0
  0
ARC
  5
C622
330
1A
100
AcDbEntity
  8
0
  6
HIDDEN
 62
     8
100
AcDbCircle
 10
244.8935903703723
 20
348.5691515056871
 30
0.0
 40
2.0
100
AcDbArc
 50
180.0
 51
270.0
  0
LINE
  5
C623
330
1A
100
AcDbEntity
  8
0
  6
HIDDEN
 62
     8
100
AcDbLine
 10
237.1362310574915
 20
341.5691515056872
 30
0.0
 11
243.1523389845179
 21
347.5852594327136
 31
0.0
  0
LINE
  5
C624
330
1A
100
AcDbEntity
  8
0
  6
HIDDEN
 62
     8
100
AcDbLine
 10
243.1523389845179
 20
347.5852594327134
 30
0.0
 11
246.3935903703723
 21
350.8265108185678
 31
0.0
  0
CIRCLE
  5
C625
330
1A
100
AcDbEntity
  8
0
100
AcDbCircle
 10
292.8935903703722
 20
336.5691515056872
 30
0.0
 40
2.799999999999998
  0
LINE
  5
C626
330
1A
100
AcDbEntity
  8
0
100
AcDbLine
 10
304.8935903703723
 20
329.5691515056871
 30
0.0
 11
303.8935903703723
 21
329.5691515056871
 31
0.0
  0
LINE
  5
C627
330
1A
100
AcDbEntity
  8
0
  6
HIDDEN
 62
     8
100
AcDbLine
 10
302.8935903703721
 20
336.5691515056872
 30
0.0
 11
297.8935903703721
 21
331.5691515056871
 31
0.0
  0
LINE
  5
C628
330
1A
100
AcDbEntity
  8
0
100
AcDbLine
 10
287.8935903703723
 20
331.5691515056871
 30
0.0
 11
297.8935903703723
 21
331.5691515056871
 31
0.0
  0
LINE
  5
C629
330
1A
100
AcDbEntity
  8
0
100
AcDbLine
 10
303.8935903703723
 20
328.5691515056872
 30
0.0
 11
301.8935903703723
 21
328.5691515056872
 31
0.0
  0
LINE
  5
C62A
330
1A
100
AcDbEntity
  8
0
100
AcDbLine
 10
317.8935903703723
 20
328.5691515056872
 30
0.0
 11
307.8935903703723
 21
328.5691515056872
 31
0.0
  0
LINE
  5
C62B
330
1A
100
AcDbEntity
  8
0
100
AcDbLine
 10
306.8935903703723
 20
328.5691515056872
 30
0.0
 11
304.8935903703723
 21
328.5691515056872
 31
0.0
  0
LINE
  5
C62C
330
1A
100
AcDbEntity
  8
0
100
AcDbLine
 10
307.8935903703723
 20
329.5691515056871
 30
0.0
 11
306.8935903703723
 21
329.5691515056871
 31
0.0
  0
LINE
  5
C62D
330
1A
100
AcDbEntity
  8
0
100
AcDbLine
 10
318.8935903703723
 20
329.5691515056871
 30
0.0
 11
317.8935903703723
 21
329.5691515056871
 31
0.0
  0
LINE
  5
C62E
330
1A
100
AcDbEntity
  8
0
100
AcDbLine
 10
323.8935903703723
 20
328.5691515056872
 30
0.0
 11
321.8935903703723
 21
328.5691515056872
 31
0.0
  0
LINE
  5
C62F
330
1A
100
AcDbEntity
  8
0
100
AcDbLine
 10
321.8935903703723
 20
329.5691515056871
 30
0.0
 11
320.8935903703723
 21
329.5691515056871
 31
0.0
  0
LINE
  5
C630
330
1A
100
AcDbEntity
  8
0
100
AcDbLine
 10
320.8935903703723
 20
328.5691515056872
 30
0.0
 11
318.8935903703723
 21
328.5691515056872
 31
0.0
  0
ARC
  5
C631
330
1A
100
AcDbEntity
  8
0
  6
HIDDEN
 62
     8
100
AcDbCircle
 10
280.8935903703721
 20
348.5691515056871
 30
0.0
 40
2.0
100
AcDbArc
 50
270.0
 51
0.0
  0
CIRCLE
  5
C632
330
1A
100
AcDbEntity
  8
0
100
AcDbCircle
 10
291.3935903703722
 20
349.0691515056872
 30
0.0
 40
2.5
  0
LINE
  5
C633
330
1A
100
AcDbEntity
  8
0
  6
HIDDEN
 62
     8
100
AcDbLine
 10
288.650949683253
 20
341.5691515056872
 30
0.0
 11
282.6348417562265
 21
347.5852594327136
 31
0.0
  0
LINE
  5
C634
330
1A
100
AcDbEntity
  8
0
  6
HIDDEN
 62
     8
100
AcDbLine
 10
282.6348417562265
 20
347.5852594327136
 30
0.0
 11
279.3935903703722
 21
350.8265108185678
 31
0.0
  0
LINE
  5
C635
330
1A
100
AcDbEntity
  8
0
  6
HIDDEN
 62
     8
100
AcDbLine
 10
356.3061040188222
 20
408.069151505687
 30
0.0
 11
356.3061040188222
 21
420.569151505687
 31
0.0
  0
CIRCLE
  5
C636
330
1A
100
AcDbEntity
  8
0
  6
HIDDEN
 62
     8
100
AcDbCircle
 10
348.3061040188222
 20
413.5691515056871
 30
0.0
 40
2.25
  0
LINE
  5
C637
330
1A
100
AcDbEntity
  8
0
  6
HIDDEN
 62
     8
100
AcDbLine
 10
348.3061040188222
 20
407.569151505687
 30
0.0
 11
348.3061040188222
 21
419.569151505687
 31
0.0
  0
LINE
  5
C638
330
1A
100
AcDbEntity
  8
0
  6
HIDDEN
 62
     8
100
AcDbLine
 10
340.3061040188223
 20
408.069151505687
 30
0.0
 11
340.3061040188222
 21
420.569151505687
 31
0.0
  0
LINE
  5
C639
330
1A
100
AcDbEntity
  8
0
  6
HIDDEN
 62
     8
100
AcDbLine
 10
376.9622831336473
 20
371.5691515056871
 30
0.0
 11
427.1724431250554
 21
371.5691515056871
 31
0.0
  0
LINE
  5
C63A
330
1A
100
AcDbEntity
  8
0
  6
HIDDEN
 62
     8
100
AcDbLine
 10
389.8061040188222
 20
377.5691515056871
 30
0.0
 11
402.8935903703723
 21
377.5691515056871
 31
0.0
  0
LINE
  5
C63B
330
1A
100
AcDbEntity
  8
0
  6
HIDDEN
 62
     8
100
AcDbLine
 10
389.8061040188222
 20
365.5691515056872
 30
0.0
 11
402.8935903703723
 21
365.5691515056871
 31
0.0
  0
LINE
  5
C63C
330
1A
100
AcDbEntity
  8
0
  6
HIDDEN
 62
     8
100
AcDbLine
 10
389.8061040188222
 20
362.5691515056872
 30
0.0
 11
389.8061040188222
 21
380.5691515056872
 31
0.0
  0
LINE
  5
C63D
330
1A
100
AcDbEntity
  8
0
  6
HIDDEN
 62
     8
100
AcDbLine
 10
384.8061040188222
 20
362.5691515056872
 30
0.0
 11
389.8061040188222
 21
362.5691515056872
 31
0.0
  0
LINE
  5
C63E
330
1A
100
AcDbEntity
  8
0
  6
HIDDEN
 62
     8
100
AcDbLine
 10
384.8061040188222
 20
380.5691515056872
 30
0.0
 11
389.8061040188222
 21
380.5691515056872
 31
0.0
  0
LINE
  5
C63F
330
1A
100
AcDbEntity
  8
0
  6
HIDDEN
 62
     8
100
AcDbLine
 10
342.3061040188222
 20
413.5691515056871
 30
0.0
 11
354.3061040188222
 21
413.5691515056871
 31
0.0
  0
LINE
  5
C640
330
1A
100
AcDbEntity
  8
0
  6
HIDDEN
 62
     8
100
AcDbLine
 10
301.4729109925429
 20
408.069151505687
 30
0.0
 11
384.8061040188222
 21
408.069151505687
 31
0.0
  0
LINE
  5
C641
330
1A
100
AcDbEntity
  8
0
  6
HIDDEN
 62
     8
100
AcDbLine
 10
301.4729109925429
 20
388.0691515056869
 30
0.0
 11
329.3061040188222
 21
388.0691515056868
 31
0.0
  0
LINE
  5
C642
330
1A
100
AcDbEntity
  8
0
 62
     7
100
AcDbLine
 10
411.3061040188221
 20
368.5691515056872
 30
0.0
 11
411.3061040188221
 21
374.5691515056872
 31
0.0
  0
LINE
  5
C643
330
1A
100
AcDbEntity
  8
0
 62
     7
100
AcDbLine
 10
415.3061040188221
 20
368.5691515056872
 30
0.0
 11
415.3061040188221
 21
374.5691515056872
 31
0.0
  0
LINE
  5
C644
330
1A
100
AcDbEntity
  8
0
 62
     7
100
AcDbLine
 10
415.3061040188221
 20
368.5691515056872
 30
0.0
 11
415.3061040188221
 21
374.5691515056872
 31
0.0
  0
ARC
  5
C645
330
1A
100
AcDbEntity
  8
0
 62
     7
100
AcDbCircle
 10
408.3061040188221
 20
368.5691515056872
 30
0.0
 40
3.0
100
AcDbArc
 50
270.0
 51
0.0
  0
LINE
  5
C646
330
1A
100
AcDbEntity
  8
0
 62
     7
100
AcDbLine
 10
411.3061040188221
 20
368.5691515056874
 30
0.0
 11
415.3061040188221
 21
368.5691515056872
 31
0.0
  0
ARC
  5
C647
330
1A
100
AcDbEntity
  8
0
 62
     7
100
AcDbCircle
 10
408.3061040188221
 20
374.5691515056872
 30
0.0
 40
3.0
100
AcDbArc
 50
0.0
 51
90.0
  0
LINE
  5
C648
330
1A
100
AcDbEntity
  8
0
 62
     7
100
AcDbLine
 10
415.3061040188221
 20
373.5691515056871
 30
0.0
 11
422.6768786613464
 21
373.5691515056871
 31
0.0
  0
LINE
  5
C649
330
1A
100
AcDbEntity
  8
0
 62
     7
100
AcDbLine
 10
411.3061040188221
 20
374.5691515056872
 30
0.0
 11
415.3061040188221
 21
374.5691515056872
 31
0.0
  0
ARC
  5
C64A
330
1A
100
AcDbEntity
  8
0
 62
     7
100
AcDbCircle
 10
421.9268786613465
 20
372.5691515056872
 30
0.0
 40
1.25
100
AcDbArc
 50
306.8698976458455
 51
53.13010235415447
  0
LINE
  5
C64B
330
1A
100
AcDbEntity
  8
0
 62
     7
100
AcDbLine
 10
415.3061040188221
 20
369.5691515056872
 30
0.0
 11
422.6768786613464
 21
369.5691515056872
 31
0.0
  0
ARC
  5
C64C
330
1A
100
AcDbEntity
  8
0
 62
     7
100
AcDbCircle
 10
423.4268786613466
 20
370.5691515056872
 30
0.0
 40
1.24999999999999
100
AcDbArc
 50
126.8698976458375
 51
233.1301023541546
  0
LINE
  5
C64D
330
1A
100
AcDbEntity
  8
0
  6
HIDDEN
 62
     8
100
AcDbLine
 10
341.3061040188221
 20
421.569151505687
 30
0.0
 11
355.3061040188222
 21
421.5691515056871
 31
0.0
  0
LINE
  5
C64E
330
1A
100
AcDbEntity
  8
0
  6
HIDDEN
 62
     8
100
AcDbLine
 10
341.3061040188221
 20
421.569151505687
 30
0.0
 11
340.3061040188222
 21
420.569151505687
 31
0.0
  0
LINE
  5
C64F
330
1A
100
AcDbEntity
  8
0
  6
HIDDEN
 62
     8
100
AcDbLine
 10
355.3061040188222
 20
421.5691515056871
 30
0.0
 11
356.3061040188222
 21
420.569151505687
 31
0.0
  0
LINE
  5
C650
330
1A
100
AcDbEntity
  8
0
  6
HIDDEN
 62
     8
100
AcDbLine
 10
227.8935903703723
 20
411.569151505687
 30
0.0
 11
297.8935903703723
 21
411.569151505687
 31
0.0
  0
CIRCLE
  5
C651
330
1A
100
AcDbEntity
  8
0
100
AcDbCircle
 10
278.3935903703722
 20
380.0691515056872
 30
0.0
 40
2.5
  0
LINE
  5
C652
330
1A
100
AcDbEntity
  8
0
100
AcDbLine
 10
284.8935903703722
 20
401.5691515056871
 30
0.0
 11
229.8935903703721
 21
401.5691515056873
 31
0.0
  0
LINE
  5
C653
330
1A
100
AcDbEntity
  8
0
  6
HIDDEN
 62
     8
100
AcDbLine
 10
244.8935903703722
 20
396.5691515056873
 30
0.0
 11
280.8935903703721
 21
396.5691515056873
 31
0.0
  0
LINE
  5
C654
330
1A
100
AcDbEntity
  8
0
  6
HIDDEN
 62
     8
100
AcDbLine
 10
246.3935903703723
 20
392.3117921928065
 30
0.0
 11
279.3935903703723
 21
392.3117921928065
 31
0.0
  0
LINE
  5
C655
330
1A
100
AcDbEntity
  8
0
  6
HIDDEN
 62
     8
100
AcDbLine
 10
232.8935903703723
 20
401.5691515056871
 30
0.0
 11
292.8935903703723
 21
401.5691515056871
 31
0.0
  0
LINE
  5
C656
330
1A
100
AcDbEntity
  8
0
100
AcDbLine
 10
274.8935903703722
 20
398.0691515056872
 30
0.0
 11
294.8935903703721
 21
398.0691515056872
 31
0.0
  0
CIRCLE
  5
C657
330
1A
100
AcDbEntity
  8
0
100
AcDbCircle
 10
278.3935903703722
 20
394.0691515056871
 30
0.0
 40
2.5
  0
LINE
  5
C658
330
1A
100
AcDbEntity
  8
0
100
AcDbLine
 10
274.8935903703721
 20
367.0691515056873
 30
0.0
 11
294.8935903703722
 21
367.0691515056873
 31
0.0
  0
CIRCLE
  5
C659
330
1A
100
AcDbEntity
  8
0
100
AcDbCircle
 10
278.3935903703722
 20
363.0691515056871
 30
0.0
 40
2.5
  0
LINE
  5
C65A
330
1A
100
AcDbEntity
  8
0
100
AcDbLine
 10
274.8935903703721
 20
376.0691515056872
 30
0.0
 11
294.8935903703722
 21
376.0691515056872
 31
0.0
  0
LINE
  5
C65B
330
1A
100
AcDbEntity
  8
0
100
AcDbLine
 10
274.8935903703721
 20
376.0691515056872
 30
0.0
 11
274.8935903703722
 21
398.0691515056873
 31
0.0
  0
LINE
  5
C65C
330
1A
100
AcDbEntity
  8
0
  6
HIDDEN
 62
     8
100
AcDbLine
 10
237.1362310574915
 20
401.5691515056873
 30
0.0
 11
243.1523389845179
 21
395.5530435786609
 31
0.0
  0
LINE
  5
C65D
330
1A
100
AcDbEntity
  8
0
  6
HIDDEN
 62
     8
100
AcDbLine
 10
232.8935903703723
 20
397.3265108185679
 30
0.0
 11
242.8935903703721
 21
387.3265108185679
 31
0.0
  0
LINE
  5
C65E
330
1A
100
AcDbEntity
  8
0
  6
HIDDEN
 62
     8
100
AcDbLine
 10
243.1523389845179
 20
395.5530435786609
 30
0.0
 11
246.3935903703723
 21
392.3117921928065
 31
0.0
  0
ARC
  5
C65F
330
1A
100
AcDbEntity
  8
0
  6
HIDDEN
 62
     8
100
AcDbCircle
 10
244.8935903703722
 20
394.5691515056873
 30
0.0
 40
2.0
100
AcDbArc
 50
90.0
 51
180.0
  0
CIRCLE
  5
C660
330
1A
100
AcDbEntity
  8
0
100
AcDbCircle
 10
232.8935903703723
 20
406.5691515056871
 30
0.0
 40
2.799999999999998
  0
LINE
  5
C661
330
1A
100
AcDbEntity
  8
0
  6
HIDDEN
 62
     8
100
AcDbLine
 10
227.8935903703723
 20
411.569151505687
 30
0.0
 11
222.8935903703723
 21
406.5691515056871
 31
0.0
  0
LINE
  5
C662
330
1A
100
AcDbEntity
  8
0
100
AcDbLine
 10
294.8935903703722
 20
376.0691515056872
 30
0.0
 11
294.8935903703722
 21
398.0691515056873
 31
0.0
  0
LINE
  5
C663
330
1A
100
AcDbEntity
  8
0
100
AcDbLine
 10
285.8935903703722
 20
376.0691515056872
 30
0.0
 11
285.8935903703722
 21
398.0691515056872
 31
0.0
  0
LINE
  5
C664
330
1A
100
AcDbEntity
  8
0
100
AcDbLine
 10
283.8935903703722
 20
376.0691515056872
 30
0.0
 11
283.8935903703722
 21
398.0691515056872
 31
0.0
  0
CIRCLE
  5
C665
330
1A
100
AcDbEntity
  8
0
100
AcDbCircle
 10
291.3935903703722
 20
363.0691515056871
 30
0.0
 40
2.5
  0
CIRCLE
  5
C666
330
1A
100
AcDbEntity
  8
0
100
AcDbCircle
 10
291.3935903703722
 20
380.0691515056872
 30
0.0
 40
2.5
  0
LINE
  5
C667
330
1A
100
AcDbEntity
  8
0
  6
HIDDEN
 62
     8
100
AcDbLine
 10
288.650949683253
 20
401.5691515056873
 30
0.0
 11
282.6348417562265
 21
395.5530435786609
 31
0.0
  0
LINE
  5
C668
330
1A
100
AcDbEntity
  8
0
100
AcDbLine
 10
287.8935903703722
 20
398.0691515056872
 30
0.0
 11
287.8935903703723
 21
411.569151505687
 31
0.0
  0
LINE
  5
C669
330
1A
100
AcDbEntity
  8
0
  6
HIDDEN
 62
     8
100
AcDbLine
 10
292.8935903703721
 20
397.3265108185679
 30
0.0
 11
282.8935903703724
 21
387.3265108185679
 31
0.0
  0
CIRCLE
  5
C66A
330
1A
100
AcDbEntity
  8
0
100
AcDbCircle
 10
291.3935903703722
 20
394.0691515056871
 30
0.0
 40
2.5
  0
LINE
  5
C66B
330
1A
100
AcDbEntity
  8
0
  6
HIDDEN
 62
     8
100
AcDbLine
 10
282.6348417562265
 20
395.5530435786609
 30
0.0
 11
279.3935903703722
 21
392.3117921928065
 31
0.0
  0
ARC
  5
C66C
330
1A
100
AcDbEntity
  8
0
  6
HIDDEN
 62
     8
100
AcDbCircle
 10
280.8935903703721
 20
394.5691515056873
 30
0.0
 40
2.0
100
AcDbArc
 50
0.0
 51
90.0
  0
LINE
  5
C66D
330
1A
100
AcDbEntity
  8
0
100
AcDbLine
 10
304.8935903703723
 20
413.5691515056871
 30
0.0
 11
303.8935903703723
 21
413.5691515056871
 31
0.0
  0
CIRCLE
  5
C66E
330
1A
100
AcDbEntity
  8
0
100
AcDbCircle
 10
292.8935903703723
 20
406.5691515056871
 30
0.0
 40
2.799999999999998
  0
LINE
  5
C66F
330
1A
100
AcDbEntity
  8
0
100
AcDbLine
 10
287.8935903703723
 20
411.569151505687
 30
0.0
 11
297.8935903703723
 21
411.569151505687
 31
0.0
  0
LINE
  5
C670
330
1A
100
AcDbEntity
  8
0
  6
HIDDEN
 62
     8
100
AcDbLine
 10
297.8935903703723
 20
411.569151505687
 30
0.0
 11
302.8935903703723
 21
406.5691515056871
 31
0.0
  0
LINE
  5
C671
330
1A
100
AcDbEntity
  8
0
100
AcDbLine
 10
307.8935903703723
 20
413.5691515056871
 30
0.0
 11
306.8935903703723
 21
413.5691515056871
 31
0.0
  0
LINE
  5
C672
330
1A
100
AcDbEntity
  8
0
100
AcDbLine
 10
318.8935903703723
 20
413.5691515056871
 30
0.0
 11
317.8935903703723
 21
413.5691515056871
 31
0.0
  0
LINE
  5
C673
330
1A
100
AcDbEntity
  8
0
100
AcDbLine
 10
321.8935903703723
 20
413.5691515056871
 30
0.0
 11
320.8935903703723
 21
413.5691515056871
 31
0.0
  0
LINE
  5
C674
330
1A
100
AcDbEntity
  8
0
100
AcDbLine
 10
303.8935903703723
 20
414.5691515056872
 30
0.0
 11
301.8935903703723
 21
414.5691515056872
 31
0.0
  0
LINE
  5
C675
330
1A
100
AcDbEntity
  8
0
100
AcDbLine
 10
317.8935903703723
 20
414.5691515056872
 30
0.0
 11
307.8935903703723
 21
414.5691515056872
 31
0.0
  0
LINE
  5
C676
330
1A
100
AcDbEntity
  8
0
100
AcDbLine
 10
306.8935903703723
 20
414.5691515056872
 30
0.0
 11
304.8935903703723
 21
414.5691515056872
 31
0.0
  0
LINE
  5
C677
330
1A
100
AcDbEntity
  8
0
100
AcDbLine
 10
320.8935903703723
 20
414.5691515056872
 30
0.0
 11
318.8935903703723
 21
414.5691515056872
 31
0.0
  0
LINE
  5
C678
330
1A
100
AcDbEntity
  8
0
100
AcDbLine
 10
323.8935903703723
 20
414.5691515056872
 30
0.0
 11
321.8935903703723
 21
414.5691515056872
 31
0.0
  0
LINE
  5
C679
330
1A
100
AcDbEntity
  8
0
100
AcDbLine
 10
402.8935903703723
 20
58.83990249868327
 30
0.0
 11
402.8935903703723
 21
230.8399024986833
 31
0.0
  0
LINE
  5
C67A
330
1A
100
AcDbEntity
  8
0
  6
HIDDEN
 62
     8
 48
2.0
100
AcDbLine
 10
399.8935903703723
 20
58.83990249868327
 30
0.0
 11
399.8935903703723
 21
227.8399024986833
 31
0.0
  0
LINE
  5
C67B
330
1A
100
AcDbEntity
  8
0
  6
HIDDEN
 62
     8
100
AcDbLine
 10
399.8935903703723
 20
317.5691515056872
 30
0.0
 11
399.8935903703723
 21
425.5691515056871
 31
0.0
  0
LINE
  5
C67C
330
1A
100
AcDbEntity
  8
0
100
AcDbLine
 10
402.8935903703723
 20
317.5691515056872
 30
0.0
 11
402.8935903703723
 21
425.5691515056871
 31
0.0
  0
LINE
  5
C67D
330
1A
100
AcDbEntity
  8
0
100
AcDbLine
 10
-312.3949983991884
 20
58.83990249868327
 30
0.0
 11
433.6597104341343
 21
58.83990249868327
 31
0.0
  0
LINE
  5
C67E
330
1A
100
AcDbEntity
  8
0
100
AcDbLine
 10
402.8935903703723
 20
377.5691515056871
 30
0.0
 11
408.3061040188221
 21
377.5691515056871
 31
0.0
  0
LINE
  5
C67F
330
1A
100
AcDbEntity
  8
0
100
AcDbLine
 10
402.8935903703723
 20
365.5691515056871
 30
0.0
 11
408.3061040188221
 21
365.5691515056872
 31
0.0
  0
LINE
  5
C680
330
1A
100
AcDbEntity
  8
0
100
AcDbLine
 10
402.8935903703723
 20
94.83990249868329
 30
0.0
 11
408.3061040188221
 21
94.83990249868329
 31
0.0
  0
LINE
  5
C681
330
1A
100
AcDbEntity
  8
0
100
AcDbLine
 10
402.8935903703723
 20
82.83990249868326
 30
0.0
 11
408.3061040188221
 21
82.83990249868326
 31
0.0
  0
LINE
  5
C682
330
1A
100
AcDbEntity
  8
0
100
AcDbLine
 10
402.8935903703723
 20
70.83990249868326
 30
0.0
 11
418.8014742711251
 21
70.83990249868326
 31
0.0
  0
LINE
  5
C683
330
1A
100
AcDbEntity
  8
0
100
AcDbLine
 10
402.8935903703723
 20
66.83990249868327
 30
0.0
 11
418.8014742711251
 21
66.83990249868329
 31
0.0
  0
DIMENSION
  5
C684
330
1A
100
AcDbEntity
  8
MEASURE
100
AcDbDimension
  2
*D11
 10
402.8935903703723
 20
462.1831079908467
 30
0.0
 11
282.8935903703723
 21
464.9331079908467
 31
0.0
 70
    32
 71
     5
 42
240.0
  3
AD-STANDARD
100
AcDbAlignedDimension
 13
162.8935903703723
 23
425.5691515056871
 33
0.0
 14
402.8935903703723
 24
425.5691515056871
 34
0.0
100
AcDbRotatedDimension
  0
DIMENSION
  5
C685
330
1A
100
AcDbEntity
  8
MEASURE
100
AcDbDimension
  2
*D12
 10
140.0103720050474
 20
317.5691515056872
 30
0.0
 11
137.2603720050473
 21
371.5691515056871
 31
0.0
 70
    32
 71
     5
 42
107.9999999999999
  3
AD-STANDARD
100
AcDbAlignedDimension
 13
162.8935903703723
 23
425.5691515056871
 33
0.0
 14
162.893590370372
 24
317.5691515056872
 34
0.0
 50
90.0
100
AcDbRotatedDimension
  0
DIMENSION
  5
C686
330
1A
100
AcDbEntity
  8
MEASURE
100
AcDbDimension
  2
*D13
 10
137.7913596267117
 20
58.83990249868329
 30
0.0
 11
135.0413596267117
 21
144.8399024986833
 31
0.0
 70
    32
 71
     5
 42
172.0
  3
AD-STANDARD
100
AcDbAlignedDimension
 13
162.8935903703723
 23
230.8399024986833
 33
0.0
 14
182.8935903703723
 24
58.83990249868327
 34
0.0
 50
90.0
100
AcDbRotatedDimension
  0
DIMENSION
  5
C687
330
1A
100
AcDbEntity
  8
MEASURE
100
AcDbDimension
  2
*D14
 10
152.5847767782825
 20
58.83990249868328
 30
0.0
 11
149.8347767782825
 21
99.83990249868332
 31
0.0
 70
    32
 71
     5
 42
82.00000000000004
  3
AD-STANDARD
100
AcDbAlignedDimension
 13
162.8935903703723
 23
140.8399024986833
 33
0.0
 14
182.8935903703723
 24
58.83990249868327
 34
0.0
 50
90.0
100
AcDbRotatedDimension
  0
DIMENSION
  5
C688
330
1A
100
AcDbEntity
  8
MEASURE
100
AcDbDimension
  2
*D15
 10
137.7913596267117
 20
230.8399024986833
 30
0.0
 11
135.0413596267117
 21
248.8399024986834
 31
0.0
 70
    32
 71
     5
 42
36.00000000000003
  3
AD-STANDARD
100
AcDbAlignedDimension
 13
301.8935903703723
 23
266.8399024986833
 33
0.0
 14
162.8935903703723
 24
230.8399024986833
 34
0.0
 50
90.0
100
AcDbRotatedDimension
  0
DIMENSION
  5
C689
330
1A
100
AcDbEntity
  8
MEASURE
100
AcDbDimension
  2
*D16
 10
200.9749059522556
 20
346.5691515056871
 30
0.0
 11
198.2249059522555
 21
371.5691515056873
 31
0.0
 70
    32
 71
     5
 42
50.00000000000023
  3
AD-STANDARD
100
AcDbAlignedDimension
 13
244.8935903703722
 23
396.5691515056873
 33
0.0
 14
244.8935903703723
 24
346.5691515056871
 34
0.0
 50
90.0
100
AcDbRotatedDimension
  0
DIMENSION
  5
C68A
330
1A
100
AcDbEntity
  8
MEASURE
100
AcDbDimension
  2
*D17
 10
282.8935903703721
 20
449.6169281595381
 30
0.0
 11
262.8935903703722
 21
452.3669281595381
 31
0.0
 70
    32
 71
     5
 42
39.99999999999992
  3
AD-STANDARD
100
AcDbAlignedDimension
 13
242.8935903703722
 23
394.5691515056873
 33
0.0
 14
282.8935903703721
 24
394.5691515056873
 34
0.0
100
AcDbRotatedDimension
  0
DIMENSION
  5
C68B
330
1A
100
AcDbEntity
  8
MEASURE
100
AcDbDimension
  2
*D18
 10
162.8935903703723
 20
449.6892150287965
 30
0.0
 11
202.8935903703723
 21
452.4392150287964
 31
0.0
 70
    32
 71
     5
 42
79.99999999999989
  3
AD-STANDARD
100
AcDbAlignedDimension
 13
242.8935903703722
 23
394.5691515056873
 33
0.0
 14
162.8935903703723
 24
425.5691515056871
 34
0.0
100
AcDbRotatedDimension
  0
DIMENSION
  5
C68C
330
1A
100
AcDbEntity
  8
MEASURE
100
AcDbDimension
  2
*D19
 10
38.81774257742382
 20
450.3561152084387
 30
0.0
 11
-11.18225742257618
 21
453.1061152084387
 31
0.0
 70
    32
 71
     5
 42
100.0
  3
AD-STANDARD
100
AcDbAlignedDimension
 13
-61.18225742257617
 23
413.5691515056871
 33
0.0
 14
38.81774257742382
 24
413.5691515056871
 34
0.0
100
AcDbRotatedDimension
  0
DIMENSION
  5
C68D
330
1A
100
AcDbEntity
  8
MEASURE
100
AcDbDimension
  2
*D20
 10
-95.68225742257608
 20
450.3561152084387
 30
0.0
 11
-78.43225742257613
 21
453.1061152084387
 31
0.0
 70
    32
 71
     5
 42
34.49999999999991
  3
AD-STANDARD
100
AcDbAlignedDimension
 13
-61.18225742257617
 23
413.5691515056871
 33
0.0
 14
-95.68225742257608
 24
408.069151505687
 34
0.0
100
AcDbRotatedDimension
  0
DIMENSION
  5
C68E
330
1A
100
AcDbEntity
  8
MEASURE
100
AcDbDimension
  2
*D21
 10
75.31774257742381
 20
450.3561152084387
 30
0.0
 11
57.06774257742381
 21
453.1061152084387
 31
0.0
 70
    32
 71
     5
 42
36.49999999999999
  3
AD-STANDARD
100
AcDbAlignedDimension
 13
38.81774257742382
 23
413.5691515056871
 33
0.0
 14
75.31774257742381
 24
408.069151505687
 34
0.0
100
AcDbRotatedDimension
  0
DIMENSION
  5
C68F
330
1A
100
AcDbEntity
  8
MEASURE
100
AcDbDimension
  2
*D22
 10
-169.9117264571678
 20
329.5691515056872
 30
0.0
 11
-172.6617264571679
 21
371.5691515056871
 31
0.0
 70
    32
 71
     5
 42
83.99999999999995
  3
AD-STANDARD
100
AcDbAlignedDimension
 13
-61.18225742257617
 23
413.5691515056871
 33
0.0
 14
-61.18225742257617
 24
329.5691515056871
 34
0.0
 50
90.0
100
AcDbRotatedDimension
  0
DIMENSION
  5
C690
330
1A
100
AcDbEntity
  8
MEASURE
100
AcDbDimension
  2
*D23
 10
-156.5976482991518
 20
335.0691515056872
 30
0.0
 11
-159.3476482991518
 21
372.5691515056872
 31
0.0
 70
    32
 71
     5
 42
74.99999999999994
  3
AD-STANDARD
100
AcDbAlignedDimension
 13
-95.68225742257608
 23
410.0691515056871
 33
0.0
 14
-95.68225742257608
 24
335.0691515056872
 34
0.0
 50
90.0
100
AcDbRotatedDimension
  0
DIMENSION
  5
C691
330
1A
100
AcDbEntity
  8
MEASURE
100
AcDbDimension
  2
*D24
 10
46.81774257742381
 20
437.7899380509559
 30
0.0
 11
38.81774257742382
 21
440.5399380509559
 31
0.0
 70
    32
 71
     5
 42
16.0
  3
AD-STANDARD
100
AcDbAlignedDimension
 13
30.81774257742381
 23
420.569151505687
 33
0.0
 14
46.81774257742381
 24
420.569151505687
 34
0.0
100
AcDbRotatedDimension
  0
DIMENSION
  5
C692
330
1A
100
AcDbEntity
  8
MEASURE
100
AcDbDimension
  2
*D25
 10
-69.18225742257618
 20
437.7899380509559
 30
0.0
 11
-61.18225742257618
 21
440.5399380509559
 31
0.0
 70
    32
 71
     5
 42
16.0
  3
AD-STANDARD
100
AcDbAlignedDimension
 13
-53.18225742257618
 23
420.569151505687
 33
0.0
 14
-69.18225742257618
 24
420.569151505687
 34
0.0
100
AcDbRotatedDimension
  0
LEADER
  5
C693
330
1A
100
AcDbEntity
  8
MEASURE
100
AcDbLeader
  3
AD-STANDARD
 73
     0
 75
     1
 40
7.0
 41
29.06666666666666
 76
     3
 10
37.392244043519
 20
415.1951055234496
 30
0.0
 10
14.90759770410022
 20
437.8159597195932
 30
0.0
 10
12.40759770410022
 20
437.8159597195932
 30
0.0
1001
ACAD
1000
DSTYLE
1002
{
1070
     5
1000

1002
}
  0
MTEXT
  5
C694
330
1A
100
AcDbEntity
  8
MEASURE
 62
     2
100
AcDbMText
 10
11.40759770410022
 20
438.8159597195932
 30
0.0
 40
3.5
 41
0.0
 71
     9
 72
     5
  1
4-%%C4.5
  7
AD-STANDARD
 73
     1
 44
1.0
1001
ACAD
1000
MTEXTBEGIN
1070
    73
1070
     1
1070
    44
1040
1.0
1070
    74
1070
     0
1000
MTEXTEND
  0
LINE
  5
C695
330
1A
100
AcDbEntity
  8
MEASURE
100
AcDbLine
 10
75.31774257742381
 20
410.0691515056871
 30
0.0
 11
75.31774257742381
 21
454.3561152084387
 31
0.0
  0
LINE
  5
C696
330
1A
100
AcDbEntity
  8
MEASURE
100
AcDbLine
 10
113.1885172199482
 20
373.5691515056871
 30
0.0
 11
113.1885172199482
 21
454.3561152084387
 31
0.0
  0
LINE
  5
C697
330
1A
100
AcDbEntity
  8
MEASURE
100
AcDbLine
 10
80.31774257742382
 20
450.3561152084387
 30
0.0
 11
108.1885172199482
 21
450.3561152084387
 31
0.0
  0
SOLID
  5
C698
330
1A
100
AcDbEntity
  8
MEASURE
100
AcDbTrace
 10
80.31774257742382
 20
451.189448541772
 30
0.0
 11
80.31774257742382
 21
449.5227818751053
 31
0.0
 12
75.31774257742381
 22
450.3561152084387
 32
0.0
 13
75.31774257742381
 23
450.3561152084387
 33
0.0
  0
SOLID
  5
C699
330
1A
100
AcDbEntity
  8
MEASURE
100
AcDbTrace
 10
108.1885172199482
 20
451.189448541772
 30
0.0
 11
108.1885172199482
 21
449.5227818751053
 31
0.0
 12
113.1885172199482
 22
450.3561152084387
 32
0.0
 13
113.1885172199482
 23
450.3561152084387
 33
0.0
  0
MTEXT
  5
C69A
330
1A
100
AcDbEntity
  8
MEASURE
 62
     2
100
AcDbMText
 10
95.54093809212316
 20
454.8561152084387
 30
0.0
 40
3.5
 41
0.0
 71
     5
 72
     5
  1
\A1;40mm程度
  7
AD-STANDARD
 73
     1
 44
1.0
1001
ACAD
1000
MTEXTBEGIN
1070
    73
1070
     1
1070
    44
1040
1.0
1070
    74
1070
     0
1000
MTEXTEND
  0
POINT
  5
C69D
330
1A
100
AcDbEntity
  8
MEASURE
100
AcDbPoint
 10
113.1885172199482
 20
450.3561152084387
 30
0.0
  0
DIMENSION
  5
C69E
330
1A
100
AcDbEntity
  8
MEASURE
100
AcDbDimension
  2
*D26
 10
-156.8700924269433
 20
58.83990249868329
 30
0.0
 11
-159.6200924269433
 21
109.6014370684737
 31
0.0
 70
    32
  1
約101.5
 71
     5
 42
101.5230691395808
  3
AD-STANDARD
100
AcDbAlignedDimension
 13
-128.0154504488555
 23
160.3629716382641
 33
0.0
 14
-95.68225742257618
 24
58.83990249868327
 34
0.0
 50
90.0
100
AcDbRotatedDimension
  0
DIMENSION
  5
C69F
330
1A
100
AcDbEntity
  8
MEASURE
100
AcDbDimension
  2
*D27
 10
-142.130399719279
 20
58.83990249868328
 30
0.0
 11
-144.880399719279
 21
96.33990249868324
 31
0.0
 70
    32
 71
     5
 42
74.99999999999994
  3
AD-STANDARD
100
AcDbAlignedDimension
 13
-95.68225742257618
 23
133.8399024986832
 33
0.0
 14
-95.68225742257618
 24
58.83990249868327
 34
0.0
 50
90.0
100
AcDbRotatedDimension
  0
DIMENSION
  5
C6A0
330
1A
100
AcDbEntity
  8
MEASURE
100
AcDbDimension
  2
*D28
 10
-173.6100778290574
 20
58.83990249868326
 30
0.0
 11
-176.3600778290574
 21
136.9822077066132
 31
0.0
 70
    32
  1
約156
 71
     5
 42
156.28461041586
  3
AD-STANDARD
100
AcDbAlignedDimension
 13
-214.2675668966821
 23
215.1245129145433
 33
0.0
 14
-204.0175668966821
 24
58.83990249868327
 34
0.0
 50
90.0
100
AcDbRotatedDimension
  0
DIMENSION
  5
C6A1
330
1A
100
AcDbEntity
  8
MEASURE
100
AcDbDimension
  2
*D29
 10
-8.015450448855519
 20
289.9525336185082
 30
0.0
 11
-40.46545044885556
 21
292.7025336185082
 31
0.0
 70
    32
 71
     5
 42
64.90000000000009
  3
AD-STANDARD
100
AcDbAlignedDimension
 13
-72.91545044885561
 23
331.8191515056871
 33
0.0
 14
-8.015450448855517
 24
331.8191515056871
 34
0.0
100
AcDbRotatedDimension
  0
DIMENSION
  5
C6A2
330
1A
100
AcDbEntity
  8
MEASURE
100
AcDbDimension
  2
*D30
 10
-214.8844815404424
 20
244.1229392605035
 30
0.0
 11
-254.0175668966821
 21
246.8729392605035
 31
0.0
 70
    32
  1
78.5
 71
     5
 42
78.26617071247944
  3
AD-STANDARD
100
AcDbAlignedDimension
 13
-293.1506522529218
 23
215.1245129145433
 33
0.0
 14
-214.8844815404424
 24
215.1245129145433
 34
0.0
100
AcDbRotatedDimension
  0
DIMENSION
  5
C6A3
330
1A
100
AcDbEntity
  8
MEASURE
100
AcDbDimension
  2
*D31
 10
-144.7629169106976
 20
357.1146060511417
 30
0.0
 11
-147.5129169106976
 21
371.5691515056869
 31
0.0
 70
    32
  1
29.6
 71
     5
 42
28.90909090909071
  3
AD-STANDARD
100
AcDbAlignedDimension
 13
-128.0154504488555
 23
386.0236969602324
 33
0.0
 14
-128.0154504488555
 24
357.1146060511417
 34
0.0
 50
90.0
100
AcDbRotatedDimension
  0
DIMENSION
  5
C6A4
330
1A
100
AcDbEntity
  8
MEASURE
100
AcDbDimension
  2
*D32
 10
-95.68225742257618
 20
29.01951872576205
 30
0.0
 11
-111.8488539357158
 21
31.76951872576205
 31
0.0
 70
    32
  1
約33
 71
     5
 42
32.3331930262793
  3
AD-STANDARD
100
AcDbAlignedDimension
 13
-128.0154504488555
 23
159.8629716382641
 33
0.0
 14
-95.68225742257618
 24
58.83990249868327
 34
0.0
100
AcDbRotatedDimension
  0
DIMENSION
  5
C6A5
330
1A
100
AcDbEntity
  8
MEASURE
100
AcDbDimension
  2
*D33
 10
75.31774257742381
 20
28.28033167686158
 30
0.0
 11
-10.18225742257618
 21
31.03033167686158
 31
0.0
 70
    32
 71
     5
 42
171.0
  3
AD-STANDARD
100
AcDbAlignedDimension
 13
-95.68225742257618
 23
58.83990249868327
 33
0.0
 14
75.31774257742381
 24
58.83990249868327
 34
0.0
100
AcDbRotatedDimension
  0
DIMENSION
  5
C6A6
330
1A
100
AcDbEntity
  8
MEASURE
100
AcDbDimension
  2
*D34
 10
182.8935903703723
 20
28.28033167686158
 30
0.0
 11
172.8935903703723
 21
31.03033167686158
 31
0.0
 70
    32
 71
     5
 42
20.0
  3
AD-STANDARD
100
AcDbAlignedDimension
 13
162.8935903703723
 23
140.8399024986833
 33
0.0
 14
182.8935903703723
 24
58.83990249868327
 34
0.0
100
AcDbRotatedDimension
  0
DIMENSION
  5
C6A7
330
1A
100
AcDbEntity
  8
MEASURE
100
AcDbDimension
  2
*D35
 10
402.8935903703723
 20
28.28033167686158
 30
0.0
 11
292.8935903703723
 21
31.03033167686158
 31
0.0
 70
    32
 71
     5
 42
220.0
  3
AD-STANDARD
100
AcDbAlignedDimension
 13
182.8935903703723
 23
56.83990249868327
 33
0.0
 14
402.8935903703723
 24
58.83990249868327
 34
0.0
100
AcDbRotatedDimension
  0
DIMENSION
  5
C6A8
330
1A
100
AcDbEntity
  8
MEASURE
100
AcDbDimension
  2
*D36
 10
-183.2258007271803
 20
322.069151505687
 30
0.0
 11
-185.9758007271804
 21
371.819151505687
 31
0.0
 70
    32
  1
100
 71
     5
 42
99.50000000000006
  3
AD-STANDARD
100
AcDbAlignedDimension
 13
-68.18225742257618
 23
421.569151505687
 33
0.0
 14
-68.6822574225763
 24
322.069151505687
 34
0.0
 50
90.0
100
AcDbRotatedDimension
  0
LEADER
  5
C6A9
330
1A
100
AcDbEntity
  8
MEASURE
100
AcDbLeader
  3
AD-STANDARD
 73
     0
 75
     1
 40
7.0
 41
32.00000000000001
 76
     3
 10
205.1014082495594
 20
327.6510731124333
 30
0.0
 10
183.1922720878701
 20
288.4741621945329
 30
0.0
 10
180.6922720878701
 20
288.4741621945329
 30
0.0
1001
ACAD
1000
DSTYLE
1002
{
1070
     5
1000

1002
}
  0
MTEXT
  5
C6AA
330
1A
100
AcDbEntity
  8
MEASURE
 62
     2
100
AcDbMText
 10
179.6922720878701
 20
289.4741621945329
 30
0.0
 40
3.5
 41
0.0
 71
     9
 72
     5
  1
風防装着時
  7
AD-STANDARD
 73
     1
 44
1.0
1001
ACAD
1000
MTEXTBEGIN
1070
    73
1070
     1
1070
    44
1040
1.0
1070
    74
1070
     0
1000
MTEXTEND
  0
DIMENSION
  5
C6AB
330
1A
100
AcDbEntity
  8
MEASURE
100
AcDbDimension
  2
*D37
 10
323.8935903703723
 20
291.4309077163096
 30
0.0
 11
312.8935903703723
 21
294.1809077163096
 31
0.0
 70
    32
 71
     5
 42
22.0
  3
AD-STANDARD
100
AcDbAlignedDimension
 13
301.8935903703723
 23
266.8399024986833
 33
0.0
 14
323.8935903703723
 24
266.8399024986833
 34
0.0
100
AcDbRotatedDimension
  0
VIEWPORT
  5
4699
102
{ACAD_XDICTIONARY
360
CC92
102
}
330
4698
100
AcDbEntity
 67
     1
  8
0
100
AcDbViewport
 10
415.5000019581057
 20
292.0000013830141
 30
0.0
 40
979.2597656250698
 41
597.8039266897228
 68
     1
 69
     1
 12
415.5000019581057
 22
292.0000013830141
 13
0.0
 23
0.0
 14
1.0
 24
1.0
 15
10.0
 25
10.0
 16
0.0
 26
0.0
 36
1.0
 17
0.0
 27
0.0
 37
0.0
 42
50.0
 43
0.0
 44
0.0
 45
597.8039266897228
 50
0.0
 51
0.0
 72
   100
 90
    32768
  1

281
     0
 71
     1
 74
     0
110
0.0
120
0.0
130
0.0
111
1.0
121
0.0
131
0.0
112
0.0
122
1.0
132
0.0
 79
     0
146
0.0
  0
VIEWPORT
  5
46A4
102
{ACAD_XDICTIONARY
360
CC94
102
}
330
4698
100
AcDbEntity
 67
     1
  8
DEFPOINTS
100
AcDbViewport
 10
415.5
 20
292.0
 30
0.0
 40
841.0
 41
594.0
 68
     2
 69
     2
 12
63.41551752014879
 22
246.4638358376524
 13
0.0
 23
0.0
 14
0.1
 24
0.1
 15
0.0
 25
0.0
 16
0.0
 26
0.0
 36
1.0
 17
0.0
 27
0.0
 37
0.0
 42
50.0
 43
0.0
 44
0.0
 45
534.2827637514679
 50
0.0
 51
0.0
 72
   100
 90
    36864
  1

281
     0
 71
     1
 74
     0
110
0.0
120
0.0
130
0.0
111
1.0
121
0.0
131
0.0
112
0.0
122
1.0
132
0.0
 79
     0
146
0.0
  0
ENDSEC
  0
SECTION
  2
OBJECTS
  0
DICTIONARY
  5
C
330
0
100
AcDbDictionary
281
     1
  3
ACAD_COLOR
350
36E5
  3
ACAD_GROUP
350
D
  3
ACAD_LAYOUT
350
2DC
  3
ACAD_MATERIAL
350
36E4
  3
ACAD_MLEADERSTYLE
350
BFB2
  3
ACAD_MLINESTYLE
350
E
  3
ACAD_PLOTSETTINGS
350
2DD
  3
ACAD_PLOTSTYLENAME
350
2DA
  3
ACAD_SCALELIST
350
BF90
  3
ACAD_TABLESTYLE
350
58ED
  3
ACAD_VISUALSTYLE
350
BF7F
  3
AcadDim
350
6ACE
  3
ACDB_RECOMPOSE_DATA
350
C8F1
  3
AcDbVariableDictionary
350
23A5
  3
CONTENTDICTIONARY
350
234
  3
DWGPROPS
350
CC76
  0
DICTIONARY
  5
C8F3
330
8
100
AcDbDictionary
280
     1
281
     1
  0
DICTIONARY
  5
4C3C
330
2
100
AcDbDictionary
280
     1
281
     1
  3
ACAD_LAYERSTATES
360
4C3D
  0
DICTIONARY
  5
C8E3
330
F
100
AcDbDictionary
280
     1
281
     1
  3
ADSK_XREC_LAYER_RECONCILED
360
C8E4
  0
DICTIONARY
  5
C8EB
330
ABDA
100
AcDbDictionary
280
     1
281
     1
  3
ADSK_XREC_LAYER_RECONCILED
360
C8EC
  0
DICTIONARY
  5
6129
330
1A
100
AcDbDictionary
280
     1
281
     1
  3
ACAD_SORTENTS
360
612A
  0
DICTIONARY
  5
CC92
330
4699
100
AcDbDictionary
280
     1
281
     1
  3
ACAD_XREC_ROUNDTRIP
360
CC93
  0
DICTIONARY
  5
CC94
330
46A4
100
AcDbDictionary
280
     1
281
     1
  3
ACAD_XREC_ROUNDTRIP
360
CC95
  0
DICTIONARY
  5
36E5
102
{ACAD_REACTORS
330
C
102
}
330
C
100
AcDbDictionary
281
     1
  0
DICTIONARY
  5
D
102
{ACAD_REACTORS
330
C
102
}
330
C
100
AcDbDictionary
281
     1
  0
DICTIONARY
  5
2DC
102
{ACAD_REACTORS
330
C
102
}
330
C
100
AcDbDictionary
281
     1
  3
EXAMINE
350
4697
  3
Model
350
2DE
  0
DICTIONARY
  5
36E4
102
{ACAD_REACTORS
330
C
102
}
330
C
100
AcDbDictionary
281
     1
  3
ByBlock
350
BF6F
  3
ByLayer
350
BF67
  3
Global
350
BF77
  0
DICTIONARY
  5
BFB2
102
{ACAD_REACTORS
330
C
102
}
330
C
100
AcDbDictionary
281
     1
  3
Standard
350
BFB3
  0
DICTIONARY
  5
E
102
{ACAD_REACTORS
330
C
102
}
330
C
100
AcDbDictionary
281
     1
  3
STANDARD
350
13
  0
DICTIONARY
  5
2DD
102
{ACAD_REACTORS
330
C
102
}
330
C
100
AcDbDictionary
281
     1
  3
A1form
350
3137
  3
A2form
350
314A
  3
A3form
350
3154
  3
A4form
350
3155
  0
ACDBDICTIONARYWDFLT
  5
2DA
102
{ACAD_REACTORS
330
C
102
}
330
C
100
AcDbDictionary
281
     1
  3
Normal
350
2DB
100
AcDbDictionaryWithDefault
340
2DB
  0
DICTIONARY
  5
BF90
102
{ACAD_REACTORS
330
C
102
}
330
C
100
AcDbDictionary
281
     1
  3
A0
350
BF91
  3
A1
350
BF92
  3
A2
350
BF93
  3
A3
350
BF94
  3
A4
350
BF95
  3
A5
350
BF96
  3
A6
350
BF97
  3
A7
350
BF98
  3
A8
350
BF99
  3
A9
350
BF9A
  3
B0
350
BF9B
  3
B1
350
BF9C
  3
B2
350
BF9D
  3
B3
350
BF9E
  3
B4
350
BF9F
  3
B5
350
BFA0
  3
B6
350
BFA1
  3
B7
350
BFA2
  3
B8
350
BFA3
  3
B9
350
BFA4
  3
C0
350
BFA5
  3
C1
350
BFA6
  3
C2
350
BFA7
  3
C3
350
BFA8
  3
C4
350
BFA9
  3
C5
350
BFAA
  3
C6
350
BFAB
  3
C7
350
BFAC
  3
C8
350
BFAD
  3
C9
350
BFAE
  3
D0
350
BFAF
  3
D1
350
BFB0
  3
D2
350
BFB1
  0
DICTIONARY
  5
58ED
102
{ACAD_REACTORS
330
C
102
}
330
C
100
AcDbDictionary
281
     1
  3
Standard
350
58EE
  0
DICTIONARY
  5
BF7F
102
{ACAD_REACTORS
330
C
102
}
330
C
100
AcDbDictionary
281
     1
  3
2dWireframe
350
BF85
  3
3D Hidden
350
BF87
  3
3dWireframe
350
BF86
  3
Basic
350
BF84
  3
Brighten
350
BF8B
  3
ColorChange
350
BF8F
  3
Conceptual
350
BF88
  3
Dim
350
BF8A
  3
Facepattern
350
BF8E
  3
Flat
350
BF80
  3
FlatWithEdges
350
BF81
  3
Gouraud
350
BF82
  3
GouraudWithEdges
350
BF83
  3
Linepattern
350
BF8D
  3
Realistic
350
BF89
  3
Thicken
350
BF8C
  0
XRECORD
  5
6ACE
102
{ACAD_REACTORS
330
C
102
}
330
C
100
AcDbXrecord
280
     1
 90
   990106
  3

 60
     0
 61
     0
 62
     4
 63
     4
 64
     1
 65
     0
 66
     0
 67
     3
 68
     1
 69
     0
 70
     0
 71
     0
 72
     0
 40
0.0
170
     2
  0
XRECORD
  5
C8F1
102
{ACAD_REACTORS
330
C
102
}
330
C
100
AcDbXrecord
280
     1
 90
        1
330
58EE
  0
DICTIONARY
  5
23A5
102
{ACAD_REACTORS
330
C
102
}
330
C
100
AcDbDictionary
281
     1
  3
CANNOSCALE
350
C92B
  3
CMLEADERSTYLE
350
C92A
  3
CTABLESTYLE
350
5935
  3
DIMASSOC
350
23A6
  3
INDEXCTL
350
C92D
  3
PROJECTNAME
350
370E
  3
SORTENTS
350
C92C
  0
DICTIONARY
  5
234
102
{ACAD_REACTORS
330
C
102
}
330
C
100
AcDbDictionary
281
     1
  0
XRECORD
  5
CC76
102
{ACAD_REACTORS
330
C
102
}
330
C
100
AcDbXrecord
280
     1
  1
DWGPROPS COOKIE
  2

  3

  4

  6

  7

  8
KOIKE-1345
  9

300
=
301
=
302
=
303
=
304
=
305
=
306
=
307
=
308
=
309
=
 40
0.0127124189814815
 41
2454335.402547176
 42
2459613.607142477
  1

 90
        0
  0
DICTIONARY
  5
4C3D
102
{ACAD_REACTORS
330
4C3C
102
}
330
4C3C
100
AcDbDictionary
281
     1
  0
XRECORD
  5
C8E4
102
{ACAD_REACTORS
330
C8E3
102
}
330
C8E3
100
AcDbXrecord
280
     1
290
     1
  0
XRECORD
  5
C8EC
102
{ACAD_REACTORS
330
C8EB
102
}
330
C8EB
100
AcDbXrecord
280
     1
290
     1
  0
SORTENTSTABLE
  5
612A
102
{ACAD_REACTORS
330
6129
102
}
330
6129
100
AcDbSortentsTable
330
1A
331
2E32
  5
2E32
  0
XRECORD
  5
CC93
102
{ACAD_REACTORS
330
CC92
102
}
330
CC92
100
AcDbXrecord
280
     1
102
SHADEPLOT
 70
     0
  0
XRECORD
  5
CC95
102
{ACAD_REACTORS
330
CC94
102
}
330
CC94
100
AcDbXrecord
280
     1
102
SHADEPLOT
 70
     0
  0
LAYOUT
  5
4697
102
{ACAD_XDICTIONARY
360
5B14
102
}
102
{ACAD_REACTORS
330
2DC
102
}
330
2DC
100
AcDbPlotSettings
  1

  2
hp designjet 110 (C7796B)
  4
User271
  6

 40
4.995333194732666
 41
11.93795585632324
 42
4.99530029296875
 43
4.995361328125
 44
593.9366455078125
 45
840.9093017578125
 46
0.0
 47
0.0
 48
0.0
 49
0.0
140
0.0
141
0.0
142
1.0
143
1.0
 70
   688
 72
     1
 73
     1
 74
     5
  7
monochrome.ctb
 75
    16
147
1.0
148
0.0
149
0.0
100
AcDbLayout
  1
EXAMINE
 70
     1
 71
     1
 10
-4.995361328125
 20
-4.995333194732666
 11
835.9139404296875
 21
588.9413123130797
 12
0.0
 22
0.0
 32
0.0
 14
-5.025663325127425
 24
-5.018126058413372
 34
-0.0015258207003583
 15
836.0256672413388
 25
589.0181288244414
 35
0.0000000349246037
146
0.0
 13
0.0
 23
0.0
 33
0.0
 16
1.0
 26
0.0
 36
0.0
 17
0.0
 27
1.0
 37
0.0
 76
     0
330
4698
331
4699
1001
ACAD_PSEXT
1000
hp designjet 110 (C7796B)
1000
HP designjet 110
1000
hpdesignjet110(C7796B)
1000

1070
     0
  0
LAYOUT
  5
2DE
102
{ACAD_XDICTIONARY
360
CC7B
102
}
102
{ACAD_REACTORS
330
2DC
102
}
330
2DC
100
AcDbPlotSettings
  1

  2
none_device
  4
Letter_(8.50_x_11.00_Inches)
  6

 40
6.349999904632567
 41
6.349999904632567
 42
6.350006103515625
 43
6.350006103515625
 44
215.8999938964844
 45
279.3999938964844
 46
0.0
 47
0.0
 48
0.0
 49
0.0
140
0.0
141
0.0
142
1.0
143
1.0
 70
 11952
 72
     1
 73
     1
 74
     0
  7

 75
     0
147
1.0
148
-66.93634511908488
149
-7.607062587051813
100
AcDbLayout
  1
Model
 70
     1
 71
     0
 10
0.0
 20
0.0
 11
12.0
 21
9.0
 12
0.0
 22
0.0
 32
0.0
 14
0.0
 24
0.0
 34
0.0
 15
0.0
 25
0.0
 35
0.0
146
0.0
 13
0.0
 23
0.0
 33
0.0
 16
1.0
 26
0.0
 36
0.0
 17
0.0
 27
1.0
 37
0.0
 76
     0
330
1A
331
BF65
  0
MATERIAL
  5
BF6F
102
{ACAD_XDICTIONARY
360
BF70
102
}
102
{ACAD_REACTORS
330
36E4
102
}
330
36E4
100
AcDbMaterial
  1
ByBlock
 72
     0
 43
0.0208333333333333
 43
0.0
 43
0.0
 43
0.0
 43
0.0
 43
0.0208333333333333
 43
0.0
 43
0.0
 43
0.0
 43
0.0
 43
1.0
 43
0.0
 43
0.0
 43
0.0
 43
0.0
 43
1.0
 77
     0
 47
0.0208333333333333
 47
0.0
 47
0.0
 47
0.0
 47
0.0
 47
0.0208333333333333
 47
0.0
 47
0.0
 47
0.0
 47
0.0
 47
1.0
 47
0.0
 47
0.0
 47
0.0
 47
0.0
 47
1.0
171
     0
 49
0.0208333333333333
 49
0.0
 49
0.0
 49
0.0
 49
0.0
 49
0.0208333333333333
 49
0.0
 49
0.0
 49
0.0
 49
0.0
 49
1.0
 49
0.0
 49
0.0
 49
0.0
 49
0.0
 49
1.0
175
     0
142
0.0208333333333333
142
0.0
142
0.0
142
0.0
142
0.0
142
0.0208333333333333
142
0.0
142
0.0
142
0.0
142
0.0
142
1.0
142
0.0
142
0.0
142
0.0
142
0.0
142
1.0
179
     0
144
0.0208333333333333
144
0.0
144
0.0
144
0.0
144
0.0
144
0.0208333333333333
144
0.0
144
0.0
144
0.0
144
0.0
144
1.0
144
0.0
144
0.0
144
0.0
144
0.0
144
1.0
147
0.0208333333333333
147
0.0
147
0.0
147
0.0
147
0.0
147
0.0208333333333333
147
0.0
147
0.0
147
0.0
147
0.0
147
1.0
147
0.0
147
0.0
147
0.0
147
0.0
147
1.0
  0
MATERIAL
  5
BF67
102
{ACAD_XDICTIONARY
360
BF68
102
}
102
{ACAD_REACTORS
330
36E4
102
}
330
36E4
100
AcDbMaterial
  1
ByLayer
 72
     0
 43
0.0208333333333333
 43
0.0
 43
0.0
 43
0.0
 43
0.0
 43
0.0208333333333333
 43
0.0
 43
0.0
 43
0.0
 43
0.0
 43
1.0
 43
0.0
 43
0.0
 43
0.0
 43
0.0
 43
1.0
 77
     0
 47
0.0208333333333333
 47
0.0
 47
0.0
 47
0.0
 47
0.0
 47
0.0208333333333333
 47
0.0
 47
0.0
 47
0.0
 47
0.0
 47
1.0
 47
0.0
 47
0.0
 47
0.0
 47
0.0
 47
1.0
171
     0
 49
0.0208333333333333
 49
0.0
 49
0.0
 49
0.0
 49
0.0
 49
0.0208333333333333
 49
0.0
 49
0.0
 49
0.0
 49
0.0
 49
1.0
 49
0.0
 49
0.0
 49
0.0
 49
0.0
 49
1.0
175
     0
142
0.0208333333333333
142
0.0
142
0.0
142
0.0
142
0.0
142
0.0208333333333333
142
0.0
142
0.0
142
0.0
142
0.0
142
1.0
142
0.0
142
0.0
142
0.0
142
0.0
142
1.0
179
     0
144
0.0208333333333333
144
0.0
144
0.0
144
0.0
144
0.0
144
0.0208333333333333
144
0.0
144
0.0
144
0.0
144
0.0
144
1.0
144
0.0
144
0.0
144
0.0
144
0.0
144
1.0
147
0.0208333333333333
147
0.0
147
0.0
147
0.0
147
0.0
147
0.0208333333333333
147
0.0
147
0.0
147
0.0
147
0.0
147
1.0
147
0.0
147
0.0
147
0.0
147
0.0
147
1.0
  0
MATERIAL
  5
BF77
102
{ACAD_XDICTIONARY
360
BF78
102
}
102
{ACAD_REACTORS
330
36E4
102
}
330
36E4
100
AcDbMaterial
  1
Global
 72
     0
 43
0.0208333333333333
 43
0.0
 43
0.0
 43
0.0
 43
0.0
 43
0.0208333333333333
 43
0.0
 43
0.0
 43
0.0
 43
0.0
 43
1.0
 43
0.0
 43
0.0
 43
0.0
 43
0.0
 43
1.0
 77
     0
 47
0.0208333333333333
 47
0.0
 47
0.0
 47
0.0
 47
0.0
 47
0.0208333333333333
 47
0.0
 47
0.0
 47
0.0
 47
0.0
 47
1.0
 47
0.0
 47
0.0
 47
0.0
 47
0.0
 47
1.0
171
     0
 49
0.0208333333333333
 49
0.0
 49
0.0
 49
0.0
 49
0.0
 49
0.0208333333333333
 49
0.0
 49
0.0
 49
0.0
 49
0.0
 49
1.0
 49
0.0
 49
0.0
 49
0.0
 49
0.0
 49
1.0
175
     0
142
0.0208333333333333
142
0.0
142
0.0
142
0.0
142
0.0
142
0.0208333333333333
142
0.0
142
0.0
142
0.0
142
0.0
142
1.0
142
0.0
142
0.0
142
0.0
142
0.0
142
1.0
179
     0
144
0.0208333333333333
144
0.0
144
0.0
144
0.0
144
0.0
144
0.0208333333333333
144
0.0
144
0.0
144
0.0
144
0.0
144
1.0
144
0.0
144
0.0
144
0.0
144
0.0
144
1.0
147
0.0208333333333333
147
0.0
147
0.0
147
0.0
147
0.0
147
0.0208333333333333
147
0.0
147
0.0
147
0.0
147
0.0
147
1.0
147
0.0
147
0.0
147
0.0
147
0.0
147
1.0
  0
MLEADERSTYLE
  5
BFB3
102
{ACAD_REACTORS
330
BFB2
102
}
330
BFB2
100
AcDbMLeaderStyle
170
     2
171
     1
172
     0
 90
        2
 40
0.0
 41
0.0
173
     1
 91
-1056964608
340
14
 92
       -2
290
     1
 42
2.0
291
     1
 43
0.36
  3
Standard
 44
4.0
300

342
10
174
     1
178
     6
175
     1
176
     0
 93
-1056964608
 45
4.0
292
     0
297
     0
 46
4.0
 94
-1056964608
 47
1.0
 49
1.0
140
1.0
293
     1
141
0.0
294
     1
177
     0
142
1.0
295
     0
296
     0
143
0.125
1001
ACAD_MLEADERVER
1070
     2
  0
MLINESTYLE
  5
13
102
{ACAD_REACTORS
330
E
102
}
330
E
100
AcDbMlineStyle
  2
STANDARD
 70
     0
  3

 62
     0
 51
90.0
 52
90.0
 71
     2
 49
0.5
 62
   256
  6
BYLAYER
 49
-0.5
 62
   256
  6
BYLAYER
  0
PLOTSETTINGS
  5
3137
102
{ACAD_XDICTIONARY
360
CC7D
102
}
102
{ACAD_REACTORS
330
2DD
102
}
330
2DD
100
AcDbPlotSettings
  1
A1form
  2
hp designjet 110 (C7796B)
  4
User271
  6

 40
4.995333194732666
 41
11.93795490264892
 42
4.99530029296875
 43
4.995361328125
 44
593.9366455078125
 45
840.9093017578125
 46
0.0
 47
0.0
 48
0.0
 49
0.0
140
0.0
141
0.0
142
1.0
143
1.0
 70
  2736
 72
     1
 73
     1
 74
     5
  7
monochrome.ctb
 75
    16
147
1.0
148
0.0
149
0.0
1001
ACAD_PSEXT
1000
hp designjet 110 (C7796B)
1000
HP designjet 110
1000
hpdesignjet110(C7796B)
1000

1070
     0
  0
PLOTSETTINGS
  5
314A
102
{ACAD_XDICTIONARY
360
CC7F
102
}
102
{ACAD_REACTORS
330
2DD
102
}
330
2DD
100
AcDbPlotSettings
  1
A2form
  2
hp designjet 110 (C7796B)
  4
User270
  6

 40
4.995333194732666
 41
11.93801593780517
 42
4.995330810546875
 43
4.995361328125
 44
419.9466552734373
 45
593.8519897460937
 46
0.0
 47
0.0
 48
0.0
 49
0.0
140
0.0
141
0.0
142
1.0
143
1.0
 70
  2736
 72
     1
 73
     1
 74
     5
  7
monochrome.ctb
 75
    16
147
1.0
148
0.0
149
0.0
1001
ACAD_PSEXT
1000
hp designjet 110 (C7796B)
1000
HP designjet 110
1000
hpdesignjet110(C7796B)
1000

1070
     0
  0
PLOTSETTINGS
  5
3154
102
{ACAD_XDICTIONARY
360
CC81
102
}
102
{ACAD_REACTORS
330
2DD
102
}
330
2DD
100
AcDbPlotSettings
  1
A3form
  2
RICOH IPSiO CX9800 RPCS
  4
A3
  6

 40
5.873749732971191
 41
5.873747825622557
 42
5.873748779296875
 43
5.873748779296875
 44
296.9259948730469
 45
419.9466552734373
 46
0.0
 47
0.0
 48
0.0
 49
0.0
140
0.0
141
0.0
142
1.0
143
1.0
 70
  2736
 72
     1
 73
     1
 74
     5
  7
monochrome.ctb
 75
    16
147
1.0
148
0.0
149
0.0
1001
ACAD_PSEXT
1000
RICOH IPSiO CX9800 RPCS
1000
RICOH IPSiO CX9800 RPCS
1000
172.16.140.56@
1000
RPCS Driver (Windows 2000/XP/Server 2003)
1070
     0
  0
PLOTSETTINGS
  5
3155
102
{ACAD_XDICTIONARY
360
CC83
102
}
102
{ACAD_REACTORS
330
2DD
102
}
330
2DD
100
AcDbPlotSettings
  1
A4form
  2
RICOH IPSiO CX9800 RPCS
  4
A4
  6

 40
5.873749732971191
 41
5.873747825622557
 42
5.873748779296875
 43
5.873748779296875
 44
209.9733276367186
 45
296.9259948730469
 46
0.0
 47
0.0
 48
0.0
 49
0.0
140
0.0
141
0.0
142
1.0
143
1.0
 70
  2736
 72
     1
 73
     0
 74
     5
  7
monochrome.ctb
 75
    16
147
1.0
148
0.0
149
0.0
1001
ACAD_PSEXT
1000
RICOH IPSiO CX9800 RPCS
1000
RICOH IPSiO CX9800 RPCS
1000
172.16.140.56@
1000
RPCS Driver (Windows 2000/XP/Server 2003)
1070
     0
  0
ACDBPLACEHOLDER
  5
2DB
102
{ACAD_REACTORS
330
2DA
102
}
330
2DA
  0
SCALE
  5
BF91
102
{ACAD_REACTORS
330
BF90
102
}
330
BF90
100
AcDbScale
 70
     0
300
1:1
140
1.0
141
1.0
290
     1
  0
SCALE
  5
BF92
102
{ACAD_REACTORS
330
BF90
102
}
330
BF90
100
AcDbScale
 70
     0
300
1:2
140
1.0
141
2.0
290
     0
  0
SCALE
  5
BF93
102
{ACAD_REACTORS
330
BF90
102
}
330
BF90
100
AcDbScale
 70
     0
300
1:4
140
1.0
141
4.0
290
     0
  0
SCALE
  5
BF94
102
{ACAD_REACTORS
330
BF90
102
}
330
BF90
100
AcDbScale
 70
     0
300
1:5
140
1.0
141
5.0
290
     0
  0
SCALE
  5
BF95
102
{ACAD_REACTORS
330
BF90
102
}
330
BF90
100
AcDbScale
 70
     0
300
1:8
140
1.0
141
8.0
290
     0
  0
SCALE
  5
BF96
102
{ACAD_REACTORS
330
BF90
102
}
330
BF90
100
AcDbScale
 70
     0
300
1:10
140
1.0
141
10.0
290
     0
  0
SCALE
  5
BF97
102
{ACAD_REACTORS
330
BF90
102
}
330
BF90
100
AcDbScale
 70
     0
300
1:16
140
1.0
141
16.0
290
     0
  0
SCALE
  5
BF98
102
{ACAD_REACTORS
330
BF90
102
}
330
BF90
100
AcDbScale
 70
     0
300
1:20
140
1.0
141
20.0
290
     0
  0
SCALE
  5
BF99
102
{ACAD_REACTORS
330
BF90
102
}
330
BF90
100
AcDbScale
 70
     0
300
1:30
140
1.0
141
30.0
290
     0
  0
SCALE
  5
BF9A
102
{ACAD_REACTORS
330
BF90
102
}
330
BF90
100
AcDbScale
 70
     0
300
1:40
140
1.0
141
40.0
290
     0
  0
SCALE
  5
BF9B
102
{ACAD_REACTORS
330
BF90
102
}
330
BF90
100
AcDbScale
 70
     0
300
1:50
140
1.0
141
50.0
290
     0
  0
SCALE
  5
BF9C
102
{ACAD_REACTORS
330
BF90
102
}
330
BF90
100
AcDbScale
 70
     0
300
1:100
140
1.0
141
100.0
290
     0
  0
SCALE
  5
BF9D
102
{ACAD_REACTORS
330
BF90
102
}
330
BF90
100
AcDbScale
 70
     0
300
2:1
140
2.0
141
1.0
290
     0
  0
SCALE
  5
BF9E
102
{ACAD_REACTORS
330
BF90
102
}
330
BF90
100
AcDbScale
 70
     0
300
4:1
140
4.0
141
1.0
290
     0
  0
SCALE
  5
BF9F
102
{ACAD_REACTORS
330
BF90
102
}
330
BF90
100
AcDbScale
 70
     0
300
8:1
140
8.0
141
1.0
290
     0
  0
SCALE
  5
BFA0
102
{ACAD_REACTORS
330
BF90
102
}
330
BF90
100
AcDbScale
 70
     0
300
10:1
140
10.0
141
1.0
290
     0
  0
SCALE
  5
BFA1
102
{ACAD_REACTORS
330
BF90
102
}
330
BF90
100
AcDbScale
 70
     0
300
100:1
140
100.0
141
1.0
290
     0
  0
SCALE
  5
BFA2
102
{ACAD_REACTORS
330
BF90
102
}
330
BF90
100
AcDbScale
 70
     0
300
1/128" = 1'-0"
140
0.0078125
141
12.0
290
     0
  0
SCALE
  5
BFA3
102
{ACAD_REACTORS
330
BF90
102
}
330
BF90
100
AcDbScale
 70
     0
300
1/64" = 1'-0"
140
0.015625
141
12.0
290
     0
  0
SCALE
  5
BFA4
102
{ACAD_REACTORS
330
BF90
102
}
330
BF90
100
AcDbScale
 70
     0
300
1/32" = 1'-0"
140
0.03125
141
12.0
290
     0
  0
SCALE
  5
BFA5
102
{ACAD_REACTORS
330
BF90
102
}
330
BF90
100
AcDbScale
 70
     0
300
1/16" = 1'-0"
140
0.0625
141
12.0
290
     0
  0
SCALE
  5
BFA6
102
{ACAD_REACTORS
330
BF90
102
}
330
BF90
100
AcDbScale
 70
     0
300
3/32" = 1'-0"
140
0.09375
141
12.0
290
     0
  0
SCALE
  5
BFA7
102
{ACAD_REACTORS
330
BF90
102
}
330
BF90
100
AcDbScale
 70
     0
300
1/8" = 1'-0"
140
0.125
141
12.0
290
     0
  0
SCALE
  5
BFA8
102
{ACAD_REACTORS
330
BF90
102
}
330
BF90
100
AcDbScale
 70
     0
300
3/16" = 1'-0"
140
0.1875
141
12.0
290
     0
  0
SCALE
  5
BFA9
102
{ACAD_REACTORS
330
BF90
102
}
330
BF90
100
AcDbScale
 70
     0
300
1/4" = 1'-0"
140
0.25
141
12.0
290
     0
  0
SCALE
  5
BFAA
102
{ACAD_REACTORS
330
BF90
102
}
330
BF90
100
AcDbScale
 70
     0
300
3/8" = 1'-0"
140
0.375
141
12.0
290
     0
  0
SCALE
  5
BFAB
102
{ACAD_REACTORS
330
BF90
102
}
330
BF90
100
AcDbScale
 70
     0
300
1/2" = 1'-0"
140
0.5
141
12.0
290
     0
  0
SCALE
  5
BFAC
102
{ACAD_REACTORS
330
BF90
102
}
330
BF90
100
AcDbScale
 70
     0
300
3/4" = 1'-0"
140
0.75
141
12.0
290
     0
  0
SCALE
  5
BFAD
102
{ACAD_REACTORS
330
BF90
102
}
330
BF90
100
AcDbScale
 70
     0
300
1" = 1'-0"
140
1.0
141
12.0
290
     0
  0
SCALE
  5
BFAE
102
{ACAD_REACTORS
330
BF90
102
}
330
BF90
100
AcDbScale
 70
     0
300
1-1/2" = 1'-0"
140
1.5
141
12.0
290
     0
  0
SCALE
  5
BFAF
102
{ACAD_REACTORS
330
BF90
102
}
330
BF90
100
AcDbScale
 70
     0
300
3" = 1'-0"
140
3.0
141
12.0
290
     0
  0
SCALE
  5
BFB0
102
{ACAD_REACTORS
330
BF90
102
}
330
BF90
100
AcDbScale
 70
     0
300
6" = 1'-0"
140
6.0
141
12.0
290
     0
  0
SCALE
  5
BFB1
102
{ACAD_REACTORS
330
BF90
102
}
330
BF90
100
AcDbScale
 70
     0
300
1'-0" = 1'-0"
140
12.0
141
12.0
290
     0
  0
TABLESTYLE
  5
58EE
102
{ACAD_XDICTIONARY
360
C8EF
102
}
102
{ACAD_REACTORS
330
58ED
102
}
330
58ED
100
AcDbTableStyle
  3
Standard
 70
     0
 71
     0
 40
1.5
 41
1.5
280
     0
281
     0
  7
STANDARD
140
4.5
170
     2
 62
     0
 63
     7
283
     0
274
    -2
284
     1
 64
     0
275
    -2
285
     1
 65
     0
276
    -2
286
     1
 66
     0
277
    -2
287
     1
 67
     0
278
    -2
288
     1
 68
     0
279
    -2
289
     1
 69
     0
  7
STANDARD
140
6.0
170
     5
 62
     0
 63
     7
283
     0
274
    -2
284
     1
 64
     0
275
    -2
285
     1
 65
     0
276
    -2
286
     1
 66
     0
277
    -2
287
     1
 67
     0
278
    -2
288
     1
 68
     0
279
    -2
289
     1
 69
     0
  7
STANDARD
140
4.5
170
     5
 62
     0
 63
     7
283
     0
274
    -2
284
     1
 64
     0
275
    -2
285
     1
 65
     0
276
    -2
286
     1
 66
     0
277
    -2
287
     1
 67
     0
278
    -2
288
     1
 68
     0
279
    -2
289
     1
 69
     0
  0
VISUALSTYLE
  5
BF85
102
{ACAD_REACTORS
330
BF7F
102
}
330
BF7F
100
AcDbVisualStyle
  2
2dWireframe
 70
     4
 71
     0
 72
     2
 73
     0
 90
        0
 40
-0.6
 41
-30.0
 62
     5
 63
     7
 74
     1
 91
        4
 64
     7
 65
   257
 75
     1
175
     1
 42
1.0
 92
        0
 66
   257
 43
1.0
 76
     1
 77
     6
 78
     2
 67
     7
 79
     5
170
     0
171
     0
290
     0
174
     0
 93
        1
 44
0.0
173
     0
291
     0
 45
0.0
1001
ACAD
1000
AcDbSavedByObjectVersion
1070
     0
1000
AcDbSavedByObjectVersion
1070
     0
  0
VISUALSTYLE
  5
BF87
102
{ACAD_REACTORS
330
BF7F
102
}
330
BF7F
100
AcDbVisualStyle
  2
3D Hidden
 70
     6
 71
     1
 72
     2
 73
     2
 90
        0
 40
-0.6
 41
-30.0
 62
     5
 63
     7
 74
     2
 91
        2
 64
     7
 65
   257
 75
     2
175
     1
 42
40.0
 92
        0
 66
   257
 43
1.0
 76
     1
 77
     6
 78
     2
 67
     7
 79
     3
170
     0
171
     0
290
     0
174
     0
 93
        1
 44
0.0
173
     0
291
     0
 45
0.0
1001
ACAD
1000
AcDbSavedByObjectVersion
1070
     0
1000
AcDbSavedByObjectVersion
1070
     0
  0
VISUALSTYLE
  5
BF86
102
{ACAD_REACTORS
330
BF7F
102
}
330
BF7F
100
AcDbVisualStyle
  2
3dWireframe
 70
     5
 71
     0
 72
     2
 73
     0
 90
        0
 40
-0.6
 41
-30.0
 62
     5
 63
     7
 74
     1
 91
        4
 64
     7
 65
   257
 75
     1
175
     1
 42
1.0
 92
        0
 66
   257
 43
1.0
 76
     1
 77
     6
 78
     2
 67
     7
 79
     5
170
     0
171
     0
290
     0
174
     0
 93
        1
 44
0.0
173
     0
291
     0
 45
0.0
1001
ACAD
1000
AcDbSavedByObjectVersion
1070
     0
1000
AcDbSavedByObjectVersion
1070
     0
  0
VISUALSTYLE
  5
BF84
102
{ACAD_REACTORS
330
BF7F
102
}
330
BF7F
100
AcDbVisualStyle
  2
Basic
 70
     7
 71
     1
 72
     0
 73
     1
 90
        0
 40
-0.6
 41
-30.0
 62
     5
 63
     7
 74
     0
 91
        4
 64
     7
 65
   257
 75
     1
175
     1
 42
1.0
 92
        8
 66
     7
 43
1.0
 76
     1
 77
     6
 78
     2
 67
     7
 79
     5
170
     0
171
     0
290
     0
174
     0
 93
        1
 44
0.0
173
     0
291
     1
 45
0.0
1001
ACAD
1000
AcDbSavedByObjectVersion
1070
     0
1000
AcDbSavedByObjectVersion
1070
     0
  0
VISUALSTYLE
  5
BF8B
102
{ACAD_REACTORS
330
BF7F
102
}
330
BF7F
100
AcDbVisualStyle
  2
Brighten
 70
    12
 71
     2
 72
     2
 73
     0
 90
        0
 40
-0.6
 41
-30.0
 62
     5
 63
     7
 74
     1
 91
        4
 64
     7
 65
   257
 75
     1
175
     1
 42
1.0
 92
        8
 66
     7
 43
1.0
 76
     1
 77
     6
 78
     2
 67
     7
 79
     5
170
     0
171
     0
290
     0
174
     0
 93
        1
 44
50.0
173
     0
291
     1
 45
0.0
1001
ACAD
1000
AcDbSavedByObjectVersion
1070
     0
1000
AcDbSavedByObjectVersion
1070
     0
  0
VISUALSTYLE
  5
BF8F
102
{ACAD_REACTORS
330
BF7F
102
}
330
BF7F
100
AcDbVisualStyle
  2
ColorChange
 70
    16
 71
     2
 72
     2
 73
     3
 90
        0
 40
-0.6
 41
-30.0
 62
     5
 63
     8
 74
     1
 91
        4
 64
     7
 65
   257
 75
     1
175
     1
 42
1.0
 92
        8
 66
     8
 43
1.0
 76
     1
 77
     6
 78
     2
 67
     7
 79
     5
170
     0
171
     0
290
     0
174
     0
 93
        1
 44
0.0
173
     0
291
     1
 45
0.0
1001
ACAD
1000
AcDbSavedByObjectVersion
1070
     0
1000
AcDbSavedByObjectVersion
1070
     0
  0
VISUALSTYLE
  5
BF88
102
{ACAD_REACTORS
330
BF7F
102
}
330
BF7F
100
AcDbVisualStyle
  2
Conceptual
 70
     9
 71
     3
 72
     2
 73
     0
 90
        0
 40
-0.6
 41
-30.0
 62
     5
 63
     7
 74
     2
 91
        2
 64
     7
 65
   257
 75
     1
175
     1
 42
40.0
 92
        8
 66
     7
 43
1.0
 76
     1
 77
     6
 78
     2
 67
     7
 79
     3
170
     0
171
     0
290
     0
174
     0
 93
        1
 44
0.0
173
     0
291
     0
 45
0.0
1001
ACAD
1000
AcDbSavedByObjectVersion
1070
     0
1000
AcDbSavedByObjectVersion
1070
     0
  0
VISUALSTYLE
  5
BF8A
102
{ACAD_REACTORS
330
BF7F
102
}
330
BF7F
100
AcDbVisualStyle
  2
Dim
 70
    11
 71
     2
 72
     2
 73
     0
 90
        0
 40
-0.6
 41
-30.0
 62
     5
 63
     7
 74
     1
 91
        4
 64
     7
 65
   257
 75
     1
175
     1
 42
1.0
 92
        8
 66
     7
 43
1.0
 76
     1
 77
     6
 78
     2
 67
     7
 79
     5
170
     0
171
     0
290
     0
174
     0
 93
        1
 44
-50.0
173
     0
291
     1
 45
0.0
1001
ACAD
1000
AcDbSavedByObjectVersion
1070
     0
1000
AcDbSavedByObjectVersion
1070
     0
  0
VISUALSTYLE
  5
BF8E
102
{ACAD_REACTORS
330
BF7F
102
}
330
BF7F
100
AcDbVisualStyle
  2
Facepattern
 70
    15
 71
     2
 72
     2
 73
     0
 90
        0
 40
-0.6
 41
-30.0
 62
     5
 63
     7
 74
     1
 91
        4
 64
     7
 65
   257
 75
     1
175
     1
 42
1.0
 92
        8
 66
     7
 43
1.0
 76
     1
 77
     6
 78
     2
 67
     7
 79
     5
170
     0
171
     0
290
     0
174
     0
 93
        1
 44
0.0
173
     0
291
     1
 45
0.0
1001
ACAD
1000
AcDbSavedByObjectVersion
1070
     0
1000
AcDbSavedByObjectVersion
1070
     0
  0
VISUALSTYLE
  5
BF80
102
{ACAD_REACTORS
330
BF7F
102
}
330
BF7F
100
AcDbVisualStyle
  2
Flat
 70
     0
 71
     2
 72
     1
 73
     1
 90
        2
 40
-0.6
 41
30.0
 62
     5
 63
     7
 74
     0
 91
        4
 64
     7
 65
   257
 75
     1
175
     1
 42
1.0
 92
        8
 66
     7
 43
1.0
 76
     1
 77
     6
 78
     2
 67
     7
 79
     5
170
     0
171
     0
290
     0
174
     0
 93
       13
 44
0.0
173
     0
291
     1
 45
0.0
1001
ACAD
1000
AcDbSavedByObjectVersion
1070
     0
1000
AcDbSavedByObjectVersion
1070
     0
  0
VISUALSTYLE
  5
BF81
102
{ACAD_REACTORS
330
BF7F
102
}
330
BF7F
100
AcDbVisualStyle
  2
FlatWithEdges
 70
     1
 71
     2
 72
     1
 73
     1
 90
        2
 40
-0.6
 41
30.0
 62
     5
 63
     7
 74
     1
 91
        4
 64
     7
 65
   257
 75
     1
175
     1
 42
1.0
 92
        0
 66
   257
 43
1.0
 76
     1
 77
     6
 78
     2
 67
     7
 79
     5
170
     0
171
     0
290
     0
174
     0
 93
       13
 44
0.0
173
     0
291
     1
 45
0.0
1001
ACAD
1000
AcDbSavedByObjectVersion
1070
     0
1000
AcDbSavedByObjectVersion
1070
     0
  0
VISUALSTYLE
  5
BF82
102
{ACAD_REACTORS
330
BF7F
102
}
330
BF7F
100
AcDbVisualStyle
  2
Gouraud
 70
     2
 71
     2
 72
     2
 73
     1
 90
        2
 40
-0.6
 41
30.0
 62
     5
 63
     7
 74
     0
 91
        4
 64
     7
 65
   257
 75
     1
175
     1
 42
1.0
 92
        0
 66
     7
 43
1.0
 76
     1
 77
     6
 78
     2
 67
     7
 79
     5
170
     0
171
     0
290
     0
174
     0
 93
       13
 44
0.0
173
     0
291
     1
 45
0.0
1001
ACAD
1000
AcDbSavedByObjectVersion
1070
     0
1000
AcDbSavedByObjectVersion
1070
     0
  0
VISUALSTYLE
  5
BF83
102
{ACAD_REACTORS
330
BF7F
102
}
330
BF7F
100
AcDbVisualStyle
  2
GouraudWithEdges
 70
     3
 71
     2
 72
     2
 73
     1
 90
        2
 40
-0.6
 41
30.0
 62
     5
 63
     7
 74
     1
 91
        4
 64
     7
 65
   257
 75
     1
175
     1
 42
1.0
 92
        0
 66
   257
 43
1.0
 76
     1
 77
     6
 78
     2
 67
     7
 79
     5
170
     0
171
     0
290
     0
174
     0
 93
       13
 44
0.0
173
     0
291
     1
 45
0.0
1001
ACAD
1000
AcDbSavedByObjectVersion
1070
     0
1000
AcDbSavedByObjectVersion
1070
     0
  0
VISUALSTYLE
  5
BF8D
102
{ACAD_REACTORS
330
BF7F
102
}
330
BF7F
100
AcDbVisualStyle
  2
Linepattern
 70
    14
 71
     2
 72
     2
 73
     0
 90
        0
 40
-0.6
 41
-30.0
 62
     5
 63
     7
 74
     1
 91
        4
 64
     7
 65
   257
 75
     7
175
     7
 42
1.0
 92
        8
 66
     7
 43
1.0
 76
     1
 77
     6
 78
     2
 67
     7
 79
     5
170
     0
171
     0
290
     0
174
     0
 93
        1
 44
0.0
173
     0
291
     1
 45
0.0
1001
ACAD
1000
AcDbSavedByObjectVersion
1070
     0
1000
AcDbSavedByObjectVersion
1070
     0
  0
VISUALSTYLE
  5
BF89
102
{ACAD_REACTORS
330
BF7F
102
}
330
BF7F
100
AcDbVisualStyle
  2
Realistic
 70
     8
 71
     2
 72
     2
 73
     0
 90
        0
 40
-0.6
 41
-30.0
 62
     5
 63
     7
 74
     1
 91
        0
 64
     7
 65
   257
 75
     1
175
     1
 42
1.0
 92
        8
 66
     8
 43
1.0
 76
     1
 77
     6
 78
     2
 67
     7
 79
     5
170
     0
171
     0
290
     0
174
     0
 93
       13
 44
0.0
173
     0
291
     0
 45
0.0
1001
ACAD
1000
AcDbSavedByObjectVersion
1070
     0
1000
AcDbSavedByObjectVersion
1070
     0
  0
VISUALSTYLE
  5
BF8C
102
{ACAD_REACTORS
330
BF7F
102
}
330
BF7F
100
AcDbVisualStyle
  2
Thicken
 70
    13
 71
     2
 72
     2
 73
     0
 90
        0
 40
-0.6
 41
-30.0
 62
     5
 63
     7
 74
     1
 91
        4
 64
     7
 65
   257
 75
     1
175
     1
 42
1.0
 92
       12
 66
     7
 43
1.0
 76
     1
 77
     6
 78
     2
 67
     7
 79
     5
170
     0
171
     0
290
     0
174
     0
 93
        1
 44
0.0
173
     0
291
     1
 45
0.0
1001
ACAD
1000
AcDbSavedByObjectVersion
1070
     0
1000
AcDbSavedByObjectVersion
1070
     0
  0
DICTIONARYVAR
  5
C92B
102
{ACAD_REACTORS
330
23A5
102
}
330
23A5
100
DictionaryVariables
280
     0
  1
1:1
  0
DICTIONARYVAR
  5
C92A
102
{ACAD_REACTORS
330
23A5
102
}
330
23A5
100
DictionaryVariables
280
     0
  1
STANDARD
  0
DICTIONARYVAR
  5
5935
102
{ACAD_REACTORS
330
23A5
102
}
330
23A5
100
DictionaryVariables
280
     0
  1
STANDARD
  0
DICTIONARYVAR
  5
23A6
102
{ACAD_REACTORS
330
23A5
102
}
330
23A5
100
DictionaryVariables
280
     0
  1
1
  0
DICTIONARYVAR
  5
C92D
102
{ACAD_REACTORS
330
23A5
102
}
330
23A5
100
DictionaryVariables
280
     0
  1
0
  0
DICTIONARYVAR
  5
370E
102
{ACAD_REACTORS
330
23A5
102
}
330
23A5
100
DictionaryVariables
280
     0
  1

  0
DICTIONARYVAR
  5
C92C
102
{ACAD_REACTORS
330
23A5
102
}
330
23A5
100
DictionaryVariables
280
     0
  1
127
  0
DICTIONARY
  5
5B14
330
4697
100
AcDbDictionary
280
     1
281
     1
  3
ACAD_XREC_ROUNDTRIP
360
CC91
  3
ADSK_XREC_LAYOUTTHUMBNAIL
360
5B15
  0
DICTIONARY
  5
CC7B
330
2DE
100
AcDbDictionary
280
     1
281
     1
  3
ACAD_XREC_ROUNDTRIP
360
CC7C
  0
DICTIONARY
  5
BF70
330
BF6F
100
AcDbDictionary
280
     1
281
     1
  3
ACAD_XREC_ROUNDTRIP
360
C966
  3
BUMPTILE
360
BF72
  3
DIFFUSETILE
360
BF71
  3
OPACITYTILE
360
BF75
  3
REFLECTIONTILE
360
BF74
  3
REFRACTIONTILE
360
BF76
  3
SPECULARTILE
360
BF73
  0
DICTIONARY
  5
BF68
330
BF67
100
AcDbDictionary
280
     1
281
     1
  3
ACAD_XREC_ROUNDTRIP
360
C965
  3
BUMPTILE
360
BF6A
  3
DIFFUSETILE
360
BF69
  3
OPACITYTILE
360
BF6D
  3
REFLECTIONTILE
360
BF6C
  3
REFRACTIONTILE
360
BF6E
  3
SPECULARTILE
360
BF6B
  0
DICTIONARY
  5
BF78
330
BF77
100
AcDbDictionary
280
     1
281
     1
  3
ACAD_XREC_ROUNDTRIP
360
C967
  3
BUMPTILE
360
BF7A
  3
DIFFUSETILE
360
BF79
  3
OPACITYTILE
360
BF7D
  3
REFLECTIONTILE
360
BF7C
  3
REFRACTIONTILE
360
BF7E
  3
SPECULARTILE
360
BF7B
  0
DICTIONARY
  5
CC7D
330
3137
100
AcDbDictionary
280
     1
281
     1
  3
ACAD_XREC_ROUNDTRIP
360
CC7E
  0
DICTIONARY
  5
CC7F
330
314A
100
AcDbDictionary
280
     1
281
     1
  3
ACAD_XREC_ROUNDTRIP
360
CC80
  0
DICTIONARY
  5
CC81
330
3154
100
AcDbDictionary
280
     1
281
     1
  3
ACAD_XREC_ROUNDTRIP
360
CC82
  0
DICTIONARY
  5
CC83
330
3155
100
AcDbDictionary
280
     1
281
     1
  3
ACAD_XREC_ROUNDTRIP
360
CC84
  0
DICTIONARY
  5
C8EF
330
58EE
100
AcDbDictionary
280
     1
281
     1
  3
ACAD_ROUNDTRIP_2008_TABLESTYLE_CELLSTYLEMAP
360
CC75
  3
ACAD_XREC_ROUNDTRIP
360
CC96
  0
XRECORD
  5
CC91
102
{ACAD_REACTORS
330
5B14
102
}
330
5B14
100
AcDbXrecord
280
     1
102
SHADEPLOT
 70
     1
102
SHADEPLOTRESLEVEL
 70
     2
102
SHADEPLOTCUSTOMDPI
 70
   150
  0
XRECORD
  5
5B15
102
{ACAD_REACTORS
330
5B14
102
}
330
5B14
100
AcDbXrecord
280
     1
310
28000000B40000007F00000001000800000000004C590000000000000000000000010000000000000000000000000000FFFFFF000000000000000000000000000000000000000000000000000000000000000000330000006600000099000000CC000000FF00000000330000333300006633000099330000CC330000FF3300
310
0000660000336600006666000099660000CC660000FF66000000990000339900006699000099990000CC990000FF99000000CC000033CC000066CC000099CC0000CCCC0000FFCC000000FF000033FF000066FF000099FF0000CCFF0000FFFF000000003300330033006600330099003300CC003300FF003300003333003333
310
33006633330099333300CC333300FF33330000663300336633006666330099663300CC663300FF66330000993300339933006699330099993300CC993300FF99330000CC330033CC330066CC330099CC3300CCCC3300FFCC330000FF330033FF330066FF330099FF3300CCFF3300FFFF330000006600330066006600660099
310
006600CC006600FF00660000336600333366006633660099336600CC336600FF33660000666600336666006666660099666600CC666600FF66660000996600339966006699660099996600CC996600FF99660000CC660033CC660066CC660099CC6600CCCC6600FFCC660000FF660033FF660066FF660099FF6600CCFF6600
310
FFFF660000009900330099006600990099009900CC009900FF00990000339900333399006633990099339900CC339900FF33990000669900336699006666990099669900CC669900FF66990000999900339999006699990099999900CC999900FF99990000CC990033CC990066CC990099CC9900CCCC9900FFCC990000FF99
310
0033FF990066FF990099FF9900CCFF9900FFFF99000000CC003300CC006600CC009900CC00CC00CC00FF00CC000033CC003333CC006633CC009933CC00CC33CC00FF33CC000066CC003366CC006666CC009966CC00CC66CC00FF66CC000099CC003399CC006699CC009999CC00CC99CC00FF99CC0000CCCC0033CCCC0066CC
310
CC0099CCCC00CCCCCC00FFCCCC0000FFCC0033FFCC0066FFCC0099FFCC00CCFFCC00FFFFCC000000FF003300FF006600FF009900FF00CC00FF00FF00FF000033FF003333FF006633FF009933FF00CC33FF00FF33FF000066FF003366FF006666FF009966FF00CC66FF00FF66FF000099FF003399FF006699FF009999FF00CC
310
99FF00FF99FF0000CCFF0033CCFF0066CCFF0099CCFF00CCCCFF00FFCCFF0000FFFF0033FFFF0066FFFF0099FFFF00CCFFFF00FFFFFF00000000000D0D0D001A1A1A00282828003535350043434300505050005D5D5D006B6B6B00787878008686860093939300A1A1A100AEAEAE00BBBBBB00C9C9C900D6D6D600E4E4E400
310
F1F1F100FFFFFF0000000000000000000000000000000000000000000000000000000000000000000000000000000000F5F5F5F5F5F5F5F5F5F5F5F5F5F5F5F5F5F5F5F5F5F5F5F5F5F5F5F5F5F5F5F5F5F5F5F5F5F5F5F5F5F5F5F5F5F5F5F5F5F5F5F5F5F5F5F5F5F5F5F5F5F5F5F5F5F5F5F5F5F5F5F5F5F5F5F5F5F5F5
310
F5F5F5F5F5F5F5F5F5F5F5F5F5F5F5F5F5F5F5F5F5F5F5F5F5F5F5F5F5F5F5F5F5F5F5F5F5F5F5F5F5F5F5F5F5F5F5F5F5F5F5F5F5F5F5F5F5F5F5F5F5F5F5F5F5F5F5F5F5F5F5F5F5F5F5F5F5F5F5F5F5F5F5F5F5F5F5F5F5F5F5F5F5F5F5F5F5F5F5F5F5F5F5F5F5F5F5F5F5F5E2E2E2E2E2E2E2E2E2F5F5F5F5F5F5F5F5
310
F5F5F5F5F5F5F5F5E2E2E2E2E2E2E2E2E2F5F5F5F5F5F5F5F5F5F5F5F5F5F5F5F5E2E2E2E2E2E2E2E2E2F5F5F5F5F5F5F5F5F5F5F5F5F5F5F5F5E2E2E2E2E2E2E2E2E2F5F5F5F5F5F5F5F5F5F5F5F5F5F5F5F5E2E2E2E2E2E2E2E2E2F5F5F5F5F5F5F5F5F5F5F5F5F5F5F5F5E2E2E2E2E2E2E2E2E2F5F5F5F5F5F5F5F5F5F5
310
F5F5F5F5F5F5E2E2E2E2E2E2E2E2E2F5F5F5F5F5F5F5F5E2E2F5F5F5F5E2E2E2E2E2E2E2E2E2E2E2E2E2E2E2E2E2E2E2E2E2E2E2E2E2E2E2E2E2E2E2E2E2E2E2E2E2E2E2E2E2E2E2E2E2E2E2E2E2E2E2E2E2E2E2E2E2E2E2E2E2E2E2E2E2E2E2E2E2E2E2E2E2E2E2E2E2E2E2E2E2E2E2E2E2E2E2E2E2E2E2E2E2E2E2E2E2E2
310
E2E2E2E2E2E2E2E2E2E2E2E2E2E2E2E2E2E2E2E2E2E2E2E2E2E2E2E2E2E2E2E2E2E2E2E2E2E2E2E2E2E2E2E2E2E2E2E2E2E2E2E2E2E2E2E2E2E2E2E2E2E2E2E2E2E2E2E2E2E2E2E2E2E2E2F5E2E2F5F5F5F5E2E2E2E2E2E2E2E2E2E2E2E2E2E2E2E2E2E2E2E2E2E2E2E2E2E2E2E2E2E2E2E2E2E2E2E2E2E2E2E2E2E2E2E2E2
310
E2E2E2E2E2E2E2E2E2E2E2E2E2E2E2E2E2E2E2E2E2E2E2E2E2E2E2E2E2E2E2E2E2E2E2E2E2E2E2E2E2E2E2E2E2E2E2E2E2E2E2E2E2E2E2E2E2E2E2E2E2E2E2E2E2E2E2E2E2E2E2E2E2E2E2E2E2E2E2E2E2E2E2E2E2E2E2E2E2E2E2E2E2E2E2E2E2E2E2E2E2E2E2E2E2E2E2E2E2E2E2E2E2E2E2E2E2E2E2E2E2E2E2E2E2E2E2
310
E2F5E2E2F5F5F5F5E2E2E2E2E2E2E2E2E2E2E2E2E2E2E2E2E2E2E2E2E2E2E2E2E2E2E2E2E2E2E2E2E2E2E2E2E2E2E2E2E2E2E2E2E2E2E2E2E2E2E2E2E2E2E2E2E2E2E2E2E2E2E2E2E2E2E2E2E2E2E2E2E2E2E2E2E2E2E2E2E2E2E2E2E2E2E2E2E2E2E2E2E2E2E2E2E2E2E2E2E2E2E2E2E2E2E2E2E2E2E2E2E2E2E2E2E2E2E2
310
E2E2E2E2E2E2E2E2E2E2E2E2E2E2E2E2E2E2E2E2E2E2E2E2E2E2E2E2E2E2E2E2E2E2E2E2E2E2E2E2E2E2E2E2E2E2E2E2E2E2E2E2E2E2F5E2E2F5F5F5F5E2E2E2E2E2E2E2E2E2E2E2E2E2E2E2E2E2E2E2E2E2E2E2E2E2E2E2E2E2E2E2E2E2E2E2E2E2E2E2E2E2E2E2E2E2E2E2E2E2E2E2E2E2E2E2E2E2E2E2E2E2E2E2E2E2E2
310
E2E2E2E2E2E2E2E2E2E2E2E2E2E2E2E2E2E2E2E2E2E2E2E2E2E2E2E2E2E2E2E2E2E2E2E2E2E2E2E2E2E2E2E2E2E2E2E2E2E2E2E2E2E2E2E2E2E2E2E2E2E2E2E2E2E2E2E2E2E2E2E2E2E2E2E2E2E2E2E2E2E2E2E2E2E2E2E2E2E2E2E2E2E2E2E2E2E2E2E2E2E2E2E2E2E2E2F5E2E2F5F5F5F5E2E2E2E2E2E2E2E2E2E2E2E2E2
310
E2E2E2E2E2E2E2E2E2E2E2E2E2E2E2E2E2E2E2E2E2E2E2E2E2E2E2E2E2E2E2E2E2E2E2E2E2E2E2E2E2E2E2E2E2E2E2E2E2E2E2E2E2E2E2E2E2E2E2E2E2E2E2E2E2E2E2E2E2E2E2E2E2E2E2E2E2E2E2E2E2E2E2E2E2E2E2E2E2E2E2E2E2E2E2E2E2E2E2E2E2E2E2E2E2E2E2E2E2E2E2E2E2E2E2E2E2E2E2E2E2E2E2E2E2E2E2
310
E2E2E2E2E2E2E2E2E2E2E2E2E2E2E2E2E2E2E2E2E2E2E2E2E2E2E2E2E2E2E2E2E2F5E2E2F5F5F5F5E2E2E2E2E2E2E2E2E2E2E2E2E2E2E2E2E2E2E2E2E2E2E2E2E2E2E2E2E2E2E2E2E2E2E2E2E2E2E2E2E2E2E2E2E2E2E2E2E2E2E2E2E2E2E2E2E2E2E2E2E2E2E2E2E2E2E2E2E2E2E2E2E2E2E2E2E2E2E2E2E2E2E2E2E2E2E2
310
E2E2E2E2E2E2E2E2E2E2E2E2E2E2E2E2E2E2E2E2E2E2E2E2E2E2E2E2E2E2E2E2E2E2E2E2E2E2E2E2E2E2E2E2E2E2E2E2E2E2E2E2E2E2E2E2E2E2E2E2E2E2E2E2E2E2E2E2E2E2E2E2E2E2E2E2E2E2E2E2E2E2E2E2E2E2F5E2E2F5F5F5F5E2E2E2E2E2E2E2E2E2E2E2E2E2E2E2E2E2E2E2E2E2E2E2E2E2E2E2E2E2E2E2E2E2E2
310
E2E2E2E2E2E2E2E2E2E2E2E2E2E2E2E2E2E2E2E2E2E2E2E2E2E2E2E2E2E2E2E2E2E2E2E2E2E2E2E2E2E2E2E2E2E2E2E2E2E2E2E2E2E2E2E2E2E2E2E2E2E2E2E2E2E2E2E2E2E2E2E2E2E2E2E2E2E2E2E2E2E2E2E2E2E2E2E2E2E2E2E2E2E2E2E2E2E2E2E2E2E2E2E2E2E2E2E2E2E2E2E2E2E2E2E2E2E2E2E2E2E2E2E2E2E2E2
310
E2E2E2E2E2E2E2E2E2E2E2E2F5E2E2F5F5F5E2E2E2E2E2E2E2E2E2E2E2E2E2E2E2E2E2E2E2E2E2E2E2E2E2E2E2E2E2E2E2E2E2E2E2E2E2E2E2E2E2E2E2E2E2E2E2E2E2E2E2E2E2E2E2E2E2E2E2E2E2E2E2E2E2E2E2E2E2E2E2E2E2E2E2E2E2E2E2E2E2E2E2E2E2E2E2E2E2E2E2E2E2E2E2E2E2E2E2E2E2E2E2E2E2E2E2E2E2
310
E2E2E2E2E2E2E2E2E2E2E2E2E2E2E2E2E2E2E2E2E2E2E2E2E2E2E2E2E2E2E2E2E2E2E2E2E2E2E2E2E2E2E2E2E2E2E2E2E2E2E2E2E2E2E2E2E2E2E2E2E2E2E2E2E2E2E2E2F5F5F5E2E2E2E2E2E2E2E2E2E2E2E2E2E2E2E2E2E2E2E2E2E2E2E2E2E2E2E2E2E2E2E2E2E2E2E2E2E2E2E2E2E2E2E2E2E2E2E2E2E2E2E2E2E2E2E2
310
E2E2E2E2E2E2E2E2E2E2E2E2E2E2E2E2E2E2E2E2E2E2E2E2E2E2E2E2E2E2E2E2E2E2E2E2E2E2E2E2E2E2E2E2E2E2E2E2E2E2E2E2E2E2E2E2E2E2E2E2E2E2E2E2E2E2E2E2E2E2E2E2E2E2E2E2E2E2E2E2E2E2E2E2E2E2E2E2E2E2E2E2E2E2E2E2E2E2E2E2E2E2E2E2E2E2E2E2E2E2E2E2E2E2E2E2E2E2E2E2E2F5F5F5E2E2E2
310
E2E2E2E2E2E2E2E2E2E2E2E2E2E2E2E2E2E2E2E2E2E2E2E2E2E2E2E2E2E2E2E2E2E2E2E2E2E2E2E2ECE2E2E2E2E2E2E2ECECECECECECECECECECECECECECECECECECECECECECECECECECECECECECECECECECECECECECECECECE2E2E2E2E2E2E2E2E2E2E2E2E2E2E2E2E2E2E2ECECECECECECECECECECECECECECECECECECEC
310
ECECECECECECECECECECECECECECECECECECECECECECECECECECECECECECECECECECECECECECECE2E2E2E2E2E2E2E2F5F5F5E2E2E2E2E2E2E2E2E2E2E2E2E2E2E2E2E2E2E2E2E2E2E2E2E2E2E2E2E2E2E2E2E2E2E2E2E2E2E2E2E2E2E2ECECECDCDCDCECECECE2E2E2E2E2E2E2E2E2E2E2E2E2E2E2E2E2E2DCDCE2E2E2E2E2
310
E2E2E2E2E2E2E2E2E2E2E2E2E2ECECE2E2E2E2E2E2E2E2E2E2E2E2E2E2E2E2E2E2E2ECECDCDCE2ECECE2E2E2E2E2E2E2E2E2E2E2E2E2E2E2E2E2E2E2E2E2E2E2DCDCDCE2E2E2E2E2E2E2E2E2E2E2E2E2E2E2E2E2E2E2E2E2E2E2ECECE2E2E2E2E2E2E2E2F5F5F5E2E2E2E2E2E2E2E2E2E2E2E2E2E2E2E2E2E2E2E2E2E2E2E2
310
E2E2E2E2E2E2E2E2E2E2E2E2E2E2E2E2E2E2E2ECE2E2DCDCDCE2E2ECE2E2E2E2E2E2E2E2E2E2E2E2E2E2E2E2E2E2E2E2E2E2E2E2E2E2E2E2E2E2E2E2E2E2E2E2E2E2E2ECE2E2E2E2E2E2E2E2E2E2E2E2E2E2E2E2E2E2E2ECE2E2E2E2ECE2E2E2E2E2E2E2E2E2E2E2E2E2E2E2E2E2E2E2E2E2E2E2E2E2E2E2E2E2E2E2E2E2E2
310
E2E2E2E2E2E2E2E2E2E2E2E2E2E2E2E2E2ECE2E2E2E2E2E2E2E2F5F5F5E2E2E2E2E2E2E2E2E2E2E2E2E2E2E2E2E2E2E2E2E2E2E2E2E2E2E2E2E2E2E2E2E2E2E2E2E2E2E2E2E2E2E2ECE2E2E2E2E2E2E2ECE2E2E2E2E2E2E2E2E2E2E2E2E2E2E2E2E2E2E2E2E2E2E2E2E2E2E2E2E2E2E2E2E2E2E2E2E2E2E2ECE2E2E2E2E2E2
310
E2E2E2E2E2E2E2E2E2E2E2E2E2ECE2E2E2E2ECE2E2E2E2E2E2E2E2E2E2E2E2E2E2E2E2E2E2E2E2E2E2E2E2E2E2E2E2E2E2E2E2E2E2E2E2E2E2E2E2E2E2E2E2E2E2E2E2E2E2E2ECE2E2E2E2E2E2E2E2F5F5F5E2E2E2E2E2E2E2E2E2E2E2E2E2F0E2E2E2E2E2E2E2E2E2E2E2E2E2E2E2E2E2E2E2E2E2E2E2E2E2E2E2E2E2ECE2
310
E2E2E2E2E2E2ECE2E2E2E2E2E2E2E2E2E2E2E2E2E2E2E2E2E2E2E2E2E2E2E2E2E2E2E2E2E2E2E2E2E2E2E2E2E2E2ECE2E2E2E2E2E2E2E2E2E2E2E2E2E2E2E2E2E2E2ECE2E2E2E2ECE2E2E2E2E2E2E2E2E2E2E2E2E2E2E2E2E2E2E2E2E2E2E2E2E2E2E2E2E2E2E2E2E2E2E2E2E2E2E2E2E2E2E2E2E2E2E2E2E2E2E2ECE2E2E2
310
E2E2E2E2E2F5F5F5E2E2E2E2E2E2E2E2E2E2E2E2E2F0E2E2E2E2E2E2E2E2E2E2E2E2E2E2E2E2E2E2E2E2E2E2E2E2E2E2E2E2E2ECE2E2E2E2E2E2E2ECE2E2E2E2E2E2E2E2E2E2E2E2E2E2E2E2E2E2E2E2E2E2E2E2E2E2E2E2E2E2E2E2E2E2E2E2E2E2E2ECE2E2E2E2E2E2E2E2E2E2E2E2E2E2E2E2E2E2E2ECE2E2E2E2ECE2E2
310
E2E2E2E2E2E2E2E2E2E2E2E2E2E2E2E2E2E2E2E2E2E2E2E2E2E2E2E2E2E2E2E2E2E2E2E2E2E2E2E2E2E2E2E2E2E2E2E2E2ECE2E2E2E2E2E2E2E2F5F5F5E2E2E2E2E2E2E2E2E2E2E2E2E2F0E2E2E2E2E2E2E2E2E2E2E2E2E2E2E2E2E2E2E2E2E2E2E2E2E2E2E2E2E2ECE2E2E2E2E2E2E2ECE2E2E2E2E2E2E2E2E2E2E2E2E2E2
310
E2E2E2E2E2E2E2E2E2E2E2E2E2E2E2E2E2E2E2E2E2E2E2E2E2ECE2E2E2E2E2E2E2E2E2E2E2E2E2E2E2E2E2E2E2ECE2E2E2E2ECE2E2E2E2E2E2E2E2E2E2E2E2E2E2E2E2E2E2E2E2E2E2E2E2E2E2E2E2E2E2E2E2E2E2E2E2E2E2E2E2E2E2E2E2E2E2E2E2E2E2E2ECE2E2E2E2E2E2E2E2F5F5F5F5E2E2F0E2E2E2E2E2E2E2E2E2
310
F0E2E2E2E2E2E2E2E2E2F0E2E2E2E2E2E2E2E2E2E2E2E2E2E2E2E2E2E2E2ECE2E2E2E2E2E2E2ECE2E2E2E2E2E2E2F0E2E2E2E2E2E2E2E2E2E2E2E2E2E2E2E2E2E2E2E2E2E2F0E2E2E2E2E2E2E2E2ECE2E2E2E2E2E2E2E2E2E2E2E2E2E2E2E2E2E2E2ECE2E2E2E2ECE2E2E2E2E2E2E2E2E2E2E2E2E2E2E2ECE2E2E2E2E2E2E2
310
E2E2E2E2E2E2E2E2E2E2E2E2E2E2E2ECE2E2E2E2E2E2E2E2E2E2E2E2ECE2E2E2E2E2F5E2E2F5F5F5F5F5F5F5F5F5F5F5F5F5F5F5F5F5F5F5F5F5F5F5F5F5F5F5F5ECECECECECECECECECF5F5ECECECECECECECECECECECECECECECECF5F5F5F5F5F5F5F5F5F5F5F5F5F5F5F5F5F5F5F5F5F5F5F5F5F5F5F5F5F5F5F5F5F5F5
310
F5F5F5F5ECF5F5F5F5F5F5F5F5F5F5F5F5F5ECECECECECECECECECECECECF5F5F5F5F5F5F5F5F5F5F5F5F5F5F5F5F5F5F5F5F5F5F5F5F5F5F5F5F5F5F5F5F5F5F5F5F5F5F5F5F5F5F5F5F5F5F5F5F5F5F5ECF5F5F5F5F5F5F5E2F5F5F5F5E2E2F0E2F5E2F0E2E2E2E2E2F0E2E2E2E2E2E2F0E2F5F0E2E2E2E2E2E2E2E2ECE2
310
E2E2ECE2E2E2ECE2E2ECE2E2E2E2E2E2E2F5E2E2E2E2E2E2E2F0E2E2E2E2E2E2E2E2E2E2E2F0E2E2E2E2E2E2E2E2E2E2F0E2E2E2E2E2E2E2E2F5E2E2E2E2E2E2E2E2E2E2E2E2E2E2ECE2E2ECE2ECE2E2E2E2F5E2E2E2E2E2E2ECE2E2E2E2E2E2E2E2ECE2E2E2E2E2E2E2E2E2E2E2ECE2E2E2E2E2E2E2E2E2E2ECE2E2E2E2E2
310
E2E2E2ECE2E2ECF5E2E2E2E2E2F5E2E2F5F5F5F5E2E2F0F0F0F0F0F0E2E2E2E2F0E2E2E2E2F0F0F0F0F0F0E2E2E2E2E2E2E2E2ECE2E2E2ECE2E2E2ECE2E2ECE2E2E2E2E2F0F0F0F0E2E2E2E2E2E2E2E2E2E2E2E2E2E2E2E2F0F0F0F0E2E2E2E2E2E2E2E2E2F0E2E2E2E2E2E2E2F0F5F5F5F5F5F5F5F5F5F0E2E2E2E2E2ECE2
310
E2ECE2ECE2E2E2E2F5E2E2E2E2E2ECECECECE2E2E2E2E2E2E2E2E2E2E2E2E2E2E2E2ECECECECE2E2E2E2E2E2E2E2E2ECE2E2E2E2E2E2E2ECECECECECF5F5F5F5F5ECF5E2E2F5F5F5F5E2E2E2E2F5E2F0E2E2E2E2E2F0E2E2E2E2E2E2F0E2F5E2E2E2E2E2E2E2E2E2ECE2E2E2ECE2E2E2ECE2E2ECE2E2E2E2E2E2E2F5E2E2E2
310
E2E2E2E2E2E2E2E2E2E2E2E2E2E2E2E2F0E2E2E2E2E2E2E2E2E2E2E2E2E2E2E2E2E2E2E2F5E2E2E2E2E2E2E2E2E2E2E2E2E2E2ECE2E2ECE2ECE2E2E2E2F5E2E2E2E2E2E2ECE2E2E2E2E2E2E2E2E2E2E2E2E2E2E2E2E2E2E2E2ECE2E2E2E2E2E2E2E2E2E2E2E2E2E2E2E2E2E2E2ECE2E2ECF5E2E2E2E2E2F5E2E2F5F5F5F5E2
310
E2E2E2F5E2E2E2E2E2E2E2F0E2E2E2E2E2E2E2E2F5E2E2E2E2E2E2E2E2E2ECE2E2E2ECE2E2E2ECE2E2ECE2E2E2E2E2E2E2F5E2E2E2E2E2E2E2E2E2E2E2E2E2E2E2E2E2E2E2E2E2E2E2E2E2E2E2E2E2E2E2E2E2E2E2E2E2E2E2F5E2E2E2E2E2E2E2E2E2E2E2E2E2E2ECE2E2ECE2ECE2E2E2E2F5E2E2E2E2E2E2ECE2E2E2E2E2
310
E2E2E2E2E2E2E2E2E2E2E2E2E2E2E2E2E2E2E2E2E2E2E2E2E2E2E2E2E2E2E2E2E2E2E2ECE2E2ECF5E2E2E2E2E2F5E2E2F5F5F5F5E2E2E2E2F5E2E2E2E2E2E2E2F0E2E2E2E2E2E2E2E2F5E2E2E2E2E2E2E2E2E2ECE2E2E2ECE2E2E2ECE2E2ECE2E2E2E2E2E2E2F5E2E2E2E2E2E2E2E2E2E2E2E2E2E2E2E2E2E2E2E2E2E2E2E2
310
E2E2E2E2E2E2E2E2E2E2E2E2E2E2E2F5F5F5F5F5F5E2E2E2E2E2E2E2E2E2ECE2E2ECE2ECE2E2E2E2F5E2E2E2E2E2E2ECE2E2E2E2E2E2E2E2E2E2E2E2E2E2E2E2E2E2E2E2E2E2E2E2E2E2E2E2E2E2E2E2E2E2E2E2E2E2E2E2ECECECECF5F5E2E2E2E2F5E2E2F5F5F5F5E2E2E2E2F5E2E2E2E2E2E2E2F0E2E2E2E2E2E2E2E2F5
310
E2E2E2E2E2E2E2E2E2ECE2E2E2ECE2E2E2ECE2E2ECE2E2E2E2E2E2E2F5E2E2E2E2E2E2E2E2E2E2E2E2E2E2E2E2E2E2E2E2E2E2E2E2E2E2E2E2E2E2E2E2E2E2E2E2E2E2E2F5F5E2E2E2E2F5F5F5F5E2E2E2E2E2ECE2E2ECE2ECE2E2E2E2F5E2E2E2E2E2E2ECE2E2E2E2E2E2E2E2E2E2E2E2E2E2E2E2E2E2E2E2E2E2E2E2E2E2
310
E2E2E2E2E2E2E2E2E2E2E2E2E2E2ECECE2ECF5E2F5F5F5F5F5E2E2F5F5F5F5E2E2E2E2F5E2E2E2E2E2E2E2F0E2E2E2E2E2E2E2E2F5E2E2E2E2E2E2E2E2E2ECE2E2E2ECE2E2E2ECE2E2ECE2E2E2E2E2E2E2F5E2E2E2E2E2E2E2E2E2E2E2E2E2E2E2E2E2E2E2E2E2E2E2E2E2E2E2E2E2E2E2E2E2E2E2E2E2F0F0F5F5F0F0F0F0
310
F5F5F5F5F0E2E2E2E2ECE2E2ECE2ECE2E2E2E2F5E2E2E2E2E2E2ECE2E2E2E2E2E2E2E2E2E2E2E2E2E2E2E2E2E2E2E2E2E2E2E2E2E2E2E2E2E2E2E2E2E2E2E2E2E2ECECECECECECF5ECF5F5F5F5ECE2E2F5F5F5F5E2E2E2E2F5E2E2E2E2E2E2E2F0E2E2E2E2E2E2E2E2F5E2E2E2E2E2E2E2E2E2ECE2E2E2ECE2DCDCECE2E2EC
310
E2E2E2E2E2E2E2F5E2E2E2E2E2E2E2E2E2E2E2E2E2E2E2E2E2E2E2E2E2E2E2E2E2E2E2E2E2E2E2E2E2E2E2E2E2E2E2F5F5F5F5F5F5F5E2E2E2E2E2E2E2E2ECE2E2ECE2ECE2E2E2E2F5E2E2E2E2E2E2ECE2E2E2E2E2E2E2E2E2E2E2E2E2E2E2E2E2E2E2E2E2E2E2E2E2E2E2E2E2E2E2E2E2E2E2E2E2E2E2E2ECECECECF5F5F5
310
E2E2E2F5E2E2F5F5F5F5E2E2E2E2F5E2E2E2E2E2E2E2F0E2E2E2E2E2E2E2E2F5E2E2E2E2E2E2E2E2E2ECE2E2E2ECE2DCDCECE2E2ECE2E2E2E2E2E2E2F5E2E2E2E2E2E2E2E2E2E2E2E2E2E2E2E2E2E2E2E2E2E2E2E2E2E2E2E2E2E2E2E2E2E2E2E2E2E2E2F5F5E2E2E2E2E2E2E2E2E2E2E2E2E2ECE2DCDCE2ECE2E2E2E2F5E2
310
E2E2E2E2E2ECE2E2E2E2E2E2E2E2E2E2E2E2E2E2E2E2E2E2E2E2E2E2E2E2E2E2E2E2E2E2E2E2E2E2E2E2E2E2E2E2ECECE2ECF5E2E2E2E2E2F5E2E2F5F5F5F5E2E2E2E2F5E2E2E2E2E2E2E2F0E2E2E2E2E2E2E2E2F5E2E2E2E2E2E2E2E2E2ECE2E2DCDCE2E2E2ECE2E2ECE2E2E2E2E2E2E2F5E2E2E2E2E2E2E2E2E2E2E2E2E2
310
E2E2E2E2E2E2E2E2E2E2E2E2E2E2E2E2E2E2E2E2E2E2E2E2E2E2F5E2E2E2E2E2E2E2E2E2E2E2E2E2E2ECE2DCDCE2ECE2E2E2E2F5E2E2E2E2E2E2ECE2E2E2E2E2E2E2E2E2E2E2E2E2E2E2E2E2E2E2E2E2E2E2E2E2E2E2E2E2E2E2E2E2E2E2E2E2E2E2E2ECE2E2ECF5E2E2E2E2E2F5E2E2F5F5F5F5E2E2E2E2F5E2E2E2E2E2E2
310
E2F0E2E2E2E2E2E2E2E2F5E2E2E2E2E2E2E2E2E2ECE2E2DCDCE2E2E2ECE2E2ECE2E2E2E2E2E2E2F5E2E2E2E2E2E2E2E2E2E2E2E2E2E2E2E2E2E2E2E2E2E2E2E2E2E2E2E2E2E2E2E2E2E2E2E2E2E2E2F5E2E2E2E2E2E2E2E2E2E2E2E2E2E2ECE2E2ECE2ECE2E2E2E2F5E2E2E2E2E2E2ECE2E2E2E2E2E2E2E2E2E2E2E2E2E2E2
310
E2E2E2E2E2E2E2E2E2E2E2E2E2E2E2E2E2E2E2E2E2E2E2E2E2ECE2E2ECF5E2E2E2E2E2F5E2E2F5F5F5F5E2E2E2E2F5E2E2E2E2E2E2E2F0E2E2E2E2E2E2E2E2F5E2E2E2E2E2E2E2E2E2ECE2E2DCDCE2E2E2ECE2E2ECE2E2E2E2E2E2E2F5E2E2E2E2E2E2E2E2E2E2E2E2E2E2E2E2E2E2E2E2E2E2E2E2E2E2E2E2E2E2E2E2E2E2
310
E2E2E2E2E2F5E2E2E2E2E2E2E2E2E2E2E2E2E2E2ECE2E2ECE2ECE2E2E2E2F5E2E2E2E2E2E2ECE2E2E2E2E2E2E2E2E2E2E2E2E2E2E2E2E2E2E2E2E2E2E2E2E2E2E2E2E2E2E2E2E2E2E2E2E2E2E2E2ECE2E2ECF5E2E2E2E2E2F5E2E2F5F5F5F5E2E2E2E2F5E2E2E2E2E2E2E2F0E2E2E2E2E2E2E2E2F5E2E2E2E2E2E2E2E2E2EC
310
E2E2DCDCE2E2E2ECE2E2ECE2E2E2E2E2E2E2F5E2E2E2E2E2E2E2E2E2E2E2E2E2E2E2E2E2E2E2E2E2E2E2E2E2E2E2E2E2E2E2E2E2E2E2E2E2E2E2F5E2E2E2E2E2E2E2E2E2E2E2E2E2E2ECE2E2ECE2ECE2E2E2E2F5E2E2E2E2E2E2ECE2E2E2E2E2E2E2E2E2E2E2E2E2E2E2E2E2E2E2E2E2E2E2E2E2E2E2E2E2E2E2E2E2E2E2E2
310
E2E2E2E2ECE2E2ECF5E2E2E2E2E2F5E2E2F5F5F5F5E2E2E2E2F5E2E2E2E2E2E2E2F0E2E2E2E2E2E2E2E2F5E2E2E2E2E2E2E2E2E2ECE2E2E2ECE2E2E2ECE2E2ECE2E2E2E2E2E2E2F5E2E2E2E2E2E2E2E2E2E2E2E2E2E2E2E2E2E2E2E2E2E2E2E2E2E2E2E2E2E2E2E2E2E2E2E2E2E2E2F5E2E2E2E2E2E2E2E2E2E2E2E2E2E2EC
310
E2E2ECE2ECE2E2E2E2F5E2E2E2E2E2E2ECE2E2E2E2E2E2E2E2E2E2E2E2E2E2E2E2E2E2E2E2E2E2E2E2E2E2E2E2E2E2E2E2E2E2E2E2E2E2E2E2ECE2E2ECF5E2E2E2E2E2F5E2E2F5F5F5E2E2E2E2E2F5E2E2E2E2E2E2E2F0E2E2E2E2E2E2E2E2F5E2E2E2E2E2E2E2E2E2ECE2E2E2ECE2E2E2ECE2E2ECE2E2E2E2E2E2E2F5E2E2
310
E2E2E2E2E2E2E2E2E2E2E2E2E2E2E2E2E2E2E2E2E2E2E2E2E2E2E2E2E2E2E2E2E2E2E2E2E2F5E2E2E2E2E2E2E2E2E2E2E2E2E2E2ECE2E2ECE2ECE2E2E2E2F5E2E2E2E2E2E2ECE2E2E2E2E2E2E2E2E2E2E2E2E2E2E2E2E2E2E2E2E2E2E2E2E2E2E2E2E2E2E2E2E2E2E2E2E2E2E2E2ECE2E2ECF5E2E2E2E2E2E2E2E2F5F5F5E2
310
E2E2E2E2F5E2E2E2E2E2E2E2F0E2E2E2E2E2E2E2E2F5E2E2E2E2E2E2E2E2E2ECE2E2E2ECE2E2E2ECE2E2ECE2E2E2E2E2E2E2F5E2E2E2E2E2E2E2E2E2E2E2E2E2E2E2E2E2E2E2E2E2E2E2E2E2E2E2E2E2E2E2E2E2E2E2E2E2E2E2F5E2E2E2E2E2E2E2E2E2E2E2E2E2E2ECE2E2ECE2ECE2E2E2E2F5E2E2E2E2E2E2ECE2E2E2E2
310
E2E2E2E2E2E2E2E2E2E2E2E2E2E2E2E2E2E2E2E2E2E2E2E2E2E2E2E2E2E2E2E2E2E2E2E2ECE2E2ECF5E2E2E2E2E2E2E2E2F5F5F5E2E2E2E2E2F5E2E2E2E2E2E2E2F0E2E2E2E2E2E2E2F5E2E2E2E2E2E2E2E2E2DCDCE2E2E2ECE2E2ECECECECECECECECECECECECECF5F5F5F5F5F5F5F5F5F5F5F5F5F5F5F5F5F5F5F5F5F5F0
310
F5F5F5F5F5F5F5F5F5F5F5F5F5F5F5F5F5E2E2E2E2E2E2E2E2E2E2E2E2E2E2ECE2E2ECE2ECE2E2E2E2F5E2E2E2E2E2E2ECECECECECECECECECECECECECECECECECECECECECECECECECECECECECECECECECECECECECECECECECECE2E2ECF5E2E2E2E2E2E2E2E2F5F5F5E2E2E2E2E2E2F5F5F5F5F5F5F5F5F5F5F5F5F5F5F5F5
310
E2E2E2E2E2E2E2E2E2DCDCE2E2E2ECE2E2E2E2E2E2ECE2E2E2E2E2E2E2E2E2E2E2F5F5F5F5F5E2E2E2E2F5F5E2F5E2E2E2E2F0F0F0F0E2E2F5E2E2E2E2E2E2E2E2E2E2E2E2E2E2E2E2E2E2E2E2E2E2E2E2E2E2E2ECE2E2ECE2ECE2E2E2E2F5E2E2E2E2E2E2E2E2E2E2ECECECECECECE2E2E2E2ECE2E2ECE2E2E2E2ECECECEC
310
E2E2ECE2E2E2E2E2E2E2E2E2E2E2E2E2E2E2ECF5E2E2E2E2E2E2E2E2F5F5F5E2E2E2E2E2E2E2E2F5F5F5F5F5F5F5F5E2F5F5E2E2E2E2E2E2E2E2E2E2E2E2DCDCE2E2E2ECE2E2E2E2E2E2ECE2E2E2E2E2E2E2E2E2E2E2F5E2F5F5F5F5F5F5F5F5F5F5F5F5E2E2E2E2F5F0E2E2E2F5E2E2E2E2E2E2E2E2E2E2E2E2E2E2E2E2E2
310
E2E2E2E2E2E2E2E2DCDCECE2E2ECECECECF5F5F5F5E2E2E2E2E2E2E2E2E2E2ECECE2ECECECECECECECECECECECECE2E2E2E2ECECE2E2E2ECE2E2E2E2E2E2E2E2E2E2E2E2E2E2E2ECF5E2E2E2E2E2E2E2E2F5F5F5E2E2E2E2E2E2E2E2E2F5F5F5F5F5F5F5E2F5E2E2E2E2E2E2E2E2E2E2E2E2E2E2ECE2E2E2ECE2E2E2E2E2E2
310
ECE2E2E2E2E2F5F5F5F5F5F5F5F5F5F5F5F5F5F5F5F5F5F5F5F5E2E2E2E2E2F0E2E2E2F5E2E2E2E2E2E2E2E2E2E2E2E2E2E2E2E2E2E2E2E2E2E2E2E2E2DCDCECE2E2E2E2F5ECE2E2E2E2E2E2E2E2ECECECECECECECECECECECECECECECECECECECECECE2E2E2E2E2ECE2E2E2ECE2E2E2E2E2E2E2E2E2E2E2E2E2E2E2ECF5E2
310
E2E2E2E2E2E2E2F5F5F5E2E2E2E2E2E2E2E2E2F5E2F5F5F5F5F5E2F5E2E2E2E2E2E2E2E2E2E2E2E2E2E2ECE2E2E2ECE2E2E2E2E2E2ECE2E2E2E2E2F5E2E2E2E2E2E2E2E2F5F5F5E2E2F5F5F5F5F5F5E2E2E2E2E2E2E2E2E2F5E2E2E2E2E2E2E2E2E2E2E2E2E2E2E2E2E2E2E2E2E2E2E2E2E2DCDCECE2E2E2E2F5ECE2E2E2E2
310
E2E2E2E2ECE2E2E2E2E2E2E2E2ECECECECE2E2ECECECECECECE2E2E2E2E2E2E2E2E2ECE2E2E2E2E2E2E2E2E2E2E2E2E2E2E2ECF5E2E2E2E2E2E2E2E2F5F5F5E2E2E2E2E2E2E2E2E2F5E2F5F5F5F5F5E2F5E2E2E2E2E2E2E2E2E2E2E2E2E2E2ECE2E2E2ECE2E2E2E2E2E2ECE2E2E2E2E2F5E2E2E2E2E2E2E2E2E2F5E2E2E2E2
310
E2F5E2F5E2F5E2E2E2E2E2E2E2E2F5E2E2E2E2E2E2E2E2E2E2E2E2E2E2E2E2E2E2E2E2E2E2E2E2E2E2E2ECE2E2E2E2F5ECE2E2E2E2E2E2E2E2ECE2E2E2E2E2E2E2E2E2E2ECE2E2E2E2E2ECE2ECE2ECE2E2E2E2E2E2E2E2ECE2E2E2E2E2E2E2E2E2E2E2E2E2E2E2ECF5E2E2E2E2E2E2E2E2F5F5F5E2E2E2E2E2E2E2E2E2F5F5
310
F5F5F5F5F5F5F5E2E2E2E2E2E2E2E2E2E2E2E2E2E2ECE2E2E2ECE2E2E2E2E2E2ECF5F5F5F5F5F5F5F5F5F5F5F5F5F5F5F5F5F5F5F5F5F5F5F5E2F5F5F5F5F5F5F5F5F5F5E2E2E2E2E2E2E2E2E2E2E2E2E2E2E2E2E2E2E2E2E2E2E2E2E2E2E2ECE2E2E2E2F5ECE2E2E2E2ECECECECECECECECECECECECECECECECECECECECEC
310
ECECECE2ECECECECECECECECECECE2E2E2E2E2E2E2E2E2E2E2E2E2E2E2ECF5E2E2E2E2E2E2E2E2F5F5F5F5E2E2E2E2E2E2E2E2F5F5F5F5F5F5F5F5F5E2E2E2E2E2E2E2E2E2E2E2E2E2E2ECE2E2E2ECECECECECECECECF5F5F5F5F5F5F5F5F5F5F5F5F5F5F5F5F5F5F5F5E2E2E2E2E2E2E2E2E2E2E2E2E2E2E2E2E2E2E2E2E2
310
E2E2E2E2E2E2E2E2E2E2E2E2E2E2E2E2E2E2E2E2E2ECE2E2E2E2F5ECE2E2E2ECECECECECECECECECECECECECECECECECECECECECE2E2E2E2E2E2E2E2E2E2E2E2E2E2E2E2E2E2E2E2E2E2E2E2E2E2E2E2E2E2ECF5E2E2E2E2E2F5E2E2F5F5F5F5E2E2E2E2E2E2E2E2E2E2E2F5F5F5F5E2E2E2E2E2E2E2E2E2E2E2E2E2E2E2E2
310
ECE2E2E2E2E2E2E2E2E2E2F5F5E2E2E2E2E2E2E2E2E2E2E2E2E2E2E2E2E2E2F5F5E2E2E2E2E2E2E2E2E2E2E2E2E2E2E2E2E2E2E2E2E2E2E2E2E2E2E2E2E2E2E2E2E2E2E2E2E2E2E2E2E2ECE2E2E2E2F5ECE2E2E2ECECE2E2E2E2E2E2E2E2E2E2E2E2E2E2E2E2E2E2ECECE2E2E2E2E2E2E2E2E2E2E2E2E2E2E2E2E2E2E2E2E2
310
E2E2E2E2E2E2E2E2ECF5E2E2E2E2E2F5E2E2F5F5F5F5E2E2E2E2E2E2E2E2E2E2F5F5F0F5F5E2E2E2E2E2E2E2E2E2E2E2E2E2E2E2E2ECE2E2E2E2E2E2E2E2E2E2F5F5F5F5F5F5F5F5F5F5F5F5F5F5F5F5F5F5F5F5F5F5E2E2E2E2E2E2E2E2E2E2E2E2E2E2E2E2E2E2E2E2E2E2E2E2E2E2E2E2E2E2E2E2E2E2E2E2E2E2E2E2E2
310
ECE2E2E2E2F5ECE2E2E2ECECECECECECECECECECECECECECECECECECECECECECE2E2E2E2E2E2E2E2E2E2E2E2E2E2E2E2E2E2E2E2E2E2E2E2E2E2E2E2E2ECF5E2E2E2E2E2F5E2E2F5F5F5F5E2E2E2E2E2E2E2E2E2E2F5F5F0E2F5E2E2E2E2E2E2E2E2E2E2E2E2E2E2E2E2ECE2E2E2E2E2E2E2E2E2E2F5E2E2E2E2E2E2E2E2E2
310
E2E2E2E2E2E2E2E2E2E2E2E2F5E2E2E2E2E2E2E2E2E2E2E2E2E2E2E2E2E2E2E2E2E2E2E2E2E2E2E2E2E2E2E2E2E2E2E2E2E2E2E2E2ECE2E2E2E2F5ECE2E2E2ECE2E2E2E2E2E2E2E2E2E2E2E2E2E2E2E2E2E2E2E2E2ECE2E2E2E2E2E2E2E2E2E2E2E2E2E2E2E2E2E2E2E2E2E2E2E2E2E2E2E2ECF5E2E2E2E2E2F5E2E2F5F5F5
310
F5E2E2E2E2E2E2E2E2E2F5F5F5F0F5F5F5F5E2E2E2E2E2E2E2E2E2E2E2E2E2E2ECE2E2E2E2E2E2E2E2E2E2F5F5F5F5F5F5F5F5F5F5F5F5F5F5E2E2E2E2E2E2E2E2F5E2E2E2E2E2E2E2E2E2E2E2E2E2E2E2E2E2E2E2E2E2E2E2E2E2E2E2E2E2E2E2E2E2E2E2E2E2E2E2E2ECE2E2E2E2F5ECE2E2E2ECECECECECECECECECECEC
310
ECECECE2E2E2E2E2E2E2E2ECE2E2E2E2E2E2E2E2E2E2E2E2E2E2E2E2E2E2E2E2E2E2E2E2E2E2E2E2ECF5E2E2E2E2E2F5E2E2F5F5F5F5E2E2E2E2E2E2E2E2E2F5F5F5F0F5F5F5F5E2E2E2E2E2E2E2E2E2E2E2E2E2E2ECE2E2E2E2E2E2E2E2E2E2E2E2E2E2E2E2E2E2E2E2F5F5E2F5E2E2E2E2E2E2E2E2E2F5E2E2E2E2E2E2E2
310
E2E2E2E2E2E2E2E2E2E2E2E2E2E2E2E2E2E2E2E2E2E2E2E2E2E2E2E2E2E2E2E2ECE2E2E2E2F5ECE2E2E2E2E2E2E2E2E2E2E2E2E2ECECE2ECE2E2E2E2E2E2E2E2E2ECE2E2E2E2E2E2E2E2E2E2E2E2E2E2E2E2E2E2E2E2E2E2E2E2E2E2E2ECF5E2E2E2E2E2F5E2E2F5F5F5F5E2E2E2E2E2E2E2E2F5F5F5F5F0F5F5E2F5F5E2E2
310
E2E2E2E2E2E2E2E2E2E2E2ECE2E2E2E2E2E2E2E2E2E2E2E2E2E2E2E2E2E2E2E2F5F5E2F5E2E2E2E2E2E2E2E2E2E2F5E2E2E2E2E2E2E2E2E2E2E2E2E2E2E2E2E2E2E2E2E2E2E2E2E2E2E2E2E2E2E2E2E2E2E2E2E2E2ECE2E2E2E2F5ECE2E2E2E2E2E2E2E2E2E2E2E2E2ECECE2ECE2E2E2E2E2E2E2E2E2E2ECE2E2E2E2E2E2E2
310
E2E2E2E2E2E2E2E2E2E2E2E2E2E2E2E2E2E2E2ECF5E2E2E2E2E2F5E2E2F5F5F5F5E2E2E2E2E2E2E2F5F5F5F5F5F0F5F5E2F5F5E2E2E2E2E2E2E2E2E2E2E2E2E2ECE2E2E2E2E2E2E2E2E2E2E2E2E2E2E2E2E2E2E2E2F5F5E2F5E2E2E2E2E2E2E2E2E2E2F5E2E2E2E2E2E2E2E2E2E2E2E2E2E2E2E2E2E2E2E2E2E2E2E2E2E2E2
310
E2E2E2E2E2E2E2E2E2E2E2ECE2E2E2E2F5ECE2E2E2E2E2E2E2E2E2E2E2E2E2ECECE2ECE2E2E2E2E2E2E2E2E2E2ECE2E2E2E2E2E2E2E2E2E2E2E2E2E2E2E2E2E2E2E2E2E2E2E2E2E2ECF5E2E2E2E2E2F5E2E2F5F5F5F5E2E2E2E2E2E2F5F5E2F5E2F5F0E2F5E2F5E2F5E2E2E2E2E2E2E2E2E2E2E2E2ECE2E2E2E2E2E2E2E2E2
310
E2E2E2E2E2E2E2E2E2E2E2F5F5E2F5E2E2E2E2E2E2E2E2E2E2E2F5E2E2E2E2E2E2E2E2E2E2E2E2E2E2E2E2E2E2E2E2E2E2E2E2E2E2E2E2E2E2E2E2E2E2E2E2E2ECE2E2E2E2F5ECE2E2E2E2E2E2E2E2E2E2E2E2E2ECE2E2ECE2E2E2E2E2E2E2E2E2E2E2ECE2E2E2E2E2E2E2E2E2E2E2E2E2E2E2E2E2E2E2E2E2E2E2E2E2ECF5
310
E2E2E2E2E2F5E2E2F5F5F5F5E2E2E2E2E2E2F5E2E2F5F5F5F5F5F5F5F5E2E2F5E2E2E2E2E2E2E2E2E2E2E2ECE2E2E2E2E2E2E2E2E2E2E2E2E2E2E2E2E2E2E2E2F5F5F5F5E2E2E2E2E2E2E2E2E2E2E2E2F5E2E2E2E2E2E2E2E2E2E2E2E2E2E2E2E2E2E2E2E2E2E2E2E2E2E2E2E2E2E2E2E2E2E2E2E2ECE2E2E2E2F5ECE2E2E2
310
E2E2E2E2E2E2E2E2E2E2ECECECECE2E2E2E2E2E2E2E2E2E2E2E2ECE2E2E2E2E2E2E2E2E2E2E2E2E2E2E2E2E2E2E2E2E2E2E2E2ECF5E2E2E2E2E2F5E2E2F5F5F5F5E2E2E2E2E2F5E2E2E2E2E2E2F0E2E2E2E2E2E2F5F5E2E2E2E2E2E2E2E2E2E2ECE2E2E2E2E2E2E2E2E2E2E2E2E2E2E2E2E2E2E2E2E2E2E2F5E2E2E2E2E2E2
310
E2E2E2E2E2E2F5E2E2E2E2E2E2E2E2E2E2E2E2E2E2E2E2E2E2E2E2E2E2E2E2E2E2E2E2E2E2E2E2E2E2E2E2ECE2E2E2E2F5ECE2E2E2E2E2E2E2E2E2E2E2E2E2E2E2E2ECE2E2E2E2E2E2E2E2E2E2E2E2ECE2E2E2E2E2E2E2E2E2E2E2E2E2E2E2E2E2E2E2E2E2E2E2E2ECF5E2E2E2E2E2F5E2E2F5F5F5F5E2E2E2E2F5F5E2E2E2
310
E2E2E2F0E2E2E2E2E2E2E2F5E2E2E2E2E2E2E2E2E2E2ECE2E2E2E2E2E2E2E2E2E2E2E2E2E2E2E2E2E2E2E2E2E2E2F5E2E2E2E2E2E2E2E2E2E2E2E2E2F5E2E2E2E2E2E2E2E2E2E2E2E2E2E2E2E2E2E2E2E2E2E2E2E2E2E2E2E2E2E2E2E2E2E2E2ECE2E2E2E2F5ECE2E2E2E2E2E2E2E2E2E2E2E2E2E2E2E2ECE2E2E2E2E2E2E2
310
E2E2E2E2E2E2ECE2E2E2E2E2E2E2E2E2E2E2E2E2E2E2E2E2E2E2E2E2E2E2ECF5E2E2E2E2E2F5E2E2F5F5F5F5E2E2E2E2F5E2E2E2E2E2E2E2F0E2E2E2E2E2E2E2F5F5E2E2E2E2E2E2E2E2E2ECE2E2E2E2E2E2E2E2E2E2E2E2E2E2E2E2E2E2E2E2E2E2E2F5E2E2E2E2E2E2E2E2E2E2E2E2E2F5E2E2E2E2E2E2E2E2E2E2E2E2E2
310
E2E2E2E2E2E2E2E2E2E2E2E2E2E2E2E2E2E2E2E2E2E2ECE2E2E2E2F5ECE2E2E2E2E2E2E2E2E2E2E2E2E2E2E2E2ECECECECECECECECECECECECE2E2ECE2E2E2E2E2E2E2E2E2E2E2E2E2E2E2E2E2E2E2E2E2E2E2ECF5E2E2E2E2E2F5E2E2F5F5F5F5E2E2E2ECF5F5F5F5F5F5F5F5F5F5F5F5F5F5F5F5F5ECECECECECECECECEC
310
ECECECE2E2E2E2E2E2E2E2E2E2E2E2E2E2E2E2E2E2E2E2E2E2F5F5F5F5F5F5F5F5F5F5F5F5F5F5F5F5E2E2E2E2E2E2E2E2E2E2E2E2E2E2E2E2E2E2E2E2E2E2E2E2E2E2E2E2E2E2E2E2E2E2ECE2E2E2E2F5ECE2E2E2E2E2E2E2E2E2E2E2E2E2E2E2E2ECECECECECECECECECECECECECECECECE2E2ECE2E2E2E2E2E2E2E2E2E2
310
E2E2E2E2E2E2E2E2E2ECF5E2E2E2E2E2F5E2E2F5F5F5F5E2E2E2ECE2E2E2E2E2E2E2E2F0E2E2E2E2E2E2E2E2ECE2E2E2E2E2E2E2E2E2E2E2E2E2E2E2E2E2E2E2E2E2E2E2E2E2E2E2E2E2E2E2E2E2E2E2E2E2E2E2E2E2E2E2E2E2E2E2E2E2E2E2E2E2E2E2E2E2E2E2E2E2E2E2E2E2E2E2E2E2E2E2E2E2E2E2E2E2E2E2E2E2E2
310
E2ECE2E2E2E2F5ECE2E2E2E2E2E2E2E2E2E2E2E2E2E2E2E2ECE2E2E2E2E2E2E2E2E2E2E2ECE2E2E2E2E2ECE2E2E2E2E2E2E2E2E2E2E2E2E2E2E2E2E2E2E2ECF5E2E2E2E2E2F5E2E2F5F5F5F5E2E2E2ECE2E2E2E2E2E2E2E2E2E2E2E2E2E2E2E2E2ECE2E2E2E2E2E2E2E2E2E2E2E2E2E2E2E2E2E2E2E2E2E2E2E2E2E2E2E2E2
310
E2E2E2E2E2E2E2E2E2E2E2E2E2E2E2E2E2E2E2E2E2E2E2E2E2E2E2E2E2E2E2E2E2E2E2E2E2E2E2E2E2E2E2E2E2E2E2E2E2E2E2E2E2E2ECE2E2E2E2F5ECE2E2E2E2E2E2E2E2E2E2E2E2E2ECECECECECECECECECECECECECECECECECECECE2E2ECE2E2E2E2E2E2E2E2E2E2E2E2E2E2E2E2E2E2E2ECF5E2E2E2E2E2F5E2E2F5F5
310
F5E2E2E2E2ECE2E2E2E2E2E2E2E2E2E2E2E2E2E2E2E2E2ECE2E2E2E2E2E2E2E2E2E2E2E2E2E2E2E2E2E2E2E2E2E2E2E2E2E2E2E2E2E2E2E2E2E2E2E2E2E2E2E2E2E2E2E2E2E2E2E2E2E2E2E2E2E2E2E2E2E2E2E2E2E2E2E2E2E2E2E2E2E2E2E2E2E2E2E2E2E2E2E2E2E2ECECECECECECECECECECECECECECECECECECECECEC
310
ECECF5ECECECECECECECECECECECF5F5ECF5ECF5F5ECF5F5ECECECECECECECECECECECECECECECECECECF5E2E2E2E2E2E2E2E2F5F5F5E2E2E2E2ECE2E2E2E2E2E2E2E2E2E2E2E2E2E2E2E2E2ECE2E2E2E2E2E2E2E2E2E2E2E2E2E2E2E2E2E2E2E2E2E2E2E2E2E2E2E2E2E2E2E2E2E2E2E2E2E2E2E2E2E2E2E2E2E2E2E2E2E2
310
E2E2E2E2E2E2E2E2E2E2E2E2E2E2E2E2E2E2E2E2E2E2E2E2E2E2E2E2E2E2E2E2ECECE2E2E2E2E2E2E2E2E2E2E2E2E2E2E2E2E2E2E2E2E2F5F5F5F5F5F5F5F5F5F5F5F5F5F5F5F5F5F5F5ECF5F5E2E2E2E2E2E2E2E2E2E2E2E2E2E2E2E2E2E2E2E2E2E2E2E2E2E2E2F5F5F5E2E2E2E2ECE2E2E2E2E2E2E2E2E2E2E2E2E2E2E2
310
E2E2ECE2E2E2E2E2E2E2E2E2E2E2E2E2E2E2E2E2E2E2E2E2E2E2E2E2E2E2E2E2E2E2E2E2E2E2E2E2E2E2E2E2E2E2E2E2E2E2E2E2E2E2E2E2E2E2E2E2E2E2E2E2E2E2E2E2E2E2E2E2E2E2E2E2E2E2E2E2E2E2E2E2E2E2ECE2E2E2E2E2E2E2E2E2E2E2E2E2E2E2E2E2E2E2E2F5F5E2E2E2E2E2E2E2E2E2F5F5F5F5F5F5F5F5F5
310
ECF5F5E2E2E2E2E2E2E2E2E2E2E2E2E2E2E2E2E2E2E2E2E2E2E2E2E2E2E2F5F5F5E2E2E2E2ECECECECECECECECECECECECECECECECECECECE2E2E2E2E2E2E2E2E2E2E2E2E2E2E2E2E2E2E2E2E2E2E2E2E2E2E2E2E2E2E2E2E2E2E2E2E2E2E2E2E2E2E2E2E2E2E2E2E2E2E2E2E2E2E2E2E2E2E2E2E2E2E2E2E2E2E2E2E2E2E2
310
E2E2E2E2E2E2E2E2E2E2E2E2ECE2E2E2E2E2E2E2E2E2E2E2E2E2E2E2E2E2E2E2E2F5F5E2E2E2E2E2E2E2E2E2E2E2E2E2E2E2F5F5F5ECF5F5E2E2E2E2E2E2E2E2E2E2E2E2E2E2E2E2E2E2E2E2E2E2E2E2E2E2E2F5F5F5E2E2E2E2ECECE2E2E2E2E2E2DCDCDCE2E2E2E2E2E2E2ECE2E2E2E2E2E2E2E2E2E2E2E2E2E2E2E2E2E2
310
E2E2E2E2E2E2E2E2E2E2E2E2E2E2E2E2E2E2E2E2E2E2E2E2E2E2E2E2E2E2E2E2E2E2E2E2E2E2E2E2E2E2E2E2E2E2E2E2E2E2E2E2E2E2E2E2E2E2E2E2E2E2E2DCDCECE2E2E2E2E2E2E2E2E2E2E2E2E2E2E2E2E2E2E2E2E2E2E2E2E2E2E2E2E2E2E2E2E2E2E2E2E2F5F5F5ECF5F5E2E2E2E2E2E2E2E2E2E2E2E2E2E2E2E2E2E2
310
E2E2E2E2E2E2E2E2E2F5F5F5E2E2E2E2E2E2E2E2E2E2E2E2DCDCDCE2E2E2E2E2E2E2E2E2E2E2E2E2E2E2E2E2E2E2E2E2E2E2E2E2E2E2E2E2E2E2E2E2E2E2E2E2E2E2E2E2E2E2E2E2E2E2E2E2E2E2E2E2E2E2E2E2E2E2E2E2E2E2E2E2E2E2E2E2E2E2E2E2E2E2E2E2E2E2E2E2E2E2E2E2E2E2E2E2DCDCECE2E2E2E2E2E2E2E2
310
E2E2E2E2E2E2E2E2E2E2E2E2E2E2E2E2E2E2E2E2E2E2E2E2E2E2E2E2E2F5F5F5ECF5F5E2E2E2E2E2E2E2E2E2E2E2E2E2E2E2E2E2E2E2E2E2E2E2E2E2E2E2F5F5F5E2E2E2E2E2E2E2E2E2E2E2E2E2E2E2E2E2E2E2E2E2E2E2E2E2E2E2E2E2E2E2E2E2E2E2E2E2E2E2E2E2E2E2E2E2E2E2E2E2E2E2E2E2E2E2E2E2E2E2E2E2E2
310
E2E2E2E2E2E2E2E2E2E2E2E2E2E2E2E2E2E2E2E2E2E2E2E2E2E2E2E2E2E2E2E2E2E2E2E2E2E2E2E2E2E2E2E2ECE2E2E2E2E2E2E2E2E2E2E2E2E2E2E2E2E2E2E2E2E2E2E2E2E2E2E2E2E2E2E2E2E2E2E2E2E2F5F5F5E2F5F5E2E2E2E2E2E2E2E2E2E2E2E2E2E2E2E2E2E2E2E2E2E2E2E2E2E2E2F5F5F5E2E2E2E2E2E2E2E2E2
310
E2E2E2E2E2E2E2E2E2E2E2E2E2E2E2E2E2E2E2E2E2E2E2E2E2E2E2E2E2E2E2E2E2E2E2E2E2E2E2E2E2E2E2E2E2E2E2E2E2E2E2E2E2E2E2E2E2E2E2E2E2E2E2E2E2E2E2E2E2E2E2E2E2E2E2E2E2E2E2E2E2E2E2E2E2E2E2E2E2E2E2E2E2E2E2E2E2ECE2E2E2E2E2E2E2E2E2E2E2E2E2E2E2E2E2E2E2E2E2E2E2E2E2E2E2E2E2
310
E2E2E2E2E2E2E2E2ECECECECECECE2E2E2E2E2E2E2E2E2E2E2E2E2E2E2E2E2E2E2E2E2E2E2E2E2E2E2F5F5F5E2E2E2E2E2E2E2E2E2E2E2E2E2E2E2E2E2E2E2E2E2E2E2E2E2E2E2E2E2E2E2E2E2E2E2E2E2E2E2E2E2E2E2E2E2E2E2E2E2E2E2E2E2E2E2E2E2E2E2E2E2E2E2E2E2E2E2E2E2E2E2E2E2E2E2E2E2E2E2E2E2E2E2
310
E2E2E2E2E2E2E2E2E2E2E2E2E2E2E2E2E2E2E2E2E2E2ECECE2E2E2E2E2E2E2E2E2E2E2E2E2E2E2E2E2E2E2E2E2E2E2E2E2E2E2E2E2E2E2E2E2E2E2E2E2F5F5F5E2F5F5E2E2E2E2E2E2E2E2E2E2E2E2E2E2E2E2E2E2E2E2E2E2E2E2E2E2E2F5F5F5F5E2E2E2E2E2E2E2E2E2E2E2E2E2E2E2E2E2E2E2E2E2E2E2E2E2E2E2E2E2
310
E2E2E2E2E2E2E2E2E2E2E2E2E2E2E2E2E2E2E2E2E2E2E2E2E2E2E2E2E2E2E2E2E2E2E2E2E2E2E2E2E2E2E2E2E2E2E2E2E2E2E2E2E2E2E2E2E2E2E2E2E2E2E2E2E2E2E2E2E2E2E2E2E2E2E2ECECECECECECECECECECECECECECECECECECECECECECECECECECECECECECECECECECECECECECECECF5F5F5F5ECE2E2E2E2E2E2E2
310
E2E2E2E2E2E2E2E2E2E2E2E2E2E2E2E2E2F5E2E2F5F5F5F5E2E2E2E2E2E2E2E2E2E2E2E2E2E2E2E2E2E2E2E2E2E2E2E2E2E2E2E2E2E2E2E2E2E2E2E2E2E2E2E2E2E2E2E2E2E2E2E2E2E2E2E2E2E2E2E2E2E2E2E2E2E2E2E2E2E2E2E2E2E2E2E2E2E2E2E2E2E2E2E2E2E2E2E2E2E2E2E2E2E2E2E2E2E2E2E2E2E2E2E2E2E2E2
310
E2E2E2E2E2E2E2E2E2E2E2E2E2E2E2E2E2E2E2E2E2E2E2E2E2E2E2E2E2E2E2E2E2E2E2E2E2E2E2E2ECE2E2E2E2ECE2E2E2E2E2E2E2E2E2E2E2E2E2E2E2E2E2E2E2E2E2E2E2E2F5E2E2F5F5F5F5E2E2E2E2E2E2E2E2E2E2E2E2E2E2E2E2E2E2E2E2E2E2E2E2E2E2E2E2E2E2E2E2E2E2E2E2E2E2E2E2E2E2E2E2E2E2E2E2E2E2
310
E2E2E2E2E2E2E2E2E2E2E2E2E2E2E2E2E2E2E2E2E2E2E2E2E2E2E2E2E2E2E2E2E2E2E2E2E2E2E2E2E2E2E2E2E2E2E2E2E2E2E2E2E2E2E2E2E2E2E2E2E2E2E2E2E2E2E2E2E2E2E2E2E2E2E2E2E2E2E2E2E2E2E2E2E2E2E2E2E2E2E2E2E2ECE2E2E2E2ECE2E2E2E2E2E2E2E2E2E2E2E2E2E2E2E2E2E2E2E2E2E2E2E2F5E2E2F5
310
F5F5F5E2E2E2E2E2E2E2E2E2E2E2E2E2E2E2E2E2E2E2E2E2E2E2E2E2E2E2E2E2E2E2E2E2E2E2E2E2E2E2E2E2E2E2E2E2E2E2E2E2E2E2E2E2E2E2E2E2E2E2E2E2E2E2E2E2E2E2E2E2E2E2E2E2E2E2E2E2E2E2E2E2E2E2E2E2E2E2E2E2E2E2E2E2E2E2E2E2E2E2E2E2E2E2E2E2E2E2E2E2E2E2E2E2E2E2E2E2E2E2E2E2E2E2E2
310
E2E2E2E2E2E2E2E2E2E2E2E2E2E2E2E2E2E2E2ECE2E2E2E2ECE2E2E2E2E2E2E2E2E2E2E2E2E2E2E2E2E2E2E2E2E2E2E2E2F5E2E2F5F5F5F5E2E2E2E2E2E2E2E2E2E2E2E2E2E2E2E2E2E2E2E2E2E2E2E2E2E2E2E2E2E2E2E2E2E2E2E2E2E2E2E2E2E2E2E2E2E2E2E2E2E2E2E2E2E2E2E2E2E2E2E2E2E2E2E2E2E2E2E2E2E2E2
310
E2E2E2E2E2E2E2E2E2E2E2E2E2E2E2E2E2E2E2E2E2E2E2E2E2E2E2E2E2E2E2E2E2E2E2E2E2E2E2E2E2E2E2E2E2E2E2E2E2E2E2E2E2E2E2E2E2E2E2E2E2E2E2E2E2E2E2E2E2E2E2E2ECE2E2E2E2ECE2E2E2E2E2E2E2E2E2E2E2E2E2E2E2E2E2E2E2E2E2E2E2E2F5E2E2F5F5F5F5E2E2E2E2E2E2E2E2E2E2E2E2E2E2E2E2E2E2
310
E2E2E2E2E2E2E2E2E2E2E2E2E2E2E2E2E2E2E2E2E2E2E2E2E2E2E2E2E2E2E2E2E2E2E2E2E2ECECECECECECECECECECECECECECECECE2E2E2E2E2E2E2E2E2E2E2E2E2E2E2E2E2E2E2E2E2E2E2E2E2E2E2E2E2E2E2E2E2E2E2E2ECECECECDCDCDCDCECE2E2E2E2E2E2E2E2E2E2E2E2E2E2E2E2E2E2E2E2E2E2E2E2E2E2E2ECE2
310
E2E2E2ECE2E2E2E2E2E2E2E2E2E2E2E2E2E2E2E2E2E2E2E2E2E2E2E2F5E2E2F5F5F5F5E2E2E2E2E2E2E2E2E2E2E2E2E2E2E2E2E2E2E2E2E2E2E2E2E2E2E2E2E2E2E2E2E2E2E2E2E2E2E2E2E2E2E2E2E2E2E2E2E2E2E2E2E2E2E2ECE2E2E2E2E2E2DCDCE2E2E2E2E2E2ECE2E2E2E2E2E2E2E2E2E2E2E2E2E2E2E2E2E2E2E2E2
310
E2E2E2E2E2E2E2E2E2E2E2E2E2E2E2E2E2E2E2DCDCDCDCE2ECE2E2E2E2E2E2E2E2E2E2E2E2E2E2E2E2E2E2E2E2E2E2E2E2E2E2ECECDCDCECECE2E2E2E2E2E2E2E2E2E2E2E2E2E2E2E2E2E2E2E2E2E2E2E2F5E2E2F5F5F5F5E2E2E2E2E2E2E2E2E2E2E2E2E2E2E2E2E2E2E2E2E2E2E2E2E2E2E2E2E2E2E2E2E2E2E2E2E2E2E2
310
E2E2E2E2E2E2E2E2E2E2E2E2E2E2E2E2ECE2E2E2E2E2E2E2E2E2E2E2E2E2E2ECE2E2E2E2E2E2E2E2E2E2E2E2E2E2E2E2E2E2E2E2E2E2E2E2E2E2E2E2E2E2E2E2E2E2E2E2E2E2E2E2E2E2E2E2E2ECE2E2E2E2E2E2E2E2E2E2E2E2E2E2E2E2E2E2E2E2E2E2E2E2E2E2E2E2DCDCE2E2E2E2E2E2E2E2E2E2E2E2E2E2E2E2E2E2E2
310
E2E2E2E2E2E2E2F5E2E2F5F5F5F5E2E2E2E2E2E2E2E2E2E2E2E2E2E2E2E2E2E2E2E2E2E2E2E2E2E2E2E2E2E2E2E2E2E2E2E2E2E2E2E2E2E2E2E2E2E2E2E2E2E2E2E2E2E2E2ECE2E2E2E2E2E2E2E2E2E2E2E2E2E2ECE2E2E2E2E2E2E2E2E2E2E2E2E2E2E2E2E2E2E2E2E2E2E2E2E2E2E2E2E2E2E2E2E2E2E2E2E2E2E2E2E2E2
310
E2E2E2E2ECE2E2E2E2E2E2E2E2E2E2E2E2E2E2E2E2E2E2E2E2E2E2E2E2E2E2E2E2E2E2E2E2E2E2E2E2E2E2E2E2E2E2E2E2E2E2E2E2E2E2E2E2E2E2E2F5E2E2F5F5F5F5E2E2E2E2E2E2E2E2E2E2E2E2E2E2E2E2E2E2E2E2E2E2E2E2E2E2E2E2E2E2E2E2E2E2E2E2E2E2E2E2E2E2E2E2E2E2E2E2E2E2E2E2E2E2E2ECE2E2E2E2
310
E2E2E2E2E2E2E2E2E2E2ECE2E2E2E2E2E2E2E2E2E2E2E2E2E2E2E2E2E2E2E2E2E2E2E2E2E2E2E2E2E2E2E2E2E2E2E2E2E2E2E2E2E2E2E2E2E2ECE2E2E2E2E2E2E2E2E2E2E2E2E2E2E2E2E2E2E2E2E2E2E2E2E2E2E2E2E2E2E2E2E2E2E2E2E2E2E2E2E2E2E2E2E2E2E2E2E2E2E2E2E2E2E2F5E2E2F5F5F5F5E2E2E2E2E2E2E2
310
E2E2E2E2E2E2E2E2E2E2E2E2E2E2E2E2E2E2E2E2E2E2E2E2E2E2E2E2E2E2E2E2E2E2E2E2E2E2E2E2E2E2E2E2E2E2E2E2ECE2E2E2E2E2E2E2E2E2E2E2E2E2E2ECE2E2E2E2E2E2E2E2E2E2E2E2E2E2E2E2E2E2E2E2E2E2E2E2E2E2E2E2E2E2E2E2E2E2E2E2E2E2E2E2E2E2E2E2E2E2E2ECE2E2E2E2E2E2E2E2E2E2E2E2E2E2E2
310
E2E2E2E2E2E2E2E2E2E2E2E2E2E2E2E2E2E2E2E2E2E2E2E2E2E2E2E2E2E2E2E2E2E2E2E2E2E2E2F5E2E2F5F5F5F5E2E2E2E2E2E2E2E2E2E2E2E2E2E2E2E2E2E2E2E2E2E2E2E2E2E2E2E2E2E2E2E2E2E2E2E2E2E2E2E2E2E2E2E2E2E2E2E2E2E2E2E2E2E2E2ECE2E2E2E2E2E2E2E2E2E2E2E2E2E2ECE2E2E2E2E2E2E2E2E2E2
310
E2E2E2E2E2E2E2E2E2E2E2E2E2E2E2E2E2E2E2E2E2E2E2E2E2E2E2E2E2E2E2E2E2E2E2E2E2ECE2E2E2E2E2E2E2E2E2E2E2E2E2E2E2E2E2E2E2E2E2E2E2E2E2E2E2E2E2E2E2E2E2E2E2E2E2E2E2E2E2E2E2E2E2E2E2E2E2E2E2E2E2E2F5E2E2F5F5F5F5E2E2E2E2E2E2E2E2E2E2E2E2E2E2E2E2E2E2E2E2E2E2E2E2E2E2E2E2
310
E2E2E2E2E2E2E2E2E2E2E2E2E2E2E2E2E2E2E2E2E2E2E2E2E2E2E2ECE2E2E2E2E2E2E2E2E2E2E2E2E2E2ECE2E2E2E2E2E2E2E2E2E2E2E2E2E2E2E2E2E2E2E2E2E2E2E2E2E2E2E2E2E2E2E2E2E2ECECECECECECECF5F5F5F5F5F5F5ECF5F5F5F5F5F5F5F5F5F5F5F5F5F5F5F5F5F5F5F5F5F5F5F5F5F5F5F5F5F5F5F5F5F5F5
310
F5F5F5F5F5F5F5F5F5F5F5ECF5E2E2E2E2E2F5E2E2F5F5F5F5E2E2E2E2E2E2E2E2E2E2E2E2E2E2E2E2E2E2E2E2E2E2E2E2E2E2E2E2ECECECECECECECECECECECECECECECECECECECECECECECECECECECECECF5F0F5F5E2E2E2E2E2E2E2E2E2ECE2E2E2E2E2E2E2E2F5F5F0F5F5E2E2E2E2E2E2E2E2E2E2E2E2E2E2E2E2E2E2
310
E2E2E2ECE2E2E2E2F5ECECECECECECECECECECECECECECECECECECECECECECECECECECECECECECECECECECECECECECECECECECECECECECECECECECECECECECECECF5E2E2E2E2E2F5E2E2F5F5F5F5E2E2E2E2E2E2E2E2E2E2E2E2E2E2E2E2E2E2E2E2E2E2E2E2E2E2E2E2E2ECE2E2E2E2E2E2E2E2E2E2E2E2E2E2E2E2E2E2E2
310
E2E2E2E2E2E2ECF5F5F0E2F5E2E2E2E2E2E2E2E2E2ECE2E2E2E2E2E2E2E2F5E2F0F5F5E2E2E2E2E2E2E2E2E2E2E2E2E2E2E2E2E2E2E2E2E2ECE2E2E2E2F5ECE2E2E2E2E2E2E2E2ECE2E2E2E2E2E2E2E2ECECECECE2E2E2E2E2E2E2E2E2E2F5F5F5F5F5F5E2E2E2ECE2ECECECE2E2E2E2E2E2E2E2E2ECF5E2E2E2E2E2F5E2E2
310
F5F5F5F5E2E2E2E2E2E2E2E2E2E2E2E2E2E2E2E2E2E2E2E2E2E2E2E2E2E2E2E2E2ECE2E2ECECECECECECECECECECECECECECECECECECECECECECECECECECECF0F5F5F5F5F5F5F5F5F5F5ECE2E2E2E2E2E2E2E2F5F0F0F0F0E2E2E2E2E2E2E2E2E2E2E2E2E2E2E2E2E2E2E2E2E2ECE2E2E2E2F5ECE2E2E2E2E2E2E2E2E2E2E2
310
E2E2E2ECECECECECECECECECECECECECECF5F5F5ECF5F5E2F5F5E2E2E2ECECECECECE2E2E2E2E2E2E2E2E2ECF5E2E2E2E2E2F5E2E2F5F5F5E2E2E2E2E2E2E2E2E2E2E2E2E2E2E2E2E2E2E2E2E2E2E2E2E2E2E2E2E2E2ECE2E2ECE2E2ECECECECECECECECECECECECECECECECF5F5F5F5F5E2E2F0E2E2E2E2E2E2E2E2E2E2F5
310
F5F5F5F5F5F5F5F5F5F5F5F0F5F5F5F5F5F5F5F5F5E2E2E2E2E2E2E2E2E2E2E2E2E2E2ECE2E2E2E2F5ECE2E2E2E2E2E2E2E2E2E2ECECECECF5F5F5E2E2ECE2E2E2E2E2E2E2E2F5F5F5ECECECECECECECECECECECECECECECECECECECECECE2E2ECF5E2E2E2E2E2E2E2E2F5F5F5E2E2E2E2E2E2E2E2E2E2E2E2E2E2E2E2E2E2
310
E2E2E2E2E2E2E2E2E2E2E2E2ECE2E2ECE2E2ECE2E2E2E2E2E2E2E2E2E2E2E2E2E2F5E2E2E2E2F5E2E2E2E2E2E2E2E2E2E2E2E2F5E2F5E2E2E2E2E2E2E2E2E2E2E2E2E2E2E2E2E2E2E2F5E2E2E2E2E2E2E2E2E2E2E2E2E2E2ECE2E2E2E2F5ECE2E2E2E2E2E2E2E2E2E2ECE2E2ECF5F5ECECECECECECECECECECECECECF5F5EC
310
F5F5E2F5F5E2E2E2E2E2E2E2E2E2E2E2E2E2E2ECE2E2ECF5E2E2E2E2E2E2E2E2F5F5F5E2E2E2E2E2E2E2E2E2E2E2E2E2E2E2E2E2E2E2E2E2E2E2E2E2E2E2E2E2E2ECE2E2ECE2E2ECE2E2E2E2E2E2E2E2E2E2E2E2E2E2F5E2E2E2E2F5E2E2E2E2E2E2E2E2E2E2E2E2F5E2F5E2E2E2E2E2E2E2E2E2E2E2E2E2E2E2E2E2E2E2F5
310
E2E2E2E2E2E2E2E2E2E2E2E2E2E2ECE2E2E2E2F5ECE2E2E2E2E2E2E2E2E2E2ECE2E2ECF5ECECECE2E2E2E2E2E2E2F5F5F5ECF5F5ECF5F5E2F5F5E2E2E2E2E2E2E2E2E2E2E2E2E2E2ECE2E2ECF5E2E2E2E2E2E2E2E2F5F5F5E2E2E2E2E2E2E2E2E2E2E2E2E2E2E2E2E2E2E2E2E2E2E2E2E2E2E2E2E2E2ECE2E2ECE2E2ECE2E2
310
E2E2E2E2E2E2E2E2E2E2E2E2F5E2E2E2E2F5E2E2E2E2E2E2E2E2E2E2E2F5E2E2F5E2E2E2E2E2E2E2E2E2E2E2E2E2E2E2E2E2E2E2F5E2E2E2E2E2E2E2E2E2E2E2E2E2E2ECE2E2E2E2F5ECE2E2E2E2E2E2E2ECECECECECECECECECECECECECECECECECECF5ECECF5F5F5ECF5F5E2F5F5E2E2E2E2E2E2E2E2E2E2E2E2E2E2ECE2
310
E2ECF5E2E2E2E2E2E2E2E2F5F5F5E2E2E2E2E2E2E2E2E2E2E2E2E2E2E2E2E2E2E2E2E2E2E2E2E2E2E2E2E2E2ECE2E2ECE2E2ECE2E2E2E2E2E2E2E2E2E2E2E2E2E2F5E2E2E2E2F5E2E2E2E2E2E2E2E2E2E2F5E2E2E2F5F5F5F5F5F5F5F5E2E2E2E2E2E2E2E2E2E2E2E2F5E2E2E2E2E2E2E2E2E2E2E2E2E2E2ECE2E2E2E2F5EC
310
E2E2E2E2E2E2E2ECE2E2ECE2E2ECF5ECECECECECECECECECECF5ECECF5F5F5ECECECECECECECECE2E2E2E2E2E2E2E2E2E2E2E2ECE2E2ECF5E2E2E2E2E2E2E2E2F5F5F5E2E2E2E2E2E2E2E2E2E2E2E2E2E2E2E2E2E2E2E2E2E2E2E2E2E2E2E2E2E2ECE2E2ECE2E2ECE2ECECECECECECF5F5F5F5F5F5F5F5F5F5F5F5F5E2E2E2
310
E2E2E2E2E2E2F5E2E2E2E2F5E2E2E2E2E2E2F5E2E2E2E2E2E2E2E2E2E2E2E2F5E2E2E2E2E2E2E2E2E2E2E2E2E2E2ECE2E2E2E2F5ECE2E2E2ECECECECECECECECECECECF5ECECECE2E2E2E2E2E2E2F5ECECF5ECF5ECF5F5E2F5F5E2ECE2E2E2E2E2E2E2E2E2E2E2E2ECE2E2ECF5E2E2E2E2E2E2E2E2F5F5F5E2E2E2E2E2E2E2
310
E2E2E2E2E2E2E2E2E2E2E2E2E2E2E2E2E2E2E2E2E2E2E2ECE2E2ECE2E2ECE2E2ECE2E2E2F5E2E2E2E2E2E2E2E2E2F5E2F5F5E2E2E2E2E2E2E2E2F5E2E2E2E2E2F5E2E2E2E2E2E2F5E2E2E2E2E2E2E2E2E2E2E2E2F5F5E2E2E2E2E2E2E2E2E2E2E2E2E2ECE2E2E2E2F5ECE2E2E2ECE2E2E2ECE2E2E2E2E2ECF5ECECECE2E2E2
310
E2E2E2E2F5F5ECF5F5F5ECF5F5E2F5F5E2ECE2E2E2E2E2E2E2E2E2E2E2E2ECECE2ECF5E2E2E2E2E2E2E2E2F5F5F5E2E2E2E2E2E2E2E2E2E2E2E2E2E2E2E2E2E2E2E2E2E2E2E2E2E2E2E2E2E2ECE2E2ECE2E2ECE2E2ECE2E2E2F5E2E2E2E2E2E2E2E2E2F5E2F5F5E2E2E2E2E2E2E2E2F5E2E2E2E2E2F5E2E2E2E2E2E2F5E2E2
310
E2E2E2E2E2E2E2E2E2E2F5F5F5F5F5F5F5E2E2E2E2E2E2E2E2ECE2E2E2E2F5ECE2E2E2ECE2E2E2ECE2E2E2E2E2ECF5ECECECE2E2E2E2E2E2E2F5F5ECF5F5F5ECF5F5E2F5F5E2ECE2E2E2E2E2E2E2E2E2E2E2E2ECECECECF5F5F5E2E2E2E2E2E2F5F5F5E2E2E2E2E2E2E2E2E2E2E2E2E2E2E2E2E2E2E2E2E2E2E2E2E2E2E2E2
310
E2DCDCE2DCDCE2DCDCE2DCDCE2E2E2F5E2E2E2E2E2E2E2E2E2F5E2F5F5E2E2E2E2E2E2E2F5E2E2E2E2E2E2F5E2E2E2E2E2E2F5E2E2E2E2E2E2E2E2E2E2E2E2F5F5E2E2E2E2F5F5F5F5E2E2E2E2DCDCE2E2E2E2F5ECE2E2E2ECE2E2DCDCE2E2E2E2E2ECF5ECECECE2E2E2E2E2E2ECF5F5F5F5F5F5ECF5F5E2F5F5E2ECE2E2E2
310
E2E2E2E2E2E2E2E2E2ECECE2ECF5E2F5F5F5F5E2E2E2F5F5F5F5E2E2E2E2E2E2E2E2E2E2E2E2E2E2E2E2E2E2E2E2E2E2E2E2E2E2E2E2DCDCE2DCDCE2DCDCE2DCDCE2E2E2F5F5F5F5F5F5F5F5F5F5F5E2F5F5F5F5F5F5F5F5F5E2E2E2E2E2E2E2F5E2E2E2E2E2E2F5E2E2E2E2E2E2E2E2E2E2F0F0F0F0F0F0F0F0F0F0F0ECF0
310
E2E2ECDCDCECECECECF5ECECECECECECECDCDCECECECECECECF5ECECECECECECECECECECECECECF5ECF5ECF5F5ECF5F5ECECECECECECECECECECECECECECECECECECF5ECF5F5F5F5ECECECF5F5F5F5E2E2E2E2E2E2E2E2E2E2E2E2E2E2E2E2E2E2E2E2E2E2E2E2E2E2E2E2E2ECE2E2ECE2E2ECE2DCDCE2E2E2F5E2E2E2E2E2
310
E2E2E2E2F5E2F5F5E2E2E2E2E2E2E2F5E2E2E2E2E2E2F5E2E2E2E2E2E2F5E2E2E2E2E2E2E2E2E2E2E2E2F5F5F5F5F5F5F5E2E2ECE2E2E2E2E2ECE2E2E2E2F5ECE2E2E2ECE2E2E2ECE2E2E2E2E2ECF5ECECECE2E2E2E2E2E2ECF5F5F5F5F5F5ECF5F5E2F5F5E2ECE2E2E2E2E2E2E2E2E2E2E2E2ECECECECF5F5F5E2E2E2F5E2
310
E2F5F5F5F5E2E2E2E2E2E2E2E2E2E2E2E2E2E2E2E2E2E2E2E2E2E2E2E2E2E2E2E2E2ECE2E2ECE2E2ECE2E2ECE2E2E2F5E2E2E2E2E2E2E2E2E2F5E2F5F5E2E2E2E2E2E2E2E2F5E2E2E2E2E2F5E2E2E2E2E2E2F5E2E2E2E2E2E2E2E2E2E2E2E2F5F5E2E2E2E2E2E2E2ECE2E2E2E2E2ECE2E2E2E2F5ECE2E2E2ECE2E2E2ECE2E2
310
E2E2E2ECF5ECECECE2E2E2E2E2E2E2F5F5F5F5F5F5ECF5F5E2F5F5E2ECE2E2E2E2E2E2E2E2E2E2E2E2ECECE2ECF5E2E2E2E2E2F5E2E2F5F5F5F5E2E2E2E2E2E2E2E2E2E2E2E2E2E2E2E2E2E2E2E2E2E2E2E2E2E2E2E2E2ECE2E2ECE2E2ECE2ECECECECECECF5F5F5F5F5F5F5F5F5F5F5F5F5E2E2E2E2E2E2E2E2E2F5E2E2E2
310
E2F5F5F5F5F5F5F5F5E2E2E2E2E2E2E2E2E2E2E2E2F5E2E2E2E2E2E2E2E2ECE2E2E2E2E2ECE2E2E2E2F5ECE2E2E2ECECECECECECECECECECECF5ECECECE2E2E2E2E2E2E2F5ECECE2ECF5ECECECECECECECECE2E2E2E2E2E2E2E2E2E2E2E2ECE2E2ECF5E2E2E2E2E2F5E2E2F5F5F5F5E2E2E2E2E2E2E2E2E2E2E2E2E2E2E2E2
310
E2E2E2E2E2E2E2E2E2E2E2E2E2ECE2E2ECE2E2ECE2E2E2E2E2E2E2E2E2E2E2E2E2E2F5E2E2E2E2F5E2E2E2E2E2E2E2E2E2E2F5E2E2E2F5E2E2E2E2E2E2E2E2E2E2E2E2E2E2E2E2E2E2E2F5E2E2E2E2E2E2E2E2ECE2E2E2E2E2ECE2E2E2E2F5ECE2E2E2E2E2E2E2ECE2E2ECE2E2ECF5ECECECECECECECECECECF5ECF5F5F5F5
310
ECF5F5E2F5F5E2E2E2E2E2E2E2E2E2E2E2E2E2E2ECE2E2ECF5E2E2E2E2E2F5E2E2F5F5F5F5E2E2E2E2E2E2E2E2E2E2E2E2E2E2E2E2E2E2E2E2E2E2E2E2E2E2E2E2E2ECE2E2ECE2E2ECE2E2E2E2E2E2E2E2E2E2E2E2E2E2F5E2E2E2E2F5E2E2E2E2E2E2E2E2E2E2F5E2E2E2F5E2E2E2E2E2E2E2E2E2E2E2E2E2E2E2E2E2E2E2
310
F5E2E2E2E2E2E2E2E2ECE2E2E2E2E2ECE2E2E2E2F5ECE2E2E2E2E2E2E2ECECECECECECECECECECECECECECECECECECF5ECECF5F5F5ECF5F5E2F5F5E2E2E2E2E2E2E2E2E2E2E2E2E2E2ECE2E2ECF5E2E2E2E2E2F5E2E2F5F5F5F5E2E2E2E2E2E2E2E2E2E2E2E2E2E2E2E2E2E2E2E2E2E2E2E2E2E2E2E2E2ECE2E2ECE2E2ECE2
310
E2E2E2E2E2E2E2E2E2E2E2E2E2F5E2E2E2E2F5E2E2E2E2E2E2E2E2E2E2E2F5E2E2F5E2E2E2E2E2E2E2E2E2E2E2E2E2E2E2E2E2E2E2F5E2E2E2E2E2E2E2E2ECE2E2E2E2E2ECE2E2E2E2F5ECE2E2E2E2E2E2E2E2E2E2ECE2E2ECF5ECECECE2E2E2E2E2E2E2F5F5ECF5ECF5ECF5F5E2F5F5E2E2E2E2E2E2E2E2E2E2E2E2E2E2EC
310
E2E2ECF5E2E2E2E2E2F5E2E2F5F5F5F5E2E2E2E2E2E2E2E2E2E2E2E2E2E2E2E2E2E2E2E2E2E2E2E2E2E2E2E2E2ECE2E2ECE2E2ECE2E2E2E2E2E2E2E2E2E2E2E2E2E2F5E2E2E2E2F5E2E2E2E2E2E2E2E2E2E2E2E2F5E2F5E2E2E2E2E2E2E2E2E2E2E2E2E2E2E2E2E2E2E2F5E2E2E2E2E2E2E2E2ECE2E2E2E2E2ECE2E2E2E2F5
310
ECE2E2E2E2E2E2E2E2E2E2ECE2E2ECF5F5ECECECECECECECECECECECECF5F5F5ECF5F5E2F5F5E2E2E2E2E2E2E2E2E2E2E2E2E2E2ECE2E2ECF5E2E2E2E2E2F5E2E2F5F5F5F5E2E2E2E2E2E2E2E2E2E2E2E2E2E2E2E2E2E2E2E2E2E2E2E2E2E2E2E2E2ECE2E2ECE2E2ECE2E2E2E2E2E2E2E2E2E2E2E2E2E2ECF5F5F5F5F5E2E2
310
F0E2E2E2E2E2E2E2E2E2E2F5F5F5F5F5F5F5F5F5F5F5F5F0F5F5F5F5F5F5F5F5ECE2E2E2E2E2E2E2E2ECE2E2E2E2E2ECE2E2E2E2F5ECE2E2E2E2E2E2E2E2E2E2ECECECECF5F5F5ECE2ECE2E2E2E2E2E2E2ECF5F5F5ECECECECECECECECECECECECECECECECECECECECECE2E2ECF5E2E2E2E2E2F5E2E2F5F5F5F5E2E2E2E2E2
310
E2E2E2E2E2E2E2E2E2E2E2E2E2E2E2E2E2E2E2E2E2E2E2E2ECE2E2ECECECECECECECECECECECECECECECECECECECECECECECECECECECF0F5F5F5F5F5F5F5F5F5F5F5E2E2E2E2E2E2E2E2F5F0ECF0F0E2E2E2E2E2E2ECE2E2E2E2E2E2E2E2ECE2E2E2E2E2ECE2E2E2E2F5ECE2E2E2E2E2E2E2E2E2E2E2E2E2E2ECF5ECECECEC
310
ECECECECECECECECF5F5ECECF5F5E2F5F5E2E2E2ECECECECECE2E2E2E2E2E2E2E2E2ECF5E2E2E2E2E2F5E2E2F5F5F5F5E2E2E2E2E2E2E2E2E2E2E2E2E2E2E2E2E2E2E2E2E2E2E2E2E2E2E2E2E2ECE2E2E2E2E2E2E2E2E2E2E2E2E2E2E2E2E2E2E2E2ECE2E2E2E2E2F5F5ECE2F5E2E2E2E2E2E2E2E2E2E2E2E2E2E2E2E2E2E2
310
F5ECECF5F5E2E2E2E2E2E2ECE2E2E2E2E2E2E2E2ECE2E2E2E2E2ECE2E2E2E2F5ECE2E2E2E2E2E2E2E2E2E2E2E2E2E2E2E2E2ECECECECE2E2E2E2E2E2ECE2E2E2F5F5F5F5F5F5E2E2E2ECE2ECECECE2E2E2E2E2E2E2E2E2ECF5E2E2E2E2E2F5E2E2F5F5F5F5E2E2E2E2E2E2E2E2E2E2E2E2E2E2E2E2E2E2E2E2E2E2E2E2E2E2
310
E2E2ECECECECECECECECECECECECECECECECECECECECECECECECECECECECECF5ECF5ECE2E2E2E2E2E2E2E2E2E2E2E2E2E2E2E2E2E2ECF5ECF5ECE2E2E2E2E2E2ECE2E2E2E2E2E2E2E2ECE2E2E2E2E2ECE2E2E2E2F5ECE2E2E2E2E2E2E2E2E2E2E2E2E2E2E2E2E2ECECECECE2E2E2E2E2E2ECE2E2E2E2E2E2E2E2E2E2E2E2EC
310
ECECECECE2E2E2E2E2E2E2E2E2ECF5E2E2E2E2E2F5E2E2F5F5F5F5E2E2E2E2E2E2E2E2E2E2E2E2E2E2E2E2E2E2E2E2E2E2E2E2E2E2E2E2E2E2E2E2E2E2E2E2E2E2E2E2E2E2E2E2E2E2E2E2E2E2ECE2E2E2E2E2ECE2ECE2ECE2E2E2E2E2E2E2E2E2E2E2E2E2E2E2E2E2ECECE2ECE2ECE2E2E2E2E2E2ECE2E2E2E2E2E2E2E2EC
310
E2E2E2E2E2ECECECECECECECF5F5F5F5F5F5F5F5F5F5F5F5F5F5F5F5F5ECF5F5F5F5F5F5F5F5F5ECF5F5F5F5F5F5F5F5F5F5F5F5F5F5F5F5F5F5F5F5F5F5F5F5F5F5ECECE2E2E2E2E2F5E2E2F5F5F5F5E2E2E2E2E2E2E2E2E2E2E2E2E2E2E2E2E2E2E2E2E2E2E2E2E2E2E2E2E2E2E2E2E2E2E2E2E2E2E2E2E2E2E2E2E2E2E2
310
E2E2E2ECE2E2E2E2E2ECE2ECE2ECE2E2E2E2E2E2E2E2E2E2E2E2E2E2E2E2E2ECECE2ECE2ECE2E2E2E2E2E2ECE2E2E2E2E2E2E2E2ECE2E2E2E2E2E2E2E2E2E2ECE2E2E2E2E2E2E2E2E2E2E2E2E2E2E2E2E2E2ECE2E2E2E2E2E2E2E2E2ECE2E2E2E2E2E2E2E2E2E2E2E2E2E2E2E2E2E2E2E2E2E2E2E2E2E2E2ECE2E2E2E2E2F5
310
E2E2F5F5F5F5E2E2E2E2E2E2E2E2E2E2E2E2E2E2E2E2E2E2E2E2E2E2E2E2E2E2E2E2E2E2E2E2E2E2E2E2E2E2E2E2E2E2E2E2E2E2E2E2E2E2ECE2E2E2E2E2ECE2ECE2ECE2E2E2E2E2E2E2E2E2E2E2E2E2E2E2E2ECE2ECE2ECE2ECE2E2E2E2E2E2ECE2E2E2E2E2E2E2E2ECE2E2E2E2E2E2E2E2E2E2ECE2E2E2E2E2E2E2E2E2E2
310
E2E2E2E2E2E2E2E2ECE2E2E2E2E2E2E2E2E2ECE2E2E2E2E2E2E2E2E2E2E2E2E2E2E2E2E2E2E2E2E2E2E2E2E2E2E2ECE2E2E2E2E2F5E2E2F5F5F5F5E2E2E2E2E2E2E2E2E2E2E2E2E2E2E2E2E2E2E2E2E2E2E2E2E2E2E2E2E2E2E2E2E2E2E2E2E2E2E2E2E2E2E2E2E2E2E2E2E2E2ECE2E2E2E2E2ECDCDCECECE2E2E2E2E2E2E2
310
ECECECECDCDCDCDCECE2E2ECECDCDCECE2E2E2E2E2E2ECE2E2E2E2E2E2E2E2ECE2E2E2E2E2E2E2E2E2E2ECE2E2E2E2E2E2E2E2E2E2E2E2E2E2E2E2E2E2ECE2E2E2E2E2E2E2E2E2ECE2E2E2E2E2E2E2E2E2E2E2E2E2E2E2E2E2E2E2E2E2E2E2E2E2E2E2ECE2E2E2E2E2F5E2E2F5F5F5E2E2E2E2E2E2E2E2E2E2E2E2E2E2E2E2
310
E2E2E2E2E2E2E2E2E2E2E2E2E2E2E2E2E2E2E2E2E2E2E2E2E2E2E2E2E2E2E2E2E2E2E2ECE2E2E2E2E2ECDCDCE2ECE2E2E2E2E2E2E2E2E2E2DCDCDCDCDCE2E2E2ECE2DCDCECE2E2E2E2E2E2ECE2E2E2E2E2E2E2E2ECE2E2E2E2E2E2E2E2E2E2ECE2E2E2E2E2E2E2E2E2E2E2E2E2E2E2E2E2E2ECE2E2E2E2E2E2E2E2E2ECE2E2
310
E2E2E2E2E2E2E2E2E2E2E2E2E2E2E2E2E2E2E2E2E2E2E2E2E2ECE2E2E2E2E2E2E2E2F5F5F5E2E2E2E2E2E2E2E2E2E2E2E2E2E2E2E2E2E2E2E2E2E2E2E2E2E2E2E2E2E2E2E2E2E2E2E2E2E2E2E2E2E2E2E2E2E2E2E2E2E2E2ECE2E2E2E2E2E2E2ECE2E2E2E2E2E2E2E2E2E2E2E2E2E2E2E2E2E2E2E2E2E2ECE2E2E2E2E2E2E2
310
E2ECE2E2E2E2E2E2E2E2ECE2E2E2E2E2E2E2E2E2E2ECE2E2E2E2E2E2E2E2E2E2E2E2E2E2E2E2E2E2ECE2E2E2E2E2E2E2E2E2ECE2E2E2E2E2E2E2E2E2E2E2E2E2E2E2E2E2E2E2E2E2E2E2E2E2E2E2ECE2E2E2E2E2E2E2E2F5F5F5E2E2E2E2E2E2E2E2E2E2E2E2E2E2E2E2E2E2E2E2E2E2E2E2E2E2E2E2E2E2E2E2E2E2E2E2E2
310
E2E2E2E2E2E2E2E2E2E2E2E2E2E2ECECECDCDCECECECECECECECECECECECECECECDCDCECECECECECECECECECECECECECECDCDCECECECECECECECECECECECECECE2E2E2E2E2E2E2E2E2E2ECECECECECECECECECDCDCECECECECECECECECECECECECECDCDCECECECECE2E2E2E2E2E2E2E2E2E2E2E2E2E2E2E2E2E2E2E2E2E2E2
310
E2E2E2E2ECE2E2E2E2E2E2E2E2F5F5F5E2E2E2E2E2E2E2E2E2E2E2E2E2E2E2E2E2E2E2E2E2E2E2E2E2E2E2E2E2E2E2E2E2E2E2E2E2E2E2E2E2E2E2E2E2E2E2E2E2E2E2ECE2E2DCDCDCE2E2ECE2E2E2E2E2E2E2E2E2E2DCDCE2E2E2E2E2E2E2E2E2E2ECE2E2DCDCDCDCE2E2ECE2DCDCDCDCDCDCE2ECE2E2E2E2E2E2E2E2E2E2
310
ECE2E2E2E2E2E2E2E2DCDCE2E2E2E2E2E2E2E2ECE2E2E2DCDCDCE2E2E2E2E2E2E2E2E2E2E2E2E2E2E2E2E2E2E2E2E2E2E2E2E2E2E2E2E2E2E2ECE2E2E2E2E2E2E2E2F5F5F5E2E2E2E2E2E2E2E2E2E2E2E2E2E2E2E2E2E2E2E2E2E2E2E2E2E2E2E2E2E2E2E2E2E2E2E2E2E2E2E2E2E2E2E2E2E2E2E2E2E2E2E2E2E2E2E2E2E2
310
E2E2E2E2E2E2E2E2E2E2E2E2E2E2E2E2E2E2E2E2E2E2E2E2E2E2E2E2E2E2E2E2E2E2E2E2DCE2DCDCDCE2E2E2E2E2E2E2E2E2E2E2E2ECE2E2E2E2E2E2E2E2E2E2E2E2E2E2E2E2E2E2E2E2E2E2E2E2E2E2E2E2E2E2E2E2E2E2E2E2E2E2E2E2E2E2E2E2E2E2E2E2E2E2E2E2E2E2E2E2ECE2E2E2E2E2E2E2E2F5F5F5E2E2E2E2E2
310
E2E2E2E2E2E2E2E2E2E2E2E2E2E2E2E2E2E2E2E2E2E2E2E2E2E2E2E2E2E2E2E2E2E2E2E2E2E2E2E2E2E2E2E2E2E2E2E2E2E2E2E2E2E2E2E2E2E2E2E2E2E2E2E2E2E2E2E2E2E2E2E2E2E2E2E2E2E2E2E2E2E2E2E2E2E2E2E2E2E2E2E2E2E2E2E2E2E2E2E2E2E2E2E2E2E2ECECECECECECECECECECECECECECECECECECECECEC
310
ECECECECECECECDCDCDCECECECECECECECECECECECECECECECECECECECECECECECECECECECE2E2E2E2E2E2E2E2F5F5F5E2E2E2E2E2E2E2E2E2E2E2E2E2E2E2E2E2E2E2E2E2E2E2E2E2E2E2E2E2E2E2E2E2E2E2E2E2E2E2E2E2E2E2E2E2E2E2E2E2E2E2E2E2E2E2E2E2E2E2E2E2E2E2E2E2E2E2E2E2E2E2E2E2E2E2E2E2E2E2
310
E2E2E2E2E2E2E2E2E2E2E2E2E2E2E2E2E2E2E2E2E2E2E2E2E2E2E2E2E2E2E2E2E2E2E2E2E2E2E2E2E2E2E2E2E2E2E2E2E2E2E2E2E2E2E2E2E2E2E2E2DCDCDCE2E2E2E2E2E2E2E2E2E2E2E2E2E2E2E2E2E2E2E2E2E2E2E2E2E2E2E2E2E2E2E2E2E2E2F5F5F5E2E2E2E2E2E2E2E2E2E2E2E2E2E2E2E2E2E2E2E2E2E2E2E2E2E2
310
E2E2E2E2E2E2E2E2E2E2E2E2E2E2E2E2E2E2E2E2E2E2E2E2E2E2E2E2E2E2E2E2E2E2E2E2E2E2E2E2E2E2E2E2E2E2E2E2E2E2E2E2E2E2E2E2E2E2E2E2E2E2E2E2E2E2E2E2E2E2E2E2E2E2E2E2E2E2E2E2E2E2E2E2E2E2E2E2E2E2E2E2E2E2E2E2E2E2E2E2E2E2E2E2E2E2E2E2E2E2E2E2E2E2E2E2E2E2E2E2E2E2E2E2E2E2E2
310
E2E2E2E2E2E2E2E2E2E2E2E2E2E2E2E2E2E2E2E2E2E2E2E2F5F5F5E2E2E2E2E2E2E2E2E2E2E2E2E2E2E2E2E2E2E2E2E2E2E2E2E2E2E2E2E2E2E2E2E2E2E2E2E2E2E2E2E2E2E2E2E2E2E2E2E2E2E2E2E2E2E2E2E2E2E2E2E2E2E2E2E2E2E2E2E2E2E2E2E2E2E2E2E2E2E2E2E2E2E2E2E2E2E2E2E2E2E2E2E2E2E2E2E2E2E2E2
310
E2E2E2E2E2E2E2E2E2E2E2E2E2E2E2E2E2E2E2E2E2E2E2E2E2E2E2E2E2E2E2E2E2E2E2E2E2E2E2E2E2E2E2E2E2E2E2E2E2E2E2E2E2E2E2E2E2E2E2E2E2E2E2E2E2E2E2E2E2E2E2E2E2E2E2E2E2F5F5F5F5E2E2E2E2E2E2E2E2E2E2E2E2E2E2E2E2E2E2E2E2E2E2E2E2E2E2E2E2E2E2E2E2E2E2E2E2E2E2E2E2E2E2E2E2E2E2
310
E2E2E2E2E2E2E2E2E2E2E2E2E2E2E2E2E2E2E2E2E2E2E2E2E2E2E2E2E2E2E2E2E2E2E2E2E2E2E2E2E2E2E2E2E2E2E2E2E2E2E2E2E2E2E2E2E2E2E2E2E2E2E2E2E2E2E2E2E2E2E2E2E2E2E2E2E2E2E2E2E2E2E2E2E2E2E2E2E2E2E2E2E2E2E2E2E2E2E2E2E2E2E2E2E2E2E2E2E2E2E2E2E2E2E2E2E2E2E2E2E2E2E2E2E2E2E2
310
F5E2E2F5F5F5F5E2E2E2E2E2E2E2E2E2E2E2E2E2E2E2E2E2E2E2E2E2E2E2E2E2E2E2E2E2E2E2E2E2E2E2E2E2E2E2E2E2E2E2E2E2E2E2E2E2E2E2E2E2E2E2E2E2E2E2E2E2E2E2E2E2E2E2E2E2E2E2E2E2E2E2E2E2E2E2E2E2E2E2E2E2E2E2E2E2E2E2E2E2E2E2E2E2E2E2E2E2E2E2E2E2E2E2E2E2E2E2E2E2E2E2E2E2E2E2E2
310
E2E2E2E2E2E2E2E2E2E2E2E2E2E2E2E2E2E2E2E2E2E2E2E2E2E2E2E2E2E2E2E2E2E2E2E2E2E2E2E2E2E2E2E2E2E2E2E2E2E2E2E2E2F5E2E2F5F5F5F5E2E2E2E2E2E2E2E2E2E2E2E2E2E2E2E2E2E2E2E2E2E2E2E2E2E2E2E2E2E2E2E2E2E2E2E2E2E2E2E2E2E2E2E2E2E2E2E2E2E2E2E2E2E2E2E2E2E2E2E2E2E2E2E2E2E2E2
310
E2E2E2E2E2E2E2E2E2E2E2E2E2E2E2E2E2E2E2E2E2E2E2E2E2E2E2E2E2E2E2E2E2E2E2E2E2E2E2E2E2E2E2E2E2E2E2E2E2E2E2E2E2E2E2E2E2E2E2E2E2E2E2E2E2E2E2E2E2E2E2E2E2E2E2E2E2E2E2E2E2E2E2E2E2E2E2E2E2E2E2E2E2E2E2E2E2E2E2E2E2E2E2E2E2E2F5E2E2F5F5F5F5E2E2E2E2E2E2E2E2E2E2E2E2E2E2
310
E2E2E2E2E2E2E2E2E2E2E2E2E2E2E2E2E2E2E2E2E2E2E2E2E2E2E2E2E2E2E2E2E2E2E2E2E2E2E2E2E2E2E2E2E2E2E2E2E2E2E2E2E2E2E2E2E2E2E2E2E2E2E2E2E2E2E2E2E2E2E2E2E2E2E2E2E2E2E2E2E2E2E2E2E2E2E2E2E2E2E2E2E2E2E2E2E2E2E2E2E2E2E2E2E2E2E2E2E2E2E2E2E2E2E2E2E2E2E2E2E2E2E2E2E2E2E2
310
E2E2E2E2E2E2E2E2E2E2E2E2E2E2E2E2E2E2E2E2E2E2E2E2E2E2E2E2E2E2E2E2F5E2E2F5F5F5F5E2E2E2E2E2E2E2E2E2E2E2E2E2E2E2E2E2E2E2E2E2E2E2E2E2E2E2E2E2E2E2E2E2E2E2E2E2E2E2E2E2E2E2E2E2E2E2E2E2E2E2E2E2E2E2E2E2E2E2E2E2E2E2E2E2E2E2E2E2E2E2E2E2E2E2E2E2E2E2E2E2E2E2E2E2E2E2E2
310
E2E2E2E2E2E2E2E2E2E2E2E2E2E2E2E2E2E2E2E2E2E2E2E2E2E2E2E2E2E2E2E2E2E2E2E2E2E2E2E2E2E2E2E2E2E2E2E2E2E2E2E2E2E2E2E2E2E2E2E2E2E2E2E2E2E2E2E2E2E2E2E2E2E2E2E2E2E2E2E2E2E2E2E2E2F5E2E2F5F5F5F5E2E2E2E2E2E2E2E2E2E2E2E2E2E2E2E2E2E2E2E2E2E2E2E2E2E2E2E2E2E2E2E2E2E2E2
310
E2E2E2E2E2E2E2E2E2E2E2E2E2E2E2E2E2E2E2E2E2E2E2E2E2E2E2E2E2E2E2E2E2E2E2E2E2E2E2E2E2E2E2E2E2E2E2E2E2E2E2E2E2E2E2E2E2E2E2E2E2E2E2E2E2E2E2E2E2E2E2E2E2E2E2E2E2E2E2E2E2E2E2E2E2E2E2E2E2E2E2E2E2E2E2E2E2E2E2E2E2E2E2E2E2E2E2E2E2E2E2E2E2E2E2E2E2E2E2E2E2E2E2E2E2E2E2
310
E2E2E2E2E2E2E2E2E2E2E2F5E2E2F5F5F5F5E2E2E2E2E2E2E2E2E2E2E2E2E2E2E2E2E2E2E2E2E2E2E2E2E2E2E2E2E2E2E2E2E2E2E2E2E2E2E2E2E2E2E2E2E2E2E2E2E2E2E2E2E2E2E2E2E2E2E2E2E2E2E2E2E2E2E2E2E2E2E2E2E2E2E2E2E2E2E2E2E2E2E2E2E2E2E2E2E2E2E2E2E2E2E2E2E2E2E2E2E2E2E2E2E2E2E2E2E2
310
E2E2E2E2E2E2E2E2E2E2E2E2E2E2E2E2E2E2E2E2E2E2E2E2E2E2E2E2E2E2E2E2E2E2E2E2E2E2E2E2E2E2E2E2E2E2E2E2E2E2E2E2E2E2E2E2E2E2E2E2E2E2E2E2F5E2E2F5F5F5F5F5F5F5F5F5F5F5E2E2E2E2E2E2E2E2E2F5F5F5F5F5F5F5F5F5F5F5F5F5F5F5F5E2E2E2E2E2E2E2E2E2F5F5F5F5F5F5F5F5F5F5F5F5F5F5F5
310
F5E2E2E2E2E2E2E2E2E2F5F5F5F5F5F5F5F5F5F5F5F5F5F5F5F5E2E2E2E2E2E2E2E2E2F5F5F5F5F5F5F5F5F5F5F5F5F5F5F5F5E2E2E2E2E2E2E2E2E2F5F5F5F5F5F5F5F5F5F5F5F5F5F5F5F5E2E2E2E2E2E2E2E2E2F5F5F5F5F5F5F5F5F5F5F5F5F5F5F5F5E2E2E2E2E2E2E2E2E2F5F5F5F5F5F5F5F5E2E2F5EFF5F5F5F5F5
310
F5F5F5F5F5F5F5F5F5F5F5F5F5F5F5F5F5F5F5F5F5F5F5F5F5F5F5F5F5F5F5F5F5F5F5F5F5F5F5F5F5F5F5F5F5F5F5F5F5F5F5F5F5F5F5F5F5F5F5F5F5F5F5F5F5F5F5F5F5F5F5F5F5F5F5F5F5F5F5F5F5F5F5F5F5F5F5F5F5F5F5F5F5F5F5F5F5F5F5F5F5F5F5F5F5F5F5F5F5F5F5F5F5F5F5F5F5F5F5F5F5F5F5F5F5F5F5
310
F5F5F5F5F5F5F5F5F5F5F5F5F5F5F5F5F5F5F5F5F5F5F5F5F5F5F5F5F5F5F5F5F5F5F5F5F5F5F5F5F5F5F5F5F5F5F5EF
  0
XRECORD
  5
CC7C
102
{ACAD_REACTORS
330
CC7B
102
}
330
CC7B
100
AcDbXrecord
280
     1
102
SHADEPLOT
 70
     0
102
SHADEPLOTRESLEVEL
 70
     2
102
SHADEPLOTCUSTOMDPI
 70
   300
  0
XRECORD
  5
C966
102
{ACAD_REACTORS
330
BF70
102
}
330
BF70
100
AcDbXrecord
280
     1
102
MATERIAL
148
0.0
149
0.0
149
0.0
 93
        0
 94
      127
282
     0
 72
     0
 77
     0
171
     0
175
     0
179
     0
273
     0
  0
XRECORD
  5
BF72
102
{ACAD_REACTORS
330
BF70
102
}
330
BF70
100
AcDbXrecord
280
     1
270
     1
271
     1
  0
XRECORD
  5
BF71
102
{ACAD_REACTORS
330
BF70
102
}
330
BF70
100
AcDbXrecord
280
     1
270
     1
271
     1
  0
XRECORD
  5
BF75
102
{ACAD_REACTORS
330
BF70
102
}
330
BF70
100
AcDbXrecord
280
     1
270
     1
271
     1
  0
XRECORD
  5
BF74
102
{ACAD_REACTORS
330
BF70
102
}
330
BF70
100
AcDbXrecord
280
     1
270
     1
271
     1
  0
XRECORD
  5
BF76
102
{ACAD_REACTORS
330
BF70
102
}
330
BF70
100
AcDbXrecord
280
     1
270
     1
271
     1
  0
XRECORD
  5
BF73
102
{ACAD_REACTORS
330
BF70
102
}
330
BF70
100
AcDbXrecord
280
     1
270
     1
271
     1
  0
XRECORD
  5
C965
102
{ACAD_REACTORS
330
BF68
102
}
330
BF68
100
AcDbXrecord
280
     1
102
MATERIAL
148
0.0
149
0.0
149
0.0
 93
        0
 94
      127
282
     0
 72
     0
 77
     0
171
     0
175
     0
179
     0
273
     0
  0
XRECORD
  5
BF6A
102
{ACAD_REACTORS
330
BF68
102
}
330
BF68
100
AcDbXrecord
280
     1
270
     1
271
     1
  0
XRECORD
  5
BF69
102
{ACAD_REACTORS
330
BF68
102
}
330
BF68
100
AcDbXrecord
280
     1
270
     1
271
     1
  0
XRECORD
  5
BF6D
102
{ACAD_REACTORS
330
BF68
102
}
330
BF68
100
AcDbXrecord
280
     1
270
     1
271
     1
  0
XRECORD
  5
BF6C
102
{ACAD_REACTORS
330
BF68
102
}
330
BF68
100
AcDbXrecord
280
     1
270
     1
271
     1
  0
XRECORD
  5
BF6E
102
{ACAD_REACTORS
330
BF68
102
}
330
BF68
100
AcDbXrecord
280
     1
270
     1
271
     1
  0
XRECORD
  5
BF6B
102
{ACAD_REACTORS
330
BF68
102
}
330
BF68
100
AcDbXrecord
280
     1
270
     1
271
     1
  0
XRECORD
  5
C967
102
{ACAD_REACTORS
330
BF78
102
}
330
BF78
100
AcDbXrecord
280
     1
102
MATERIAL
148
0.0
149
0.0
149
0.0
 93
        0
 94
      127
282
     0
 72
     0
 77
     0
171
     0
175
     0
179
     0
273
     0
  0
XRECORD
  5
BF7A
102
{ACAD_REACTORS
330
BF78
102
}
330
BF78
100
AcDbXrecord
280
     1
270
     1
271
     1
  0
XRECORD
  5
BF79
102
{ACAD_REACTORS
330
BF78
102
}
330
BF78
100
AcDbXrecord
280
     1
270
     1
271
     1
  0
XRECORD
  5
BF7D
102
{ACAD_REACTORS
330
BF78
102
}
330
BF78
100
AcDbXrecord
280
     1
270
     1
271
     1
  0
XRECORD
  5
BF7C
102
{ACAD_REACTORS
330
BF78
102
}
330
BF78
100
AcDbXrecord
280
     1
270
     1
271
     1
  0
XRECORD
  5
BF7E
102
{ACAD_REACTORS
330
BF78
102
}
330
BF78
100
AcDbXrecord
280
     1
270
     1
271
     1
  0
XRECORD
  5
BF7B
102
{ACAD_REACTORS
330
BF78
102
}
330
BF78
100
AcDbXrecord
280
     1
270
     1
271
     1
  0
XRECORD
  5
CC7E
102
{ACAD_REACTORS
330
CC7D
102
}
330
CC7D
100
AcDbXrecord
280
     1
102
SHADEPLOT
 70
     0
102
SHADEPLOTRESLEVEL
 70
     2
102
SHADEPLOTCUSTOMDPI
 70
   300
  0
XRECORD
  5
CC80
102
{ACAD_REACTORS
330
CC7F
102
}
330
CC7F
100
AcDbXrecord
280
     1
102
SHADEPLOT
 70
     0
102
SHADEPLOTRESLEVEL
 70
     2
102
SHADEPLOTCUSTOMDPI
 70
   300
  0
XRECORD
  5
CC82
102
{ACAD_REACTORS
330
CC81
102
}
330
CC81
100
AcDbXrecord
280
     1
102
SHADEPLOT
 70
     0
102
SHADEPLOTRESLEVEL
 70
     2
102
SHADEPLOTCUSTOMDPI
 70
   300
  0
XRECORD
  5
CC84
102
{ACAD_REACTORS
330
CC83
102
}
330
CC83
100
AcDbXrecord
280
     1
102
SHADEPLOT
 70
     0
102
SHADEPLOTRESLEVEL
 70
     2
102
SHADEPLOTCUSTOMDPI
 70
   300
  0
CELLSTYLEMAP
  5
CC75
102
{ACAD_REACTORS
330
C8EF
102
}
330
C8EF
100
AcDbCellStyleMap
 90
        3
300
CELLSTYLE
  1
TABLEFORMAT_BEGIN
 90
        5
170
     1
 91
        0
 92
    32768
 62
   257
 93
        1
300
CONTENTFORMAT
  1
CONTENTFORMAT_BEGIN
 90
        0
 91
        0
 92
        4
 93
        0
300

 40
0.0
140
1.0
 94
        5
 62
     0
340
10
144
6.0
309
CONTENTFORMAT_END
171
     1
301
MARGIN
  1
CELLMARGIN_BEGIN
 40
1.5
 40
1.5
 40
1.5
 40
1.5
 40
0.18
 40
0.18
309
CELLMARGIN_END
 94
        6
 95
        1
302
GRIDFORMAT
  1
GRIDFORMAT_BEGIN
 90
        0
 91
        1
 62
     0
 92
       -2
340
0
 93
        0
 40
0.045
309
GRIDFORMAT_END
 95
        2
302
GRIDFORMAT
  1
GRIDFORMAT_BEGIN
 90
        0
 91
        1
 62
     0
 92
       -2
340
0
 93
        0
 40
0.045
309
GRIDFORMAT_END
 95
        4
302
GRIDFORMAT
  1
GRIDFORMAT_BEGIN
 90
        0
 91
        1
 62
     0
 92
       -2
340
0
 93
        0
 40
0.045
309
GRIDFORMAT_END
 95
        8
302
GRIDFORMAT
  1
GRIDFORMAT_BEGIN
 90
        0
 91
        1
 62
     0
 92
       -2
340
0
 93
        0
 40
0.045
309
GRIDFORMAT_END
 95
       16
302
GRIDFORMAT
  1
GRIDFORMAT_BEGIN
 90
        0
 91
        1
 62
     0
 92
       -2
340
0
 93
        0
 40
0.045
309
GRIDFORMAT_END
 95
       32
302
GRIDFORMAT
  1
GRIDFORMAT_BEGIN
 90
        0
 91
        1
 62
     0
 92
       -2
340
0
 93
        0
 40
0.045
309
GRIDFORMAT_END
309
TABLEFORMAT_END
  1
CELLSTYLE_BEGIN
 90
        1
 91
        1
300
_TITLE
309
CELLSTYLE_END
300
CELLSTYLE
  1
TABLEFORMAT_BEGIN
 90
        5
170
     1
 91
        0
 92
        0
 62
   257
 93
        1
300
CONTENTFORMAT
  1
CONTENTFORMAT_BEGIN
 90
        0
 91
        0
 92
        4
 93
        0
300

 40
0.0
140
1.0
 94
        5
 62
     0
340
10
144
4.5
309
CONTENTFORMAT_END
171
     1
301
MARGIN
  1
CELLMARGIN_BEGIN
 40
1.5
 40
1.5
 40
1.5
 40
1.5
 40
0.18
 40
0.18
309
CELLMARGIN_END
 94
        6
 95
        1
302
GRIDFORMAT
  1
GRIDFORMAT_BEGIN
 90
        0
 91
        1
 62
     0
 92
       -2
340
0
 93
        0
 40
0.045
309
GRIDFORMAT_END
 95
        2
302
GRIDFORMAT
  1
GRIDFORMAT_BEGIN
 90
        0
 91
        1
 62
     0
 92
       -2
340
0
 93
        0
 40
0.045
309
GRIDFORMAT_END
 95
        4
302
GRIDFORMAT
  1
GRIDFORMAT_BEGIN
 90
        0
 91
        1
 62
     0
 92
       -2
340
0
 93
        0
 40
0.045
309
GRIDFORMAT_END
 95
        8
302
GRIDFORMAT
  1
GRIDFORMAT_BEGIN
 90
        0
 91
        1
 62
     0
 92
       -2
340
0
 93
        0
 40
0.045
309
GRIDFORMAT_END
 95
       16
302
GRIDFORMAT
  1
GRIDFORMAT_BEGIN
 90
        0
 91
        1
 62
     0
 92
       -2
340
0
 93
        0
 40
0.045
309
GRIDFORMAT_END
 95
       32
302
GRIDFORMAT
  1
GRIDFORMAT_BEGIN
 90
        0
 91
        1
 62
     0
 92
       -2
340
0
 93
        0
 40
0.045
309
GRIDFORMAT_END
309
TABLEFORMAT_END
  1
CELLSTYLE_BEGIN
 90
        2
 91
        1
300
_HEADER
309
CELLSTYLE_END
300
CELLSTYLE
  1
TABLEFORMAT_BEGIN
 90
        5
170
     1
 91
        0
 92
        0
 62
   257
 93
        1
300
CONTENTFORMAT
  1
CONTENTFORMAT_BEGIN
 90
        0
 91
        0
 92
        4
 93
        0
300

 40
0.0
140
1.0
 94
        2
 62
     0
340
10
144
4.5
309
CONTENTFORMAT_END
171
     1
301
MARGIN
  1
CELLMARGIN_BEGIN
 40
1.5
 40
1.5
 40
1.5
 40
1.5
 40
0.18
 40
0.18
309
CELLMARGIN_END
 94
        6
 95
        1
302
GRIDFORMAT
  1
GRIDFORMAT_BEGIN
 90
        0
 91
        1
 62
     0
 92
       -2
340
0
 93
        0
 40
0.045
309
GRIDFORMAT_END
 95
        2
302
GRIDFORMAT
  1
GRIDFORMAT_BEGIN
 90
        0
 91
        1
 62
     0
 92
       -2
340
0
 93
        0
 40
0.045
309
GRIDFORMAT_END
 95
        4
302
GRIDFORMAT
  1
GRIDFORMAT_BEGIN
 90
        0
 91
        1
 62
     0
 92
       -2
340
0
 93
        0
 40
0.045
309
GRIDFORMAT_END
 95
        8
302
GRIDFORMAT
  1
GRIDFORMAT_BEGIN
 90
        0
 91
        1
 62
     0
 92
       -2
340
0
 93
        0
 40
0.045
309
GRIDFORMAT_END
 95
       16
302
GRIDFORMAT
  1
GRIDFORMAT_BEGIN
 90
        0
 91
        1
 62
     0
 92
       -2
340
0
 93
        0
 40
0.045
309
GRIDFORMAT_END
 95
       32
302
GRIDFORMAT
  1
GRIDFORMAT_BEGIN
 90
        0
 91
        1
 62
     0
 92
       -2
340
0
 93
        0
 40
0.045
309
GRIDFORMAT_END
309
TABLEFORMAT_END
  1
CELLSTYLE_BEGIN
 90
        3
 91
        2
300
_DATA
309
CELLSTYLE_END
  0
XRECORD
  5
CC96
102
{ACAD_REACTORS
330
C8EF
102
}
330
C8EF
100
AcDbXrecord
280
     1
102
ACAD_ROUNDTRIP_PRE2007_TABLESTYLE
 90
        4
 91
        0
  1

 92
        4
 93
        0
  2

 94
        4
 95
        0
  3

  0
ENDSEC
  0
EOF
