  0
SECTION
  2
HEADER
  9
$ACADVER
  1
AC1009
  9
$INSBASE
 10
0.0
 20
0.0
 30
0.0
  9
$EXTMIN
 10
0.0
 20
0.0
 30
0.0
  9
$EXTMAX
 10
420.0
 20
297.0
 30
0.0
  9
$LIMMIN
 10
0.0
 20
0.0
  9
$LIMMAX
 10
10000.0
 20
10000.0
  9
$ORTHOMODE
 70
     1
  9
$REGENMODE
 70
     1
  9
$FILLMODE
 70
     1
  9
$QTEXTMODE
 70
     0
  9
$MIRRTEXT
 70
     1
  9
$DRAGMODE
 70
     2
  9
$LTSCALE
 40
33.670033670033661
  9
$OSMODE
 70
   311
  9
$ATTMODE
 70
     1
  9
$TEXTSIZE
 40
3.0
  9
$TRACEWID
 40
1.0
  9
$TEXTSTYLE
  7
FUTURA
  9
$CLAYER
  8
MEASURE
  9
$CELTYPE
  6
BYLAYER
  9
$CECOLOR
 62
   256
  9
$DIMSCALE
 40
1.5
  9
$DIMASZ
 40
2.5
  9
$DIMEXO
 40
1.0
  9
$DIMDLI
 40
0.38
  9
$DIMRND
 40
0.0
  9
$DIMDLE
 40
0.0
  9
$DIMEXE
 40
2.0
  9
$DIMTP
 40
0.0
  9
$DIMTM
 40
0.0
  9
$DIMTXT
 40
2.7999999999999989
  9
$DIMCEN
 40
2.0
  9
$DIMTSZ
 40
0.0
  9
$DIMTOL
 70
     0
  9
$DIMLIM
 70
     0
  9
$DIMTIH
 70
     0
  9
$DIMTOH
 70
     0
  9
$DIMSE1
 70
     0
  9
$DIMSE2
 70
     0
  9
$DIMTAD
 70
     1
  9
$DIMZIN
 70
     8
  9
$DIMBLK
  1

  9
$DIMASO
 70
     1
  9
$DIMSHO
 70
     1
  9
$DIMPOST
  1

  9
$DIMAPOST
  1

  9
$DIMALT
 70
     0
  9
$DIMALTD
 70
     2
  9
$DIMALTF
 40
25.399999999999999
  9
$DIMLFAC
 40
1.0
  9
$DIMTOFL
 70
     1
  9
$DIMTVP
 40
0.0
  9
$DIMTIX
 70
     0
  9
$DIMSOXD
 70
     0
  9
$DIMSAH
 70
     0
  9
$DIMBLK1
  1

  9
$DIMBLK2
  1

  9
$DIMSTYLE
  2
AD-STANDARD
  9
$DIMCLRD
 70
     9
  9
$DIMCLRE
 70
     9
  9
$DIMCLRT
 70
     2
  9
$DIMTFAC
 40
1.0
  9
$DIMGAP
 40
0.5
  9
$LUNITS
 70
     2
  9
$LUPREC
 70
     4
  9
$SKETCHINC
 40
1.0
  9
$FILLETRAD
 40
2.0
  9
$AUNITS
 70
     0
  9
$AUPREC
 70
     0
  9
$MENU
  1
.
  9
$ELEVATION
 40
0.0
  9
$PELEVATION
 40
0.0
  9
$THICKNESS
 40
0.0
  9
$LIMCHECK
 70
     0
  9
$BLIPMODE
 70
     0
  9
$CHAMFERA
 40
3.0
  9
$CHAMFERB
 40
3.0
  9
$SKPOLY
 70
     0
  9
$TDCREATE
 40
2450899.8310824069
  9
$TDUPDATE
 40
2454014.7349992939
  9
$TDINDWG
 40
1.73312
  9
$TDUSRTIMER
 40
1.73312
  9
$USRTIMER
 70
     1
  9
$ANGBASE
 50
0.0
  9
$ANGDIR
 70
     0
  9
$PDMODE
 70
     0
  9
$PDSIZE
 40
0.0
  9
$PLINEWID
 40
0.0
  9
$COORDS
 70
     1
  9
$SPLFRAME
 70
     0
  9
$SPLINETYPE
 70
     6
  9
$SPLINESEGS
 70
     8
  9
$ATTDIA
 70
     0
  9
$ATTREQ
 70
     1
  9
$HANDLING
 70
 22529
  9
$HANDSEED
  5
1763
  9
$SURFTAB1
 70
     6
  9
$SURFTAB2
 70
     6
  9
$SURFTYPE
 70
     6
  9
$SURFU
 70
     6
  9
$SURFV
 70
     6
  9
$UCSNAME
  2

  9
$UCSORG
 10
0.0
 20
0.0
 30
0.0
  9
$UCSXDIR
 10
1.0
 20
0.0
 30
0.0
  9
$UCSYDIR
 10
0.0
 20
1.0
 30
0.0
  9
$PUCSNAME
  2

  9
$PUCSORG
 10
0.0
 20
0.0
 30
0.0
  9
$PUCSXDIR
 10
1.0
 20
0.0
 30
0.0
  9
$PUCSYDIR
 10
0.0
 20
1.0
 30
0.0
  9
$USERI1
 70
     0
  9
$USERI2
 70
     0
  9
$USERI3
 70
     0
  9
$USERI4
 70
     0
  9
$USERI5
 70
     0
  9
$USERR1
 40
0.0
  9
$USERR2
 40
0.0
  9
$USERR3
 40
0.0
  9
$USERR4
 40
0.0
  9
$USERR5
 40
0.0
  9
$WORLDVIEW
 70
     1
  9
$SHADEDGE
 70
     3
  9
$SHADEDIF
 70
    70
  9
$TILEMODE
 70
     0
  9
$MAXACTVP
 70
    16
  9
$PLIMCHECK
 70
     0
  9
$PEXTMIN
 10
0.0
 20
0.0
 30
0.0
  9
$PEXTMAX
 10
408.0
 20
285.0
 30
0.0
  9
$PLIMMIN
 10
-5.873748779296875
 20
-5.8737497329711914
  9
$PLIMMAX
 10
414.07290649414062
 20
291.05224514007568
  9
$UNITMODE
 70
     0
  9
$VISRETAIN
 70
     0
  9
$PLINEGEN
 70
     0
  9
$PSLTSCALE
 70
     1
  0
ENDSEC
  0
SECTION
  2
TABLES
  0
TABLE
  2
VPORT
 70
     8
  0
VPORT
  2
*ACTIVE
 70
     0
 10
0.0
 20
0.0
 11
1.0
 21
1.0
 12
208.36117462327721
 22
141.89781184047411
 13
0.0
 23
0.0
 14
168.0
 24
168.0
 15
0.0
 25
0.0
 16
0.0
 26
0.0
 36
1.0
 17
0.0
 27
0.0
 37
0.0
 40
418.9028116031987
 41
1.2185929648241201
 42
50.0
 43
0.0
 44
0.0
 50
0.0
 51
0.0
 71
     0
 72
   100
 73
     1
 74
     0
 75
     0
 76
     0
 77
     0
 78
     1
  0
ENDTAB
  0
TABLE
  2
LTYPE
 70
     3
  0
LTYPE
  2
CONTINUOUS
 70
     0
  3
Solid line
 72
    65
 73
     0
 40
0.0
  0
LTYPE
  2
CENTER
 70
     0
  3
____ _ ____ _ ____ _ ____ _ ____ _ ____ _ ____ 
 72
    65
 73
     4
 40
2.0
 49
1.25
 49
-0.25
 49
0.25
 49
-0.25
  0
LTYPE
  2
HIDDEN
 70
     0
  3
__ __ __ __ __ __ __ __ __ __ __ __ __ __ __ __
 72
    65
 73
     2
 40
0.375
 49
0.25
 49
-0.125
  0
ENDTAB
  0
TABLE
  2
LAYER
 70
    23
  0
LAYER
  2
0
 70
     0
 62
     7
  6
CONTINUOUS
  0
LAYER
  2
HOJO
 70
     0
 62
     4
  6
CONTINUOUS
  0
LAYER
  2
MEASURE
 70
     0
 62
     8
  6
CONTINUOUS
  0
LAYER
  2
DEFPOINTS
 70
     0
 62
     7
  6
CONTINUOUS
  0
LAYER
  2
NEJI
 70
     0
 62
     7
  6
CONTINUOUS
  0
LAYER
  2
CENTER
 70
     0
 62
     8
  6
CENTER
  0
LAYER
  2
1
 70
     0
 62
     7
  6
CONTINUOUS
  0
LAYER
  2
2
 70
     0
 62
     4
  6
HIDDEN
  0
LAYER
  2
3
 70
     0
 62
     9
  6
CONTINUOUS
  0
LAYER
  2
PANEL_CUT
 70
     0
 62
     6
  6
CONTINUOUS
  0
LAYER
  2
AD4531A
 70
     0
 62
     7
  6
CONTINUOUS
  0
LAYER
  2
NOTE
 70
     0
 62
     2
  6
CONTINUOUS
  0
ENDTAB
  0
TABLE
  2
STYLE
 70
     8
  0
STYLE
  2
STANDARD
 70
     0
 40
0.0
 41
0.8
 50
0.0
 71
     0
 42
84.175084175084166
  3
C:\ACLTWIN2\Romans.shx
  4
C:\ACLTWIN2\Bigfont.shx
  0
STYLE
  2
AD-STANDARD
 70
     0
 40
0.0
 41
0.8
 50
0.0
 71
     0
 42
3.5
  3
C:\ACLTWIN2\Romans.shx
  4
C:\ACLTWIN2\Bigfont.shx
  0
STYLE
  2
BIGFONT
 70
     0
 40
3.5
 41
0.8
 50
15.0
 71
     0
 42
3.5
  3
ROMANS.SHX
  4
BIGFONT.SHX
  0
STYLE
  2
ROMAND
 70
     0
 40
5.0
 41
1.0
 50
0.0
 71
     0
 42
4.5
  3
romand
  4

  0
STYLE
  2
FUTURA
 70
     0
 40
3.0
 41
1.0
 50
0.0
 71
     0
 42
3.0
  3
txt
  4

  0
ENDTAB
  0
TABLE
  2
VIEW
 70
     0
  0
ENDTAB
  0
TABLE
  2
UCS
 70
     0
  0
ENDTAB
  0
TABLE
  2
APPID
 70
     3
  0
APPID
  2
ACAD
 70
     0
  0
APPID
  2
CONTENTTABDATA
 70
     0
  0
APPID
  2
CONTENTCURRENTTAB
 70
     0
  0
ENDTAB
  0
TABLE
  2
DIMSTYLE
 70
     2
  0
DIMSTYLE
  2
STANDARD
 70
     0
  3

  4

  5

  6

  7

 40
1.0
 41
0.18
 42
0.0625
 43
0.38
 44
0.18
 45
0.0
 46
0.0
 47
0.0
 48
0.0
140
0.18
141
0.09
142
0.0
143
25.399999999999999
144
1.0
145
0.0
146
1.0
147
0.09
 71
     0
 72
     0
 73
     1
 74
     1
 75
     0
 76
     0
 77
     0
 78
     0
170
     0
171
     2
172
     0
173
     0
174
     0
175
     0
176
     0
177
     0
178
     0
  0
DIMSTYLE
  2
AD-STANDARD
 70
     0
  3

  4

  5

  6

  7

 40
1.0
 41
2.5
 42
1.0
 43
0.38
 44
2.0
 45
0.0
 46
0.0
 47
0.0
 48
0.0
140
2.7999999999999989
141
2.0
142
0.0
143
25.399999999999999
144
1.0
145
0.0
146
1.0
147
0.5
 71
     0
 72
     0
 73
     0
 74
     0
 75
     0
 76
     0
 77
     1
 78
     8
170
     0
171
     2
172
     1
173
     0
174
     0
175
     0
176
     9
177
     9
178
     2
  0
ENDTAB
  0
ENDSEC
  0
SECTION
  2
BLOCKS
  0
BLOCK
  8
0
  2
$MODEL_SPACE
 70
     0
 10
0.0
 20
0.0
 30
0.0
  3
$MODEL_SPACE
  1

  0
ENDBLK
  5
1C
  8
0
  0
BLOCK
 67
     1
  8
0
  2
$PAPER_SPACE
 70
     0
 10
0.0
 20
0.0
 30
0.0
  3
$PAPER_SPACE
  1

  0
ENDBLK
  5
D66
 67
     1
  8
0
  0
BLOCK
  8
0
  2
*D13
 70
     1
 10
0.0
 20
0.0
 30
0.0
  3
*D13
  1

  0
LINE
  5
1416
  8
MEASURE
 62
     9
 10
60.906649831383561
 20
183.63142567521959
 30
0.0
 11
60.906649831383561
 21
158.9467235175882
 31
0.0
  0
LINE
  5
1417
  8
MEASURE
 62
     9
 10
156.9066498313837
 20
183.63142567521959
 30
0.0
 11
156.9066498313837
 21
158.9467235175882
 31
0.0
  0
LINE
  5
1418
  8
MEASURE
 62
     9
 10
64.656649831383561
 20
161.9467235175882
 30
0.0
 11
153.1566498313837
 21
161.9467235175882
 31
0.0
  0
SOLID
  5
1419
  8
MEASURE
 62
     9
 10
64.656649831383561
 20
162.5717235175882
 30
0.0
 11
64.656649831383561
 21
161.3217235175882
 31
0.0
 12
60.906649831383561
 22
161.9467235175882
 32
0.0
 13
60.906649831383561
 23
161.9467235175882
 33
0.0
  0
SOLID
  5
141A
  8
MEASURE
 62
     9
 10
153.1566498313837
 20
162.5717235175882
 30
0.0
 11
153.1566498313837
 21
161.3217235175882
 31
0.0
 12
156.9066498313837
 22
161.9467235175882
 32
0.0
 13
156.9066498313837
 23
161.9467235175882
 33
0.0
  0
TEXT
  5
141B
  8
MEASURE
 62
     2
 10
105.7066498313836
 20
162.6967235175882
 30
0.0
 40
4.1999999999999993
  1
96
 41
0.8
  7
AD-STANDARD
  0
POINT
  5
141C
  8
DEFPOINTS
 62
     0
 10
60.906649831383561
 20
185.13142567521959
 30
0.0
  0
POINT
  5
141D
  8
DEFPOINTS
 62
     0
 10
156.9066498313837
 20
185.13142567521959
 30
0.0
  0
POINT
  5
141E
  8
DEFPOINTS
 62
     0
 10
156.9066498313837
 20
161.9467235175882
 30
0.0
  0
ENDBLK
  5
116C
  8
0
  0
BLOCK
  8
0
  2
*D14
 70
     1
 10
0.0
 20
0.0
 30
0.0
  3
*D14
  1

  0
LINE
  5
141F
  8
MEASURE
 62
     9
 10
60.206649831383629
 20
232.33142567521961
 30
0.0
 11
39.844687561633691
 21
232.33142567521961
 31
0.0
  0
LINE
  5
1420
  8
MEASURE
 62
     9
 10
60.206649831383523
 20
184.33142567521949
 30
0.0
 11
39.844687561633691
 21
184.33142567521949
 31
0.0
  0
LINE
  5
1421
  8
MEASURE
 62
     9
 10
42.844687561633691
 20
228.58142567521961
 30
0.0
 11
42.844687561633691
 21
188.08142567521949
 31
0.0
  0
SOLID
  5
1422
  8
MEASURE
 62
     9
 10
42.219687561633691
 20
228.58142567521961
 30
0.0
 11
43.469687561633691
 21
228.58142567521961
 31
0.0
 12
42.844687561633691
 22
232.33142567521961
 32
0.0
 13
42.844687561633691
 23
232.33142567521961
 33
0.0
  0
SOLID
  5
1423
  8
MEASURE
 62
     9
 10
42.219687561633691
 20
188.08142567521949
 30
0.0
 11
43.469687561633691
 21
188.08142567521949
 31
0.0
 12
42.844687561633691
 22
184.33142567521949
 32
0.0
 13
42.844687561633691
 23
184.33142567521949
 33
0.0
  0
TEXT
  5
1424
  8
MEASURE
 62
     2
 10
42.094687561633663
 20
205.13142567521959
 30
0.0
 40
4.1999999999999993
  1
48
 50
90.0
 41
0.8
  7
AD-STANDARD
  0
POINT
  5
1425
  8
DEFPOINTS
 62
     0
 10
61.706649831383629
 20
232.33142567521961
 30
0.0
  0
POINT
  5
1426
  8
DEFPOINTS
 62
     0
 10
61.706649831383508
 20
184.33142567521949
 30
0.0
  0
POINT
  5
1427
  8
DEFPOINTS
 62
     0
 10
42.844687561633691
 20
184.33142567521949
 30
0.0
  0
ENDBLK
  5
1179
  8
0
  0
BLOCK
  8
0
  2
*D19
 70
     1
 10
0.0
 20
0.0
 30
0.0
  3
*D19
  1

  0
LINE
  5
1404
  8
MEASURE
 62
     9
 10
254.93940626743591
 20
70.869895235101467
 30
0.0
 11
254.93940626743591
 21
57.20539355923529
 31
0.0
  0
LINE
  5
1405
  8
MEASURE
 62
     9
 10
346.93940626743591
 20
70.869895235101467
 30
0.0
 11
346.93940626743591
 21
57.20539355923529
 31
0.0
  0
LINE
  5
1406
  8
MEASURE
 62
     9
 10
258.68940626743591
 20
60.20539355923529
 30
0.0
 11
343.18940626743591
 21
60.20539355923529
 31
0.0
  0
SOLID
  5
1407
  8
MEASURE
 62
     9
 10
258.68940626743591
 20
60.83039355923529
 30
0.0
 11
258.68940626743591
 21
59.58039355923529
 31
0.0
 12
254.93940626743591
 22
60.20539355923529
 32
0.0
 13
254.93940626743591
 23
60.20539355923529
 33
0.0
  0
SOLID
  5
1408
  8
MEASURE
 62
     9
 10
343.18940626743591
 20
60.83039355923529
 30
0.0
 11
343.18940626743591
 21
59.58039355923529
 31
0.0
 12
346.93940626743591
 22
60.20539355923529
 32
0.0
 13
346.93940626743591
 23
60.20539355923529
 33
0.0
  0
INSERT
  5
1409
  8
MEASURE
  2
*U32
 10
0.0
 20
0.0
 30
0.0
  0
POINT
  5
140A
  8
DEFPOINTS
 62
     0
 10
254.93940626743591
 20
72.369895235101467
 30
0.0
  0
POINT
  5
140B
  8
DEFPOINTS
 62
     0
 10
346.93940626743591
 20
72.369895235101467
 30
0.0
  0
POINT
  5
140C
  8
DEFPOINTS
 62
     0
 10
346.93940626743591
 20
60.20539355923529
 30
0.0
  0
ENDBLK
  5
11F4
  8
0
  0
BLOCK
  8
0
  2
*D20
 70
     1
 10
0.0
 20
0.0
 30
0.0
  3
*D20
  1

  0
LINE
  5
140D
  8
MEASURE
 62
     9
 10
253.43940626743591
 20
117.3698952351014
 30
0.0
 11
239.29811890738071
 21
117.3698952351014
 31
0.0
  0
LINE
  5
140E
  8
MEASURE
 62
     9
 10
253.43940626743591
 20
72.369895235101467
 30
0.0
 11
239.29811890738071
 21
72.369895235101467
 31
0.0
  0
LINE
  5
140F
  8
MEASURE
 62
     9
 10
242.29811890738071
 20
113.6198952351014
 30
0.0
 11
242.29811890738071
 21
76.119895235101467
 31
0.0
  0
SOLID
  5
1410
  8
MEASURE
 62
     9
 10
241.67311890738071
 20
113.6198952351014
 30
0.0
 11
242.92311890738071
 21
113.6198952351014
 31
0.0
 12
242.29811890738071
 22
117.3698952351014
 32
0.0
 13
242.29811890738071
 23
117.3698952351014
 33
0.0
  0
SOLID
  5
1411
  8
MEASURE
 62
     9
 10
241.67311890738071
 20
76.119895235101467
 30
0.0
 11
242.92311890738071
 21
76.119895235101467
 31
0.0
 12
242.29811890738071
 22
72.369895235101467
 32
0.0
 13
242.29811890738071
 23
72.369895235101467
 33
0.0
  0
INSERT
  5
1412
  8
MEASURE
  2
*U33
 10
0.0
 20
0.0
 30
0.0
  0
POINT
  5
1413
  8
DEFPOINTS
 62
     0
 10
254.93940626743591
 20
117.3698952351014
 30
0.0
  0
POINT
  5
1414
  8
DEFPOINTS
 62
     0
 10
254.93940626743591
 20
72.369895235101467
 30
0.0
  0
POINT
  5
1415
  8
DEFPOINTS
 62
     0
 10
242.29811890738071
 20
72.369895235101467
 30
0.0
  0
ENDBLK
  5
1201
  8
0
  0
BLOCK
  8
0
  2
*D21
 70
     1
 10
0.0
 20
0.0
 30
0.0
  3
*D21
  1

  0
LINE
  5
13FB
  8
MEASURE
 62
     9
 10
59.906649831383668
 20
88.830073655930391
 30
0.0
 11
59.906649831383668
 21
57.153000733703948
 31
0.0
  0
LINE
  5
13FC
  8
MEASURE
 62
     9
 10
157.90664983138359
 20
88.830073655930391
 30
0.0
 11
157.90664983138359
 21
57.153000733703948
 31
0.0
  0
LINE
  5
13FD
  8
MEASURE
 62
     9
 10
63.656649831383668
 20
60.153000733703941
 30
0.0
 11
154.15664983138359
 21
60.153000733703941
 31
0.0
  0
SOLID
  5
13FE
  8
MEASURE
 62
     9
 10
63.656649831383668
 20
60.778000733703941
 30
0.0
 11
63.656649831383668
 21
59.528000733703941
 31
0.0
 12
59.906649831383668
 22
60.153000733703941
 32
0.0
 13
59.906649831383668
 23
60.153000733703941
 33
0.0
  0
SOLID
  5
13FF
  8
MEASURE
 62
     9
 10
154.15664983138359
 20
60.778000733703941
 30
0.0
 11
154.15664983138359
 21
59.528000733703941
 31
0.0
 12
157.90664983138359
 22
60.153000733703941
 32
0.0
 13
157.90664983138359
 23
60.153000733703941
 33
0.0
  0
TEXT
  5
1400
  8
MEASURE
 62
     2
 10
105.7066498313836
 20
60.903000733703948
 30
0.0
 40
4.1999999999999993
  1
98
 41
0.8
  7
AD-STANDARD
  0
POINT
  5
1401
  8
DEFPOINTS
 62
     0
 10
59.906649831383668
 20
90.330073655930391
 30
0.0
  0
POINT
  5
1402
  8
DEFPOINTS
 62
     0
 10
157.90664983138359
 20
90.330073655930391
 30
0.0
  0
POINT
  5
1403
  8
DEFPOINTS
 62
     0
 10
157.90664983138359
 20
60.153000733703941
 30
0.0
  0
ENDBLK
  5
120E
  8
0
  0
BLOCK
  8
0
  2
_DOTSMALL
 70
     0
 10
0.0
 20
0.0
 30
0.0
  3
_DOTSMALL
  1

  0
POLYLINE
  5
1317
  8
0
  6
BYBLOCK
 62
     0
 66
     1
 10
0.0
 20
0.0
 30
0.0
 70
     1
 40
0.5
 41
0.5
  0
VERTEX
  5
1720
  8
0
  6
BYBLOCK
 62
     0
 10
-0.0625
 20
0.0
 30
0.0
 42
1.0
  0
VERTEX
  5
1721
  8
0
  6
BYBLOCK
 62
     0
 10
0.0625
 20
0.0
 30
0.0
 42
1.0
  0
SEQEND
  5
1722
  8
0
  6
BYBLOCK
 62
     0
  0
ENDBLK
  5
1319
  8
0
  0
BLOCK
  8
0
  2
*D26
 70
     1
 10
0.0
 20
0.0
 30
0.0
  3
*D26
  1

  0
LINE
  5
1734
  8
MEASURE
 62
     9
 10
210.9749602106032
 20
203.13142567521959
 30
0.0
 11
210.9749602106032
 21
158.9467235175882
 31
0.0
  0
LINE
  5
1735
  8
MEASURE
 62
     9
 10
215.9749602106032
 20
183.85263622500659
 30
0.0
 11
215.9749602106032
 21
158.9467235175882
 31
0.0
  0
LINE
  5
1736
  8
MEASURE
 62
     9
 10
207.2249602106032
 20
161.9467235175882
 30
0.0
 11
203.4749602106032
 21
161.9467235175882
 31
0.0
  0
LINE
  5
1737
  8
MEASURE
 62
     9
 10
215.9749602106032
 20
161.9467235175882
 30
0.0
 11
219.7249602106032
 21
161.9467235175882
 31
0.0
  0
LINE
  5
1738
  8
MEASURE
 62
     9
 10
210.9749602106032
 20
161.9467235175882
 30
0.0
 11
215.9749602106032
 21
161.9467235175882
 31
0.0
  0
SOLID
  5
1739
  8
MEASURE
 62
     9
 10
207.2249602106032
 20
162.5717235175882
 30
0.0
 11
207.2249602106032
 21
161.3217235175882
 31
0.0
 12
210.9749602106032
 22
161.9467235175882
 32
0.0
 13
210.9749602106032
 23
161.9467235175882
 33
0.0
  0
INSERT
  5
173A
  8
MEASURE
 62
     9
  2
_DOTSMALL
 10
215.9749602106032
 20
161.9467235175882
 30
0.0
 41
3.75
 42
3.75
 43
3.75
 50
180.0
  0
TEXT
  8
MEASURE
  40
4.2
  5
175A
  62
2
  72
0
  71
0
 10
205.075
 20
157.363
 30
0.000000
  1
5
  7
AD-STANDARD
  0
POINT
  5
173C
  8
DEFPOINTS
 62
     0
 10
210.9749602106032
 20
204.63142567521959
 30
0.0
  0
POINT
  5
173D
  8
DEFPOINTS
 62
     0
 10
215.9749602106032
 20
185.35263622500659
 30
0.0
  0
POINT
  5
173E
  8
DEFPOINTS
 62
     0
 10
215.9749602106032
 20
161.9467235175882
 30
0.0
  0
ENDBLK
  5
1436
  8
0
  0
BLOCK
  8
0
  2
*D27
 70
     1
 10
0.0
 20
0.0
 30
0.0
  3
*D27
  1

  0
LINE
  5
173F
  8
MEASURE
 62
     9
 10
215.9749602106032
 20
183.85263622500659
 30
0.0
 11
215.9749602106032
 21
158.9467235175882
 31
0.0
  0
LINE
  5
1740
  8
MEASURE
 62
     9
 10
222.97496021060331
 20
182.83142567521949
 30
0.0
 11
222.97496021060331
 21
158.9467235175882
 31
0.0
  0
LINE
  5
1741
  8
MEASURE
 62
     9
 10
215.9749602106032
 20
161.9467235175882
 30
0.0
 11
219.2249602106032
 21
161.9467235175882
 31
0.0
  0
TEXT
  8
MEASURE
  40
4.2
  5
175B
  62
2
  72
0
  71
0
 10
211.278
 20
157.382
 30
0.000000
  1
7
  7
AD-STANDARD
  0
INSERT
  5
1743
  8
MEASURE
 62
     9
  2
_DOTSMALL
 10
215.9749602106032
 20
161.9467235175882
 30
0.0
 41
3.75
 42
3.75
 43
3.75
 50
180.0
  0
INSERT
  5
1744
  8
MEASURE
 62
     9
  2
-ARROW
 10
222.97496021060331
 20
161.9467235175882
 30
0.0
 41
3.75
 42
3.75
 43
3.75
  0
POINT
  5
1745
  8
DEFPOINTS
 62
     0
 10
215.9749602106032
 20
185.35263622500659
 30
0.0
  0
POINT
  5
1746
  8
DEFPOINTS
 62
     0
 10
222.97496021060331
 20
184.33142567521949
 30
0.0
  0
POINT
  5
1747
  8
DEFPOINTS
 62
     0
 10
222.97496021060331
 20
161.9467235175882
 30
0.0
  0
ENDBLK
  5
1445
  8
0
  0
BLOCK
  8
0
  2
*D28
 70
     1
 10
0.0
 20
0.0
 30
0.0
  3
*D28
  1

  0
LINE
  5
1748
  8
MEASURE
 62
     9
 10
222.97496021060331
 20
182.83142567521949
 30
0.0
 11
222.97496021060331
 21
158.9467235175882
 31
0.0
  0
LINE
  5
1749
  8
MEASURE
 62
     9
 10
343.97496021060317
 20
184.83142567521949
 30
0.0
 11
343.97496021060317
 21
158.9467235175882
 31
0.0
  0
LINE
  5
174A
  8
MEASURE
 62
     9
 10
226.72496021060331
 20
161.9467235175882
 30
0.0
 11
340.22496021060317
 21
161.9467235175882
 31
0.0
  0
SOLID
  5
174B
  8
MEASURE
 62
     9
 10
226.72496021060331
 20
162.5717235175882
 30
0.0
 11
226.72496021060331
 21
161.3217235175882
 31
0.0
 12
222.97496021060331
 22
161.9467235175882
 32
0.0
 13
222.97496021060331
 23
161.9467235175882
 33
0.0
  0
SOLID
  5
174C
  8
MEASURE
 62
     9
 10
340.22496021060317
 20
162.5717235175882
 30
0.0
 11
340.22496021060317
 21
161.3217235175882
 31
0.0
 12
343.97496021060317
 22
161.9467235175882
 32
0.0
 13
343.97496021060317
 23
161.9467235175882
 33
0.0
  0
TEXT
  8
MEASURE
  40
4.2
  5
175C
  62
2
  72
0
  71
0
 10
275.075
 20
157.363
 30
0.000000
  1
121
  7
AD-STANDARD
  0
POINT
  5
174E
  8
DEFPOINTS
 62
     0
 10
222.97496021060331
 20
184.33142567521949
 30
0.0
  0
POINT
  5
174F
  8
DEFPOINTS
 62
     0
 10
343.97496021060317
 20
186.33142567521949
 30
0.0
  0
POINT
  5
1750
  8
DEFPOINTS
 62
     0
 10
343.97496021060317
 20
161.9467235175882
 30
0.0
  0
ENDBLK
  5
1452
  8
0
  0
BLOCK
  8
0
  2
*D29
 70
     1
 10
0.0
 20
0.0
 30
0.0
  3
*D29
  1

  0
LINE
  5
1751
  8
MEASURE
 62
     9
 10
343.97496021060317
 20
184.83142567521949
 30
0.0
 11
343.97496021060317
 21
158.9467235175882
 31
0.0
  0
LINE
  5
1752
  8
MEASURE
 62
     9
 10
367.87496021060309
 20
188.83142567521949
 30
0.0
 11
367.87496021060309
 21
158.9467235175882
 31
0.0
  0
LINE
  5
1753
  8
MEASURE
 62
     9
 10
347.72496021060329
 20
161.9467235175882
 30
0.0
 11
364.12496021060309
 21
161.9467235175882
 31
0.0
  0
SOLID
  5
1754
  8
MEASURE
 62
     9
 10
347.72496021060329
 20
162.5717235175882
 30
0.0
 11
347.72496021060329
 21
161.3217235175882
 31
0.0
 12
343.97496021060317
 22
161.9467235175882
 32
0.0
 13
343.97496021060317
 23
161.9467235175882
 33
0.0
  0
SOLID
  5
1755
  8
MEASURE
 62
     9
 10
364.12496021060309
 20
162.5717235175882
 30
0.0
 11
364.12496021060309
 21
161.3217235175882
 31
0.0
 12
367.87496021060309
 22
161.9467235175882
 32
0.0
 13
367.87496021060309
 23
161.9467235175882
 33
0.0
  0
TEXT
  8
MEASURE
  40
4.2
  5
175D
  62
2
  72
0
  71
0
 10
347.525
 20
157.363
 30
0.000000
  1
23.9
  7
AD-STANDARD
  0
POINT
  5
1757
  8
DEFPOINTS
 62
     0
 10
343.97496021060317
 20
186.33142567521949
 30
0.0
  0
POINT
  5
1758
  8
DEFPOINTS
 62
     0
 10
367.87496021060309
 20
190.33142567521949
 30
0.0
  0
POINT
  5
1759
  8
DEFPOINTS
 62
     0
 10
367.87496021060309
 20
161.9467235175882
 30
0.0
  0
ENDBLK
  5
145F
  8
0
  0
BLOCK
  8
0
  2
-ARROW
 70
     0
 10
0.0
 20
0.0
 30
0.0
  3
-ARROW
  1

  0
SOLID
  5
1463
  8
0
  6
BYBLOCK
 62
     9
 10
1.0
 20
0.1666666666669698
 30
0.0
 11
1.0
 21
-0.1666666666669698
 31
0.0
 12
0.0
 22
0.0
 32
0.0
 13
0.0
 23
0.0
 33
0.0
  0
LINE
  5
1464
  8
MEASURE
 10
0.0
 20
0.0
 30
0.0
 11
-1.0
 21
0.0
 31
0.0
  0
LINE
  5
1465
  8
MEASURE
 10
2.0
 20
0.0
 30
0.0
 11
1.0
 21
0.0
 31
0.0
  0
ENDBLK
  5
1467
  8
0
  0
BLOCK
  8
0
  2
*U31
 70
     1
 10
0.0
 20
0.0
 30
0.0
  3
*U31
  1

  0
SOLID
  5
16D5
  8
AD4531A
  6
CONTINUOUS
 62
     8
 10
79.706672798066393
 20
224.3512331668706
 30
0.0
 11
76.114080964466552
 21
224.33884121807051
 31
0.0
 12
79.48352014526597
 22
224.3413781524705
 32
0.0
 13
79.48352014526597
 23
224.3413781524705
 33
0.0
210
0.0
220
0.0
230
1.0
  0
SOLID
  5
16D6
  8
AD4531A
  6
CONTINUOUS
 62
     8
 10
79.917433502066729
 20
224.38353029327081
 30
0.0
 11
76.114080964466552
 21
224.33884121807051
 31
0.0
 12
79.706672798066393
 22
224.3512331668706
 32
0.0
 13
79.706672798066393
 23
224.3512331668706
 33
0.0
210
0.0
220
0.0
230
1.0
  0
SOLID
  5
16D7
  8
AD4531A
  6
CONTINUOUS
 62
     8
 10
80.113265322867278
 20
224.43056115407089
 30
0.0
 11
76.114080964466552
 21
224.33884121807051
 31
0.0
 12
79.917433502066729
 22
224.38353029327081
 32
0.0
 13
79.917433502066729
 23
224.38353029327081
 33
0.0
210
0.0
220
0.0
230
1.0
  0
SOLID
  5
16D8
  8
AD4531A
  6
CONTINUOUS
 62
     8
 10
80.294265834867247
 20
224.49749719247041
 30
0.0
 11
76.114080964466552
 21
224.33884121807051
 31
0.0
 12
80.113265322867278
 22
224.43056115407089
 32
0.0
 13
80.113265322867278
 23
224.43056115407089
 33
0.0
  0
SOLID
  5
16D9
  8
AD4531A
  6
CONTINUOUS
 62
     8
 10
80.462874398067228
 20
224.5818014740704
 30
0.0
 11
76.114080964466552
 21
224.33884121807051
 31
0.0
 12
80.294265834867247
 22
224.49749719247041
 32
0.0
 13
80.294265834867247
 23
224.49749719247041
 33
0.0
210
0.0
220
0.0
230
1.0
  0
SOLID
  5
16DA
  8
AD4531A
  6
CONTINUOUS
 62
     8
 10
80.61411471806673
 20
224.67849770447029
 30
0.0
 11
76.114080964466552
 21
224.33884121807051
 31
0.0
 12
80.462874398067228
 22
224.5818014740704
 32
0.0
 13
80.462874398067228
 23
224.5818014740704
 33
0.0
210
0.0
220
0.0
230
1.0
  0
SOLID
  5
16DB
  8
AD4531A
  6
CONTINUOUS
 62
     8
 10
80.750426154866545
 20
224.7901228180709
 30
0.0
 11
76.114080964466552
 21
224.33884121807051
 31
0.0
 12
80.61411471806673
 22
224.67849770447029
 32
0.0
 13
80.61411471806673
 23
224.67849770447029
 33
0.0
210
0.0
220
0.0
230
1.0
  0
SOLID
  5
16DC
  8
AD4531A
  6
CONTINUOUS
 62
     8
 10
80.874443217266958
 20
224.91404230607071
 30
0.0
 11
76.114080964466552
 21
224.33884121807051
 31
0.0
 12
80.750426154866545
 22
224.7901228180709
 32
0.0
 13
80.750426154866545
 23
224.7901228180709
 33
0.0
  0
SOLID
  5
16DD
  8
AD4531A
  6
CONTINUOUS
 62
     8
 10
74.507518468467197
 20
225.04049872847031
 30
0.0
 11
72.134801783666944
 21
224.33640185807059
 31
0.0
 12
74.507518468467197
 22
224.33640185807059
 32
0.0
 13
74.507518468467197
 23
224.33640185807059
 33
0.0
210
0.0
220
0.0
230
1.0
  0
SOLID
  5
16DE
  8
AD4531A
  6
CONTINUOUS
 62
     8
 10
72.134801783666944
 20
224.33640185807059
 30
0.0
 11
74.507518468467197
 21
225.04049872847031
 31
0.0
 12
74.053797508467142
 22
225.04049872847031
 32
0.0
 13
74.053797508467142
 23
225.04049872847031
 33
0.0
210
0.0
220
0.0
230
1.0
  0
SOLID
  5
16DF
  8
AD4531A
  6
CONTINUOUS
 62
     8
 10
68.906650334066853
 20
225.04049872847031
 30
0.0
 11
68.906650334066853
 21
224.33142556367031
 31
0.0
 12
71.331471748466925
 22
224.33142556367031
 32
0.0
 13
71.331471748466925
 23
224.33142556367031
 33
0.0
210
0.0
220
0.0
230
1.0
  0
SOLID
  5
16E0
  8
AD4531A
  6
CONTINUOUS
 62
     8
 10
71.331471748466925
 20
224.33142556367031
 30
0.0
 11
69.350418705266861
 21
225.04049872847031
 31
0.0
 12
68.906650334066853
 22
225.04049872847031
 32
0.0
 13
68.906650334066853
 23
225.04049872847031
 33
0.0
210
0.0
220
0.0
230
1.0
  0
SOLID
  5
16E1
  8
AD4531A
  6
CONTINUOUS
 62
     8
 10
72.134801783666944
 20
225.04049872847031
 30
0.0
 11
72.134801783666944
 21
224.33640185807059
 31
0.0
 12
74.053797508467142
 22
225.04049872847031
 32
0.0
 13
74.053797508467142
 23
225.04049872847031
 33
0.0
210
0.0
220
0.0
230
1.0
  0
SOLID
  5
16E2
  8
AD4531A
  6
CONTINUOUS
 62
     8
 10
74.053797508467142
 20
225.04049872847031
 30
0.0
 11
72.578570154867066
 21
225.04049872847031
 31
0.0
 12
72.134801783666944
 22
225.04049872847031
 32
0.0
 13
72.134801783666944
 23
225.04049872847031
 33
0.0
210
0.0
220
0.0
230
1.0
  0
SOLID
  5
16E3
  8
AD4531A
  6
CONTINUOUS
 62
     8
 10
76.114080964466552
 20
225.04049872847031
 30
0.0
 11
76.114080964466552
 21
224.33884121807051
 31
0.0
 12
80.874443217266958
 22
224.91404230607071
 32
0.0
 13
80.874443217266958
 23
224.91404230607071
 33
0.0
  0
SOLID
  5
16E4
  8
AD4531A
  6
CONTINUOUS
 62
     8
 10
76.473545054066676
 20
225.04303566287081
 30
0.0
 11
76.114080964466552
 21
225.04049872847031
 31
0.0
 12
80.874443217266958
 22
224.91404230607071
 32
0.0
 13
80.874443217266958
 23
224.91404230607071
 33
0.0
210
0.0
220
0.0
230
1.0
  0
SOLID
  5
16E5
  8
AD4531A
  6
CONTINUOUS
 62
     8
 10
78.256229342066945
 20
225.04791438287049
 30
0.0
 11
76.473545054066676
 21
225.04303566287081
 31
0.0
 12
80.874443217266958
 22
224.91404230607071
 32
0.0
 13
80.874443217266958
 23
224.91404230607071
 33
0.0
210
0.0
220
0.0
230
1.0
  0
SOLID
  5
16E6
  8
AD4531A
  6
CONTINUOUS
 62
     8
 10
80.874443217266958
 20
224.91404230607071
 30
0.0
 11
79.411908390493394
 21
225.04791438287049
 31
0.0
 12
78.256229342066945
 22
225.04791438287049
 32
0.0
 13
78.256229342066945
 23
225.04791438287049
 33
0.0
210
0.0
220
0.0
230
1.0
  0
SOLID
  5
16E7
  8
AD4531A
  6
CONTINUOUS
 62
     8
 10
71.331471748466925
 20
225.05045131727039
 30
0.0
 11
69.350418705266861
 21
225.04049872847031
 31
0.0
 12
71.331471748466925
 22
224.33142556367031
 32
0.0
 13
71.331471748466925
 23
224.33142556367031
 33
0.0
  0
SOLID
  5
16E8
  8
AD4531A
  6
CONTINUOUS
 62
     8
 10
80.981092036466976
 20
225.05045131727121
 30
0.0
 11
79.411908390493394
 21
225.04791438287049
 31
0.0
 12
80.874443217266958
 22
224.91404230607071
 32
0.0
 13
80.874443217266958
 23
224.91404230607071
 33
0.0
210
0.0
220
0.0
230
1.0
  0
SOLID
  5
16E9
  8
AD4531A
  6
CONTINUOUS
 62
     8
 10
70.887703377266803
 20
225.05045131727121
 30
0.0
 11
69.350418705266861
 21
225.04049872847031
 31
0.0
 12
71.331471748466925
 22
225.05045131727039
 32
0.0
 13
71.331471748466925
 23
225.05045131727039
 33
0.0
210
0.0
220
0.0
230
1.0
  0
SOLID
  5
16EA
  8
AD4531A
  6
CONTINUOUS
 62
     8
 10
81.075251332466337
 20
225.19427598287029
 30
0.0
 11
79.411908390493394
 21
225.04791438287049
 31
0.0
 12
80.981092036466976
 22
225.05045131727121
 32
0.0
 13
80.981092036466976
 23
225.05045131727121
 33
0.0
210
0.0
220
0.0
230
1.0
  0
SOLID
  5
16EB
  8
AD4531A
  6
CONTINUOUS
 62
     8
 10
79.756589141152745
 20
225.30934795087461
 30
0.0
 11
79.411908390493394
 21
225.04791438287049
 31
0.0
 12
81.075251332466337
 22
225.19427598287029
 32
0.0
 13
81.075251332466337
 23
225.19427598287029
 33
0.0
210
0.0
220
0.0
230
1.0
  0
SOLID
  5
16EC
  8
AD4531A
  6
CONTINUOUS
 62
     8
 10
81.154579319666709
 20
225.34551630287069
 30
0.0
 11
79.756589141152745
 21
225.30934795087461
 31
0.0
 12
81.075251332466337
 22
225.19427598287029
 32
0.0
 13
81.075251332466337
 23
225.19427598287029
 33
0.0
210
0.0
220
0.0
230
1.0
  0
SOLID
  5
16ED
  8
AD4531A
  6
CONTINUOUS
 62
     8
 10
71.23477551806684
 20
225.48924339407071
 30
0.0
 11
69.350418705266861
 21
225.04049872847031
 31
0.0
 12
70.887703377266803
 22
225.05045131727121
 32
0.0
 13
70.887703377266803
 23
225.05045131727121
 33
0.0
210
0.0
220
0.0
230
1.0
  0
SOLID
  5
16EE
  8
AD4531A
  6
CONTINUOUS
 62
     8
 10
72.578570154867066
 20
225.48924339407071
 30
0.0
 11
72.578570154867066
 21
225.04049872847031
 31
0.0
 12
74.053797508467142
 22
225.04049872847031
 32
0.0
 13
74.053797508467142
 23
225.04049872847031
 33
0.0
210
0.0
220
0.0
230
1.0
  0
SOLID
  5
16EF
  8
AD4531A
  6
CONTINUOUS
 62
     8
 10
81.219075998066387
 20
225.50417227727061
 30
0.0
 11
79.756589141152745
 21
225.30934795087461
 31
0.0
 12
81.154579319666709
 22
225.34551630287069
 32
0.0
 13
81.154579319666709
 23
225.34551630287069
 33
0.0
  0
SOLID
  5
16F0
  8
AD4531A
  6
CONTINUOUS
 62
     8
 10
81.268643793266278
 20
225.67024390607071
 30
0.0
 11
79.756589141152745
 21
225.30934795087461
 31
0.0
 12
81.219075998066387
 22
225.50417227727061
 32
0.0
 13
81.219075998066387
 23
225.50417227727061
 33
0.0
210
0.0
220
0.0
230
1.0
  0
SOLID
  5
16F1
  8
AD4531A
  6
CONTINUOUS
 62
     8
 10
81.305819639666197
 20
225.83885246927059
 30
0.0
 11
79.756589141152745
 21
225.30934795087461
 31
0.0
 12
81.268643793266278
 22
225.67024390607071
 32
0.0
 13
81.268643793266278
 23
225.67024390607071
 33
0.0
210
0.0
220
0.0
230
1.0
  0
SOLID
  5
16F2
  8
AD4531A
  6
CONTINUOUS
 62
     8
 10
81.333140471666866
 20
226.180948315671
 30
0.0
 11
79.756589141152745
 21
225.30934795087461
 31
0.0
 12
81.305819639666197
 22
225.83885246927059
 32
0.0
 13
81.305819639666197
 23
225.83885246927059
 33
0.0
210
0.0
220
0.0
230
1.0
  0
SOLID
  5
16F3
  8
AD4531A
  6
CONTINUOUS
 62
     8
 10
71.809976606067039
 20
226.19080333007031
 30
0.0
 11
71.23477551806684
 21
225.48924339407071
 31
0.0
 12
72.578570154867066
 22
225.48924339407071
 32
0.0
 13
72.578570154867066
 23
225.48924339407071
 33
0.0
210
0.0
220
0.0
230
1.0
  0
SOLID
  5
16F4
  8
AD4531A
  6
CONTINUOUS
 62
     8
 10
71.809976606067039
 20
226.19080333007031
 30
0.0
 11
72.578570154867066
 21
225.48924339407071
 31
0.0
 12
74.053797508467142
 22
225.04049872847031
 32
0.0
 13
74.053797508467142
 23
225.04049872847031
 33
0.0
210
0.0
220
0.0
230
1.0
  0
SOLID
  5
16F5
  8
AD4531A
  6
CONTINUOUS
 62
     8
 10
71.809976606067039
 20
226.19080333007031
 30
0.0
 11
69.350418705266861
 21
225.04049872847031
 31
0.0
 12
71.23477551806684
 22
225.48924339407071
 32
0.0
 13
71.23477551806684
 23
225.48924339407071
 33
0.0
  0
SOLID
  5
16F6
  8
AD4531A
  6
CONTINUOUS
 62
     8
 10
72.573593860466531
 20
226.19080333007111
 30
0.0
 11
71.809976606067039
 21
226.19080333007031
 31
0.0
 12
74.053797508467142
 22
225.04049872847031
 32
0.0
 13
74.053797508467142
 23
225.04049872847031
 33
0.0
210
0.0
220
0.0
230
1.0
  0
SOLID
  5
16F7
  8
AD4531A
  6
CONTINUOUS
 62
     8
 10
76.778562628466943
 20
226.35199623887081
 30
0.0
 11
76.473545054066676
 21
225.04303566287081
 31
0.0
 12
78.256229342066945
 22
225.04791438287049
 32
0.0
 13
78.256229342066945
 23
225.04791438287049
 33
0.0
210
0.0
220
0.0
230
1.0
  0
SOLID
  5
16F8
  8
AD4531A
  6
CONTINUOUS
 62
     8
 10
81.300940919666445
 20
226.5255810964704
 30
0.0
 11
79.756589141152745
 21
225.30934795087461
 31
0.0
 12
81.333140471666866
 22
226.180948315671
 32
0.0
 13
81.333140471666866
 23
226.180948315671
 33
0.0
210
0.0
220
0.0
230
1.0
  0
SOLID
  5
16F9
  8
AD4531A
  6
CONTINUOUS
 62
     8
 10
81.266204433267276
 20
226.69418965967051
 30
0.0
 11
79.756589141152745
 21
225.30934795087461
 31
0.0
 12
81.300940919666445
 22
226.5255810964704
 32
0.0
 13
81.300940919666445
 23
226.5255810964704
 33
0.0
210
0.0
220
0.0
230
1.0
  0
SOLID
  5
16FA
  8
AD4531A
  6
CONTINUOUS
 62
     8
 10
81.214099703666747
 20
226.85782192847071
 30
0.0
 11
79.756589141152745
 21
225.30934795087461
 31
0.0
 12
81.266204433267276
 22
226.69418965967051
 32
0.0
 13
81.266204433267276
 23
226.69418965967051
 33
0.0
210
0.0
220
0.0
230
1.0
  0
SOLID
  5
16FB
  8
AD4531A
  6
CONTINUOUS
 62
     8
 10
79.75357443012831
 20
226.9944508249763
 30
0.0
 11
79.756589141152745
 21
225.30934795087461
 31
0.0
 12
81.214099703666747
 22
226.85782192847071
 32
0.0
 13
81.214099703666747
 23
226.85782192847071
 33
0.0
210
0.0
220
0.0
230
1.0
  0
SOLID
  5
16FC
  8
AD4531A
  6
CONTINUOUS
 62
     8
 10
81.147163665267158
 20
227.0189172628711
 30
0.0
 11
79.75357443012831
 21
226.9944508249763
 31
0.0
 12
81.214099703666747
 22
226.85782192847071
 32
0.0
 13
81.214099703666747
 23
226.85782192847071
 33
0.0
210
0.0
220
0.0
230
1.0
  0
SOLID
  5
16FD
  8
AD4531A
  6
CONTINUOUS
 62
     8
 10
74.05135814846642
 20
227.14537368527081
 30
0.0
 11
72.573593860466531
 21
226.19080333007111
 31
0.0
 12
74.053797508467142
 22
225.04049872847031
 32
0.0
 13
74.053797508467142
 23
225.04049872847031
 33
0.0
210
0.0
220
0.0
230
1.0
  0
SOLID
  5
16FE
  8
AD4531A
  6
CONTINUOUS
 62
     8
 10
74.05135814846642
 20
227.14537368527081
 30
0.0
 11
76.473545054066676
 21
225.04303566287081
 31
0.0
 12
76.778562628466943
 22
226.35199623887081
 32
0.0
 13
76.778562628466943
 23
226.35199623887081
 33
0.0
210
0.0
220
0.0
230
1.0
  0
SOLID
  5
16FF
  8
AD4531A
  6
CONTINUOUS
 62
     8
 10
72.573593860466531
 20
227.14537368527081
 30
0.0
 11
69.350418705266861
 21
225.04049872847031
 31
0.0
 12
71.809976606067039
 22
226.19080333007031
 32
0.0
 13
71.809976606067039
 23
226.19080333007031
 33
0.0
210
0.0
220
0.0
230
1.0
  0
SOLID
  5
1700
  8
AD4531A
  6
CONTINUOUS
 62
     8
 10
72.573593860466531
 20
227.14537368527081
 30
0.0
 11
72.573593860466531
 21
226.19080333007111
 31
0.0
 12
74.05135814846642
 22
227.14537368527081
 32
0.0
 13
74.05135814846642
 23
227.14537368527081
 33
0.0
210
0.0
220
0.0
230
1.0
  0
SOLID
  5
1701
  8
AD4531A
  6
CONTINUOUS
 62
     8
 10
81.067835678066899
 20
227.17269451727049
 30
0.0
 11
79.75357443012831
 21
226.9944508249763
 31
0.0
 12
81.147163665267158
 22
227.0189172628711
 32
0.0
 13
81.147163665267158
 23
227.0189172628711
 33
0.0
210
0.0
220
0.0
230
1.0
  0
SOLID
  5
1702
  8
AD4531A
  6
CONTINUOUS
 62
     8
 10
80.97357880766674
 20
227.31651918287051
 30
0.0
 11
79.75357443012831
 21
226.9944508249763
 31
0.0
 12
81.067835678066899
 22
227.17269451727049
 32
0.0
 13
81.067835678066899
 23
227.17269451727049
 33
0.0
210
0.0
220
0.0
230
1.0
  0
SOLID
  5
1703
  8
AD4531A
  6
CONTINUOUS
 62
     8
 10
71.197599671666921
 20
227.32891113167051
 30
0.0
 11
69.350418705266861
 21
225.04049872847031
 31
0.0
 12
72.573593860466531
 22
227.14537368527081
 32
0.0
 13
72.573593860466531
 23
227.14537368527081
 33
0.0
210
0.0
220
0.0
230
1.0
  0
SOLID
  5
1704
  8
AD4531A
  6
CONTINUOUS
 62
     8
 10
79.45140920814606
 20
227.33325655419119
 30
0.0
 11
79.75357443012831
 21
226.9944508249763
 31
0.0
 12
80.97357880766674
 22
227.31651918287051
 32
0.0
 13
80.97357880766674
 23
227.31651918287051
 33
0.0
210
0.0
220
0.0
230
1.0
  0
SOLID
  5
1705
  8
AD4531A
  6
CONTINUOUS
 62
     8
 10
76.781001988466869
 20
227.3338874260709
 30
0.0
 11
76.778562628466943
 21
226.35199623887081
 31
0.0
 12
78.256229342066945
 22
225.04791438287049
 32
0.0
 13
78.256229342066945
 23
225.04791438287049
 33
0.0
210
0.0
220
0.0
230
1.0
  0
SOLID
  5
1706
  8
AD4531A
  6
CONTINUOUS
 62
     8
 10
78.256229342066945
 20
227.33632678607071
 30
0.0
 11
76.114080964466552
 21
227.3338874260709
 31
0.0
 12
76.781001988466869
 22
227.3338874260709
 32
0.0
 13
76.781001988466869
 23
227.3338874260709
 33
0.0
  0
SOLID
  5
1707
  8
AD4531A
  6
CONTINUOUS
 62
     8
 10
78.256229342066945
 20
227.33632678607071
 30
0.0
 11
76.781001988466869
 21
227.3338874260709
 31
0.0
 12
78.256229342066945
 22
225.04791438287049
 32
0.0
 13
78.256229342066945
 23
225.04791438287049
 33
0.0
210
0.0
220
0.0
230
1.0
  0
SOLID
  5
1708
  8
AD4531A
  6
CONTINUOUS
 62
     8
 10
80.864490628466797
 20
227.45283061967029
 30
0.0
 11
78.256229342066945
 21
227.33632678607071
 31
0.0
 12
79.45140920814606
 22
227.33325655419119
 32
0.0
 13
79.45140920814606
 23
227.33325655419119
 33
0.0
  0
SOLID
  5
1709
  8
AD4531A
  6
CONTINUOUS
 62
     8
 10
80.864490628466797
 20
227.45283061967029
 30
0.0
 11
79.45140920814606
 21
227.33325655419119
 31
0.0
 12
80.97357880766674
 22
227.31651918287051
 32
0.0
 13
80.97357880766674
 23
227.31651918287051
 33
0.0
210
0.0
220
0.0
230
1.0
  0
SOLID
  5
170A
  8
AD4531A
  6
CONTINUOUS
 62
     8
 10
80.74301050046688
 20
227.5792870420706
 30
0.0
 11
78.256229342066945
 21
227.33632678607071
 31
0.0
 12
80.864490628466797
 22
227.45283061967029
 32
0.0
 13
80.864490628466797
 23
227.45283061967029
 33
0.0
210
0.0
220
0.0
230
1.0
  0
SOLID
  5
170B
  8
AD4531A
  6
CONTINUOUS
 62
     8
 10
80.74301050046688
 20
227.5792870420706
 30
0.0
 11
76.114080964466552
 21
227.3338874260709
 31
0.0
 12
78.256229342066945
 22
227.33632678607071
 32
0.0
 13
78.256229342066945
 23
227.33632678607071
 33
0.0
210
0.0
220
0.0
230
1.0
  0
SOLID
  5
170C
  8
AD4531A
  6
CONTINUOUS
 62
     8
 10
80.60416212926657
 20
227.69091215567039
 30
0.0
 11
76.114080964466552
 21
227.3338874260709
 31
0.0
 12
80.74301050046688
 22
227.5792870420706
 32
0.0
 13
80.74301050046688
 23
227.5792870420706
 33
0.0
210
0.0
220
0.0
230
1.0
  0
SOLID
  5
170D
  8
AD4531A
  6
CONTINUOUS
 62
     8
 10
80.452921809266968
 20
227.79248710607081
 30
0.0
 11
76.114080964466552
 21
227.3338874260709
 31
0.0
 12
80.60416212926657
 22
227.69091215567039
 32
0.0
 13
80.60416212926657
 23
227.69091215567039
 33
0.0
210
0.0
220
0.0
230
1.0
  0
SOLID
  5
170E
  8
AD4531A
  6
CONTINUOUS
 62
     8
 10
80.286850180466899
 20
227.87679138767081
 30
0.0
 11
76.114080964466552
 21
227.3338874260709
 31
0.0
 12
80.452921809266968
 22
227.79248710607081
 32
0.0
 13
80.452921809266968
 23
227.79248710607081
 33
0.0
210
0.0
220
0.0
230
1.0
  0
SOLID
  5
170F
  8
AD4531A
  6
CONTINUOUS
 62
     8
 10
80.105849668466931
 20
227.9462643604702
 30
0.0
 11
76.114080964466552
 21
227.3338874260709
 31
0.0
 12
80.286850180466899
 22
227.87679138767081
 32
0.0
 13
80.286850180466899
 23
227.87679138767081
 33
0.0
210
0.0
220
0.0
230
1.0
  0
SOLID
  5
1710
  8
AD4531A
  6
CONTINUOUS
 62
     8
 10
79.912457207666307
 20
227.99827151567069
 30
0.0
 11
76.114080964466552
 21
227.3338874260709
 31
0.0
 12
80.105849668466931
 22
227.9462643604702
 32
0.0
 13
80.105849668466931
 23
227.9462643604702
 33
0.0
210
0.0
220
0.0
230
1.0
  0
SOLID
  5
1711
  8
AD4531A
  6
CONTINUOUS
 62
     8
 10
79.701696503666653
 20
228.0305686420709
 30
0.0
 11
76.114080964466552
 21
227.3338874260709
 31
0.0
 12
79.912457207666307
 22
227.99827151567069
 32
0.0
 13
79.912457207666307
 23
227.99827151567069
 33
0.0
210
0.0
220
0.0
230
1.0
  0
SOLID
  5
1712
  8
AD4531A
  6
CONTINUOUS
 62
     8
 10
70.833061713267284
 20
227.32891113167051
 30
0.0
 11
74.832343646067102
 21
228.03798429647051
 31
0.0
 12
70.833061713267284
 22
228.03798429647051
 32
0.0
 13
70.833061713267284
 23
228.03798429647051
 33
0.0
210
0.0
220
0.0
230
1.0
  0
SOLID
  5
1713
  8
AD4531A
  6
CONTINUOUS
 62
     8
 10
74.832343646067102
 20
228.03798429647051
 30
0.0
 11
70.833061713267284
 21
227.32891113167051
 31
0.0
 12
71.197599671666921
 22
227.32891113167051
 32
0.0
 13
71.197599671666921
 23
227.32891113167051
 33
0.0
210
0.0
220
0.0
230
1.0
  0
SOLID
  5
1714
  8
AD4531A
  6
CONTINUOUS
 62
     8
 10
74.832343646067102
 20
228.03798429647051
 30
0.0
 11
71.197599671666921
 21
227.32891113167051
 31
0.0
 12
72.573593860466531
 22
227.14537368527081
 32
0.0
 13
72.573593860466531
 23
227.14537368527081
 33
0.0
210
0.0
220
0.0
230
1.0
  0
SOLID
  5
1715
  8
AD4531A
  6
CONTINUOUS
 62
     8
 10
74.832343646067102
 20
228.03798429647051
 30
0.0
 11
72.573593860466531
 21
227.14537368527081
 31
0.0
 12
74.05135814846642
 22
227.14537368527081
 32
0.0
 13
74.05135814846642
 23
227.14537368527081
 33
0.0
210
0.0
220
0.0
230
1.0
  0
SOLID
  5
1716
  8
AD4531A
  6
CONTINUOUS
 62
     8
 10
74.832343646067102
 20
228.03798429647051
 30
0.0
 11
74.05135814846642
 21
227.14537368527081
 31
0.0
 12
76.778562628466943
 22
226.35199623887081
 32
0.0
 13
76.778562628466943
 23
226.35199623887081
 33
0.0
  0
SOLID
  5
1717
  8
AD4531A
  6
CONTINUOUS
 62
     8
 10
76.114080964466552
 20
228.04042365647109
 30
0.0
 11
76.114080964466552
 21
227.3338874260709
 31
0.0
 12
79.701696503666653
 22
228.0305686420709
 32
0.0
 13
79.701696503666653
 23
228.0305686420709
 33
0.0
  0
SOLID
  5
1718
  8
AD4531A
  6
CONTINUOUS
 62
     8
 10
79.481080785267068
 20
228.0429605908709
 30
0.0
 11
76.114080964466552
 21
228.04042365647109
 31
0.0
 12
79.701696503666653
 22
228.0305686420709
 32
0.0
 13
79.701696503666653
 23
228.0305686420709
 33
0.0
  0
ENDBLK
  5
171A
  8
0
  0
BLOCK
  8
0
  2
*U32
 70
     1
 10
0.0
 20
0.0
 30
0.0
  3
*U32
  1

  0
TEXT
  5
1729
  8
MEASURE
 62
     2
 10
294.73940626743592
 20
61.305393559235291
 30
0.0
 40
4.1999999999999993
  1
92
 41
0.8
  7
AD-STANDARD
  0
TEXT
  5
172A
  8
MEASURE
 62
     2
 10
300.81940626743591
 20
63.75539355923528
 30
0.0
 40
2.1000000000000001
  1
+0.8
 41
0.8
  7
AD-STANDARD
  0
TEXT
  5
172B
  8
MEASURE
 62
     2
 10
300.81940626743591
 20
60.95539355923529
 30
0.0
 40
2.1000000000000001
  1
-0
 41
0.8
  7
AD-STANDARD
  0
ENDBLK
  5
172D
  8
0
  0
BLOCK
  8
0
  2
*U33
 70
     1
 10
0.0
 20
0.0
 30
0.0
  3
*U33
  1

  0
TEXT
  5
172F
  8
MEASURE
 62
     2
 10
241.19811890738069
 20
88.669895235101507
 30
0.0
 40
4.1999999999999993
  1
45
 50
90.0
 41
0.8
  7
AD-STANDARD
  0
TEXT
  5
1730
  8
MEASURE
 62
     2
 10
238.7481189073807
 20
94.749895235101505
 30
0.0
 40
2.1000000000000001
  1
+0.6
 50
90.0
 41
0.8
  7
AD-STANDARD
  0
TEXT
  5
1731
  8
MEASURE
 62
     2
 10
241.54811890738071
 20
94.749895235101505
 30
0.0
 40
2.1000000000000001
  1
-0
 50
90.0
 41
0.8
  7
AD-STANDARD
  0
ENDBLK
  5
1733
  8
0
  0
ENDSEC
  0
SECTION
  2
ENTITIES
  0
TEXT
  5
47F
  8
3
 10
272.43056225633291
 20
168.6696265534078
 30
0.0
 40
3.0
  1

  7
AD-STANDARD
  0
TEXT
  5
480
  8
3
 10
268.90591922667488
 20
163.6696265534078
 30
0.0
 40
3.0
  1

  7
AD-STANDARD
  0
TEXT
  5
482
  8
3
 10
219.36447207976781
 20
166.1696265534078
 30
0.0
 40
3.0
  1

  7
AD-STANDARD
  0
TEXT
  5
714
  8
2
 10
568.77806836708157
 20
363.02652996062028
 30
0.0
 40
2.7999999999999989
  1

 41
0.8
  7
AD-STANDARD
  0
LINE
  5
F2A
  8
AD4531A
 10
60.906649831383668
 20
231.53142567521959
 30
0.0
 11
60.906649831383561
 21
185.13142567521959
 31
0.0
  0
LINE
  5
F2B
  8
AD4531A
 10
61.706649831383508
 20
184.33142567521961
 30
0.0
 11
156.10664983138369
 21
184.33142567521961
 31
0.0
  0
LINE
  5
F2C
  8
AD4531A
 10
156.90664983138359
 20
185.13142567521959
 30
0.0
 11
156.90664983138359
 21
231.53142567521959
 31
0.0
  0
LINE
  5
F2D
  8
AD4531A
 10
156.10664983138369
 20
232.33142567521961
 30
0.0
 11
61.706649831383629
 21
232.33142567521961
 31
0.0
  0
ARC
  5
F2E
  8
AD4531A
 10
61.706649831383629
 20
231.53142567521959
 30
0.0
 40
0.8
 50
90.0
 51
180.0
  0
ARC
  5
F2F
  8
AD4531A
 10
156.10664983138369
 20
231.53142567521959
 30
0.0
 40
0.8
 50
0.0
 51
90.0
  0
ARC
  5
F30
  8
AD4531A
 10
156.10664983138369
 20
185.13142567521959
 30
0.0
 40
0.8
 50
270.0
 51
0.0
  0
ARC
  5
F31
  8
AD4531A
 10
61.706649831383508
 20
185.13142567521959
 30
0.0
 40
0.8
 50
180.0
 51
270.0
  0
LINE
  5
F33
  8
AD4531A
 62
     8
 10
155.40664983138379
 20
230.83142567521969
 30
0.0
 11
62.406649831383668
 21
230.83142567521969
 31
0.0
  0
LINE
  5
F34
  8
AD4531A
 62
     8
 10
155.4066498313835
 20
185.83142567521949
 30
0.0
 11
155.40664983138359
 21
204.33142567521961
 31
0.0
  0
LINE
  5
F35
  8
AD4531A
 62
     8
 10
62.406649831383668
 20
230.83142567521969
 30
0.0
 11
62.406649831383561
 21
212.33142567521961
 31
0.0
  0
LINE
  5
F36
  8
AD4531A
 62
     8
 10
62.406649831383561
 20
185.83142567521961
 30
0.0
 11
155.40664983138359
 21
185.83142567521961
 31
0.0
  0
LINE
  5
F3B
  8
AD4531A
 62
     8
 10
62.406649831383561
 20
212.33142567521961
 30
0.0
 11
69.906649831383561
 21
212.33142567521961
 31
0.0
  0
LINE
  5
F3D
  8
AD4531A
 62
     8
 10
69.906649831383561
 20
204.33142567521961
 30
0.0
 11
62.406649831383561
 21
204.33142567521961
 31
0.0
  0
LINE
  5
F3E
  8
AD4531A
 62
     8
 10
155.40664983138359
 20
212.33142567521961
 30
0.0
 11
147.90664983138359
 21
212.33142567521961
 31
0.0
  0
LINE
  5
F40
  8
AD4531A
 62
     8
 10
147.90664983138359
 20
204.33142567521961
 30
0.0
 11
155.40664983138359
 21
204.33142567521961
 31
0.0
  0
LINE
  5
F43
  8
AD4531A
 62
     8
 10
62.406649831383561
 20
204.33142567521961
 30
0.0
 11
62.406649831383561
 21
185.83142567521961
 31
0.0
  0
LINE
  5
F44
  8
AD4531A
 62
     8
 10
155.40664983138359
 20
212.33142567521961
 30
0.0
 11
155.4066498313837
 21
230.83142567521969
 31
0.0
  0
CIRCLE
  5
F45
  8
AD4531A
 62
     8
 10
69.906649831383561
 20
208.33142567521961
 30
0.0
 40
4.0
  0
CIRCLE
  5
F46
  8
AD4531A
 62
     8
 10
147.90664983138359
 20
208.33142567521961
 30
0.0
 40
4.0
  0
CIRCLE
  5
F47
  8
AD4531A
 62
     8
 10
69.906649831383561
 20
208.33142567521961
 30
0.0
 40
3.7000000000000002
  0
CIRCLE
  5
F49
  8
AD4531A
 62
     8
 10
147.90664983138359
 20
208.33142567521961
 30
0.0
 40
3.7000000000000002
  0
LINE
  5
F4E
  8
AD4531A
 62
     8
 10
138.9066498313835
 20
205.33142567521949
 30
0.0
 11
138.90664983138359
 21
221.33142567521941
 31
0.0
  0
LINE
  5
F4F
  8
AD4531A
 62
     8
 10
83.906649831383675
 20
205.33142567521969
 30
0.0
 11
83.906649831383774
 21
221.33142567521961
 31
0.0
  0
LINE
  5
F50
  8
AD4531A
 62
     8
 10
138.40664983138359
 20
221.83142567521941
 30
0.0
 11
84.406649831383788
 21
221.83142567521969
 31
0.0
  0
LINE
  5
F51
  8
AD4531A
 62
     8
 10
138.4066498313835
 20
204.83142567521949
 30
0.0
 11
84.406649831383675
 21
204.83142567521961
 31
0.0
  0
ARC
  5
F52
  8
AD4531A
 62
     8
 10
84.406649831383788
 20
221.33142567521961
 30
0.0
 40
0.5
 50
90.0
 51
180.0
  0
ARC
  5
F53
  8
AD4531A
 62
     8
 10
84.406649831383675
 20
205.33142567521969
 30
0.0
 40
0.5
 50
179.9999999999998
 51
270.0
  0
ARC
  5
F54
  8
AD4531A
 62
     8
 10
138.40664983138359
 20
221.33142567521941
 30
0.0
 40
0.5
 50
0.0
 51
89.999999999999943
  0
ARC
  5
F55
  8
AD4531A
 62
     8
 10
138.4066498313835
 20
205.33142567521949
 30
0.0
 40
0.5
 50
269.99999999999989
 51
0.0
  0
LINE
  5
F5E
  8
AD4531A
 62
     8
 10
132.90664983138359
 20
195.83142567521949
 30
0.0
 11
139.90664983138359
 21
195.83142567521949
 31
0.0
  0
LINE
  5
F60
  8
AD4531A
 62
     8
 10
139.90664983138359
 20
192.83142567521949
 30
0.0
 11
132.90664983138359
 21
192.83142567521949
 31
0.0
  0
ARC
  5
F62
  8
AD4531A
 62
     8
 10
139.90664983138359
 20
194.33142567521949
 30
0.0
 40
1.5
 50
270.0
 51
90.0
  0
ARC
  5
F63
  8
AD4531A
 62
     8
 10
132.90664983138359
 20
194.33142567521949
 30
0.0
 40
1.5
 50
90.0
 51
270.0
  0
ARC
  5
F65
  8
AD4531A
 62
     8
 10
123.9066498313836
 20
194.33142567521949
 30
0.0
 40
1.5
 50
270.0
 51
90.0
  0
LINE
  5
F66
  8
AD4531A
 62
     8
 10
116.9066498313836
 20
195.83142567521949
 30
0.0
 11
123.9066498313836
 21
195.83142567521949
 31
0.0
  0
LINE
  5
F67
  8
AD4531A
 62
     8
 10
123.9066498313836
 20
192.83142567521949
 30
0.0
 11
116.9066498313836
 21
192.83142567521949
 31
0.0
  0
ARC
  5
F68
  8
AD4531A
 62
     8
 10
116.9066498313836
 20
194.33142567521949
 30
0.0
 40
1.5
 50
90.0
 51
270.0
  0
ARC
  5
F69
  8
AD4531A
 62
     8
 10
100.9066498313836
 20
194.33142567521949
 30
0.0
 40
1.5
 50
90.0
 51
270.0
  0
LINE
  5
F6A
  8
AD4531A
 62
     8
 10
107.9066498313836
 20
192.83142567521949
 30
0.0
 11
100.9066498313836
 21
192.83142567521949
 31
0.0
  0
LINE
  5
F6B
  8
AD4531A
 62
     8
 10
100.9066498313836
 20
195.83142567521949
 30
0.0
 11
107.9066498313836
 21
195.83142567521949
 31
0.0
  0
ARC
  5
F6C
  8
AD4531A
 62
     8
 10
107.9066498313836
 20
194.33142567521949
 30
0.0
 40
1.5
 50
270.0
 51
90.0
  0
ARC
  5
F6D
  8
AD4531A
 62
     8
 10
91.906649831383675
 20
194.33142567521949
 30
0.0
 40
1.5
 50
270.0
 51
90.0
  0
LINE
  5
F6E
  8
AD4531A
 62
     8
 10
84.906649831383675
 20
195.83142567521949
 30
0.0
 11
91.906649831383675
 21
195.83142567521949
 31
0.0
  0
LINE
  5
F6F
  8
AD4531A
 62
     8
 10
91.906649831383675
 20
192.83142567521949
 30
0.0
 11
84.906649831383675
 21
192.83142567521949
 31
0.0
  0
ARC
  5
F70
  8
AD4531A
 62
     8
 10
84.906649831383675
 20
194.33142567521949
 30
0.0
 40
1.5
 50
90.0
 51
270.0
  0
CIRCLE
  5
F75
  8
AD4531A
 62
     8
 10
77.406649831383675
 20
201.33142567521949
 30
0.0
 40
1.25
  0
CIRCLE
  5
F76
  8
AD4531A
 62
     8
 10
77.406649831383675
 20
196.33142567521949
 30
0.0
 40
1.25
  0
CIRCLE
  5
F77
  8
AD4531A
 62
     8
 10
77.406649831383675
 20
191.33142567521949
 30
0.0
 40
1.25
  0
LINE
  5
F7F
  8
AD4531A
 62
     8
 10
81.406649831383774
 20
214.33142567521969
 30
0.0
 11
77.406649831383788
 21
214.33142567521969
 31
0.0
  0
LINE
  5
F80
  8
AD4531A
 62
     8
 10
77.406649831383788
 20
214.33142567521969
 30
0.0
 11
77.406649831383788
 21
212.33142567521969
 31
0.0
  0
LINE
  5
F81
  8
AD4531A
 62
     8
 10
77.406649831383788
 20
212.33142567521969
 30
0.0
 11
81.406649831383774
 21
212.33142567521969
 31
0.0
  0
LINE
  5
F82
  8
AD4531A
 62
     8
 10
81.406649831383774
 20
212.33142567521969
 30
0.0
 11
81.406649831383774
 21
214.33142567521969
 31
0.0
  0
TEXT
  5
F85
  8
MEASURE
 62
     8
 10
132.2869265052118
 20
196.83798005960679
 30
0.0
 40
2.5
  1
HOLD
 41
0.8
  7
AD-STANDARD
  0
TEXT
  5
F89
  8
MEASURE
 62
     8
 10
118.4213761614469
 20
196.83798005960679
 30
0.0
 40
2.5
  1
HI
 41
0.8
  7
AD-STANDARD
  0
TEXT
  5
F8A
  8
MEASURE
 62
     8
 10
102.69943419604439
 20
196.83798005960679
 30
0.0
 40
2.5
  1
LO
 41
0.8
  7
AD-STANDARD
  0
TEXT
  5
F8B
  8
MEASURE
 62
     8
 10
84.812371859317437
 20
196.83798005960679
 30
0.0
 40
2.5
  1
ZERO
 41
0.8
  7
AD-STANDARD
  0
TEXT
  5
F8C
  8
MEASURE
 62
     8
 10
131.7296307762135
 20
189.3281884622082
 30
0.0
 40
2.5
  1
ENTER
 41
0.8
  7
AD-STANDARD
  0
LINE
  5
F8E
  8
AD4531A
 62
     8
 10
121.9066498313836
 20
188.83142567521949
 30
0.0
 11
118.9066498313836
 21
188.83142567521949
 31
0.0
  0
LINE
  5
F90
  8
AD4531A
 62
     8
 10
120.4066498313836
 20
191.83142567521949
 30
0.0
 11
121.9066498313836
 21
188.83142567521949
 31
0.0
  0
LINE
  5
F91
  8
AD4531A
 62
     8
 10
120.4066498313836
 20
191.83142567521949
 30
0.0
 11
118.9066498313836
 21
188.83142567521949
 31
0.0
  0
LINE
  5
F94
  8
AD4531A
 62
     8
 10
105.4066498313836
 20
191.83142567521949
 30
0.0
 11
105.4066498313836
 21
188.83142567521949
 31
0.0
  0
LINE
  5
F96
  8
AD4531A
 62
     8
 10
103.4066498313836
 20
190.33142567521949
 30
0.0
 11
105.4066498313836
 21
191.83142567521949
 31
0.0
  0
LINE
  5
F97
  8
AD4531A
 62
     8
 10
103.4066498313836
 20
190.33142567521949
 30
0.0
 11
105.4066498313836
 21
188.83142567521949
 31
0.0
  0
TEXT
  5
FA2
  8
MEASURE
 62
     8
 10
71.149746297832536
 20
200.05376617556189
 30
0.0
 40
2.5
  1
HI
 41
0.8
  7
AD-STANDARD
  0
TEXT
  5
FA3
  8
MEASURE
 62
     8
 10
70.661570599771295
 20
195.0618759816098
 30
0.0
 40
2.5
  1
LO
 41
0.8
  7
AD-STANDARD
  0
TEXT
  5
FA4
  8
MEASURE
 62
     8
 10
66.517513951427446
 20
190.087136873802
 30
0.0
 40
2.5
  1
HOLD
 41
0.8
  7
AD-STANDARD
  0
TEXT
  5
FA7
  8
MEASURE
 62
     8
 10
88.996730640314212
 20
224.37080306075839
 30
0.0
 40
2.5
  1
AD-4531Aü@DIGITALü@INDICATOR
 41
0.8
  7
AD-STANDARD
  0
LINE
  5
FB1
  8
AD4531A
 62
     8
 10
60.906649831383561
 20
216.33142567521961
 30
0.0
 11
59.906649831383561
 21
216.33142567521961
 31
0.0
  0
LINE
  5
FB2
  8
AD4531A
 62
     8
 10
59.906649831383561
 20
216.33142567521961
 30
0.0
 11
59.906649831383561
 21
200.33142567521961
 31
0.0
  0
LINE
  5
FB3
  8
AD4531A
 62
     8
 10
59.906649831383561
 20
200.33142567521961
 30
0.0
 11
60.906649831383561
 21
200.33142567521961
 31
0.0
  0
LINE
  5
FB7
  8
AD4531A
 62
     8
 10
156.90664983138359
 20
216.33142567521961
 30
0.0
 11
157.90664983138359
 21
216.33142567521961
 31
0.0
  0
LINE
  5
FB8
  8
AD4531A
 62
     8
 10
157.90664983138359
 20
216.33142567521961
 30
0.0
 11
157.90664983138359
 21
200.33142567521961
 31
0.0
  0
LINE
  5
FB9
  8
AD4531A
 62
     8
 10
157.90664983138359
 20
200.33142567521961
 30
0.0
 11
156.90664983138359
 21
200.33142567521961
 31
0.0
  0
POLYLINE
  5
FC9
  8
AD4531A
 62
     8
 66
     1
 10
0.0
 20
0.0
 30
0.0
  0
VERTEX
  5
1683
  8
AD4531A
 62
     8
 10
79.75624059326708
 20
225.50417227727061
 30
0.0
  0
VERTEX
  5
1684
  8
AD4531A
 62
     8
 10
79.753801233267154
 20
226.86767694287079
 30
0.0
  0
VERTEX
  5
1685
  8
AD4531A
 62
     8
 10
79.733896055666946
 20
226.9519812244709
 30
0.0
  0
VERTEX
  5
1686
  8
AD4531A
 62
     8
 10
79.701696503666653
 20
227.0313092116703
 30
0.0
  0
VERTEX
  5
1687
  8
AD4531A
 62
     8
 10
79.652128708466762
 20
227.10819783887081
 30
0.0
  0
VERTEX
  5
1688
  8
AD4531A
 62
     8
 10
79.590168964466898
 20
227.17767081167099
 30
0.0
  0
VERTEX
  5
1689
  8
AD4531A
 62
     8
 10
79.513280337266565
 20
227.23719119567019
 30
0.0
  0
VERTEX
  5
168A
  8
AD4531A
 62
     8
 10
79.421560401266902
 20
227.28422205647041
 30
0.0
  0
VERTEX
  5
168B
  8
AD4531A
 62
     8
 10
79.319887876466623
 20
227.31651918287051
 30
0.0
  0
VERTEX
  5
168C
  8
AD4531A
 62
     8
 10
79.205823402866827
 20
227.3338874260709
 30
0.0
  0
VERTEX
  5
168D
  8
AD4531A
 62
     8
 10
78.256229342066945
 20
227.33632678607071
 30
0.0
  0
VERTEX
  5
168E
  8
AD4531A
 62
     8
 10
78.256229342066945
 20
225.04791438287049
 30
0.0
  0
VERTEX
  5
168F
  8
AD4531A
 62
     8
 10
79.230607300466886
 20
225.04791438287049
 30
0.0
  0
VERTEX
  5
1690
  8
AD4531A
 62
     8
 10
79.33471918526709
 20
225.05786697167059
 30
0.0
  0
VERTEX
  5
1691
  8
AD4531A
 62
     8
 10
79.428976055667249
 20
225.08265086927071
 30
0.0
  0
VERTEX
  5
1692
  8
AD4531A
 62
     8
 10
79.513280337266565
 20
225.12480301007099
 30
0.0
  0
VERTEX
  5
1693
  8
AD4531A
 62
     8
 10
79.585192670067158
 20
225.17934709967051
 30
0.0
  0
VERTEX
  5
1694
  8
AD4531A
 62
     8
 10
79.647152414067136
 20
225.24628313807091
 30
0.0
  0
VERTEX
  5
1695
  8
AD4531A
 62
     8
 10
79.696720209267028
 20
225.32317176527059
 30
0.0
  0
VERTEX
  5
1696
  8
AD4531A
 62
     8
 10
79.733896055666946
 20
225.40991540687031
 30
0.0
  0
VERTEX
  5
1697
  8
AD4531A
 62
     8
 10
79.75624059326708
 20
225.50417227727061
 30
0.0
  0
SEQEND
  5
1698
  8
AD4531A
 62
     8
  0
POLYLINE
  5
FCA
  8
AD4531A
 62
     8
 66
     1
 10
0.0
 20
0.0
 30
0.0
  0
VERTEX
  5
1699
  8
AD4531A
 62
     8
 10
74.051358148467216
 20
227.14537368527081
 30
0.0
  0
VERTEX
  5
169A
  8
AD4531A
 62
     8
 10
76.473545054066676
 20
225.04303566287081
 30
0.0
  0
VERTEX
  5
169B
  8
AD4531A
 62
     8
 10
76.114080964466552
 20
225.04049872847031
 30
0.0
  0
VERTEX
  5
169C
  8
AD4531A
 62
     8
 10
76.114080964466552
 20
224.33884121807051
 30
0.0
  0
VERTEX
  5
169D
  8
AD4531A
 62
     8
 10
79.48352014526688
 20
224.3413781524705
 30
0.0
  0
VERTEX
  5
169E
  8
AD4531A
 62
     8
 10
79.706672798067174
 20
224.3512331668706
 30
0.0
  0
VERTEX
  5
169F
  8
AD4531A
 62
     8
 10
79.917433502066729
 20
224.38353029327081
 30
0.0
  0
VERTEX
  5
16A0
  8
AD4531A
 62
     8
 10
80.113265322867278
 20
224.43056115407089
 30
0.0
  0
VERTEX
  5
16A1
  8
AD4531A
 62
     8
 10
80.294265834867247
 20
224.49749719247041
 30
0.0
  0
VERTEX
  5
16A2
  8
AD4531A
 62
     8
 10
80.462874398067228
 20
224.5818014740704
 30
0.0
  0
VERTEX
  5
16A3
  8
AD4531A
 62
     8
 10
80.61411471806673
 20
224.67849770447029
 30
0.0
  0
VERTEX
  5
16A4
  8
AD4531A
 62
     8
 10
80.750426154866545
 20
224.7901228180709
 30
0.0
  0
VERTEX
  5
16A5
  8
AD4531A
 62
     8
 10
80.874443217266958
 20
224.91404230607071
 30
0.0
  0
VERTEX
  5
16A6
  8
AD4531A
 62
     8
 10
80.981092036466976
 20
225.05045131727039
 30
0.0
  0
VERTEX
  5
16A7
  8
AD4531A
 62
     8
 10
81.075251332467246
 20
225.19427598287029
 30
0.0
  0
VERTEX
  5
16A8
  8
AD4531A
 62
     8
 10
81.154579319666709
 20
225.34551630287069
 30
0.0
  0
VERTEX
  5
16A9
  8
AD4531A
 62
     8
 10
81.219075998067183
 20
225.50417227727061
 30
0.0
  0
VERTEX
  5
16AA
  8
AD4531A
 62
     8
 10
81.268643793267074
 20
225.67024390607071
 30
0.0
  0
VERTEX
  5
16AB
  8
AD4531A
 62
     8
 10
81.305819639666993
 20
225.83885246927059
 30
0.0
  0
VERTEX
  5
16AC
  8
AD4531A
 62
     8
 10
81.333140471666866
 20
226.180948315671
 30
0.0
  0
VERTEX
  5
16AD
  8
AD4531A
 62
     8
 10
81.300940919666445
 20
226.5255810964704
 30
0.0
  0
VERTEX
  5
16AE
  8
AD4531A
 62
     8
 10
81.266204433267276
 20
226.69418965967051
 30
0.0
  0
VERTEX
  5
16AF
  8
AD4531A
 62
     8
 10
81.214099703666747
 20
226.85782192847071
 30
0.0
  0
VERTEX
  5
16B0
  8
AD4531A
 62
     8
 10
81.147163665267158
 20
227.01891726287039
 30
0.0
  0
VERTEX
  5
16B1
  8
AD4531A
 62
     8
 10
81.067835678066899
 20
227.17269451727049
 30
0.0
  0
VERTEX
  5
16B2
  8
AD4531A
 62
     8
 10
80.97357880766674
 20
227.31651918287051
 30
0.0
  0
VERTEX
  5
16B3
  8
AD4531A
 62
     8
 10
80.864490628466797
 20
227.45283061967029
 30
0.0
  0
VERTEX
  5
16B4
  8
AD4531A
 62
     8
 10
80.74301050046688
 20
227.5792870420706
 30
0.0
  0
VERTEX
  5
16B5
  8
AD4531A
 62
     8
 10
80.604162129267252
 20
227.69091215567039
 30
0.0
  0
VERTEX
  5
16B6
  8
AD4531A
 62
     8
 10
80.452921809266968
 20
227.79248710607081
 30
0.0
  0
VERTEX
  5
16B7
  8
AD4531A
 62
     8
 10
80.286850180466899
 20
227.87679138767081
 30
0.0
  0
VERTEX
  5
16B8
  8
AD4531A
 62
     8
 10
80.105849668466931
 20
227.9462643604702
 30
0.0
  0
VERTEX
  5
16B9
  8
AD4531A
 62
     8
 10
79.912457207666975
 20
227.99827151567069
 30
0.0
  0
VERTEX
  5
16BA
  8
AD4531A
 62
     8
 10
79.701696503666653
 20
228.0305686420709
 30
0.0
  0
VERTEX
  5
16BB
  8
AD4531A
 62
     8
 10
79.481080785267068
 20
228.0429605908709
 30
0.0
  0
VERTEX
  5
16BC
  8
AD4531A
 62
     8
 10
76.114080964466552
 20
228.04042365647109
 30
0.0
  0
VERTEX
  5
16BD
  8
AD4531A
 62
     8
 10
76.114080964466552
 20
227.3338874260709
 30
0.0
  0
VERTEX
  5
16BE
  8
AD4531A
 62
     8
 10
76.781001988466869
 20
227.3338874260709
 30
0.0
  0
VERTEX
  5
16BF
  8
AD4531A
 62
     8
 10
76.778562628466943
 20
226.35199623887081
 30
0.0
  0
VERTEX
  5
16C0
  8
AD4531A
 62
     8
 10
74.832343646067102
 20
228.03798429647051
 30
0.0
  0
VERTEX
  5
16C1
  8
AD4531A
 62
     8
 10
70.833061713267284
 20
228.03798429647051
 30
0.0
  0
VERTEX
  5
16C2
  8
AD4531A
 62
     8
 10
70.833061713267284
 20
227.32891113167051
 30
0.0
  0
VERTEX
  5
16C3
  8
AD4531A
 62
     8
 10
71.197599671666921
 20
227.32891113167051
 30
0.0
  0
VERTEX
  5
16C4
  8
AD4531A
 62
     8
 10
69.350418705266861
 20
225.04049872847031
 30
0.0
  0
VERTEX
  5
16C5
  8
AD4531A
 62
     8
 10
68.906650334066853
 20
225.04049872847031
 30
0.0
  0
VERTEX
  5
16C6
  8
AD4531A
 62
     8
 10
68.906650334066853
 20
224.33142556367031
 30
0.0
  0
VERTEX
  5
16C7
  8
AD4531A
 62
     8
 10
71.331471748466925
 20
224.33142556367031
 30
0.0
  0
VERTEX
  5
16C8
  8
AD4531A
 62
     8
 10
71.331471748466925
 20
225.05045131727039
 30
0.0
  0
VERTEX
  5
16C9
  8
AD4531A
 62
     8
 10
70.887703377266803
 20
225.05045131727039
 30
0.0
  0
VERTEX
  5
16CA
  8
AD4531A
 62
     8
 10
71.23477551806684
 20
225.48924339407071
 30
0.0
  0
VERTEX
  5
16CB
  8
AD4531A
 62
     8
 10
72.578570154867066
 20
225.48924339407071
 30
0.0
  0
VERTEX
  5
16CC
  8
AD4531A
 62
     8
 10
72.578570154867066
 20
225.04049872847031
 30
0.0
  0
VERTEX
  5
16CD
  8
AD4531A
 62
     8
 10
72.134801783666944
 20
225.04049872847031
 30
0.0
  0
VERTEX
  5
16CE
  8
AD4531A
 62
     8
 10
72.134801783666944
 20
224.33640185807059
 30
0.0
  0
VERTEX
  5
16CF
  8
AD4531A
 62
     8
 10
74.507518468467197
 20
224.33640185807059
 30
0.0
  0
VERTEX
  5
16D0
  8
AD4531A
 62
     8
 10
74.507518468467197
 20
225.04049872847031
 30
0.0
  0
VERTEX
  5
16D1
  8
AD4531A
 62
     8
 10
74.053797508467142
 20
225.04049872847031
 30
0.0
  0
VERTEX
  5
16D2
  8
AD4531A
 62
     8
 10
74.051358148467216
 20
227.14537368527081
 30
0.0
  0
SEQEND
  5
16D3
  8
AD4531A
 62
     8
  0
INSERT
  5
FCB
  8
AD4531A
  6
CONTINUOUS
 62
     8
  2
*U31
 10
0.0
 20
0.0
 30
0.0
1001
ACAD
1002
{
1000
R14_HATCH_DATA
1000
FCB
1011
1.0
1021
5.7045214625897610E+191
1031
0.0
1021
0.0
1031
0.0
1011
0.0
1021
5.7045214625897610E+191
1031
0.0
1021
1.0
1031
0.0
1011
0.0
1021
5.7045214625897610E+191
1031
0.0
1021
0.0
1031
1.0
1040
0.0
1010
0.0
1020
0.0
1030
1.0
1000
SOLID
1070
     1
1070
     0
1071
        3
1071
        7
1070
     0
1070
     1
1071
       57
1040
76.778562628466943
1040
226.35199623887081
1040
74.832343646067102
1040
228.03798429647051
1040
70.833061713267284
1040
228.03798429647051
1040
70.833061713267284
1040
227.32891113167051
1040
71.197599671666921
1040
227.32891113167051
1040
69.350418705266861
1040
225.04049872847031
1040
68.906650334066853
1040
225.04049872847031
1040
68.906650334066853
1040
224.33142556367031
1040
71.331471748466925
1040
224.33142556367031
1040
71.331471748466925
1040
225.05045131727039
1040
70.887703377266803
1040
225.05045131727121
1040
71.23477551806684
1040
225.48924339407071
1040
72.578570154867066
1040
225.48924339407071
1040
72.578570154867066
1040
225.04049872847031
1040
72.134801783666944
1040
225.04049872847031
1040
72.134801783666944
1040
224.33640185807059
1040
74.507518468467197
1040
224.33640185807059
1040
74.507518468467197
1040
225.04049872847031
1040
74.053797508467142
1040
225.04049872847031
1040
74.05135814846642
1040
227.14537368527081
1040
76.473545054066676
1040
225.04303566287081
1040
76.114080964466552
1040
225.04049872847031
1040
76.114080964466552
1040
224.33884121807051
1040
79.48352014526597
1040
224.3413781524705
1040
79.706672798066393
1040
224.3512331668706
1040
79.917433502066729
1040
224.38353029327081
1040
80.113265322867278
1040
224.43056115407089
1040
80.294265834867247
1040
224.49749719247041
1040
80.462874398067228
1040
224.5818014740704
1040
80.61411471806673
1040
224.67849770447029
1040
80.750426154866545
1040
224.7901228180709
1040
80.874443217266958
1040
224.91404230607071
1040
80.981092036466976
1040
225.05045131727121
1040
81.075251332466337
1040
225.19427598287029
1040
81.154579319666709
1040
225.34551630287069
1040
81.219075998066387
1040
225.50417227727061
1040
81.268643793266278
1040
225.67024390607071
1040
81.305819639666197
1040
225.83885246927059
1040
81.333140471666866
1040
226.180948315671
1040
81.300940919666445
1040
226.5255810964704
1040
81.266204433267276
1040
226.69418965967051
1040
81.214099703666747
1040
226.85782192847071
1040
81.147163665267158
1040
227.0189172628711
1040
81.067835678066899
1040
227.17269451727049
1040
80.97357880766674
1040
227.31651918287051
1040
80.864490628466797
1040
227.45283061967029
1040
80.74301050046688
1040
227.5792870420706
1040
80.60416212926657
1040
227.69091215567039
1040
80.452921809266968
1040
227.79248710607081
1040
80.286850180466899
1040
227.87679138767081
1040
80.105849668466931
1040
227.9462643604702
1040
79.912457207666307
1040
227.99827151567069
1040
79.701696503666653
1040
228.0305686420709
1040
79.481080785267068
1040
228.0429605908709
1040
76.114080964466552
1040
228.04042365647109
1040
76.114080964466552
1040
227.3338874260709
1040
76.781001988466869
1040
227.3338874260709
1071
        0
1071
       22
1070
     0
1070
     1
1071
        6
1040
78.256229342066945
1040
227.33632678607071
1040
79.45140920814606
1040
227.33325655419119
1040
79.75357443012831
1040
226.9944508249763
1040
79.756589141152745
1040
225.30934795087461
1040
79.411908390493394
1040
225.04791438287049
1040
78.256229342066945
1040
225.04791438287049
1071
        0
1071
       22
1070
     0
1070
     1
1071
        3
1040
72.573593860466531
1040
226.19080333007111
1040
71.809976606067039
1040
226.19080333007031
1040
72.573593860466531
1040
227.14537368527081
1071
        0
1070
     0
1070
     1
1040
0.0677524763591524
1071
        3
1040
77.202372671162266
1040
225.970472218228
1040
0.0
1040
77.202372671162266
1040
225.970472218228
1040
0.0
1040
77.202372671162266
1040
225.970472218228
1040
0.0
1002
}
  0
POLYLINE
  5
FCC
  8
AD4531A
 62
     8
 66
     1
 10
0.0
 20
0.0
 30
0.0
  0
VERTEX
  5
171B
  8
AD4531A
 62
     8
 10
72.573593860466531
 20
226.19080333007031
 30
0.0
  0
VERTEX
  5
171C
  8
AD4531A
 62
     8
 10
71.809976606067039
 20
226.19080333007031
 30
0.0
  0
VERTEX
  5
171D
  8
AD4531A
 62
     8
 10
72.573593860466531
 20
227.14537368527081
 30
0.0
  0
VERTEX
  5
171E
  8
AD4531A
 62
     8
 10
72.573593860466531
 20
226.19080333007031
 30
0.0
  0
SEQEND
  5
171F
  8
AD4531A
 62
     8
  0
LINE
  5
FCF
  8
AD4531A
 10
216.73309144560869
 20
232.10911875323609
 30
0.0
 11
220.77496021060321
 21
232.33142567521949
 31
0.0
  0
LINE
  5
FD1
  8
AD4531A
 62
     8
 10
220.77496021060321
 20
232.33142567521949
 30
0.0
 11
220.77496021060321
 21
184.33142567521949
 31
0.0
  0
LINE
  5
FD2
  8
AD4531A
 10
220.77496021060321
 20
184.33142567521949
 30
0.0
 11
216.73309144560889
 21
184.55373259720301
 31
0.0
  0
LINE
  5
FD3
  8
AD4531A
 10
215.9749602106032
 20
185.35263622500659
 30
0.0
 11
215.97496021060309
 21
231.31021512543239
 31
0.0
  0
LINE
  5
FD4
  8
AD4531A
 62
     8
 10
220.9749602106032
 20
232.33142567521949
 30
0.0
 11
220.9749602106032
 21
184.33142567521949
 31
0.0
  0
LINE
  5
FD7
  8
AD4531A
 62
     8
 10
220.9749602106032
 20
232.13142567521959
 30
0.0
 11
220.77496021060321
 21
232.13142567521959
 31
0.0
  0
LINE
  5
FD9
  8
AD4531A
 62
     8
 10
220.9749602106032
 20
184.53142567521951
 30
0.0
 11
220.77496021060321
 21
184.53142567521951
 31
0.0
  0
ARC
  5
FDA
  8
AD4531A
 10
216.77496021060321
 20
185.35263622500659
 30
0.0
 40
0.8
 50
180.0
 51
266.99999999999949
  0
ARC
  5
FDB
  8
AD4531A
 10
216.7749602106031
 20
231.31021512543239
 30
0.0
 40
0.8
 50
92.999999999999773
 51
180.0
  0
LINE
  5
FDE
  8
AD4531A
 10
222.97496021060331
 20
232.33142567521949
 30
0.0
 11
222.97496021060331
 21
184.33142567521949
 31
0.0
  0
LINE
  5
FDF
  8
AD4531A
 10
220.9749602106032
 20
184.33142567521949
 30
0.0
 11
222.97496021060331
 21
184.33142567521949
 31
0.0
  0
LINE
  5
FE0
  8
AD4531A
 10
220.9749602106032
 20
232.33142567521949
 30
0.0
 11
222.97496021060331
 21
232.33142567521949
 31
0.0
  0
LINE
  5
FE2
  8
AD4531A
 10
222.97496021060331
 20
230.33142567521949
 30
0.0
 11
343.97496021060317
 21
230.33142567521949
 31
0.0
  0
LINE
  5
FE3
  8
AD4531A
 10
343.97496021060317
 20
230.33142567521949
 30
0.0
 11
343.97496021060317
 21
216.33142567521949
 31
0.0
  0
LINE
  5
FE4
  8
AD4531A
 10
343.97496021060317
 20
186.33142567521949
 30
0.0
 11
222.97496021060331
 21
186.33142567521949
 31
0.0
  0
LINE
  5
FE5
  8
AD4531A
 62
     8
 10
343.97496021060317
 20
200.33142567521949
 30
0.0
 11
222.97496021060331
 21
200.33142567521949
 31
0.0
  0
LINE
  5
FE6
  8
AD4531A
 62
     8
 10
343.97496021060317
 20
216.33142567521949
 30
0.0
 11
222.97496021060331
 21
216.33142567521949
 31
0.0
  0
LINE
  5
FE7
  8
AD4531A
 10
343.97496021060317
 20
216.33142567521949
 30
0.0
 11
345.97496021060317
 21
216.33142567521949
 31
0.0
  0
LINE
  5
FE8
  8
AD4531A
 10
345.97496021060317
 20
216.33142567521949
 30
0.0
 11
345.97496021060317
 21
200.33142567521949
 31
0.0
  0
LINE
  5
FE9
  8
AD4531A
 10
345.97496021060317
 20
200.33142567521949
 30
0.0
 11
343.97496021060317
 21
200.33142567521949
 31
0.0
  0
LINE
  5
FEA
  8
AD4531A
 10
343.97496021060317
 20
200.33142567521949
 30
0.0
 11
343.97496021060317
 21
186.33142567521949
 31
0.0
  0
LINE
  5
FED
  8
AD4531A
 62
     8
 10
215.9749602106032
 20
211.83142567521961
 30
0.0
 11
215.4749602106032
 21
211.83142567521961
 31
0.0
  0
LINE
  5
FEE
  8
AD4531A
 62
     8
 10
215.4749602106032
 20
212.33142567521961
 30
0.0
 11
215.4749602106032
 21
204.33142567521961
 31
0.0
  0
LINE
  5
FEF
  8
AD4531A
 62
     8
 10
215.4749602106032
 20
204.83142567521961
 30
0.0
 11
215.9749602106032
 21
204.83142567521961
 31
0.0
  0
LINE
  5
FF1
  8
AD4531A
 62
     8
 10
215.4749602106032
 20
212.33142567521961
 30
0.0
 11
211.27496021060321
 21
212.33142567521961
 31
0.0
  0
LINE
  5
FF2
  8
AD4531A
 62
     8
 10
210.9749602106032
 20
212.03142567521959
 30
0.0
 11
210.9749602106032
 21
204.63142567521959
 31
0.0
  0
LINE
  5
FF3
  8
AD4531A
 62
     8
 10
211.27496021060321
 20
204.33142567521961
 30
0.0
 11
215.4749602106032
 21
204.33142567521961
 31
0.0
  0
LINE
  5
FF4
  8
AD4531A
 62
     8
 10
211.27496021060321
 20
212.33142567521961
 30
0.0
 11
210.9749602106032
 21
212.03142567521959
 31
0.0
  0
LINE
  5
FF5
  8
AD4531A
 62
     8
 10
210.9749602106032
 20
204.63142567521959
 30
0.0
 11
211.27496021060321
 21
204.33142567521961
 31
0.0
  0
LINE
  5
FF6
  8
AD4531A
 62
     8
 10
211.27496021060321
 20
212.33142567521961
 30
0.0
 11
211.27496021060321
 21
204.33142567521961
 31
0.0
  0
LINE
  5
1001
  8
PANEL_CUT
 10
254.93940626743591
 20
117.3698952351014
 30
0.0
 11
346.93940626743591
 21
117.3698952351014
 31
0.0
  0
LINE
  5
1002
  8
PANEL_CUT
 10
346.93940626743591
 20
117.3698952351014
 30
0.0
 11
346.93940626743591
 21
72.369895235101467
 31
0.0
  0
LINE
  5
1003
  8
PANEL_CUT
 10
346.93940626743591
 20
72.369895235101467
 30
0.0
 11
254.93940626743591
 21
72.369895235101467
 31
0.0
  0
LINE
  5
1004
  8
PANEL_CUT
 10
254.93940626743591
 20
72.369895235101467
 30
0.0
 11
254.93940626743591
 21
117.3698952351014
 31
0.0
  0
LINE
  5
1005
  8
AD4531A
 62
     8
 10
343.97496021060317
 20
224.33142567521949
 30
0.0
 11
336.97496021060329
 21
224.33142567521949
 31
0.0
  0
LINE
  5
1006
  8
AD4531A
 62
     8
 10
343.97496021060317
 20
222.33142567521949
 30
0.0
 11
336.97496021060329
 21
222.33142567521949
 31
0.0
  0
LINE
  5
1007
  8
AD4531A
 62
     8
 10
336.97496021060329
 20
224.33142567521949
 30
0.0
 11
336.97496021060329
 21
222.33142567521949
 31
0.0
  0
LINE
  5
1008
  8
AD4531A
 62
     8
 10
336.97496021060329
 20
194.33142567521949
 30
0.0
 11
336.97496021060329
 21
192.33142567521949
 31
0.0
  0
LINE
  5
1009
  8
AD4531A
 62
     8
 10
343.97496021060317
 20
194.33142567521949
 30
0.0
 11
336.97496021060329
 21
194.33142567521949
 31
0.0
  0
LINE
  5
100A
  8
AD4531A
 62
     8
 10
343.97496021060317
 20
192.33142567521949
 30
0.0
 11
336.97496021060329
 21
192.33142567521949
 31
0.0
  0
LINE
  5
100E
  8
AD4531A
 62
     8
 10
343.97496021060317
 20
229.53142567521951
 30
0.0
 11
363.97496021060317
 21
229.53142567521951
 31
0.0
  0
LINE
  5
100F
  8
AD4531A
 62
     8
 10
363.97496021060317
 20
229.53142567521951
 30
0.0
 11
363.97496021060317
 21
228.33142567521949
 31
0.0
  0
LINE
  5
1010
  8
AD4531A
 62
     8
 10
363.97496021060317
 20
217.13142567521959
 30
0.0
 11
343.97496021060317
 21
217.13142567521959
 31
0.0
  0
LINE
  5
1011
  8
AD4531A
 62
     8
 10
363.97496021060317
 20
187.1314256752195
 30
0.0
 11
343.97496021060317
 21
187.1314256752195
 31
0.0
  0
LINE
  5
1012
  8
AD4531A
 62
     8
 10
363.97496021060317
 20
199.53142567521951
 30
0.0
 11
363.97496021060317
 21
198.33142567521949
 31
0.0
  0
LINE
  5
1013
  8
AD4531A
 62
     8
 10
343.97496021060317
 20
199.53142567521951
 30
0.0
 11
363.97496021060317
 21
199.53142567521951
 31
0.0
  0
LINE
  5
1014
  8
AD4531A
 62
     8
 10
351.97496021060329
 20
229.53142567521951
 30
0.0
 11
351.97496021060329
 21
217.1314256752195
 31
0.0
  0
LINE
  5
1015
  8
AD4531A
 62
     8
 10
351.97496021060329
 20
199.53142567521951
 30
0.0
 11
351.97496021060329
 21
187.1314256752195
 31
0.0
  0
LINE
  5
1019
  8
0
 10
63.406649831383668
 20
120.33007365593041
 30
0.0
 11
63.406649831383668
 21
106.33007365593031
 31
0.0
  0
LINE
  5
101A
  8
0
 10
63.406649831383668
 20
76.330073655930391
 30
0.0
 11
154.40664983138359
 21
76.330073655930391
 31
0.0
  0
LINE
  5
101B
  8
0
 10
154.40664983138359
 20
76.330073655930391
 30
0.0
 11
154.4066498313837
 21
90.330073655930448
 31
0.0
  0
LINE
  5
101C
  8
0
 10
154.40664983138359
 20
120.33007365593041
 30
0.0
 11
63.406649831383668
 21
120.33007365593041
 31
0.0
  0
LINE
  5
102C
  8
0
 10
59.906649831383668
 20
106.33007365593031
 30
0.0
 11
73.906649831383675
 21
106.33007365593031
 31
0.0
  0
LINE
  5
102D
  8
0
 10
157.90664983138359
 20
106.33007365593031
 30
0.0
 11
157.90664983138359
 21
90.330073655930391
 31
0.0
  0
LINE
  5
102E
  8
0
 10
157.90664983138359
 20
90.330073655930391
 30
0.0
 11
143.9066498313835
 21
90.330073655930391
 31
0.0
  0
LINE
  5
102F
  8
0
 10
59.906649831383668
 20
90.330073655930391
 30
0.0
 11
59.906649831383668
 21
106.33007365593031
 31
0.0
  0
LINE
  5
1033
  8
0
 10
76.906649831383675
 20
103.33007365593031
 30
0.0
 11
140.90664983138359
 21
103.33007365593031
 31
0.0
  0
LINE
  5
1034
  8
0
 10
140.90664983138359
 20
93.330073655930377
 30
0.0
 11
76.906649831383675
 21
93.330073655930377
 31
0.0
  0
LINE
  5
1035
  8
0
 10
73.906649831383561
 20
90.330073655930391
 30
0.0
 11
59.906649831383668
 21
90.330073655930391
 31
0.0
  0
LINE
  5
1036
  8
0
 10
143.90664983138359
 20
106.33007365593031
 30
0.0
 11
157.90664983138359
 21
106.33007365593031
 31
0.0
  0
LINE
  5
1037
  8
0
 10
73.906649831383675
 20
106.33007365593031
 30
0.0
 11
76.906649831383675
 21
103.33007365593031
 31
0.0
  0
LINE
  5
1038
  8
0
 10
76.906649831383561
 20
93.330073655930377
 30
0.0
 11
73.906649831383561
 21
90.330073655930391
 31
0.0
  0
LINE
  5
1039
  8
0
 10
143.90664983138359
 20
106.33007365593031
 30
0.0
 11
140.90664983138359
 21
103.33007365593031
 31
0.0
  0
LINE
  5
103A
  8
0
 10
140.9066498313835
 20
93.330073655930377
 30
0.0
 11
143.9066498313835
 21
90.330073655930391
 31
0.0
  0
LINE
  5
1041
  8
0
 10
154.40664983138359
 20
106.33007365593031
 30
0.0
 11
154.40664983138359
 21
120.33007365593041
 31
0.0
  0
LINE
  5
1042
  8
0
 10
63.406649831383668
 20
90.330073655930391
 30
0.0
 11
63.406649831383668
 21
76.330073655930391
 31
0.0
  0
LINE
  5
1058
  8
0
 10
65.156649831383675
 20
119.53007365593029
 30
0.0
 11
65.156649831383675
 21
107.1300736559304
 31
0.0
  0
LINE
  5
1059
  8
AD4531A
 62
     8
 10
65.156649831383675
 20
107.1300736559304
 30
0.0
 11
152.65664983138359
 21
107.1300736559304
 31
0.0
  0
LINE
  5
105A
  8
AD4531A
 62
     8
 10
152.65664983138359
 20
107.1300736559304
 30
0.0
 11
152.65664983138359
 21
119.53007365593029
 31
0.0
  0
LINE
  5
105B
  8
AD4531A
 62
     8
 10
152.65664983138359
 20
119.53007365593029
 30
0.0
 11
65.156649831383675
 21
119.53007365593029
 31
0.0
  0
LINE
  5
1063
  8
0
 10
73.556649831383652
 20
119.53007365593029
 30
0.0
 11
73.556649831383652
 21
107.1300736559304
 31
0.0
  0
LINE
  5
1064
  8
AD4531A
 62
     8
 10
144.2566498313837
 20
119.53007365593029
 30
0.0
 11
144.2566498313837
 21
107.1300736559304
 31
0.0
  0
LINE
  5
1065
  8
0
 10
75.556649831383652
 20
119.53007365593029
 30
0.0
 11
75.556649831383652
 21
107.1300736559304
 31
0.0
  0
LINE
  5
1066
  8
AD4531A
 62
     8
 10
142.2566498313837
 20
119.53007365593029
 30
0.0
 11
142.2566498313837
 21
107.1300736559304
 31
0.0
  0
LINE
  5
1067
  8
AD4531A
 62
     8
 10
135.0566498313836
 20
119.53007365593029
 30
0.0
 11
135.0566498313836
 21
107.1300736559304
 31
0.0
  0
LINE
  5
1068
  8
AD4531A
 62
     8
 10
82.756649831383683
 20
119.53007365593029
 30
0.0
 11
82.756649831383683
 21
107.1300736559304
 31
0.0
  0
LINE
  5
1069
  8
AD4531A
 62
     8
 10
84.056649831383652
 20
119.53007365593029
 30
0.0
 11
84.056649831383652
 21
107.1300736559304
 31
0.0
  0
LINE
  5
106A
  8
AD4531A
 62
     8
 10
133.75664983138361
 20
119.53007365593029
 30
0.0
 11
133.75664983138361
 21
107.1300736559304
 31
0.0
  0
LINE
  5
106B
  8
AD4531A
 62
     8
 10
126.5566498313836
 20
119.53007365593029
 30
0.0
 11
126.5566498313836
 21
107.1300736559304
 31
0.0
  0
LINE
  5
106C
  8
AD4531A
 62
     8
 10
91.256649831383683
 20
119.53007365593029
 30
0.0
 11
91.256649831383683
 21
107.1300736559304
 31
0.0
  0
LINE
  5
106D
  8
AD4531A
 62
     8
 10
92.556649831383638
 20
119.53007365593029
 30
0.0
 11
92.556649831383638
 21
107.1300736559304
 31
0.0
  0
LINE
  5
106E
  8
AD4531A
 62
     8
 10
125.2566498313836
 20
119.53007365593029
 30
0.0
 11
125.2566498313836
 21
107.1300736559304
 31
0.0
  0
LINE
  5
106F
  8
AD4531A
 62
     8
 10
118.0566498313836
 20
119.53007365593029
 30
0.0
 11
118.0566498313836
 21
107.1300736559304
 31
0.0
  0
LINE
  5
1070
  8
AD4531A
 62
     8
 10
99.756649831383697
 20
119.53007365593029
 30
0.0
 11
99.756649831383697
 21
107.1300736559304
 31
0.0
  0
LINE
  5
1071
  8
AD4531A
 62
     8
 10
101.0566498313836
 20
119.53007365593029
 30
0.0
 11
101.0566498313836
 21
107.1300736559304
 31
0.0
  0
LINE
  5
1072
  8
AD4531A
 62
     8
 10
116.7566498313836
 20
119.53007365593029
 30
0.0
 11
116.7566498313836
 21
107.1300736559304
 31
0.0
  0
LINE
  5
1073
  8
AD4531A
 62
     8
 10
109.5566498313836
 20
119.53007365593029
 30
0.0
 11
109.5566498313836
 21
107.1300736559304
 31
0.0
  0
LINE
  5
1074
  8
AD4531A
 62
     8
 10
108.2566498313837
 20
119.53007365593029
 30
0.0
 11
108.2566498313837
 21
107.1300736559304
 31
0.0
  0
LINE
  5
1075
  8
AD4531A
 62
     8
 10
65.156649831383675
 20
89.53007365593038
 30
0.0
 11
65.156649831383675
 21
77.130073655930403
 31
0.0
  0
LINE
  5
1076
  8
AD4531A
 62
     8
 10
65.156649831383675
 20
77.130073655930403
 30
0.0
 11
152.65664983138359
 21
77.130073655930403
 31
0.0
  0
LINE
  5
1077
  8
AD4531A
 62
     8
 10
152.65664983138359
 20
77.130073655930403
 30
0.0
 11
152.65664983138359
 21
89.53007365593038
 31
0.0
  0
LINE
  5
1078
  8
AD4531A
 62
     8
 10
152.65664983138359
 20
89.53007365593038
 30
0.0
 11
65.156649831383675
 21
89.53007365593038
 31
0.0
  0
LINE
  5
107A
  8
AD4531A
 62
     8
 10
73.556649831383652
 20
89.53007365593038
 30
0.0
 11
73.556649831383652
 21
77.130073655930403
 31
0.0
  0
LINE
  5
107B
  8
AD4531A
 62
     8
 10
144.2566498313837
 20
89.53007365593038
 30
0.0
 11
144.2566498313837
 21
77.130073655930403
 31
0.0
  0
LINE
  5
107C
  8
AD4531A
 62
     8
 10
75.556649831383652
 20
89.53007365593038
 30
0.0
 11
75.556649831383652
 21
77.130073655930403
 31
0.0
  0
LINE
  5
107D
  8
AD4531A
 62
     8
 10
142.2566498313837
 20
89.53007365593038
 30
0.0
 11
142.2566498313837
 21
77.130073655930403
 31
0.0
  0
LINE
  5
107E
  8
AD4531A
 62
     8
 10
135.0566498313836
 20
89.53007365593038
 30
0.0
 11
135.0566498313836
 21
77.130073655930403
 31
0.0
  0
LINE
  5
107F
  8
AD4531A
 62
     8
 10
82.756649831383683
 20
89.53007365593038
 30
0.0
 11
82.756649831383683
 21
77.130073655930403
 31
0.0
  0
LINE
  5
1080
  8
AD4531A
 62
     8
 10
84.056649831383652
 20
89.53007365593038
 30
0.0
 11
84.056649831383652
 21
77.130073655930403
 31
0.0
  0
LINE
  5
1081
  8
AD4531A
 62
     8
 10
133.75664983138361
 20
89.53007365593038
 30
0.0
 11
133.75664983138361
 21
77.130073655930403
 31
0.0
  0
LINE
  5
1082
  8
AD4531A
 62
     8
 10
126.5566498313836
 20
89.53007365593038
 30
0.0
 11
126.5566498313836
 21
77.130073655930403
 31
0.0
  0
LINE
  5
1083
  8
AD4531A
 62
     8
 10
91.256649831383683
 20
89.53007365593038
 30
0.0
 11
91.256649831383683
 21
77.130073655930403
 31
0.0
  0
LINE
  5
1084
  8
AD4531A
 62
     8
 10
92.556649831383638
 20
89.53007365593038
 30
0.0
 11
92.556649831383638
 21
77.130073655930403
 31
0.0
  0
LINE
  5
1085
  8
AD4531A
 62
     8
 10
125.2566498313836
 20
89.53007365593038
 30
0.0
 11
125.2566498313836
 21
77.130073655930403
 31
0.0
  0
LINE
  5
1086
  8
AD4531A
 62
     8
 10
118.0566498313836
 20
89.53007365593038
 30
0.0
 11
118.0566498313836
 21
77.130073655930403
 31
0.0
  0
LINE
  5
1087
  8
AD4531A
 62
     8
 10
99.756649831383697
 20
89.53007365593038
 30
0.0
 11
99.756649831383697
 21
77.130073655930403
 31
0.0
  0
LINE
  5
1088
  8
AD4531A
 62
     8
 10
101.0566498313836
 20
89.53007365593038
 30
0.0
 11
101.0566498313836
 21
77.130073655930403
 31
0.0
  0
LINE
  5
1089
  8
AD4531A
 62
     8
 10
116.7566498313836
 20
89.53007365593038
 30
0.0
 11
116.7566498313836
 21
77.130073655930403
 31
0.0
  0
LINE
  5
108A
  8
AD4531A
 62
     8
 10
109.5566498313836
 20
89.53007365593038
 30
0.0
 11
109.5566498313836
 21
77.130073655930403
 31
0.0
  0
LINE
  5
108B
  8
AD4531A
 62
     8
 10
108.2566498313837
 20
89.53007365593038
 30
0.0
 11
108.2566498313837
 21
77.130073655930403
 31
0.0
  0
TEXT
  5
108D
  8
MEASURE
 62
     8
 10
78.729295698003398
 20
104.2996245666322
 30
0.0
 40
2.0
  1
1
 41
0.8
  0
TEXT
  5
108F
  8
MEASURE
 62
     8
 10
87.356568425276123
 20
104.2996245666322
 30
0.0
 40
2.0
  1
2
 41
0.8
  0
TEXT
  5
1090
  8
MEASURE
 62
     8
 10
95.856568425276123
 20
104.2996245666322
 30
0.0
 40
2.0
  1
3
 41
0.8
  0
TEXT
  5
1091
  8
MEASURE
 62
     8
 10
121.34747751618519
 20
104.2996245666322
 30
0.0
 40
2.0
  1
6
 41
0.8
  0
TEXT
  5
1092
  8
MEASURE
 62
     8
 10
112.85656842527609
 20
104.2996245666322
 30
0.0
 40
2.0
  1
5
 41
0.8
  0
TEXT
  5
1093
  8
MEASURE
 62
     8
 10
104.3929320616397
 20
104.2996245666322
 30
0.0
 40
2.0
  1
4
 41
0.8
  0
TEXT
  5
1094
  8
MEASURE
 62
     8
 10
129.82020478891241
 20
104.2996245666322
 30
0.0
 40
2.0
  1
7
 41
0.8
  0
TEXT
  5
1095
  8
MEASURE
 62
     8
 10
138.365659334367
 20
104.2996245666322
 30
0.0
 40
2.0
  1
8
 41
0.8
  0
TEXT
  5
1099
  8
MEASURE
 62
     8
 10
137.7941956734455
 20
90.359709605336775
 30
0.0
 40
2.0
  1
16
 41
0.8
  0
TEXT
  5
109A
  8
MEASURE
 62
     8
 10
129.2941956734455
 20
90.359709605336775
 30
0.0
 40
2.0
  1
15
 41
0.8
  0
TEXT
  5
109B
  8
MEASURE
 62
     8
 10
120.7941956734455
 20
90.359709605336775
 30
0.0
 40
2.0
  1
14
 41
0.8
  0
TEXT
  5
109C
  8
MEASURE
 62
     8
 10
112.2941956734455
 20
90.359709605336775
 30
0.0
 40
2.0
  1
13
 41
0.8
  0
TEXT
  5
109D
  8
MEASURE
 62
     8
 10
103.7941956734455
 20
90.359709605336775
 30
0.0
 40
2.0
  1
12
 41
0.8
  0
TEXT
  5
109E
  8
MEASURE
 62
     8
 10
95.294195673445515
 20
90.359709605336775
 30
0.0
 40
2.0
  1
11
 41
0.8
  0
TEXT
  5
109F
  8
MEASURE
 62
     8
 10
86.794195673445515
 20
90.359709605336775
 30
0.0
 40
2.0
  1
10
 41
0.8
  0
TEXT
  5
10A0
  8
MEASURE
 62
     8
 10
78.847477516185222
 20
90.359709605336775
 30
0.0
 40
2.0
  1
9
 41
0.8
  0
LINE
  5
10AE
  8
AD4531A
 62
     8
 10
351.97496021060329
 20
228.33142567521949
 30
0.0
 11
365.87496021060321
 21
228.33142567521941
 31
0.0
  0
LINE
  5
10AF
  8
AD4531A
 62
     8
 10
367.87496021060309
 20
226.33142567521941
 30
0.0
 11
367.87496021060309
 21
220.33142567521949
 31
0.0
  0
LINE
  5
10B0
  8
AD4531A
 62
     8
 10
365.87496021060309
 20
218.33142567521949
 30
0.0
 11
351.97496021060329
 21
218.33142567521949
 31
0.0
  0
LINE
  5
10B1
  8
AD4531A
 62
     8
 10
363.97496021060317
 20
218.33142567521949
 30
0.0
 11
363.97496021060317
 21
217.13142567521959
 31
0.0
  0
LINE
  5
10B2
  8
AD4531A
 62
     8
 10
363.97496021060317
 20
229.53142567521951
 30
0.0
 11
363.97496021060317
 21
228.33142567521949
 31
0.0
  0
LINE
  5
10B5
  8
AD4531A
 62
     8
 10
363.97496021060317
 20
226.33142567521949
 30
0.0
 11
365.07496021060331
 21
226.33142567521949
 31
0.0
  0
LINE
  5
10B6
  8
AD4531A
 62
     8
 10
365.07496021060331
 20
226.33142567521949
 30
0.0
 11
365.07496021060331
 21
220.33142567521949
 31
0.0
  0
LINE
  5
10B7
  8
AD4531A
 62
     8
 10
365.07496021060331
 20
220.33142567521949
 30
0.0
 11
363.97496021060317
 21
220.33142567521949
 31
0.0
  0
LINE
  5
10B8
  8
AD4531A
 62
     8
 10
363.97496021060311
 20
226.33142567521941
 30
0.0
 11
363.97496021060317
 21
220.33142567521941
 31
0.0
  0
LINE
  5
10B9
  8
AD4531A
 62
     8
 10
363.9749602106034
 20
218.33142567521949
 30
0.0
 11
363.97496021060317
 21
217.1314256752195
 31
0.0
  0
ARC
  5
10BA
  8
AD4531A
 62
     8
 10
365.87496021060321
 20
226.33142567521941
 30
0.0
 40
2.0
 50
0.0
 51
90.0
  0
ARC
  5
10BB
  8
AD4531A
 62
     8
 10
365.87496021060309
 20
220.33142567521949
 30
0.0
 40
2.0
 50
270.0
 51
0.0
  0
LINE
  5
10BC
  8
AD4531A
 62
     8
 10
365.87496021060309
 20
188.33142567521949
 30
0.0
 11
351.97496021060329
 21
188.33142567521949
 31
0.0
  0
LINE
  5
10BD
  8
AD4531A
 62
     8
 10
367.87496021060309
 20
196.33142567521941
 30
0.0
 11
367.87496021060309
 21
190.33142567521949
 31
0.0
  0
ARC
  5
10BE
  8
AD4531A
 62
     8
 10
365.87496021060309
 20
190.33142567521949
 30
0.0
 40
2.0
 50
270.0
 51
0.0
  0
ARC
  5
10BF
  8
AD4531A
 62
     8
 10
365.87496021060321
 20
196.33142567521941
 30
0.0
 40
2.0
 50
0.0
 51
90.0
  0
LINE
  5
10C0
  8
AD4531A
 62
     8
 10
365.07496021060331
 20
190.33142567521949
 30
0.0
 11
363.97496021060317
 21
190.33142567521949
 31
0.0
  0
LINE
  5
10C1
  8
AD4531A
 62
     8
 10
365.07496021060331
 20
196.33142567521949
 30
0.0
 11
365.07496021060331
 21
190.33142567521949
 31
0.0
  0
LINE
  5
10C2
  8
AD4531A
 62
     8
 10
363.97496021060317
 20
196.33142567521949
 30
0.0
 11
365.07496021060331
 21
196.33142567521949
 31
0.0
  0
LINE
  5
10C3
  8
AD4531A
 62
     8
 10
351.97496021060329
 20
198.33142567521949
 30
0.0
 11
365.87496021060321
 21
198.33142567521941
 31
0.0
  0
LINE
  5
10C4
  8
AD4531A
 62
     8
 10
363.97496021060311
 20
196.33142567521941
 30
0.0
 11
363.97496021060317
 21
190.33142567521941
 31
0.0
  0
LINE
  5
10C5
  8
AD4531A
 62
     8
 10
363.97496021060311
 20
188.33142567521949
 30
0.0
 11
363.97496021060317
 21
187.1314256752195
 31
0.0
  0
LINE
  5
10C6
  8
AD4531A
 62
     8
 10
352.77496021060318
 20
228.33142567521961
 30
0.0
 11
352.77496021060318
 21
218.33142567521949
 31
0.0
  0
LINE
  5
10C7
  8
AD4531A
 62
     8
 10
352.77496021060341
 20
198.33142567521961
 30
0.0
 11
352.7749602106033
 21
188.33142567521949
 31
0.0
  0
LINE
  5
10CA
  8
AD4531A
 62
     8
 10
144.2566498313837
 20
118.33007365593041
 30
0.0
 11
151.7566498313837
 21
118.33007365593041
 31
0.0
  0
LINE
  5
10CB
  8
AD4531A
 62
     8
 10
151.7566498313837
 20
118.33007365593041
 30
0.0
 11
151.7566498313837
 21
108.33007365593031
 31
0.0
  0
LINE
  5
10CC
  8
AD4531A
 62
     8
 10
151.7566498313837
 20
108.33007365593031
 30
0.0
 11
144.2566498313837
 21
108.33007365593031
 31
0.0
  0
LINE
  5
10CD
  8
AD4531A
 62
     8
 10
145.05664983138351
 20
118.33007365593041
 30
0.0
 11
145.0566498313836
 21
108.33007365593031
 31
0.0
  0
LINE
  5
10CF
  8
AD4531A
 62
     8
 10
151.7566498313837
 20
78.330073655930391
 30
0.0
 11
144.2566498313837
 21
78.330073655930391
 31
0.0
  0
LINE
  5
10D0
  8
AD4531A
 62
     8
 10
151.7566498313837
 20
88.330073655930377
 30
0.0
 11
151.7566498313837
 21
78.330073655930391
 31
0.0
  0
LINE
  5
10D1
  8
AD4531A
 62
     8
 10
145.05664983138351
 20
88.330073655930377
 30
0.0
 11
145.0566498313836
 21
78.330073655930391
 31
0.0
  0
LINE
  5
10D2
  8
AD4531A
 62
     8
 10
144.2566498313837
 20
88.330073655930377
 30
0.0
 11
151.7566498313837
 21
88.330073655930377
 31
0.0
  0
LINE
  5
10D3
  8
AD4531A
 62
     8
 10
66.056649831383652
 20
88.330073655930377
 30
0.0
 11
66.056649831383652
 21
78.330073655930391
 31
0.0
  0
LINE
  5
10D4
  8
AD4531A
 62
     8
 10
73.556649831383652
 20
88.330073655930377
 30
0.0
 11
66.056649831383652
 21
88.330073655930377
 31
0.0
  0
LINE
  5
10D5
  8
AD4531A
 62
     8
 10
72.756649831383811
 20
88.330073655930377
 30
0.0
 11
72.756649831383683
 21
78.330073655930391
 31
0.0
  0
LINE
  5
10D6
  8
AD4531A
 62
     8
 10
66.056649831383652
 20
78.330073655930391
 30
0.0
 11
73.556649831383652
 21
78.330073655930391
 31
0.0
  0
LINE
  5
10D7
  8
0
 10
66.056649831383652
 20
118.33007365593041
 30
0.0
 11
66.056649831383652
 21
108.33007365593031
 31
0.0
  0
LINE
  5
10D8
  8
0
 10
73.556649831383652
 20
118.33007365593041
 30
0.0
 11
66.056649831383652
 21
118.33007365593041
 31
0.0
  0
LINE
  5
10D9
  8
0
 10
72.756649831383811
 20
118.33007365593041
 30
0.0
 11
72.756649831383683
 21
108.33007365593031
 31
0.0
  0
LINE
  5
10DA
  8
0
 10
66.056649831383652
 20
108.33007365593031
 30
0.0
 11
73.556649831383652
 21
108.33007365593031
 31
0.0
  0
LINE
  5
1121
  8
AD4531A
 62
     8
 10
353.27496021060318
 20
220.33142567521961
 30
0.0
 11
353.27496021060318
 21
226.33142567521961
 31
0.0
  0
LINE
  5
1122
  8
AD4531A
 62
     8
 10
353.974960210603
 20
220.38142567521979
 30
0.0
 11
353.974960210603
 21
226.2814256752194
 31
0.0
  0
ARC
  5
1123
  8
AD4531A
 62
     8
 10
348.974960210603
 20
223.33142567521961
 30
0.0
 40
7.0000000000002851
 50
343.44863247575279
 51
16.55136752424718
  0
ARC
  5
1124
  8
AD4531A
 62
     8
 10
354.72634853420823
 20
225.04067473580241
 30
0.0
 40
1.0
 50
16.55136752424718
 51
86.99999999999423
  0
LINE
  5
1125
  8
AD4531A
 62
     8
 10
353.974960210603
 20
223.327280486787
 30
0.0
 11
353.27496021060318
 21
223.73142567521921
 31
0.0
  0
LINE
  5
1126
  8
AD4531A
 62
     8
 10
353.974960210603
 20
222.9272804867864
 30
0.0
 11
353.27496021060318
 21
223.33142567521961
 31
0.0
  0
LINE
  5
1127
  8
AD4531A
 62
     8
 10
353.974960210603
 20
226.2814256752194
 30
0.0
 11
353.27496021060318
 21
226.2814256752194
 31
0.0
  0
LINE
  5
1128
  8
AD4531A
 62
     8
 10
353.974960210603
 20
226.08142567521961
 30
0.0
 11
354.77868449045121
 21
226.03930427055681
 31
0.0
  0
LINE
  5
1129
  8
AD4531A
 62
     8
 10
353.27496021060318
 20
226.33142567521961
 30
0.0
 11
352.77496021060318
 21
226.33142567521961
 31
0.0
  0
ARC
  5
112A
  8
AD4531A
 62
     8
 10
354.72634853420823
 20
221.6221766146368
 30
0.0
 40
1.0
 50
273.00000000000568
 51
343.44863247575279
  0
LINE
  5
112B
  8
AD4531A
 62
     8
 10
353.974960210603
 20
220.38142567521979
 30
0.0
 11
353.27496021060318
 21
220.38142567521979
 31
0.0
  0
LINE
  5
112C
  8
AD4531A
 62
     8
 10
354.77868449045121
 20
220.6235470798824
 30
0.0
 11
353.974960210603
 21
220.58142567521961
 31
0.0
  0
LINE
  5
112D
  8
AD4531A
 62
     8
 10
353.27496021060318
 20
220.33142567521961
 30
0.0
 11
352.77496021060318
 21
220.33142567521961
 31
0.0
  0
LINE
  5
1144
  8
AD4531A
 62
     8
 10
352.77496021060318
 20
226.33142567521961
 30
0.0
 11
352.77496021060318
 21
220.33142567521961
 31
0.0
  0
LINE
  5
1145
  8
AD4531A
 62
     8
 10
353.27496021060341
 20
190.33142567521949
 30
0.0
 11
353.27496021060341
 21
196.33142567521949
 31
0.0
  0
LINE
  5
1146
  8
AD4531A
 62
     8
 10
353.97496021060329
 20
190.3814256752197
 30
0.0
 11
353.97496021060329
 21
196.2814256752194
 31
0.0
  0
ARC
  5
1147
  8
AD4531A
 62
     8
 10
348.97496021060317
 20
193.33142567521949
 30
0.0
 40
7.0000000000002851
 50
343.44863247575279
 51
16.55136752424718
  0
ARC
  5
1148
  8
AD4531A
 62
     8
 10
354.7263485342084
 20
195.0406747358023
 30
0.0
 40
1.0
 50
16.55136752424718
 51
86.99999999999423
  0
LINE
  5
1149
  8
AD4531A
 62
     8
 10
353.97496021060329
 20
193.32728048678689
 30
0.0
 11
353.27496021060341
 21
193.73142567521921
 31
0.0
  0
LINE
  5
114A
  8
AD4531A
 62
     8
 10
353.97496021060329
 20
192.9272804867864
 30
0.0
 11
353.27496021060341
 21
193.33142567521949
 31
0.0
  0
LINE
  5
114B
  8
AD4531A
 62
     8
 10
353.97496021060329
 20
196.2814256752194
 30
0.0
 11
353.27496021060341
 21
196.2814256752194
 31
0.0
  0
LINE
  5
114C
  8
AD4531A
 62
     8
 10
353.97496021060329
 20
196.08142567521949
 30
0.0
 11
354.7786844904515
 21
196.0393042705567
 31
0.0
  0
LINE
  5
114D
  8
AD4531A
 62
     8
 10
353.27496021060341
 20
196.33142567521949
 30
0.0
 11
352.77496021060341
 21
196.33142567521949
 31
0.0
  0
ARC
  5
114E
  8
AD4531A
 62
     8
 10
354.7263485342084
 20
191.62217661463669
 30
0.0
 40
1.0
 50
273.00000000000568
 51
343.44863247575279
  0
LINE
  5
114F
  8
AD4531A
 62
     8
 10
353.97496021060329
 20
190.3814256752197
 30
0.0
 11
353.27496021060341
 21
190.3814256752197
 31
0.0
  0
LINE
  5
1150
  8
AD4531A
 62
     8
 10
354.7786844904515
 20
190.62354707988229
 30
0.0
 11
353.97496021060329
 21
190.58142567521949
 31
0.0
  0
LINE
  5
1151
  8
AD4531A
 62
     8
 10
353.27496021060341
 20
190.33142567521949
 30
0.0
 11
352.77496021060341
 21
190.33142567521949
 31
0.0
  0
LINE
  5
1152
  8
AD4531A
 62
     8
 10
352.77496021060341
 20
196.33142567521949
 30
0.0
 11
352.77496021060341
 21
190.33142567521949
 31
0.0
  0
LINE
  5
115B
  8
AD4531A
 62
     8
 10
346.27496021060341
 20
204.29165852976499
 30
0.0
 11
346.27496021060341
 21
212.66064891092961
 31
0.0
  0
ARC
  5
115C
  8
AD4531A
 62
     8
 10
341.97496021060317
 20
208.4761537203473
 30
0.0
 40
6.0
 50
315.77995557231873
 51
44.220044427669727
  0
LINE
  5
115D
  8
AD4531A
 62
     8
 10
346.27496021060341
 20
212.5159208658005
 30
0.0
 11
345.97496021060317
 21
212.51592086580141
 31
0.0
  0
LINE
  5
115E
  8
AD4531A
 62
     8
 10
346.27496021060341
 20
204.14693048463769
 30
0.0
 11
345.97496021060317
 21
204.14693048463769
 31
0.0
  0
LINE
  5
115F
  8
AD4531A
 62
     8
 10
345.97496021060317
 20
212.51592086580141
 30
0.0
 11
345.97496021060317
 21
204.14693048463769
 31
0.0
  0
DIMENSION
  5
1160
  8
MEASURE
  2
*D13
 10
156.9066498313837
 20
161.9467235175882
 30
0.0
 11
108.9066498313836
 21
164.79672351758819
 31
0.0
 70
     0
 13
60.906649831383561
 23
185.13142567521959
 33
0.0
 14
156.9066498313837
 24
185.13142567521959
 34
0.0
1001
ACAD
1000
DSTYLE
1002
{
1070
    40
1040
1.5
1002
}
  0
DIMENSION
  5
116D
  8
MEASURE
  2
*D14
 10
42.844687561633691
 20
184.33142567521949
 30
0.0
 11
39.994687561633661
 21
208.33142567521961
 31
0.0
 70
     0
 13
61.706649831383629
 23
232.33142567521961
 33
0.0
 14
61.706649831383508
 24
184.33142567521949
 34
0.0
 50
90.0
1001
ACAD
1000
DSTYLE
1002
{
1070
    40
1040
1.5
1002
}
  0
DIMENSION
  5
11E8
  8
MEASURE
  2
*D19
 10
346.93940626743591
 20
60.20539355923529
 30
0.0
 11
300.93940626743591
 21
63.405393559235293
 31
0.0
 70
     0
 13
254.93940626743591
 23
72.369895235101467
 33
0.0
 14
346.93940626743591
 24
72.369895235101467
 34
0.0
1001
ACAD
1000
DSTYLE
1002
{
1070
   146
1040
0.5
1070
    47
1040
0.8
1070
    48
1040
0.000000001
1070
   147
1040
0.5
1070
    72
1070
     0
1070
    71
1070
     1
1070
    40
1040
1.5
1002
}
  0
DIMENSION
  5
11F5
  8
MEASURE
  2
*D20
 10
242.29811890738071
 20
72.369895235101467
 30
0.0
 11
239.09811890738069
 21
94.869895235101524
 31
0.0
 70
     0
 13
254.93940626743591
 23
117.3698952351014
 33
0.0
 14
254.93940626743591
 24
72.369895235101467
 34
0.0
 50
90.0
1001
ACAD
1000
DSTYLE
1002
{
1070
   146
1040
0.5
1070
    47
1040
0.6
1070
    48
1040
0.000000001
1070
   147
1040
0.5
1070
    72
1070
     0
1070
    71
1070
     1
1070
    40
1040
1.5
1002
}
  0
DIMENSION
  5
1202
  8
MEASURE
  2
*D21
 10
157.90664983138359
 20
60.153000733703941
 30
0.0
 11
108.9066498313836
 21
63.003000733703949
 31
0.0
 70
     0
 13
59.906649831383668
 23
90.330073655930391
 33
0.0
 14
157.90664983138359
 24
90.330073655930391
 34
0.0
1001
ACAD
1000
DSTYLE
1002
{
1070
    40
1040
1.5
1002
}
  0
POLYLINE
  8
MEASURE
  5
175E
  66
     1
 10
0.000000
 20
0.000000
 30
0.000000
  70
     8
  0
VERTEX
  8
MEASURE
  5
175F
 10
138.657
 20
115.080
 30
0.000000
  70
    32
  0
VERTEX
  8
MEASURE
  5
1760
 10
148.634
 20
125.724
 30
0.000000
  70
    32
  0
VERTEX
  8
MEASURE
  5
1761
 10
162.151
 20
125.752
 30
0.000000
  70
    32
  0
SEQEND
  8
MEASURE
  5
1762
  0
TEXT
  5
1210
  8
MEASURE
 62
     2
 10
150.20866239839239
 20
126.695141405732
 30
0.0
 40
4.1999999999999993
  1
M3.5
 41
0.8
  7
AD-STANDARD
  0
TEXT
  5
1211
  8
MEASURE
 10
90.887362302464496
 20
150.68053844434871
 30
0.0
 40
4.0
  1
FRONTü@VIEW
  7
FUTURA
  0
TEXT
  5
1214
  8
MEASURE
 10
270.68394022358342
 20
151.0275942773155
 30
0.0
 40
4.0
  1
SIDEü@VIEW
  7
FUTURA
  0
TEXT
  5
1216
  8
MEASURE
 10
90.864635029737215
 20
45.942197193041459
 30
0.0
 40
4.0
  1
REARü@VIEW
  7
FUTURA
  0
TEXT
  5
1217
  8
MEASURE
 10
282.46664813977787
 20
46.24073394236575
 30
0.0
 40
4.0
  1
PANELü@CUT
  7
FUTURA
  0
LINE
  5
132B
  8
MEASURE
 62
     9
 10
222.97496021060331
 20
182.83142567521949
 30
0.0
 11
222.97496021060331
 21
168.9844247370574
 31
0.0
  0
LINE
  5
132C
  8
MEASURE
 62
     9
 10
343.97496021060317
 20
184.83142567521949
 30
0.0
 11
343.97496021060317
 21
168.9844247370574
 31
0.0
  0
POLYLINE
  5
136A
  8
MEASURE
 66
     1
 10
0.0
 20
0.0
 30
0.0
 70
     1
  0
VERTEX
  5
1723
  8
MEASURE
 10
0.0
 20
0.0
 30
0.0
  0
VERTEX
  5
1724
  8
MEASURE
 10
420.0
 20
0.0
 30
0.0
  0
VERTEX
  5
1725
  8
MEASURE
 10
420.0
 20
297.0
 30
0.0
  0
VERTEX
  5
1726
  8
MEASURE
 10
0.0
 20
297.0
 30
0.0
  0
SEQEND
  5
1727
  8
MEASURE
  0
DIMENSION
  5
1428
  8
MEASURE
  2
*D26
 10
215.9749602106032
 20
161.9467235175882
 30
0.0
 11
213.4749602106032
 21
164.79672351758819
 31
0.0
 70
     0
 13
210.9749602106032
 23
204.63142567521959
 33
0.0
 14
215.9749602106032
 24
185.35263622500659
 34
0.0
1001
ACAD
1000
DSTYLE
1002
{
1070
    40
1040
1.5
1070
   173
1070
     1
1070
     5
1000

1070
     6
1000

1070
     7
1000
DOTSMALL
1002
}
  0
DIMENSION
  5
1437
  8
MEASURE
  2
*D27
 10
222.97496021060331
 20
161.9467235175882
 30
0.0
 11
219.6778960571414
 21
161.96646140462161
 31
0.0
 70
   128
 13
215.9749602106032
 23
185.35263622500659
 33
0.0
 14
222.97496021060331
 24
184.33142567521949
 34
0.0
1001
ACAD
1000
DSTYLE
1002
{
1070
   287
1070
     4
1070
    40
1040
1.5
1070
   173
1070
     1
1070
   279
1070
     1
1070
     5
1000

1070
     6
1000
DOTSMALL
1070
     7
1000
-ARROW
1002
}
  0
DIMENSION
  5
1446
  8
MEASURE
  2
*D28
 10
343.97496021060317
 20
161.9467235175882
 30
0.0
 11
283.47496021060317
 21
164.79672351758819
 31
0.0
 70
     0
 13
222.97496021060331
 23
184.33142567521949
 33
0.0
 14
343.97496021060317
 24
186.33142567521949
 34
0.0
1001
ACAD
1000
DSTYLE
1002
{
1070
   287
1070
     4
1070
   279
1070
     1
1070
    40
1040
1.5
1002
}
  0
DIMENSION
  5
1453
  8
MEASURE
  2
*D29
 10
367.87496021060309
 20
161.9467235175882
 30
0.0
 11
355.92496021060322
 21
164.79672351758819
 31
0.0
 70
     0
 13
343.97496021060317
 23
186.33142567521949
 33
0.0
 14
367.87496021060309
 24
190.33142567521949
 34
0.0
1001
ACAD
1000
DSTYLE
1002
{
1070
   287
1070
     4
1070
   279
1070
     1
1070
    40
1040
1.5
1002
}
  0
CIRCLE
  5
1492
  8
NEJI
 62
     9
 10
113.1566498313836
 20
83.330073655930377
 30
0.0
 40
2.75
  0
LINE
  5
1493
  8
NEJI
 62
     9
 10
113.5066498313839
 20
81.580073655930391
 30
0.0
 11
112.8066498313835
 21
81.580073655929979
 31
0.0
  0
LINE
  5
1494
  8
NEJI
 62
     9
 10
113.5066498313837
 20
85.08007365593059
 30
0.0
 11
112.8066498313833
 21
85.080073655930391
 31
0.0
  0
LINE
  5
1495
  8
NEJI
 62
     9
 10
114.9066498313836
 20
83.68007365593067
 30
0.0
 11
114.9066498313838
 21
82.980073655930312
 31
0.0
  0
LINE
  5
1496
  8
NEJI
 62
     9
 10
114.9066498313838
 20
82.980073655930312
 30
0.0
 11
114.3466498313835
 21
82.980073655930312
 31
0.0
  0
LINE
  5
1497
  8
NEJI
 62
     9
 10
114.3466498313835
 20
82.980073655930312
 30
0.0
 11
113.7516498313835
 21
82.735073655930535
 31
0.0
  0
LINE
  5
1498
  8
NEJI
 62
     9
 10
113.7516498313835
 20
82.735073655930535
 30
0.0
 11
113.5066498313839
 21
82.140073655930465
 31
0.0
  0
LINE
  5
1499
  8
NEJI
 62
     9
 10
113.5066498313839
 20
82.140073655930465
 30
0.0
 11
113.5066498313839
 21
81.580073655930391
 31
0.0
  0
LINE
  5
149A
  8
NEJI
 62
     9
 10
113.5066498313837
 20
85.08007365593059
 30
0.0
 11
113.5066498313837
 21
84.520073655930304
 31
0.0
  0
LINE
  5
149B
  8
NEJI
 62
     9
 10
113.5066498313837
 20
84.520073655930304
 30
0.0
 11
113.7516498313835
 21
83.925073655930234
 31
0.0
  0
LINE
  5
149C
  8
NEJI
 62
     9
 10
113.7516498313835
 20
83.925073655930234
 30
0.0
 11
114.3466498313835
 21
83.68007365593067
 31
0.0
  0
LINE
  5
149D
  8
NEJI
 62
     9
 10
114.3466498313835
 20
83.68007365593067
 30
0.0
 11
114.9066498313836
 21
83.68007365593067
 31
0.0
  0
LINE
  5
149E
  8
NEJI
 62
     9
 10
111.4066498313834
 20
83.680073655930471
 30
0.0
 11
111.4066498313836
 21
82.980073655929914
 31
0.0
  0
LINE
  5
149F
  8
NEJI
 62
     9
 10
112.8066498313835
 20
81.580073655929979
 30
0.0
 11
112.8066498313835
 21
82.14007365593028
 31
0.0
  0
LINE
  5
14A0
  8
NEJI
 62
     9
 10
112.8066498313835
 20
82.14007365593028
 30
0.0
 11
112.5616498313838
 21
82.735073655930336
 31
0.0
  0
LINE
  5
14A1
  8
NEJI
 62
     9
 10
112.5616498313838
 20
82.735073655930336
 30
0.0
 11
111.96664983138371
 21
82.980073655929914
 31
0.0
  0
LINE
  5
14A2
  8
NEJI
 62
     9
 10
111.96664983138371
 20
82.980073655929914
 30
0.0
 11
111.4066498313836
 21
82.980073655929914
 31
0.0
  0
LINE
  5
14A3
  8
NEJI
 62
     9
 10
112.8066498313833
 20
84.520073655930304
 30
0.0
 11
112.8066498313833
 21
85.080073655930391
 31
0.0
  0
LINE
  5
14A4
  8
NEJI
 62
     9
 10
112.5616498313838
 20
83.925073655930234
 30
0.0
 11
112.8066498313833
 21
84.520073655930304
 31
0.0
  0
LINE
  5
14A5
  8
NEJI
 62
     9
 10
111.96664983138371
 20
83.680073655930471
 30
0.0
 11
112.5616498313838
 21
83.925073655930234
 31
0.0
  0
LINE
  5
14A6
  8
NEJI
 62
     9
 10
111.4066498313834
 20
83.680073655930471
 30
0.0
 11
111.96664983138371
 21
83.680073655930471
 31
0.0
  0
CIRCLE
  5
14A7
  8
NEJI
 62
     9
 10
104.6566498313836
 20
83.330073655930377
 30
0.0
 40
2.75
  0
LINE
  5
14A8
  8
NEJI
 62
     9
 10
105.0066498313839
 20
81.580073655930391
 30
0.0
 11
104.3066498313836
 21
81.580073655929979
 31
0.0
  0
LINE
  5
14A9
  8
NEJI
 62
     9
 10
105.0066498313837
 20
85.08007365593059
 30
0.0
 11
104.3066498313834
 21
85.080073655930391
 31
0.0
  0
LINE
  5
14AA
  8
NEJI
 62
     9
 10
106.4066498313836
 20
83.68007365593067
 30
0.0
 11
106.4066498313838
 21
82.980073655930312
 31
0.0
  0
LINE
  5
14AB
  8
NEJI
 62
     9
 10
106.4066498313838
 20
82.980073655930312
 30
0.0
 11
105.8466498313835
 21
82.980073655930312
 31
0.0
  0
LINE
  5
14AC
  8
NEJI
 62
     9
 10
105.8466498313835
 20
82.980073655930312
 30
0.0
 11
105.2516498313835
 21
82.735073655930535
 31
0.0
  0
LINE
  5
14AD
  8
NEJI
 62
     9
 10
105.2516498313835
 20
82.735073655930535
 30
0.0
 11
105.0066498313839
 21
82.140073655930465
 31
0.0
  0
LINE
  5
14AE
  8
NEJI
 62
     9
 10
105.0066498313839
 20
82.140073655930465
 30
0.0
 11
105.0066498313839
 21
81.580073655930391
 31
0.0
  0
LINE
  5
14AF
  8
NEJI
 62
     9
 10
105.0066498313837
 20
85.08007365593059
 30
0.0
 11
105.0066498313837
 21
84.520073655930304
 31
0.0
  0
LINE
  5
14B0
  8
NEJI
 62
     9
 10
105.0066498313837
 20
84.520073655930304
 30
0.0
 11
105.2516498313835
 21
83.925073655930234
 31
0.0
  0
LINE
  5
14B1
  8
NEJI
 62
     9
 10
105.2516498313835
 20
83.925073655930234
 30
0.0
 11
105.8466498313835
 21
83.68007365593067
 31
0.0
  0
LINE
  5
14B2
  8
NEJI
 62
     9
 10
105.8466498313835
 20
83.68007365593067
 30
0.0
 11
106.4066498313836
 21
83.68007365593067
 31
0.0
  0
LINE
  5
14B3
  8
NEJI
 62
     9
 10
102.9066498313834
 20
83.680073655930471
 30
0.0
 11
102.9066498313836
 21
82.980073655929914
 31
0.0
  0
LINE
  5
14B4
  8
NEJI
 62
     9
 10
104.3066498313836
 20
81.580073655929979
 30
0.0
 11
104.3066498313836
 21
82.14007365593028
 31
0.0
  0
LINE
  5
14B5
  8
NEJI
 62
     9
 10
104.3066498313836
 20
82.14007365593028
 30
0.0
 11
104.0616498313838
 21
82.735073655930336
 31
0.0
  0
LINE
  5
14B6
  8
NEJI
 62
     9
 10
104.0616498313838
 20
82.735073655930336
 30
0.0
 11
103.46664983138371
 21
82.980073655929914
 31
0.0
  0
LINE
  5
14B7
  8
NEJI
 62
     9
 10
103.46664983138371
 20
82.980073655929914
 30
0.0
 11
102.9066498313836
 21
82.980073655929914
 31
0.0
  0
LINE
  5
14B8
  8
NEJI
 62
     9
 10
104.3066498313834
 20
84.520073655930304
 30
0.0
 11
104.3066498313834
 21
85.080073655930391
 31
0.0
  0
LINE
  5
14B9
  8
NEJI
 62
     9
 10
104.0616498313838
 20
83.925073655930234
 30
0.0
 11
104.3066498313834
 21
84.520073655930304
 31
0.0
  0
LINE
  5
14BA
  8
NEJI
 62
     9
 10
103.46664983138371
 20
83.680073655930471
 30
0.0
 11
104.0616498313838
 21
83.925073655930234
 31
0.0
  0
LINE
  5
14BB
  8
NEJI
 62
     9
 10
102.9066498313834
 20
83.680073655930471
 30
0.0
 11
103.46664983138371
 21
83.680073655930471
 31
0.0
  0
CIRCLE
  5
14BC
  8
NEJI
 62
     9
 10
96.156649831383675
 20
83.330073655930377
 30
0.0
 40
2.75
  0
LINE
  5
14BD
  8
NEJI
 62
     9
 10
96.506649831383953
 20
81.580073655930391
 30
0.0
 11
95.806649831383595
 21
81.580073655929979
 31
0.0
  0
LINE
  5
14BE
  8
NEJI
 62
     9
 10
96.506649831383754
 20
85.08007365593059
 30
0.0
 11
95.806649831383396
 21
85.080073655930391
 31
0.0
  0
LINE
  5
14BF
  8
NEJI
 62
     9
 10
97.906649831383675
 20
83.68007365593067
 30
0.0
 11
97.906649831383874
 21
82.980073655930312
 31
0.0
  0
LINE
  5
14C0
  8
NEJI
 62
     9
 10
97.906649831383874
 20
82.980073655930312
 30
0.0
 11
97.346649831383587
 21
82.980073655930312
 31
0.0
  0
LINE
  5
14C1
  8
NEJI
 62
     9
 10
97.346649831383587
 20
82.980073655930312
 30
0.0
 11
96.751649831383531
 21
82.735073655930535
 31
0.0
  0
LINE
  5
14C2
  8
NEJI
 62
     9
 10
96.751649831383531
 20
82.735073655930535
 30
0.0
 11
96.506649831383953
 21
82.140073655930465
 31
0.0
  0
LINE
  5
14C3
  8
NEJI
 62
     9
 10
96.506649831383953
 20
82.140073655930465
 30
0.0
 11
96.506649831383953
 21
81.580073655930391
 31
0.0
  0
LINE
  5
14C4
  8
NEJI
 62
     9
 10
96.506649831383754
 20
85.08007365593059
 30
0.0
 11
96.506649831383754
 21
84.520073655930304
 31
0.0
  0
LINE
  5
14C5
  8
NEJI
 62
     9
 10
96.506649831383754
 20
84.520073655930304
 30
0.0
 11
96.751649831383531
 21
83.925073655930234
 31
0.0
  0
LINE
  5
14C6
  8
NEJI
 62
     9
 10
96.751649831383531
 20
83.925073655930234
 30
0.0
 11
97.346649831383587
 21
83.68007365593067
 31
0.0
  0
LINE
  5
14C7
  8
NEJI
 62
     9
 10
97.346649831383587
 20
83.68007365593067
 30
0.0
 11
97.906649831383675
 21
83.68007365593067
 31
0.0
  0
LINE
  5
14C8
  8
NEJI
 62
     9
 10
94.406649831383476
 20
83.680073655930471
 30
0.0
 11
94.406649831383675
 21
82.980073655929914
 31
0.0
  0
LINE
  5
14C9
  8
NEJI
 62
     9
 10
95.806649831383595
 20
81.580073655929979
 30
0.0
 11
95.806649831383595
 21
82.14007365593028
 31
0.0
  0
LINE
  5
14CA
  8
NEJI
 62
     9
 10
95.806649831383595
 20
82.14007365593028
 30
0.0
 11
95.561649831383818
 21
82.735073655930336
 31
0.0
  0
LINE
  5
14CB
  8
NEJI
 62
     9
 10
95.561649831383818
 20
82.735073655930336
 30
0.0
 11
94.966649831383762
 21
82.980073655929914
 31
0.0
  0
LINE
  5
14CC
  8
NEJI
 62
     9
 10
94.966649831383762
 20
82.980073655929914
 30
0.0
 11
94.406649831383675
 21
82.980073655929914
 31
0.0
  0
LINE
  5
14CD
  8
NEJI
 62
     9
 10
95.806649831383396
 20
84.520073655930304
 30
0.0
 11
95.806649831383396
 21
85.080073655930391
 31
0.0
  0
LINE
  5
14CE
  8
NEJI
 62
     9
 10
95.561649831383818
 20
83.925073655930234
 30
0.0
 11
95.806649831383396
 21
84.520073655930304
 31
0.0
  0
LINE
  5
14CF
  8
NEJI
 62
     9
 10
94.966649831383762
 20
83.680073655930471
 30
0.0
 11
95.561649831383818
 21
83.925073655930234
 31
0.0
  0
LINE
  5
14D0
  8
NEJI
 62
     9
 10
94.406649831383476
 20
83.680073655930471
 30
0.0
 11
94.966649831383762
 21
83.680073655930471
 31
0.0
  0
CIRCLE
  5
14D1
  8
NEJI
 62
     9
 10
87.656649831383675
 20
83.330073655930377
 30
0.0
 40
2.75
  0
LINE
  5
14D2
  8
NEJI
 62
     9
 10
88.006649831383939
 20
81.580073655930391
 30
0.0
 11
87.306649831383595
 21
81.580073655929979
 31
0.0
  0
LINE
  5
14D3
  8
NEJI
 62
     9
 10
88.006649831383754
 20
85.08007365593059
 30
0.0
 11
87.306649831383396
 21
85.080073655930391
 31
0.0
  0
LINE
  5
14D4
  8
NEJI
 62
     9
 10
89.406649831383675
 20
83.68007365593067
 30
0.0
 11
89.406649831383874
 21
82.980073655930312
 31
0.0
  0
LINE
  5
14D5
  8
NEJI
 62
     9
 10
89.406649831383874
 20
82.980073655930312
 30
0.0
 11
88.846649831383587
 21
82.980073655930312
 31
0.0
  0
LINE
  5
14D6
  8
NEJI
 62
     9
 10
88.846649831383587
 20
82.980073655930312
 30
0.0
 11
88.251649831383531
 21
82.735073655930535
 31
0.0
  0
LINE
  5
14D7
  8
NEJI
 62
     9
 10
88.251649831383531
 20
82.735073655930535
 30
0.0
 11
88.006649831383939
 21
82.140073655930465
 31
0.0
  0
LINE
  5
14D8
  8
NEJI
 62
     9
 10
88.006649831383939
 20
82.140073655930465
 30
0.0
 11
88.006649831383939
 21
81.580073655930391
 31
0.0
  0
LINE
  5
14D9
  8
NEJI
 62
     9
 10
88.006649831383754
 20
85.08007365593059
 30
0.0
 11
88.006649831383754
 21
84.520073655930304
 31
0.0
  0
LINE
  5
14DA
  8
NEJI
 62
     9
 10
88.006649831383754
 20
84.520073655930304
 30
0.0
 11
88.251649831383531
 21
83.925073655930234
 31
0.0
  0
LINE
  5
14DB
  8
NEJI
 62
     9
 10
88.251649831383531
 20
83.925073655930234
 30
0.0
 11
88.846649831383587
 21
83.68007365593067
 31
0.0
  0
LINE
  5
14DC
  8
NEJI
 62
     9
 10
88.846649831383587
 20
83.68007365593067
 30
0.0
 11
89.406649831383675
 21
83.68007365593067
 31
0.0
  0
LINE
  5
14DD
  8
NEJI
 62
     9
 10
85.906649831383476
 20
83.680073655930471
 30
0.0
 11
85.906649831383675
 21
82.980073655929914
 31
0.0
  0
LINE
  5
14DE
  8
NEJI
 62
     9
 10
87.306649831383595
 20
81.580073655929979
 30
0.0
 11
87.306649831383595
 21
82.14007365593028
 31
0.0
  0
LINE
  5
14DF
  8
NEJI
 62
     9
 10
87.306649831383595
 20
82.14007365593028
 30
0.0
 11
87.061649831383818
 21
82.735073655930336
 31
0.0
  0
LINE
  5
14E0
  8
NEJI
 62
     9
 10
87.061649831383818
 20
82.735073655930336
 30
0.0
 11
86.466649831383776
 21
82.980073655929914
 31
0.0
  0
LINE
  5
14E1
  8
NEJI
 62
     9
 10
86.466649831383776
 20
82.980073655929914
 30
0.0
 11
85.906649831383675
 21
82.980073655929914
 31
0.0
  0
LINE
  5
14E2
  8
NEJI
 62
     9
 10
87.306649831383396
 20
84.520073655930304
 30
0.0
 11
87.306649831383396
 21
85.080073655930391
 31
0.0
  0
LINE
  5
14E3
  8
NEJI
 62
     9
 10
87.061649831383818
 20
83.925073655930234
 30
0.0
 11
87.306649831383396
 21
84.520073655930304
 31
0.0
  0
LINE
  5
14E4
  8
NEJI
 62
     9
 10
86.466649831383776
 20
83.680073655930471
 30
0.0
 11
87.061649831383818
 21
83.925073655930234
 31
0.0
  0
LINE
  5
14E5
  8
NEJI
 62
     9
 10
85.906649831383476
 20
83.680073655930471
 30
0.0
 11
86.466649831383776
 21
83.680073655930471
 31
0.0
  0
CIRCLE
  5
14E6
  8
NEJI
 62
     9
 10
79.156649831383675
 20
83.330073655930377
 30
0.0
 40
2.75
  0
LINE
  5
14E7
  8
NEJI
 62
     9
 10
79.506649831383953
 20
81.580073655930391
 30
0.0
 11
78.806649831383595
 21
81.580073655929979
 31
0.0
  0
LINE
  5
14E8
  8
NEJI
 62
     9
 10
79.506649831383754
 20
85.08007365593059
 30
0.0
 11
78.806649831383396
 21
85.080073655930391
 31
0.0
  0
LINE
  5
14E9
  8
NEJI
 62
     9
 10
80.906649831383675
 20
83.68007365593067
 30
0.0
 11
80.906649831383874
 21
82.980073655930312
 31
0.0
  0
LINE
  5
14EA
  8
NEJI
 62
     9
 10
80.906649831383874
 20
82.980073655930312
 30
0.0
 11
80.346649831383587
 21
82.980073655930312
 31
0.0
  0
LINE
  5
14EB
  8
NEJI
 62
     9
 10
80.346649831383587
 20
82.980073655930312
 30
0.0
 11
79.751649831383531
 21
82.735073655930535
 31
0.0
  0
LINE
  5
14EC
  8
NEJI
 62
     9
 10
79.751649831383531
 20
82.735073655930535
 30
0.0
 11
79.506649831383953
 21
82.140073655930465
 31
0.0
  0
LINE
  5
14ED
  8
NEJI
 62
     9
 10
79.506649831383953
 20
82.140073655930465
 30
0.0
 11
79.506649831383953
 21
81.580073655930391
 31
0.0
  0
LINE
  5
14EE
  8
NEJI
 62
     9
 10
79.506649831383754
 20
85.08007365593059
 30
0.0
 11
79.506649831383754
 21
84.520073655930304
 31
0.0
  0
LINE
  5
14EF
  8
NEJI
 62
     9
 10
79.506649831383754
 20
84.520073655930304
 30
0.0
 11
79.751649831383531
 21
83.925073655930234
 31
0.0
  0
LINE
  5
14F0
  8
NEJI
 62
     9
 10
79.751649831383531
 20
83.925073655930234
 30
0.0
 11
80.346649831383587
 21
83.68007365593067
 31
0.0
  0
LINE
  5
14F1
  8
NEJI
 62
     9
 10
80.346649831383587
 20
83.68007365593067
 30
0.0
 11
80.906649831383675
 21
83.68007365593067
 31
0.0
  0
LINE
  5
14F2
  8
NEJI
 62
     9
 10
77.406649831383476
 20
83.680073655930471
 30
0.0
 11
77.406649831383675
 21
82.980073655929914
 31
0.0
  0
LINE
  5
14F3
  8
NEJI
 62
     9
 10
78.806649831383595
 20
81.580073655929979
 30
0.0
 11
78.806649831383595
 21
82.14007365593028
 31
0.0
  0
LINE
  5
14F4
  8
NEJI
 62
     9
 10
78.806649831383595
 20
82.14007365593028
 30
0.0
 11
78.561649831383804
 21
82.735073655930336
 31
0.0
  0
LINE
  5
14F5
  8
NEJI
 62
     9
 10
78.561649831383804
 20
82.735073655930336
 30
0.0
 11
77.966649831383762
 21
82.980073655929914
 31
0.0
  0
LINE
  5
14F6
  8
NEJI
 62
     9
 10
77.966649831383762
 20
82.980073655929914
 30
0.0
 11
77.406649831383675
 21
82.980073655929914
 31
0.0
  0
LINE
  5
14F7
  8
NEJI
 62
     9
 10
78.806649831383396
 20
84.520073655930304
 30
0.0
 11
78.806649831383396
 21
85.080073655930391
 31
0.0
  0
LINE
  5
14F8
  8
NEJI
 62
     9
 10
78.561649831383804
 20
83.925073655930234
 30
0.0
 11
78.806649831383396
 21
84.520073655930304
 31
0.0
  0
LINE
  5
14F9
  8
NEJI
 62
     9
 10
77.966649831383762
 20
83.680073655930471
 30
0.0
 11
78.561649831383804
 21
83.925073655930234
 31
0.0
  0
LINE
  5
14FA
  8
NEJI
 62
     9
 10
77.406649831383476
 20
83.680073655930471
 30
0.0
 11
77.966649831383762
 21
83.680073655930471
 31
0.0
  0
CIRCLE
  5
14FB
  8
NEJI
 62
     9
 10
138.65664983138359
 20
83.330073655930377
 30
0.0
 40
2.75
  0
LINE
  5
14FC
  8
NEJI
 62
     9
 10
139.0066498313839
 20
81.580073655930391
 30
0.0
 11
138.30664983138351
 21
81.580073655929979
 31
0.0
  0
LINE
  5
14FD
  8
NEJI
 62
     9
 10
139.0066498313837
 20
85.08007365593059
 30
0.0
 11
138.30664983138331
 21
85.080073655930391
 31
0.0
  0
LINE
  5
14FE
  8
NEJI
 62
     9
 10
140.40664983138359
 20
83.68007365593067
 30
0.0
 11
140.40664983138379
 21
82.980073655930312
 31
0.0
  0
LINE
  5
14FF
  8
NEJI
 62
     9
 10
140.40664983138379
 20
82.980073655930312
 30
0.0
 11
139.8466498313835
 21
82.980073655930312
 31
0.0
  0
LINE
  5
1500
  8
NEJI
 62
     9
 10
139.8466498313835
 20
82.980073655930312
 30
0.0
 11
139.2516498313835
 21
82.735073655930535
 31
0.0
  0
LINE
  5
1501
  8
NEJI
 62
     9
 10
139.2516498313835
 20
82.735073655930535
 30
0.0
 11
139.0066498313839
 21
82.140073655930465
 31
0.0
  0
LINE
  5
1502
  8
NEJI
 62
     9
 10
139.0066498313839
 20
82.140073655930465
 30
0.0
 11
139.0066498313839
 21
81.580073655930391
 31
0.0
  0
LINE
  5
1503
  8
NEJI
 62
     9
 10
139.0066498313837
 20
85.08007365593059
 30
0.0
 11
139.0066498313837
 21
84.520073655930304
 31
0.0
  0
LINE
  5
1504
  8
NEJI
 62
     9
 10
139.0066498313837
 20
84.520073655930304
 30
0.0
 11
139.2516498313835
 21
83.925073655930234
 31
0.0
  0
LINE
  5
1505
  8
NEJI
 62
     9
 10
139.2516498313835
 20
83.925073655930234
 30
0.0
 11
139.8466498313835
 21
83.68007365593067
 31
0.0
  0
LINE
  5
1506
  8
NEJI
 62
     9
 10
139.8466498313835
 20
83.68007365593067
 30
0.0
 11
140.40664983138359
 21
83.68007365593067
 31
0.0
  0
LINE
  5
1507
  8
NEJI
 62
     9
 10
136.90664983138339
 20
83.680073655930471
 30
0.0
 11
136.90664983138359
 21
82.980073655929914
 31
0.0
  0
LINE
  5
1508
  8
NEJI
 62
     9
 10
138.30664983138351
 20
81.580073655929979
 30
0.0
 11
138.30664983138351
 21
82.14007365593028
 31
0.0
  0
LINE
  5
1509
  8
NEJI
 62
     9
 10
138.30664983138351
 20
82.14007365593028
 30
0.0
 11
138.06164983138379
 21
82.735073655930336
 31
0.0
  0
LINE
  5
150A
  8
NEJI
 62
     9
 10
138.06164983138379
 20
82.735073655930336
 30
0.0
 11
137.46664983138371
 21
82.980073655929914
 31
0.0
  0
LINE
  5
150B
  8
NEJI
 62
     9
 10
137.46664983138371
 20
82.980073655929914
 30
0.0
 11
136.90664983138359
 21
82.980073655929914
 31
0.0
  0
LINE
  5
150C
  8
NEJI
 62
     9
 10
138.30664983138331
 20
84.520073655930304
 30
0.0
 11
138.30664983138331
 21
85.080073655930391
 31
0.0
  0
LINE
  5
150D
  8
NEJI
 62
     9
 10
138.06164983138379
 20
83.925073655930234
 30
0.0
 11
138.30664983138331
 21
84.520073655930304
 31
0.0
  0
LINE
  5
150E
  8
NEJI
 62
     9
 10
137.46664983138371
 20
83.680073655930471
 30
0.0
 11
138.06164983138379
 21
83.925073655930234
 31
0.0
  0
LINE
  5
150F
  8
NEJI
 62
     9
 10
136.90664983138339
 20
83.680073655930471
 30
0.0
 11
137.46664983138371
 21
83.680073655930471
 31
0.0
  0
CIRCLE
  5
1510
  8
NEJI
 62
     9
 10
130.15664983138359
 20
83.330073655930377
 30
0.0
 40
2.75
  0
LINE
  5
1511
  8
NEJI
 62
     9
 10
130.5066498313839
 20
81.580073655930391
 30
0.0
 11
129.80664983138351
 21
81.580073655929979
 31
0.0
  0
LINE
  5
1512
  8
NEJI
 62
     9
 10
130.5066498313837
 20
85.08007365593059
 30
0.0
 11
129.80664983138331
 21
85.080073655930391
 31
0.0
  0
LINE
  5
1513
  8
NEJI
 62
     9
 10
131.90664983138359
 20
83.68007365593067
 30
0.0
 11
131.90664983138379
 21
82.980073655930312
 31
0.0
  0
LINE
  5
1514
  8
NEJI
 62
     9
 10
131.90664983138379
 20
82.980073655930312
 30
0.0
 11
131.3466498313835
 21
82.980073655930312
 31
0.0
  0
LINE
  5
1515
  8
NEJI
 62
     9
 10
131.3466498313835
 20
82.980073655930312
 30
0.0
 11
130.7516498313835
 21
82.735073655930535
 31
0.0
  0
LINE
  5
1516
  8
NEJI
 62
     9
 10
130.7516498313835
 20
82.735073655930535
 30
0.0
 11
130.5066498313839
 21
82.140073655930465
 31
0.0
  0
LINE
  5
1517
  8
NEJI
 62
     9
 10
130.5066498313839
 20
82.140073655930465
 30
0.0
 11
130.5066498313839
 21
81.580073655930391
 31
0.0
  0
LINE
  5
1518
  8
NEJI
 62
     9
 10
130.5066498313837
 20
85.08007365593059
 30
0.0
 11
130.5066498313837
 21
84.520073655930304
 31
0.0
  0
LINE
  5
1519
  8
NEJI
 62
     9
 10
130.5066498313837
 20
84.520073655930304
 30
0.0
 11
130.7516498313835
 21
83.925073655930234
 31
0.0
  0
LINE
  5
151A
  8
NEJI
 62
     9
 10
130.7516498313835
 20
83.925073655930234
 30
0.0
 11
131.3466498313835
 21
83.68007365593067
 31
0.0
  0
LINE
  5
151B
  8
NEJI
 62
     9
 10
131.3466498313835
 20
83.68007365593067
 30
0.0
 11
131.90664983138359
 21
83.68007365593067
 31
0.0
  0
LINE
  5
151C
  8
NEJI
 62
     9
 10
128.40664983138339
 20
83.680073655930471
 30
0.0
 11
128.40664983138359
 21
82.980073655929914
 31
0.0
  0
LINE
  5
151D
  8
NEJI
 62
     9
 10
129.80664983138351
 20
81.580073655929979
 30
0.0
 11
129.80664983138351
 21
82.14007365593028
 31
0.0
  0
LINE
  5
151E
  8
NEJI
 62
     9
 10
129.80664983138351
 20
82.14007365593028
 30
0.0
 11
129.56164983138379
 21
82.735073655930336
 31
0.0
  0
LINE
  5
151F
  8
NEJI
 62
     9
 10
129.56164983138379
 20
82.735073655930336
 30
0.0
 11
128.96664983138371
 21
82.980073655929914
 31
0.0
  0
LINE
  5
1520
  8
NEJI
 62
     9
 10
128.96664983138371
 20
82.980073655929914
 30
0.0
 11
128.40664983138359
 21
82.980073655929914
 31
0.0
  0
LINE
  5
1521
  8
NEJI
 62
     9
 10
129.80664983138331
 20
84.520073655930304
 30
0.0
 11
129.80664983138331
 21
85.080073655930391
 31
0.0
  0
LINE
  5
1522
  8
NEJI
 62
     9
 10
129.56164983138379
 20
83.925073655930234
 30
0.0
 11
129.80664983138331
 21
84.520073655930304
 31
0.0
  0
LINE
  5
1523
  8
NEJI
 62
     9
 10
128.96664983138371
 20
83.680073655930471
 30
0.0
 11
129.56164983138379
 21
83.925073655930234
 31
0.0
  0
LINE
  5
1524
  8
NEJI
 62
     9
 10
128.40664983138339
 20
83.680073655930471
 30
0.0
 11
128.96664983138371
 21
83.680073655930471
 31
0.0
  0
CIRCLE
  5
1525
  8
NEJI
 62
     9
 10
121.6566498313836
 20
83.330073655930377
 30
0.0
 40
2.75
  0
LINE
  5
1526
  8
NEJI
 62
     9
 10
122.0066498313839
 20
81.580073655930391
 30
0.0
 11
121.3066498313835
 21
81.580073655929979
 31
0.0
  0
LINE
  5
1527
  8
NEJI
 62
     9
 10
122.0066498313837
 20
85.08007365593059
 30
0.0
 11
121.3066498313833
 21
85.080073655930391
 31
0.0
  0
LINE
  5
1528
  8
NEJI
 62
     9
 10
123.4066498313836
 20
83.68007365593067
 30
0.0
 11
123.4066498313838
 21
82.980073655930312
 31
0.0
  0
LINE
  5
1529
  8
NEJI
 62
     9
 10
123.4066498313838
 20
82.980073655930312
 30
0.0
 11
122.8466498313835
 21
82.980073655930312
 31
0.0
  0
LINE
  5
152A
  8
NEJI
 62
     9
 10
122.8466498313835
 20
82.980073655930312
 30
0.0
 11
122.2516498313835
 21
82.735073655930535
 31
0.0
  0
LINE
  5
152B
  8
NEJI
 62
     9
 10
122.2516498313835
 20
82.735073655930535
 30
0.0
 11
122.0066498313839
 21
82.140073655930465
 31
0.0
  0
LINE
  5
152C
  8
NEJI
 62
     9
 10
122.0066498313839
 20
82.140073655930465
 30
0.0
 11
122.0066498313839
 21
81.580073655930391
 31
0.0
  0
LINE
  5
152D
  8
NEJI
 62
     9
 10
122.0066498313837
 20
85.08007365593059
 30
0.0
 11
122.0066498313837
 21
84.520073655930304
 31
0.0
  0
LINE
  5
152E
  8
NEJI
 62
     9
 10
122.0066498313837
 20
84.520073655930304
 30
0.0
 11
122.2516498313835
 21
83.925073655930234
 31
0.0
  0
LINE
  5
152F
  8
NEJI
 62
     9
 10
122.2516498313835
 20
83.925073655930234
 30
0.0
 11
122.8466498313835
 21
83.68007365593067
 31
0.0
  0
LINE
  5
1530
  8
NEJI
 62
     9
 10
122.8466498313835
 20
83.68007365593067
 30
0.0
 11
123.4066498313836
 21
83.68007365593067
 31
0.0
  0
LINE
  5
1531
  8
NEJI
 62
     9
 10
119.9066498313834
 20
83.680073655930471
 30
0.0
 11
119.9066498313836
 21
82.980073655929914
 31
0.0
  0
LINE
  5
1532
  8
NEJI
 62
     9
 10
121.3066498313835
 20
81.580073655929979
 30
0.0
 11
121.3066498313835
 21
82.14007365593028
 31
0.0
  0
LINE
  5
1533
  8
NEJI
 62
     9
 10
121.3066498313835
 20
82.14007365593028
 30
0.0
 11
121.0616498313838
 21
82.735073655930336
 31
0.0
  0
LINE
  5
1534
  8
NEJI
 62
     9
 10
121.0616498313838
 20
82.735073655930336
 30
0.0
 11
120.46664983138371
 21
82.980073655929914
 31
0.0
  0
LINE
  5
1535
  8
NEJI
 62
     9
 10
120.46664983138371
 20
82.980073655929914
 30
0.0
 11
119.9066498313836
 21
82.980073655929914
 31
0.0
  0
LINE
  5
1536
  8
NEJI
 62
     9
 10
121.3066498313833
 20
84.520073655930304
 30
0.0
 11
121.3066498313833
 21
85.080073655930391
 31
0.0
  0
LINE
  5
1537
  8
NEJI
 62
     9
 10
121.0616498313838
 20
83.925073655930234
 30
0.0
 11
121.3066498313833
 21
84.520073655930304
 31
0.0
  0
LINE
  5
1538
  8
NEJI
 62
     9
 10
120.46664983138371
 20
83.680073655930471
 30
0.0
 11
121.0616498313838
 21
83.925073655930234
 31
0.0
  0
LINE
  5
1539
  8
NEJI
 62
     9
 10
119.9066498313834
 20
83.680073655930471
 30
0.0
 11
120.46664983138371
 21
83.680073655930471
 31
0.0
  0
CIRCLE
  5
153A
  8
NEJI
 62
     9
 10
148.15664983138359
 20
83.330073655930377
 30
0.0
 40
2.75
  0
LINE
  5
153B
  8
NEJI
 62
     9
 10
148.5066498313839
 20
81.580073655930391
 30
0.0
 11
147.8066498313836
 21
81.580073655929979
 31
0.0
  0
LINE
  5
153C
  8
NEJI
 62
     9
 10
148.5066498313837
 20
85.08007365593059
 30
0.0
 11
147.8066498313834
 21
85.080073655930391
 31
0.0
  0
LINE
  5
153D
  8
NEJI
 62
     9
 10
149.90664983138359
 20
83.68007365593067
 30
0.0
 11
149.90664983138379
 21
82.980073655930312
 31
0.0
  0
LINE
  5
153E
  8
NEJI
 62
     9
 10
149.90664983138379
 20
82.980073655930312
 30
0.0
 11
149.3466498313835
 21
82.980073655930312
 31
0.0
  0
LINE
  5
153F
  8
NEJI
 62
     9
 10
149.3466498313835
 20
82.980073655930312
 30
0.0
 11
148.7516498313835
 21
82.735073655930535
 31
0.0
  0
LINE
  5
1540
  8
NEJI
 62
     9
 10
148.7516498313835
 20
82.735073655930535
 30
0.0
 11
148.5066498313839
 21
82.140073655930465
 31
0.0
  0
LINE
  5
1541
  8
NEJI
 62
     9
 10
148.5066498313839
 20
82.140073655930465
 30
0.0
 11
148.5066498313839
 21
81.580073655930391
 31
0.0
  0
LINE
  5
1542
  8
NEJI
 62
     9
 10
148.5066498313837
 20
85.08007365593059
 30
0.0
 11
148.5066498313837
 21
84.520073655930304
 31
0.0
  0
LINE
  5
1543
  8
NEJI
 62
     9
 10
148.5066498313837
 20
84.520073655930304
 30
0.0
 11
148.7516498313835
 21
83.925073655930234
 31
0.0
  0
LINE
  5
1544
  8
NEJI
 62
     9
 10
148.7516498313835
 20
83.925073655930234
 30
0.0
 11
149.3466498313835
 21
83.68007365593067
 31
0.0
  0
LINE
  5
1545
  8
NEJI
 62
     9
 10
149.3466498313835
 20
83.68007365593067
 30
0.0
 11
149.90664983138359
 21
83.68007365593067
 31
0.0
  0
LINE
  5
1546
  8
NEJI
 62
     9
 10
146.40664983138339
 20
83.680073655930471
 30
0.0
 11
146.40664983138359
 21
82.980073655929914
 31
0.0
  0
LINE
  5
1547
  8
NEJI
 62
     9
 10
147.8066498313836
 20
81.580073655929979
 30
0.0
 11
147.8066498313836
 21
82.14007365593028
 31
0.0
  0
LINE
  5
1548
  8
NEJI
 62
     9
 10
147.8066498313836
 20
82.14007365593028
 30
0.0
 11
147.56164983138379
 21
82.735073655930336
 31
0.0
  0
LINE
  5
1549
  8
NEJI
 62
     9
 10
147.56164983138379
 20
82.735073655930336
 30
0.0
 11
146.96664983138371
 21
82.980073655929914
 31
0.0
  0
LINE
  5
154A
  8
NEJI
 62
     9
 10
146.96664983138371
 20
82.980073655929914
 30
0.0
 11
146.40664983138359
 21
82.980073655929914
 31
0.0
  0
LINE
  5
154B
  8
NEJI
 62
     9
 10
147.8066498313834
 20
84.520073655930304
 30
0.0
 11
147.8066498313834
 21
85.080073655930391
 31
0.0
  0
LINE
  5
154C
  8
NEJI
 62
     9
 10
147.56164983138379
 20
83.925073655930234
 30
0.0
 11
147.8066498313834
 21
84.520073655930304
 31
0.0
  0
LINE
  5
154D
  8
NEJI
 62
     9
 10
146.96664983138371
 20
83.680073655930471
 30
0.0
 11
147.56164983138379
 21
83.925073655930234
 31
0.0
  0
LINE
  5
154E
  8
NEJI
 62
     9
 10
146.40664983138339
 20
83.680073655930471
 30
0.0
 11
146.96664983138371
 21
83.680073655930471
 31
0.0
  0
CIRCLE
  5
154F
  8
NEJI
 62
     9
 10
69.656649831383675
 20
83.330073655930377
 30
0.0
 40
2.75
  0
LINE
  5
1550
  8
NEJI
 62
     9
 10
70.006649831383953
 20
81.580073655930391
 30
0.0
 11
69.306649831383595
 21
81.580073655929979
 31
0.0
  0
LINE
  5
1551
  8
NEJI
 62
     9
 10
70.006649831383754
 20
85.08007365593059
 30
0.0
 11
69.306649831383396
 21
85.080073655930391
 31
0.0
  0
LINE
  5
1552
  8
NEJI
 62
     9
 10
71.406649831383675
 20
83.68007365593067
 30
0.0
 11
71.406649831383874
 21
82.980073655930312
 31
0.0
  0
LINE
  5
1553
  8
NEJI
 62
     9
 10
71.406649831383874
 20
82.980073655930312
 30
0.0
 11
70.846649831383587
 21
82.980073655930312
 31
0.0
  0
LINE
  5
1554
  8
NEJI
 62
     9
 10
70.846649831383587
 20
82.980073655930312
 30
0.0
 11
70.251649831383531
 21
82.735073655930535
 31
0.0
  0
LINE
  5
1555
  8
NEJI
 62
     9
 10
70.251649831383531
 20
82.735073655930535
 30
0.0
 11
70.006649831383953
 21
82.140073655930465
 31
0.0
  0
LINE
  5
1556
  8
NEJI
 62
     9
 10
70.006649831383953
 20
82.140073655930465
 30
0.0
 11
70.006649831383953
 21
81.580073655930391
 31
0.0
  0
LINE
  5
1557
  8
NEJI
 62
     9
 10
70.006649831383754
 20
85.08007365593059
 30
0.0
 11
70.006649831383754
 21
84.520073655930304
 31
0.0
  0
LINE
  5
1558
  8
NEJI
 62
     9
 10
70.006649831383754
 20
84.520073655930304
 30
0.0
 11
70.251649831383531
 21
83.925073655930234
 31
0.0
  0
LINE
  5
1559
  8
NEJI
 62
     9
 10
70.251649831383531
 20
83.925073655930234
 30
0.0
 11
70.846649831383587
 21
83.68007365593067
 31
0.0
  0
LINE
  5
155A
  8
NEJI
 62
     9
 10
70.846649831383587
 20
83.68007365593067
 30
0.0
 11
71.406649831383675
 21
83.68007365593067
 31
0.0
  0
LINE
  5
155B
  8
NEJI
 62
     9
 10
67.906649831383476
 20
83.680073655930471
 30
0.0
 11
67.906649831383675
 21
82.980073655929914
 31
0.0
  0
LINE
  5
155C
  8
NEJI
 62
     9
 10
69.306649831383595
 20
81.580073655929979
 30
0.0
 11
69.306649831383595
 21
82.14007365593028
 31
0.0
  0
LINE
  5
155D
  8
NEJI
 62
     9
 10
69.306649831383595
 20
82.14007365593028
 30
0.0
 11
69.061649831383804
 21
82.735073655930336
 31
0.0
  0
LINE
  5
155E
  8
NEJI
 62
     9
 10
69.061649831383804
 20
82.735073655930336
 30
0.0
 11
68.466649831383762
 21
82.980073655929914
 31
0.0
  0
LINE
  5
155F
  8
NEJI
 62
     9
 10
68.466649831383762
 20
82.980073655929914
 30
0.0
 11
67.906649831383675
 21
82.980073655929914
 31
0.0
  0
LINE
  5
1560
  8
NEJI
 62
     9
 10
69.306649831383396
 20
84.520073655930304
 30
0.0
 11
69.306649831383396
 21
85.080073655930391
 31
0.0
  0
LINE
  5
1561
  8
NEJI
 62
     9
 10
69.061649831383804
 20
83.925073655930234
 30
0.0
 11
69.306649831383396
 21
84.520073655930304
 31
0.0
  0
LINE
  5
1562
  8
NEJI
 62
     9
 10
68.466649831383762
 20
83.680073655930471
 30
0.0
 11
69.061649831383804
 21
83.925073655930234
 31
0.0
  0
LINE
  5
1563
  8
NEJI
 62
     9
 10
67.906649831383476
 20
83.680073655930471
 30
0.0
 11
68.466649831383762
 21
83.680073655930471
 31
0.0
  0
CIRCLE
  5
1564
  8
NEJI
 62
     9
 10
68.406649831383675
 20
98.330073655930406
 30
0.0
 40
3.5
  0
LINE
  5
1565
  8
NEJI
 62
     9
 10
67.996649831383365
 20
96.28007365593038
 30
0.0
 11
68.816649831383756
 21
96.280073655929925
 31
0.0
  0
LINE
  5
1566
  8
NEJI
 62
     9
 10
67.996649831383593
 20
100.3800736559306
 30
0.0
 11
68.816649831383984
 21
100.3800736559304
 31
0.0
  0
LINE
  5
1567
  8
NEJI
 62
     9
 10
66.356649831383663
 20
98.740073655930715
 30
0.0
 11
66.356649831383436
 21
97.92007365593031
 31
0.0
  0
LINE
  5
1568
  8
NEJI
 62
     9
 10
66.356649831383436
 20
97.92007365593031
 30
0.0
 11
67.012649831383783
 21
97.92007365593031
 31
0.0
  0
LINE
  5
1569
  8
NEJI
 62
     9
 10
67.012649831383783
 20
97.92007365593031
 30
0.0
 11
67.709649831383842
 21
97.633073655930573
 31
0.0
  0
LINE
  5
156A
  8
NEJI
 62
     9
 10
67.709649831383842
 20
97.633073655930573
 30
0.0
 11
67.996649831383365
 21
96.936073655930514
 31
0.0
  0
LINE
  5
156B
  8
NEJI
 62
     9
 10
67.996649831383365
 20
96.936073655930514
 30
0.0
 11
67.996649831383365
 21
96.28007365593038
 31
0.0
  0
LINE
  5
156C
  8
NEJI
 62
     9
 10
67.996649831383593
 20
100.3800736559306
 30
0.0
 11
67.996649831383593
 21
99.724073655930283
 31
0.0
  0
LINE
  5
156D
  8
NEJI
 62
     9
 10
67.996649831383593
 20
99.724073655930283
 30
0.0
 11
67.709649831383842
 21
99.027073655930224
 31
0.0
  0
LINE
  5
156E
  8
NEJI
 62
     9
 10
67.709649831383842
 20
99.027073655930224
 30
0.0
 11
67.012649831383783
 21
98.740073655930715
 31
0.0
  0
LINE
  5
156F
  8
NEJI
 62
     9
 10
67.012649831383783
 20
98.740073655930715
 30
0.0
 11
66.356649831383663
 21
98.740073655930715
 31
0.0
  0
LINE
  5
1570
  8
NEJI
 62
     9
 10
69.800649831383566
 20
97.920073655929826
 30
0.0
 11
70.456649831383686
 21
97.920073655929826
 31
0.0
  0
LINE
  5
1571
  8
NEJI
 62
     9
 10
70.456649831383913
 20
98.740073655930473
 30
0.0
 11
69.800649831383566
 21
98.740073655930473
 31
0.0
  0
LINE
  5
1572
  8
NEJI
 62
     9
 10
68.816649831383756
 20
96.936073655930272
 30
0.0
 11
69.103649831383507
 21
97.633073655930346
 31
0.0
  0
LINE
  5
1573
  8
NEJI
 62
     9
 10
69.103649831383507
 20
97.633073655930346
 30
0.0
 11
69.800649831383566
 21
97.920073655929826
 31
0.0
  0
LINE
  5
1574
  8
NEJI
 62
     9
 10
68.816649831383756
 20
96.280073655929925
 30
0.0
 11
68.816649831383756
 21
96.936073655930272
 31
0.0
  0
LINE
  5
1575
  8
NEJI
 62
     9
 10
68.816649831383984
 20
99.724073655930283
 30
0.0
 11
68.816649831383984
 21
100.3800736559304
 31
0.0
  0
LINE
  5
1576
  8
NEJI
 62
     9
 10
69.103649831383507
 20
99.027073655930224
 30
0.0
 11
68.816649831383984
 21
99.724073655930283
 31
0.0
  0
LINE
  5
1577
  8
NEJI
 62
     9
 10
69.800649831383566
 20
98.740073655930473
 30
0.0
 11
69.103649831383507
 21
99.027073655930224
 31
0.0
  0
LINE
  5
1578
  8
NEJI
 62
     9
 10
70.456649831383913
 20
98.740073655930473
 30
0.0
 11
70.456649831383686
 21
97.920073655929826
 31
0.0
  0
CIRCLE
  5
1579
  8
NEJI
 62
     9
 10
149.40664983138359
 20
98.330073655930335
 30
0.0
 40
3.5
  0
LINE
  5
157A
  8
NEJI
 62
     9
 10
148.99664983138331
 20
96.280073655930323
 30
0.0
 11
149.8166498313837
 21
96.280073655929868
 31
0.0
  0
LINE
  5
157B
  8
NEJI
 62
     9
 10
148.99664983138351
 20
100.3800736559305
 30
0.0
 11
149.8166498313839
 21
100.3800736559303
 31
0.0
  0
LINE
  5
157C
  8
NEJI
 62
     9
 10
147.35664983138361
 20
98.740073655930672
 30
0.0
 11
147.35664983138341
 21
97.920073655930253
 31
0.0
  0
LINE
  5
157D
  8
NEJI
 62
     9
 10
147.35664983138341
 20
97.920073655930253
 30
0.0
 11
148.0126498313837
 21
97.920073655930253
 31
0.0
  0
LINE
  5
157E
  8
NEJI
 62
     9
 10
148.0126498313837
 20
97.920073655930253
 30
0.0
 11
148.70964983138381
 21
97.633073655930502
 31
0.0
  0
LINE
  5
157F
  8
NEJI
 62
     9
 10
148.70964983138381
 20
97.633073655930502
 30
0.0
 11
148.99664983138331
 21
96.936073655930457
 31
0.0
  0
LINE
  5
1580
  8
NEJI
 62
     9
 10
148.99664983138331
 20
96.936073655930457
 30
0.0
 11
148.99664983138331
 21
96.280073655930323
 31
0.0
  0
LINE
  5
1581
  8
NEJI
 62
     9
 10
148.99664983138351
 20
100.3800736559305
 30
0.0
 11
148.99664983138351
 21
99.724073655930226
 31
0.0
  0
LINE
  5
1582
  8
NEJI
 62
     9
 10
148.99664983138351
 20
99.724073655930226
 30
0.0
 11
148.70964983138381
 21
99.027073655930167
 31
0.0
  0
LINE
  5
1583
  8
NEJI
 62
     9
 10
148.70964983138381
 20
99.027073655930167
 30
0.0
 11
148.0126498313837
 21
98.740073655930672
 31
0.0
  0
LINE
  5
1584
  8
NEJI
 62
     9
 10
148.0126498313837
 20
98.740073655930672
 30
0.0
 11
147.35664983138361
 21
98.740073655930672
 31
0.0
  0
LINE
  5
1585
  8
NEJI
 62
     9
 10
150.80064983138351
 20
97.920073655929784
 30
0.0
 11
151.4566498313836
 21
97.920073655929784
 31
0.0
  0
LINE
  5
1586
  8
NEJI
 62
     9
 10
151.45664983138391
 20
98.740073655930416
 30
0.0
 11
150.80064983138351
 21
98.740073655930416
 31
0.0
  0
LINE
  5
1587
  8
NEJI
 62
     9
 10
149.8166498313837
 20
96.936073655930215
 30
0.0
 11
150.10364983138351
 21
97.633073655930275
 31
0.0
  0
LINE
  5
1588
  8
NEJI
 62
     9
 10
150.10364983138351
 20
97.633073655930275
 30
0.0
 11
150.80064983138351
 21
97.920073655929784
 31
0.0
  0
LINE
  5
1589
  8
NEJI
 62
     9
 10
149.8166498313837
 20
96.280073655929868
 30
0.0
 11
149.8166498313837
 21
96.936073655930215
 31
0.0
  0
LINE
  5
158A
  8
NEJI
 62
     9
 10
149.8166498313839
 20
99.724073655930226
 30
0.0
 11
149.8166498313839
 21
100.3800736559303
 31
0.0
  0
LINE
  5
158B
  8
NEJI
 62
     9
 10
150.10364983138351
 20
99.027073655930167
 30
0.0
 11
149.8166498313839
 21
99.724073655930226
 31
0.0
  0
LINE
  5
158C
  8
NEJI
 62
     9
 10
150.80064983138351
 20
98.740073655930416
 30
0.0
 11
150.10364983138351
 21
99.027073655930167
 31
0.0
  0
LINE
  5
158D
  8
NEJI
 62
     9
 10
151.45664983138391
 20
98.740073655930416
 30
0.0
 11
151.4566498313836
 21
97.920073655929784
 31
0.0
  0
CIRCLE
  5
158E
  8
NEJI
 62
     9
 10
148.15664983138359
 20
113.33007365593031
 30
0.0
 40
2.75
  0
LINE
  5
158F
  8
NEJI
 62
     9
 10
148.5066498313839
 20
111.58007365593031
 30
0.0
 11
147.8066498313836
 21
111.58007365592989
 31
0.0
  0
LINE
  5
1590
  8
NEJI
 62
     9
 10
148.5066498313837
 20
115.0800736559306
 30
0.0
 11
147.8066498313834
 21
115.08007365593041
 31
0.0
  0
LINE
  5
1591
  8
NEJI
 62
     9
 10
149.90664983138359
 20
113.6800736559306
 30
0.0
 11
149.90664983138379
 21
112.9800736559303
 31
0.0
  0
LINE
  5
1592
  8
NEJI
 62
     9
 10
149.90664983138379
 20
112.9800736559303
 30
0.0
 11
149.3466498313835
 21
112.9800736559303
 31
0.0
  0
LINE
  5
1593
  8
NEJI
 62
     9
 10
149.3466498313835
 20
112.9800736559303
 30
0.0
 11
148.7516498313835
 21
112.73507365593051
 31
0.0
  0
LINE
  5
1594
  8
NEJI
 62
     9
 10
148.7516498313835
 20
112.73507365593051
 30
0.0
 11
148.5066498313839
 21
112.14007365593039
 31
0.0
  0
LINE
  5
1595
  8
NEJI
 62
     9
 10
148.5066498313839
 20
112.14007365593039
 30
0.0
 11
148.5066498313839
 21
111.58007365593031
 31
0.0
  0
LINE
  5
1596
  8
NEJI
 62
     9
 10
148.5066498313837
 20
115.0800736559306
 30
0.0
 11
148.5066498313837
 21
114.5200736559303
 31
0.0
  0
LINE
  5
1597
  8
NEJI
 62
     9
 10
148.5066498313837
 20
114.5200736559303
 30
0.0
 11
148.7516498313835
 21
113.92507365593021
 31
0.0
  0
LINE
  5
1598
  8
NEJI
 62
     9
 10
148.7516498313835
 20
113.92507365593021
 30
0.0
 11
149.3466498313835
 21
113.6800736559306
 31
0.0
  0
LINE
  5
1599
  8
NEJI
 62
     9
 10
149.3466498313835
 20
113.6800736559306
 30
0.0
 11
149.90664983138359
 21
113.6800736559306
 31
0.0
  0
LINE
  5
159A
  8
NEJI
 62
     9
 10
146.40664983138339
 20
113.6800736559304
 30
0.0
 11
146.40664983138359
 21
112.9800736559299
 31
0.0
  0
LINE
  5
159B
  8
NEJI
 62
     9
 10
147.8066498313836
 20
111.58007365592989
 30
0.0
 11
147.8066498313836
 21
112.14007365593019
 31
0.0
  0
LINE
  5
159C
  8
NEJI
 62
     9
 10
147.8066498313836
 20
112.14007365593019
 30
0.0
 11
147.56164983138379
 21
112.73507365593029
 31
0.0
  0
LINE
  5
159D
  8
NEJI
 62
     9
 10
147.56164983138379
 20
112.73507365593029
 30
0.0
 11
146.96664983138371
 21
112.9800736559299
 31
0.0
  0
LINE
  5
159E
  8
NEJI
 62
     9
 10
146.96664983138371
 20
112.9800736559299
 30
0.0
 11
146.40664983138359
 21
112.9800736559299
 31
0.0
  0
LINE
  5
159F
  8
NEJI
 62
     9
 10
147.8066498313834
 20
114.5200736559303
 30
0.0
 11
147.8066498313834
 21
115.08007365593041
 31
0.0
  0
LINE
  5
15A0
  8
NEJI
 62
     9
 10
147.56164983138379
 20
113.92507365593021
 30
0.0
 11
147.8066498313834
 21
114.5200736559303
 31
0.0
  0
LINE
  5
15A1
  8
NEJI
 62
     9
 10
146.96664983138371
 20
113.6800736559304
 30
0.0
 11
147.56164983138379
 21
113.92507365593021
 31
0.0
  0
LINE
  5
15A2
  8
NEJI
 62
     9
 10
146.40664983138339
 20
113.6800736559304
 30
0.0
 11
146.96664983138371
 21
113.6800736559304
 31
0.0
  0
CIRCLE
  5
15A3
  8
NEJI
 62
     9
 10
79.156649831383675
 20
113.33007365593031
 30
0.0
 40
2.75
  0
LINE
  5
15A4
  8
NEJI
 62
     9
 10
79.506649831383953
 20
111.58007365593031
 30
0.0
 11
78.806649831383595
 21
111.58007365592989
 31
0.0
  0
LINE
  5
15A5
  8
NEJI
 62
     9
 10
79.506649831383754
 20
115.0800736559306
 30
0.0
 11
78.806649831383396
 21
115.08007365593041
 31
0.0
  0
LINE
  5
15A6
  8
NEJI
 62
     9
 10
80.906649831383675
 20
113.6800736559306
 30
0.0
 11
80.906649831383874
 21
112.9800736559303
 31
0.0
  0
LINE
  5
15A7
  8
NEJI
 62
     9
 10
80.906649831383874
 20
112.9800736559303
 30
0.0
 11
80.346649831383587
 21
112.9800736559303
 31
0.0
  0
LINE
  5
15A8
  8
NEJI
 62
     9
 10
80.346649831383587
 20
112.9800736559303
 30
0.0
 11
79.751649831383531
 21
112.73507365593051
 31
0.0
  0
LINE
  5
15A9
  8
NEJI
 62
     9
 10
79.751649831383531
 20
112.73507365593051
 30
0.0
 11
79.506649831383953
 21
112.14007365593039
 31
0.0
  0
LINE
  5
15AA
  8
NEJI
 62
     9
 10
79.506649831383953
 20
112.14007365593039
 30
0.0
 11
79.506649831383953
 21
111.58007365593031
 31
0.0
  0
LINE
  5
15AB
  8
NEJI
 62
     9
 10
79.506649831383754
 20
115.0800736559306
 30
0.0
 11
79.506649831383754
 21
114.5200736559303
 31
0.0
  0
LINE
  5
15AC
  8
NEJI
 62
     9
 10
79.506649831383754
 20
114.5200736559303
 30
0.0
 11
79.751649831383531
 21
113.92507365593021
 31
0.0
  0
LINE
  5
15AD
  8
NEJI
 62
     9
 10
79.751649831383531
 20
113.92507365593021
 30
0.0
 11
80.346649831383587
 21
113.6800736559306
 31
0.0
  0
LINE
  5
15AE
  8
NEJI
 62
     9
 10
80.346649831383587
 20
113.6800736559306
 30
0.0
 11
80.906649831383675
 21
113.6800736559306
 31
0.0
  0
LINE
  5
15AF
  8
NEJI
 62
     9
 10
77.406649831383476
 20
113.6800736559304
 30
0.0
 11
77.406649831383675
 21
112.9800736559299
 31
0.0
  0
LINE
  5
15B0
  8
NEJI
 62
     9
 10
78.806649831383595
 20
111.58007365592989
 30
0.0
 11
78.806649831383595
 21
112.14007365593019
 31
0.0
  0
LINE
  5
15B1
  8
NEJI
 62
     9
 10
78.806649831383595
 20
112.14007365593019
 30
0.0
 11
78.561649831383804
 21
112.73507365593029
 31
0.0
  0
LINE
  5
15B2
  8
NEJI
 62
     9
 10
78.561649831383804
 20
112.73507365593029
 30
0.0
 11
77.966649831383762
 21
112.9800736559299
 31
0.0
  0
LINE
  5
15B3
  8
NEJI
 62
     9
 10
77.966649831383762
 20
112.9800736559299
 30
0.0
 11
77.406649831383675
 21
112.9800736559299
 31
0.0
  0
LINE
  5
15B4
  8
NEJI
 62
     9
 10
78.806649831383396
 20
114.5200736559303
 30
0.0
 11
78.806649831383396
 21
115.08007365593041
 31
0.0
  0
LINE
  5
15B5
  8
NEJI
 62
     9
 10
78.561649831383804
 20
113.92507365593021
 30
0.0
 11
78.806649831383396
 21
114.5200736559303
 31
0.0
  0
LINE
  5
15B6
  8
NEJI
 62
     9
 10
77.966649831383762
 20
113.6800736559304
 30
0.0
 11
78.561649831383804
 21
113.92507365593021
 31
0.0
  0
LINE
  5
15B7
  8
NEJI
 62
     9
 10
77.406649831383476
 20
113.6800736559304
 30
0.0
 11
77.966649831383762
 21
113.6800736559304
 31
0.0
  0
CIRCLE
  5
15B8
  8
NEJI
 62
     9
 10
87.656649831383675
 20
113.33007365593031
 30
0.0
 40
2.75
  0
LINE
  5
15B9
  8
NEJI
 62
     9
 10
88.006649831383939
 20
111.58007365593031
 30
0.0
 11
87.306649831383595
 21
111.58007365592989
 31
0.0
  0
LINE
  5
15BA
  8
NEJI
 62
     9
 10
88.006649831383754
 20
115.0800736559306
 30
0.0
 11
87.306649831383396
 21
115.08007365593041
 31
0.0
  0
LINE
  5
15BB
  8
NEJI
 62
     9
 10
89.406649831383675
 20
113.6800736559306
 30
0.0
 11
89.406649831383874
 21
112.9800736559303
 31
0.0
  0
LINE
  5
15BC
  8
NEJI
 62
     9
 10
89.406649831383874
 20
112.9800736559303
 30
0.0
 11
88.846649831383587
 21
112.9800736559303
 31
0.0
  0
LINE
  5
15BD
  8
NEJI
 62
     9
 10
88.846649831383587
 20
112.9800736559303
 30
0.0
 11
88.251649831383531
 21
112.73507365593051
 31
0.0
  0
LINE
  5
15BE
  8
NEJI
 62
     9
 10
88.251649831383531
 20
112.73507365593051
 30
0.0
 11
88.006649831383939
 21
112.14007365593039
 31
0.0
  0
LINE
  5
15BF
  8
NEJI
 62
     9
 10
88.006649831383939
 20
112.14007365593039
 30
0.0
 11
88.006649831383939
 21
111.58007365593031
 31
0.0
  0
LINE
  5
15C0
  8
NEJI
 62
     9
 10
88.006649831383754
 20
115.0800736559306
 30
0.0
 11
88.006649831383754
 21
114.5200736559303
 31
0.0
  0
LINE
  5
15C1
  8
NEJI
 62
     9
 10
88.006649831383754
 20
114.5200736559303
 30
0.0
 11
88.251649831383531
 21
113.92507365593021
 31
0.0
  0
LINE
  5
15C2
  8
NEJI
 62
     9
 10
88.251649831383531
 20
113.92507365593021
 30
0.0
 11
88.846649831383587
 21
113.6800736559306
 31
0.0
  0
LINE
  5
15C3
  8
NEJI
 62
     9
 10
88.846649831383587
 20
113.6800736559306
 30
0.0
 11
89.406649831383675
 21
113.6800736559306
 31
0.0
  0
LINE
  5
15C4
  8
NEJI
 62
     9
 10
85.906649831383476
 20
113.6800736559304
 30
0.0
 11
85.906649831383675
 21
112.9800736559299
 31
0.0
  0
LINE
  5
15C5
  8
NEJI
 62
     9
 10
87.306649831383595
 20
111.58007365592989
 30
0.0
 11
87.306649831383595
 21
112.14007365593019
 31
0.0
  0
LINE
  5
15C6
  8
NEJI
 62
     9
 10
87.306649831383595
 20
112.14007365593019
 30
0.0
 11
87.061649831383818
 21
112.73507365593029
 31
0.0
  0
LINE
  5
15C7
  8
NEJI
 62
     9
 10
87.061649831383818
 20
112.73507365593029
 30
0.0
 11
86.466649831383776
 21
112.9800736559299
 31
0.0
  0
LINE
  5
15C8
  8
NEJI
 62
     9
 10
86.466649831383776
 20
112.9800736559299
 30
0.0
 11
85.906649831383675
 21
112.9800736559299
 31
0.0
  0
LINE
  5
15C9
  8
NEJI
 62
     9
 10
87.306649831383396
 20
114.5200736559303
 30
0.0
 11
87.306649831383396
 21
115.08007365593041
 31
0.0
  0
LINE
  5
15CA
  8
NEJI
 62
     9
 10
87.061649831383818
 20
113.92507365593021
 30
0.0
 11
87.306649831383396
 21
114.5200736559303
 31
0.0
  0
LINE
  5
15CB
  8
NEJI
 62
     9
 10
86.466649831383776
 20
113.6800736559304
 30
0.0
 11
87.061649831383818
 21
113.92507365593021
 31
0.0
  0
LINE
  5
15CC
  8
NEJI
 62
     9
 10
85.906649831383476
 20
113.6800736559304
 30
0.0
 11
86.466649831383776
 21
113.6800736559304
 31
0.0
  0
CIRCLE
  5
15CD
  8
NEJI
 62
     9
 10
96.156649831383675
 20
113.33007365593031
 30
0.0
 40
2.75
  0
LINE
  5
15CE
  8
NEJI
 62
     9
 10
96.506649831383953
 20
111.58007365593031
 30
0.0
 11
95.806649831383595
 21
111.58007365592989
 31
0.0
  0
LINE
  5
15CF
  8
NEJI
 62
     9
 10
96.506649831383754
 20
115.0800736559306
 30
0.0
 11
95.806649831383396
 21
115.08007365593041
 31
0.0
  0
LINE
  5
15D0
  8
NEJI
 62
     9
 10
97.906649831383675
 20
113.6800736559306
 30
0.0
 11
97.906649831383874
 21
112.9800736559303
 31
0.0
  0
LINE
  5
15D1
  8
NEJI
 62
     9
 10
97.906649831383874
 20
112.9800736559303
 30
0.0
 11
97.346649831383587
 21
112.9800736559303
 31
0.0
  0
LINE
  5
15D2
  8
NEJI
 62
     9
 10
97.346649831383587
 20
112.9800736559303
 30
0.0
 11
96.751649831383531
 21
112.73507365593051
 31
0.0
  0
LINE
  5
15D3
  8
NEJI
 62
     9
 10
96.751649831383531
 20
112.73507365593051
 30
0.0
 11
96.506649831383953
 21
112.14007365593039
 31
0.0
  0
LINE
  5
15D4
  8
NEJI
 62
     9
 10
96.506649831383953
 20
112.14007365593039
 30
0.0
 11
96.506649831383953
 21
111.58007365593031
 31
0.0
  0
LINE
  5
15D5
  8
NEJI
 62
     9
 10
96.506649831383754
 20
115.0800736559306
 30
0.0
 11
96.506649831383754
 21
114.5200736559303
 31
0.0
  0
LINE
  5
15D6
  8
NEJI
 62
     9
 10
96.506649831383754
 20
114.5200736559303
 30
0.0
 11
96.751649831383531
 21
113.92507365593021
 31
0.0
  0
LINE
  5
15D7
  8
NEJI
 62
     9
 10
96.751649831383531
 20
113.92507365593021
 30
0.0
 11
97.346649831383587
 21
113.6800736559306
 31
0.0
  0
LINE
  5
15D8
  8
NEJI
 62
     9
 10
97.346649831383587
 20
113.6800736559306
 30
0.0
 11
97.906649831383675
 21
113.6800736559306
 31
0.0
  0
LINE
  5
15D9
  8
NEJI
 62
     9
 10
94.406649831383476
 20
113.6800736559304
 30
0.0
 11
94.406649831383675
 21
112.9800736559299
 31
0.0
  0
LINE
  5
15DA
  8
NEJI
 62
     9
 10
95.806649831383595
 20
111.58007365592989
 30
0.0
 11
95.806649831383595
 21
112.14007365593019
 31
0.0
  0
LINE
  5
15DB
  8
NEJI
 62
     9
 10
95.806649831383595
 20
112.14007365593019
 30
0.0
 11
95.561649831383818
 21
112.73507365593029
 31
0.0
  0
LINE
  5
15DC
  8
NEJI
 62
     9
 10
95.561649831383818
 20
112.73507365593029
 30
0.0
 11
94.966649831383762
 21
112.9800736559299
 31
0.0
  0
LINE
  5
15DD
  8
NEJI
 62
     9
 10
94.966649831383762
 20
112.9800736559299
 30
0.0
 11
94.406649831383675
 21
112.9800736559299
 31
0.0
  0
LINE
  5
15DE
  8
NEJI
 62
     9
 10
95.806649831383396
 20
114.5200736559303
 30
0.0
 11
95.806649831383396
 21
115.08007365593041
 31
0.0
  0
LINE
  5
15DF
  8
NEJI
 62
     9
 10
95.561649831383818
 20
113.92507365593021
 30
0.0
 11
95.806649831383396
 21
114.5200736559303
 31
0.0
  0
LINE
  5
15E0
  8
NEJI
 62
     9
 10
94.966649831383762
 20
113.6800736559304
 30
0.0
 11
95.561649831383818
 21
113.92507365593021
 31
0.0
  0
LINE
  5
15E1
  8
NEJI
 62
     9
 10
94.406649831383476
 20
113.6800736559304
 30
0.0
 11
94.966649831383762
 21
113.6800736559304
 31
0.0
  0
CIRCLE
  5
15E2
  8
NEJI
 62
     9
 10
104.6566498313836
 20
113.33007365593031
 30
0.0
 40
2.75
  0
LINE
  5
15E3
  8
NEJI
 62
     9
 10
105.0066498313839
 20
111.58007365593031
 30
0.0
 11
104.3066498313836
 21
111.58007365592989
 31
0.0
  0
LINE
  5
15E4
  8
NEJI
 62
     9
 10
105.0066498313837
 20
115.0800736559306
 30
0.0
 11
104.3066498313834
 21
115.08007365593041
 31
0.0
  0
LINE
  5
15E5
  8
NEJI
 62
     9
 10
106.4066498313836
 20
113.6800736559306
 30
0.0
 11
106.4066498313838
 21
112.9800736559303
 31
0.0
  0
LINE
  5
15E6
  8
NEJI
 62
     9
 10
106.4066498313838
 20
112.9800736559303
 30
0.0
 11
105.8466498313835
 21
112.9800736559303
 31
0.0
  0
LINE
  5
15E7
  8
NEJI
 62
     9
 10
105.8466498313835
 20
112.9800736559303
 30
0.0
 11
105.2516498313835
 21
112.73507365593051
 31
0.0
  0
LINE
  5
15E8
  8
NEJI
 62
     9
 10
105.2516498313835
 20
112.73507365593051
 30
0.0
 11
105.0066498313839
 21
112.14007365593039
 31
0.0
  0
LINE
  5
15E9
  8
NEJI
 62
     9
 10
105.0066498313839
 20
112.14007365593039
 30
0.0
 11
105.0066498313839
 21
111.58007365593031
 31
0.0
  0
LINE
  5
15EA
  8
NEJI
 62
     9
 10
105.0066498313837
 20
115.0800736559306
 30
0.0
 11
105.0066498313837
 21
114.5200736559303
 31
0.0
  0
LINE
  5
15EB
  8
NEJI
 62
     9
 10
105.0066498313837
 20
114.5200736559303
 30
0.0
 11
105.2516498313835
 21
113.92507365593021
 31
0.0
  0
LINE
  5
15EC
  8
NEJI
 62
     9
 10
105.2516498313835
 20
113.92507365593021
 30
0.0
 11
105.8466498313835
 21
113.6800736559306
 31
0.0
  0
LINE
  5
15ED
  8
NEJI
 62
     9
 10
105.8466498313835
 20
113.6800736559306
 30
0.0
 11
106.4066498313836
 21
113.6800736559306
 31
0.0
  0
LINE
  5
15EE
  8
NEJI
 62
     9
 10
102.9066498313834
 20
113.6800736559304
 30
0.0
 11
102.9066498313836
 21
112.9800736559299
 31
0.0
  0
LINE
  5
15EF
  8
NEJI
 62
     9
 10
104.3066498313836
 20
111.58007365592989
 30
0.0
 11
104.3066498313836
 21
112.14007365593019
 31
0.0
  0
LINE
  5
15F0
  8
NEJI
 62
     9
 10
104.3066498313836
 20
112.14007365593019
 30
0.0
 11
104.0616498313838
 21
112.73507365593029
 31
0.0
  0
LINE
  5
15F1
  8
NEJI
 62
     9
 10
104.0616498313838
 20
112.73507365593029
 30
0.0
 11
103.46664983138371
 21
112.9800736559299
 31
0.0
  0
LINE
  5
15F2
  8
NEJI
 62
     9
 10
103.46664983138371
 20
112.9800736559299
 30
0.0
 11
102.9066498313836
 21
112.9800736559299
 31
0.0
  0
LINE
  5
15F3
  8
NEJI
 62
     9
 10
104.3066498313834
 20
114.5200736559303
 30
0.0
 11
104.3066498313834
 21
115.08007365593041
 31
0.0
  0
LINE
  5
15F4
  8
NEJI
 62
     9
 10
104.0616498313838
 20
113.92507365593021
 30
0.0
 11
104.3066498313834
 21
114.5200736559303
 31
0.0
  0
LINE
  5
15F5
  8
NEJI
 62
     9
 10
103.46664983138371
 20
113.6800736559304
 30
0.0
 11
104.0616498313838
 21
113.92507365593021
 31
0.0
  0
LINE
  5
15F6
  8
NEJI
 62
     9
 10
102.9066498313834
 20
113.6800736559304
 30
0.0
 11
103.46664983138371
 21
113.6800736559304
 31
0.0
  0
CIRCLE
  5
15F7
  8
NEJI
 62
     9
 10
113.1566498313836
 20
113.33007365593031
 30
0.0
 40
2.75
  0
LINE
  5
15F8
  8
NEJI
 62
     9
 10
113.5066498313839
 20
111.58007365593031
 30
0.0
 11
112.8066498313835
 21
111.58007365592989
 31
0.0
  0
LINE
  5
15F9
  8
NEJI
 62
     9
 10
113.5066498313837
 20
115.0800736559306
 30
0.0
 11
112.8066498313833
 21
115.08007365593041
 31
0.0
  0
LINE
  5
15FA
  8
NEJI
 62
     9
 10
114.9066498313836
 20
113.6800736559306
 30
0.0
 11
114.9066498313838
 21
112.9800736559303
 31
0.0
  0
LINE
  5
15FB
  8
NEJI
 62
     9
 10
114.9066498313838
 20
112.9800736559303
 30
0.0
 11
114.3466498313835
 21
112.9800736559303
 31
0.0
  0
LINE
  5
15FC
  8
NEJI
 62
     9
 10
114.3466498313835
 20
112.9800736559303
 30
0.0
 11
113.7516498313835
 21
112.73507365593051
 31
0.0
  0
LINE
  5
15FD
  8
NEJI
 62
     9
 10
113.7516498313835
 20
112.73507365593051
 30
0.0
 11
113.5066498313839
 21
112.14007365593039
 31
0.0
  0
LINE
  5
15FE
  8
NEJI
 62
     9
 10
113.5066498313839
 20
112.14007365593039
 30
0.0
 11
113.5066498313839
 21
111.58007365593031
 31
0.0
  0
LINE
  5
15FF
  8
NEJI
 62
     9
 10
113.5066498313837
 20
115.0800736559306
 30
0.0
 11
113.5066498313837
 21
114.5200736559303
 31
0.0
  0
LINE
  5
1600
  8
NEJI
 62
     9
 10
113.5066498313837
 20
114.5200736559303
 30
0.0
 11
113.7516498313835
 21
113.92507365593021
 31
0.0
  0
LINE
  5
1601
  8
NEJI
 62
     9
 10
113.7516498313835
 20
113.92507365593021
 30
0.0
 11
114.3466498313835
 21
113.6800736559306
 31
0.0
  0
LINE
  5
1602
  8
NEJI
 62
     9
 10
114.3466498313835
 20
113.6800736559306
 30
0.0
 11
114.9066498313836
 21
113.6800736559306
 31
0.0
  0
LINE
  5
1603
  8
NEJI
 62
     9
 10
111.4066498313834
 20
113.6800736559304
 30
0.0
 11
111.4066498313836
 21
112.9800736559299
 31
0.0
  0
LINE
  5
1604
  8
NEJI
 62
     9
 10
112.8066498313835
 20
111.58007365592989
 30
0.0
 11
112.8066498313835
 21
112.14007365593019
 31
0.0
  0
LINE
  5
1605
  8
NEJI
 62
     9
 10
112.8066498313835
 20
112.14007365593019
 30
0.0
 11
112.5616498313838
 21
112.73507365593029
 31
0.0
  0
LINE
  5
1606
  8
NEJI
 62
     9
 10
112.5616498313838
 20
112.73507365593029
 30
0.0
 11
111.96664983138371
 21
112.9800736559299
 31
0.0
  0
LINE
  5
1607
  8
NEJI
 62
     9
 10
111.96664983138371
 20
112.9800736559299
 30
0.0
 11
111.4066498313836
 21
112.9800736559299
 31
0.0
  0
LINE
  5
1608
  8
NEJI
 62
     9
 10
112.8066498313833
 20
114.5200736559303
 30
0.0
 11
112.8066498313833
 21
115.08007365593041
 31
0.0
  0
LINE
  5
1609
  8
NEJI
 62
     9
 10
112.5616498313838
 20
113.92507365593021
 30
0.0
 11
112.8066498313833
 21
114.5200736559303
 31
0.0
  0
LINE
  5
160A
  8
NEJI
 62
     9
 10
111.96664983138371
 20
113.6800736559304
 30
0.0
 11
112.5616498313838
 21
113.92507365593021
 31
0.0
  0
LINE
  5
160B
  8
NEJI
 62
     9
 10
111.4066498313834
 20
113.6800736559304
 30
0.0
 11
111.96664983138371
 21
113.6800736559304
 31
0.0
  0
CIRCLE
  5
160C
  8
NEJI
 62
     9
 10
121.6566498313836
 20
113.33007365593031
 30
0.0
 40
2.75
  0
LINE
  5
160D
  8
NEJI
 62
     9
 10
122.0066498313839
 20
111.58007365593031
 30
0.0
 11
121.3066498313835
 21
111.58007365592989
 31
0.0
  0
LINE
  5
160E
  8
NEJI
 62
     9
 10
122.0066498313837
 20
115.0800736559306
 30
0.0
 11
121.3066498313833
 21
115.08007365593041
 31
0.0
  0
LINE
  5
160F
  8
NEJI
 62
     9
 10
123.4066498313836
 20
113.6800736559306
 30
0.0
 11
123.4066498313838
 21
112.9800736559303
 31
0.0
  0
LINE
  5
1610
  8
NEJI
 62
     9
 10
123.4066498313838
 20
112.9800736559303
 30
0.0
 11
122.8466498313835
 21
112.9800736559303
 31
0.0
  0
LINE
  5
1611
  8
NEJI
 62
     9
 10
122.8466498313835
 20
112.9800736559303
 30
0.0
 11
122.2516498313835
 21
112.73507365593051
 31
0.0
  0
LINE
  5
1612
  8
NEJI
 62
     9
 10
122.2516498313835
 20
112.73507365593051
 30
0.0
 11
122.0066498313839
 21
112.14007365593039
 31
0.0
  0
LINE
  5
1613
  8
NEJI
 62
     9
 10
122.0066498313839
 20
112.14007365593039
 30
0.0
 11
122.0066498313839
 21
111.58007365593031
 31
0.0
  0
LINE
  5
1614
  8
NEJI
 62
     9
 10
122.0066498313837
 20
115.0800736559306
 30
0.0
 11
122.0066498313837
 21
114.5200736559303
 31
0.0
  0
LINE
  5
1615
  8
NEJI
 62
     9
 10
122.0066498313837
 20
114.5200736559303
 30
0.0
 11
122.2516498313835
 21
113.92507365593021
 31
0.0
  0
LINE
  5
1616
  8
NEJI
 62
     9
 10
122.2516498313835
 20
113.92507365593021
 30
0.0
 11
122.8466498313835
 21
113.6800736559306
 31
0.0
  0
LINE
  5
1617
  8
NEJI
 62
     9
 10
122.8466498313835
 20
113.6800736559306
 30
0.0
 11
123.4066498313836
 21
113.6800736559306
 31
0.0
  0
LINE
  5
1618
  8
NEJI
 62
     9
 10
119.9066498313834
 20
113.6800736559304
 30
0.0
 11
119.9066498313836
 21
112.9800736559299
 31
0.0
  0
LINE
  5
1619
  8
NEJI
 62
     9
 10
121.3066498313835
 20
111.58007365592989
 30
0.0
 11
121.3066498313835
 21
112.14007365593019
 31
0.0
  0
LINE
  5
161A
  8
NEJI
 62
     9
 10
121.3066498313835
 20
112.14007365593019
 30
0.0
 11
121.0616498313838
 21
112.73507365593029
 31
0.0
  0
LINE
  5
161B
  8
NEJI
 62
     9
 10
121.0616498313838
 20
112.73507365593029
 30
0.0
 11
120.46664983138371
 21
112.9800736559299
 31
0.0
  0
LINE
  5
161C
  8
NEJI
 62
     9
 10
120.46664983138371
 20
112.9800736559299
 30
0.0
 11
119.9066498313836
 21
112.9800736559299
 31
0.0
  0
LINE
  5
161D
  8
NEJI
 62
     9
 10
121.3066498313833
 20
114.5200736559303
 30
0.0
 11
121.3066498313833
 21
115.08007365593041
 31
0.0
  0
LINE
  5
161E
  8
NEJI
 62
     9
 10
121.0616498313838
 20
113.92507365593021
 30
0.0
 11
121.3066498313833
 21
114.5200736559303
 31
0.0
  0
LINE
  5
161F
  8
NEJI
 62
     9
 10
120.46664983138371
 20
113.6800736559304
 30
0.0
 11
121.0616498313838
 21
113.92507365593021
 31
0.0
  0
LINE
  5
1620
  8
NEJI
 62
     9
 10
119.9066498313834
 20
113.6800736559304
 30
0.0
 11
120.46664983138371
 21
113.6800736559304
 31
0.0
  0
CIRCLE
  5
1621
  8
NEJI
 62
     9
 10
130.15664983138359
 20
113.33007365593031
 30
0.0
 40
2.75
  0
LINE
  5
1622
  8
NEJI
 62
     9
 10
130.5066498313839
 20
111.58007365593031
 30
0.0
 11
129.80664983138351
 21
111.58007365592989
 31
0.0
  0
LINE
  5
1623
  8
NEJI
 62
     9
 10
130.5066498313837
 20
115.0800736559306
 30
0.0
 11
129.80664983138331
 21
115.08007365593041
 31
0.0
  0
LINE
  5
1624
  8
NEJI
 62
     9
 10
131.90664983138359
 20
113.6800736559306
 30
0.0
 11
131.90664983138379
 21
112.9800736559303
 31
0.0
  0
LINE
  5
1625
  8
NEJI
 62
     9
 10
131.90664983138379
 20
112.9800736559303
 30
0.0
 11
131.3466498313835
 21
112.9800736559303
 31
0.0
  0
LINE
  5
1626
  8
NEJI
 62
     9
 10
131.3466498313835
 20
112.9800736559303
 30
0.0
 11
130.7516498313835
 21
112.73507365593051
 31
0.0
  0
LINE
  5
1627
  8
NEJI
 62
     9
 10
130.7516498313835
 20
112.73507365593051
 30
0.0
 11
130.5066498313839
 21
112.14007365593039
 31
0.0
  0
LINE
  5
1628
  8
NEJI
 62
     9
 10
130.5066498313839
 20
112.14007365593039
 30
0.0
 11
130.5066498313839
 21
111.58007365593031
 31
0.0
  0
LINE
  5
1629
  8
NEJI
 62
     9
 10
130.5066498313837
 20
115.0800736559306
 30
0.0
 11
130.5066498313837
 21
114.5200736559303
 31
0.0
  0
LINE
  5
162A
  8
NEJI
 62
     9
 10
130.5066498313837
 20
114.5200736559303
 30
0.0
 11
130.7516498313835
 21
113.92507365593021
 31
0.0
  0
LINE
  5
162B
  8
NEJI
 62
     9
 10
130.7516498313835
 20
113.92507365593021
 30
0.0
 11
131.3466498313835
 21
113.6800736559306
 31
0.0
  0
LINE
  5
162C
  8
NEJI
 62
     9
 10
131.3466498313835
 20
113.6800736559306
 30
0.0
 11
131.90664983138359
 21
113.6800736559306
 31
0.0
  0
LINE
  5
162D
  8
NEJI
 62
     9
 10
128.40664983138339
 20
113.6800736559304
 30
0.0
 11
128.40664983138359
 21
112.9800736559299
 31
0.0
  0
LINE
  5
162E
  8
NEJI
 62
     9
 10
129.80664983138351
 20
111.58007365592989
 30
0.0
 11
129.80664983138351
 21
112.14007365593019
 31
0.0
  0
LINE
  5
162F
  8
NEJI
 62
     9
 10
129.80664983138351
 20
112.14007365593019
 30
0.0
 11
129.56164983138379
 21
112.73507365593029
 31
0.0
  0
LINE
  5
1630
  8
NEJI
 62
     9
 10
129.56164983138379
 20
112.73507365593029
 30
0.0
 11
128.96664983138371
 21
112.9800736559299
 31
0.0
  0
LINE
  5
1631
  8
NEJI
 62
     9
 10
128.96664983138371
 20
112.9800736559299
 30
0.0
 11
128.40664983138359
 21
112.9800736559299
 31
0.0
  0
LINE
  5
1632
  8
NEJI
 62
     9
 10
129.80664983138331
 20
114.5200736559303
 30
0.0
 11
129.80664983138331
 21
115.08007365593041
 31
0.0
  0
LINE
  5
1633
  8
NEJI
 62
     9
 10
129.56164983138379
 20
113.92507365593021
 30
0.0
 11
129.80664983138331
 21
114.5200736559303
 31
0.0
  0
LINE
  5
1634
  8
NEJI
 62
     9
 10
128.96664983138371
 20
113.6800736559304
 30
0.0
 11
129.56164983138379
 21
113.92507365593021
 31
0.0
  0
LINE
  5
1635
  8
NEJI
 62
     9
 10
128.40664983138339
 20
113.6800736559304
 30
0.0
 11
128.96664983138371
 21
113.6800736559304
 31
0.0
  0
CIRCLE
  5
1636
  8
NEJI
 62
     9
 10
138.65664983138359
 20
113.33007365593031
 30
0.0
 40
2.75
  0
LINE
  5
1637
  8
NEJI
 62
     9
 10
139.0066498313839
 20
111.58007365593031
 30
0.0
 11
138.30664983138351
 21
111.58007365592989
 31
0.0
  0
LINE
  5
1638
  8
NEJI
 62
     9
 10
139.0066498313837
 20
115.0800736559306
 30
0.0
 11
138.30664983138331
 21
115.08007365593041
 31
0.0
  0
LINE
  5
1639
  8
NEJI
 62
     9
 10
140.40664983138359
 20
113.6800736559306
 30
0.0
 11
140.40664983138379
 21
112.9800736559303
 31
0.0
  0
LINE
  5
163A
  8
NEJI
 62
     9
 10
140.40664983138379
 20
112.9800736559303
 30
0.0
 11
139.8466498313835
 21
112.9800736559303
 31
0.0
  0
LINE
  5
163B
  8
NEJI
 62
     9
 10
139.8466498313835
 20
112.9800736559303
 30
0.0
 11
139.2516498313835
 21
112.73507365593051
 31
0.0
  0
LINE
  5
163C
  8
NEJI
 62
     9
 10
139.2516498313835
 20
112.73507365593051
 30
0.0
 11
139.0066498313839
 21
112.14007365593039
 31
0.0
  0
LINE
  5
163D
  8
NEJI
 62
     9
 10
139.0066498313839
 20
112.14007365593039
 30
0.0
 11
139.0066498313839
 21
111.58007365593031
 31
0.0
  0
LINE
  5
163E
  8
NEJI
 62
     9
 10
139.0066498313837
 20
115.0800736559306
 30
0.0
 11
139.0066498313837
 21
114.5200736559303
 31
0.0
  0
LINE
  5
163F
  8
NEJI
 62
     9
 10
139.0066498313837
 20
114.5200736559303
 30
0.0
 11
139.2516498313835
 21
113.92507365593021
 31
0.0
  0
LINE
  5
1640
  8
NEJI
 62
     9
 10
139.2516498313835
 20
113.92507365593021
 30
0.0
 11
139.8466498313835
 21
113.6800736559306
 31
0.0
  0
LINE
  5
1641
  8
NEJI
 62
     9
 10
139.8466498313835
 20
113.6800736559306
 30
0.0
 11
140.40664983138359
 21
113.6800736559306
 31
0.0
  0
LINE
  5
1642
  8
NEJI
 62
     9
 10
136.90664983138339
 20
113.6800736559304
 30
0.0
 11
136.90664983138359
 21
112.9800736559299
 31
0.0
  0
LINE
  5
1643
  8
NEJI
 62
     9
 10
138.30664983138351
 20
111.58007365592989
 30
0.0
 11
138.30664983138351
 21
112.14007365593019
 31
0.0
  0
LINE
  5
1644
  8
NEJI
 62
     9
 10
138.30664983138351
 20
112.14007365593019
 30
0.0
 11
138.06164983138379
 21
112.73507365593029
 31
0.0
  0
LINE
  5
1645
  8
NEJI
 62
     9
 10
138.06164983138379
 20
112.73507365593029
 30
0.0
 11
137.46664983138371
 21
112.9800736559299
 31
0.0
  0
LINE
  5
1646
  8
NEJI
 62
     9
 10
137.46664983138371
 20
112.9800736559299
 30
0.0
 11
136.90664983138359
 21
112.9800736559299
 31
0.0
  0
LINE
  5
1647
  8
NEJI
 62
     9
 10
138.30664983138331
 20
114.5200736559303
 30
0.0
 11
138.30664983138331
 21
115.08007365593041
 31
0.0
  0
LINE
  5
1648
  8
NEJI
 62
     9
 10
138.06164983138379
 20
113.92507365593021
 30
0.0
 11
138.30664983138331
 21
114.5200736559303
 31
0.0
  0
LINE
  5
1649
  8
NEJI
 62
     9
 10
137.46664983138371
 20
113.6800736559304
 30
0.0
 11
138.06164983138379
 21
113.92507365593021
 31
0.0
  0
LINE
  5
164A
  8
NEJI
 62
     9
 10
136.90664983138339
 20
113.6800736559304
 30
0.0
 11
137.46664983138371
 21
113.6800736559304
 31
0.0
  0
CIRCLE
  5
164B
  8
NEJI
 62
     9
 10
69.656649831383675
 20
113.33007365593031
 30
0.0
 40
2.75
  0
LINE
  5
164C
  8
NEJI
 62
     9
 10
70.006649831383953
 20
111.58007365593031
 30
0.0
 11
69.306649831383595
 21
111.58007365592989
 31
0.0
  0
LINE
  5
164D
  8
NEJI
 62
     9
 10
70.006649831383754
 20
115.0800736559306
 30
0.0
 11
69.306649831383396
 21
115.08007365593041
 31
0.0
  0
LINE
  5
164E
  8
NEJI
 62
     9
 10
71.406649831383675
 20
113.6800736559306
 30
0.0
 11
71.406649831383874
 21
112.9800736559303
 31
0.0
  0
LINE
  5
164F
  8
NEJI
 62
     9
 10
71.406649831383874
 20
112.9800736559303
 30
0.0
 11
70.846649831383587
 21
112.9800736559303
 31
0.0
  0
LINE
  5
1650
  8
NEJI
 62
     9
 10
70.846649831383587
 20
112.9800736559303
 30
0.0
 11
70.251649831383531
 21
112.73507365593051
 31
0.0
  0
LINE
  5
1651
  8
NEJI
 62
     9
 10
70.251649831383531
 20
112.73507365593051
 30
0.0
 11
70.006649831383953
 21
112.14007365593039
 31
0.0
  0
LINE
  5
1652
  8
NEJI
 62
     9
 10
70.006649831383953
 20
112.14007365593039
 30
0.0
 11
70.006649831383953
 21
111.58007365593031
 31
0.0
  0
LINE
  5
1653
  8
NEJI
 62
     9
 10
70.006649831383754
 20
115.0800736559306
 30
0.0
 11
70.006649831383754
 21
114.5200736559303
 31
0.0
  0
LINE
  5
1654
  8
NEJI
 62
     9
 10
70.006649831383754
 20
114.5200736559303
 30
0.0
 11
70.251649831383531
 21
113.92507365593021
 31
0.0
  0
LINE
  5
1655
  8
NEJI
 62
     9
 10
70.251649831383531
 20
113.92507365593021
 30
0.0
 11
70.846649831383587
 21
113.6800736559306
 31
0.0
  0
LINE
  5
1656
  8
NEJI
 62
     9
 10
70.846649831383587
 20
113.6800736559306
 30
0.0
 11
71.406649831383675
 21
113.6800736559306
 31
0.0
  0
LINE
  5
1657
  8
NEJI
 62
     9
 10
67.906649831383476
 20
113.6800736559304
 30
0.0
 11
67.906649831383675
 21
112.9800736559299
 31
0.0
  0
LINE
  5
1658
  8
NEJI
 62
     9
 10
69.306649831383595
 20
111.58007365592989
 30
0.0
 11
69.306649831383595
 21
112.14007365593019
 31
0.0
  0
LINE
  5
1659
  8
NEJI
 62
     9
 10
69.306649831383595
 20
112.14007365593019
 30
0.0
 11
69.061649831383804
 21
112.73507365593029
 31
0.0
  0
LINE
  5
165A
  8
NEJI
 62
     9
 10
69.061649831383804
 20
112.73507365593029
 30
0.0
 11
68.466649831383762
 21
112.9800736559299
 31
0.0
  0
LINE
  5
165B
  8
NEJI
 62
     9
 10
68.466649831383762
 20
112.9800736559299
 30
0.0
 11
67.906649831383675
 21
112.9800736559299
 31
0.0
  0
LINE
  5
165C
  8
NEJI
 62
     9
 10
69.306649831383396
 20
114.5200736559303
 30
0.0
 11
69.306649831383396
 21
115.08007365593041
 31
0.0
  0
LINE
  5
165D
  8
NEJI
 62
     9
 10
69.061649831383804
 20
113.92507365593021
 30
0.0
 11
69.306649831383396
 21
114.5200736559303
 31
0.0
  0
LINE
  5
165E
  8
NEJI
 62
     9
 10
68.466649831383762
 20
113.6800736559304
 30
0.0
 11
69.061649831383804
 21
113.92507365593021
 31
0.0
  0
LINE
  5
165F
  8
NEJI
 62
     9
 10
67.906649831383476
 20
113.6800736559304
 30
0.0
 11
68.466649831383762
 21
113.6800736559304
 31
0.0
  0
VIEWPORT
  5
D6A
 67
     1
  8
0
 10
183.3498587669238
 20
145.72550516728981
 30
0.0
 40
492.68031272147152
 41
404.3026071405065
 68
     1
 69
     1
1001
ACAD
1000
MVIEW
1002
{
1070
    16
1010
0.0
1020
0.0
1030
0.0
1010
0.0
1020
0.0
1030
1.0
1040
0.0
1040
404.3026071405065
1040
183.3498587669238
1040
145.72550516728981
1040
50.0
1040
0.0
1040
0.0
1070
     0
1070
   100
1070
     1
1070
     1
1070
     0
1070
     0
1070
     0
1070
     0
1040
0.0
1040
0.0
1040
0.0
1040
10.0
1040
10.0
1040
10.0
1040
10.0
1070
     0
1002
{
1002
}
1002
}
  0
VIEWPORT
  5
128A
 67
     1
  8
DEFPOINTS
 62
     8
 10
204.0
 20
142.5
 30
0.0
 40
408.0
 41
285.0
 68
     2
 69
     3
1001
ACAD
1000
MVIEW
1002
{
1070
    16
1010
0.0
1020
0.0
1030
0.0
1010
0.0
1020
0.0
1030
1.0
1040
0.0
1040
264.45523469424671
1040
196.18196055414771
1040
139.4375913086734
1040
50.0
1040
0.0
1040
0.0
1070
     0
1070
   100
1070
     1
1070
     0
1070
     0
1070
     0
1070
     0
1070
     1
1040
0.0
1040
0.0
1040
0.0
1040
168.0
1040
168.0
1040
0.0
1040
0.0
1070
     0
1002
{
1002
}
1002
}
  0
ENDSEC
  0
EOF
