  0
SECTION
  2
HEADER
  9
$ACADVER
  1
AC1015
  9
$ACADMAINTVER
 70
    20
  9
$DWGCODEPAGE
  3
ANSI_932
  9
$INSBASE
 10
0.0
 20
0.0
 30
0.0
  9
$EXTMIN
 10
-0.0545002398387169
 20
-0.0151737121586848
 30
-0.0015258207003583
  9
$EXTMAX
 10
420.0486798306194
 20
297.0230642357524
 30
0.0000000349246037
  9
$LIMMIN
 10
0.0
 20
0.0
  9
$LIMMAX
 10
420.0
 20
297.0
  9
$ORTHOMODE
 70
     0
  9
$REGENMODE
 70
     1
  9
$FILLMODE
 70
     1
  9
$QTEXTMODE
 70
     0
  9
$MIRRTEXT
 70
     1
  9
$LTSCALE
 40
1.0
  9
$ATTMODE
 70
     1
  9
$TEXTSIZE
 40
0.2
  9
$TRACEWID
 40
1.0
  9
$TEXTSTYLE
  7
SEACAD_arial_ttf
  9
$CLAYER
  8
MEASURE
  9
$CELTYPE
  6
ByLayer
  9
$CECOLOR
 62
   256
  9
$CELTSCALE
 40
1.0
  9
$DISPSILH
 70
     0
  9
$DIMSCALE
 40
1.5
  9
$DIMASZ
 40
2.5
  9
$DIMEXO
 40
1.0
  9
$DIMDLI
 40
0.38
  9
$DIMRND
 40
0.0
  9
$DIMDLE
 40
0.0
  9
$DIMEXE
 40
2.0
  9
$DIMTP
 40
1.0
  9
$DIMTM
 40
0.0
  9
$DIMTXT
 40
3.0
  9
$DIMCEN
 40
-2.0
  9
$DIMTSZ
 40
0.0
  9
$DIMTOL
 70
     0
  9
$DIMLIM
 70
     0
  9
$DIMTIH
 70
     0
  9
$DIMTOH
 70
     0
  9
$DIMSE1
 70
     0
  9
$DIMSE2
 70
     0
  9
$DIMTAD
 70
     1
  9
$DIMZIN
 70
     8
  9
$DIMBLK
  1

  9
$DIMASO
 70
     1
  9
$DIMSHO
 70
     1
  9
$DIMPOST
  1

  9
$DIMAPOST
  1

  9
$DIMALT
 70
     0
  9
$DIMALTD
 70
     2
  9
$DIMALTF
 40
25.4
  9
$DIMLFAC
 40
1.0
  9
$DIMTOFL
 70
     1
  9
$DIMTVP
 40
0.0
  9
$DIMTIX
 70
     0
  9
$DIMSOXD
 70
     0
  9
$DIMSAH
 70
     0
  9
$DIMBLK1
  1

  9
$DIMBLK2
  1

  9
$DIMSTYLE
  2
AD-STANDARD
  9
$DIMCLRD
 70
     9
  9
$DIMCLRE
 70
     9
  9
$DIMCLRT
 70
     2
  9
$DIMTFAC
 40
0.6
  9
$DIMGAP
 40
0.5
  9
$DIMJUST
 70
     0
  9
$DIMSD1
 70
     0
  9
$DIMSD2
 70
     0
  9
$DIMTOLJ
 70
     1
  9
$DIMTZIN
 70
     8
  9
$DIMALTZ
 70
     0
  9
$DIMALTTZ
 70
     0
  9
$DIMUPT
 70
     0
  9
$DIMDEC
 70
     4
  9
$DIMTDEC
 70
     4
  9
$DIMALTU
 70
     2
  9
$DIMALTTD
 70
     2
  9
$DIMTXSTY
  7
AD-STANDARD
  9
$DIMAUNIT
 70
     0
  9
$DIMADEC
 70
     0
  9
$DIMALTRND
 40
0.0
  9
$DIMAZIN
 70
     0
  9
$DIMDSEP
 70
    46
  9
$DIMATFIT
 70
     3
  9
$DIMFRAC
 70
     0
  9
$DIMLDRBLK
  1

  9
$DIMLUNIT
 70
     2
  9
$DIMLWD
 70
    -2
  9
$DIMLWE
 70
    -2
  9
$DIMTMOVE
 70
     0
  9
$LUNITS
 70
     2
  9
$LUPREC
 70
     4
  9
$SKETCHINC
 40
1.0
  9
$FILLETRAD
 40
0.0
  9
$AUNITS
 70
     0
  9
$AUPREC
 70
     0
  9
$MENU
  1
.
  9
$ELEVATION
 40
0.0
  9
$PELEVATION
 40
0.0
  9
$THICKNESS
 40
0.0
  9
$LIMCHECK
 70
     0
  9
$CHAMFERA
 40
10.0
  9
$CHAMFERB
 40
10.0
  9
$CHAMFERC
 40
20.0
  9
$CHAMFERD
 40
0.0
  9
$SKPOLY
 70
     0
  9
$TDCREATE
 40
2455608.609112581
  9
$TDUCREATE
 40
2455608.234112581
  9
$TDUPDATE
 40
2455652.446018692
  9
$TDUUPDATE
 40
2455652.071018692
  9
$TDINDWG
 40
0.4935963657
  9
$TDUSRTIMER
 40
0.4935961921
  9
$USRTIMER
 70
     1
  9
$ANGBASE
 50
0.0
  9
$ANGDIR
 70
     0
  9
$PDMODE
 70
     0
  9
$PDSIZE
 40
0.0
  9
$PLINEWID
 40
0.0
  9
$SPLFRAME
 70
     0
  9
$SPLINETYPE
 70
     6
  9
$SPLINESEGS
 70
     8
  9
$HANDSEED
  5
2F22
  9
$SURFTAB1
 70
     6
  9
$SURFTAB2
 70
     6
  9
$SURFTYPE
 70
     6
  9
$SURFU
 70
     6
  9
$SURFV
 70
     6
  9
$UCSBASE
  2

  9
$UCSNAME
  2

  9
$UCSORG
 10
0.0
 20
0.0
 30
0.0
  9
$UCSXDIR
 10
1.0
 20
0.0
 30
0.0
  9
$UCSYDIR
 10
0.0
 20
1.0
 30
0.0
  9
$UCSORTHOREF
  2

  9
$UCSORTHOVIEW
 70
     0
  9
$UCSORGTOP
 10
0.0
 20
0.0
 30
0.0
  9
$UCSORGBOTTOM
 10
0.0
 20
0.0
 30
0.0
  9
$UCSORGLEFT
 10
0.0
 20
0.0
 30
0.0
  9
$UCSORGRIGHT
 10
0.0
 20
0.0
 30
0.0
  9
$UCSORGFRONT
 10
0.0
 20
0.0
 30
0.0
  9
$UCSORGBACK
 10
0.0
 20
0.0
 30
0.0
  9
$PUCSBASE
  2

  9
$PUCSNAME
  2

  9
$PUCSORG
 10
0.0
 20
0.0
 30
0.0
  9
$PUCSXDIR
 10
1.0
 20
0.0
 30
0.0
  9
$PUCSYDIR
 10
0.0
 20
1.0
 30
0.0
  9
$PUCSORTHOREF
  2

  9
$PUCSORTHOVIEW
 70
     0
  9
$PUCSORGTOP
 10
0.0
 20
0.0
 30
0.0
  9
$PUCSORGBOTTOM
 10
0.0
 20
0.0
 30
0.0
  9
$PUCSORGLEFT
 10
0.0
 20
0.0
 30
0.0
  9
$PUCSORGRIGHT
 10
0.0
 20
0.0
 30
0.0
  9
$PUCSORGFRONT
 10
0.0
 20
0.0
 30
0.0
  9
$PUCSORGBACK
 10
0.0
 20
0.0
 30
0.0
  9
$USERI1
 70
     0
  9
$USERI2
 70
     0
  9
$USERI3
 70
     0
  9
$USERI4
 70
     0
  9
$USERI5
 70
     0
  9
$USERR1
 40
0.0
  9
$USERR2
 40
0.0
  9
$USERR3
 40
0.0
  9
$USERR4
 40
0.0
  9
$USERR5
 40
0.0
  9
$WORLDVIEW
 70
     1
  9
$SHADEDGE
 70
     3
  9
$SHADEDIF
 70
    70
  9
$TILEMODE
 70
     1
  9
$MAXACTVP
 70
    64
  9
$PINSBASE
 10
0.0
 20
0.0
 30
0.0
  9
$PLIMCHECK
 70
     0
  9
$PEXTMIN
 10
0.0
 20
0.0
 30
0.0
  9
$PEXTMAX
 10
420.0
 20
297.0
 30
0.0
  9
$PLIMMIN
 10
0.0
 20
0.0
  9
$PLIMMAX
 10
420.0
 20
297.0
  9
$UNITMODE
 70
     0
  9
$VISRETAIN
 70
     1
  9
$PLINEGEN
 70
     0
  9
$PSLTSCALE
 70
     1
  9
$TREEDEPTH
 70
  3020
  9
$CMLSTYLE
  2
Standard
  9
$CMLJUST
 70
     0
  9
$CMLSCALE
 40
20.0
  9
$PROXYGRAPHICS
 70
     1
  9
$MEASUREMENT
 70
     1
  9
$CELWEIGHT
370
    -1
  9
$ENDCAPS
280
     0
  9
$JOINSTYLE
280
     0
  9
$LWDISPLAY
290
     0
  9
$INSUNITS
 70
     4
  9
$HYPERLINKBASE
  1

  9
$STYLESHEET
  1
MONOCHROME.CTB
  9
$XEDIT
290
     1
  9
$CEPSNTYPE
380
     0
  9
$PSTYLEMODE
290
     1
  9
$FINGERPRINTGUID
  2
{06F68AE4-7C85-4F34-9DA3-B958291FF236}
  9
$VERSIONGUID
  2
{D8E8494B-F41A-4F10-BE20-940DFD53BC7B}
  9
$EXTNAMES
290
     1
  9
$PSVPSCALE
 40
0.0
  9
$OLESTARTUP
290
     0
  0
ENDSEC
  0
SECTION
  2
CLASSES
  0
CLASS
  1
ACDBDICTIONARYWDFLT
  2
AcDbDictionaryWithDefault
  3
ObjectDBX Classes
 90
        0
280
     0
281
     0
  0
CLASS
  1
VISUALSTYLE
  2
AcDbVisualStyle
  3
ObjectDBX Classes
 90
     4095
280
     0
281
     0
  0
CLASS
  1
SCALE
  2
AcDbScale
  3
ObjectDBX Classes
 90
     1153
280
     0
281
     0
  0
CLASS
  1
DICTIONARYVAR
  2
AcDbDictionaryVar
  3
ObjectDBX Classes
 90
        0
280
     0
281
     0
  0
CLASS
  1
ACDBPLACEHOLDER
  2
AcDbPlaceHolder
  3
ObjectDBX Classes
 90
        0
280
     0
281
     0
  0
CLASS
  1
LAYOUT
  2
AcDbLayout
  3
ObjectDBX Classes
 90
        0
280
     0
281
     0
  0
CLASS
  1
MATERIAL
  2
AcDbMaterial
  3
ObjectDBX Classes
 90
        0
280
     0
281
     0
  0
CLASS
  1
TABLESTYLE
  2
AcDbTableStyle
  3
ObjectDBX Classes
 90
     2047
280
     0
281
     0
  0
CLASS
  1
SORTENTSTABLE
  2
AcDbSortentsTable
  3
ObjectDBX Classes
 90
        0
280
     0
281
     0
  0
ENDSEC
  0
SECTION
  2
TABLES
  0
TABLE
  2
VPORT
  5
8
102
{ACAD_XDICTIONARY
360
1D31
102
}
330
0
100
AcDbSymbolTable
 70
    24
  0
VPORT
  5
2F1B
330
8
100
AcDbSymbolTableRecord
100
AcDbViewportTableRecord
  2
*Active
 70
     0
 10
0.0
 20
0.0
 11
1.0
 21
1.0
 12
209.9970897953904
 22
148.5039452617968
 13
0.0
 23
0.0
 14
10.0
 24
10.0
 15
10.0
 25
10.0
 16
0.0
 26
0.0
 36
1.0
 17
0.0
 27
0.0
 37
0.0
 40
350.5048519578477
 41
1.205955334987593
 42
50.0
 43
0.0
 44
0.0
 50
0.0
 51
0.0
 71
     0
 72
   100
 73
     1
 74
     3
 75
     0
 76
     0
 77
     0
 78
     0
281
     0
 65
     1
110
0.0
120
0.0
130
0.0
111
1.0
121
0.0
131
0.0
112
0.0
122
1.0
132
0.0
 79
     0
146
0.0
  0
ENDTAB
  0
TABLE
  2
LTYPE
  5
5
330
0
100
AcDbSymbolTable
 70
     5
  0
LTYPE
  5
14
330
5
100
AcDbSymbolTableRecord
100
AcDbLinetypeTableRecord
  2
ByBlock
 70
     0
  3

 72
    65
 73
     0
 40
0.0
  0
LTYPE
  5
15
330
5
100
AcDbSymbolTableRecord
100
AcDbLinetypeTableRecord
  2
ByLayer
 70
     0
  3

 72
    65
 73
     0
 40
0.0
  0
LTYPE
  5
16
330
5
100
AcDbSymbolTableRecord
100
AcDbLinetypeTableRecord
  2
Continuous
 70
     0
  3
Solid line
 72
    65
 73
     0
 40
0.0
  0
LTYPE
  5
15FE
330
5
100
AcDbSymbolTableRecord
100
AcDbLinetypeTableRecord
  2
CENTER
 70
     0
  3
____ _ ____ _ ____ _ ____ _ ____ _ ____ _ ____ 
 72
    65
 73
     4
 40
2.0
 49
1.25
 74
     0
 49
-0.25
 74
     0
 49
0.25
 74
     0
 49
-0.25
 74
     0
  0
LTYPE
  5
15FF
330
5
100
AcDbSymbolTableRecord
100
AcDbLinetypeTableRecord
  2
HIDDEN
 70
     0
  3
__ __ __ __ __ __ __ __ __ __ __ __ __ __ __ __
 72
    65
 73
     2
 40
0.375
 49
0.25
 74
     0
 49
-0.125
 74
     0
  0
ENDTAB
  0
TABLE
  2
LAYER
  5
2
102
{ACAD_XDICTIONARY
360
E92
102
}
330
0
100
AcDbSymbolTable
 70
    34
  0
LAYER
  5
10
102
{ACAD_XDICTIONARY
360
1F9B
102
}
330
2
100
AcDbSymbolTableRecord
100
AcDbLayerTableRecord
  2
0
 70
     0
 62
     7
  6
Continuous
370
    -3
390
F
  0
LAYER
  5
E90
102
{ACAD_XDICTIONARY
360
1FDF
102
}
330
2
100
AcDbSymbolTableRecord
100
AcDbLayerTableRecord
  2
DEFPOINTS
 70
     0
 62
     7
  6
Continuous
290
     0
370
    -3
390
F
  0
LAYER
  5
1600
102
{ACAD_XDICTIONARY
360
1FE1
102
}
330
2
100
AcDbSymbolTableRecord
100
AcDbLayerTableRecord
  2
MEASURE
 70
     0
 62
     9
  6
Continuous
370
    -3
390
F
  0
LAYER
  5
2813
330
2
100
AcDbSymbolTableRecord
100
AcDbLayerTableRecord
  2
AD4530
 70
     0
 62
     7
  6
Continuous
370
    -3
390
F
1001
AcAecLayerStandard
1000

1000

  0
LAYER
  5
2E3D
330
2
100
AcDbSymbolTableRecord
100
AcDbLayerTableRecord
  2
LINE1
 70
     0
 62
     7
  6
Continuous
370
    -3
390
F
  0
LAYER
  5
2E3E
330
2
100
AcDbSymbolTableRecord
100
AcDbLayerTableRecord
  2
MOJI
 70
     0
 62
     2
  6
Continuous
370
    -3
390
F
  0
ENDTAB
  0
TABLE
  2
STYLE
  5
3
330
0
100
AcDbSymbolTable
 70
     6
  0
STYLE
  5
11
330
3
100
AcDbSymbolTableRecord
100
AcDbTextStyleTableRecord
  2
Standard
 70
     0
 40
0.0
 41
1.0
 50
0.0
 71
     0
 42
2.5
  3
txt
  4

  0
STYLE
  5
5D
330
3
100
AcDbSymbolTableRecord
100
AcDbTextStyleTableRecord
  2
SEACAD_arial_ttf
 70
     0
 40
0.0
 41
1.0
 50
0.0
 71
     0
 42
0.2
  3
MS PGothic.ttf
  4

1001
ACAD
1000
MS PGothic
1071
    32818
  0
STYLE
  5
1603
330
3
100
AcDbSymbolTableRecord
100
AcDbTextStyleTableRecord
  2
BIGFONT
 70
     0
 40
0.0
 41
0.8
 50
0.0
 71
     0
 42
3.5
  3
ROMANS.SHX
  4
BIGFONT.SHX
  0
STYLE
  5
200F
330
3
100
AcDbSymbolTableRecord
100
AcDbTextStyleTableRecord
  2
AD-STANDARD
 70
     0
 40
0.0
 41
0.8
 50
0.0
 71
     0
 42
2.5
  3
C:\ACLTWIN2\Romans.shx
  4
C:\ACLTWIN2\Bigfont.shx
  0
ENDTAB
  0
TABLE
  2
VIEW
  5
6
330
0
100
AcDbSymbolTable
 70
     0
  0
ENDTAB
  0
TABLE
  2
UCS
  5
7
330
0
100
AcDbSymbolTable
 70
     0
  0
ENDTAB
  0
TABLE
  2
APPID
  5
9
330
0
100
AcDbSymbolTable
 70
     4
  0
APPID
  5
12
330
9
100
AcDbSymbolTableRecord
100
AcDbRegAppTableRecord
  2
ACAD
 70
     0
  0
APPID
  5
E8D
330
9
100
AcDbSymbolTableRecord
100
AcDbRegAppTableRecord
  2
ACAD_PSEXT
 70
     0
  0
APPID
  5
2034
330
9
100
AcDbSymbolTableRecord
100
AcDbRegAppTableRecord
  2
ACAD_EXEMPT_FROM_CAD_STANDARDS
 70
     0
  0
APPID
  5
2814
330
9
100
AcDbSymbolTableRecord
100
AcDbRegAppTableRecord
  2
AcAecLayerStandard
 70
     0
  0
ENDTAB
  0
TABLE
  2
DIMSTYLE
  5
A
330
0
100
AcDbSymbolTable
 70
     5
100
AcDbDimStyleTable
 71
     1
340
2010
  0
DIMSTYLE
105
D71
330
A
100
AcDbSymbolTableRecord
100
AcDbDimStyleTableRecord
  2
Standard
 70
     0
340
11
  0
DIMSTYLE
105
2010
102
{ACAD_REACTORS
330
283F
330
2A35
330
2A42
330
2B5B
330
2B90
330
2B9F
330
2BAC
330
2D74
330
2E4B
330
2E4C
102
}
330
A
100
AcDbSymbolTableRecord
100
AcDbDimStyleTableRecord
  2
AD-STANDARD
 70
     0
 40
1.5
 41
2.5
 42
1.0
 44
2.0
 47
1.0
 73
     0
 74
     0
 77
     1
 78
     8
140
3.0
141
-2.0
146
0.6
147
0.5
172
     1
176
     9
177
     9
178
     2
284
     8
340
200F
  0
ENDTAB
  0
TABLE
  2
BLOCK_RECORD
  5
1
330
0
100
AcDbSymbolTable
 70
    35
  0
BLOCK_RECORD
  5
1F
102
{ACAD_XDICTIONARY
360
13DB
102
}
330
1
100
AcDbSymbolTableRecord
100
AcDbBlockTableRecord
  2
*Model_Space
340
22
  0
BLOCK_RECORD
  5
1B
330
1
100
AcDbSymbolTableRecord
100
AcDbBlockTableRecord
  2
*Paper_Space
340
1E
  0
BLOCK_RECORD
  5
2840
330
1
100
AcDbSymbolTableRecord
100
AcDbBlockTableRecord
  2
*D20
340
0
  0
BLOCK_RECORD
  5
2A36
330
1
100
AcDbSymbolTableRecord
100
AcDbBlockTableRecord
  2
*D22
340
0
  0
BLOCK_RECORD
  5
2A43
330
1
100
AcDbSymbolTableRecord
100
AcDbBlockTableRecord
  2
*D23
340
0
  0
BLOCK_RECORD
  5
2B5C
330
1
100
AcDbSymbolTableRecord
100
AcDbBlockTableRecord
  2
*D24
340
0
  0
BLOCK_RECORD
  5
2B91
330
1
100
AcDbSymbolTableRecord
100
AcDbBlockTableRecord
  2
*D26
340
0
  0
BLOCK_RECORD
  5
2BA0
330
1
100
AcDbSymbolTableRecord
100
AcDbBlockTableRecord
  2
*D27
340
0
  0
BLOCK_RECORD
  5
2BAD
330
1
100
AcDbSymbolTableRecord
100
AcDbBlockTableRecord
  2
*D28
340
0
  0
BLOCK_RECORD
  5
2D75
330
1
100
AcDbSymbolTableRecord
100
AcDbBlockTableRecord
  2
*D29
340
0
  0
BLOCK_RECORD
  5
2E52
330
1
100
AcDbSymbolTableRecord
100
AcDbBlockTableRecord
  2
*D33
340
0
  0
BLOCK_RECORD
  5
2E5E
330
1
100
AcDbSymbolTableRecord
100
AcDbBlockTableRecord
  2
*D34
340
0
  0
ENDTAB
  0
ENDSEC
  0
SECTION
  2
BLOCKS
  0
BLOCK
  5
20
330
1F
100
AcDbEntity
  8
0
100
AcDbBlockBegin
  2
*Model_Space
 70
     0
 10
0.0
 20
0.0
 30
0.0
  3
*Model_Space
  1

  0
ENDBLK
  5
21
330
1F
100
AcDbEntity
  8
0
100
AcDbBlockEnd
  0
BLOCK
  5
1C
330
1B
100
AcDbEntity
 67
     1
  8
0
100
AcDbBlockBegin
  2
*Paper_Space
 70
     0
 10
0.0
 20
0.0
 30
0.0
  3
*Paper_Space
  1

  0
ENDBLK
  5
1D
330
1B
100
AcDbEntity
 67
     1
  8
0
100
AcDbBlockEnd
  0
BLOCK
  5
284A
330
2840
100
AcDbEntity
  8
0
100
AcDbBlockBegin
  2
*D20
 70
     1
 10
0.0
 20
0.0
 30
0.0
  3
*D20
  1

  0
LINE
  5
2DD0
330
2840
100
AcDbEntity
  8
MEASURE
 62
     9
370
    -2
100
AcDbLine
 10
279.682924932735
 20
105.4312248320176
 30
0.0
 11
296.3302891004382
 21
105.4312248320176
 31
0.0
  0
LINE
  5
2DD1
330
2840
100
AcDbEntity
  8
MEASURE
 62
     9
370
    -2
100
AcDbLine
 10
279.682924932735
 20
61.23122483201754
 30
0.0
 11
296.3302891004382
 21
61.23122483201754
 31
0.0
  0
LINE
  5
2DD2
330
2840
100
AcDbEntity
  8
MEASURE
 62
     9
370
    -2
100
AcDbLine
 10
293.3302891004382
 20
101.6812248320176
 30
0.0
 11
293.3302891004382
 21
64.98122483201753
 31
0.0
  0
SOLID
  5
2DD3
330
2840
100
AcDbEntity
  8
MEASURE
 62
     9
100
AcDbTrace
 10
292.7052891004382
 20
101.6812248320176
 30
0.0
 11
293.9552891004382
 21
101.6812248320176
 31
0.0
 12
293.3302891004382
 22
105.4312248320176
 32
0.0
 13
293.3302891004382
 23
105.4312248320176
 33
0.0
  0
SOLID
  5
2DD4
330
2840
100
AcDbEntity
  8
MEASURE
 62
     9
100
AcDbTrace
 10
292.7052891004382
 20
64.98122483201753
 30
0.0
 11
293.9552891004382
 21
64.98122483201753
 31
0.0
 12
293.3302891004382
 22
61.23122483201754
 32
0.0
 13
293.3302891004382
 23
61.23122483201754
 33
0.0
  0
MTEXT
  5
2DD5
330
2840
100
AcDbEntity
  8
MEASURE
 62
     2
100
AcDbMText
 10
289.1517176718668
 20
83.33122483201762
 30
0.0
 40
4.5
 41
0.0
 71
     5
 72
     1
  1
\A1;(44.6)
  7
AD-STANDARD
 11
0.0000000000000001
 21
1.0
 31
0.0
 73
     1
 44
1.0
1001
ACAD
1000
MTEXTBEGIN
1070
    73
1070
     1
1070
    44
1040
1.0
1070
    74
1070
     0
1000
MTEXTEND
  0
POINT
  5
2DD6
330
2840
100
AcDbEntity
  8
DEFPOINTS
 62
     0
100
AcDbPoint
 10
278.182924932735
 20
105.4312248320176
 30
0.0
  0
POINT
  5
2DD7
330
2840
100
AcDbEntity
  8
DEFPOINTS
 62
     0
100
AcDbPoint
 10
278.182924932735
 20
61.23122483201754
 30
0.0
  0
POINT
  5
2DD8
330
2840
100
AcDbEntity
  8
DEFPOINTS
 62
     0
100
AcDbPoint
 10
293.3302891004382
 20
61.23122483201754
 30
0.0
  0
ENDBLK
  5
284B
330
2840
100
AcDbEntity
  8
0
100
AcDbBlockEnd
  0
BLOCK
  5
2A40
330
2A36
100
AcDbEntity
  8
0
100
AcDbBlockBegin
  2
*D22
 70
     1
 10
0.0
 20
0.0
 30
0.0
  3
*D22
  1

  0
LINE
  5
2DD9
330
2A36
100
AcDbEntity
  8
MEASURE
 62
     9
370
    -2
100
AcDbLine
 10
151.682924932735
 20
154.6776500434286
 30
0.0
 11
151.682924932735
 21
136.5206698786288
 31
0.0
  0
LINE
  5
2DDA
330
2A36
100
AcDbEntity
  8
MEASURE
 62
     9
370
    -2
100
AcDbLine
 10
280.7829249327349
 20
157.1776500434287
 30
0.0
 11
280.7829249327349
 21
136.5206698786288
 31
0.0
  0
LINE
  5
2DDB
330
2A36
100
AcDbEntity
  8
MEASURE
 62
     9
370
    -2
100
AcDbLine
 10
155.4329249327349
 20
139.5206698786288
 30
0.0
 11
277.0329249327349
 21
139.5206698786288
 31
0.0
  0
SOLID
  5
2DDC
330
2A36
100
AcDbEntity
  8
MEASURE
 62
     9
100
AcDbTrace
 10
155.4329249327349
 20
140.1456698786288
 30
0.0
 11
155.4329249327349
 21
138.8956698786288
 31
0.0
 12
151.682924932735
 22
139.5206698786288
 32
0.0
 13
151.682924932735
 23
139.5206698786288
 33
0.0
  0
SOLID
  5
2DDD
330
2A36
100
AcDbEntity
  8
MEASURE
 62
     9
100
AcDbTrace
 10
277.0329249327349
 20
140.1456698786288
 30
0.0
 11
277.0329249327349
 21
138.8956698786288
 31
0.0
 12
280.7829249327349
 22
139.5206698786288
 32
0.0
 13
280.7829249327349
 23
139.5206698786288
 33
0.0
  0
MTEXT
  5
2DDE
330
2A36
100
AcDbEntity
  8
MEASURE
 62
     2
100
AcDbMText
 10
216.2329249327349
 20
142.5206698786288
 30
0.0
 40
4.5
 41
0.0
 71
     5
 72
     1
  1
\A1;129.1
  7
AD-STANDARD
 73
     1
 44
1.0
1001
ACAD
1000
MTEXTBEGIN
1070
    73
1070
     1
1070
    44
1040
1.0
1070
    74
1070
     0
1000
MTEXTEND
  0
POINT
  5
2DDF
330
2A36
100
AcDbEntity
  8
DEFPOINTS
 62
     0
100
AcDbPoint
 10
151.682924932735
 20
156.1776500434286
 30
0.0
  0
POINT
  5
2DE0
330
2A36
100
AcDbEntity
  8
DEFPOINTS
 62
     0
100
AcDbPoint
 10
280.7829249327349
 20
158.6776500434287
 30
0.0
  0
POINT
  5
2DE1
330
2A36
100
AcDbEntity
  8
DEFPOINTS
 62
     0
100
AcDbPoint
 10
280.7829249327349
 20
139.5206698786288
 30
0.0
  0
ENDBLK
  5
2A41
330
2A36
100
AcDbEntity
  8
0
100
AcDbBlockEnd
  0
BLOCK
  5
2A4D
330
2A43
100
AcDbEntity
  8
0
100
AcDbBlockBegin
  2
*D23
 70
     1
 10
0.0
 20
0.0
 30
0.0
  3
*D23
  1

  0
LINE
  5
2DE2
330
2A43
100
AcDbEntity
  8
MEASURE
 62
     9
370
    -2
100
AcDbLine
 10
279.682924932735
 20
249.9776500430878
 30
0.0
 11
296.3302891004382
 21
249.9776500430878
 31
0.0
  0
LINE
  5
2DE3
330
2A43
100
AcDbEntity
  8
MEASURE
 62
     9
370
    -2
100
AcDbLine
 10
279.682924932735
 20
158.3776500437692
 30
0.0
 11
296.3302891004382
 21
158.3776500437692
 31
0.0
  0
LINE
  5
2DE4
330
2A43
100
AcDbEntity
  8
MEASURE
 62
     9
370
    -2
100
AcDbLine
 10
293.3302891004382
 20
246.2276500430878
 30
0.0
 11
293.3302891004382
 21
162.1276500437692
 31
0.0
  0
SOLID
  5
2DE5
330
2A43
100
AcDbEntity
  8
MEASURE
 62
     9
100
AcDbTrace
 10
292.7052891004382
 20
246.2276500430878
 30
0.0
 11
293.9552891004382
 21
246.2276500430878
 31
0.0
 12
293.3302891004382
 22
249.9776500430878
 32
0.0
 13
293.3302891004382
 23
249.9776500430878
 33
0.0
  0
SOLID
  5
2DE6
330
2A43
100
AcDbEntity
  8
MEASURE
 62
     9
100
AcDbTrace
 10
292.7052891004382
 20
162.1276500437692
 30
0.0
 11
293.9552891004382
 21
162.1276500437692
 31
0.0
 12
293.3302891004382
 22
158.3776500437692
 32
0.0
 13
293.3302891004382
 23
158.3776500437692
 33
0.0
  0
MTEXT
  5
2DE7
330
2A43
100
AcDbEntity
  8
MEASURE
 62
     2
100
AcDbMText
 10
289.1517176718667
 20
204.1776500434286
 30
0.0
 40
4.5
 41
0.0
 71
     5
 72
     1
  1
\A1;(91.6)
  7
AD-STANDARD
 11
0.0000000000000001
 21
1.0
 31
0.0
 73
     1
 44
1.0
1001
ACAD
1000
MTEXTBEGIN
1070
    73
1070
     1
1070
    44
1040
1.0
1070
    74
1070
     0
1000
MTEXTEND
  0
POINT
  5
2DE8
330
2A43
100
AcDbEntity
  8
DEFPOINTS
 62
     0
100
AcDbPoint
 10
278.182924932735
 20
249.9776500430878
 30
0.0
  0
POINT
  5
2DE9
330
2A43
100
AcDbEntity
  8
DEFPOINTS
 62
     0
100
AcDbPoint
 10
278.182924932735
 20
158.3776500437692
 30
0.0
  0
POINT
  5
2DEA
330
2A43
100
AcDbEntity
  8
DEFPOINTS
 62
     0
100
AcDbPoint
 10
293.3302891004382
 20
158.3776500437692
 30
0.0
  0
ENDBLK
  5
2A4E
330
2A43
100
AcDbEntity
  8
0
100
AcDbBlockEnd
  0
BLOCK
  5
2B66
330
2B5C
100
AcDbEntity
  8
0
100
AcDbBlockBegin
  2
*D24
 70
     1
 10
0.0
 20
0.0
 30
0.0
  3
*D24
  1

  0
LINE
  5
2DEB
330
2B5C
100
AcDbEntity
  8
MEASURE
 62
     9
370
    -2
100
AcDbLine
 10
33.06876631222614
 20
107.8312248320176
 30
0.0
 11
33.06876631222614
 21
125.2254533515679
 31
0.0
  0
LINE
  5
2DEC
330
2B5C
100
AcDbEntity
  8
MEASURE
 62
     9
370
    -2
100
AcDbLine
 10
129.0687663122261
 20
107.8312248320176
 30
0.0
 11
129.0687663122261
 21
125.2254533515679
 31
0.0
  0
LINE
  5
2DED
330
2B5C
100
AcDbEntity
  8
MEASURE
 62
     9
370
    -2
100
AcDbLine
 10
36.81876631222614
 20
122.2254533515679
 30
0.0
 11
125.3187663122261
 21
122.2254533515679
 31
0.0
  0
SOLID
  5
2DEE
330
2B5C
100
AcDbEntity
  8
MEASURE
 62
     9
100
AcDbTrace
 10
36.81876631222614
 20
122.8504533515679
 30
0.0
 11
36.81876631222614
 21
121.6004533515679
 31
0.0
 12
33.06876631222614
 22
122.2254533515679
 32
0.0
 13
33.06876631222614
 23
122.2254533515679
 33
0.0
  0
SOLID
  5
2DEF
330
2B5C
100
AcDbEntity
  8
MEASURE
 62
     9
100
AcDbTrace
 10
125.3187663122261
 20
122.8504533515679
 30
0.0
 11
125.3187663122261
 21
121.6004533515679
 31
0.0
 12
129.0687663122261
 22
122.2254533515679
 32
0.0
 13
129.0687663122261
 23
122.2254533515679
 33
0.0
  0
MTEXT
  5
2DF0
330
2B5C
100
AcDbEntity
  8
MEASURE
 62
     2
100
AcDbMText
 10
81.06876631222613
 20
125.2254533515679
 30
0.0
 40
4.5
 41
0.0
 71
     5
 72
     1
  1
\A1;96
  7
AD-STANDARD
 73
     1
 44
1.0
1001
ACAD
1000
MTEXTBEGIN
1070
    73
1070
     1
1070
    44
1040
1.0
1070
    74
1070
     0
1000
MTEXTEND
  0
POINT
  5
2DF1
330
2B5C
100
AcDbEntity
  8
DEFPOINTS
 62
     0
100
AcDbPoint
 10
33.06876631222614
 20
106.3312248320176
 30
0.0
  0
POINT
  5
2DF2
330
2B5C
100
AcDbEntity
  8
DEFPOINTS
 62
     0
100
AcDbPoint
 10
129.0687663122261
 20
106.3312248320176
 30
0.0
  0
POINT
  5
2DF3
330
2B5C
100
AcDbEntity
  8
DEFPOINTS
 62
     0
100
AcDbPoint
 10
129.0687663122261
 20
122.2254533515679
 30
0.0
  0
ENDBLK
  5
2B67
330
2B5C
100
AcDbEntity
  8
0
100
AcDbBlockEnd
  0
BLOCK
  5
2B9D
330
2B91
100
AcDbEntity
  8
0
100
AcDbBlockBegin
  2
*D26
 70
     1
 10
0.0
 20
0.0
 30
0.0
  3
*D26
  1

  0
LINE
  5
2DF4
330
2B91
100
AcDbEntity
  8
MEASURE
 62
     9
370
    -2
100
AcDbLine
 10
151.682924932735
 20
108.8312248320176
 30
0.0
 11
151.682924932735
 21
125.2254533515679
 31
0.0
  0
LINE
  5
2DF5
330
2B91
100
AcDbEntity
  8
MEASURE
 62
     9
370
    -2
100
AcDbLine
 10
159.7171144447105
 20
108.8312248320176
 30
0.0
 11
159.7171144447105
 21
125.2254533515679
 31
0.0
  0
LINE
  5
2DF6
330
2B91
100
AcDbEntity
  8
MEASURE
 62
     9
370
    -2
100
AcDbLine
 10
163.4671144447105
 20
122.2254533515679
 30
0.0
 11
167.2171144447105
 21
122.2254533515679
 31
0.0
  0
LINE
  5
2DF7
330
2B91
100
AcDbEntity
  8
MEASURE
 62
     9
370
    -2
100
AcDbLine
 10
147.9329249327349
 20
122.2254533515679
 30
0.0
 11
140.2829249327349
 21
122.2254533515679
 31
0.0
  0
LINE
  5
2DF8
330
2B91
100
AcDbEntity
  8
MEASURE
 62
     9
370
    -2
100
AcDbLine
 10
159.7171144447105
 20
122.2254533515679
 30
0.0
 11
151.682924932735
 21
122.2254533515679
 31
0.0
  0
SOLID
  5
2DF9
330
2B91
100
AcDbEntity
  8
MEASURE
 62
     9
100
AcDbTrace
 10
163.4671144447105
 20
122.8504533515679
 30
0.0
 11
163.4671144447105
 21
121.6004533515679
 31
0.0
 12
159.7171144447105
 22
122.2254533515679
 32
0.0
 13
159.7171144447105
 23
122.2254533515679
 33
0.0
  0
SOLID
  5
2DFA
330
2B91
100
AcDbEntity
  8
MEASURE
 62
     9
100
AcDbTrace
 10
147.9329249327349
 20
122.8504533515679
 30
0.0
 11
147.9329249327349
 21
121.6004533515679
 31
0.0
 12
151.682924932735
 22
122.2254533515679
 32
0.0
 13
151.682924932735
 23
122.2254533515679
 33
0.0
  0
MTEXT
  5
2DFB
330
2B91
100
AcDbEntity
  8
MEASURE
 62
     2
100
AcDbMText
 10
142.232924932735
 20
125.2254533515679
 30
0.0
 40
4.5
 41
0.0
 71
     5
 72
     1
  1
\A1;8
  7
AD-STANDARD
 73
     1
 44
1.0
1001
ACAD
1000
MTEXTBEGIN
1070
    73
1070
     1
1070
    44
1040
1.0
1070
    74
1070
     0
1000
MTEXTEND
  0
POINT
  5
2DFC
330
2B91
100
AcDbEntity
  8
DEFPOINTS
 62
     0
100
AcDbPoint
 10
151.682924932735
 20
107.3312248320176
 30
0.0
  0
POINT
  5
2DFD
330
2B91
100
AcDbEntity
  8
DEFPOINTS
 62
     0
100
AcDbPoint
 10
159.7171144447105
 20
107.3312248320176
 30
0.0
  0
POINT
  5
2DFE
330
2B91
100
AcDbEntity
  8
DEFPOINTS
 62
     0
100
AcDbPoint
 10
159.7171144447105
 20
122.2254533515679
 30
0.0
  0
ENDBLK
  5
2B9E
330
2B91
100
AcDbEntity
  8
0
100
AcDbBlockEnd
  0
BLOCK
  5
2BAA
330
2BA0
100
AcDbEntity
  8
0
100
AcDbBlockBegin
  2
*D27
 70
     1
 10
0.0
 20
0.0
 30
0.0
  3
*D27
  1

  0
LINE
  5
2DFF
330
2BA0
100
AcDbEntity
  8
MEASURE
 62
     9
370
    -2
100
AcDbLine
 10
159.7171144447105
 20
108.8312248320176
 30
0.0
 11
159.7171144447105
 21
125.2254533515679
 31
0.0
  0
LINE
  5
2E00
330
2BA0
100
AcDbEntity
  8
MEASURE
 62
     9
370
    -2
100
AcDbLine
 10
279.182924932735
 20
105.9312248320176
 30
0.0
 11
279.182924932735
 21
125.2254533515679
 31
0.0
  0
LINE
  5
2E01
330
2BA0
100
AcDbEntity
  8
MEASURE
 62
     9
370
    -2
100
AcDbLine
 10
163.4671144447105
 20
122.2254533515679
 30
0.0
 11
275.432924932735
 21
122.2254533515679
 31
0.0
  0
SOLID
  5
2E02
330
2BA0
100
AcDbEntity
  8
MEASURE
 62
     9
100
AcDbTrace
 10
163.4671144447105
 20
122.8504533515679
 30
0.0
 11
163.4671144447105
 21
121.6004533515679
 31
0.0
 12
159.7171144447105
 22
122.2254533515679
 32
0.0
 13
159.7171144447105
 23
122.2254533515679
 33
0.0
  0
SOLID
  5
2E03
330
2BA0
100
AcDbEntity
  8
MEASURE
 62
     9
100
AcDbTrace
 10
275.432924932735
 20
122.8504533515679
 30
0.0
 11
275.432924932735
 21
121.6004533515679
 31
0.0
 12
279.182924932735
 22
122.2254533515679
 32
0.0
 13
279.182924932735
 23
122.2254533515679
 33
0.0
  0
MTEXT
  5
2E04
330
2BA0
100
AcDbEntity
  8
MEASURE
 62
     2
100
AcDbMText
 10
219.4500196887227
 20
125.2254533515679
 30
0.0
 40
4.5
 41
0.0
 71
     5
 72
     1
  1
\A1;119.5
  7
AD-STANDARD
 73
     1
 44
1.0
1001
ACAD
1000
MTEXTBEGIN
1070
    73
1070
     1
1070
    44
1040
1.0
1070
    74
1070
     0
1000
MTEXTEND
  0
POINT
  5
2E05
330
2BA0
100
AcDbEntity
  8
DEFPOINTS
 62
     0
100
AcDbPoint
 10
159.7171144447105
 20
107.3312248320176
 30
0.0
  0
POINT
  5
2E06
330
2BA0
100
AcDbEntity
  8
DEFPOINTS
 62
     0
100
AcDbPoint
 10
279.182924932735
 20
104.4312248320176
 30
0.0
  0
POINT
  5
2E07
330
2BA0
100
AcDbEntity
  8
DEFPOINTS
 62
     0
100
AcDbPoint
 10
279.182924932735
 20
122.2254533515679
 30
0.0
  0
ENDBLK
  5
2BAB
330
2BA0
100
AcDbEntity
  8
0
100
AcDbBlockEnd
  0
BLOCK
  5
2BBC
330
2BAD
100
AcDbEntity
  8
0
100
AcDbBlockBegin
  2
*D28
 70
     1
 10
0.0
 20
0.0
 30
0.0
  3
*D28
  1

  0
LINE
  5
2E08
330
2BAD
100
AcDbEntity
  8
MEASURE
 62
     9
370
    -2
100
AcDbLine
 10
279.182924932735
 20
105.9312248320176
 30
0.0
 11
279.182924932735
 21
125.2254533515679
 31
0.0
  0
LINE
  5
2E09
330
2BAD
100
AcDbEntity
  8
MEASURE
 62
     9
370
    -2
100
AcDbLine
 10
280.7829249327349
 20
99.73122483201755
 30
0.0
 11
280.7829249327349
 21
125.2254533515679
 31
0.0
  0
LINE
  5
2E0A
330
2BAD
100
AcDbEntity
  8
MEASURE
 62
     9
370
    -2
100
AcDbLine
 10
275.432924932735
 20
122.2254533515679
 30
0.0
 11
271.682924932735
 21
122.2254533515679
 31
0.0
  0
LINE
  5
2E0B
330
2BAD
100
AcDbEntity
  8
MEASURE
 62
     9
370
    -2
100
AcDbLine
 10
284.5329249327349
 20
122.2254533515679
 30
0.0
 11
288.2829249327349
 21
122.2254533515679
 31
0.0
  0
LINE
  5
2E0C
330
2BAD
100
AcDbEntity
  8
MEASURE
 62
     9
370
    -2
100
AcDbLine
 10
304.4362996536763
 20
122.2254533515679
 30
0.0
 11
280.7829249327349
 21
122.2254533515679
 31
0.0
  0
MTEXT
  5
2E0D
330
2BAD
100
AcDbEntity
  8
MEASURE
 62
     2
100
AcDbMText
 10
297.6862996536763
 20
126.4040247801393
 30
0.0
 40
4.5
 41
0.0
 71
     5
 72
     1
  1
\A1;(1.6)
  7
AD-STANDARD
 73
     1
 44
1.0
1001
ACAD
1000
MTEXTBEGIN
1070
    73
1070
     1
1070
    44
1040
1.0
1070
    74
1070
     0
1000
MTEXTEND
  0
LINE
  5
2E0E
330
2BAD
100
AcDbEntity
  8
MEASURE
 62
     9
370
    -2
100
AcDbLine
 10
279.182924932735
 20
122.2254533515679
 30
0.0
 11
280.7829249327349
 21
122.2254533515679
 31
0.0
  0
LINE
  5
2E0F
330
2BAD
100
AcDbEntity
  8
MEASURE
 62
     9
370
    -2
100
AcDbLine
 10
279.182924932735
 20
122.2254533515679
 30
0.0
 11
280.7829249327349
 21
122.2254533515679
 31
0.0
  0
SOLID
  5
2E10
330
2BAD
100
AcDbEntity
  8
MEASURE
 62
     9
100
AcDbTrace
 10
275.432924932735
 20
122.8504533515679
 30
0.0
 11
275.432924932735
 21
121.6004533515679
 31
0.0
 12
279.182924932735
 22
122.2254533515679
 32
0.0
 13
279.182924932735
 23
122.2254533515679
 33
0.0
  0
SOLID
  5
2E11
330
2BAD
100
AcDbEntity
  8
MEASURE
 62
     9
100
AcDbTrace
 10
284.5329249327349
 20
122.8504533515679
 30
0.0
 11
284.5329249327349
 21
121.6004533515679
 31
0.0
 12
280.7829249327349
 22
122.2254533515679
 32
0.0
 13
280.7829249327349
 23
122.2254533515679
 33
0.0
  0
POINT
  5
2E12
330
2BAD
100
AcDbEntity
  8
DEFPOINTS
 62
     0
100
AcDbPoint
 10
279.182924932735
 20
104.4312248320176
 30
0.0
  0
POINT
  5
2E13
330
2BAD
100
AcDbEntity
  8
DEFPOINTS
 62
     0
100
AcDbPoint
 10
280.7829249327349
 20
98.23122483201755
 30
0.0
  0
POINT
  5
2E14
330
2BAD
100
AcDbEntity
  8
DEFPOINTS
 62
     0
100
AcDbPoint
 10
280.7829249327349
 20
122.2254533515679
 30
0.0
  0
ENDBLK
  5
2BBD
330
2BAD
100
AcDbEntity
  8
0
100
AcDbBlockEnd
  0
BLOCK
  5
2D7F
330
2D75
100
AcDbEntity
  8
0
100
AcDbBlockBegin
  2
*D29
 70
     1
 10
0.0
 20
0.0
 30
0.0
  3
*D29
  1

  0
LINE
  5
2E15
330
2D75
100
AcDbEntity
  8
MEASURE
 62
     9
370
    -2
100
AcDbLine
 10
32.56876631222615
 20
107.3312248320176
 30
0.0
 11
16.7549869600282
 21
107.3312248320176
 31
0.0
  0
LINE
  5
2E16
330
2D75
100
AcDbEntity
  8
MEASURE
 62
     9
370
    -2
100
AcDbLine
 10
32.56876631222615
 20
59.33122483201765
 30
0.0
 11
16.75498696002819
 21
59.33122483201765
 31
0.0
  0
LINE
  5
2E17
330
2D75
100
AcDbEntity
  8
MEASURE
 62
     9
370
    -2
100
AcDbLine
 10
19.75498696002819
 20
103.5812248320176
 30
0.0
 11
19.75498696002819
 21
63.08122483201765
 31
0.0
  0
SOLID
  5
2E18
330
2D75
100
AcDbEntity
  8
MEASURE
 62
     9
100
AcDbTrace
 10
19.12998696002819
 20
103.5812248320176
 30
0.0
 11
20.37998696002819
 21
103.5812248320176
 31
0.0
 12
19.75498696002819
 22
107.3312248320176
 32
0.0
 13
19.75498696002819
 23
107.3312248320176
 33
0.0
  0
SOLID
  5
2E19
330
2D75
100
AcDbEntity
  8
MEASURE
 62
     9
100
AcDbTrace
 10
19.12998696002819
 20
63.08122483201765
 30
0.0
 11
20.37998696002819
 21
63.08122483201765
 31
0.0
 12
19.75498696002819
 22
59.33122483201765
 32
0.0
 13
19.75498696002819
 23
59.33122483201765
 33
0.0
  0
MTEXT
  5
2E1A
330
2D75
100
AcDbEntity
  8
MEASURE
 62
     2
100
AcDbMText
 10
16.75498696002818
 20
83.33122483201767
 30
0.0
 40
4.5
 41
0.0
 71
     5
 72
     1
  1
\A1;48
  7
AD-STANDARD
 11
0.0000000000000001
 21
1.0
 31
0.0
 73
     1
 44
1.0
1001
ACAD
1000
MTEXTBEGIN
1070
    73
1070
     1
1070
    44
1040
1.0
1070
    74
1070
     0
1000
MTEXTEND
  0
POINT
  5
2E1B
330
2D75
100
AcDbEntity
  8
DEFPOINTS
 62
     0
100
AcDbPoint
 10
34.06876631222615
 20
107.3312248320176
 30
0.0
  0
POINT
  5
2E1C
330
2D75
100
AcDbEntity
  8
DEFPOINTS
 62
     0
100
AcDbPoint
 10
34.06876631222615
 20
59.33122483201765
 30
0.0
  0
POINT
  5
2E1D
330
2D75
100
AcDbEntity
  8
DEFPOINTS
 62
     0
100
AcDbPoint
 10
19.75498696002819
 20
59.33122483201765
 30
0.0
  0
ENDBLK
  5
2D80
330
2D75
100
AcDbEntity
  8
0
100
AcDbBlockEnd
  0
BLOCK
  5
2E5C
330
2E52
100
AcDbEntity
  8
0
100
AcDbBlockBegin
  2
*D33
 70
     1
 10
0.0
 20
0.0
 30
0.0
  3
*D33
  1

  0
LINE
  5
2EE9
330
2E52
100
AcDbEntity
  8
MEASURE
 62
     9
370
    -2
100
AcDbLine
 10
310.3021495061356
 20
213.4894856673668
 30
0.0
 11
327.7922239259158
 21
213.4894856673668
 31
0.0
  0
LINE
  5
2EEA
330
2E52
100
AcDbEntity
  8
MEASURE
 62
     9
370
    -2
100
AcDbLine
 10
310.3021495061356
 20
168.4894856673668
 30
0.0
 11
327.7922239259158
 21
168.4894856673667
 31
0.0
  0
LINE
  5
2EEB
330
2E52
100
AcDbEntity
  8
MEASURE
 62
     9
370
    -2
100
AcDbLine
 10
324.7922239259158
 20
209.7394856673667
 30
0.0
 11
324.7922239259158
 21
172.2394856673667
 31
0.0
  0
SOLID
  5
2EEC
330
2E52
100
AcDbEntity
  8
MEASURE
 62
     9
100
AcDbTrace
 10
324.1672239259158
 20
209.7394856673667
 30
0.0
 11
325.4172239259158
 21
209.7394856673667
 31
0.0
 12
324.7922239259158
 22
213.4894856673668
 32
0.0
 13
324.7922239259158
 23
213.4894856673668
 33
0.0
  0
SOLID
  5
2EED
330
2E52
100
AcDbEntity
  8
MEASURE
 62
     9
100
AcDbTrace
 10
324.1672239259158
 20
172.2394856673667
 30
0.0
 11
325.4172239259158
 21
172.2394856673667
 31
0.0
 12
324.7922239259158
 22
168.4894856673667
 32
0.0
 13
324.7922239259158
 23
168.4894856673667
 33
0.0
  0
MTEXT
  5
2EEE
330
2E52
100
AcDbEntity
  8
MEASURE
 62
     2
100
AcDbMText
 10
320.8922239259158
 20
190.9894856673668
 30
0.0
 40
4.5
 41
0.0
 71
     5
 72
     1
  1
\A1;45{\H2.700000;\S+0.6^  0;}
  7
AD-STANDARD
 11
0.0000000000000001
 21
1.0
 31
0.0
 73
     1
 44
1.0
1001
ACAD
1000
MTEXTBEGIN
1070
    73
1070
     1
1070
    44
1040
1.0
1070
    74
1070
     0
1000
MTEXTEND
  0
POINT
  5
2EEF
330
2E52
100
AcDbEntity
  8
DEFPOINTS
 62
     0
100
AcDbPoint
 10
308.8021495061356
 20
213.4894856673668
 30
0.0
  0
POINT
  5
2EF0
330
2E52
100
AcDbEntity
  8
DEFPOINTS
 62
     0
100
AcDbPoint
 10
308.8021495061356
 20
168.4894856673668
 30
0.0
  0
POINT
  5
2EF1
330
2E52
100
AcDbEntity
  8
DEFPOINTS
 62
     0
100
AcDbPoint
 10
324.7922239259158
 20
168.4894856673667
 30
0.0
  0
ENDBLK
  5
2E5D
330
2E52
100
AcDbEntity
  8
0
100
AcDbBlockEnd
  0
BLOCK
  5
2E68
330
2E5E
100
AcDbEntity
  8
0
100
AcDbBlockBegin
  2
*D34
 70
     1
 10
0.0
 20
0.0
 30
0.0
  3
*D34
  1

  0
LINE
  5
2EF2
330
2E5E
100
AcDbEntity
  8
MEASURE
 62
     9
370
    -2
100
AcDbLine
 10
308.8021495061356
 20
211.9894856673668
 30
0.0
 11
308.8021495061356
 21
200.2313362246221
 31
0.0
  0
LINE
  5
2EF3
330
2E5E
100
AcDbEntity
  8
MEASURE
 62
     9
370
    -2
100
AcDbLine
 10
400.8021495061355
 20
211.9894856673668
 30
0.0
 11
400.8021495061355
 21
200.2313362246221
 31
0.0
  0
LINE
  5
2EF4
330
2E5E
100
AcDbEntity
  8
MEASURE
 62
     9
370
    -2
100
AcDbLine
 10
312.5521495061356
 20
203.231336224622
 30
0.0
 11
397.0521495061356
 21
203.231336224622
 31
0.0
  0
SOLID
  5
2EF5
330
2E5E
100
AcDbEntity
  8
MEASURE
 62
     9
100
AcDbTrace
 10
312.5521495061356
 20
203.856336224622
 30
0.0
 11
312.5521495061356
 21
202.6063362246221
 31
0.0
 12
308.8021495061356
 22
203.231336224622
 32
0.0
 13
308.8021495061356
 23
203.231336224622
 33
0.0
  0
SOLID
  5
2EF6
330
2E5E
100
AcDbEntity
  8
MEASURE
 62
     9
100
AcDbTrace
 10
397.0521495061356
 20
203.856336224622
 30
0.0
 11
397.0521495061356
 21
202.6063362246221
 31
0.0
 12
400.8021495061355
 22
203.231336224622
 32
0.0
 13
400.8021495061355
 23
203.231336224622
 33
0.0
  0
MTEXT
  5
2EF7
330
2E5E
100
AcDbEntity
  8
MEASURE
 62
     2
100
AcDbMText
 10
354.8021495061356
 20
207.131336224622
 30
0.0
 40
4.5
 41
0.0
 71
     5
 72
     1
  1
\A1;92{\H2.700000;\S+0.8^  0;}
  7
AD-STANDARD
 73
     1
 44
1.0
1001
ACAD
1000
MTEXTBEGIN
1070
    73
1070
     1
1070
    44
1040
1.0
1070
    74
1070
     0
1000
MTEXTEND
  0
POINT
  5
2EF8
330
2E5E
100
AcDbEntity
  8
DEFPOINTS
 62
     0
100
AcDbPoint
 10
308.8021495061356
 20
213.4894856673668
 30
0.0
  0
POINT
  5
2EF9
330
2E5E
100
AcDbEntity
  8
DEFPOINTS
 62
     0
100
AcDbPoint
 10
400.8021495061355
 20
213.4894856673668
 30
0.0
  0
POINT
  5
2EFA
330
2E5E
100
AcDbEntity
  8
DEFPOINTS
 62
     0
100
AcDbPoint
 10
400.8021495061355
 20
203.231336224622
 30
0.0
  0
ENDBLK
  5
2E69
330
2E5E
100
AcDbEntity
  8
0
100
AcDbBlockEnd
  0
ENDSEC
  0
SECTION
  2
ENTITIES
  0
LINE
  5
112F
330
1F
100
AcDbEntity
  8
AD4530
  6
Continuous
100
AcDbLine
 10
33.06876631222614
 20
106.3312248320176
 30
0.0
 11
33.06876631222614
 21
60.33122483201765
 31
0.0
  0
ARC
  5
1130
330
1F
100
AcDbEntity
  8
AD4530
  6
Continuous
100
AcDbCircle
 10
34.06876631222615
 20
106.3312248320176
 30
0.0
 40
1.0
100
AcDbArc
 50
90.0
 51
180.0
  0
LINE
  5
1131
330
1F
100
AcDbEntity
  8
AD4530
  6
Continuous
100
AcDbLine
 10
129.0687663122261
 20
60.33122483201765
 30
0.0
 11
129.0687663122261
 21
106.3312248320176
 31
0.0
  0
ARC
  5
1132
330
1F
100
AcDbEntity
  8
AD4530
  6
Continuous
100
AcDbCircle
 10
128.0687663122261
 20
60.33122483201765
 30
0.0
 40
1.0
100
AcDbArc
 50
270.0
 51
0.0
  0
LINE
  5
1133
330
1F
100
AcDbEntity
  8
AD4530
  6
Continuous
100
AcDbLine
 10
128.0687663122261
 20
107.3312248320176
 30
0.0
 11
34.06876631222615
 21
107.3312248320176
 31
0.0
  0
ARC
  5
1134
330
1F
100
AcDbEntity
  8
AD4530
  6
Continuous
100
AcDbCircle
 10
128.0687663122261
 20
106.3312248320176
 30
0.0
 40
1.0
100
AcDbArc
 50
0.0
 51
90.0
  0
LINE
  5
1135
330
1F
100
AcDbEntity
  8
AD4530
  6
Continuous
100
AcDbLine
 10
34.06876631222615
 20
59.33122483201765
 30
0.0
 11
128.0687663122261
 21
59.33122483201765
 31
0.0
  0
ARC
  5
1136
330
1F
100
AcDbEntity
  8
AD4530
  6
Continuous
100
AcDbCircle
 10
34.06876631222615
 20
60.33122483201765
 30
0.0
 40
1.0
100
AcDbArc
 50
180.0
 51
270.0
  0
LINE
  5
11E3
330
1F
100
AcDbEntity
  8
AD4530
  6
Continuous
100
AcDbLine
 10
127.0687663122261
 20
106.3312248320176
 30
0.0
 11
35.06876631222615
 21
106.3312248320176
 31
0.0
  0
ARC
  5
11E4
330
1F
100
AcDbEntity
  8
AD4530
  6
Continuous
100
AcDbCircle
 10
127.0687663122261
 20
105.3312248320176
 30
0.0
 40
1.000000000000003
100
AcDbArc
 50
0.0
 51
90.0
  0
LINE
  5
11E5
330
1F
100
AcDbEntity
  8
AD4530
  6
Continuous
100
AcDbLine
 10
35.06876631222615
 20
60.33122483201765
 30
0.0
 11
127.0687663122261
 21
60.33122483201765
 31
0.0
  0
ARC
  5
11E6
330
1F
100
AcDbEntity
  8
AD4530
  6
Continuous
100
AcDbCircle
 10
35.06876631222615
 20
61.33122483201766
 30
0.0
 40
1.000000000000017
100
AcDbArc
 50
179.9999999999996
 51
270.0
  0
LINE
  5
11E7
330
1F
100
AcDbEntity
  8
AD4530
  6
Continuous
100
AcDbLine
 10
128.0687663122261
 20
61.33122483201766
 30
0.0
 11
128.0687663122261
 21
105.3312248320176
 31
0.0
  0
ARC
  5
11E8
330
1F
100
AcDbEntity
  8
AD4530
  6
Continuous
100
AcDbCircle
 10
127.0687663122261
 20
61.33122483201766
 30
0.0
 40
1.0
100
AcDbArc
 50
270.0
 51
0.0
  0
LINE
  5
11E9
330
1F
100
AcDbEntity
  8
AD4530
  6
Continuous
100
AcDbLine
 10
34.06876631222615
 20
105.3312248320176
 30
0.0
 11
34.06876631222615
 21
61.33122483201766
 31
0.0
  0
ARC
  5
11EA
330
1F
100
AcDbEntity
  8
AD4530
  6
Continuous
100
AcDbCircle
 10
35.06876631222615
 20
105.3312248320176
 30
0.0
 40
1.0
100
AcDbArc
 50
90.0
 51
180.0
  0
LINE
  5
1460
330
1F
100
AcDbEntity
  8
AD4530
  6
Continuous
 62
     9
100
AcDbLine
 10
34.16876631222605
 20
67.43122483201765
 30
0.0
 11
127.9687663122261
 21
67.43122483201767
 31
0.0
  0
LINE
  5
1468
330
1F
100
AcDbEntity
  8
AD4530
  6
Continuous
 62
     9
100
AcDbLine
 10
40.86876631222614
 20
88.13122483201764
 30
0.0
 11
44.86876631222614
 21
88.13122483201764
 31
0.0
  0
LINE
  5
1469
330
1F
100
AcDbEntity
  8
AD4530
  6
Continuous
 62
     9
100
AcDbLine
 10
44.86876631222614
 20
88.13122483201764
 30
0.0
 11
44.86876631222614
 21
86.53122483201764
 31
0.0
  0
LINE
  5
146A
330
1F
100
AcDbEntity
  8
AD4530
  6
Continuous
 62
     9
100
AcDbLine
 10
44.86876631222614
 20
86.53122483201768
 30
0.0
 11
40.86876631222604
 21
86.53122483201768
 31
0.0
  0
LINE
  5
146B
330
1F
100
AcDbEntity
  8
AD4530
  6
Continuous
 62
     9
100
AcDbLine
 10
40.86876631222614
 20
86.53122483201768
 30
0.0
 11
40.86876631222614
 21
88.13122483201766
 31
0.0
  0
LINE
  5
146C
330
1F
100
AcDbEntity
  8
AD4530
  6
Continuous
 62
     9
100
AcDbLine
 10
41.66876631222613
 20
78.13122483201763
 30
0.0
 11
44.06876631222615
 21
78.13122483201763
 31
0.0
  0
ARC
  5
146D
330
1F
100
AcDbEntity
  8
AD4530
  6
Continuous
 62
     9
100
AcDbCircle
 10
41.66876631222613
 20
77.33122483201765
 30
0.0
 40
0.7999999999999995
100
AcDbArc
 50
90.0
 51
270.0
  0
ARC
  5
146E
330
1F
100
AcDbEntity
  8
AD4530
  6
Continuous
 62
     9
100
AcDbCircle
 10
80.86876631222613
 20
98.53122483201765
 30
0.0
 40
0.8000000000000003
100
AcDbArc
 50
90.0
 51
270.0
  0
LINE
  5
146F
330
1F
100
AcDbEntity
  8
AD4530
  6
Continuous
 62
     9
100
AcDbLine
 10
83.26876631222615
 20
97.73122483201767
 30
0.0
 11
80.86876631222613
 21
97.73122483201767
 31
0.0
  0
ARC
  5
1470
330
1F
100
AcDbEntity
  8
AD4530
  6
Continuous
 62
     9
100
AcDbCircle
 10
83.26876631222615
 20
98.53122483201765
 30
0.0
 40
0.8000000000000003
100
AcDbArc
 50
270.0
 51
90.0
  0
LINE
  5
1471
330
1F
100
AcDbEntity
  8
AD4530
  6
Continuous
 62
     9
100
AcDbLine
 10
80.86876631222613
 20
99.33122483201765
 30
0.0
 11
83.26876631222615
 21
99.33122483201765
 31
0.0
  0
ARC
  5
1472
330
1F
100
AcDbEntity
  8
AD4530
  6
Continuous
 62
     9
100
AcDbCircle
 10
68.86876631222614
 20
98.53122483201765
 30
0.0
 40
0.8000000000000003
100
AcDbArc
 50
90.0
 51
270.0
  0
LINE
  5
1473
330
1F
100
AcDbEntity
  8
AD4530
  6
Continuous
 62
     9
100
AcDbLine
 10
71.26876631222614
 20
97.73122483201767
 30
0.0
 11
68.86876631222605
 21
97.73122483201767
 31
0.0
  0
ARC
  5
1474
330
1F
100
AcDbEntity
  8
AD4530
  6
Continuous
 62
     9
100
AcDbCircle
 10
71.26876631222614
 20
98.53122483201765
 30
0.0
 40
0.8000000000000003
100
AcDbArc
 50
270.0
 51
90.0
  0
LINE
  5
1475
330
1F
100
AcDbEntity
  8
AD4530
  6
Continuous
 62
     9
100
AcDbLine
 10
68.86876631222614
 20
99.33122483201765
 30
0.0
 11
71.26876631222614
 21
99.33122483201765
 31
0.0
  0
LINE
  5
1476
330
1F
100
AcDbEntity
  8
AD4530
  6
Continuous
 62
     9
100
AcDbLine
 10
59.26876631222615
 20
97.73122483201767
 30
0.0
 11
56.86876631222604
 21
97.73122483201767
 31
0.0
  0
ARC
  5
1477
330
1F
100
AcDbEntity
  8
AD4530
  6
Continuous
 62
     9
100
AcDbCircle
 10
59.26876631222615
 20
98.53122483201765
 30
0.0
 40
0.8000000000000003
100
AcDbArc
 50
270.0
 51
90.0
  0
ARC
  5
1478
330
1F
100
AcDbEntity
  8
AD4530
  6
Continuous
 62
     9
100
AcDbCircle
 10
56.86876631222614
 20
98.53122483201765
 30
0.0
 40
0.8000000000000003
100
AcDbArc
 50
90.0
 51
270.0
  0
LINE
  5
1479
330
1F
100
AcDbEntity
  8
AD4530
  6
Continuous
 62
     9
100
AcDbLine
 10
56.86876631222614
 20
99.33122483201765
 30
0.0
 11
59.26876631222615
 21
99.33122483201765
 31
0.0
  0
ARC
  5
147A
330
1F
100
AcDbEntity
  8
AD4530
  6
Continuous
 62
     9
100
AcDbCircle
 10
41.66876631222613
 20
72.33122483201765
 30
0.0
 40
0.8000000000000003
100
AcDbArc
 50
90.0
 51
270.0
  0
LINE
  5
147B
330
1F
100
AcDbEntity
  8
AD4530
  6
Continuous
 62
     9
100
AcDbLine
 10
41.66876631222613
 20
73.13122483201766
 30
0.0
 11
44.06876631222615
 21
73.13122483201766
 31
0.0
  0
ARC
  5
147C
330
1F
100
AcDbEntity
  8
AD4530
  6
Continuous
 62
     9
100
AcDbCircle
 10
44.06876631222604
 20
72.33122483201765
 30
0.0
 40
0.8000000000000003
100
AcDbArc
 50
270.0
 51
90.0
  0
LINE
  5
147D
330
1F
100
AcDbEntity
  8
AD4530
  6
Continuous
 62
     9
100
AcDbLine
 10
44.06876631222604
 20
71.53122483201764
 30
0.0
 11
41.66876631222605
 21
71.53122483201764
 31
0.0
  0
LINE
  5
147E
330
1F
100
AcDbEntity
  8
AD4530
  6
Continuous
 62
     9
100
AcDbLine
 10
44.06876631222604
 20
76.53122483201764
 30
0.0
 11
41.66876631222605
 21
76.53122483201764
 31
0.0
  0
ARC
  5
147F
330
1F
100
AcDbEntity
  8
AD4530
  6
Continuous
 62
     9
100
AcDbCircle
 10
44.06876631222604
 20
77.33122483201765
 30
0.0
 40
0.7999999999999995
100
AcDbArc
 50
270.0
 51
90.0
  0
LINE
  5
1480
330
1F
100
AcDbEntity
  8
AD4530
  6
Continuous
 62
     9
100
AcDbLine
 10
47.46876631222614
 20
78.23122483201766
 30
0.0
 11
47.46876631222614
 21
96.43122483201768
 31
0.0
  0
LINE
  5
1481
330
1F
100
AcDbEntity
  8
AD4530
  6
Continuous
 62
     9
100
AcDbLine
 10
99.46876631222615
 20
78.23122483201763
 30
0.0
 11
47.46876631222614
 21
78.23122483201763
 31
0.0
  0
LINE
  5
1482
330
1F
100
AcDbEntity
  8
AD4530
  6
Continuous
 62
     9
100
AcDbLine
 10
99.46876631222615
 20
96.43122483201764
 30
0.0
 11
99.46876631222615
 21
78.23122483201763
 31
0.0
  0
LINE
  5
1483
330
1F
100
AcDbEntity
  8
AD4530
  6
Continuous
 62
     9
100
AcDbLine
 10
47.46876631222614
 20
96.43122483201764
 30
0.0
 11
99.46876631222615
 21
96.43122483201764
 31
0.0
  0
LINE
  5
1484
330
1F
100
AcDbEntity
  8
AD4530
  6
Continuous
 62
     9
100
AcDbLine
 10
102.418682440077
 20
99.98139742946385
 30
0.0
 11
102.418682440077
 21
91.68139742946383
 31
0.0
  0
ARC
  5
1485
330
1F
100
AcDbEntity
  8
AD4530
  6
Continuous
 62
     9
100
AcDbCircle
 10
103.0186824400771
 20
99.98139742946385
 30
0.0
 40
0.5999999999999999
100
AcDbArc
 50
90.0
 51
180.0
  0
LINE
  5
1486
330
1F
100
AcDbEntity
  8
AD4530
  6
Continuous
 62
     9
100
AcDbLine
 10
112.4187614158718
 20
71.68139742762545
 30
0.0
 11
112.4187614158718
 21
79.98139742762546
 31
0.0
  0
ARC
  5
1487
330
1F
100
AcDbEntity
  8
AD4530
  6
Continuous
 62
     9
100
AcDbCircle
 10
113.0187614158718
 20
71.68139742762545
 30
0.0
 40
0.5999999999999999
100
AcDbArc
 50
180.0
 51
270.0
  0
LINE
  5
1488
330
1F
100
AcDbEntity
  8
AD4530
  6
Continuous
 62
     9
100
AcDbLine
 10
121.3187614158717
 20
71.08139742762546
 30
0.0
 11
113.0187614158718
 21
71.08139742762546
 31
0.0
  0
ARC
  5
1489
330
1F
100
AcDbEntity
  8
AD4530
  6
Continuous
 62
     9
100
AcDbCircle
 10
121.3187614158717
 20
71.68139742762545
 30
0.0
 40
0.5999999999999963
100
AcDbArc
 50
270.0
 51
0.0
  0
LINE
  5
148A
330
1F
100
AcDbEntity
  8
AD4530
  6
Continuous
 62
     9
100
AcDbLine
 10
113.0187614158718
 20
80.58139742762547
 30
0.0
 11
121.3187614158718
 21
80.58139742762547
 31
0.0
  0
ARC
  5
148B
330
1F
100
AcDbEntity
  8
AD4530
  6
Continuous
 62
     9
100
AcDbCircle
 10
113.0187614158718
 20
79.98139742762546
 30
0.0
 40
0.6000000000000033
100
AcDbArc
 50
90.0
 51
180.0
  0
LINE
  5
148C
330
1F
100
AcDbEntity
  8
AD4530
  6
Continuous
 62
     9
100
AcDbLine
 10
121.9187614158718
 20
79.98139742762546
 30
0.0
 11
121.9187614158718
 21
71.68139742762545
 31
0.0
  0
ARC
  5
148D
330
1F
100
AcDbEntity
  8
AD4530
  6
Continuous
 62
     9
100
AcDbCircle
 10
121.3187614158717
 20
79.98139742762546
 30
0.0
 40
0.5999999999999999
100
AcDbArc
 50
0.0
 51
90.0
  0
LINE
  5
148E
330
1F
100
AcDbEntity
  8
AD4530
  6
Continuous
 62
     9
100
AcDbLine
 10
102.418682440077
 20
81.68139742941937
 30
0.0
 11
102.418682440077
 21
89.98139742941939
 31
0.0
  0
ARC
  5
148F
330
1F
100
AcDbEntity
  8
AD4530
  6
Continuous
 62
     9
100
AcDbCircle
 10
103.0186824400771
 20
81.68139742941937
 30
0.0
 40
0.6000000000000001
100
AcDbArc
 50
180.0
 51
270.0
  0
LINE
  5
1490
330
1F
100
AcDbEntity
  8
AD4530
  6
Continuous
 62
     9
100
AcDbLine
 10
111.318682440077
 20
81.08139742941938
 30
0.0
 11
103.0186824400771
 21
81.08139742941938
 31
0.0
  0
ARC
  5
1491
330
1F
100
AcDbEntity
  8
AD4530
  6
Continuous
 62
     9
100
AcDbCircle
 10
111.318682440077
 20
81.68139742941937
 30
0.0
 40
0.5999999999999999
100
AcDbArc
 50
270.0
 51
0.0
  0
LINE
  5
1492
330
1F
100
AcDbEntity
  8
AD4530
  6
Continuous
 62
     9
100
AcDbLine
 10
112.4187614158718
 20
81.68139742941937
 30
0.0
 11
112.4187614158718
 21
89.98139742941935
 31
0.0
  0
ARC
  5
1493
330
1F
100
AcDbEntity
  8
AD4530
  6
Continuous
 62
     9
100
AcDbCircle
 10
113.0187614158718
 20
81.68139742941937
 30
0.0
 40
0.5999999999999999
100
AcDbArc
 50
180.0
 51
270.0
  0
LINE
  5
1494
330
1F
100
AcDbEntity
  8
AD4530
  6
Continuous
 62
     9
100
AcDbLine
 10
121.3187614158718
 20
81.08139742941938
 30
0.0
 11
113.0187614158718
 21
81.08139742941938
 31
0.0
  0
ARC
  5
1495
330
1F
100
AcDbEntity
  8
AD4530
  6
Continuous
 62
     9
100
AcDbCircle
 10
121.3187614158718
 20
81.68139742941937
 30
0.0
 40
0.5999999999999963
100
AcDbArc
 50
270.0
 51
0.0
  0
LINE
  5
1496
330
1F
100
AcDbEntity
  8
AD4530
  6
Continuous
 62
     9
100
AcDbLine
 10
103.0186824400771
 20
90.58139742941936
 30
0.0
 11
111.318682440077
 21
90.58139742941936
 31
0.0
  0
ARC
  5
1497
330
1F
100
AcDbEntity
  8
AD4530
  6
Continuous
 62
     9
100
AcDbCircle
 10
103.0186824400771
 20
89.98139742941935
 30
0.0
 40
0.5999999999999999
100
AcDbArc
 50
90.0
 51
180.0
  0
LINE
  5
1498
330
1F
100
AcDbEntity
  8
AD4530
  6
Continuous
 62
     9
100
AcDbLine
 10
111.918682440077
 20
89.98139742941935
 30
0.0
 11
111.918682440077
 21
81.68139742941935
 31
0.0
  0
ARC
  5
1499
330
1F
100
AcDbEntity
  8
AD4530
  6
Continuous
 62
     9
100
AcDbCircle
 10
111.318682440077
 20
89.98139742941935
 30
0.0
 40
0.5999999999999999
100
AcDbArc
 50
0.0
 51
90.0
  0
LINE
  5
149A
330
1F
100
AcDbEntity
  8
AD4530
  6
Continuous
 62
     9
100
AcDbLine
 10
113.0187614158718
 20
90.58139742941936
 30
0.0
 11
121.3187614158718
 21
90.58139742941936
 31
0.0
  0
ARC
  5
149B
330
1F
100
AcDbEntity
  8
AD4530
  6
Continuous
 62
     9
100
AcDbCircle
 10
113.0187614158718
 20
89.98139742941935
 30
0.0
 40
0.5999999999999963
100
AcDbArc
 50
90.0
 51
180.0
  0
LINE
  5
149C
330
1F
100
AcDbEntity
  8
AD4530
  6
Continuous
 62
     9
100
AcDbLine
 10
121.9187614158718
 20
89.98139742941935
 30
0.0
 11
121.9187614158718
 21
81.68139742941935
 31
0.0
  0
ARC
  5
149D
330
1F
100
AcDbEntity
  8
AD4530
  6
Continuous
 62
     9
100
AcDbCircle
 10
121.3187614158718
 20
89.98139742941935
 30
0.0
 40
0.5999999999999999
100
AcDbArc
 50
0.0
 51
90.0
  0
LINE
  5
149E
330
1F
100
AcDbEntity
  8
AD4530
  6
Continuous
 62
     9
100
AcDbLine
 10
121.3187614158717
 20
91.08139742946386
 30
0.0
 11
113.0187614158718
 21
91.08139742946386
 31
0.0
  0
ARC
  5
149F
330
1F
100
AcDbEntity
  8
AD4530
  6
Continuous
 62
     9
100
AcDbCircle
 10
121.3187614158717
 20
91.68139742946383
 30
0.0
 40
0.6000000000000033
100
AcDbArc
 50
270.0
 51
0.0
  0
LINE
  5
14A0
330
1F
100
AcDbEntity
  8
AD4530
  6
Continuous
 62
     9
100
AcDbLine
 10
112.4187614158718
 20
91.68139742946383
 30
0.0
 11
112.4187614158718
 21
99.98139742946381
 31
0.0
  0
ARC
  5
14A1
330
1F
100
AcDbEntity
  8
AD4530
  6
Continuous
 62
     9
100
AcDbCircle
 10
113.0187614158718
 20
91.68139742946383
 30
0.0
 40
0.5999999999999999
100
AcDbArc
 50
180.0
 51
270.0
  0
LINE
  5
14A2
330
1F
100
AcDbEntity
  8
AD4530
  6
Continuous
 62
     9
100
AcDbLine
 10
111.918682440077
 20
91.68139742946383
 30
0.0
 11
111.918682440077
 21
99.98139742946385
 31
0.0
  0
ARC
  5
14A3
330
1F
100
AcDbEntity
  8
AD4530
  6
Continuous
 62
     9
100
AcDbCircle
 10
111.318682440077
 20
91.68139742946383
 30
0.0
 40
0.5999999999999999
100
AcDbArc
 50
270.0
 51
0.0
  0
LINE
  5
14A4
330
1F
100
AcDbEntity
  8
AD4530
  6
Continuous
 62
     9
100
AcDbLine
 10
103.0186824400771
 20
91.08139742946386
 30
0.0
 11
111.318682440077
 21
91.08139742946386
 31
0.0
  0
ARC
  5
14A5
330
1F
100
AcDbEntity
  8
AD4530
  6
Continuous
 62
     9
100
AcDbCircle
 10
103.0186824400771
 20
91.68139742946383
 30
0.0
 40
0.6000000000000007
100
AcDbArc
 50
180.0
 51
270.0
  0
LINE
  5
14A6
330
1F
100
AcDbEntity
  8
AD4530
  6
Continuous
 62
     9
100
AcDbLine
 10
121.9187614158718
 20
99.98139742946385
 30
0.0
 11
121.9187614158718
 21
91.68139742946385
 31
0.0
  0
ARC
  5
14A7
330
1F
100
AcDbEntity
  8
AD4530
  6
Continuous
 62
     9
100
AcDbCircle
 10
121.3187614158717
 20
99.98139742946385
 30
0.0
 40
0.5999999999999999
100
AcDbArc
 50
0.0
 51
90.0
  0
LINE
  5
14A8
330
1F
100
AcDbEntity
  8
AD4530
  6
Continuous
 62
     9
100
AcDbLine
 10
113.0187614158718
 20
100.5813974294638
 30
0.0
 11
121.3187614158718
 21
100.5813974294638
 31
0.0
  0
ARC
  5
14A9
330
1F
100
AcDbEntity
  8
AD4530
  6
Continuous
 62
     9
100
AcDbCircle
 10
113.0187614158718
 20
99.98139742946385
 30
0.0
 40
0.5999999999999963
100
AcDbArc
 50
90.0
 51
180.0
  0
LINE
  5
14AA
330
1F
100
AcDbEntity
  8
AD4530
  6
Continuous
 62
     9
100
AcDbLine
 10
111.318682440077
 20
100.5813974294638
 30
0.0
 11
103.0186824400771
 21
100.5813974294638
 31
0.0
  0
ARC
  5
14AB
330
1F
100
AcDbEntity
  8
AD4530
  6
Continuous
 62
     9
100
AcDbCircle
 10
111.318682440077
 20
99.98139742946385
 30
0.0
 40
0.5999999999999999
100
AcDbArc
 50
0.0
 51
90.0
  0
LINE
  5
1AB0
330
1F
100
AcDbEntity
  8
AD4530
  6
Continuous
100
AcDbLine
 10
151.682924932735
 20
252.1776500434285
 30
0.0
 11
159.8829249327349
 21
252.1776500434284
 31
0.0
  0
LINE
  5
1AB4
330
1F
100
AcDbEntity
  8
AD4530
  6
Continuous
 62
     9
100
AcDbLine
 10
157.182924932735
 20
156.1776500434286
 30
0.0
 11
157.182924932735
 21
252.1776500434285
 31
0.0
  0
LINE
  5
1AB5
330
1F
100
AcDbEntity
  8
AD4530
  6
Continuous
100
AcDbLine
 10
151.682924932735
 20
156.1776500434286
 30
0.0
 11
151.682924932735
 21
252.1776500434285
 31
0.0
  0
LINE
  5
1ABF
330
1F
100
AcDbEntity
  8
AD4530
  6
Continuous
 62
     9
100
AcDbLine
 10
174.582924932735
 20
249.8048449002985
 30
0.0
 11
174.582924932735
 21
249.9776500434284
 31
0.0
  0
LINE
  5
1AC0
330
1F
100
AcDbEntity
  8
AD4530
  6
Continuous
 62
     9
100
AcDbLine
 10
164.882924932735
 20
247.3276500434284
 30
0.0
 11
164.882924932735
 21
240.1276500434284
 31
0.0
  0
LINE
  5
1AC1
330
1F
100
AcDbEntity
  8
AD4530
  6
Continuous
 62
     9
100
AcDbLine
 10
176.582924932735
 20
247.3276500434284
 30
0.0
 11
176.582924932735
 21
240.1276500434285
 31
0.0
  0
LINE
  5
1AC4
330
1F
100
AcDbEntity
  8
AD4530
  6
Continuous
 62
     9
100
AcDbLine
 10
167.882924932735
 20
247.3276500434284
 30
0.0
 11
167.882924932735
 21
240.1276500434284
 31
0.0
  0
LINE
  5
1ACF
330
1F
100
AcDbEntity
  8
AD4530
  6
Continuous
 62
     9
100
AcDbLine
 10
176.582924932735
 20
240.1276500434285
 30
0.0
 11
164.882924932735
 21
240.1276500434284
 31
0.0
  0
LINE
  5
1AD1
330
1F
100
AcDbEntity
  8
AD4530
  6
Continuous
 62
     9
100
AcDbLine
 10
176.582924932735
 20
247.3276500434284
 30
0.0
 11
164.882924932735
 21
247.3276500434284
 31
0.0
  0
LINE
  5
1AD2
330
1F
100
AcDbEntity
  8
AD4530
  6
Continuous
 62
     9
100
AcDbLine
 10
175.982924932735
 20
240.1276500434284
 30
0.0
 11
175.982924932735
 21
247.3276500434284
 31
0.0
  0
LINE
  5
1AD4
330
1F
100
AcDbEntity
  8
AD4530
  6
Continuous
100
AcDbLine
 10
281.7829249327349
 20
160.2649065166191
 30
0.0
 11
281.7829249327349
 21
166.3899291895672
 31
0.0
  0
SPLINE
  5
1AD5
330
1F
100
AcDbEntity
  8
AD4530
  6
Continuous
100
AcDbSpline
210
0.0
220
0.0
230
1.0
 70
     8
 71
     3
 72
    12
 73
     8
 74
     0
 42
0.0000000001
 43
0.0000000001
 40
0.0
 40
0.0
 40
0.0
 40
0.0
 40
0.2499999999999999
 40
0.2499999999999999
 40
0.5
 40
0.5
 40
0.6310504184637883
 40
0.6310504184637883
 40
0.6310504184637883
 40
0.6310504184637883
 10
282.5538145508701
 20
162.1732429346008
 30
0.0
 10
282.5754788959436
 20
162.2604794818371
 30
0.0
 10
282.5926237546026
 20
162.3359107735607
 30
0.0
 10
282.616132076882
 20
162.4546134187432
 30
0.0
 10
282.6222711380421
 20
162.4969909015739
 30
0.0
 10
282.6222902674383
 20
162.5299164177415
 30
0.0
 10
282.6205993063642
 20
162.5355631692535
 30
0.0
 10
282.6173066198781
 20
162.5355724817863
 30
0.0
  0
ARC
  5
1AD6
330
1F
100
AcDbEntity
  8
AD4530
  6
Continuous
100
AcDbCircle
 10
280.4042619736479
 20
163.5450865773886
 30
0.0
 40
2.219707052141227
100
AcDbArc
 50
354.2712141337006
 51
14.44335241316851
  0
SPLINE
  5
1AD7
330
1F
100
AcDbEntity
  8
AD4530
  6
Continuous
100
AcDbSpline
210
0.0
220
0.0
230
1.0
 70
     8
 71
     3
 72
    12
 73
     8
 74
     0
 42
0.0000000001
 43
0.0000000001
 40
0.3549274930202546
 40
0.3549274930202546
 40
0.3549274930202546
 40
0.3549274930202546
 40
0.5
 40
0.5
 40
0.75
 40
0.75
 40
1.0
 40
1.0
 40
1.0
 40
1.0
 10
282.6161727122969
 20
164.1940938258363
 30
0.0
 10
282.6202061028129
 20
164.1683095520259
 30
0.0
 10
282.6222764055854
 20
164.1487783092079
 30
0.0
 10
282.6222962389149
 20
164.1146411830282
 30
0.0
 10
282.6161311405012
 20
164.1136988128417
 30
0.0
 10
282.5927759980031
 20
164.152584303531
 30
0.0
 10
282.5754819149228
 20
164.1924109735291
 30
0.0
 10
282.5538145508701
 20
164.2494127990037
 30
0.0
  0
ELLIPSE
  5
1AD8
330
1F
100
AcDbEntity
  8
AD4530
  6
Continuous
100
AcDbEllipse
 10
277.0223828844726
 20
163.6204270395415
 30
0.0
 11
5.567078171323865
 21
-0.000000000000001
 31
0.0
210
0.0
220
0.0
230
1.0
 40
1.0
 41
0.1132248680864198
 42
0.1494957083700459
  0
ARC
  5
1AD9
330
1F
100
AcDbEntity
  8
AD4530
  6
Continuous
100
AcDbCircle
 10
278.651825718834
 20
164.1478340609993
 30
0.0
 40
3.828732910953348
100
AcDbArc
 50
355.6109186292265
 51
4.389081370767015
  0
ELLIPSE
  5
1ADA
330
1F
100
AcDbEntity
  8
AD4530
  6
Continuous
100
AcDbEllipse
 10
277.0223828895404
 20
163.0344086671821
 30
0.0
 11
5.567078166212582
 21
-0.000000000000001
 31
0.0
210
0.0
220
0.0
230
1.0
 40
1.0
 41
0.1132248680692611
 42
0.1494957083863544
  0
ARC
  5
1ADB
330
1F
100
AcDbEntity
  8
AD4530
  6
Continuous
100
AcDbCircle
 10
280.404261973648
 20
163.1097491287977
 30
0.0
 40
2.219707052141193
100
AcDbArc
 50
345.5566475868315
 51
14.44335241316851
  0
ELLIPSE
  5
1ADC
330
1F
100
AcDbEntity
  8
AD4530
  6
Continuous
100
AcDbEllipse
 10
277.0223828861407
 20
163.5188483013661
 30
0.0
 11
5.589825892366795
 21
-0.000000000000001
 31
0.0
210
0.0
220
0.0
230
1.0
 40
1.0
 41
-0.2265837063588199
 42
-0.1723235346467822
  0
ELLIPSE
  5
1ADD
330
1F
100
AcDbEntity
  8
AD4530
  6
Continuous
100
AcDbEllipse
 10
277.0223828846748
 20
162.0716641965963
 30
0.0
 11
-5.458180674707365
 21
-0.0000000000001655
 31
0.0
210
0.0
220
0.0
230
1.0
 40
0.546944138590786
 41
3.077424696284251
 42
3.205760610895221
  0
ELLIPSE
  5
1ADE
330
1F
100
AcDbEntity
  8
AD4530
  6
Continuous
100
AcDbEllipse
 10
277.0223828867546
 20
163.1359874042158
 30
0.0
 11
5.589825891739715
 21
-0.000000000000001
 31
0.0
210
0.0
220
0.0
230
1.0
 40
1.0
 41
-0.2265837063612752
 42
-0.1723235346431609
  0
LINE
  5
1ADF
330
1F
100
AcDbEntity
  8
AD4530
  6
Continuous
100
AcDbLine
 10
282.4774029739349
 20
162.1732429346008
 30
0.0
 11
282.5538145508701
 21
162.1732429346008
 31
0.0
  0
LINE
  5
1AE0
330
1F
100
AcDbEntity
  8
AD4530
  6
Continuous
100
AcDbLine
 10
282.4792147362585
 20
164.2494127990037
 30
0.0
 11
282.5538145508701
 21
164.2494127990037
 31
0.0
  0
LINE
  5
1AE1
330
1F
100
AcDbEntity
  8
AD4530
  6
Continuous
100
AcDbLine
 10
282.4802484147517
 20
164.0987318745627
 30
0.0
 11
282.5538145508701
 21
164.0987318745627
 31
0.0
  0
ARC
  5
1AE2
330
1F
100
AcDbEntity
  8
AD4530
  6
Continuous
100
AcDbCircle
 10
277.0223828849392
 20
163.3274178530932
 30
0.0
 40
5.660542047795702
100
AcDbArc
 50
8.895444087884278
 51
32.7536418193119
  0
ARC
  5
1AE3
330
1F
100
AcDbEntity
  8
AD4530
  6
Continuous
100
AcDbCircle
 10
277.0223828849392
 20
163.3274178530932
 30
0.0
 40
5.660542047795687
100
AcDbArc
 50
327.2463581806857
 51
351.0963165304358
  0
LINE
  5
1AE4
330
1F
100
AcDbEntity
  8
AD4530
  6
Continuous
100
AcDbLine
 10
280.7829249327349
 20
160.1774178530931
 30
0.0
 11
281.7829249327349
 21
160.2649065166191
 31
0.0
  0
LINE
  5
1AE5
330
1F
100
AcDbEntity
  8
AD4530
  6
Continuous
100
AcDbLine
 10
281.7829249327349
 20
166.3899291895672
 30
0.0
 11
280.7829249327349
 21
166.4774178530931
 31
0.0
  0
LINE
  5
1AE6
330
1F
100
AcDbEntity
  8
AD4530
  6
Continuous
100
AcDbLine
 10
282.4804560022215
 20
164.1191480824686
 30
0.0
 11
282.6172943643754
 21
164.1191480824686
 31
0.0
  0
LINE
  5
1AE7
330
1F
100
AcDbEntity
  8
AD4530
  6
Continuous
100
AcDbLine
 10
282.6172943643754
 20
162.5356876237177
 30
0.0
 11
282.5486882498537
 21
162.5356876237177
 31
0.0
  0
LINE
  5
1AE8
330
1F
100
AcDbEntity
  8
AD4530
  6
Continuous
100
AcDbLine
 10
281.7829249327349
 20
241.9651775885049
 30
0.0
 11
281.7829249327349
 21
248.090200261453
 31
0.0
  0
SPLINE
  5
1AE9
330
1F
100
AcDbEntity
  8
AD4530
  6
Continuous
100
AcDbSpline
210
0.0
220
0.0
230
1.0
 70
     8
 71
     3
 72
    12
 73
     8
 74
     0
 42
0.0000000001
 43
0.0000000001
 40
0.0
 40
0.0
 40
0.0
 40
0.0
 40
0.2499999999999999
 40
0.2499999999999999
 40
0.5
 40
0.5
 40
0.6310504184637896
 40
0.6310504184637896
 40
0.6310504184637896
 40
0.6310504184637896
 10
282.5538145508701
 20
243.8735140064866
 30
0.0
 10
282.5754788959436
 20
243.9607505537229
 30
0.0
 10
282.5926237546027
 20
244.0361818454465
 30
0.0
 10
282.616132076882
 20
244.154884490629
 30
0.0
 10
282.6222711380421
 20
244.1972619734596
 30
0.0
 10
282.6222902674383
 20
244.2301874896273
 30
0.0
 10
282.6205993063642
 20
244.2358342411393
 30
0.0
 10
282.6173066198781
 20
244.2358435536721
 30
0.0
  0
ARC
  5
1AEA
330
1F
100
AcDbEntity
  8
AD4530
  6
Continuous
100
AcDbCircle
 10
280.404261973648
 20
245.2453576492743
 30
0.0
 40
2.219707052141227
100
AcDbArc
 50
354.2712141337006
 51
14.44335241316851
  0
SPLINE
  5
1AEB
330
1F
100
AcDbEntity
  8
AD4530
  6
Continuous
100
AcDbSpline
210
0.0
220
0.0
230
1.0
 70
     8
 71
     3
 72
    12
 73
     8
 74
     0
 42
0.0000000001
 43
0.0000000001
 40
0.3549274930202558
 40
0.3549274930202558
 40
0.3549274930202558
 40
0.3549274930202558
 40
0.5
 40
0.5
 40
0.75
 40
0.75
 40
1.0
 40
1.0
 40
1.0
 40
1.0
 10
282.6161727122969
 20
245.8943648977221
 30
0.0
 10
282.620206102813
 20
245.8685806239117
 30
0.0
 10
282.6222764055854
 20
245.8490493810938
 30
0.0
 10
282.6222962389151
 20
245.814912254914
 30
0.0
 10
282.6161311405012
 20
245.8139698847275
 30
0.0
 10
282.5927759980032
 20
245.8528553754167
 30
0.0
 10
282.5754819149228
 20
245.8926820454149
 30
0.0
 10
282.5538145508701
 20
245.9496838708894
 30
0.0
  0
ELLIPSE
  5
1AEC
330
1F
100
AcDbEntity
  8
AD4530
  6
Continuous
100
AcDbEllipse
 10
277.022382884431
 20
245.3206981114322
 30
0.0
 11
5.56707817136491
 21
-0.000000000000001
 31
0.0
210
0.0
220
0.0
230
1.0
 40
1.0
 41
0.1132248680846928
 42
0.1494957083680373
  0
ARC
  5
1AED
330
1F
100
AcDbEntity
  8
AD4530
  6
Continuous
100
AcDbCircle
 10
278.651825718834
 20
245.848105132885
 30
0.0
 40
3.828732910953348
100
AcDbArc
 50
355.6109186292265
 51
4.389081370767015
  0
ELLIPSE
  5
1AEE
330
1F
100
AcDbEntity
  8
AD4530
  6
Continuous
100
AcDbEllipse
 10
277.0223828921218
 20
244.7346797394173
 30
0.0
 11
5.567078163608254
 21
-0.000000000000001
 31
0.0
210
0.0
220
0.0
230
1.0
 40
1.0
 41
0.1132248680592718
 42
0.1494957083934292
  0
ARC
  5
1AEF
330
1F
100
AcDbEntity
  8
AD4530
  6
Continuous
100
AcDbCircle
 10
280.404261973648
 20
244.8100202006835
 30
0.0
 40
2.219707052141193
100
AcDbArc
 50
345.5566475868315
 51
14.44335241316851
  0
ELLIPSE
  5
1AF0
330
1F
100
AcDbEntity
  8
AD4530
  6
Continuous
100
AcDbEllipse
 10
277.022382886954
 20
245.219119373082
 30
0.0
 11
5.589825891536937
 21
-0.000000000000001
 31
0.0
210
0.0
220
0.0
230
1.0
 40
1.0
 41
-0.2265837063618818
 42
-0.1723235346417886
  0
ELLIPSE
  5
1AF1
330
1F
100
AcDbEntity
  8
AD4530
  6
Continuous
100
AcDbEllipse
 10
277.0223828846721
 20
243.7719352684821
 30
0.0
 11
-5.458180674710155
 21
0.0000000000000079
 31
0.0
210
0.0
220
0.0
230
1.0
 40
0.5469441385904798
 41
3.077424696284268
 42
3.205760610895316
  0
ELLIPSE
  5
1AF2
330
1F
100
AcDbEntity
  8
AD4530
  6
Continuous
100
AcDbEllipse
 10
277.0223828869118
 20
244.836258476063
 30
0.0
 11
5.589825891578561
 21
-0.000000000000001
 31
0.0
210
0.0
220
0.0
230
1.0
 40
1.0
 41
-0.2265837063608644
 42
-0.1723235346411718
  0
LINE
  5
1AF3
330
1F
100
AcDbEntity
  8
AD4530
  6
Continuous
100
AcDbLine
 10
282.4774029739349
 20
243.8735140064866
 30
0.0
 11
282.5538145508701
 21
243.8735140064866
 31
0.0
  0
LINE
  5
1AF4
330
1F
100
AcDbEntity
  8
AD4530
  6
Continuous
100
AcDbLine
 10
282.4792147362585
 20
245.9496838708894
 30
0.0
 11
282.5538145508701
 21
245.9496838708894
 31
0.0
  0
LINE
  5
1AF5
330
1F
100
AcDbEntity
  8
AD4530
  6
Continuous
100
AcDbLine
 10
282.4802484147517
 20
245.7990029464483
 30
0.0
 11
282.5538145508701
 21
245.7990029464483
 31
0.0
  0
ARC
  5
1AF6
330
1F
100
AcDbEntity
  8
AD4530
  6
Continuous
100
AcDbCircle
 10
277.0223828849392
 20
245.0276889249789
 30
0.0
 40
5.660542047795702
100
AcDbArc
 50
8.895444087884278
 51
32.7536418193119
  0
ARC
  5
1AF7
330
1F
100
AcDbEntity
  8
AD4530
  6
Continuous
100
AcDbCircle
 10
277.0223828849392
 20
245.0276889249789
 30
0.0
 40
5.660542047795687
100
AcDbArc
 50
327.2463581806881
 51
351.0963165304358
  0
LINE
  5
1AF8
330
1F
100
AcDbEntity
  8
AD4530
  6
Continuous
100
AcDbLine
 10
280.7829249327349
 20
241.8776889249789
 30
0.0
 11
281.7829249327349
 21
241.9651775885049
 31
0.0
  0
LINE
  5
1AF9
330
1F
100
AcDbEntity
  8
AD4530
  6
Continuous
100
AcDbLine
 10
281.7829249327349
 20
248.090200261453
 30
0.0
 11
280.7829249327349
 21
248.177688924979
 31
0.0
  0
LINE
  5
1AFA
330
1F
100
AcDbEntity
  8
AD4530
  6
Continuous
100
AcDbLine
 10
282.4804560022215
 20
245.8194191543544
 30
0.0
 11
282.6172943643755
 21
245.8194191543544
 31
0.0
  0
LINE
  5
1AFB
330
1F
100
AcDbEntity
  8
AD4530
  6
Continuous
100
AcDbLine
 10
282.6172943643754
 20
244.2359586956035
 30
0.0
 11
282.5486882498537
 21
244.2359586956035
 31
0.0
  0
LINE
  5
1B01
330
1F
100
AcDbEntity
  8
AD4530
  6
Continuous
 62
     9
100
AcDbLine
 10
280.7829249327349
 20
166.9376500434283
 30
0.0
 11
279.1829249327349
 21
166.9376500434283
 31
0.0
  0
LINE
  5
1B03
330
1F
100
AcDbEntity
  8
AD4530
  6
Continuous
 62
     9
100
AcDbLine
 10
280.782924932735
 20
241.1776500434283
 30
0.0
 11
279.182924932735
 21
241.1776500434283
 31
0.0
  0
LINE
  5
1B4C
330
1F
100
AcDbEntity
  8
AD4530
  6
Continuous
 62
     9
100
AcDbLine
 10
157.3487354207593
 20
252.1776500434284
 30
0.0
 11
157.3487354207593
 21
156.1776500434286
 31
0.0
  0
LINE
  5
1B4D
330
1F
100
AcDbEntity
  8
AD4530
  6
Continuous
 62
     9
100
AcDbLine
 10
159.7171144447105
 20
251.1776500434286
 30
0.0
 11
159.7171144447105
 21
157.1776500434285
 31
0.0
  0
ELLIPSE
  5
1B51
330
1F
100
AcDbEntity
  8
AD4530
  6
Continuous
 62
     9
100
AcDbEllipse
 10
159.7258413125013
 20
251.1776500434286
 30
0.0
 11
0.0000000000000002
 21
0.9999999999999939
 31
0.0
210
0.0
220
0.0
230
1.0
 40
0.0087268677907586
 41
0.0
 42
1.570796326794909
  0
LINE
  5
1B58
330
1F
100
AcDbEntity
  8
AD4530
  6
Continuous
 62
     9
100
AcDbLine
 10
159.8829249327349
 20
249.8048449002985
 30
0.0
 11
159.7422700564601
 21
249.5235137220666
 31
0.0
  0
LINE
  5
1B61
330
1F
100
AcDbEntity
  8
AD4530
  6
Continuous
 62
     9
100
AcDbLine
 10
174.582924932735
 20
249.8048449002985
 30
0.0
 11
159.8829249327349
 21
249.8048449002985
 31
0.0
  0
LINE
  5
1B62
330
1F
100
AcDbEntity
  8
AD4530
  6
Continuous
 62
     9
100
AcDbLine
 10
192.1829548286261
 20
249.9776500434285
 30
0.0
 11
192.1829548286261
 21
246.9776500434285
 31
0.0
  0
LINE
  5
1BA4
330
1F
100
AcDbEntity
  8
AD4530
  6
Continuous
 62
     9
100
AcDbLine
 10
261.6829249327349
 20
246.9776500434285
 30
0.0
 11
261.6829249327349
 21
249.7417020336693
 31
0.0
  0
LINE
  5
1BA5
330
1F
100
AcDbEntity
  8
AD4530
  6
Continuous
 62
     9
100
AcDbLine
 10
259.8829249327349
 20
246.9776500434285
 30
0.0
 11
259.8829249327349
 21
249.7417020336693
 31
0.0
  0
LINE
  5
1BB6
330
1F
100
AcDbEntity
  8
AD4530
  6
Continuous
 62
     9
100
AcDbLine
 10
270.482924932735
 20
246.9776500434285
 30
0.0
 11
270.482924932735
 21
249.7417020336693
 31
0.0
  0
LINE
  5
1BB8
330
1F
100
AcDbEntity
  8
AD4530
  6
Continuous
 62
     9
100
AcDbLine
 10
268.6829249327349
 20
246.9776500434285
 30
0.0
 11
268.6829249327349
 21
249.7417020336693
 31
0.0
  0
LINE
  5
1BCF
330
1F
100
AcDbEntity
  8
AD4530
  6
Continuous
 62
     9
100
AcDbLine
 10
230.4329249327349
 20
245.1776500434286
 30
0.0
 11
230.4329249327349
 21
249.6561722158618
 31
0.0
  0
LINE
  5
1BDE
330
1F
100
AcDbEntity
  8
AD4530
  6
Continuous
 62
     9
100
AcDbLine
 10
163.7829249327349
 20
239.5776500432329
 30
0.0
 11
163.7829249327349
 21
247.9776500434218
 31
0.0
  0
LINE
  5
1BDF
330
1F
100
AcDbEntity
  8
AD4530
  6
Continuous
 62
     9
100
AcDbLine
 10
177.0829249327349
 20
239.5776500432329
 30
0.0
 11
163.7829249327349
 21
239.5776500432329
 31
0.0
  0
LINE
  5
1BE0
330
1F
100
AcDbEntity
  8
AD4530
  6
Continuous
 62
     9
100
AcDbLine
 10
177.0829249327349
 20
247.9776500434218
 30
0.0
 11
177.0829249327349
 21
239.5776500432329
 31
0.0
  0
LINE
  5
1BE1
330
1F
100
AcDbEntity
  8
AD4530
  6
Continuous
 62
     9
100
AcDbLine
 10
163.7829249327349
 20
247.9776500434218
 30
0.0
 11
177.0829249327349
 21
247.9776500434218
 31
0.0
  0
LINE
  5
1BEA
330
1F
100
AcDbEntity
  8
AD4530
  6
Continuous
 62
     9
100
AcDbLine
 10
159.8829249327349
 20
252.1776500434284
 30
0.0
 11
159.8829249327349
 21
249.8048449002985
 31
0.0
  0
LINE
  5
1BF8
330
1F
100
AcDbEntity
  8
AD4530
  6
Continuous
 62
     9
100
AcDbLine
 10
273.2829249327349
 20
237.1776500434285
 30
0.0
 11
273.2829249327349
 21
167.1776500434285
 31
0.0
  0
LINE
  5
1BF9
330
1F
100
AcDbEntity
  8
AD4530
  6
Continuous
 62
     9
100
AcDbLine
 10
268.2829249327349
 20
242.1776500434285
 30
0.0
 11
273.2829249327349
 21
237.1776500434285
 31
0.0
  0
LINE
  5
1BFA
330
1F
100
AcDbEntity
  8
AD4530
  6
Continuous
 62
     9
100
AcDbLine
 10
272.2829249327349
 20
166.1776500434284
 30
0.0
 11
182.2829249327348
 21
166.1776500434284
 31
0.0
  0
ARC
  5
1BFB
330
1F
100
AcDbEntity
  8
AD4530
  6
Continuous
 62
     9
100
AcDbCircle
 10
272.2829249327349
 20
167.1776500434285
 30
0.0
 40
1.0
100
AcDbArc
 50
270.0
 51
0.0
  0
LINE
  5
1BFC
330
1F
100
AcDbEntity
  8
AD4530
  6
Continuous
 62
     9
100
AcDbLine
 10
182.2829249327348
 20
242.1776500434286
 30
0.0
 11
268.2829249327349
 21
242.1776500434285
 31
0.0
  0
ARC
  5
1BFD
330
1F
100
AcDbEntity
  8
AD4530
  6
Continuous
100
AcDbCircle
 10
182.2829249327348
 20
241.1776500434286
 30
0.0
 40
1.0
100
AcDbArc
 50
90.0
 51
180.0
  0
LINE
  5
1BFE
330
1F
100
AcDbEntity
  8
AD4530
  6
Continuous
 62
     9
100
AcDbLine
 10
181.2829249327348
 20
167.1776500434285
 30
0.0
 11
181.2829249327349
 21
241.1776500434286
 31
0.0
  0
ARC
  5
1BFF
330
1F
100
AcDbEntity
  8
AD4530
  6
Continuous
 62
     9
100
AcDbCircle
 10
182.2829249327348
 20
167.1776500434285
 30
0.0
 40
1.0
100
AcDbArc
 50
180.0
 51
270.0
  0
LINE
  5
1C00
330
1F
100
AcDbEntity
  8
AD4530
  6
Continuous
 62
     9
100
AcDbLine
 10
171.2829249327349
 20
234.1776500434286
 30
0.0
 11
178.2829249327349
 21
234.1776500434286
 31
0.0
  0
ARC
  5
1C01
330
1F
100
AcDbEntity
  8
AD4530
  6
Continuous
 62
     9
100
AcDbCircle
 10
171.2829249327349
 20
233.1776500434286
 30
0.0
 40
1.0
100
AcDbArc
 50
90.0
 51
180.0
  0
ARC
  5
1C02
330
1F
100
AcDbEntity
  8
AD4530
  6
Continuous
 62
     9
100
AcDbCircle
 10
178.2829249327349
 20
233.1776500434286
 30
0.0
 40
1.0
100
AcDbArc
 50
0.0
 51
90.0
  0
LINE
  5
1C03
330
1F
100
AcDbEntity
  8
AD4530
  6
Continuous
 62
     9
100
AcDbLine
 10
178.2829249327349
 20
205.1776500434285
 30
0.0
 11
171.2829249327349
 21
205.1776500434285
 31
0.0
  0
LINE
  5
1C04
330
1F
100
AcDbEntity
  8
AD4530
  6
Continuous
 62
     9
100
AcDbLine
 10
179.2829249327349
 20
206.1776500434285
 30
0.0
 11
179.2829249327349
 21
233.1776500434286
 31
0.0
  0
ARC
  5
1C05
330
1F
100
AcDbEntity
  8
AD4530
  6
Continuous
 62
     9
100
AcDbCircle
 10
178.2829249327349
 20
206.1776500434285
 30
0.0
 40
1.0
100
AcDbArc
 50
270.0
 51
0.0
  0
LINE
  5
1C06
330
1F
100
AcDbEntity
  8
AD4530
  6
Continuous
 62
     9
100
AcDbLine
 10
170.2829249327349
 20
206.1776500434285
 30
0.0
 11
170.2829249327349
 21
233.1776500434286
 31
0.0
  0
ARC
  5
1C07
330
1F
100
AcDbEntity
  8
AD4530
  6
Continuous
 62
     9
100
AcDbCircle
 10
171.2829249327349
 20
206.1776500434285
 30
0.0
 40
0.9999999999999998
100
AcDbArc
 50
180.0
 51
270.0
  0
LINE
  5
1C0F
330
1F
100
AcDbEntity
  8
AD4530
  6
Continuous
 62
     9
100
AcDbLine
 10
182.1829697072623
 20
248.8776500434513
 30
0.0
 11
182.1829697072623
 21
249.9776500430878
 31
0.0
  0
LINE
  5
1C10
330
1F
100
AcDbEntity
  8
AD4530
  6
Continuous
 62
     9
100
AcDbLine
 10
159.7422700564601
 20
249.5235137220666
 30
0.0
 11
182.1829697072623
 21
249.5235137220666
 31
0.0
  0
LINE
  5
1C12
330
1F
100
AcDbEntity
  8
AD4530
  6
Continuous
 62
     9
100
AcDbLine
 10
182.1829697072623
 20
248.8776500434513
 30
0.0
 11
192.1829548286261
 21
248.8776500434513
 31
0.0
  0
LINE
  5
1C13
330
1F
100
AcDbEntity
  8
AD4530
  6
Continuous
 62
     9
100
AcDbLine
 10
183.4829249327349
 20
248.8776500434513
 30
0.0
 11
183.4829249327349
 21
246.9776500434285
 31
0.0
  0
LINE
  5
1C15
330
1F
100
AcDbEntity
  8
AD4530
  6
Continuous
 62
     9
100
AcDbLine
 10
268.6829249327349
 20
249.7417020336693
 30
0.0
 11
270.482924932735
 21
249.7417020336693
 31
0.0
  0
LINE
  5
1C17
330
1F
100
AcDbEntity
  8
AD4530
  6
Continuous
 62
     9
100
AcDbLine
 10
259.8829249327349
 20
249.7417020336693
 30
0.0
 11
261.6829249327349
 21
249.7417020336693
 31
0.0
  0
LINE
  5
1C1B
330
1F
100
AcDbEntity
  8
AD4530
  6
Continuous
 62
     9
100
AcDbLine
 10
238.582924932735
 20
249.74170203401
 30
0.0
 11
240.3829249327349
 21
249.74170203401
 31
0.0
  0
LINE
  5
1C1D
330
1F
100
AcDbEntity
  8
AD4530
  6
Continuous
 62
     9
100
AcDbLine
 10
230.4329249327349
 20
249.6561722158618
 30
0.0
 11
232.5329249327349
 21
249.6561722158618
 31
0.0
  0
LINE
  5
1C1F
330
1F
100
AcDbEntity
  8
AD4530
  6
Continuous
 62
     9
100
AcDbLine
 10
222.5829249327349
 20
249.74170203401
 30
0.0
 11
224.3829249327349
 21
249.74170203401
 31
0.0
  0
LINE
  5
1C21
330
1F
100
AcDbEntity
  8
AD4530
  6
Continuous
 62
     9
100
AcDbLine
 10
196.9329249327348
 20
249.6561722158618
 30
0.0
 11
199.032924932735
 21
249.6561722158618
 31
0.0
  0
LINE
  5
1C27
330
1F
100
AcDbEntity
  8
AD4530
  6
Continuous
 62
     9
100
AcDbLine
 10
192.1829548286261
 20
249.5571300961672
 30
0.0
 11
196.9329249327348
 21
249.5770282672601
 31
0.0
  0
LINE
  5
1C28
330
1F
100
AcDbEntity
  8
AD4530
  6
Continuous
 62
     9
100
AcDbLine
 10
196.9329249327348
 20
249.6561722158618
 30
0.0
 11
196.9329249327348
 21
245.1776500434286
 31
0.0
  0
LINE
  5
1C2D
330
1F
100
AcDbEntity
  8
AD4530
  6
Continuous
 62
     9
100
AcDbLine
 10
199.032924932735
 20
249.5828593731872
 30
0.0
 11
222.5829249327349
 21
249.5828593731872
 31
0.0
  0
LINE
  5
1C2E
330
1F
100
AcDbEntity
  8
AD4530
  6
Continuous
 62
     9
100
AcDbLine
 10
222.5829249327349
 20
249.74170203401
 30
0.0
 11
222.5829249327349
 21
246.9776500434285
 31
0.0
  0
LINE
  5
1C31
330
1F
100
AcDbEntity
  8
AD4530
  6
Continuous
 62
     9
100
AcDbLine
 10
199.032924932735
 20
245.1776500434286
 30
0.0
 11
199.032924932735
 21
249.6561722158618
 31
0.0
  0
LINE
  5
1C34
330
1F
100
AcDbEntity
  8
AD4530
  6
Continuous
 62
     9
100
AcDbLine
 10
224.3829249327349
 20
246.9776500434285
 30
0.0
 11
224.3829249327349
 21
249.74170203401
 31
0.0
  0
LINE
  5
1C35
330
1F
100
AcDbEntity
  8
AD4530
  6
Continuous
 62
     9
100
AcDbLine
 10
224.3829249327349
 20
249.5828593731872
 30
0.0
 11
230.432924932735
 21
249.5828593731872
 31
0.0
  0
LINE
  5
1C37
330
1F
100
AcDbEntity
  8
AD4530
  6
Continuous
 62
     9
100
AcDbLine
 10
232.5329249327349
 20
249.6561722158618
 30
0.0
 11
232.5329249327349
 21
245.1776500434285
 31
0.0
  0
LINE
  5
1C3B
330
1F
100
AcDbEntity
  8
AD4530
  6
Continuous
 62
     9
100
AcDbLine
 10
232.5329249327349
 20
249.5828593731872
 30
0.0
 11
238.582924932735
 21
249.5828593731872
 31
0.0
  0
LINE
  5
1C3C
330
1F
100
AcDbEntity
  8
AD4530
  6
Continuous
 62
     9
100
AcDbLine
 10
238.582924932735
 20
249.74170203401
 30
0.0
 11
238.5829249327348
 21
246.9776500434285
 31
0.0
  0
LINE
  5
1C3F
330
1F
100
AcDbEntity
  8
AD4530
  6
Continuous
 62
     9
100
AcDbLine
 10
240.3829249327349
 20
246.9776500434285
 30
0.0
 11
240.3829249327349
 21
249.74170203401
 31
0.0
  0
LINE
  5
1C40
330
1F
100
AcDbEntity
  8
AD4530
  6
Continuous
 62
     9
100
AcDbLine
 10
242.1829548286261
 20
249.5828593731872
 30
0.0
 11
242.1829548286261
 21
249.9776500434285
 31
0.0
  0
LINE
  5
1C41
330
1F
100
AcDbEntity
  8
AD4530
  6
Continuous
 62
     9
100
AcDbLine
 10
240.3829249327349
 20
249.5828593731872
 30
0.0
 11
242.1829548286261
 21
249.5828593731872
 31
0.0
  0
LINE
  5
1C42
330
1F
100
AcDbEntity
  8
AD4530
  6
Continuous
 62
     9
100
AcDbLine
 10
242.1829548286261
 20
249.5828593731872
 30
0.0
 11
242.1829548286261
 21
248.8776500434513
 31
0.0
  0
LINE
  5
1C43
330
1F
100
AcDbEntity
  8
AD4530
  6
Continuous
 62
     9
100
AcDbLine
 10
242.1829548286261
 20
248.8776500434513
 30
0.0
 11
252.1829548286261
 21
248.8776500434513
 31
0.0
  0
LINE
  5
1C4A
330
1F
100
AcDbEntity
  8
AD4530
  6
Continuous
 62
     9
100
AcDbLine
 10
270.482924932735
 20
249.5235137220666
 30
0.0
 11
278.1829249327349
 21
249.5235137220666
 31
0.0
  0
LINE
  5
1C4C
330
1F
100
AcDbEntity
  8
AD4530
  6
Continuous
 62
     9
100
AcDbLine
 10
268.6829249327349
 20
246.9776500434285
 30
0.0
 11
270.482924932735
 21
246.9776500434285
 31
0.0
  0
LINE
  5
1C50
330
1F
100
AcDbEntity
  8
AD4530
  6
Continuous
 62
     9
100
AcDbLine
 10
261.6829249327349
 20
249.5235137220666
 30
0.0
 11
268.6829249327349
 21
249.5235137220666
 31
0.0
  0
LINE
  5
1C53
330
1F
100
AcDbEntity
  8
AD4530
  6
Continuous
 62
     9
100
AcDbLine
 10
259.8829249327349
 20
246.9776500434285
 30
0.0
 11
261.6829249327349
 21
246.9776500434285
 31
0.0
  0
LINE
  5
1C55
330
1F
100
AcDbEntity
  8
AD4530
  6
Continuous
 62
     9
100
AcDbLine
 10
252.1829548286261
 20
247.3776500434285
 30
0.0
 11
252.1829548286261
 21
249.9776500434283
 31
0.0
  0
LINE
  5
1C57
330
1F
100
AcDbEntity
  8
AD4530
  6
Continuous
 62
     9
100
AcDbLine
 10
252.1829548286261
 20
249.5235137220666
 30
0.0
 11
259.8829249327349
 21
249.5235137220666
 31
0.0
  0
LINE
  5
1C5C
330
1F
100
AcDbEntity
  8
AD4530
  6
Continuous
 62
     9
100
AcDbLine
 10
232.5329249327349
 20
247.3776500434285
 30
0.0
 11
238.582924932735
 21
247.3776500434285
 31
0.0
  0
LINE
  5
1C5E
330
1F
100
AcDbEntity
  8
AD4530
  6
Continuous
 62
     9
100
AcDbLine
 10
238.5829249327348
 20
246.9776500434285
 30
0.0
 11
240.3829249327349
 21
246.9776500434285
 31
0.0
  0
LINE
  5
1C60
330
1F
100
AcDbEntity
  8
AD4530
  6
Continuous
 62
     9
100
AcDbLine
 10
240.3829249327349
 20
247.3776500434285
 30
0.0
 11
246.5829249327349
 21
247.3776500434285
 31
0.0
  0
LINE
  5
1C61
330
1F
100
AcDbEntity
  8
AD4530
  6
Continuous
 62
     9
100
AcDbLine
 10
246.582924932735
 20
248.8776500434513
 30
0.0
 11
246.5829249327349
 21
246.9776500434285
 31
0.0
  0
LINE
  5
1C62
330
1F
100
AcDbEntity
  8
AD4530
  6
Continuous
 62
     9
100
AcDbLine
 10
246.5829249327349
 20
246.9776500434285
 30
0.0
 11
248.3829249327349
 21
246.9776500434285
 31
0.0
  0
LINE
  5
1C63
330
1F
100
AcDbEntity
  8
AD4530
  6
Continuous
 62
     9
100
AcDbLine
 10
248.3829249327349
 20
246.9776500434285
 30
0.0
 11
248.3829249327349
 21
248.8776500434513
 31
0.0
  0
LINE
  5
1C64
330
1F
100
AcDbEntity
  8
AD4530
  6
Continuous
 62
     9
100
AcDbLine
 10
248.3829249327349
 20
247.3776500434285
 30
0.0
 11
252.1829548286261
 21
247.3776500434285
 31
0.0
  0
LINE
  5
1C66
330
1F
100
AcDbEntity
  8
AD4530
  6
Continuous
 62
     9
100
AcDbLine
 10
230.4329249327349
 20
245.1776500434286
 30
0.0
 11
232.5329249327349
 21
245.1776500434285
 31
0.0
  0
LINE
  5
1C68
330
1F
100
AcDbEntity
  8
AD4530
  6
Continuous
 62
     9
100
AcDbLine
 10
196.9329249327348
 20
245.1776500434286
 30
0.0
 11
199.032924932735
 21
245.1776500434286
 31
0.0
  0
LINE
  5
1C6C
330
1F
100
AcDbEntity
  8
AD4530
  6
Continuous
 62
     9
100
AcDbLine
 10
199.032924932735
 20
247.3776500434285
 30
0.0
 11
222.5829249327349
 21
247.3776500434285
 31
0.0
  0
LINE
  5
1C6E
330
1F
100
AcDbEntity
  8
AD4530
  6
Continuous
 62
     9
100
AcDbLine
 10
222.5829249327349
 20
246.9776500434285
 30
0.0
 11
224.3829249327349
 21
246.9776500434285
 31
0.0
  0
LINE
  5
1C70
330
1F
100
AcDbEntity
  8
AD4530
  6
Continuous
 62
     9
100
AcDbLine
 10
224.3829249327349
 20
247.3776500434285
 30
0.0
 11
230.432924932735
 21
247.3776500434285
 31
0.0
  0
LINE
  5
1C73
330
1F
100
AcDbEntity
  8
AD4530
  6
Continuous
 62
     9
100
AcDbLine
 10
190.3829249327349
 20
246.9776500434285
 30
0.0
 11
192.1829548286261
 21
246.9776500434285
 31
0.0
  0
LINE
  5
1C79
330
1F
100
AcDbEntity
  8
AD4530
  6
Continuous
 62
     9
100
AcDbLine
 10
190.3829249327349
 20
248.8776500434513
 30
0.0
 11
190.3829249327349
 21
246.9776500434285
 31
0.0
  0
LINE
  5
1C7C
330
1F
100
AcDbEntity
  8
AD4530
  6
Continuous
 62
     9
100
AcDbLine
 10
185.2829249327349
 20
246.9776500434285
 30
0.0
 11
185.2829249327349
 21
248.8776500434513
 31
0.0
  0
LINE
  5
1C7E
330
1F
100
AcDbEntity
  8
AD4530
  6
Continuous
 62
     9
100
AcDbLine
 10
183.4829249327349
 20
246.9776500434285
 30
0.0
 11
185.2829249327349
 21
246.9776500434285
 31
0.0
  0
ELLIPSE
  5
1CE9
330
1F
100
AcDbEntity
  8
AD4530
  6
Continuous
 62
     9
100
AcDbEllipse
 10
278.182924932735
 20
248.9774977150439
 30
0.0
 11
0.0000000000000002
 21
1.000152328043907
 31
0.0
210
0.0
220
0.0
230
1.0
 40
0.9998476951563912
 41
4.712388980384688
 42
6.283185307179585
  0
LINE
  5
1CEB
330
1F
100
AcDbEntity
  8
AD4530
  6
Continuous
 62
     9
100
AcDbLine
 10
279.1829249327349
 20
249.6776500434283
 30
0.0
 11
279.1829249327349
 21
158.6776500434287
 31
0.0
  0
ELLIPSE
  5
1CF7
330
1F
100
AcDbEntity
  8
AD4530
  6
Continuous
 62
     9
100
AcDbEllipse
 10
278.182924932735
 20
248.5236660269102
 30
0.0
 11
-1.000000000000375
 21
0.0000000000007288
 31
0.0
210
0.0
220
0.0
230
1.0
 40
0.9998476951556051
 41
3.141592653589792
 42
4.712388980385417
  0
LINE
  5
1D00
330
1F
100
AcDbEntity
  8
AD4530
  6
Continuous
100
AcDbLine
 10
280.7829249327349
 20
158.6776500434287
 30
0.0
 11
280.7829249327349
 21
249.6776500434283
 31
0.0
  0
LINE
  5
1D02
330
1F
100
AcDbEntity
  8
AD4530
  6
Continuous
 62
     9
100
AcDbLine
 10
279.1829249327349
 20
242.6776500434284
 30
0.0
 11
280.7829249327349
 21
242.6776500434284
 31
0.0
  0
LINE
  5
1D03
330
1F
100
AcDbEntity
  8
AD4530
  6
Continuous
 62
     9
100
AcDbLine
 10
279.1829249327349
 20
165.6776500434283
 30
0.0
 11
280.7829249327349
 21
165.6776500434283
 31
0.0
  0
ARC
  5
1D0A
330
1F
100
AcDbEntity
  8
AD4530
  6
Continuous
100
AcDbCircle
 10
278.8829249327349
 20
249.6776500434283
 30
0.0
 40
1.899999999999997
100
AcDbArc
 50
0.0
 51
90.0
  0
ARC
  5
1D0B
330
1F
100
AcDbEntity
  8
AD4530
  6
Continuous
 62
     9
100
AcDbCircle
 10
278.8829249327349
 20
249.6776500434283
 30
0.0
 40
0.3000000000000016
100
AcDbArc
 50
0.0
 51
90.0
  0
LINE
  5
1D13
330
1F
100
AcDbEntity
  8
AD4530
  6
Continuous
100
AcDbLine
 10
159.8829249327349
 20
251.5776500434284
 30
0.0
 11
278.8829249327349
 21
251.5776500434283
 31
0.0
  0
LINE
  5
1D14
330
1F
100
AcDbEntity
  8
AD4530
  6
Continuous
 62
     9
100
AcDbLine
 10
159.8829249327349
 20
249.9776500434284
 30
0.0
 11
278.8829249327349
 21
249.9776500434283
 31
0.0
  0
LINE
  5
1D18
330
1F
100
AcDbEntity
  8
AD4530
  6
Continuous
 62
     9
100
AcDbLine
 10
267.7829249327349
 20
241.6776500434284
 30
0.0
 11
193.7829249327349
 21
241.6776500434285
 31
0.0
  0
LINE
  5
1D19
330
1F
100
AcDbEntity
  8
AD4530
  6
Continuous
 62
     9
100
AcDbLine
 10
272.7829249327349
 20
236.6776500434284
 30
0.0
 11
267.7829249327349
 21
241.6776500434284
 31
0.0
  0
LINE
  5
1D1A
330
1F
100
AcDbEntity
  8
AD4530
  6
Continuous
 62
     9
100
AcDbLine
 10
272.7829249327348
 20
167.6776500434284
 30
0.0
 11
272.7829249327348
 21
236.6776500434284
 31
0.0
  0
ARC
  5
1D1B
330
1F
100
AcDbEntity
  8
AD4530
  6
Continuous
 62
     9
100
AcDbCircle
 10
271.7829249327348
 20
167.6776500434284
 30
0.0
 40
1.0
100
AcDbArc
 50
270.0
 51
0.0
  0
LINE
  5
1D1C
330
1F
100
AcDbEntity
  8
AD4530
  6
Continuous
 62
     9
100
AcDbLine
 10
192.7829249327349
 20
240.6776500434285
 30
0.0
 11
192.7829249327347
 21
167.6776500434285
 31
0.0
  0
ARC
  5
1D1D
330
1F
100
AcDbEntity
  8
AD4530
  6
Continuous
100
AcDbCircle
 10
193.7829249327349
 20
240.6776500434285
 30
0.0
 40
1.0
100
AcDbArc
 50
90.0
 51
180.0
  0
LINE
  5
1D1E
330
1F
100
AcDbEntity
  8
AD4530
  6
Continuous
 62
     9
100
AcDbLine
 10
193.7829249327347
 20
166.6776500434284
 30
0.0
 11
271.7829249327349
 21
166.6776500434284
 31
0.0
  0
ARC
  5
1D1F
330
1F
100
AcDbEntity
  8
AD4530
  6
Continuous
 62
     9
100
AcDbCircle
 10
193.7829249327347
 20
167.6776500434284
 30
0.0
 40
1.0
100
AcDbArc
 50
180.0
 51
270.0
  0
LWPOLYLINE
  5
2030
330
1F
100
AcDbEntity
  8
DEFPOINTS
100
AcDbPolyline
 90
        4
 70
     1
 43
0.0
 10
0.0
 20
0.0
 10
420.0
 20
0.0
 10
420.0
 20
297.0
 10
0.0
 20
297.0
  0
LINE
  5
22B8
330
1F
100
AcDbEntity
  8
AD4530
  6
Continuous
 62
     9
100
AcDbLine
 10
157.182924932735
 20
59.33122483201774
 30
0.0
 11
157.182924932735
 21
78.43122483201762
 31
0.0
  0
LINE
  5
22B9
330
1F
100
AcDbEntity
  8
AD4530
  6
Continuous
100
AcDbLine
 10
151.682924932735
 20
59.33122483201768
 30
0.0
 11
151.682924932735
 21
107.3312248320176
 31
0.0
  0
LINE
  5
22BC
330
1F
100
AcDbEntity
  8
AD4530
  6
Continuous
100
AcDbLine
 10
159.7171144447105
 20
59.33122483201785
 30
0.0
 11
157.3487354207594
 21
59.33122483201785
 31
0.0
  0
LINE
  5
22BE
330
1F
100
AcDbEntity
  8
AD4530
  6
Continuous
100
AcDbLine
 10
151.682924932735
 20
107.3312248320176
 30
0.0
 11
157.182924932735
 21
107.3312248320176
 31
0.0
  0
LINE
  5
22C2
330
1F
100
AcDbEntity
  8
AD4530
  6
Continuous
 62
     9
100
AcDbLine
 10
157.182924932735
 20
88.23122483201784
 30
0.0
 11
157.182924932735
 21
107.3312248320176
 31
0.0
  0
LINE
  5
22C3
330
1F
100
AcDbEntity
  8
AD4530
  6
Continuous
 62
     9
100
AcDbLine
 10
159.182924932735
 20
88.23122483201784
 30
0.0
 11
159.182924932735
 21
78.43122483201762
 31
0.0
  0
LINE
  5
22C6
330
1F
100
AcDbEntity
  8
AD4530
  6
Continuous
 62
     9
100
AcDbLine
 10
157.182924932735
 20
88.23122483201784
 30
0.0
 11
159.182924932735
 21
88.23122483201784
 31
0.0
  0
LINE
  5
22C7
330
1F
100
AcDbEntity
  8
AD4530
  6
Continuous
 62
     9
100
AcDbLine
 10
157.182924932735
 20
78.43122483201762
 30
0.0
 11
159.182924932735
 21
78.43122483201762
 31
0.0
  0
LINE
  5
22C8
330
1F
100
AcDbEntity
  8
AD4530
  6
Continuous
100
AcDbLine
 10
281.7829249327349
 20
80.46868303457481
 30
0.0
 11
281.7829249327349
 21
86.59370570752296
 31
0.0
  0
ARC
  5
22C9
330
1F
100
AcDbEntity
  8
AD4530
  6
Continuous
100
AcDbCircle
 10
280.404261973648
 20
83.31352564675345
 30
0.0
 40
2.219707052141211
100
AcDbArc
 50
345.5566475868313
 51
14.44335241316851
  0
ELLIPSE
  5
22CA
330
1F
100
AcDbEntity
  8
AD4530
  6
Continuous
100
AcDbEllipse
 10
277.0223828851033
 20
83.72262481953132
 30
0.0
 11
5.589825893425397
 21
-0.000000000000001
 31
0.0
210
0.0
220
0.0
230
1.0
 40
1.0
 41
-0.2265837063536418
 42
-0.1723235346518492
  0
ELLIPSE
  5
22CB
330
1F
100
AcDbEntity
  8
AD4530
  6
Continuous
100
AcDbEllipse
 10
277.0223828846966
 20
82.27544071455161
 30
0.0
 11
-5.458180674685549
 21
-0.0000000000004643
 31
0.0
210
0.0
220
0.0
230
1.0
 40
0.5469441385917106
 41
3.077424696284136
 42
3.205760610895354
  0
ELLIPSE
  5
22CC
330
1F
100
AcDbEntity
  8
AD4530
  6
Continuous
100
AcDbEllipse
 10
277.0223828850181
 20
83.33976392252072
 30
0.0
 11
5.589825893511497
 21
-0.000000000000001
 31
0.0
210
0.0
220
0.0
230
1.0
 40
1.0
 41
-0.2265837063523712
 42
-0.1723235346513909
  0
SPLINE
  5
22CD
330
1F
100
AcDbEntity
  8
AD4530
  6
Continuous
100
AcDbSpline
210
0.0
220
0.0
230
1.0
 70
     8
 71
     3
 72
    12
 73
     8
 74
     0
 42
0.0000000001
 43
0.0000000001
 40
0.0
 40
0.0
 40
0.0
 40
0.0
 40
0.25
 40
0.25
 40
0.5
 40
0.5
 40
0.6310504184637945
 40
0.6310504184637945
 40
0.6310504184637945
 40
0.6310504184637945
 10
282.55381455087
 20
82.37701945255654
 30
0.0
 10
282.5754788959435
 20
82.4642559997928
 30
0.0
 10
282.5926237546026
 20
82.53968729151646
 30
0.0
 10
282.616132076882
 20
82.65838993669893
 30
0.0
 10
282.622271138042
 20
82.70076741952953
 30
0.0
 10
282.6222902674383
 20
82.7336929356972
 30
0.0
 10
282.6205993063642
 20
82.73933968720925
 30
0.0
 10
282.6173066198781
 20
82.73934899974205
 30
0.0
  0
ARC
  5
22CE
330
1F
100
AcDbEntity
  8
AD4530
  6
Continuous
100
AcDbCircle
 10
280.404261973648
 20
83.74886309534431
 30
0.0
 40
2.219707052141208
100
AcDbArc
 50
354.2712141337006
 51
14.44335241316851
  0
ELLIPSE
  5
22CF
330
1F
100
AcDbEntity
  8
AD4530
  6
Continuous
100
AcDbEllipse
 10
277.0223828844726
 20
83.33976392244323
 30
0.0
 11
5.614589316653129
 21
-0.000000000000001
 31
0.0
210
0.0
220
0.0
230
1.0
 40
1.0
 41
0.172323534654206
 42
0.1760635299793465
  0
SPLINE
  5
22D0
330
1F
100
AcDbEntity
  8
AD4530
  6
Continuous
100
AcDbSpline
210
0.0
220
0.0
230
1.0
 70
     8
 71
     3
 72
    12
 73
     8
 74
     0
 42
0.0000000001
 43
0.0000000001
 40
0.354724684818486
 40
0.354724684818486
 40
0.354724684818486
 40
0.354724684818486
 40
0.5
 40
0.5
 40
0.75
 40
0.75
 40
1.0
 40
1.0
 40
1.0
 40
1.0
 10
282.6161557850115
 20
84.39797851800951
 30
0.0
 10
282.6202003103048
 20
84.37214069215722
 30
0.0
 10
282.6222763954041
 20
84.35257235126133
 30
0.0
 10
282.6222962389148
 20
84.31841770098396
 30
0.0
 10
282.6161311405012
 20
84.31747533079747
 30
0.0
 10
282.592775998003
 20
84.35636082148674
 30
0.0
 10
282.5754819149228
 20
84.39618749148483
 30
0.0
 10
282.55381455087
 20
84.45318931695931
 30
0.0
  0
ELLIPSE
  5
22D1
330
1F
100
AcDbEntity
  8
AD4530
  6
Continuous
100
AcDbEllipse
 10
277.0223828861407
 20
83.8242035577233
 30
0.0
 11
5.567078169641185
 21
-0.000000000000001
 31
0.0
210
0.0
220
0.0
230
1.0
 40
1.0
 41
0.1132248680799153
 42
0.1494957083745385
  0
ARC
  5
22D2
330
1F
100
AcDbEntity
  8
AD4530
  6
Continuous
100
AcDbCircle
 10
278.651825718834
 20
84.35161057895504
 30
0.0
 40
3.828732910953251
100
AcDbArc
 50
355.6109186292265
 51
4.389081370767015
  0
ELLIPSE
  5
22D3
330
1F
100
AcDbEntity
  8
AD4530
  6
Continuous
100
AcDbEllipse
 10
277.0223828867546
 20
83.2381851847737
 30
0.0
 11
5.567078169021572
 21
-0.000000000000001
 31
0.0
210
0.0
220
0.0
230
1.0
 40
1.0
 41
0.113224868077691
 42
0.1494957083763813
  0
LINE
  5
22D4
330
1F
100
AcDbEntity
  8
AD4530
  6
Continuous
100
AcDbLine
 10
282.4792147362584
 20
84.45318931695931
 30
0.0
 11
282.55381455087
 21
84.45318931695931
 31
0.0
  0
LINE
  5
22D5
330
1F
100
AcDbEntity
  8
AD4530
  6
Continuous
100
AcDbLine
 10
282.4802484147517
 20
84.30250839251831
 30
0.0
 11
282.55381455087
 21
84.30250839251831
 31
0.0
  0
LINE
  5
22D6
330
1F
100
AcDbEntity
  8
AD4530
  6
Continuous
100
AcDbLine
 10
282.4774029739349
 20
82.37701945255654
 30
0.0
 11
282.55381455087
 21
82.37701945255654
 31
0.0
  0
ARC
  5
22D7
330
1F
100
AcDbEntity
  8
AD4530
  6
Continuous
100
AcDbCircle
 10
277.0223828849391
 20
83.53119437104879
 30
0.0
 40
5.66054204779569
100
AcDbArc
 50
8.898936561596331
 51
32.75364181931189
  0
ARC
  5
22D8
330
1F
100
AcDbEntity
  8
AD4530
  6
Continuous
100
AcDbCircle
 10
277.0223828849391
 20
83.53119437104879
 30
0.0
 40
5.66054204779569
100
AcDbArc
 50
327.2463581806854
 51
351.1021814151059
  0
LINE
  5
22D9
330
1F
100
AcDbEntity
  8
AD4530
  6
Continuous
100
AcDbLine
 10
280.7829249327349
 20
80.38119437104882
 30
0.0
 11
281.7829249327349
 21
80.46868303457481
 31
0.0
  0
LINE
  5
22DA
330
1F
100
AcDbEntity
  8
AD4530
  6
Continuous
100
AcDbLine
 10
281.7829249327349
 20
86.59370570752296
 30
0.0
 11
280.7829249327349
 21
86.68119437104881
 31
0.0
  0
LINE
  5
22DB
330
1F
100
AcDbEntity
  8
AD4530
  6
Continuous
100
AcDbLine
 10
282.4804560022214
 20
84.32292460042431
 30
0.0
 11
282.6172943643754
 21
84.32292460042431
 31
0.0
  0
LINE
  5
22DC
330
1F
100
AcDbEntity
  8
AD4530
  6
Continuous
100
AcDbLine
 10
282.6172943643754
 20
82.73946414167344
 30
0.0
 11
282.5486882498537
 21
82.73946414167344
 31
0.0
  0
LINE
  5
22F6
330
1F
100
AcDbEntity
  8
AD4530
  6
Continuous
100
AcDbLine
 10
280.7829249327349
 20
98.23122483201755
 30
0.0
 11
279.182924932735
 21
98.23122483201755
 31
0.0
  0
LINE
  5
22F7
330
1F
100
AcDbEntity
  8
AD4530
  6
Continuous
100
AcDbLine
 10
280.7829249327349
 20
89.63122483201763
 30
0.0
 11
279.182924932735
 21
89.63122483201763
 31
0.0
  0
LINE
  5
22F8
330
1F
100
AcDbEntity
  8
AD4530
  6
Continuous
100
AcDbLine
 10
280.7829249327349
 20
98.23122483201755
 30
0.0
 11
280.7829249327349
 21
89.63122483201763
 31
0.0
  0
LINE
  5
230D
330
1F
100
AcDbEntity
  8
AD4530
  6
Continuous
100
AcDbLine
 10
280.782924932735
 20
68.43122483201759
 30
0.0
 11
279.182924932735
 21
68.43122483201759
 31
0.0
  0
LINE
  5
230E
330
1F
100
AcDbEntity
  8
AD4530
  6
Continuous
100
AcDbLine
 10
280.782924932735
 20
77.03122483201764
 30
0.0
 11
280.782924932735
 21
68.43122483201753
 31
0.0
  0
LINE
  5
230F
330
1F
100
AcDbEntity
  8
AD4530
  6
Continuous
100
AcDbLine
 10
279.182924932735
 20
77.03122483201764
 30
0.0
 11
280.782924932735
 21
77.03122483201764
 31
0.0
  0
LINE
  5
2314
330
1F
100
AcDbEntity
  8
AD4530
  6
Continuous
 62
     9
100
AcDbLine
 10
157.182924932735
 20
78.33122483201754
 30
0.0
 11
157.3487354207594
 21
59.33122483201779
 31
0.0
  0
LINE
  5
2315
330
1F
100
AcDbEntity
  8
AD4530
  6
Continuous
100
AcDbLine
 10
159.8829249327349
 20
78.33122483201754
 30
0.0
 11
159.7171144447105
 21
59.33122483201785
 31
0.0
  0
LINE
  5
2316
330
1F
100
AcDbEntity
  8
AD4530
  6
Continuous
 62
     9
100
AcDbLine
 10
240.482924932735
 20
64.63122483201752
 30
0.0
 11
240.4829249327351
 21
61.23122483201749
 31
0.0
  0
LINE
  5
2317
330
1F
100
AcDbEntity
  8
AD4530
  6
Continuous
 62
     9
100
AcDbLine
 10
258.882924932735
 20
64.63122483201752
 30
0.0
 11
258.882924932735
 21
61.23122483201754
 31
0.0
  0
LINE
  5
231A
330
1F
100
AcDbEntity
  8
AD4530
  6
Continuous
 62
     9
100
AcDbLine
 10
191.382924932735
 20
75.03122483201756
 30
0.0
 11
182.982924932735
 21
75.03122483201756
 31
0.0
  0
LINE
  5
231B
330
1F
100
AcDbEntity
  8
AD4530
  6
Continuous
 62
     9
100
AcDbLine
 10
182.982924932735
 20
75.03122483201756
 30
0.0
 11
182.982924932735
 21
62.2312248320176
 31
0.0
  0
LINE
  5
231E
330
1F
100
AcDbEntity
  8
AD4530
  6
Continuous
 62
     9
100
AcDbLine
 10
198.882924932735
 20
73.03122483201756
 30
0.0
 11
197.0829249327349
 21
73.03122483201756
 31
0.0
  0
LINE
  5
231F
330
1F
100
AcDbEntity
  8
AD4530
  6
Continuous
 62
     9
100
AcDbLine
 10
197.0829249327348
 20
73.03122483201756
 30
0.0
 11
197.0829249327348
 21
61.43122483201764
 31
0.0
  0
LINE
  5
2322
330
1F
100
AcDbEntity
  8
AD4530
  6
Continuous
 62
     9
100
AcDbLine
 10
232.3829249327349
 20
73.0312248320175
 30
0.0
 11
230.582924932735
 21
73.0312248320175
 31
0.0
  0
LINE
  5
2323
330
1F
100
AcDbEntity
  8
AD4530
  6
Continuous
 62
     9
100
AcDbLine
 10
230.582924932735
 20
73.0312248320175
 30
0.0
 11
230.582924932735
 21
61.43122483201754
 31
0.0
  0
LINE
  5
2325
330
1F
100
AcDbEntity
  8
AD4530
  6
Continuous
 62
     9
100
AcDbLine
 10
259.882924932735
 20
73.0312248320175
 30
0.0
 11
259.882924932735
 21
61.43122483201754
 31
0.0
  0
LINE
  5
2326
330
1F
100
AcDbEntity
  8
AD4530
  6
Continuous
 62
     9
100
AcDbLine
 10
261.6829249327349
 20
73.0312248320175
 30
0.0
 11
259.882924932735
 21
73.0312248320175
 31
0.0
  0
LINE
  5
2329
330
1F
100
AcDbEntity
  8
AD4530
  6
Continuous
 62
     9
100
AcDbLine
 10
268.382924932735
 20
73.0312248320175
 30
0.0
 11
268.382924932735
 21
61.23122483201754
 31
0.0
  0
LINE
  5
232A
330
1F
100
AcDbEntity
  8
AD4530
  6
Continuous
 62
     9
100
AcDbLine
 10
270.782924932735
 20
73.0312248320175
 30
0.0
 11
268.382924932735
 21
73.0312248320175
 31
0.0
  0
LINE
  5
232B
330
1F
100
AcDbEntity
  8
AD4530
  6
Continuous
 62
     9
100
AcDbLine
 10
251.3829249327349
 20
75.03122483201756
 30
0.0
 11
242.9829249327349
 21
75.03122483201756
 31
0.0
  0
LINE
  5
232C
330
1F
100
AcDbEntity
  8
AD4530
  6
Continuous
 62
     9
100
AcDbLine
 10
242.982924932735
 20
75.03122483201756
 30
0.0
 11
242.9829249327349
 21
61.2312248320176
 31
0.0
  0
LINE
  5
2332
330
1F
100
AcDbEntity
  8
AD4530
  6
Continuous
 62
     9
100
AcDbLine
 10
259.882924932735
 20
61.43122483201754
 30
0.0
 11
261.682924932735
 21
61.43122483201754
 31
0.0
  0
LINE
  5
2340
330
1F
100
AcDbEntity
  8
AD4530
  6
Continuous
 62
     9
100
AcDbLine
 10
205.982924932735
 20
68.83122483201757
 30
0.0
 11
205.982924932735
 21
61.23122483201766
 31
0.0
  0
LINE
  5
2341
330
1F
100
AcDbEntity
  8
AD4530
  6
Continuous
 62
     9
100
AcDbLine
 10
207.782924932735
 20
68.83122483201757
 30
0.0
 11
205.982924932735
 21
68.83122483201757
 31
0.0
  0
LINE
  5
2344
330
1F
100
AcDbEntity
  8
AD4530
  6
Continuous
 62
     9
100
AcDbLine
 10
222.5829249327349
 20
68.83122483201751
 30
0.0
 11
222.5829249327349
 21
61.2312248320176
 31
0.0
  0
LINE
  5
2345
330
1F
100
AcDbEntity
  8
AD4530
  6
Continuous
 62
     9
100
AcDbLine
 10
224.3829249327349
 20
68.83122483201751
 30
0.0
 11
222.5829249327349
 21
68.83122483201751
 31
0.0
  0
LINE
  5
234B
330
1F
100
AcDbEntity
  8
AD4530
  6
Continuous
 62
     9
100
AcDbLine
 10
191.382924932735
 20
65.72780602565277
 30
0.0
 11
182.982924932735
 21
63.68456278240947
 31
0.0
  0
LINE
  5
234D
330
1F
100
AcDbEntity
  8
AD4530
  6
Continuous
 62
     9
100
AcDbLine
 10
270.782924932735
 20
61.23122483201754
 30
0.0
 11
270.782924932735
 21
73.0312248320175
 31
0.0
  0
LINE
  5
2355
330
1F
100
AcDbEntity
  8
AD4530
  6
Continuous
100
AcDbLine
 10
278.182924932735
 20
61.23122483201754
 30
0.0
 11
159.733695493513
 21
61.2312248320176
 31
0.0
  0
ARC
  5
235F
330
1F
100
AcDbEntity
  8
AD4530
  6
Continuous
 62
     9
100
AcDbCircle
 10
181.982924932735
 20
62.2312248320176
 30
0.0
 40
1.000000000000003
100
AcDbArc
 50
270.0
 51
359.0000000000015
  0
LINE
  5
2363
330
1F
100
AcDbEntity
  8
AD4530
  6
Continuous
 62
     9
100
AcDbLine
 10
196.182924932735
 20
64.63122483201757
 30
0.0
 11
191.382924932735
 21
63.46365726445
 31
0.0
  0
LINE
  5
2364
330
1F
100
AcDbEntity
  8
AD4530
  6
Continuous
 62
     9
100
AcDbLine
 10
191.382924932735
 20
63.46365726445
 30
0.0
 11
191.382924932735
 21
75.03122483201753
 31
0.0
  0
LINE
  5
2366
330
1F
100
AcDbEntity
  8
AD4530
  6
Continuous
 62
     9
100
AcDbLine
 10
197.0829249327348
 20
64.63122483201757
 30
0.0
 11
196.182924932735
 21
64.63122483201757
 31
0.0
  0
LINE
  5
2368
330
1F
100
AcDbEntity
  8
AD4530
  6
Continuous
 62
     9
100
AcDbLine
 10
205.982924932735
 20
64.63122483201757
 30
0.0
 11
198.882924932735
 21
64.63122483201757
 31
0.0
  0
LINE
  5
2369
330
1F
100
AcDbEntity
  8
AD4530
  6
Continuous
 62
     9
100
AcDbLine
 10
198.882924932735
 20
61.43122483201764
 30
0.0
 11
198.882924932735
 21
73.03122483201767
 31
0.0
  0
LINE
  5
236D
330
1F
100
AcDbEntity
  8
AD4530
  6
Continuous
 62
     9
100
AcDbLine
 10
222.5829249327349
 20
64.63122483201752
 30
0.0
 11
207.782924932735
 21
64.63122483201757
 31
0.0
  0
LINE
  5
236E
330
1F
100
AcDbEntity
  8
AD4530
  6
Continuous
 62
     9
100
AcDbLine
 10
207.782924932735
 20
61.2312248320176
 30
0.0
 11
207.782924932735
 21
68.83122483201757
 31
0.0
  0
LINE
  5
2377
330
1F
100
AcDbEntity
  8
AD4530
  6
Continuous
 62
     9
100
AcDbLine
 10
230.582924932735
 20
64.63122483201752
 30
0.0
 11
224.3829249327349
 21
64.63122483201752
 31
0.0
  0
LINE
  5
2378
330
1F
100
AcDbEntity
  8
AD4530
  6
Continuous
 62
     9
100
AcDbLine
 10
224.3829249327349
 20
61.23122483201754
 30
0.0
 11
224.3829249327349
 21
68.83122483201751
 31
0.0
  0
LINE
  5
237C
330
1F
100
AcDbEntity
  8
AD4530
  6
Continuous
 62
     9
100
AcDbLine
 10
240.482924932735
 20
64.63122483201752
 30
0.0
 11
232.3829249327349
 21
64.63122483201752
 31
0.0
  0
LINE
  5
237D
330
1F
100
AcDbEntity
  8
AD4530
  6
Continuous
 62
     9
100
AcDbLine
 10
232.3829249327349
 20
61.43122483201754
 30
0.0
 11
232.3829249327349
 21
73.03122483201761
 31
0.0
  0
LINE
  5
238C
330
1F
100
AcDbEntity
  8
AD4530
  6
Continuous
 62
     9
100
AcDbLine
 10
251.3829249327348
 20
61.2312248320176
 30
0.0
 11
251.3829249327349
 21
75.03122483201756
 31
0.0
  0
LINE
  5
2390
330
1F
100
AcDbEntity
  8
AD4530
  6
Continuous
 62
     9
100
AcDbLine
 10
259.882924932735
 20
64.63122483201752
 30
0.0
 11
258.882924932735
 21
64.63122483201752
 31
0.0
  0
LINE
  5
2393
330
1F
100
AcDbEntity
  8
AD4530
  6
Continuous
 62
     9
100
AcDbLine
 10
266.1829249327348
 20
64.63122483201752
 30
0.0
 11
261.6829249327349
 21
64.63122483201752
 31
0.0
  0
LINE
  5
2394
330
1F
100
AcDbEntity
  8
AD4530
  6
Continuous
 62
     9
100
AcDbLine
 10
261.6829249327349
 20
61.43122483201754
 30
0.0
 11
261.6829249327349
 21
73.03122483201761
 31
0.0
  0
LINE
  5
239E
330
1F
100
AcDbEntity
  8
AD4530
  6
Continuous
 62
     9
100
AcDbLine
 10
266.1829249327348
 20
61.23122483201754
 30
0.0
 11
266.1829249327348
 21
64.63122483201752
 31
0.0
  0
LINE
  5
23A3
330
1F
100
AcDbEntity
  8
AD4530
  6
Continuous
100
AcDbLine
 10
279.182924932735
 20
78.33122483201754
 30
0.0
 11
279.182924932735
 21
62.2312248320176
 31
0.0
  0
LINE
  5
23A6
330
1F
100
AcDbEntity
  8
AD4530
  6
Continuous
 62
     9
100
AcDbLine
 10
279.182924932735
 20
78.33122483201754
 30
0.0
 11
157.182924932735
 21
78.33122483201751
 31
0.0
  0
ARC
  5
23AA
330
1F
100
AcDbEntity
  8
AD4530
  6
Continuous
100
AcDbCircle
 10
278.182924932735
 20
62.2312248320176
 30
0.0
 40
1.0
100
AcDbArc
 50
270.0
 51
0.0
  0
LINE
  5
23AD
330
1F
100
AcDbEntity
  8
AD4530
  6
Continuous
 62
     9
100
AcDbLine
 10
157.3487354207593
 20
107.3312248320176
 30
0.0
 11
157.1829249327349
 21
88.33122483201782
 31
0.0
  0
LINE
  5
23AE
330
1F
100
AcDbEntity
  8
AD4530
  6
Continuous
100
AcDbLine
 10
159.7171144447105
 20
107.3312248320176
 30
0.0
 11
159.8829249327349
 21
88.33122483201782
 31
0.0
  0
LINE
  5
23B1
330
1F
100
AcDbEntity
  8
AD4530
  6
Continuous
100
AcDbLine
 10
157.3487354207593
 20
107.3312248320176
 30
0.0
 11
159.7171144447105
 21
107.3312248320176
 31
0.0
  0
LINE
  5
23B4
330
1F
100
AcDbEntity
  8
AD4530
  6
Continuous
 62
     9
100
AcDbLine
 10
242.0066592045492
 20
88.53119437104874
 30
0.0
 11
241.771013726344
 21
102.0313147758929
 31
0.0
  0
LINE
  5
23B6
330
1F
100
AcDbEntity
  8
AD4530
  6
Continuous
 62
     9
100
AcDbLine
 10
252.3592504527029
 20
88.53119437104897
 30
0.0
 11
252.654241581688
 21
105.4312248320176
 31
0.0
  0
LINE
  5
23B8
330
1F
100
AcDbEntity
  8
AD4530
  6
Continuous
 62
     9
100
AcDbLine
 10
182.0066740831856
 20
88.53119437104902
 30
0.0
 11
181.7116829542005
 21
105.4312248320176
 31
0.0
  0
LINE
  5
23BA
330
1F
100
AcDbEntity
  8
AD4530
  6
Continuous
 62
     9
100
AcDbLine
 10
192.3592504527029
 20
88.53119437104879
 30
0.0
 11
192.654241581688
 21
105.4312248320176
 31
0.0
  0
LINE
  5
23CB
330
1F
100
AcDbEntity
  8
AD4530
  6
Continuous
 62
     9
100
AcDbLine
 10
183.1829249327348
 20
74.83116391008002
 30
0.0
 11
191.1829249327348
 21
74.83116391008002
 31
0.0
  0
LINE
  5
23CE
330
1F
100
AcDbEntity
  8
AD4530
  6
Continuous
 62
     9
100
AcDbLine
 10
243.1829249327349
 20
74.83116391008002
 30
0.0
 11
251.1829249327349
 21
74.83116391008002
 31
0.0
  0
LINE
  5
23CF
330
1F
100
AcDbEntity
  8
AD4530
  6
Continuous
 62
     9
100
AcDbLine
 10
183.1829249327348
 20
73.43122483201759
 30
0.0
 11
191.1829249327348
 21
73.43122483201759
 31
0.0
  0
LINE
  5
23D0
330
1F
100
AcDbEntity
  8
AD4530
  6
Continuous
 62
     9
100
AcDbLine
 10
191.182924932735
 20
75.03122483201756
 30
0.0
 11
191.182924932735
 21
72.43122483201759
 31
0.0
  0
LINE
  5
23D1
330
1F
100
AcDbEntity
  8
AD4530
  6
Continuous
 62
     9
100
AcDbLine
 10
243.1829249327349
 20
73.43122483201753
 30
0.0
 11
251.1829249327349
 21
73.43122483201753
 31
0.0
  0
LINE
  5
23D2
330
1F
100
AcDbEntity
  8
AD4530
  6
Continuous
 62
     9
100
AcDbLine
 10
251.1829249327349
 20
75.03122483201753
 30
0.0
 11
251.1829249327349
 21
72.43122483201753
 31
0.0
  0
LINE
  5
23D3
330
1F
100
AcDbEntity
  8
AD4530
  6
Continuous
 62
     9
100
AcDbLine
 10
183.1829249327348
 20
72.43122483201759
 30
0.0
 11
183.1829249327348
 21
75.03122483201756
 31
0.0
  0
ARC
  5
23D4
330
1F
100
AcDbEntity
  8
AD4530
  6
Continuous
 62
     9
100
AcDbCircle
 10
184.1829249327348
 20
72.43122483201759
 30
0.0
 40
1.000000000000003
100
AcDbArc
 50
180.0
 51
270.0
  0
LINE
  5
23D5
330
1F
100
AcDbEntity
  8
AD4530
  6
Continuous
 62
     9
100
AcDbLine
 10
190.182924932735
 20
71.43122483201759
 30
0.0
 11
184.1829249327348
 21
71.43122483201759
 31
0.0
  0
ARC
  5
23D6
330
1F
100
AcDbEntity
  8
AD4530
  6
Continuous
 62
     9
100
AcDbCircle
 10
190.182924932735
 20
72.43122483201759
 30
0.0
 40
0.9999999999999992
100
AcDbArc
 50
270.0
 51
0.0
  0
LINE
  5
23D7
330
1F
100
AcDbEntity
  8
AD4530
  6
Continuous
 62
     9
100
AcDbLine
 10
243.1829249327349
 20
72.43122483201753
 30
0.0
 11
243.1829249327349
 21
75.03122483201753
 31
0.0
  0
ARC
  5
23D8
330
1F
100
AcDbEntity
  8
AD4530
  6
Continuous
 62
     9
100
AcDbCircle
 10
244.1829249327349
 20
72.43122483201753
 30
0.0
 40
1.0
100
AcDbArc
 50
180.0
 51
270.0
  0
LINE
  5
23D9
330
1F
100
AcDbEntity
  8
AD4530
  6
Continuous
 62
     9
100
AcDbLine
 10
250.1829249327349
 20
71.43122483201754
 30
0.0
 11
244.1829249327349
 21
71.43122483201754
 31
0.0
  0
ARC
  5
23DA
330
1F
100
AcDbEntity
  8
AD4530
  6
Continuous
 62
     9
100
AcDbCircle
 10
250.1829249327349
 20
72.43122483201753
 30
0.0
 40
0.9999999999999992
100
AcDbArc
 50
270.0
 51
0.0
  0
LINE
  5
23DC
330
1F
100
AcDbEntity
  8
AD4530
  6
Continuous
 62
     9
100
AcDbLine
 10
259.8829249327349
 20
92.93122483201756
 30
0.0
 11
259.8829249327349
 21
105.4312248320176
 31
0.0
  0
LINE
  5
23DE
330
1F
100
AcDbEntity
  8
AD4530
  6
Continuous
 62
     9
100
AcDbLine
 10
248.3829249327349
 20
105.2312248320176
 30
0.0
 11
248.3829249327349
 21
92.93122483201756
 31
0.0
  0
LINE
  5
23DF
330
1F
100
AcDbEntity
  8
AD4530
  6
Continuous
 62
     9
100
AcDbLine
 10
246.5829249327348
 20
92.93122483201756
 30
0.0
 11
246.5829249327348
 21
105.2312248320176
 31
0.0
  0
LINE
  5
23E1
330
1F
100
AcDbEntity
  8
AD4530
  6
Continuous
 62
     9
100
AcDbLine
 10
248.3829249327349
 20
92.93122483201756
 30
0.0
 11
246.5829249327348
 21
92.93122483201756
 31
0.0
  0
LINE
  5
23E3
330
1F
100
AcDbEntity
  8
AD4530
  6
Continuous
 62
     9
100
AcDbLine
 10
238.5829249327349
 20
92.93122483201756
 30
0.0
 11
238.582924932735
 21
105.2312248320176
 31
0.0
  0
LINE
  5
23E5
330
1F
100
AcDbEntity
  8
AD4530
  6
Continuous
 62
     9
100
AcDbLine
 10
222.5829249327349
 20
92.93122483201756
 30
0.0
 11
222.5829249327349
 21
105.2312248320176
 31
0.0
  0
LINE
  5
23E8
330
1F
100
AcDbEntity
  8
AD4530
  6
Continuous
 62
     9
100
AcDbLine
 10
192.5799661652898
 20
101.1759890764606
 30
0.0
 11
190.3829249327349
 21
101.703266314207
 31
0.0
  0
LINE
  5
23E9
330
1F
100
AcDbEntity
  8
AD4530
  6
Continuous
 62
     9
100
AcDbLine
 10
190.3829249327349
 20
105.4312248320176
 30
0.0
 11
190.3829249327349
 21
92.93122483201756
 31
0.0
  0
LINE
  5
23EA
330
1F
100
AcDbEntity
  8
AD4530
  6
Continuous
 62
     9
100
AcDbLine
 10
190.3829249327349
 20
92.93122483201756
 30
0.0
 11
192.4360532700851
 21
92.93122483201756
 31
0.0
  0
LINE
  5
23EC
330
1F
100
AcDbEntity
  8
AD4530
  6
Continuous
 62
     9
100
AcDbLine
 10
185.2829249327349
 20
102.9272369309895
 30
0.0
 11
183.4829249327349
 21
103.3592265604421
 31
0.0
  0
LINE
  5
23ED
330
1F
100
AcDbEntity
  8
AD4530
  6
Continuous
 62
     9
100
AcDbLine
 10
185.2829249327349
 20
92.93122483201756
 30
0.0
 11
185.2829249327349
 21
105.4312248320176
 31
0.0
  0
LINE
  5
23EE
330
1F
100
AcDbEntity
  8
AD4530
  6
Continuous
 62
     9
100
AcDbLine
 10
183.4829249327349
 20
105.4312248320175
 30
0.0
 11
183.4829249327349
 21
92.93122483201756
 31
0.0
  0
LINE
  5
23EF
330
1F
100
AcDbEntity
  8
AD4530
  6
Continuous
 62
     9
100
AcDbLine
 10
183.4829249327349
 20
92.93122483201756
 30
0.0
 11
185.2829249327349
 21
92.93122483201756
 31
0.0
  0
LINE
  5
23F1
330
1F
100
AcDbEntity
  8
AD4530
  6
Continuous
 62
     9
100
AcDbLine
 10
268.6829249327349
 20
92.93122483201756
 30
0.0
 11
268.6829249327349
 21
105.4312248320176
 31
0.0
  0
LINE
  5
23F6
330
1F
100
AcDbEntity
  8
AD4530
  6
Continuous
 62
     9
100
AcDbLine
 10
230.4329249327349
 20
97.83122483201754
 30
0.0
 11
230.4329249327349
 21
105.4312248320176
 31
0.0
  0
LINE
  5
23F7
330
1F
100
AcDbEntity
  8
AD4530
  6
Continuous
 62
     9
100
AcDbLine
 10
232.5329249327349
 20
97.83122483201754
 30
0.0
 11
232.5329249327349
 21
105.4312248320176
 31
0.0
  0
LINE
  5
23FA
330
1F
100
AcDbEntity
  8
AD4530
  6
Continuous
 62
     9
100
AcDbLine
 10
196.9329249327348
 20
97.83122483201754
 30
0.0
 11
196.9329249327348
 21
105.4312248320176
 31
0.0
  0
LINE
  5
23FB
330
1F
100
AcDbEntity
  8
AD4530
  6
Continuous
 62
     9
100
AcDbLine
 10
199.0329249327349
 20
97.83122483201754
 30
0.0
 11
199.0329249327351
 21
105.4312248320176
 31
0.0
  0
LINE
  5
23FE
330
1F
100
AcDbEntity
  8
AD4530
  6
Continuous
 62
     9
100
AcDbLine
 10
160.3112080408573
 20
88.3312248320178
 30
0.0
 11
157.1829249327349
 21
88.33122483201782
 31
0.0
  0
LINE
  5
2400
330
1F
100
AcDbEntity
  8
AD4530
  6
Continuous
 62
     9
100
AcDbLine
 10
190.3829249327349
 20
103.9657363394783
 30
0.0
 11
185.2829249327349
 21
105.1897069562608
 31
0.0
  0
LINE
  5
2401
330
1F
100
AcDbEntity
  8
AD4530
  6
Continuous
 62
     9
100
AcDbLine
 10
246.5829249327349
 20
102.0313147758929
 30
0.0
 11
240.3829249327349
 21
102.0313147758929
 31
0.0
  0
LINE
  5
2402
330
1F
100
AcDbEntity
  8
AD4530
  6
Continuous
 62
     9
100
AcDbLine
 10
248.3829249327349
 20
102.0313147758929
 30
0.0
 11
252.5948959309082
 21
102.0313147758929
 31
0.0
  0
LINE
  5
2404
330
1F
100
AcDbEntity
  8
AD4530
  6
Continuous
100
AcDbLine
 10
159.7336954935129
 20
105.4312248320176
 30
0.0
 11
278.182924932735
 21
105.4312248320176
 31
0.0
  0
LINE
  5
2408
330
1F
100
AcDbEntity
  8
AD4530
  6
Continuous
 62
     9
100
AcDbLine
 10
268.6829249327349
 20
92.93122483201756
 30
0.0
 11
270.4829249327349
 21
92.93122483201756
 31
0.0
  0
LINE
  5
240A
330
1F
100
AcDbEntity
  8
AD4530
  6
Continuous
 62
     9
100
AcDbLine
 10
259.8829249327349
 20
92.93122483201756
 30
0.0
 11
261.6829249327349
 21
92.93122483201756
 31
0.0
  0
LINE
  5
240C
330
1F
100
AcDbEntity
  8
AD4530
  6
Continuous
 62
     9
100
AcDbLine
 10
238.5829249327349
 20
92.93122483201756
 30
0.0
 11
240.3829249327349
 21
92.93122483201756
 31
0.0
  0
LINE
  5
240E
330
1F
100
AcDbEntity
  8
AD4530
  6
Continuous
 62
     9
100
AcDbLine
 10
230.4329249327349
 20
97.83122483201754
 30
0.0
 11
232.5329249327349
 21
97.83122483201754
 31
0.0
  0
LINE
  5
2410
330
1F
100
AcDbEntity
  8
AD4530
  6
Continuous
 62
     9
100
AcDbLine
 10
222.5829249327349
 20
92.93122483201756
 30
0.0
 11
224.3829249327349
 21
92.93122483201756
 31
0.0
  0
LINE
  5
2412
330
1F
100
AcDbEntity
  8
AD4530
  6
Continuous
 62
     9
100
AcDbLine
 10
196.9329249327348
 20
97.83122483201754
 30
0.0
 11
199.0329249327349
 21
97.83122483201754
 31
0.0
  0
LINE
  5
2415
330
1F
100
AcDbEntity
  8
AD4530
  6
Continuous
 62
     9
100
AcDbLine
 10
192.619292981921
 20
103.4290208923185
 30
0.0
 11
196.9329249327348
 21
102.3937740767479
 31
0.0
  0
LINE
  5
2419
330
1F
100
AcDbEntity
  8
AD4530
  6
Continuous
 62
     9
100
AcDbLine
 10
199.032924932735
 20
102.0313147758929
 30
0.0
 11
222.5829249327349
 21
102.0313147758929
 31
0.0
  0
LINE
  5
241B
330
1F
100
AcDbEntity
  8
AD4530
  6
Continuous
 62
     9
100
AcDbLine
 10
224.3829249327349
 20
102.0313147758929
 30
0.0
 11
230.432924932735
 21
102.0313147758929
 31
0.0
  0
LINE
  5
241D
330
1F
100
AcDbEntity
  8
AD4530
  6
Continuous
 62
     9
100
AcDbLine
 10
224.3829249327349
 20
105.2312248320176
 30
0.0
 11
224.3829249327349
 21
92.93122483201756
 31
0.0
  0
LINE
  5
2420
330
1F
100
AcDbEntity
  8
AD4530
  6
Continuous
 62
     9
100
AcDbLine
 10
232.5329249327349
 20
102.0313147758929
 30
0.0
 11
238.582924932735
 21
102.0313147758929
 31
0.0
  0
LINE
  5
2426
330
1F
100
AcDbEntity
  8
AD4530
  6
Continuous
 62
     9
100
AcDbLine
 10
240.3829249327349
 20
105.2312248320176
 30
0.0
 11
240.3829249327349
 21
92.93122483201756
 31
0.0
  0
LINE
  5
242A
330
1F
100
AcDbEntity
  8
AD4530
  6
Continuous
 62
     9
100
AcDbLine
 10
270.482924932735
 20
105.4312248320176
 30
0.0
 11
270.4829249327349
 21
92.93122483201756
 31
0.0
  0
LINE
  5
2430
330
1F
100
AcDbEntity
  8
AD4530
  6
Continuous
 62
     9
100
AcDbLine
 10
261.6829249327349
 20
105.4312248320176
 30
0.0
 11
261.6829249327349
 21
92.93122483201756
 31
0.0
  0
LINE
  5
243D
330
1F
100
AcDbEntity
  8
AD4530
  6
Continuous
 62
     9
100
AcDbLine
 10
248.3829249327349
 20
105.2312248320176
 30
0.0
 11
246.5829249327349
 21
105.2312248320176
 31
0.0
  0
LINE
  5
2442
330
1F
100
AcDbEntity
  8
AD4530
  6
Continuous
 62
     9
100
AcDbLine
 10
240.3829249327349
 20
105.2312248320176
 30
0.0
 11
238.582924932735
 21
105.2312248320176
 31
0.0
  0
LINE
  5
2450
330
1F
100
AcDbEntity
  8
AD4530
  6
Continuous
 62
     9
100
AcDbLine
 10
224.3829249327349
 20
105.2312248320176
 30
0.0
 11
222.582924932735
 21
105.2312248320176
 31
0.0
  0
LINE
  5
2462
330
1F
100
AcDbEntity
  8
AD4530
  6
Continuous
100
AcDbLine
 10
279.1829249327349
 20
104.4312248320176
 30
0.0
 11
279.1829249327349
 21
88.53119437104874
 31
0.0
  0
ARC
  5
246B
330
1F
100
AcDbEntity
  8
AD4530
  6
Continuous
100
AcDbCircle
 10
278.182924932735
 20
104.4312248320176
 30
0.0
 40
1.0
100
AcDbArc
 50
0.0
 51
90.0
  0
LINE
  5
2470
330
1F
100
AcDbEntity
  8
AD4530
  6
Continuous
100
AcDbLine
 10
280.7829249327348
 20
88.53119437104897
 30
0.0
 11
280.7829249327349
 21
78.53119437104891
 31
0.0
  0
LINE
  5
2472
330
1F
100
AcDbEntity
  8
AD4530
  6
Continuous
 62
     9
100
AcDbLine
 10
161.1829249327348
 20
88.53119437104902
 30
0.0
 11
280.7829249327348
 21
88.53119437104897
 31
0.0
  0
ARC
  5
2473
330
1F
100
AcDbEntity
  8
AD4530
  6
Continuous
 62
     9
100
AcDbCircle
 10
161.1829249327348
 20
86.53119437104903
 30
0.0
 40
2.0
100
AcDbArc
 50
90.0
 51
180.0
  0
LINE
  5
2474
330
1F
100
AcDbEntity
  8
AD4530
  6
Continuous
 62
     9
100
AcDbLine
 10
161.1829249327348
 20
78.53119437104902
 30
0.0
 11
280.7829249327349
 21
78.53119437104891
 31
0.0
  0
ARC
  5
2475
330
1F
100
AcDbEntity
  8
AD4530
  6
Continuous
 62
     9
100
AcDbCircle
 10
161.1829249327348
 20
80.53119437104902
 30
0.0
 40
2.0
100
AcDbArc
 50
180.0
 51
270.0
  0
LINE
  5
264D
330
1F
100
AcDbEntity
  8
AD4530
  6
Continuous
100
AcDbLine
 10
306.2864360002907
 20
88.23122483201789
 30
0.0
 11
305.6864360002908
 21
88.23122483201789
 31
0.0
  0
LINE
  5
2650
330
1F
100
AcDbEntity
  8
AD4530
  6
Continuous
100
AcDbLine
 10
401.6864360002908
 20
88.23122483201789
 30
0.0
 11
401.0864360002907
 21
88.23122483201789
 31
0.0
  0
CIRCLE
  5
2653
330
1F
100
AcDbEntity
  8
AD4530
  6
Continuous
 62
     9
100
AcDbCircle
 10
312.8362038099556
 20
83.53119437104894
 30
0.0
 40
3.062511336474075
  0
CIRCLE
  5
2654
330
1F
100
AcDbEntity
  8
AD4530
  6
Continuous
 62
     9
100
AcDbCircle
 10
312.8362038099556
 20
83.53119437104894
 30
0.0
 40
3.149999999999999
  0
ARC
  5
2655
330
1F
100
AcDbEntity
  8
AD4530
  6
Continuous
 62
     9
100
AcDbCircle
 10
311.2444735805801
 20
83.19743566046261
 30
0.0
 40
0.7999999999999573
100
AcDbArc
 50
326.8423803590693
 51
56.84238035907665
  0
LINE
  5
2656
330
1F
100
AcDbEntity
  8
AD4530
  6
Continuous
 62
     9
100
AcDbLine
 10
311.914208864045
 20
82.75988034957933
 30
0.0
 11
311.7227784155336
 21
82.46687116306341
 31
0.0
  0
LINE
  5
2657
330
1F
100
AcDbEntity
  8
AD4530
  6
Continuous
 62
     9
100
AcDbLine
 10
311.7227784155336
 20
82.46687116306341
 30
0.0
 11
312.3087967885656
 21
82.08401026604063
 31
0.0
  0
LINE
  5
2658
330
1F
100
AcDbEntity
  8
AD4530
  6
Continuous
 62
     9
100
AcDbLine
 10
312.3087967885656
 20
82.08401026604063
 30
0.0
 11
312.5002272370769
 21
82.37701945255654
 31
0.0
  0
ARC
  5
2659
330
1F
100
AcDbEntity
  8
AD4530
  6
Continuous
 62
     9
100
AcDbCircle
 10
313.1699625205419
 20
81.93946414167342
 30
0.0
 40
0.7999999999999599
100
AcDbArc
 50
56.84238035907537
 51
146.8423803590766
  0
LINE
  5
265A
330
1F
100
AcDbEntity
  8
AD4530
  6
Continuous
 62
     9
100
AcDbLine
 10
313.6075178314251
 20
82.60919942513837
 30
0.0
 11
313.900527017941
 21
82.41776897662706
 31
0.0
  0
LINE
  5
265B
330
1F
100
AcDbEntity
  8
AD4530
  6
Continuous
 62
     9
100
AcDbLine
 10
313.900527017941
 20
82.41776897662706
 30
0.0
 11
314.2833879149638
 21
83.00378734965883
 31
0.0
  0
LINE
  5
265C
330
1F
100
AcDbEntity
  8
AD4530
  6
Continuous
 62
     9
100
AcDbLine
 10
314.2833879149638
 20
83.00378734965883
 30
0.0
 11
313.9903787284478
 21
83.19521779817021
 31
0.0
  0
ARC
  5
265D
330
1F
100
AcDbEntity
  8
AD4530
  6
Continuous
 62
     9
100
AcDbCircle
 10
314.427934039331
 20
83.86495308163521
 30
0.0
 40
0.7999999999999568
100
AcDbArc
 50
146.8423803590766
 51
236.8423803590789
  0
LINE
  5
265E
330
1F
100
AcDbEntity
  8
AD4530
  6
Continuous
 62
     9
100
AcDbLine
 10
313.7581987558661
 20
84.30250839251844
 30
0.0
 11
313.9496292043774
 21
84.59551757903435
 31
0.0
  0
LINE
  5
265F
330
1F
100
AcDbEntity
  8
AD4530
  6
Continuous
 62
     9
100
AcDbLine
 10
313.9496292043774
 20
84.59551757903435
 30
0.0
 11
313.3636108313456
 21
84.97837847605714
 31
0.0
  0
LINE
  5
2660
330
1F
100
AcDbEntity
  8
AD4530
  6
Continuous
 62
     9
100
AcDbLine
 10
313.3636108313456
 20
84.97837847605714
 30
0.0
 11
313.1721803828343
 21
84.68536928954122
 31
0.0
  0
ARC
  5
2661
330
1F
100
AcDbEntity
  8
AD4530
  6
Continuous
 62
     9
100
AcDbCircle
 10
312.5024450993692
 20
85.12292460042434
 30
0.0
 40
0.799999999999951
100
AcDbArc
 50
236.8423803590731
 51
326.8423803590847
  0
LINE
  5
2662
330
1F
100
AcDbEntity
  8
AD4530
  6
Continuous
 62
     9
100
AcDbLine
 10
312.064889788486
 20
84.45318931695945
 30
0.0
 11
311.7718806019701
 21
84.64461976547088
 31
0.0
  0
LINE
  5
2663
330
1F
100
AcDbEntity
  8
AD4530
  6
Continuous
 62
     9
100
AcDbLine
 10
311.7718806019701
 20
84.64461976547088
 30
0.0
 11
311.3890197049473
 21
84.05860139243893
 31
0.0
  0
LINE
  5
2664
330
1F
100
AcDbEntity
  8
AD4530
  6
Continuous
 62
     9
100
AcDbLine
 10
311.3890197049473
 20
84.05860139243893
 30
0.0
 11
311.6820288914632
 21
83.86717094392755
 31
0.0
  0
CIRCLE
  5
2665
330
1F
100
AcDbEntity
  8
AD4530
  6
Continuous
 62
     9
100
AcDbCircle
 10
394.5364748818414
 20
83.53119437104883
 30
0.0
 40
3.062511336474075
  0
CIRCLE
  5
2666
330
1F
100
AcDbEntity
  8
AD4530
  6
Continuous
 62
     9
100
AcDbCircle
 10
394.5364748818414
 20
83.53119437104883
 30
0.0
 40
3.149999999999999
  0
ARC
  5
2667
330
1F
100
AcDbEntity
  8
AD4530
  6
Continuous
 62
     9
100
AcDbCircle
 10
392.9447446524659
 20
83.1974356604625
 30
0.0
 40
0.7999999999999573
100
AcDbArc
 50
326.8423803590708
 51
56.84238035907848
  0
LINE
  5
2668
330
1F
100
AcDbEntity
  8
AD4530
  6
Continuous
 62
     9
100
AcDbLine
 10
393.6144799359309
 20
82.75988034957933
 30
0.0
 11
393.4230494874194
 21
82.46687116306336
 31
0.0
  0
LINE
  5
2669
330
1F
100
AcDbEntity
  8
AD4530
  6
Continuous
 62
     9
100
AcDbLine
 10
393.4230494874194
 20
82.46687116306336
 30
0.0
 11
394.0090678604513
 21
82.0840102660405
 31
0.0
  0
LINE
  5
266A
330
1F
100
AcDbEntity
  8
AD4530
  6
Continuous
 62
     9
100
AcDbLine
 10
394.0090678604513
 20
82.08401026604063
 30
0.0
 11
394.2004983089627
 21
82.37701945255654
 31
0.0
  0
ARC
  5
266B
330
1F
100
AcDbEntity
  8
AD4530
  6
Continuous
 62
     9
100
AcDbCircle
 10
394.8702335924276
 20
81.93946414167337
 30
0.0
 40
0.7999999999999599
100
AcDbArc
 50
56.84238035907313
 51
146.8423803590766
  0
LINE
  5
266C
330
1F
100
AcDbEntity
  8
AD4530
  6
Continuous
 62
     9
100
AcDbLine
 10
395.3077889033108
 20
82.60919942513837
 30
0.0
 11
395.6007980898268
 21
82.41776897662694
 31
0.0
  0
LINE
  5
266D
330
1F
100
AcDbEntity
  8
AD4530
  6
Continuous
 62
     9
100
AcDbLine
 10
395.6007980898268
 20
82.41776897662694
 30
0.0
 11
395.9836589868496
 21
83.00378734965873
 31
0.0
  0
LINE
  5
266E
330
1F
100
AcDbEntity
  8
AD4530
  6
Continuous
 62
     9
100
AcDbLine
 10
395.9836589868496
 20
83.00378734965873
 30
0.0
 11
395.6906498003336
 21
83.19521779817009
 31
0.0
  0
ARC
  5
266F
330
1F
100
AcDbEntity
  8
AD4530
  6
Continuous
 62
     9
100
AcDbCircle
 10
396.1282051112168
 20
83.86495308163508
 30
0.0
 40
0.7999999999999568
100
AcDbArc
 50
146.8423803590766
 51
236.8423803590789
  0
LINE
  5
2670
330
1F
100
AcDbEntity
  8
AD4530
  6
Continuous
 62
     9
100
AcDbLine
 10
395.4584698277518
 20
84.30250839251831
 30
0.0
 11
395.6499002762632
 21
84.59551757903424
 31
0.0
  0
LINE
  5
2671
330
1F
100
AcDbEntity
  8
AD4530
  6
Continuous
 62
     9
100
AcDbLine
 10
395.6499002762632
 20
84.59551757903424
 30
0.0
 11
395.0638819032314
 21
84.97837847605703
 31
0.0
  0
LINE
  5
2672
330
1F
100
AcDbEntity
  8
AD4530
  6
Continuous
 62
     9
100
AcDbLine
 10
395.0638819032314
 20
84.97837847605703
 30
0.0
 11
394.87245145472
 21
84.68536928954112
 31
0.0
  0
ARC
  5
2673
330
1F
100
AcDbEntity
  8
AD4530
  6
Continuous
 62
     9
100
AcDbCircle
 10
394.202716171255
 20
85.12292460042422
 30
0.0
 40
0.799999999999951
100
AcDbArc
 50
236.8423803590731
 51
326.8423803590766
  0
LINE
  5
2674
330
1F
100
AcDbEntity
  8
AD4530
  6
Continuous
 62
     9
100
AcDbLine
 10
393.7651608603718
 20
84.45318931695934
 30
0.0
 11
393.4721516738559
 21
84.64461976547076
 31
0.0
  0
LINE
  5
2675
330
1F
100
AcDbEntity
  8
AD4530
  6
Continuous
 62
     9
100
AcDbLine
 10
393.4721516738559
 20
84.64461976547076
 30
0.0
 11
393.0892907768332
 21
84.05860139243882
 31
0.0
  0
LINE
  5
2676
330
1F
100
AcDbEntity
  8
AD4530
  6
Continuous
 62
     9
100
AcDbLine
 10
393.0892907768332
 20
84.05860139243882
 30
0.0
 11
393.382299963349
 21
83.86717094392745
 31
0.0
  0
LINE
  5
26AE
330
1F
100
AcDbEntity
  8
AD4530
  6
Continuous
 62
     9
100
AcDbLine
 10
316.4464360002909
 20
77.03122483201767
 30
0.0
 11
316.4464360002908
 21
68.43122483201764
 31
0.0
  0
LINE
  5
26AF
330
1F
100
AcDbEntity
  8
AD4530
  6
Continuous
 62
     9
100
AcDbLine
 10
316.4464360002908
 20
68.43122483201759
 30
0.0
 11
364.0864360002908
 21
68.43122483201764
 31
0.0
  0
LINE
  5
26B0
330
1F
100
AcDbEntity
  8
AD4530
  6
Continuous
 62
     9
100
AcDbLine
 10
364.0864360002908
 20
68.43122483201764
 30
0.0
 11
364.0864360002908
 21
77.03122483201761
 31
0.0
  0
LINE
  5
26B3
330
1F
100
AcDbEntity
  8
AD4530
  6
Continuous
 62
     9
100
AcDbLine
 10
364.0864360002908
 20
77.03122483201761
 30
0.0
 11
316.4464360002909
 21
77.03122483201767
 31
0.0
  0
LINE
  5
26C4
330
1F
100
AcDbEntity
  8
AD4530
  6
Continuous
 62
     9
100
AcDbLine
 10
340.7664360002908
 20
71.38122483201764
 30
0.0
 11
340.7664360002908
 21
72.38122483201763
 31
0.0
  0
LINE
  5
26C5
330
1F
100
AcDbEntity
  8
AD4530
  6
Continuous
 62
     9
100
AcDbLine
 10
345.8464360002909
 20
71.38122483201764
 30
0.0
 11
345.8464360002909
 21
72.38122483201763
 31
0.0
  0
LINE
  5
26C6
330
1F
100
AcDbEntity
  8
AD4530
  6
Continuous
 62
     9
100
AcDbLine
 10
350.9264360002908
 20
71.38122483201764
 30
0.0
 11
350.9264360002908
 21
72.38122483201763
 31
0.0
  0
LINE
  5
26C7
330
1F
100
AcDbEntity
  8
AD4530
  6
Continuous
 62
     9
100
AcDbLine
 10
356.0064360002908
 20
71.38122483201764
 30
0.0
 11
356.0064360002908
 21
72.38122483201763
 31
0.0
  0
LINE
  5
26C8
330
1F
100
AcDbEntity
  8
AD4530
  6
Continuous
 62
     9
100
AcDbLine
 10
361.0864360002908
 20
71.38122483201764
 30
0.0
 11
361.0864360002908
 21
72.38122483201763
 31
0.0
  0
LINE
  5
26C9
330
1F
100
AcDbEntity
  8
AD4530
  6
Continuous
 62
     9
100
AcDbLine
 10
335.6864360002908
 20
71.38122483201764
 30
0.0
 11
335.6864360002908
 21
72.38122483201763
 31
0.0
  0
LINE
  5
26CA
330
1F
100
AcDbEntity
  8
AD4530
  6
Continuous
 62
     9
100
AcDbLine
 10
330.6064360002908
 20
71.38122483201764
 30
0.0
 11
330.6064360002908
 21
72.38122483201763
 31
0.0
  0
LINE
  5
26CB
330
1F
100
AcDbEntity
  8
AD4530
  6
Continuous
 62
     9
100
AcDbLine
 10
325.5264360002908
 20
71.38122483201764
 30
0.0
 11
325.5264360002908
 21
72.38122483201763
 31
0.0
  0
LINE
  5
26CC
330
1F
100
AcDbEntity
  8
AD4530
  6
Continuous
 62
     9
100
AcDbLine
 10
333.0649114419374
 20
70.13122483201764
 30
0.0
 11
332.2272931164373
 21
70.13122483201764
 31
0.0
  0
LINE
  5
26CD
330
1F
100
AcDbEntity
  8
AD4530
  6
Continuous
 62
     9
100
AcDbLine
 10
338.1449114419596
 20
70.13122483201764
 30
0.0
 11
337.3072931204126
 21
70.13122483201764
 31
0.0
  0
LINE
  5
26CE
330
1F
100
AcDbEntity
  8
AD4530
  6
Continuous
 62
     9
100
AcDbLine
 10
343.2249114419374
 20
70.13122483201764
 30
0.0
 11
342.3872931204685
 21
70.13122483201764
 31
0.0
  0
LINE
  5
26CF
330
1F
100
AcDbEntity
  8
AD4530
  6
Continuous
 62
     9
100
AcDbLine
 10
348.3049114417021
 20
70.13122483201764
 30
0.0
 11
347.4672931204127
 21
70.13122483201764
 31
0.0
  0
LINE
  5
26D0
330
1F
100
AcDbEntity
  8
AD4530
  6
Continuous
 62
     9
100
AcDbLine
 10
353.3849114424495
 20
70.13122483201764
 30
0.0
 11
352.5472931222704
 21
70.13122483201764
 31
0.0
  0
LINE
  5
26D1
330
1F
100
AcDbEntity
  8
AD4530
  6
Continuous
 62
     9
100
AcDbLine
 10
358.4649114424495
 20
70.13122483201764
 30
0.0
 11
357.6272931182951
 21
70.13122483201764
 31
0.0
  0
LINE
  5
26D2
330
1F
100
AcDbEntity
  8
AD4530
  6
Continuous
 62
     9
100
AcDbLine
 10
363.0864360002908
 20
70.13122483201764
 30
0.0
 11
362.7072931182952
 21
70.13122483201764
 31
0.0
  0
LINE
  5
26D3
330
1F
100
AcDbEntity
  8
AD4530
  6
Continuous
 62
     9
100
AcDbLine
 10
359.5864360002909
 20
75.53122483201761
 30
0.0
 11
359.5864360002909
 21
77.03122483201761
 31
0.0
  0
LINE
  5
26D5
330
1F
100
AcDbEntity
  8
AD4530
  6
Continuous
 62
     9
100
AcDbLine
 10
361.5864360002909
 20
77.03122483201761
 30
0.0
 11
361.5864360002909
 21
75.53122483201761
 31
0.0
  0
LINE
  5
26D6
330
1F
100
AcDbEntity
  8
AD4530
  6
Continuous
 62
     9
100
AcDbLine
 10
318.9464360002908
 20
75.53122483201761
 30
0.0
 11
318.9464360002908
 21
77.03122483201761
 31
0.0
  0
LINE
  5
26D8
330
1F
100
AcDbEntity
  8
AD4530
  6
Continuous
 62
     9
100
AcDbLine
 10
320.9464360002908
 20
77.03122483201761
 30
0.0
 11
320.9464360002908
 21
75.53122483201761
 31
0.0
  0
LINE
  5
26DA
330
1F
100
AcDbEntity
  8
AD4530
  6
Continuous
 62
     9
100
AcDbLine
 10
324.0264360002908
 20
75.53122483201761
 30
0.0
 11
324.0264360002908
 21
77.03122483201761
 31
0.0
  0
LINE
  5
26DC
330
1F
100
AcDbEntity
  8
AD4530
  6
Continuous
 62
     9
100
AcDbLine
 10
326.0264360002908
 20
77.03122483201761
 30
0.0
 11
326.0264360002908
 21
75.53122483201761
 31
0.0
  0
LINE
  5
26DE
330
1F
100
AcDbEntity
  8
AD4530
  6
Continuous
 62
     9
100
AcDbLine
 10
329.1064360002908
 20
75.53122483201761
 30
0.0
 11
329.1064360002908
 21
77.03122483201761
 31
0.0
  0
LINE
  5
26E0
330
1F
100
AcDbEntity
  8
AD4530
  6
Continuous
 62
     9
100
AcDbLine
 10
331.1064360002908
 20
77.03122483201761
 30
0.0
 11
331.1064360002908
 21
75.53122483201761
 31
0.0
  0
LINE
  5
26E2
330
1F
100
AcDbEntity
  8
AD4530
  6
Continuous
 62
     9
100
AcDbLine
 10
334.1864360002908
 20
75.53122483201761
 30
0.0
 11
334.1864360002908
 21
77.03122483201761
 31
0.0
  0
LINE
  5
26E4
330
1F
100
AcDbEntity
  8
AD4530
  6
Continuous
 62
     9
100
AcDbLine
 10
336.1864360002908
 20
77.03122483201761
 30
0.0
 11
336.1864360002908
 21
75.53122483201761
 31
0.0
  0
LINE
  5
26E6
330
1F
100
AcDbEntity
  8
AD4530
  6
Continuous
 62
     9
100
AcDbLine
 10
339.2664360002908
 20
75.53122483201761
 30
0.0
 11
339.2664360002908
 21
77.03122483201761
 31
0.0
  0
LINE
  5
26E8
330
1F
100
AcDbEntity
  8
AD4530
  6
Continuous
 62
     9
100
AcDbLine
 10
341.2664360002908
 20
77.03122483201761
 30
0.0
 11
341.2664360002908
 21
75.53122483201761
 31
0.0
  0
LINE
  5
26EA
330
1F
100
AcDbEntity
  8
AD4530
  6
Continuous
 62
     9
100
AcDbLine
 10
344.3464360002908
 20
75.53122483201761
 30
0.0
 11
344.3464360002908
 21
77.03122483201761
 31
0.0
  0
LINE
  5
26EC
330
1F
100
AcDbEntity
  8
AD4530
  6
Continuous
 62
     9
100
AcDbLine
 10
346.3464360002909
 20
77.03122483201761
 30
0.0
 11
346.3464360002909
 21
75.53122483201761
 31
0.0
  0
LINE
  5
26EE
330
1F
100
AcDbEntity
  8
AD4530
  6
Continuous
 62
     9
100
AcDbLine
 10
349.4264360002908
 20
75.53122483201761
 30
0.0
 11
349.4264360002908
 21
77.03122483201761
 31
0.0
  0
LINE
  5
26F0
330
1F
100
AcDbEntity
  8
AD4530
  6
Continuous
 62
     9
100
AcDbLine
 10
351.4264360002908
 20
77.03122483201761
 30
0.0
 11
351.4264360002908
 21
75.53122483201761
 31
0.0
  0
LINE
  5
26F2
330
1F
100
AcDbEntity
  8
AD4530
  6
Continuous
 62
     9
100
AcDbLine
 10
354.5064360002908
 20
75.53122483201761
 30
0.0
 11
354.5064360002908
 21
77.03122483201761
 31
0.0
  0
LINE
  5
26F4
330
1F
100
AcDbEntity
  8
AD4530
  6
Continuous
 62
     9
100
AcDbLine
 10
356.5064360002908
 20
77.03122483201761
 30
0.0
 11
356.5064360002908
 21
75.53122483201761
 31
0.0
  0
LINE
  5
26F6
330
1F
100
AcDbEntity
  8
AD4530
  6
Continuous
 62
     9
100
AcDbLine
 10
317.8249114424496
 20
70.13122483201764
 30
0.0
 11
317.4464360002908
 21
70.13122483201764
 31
0.0
  0
LINE
  5
26F7
330
1F
100
AcDbEntity
  8
AD4530
  6
Continuous
 62
     9
100
AcDbLine
 10
322.9049114424495
 20
70.13122483201764
 30
0.0
 11
322.0672931182952
 21
70.13122483201764
 31
0.0
  0
LINE
  5
26F8
330
1F
100
AcDbEntity
  8
AD4530
  6
Continuous
 62
     9
100
AcDbLine
 10
327.9849114426848
 20
70.13122483201764
 30
0.0
 11
327.1472931182951
 21
70.13122483201764
 31
0.0
  0
LINE
  5
26FA
330
1F
100
AcDbEntity
  8
AD4530
  6
Continuous
 62
     9
100
AcDbLine
 10
317.4464360002908
 20
75.53122483201761
 30
0.0
 11
363.0864360002908
 21
75.53122483201761
 31
0.0
  0
LINE
  5
26FB
330
1F
100
AcDbEntity
  8
AD4530
  6
Continuous
 62
     9
100
AcDbLine
 10
363.0864360002908
 20
75.53122483201761
 30
0.0
 11
363.0864360002908
 21
70.13122483201764
 31
0.0
  0
ARC
  5
26FC
330
1F
100
AcDbEntity
  8
AD4530
  6
Continuous
 62
     9
100
AcDbCircle
 10
360.5861022803724
 20
71.88078674922715
 30
0.0
 40
2.749621332663362
100
AcDbArc
 50
219.5158719170286
 51
320.4841280829715
  0
ARC
  5
26FD
330
1F
100
AcDbEntity
  8
AD4530
  6
Continuous
 62
     9
100
AcDbCircle
 10
355.5061022803723
 20
71.88078674922715
 30
0.0
 40
2.749621332663348
100
AcDbArc
 50
219.5158719170286
 51
320.4841280829715
  0
ARC
  5
26FE
330
1F
100
AcDbEntity
  8
AD4530
  6
Continuous
 62
     9
100
AcDbCircle
 10
350.4261022819862
 20
71.88078675575249
 30
0.0
 40
2.749621338637086
100
AcDbArc
 50
219.5158719906169
 51
320.484128009383
  0
ARC
  5
26FF
330
1F
100
AcDbEntity
  8
AD4530
  6
Continuous
 62
     9
100
AcDbCircle
 10
345.3461022811751
 20
71.88078675381823
 30
0.0
 40
2.749621336598926
100
AcDbArc
 50
219.5158719733983
 51
320.4841280266017
  0
ARC
  5
2700
330
1F
100
AcDbEntity
  8
AD4530
  6
Continuous
 62
     9
100
AcDbCircle
 10
340.266102281214
 20
71.88078675392503
 30
0.0
 40
2.749621336679865
100
AcDbArc
 50
219.5158719748883
 51
320.4841280251071
  0
ARC
  5
2701
330
1F
100
AcDbEntity
  8
AD4530
  6
Continuous
 62
     9
100
AcDbCircle
 10
335.186102281175
 20
71.88078675381811
 30
0.0
 40
2.749621336598917
100
AcDbArc
 50
219.5158719733938
 51
320.4841280266062
  0
ARC
  5
2702
330
1F
100
AcDbEntity
  8
AD4530
  6
Continuous
 62
     9
100
AcDbCircle
 10
330.1061022795611
 20
71.88078674729272
 30
0.0
 40
2.749621330625174
100
AcDbArc
 50
219.5158718998064
 51
320.4841281001936
  0
ARC
  5
2703
330
1F
100
AcDbEntity
  8
AD4530
  6
Continuous
 62
     9
100
AcDbCircle
 10
325.0261022803723
 20
71.88078674922715
 30
0.0
 40
2.749621332663372
100
AcDbArc
 50
219.5158719170286
 51
320.4841280829759
  0
ARC
  5
2704
330
1F
100
AcDbEntity
  8
AD4530
  6
Continuous
 62
     9
100
AcDbCircle
 10
319.9461022803723
 20
71.88078674922715
 30
0.0
 40
2.74962133266332
100
AcDbArc
 50
219.5158719170286
 51
320.4841280829715
  0
LINE
  5
2705
330
1F
100
AcDbEntity
  8
AD4530
  6
Continuous
 62
     9
100
AcDbLine
 10
317.4464360002908
 20
70.13122483201764
 30
0.0
 11
317.4464360002908
 21
75.53122483201761
 31
0.0
  0
LINE
  5
2706
330
1F
100
AcDbEntity
  8
AD4530
  6
Continuous
 62
     9
100
AcDbLine
 10
340.7664360002908
 20
72.38122483201763
 30
0.0
 11
339.7664360002908
 21
72.38122483201763
 31
0.0
  0
LINE
  5
2707
330
1F
100
AcDbEntity
  8
AD4530
  6
Continuous
 62
     9
100
AcDbLine
 10
340.7664360002908
 20
71.38122483201764
 30
0.0
 11
339.7664360002908
 21
71.38122483201764
 31
0.0
  0
LINE
  5
2708
330
1F
100
AcDbEntity
  8
AD4530
  6
Continuous
 62
     9
100
AcDbLine
 10
339.7664360002908
 20
72.38122483201763
 30
0.0
 11
339.7664360002908
 21
71.38122483201764
 31
0.0
  0
LINE
  5
2709
330
1F
100
AcDbEntity
  8
AD4530
  6
Continuous
 62
     9
100
AcDbLine
 10
345.8464360002909
 20
72.38122483201763
 30
0.0
 11
344.8464360002909
 21
72.38122483201763
 31
0.0
  0
LINE
  5
270A
330
1F
100
AcDbEntity
  8
AD4530
  6
Continuous
 62
     9
100
AcDbLine
 10
345.8464360002909
 20
71.38122483201764
 30
0.0
 11
344.8464360002909
 21
71.38122483201764
 31
0.0
  0
LINE
  5
270B
330
1F
100
AcDbEntity
  8
AD4530
  6
Continuous
 62
     9
100
AcDbLine
 10
344.8464360002909
 20
72.38122483201763
 30
0.0
 11
344.8464360002909
 21
71.38122483201764
 31
0.0
  0
LINE
  5
270C
330
1F
100
AcDbEntity
  8
AD4530
  6
Continuous
 62
     9
100
AcDbLine
 10
350.9264360002908
 20
72.38122483201763
 30
0.0
 11
349.9264360002908
 21
72.38122483201763
 31
0.0
  0
LINE
  5
270D
330
1F
100
AcDbEntity
  8
AD4530
  6
Continuous
 62
     9
100
AcDbLine
 10
350.9264360002908
 20
71.38122483201764
 30
0.0
 11
349.9264360002908
 21
71.38122483201764
 31
0.0
  0
LINE
  5
270E
330
1F
100
AcDbEntity
  8
AD4530
  6
Continuous
 62
     9
100
AcDbLine
 10
349.9264360002908
 20
72.38122483201763
 30
0.0
 11
349.9264360002908
 21
71.38122483201764
 31
0.0
  0
LINE
  5
270F
330
1F
100
AcDbEntity
  8
AD4530
  6
Continuous
 62
     9
100
AcDbLine
 10
356.0064360002908
 20
72.38122483201763
 30
0.0
 11
355.0064360002908
 21
72.38122483201763
 31
0.0
  0
LINE
  5
2710
330
1F
100
AcDbEntity
  8
AD4530
  6
Continuous
 62
     9
100
AcDbLine
 10
356.0064360002908
 20
71.38122483201764
 30
0.0
 11
355.0064360002908
 21
71.38122483201764
 31
0.0
  0
LINE
  5
2711
330
1F
100
AcDbEntity
  8
AD4530
  6
Continuous
 62
     9
100
AcDbLine
 10
355.0064360002908
 20
72.38122483201763
 30
0.0
 11
355.0064360002908
 21
71.38122483201764
 31
0.0
  0
LINE
  5
2712
330
1F
100
AcDbEntity
  8
AD4530
  6
Continuous
 62
     9
100
AcDbLine
 10
361.0864360002908
 20
72.38122483201763
 30
0.0
 11
360.0864360002908
 21
72.38122483201763
 31
0.0
  0
LINE
  5
2713
330
1F
100
AcDbEntity
  8
AD4530
  6
Continuous
 62
     9
100
AcDbLine
 10
361.0864360002908
 20
71.38122483201764
 30
0.0
 11
360.0864360002908
 21
71.38122483201764
 31
0.0
  0
LINE
  5
2714
330
1F
100
AcDbEntity
  8
AD4530
  6
Continuous
 62
     9
100
AcDbLine
 10
360.0864360002908
 20
72.38122483201763
 30
0.0
 11
360.0864360002908
 21
71.38122483201764
 31
0.0
  0
LINE
  5
2715
330
1F
100
AcDbEntity
  8
AD4530
  6
Continuous
 62
     9
100
AcDbLine
 10
334.6864360002908
 20
71.38122483201764
 30
0.0
 11
335.6864360002908
 21
71.38122483201764
 31
0.0
  0
LINE
  5
2716
330
1F
100
AcDbEntity
  8
AD4530
  6
Continuous
 62
     9
100
AcDbLine
 10
334.6864360002908
 20
72.38122483201763
 30
0.0
 11
335.6864360002908
 21
72.38122483201763
 31
0.0
  0
LINE
  5
2717
330
1F
100
AcDbEntity
  8
AD4530
  6
Continuous
 62
     9
100
AcDbLine
 10
334.6864360002908
 20
71.38122483201764
 30
0.0
 11
334.6864360002908
 21
72.38122483201763
 31
0.0
  0
LINE
  5
2718
330
1F
100
AcDbEntity
  8
AD4530
  6
Continuous
 62
     9
100
AcDbLine
 10
329.6064360002909
 20
71.38122483201764
 30
0.0
 11
330.6064360002908
 21
71.38122483201764
 31
0.0
  0
LINE
  5
2719
330
1F
100
AcDbEntity
  8
AD4530
  6
Continuous
 62
     9
100
AcDbLine
 10
329.6064360002909
 20
72.38122483201763
 30
0.0
 11
330.6064360002908
 21
72.38122483201763
 31
0.0
  0
LINE
  5
271A
330
1F
100
AcDbEntity
  8
AD4530
  6
Continuous
 62
     9
100
AcDbLine
 10
329.6064360002909
 20
71.38122483201764
 30
0.0
 11
329.6064360002909
 21
72.38122483201763
 31
0.0
  0
LINE
  5
271B
330
1F
100
AcDbEntity
  8
AD4530
  6
Continuous
 62
     9
100
AcDbLine
 10
324.5264360002908
 20
71.38122483201764
 30
0.0
 11
325.5264360002908
 21
71.38122483201764
 31
0.0
  0
LINE
  5
271C
330
1F
100
AcDbEntity
  8
AD4530
  6
Continuous
 62
     9
100
AcDbLine
 10
324.5264360002908
 20
72.38122483201763
 30
0.0
 11
325.5264360002908
 21
72.38122483201763
 31
0.0
  0
LINE
  5
271D
330
1F
100
AcDbEntity
  8
AD4530
  6
Continuous
 62
     9
100
AcDbLine
 10
324.5264360002908
 20
71.38122483201764
 30
0.0
 11
324.5264360002908
 21
72.38122483201763
 31
0.0
  0
LINE
  5
271E
330
1F
100
AcDbEntity
  8
AD4530
  6
Continuous
 62
     9
100
AcDbLine
 10
320.4464360002908
 20
71.38122483201764
 30
0.0
 11
319.4464360002908
 21
71.38122483201764
 31
0.0
  0
LINE
  5
271F
330
1F
100
AcDbEntity
  8
AD4530
  6
Continuous
 62
     9
100
AcDbLine
 10
319.4464360002908
 20
71.38122483201764
 30
0.0
 11
319.4464360002908
 21
72.38122483201763
 31
0.0
  0
LINE
  5
2720
330
1F
100
AcDbEntity
  8
AD4530
  6
Continuous
 62
     9
100
AcDbLine
 10
320.4464360002908
 20
71.38122483201764
 30
0.0
 11
320.4464360002908
 21
72.38122483201763
 31
0.0
  0
LINE
  5
2721
330
1F
100
AcDbEntity
  8
AD4530
  6
Continuous
 62
     9
100
AcDbLine
 10
320.4464360002908
 20
72.38122483201763
 30
0.0
 11
319.4464360002908
 21
72.38122483201763
 31
0.0
  0
LINE
  5
2722
330
1F
100
AcDbEntity
  8
AD4530
  6
Continuous
 62
     9
100
AcDbLine
 10
378.5564360002908
 20
77.03122483201756
 30
0.0
 11
378.5564360002908
 21
68.43122483201764
 31
0.0
  0
LINE
  5
2723
330
1F
100
AcDbEntity
  8
AD4530
  6
Continuous
 62
     9
100
AcDbLine
 10
378.5564360002908
 20
68.43122483201764
 30
0.0
 11
390.6364360002908
 21
68.43122483201764
 31
0.0
  0
LINE
  5
2724
330
1F
100
AcDbEntity
  8
AD4530
  6
Continuous
 62
     9
100
AcDbLine
 10
390.6364360002908
 20
68.43122483201764
 30
0.0
 11
390.6364360002908
 21
77.03122483201761
 31
0.0
  0
LINE
  5
2727
330
1F
100
AcDbEntity
  8
AD4530
  6
Continuous
 62
     9
100
AcDbLine
 10
390.6364360002908
 20
77.03122483201761
 30
0.0
 11
378.5564360002908
 21
77.03122483201756
 31
0.0
  0
LINE
  5
272A
330
1F
100
AcDbEntity
  8
AD4530
  6
Continuous
 62
     9
100
AcDbLine
 10
387.6364360002908
 20
71.38122483201764
 30
0.0
 11
387.6364360002908
 21
72.38122483201763
 31
0.0
  0
LINE
  5
272B
330
1F
100
AcDbEntity
  8
AD4530
  6
Continuous
 62
     9
100
AcDbLine
 10
385.0149114422293
 20
70.13122483201764
 30
0.0
 11
384.1772931203984
 21
70.13122483201764
 31
0.0
  0
LINE
  5
272C
330
1F
100
AcDbEntity
  8
AD4530
  6
Continuous
 62
     9
100
AcDbLine
 10
389.6364360002908
 20
70.13122483201764
 30
0.0
 11
389.2572931200812
 21
70.13122483201764
 31
0.0
  0
LINE
  5
272D
330
1F
100
AcDbEntity
  8
AD4530
  6
Continuous
 62
     9
100
AcDbLine
 10
386.1364360002908
 20
75.53122483201761
 30
0.0
 11
386.1364360002908
 21
77.03122483201761
 31
0.0
  0
LINE
  5
272F
330
1F
100
AcDbEntity
  8
AD4530
  6
Continuous
 62
     9
100
AcDbLine
 10
388.1364360002908
 20
77.03122483201761
 30
0.0
 11
388.1364360002908
 21
75.53122483201761
 31
0.0
  0
LINE
  5
2730
330
1F
100
AcDbEntity
  8
AD4530
  6
Continuous
 62
     9
100
AcDbLine
 10
381.0564360002908
 20
75.53122483201761
 30
0.0
 11
381.0564360002908
 21
77.03122483201761
 31
0.0
  0
LINE
  5
2732
330
1F
100
AcDbEntity
  8
AD4530
  6
Continuous
 62
     9
100
AcDbLine
 10
383.0564360002908
 20
77.03122483201761
 30
0.0
 11
383.0564360002908
 21
75.53122483201761
 31
0.0
  0
LINE
  5
2734
330
1F
100
AcDbEntity
  8
AD4530
  6
Continuous
 62
     9
100
AcDbLine
 10
379.9349114419388
 20
70.13122483201764
 30
0.0
 11
379.5564360002908
 21
70.13122483201764
 31
0.0
  0
LINE
  5
2735
330
1F
100
AcDbEntity
  8
AD4530
  6
Continuous
 62
     9
100
AcDbLine
 10
379.5564360002908
 20
70.13122483201764
 30
0.0
 11
379.5564360002908
 21
75.53122483201761
 31
0.0
  0
LINE
  5
2737
330
1F
100
AcDbEntity
  8
AD4530
  6
Continuous
 62
     9
100
AcDbLine
 10
379.5564360002908
 20
75.53122483201761
 30
0.0
 11
389.6364360002908
 21
75.53122483201761
 31
0.0
  0
LINE
  5
2738
330
1F
100
AcDbEntity
  8
AD4530
  6
Continuous
 62
     9
100
AcDbLine
 10
389.6364360002908
 20
75.53122483201761
 30
0.0
 11
389.6364360002908
 21
70.13122483201764
 31
0.0
  0
ARC
  5
2739
330
1F
100
AcDbEntity
  8
AD4530
  6
Continuous
 62
     9
100
AcDbCircle
 10
387.1361022811552
 20
71.88078675309506
 30
0.0
 40
2.749621335898336
100
AcDbArc
 50
219.5158719659047
 51
320.4841280340953
  0
ARC
  5
273A
330
1F
100
AcDbEntity
  8
AD4530
  6
Continuous
 62
     9
100
AcDbCircle
 10
382.0561022811686
 20
71.88078675380555
 30
0.0
 40
2.749621336584845
100
AcDbArc
 50
219.5158719732989
 51
320.4841280267011
  0
LINE
  5
273B
330
1F
100
AcDbEntity
  8
AD4530
  6
Continuous
 62
     9
100
AcDbLine
 10
387.6364360002908
 20
72.38122483201763
 30
0.0
 11
386.6364360002908
 21
72.38122483201763
 31
0.0
  0
LINE
  5
273C
330
1F
100
AcDbEntity
  8
AD4530
  6
Continuous
 62
     9
100
AcDbLine
 10
387.6364360002908
 20
71.38122483201764
 30
0.0
 11
386.6364360002908
 21
71.38122483201764
 31
0.0
  0
LINE
  5
273D
330
1F
100
AcDbEntity
  8
AD4530
  6
Continuous
 62
     9
100
AcDbLine
 10
386.6364360002908
 20
72.38122483201763
 30
0.0
 11
386.6364360002908
 21
71.38122483201764
 31
0.0
  0
LINE
  5
273E
330
1F
100
AcDbEntity
  8
AD4530
  6
Continuous
 62
     9
100
AcDbLine
 10
382.5564360002908
 20
71.38122483201764
 30
0.0
 11
381.5564360002909
 21
71.38122483201764
 31
0.0
  0
LINE
  5
273F
330
1F
100
AcDbEntity
  8
AD4530
  6
Continuous
 62
     9
100
AcDbLine
 10
381.5564360002909
 20
71.38122483201764
 30
0.0
 11
381.5564360002909
 21
72.38122483201763
 31
0.0
  0
LINE
  5
2740
330
1F
100
AcDbEntity
  8
AD4530
  6
Continuous
 62
     9
100
AcDbLine
 10
382.5564360002908
 20
71.38122483201764
 30
0.0
 11
382.5564360002908
 21
72.38122483201763
 31
0.0
  0
LINE
  5
2741
330
1F
100
AcDbEntity
  8
AD4530
  6
Continuous
 62
     9
100
AcDbLine
 10
382.5564360002908
 20
72.38122483201763
 30
0.0
 11
381.5564360002909
 21
72.38122483201763
 31
0.0
  0
LINE
  5
2746
330
1F
100
AcDbEntity
  8
AD4530
  6
Continuous
 62
     9
100
AcDbLine
 10
369.5864360002908
 20
89.4312248320176
 30
0.0
 11
370.5864360002907
 21
89.4312248320176
 31
0.0
  0
LINE
  5
2747
330
1F
100
AcDbEntity
  8
AD4530
  6
Continuous
 62
     9
100
AcDbLine
 10
372.5864360002907
 20
89.4312248320176
 30
0.0
 11
373.5864360002907
 21
89.4312248320176
 31
0.0
  0
LINE
  5
2750
330
1F
100
AcDbEntity
  8
AD4530
  6
Continuous
 62
     9
100
AcDbLine
 10
315.5864360002907
 20
99.43119437104881
 30
0.0
 11
327.1864360002907
 21
99.43119437104881
 31
0.0
  0
LINE
  5
2751
330
1F
100
AcDbEntity
  8
AD4530
  6
Continuous
 62
     9
100
AcDbLine
 10
315.5864360002907
 20
88.38573982559442
 30
0.0
 11
315.5864360002907
 21
92.98119437104887
 31
0.0
  0
LINE
  5
2752
330
1F
100
AcDbEntity
  8
AD4530
  6
Continuous
 62
     9
100
AcDbLine
 10
339.5864360002907
 20
99.43119437104881
 30
0.0
 11
339.5864360002907
 21
93.98119437104886
 31
0.0
  0
LINE
  5
2753
330
1F
100
AcDbEntity
  8
AD4530
  6
Continuous
 62
     9
100
AcDbLine
 10
341.5864360002907
 20
99.43119437104881
 30
0.0
 11
355.6864360002907
 21
99.43119437104881
 31
0.0
  0
LINE
  5
2754
330
1F
100
AcDbEntity
  8
AD4530
  6
Continuous
 62
     9
100
AcDbLine
 10
341.5864360002907
 20
87.53119437104894
 30
0.0
 11
341.5864360002907
 21
92.98119437104887
 31
0.0
  0
LINE
  5
2755
330
1F
100
AcDbEntity
  8
AD4530
  6
Continuous
 62
     9
100
AcDbLine
 10
370.5864360002907
 20
99.43119437104881
 30
0.0
 11
370.5864360002907
 21
93.98119437104886
 31
0.0
  0
LINE
  5
2756
330
1F
100
AcDbEntity
  8
AD4530
  6
Continuous
 62
     9
100
AcDbLine
 10
372.5864360002907
 20
99.43119437104881
 30
0.0
 11
381.6864360002908
 21
99.43119437104881
 31
0.0
  0
LINE
  5
2757
330
1F
100
AcDbEntity
  8
AD4530
  6
Continuous
 62
     9
100
AcDbLine
 10
372.5864360002907
 20
87.53119437104894
 30
0.0
 11
372.5864360002907
 21
92.98119437104887
 31
0.0
  0
LINE
  5
2758
330
1F
100
AcDbEntity
  8
AD4530
  6
Continuous
 62
     9
100
AcDbLine
 10
391.5864360002908
 20
99.43119437104881
 30
0.0
 11
391.5864360002908
 21
93.98119437104886
 31
0.0
  0
LINE
  5
2759
330
1F
100
AcDbEntity
  8
AD4530
  6
Continuous
 62
     9
100
AcDbLine
 10
315.4864360002907
 20
67.63119437104885
 30
0.0
 11
315.4864360002907
 21
78.64028528013986
 31
0.0
  0
LINE
  5
275A
330
1F
100
AcDbEntity
  8
AD4530
  6
Continuous
 62
     9
100
AcDbLine
 10
365.0864360002908
 20
67.63119437104885
 30
0.0
 11
315.4864360002907
 21
67.63119437104885
 31
0.0
  0
LINE
  5
275B
330
1F
100
AcDbEntity
  8
AD4530
  6
Continuous
 62
     9
100
AcDbLine
 10
365.0864360002908
 20
79.53119437104894
 30
0.0
 11
365.0864360002908
 21
67.6311943710489
 31
0.0
  0
LINE
  5
275C
330
1F
100
AcDbEntity
  8
AD4530
  6
Continuous
 62
     9
100
AcDbLine
 10
377.5864360002907
 20
67.63119437104885
 30
0.0
 11
377.5864360002907
 21
79.53119437104883
 31
0.0
  0
LINE
  5
275D
330
1F
100
AcDbEntity
  8
AD4530
  6
Continuous
 62
     9
100
AcDbLine
 10
391.5864360002908
 20
67.63119437104885
 30
0.0
 11
377.5864360002907
 21
67.63119437104885
 31
0.0
  0
LINE
  5
275E
330
1F
100
AcDbEntity
  8
AD4530
  6
Continuous
 62
     9
100
AcDbLine
 10
391.5864360002908
 20
78.74937618923062
 30
0.0
 11
391.5864360002908
 21
67.6311943710489
 31
0.0
  0
LINE
  5
2763
330
1F
100
AcDbEntity
  8
AD4530
  6
Continuous
 62
     9
100
AcDbLine
 10
315.5864360002907
 20
93.98119437104886
 30
0.0
 11
315.5864360002907
 21
99.43119437104881
 31
0.0
  0
LINE
  5
2764
330
1F
100
AcDbEntity
  8
AD4530
  6
Continuous
 62
     9
100
AcDbLine
 10
327.9864360002907
 20
99.43119437104881
 30
0.0
 11
339.5864360002907
 21
99.43119437104881
 31
0.0
  0
LINE
  5
2765
330
1F
100
AcDbEntity
  8
AD4530
  6
Continuous
 62
     9
100
AcDbLine
 10
339.5864360002907
 20
92.98119437104887
 30
0.0
 11
339.5864360002907
 21
87.53119437104883
 31
0.0
  0
LINE
  5
2766
330
1F
100
AcDbEntity
  8
AD4530
  6
Continuous
 62
     9
100
AcDbLine
 10
316.5864360002907
 20
92.98119437104887
 30
0.0
 11
315.5864360002907
 21
92.98119437104887
 31
0.0
  0
LINE
  5
2767
330
1F
100
AcDbEntity
  8
AD4530
  6
Continuous
 62
     9
100
AcDbLine
 10
315.5864360002907
 20
93.98119437104886
 30
0.0
 11
316.5864360002907
 21
93.98119437104886
 31
0.0
  0
LINE
  5
2768
330
1F
100
AcDbEntity
  8
AD4530
  6
Continuous
 62
     9
100
AcDbLine
 10
316.5864360002907
 20
93.98119437104886
 30
0.0
 11
316.5864360002907
 21
98.43119437104881
 31
0.0
  0
LINE
  5
2769
330
1F
100
AcDbEntity
  8
AD4530
  6
Continuous
 62
     9
100
AcDbLine
 10
316.5864360002907
 20
98.43119437104881
 30
0.0
 11
327.1864360002907
 21
98.43119437104881
 31
0.0
  0
LINE
  5
276A
330
1F
100
AcDbEntity
  8
AD4530
  6
Continuous
 62
     9
100
AcDbLine
 10
327.1864360002907
 20
98.43119437104881
 30
0.0
 11
327.1864360002907
 21
99.43119437104881
 31
0.0
  0
LINE
  5
276B
330
1F
100
AcDbEntity
  8
AD4530
  6
Continuous
 62
     9
100
AcDbLine
 10
327.9864360002907
 20
99.43119437104881
 30
0.0
 11
327.9864360002907
 21
98.43119437104881
 31
0.0
  0
LINE
  5
276C
330
1F
100
AcDbEntity
  8
AD4530
  6
Continuous
 62
     9
100
AcDbLine
 10
327.9864360002907
 20
98.43119437104881
 30
0.0
 11
338.5864360002908
 21
98.43119437104881
 31
0.0
  0
LINE
  5
276D
330
1F
100
AcDbEntity
  8
AD4530
  6
Continuous
 62
     9
100
AcDbLine
 10
338.5864360002908
 20
98.43119437104881
 30
0.0
 11
338.5864360002908
 21
93.98119437104886
 31
0.0
  0
LINE
  5
276E
330
1F
100
AcDbEntity
  8
AD4530
  6
Continuous
 62
     9
100
AcDbLine
 10
338.5864360002908
 20
93.98119437104886
 30
0.0
 11
339.5864360002907
 21
93.98119437104886
 31
0.0
  0
LINE
  5
276F
330
1F
100
AcDbEntity
  8
AD4530
  6
Continuous
 62
     9
100
AcDbLine
 10
339.5864360002907
 20
92.98119437104887
 30
0.0
 11
338.5864360002908
 21
92.98119437104887
 31
0.0
  0
LINE
  5
2770
330
1F
100
AcDbEntity
  8
AD4530
  6
Continuous
 62
     9
100
AcDbLine
 10
338.5864360002908
 20
92.98119437104887
 30
0.0
 11
338.5864360002908
 21
88.53119437104883
 31
0.0
  0
LINE
  5
2771
330
1F
100
AcDbEntity
  8
AD4530
  6
Continuous
 62
     9
100
AcDbLine
 10
338.5864360002908
 20
88.53119437104883
 30
0.0
 11
327.9864360002907
 21
88.53119437104883
 31
0.0
  0
LINE
  5
2772
330
1F
100
AcDbEntity
  8
AD4530
  6
Continuous
 62
     9
100
AcDbLine
 10
327.9864360002907
 20
88.53119437104883
 30
0.0
 11
327.9864360002907
 21
87.53119437104894
 31
0.0
  0
LINE
  5
2773
330
1F
100
AcDbEntity
  8
AD4530
  6
Continuous
 62
     9
100
AcDbLine
 10
327.1864360002907
 20
87.53119437104894
 30
0.0
 11
327.1864360002907
 21
88.53119437104883
 31
0.0
  0
LINE
  5
2774
330
1F
100
AcDbEntity
  8
AD4530
  6
Continuous
 62
     9
100
AcDbLine
 10
327.1864360002907
 20
88.53119437104883
 30
0.0
 11
316.5864360002907
 21
88.53119437104883
 31
0.0
  0
LINE
  5
2775
330
1F
100
AcDbEntity
  8
AD4530
  6
Continuous
 62
     9
100
AcDbLine
 10
316.5864360002907
 20
88.53119437104883
 30
0.0
 11
316.5864360002907
 21
92.98119437104887
 31
0.0
  0
LINE
  5
2776
330
1F
100
AcDbEntity
  8
AD4530
  6
Continuous
 62
     9
100
AcDbLine
 10
341.5864360002907
 20
93.98119437104886
 30
0.0
 11
341.5864360002907
 21
99.43119437104881
 31
0.0
  0
LINE
  5
2777
330
1F
100
AcDbEntity
  8
AD4530
  6
Continuous
 62
     9
100
AcDbLine
 10
356.4864360002907
 20
99.43119437104881
 30
0.0
 11
370.5864360002907
 21
99.43119437104881
 31
0.0
  0
LINE
  5
2778
330
1F
100
AcDbEntity
  8
AD4530
  6
Continuous
 62
     9
100
AcDbLine
 10
370.5864360002907
 20
92.98119437104887
 30
0.0
 11
370.5864360002907
 21
87.53119437104883
 31
0.0
  0
LINE
  5
2779
330
1F
100
AcDbEntity
  8
AD4530
  6
Continuous
 62
     9
100
AcDbLine
 10
342.5864360002906
 20
92.98119437104887
 30
0.0
 11
341.5864360002907
 21
92.98119437104887
 31
0.0
  0
LINE
  5
277A
330
1F
100
AcDbEntity
  8
AD4530
  6
Continuous
 62
     9
100
AcDbLine
 10
341.5864360002907
 20
93.98119437104886
 30
0.0
 11
342.5864360002906
 21
93.98119437104886
 31
0.0
  0
LINE
  5
277B
330
1F
100
AcDbEntity
  8
AD4530
  6
Continuous
 62
     9
100
AcDbLine
 10
342.5864360002906
 20
93.98119437104886
 30
0.0
 11
342.5864360002906
 21
98.43119437104881
 31
0.0
  0
LINE
  5
277C
330
1F
100
AcDbEntity
  8
AD4530
  6
Continuous
 62
     9
100
AcDbLine
 10
342.5864360002906
 20
98.43119437104881
 30
0.0
 11
355.6864360002907
 21
98.43119437104881
 31
0.0
  0
LINE
  5
277D
330
1F
100
AcDbEntity
  8
AD4530
  6
Continuous
 62
     9
100
AcDbLine
 10
355.6864360002907
 20
98.43119437104881
 30
0.0
 11
355.6864360002907
 21
99.43119437104881
 31
0.0
  0
LINE
  5
277E
330
1F
100
AcDbEntity
  8
AD4530
  6
Continuous
 62
     9
100
AcDbLine
 10
356.4864360002907
 20
99.43119437104881
 30
0.0
 11
356.4864360002907
 21
98.43119437104881
 31
0.0
  0
LINE
  5
277F
330
1F
100
AcDbEntity
  8
AD4530
  6
Continuous
 62
     9
100
AcDbLine
 10
356.4864360002907
 20
98.43119437104881
 30
0.0
 11
369.5864360002908
 21
98.43119437104881
 31
0.0
  0
LINE
  5
2780
330
1F
100
AcDbEntity
  8
AD4530
  6
Continuous
 62
     9
100
AcDbLine
 10
369.5864360002908
 20
98.43119437104881
 30
0.0
 11
369.5864360002908
 21
93.98119437104886
 31
0.0
  0
LINE
  5
2781
330
1F
100
AcDbEntity
  8
AD4530
  6
Continuous
 62
     9
100
AcDbLine
 10
369.5864360002908
 20
93.98119437104886
 30
0.0
 11
370.5864360002907
 21
93.98119437104886
 31
0.0
  0
LINE
  5
2782
330
1F
100
AcDbEntity
  8
AD4530
  6
Continuous
 62
     9
100
AcDbLine
 10
370.5864360002907
 20
92.98119437104887
 30
0.0
 11
369.5864360002908
 21
92.98119437104887
 31
0.0
  0
LINE
  5
2783
330
1F
100
AcDbEntity
  8
AD4530
  6
Continuous
 62
     9
100
AcDbLine
 10
369.5864360002908
 20
92.98119437104887
 30
0.0
 11
369.5864360002908
 21
88.53119437104883
 31
0.0
  0
LINE
  5
2784
330
1F
100
AcDbEntity
  8
AD4530
  6
Continuous
 62
     9
100
AcDbLine
 10
369.5864360002908
 20
88.53119437104883
 30
0.0
 11
356.4864360002907
 21
88.53119437104883
 31
0.0
  0
LINE
  5
2785
330
1F
100
AcDbEntity
  8
AD4530
  6
Continuous
 62
     9
100
AcDbLine
 10
356.4864360002907
 20
88.53119437104883
 30
0.0
 11
356.4864360002907
 21
87.53119437104894
 31
0.0
  0
LINE
  5
2786
330
1F
100
AcDbEntity
  8
AD4530
  6
Continuous
 62
     9
100
AcDbLine
 10
355.6864360002907
 20
87.53119437104894
 30
0.0
 11
355.6864360002907
 21
88.53119437104883
 31
0.0
  0
LINE
  5
2787
330
1F
100
AcDbEntity
  8
AD4530
  6
Continuous
 62
     9
100
AcDbLine
 10
355.6864360002907
 20
88.53119437104883
 30
0.0
 11
342.5864360002906
 21
88.53119437104883
 31
0.0
  0
LINE
  5
2788
330
1F
100
AcDbEntity
  8
AD4530
  6
Continuous
 62
     9
100
AcDbLine
 10
342.5864360002906
 20
88.53119437104883
 30
0.0
 11
342.5864360002906
 21
92.98119437104887
 31
0.0
  0
LINE
  5
2789
330
1F
100
AcDbEntity
  8
AD4530
  6
Continuous
 62
     9
100
AcDbLine
 10
372.5864360002907
 20
93.98119437104886
 30
0.0
 11
372.5864360002907
 21
99.43119437104881
 31
0.0
  0
LINE
  5
278A
330
1F
100
AcDbEntity
  8
AD4530
  6
Continuous
 62
     9
100
AcDbLine
 10
382.4864360002907
 20
99.43119437104881
 30
0.0
 11
391.5864360002908
 21
99.43119437104881
 31
0.0
  0
LINE
  5
278B
330
1F
100
AcDbEntity
  8
AD4530
  6
Continuous
 62
     9
100
AcDbLine
 10
391.5864360002908
 20
92.98119437104887
 30
0.0
 11
391.5864360002908
 21
88.31301255286692
 31
0.0
  0
LINE
  5
278C
330
1F
100
AcDbEntity
  8
AD4530
  6
Continuous
 62
     9
100
AcDbLine
 10
381.6864360002907
 20
98.43119437104881
 30
0.0
 11
381.6864360002907
 21
99.43119437104881
 31
0.0
  0
LINE
  5
278D
330
1F
100
AcDbEntity
  8
AD4530
  6
Continuous
 62
     9
100
AcDbLine
 10
382.4864360002907
 20
99.43119437104881
 30
0.0
 11
382.4864360002907
 21
98.43119437104881
 31
0.0
  0
LINE
  5
278E
330
1F
100
AcDbEntity
  8
AD4530
  6
Continuous
 62
     9
100
AcDbLine
 10
382.4864360002907
 20
98.43119437104881
 30
0.0
 11
390.5864360002908
 21
98.43119437104881
 31
0.0
  0
LINE
  5
278F
330
1F
100
AcDbEntity
  8
AD4530
  6
Continuous
 62
     9
100
AcDbLine
 10
390.5864360002908
 20
98.43119437104881
 30
0.0
 11
390.5864360002908
 21
93.98119437104886
 31
0.0
  0
LINE
  5
2790
330
1F
100
AcDbEntity
  8
AD4530
  6
Continuous
 62
     9
100
AcDbLine
 10
390.5864360002908
 20
93.98119437104886
 30
0.0
 11
391.5864360002908
 21
93.98119437104886
 31
0.0
  0
LINE
  5
2791
330
1F
100
AcDbEntity
  8
AD4530
  6
Continuous
 62
     9
100
AcDbLine
 10
391.5864360002908
 20
92.98119437104887
 30
0.0
 11
390.5864360002908
 21
92.98119437104887
 31
0.0
  0
LINE
  5
2792
330
1F
100
AcDbEntity
  8
AD4530
  6
Continuous
 62
     9
100
AcDbLine
 10
390.5864360002908
 20
92.98119437104887
 30
0.0
 11
390.5864360002908
 21
88.53119437104883
 31
0.0
  0
LINE
  5
2793
330
1F
100
AcDbEntity
  8
AD4530
  6
Continuous
 62
     9
100
AcDbLine
 10
390.5864360002908
 20
88.53119437104883
 30
0.0
 11
382.4864360002907
 21
88.53119437104883
 31
0.0
  0
LINE
  5
2794
330
1F
100
AcDbEntity
  8
AD4530
  6
Continuous
 62
     9
100
AcDbLine
 10
382.4864360002907
 20
88.53119437104883
 30
0.0
 11
382.4864360002907
 21
87.53119437104894
 31
0.0
  0
LINE
  5
2795
330
1F
100
AcDbEntity
  8
AD4530
  6
Continuous
 62
     9
100
AcDbLine
 10
381.6864360002907
 20
87.53119437104894
 30
0.0
 11
381.6864360002907
 21
88.53119437104883
 31
0.0
  0
LINE
  5
2796
330
1F
100
AcDbEntity
  8
AD4530
  6
Continuous
 62
     9
100
AcDbLine
 10
381.6864360002907
 20
88.53119437104883
 30
0.0
 11
373.5864360002907
 21
88.53119437104883
 31
0.0
  0
LINE
  5
2797
330
1F
100
AcDbEntity
  8
AD4530
  6
Continuous
 62
     9
100
AcDbLine
 10
373.5864360002907
 20
88.53119437104883
 30
0.0
 11
373.5864360002907
 21
92.98119437104887
 31
0.0
  0
LINE
  5
2798
330
1F
100
AcDbEntity
  8
AD4530
  6
Continuous
 62
     9
100
AcDbLine
 10
373.5864360002907
 20
92.98119437104887
 30
0.0
 11
372.5864360002907
 21
92.98119437104887
 31
0.0
  0
LINE
  5
2799
330
1F
100
AcDbEntity
  8
AD4530
  6
Continuous
 62
     9
100
AcDbLine
 10
372.5864360002907
 20
93.98119437104886
 30
0.0
 11
373.5864360002907
 21
93.98119437104886
 31
0.0
  0
LINE
  5
279A
330
1F
100
AcDbEntity
  8
AD4530
  6
Continuous
 62
     9
100
AcDbLine
 10
373.5864360002907
 20
93.98119437104886
 30
0.0
 11
373.5864360002907
 21
98.43119437104881
 31
0.0
  0
LINE
  5
279B
330
1F
100
AcDbEntity
  8
AD4530
  6
Continuous
 62
     9
100
AcDbLine
 10
373.5864360002907
 20
98.43119437104881
 30
0.0
 11
381.6864360002908
 21
98.43119437104881
 31
0.0
  0
LINE
  5
27A3
330
1F
100
AcDbEntity
  8
AD4530
  6
Continuous
 62
     9
100
AcDbLine
 10
309.8864360002907
 20
78.33122483201757
 30
0.0
 11
305.6864360002908
 21
78.33122483201757
 31
0.0
  0
LINE
  5
27A4
330
1F
100
AcDbEntity
  8
AD4530
  6
Continuous
 62
     9
100
AcDbLine
 10
397.2228645198747
 20
63.23122483201754
 30
0.0
 11
310.1500074807069
 21
63.23122483201754
 31
0.0
  0
LINE
  5
27A5
330
1F
100
AcDbEntity
  8
AD4530
  6
Continuous
 62
     9
100
AcDbLine
 10
310.1500074807069
 20
63.2312248320176
 30
0.0
 11
309.8864360002907
 21
78.33122483201762
 31
0.0
  0
LINE
  5
27A6
330
1F
100
AcDbEntity
  8
AD4530
  6
Continuous
 62
     9
100
AcDbLine
 10
397.2228645198747
 20
63.23122483201754
 30
0.0
 11
397.4864360002907
 21
78.33122483201757
 31
0.0
  0
LINE
  5
27A9
330
1F
100
AcDbEntity
  8
AD4530
  6
Continuous
100
AcDbLine
 10
401.6864360002908
 20
60.33122483201757
 30
0.0
 11
401.6864360002908
 21
106.3312248320176
 31
0.0
  0
ARC
  5
27AA
330
1F
100
AcDbEntity
  8
AD4530
  6
Continuous
100
AcDbCircle
 10
400.6864360002908
 20
60.33122483201757
 30
0.0
 40
1.000000000000003
100
AcDbArc
 50
270.0
 51
0.0
  0
LINE
  5
27AB
330
1F
100
AcDbEntity
  8
AD4530
  6
Continuous
100
AcDbLine
 10
306.6864360002908
 20
59.33122483201756
 30
0.0
 11
400.6864360002908
 21
59.33122483201756
 31
0.0
  0
ARC
  5
27AC
330
1F
100
AcDbEntity
  8
AD4530
  6
Continuous
100
AcDbCircle
 10
306.6864360002908
 20
60.33122483201757
 30
0.0
 40
1.0
100
AcDbArc
 50
180.0
 51
270.0
  0
LINE
  5
27B3
330
1F
100
AcDbEntity
  8
AD4530
  6
Continuous
100
AcDbLine
 10
399.4864360002907
 20
78.33122483201757
 30
0.0
 11
399.2051048220589
 21
62.21377242558023
 31
0.0
  0
LINE
  5
27B4
330
1F
100
AcDbEntity
  8
AD4530
  6
Continuous
 62
     9
100
AcDbLine
 10
401.6864360002908
 20
78.33122483201757
 30
0.0
 11
397.4864360002907
 21
78.33122483201757
 31
0.0
  0
ARC
  5
27B9
330
1F
100
AcDbEntity
  8
AD4530
  6
Continuous
100
AcDbCircle
 10
398.2052571269025
 20
62.23122483201755
 30
0.0
 40
1.000000000000011
100
AcDbArc
 50
270.0
 51
358.9999999999982
  0
LINE
  5
27BA
330
1F
100
AcDbEntity
  8
AD4530
  6
Continuous
100
AcDbLine
 10
398.2052571269025
 20
61.23122483201754
 30
0.0
 11
309.1676148736789
 21
61.23122483201754
 31
0.0
  0
ARC
  5
27BB
330
1F
100
AcDbEntity
  8
AD4530
  6
Continuous
100
AcDbCircle
 10
309.167614873679
 20
62.2312248320176
 30
0.0
 40
1.0
100
AcDbArc
 50
181.0000000000017
 51
270.0
  0
LINE
  5
27BC
330
1F
100
AcDbEntity
  8
AD4530
  6
Continuous
100
AcDbLine
 10
308.1677671785227
 20
62.21377242558034
 30
0.0
 11
307.8864360002908
 21
78.33122483201757
 31
0.0
  0
LINE
  5
27C3
330
1F
100
AcDbEntity
  8
AD4530
  6
Continuous
100
AcDbLine
 10
400.6864360002909
 20
107.3312248320176
 30
0.0
 11
306.6864360002909
 21
107.3312248320176
 31
0.0
  0
ARC
  5
27C4
330
1F
100
AcDbEntity
  8
AD4530
  6
Continuous
100
AcDbCircle
 10
400.6864360002909
 20
106.3312248320176
 30
0.0
 40
0.9999999999999939
100
AcDbArc
 50
0.0
 51
90.0
  0
LINE
  5
27C5
330
1F
100
AcDbEntity
  8
AD4530
  6
Continuous
100
AcDbLine
 10
305.6864360002909
 20
106.3312248320176
 30
0.0
 11
305.6864360002909
 21
60.33122483201757
 31
0.0
  0
ARC
  5
27C6
330
1F
100
AcDbEntity
  8
AD4530
  6
Continuous
100
AcDbCircle
 10
306.6864360002909
 20
106.3312248320176
 30
0.0
 40
1.0
100
AcDbArc
 50
90.0
 51
180.0
  0
LINE
  5
27C8
330
1F
100
AcDbEntity
  8
AD4530
  6
Continuous
 62
     9
100
AcDbLine
 10
310.0627316243678
 20
88.53119437104894
 30
0.0
 11
310.3228126234963
 21
103.4312248320176
 31
0.0
  0
LINE
  5
27C9
330
1F
100
AcDbEntity
  8
AD4530
  6
Continuous
 62
     9
100
AcDbLine
 10
310.3228126234964
 20
103.4312248320176
 30
0.0
 11
397.0500593770854
 21
103.4312248320176
 31
0.0
  0
LINE
  5
27CA
330
1F
100
AcDbEntity
  8
AD4530
  6
Continuous
 62
     9
100
AcDbLine
 10
397.0500593770854
 20
103.4312248320176
 30
0.0
 11
397.3101403762141
 21
88.53119437104883
 31
0.0
  0
LINE
  5
27D3
330
1F
100
AcDbEntity
  8
AD4530
  6
Continuous
100
AcDbLine
 10
306.2864360002907
 20
88.33122483201785
 30
0.0
 11
305.6864360002909
 21
88.33122483201785
 31
0.0
  0
LINE
  5
27D4
330
1F
100
AcDbEntity
  8
AD4530
  6
Continuous
100
AcDbLine
 10
401.6864360002909
 20
88.33122483201785
 30
0.0
 11
401.0864360002907
 21
88.33122483201785
 31
0.0
  0
LINE
  5
27D5
330
1F
100
AcDbEntity
  8
AD4530
  6
Continuous
100
AcDbLine
 10
399.032299678929
 20
104.4486772384549
 30
0.0
 11
399.3101403758734
 21
88.53119437104883
 31
0.0
  0
ARC
  5
27DE
330
1F
100
AcDbEntity
  8
AD4530
  6
Continuous
100
AcDbCircle
 10
398.0324519837726
 20
104.4312248320176
 30
0.0
 40
1.0
100
AcDbArc
 50
1.000000000001775
 51
90.0
  0
LINE
  5
27DF
330
1F
100
AcDbEntity
  8
AD4530
  6
Continuous
100
AcDbLine
 10
309.3404200164685
 20
105.4312248320176
 30
0.0
 11
398.0324519837726
 21
105.4312248320176
 31
0.0
  0
ARC
  5
27E0
330
1F
100
AcDbEntity
  8
AD4530
  6
Continuous
100
AcDbCircle
 10
309.3404200164685
 20
104.4312248320176
 30
0.0
 40
0.9999999999999975
100
AcDbArc
 50
90.0
 51
178.9999999999982
  0
LINE
  5
27E2
330
1F
100
AcDbEntity
  8
AD4530
  6
Continuous
100
AcDbLine
 10
308.0627316243678
 20
88.53119437104894
 30
0.0
 11
308.3405723213122
 21
104.4486772384549
 31
0.0
  0
LINE
  5
27E8
330
1F
100
AcDbEntity
  8
AD4530
  6
Continuous
 62
     9
100
AcDbLine
 10
392.1864360002907
 20
88.53119437104883
 30
0.0
 11
401.0864360002907
 21
88.5311943710487
 31
0.0
  0
LINE
  5
27E9
330
1F
100
AcDbEntity
  8
AD4530
  6
Continuous
 62
     9
100
AcDbLine
 10
317.9364360002907
 20
87.53119437104894
 30
0.0
 11
389.4364360002907
 21
87.53119437104883
 31
0.0
  0
LINE
  5
27EA
330
1F
100
AcDbEntity
  8
AD4530
  6
Continuous
 62
     9
100
AcDbLine
 10
389.4364360002907
 20
87.53119437104871
 30
0.0
 11
392.1864360002908
 21
88.53119437104883
 31
0.0
  0
LINE
  5
27EB
330
1F
100
AcDbEntity
  8
AD4530
  6
Continuous
 62
     9
100
AcDbLine
 10
315.1864360002907
 20
88.53119437104894
 30
0.0
 11
317.9364360002907
 21
87.53119437104894
 31
0.0
  0
LINE
  5
27EC
330
1F
100
AcDbEntity
  8
AD4530
  6
Continuous
 62
     9
100
AcDbLine
 10
315.1864360002907
 20
78.53119437104894
 30
0.0
 11
306.2864360002907
 21
78.53119437104894
 31
0.0
  0
LINE
  5
27ED
330
1F
100
AcDbEntity
  8
AD4530
  6
Continuous
 62
     9
100
AcDbLine
 10
317.9364360002907
 20
79.53119437104894
 30
0.0
 11
389.4364360002907
 21
79.53119437104883
 31
0.0
  0
LINE
  5
27EE
330
1F
100
AcDbEntity
  8
AD4530
  6
Continuous
 62
     9
100
AcDbLine
 10
389.4364360002907
 20
79.53119437104871
 30
0.0
 11
392.1864360002907
 21
78.53119437104883
 31
0.0
  0
LINE
  5
27EF
330
1F
100
AcDbEntity
  8
AD4530
  6
Continuous
 62
     9
100
AcDbLine
 10
315.1864360002907
 20
78.53119437104894
 30
0.0
 11
317.9364360002907
 21
79.53119437104894
 31
0.0
  0
LINE
  5
27F0
330
1F
100
AcDbEntity
  8
AD4530
  6
Continuous
 62
     9
100
AcDbLine
 10
306.2864360002907
 20
78.53119437104894
 30
0.0
 11
306.2864360002907
 21
88.53119437104894
 31
0.0
  0
LINE
  5
27F1
330
1F
100
AcDbEntity
  8
AD4530
  6
Continuous
 62
     9
100
AcDbLine
 10
306.2864360002907
 20
88.53119437104894
 30
0.0
 11
315.1864360002907
 21
88.53119437104894
 31
0.0
  0
LINE
  5
27F5
330
1F
100
AcDbEntity
  8
AD4530
  6
Continuous
 62
     9
100
AcDbLine
 10
401.0864360002907
 20
88.5311943710487
 30
0.0
 11
401.0864360002907
 21
78.53119437104883
 31
0.0
  0
LINE
  5
27F6
330
1F
100
AcDbEntity
  8
AD4530
  6
Continuous
 62
     9
100
AcDbLine
 10
401.0864360002907
 20
78.53119437104883
 30
0.0
 11
392.1864360002907
 21
78.53119437104883
 31
0.0
  0
LINE
  5
282D
330
1F
100
AcDbEntity
  8
AD4530
  6
Continuous
100
AcDbLine
 10
157.182924932735
 20
59.33122483201785
 30
0.0
 11
151.682924932735
 21
59.33122483201768
 31
0.0
  0
LINE
  5
282E
330
1F
100
AcDbEntity
  8
AD4530
  6
Continuous
 62
     9
100
AcDbLine
 10
232.3829249327349
 20
61.43122483201754
 30
0.0
 11
230.582924932735
 21
61.43122483201754
 31
0.0
  0
LINE
  5
282F
330
1F
100
AcDbEntity
  8
AD4530
  6
Continuous
 62
     9
100
AcDbLine
 10
198.882924932735
 20
61.43122483201759
 30
0.0
 11
197.0829249327348
 21
61.43122483201759
 31
0.0
  0
DIMENSION
  5
283F
330
1F
100
AcDbEntity
  8
MEASURE
100
AcDbDimension
  2
*D20
 10
293.3302891004382
 20
61.23122483201754
 30
0.0
 11
289.1517176718668
 21
83.33122483201762
 31
0.0
 70
    32
  1
(44.6)
 71
     5
 42
44.20000000000007
  3
AD-STANDARD
100
AcDbAlignedDimension
 13
278.182924932735
 23
105.4312248320176
 33
0.0
 14
278.182924932735
 24
61.23122483201754
 34
0.0
 50
270.0
100
AcDbRotatedDimension
1001
ACAD
1000
DSTYLE
1002
{
1070
   178
1070
     2
1002
}
  0
LINE
  5
29D4
330
1F
100
AcDbEntity
  8
AD4530
  6
Continuous
100
AcDbLine
 10
151.682924932735
 20
156.1776500434286
 30
0.0
 11
159.8829249327349
 21
156.1776500434286
 31
0.0
  0
LINE
  5
29D5
330
1F
100
AcDbEntity
  8
AD4530
  6
Continuous
 62
     9
100
AcDbLine
 10
174.582924932735
 20
158.5504551865586
 30
0.0
 11
174.582924932735
 21
158.3776500434286
 31
0.0
  0
LINE
  5
29D6
330
1F
100
AcDbEntity
  8
AD4530
  6
Continuous
 62
     9
100
AcDbLine
 10
164.882924932735
 20
161.0276500434286
 30
0.0
 11
164.882924932735
 21
168.2276500434286
 31
0.0
  0
LINE
  5
29D7
330
1F
100
AcDbEntity
  8
AD4530
  6
Continuous
 62
     9
100
AcDbLine
 10
176.582924932735
 20
161.0276500434286
 30
0.0
 11
176.582924932735
 21
168.2276500434286
 31
0.0
  0
LINE
  5
29D8
330
1F
100
AcDbEntity
  8
AD4530
  6
Continuous
 62
     9
100
AcDbLine
 10
167.882924932735
 20
161.0276500434286
 30
0.0
 11
167.882924932735
 21
168.2276500434286
 31
0.0
  0
LINE
  5
29D9
330
1F
100
AcDbEntity
  8
AD4530
  6
Continuous
 62
     9
100
AcDbLine
 10
176.582924932735
 20
168.2276500434286
 30
0.0
 11
164.882924932735
 21
168.2276500434286
 31
0.0
  0
LINE
  5
29DA
330
1F
100
AcDbEntity
  8
AD4530
  6
Continuous
 62
     9
100
AcDbLine
 10
176.582924932735
 20
161.0276500434286
 30
0.0
 11
164.882924932735
 21
161.0276500434286
 31
0.0
  0
LINE
  5
29DB
330
1F
100
AcDbEntity
  8
AD4530
  6
Continuous
 62
     9
100
AcDbLine
 10
175.982924932735
 20
168.2276500434286
 30
0.0
 11
175.982924932735
 21
161.0276500434286
 31
0.0
  0
ELLIPSE
  5
29DC
330
1F
100
AcDbEntity
  8
AD4530
  6
Continuous
 62
     9
100
AcDbEllipse
 10
159.7258413125013
 20
157.1776500434285
 30
0.0
 11
-0.0000000000000002
 21
-0.9999999999999939
 31
0.0
210
0.0
220
0.0
230
-1.0
 40
0.0087268677907586
 41
0.0
 42
1.570796326794909
  0
LINE
  5
29DD
330
1F
100
AcDbEntity
  8
AD4530
  6
Continuous
 62
     9
100
AcDbLine
 10
159.8829249327349
 20
158.5504551865586
 30
0.0
 11
159.7422700564601
 21
158.8317863647904
 31
0.0
  0
LINE
  5
29DE
330
1F
100
AcDbEntity
  8
AD4530
  6
Continuous
 62
     9
100
AcDbLine
 10
174.582924932735
 20
158.5504551865586
 30
0.0
 11
159.8829249327349
 21
158.5504551865586
 31
0.0
  0
LINE
  5
29DF
330
1F
100
AcDbEntity
  8
AD4530
  6
Continuous
 62
     9
100
AcDbLine
 10
192.182954828626
 20
158.3776500434285
 30
0.0
 11
192.1829548286261
 21
161.3776500434285
 31
0.0
  0
LINE
  5
29E0
330
1F
100
AcDbEntity
  8
AD4530
  6
Continuous
 62
     9
100
AcDbLine
 10
261.6829249327349
 20
161.3776500434285
 30
0.0
 11
261.6829249327349
 21
158.6135980531877
 31
0.0
  0
LINE
  5
29E1
330
1F
100
AcDbEntity
  8
AD4530
  6
Continuous
 62
     9
100
AcDbLine
 10
259.8829249327349
 20
161.3776500434285
 30
0.0
 11
259.8829249327349
 21
158.6135980531877
 31
0.0
  0
LINE
  5
29E2
330
1F
100
AcDbEntity
  8
AD4530
  6
Continuous
 62
     9
100
AcDbLine
 10
270.482924932735
 20
161.3776500434285
 30
0.0
 11
270.482924932735
 21
158.6135980531877
 31
0.0
  0
LINE
  5
29E3
330
1F
100
AcDbEntity
  8
AD4530
  6
Continuous
 62
     9
100
AcDbLine
 10
268.6829249327349
 20
161.3776500434285
 30
0.0
 11
268.6829249327349
 21
158.6135980531877
 31
0.0
  0
LINE
  5
29E4
330
1F
100
AcDbEntity
  8
AD4530
  6
Continuous
 62
     9
100
AcDbLine
 10
230.4329249327349
 20
163.1776500434285
 30
0.0
 11
230.4329249327349
 21
158.6991278709952
 31
0.0
  0
LINE
  5
29E5
330
1F
100
AcDbEntity
  8
AD4530
  6
Continuous
 62
     9
100
AcDbLine
 10
163.7829249327349
 20
168.7776500436242
 30
0.0
 11
163.7829249327349
 21
160.3776500434352
 31
0.0
  0
LINE
  5
29E6
330
1F
100
AcDbEntity
  8
AD4530
  6
Continuous
 62
     9
100
AcDbLine
 10
177.0829249327349
 20
168.7776500436242
 30
0.0
 11
163.7829249327349
 21
168.7776500436242
 31
0.0
  0
LINE
  5
29E7
330
1F
100
AcDbEntity
  8
AD4530
  6
Continuous
 62
     9
100
AcDbLine
 10
177.0829249327349
 20
160.3776500434352
 30
0.0
 11
177.0829249327349
 21
168.7776500436242
 31
0.0
  0
LINE
  5
29E8
330
1F
100
AcDbEntity
  8
AD4530
  6
Continuous
 62
     9
100
AcDbLine
 10
163.7829249327349
 20
160.3776500434352
 30
0.0
 11
177.0829249327349
 21
160.3776500434352
 31
0.0
  0
LINE
  5
29E9
330
1F
100
AcDbEntity
  8
AD4530
  6
Continuous
 62
     9
100
AcDbLine
 10
159.8829249327349
 20
156.1776500434286
 30
0.0
 11
159.8829249327349
 21
158.5504551865586
 31
0.0
  0
LINE
  5
29EA
330
1F
100
AcDbEntity
  8
AD4530
  6
Continuous
 62
     9
100
AcDbLine
 10
182.1829697072623
 20
159.4776500434058
 30
0.0
 11
182.1829697072623
 21
158.3776500437692
 31
0.0
  0
LINE
  5
29EB
330
1F
100
AcDbEntity
  8
AD4530
  6
Continuous
 62
     9
100
AcDbLine
 10
159.7422700564601
 20
158.8317863647904
 30
0.0
 11
182.1829697072623
 21
158.8317863647904
 31
0.0
  0
LINE
  5
29EC
330
1F
100
AcDbEntity
  8
AD4530
  6
Continuous
 62
     9
100
AcDbLine
 10
182.1829697072623
 20
159.4776500434058
 30
0.0
 11
192.182954828626
 21
159.4776500434058
 31
0.0
  0
LINE
  5
29ED
330
1F
100
AcDbEntity
  8
AD4530
  6
Continuous
 62
     9
100
AcDbLine
 10
183.4829249327349
 20
159.4776500434058
 30
0.0
 11
183.4829249327349
 21
161.3776500434285
 31
0.0
  0
LINE
  5
29EE
330
1F
100
AcDbEntity
  8
AD4530
  6
Continuous
 62
     9
100
AcDbLine
 10
268.6829249327349
 20
158.6135980531877
 30
0.0
 11
270.482924932735
 21
158.6135980531877
 31
0.0
  0
LINE
  5
29EF
330
1F
100
AcDbEntity
  8
AD4530
  6
Continuous
 62
     9
100
AcDbLine
 10
259.8829249327349
 20
158.6135980531877
 30
0.0
 11
261.6829249327349
 21
158.6135980531877
 31
0.0
  0
LINE
  5
29F0
330
1F
100
AcDbEntity
  8
AD4530
  6
Continuous
 62
     9
100
AcDbLine
 10
238.582924932735
 20
158.613598052847
 30
0.0
 11
240.3829249327349
 21
158.613598052847
 31
0.0
  0
LINE
  5
29F1
330
1F
100
AcDbEntity
  8
AD4530
  6
Continuous
 62
     9
100
AcDbLine
 10
230.4329249327349
 20
158.6991278709952
 30
0.0
 11
232.5329249327349
 21
158.6991278709952
 31
0.0
  0
LINE
  5
29F2
330
1F
100
AcDbEntity
  8
AD4530
  6
Continuous
 62
     9
100
AcDbLine
 10
222.5829249327349
 20
158.613598052847
 30
0.0
 11
224.3829249327349
 21
158.613598052847
 31
0.0
  0
LINE
  5
29F3
330
1F
100
AcDbEntity
  8
AD4530
  6
Continuous
 62
     9
100
AcDbLine
 10
196.9329249327348
 20
158.6991278709952
 30
0.0
 11
199.032924932735
 21
158.6991278709952
 31
0.0
  0
LINE
  5
29F4
330
1F
100
AcDbEntity
  8
AD4530
  6
Continuous
 62
     9
100
AcDbLine
 10
192.182954828626
 20
158.7981699906899
 30
0.0
 11
196.9329249327348
 21
158.7782718195969
 31
0.0
  0
LINE
  5
29F5
330
1F
100
AcDbEntity
  8
AD4530
  6
Continuous
 62
     9
100
AcDbLine
 10
196.9329249327348
 20
158.6991278709952
 30
0.0
 11
196.9329249327348
 21
163.1776500434285
 31
0.0
  0
LINE
  5
29F6
330
1F
100
AcDbEntity
  8
AD4530
  6
Continuous
 62
     9
100
AcDbLine
 10
199.032924932735
 20
158.7724407136699
 30
0.0
 11
222.5829249327349
 21
158.7724407136699
 31
0.0
  0
LINE
  5
29F7
330
1F
100
AcDbEntity
  8
AD4530
  6
Continuous
 62
     9
100
AcDbLine
 10
222.5829249327349
 20
158.613598052847
 30
0.0
 11
222.5829249327349
 21
161.3776500434285
 31
0.0
  0
LINE
  5
29F8
330
1F
100
AcDbEntity
  8
AD4530
  6
Continuous
 62
     9
100
AcDbLine
 10
199.032924932735
 20
163.1776500434285
 30
0.0
 11
199.032924932735
 21
158.6991278709952
 31
0.0
  0
LINE
  5
29F9
330
1F
100
AcDbEntity
  8
AD4530
  6
Continuous
 62
     9
100
AcDbLine
 10
224.3829249327349
 20
161.3776500434285
 30
0.0
 11
224.3829249327349
 21
158.613598052847
 31
0.0
  0
LINE
  5
29FA
330
1F
100
AcDbEntity
  8
AD4530
  6
Continuous
 62
     9
100
AcDbLine
 10
224.3829249327349
 20
158.7724407136699
 30
0.0
 11
230.432924932735
 21
158.7724407136699
 31
0.0
  0
LINE
  5
29FB
330
1F
100
AcDbEntity
  8
AD4530
  6
Continuous
 62
     9
100
AcDbLine
 10
232.5329249327349
 20
158.6991278709952
 30
0.0
 11
232.5329249327349
 21
163.1776500434285
 31
0.0
  0
LINE
  5
29FC
330
1F
100
AcDbEntity
  8
AD4530
  6
Continuous
 62
     9
100
AcDbLine
 10
232.5329249327349
 20
158.7724407136699
 30
0.0
 11
238.582924932735
 21
158.7724407136699
 31
0.0
  0
LINE
  5
29FD
330
1F
100
AcDbEntity
  8
AD4530
  6
Continuous
 62
     9
100
AcDbLine
 10
238.582924932735
 20
158.613598052847
 30
0.0
 11
238.5829249327348
 21
161.3776500434285
 31
0.0
  0
LINE
  5
29FE
330
1F
100
AcDbEntity
  8
AD4530
  6
Continuous
 62
     9
100
AcDbLine
 10
240.3829249327349
 20
161.3776500434285
 30
0.0
 11
240.3829249327349
 21
158.613598052847
 31
0.0
  0
LINE
  5
29FF
330
1F
100
AcDbEntity
  8
AD4530
  6
Continuous
 62
     9
100
AcDbLine
 10
242.1829548286261
 20
158.7724407136699
 30
0.0
 11
242.1829548286261
 21
158.3776500434285
 31
0.0
  0
LINE
  5
2A00
330
1F
100
AcDbEntity
  8
AD4530
  6
Continuous
 62
     9
100
AcDbLine
 10
240.3829249327349
 20
158.7724407136699
 30
0.0
 11
242.1829548286261
 21
158.7724407136699
 31
0.0
  0
LINE
  5
2A01
330
1F
100
AcDbEntity
  8
AD4530
  6
Continuous
 62
     9
100
AcDbLine
 10
242.1829548286261
 20
158.7724407136699
 30
0.0
 11
242.1829548286261
 21
159.4776500434058
 31
0.0
  0
LINE
  5
2A02
330
1F
100
AcDbEntity
  8
AD4530
  6
Continuous
 62
     9
100
AcDbLine
 10
242.1829548286261
 20
159.4776500434058
 30
0.0
 11
252.1829548286261
 21
159.4776500434058
 31
0.0
  0
LINE
  5
2A03
330
1F
100
AcDbEntity
  8
AD4530
  6
Continuous
 62
     9
100
AcDbLine
 10
270.482924932735
 20
158.8317863647904
 30
0.0
 11
278.1829249327349
 21
158.8317863647904
 31
0.0
  0
LINE
  5
2A04
330
1F
100
AcDbEntity
  8
AD4530
  6
Continuous
 62
     9
100
AcDbLine
 10
268.6829249327349
 20
161.3776500434285
 30
0.0
 11
270.482924932735
 21
161.3776500434285
 31
0.0
  0
LINE
  5
2A05
330
1F
100
AcDbEntity
  8
AD4530
  6
Continuous
 62
     9
100
AcDbLine
 10
261.6829249327349
 20
158.8317863647904
 30
0.0
 11
268.6829249327349
 21
158.8317863647904
 31
0.0
  0
LINE
  5
2A06
330
1F
100
AcDbEntity
  8
AD4530
  6
Continuous
 62
     9
100
AcDbLine
 10
259.8829249327349
 20
161.3776500434285
 30
0.0
 11
261.6829249327349
 21
161.3776500434285
 31
0.0
  0
LINE
  5
2A07
330
1F
100
AcDbEntity
  8
AD4530
  6
Continuous
 62
     9
100
AcDbLine
 10
252.1829548286261
 20
160.9776500434285
 30
0.0
 11
252.1829548286261
 21
158.3776500434287
 31
0.0
  0
LINE
  5
2A08
330
1F
100
AcDbEntity
  8
AD4530
  6
Continuous
 62
     9
100
AcDbLine
 10
252.1829548286261
 20
158.8317863647904
 30
0.0
 11
259.8829249327349
 21
158.8317863647904
 31
0.0
  0
LINE
  5
2A09
330
1F
100
AcDbEntity
  8
AD4530
  6
Continuous
 62
     9
100
AcDbLine
 10
232.5329249327349
 20
160.9776500434285
 30
0.0
 11
238.582924932735
 21
160.9776500434285
 31
0.0
  0
LINE
  5
2A0A
330
1F
100
AcDbEntity
  8
AD4530
  6
Continuous
 62
     9
100
AcDbLine
 10
238.5829249327348
 20
161.3776500434285
 30
0.0
 11
240.3829249327349
 21
161.3776500434285
 31
0.0
  0
LINE
  5
2A0B
330
1F
100
AcDbEntity
  8
AD4530
  6
Continuous
 62
     9
100
AcDbLine
 10
240.3829249327349
 20
160.9776500434285
 30
0.0
 11
246.5829249327349
 21
160.9776500434285
 31
0.0
  0
LINE
  5
2A0C
330
1F
100
AcDbEntity
  8
AD4530
  6
Continuous
 62
     9
100
AcDbLine
 10
246.582924932735
 20
159.4776500434058
 30
0.0
 11
246.5829249327349
 21
161.3776500434285
 31
0.0
  0
LINE
  5
2A0D
330
1F
100
AcDbEntity
  8
AD4530
  6
Continuous
 62
     9
100
AcDbLine
 10
246.5829249327349
 20
161.3776500434285
 30
0.0
 11
248.3829249327349
 21
161.3776500434285
 31
0.0
  0
LINE
  5
2A0E
330
1F
100
AcDbEntity
  8
AD4530
  6
Continuous
 62
     9
100
AcDbLine
 10
248.3829249327349
 20
161.3776500434285
 30
0.0
 11
248.3829249327349
 21
159.4776500434058
 31
0.0
  0
LINE
  5
2A0F
330
1F
100
AcDbEntity
  8
AD4530
  6
Continuous
 62
     9
100
AcDbLine
 10
248.3829249327349
 20
160.9776500434285
 30
0.0
 11
252.1829548286261
 21
160.9776500434285
 31
0.0
  0
LINE
  5
2A10
330
1F
100
AcDbEntity
  8
AD4530
  6
Continuous
 62
     9
100
AcDbLine
 10
230.4329249327349
 20
163.1776500434285
 30
0.0
 11
232.5329249327349
 21
163.1776500434285
 31
0.0
  0
LINE
  5
2A11
330
1F
100
AcDbEntity
  8
AD4530
  6
Continuous
 62
     9
100
AcDbLine
 10
196.9329249327348
 20
163.1776500434285
 30
0.0
 11
199.032924932735
 21
163.1776500434285
 31
0.0
  0
LINE
  5
2A12
330
1F
100
AcDbEntity
  8
AD4530
  6
Continuous
 62
     9
100
AcDbLine
 10
199.032924932735
 20
160.9776500434285
 30
0.0
 11
222.5829249327349
 21
160.9776500434285
 31
0.0
  0
LINE
  5
2A13
330
1F
100
AcDbEntity
  8
AD4530
  6
Continuous
 62
     9
100
AcDbLine
 10
222.5829249327349
 20
161.3776500434285
 30
0.0
 11
224.3829249327349
 21
161.3776500434285
 31
0.0
  0
LINE
  5
2A14
330
1F
100
AcDbEntity
  8
AD4530
  6
Continuous
 62
     9
100
AcDbLine
 10
224.3829249327349
 20
160.9776500434285
 30
0.0
 11
230.432924932735
 21
160.9776500434285
 31
0.0
  0
LINE
  5
2A15
330
1F
100
AcDbEntity
  8
AD4530
  6
Continuous
 62
     9
100
AcDbLine
 10
190.3829249327349
 20
161.3776500434285
 30
0.0
 11
192.1829548286261
 21
161.3776500434285
 31
0.0
  0
LINE
  5
2A16
330
1F
100
AcDbEntity
  8
AD4530
  6
Continuous
 62
     9
100
AcDbLine
 10
190.3829249327349
 20
159.4776500434058
 30
0.0
 11
190.3829249327349
 21
161.3776500434285
 31
0.0
  0
LINE
  5
2A17
330
1F
100
AcDbEntity
  8
AD4530
  6
Continuous
 62
     9
100
AcDbLine
 10
185.2829249327349
 20
161.3776500434285
 30
0.0
 11
185.2829249327349
 21
159.4776500434058
 31
0.0
  0
LINE
  5
2A18
330
1F
100
AcDbEntity
  8
AD4530
  6
Continuous
 62
     9
100
AcDbLine
 10
183.4829249327349
 20
161.3776500434285
 30
0.0
 11
185.2829249327349
 21
161.3776500434285
 31
0.0
  0
ELLIPSE
  5
2A19
330
1F
100
AcDbEntity
  8
AD4530
  6
Continuous
 62
     9
100
AcDbEllipse
 10
278.182924932735
 20
159.3778023718131
 30
0.0
 11
-0.0000000000000002
 21
-1.000152328043907
 31
0.0
210
0.0
220
0.0
230
-1.0
 40
0.9998476951563912
 41
4.712388980384688
 42
6.283185307179585
  0
ARC
  5
2A1A
330
1F
100
AcDbEntity
  8
AD4530
  6
Continuous
100
AcDbCircle
 10
278.8829249327349
 20
158.6776500434287
 30
0.0
 40
1.899999999999997
100
AcDbArc
 50
270.0
 51
0.0
  0
ARC
  5
2A1B
330
1F
100
AcDbEntity
  8
AD4530
  6
Continuous
100
AcDbCircle
 10
278.8829249327349
 20
158.6776500434287
 30
0.0
 40
0.3000000000000016
100
AcDbArc
 50
270.0
 51
0.0
  0
LINE
  5
2A1C
330
1F
100
AcDbEntity
  8
AD4530
  6
Continuous
100
AcDbLine
 10
159.8829249327349
 20
156.7776500434286
 30
0.0
 11
278.8829249327349
 21
156.7776500434287
 31
0.0
  0
LINE
  5
2A1D
330
1F
100
AcDbEntity
  8
AD4530
  6
Continuous
 62
     9
100
AcDbLine
 10
159.8829249327349
 20
158.3776500434286
 30
0.0
 11
278.8829249327349
 21
158.3776500434287
 31
0.0
  0
ELLIPSE
  5
2A1E
330
1F
100
AcDbEntity
  8
AD4530
  6
Continuous
 62
     9
100
AcDbEllipse
 10
278.182924932735
 20
159.8316340599468
 30
0.0
 11
-1.000000000000375
 21
-0.0000000000007284
 31
0.0
210
0.0
220
0.0
230
-0.9999999999999998
 40
0.9998476951556051
 41
3.141592653589792
 42
4.712388980385417
  0
DIMENSION
  5
2A35
330
1F
100
AcDbEntity
  8
MEASURE
100
AcDbDimension
  2
*D22
 10
280.7829249327349
 20
139.5206698786288
 30
0.0
 11
216.2329249327349
 21
142.5206698786288
 31
0.0
 70
    32
 71
     5
 42
129.0999999999999
  3
AD-STANDARD
100
AcDbAlignedDimension
 13
151.682924932735
 23
156.1776500434286
 33
0.0
 14
280.7829249327349
 24
158.6776500434287
 34
0.0
100
AcDbRotatedDimension
  0
DIMENSION
  5
2A42
330
1F
100
AcDbEntity
  8
MEASURE
100
AcDbDimension
  2
*D23
 10
293.3302891004382
 20
158.3776500437692
 30
0.0
 11
289.1517176718667
 21
204.1776500434286
 31
0.0
 70
    32
  1
(<>)
 71
     5
 42
91.59999999931859
  3
AD-STANDARD
100
AcDbAlignedDimension
 13
278.182924932735
 23
249.9776500430878
 33
0.0
 14
278.182924932735
 24
158.3776500437692
 34
0.0
 50
270.0
100
AcDbRotatedDimension
  0
DIMENSION
  5
2B5B
330
1F
100
AcDbEntity
  8
MEASURE
100
AcDbDimension
  2
*D24
 10
129.0687663122261
 20
122.2254533515679
 30
0.0
 11
81.06876631222613
 21
125.2254533515679
 31
0.0
 70
    32
 71
     5
 42
95.99999999999999
  3
AD-STANDARD
100
AcDbAlignedDimension
 13
33.06876631222614
 23
106.3312248320176
 33
0.0
 14
129.0687663122261
 24
106.3312248320176
 34
0.0
100
AcDbRotatedDimension
  0
DIMENSION
  5
2B90
330
1F
100
AcDbEntity
  8
MEASURE
100
AcDbDimension
  2
*D26
 10
159.7171144447105
 20
122.2254533515679
 30
0.0
 11
142.232924932735
 21
122.2254533515679
 31
0.0
 70
   160
 71
     5
 42
8.034189511975569
  3
AD-STANDARD
100
AcDbAlignedDimension
 13
151.682924932735
 23
107.3312248320176
 33
0.0
 14
159.7171144447105
 24
107.3312248320176
 34
0.0
100
AcDbRotatedDimension
1001
ACAD
1000
DSTYLE
1002
{
1070
   271
1070
     0
1002
}
  0
DIMENSION
  5
2B9F
330
1F
100
AcDbEntity
  8
MEASURE
100
AcDbDimension
  2
*D27
 10
279.182924932735
 20
122.2254533515679
 30
0.0
 11
219.4500196887227
 21
125.2254533515679
 31
0.0
 70
    32
 71
     5
 42
119.4658104880244
  3
AD-STANDARD
100
AcDbAlignedDimension
 13
159.7171144447105
 23
107.3312248320176
 33
0.0
 14
279.182924932735
 24
104.4312248320176
 34
0.0
100
AcDbRotatedDimension
1001
ACAD
1000
DSTYLE
1002
{
1070
   271
1070
     1
1070
   279
1070
     1
1002
}
  0
DIMENSION
  5
2BAC
330
1F
100
AcDbEntity
  8
MEASURE
100
AcDbDimension
  2
*D28
 10
280.7829249327349
 20
122.2254533515679
 30
0.0
 11
297.6862996536763
 21
122.2254533515679
 31
0.0
 70
   160
  1
(<>)
 71
     5
 42
1.599999999999909
  3
AD-STANDARD
100
AcDbAlignedDimension
 13
279.182924932735
 23
104.4312248320176
 33
0.0
 14
280.7829249327349
 24
98.23122483201755
 34
0.0
100
AcDbRotatedDimension
1001
ACAD
1000
DSTYLE
1002
{
1070
   279
1070
     1
1002
}
  0
DIMENSION
  5
2D74
330
1F
100
AcDbEntity
  8
MEASURE
100
AcDbDimension
  2
*D29
 10
19.75498696002819
 20
59.33122483201765
 30
0.0
 11
16.75498696002818
 21
83.33122483201767
 31
0.0
 70
    32
 71
     5
 42
48.0
  3
AD-STANDARD
100
AcDbAlignedDimension
 13
34.06876631222615
 23
107.3312248320176
 33
0.0
 14
34.06876631222615
 24
59.33122483201765
 34
0.0
 50
90.0
100
AcDbRotatedDimension
  0
DIMENSION
  5
2E4B
330
1F
100
AcDbEntity
  8
MEASURE
100
AcDbDimension
  2
*D33
 10
324.7922239259158
 20
168.4894856673667
 30
0.0
 11
320.8922239259158
 21
190.9894856673668
 31
0.0
 70
    32
 71
     5
 42
45.0
  3
AD-STANDARD
100
AcDbAlignedDimension
 13
308.8021495061356
 23
213.4894856673668
 33
0.0
 14
308.8021495061356
 24
168.4894856673668
 34
0.0
 50
90.0
100
AcDbRotatedDimension
1001
ACAD
1000
DSTYLE
1002
{
1070
    47
1040
0.6
1070
    71
1070
     1
1070
   146
1040
0.6
1070
    40
1040
1.5
1002
}
  0
DIMENSION
  5
2E4C
330
1F
100
AcDbEntity
  8
MEASURE
100
AcDbDimension
  2
*D34
 10
400.8021495061355
 20
203.231336224622
 30
0.0
 11
354.8021495061356
 21
207.131336224622
 31
0.0
 70
    32
 71
     5
 42
92.0
  3
AD-STANDARD
100
AcDbAlignedDimension
 13
308.8021495061356
 23
213.4894856673668
 33
0.0
 14
400.8021495061355
 24
213.4894856673668
 34
0.0
100
AcDbRotatedDimension
1001
ACAD
1000
DSTYLE
1002
{
1070
    47
1040
0.8
1070
    71
1070
     1
1070
   146
1040
0.6
1070
    40
1040
1.5
1002
}
  0
TEXT
  5
2E4D
330
1F
100
AcDbEntity
  8
MOJI
100
AcDbText
 10
350.6674742724454
 20
156.6812144472662
 30
0.0
 40
5.0
  1
パネルカット寸法
 41
0.8
  7
AD-STANDARD
100
AcDbText
  0
LINE
  5
2E4E
330
1F
100
AcDbEntity
  8
LINE1
100
AcDbLine
 10
308.8021495061356
 20
168.4894856673668
 30
0.0
 11
308.8021495061356
 21
213.4894856673668
 31
0.0
  0
LINE
  5
2E4F
330
1F
100
AcDbEntity
  8
LINE1
100
AcDbLine
 10
308.8021495061356
 20
213.4894856673668
 30
0.0
 11
400.8021495061355
 21
213.4894856673668
 31
0.0
  0
LINE
  5
2E50
330
1F
100
AcDbEntity
  8
LINE1
100
AcDbLine
 10
400.8021495061355
 20
213.4894856673668
 30
0.0
 11
400.8021495061355
 21
168.4894856673668
 31
0.0
  0
LINE
  5
2E51
330
1F
100
AcDbEntity
  8
LINE1
100
AcDbLine
 10
400.8021495061355
 20
168.4894856673668
 30
0.0
 11
308.8021495061356
 21
168.4894856673668
 31
0.0
  0
ENDSEC
  0
SECTION
  2
OBJECTS
  0
DICTIONARY
  5
C
330
0
100
AcDbDictionary
281
     1
  3
ACAD_COLOR
350
E3A
  3
ACAD_GROUP
350
D
  3
ACAD_LAYOUT
350
1A
  3
ACAD_MATERIAL
350
E36
  3
ACAD_MLEADERSTYLE
350
E32
  3
ACAD_MLINESTYLE
350
17
  3
ACAD_PLOTSETTINGS
350
19
  3
ACAD_PLOTSTYLENAME
350
E
  3
ACAD_SCALELIST
350
3B
  3
ACAD_TABLESTYLE
350
E31
  3
ACAD_VISUALSTYLE
350
2A
  3
ACDBHEADERROUNDTRIPXREC
350
2F1D
  3
AcDbVariableDictionary
350
E2F
  3
DWGPROPS
350
2F1C
  0
DICTIONARY
  5
1D31
330
8
100
AcDbDictionary
280
     1
281
     1
  3
ACAD_XREC_ROUNDTRIP
360
1F9A
  0
DICTIONARY
  5
E92
330
2
100
AcDbDictionary
280
     1
281
     1
  3
ACAD_LAYERFILTERS
360
2F05
  3
ACAD_LAYERSTATES
360
E93
  3
ACLYDICTIONARY
360
2F04
  0
DICTIONARY
  5
1F9B
330
10
100
AcDbDictionary
280
     1
281
     1
  3
ACAD_XREC_ROUNDTRIP
360
1F9C
  0
DICTIONARY
  5
1FDF
330
E90
100
AcDbDictionary
280
     1
281
     1
  3
ACAD_XREC_ROUNDTRIP
360
1FE0
  0
DICTIONARY
  5
1FE1
330
1600
100
AcDbDictionary
280
     1
281
     1
  3
ACAD_XREC_ROUNDTRIP
360
1FE2
  0
DICTIONARY
  5
13DB
330
1F
100
AcDbDictionary
280
     1
281
     1
  3
ACAD_SORTENTS
360
13DC
  0
DICTIONARY
  5
E3A
102
{ACAD_REACTORS
330
C
102
}
330
C
100
AcDbDictionary
281
     1
  0
DICTIONARY
  5
D
102
{ACAD_REACTORS
330
C
102
}
330
C
100
AcDbDictionary
281
     1
  3
*A1
350
13DD
  3
*A2
350
1D28
  3
*A3
350
1F88
  0
DICTIONARY
  5
1A
102
{ACAD_REACTORS
330
C
102
}
330
C
100
AcDbDictionary
281
     1
  3
Layout1
350
1E
  3
Model
350
22
  0
DICTIONARY
  5
E36
102
{ACAD_REACTORS
330
C
102
}
330
C
100
AcDbDictionary
281
     1
  3
ByBlock
350
E38
  3
ByLayer
350
E37
  3
Global
350
E39
  0
DICTIONARY
  5
E32
102
{ACAD_REACTORS
330
C
102
}
330
C
100
AcDbDictionary
281
     1
  0
DICTIONARY
  5
17
102
{ACAD_REACTORS
330
C
102
}
330
C
100
AcDbDictionary
281
     1
  3
Standard
350
18
  0
DICTIONARY
  5
19
102
{ACAD_REACTORS
330
C
102
}
330
C
100
AcDbDictionary
281
     1
  0
ACDBDICTIONARYWDFLT
  5
E
102
{ACAD_REACTORS
330
C
102
}
330
C
100
AcDbDictionary
281
     1
  3
Normal
350
F
100
AcDbDictionaryWithDefault
340
F
  0
DICTIONARY
  5
3B
102
{ACAD_REACTORS
330
C
102
}
330
C
100
AcDbDictionary
281
     1
  3
A0
350
3C
  3
A1
350
3D
  3
A2
350
3E
  3
A3
350
3F
  3
A4
350
40
  3
A5
350
41
  3
A6
350
42
  3
A7
350
43
  3
A8
350
44
  3
A9
350
45
  3
B0
350
46
  3
B1
350
47
  3
B2
350
48
  3
B3
350
49
  3
B4
350
4A
  3
B5
350
4B
  3
B6
350
4C
  3
B7
350
4D
  3
B8
350
4E
  3
B9
350
4F
  3
C0
350
50
  3
C1
350
51
  3
C2
350
52
  3
C3
350
53
  3
C4
350
54
  3
C5
350
55
  3
C6
350
56
  3
C7
350
57
  3
C8
350
58
  3
C9
350
59
  3
D0
350
5A
  3
D1
350
5B
  3
D2
350
5C
  0
DICTIONARY
  5
E31
102
{ACAD_REACTORS
330
C
102
}
330
C
100
AcDbDictionary
281
     1
  3
Standard
350
E3B
  0
DICTIONARY
  5
2A
102
{ACAD_REACTORS
330
C
102
}
330
C
100
AcDbDictionary
281
     1
  3
2dWireframe
350
2F
  3
3D Hidden
350
31
  3
3dWireframe
350
30
  3
Basic
350
32
  3
Brighten
350
36
  3
ColorChange
350
3A
  3
Conceptual
350
34
  3
Dim
350
35
  3
Facepattern
350
39
  3
Flat
350
2B
  3
FlatWithEdges
350
2C
  3
Gouraud
350
2D
  3
GouraudWithEdges
350
2E
  3
Linepattern
350
38
  3
Realistic
350
33
  3
Thicken
350
37
  0
DICTIONARY
  5
2F1D
102
{ACAD_REACTORS
330
C
102
}
330
C
100
AcDbDictionary
281
     1
  0
DICTIONARY
  5
E2F
102
{ACAD_REACTORS
330
C
102
}
330
C
100
AcDbDictionary
281
     1
  3
CANNOSCALE
350
E30
  3
CTABLESTYLE
350
1D7D
  3
DIMASSOC
350
1D80
  3
INDEXCTL
350
1D7F
  3
PROJECTNAME
350
1FEE
  3
PSOLHEIGHT
350
1FE6
  3
PSOLWIDTH
350
1FE5
  3
SORTENTS
350
1D7E
  0
XRECORD
  5
2F1C
102
{ACAD_REACTORS
330
C
102
}
330
C
100
AcDbXrecord
280
     1
  1
DWGPROPS COOKIE
  2

  3

  4

  6

  7

  8
ADJ-DV10-W87
  9

300
=
301
=
302
=
303
=
304
=
305
=
306
=
307
=
308
=
309
=
 40
0.4935963657407408
 41
2455608.609112581
 42
2455652.446018692
  1

 90
        0
  0
XRECORD
  5
1F9A
102
{ACAD_REACTORS
330
1D31
102
}
330
1D31
100
AcDbXrecord
280
     1
102
VTR_0.000_0.000_1.000_1.000_VISUALSTYLE
340
2F
102
VTR_0.000_0.000_1.000_1.000_GRIDDISPLAY
 70
     3
102
VTR_0.000_0.000_1.000_1.000_GRIDMAJOR
 70
     5
102
VTR_0.000_0.000_1.000_1.000_DEFAULTLIGHTING
280
     1
102
VTR_0.000_0.000_1.000_1.000_DEFAULTLIGHTINGTYPE
 70
     1
102
VTR_0.000_0.000_1.000_1.000_BRIGHTNESS
141
0.0
102
VTR_0.000_0.000_1.000_1.000_CONTRAST
142
0.0
  0
DICTIONARY
  5
2F05
102
{ACAD_REACTORS
330
E92
102
}
330
E92
100
AcDbDictionary
281
     1
  0
DICTIONARY
  5
E93
102
{ACAD_REACTORS
330
E92
102
}
330
E92
100
AcDbDictionary
281
     1
  0
DICTIONARY
  5
2F04
102
{ACAD_REACTORS
330
E92
102
}
330
E92
100
AcDbDictionary
281
     1
1001
ACAD
1000
<All
  0
XRECORD
  5
1F9C
102
{ACAD_REACTORS
330
1F9B
102
}
330
1F9B
100
AcDbXrecord
280
     1
102
MATERIAL
340
E39
  0
XRECORD
  5
1FE0
102
{ACAD_REACTORS
330
1FDF
102
}
330
1FDF
100
AcDbXrecord
280
     1
102
MATERIAL
340
E39
  0
XRECORD
  5
1FE2
102
{ACAD_REACTORS
330
1FE1
102
}
330
1FE1
100
AcDbXrecord
280
     1
102
MATERIAL
340
E39
  0
SORTENTSTABLE
  5
13DC
102
{ACAD_REACTORS
330
13DB
102
}
330
13DB
100
AcDbSortentsTable
330
1F
331
1AC4
  5
123D
331
1B01
  5
127B
331
2782
  5
215C
331
2710
  5
20E6
331
22D3
  5
234F
331
2412
  5
24AA
331
23D5
  5
2451
331
2363
  5
23DF
331
2666
  5
1A4F
331
26D8
  5
208F
331
1484
  5
27CA
331
1CEB
  5
1479
331
148B
  5
27D1
331
1AE7
  5
1261
331
2770
  5
214A
331
27A5
  5
2188
331
1C43
  5
13BD
331
27E2
  5
21C5
331
232C
  5
23AB
331
22F6
  5
2372
331
26FB
  5
20D1
331
14A7
  5
27ED
331
1471
  5
27B7
331
27C8
  5
21AB
331
2756
  5
2130
331
278B
  5
2165
331
2719
  5
20F0
331
1C66
  5
13F4
331
112F
  5
2790
331
1AD4
  5
124E
331
22DC
  5
235F
331
2450
  5
24E7
331
241B
  5
24B2
331
23DE
  5
2475
331
23E5
  5
247C
331
266F
  5
1A58
331
1494
  5
27DA
331
1B62
  5
12DC
331
27EB
  5
21CE
331
2779
  5
2153
331
1C4C
  5
13C6
331
273C
  5
2114
331
1AF7
  5
1271
331
22CA
  5
2346
331
2473
  5
250A
331
243D
  5
24D4
331
2408
  5
24A0
331
23CB
  5
2447
331
2704
  5
20DA
331
2655
  5
1A39
331
26C7
  5
2071
331
265C
  5
1A40
331
147A
  5
27C0
331
2794
  5
2177
331
2722
  5
20FA
331
1ADD
  5
1257
331
2322
  5
239E
331
23EE
  5
2485
331
237C
  5
23F8
331
26EA
  5
20B9
331
149D
  5
27E3
331
1460
  5
27A6
331
1C55
  5
13CF
331
2781
  5
215B
331
1C5C
  5
13D6
331
1C1F
  5
1399
331
270F
  5
20E5
331
2345
  5
23C1
331
22D2
  5
234E
331
23D4
  5
2450
331
2369
  5
23E5
331
2665
  5
1A4E
331
1483
  5
27C9
331
1D1F
  5
14AD
331
148A
  5
27D0
331
1C07
  5
1381
331
1B58
  5
12D2
331
1AE6
  5
1260
331
27A4
  5
2187
331
2732
  5
210A
331
276F
  5
2149
331
1C42
  5
13BC
331
232B
  5
23A7
331
1AB0
  5
2EF
331
2332
  5
23BB
331
23F7
  5
248E
331
238C
  5
2408
331
26FA
  5
20D0
331
2030
  5
27F9
331
14A6
  5
27EC
331
1470
  5
27B6
331
278A
  5
2164
331
2755
  5
212F
331
1C28
  5
13A2
331
2718
  5
20EF
331
22DB
  5
2357
331
26E0
  5
20A8
331
266E
  5
1A57
331
1493
  5
27D9
331
1C10
  5
138A
331
1AEF
  5
1269
331
1B61
  5
12DB
331
27EA
  5
21CD
331
2778
  5
2152
331
273B
  5
2113
331
1AF6
  5
1270
331
22C9
  5
2345
331
2472
  5
2509
331
26C6
  5
206F
331
2703
  5
20D9
331
2654
  5
1A38
331
265B
  5
1A3F
331
1479
  5
27BF
331
2793
  5
2175
331
1C6E
  5
13FC
331
2721
  5
20F9
331
275E
  5
2138
331
1C31
  5
13AB
331
1ADC
  5
1256
331
242A
  5
24C1
331
23B8
  5
2435
331
23ED
  5
2484
331
26B3
  5
2055
331
26F0
  5
20C6
331
149C
  5
27E2
331
1D03
  5
1491
331
2780
  5
215A
331
270E
  5
20E4
331
2344
  5
23C0
331
22D1
  5
234D
331
2410
  5
24A8
331
23D3
  5
244F
331
239E
  5
241C
331
2368
  5
23E4
331
26CF
  5
207C
331
2664
  5
1A4D
331
26D6
  5
2088
331
1482
  5
27C8
331
1BFF
  5
1379
331
1CE9
  5
1477
331
2767
  5
2141
331
1D1E
  5
14AC
331
1489
  5
27CF
331
1C06
  5
1380
331
1AE5
  5
125F
331
27A3
  5
2186
331
27E0
  5
21C3
331
276E
  5
2148
331
1C7E
  5
140C
331
1C41
  5
13BB
331
232A
  5
23A6
331
23F6
  5
248D
331
14A5
  5
27EB
331
146F
  5
27B5
331
27C6
  5
21A9
331
2754
  5
212E
331
2789
  5
2163
331
1D0B
  5
1499
331
2717
  5
20EE
331
1C27
  5
13A1
331
1C64
  5
13F2
331
1AD2
  5
124C
331
2317
  5
2395
331
22DA
  5
2356
331
2419
  5
24B0
331
23DC
  5
2473
331
2420
  5
24B7
331
23E3
  5
247A
331
23AE
  5
242C
331
266D
  5
1A56
331
1492
  5
27D8
331
1C0F
  5
1389
331
1AEE
  5
1268
331
27AC
  5
218F
331
27E9
  5
21CC
331
2777
  5
2151
331
1C4A
  5
13C4
331
273A
  5
2112
331
1AF5
  5
126F
331
22C8
  5
2344
331
2394
  5
2410
331
2702
  5
20D8
331
2653
  5
1A37
331
26C5
  5
206E
331
265A
  5
1A3E
331
1478
  5
27BE
331
1BB8
  5
1332
331
2792
  5
2171
331
1D14
  5
14A2
331
275D
  5
2137
331
2720
  5
20F8
331
1B4D
  5
12C7
331
1136
  5
2797
331
1ADB
  5
1255
331
23EC
  5
2483
331
26E8
  5
20B4
331
2676
  5
1A5F
331
149B
  5
27E1
331
1D02
  5
1490
331
1C53
  5
13CD
331
1BA5
  5
131F
331
1AC1
  5
1022
331
1C1D
  5
1397
331
270D
  5
20E3
331
22D0
  5
234C
331
23D2
  5
244E
331
26CE
  5
207B
331
26D5
  5
2087
331
2663
  5
1A47
331
1481
  5
27C7
331
1BFE
  5
1378
331
1D1D
  5
14AB
331
279B
  5
217E
331
2766
  5
2140
331
1488
  5
27CE
331
11E7
  5
279C
331
1AE4
  5
125E
331
1C05
  5
137F
331
2730
  5
2108
331
276D
  5
2147
331
1C40
  5
13BA
331
2329
  5
23A5
331
22BE
  5
233D
331
234D
  5
23C9
331
26F8
  5
20CE
331
14A4
  5
27EA
331
14AB
  5
27F1
331
146E
  5
27B4
331
1D0A
  5
1498
331
27C5
  5
21A8
331
2788
  5
2162
331
1C63
  5
13F1
331
2716
  5
20ED
331
2753
  5
212D
331
230F
  5
238B
331
1AD1
  5
124B
331
2316
  5
2392
331
22D9
  5
2355
331
23A6
  5
2423
331
23AD
  5
2429
331
26DE
  5
209E
331
266C
  5
1A55
331
1491
  5
27D7
331
1AED
  5
1267
331
27E8
  5
21CB
331
2776
  5
2150
331
27AB
  5
218E
331
2739
  5
2111
331
1AF4
  5
126E
331
22C7
  5
2343
331
2470
  5
2507
331
23FE
  5
2496
331
2393
  5
240F
331
26C4
  5
206D
331
2701
  5
20D7
331
2659
  5
1A3D
331
1477
  5
27BD
331
1D13
  5
14A1
331
2791
  5
216F
331
1C6C
  5
13FA
331
271F
  5
20F7
331
275C
  5
2136
331
1135
  5
2796
331
1ADA
  5
1254
331
1B4C
  5
12C6
331
231F
  5
239B
331
23B6
  5
2433
331
2675
  5
1A5E
331
149A
  5
27E0
331
1C17
  5
1391
331
27B4
  5
2197
331
27F1
  5
21D4
331
277F
  5
2159
331
1BA4
  5
131E
331
1AC0
  5
1021
331
1BE1
  5
135B
331
270C
  5
20E2
331
240E
  5
24A6
331
23D1
  5
244D
331
235F
  5
23DB
331
26CD
  5
2079
331
2662
  5
1A46
331
1480
  5
27C6
331
1BFD
  5
1377
331
2765
  5
213F
331
279A
  5
217D
331
1D1C
  5
14AA
331
1C04
  5
137E
331
11E6
  5
279B
331
1AE3
  5
125D
331
276C
  5
2146
331
1C7C
  5
140A
331
1C3F
  5
13B9
331
272F
  5
2107
331
26F7
  5
20CD
331
14A3
  5
27E9
331
14AA
  5
27F0
331
146D
  5
27B3
331
1BEA
  5
1364
331
27C4
  5
21A7
331
2752
  5
212B
331
2787
  5
2161
331
2715
  5
20EC
331
1C62
  5
13F0
331
230E
  5
238A
331
2315
  5
2391
331
22D8
  5
2354
331
23DA
  5
2471
331
23E1
  5
2478
331
266B
  5
1A54
331
1490
  5
27D6
331
1AEC
  5
1266
331
27AA
  5
218D
331
2738
  5
2110
331
2775
  5
214F
331
1CF7
  5
1485
331
1AF3
  5
126D
331
22C6
  5
2342
331
2404
  5
249B
331
2355
  5
23D1
331
2700
  5
20D6
331
2658
  5
1A3C
331
1476
  5
27BC
331
1BB6
  5
1330
331
2790
  5
216E
331
275B
  5
2135
331
1C2E
  5
13A8
331
271E
  5
20F5
331
1134
  5
2795
331
1AD9
  5
1253
331
231E
  5
239A
331
2378
  5
23F4
331
23EA
  5
2481
331
26E6
  5
20B1
331
2674
  5
1A5D
331
26B0
  5
204D
331
1499
  5
27DF
331
27F0
  5
21D3
331
27B3
  5
2196
331
2741
  5
2119
331
277E
  5
2158
331
1D00
  5
148E
331
1BE0
  5
135A
331
1ABF
  5
1020
331
1C1B
  5
1395
331
270B
  5
20E1
331
2341
  5
23BD
331
22CF
  5
234B
331
2442
  5
24D9
331
23D0
  5
244C
331
26CC
  5
2078
331
26D3
  5
2084
331
2661
  5
1A45
331
147F
  5
27C5
331
1BFC
  5
1376
331
1D1B
  5
14A9
331
2799
  5
217C
331
1C37
  5
13B1
331
2727
  5
20FF
331
2764
  5
213E
331
11E5
  5
279A
331
1AE2
  5
125C
331
1C03
  5
137D
331
276B
  5
2145
331
22BC
  5
2337
331
2430
  5
24C8
331
234B
  5
23C8
331
26F6
  5
20CC
331
14A2
  5
27E8
331
27BC
  5
219F
331
14A9
  5
27EF
331
146C
  5
27B2
331
27C3
  5
21A6
331
2786
  5
2160
331
1C61
  5
13EF
331
2714
  5
20EB
331
2751
  5
212A
331
230D
  5
2389
331
2314
  5
2390
331
22D7
  5
2353
331
23D9
  5
2470
331
236E
  5
23EA
331
26DC
  5
2099
331
266A
  5
1A53
331
27DF
  5
21C2
331
148F
  5
27D5
331
11EA
  5
279F
331
1BCF
  5
1349
331
1AEB
  5
1265
331
2774
  5
214E
331
27A9
  5
218C
331
2737
  5
210F
331
1AB5
  5
D8E
331
1AF2
  5
126C
331
26FF
  5
20D5
331
2650
  5
14CD
331
1475
  5
27BB
331
271D
  5
20F4
331
275A
  5
2134
331
1C2D
  5
13A7
331
278F
  5
2169
331
1133
  5
2794
331
1AD8
  5
1252
331
2426
  5
24BE
331
23B4
  5
2431
331
23E9
  5
2480
331
2377
  5
23F3
331
282D
  5
2339
331
2673
  5
1A5C
331
1498
  5
27DE
331
1C15
  5
138F
331
27EF
  5
21D2
331
277D
  5
2157
331
1C50
  5
13CA
331
2740
  5
2118
331
1AFB
  5
1275
331
270A
  5
20E0
331
2340
  5
23BC
331
22CE
  5
234A
331
23CF
  5
244B
331
240C
  5
24A4
331
26CB
  5
2077
331
2660
  5
1A44
331
26D2
  5
2083
331
147E
  5
27C4
331
1BFB
  5
1375
331
27D5
  5
21B8
331
2763
  5
213D
331
2798
  5
217B
331
1D1A
  5
14A8
331
1C73
  5
1401
331
1C02
  5
137C
331
11E4
  5
2799
331
1AE1
  5
125B
331
276A
  5
2144
331
272D
  5
2105
331
2326
  5
23A2
331
26EE
  5
20C3
331
14A1
  5
27E7
331
27BB
  5
219E
331
14A8
  5
27EE
331
146B
  5
27B1
331
2750
  5
2129
331
2785
  5
215F
331
2713
  5
20EA
331
1C60
  5
13EE
331
22D6
  5
2352
331
2415
  5
24AC
331
23A3
  5
241F
331
23D8
  5
246F
331
2366
  5
23E3
331
23AA
  5
2428
331
236D
  5
23E9
331
2669
  5
1A52
331
1487
  5
27CD
331
27DE
  5
21C1
331
148E
  5
27D4
331
11E9
  5
279E
331
1AEA
  5
1264
331
2773
  5
214D
331
1AB4
  5
D84
331
1AF1
  5
126B
331
23FB
  5
2492
331
2402
  5
2499
331
2390
  5
240D
331
26FE
  5
20D4
331
1474
  5
27BA
331
278E
  5
2168
331
2759
  5
2133
331
271C
  5
20F3
331
1132
  5
2793
331
1AD7
  5
1251
331
23E8
  5
247F
331
26E4
  5
20AE
331
2672
  5
1A5B
331
1497
  5
27DD
331
27EE
  5
21D1
331
273F
  5
2117
331
277C
  5
2156
331
1AFA
  5
1274
331
2709
  5
20DF
331
22CD
  5
2349
331
23CE
  5
244A
331
26CA
  5
2076
331
2707
  5
20DD
331
26D1
  5
2080
331
265F
  5
1A43
331
147D
  5
27C3
331
1BFA
  5
1374
331
1D19
  5
14A7
331
27D4
  5
21B7
331
2797
  5
217A
331
1C35
  5
13AF
331
1C01
  5
137B
331
11E3
  5
2798
331
1AE0
  5
125A
331
1C79
  5
1407
331
272C
  5
2104
331
2769
  5
2143
331
1C3C
  5
13B6
331
2325
  5
23A1
331
23F1
  5
2488
331
26F4
  5
20CA
331
14A0
  5
27E6
331
27BA
  5
219D
331
146A
  5
27B0
331
1B03
  5
127D
331
2784
  5
215E
331
2712
  5
20E8
331
22D5
  5
2351
331
23D7
  5
246E
331
2668
  5
1A51
331
26DA
  5
2091
331
1486
  5
27CC
331
148D
  5
27D3
331
11E8
  5
279D
331
1AE9
  5
1263
331
2772
  5
214C
331
2735
  5
210D
331
1AF0
  5
126A
331
22F8
  5
2375
331
22C3
  5
2341
331
23FA
  5
2491
331
2401
  5
2498
331
26FD
  5
20D3
331
1473
  5
27B9
331
1ACF
  5
1249
331
27CA
  5
21AD
331
1C68
  5
13F6
331
271B
  5
20F2
331
2758
  5
2132
331
278D
  5
2167
331
1131
  5
2792
331
1AD6
  5
1250
331
231B
  5
2397
331
241D
  5
24B5
331
2671
  5
1A5A
331
1496
  5
27DC
331
1C13
  5
138D
331
27ED
  5
21D0
331
277B
  5
2155
331
273E
  5
2116
331
1AF9
  5
1273
331
2708
  5
20DE
331
22CC
  5
2348
331
2475
  5
250C
331
240A
  5
24A2
331
2706
  5
20DC
331
2657
  5
1A3B
331
26C9
  5
2074
331
265E
  5
1A42
331
26D0
  5
207E
331
147C
  5
27C2
331
1BF9
  5
1373
331
2796
  5
2179
331
2724
  5
20FC
331
1C34
  5
13AE
331
27D3
  5
21B6
331
1D18
  5
14A6
331
1C00
  5
137A
331
1B51
  5
12CB
331
1ADF
  5
1259
331
2768
  5
2142
331
1C3B
  5
13B5
331
272B
  5
2103
331
2462
  5
24F9
331
22B9
  5
2334
331
26AF
  5
204B
331
26EC
  5
20BE
331
149F
  5
27E5
331
1BDF
  5
1359
331
27F6
  5
21D9
331
27B9
  5
219C
331
1C57
  5
13D1
331
2747
  5
211F
331
1469
  5
27AF
331
2783
  5
215D
331
2711
  5
20E7
331
1C21
  5
139B
331
1C5E
  5
13D8
331
22D4
  5
2350
331
23D6
  5
246D
331
2364
  5
23E0
331
2667
  5
1A50
331
1485
  5
27CB
331
148C
  5
27D2
331
1AE8
  5
1262
331
27A6
  5
2189
331
2734
  5
210C
331
2771
  5
214B
331
22F7
  5
2373
331
22C2
  5
233E
331
246B
  5
2504
331
2400
  5
2497
331
264D
  5
14CA
331
26FC
  5
20D2
331
1472
  5
27B8
331
278C
  5
2166
331
27C9
  5
21AC
331
2757
  5
2131
331
271A
  5
20F1
331
1130
  5
2791
331
1AD5
  5
124F
331
231A
  5
2396
331
23DF
  5
2476
331
23B1
  5
242F
331
26E2
  5
20AC
331
2670
  5
1A59
331
1495
  5
27DB
331
1C12
  5
138C
331
27EC
  5
21CF
331
273D
  5
2115
331
277A
  5
2154
331
1AF8
  5
1272
331
22CB
  5
2347
331
2474
  5
250B
331
26C8
  5
2073
331
2705
  5
20DB
331
2656
  5
1A3A
331
265D
  5
1A41
331
147B
  5
27C1
331
1BF8
  5
1372
331
2795
  5
2178
331
1C70
  5
13FE
331
2723
  5
20FB
331
1ADE
  5
1258
331
272A
  5
2102
331
2323
  5
239F
331
22B8
  5
2333
331
237D
  5
23F9
331
23BA
  5
243B
331
23EF
  5
2486
331
26AE
  5
204A
331
26F2
  5
20C8
331
149E
  5
27E4
331
1BDE
  5
1358
331
2746
  5
211E
331
27F5
  5
21D8
331
1468
  5
27AE
  0
GROUP
  5
13DD
102
{ACAD_REACTORS
330
D
102
}
330
D
100
AcDbGroup
300

 70
     1
 71
     1
  0
GROUP
  5
1D28
102
{ACAD_REACTORS
330
D
102
}
330
D
100
AcDbGroup
300

 70
     1
 71
     1
  0
GROUP
  5
1F88
102
{ACAD_REACTORS
330
D
102
}
330
D
100
AcDbGroup
300

 70
     1
 71
     1
  0
LAYOUT
  5
1E
102
{ACAD_XDICTIONARY
360
2F1E
102
}
102
{ACAD_REACTORS
330
1A
102
}
330
1A
100
AcDbPlotSettings
  1

  2
none_device
  4

  6

 40
0.0
 41
0.0
 42
0.0
 43
0.0
 44
0.0
 45
0.0
 46
0.0
 47
0.0
 48
0.0
 49
0.0
140
0.0
141
0.0
142
1.0
143
1.0
 70
   688
 72
     0
 73
     0
 74
     5
  7
monochrome.ctb
 75
    16
147
1.0
148
0.0
149
0.0
100
AcDbLayout
  1
Layout1
 70
     1
 71
     1
 10
0.0
 20
0.0
 11
420.0
 21
297.0
 12
0.0
 22
0.0
 32
0.0
 14
0.0
 24
0.0
 34
0.0
 15
420.0
 25
297.0
 35
0.0
146
0.0
 13
0.0
 23
0.0
 33
0.0
 16
1.0
 26
0.0
 36
0.0
 17
0.0
 27
1.0
 37
0.0
 76
     0
330
1B
  0
LAYOUT
  5
22
102
{ACAD_XDICTIONARY
360
2F20
102
}
102
{ACAD_REACTORS
330
1A
102
}
330
1A
100
AcDbPlotSettings
  1

  2
RICOH IPSiO SP C820 RPCS
  4
A3
  6

 40
5.873749732971191
 41
5.873747825622557
 42
5.873748779296875
 43
5.873748779296875
 44
296.9259948730469
 45
419.9466552734373
 46
4.589248180389374
 47
11.59957933425903
 48
23.26172485073652
 49
9.58339982340426
140
408.2617248507364
141
285.5833998234043
142
1.0
143
1.0
 70
 11940
 72
     1
 73
     1
 74
     4
  7
monochrome.ctb
 75
     0
147
1.033255421597023
148
-23.26172485073652
149
-9.58339982340426
100
AcDbLayout
  1
Model
 70
     1
 71
     0
 10
0.0
 20
0.0
 11
420.0
 21
297.0
 12
0.0
 22
0.0
 32
0.0
 14
0.0
 24
0.0
 34
0.0
 15
420.0
 25
297.0
 35
0.0
146
0.0
 13
0.0
 23
0.0
 33
0.0
 16
1.0
 26
0.0
 36
0.0
 17
0.0
 27
1.0
 37
0.0
 76
     0
330
1F
331
29
1001
ACAD_PSEXT
1000
RICOH IPSiO SP C820 RPCS
1000
RICOH IPSiO SP C820 RPCS
1000
172.16.140.60@
1000
RPCS Driver (Windows 2000/XP/Server 2003/Vista)
1070
     0
  0
MATERIAL
  5
E38
102
{ACAD_XDICTIONARY
360
1FD9
102
}
102
{ACAD_REACTORS
330
E36
102
}
330
E36
100
AcDbMaterial
  1
ByBlock
  0
MATERIAL
  5
E37
102
{ACAD_XDICTIONARY
360
1FD7
102
}
102
{ACAD_REACTORS
330
E36
102
}
330
E36
100
AcDbMaterial
  1
ByLayer
  0
MATERIAL
  5
E39
102
{ACAD_XDICTIONARY
360
1FDB
102
}
102
{ACAD_REACTORS
330
E36
102
}
330
E36
100
AcDbMaterial
  1
Global
  0
MLINESTYLE
  5
18
102
{ACAD_REACTORS
330
17
102
}
330
17
100
AcDbMlineStyle
  2
STANDARD
 70
     0
  3

 62
   256
 51
90.0
 52
90.0
 71
     2
 49
0.5
 62
   256
  6
BYLAYER
 49
-0.5
 62
   256
  6
BYLAYER
  0
ACDBPLACEHOLDER
  5
F
102
{ACAD_REACTORS
330
E
102
}
330
E
  0
ACAD_PROXY_OBJECT
  5
3C
102
{ACAD_REACTORS
330
3B
102
}
330
3B
100
AcDbProxyObject
 90
      499
 91
      502
 95
   983063
 70
     0
 93
       41
310
903313A31580
 94
        0
1001
ACAD
1000
AcRTDxfName
1000
SCALE
1000
AcRTDxfName
1000
SCALE
1000
AcRTDxfName
1000
SCALE
1000
AcRTDxfName
1000
SCALE
1000
AcRTDxfName
1000
SCALE
  0
ACAD_PROXY_OBJECT
  5
3D
102
{ACAD_REACTORS
330
3B
102
}
330
3B
100
AcDbProxyObject
 90
      499
 91
      502
 95
   983063
 70
     0
 93
      105
310
903313A324000000000000004040
 94
        0
1001
ACAD
1000
AcRTDxfName
1000
SCALE
1000
AcRTDxfName
1000
SCALE
1000
AcRTDxfName
1000
SCALE
1000
AcRTDxfName
1000
SCALE
1000
AcRTDxfName
1000
SCALE
  0
ACAD_PROXY_OBJECT
  5
3E
102
{ACAD_REACTORS
330
3B
102
}
330
3B
100
AcDbProxyObject
 90
      499
 91
      502
 95
   983063
 70
     0
 93
      105
310
903313A344000000000000104040
 94
        0
1001
ACAD
1000
AcRTDxfName
1000
SCALE
1000
AcRTDxfName
1000
SCALE
1000
AcRTDxfName
1000
SCALE
1000
AcRTDxfName
1000
SCALE
1000
AcRTDxfName
1000
SCALE
  0
ACAD_PROXY_OBJECT
  5
3F
102
{ACAD_REACTORS
330
3B
102
}
330
3B
100
AcDbProxyObject
 90
      499
 91
      502
 95
   983063
 70
     0
 93
      105
310
903313A354000000000000144040
 94
        0
1001
ACAD
1000
AcRTDxfName
1000
SCALE
1000
AcRTDxfName
1000
SCALE
1000
AcRTDxfName
1000
SCALE
1000
AcRTDxfName
1000
SCALE
1000
AcRTDxfName
1000
SCALE
  0
ACAD_PROXY_OBJECT
  5
40
102
{ACAD_REACTORS
330
3B
102
}
330
3B
100
AcDbProxyObject
 90
      499
 91
      502
 95
   983063
 70
     0
 93
      105
310
903313A384000000000000204040
 94
        0
1001
ACAD
1000
AcRTDxfName
1000
SCALE
1000
AcRTDxfName
1000
SCALE
1000
AcRTDxfName
1000
SCALE
1000
AcRTDxfName
1000
SCALE
1000
AcRTDxfName
1000
SCALE
  0
ACAD_PROXY_OBJECT
  5
41
102
{ACAD_REACTORS
330
3B
102
}
330
3B
100
AcDbProxyObject
 90
      499
 91
      502
 95
   983063
 70
     0
 93
      113
310
904313A31304000000000000244040
 94
        0
1001
ACAD
1000
AcRTDxfName
1000
SCALE
1000
AcRTDxfName
1000
SCALE
1000
AcRTDxfName
1000
SCALE
1000
AcRTDxfName
1000
SCALE
1000
AcRTDxfName
1000
SCALE
  0
ACAD_PROXY_OBJECT
  5
42
102
{ACAD_REACTORS
330
3B
102
}
330
3B
100
AcDbProxyObject
 90
      499
 91
      502
 95
   983063
 70
     0
 93
      113
310
904313A31364000000000000304001
 94
        0
1001
ACAD
1000
AcRTDxfName
1000
SCALE
1000
AcRTDxfName
1000
SCALE
1000
AcRTDxfName
1000
SCALE
1000
AcRTDxfName
1000
SCALE
1000
AcRTDxfName
1000
SCALE
  0
ACAD_PROXY_OBJECT
  5
43
102
{ACAD_REACTORS
330
3B
102
}
330
3B
100
AcDbProxyObject
 90
      499
 91
      502
 95
   983063
 70
     0
 93
      113
310
904313A32304000000000000344040
 94
        0
1001
ACAD
1000
AcRTDxfName
1000
SCALE
1000
AcRTDxfName
1000
SCALE
1000
AcRTDxfName
1000
SCALE
1000
AcRTDxfName
1000
SCALE
1000
AcRTDxfName
1000
SCALE
  0
ACAD_PROXY_OBJECT
  5
44
102
{ACAD_REACTORS
330
3B
102
}
330
3B
100
AcDbProxyObject
 90
      499
 91
      502
 95
   983063
 70
     0
 93
      113
310
904313A333040000000000003E4001
 94
        0
1001
ACAD
1000
AcRTDxfName
1000
SCALE
1000
AcRTDxfName
1000
SCALE
1000
AcRTDxfName
1000
SCALE
1000
AcRTDxfName
1000
SCALE
1000
AcRTDxfName
1000
SCALE
  0
ACAD_PROXY_OBJECT
  5
45
102
{ACAD_REACTORS
330
3B
102
}
330
3B
100
AcDbProxyObject
 90
      499
 91
      502
 95
   983063
 70
     0
 93
      113
310
904313A34304000000000000444040
 94
        0
1001
ACAD
1000
AcRTDxfName
1000
SCALE
1000
AcRTDxfName
1000
SCALE
1000
AcRTDxfName
1000
SCALE
1000
AcRTDxfName
1000
SCALE
1000
AcRTDxfName
1000
SCALE
  0
ACAD_PROXY_OBJECT
  5
46
102
{ACAD_REACTORS
330
3B
102
}
330
3B
100
AcDbProxyObject
 90
      499
 91
      502
 95
   983063
 70
     0
 93
      113
310
904313A35304000000000000494001
 94
        0
1001
ACAD
1000
AcRTDxfName
1000
SCALE
1000
AcRTDxfName
1000
SCALE
1000
AcRTDxfName
1000
SCALE
1000
AcRTDxfName
1000
SCALE
1000
AcRTDxfName
1000
SCALE
  0
ACAD_PROXY_OBJECT
  5
47
102
{ACAD_REACTORS
330
3B
102
}
330
3B
100
AcDbProxyObject
 90
      499
 91
      502
 95
   983063
 70
     0
 93
      121
310
905313A3130304000000000000594020
 94
        0
1001
ACAD
1000
AcRTDxfName
1000
SCALE
1000
AcRTDxfName
1000
SCALE
1000
AcRTDxfName
1000
SCALE
1000
AcRTDxfName
1000
SCALE
1000
AcRTDxfName
1000
SCALE
  0
ACAD_PROXY_OBJECT
  5
48
102
{ACAD_REACTORS
330
3B
102
}
330
3B
100
AcDbProxyObject
 90
      499
 91
      502
 95
   983063
 70
     0
 93
      105
310
903323A310000000000000010165
 94
        0
1001
ACAD
1000
AcRTDxfName
1000
SCALE
1000
AcRTDxfName
1000
SCALE
1000
AcRTDxfName
1000
SCALE
1000
AcRTDxfName
1000
SCALE
1000
AcRTDxfName
1000
SCALE
  0
ACAD_PROXY_OBJECT
  5
49
102
{ACAD_REACTORS
330
3B
102
}
330
3B
100
AcDbProxyObject
 90
      499
 91
      502
 95
   983063
 70
     0
 93
      105
310
903343A310000000000000410101
 94
        0
1001
ACAD
1000
AcRTDxfName
1000
SCALE
1000
AcRTDxfName
1000
SCALE
1000
AcRTDxfName
1000
SCALE
1000
AcRTDxfName
1000
SCALE
1000
AcRTDxfName
1000
SCALE
  0
ACAD_PROXY_OBJECT
  5
4A
102
{ACAD_REACTORS
330
3B
102
}
330
3B
100
AcDbProxyObject
 90
      499
 91
      502
 95
   983063
 70
     0
 93
      105
310
903383A310000000000000810165
 94
        0
1001
ACAD
1000
AcRTDxfName
1000
SCALE
1000
AcRTDxfName
1000
SCALE
1000
AcRTDxfName
1000
SCALE
1000
AcRTDxfName
1000
SCALE
1000
AcRTDxfName
1000
SCALE
  0
ACAD_PROXY_OBJECT
  5
4B
102
{ACAD_REACTORS
330
3B
102
}
330
3B
100
AcDbProxyObject
 90
      499
 91
      502
 95
   983063
 70
     0
 93
      113
310
90431303A310000000000000910102
 94
        0
1001
ACAD
1000
AcRTDxfName
1000
SCALE
1000
AcRTDxfName
1000
SCALE
1000
AcRTDxfName
1000
SCALE
1000
AcRTDxfName
1000
SCALE
1000
AcRTDxfName
1000
SCALE
  0
ACAD_PROXY_OBJECT
  5
4C
102
{ACAD_REACTORS
330
3B
102
}
330
3B
100
AcDbProxyObject
 90
      499
 91
      502
 95
   983063
 70
     0
 93
      121
310
9053130303A310000000000001650100
 94
        0
1001
ACAD
1000
AcRTDxfName
1000
SCALE
1000
AcRTDxfName
1000
SCALE
1000
AcRTDxfName
1000
SCALE
1000
AcRTDxfName
1000
SCALE
1000
AcRTDxfName
1000
SCALE
  0
ACAD_PROXY_OBJECT
  5
4D
102
{ACAD_REACTORS
330
3B
102
}
330
3B
100
AcDbProxyObject
 90
      499
 91
      502
 95
   983063
 70
     0
 93
      257
310
90E312F31323822203D2031272D3022000000000000200FC000000000000284030
 94
        0
1001
ACAD
1000
AcRTDxfName
1000
SCALE
1000
AcRTDxfName
1000
SCALE
1000
AcRTDxfName
1000
SCALE
1000
AcRTDxfName
1000
SCALE
1000
AcRTDxfName
1000
SCALE
  0
ACAD_PROXY_OBJECT
  5
4E
102
{ACAD_REACTORS
330
3B
102
}
330
3B
100
AcDbProxyObject
 90
      499
 91
      502
 95
   983063
 70
     0
 93
      249
310
90D312F363422203D2031272D3022000000000000240FC000000000000284000
 94
        0
1001
ACAD
1000
AcRTDxfName
1000
SCALE
1000
AcRTDxfName
1000
SCALE
1000
AcRTDxfName
1000
SCALE
1000
AcRTDxfName
1000
SCALE
1000
AcRTDxfName
1000
SCALE
  0
ACAD_PROXY_OBJECT
  5
4F
102
{ACAD_REACTORS
330
3B
102
}
330
3B
100
AcDbProxyObject
 90
      499
 91
      502
 95
   983063
 70
     0
 93
      249
310
90D312F333222203D2031272D3022000000000000280FC000000000000284040
 94
        0
1001
ACAD
1000
AcRTDxfName
1000
SCALE
1000
AcRTDxfName
1000
SCALE
1000
AcRTDxfName
1000
SCALE
1000
AcRTDxfName
1000
SCALE
1000
AcRTDxfName
1000
SCALE
  0
ACAD_PROXY_OBJECT
  5
50
102
{ACAD_REACTORS
330
3B
102
}
330
3B
100
AcDbProxyObject
 90
      499
 91
      502
 95
   983063
 70
     0
 93
      249
310
90D312F313622203D2031272D30220000000000002C0FC000000000000284000
 94
        0
1001
ACAD
1000
AcRTDxfName
1000
SCALE
1000
AcRTDxfName
1000
SCALE
1000
AcRTDxfName
1000
SCALE
1000
AcRTDxfName
1000
SCALE
1000
AcRTDxfName
1000
SCALE
  0
ACAD_PROXY_OBJECT
  5
51
102
{ACAD_REACTORS
330
3B
102
}
330
3B
100
AcDbProxyObject
 90
      499
 91
      502
 95
   983063
 70
     0
 93
      249
310
90D332F333222203D2031272D30220000000000002E0FC000000000000284040
 94
        0
1001
ACAD
1000
AcRTDxfName
1000
SCALE
1000
AcRTDxfName
1000
SCALE
1000
AcRTDxfName
1000
SCALE
1000
AcRTDxfName
1000
SCALE
1000
AcRTDxfName
1000
SCALE
  0
ACAD_PROXY_OBJECT
  5
52
102
{ACAD_REACTORS
330
3B
102
}
330
3B
100
AcDbProxyObject
 90
      499
 91
      502
 95
   983063
 70
     0
 93
      241
310
90C312F3822203D2031272D3022000000000000300FC000000000000284040
 94
        0
1001
ACAD
1000
AcRTDxfName
1000
SCALE
1000
AcRTDxfName
1000
SCALE
1000
AcRTDxfName
1000
SCALE
1000
AcRTDxfName
1000
SCALE
1000
AcRTDxfName
1000
SCALE
  0
ACAD_PROXY_OBJECT
  5
53
102
{ACAD_REACTORS
330
3B
102
}
330
3B
100
AcDbProxyObject
 90
      499
 91
      502
 95
   983063
 70
     0
 93
      249
310
90D332F313622203D2031272D3022000000000000320FC000000000000284040
 94
        0
1001
ACAD
1000
AcRTDxfName
1000
SCALE
1000
AcRTDxfName
1000
SCALE
1000
AcRTDxfName
1000
SCALE
1000
AcRTDxfName
1000
SCALE
1000
AcRTDxfName
1000
SCALE
  0
ACAD_PROXY_OBJECT
  5
54
102
{ACAD_REACTORS
330
3B
102
}
330
3B
100
AcDbProxyObject
 90
      499
 91
      502
 95
   983063
 70
     0
 93
      241
310
90C312F3422203D2031272D3022000000000000340FC000000000000284040
 94
        0
1001
ACAD
1000
AcRTDxfName
1000
SCALE
1000
AcRTDxfName
1000
SCALE
1000
AcRTDxfName
1000
SCALE
1000
AcRTDxfName
1000
SCALE
1000
AcRTDxfName
1000
SCALE
  0
ACAD_PROXY_OBJECT
  5
55
102
{ACAD_REACTORS
330
3B
102
}
330
3B
100
AcDbProxyObject
 90
      499
 91
      502
 95
   983063
 70
     0
 93
      241
310
90C332F3822203D2031272D3022000000000000360FC000000000000284028
 94
        0
1001
ACAD
1000
AcRTDxfName
1000
SCALE
1000
AcRTDxfName
1000
SCALE
1000
AcRTDxfName
1000
SCALE
1000
AcRTDxfName
1000
SCALE
1000
AcRTDxfName
1000
SCALE
  0
ACAD_PROXY_OBJECT
  5
56
102
{ACAD_REACTORS
330
3B
102
}
330
3B
100
AcDbProxyObject
 90
      499
 91
      502
 95
   983063
 70
     0
 93
      241
310
90C312F3222203D2031272D3022000000000000380FC000000000000284040
 94
        0
1001
ACAD
1000
AcRTDxfName
1000
SCALE
1000
AcRTDxfName
1000
SCALE
1000
AcRTDxfName
1000
SCALE
1000
AcRTDxfName
1000
SCALE
1000
AcRTDxfName
1000
SCALE
  0
ACAD_PROXY_OBJECT
  5
57
102
{ACAD_REACTORS
330
3B
102
}
330
3B
100
AcDbProxyObject
 90
      499
 91
      502
 95
   983063
 70
     0
 93
      241
310
90C332F3422203D2031272D30220000000000003A0FC000000000000284028
 94
        0
1001
ACAD
1000
AcRTDxfName
1000
SCALE
1000
AcRTDxfName
1000
SCALE
1000
AcRTDxfName
1000
SCALE
1000
AcRTDxfName
1000
SCALE
1000
AcRTDxfName
1000
SCALE
  0
ACAD_PROXY_OBJECT
  5
58
102
{ACAD_REACTORS
330
3B
102
}
330
3B
100
AcDbProxyObject
 90
      499
 91
      502
 95
   983063
 70
     0
 93
      161
310
90A3122203D2031272D30224000000000000284000
 94
        0
1001
ACAD
1000
AcRTDxfName
1000
SCALE
1000
AcRTDxfName
1000
SCALE
1000
AcRTDxfName
1000
SCALE
1000
AcRTDxfName
1000
SCALE
1000
AcRTDxfName
1000
SCALE
  0
ACAD_PROXY_OBJECT
  5
59
102
{ACAD_REACTORS
330
3B
102
}
330
3B
100
AcDbProxyObject
 90
      499
 91
      502
 95
   983063
 70
     0
 93
      257
310
90E312D312F3222203D2031272D30220000000000003E0FC000000000000284030
 94
        0
1001
ACAD
1000
AcRTDxfName
1000
SCALE
1000
AcRTDxfName
1000
SCALE
1000
AcRTDxfName
1000
SCALE
1000
AcRTDxfName
1000
SCALE
1000
AcRTDxfName
1000
SCALE
  0
ACAD_PROXY_OBJECT
  5
5A
102
{ACAD_REACTORS
330
3B
102
}
330
3B
100
AcDbProxyObject
 90
      499
 91
      502
 95
   983063
 70
     0
 93
      225
310
90A3322203D2031272D302200000000000002100000000000000284000
 94
        0
1001
ACAD
1000
AcRTDxfName
1000
SCALE
1000
AcRTDxfName
1000
SCALE
1000
AcRTDxfName
1000
SCALE
1000
AcRTDxfName
1000
SCALE
1000
AcRTDxfName
1000
SCALE
  0
ACAD_PROXY_OBJECT
  5
5B
102
{ACAD_REACTORS
330
3B
102
}
330
3B
100
AcDbProxyObject
 90
      499
 91
      502
 95
   983063
 70
     0
 93
      225
310
90A3622203D2031272D302200000000000006100000000000000284040
 94
        0
1001
ACAD
1000
AcRTDxfName
1000
SCALE
1000
AcRTDxfName
1000
SCALE
1000
AcRTDxfName
1000
SCALE
1000
AcRTDxfName
1000
SCALE
1000
AcRTDxfName
1000
SCALE
  0
ACAD_PROXY_OBJECT
  5
5C
102
{ACAD_REACTORS
330
3B
102
}
330
3B
100
AcDbProxyObject
 90
      499
 91
      502
 95
   983063
 70
     0
 93
      249
310
90D31272D3022203D2031272D30220000000000000A100000000000000284000
 94
        0
1001
ACAD
1000
AcRTDxfName
1000
SCALE
1000
AcRTDxfName
1000
SCALE
1000
AcRTDxfName
1000
SCALE
1000
AcRTDxfName
1000
SCALE
1000
AcRTDxfName
1000
SCALE
  0
TABLESTYLE
  5
E3B
102
{ACAD_XDICTIONARY
360
1FDD
102
}
102
{ACAD_REACTORS
330
E31
102
}
330
E31
100
AcDbTableStyle
  3
Standard
 70
     0
 71
     0
 40
1.5
 41
1.5
280
     0
281
     0
  7
Standard
140
4.5
170
     2
 62
     0
 63
     7
283
     0
274
    -2
284
     1
 64
     0
275
    -2
285
     1
 65
     0
276
    -2
286
     1
 66
     0
277
    -2
287
     1
 67
     0
278
    -2
288
     1
 68
     0
279
    -2
289
     1
 69
     0
  7
Standard
140
6.0
170
     5
 62
     0
 63
     7
283
     0
274
    -2
284
     1
 64
     0
275
    -2
285
     1
 65
     0
276
    -2
286
     1
 66
     0
277
    -2
287
     1
 67
     0
278
    -2
288
     1
 68
     0
279
    -2
289
     1
 69
     0
  7
Standard
140
4.5
170
     5
 62
     0
 63
     7
283
     0
274
    -2
284
     1
 64
     0
275
    -2
285
     1
 65
     0
276
    -2
286
     1
 66
     0
277
    -2
287
     1
 67
     0
278
    -2
288
     1
 68
     0
279
    -2
289
     1
 69
     0
  0
ACAD_PROXY_OBJECT
  5
2F
102
{ACAD_REACTORS
330
2A
102
}
330
2A
100
AcDbProxyObject
 90
      499
 91
      501
 95
   983063
 70
     0
 93
      444
310
430C9915DA5C99599C985B59401049028333333333333E3BF0000000000000FB0107901411070040501600405405064090741402480A0340
 94
        0
1001
ACAD
1000
AcDbSavedByObjectVersion
1070
     0
1000
AcRTDxfName
1000
VISUALSTYLE
1000
AcRTDxfName
1000
VISUALSTYLE
  0
ACAD_PROXY_OBJECT
  5
31
102
{ACAD_REACTORS
330
2A
102
}
330
2A
100
AcDbProxyObject
 90
      499
 91
      501
 95
   983063
 70
     0
 93
      508
310
428CD108121A5919195B8010640502408333333333333E3BF0000000000000FB01079024090700405020000000000001110200405405064090740C02480A0340
 94
        0
1001
ACAD
1000
AcDbSavedByObjectVersion
1070
     0
1000
AcRTDxfName
1000
VISUALSTYLE
1000
AcRTDxfName
1000
VISUALSTYLE
  0
ACAD_PROXY_OBJECT
  5
30
102
{ACAD_REACTORS
330
2A
102
}
330
2A
100
AcDbProxyObject
 90
      499
 91
      501
 95
   983063
 70
     0
 93
      444
310
430CD915DA5C99599C985B59401059028333333333333E3BF0000000000000FB0107901411070040501600405405064090741402480A0340
 94
        0
1001
ACAD
1000
AcDbSavedByObjectVersion
1070
     0
1000
AcRTDxfName
1000
VISUALSTYLE
1000
AcRTDxfName
1000
VISUALSTYLE
  0
ACAD_PROXY_OBJECT
  5
32
102
{ACAD_REACTORS
330
2A
102
}
330
2A
100
AcDbProxyObject
 90
      499
 91
      501
 95
   983063
 70
     0
 93
      396
310
4190985CDA58C0107406404333333333333E3BF0000000000000FB0107A41107004050150841D405064090741402480A0351
 94
        0
1001
ACAD
1000
AcDbSavedByObjectVersion
1070
     0
1000
AcRTDxfName
1000
VISUALSTYLE
1000
AcRTDxfName
1000
VISUALSTYLE
  0
ACAD_PROXY_OBJECT
  5
36
102
{ACAD_REACTORS
330
2A
102
}
330
2A
100
AcDbProxyObject
 90
      499
 91
      501
 95
   983063
 70
     0
 93
      436
310
42509C9A59DA1D195B8010C409028333333333333E3BF0000000000000FB010790141107004050150841D405064090741402480A02995A
 94
        0
1001
ACAD
1000
AcDbSavedByObjectVersion
1070
     0
1000
AcRTDxfName
1000
VISUALSTYLE
1000
AcRTDxfName
1000
VISUALSTYLE
  0
ACAD_PROXY_OBJECT
  5
3A
102
{ACAD_REACTORS
330
2A
102
}
330
2A
100
AcDbProxyObject
 90
      499
 91
      501
 95
   983063
 70
     0
 93
      460
310
4310DBDB1BDC90DA185B99D9401104090240C333333333333E3BF0000000000000FB0108901411070040501508421405064090741402480A0350
 94
        0
1001
ACAD
1000
AcDbSavedByObjectVersion
1070
     0
1000
AcRTDxfName
1000
VISUALSTYLE
1000
AcRTDxfName
1000
VISUALSTYLE
  0
ACAD_PROXY_OBJECT
  5
34
102
{ACAD_REACTORS
330
2A
102
}
330
2A
100
AcDbProxyObject
 90
      499
 91
      501
 95
   983063
 70
     0
 93
      508
310
42D0DBDB98D95C1D1D585B0010940D028333333333333E3BF0000000000000FB0107902409070040501000000000000111010841D405064090740C02480A0348
 94
        0
1001
ACAD
1000
AcDbSavedByObjectVersion
1070
     0
1000
AcRTDxfName
1000
VISUALSTYLE
1000
AcRTDxfName
1000
VISUALSTYLE
  0
ACAD_PROXY_OBJECT
  5
35
102
{ACAD_REACTORS
330
2A
102
}
330
2A
100
AcDbProxyObject
 90
      499
 91
      501
 95
   983063
 70
     0
 93
      420
310
41111A5B4010B409028333333333333E3BF0000000000000FB010790141107004050150841D405064090741402480A02677FFFFFD2
 94
        0
1001
ACAD
1000
AcDbSavedByObjectVersion
1070
     0
1000
AcRTDxfName
1000
VISUALSTYLE
1000
AcRTDxfName
1000
VISUALSTYLE
  0
ACAD_PROXY_OBJECT
  5
39
102
{ACAD_REACTORS
330
2A
102
}
330
2A
100
AcDbProxyObject
 90
      499
 91
      501
 95
   983063
 70
     0
 93
      452
310
43119858D95C185D1D195C9B8010F409028333333333333E3BF0000000000000FB010790141107004050150841D405064090741402480A0350
 94
        0
1001
ACAD
1000
AcDbSavedByObjectVersion
1070
     0
1000
AcRTDxfName
1000
VISUALSTYLE
1000
AcRTDxfName
1000
VISUALSTYLE
  0
ACAD_PROXY_OBJECT
  5
2B
102
{ACAD_REACTORS
330
2A
102
}
330
2A
100
AcDbProxyObject
 90
      499
 91
      501
 95
   983063
 70
     0
 93
      396
310
41519B185D00240901404333333333333E3BF0000000000000F9010740A41107004050150841D405064090741402480A1B58
 94
        0
1001
ACAD
1000
AcDbSavedByObjectVersion
1070
     0
1000
AcRTDxfName
1000
VISUALSTYLE
1000
AcRTDxfName
1000
VISUALSTYLE
  0
ACAD_PROXY_OBJECT
  5
2C
102
{ACAD_REACTORS
330
2A
102
}
330
2A
100
AcDbProxyObject
 90
      499
 91
      501
 95
   983063
 70
     0
 93
      484
310
43919B185D15DA5D1A115919D95CC010140901404333333333333E3BF0000000000000F9010740901411070040501600405405064090741402480A1B58
 94
        0
1001
ACAD
1000
AcDbSavedByObjectVersion
1070
     0
1000
AcRTDxfName
1000
VISUALSTYLE
1000
AcRTDxfName
1000
VISUALSTYLE
  0
ACAD_PROXY_OBJECT
  5
2D
102
{ACAD_REACTORS
330
2A
102
}
330
2A
100
AcDbProxyObject
 90
      499
 91
      501
 95
   983063
 70
     0
 93
      420
310
4211DBDD5C985D590010240902404333333333333E3BF0000000000000F9010740A411070040501641D405064090741402480A1B58
 94
        0
1001
ACAD
1000
AcDbSavedByObjectVersion
1070
     0
1000
AcRTDxfName
1000
VISUALSTYLE
1000
AcRTDxfName
1000
VISUALSTYLE
  0
ACAD_PROXY_OBJECT
  5
2E
102
{ACAD_REACTORS
330
2A
102
}
330
2A
100
AcDbProxyObject
 90
      499
 91
      501
 95
   983063
 70
     0
 93
      508
310
4451DBDD5C985D5915DA5D1A115919D95CC010340902404333333333333E3BF0000000000000F9010740901411070040501600405405064090741402480A1B58
 94
        0
1001
ACAD
1000
AcDbSavedByObjectVersion
1070
     0
1000
AcRTDxfName
1000
VISUALSTYLE
1000
AcRTDxfName
1000
VISUALSTYLE
  0
ACAD_PROXY_OBJECT
  5
38
102
{ACAD_REACTORS
330
2A
102
}
330
2A
100
AcDbProxyObject
 90
      499
 91
      501
 95
   983063
 70
     0
 93
      452
310
43131A5B995C185D1D195C9B8010E409028333333333333E3BF0000000000000FB010790141107004050750841D405064090741402483A0353
 94
        0
1001
ACAD
1000
AcDbSavedByObjectVersion
1070
     0
1000
AcRTDxfName
1000
VISUALSTYLE
1000
AcRTDxfName
1000
VISUALSTYLE
  0
ACAD_PROXY_OBJECT
  5
33
102
{ACAD_REACTORS
330
2A
102
}
330
2A
100
AcDbProxyObject
 90
      499
 91
      501
 95
   983063
 70
     0
 93
      428
310
429499585B1A5CDD1A58C0108409028333333333333E3BF0000000000000FB01079019070040501508421405064090741402480A1B48
 94
        0
1001
ACAD
1000
AcDbSavedByObjectVersion
1070
     0
1000
AcRTDxfName
1000
VISUALSTYLE
1000
AcRTDxfName
1000
VISUALSTYLE
  0
ACAD_PROXY_OBJECT
  5
37
102
{ACAD_REACTORS
330
2A
102
}
330
2A
100
AcDbProxyObject
 90
      499
 91
      501
 95
   983063
 70
     0
 93
      420
310
42151A1A58DAD95B8010D409028333333333333E3BF0000000000000FB010790141107004050150C41D405064090741402480A0352
 94
        0
1001
ACAD
1000
AcDbSavedByObjectVersion
1070
     0
1000
AcRTDxfName
1000
VISUALSTYLE
1000
AcRTDxfName
1000
VISUALSTYLE
  0
DICTIONARYVAR
  5
E30
102
{ACAD_REACTORS
330
E2F
102
}
330
E2F
100
DictionaryVariables
280
     0
  1
1:1
  0
DICTIONARYVAR
  5
1D7D
102
{ACAD_REACTORS
330
E2F
102
}
330
E2F
100
DictionaryVariables
280
     0
  1
STANDARD
  0
DICTIONARYVAR
  5
1D80
102
{ACAD_REACTORS
330
E2F
102
}
330
E2F
100
DictionaryVariables
280
     0
  1
1
  0
DICTIONARYVAR
  5
1D7F
102
{ACAD_REACTORS
330
E2F
102
}
330
E2F
100
DictionaryVariables
280
     0
  1
0
  0
DICTIONARYVAR
  5
1FEE
102
{ACAD_REACTORS
330
E2F
102
}
330
E2F
100
DictionaryVariables
280
     0
  1

  0
DICTIONARYVAR
  5
1FE6
102
{ACAD_REACTORS
330
E2F
102
}
330
E2F
100
DictionaryVariables
280
     0
  1
80.000000
  0
DICTIONARYVAR
  5
1FE5
102
{ACAD_REACTORS
330
E2F
102
}
330
E2F
100
DictionaryVariables
280
     0
  1
5.000000
  0
DICTIONARYVAR
  5
1D7E
102
{ACAD_REACTORS
330
E2F
102
}
330
E2F
100
DictionaryVariables
280
     0
  1
127
  0
DICTIONARY
  5
2F1E
330
1E
100
AcDbDictionary
280
     1
281
     1
  3
ACAD_XREC_ROUNDTRIP
360
2F1F
  0
DICTIONARY
  5
2F20
330
22
100
AcDbDictionary
280
     1
281
     1
  3
ACAD_XREC_ROUNDTRIP
360
2F21
  0
DICTIONARY
  5
1FD9
330
E38
100
AcDbDictionary
280
     1
281
     1
  3
ACAD_XREC_ROUNDTRIP
360
1FDA
  0
DICTIONARY
  5
1FD7
330
E37
100
AcDbDictionary
280
     1
281
     1
  3
ACAD_XREC_ROUNDTRIP
360
1FD8
  0
DICTIONARY
  5
1FDB
330
E39
100
AcDbDictionary
280
     1
281
     1
  3
ACAD_XREC_ROUNDTRIP
360
1FDC
  0
DICTIONARY
  5
1FDD
330
E3B
100
AcDbDictionary
280
     1
281
     1
  3
ACAD_XREC_ROUNDTRIP
360
1FDE
  0
XRECORD
  5
2F1F
102
{ACAD_REACTORS
330
2F1E
102
}
330
2F1E
100
AcDbXrecord
280
     1
102
SHADEPLOT
 70
     0
102
SHADEPLOTRESLEVEL
 70
     2
102
SHADEPLOTCUSTOMDPI
 70
   300
  0
XRECORD
  5
2F21
102
{ACAD_REACTORS
330
2F20
102
}
330
2F20
100
AcDbXrecord
280
     1
102
SHADEPLOT
 70
     0
102
SHADEPLOTRESLEVEL
 70
     2
102
SHADEPLOTCUSTOMDPI
 70
   300
  0
XRECORD
  5
1FDA
102
{ACAD_REACTORS
330
1FD9
102
}
330
1FD9
100
AcDbXrecord
280
     1
102
MATERIAL
148
0.0
149
0.0
149
0.0
 93
        0
 94
       63
282
     0
 72
     1
 77
     1
171
     1
175
     1
179
     1
273
     0
  0
XRECORD
  5
1FD8
102
{ACAD_REACTORS
330
1FD7
102
}
330
1FD7
100
AcDbXrecord
280
     1
102
MATERIAL
148
0.0
149
0.0
149
0.0
 93
        0
 94
       63
282
     0
 72
     1
 77
     1
171
     1
175
     1
179
     1
273
     0
  0
XRECORD
  5
1FDC
102
{ACAD_REACTORS
330
1FDB
102
}
330
1FDB
100
AcDbXrecord
280
     1
102
MATERIAL
148
0.0
149
0.0
149
0.0
 93
        0
 94
       63
282
     0
 72
     1
 77
     1
171
     1
175
     1
179
     1
273
     0
  0
XRECORD
  5
1FDE
102
{ACAD_REACTORS
330
1FDD
102
}
330
1FDD
100
AcDbXrecord
280
     1
102
ACAD_ROUNDTRIP_PRE2007_TABLESTYLE
 90
      512
 91
        0
  1

 92
      512
 93
        0
  2

 94
      512
 95
        0
  3

  0
ENDSEC
  0
EOF
