  0
SECTION
  2
HEADER
  9
$ACADVER
  1
AC1009
  9
$INSBASE
 10
0.0
 20
0.0
 30
0.0
  9
$EXTMIN
 10
247.5942594547009
 20
192.20421142843949
 30
0.0
  9
$EXTMAX
 10
987.00253708395576
 20
694.24334782421283
 30
0.0000000000001068
  9
$LIMMIN
 10
0.0
 20
0.0
  9
$LIMMAX
 10
409.88999999999987
 20
282.88999999999987
  9
$ORTHOMODE
 70
     1
  9
$REGENMODE
 70
     1
  9
$FILLMODE
 70
     1
  9
$QTEXTMODE
 70
     0
  9
$MIRRTEXT
 70
     1
  9
$DRAGMODE
 70
     2
  9
$LTSCALE
 40
10.0
  9
$OSMODE
 70
   311
  9
$ATTMODE
 70
     1
  9
$TEXTSIZE
 40
3.5
  9
$TRACEWID
 40
1.0
  9
$TEXTSTYLE
  7
AD-STANDARD
  9
$CLAYER
  8
1
  9
$CELTYPE
  6
BYLAYER
  9
$CECOLOR
 62
   256
  9
$DIMSCALE
 40
2.0
  9
$DIMASZ
 40
2.5
  9
$DIMEXO
 40
1.0
  9
$DIMDLI
 40
0.38
  9
$DIMRND
 40
0.0
  9
$DIMDLE
 40
0.0
  9
$DIMEXE
 40
2.0
  9
$DIMTP
 40
0.0
  9
$DIMTM
 40
0.0
  9
$DIMTXT
 40
3.5
  9
$DIMCEN
 40
-2.0
  9
$DIMTSZ
 40
0.0
  9
$DIMTOL
 70
     0
  9
$DIMLIM
 70
     0
  9
$DIMTIH
 70
     0
  9
$DIMTOH
 70
     0
  9
$DIMSE1
 70
     0
  9
$DIMSE2
 70
     0
  9
$DIMTAD
 70
     1
  9
$DIMZIN
 70
     8
  9
$DIMBLK
  1

  9
$DIMASO
 70
     1
  9
$DIMSHO
 70
     1
  9
$DIMPOST
  1

  9
$DIMAPOST
  1

  9
$DIMALT
 70
     0
  9
$DIMALTD
 70
     2
  9
$DIMALTF
 40
25.399999999999999
  9
$DIMLFAC
 40
1.0
  9
$DIMTOFL
 70
     1
  9
$DIMTVP
 40
0.0
  9
$DIMTIX
 70
     0
  9
$DIMSOXD
 70
     0
  9
$DIMSAH
 70
     0
  9
$DIMBLK1
  1

  9
$DIMBLK2
  1

  9
$DIMSTYLE
  2
ｺﾋ___-_AD-STANDARD
  9
$DIMCLRD
 70
     9
  9
$DIMCLRE
 70
     9
  9
$DIMCLRT
 70
     2
  9
$DIMTFAC
 40
1.0
  9
$DIMGAP
 40
0.5
  9
$LUNITS
 70
     2
  9
$LUPREC
 70
     4
  9
$SKETCHINC
 40
1.0
  9
$FILLETRAD
 40
0.8
  9
$AUNITS
 70
     0
  9
$AUPREC
 70
     0
  9
$MENU
  1
.
  9
$ELEVATION
 40
0.0
  9
$PELEVATION
 40
0.0
  9
$THICKNESS
 40
0.0
  9
$LIMCHECK
 70
     0
  9
$BLIPMODE
 70
     0
  9
$CHAMFERA
 40
0.0
  9
$CHAMFERB
 40
0.0
  9
$SKPOLY
 70
     0
  9
$TDCREATE
 40
2452426.410616897
  9
$TDUPDATE
 40
2453938.4762763651
  9
$TDINDWG
 40
0.3371144213
  9
$TDUSRTIMER
 40
0.3371138426
  9
$USRTIMER
 70
     1
  9
$ANGBASE
 50
0.0
  9
$ANGDIR
 70
     0
  9
$PDMODE
 70
     0
  9
$PDSIZE
 40
0.0
  9
$PLINEWID
 40
0.0
  9
$COORDS
 70
     1
  9
$SPLFRAME
 70
     0
  9
$SPLINETYPE
 70
     6
  9
$SPLINESEGS
 70
     8
  9
$ATTDIA
 70
     0
  9
$ATTREQ
 70
     1
  9
$HANDLING
 70
 22529
  9
$HANDSEED
  5
2A8B
  9
$SURFTAB1
 70
     6
  9
$SURFTAB2
 70
     6
  9
$SURFTYPE
 70
     6
  9
$SURFU
 70
     6
  9
$SURFV
 70
     6
  9
$UCSNAME
  2

  9
$UCSORG
 10
0.0
 20
0.0
 30
0.0
  9
$UCSXDIR
 10
1.0
 20
0.0
 30
0.0
  9
$UCSYDIR
 10
0.0
 20
1.0
 30
0.0
  9
$PUCSNAME
  2

  9
$PUCSORG
 10
0.0
 20
0.0
 30
0.0
  9
$PUCSXDIR
 10
1.0
 20
0.0
 30
0.0
  9
$PUCSYDIR
 10
0.0
 20
1.0
 30
0.0
  9
$USERI1
 70
     0
  9
$USERI2
 70
     0
  9
$USERI3
 70
     0
  9
$USERI4
 70
     0
  9
$USERI5
 70
     0
  9
$USERR1
 40
0.0
  9
$USERR2
 40
0.0
  9
$USERR3
 40
0.0
  9
$USERR4
 40
0.0
  9
$USERR5
 40
0.0
  9
$WORLDVIEW
 70
     1
  9
$SHADEDGE
 70
     3
  9
$SHADEDIF
 70
    70
  9
$TILEMODE
 70
     0
  9
$MAXACTVP
 70
    16
  9
$PLIMCHECK
 70
     0
  9
$PEXTMIN
 10
1.318727719122875
 20
1.7960000732958861
 30
0.0
  9
$PEXTMAX
 10
411.54248210140531
 20
288.14355828551692
 30
0.0
  9
$PLIMMIN
 10
-3.17498779296875
 20
-3.1749999523162842
  9
$PLIMMAX
 10
416.98333740234369
 20
293.85682988166798
  9
$UNITMODE
 70
     0
  9
$VISRETAIN
 70
     0
  9
$PLINEGEN
 70
     0
  9
$PSLTSCALE
 70
     1
  0
ENDSEC
  0
SECTION
  2
TABLES
  0
TABLE
  2
VPORT
 70
     6
  0
VPORT
  2
*ACTIVE
 70
     0
 10
0.0
 20
0.0
 11
1.0
 21
1.0
 12
610.33956719811181
 22
446.2919460699602
 13
0.0
 23
0.0
 14
168.0
 24
168.0
 15
0.0
 25
0.0
 16
0.0
 26
0.0
 36
1.0
 17
0.0
 27
0.0
 37
0.0
 40
590.98835018749867
 41
1.2185929648241201
 42
50.0
 43
0.0
 44
0.0
 50
0.0
 51
0.0
 71
     0
 72
   100
 73
     1
 74
     0
 75
     0
 76
     0
 77
     0
 78
     2
  0
ENDTAB
  0
TABLE
  2
LTYPE
 70
     4
  0
LTYPE
  2
CONTINUOUS
 70
     0
  3
Solid line
 72
    65
 73
     0
 40
0.0
  0
LTYPE
  2
CENTER
 70
     0
  3
____ _ ____ _ ____ _ ____ _ ____ _ ____ _ ____ 
 72
    65
 73
     4
 40
2.0
 49
1.25
 49
-0.25
 49
0.25
 49
-0.25
  0
LTYPE
  2
HIDDEN
 70
     0
  3
__ __ __ __ __ __ __ __ __ __ __ __ __ __ __ __
 72
    65
 73
     2
 40
0.375
 49
0.25
 49
-0.125
  0
LTYPE
  2
PHANTOM
 70
     0
  3
Phantom ______  __  __  ______  __  __  ______
 72
    65
 73
     6
 40
63.5
 49
31.75
 49
-6.3499999999999988
 49
6.3499999999999988
 49
-6.3499999999999988
 49
6.3499999999999988
 49
-6.3499999999999988
  0
ENDTAB
  0
TABLE
  2
LAYER
 70
    22
  0
LAYER
  2
0
 70
     0
 62
     7
  6
CONTINUOUS
  0
LAYER
  2
HOJO
 70
     0
 62
     4
  6
CONTINUOUS
  0
LAYER
  2
MEASURE
 70
     0
 62
     9
  6
CONTINUOUS
  0
LAYER
  2
DEFPOINTS
 70
     0
 62
     7
  6
CONTINUOUS
  0
LAYER
  2
CENTER
 70
     0
 62
     9
  6
CENTER
  0
LAYER
  2
NOTE
 70
     0
 62
     2
  6
CONTINUOUS
  0
LAYER
  2
1
 70
     0
 62
     7
  6
CONTINUOUS
  0
ENDTAB
  0
TABLE
  2
STYLE
 70
     9
  0
STYLE
  2
STANDARD
 70
     0
 40
0.0
 41
0.8
 50
0.0
 71
     0
 42
84.175084175084166
  3
TXT
  4
bigfont.shx
  0
STYLE
  2
AD-STANDARD
 70
     0
 40
0.0
 41
0.8
 50
0.0
 71
     0
 42
3.5
  3
romans.shx
  4
bigfont.shx
  0
STYLE
  2
BIGFONT
 70
     0
 40
3.5
 41
0.8
 50
15.0
 71
     0
 42
3.5
  3
ROMANS.SHX
  4
BIGFONT.SHX
  0
STYLE
  2
FORM
 70
     0
 40
3.5
 41
0.8
 50
0.0
 71
     0
 42
3.5
  3
ROMANS.SHX
  4
BIGFONT.SHX
  0
STYLE
  2
KANJI
 70
     0
 40
0.0
 41
1.0
 50
0.0
 71
     0
 42
2.0
  3
TXT
  4
BIGFONT
  0
ENDTAB
  0
TABLE
  2
VIEW
 70
     0
  0
ENDTAB
  0
TABLE
  2
UCS
 70
     0
  0
ENDTAB
  0
TABLE
  2
APPID
 70
     5
  0
APPID
  2
ACAD
 70
     0
  0
APPID
  2
CONTENTTABDATA
 70
     0
  0
APPID
  2
CONTENTCURRENTTAB
 70
     0
  0
APPID
  2
CONTENTBLOCKDESCRIPTION
 70
     0
  0
APPID
  2
CONTENTBLOCKICON
 70
     0
  0
ENDTAB
  0
TABLE
  2
DIMSTYLE
 70
     5
  0
DIMSTYLE
  2
STANDARD
 70
     0
  3

  4

  5

  6

  7

 40
1.0
 41
0.18
 42
0.0625
 43
0.38
 44
0.18
 45
0.0
 46
0.0
 47
0.0
 48
0.0
140
0.18
141
0.09
142
0.0
143
25.399999999999999
144
1.0
145
0.0
146
1.0
147
0.09
 71
     0
 72
     0
 73
     1
 74
     1
 75
     0
 76
     0
 77
     0
 78
     0
170
     0
171
     2
172
     0
173
     0
174
     0
175
     0
176
     0
177
     0
178
     0
  0
DIMSTYLE
  2
AD-STANDARD
 70
     0
  3

  4

  5

  6

  7

 40
1.0
 41
2.5
 42
1.0
 43
0.38
 44
2.0
 45
0.0
 46
0.0
 47
0.0
 48
0.0
140
3.5
141
-2.0
142
0.0
143
25.399999999999999
144
1.0
145
0.0
146
1.0
147
0.5
 71
     0
 72
     0
 73
     0
 74
     0
 75
     0
 76
     0
 77
     1
 78
     8
170
     0
171
     2
172
     1
173
     0
174
     0
175
     0
176
     9
177
     9
178
     2
  0
DIMSTYLE
  2
ｺﾋ___-_AD-STANDARD
 70
     0
  3

  4

  5

  6

  7

 40
2.0
 41
2.5
 42
1.0
 43
0.38
 44
2.0
 45
0.0
 46
0.0
 47
0.0
 48
0.0
140
3.5
141
-2.0
142
0.0
143
25.399999999999999
144
1.0
145
0.0
146
1.0
147
0.5
 71
     0
 72
     0
 73
     0
 74
     0
 75
     0
 76
     0
 77
     1
 78
     8
170
     0
171
     2
172
     1
173
     0
174
     0
175
     0
176
     9
177
     9
178
     2
  0
ENDTAB
  0
ENDSEC
  0
SECTION
  2
BLOCKS
  0
BLOCK
  8
0
  2
$MODEL_SPACE
 70
     0
 10
0.0
 20
0.0
 30
0.0
  3
$MODEL_SPACE
  1

  0
ENDBLK
  5
1C
  8
0
  0
BLOCK
 67
     1
  8
0
  2
$PAPER_SPACE
 70
     0
 10
0.0
 20
0.0
 30
0.0
  3
$PAPER_SPACE
  1

  0
ENDBLK
  5
26C1
 67
     1
  8
0
  0
BLOCK
  8
0
  2
_DOTSMALL
 70
     0
 10
0.0
 20
0.0
 30
0.0
  3
_DOTSMALL
  1

  0
POLYLINE
  5
395
  8
0
  6
BYBLOCK
 62
     0
 66
     1
 10
0.0
 20
0.0
 30
0.0
 70
     1
 40
0.5
 41
0.5
  0
VERTEX
  5
295C
  8
0
  6
BYBLOCK
 62
     0
 10
-0.0625
 20
0.0
 30
0.0
 42
1.0
  0
VERTEX
  5
295D
  8
0
  6
BYBLOCK
 62
     0
 10
0.0625
 20
0.0
 30
0.0
 42
1.0
  0
SEQEND
  5
295E
  8
0
  6
BYBLOCK
 62
     0
  0
ENDBLK
  5
397
  8
0
  0
BLOCK
  8
0
  2
*D18
 70
     1
 10
0.0
 20
0.0
 30
0.0
  3
*D18
  1

  0
LINE
  5
26FF
  8
MEASURE
 62
     9
 10
300.92189491810262
 20
641.85720089227959
 30
0.0
 11
300.92189491810262
 21
679.05746861588523
 31
0.0
  0
LINE
  5
2700
  8
MEASURE
 62
     9
 10
499.9218949180904
 20
641.85720089227925
 30
0.0
 11
499.9218949180904
 21
679.05746861588523
 31
0.0
  0
LINE
  5
2701
  8
MEASURE
 62
     9
 10
305.92189491810262
 20
675.05746861588523
 30
0.0
 11
494.92189491809029
 21
675.05746861588523
 31
0.0
  0
SOLID
  5
2702
  8
MEASURE
 62
     9
 10
305.92189491810262
 20
675.8908019492186
 30
0.0
 11
305.92189491810262
 21
674.22413528255186
 31
0.0
 12
300.92189491810262
 22
675.05746861588523
 32
0.0
 13
300.92189491810262
 23
675.05746861588523
 33
0.0
  0
SOLID
  5
2703
  8
MEASURE
 62
     9
 10
494.92189491809029
 20
675.8908019492186
 30
0.0
 11
494.92189491809029
 21
674.22413528255186
 31
0.0
 12
499.9218949180904
 22
675.05746861588523
 32
0.0
 13
499.9218949180904
 23
675.05746861588523
 33
0.0
  0
TEXT
  5
2704
  8
1
 62
     2
 10
392.15522825142978
 20
676.05746861588523
 30
0.0
 40
7.0
  1
199
 41
0.8
  7
AD-STANDARD
  0
POINT
  5
2705
  8
DEFPOINTS
 62
     0
 10
300.92189491810262
 20
639.85720089227971
 30
0.0
  0
POINT
  5
2706
  8
DEFPOINTS
 62
     0
 10
499.9218949180904
 20
639.85720089227925
 30
0.0
  0
POINT
  5
2707
  8
DEFPOINTS
 62
     0
 10
499.9218949180904
 20
675.05746861588523
 30
0.0
  0
ENDBLK
  5
136B
  8
0
  0
BLOCK
  8
0
  2
*D19
 70
     1
 10
0.0
 20
0.0
 30
0.0
  3
*D19
  1

  0
LINE
  5
2759
  8
MEASURE
 62
     9
 10
501.12189491809022
 20
640.65720089227943
 30
0.0
 11
569.36014110902761
 21
640.65720089227943
 31
0.0
  0
LINE
  5
275A
  8
MEASURE
 62
     9
 10
507.62189491809471
 20
417.65720089228029
 30
0.0
 11
569.36014110902761
 21
417.65720089228029
 31
0.0
  0
LINE
  5
275B
  8
MEASURE
 62
     9
 10
565.36014110902761
 20
635.65720089227943
 30
0.0
 11
565.36014110902761
 21
422.65720089228029
 31
0.0
  0
SOLID
  5
275C
  8
MEASURE
 62
     9
 10
564.52680777569424
 20
635.65720089227943
 30
0.0
 11
566.19347444236098
 21
635.65720089227943
 31
0.0
 12
565.36014110902761
 22
640.65720089227943
 32
0.0
 13
565.36014110902761
 23
640.65720089227943
 33
0.0
  0
SOLID
  5
275D
  8
MEASURE
 62
     9
 10
564.52680777569424
 20
422.65720089228029
 30
0.0
 11
566.19347444236098
 21
422.65720089228029
 31
0.0
 12
565.36014110902761
 22
417.65720089228029
 32
0.0
 13
565.36014110902761
 23
417.65720089228029
 33
0.0
  0
TEXT
  5
275E
  8
1
 62
     2
 10
564.3601411090275
 20
521.15720089227989
 30
0.0
 40
7.0
  1
223
 50
90.0
 41
0.8
  7
AD-STANDARD
  0
POINT
  5
275F
  8
DEFPOINTS
 62
     0
 10
499.12189491809022
 20
640.65720089227943
 30
0.0
  0
POINT
  5
2760
  8
DEFPOINTS
 62
     0
 10
505.62189491809471
 20
417.65720089228029
 30
0.0
  0
POINT
  5
2761
  8
DEFPOINTS
 62
     0
 10
565.36014110902761
 20
417.65720089228029
 30
0.0
  0
ENDBLK
  5
1378
  8
0
  0
BLOCK
  8
0
  2
*D20
 70
     1
 10
0.0
 20
0.0
 30
0.0
  3
*D20
  1

  0
LINE
  5
26DB
  8
MEASURE
 62
     9
 10
710.54440754165205
 20
494.00782573976937
 30
0.0
 11
710.54440754165205
 21
678.85281212061761
 31
0.0
  0
LINE
  5
26DC
  8
MEASURE
 62
     9
 10
613.74438046490957
 20
609.95720089227825
 30
0.0
 11
613.74438046490957
 21
678.85281212061761
 31
0.0
  0
LINE
  5
26DD
  8
MEASURE
 62
     9
 10
705.54440754165205
 20
674.85281212061773
 30
0.0
 11
618.74438046490957
 21
674.85281212061773
 31
0.0
  0
SOLID
  5
26DE
  8
MEASURE
 62
     9
 10
705.54440754165205
 20
675.68614545395099
 30
0.0
 11
705.54440754165205
 21
674.01947878728436
 31
0.0
 12
710.54440754165205
 22
674.85281212061773
 32
0.0
 13
710.54440754165205
 23
674.85281212061773
 33
0.0
  0
SOLID
  5
26DF
  8
MEASURE
 62
     9
 10
618.74438046490957
 20
675.68614545395099
 30
0.0
 11
618.74438046490957
 21
674.01947878728436
 31
0.0
 12
613.74438046490957
 22
674.85281212061773
 32
0.0
 13
613.74438046490957
 23
674.85281212061773
 33
0.0
  0
TEXT
  5
26E0
  8
1
 62
     2
 10
652.81106066994766
 20
675.85281212061773
 30
0.0
 40
7.0
  1
96.8
 41
0.8
  7
AD-STANDARD
  0
POINT
  5
26E1
  8
DEFPOINTS
 62
     0
 10
710.54440754165205
 20
492.00782573976949
 30
0.0
  0
POINT
  5
26E2
  8
DEFPOINTS
 62
     0
 10
613.74438046490957
 20
607.95720089227825
 30
0.0
  0
POINT
  5
26E3
  8
DEFPOINTS
 62
     0
 10
613.74438046490957
 20
674.85281212061773
 30
0.0
  0
ENDBLK
  5
1385
  8
0
  0
BLOCK
  8
0
  2
*D21
 70
     1
 10
0.0
 20
0.0
 30
0.0
  3
*D21
  1

  0
LINE
  5
28CD
  8
MEASURE
 62
     9
 10
277.82189491809447
 20
535.65720089228034
 30
0.0
 11
277.82189491809447
 21
370.37735813279733
 31
0.0
  0
LINE
  5
28CE
  8
MEASURE
 62
     9
 10
524.0218949180944
 20
535.65720089227989
 30
0.0
 11
524.0218949180944
 21
370.37735813279733
 31
0.0
  0
LINE
  5
28CF
  8
MEASURE
 62
     9
 10
282.82189491809447
 20
374.37735813279733
 30
0.0
 11
519.0218949180944
 21
374.37735813279733
 31
0.0
  0
SOLID
  5
28D0
  8
MEASURE
 62
     9
 10
282.82189491809447
 20
375.21069146613058
 30
0.0
 11
282.82189491809447
 21
373.54402479946401
 31
0.0
 12
277.82189491809447
 22
374.37735813279733
 32
0.0
 13
277.82189491809447
 23
374.37735813279733
 33
0.0
  0
SOLID
  5
28D1
  8
MEASURE
 62
     9
 10
519.0218949180944
 20
375.21069146613058
 30
0.0
 11
519.0218949180944
 21
373.54402479946401
 31
0.0
 12
524.0218949180944
 22
374.37735813279733
 32
0.0
 13
524.0218949180944
 23
374.37735813279733
 33
0.0
  0
TEXT
  5
28D2
  8
1
 62
     2
 10
388.92189491809449
 20
375.37735813279733
 30
0.0
 40
7.0
  1
246.2
 41
0.8
  7
AD-STANDARD
  0
POINT
  5
28D3
  8
DEFPOINTS
 62
     0
 10
277.82189491809447
 20
537.65720089228034
 30
0.0
  0
POINT
  5
28D4
  8
DEFPOINTS
 62
     0
 10
524.0218949180944
 20
537.65720089227977
 30
0.0
  0
POINT
  5
28D5
  8
DEFPOINTS
 62
     0
 10
524.0218949180944
 20
374.37735813279733
 30
0.0
  0
ENDBLK
  5
15B6
  8
0
  0
BLOCK
  8
0
  2
*D22
 70
     1
 10
0.0
 20
0.0
 30
0.0
  3
*D22
  1

  0
LINE
  5
291F
  8
MEASURE
 62
     9
 10
511.32189491809538
 20
341.40987855180123
 30
0.0
 11
569.52129985212014
 21
341.40987855180123
 31
0.0
  0
LINE
  5
2920
  8
MEASURE
 62
     9
 10
511.32189491809538
 20
261.40987855180128
 30
0.0
 11
569.52129985212014
 21
261.40987855180128
 31
0.0
  0
LINE
  5
2921
  8
MEASURE
 62
     9
 10
565.52129985212014
 20
336.40987855180128
 30
0.0
 11
565.52129985212014
 21
266.40987855180123
 31
0.0
  0
SOLID
  5
2922
  8
MEASURE
 62
     9
 10
564.68796651878665
 20
336.40987855180128
 30
0.0
 11
566.35463318545351
 21
336.40987855180128
 31
0.0
 12
565.52129985212014
 22
341.40987855180123
 32
0.0
 13
565.52129985212014
 23
341.40987855180123
 33
0.0
  0
SOLID
  5
2923
  8
MEASURE
 62
     9
 10
564.68796651878665
 20
266.40987855180123
 30
0.0
 11
566.35463318545351
 21
266.40987855180123
 31
0.0
 12
565.52129985212014
 22
261.40987855180128
 32
0.0
 13
565.52129985212014
 23
261.40987855180128
 33
0.0
  0
TEXT
  5
2924
  8
1
 62
     2
 10
564.52129985212002
 20
296.07654521846791
 30
0.0
 40
7.0
  1
80
 50
90.0
 41
0.8
  7
AD-STANDARD
  0
POINT
  5
2925
  8
DEFPOINTS
 62
     0
 10
509.3218949180955
 20
341.40987855180123
 30
0.0
  0
POINT
  5
2926
  8
DEFPOINTS
 62
     0
 10
509.3218949180955
 20
261.40987855180128
 30
0.0
  0
POINT
  5
2927
  8
DEFPOINTS
 62
     0
 10
565.52129985212014
 20
261.40987855180128
 30
0.0
  0
ENDBLK
  5
15C3
  8
0
  0
BLOCK
  8
0
  2
*D23
 70
     1
 10
0.0
 20
0.0
 30
0.0
  3
*D23
  1

  0
LINE
  5
2933
  8
MEASURE
 62
     9
 10
635.29489043298872
 20
537.65720089227887
 30
0.0
 11
741.59089859030234
 21
537.65720089227887
 31
0.0
  0
LINE
  5
2934
  8
MEASURE
 62
     9
 10
692.74438046490832
 20
417.65720089227977
 30
0.0
 11
741.59089859030234
 21
417.65720089227977
 31
0.0
  0
LINE
  5
2935
  8
MEASURE
 62
     9
 10
737.59089859030234
 20
532.65720089227898
 30
0.0
 11
737.59089859030234
 21
422.65720089227989
 31
0.0
  0
SOLID
  5
2936
  8
MEASURE
 62
     9
 10
736.75756525696909
 20
532.65720089227898
 30
0.0
 11
738.42423192363583
 21
532.65720089227898
 31
0.0
 12
737.59089859030234
 22
537.65720089227887
 32
0.0
 13
737.59089859030234
 23
537.65720089227887
 33
0.0
  0
SOLID
  5
2937
  8
MEASURE
 62
     9
 10
736.75756525696909
 20
422.65720089227989
 30
0.0
 11
738.42423192363583
 21
422.65720089227989
 31
0.0
 12
737.59089859030234
 22
417.65720089227977
 32
0.0
 13
737.59089859030234
 23
417.65720089227977
 33
0.0
  0
TEXT
  5
2938
  8
1
 62
     2
 10
736.59089859030234
 20
469.2572008922794
 30
0.0
 40
7.0
  1
120
 50
90.0
 41
0.8
  7
AD-STANDARD
  0
POINT
  5
2939
  8
DEFPOINTS
 62
     0
 10
633.29489043298872
 20
537.65720089227887
 30
0.0
  0
POINT
  5
293A
  8
DEFPOINTS
 62
     0
 10
690.74438046490832
 20
417.65720089227977
 30
0.0
  0
POINT
  5
293B
  8
DEFPOINTS
 62
     0
 10
737.59089859030234
 20
417.65720089227977
 30
0.0
  0
ENDBLK
  5
1607
  8
0
  0
BLOCK
  8
0
  2
*D24
 70
     1
 10
0.0
 20
0.0
 30
0.0
  3
*D24
  1

  0
LINE
  5
26C9
  8
MEASURE
 62
     9
 10
610.74438046490832
 20
415.65720089227989
 30
0.0
 11
610.74438046490832
 21
370.72837442728257
 31
0.0
  0
LINE
  5
26CA
  8
MEASURE
 62
     9
 10
690.74438046490832
 20
415.65720089227989
 30
0.0
 11
690.74438046490832
 21
370.72837442728257
 31
0.0
  0
LINE
  5
26CB
  8
MEASURE
 62
     9
 10
615.74438046490832
 20
374.72837442728257
 30
0.0
 11
685.74438046490832
 21
374.72837442728257
 31
0.0
  0
SOLID
  5
26CC
  8
MEASURE
 62
     9
 10
615.74438046490832
 20
375.561707760616
 30
0.0
 11
615.74438046490832
 21
373.89504109394932
 31
0.0
 12
610.74438046490832
 22
374.72837442728257
 32
0.0
 13
610.74438046490832
 23
374.72837442728257
 33
0.0
  0
SOLID
  5
26CD
  8
MEASURE
 62
     9
 10
685.74438046490832
 20
375.561707760616
 30
0.0
 11
685.74438046490832
 21
373.89504109394932
 31
0.0
 12
690.74438046490832
 22
374.72837442728257
 32
0.0
 13
690.74438046490832
 23
374.72837442728257
 33
0.0
  0
TEXT
  5
26CE
  8
1
 62
     2
 10
645.41104713157495
 20
375.72837442728269
 30
0.0
 40
7.0
  1
80
 41
0.8
  7
AD-STANDARD
  0
POINT
  5
26CF
  8
DEFPOINTS
 62
     0
 10
610.74438046490832
 20
417.65720089227977
 30
0.0
  0
POINT
  5
26D0
  8
DEFPOINTS
 62
     0
 10
690.74438046490832
 20
417.65720089227977
 30
0.0
  0
POINT
  5
26D1
  8
DEFPOINTS
 62
     0
 10
690.74438046490832
 20
374.72837442728257
 30
0.0
  0
ENDBLK
  5
1614
  8
0
  0
BLOCK
  8
0
  2
*D25
 70
     1
 10
0.0
 20
0.0
 30
0.0
  3
*D25
  1

  0
LINE
  5
2745
  8
MEASURE
 62
     9
 10
338.42189491809489
 20
322.40987855180123
 30
0.0
 11
338.42189491809489
 21
300.8770343510655
 31
0.0
  0
LINE
  5
2746
  8
MEASURE
 62
     9
 10
343.42189491809489
 20
322.40987855180123
 30
0.0
 11
343.42189491809489
 21
300.8770343510655
 31
0.0
  0
LINE
  5
2747
  8
MEASURE
 62
     9
 10
333.42189491809489
 20
304.8770343510655
 30
0.0
 11
328.42189491809489
 21
304.8770343510655
 31
0.0
  0
LINE
  5
2748
  8
MEASURE
 62
     9
 10
348.42189491809489
 20
304.8770343510655
 30
0.0
 11
359.1552282514283
 21
304.8770343510655
 31
0.0
  0
LINE
  5
2749
  8
MEASURE
 62
     9
 10
338.42189491809489
 20
304.8770343510655
 30
0.0
 11
343.42189491809489
 21
304.8770343510655
 31
0.0
  0
SOLID
  5
274A
  8
MEASURE
 62
     9
 10
333.42189491809489
 20
305.71036768439882
 30
0.0
 11
333.42189491809489
 21
304.04370101773208
 31
0.0
 12
338.42189491809489
 22
304.8770343510655
 32
0.0
 13
338.42189491809489
 23
304.8770343510655
 33
0.0
  0
SOLID
  5
274B
  8
MEASURE
 62
     9
 10
348.42189491809489
 20
305.71036768439882
 30
0.0
 11
348.42189491809489
 21
304.04370101773208
 31
0.0
 12
343.42189491809489
 22
304.8770343510655
 32
0.0
 13
343.42189491809489
 23
304.8770343510655
 33
0.0
  0
TEXT
  5
274C
  8
1
 62
     2
 10
353.62189491809488
 20
305.8770343510655
 30
0.0
 40
7.0
  1
5
 41
0.8
  7
AD-STANDARD
  0
POINT
  5
274D
  8
DEFPOINTS
 62
     0
 10
338.42189491809489
 20
324.40987855180128
 30
0.0
  0
POINT
  5
274E
  8
DEFPOINTS
 62
     0
 10
343.42189491809489
 20
324.40987855180128
 30
0.0
  0
POINT
  5
274F
  8
DEFPOINTS
 62
     0
 10
343.42189491809489
 20
304.8770343510655
 30
0.0
  0
ENDBLK
  5
165B
  8
0
  0
BLOCK
  8
0
  2
*D26
 70
     1
 10
0.0
 20
0.0
 30
0.0
  3
*D26
  1

  0
LINE
  5
2723
  8
MEASURE
 62
     9
 10
290.22189491809422
 20
261.40987855180128
 30
0.0
 11
251.5942594547013
 21
261.40987855180128
 31
0.0
  0
LINE
  5
2724
  8
MEASURE
 62
     9
 10
326.25546933282112
 20
267.40987855180123
 30
0.0
 11
251.5942594547013
 21
267.40987855180123
 31
0.0
  0
LINE
  5
2725
  8
MEASURE
 62
     9
 10
255.5942594547013
 20
256.40987855180123
 30
0.0
 11
255.5942594547013
 21
251.40987855180131
 31
0.0
  0
LINE
  5
2726
  8
MEASURE
 62
     9
 10
255.5942594547013
 20
267.40987855180123
 30
0.0
 11
255.5942594547013
 21
272.40987855180123
 31
0.0
  0
LINE
  5
2727
  8
MEASURE
 62
     9
 10
255.5942594547013
 20
261.40987855180128
 30
0.0
 11
255.5942594547013
 21
267.40987855180123
 31
0.0
  0
SOLID
  5
2728
  8
MEASURE
 62
     9
 10
254.76092612136799
 20
256.40987855180123
 30
0.0
 11
256.4275927880347
 21
256.40987855180123
 31
0.0
 12
255.5942594547013
 22
261.40987855180128
 32
0.0
 13
255.5942594547013
 23
261.40987855180128
 33
0.0
  0
INSERT
  5
2729
  8
MEASURE
 62
     9
  2
_DOTSMALL
 10
255.5942594547013
 20
267.40987855180123
 30
0.0
 41
5.0
 42
5.0
 43
5.0
 50
270.0
  0
TEXT
  5
272A
  8
1
 62
     2
 10
254.5942594547013
 20
261.60987855180127
 30
0.0
 40
7.0
  1
6
 50
90.0
 41
0.8
  7
AD-STANDARD
  0
POINT
  5
272B
  8
DEFPOINTS
 62
     0
 10
292.22189491809422
 20
261.40987855180128
 30
0.0
  0
POINT
  5
272C
  8
DEFPOINTS
 62
     0
 10
328.25546933282112
 20
267.40987855180123
 30
0.0
  0
POINT
  5
272D
  8
DEFPOINTS
 62
     0
 10
255.5942594547013
 20
267.40987855180123
 30
0.0
  0
ENDBLK
  5
1677
  8
0
  0
BLOCK
  8
0
  2
*D27
 70
     1
 10
0.0
 20
0.0
 30
0.0
  3
*D27
  1

  0
LINE
  5
271A
  8
MEASURE
 62
     9
 10
326.25546933282112
 20
267.40987855180077
 30
0.0
 11
251.5942594547013
 21
267.40987855180077
 31
0.0
  0
LINE
  5
271B
  8
MEASURE
 62
     9
 10
326.25546933282112
 20
324.40987855180128
 30
0.0
 11
251.5942594547013
 21
324.40987855180128
 31
0.0
  0
LINE
  5
271C
  8
MEASURE
 62
     9
 10
255.5942594547013
 20
267.40987855180077
 30
0.0
 11
255.5942594547013
 21
324.40987855180128
 31
0.0
  0
INSERT
  5
271D
  8
MEASURE
 62
     9
  2
_DOTSMALL
 10
255.5942594547013
 20
267.40987855180077
 30
0.0
 41
5.0
 42
5.0
 43
5.0
 50
270.0
  0
INSERT
  5
271E
  8
MEASURE
 62
     9
  2
_DOTSMALL
 10
255.5942594547013
 20
324.40987855180128
 30
0.0
 41
5.0
 42
5.0
 43
5.0
 50
90.0
  0
TEXT
  5
271F
  8
1
 62
     2
 10
254.5942594547013
 20
290.57654521846769
 30
0.0
 40
7.0
  1
57
 50
90.0
 41
0.8
  7
AD-STANDARD
  0
POINT
  5
2720
  8
DEFPOINTS
 62
     0
 10
328.25546933282112
 20
267.40987855180077
 30
0.0
  0
POINT
  5
2721
  8
DEFPOINTS
 62
     0
 10
328.25546933282112
 20
324.40987855180128
 30
0.0
  0
POINT
  5
2722
  8
DEFPOINTS
 62
     0
 10
255.5942594547013
 20
324.40987855180128
 30
0.0
  0
ENDBLK
  5
1691
  8
0
  0
BLOCK
  8
0
  2
*D28
 70
     1
 10
0.0
 20
0.0
 30
0.0
  3
*D28
  1

  0
LINE
  5
2711
  8
MEASURE
 62
     9
 10
326.25546933282112
 20
324.40987855180128
 30
0.0
 11
251.5942594547009
 21
324.40987855180128
 31
0.0
  0
LINE
  5
2712
  8
MEASURE
 62
     9
 10
326.25546933282112
 20
332.40987855180128
 30
0.0
 11
251.5942594547009
 21
332.40987855180128
 31
0.0
  0
LINE
  5
2713
  8
MEASURE
 62
     9
 10
255.5942594547009
 20
324.40987855180128
 30
0.0
 11
255.5942594547009
 21
332.40987855180128
 31
0.0
  0
INSERT
  5
2714
  8
MEASURE
 62
     9
  2
_DOTSMALL
 10
255.5942594547009
 20
324.40987855180128
 30
0.0
 41
5.0
 42
5.0
 43
5.0
 50
270.0
  0
INSERT
  5
2715
  8
MEASURE
 62
     9
  2
_DOTSMALL
 10
255.5942594547009
 20
332.40987855180128
 30
0.0
 41
5.0
 42
5.0
 43
5.0
 50
90.0
  0
TEXT
  5
2716
  8
1
 62
     2
 10
254.5942594547009
 20
325.743211885135
 30
0.0
 40
7.0
  1
8
 50
90.0
 41
0.8
  7
AD-STANDARD
  0
POINT
  5
2717
  8
DEFPOINTS
 62
     0
 10
328.25546933282112
 20
324.40987855180128
 30
0.0
  0
POINT
  5
2718
  8
DEFPOINTS
 62
     0
 10
328.25546933282112
 20
332.40987855180128
 30
0.0
  0
POINT
  5
2719
  8
DEFPOINTS
 62
     0
 10
255.5942594547009
 20
332.40987855180128
 30
0.0
  0
ENDBLK
  5
169E
  8
0
  0
BLOCK
  8
0
  2
*D29
 70
     1
 10
0.0
 20
0.0
 30
0.0
  3
*D29
  1

  0
LINE
  5
26ED
  8
MEASURE
 62
     9
 10
292.22189491809422
 20
259.40987855180128
 30
0.0
 11
292.22189491809422
 21
200.99305405847821
 31
0.0
  0
LINE
  5
26EE
  8
MEASURE
 62
     9
 10
509.3218949180955
 20
259.40987855180128
 30
0.0
 11
509.3218949180955
 21
200.99305405847821
 31
0.0
  0
LINE
  5
26EF
  8
MEASURE
 62
     9
 10
297.22189491809422
 20
204.99305405847821
 30
0.0
 11
504.32189491809538
 21
204.99305405847821
 31
0.0
  0
SOLID
  5
26F0
  8
MEASURE
 62
     9
 10
297.22189491809422
 20
205.82638739181161
 30
0.0
 11
297.22189491809422
 21
204.15972072514489
 31
0.0
 12
292.22189491809422
 22
204.99305405847821
 32
0.0
 13
292.22189491809422
 23
204.99305405847821
 33
0.0
  0
SOLID
  5
26F1
  8
MEASURE
 62
     9
 10
504.32189491809538
 20
205.82638739181161
 30
0.0
 11
504.32189491809538
 21
204.15972072514489
 31
0.0
 12
509.3218949180955
 22
204.99305405847821
 32
0.0
 13
509.3218949180955
 23
204.99305405847821
 33
0.0
  0
TEXT
  5
26F2
  8
1
 62
     2
 10
389.57189491809493
 20
205.99305405847821
 30
0.0
 40
7.0
  1
217.1
 41
0.8
  7
AD-STANDARD
  0
POINT
  5
26F3
  8
DEFPOINTS
 62
     0
 10
292.22189491809422
 20
261.40987855180128
 30
0.0
  0
POINT
  5
26F4
  8
DEFPOINTS
 62
     0
 10
509.3218949180955
 20
261.40987855180128
 30
0.0
  0
POINT
  5
26F5
  8
DEFPOINTS
 62
     0
 10
509.3218949180955
 20
204.99305405847821
 30
0.0
  0
ENDBLK
  5
16CF
  8
0
  0
BLOCK
  8
0
  2
*D30
 70
     1
 10
0.0
 20
0.0
 30
0.0
  3
*D30
  1

  0
LINE
  5
28D6
  8
MEASURE
  6
CENTER
 62
     9
 10
292.22189491809422
 20
259.40987855180128
 30
0.0
 11
292.22189491809422
 21
212.60949443615701
 31
0.0
  0
LINE
  5
28D7
  8
MEASURE
  6
CENTER
 62
     9
 10
340.92189491809489
 20
265.40987855180123
 30
0.0
 11
340.92189491809489
 21
212.60949443615701
 31
0.0
  0
LINE
  5
28D8
  8
MEASURE
  6
CENTER
 62
     9
 10
297.22189491809422
 20
216.60949443615701
 30
0.0
 11
335.92189491809489
 21
216.60949443615701
 31
0.0
  0
SOLID
  5
28D9
  8
MEASURE
  6
CENTER
 62
     9
 10
297.22189491809422
 20
217.44282776949041
 30
0.0
 11
297.22189491809422
 21
215.77616110282369
 31
0.0
 12
292.22189491809422
 22
216.60949443615701
 32
0.0
 13
292.22189491809422
 23
216.60949443615701
 33
0.0
  0
SOLID
  5
28DA
  8
MEASURE
  6
CENTER
 62
     9
 10
335.92189491809489
 20
217.44282776949041
 30
0.0
 11
335.92189491809489
 21
215.77616110282369
 31
0.0
 12
340.92189491809489
 22
216.60949443615701
 32
0.0
 13
340.92189491809489
 23
216.60949443615701
 33
0.0
  0
TEXT
  5
28DB
  8
1
 62
     2
 10
307.23856158476121
 20
217.60949443615709
 30
0.0
 40
7.0
  1
48.7
 41
0.8
  7
AD-STANDARD
  0
POINT
  5
28DC
  8
DEFPOINTS
  6
CENTER
 62
     0
 10
292.22189491809422
 20
261.40987855180128
 30
0.0
  0
POINT
  5
28DD
  8
DEFPOINTS
  6
CENTER
 62
     0
 10
340.92189491809489
 20
267.40987855180123
 30
0.0
  0
POINT
  5
28DE
  8
DEFPOINTS
  6
CENTER
 62
     0
 10
340.92189491809489
 20
216.60949443615701
 30
0.0
  0
ENDBLK
  5
16DC
  8
0
  0
BLOCK
  8
0
  2
*D31
 70
     1
 10
0.0
 20
0.0
 30
0.0
  3
*D31
  1

  0
LINE
  5
26E4
  8
MEASURE
 62
     9
 10
340.92189491809489
 20
265.40987855180123
 30
0.0
 11
340.92189491809489
 21
212.60949443615701
 31
0.0
  0
LINE
  5
26E5
  8
MEASURE
 62
     9
 10
460.92189491809489
 20
265.40987855180123
 30
0.0
 11
460.92189491809489
 21
212.60949443615701
 31
0.0
  0
LINE
  5
26E6
  8
MEASURE
 62
     9
 10
345.92189491809489
 20
216.60949443615701
 30
0.0
 11
455.92189491809489
 21
216.60949443615701
 31
0.0
  0
SOLID
  5
26E7
  8
MEASURE
 62
     9
 10
345.92189491809489
 20
217.44282776949041
 30
0.0
 11
345.92189491809489
 21
215.77616110282369
 31
0.0
 12
340.92189491809489
 22
216.60949443615701
 32
0.0
 13
340.92189491809489
 23
216.60949443615701
 33
0.0
  0
SOLID
  5
26E8
  8
MEASURE
 62
     9
 10
455.92189491809489
 20
217.44282776949041
 30
0.0
 11
455.92189491809489
 21
215.77616110282369
 31
0.0
 12
460.92189491809489
 22
216.60949443615701
 32
0.0
 13
460.92189491809489
 23
216.60949443615701
 33
0.0
  0
TEXT
  5
26E9
  8
1
 62
     2
 10
392.52189491809492
 20
217.60949443615709
 30
0.0
 40
7.0
  1
120
 41
0.8
  7
AD-STANDARD
  0
POINT
  5
26EA
  8
DEFPOINTS
 62
     0
 10
340.92189491809489
 20
267.40987855180123
 30
0.0
  0
POINT
  5
26EB
  8
DEFPOINTS
 62
     0
 10
460.92189491809489
 20
267.40987855180123
 30
0.0
  0
POINT
  5
26EC
  8
DEFPOINTS
 62
     0
 10
460.92189491809489
 20
216.60949443615701
 30
0.0
  0
ENDBLK
  5
16E9
  8
0
  0
BLOCK
  8
0
  2
*D32
 70
     1
 10
0.0
 20
0.0
 30
0.0
  3
*D32
  1

  0
LINE
  5
2762
  8
MEASURE
 62
     9
 10
501.12189491809153
 20
434.65720089228171
 30
0.0
 11
556.52037169543837
 21
434.65720089228171
 31
0.0
  0
LINE
  5
2763
  8
MEASURE
 62
     9
 10
507.62189491809522
 20
417.65720089227977
 30
0.0
 11
556.52037169543837
 21
417.65720089227977
 31
0.0
  0
LINE
  5
2764
  8
MEASURE
 62
     9
 10
552.52037169543837
 20
429.65720089228171
 30
0.0
 11
552.52037169543837
 21
422.65720089227989
 31
0.0
  0
SOLID
  5
2765
  8
MEASURE
 62
     9
 10
551.687038362105
 20
429.65720089228171
 30
0.0
 11
553.35370502877174
 21
429.65720089228171
 31
0.0
 12
552.52037169543837
 22
434.65720089228171
 32
0.0
 13
552.52037169543837
 23
434.65720089228171
 33
0.0
  0
SOLID
  5
2766
  8
MEASURE
 62
     9
 10
551.687038362105
 20
422.65720089227989
 30
0.0
 11
553.35370502877174
 21
422.65720089227989
 31
0.0
 12
552.52037169543837
 22
417.65720089227977
 32
0.0
 13
552.52037169543837
 23
417.65720089227977
 33
0.0
  0
TEXT
  5
2767
  8
1
 62
     2
 10
551.52037169543814
 20
420.42386755894751
 30
0.0
 40
7.0
  1
17
 50
90.0
 41
0.8
  7
AD-STANDARD
  0
POINT
  5
2768
  8
DEFPOINTS
 62
     0
 10
499.12189491809158
 20
434.65720089228171
 30
0.0
  0
POINT
  5
2769
  8
DEFPOINTS
 62
     0
 10
505.62189491809511
 20
417.65720089227977
 30
0.0
  0
POINT
  5
276A
  8
DEFPOINTS
 62
     0
 10
552.52037169543837
 20
417.65720089227977
 30
0.0
  0
ENDBLK
  5
1704
  8
0
  0
BLOCK
  8
0
  2
*D33
 70
     1
 10
0.0
 20
0.0
 30
0.0
  3
*D33
  1

  0
LINE
  5
2750
  8
MEASURE
 62
     9
 10
501.12189491809107
 20
434.6572008922812
 30
0.0
 11
556.52037169543837
 21
434.6572008922812
 31
0.0
  0
LINE
  5
2751
  8
MEASURE
 62
     9
 10
501.12189491809107
 20
640.65720089227943
 30
0.0
 11
556.52037169543837
 21
640.65720089227943
 31
0.0
  0
LINE
  5
2752
  8
MEASURE
 62
     9
 10
552.52037169543837
 20
439.6572008922812
 30
0.0
 11
552.52037169543837
 21
635.65720089227943
 31
0.0
  0
SOLID
  5
2753
  8
MEASURE
 62
     9
 10
551.687038362105
 20
439.6572008922812
 30
0.0
 11
553.35370502877174
 21
439.6572008922812
 31
0.0
 12
552.52037169543837
 22
434.6572008922812
 32
0.0
 13
552.52037169543837
 23
434.6572008922812
 33
0.0
  0
SOLID
  5
2754
  8
MEASURE
 62
     9
 10
551.687038362105
 20
635.65720089227943
 30
0.0
 11
553.35370502877174
 21
635.65720089227943
 31
0.0
 12
552.52037169543837
 22
640.65720089227943
 32
0.0
 13
552.52037169543837
 23
640.65720089227943
 33
0.0
  0
TEXT
  5
2755
  8
1
 62
     2
 10
551.52037169543814
 20
529.65720089228034
 30
0.0
 40
7.0
  1
206
 50
90.0
 41
0.8
  7
AD-STANDARD
  0
POINT
  5
2756
  8
DEFPOINTS
 62
     0
 10
499.12189491809107
 20
434.6572008922812
 30
0.0
  0
POINT
  5
2757
  8
DEFPOINTS
 62
     0
 10
499.12189491809107
 20
640.65720089227943
 30
0.0
  0
POINT
  5
2758
  8
DEFPOINTS
 62
     0
 10
552.52037169543837
 20
640.65720089227943
 30
0.0
  0
ENDBLK
  5
1711
  8
0
  0
BLOCK
  8
0
  2
*D34
 70
     1
 10
0.0
 20
0.0
 30
0.0
  3
*D34
  1

  0
LINE
  5
29D4
  8
MEASURE
 62
     9
 10
338.92189491809489
 20
332.40987855180128
 30
0.0
 11
251.59425945470139
 21
332.40987855180128
 31
0.0
  0
LINE
  5
29D5
  8
MEASURE
 62
     9
 10
290.22189491809422
 20
341.40987855180123
 30
0.0
 11
251.59425945470139
 21
341.40987855180123
 31
0.0
  0
LINE
  5
29D6
  8
MEASURE
 62
     9
 10
255.59425945470139
 20
332.40987855180128
 30
0.0
 11
255.59425945470139
 21
336.40987855180128
 31
0.0
  0
INSERT
  5
29D7
  8
MEASURE
 62
     9
  2
_DOTSMALL
 10
255.59425945470139
 20
332.40987855180128
 30
0.0
 41
5.0
 42
5.0
 43
5.0
 50
270.0
  0
INSERT
  5
29D8
  8
MEASURE
 62
     9
  2
-ARROW
 10
255.59425945470139
 20
341.40987855180123
 30
0.0
 41
5.0
 42
5.0
 43
5.0
 50
90.0
  0
TEXT
  8
0
  40
7
  5
2A8A
  62
2
  72
0
  71
0
 10
237.094
 20
324.520
 30
0.000000
  1
9
  7
AD-STANDARD
  0
POINT
  5
29DA
  8
DEFPOINTS
 62
     0
 10
340.92189491809489
 20
332.40987855180128
 30
0.0
  0
POINT
  5
29DB
  8
DEFPOINTS
 62
     0
 10
292.22189491809422
 20
341.40987855180123
 30
0.0
  0
POINT
  5
29DC
  8
DEFPOINTS
 62
     0
 10
255.59425945470139
 20
341.40987855180123
 30
0.0
  0
ENDBLK
  5
1769
  8
0
  0
BLOCK
  8
0
  2
*D35
 70
     1
 10
0.0
 20
0.0
 30
0.0
  3
*D35
  1

  0
LINE
  5
272E
  8
MEASURE
 62
     9
 10
358.73405766684681
 20
356.59102760065991
 30
0.0
 11
347.1492326160494
 21
340.86388737576442
 31
0.0
  0
LINE
  5
272F
  8
MEASURE
 62
     9
 10
334.69455722014089
 20
323.955869727839
 30
0.0
 11
331.72915831635322
 21
319.93015124023782
 31
0.0
  0
TEXT
  5
2730
  8
1
 62
     2
 10
349.58625838667041
 20
345.85841936963271
 30
0.0
 40
7.0
  1
\U+220511
 50
53.624135255939571
 41
0.8
  7
AD-STANDARD
  0
LINE
  5
2731
  8
MEASURE
 62
     9
 10
337.65995612392862
 20
327.9815882154403
 30
0.0
 11
344.18383371226167
 21
336.83816888816318
 31
0.0
  0
SOLID
  5
2732
  8
MEASURE
 62
     9
 10
334.02360413887402
 20
324.45010287847037
 30
0.0
 11
335.36551030140782
 21
323.46163657720768
 31
0.0
 12
337.65995612392862
 22
327.9815882154403
 32
0.0
 13
337.65995612392862
 23
327.9815882154403
 33
0.0
  0
SOLID
  5
2733
  8
MEASURE
 62
     9
 10
346.47827953478247
 20
341.35812052639568
 30
0.0
 11
347.82018569731628
 21
340.3696542251331
 31
0.0
 12
344.18383371226167
 22
336.83816888816318
 32
0.0
 13
344.18383371226167
 23
336.83816888816318
 33
0.0
  0
POINT
  5
2734
  8
DEFPOINTS
 62
     0
 10
344.18383371226167
 20
336.83816888816318
 30
0.0
  0
POINT
  5
2735
  8
DEFPOINTS
 62
     0
 10
337.65995612392862
 20
327.9815882154403
 30
0.0
  0
ENDBLK
  5
180C
  8
0
  0
BLOCK
  8
0
  2
-ARROW
 70
     0
 10
0.0
 20
0.0
 30
0.0
  3
-ARROW
  1

  0
SOLID
  5
1AE4
  8
0
  6
BYBLOCK
 62
     9
 10
1.0
 20
0.1666666666669698
 30
0.0
 11
1.0
 21
-0.1666666666669698
 31
0.0
 12
0.0
 22
0.0
 32
0.0
 13
0.0
 23
0.0
 33
0.0
  0
LINE
  5
1AE5
  8
MEASURE
 10
0.0
 20
0.0
 30
0.0
 11
-1.0
 21
0.0
 31
0.0
  0
LINE
  5
1AE6
  8
MEASURE
 10
2.0
 20
0.0
 30
0.0
 11
1.0
 21
0.0
 31
0.0
  0
ENDBLK
  5
1AE8
  8
0
  0
BLOCK
  8
0
  2
*D49
 70
     1
 10
0.0
 20
0.0
 30
0.0
  3
*D49
  1

  0
LINE
  5
2774
  8
MEASURE
 62
     9
 10
779.0355790737508
 20
609.95720089227825
 30
0.0
 11
779.0355790737508
 21
678.85281212061761
 31
0.0
  0
LINE
  5
2775
  8
MEASURE
 62
     9
 10
936.03557907375045
 20
609.95720089227825
 30
0.0
 11
936.03557907375045
 21
678.85281212061761
 31
0.0
  0
LINE
  5
2776
  8
MEASURE
 62
     9
 10
784.0355790737508
 20
674.85281212061773
 30
0.0
 11
931.03557907375034
 21
674.85281212061773
 31
0.0
  0
SOLID
  5
2777
  8
MEASURE
 62
     9
 10
784.0355790737508
 20
675.68614545395099
 30
0.0
 11
784.0355790737508
 21
674.01947878728436
 31
0.0
 12
779.0355790737508
 22
674.85281212061773
 32
0.0
 13
779.0355790737508
 23
674.85281212061773
 33
0.0
  0
SOLID
  5
2778
  8
MEASURE
 62
     9
 10
931.03557907375034
 20
675.68614545395099
 30
0.0
 11
931.03557907375034
 21
674.01947878728436
 31
0.0
 12
936.03557907375045
 22
674.85281212061773
 32
0.0
 13
936.03557907375045
 23
674.85281212061773
 33
0.0
  0
TEXT
  5
2779
  8
1
 62
     2
 10
849.13557907375059
 20
675.85281212061773
 30
0.0
 40
7.0
  1
157
 41
0.8
  7
AD-STANDARD
  0
POINT
  5
277A
  8
DEFPOINTS
 62
     0
 10
779.0355790737508
 20
607.95720089227825
 30
0.0
  0
POINT
  5
277B
  8
DEFPOINTS
 62
     0
 10
936.03557907375045
 20
607.95720089227825
 30
0.0
  0
POINT
  5
277C
  8
DEFPOINTS
 62
     0
 10
936.03557907375045
 20
674.85281212061773
 30
0.0
  0
ENDBLK
  5
1F48
  8
0
  0
BLOCK
  8
0
  2
*D51
 70
     1
 10
0.0
 20
0.0
 30
0.0
  3
*D51
  1

  0
LINE
  5
28DF
  8
MEASURE
 62
     9
 10
312.99301997398879
 20
296.45096955963197
 30
0.0
 11
335.62144481399179
 21
319.10372846968841
 31
0.0
  0
TEXT
  5
28E0
  8
1
 62
     2
 10
312.23841818433681
 20
297.11053046167092
 30
0.0
 40
7.0
  1
R2.5
 50
45.030790700744831
 41
0.8
  7
AD-STANDARD
  0
LINE
  5
28E1
  8
MEASURE
 62
     9
 10
340.9218949180966
 20
324.40987855181021
 30
0.0
 11
339.15507821672497
 21
322.64116185776629
 31
0.0
  0
SOLID
  5
28E2
  8
MEASURE
 62
     9
 10
335.03187258264552
 20
319.69266737014391
 30
0.0
 11
336.21101704533811
 21
318.51478956923279
 31
0.0
 12
339.15507821672497
 22
322.64116185776629
 32
0.0
 13
339.15507821672497
 23
322.64116185776629
 33
0.0
  0
POINT
  5
28E3
  8
DEFPOINTS
 62
     0
 10
339.15507821672497
 20
322.64116185776629
 30
0.0
  0
POINT
  5
28E4
  8
DEFPOINTS
 62
     0
 10
340.9218949180966
 20
324.40987855181021
 30
0.0
  0
ENDBLK
  5
209F
  8
0
  0
BLOCK
  8
0
  2
*X71
 70
     1
 10
0.0
 20
0.0
 30
0.0
  3
*X71
  1

  0
LINE
  5
29DE
  8
0
 62
     0
 10
956.69218673382602
 20
348.51958631289881
 30
0.0
 11
975.90546052103298
 21
367.73286010010543
 31
0.0
  0
LINE
  5
29DF
  8
0
 62
     0
 10
936.03557907375045
 20
350.31361895549611
 30
0.0
 11
975.90546052103275
 21
390.18350040277892
 31
0.0
  0
LINE
  5
29E0
  8
0
 62
     0
 10
936.03557907375045
 20
372.7642592581692
 30
0.0
 11
975.90546052103275
 21
412.6341407054515
 31
0.0
  0
LINE
  5
29E1
  8
0
 62
     0
 10
936.03557907375045
 20
395.21489956084179
 30
0.0
 11
975.90546052103207
 21
435.08478100812363
 31
0.0
  0
LINE
  5
29E2
  8
0
 62
     0
 10
936.03557907375045
 20
417.66553986351482
 30
0.0
 11
975.90546052103275
 21
457.53542131079752
 31
0.0
  0
LINE
  5
29E3
  8
0
 62
     0
 10
936.03557907375045
 20
440.1161801661878
 30
0.0
 11
975.90546052103207
 21
479.98606161346959
 31
0.0
  0
LINE
  5
29E4
  8
0
 62
     0
 10
936.03557907375045
 20
462.56682046886039
 30
0.0
 11
975.90546052103207
 21
502.43670191614228
 31
0.0
  0
LINE
  5
29E5
  8
0
 62
     0
 10
936.03557907375045
 20
485.01746077153342
 30
0.0
 11
975.90546052103207
 21
524.88734221881532
 31
0.0
  0
LINE
  5
29E6
  8
0
 62
     0
 10
966.2246788918228
 20
537.65720089227852
 30
0.0
 11
975.90546052103275
 21
547.3379825214887
 31
0.0
  0
LINE
  5
29E7
  8
0
 62
     0
 10
936.03557907375045
 20
507.46810107420652
 30
0.0
 11
966.2246788918219
 21
537.65720089227807
 31
0.0
  0
LINE
  5
29E8
  8
0
 62
     0
 10
943.77403858914977
 20
537.65720089227852
 30
0.0
 11
975.90546052103298
 21
569.78862282416128
 31
0.0
  0
LINE
  5
29E9
  8
0
 62
     0
 10
936.03557907375045
 20
529.91874137687898
 30
0.0
 11
943.77403858914829
 21
537.65720089227705
 31
0.0
  0
LINE
  5
29EA
  8
0
 62
     0
 10
936.03557907374955
 20
552.36938167955168
 30
0.0
 11
975.90546052103275
 21
592.23926312683489
 31
0.0
  0
LINE
  5
29EB
  8
0
 62
     0
 10
936.03557907374955
 20
574.82002198222415
 30
0.0
 11
975.90546052103275
 21
614.68990342950735
 31
0.0
  0
LINE
  5
29EC
  8
0
 62
     0
 10
936.03557907374977
 20
597.27066228489684
 30
0.0
 11
975.90546052103207
 21
637.14054373217948
 31
0.0
  0
LINE
  5
29ED
  8
0
 62
     0
 10
936.03557907374955
 20
619.72130258757034
 30
0.0
 11
975.90546052103275
 21
659.59118403485354
 31
0.0
  0
LINE
  5
29EE
  8
0
 62
     0
 10
936.03557907374955
 20
642.17194289024292
 30
0.0
 11
975.90546052103275
 21
682.04182433752612
 31
0.0
  0
LINE
  5
29EF
  8
0
 62
     0
 10
936.03557907374977
 20
664.6225831929155
 30
0.0
 11
955.9012791018389
 21
684.48828322100508
 31
0.0
  0
ENDBLK
  5
29F1
  8
0
  0
ENDSEC
  0
SECTION
  2
ENTITIES
  0
LINE
  5
936
  8
1
 10
484.92189491809398
 20
422.15720089228029
 30
0.0
 11
316.92189491809398
 21
422.15720089228029
 31
0.0
  0
LINE
  5
939
  8
1
 62
     8
 10
341.92189491809398
 20
542.65720089228034
 30
0.0
 11
458.9218949180904
 21
542.65720089228205
 31
0.0
  0
LINE
  5
93A
  8
1
 62
     8
 10
341.92189491809307
 20
609.95720089227962
 30
0.0
 11
458.9218949180904
 21
609.95720089227962
 31
0.0
  0
LINE
  5
93B
  8
1
 62
     8
 10
341.92189491809307
 20
607.95720089227962
 30
0.0
 11
458.9218949180904
 21
607.95720089227962
 31
0.0
  0
LINE
  5
93C
  8
1
 62
     8
 10
335.92189491809307
 20
541.65720089228034
 30
0.0
 11
464.92189491809307
 21
541.65720089228034
 31
0.0
  0
LINE
  5
93D
  8
1
 10
301.72189491810218
 20
640.65720089227943
 30
0.0
 11
499.12189491809028
 21
640.65720089227932
 31
0.0
  0
LINE
  5
93E
  8
1
 62
     8
 10
301.72189491810241
 20
624.65720089227943
 30
0.0
 11
499.12189491809022
 21
624.65720089227943
 31
0.0
  0
LINE
  5
943
  8
1
 62
     8
 10
341.92189491809307
 20
467.65720089228211
 30
0.0
 11
458.9218949180904
 21
467.6572008922812
 31
0.0
  0
LINE
  5
944
  8
1
 62
     8
 10
341.92189491809307
 20
465.65720089228211
 30
0.0
 11
458.9218949180904
 21
465.65720089228211
 31
0.0
  0
LINE
  5
945
  8
1
 62
     8
 10
335.92189491809307
 20
526.65720089228034
 30
0.0
 11
464.9218949180912
 21
526.65720089228205
 31
0.0
  0
LINE
  5
946
  8
1
 62
     8
 10
335.92189491809307
 20
525.65720089228034
 30
0.0
 11
464.9218949180912
 21
525.65720089228205
 31
0.0
  0
LINE
  5
947
  8
1
 10
301.72189491808689
 20
434.65720089228211
 30
0.0
 11
499.12189491809107
 21
434.6572008922812
 31
0.0
  0
LINE
  5
948
  8
1
 10
504.92189491809398
 20
417.65720089228029
 30
0.0
 11
296.92189491809398
 21
417.65720089228029
 31
0.0
  0
LINE
  5
949
  8
1
 10
504.92189491809398
 20
419.15720089228029
 30
0.0
 11
296.92189491809398
 21
419.15720089228029
 31
0.0
  0
LINE
  5
94A
  8
1
 62
     8
 10
301.72189491808689
 20
450.65720089228211
 30
0.0
 11
499.12189491809107
 21
450.6572008922812
 31
0.0
  0
LINE
  5
94C
  8
1
 62
     8
 10
466.9218949180904
 20
599.95720089227962
 30
0.0
 11
466.9218949180904
 21
550.65720089228205
 31
0.0
  0
LINE
  5
94D
  8
1
 10
499.92189491809029
 20
639.85720089227925
 30
0.0
 11
499.9218949180904
 21
435.45720089228138
 31
0.0
  0
LINE
  5
94E
  8
1
 62
     8
 10
468.92189491809029
 20
599.95720089227962
 30
0.0
 11
468.92189491809029
 21
475.65720089228211
 31
0.0
  0
LINE
  5
94F
  8
1
 10
501.92189491809398
 20
510.33072258952768
 30
0.0
 11
501.92189491809398
 21
444.6572008922812
 31
0.0
  0
LINE
  5
950
  8
1
 10
504.92189491809398
 20
557.65720089228034
 30
0.0
 11
504.92189491809398
 21
419.15720089228029
 31
0.0
  0
LINE
  5
951
  8
1
 10
506.42189491809398
 20
557.65720089228034
 30
0.0
 11
506.4218949180941
 21
419.15720089228029
 31
0.0
  0
LINE
  5
952
  8
1
 10
503.92189491809398
 20
442.6572008922812
 30
0.0
 11
504.92189491809398
 21
442.6572008922812
 31
0.0
  0
ARC
  5
953
  8
1
 10
503.92189491809449
 20
444.65720089228159
 30
0.0
 40
2.0
 50
180.0
 51
270.0
  0
ARC
  5
954
  8
1
 10
484.92189491809438
 20
419.1572008922808
 30
0.0
 40
3.0
 50
0.0
 51
90.0
  0
ARC
  5
955
  8
1
 10
499.12189491809158
 20
435.45720089228189
 30
0.0
 40
0.8
 50
270.0
 51
0.0
  0
LINE
  5
957
  8
1
 10
504.92189491809398
 20
428.2785212358412
 30
0.0
 11
495.80057457453398
 21
419.15720089228029
 31
0.0
  0
ARC
  5
958
  8
1
 10
503.92189491809449
 20
510.33072258952819
 30
0.0
 40
2.0
 50
90.0
 51
180.0
  0
LINE
  5
959
  8
1
 10
503.92189491809398
 20
512.3307225895278
 30
0.0
 11
504.92189491809398
 21
512.3307225895278
 31
0.0
  0
LINE
  5
95A
  8
1
 10
506.42189491809398
 20
557.65720089228034
 30
0.0
 11
504.92189491809398
 21
557.65720089228034
 31
0.0
  0
LINE
  5
95B
  8
1
 10
524.02189491809349
 20
544.11142649486283
 30
0.0
 11
512.0218949180944
 21
544.11142649486192
 31
0.0
  0
LINE
  5
95C
  8
1
 10
519.0218949180944
 20
555.09920583122846
 30
0.0
 11
512.0218949180944
 21
555.09920583122846
 31
0.0
  0
ARC
  5
95D
  8
1
 10
519.02189491809474
 20
550.09920583122903
 30
0.0
 40
5.0
 50
0.0
 51
90.0
  0
LINE
  5
95E
  8
1
 10
508.02189491809429
 20
545.65720089228125
 30
0.0
 11
512.0218949180944
 21
545.65720089228034
 31
0.0
  0
LINE
  5
95F
  8
1
 10
506.42189491809398
 20
543.40720089228034
 30
0.0
 11
508.02189491809429
 21
543.40720089228034
 31
0.0
  0
LINE
  5
960
  8
1
 10
500.92189491809398
 20
547.65720089228034
 30
0.0
 11
504.92189491809398
 21
547.65720089228034
 31
0.0
  0
ARC
  5
963
  8
1
 62
     8
 10
458.9218949180908
 20
550.65720089228262
 30
0.0
 40
8.0
 50
270.0
 51
0.0
  0
LINE
  5
964
  8
1
 10
524.0218949180944
 20
531.13427759471415
 30
0.0
 11
512.0218949180944
 21
531.13427759471415
 31
0.0
  0
LINE
  5
965
  8
1
 10
519.0218949180944
 20
520.21519595333302
 30
0.0
 11
512.0218949180944
 21
520.21519595333302
 31
0.0
  0
ARC
  5
966
  8
1
 10
519.02189491809474
 20
525.21519595333427
 30
0.0
 40
5.0
 50
270.0
 51
0.0
  0
LINE
  5
969
  8
1
 10
508.02189491809429
 20
529.65720089228034
 30
0.0
 11
512.0218949180944
 21
529.65720089228034
 31
0.0
  0
LINE
  5
96B
  8
1
 10
506.42189491809398
 20
531.90720089228034
 30
0.0
 11
508.02189491809429
 21
531.90720089228034
 31
0.0
  0
LINE
  5
96C
  8
1
 10
500.92189491809398
 20
527.65720089228034
 30
0.0
 11
504.92189491809398
 21
527.65720089228034
 31
0.0
  0
LINE
  5
96E
  8
1
 10
500.92189491809398
 20
527.65720089228034
 30
0.0
 11
500.92189491809398
 21
547.65720089228034
 31
0.0
  0
ARC
  5
971
  8
1
 62
     8
 10
458.9218949180908
 20
475.65720089228171
 30
0.0
 40
8.0
 50
270.0
 51
0.0
  0
ARC
  5
972
  8
1
 62
     8
 10
458.9218949180908
 20
475.65720089228262
 30
0.0
 40
10.0
 50
270.0
 51
0.0
  0
POINT
  5
979
  8
1
 62
     8
 10
464.7218949180841
 20
525.65721435638352
 30
0.0
  0
POINT
  5
97A
  8
1
 62
     8
 10
464.72189491809138
 20
525.65720089228205
 30
0.0
  0
ARC
  5
97B
  8
1
 62
     8
 10
464.92189491809182
 20
528.65720089228262
 30
0.0
 40
2.0
 50
270.0
 51
0.0
  0
ARC
  5
97C
  8
1
 62
     8
 10
464.92189491809182
 20
523.65720089228262
 30
0.0
 40
2.0
 50
0.0
 51
90.0
  0
LINE
  5
98F
  8
1
 62
     8
 10
466.9218949180904
 20
523.65720089228205
 30
0.0
 11
466.9218949180904
 21
475.6572008922812
 31
0.0
  0
LINE
  5
990
  8
1
 62
     8
 10
466.9218949180904
 20
539.65720089228034
 30
0.0
 11
466.9218949180904
 21
528.65720089228216
 31
0.0
  0
LINE
  5
991
  8
1
 10
524.0218949180944
 20
525.21519595333427
 30
0.0
 11
524.0218949180944
 21
550.09920583122846
 31
0.0
  0
LINE
  5
992
  8
1
 10
512.0218949180944
 20
520.21519595333302
 30
0.0
 11
512.0218949180944
 21
555.09920583122846
 31
0.0
  0
LINE
  5
993
  8
1
 10
508.02189491809429
 20
529.65720089228034
 30
0.0
 11
508.02189491809429
 21
545.65720089228125
 31
0.0
  0
ARC
  5
99C
  8
1
 62
     8
 10
458.9218949180908
 20
599.95720089227996
 30
0.0
 40
10.0
 50
0.0
 51
90.0
  0
ARC
  5
99D
  8
1
 62
     8
 10
458.9218949180908
 20
599.95720089227996
 30
0.0
 40
8.0
 50
0.0
 51
90.0
  0
LINE
  5
99F
  8
1
 62
     8
 10
333.92189491809307
 20
599.95720089227962
 30
0.0
 11
333.92189491809307
 21
550.65720089228034
 31
0.0
  0
LINE
  5
9A0
  8
1
 10
300.92189491810223
 20
639.85720089227959
 30
0.0
 11
300.92189491808671
 21
435.45720089228229
 31
0.0
  0
LINE
  5
9A1
  8
1
 62
     8
 10
331.92189491809307
 20
599.95720089227962
 30
0.0
 11
331.92189491809307
 21
475.65720089228211
 31
0.0
  0
LINE
  5
9A4
  8
1
 10
299.92189491809398
 20
510.33072258952768
 30
0.0
 11
299.92189491809398
 21
444.6572008922812
 31
0.0
  0
LINE
  5
9A5
  8
1
 10
296.92189491809398
 20
557.65720089228034
 30
0.0
 11
296.92189491809398
 21
419.15720089228029
 31
0.0
  0
LINE
  5
9A6
  8
1
 10
295.42189491809398
 20
557.65720089228034
 30
0.0
 11
295.42189491809398
 21
419.15720089228029
 31
0.0
  0
ARC
  5
9A7
  8
1
 10
297.92189491809438
 20
444.65720089228159
 30
0.0
 40
2.0
 50
270.0
 51
0.0
  0
LINE
  5
9A8
  8
1
 10
297.92189491809398
 20
442.6572008922812
 30
0.0
 11
296.92189491809398
 21
442.6572008922812
 31
0.0
  0
ARC
  5
9A9
  8
1
 10
316.92189491809438
 20
419.1572008922808
 30
0.0
 40
3.0
 50
90.0
 51
180.0
  0
ARC
  5
9AA
  8
1
 10
301.7218949180874
 20
435.45720089228269
 30
0.0
 40
0.8
 50
180.0
 51
270.0
  0
LINE
  5
9AC
  8
1
 10
313.92189491809398
 20
417.65720089228029
 30
0.0
 11
313.92189491809398
 21
417.65720089228029
 31
0.0
  0
LINE
  5
9AD
  8
1
 10
296.92189491809398
 20
428.2785212358412
 30
0.0
 11
306.04321526165398
 21
419.15720089228029
 31
0.0
  0
LINE
  5
9AE
  8
1
 10
297.92189491809398
 20
512.3307225895278
 30
0.0
 11
296.92189491809398
 21
512.3307225895278
 31
0.0
  0
ARC
  5
9AF
  8
1
 10
297.92189491809438
 20
510.33072258952819
 30
0.0
 40
2.0
 50
0.0
 51
90.0
  0
ARC
  5
9B2
  8
1
 62
     8
 10
341.92189491809353
 20
550.6572008922808
 30
0.0
 40
8.0
 50
180.0
 51
270.0
  0
ARC
  5
9B3
  8
1
 62
     8
 10
335.92189491809353
 20
539.6572008922808
 30
0.0
 40
2.0
 50
90.0
 51
180.0
  0
LINE
  5
9B4
  8
1
 10
277.8218949180955
 20
544.11142649486283
 30
0.0
 11
289.82189491809362
 21
544.11142649486192
 31
0.0
  0
LINE
  5
9B5
  8
1
 10
282.82189491809447
 20
555.09920583122846
 30
0.0
 11
289.82189491809362
 21
555.09920583122846
 31
0.0
  0
ARC
  5
9B6
  8
1
 10
282.82189491809498
 20
550.09920583122903
 30
0.0
 40
5.0
 50
90.0
 51
180.0
  0
LINE
  5
9B7
  8
1
 10
293.82189491809368
 20
545.65720089228137
 30
0.0
 11
289.82189491809447
 21
545.65720089228034
 31
0.0
  0
LINE
  5
9B8
  8
1
 10
295.42189491809398
 20
543.40720089228034
 30
0.0
 11
293.82189491809368
 21
543.40720089228034
 31
0.0
  0
LINE
  5
9B9
  8
1
 10
300.92189491809398
 20
547.65720089228034
 30
0.0
 11
296.92189491809398
 21
547.65720089228034
 31
0.0
  0
LINE
  5
9BA
  8
1
 10
296.92189491809398
 20
557.65720089228034
 30
0.0
 11
295.42189491809398
 21
557.65720089228034
 31
0.0
  0
ARC
  5
9D2
  8
1
 62
     8
 10
341.92189491809353
 20
475.65720089228262
 30
0.0
 40
8.0
 50
180.0
 51
270.0
  0
ARC
  5
9D3
  8
1
 62
     8
 10
341.92189491809353
 20
475.65720089228262
 30
0.0
 40
10.0
 50
180.0
 51
270.0
  0
ARC
  5
9D5
  8
1
 62
     8
 10
335.92189491809353
 20
523.6572008922808
 30
0.0
 40
2.0
 50
90.0
 51
180.0
  0
LINE
  5
9D7
  8
1
 10
277.82189491809447
 20
531.13427759471415
 30
0.0
 11
289.82189491809362
 21
531.13427759471415
 31
0.0
  0
LINE
  5
9D8
  8
1
 10
282.82189491809447
 20
520.21519595333302
 30
0.0
 11
289.82189491809362
 21
520.21519595333302
 31
0.0
  0
ARC
  5
9D9
  8
1
 10
282.82189491809498
 20
525.21519595333427
 30
0.0
 40
5.0
 50
180.0
 51
270.0
  0
LINE
  5
9DA
  8
1
 10
277.82189491809447
 20
550.09920583122903
 30
0.0
 11
277.82189491809447
 21
525.21519595333302
 31
0.0
  0
LINE
  5
9DD
  8
1
 10
289.82189491809362
 20
555.09920583122846
 30
0.0
 11
289.82189491809362
 21
520.21519595333302
 31
0.0
  0
LINE
  5
9DE
  8
1
 10
293.82189491809368
 20
529.65720089228034
 30
0.0
 11
289.82189491809447
 21
529.65720089228034
 31
0.0
  0
LINE
  5
9DF
  8
1
 10
293.82189491809368
 20
545.65720089228137
 30
0.0
 11
293.82189491809368
 21
529.65720089228034
 31
0.0
  0
LINE
  5
9E0
  8
1
 10
295.42189491809398
 20
531.90720089228034
 30
0.0
 11
293.82189491809368
 21
531.90720089228034
 31
0.0
  0
LINE
  5
9E1
  8
1
 10
300.92189491809398
 20
527.65720089228034
 30
0.0
 11
296.92189491809398
 21
527.65720089228034
 31
0.0
  0
LINE
  5
9E2
  8
1
 62
     8
 10
333.92189491809307
 20
523.65720089228034
 30
0.0
 11
333.92189491809307
 21
475.65720089228211
 31
0.0
  0
LINE
  5
9F2
  8
1
 62
     8
 10
333.92189491809307
 20
539.65720089228034
 30
0.0
 11
333.92189491809307
 21
528.65720089228034
 31
0.0
  0
ARC
  5
9FC
  8
1
 62
     8
 10
341.92189491809353
 20
599.95720089227996
 30
0.0
 40
10.0
 50
90.0
 51
180.0
  0
ARC
  5
9FD
  8
1
 62
     8
 10
341.92189491809353
 20
599.95720089227996
 30
0.0
 40
8.0
 50
90.0
 51
180.0
  0
POINT
  5
9FF
  8
1
 62
     8
 10
464.92189491809398
 20
541.65720089228034
 30
0.0000000000000114
  0
ARC
  5
A01
  8
1
 62
     8
 10
464.92189491809438
 20
539.6572008922808
 30
0.0000000000001068
 40
2.0
 50
0.0
 51
90.0
  0
POINT
  5
A02
  8
1
 62
     8
 10
464.92189491809398
 20
526.65720089228034
 30
0.0000000000000108
  0
POINT
  5
A03
  8
1
 62
     8
 10
464.92189491809398
 20
526.65720089228034
 30
0.0000000000000108
  0
ARC
  5
A06
  8
1
 62
     8
 10
335.92189491809449
 20
528.65720089228068
 30
0.0000000000000438
 40
2.0
 50
180.0
 51
270.0
  0
LINE
  5
A09
  8
1
 10
684.5444075416508
 20
635.75720089227934
 30
0.0
 11
684.5444075416508
 21
476.19486571197859
 31
0.0
  0
LINE
  5
A0A
  8
1
 10
675.74440754165062
 20
639.8572008922788
 30
0.0
 11
675.7444075416505
 21
516.70011525448899
 31
0.0
  0
ARC
  5
A0B
  8
1
 10
631.74438046490957
 20
624.65720089227898
 30
0.0
 40
16.0
 50
90.0
 51
180.0
  0
LINE
  5
A0C
  8
1
 10
678.74440754165153
 20
502.89150745590501
 30
0.0
 11
678.74440754165039
 21
637.61348706593481
 31
0.0
  0
LINE
  5
A0D
  8
1
 10
623.74438046490832
 20
417.65720089227977
 30
0.0
 11
623.74438046490832
 21
424.65720089227813
 31
0.0
  0
LINE
  5
A0E
  8
1
 10
633.74438046490832
 20
417.65720089227977
 30
0.0
 11
633.74438046490832
 21
424.65720089227813
 31
0.0
  0
LINE
  5
A0F
  8
1
 10
677.74438046490832
 20
417.65720089227977
 30
0.0
 11
677.74438046490832
 21
424.65720089227813
 31
0.0
  0
LINE
  5
A10
  8
1
 10
667.74438046490832
 20
417.65720089227977
 30
0.0
 11
667.74438046490832
 21
424.65720089227813
 31
0.0
  0
LINE
  5
A11
  8
1
 10
690.74438046490832
 20
417.65720089227892
 30
0.0
 11
690.74438046490832
 21
442.28842735602888
 31
0.0
  0
LINE
  5
A12
  8
1
 10
610.74438046490832
 20
417.65720089227977
 30
0.0
 11
610.74438046490832
 21
442.28842735602979
 31
0.0
  0
ARC
  5
A15
  8
1
 10
615.74438046490968
 20
607.95720089227825
 30
0.0
 40
2.0
 50
89.999999999999986
 51
180.0
  0
ARC
  5
A16
  8
1
 10
615.74438046490968
 20
527.6572008922808
 30
0.0
 40
1.0
 50
180.0
 51
270.0
  0
LINE
  5
A17
  8
1
 10
611.88418823204393
 20
452.90358703299847
 30
0.0
 11
631.40468796193181
 21
542.75389530045265
 31
0.0
  0
LINE
  5
A18
  8
1
 10
613.74438046490923
 20
607.95720089227916
 30
0.0
 11
613.74438046490923
 21
542.65720089227977
 31
0.0
  0
ARC
  5
A19
  8
1
 10
614.74438046490957
 20
542.65720089227887
 30
0.0
 40
1.0
 50
180.0
 51
270.0
  0
ARC
  5
A1A
  8
1
 10
660.74438046490957
 20
442.28842735602979
 30
0.0
 40
50.0
 50
167.74264048620151
 51
180.0
  0
LINE
  5
A1B
  8
1
 10
614.74438046490923
 20
541.65720089227977
 30
0.0
 11
614.74438046490923
 21
527.65720089228159
 31
0.0
  0
ARC
  5
A1E
  8
1
 10
689.54440754165205
 20
618.55720089227862
 30
0.0
 40
5.0
 50
180.0
 51
270.0
  0
LINE
  5
A1F
  8
1
 10
694.54440754165068
 20
608.55720089227952
 30
0.0
 11
694.54440754165068
 21
564.91131564305715
 31
0.0
  0
ARC
  5
A20
  8
1
 10
689.54440754165205
 20
554.91131564305715
 30
0.0
 40
5.0
 50
89.999999999999986
 51
180.0
  0
ARC
  5
A22
  8
1
 10
689.54440754165205
 20
564.91131564305715
 30
0.0
 40
5.0
 50
270.0
 51
0.0
  0
ARC
  5
A25
  8
1
 10
689.54440754165205
 20
608.55720089227862
 30
0.0
 40
5.0
 50
0.0
 51
89.999999999999986
  0
ARC
  5
A26
  8
1
 10
661.23791872286665
 20
555.84817666829758
 30
0.0
 40
7.5006177255548794
 50
185.46306643807389
 51
294.57958863967639
  0
ARC
  5
A27
  8
1
 10
640.2508422069526
 20
555.84817666829758
 30
0.0
 40
7.5006177255548794
 50
245.4204113603235
 51
354.53693356192611
  0
ARC
  5
A28
  8
1
 10
636.71495199539947
 20
548.11784794773985
 30
0.0
 40
1.0
 50
65.420411360323513
 51
143.29098727226079
  0
ARC
  5
A29
  8
1
 10
650.74438046490957
 20
537.65720089227887
 30
0.0
 40
18.5
 50
143.29098727226079
 51
156.68768518886509
  0
ARC
  5
A2A
  8
1
 10
634.67305694575725
 20
544.5827016209455
 30
0.0
 40
1.0
 50
156.68768518886509
 51
234.55826110079781
  0
ARC
  5
A2B
  8
1
 10
666.81570398406211
 20
544.5827016209455
 30
0.0
 40
1.0
 50
305.44173889920211
 51
23.312314811134769
  0
ARC
  5
A2C
  8
1
 10
650.74438046490957
 20
537.65720089227887
 30
0.0
 40
18.5
 50
23.312314811134769
 51
36.709012727739101
  0
ARC
  5
A2D
  8
1
 10
664.77380893441978
 20
548.11784794773985
 30
0.0
 40
1.0
 50
36.709012727739101
 51
114.5795886396764
  0
ARC
  5
A2E
  8
1
 10
652.7759127164768
 20
555.03888310980017
 30
0.0
 40
1.0
 50
5.4630664380738923
 51
83.333642350057033
  0
ARC
  5
A2F
  8
1
 10
650.74438046490957
 20
537.65720089227887
 30
0.0
 40
18.5
 50
83.333642350057033
 51
96.666357649942938
  0
ARC
  5
A30
  8
1
 10
648.71284821334245
 20
555.03888310980017
 30
0.0
 40
1.0
 50
96.666357649942938
 51
174.53693356192599
  0
LINE
  5
A31
  8
1
 62
     8
 10
710.5444075416508
 20
492.00782573976949
 30
0.0
 11
710.5444075416508
 21
463.70782573977021
 31
0.0
  0
LINE
  5
A34
  8
1
 62
     8
 10
686.54440754165068
 20
497.00782573976949
 30
0.0
 11
686.54440754165171
 21
466.98912717959001
 31
0.0
  0
LINE
  5
A35
  8
1
 62
     8
 10
697.5444075416508
 20
497.00782573976949
 30
0.0
 11
697.5444075416508
 21
458.70782573977021
 31
0.0
  0
LINE
  5
A36
  8
1
 62
     8
 10
692.5444075416508
 20
497.00782573976949
 30
0.0
 11
692.54440754164989
 21
458.70782573977021
 31
0.0
  0
LINE
  5
A37
  8
1
 62
     8
 10
695.5444075416508
 20
497.00782573976949
 30
0.0
 11
695.5444075416508
 21
458.70782573977021
 31
0.0
  0
LINE
  5
A42
  8
1
 62
     8
 10
692.5444075416508
 20
464.65782573976912
 30
0.0
 11
695.5444075416508
 21
464.65782573976998
 31
0.0
  0
LINE
  5
A43
  8
1
 62
     8
 10
692.5444075416508
 20
466.45782573976931
 30
0.0
 11
695.5444075416508
 21
466.45782573976931
 31
0.0
  0
LINE
  5
A44
  8
1
 62
     8
 10
695.5444075416508
 20
458.70782573977021
 30
0.0
 11
705.5444075416508
 21
458.70782573977021
 31
0.0
  0
LINE
  5
A45
  8
1
 62
     8
 10
692.5444075416508
 20
466.38099094819381
 30
0.0
 11
686.54440754165068
 21
466.38099094819381
 31
0.0
  0
LINE
  5
A46
  8
1
 62
     8
 10
710.5444075416508
 20
466.38099094819472
 30
0.0
 11
697.5444075416508
 21
466.38099094819472
 31
0.0
  0
LINE
  5
A47
  8
1
 62
     8
 10
710.5444075416508
 20
468.98099094819497
 30
0.0
 11
697.5444075416508
 21
468.98099094819412
 31
0.0
  0
LINE
  5
A48
  8
1
 62
     8
 10
710.5444075416508
 20
467.38099094819461
 30
0.0
 11
697.5444075416508
 21
467.38099094819461
 31
0.0
  0
ARC
  5
A49
  8
1
 62
     8
 10
705.54440754165205
 20
463.70782573977021
 30
0.0
 40
5.0
 50
270.0
 51
0.0
  0
LINE
  5
A4A
  8
1
 62
     8
 10
692.5444075416508
 20
458.70782573977021
 30
0.0
 11
688.34356823053713
 21
458.70782573977021
 31
0.0
  0
ARC
  5
A50
  8
1
 10
640.74438046490968
 20
442.28842735602888
 30
0.0
 40
50.0
 50
0.0
 51
12.25735951379842
  0
LINE
  5
A58
  8
1
 62
     8
 10
686.54440754165068
 20
497.00782573976949
 30
0.0
 11
684.5444075416508
 21
497.00782573976949
 31
0.0
  0
LINE
  5
A59
  8
1
 62
     8
 10
692.5444075416508
 20
497.00782573976949
 30
0.0
 11
686.54440754165068
 21
497.00782573976949
 31
0.0
  0
LINE
  5
A5A
  8
1
 62
     8
 10
705.5444075416508
 20
497.00782573976949
 30
0.0
 11
695.5444075416508
 21
497.00782573976949
 31
0.0
  0
LINE
  5
A5C
  8
1
 62
     8
 10
684.5444075416508
 20
489.25782573976937
 30
0.0
 11
686.54440754165068
 21
489.25782573976937
 31
0.0
  0
LINE
  5
A5D
  8
1
 62
     8
 10
684.5444075416508
 20
491.05782573976973
 30
0.0
 11
686.54440754165068
 21
491.05782573976973
 31
0.0
  0
LINE
  5
A5E
  8
1
 62
     8
 10
692.5444075416508
 20
489.25782573976937
 30
0.0
 11
695.5444075416508
 21
489.25782573976937
 31
0.0
  0
LINE
  5
A5F
  8
1
 62
     8
 10
692.5444075416508
 20
491.05782573976973
 30
0.0
 11
695.5444075416508
 21
491.05782573976973
 31
0.0
  0
LINE
  5
A60
  8
1
 62
     8
 10
692.5444075416508
 20
489.33466053134498
 30
0.0
 11
686.54440754165068
 21
489.33466053134589
 31
0.0
  0
LINE
  5
A61
  8
1
 62
     8
 10
692.5444075416508
 20
485.73466053134553
 30
0.0
 11
686.54440754165068
 21
485.73466053134553
 31
0.0
  0
LINE
  5
A62
  8
1
 62
     8
 10
692.5444075416508
 20
469.98099094819412
 30
0.0
 11
686.54440754165068
 21
469.98099094819412
 31
0.0
  0
LINE
  5
A63
  8
1
 62
     8
 10
710.5444075416508
 20
469.98099094819509
 30
0.0
 11
697.5444075416508
 21
469.98099094819412
 31
0.0
  0
LINE
  5
A64
  8
1
 62
     8
 10
710.5444075416508
 20
488.33466053134492
 30
0.0
 11
697.5444075416508
 21
488.33466053134492
 31
0.0
  0
LINE
  5
A65
  8
1
 62
     8
 10
710.5444075416508
 20
486.7346605313445
 30
0.0
 11
697.5444075416508
 21
486.73466053134553
 31
0.0
  0
LINE
  5
A66
  8
1
 62
     8
 10
710.5444075416508
 20
489.33466053134498
 30
0.0
 11
697.5444075416508
 21
489.33466053134498
 31
0.0
  0
LINE
  5
A67
  8
1
 62
     8
 10
710.5444075416508
 20
485.73466053134462
 30
0.0
 11
697.5444075416508
 21
485.73466053134553
 31
0.0
  0
ARC
  5
A69
  8
1
 62
     8
 10
705.54440754165205
 20
492.00782573976949
 30
0.0
 40
5.0
 50
0.0
 51
89.999999999999986
  0
ARC
  5
A6A
  8
1
 10
661.23791872286665
 20
519.46622511626219
 30
0.0
 40
7.5006177255548794
 50
65.420411360323513
 51
174.53693356192599
  0
ARC
  5
A6B
  8
1
 10
634.67305694575725
 20
530.73170016361428
 30
0.0
 40
1.0
 50
125.44173889920209
 51
203.3123148111348
  0
ARC
  5
A6C
  8
1
 10
650.74438046490957
 20
537.65720089227887
 30
0.0
 40
18.5
 50
203.3123148111348
 51
216.70901272773901
  0
ARC
  5
A6D
  8
1
 10
636.71495199539947
 20
527.196553836818
 30
0.0
 40
1.0
 50
216.70901272773901
 51
294.57958863967639
  0
ARC
  5
A6E
  8
1
 10
640.2508422069526
 20
519.46622511626219
 30
0.0
 40
7.5006177255548794
 50
5.4630664380738923
 51
114.5795886396764
  0
ARC
  5
A6F
  8
1
 10
648.71284821334245
 20
520.27551867475938
 30
0.0
 40
1.0
 50
185.46306643807389
 51
263.333642350057
  0
ARC
  5
A70
  8
1
 10
650.74438046490957
 20
537.65720089227887
 30
0.0
 40
18.5
 50
263.333642350057
 51
276.66635764994288
  0
ARC
  5
A71
  8
1
 10
652.7759127164768
 20
520.27551867475938
 30
0.0
 40
1.0
 50
276.66635764994288
 51
354.53693356187421
  0
ARC
  5
A72
  8
1
 10
666.81570398406211
 20
530.73170016361428
 30
0.0
 40
1.0
 50
336.68768518886509
 51
54.558261100797829
  0
ARC
  5
A73
  8
1
 10
650.74438046490957
 20
537.65720089227887
 30
0.0
 40
18.5
 50
323.29098727226079
 51
336.68768518886509
  0
ARC
  5
A74
  8
1
 10
664.77380893441978
 20
527.196553836818
 30
0.0
 40
1.0
 50
245.4204113603235
 51
323.29098727226079
  0
LINE
  5
A75
  8
1
 10
615.74438046490923
 20
526.65720089228171
 30
0.0
 11
615.74438046490923
 21
526.65720089228171
 31
0.0
  0
LINE
  5
A76
  8
1
 10
689.6045726977726
 20
452.90358703299762
 30
0.0
 11
670.08407296788482
 21
542.75389530045265
 31
0.0
  0
LINE
  5
A77
  8
1
 10
615.74438046490832
 20
624.65720089227898
 30
0.0
 11
615.74438046490923
 21
470.67154722325222
 31
0.0
  0
CIRCLE
  5
A7A
  8
1
 10
650.74438046490957
 20
537.65720089227887
 30
0.0
 40
4.5
  0
CIRCLE
  5
A7B
  8
1
 10
650.74438046490957
 20
537.65720089227887
 30
0.0
 40
5.0
  0
CIRCLE
  5
A7C
  8
1
 10
650.74438046490957
 20
537.65720089227887
 30
0.0
 40
7.5
  0
ARC
  5
A7D
  8
1
 10
629.74376273935513
 20
537.65720089228068
 30
0.0
 40
7.5006177255548794
 50
305.44173889920211
 51
54.558261100797829
  0
ARC
  5
A7E
  8
1
 10
671.74499819046423
 20
537.65720089228068
 30
0.0
 40
7.5006177255548794
 50
125.44173889920209
 51
234.55826110079781
  0
LINE
  5
A7F
  8
1
 10
674.94440754165169
 20
640.65720089227898
 30
0.0
 11
631.74438046490957
 21
640.65720089227898
 31
0.0
  0
LINE
  5
A81
  8
1
 10
675.74440754165062
 20
638.15720089227625
 30
0.0
 11
678.25313374486996
 21
638.11341091351323
 31
0.0
  0
ARC
  5
A82
  8
1
 10
683.74440754165096
 20
635.75720089227934
 30
0.0
 40
0.8
 50
0.0
 51
89.999999999999986
  0
LINE
  5
A83
  8
1
 10
678.74440754165062
 20
636.55720089227952
 30
0.0
 11
683.74440754165062
 21
636.55720089227952
 31
0.0
  0
ARC
  5
A85
  8
1
 10
678.24440754165107
 20
637.61348706593481
 30
0.0
 40
0.5
 50
0.0
 51
89.000000000023817
  0
ARC
  5
A87
  8
1
 10
674.94440754165169
 20
639.85720089227777
 30
0.0
 40
0.8
 50
0.0
 51
90.0
  0
ARC
  5
D61
  8
1
 10
522.07189491809538
 20
313.851883490749
 30
0.0
 40
5.0
 50
0.0
 51
90.0
  0
ARC
  5
D70
  8
1
 62
     8
 10
450.37048660706392
 20
247.30987855180041
 30
0.0
 40
5.0
 50
180.0
 51
270.0
  0
LINE
  5
D71
  8
1
 62
     8
 10
449.47189491809598
 20
260.60987855180099
 30
0.0
 11
449.47189491809598
 21
255.6098785518011
 31
0.0
  0
LINE
  5
D72
  8
1
 62
     8
 10
448.47189491809598
 20
260.60987855180099
 30
0.0
 11
448.47189491809598
 21
255.6098785518011
 31
0.0
  0
LINE
  5
D73
  8
1
 62
     8
 10
449.7250383404234
 20
260.60987855180099
 30
0.0
 11
449.7250383404234
 21
261.40987855180128
 31
0.0
  0
LINE
  5
D74
  8
1
 62
     8
 10
454.92119076325702
 20
260.60987855180099
 30
0.0
 11
454.92119076325702
 21
261.40987855180128
 31
0.0
  0
LINE
  5
D75
  8
1
 62
     8
 10
450.92119076325889
 20
242.30987855180089
 30
0.0
 11
450.92119076325889
 21
255.6098785518011
 31
0.0
  0
LINE
  5
D76
  8
1
 62
     8
 10
452.92119076325878
 20
242.30987855180089
 30
0.0
 11
452.92119076325878
 21
255.6098785518011
 31
0.0
  0
LINE
  5
D77
  8
1
 62
     8
 10
451.92119076325878
 20
242.30987855180089
 30
0.0
 11
451.92119076325878
 21
255.6098785518011
 31
0.0
  0
LINE
  5
D78
  8
1
 62
     8
 10
454.92119076325702
 20
242.30987855180089
 30
0.0
 11
454.92119076325702
 21
255.6098785518011
 31
0.0
  0
LINE
  5
D79
  8
1
 62
     8
 10
449.7250383404234
 20
242.3517139180789
 30
0.0
 11
449.7250383404234
 21
255.6098785518011
 31
0.0
  0
LINE
  5
D7A
  8
1
 62
     8
 10
445.3704866070629
 20
247.30987855180089
 30
0.0
 11
445.3704866070629
 21
255.6098785518011
 31
0.0
  0
LINE
  5
D7B
  8
1
 62
     8
 10
436.12189491809562
 20
257.6098785518011
 30
0.0
 11
446.62189491809562
 21
257.6098785518011
 31
0.0
  0
LINE
  5
D7C
  8
1
 62
     8
 10
435.62189491809568
 20
258.10987855180099
 30
0.0
 11
447.12189491809568
 21
258.10987855180099
 31
0.0
  0
LINE
  5
D7D
  8
1
 62
     8
 10
436.12189491809562
 20
257.6098785518011
 30
0.0
 11
446.62189491809562
 21
257.6098785518011
 31
0.0
  0
LINE
  5
D7E
  8
1
 62
     8
 10
435.62189491809568
 20
258.10987855180099
 30
0.0
 11
447.12189491809568
 21
258.10987855180099
 31
0.0
  0
LINE
  5
D7F
  8
1
 62
     8
 10
438.50864626404382
 20
258.10987855180099
 30
0.0
 11
438.50864626404382
 21
261.40987855180128
 31
0.0
  0
LINE
  5
D80
  8
1
 62
     8
 10
438.50864626404382
 20
258.10987855180099
 30
0.0
 11
438.50864626404382
 21
261.40987855180128
 31
0.0
  0
LINE
  5
D81
  8
1
 62
     8
 10
447.12189491809568
 20
258.10987855180099
 30
0.0
 11
447.12189491809568
 21
261.40987855180128
 31
0.0
  0
LINE
  5
D82
  8
1
 62
     8
 10
446.62189491809562
 20
257.6098785518011
 30
0.0
 11
447.12189491809568
 21
258.10987855180099
 31
0.0
  0
LINE
  5
D83
  8
1
 62
     8
 10
444.40877837069911
 20
258.10987855180099
 30
0.0
 11
444.40877837069911
 21
261.40987855180128
 31
0.0
  0
LINE
  5
D84
  8
1
 62
     8
 10
447.12189491809568
 20
258.10987855180099
 30
0.0
 11
447.12189491809568
 21
261.40987855180128
 31
0.0
  0
LINE
  5
D85
  8
1
 62
     8
 10
446.62189491809562
 20
257.6098785518011
 30
0.0
 11
447.12189491809568
 21
258.10987855180099
 31
0.0
  0
LINE
  5
D86
  8
1
 62
     8
 10
444.40877837069911
 20
258.10987855180099
 30
0.0
 11
444.40877837069911
 21
261.40987855180128
 31
0.0
  0
LINE
  5
D87
  8
1
 62
     8
 10
435.62189491809568
 20
258.10987855180099
 30
0.0
 11
435.62189491809568
 21
261.40987855180128
 31
0.0
  0
LINE
  5
D88
  8
1
 62
     8
 10
435.62189491809568
 20
258.10987855180099
 30
0.0
 11
435.62189491809568
 21
261.40987855180128
 31
0.0
  0
LINE
  5
D89
  8
1
 62
     8
 10
436.12189491809562
 20
257.6098785518011
 30
0.0
 11
435.62189491809568
 21
258.10987855180099
 31
0.0
  0
ARC
  5
D8B
  8
1
 62
     8
 10
466.57330322912912
 20
247.30987855180041
 30
0.0
 40
5.0
 50
270.0
 51
0.0
  0
LINE
  5
D8C
  8
1
 62
     8
 10
479.1218949180938
 20
257.6098785518011
 30
0.0
 11
478.62189491809391
 21
258.10987855180099
 31
0.0
  0
LINE
  5
D8D
  8
1
 62
     8
 10
478.62189491809391
 20
258.10987855180099
 30
0.0
 11
478.62189491809391
 21
261.40987855180128
 31
0.0
  0
LINE
  5
D8E
  8
1
 62
     8
 10
479.1218949180938
 20
257.6098785518011
 30
0.0
 11
478.62189491809391
 21
258.10987855180099
 31
0.0
  0
LINE
  5
D8F
  8
1
 62
     8
 10
478.62189491809391
 20
258.10987855180099
 30
0.0
 11
478.62189491809391
 21
261.40987855180128
 31
0.0
  0
LINE
  5
D90
  8
1
 62
     8
 10
487.40877837069729
 20
258.10987855180099
 30
0.0
 11
487.40877837069729
 21
261.40987855180128
 31
0.0
  0
LINE
  5
D91
  8
1
 62
     8
 10
489.6218949180938
 20
257.6098785518011
 30
0.0
 11
490.1218949180938
 21
258.10987855180099
 31
0.0
  0
LINE
  5
D92
  8
1
 62
     8
 10
490.1218949180938
 20
258.10987855180099
 30
0.0
 11
490.1218949180938
 21
261.40987855180128
 31
0.0
  0
LINE
  5
D93
  8
1
 62
     8
 10
487.40877837069729
 20
258.10987855180099
 30
0.0
 11
487.40877837069729
 21
261.40987855180128
 31
0.0
  0
LINE
  5
D94
  8
1
 62
     8
 10
489.6218949180938
 20
257.6098785518011
 30
0.0
 11
490.1218949180938
 21
258.10987855180099
 31
0.0
  0
LINE
  5
D95
  8
1
 62
     8
 10
490.1218949180938
 20
258.10987855180099
 30
0.0
 11
490.1218949180938
 21
261.40987855180128
 31
0.0
  0
LINE
  5
D96
  8
1
 62
     8
 10
481.508646264042
 20
258.10987855180099
 30
0.0
 11
481.508646264042
 21
261.40987855180128
 31
0.0
  0
LINE
  5
D97
  8
1
 62
     8
 10
481.508646264042
 20
258.10987855180099
 30
0.0
 11
481.508646264042
 21
261.40987855180128
 31
0.0
  0
LINE
  5
D98
  8
1
 62
     8
 10
478.62189491809391
 20
258.10987855180099
 30
0.0
 11
490.1218949180938
 21
258.10987855180099
 31
0.0
  0
LINE
  5
D99
  8
1
 62
     8
 10
479.1218949180938
 20
257.6098785518011
 30
0.0
 11
489.6218949180938
 21
257.6098785518011
 31
0.0
  0
LINE
  5
D9A
  8
1
 62
     8
 10
478.62189491809391
 20
258.10987855180099
 30
0.0
 11
490.1218949180938
 21
258.10987855180099
 31
0.0
  0
LINE
  5
D9B
  8
1
 62
     8
 10
479.1218949180938
 20
257.6098785518011
 30
0.0
 11
489.6218949180938
 21
257.6098785518011
 31
0.0
  0
LINE
  5
D9C
  8
1
 10
527.07189491809356
 20
294.9556529492188
 30
0.0
 11
515.07189491809538
 21
294.95565294921971
 31
0.0
  0
LINE
  5
D9D
  8
1
 10
527.07189491809538
 20
307.93280184936742
 30
0.0
 11
515.07189491809538
 21
307.93280184936742
 31
0.0
  0
LINE
  5
D9E
  8
1
 10
522.07189491809538
 20
283.967873612853
 30
0.0
 11
515.07189491809538
 21
283.967873612853
 31
0.0
  0
ARC
  5
D9F
  8
1
 10
522.07189491809538
 20
288.9678736128534
 30
0.0
 40
5.0
 50
270.0
 51
0.0
  0
LINE
  5
DA0
  8
1
 10
527.07189491809538
 20
313.851883490749
 30
0.0
 11
527.07189491809538
 21
288.967873612853
 31
0.0
  0
LINE
  5
DA2
  8
1
 10
515.07189491809538
 20
318.85188349074849
 30
0.0
 11
515.07189491809538
 21
283.967873612853
 31
0.0
  0
LINE
  5
DA3
  8
1
 10
511.0718949180955
 20
293.40987855180032
 30
0.0
 11
515.07189491809538
 21
293.40987855180123
 31
0.0
  0
LINE
  5
DA4
  8
1
 10
511.0718949180955
 20
309.40987855180128
 30
0.0
 11
515.07189491809538
 21
309.40987855180128
 31
0.0
  0
LINE
  5
DA5
  8
1
 10
511.0718949180955
 20
309.40987855180128
 30
0.0
 11
511.0718949180955
 21
293.40987855180032
 31
0.0
  0
LINE
  5
DA7
  8
1
 10
509.47189491809507
 20
307.15987855180128
 30
0.0
 11
511.0718949180955
 21
307.15987855180128
 31
0.0
  0
LINE
  5
DA8
  8
1
 10
509.47189491809507
 20
295.65987855180123
 30
0.0
 11
511.0718949180955
 21
295.65987855180123
 31
0.0
  0
LINE
  5
DAC
  8
1
 62
     8
 10
468.47189491809598
 20
260.60987855180099
 30
0.0
 11
468.47189491809598
 21
255.6098785518011
 31
0.0
  0
LINE
  5
DAD
  8
1
 62
     8
 10
467.47189491809598
 20
260.60987855180099
 30
0.0
 11
467.47189491809598
 21
255.6098785518011
 31
0.0
  0
LINE
  5
DAE
  8
1
 62
     8
 10
471.57330322912719
 20
260.60987855180099
 30
0.0
 11
471.57330322912912
 21
261.40987855180128
 31
0.0
  0
LINE
  5
DAF
  8
1
 62
     8
 10
462.02259907428828
 20
260.60987855180099
 30
0.0
 11
462.02259907428828
 21
261.40987855180128
 31
0.0
  0
LINE
  5
DB0
  8
1
 62
     8
 10
467.218751496869
 20
260.60987855180099
 30
0.0
 11
467.218751496869
 21
261.40987855180128
 31
0.0
  0
LINE
  5
DB1
  8
1
 62
     8
 10
466.02259907429197
 20
242.30987855180089
 30
0.0
 11
466.02259907429197
 21
255.6098785518011
 31
0.0
  0
LINE
  5
DB2
  8
1
 62
     8
 10
464.02259907429192
 20
242.30987855180089
 30
0.0
 11
464.02259907429192
 21
255.6098785518011
 31
0.0
  0
LINE
  5
DB3
  8
1
 62
     8
 10
465.02259907429192
 20
242.30987855180089
 30
0.0
 11
465.02259907429192
 21
255.6098785518011
 31
0.0
  0
LINE
  5
DB4
  8
1
 62
     8
 10
462.02259907428828
 20
242.30987855180089
 30
0.0
 11
462.02259907428828
 21
255.6098785518011
 31
0.0
  0
LINE
  5
DB5
  8
1
 62
     8
 10
467.218751496869
 20
242.35171391822169
 30
0.0
 11
467.218751496869
 21
255.6098785518011
 31
0.0
  0
LINE
  5
DB6
  8
1
 62
     8
 10
471.57330322912912
 20
247.30987855180089
 30
0.0
 11
471.57330322912719
 21
255.6098785518011
 31
0.0
  0
LINE
  5
DB7
  8
1
 62
     8
 10
466.57330322912912
 20
242.30987855180089
 30
0.0
 11
450.3704866070629
 21
242.30987855180089
 31
0.0
  0
LINE
  5
DB8
  8
1
 62
     8
 10
447.12189491809568
 20
260.60987855180099
 30
0.0
 11
471.57330322912719
 21
260.60987855180099
 31
0.0
  0
LINE
  5
DB9
  8
1
 62
     8
 10
471.57330322912719
 20
255.6098785518011
 30
0.0
 11
445.3704866070629
 21
255.6098785518011
 31
0.0
  0
LINE
  5
DCA
  8
1
 10
522.07189491809538
 20
318.85188349074849
 30
0.0
 11
515.07189491809538
 21
318.85188349074849
 31
0.0
  0
ARC
  5
DD2
  8
1
 10
279.62189491809471
 20
313.851883490749
 30
0.0
 40
5.0
 50
90.0
 51
180.0
  0
LINE
  5
E26
  8
1
 62
     8
 10
348.57330322912912
 20
242.30987855180089
 30
0.0
 11
332.3704866070629
 21
242.30987855180089
 31
0.0
  0
LINE
  5
E27
  8
1
 62
     8
 10
327.3704866070629
 20
260.60987855180099
 30
0.0
 11
349.62189491809738
 21
260.60987855180099
 31
0.0
  0
LINE
  5
E28
  8
1
 62
     8
 10
353.5733032291273
 20
255.6098785518011
 30
0.0
 11
327.3704866070629
 21
255.6098785518011
 31
0.0
  0
ARC
  5
E29
  8
1
 62
     8
 10
348.57330322912912
 20
247.30987855180041
 30
0.0
 40
5.0
 50
270.0
 51
0.0
  0
LINE
  5
E2A
  8
1
 62
     8
 10
350.47189491809598
 20
257.6098785518011
 30
0.0
 11
350.47189491809598
 21
255.6098785518011
 31
0.0
  0
LINE
  5
E2B
  8
1
 62
     8
 10
349.47189491809598
 20
260.60987855180099
 30
0.0
 11
349.47189491809598
 21
255.6098785518011
 31
0.0
  0
LINE
  5
E2C
  8
1
 62
     8
 10
336.92119076325702
 20
260.60987855180099
 30
0.0
 11
336.92119076325702
 21
261.40987855180128
 31
0.0
  0
LINE
  5
E2D
  8
1
 62
     8
 10
344.02259907428828
 20
260.60987855180099
 30
0.0
 11
344.02259907428828
 21
261.40987855180128
 31
0.0
  0
LINE
  5
E2E
  8
1
 62
     8
 10
349.21875149686912
 20
260.60987855180099
 30
0.0
 11
349.21875149686912
 21
261.40987855180128
 31
0.0
  0
LINE
  5
E2F
  8
1
 62
     8
 10
348.02259907429192
 20
242.30987855180089
 30
0.0
 11
348.02259907429192
 21
255.6098785518011
 31
0.0
  0
LINE
  5
E30
  8
1
 62
     8
 10
346.02259907429197
 20
242.30987855180089
 30
0.0
 11
346.02259907429197
 21
255.6098785518011
 31
0.0
  0
LINE
  5
E31
  8
1
 62
     8
 10
347.02259907429192
 20
242.30987855180089
 30
0.0
 11
347.02259907429192
 21
255.6098785518011
 31
0.0
  0
LINE
  5
E32
  8
1
 62
     8
 10
336.92119076325702
 20
242.30987855180089
 30
0.0
 11
336.92119076325702
 21
255.6098785518011
 31
0.0
  0
LINE
  5
E33
  8
1
 62
     8
 10
344.02259907428828
 20
242.30987855180089
 30
0.0
 11
344.02259907428828
 21
255.6098785518011
 31
0.0
  0
LINE
  5
E34
  8
1
 62
     8
 10
349.21875149686912
 20
242.35171391822169
 30
0.0
 11
349.21875149686912
 21
255.6098785518011
 31
0.0
  0
LINE
  5
E35
  8
1
 62
     8
 10
353.57330322912912
 20
247.30987855180089
 30
0.0
 11
353.5733032291273
 21
255.6098785518011
 31
0.0
  0
LINE
  5
E36
  8
1
 62
     8
 10
330.47189491809598
 20
257.6098785518011
 30
0.0
 11
324.02189491809889
 21
257.6098785518011
 31
0.0
  0
LINE
  5
E37
  8
1
 62
     8
 10
307.12189491809931
 20
257.6098785518011
 30
0.0
 11
306.62189491809931
 21
258.10987855180099
 31
0.0
  0
LINE
  5
E38
  8
1
 62
     8
 10
306.62189491809931
 20
258.10987855180099
 30
0.0
 11
306.62189491809931
 21
261.40987855180128
 31
0.0
  0
LINE
  5
E39
  8
1
 62
     8
 10
307.1218949180975
 20
257.6098785518011
 30
0.0
 11
306.62189491809738
 21
258.10987855180099
 31
0.0
  0
LINE
  5
E3A
  8
1
 62
     8
 10
306.62189491809738
 20
258.10987855180099
 30
0.0
 11
306.62189491809738
 21
261.40987855180128
 31
0.0
  0
LINE
  5
E3B
  8
1
 62
     8
 10
315.40877837070269
 20
258.10987855180099
 30
0.0
 11
315.40877837070269
 21
261.40987855180128
 31
0.0
  0
LINE
  5
E3C
  8
1
 62
     8
 10
317.62189491809931
 20
257.6098785518011
 30
0.0
 11
318.12189491809931
 21
258.10987855180099
 31
0.0
  0
LINE
  5
E3D
  8
1
 62
     8
 10
318.12189491809931
 20
258.10987855180099
 30
0.0
 11
318.12189491809931
 21
261.40987855180128
 31
0.0
  0
LINE
  5
E3E
  8
1
 62
     8
 10
315.40877837070269
 20
258.10987855180099
 30
0.0
 11
315.40877837070269
 21
261.40987855180128
 31
0.0
  0
LINE
  5
E3F
  8
1
 62
     8
 10
317.62189491809931
 20
257.6098785518011
 30
0.0
 11
318.12189491809931
 21
258.10987855180099
 31
0.0
  0
LINE
  5
E40
  8
1
 62
     8
 10
318.12189491809931
 20
258.10987855180099
 30
0.0
 11
318.12189491809931
 21
261.40987855180128
 31
0.0
  0
LINE
  5
E41
  8
1
 62
     8
 10
309.5086462640474
 20
258.10987855180099
 30
0.0
 11
309.5086462640474
 21
261.40987855180128
 31
0.0
  0
LINE
  5
E42
  8
1
 62
     8
 10
309.50864626404558
 20
258.10987855180099
 30
0.0
 11
309.50864626404558
 21
261.40987855180128
 31
0.0
  0
LINE
  5
E43
  8
1
 62
     8
 10
306.62189491809931
 20
258.10987855180099
 30
0.0
 11
318.12189491809931
 21
258.10987855180099
 31
0.0
  0
LINE
  5
E44
  8
1
 62
     8
 10
307.12189491809931
 20
257.6098785518011
 30
0.0
 11
317.62189491809931
 21
257.6098785518011
 31
0.0
  0
LINE
  5
E45
  8
1
 62
     8
 10
306.62189491809738
 20
258.10987855180099
 30
0.0
 11
318.12189491809931
 21
258.10987855180099
 31
0.0
  0
LINE
  5
E46
  8
1
 62
     8
 10
307.1218949180975
 20
257.6098785518011
 30
0.0
 11
317.62189491809931
 21
257.6098785518011
 31
0.0
  0
ARC
  5
E47
  8
1
 62
     8
 10
332.37048660706381
 20
247.30987855180041
 30
0.0
 40
5.0
 50
180.0
 51
270.0
  0
LINE
  5
E48
  8
1
 62
     8
 10
331.47189491809598
 20
260.60987855180099
 30
0.0
 11
331.47189491809598
 21
255.6098785518011
 31
0.0
  0
LINE
  5
E49
  8
1
 62
     8
 10
330.47189491809598
 20
260.60987855180099
 30
0.0
 11
330.47189491809598
 21
255.6098785518011
 31
0.0
  0
LINE
  5
E4A
  8
1
 62
     8
 10
327.3704866070629
 20
261.40987855180128
 30
0.0
 11
327.3704866070629
 21
260.60987855180099
 31
0.0
  0
LINE
  5
E4B
  8
1
 62
     8
 10
331.7250383404234
 20
260.60987855180099
 30
0.0
 11
331.7250383404234
 21
261.40987855180128
 31
0.0
  0
LINE
  5
E4C
  8
1
 62
     8
 10
332.92119076325889
 20
242.30987855180089
 30
0.0
 11
332.92119076325889
 21
255.6098785518011
 31
0.0
  0
LINE
  5
E4D
  8
1
 62
     8
 10
334.92119076325889
 20
242.30987855180089
 30
0.0
 11
334.92119076325889
 21
255.6098785518011
 31
0.0
  0
LINE
  5
E4E
  8
1
 62
     8
 10
333.92119076325878
 20
242.30987855180089
 30
0.0
 11
333.92119076325878
 21
255.6098785518011
 31
0.0
  0
LINE
  5
E4F
  8
1
 62
     8
 10
331.7250383404234
 20
242.3517139180789
 30
0.0
 11
331.7250383404234
 21
255.6098785518011
 31
0.0
  0
LINE
  5
E50
  8
1
 62
     8
 10
327.3704866070629
 20
247.30987855180089
 30
0.0
 11
327.3704866070629
 21
255.6098785518011
 31
0.0
  0
LINE
  5
E51
  8
1
 10
274.62189491809562
 20
294.9556529492188
 30
0.0
 11
286.6218949180938
 21
294.95565294921971
 31
0.0
  0
LINE
  5
E52
  8
1
 10
274.6218949180938
 20
307.93280184936742
 30
0.0
 11
286.6218949180938
 21
307.93280184936742
 31
0.0
  0
LINE
  5
E53
  8
1
 10
279.6218949180938
 20
283.967873612853
 30
0.0
 11
286.6218949180938
 21
283.967873612853
 31
0.0
  0
ARC
  5
E54
  8
1
 10
279.62189491809471
 20
288.9678736128534
 30
0.0
 40
5.0
 50
180.0
 51
270.0
  0
LINE
  5
E55
  8
1
 10
274.6218949180938
 20
313.851883490749
 30
0.0
 11
274.6218949180938
 21
288.967873612853
 31
0.0
  0
LINE
  5
E57
  8
1
 10
286.6218949180938
 20
318.85188349074849
 30
0.0
 11
286.6218949180938
 21
283.967873612853
 31
0.0
  0
LINE
  5
E58
  8
1
 10
290.6218949180938
 20
293.40987855180032
 30
0.0
 11
286.6218949180938
 21
293.40987855180123
 31
0.0
  0
LINE
  5
E59
  8
1
 10
290.6218949180938
 20
309.40987855180128
 30
0.0
 11
286.6218949180938
 21
309.40987855180128
 31
0.0
  0
LINE
  5
E5A
  8
1
 10
290.6218949180938
 20
309.40987855180128
 30
0.0
 11
290.6218949180938
 21
293.40987855180032
 31
0.0
  0
LINE
  5
E5D
  8
1
 10
292.22189491809422
 20
307.15987855180128
 30
0.0
 11
290.6218949180938
 21
307.15987855180128
 31
0.0
  0
LINE
  5
E5E
  8
1
 10
292.22189491809422
 20
295.65987855180123
 30
0.0
 11
290.6218949180938
 21
295.65987855180123
 31
0.0
  0
LINE
  5
E61
  8
1
 62
     8
 10
323.22189491809962
 20
258.40987855180032
 30
0.0
 11
323.22189491809962
 21
261.40987855180128
 31
0.0
  0
ARC
  5
E62
  8
1
 62
     8
 10
324.0218949180998
 20
258.40987855180077
 30
0.0
 40
0.8
 50
180.0
 51
270.0
  0
LINE
  5
E63
  8
1
 62
     8
 10
349.62189491809562
 20
258.10987855180099
 30
0.0
 11
361.12189491809562
 21
258.10987855180099
 31
0.0
  0
LINE
  5
E64
  8
1
 62
     8
 10
349.62189491809562
 20
258.10987855180099
 30
0.0
 11
361.12189491809562
 21
258.10987855180099
 31
0.0
  0
LINE
  5
E65
  8
1
 62
     8
 10
352.50864626404382
 20
258.10987855180099
 30
0.0
 11
352.50864626404382
 21
261.40987855180128
 31
0.0
  0
LINE
  5
E66
  8
1
 62
     8
 10
352.50864626404382
 20
258.10987855180099
 30
0.0
 11
352.50864626404382
 21
261.40987855180128
 31
0.0
  0
LINE
  5
E67
  8
1
 62
     8
 10
361.12189491809562
 20
258.10987855180099
 30
0.0
 11
361.12189491809562
 21
261.40987855180128
 31
0.0
  0
LINE
  5
E68
  8
1
 62
     8
 10
358.40877837069911
 20
258.10987855180099
 30
0.0
 11
358.40877837069911
 21
261.40987855180128
 31
0.0
  0
LINE
  5
E69
  8
1
 62
     8
 10
361.12189491809562
 20
258.10987855180099
 30
0.0
 11
361.12189491809562
 21
261.40987855180128
 31
0.0
  0
LINE
  5
E6A
  8
1
 62
     8
 10
358.40877837069911
 20
258.10987855180099
 30
0.0
 11
358.40877837069911
 21
261.40987855180128
 31
0.0
  0
LINE
  5
E6B
  8
1
 62
     8
 10
349.62189491809562
 20
258.10987855180099
 30
0.0
 11
349.62189491809562
 21
261.40987855180128
 31
0.0
  0
LINE
  5
E6C
  8
1
 62
     8
 10
349.62189491809562
 20
258.10987855180099
 30
0.0
 11
349.62189491809562
 21
261.40987855180128
 31
0.0
  0
LINE
  5
E6D
  8
1
 62
     8
 10
350.12189491809562
 20
257.6098785518011
 30
0.0
 11
360.62189491809562
 21
257.6098785518011
 31
0.0
  0
LINE
  5
E6E
  8
1
 62
     8
 10
350.12189491809562
 20
257.6098785518011
 30
0.0
 11
360.62189491809562
 21
257.6098785518011
 31
0.0
  0
LINE
  5
E6F
  8
1
 62
     8
 10
360.62189491809562
 20
257.6098785518011
 30
0.0
 11
361.12189491809562
 21
258.10987855180099
 31
0.0
  0
LINE
  5
E70
  8
1
 62
     8
 10
360.62189491809562
 20
257.6098785518011
 30
0.0
 11
361.12189491809562
 21
258.10987855180099
 31
0.0
  0
LINE
  5
E71
  8
1
 62
     8
 10
350.12189491809562
 20
257.6098785518011
 30
0.0
 11
349.62189491809562
 21
258.10987855180099
 31
0.0
  0
LINE
  5
E72
  8
1
 62
     8
 10
350.12189491809562
 20
257.6098785518011
 30
0.0
 11
349.62189491809562
 21
258.10987855180099
 31
0.0
  0
LINE
  5
E73
  8
1
 62
     8
 10
361.72189491809598
 20
259.6098785518011
 30
0.0
 11
361.72189491809598
 21
261.40987855180128
 31
0.0
  0
LINE
  5
E74
  8
1
 62
     8
 10
400.0218949180952
 20
246.6098785518011
 30
0.0
 11
400.02189491809622
 21
256.6098785518011
 31
0.0
  0
LINE
  5
E75
  8
1
 62
     8
 10
395.02189491809531
 20
241.60987855180099
 30
0.0
 11
366.72189491809598
 21
241.60987855180099
 31
0.0
  0
LINE
  5
E76
  8
1
 62
     8
 10
400.02189491809582
 20
256.6098785518011
 30
0.0
 11
361.72189491809598
 21
256.6098785518011
 31
0.0
  0
LINE
  5
E77
  8
1
 62
     8
 10
400.02189491809622
 20
259.60987855180059
 30
0.0
 11
361.72189491809598
 21
259.6098785518011
 31
0.0
  0
ARC
  5
E78
  8
1
 62
     8
 10
395.02189491809708
 20
246.60987855180059
 30
0.0
 40
5.0
 50
270.0
 51
0.0
  0
LINE
  5
E79
  8
1
 62
     8
 10
400.02189491809622
 20
254.60987855180059
 30
0.0
 11
361.72189491809598
 21
254.6098785518011
 31
0.0
  0
LINE
  5
E7A
  8
1
 62
     8
 10
388.7487297096713
 20
241.60987855180099
 30
0.0
 11
388.7487297096709
 21
254.60987855180059
 31
0.0
  0
LINE
  5
E7B
  8
1
 62
     8
 10
392.34872970967172
 20
241.60987855180099
 30
0.0
 11
392.34872970967263
 21
254.60987855180059
 31
0.0
  0
LINE
  5
E7C
  8
1
 62
     8
 10
389.7487297096713
 20
241.60987855180099
 30
0.0
 11
389.7487297096713
 21
254.6098785518011
 31
0.0
  0
LINE
  5
E7D
  8
1
 62
     8
 10
391.34872970967172
 20
241.60987855180099
 30
0.0
 11
391.34872970967172
 21
254.60987855180059
 31
0.0
  0
LINE
  5
E7E
  8
1
 62
     8
 10
370.3950601265214
 20
241.60987855180099
 30
0.0
 11
370.3950601265214
 21
254.6098785518011
 31
0.0
  0
LINE
  5
E7F
  8
1
 62
     8
 10
371.99506012652182
 20
241.60987855180099
 30
0.0
 11
371.99506012652
 21
254.6098785518011
 31
0.0
  0
LINE
  5
E80
  8
1
 62
     8
 10
372.99506012652182
 20
241.60987855180099
 30
0.0
 11
372.99506012651989
 21
254.6098785518011
 31
0.0
  0
LINE
  5
E81
  8
1
 62
     8
 10
369.3950601265214
 20
241.60987855180099
 30
0.0
 11
369.3950601265214
 21
254.6098785518011
 31
0.0
  0
LINE
  5
E83
  8
1
 62
     8
 10
361.72189491809598
 20
256.6098785518011
 30
0.0
 11
361.72189491809598
 21
246.6098785518011
 31
0.0
  0
LINE
  5
E84
  8
1
 62
     8
 10
366.47189491809598
 20
259.6098785518011
 30
0.0
 11
366.47189491809598
 21
256.6098785518011
 31
0.0
  0
LINE
  5
E85
  8
1
 62
     8
 10
364.67189491809489
 20
259.6098785518011
 30
0.0
 11
364.67189491809671
 21
256.6098785518011
 31
0.0
  0
ARC
  5
E86
  8
1
 62
     8
 10
366.72189491809689
 20
246.60987855180059
 30
0.0
 40
5.0
 50
180.0
 51
270.0
  0
LINE
  5
E87
  8
1
 62
     8
 10
364.67189491809489
 20
257.6098785518011
 30
0.0
 11
350.47189491809598
 21
257.6098785518011
 31
0.0
  0
LINE
  5
EA1
  8
1
 10
279.6218949180938
 20
318.85188349074849
 30
0.0
 11
286.6218949180938
 21
318.85188349074849
 31
0.0
  0
DIMENSION
  5
135F
  8
MEASURE
  2
*D18
 10
499.9218949180904
 20
675.05746861588523
 30
0.0
 11
400.42189491809648
 21
679.55746861588523
 31
0.0
 70
     0
 13
300.92189491810262
 23
639.85720089227971
 33
0.0
 14
499.9218949180904
 24
639.85720089227925
 34
0.0
1001
ACAD
1000
DSTYLE
1002
{
1070
    40
1040
2.0
1002
}
  0
DIMENSION
  5
136C
  8
MEASURE
  2
*D19
 10
565.36014110902761
 20
417.65720089228029
 30
0.0
 11
560.86014110902738
 21
529.15720089227989
 31
0.0
 70
     0
 13
499.12189491809022
 23
640.65720089227943
 33
0.0
 14
505.62189491809471
 24
417.65720089228029
 34
0.0
 50
90.0
1001
ACAD
1000
DSTYLE
1002
{
1070
    40
1040
2.0
1002
}
  0
DIMENSION
  5
1379
  8
MEASURE
  2
*D20
 10
613.74438046490957
 20
674.85281212061773
 30
0.0
 11
662.14439400328092
 21
679.35281212061773
 31
0.0
 70
     0
 13
710.54440754165205
 23
492.00782573976949
 33
0.0
 14
613.74438046490957
 24
607.95720089227825
 34
0.0
1001
ACAD
1000
DSTYLE
1002
{
1070
    40
1040
2.0
1002
}
  0
LINE
  5
1395
  8
1
 62
     8
 10
397.0718949180964
 20
256.6098785518011
 30
0.0
 11
397.0718949180968
 21
259.60987855180008
 31
0.0
  0
LINE
  5
13B4
  8
1
 62
     8
 10
400.02189491809622
 20
259.60987855180059
 30
0.0
 11
400.02189491809662
 21
261.40987855180128
 31
0.0
  0
LINE
  5
13C4
  8
1
 62
     8
 10
395.27189491809622
 20
256.6098785518011
 30
0.0
 11
395.27189491809662
 21
259.60987855180008
 31
0.0
  0
ARC
  5
1401
  8
1
 10
501.99200818270577
 20
323.40987855180123
 30
0.0
 40
6.2000000000000002
 50
90.0
 51
270.0
  0
ARC
  5
1405
  8
1
 10
501.99200818270577
 20
279.40987855180123
 30
0.0
 40
6.2000000000000002
 50
90.0
 51
270.0
  0
LINE
  5
1408
  8
1
 10
505.72189491809507
 20
290.20987855180141
 30
0.0
 11
497.72189491809507
 21
290.20987855180141
 31
0.0
  0
LINE
  5
1409
  8
1
 10
505.72189491809507
 20
312.60987855180201
 30
0.0
 11
497.72189491809507
 21
312.60987855180201
 31
0.0
  0
LINE
  5
140C
  8
1
 10
509.3218949180955
 20
341.4098785518031
 30
0.0
 11
292.22189491809422
 21
341.40987855180123
 31
0.0
  0
LINE
  5
140D
  8
1
 10
509.3218949180955
 20
261.40987855180128
 30
0.0
 11
292.22189491809422
 21
261.40987855180128
 31
0.0
  0
LINE
  5
140E
  8
1
 10
505.72189491809507
 20
332.0695373673675
 30
0.0
 11
505.72189491809507
 21
270.75021973623677
 31
0.0
  0
LINE
  5
140F
  8
1
 10
508.12189491809471
 20
341.40987855180123
 30
0.0
 11
508.12189491809471
 21
261.40987855180128
 31
0.0
  0
LINE
  5
1410
  8
1
 10
509.3218949180955
 20
341.40987855180123
 30
0.0
 11
509.3218949180955
 21
261.40987855180128
 31
0.0
  0
LINE
  5
1411
  8
1
 10
508.12189491809471
 20
316.5707447335094
 30
0.0
 11
506.72189491809507
 21
315.76245435664299
 31
0.0
  0
ARC
  5
1412
  8
1
 10
507.72189491809507
 20
314.03040354907478
 30
0.0
 40
2.0
 50
119.9999999999972
 51
180.0
  0
LINE
  5
1413
  8
1
 10
508.12189491809471
 20
334.6098785518019
 30
0.0
 11
506.72189491809507
 21
333.8015881749356
 31
0.0
  0
ARC
  5
1414
  8
1
 10
507.72189491809507
 20
332.0695373673675
 30
0.0
 40
2.0
 50
119.9999999999972
 51
180.0
  0
LINE
  5
1416
  8
1
 10
501.99200818270577
 20
329.6098785518019
 30
0.0
 11
505.72189491809507
 21
329.60987855180201
 31
0.0
  0
LINE
  5
1418
  8
1
 10
501.99200818270577
 20
317.20987855180238
 30
0.0
 11
505.72189491809507
 21
317.20987855180238
 31
0.0
  0
ARC
  5
141A
  8
1
 10
507.72189491809507
 20
270.75021973623677
 30
0.0
 40
2.0
 50
180.0
 51
240.0000000000027
  0
LINE
  5
141B
  8
1
 10
508.12189491809471
 20
268.20987855180232
 30
0.0
 11
506.72189491809507
 21
269.01816892866691
 31
0.0
  0
ARC
  5
141C
  8
1
 10
507.72189491809507
 20
288.78935355452938
 30
0.0
 40
2.0
 50
180.0
 51
240.0000000000027
  0
LINE
  5
141D
  8
1
 10
508.12189491809471
 20
286.24901237009499
 30
0.0
 11
506.72189491809507
 21
287.05730274696128
 31
0.0
  0
LINE
  5
141F
  8
1
 10
501.99200818270577
 20
273.20987855180232
 30
0.0
 11
505.72189491809507
 21
273.20987855180232
 31
0.0
  0
LINE
  5
1421
  8
1
 10
501.99200818270577
 20
285.60987855180201
 30
0.0
 11
505.72189491809507
 21
285.60987855180201
 31
0.0
  0
CIRCLE
  5
1426
  8
1
 10
400.92189491809489
 20
301.40987855180128
 30
0.0
 40
9.5
  0
CIRCLE
  5
1429
  8
1
 10
400.92189491809489
 20
301.40987855180128
 30
0.0
 40
18.25
  0
ARC
  5
142B
  8
1
 10
400.92189491809489
 20
301.40987855180128
 30
0.0
 40
33.100000000000001
 50
36.938793849041403
 51
143.0612061509585
  0
ARC
  5
142D
  8
1
 10
400.92189491809489
 20
301.40987855180128
 30
0.0
 40
33.100000000000001
 50
216.93879384904139
 51
323.06120615095853
  0
ARC
  5
142F
  8
1
 10
497.72189491809507
 20
285.20987855180141
 30
0.0
 40
5.0
 50
90.0
 51
180.0
  0
LINE
  5
1434
  8
1
 10
434.1718573240895
 20
317.9098785518031
 30
0.0
 11
470.42189491809489
 21
317.9098785518031
 31
0.0
  0
ARC
  5
1435
  8
1
 10
460.92189491809489
 20
324.40987855180128
 30
0.0
 40
2.5
 50
180.0
 51
0.0
  0
LINE
  5
1436
  8
1
 10
463.42189491809489
 20
324.40987855180128
 30
0.0
 11
463.42189491809489
 21
327.5108990662352
 31
0.0
  0
LINE
  5
1437
  8
1
 10
458.42189491809489
 20
324.40987855180128
 30
0.0
 11
458.42189491809489
 21
327.5108990662352
 31
0.0
  0
ARC
  5
1438
  8
1
 10
460.92189491809489
 20
332.40987855180128
 30
0.0
 40
5.5
 50
297.0356917893838
 51
242.96430821061611
  0
CIRCLE
  5
143B
  8
1
 10
483.72189491809507
 20
325.4098785518031
 30
0.0
 40
2.5
  0
ARC
  5
143C
  8
1
 10
470.52925494700958
 20
322.16940765913699
 30
0.0
 40
4.2608818796152601
 50
268.55618442756082
 51
349.73178840158619
  0
LINE
  5
1440
  8
1
 10
474.72189491809507
 20
325.50987855180341
 30
0.0
 11
474.72189491809507
 21
321.40987855180219
 31
0.0
  0
ARC
  5
1445
  8
1
 10
483.72189491809507
 20
325.50987855180341
 30
0.0
 40
9.0
 50
0.0
 51
180.0
  0
LINE
  5
1446
  8
1
 10
492.72189491809507
 20
325.50987855180341
 30
0.0
 11
492.72189491809507
 21
317.60987855180201
 31
0.0
  0
ARC
  5
1447
  8
1
 10
497.72189491809507
 20
317.60987855180201
 30
0.0
 40
5.0
 50
180.0
 51
270.0
  0
ARC
  5
1451
  8
1
 10
434.1718573240895
 20
326.4098785518031
 30
0.0
 40
8.5
 50
216.93879384904139
 51
270.0
  0
LINE
  5
1455
  8
1
 10
434.1718573240895
 20
284.90987855179941
 30
0.0
 11
470.42189491809489
 21
284.90987855179941
 31
0.0
  0
LINE
  5
1456
  8
1
 10
458.42189491809489
 20
267.40987855180123
 30
0.0
 11
458.42189491809489
 21
270.5108990662352
 31
0.0
  0
LINE
  5
1457
  8
1
 10
463.42189491809489
 20
267.40987855180123
 30
0.0
 11
463.42189491809489
 21
270.5108990662352
 31
0.0
  0
ARC
  5
1458
  8
1
 10
460.92189491809489
 20
267.40987855180123
 30
0.0
 40
2.5
 50
180.0
 51
0.0
  0
ARC
  5
1459
  8
1
 10
460.92189491809489
 20
275.40987855180123
 30
0.0
 40
5.5
 50
297.0356917893838
 51
242.96430821061611
  0
CIRCLE
  5
145E
  8
1
 10
483.72189491809507
 20
277.40987855180123
 30
0.0
 40
2.5
  0
ARC
  5
145F
  8
1
 10
470.52925494700958
 20
280.65034944446552
 30
0.0
 40
4.2608818796150381
 50
10.26821159841379
 51
91.443815572439206
  0
LINE
  5
1461
  8
1
 10
474.72189491809507
 20
277.3098785517991
 30
0.0
 11
474.72189491809507
 21
281.40987855180123
 31
0.0
  0
LINE
  5
1462
  8
1
 10
492.72189491809507
 20
285.20987855180141
 30
0.0
 11
492.72189491809507
 21
277.30987855180001
 31
0.0
  0
ARC
  5
1463
  8
1
 10
483.72189491809507
 20
277.3098785517991
 30
0.0
 40
9.0
 50
180.0
 51
0.0
  0
ARC
  5
1467
  8
1
 10
434.1718573240895
 20
276.40987855179941
 30
0.0
 40
8.5
 50
90.0
 51
143.0612061509585
  0
LINE
  5
1468
  8
1
 10
295.82189491809447
 20
332.0695373673675
 30
0.0
 11
295.82189491809447
 21
270.75021973623677
 31
0.0
  0
LINE
  5
1469
  8
1
 10
293.42189491809489
 20
341.40987855180123
 30
0.0
 11
293.42189491809489
 21
261.40987855180128
 31
0.0
  0
LINE
  5
146A
  8
1
 10
292.22189491809422
 20
341.40987855180123
 30
0.0
 11
292.22189491809422
 21
261.40987855180128
 31
0.0
  0
ARC
  5
146C
  8
1
 10
303.82189491809447
 20
285.20987855180141
 30
0.0
 40
5.0
 50
0.0
 51
90.0
  0
ARC
  5
146E
  8
1
 10
340.92189491809489
 20
332.40987855180128
 30
0.0
 40
5.5
 50
297.0356917893838
 51
242.96430821061611
  0
LINE
  5
1471
  8
1
 10
367.67193251210023
 20
317.9098785518031
 30
0.0
 11
330.32189491809459
 21
317.9098785518031
 31
0.0
  0
ARC
  5
1473
  8
1
 10
367.67193251210023
 20
326.4098785518031
 30
0.0
 40
8.5
 50
270.0
 51
323.06120615095853
  0
ARC
  5
1474
  8
1
 10
340.92189491809489
 20
324.40987855180128
 30
0.0
 40
2.5
 50
180.0
 51
0.0
  0
LINE
  5
1475
  8
1
 10
343.42189491809489
 20
324.40987855180128
 30
0.0
 11
343.42189491809489
 21
327.5108990662352
 31
0.0
  0
LINE
  5
1476
  8
1
 10
338.42189491809489
 20
324.40987855180128
 30
0.0
 11
338.42189491809489
 21
327.5108990662352
 31
0.0
  0
ARC
  5
1477
  8
1
 10
293.82189491809447
 20
332.0695373673675
 30
0.0
 40
2.0
 50
0.0
 51
60.000000000002657
  0
LINE
  5
1478
  8
1
 10
293.42189491809489
 20
334.6098785518019
 30
0.0
 11
294.82189491809459
 21
333.8015881749356
 31
0.0
  0
ARC
  5
1479
  8
1
 10
293.82189491809447
 20
314.03040354907478
 30
0.0
 40
2.0
 50
0.0
 51
60.000000000002657
  0
LINE
  5
147A
  8
1
 10
293.42189491809489
 20
316.5707447335094
 30
0.0
 11
294.82189491809459
 21
315.76245435664299
 31
0.0
  0
LINE
  5
147C
  8
1
 10
299.55178165348377
 20
329.6098785518019
 30
0.0
 11
295.82189491809447
 21
329.60987855180201
 31
0.0
  0
LINE
  5
147E
  8
1
 10
299.55178165348377
 20
317.20987855180238
 30
0.0
 11
295.82189491809447
 21
317.20987855180238
 31
0.0
  0
ARC
  5
1480
  8
1
 10
299.55178165348377
 20
323.40987855180123
 30
0.0
 40
6.2000000000000002
 50
270.0
 51
90.0
  0
LINE
  5
1486
  8
1
 10
295.82189491809447
 20
312.60987855180201
 30
0.0
 11
303.82189491809447
 21
312.60987855180201
 31
0.0
  0
ARC
  5
1487
  8
1
 10
303.82189491809447
 20
317.60987855180201
 30
0.0
 40
5.0
 50
270.0
 51
0.0
  0
LINE
  5
1489
  8
1
 10
308.82189491809447
 20
325.50987855180341
 30
0.0
 11
308.82189491809447
 21
317.60987855180201
 31
0.0
  0
LINE
  5
148B
  8
1
 10
326.82189491809447
 20
325.50987855180159
 30
0.0
 11
326.82189491809447
 21
321.40987855180219
 31
0.0
  0
ARC
  5
148D
  8
1
 10
317.82189491809459
 20
325.50987855180341
 30
0.0
 40
9.0
 50
0.0
 51
180.0
  0
CIRCLE
  5
148E
  8
1
 10
317.82189491809459
 20
325.4098785518031
 30
0.0
 40
2.5
  0
ARC
  5
1490
  8
1
 10
330.32189491809459
 20
321.40987855180299
 30
0.0
 40
3.5
 50
180.0
 51
270.0
  0
ARC
  5
149A
  8
1
 10
340.92189491809489
 20
275.40987855180123
 30
0.0
 40
5.5
 50
297.0356917893838
 51
242.96430821061611
  0
LINE
  5
149D
  8
1
 10
367.67193251210023
 20
284.90987855179941
 30
0.0
 11
330.32189491809459
 21
284.90987855179941
 31
0.0
  0
ARC
  5
14A0
  8
1
 10
367.67193251210023
 20
276.40987855179941
 30
0.0
 40
8.5
 50
36.938793849041403
 51
90.0
  0
ARC
  5
14A2
  8
1
 10
340.92189491809489
 20
267.40987855180123
 30
0.0
 40
2.5
 50
180.0
 51
0.0
  0
LINE
  5
14A3
  8
1
 10
343.42189491809489
 20
267.40987855180123
 30
0.0
 11
343.42189491809489
 21
270.5108990662352
 31
0.0
  0
LINE
  5
14A4
  8
1
 10
338.42189491809489
 20
267.40987855180123
 30
0.0
 11
338.42189491809489
 21
270.5108990662352
 31
0.0
  0
LINE
  5
14A5
  8
1
 10
293.42189491809489
 20
268.20987855180232
 30
0.0
 11
294.82189491809459
 21
269.01816892866691
 31
0.0
  0
LINE
  5
14A6
  8
1
 10
293.42189491809489
 20
286.24901237009499
 30
0.0
 11
294.82189491809459
 21
287.05730274696128
 31
0.0
  0
ARC
  5
14A8
  8
1
 10
293.82189491809447
 20
288.78935355452938
 30
0.0
 40
2.0
 50
299.99999999999733
 51
0.0
  0
ARC
  5
14A9
  8
1
 10
293.82189491809447
 20
270.75021973623677
 30
0.0
 40
2.0
 50
299.99999999999733
 51
0.0
  0
LINE
  5
14AA
  8
1
 10
299.55178165348377
 20
285.60987855180201
 30
0.0
 11
295.82189491809447
 21
285.60987855180201
 31
0.0
  0
LINE
  5
14AD
  8
1
 10
299.55178165348377
 20
273.20987855180232
 30
0.0
 11
295.82189491809447
 21
273.20987855180232
 31
0.0
  0
ARC
  5
14B0
  8
1
 10
299.55178165348377
 20
279.40987855180123
 30
0.0
 40
6.2000000000000002
 50
270.0
 51
90.0
  0
LINE
  5
14B2
  8
1
 10
295.82189491809447
 20
290.20987855180141
 30
0.0
 11
303.82189491809447
 21
290.20987855180141
 31
0.0
  0
LINE
  5
14B4
  8
1
 10
308.82189491809447
 20
285.20987855180141
 30
0.0
 11
308.82189491809447
 21
277.30987855180001
 31
0.0
  0
LINE
  5
14B5
  8
1
 10
326.82189491809447
 20
277.3098785517991
 30
0.0
 11
326.82189491809447
 21
281.40987855180123
 31
0.0
  0
CIRCLE
  5
14B9
  8
1
 10
317.82189491809459
 20
277.40987855180123
 30
0.0
 40
2.5
  0
ARC
  5
14BA
  8
1
 10
330.32189491809459
 20
281.40987855179941
 30
0.0
 40
3.5
 50
90.0
 51
180.0
  0
ARC
  5
14BD
  8
1
 10
317.82189491809459
 20
277.3098785517991
 30
0.0
 40
9.0
 50
180.0
 51
0.0
  0
DIMENSION
  5
15AA
  8
MEASURE
  2
*D21
 10
524.0218949180944
 20
374.37735813279733
 30
0.0
 11
400.92189491809449
 21
378.87735813279733
 31
0.0
 70
     0
 13
277.82189491809447
 23
537.65720089228034
 33
0.0
 14
524.0218949180944
 24
537.65720089227977
 34
0.0
1001
ACAD
1000
DSTYLE
1002
{
1070
    40
1040
2.0
1002
}
  0
DIMENSION
  5
15B7
  8
MEASURE
  2
*D22
 10
565.52129985212014
 20
261.40987855180128
 30
0.0
 11
561.02129985212002
 21
301.40987855180128
 31
0.0
 70
     0
 13
509.3218949180955
 23
341.40987855180123
 33
0.0
 14
509.3218949180955
 24
261.40987855180128
 34
0.0
 50
90.0
1001
ACAD
1000
DSTYLE
1002
{
1070
    40
1040
2.0
1002
}
  0
DIMENSION
  5
15FB
  8
MEASURE
  2
*D23
 10
737.59089859030234
 20
417.65720089227977
 30
0.0
 11
733.09089859030234
 21
477.65720089227938
 31
0.0
 70
     0
 13
633.29489043298872
 23
537.65720089227887
 33
0.0
 14
690.74438046490832
 24
417.65720089227977
 34
0.0
 50
90.0
1001
ACAD
1000
DSTYLE
1002
{
1070
    40
1040
2.0
1002
}
  0
DIMENSION
  5
1608
  8
MEASURE
  2
*D24
 10
690.74438046490832
 20
374.72837442728257
 30
0.0
 11
650.74438046490832
 21
379.22837442728257
 31
0.0
 70
     0
 13
610.74438046490832
 23
417.65720089227977
 33
0.0
 14
690.74438046490832
 24
417.65720089227977
 34
0.0
1001
ACAD
1000
DSTYLE
1002
{
1070
    40
1040
2.0
1002
}
  0
LINE
  5
1634
  8
CENTER
  6
CENTER
 10
473.58832050336878
 20
267.40987855180123
 30
0.0
 11
448.25546933282112
 21
267.40987855180123
 31
0.0
  0
LINE
  5
1635
  8
CENTER
  6
CENTER
 10
460.92189491809489
 20
256.33504698254501
 30
0.0
 11
460.92189491809489
 21
278.4847101210575
 31
0.0
  0
LINE
  5
1636
  8
CENTER
  6
CENTER
 10
473.58832050336878
 20
275.40987855180123
 30
0.0
 11
448.25546933282112
 21
275.40987855180123
 31
0.0
  0
LINE
  5
1637
  8
CENTER
  6
CENTER
 10
460.92189491809489
 20
264.3350469825449
 30
0.0
 11
460.92189491809489
 21
286.4847101210575
 31
0.0
  0
LINE
  5
163C
  8
CENTER
  6
CENTER
 10
353.58832050336872
 20
275.40987855180123
 30
0.0
 11
328.25546933282112
 21
275.40987855180123
 31
0.0
  0
LINE
  5
163D
  8
CENTER
  6
CENTER
 10
340.92189491809489
 20
264.3350469825449
 30
0.0
 11
340.92189491809489
 21
286.4847101210575
 31
0.0
  0
LINE
  5
163E
  8
CENTER
  6
CENTER
 10
353.58832050336872
 20
332.40987855180128
 30
0.0
 11
328.25546933282112
 21
332.40987855180128
 31
0.0
  0
LINE
  5
163F
  8
CENTER
  6
CENTER
 10
340.92189491809489
 20
321.33504698254501
 30
0.0
 11
340.92189491809489
 21
343.4847101210575
 31
0.0
  0
LINE
  5
1640
  8
CENTER
  6
CENTER
 10
353.58832050336872
 20
324.40987855180128
 30
0.0
 11
326.25546933282112
 21
324.40987855180128
 31
0.0
  0
LINE
  5
1641
  8
CENTER
  6
CENTER
 10
340.92189491809489
 20
313.33504698254501
 30
0.0
 11
340.92189491809489
 21
335.4847101210575
 31
0.0
  0
LINE
  5
1646
  8
CENTER
  6
CENTER
 10
473.58832050336878
 20
324.40987855180128
 30
0.0
 11
448.25546933282112
 21
324.40987855180128
 31
0.0
  0
LINE
  5
1647
  8
CENTER
  6
CENTER
 10
460.92189491809489
 20
313.33504698254501
 30
0.0
 11
460.92189491809489
 21
335.4847101210575
 31
0.0
  0
LINE
  5
1648
  8
CENTER
  6
CENTER
 10
473.58832050336878
 20
332.40987855180128
 30
0.0
 11
448.25546933282112
 21
332.40987855180128
 31
0.0
  0
LINE
  5
1649
  8
CENTER
  6
CENTER
 10
460.92189491809489
 20
321.33504698254501
 30
0.0
 11
460.92189491809489
 21
343.4847101210575
 31
0.0
  0
LINE
  5
164A
  8
CENTER
  6
CENTER
 10
353.58832050336872
 20
267.40987855180123
 30
0.0
 11
326.25546933282112
 21
267.40987855180077
 31
0.0
  0
DIMENSION
  5
164D
  8
MEASURE
  2
*D25
 10
343.42189491809489
 20
304.8770343510655
 30
0.0
 11
356.28856158476162
 21
309.3770343510655
 31
0.0
 70
     0
 13
338.42189491809489
 23
324.40987855180128
 33
0.0
 14
343.42189491809489
 24
324.40987855180128
 34
0.0
1001
ACAD
1000
DSTYLE
1002
{
1070
    40
1040
2.0
1002
}
  0
DIMENSION
  5
1669
  8
MEASURE
  2
*D26
 10
255.5942594547013
 20
267.40987855180123
 30
0.0
 11
251.0942594547013
 21
264.40987855180128
 31
0.0
 70
     0
 13
292.22189491809422
 23
261.40987855180128
 33
0.0
 14
328.25546933282112
 24
267.40987855180123
 34
0.0
 50
90.0
1001
ACAD
1000
DSTYLE
1002
{
1070
    40
1040
2.0
1070
   173
1070
     1
1070
     5
1000

1070
     6
1000

1070
     7
1000
DOTSMALL
1002
}
  0
DIMENSION
  5
1685
  8
MEASURE
  2
*D27
 10
255.5942594547013
 20
324.40987855180128
 30
0.0
 11
251.0942594547013
 21
295.909878551801
 31
0.0
 70
     0
 13
328.25546933282112
 23
267.40987855180077
 33
0.0
 14
328.25546933282112
 24
324.40987855180128
 34
0.0
 50
90.0
1001
ACAD
1000
DSTYLE
1002
{
1070
    40
1040
2.0
1070
   173
1070
     0
1070
     5
1000
DOTSMALL
1002
}
  0
DIMENSION
  5
1692
  8
MEASURE
  2
*D28
 10
255.5942594547009
 20
332.40987855180128
 30
0.0
 11
255.5942594547009
 21
328.40987855180168
 31
0.0
 70
   128
 13
328.25546933282112
 23
324.40987855180128
 33
0.0
 14
328.25546933282112
 24
332.40987855180128
 34
0.0
 50
90.0
1001
ACAD
1000
DSTYLE
1002
{
1070
    40
1040
2.0
1070
   173
1070
     0
1070
     5
1000
DOTSMALL
1002
}
  0
DIMENSION
  5
16C3
  8
MEASURE
  2
*D29
 10
509.3218949180955
 20
204.99305405847821
 30
0.0
 11
400.7718949180948
 21
209.49305405847821
 31
0.0
 70
     0
 13
292.22189491809422
 23
261.40987855180128
 33
0.0
 14
509.3218949180955
 24
261.40987855180128
 34
0.0
1001
ACAD
1000
DSTYLE
1002
{
1070
    40
1040
2.0
1002
}
  0
DIMENSION
  5
16D0
  8
MEASURE
  6
CENTER
  2
*D30
 10
340.92189491809489
 20
216.60949443615701
 30
0.0
 11
316.57189491809447
 21
221.10949443615701
 31
0.0
 70
     0
 13
292.22189491809422
 23
261.40987855180128
 33
0.0
 14
340.92189491809489
 24
267.40987855180123
 34
0.0
1001
ACAD
1000
DSTYLE
1002
{
1070
    40
1040
2.0
1002
}
  0
DIMENSION
  5
16DD
  8
MEASURE
  2
*D31
 10
460.92189491809489
 20
216.60949443615701
 30
0.0
 11
400.92189491809489
 21
221.10949443615701
 31
0.0
 70
     0
 13
340.92189491809489
 23
267.40987855180123
 33
0.0
 14
460.92189491809489
 24
267.40987855180123
 34
0.0
1001
ACAD
1000
DSTYLE
1002
{
1070
    40
1040
2.0
1002
}
  0
DIMENSION
  5
16F8
  8
MEASURE
  2
*D32
 10
552.52037169543837
 20
417.65720089227977
 30
0.0
 11
548.02037169543814
 21
426.1572008922808
 31
0.0
 70
     0
 13
499.12189491809158
 23
434.65720089228171
 33
0.0
 14
505.62189491809511
 24
417.65720089227977
 34
0.0
 50
90.0
1001
ACAD
1000
DSTYLE
1002
{
1070
    40
1040
2.0
1002
}
  0
DIMENSION
  5
1705
  8
MEASURE
  2
*D33
 10
552.52037169543837
 20
640.65720089227943
 30
0.0
 11
548.02037169543814
 21
537.65720089228046
 31
0.0
 70
     0
 13
499.12189491809107
 23
434.6572008922812
 33
0.0
 14
499.12189491809107
 24
640.65720089227943
 34
0.0
 50
90.0
1001
ACAD
1000
DSTYLE
1002
{
1070
    40
1040
2.0
1002
}
  0
DIMENSION
  5
175D
  8
MEASURE
  2
*D34
 10
255.59425945470139
 20
341.40987855180123
 30
0.0
 11
255.5942594547013
 21
336.90987855180128
 31
0.0
 70
   128
 13
340.92189491809489
 23
332.40987855180128
 33
0.0
 14
292.22189491809422
 24
341.40987855180123
 34
0.0
 50
90.0
1001
ACAD
1000
DSTYLE
1002
{
1070
    40
1040
2.0
1070
   173
1070
     1
1070
     5
1000

1070
     6
1000
DOTSMALL
1070
     7
1000
-ARROW
1002
}
  0
LINE
  5
17EA
  8
CENTER
  6
CENTER
 10
400.92189491809489
 20
192.20421142843949
 30
0.0
 11
400.92189491809489
 21
357.278895695872
 31
0.0
  0
LINE
  5
17EB
  8
CENTER
  6
CENTER
 10
400.4218949180962
 20
694.24334782421283
 30
0.0
 11
400.4218949180962
 21
387.90450663069163
 31
0.0
  0
DIMENSION
  5
1801
  8
MEASURE
  2
*D35
 10
337.65995612392862
 20
327.9815882154403
 30
0.0
 11
350.80119795450082
 21
353.40917574542181
 31
0.0
 70
     3
 15
344.18383371226167
 25
336.83816888816318
 35
0.0
 40
0.0
1001
ACAD
1000
DSTYLE
1002
{
1070
    40
1040
2.0
1070
   288
1070
     1
1002
}
  0
LINE
  5
1B7C
  8
1
 10
936.03557907374977
 20
684.48828322100508
 30
0.0
 11
936.03557907375045
 21
348.51958631289921
 31
0.0
  0
ARC
  5
1BBB
  8
1
 10
816.03557907374898
 20
516.65658316672443
 30
0.0
 40
7.5006177255548794
 50
35.441738899202178
 51
144.55826110079781
  0
ARC
  5
1BBC
  8
1
 10
816.0355790737508
 20
537.65720089227887
 30
0.0
 40
18.5
 50
293.3123148111348
 51
306.70901272773909
  0
ARC
  5
1BBE
  8
1
 10
816.0355790737508
 20
537.65720089227887
 30
0.0
 40
18.5
 50
233.29098727226079
 51
246.6876851888652
  0
ARC
  5
1BC1
  8
1
 10
822.96107980241538
 20
521.58587737312655
 30
0.0
 40
1.0
 50
215.44173889920211
 51
293.3123148111348
  0
ARC
  5
1BC2
  8
1
 10
809.11007834508416
 20
521.58587737312655
 30
0.0
 40
1.0
 50
246.6876851888652
 51
324.55826110079778
  0
ARC
  5
1BC8
  8
1
 10
816.03557907374898
 20
558.65781861783353
 30
0.0
 40
7.5006177255548794
 50
215.44173889920211
 51
324.55826110079778
  0
CIRCLE
  5
1BC9
  8
1
 10
816.0355790737508
 20
537.65720089227887
 30
0.0
 40
7.5
  0
CIRCLE
  5
1BCA
  8
1
 10
816.0355790737508
 20
537.65720089227887
 30
0.0
 40
5.0
  0
CIRCLE
  5
1BCB
  8
1
 10
816.0355790737508
 20
537.65720089227887
 30
0.0
 40
4.5
  0
ARC
  5
1BCD
  8
1
 10
826.49622612921166
 20
551.68662936178907
 30
0.0
 40
1.0
 50
335.4204113603235
 51
53.29098727226085
  0
ARC
  5
1BCE
  8
1
 10
816.0355790737508
 20
537.65720089227887
 30
0.0
 40
18.5
 50
53.29098727226085
 51
66.687685188865203
  0
ARC
  5
1BCF
  8
1
 10
822.96107980241538
 20
553.72852441143141
 30
0.0
 40
1.0
 50
66.687685188865203
 51
144.55826110079781
  0
ARC
  5
1BD0
  8
1
 10
833.41726129127017
 20
539.68873314384609
 30
0.0
 40
1.0
 50
6.6663576499429658
 51
84.536933561874221
  0
ARC
  5
1BD1
  8
1
 10
816.0355790737508
 20
537.65720089227887
 30
0.0
 40
18.5
 50
353.333642350057
 51
6.6663576499429658
  0
ARC
  5
1BD2
  8
1
 10
833.41726129127017
 20
535.62566864071175
 30
0.0
 40
1.0
 50
275.46306643807389
 51
353.333642350057
  0
ARC
  5
1BD3
  8
1
 10
834.22655484976747
 20
527.16366263432189
 30
0.0
 40
7.5006177255548794
 50
95.463066438073895
 51
204.57958863967639
  0
ARC
  5
1BD4
  8
1
 10
826.49622612921166
 20
523.62777242276877
 30
0.0
 40
1.0
 50
306.70901272773909
 51
24.579588639676469
  0
ARC
  5
1BD5
  8
1
 10
834.22655484976747
 20
548.15073915023595
 30
0.0
 40
7.5006177255548794
 50
155.4204113603235
 51
264.53693356192599
  0
ARC
  5
1BE5
  8
1
 10
798.65389685622938
 20
535.62566864071175
 30
0.0
 40
1.0
 50
186.66635764994291
 51
264.53693356192599
  0
ARC
  5
1BE6
  8
1
 10
816.0355790737508
 20
537.65720089227887
 30
0.0
 40
18.5
 50
173.333642350057
 51
186.66635764994291
  0
ARC
  5
1BE7
  8
1
 10
798.65389685622938
 20
539.68873314384609
 30
0.0
 40
1.0
 50
95.463066438073895
 51
173.333642350057
  0
ARC
  5
1BEB
  8
1
 10
805.57493201828993
 20
523.62777242276877
 30
0.0
 40
1.0
 50
155.4204113603235
 51
233.29098727226079
  0
ARC
  5
1BEC
  8
1
 10
797.84460329773219
 20
527.16366263432189
 30
0.0
 40
7.5006177255548794
 50
335.4204113603235
 51
84.536933561926091
  0
ARC
  5
1BED
  8
1
 10
797.84460329773219
 20
548.15073915023595
 30
0.0
 40
7.5006177255548794
 50
275.46306643807389
 51
24.579588639676469
  0
LINE
  5
1EC6
  8
1
 10
841.03560615049162
 20
639.85720089227777
 30
0.0
 11
841.03560615049219
 21
563.53558040641019
 31
0.0
  0
ARC
  5
1EC7
  8
1
 10
854.83560615049316
 20
608.55720089227862
 30
0.0
 40
5.0
 50
0.0
 51
89.999999999999986
  0
LINE
  5
1EC9
  8
1
 10
844.03560615049707
 20
437.70091471862321
 30
0.0
 11
844.03560615049116
 21
511.12705400729419
 31
0.0
  0
LINE
  5
1ECA
  8
1
 10
849.83560615049191
 20
635.75720089227934
 30
0.0
 11
849.83560615049225
 21
565.44743136090756
 31
0.0
  0
LINE
  5
1ED0
  8
1
 10
859.83560615049191
 20
608.55720089227952
 30
0.0
 11
859.83560615049191
 21
567.61998926374645
 31
0.0
  0
ARC
  5
1ED2
  8
1
 10
840.2356061504928
 20
639.85720089227777
 30
0.0
 40
0.8
 50
0.0
 51
90.0
  0
ARC
  5
1ED5
  8
1
 10
843.53560615049219
 20
637.61348706593481
 30
0.0
 40
0.5
 50
0.0
 51
89.000000000023817
  0
LINE
  5
1ED7
  8
1
 10
844.03560615049184
 20
636.55720089227952
 30
0.0
 11
849.03560615049162
 21
636.55720089227952
 31
0.0
  0
ARC
  5
1ED8
  8
1
 10
849.03560615049219
 20
635.75720089227934
 30
0.0
 40
0.8
 50
0.0
 51
89.999999999999986
  0
LINE
  5
1ED9
  8
1
 10
841.03560615049162
 20
638.15720089227625
 30
0.0
 11
843.54433235371107
 21
638.11341091351323
 31
0.0
  0
ARC
  5
1EDB
  8
1
 10
854.83560615049316
 20
618.55720089227862
 30
0.0
 40
5.0
 50
180.0
 51
270.0
  0
LINE
  5
1EDD
  8
1
 10
840.2356061504928
 20
640.65720089227898
 30
0.0
 11
797.03557907375068
 21
640.65720089227898
 31
0.0
  0
ARC
  5
1EDE
  8
1
 10
797.03557907375068
 20
624.65720089227898
 30
0.0
 40
16.0
 50
90.0
 51
180.0
  0
LINE
  5
1EDF
  8
1
 10
781.03557907374943
 20
624.65720089227898
 30
0.0
 11
781.03557907375034
 21
450.65720089227892
 31
0.0
  0
LINE
  5
1EE0
  8
1
 10
779.03557907375034
 20
607.95720089227916
 30
0.0
 11
779.03557907375034
 21
542.65720089227977
 31
0.0
  0
ARC
  5
1EE1
  8
1
 10
781.03557907375068
 20
607.95720089227825
 30
0.0
 40
2.0
 50
89.999999999999986
 51
180.0
  0
LINE
  5
1EE2
  8
1
 10
849.83560615049191
 20
509.8669704236471
 30
0.0
 11
849.83560615049191
 21
439.55720089227179
 31
0.0
  0
LINE
  5
1EE3
  8
1
 62
     8
 10
860.83560615049191
 20
497.00782573976949
 30
0.0
 11
860.83560615049191
 21
458.70782573977021
 31
0.0
  0
LINE
  5
1EE4
  8
1
 62
     8
 10
857.83560615049191
 20
497.00782573976949
 30
0.0
 11
857.835606150491
 21
458.70782573977021
 31
0.0
  0
LINE
  5
1EE5
  8
1
 62
     8
 10
862.8356061504918
 20
497.00782573976949
 30
0.0
 11
862.8356061504918
 21
458.70782573977021
 31
0.0
  0
LINE
  5
1EE6
  8
1
 62
     8
 10
875.83560615049191
 20
467.38099094819461
 30
0.0
 11
862.8356061504918
 21
467.38099094819461
 31
0.0
  0
LINE
  5
1EE7
  8
1
 62
     8
 10
875.83560615049191
 20
468.98099094819497
 30
0.0
 11
862.8356061504918
 21
468.98099094819412
 31
0.0
  0
LINE
  5
1EE8
  8
1
 62
     8
 10
875.83560615049191
 20
466.38099094819472
 30
0.0
 11
862.8356061504918
 21
466.38099094819472
 31
0.0
  0
LINE
  5
1EE9
  8
1
 62
     8
 10
860.83560615049191
 20
458.70782573977021
 30
0.0
 11
870.8356061504918
 21
458.70782573977021
 31
0.0
  0
LINE
  5
1EEA
  8
1
 62
     8
 10
857.83560615049191
 20
458.70782573977021
 30
0.0
 11
849.83560615049191
 21
458.70782573977021
 31
0.0
  0
LINE
  5
1EEB
  8
1
 62
     8
 10
857.83560615049191
 20
466.38099094819381
 30
0.0
 11
851.83560615049191
 21
466.38099094819381
 31
0.0
  0
LINE
  5
1EEC
  8
1
 62
     8
 10
857.83560615049191
 20
466.45782573976931
 30
0.0
 11
860.83560615049191
 21
466.45782573976931
 31
0.0
  0
LINE
  5
1EED
  8
1
 62
     8
 10
857.83560615049191
 20
464.65782573976912
 30
0.0
 11
860.83560615049191
 21
464.65782573976998
 31
0.0
  0
ARC
  5
1EEE
  8
1
 62
     8
 10
870.83560615049316
 20
463.70782573977021
 30
0.0
 40
5.0
 50
270.0
 51
0.0
  0
LINE
  5
1EEF
  8
1
 62
     8
 10
875.83560615049191
 20
485.73466053134462
 30
0.0
 11
862.8356061504918
 21
485.73466053134553
 31
0.0
  0
LINE
  5
1EF0
  8
1
 62
     8
 10
875.83560615049191
 20
489.33466053134498
 30
0.0
 11
862.8356061504918
 21
489.33466053134498
 31
0.0
  0
LINE
  5
1EF1
  8
1
 62
     8
 10
875.83560615049191
 20
486.7346605313445
 30
0.0
 11
862.8356061504918
 21
486.73466053134553
 31
0.0
  0
LINE
  5
1EF2
  8
1
 62
     8
 10
875.83560615049191
 20
488.33466053134492
 30
0.0
 11
862.8356061504918
 21
488.33466053134492
 31
0.0
  0
LINE
  5
1EF3
  8
1
 62
     8
 10
875.83560615049191
 20
469.98099094819509
 30
0.0
 11
862.8356061504918
 21
469.98099094819412
 31
0.0
  0
LINE
  5
1EF4
  8
1
 62
     8
 10
870.8356061504918
 20
497.00782573976949
 30
0.0
 11
860.83560615049191
 21
497.00782573976949
 31
0.0
  0
LINE
  5
1EF5
  8
1
 62
     8
 10
857.83560615049191
 20
469.98099094819412
 30
0.0
 11
851.83560615049191
 21
469.98099094819412
 31
0.0
  0
LINE
  5
1EF6
  8
1
 62
     8
 10
857.83560615049191
 20
485.73466053134553
 30
0.0
 11
851.83560615049191
 21
485.73466053134553
 31
0.0
  0
LINE
  5
1EF7
  8
1
 62
     8
 10
857.83560615049191
 20
489.33466053134498
 30
0.0
 11
851.83560615049191
 21
489.33466053134589
 31
0.0
  0
LINE
  5
1EF8
  8
1
 62
     8
 10
857.83560615049191
 20
491.05782573976973
 30
0.0
 11
860.83560615049191
 21
491.05782573976973
 31
0.0
  0
LINE
  5
1EF9
  8
1
 62
     8
 10
857.83560615049191
 20
489.25782573976937
 30
0.0
 11
860.83560615049191
 21
489.25782573976937
 31
0.0
  0
LINE
  5
1EFA
  8
1
 62
     8
 10
857.83560615049191
 20
497.00782573976949
 30
0.0
 11
851.83560615049191
 21
497.00782573976949
 31
0.0
  0
ARC
  5
1EFB
  8
1
 62
     8
 10
870.83560615049316
 20
492.00782573976949
 30
0.0
 40
5.0
 50
0.0
 51
89.999999999999986
  0
LINE
  5
1EFC
  8
1
 62
     8
 10
875.83560615049191
 20
492.00782573976949
 30
0.0
 11
875.83560615049191
 21
463.70782573977021
 31
0.0
  0
LINE
  5
1EFD
  8
1
 62
     8
 10
851.83560615049191
 20
497.00782573976949
 30
0.0
 11
851.83560615049237
 21
458.70782573977021
 31
0.0
  0
LINE
  5
1EFE
  8
1
 62
     8
 10
851.83560615049191
 20
497.00782573976949
 30
0.0
 11
851.83560615049282
 21
466.98912717959001
 31
0.0
  0
LINE
  5
1EFF
  8
1
 62
     8
 10
849.83560615049191
 20
491.05782573976973
 30
0.0
 11
851.83560615049191
 21
491.05782573976973
 31
0.0
  0
LINE
  5
1F00
  8
1
 62
     8
 10
849.83560615049191
 20
489.25782573976937
 30
0.0
 11
851.83560615049191
 21
489.25782573976937
 31
0.0
  0
LINE
  5
1F01
  8
1
 62
     8
 10
851.83560615049191
 20
497.00782573976949
 30
0.0
 11
849.83560615049191
 21
497.00782573976949
 31
0.0
  0
LINE
  5
1F02
  8
1
 10
780.03557907375034
 20
541.65720089227977
 30
0.0
 11
780.03557907375034
 21
527.65720089228159
 31
0.0
  0
ARC
  5
1F03
  8
1
 10
780.0355790737508
 20
542.65720089227887
 30
0.0
 40
1.0
 50
180.0
 51
270.0
  0
LINE
  5
1F0A
  8
CENTER
  6
CENTER
 10
762.66537894300563
 20
537.65720089227852
 30
0.0
 11
987.00253708395576
 21
537.65720089227807
 31
0.0
  0
LINE
  5
1F0B
  8
1
 10
840.23560615049826
 20
434.65720089228171
 30
0.0
 11
797.03557907375068
 21
434.65720089228171
 31
0.0
  0
ARC
  5
1F0F
  8
1
 10
797.03557907375068
 20
450.65720089227892
 30
0.0
 40
16.0
 50
180.0
 51
270.0
  0
ARC
  5
1F11
  8
1
 10
781.03557907375068
 20
527.6572008922808
 30
0.0
 40
1.0
 50
180.0
 51
270.0
  0
LINE
  5
1F12
  8
1
 10
841.03560615049253
 20
511.77882137814498
 30
0.0
 11
841.03560615049219
 21
435.45720089227279
 31
0.0
  0
LINE
  5
1F13
  8
1
 10
844.03560615049207
 20
564.18734777726138
 30
0.0
 11
844.03560615049184
 21
637.61348706593481
 31
0.0
  0
LINE
  5
1F16
  8
1
 10
841.03560615049162
 20
437.15720089228171
 30
0.0
 11
843.54433235371107
 21
437.20099087104472
 31
0.0
  0
ARC
  5
1F17
  8
1
 10
843.53560615049219
 20
437.7009147186231
 30
0.0
 40
0.5
 50
270.99999999997613
 51
0.0000000000065138
  0
ARC
  5
1F1B
  8
1
 10
840.23560615049826
 20
435.45720089227279
 30
0.0
 40
0.8
 50
270.00000000000301
 51
0.0000000000030462
  0
LINE
  5
1F1C
  8
1
 10
844.03560615049707
 20
438.7572008922711
 30
0.0
 11
849.03560615049719
 21
438.75720089227161
 31
0.0
  0
ARC
  5
1F1D
  8
1
 10
849.03560615049776
 20
439.55720089227179
 30
0.0
 40
0.8
 50
270.00000000000301
 51
0.0000000000030462
  0
LINE
  5
1F31
  8
CENTER
  6
CENTER
 10
650.74438046491423
 20
659.60691076574494
 30
0.0
 11
650.74438046491366
 21
402.30765719789258
 31
0.0
  0
DIMENSION
  5
1F3C
  8
MEASURE
  2
*D49
 10
936.03557907375045
 20
674.85281212061773
 30
0.0
 11
857.53557907375045
 21
679.35281212061773
 31
0.0
 70
     0
 13
779.0355790737508
 23
607.95720089227825
 33
0.0
 14
936.03557907375045
 24
607.95720089227825
 34
0.0
  0
INSERT
  5
1FC0
  8
MEASURE
  6
CONTINUOUS
  2
*X71
 10
0.0
 20
0.0
 30
0.0
1001
ACAD
1000
HATCH
1002
{
1070
    19
1000
ANSI31
1040
5.0
1040
0.0
1000
R14_HATCH_DATA
1000
1FC0
1011
1.0
1021
0.0
1031
0.0
1021
0.0
1031
0.0
1011
0.0
1021
0.0
1031
0.0
1021
1.0
1031
0.0
1011
0.0
1021
0.0
1031
0.0
1021
0.0
1031
1.0
1040
0.0
1010
0.0
1020
0.0
1030
1.0
1000
ANSI31
1070
     0
1070
     0
1071
        2
1071
        7
1070
     0
1070
     1
1071
        4
1040
975.90546052103275
1040
684.48828322100508
1040
936.03557907374977
1040
684.48828322100508
1040
936.03557907374977
1040
537.65720089227852
1040
975.90546052103298
1040
537.65720089227887
1071
        0
1071
        7
1070
     0
1070
     1
1071
        5
1040
975.90546052103207
1040
537.65720089227807
1040
936.03557907375045
1040
537.65720089227761
1040
936.03557907375045
1040
497.65720089227801
1040
936.03557907375045
1040
348.51958631289972
1040
975.90546052103298
1040
348.51958631289921
1071
        0
1070
     0
1070
     1
1040
0.0
1040
5.0
1070
     0
1070
     1
1040
0.7853981633974483
1040
-2719.2559757846411
1040
-3417.2311374162582
1040
-11.22532015133643
1040
11.22532015133644
1070
     0
1040
0.9912933651271028
1071
        2
1040
955.07640898851423
1040
587.51677093074875
1040
0.0
1040
959.04383943243545
1040
485.41354951500119
1040
0.0
1002
}
  0
LINE
  5
1FC2
  8
1
 62
     8
 10
849.83560615049191
 20
464.65782573976998
 30
0.0
 11
851.83560615049191
 21
464.65782573976998
 31
0.0
  0
TEXT
  5
2028
  8
1
 10
827.02444262493179
 20
384.50553721736151
 30
0.0
 40
10.0
  1
壁取付時
 41
0.8
  7
AD-STANDARD
  0
LINE
  5
2029
  8
NOTE
 10
824.96313807390095
 20
381.32074349567978
 30
0.0
 11
867.01368075718517
 21
381.32074349567978
 31
0.0
  0
LINE
  5
202A
  8
NOTE
 10
824.96313807390095
 20
379.36162113163073
 30
0.0
 11
867.01368075718517
 21
379.36162113163073
 31
0.0
  0
DIMENSION
  5
2096
  8
MEASURE
  2
*D51
 10
340.9218949180966
 20
324.40987855181021
 30
0.0
 11
319.7304809952002
 21
303.19567588623391
 31
0.0
 70
   132
 15
339.15507821672497
 25
322.64116185776629
 35
0.0
 40
0.0
1001
ACAD
1000
DSTYLE
1002
{
1070
   288
1070
     1
1002
}
  0
ARC
  5
20FD
  8
1
 10
665.74438046490968
 20
429.65720089227813
 30
0.0
 40
5.0
 50
90.0
 51
180.0
  0
ARC
  5
2100
  8
1
 10
662.24550281668178
 20
451.65720089227801
 30
0.0
 40
5.0
 50
270.0
 51
12.257359614266401
  0
LINE
  5
2102
  8
1
 10
667.13152203810705
 20
452.7187168685445
 30
0.0
 11
655.63039955810689
 21
505.65687961092732
 31
0.0
  0
LINE
  5
2103
  8
1
 10
682.01852686922427
 20
440.71871685997439
 30
0.0
 11
663.34632716606518
 21
526.66441100588463
 31
0.0
  0
ARC
  5
2106
  8
1
 10
650.74438046490957
 20
537.65720089227887
 30
0.0
 40
20.0
 50
14.76379178280833
 51
165.2362082171916
  0
LINE
  5
210A
  8
1
 10
610.74438046490957
 20
417.65720089227892
 30
0.0
 11
690.74438046490832
 21
417.65720089227892
 31
0.0
  0
LINE
  5
210C
  8
1
 10
634.3572388222741
 20
452.71871685140599
 30
0.0
 11
645.85836111153321
 21
505.65687961092732
 31
0.0
  0
LINE
  5
210D
  8
1
 10
619.47023406059407
 20
440.7187168599753
 30
0.0
 11
638.16840501107481
 21
526.78395326198961
 31
0.0
  0
LINE
  5
2114
  8
1
 10
662.24550281668178
 20
446.65720089227801
 30
0.0
 11
639.24325804742284
 21
446.65720089227892
 31
0.0
  0
ARC
  5
2117
  8
1
 10
639.24325804742284
 20
451.65720089227892
 30
0.0
 40
5.0
 50
167.7426405867204
 51
270.0
  0
LINE
  5
2119
  8
1
 10
640.74438046490968
 20
429.65720089227813
 30
0.0
 11
640.74438046490968
 21
417.65720089227892
 31
0.0
  0
LINE
  5
211A
  8
1
 10
660.74438046490957
 20
429.65720089227813
 30
0.0
 11
660.74438046490957
 21
417.65720089227892
 31
0.0
  0
ARC
  5
211B
  8
1
 10
635.74438046490957
 20
429.65720089227813
 30
0.0
 40
5.0
 50
0.0
 51
90.0
  0
LINE
  5
211F
  8
1
 10
658.89685960350243
 20
420.05720089227862
 30
0.0
 11
642.59190132631602
 21
420.05720089227952
 31
0.0
  0
LINE
  5
2120
  8
1
 10
640.74438046490968
 20
417.65720089227892
 30
0.0
 11
641.89908100328876
 21
419.65720089227898
 31
0.0
  0
LINE
  5
2126
  8
1
 10
660.74438046490957
 20
417.65720089227892
 30
0.0
 11
659.5896799265297
 21
419.65720089227898
 31
0.0
  0
ARC
  5
2127
  8
1
 10
658.89685960350243
 20
419.25720089227838
 30
0.0
 40
0.8
 50
29.999999999997289
 51
90.0
  0
ARC
  5
2128
  8
1
 10
642.59190132631602
 20
419.25720089227929
 30
0.0
 40
0.8
 50
90.0
 51
150.0000000000027
  0
ARC
  5
212F
  8
1
 10
624.35625328388085
 20
439.65720089227801
 30
0.0
 40
5.0
 50
167.74264048620151
 51
270.0
  0
ARC
  5
2133
  8
1
 10
628.74438046490968
 20
424.65720089227813
 30
0.0
 40
5.0000000000003171
 50
0.0
 51
180.0
  0
LINE
  5
2134
  8
1
 10
635.74438046490957
 20
434.65720089227801
 30
0.0
 11
624.35625328388085
 21
434.65720089227801
 31
0.0
  0
ARC
  5
2137
  8
1
 10
650.74438033481908
 20
504.59536364322997
 30
0.0
 40
5.0
 50
12.257359513798439
 51
167.74264048620151
  0
ARC
  5
2138
  8
1
 10
650.74438046490957
 20
537.65720089227887
 30
0.0
 40
14.0
 50
350.99305820403299
 51
9.0069417959764078
  0
ARC
  5
2145
  8
1
 10
672.74438046490957
 20
424.65720089227813
 30
0.0
 40
5.0000000000003171
 50
0.0
 51
180.0
  0
ARC
  5
2149
  8
1
 10
677.13250764593738
 20
439.65720089227801
 30
0.0
 40
5.0
 50
270.0
 51
12.257359513798439
  0
LINE
  5
214C
  8
1
 10
677.13250764593738
 20
434.65720089227801
 30
0.0
 11
665.74438046490968
 21
434.65720089227801
 31
0.0
  0
ARC
  5
2153
  8
1
 10
650.74438046490957
 20
537.65720089227887
 30
0.0
 40
14.0
 50
170.9930582040235
 51
189.0069417959669
  0
ARC
  5
2154
  8
1
 10
650.74438046490957
 20
537.65720089227887
 30
0.0
 40
14.0
 50
110.9717306651406
 51
128.9856142570724
  0
ARC
  5
2155
  8
1
 10
650.74438046490957
 20
537.65720089227887
 30
0.0
 40
14.0
 50
51.01438574292758
 51
69.028269334859388
  0
LINE
  5
2156
  8
1
 10
900.97406311462385
 20
521.2700592496434
 30
0.0
 11
848.03590035510263
 21
532.77118153890251
 31
0.0
  0
ARC
  5
2157
  8
1
 10
914.03557907375205
 20
564.04532807330668
 30
0.0
 40
5.0
 50
0.0
 51
102.25735951379841
  0
LINE
  5
2158
  8
1
 10
900.78919293303295
 20
576.51739312514235
 30
0.0
 11
810.93888466557883
 21
556.99689339525639
 31
0.0
  0
LINE
  5
215B
  8
1
 10
912.97406310605538
 20
568.93134729659357
 30
0.0
 11
827.02836896014514
 21
550.25914759343448
 31
0.0
  0
ARC
  5
215C
  8
1
 10
911.40435261000221
 20
547.65720089227887
 30
0.0
 40
50.0
 50
257.74264048620148
 51
270.0
  0
LINE
  5
215D
  8
1
 10
912.97406310605436
 20
506.38305448796342
 30
0.0
 11
826.90882670404017
 21
525.08122543844411
 31
0.0
  0
LINE
  5
215F
  8
1
 10
936.03557907375068
 20
497.65720089227892
 30
0.0
 11
911.40435261000175
 21
497.65720089227892
 31
0.0
  0
ARC
  5
2160
  8
1
 10
929.03557907375205
 20
559.65720089227887
 30
0.0
 40
5.0000000000003171
 50
90.0
 51
270.0
  0
ARC
  5
2161
  8
1
 10
929.03557907375205
 20
515.65720089227898
 30
0.0
 40
5.0000000000003171
 50
90.0
 51
270.0
  0
LINE
  5
2162
  8
1
 10
936.03557907375068
 20
510.65720089227892
 30
0.0
 11
929.03557907375182
 21
510.65720089227892
 31
0.0
  0
ARC
  5
2164
  8
1
 10
924.03557907375216
 20
522.65720089227887
 30
0.0
 40
5.0
 50
90.0
 51
180.0
  0
LINE
  5
2165
  8
1
 10
924.03557907375171
 20
547.65720089227887
 30
0.0
 11
936.03557907375068
 21
547.65720089227887
 31
0.0
  0
LINE
  5
2166
  8
1
 10
924.03557907375171
 20
527.65720089227898
 30
0.0
 11
936.03557907375068
 21
527.65720089227898
 31
0.0
  0
ARC
  5
2167
  8
1
 10
924.03557907375216
 20
552.65720089227898
 30
0.0
 40
5.0
 50
180.0
 51
270.0
  0
LINE
  5
2168
  8
1
 10
919.03557907375159
 20
564.04532807330668
 30
0.0
 11
919.03557907375159
 21
552.65720089227898
 31
0.0
  0
LINE
  5
2169
  8
1
 10
936.03557907375068
 20
554.65720089227887
 30
0.0
 11
929.03557907375182
 21
554.65720089227887
 31
0.0
  0
LINE
  5
216A
  8
1
 10
936.03557907375068
 20
564.65720089227887
 30
0.0
 11
929.03557907375205
 21
564.65720089227887
 31
0.0
  0
LINE
  5
216C
  8
1
 10
919.03557907375159
 20
522.65720089227887
 30
0.0
 11
919.03557907375159
 21
511.2690737112502
 31
0.0
  0
ARC
  5
216D
  8
1
 10
914.03557907375205
 20
511.2690737112502
 30
0.0
 40
5.0
 50
257.74264048620148
 51
0.0
  0
ARC
  5
216E
  8
1
 10
934.43557907375089
 20
529.50472175368532
 30
0.0
 40
0.8
 50
180.0
 51
240.00000000000259
  0
ARC
  5
216F
  8
1
 10
934.4355790737518
 20
545.80968003087173
 30
0.0
 40
0.8
 50
119.9999999999973
 51
180.0
  0
LINE
  5
2170
  8
1
 10
936.03557907375068
 20
547.65720089227887
 30
0.0
 11
934.0355790737508
 21
546.50250035389899
 31
0.0
  0
LINE
  5
2171
  8
1
 10
936.03557907375068
 20
527.65720089227898
 30
0.0
 11
934.0355790737508
 21
528.81190143065805
 31
0.0
  0
LINE
  5
2172
  8
1
 10
933.63557907375116
 20
545.80968003087173
 30
0.0
 11
933.63557907375025
 21
529.50472175368532
 31
0.0
  0
LINE
  5
2173
  8
1
 10
936.03557907375068
 20
520.65720089227898
 30
0.0
 11
929.03557907375182
 21
520.65720089227898
 31
0.0
  0
LINE
  5
2174
  8
1
 10
900.78919293303295
 20
498.79700865941362
 30
0.0
 11
810.93888466557883
 21
518.31750838930145
 31
0.0
  0
ARC
  5
2176
  8
1
 10
849.09741632280009
 20
537.65720076218838
 30
0.0
 40
5.0
 50
102.25735951379841
 51
257.74264048620148
  0
ARC
  5
2177
  8
1
 10
902.03557907375125
 20
526.15607847479214
 30
0.0
 40
5.0
 50
257.74264058672043
 51
0.0
  0
LINE
  5
2178
  8
1
 10
907.03557907375171
 20
549.15832324405108
 30
0.0
 11
907.0355790737508
 21
526.15607847479214
 31
0.0
  0
ARC
  5
2179
  8
1
 10
816.03557907375114
 20
537.65720089227887
 30
0.0
 40
20.0
 50
104.7637917828083
 51
255.2362082171916
  0
LINE
  5
217A
  8
1
 10
900.9740630974851
 20
554.04434246547635
 30
0.0
 11
848.03590035510263
 21
542.54321998547618
 31
0.0
  0
ARC
  5
217B
  8
1
 10
902.03557907375216
 20
549.15832324405108
 30
0.0
 40
5.0
 50
0.0
 51
102.25735961426641
  0
ARC
  5
217C
  8
1
 10
911.40435261000221
 20
527.65720089227898
 30
0.0
 40
50.0
 50
90.0
 51
102.25735951379841
  0
LINE
  5
217D
  8
1
 10
936.03557907375068
 20
577.65720089227898
 30
0.0
 11
911.40435261000175
 21
577.65720089227898
 31
0.0
  0
POLYLINE
  5
24F9
  8
1
 62
     8
 66
     1
 10
0.0
 20
0.0
 30
0.0
 70
     1
  0
VERTEX
  5
2A3D
  8
1
 62
     8
 10
425.56237776510488
 20
480.25917466747927
 30
0.0
  0
VERTEX
  5
2A3E
  8
1
 62
     8
 10
439.56237776510483
 20
480.25917466747927
 30
0.0
  0
VERTEX
  5
2A3F
  8
1
 62
     8
 10
439.56237776510483
 20
495.25917466747927
 30
0.0
  0
VERTEX
  5
2A40
  8
1
 62
     8
 10
425.56237776510488
 20
495.25917466747927
 30
0.0
  0
SEQEND
  5
2A41
  8
1
 62
     8
  0
POLYLINE
  5
24FA
  8
1
 62
     8
 66
     1
 10
0.0
 20
0.0
 30
0.0
 70
     1
  0
VERTEX
  5
2A42
  8
1
 62
     8
 10
425.56237776510488
 20
503.54635013130098
 30
0.0
  0
VERTEX
  5
2A43
  8
1
 62
     8
 10
439.56237776510483
 20
503.54635013130098
 30
0.0
  0
VERTEX
  5
2A44
  8
1
 62
     8
 10
439.56237776510483
 20
518.5463501313011
 30
0.0
  0
VERTEX
  5
2A45
  8
1
 62
     8
 10
425.56237776510488
 20
518.5463501313011
 30
0.0
  0
SEQEND
  5
2A46
  8
1
 62
     8
  0
POLYLINE
  5
2505
  8
1
 62
     8
 66
     1
 10
0.0
 20
0.0
 30
0.0
  0
VERTEX
  5
2A47
  8
1
 62
     8
 10
361.56237776510483
 20
491.75917466747927
 30
0.0
  0
VERTEX
  5
2A48
  8
1
 62
     8
 10
361.56237776510483
 20
480.25917466747927
 30
0.0
  0
VERTEX
  5
2A49
  8
1
 62
     8
 10
375.56237776510483
 20
480.25917466747927
 30
0.0
  0
VERTEX
  5
2A4A
  8
1
 62
     8
 10
375.56237776510483
 20
495.25917466747927
 30
0.0
  0
VERTEX
  5
2A4B
  8
1
 62
     8
 10
367.06237776510483
 20
495.25917466747927
 30
0.0
  0
SEQEND
  5
2A4C
  8
1
 62
     8
  0
POLYLINE
  5
2506
  8
1
 62
     8
 66
     1
 10
0.0
 20
0.0
 30
0.0
  0
VERTEX
  5
2A4D
  8
1
 62
     8
 10
361.42189491809631
 20
514.95721435638688
 30
0.0
  0
VERTEX
  5
2A4E
  8
1
 62
     8
 10
361.42189491809631
 20
503.45721435638688
 30
0.0
  0
VERTEX
  5
2A4F
  8
1
 62
     8
 10
375.4218949180962
 20
503.45721435638688
 30
0.0
  0
VERTEX
  5
2A50
  8
1
 62
     8
 10
375.4218949180962
 20
518.45721435638677
 30
0.0
  0
VERTEX
  5
2A51
  8
1
 62
     8
 10
366.92189491809631
 20
518.45721435638677
 30
0.0
  0
SEQEND
  5
2A52
  8
1
 62
     8
  0
POLYLINE
  5
2512
  8
1
 62
     8
 66
     1
 10
0.0
 20
0.0
 30
0.0
  0
VERTEX
  5
2A53
  8
1
 62
     8
 10
345.42189491809631
 20
491.95721435638683
 30
0.0
  0
VERTEX
  5
2A54
  8
1
 62
     8
 10
345.42189491809631
 20
480.45721435638683
 30
0.0
  0
VERTEX
  5
2A55
  8
1
 62
     8
 10
359.42189491809631
 20
480.45721435638683
 30
0.0
  0
VERTEX
  5
2A56
  8
1
 62
     8
 10
359.42189491809631
 20
495.45721435638683
 30
0.0
  0
VERTEX
  5
2A57
  8
1
 62
     8
 10
350.92189491809631
 20
495.45721435638683
 30
0.0
  0
SEQEND
  5
2A58
  8
1
 62
     8
  0
LINE
  5
2513
  8
1
 62
     8
 10
366.92189491809631
 20
514.95721435638688
 30
0.0
 11
361.42189491809631
 21
514.95721435638688
 31
0.0
  0
POLYLINE
  5
2514
  8
1
 62
     8
 66
     1
 10
0.0
 20
0.0
 30
0.0
  0
VERTEX
  5
2A59
  8
1
 62
     8
 10
345.42189491809631
 20
514.95721435638688
 30
0.0
  0
VERTEX
  5
2A5A
  8
1
 62
     8
 10
345.42189491809631
 20
503.45721435638688
 30
0.0
  0
VERTEX
  5
2A5B
  8
1
 62
     8
 10
359.42189491809631
 20
503.45721435638688
 30
0.0
  0
VERTEX
  5
2A5C
  8
1
 62
     8
 10
359.42189491809631
 20
518.45721435638677
 30
0.0
  0
VERTEX
  5
2A5D
  8
1
 62
     8
 10
350.92189491809631
 20
518.45721435638677
 30
0.0
  0
SEQEND
  5
2A5E
  8
1
 62
     8
  0
LINE
  5
2515
  8
1
 62
     8
 10
350.92189491809631
 20
514.95721435638688
 30
0.0
 11
345.42189491809631
 21
514.95721435638688
 31
0.0
  0
LINE
  5
2516
  8
1
 62
     8
 10
350.92189491809631
 20
518.45721435638677
 30
0.0
 11
350.92189491809631
 21
514.95721435638688
 31
0.0
  0
LINE
  5
2517
  8
1
 62
     8
 10
366.92189491809631
 20
518.45721435638677
 30
0.0
 11
366.92189491809631
 21
514.95721435638688
 31
0.0
  0
LINE
  5
2518
  8
1
 62
     8
 10
350.92189491809631
 20
495.45721435638683
 30
0.0
 11
350.92189491809631
 21
491.95721435638683
 31
0.0
  0
LINE
  5
2519
  8
1
 62
     8
 10
350.92189491809631
 20
491.95721435638683
 30
0.0
 11
345.42189491809631
 21
491.95721435638683
 31
0.0
  0
LINE
  5
251A
  8
1
 62
     8
 10
367.06237776510483
 20
495.25917466747927
 30
0.0000000000000213
 11
367.06237776510483
 21
491.75917466747927
 31
0.0000000000000213
  0
LINE
  5
251B
  8
1
 62
     8
 10
367.06237776510483
 20
491.75917466747927
 30
0.0000000000000213
 11
361.56237776510483
 21
491.75917466747927
 31
0.0000000000000213
  0
POLYLINE
  5
252D
  8
1
 62
     8
 66
     1
 10
0.0
 20
0.0
 30
0.0
  0
VERTEX
  5
2A5F
  8
1
 62
     8
 10
409.56237776510488
 20
491.75917466747927
 30
0.0
  0
VERTEX
  5
2A60
  8
1
 62
     8
 10
409.56237776510488
 20
480.25917466747927
 30
0.0
  0
VERTEX
  5
2A61
  8
1
 62
     8
 10
423.56237776510483
 20
480.25917466747927
 30
0.0
  0
VERTEX
  5
2A62
  8
1
 62
     8
 10
423.56237776510483
 20
495.25917466747927
 30
0.0
  0
VERTEX
  5
2A63
  8
1
 62
     8
 10
415.06237776510483
 20
495.25917466747927
 30
0.0
  0
SEQEND
  5
2A64
  8
1
 62
     8
  0
POLYLINE
  5
252E
  8
1
 62
     8
 66
     1
 10
0.0
 20
0.0
 30
0.0
  0
VERTEX
  5
2A65
  8
1
 62
     8
 10
409.4218949180962
 20
514.95721435638688
 30
0.0
  0
VERTEX
  5
2A66
  8
1
 62
     8
 10
409.4218949180962
 20
503.45721435638688
 30
0.0
  0
VERTEX
  5
2A67
  8
1
 62
     8
 10
423.42189491809631
 20
503.45721435638688
 30
0.0
  0
VERTEX
  5
2A68
  8
1
 62
     8
 10
423.42189491809631
 20
518.45721435638677
 30
0.0
  0
VERTEX
  5
2A69
  8
1
 62
     8
 10
414.92189491809631
 20
518.45721435638677
 30
0.0
  0
SEQEND
  5
2A6A
  8
1
 62
     8
  0
LINE
  5
252F
  8
1
 62
     8
 10
414.92189491809631
 20
514.95721435638688
 30
0.0
 11
409.4218949180962
 21
514.95721435638688
 31
0.0
  0
LINE
  5
2530
  8
1
 62
     8
 10
398.92189491809631
 20
518.45721435638677
 30
0.0
 11
398.92189491809631
 21
514.95721435638688
 31
0.0
  0
LINE
  5
2531
  8
1
 62
     8
 10
414.92189491809631
 20
518.45721435638677
 30
0.0
 11
414.92189491809631
 21
514.95721435638688
 31
0.0
  0
LINE
  5
2532
  8
1
 62
     8
 10
415.06237776510483
 20
491.75917466747927
 30
0.0000000000000213
 11
409.56237776510488
 21
491.75917466747927
 31
0.0000000000000213
  0
LINE
  5
2533
  8
1
 62
     8
 10
399.06237776510488
 20
495.25917466747927
 30
0.0000000000000213
 11
399.06237776510488
 21
491.75917466747927
 31
0.0000000000000213
  0
LINE
  5
2534
  8
1
 62
     8
 10
415.06237776510483
 20
495.25917466747927
 30
0.0000000000000213
 11
415.06237776510483
 21
491.75917466747927
 31
0.0000000000000213
  0
POLYLINE
  5
2536
  8
1
 62
     8
 66
     1
 10
0.0
 20
0.0
 30
0.0
  0
VERTEX
  5
2A6B
  8
1
 62
     8
 10
377.56237776510483
 20
491.75917466747927
 30
0.0
  0
VERTEX
  5
2A6C
  8
1
 62
     8
 10
377.56237776510483
 20
480.25917466747927
 30
0.0
  0
VERTEX
  5
2A6D
  8
1
 62
     8
 10
391.56237776510488
 20
480.25917466747927
 30
0.0
  0
VERTEX
  5
2A6E
  8
1
 62
     8
 10
391.56237776510488
 20
495.25917466747927
 30
0.0
  0
VERTEX
  5
2A6F
  8
1
 62
     8
 10
383.06237776510483
 20
495.25917466747927
 30
0.0
  0
SEQEND
  5
2A70
  8
1
 62
     8
  0
POLYLINE
  5
2537
  8
1
 62
     8
 66
     1
 10
0.0
 20
0.0
 30
0.0
  0
VERTEX
  5
2A71
  8
1
 62
     8
 10
377.42189491809631
 20
514.95721435638688
 30
0.0
  0
VERTEX
  5
2A72
  8
1
 62
     8
 10
377.42189491809631
 20
503.45721435638688
 30
0.0
  0
VERTEX
  5
2A73
  8
1
 62
     8
 10
391.42189491809631
 20
503.45721435638688
 30
0.0
  0
VERTEX
  5
2A74
  8
1
 62
     8
 10
391.42189491809631
 20
518.45721435638677
 30
0.0
  0
VERTEX
  5
2A75
  8
1
 62
     8
 10
382.92189491809631
 20
518.45721435638677
 30
0.0
  0
SEQEND
  5
2A76
  8
1
 62
     8
  0
LINE
  5
2538
  8
1
 62
     8
 10
382.92189491809631
 20
518.45721435638677
 30
0.0
 11
382.92189491809631
 21
514.95721435638688
 31
0.0
  0
LINE
  5
2539
  8
1
 62
     8
 10
382.92189491809631
 20
514.95721435638688
 30
0.0
 11
377.42189491809631
 21
514.95721435638688
 31
0.0
  0
LINE
  5
253A
  8
1
 62
     8
 10
383.06237776510483
 20
495.25917466747927
 30
0.0000000000000213
 11
383.06237776510483
 21
491.75917466747927
 31
0.0000000000000213
  0
LINE
  5
253B
  8
1
 62
     8
 10
383.06237776510483
 20
491.75917466747927
 30
0.0000000000000213
 11
377.56237776510483
 21
491.75917466747927
 31
0.0000000000000213
  0
POLYLINE
  5
253C
  8
1
 62
     8
 66
     1
 10
0.0
 20
0.0
 30
0.0
  0
VERTEX
  5
2A77
  8
1
 62
     8
 10
393.56237776510483
 20
491.75917466747927
 30
0.0
  0
VERTEX
  5
2A78
  8
1
 62
     8
 10
393.56237776510483
 20
480.25917466747927
 30
0.0
  0
VERTEX
  5
2A79
  8
1
 62
     8
 10
407.56237776510483
 20
480.25917466747927
 30
0.0
  0
VERTEX
  5
2A7A
  8
1
 62
     8
 10
407.56237776510483
 20
495.25917466747927
 30
0.0
  0
VERTEX
  5
2A7B
  8
1
 62
     8
 10
399.06237776510488
 20
495.25917466747927
 30
0.0
  0
SEQEND
  5
2A7C
  8
1
 62
     8
  0
LINE
  5
253D
  8
1
 62
     8
 10
398.92189491809631
 20
514.95721435638688
 30
0.0
 11
393.42189491809631
 21
514.95721435638688
 31
0.0
  0
POLYLINE
  5
253E
  8
1
 62
     8
 66
     1
 10
0.0
 20
0.0
 30
0.0
  0
VERTEX
  5
2A7D
  8
1
 62
     8
 10
393.42189491809631
 20
514.95721435638688
 30
0.0
  0
VERTEX
  5
2A7E
  8
1
 62
     8
 10
393.42189491809631
 20
503.45721435638688
 30
0.0
  0
VERTEX
  5
2A7F
  8
1
 62
     8
 10
407.42189491809631
 20
503.45721435638688
 30
0.0
  0
VERTEX
  5
2A80
  8
1
 62
     8
 10
407.42189491809631
 20
518.45721435638677
 30
0.0
  0
VERTEX
  5
2A81
  8
1
 62
     8
 10
398.92189491809631
 20
518.45721435638677
 30
0.0
  0
SEQEND
  5
2A82
  8
1
 62
     8
  0
LINE
  5
253F
  8
1
 62
     8
 10
399.06237776510488
 20
491.75917466747927
 30
0.0000000000000213
 11
393.56237776510483
 21
491.75917466747927
 31
0.0000000000000213
  0
POLYLINE
  5
254D
  8
1
 62
     8
 66
     1
 10
0.0
 20
0.0
 30
0.0
 70
     1
  0
VERTEX
  5
2A83
  8
1
 62
     8
 10
441.56237776510483
 20
503.54635013130098
 30
0.0
  0
VERTEX
  5
2A84
  8
1
 62
     8
 10
455.56237776510488
 20
503.54635013130098
 30
0.0
  0
VERTEX
  5
2A85
  8
1
 62
     8
 10
455.56237776510488
 20
518.5463501313011
 30
0.0
  0
VERTEX
  5
2A86
  8
1
 62
     8
 10
441.56237776510483
 20
518.5463501313011
 30
0.0
  0
SEQEND
  5
2A87
  8
1
 62
     8
  0
LINE
  5
254E
  8
1
 62
     8
 10
455.56237776510488
 20
480.25917466747927
 30
0.0000000000000213
 11
455.56237776510488
 21
495.25917466747927
 31
0.0000000000000213
  0
LINE
  5
254F
  8
1
 62
     8
 10
441.56237776510301
 20
495.25917466747927
 30
0.0000000000000213
 11
441.56237776510483
 21
480.25917466747927
 31
0.0000000000000213
  0
LINE
  5
2550
  8
1
 62
     8
 10
441.56237776510483
 20
480.25917466747927
 30
0.0000000000000213
 11
455.56237776510488
 21
480.25917466747927
 31
0.0000000000000213
  0
LINE
  5
2551
  8
1
 62
     8
 10
455.56237776510488
 20
495.25917466747927
 30
0.0000000000000213
 11
441.56237776510301
 21
495.25917466747927
 31
0.0000000000000213
  0
ARC
  5
2928
  8
1
 10
296.92189491809398
 20
419.15720089228029
 30
0.0
 40
1.5
 50
180.0
 51
270.0
  0
ARC
  5
2929
  8
1
 10
504.92189491809398
 20
419.15720089228029
 30
0.0
 40
1.5
 50
270.0
 51
0.0
  0
ARC
  5
293C
  8
1
 10
301.72189491810218
 20
639.85720089227937
 30
0.0
 40
0.8
 50
90.0
 51
179.99999999999559
  0
ARC
  5
293D
  8
1
 10
499.12189491809028
 20
639.85720089227925
 30
0.0
 40
0.8
 50
0.0
 51
90.0
  0
VIEWPORT
  5
26C5
 67
     1
  8
0
 10
206.9041748046875
 20
145.3409149646759
 30
0.0
 40
444.52750805664061
 41
364.78752207534632
 68
     1
 69
     1
1001
ACAD
1000
MVIEW
1002
{
1070
    16
1010
0.0
1020
0.0
1030
0.0
1010
0.0
1020
0.0
1030
1.0
1040
0.0
1040
364.78752207534632
1040
206.9041748046875
1040
145.3409149646759
1040
50.0
1040
0.0
1040
0.0
1070
     0
1070
   100
1070
     1
1070
     1
1070
     0
1070
     0
1070
     0
1070
     0
1040
0.0
1040
0.0
1040
0.0
1040
10.0
1040
10.0
1040
10.0
1040
10.0
1070
     0
1002
{
1002
}
1002
}
  0
VIEWPORT
  5
26C7
 67
     1
  8
DEFPOINTS
 10
206.43060491026401
 20
144.9697791794064
 30
0.0
 40
410.22375438228238
 41
286.34755821222109
 68
     2
 69
     2
1001
ACAD
1000
MVIEW
1002
{
1070
    16
1010
0.0
1020
0.0
1030
0.0
1010
0.0
1020
0.0
1030
1.0
1040
0.0
1040
859.04267453027137
1040
635.95863407703257
1040
447.72783229055608
1040
50.0
1040
0.0
1040
0.0
1070
     0
1070
   100
1070
     1
1070
     0
1070
     0
1070
     0
1070
     0
1070
     2
1040
0.0
1040
0.0
1040
0.0
1040
168.0
1040
168.0
1040
0.0
1040
0.0
1070
     0
1002
{
1002
}
1002
}
  0
ENDSEC
  0
EOF
