  0
SECTION
  2
HEADER
  9
$ACADVER
  1
AC1015
  9
$ACADMAINTVER
 70
    20
  9
$DWGCODEPAGE
  3
ANSI_932
  9
$INSBASE
 10
0.0
 20
0.0
 30
0.0
  9
$EXTMIN
 10
0.0
 20
0.0
 30
0.0
  9
$EXTMAX
 10
840.0
 20
594.0
 30
0.0
  9
$LIMMIN
 10
0.0
 20
0.0
  9
$LIMMAX
 10
408.1999999999998
 20
285.26
  9
$ORTHOMODE
 70
     1
  9
$REGENMODE
 70
     1
  9
$FILLMODE
 70
     1
  9
$QTEXTMODE
 70
     0
  9
$MIRRTEXT
 70
     1
  9
$LTSCALE
 40
10.0
  9
$ATTMODE
 70
     1
  9
$TEXTSIZE
 40
3.0
  9
$TRACEWID
 40
1.0
  9
$TEXTSTYLE
  7
FDB
  9
$CLAYER
  8
0
  9
$CELTYPE
  6
BYLAYER
  9
$CECOLOR
 62
   256
  9
$CELTSCALE
 40
1.0
  9
$DISPSILH
 70
     0
  9
$DIMSCALE
 40
1.0
  9
$DIMASZ
 40
0.18
  9
$DIMEXO
 40
0.0625
  9
$DIMDLI
 40
0.38
  9
$DIMRND
 40
0.0
  9
$DIMDLE
 40
0.0
  9
$DIMEXE
 40
0.18
  9
$DIMTP
 40
0.0
  9
$DIMTM
 40
0.0
  9
$DIMTXT
 40
0.18
  9
$DIMCEN
 40
0.09
  9
$DIMTSZ
 40
0.0
  9
$DIMTOL
 70
     0
  9
$DIMLIM
 70
     0
  9
$DIMTIH
 70
     1
  9
$DIMTOH
 70
     1
  9
$DIMSE1
 70
     0
  9
$DIMSE2
 70
     0
  9
$DIMTAD
 70
     0
  9
$DIMZIN
 70
     0
  9
$DIMBLK
  1

  9
$DIMASO
 70
     1
  9
$DIMSHO
 70
     1
  9
$DIMPOST
  1

  9
$DIMAPOST
  1

  9
$DIMALT
 70
     0
  9
$DIMALTD
 70
     2
  9
$DIMALTF
 40
25.4
  9
$DIMLFAC
 40
1.0
  9
$DIMTOFL
 70
     0
  9
$DIMTVP
 40
0.0
  9
$DIMTIX
 70
     0
  9
$DIMSOXD
 70
     0
  9
$DIMSAH
 70
     0
  9
$DIMBLK1
  1

  9
$DIMBLK2
  1

  9
$DIMSTYLE
  2
STANDARD
  9
$DIMCLRD
 70
     0
  9
$DIMCLRE
 70
     0
  9
$DIMCLRT
 70
     0
  9
$DIMTFAC
 40
1.0
  9
$DIMGAP
 40
0.09
  9
$DIMJUST
 70
     0
  9
$DIMSD1
 70
     0
  9
$DIMSD2
 70
     0
  9
$DIMTOLJ
 70
     1
  9
$DIMTZIN
 70
     0
  9
$DIMALTZ
 70
     0
  9
$DIMALTTZ
 70
     0
  9
$DIMUPT
 70
     0
  9
$DIMDEC
 70
     4
  9
$DIMTDEC
 70
     4
  9
$DIMALTU
 70
     2
  9
$DIMALTTD
 70
     2
  9
$DIMTXSTY
  7
STANDARD
  9
$DIMAUNIT
 70
     0
  9
$DIMADEC
 70
     0
  9
$DIMALTRND
 40
0.0
  9
$DIMAZIN
 70
     0
  9
$DIMDSEP
 70
    46
  9
$DIMATFIT
 70
     3
  9
$DIMFRAC
 70
     0
  9
$DIMLDRBLK
  1

  9
$DIMLUNIT
 70
     2
  9
$DIMLWD
 70
    -2
  9
$DIMLWE
 70
    -2
  9
$DIMTMOVE
 70
     0
  9
$LUNITS
 70
     2
  9
$LUPREC
 70
     4
  9
$SKETCHINC
 40
1.0
  9
$FILLETRAD
 40
0.0
  9
$AUNITS
 70
     0
  9
$AUPREC
 70
     0
  9
$MENU
  1
.
  9
$ELEVATION
 40
0.0
  9
$PELEVATION
 40
0.0
  9
$THICKNESS
 40
0.0
  9
$LIMCHECK
 70
     0
  9
$CHAMFERA
 40
0.0
  9
$CHAMFERB
 40
0.0
  9
$CHAMFERC
 40
673.4006734006732
  9
$CHAMFERD
 40
0.0
  9
$SKPOLY
 70
     0
  9
$TDCREATE
 40
2452340.381134606
  9
$TDUCREATE
 40
2452340.006134607
  9
$TDUPDATE
 40
2459613.579957975
  9
$TDUUPDATE
 40
2459613.204957975
  9
$TDINDWG
 40
0.7849341204
  9
$TDUSRTIMER
 40
0.7849339352
  9
$USRTIMER
 70
     1
  9
$ANGBASE
 50
0.0
  9
$ANGDIR
 70
     0
  9
$PDMODE
 70
     0
  9
$PDSIZE
 40
0.0
  9
$PLINEWID
 40
0.0
  9
$SPLFRAME
 70
     0
  9
$SPLINETYPE
 70
     6
  9
$SPLINESEGS
 70
     8
  9
$HANDSEED
  5
9FBE
  9
$SURFTAB1
 70
     6
  9
$SURFTAB2
 70
     6
  9
$SURFTYPE
 70
     6
  9
$SURFU
 70
     6
  9
$SURFV
 70
     6
  9
$UCSBASE
  2

  9
$UCSNAME
  2

  9
$UCSORG
 10
0.0
 20
0.0
 30
0.0
  9
$UCSXDIR
 10
1.0
 20
0.0
 30
0.0
  9
$UCSYDIR
 10
0.0
 20
1.0
 30
0.0
  9
$UCSORTHOREF
  2

  9
$UCSORTHOVIEW
 70
     0
  9
$UCSORGTOP
 10
0.0
 20
0.0
 30
0.0
  9
$UCSORGBOTTOM
 10
0.0
 20
0.0
 30
0.0
  9
$UCSORGLEFT
 10
0.0
 20
0.0
 30
0.0
  9
$UCSORGRIGHT
 10
0.0
 20
0.0
 30
0.0
  9
$UCSORGFRONT
 10
0.0
 20
0.0
 30
0.0
  9
$UCSORGBACK
 10
0.0
 20
0.0
 30
0.0
  9
$PUCSBASE
  2

  9
$PUCSNAME
  2

  9
$PUCSORG
 10
0.0
 20
0.0
 30
0.0
  9
$PUCSXDIR
 10
1.0
 20
0.0
 30
0.0
  9
$PUCSYDIR
 10
0.0
 20
1.0
 30
0.0
  9
$PUCSORTHOREF
  2

  9
$PUCSORTHOVIEW
 70
     0
  9
$PUCSORGTOP
 10
0.0
 20
0.0
 30
0.0
  9
$PUCSORGBOTTOM
 10
0.0
 20
0.0
 30
0.0
  9
$PUCSORGLEFT
 10
0.0
 20
0.0
 30
0.0
  9
$PUCSORGRIGHT
 10
0.0
 20
0.0
 30
0.0
  9
$PUCSORGFRONT
 10
0.0
 20
0.0
 30
0.0
  9
$PUCSORGBACK
 10
0.0
 20
0.0
 30
0.0
  9
$USERI1
 70
     0
  9
$USERI2
 70
     0
  9
$USERI3
 70
     0
  9
$USERI4
 70
     0
  9
$USERI5
 70
     0
  9
$USERR1
 40
0.0
  9
$USERR2
 40
0.0
  9
$USERR3
 40
0.0
  9
$USERR4
 40
0.0
  9
$USERR5
 40
0.0
  9
$WORLDVIEW
 70
     1
  9
$SHADEDGE
 70
     3
  9
$SHADEDIF
 70
    70
  9
$TILEMODE
 70
     1
  9
$MAXACTVP
 70
    16
  9
$PINSBASE
 10
0.0
 20
0.0
 30
0.0
  9
$PLIMCHECK
 70
     0
  9
$PEXTMIN
 10
2.111715209800422
 20
2.148474444290513
 30
0.0
  9
$PEXTMAX
 10
411.6966341940425
 20
288.5333555328187
 30
0.0
  9
$PLIMMIN
 10
-3.17498779296875
 20
-3.174999952316282
  9
$PLIMMAX
 10
416.9833374023435
 20
293.8568298816682
  9
$UNITMODE
 70
     0
  9
$VISRETAIN
 70
     0
  9
$PLINEGEN
 70
     0
  9
$PSLTSCALE
 70
     1
  9
$TREEDEPTH
 70
  3020
  9
$CMLSTYLE
  2
STANDARD
  9
$CMLJUST
 70
     0
  9
$CMLSCALE
 40
1.0
  9
$PROXYGRAPHICS
 70
     1
  9
$MEASUREMENT
 70
     1
  9
$CELWEIGHT
370
    -1
  9
$ENDCAPS
280
     0
  9
$JOINSTYLE
280
     0
  9
$LWDISPLAY
290
     0
  9
$INSUNITS
 70
     0
  9
$HYPERLINKBASE
  1

  9
$STYLESHEET
  1

  9
$XEDIT
290
     1
  9
$CEPSNTYPE
380
     0
  9
$PSTYLEMODE
290
     1
  9
$FINGERPRINTGUID
  2
{8ACAE060-96A8-11D3-AA4A-00A0247712C1}
  9
$VERSIONGUID
  2
{606EEA43-ABCC-41C7-A6C8-F997EDD30F11}
  9
$EXTNAMES
290
     1
  9
$PSVPSCALE
 40
0.0
  9
$OLESTARTUP
290
     0
  0
ENDSEC
  0
SECTION
  2
CLASSES
  0
CLASS
  1
ACDBDICTIONARYWDFLT
  2
AcDbDictionaryWithDefault
  3
ObjectDBX Classes
 90
        0
280
     0
281
     0
  0
CLASS
  1
ACDBPLACEHOLDER
  2
AcDbPlaceHolder
  3
ObjectDBX Classes
 90
        0
280
     0
281
     0
  0
CLASS
  1
LAYOUT
  2
AcDbLayout
  3
ObjectDBX Classes
 90
        0
280
     0
281
     0
  0
CLASS
  1
PLOTSETTINGS
  2
AcDbPlotSettings
  3
ObjectDBX Classes
 90
        0
280
     0
281
     0
  0
CLASS
  1
DICTIONARYVAR
  2
AcDbDictionaryVar
  3
ObjectDBX Classes
 90
        0
280
     0
281
     0
  0
CLASS
  1
TABLESTYLE
  2
AcDbTableStyle
  3
ObjectDBX Classes
 90
     4095
280
     0
281
     0
  0
CLASS
  1
SORTENTSTABLE
  2
AcDbSortentsTable
  3
ObjectDBX Classes
 90
        0
280
     0
281
     0
  0
CLASS
  1
MATERIAL
  2
AcDbMaterial
  3
ObjectDBX Classes
 90
     1153
280
     0
281
     0
  0
CLASS
  1
VISUALSTYLE
  2
AcDbVisualStyle
  3
ObjectDBX Classes
 90
     4095
280
     0
281
     0
  0
CLASS
  1
SCALE
  2
AcDbScale
  3
ObjectDBX Classes
 90
     1153
280
     0
281
     0
  0
CLASS
  1
MLEADERSTYLE
  2
AcDbMLeaderStyle
  3
ACDB_MLEADERSTYLE_CLASS
 90
     4095
280
     0
281
     0
  0
CLASS
  1
CELLSTYLEMAP
  2
AcDbCellStyleMap
  3
ObjectDBX Classes
 90
     1152
280
     0
281
     0
  0
ENDSEC
  0
SECTION
  2
TABLES
  0
TABLE
  2
VPORT
  5
8
330
0
100
AcDbSymbolTable
 70
     1
  0
VPORT
  5
9EFE
330
8
100
AcDbSymbolTableRecord
100
AcDbViewportTableRecord
  2
*Active
 70
     0
 10
0.0
 20
0.0
 11
1.0
 21
1.0
 12
420.0000039116743
 22
297.0000027661125
 13
0.0
 23
0.0
 14
168.0
 24
168.0
 15
0.0
 25
0.0
 16
0.0
 26
0.0
 36
1.0
 17
0.0
 27
0.0
 37
0.0
 40
597.8404137458373
 41
1.638095238095238
 42
50.0
 43
0.0
 44
0.0
 50
0.0
 51
0.0
 71
     0
 72
   100
 73
     1
 74
     0
 75
     0
 76
     0
 77
     0
 78
     1
281
     0
 65
     1
110
0.0
120
0.0
130
0.0
111
1.0
121
0.0
131
0.0
112
0.0
122
1.0
132
0.0
 79
     0
146
0.0
  0
ENDTAB
  0
TABLE
  2
LTYPE
  5
5
330
0
100
AcDbSymbolTable
 70
     3
  0
LTYPE
  5
14
330
5
100
AcDbSymbolTableRecord
100
AcDbLinetypeTableRecord
  2
BYBLOCK
 70
     0
  3

 72
    65
 73
     0
 40
0.0
  0
LTYPE
  5
15
330
5
100
AcDbSymbolTableRecord
100
AcDbLinetypeTableRecord
  2
BYLAYER
 70
     0
  3

 72
    65
 73
     0
 40
0.0
  0
LTYPE
  5
16
330
5
100
AcDbSymbolTableRecord
100
AcDbLinetypeTableRecord
  2
CONTINUOUS
 70
     0
  3
Solid line
 72
    65
 73
     0
 40
0.0
  0
LTYPE
  5
233B
330
5
100
AcDbSymbolTableRecord
100
AcDbLinetypeTableRecord
  2
CENTER
 70
     0
  3
____ _ ____ _ ____ _ ____ _ ____ _ ____ _ ____ 
 72
    65
 73
     4
 40
2.0
 49
1.25
 74
     0
 49
-0.25
 74
     0
 49
0.25
 74
     0
 49
-0.25
 74
     0
  0
ENDTAB
  0
TABLE
  2
LAYER
  5
2
102
{ACAD_XDICTIONARY
360
974C
102
}
330
0
100
AcDbSymbolTable
 70
     5
  0
LAYER
  5
F
102
{ACAD_XDICTIONARY
360
9F83
102
}
330
2
100
AcDbSymbolTableRecord
100
AcDbLayerTableRecord
  2
0
 70
     0
 62
     8
  6
CENTER
370
    -3
390
2C1
  0
LAYER
  5
71
102
{ACAD_XDICTIONARY
360
9F85
102
}
330
2
100
AcDbSymbolTableRecord
100
AcDbLayerTableRecord
  2
MEASURE
 70
     0
 62
     9
  6
CONTINUOUS
370
    -3
390
2C1
  0
LAYER
  5
72
330
2
100
AcDbSymbolTableRecord
100
AcDbLayerTableRecord
  2
DEFPOINTS
 70
     0
 62
     7
  6
CONTINUOUS
290
     0
370
    -3
390
2C1
  0
LAYER
  5
98EF
102
{ACAD_XDICTIONARY
360
9F89
102
}
330
2
100
AcDbSymbolTableRecord
100
AcDbLayerTableRecord
  2
1
 70
     0
 62
     7
  6
CONTINUOUS
370
    -3
390
2C1
1001
AcAecLayerStandard
1000

1000

  0
ENDTAB
  0
TABLE
  2
STYLE
  5
3
330
0
100
AcDbSymbolTable
 70
     3
  0
STYLE
  5
10
330
3
100
AcDbSymbolTableRecord
100
AcDbTextStyleTableRecord
  2
STANDARD
 70
     0
 40
0.0
 41
0.8
 50
0.0
 71
     0
 42
84.17508417508415
  3
TXT
  4
bigfont.shx
  0
STYLE
  5
63
330
3
100
AcDbSymbolTableRecord
100
AcDbTextStyleTableRecord
  2
AD-STANDARD
 70
     0
 40
0.0
 41
0.8
 50
0.0
 71
     0
 42
3.5
  3
C:\Program Files\AutoCAD LT\romans.shx
  4
bigfont.shx
  0
STYLE
  5
1222
330
3
100
AcDbSymbolTableRecord
100
AcDbTextStyleTableRecord
  2
FDB
 70
     0
 40
3.0
 41
1.0
 50
0.0
 71
     0
 42
3.0
  3
futurah.ttf
  4

1001
ACAD
1000
Futura Hv BT
1071
       34
  0
ENDTAB
  0
TABLE
  2
VIEW
  5
6
330
0
100
AcDbSymbolTable
 70
     1
  0
ENDTAB
  0
TABLE
  2
UCS
  5
7
330
0
100
AcDbSymbolTable
 70
     0
  0
ENDTAB
  0
TABLE
  2
APPID
  5
9
330
0
100
AcDbSymbolTable
 70
     9
  0
APPID
  5
11
330
9
100
AcDbSymbolTableRecord
100
AcDbRegAppTableRecord
  2
ACAD
 70
     0
  0
APPID
  5
22A
330
9
100
AcDbSymbolTableRecord
100
AcDbRegAppTableRecord
  2
CONTENTTABDATA
 70
     0
  0
APPID
  5
22B
330
9
100
AcDbSymbolTableRecord
100
AcDbRegAppTableRecord
  2
CONTENTCURRENTTAB
 70
     0
  0
APPID
  5
232
330
9
100
AcDbSymbolTableRecord
100
AcDbRegAppTableRecord
  2
CONTENTBLOCKDESCRIPTION
 70
     0
  0
APPID
  5
233
330
9
100
AcDbSymbolTableRecord
100
AcDbRegAppTableRecord
  2
CONTENTBLOCKICON
 70
     0
  0
APPID
  5
9799
330
9
100
AcDbSymbolTableRecord
100
AcDbRegAppTableRecord
  2
ACAD_PSEXT
 70
     0
  0
APPID
  5
98F0
330
9
100
AcDbSymbolTableRecord
100
AcDbRegAppTableRecord
  2
AcAecLayerStandard
 70
     0
  0
APPID
  5
9E08
330
9
100
AcDbSymbolTableRecord
100
AcDbRegAppTableRecord
  2
ACAD_EXEMPT_FROM_CAD_STANDARDS
 70
     0
  0
APPID
  5
9F60
330
9
100
AcDbSymbolTableRecord
100
AcDbRegAppTableRecord
  2
ACAD_MLEADERVER
 70
     0
  0
ENDTAB
  0
TABLE
  2
DIMSTYLE
  5
A
330
0
100
AcDbSymbolTable
 70
     3
100
AcDbDimStyleTable
 71
     3
340
1D
340
68
340
4A5A
  0
DIMSTYLE
105
1D
330
A
100
AcDbSymbolTableRecord
100
AcDbDimStyleTableRecord
  2
STANDARD
 70
     0
340
10
  0
DIMSTYLE
105
68
102
{ACAD_REACTORS
330
90FC
330
9131
330
913E
330
9164
330
9171
330
917E
330
91C1
330
91CE
330
91DB
330
9499
330
9DB5
330
9DA8
330
9DC2
330
9E2F
330
9E22
330
9E15
330
9EB0
102
}
330
A
100
AcDbSymbolTableRecord
100
AcDbDimStyleTableRecord
  2
AD-STANDARD
 70
     0
 41
2.5
 42
1.0
 44
2.0
 73
     0
 74
     0
 77
     1
 78
     8
 79
     2
140
3.0
141
2.0
147
0.5
172
     1
176
     9
177
     9
178
     2
179
     2
284
     8
289
     1
340
63
  0
DIMSTYLE
105
4A5A
102
{ACAD_REACTORS
330
8C60
330
8CF5
330
8D06
330
8D8E
330
8E23
330
8EFE
330
8FAB
330
8FC6
330
9E76
102
}
330
A
100
AcDbSymbolTableRecord
100
AcDbDimStyleTableRecord
  2
AD-STANDARD(0.5)
 70
     0
 40
2.0
 41
2.5
 42
1.0
 44
2.0
 73
     0
 74
     0
 77
     1
 78
     8
 79
     2
140
3.0
141
2.0
147
0.5
172
     1
176
     9
177
     9
178
     2
179
     2
284
     8
289
     1
340
63
  0
ENDTAB
  0
TABLE
  2
BLOCK_RECORD
  5
1
330
0
100
AcDbSymbolTable
 70
    26
  0
BLOCK_RECORD
  5
1A
102
{ACAD_XDICTIONARY
360
964B
102
}
330
1
100
AcDbSymbolTableRecord
100
AcDbBlockTableRecord
  2
*MODEL_SPACE
340
2C4
  0
BLOCK_RECORD
  5
978A
330
1
100
AcDbSymbolTableRecord
100
AcDbBlockTableRecord
  2
*Paper_Space
340
9789
  0
BLOCK_RECORD
  5
8C61
330
1
100
AcDbSymbolTableRecord
100
AcDbBlockTableRecord
  2
*D0
340
0
  0
BLOCK_RECORD
  5
8CF6
330
1
100
AcDbSymbolTableRecord
100
AcDbBlockTableRecord
  2
*D1
340
0
  0
BLOCK_RECORD
  5
8D07
330
1
100
AcDbSymbolTableRecord
100
AcDbBlockTableRecord
  2
*D2
340
0
  0
BLOCK_RECORD
  5
8D8F
330
1
100
AcDbSymbolTableRecord
100
AcDbBlockTableRecord
  2
*D3
340
0
  0
BLOCK_RECORD
  5
8E24
330
1
100
AcDbSymbolTableRecord
100
AcDbBlockTableRecord
  2
*D4
340
0
  0
BLOCK_RECORD
  5
8EFF
330
1
100
AcDbSymbolTableRecord
100
AcDbBlockTableRecord
  2
*D5
340
0
  0
BLOCK_RECORD
  5
8FAC
330
1
100
AcDbSymbolTableRecord
100
AcDbBlockTableRecord
  2
*D6
340
0
  0
BLOCK_RECORD
  5
8FC7
330
1
100
AcDbSymbolTableRecord
100
AcDbBlockTableRecord
  2
*D7
340
0
  0
BLOCK_RECORD
  5
90FD
330
1
100
AcDbSymbolTableRecord
100
AcDbBlockTableRecord
  2
*D8
340
0
  0
BLOCK_RECORD
  5
9132
330
1
100
AcDbSymbolTableRecord
100
AcDbBlockTableRecord
  2
*D9
340
0
  0
BLOCK_RECORD
  5
913F
330
1
100
AcDbSymbolTableRecord
100
AcDbBlockTableRecord
  2
*D10
340
0
  0
BLOCK_RECORD
  5
9165
330
1
100
AcDbSymbolTableRecord
100
AcDbBlockTableRecord
  2
*D11
340
0
  0
BLOCK_RECORD
  5
9172
330
1
100
AcDbSymbolTableRecord
100
AcDbBlockTableRecord
  2
*D12
340
0
  0
BLOCK_RECORD
  5
917F
330
1
100
AcDbSymbolTableRecord
100
AcDbBlockTableRecord
  2
*D13
340
0
  0
BLOCK_RECORD
  5
91C2
330
1
100
AcDbSymbolTableRecord
100
AcDbBlockTableRecord
  2
*D14
340
0
  0
BLOCK_RECORD
  5
91CF
330
1
100
AcDbSymbolTableRecord
100
AcDbBlockTableRecord
  2
*D15
340
0
  0
BLOCK_RECORD
  5
91DC
330
1
100
AcDbSymbolTableRecord
100
AcDbBlockTableRecord
  2
*D16
340
0
  0
BLOCK_RECORD
  5
949A
330
1
100
AcDbSymbolTableRecord
100
AcDbBlockTableRecord
  2
*D17
340
0
  0
BLOCK_RECORD
  5
9DA9
330
1
100
AcDbSymbolTableRecord
100
AcDbBlockTableRecord
  2
*D18
340
0
  0
BLOCK_RECORD
  5
9DB6
330
1
100
AcDbSymbolTableRecord
100
AcDbBlockTableRecord
  2
*D19
340
0
  0
BLOCK_RECORD
  5
9DC3
330
1
100
AcDbSymbolTableRecord
100
AcDbBlockTableRecord
  2
*D20
340
0
  0
BLOCK_RECORD
  5
9E16
330
1
100
AcDbSymbolTableRecord
100
AcDbBlockTableRecord
  2
*D21
340
0
  0
BLOCK_RECORD
  5
9E23
330
1
100
AcDbSymbolTableRecord
100
AcDbBlockTableRecord
  2
*D22
340
0
  0
BLOCK_RECORD
  5
9E30
330
1
100
AcDbSymbolTableRecord
100
AcDbBlockTableRecord
  2
*D23
340
0
  0
BLOCK_RECORD
  5
9E77
330
1
100
AcDbSymbolTableRecord
100
AcDbBlockTableRecord
  2
*D24
340
0
  0
BLOCK_RECORD
  5
9EB1
330
1
100
AcDbSymbolTableRecord
100
AcDbBlockTableRecord
  2
*D25
340
0
  0
ENDTAB
  0
ENDSEC
  0
SECTION
  2
BLOCKS
  0
BLOCK
  5
1B
330
1A
100
AcDbEntity
  8
0
100
AcDbBlockBegin
  2
*MODEL_SPACE
 70
     0
 10
0.0
 20
0.0
 30
0.0
  3
*MODEL_SPACE
  1

  0
ENDBLK
  5
1C
330
1A
100
AcDbEntity
  8
0
100
AcDbBlockEnd
  0
BLOCK
  5
978C
330
978A
100
AcDbEntity
 67
     1
  8
0
100
AcDbBlockBegin
  2
*Paper_Space
 70
     0
 10
0.0
 20
0.0
 30
0.0
  3
*Paper_Space
  1

  0
ENDBLK
  5
978D
330
978A
100
AcDbEntity
 67
     1
  8
0
100
AcDbBlockEnd
  0
BLOCK
  5
8C6B
330
8C61
100
AcDbEntity
  8
0
100
AcDbBlockBegin
  2
*D0
 70
     1
 10
0.0
 20
0.0
 30
0.0
  3
*D0
  1

  0
LINE
  5
9D9F
330
8C61
100
AcDbEntity
  8
MEASURE
 62
     9
370
    -2
100
AcDbLine
 10
183.6870496523925
 20
366.2890051199523
 30
0.0
 11
66.27281129216
 21
366.2890051199524
 31
0.0
  0
LINE
  5
9DA0
330
8C61
100
AcDbEntity
  8
MEASURE
 62
     9
370
    -2
100
AcDbLine
 10
111.6870542479391
 20
234.2890051199528
 30
0.0
 11
66.27281129215997
 21
234.2890051199528
 31
0.0
  0
LINE
  5
9DA1
330
8C61
100
AcDbEntity
  8
MEASURE
 62
     9
370
    -2
100
AcDbLine
 10
70.27281129216
 20
361.2890051199524
 30
0.0
 11
70.27281129216
 21
239.2890051199528
 31
0.0
  0
SOLID
  5
9DA2
330
8C61
100
AcDbEntity
  8
MEASURE
 62
     9
100
AcDbTrace
 10
69.43947795882667
 20
361.2890051199524
 30
0.0
 11
71.10614462549334
 21
361.2890051199524
 31
0.0
 12
70.27281129216
 22
366.2890051199524
 32
0.0
 13
70.27281129216
 23
366.2890051199524
 33
0.0
  0
SOLID
  5
9DA3
330
8C61
100
AcDbEntity
  8
MEASURE
 62
     9
100
AcDbTrace
 10
69.43947795882666
 20
239.2890051199528
 30
0.0
 11
71.10614462549332
 21
239.2890051199528
 31
0.0
 12
70.27281129216
 22
234.2890051199528
 32
0.0
 13
70.27281129216
 23
234.2890051199528
 33
0.0
  0
MTEXT
  5
9DA4
330
8C61
100
AcDbEntity
  8
MEASURE
 62
     2
100
AcDbMText
 10
64.70138272073135
 20
300.2890051199526
 30
0.0
 40
6.0
 41
0.0
 71
     5
 72
     1
  1
\A1;(132)
  7
AD-STANDARD
 11
0.0000000000000001
 21
1.0
 31
0.0
 73
     1
 44
1.0
1001
ACAD
1000
MTEXTBEGIN
1070
    73
1070
     1
1070
    44
1040
1.0
1070
    74
1070
     0
1000
MTEXTEND
  0
POINT
  5
9DA5
330
8C61
100
AcDbEntity
  8
DEFPOINTS
 62
     0
100
AcDbPoint
 10
185.6870496523925
 20
366.2890051199523
 30
0.0
  0
POINT
  5
9DA6
330
8C61
100
AcDbEntity
  8
DEFPOINTS
 62
     0
100
AcDbPoint
 10
113.6870542479391
 20
234.2890051199528
 30
0.0
  0
POINT
  5
9DA7
330
8C61
100
AcDbEntity
  8
DEFPOINTS
 62
     0
100
AcDbPoint
 10
70.27281129216
 20
234.2890051199528
 30
0.0
  0
ENDBLK
  5
8C6C
330
8C61
100
AcDbEntity
  8
0
100
AcDbBlockEnd
  0
BLOCK
  5
8D02
330
8CF6
100
AcDbEntity
  8
0
100
AcDbBlockBegin
  2
*D1
 70
     1
 10
0.0
 20
0.0
 30
0.0
  3
*D1
  1

  0
LINE
  5
9D8B
330
8CF6
100
AcDbEntity
  8
MEASURE
 62
     9
370
    -2
100
AcDbLine
 10
106.6870542479391
 20
237.2890051199528
 30
0.0
 11
77.53407556030423
 21
237.2890051199528
 31
0.0
  0
LINE
  5
9D8C
330
8CF6
100
AcDbEntity
  8
MEASURE
 62
     9
370
    -2
100
AcDbLine
 10
115.6870542479391
 20
234.2890051199528
 30
0.0
 11
77.53407556030423
 21
234.2890051199528
 31
0.0
  0
LINE
  5
9D8D
330
8CF6
100
AcDbEntity
  8
MEASURE
 62
     9
370
    -2
100
AcDbLine
 10
81.53407556030423
 20
242.2890051199528
 30
0.0
 11
81.53407556030423
 21
247.2890051199528
 31
0.0
  0
LINE
  5
9D8E
330
8CF6
100
AcDbEntity
  8
MEASURE
 62
     9
370
    -2
100
AcDbLine
 10
81.53407556030423
 20
229.2890051199528
 30
0.0
 11
81.53407556030421
 21
219.0890051199528
 31
0.0
  0
LINE
  5
9D8F
330
8CF6
100
AcDbEntity
  8
MEASURE
 62
     9
370
    -2
100
AcDbLine
 10
81.53407556030423
 20
237.2890051199528
 30
0.0
 11
81.53407556030423
 21
234.2890051199528
 31
0.0
  0
SOLID
  5
9D90
330
8CF6
100
AcDbEntity
  8
MEASURE
 62
     9
100
AcDbTrace
 10
80.7007422269709
 20
242.2890051199528
 30
0.0
 11
82.36740889363757
 21
242.2890051199528
 31
0.0
 12
81.53407556030423
 22
237.2890051199528
 32
0.0
 13
81.53407556030423
 23
237.2890051199528
 33
0.0
  0
SOLID
  5
9D91
330
8CF6
100
AcDbEntity
  8
MEASURE
 62
     9
100
AcDbTrace
 10
80.7007422269709
 20
229.2890051199528
 30
0.0
 11
82.36740889363757
 21
229.2890051199528
 31
0.0
 12
81.53407556030423
 22
234.2890051199528
 32
0.0
 13
81.53407556030423
 23
234.2890051199528
 33
0.0
  0
MTEXT
  5
9D92
330
8CF6
100
AcDbEntity
  8
MEASURE
 62
     2
100
AcDbMText
 10
77.53407556030419
 20
221.6890051199528
 30
0.0
 40
6.0
 41
0.0
 71
     5
 72
     1
  1
\A1;3
  7
AD-STANDARD
 11
0.0000000000000001
 21
1.0
 31
0.0
 73
     1
 44
1.0
1001
ACAD
1000
MTEXTBEGIN
1070
    73
1070
     1
1070
    44
1040
1.0
1070
    74
1070
     0
1000
MTEXTEND
  0
POINT
  5
9D93
330
8CF6
100
AcDbEntity
  8
DEFPOINTS
 62
     0
100
AcDbPoint
 10
108.6870542479391
 20
237.2890051199528
 30
0.0
  0
POINT
  5
9D94
330
8CF6
100
AcDbEntity
  8
DEFPOINTS
 62
     0
100
AcDbPoint
 10
117.6870542479391
 20
234.2890051199528
 30
0.0
  0
POINT
  5
9D95
330
8CF6
100
AcDbEntity
  8
DEFPOINTS
 62
     0
100
AcDbPoint
 10
81.53407556030423
 20
234.2890051199528
 30
0.0
  0
ENDBLK
  5
8D03
330
8CF6
100
AcDbEntity
  8
0
100
AcDbBlockEnd
  0
BLOCK
  5
8D11
330
8D07
100
AcDbEntity
  8
0
100
AcDbBlockBegin
  2
*D2
 70
     1
 10
0.0
 20
0.0
 30
0.0
  3
*D2
  1

  0
LINE
  5
9D96
330
8D07
100
AcDbEntity
  8
MEASURE
 62
     9
370
    -2
100
AcDbLine
 10
106.6870542479391
 20
237.2890051199528
 30
0.0
 11
77.53407556030423
 21
237.2890051199528
 31
0.0
  0
LINE
  5
9D97
330
8D07
100
AcDbEntity
  8
MEASURE
 62
     9
370
    -2
100
AcDbLine
 10
146.6870496523925
 20
317.2890073693467
 30
0.0
 11
77.53407556030423
 21
317.2890073693467
 31
0.0
  0
LINE
  5
9D98
330
8D07
100
AcDbEntity
  8
MEASURE
 62
     9
370
    -2
100
AcDbLine
 10
81.53407556030423
 20
242.2890051199528
 30
0.0
 11
81.53407556030423
 21
312.2890073693467
 31
0.0
  0
SOLID
  5
9D99
330
8D07
100
AcDbEntity
  8
MEASURE
 62
     9
100
AcDbTrace
 10
80.7007422269709
 20
242.2890051199528
 30
0.0
 11
82.36740889363757
 21
242.2890051199528
 31
0.0
 12
81.53407556030423
 22
237.2890051199528
 32
0.0
 13
81.53407556030423
 23
237.2890051199528
 33
0.0
  0
SOLID
  5
9D9A
330
8D07
100
AcDbEntity
  8
MEASURE
 62
     9
100
AcDbTrace
 10
80.70074222697092
 20
312.2890073693467
 30
0.0
 11
82.36740889363757
 21
312.2890073693467
 31
0.0
 12
81.53407556030423
 22
317.2890073693467
 32
0.0
 13
81.53407556030423
 23
317.2890073693467
 33
0.0
  0
MTEXT
  5
9D9B
330
8D07
100
AcDbEntity
  8
MEASURE
 62
     2
100
AcDbMText
 10
77.53407556030419
 20
277.2890062446498
 30
0.0
 40
6.0
 41
0.0
 71
     5
 72
     1
  1
\A1;80
  7
AD-STANDARD
 11
0.0000000000000001
 21
1.0
 31
0.0
 73
     1
 44
1.0
1001
ACAD
1000
MTEXTBEGIN
1070
    73
1070
     1
1070
    44
1040
1.0
1070
    74
1070
     0
1000
MTEXTEND
  0
POINT
  5
9D9C
330
8D07
100
AcDbEntity
  8
DEFPOINTS
 62
     0
100
AcDbPoint
 10
108.6870542479391
 20
237.2890051199528
 30
0.0
  0
POINT
  5
9D9D
330
8D07
100
AcDbEntity
  8
DEFPOINTS
 62
     0
100
AcDbPoint
 10
148.6870496523925
 20
317.2890073693467
 30
0.0
  0
POINT
  5
9D9E
330
8D07
100
AcDbEntity
  8
DEFPOINTS
 62
     0
100
AcDbPoint
 10
81.53407556030423
 20
317.2890073693467
 30
0.0
  0
ENDBLK
  5
8D12
330
8D07
100
AcDbEntity
  8
0
100
AcDbBlockEnd
  0
BLOCK
  5
8D99
330
8D8F
100
AcDbEntity
  8
0
100
AcDbBlockBegin
  2
*D3
 70
     1
 10
0.0
 20
0.0
 30
0.0
  3
*D3
  1

  0
LINE
  5
9C78
330
8D8F
100
AcDbEntity
  8
MEASURE
 62
     9
370
    -2
100
AcDbLine
 10
274.6315066527156
 20
78.28868651176697
 30
0.0
 11
274.6315066527156
 21
32.21338426574448
 31
0.0
  0
LINE
  5
9C79
330
8D8F
100
AcDbEntity
  8
MEASURE
 62
     9
370
    -2
100
AcDbLine
 10
474.8315066527154
 20
78.28868651176697
 30
0.0
 11
474.8315066527154
 21
32.21338426574448
 31
0.0
  0
LINE
  5
9C7A
330
8D8F
100
AcDbEntity
  8
MEASURE
 62
     9
370
    -2
100
AcDbLine
 10
279.6315066527157
 20
36.21338426574447
 30
0.0
 11
469.8315066527154
 21
36.21338426574447
 31
0.0
  0
SOLID
  5
9C7B
330
8D8F
100
AcDbEntity
  8
MEASURE
 62
     9
100
AcDbTrace
 10
279.6315066527157
 20
37.04671759907782
 30
0.0
 11
279.6315066527157
 21
35.38005093241114
 31
0.0
 12
274.6315066527156
 22
36.21338426574447
 32
0.0
 13
274.6315066527156
 23
36.21338426574447
 33
0.0
  0
SOLID
  5
9C7C
330
8D8F
100
AcDbEntity
  8
MEASURE
 62
     9
100
AcDbTrace
 10
469.8315066527154
 20
37.04671759907782
 30
0.0
 11
469.8315066527154
 21
35.38005093241114
 31
0.0
 12
474.8315066527154
 22
36.21338426574447
 32
0.0
 13
474.8315066527154
 23
36.21338426574447
 33
0.0
  0
MTEXT
  5
9C7D
330
8D8F
100
AcDbEntity
  8
MEASURE
 62
     2
100
AcDbMText
 10
374.7315066527156
 20
40.21338426574446
 30
0.0
 40
6.0
 41
0.0
 71
     5
 72
     1
  1
\A1;200.2
  7
AD-STANDARD
 73
     1
 44
1.0
1001
ACAD
1000
MTEXTBEGIN
1070
    73
1070
     1
1070
    44
1040
1.0
1070
    74
1070
     0
1000
MTEXTEND
  0
POINT
  5
9C7E
330
8D8F
100
AcDbEntity
  8
DEFPOINTS
 62
     0
100
AcDbPoint
 10
274.6315066527156
 20
80.28868651176697
 30
0.0
  0
POINT
  5
9C7F
330
8D8F
100
AcDbEntity
  8
DEFPOINTS
 62
     0
100
AcDbPoint
 10
474.8315066527154
 20
80.28868651176697
 30
0.0
  0
POINT
  5
9C80
330
8D8F
100
AcDbEntity
  8
DEFPOINTS
 62
     0
100
AcDbPoint
 10
474.8315066527154
 20
36.21338426574447
 30
0.0
  0
ENDBLK
  5
8D9A
330
8D8F
100
AcDbEntity
  8
0
100
AcDbBlockEnd
  0
BLOCK
  5
8E2B
330
8E24
100
AcDbEntity
  8
0
100
AcDbBlockBegin
  2
*D4
 70
     1
 10
0.0
 20
0.0
 30
0.0
  3
*D4
  1

  0
LINE
  5
9C87
330
8E24
100
AcDbEntity
  8
MEASURE
 62
     9
370
    -2
100
AcDbLine
 10
346.7562680836514
 20
122.915990612636
 30
0.0
 11
373.6938865841446
 21
132.9908260714359
 31
0.0
  0
SOLID
  5
9C88
330
8E24
100
AcDbEntity
  8
MEASURE
 62
     9
100
AcDbTrace
 10
346.4643454057771
 20
123.6965196605178
 30
0.0
 11
347.0481907615256
 21
122.1354615647543
 31
0.0
 12
342.0730937963611
 22
121.1644545453899
 32
0.0
 13
342.0730937963611
 23
121.1644545453899
 33
0.0
  0
MTEXT
  5
9C89
330
8E24
100
AcDbEntity
  8
MEASURE
 62
     2
100
AcDbMText
 10
362.2358754608412
 20
132.9760669065761
 30
0.0
 40
6.0
 41
0.0
 71
     5
 72
     1
  1
\A1;2-φ5
  7
AD-STANDARD
 11
0.9366348574580364
 21
0.3503072134492292
 31
0.0
 73
     1
 44
1.0
1001
ACAD
1000
MTEXTBEGIN
1070
    73
1070
     1
1070
    44
1040
1.0
1070
    74
1070
     0
1000
MTEXTEND
  0
LINE
  5
9C8A
330
8E24
100
AcDbEntity
  8
MEASURE
 62
     9
370
    -2
100
AcDbLine
 10
335.7315066527153
 20
120.2886865117665
 30
0.0
 11
343.7315066527153
 21
120.2886865117665
 31
0.0
  0
LINE
  5
9C8B
330
8E24
100
AcDbEntity
  8
MEASURE
 62
     9
370
    -2
100
AcDbLine
 10
339.7315066527153
 20
116.2886865117666
 30
0.0
 11
339.7315066527153
 21
124.2886865117664
 31
0.0
  0
POINT
  5
9C8C
330
8E24
100
AcDbEntity
  8
DEFPOINTS
 62
     0
100
AcDbPoint
 10
342.0730937963611
 20
121.1644545453899
 30
0.0
  0
POINT
  5
9C8D
330
8E24
100
AcDbEntity
  8
DEFPOINTS
 62
     0
100
AcDbPoint
 10
339.7315066527153
 20
120.2886865117665
 30
0.0
  0
ENDBLK
  5
8E2C
330
8E24
100
AcDbEntity
  8
0
100
AcDbBlockEnd
  0
BLOCK
  5
8F0B
330
8EFF
100
AcDbEntity
  8
0
100
AcDbBlockBegin
  2
*D5
 70
     1
 10
0.0
 20
0.0
 30
0.0
  3
*D5
  1

  0
LINE
  5
9C8E
330
8EFF
100
AcDbEntity
  8
MEASURE
 62
     9
370
    -2
100
AcDbLine
 10
462.731506652716
 20
98.28868651176698
 30
0.0
 11
462.731506652716
 21
107.9874156589809
 31
0.0
  0
LINE
  5
9C8F
330
8EFF
100
AcDbEntity
  8
MEASURE
 62
     9
370
    -2
100
AcDbLine
 10
450.7315066527159
 20
98.28868651176698
 30
0.0
 11
450.7315066527159
 21
107.9874156589809
 31
0.0
  0
LINE
  5
9C90
330
8EFF
100
AcDbEntity
  8
MEASURE
 62
     9
370
    -2
100
AcDbLine
 10
467.7315066527159
 20
103.9874156589809
 30
0.0
 11
472.731506652716
 21
103.9874156589809
 31
0.0
  0
LINE
  5
9C91
330
8EFF
100
AcDbEntity
  8
MEASURE
 62
     9
370
    -2
100
AcDbLine
 10
445.731506652716
 20
103.9874156589809
 30
0.0
 11
440.731506652716
 21
103.9874156589809
 31
0.0
  0
LINE
  5
9C92
330
8EFF
100
AcDbEntity
  8
MEASURE
 62
     9
370
    -2
100
AcDbLine
 10
462.731506652716
 20
103.9874156589809
 30
0.0
 11
450.7315066527159
 21
103.9874156589809
 31
0.0
  0
SOLID
  5
9C93
330
8EFF
100
AcDbEntity
  8
MEASURE
 62
     9
100
AcDbTrace
 10
467.7315066527159
 20
104.8207489923142
 30
0.0
 11
467.7315066527159
 21
103.1540823256476
 31
0.0
 12
462.731506652716
 22
103.9874156589809
 32
0.0
 13
462.731506652716
 23
103.9874156589809
 33
0.0
  0
SOLID
  5
9C94
330
8EFF
100
AcDbEntity
  8
MEASURE
 62
     9
100
AcDbTrace
 10
445.731506652716
 20
104.8207489923142
 30
0.0
 11
445.731506652716
 21
103.1540823256476
 31
0.0
 12
450.7315066527159
 22
103.9874156589809
 32
0.0
 13
450.7315066527159
 23
103.9874156589809
 33
0.0
  0
MTEXT
  5
9C95
330
8EFF
100
AcDbEntity
  8
MEASURE
 62
     2
100
AcDbMText
 10
456.731506652716
 20
107.9874156589809
 30
0.0
 40
6.0
 41
0.0
 71
     5
 72
     1
  1
\A1;12
  7
AD-STANDARD
 73
     1
 44
1.0
1001
ACAD
1000
MTEXTBEGIN
1070
    73
1070
     1
1070
    44
1040
1.0
1070
    74
1070
     0
1000
MTEXTEND
  0
POINT
  5
9C96
330
8EFF
100
AcDbEntity
  8
DEFPOINTS
 62
     0
100
AcDbPoint
 10
462.731506652716
 20
96.28868651176695
 30
0.0
  0
POINT
  5
9C97
330
8EFF
100
AcDbEntity
  8
DEFPOINTS
 62
     0
100
AcDbPoint
 10
450.7315066527159
 20
96.28868651176695
 30
0.0
  0
POINT
  5
9C98
330
8EFF
100
AcDbEntity
  8
DEFPOINTS
 62
     0
100
AcDbPoint
 10
450.7315066527159
 20
103.9874156589809
 30
0.0
  0
ENDBLK
  5
8F0C
330
8EFF
100
AcDbEntity
  8
0
100
AcDbBlockEnd
  0
BLOCK
  5
8FB6
330
8FAC
100
AcDbEntity
  8
0
100
AcDbBlockBegin
  2
*D6
 70
     1
 10
0.0
 20
0.0
 30
0.0
  3
*D6
  1

  0
LINE
  5
9D79
330
8FAC
100
AcDbEntity
  8
MEASURE
 62
     9
370
    -2
100
AcDbLine
 10
108.6870542479391
 20
235.2890051199528
 30
0.0
 11
108.6870542479391
 21
213.0261802249831
 31
0.0
  0
LINE
  5
9D7A
330
8FAC
100
AcDbEntity
  8
MEASURE
 62
     9
370
    -2
100
AcDbLine
 10
148.6870496523925
 20
302.2890073693471
 30
0.0
 11
148.6870496523925
 21
213.0261802249831
 31
0.0
  0
LINE
  5
9D7B
330
8FAC
100
AcDbEntity
  8
MEASURE
 62
     9
370
    -2
100
AcDbLine
 10
113.6870542479391
 20
217.0261802249831
 30
0.0
 11
143.6870496523925
 21
217.0261802249831
 31
0.0
  0
SOLID
  5
9D7C
330
8FAC
100
AcDbEntity
  8
MEASURE
 62
     9
100
AcDbTrace
 10
113.6870542479391
 20
217.8595135583165
 30
0.0
 11
113.6870542479391
 21
216.1928468916498
 31
0.0
 12
108.6870542479391
 22
217.0261802249831
 32
0.0
 13
108.6870542479391
 23
217.0261802249831
 33
0.0
  0
SOLID
  5
9D7D
330
8FAC
100
AcDbEntity
  8
MEASURE
 62
     9
100
AcDbTrace
 10
143.6870496523925
 20
217.8595135583165
 30
0.0
 11
143.6870496523925
 21
216.1928468916498
 31
0.0
 12
148.6870496523925
 22
217.0261802249831
 32
0.0
 13
148.6870496523925
 23
217.0261802249831
 33
0.0
  0
MTEXT
  5
9D7E
330
8FAC
100
AcDbEntity
  8
MEASURE
 62
     2
100
AcDbMText
 10
128.6870519501658
 20
221.0261802249831
 30
0.0
 40
6.0
 41
0.0
 71
     5
 72
     1
  1
\A1;40
  7
AD-STANDARD
 73
     1
 44
1.0
1001
ACAD
1000
MTEXTBEGIN
1070
    73
1070
     1
1070
    44
1040
1.0
1070
    74
1070
     0
1000
MTEXTEND
  0
POINT
  5
9D7F
330
8FAC
100
AcDbEntity
  8
DEFPOINTS
 62
     0
100
AcDbPoint
 10
108.6870542479391
 20
237.2890051199528
 30
0.0
  0
POINT
  5
9D80
330
8FAC
100
AcDbEntity
  8
DEFPOINTS
 62
     0
100
AcDbPoint
 10
148.6870496523925
 20
304.2890073693471
 30
0.0
  0
POINT
  5
9D81
330
8FAC
100
AcDbEntity
  8
DEFPOINTS
 62
     0
100
AcDbPoint
 10
148.6870496523925
 20
217.0261802249831
 30
0.0
  0
ENDBLK
  5
8FB7
330
8FAC
100
AcDbEntity
  8
0
100
AcDbBlockEnd
  0
BLOCK
  5
8FD1
330
8FC7
100
AcDbEntity
  8
0
100
AcDbBlockBegin
  2
*D7
 70
     1
 10
0.0
 20
0.0
 30
0.0
  3
*D7
  1

  0
LINE
  5
9D82
330
8FC7
100
AcDbEntity
  8
MEASURE
 62
     9
370
    -2
100
AcDbLine
 10
148.6870496523925
 20
302.2890073693471
 30
0.0
 11
148.6870496523925
 21
213.0261802249831
 31
0.0
  0
LINE
  5
9D83
330
8FC7
100
AcDbEntity
  8
MEASURE
 62
     9
370
    -2
100
AcDbLine
 10
188.6870542479391
 20
235.2890051199528
 30
0.0
 11
188.6870542479391
 21
213.0261802249831
 31
0.0
  0
LINE
  5
9D84
330
8FC7
100
AcDbEntity
  8
MEASURE
 62
     9
370
    -2
100
AcDbLine
 10
153.6870496523925
 20
217.0261802249831
 30
0.0
 11
183.6870542479391
 21
217.0261802249831
 31
0.0
  0
SOLID
  5
9D85
330
8FC7
100
AcDbEntity
  8
MEASURE
 62
     9
100
AcDbTrace
 10
153.6870496523925
 20
217.8595135583165
 30
0.0
 11
153.6870496523925
 21
216.1928468916498
 31
0.0
 12
148.6870496523925
 22
217.0261802249831
 32
0.0
 13
148.6870496523925
 23
217.0261802249831
 33
0.0
  0
SOLID
  5
9D86
330
8FC7
100
AcDbEntity
  8
MEASURE
 62
     9
100
AcDbTrace
 10
183.6870542479391
 20
217.8595135583165
 30
0.0
 11
183.6870542479391
 21
216.1928468916498
 31
0.0
 12
188.6870542479391
 22
217.0261802249831
 32
0.0
 13
188.6870542479391
 23
217.0261802249831
 33
0.0
  0
MTEXT
  5
9D87
330
8FC7
100
AcDbEntity
  8
MEASURE
 62
     2
100
AcDbMText
 10
168.6870519501658
 20
221.0261802249831
 30
0.0
 40
6.0
 41
0.0
 71
     5
 72
     1
  1
\A1;40
  7
AD-STANDARD
 73
     1
 44
1.0
1001
ACAD
1000
MTEXTBEGIN
1070
    73
1070
     1
1070
    44
1040
1.0
1070
    74
1070
     0
1000
MTEXTEND
  0
POINT
  5
9D88
330
8FC7
100
AcDbEntity
  8
DEFPOINTS
 62
     0
100
AcDbPoint
 10
148.6870496523925
 20
304.2890073693471
 30
0.0
  0
POINT
  5
9D89
330
8FC7
100
AcDbEntity
  8
DEFPOINTS
 62
     0
100
AcDbPoint
 10
188.6870542479391
 20
237.2890051199528
 30
0.0
  0
POINT
  5
9D8A
330
8FC7
100
AcDbEntity
  8
DEFPOINTS
 62
     0
100
AcDbPoint
 10
188.6870542479391
 20
217.0261802249831
 30
0.0
  0
ENDBLK
  5
8FD2
330
8FC7
100
AcDbEntity
  8
0
100
AcDbBlockEnd
  0
BLOCK
  5
9107
330
90FD
100
AcDbEntity
  8
0
100
AcDbBlockBegin
  2
*D8
 70
     1
 10
0.0
 20
0.0
 30
0.0
  3
*D8
  1

  0
LINE
  5
9EA7
330
90FD
100
AcDbEntity
  8
MEASURE
 62
     9
370
    -2
100
AcDbLine
 10
290.753081680524
 20
144.2886865117669
 30
0.0
 11
238.4360424323077
 21
144.2886865117669
 31
0.0
  0
LINE
  5
9EA8
330
90FD
100
AcDbEntity
  8
MEASURE
 62
     9
370
    -2
100
AcDbLine
 10
272.6315066527156
 20
160.2886865117669
 30
0.0
 11
238.4360424323077
 21
160.2886865117669
 31
0.0
  0
LINE
  5
9EA9
330
90FD
100
AcDbEntity
  8
MEASURE
 62
     9
370
    -2
100
AcDbLine
 10
242.4360424323077
 20
149.2886865117669
 30
0.0
 11
242.4360424323077
 21
155.2886865117669
 31
0.0
  0
SOLID
  5
9EAA
330
90FD
100
AcDbEntity
  8
MEASURE
 62
     9
100
AcDbTrace
 10
241.6027090989743
 20
149.2886865117669
 30
0.0
 11
243.269375765641
 21
149.2886865117669
 31
0.0
 12
242.4360424323077
 22
144.2886865117669
 32
0.0
 13
242.4360424323077
 23
144.2886865117669
 33
0.0
  0
SOLID
  5
9EAB
330
90FD
100
AcDbEntity
  8
MEASURE
 62
     9
100
AcDbTrace
 10
241.6027090989743
 20
155.2886865117669
 30
0.0
 11
243.269375765641
 21
155.2886865117669
 31
0.0
 12
242.4360424323077
 22
160.2886865117669
 32
0.0
 13
242.4360424323077
 23
160.2886865117669
 33
0.0
  0
MTEXT
  5
9EAC
330
90FD
100
AcDbEntity
  8
MEASURE
 62
     2
100
AcDbMText
 10
238.4360424323076
 20
152.288686511767
 30
0.0
 40
6.0
 41
0.0
 71
     5
 72
     1
  1
\A1;（16）
  7
AD-STANDARD
 11
0.0000000000000001
 21
1.0
 31
0.0
 73
     1
 44
1.0
1001
ACAD
1000
MTEXTBEGIN
1070
    73
1070
     1
1070
    44
1040
1.0
1070
    74
1070
     0
1000
MTEXTEND
  0
POINT
  5
9EAD
330
90FD
100
AcDbEntity
  8
DEFPOINTS
 62
     0
100
AcDbPoint
 10
292.753081680524
 20
144.2886865117669
 30
0.0
  0
POINT
  5
9EAE
330
90FD
100
AcDbEntity
  8
DEFPOINTS
 62
     0
100
AcDbPoint
 10
274.6315066527156
 20
160.2886865117669
 30
0.0
  0
POINT
  5
9EAF
330
90FD
100
AcDbEntity
  8
DEFPOINTS
 62
     0
100
AcDbPoint
 10
242.4360424323077
 20
160.2886865117669
 30
0.0
  0
ENDBLK
  5
9108
330
90FD
100
AcDbEntity
  8
0
100
AcDbBlockEnd
  0
BLOCK
  5
913C
330
9132
100
AcDbEntity
  8
0
100
AcDbBlockBegin
  2
*D9
 70
     1
 10
0.0
 20
0.0
 30
0.0
  3
*D9
  1

  0
LINE
  5
9E95
330
9132
100
AcDbEntity
  8
MEASURE
 62
     9
370
    -2
100
AcDbLine
 10
290.753081680524
 20
144.2886865117669
 30
0.0
 11
238.4360424323077
 21
144.2886865117669
 31
0.0
  0
LINE
  5
9E96
330
9132
100
AcDbEntity
  8
MEASURE
 62
     9
370
    -2
100
AcDbLine
 10
287.731506652716
 20
96.28868651176698
 30
0.0
 11
238.4360424323077
 21
96.28868651176698
 31
0.0
  0
LINE
  5
9E97
330
9132
100
AcDbEntity
  8
MEASURE
 62
     9
370
    -2
100
AcDbLine
 10
242.4360424323077
 20
139.288686511767
 30
0.0
 11
242.4360424323077
 21
101.288686511767
 31
0.0
  0
SOLID
  5
9E98
330
9132
100
AcDbEntity
  8
MEASURE
 62
     9
100
AcDbTrace
 10
241.6027090989743
 20
139.288686511767
 30
0.0
 11
243.269375765641
 21
139.288686511767
 31
0.0
 12
242.4360424323077
 22
144.2886865117669
 32
0.0
 13
242.4360424323077
 23
144.2886865117669
 33
0.0
  0
SOLID
  5
9E99
330
9132
100
AcDbEntity
  8
MEASURE
 62
     9
100
AcDbTrace
 10
241.6027090989743
 20
101.288686511767
 30
0.0
 11
243.269375765641
 21
101.288686511767
 31
0.0
 12
242.4360424323077
 22
96.28868651176698
 32
0.0
 13
242.4360424323077
 23
96.28868651176698
 33
0.0
  0
MTEXT
  5
9E9A
330
9132
100
AcDbEntity
  8
MEASURE
 62
     2
100
AcDbMText
 10
238.4360424323076
 20
120.288686511767
 30
0.0
 40
6.0
 41
0.0
 71
     5
 72
     1
  1
\A1;48
  7
AD-STANDARD
 11
0.0000000000000001
 21
1.0
 31
0.0
 73
     1
 44
1.0
1001
ACAD
1000
MTEXTBEGIN
1070
    73
1070
     1
1070
    44
1040
1.0
1070
    74
1070
     0
1000
MTEXTEND
  0
POINT
  5
9E9B
330
9132
100
AcDbEntity
  8
DEFPOINTS
 62
     0
100
AcDbPoint
 10
292.753081680524
 20
144.2886865117669
 30
0.0
  0
POINT
  5
9E9C
330
9132
100
AcDbEntity
  8
DEFPOINTS
 62
     0
100
AcDbPoint
 10
289.731506652716
 20
96.28868651176695
 30
0.0
  0
POINT
  5
9E9D
330
9132
100
AcDbEntity
  8
DEFPOINTS
 62
     0
100
AcDbPoint
 10
242.4360424323077
 20
96.28868651176698
 30
0.0
  0
ENDBLK
  5
913D
330
9132
100
AcDbEntity
  8
0
100
AcDbBlockEnd
  0
BLOCK
  5
9149
330
913F
100
AcDbEntity
  8
0
100
AcDbBlockBegin
  2
*D10
 70
     1
 10
0.0
 20
0.0
 30
0.0
  3
*D10
  1

  0
LINE
  5
9E9E
330
913F
100
AcDbEntity
  8
MEASURE
 62
     9
370
    -2
100
AcDbLine
 10
287.731506652716
 20
96.28868651176698
 30
0.0
 11
238.4360424323077
 21
96.28868651176698
 31
0.0
  0
LINE
  5
9E9F
330
913F
100
AcDbEntity
  8
MEASURE
 62
     9
370
    -2
100
AcDbLine
 10
272.6315066527156
 20
80.28868651176697
 30
0.0
 11
238.4360424323077
 21
80.28868651176697
 31
0.0
  0
LINE
  5
9EA0
330
913F
100
AcDbEntity
  8
MEASURE
 62
     9
370
    -2
100
AcDbLine
 10
242.4360424323077
 20
91.28868651176698
 30
0.0
 11
242.4360424323077
 21
85.28868651176697
 31
0.0
  0
SOLID
  5
9EA1
330
913F
100
AcDbEntity
  8
MEASURE
 62
     9
100
AcDbTrace
 10
241.6027090989743
 20
91.28868651176698
 30
0.0
 11
243.269375765641
 21
91.28868651176698
 31
0.0
 12
242.4360424323077
 22
96.28868651176698
 32
0.0
 13
242.4360424323077
 23
96.28868651176698
 33
0.0
  0
SOLID
  5
9EA2
330
913F
100
AcDbEntity
  8
MEASURE
 62
     9
100
AcDbTrace
 10
241.6027090989743
 20
85.28868651176697
 30
0.0
 11
243.269375765641
 21
85.28868651176697
 31
0.0
 12
242.4360424323077
 22
80.28868651176697
 32
0.0
 13
242.4360424323077
 23
80.28868651176697
 33
0.0
  0
MTEXT
  5
9EA3
330
913F
100
AcDbEntity
  8
MEASURE
 62
     2
100
AcDbMText
 10
238.4360424323076
 20
88.28868651176703
 30
0.0
 40
6.0
 41
0.0
 71
     5
 72
     1
  1
\A1;16
  7
AD-STANDARD
 11
0.0000000000000001
 21
1.0
 31
0.0
 73
     1
 44
1.0
1001
ACAD
1000
MTEXTBEGIN
1070
    73
1070
     1
1070
    44
1040
1.0
1070
    74
1070
     0
1000
MTEXTEND
  0
POINT
  5
9EA4
330
913F
100
AcDbEntity
  8
DEFPOINTS
 62
     0
100
AcDbPoint
 10
289.731506652716
 20
96.28868651176695
 30
0.0
  0
POINT
  5
9EA5
330
913F
100
AcDbEntity
  8
DEFPOINTS
 62
     0
100
AcDbPoint
 10
274.6315066527156
 20
80.28868651176697
 30
0.0
  0
POINT
  5
9EA6
330
913F
100
AcDbEntity
  8
DEFPOINTS
 62
     0
100
AcDbPoint
 10
242.4360424323077
 20
80.28868651176697
 30
0.0
  0
ENDBLK
  5
914A
330
913F
100
AcDbEntity
  8
0
100
AcDbBlockEnd
  0
BLOCK
  5
916F
330
9165
100
AcDbEntity
  8
0
100
AcDbBlockBegin
  2
*D11
 70
     1
 10
0.0
 20
0.0
 30
0.0
  3
*D11
  1

  0
LINE
  5
9CDE
330
9165
100
AcDbEntity
  8
MEASURE
 62
     9
370
    -2
100
AcDbLine
 10
274.6315066527156
 20
78.28868651176697
 30
0.0
 11
274.6315066527156
 21
40.81248141574906
 31
0.0
  0
LINE
  5
9CDF
330
9165
100
AcDbEntity
  8
MEASURE
 62
     9
370
    -2
100
AcDbLine
 10
292.731506652716
 20
94.28868651176696
 30
0.0
 11
292.731506652716
 21
40.81248141574906
 31
0.0
  0
LINE
  5
9CE0
330
9165
100
AcDbEntity
  8
MEASURE
 62
     9
370
    -2
100
AcDbLine
 10
279.6315066527157
 20
44.81248141574906
 30
0.0
 11
287.731506652716
 21
44.81248141574906
 31
0.0
  0
SOLID
  5
9CE1
330
9165
100
AcDbEntity
  8
MEASURE
 62
     9
100
AcDbTrace
 10
279.6315066527157
 20
45.6458147490824
 30
0.0
 11
279.6315066527157
 21
43.97914808241571
 31
0.0
 12
274.6315066527156
 22
44.81248141574906
 32
0.0
 13
274.6315066527156
 23
44.81248141574906
 33
0.0
  0
SOLID
  5
9CE2
330
9165
100
AcDbEntity
  8
MEASURE
 62
     9
100
AcDbTrace
 10
287.731506652716
 20
45.6458147490824
 30
0.0
 11
287.731506652716
 21
43.97914808241571
 31
0.0
 12
292.731506652716
 22
44.81248141574906
 32
0.0
 13
292.731506652716
 23
44.81248141574906
 33
0.0
  0
MTEXT
  5
9CE3
330
9165
100
AcDbEntity
  8
MEASURE
 62
     2
100
AcDbMText
 10
283.6815066527158
 20
48.81248141574906
 30
0.0
 40
6.0
 41
0.0
 71
     5
 72
     1
  1
\A1;18.1
  7
AD-STANDARD
 73
     1
 44
1.0
1001
ACAD
1000
MTEXTBEGIN
1070
    73
1070
     1
1070
    44
1040
1.0
1070
    74
1070
     0
1000
MTEXTEND
  0
POINT
  5
9CE4
330
9165
100
AcDbEntity
  8
DEFPOINTS
 62
     0
100
AcDbPoint
 10
274.6315066527156
 20
80.28868651176697
 30
0.0
  0
POINT
  5
9CE5
330
9165
100
AcDbEntity
  8
DEFPOINTS
 62
     0
100
AcDbPoint
 10
292.731506652716
 20
96.28868651176695
 30
0.0
  0
POINT
  5
9CE6
330
9165
100
AcDbEntity
  8
DEFPOINTS
 62
     0
100
AcDbPoint
 10
292.731506652716
 20
44.81248141574906
 30
0.0
  0
ENDBLK
  5
9170
330
9165
100
AcDbEntity
  8
0
100
AcDbBlockEnd
  0
BLOCK
  5
917C
330
9172
100
AcDbEntity
  8
0
100
AcDbBlockBegin
  2
*D12
 70
     1
 10
0.0
 20
0.0
 30
0.0
  3
*D12
  1

  0
LINE
  5
9CE7
330
9172
100
AcDbEntity
  8
MEASURE
 62
     9
370
    -2
100
AcDbLine
 10
292.731506652716
 20
94.28868651176696
 30
0.0
 11
292.731506652716
 21
40.81248141574906
 31
0.0
  0
LINE
  5
9CE8
330
9172
100
AcDbEntity
  8
MEASURE
 62
     9
370
    -2
100
AcDbLine
 10
339.7315066527153
 20
118.2886865117666
 30
0.0
 11
339.7315066527153
 21
40.81248141574906
 31
0.0
  0
LINE
  5
9CE9
330
9172
100
AcDbEntity
  8
MEASURE
 62
     9
370
    -2
100
AcDbLine
 10
297.731506652716
 20
44.81248141574906
 30
0.0
 11
334.7315066527153
 21
44.81248141574906
 31
0.0
  0
SOLID
  5
9CEA
330
9172
100
AcDbEntity
  8
MEASURE
 62
     9
100
AcDbTrace
 10
297.731506652716
 20
45.6458147490824
 30
0.0
 11
297.731506652716
 21
43.97914808241571
 31
0.0
 12
292.731506652716
 22
44.81248141574906
 32
0.0
 13
292.731506652716
 23
44.81248141574906
 33
0.0
  0
SOLID
  5
9CEB
330
9172
100
AcDbEntity
  8
MEASURE
 62
     9
100
AcDbTrace
 10
334.7315066527153
 20
45.6458147490824
 30
0.0
 11
334.7315066527153
 21
43.97914808241571
 31
0.0
 12
339.7315066527153
 22
44.81248141574906
 32
0.0
 13
339.7315066527153
 23
44.81248141574906
 33
0.0
  0
MTEXT
  5
9CEC
330
9172
100
AcDbEntity
  8
MEASURE
 62
     2
100
AcDbMText
 10
316.2315066527157
 20
48.81248141574906
 30
0.0
 40
6.0
 41
0.0
 71
     5
 72
     1
  1
\A1;47
  7
AD-STANDARD
 73
     1
 44
1.0
1001
ACAD
1000
MTEXTBEGIN
1070
    73
1070
     1
1070
    44
1040
1.0
1070
    74
1070
     0
1000
MTEXTEND
  0
POINT
  5
9CED
330
9172
100
AcDbEntity
  8
DEFPOINTS
 62
     0
100
AcDbPoint
 10
292.731506652716
 20
96.28868651176695
 30
0.0
  0
POINT
  5
9CEE
330
9172
100
AcDbEntity
  8
DEFPOINTS
 62
     0
100
AcDbPoint
 10
339.7315066527153
 20
120.2886865117666
 30
0.0
  0
POINT
  5
9CEF
330
9172
100
AcDbEntity
  8
DEFPOINTS
 62
     0
100
AcDbPoint
 10
339.7315066527153
 20
44.81248141574906
 30
0.0
  0
ENDBLK
  5
917D
330
9172
100
AcDbEntity
  8
0
100
AcDbBlockEnd
  0
BLOCK
  5
9189
330
917F
100
AcDbEntity
  8
0
100
AcDbBlockBegin
  2
*D13
 70
     1
 10
0.0
 20
0.0
 30
0.0
  3
*D13
  1

  0
LINE
  5
9CF0
330
917F
100
AcDbEntity
  8
MEASURE
 62
     9
370
    -2
100
AcDbLine
 10
339.731506652716
 20
118.2886865117669
 30
0.0
 11
339.731506652716
 21
40.81248141574906
 31
0.0
  0
LINE
  5
9CF1
330
917F
100
AcDbEntity
  8
MEASURE
 62
     9
370
    -2
100
AcDbLine
 10
409.7315066527158
 20
118.2886865117669
 30
0.0
 11
409.7315066527158
 21
40.81248141574906
 31
0.0
  0
LINE
  5
9CF2
330
917F
100
AcDbEntity
  8
MEASURE
 62
     9
370
    -2
100
AcDbLine
 10
344.731506652716
 20
44.81248141574906
 30
0.0
 11
404.7315066527159
 21
44.81248141574906
 31
0.0
  0
SOLID
  5
9CF3
330
917F
100
AcDbEntity
  8
MEASURE
 62
     9
100
AcDbTrace
 10
344.731506652716
 20
45.6458147490824
 30
0.0
 11
344.731506652716
 21
43.97914808241571
 31
0.0
 12
339.731506652716
 22
44.81248141574906
 32
0.0
 13
339.731506652716
 23
44.81248141574906
 33
0.0
  0
SOLID
  5
9CF4
330
917F
100
AcDbEntity
  8
MEASURE
 62
     9
100
AcDbTrace
 10
404.7315066527159
 20
45.6458147490824
 30
0.0
 11
404.7315066527159
 21
43.97914808241571
 31
0.0
 12
409.7315066527158
 22
44.81248141574906
 32
0.0
 13
409.7315066527158
 23
44.81248141574906
 33
0.0
  0
MTEXT
  5
9CF5
330
917F
100
AcDbEntity
  8
MEASURE
 62
     2
100
AcDbMText
 10
374.731506652716
 20
48.81248141574906
 30
0.0
 40
6.0
 41
0.0
 71
     5
 72
     1
  1
\A1;70
  7
AD-STANDARD
 73
     1
 44
1.0
1001
ACAD
1000
MTEXTBEGIN
1070
    73
1070
     1
1070
    44
1040
1.0
1070
    74
1070
     0
1000
MTEXTEND
  0
POINT
  5
9CF6
330
917F
100
AcDbEntity
  8
DEFPOINTS
 62
     0
100
AcDbPoint
 10
339.731506652716
 20
120.2886865117669
 30
0.0
  0
POINT
  5
9CF7
330
917F
100
AcDbEntity
  8
DEFPOINTS
 62
     0
100
AcDbPoint
 10
409.7315066527158
 20
120.2886865117669
 30
0.0
  0
POINT
  5
9CF8
330
917F
100
AcDbEntity
  8
DEFPOINTS
 62
     0
100
AcDbPoint
 10
409.7315066527158
 20
44.81248141574906
 30
0.0
  0
ENDBLK
  5
918A
330
917F
100
AcDbEntity
  8
0
100
AcDbBlockEnd
  0
BLOCK
  5
91CC
330
91C2
100
AcDbEntity
  8
0
100
AcDbBlockBegin
  2
*D14
 70
     1
 10
0.0
 20
0.0
 30
0.0
  3
*D14
  1

  0
LINE
  5
9CF9
330
91C2
100
AcDbEntity
  8
MEASURE
 62
     9
370
    -2
100
AcDbLine
 10
409.7315066527158
 20
118.2886865117669
 30
0.0
 11
409.7315066527158
 21
40.81248141574906
 31
0.0
  0
LINE
  5
9CFA
330
91C2
100
AcDbEntity
  8
MEASURE
 62
     9
370
    -2
100
AcDbLine
 10
456.731506652716
 20
94.28868651176696
 30
0.0
 11
456.731506652716
 21
40.81248141574906
 31
0.0
  0
LINE
  5
9CFB
330
91C2
100
AcDbEntity
  8
MEASURE
 62
     9
370
    -2
100
AcDbLine
 10
414.731506652716
 20
44.81248141574906
 30
0.0
 11
451.7315066527158
 21
44.81248141574906
 31
0.0
  0
SOLID
  5
9CFC
330
91C2
100
AcDbEntity
  8
MEASURE
 62
     9
100
AcDbTrace
 10
414.731506652716
 20
45.6458147490824
 30
0.0
 11
414.731506652716
 21
43.97914808241571
 31
0.0
 12
409.7315066527158
 22
44.81248141574906
 32
0.0
 13
409.7315066527158
 23
44.81248141574906
 33
0.0
  0
SOLID
  5
9CFD
330
91C2
100
AcDbEntity
  8
MEASURE
 62
     9
100
AcDbTrace
 10
451.7315066527158
 20
45.6458147490824
 30
0.0
 11
451.7315066527158
 21
43.97914808241571
 31
0.0
 12
456.731506652716
 22
44.81248141574906
 32
0.0
 13
456.731506652716
 23
44.81248141574906
 33
0.0
  0
MTEXT
  5
9CFE
330
91C2
100
AcDbEntity
  8
MEASURE
 62
     2
100
AcDbMText
 10
433.231506652716
 20
48.81248141574906
 30
0.0
 40
6.0
 41
0.0
 71
     5
 72
     1
  1
\A1;47
  7
AD-STANDARD
 73
     1
 44
1.0
1001
ACAD
1000
MTEXTBEGIN
1070
    73
1070
     1
1070
    44
1040
1.0
1070
    74
1070
     0
1000
MTEXTEND
  0
POINT
  5
9CFF
330
91C2
100
AcDbEntity
  8
DEFPOINTS
 62
     0
100
AcDbPoint
 10
409.7315066527158
 20
120.2886865117669
 30
0.0
  0
POINT
  5
9D00
330
91C2
100
AcDbEntity
  8
DEFPOINTS
 62
     0
100
AcDbPoint
 10
456.731506652716
 20
96.28868651176695
 30
0.0
  0
POINT
  5
9D01
330
91C2
100
AcDbEntity
  8
DEFPOINTS
 62
     0
100
AcDbPoint
 10
456.731506652716
 20
44.81248141574906
 30
0.0
  0
ENDBLK
  5
91CD
330
91C2
100
AcDbEntity
  8
0
100
AcDbBlockEnd
  0
BLOCK
  5
91D9
330
91CF
100
AcDbEntity
  8
0
100
AcDbBlockBegin
  2
*D15
 70
     1
 10
0.0
 20
0.0
 30
0.0
  3
*D15
  1

  0
LINE
  5
9D02
330
91CF
100
AcDbEntity
  8
MEASURE
 62
     9
370
    -2
100
AcDbLine
 10
456.731506652716
 20
94.28868651176696
 30
0.0
 11
456.731506652716
 21
40.81248141574906
 31
0.0
  0
LINE
  5
9D03
330
91CF
100
AcDbEntity
  8
MEASURE
 62
     9
370
    -2
100
AcDbLine
 10
474.8315066527154
 20
78.28868651176697
 30
0.0
 11
474.8315066527154
 21
40.81248141574906
 31
0.0
  0
LINE
  5
9D04
330
91CF
100
AcDbEntity
  8
MEASURE
 62
     9
370
    -2
100
AcDbLine
 10
451.7315066527158
 20
44.81248141574906
 30
0.0
 11
446.7315066527159
 21
44.81248141574906
 31
0.0
  0
LINE
  5
9D05
330
91CF
100
AcDbEntity
  8
MEASURE
 62
     9
370
    -2
100
AcDbLine
 10
479.8315066527155
 20
44.81248141574906
 30
0.0
 11
511.425792367001
 21
44.81248141574906
 31
0.0
  0
LINE
  5
9D06
330
91CF
100
AcDbEntity
  8
MEASURE
 62
     9
370
    -2
100
AcDbLine
 10
456.731506652716
 20
44.81248141574906
 30
0.0
 11
474.8315066527154
 21
44.81248141574906
 31
0.0
  0
SOLID
  5
9D07
330
91CF
100
AcDbEntity
  8
MEASURE
 62
     9
100
AcDbTrace
 10
451.7315066527158
 20
45.6458147490824
 30
0.0
 11
451.7315066527158
 21
43.97914808241571
 31
0.0
 12
456.731506652716
 22
44.81248141574906
 32
0.0
 13
456.731506652716
 23
44.81248141574906
 33
0.0
  0
SOLID
  5
9D08
330
91CF
100
AcDbEntity
  8
MEASURE
 62
     9
100
AcDbTrace
 10
479.8315066527155
 20
45.6458147490824
 30
0.0
 11
479.8315066527155
 21
43.97914808241571
 31
0.0
 12
474.8315066527154
 22
44.81248141574906
 32
0.0
 13
474.8315066527154
 23
44.81248141574906
 33
0.0
  0
MTEXT
  5
9D09
330
91CF
100
AcDbEntity
  8
MEASURE
 62
     2
100
AcDbMText
 10
498.1286495098584
 20
48.81248141574906
 30
0.0
 40
6.0
 41
0.0
 71
     5
 72
     1
  1
\A1;（18.1）
  7
AD-STANDARD
 73
     1
 44
1.0
1001
ACAD
1000
MTEXTBEGIN
1070
    73
1070
     1
1070
    44
1040
1.0
1070
    74
1070
     0
1000
MTEXTEND
  0
POINT
  5
9D0A
330
91CF
100
AcDbEntity
  8
DEFPOINTS
 62
     0
100
AcDbPoint
 10
456.731506652716
 20
96.28868651176695
 30
0.0
  0
POINT
  5
9D0B
330
91CF
100
AcDbEntity
  8
DEFPOINTS
 62
     0
100
AcDbPoint
 10
474.8315066527154
 20
80.28868651176697
 30
0.0
  0
POINT
  5
9D0C
330
91CF
100
AcDbEntity
  8
DEFPOINTS
 62
     0
100
AcDbPoint
 10
474.8315066527154
 20
44.81248141574906
 30
0.0
  0
ENDBLK
  5
91DA
330
91CF
100
AcDbEntity
  8
0
100
AcDbBlockEnd
  0
BLOCK
  5
91E6
330
91DC
100
AcDbEntity
  8
0
100
AcDbBlockBegin
  2
*D16
 70
     1
 10
0.0
 20
0.0
 30
0.0
  3
*D16
  1

  0
LINE
  5
9D0D
330
91DC
100
AcDbEntity
  8
MEASURE
 62
     9
370
    -2
100
AcDbLine
 10
337.7315066527153
 20
120.2886865117666
 30
0.0
 11
318.2250655407147
 21
120.2886865117666
 31
0.0
  0
LINE
  5
9D0E
330
91DC
100
AcDbEntity
  8
MEASURE
 62
     9
370
    -2
100
AcDbLine
 10
337.7315066527153
 20
80.28868651176697
 30
0.0
 11
318.2250655407147
 21
80.28868651176697
 31
0.0
  0
LINE
  5
9D0F
330
91DC
100
AcDbEntity
  8
MEASURE
 62
     9
370
    -2
100
AcDbLine
 10
322.2250655407147
 20
115.2886865117666
 30
0.0
 11
322.2250655407147
 21
85.28868651176697
 31
0.0
  0
SOLID
  5
9D10
330
91DC
100
AcDbEntity
  8
MEASURE
 62
     9
100
AcDbTrace
 10
321.3917322073814
 20
115.2886865117666
 30
0.0
 11
323.058398874048
 21
115.2886865117666
 31
0.0
 12
322.2250655407147
 22
120.2886865117666
 32
0.0
 13
322.2250655407147
 23
120.2886865117666
 33
0.0
  0
SOLID
  5
9D11
330
91DC
100
AcDbEntity
  8
MEASURE
 62
     9
100
AcDbTrace
 10
321.3917322073814
 20
85.28868651176697
 30
0.0
 11
323.058398874048
 21
85.28868651176697
 31
0.0
 12
322.2250655407147
 22
80.28868651176697
 32
0.0
 13
322.2250655407147
 23
80.28868651176697
 33
0.0
  0
MTEXT
  5
9D12
330
91DC
100
AcDbEntity
  8
MEASURE
 62
     2
100
AcDbMText
 10
318.2250655407147
 20
100.2886865117668
 30
0.0
 40
6.0
 41
0.0
 71
     5
 72
     1
  1
\A1;40
  7
AD-STANDARD
 11
0.0000000000000001
 21
1.0
 31
0.0
 73
     1
 44
1.0
1001
ACAD
1000
MTEXTBEGIN
1070
    73
1070
     1
1070
    44
1040
1.0
1070
    74
1070
     0
1000
MTEXTEND
  0
POINT
  5
9D13
330
91DC
100
AcDbEntity
  8
DEFPOINTS
 62
     0
100
AcDbPoint
 10
339.7315066527153
 20
120.2886865117666
 30
0.0
  0
POINT
  5
9D14
330
91DC
100
AcDbEntity
  8
DEFPOINTS
 62
     0
100
AcDbPoint
 10
339.7315066527153
 20
80.28868651176697
 30
0.0
  0
POINT
  5
9D15
330
91DC
100
AcDbEntity
  8
DEFPOINTS
 62
     0
100
AcDbPoint
 10
322.2250655407147
 20
80.28868651176697
 30
0.0
  0
ENDBLK
  5
91E7
330
91DC
100
AcDbEntity
  8
0
100
AcDbBlockEnd
  0
BLOCK
  5
94A4
330
949A
100
AcDbEntity
  8
0
100
AcDbBlockBegin
  2
*D17
 70
     1
 10
0.0
 20
0.0
 30
0.0
  3
*D17
  1

  0
LINE
  5
9C6F
330
949A
100
AcDbEntity
  8
MEASURE
 62
     9
370
    -2
100
AcDbLine
 10
259.5315066527125
 20
482.9412400778011
 30
0.0
 11
259.5315066527125
 21
553.4292943300022
 31
0.0
  0
LINE
  5
9C70
330
949A
100
AcDbEntity
  8
MEASURE
 62
     9
370
    -2
100
AcDbLine
 10
489.9315066527193
 20
482.9412400778011
 30
0.0
 11
489.9315066527193
 21
553.4292943300022
 31
0.0
  0
LINE
  5
9C71
330
949A
100
AcDbEntity
  8
MEASURE
 62
     9
370
    -2
100
AcDbLine
 10
264.5315066527126
 20
549.4292943300022
 30
0.0
 11
484.9315066527195
 21
549.4292943300022
 31
0.0
  0
SOLID
  5
9C72
330
949A
100
AcDbEntity
  8
MEASURE
 62
     9
100
AcDbTrace
 10
264.5315066527126
 20
550.2626276633356
 30
0.0
 11
264.5315066527126
 21
548.5959609966687
 31
0.0
 12
259.5315066527125
 22
549.4292943300022
 32
0.0
 13
259.5315066527125
 23
549.4292943300022
 33
0.0
  0
SOLID
  5
9C73
330
949A
100
AcDbEntity
  8
MEASURE
 62
     9
100
AcDbTrace
 10
484.9315066527195
 20
550.2626276633356
 30
0.0
 11
484.9315066527195
 21
548.5959609966687
 31
0.0
 12
489.9315066527193
 22
549.4292943300022
 32
0.0
 13
489.9315066527193
 23
549.4292943300022
 33
0.0
  0
MTEXT
  5
9C74
330
949A
100
AcDbEntity
  8
MEASURE
 62
     2
100
AcDbMText
 10
374.731506652716
 20
555.0007229014305
 30
0.0
 40
6.0
 41
0.0
 71
     5
 72
     1
  1
\A1;(230.4)
  7
AD-STANDARD
 73
     1
 44
1.0
1001
ACAD
1000
MTEXTBEGIN
1070
    73
1070
     1
1070
    44
1040
1.0
1070
    74
1070
     0
1000
MTEXTEND
  0
POINT
  5
9C75
330
949A
100
AcDbEntity
  8
DEFPOINTS
 62
     0
100
AcDbPoint
 10
259.5315066527125
 20
480.9412400778011
 30
0.0
  0
POINT
  5
9C76
330
949A
100
AcDbEntity
  8
DEFPOINTS
 62
     0
100
AcDbPoint
 10
489.9315066527193
 20
480.9412400778011
 30
0.0
  0
POINT
  5
9C77
330
949A
100
AcDbEntity
  8
DEFPOINTS
 62
     0
100
AcDbPoint
 10
489.9315066527193
 20
549.4292943300022
 30
0.0
  0
ENDBLK
  5
94A5
330
949A
100
AcDbEntity
  8
0
100
AcDbBlockEnd
  0
BLOCK
  5
9DB3
330
9DA9
100
AcDbEntity
  8
0
100
AcDbBlockBegin
  2
*D18
 70
     1
 10
0.0
 20
0.0
 30
0.0
  3
*D18
  1

  0
LINE
  5
9DE3
330
9DA9
100
AcDbEntity
  8
MEASURE
 62
     9
370
    -2
100
AcDbLine
 10
274.631506652712
 20
236.8890051199498
 30
0.0
 11
274.631506652712
 21
213.0261802249831
 31
0.0
  0
LINE
  5
9DE4
330
9DA9
100
AcDbEntity
  8
MEASURE
 62
     9
370
    -2
100
AcDbLine
 10
283.2315066527124
 20
239.8890051199499
 30
0.0
 11
283.2315066527124
 21
213.0261802249831
 31
0.0
  0
LINE
  5
9DE5
330
9DA9
100
AcDbEntity
  8
MEASURE
 62
     9
370
    -2
100
AcDbLine
 10
288.2315066527123
 20
217.0261802249831
 30
0.0
 11
293.2315066527124
 21
217.0261802249831
 31
0.0
  0
LINE
  5
9DE6
330
9DA9
100
AcDbEntity
  8
MEASURE
 62
     9
370
    -2
100
AcDbLine
 10
269.631506652712
 20
217.0261802249831
 30
0.0
 11
252.5743637955692
 21
217.0261802249831
 31
0.0
  0
LINE
  5
9DE7
330
9DA9
100
AcDbEntity
  8
MEASURE
 62
     9
370
    -2
100
AcDbLine
 10
283.2315066527124
 20
217.0261802249831
 30
0.0
 11
274.631506652712
 21
217.0261802249831
 31
0.0
  0
SOLID
  5
9DE8
330
9DA9
100
AcDbEntity
  8
MEASURE
 62
     9
100
AcDbTrace
 10
288.2315066527123
 20
217.8595135583165
 30
0.0
 11
288.2315066527123
 21
216.1928468916498
 31
0.0
 12
283.2315066527124
 22
217.0261802249831
 32
0.0
 13
283.2315066527124
 23
217.0261802249831
 33
0.0
  0
SOLID
  5
9DE9
330
9DA9
100
AcDbEntity
  8
MEASURE
 62
     9
100
AcDbTrace
 10
269.631506652712
 20
217.8595135583165
 30
0.0
 11
269.631506652712
 21
216.1928468916498
 31
0.0
 12
274.631506652712
 22
217.0261802249831
 32
0.0
 13
274.631506652712
 23
217.0261802249831
 33
0.0
  0
MTEXT
  5
9DEA
330
9DA9
100
AcDbEntity
  8
MEASURE
 62
     2
100
AcDbMText
 10
258.6029352241406
 20
221.0261802249831
 30
0.0
 40
6.0
 41
0.0
 71
     5
 72
     1
  1
\A1;8.6
  7
AD-STANDARD
 73
     1
 44
1.0
1001
ACAD
1000
MTEXTBEGIN
1070
    73
1070
     1
1070
    44
1040
1.0
1070
    74
1070
     0
1000
MTEXTEND
  0
POINT
  5
9DEB
330
9DA9
100
AcDbEntity
  8
DEFPOINTS
 62
     0
100
AcDbPoint
 10
274.631506652712
 20
238.8890051199498
 30
0.0
  0
POINT
  5
9DEC
330
9DA9
100
AcDbEntity
  8
DEFPOINTS
 62
     0
100
AcDbPoint
 10
283.2315066527124
 20
241.8890051199499
 30
0.0
  0
POINT
  5
9DED
330
9DA9
100
AcDbEntity
  8
DEFPOINTS
 62
     0
100
AcDbPoint
 10
283.2315066527124
 20
217.0261802249831
 30
0.0
  0
ENDBLK
  5
9DB4
330
9DA9
100
AcDbEntity
  8
0
100
AcDbBlockEnd
  0
BLOCK
  5
9DC0
330
9DB6
100
AcDbEntity
  8
0
100
AcDbBlockBegin
  2
*D19
 70
     1
 10
0.0
 20
0.0
 30
0.0
  3
*D19
  1

  0
LINE
  5
9DCF
330
9DB6
100
AcDbEntity
  8
MEASURE
 62
     9
370
    -2
100
AcDbLine
 10
283.2315066527124
 20
239.8890051199499
 30
0.0
 11
283.2315066527124
 21
213.0261802249831
 31
0.0
  0
LINE
  5
9DD0
330
9DB6
100
AcDbEntity
  8
MEASURE
 62
     9
370
    -2
100
AcDbLine
 10
466.2315066527122
 20
239.8890051199497
 30
0.0
 11
466.2315066527122
 21
213.0261802249831
 31
0.0
  0
LINE
  5
9DD1
330
9DB6
100
AcDbEntity
  8
MEASURE
 62
     9
370
    -2
100
AcDbLine
 10
288.2315066527123
 20
217.0261802249831
 30
0.0
 11
461.2315066527123
 21
217.0261802249831
 31
0.0
  0
SOLID
  5
9DD2
330
9DB6
100
AcDbEntity
  8
MEASURE
 62
     9
100
AcDbTrace
 10
288.2315066527123
 20
217.8595135583165
 30
0.0
 11
288.2315066527123
 21
216.1928468916498
 31
0.0
 12
283.2315066527124
 22
217.0261802249831
 32
0.0
 13
283.2315066527124
 23
217.0261802249831
 33
0.0
  0
SOLID
  5
9DD3
330
9DB6
100
AcDbEntity
  8
MEASURE
 62
     9
100
AcDbTrace
 10
461.2315066527123
 20
217.8595135583165
 30
0.0
 11
461.2315066527123
 21
216.1928468916498
 31
0.0
 12
466.2315066527122
 22
217.0261802249831
 32
0.0
 13
466.2315066527122
 23
217.0261802249831
 33
0.0
  0
MTEXT
  5
9DD4
330
9DB6
100
AcDbEntity
  8
MEASURE
 62
     2
100
AcDbMText
 10
374.7315066527124
 20
221.0261802249831
 30
0.0
 40
6.0
 41
0.0
 71
     5
 72
     1
  1
\A1;183
  7
AD-STANDARD
 73
     1
 44
1.0
1001
ACAD
1000
MTEXTBEGIN
1070
    73
1070
     1
1070
    44
1040
1.0
1070
    74
1070
     0
1000
MTEXTEND
  0
POINT
  5
9DD5
330
9DB6
100
AcDbEntity
  8
DEFPOINTS
 62
     0
100
AcDbPoint
 10
283.2315066527124
 20
241.8890051199499
 30
0.0
  0
POINT
  5
9DD6
330
9DB6
100
AcDbEntity
  8
DEFPOINTS
 62
     0
100
AcDbPoint
 10
466.2315066527122
 20
241.8890051199497
 30
0.0
  0
POINT
  5
9DD7
330
9DB6
100
AcDbEntity
  8
DEFPOINTS
 62
     0
100
AcDbPoint
 10
466.2315066527122
 20
217.0261802249831
 30
0.0
  0
ENDBLK
  5
9DC1
330
9DB6
100
AcDbEntity
  8
0
100
AcDbBlockEnd
  0
BLOCK
  5
9DCD
330
9DC3
100
AcDbEntity
  8
0
100
AcDbBlockBegin
  2
*D20
 70
     1
 10
0.0
 20
0.0
 30
0.0
  3
*D20
  1

  0
LINE
  5
9DF9
330
9DC3
100
AcDbEntity
  8
MEASURE
 62
     9
370
    -2
100
AcDbLine
 10
466.2315066527122
 20
239.8890051199497
 30
0.0
 11
466.2315066527122
 21
213.0261802249831
 31
0.0
  0
LINE
  5
9DFA
330
9DC3
100
AcDbEntity
  8
MEASURE
 62
     9
370
    -2
100
AcDbLine
 10
474.8315066527127
 20
236.8890051199496
 30
0.0
 11
474.8315066527127
 21
213.0261802249831
 31
0.0
  0
LINE
  5
9DFB
330
9DC3
100
AcDbEntity
  8
MEASURE
 62
     9
370
    -2
100
AcDbLine
 10
461.2315066527123
 20
217.0261802249831
 30
0.0
 11
456.2315066527124
 21
217.0261802249831
 31
0.0
  0
LINE
  5
9DFC
330
9DC3
100
AcDbEntity
  8
MEASURE
 62
     9
370
    -2
100
AcDbLine
 10
479.8315066527127
 20
217.0261802249831
 30
0.0
 11
502.8315066527127
 21
217.0261802249831
 31
0.0
  0
LINE
  5
9DFD
330
9DC3
100
AcDbEntity
  8
MEASURE
 62
     9
370
    -2
100
AcDbLine
 10
466.2315066527122
 20
217.0261802249831
 30
0.0
 11
474.8315066527127
 21
217.0261802249831
 31
0.0
  0
SOLID
  5
9DFE
330
9DC3
100
AcDbEntity
  8
MEASURE
 62
     9
100
AcDbTrace
 10
461.2315066527123
 20
217.8595135583165
 30
0.0
 11
461.2315066527123
 21
216.1928468916498
 31
0.0
 12
466.2315066527122
 22
217.0261802249831
 32
0.0
 13
466.2315066527122
 23
217.0261802249831
 33
0.0
  0
SOLID
  5
9DFF
330
9DC3
100
AcDbEntity
  8
MEASURE
 62
     9
100
AcDbTrace
 10
479.8315066527127
 20
217.8595135583165
 30
0.0
 11
479.8315066527127
 21
216.1928468916498
 31
0.0
 12
474.8315066527127
 22
217.0261802249831
 32
0.0
 13
474.8315066527127
 23
217.0261802249831
 33
0.0
  0
MTEXT
  5
9E00
330
9DC3
100
AcDbEntity
  8
MEASURE
 62
     2
100
AcDbMText
 10
493.8315066527127
 20
222.5976087964117
 30
0.0
 40
6.0
 41
0.0
 71
     5
 72
     1
  1
\A1;(8.6)
  7
AD-STANDARD
 73
     1
 44
1.0
1001
ACAD
1000
MTEXTBEGIN
1070
    73
1070
     1
1070
    44
1040
1.0
1070
    74
1070
     0
1000
MTEXTEND
  0
POINT
  5
9E01
330
9DC3
100
AcDbEntity
  8
DEFPOINTS
 62
     0
100
AcDbPoint
 10
466.2315066527122
 20
241.8890051199497
 30
0.0
  0
POINT
  5
9E02
330
9DC3
100
AcDbEntity
  8
DEFPOINTS
 62
     0
100
AcDbPoint
 10
474.8315066527127
 20
238.8890051199496
 30
0.0
  0
POINT
  5
9E03
330
9DC3
100
AcDbEntity
  8
DEFPOINTS
 62
     0
100
AcDbPoint
 10
474.8315066527127
 20
217.0261802249831
 30
0.0
  0
ENDBLK
  5
9DCE
330
9DC3
100
AcDbEntity
  8
0
100
AcDbBlockEnd
  0
BLOCK
  5
9E20
330
9E16
100
AcDbEntity
  8
0
100
AcDbBlockBegin
  2
*D21
 70
     1
 10
0.0
 20
0.0
 30
0.0
  3
*D21
  1

  0
LINE
  5
9E50
330
9E16
100
AcDbEntity
  8
MEASURE
 62
     9
370
    -2
100
AcDbLine
 10
538.3183826333659
 20
235.2890028705552
 30
0.0
 11
538.3183826333659
 21
213.0261802249831
 31
0.0
  0
LINE
  5
9E51
330
9E16
100
AcDbEntity
  8
MEASURE
 62
     9
370
    -2
100
AcDbLine
 10
545.3183826333659
 20
232.2890028705552
 30
0.0
 11
545.3183826333659
 21
213.0261802249831
 31
0.0
  0
LINE
  5
9E52
330
9E16
100
AcDbEntity
  8
MEASURE
 62
     9
370
    -2
100
AcDbLine
 10
533.3183826333659
 20
217.0261802249831
 30
0.0
 11
528.3183826333659
 21
217.0261802249831
 31
0.0
  0
LINE
  5
9E53
330
9E16
100
AcDbEntity
  8
MEASURE
 62
     9
370
    -2
100
AcDbLine
 10
550.3183826333659
 20
217.0261802249831
 30
0.0
 11
555.3183826333659
 21
217.0261802249831
 31
0.0
  0
LINE
  5
9E54
330
9E16
100
AcDbEntity
  8
MEASURE
 62
     9
370
    -2
100
AcDbLine
 10
538.3183826333659
 20
217.0261802249831
 30
0.0
 11
545.3183826333659
 21
217.0261802249831
 31
0.0
  0
SOLID
  5
9E55
330
9E16
100
AcDbEntity
  8
MEASURE
 62
     9
100
AcDbTrace
 10
533.3183826333659
 20
217.8595135583165
 30
0.0
 11
533.3183826333659
 21
216.1928468916498
 31
0.0
 12
538.3183826333659
 22
217.0261802249831
 32
0.0
 13
538.3183826333659
 23
217.0261802249831
 33
0.0
  0
SOLID
  5
9E56
330
9E16
100
AcDbEntity
  8
MEASURE
 62
     9
100
AcDbTrace
 10
550.3183826333659
 20
217.8595135583165
 30
0.0
 11
550.3183826333659
 21
216.1928468916498
 31
0.0
 12
545.3183826333659
 22
217.0261802249831
 32
0.0
 13
545.3183826333659
 23
217.0261802249831
 33
0.0
  0
MTEXT
  5
9E57
330
9E16
100
AcDbEntity
  8
MEASURE
 62
     2
100
AcDbMText
 10
541.8183826333659
 20
221.0261802249831
 30
0.0
 40
6.0
 41
0.0
 71
     5
 72
     1
  1
\A1;7
  7
AD-STANDARD
 73
     1
 44
1.0
1001
ACAD
1000
MTEXTBEGIN
1070
    73
1070
     1
1070
    44
1040
1.0
1070
    74
1070
     0
1000
MTEXTEND
  0
POINT
  5
9E58
330
9E16
100
AcDbEntity
  8
DEFPOINTS
 62
     0
100
AcDbPoint
 10
538.3183826333659
 20
237.2890028705552
 30
0.0
  0
POINT
  5
9E59
330
9E16
100
AcDbEntity
  8
DEFPOINTS
 62
     0
100
AcDbPoint
 10
545.3183826333659
 20
234.2890028705552
 30
0.0
  0
POINT
  5
9E5A
330
9E16
100
AcDbEntity
  8
DEFPOINTS
 62
     0
100
AcDbPoint
 10
545.3183826333659
 20
217.0261802249831
 30
0.0
  0
ENDBLK
  5
9E21
330
9E16
100
AcDbEntity
  8
0
100
AcDbBlockEnd
  0
BLOCK
  5
9E2D
330
9E23
100
AcDbEntity
  8
0
100
AcDbBlockBegin
  2
*D22
 70
     1
 10
0.0
 20
0.0
 30
0.0
  3
*D22
  1

  0
LINE
  5
9E47
330
9E23
100
AcDbEntity
  8
MEASURE
 62
     9
370
    -2
100
AcDbLine
 10
545.3183826333659
 20
232.2890028705552
 30
0.0
 11
545.3183826333659
 21
213.0261802249831
 31
0.0
  0
LINE
  5
9E48
330
9E23
100
AcDbEntity
  8
MEASURE
 62
     9
370
    -2
100
AcDbLine
 10
611.3183826333659
 20
232.2890028705552
 30
0.0
 11
611.3183826333659
 21
213.0261802249831
 31
0.0
  0
LINE
  5
9E49
330
9E23
100
AcDbEntity
  8
MEASURE
 62
     9
370
    -2
100
AcDbLine
 10
550.3183826333659
 20
217.0261802249831
 30
0.0
 11
606.3183826333657
 21
217.0261802249831
 31
0.0
  0
SOLID
  5
9E4A
330
9E23
100
AcDbEntity
  8
MEASURE
 62
     9
100
AcDbTrace
 10
550.3183826333659
 20
217.8595135583165
 30
0.0
 11
550.3183826333659
 21
216.1928468916498
 31
0.0
 12
545.3183826333659
 22
217.0261802249831
 32
0.0
 13
545.3183826333659
 23
217.0261802249831
 33
0.0
  0
SOLID
  5
9E4B
330
9E23
100
AcDbEntity
  8
MEASURE
 62
     9
100
AcDbTrace
 10
606.3183826333657
 20
217.8595135583165
 30
0.0
 11
606.3183826333657
 21
216.1928468916498
 31
0.0
 12
611.3183826333659
 22
217.0261802249831
 32
0.0
 13
611.3183826333659
 23
217.0261802249831
 33
0.0
  0
MTEXT
  5
9E4C
330
9E23
100
AcDbEntity
  8
MEASURE
 62
     2
100
AcDbMText
 10
578.3183826333659
 20
221.0261802249831
 30
0.0
 40
6.0
 41
0.0
 71
     5
 72
     1
  1
\A1;66
  7
AD-STANDARD
 73
     1
 44
1.0
1001
ACAD
1000
MTEXTBEGIN
1070
    73
1070
     1
1070
    44
1040
1.0
1070
    74
1070
     0
1000
MTEXTEND
  0
POINT
  5
9E4D
330
9E23
100
AcDbEntity
  8
DEFPOINTS
 62
     0
100
AcDbPoint
 10
545.3183826333659
 20
234.2890028705552
 30
0.0
  0
POINT
  5
9E4E
330
9E23
100
AcDbEntity
  8
DEFPOINTS
 62
     0
100
AcDbPoint
 10
611.3183826333659
 20
234.2890028705552
 30
0.0
  0
POINT
  5
9E4F
330
9E23
100
AcDbEntity
  8
DEFPOINTS
 62
     0
100
AcDbPoint
 10
611.3183826333659
 20
217.0261802249831
 30
0.0
  0
ENDBLK
  5
9E2E
330
9E23
100
AcDbEntity
  8
0
100
AcDbBlockEnd
  0
BLOCK
  5
9E3A
330
9E30
100
AcDbEntity
  8
0
100
AcDbBlockBegin
  2
*D23
 70
     1
 10
0.0
 20
0.0
 30
0.0
  3
*D23
  1

  0
LINE
  5
9E5B
330
9E30
100
AcDbEntity
  8
MEASURE
 62
     9
370
    -2
100
AcDbLine
 10
611.3183826333659
 20
232.2890028705552
 30
0.0
 11
611.3183826333659
 21
213.0261802249831
 31
0.0
  0
LINE
  5
9E5C
330
9E30
100
AcDbEntity
  8
MEASURE
 62
     9
370
    -2
100
AcDbLine
 10
618.3183826333658
 20
235.2890028705552
 30
0.0
 11
618.3183826333658
 21
213.0261802249831
 31
0.0
  0
LINE
  5
9E5D
330
9E30
100
AcDbEntity
  8
MEASURE
 62
     9
370
    -2
100
AcDbLine
 10
606.3183826333657
 20
217.0261802249831
 30
0.0
 11
601.3183826333658
 21
217.0261802249831
 31
0.0
  0
LINE
  5
9E5E
330
9E30
100
AcDbEntity
  8
MEASURE
 62
     9
370
    -2
100
AcDbLine
 10
623.3183826333657
 20
217.0261802249831
 30
0.0
 11
639.461239776223
 21
217.0261802249831
 31
0.0
  0
LINE
  5
9E5F
330
9E30
100
AcDbEntity
  8
MEASURE
 62
     9
370
    -2
100
AcDbLine
 10
611.3183826333659
 20
217.0261802249831
 30
0.0
 11
618.3183826333658
 21
217.0261802249831
 31
0.0
  0
SOLID
  5
9E60
330
9E30
100
AcDbEntity
  8
MEASURE
 62
     9
100
AcDbTrace
 10
606.3183826333657
 20
217.8595135583165
 30
0.0
 11
606.3183826333657
 21
216.1928468916498
 31
0.0
 12
611.3183826333659
 22
217.0261802249831
 32
0.0
 13
611.3183826333659
 23
217.0261802249831
 33
0.0
  0
SOLID
  5
9E61
330
9E30
100
AcDbEntity
  8
MEASURE
 62
     9
100
AcDbTrace
 10
623.3183826333657
 20
217.8595135583165
 30
0.0
 11
623.3183826333657
 21
216.1928468916498
 31
0.0
 12
618.3183826333658
 22
217.0261802249831
 32
0.0
 13
618.3183826333658
 23
217.0261802249831
 33
0.0
  0
MTEXT
  5
9E62
330
9E30
100
AcDbEntity
  8
MEASURE
 62
     2
100
AcDbMText
 10
633.8898112047942
 20
222.5976087964117
 30
0.0
 40
6.0
 41
0.0
 71
     5
 72
     1
  1
\A1;(7)
  7
AD-STANDARD
 73
     1
 44
1.0
1001
ACAD
1000
MTEXTBEGIN
1070
    73
1070
     1
1070
    44
1040
1.0
1070
    74
1070
     0
1000
MTEXTEND
  0
POINT
  5
9E63
330
9E30
100
AcDbEntity
  8
DEFPOINTS
 62
     0
100
AcDbPoint
 10
611.3183826333659
 20
234.2890028705552
 30
0.0
  0
POINT
  5
9E64
330
9E30
100
AcDbEntity
  8
DEFPOINTS
 62
     0
100
AcDbPoint
 10
618.3183826333658
 20
237.2890028705552
 30
0.0
  0
POINT
  5
9E65
330
9E30
100
AcDbEntity
  8
DEFPOINTS
 62
     0
100
AcDbPoint
 10
618.3183826333658
 20
217.0261802249831
 30
0.0
  0
ENDBLK
  5
9E3B
330
9E30
100
AcDbEntity
  8
0
100
AcDbBlockEnd
  0
BLOCK
  5
9E81
330
9E77
100
AcDbEntity
  8
0
100
AcDbBlockBegin
  2
*D24
 70
     1
 10
0.0
 20
0.0
 30
0.0
  3
*D24
  1

  0
LINE
  5
9E83
330
9E77
100
AcDbEntity
  8
MEASURE
 62
     9
370
    -2
100
AcDbLine
 10
476.8315066527152
 20
80.28868651176697
 30
0.0
 11
508.6121238994222
 21
80.28868651176695
 31
0.0
  0
LINE
  5
9E84
330
9E77
100
AcDbEntity
  8
MEASURE
 62
     9
370
    -2
100
AcDbLine
 10
476.8315066527163
 20
160.2886865117669
 30
0.0
 11
508.6121238994222
 21
160.2886865117669
 31
0.0
  0
LINE
  5
9E85
330
9E77
100
AcDbEntity
  8
MEASURE
 62
     9
370
    -2
100
AcDbLine
 10
504.6121238994223
 20
85.28868651176695
 30
0.0
 11
504.6121238994223
 21
155.2886865117669
 31
0.0
  0
SOLID
  5
9E86
330
9E77
100
AcDbEntity
  8
MEASURE
 62
     9
100
AcDbTrace
 10
503.778790566089
 20
85.28868651176695
 30
0.0
 11
505.4454572327556
 21
85.28868651176695
 31
0.0
 12
504.6121238994223
 22
80.28868651176695
 32
0.0
 13
504.6121238994223
 23
80.28868651176695
 33
0.0
  0
SOLID
  5
9E87
330
9E77
100
AcDbEntity
  8
MEASURE
 62
     9
100
AcDbTrace
 10
503.778790566089
 20
155.2886865117669
 30
0.0
 11
505.4454572327556
 21
155.2886865117669
 31
0.0
 12
504.6121238994223
 22
160.2886865117669
 32
0.0
 13
504.6121238994223
 23
160.2886865117669
 33
0.0
  0
MTEXT
  5
9E88
330
9E77
100
AcDbEntity
  8
MEASURE
 62
     2
100
AcDbMText
 10
500.6121238994223
 20
120.288686511767
 30
0.0
 40
6.0
 41
0.0
 71
     5
 72
     1
  1
\A1;80
  7
AD-STANDARD
 11
0.0000000000000001
 21
1.0
 31
0.0
 73
     1
 44
1.0
1001
ACAD
1000
MTEXTBEGIN
1070
    73
1070
     1
1070
    44
1040
1.0
1070
    74
1070
     0
1000
MTEXTEND
  0
POINT
  5
9E89
330
9E77
100
AcDbEntity
  8
DEFPOINTS
 62
     0
100
AcDbPoint
 10
474.8315066527154
 20
80.28868651176697
 30
0.0
  0
POINT
  5
9E8A
330
9E77
100
AcDbEntity
  8
DEFPOINTS
 62
     0
100
AcDbPoint
 10
474.8315066527164
 20
160.2886865117669
 30
0.0
  0
POINT
  5
9E8B
330
9E77
100
AcDbEntity
  8
DEFPOINTS
 62
     0
100
AcDbPoint
 10
504.6121238994223
 20
160.2886865117669
 30
0.0
  0
ENDBLK
  5
9E82
330
9E77
100
AcDbEntity
  8
0
100
AcDbBlockEnd
  0
BLOCK
  5
9EBB
330
9EB1
100
AcDbEntity
  8
0
100
AcDbBlockBegin
  2
*D25
 70
     1
 10
0.0
 20
0.0
 30
0.0
  3
*D25
  1

  0
LINE
  5
9ED3
330
9EB1
100
AcDbEntity
  8
MEASURE
 62
     9
370
    -2
100
AcDbLine
 10
110.6870542479391
 20
235.2890051199528
 30
0.0
 11
110.6870542479391
 21
221.6500056657503
 31
0.0
  0
LINE
  5
9ED4
330
9EB1
100
AcDbEntity
  8
MEASURE
 62
     9
370
    -2
100
AcDbLine
 10
120.6870542479391
 20
235.2890051199528
 30
0.0
 11
120.6870542479391
 21
221.6500056657503
 31
0.0
  0
LINE
  5
9ED5
330
9EB1
100
AcDbEntity
  8
MEASURE
 62
     9
370
    -2
100
AcDbLine
 10
105.6870542479391
 20
225.6500056657503
 30
0.0
 11
100.6870542479391
 21
225.6500056657503
 31
0.0
  0
LINE
  5
9ED6
330
9EB1
100
AcDbEntity
  8
MEASURE
 62
     9
370
    -2
100
AcDbLine
 10
125.6870542479391
 20
225.6500056657503
 30
0.0
 11
144.8013399622248
 21
225.6500056657503
 31
0.0
  0
LINE
  5
9ED7
330
9EB1
100
AcDbEntity
  8
MEASURE
 62
     9
370
    -2
100
AcDbLine
 10
110.6870542479391
 20
225.6500056657503
 30
0.0
 11
120.6870542479391
 21
225.6500056657503
 31
0.0
  0
SOLID
  5
9ED8
330
9EB1
100
AcDbEntity
  8
MEASURE
 62
     9
100
AcDbTrace
 10
105.6870542479391
 20
226.4833389990837
 30
0.0
 11
105.6870542479391
 21
224.816672332417
 31
0.0
 12
110.6870542479391
 22
225.6500056657503
 32
0.0
 13
110.6870542479391
 23
225.6500056657503
 33
0.0
  0
SOLID
  5
9ED9
330
9EB1
100
AcDbEntity
  8
MEASURE
 62
     9
100
AcDbTrace
 10
125.6870542479391
 20
226.4833389990837
 30
0.0
 11
125.6870542479391
 21
224.816672332417
 31
0.0
 12
120.6870542479391
 22
225.6500056657503
 32
0.0
 13
120.6870542479391
 23
225.6500056657503
 33
0.0
  0
MTEXT
  5
9EDA
330
9EB1
100
AcDbEntity
  8
MEASURE
 62
     2
100
AcDbMText
 10
137.744197105082
 20
229.6500056657503
 30
0.0
 40
6.0
 41
0.0
 71
     5
 72
     1
  1
\A1;%%C10
  7
AD-STANDARD
 73
     1
 44
1.0
1001
ACAD
1000
MTEXTBEGIN
1070
    73
1070
     1
1070
    44
1040
1.0
1070
    74
1070
     0
1000
MTEXTEND
  0
POINT
  5
9EDB
330
9EB1
100
AcDbEntity
  8
DEFPOINTS
 62
     0
100
AcDbPoint
 10
110.6870542479391
 20
237.2890051199528
 30
0.0
  0
POINT
  5
9EDC
330
9EB1
100
AcDbEntity
  8
DEFPOINTS
 62
     0
100
AcDbPoint
 10
120.6870542479391
 20
237.2890051199528
 30
0.0
  0
POINT
  5
9EDD
330
9EB1
100
AcDbEntity
  8
DEFPOINTS
 62
     0
100
AcDbPoint
 10
120.6870542479391
 20
225.6500056657503
 30
0.0
  0
ENDBLK
  5
9EBC
330
9EB1
100
AcDbEntity
  8
0
100
AcDbBlockEnd
  0
ENDSEC
  0
SECTION
  2
ENTITIES
  0
LINE
  5
821F
330
1A
100
AcDbEntity
  8
1
100
AcDbLine
 10
474.8315066527154
 20
80.28868651176697
 30
0.0
 11
474.8315066527164
 21
160.2886865117669
 31
0.0
  0
LINE
  5
8220
330
1A
100
AcDbEntity
  8
1
100
AcDbLine
 10
274.6315066527156
 20
80.28868651176697
 30
0.0
 11
274.6315066527156
 21
160.2886865117669
 31
0.0
  0
CIRCLE
  5
8221
330
1A
100
AcDbEntity
  8
1
100
AcDbCircle
 10
466.231506652716
 20
87.28868651176695
 30
0.0
 40
5.0
  0
CIRCLE
  5
8222
330
1A
100
AcDbEntity
  8
1
100
AcDbCircle
 10
283.231506652716
 20
87.28868651176695
 30
0.0
 40
5.0
  0
LINE
  5
8223
330
1A
100
AcDbEntity
  8
1
100
AcDbLine
 10
274.6315066527156
 20
80.28868651176697
 30
0.0
 11
474.8315066527154
 21
80.28868651176697
 31
0.0
  0
ARC
  5
822F
330
1A
100
AcDbEntity
  8
1
100
AcDbCircle
 10
586.0683780378201
 20
317.7123988786092
 30
0.0
 40
5.0
100
AcDbArc
 50
192.0738552364869
 51
287.9261447635041
  0
ARC
  5
8230
330
1A
100
AcDbEntity
  8
1
100
AcDbCircle
 10
586.0683780378201
 20
290.8656113612907
 30
0.0
 40
5.0
100
AcDbArc
 50
72.07385523649572
 51
167.9261447635398
  0
ARC
  5
8231
330
1A
100
AcDbEntity
  8
1
100
AcDbCircle
 10
578.3183826333659
 20
304.2890028705552
 30
0.0
 40
13.0
100
AcDbArc
 50
21.63312546605113
 51
156.3044424268221
  0
LINE
  5
8232
330
1A
100
AcDbEntity
  8
1
100
AcDbLine
 10
618.3183826333658
 20
237.2890028705552
 30
0.0
 11
538.3183826333659
 21
237.2890028705552
 31
0.0
  0
LINE
  5
8233
330
1A
100
AcDbEntity
  8
0
100
AcDbLine
 10
611.335835704364
 20
363.1779720639555
 30
0.0
 11
541.3183826333671
 21
363.7890051199514
 31
0.0
  0
LINE
  5
8235
330
1A
100
AcDbEntity
  8
0
100
AcDbLine
 10
613.3183826333672
 20
352.7890051199514
 30
0.0
 11
549.8183826333668
 21
352.7890051199514
 31
0.0
  0
LINE
  5
8236
330
1A
100
AcDbEntity
  8
0
100
AcDbLine
 10
613.3183826333667
 20
318.2890051199513
 30
0.0
 11
549.8183826333668
 21
318.2890051199513
 31
0.0
  0
LINE
  5
8239
330
1A
100
AcDbEntity
  8
0
100
AcDbLine
 10
550.0183826333666
 20
318.9890051199512
 30
0.0
 11
613.3183826333667
 21
318.9890051199512
 31
0.0
  0
LINE
  5
823A
330
1A
100
AcDbEntity
  8
0
100
AcDbLine
 10
550.0183826333668
 20
352.0890051199517
 30
0.0
 11
613.3183826333672
 21
352.0890051199517
 31
0.0
  0
LINE
  5
823B
330
1A
100
AcDbEntity
  8
0
100
AcDbLine
 10
586.6250064962837
 20
314.2890051199496
 30
0.0
 11
614.9183826333671
 21
314.2890051199496
 31
0.0
  0
LINE
  5
823C
330
1A
100
AcDbEntity
  8
1
100
AcDbLine
 10
274.6315066527156
 20
160.2886865117669
 30
0.0
 11
474.8315066527154
 21
160.2886865117669
 31
0.0
  0
LINE
  5
823D
330
1A
100
AcDbEntity
  8
1
100
AcDbLine
 10
276.2315066527124
 20
237.2890051199499
 30
0.0
 11
473.2315066527124
 21
237.2890051199497
 31
0.0
  0
LINE
  5
823E
330
1A
100
AcDbEntity
  8
1
100
AcDbLine
 10
276.2315066527124
 20
238.8890051199498
 30
0.0
 11
473.2315066527124
 21
238.8890051199496
 31
0.0
  0
LINE
  5
823F
330
1A
100
AcDbEntity
  8
0
100
AcDbLine
 10
283.7315066527128
 20
270.2890051199509
 30
0.0
 11
465.0171399024022
 21
270.2890051199501
 31
0.0
  0
LINE
  5
8240
330
1A
100
AcDbEntity
  8
0
100
AcDbLine
 10
283.7315066527128
 20
270.2890051199514
 30
0.0
 11
465.0171399024022
 21
270.2890051199514
 31
0.0
  0
LINE
  5
8251
330
1A
100
AcDbEntity
  8
0
100
AcDbLine
 10
284.2315066527128
 20
362.7890051199514
 30
0.0
 11
465.2315066527127
 21
362.7890051199514
 31
0.0
  0
LINE
  5
8252
330
1A
100
AcDbEntity
  8
0
100
AcDbLine
 10
283.7315066527128
 20
366.2890051199514
 30
0.0
 11
465.7315066527127
 21
366.2890051199519
 31
0.0
  0
LINE
  5
8253
330
1A
100
AcDbEntity
  8
0
100
AcDbLine
 10
284.2315066527128
 20
290.7890051199514
 30
0.0
 11
465.2315066527127
 21
290.7890051199514
 31
0.0
  0
LINE
  5
8254
330
1A
100
AcDbEntity
  8
0
100
AcDbLine
 10
284.2315066527128
 20
288.7890051199514
 30
0.0
 11
412.2315066527127
 21
288.7890051199523
 31
0.0
  0
LINE
  5
8255
330
1A
100
AcDbEntity
  8
0
100
AcDbLine
 10
284.2315066527128
 20
273.789005119951
 30
0.0
 11
412.2315066527127
 21
273.7890051199532
 31
0.0
  0
LINE
  5
8256
330
1A
100
AcDbEntity
  8
0
100
AcDbLine
 10
464.9453899634656
 20
365.5028884307061
 30
0.0
 11
284.5176233419591
 21
365.5028884307061
 31
0.0
  0
LINE
  5
8257
330
1A
100
AcDbEntity
  8
0
100
AcDbLine
 10
421.2315066527128
 20
271.0751218091981
 30
0.0
 11
284.5176233419591
 21
271.0751218091977
 31
0.0
  0
LINE
  5
8262
330
1A
100
AcDbEntity
  8
0
100
AcDbLine
 10
298.2315066527115
 20
302.2890051199514
 30
0.0
 11
421.2315066527113
 21
302.2890051199514
 31
0.0
  0
LINE
  5
8263
330
1A
100
AcDbEntity
  8
0
100
AcDbLine
 10
421.2315066527113
 20
349.2890051199514
 30
0.0
 11
298.2315066527115
 21
349.2890051199514
 31
0.0
  0
LINE
  5
8264
330
1A
100
AcDbEntity
  8
1
100
AcDbLine
 10
274.631506652712
 20
317.28900511995
 30
0.0
 11
274.631506652712
 21
238.8890051199498
 31
0.0
  0
LINE
  5
8265
330
1A
100
AcDbEntity
  8
1
100
AcDbLine
 10
276.2315066527124
 20
317.28900511995
 30
0.0
 11
276.2315066527124
 21
238.8890051199498
 31
0.0
  0
LINE
  5
8266
330
1A
100
AcDbEntity
  8
1
100
AcDbLine
 10
188.6870542479391
 20
237.2890051199528
 30
0.0
 11
188.6870542479391
 21
251.1265803461553
 31
0.0
  0
LINE
  5
8267
330
1A
100
AcDbEntity
  8
1
100
AcDbLine
 10
108.6870542479391
 20
237.2890051199528
 30
0.0
 11
108.687054247939
 21
251.1277649528216
 31
0.0
  0
LINE
  5
8268
330
1A
100
AcDbEntity
  8
1
100
AcDbLine
 10
188.6870542479391
 20
237.2890051199528
 30
0.0
 11
108.6870542479391
 21
237.2890051199528
 31
0.0
  0
LINE
  5
8269
330
1A
100
AcDbEntity
  8
1
100
AcDbLine
 10
176.6870542479391
 20
237.2890051199528
 30
0.0
 11
186.6870542479391
 21
237.2890051199528
 31
0.0
  0
LINE
  5
826A
330
1A
100
AcDbEntity
  8
1
100
AcDbLine
 10
179.6870542479391
 20
234.2890051199528
 30
0.0
 11
183.6870542479391
 21
234.2890051199528
 31
0.0
  0
ARC
  5
826B
330
1A
100
AcDbEntity
  8
1
100
AcDbCircle
 10
117.6870542479391
 20
237.2890051199528
 30
0.0
 40
3.0
100
AcDbArc
 50
270.0
 51
0.0
  0
LINE
  5
826C
330
1A
100
AcDbEntity
  8
1
100
AcDbLine
 10
110.6870542479391
 20
237.2890051199528
 30
0.0
 11
120.6870542479391
 21
237.2890051199528
 31
0.0
  0
LINE
  5
826D
330
1A
100
AcDbEntity
  8
1
100
AcDbLine
 10
113.6870542479391
 20
234.2890051199528
 30
0.0
 11
117.6870542479391
 21
234.2890051199528
 31
0.0
  0
ARC
  5
826E
330
1A
100
AcDbEntity
  8
1
100
AcDbCircle
 10
113.6870542479391
 20
237.2890051199528
 30
0.0
 40
3.0
100
AcDbArc
 50
180.0
 51
270.0
  0
ARC
  5
826F
330
1A
100
AcDbEntity
  8
1
100
AcDbCircle
 10
179.6870542479391
 20
237.2890051199528
 30
0.0
 40
3.0
100
AcDbArc
 50
180.0
 51
270.0
  0
ARC
  5
8271
330
1A
100
AcDbEntity
  8
1
100
AcDbCircle
 10
289.731506652716
 20
144.2886865117669
 30
0.0
 40
3.0
100
AcDbArc
 50
90.0
 51
270.0
  0
ARC
  5
8272
330
1A
100
AcDbEntity
  8
1
100
AcDbCircle
 10
295.731506652716
 20
144.2886865117669
 30
0.0
 40
3.0
100
AcDbArc
 50
270.0
 51
90.0
  0
ARC
  5
8273
330
1A
100
AcDbEntity
  8
1
100
AcDbCircle
 10
268.5315066527135
 20
132.2886865117672
 30
0.0
 40
1.0
100
AcDbArc
 50
0.0
 51
90.0
  0
ARC
  5
8274
330
1A
100
AcDbEntity
  8
1
100
AcDbCircle
 10
268.531506652718
 20
132.0525500834172
 30
0.0
 40
1.0
100
AcDbArc
 50
0.0
 51
90.0
  0
ARC
  5
8275
330
1A
100
AcDbEntity
  8
1
100
AcDbCircle
 10
268.5315066527126
 20
127.9548099992395
 30
0.0
 40
1.0
100
AcDbArc
 50
0.0
 51
90.0
  0
ARC
  5
8276
330
1A
100
AcDbEntity
  8
1
100
AcDbCircle
 10
268.5315066527144
 20
125.535910110647
 30
0.0
 40
1.0
100
AcDbArc
 50
273.0000000000056
 51
0.0
  0
ARC
  5
8277
330
1A
100
AcDbEntity
  8
1
100
AcDbCircle
 10
268.5315066527144
 20
108.2886865117672
 30
0.0
 40
1.0
100
AcDbArc
 50
270.0
 51
0.0
  0
ARC
  5
8278
330
1A
100
AcDbEntity
  8
1
100
AcDbCircle
 10
268.531506652718
 20
108.5248229401164
 30
0.0
 40
1.0
100
AcDbArc
 50
270.0
 51
0.0
  0
ARC
  5
8279
330
1A
100
AcDbEntity
  8
1
100
AcDbCircle
 10
268.5315066527126
 20
112.6225630242942
 30
0.0
 40
1.0
100
AcDbArc
 50
270.0
 51
0.0
  0
ARC
  5
827A
330
1A
100
AcDbEntity
  8
1
100
AcDbCircle
 10
268.5315066527144
 20
115.0414629128867
 30
0.0
 40
1.0
100
AcDbArc
 50
0.0
 51
86.99999999999439
  0
ARC
  5
827B
330
1A
100
AcDbEntity
  8
1
100
AcDbCircle
 10
359.5315066527125
 20
120.2886865117672
 30
0.0
 40
100.0
100
AcDbArc
 50
173.2622404725884
 51
186.7377595274115
  0
ARC
  5
827C
330
1A
100
AcDbEntity
  8
1
100
AcDbCircle
 10
261.215245739633
 20
108.6734878448743
 30
0.0
 40
1.0
100
AcDbArc
 50
186.7377595274253
 51
266.9999999999944
  0
ARC
  5
827D
330
1A
100
AcDbEntity
  8
1
100
AcDbCircle
 10
260.7980255518421
 20
113.0292299409158
 30
0.0
 40
1.0
100
AcDbArc
 50
184.205150244089
 51
267.0000000000466
  0
ARC
  5
827E
330
1A
100
AcDbEntity
  8
1
100
AcDbCircle
 10
261.1874673221698
 20
108.9110800783954
 30
0.0
 40
1.0
100
AcDbArc
 50
186.5993174973146
 51
267.0000000000466
  0
LINE
  5
827F
330
1A
100
AcDbEntity
  8
1
100
AcDbLine
 10
268.5315066527144
 20
107.2886865117665
 30
0.0
 11
261.162909783391
 21
107.6748583101199
 31
0.0
  0
LINE
  5
8280
330
1A
100
AcDbEntity
  8
1
100
AcDbLine
 10
268.5315066527189
 20
107.5248229401166
 30
0.0
 11
261.1351313659277
 21
107.9124505436408
 31
0.0
  0
LINE
  5
8281
330
1A
100
AcDbEntity
  8
1
100
AcDbLine
 10
268.5315066527135
 20
111.6225630242944
 30
0.0
 11
260.7456895956
 21
112.0306004061611
 31
0.0
  0
ARC
  5
8282
330
1A
100
AcDbEntity
  8
1
100
AcDbCircle
 10
260.6496023984989
 20
125.1228370121626
 30
0.0
 40
1.0
100
AcDbArc
 50
177.2011453780173
 51
273.0000000000056
  0
ARC
  5
8283
330
1A
100
AcDbEntity
  8
1
100
AcDbCircle
 10
260.7980255518421
 20
127.5481430826177
 30
0.0
 40
1.0
100
AcDbArc
 50
92.99999999995341
 51
175.7948497559108
  0
LINE
  5
8284
330
1A
100
AcDbEntity
  8
1
100
AcDbLine
 10
268.5315066527135
 20
128.9548099992392
 30
0.0
 11
260.7456895956
 21
128.5467726173723
 31
0.0
  0
LINE
  5
8285
330
1A
100
AcDbEntity
  8
1
100
AcDbLine
 10
268.5838426089574
 20
124.5372805758926
 30
0.0
 11
260.701938354742
 21
124.124207477408
 31
0.0
  0
LINE
  5
8286
330
1A
100
AcDbEntity
  8
1
100
AcDbLine
 10
268.5838426089574
 20
116.0400924476411
 30
0.0
 11
260.701938354742
 21
116.4531655461254
 31
0.0
  0
ARC
  5
8287
330
1A
100
AcDbEntity
  8
1
100
AcDbCircle
 10
260.6496023984989
 20
115.4545360113708
 30
0.0
 40
1.0
100
AcDbArc
 50
86.99999999999439
 51
182.7988546219826
  0
ARC
  5
8288
330
1A
100
AcDbEntity
  8
1
100
AcDbCircle
 10
261.215245739633
 20
131.9038851786591
 30
0.0
 40
1.0
100
AcDbArc
 50
93.00000000000556
 51
173.2622404725884
  0
ARC
  5
8289
330
1A
100
AcDbEntity
  8
1
100
AcDbCircle
 10
261.1874673221698
 20
131.666292945138
 30
0.0
 40
1.0
100
AcDbArc
 50
92.99999999995341
 51
173.4006825026854
  0
LINE
  5
828A
330
1A
100
AcDbEntity
  8
1
100
AcDbLine
 10
268.5315066527144
 20
133.2886865117669
 30
0.0
 11
261.16290978339
 21
132.9025147134142
 31
0.0
  0
LINE
  5
828B
330
1A
100
AcDbEntity
  8
1
100
AcDbLine
 10
268.5315066527189
 20
133.052550083417
 30
0.0
 11
261.1351313659277
 21
132.6649224798926
 31
0.0
  0
LINE
  5
828C
330
1A
100
AcDbEntity
  8
1
100
AcDbLine
 10
273.0315066527171
 20
113.8778485019658
 30
0.0
 11
273.0315066527134
 21
126.6995245215688
 31
0.0
  0
LINE
  5
828D
330
1A
100
AcDbEntity
  8
1
100
AcDbLine
 10
269.5315066527171
 20
108.2886865117674
 30
0.0
 11
269.5315066527135
 21
132.2886865117669
 31
0.0
  0
ARC
  5
828E
330
1A
100
AcDbEntity
  8
1
100
AcDbCircle
 10
295.731506652716
 20
96.28868651176695
 30
0.0
 40
3.0
100
AcDbArc
 50
270.0
 51
90.0
  0
ARC
  5
8290
330
1A
100
AcDbEntity
  8
1
100
AcDbCircle
 10
289.731506652716
 20
96.28868651176695
 30
0.0
 40
3.0
100
AcDbArc
 50
90.0
 51
270.0
  0
LINE
  5
8292
330
1A
100
AcDbEntity
  8
1
100
AcDbLine
 10
289.731506652716
 20
93.28868651176696
 30
0.0
 11
295.731506652716
 21
93.28868651176696
 31
0.0
  0
LINE
  5
8293
330
1A
100
AcDbEntity
  8
1
100
AcDbLine
 10
289.731506652716
 20
99.28868651176696
 30
0.0
 11
295.731506652716
 21
99.28868651176696
 31
0.0
  0
LINE
  5
8294
330
1A
100
AcDbEntity
  8
1
100
AcDbLine
 10
269.5315066527144
 20
112.855993254103
 30
0.0
 11
272.0402331882159
 21
112.8778865789016
 31
0.0
  0
ARC
  5
8295
330
1A
100
AcDbEntity
  8
1
100
AcDbCircle
 10
272.0315066527153
 20
113.8778485019655
 30
0.0
 40
1.0
100
AcDbArc
 50
270.5000000000175
 51
0.0000000000130276
  0
LINE
  5
8296
330
1A
100
AcDbEntity
  8
1
100
AcDbLine
 10
274.6315066527151
 20
114.0386865117669
 30
0.0
 11
273.0315066527154
 21
114.0386865117669
 31
0.0
  0
LINE
  5
8297
330
1A
100
AcDbEntity
  8
1
100
AcDbLine
 10
269.5315066527144
 20
127.7213797694311
 30
0.0
 11
272.0402331882131
 21
127.6994864446327
 31
0.0
  0
ARC
  5
8298
330
1A
100
AcDbEntity
  8
1
100
AcDbCircle
 10
272.0315066527135
 20
126.6995245215686
 30
0.0
 40
1.0
100
AcDbArc
 50
0.0000000000130276
 51
89.49999999998238
  0
LINE
  5
8299
330
1A
100
AcDbEntity
  8
1
100
AcDbLine
 10
274.6315066527153
 20
126.5386865117669
 30
0.0
 11
273.0315066527154
 21
126.5386865117669
 31
0.0
  0
LINE
  5
829B
330
1A
100
AcDbEntity
  8
1
100
AcDbLine
 10
289.731506652716
 20
141.288686511767
 30
0.0
 11
295.731506652716
 21
141.288686511767
 31
0.0
  0
ARC
  5
829C
330
1A
100
AcDbEntity
  8
1
100
AcDbCircle
 10
183.6870542479391
 20
237.2890051199528
 30
0.0
 40
3.0
100
AcDbArc
 50
270.0
 51
0.0
  0
CIRCLE
  5
829E
330
1A
100
AcDbEntity
  8
1
100
AcDbCircle
 10
283.231506652716
 20
153.2886865117669
 30
0.0
 40
5.0
  0
LINE
  5
829F
330
1A
100
AcDbEntity
  8
1
100
AcDbLine
 10
289.731506652716
 20
147.2886865117669
 30
0.0
 11
295.731506652716
 21
147.2886865117669
 31
0.0
  0
LINE
  5
82A1
330
1A
100
AcDbEntity
  8
1
100
AcDbLine
 10
281.7315066527124
 20
241.8890051199499
 30
0.0
 11
284.7315066527124
 21
241.8890051199499
 31
0.0
  0
LINE
  5
82A2
330
1A
100
AcDbEntity
  8
1
100
AcDbLine
 10
280.2315066527124
 20
238.8890051199498
 30
0.0
 11
286.2315066527123
 21
238.88900511995
 31
0.0
  0
LINE
  5
82A3
330
1A
100
AcDbEntity
  8
1
100
AcDbLine
 10
278.2315066527124
 20
237.2890051199498
 30
0.0
 11
288.2315066527123
 21
237.2890051199498
 31
0.0
  0
LINE
  5
82A4
330
1A
100
AcDbEntity
  8
1
100
AcDbLine
 10
281.2315066527124
 20
234.2890051199498
 30
0.0
 11
285.2315066527124
 21
234.2890051199498
 31
0.0
  0
LINE
  5
82A5
330
1A
100
AcDbEntity
  8
1
100
AcDbLine
 10
280.2315066527124
 20
238.88900511995
 30
0.0
 11
281.7315066527124
 21
241.8890051199499
 31
0.0
  0
ARC
  5
82A6
330
1A
100
AcDbEntity
  8
1
100
AcDbCircle
 10
276.2315066527124
 20
238.8890051199498
 30
0.0
 40
1.6
100
AcDbArc
 50
180.0
 51
270.0
  0
ARC
  5
82A7
330
1A
100
AcDbEntity
  8
1
100
AcDbCircle
 10
281.2315066527124
 20
237.2890051199498
 30
0.0
 40
3.0
100
AcDbArc
 50
180.0
 51
270.0
  0
LINE
  5
82A8
330
1A
100
AcDbEntity
  8
1
100
AcDbLine
 10
286.2315066527123
 20
238.88900511995
 30
0.0
 11
284.7315066527124
 21
241.8890051199499
 31
0.0
  0
ARC
  5
82A9
330
1A
100
AcDbEntity
  8
1
100
AcDbCircle
 10
285.2315066527124
 20
237.2890051199498
 30
0.0
 40
3.0
100
AcDbArc
 50
270.0
 51
0.0
  0
LINE
  5
82AA
330
1A
100
AcDbEntity
  8
0
100
AcDbLine
 10
178.5800571864201
 20
272.851026903593
 30
0.0
 11
185.6870496523925
 21
272.7890051199523
 31
0.0
  0
LINE
  5
82AC
330
1A
100
AcDbEntity
  8
1
100
AcDbLine
 10
188.174276937254
 20
253.3322168838698
 30
0.0
 11
160.7713797462411
 21
309.0816116394877
 31
0.0
  0
LINE
  5
82AD
330
1A
100
AcDbEntity
  8
0
100
AcDbLine
 10
183.1870496523938
 20
314.2890051199529
 30
0.0
 11
156.9936735153114
 21
314.2890051199523
 31
0.0
  0
LINE
  5
82AE
330
1A
100
AcDbEntity
  8
0
100
AcDbLine
 10
115.6695965813951
 20
363.1779720639552
 30
0.0
 11
185.6870496523925
 21
363.7890051199519
 31
0.0
  0
LINE
  5
82B0
330
1A
100
AcDbEntity
  8
0
100
AcDbLine
 10
183.1870496523943
 20
294.2890051199528
 30
0.0
 11
168.042495018772
 21
294.2890051199528
 31
0.0
  0
CIRCLE
  5
82B1
330
1A
100
AcDbEntity
  8
1
100
AcDbCircle
 10
148.6870496523925
 20
304.2890073693471
 30
0.0
 40
5.0
  0
ARC
  5
82B2
330
1A
100
AcDbEntity
  8
1
100
AcDbCircle
 10
133.1870496523934
 20
304.2890073693483
 30
0.0
 40
5.0
100
AcDbArc
 50
312.0738552364601
 51
47.92614476353056
  0
LINE
  5
82B3
330
1A
100
AcDbEntity
  8
1
100
AcDbLine
 10
109.1988404272424
 20
253.3313839533993
 30
0.0
 11
136.7830354251664
 21
309.5134032543862
 31
0.0
  0
ARC
  5
82B4
330
1A
100
AcDbEntity
  8
1
100
AcDbCircle
 10
164.1870496523943
 20
304.2890073693474
 30
0.0
 40
5.0
100
AcDbArc
 50
132.0738552364694
 51
227.9261447635306
  0
LINE
  5
82B5
330
1A
100
AcDbEntity
  8
0
100
AcDbLine
 10
105.6870496523925
 20
316.2191901776276
 30
0.0
 11
105.6870496523934
 21
292.3588200622793
 31
0.0
  0
LINE
  5
82B6
330
1A
100
AcDbEntity
  8
0
100
AcDbLine
 10
112.087049652393
 20
294.2890051199528
 30
0.0
 11
112.087049652393
 21
314.2890051199529
 31
0.0
  0
LINE
  5
82B7
330
1A
100
AcDbEntity
  8
0
100
AcDbLine
 10
111.6203001346234
 20
308.989005119953
 30
0.0
 11
111.6203001346234
 21
299.5890051199525
 31
0.0
  0
ARC
  5
82B8
330
1A
100
AcDbEntity
  8
0
100
AcDbCircle
 10
116.0358634489894
 20
304.2890051199528
 30
0.0
 40
6.448813796596449
100
AcDbArc
 50
133.2127560374619
 51
226.7872439625381
  0
LINE
  5
82B9
330
1A
100
AcDbEntity
  8
0
100
AcDbLine
 10
112.087049652393
 20
308.989005119953
 30
0.0
 11
112.087049652393
 21
299.5890051199525
 31
0.0
  0
LINE
  5
82BB
330
1A
100
AcDbEntity
  8
0
100
AcDbLine
 10
129.3081747474749
 20
294.2890051199528
 30
0.0
 11
112.0870496523926
 21
294.2890051199528
 31
0.0
  0
LINE
  5
82BC
330
1A
100
AcDbEntity
  8
0
100
AcDbLine
 10
113.6870496523925
 20
294.2890051199532
 30
0.0
 11
113.6870496523934
 21
275.3999620220778
 31
0.0
  0
ARC
  5
82BD
330
1A
100
AcDbEntity
  8
1
100
AcDbCircle
 10
113.6870542479391
 20
251.1277649528216
 30
0.0
 40
5.0
100
AcDbArc
 50
153.8499284490034
 51
180.0
  0
ARC
  5
82BE
330
1A
100
AcDbEntity
  8
0
100
AcDbCircle
 10
115.6870496523934
 20
275.3999620220778
 30
0.0
 40
2.0
100
AcDbArc
 50
180.0
 51
269.5000000000085
  0
LINE
  5
82BF
330
1A
100
AcDbEntity
  8
0
100
AcDbLine
 10
115.669596581396
 20
273.40003817595
 30
0.0
 11
119.0376980672205
 21
273.3706451995774
 31
0.0
  0
LINE
  5
82C1
330
1A
100
AcDbEntity
  8
0
100
AcDbLine
 10
111.6203001346234
 20
299.5890051199525
 30
0.0
 11
112.087049652393
 21
299.5890051199525
 31
0.0
  0
LINE
  5
82C2
330
1A
100
AcDbEntity
  8
0
100
AcDbLine
 10
113.6870496523934
 20
293.7890051199532
 30
0.0
 11
105.6870496523929
 21
293.7191901776272
 31
0.0
  0
LINE
  5
82C3
330
1A
100
AcDbEntity
  8
0
100
AcDbLine
 10
113.6870496523934
 20
292.2890051199532
 30
0.0
 11
105.6870496523934
 21
292.3588200622793
 31
0.0
  0
ARC
  5
82C4
330
1A
100
AcDbEntity
  8
1
100
AcDbCircle
 10
148.6870496523925
 20
304.2890073693467
 30
0.0
 40
13.0
100
AcDbArc
 50
259.0627777130714
 51
280.9372222869285
  0
ARC
  5
82C5
330
1A
100
AcDbEntity
  8
1
100
AcDbCircle
 10
146.3153829779603
 20
292.0160616273751
 30
0.0
 40
0.5
100
AcDbArc
 50
192.0738552364474
 51
259.0627777130714
  0
ARC
  5
82C6
330
1A
100
AcDbEntity
  8
1
100
AcDbCircle
 10
148.6870496523925
 20
304.2890073693467
 30
0.0
 40
13.0
100
AcDbArc
 50
199.0627777130884
 51
220.9372222869107
  0
ARC
  5
82C7
330
1A
100
AcDbEntity
  8
1
100
AcDbCircle
 10
139.2442001977933
 20
296.0986109089935
 30
0.0
 40
0.5
100
AcDbArc
 50
220.9372222868966
 51
287.9261447635041
  0
ARC
  5
82C8
330
1A
100
AcDbEntity
  8
1
100
AcDbCircle
 10
136.8725335233593
 20
300.2064580877298
 30
0.0
 40
0.5
100
AcDbArc
 50
132.0738552365245
 51
199.062777713074
  0
ARC
  5
82C9
330
1A
100
AcDbEntity
  8
1
100
AcDbCircle
 10
140.9370496523934
 20
290.8656136106891
 30
0.0
 40
5.0
100
AcDbArc
 50
12.07385523646014
 51
107.9261447635587
  0
ARC
  5
82CA
330
1A
100
AcDbEntity
  8
1
100
AcDbCircle
 10
160.5015657814256
 20
300.2064580877306
 30
0.0
 40
0.5
100
AcDbArc
 50
340.9372222868972
 51
47.92614476353056
  0
ARC
  5
82CB
330
1A
100
AcDbEntity
  8
1
100
AcDbCircle
 10
158.1298991069925
 20
296.0986109089932
 30
0.0
 40
0.5
100
AcDbArc
 50
252.0738552364959
 51
319.0627777130434
  0
ARC
  5
82CC
330
1A
100
AcDbEntity
  8
1
100
AcDbCircle
 10
151.0587163268274
 20
292.0160616273755
 30
0.0
 40
0.5
100
AcDbArc
 50
280.9372222869285
 51
347.9261447635131
  0
ARC
  5
82CD
330
1A
100
AcDbEntity
  8
1
100
AcDbCircle
 10
156.4370496523934
 20
290.8656136106882
 30
0.0
 40
5.0
100
AcDbArc
 50
72.0738552364957
 51
167.9261447635398
  0
ARC
  5
82CE
330
1A
100
AcDbEntity
  8
1
100
AcDbCircle
 10
148.6870496523925
 20
304.2890073693467
 30
0.0
 40
13.0
100
AcDbArc
 50
319.0627777130893
 51
340.9372222869261
  0
LINE
  5
82CF
330
1A
100
AcDbEntity
  8
0
100
AcDbLine
 10
140.3804257894749
 20
314.2890051199523
 30
0.0
 11
112.0870496523926
 21
314.2890051199529
 31
0.0
  0
LINE
  5
82D4
330
1A
100
AcDbEntity
  8
0
100
AcDbLine
 10
113.687049652392
 20
361.1780482178269
 30
0.0
 11
113.6870496523925
 21
314.2890051199523
 31
0.0
  0
LINE
  5
82D7
330
1A
100
AcDbEntity
  8
0
100
AcDbLine
 10
111.6203001346234
 20
308.989005119953
 30
0.0
 11
112.087049652393
 21
308.989005119953
 31
0.0
  0
LINE
  5
82D8
330
1A
100
AcDbEntity
  8
0
100
AcDbLine
 10
113.6870496523929
 20
316.2890051199537
 30
0.0
 11
105.6870496523925
 21
316.2191901776276
 31
0.0
  0
LINE
  5
82D9
330
1A
100
AcDbEntity
  8
0
100
AcDbLine
 10
113.6870496523929
 20
314.7890051199537
 30
0.0
 11
105.6870496523925
 21
314.8588200622793
 31
0.0
  0
ARC
  5
82DA
330
1A
100
AcDbEntity
  8
0
100
AcDbCircle
 10
115.687049652392
 20
361.1780482178269
 30
0.0
 40
2.0
100
AcDbArc
 50
90.49999999999156
 51
180.0
  0
ARC
  5
82DD
330
1A
100
AcDbEntity
  8
1
100
AcDbCircle
 10
148.6870496523925
 20
304.2890073693467
 30
0.0
 40
13.0
100
AcDbArc
 50
79.06277771307142
 51
100.9372222869286
  0
ARC
  5
82DE
330
1A
100
AcDbEntity
  8
1
100
AcDbCircle
 10
148.6870542479391
 20
304.2890051199528
 30
0.0
 40
13.0
100
AcDbArc
 50
21.63312546605116
 51
156.3044424268247
  0
ARC
  5
82E0
330
1A
100
AcDbEntity
  8
1
100
AcDbCircle
 10
146.3153829779603
 20
316.5619531113188
 30
0.0
 40
0.5
100
AcDbArc
 50
100.9372222869286
 51
167.9261447635667
  0
ARC
  5
82E1
330
1A
100
AcDbEntity
  8
1
100
AcDbCircle
 10
148.6870496523925
 20
304.2890073693467
 30
0.0
 40
13.0
100
AcDbArc
 50
139.0627777130893
 51
160.9372222869116
  0
ARC
  5
82E2
330
1A
100
AcDbEntity
  8
1
100
AcDbCircle
 10
136.8725335233603
 20
308.3715566509655
 30
0.0
 40
0.5
100
AcDbArc
 50
160.9372222869116
 51
227.9261447635306
  0
ARC
  5
82E3
330
1A
100
AcDbEntity
  8
1
100
AcDbCircle
 10
139.2442001977942
 20
312.4794038297015
 30
0.0
 40
0.5
100
AcDbArc
 50
72.0738552364957
 51
139.0627777130434
  0
ARC
  5
82E4
330
1A
100
AcDbEntity
  8
1
100
AcDbCircle
 10
140.9370496523934
 20
317.7124011280058
 30
0.0
 40
5.0
100
AcDbArc
 50
252.0738552364959
 51
347.9261447635273
  0
ARC
  5
82E6
330
1A
100
AcDbEntity
  8
1
100
AcDbCircle
 10
160.5015657814256
 20
308.3715566509642
 30
0.0
 40
0.5
100
AcDbArc
 50
312.0738552365245
 51
19.06277771307397
  0
ARC
  5
82E7
330
1A
100
AcDbEntity
  8
1
100
AcDbCircle
 10
151.0587163268274
 20
316.5619531113183
 30
0.0
 40
0.5
100
AcDbArc
 50
12.07385523647287
 51
79.06277771307142
  0
ARC
  5
82E8
330
1A
100
AcDbEntity
  8
1
100
AcDbCircle
 10
158.1298991069916
 20
312.4794038297013
 30
0.0
 40
0.5
100
AcDbArc
 50
40.93722228694756
 51
107.926144763504
  0
ARC
  5
82E9
330
1A
100
AcDbEntity
  8
1
100
AcDbCircle
 10
156.4370496523934
 20
317.7124011280067
 30
0.0
 40
5.0
100
AcDbArc
 50
192.0738552364869
 51
287.9261447635041
  0
ARC
  5
82EA
330
1A
100
AcDbEntity
  8
1
100
AcDbCircle
 10
148.6870496523925
 20
304.2890073693467
 30
0.0
 40
13.0
100
AcDbArc
 50
19.0627777130884
 51
40.93722228691063
  0
LINE
  5
82EB
330
1A
100
AcDbEntity
  8
1
100
AcDbLine
 10
273.031506652718
 20
297.8781671101486
 30
0.0
 11
273.0315066527144
 21
310.6998431297519
 31
0.0
  0
LINE
  5
82EC
330
1A
100
AcDbEntity
  8
1
100
AcDbLine
 10
269.531506652718
 20
292.2890051199505
 30
0.0
 11
269.5315066527144
 21
316.2890051199501
 31
0.0
  0
ARC
  5
82ED
330
1A
100
AcDbEntity
  8
1
100
AcDbCircle
 10
359.5315066527135
 20
304.28900511995
 30
0.0
 40
100.0
100
AcDbArc
 50
173.2622404725884
 51
186.7377595274115
  0
LINE
  5
82EE
330
1A
100
AcDbEntity
  8
0
100
AcDbLine
 10
200.6870496523925
 20
363.6049592972761
 30
0.0
 11
200.6870496523925
 21
272.9730509426271
 31
0.0
  0
LINE
  5
82EF
330
1A
100
AcDbEntity
  8
0
100
AcDbLine
 10
278.7315066527128
 20
361.2890051199514
 30
0.0
 11
278.7315066527128
 21
275.2890051199514
 31
0.0
  0
LINE
  5
82F0
330
1A
100
AcDbEntity
  8
0
100
AcDbLine
 10
282.2315066527128
 20
360.7890051199514
 30
0.0
 11
282.2315066527128
 21
292.7890051199513
 31
0.0
  0
LINE
  5
82F1
330
1A
100
AcDbEntity
  8
0
100
AcDbLine
 10
279.517623341959
 20
360.5028884307061
 30
0.0
 11
279.517623341959
 21
276.0751218091976
 31
0.0
  0
LINE
  5
82F2
330
1A
100
AcDbEntity
  8
0
100
AcDbLine
 10
276.7315066527124
 20
298.2890051199505
 30
0.0
 11
276.7315066527124
 21
310.2890051199502
 31
0.0
  0
LINE
  5
82F3
330
1A
100
AcDbEntity
  8
0
100
AcDbLine
 10
276.7315066527124
 20
310.2890051199496
 30
0.0
 11
276.7315066527124
 21
298.28900511995
 31
0.0
  0
LINE
  5
8303
330
1A
100
AcDbEntity
  8
0
100
AcDbLine
 10
297.2315066527114
 20
348.2890051199514
 30
0.0
 11
297.2315066527114
 21
303.2890051199514
 31
0.0
  0
LINE
  5
8304
330
1A
100
AcDbEntity
  8
0
100
AcDbLine
 10
185.6870496523925
 20
270.2890051199523
 30
0.0
 11
185.6870496523925
 21
366.2890051199523
 31
0.0
  0
LINE
  5
8305
330
1A
100
AcDbEntity
  8
0
100
AcDbLine
 10
185.1870496523943
 20
296.2890051199528
 30
0.0
 11
185.1870496523938
 21
312.2890051199529
 31
0.0
  0
ARC
  5
8306
330
1A
100
AcDbEntity
  8
1
100
AcDbCircle
 10
268.5315066527153
 20
292.28900511995
 30
0.0
 40
1.0
100
AcDbArc
 50
270.0
 51
0.0
  0
ARC
  5
8307
330
1A
100
AcDbEntity
  8
1
100
AcDbCircle
 10
268.5315066527189
 20
292.5251415482993
 30
0.0
 40
1.0
100
AcDbArc
 50
270.0
 51
0.0
  0
ARC
  5
8308
330
1A
100
AcDbEntity
  8
1
100
AcDbCircle
 10
268.5315066527135
 20
296.6228816324773
 30
0.0
 40
1.0
100
AcDbArc
 50
270.0
 51
0.0
  0
ARC
  5
8309
330
1A
100
AcDbEntity
  8
1
100
AcDbCircle
 10
268.5315066527153
 20
299.0417815210698
 30
0.0
 40
1.0
100
AcDbArc
 50
0.0
 51
86.99999999999439
  0
ARC
  5
830E
330
1A
100
AcDbEntity
  8
1
100
AcDbCircle
 10
183.6870542479391
 20
251.1265803461553
 30
0.0
 40
5.0
100
AcDbArc
 50
0.0
 51
26.17582993296903
  0
LINE
  5
830F
330
1A
100
AcDbEntity
  8
0
100
AcDbLine
 10
198.7917215648781
 20
270.9757918731178
 30
0.0
 11
185.6870496523925
 21
270.2890051199523
 31
0.0
  0
ARC
  5
8314
330
1A
100
AcDbEntity
  8
0
100
AcDbCircle
 10
198.6870496523925
 20
272.9730509426271
 30
0.0
 40
2.0
100
AcDbArc
 50
273.0000000000056
 51
0.0
  0
ARC
  5
831B
330
1A
100
AcDbEntity
  8
0
100
AcDbCircle
 10
183.1870496523943
 20
296.2890051199528
 30
0.0
 40
2.0
100
AcDbArc
 50
270.0
 51
0.0
  0
LINE
  5
831C
330
1A
100
AcDbEntity
  8
1
100
AcDbLine
 10
268.5315066527153
 20
291.2890051199496
 30
0.0
 11
261.1629097833918
 21
291.6751769183028
 31
0.0
  0
ARC
  5
831D
330
1A
100
AcDbEntity
  8
1
100
AcDbCircle
 10
261.2152457396339
 20
292.6738064530572
 30
0.0
 40
1.0
100
AcDbArc
 50
186.7377595274252
 51
266.9999999999944
  0
ARC
  5
831E
330
1A
100
AcDbEntity
  8
1
100
AcDbCircle
 10
260.6496023984998
 20
299.4548546195537
 30
0.0
 40
1.0
100
AcDbArc
 50
86.99999999999439
 51
182.7988546219826
  0
ARC
  5
831F
330
1A
100
AcDbEntity
  8
1
100
AcDbCircle
 10
260.798025551843
 20
297.0295485490987
 30
0.0
 40
1.0
100
AcDbArc
 50
184.2051502440891
 51
267.0000000000466
  0
ARC
  5
8320
330
1A
100
AcDbEntity
  8
1
100
AcDbCircle
 10
261.1874673221707
 20
292.9113986865786
 30
0.0
 40
1.0
100
AcDbArc
 50
186.5993174973145
 51
267.0000000000466
  0
LINE
  5
8321
330
1A
100
AcDbEntity
  8
1
100
AcDbLine
 10
268.5315066527198
 20
291.5251415482998
 30
0.0
 11
261.1351313659286
 21
291.9127691518237
 31
0.0
  0
LINE
  5
8322
330
1A
100
AcDbEntity
  8
1
100
AcDbLine
 10
268.5315066527144
 20
295.6228816324773
 30
0.0
 11
260.7456895956009
 21
296.0309190143442
 31
0.0
  0
LINE
  5
8323
330
1A
100
AcDbEntity
  8
1
100
AcDbLine
 10
268.5838426089583
 20
300.0404110558242
 30
0.0
 11
260.7019383547429
 21
300.4534841543085
 31
0.0
  0
LINE
  5
8324
330
1A
100
AcDbEntity
  8
0
100
AcDbLine
 10
282.2315066527128
 20
286.7890051199514
 30
0.0
 11
282.2315066527128
 21
275.789005119951
 31
0.0
  0
ARC
  5
832A
330
1A
100
AcDbEntity
  8
0
100
AcDbCircle
 10
284.2315066527128
 20
275.789005119951
 30
0.0
 40
2.0
100
AcDbArc
 50
180.0
 51
270.0
  0
ARC
  5
832B
330
1A
100
AcDbEntity
  8
0
100
AcDbCircle
 10
284.5176233419591
 20
276.0751218091976
 30
0.0
 40
5.0
100
AcDbArc
 50
180.0
 51
270.0
  0
ARC
  5
832D
330
1A
100
AcDbEntity
  8
0
100
AcDbCircle
 10
283.7315066527128
 20
275.2890051199514
 30
0.0
 40
5.0
100
AcDbArc
 50
180.0
 51
270.0
  0
ARC
  5
8332
330
1A
100
AcDbEntity
  8
0
100
AcDbCircle
 10
284.2315066527128
 20
292.7890051199513
 30
0.0
 40
2.0
100
AcDbArc
 50
180.0
 51
270.0
  0
ARC
  5
8334
330
1A
100
AcDbEntity
  8
0
100
AcDbCircle
 10
284.2315066527128
 20
286.7890051199514
 30
0.0
 40
2.0
100
AcDbArc
 50
90.0
 51
180.0
  0
LINE
  5
8337
330
1A
100
AcDbEntity
  8
1
100
AcDbLine
 10
269.5315066527153
 20
296.8563118622859
 30
0.0
 11
272.0402331882167
 21
296.8782051870848
 31
0.0
  0
ARC
  5
8338
330
1A
100
AcDbEntity
  8
1
100
AcDbCircle
 10
272.0315066527162
 20
297.8781671101486
 30
0.0
 40
1.0
100
AcDbArc
 50
270.5000000000175
 51
0.0000000000130276
  0
LINE
  5
8339
330
1A
100
AcDbEntity
  8
1
100
AcDbLine
 10
274.6315066527118
 20
298.0390051199502
 30
0.0
 11
273.0315066527121
 21
298.0390051199502
 31
0.0
  0
ARC
  5
833A
330
1A
100
AcDbEntity
  8
0
100
AcDbCircle
 10
278.3315066527137
 20
298.28900511995
 30
0.0
 40
1.6
100
AcDbArc
 50
180.0
 51
225.6210880948734
  0
LINE
  5
833B
330
1A
100
AcDbEntity
  8
0
100
AcDbLine
 10
278.7315066527128
 20
295.6589773555601
 30
0.0
 11
277.2124661300243
 21
297.1454368847411
 31
0.0
  0
ARC
  5
833C
330
1A
100
AcDbEntity
  8
0
100
AcDbCircle
 10
298.2315066527115
 20
303.2890051199514
 30
0.0
 40
1.0
100
AcDbArc
 50
180.0
 51
270.0
  0
ARC
  5
8356
330
1A
100
AcDbEntity
  8
1
100
AcDbCircle
 10
268.5315066527144
 20
316.2890051199501
 30
0.0
 40
1.0
100
AcDbArc
 50
0.0
 51
90.0
  0
ARC
  5
8357
330
1A
100
AcDbEntity
  8
1
100
AcDbCircle
 10
268.5315066527189
 20
316.0528686916003
 30
0.0
 40
1.0
100
AcDbArc
 50
0.0
 51
90.0
  0
ARC
  5
8358
330
1A
100
AcDbEntity
  8
1
100
AcDbCircle
 10
268.5315066527135
 20
311.9551286074223
 30
0.0
 40
1.0
100
AcDbArc
 50
0.0
 51
90.0
  0
ARC
  5
8359
330
1A
100
AcDbEntity
  8
1
100
AcDbCircle
 10
268.5315066527153
 20
309.5362287188299
 30
0.0
 40
1.0
100
AcDbArc
 50
273.0000000000056
 51
0.0
  0
ARC
  5
835A
330
1A
100
AcDbEntity
  8
0
100
AcDbCircle
 10
183.1870496523938
 20
312.2890051199529
 30
0.0
 40
2.0
100
AcDbArc
 50
0.0
 51
90.0
  0
ARC
  5
835B
330
1A
100
AcDbEntity
  8
1
100
AcDbCircle
 10
261.2152457396339
 20
315.904203786842
 30
0.0
 40
1.0
100
AcDbArc
 50
93.00000000000556
 51
173.2622404725884
  0
ARC
  5
835C
330
1A
100
AcDbEntity
  8
1
100
AcDbCircle
 10
260.6496023984998
 20
309.1231556203455
 30
0.0
 40
1.0
100
AcDbArc
 50
177.2011453780173
 51
273.0000000000056
  0
ARC
  5
835D
330
1A
100
AcDbEntity
  8
1
100
AcDbCircle
 10
260.798025551843
 20
311.5484616908005
 30
0.0
 40
1.0
100
AcDbArc
 50
92.99999999995341
 51
175.7948497559109
  0
ARC
  5
835E
330
1A
100
AcDbEntity
  8
1
100
AcDbCircle
 10
261.1874673221707
 20
315.6666115533211
 30
0.0
 40
1.0
100
AcDbArc
 50
92.99999999995341
 51
173.4006825026854
  0
LINE
  5
835F
330
1A
100
AcDbEntity
  8
1
100
AcDbLine
 10
268.5315066527153
 20
317.28900511995
 30
0.0
 11
261.162909783391
 21
316.9028333215973
 31
0.0
  0
LINE
  5
8360
330
1A
100
AcDbEntity
  8
1
100
AcDbLine
 10
268.5315066527198
 20
317.0528686915999
 30
0.0
 11
261.1351313659286
 21
316.6652410880755
 31
0.0
  0
LINE
  5
8361
330
1A
100
AcDbEntity
  8
1
100
AcDbLine
 10
268.5315066527144
 20
312.9551286074224
 30
0.0
 11
260.7456895956009
 21
312.5470912255554
 31
0.0
  0
LINE
  5
8362
330
1A
100
AcDbEntity
  8
1
100
AcDbLine
 10
268.5838426089583
 20
308.5375991840755
 30
0.0
 11
260.7019383547429
 21
308.1245260855911
 31
0.0
  0
LINE
  5
8363
330
1A
100
AcDbEntity
  8
0
100
AcDbLine
 10
198.7917215648781
 20
365.6022183667859
 30
0.0
 11
185.6870496523925
 21
366.2890051199523
 31
0.0
  0
ARC
  5
8372
330
1A
100
AcDbEntity
  8
0
100
AcDbCircle
 10
198.6870496523925
 20
363.6049592972761
 30
0.0
 40
2.0
100
AcDbArc
 50
0.0
 51
86.99999999999439
  0
LINE
  5
8380
330
1A
100
AcDbEntity
  8
1
100
AcDbLine
 10
274.631506652712
 20
317.28900511995
 30
0.0
 11
276.2315066527124
 21
317.28900511995
 31
0.0
  0
LINE
  5
8381
330
1A
100
AcDbEntity
  8
1
100
AcDbLine
 10
269.5315066527153
 20
311.7216983776142
 30
0.0
 11
272.0402331882139
 21
311.6998050528158
 31
0.0
  0
ARC
  5
8382
330
1A
100
AcDbEntity
  8
1
100
AcDbCircle
 10
272.0315066527144
 20
310.6998431297514
 30
0.0
 40
1.0
100
AcDbArc
 50
0.0000000000130276
 51
89.49999999998238
  0
LINE
  5
8383
330
1A
100
AcDbEntity
  8
1
100
AcDbLine
 10
274.631506652712
 20
310.53900511995
 30
0.0
 11
273.0315066527121
 21
310.53900511995
 31
0.0
  0
ARC
  5
8384
330
1A
100
AcDbEntity
  8
0
100
AcDbCircle
 10
278.3315066527137
 20
310.2890051199502
 30
0.0
 40
1.6
100
AcDbArc
 50
134.3789119051266
 51
180.0
  0
LINE
  5
8385
330
1A
100
AcDbEntity
  8
0
100
AcDbLine
 10
278.7315066527128
 20
312.91903288434
 30
0.0
 11
277.2124661300243
 21
311.4325733551595
 31
0.0
  0
ARC
  5
83DE
330
1A
100
AcDbEntity
  8
0
100
AcDbCircle
 10
298.2315066527115
 20
348.2890051199514
 30
0.0
 40
1.0
100
AcDbArc
 50
90.0
 51
180.0
  0
ARC
  5
83DF
330
1A
100
AcDbEntity
  8
0
100
AcDbCircle
 10
284.2315066527128
 20
360.7890051199514
 30
0.0
 40
2.0
100
AcDbArc
 50
90.0
 51
180.0
  0
ARC
  5
83E0
330
1A
100
AcDbEntity
  8
0
100
AcDbCircle
 10
284.5176233419591
 20
360.5028884307061
 30
0.0
 40
5.0
100
AcDbArc
 50
90.0
 51
180.0
  0
ARC
  5
83E2
330
1A
100
AcDbEntity
  8
0
100
AcDbCircle
 10
283.7315066527128
 20
361.2890051199514
 30
0.0
 40
5.0
100
AcDbArc
 50
90.0
 51
180.0
  0
LINE
  5
83FD
330
1A
100
AcDbEntity
  8
1
100
AcDbLine
 10
538.3183826333659
 20
237.2890028705552
 30
0.0
 11
538.3183826333659
 21
251.1277627034241
 31
0.0
  0
LINE
  5
83FE
330
1A
100
AcDbEntity
  8
1
100
AcDbLine
 10
474.8315066527127
 20
317.28900511995
 30
0.0
 11
474.8315066527127
 21
238.8890051199496
 31
0.0
  0
LINE
  5
83FF
330
1A
100
AcDbEntity
  8
1
100
AcDbLine
 10
473.2315066527124
 20
317.28900511995
 30
0.0
 11
473.2315066527124
 21
238.8890051199496
 31
0.0
  0
ARC
  5
8400
330
1A
100
AcDbEntity
  8
1
100
AcDbCircle
 10
453.731506652716
 20
144.2886865117669
 30
0.0
 40
3.0
100
AcDbArc
 50
90.0
 51
270.0
  0
ARC
  5
8401
330
1A
100
AcDbEntity
  8
1
100
AcDbCircle
 10
453.731506652716
 20
96.28868651176695
 30
0.0
 40
3.0
100
AcDbArc
 50
90.0
 51
270.0
  0
CIRCLE
  5
8406
330
1A
100
AcDbEntity
  8
1
100
AcDbCircle
 10
339.731506652716
 20
120.2886865117669
 30
0.0
 40
2.5
  0
CIRCLE
  5
840A
330
1A
100
AcDbEntity
  8
1
100
AcDbCircle
 10
409.7315066527158
 20
120.2886865117669
 30
0.0
 40
2.5
  0
ARC
  5
841B
330
1A
100
AcDbEntity
  8
1
100
AcDbCircle
 10
459.7315066527158
 20
144.2886865117669
 30
0.0
 40
3.0
100
AcDbArc
 50
270.0
 51
90.0
  0
LINE
  5
841D
330
1A
100
AcDbEntity
  8
1
100
AcDbLine
 10
476.4315066527148
 20
113.8778485019658
 30
0.0
 11
476.4315066527185
 21
126.6995245215688
 31
0.0
  0
LINE
  5
841E
330
1A
100
AcDbEntity
  8
1
100
AcDbLine
 10
479.9315066527149
 20
108.2886865117674
 30
0.0
 11
479.9315066527183
 21
132.2886865117669
 31
0.0
  0
ARC
  5
841F
330
1A
100
AcDbEntity
  8
1
100
AcDbCircle
 10
389.9315066527194
 20
120.2886865117672
 30
0.0
 40
100.0
100
AcDbArc
 50
353.2622404725885
 51
6.737759527411561
  0
ARC
  5
8420
330
1A
100
AcDbEntity
  8
1
100
AcDbCircle
 10
480.9315066527175
 20
115.0414629128867
 30
0.0
 40
1.0
100
AcDbArc
 50
93.00000000000556
 51
180.0
  0
LINE
  5
8421
330
1A
100
AcDbEntity
  8
1
100
AcDbLine
 10
480.9315066527175
 20
107.2886865117665
 30
0.0
 11
488.3001035220409
 21
107.6748583101199
 31
0.0
  0
LINE
  5
8422
330
1A
100
AcDbEntity
  8
1
100
AcDbLine
 10
480.9315066527131
 20
107.5248229401166
 30
0.0
 11
488.3278819395043
 21
107.9124505436408
 31
0.0
  0
LINE
  5
8423
330
1A
100
AcDbEntity
  8
1
100
AcDbLine
 10
480.9315066527185
 20
111.6225630242944
 30
0.0
 11
488.717323709832
 21
112.0306004061611
 31
0.0
  0
ARC
  5
8424
330
1A
100
AcDbEntity
  8
1
100
AcDbCircle
 10
459.7315066527158
 20
96.28868651176695
 30
0.0
 40
3.0
100
AcDbArc
 50
270.0
 51
90.0
  0
LINE
  5
8426
330
1A
100
AcDbEntity
  8
1
100
AcDbLine
 10
459.7315066527158
 20
93.28868651176696
 30
0.0
 11
453.731506652716
 21
93.28868651176696
 31
0.0
  0
LINE
  5
8427
330
1A
100
AcDbEntity
  8
1
100
AcDbLine
 10
459.7315066527158
 20
99.28868651176696
 30
0.0
 11
453.731506652716
 21
99.28868651176696
 31
0.0
  0
ARC
  5
8428
330
1A
100
AcDbEntity
  8
1
100
AcDbCircle
 10
480.9315066527175
 20
108.2886865117672
 30
0.0
 40
1.0
100
AcDbArc
 50
180.0
 51
270.0
  0
ARC
  5
8429
330
1A
100
AcDbEntity
  8
1
100
AcDbCircle
 10
480.931506652714
 20
108.5248229401164
 30
0.0
 40
1.0
100
AcDbArc
 50
180.0
 51
270.0
  0
ARC
  5
842A
330
1A
100
AcDbEntity
  8
1
100
AcDbCircle
 10
480.9315066527195
 20
112.6225630242942
 30
0.0
 40
1.0
100
AcDbArc
 50
180.0
 51
270.0
  0
ARC
  5
842B
330
1A
100
AcDbEntity
  8
1
100
AcDbCircle
 10
477.4315066527166
 20
113.8778485019655
 30
0.0
 40
1.0
100
AcDbArc
 50
179.999999999987
 51
269.4999999999824
  0
LINE
  5
842C
330
1A
100
AcDbEntity
  8
1
100
AcDbLine
 10
474.8315066527161
 20
114.0386865117669
 30
0.0
 11
476.4315066527156
 21
114.0386865117669
 31
0.0
  0
LINE
  5
842D
330
1A
100
AcDbEntity
  8
1
100
AcDbLine
 10
479.9315066527175
 20
112.855993254103
 30
0.0
 11
477.4227801172162
 21
112.8778865789016
 31
0.0
  0
ARC
  5
842E
330
1A
100
AcDbEntity
  8
1
100
AcDbCircle
 10
488.2477675657987
 20
108.6734878448743
 30
0.0
 40
1.0
100
AcDbArc
 50
273.0000000000056
 51
353.2622404725747
  0
ARC
  5
842F
330
1A
100
AcDbEntity
  8
1
100
AcDbCircle
 10
488.6649877535898
 20
113.0292299409158
 30
0.0
 40
1.0
100
AcDbArc
 50
272.9999999999535
 51
355.7948497559108
  0
ARC
  5
8430
330
1A
100
AcDbEntity
  8
1
100
AcDbCircle
 10
488.2755459832622
 20
108.9110800783954
 30
0.0
 40
1.0
100
AcDbArc
 50
272.9999999999535
 51
353.4006825026854
  0
LINE
  5
8431
330
1A
100
AcDbEntity
  8
1
100
AcDbLine
 10
480.9315066527175
 20
133.2886865117669
 30
0.0
 11
488.3001035220418
 21
132.9025147134142
 31
0.0
  0
LINE
  5
8432
330
1A
100
AcDbEntity
  8
1
100
AcDbLine
 10
480.9315066527131
 20
133.052550083417
 30
0.0
 11
488.3278819395043
 21
132.6649224798926
 31
0.0
  0
LINE
  5
8433
330
1A
100
AcDbEntity
  8
1
100
AcDbLine
 10
480.9315066527185
 20
128.9548099992392
 30
0.0
 11
488.717323709832
 21
128.5467726173723
 31
0.0
  0
LINE
  5
8434
330
1A
100
AcDbEntity
  8
1
100
AcDbLine
 10
480.8791706964746
 20
124.5372805758926
 30
0.0
 11
488.7610749506898
 21
124.124207477408
 31
0.0
  0
LINE
  5
8435
330
1A
100
AcDbEntity
  8
1
100
AcDbLine
 10
480.8791706964746
 20
116.0400924476411
 30
0.0
 11
488.7610749506898
 21
116.4531655461254
 31
0.0
  0
ARC
  5
8436
330
1A
100
AcDbEntity
  8
1
100
AcDbCircle
 10
480.9315066527195
 20
127.9548099992395
 30
0.0
 40
1.0
100
AcDbArc
 50
90.0
 51
180.0
  0
ARC
  5
8437
330
1A
100
AcDbEntity
  8
1
100
AcDbCircle
 10
480.9315066527175
 20
125.535910110647
 30
0.0
 40
1.0
100
AcDbArc
 50
180.0
 51
266.9999999999944
  0
ARC
  5
8438
330
1A
100
AcDbEntity
  8
1
100
AcDbCircle
 10
477.4315066527186
 20
126.6995245215686
 30
0.0
 40
1.0
100
AcDbArc
 50
90.50000000001757
 51
179.999999999987
  0
LINE
  5
8439
330
1A
100
AcDbEntity
  8
1
100
AcDbLine
 10
474.8315066527156
 20
126.5386865117669
 30
0.0
 11
476.4315066527156
 21
126.5386865117669
 31
0.0
  0
LINE
  5
843A
330
1A
100
AcDbEntity
  8
1
100
AcDbLine
 10
479.9315066527175
 20
127.7213797694311
 30
0.0
 11
477.4227801172187
 21
127.6994864446327
 31
0.0
  0
LINE
  5
843B
330
1A
100
AcDbEntity
  8
1
100
AcDbLine
 10
459.7315066527158
 20
141.288686511767
 30
0.0
 11
453.731506652716
 21
141.288686511767
 31
0.0
  0
ARC
  5
843C
330
1A
100
AcDbEntity
  8
1
100
AcDbCircle
 10
480.9315066527185
 20
132.2886865117672
 30
0.0
 40
1.0
100
AcDbArc
 50
90.0
 51
180.0
  0
ARC
  5
843D
330
1A
100
AcDbEntity
  8
1
100
AcDbCircle
 10
480.931506652714
 20
132.0525500834172
 30
0.0
 40
1.0
100
AcDbArc
 50
90.0
 51
180.0
  0
ARC
  5
843E
330
1A
100
AcDbEntity
  8
1
100
AcDbCircle
 10
488.8134109069331
 20
125.1228370121626
 30
0.0
 40
1.0
100
AcDbArc
 50
266.9999999999944
 51
2.798854621982655
  0
ARC
  5
843F
330
1A
100
AcDbEntity
  8
1
100
AcDbCircle
 10
488.6649877535898
 20
127.5481430826177
 30
0.0
 40
1.0
100
AcDbArc
 50
4.205150244089001
 51
87.00000000004658
  0
ARC
  5
8440
330
1A
100
AcDbEntity
  8
1
100
AcDbCircle
 10
488.8134109069331
 20
115.4545360113708
 30
0.0
 40
1.0
100
AcDbArc
 50
357.2011453780174
 51
93.00000000000556
  0
ARC
  5
8441
330
1A
100
AcDbEntity
  8
1
100
AcDbCircle
 10
488.2477675657987
 20
131.9038851786591
 30
0.0
 40
1.0
100
AcDbArc
 50
6.737759527411561
 51
86.99999999999439
  0
ARC
  5
8442
330
1A
100
AcDbEntity
  8
1
100
AcDbCircle
 10
488.2755459832622
 20
131.666292945138
 30
0.0
 40
1.0
100
AcDbArc
 50
6.599317497314594
 51
87.00000000004658
  0
CIRCLE
  5
8444
330
1A
100
AcDbEntity
  8
1
100
AcDbCircle
 10
466.231506652716
 20
153.2886865117669
 30
0.0
 40
5.0
  0
LINE
  5
8445
330
1A
100
AcDbEntity
  8
1
100
AcDbLine
 10
459.7315066527158
 20
147.2886865117669
 30
0.0
 11
453.731506652716
 21
147.2886865117669
 31
0.0
  0
LINE
  5
8447
330
1A
100
AcDbEntity
  8
1
100
AcDbLine
 10
464.7315066527124
 20
241.8890051199497
 30
0.0
 11
467.7315066527123
 21
241.8890051199497
 31
0.0
  0
LINE
  5
8448
330
1A
100
AcDbEntity
  8
1
100
AcDbLine
 10
463.2315066527123
 20
238.8890051199496
 30
0.0
 11
469.2315066527124
 21
238.8890051199497
 31
0.0
  0
LINE
  5
8449
330
1A
100
AcDbEntity
  8
1
100
AcDbLine
 10
461.2315066527123
 20
237.2890051199496
 30
0.0
 11
471.2315066527123
 21
237.2890051199496
 31
0.0
  0
LINE
  5
844A
330
1A
100
AcDbEntity
  8
1
100
AcDbLine
 10
464.2315066527124
 20
234.2890051199496
 30
0.0
 11
468.2315066527123
 21
234.2890051199496
 31
0.0
  0
LINE
  5
844B
330
1A
100
AcDbEntity
  8
1
100
AcDbLine
 10
463.2315066527123
 20
238.8890051199497
 30
0.0
 11
464.7315066527124
 21
241.8890051199497
 31
0.0
  0
ARC
  5
844C
330
1A
100
AcDbEntity
  8
1
100
AcDbCircle
 10
464.2315066527124
 20
237.2890051199496
 30
0.0
 40
3.0
100
AcDbArc
 50
180.0
 51
270.0
  0
LINE
  5
844D
330
1A
100
AcDbEntity
  8
1
100
AcDbLine
 10
469.2315066527124
 20
238.8890051199497
 30
0.0
 11
467.7315066527123
 21
241.8890051199497
 31
0.0
  0
ARC
  5
844E
330
1A
100
AcDbEntity
  8
1
100
AcDbCircle
 10
473.2315066527124
 20
238.8890051199496
 30
0.0
 40
1.6
100
AcDbArc
 50
270.0
 51
0.0
  0
ARC
  5
844F
330
1A
100
AcDbEntity
  8
1
100
AcDbCircle
 10
468.2315066527123
 20
237.2890051199496
 30
0.0
 40
3.0
100
AcDbArc
 50
270.0
 51
0.0
  0
ARC
  5
8450
330
1A
100
AcDbEntity
  8
1
100
AcDbCircle
 10
543.3183826333658
 20
237.2890028705552
 30
0.0
 40
3.0
100
AcDbArc
 50
180.0
 51
270.0
  0
LINE
  5
8451
330
1A
100
AcDbEntity
  8
1
100
AcDbLine
 10
540.3183826333656
 20
237.2890028705552
 30
0.0
 11
550.3183826333659
 21
237.2890028705552
 31
0.0
  0
LINE
  5
8452
330
1A
100
AcDbEntity
  8
1
100
AcDbLine
 10
543.3183826333658
 20
234.2890028705552
 30
0.0
 11
547.3183826333658
 21
234.2890028705552
 31
0.0
  0
ARC
  5
8453
330
1A
100
AcDbEntity
  8
1
100
AcDbCircle
 10
547.3183826333658
 20
237.2890028705552
 30
0.0
 40
3.0
100
AcDbArc
 50
270.0
 51
0.0
  0
LINE
  5
845E
330
1A
100
AcDbEntity
  8
0
100
AcDbLine
 10
423.2315066527126
 20
288.7890051199514
 30
0.0
 11
470.7315066527128
 21
288.7890051199514
 31
0.0
  0
LINE
  5
8461
330
1A
100
AcDbEntity
  8
0
100
AcDbLine
 10
446.2315066527128
 20
349.2890051199514
 30
0.0
 11
461.2315066527127
 21
349.2890051199519
 31
0.0
  0
LINE
  5
8462
330
1A
100
AcDbEntity
  8
0
100
AcDbLine
 10
446.2315066527128
 20
334.2890051199514
 30
0.0
 11
461.2315066527131
 21
334.2890051199518
 31
0.0
  0
LINE
  5
8463
330
1A
100
AcDbEntity
  8
0
100
AcDbLine
 10
446.2315066527128
 20
333.2890051199513
 30
0.0
 11
461.2315066527127
 21
333.2890051199519
 31
0.0
  0
LINE
  5
8464
330
1A
100
AcDbEntity
  8
0
100
AcDbLine
 10
446.2315066527128
 20
318.2890051199513
 30
0.0
 11
461.2315066527131
 21
318.2890051199519
 31
0.0
  0
LINE
  5
8465
330
1A
100
AcDbEntity
  8
0
100
AcDbLine
 10
446.2315066527128
 20
317.2890051199514
 30
0.0
 11
461.2315066527127
 21
317.2890051199519
 31
0.0
  0
LINE
  5
8466
330
1A
100
AcDbEntity
  8
0
100
AcDbLine
 10
446.2315066527128
 20
302.2890051199514
 30
0.0
 11
461.2315066527131
 21
302.2890051199519
 31
0.0
  0
LINE
  5
8469
330
1A
100
AcDbEntity
  8
0
100
AcDbLine
 10
444.2315066527127
 20
316.2890051199519
 30
0.0
 11
444.2315066527132
 21
303.2890051199519
 31
0.0
  0
LINE
  5
846A
330
1A
100
AcDbEntity
  8
0
100
AcDbLine
 10
427.2315066527126
 20
316.2890051199513
 30
0.0
 11
427.2315066527126
 21
303.2890051199514
 31
0.0
  0
LINE
  5
846B
330
1A
100
AcDbEntity
  8
0
100
AcDbLine
 10
445.2315066527127
 20
316.2890051199513
 30
0.0
 11
445.2315066527127
 21
303.2890051199514
 31
0.0
  0
LINE
  5
8487
330
1A
100
AcDbEntity
  8
0
100
AcDbLine
 10
422.2315066527114
 20
303.2890051199514
 30
0.0
 11
422.2315066527114
 21
348.2890051199514
 31
0.0
  0
LINE
  5
84BF
330
1A
100
AcDbEntity
  8
0
100
AcDbLine
 10
420.2315066527127
 20
273.7890051199505
 30
0.0
 11
420.2315066527127
 21
276.7890051199505
 31
0.0
  0
LINE
  5
84C0
330
1A
100
AcDbEntity
  8
0
100
AcDbLine
 10
415.2315066527127
 20
273.7890051199505
 30
0.0
 11
415.2315066527127
 21
276.7890051199505
 31
0.0
  0
LINE
  5
84C1
330
1A
100
AcDbEntity
  8
0
100
AcDbLine
 10
421.2315066527128
 20
286.7890051199514
 30
0.0
 11
421.2315066527128
 21
270.2890051199514
 31
0.0
  0
LINE
  5
84C2
330
1A
100
AcDbEntity
  8
0
100
AcDbLine
 10
414.2315066527126
 20
286.7890051199523
 30
0.0
 11
414.2315066527126
 21
275.7890051199532
 31
0.0
  0
LINE
  5
84C7
330
1A
100
AcDbEntity
  8
0
100
AcDbLine
 10
415.2315066527127
 20
273.7890051199505
 30
0.0
 11
420.2315066527127
 21
273.7890051199505
 31
0.0
  0
ARC
  5
84C8
330
1A
100
AcDbEntity
  8
0
100
AcDbCircle
 10
412.2315066527127
 20
275.7890051199532
 30
0.0
 40
2.0
100
AcDbArc
 50
270.0
 51
0.0
  0
ARC
  5
84CC
330
1A
100
AcDbEntity
  8
0
100
AcDbCircle
 10
423.2315066527126
 20
286.7890051199514
 30
0.0
 40
2.0
100
AcDbArc
 50
90.0
 51
180.0
  0
LINE
  5
84CD
330
1A
100
AcDbEntity
  8
0
100
AcDbLine
 10
415.2315066527127
 20
276.7890051199505
 30
0.0
 11
420.2315066527127
 21
276.7890051199505
 31
0.0
  0
ARC
  5
84CE
330
1A
100
AcDbEntity
  8
0
100
AcDbCircle
 10
412.2315066527127
 20
286.7890051199523
 30
0.0
 40
2.0
100
AcDbArc
 50
0.0
 51
90.0
  0
LINE
  5
84EC
330
1A
100
AcDbEntity
  8
0
100
AcDbLine
 10
428.2315066527127
 20
302.2890051199514
 30
0.0
 11
443.2315066527133
 21
302.2890051199519
 31
0.0
  0
ARC
  5
84ED
330
1A
100
AcDbEntity
  8
0
100
AcDbCircle
 10
421.2315066527113
 20
303.2890051199514
 30
0.0
 40
1.0
100
AcDbArc
 50
270.0
 51
0.0
  0
ARC
  5
84EE
330
1A
100
AcDbEntity
  8
0
100
AcDbCircle
 10
428.2315066527127
 20
303.2890051199514
 30
0.0
 40
1.0
100
AcDbArc
 50
180.0
 51
270.0
  0
ARC
  5
84EF
330
1A
100
AcDbEntity
  8
0
100
AcDbCircle
 10
443.2315066527133
 20
303.2890051199519
 30
0.0
 40
1.0
100
AcDbArc
 50
270.0
 51
0.0
  0
ARC
  5
84F0
330
1A
100
AcDbEntity
  8
0
100
AcDbCircle
 10
446.2315066527128
 20
303.2890051199514
 30
0.0
 40
1.0
100
AcDbArc
 50
180.0
 51
270.0
  0
LINE
  5
85F5
330
1A
100
AcDbEntity
  8
0
100
AcDbLine
 10
444.2315066527127
 20
348.2890051199519
 30
0.0
 11
444.2315066527132
 21
335.2890051199519
 31
0.0
  0
LINE
  5
85F6
330
1A
100
AcDbEntity
  8
0
100
AcDbLine
 10
427.2315066527126
 20
348.2890051199514
 30
0.0
 11
427.2315066527126
 21
335.2890051199513
 31
0.0
  0
LINE
  5
85F7
330
1A
100
AcDbEntity
  8
0
100
AcDbLine
 10
445.2315066527127
 20
348.2890051199514
 30
0.0
 11
445.2315066527127
 21
335.2890051199513
 31
0.0
  0
LINE
  5
8673
330
1A
100
AcDbEntity
  8
0
100
AcDbLine
 10
444.2315066527127
 20
332.2890051199518
 30
0.0
 11
444.2315066527132
 21
319.2890051199519
 31
0.0
  0
LINE
  5
8674
330
1A
100
AcDbEntity
  8
0
100
AcDbLine
 10
445.2315066527127
 20
332.2890051199514
 30
0.0
 11
445.2315066527127
 21
319.2890051199514
 31
0.0
  0
LINE
  5
8678
330
1A
100
AcDbEntity
  8
0
100
AcDbLine
 10
427.2315066527126
 20
332.2890051199514
 30
0.0
 11
427.2315066527126
 21
319.2890051199514
 31
0.0
  0
LINE
  5
867E
330
1A
100
AcDbEntity
  8
0
100
AcDbLine
 10
428.2315066527127
 20
318.2890051199513
 30
0.0
 11
443.2315066527133
 21
318.2890051199519
 31
0.0
  0
LINE
  5
867F
330
1A
100
AcDbEntity
  8
0
100
AcDbLine
 10
428.2315066527127
 20
317.2890051199514
 30
0.0
 11
443.2315066527126
 21
317.2890051199519
 31
0.0
  0
ARC
  5
8687
330
1A
100
AcDbEntity
  8
0
100
AcDbCircle
 10
428.2315066527127
 20
319.2890051199514
 30
0.0
 40
1.0
100
AcDbArc
 50
180.0
 51
270.0
  0
ARC
  5
8688
330
1A
100
AcDbEntity
  8
0
100
AcDbCircle
 10
428.2315066527127
 20
316.2890051199513
 30
0.0
 40
1.0
100
AcDbArc
 50
90.0
 51
180.0
  0
ARC
  5
8689
330
1A
100
AcDbEntity
  8
0
100
AcDbCircle
 10
443.2315066527133
 20
319.2890051199519
 30
0.0
 40
1.0
100
AcDbArc
 50
270.0
 51
0.0
  0
ARC
  5
868A
330
1A
100
AcDbEntity
  8
0
100
AcDbCircle
 10
446.2315066527128
 20
319.2890051199514
 30
0.0
 40
1.0
100
AcDbArc
 50
180.0
 51
270.0
  0
ARC
  5
868B
330
1A
100
AcDbEntity
  8
0
100
AcDbCircle
 10
443.2315066527126
 20
316.2890051199519
 30
0.0
 40
1.0
100
AcDbArc
 50
0.0
 51
90.0
  0
ARC
  5
868C
330
1A
100
AcDbEntity
  8
0
100
AcDbCircle
 10
446.2315066527128
 20
316.2890051199513
 30
0.0
 40
1.0
100
AcDbArc
 50
90.0
 51
180.0
  0
LINE
  5
8690
330
1A
100
AcDbEntity
  8
0
100
AcDbLine
 10
428.2315066527127
 20
334.2890051199514
 30
0.0
 11
443.2315066527133
 21
334.2890051199518
 31
0.0
  0
LINE
  5
8691
330
1A
100
AcDbEntity
  8
0
100
AcDbLine
 10
428.2315066527127
 20
333.2890051199513
 30
0.0
 11
443.2315066527126
 21
333.2890051199519
 31
0.0
  0
ARC
  5
8693
330
1A
100
AcDbEntity
  8
0
100
AcDbCircle
 10
428.2315066527127
 20
335.2890051199513
 30
0.0
 40
1.0
100
AcDbArc
 50
180.0
 51
270.0
  0
ARC
  5
8694
330
1A
100
AcDbEntity
  8
0
100
AcDbCircle
 10
428.2315066527127
 20
332.2890051199514
 30
0.0
 40
1.0
100
AcDbArc
 50
90.0
 51
180.0
  0
ARC
  5
8695
330
1A
100
AcDbEntity
  8
0
100
AcDbCircle
 10
443.2315066527133
 20
335.2890051199519
 30
0.0
 40
1.0
100
AcDbArc
 50
270.0
 51
0.0
  0
ARC
  5
8696
330
1A
100
AcDbEntity
  8
0
100
AcDbCircle
 10
446.2315066527128
 20
335.2890051199513
 30
0.0
 40
1.0
100
AcDbArc
 50
180.0
 51
270.0
  0
ARC
  5
8697
330
1A
100
AcDbEntity
  8
0
100
AcDbCircle
 10
443.2315066527126
 20
332.2890051199518
 30
0.0
 40
1.0
100
AcDbArc
 50
0.0
 51
90.0
  0
ARC
  5
8698
330
1A
100
AcDbEntity
  8
0
100
AcDbCircle
 10
446.2315066527128
 20
332.2890051199514
 30
0.0
 40
1.0
100
AcDbArc
 50
90.0
 51
180.0
  0
LINE
  5
86AF
330
1A
100
AcDbEntity
  8
0
100
AcDbLine
 10
428.2315066527127
 20
349.2890051199514
 30
0.0
 11
443.2315066527126
 21
349.2890051199519
 31
0.0
  0
ARC
  5
86B9
330
1A
100
AcDbEntity
  8
0
100
AcDbCircle
 10
421.2315066527113
 20
348.2890051199514
 30
0.0
 40
1.0
100
AcDbArc
 50
0.0
 51
90.0
  0
ARC
  5
86BA
330
1A
100
AcDbEntity
  8
0
100
AcDbCircle
 10
428.2315066527127
 20
348.2890051199514
 30
0.0
 40
1.0
100
AcDbArc
 50
90.0
 51
180.0
  0
ARC
  5
86BB
330
1A
100
AcDbEntity
  8
0
100
AcDbCircle
 10
443.2315066527126
 20
348.2890051199519
 30
0.0
 40
1.0
100
AcDbArc
 50
0.0
 51
90.0
  0
ARC
  5
86BC
330
1A
100
AcDbEntity
  8
0
100
AcDbCircle
 10
446.2315066527128
 20
348.2890051199514
 30
0.0
 40
1.0
100
AcDbArc
 50
90.0
 51
180.0
  0
CIRCLE
  5
86CF
330
1A
100
AcDbEntity
  8
1
100
AcDbCircle
 10
578.3183780378192
 20
304.2890051199496
 30
0.0
 40
5.0
  0
ARC
  5
86D0
330
1A
100
AcDbEntity
  8
1
100
AcDbCircle
 10
562.8183780378201
 20
304.2890051199507
 30
0.0
 40
5.0
100
AcDbArc
 50
312.0738552364601
 51
47.92614476353985
  0
LINE
  5
86D1
330
1A
100
AcDbEntity
  8
1
100
AcDbLine
 10
538.8301688126691
 20
253.331381704002
 30
0.0
 11
566.4143638105931
 21
309.5134010049886
 31
0.0
  0
LINE
  5
86D2
330
1A
100
AcDbEntity
  8
1
100
AcDbLine
 10
476.4315066527103
 20
297.8781671101486
 30
0.0
 11
476.431506652714
 21
310.6998431297519
 31
0.0
  0
LINE
  5
86D3
330
1A
100
AcDbEntity
  8
1
100
AcDbLine
 10
479.9315066527103
 20
292.2890051199505
 30
0.0
 11
479.931506652714
 21
316.2890051199501
 31
0.0
  0
ARC
  5
86D4
330
1A
100
AcDbEntity
  8
1
100
AcDbCircle
 10
389.9315066527149
 20
304.28900511995
 30
0.0
 40
100.0
100
AcDbArc
 50
353.2622404725885
 51
6.737759527411527
  0
LINE
  5
86D5
330
1A
100
AcDbEntity
  8
0
100
AcDbLine
 10
470.7315066527128
 20
361.2890051199519
 30
0.0
 11
470.7315066527128
 21
288.7890051199514
 31
0.0
  0
LINE
  5
86D6
330
1A
100
AcDbEntity
  8
0
100
AcDbLine
 10
541.3183826333685
 20
270.2890051199509
 30
0.0
 11
541.3183826333671
 21
366.2890051199514
 31
0.0
  0
LINE
  5
86D7
330
1A
100
AcDbEntity
  8
0
100
AcDbLine
 10
526.3183826333666
 20
363.6049592972753
 30
0.0
 11
526.3183826333686
 21
272.9730509426262
 31
0.0
  0
LINE
  5
86D8
330
1A
100
AcDbEntity
  8
0
100
AcDbLine
 10
541.8183826333654
 20
296.2890051199496
 30
0.0
 11
541.8183826333659
 21
312.2890051199496
 31
0.0
  0
LINE
  5
86D9
330
1A
100
AcDbEntity
  8
0
100
AcDbLine
 10
467.2315066527128
 20
360.7890051199514
 30
0.0
 11
467.2315066527128
 21
292.7890051199513
 31
0.0
  0
LINE
  5
86DA
330
1A
100
AcDbEntity
  8
0
100
AcDbLine
 10
469.9453899634656
 20
360.5028884307061
 30
0.0
 11
469.9453899634656
 21
288.7890051199523
 31
0.0
  0
LINE
  5
86DC
330
1A
100
AcDbEntity
  8
0
100
AcDbLine
 10
462.2315066527128
 20
316.2890051199519
 30
0.0
 11
462.231506652713
 21
303.2890051199519
 31
0.0
  0
LINE
  5
86DD
330
1A
100
AcDbEntity
  8
0
100
AcDbLine
 10
472.7315066527133
 20
298.2890051199505
 30
0.0
 11
472.7315066527133
 21
310.2890051199502
 31
0.0
  0
LINE
  5
86DE
330
1A
100
AcDbEntity
  8
0
100
AcDbLine
 10
472.7315066527133
 20
310.2890051199496
 30
0.0
 11
472.7315066527133
 21
298.28900511995
 31
0.0
  0
LINE
  5
86DF
330
1A
100
AcDbEntity
  8
0
100
AcDbLine
 10
521.8183826333686
 20
276.7890051199505
 30
0.0
 11
526.3183826333686
 21
276.7890051199505
 31
0.0
  0
LINE
  5
86E0
330
1A
100
AcDbEntity
  8
0
100
AcDbLine
 10
521.8183826333686
 20
273.7890051199505
 30
0.0
 11
526.3183826333686
 21
273.7890051199505
 31
0.0
  0
ARC
  5
86E1
330
1A
100
AcDbEntity
  8
0
100
AcDbCircle
 10
528.3183826333686
 20
272.9730509426262
 30
0.0
 40
2.0
100
AcDbArc
 50
180.0
 51
266.9999999999944
  0
ARC
  5
86E2
330
1A
100
AcDbEntity
  8
0
100
AcDbCircle
 10
528.3183826333686
 20
272.9730509426262
 30
0.0
 40
2.0
100
AcDbArc
 50
180.0
 51
267.0000000000203
  0
LINE
  5
86E3
330
1A
100
AcDbEntity
  8
0
100
AcDbLine
 10
470.7315066527128
 20
288.789005119951
 30
0.0
 11
470.0102875761746
 21
275.0273253387358
 31
0.0
  0
LINE
  5
86E6
330
1A
100
AcDbEntity
  8
0
100
AcDbLine
 10
521.8183826333686
 20
276.7890051199505
 30
0.0
 11
521.8183826333686
 21
273.7890051199505
 31
0.0
  0
ARC
  5
86E9
330
1A
100
AcDbEntity
  8
0
100
AcDbCircle
 10
465.0171399024022
 20
275.2890051199505
 30
0.0
 40
5.0
100
AcDbArc
 50
270.0
 51
356.9999999999942
  0
LINE
  5
86EA
330
1A
100
AcDbEntity
  8
1
100
AcDbLine
 10
480.9315066527131
 20
291.2890051199496
 30
0.0
 11
488.3001035220366
 21
291.6751769183028
 31
0.0
  0
LINE
  5
86EB
330
1A
100
AcDbEntity
  8
1
100
AcDbLine
 10
480.9315066527084
 20
291.5251415482998
 30
0.0
 11
488.3278819394996
 21
291.9127691518237
 31
0.0
  0
LINE
  5
86EC
330
1A
100
AcDbEntity
  8
1
100
AcDbLine
 10
480.931506652714
 20
295.6228816324773
 30
0.0
 11
488.7173237098275
 21
296.0309190143442
 31
0.0
  0
LINE
  5
86ED
330
1A
100
AcDbEntity
  8
1
100
AcDbLine
 10
480.87917069647
 20
300.0404110558242
 30
0.0
 11
488.7610749506855
 21
300.4534841543085
 31
0.0
  0
ARC
  5
86EE
330
1A
100
AcDbEntity
  8
1
100
AcDbCircle
 10
480.9315066527131
 20
292.28900511995
 30
0.0
 40
1.0
100
AcDbArc
 50
180.0
 51
270.0
  0
ARC
  5
86EF
330
1A
100
AcDbEntity
  8
1
100
AcDbCircle
 10
480.9315066527093
 20
292.5251415482993
 30
0.0
 40
1.0
100
AcDbArc
 50
180.0
 51
270.0
  0
ARC
  5
86F0
330
1A
100
AcDbEntity
  8
0
100
AcDbCircle
 10
465.2315066527127
 20
292.7890051199513
 30
0.0
 40
2.0
100
AcDbArc
 50
270.0
 51
0.0
  0
ARC
  5
86F3
330
1A
100
AcDbEntity
  8
0
100
AcDbCircle
 10
461.2315066527131
 20
303.2890051199519
 30
0.0
 40
1.0
100
AcDbArc
 50
270.0
 51
0.0
  0
ARC
  5
86F5
330
1A
100
AcDbEntity
  8
1
100
AcDbCircle
 10
480.9315066527148
 20
296.6228816324773
 30
0.0
 40
1.0
100
AcDbArc
 50
180.0
 51
270.0
  0
ARC
  5
86F6
330
1A
100
AcDbEntity
  8
1
100
AcDbCircle
 10
480.9315066527131
 20
299.0417815210698
 30
0.0
 40
1.0
100
AcDbArc
 50
93.00000000000556
 51
180.0
  0
ARC
  5
86F7
330
1A
100
AcDbEntity
  8
1
100
AcDbCircle
 10
477.4315066527122
 20
297.8781671101486
 30
0.0
 40
1.0
100
AcDbArc
 50
179.999999999987
 51
269.4999999999824
  0
LINE
  5
86F8
330
1A
100
AcDbEntity
  8
1
100
AcDbLine
 10
474.8315066527127
 20
298.0390051199502
 30
0.0
 11
476.4315066527124
 21
298.0390051199502
 31
0.0
  0
LINE
  5
86F9
330
1A
100
AcDbEntity
  8
1
100
AcDbLine
 10
479.9315066527131
 20
296.8563118622859
 30
0.0
 11
477.4227801172115
 21
296.8782051870848
 31
0.0
  0
ARC
  5
86FA
330
1A
100
AcDbEntity
  8
0
100
AcDbCircle
 10
471.1315066527117
 20
298.28900511995
 30
0.0
 40
1.6
100
AcDbArc
 50
314.3789119051266
 51
0.0
  0
LINE
  5
86FB
330
1A
100
AcDbEntity
  8
0
100
AcDbLine
 10
470.7315066527128
 20
295.6589773555601
 30
0.0
 11
472.2505471754013
 21
297.1454368847411
 31
0.0
  0
ARC
  5
86FC
330
1A
100
AcDbEntity
  8
1
100
AcDbCircle
 10
488.2477675657944
 20
292.6738064530572
 30
0.0
 40
1.0
100
AcDbArc
 50
273.0000000000056
 51
353.2622404725748
  0
ARC
  5
86FD
330
1A
100
AcDbEntity
  8
1
100
AcDbCircle
 10
488.8134109069285
 20
299.4548546195537
 30
0.0
 40
1.0
100
AcDbArc
 50
357.2011453780174
 51
93.00000000000556
  0
ARC
  5
86FE
330
1A
100
AcDbEntity
  8
1
100
AcDbCircle
 10
488.6649877535854
 20
297.0295485490987
 30
0.0
 40
1.0
100
AcDbArc
 50
272.9999999999535
 51
355.7948497559109
  0
ARC
  5
86FF
330
1A
100
AcDbEntity
  8
1
100
AcDbCircle
 10
488.2755459832575
 20
292.9113986865786
 30
0.0
 40
1.0
100
AcDbArc
 50
272.9999999999535
 51
353.4006825026855
  0
LINE
  5
8702
330
1A
100
AcDbEntity
  8
0
100
AcDbLine
 10
532.3183826333681
 20
288.5890051199507
 30
0.0
 11
532.3183826333681
 21
270.7606751334982
 31
0.0
  0
ARC
  5
8703
330
1A
100
AcDbEntity
  8
1
100
AcDbCircle
 10
543.3183826333658
 20
251.1277627034241
 30
0.0
 40
5.0
100
AcDbArc
 50
153.8499284490033
 51
180.0
  0
LINE
  5
8704
330
1A
100
AcDbEntity
  8
0
100
AcDbLine
 10
548.4138565009394
 20
272.8509263823069
 30
0.0
 11
541.3183826333685
 21
272.7890051199514
 31
0.0
  0
LINE
  5
8706
330
1A
100
AcDbEntity
  8
0
100
AcDbLine
 10
528.2137107208825
 20
270.9757918731169
 30
0.0
 11
541.3183826333685
 21
270.2890051199509
 31
0.0
  0
LINE
  5
8708
330
1A
100
AcDbEntity
  8
0
100
AcDbLine
 10
543.8183826333657
 20
294.2890051199496
 30
0.0
 11
558.9395042373072
 21
294.2890051199496
 31
0.0
  0
LINE
  5
870A
330
1A
100
AcDbEntity
  8
0
100
AcDbLine
 10
526.3183826333686
 20
284.737969686665
 30
0.0
 11
526.3183826333686
 21
279.737969686665
 31
0.0
  0
LINE
  5
870B
330
1A
100
AcDbEntity
  8
0
100
AcDbLine
 10
526.3183826333682
 20
288.5890051199517
 30
0.0
 11
532.3183826333681
 21
288.5890051199507
 31
0.0
  0
LINE
  5
870E
330
1A
100
AcDbEntity
  8
0
100
AcDbLine
 10
526.3183826333686
 20
283.78900511995
 30
0.0
 11
526.3183826333686
 21
278.7890051199501
 31
0.0
  0
ARC
  5
870F
330
1A
100
AcDbEntity
  8
0
100
AcDbCircle
 10
543.8183826333654
 20
296.2890051199496
 30
0.0
 40
2.0
100
AcDbArc
 50
180.0
 51
270.0
  0
ARC
  5
8710
330
1A
100
AcDbEntity
  8
1
100
AcDbCircle
 10
578.3183780378192
 20
304.2890051199492
 30
0.0
 40
13.0
100
AcDbArc
 50
259.0627777130714
 51
280.9372222869285
  0
ARC
  5
8711
330
1A
100
AcDbEntity
  8
1
100
AcDbCircle
 10
570.5683780378201
 20
290.8656113612916
 30
0.0
 40
5.0
100
AcDbArc
 50
12.07385523646012
 51
107.9261447635586
  0
ARC
  5
8712
330
1A
100
AcDbEntity
  8
1
100
AcDbCircle
 10
578.3183780378192
 20
304.2890051199492
 30
0.0
 40
13.0
100
AcDbArc
 50
199.0627777130884
 51
220.9372222869107
  0
ARC
  5
8713
330
1A
100
AcDbEntity
  8
1
100
AcDbCircle
 10
568.8755285832201
 20
296.0986086595958
 30
0.0
 40
0.5
100
AcDbArc
 50
220.9372222868874
 51
287.9261447635041
  0
ARC
  5
8714
330
1A
100
AcDbEntity
  8
1
100
AcDbCircle
 10
566.503861908786
 20
300.2064558383323
 30
0.0
 40
0.5
100
AcDbArc
 50
132.0738552365316
 51
199.062777713074
  0
ARC
  5
8715
330
1A
100
AcDbEntity
  8
1
100
AcDbCircle
 10
580.6900447122541
 20
292.016059377978
 30
0.0
 40
0.5
100
AcDbArc
 50
280.9372222869285
 51
347.9261447635131
  0
ARC
  5
8716
330
1A
100
AcDbEntity
  8
1
100
AcDbCircle
 10
575.9467113633871
 20
292.0160593779775
 30
0.0
 40
0.5
100
AcDbArc
 50
192.073855236446
 51
259.0627777130714
  0
ARC
  5
8717
330
1A
100
AcDbEntity
  8
0
100
AcDbCircle
 10
528.3183826333671
 20
363.6049592972753
 30
0.0
 40
2.0
100
AcDbArc
 50
93.00000000000556
 51
180.0
  0
LINE
  5
8718
330
1A
100
AcDbEntity
  8
0
100
AcDbLine
 10
462.2315066527128
 20
348.2890051199519
 30
0.0
 11
462.231506652713
 21
335.2890051199519
 31
0.0
  0
LINE
  5
8719
330
1A
100
AcDbEntity
  8
1
100
AcDbLine
 10
480.9315066527131
 20
317.28900511995
 30
0.0
 11
488.3001035220375
 21
316.9028333215973
 31
0.0
  0
LINE
  5
871A
330
1A
100
AcDbEntity
  8
1
100
AcDbLine
 10
480.9315066527084
 20
317.0528686915999
 30
0.0
 11
488.3278819394996
 21
316.6652410880755
 31
0.0
  0
LINE
  5
871B
330
1A
100
AcDbEntity
  8
1
100
AcDbLine
 10
480.931506652714
 20
312.9551286074224
 30
0.0
 11
488.7173237098275
 21
312.5470912255554
 31
0.0
  0
LINE
  5
871C
330
1A
100
AcDbEntity
  8
1
100
AcDbLine
 10
480.87917069647
 20
308.5375991840755
 30
0.0
 11
488.7610749506855
 21
308.1245260855911
 31
0.0
  0
LINE
  5
871D
330
1A
100
AcDbEntity
  8
0
100
AcDbLine
 10
462.2315066527128
 20
332.2890051199518
 30
0.0
 11
462.231506652713
 21
319.2890051199519
 31
0.0
  0
ARC
  5
871F
330
1A
100
AcDbEntity
  8
0
100
AcDbCircle
 10
461.2315066527131
 20
319.2890051199519
 30
0.0
 40
1.0
100
AcDbArc
 50
270.0
 51
0.0
  0
ARC
  5
8720
330
1A
100
AcDbEntity
  8
0
100
AcDbCircle
 10
461.2315066527127
 20
316.2890051199519
 30
0.0
 40
1.0
100
AcDbArc
 50
0.0
 51
90.0
  0
ARC
  5
8721
330
1A
100
AcDbEntity
  8
1
100
AcDbCircle
 10
480.931506652714
 20
316.2890051199501
 30
0.0
 40
1.0
100
AcDbArc
 50
90.0
 51
180.0
  0
ARC
  5
8722
330
1A
100
AcDbEntity
  8
1
100
AcDbCircle
 10
480.9315066527093
 20
316.0528686916003
 30
0.0
 40
1.0
100
AcDbArc
 50
90.0
 51
180.0
  0
ARC
  5
8723
330
1A
100
AcDbEntity
  8
1
100
AcDbCircle
 10
480.9315066527148
 20
311.9551286074223
 30
0.0
 40
1.0
100
AcDbArc
 50
90.0
 51
180.0
  0
ARC
  5
8724
330
1A
100
AcDbEntity
  8
1
100
AcDbCircle
 10
480.9315066527131
 20
309.5362287188299
 30
0.0
 40
1.0
100
AcDbArc
 50
180.0
 51
266.9999999999944
  0
ARC
  5
8725
330
1A
100
AcDbEntity
  8
1
100
AcDbCircle
 10
477.4315066527138
 20
310.6998431297514
 30
0.0
 40
1.0
100
AcDbArc
 50
90.50000000001757
 51
179.999999999987
  0
LINE
  5
8726
330
1A
100
AcDbEntity
  8
1
100
AcDbLine
 10
473.2315066527124
 20
317.28900511995
 30
0.0
 11
474.8315066527127
 21
317.28900511995
 31
0.0
  0
LINE
  5
8727
330
1A
100
AcDbEntity
  8
1
100
AcDbLine
 10
474.8315066527124
 20
310.53900511995
 30
0.0
 11
476.4315066527124
 21
310.53900511995
 31
0.0
  0
LINE
  5
8728
330
1A
100
AcDbEntity
  8
1
100
AcDbLine
 10
479.9315066527131
 20
311.7216983776142
 30
0.0
 11
477.4227801172143
 21
311.6998050528158
 31
0.0
  0
ARC
  5
8729
330
1A
100
AcDbEntity
  8
0
100
AcDbCircle
 10
471.1315066527117
 20
310.2890051199502
 30
0.0
 40
1.6
100
AcDbArc
 50
0.0
 51
45.6210880948734
  0
LINE
  5
872A
330
1A
100
AcDbEntity
  8
0
100
AcDbLine
 10
470.7315066527128
 20
312.91903288434
 30
0.0
 11
472.2505471754013
 21
311.4325733551595
 31
0.0
  0
ARC
  5
872B
330
1A
100
AcDbEntity
  8
0
100
AcDbCircle
 10
461.2315066527131
 20
335.2890051199519
 30
0.0
 40
1.0
100
AcDbArc
 50
270.0
 51
0.0
  0
ARC
  5
872C
330
1A
100
AcDbEntity
  8
0
100
AcDbCircle
 10
461.2315066527127
 20
332.2890051199518
 30
0.0
 40
1.0
100
AcDbArc
 50
0.0
 51
90.0
  0
ARC
  5
872D
330
1A
100
AcDbEntity
  8
1
100
AcDbCircle
 10
488.2477675657944
 20
315.904203786842
 30
0.0
 40
1.0
100
AcDbArc
 50
6.737759527411527
 51
86.99999999999439
  0
ARC
  5
872E
330
1A
100
AcDbEntity
  8
1
100
AcDbCircle
 10
488.8134109069285
 20
309.1231556203455
 30
0.0
 40
1.0
100
AcDbArc
 50
266.9999999999944
 51
2.798854621982628
  0
ARC
  5
872F
330
1A
100
AcDbEntity
  8
1
100
AcDbCircle
 10
488.6649877535854
 20
311.5484616908005
 30
0.0
 40
1.0
100
AcDbArc
 50
4.2051502440891
 51
87.00000000004658
  0
ARC
  5
8730
330
1A
100
AcDbEntity
  8
1
100
AcDbCircle
 10
488.2755459832575
 20
315.6666115533211
 30
0.0
 40
1.0
100
AcDbArc
 50
6.599317497314531
 51
87.00000000004658
  0
ARC
  5
8731
330
1A
100
AcDbEntity
  8
0
100
AcDbCircle
 10
461.2315066527127
 20
348.2890051199519
 30
0.0
 40
1.0
100
AcDbArc
 50
0.0
 51
90.0
  0
ARC
  5
873E
330
1A
100
AcDbEntity
  8
0
100
AcDbCircle
 10
465.2315066527127
 20
360.7890051199514
 30
0.0
 40
2.0
100
AcDbArc
 50
0.0
 51
90.0
  0
ARC
  5
873F
330
1A
100
AcDbEntity
  8
0
100
AcDbCircle
 10
465.7315066527127
 20
361.2890051199519
 30
0.0
 40
5.0
100
AcDbArc
 50
0.0
 51
90.0
  0
ARC
  5
8740
330
1A
100
AcDbEntity
  8
0
100
AcDbCircle
 10
464.9453899634656
 20
360.5028884307061
 30
0.0
 40
5.0
100
AcDbArc
 50
0.0
 51
90.0
  0
LINE
  5
8742
330
1A
100
AcDbEntity
  8
0
100
AcDbLine
 10
547.8183826333668
 20
320.2890051199513
 30
0.0
 11
547.8183826333668
 21
350.7890051199514
 31
0.0
  0
LINE
  5
8744
330
1A
100
AcDbEntity
  8
0
100
AcDbLine
 10
548.518382633367
 20
350.5890051199517
 30
0.0
 11
548.5183826333666
 21
320.4890051199512
 31
0.0
  0
LINE
  5
8745
330
1A
100
AcDbEntity
  8
0
100
AcDbLine
 10
550.5183826333668
 20
342.4961508129999
 30
0.0
 11
550.5183826333668
 21
328.4961508129999
 31
0.0
  0
LINE
  5
8746
330
1A
100
AcDbEntity
  8
0
100
AcDbLine
 10
551.518382633368
 20
342.4961508129994
 30
0.0
 11
551.5183826333672
 21
328.4961508129994
 31
0.0
  0
LINE
  5
8747
330
1A
100
AcDbEntity
  8
0
100
AcDbLine
 10
553.018382633367
 20
342.4961508129999
 30
0.0
 11
553.018382633367
 21
328.4961508129999
 31
0.0
  0
LINE
  5
8748
330
1A
100
AcDbEntity
  8
0
100
AcDbLine
 10
554.018382633368
 20
342.4961508129994
 30
0.0
 11
554.0183826333668
 21
328.4961508129994
 31
0.0
  0
LINE
  5
8749
330
1A
100
AcDbEntity
  8
0
100
AcDbLine
 10
555.5183826333672
 20
342.4961508129999
 30
0.0
 11
555.5183826333672
 21
328.4961508129999
 31
0.0
  0
LINE
  5
874A
330
1A
100
AcDbEntity
  8
0
100
AcDbLine
 10
556.5183826333679
 20
342.4961508129994
 30
0.0
 11
556.5183826333671
 21
328.4961508129994
 31
0.0
  0
LINE
  5
874B
330
1A
100
AcDbEntity
  8
0
100
AcDbLine
 10
558.0183826333668
 20
342.4961508129999
 30
0.0
 11
558.0183826333668
 21
328.4961508129999
 31
0.0
  0
LINE
  5
874C
330
1A
100
AcDbEntity
  8
0
100
AcDbLine
 10
561.0183826333674
 20
335.5390051199514
 30
0.0
 11
558.9992833794451
 21
342.6330247419368
 31
0.0
  0
LINE
  5
874D
330
1A
100
AcDbEntity
  8
0
100
AcDbLine
 10
543.8183826333657
 20
314.2890051199496
 30
0.0
 11
570.0117587704477
 21
314.2890051199496
 31
0.0
  0
ARC
  5
874E
330
1A
100
AcDbEntity
  8
0
100
AcDbCircle
 10
543.8183826333657
 20
312.2890051199496
 30
0.0
 40
2.0
100
AcDbArc
 50
90.0
 51
180.0
  0
ARC
  5
8750
330
1A
100
AcDbEntity
  8
0
100
AcDbCircle
 10
550.0183826333666
 20
320.4890051199512
 30
0.0
 40
1.5
100
AcDbArc
 50
180.0
 51
270.0
  0
ARC
  5
8751
330
1A
100
AcDbEntity
  8
0
100
AcDbCircle
 10
549.8183826333668
 20
320.2890051199513
 30
0.0
 40
2.0
100
AcDbArc
 50
180.0
 51
270.0
  0
ARC
  5
8752
330
1A
100
AcDbEntity
  8
0
100
AcDbCircle
 10
551.0183826333672
 20
328.4961508129999
 30
0.0
 40
0.5000000000001137
100
AcDbArc
 50
180.0
 51
0.0
  0
ARC
  5
8753
330
1A
100
AcDbEntity
  8
0
100
AcDbCircle
 10
553.5183826333669
 20
328.4961508129999
 30
0.0
 40
0.5000000000001137
100
AcDbArc
 50
180.0
 51
0.0
  0
ARC
  5
8754
330
1A
100
AcDbEntity
  8
0
100
AcDbCircle
 10
556.0183826333672
 20
328.4961508129999
 30
0.0
 40
0.5000000000001137
100
AcDbArc
 50
180.0
 51
0.0
  0
ARC
  5
8755
330
1A
100
AcDbEntity
  8
1
100
AcDbCircle
 10
570.5683780378201
 20
317.7123988786083
 30
0.0
 40
5.0
100
AcDbArc
 50
252.0738552364959
 51
347.9261447635273
  0
ARC
  5
8756
330
1A
100
AcDbEntity
  8
1
100
AcDbCircle
 10
578.3183780378192
 20
304.2890051199492
 30
0.0
 40
13.0
100
AcDbArc
 50
139.0627777130891
 51
160.9372222869116
  0
ARC
  5
8757
330
1A
100
AcDbEntity
  8
1
100
AcDbCircle
 10
566.503861908787
 20
308.371554401568
 30
0.0
 40
0.5
100
AcDbArc
 50
160.9372222869116
 51
227.9261447635398
  0
ARC
  5
8758
330
1A
100
AcDbEntity
  8
1
100
AcDbCircle
 10
568.8755285832209
 20
312.4794015803039
 30
0.0
 40
0.5
100
AcDbArc
 50
72.07385523649572
 51
139.0627777130341
  0
ARC
  5
8759
330
1A
100
AcDbEntity
  8
1
100
AcDbCircle
 10
580.6900447122541
 20
316.5619508619208
 30
0.0
 40
0.5
100
AcDbArc
 50
12.07385523647287
 51
79.0627777130712
  0
ARC
  5
875A
330
1A
100
AcDbEntity
  8
1
100
AcDbCircle
 10
575.9467113633871
 20
316.5619508619212
 30
0.0
 40
0.5
100
AcDbArc
 50
100.9372222869286
 51
167.9261447635667
  0
ARC
  5
875B
330
1A
100
AcDbEntity
  8
1
100
AcDbCircle
 10
578.3183780378192
 20
304.2890051199492
 30
0.0
 40
13.0
100
AcDbArc
 50
79.0627777130712
 51
100.9372222869286
  0
ARC
  5
875C
330
1A
100
AcDbEntity
  8
0
100
AcDbCircle
 10
558.5183826333668
 20
328.4961508129999
 30
0.0
 40
0.5000000000001137
100
AcDbArc
 50
180.0
 51
344.2928551556193
  0
LINE
  5
875D
330
1A
100
AcDbEntity
  8
0
100
AcDbLine
 10
561.0183826333674
 20
335.5390051199514
 30
0.0
 11
558.9997116307565
 21
328.3607905667238
 31
0.0
  0
ARC
  5
875E
330
1A
100
AcDbEntity
  8
0
100
AcDbCircle
 10
549.8183826333668
 20
350.7890051199514
 30
0.0
 40
2.0
100
AcDbArc
 50
90.0
 51
180.0
  0
ARC
  5
8760
330
1A
100
AcDbEntity
  8
0
100
AcDbCircle
 10
550.0183826333668
 20
350.5890051199517
 30
0.0
 40
1.5
100
AcDbArc
 50
90.0
 51
180.0
  0
ARC
  5
8761
330
1A
100
AcDbEntity
  8
0
100
AcDbCircle
 10
551.018382633368
 20
342.4961508129999
 30
0.0
 40
0.5000000000001137
100
AcDbArc
 50
0.0
 51
180.0
  0
ARC
  5
8762
330
1A
100
AcDbEntity
  8
0
100
AcDbCircle
 10
553.5183826333678
 20
342.4961508129999
 30
0.0
 40
0.5000000000001137
100
AcDbArc
 50
0.0
 51
180.0
  0
ARC
  5
8763
330
1A
100
AcDbEntity
  8
0
100
AcDbCircle
 10
556.018382633368
 20
342.4961508129999
 30
0.0
 40
0.5000000000001137
100
AcDbArc
 50
0.0
 51
180.0
  0
LINE
  5
8767
330
1A
100
AcDbEntity
  8
0
100
AcDbLine
 10
528.2137107208812
 20
365.602218366785
 30
0.0
 11
541.3183826333671
 21
366.2890051199514
 31
0.0
  0
ARC
  5
8773
330
1A
100
AcDbEntity
  8
0
100
AcDbCircle
 10
558.518382633368
 20
342.4961508129999
 30
0.0
 40
0.5000000000001137
100
AcDbArc
 50
15.88740856421538
 51
180.0
  0
LINE
  5
8774
330
1A
100
AcDbEntity
  8
1
100
AcDbLine
 10
323.7315066527119
 20
520.9412400778009
 30
0.0
 11
464.2192371821843
 21
520.9412400778005
 31
0.0
  0
LINE
  5
8775
330
1A
100
AcDbEntity
  8
0
100
AcDbLine
 10
281.415552475388
 20
428.9412400778009
 30
0.0
 11
468.0474608300376
 21
428.9412400778009
 31
0.0
  0
LINE
  5
8776
330
1A
100
AcDbEntity
  8
0
100
AcDbLine
 10
470.7315066527128
 20
443.9412400778008
 30
0.0
 11
278.7315066527128
 21
443.9412400778002
 31
0.0
  0
LINE
  5
8777
330
1A
100
AcDbEntity
  8
0
100
AcDbLine
 10
284.8424635548383
 20
515.9412400778003
 30
0.0
 11
464.6205497505877
 21
515.9412400778006
 31
0.0
  0
LINE
  5
8778
330
1A
100
AcDbEntity
  8
1
100
AcDbLine
 10
274.6315066527156
 20
440.9412400778008
 30
0.0
 11
274.6315066527156
 21
520.9412400778009
 31
0.0
  0
LINE
  5
8779
330
1A
100
AcDbEntity
  8
1
100
AcDbLine
 10
276.231506652716
 20
440.9412400778008
 30
0.0
 11
276.231506652716
 21
520.9412400778009
 31
0.0
  0
ARC
  5
877B
330
1A
100
AcDbEntity
  8
0
100
AcDbCircle
 10
284.8424635548383
 20
513.9412400778003
 30
0.0
 40
2.0
100
AcDbArc
 50
90.0
 51
179.4999999999954
  0
LINE
  5
877C
330
1A
100
AcDbEntity
  8
0
100
AcDbLine
 10
281.7315066527101
 20
444.4412400778004
 30
0.0
 11
281.7315066527129
 21
515.9412400778018
 31
0.0
  0
LINE
  5
877D
330
1A
100
AcDbEntity
  8
0
100
AcDbLine
 10
280.1315066527124
 20
470.8412400778005
 30
0.0
 11
280.1315066527129
 21
515.9412400778018
 31
0.0
  0
LINE
  5
877E
330
1A
100
AcDbEntity
  8
0
100
AcDbLine
 10
282.8425397087102
 20
513.9586931487973
 30
0.0
 11
282.2315066527133
 21
443.9412400778008
 31
0.0
  0
LINE
  5
8780
330
1A
100
AcDbEntity
  8
0
100
AcDbLine
 10
280.1315066527124
 20
444.4412400778004
 30
0.0
 11
280.1315066527124
 21
470.8412400778005
 31
0.0
  0
LINE
  5
8781
330
1A
100
AcDbEntity
  8
0
100
AcDbLine
 10
279.4182934058788
 20
430.8365681653148
 30
0.0
 11
278.7315066527128
 21
443.9412400778002
 31
0.0
  0
ARC
  5
8782
330
1A
100
AcDbEntity
  8
0
100
AcDbCircle
 10
281.415552475388
 20
430.9412400778009
 30
0.0
 40
2.0
100
AcDbArc
 50
182.9999999999923
 51
270.0
  0
LINE
  5
8787
330
1A
100
AcDbEntity
  8
1
100
AcDbLine
 10
274.6315066527156
 20
440.9412400778008
 30
0.0
 11
470.5742833148636
 21
440.9412400778008
 31
0.0
  0
LINE
  5
878B
330
1A
100
AcDbEntity
  8
0
100
AcDbLine
 10
281.7315066527101
 20
444.4412400778004
 30
0.0
 11
280.1315066527129
 21
444.4412400778004
 31
0.0
  0
ARC
  5
8793
330
1A
100
AcDbEntity
  8
1
100
AcDbCircle
 10
268.5315066527135
 20
492.9412400778011
 30
0.0
 40
1.0
100
AcDbArc
 50
0.0
 51
90.0
  0
ARC
  5
8794
330
1A
100
AcDbEntity
  8
1
100
AcDbCircle
 10
268.531506652718
 20
492.7051036494511
 30
0.0
 40
1.0
100
AcDbArc
 50
0.0
 51
90.0
  0
ARC
  5
8795
330
1A
100
AcDbEntity
  8
1
100
AcDbCircle
 10
268.5315066527126
 20
488.6073635652732
 30
0.0
 40
1.0
100
AcDbArc
 50
0.0
 51
90.0
  0
ARC
  5
8796
330
1A
100
AcDbEntity
  8
1
100
AcDbCircle
 10
268.5315066527144
 20
486.1884636766808
 30
0.0
 40
1.0
100
AcDbArc
 50
273.0000000000056
 51
0.0
  0
ARC
  5
8797
330
1A
100
AcDbEntity
  8
1
100
AcDbCircle
 10
268.5315066527144
 20
468.9412400778011
 30
0.0
 40
1.0
100
AcDbArc
 50
270.0
 51
0.0
  0
ARC
  5
8798
330
1A
100
AcDbEntity
  8
1
100
AcDbCircle
 10
268.531506652718
 20
469.1773765061504
 30
0.0
 40
1.0
100
AcDbArc
 50
270.0
 51
0.0
  0
ARC
  5
8799
330
1A
100
AcDbEntity
  8
1
100
AcDbCircle
 10
268.5315066527126
 20
473.2751165903281
 30
0.0
 40
1.0
100
AcDbArc
 50
270.0
 51
0.0
  0
ARC
  5
879A
330
1A
100
AcDbEntity
  8
1
100
AcDbCircle
 10
268.5315066527144
 20
475.6940164789206
 30
0.0
 40
1.0
100
AcDbArc
 50
0.0
 51
86.99999999999439
  0
ARC
  5
879B
330
1A
100
AcDbEntity
  8
1
100
AcDbCircle
 10
359.5315066527125
 20
480.9412400778011
 30
0.0
 40
100.0
100
AcDbArc
 50
173.2622404725884
 51
186.7377595274115
  0
ARC
  5
879C
330
1A
100
AcDbEntity
  8
1
100
AcDbCircle
 10
261.215245739633
 20
469.3260414109082
 30
0.0
 40
1.0
100
AcDbArc
 50
186.7377595274253
 51
266.9999999999944
  0
ARC
  5
879D
330
1A
100
AcDbEntity
  8
1
100
AcDbCircle
 10
261.1874673221698
 20
469.5636336444294
 30
0.0
 40
1.0
100
AcDbArc
 50
186.5993174973146
 51
267.0000000000466
  0
LINE
  5
879E
330
1A
100
AcDbEntity
  8
1
100
AcDbLine
 10
268.5315066527144
 20
467.9412400778002
 30
0.0
 11
261.162909783391
 21
468.3274118761538
 31
0.0
  0
LINE
  5
879F
330
1A
100
AcDbEntity
  8
1
100
AcDbLine
 10
268.5315066527189
 20
468.1773765061506
 30
0.0
 11
261.1351313659277
 21
468.5650041096748
 31
0.0
  0
LINE
  5
87A0
330
1A
100
AcDbEntity
  8
1
100
AcDbLine
 10
268.5838426089574
 20
476.692646013675
 30
0.0
 11
260.701938354742
 21
477.1057191121593
 31
0.0
  0
ARC
  5
87A1
330
1A
100
AcDbEntity
  8
1
100
AcDbCircle
 10
260.7980255518421
 20
473.6817835069496
 30
0.0
 40
1.0
100
AcDbArc
 50
184.205150244089
 51
267.0000000000466
  0
LINE
  5
87A2
330
1A
100
AcDbEntity
  8
1
100
AcDbLine
 10
268.5315066527135
 20
472.2751165903281
 30
0.0
 11
260.7456895956
 21
472.6831539721951
 31
0.0
  0
ARC
  5
87A3
330
1A
100
AcDbEntity
  8
1
100
AcDbCircle
 10
260.6496023984989
 20
476.1070895774047
 30
0.0
 40
1.0
100
AcDbArc
 50
86.99999999999439
 51
182.7988546219826
  0
ARC
  5
87A4
330
1A
100
AcDbEntity
  8
1
100
AcDbCircle
 10
261.215245739633
 20
492.5564387446931
 30
0.0
 40
1.0
100
AcDbArc
 50
93.00000000000556
 51
173.2622404725884
  0
ARC
  5
87A5
330
1A
100
AcDbEntity
  8
1
100
AcDbCircle
 10
260.6496023984989
 20
485.7753905781966
 30
0.0
 40
1.0
100
AcDbArc
 50
177.2011453780173
 51
273.0000000000056
  0
ARC
  5
87A6
330
1A
100
AcDbEntity
  8
1
100
AcDbCircle
 10
260.7980255518421
 20
488.2006966486517
 30
0.0
 40
1.0
100
AcDbArc
 50
92.99999999995341
 51
175.7948497559108
  0
ARC
  5
87A7
330
1A
100
AcDbEntity
  8
1
100
AcDbCircle
 10
261.1874673221698
 20
492.3188465111719
 30
0.0
 40
1.0
100
AcDbArc
 50
92.99999999995341
 51
173.4006825026854
  0
LINE
  5
87A8
330
1A
100
AcDbEntity
  8
1
100
AcDbLine
 10
268.5315066527144
 20
493.9412400778008
 30
0.0
 11
261.16290978339
 21
493.5550682794481
 31
0.0
  0
LINE
  5
87A9
330
1A
100
AcDbEntity
  8
1
100
AcDbLine
 10
268.5315066527189
 20
493.7051036494509
 30
0.0
 11
261.1351313659277
 21
493.3174760459265
 31
0.0
  0
LINE
  5
87AA
330
1A
100
AcDbEntity
  8
1
100
AcDbLine
 10
268.5315066527135
 20
489.6073635652732
 30
0.0
 11
260.7456895956
 21
489.1993261834062
 31
0.0
  0
LINE
  5
87AB
330
1A
100
AcDbEntity
  8
1
100
AcDbLine
 10
268.5838426089574
 20
485.1898341419263
 30
0.0
 11
260.701938354742
 21
484.7767610434418
 31
0.0
  0
LINE
  5
87AC
330
1A
100
AcDbEntity
  8
1
100
AcDbLine
 10
273.0315066527171
 20
474.5304020679997
 30
0.0
 11
273.0315066527134
 21
487.3520780876027
 31
0.0
  0
LINE
  5
87AD
330
1A
100
AcDbEntity
  8
1
100
AcDbLine
 10
269.5315066527171
 20
468.9412400778013
 30
0.0
 11
269.5315066527135
 21
492.9412400778009
 31
0.0
  0
LINE
  5
87AE
330
1A
100
AcDbEntity
  8
0
100
AcDbLine
 10
276.731506652716
 20
474.9412400778009
 30
0.0
 11
276.731506652716
 21
486.9412400778009
 31
0.0
  0
LINE
  5
87AF
330
1A
100
AcDbEntity
  8
1
100
AcDbLine
 10
269.5315066527144
 20
473.5085468201368
 30
0.0
 11
272.0402331882159
 21
473.5304401449355
 31
0.0
  0
ARC
  5
87B0
330
1A
100
AcDbEntity
  8
1
100
AcDbCircle
 10
272.0315066527153
 20
474.5304020679993
 30
0.0
 40
1.0
100
AcDbArc
 50
270.5000000000175
 51
0.0000000000130276
  0
LINE
  5
87B1
330
1A
100
AcDbEntity
  8
1
100
AcDbLine
 10
274.6315066527151
 20
474.6912400778009
 30
0.0
 11
273.0315066527154
 21
474.6912400778009
 31
0.0
  0
ARC
  5
87B2
330
1A
100
AcDbEntity
  8
0
100
AcDbCircle
 10
278.3315066527173
 20
474.9412400778009
 30
0.0
 40
1.6
100
AcDbArc
 50
180.0
 51
225.6210880948734
  0
LINE
  5
87B3
330
1A
100
AcDbEntity
  8
0
100
AcDbLine
 10
280.1315066527143
 20
470.9412400778009
 30
0.0
 11
277.2124661300279
 21
473.7976718425914
 31
0.0
  0
LINE
  5
87B4
330
1A
100
AcDbEntity
  8
1
100
AcDbLine
 10
269.5315066527144
 20
488.373933335465
 30
0.0
 11
272.0402331882131
 21
488.3520400106666
 31
0.0
  0
ARC
  5
87B5
330
1A
100
AcDbEntity
  8
1
100
AcDbCircle
 10
272.0315066527135
 20
487.3520780876025
 30
0.0
 40
1.0
100
AcDbArc
 50
0.0000000000130276
 51
89.49999999998238
  0
LINE
  5
87B6
330
1A
100
AcDbEntity
  8
1
100
AcDbLine
 10
274.6315066527153
 20
487.1912400778009
 30
0.0
 11
273.0315066527154
 21
487.1912400778009
 31
0.0
  0
ARC
  5
87B7
330
1A
100
AcDbEntity
  8
0
100
AcDbCircle
 10
278.3315066527173
 20
486.9412400778009
 30
0.0
 40
1.6
100
AcDbArc
 50
134.3789119051265
 51
180.0
  0
LINE
  5
87B8
330
1A
100
AcDbEntity
  8
0
100
AcDbLine
 10
280.1315066527143
 20
490.9412400778008
 30
0.0
 11
277.2124661300279
 21
488.0848083130103
 31
0.0
  0
LINE
  5
87B9
330
1A
100
AcDbEntity
  8
1
100
AcDbLine
 10
285.2437761232419
 20
520.9412400778005
 30
0.0
 11
323.7315066527119
 21
520.941240077801
 31
0.0
  0
ARC
  5
87BA
330
1A
100
AcDbEntity
  8
0
100
AcDbCircle
 10
299.5222575921282
 20
516.4926284014061
 30
0.0
 40
1.0
100
AcDbArc
 50
106.5513675242123
 51
176.9999999999942
  0
LINE
  5
87BB
330
1A
100
AcDbEntity
  8
1
100
AcDbLine
 10
274.6315066527156
 20
520.9412400778009
 30
0.0
 11
295.656507445334
 21
520.9412400778009
 31
0.0
  0
LINE
  5
87BC
330
1A
100
AcDbEntity
  8
0
100
AcDbLine
 10
285.2001417842878
 20
515.9412400778012
 30
0.0
 11
281.7315066527129
 21
515.9412400778018
 31
0.0
  0
LINE
  5
87BD
330
1A
100
AcDbEntity
  8
0
100
AcDbLine
 10
285.214104772753
 20
517.5412400778013
 30
0.0
 11
281.7315066527129
 21
517.5412400778013
 31
0.0
  0
ARC
  5
87BE
330
1A
100
AcDbEntity
  8
0
100
AcDbCircle
 10
281.7315066527129
 20
515.9412400778018
 30
0.0
 40
1.6
100
AcDbArc
 50
90.0
 51
180.0
  0
LINE
  5
87BF
330
1A
100
AcDbEntity
  8
0
100
AcDbLine
 10
295.7001417842878
 20
515.9412400778006
 30
0.0
 11
295.6303268419617
 21
523.9412400778006
 31
0.0
  0
LINE
  5
87C0
330
1A
100
AcDbEntity
  8
0
100
AcDbLine
 10
298.4919882085677
 20
515.9412400778003
 30
0.0
 11
298.5236280573738
 21
516.5449643576493
 31
0.0
  0
LINE
  5
87C1
330
1A
100
AcDbEntity
  8
0
100
AcDbLine
 10
285.2001417842878
 20
515.9412400778006
 30
0.0
 11
285.2526553016758
 21
521.9586931487977
 31
0.0
  0
ARC
  5
87C2
330
1A
100
AcDbEntity
  8
0
100
AcDbCircle
 10
287.252579147804
 20
521.9412400778009
 30
0.0
 40
2.0
100
AcDbArc
 50
90.0
 51
179.4999999999954
  0
LINE
  5
87C3
330
1A
100
AcDbEntity
  8
0
100
AcDbLine
 10
295.6303268419617
 20
523.9412400778006
 30
0.0
 11
287.252579147804
 21
523.9412400778006
 31
0.0
  0
LWPOLYLINE
  5
87C4
330
1A
100
AcDbEntity
  8
0
100
AcDbPolyline
 90
        2
 70
     0
 43
0.0
 10
323.7315066527119
 20
520.7412400778008
 10
301.7315066527118
 20
520.7412400778008
  0
LWPOLYLINE
  5
87C5
330
1A
100
AcDbEntity
  8
0
100
AcDbPolyline
 90
        4
 70
     0
 43
0.0
 10
301.7315066527118
 20
517.7233600996859
 10
301.7315066527118
 20
525.7412400778011
 10
323.7315066527119
 20
525.7412400778011
 10
323.7315066527119
 20
517.7233600996859
  0
LWPOLYLINE
  5
87C6
330
1A
100
AcDbEntity
  8
0
100
AcDbPolyline
 90
        2
 70
     0
 43
0.0
 10
302.5315066527122
 20
520.7412400778008
 10
301.7315066527118
 20
519.3555994317456
  0
LWPOLYLINE
  5
87C7
330
1A
100
AcDbEntity
  8
0
100
AcDbPolyline
 90
        2
 70
     0
 43
0.0
 10
302.5315066527122
 20
525.7412400778011
 10
302.5315066527122
 20
520.7412400778008
  0
ARC
  5
87C8
330
1A
100
AcDbEntity
  8
0
100
AcDbCircle
 10
302.9407557132938
 20
516.4926284014061
 30
0.0
 40
1.0
100
AcDbArc
 50
3.000000000005806
 51
73.4486324757877
  0
ARC
  5
87C9
330
1A
100
AcDbEntity
  8
0
100
AcDbCircle
 10
301.231506652711
 20
510.7412400778009
 30
0.0
 40
7.000000000000285
100
AcDbArc
 50
73.4486324757877
 51
106.5513675242123
  0
LINE
  5
87CA
330
1A
100
AcDbEntity
  8
0
100
AcDbLine
 10
303.9393852480487
 20
516.5449643576493
 30
0.0
 11
303.9710250968544
 21
515.9412400778003
 31
0.0
  0
ARC
  5
87CB
330
1A
100
AcDbEntity
  8
0
100
AcDbCircle
 10
325.9407557132952
 20
516.4926284014061
 30
0.0
 40
1.0
100
AcDbArc
 50
3.000000000005806
 51
73.4486324757877
  0
ARC
  5
87CC
330
1A
100
AcDbEntity
  8
0
100
AcDbCircle
 10
324.2315066527124
 20
510.7412400778009
 30
0.0
 40
7.000000000000285
100
AcDbArc
 50
73.4486324757877
 51
106.5513675242123
  0
LINE
  5
87CD
330
1A
100
AcDbEntity
  8
0
100
AcDbLine
 10
326.9710250968558
 20
515.9412400778003
 30
0.0
 11
326.93938524805
 21
516.5449643576493
 31
0.0
  0
LWPOLYLINE
  5
87CE
330
1A
100
AcDbEntity
  8
0
100
AcDbPolyline
 90
        2
 70
     0
 43
0.0
 10
322.9315066527117
 20
520.7412400778008
 10
323.7315066527119
 20
519.3555994317456
  0
LWPOLYLINE
  5
87CF
330
1A
100
AcDbEntity
  8
0
100
AcDbPolyline
 90
        2
 70
     0
 43
0.0
 10
322.9315066527117
 20
525.7412400778011
 10
322.9315066527117
 20
520.7412400778008
  0
LINE
  5
87D0
330
1A
100
AcDbEntity
  8
0
100
AcDbLine
 10
321.5236280573752
 20
516.5449643576493
 30
0.0
 11
321.4919882085689
 21
515.9412400778003
 31
0.0
  0
ARC
  5
87D1
330
1A
100
AcDbEntity
  8
0
100
AcDbCircle
 10
322.52225759213
 20
516.4926284014061
 30
0.0
 40
1.0
100
AcDbArc
 50
106.5513675242123
 51
176.9999999999942
  0
LINE
  5
87D2
330
1A
100
AcDbEntity
  8
1
100
AcDbLine
 10
473.231506652716
 20
440.9412400778008
 30
0.0
 11
473.2315066527148
 21
520.9412400778009
 31
0.0
  0
LINE
  5
87D3
330
1A
100
AcDbEntity
  8
1
100
AcDbLine
 10
474.8315066527154
 20
440.9412400778008
 30
0.0
 11
474.8315066527164
 21
520.9412400778009
 31
0.0
  0
ARC
  5
87D5
330
1A
100
AcDbEntity
  8
0
100
AcDbCircle
 10
464.6205497505877
 20
513.9412400778009
 30
0.0
 40
2.0
100
AcDbArc
 50
0.5000000000045775
 51
90.0
  0
LINE
  5
87D6
330
1A
100
AcDbEntity
  8
0
100
AcDbLine
 10
467.7315066527159
 20
444.4412400778004
 30
0.0
 11
467.7315066527133
 21
515.9412400778018
 31
0.0
  0
LINE
  5
87D7
330
1A
100
AcDbEntity
  8
0
100
AcDbLine
 10
469.3315066527136
 20
470.8412400778005
 30
0.0
 11
469.3315066527132
 21
515.9412400778018
 31
0.0
  0
LINE
  5
8848
330
1A
100
AcDbEntity
  8
0
100
AcDbLine
 10
466.620473596716
 20
513.9586931487973
 30
0.0
 11
467.2315066527128
 21
443.9412400778008
 31
0.0
  0
LINE
  5
884A
330
1A
100
AcDbEntity
  8
0
100
AcDbLine
 10
469.3315066527136
 20
444.4412400778004
 30
0.0
 11
469.3315066527136
 21
470.8412400778005
 31
0.0
  0
LINE
  5
884D
330
1A
100
AcDbEntity
  8
0
100
AcDbLine
 10
470.0447198995468
 20
430.8365681653151
 30
0.0
 11
470.7315066527128
 21
443.9412400778008
 31
0.0
  0
ARC
  5
884E
330
1A
100
AcDbEntity
  8
0
100
AcDbCircle
 10
468.0474608300376
 20
430.9412400778009
 30
0.0
 40
2.0
100
AcDbArc
 50
270.0
 51
357.0000000000077
  0
LINE
  5
8860
330
1A
100
AcDbEntity
  8
1
100
AcDbLine
 10
470.5742833148636
 20
440.9412400778008
 30
0.0
 11
474.8315066527154
 21
440.9412400778008
 31
0.0
  0
LINE
  5
8861
330
1A
100
AcDbEntity
  8
0
100
AcDbLine
 10
467.7315066527159
 20
444.4412400778004
 30
0.0
 11
469.3315066527132
 21
444.4412400778004
 31
0.0
  0
LINE
  5
8862
330
1A
100
AcDbEntity
  8
1
100
AcDbLine
 10
476.4315066527148
 20
474.5304020679997
 30
0.0
 11
476.4315066527185
 21
487.3520780876027
 31
0.0
  0
LINE
  5
8863
330
1A
100
AcDbEntity
  8
1
100
AcDbLine
 10
479.9315066527149
 20
468.9412400778013
 30
0.0
 11
479.9315066527183
 21
492.9412400778009
 31
0.0
  0
ARC
  5
8864
330
1A
100
AcDbEntity
  8
1
100
AcDbCircle
 10
389.9315066527194
 20
480.9412400778011
 30
0.0
 40
100.0
100
AcDbArc
 50
353.2622404725885
 51
6.737759527411562
  0
LINE
  5
8865
330
1A
100
AcDbEntity
  8
0
100
AcDbLine
 10
472.7315066527101
 20
474.9412400778009
 30
0.0
 11
472.7315066527101
 21
486.9412400778009
 31
0.0
  0
LINE
  5
8866
330
1A
100
AcDbEntity
  8
1
100
AcDbLine
 10
480.8791706964746
 20
476.692646013675
 30
0.0
 11
488.7610749506898
 21
477.1057191121593
 31
0.0
  0
LINE
  5
8867
330
1A
100
AcDbEntity
  8
1
100
AcDbLine
 10
480.9315066527175
 20
467.9412400778002
 30
0.0
 11
488.3001035220409
 21
468.3274118761538
 31
0.0
  0
LINE
  5
8868
330
1A
100
AcDbEntity
  8
1
100
AcDbLine
 10
480.9315066527131
 20
468.1773765061506
 30
0.0
 11
488.3278819395043
 21
468.5650041096748
 31
0.0
  0
LINE
  5
8869
330
1A
100
AcDbEntity
  8
1
100
AcDbLine
 10
480.9315066527185
 20
472.2751165903281
 30
0.0
 11
488.717323709832
 21
472.6831539721951
 31
0.0
  0
ARC
  5
886A
330
1A
100
AcDbEntity
  8
1
100
AcDbCircle
 10
480.9315066527175
 20
468.9412400778011
 30
0.0
 40
1.0
100
AcDbArc
 50
180.0
 51
270.0
  0
ARC
  5
886B
330
1A
100
AcDbEntity
  8
1
100
AcDbCircle
 10
480.931506652714
 20
469.1773765061504
 30
0.0
 40
1.0
100
AcDbArc
 50
180.0
 51
270.0
  0
ARC
  5
8877
330
1A
100
AcDbEntity
  8
1
100
AcDbCircle
 10
480.9315066527195
 20
473.2751165903281
 30
0.0
 40
1.0
100
AcDbArc
 50
180.0
 51
270.0
  0
ARC
  5
8878
330
1A
100
AcDbEntity
  8
1
100
AcDbCircle
 10
477.4315066527166
 20
474.5304020679993
 30
0.0
 40
1.0
100
AcDbArc
 50
179.999999999987
 51
269.4999999999824
  0
LINE
  5
8879
330
1A
100
AcDbEntity
  8
1
100
AcDbLine
 10
474.8315066527161
 20
474.6912400778009
 30
0.0
 11
476.4315066527156
 21
474.6912400778009
 31
0.0
  0
LINE
  5
887A
330
1A
100
AcDbEntity
  8
1
100
AcDbLine
 10
479.9315066527175
 20
473.5085468201368
 30
0.0
 11
477.4227801172162
 21
473.5304401449355
 31
0.0
  0
ARC
  5
887B
330
1A
100
AcDbEntity
  8
1
100
AcDbCircle
 10
480.9315066527175
 20
475.6940164789206
 30
0.0
 40
1.0
100
AcDbArc
 50
93.00000000000556
 51
180.0
  0
ARC
  5
887C
330
1A
100
AcDbEntity
  8
0
100
AcDbCircle
 10
471.1315066527088
 20
474.9412400778009
 30
0.0
 40
1.6
100
AcDbArc
 50
314.3789119051263
 51
0.0
  0
LINE
  5
887D
330
1A
100
AcDbEntity
  8
0
100
AcDbLine
 10
469.3315066527118
 20
470.9412400778009
 30
0.0
 11
472.2505471753977
 21
473.7976718425914
 31
0.0
  0
ARC
  5
887E
330
1A
100
AcDbEntity
  8
1
100
AcDbCircle
 10
488.2477675657987
 20
469.3260414109082
 30
0.0
 40
1.0
100
AcDbArc
 50
273.0000000000056
 51
353.2622404725747
  0
ARC
  5
887F
330
1A
100
AcDbEntity
  8
1
100
AcDbCircle
 10
488.2755459832622
 20
469.5636336444294
 30
0.0
 40
1.0
100
AcDbArc
 50
272.9999999999535
 51
353.4006825026854
  0
ARC
  5
8880
330
1A
100
AcDbEntity
  8
1
100
AcDbCircle
 10
488.6649877535898
 20
473.6817835069496
 30
0.0
 40
1.0
100
AcDbArc
 50
272.9999999999535
 51
355.7948497559108
  0
ARC
  5
8881
330
1A
100
AcDbEntity
  8
1
100
AcDbCircle
 10
488.8134109069331
 20
476.1070895774047
 30
0.0
 40
1.0
100
AcDbArc
 50
357.2011453780174
 51
93.00000000000556
  0
LINE
  5
8882
330
1A
100
AcDbEntity
  8
1
100
AcDbLine
 10
480.9315066527175
 20
493.9412400778008
 30
0.0
 11
488.3001035220418
 21
493.5550682794481
 31
0.0
  0
LINE
  5
8883
330
1A
100
AcDbEntity
  8
1
100
AcDbLine
 10
480.9315066527131
 20
493.7051036494509
 30
0.0
 11
488.3278819395043
 21
493.3174760459265
 31
0.0
  0
LINE
  5
8884
330
1A
100
AcDbEntity
  8
1
100
AcDbLine
 10
480.9315066527185
 20
489.6073635652732
 30
0.0
 11
488.717323709832
 21
489.1993261834062
 31
0.0
  0
LINE
  5
8885
330
1A
100
AcDbEntity
  8
1
100
AcDbLine
 10
480.8791706964746
 20
485.1898341419263
 30
0.0
 11
488.7610749506898
 21
484.7767610434418
 31
0.0
  0
ARC
  5
8886
330
1A
100
AcDbEntity
  8
1
100
AcDbCircle
 10
480.9315066527185
 20
492.9412400778011
 30
0.0
 40
1.0
100
AcDbArc
 50
90.0
 51
180.0
  0
ARC
  5
8887
330
1A
100
AcDbEntity
  8
1
100
AcDbCircle
 10
480.931506652714
 20
492.7051036494511
 30
0.0
 40
1.0
100
AcDbArc
 50
90.0
 51
180.0
  0
ARC
  5
8888
330
1A
100
AcDbEntity
  8
1
100
AcDbCircle
 10
480.9315066527195
 20
488.6073635652732
 30
0.0
 40
1.0
100
AcDbArc
 50
90.0
 51
180.0
  0
ARC
  5
8889
330
1A
100
AcDbEntity
  8
1
100
AcDbCircle
 10
480.9315066527175
 20
486.1884636766808
 30
0.0
 40
1.0
100
AcDbArc
 50
180.0
 51
266.9999999999944
  0
ARC
  5
888A
330
1A
100
AcDbEntity
  8
1
100
AcDbCircle
 10
477.4315066527186
 20
487.3520780876025
 30
0.0
 40
1.0
100
AcDbArc
 50
90.50000000001757
 51
179.999999999987
  0
LINE
  5
888B
330
1A
100
AcDbEntity
  8
1
100
AcDbLine
 10
474.8315066527156
 20
487.1912400778009
 30
0.0
 11
476.4315066527156
 21
487.1912400778009
 31
0.0
  0
LINE
  5
888C
330
1A
100
AcDbEntity
  8
1
100
AcDbLine
 10
479.9315066527175
 20
488.373933335465
 30
0.0
 11
477.4227801172187
 21
488.3520400106666
 31
0.0
  0
ARC
  5
888D
330
1A
100
AcDbEntity
  8
0
100
AcDbCircle
 10
471.1315066527088
 20
486.9412400778009
 30
0.0
 40
1.6
100
AcDbArc
 50
0.0
 51
45.6210880948734
  0
LINE
  5
888E
330
1A
100
AcDbEntity
  8
0
100
AcDbLine
 10
469.3315066527118
 20
490.9412400778008
 30
0.0
 11
472.2505471753977
 21
488.0848083130103
 31
0.0
  0
ARC
  5
888F
330
1A
100
AcDbEntity
  8
1
100
AcDbCircle
 10
488.2477675657987
 20
492.5564387446931
 30
0.0
 40
1.0
100
AcDbArc
 50
6.737759527411562
 51
86.99999999999439
  0
ARC
  5
8890
330
1A
100
AcDbEntity
  8
1
100
AcDbCircle
 10
488.8134109069331
 20
485.7753905781966
 30
0.0
 40
1.0
100
AcDbArc
 50
266.9999999999944
 51
2.798854621982652
  0
ARC
  5
8891
330
1A
100
AcDbEntity
  8
1
100
AcDbCircle
 10
488.6649877535898
 20
488.2006966486517
 30
0.0
 40
1.0
100
AcDbArc
 50
4.205150244089002
 51
87.00000000004658
  0
ARC
  5
8892
330
1A
100
AcDbEntity
  8
1
100
AcDbCircle
 10
488.2755459832622
 20
492.3188465111719
 30
0.0
 40
1.0
100
AcDbArc
 50
6.599317497314594
 51
87.00000000004658
  0
LINE
  5
8893
330
1A
100
AcDbEntity
  8
1
100
AcDbLine
 10
464.2192371821843
 20
520.9412400778009
 30
0.0
 11
474.8315066527154
 21
520.9412400778009
 31
0.0
  0
LINE
  5
8894
330
1A
100
AcDbEntity
  8
0
100
AcDbLine
 10
464.2628715211379
 20
515.9412400778012
 30
0.0
 11
467.7315066527133
 21
515.9412400778018
 31
0.0
  0
LINE
  5
8895
330
1A
100
AcDbEntity
  8
0
100
AcDbLine
 10
464.2489085326726
 20
517.5412400778013
 30
0.0
 11
467.7315066527133
 21
517.5412400778013
 31
0.0
  0
LINE
  5
8896
330
1A
100
AcDbEntity
  8
0
100
AcDbLine
 10
464.2628715211379
 20
515.9412400778006
 30
0.0
 11
464.2103580037503
 21
521.9586931487977
 31
0.0
  0
ARC
  5
8897
330
1A
100
AcDbEntity
  8
0
100
AcDbCircle
 10
462.2104341576218
 20
521.9412400778009
 30
0.0
 40
2.0
100
AcDbArc
 50
0.5000000000045775
 51
90.0
  0
LINE
  5
8898
330
1A
100
AcDbEntity
  8
0
100
AcDbLine
 10
453.7628715211383
 20
515.9412400778006
 30
0.0
 11
453.8326864634641
 21
523.9412400778006
 31
0.0
  0
LINE
  5
8899
330
1A
100
AcDbEntity
  8
0
100
AcDbLine
 10
453.8326864634641
 20
523.9412400778006
 30
0.0
 11
462.2104341576218
 21
523.9412400778006
 31
0.0
  0
ARC
  5
889A
330
1A
100
AcDbEntity
  8
0
100
AcDbCircle
 10
467.7315066527133
 20
515.9412400778018
 30
0.0
 40
1.6
100
AcDbArc
 50
0.0
 51
90.0
  0
LINE
  5
889B
330
1A
100
AcDbEntity
  8
1
100
AcDbLine
 10
618.3183826333658
 20
237.2890028705552
 30
0.0
 11
618.3183826333658
 21
251.1265780967577
 31
0.0
  0
ARC
  5
889C
330
1A
100
AcDbEntity
  8
1
100
AcDbCircle
 10
613.3183826333659
 20
237.2890028705552
 30
0.0
 40
3.0
100
AcDbArc
 50
270.0
 51
0.0
  0
LINE
  5
889D
330
1A
100
AcDbEntity
  8
1
100
AcDbLine
 10
609.3183826333659
 20
234.2890028705552
 30
0.0
 11
613.3183826333659
 21
234.2890028705552
 31
0.0
  0
ARC
  5
889E
330
1A
100
AcDbEntity
  8
1
100
AcDbCircle
 10
609.3183826333659
 20
237.2890028705552
 30
0.0
 40
3.0
100
AcDbArc
 50
180.0
 51
270.0
  0
LINE
  5
889F
330
1A
100
AcDbEntity
  8
1
100
AcDbLine
 10
606.3183826333657
 20
237.2890028705552
 30
0.0
 11
616.3183826333659
 21
237.2890028705552
 31
0.0
  0
LINE
  5
88A0
330
1A
100
AcDbEntity
  8
1
100
AcDbLine
 10
617.8056053226807
 20
253.3322146344723
 30
0.0
 11
590.4027081316677
 21
309.0816093900902
 31
0.0
  0
ARC
  5
88A1
330
1A
100
AcDbEntity
  8
1
100
AcDbCircle
 10
593.8183780378209
 20
304.2890051199498
 30
0.0
 40
5.0
100
AcDbArc
 50
132.0738552364601
 51
227.9261447635398
  0
LINE
  5
88A2
330
1A
100
AcDbEntity
  8
0
100
AcDbLine
 10
621.3183826333668
 20
316.2191901776245
 30
0.0
 11
621.3183826333662
 21
292.3588200622756
 31
0.0
  0
LINE
  5
88A3
330
1A
100
AcDbEntity
  8
0
100
AcDbLine
 10
614.9183826333668
 20
294.2890051199496
 30
0.0
 11
614.9183826333671
 21
314.2890051199496
 31
0.0
  0
LINE
  5
88A4
330
1A
100
AcDbEntity
  8
0
100
AcDbLine
 10
615.3851321511361
 20
308.9890051199494
 30
0.0
 11
615.3851321511361
 21
299.5890051199498
 31
0.0
  0
ARC
  5
88A5
330
1A
100
AcDbEntity
  8
0
100
AcDbCircle
 10
610.9695688367708
 20
304.2890051199496
 30
0.0
 40
6.448813796596449
100
AcDbArc
 50
313.212756037462
 51
46.78724396253804
  0
LINE
  5
88A6
330
1A
100
AcDbEntity
  8
0
100
AcDbLine
 10
614.9183826333671
 20
308.9890051199494
 30
0.0
 11
614.9183826333671
 21
299.5890051199498
 31
0.0
  0
LINE
  5
88A7
330
1A
100
AcDbEntity
  8
0
100
AcDbLine
 10
613.3183826333677
 20
294.2890051199496
 30
0.0
 11
613.3183826333682
 21
275.3999620220787
 31
0.0
  0
ARC
  5
88A8
330
1A
100
AcDbEntity
  8
0
100
AcDbCircle
 10
611.3183826333677
 20
275.3999620220787
 30
0.0
 40
2.0
100
AcDbArc
 50
270.4999999999915
 51
0.0
  0
LINE
  5
88A9
330
1A
100
AcDbEntity
  8
0
100
AcDbLine
 10
611.3358357043646
 20
273.40003817595
 30
0.0
 11
607.9560230192569
 21
273.3705429974896
 31
0.0
  0
ARC
  5
88AA
330
1A
100
AcDbEntity
  8
1
100
AcDbCircle
 10
613.3183826333659
 20
251.1265780967577
 30
0.0
 40
5.0
100
AcDbArc
 50
0.0
 51
26.175829932969
  0
LINE
  5
88AB
330
1A
100
AcDbEntity
  8
0
100
AcDbLine
 10
613.3183826333662
 20
292.28900511995
 30
0.0
 11
621.3183826333662
 21
292.3588200622756
 31
0.0
  0
LINE
  5
88AC
330
1A
100
AcDbEntity
  8
0
100
AcDbLine
 10
613.3183826333662
 20
293.7890051199505
 30
0.0
 11
621.3183826333662
 21
293.7191901776235
 31
0.0
  0
ARC
  5
88AD
330
1A
100
AcDbEntity
  8
0
100
AcDbCircle
 10
611.3183826333677
 20
291.7297881001585
 30
0.0
 40
2.0
100
AcDbArc
 50
270.5000000000175
 51
0.0
  0
LINE
  5
88AE
330
1A
100
AcDbEntity
  8
0
100
AcDbLine
 10
599.9635914358607
 20
289.6306201818151
 30
0.0
 11
611.335835704364
 21
289.7298642540303
 31
0.0
  0
LINE
  5
88AF
330
1A
100
AcDbEntity
  8
0
100
AcDbLine
 10
597.6738222985377
 20
294.2890051199496
 30
0.0
 11
614.9183826333671
 21
294.2890051199496
 31
0.0
  0
ARC
  5
88B0
330
1A
100
AcDbEntity
  8
1
100
AcDbCircle
 10
590.1328941668522
 20
300.206455838333
 30
0.0
 40
0.5
100
AcDbArc
 50
340.9372222868971
 51
47.92614476353985
  0
ARC
  5
88B1
330
1A
100
AcDbEntity
  8
1
100
AcDbCircle
 10
587.7612274924192
 20
296.0986086595957
 30
0.0
 40
0.5
100
AcDbArc
 50
252.0738552364959
 51
319.0627777130341
  0
ARC
  5
88B2
330
1A
100
AcDbEntity
  8
1
100
AcDbCircle
 10
578.3183780378192
 20
304.2890051199492
 30
0.0
 40
13.0
100
AcDbArc
 50
319.0627777130893
 51
340.9372222869261
  0
LINE
  5
88B3
330
1A
100
AcDbEntity
  8
0
100
AcDbLine
 10
615.3851321511361
 20
299.5890051199498
 30
0.0
 11
614.9183826333671
 21
299.5890051199498
 31
0.0
  0
LINE
  5
88B4
330
1A
100
AcDbEntity
  8
0
100
AcDbLine
 10
613.3183826333677
 20
361.1780482178273
 30
0.0
 11
613.3183826333677
 21
314.2890051199496
 31
0.0
  0
LINE
  5
88B6
330
1A
100
AcDbEntity
  8
0
100
AcDbLine
 10
613.3183826333667
 20
316.2890051199505
 30
0.0
 11
621.3183826333668
 21
316.2191901776245
 31
0.0
  0
LINE
  5
88B7
330
1A
100
AcDbEntity
  8
0
100
AcDbLine
 10
613.3183826333667
 20
314.7890051199505
 30
0.0
 11
621.3183826333672
 21
314.8588200622766
 31
0.0
  0
ARC
  5
88B8
330
1A
100
AcDbEntity
  8
1
100
AcDbCircle
 10
590.1328941668522
 20
308.3715544015666
 30
0.0
 40
0.5
100
AcDbArc
 50
312.0738552365316
 51
19.06277771307397
  0
ARC
  5
88B9
330
1A
100
AcDbEntity
  8
1
100
AcDbCircle
 10
587.7612274924182
 20
312.4794015803037
 30
0.0
 40
0.5
100
AcDbArc
 50
40.93722228694749
 51
107.9261447635041
  0
ARC
  5
88BA
330
1A
100
AcDbEntity
  8
1
100
AcDbCircle
 10
578.3183780378192
 20
304.2890051199492
 30
0.0
 40
13.0
100
AcDbArc
 50
19.0627777130884
 51
40.9372222869107
  0
LINE
  5
88BC
330
1A
100
AcDbEntity
  8
0
100
AcDbLine
 10
615.3851321511361
 20
308.9890051199494
 30
0.0
 11
614.9183826333671
 21
308.9890051199494
 31
0.0
  0
ARC
  5
88BE
330
1A
100
AcDbEntity
  8
0
100
AcDbCircle
 10
611.3183826333677
 20
361.1780482178273
 30
0.0
 40
2.0
100
AcDbArc
 50
0.0
 51
89.50000000000846
  0
LINE
  5
8C2B
330
1A
100
AcDbEntity
  8
0
100
AcDbLine
 10
421.2315066527128
 20
270.2890051199503
 30
0.0
 11
465.0171399024023
 21
270.2890051199501
 31
0.0
  0
LINE
  5
8C2E
330
1A
100
AcDbEntity
  8
0
100
AcDbLine
 10
464.5602424417083
 20
270.771156689353
 30
0.0
 11
421.9315066527117
 21
270.771156689353
 31
0.0
  0
LINE
  5
8C2F
330
1A
100
AcDbEntity
  8
0
100
AcDbLine
 10
464.2717903134585
 20
271.075121809194
 30
0.0
 11
421.9315066527117
 21
271.075121809194
 31
0.0
  0
LINE
  5
8C30
330
1A
100
AcDbEntity
  8
0
100
AcDbLine
 10
423.4315066527129
 20
288.0890051199511
 30
0.0
 11
470.2126552534912
 21
288.0890051199524
 31
0.0
  0
LINE
  5
8C34
330
1A
100
AcDbEntity
  8
0
100
AcDbLine
 10
421.2315066527128
 20
286.7890051199514
 30
0.0
 11
421.2315066527128
 21
270.2890051199514
 31
0.0
  0
LINE
  5
8C36
330
1A
100
AcDbEntity
  8
0
100
AcDbLine
 10
421.9315066527126
 20
286.5890051199512
 30
0.0
 11
421.9315066527126
 21
270.7606751334992
 31
0.0
  0
ARC
  5
8C3C
330
1A
100
AcDbEntity
  8
0
100
AcDbCircle
 10
423.231506652713
 20
286.7890051199514
 30
0.0
 40
2.0
100
AcDbArc
 50
90.0
 51
180.0
  0
ARC
  5
8C3E
330
1A
100
AcDbEntity
  8
0
100
AcDbCircle
 10
423.4315066527129
 20
286.5890051199512
 30
0.0
 40
1.5
100
AcDbArc
 50
90.0
 51
180.0
  0
LINE
  5
8C3F
330
1A
100
AcDbEntity
  8
0
100
AcDbLine
 10
439.8315066527125
 20
286.5890051199512
 30
0.0
 11
451.0315066527123
 21
286.589005119952
 31
0.0
  0
LINE
  5
8C40
330
1A
100
AcDbEntity
  8
0
100
AcDbLine
 10
445.4315066527124
 20
278.0890051199516
 30
0.0
 11
439.7164206683883
 21
279.8059186855629
 31
0.0
  0
LINE
  5
8C41
330
1A
100
AcDbEntity
  8
0
100
AcDbLine
 10
439.8315066527125
 20
285.7890051199514
 30
0.0
 11
451.0315066527123
 21
285.7890051199523
 31
0.0
  0
LINE
  5
8C42
330
1A
100
AcDbEntity
  8
0
100
AcDbLine
 10
439.8315066527125
 20
284.5890051199511
 30
0.0
 11
451.0315066527123
 21
284.589005119952
 31
0.0
  0
LINE
  5
8C43
330
1A
100
AcDbEntity
  8
0
100
AcDbLine
 10
439.8315066527125
 20
283.7890051199514
 30
0.0
 11
451.0315066527123
 21
283.7890051199523
 31
0.0
  0
LINE
  5
8C44
330
1A
100
AcDbEntity
  8
0
100
AcDbLine
 10
439.8315066527125
 20
282.5890051199511
 30
0.0
 11
451.0315066527123
 21
282.589005119952
 31
0.0
  0
LINE
  5
8C45
330
1A
100
AcDbEntity
  8
0
100
AcDbLine
 10
439.8315066527125
 20
281.7890051199514
 30
0.0
 11
451.0315066527123
 21
281.7890051199523
 31
0.0
  0
LINE
  5
8C46
330
1A
100
AcDbEntity
  8
0
100
AcDbLine
 10
439.8315066527125
 20
280.5890051199511
 30
0.0
 11
451.0315066527123
 21
280.589005119952
 31
0.0
  0
ARC
  5
8C47
330
1A
100
AcDbEntity
  8
0
100
AcDbCircle
 10
439.8315066527125
 20
284.1890051199511
 30
0.0
 40
0.4
100
AcDbArc
 50
90.0
 51
270.0
  0
ARC
  5
8C48
330
1A
100
AcDbEntity
  8
0
100
AcDbCircle
 10
439.8315066527125
 20
282.1890051199511
 30
0.0
 40
0.4
100
AcDbArc
 50
90.0
 51
270.0
  0
ARC
  5
8C49
330
1A
100
AcDbEntity
  8
0
100
AcDbCircle
 10
439.8315066527125
 20
280.189005119951
 30
0.0
 40
0.4
100
AcDbArc
 50
90.0
 51
253.278796594234
  0
ARC
  5
8C4A
330
1A
100
AcDbEntity
  8
0
100
AcDbCircle
 10
439.8315066527125
 20
286.1890051199512
 30
0.0
 40
0.4
100
AcDbArc
 50
90.0
 51
270.0
  0
ARC
  5
8C4B
330
1A
100
AcDbEntity
  8
0
100
AcDbCircle
 10
451.0315066527123
 20
284.1890051199511
 30
0.0
 40
0.4
100
AcDbArc
 50
270.0
 51
90.0
  0
ARC
  5
8C4C
330
1A
100
AcDbEntity
  8
0
100
AcDbCircle
 10
451.0315066527123
 20
282.1890051199511
 30
0.0
 40
0.4
100
AcDbArc
 50
270.0
 51
90.0
  0
ARC
  5
8C4D
330
1A
100
AcDbEntity
  8
0
100
AcDbCircle
 10
451.0315066527123
 20
280.189005119951
 30
0.0
 40
0.4
100
AcDbArc
 50
286.721203405766
 51
90.0
  0
LINE
  5
8C4E
330
1A
100
AcDbEntity
  8
0
100
AcDbLine
 10
445.4315066527124
 20
278.0890051199516
 30
0.0
 11
451.1465926370365
 21
279.8059186855629
 31
0.0
  0
ARC
  5
8C4F
330
1A
100
AcDbEntity
  8
0
100
AcDbCircle
 10
451.0315066527123
 20
286.1890051199512
 30
0.0
 40
0.4
100
AcDbArc
 50
270.0
 51
90.0
  0
LINE
  5
8C50
330
1A
100
AcDbEntity
  8
0
100
AcDbLine
 10
470.7315066527129
 20
288.789005119951
 30
0.0
 11
470.0102875761748
 21
275.0273253387358
 31
0.0
  0
LINE
  5
8C51
330
1A
100
AcDbEntity
  8
0
100
AcDbLine
 10
469.5533901154806
 20
275.5094769081378
 30
0.0
 11
470.2126552534912
 21
288.0890051199524
 31
0.0
  0
LINE
  5
8C52
330
1A
100
AcDbEntity
  8
0
100
AcDbLine
 10
469.9082729883302
 20
288.0890051199489
 30
0.0
 11
469.2649379872313
 21
275.8134420279792
 31
0.0
  0
ARC
  5
8C53
330
1A
100
AcDbEntity
  8
0
100
AcDbCircle
 10
464.2717903134585
 20
276.075121809194
 30
0.0
 40
5.0
100
AcDbArc
 50
270.0
 51
356.9999999999942
  0
ARC
  5
8C54
330
1A
100
AcDbEntity
  8
0
100
AcDbCircle
 10
464.5602424417083
 20
275.7711566893525
 30
0.0
 40
5.0
100
AcDbArc
 50
270.0
 51
356.9999999999942
  0
ARC
  5
8C55
330
1A
100
AcDbEntity
  8
0
100
AcDbCircle
 10
465.0171399024023
 20
275.2890051199505
 30
0.0
 40
5.0
100
AcDbArc
 50
270.0
 51
356.9999999999942
  0
LINE
  5
8C57
330
1A
100
AcDbEntity
  8
0
100
AcDbLine
 10
423.231506652713
 20
288.7890051199514
 30
0.0
 11
470.7315066527129
 21
288.7890051199514
 31
0.0
  0
DIMENSION
  5
8C60
330
1A
100
AcDbEntity
  8
MEASURE
100
AcDbDimension
  2
*D0
 10
70.27281129216
 20
234.2890051199528
 30
0.0
 11
64.70138272073135
 21
300.2890051199526
 31
0.0
 70
    32
  1
(<>)
 71
     5
 42
131.9999999999996
  3
AD-STANDARD(0.5)
100
AcDbAlignedDimension
 13
185.6870496523925
 23
366.2890051199523
 33
0.0
 14
113.6870542479391
 24
234.2890051199528
 34
0.0
 50
90.0
100
AcDbRotatedDimension
  0
DIMENSION
  5
8CF5
330
1A
100
AcDbEntity
  8
MEASURE
100
AcDbDimension
  2
*D1
 10
81.53407556030423
 20
234.2890051199528
 30
0.0
 11
77.53407556030419
 21
221.6890051199528
 31
0.0
 70
    32
 71
     5
 42
3.0
  3
AD-STANDARD(0.5)
100
AcDbAlignedDimension
 13
108.6870542479391
 23
237.2890051199528
 33
0.0
 14
117.6870542479391
 24
234.2890051199528
 34
0.0
 50
90.0
100
AcDbRotatedDimension
  0
DIMENSION
  5
8D06
330
1A
100
AcDbEntity
  8
MEASURE
100
AcDbDimension
  2
*D2
 10
81.53407556030423
 20
317.2890073693467
 30
0.0
 11
77.53407556030419
 21
277.2890062446498
 31
0.0
 70
    32
 71
     5
 42
80.00000224939395
  3
AD-STANDARD(0.5)
100
AcDbAlignedDimension
 13
108.6870542479391
 23
237.2890051199528
 33
0.0
 14
148.6870496523925
 24
317.2890073693467
 34
0.0
 50
90.0
100
AcDbRotatedDimension
  0
DIMENSION
  5
8D8E
330
1A
100
AcDbEntity
  8
MEASURE
100
AcDbDimension
  2
*D3
 10
474.8315066527154
 20
36.21338426574447
 30
0.0
 11
374.7315066527156
 21
40.21338426574446
 31
0.0
 70
    32
 71
     5
 42
200.1999999999998
  3
AD-STANDARD(0.5)
100
AcDbAlignedDimension
 13
274.6315066527156
 23
80.28868651176697
 33
0.0
 14
474.8315066527154
 24
80.28868651176697
 34
0.0
100
AcDbRotatedDimension
  0
DIMENSION
  5
8E23
330
1A
100
AcDbEntity
  8
MEASURE
100
AcDbDimension
  2
*D4
 10
339.7315066527153
 20
120.2886865117665
 30
0.0
 11
363.6371043146381
 21
129.2295274767439
 31
0.0
 70
   164
  1
2-φ5
 71
     5
 42
2.500000000000794
  3
AD-STANDARD(0.5)
100
AcDbRadialDimension
 15
342.0730937963611
 25
121.1644545453899
 35
0.0
 40
0.0
1001
ACAD
1000
DSTYLE
1002
{
1070
   172
1070
     0
1002
}
  0
DIMENSION
  5
8EFE
330
1A
100
AcDbEntity
  8
MEASURE
100
AcDbDimension
  2
*D5
 10
450.7315066527159
 20
103.9874156589809
 30
0.0
 11
456.731506652716
 21
107.9874156589809
 31
0.0
 70
    32
 71
     5
 42
12.0
  3
AD-STANDARD(0.5)
100
AcDbAlignedDimension
 13
462.731506652716
 23
96.28868651176695
 33
0.0
 14
450.7315066527159
 24
96.28868651176695
 34
0.0
100
AcDbRotatedDimension
  0
DIMENSION
  5
8FAB
330
1A
100
AcDbEntity
  8
MEASURE
100
AcDbDimension
  2
*D6
 10
148.6870496523925
 20
217.0261802249831
 30
0.0
 11
128.6870519501658
 21
221.0261802249831
 31
0.0
 70
    32
 71
     5
 42
39.99999540445333
  3
AD-STANDARD(0.5)
100
AcDbAlignedDimension
 13
108.6870542479391
 23
237.2890051199528
 33
0.0
 14
148.6870496523925
 24
304.2890073693471
 34
0.0
100
AcDbRotatedDimension
  0
DIMENSION
  5
8FC6
330
1A
100
AcDbEntity
  8
MEASURE
100
AcDbDimension
  2
*D7
 10
188.6870542479391
 20
217.0261802249831
 30
0.0
 11
168.6870519501658
 21
221.0261802249831
 31
0.0
 70
    32
 71
     5
 42
40.00000459554667
  3
AD-STANDARD(0.5)
100
AcDbAlignedDimension
 13
148.6870496523925
 23
304.2890073693471
 33
0.0
 14
188.6870542479391
 24
237.2890051199528
 34
0.0
100
AcDbRotatedDimension
  0
MTEXT
  5
8FD4
330
1A
100
AcDbEntity
  8
MEASURE
 62
     2
100
AcDbMText
 10
402.3077780213434
 20
127.9018267385114
 30
0.0
 40
6.0
 41
39.7143
 71
     7
 72
     1
  1
長穴4-φ6
  7
AD-STANDARD
 73
     1
 44
1.0
1001
ACAD
1000
MTEXTBEGIN
1070
    73
1070
     1
1070
    44
1040
1.0
1070
    74
1070
     0
1000
MTEXTEND
  0
MTEXT
  5
9079
330
1A
100
AcDbEntity
  8
MEASURE
 62
     2
100
AcDbMText
 10
1192.09774866904
 20
415.2275025965185
 30
0.0
 40
3.0
 41
15.0
 71
     7
 72
     1
  1

  7
AD-STANDARD
 73
     1
 44
1.0
1001
ACAD
1000
MTEXTBEGIN
1070
    73
1070
     1
1070
    44
1040
1.0
1070
    74
1070
     0
1000
MTEXTEND
  0
LEADER
  5
907A
330
1A
100
AcDbEntity
  8
MEASURE
100
AcDbLeader
  3
AD-STANDARD
 73
     0
 74
     0
 40
3.0
 76
     3
 10
452.5461547842066
 20
99.04457855388717
 30
0.0
 10
440.8532274918563
 20
126.2301309035044
 30
0.0
 10
401.3818797260649
 20
126.2301309035044
 30
0.0
340
907B
213
-30.02915925857019
223
0.0
233
0.0
1001
ACAD
1000
DSTYLE
1002
{
1070
     5
1000

1070
    77
1070
     1
1070
   147
1040
0.5
1070
   342
1005
0
1002
}
  0
MTEXT
  5
907B
102
{ACAD_REACTORS
330
907A
102
}
330
1A
100
AcDbEntity
  8
MEASURE
 62
     2
100
AcDbMText
 10
1226.605628383835
 20
415.1487642452973
 30
0.0
 40
3.0
 41
15.0
 71
     7
 72
     1
  1

  7
AD-STANDARD
 73
     1
 44
1.0
1001
ACAD
1000
MTEXTBEGIN
1070
    73
1070
     1
1070
    44
1040
1.0
1070
    74
1070
     0
1000
MTEXTEND
  0
DIMENSION
  5
90FC
330
1A
100
AcDbEntity
  8
MEASURE
100
AcDbDimension
  2
*D8
 10
242.4360424323077
 20
160.2886865117669
 30
0.0
 11
242.4360424323076
 21
152.288686511767
 31
0.0
 70
   160
  1
（16）
 71
     5
 42
16.0
  3
AD-STANDARD
100
AcDbAlignedDimension
 13
292.753081680524
 23
144.2886865117669
 33
0.0
 14
274.6315066527156
 24
160.2886865117669
 34
0.0
 50
90.0
100
AcDbRotatedDimension
1001
ACAD
1000
DSTYLE
1002
{
1070
    40
1040
2.0
1002
}
  0
DIMENSION
  5
9131
330
1A
100
AcDbEntity
  8
MEASURE
100
AcDbDimension
  2
*D9
 10
242.4360424323077
 20
96.28868651176698
 30
0.0
 11
238.4360424323076
 21
120.288686511767
 31
0.0
 70
    32
 71
     5
 42
47.99999999999998
  3
AD-STANDARD
100
AcDbAlignedDimension
 13
292.753081680524
 23
144.2886865117669
 33
0.0
 14
289.731506652716
 24
96.28868651176695
 34
0.0
 50
90.0
100
AcDbRotatedDimension
1001
ACAD
1000
DSTYLE
1002
{
1070
    40
1040
2.0
1002
}
  0
DIMENSION
  5
913E
330
1A
100
AcDbEntity
  8
MEASURE
100
AcDbDimension
  2
*D10
 10
242.4360424323077
 20
80.28868651176697
 30
0.0
 11
238.4360424323076
 21
88.28868651176703
 31
0.0
 70
    32
 71
     5
 42
16.00000000000001
  3
AD-STANDARD
100
AcDbAlignedDimension
 13
289.731506652716
 23
96.28868651176695
 33
0.0
 14
274.6315066527156
 24
80.28868651176697
 34
0.0
 50
90.0
100
AcDbRotatedDimension
1001
ACAD
1000
DSTYLE
1002
{
1070
    40
1040
2.0
1002
}
  0
DIMENSION
  5
9164
330
1A
100
AcDbEntity
  8
MEASURE
100
AcDbDimension
  2
*D11
 10
292.731506652716
 20
44.81248141574906
 30
0.0
 11
283.6815066527158
 21
48.81248141574906
 31
0.0
 70
    32
 71
     5
 42
18.10000000000036
  3
AD-STANDARD
100
AcDbAlignedDimension
 13
274.6315066527156
 23
80.28868651176697
 33
0.0
 14
292.731506652716
 24
96.28868651176695
 34
0.0
100
AcDbRotatedDimension
1001
ACAD
1000
DSTYLE
1002
{
1070
    40
1040
2.0
1002
}
  0
DIMENSION
  5
9171
330
1A
100
AcDbEntity
  8
MEASURE
100
AcDbDimension
  2
*D12
 10
339.7315066527153
 20
44.81248141574906
 30
0.0
 11
316.2315066527157
 21
48.81248141574906
 31
0.0
 70
    32
 71
     5
 42
46.9999999999993
  3
AD-STANDARD
100
AcDbAlignedDimension
 13
292.731506652716
 23
96.28868651176695
 33
0.0
 14
339.7315066527153
 24
120.2886865117666
 34
0.0
100
AcDbRotatedDimension
1001
ACAD
1000
DSTYLE
1002
{
1070
    40
1040
2.0
1002
}
  0
DIMENSION
  5
917E
330
1A
100
AcDbEntity
  8
MEASURE
100
AcDbDimension
  2
*D13
 10
409.7315066527158
 20
44.81248141574906
 30
0.0
 11
374.731506652716
 21
48.81248141574906
 31
0.0
 70
    32
 71
     5
 42
70.0
  3
AD-STANDARD
100
AcDbAlignedDimension
 13
339.731506652716
 23
120.2886865117669
 33
0.0
 14
409.7315066527158
 24
120.2886865117669
 34
0.0
100
AcDbRotatedDimension
1001
ACAD
1000
DSTYLE
1002
{
1070
    40
1040
2.0
1002
}
  0
DIMENSION
  5
91C1
330
1A
100
AcDbEntity
  8
MEASURE
100
AcDbDimension
  2
*D14
 10
456.731506652716
 20
44.81248141574906
 30
0.0
 11
433.231506652716
 21
48.81248141574906
 31
0.0
 70
    32
 71
     5
 42
47.0
  3
AD-STANDARD
100
AcDbAlignedDimension
 13
409.7315066527158
 23
120.2886865117669
 33
0.0
 14
456.731506652716
 24
96.28868651176695
 34
0.0
100
AcDbRotatedDimension
1001
ACAD
1000
DSTYLE
1002
{
1070
    40
1040
2.0
1002
}
  0
DIMENSION
  5
91CE
330
1A
100
AcDbEntity
  8
MEASURE
100
AcDbDimension
  2
*D15
 10
474.8315066527154
 20
44.81248141574906
 30
0.0
 11
498.1286495098584
 21
44.81248141574906
 31
0.0
 70
   160
  1
（18.1）
 71
     5
 42
18.09999999999945
  3
AD-STANDARD
100
AcDbAlignedDimension
 13
456.731506652716
 23
96.28868651176695
 33
0.0
 14
474.8315066527154
 24
80.28868651176697
 34
0.0
100
AcDbRotatedDimension
1001
ACAD
1000
DSTYLE
1002
{
1070
    40
1040
2.0
1002
}
  0
DIMENSION
  5
91DB
330
1A
100
AcDbEntity
  8
MEASURE
100
AcDbDimension
  2
*D16
 10
322.2250655407147
 20
80.28868651176697
 30
0.0
 11
318.2250655407147
 21
100.2886865117668
 31
0.0
 70
    32
 71
     5
 42
39.99999999999966
  3
AD-STANDARD
100
AcDbAlignedDimension
 13
339.7315066527153
 23
120.2886865117666
 33
0.0
 14
339.7315066527153
 24
80.28868651176697
 34
0.0
 50
90.0
100
AcDbRotatedDimension
1001
ACAD
1000
DSTYLE
1002
{
1070
    40
1040
2.0
1002
}
  0
LINE
  5
92D9
330
1A
100
AcDbEntity
  8
MEASURE
  6
CENTER
 48
0.5
100
AcDbLine
 10
300.231506652716
 20
144.2886865117669
 30
0.0
 11
285.231506652716
 21
144.2886865117669
 31
0.0
  0
LINE
  5
92DA
330
1A
100
AcDbEntity
  8
MEASURE
  6
CENTER
 48
0.5
100
AcDbLine
 10
292.753081680524
 20
148.7886865117669
 30
0.0
 11
292.753081680524
 21
139.7886865117669
 31
0.0
  0
LINE
  5
9330
330
1A
100
AcDbEntity
  8
MEASURE
  6
CENTER
 48
0.5
100
AcDbLine
 10
414.2182502031106
 20
120.2886865117669
 30
0.0
 11
405.2447631023214
 21
120.2886865117669
 31
0.0
  0
LINE
  5
9331
330
1A
100
AcDbEntity
  8
MEASURE
  6
CENTER
 48
0.5
100
AcDbLine
 10
409.7315066527158
 20
115.8019429613723
 30
0.0
 11
409.7315066527158
 21
124.7754300621616
 31
0.0
  0
LINE
  5
9334
330
1A
100
AcDbEntity
  8
MEASURE
  6
CENTER
 48
0.5
100
AcDbLine
 10
276.3448847156342
 20
153.2886865117669
 30
0.0
 11
290.1181285897978
 21
153.2886865117669
 31
0.0
  0
LINE
  5
9335
330
1A
100
AcDbEntity
  8
MEASURE
  6
CENTER
 48
0.5
100
AcDbLine
 10
283.231506652716
 20
160.2886865117669
 30
0.0
 11
283.231506652716
 21
146.0402186156246
 31
0.0
  0
LINE
  5
9336
330
1A
100
AcDbEntity
  8
MEASURE
  6
CENTER
 48
0.5
100
AcDbLine
 10
466.231506652716
 20
160.2886865117669
 30
0.0
 11
466.231506652716
 21
146.0402186156246
 31
0.0
  0
LINE
  5
9337
330
1A
100
AcDbEntity
  8
MEASURE
  6
CENTER
 48
0.5
100
AcDbLine
 10
459.3448847156341
 20
153.2886865117669
 30
0.0
 11
473.1181285897978
 21
153.2886865117669
 31
0.0
  0
LINE
  5
9338
330
1A
100
AcDbEntity
  8
MEASURE
  6
CENTER
 48
0.5
100
AcDbLine
 10
459.3448847156341
 20
87.28868651176695
 30
0.0
 11
473.1181285897978
 21
87.28868651176695
 31
0.0
  0
LINE
  5
9339
330
1A
100
AcDbEntity
  8
MEASURE
  6
CENTER
 48
0.5
100
AcDbLine
 10
466.231506652716
 20
94.28868651176696
 30
0.0
 11
466.231506652716
 21
80.04021861562469
 31
0.0
  0
LINE
  5
933A
330
1A
100
AcDbEntity
  8
MEASURE
  6
CENTER
 48
0.5
100
AcDbLine
 10
276.3448847156342
 20
87.28868651176695
 30
0.0
 11
290.1181285897978
 21
87.28868651176695
 31
0.0
  0
LINE
  5
933B
330
1A
100
AcDbEntity
  8
MEASURE
  6
CENTER
 48
0.5
100
AcDbLine
 10
283.231506652716
 20
94.28868651176696
 30
0.0
 11
283.231506652716
 21
80.04021861562469
 31
0.0
  0
DIMENSION
  5
9499
330
1A
100
AcDbEntity
  8
MEASURE
100
AcDbDimension
  2
*D17
 10
489.9315066527193
 20
549.4292943300022
 30
0.0
 11
374.731506652716
 21
555.0007229014305
 31
0.0
 70
    32
  1
(<>)
 71
     5
 42
230.4000000000069
  3
AD-STANDARD
100
AcDbAlignedDimension
 13
259.5315066527125
 23
480.9412400778011
 33
0.0
 14
489.9315066527193
 24
480.9412400778011
 34
0.0
100
AcDbRotatedDimension
1001
ACAD
1000
DSTYLE
1002
{
1070
    40
1040
2.0
1002
}
  0
LINE
  5
9576
330
1A
100
AcDbEntity
  8
MEASURE
  6
CENTER
 48
0.5
100
AcDbLine
 10
339.731506652716
 20
231.8419129428899
 30
0.0
 11
339.731506652716
 21
243.6640527980395
 31
0.0
  0
LINE
  5
9577
330
1A
100
AcDbEntity
  8
MEASURE
  6
CENTER
 48
0.5
100
AcDbLine
 10
409.7315066527169
 20
231.84191294289
 30
0.0
 11
409.7315066527163
 21
243.6640527980395
 31
0.0
  0
LINE
  5
9578
330
1A
100
AcDbEntity
  8
MEASURE
  6
CENTER
 48
0.5
100
AcDbLine
 10
292.753081680524
 20
231.84191294289
 30
0.0
 11
292.753081680524
 21
243.6640527980393
 31
0.0
  0
LINE
  5
9579
330
1A
100
AcDbEntity
  8
MEASURE
  6
CENTER
 48
0.5
100
AcDbLine
 10
456.7530816805247
 20
231.8419129428901
 30
0.0
 11
456.7530816805247
 21
243.6640527980395
 31
0.0
  0
LINE
  5
957A
330
1A
100
AcDbEntity
  8
MEASURE
  6
CENTER
 48
0.5
100
AcDbLine
 10
124.6870542479388
 20
231.8419129428899
 30
0.0
 11
124.6870542479394
 21
243.6640527980395
 31
0.0
  0
LINE
  5
957B
330
1A
100
AcDbEntity
  8
MEASURE
  6
CENTER
 48
0.5
100
AcDbLine
 10
172.6870542479391
 20
231.8419129428899
 30
0.0
 11
172.6870542479388
 21
243.6640527980395
 31
0.0
  0
LINE
  5
95A8
330
1A
100
AcDbEntity
  8
MEASURE
  6
CENTER
 48
0.5
100
AcDbLine
 10
554.3183826333654
 20
231.8419129428902
 30
0.0
 11
554.3183826333661
 21
243.6640527980395
 31
0.0
  0
LINE
  5
95A9
330
1A
100
AcDbEntity
  8
MEASURE
  6
CENTER
 48
0.5
100
AcDbLine
 10
602.3183826333657
 20
231.8419129428902
 30
0.0
 11
602.3183826333657
 21
243.6640527980395
 31
0.0
  0
LINE
  5
95AA
330
1A
100
AcDbEntity
  8
MEASURE
  6
CENTER
 48
0.5
100
AcDbLine
 10
578.3183826333656
 20
231.8419129428902
 30
0.0
 11
578.3183826333662
 21
243.6640527980395
 31
0.0
  0
LINE
  5
95AF
330
1A
100
AcDbEntity
  8
MEASURE
 48
0.2
100
AcDbLine
 10
148.6870542479389
 20
231.8419129428899
 30
0.0
 11
148.6870542479395
 21
243.6640527980395
 31
0.0
  0
ARC
  5
95B1
330
1A
100
AcDbEntity
  8
1
100
AcDbCircle
 10
289.731506652716
 20
504.9412400778009
 30
0.0
 40
3.0
100
AcDbArc
 50
90.0
 51
270.0
  0
LINE
  5
95B2
330
1A
100
AcDbEntity
  8
1
100
AcDbLine
 10
289.731506652716
 20
507.9412400778009
 30
0.0
 11
295.731506652716
 21
507.9412400778009
 31
0.0
  0
ARC
  5
95B3
330
1A
100
AcDbEntity
  8
1
100
AcDbCircle
 10
295.731506652716
 20
504.9412400778009
 30
0.0
 40
3.0
100
AcDbArc
 50
270.0
 51
90.0
  0
LINE
  5
95B4
330
1A
100
AcDbEntity
  8
1
100
AcDbLine
 10
289.731506652716
 20
501.9412400778008
 30
0.0
 11
295.731506652716
 21
501.9412400778008
 31
0.0
  0
ARC
  5
95B5
330
1A
100
AcDbEntity
  8
1
100
AcDbCircle
 10
289.731506652716
 20
456.9412400778008
 30
0.0
 40
3.0
100
AcDbArc
 50
90.0
 51
270.0
  0
LINE
  5
95B6
330
1A
100
AcDbEntity
  8
1
100
AcDbLine
 10
289.731506652716
 20
459.9412400778009
 30
0.0
 11
295.731506652716
 21
459.9412400778009
 31
0.0
  0
ARC
  5
95B7
330
1A
100
AcDbEntity
  8
1
100
AcDbCircle
 10
295.731506652716
 20
456.9412400778008
 30
0.0
 40
3.0
100
AcDbArc
 50
270.0
 51
90.0
  0
LINE
  5
95B8
330
1A
100
AcDbEntity
  8
1
100
AcDbLine
 10
289.731506652716
 20
453.9412400778009
 30
0.0
 11
295.731506652716
 21
453.9412400778009
 31
0.0
  0
CIRCLE
  5
95B9
330
1A
100
AcDbEntity
  8
1
100
AcDbCircle
 10
283.231506652716
 20
447.9412400778008
 30
0.0
 40
3.0
  0
ARC
  5
95BA
330
1A
100
AcDbEntity
  8
1
100
AcDbCircle
 10
453.731506652716
 20
504.9412400778009
 30
0.0
 40
3.0
100
AcDbArc
 50
90.0
 51
270.0
  0
ARC
  5
95BB
330
1A
100
AcDbEntity
  8
1
100
AcDbCircle
 10
459.7315066527158
 20
504.9412400778009
 30
0.0
 40
3.0
100
AcDbArc
 50
270.0
 51
90.0
  0
LINE
  5
95BC
330
1A
100
AcDbEntity
  8
1
100
AcDbLine
 10
459.7315066527158
 20
507.9412400778009
 30
0.0
 11
453.731506652716
 21
507.9412400778009
 31
0.0
  0
LINE
  5
95BD
330
1A
100
AcDbEntity
  8
1
100
AcDbLine
 10
459.7315066527158
 20
501.9412400778008
 30
0.0
 11
453.731506652716
 21
501.9412400778008
 31
0.0
  0
LINE
  5
95C0
330
1A
100
AcDbEntity
  8
1
100
AcDbLine
 10
459.7315066527158
 20
459.9412400778009
 30
0.0
 11
453.731506652716
 21
459.9412400778009
 31
0.0
  0
ARC
  5
95C1
330
1A
100
AcDbEntity
  8
1
100
AcDbCircle
 10
459.7315066527158
 20
456.9412400778008
 30
0.0
 40
3.0
100
AcDbArc
 50
270.0
 51
90.0
  0
LINE
  5
95C2
330
1A
100
AcDbEntity
  8
1
100
AcDbLine
 10
459.7315066527158
 20
453.9412400778009
 30
0.0
 11
453.731506652716
 21
453.9412400778009
 31
0.0
  0
ARC
  5
95C3
330
1A
100
AcDbEntity
  8
1
100
AcDbCircle
 10
453.731506652716
 20
456.9412400778008
 30
0.0
 40
3.0
100
AcDbArc
 50
90.0
 51
270.0
  0
CIRCLE
  5
95DE
330
1A
100
AcDbEntity
  8
1
100
AcDbCircle
 10
339.731506652716
 20
480.9412400778009
 30
0.0
 40
2.5
  0
CIRCLE
  5
95DF
330
1A
100
AcDbEntity
  8
1
100
AcDbCircle
 10
409.7315066527158
 20
480.9412400778009
 30
0.0
 40
2.5
  0
CIRCLE
  5
95E2
330
1A
100
AcDbEntity
  8
1
100
AcDbCircle
 10
283.231506652716
 20
447.9412400778008
 30
0.0
 40
1.5
  0
CIRCLE
  5
95E3
330
1A
100
AcDbEntity
  8
1
100
AcDbCircle
 10
283.231506652716
 20
513.9412400778009
 30
0.0
 40
1.5
  0
CIRCLE
  5
95E4
330
1A
100
AcDbEntity
  8
1
100
AcDbCircle
 10
466.231506652716
 20
513.9412400778009
 30
0.0
 40
1.5
  0
CIRCLE
  5
95E5
330
1A
100
AcDbEntity
  8
1
100
AcDbCircle
 10
466.231506652716
 20
447.9412400778008
 30
0.0
 40
1.5
  0
CIRCLE
  5
960B
330
1A
100
AcDbEntity
  8
1
100
AcDbCircle
 10
283.231506652716
 20
513.9412400778009
 30
0.0
 40
3.0
  0
CIRCLE
  5
960C
330
1A
100
AcDbEntity
  8
1
100
AcDbCircle
 10
466.231506652716
 20
513.9412400778009
 30
0.0
 40
3.0
  0
CIRCLE
  5
960D
330
1A
100
AcDbEntity
  8
1
100
AcDbCircle
 10
466.231506652716
 20
447.9412400778008
 30
0.0
 40
3.0
  0
LEADER
  5
961B
330
1A
100
AcDbEntity
  8
MEASURE
100
AcDbLeader
  3
AD-STANDARD
 73
     0
 74
     0
 40
10.66666666666667
 41
141.6533333333334
 76
     2
 10
598.2154412140906
 20
335.0762507725285
 30
0.0
 10
634.2400637152357
 20
344.5763079549939
 30
0.0
340
961C
1001
ACAD
1000
DSTYLE
1002
{
1070
     5
1000

1070
    77
1070
     1
1070
   147
1040
0.5
1070
   342
1005
0
1002
}
  0
MTEXT
  5
961C
102
{ACAD_REACTORS
330
961B
102
}
330
1A
100
AcDbEntity
  8
MEASURE
 62
     2
100
AcDbMText
 10
634.7400637152359
 20
345.0763079549939
 30
0.0
 40
7.0
 41
200.0
 71
     7
 72
     1
  1
AD4406本体（オプションには含まれません)
  7
AD-STANDARD
 73
     1
 44
1.0
1001
ACAD
1000
MTEXTBEGIN
1070
    73
1070
     1
1070
    44
1040
1.0
1070
    74
1070
     0
1000
MTEXTEND
  0
LWPOLYLINE
  5
97AB
330
1A
100
AcDbEntity
  8
DEFPOINTS
100
AcDbPolyline
 90
        4
 70
     1
 43
0.0
 10
0.0
 20
0.0
 10
840.0
 20
0.0
 10
840.0
 20
594.0
 10
0.0
 20
594.0
  0
LINE
  5
9BAB
330
1A
100
AcDbEntity
  8
MEASURE
  6
CENTER
 48
0.5
100
AcDbLine
 10
344.2182502031101
 20
120.2886865117665
 30
0.0
 11
335.2447631023207
 21
120.2886865117665
 31
0.0
  0
LINE
  5
9BAC
330
1A
100
AcDbEntity
  8
MEASURE
  6
CENTER
 48
0.5
100
AcDbLine
 10
339.7315066527153
 20
115.8019429613719
 30
0.0
 11
339.7315066527153
 21
124.7754300621612
 31
0.0
  0
LINE
  5
9BC7
330
1A
100
AcDbEntity
  8
MEASURE
  6
CENTER
 48
0.5
100
AcDbLine
 10
464.209931624908
 20
144.2886865117669
 30
0.0
 11
449.2099316249078
 21
144.2886865117669
 31
0.0
  0
LINE
  5
9BC8
330
1A
100
AcDbEntity
  8
MEASURE
  6
CENTER
 48
0.5
100
AcDbLine
 10
456.731506652716
 20
148.7886865117669
 30
0.0
 11
456.731506652716
 21
139.7886865117669
 31
0.0
  0
LINE
  5
9BDA
330
1A
100
AcDbEntity
  8
MEASURE
  6
CENTER
 48
0.5
100
AcDbLine
 10
300.209931624908
 20
96.28868651176695
 30
0.0
 11
285.209931624908
 21
96.28868651176695
 31
0.0
  0
LINE
  5
9BDB
330
1A
100
AcDbEntity
  8
MEASURE
  6
CENTER
 48
0.5
100
AcDbLine
 10
292.731506652716
 20
100.788686511767
 30
0.0
 11
292.731506652716
 21
91.78868651176696
 31
0.0
  0
LINE
  5
9BDC
330
1A
100
AcDbEntity
  8
MEASURE
  6
CENTER
 48
0.5
100
AcDbLine
 10
464.209931624908
 20
96.28868651176695
 30
0.0
 11
449.2099316249078
 21
96.28868651176695
 31
0.0
  0
LINE
  5
9BDD
330
1A
100
AcDbEntity
  8
MEASURE
  6
CENTER
 48
0.5
100
AcDbLine
 10
456.731506652716
 20
100.788686511767
 30
0.0
 11
456.731506652716
 21
91.78868651176696
 31
0.0
  0
LINE
  5
9D76
330
1A
100
AcDbEntity
  8
MEASURE
  6
CENTER
 48
0.5
100
AcDbLine
 10
132.0718307612249
 20
304.2890073693471
 30
0.0
 11
165.30226854356
 21
304.2890073693471
 31
0.0
  0
LINE
  5
9D77
330
1A
100
AcDbEntity
  8
MEASURE
  6
CENTER
 48
0.5
100
AcDbLine
 10
148.6870496523925
 20
320.7804567618812
 30
0.0
 11
148.6870496523925
 21
287.5490900806708
 31
0.0
  0
DIMENSION
  5
9DA8
330
1A
100
AcDbEntity
  8
MEASURE
100
AcDbDimension
  2
*D18
 10
283.2315066527124
 20
217.0261802249831
 30
0.0
 11
258.6029352241406
 21
217.0261802249831
 31
0.0
 70
   160
 71
     5
 42
8.600000000000362
  3
AD-STANDARD
100
AcDbAlignedDimension
 13
274.631506652712
 23
238.8890051199498
 33
0.0
 14
283.2315066527124
 24
241.8890051199499
 34
0.0
100
AcDbRotatedDimension
1001
ACAD
1000
DSTYLE
1002
{
1070
    40
1040
2.0
1002
}
  0
DIMENSION
  5
9DB5
330
1A
100
AcDbEntity
  8
MEASURE
100
AcDbDimension
  2
*D19
 10
466.2315066527122
 20
217.0261802249831
 30
0.0
 11
374.7315066527124
 21
221.0261802249831
 31
0.0
 70
    32
 71
     5
 42
183.0
  3
AD-STANDARD
100
AcDbAlignedDimension
 13
283.2315066527124
 23
241.8890051199499
 33
0.0
 14
466.2315066527122
 24
241.8890051199497
 34
0.0
100
AcDbRotatedDimension
1001
ACAD
1000
DSTYLE
1002
{
1070
    40
1040
2.0
1002
}
  0
DIMENSION
  5
9DC2
330
1A
100
AcDbEntity
  8
MEASURE
100
AcDbDimension
  2
*D20
 10
474.8315066527127
 20
217.0261802249831
 30
0.0
 11
493.8315066527127
 21
222.5976087964117
 31
0.0
 70
    32
  1
(<>)
 71
     5
 42
8.600000000000362
  3
AD-STANDARD
100
AcDbAlignedDimension
 13
466.2315066527122
 23
241.8890051199497
 33
0.0
 14
474.8315066527127
 24
238.8890051199496
 34
0.0
100
AcDbRotatedDimension
1001
ACAD
1000
DSTYLE
1002
{
1070
    40
1040
2.0
1002
}
  0
LEADER
  5
9E0E
330
1A
100
AcDbEntity
  8
MEASURE
100
AcDbLeader
  3
AD-STANDARD
 73
     0
 74
     0
 40
7.0
 41
18.66666666666667
 76
     2
 10
616.2149471436032
 20
234.427547583289
 30
0.0
 10
642.6020736144277
 20
231.634464708938
 30
0.0
340
9E0F
1001
ACAD
1000
DSTYLE
1002
{
1070
     5
1000

1070
    77
1070
     1
1070
   147
1040
0.5
1070
   342
1005
0
1002
}
  0
MTEXT
  5
9E0F
102
{ACAD_REACTORS
330
9E0E
102
}
330
1A
100
AcDbEntity
  8
MEASURE
 62
     2
100
AcDbMText
 10
643.1020736144277
 20
232.134464708938
 30
0.0
 40
7.0
 41
200.0
 71
     7
 72
     1
  1
ゴム足
  7
AD-STANDARD
 73
     1
 44
1.0
1001
ACAD
1000
MTEXTBEGIN
1070
    73
1070
     1
1070
    44
1040
1.0
1070
    74
1070
     0
1000
MTEXTEND
  0
LEADER
  5
9E10
330
1A
100
AcDbEntity
  8
MEASURE
100
AcDbLeader
  3
AD-STANDARD
 73
     0
 74
     0
 40
7.000000000000002
 41
119.7866666666665
 76
     2
 10
600.3652676573723
 20
265.3021213959921
 30
0.0
 10
637.3441878247631
 20
255.9130864377297
 30
0.0
340
9E11
1001
ACAD
1000
DSTYLE
1002
{
1070
     5
1000

1070
    77
1070
     1
1070
   147
1040
0.5
1070
   342
1005
0
1002
}
  0
MTEXT
  5
9E11
102
{ACAD_REACTORS
330
9E10
102
}
330
1A
100
AcDbEntity
  8
MEASURE
 62
     2
100
AcDbMText
 10
637.8441878247631
 20
256.4130864377297
 30
0.0
 40
7.0
 41
200.0
 71
     7
 72
     1
  1
スタンド（材質：鉄／ニッケルメッキ）
  7
AD-STANDARD
 73
     1
 44
1.0
1001
ACAD
1000
MTEXTBEGIN
1070
    73
1070
     1
1070
    44
1040
1.0
1070
    74
1070
     0
1000
MTEXTEND
  0
LEADER
  5
9E12
330
1A
100
AcDbEntity
  8
MEASURE
100
AcDbLeader
  3
AD-STANDARD
 73
     0
 74
     0
 75
     1
 40
7.000000000000002
 41
100.48
 76
     3
 10
590.7992090023235
 20
297.2336802731581
 30
0.0
 10
635.8522224874743
 20
276.6043440464965
 30
0.0
 10
638.3522224874743
 20
276.6043440464965
 30
0.0
340
9E13
1001
ACAD
1000
DSTYLE
1002
{
1070
     5
1000

1070
    77
1070
     1
1070
   147
1040
0.5
1070
   342
1005
0
1002
}
  0
MTEXT
  5
9E13
102
{ACAD_REACTORS
330
9E12
102
}
330
1A
100
AcDbEntity
  8
MEASURE
 62
     2
100
AcDbMText
 10
638.8522224874746
 20
277.1043440464965
 30
0.0
 40
7.0
 41
200.0
 71
     7
 72
     1
  1
ノブ（材質：ABS／SUS303）
  7
AD-STANDARD
 73
     1
 44
1.0
1001
ACAD
1000
MTEXTBEGIN
1070
    73
1070
     1
1070
    44
1040
1.0
1070
    74
1070
     0
1000
MTEXTEND
  0
DIMENSION
  5
9E15
330
1A
100
AcDbEntity
  8
MEASURE
100
AcDbDimension
  2
*D21
 10
545.3183826333659
 20
217.0261802249831
 30
0.0
 11
541.8183826333659
 21
221.0261802249831
 31
0.0
 70
    32
 71
     5
 42
7.0
  3
AD-STANDARD
100
AcDbAlignedDimension
 13
538.3183826333659
 23
237.2890028705552
 33
0.0
 14
545.3183826333659
 24
234.2890028705552
 34
0.0
100
AcDbRotatedDimension
1001
ACAD
1000
DSTYLE
1002
{
1070
    40
1040
2.0
1002
}
  0
DIMENSION
  5
9E22
330
1A
100
AcDbEntity
  8
MEASURE
100
AcDbDimension
  2
*D22
 10
611.3183826333659
 20
217.0261802249831
 30
0.0
 11
578.3183826333659
 21
221.0261802249831
 31
0.0
 70
    32
 71
     5
 42
66.0
  3
AD-STANDARD
100
AcDbAlignedDimension
 13
545.3183826333659
 23
234.2890028705552
 33
0.0
 14
611.3183826333659
 24
234.2890028705552
 34
0.0
100
AcDbRotatedDimension
1001
ACAD
1000
DSTYLE
1002
{
1070
    40
1040
2.0
1002
}
  0
DIMENSION
  5
9E2F
330
1A
100
AcDbEntity
  8
MEASURE
100
AcDbDimension
  2
*D23
 10
618.3183826333658
 20
217.0261802249831
 30
0.0
 11
633.8898112047942
 21
222.5976087964117
 31
0.0
 70
    32
  1
(<>)
 71
     5
 42
7.0
  3
AD-STANDARD
100
AcDbAlignedDimension
 13
611.3183826333659
 23
234.2890028705552
 33
0.0
 14
618.3183826333658
 24
237.2890028705552
 34
0.0
100
AcDbRotatedDimension
1001
ACAD
1000
DSTYLE
1002
{
1070
    40
1040
2.0
1002
}
  0
DIMENSION
  5
9E76
330
1A
100
AcDbEntity
  8
MEASURE
100
AcDbDimension
  2
*D24
 10
504.6121238994223
 20
160.2886865117669
 30
0.0
 11
500.6121238994223
 21
120.288686511767
 31
0.0
 70
    32
 71
     5
 42
80.00000000000001
  3
AD-STANDARD(0.5)
100
AcDbAlignedDimension
 13
474.8315066527154
 23
80.28868651176697
 33
0.0
 14
474.8315066527164
 24
160.2886865117669
 34
0.0
 50
90.0
100
AcDbRotatedDimension
  0
DIMENSION
  5
9EB0
330
1A
100
AcDbEntity
  8
MEASURE
100
AcDbDimension
  2
*D25
 10
120.6870542479391
 20
225.6500056657503
 30
0.0
 11
137.744197105082
 21
229.6500056657503
 31
0.0
 70
    32
  1
%%C<>
 71
     5
 42
10.0
  3
AD-STANDARD
100
AcDbAlignedDimension
 13
110.6870542479391
 23
237.2890051199528
 33
0.0
 14
120.6870542479391
 24
237.2890051199528
 34
0.0
100
AcDbRotatedDimension
1001
ACAD
1000
DSTYLE
1002
{
1070
    40
1040
2.0
1002
}
  0
VIEWPORT
  5
978B
102
{ACAD_XDICTIONARY
360
9FBA
102
}
330
978A
100
AcDbEntity
 67
     1
  8
0
100
AcDbViewport
 10
206.9041757829447
 20
145.340915656257
 30
0.0
 40
472.1243231367931
 41
288.2154298218795
 68
     1
 69
     1
 12
206.9041757829447
 22
145.340915656257
 13
0.0
 23
0.0
 14
10.0
 24
10.0
 15
10.0
 25
10.0
 16
0.0
 26
0.0
 36
1.0
 17
0.0
 27
0.0
 37
0.0
 42
50.0
 43
0.0
 44
0.0
 45
288.2154298218795
 50
0.0
 51
0.0
 72
   100
 90
    32768
  1

281
     0
 71
     1
 74
     0
110
0.0
120
0.0
130
0.0
111
1.0
121
0.0
131
0.0
112
0.0
122
1.0
132
0.0
 79
     0
146
0.0
  0
VIEWPORT
  5
979B
102
{ACAD_XDICTIONARY
360
9FBC
102
}
330
978A
100
AcDbEntity
 67
     1
  8
DEFPOINTS
100
AcDbViewport
 10
206.9041747019215
 20
145.3409149885546
 30
0.0
 40
409.5849189842422
 41
286.3848810885282
 68
     2
 69
     2
 12
424.9073407682813
 22
297.7372183642879
 13
0.0
 23
0.0
 14
168.0
 24
168.0
 15
0.0
 25
0.0
 16
0.0
 26
0.0
 36
1.0
 17
0.0
 27
0.0
 37
0.0
 42
50.0
 43
0.0
 44
0.0
 45
572.7697615347042
 50
0.0
 51
0.0
 72
   100
 90
    36864
  1

281
     0
 71
     1
 74
     0
110
0.0
120
0.0
130
0.0
111
1.0
121
0.0
131
0.0
112
0.0
122
1.0
132
0.0
 79
     0
146
0.0
  0
ENDSEC
  0
SECTION
  2
OBJECTS
  0
DICTIONARY
  5
C
330
0
100
AcDbDictionary
281
     1
  3
ACAD_COLOR
350
976D
  3
ACAD_GROUP
350
D
  3
ACAD_LAYOUT
350
2C2
  3
ACAD_MATERIAL
350
976C
  3
ACAD_MLEADERSTYLE
350
9F5E
  3
ACAD_MLINESTYLE
350
E
  3
ACAD_PLOTSETTINGS
350
2C3
  3
ACAD_PLOTSTYLENAME
350
2C0
  3
ACAD_SCALELIST
350
9F3C
  3
ACAD_TABLESTYLE
350
976E
  3
ACAD_VISUALSTYLE
350
9F2B
  3
AcadDim
350
961A
  3
ACDB_RECOMPOSE_DATA
350
9F91
  3
AcDbVariableDictionary
350
4FBC
  3
CONTENTDICTIONARY
350
234
  3
DWGPROPS
350
9FB3
  0
DICTIONARY
  5
974C
330
2
100
AcDbDictionary
280
     1
281
     1
  3
ACAD_LAYERFILTERS
360
9F78
  3
ACAD_LAYERSTATES
360
9791
  3
ACLYDICTIONARY
360
9F77
  0
DICTIONARY
  5
9F83
330
F
100
AcDbDictionary
280
     1
281
     1
  3
ADSK_XREC_LAYER_RECONCILED
360
9F84
  0
DICTIONARY
  5
9F85
330
71
100
AcDbDictionary
280
     1
281
     1
  3
ADSK_XREC_LAYER_RECONCILED
360
9F86
  0
DICTIONARY
  5
9F89
330
98EF
100
AcDbDictionary
280
     1
281
     1
  3
ADSK_XREC_LAYER_RECONCILED
360
9F8A
  0
DICTIONARY
  5
964B
330
1A
100
AcDbDictionary
280
     1
281
     1
  3
ACAD_LAYOUTSELFREF
360
970D
  3
ACAD_SORTENTS
360
9BAF
  0
DICTIONARY
  5
9FBA
330
978B
100
AcDbDictionary
280
     1
281
     1
  3
ACAD_XREC_ROUNDTRIP
360
9FBB
  0
DICTIONARY
  5
9FBC
330
979B
100
AcDbDictionary
280
     1
281
     1
  3
ACAD_XREC_ROUNDTRIP
360
9FBD
  0
DICTIONARY
  5
976D
102
{ACAD_REACTORS
330
C
102
}
330
C
100
AcDbDictionary
281
     1
  0
DICTIONARY
  5
D
102
{ACAD_REACTORS
330
C
102
}
330
C
100
AcDbDictionary
281
     1
  3
*A1
350
921A
  3
*A2
350
9E06
  0
DICTIONARY
  5
2C2
102
{ACAD_REACTORS
330
C
102
}
330
C
100
AcDbDictionary
281
     1
  3
Model
350
2C4
  3
レイアウト1
350
9789
  0
DICTIONARY
  5
976C
102
{ACAD_REACTORS
330
C
102
}
330
C
100
AcDbDictionary
281
     1
  3
ByBlock
350
9F1B
  3
ByLayer
350
9F13
  3
Global
350
9F23
  0
DICTIONARY
  5
9F5E
102
{ACAD_REACTORS
330
C
102
}
330
C
100
AcDbDictionary
281
     1
  3
Standard
350
9F5F
  0
DICTIONARY
  5
E
102
{ACAD_REACTORS
330
C
102
}
330
C
100
AcDbDictionary
281
     1
  3
STANDARD
350
13
  0
DICTIONARY
  5
2C3
102
{ACAD_REACTORS
330
C
102
}
330
C
100
AcDbDictionary
281
     1
  3
A3form102
350
373
  0
ACDBDICTIONARYWDFLT
  5
2C0
102
{ACAD_REACTORS
330
C
102
}
330
C
100
AcDbDictionary
281
     1
  3
Normal
350
2C1
100
AcDbDictionaryWithDefault
340
2C1
  0
DICTIONARY
  5
9F3C
102
{ACAD_REACTORS
330
C
102
}
330
C
100
AcDbDictionary
281
     1
  3
A0
350
9F3D
  3
A1
350
9F3E
  3
A2
350
9F3F
  3
A3
350
9F40
  3
A4
350
9F41
  3
A5
350
9F42
  3
A6
350
9F43
  3
A7
350
9F44
  3
A8
350
9F45
  3
A9
350
9F46
  3
B0
350
9F47
  3
B1
350
9F48
  3
B2
350
9F49
  3
B3
350
9F4A
  3
B4
350
9F4B
  3
B5
350
9F4C
  3
B6
350
9F4D
  3
B7
350
9F4E
  3
B8
350
9F4F
  3
B9
350
9F50
  3
C0
350
9F51
  3
C1
350
9F52
  3
C2
350
9F53
  3
C3
350
9F54
  3
C4
350
9F55
  3
C5
350
9F56
  3
C6
350
9F57
  3
C7
350
9F58
  3
C8
350
9F59
  3
C9
350
9F5A
  3
D0
350
9F5B
  3
D1
350
9F5C
  3
D2
350
9F5D
  0
DICTIONARY
  5
976E
102
{ACAD_REACTORS
330
C
102
}
330
C
100
AcDbDictionary
281
     1
  3
Standard
350
976F
  0
DICTIONARY
  5
9F2B
102
{ACAD_REACTORS
330
C
102
}
330
C
100
AcDbDictionary
281
     1
  3
2dWireframe
350
9F31
  3
3D Hidden
350
9F33
  3
3dWireframe
350
9F32
  3
Basic
350
9F30
  3
Brighten
350
9F37
  3
ColorChange
350
9F3B
  3
Conceptual
350
9F34
  3
Dim
350
9F36
  3
Facepattern
350
9F3A
  3
Flat
350
9F2C
  3
FlatWithEdges
350
9F2D
  3
Gouraud
350
9F2E
  3
GouraudWithEdges
350
9F2F
  3
Linepattern
350
9F39
  3
Realistic
350
9F35
  3
Thicken
350
9F38
  0
XRECORD
  5
961A
102
{ACAD_REACTORS
330
C
102
}
330
C
100
AcDbXrecord
280
     1
 90
   990106
  3

 60
     0
 61
     0
 62
     4
 63
     4
 64
     1
 65
     0
 66
     0
 67
     3
 68
     1
 69
     0
 70
     0
 71
     0
 72
     0
 40
15.0
170
     2
340
961C
  0
XRECORD
  5
9F91
102
{ACAD_REACTORS
330
C
102
}
330
C
100
AcDbXrecord
280
     1
 90
        1
330
976F
  0
DICTIONARY
  5
4FBC
102
{ACAD_REACTORS
330
C
102
}
330
C
100
AcDbDictionary
281
     1
  3
CANNOSCALE
350
9F8C
  3
CMLEADERSTYLE
350
9F8B
  3
CTABLESTYLE
350
9778
  3
DIMASSOC
350
4FBD
  3
INDEXCTL
350
9F8E
  3
PROJECTNAME
350
9779
  3
SORTENTS
350
9F8D
  0
DICTIONARY
  5
234
102
{ACAD_REACTORS
330
C
102
}
330
C
100
AcDbDictionary
281
     1
  0
XRECORD
  5
9FB3
102
{ACAD_REACTORS
330
C
102
}
330
C
100
AcDbXrecord
280
     1
  1
DWGPROPS COOKIE
  2

  3

  4

  6

  7

  8
KOIKE-1345
  9

300
=
301
=
302
=
303
=
304
=
305
=
306
=
307
=
308
=
309
=
 40
0.7849341203703704
 41
2452340.381134606
 42
2459613.579957975
  1

 90
        0
  0
DICTIONARY
  5
9F78
102
{ACAD_REACTORS
330
974C
102
}
330
974C
100
AcDbDictionary
281
     1
  3
50
350
9F7A
  0
DICTIONARY
  5
9791
102
{ACAD_REACTORS
330
974C
102
}
330
974C
100
AcDbDictionary
281
     1
  0
DICTIONARY
  5
9F77
102
{ACAD_REACTORS
330
974C
102
}
330
974C
100
AcDbDictionary
281
     1
  3
*A1
350
9F79
1001
ACAD
1000
<All
  0
XRECORD
  5
9F84
102
{ACAD_REACTORS
330
9F83
102
}
330
9F83
100
AcDbXrecord
280
     1
290
     1
  0
XRECORD
  5
9F86
102
{ACAD_REACTORS
330
9F85
102
}
330
9F85
100
AcDbXrecord
280
     1
290
     1
  0
XRECORD
  5
9F8A
102
{ACAD_REACTORS
330
9F89
102
}
330
9F89
100
AcDbXrecord
280
     1
290
     1
  0
XRECORD
  5
970D
102
{ACAD_REACTORS
330
964B
102
}
330
964B
100
AcDbXrecord
280
     1
340
1A
  0
SORTENTSTABLE
  5
9BAF
102
{ACAD_REACTORS
330
964B
102
}
330
964B
100
AcDbSortentsTable
330
1A
331
8C4A
  5
8C4E
331
95A9
  5
95B2
331
8C52
  5
8C57
331
95B1
  5
95B5
331
907A
  5
90D4
331
95B9
  5
95BD
331
95C1
  5
95DF
331
92DA
  5
9331
331
86F0
  5
86F7
331
87B5
  5
87B9
331
86F8
  5
86FC
331
86B9
  5
86CF
331
8776
  5
877B
331
88AB
  5
88AF
331
88B3
  5
88B8
331
877E
  5
8787
331
87BD
  5
87C1
331
873F
  5
8745
331
887C
  5
8880
331
87C5
  5
87C9
331
86D1
  5
86D5
331
8708
  5
870F
331
8747
  5
874B
331
8884
  5
8888
331
8C2B
  5
8C34
331
87CD
  5
87D1
331
8D06
  5
8E23
331
8D8E
  5
8EFE
331
8269
  5
8269
331
8385
  5
83E2
331
82A8
  5
82AD
331
82E7
  5
82EB
331
8424
  5
8429
331
8222
  5
8222
331
8271
  5
8271
331
8463
  5
8469
331
846B
  5
8492
331
82B0
  5
82B4
331
82EF
  5
82F3
331
842C
  5
8430
331
8279
  5
827B
331
8281
  5
8283
331
82B8
  5
82BD
331
8232
  5
8232
331
8434
  5
8438
331
843C
  5
8440
331
8307
  5
830F
331
83FD
  5
8401
331
933A
  5
9577
331
957A
  5
95AA
331
86D9
  5
86DE
331
8710
  5
8714
331
87D5
  5
884A
331
888C
  5
8890
331
8718
  5
871C
331
8757
  5
875B
331
868A
  5
8691
331
86E1
  5
86E9
331
8796
  5
879A
331
879E
  5
87A2
331
8720
  5
8724
331
884D
  5
8862
331
8894
  5
8898
331
86E9
  5
86ED
331
8C43
  5
8C47
331
87A6
  5
87AA
331
8865
  5
8869
331
8728
  5
872C
331
8767
  5
8776
331
889C
  5
88A0
331
88A4
  5
88A8
331
87AE
  5
87B2
331
8EFE
  5
8FE2
331
8FC6
  5
907A
331
823A
  5
823A
331
8289
  5
828B
331
8444
  5
8449
331
830F
  5
831D
331
8356
  5
835A
331
82C8
  5
82CC
331
844C
  5
8450
331
8252
  5
8252
331
8299
  5
829C
331
835E
  5
8362
331
841D
  5
8421
331
82D8
  5
82DD
331
8262
  5
8262
331
831F
  5
8323
331
8C4B
  5
8C4F
331
95AA
  5
95B3
331
95B2
  5
95B6
331
8C53
  5
8C60
331
907B
  5
90FC
331
95BA
  5
95C0
331
95C2
  5
95E2
331
8730
  5
8740
331
88AC
  5
88B0
331
8777
  5
877C
331
86BA
  5
86D0
331
86F9
  5
86FD
331
87B6
  5
87BA
331
88B4
  5
88B9
331
8673
  5
867F
331
8740
  5
8746
331
87BE
  5
87C2
331
87C6
  5
87CA
331
887D
  5
8881
331
8748
  5
874C
331
86D2
  5
86D6
331
8787
  5
8795
331
88BC
  5
8C2F
331
87CE
  5
87D2
331
8885
  5
8889
331
90FC
  5
9171
331
9499
  5
9579
331
9164
  5
91CE
331
82A1
  5
82A5
331
82E0
  5
82E4
331
826A
  5
826A
331
8464
  5
846A
331
8272
  5
8273
331
82A9
  5
82AE
331
8223
  5
8223
331
82E8
  5
82EC
331
842D
  5
8431
331
82F0
  5
8303
331
827A
  5
827C
331
82B1
  5
82B5
331
83DE
  5
83FD
331
8435
  5
8439
331
82B9
  5
82BE
331
8233
  5
8233
331
8282
  5
8284
331
8337
  5
833B
331
83FE
  5
8406
331
843D
  5
8441
331
95E2
  5
960B
331
933B
  5
9578
331
957B
  5
95AF
331
86DA
  5
86DF
331
8711
  5
8715
331
8750
  5
8754
331
888D
  5
8891
331
8C34
  5
8C3F
331
8797
  5
879B
331
87D6
  5
884D
331
86E2
  5
86EA
331
8719
  5
871D
331
868B
  5
8693
331
8758
  5
875C
331
8895
  5
8899
331
8C3C
  5
8C41
331
8760
  5
8767
331
879F
  5
87A3
331
8693
  5
8697
331
86EA
  5
86EE
331
8721
  5
8725
331
884E
  5
8863
331
8866
  5
886A
331
889D
  5
88A1
331
8729
  5
872D
331
87A7
  5
87AB
331
8C44
  5
8C48
331
87AF
  5
87B3
331
88A5
  5
88A9
331
82C1
  5
82C5
331
8308
  5
8314
331
823B
  5
823B
331
828A
  5
828C
331
8357
  5
835B
331
8292
  5
8294
331
82C9
  5
82CD
331
8406
  5
841E
331
8445
  5
844A
331
844D
  5
8451
331
8253
  5
8253
331
835F
  5
8363
331
84CC
  5
84D1
331
841E
  5
8422
331
84EC
  5
84F0
331
8263
  5
8263
331
82D9
  5
82DE
331
8FD4
  5
907B
331
8C4C
  5
8C50
331
8C54
  5
8C6D
331
95B3
  5
95B7
331
95BB
  5
95C1
331
95C3
  5
95E3
331
8731
  5
8742
331
87B7
  5
87BB
331
86FA
  5
86FE
331
86BB
  5
86D1
331
8778
  5
877D
331
88AD
  5
88B1
331
8780
  5
878B
331
8702
  5
8708
331
87BF
  5
87C3
331
8674
  5
8687
331
887E
  5
8882
331
8749
  5
874D
331
86D3
  5
86D7
331
870A
  5
8710
331
87C7
  5
87CB
331
8886
  5
888A
331
87CF
  5
87D3
331
8C60
  5
8D25
331
82E1
  5
82E5
331
8320
  5
8324
331
826B
  5
826B
331
82A2
  5
82A6
331
82AA
  5
82B0
331
82E9
  5
82ED
331
8426
  5
842A
331
8273
  5
8275
331
8465
  5
846B
331
83DF
  5
83FE
331
82B2
  5
82B6
331
82F1
  5
8304
331
842E
  5
8432
331
827B
  5
827D
331
8283
  5
8285
331
8338
  5
833C
331
8436
  5
843A
331
843E
  5
8442
331
83FF
  5
840A
331
9334
  5
9338
331
95E3
  5
960C
331
960B
  5
961C
331
8751
  5
8755
331
8712
  5
8716
331
87D7
  5
884E
331
888E
  5
8892
331
871A
  5
871F
331
8759
  5
875D
331
868C
  5
8694
331
86E3
  5
86EB
331
8798
  5
879C
331
87A0
  5
87A4
331
86EB
  5
86EF
331
8722
  5
8726
331
8694
  5
8698
331
8761
  5
8773
331
8896
  5
889A
331
889E
  5
88A2
331
8C45
  5
8C49
331
87A8
  5
87AC
331
872A
  5
872E
331
8867
  5
886B
331
88A6
  5
88AA
331
8309
  5
831B
331
823C
  5
823C
331
828B
  5
828D
331
82C2
  5
82C6
331
82CA
  5
82CE
331
8293
  5
8295
331
8358
  5
835C
331
84CD
  5
84D3
331
844E
  5
8452
331
8254
  5
8254
331
829B
  5
829E
331
8360
  5
8372
331
84ED
  5
85F5
331
82DA
  5
82E0
331
841F
  5
8423
331
8264
  5
8264
331
845E
  5
8464
331
961B
  5
9BAC
331
8C4D
  5
8C51
331
95B4
  5
95B8
331
97AB
  5
9BB0
331
8C55
  5
8CF5
331
95BC
  5
95C2
331
9BAB
  5
9BB1
331
86F3
  5
86F8
331
87B0
  5
87B4
331
88AE
  5
88B2
331
8779
  5
877E
331
85F5
  5
8674
331
86BC
  5
86D2
331
86FB
  5
86FF
331
87B8
  5
87BC
331
87C0
  5
87C4
331
8877
  5
887B
331
8742
  5
8747
331
8781
  5
8793
331
88B6
  5
88BA
331
8703
  5
870A
331
87C8
  5
87CC
331
870B
  5
8711
331
874A
  5
874E
331
887F
  5
8883
331
86D4
  5
86D8
331
88BE
  5
8C30
331
8C2E
  5
8C36
331
8887
  5
888B
331
91DB
  5
921E
331
913E
  5
91C1
331
8321
  5
832A
331
8380
  5
8384
331
826C
  5
826C
331
82A3
  5
82A7
331
82E2
  5
82E6
331
8427
  5
842B
331
8466
  5
8487
331
8274
  5
8276
331
82EA
  5
82EE
331
842F
  5
8433
331
82F2
  5
8305
331
827C
  5
827E
331
82B3
  5
82B7
331
83E0
  5
83FF
331
8437
  5
843B
331
82BB
  5
82BF
331
8235
  5
8235
331
8284
  5
8286
331
8339
  5
8356
331
843F
  5
8444
331
9335
  5
9339
331
95E4
  5
960D
331
960C
  5
97AB
331
87D0
  5
87D5
331
86DC
  5
86E0
331
8713
  5
8717
331
8752
  5
8756
331
888F
  5
8893
331
8C36
  5
8C40
331
875A
  5
875E
331
8799
  5
879D
331
871B
  5
8720
331
8848
  5
8860
331
8897
  5
889B
331
8C3E
  5
8C42
331
8762
  5
8774
331
87A1
  5
87A5
331
8695
  5
86AF
331
86EC
  5
86F0
331
8723
  5
8727
331
8860
  5
8864
331
889F
  5
88A3
331
872B
  5
872F
331
87A9
  5
87AD
331
8C46
  5
8C4A
331
88A7
  5
88AB
331
917E
  5
9217
331
82C3
  5
82C7
331
8400
  5
841B
331
823D
  5
823D
331
828C
  5
828E
331
8359
  5
835D
331
8294
  5
8296
331
82CB
  5
82CF
331
8447
  5
844B
331
844F
  5
8453
331
8255
  5
8255
331
829C
  5
82A1
331
8361
  5
8380
331
84CE
  5
84EC
331
8265
  5
8265
331
84EE
  5
85F6
331
8C4E
  5
8C52
331
961C
  5
9BAE
331
95B5
  5
95B9
331
95BD
  5
95C3
331
9BAC
  5
9BB2
331
87B1
  5
87B5
331
8868
  5
8877
331
88AF
  5
88B3
331
86FC
  5
8702
331
87B9
  5
87BD
331
85F6
  5
8678
331
88B7
  5
88BC
331
8782
  5
8794
331
8704
  5
870B
331
87C1
  5
87C5
331
8878
  5
887C
331
8880
  5
8884
331
874B
  5
8750
331
867E
  5
8689
331
86D5
  5
86D9
331
87C9
  5
87CD
331
8C2F
  5
8C3C
331
8420
  5
8424
331
82E3
  5
82E7
331
8322
  5
832B
331
826D
  5
826D
331
82A4
  5
82A8
331
8381
  5
8385
331
8428
  5
842C
331
82AC
  5
82B1
331
82EB
  5
82EF
331
8275
  5
8277
331
832A
  5
8334
331
8332
  5
8339
331
827D
  5
827F
331
82B4
  5
82B8
331
82F3
  5
8306
331
8430
  5
8434
331
8438
  5
843C
331
833A
  5
8357
331
8487
  5
84AA
331
8285
  5
8287
331
82BC
  5
82C1
331
8236
  5
8236
331
8303
  5
8307
331
84BF
  5
84C7
331
9336
  5
933A
331
95E5
  5
961B
331
9576
  5
957A
331
960D
  5
9BAB
331
87D1
  5
87D6
331
8753
  5
8757
331
8888
  5
888C
331
86DD
  5
86E1
331
8714
  5
8718
331
8890
  5
8894
331
871C
  5
8721
331
875B
  5
8760
331
879A
  5
879E
331
8C3F
  5
8C43
331
87A2
  5
87A6
331
8861
  5
8865
331
86ED
  5
86F3
331
8724
  5
8728
331
8696
  5
86B9
331
8763
  5
8775
331
8898
  5
889C
331
88A0
  5
88A4
331
87AA
  5
87AE
331
8C47
  5
8C4B
331
872C
  5
8730
331
8440
  5
8445
331
823E
  5
823E
331
828D
  5
8290
331
82C4
  5
82C8
331
8401
  5
841D
331
8448
  5
844C
331
82CC
  5
82D0
331
8295
  5
8297
331
835A
  5
835E
331
84C7
  5
84CE
331
8362
  5
8381
331
82D4
  5
82D8
331
8256
  5
8256
331
831B
  5
831F
331
8450
  5
845E
331
8372
  5
8383
331
84EF
  5
85F7
331
8266
  5
8266
331
8C4F
  5
8C53
331
95B6
  5
95BA
331
8C57
  5
8D06
331
88A8
  5
88AC
331
8773
  5
8777
331
86F5
  5
86F9
331
87B2
  5
87B6
331
8869
  5
8878
331
88B0
  5
88B4
331
877B
  5
8780
331
85F7
  5
867E
331
86FD
  5
8703
331
87BA
  5
87BE
331
87C2
  5
87C6
331
8744
  5
8748
331
8879
  5
887D
331
88B8
  5
88BE
331
87CA
  5
87CE
331
8881
  5
8885
331
874C
  5
8751
331
867F
  5
868A
331
86D6
  5
86DA
331
878B
  5
8796
331
8323
  5
832D
331
8382
  5
83DE
331
826E
  5
826E
331
82A5
  5
82A9
331
821F
  5
821F
331
82E4
  5
82E8
331
8421
  5
8426
331
8429
  5
842D
331
82EC
  5
82F0
331
832B
  5
8337
331
8276
  5
8278
331
82AD
  5
82B2
331
8431
  5
8435
331
822F
  5
822F
331
827E
  5
8280
331
82B5
  5
82B9
331
83E2
  5
8400
331
8439
  5
843D
331
82BD
  5
82C2
331
8304
  5
8308
331
8286
  5
8288
331
833B
  5
8358
331
95DE
  5
95E4
331
9337
  5
933B
331
9577
  5
957B
331
8C30
  5
8C3E
331
8793
  5
8797
331
87D2
  5
87D7
331
86DE
  5
86E2
331
8715
  5
8719
331
8687
  5
868B
331
8754
  5
8758
331
8889
  5
888D
331
8891
  5
8895
331
875C
  5
8761
331
879B
  5
879F
331
86E6
  5
86EC
331
871D
  5
8722
331
884A
  5
8861
331
8862
  5
8866
331
8899
  5
889D
331
87A3
  5
87A7
331
8C40
  5
8C44
331
8697
  5
86BA
331
86EE
  5
86F5
331
8725
  5
8729
331
88A1
  5
88A5
331
872D
  5
8731
331
87AB
  5
87AF
331
8E23
  5
8FC6
331
8FAB
  5
9079
331
84C0
  5
84C8
331
828E
  5
8292
331
82C5
  5
82C9
331
823F
  5
823F
331
8441
  5
8447
331
8449
  5
844D
331
84C8
  5
84D0
331
835B
  5
835F
331
840A
  5
841F
331
8296
  5
8298
331
82CD
  5
82D1
331
8314
  5
831E
331
8451
  5
8461
331
831C
  5
8320
331
8257
  5
8257
331
829E
  5
82A2
331
8363
  5
8382
331
82DD
  5
82E2
331
8267
  5
8267
331
8C48
  5
8C4C
331
8C50
  5
8C54
331
95AF
  5
95B4
331
95B7
  5
95BB
331
84F0
  5
8673
331
87B3
  5
87B7
331
886A
  5
8879
331
86F6
  5
86FA
331
86AF
  5
86BC
331
8774
  5
8778
331
88A9
  5
88AD
331
88B1
  5
88B6
331
877C
  5
8781
331
86FE
  5
8704
331
87BB
  5
87BF
331
88B9
  5
8C2B
331
87C3
  5
87C7
331
86CF
  5
86D3
331
8706
  5
870E
331
8678
  5
8688
331
8745
  5
8749
331
887A
  5
887E
331
8882
  5
8886
331
874D
  5
8752
331
86D7
  5
86DC
331
870E
  5
8712
331
87CB
  5
87CF
331
9131
  5
917E
331
91CE
  5
9219
331
8383
  5
83DF
331
8422
  5
8427
331
8324
  5
8332
331
8461
  5
8465
331
8220
  5
8220
331
826F
  5
826F
331
82A6
  5
82AA
331
82AE
  5
82B3
331
82ED
  5
82F1
331
842A
  5
842E
331
8277
  5
8279
331
8469
  5
8490
331
8334
  5
833A
331
827F
  5
8281
331
82B6
  5
82BB
331
8230
  5
8230
331
8432
  5
8436
331
843A
  5
843E
331
8305
  5
8309
331
833C
  5
8359
331
8287
  5
8289
331
82BE
  5
82C3
331
9330
  5
9336
331
9338
  5
9499
331
95DF
  5
95E5
331
9578
  5
95A8
331
87D3
  5
8848
331
888A
  5
888E
331
8716
  5
871A
331
8755
  5
8759
331
8688
  5
868C
331
86DF
  5
86E3
331
8794
  5
8798
331
8892
  5
8896
331
8690
  5
8695
331
875D
  5
8762
331
879C
  5
87A0
331
8C41
  5
8C45
331
87A4
  5
87A8
331
86EF
  5
86F6
331
8726
  5
872A
331
8863
  5
8867
331
8698
  5
86BB
331
889A
  5
889E
331
88A2
  5
88A6
331
87AC
  5
87B0
331
872E
  5
873E
331
9171
  5
91DB
331
91C1
  5
9218
331
8442
  5
8448
331
84C1
  5
84CC
331
8240
  5
8240
331
82C6
  5
82CA
331
844A
  5
844E
331
82CE
  5
82D2
331
8297
  5
8299
331
835C
  5
8360
331
841B
  5
8420
331
829F
  5
82A3
331
831D
  5
8321
331
8452
  5
8462
331
82DE
  5
82E3
331
8C49
  5
8C4D
331
95A8
  5
95B1
331
8C51
  5
8C55
331
9079
  5
90C7
331
95B8
  5
95BC
331
92D9
  5
9330
331
95C0
  5
95DE
331
886B
  5
887A
331
88AA
  5
88AE
331
8775
  5
8779
331
86F7
  5
86FB
331
87B4
  5
87B8
331
88B2
  5
88B7
331
873E
  5
8744
331
877D
  5
8782
331
86FF
  5
8706
331
87BC
  5
87C0
331
87C4
  5
87C8
331
8746
  5
874A
331
887B
  5
887F
331
86D0
  5
86D4
331
88BA
  5
8C2E
331
87CC
  5
87D0
331
870F
  5
8713
331
874E
  5
8753
331
8883
  5
8887
331
8CF5
  5
8DBC
331
8268
  5
8268
331
8462
  5
8466
331
8384
  5
83E0
331
82A7
  5
82AC
331
8221
  5
8221
331
82E6
  5
82EA
331
8423
  5
8428
331
842B
  5
842F
331
82EE
  5
82F2
331
8278
  5
827A
331
832D
  5
8338
331
846A
  5
8491
331
8433
  5
8437
331
8231
  5
8231
331
8280
  5
8282
331
82B7
  5
82BC
331
82BF
  5
82C4
331
8306
  5
830E
331
843B
  5
843F
331
9331
  5
9337
331
9339
  5
9576
331
9579
  5
95A9
331
86D8
  5
86DD
331
8795
  5
8799
331
86E0
  5
86E6
331
8717
  5
871B
331
8689
  5
8690
331
8756
  5
875A
331
888B
  5
888F
331
8893
  5
8897
331
875E
  5
8763
331
879D
  5
87A1
331
8691
  5
8696
331
871F
  5
8723
331
8864
  5
8868
331
889B
  5
889F
331
8727
  5
872B
331
87A5
  5
87A9
331
8C42
  5
8C46
331
88A3
  5
88A7
331
872F
  5
873F
331
87AD
  5
87B1
331
8239
  5
8239
331
8288
  5
828A
331
84C2
  5
84CD
331
8290
  5
8293
331
82C7
  5
82CB
331
830E
  5
831C
331
844B
  5
844F
331
835D
  5
8361
331
8298
  5
829B
331
82CF
  5
82D3
331
8251
  5
8251
331
831E
  5
8322
331
8453
  5
8463
331
82D7
  5
82DC
  0
XRECORD
  5
9FBB
102
{ACAD_REACTORS
330
9FBA
102
}
330
9FBA
100
AcDbXrecord
280
     1
102
SHADEPLOT
 70
     0
  0
XRECORD
  5
9FBD
102
{ACAD_REACTORS
330
9FBC
102
}
330
9FBC
100
AcDbXrecord
280
     1
102
SHADEPLOT
 70
     0
  0
GROUP
  5
921A
102
{ACAD_REACTORS
330
D
102
}
330
D
100
AcDbGroup
300

 70
     1
 71
     1
  0
GROUP
  5
9E06
102
{ACAD_REACTORS
330
D
102
}
330
D
100
AcDbGroup
300

 70
     1
 71
     1
  0
LAYOUT
  5
2C4
102
{ACAD_XDICTIONARY
360
9FB4
102
}
102
{ACAD_REACTORS
330
2C2
102
}
330
2C2
100
AcDbPlotSettings
  1

  2
Laser Wind 2080W
  4

  6

 40
0.0
 41
0.0
 42
0.0
 43
0.0
 44
0.0
 45
0.0
 46
0.0
 47
0.0
 48
0.0
 49
0.0
140
0.0
141
0.0
142
1.0
143
1.0
 70
 11952
 72
     0
 73
     1
 74
     0
  7

 75
     0
147
1.0
148
-22549.4628798259
149
-13196.72119735008
100
AcDbLayout
  1
Model
 70
     1
 71
     0
 10
0.0
 20
0.0
 11
12.0
 21
9.0
 12
0.0
 22
0.0
 32
0.0
 14
0.0
 24
0.0
 34
0.0
 15
0.0
 25
0.0
 35
0.0
146
0.0
 13
0.0
 23
0.0
 33
0.0
 16
1.0
 26
0.0
 36
0.0
 17
0.0
 27
1.0
 37
0.0
 76
     0
330
1A
331
9EFE
  0
LAYOUT
  5
9789
102
{ACAD_XDICTIONARY
360
97A8
102
}
102
{ACAD_REACTORS
330
2C2
102
}
330
2C2
100
AcDbPlotSettings
  1

  2
Adobe PDF
  4
A3
  6

 40
3.174999952316282
 41
3.174999952316282
 42
3.17498779296875
 43
3.17498779296875
 44
297.0318298339844
 45
420.1583251953125
 46
0.0
 47
0.0
 48
0.0
 49
0.0
140
0.0
141
0.0
142
1.0
143
1.0
 70
   688
 72
     1
 73
     1
 74
     5
  7
monochrome.ctb
 75
    16
147
1.0
148
0.0
149
0.0
100
AcDbLayout
  1
レイアウト1
 70
     1
 71
     1
 10
-3.17498779296875
 20
-3.174999952316282
 11
416.9833374023435
 21
293.8568298816682
 12
0.0
 22
0.0
 32
0.0
 14
2.111715209800422
 24
2.148474444290513
 34
0.0
 15
411.6966341940425
 25
288.5333555328187
 35
0.0
146
0.0
 13
0.0
 23
0.0
 33
0.0
 16
1.0
 26
0.0
 36
0.0
 17
0.0
 27
1.0
 37
0.0
 76
     0
330
978A
331
978B
1001
ACAD_PSEXT
1000
Adobe PDF
1000
Adobe PDF Converter
1000
Desktop
1000

1070
     0
  0
MATERIAL
  5
9F1B
102
{ACAD_XDICTIONARY
360
9F1C
102
}
102
{ACAD_REACTORS
330
976C
102
}
330
976C
100
AcDbMaterial
  1
ByBlock
 72
     0
 43
0.0208333333333333
 43
0.0
 43
0.0
 43
0.0
 43
0.0
 43
0.0208333333333333
 43
0.0
 43
0.0
 43
0.0
 43
0.0
 43
1.0
 43
0.0
 43
0.0
 43
0.0
 43
0.0
 43
1.0
 77
     0
 47
0.0208333333333333
 47
0.0
 47
0.0
 47
0.0
 47
0.0
 47
0.0208333333333333
 47
0.0
 47
0.0
 47
0.0
 47
0.0
 47
1.0
 47
0.0
 47
0.0
 47
0.0
 47
0.0
 47
1.0
171
     0
 49
0.0208333333333333
 49
0.0
 49
0.0
 49
0.0
 49
0.0
 49
0.0208333333333333
 49
0.0
 49
0.0
 49
0.0
 49
0.0
 49
1.0
 49
0.0
 49
0.0
 49
0.0
 49
0.0
 49
1.0
175
     0
142
0.0208333333333333
142
0.0
142
0.0
142
0.0
142
0.0
142
0.0208333333333333
142
0.0
142
0.0
142
0.0
142
0.0
142
1.0
142
0.0
142
0.0
142
0.0
142
0.0
142
1.0
179
     0
144
0.0208333333333333
144
0.0
144
0.0
144
0.0
144
0.0
144
0.0208333333333333
144
0.0
144
0.0
144
0.0
144
0.0
144
1.0
144
0.0
144
0.0
144
0.0
144
0.0
144
1.0
147
0.0208333333333333
147
0.0
147
0.0
147
0.0
147
0.0
147
0.0208333333333333
147
0.0
147
0.0
147
0.0
147
0.0
147
1.0
147
0.0
147
0.0
147
0.0
147
0.0
147
1.0
  0
MATERIAL
  5
9F13
102
{ACAD_XDICTIONARY
360
9F14
102
}
102
{ACAD_REACTORS
330
976C
102
}
330
976C
100
AcDbMaterial
  1
ByLayer
 72
     0
 43
0.0208333333333333
 43
0.0
 43
0.0
 43
0.0
 43
0.0
 43
0.0208333333333333
 43
0.0
 43
0.0
 43
0.0
 43
0.0
 43
1.0
 43
0.0
 43
0.0
 43
0.0
 43
0.0
 43
1.0
 77
     0
 47
0.0208333333333333
 47
0.0
 47
0.0
 47
0.0
 47
0.0
 47
0.0208333333333333
 47
0.0
 47
0.0
 47
0.0
 47
0.0
 47
1.0
 47
0.0
 47
0.0
 47
0.0
 47
0.0
 47
1.0
171
     0
 49
0.0208333333333333
 49
0.0
 49
0.0
 49
0.0
 49
0.0
 49
0.0208333333333333
 49
0.0
 49
0.0
 49
0.0
 49
0.0
 49
1.0
 49
0.0
 49
0.0
 49
0.0
 49
0.0
 49
1.0
175
     0
142
0.0208333333333333
142
0.0
142
0.0
142
0.0
142
0.0
142
0.0208333333333333
142
0.0
142
0.0
142
0.0
142
0.0
142
1.0
142
0.0
142
0.0
142
0.0
142
0.0
142
1.0
179
     0
144
0.0208333333333333
144
0.0
144
0.0
144
0.0
144
0.0
144
0.0208333333333333
144
0.0
144
0.0
144
0.0
144
0.0
144
1.0
144
0.0
144
0.0
144
0.0
144
0.0
144
1.0
147
0.0208333333333333
147
0.0
147
0.0
147
0.0
147
0.0
147
0.0208333333333333
147
0.0
147
0.0
147
0.0
147
0.0
147
1.0
147
0.0
147
0.0
147
0.0
147
0.0
147
1.0
  0
MATERIAL
  5
9F23
102
{ACAD_XDICTIONARY
360
9F24
102
}
102
{ACAD_REACTORS
330
976C
102
}
330
976C
100
AcDbMaterial
  1
Global
 72
     0
 43
0.0208333333333333
 43
0.0
 43
0.0
 43
0.0
 43
0.0
 43
0.0208333333333333
 43
0.0
 43
0.0
 43
0.0
 43
0.0
 43
1.0
 43
0.0
 43
0.0
 43
0.0
 43
0.0
 43
1.0
 77
     0
 47
0.0208333333333333
 47
0.0
 47
0.0
 47
0.0
 47
0.0
 47
0.0208333333333333
 47
0.0
 47
0.0
 47
0.0
 47
0.0
 47
1.0
 47
0.0
 47
0.0
 47
0.0
 47
0.0
 47
1.0
171
     0
 49
0.0208333333333333
 49
0.0
 49
0.0
 49
0.0
 49
0.0
 49
0.0208333333333333
 49
0.0
 49
0.0
 49
0.0
 49
0.0
 49
1.0
 49
0.0
 49
0.0
 49
0.0
 49
0.0
 49
1.0
175
     0
142
0.0208333333333333
142
0.0
142
0.0
142
0.0
142
0.0
142
0.0208333333333333
142
0.0
142
0.0
142
0.0
142
0.0
142
1.0
142
0.0
142
0.0
142
0.0
142
0.0
142
1.0
179
     0
144
0.0208333333333333
144
0.0
144
0.0
144
0.0
144
0.0
144
0.0208333333333333
144
0.0
144
0.0
144
0.0
144
0.0
144
1.0
144
0.0
144
0.0
144
0.0
144
0.0
144
1.0
147
0.0208333333333333
147
0.0
147
0.0
147
0.0
147
0.0
147
0.0208333333333333
147
0.0
147
0.0
147
0.0
147
0.0
147
1.0
147
0.0
147
0.0
147
0.0
147
0.0
147
1.0
  0
MLEADERSTYLE
  5
9F5F
102
{ACAD_REACTORS
330
9F5E
102
}
330
9F5E
100
AcDbMLeaderStyle
170
     2
171
     1
172
     0
 90
        2
 40
0.0
 41
0.0
173
     1
 91
-1056964608
340
14
 92
       -2
290
     1
 42
2.0
291
     1
 43
0.36
  3
Standard
 44
4.0
300

342
10
174
     1
178
     6
175
     1
176
     0
 93
-1056964608
 45
4.0
292
     0
297
     0
 46
4.0
 94
-1056964608
 47
1.0
 49
1.0
140
1.0
293
     1
141
0.0
294
     1
177
     0
142
1.0
295
     0
296
     0
143
0.125
1001
ACAD_MLEADERVER
1070
     2
  0
MLINESTYLE
  5
13
102
{ACAD_REACTORS
330
E
102
}
330
E
100
AcDbMlineStyle
  2
STANDARD
 70
     0
  3

 62
     0
 51
90.0
 52
90.0
 71
     2
 49
0.5
 62
   256
  6
BYLAYER
 49
-0.5
 62
   256
  6
BYLAYER
  0
PLOTSETTINGS
  5
373
102
{ACAD_XDICTIONARY
360
9FB6
102
}
102
{ACAD_REACTORS
330
2C3
102
}
330
2C3
100
AcDbPlotSettings
  1
A3form102
  2
EPSON LP-8200
  4
A3
  6

 40
5.873749732971191
 41
5.873747825622557
 42
5.873748779296875
 43
5.873748779296875
 44
297.0106506347656
 45
419.9466552734373
 46
0.0
 47
0.0
 48
0.0
 49
0.0
140
0.0
141
0.0
142
1.0
143
1.0
 70
   688
 72
     1
 73
     1
 74
     5
  7
monochrome.ctb
 75
    16
147
1.0
148
0.0
149
0.0
  0
ACDBPLACEHOLDER
  5
2C1
102
{ACAD_REACTORS
330
2C0
102
}
330
2C0
  0
SCALE
  5
9F3D
102
{ACAD_REACTORS
330
9F3C
102
}
330
9F3C
100
AcDbScale
 70
     0
300
1:1
140
1.0
141
1.0
290
     1
  0
SCALE
  5
9F3E
102
{ACAD_REACTORS
330
9F3C
102
}
330
9F3C
100
AcDbScale
 70
     0
300
1:2
140
1.0
141
2.0
290
     0
  0
SCALE
  5
9F3F
102
{ACAD_REACTORS
330
9F3C
102
}
330
9F3C
100
AcDbScale
 70
     0
300
1:4
140
1.0
141
4.0
290
     0
  0
SCALE
  5
9F40
102
{ACAD_REACTORS
330
9F3C
102
}
330
9F3C
100
AcDbScale
 70
     0
300
1:5
140
1.0
141
5.0
290
     0
  0
SCALE
  5
9F41
102
{ACAD_REACTORS
330
9F3C
102
}
330
9F3C
100
AcDbScale
 70
     0
300
1:8
140
1.0
141
8.0
290
     0
  0
SCALE
  5
9F42
102
{ACAD_REACTORS
330
9F3C
102
}
330
9F3C
100
AcDbScale
 70
     0
300
1:10
140
1.0
141
10.0
290
     0
  0
SCALE
  5
9F43
102
{ACAD_REACTORS
330
9F3C
102
}
330
9F3C
100
AcDbScale
 70
     0
300
1:16
140
1.0
141
16.0
290
     0
  0
SCALE
  5
9F44
102
{ACAD_REACTORS
330
9F3C
102
}
330
9F3C
100
AcDbScale
 70
     0
300
1:20
140
1.0
141
20.0
290
     0
  0
SCALE
  5
9F45
102
{ACAD_REACTORS
330
9F3C
102
}
330
9F3C
100
AcDbScale
 70
     0
300
1:30
140
1.0
141
30.0
290
     0
  0
SCALE
  5
9F46
102
{ACAD_REACTORS
330
9F3C
102
}
330
9F3C
100
AcDbScale
 70
     0
300
1:40
140
1.0
141
40.0
290
     0
  0
SCALE
  5
9F47
102
{ACAD_REACTORS
330
9F3C
102
}
330
9F3C
100
AcDbScale
 70
     0
300
1:50
140
1.0
141
50.0
290
     0
  0
SCALE
  5
9F48
102
{ACAD_REACTORS
330
9F3C
102
}
330
9F3C
100
AcDbScale
 70
     0
300
1:100
140
1.0
141
100.0
290
     0
  0
SCALE
  5
9F49
102
{ACAD_REACTORS
330
9F3C
102
}
330
9F3C
100
AcDbScale
 70
     0
300
2:1
140
2.0
141
1.0
290
     0
  0
SCALE
  5
9F4A
102
{ACAD_REACTORS
330
9F3C
102
}
330
9F3C
100
AcDbScale
 70
     0
300
4:1
140
4.0
141
1.0
290
     0
  0
SCALE
  5
9F4B
102
{ACAD_REACTORS
330
9F3C
102
}
330
9F3C
100
AcDbScale
 70
     0
300
8:1
140
8.0
141
1.0
290
     0
  0
SCALE
  5
9F4C
102
{ACAD_REACTORS
330
9F3C
102
}
330
9F3C
100
AcDbScale
 70
     0
300
10:1
140
10.0
141
1.0
290
     0
  0
SCALE
  5
9F4D
102
{ACAD_REACTORS
330
9F3C
102
}
330
9F3C
100
AcDbScale
 70
     0
300
100:1
140
100.0
141
1.0
290
     0
  0
SCALE
  5
9F4E
102
{ACAD_REACTORS
330
9F3C
102
}
330
9F3C
100
AcDbScale
 70
     0
300
1/128" = 1'-0"
140
0.0078125
141
12.0
290
     0
  0
SCALE
  5
9F4F
102
{ACAD_REACTORS
330
9F3C
102
}
330
9F3C
100
AcDbScale
 70
     0
300
1/64" = 1'-0"
140
0.015625
141
12.0
290
     0
  0
SCALE
  5
9F50
102
{ACAD_REACTORS
330
9F3C
102
}
330
9F3C
100
AcDbScale
 70
     0
300
1/32" = 1'-0"
140
0.03125
141
12.0
290
     0
  0
SCALE
  5
9F51
102
{ACAD_REACTORS
330
9F3C
102
}
330
9F3C
100
AcDbScale
 70
     0
300
1/16" = 1'-0"
140
0.0625
141
12.0
290
     0
  0
SCALE
  5
9F52
102
{ACAD_REACTORS
330
9F3C
102
}
330
9F3C
100
AcDbScale
 70
     0
300
3/32" = 1'-0"
140
0.09375
141
12.0
290
     0
  0
SCALE
  5
9F53
102
{ACAD_REACTORS
330
9F3C
102
}
330
9F3C
100
AcDbScale
 70
     0
300
1/8" = 1'-0"
140
0.125
141
12.0
290
     0
  0
SCALE
  5
9F54
102
{ACAD_REACTORS
330
9F3C
102
}
330
9F3C
100
AcDbScale
 70
     0
300
3/16" = 1'-0"
140
0.1875
141
12.0
290
     0
  0
SCALE
  5
9F55
102
{ACAD_REACTORS
330
9F3C
102
}
330
9F3C
100
AcDbScale
 70
     0
300
1/4" = 1'-0"
140
0.25
141
12.0
290
     0
  0
SCALE
  5
9F56
102
{ACAD_REACTORS
330
9F3C
102
}
330
9F3C
100
AcDbScale
 70
     0
300
3/8" = 1'-0"
140
0.375
141
12.0
290
     0
  0
SCALE
  5
9F57
102
{ACAD_REACTORS
330
9F3C
102
}
330
9F3C
100
AcDbScale
 70
     0
300
1/2" = 1'-0"
140
0.5
141
12.0
290
     0
  0
SCALE
  5
9F58
102
{ACAD_REACTORS
330
9F3C
102
}
330
9F3C
100
AcDbScale
 70
     0
300
3/4" = 1'-0"
140
0.75
141
12.0
290
     0
  0
SCALE
  5
9F59
102
{ACAD_REACTORS
330
9F3C
102
}
330
9F3C
100
AcDbScale
 70
     0
300
1" = 1'-0"
140
1.0
141
12.0
290
     0
  0
SCALE
  5
9F5A
102
{ACAD_REACTORS
330
9F3C
102
}
330
9F3C
100
AcDbScale
 70
     0
300
1-1/2" = 1'-0"
140
1.5
141
12.0
290
     0
  0
SCALE
  5
9F5B
102
{ACAD_REACTORS
330
9F3C
102
}
330
9F3C
100
AcDbScale
 70
     0
300
3" = 1'-0"
140
3.0
141
12.0
290
     0
  0
SCALE
  5
9F5C
102
{ACAD_REACTORS
330
9F3C
102
}
330
9F3C
100
AcDbScale
 70
     0
300
6" = 1'-0"
140
6.0
141
12.0
290
     0
  0
SCALE
  5
9F5D
102
{ACAD_REACTORS
330
9F3C
102
}
330
9F3C
100
AcDbScale
 70
     0
300
1'-0" = 1'-0"
140
12.0
141
12.0
290
     0
  0
TABLESTYLE
  5
976F
102
{ACAD_XDICTIONARY
360
9F8F
102
}
102
{ACAD_REACTORS
330
976E
102
}
330
976E
100
AcDbTableStyle
  3
Standard
 70
     0
 71
     0
 40
1.5
 41
1.5
280
     0
281
     0
  7
STANDARD
140
4.5
170
     2
 62
     0
 63
     7
283
     0
274
    -2
284
     1
 64
     0
275
    -2
285
     1
 65
     0
276
    -2
286
     1
 66
     0
277
    -2
287
     1
 67
     0
278
    -2
288
     1
 68
     0
279
    -2
289
     1
 69
     0
  7
STANDARD
140
6.0
170
     5
 62
     0
 63
     7
283
     0
274
    -2
284
     1
 64
     0
275
    -2
285
     1
 65
     0
276
    -2
286
     1
 66
     0
277
    -2
287
     1
 67
     0
278
    -2
288
     1
 68
     0
279
    -2
289
     1
 69
     0
  7
STANDARD
140
4.5
170
     5
 62
     0
 63
     7
283
     0
274
    -2
284
     1
 64
     0
275
    -2
285
     1
 65
     0
276
    -2
286
     1
 66
     0
277
    -2
287
     1
 67
     0
278
    -2
288
     1
 68
     0
279
    -2
289
     1
 69
     0
  0
VISUALSTYLE
  5
9F31
102
{ACAD_REACTORS
330
9F2B
102
}
330
9F2B
100
AcDbVisualStyle
  2
2dWireframe
 70
     4
 71
     0
 72
     2
 73
     0
 90
        0
 40
-0.6
 41
-30.0
 62
     5
 63
     7
 74
     1
 91
        4
 64
     7
 65
   257
 75
     1
175
     1
 42
1.0
 92
        0
 66
   257
 43
1.0
 76
     1
 77
     6
 78
     2
 67
     7
 79
     5
170
     0
171
     0
290
     0
174
     0
 93
        1
 44
0.0
173
     0
291
     0
 45
0.0
1001
ACAD
1000
AcDbSavedByObjectVersion
1070
     0
1000
AcDbSavedByObjectVersion
1070
     0
  0
VISUALSTYLE
  5
9F33
102
{ACAD_REACTORS
330
9F2B
102
}
330
9F2B
100
AcDbVisualStyle
  2
3D Hidden
 70
     6
 71
     1
 72
     2
 73
     2
 90
        0
 40
-0.6
 41
-30.0
 62
     5
 63
     7
 74
     2
 91
        2
 64
     7
 65
   257
 75
     2
175
     1
 42
40.0
 92
        0
 66
   257
 43
1.0
 76
     1
 77
     6
 78
     2
 67
     7
 79
     3
170
     0
171
     0
290
     0
174
     0
 93
        1
 44
0.0
173
     0
291
     0
 45
0.0
1001
ACAD
1000
AcDbSavedByObjectVersion
1070
     0
1000
AcDbSavedByObjectVersion
1070
     0
  0
VISUALSTYLE
  5
9F32
102
{ACAD_REACTORS
330
9F2B
102
}
330
9F2B
100
AcDbVisualStyle
  2
3dWireframe
 70
     5
 71
     0
 72
     2
 73
     0
 90
        0
 40
-0.6
 41
-30.0
 62
     5
 63
     7
 74
     1
 91
        4
 64
     7
 65
   257
 75
     1
175
     1
 42
1.0
 92
        0
 66
   257
 43
1.0
 76
     1
 77
     6
 78
     2
 67
     7
 79
     5
170
     0
171
     0
290
     0
174
     0
 93
        1
 44
0.0
173
     0
291
     0
 45
0.0
1001
ACAD
1000
AcDbSavedByObjectVersion
1070
     0
1000
AcDbSavedByObjectVersion
1070
     0
  0
VISUALSTYLE
  5
9F30
102
{ACAD_REACTORS
330
9F2B
102
}
330
9F2B
100
AcDbVisualStyle
  2
Basic
 70
     7
 71
     1
 72
     0
 73
     1
 90
        0
 40
-0.6
 41
-30.0
 62
     5
 63
     7
 74
     0
 91
        4
 64
     7
 65
   257
 75
     1
175
     1
 42
1.0
 92
        8
 66
     7
 43
1.0
 76
     1
 77
     6
 78
     2
 67
     7
 79
     5
170
     0
171
     0
290
     0
174
     0
 93
        1
 44
0.0
173
     0
291
     1
 45
0.0
1001
ACAD
1000
AcDbSavedByObjectVersion
1070
     0
1000
AcDbSavedByObjectVersion
1070
     0
  0
VISUALSTYLE
  5
9F37
102
{ACAD_REACTORS
330
9F2B
102
}
330
9F2B
100
AcDbVisualStyle
  2
Brighten
 70
    12
 71
     2
 72
     2
 73
     0
 90
        0
 40
-0.6
 41
-30.0
 62
     5
 63
     7
 74
     1
 91
        4
 64
     7
 65
   257
 75
     1
175
     1
 42
1.0
 92
        8
 66
     7
 43
1.0
 76
     1
 77
     6
 78
     2
 67
     7
 79
     5
170
     0
171
     0
290
     0
174
     0
 93
        1
 44
50.0
173
     0
291
     1
 45
0.0
1001
ACAD
1000
AcDbSavedByObjectVersion
1070
     0
1000
AcDbSavedByObjectVersion
1070
     0
  0
VISUALSTYLE
  5
9F3B
102
{ACAD_REACTORS
330
9F2B
102
}
330
9F2B
100
AcDbVisualStyle
  2
ColorChange
 70
    16
 71
     2
 72
     2
 73
     3
 90
        0
 40
-0.6
 41
-30.0
 62
     5
 63
     8
 74
     1
 91
        4
 64
     7
 65
   257
 75
     1
175
     1
 42
1.0
 92
        8
 66
     8
 43
1.0
 76
     1
 77
     6
 78
     2
 67
     7
 79
     5
170
     0
171
     0
290
     0
174
     0
 93
        1
 44
0.0
173
     0
291
     1
 45
0.0
1001
ACAD
1000
AcDbSavedByObjectVersion
1070
     0
1000
AcDbSavedByObjectVersion
1070
     0
  0
VISUALSTYLE
  5
9F34
102
{ACAD_REACTORS
330
9F2B
102
}
330
9F2B
100
AcDbVisualStyle
  2
Conceptual
 70
     9
 71
     3
 72
     2
 73
     0
 90
        0
 40
-0.6
 41
-30.0
 62
     5
 63
     7
 74
     2
 91
        2
 64
     7
 65
   257
 75
     1
175
     1
 42
40.0
 92
        8
 66
     7
 43
1.0
 76
     1
 77
     6
 78
     2
 67
     7
 79
     3
170
     0
171
     0
290
     0
174
     0
 93
        1
 44
0.0
173
     0
291
     0
 45
0.0
1001
ACAD
1000
AcDbSavedByObjectVersion
1070
     0
1000
AcDbSavedByObjectVersion
1070
     0
  0
VISUALSTYLE
  5
9F36
102
{ACAD_REACTORS
330
9F2B
102
}
330
9F2B
100
AcDbVisualStyle
  2
Dim
 70
    11
 71
     2
 72
     2
 73
     0
 90
        0
 40
-0.6
 41
-30.0
 62
     5
 63
     7
 74
     1
 91
        4
 64
     7
 65
   257
 75
     1
175
     1
 42
1.0
 92
        8
 66
     7
 43
1.0
 76
     1
 77
     6
 78
     2
 67
     7
 79
     5
170
     0
171
     0
290
     0
174
     0
 93
        1
 44
-50.0
173
     0
291
     1
 45
0.0
1001
ACAD
1000
AcDbSavedByObjectVersion
1070
     0
1000
AcDbSavedByObjectVersion
1070
     0
  0
VISUALSTYLE
  5
9F3A
102
{ACAD_REACTORS
330
9F2B
102
}
330
9F2B
100
AcDbVisualStyle
  2
Facepattern
 70
    15
 71
     2
 72
     2
 73
     0
 90
        0
 40
-0.6
 41
-30.0
 62
     5
 63
     7
 74
     1
 91
        4
 64
     7
 65
   257
 75
     1
175
     1
 42
1.0
 92
        8
 66
     7
 43
1.0
 76
     1
 77
     6
 78
     2
 67
     7
 79
     5
170
     0
171
     0
290
     0
174
     0
 93
        1
 44
0.0
173
     0
291
     1
 45
0.0
1001
ACAD
1000
AcDbSavedByObjectVersion
1070
     0
1000
AcDbSavedByObjectVersion
1070
     0
  0
VISUALSTYLE
  5
9F2C
102
{ACAD_REACTORS
330
9F2B
102
}
330
9F2B
100
AcDbVisualStyle
  2
Flat
 70
     0
 71
     2
 72
     1
 73
     1
 90
        2
 40
-0.6
 41
30.0
 62
     5
 63
     7
 74
     0
 91
        4
 64
     7
 65
   257
 75
     1
175
     1
 42
1.0
 92
        8
 66
     7
 43
1.0
 76
     1
 77
     6
 78
     2
 67
     7
 79
     5
170
     0
171
     0
290
     0
174
     0
 93
       13
 44
0.0
173
     0
291
     1
 45
0.0
1001
ACAD
1000
AcDbSavedByObjectVersion
1070
     0
1000
AcDbSavedByObjectVersion
1070
     0
  0
VISUALSTYLE
  5
9F2D
102
{ACAD_REACTORS
330
9F2B
102
}
330
9F2B
100
AcDbVisualStyle
  2
FlatWithEdges
 70
     1
 71
     2
 72
     1
 73
     1
 90
        2
 40
-0.6
 41
30.0
 62
     5
 63
     7
 74
     1
 91
        4
 64
     7
 65
   257
 75
     1
175
     1
 42
1.0
 92
        0
 66
   257
 43
1.0
 76
     1
 77
     6
 78
     2
 67
     7
 79
     5
170
     0
171
     0
290
     0
174
     0
 93
       13
 44
0.0
173
     0
291
     1
 45
0.0
1001
ACAD
1000
AcDbSavedByObjectVersion
1070
     0
1000
AcDbSavedByObjectVersion
1070
     0
  0
VISUALSTYLE
  5
9F2E
102
{ACAD_REACTORS
330
9F2B
102
}
330
9F2B
100
AcDbVisualStyle
  2
Gouraud
 70
     2
 71
     2
 72
     2
 73
     1
 90
        2
 40
-0.6
 41
30.0
 62
     5
 63
     7
 74
     0
 91
        4
 64
     7
 65
   257
 75
     1
175
     1
 42
1.0
 92
        0
 66
     7
 43
1.0
 76
     1
 77
     6
 78
     2
 67
     7
 79
     5
170
     0
171
     0
290
     0
174
     0
 93
       13
 44
0.0
173
     0
291
     1
 45
0.0
1001
ACAD
1000
AcDbSavedByObjectVersion
1070
     0
1000
AcDbSavedByObjectVersion
1070
     0
  0
VISUALSTYLE
  5
9F2F
102
{ACAD_REACTORS
330
9F2B
102
}
330
9F2B
100
AcDbVisualStyle
  2
GouraudWithEdges
 70
     3
 71
     2
 72
     2
 73
     1
 90
        2
 40
-0.6
 41
30.0
 62
     5
 63
     7
 74
     1
 91
        4
 64
     7
 65
   257
 75
     1
175
     1
 42
1.0
 92
        0
 66
   257
 43
1.0
 76
     1
 77
     6
 78
     2
 67
     7
 79
     5
170
     0
171
     0
290
     0
174
     0
 93
       13
 44
0.0
173
     0
291
     1
 45
0.0
1001
ACAD
1000
AcDbSavedByObjectVersion
1070
     0
1000
AcDbSavedByObjectVersion
1070
     0
  0
VISUALSTYLE
  5
9F39
102
{ACAD_REACTORS
330
9F2B
102
}
330
9F2B
100
AcDbVisualStyle
  2
Linepattern
 70
    14
 71
     2
 72
     2
 73
     0
 90
        0
 40
-0.6
 41
-30.0
 62
     5
 63
     7
 74
     1
 91
        4
 64
     7
 65
   257
 75
     7
175
     7
 42
1.0
 92
        8
 66
     7
 43
1.0
 76
     1
 77
     6
 78
     2
 67
     7
 79
     5
170
     0
171
     0
290
     0
174
     0
 93
        1
 44
0.0
173
     0
291
     1
 45
0.0
1001
ACAD
1000
AcDbSavedByObjectVersion
1070
     0
1000
AcDbSavedByObjectVersion
1070
     0
  0
VISUALSTYLE
  5
9F35
102
{ACAD_REACTORS
330
9F2B
102
}
330
9F2B
100
AcDbVisualStyle
  2
Realistic
 70
     8
 71
     2
 72
     2
 73
     0
 90
        0
 40
-0.6
 41
-30.0
 62
     5
 63
     7
 74
     1
 91
        0
 64
     7
 65
   257
 75
     1
175
     1
 42
1.0
 92
        8
 66
     8
 43
1.0
 76
     1
 77
     6
 78
     2
 67
     7
 79
     5
170
     0
171
     0
290
     0
174
     0
 93
       13
 44
0.0
173
     0
291
     0
 45
0.0
1001
ACAD
1000
AcDbSavedByObjectVersion
1070
     0
1000
AcDbSavedByObjectVersion
1070
     0
  0
VISUALSTYLE
  5
9F38
102
{ACAD_REACTORS
330
9F2B
102
}
330
9F2B
100
AcDbVisualStyle
  2
Thicken
 70
    13
 71
     2
 72
     2
 73
     0
 90
        0
 40
-0.6
 41
-30.0
 62
     5
 63
     7
 74
     1
 91
        4
 64
     7
 65
   257
 75
     1
175
     1
 42
1.0
 92
       12
 66
     7
 43
1.0
 76
     1
 77
     6
 78
     2
 67
     7
 79
     5
170
     0
171
     0
290
     0
174
     0
 93
        1
 44
0.0
173
     0
291
     1
 45
0.0
1001
ACAD
1000
AcDbSavedByObjectVersion
1070
     0
1000
AcDbSavedByObjectVersion
1070
     0
  0
DICTIONARYVAR
  5
9F8C
102
{ACAD_REACTORS
330
4FBC
102
}
330
4FBC
100
DictionaryVariables
280
     0
  1
1:1
  0
DICTIONARYVAR
  5
9F8B
102
{ACAD_REACTORS
330
4FBC
102
}
330
4FBC
100
DictionaryVariables
280
     0
  1
STANDARD
  0
DICTIONARYVAR
  5
9778
102
{ACAD_REACTORS
330
4FBC
102
}
330
4FBC
100
DictionaryVariables
280
     0
  1
STANDARD
  0
DICTIONARYVAR
  5
4FBD
102
{ACAD_REACTORS
330
4FBC
102
}
330
4FBC
100
DictionaryVariables
280
     0
  1
1
  0
DICTIONARYVAR
  5
9F8E
102
{ACAD_REACTORS
330
4FBC
102
}
330
4FBC
100
DictionaryVariables
280
     0
  1
0
  0
DICTIONARYVAR
  5
9779
102
{ACAD_REACTORS
330
4FBC
102
}
330
4FBC
100
DictionaryVariables
280
     0
  1

  0
DICTIONARYVAR
  5
9F8D
102
{ACAD_REACTORS
330
4FBC
102
}
330
4FBC
100
DictionaryVariables
280
     0
  1
127
  0
XRECORD
  5
9F7A
102
{ACAD_REACTORS
330
9F78
102
}
330
9F78
100
AcDbXrecord
280
     1
  1
50
  1
*-50
  1
*
  1
*
 70
     0
  1
*
  1
*
1001
ACAD
1000
( NAME== "*-50" )
  0
XRECORD
  5
9F79
102
{ACAD_REACTORS
330
9F77
102
}
330
9F77
100
AcDbXrecord
280
     1
  1
AcLyLayerFilter
 90
        1
300
50
301
( NAME== "*-50" )
  0
DICTIONARY
  5
9FB4
330
2C4
100
AcDbDictionary
280
     1
281
     1
  3
ACAD_XREC_ROUNDTRIP
360
9FB5
  0
DICTIONARY
  5
97A8
330
9789
100
AcDbDictionary
280
     1
281
     1
  3
ACAD_XREC_ROUNDTRIP
360
9FB9
  3
ADSK_XREC_LAYOUTTHUMBNAIL
360
97A9
  0
DICTIONARY
  5
9F1C
330
9F1B
100
AcDbDictionary
280
     1
281
     1
  3
ACAD_XREC_ROUNDTRIP
360
9F9E
  3
BUMPTILE
360
9F1E
  3
DIFFUSETILE
360
9F1D
  3
OPACITYTILE
360
9F21
  3
REFLECTIONTILE
360
9F20
  3
REFRACTIONTILE
360
9F22
  3
SPECULARTILE
360
9F1F
  0
DICTIONARY
  5
9F14
330
9F13
100
AcDbDictionary
280
     1
281
     1
  3
ACAD_XREC_ROUNDTRIP
360
9F9D
  3
BUMPTILE
360
9F16
  3
DIFFUSETILE
360
9F15
  3
OPACITYTILE
360
9F19
  3
REFLECTIONTILE
360
9F18
  3
REFRACTIONTILE
360
9F1A
  3
SPECULARTILE
360
9F17
  0
DICTIONARY
  5
9F24
330
9F23
100
AcDbDictionary
280
     1
281
     1
  3
ACAD_XREC_ROUNDTRIP
360
9F9F
  3
BUMPTILE
360
9F26
  3
DIFFUSETILE
360
9F25
  3
OPACITYTILE
360
9F29
  3
REFLECTIONTILE
360
9F28
  3
REFRACTIONTILE
360
9F2A
  3
SPECULARTILE
360
9F27
  0
DICTIONARY
  5
9FB6
330
373
100
AcDbDictionary
280
     1
281
     1
  3
ACAD_XREC_ROUNDTRIP
360
9FB7
  0
DICTIONARY
  5
9F8F
330
976F
100
AcDbDictionary
280
     1
281
     1
  3
ACAD_ROUNDTRIP_2008_TABLESTYLE_CELLSTYLEMAP
360
9FB2
  3
ACAD_XREC_ROUNDTRIP
360
9FB8
  0
XRECORD
  5
9FB5
102
{ACAD_REACTORS
330
9FB4
102
}
330
9FB4
100
AcDbXrecord
280
     1
102
SHADEPLOT
 70
     0
102
SHADEPLOTRESLEVEL
 70
     2
102
SHADEPLOTCUSTOMDPI
 70
   300
  0
XRECORD
  5
9FB9
102
{ACAD_REACTORS
330
97A8
102
}
330
97A8
100
AcDbXrecord
280
     1
102
SHADEPLOT
 70
     0
102
SHADEPLOTRESLEVEL
 70
     2
102
SHADEPLOTCUSTOMDPI
 70
   300
  0
XRECORD
  5
97A9
102
{ACAD_REACTORS
330
97A8
102
}
330
97A8
100
AcDbXrecord
280
     1
310
28000000B40000007F00000001000800000000004C590000000000000000000000010000000000000000000000000000FFFFFF000000000000000000000000000000000000000000000000000000000000000000330000006600000099000000CC000000FF00000000330000333300006633000099330000CC330000FF3300
310
0000660000336600006666000099660000CC660000FF66000000990000339900006699000099990000CC990000FF99000000CC000033CC000066CC000099CC0000CCCC0000FFCC000000FF000033FF000066FF000099FF0000CCFF0000FFFF000000003300330033006600330099003300CC003300FF003300003333003333
310
33006633330099333300CC333300FF33330000663300336633006666330099663300CC663300FF66330000993300339933006699330099993300CC993300FF99330000CC330033CC330066CC330099CC3300CCCC3300FFCC330000FF330033FF330066FF330099FF3300CCFF3300FFFF330000006600330066006600660099
310
006600CC006600FF00660000336600333366006633660099336600CC336600FF33660000666600336666006666660099666600CC666600FF66660000996600339966006699660099996600CC996600FF99660000CC660033CC660066CC660099CC6600CCCC6600FFCC660000FF660033FF660066FF660099FF6600CCFF6600
310
FFFF660000009900330099006600990099009900CC009900FF00990000339900333399006633990099339900CC339900FF33990000669900336699006666990099669900CC669900FF66990000999900339999006699990099999900CC999900FF99990000CC990033CC990066CC990099CC9900CCCC9900FFCC990000FF99
310
0033FF990066FF990099FF9900CCFF9900FFFF99000000CC003300CC006600CC009900CC00CC00CC00FF00CC000033CC003333CC006633CC009933CC00CC33CC00FF33CC000066CC003366CC006666CC009966CC00CC66CC00FF66CC000099CC003399CC006699CC009999CC00CC99CC00FF99CC0000CCCC0033CCCC0066CC
310
CC0099CCCC00CCCCCC00FFCCCC0000FFCC0033FFCC0066FFCC0099FFCC00CCFFCC00FFFFCC000000FF003300FF006600FF009900FF00CC00FF00FF00FF000033FF003333FF006633FF009933FF00CC33FF00FF33FF000066FF003366FF006666FF009966FF00CC66FF00FF66FF000099FF003399FF006699FF009999FF00CC
310
99FF00FF99FF0000CCFF0033CCFF0066CCFF0099CCFF00CCCCFF00FFCCFF0000FFFF0033FFFF0066FFFF0099FFFF00CCFFFF00FFFFFF00000000000D0D0D001A1A1A00282828003535350043434300505050005D5D5D006B6B6B00787878008686860093939300A1A1A100AEAEAE00BBBBBB00C9C9C900D6D6D600E4E4E400
310
F1F1F100FFFFFF0000000000000000000000000000000000000000000000000000000000000000000000000000000000F5F5F5F5F5F5F5F5F5F5F5F5F5F5F5F5F5F5F5F5F5F5F5F5F5F5F5F5F5F5F5F5F5F5F5F5F5F5F5F5F5F5F5F5F5F5F5F5F5F5F5F5F5F5F5F5F5F5F5F5F5F5F5F5F5F5F5F5F5F5F5F5F5F5F5F5F5F5F5
310
F5F5F5F5F5F5F5F5F5F5F5F5F5F5F5F5F5F5F5F5F5F5F5F5F5F5F5F5F5F5F5F5F5F5F5F5F5F5F5F5F5F5F5F5F5F5F5F5F5F5F5F5F5F5F5F5F5F5F5F5F5F5F5F5F5F5F5F5F5F5F5F5F5F5F5F5F5F5F5F5F5F5F5F5F5F5F5F5F5F5F5F5F5F5F5F5F5F5F5F5F5F5E2F5F5F5F5F5F5F5F5E2E2E2E2E2E2E2E2E2F5F5F5F5F5F5F5
310
F5F5F5F5F5F5F5F5F5E2E2E2E2E2E2E2E2E2F5F5F5F5F5F5F5F5F5F5F5F5F5F5F5F5E2E2E2E2E2E2E2E2E2F5F5F5F5F5F5F5F5F5F5F5F5F5F5F5F5E2E2E2E2E2E2E2E2E2F5F5F5F5F5F5F5F5F5F5F5F5F5F5F5F5E2E2E2E2E2E2E2E2E2F5F5F5F5F5F5F5F5F5F5F5F5F5F5F5F5E2E2E2E2E2E2E2E2E2F5F5F5F5F5F5F5F5F5
310
F5F5F5F5F5F5F5E2E2E2E2E2E2E2E2E2F5F5F5F5F5F5F5F5E2F5F5F5E2F5F5F5F5F5F5F5F5F5F5F5F5F5F5F5F5F5F5F5F5F5F5F5F5F5F5F5F5F5F5F5F5F5F5F5F5F5F5F5F5F5F5F5F5F5F5F5F5F5F5F5F5F5F5F5F5F5F5F5F5F5F5F5F5F5F5F5F5F5F5F5F5F5F5F5F5F5F5F5F5F5F5F5F5F5F5F5F5F5F5F5F5F5F5F5F5F5F5
310
F5F5F5F5F5F5F5F5F5F5F5F5F5F5F5F5F5F5F5F5F5F5F5F5F5F5F5F5F5F5F5F5F5F5F5F5F5F5F5F5F5F5F5F5F5F5F5F5F5F5F5F5F5F5F5F5F5F5F5F5F5F5F5F5F5F5F5F5F5F5F5F5F5F5F5F5F5E2F5F5F5E2F5E2E2E2E2E2E2E2E2E2E2E2E2E2E2E2E2E2E2E2E2E2E2E2E2E2E2E2E2E2E2E2E2E2E2E2E2E2E2E2E2E2E2E2E2
310
E2E2E2E2E2E2E2E2E2E2E2E2E2E2E2E2E2E2E2E2E2E2E2E2E2E2E2E2E2E2E2E2E2E2E2E2E2E2E2E2E2E2E2E2E2E2E2E2E2E2E2E2E2E2E2E2E2E2E2E2E2E2E2E2E2E2E2E2E2E2E2E2E2E2E2E2E2E2E2E2E2E2E2E2E2E2E2E2E2E2E2E2E2E2E2E2E2E2E2E2E2E2E2E2E2E2E2E2E2E2E2E2E2E2E2E2E2E2E2E2E2E2E2E2E2E2E2
310
E2E2F5E2F5F5F5E2F5E2E2E2E2E2E2E2E2E2E2E2E2E2E2E2E2E2E2E2E2E2E2E2E2E2E2E2E2E2E2E2E2E2E2E2E2E2E2E2E2E2E2E2E2E2E2E2E2E2E2E2E2E2E2E2E2E2E2E2E2E2E2E2E2E2E2E2E2E2E2E2E2E2E2E2E2E2E2E2E2E2E2E2E2E2E2E2E2E2E2E2E2E2E2E2E2E2E2E2E2E2E2E2E2E2E2E2E2E2E2E2E2E2E2E2E2E2E2
310
E2E2E2E2E2E2E2E2E2E2E2E2E2E2E2E2E2E2E2E2E2E2E2E2E2E2E2E2E2E2E2E2E2E2E2E2E2E2E2E2E2E2E2E2E2E2E2E2E2E2E2E2E2E2E2F5E2F5F5F5E2F5E2E2E2E2E2E2E2E2E2E2E2E2E2E2E2E2E2E2E2E2E2E2E2E2E2E2E2E2E2E2E2E2E2E2E2E2E2E2E2E2E2E2E2E2E2E2E2E2E2E2E2E2E2E2E2E2E2E2E2E2E2E2E2E2E2
310
E2E2E2E2E2E2E2E2E2E2E2E2E2E2E2E2E2E2E2E2E2E2E2E2E2E2E2E2E2E2E2E2E2E2E2E2E2E2E2E2E2E2E2E2E2E2E2E2E2E2E2E2E2E2E2E2E2E2E2E2E2E2E2E2E2E2E2E2E2E2E2E2E2E2E2E2E2E2E2E2E2E2E2E2E2E2E2E2E2E2E2E2E2E2E2E2E2E2E2E2E2E2E2E2E2E2E2E2F5E2F5F5F5E2F5E2E2E2E2E2E2E2E2E2E2E2E2
310
E2E2E2E2E2E2E2E2E2E2E2E2E2E2E2E2E2E2E2E2E2E2E2E2E2E2E2E2E2E2E2E2E2E2E2E2E2E2E2E2E2E2E2E2E2E2E2E2E2E2E2E2E2E2E2E2E2E2E2E2E2E2E2E2E2E2E2E2E2E2E2E2E2E2E2E2E2E2E2E2E2E2E2E2E2E2E2E2E2E2E2E2E2E2E2E2E2E2E2E2E2E2E2E2E2E2E2E2E2E2E2E2E2E2E2E2E2E2E2E2E2E2E2E2E2E2E2
310
E2E2E2E2E2E2E2E2E2E2E2E2E2E2E2E2E2E2E2E2E2E2E2E2E2E2E2E2E2E2E2E2E2E2F5E2F5F5F5E2F5E2E2E2E2E2E2E2E2E2E2E2E2E2E2E2E2E2E2E2E2E2E2E2E2E2E2E2E2E2E2E2E2E2E2E2E2E2E2E2E2E2E2E2E2E2E2E2E2E2E2E2E2E2E2F0E2E2E2E2E2E2E2E2E2E2E2E2E2E2E2E2E2E2E2E2E2E2E2E2E2E2E2E2E2E2E2
310
E2E2E2E2E2E2E2E2E2E2E2F0E2E2E2E2E2E2E2E2E2E2E2E2E2E2E2E2E2E2E2E2E2E2E2E2E2E2E2E2E2E2E2E2E2E2E2E2E2E2E2E2E2E2E2E2E2E2E2E2E2E2E2E2E2E2E2E2E2E2E2E2E2E2E2E2E2E2E2E2E2E2E2E2E2E2E2F5E2F5F5F5E2F5E2E2E2E2E2E2E2E2E2E2E2E2E2E2E2E2E2E2E2E2E2E2E2E2E2E2E2E2E2E2E2E2E2
310
E2E2E2E2E2E2E2E2E2E2E2E2E2E2E2E2E2E2E2E2E2F0F0F0F0F0F0F0F0F0F0F0F0F0F0F0F0F0F0F0DCDCDCDCDCF0F0F0F0F0F0F0F0F0F0F0F0F0F0F0F0F0F0F0F0E2E2E2E2E2E2E2E2E2E2E2E2E2E2E2E2E2E2E2E2E2E2E2E2E2E2E2E2E2E2E2E2E2E2E2E2E2E2E2E2E2E2E2E2E2E2E2E2E2E2E2E2E2E2E2E2E2E2E2E2E2E2
310
E2E2E2E2E2E2E2E2E2E2E2E2E2F5E2F5F5F5E2F5E2E2E2E2E2E2E2E2E2E2E2E2E2E2E2E2E2E2E2E2E2E2E2E2E2E2E2E2E2E2E2E2E2E2E2E2E2E2E2E2E2E2E2E2E2E2E2E2E2E2E2E2E2E2F0E2E2E2F0E2E2E2E2E2E2E2E2E2F0E2E2E2E2DCDCDCDCDCE2E2E2E2E2F0E2E2E2E2E2E2E2E2E2F0E2E2E2F0E2E2E2E2E2E2E2E2E2
310
E2E2E2E2E2E2E2E2E2E2E2E2E2E2E2E2E2E2E2E2E2E2E2E2E2E2E2E2E2E2E2E2E2E2E2E2E2E2E2E2E2E2E2E2E2E2E2E2E2E2E2E2E2E2E2E2E2E2E2E2E2E2E2E2E2E2F5E2F5F5F5E2F5E2E2E2E2E2E2E2E2E2E2E2E2E2E2E2E2E2E2E2E2E2E2E2E2E2E2E2E2E2E2E2E2E2E2E2E2E2E2E2E2E2E2E2E2E2E2E2E2E2E2E2E2E2E2
310
F0DCDCDCF0F0F0F0F0DCF0F0F0F0F0F0F0F0F0F0F0DCDCF0F0F0F0F0F0F0F0F0F0DCDCF0F0F0F0F0F0F0F0F0F0DCDCDCDCDCDCE2E2E2E2E2E2E2E2E2E2E2E2E2E2E2E2E2E2E2E2E2E2E2E2E2E2E2E2E2E2E2E2E2E2E2E2E2E2E2E2E2E2E2E2E2E2E2E2E2E2E2E2E2E2E2E2E2E2E2E2E2E2E2E2E2E2E2E2F5E2F5F5F5E2F5E2
310
E2E2E2E2E2E2E2E2E2E2E2E2E2E2E2E2E2E2E2E2E2E2E2E2E2E2E2E2E2E2E2E2E2E2E2E2E2E2E2E2E2E2E2E2E2E2E2E2E2E2E2E2E2F0DCDCDCF0E2E2E2DCDCDCE2E2E2F0E2E2E2E2E2DCDCDCE2E2E2E2E2E2F0E2E2E2DCDCDCE2E2E2F0E2E2E2F0E2DCDCDCDCDCDCE2E2E2E2E2E2E2E2E2E2E2E2E2E2E2E2E2E2E2E2E2E2E2
310
E2E2E2E2E2E2E2E2E2E2E2E2E2E2E2E2E2E2E2E2E2E2E2E2E2E2E2E2E2E2E2E2E2E2E2E2E2E2E2E2E2E2E2E2E2F5E2F5F5F5E2F5E2E2E2E2E2E2E2E2E2E2E2E2E2E2E2E2E2E2E2E2E2E2E2E2E2E2E2E2E2E2E2E2E2E2E2E2E2E2E2E2E2E2E2E2E2E2E2E2E2E2E2E2E2E2F0E2E2E2F0E2E2E2E2E2E2E2E2E2F0E2E2E2E2E2E2
310
E2E2E2E2E2E2E2E2F0E2E2E2E2E2E2E2E2E2F0E2E2E2F0E2E2E2E2E2E2E2E2E2E2E2E2E2E2E2E2E2E2E2E2E2E2E2E2E2E2E2E2E2E2E2E2E2E2E2E2E2E2E2E2E2E2E2E2E2E2E2E2E2E2E2E2E2E2E2E2E2E2E2E2E2E2E2E2E2E2E2E2E2E2E2E2E2E2E2F5E2F5F5F5E2F5E2E2E2E2E2E2E2E2E2E2E2E2E2E2E2E2E2E2E2E2E2E2
310
E2E2E2E2E2E2E2E2E2E2E2E2E2E2E2E2E2E2E2E2E2E2E2E2E2E2E2E2E2E2E2E2F0E2E2E2F0E2E2E2E2E2E2E2E2E2F0E2E2E2E2E2E2E2E2E2E2E2E2E2E2F0E2E2E2E2E2E2E2E2E2F0E2E2E2F0E2E2E2E2E2E2E2E2E2E2E2E2E2E2E2E2E2E2E2E2E2E2E2E2E2E2E2E2E2E2E2E2E2E2E2E2E2E2E2E2E2E2E2E2E2E2E2E2E2E2E2
310
E2E2E2E2E2E2E2E2E2E2E2E2E2E2E2E2E2E2E2E2E2E2E2E2F5E2F5F5F5E2F5E2E2E2E2E2E2E2E2E2E2E2E2E2E2E2E2E2E2E2E2E2E2E2E2E2E2E2E2E2E2E2E2E2E2E2E2E2E2E2E2E2E2E2E2E2E2E2E2E2E2E2E2E2E2F0E2E2E2F0E2E2E2E2E2E2E2E2E2F0E2E2E2E2E2E2E2E2E2E2E2E2E2E2F0E2E2E2E2E2E2E2E2E2F0E2E2
310
E2F0E2E2E2E2E2E2E2E2E2E2E2E2E2E2E2E2E2E2E2E2E2E2E2E2E2E2E2E2E2E2E2E2E2E2E2E2E2E2E2E2E2E2E2E2E2E2E2E2E2E2E2E2E2E2E2E2E2E2E2E2E2E2E2E2E2E2E2E2E2E2E2E2E2E2E2F5E2F5F5F5E2F5E2E2E2E2E2E2E2E2E2E2E2E2E2E2E2E2E2E2E2E2E2E2E2E2E2E2E2E2E2E2E2E2E2E2E2E2E2E2E2E2E2E2E2
310
E2E2E2E2E2E2E2E2E2E2E2F0E2E2E2F0E2E2E2E2E2E2E2E2E2F0E2E2E2E2E2E2E2E2E2E2E2E2E2E2F0E2E2E2E2E2E2E2E2E2F0E2E2E2F0E2E2E2E2E2E2E2E2E2E2E2E2E2E2E2E2E2E2E2E2E2E2E2E2E2E2E2E2E2E2E2E2E2E2E2E2E2E2E2E2E2E2E2E2E2E2E2E2E2E2E2E2E2E2E2E2E2E2E2E2E2E2E2E2E2E2E2E2E2E2E2E2
310
E2E2E2F5E2F5F5F5E2F5E2E2E2E2E2E2E2E2E2E2E2E2E2E2E2E2E2E2E2E2E2E2E2E2E2E2E2E2E2E2E2E2E2E2E2E2E2E2E2E2E2E2E2E2E2E2E2E2E2E2E2E2E2E2F0E2E2E2F0E2E2E2E2E2E2E2E2E2F0E2E2E2E2E2E2E2E2E2E2E2E2E2E2F0E2E2E2E2E2E2E2E2E2F0E2E2E2F0E2E2E2E2E2E2E2E2E2E2E2E2E2E2E2E2E2E2E2
310
E2E2E2E2E2E2E2E2E2E2E2E2E2E2E2E2E2E2E2E2E2E2E2E2E2E2E2E2E2E2E2E2E2E2E2E2E2E2E2E2E2E2E2E2E2E2E2E2E2E2E2E2E2E2E2E2F5E2F5F5F5E2F5E2E2E2E2E2E2E2E2E2E2E2E2E2E2E2E2E2E2E2E2E2E2E2E2E2E2E2E2E2E2E2E2E2E2E2E2E2E2E2E2E2E2E2E2E2E2F0F0F0F0F0F0F0F0F0F5F0F5F0F5F5F5F5F0
310
F0F0F0F0F0F5F5F5F5F5F5F5F5F5F5F5F5F5F5F0F5F5F5F5F5F5F5F5F5F0F5F0F5F0F0F0F0F0F0F0F0E2E2E2E2E2E2E2E2E2E2E2E2E2E2E2E2E2E2E2E2E2E2E2E2E2E2E2E2E2E2E2E2E2E2E2E2E2E2E2E2E2E2E2E2E2E2E2E2E2E2E2E2E2E2E2E2E2E2E2E2E2E2E2E2E2E2E2E2F5E2F5F5F5E2F5E2E2E2E2E2E2E2E2E2E2E2
310
E2E2E2E2E2E2E2E2E2E2E2E2E2E2E2E2E2E2E2E2E2E2E2E2E2E2E2E2E2E2E2E2E2E2E2DCF0E2E2E2E2E2E2F5F5F0F5F0E2E2E2E2E2F0E2E2E2F0E2E2E2E2E2E2E2E2E2E2E2E2E2E2F0E2E2E2E2E2E2E2E2E2F0F5F0F5F5E2E2E2E2E2F0E2E2E2E2E2E2E2E2E2E2E2E2E2E2E2E2E2E2E2E2E2E2E2E2E2E2E2E2E2E2E2E2E2E2
310
E2E2E2E2E2E2E2E2E2E2E2E2E2E2E2E2E2E2E2E2E2E2E2E2E2E2E2E2E2E2E2E2E2E2E2F5E2F5F5F5E2F5E2E2E2E2E2E2E2E2E2E2E2E2E2E2E2E2E2E2E2E2E2E2E2E2E2E2E2E2E2E2E2E2E2E2E2E2E2E2E2E2E2E2E2E2E2E2DCDCE2E2E2E2E2E2F0F0F0F0F0E2E2E2E2E2F0E2E2E2F0E2E2E2E2E2E2E2E2E2E2E2E2E2E2F0E2
310
E2E2E2E2E2E2E2E2F0F0F0F0F5E2E2E2E2E2F0E2E2E2E2E2E2E2E2E2E2E2E2E2E2E2E2E2E2E2E2E2E2E2E2E2E2E2E2E2E2E2E2E2E2E2E2E2E2E2E2E2E2E2E2E2E2E2E2E2E2E2E2E2E2E2E2E2E2E2E2E2E2E2E2E2E2E2E2E2F5E2F5F5F5E2F5E2E2E2E2E2E2E2E2E2E2E2E2E2E2E2E2E2E2E2E2E2E2E2E2E2E2E2E2E2E2E2E2
310
E2E2E2E2E2E2E2E2E2E2E2E2E2E2DCDCE2E2E2E2E2E2F5F5F0F5F0F5E2E2E2E2F0E2E2E2F0E2E2E2E2E2E2E2E2E2E2E2E2E2E2F0E2E2E2E2E2E2E2E2F5F0F5F0F5F5E2E2E2E2E2F0E2E2E2E2E2E2E2E2E2E2E2E2E2E2E2E2E2E2E2E2E2E2E2E2E2E2E2E2E2E2E2E2E2E2E2E2E2E2E2E2E2E2E2E2E2E2E2E2E2E2E2E2E2E2E2
310
E2E2E2E2E2E2E2E2E2E2E2E2E2E2F5E2F5F5F5E2F5E2E2E2E2E2E2E2E2E2E2E2E2E2E2E2E2E2E2E2E2E2E2E2E2E2E2E2E2E2E2E2E2E2E2E2E2E2E2E2E2E2E2E2E2E2E2F0F0F0F0F0F0F0F0F0F0F0F0F0F0E2E2E2DCDCE2E2E2F0E2E2E2E2E2E2E2E2E2E2E2E2E2E2F0E2E2E2E2E2E2E2F0F0F0F0E2E2F5E2E2E2E2E2F0E2E2
310
E2E2E2E2E2E2E2E2E2E2E2E2E2E2E2E2E2E2E2E2E2E2E2E2E2E2E2E2E2E2E2E2E2E2E2E2E2E2E2E2E2E2E2E2E2E2E2E2E2E2E2E2E2E2E2E2E2E2E2E2E2E2E2E2E2E2E2F5E2F5F5F5E2F5E2E2E2E2E2E2E2E2E2E2E2E2E2E2E2E2E2E2E2E2E2E2E2E2E2E2E2E2E2E2E2E2E2E2E2E2E2E2E2E2E2E2E2E2E2E2E2F0E2E2E2E2E2
310
E2F5E2E2E2F0E2E2E2E2DCDCE2E2E2F0E2E2E2E2E2E2E2E2E2E2E2E2E2E2F0E2E2E2E2E2F0F0F0F0F0F0F0F0F5E2E2E2E2E2F0E2E2E2E2E2E2E2E2E2E2E2E2E2E2E2E2E2E2E2E2E2E2E2E2E2E2E2E2E2E2E2E2E2E2E2E2E2E2E2E2E2E2E2E2E2E2E2E2E2E2E2E2E2E2E2E2E2E2E2E2E2E2E2E2E2E2E2E2E2F5E2F5F5F5E2F5
310
E2E2E2E2E2E2E2E2E2E2E2E2E2E2E2E2E2E2E2E2E2E2E2E2E2E2E2E2E2E2E2E2E2E2E2E2E2E2E2E2E2E2E2E2E2E2E2F0E2E2E2F5F5F5F5E2E2E2E2E2E2E2E2E2F0E2E2E2F0E2E2E2E2E2E2E2E2E2E2E2E2E2E2F0E2E2E2E2E2E2E2F0DCDCDCE2E2F5F5F5F5E2E2F0E2E2E2E2E2E2E2E2E2E2E2E2E2E2E2E2E2E2E2E2E2E2E2
310
E2E2E2E2E2E2E2E2E2E2E2E2E2E2E2E2E2E2E2E2E2E2E2E2E2E2E2E2E2E2E2E2E2E2E2E2E2E2E2E2E2E2E2E2E2E2F5E2F5F5F5E2F5E2E2E2E2E2E2E2E2E2E2E2E2E2E2E2E2E2E2E2E2E2E2E2E2E2E2E2E2E2E2E2E2E2E2E2E2E2E2E2E2E2E2E2E2E2E2E2F0E2E2E2F5F5F5F5E2E2E2E2E2E2E2E2E2F0E2E2E2F0E2E2E2E2E2
310
E2E2E2E2E2E2E2E2E2F0E2E2E2E2E2E2E2F0DCDCE2E2E2F5F5F5F5E2E2F0E2E2E2E2E2E2E2E2E2E2E2E2E2E2E2E2E2E2E2E2E2E2E2E2E2E2E2E2E2E2E2E2E2E2E2E2E2E2E2E2E2E2E2E2E2E2E2E2E2E2E2E2E2E2E2E2E2E2E2E2E2E2E2E2E2E2E2E2E2F5E2F5F5F5E2F5E2E2E2E2E2E2E2E2E2E2E2E2E2E2E2E2E2E2E2E2E2
310
E2E2E2E2E2E2E2E2E2E2E2E2E2E2E2E2E2E2E2E2E2E2E2E2E2DCDCE2E2E2F5F5F5F5E2E2E2E2E2E2E2E2E2F0E2E2E2F0E2E2E2E2E2E2E2E2E2E2E2E2E2F5F0E2E2E2E2E2E2F0E2E2E2E2E2E2F5F5F5F5DCDCDCE2E2E2E2E2E2E2E2E2E2E2E2E2E2E2E2E2E2E2E2E2E2E2E2E2E2E2E2E2E2E2E2E2E2E2E2E2E2E2E2E2E2E2E2
310
E2E2E2E2E2E2E2E2E2E2E2E2E2E2E2E2E2E2E2E2E2E2E2E2E2F5E2F5F5F5E2F5E2E2E2E2E2E2E2E2E2E2E2E2E2E2E2E2E2E2E2E2E2E2E2E2E2E2E2E2E2E2E2E2E2E2E2E2E2E2E2E2E2E2E2E2E2E2DCDCE2E2E2F5E2F5F5E2E2E2E2E2E2E2E2F0F0F0F0F0F0F0F0E2E2E2E2E2E2E2E2E2E2E2F0F0F0E2E2E2E2E2F0E2E2E2E2
310
E2E2F5F5E2F5DCDCDCE2E2E2E2E2E2E2E2E2E2E2E2E2E2E2E2E2E2E2E2E2E2E2E2E2E2E2E2E2E2E2E2E2E2E2E2E2E2E2E2E2E2E2E2E2E2E2E2E2E2E2E2E2E2E2E2E2E2E2E2E2E2E2E2E2E2E2E2E2F5E2F5F5F5E2F5E2E2E2E2E2E2E2E2E2E2E2E2E2E2E2E2E2E2E2E2E2E2E2E2E2E2E2E2E2E2E2E2E2E2E2E2E2E2E2E2E2E2
310
E2E2E2E2DCDCE2E2E2F5F5F5F5E2E2E2E2E2E2E2E2E2E2E2E2E2F0E2E2DCDCF0E2E2E2E2E2E2E2F0F0F0F0F0F0F0F0F0E2E2E2E2E2E2E2F5F5F5F5E2DCDCE2E2E2E2E2E2E2E2E2E2E2E2E2E2E2E2E2E2E2E2E2E2E2E2E2E2E2E2E2E2E2E2E2E2E2E2E2E2E2E2E2E2E2E2E2E2E2E2E2E2E2E2E2E2E2E2E2E2E2E2E2E2E2E2E2
310
E2E2E2E2F5E2F5F5F5E2F5E2E2E2E2E2E2E2E2E2E2E2E2E2E2E2E2E2E2E2E2E2E2E2E2E2E2E2E2E2E2E2E2E2E2E2E2E2E2E2E2E2E2E2E2E2E2E2F0E2E2E2F5F5F5F5E2E2E2E2E2E2E2E2E2E2E2E2E2E2E2E2DCDCDCDCDCE2E2E2E2E2DCDCDCDCDCDCDCDCE2E2E2E2E2E2E2E2F5F5F5F5E2E2F0E2E2E2E2E2E2E2E2E2E2E2E2
310
E2E2E2E2E2E2E2E2E2E2E2E2E2E2E2E2E2E2E2E2E2E2E2E2E2E2E2E2E2E2E2E2E2E2E2E2E2E2E2E2E2E2E2E2E2E2E2E2E2E2E2E2E2E2E2E2E2F5E2F5F5F5E2F5E2E2E2E2E2E2E2E2E2E2E2E2E2E2E2E2E2E2E2E2E2E2E2E2E2E2E2E2E2E2E2E2E2E2E2E2E2E2E2E2E2E2E2E2E2E2E2F0E2E2E2E2E2E2F5E2E2E2E2E2E2E2E2
310
E2E2E2E2E2E2E2E2E2E2DCDCDCE2E2E2E2E2DCDCDCDCE2DCDCDCE2E2E2E2E2E2E2E2F5E2E2E2E2E2F0E2E2E2E2E2E2E2E2E2E2E2E2E2E2E2E2E2E2E2E2E2E2E2E2E2E2E2E2E2E2E2E2E2E2E2E2E2E2E2E2E2E2E2E2E2E2E2E2E2E2E2E2E2E2E2E2E2E2E2E2E2E2E2E2E2E2E2E2E2F5E2F5F5F5E2F5E2E2E2E2E2E2E2E2E2E2
310
E2E2E2E2E2E2E2E2E2E2E2E2E2E2E2E2E2E2E2E2E2E2E2E2E2E2E2E2E2E2E2E2E2E2E2E2E2F0E2E2E2E2E2E2F5E2E2F5F0F5E2E2E2E2E2E2E2E2E2E2E2E2E2E2DCE2E2E2E2E2E2E2E2E2E2E2E2E2E2E2E2E2F5F0F5E2E2F5E2E2E2E2E2F0E2E2E2E2E2E2E2E2E2E2E2E2E2E2E2E2E2E2E2E2E2E2E2E2E2E2E2E2E2E2E2E2E2
310
E2E2E2E2E2E2E2E2E2E2E2E2E2E2E2E2E2E2E2E2E2E2E2E2E2E2E2E2E2E2E2E2E2E2E2E2F5E2F5F5F5E2F5E2E2E2E2E2E2E2E2E2E2E2E2E2E2E2E2E2E2E2E2E2E2E2E2E2E2E2E2E2E2E2E2E2E2E2E2E2E2E2E2E2E2E2E2E2E2F0F0F0F0F0F0F0F0F0F0F0F0F0F0E2E2E2E2E2E2E2E2E2E2E2E2E2E2E2E2E2E2E2E2E2E2E2E2
310
E2E2E2E2E2E2E2F0F0F0F0F0E2F5E2E2E2E2E2F0E2E2E2E2E2E2E2E2E2E2E2E2E2E2E2E2E2E2E2E2E2E2E2E2E2E2E2E2E2E2E2E2E2E2E2E2E2E2E2E2E2E2E2E2E2E2E2E2E2E2E2E2E2E2E2E2E2E2E2E2E2E2E2E2E2E2E2E2E2F5E2F5F5F5E2F5E2E2E2E2E2E2E2E2E2E2E2E2E2E2E2E2E2E2E2E2E2E2E2E2E2E2E2E2E2E2E2
310
E2E2E2E2E2E2E2E2E2E2E2E2E2E2E2DCDCE2E2E2E2E2E2F5F5F0F5F0E2E2E2E2E2E2E2E2E2E2E2E2E2E2E2E2E2E2E2E2E2E2E2E2E2E2E2E2E2E2E2E2E2E2F0F5F0F5F5E2E2E2E2E2F0E2E2E2E2E2E2E2E2E2E2E2E2E2E2E2E2E2E2E2E2E2E2E2E2E2E2E2E2E2E2E2E2E2E2E2E2E2E2E2E2E2E2E2E2E2E2E2E2E2E2E2E2E2E2
310
E2E2E2E2E2E2E2E2E2E2E2E2E2E2E2F5E2F5F5F5E2F5E2E2E2E2E2E2E2E2E2E2E2E2E2E2E2E2E2E2E2E2E2E2E2E2E2E2E2E2E2E2E2E2E2E2E2E2E2E2E2E2E2E2E2E2E2E2DCDCE2E2E2E2E2E2F0F0F0F0E2E2E2E2E2E2E2E2E2E2E2E2E2E2E2E2E2E2E2E2E2E2E2E2E2E2E2E2E2E2E2E2E2E2E2F0F0F0F0F5E2E2E2E2E2F0E2
310
E2E2E2E2E2E2E2E2E2E2E2E2E2E2E2E2E2E2E2E2E2E2E2E2E2E2E2E2E2E2E2E2E2E2E2E2E2E2E2E2E2E2E2E2E2E2E2E2E2E2E2E2E2E2E2E2E2E2E2E2E2E2E2E2E2E2E2E2F5E2F5F5F5E2F5E2E2E2E2E2E2E2E2E2E2E2E2E2E2E2E2E2E2E2E2E2E2E2E2E2E2E2E2E2E2E2E2E2E2E2E2E2E2E2E2E2E2E2E2E2E2DCF0F0F0F0F0
310
F0F0F0F5F0F5F5F5F5F5F5F5F5F5F5F5F5F5F5F5F5F5F5F5F5F5F5F5F5F5F5F5F5F5F5F5F5F5F5F5F5F5F5F0F5F0F0F0F0F0F0F0F0E2E2E2E2E2E2E2E2E2E2E2E2E2E2E2E2E2E2E2E2E2E2E2E2E2E2E2E2E2E2E2E2E2E2E2E2E2E2E2E2E2E2E2E2E2E2E2E2E2E2E2E2E2E2E2E2E2E2E2E2E2E2E2E2E2E2E2E2F5E2F5F5F5E2
310
F5E2E2E2E2E2E2E2E2E2E2E2E2E2E2E2E2E2E2E2E2E2E2E2E2E2E2E2E2E2E2E2E2E2E2E2E2E2E2E2E2E2E2E2E2E2E2E2E2E2E2E2E2E2E2E2E2E2E2E2E2E2E2E2E2E2E2E2E2E2E2E2E2E2E2E2E2E2E2E2E2E2E2E2E2E2E2E2E2E2E2E2E2E2E2E2E2E2E2E2E2E2E2E2E2E2E2E2E2E2E2E2E2E2E2E2E2E2E2E2E2E2E2E2E2E2E2
310
E2E2E2E2E2E2E2E2E2E2E2E2E2E2E2E2E2E2E2E2E2E2E2E2E2E2E2E2E2E2E2E2E2E2E2E2E2E2E2E2E2E2E2E2E2E2E2F5E2F5F5F5E2F5E2E2E2E2E2E2E2E2E2E2E2E2E2E2E2E2E2E2E2E2E2E2E2E2E2E2E2E2E2E2E2E2E2E2E2E2E2E2E2E2E2E2E2E2E2E2E2E2E2E2E2E2E2E2E2E2E2E2E2E2E2E2E2E2E2E2E2E2E2E2E2E2E2
310
E2E2E2E2E2E2E2E2E2E2E2E2E2E2E2E2E2E2E2E2E2E2E2E2E2E2E2E2E2E2E2E2E2E2E2E2E2E2E2E2E2E2E2E2E2E2E2E2E2E2E2E2E2E2E2E2E2E2E2E2E2E2E2E2E2E2E2E2E2E2E2E2E2E2E2E2E2E2E2E2E2E2E2E2E2E2E2E2E2E2E2E2E2E2E2E2E2E2E2E2F5E2F5F5F5E2F5E2E2E2E2E2E2E2E2E2E2E2E2E2E2E2E2E2E2E2E2
310
E2E2E2E2E2E2E2E2E2E2E2E2E2E2E2E2E2E2E2E2E2E2E2E2E2E2E2E2E2E2E2E2E2E2E2E2E2E2E2E2E2E2E2E2E2E2E2E2E2E2E2E2E2E2E2E2E2E2E2E2E2E2E2E2E2E2E2E2E2E2E2E2E2E2E2E2E2E2E2E2E2E2E2E2E2E2E2E2E2E2E2E2E2E2E2E2E2E2E2E2E2E2E2E2E2E2E2E2E2E2E2E2E2E2E2E2E2E2E2E2E2E2E2E2E2E2E2
310
E2E2E2E2E2E2E2E2E2E2E2E2E2E2E2E2E2E2E2E2E2E2E2E2E2E2F5E2F5F5F5E2F5E2E2E2E2E2E2E2E2E2E2E2E2E2E2E2E2E2E2E2E2E2E2E2E2E2E2E2E2E2E2E2E2E2E2E2E2E2E2E2E2E2E2E2E2E2E2E2E2E2E2E2E2E2E2E2E2E2E2E2E2E2E2E2E2E2E2E2E2E2E2E2E2E2E2E2E2E2E2E2E2E2E2E2E2E2E2E2E2E2E2E2E2E2E2
310
E2E2E2E2E2E2E2E2E2E2E2E2E2E2E2E2E2E2E2E2E2E2E2E2E2E2E2E2E2E2E2E2E2E2E2E2E2E2E2E2E2E2E2E2E2E2E2E2E2E2E2E2E2E2E2E2E2E2E2E2E2E2E2E2E2E2E2E2E2E2E2E2E2E2E2E2E2E2E2F5E2F5F5F5E2F5E2E2E2E2E2E2E2E2E2E2E2E2E2E2E2E2E2E2E2E2E2E2E2E2E2E2E2E2E2E2E2E2E2E2E2E2E2E2E2E2E2
310
E2E2E2E2E2E2E2E2E2E2E2E2E2E2E2E2E2E2E2E2E2E2E2E2E2E2E2E2E2E2E2E2E2E2E2E2E2E2E2E2E2E2E2E2E2E2E2E2E2E2E2E2E2E2E2E2E2E2E2E2E2E2E2E2E2E2E2E2E2E2E2E2E2E2E2E2E2E2E2E2E2E2E2E2E2E2E2E2E2E2E2E2E2E2E2E2E2E2E2E2E2E2E2E2E2E2E2E2E2E2E2E2E2E2E2E2E2E2E2E2E2E2E2E2E2E2E2
310
E2E2E2E2E2F5E2F5F5F5E2F5E2E2E2E2E2E2E2E2E2E2E2E2E2E2E2E2E2E2E2E2E2E2E2E2E2E2E2E2E2E2E2E2E2E2E2E2E2E2E2E2E2E2E2E2E2E2E2E2E2E2E2E2E2E2E2E2E2E2E2E2E2E2E2E2E2E2E2E2E2E2E2E2E2E2E2E2E2E2E2E2E2E2E2E2E2E2E2E2E2E2E2E2E2E2E2E2E2E2E2E2E2E2E2E2E2E2E2E2E2E2E2E2E2E2E2
310
E2E2E2E2E2E2E2E2E2E2E2E2E2E2E2E2E2E2E2E2E2E2E2E2E2E2E2E2E2E2E2E2E2E2E2E2E2E2E2E2E2E2E2E2E2E2E2E2E2E2E2E2E2E2E2E2E2E2F5E2F5F5F5E2F5E2E2E2E2E2E2E2E2E2E2E2E2E2E2E2E2E2E2E2E2E2E2E2E2E2E2E2E2E2E2E2E2E2E2E2E2E2E2E2E2E2E2E2E2E2E2E2E2E2E2E2E2E2E2E2E2E2E2E2E2E2E2
310
E2E2E2E2E2E2E2E2E2E2E2E2E2E2E2E2E2E2E2E2E2E2E2E2E2E2E2E2E2E2E2E2E2E2E2E2E2E2E2E2E2E2E2E2E2E2E2E2E2E2E2E2E2E2E2E2E2E2E2E2E2E2E2E2E2E2E2E2E2E2E2E2E2E2E2E2E2E2E2E2E2E2E2E2E2E2E2E2E2E2E2E2E2E2E2E2E2E2E2E2E2E2E2E2E2E2E2E2E2E2E2F5E2F5F5F5E2F5E2E2E2E2E2E2E2E2E2
310
E2E2E2E2E2E2E2E2E2E2E2E2E2E2E2E2E2E2E2E2E2E2E2E2E2E2E2E2E2E2E2E2E2E2E2E2E2E2E2E2E2E2E2E2E2E2E2E2E2E2E2E2E2E2E2E2E2E2E2E2E2E2E2E2E2E2E2E2E2E2E2E2E2E2E2E2E2E2E2E2E2E2E2E2E2E2E2E2E2E2E2E2E2E2E2E2E2E2E2E2E2E2E2E2E2E2E2E2E2E2E2E2E2E2E2E2E2E2E2E2E2E2E2E2E2E2E2
310
E2E2E2E2E2E2E2E2E2E2E2E2E2E2E2E2E2E2E2E2E2E2E2E2E2E2E2E2E2E2E2E2E2E2E2E2E2F5E2F5F5F5E2F5E2E2E2E2E2E2E2E2E2E2E2E2E2E2E2E2E2E2E2E2E2E2E2E2E2E2E2E2E2E2E2E2E2E2E2E2E2E2E2E2E2E2E2E2E2E2E2E2E2E2E2E2E2E2E2E2E2E2E2E2E2E2E2E2E2E2E2E2E2E2E2E2E2E2E2E2E2E2E2E2E2E2E2
310
E2E2E2E2E2E2E2E2E2E2E2E2E2E2E2E2E2E2E2E2E2E2E2E2E2E2E2E2E2E2E2E2E2E2E2E2E2E2E2E2E2E2E2E2E2E2E2E2E2E2E2E2E2E2E2E2E2E2E2E2E2E2E2E2E2E2E2E2E2E2E2E2E2E2E2E2E2E2E2E2E2E2E2E2E2E2E2E2E2E2F5E2F5F5F5E2F5E2E2E2E2E2E2E2E2E2E2E2E2E2E2E2E2E2E2E2E2E2E2E2E2E2E2E2E2E2E2
310
E2E2E2E2E2E2E2E2E2E2E2E2E2E2E2E2E2E2E2E2E2E2E2E2E2E2E2E2E2E2E2E2E2E2E2E2E2E2E2E2E2E2E2E2E2E2E2E2E2E2E2E2E2E2E2E2E2E2E2E2E2E2E2E2E2E2E2E2E2E2E2E2E2E2E2E2E2E2E2E2E2E2E2E2E2E2E2E2E2E2E2E2E2E2E2E2E2E2E2E2E2E2E2E2E2E2E2E2E2E2E2E2E2E2E2E2E2E2E2E2E2E2E2E2E2E2E2
310
E2E2E2E2E2E2E2E2E2E2E2E2E2E2E2E2F5E2F5F5F5E2F5E2E2E2E2E2E2E2E2E2E2E2E2E2E2E2E2E2E2E2F0E2E2E2E2E2E2E2F0E2E2E2E2E2E2E2E2F0E2E2E2E2E2E2E2E2E2E2E2E2E2E2E2E2E2F0E2F0E2E2E2E2E2E2E2E2E2E2E2E2E2E2E2E2E2E2E2E2E2E2E2E2E2E2E2E2E2E2E2E2E2E2E2E2E2E2F0E2F0E2E2E2E2E2E2
310
E2E2E2E2E2E2F0E2F0E2E2E2E2E2E2E2E2E2E2E2E2E2F0F0E2E2E2E2E2E2E2E2E2E2E2E2E2E2E2E2E2E2E2E2E2E2E2E2E2E2E2E2E2E2E2E2E2E2E2E2E2E2E2E2E2E2E2E2E2F5E2F5F5F5E2F5E2E2E2E2E2E2E2E2E2E2E2E2E2F0E2E2E2E2E2F0F0F0F0DCDCF0F0F0F0F0F0DCDCF0F0F0F0E2E2E2E2E2E2E2E2E2E2E2E2F0DC
310
DCDCF0F0F0F0F0F0F0F0F0F0F0F0F0F0F0F0F0F0F0F0F0DCDCDCDCF0F0F0F0F0F0F0F0F0F0F0F0F0F0F0F0F0F0F0F0F0DCF0F0DCF0E2E2E2E2F0F0F0DCF0F0F0F0F0F0DCDCF0F0F0F0F0F0F0F0F0F0DCDCF0E2E2E2E2E2E2E2E2E2E2E2E2E2E2E2E2E2E2E2E2E2E2E2E2E2E2E2E2E2E2E2E2E2E2E2E2E2E2E2E2F5E2F5F5F5
310
E2F5E2E2E2E2E2E2E2E2E2E2E2DCDCDCE2E2E2E2E2F0E2F0DCDCDCE2E2F0E2E2E2DCDCE2E2E2F0E2E2E2E2E2E2E2E2E2E2E2E2E2DCDCDCE2F0E2F0E2E2E2E2E2E2E2E2E2E2E2E2E2E2E2E2E2DCDCDCDCE2E2E2E2E2E2E2E2E2E2E2E2E2E2E2E2E2F0E2F0E2DCDCDCDCE2E2E2E2E2E2E2F0DCF0E2E2E2E2E2DCDCE2E2E2E2E2
310
E2F0F0E2DCDCDCE2E2E2E2E2E2E2E2E2E2E2E2E2E2E2E2E2E2E2E2E2E2E2E2E2E2E2E2E2E2E2E2E2E2E2E2E2E2E2E2E2F5E2F5F5F5E2F5E2E2E2E2E2E2E2E2E2E2E2E2E2F0E2E2E2F0F0F0F0F0F0F0DCDCDCF0E2E2E2DCDCE2E2E2F0E2E2E2E2E2E2E2E2E2E2E2E2E2DCDCE2E2F0E2F0E2E2E2E2E2E2E2E2E2E2E2E2E2E2E2
310
E2E2DCDCDCDCE2E2E2E2E2E2E2E2E2E2E2E2E2E2E2E2E2F0E2F0E2DCDCDCDCE2E2E2E2E2E2E2F0DCF0E2E2E2E2E2DCDCE2E2E2E2E2E2F0F0E2E2DCDCE2E2E2E2E2E2E2E2E2E2E2E2E2E2E2E2E2E2E2E2E2E2E2E2E2E2E2E2E2E2E2E2E2E2E2E2E2E2E2E2E2F5E2F5F5F5E2F5E2E2E2E2E2E2E2E2E2E2E2E2E2F0E2E2E2E2E2
310
F0E2F0F0E2DCDCDCF0E2E2E2E2F0E2E2E2F0E2E2E2E2E2E2E2E2E2E2E2E2E2E2E2E2E2F0E2F0E2F0E2E2E2E2E2E2E2E2E2F0E2E2E2E2E2E2E2E2E2E2E2E2E2E2F0E2E2E2E2E2E2E2E2E2F0E2F0E2F0E2E2E2E2E2E2E2E2E2E2E2E2F0E2F0E2F0E2E2E2E2F0E2E2E2E2F0E2F0F0E2E2F0F0DCDCDCDCDCE2E2E2E2E2E2E2E2E2
310
E2E2E2E2E2E2E2E2E2E2E2E2E2E2E2E2E2E2E2E2E2E2E2E2E2E2E2F5E2F5F5F5E2F5E2E2E2E2E2E2E2E2E2E2F0F0F0F0F0F0F0F0F0F0F0F0F0F5F5F5F5F0F5F5F5F5F0F5F5F5F0E2E2E2E2E2E2E2E2E2E2E2E2E2E2E2E2E2F0F5F0F5F0F5F5F5F5F5F5F5F5F5F0F5F5F5F5F5F5F5F5F5F5F5F5F5F5F0F5F5F5F5F5F5F5F5F5
310
F0F5F0F5F0E2E2E2E2E2E2E2E2E2E2E2E2F0F5F0F5F0F5F5F5F5F0F5F5F5F5F0F5F0F0F0F0E2E2DCDCDCDCDCE2E2E2E2E2E2E2E2E2E2E2E2E2E2E2E2E2E2E2E2E2E2E2E2E2E2E2E2E2E2E2E2E2E2E2E2F5E2F5F5F5E2F5E2E2E2E2E2E2E2E2E2E2F0F0E2F0E2E2E2E2E2F5E2E2F0E2E2E2E2F0E2E2E2E2F0E2E2E2F5E2E2E2
310
E2E2E2E2E2E2E2E2E2E2E2E2E2E2F0F5F0F5F0F5F5F5F5F5F5F5F5F5F0F5F5F5F5F5F5F5F5F5F5F5F5F5F5F0F5F5F5F5F5F5F5F5F5F0F5F0F5F0E2E2E2E2E2E2E2E2E2E2E2E2F5E2E2E2F0E2E2E2E2F0E2E2E2E2F0E2E2F5E2E2E2E2E2DCDCDCDCE2E2E2E2E2E2E2E2E2E2E2E2E2E2E2E2E2E2E2E2E2E2E2E2E2E2E2E2E2E2
310
E2E2E2E2E2E2F5E2F5F5F5E2F5E2E2E2E2E2E2E2E2E2E2E2F0E2F0E2E2E2E2E2F5E2E2F0E2E2E2E2F0E2E2E2E2F0E2E2E2F5E2E2E2E2E2E2E2E2E2E2E2E2E2E2E2E2E2F5E2E2E2F0E2E2E2E2E2E2E2E2E2F0E2E2E2E2E2E2E2E2E2E2E2E2E2E2F0E2E2E2E2E2E2E2E2E2F0E2E2F5F5E2E2E2E2E2E2E2E2E2E2E2E2F5E2E2E2
310
F0E2E2E2E2F0E2E2E2E2F0E2E2F5E2E2E2E2E2E2E2E2E2E2E2E2E2E2E2E2E2E2E2E2E2E2E2E2E2E2E2E2E2E2E2E2E2E2E2E2E2E2E2E2E2E2E2E2E2F5E2F5F5F5E2F5E2E2E2E2E2E2E2E2E2E2E2F0E2F0E2E2E2E2E2F5E2E2E2E2E2E2E2F0E2E2E2E2E2E2E2E2F5E2E2E2E2E2E2E2E2E2E2E2E2E2E2E2E2E2F5E2E2E2E2E2E2
310
E2E2E2E2E2E2E2E2E2E2E2E2E2E2E2E2E2E2E2E2E2E2E2E2E2E2E2E2E2E2E2E2E2E2E2F5F5E2E2E2E2E2E2E2E2E2E2E2E2F5E2E2E2E2E2E2E2E2E2E2E2E2E2E2E2E2F5E2E2E2E2E2E2E2E2E2E2E2E2E2E2E2E2E2E2E2E2E2E2E2E2E2E2E2E2E2E2E2E2E2E2E2E2E2E2E2E2E2E2E2E2E2F5E2F5F5F5E2F5E2E2E2E2E2E2E2E2
310
E2E2E2F0E2F0E2E2E2E2E2F5E2E2E2E2E2E2E2F0E2E2E2E2E2E2E2E2F5E2E2E2E2E2E2E2E2E2E2E2E2E2E2E2E2E2F5E2E2E2E2E2E2E2E2E2E2E2E2E2E2E2E2E2E2E2E2E2E2E2E2E2E2E2E2E2E2E2E2E2E2E2E2E2E2E2E2E2F5F5E2E2E2E2E2E2E2E2E2E2E2E2F5E2E2E2E2E2E2E2E2E2E2E2E2E2E2E2E2F5E2E2F0DCDCDCDC
310
F0DCF0DCDCDCDCF0DCDCF0F0DCF0DCDCF0F0DCF0DCDCF0E2E2E2E2E2E2E2E2E2E2E2E2E2E2E2F5E2F5F5F5E2F5E2E2E2E2E2E2E2E2E2E2E2F0E2F0E2E2E2E2E2E2F5E2E2E2E2E2E2F0E2E2E2E2E2E2E2F5E2E2E2E2E2E2E2E2E2E2E2E2E2E2E2E2E2E2F5E2E2E2E2E2E2E2E2E2E2E2E2E2E2E2E2E2E2E2E2E2E2E2E2E2E2E2
310
E2E2E2E2E2E2E2E2E2E2E2E2E2E2F5F5E2E2E2E2E2E2E2E2E2E2E2E2E2F5E2E2E2E2E2E2E2E2E2E2E2E2E2E2F0F0F0F0E2E2DCDCDCDCDCDCDCDCDCDCDCDCDCDCDCDCDCDCDCDCDCDCDCDCDCE2E2E2E2E2E2E2E2E2E2E2E2E2E2E2E2F5E2F5F5F5E2F5E2E2E2E2E2E2E2E2E2E2E2F0E2F0E2E2E2E2E2E2F5E2E2E2E2E2E2F0E2
310
E2E2E2E2E2E2F5E2E2E2E2E2E2E2E2E2E2E2E2E2E2E2E2E2E2F5E2E2E2E2E2E2E2E2E2E2E2E2E2E2E2E2E2E2E2E2E2E2E2E2E2E2E2E2E2E2E2E2E2E2E2E2E2E2E2E2E2F5F5E2E2E2E2E2E2E2E2E2E2E2E2E2F5E2E2E2E2E2E2E2E2E2E2E2F0F0F0F5E2E2E2E2DCDCE2DCE2DCE2DCDCDCDCE2DCE2DCE2E2E2DCE2DCDCE2E2DC
310
DCE2E2E2E2E2E2E2E2E2E2E2E2E2E2E2E2F5E2F5F5F5E2F5E2E2E2E2E2E2E2E2E2E2E2F0E2F0E2E2E2E2E2E2E2F5E2E2E2E2E2F0E2E2E2E2E2E2F5ECECECECE2E2E2E2E2E2E2E2E2E2E2E2E2E2E2F5E2ECECECECECECECECECECECECECECECECECECECECECECECECECECECECECECECECECECECECECECECECF5F5E2E2E2E2E2
310
E2E2E2E2E2ECECECECF5E2E2E2E2E2E2E2E2E2E2E2E2F5E2E2E2E2E2E2E2E2E2E2E2E2E2E2E2E2E2E2E2E2E2E2E2E2E2E2E2E2E2E2E2E2E2E2E2E2E2E2E2E2E2E2E2E2E2E2E2F5E2F5F5F5E2F5E2E2E2E2E2E2E2E2E2E2E2DCDCDCE2E2E2E2E2E2ECECE2E2E2E2E2F0E2E2E2E2E2E2F5ECE2E2ECE2E2E2E2E2E2E2E2E2E2E2
310
E2E2E2E2F5ECECECECECECECECECECECECECECECECECECECECECECECECECECECECECECECE2E2E2E2E2E2E2E2E2ECECF5E2E2E2E2E2E2E2E2E2ECECECE2ECECE2E2E2E2E2E2E2E2E2E2E2E2ECECE2E2E2E2E2E2E2E2E2E2E2E2E2E2E2E2E2E2E2E2E2E2E2E2E2E2E2E2E2E2E2E2E2E2E2E2E2E2E2E2E2E2E2E2E2E2F5E2F5F5
310
F5E2F5E2E2E2E2E2E2E2E2E2E2E2DCDCDCE2E2E2E2E2E2ECE2F5E2E2E2E2F0E2E2E2E2E2F5E2ECE2E2ECE2E2E2E2E2E2E2E2E2E2E2E2E2E2E2F5ECECE2E2E2E2E2E2E2E2E2E2E2E2E2E2E2E2E2E2E2E2E2E2E2E2E2E2E2ECECE2E2E2ECECECECE2E2ECECF5E2E2E2E2E2E2E2E2E2ECECECE2ECE2F5E2E2E2E2E2E2E2E2E2E2
310
F5E2ECE2E2E2F0F0DCDCDCDCDCDCDCDCDCDCDCDCF0DCDCDCDCDCDCDCDCF0E2E2E2E2E2E2E2E2E2E2E2E2E2E2E2E2E2E2E2F5E2F5F5F5E2F5E2E2E2E2E2E2E2E2E2E2E2F0DCF0E2E2E2E2E2E2ECE2F5E2E2E2E2F0E2E2E2E2E2F5E2ECE2E2ECE2E2E2E2E2E2E2E2E2E2E2E2E2E2E2F5ECECE2E2E2E2E2E2E2E2E2E2E2E2E2E2
310
E2E2E2E2E2E2E2E2E2E2E2E2E2ECECE2E2E2ECECECECE2E2E2ECF5E2E2E2E2E2E2E2E2E2E2ECECE2ECE2F5E2E2E2E2E2E2E2E2E2E2F5E2ECE2F0F0E2E2DCDCDCDCDCDCDCDCDCDCDCDCDCDCDCDCDCDCDCDCDCE2E2E2E2E2E2E2E2E2E2E2E2E2E2E2E2E2E2E2E2F5E2F5F5F5E2F5E2E2E2E2E2E2E2E2E2E2E2F0E2F0E2E2E2E2
310
E2E2ECE2E2F5E2E2E2F0E2E2E2E2F5E2E2ECE2E2ECE2E2E2E2E2E2E2E2E2E2E2E2E2E2E2F5ECECECECECECECECECECECECECECECECECECECECECECECECECECECECECECECECECECECECECECECECECECF5E2E2E2E2E2E2E2E2E2E2ECECE2ECE2E2F5E2E2E2E2E2E2E2E2ECECECF0F0E2E2E2E2E2E2E2E2E2E2E2E2E2E2E2E2E2
310
E2E2E2E2E2E2E2E2E2E2E2E2E2E2E2E2E2E2E2E2E2E2E2E2E2E2E2E2F5E2F5F5F5E2F5E2E2E2E2E2E2E2E2DCDCDCF0E2F0E2E2E2E2ECECECECECECE2E2F5F0F5E2E2ECECECECECE2E2ECE2E2E2E2E2E2E2E2E2E2E2E2F5F5F5F5ECECECECECECECECECECECECECECECE2ECECECECECECECECECECECECECECECECE2ECECECEC
310
ECECECECECF5F5F5F5E2E2E2E2E2E2E2ECE2E2ECECECECECE2E2F5F5F5E2E2ECF0F0ECECECE2E2E2E2E2E2E2E2E2E2E2E2E2E2E2E2E2E2E2E2E2E2E2E2E2E2E2E2E2E2E2E2E2E2E2E2E2E2E2E2E2E2E2E2F5E2F5F5F5E2F5E2E2E2E2E2E2E2E2E2DCDCF0E2F0E2E2E2E2ECECE2E2E2E2F5F5E2F0E2F5F5F5E2E2E2ECE2E2EC
310
E2E2E2E2E2E2E2E2E2E2E2E2F5F5F5ECECECE2E2E2E2E2E2E2E2E2E2E2E2E2E2E2E2E2E2E2E2E2E2E2E2E2E2E2E2E2E2E2E2E2E2E2E2E2E2ECECF5F5F5F5E2E2E2E2E2E2E2ECE2E2ECE2E2E2F5F5F5E2F5E2F0F0F0E2E2ECECECE2E2E2E2E2E2E2E2E2E2E2E2E2E2E2E2E2E2E2E2E2E2E2E2E2E2E2E2E2E2E2E2E2E2E2E2E2
310
E2E2E2E2E2E2E2F5E2F5F5F5E2F5E2E2E2E2E2E2E2E2E2DCDCF0E2F0E2E2E2E2ECECE2E2E2E2F0F0F0F0F0F0F0F0E2E2E2ECE2E2ECE2E2E2E2E2E2E2E2E2E2E2E2F5F5F5ECECECE2E2ECECECECECECECECECECECECECECECECECECECECECECECECECECECECECECECECECECECECECECF5F5F5F5E2E2E2E2E2E2E2ECE2E2ECE2
310
E2E2F5F5E2F5F5F5F5F5E2E2E2ECECECE2E2E2E2E2E2E2E2E2E2E2E2E2E2E2E2E2E2E2E2E2E2E2E2E2E2E2E2E2E2E2E2E2E2E2E2E2E2E2E2E2E2E2E2F5E2F5F5F5E2F5E2E2E2E2E2E2E2E2DCDCDCF0E2F0E2E2E2E2ECECE2E2E2E2E2F5F5F0F5E2F5E2E2E2E2ECE2E2ECE2E2E2E2E2E2E2E2E2E2E2E2F5F5F5ECECECE2E2EC
310
E2E2E2E2E2E2E2E2E2E2E2E2E2E2E2E2E2E2E2E2E2E2E2E2E2ECECE2E2E2ECE2E2E2ECECECF5F5F5F5E2E2E2E2E2E2E2ECE2E2ECE2E2E2E2F5E2F5F5E2F5E2E2E2E2ECECECE2E2E2E2E2E2E2E2E2E2E2E2E2E2E2E2E2E2E2E2E2E2E2E2E2E2E2E2E2E2E2E2E2E2E2E2E2E2E2E2E2E2E2E2F5E2F5F5F5E2F5E2E2E2E2E2E2E2
310
E2E2E2E2F0E2F0E2E2E2E2ECECECECECECECF5F5F0F5F5ECECECECECECE2E2ECE2E2E2E2E2E2E2E2E2E2E2E2F5F5F5ECECECE2E2ECE2E2E2E2E2E2E2E2E2E2E2E2E2E2E2E2E2E2E2E2E2E2E2E2E2ECECE2E2E2ECE2E2E2ECECECF5F5F5F5E2E2E2E2E2E2E2ECE2E2ECECECECECECF5F5E2ECF5ECECECECECE2ECE2E2E2E2E2
310
E2E2E2E2E2E2E2E2E2E2E2E2E2E2E2E2E2E2E2E2E2E2E2E2E2E2E2E2E2E2E2E2E2E2E2E2E2E2E2F5E2F5F5F5E2F5E2E2E2E2E2E2E2E2E2E2E2F0F0F0F0F0F0F0F0F0F0F0F0F0F0F0F0F0F5E2E2E2E2E2E2ECE2E2ECE2E2E2E2E2E2E2E2E2E2E2E2F5F5F5F5ECECE2E2ECE2E2E2E2E2E2E2E2E2E2E2E2E2E2E2E2E2E2E2E2E2
310
E2E2E2E2ECECECECECECECECECECECF5F5F5F5F5E2E2E2E2E2E2E2ECE2E2ECECECECECECECF5F5ECECECECECECECECECE2E2E2E2E2E2E2E2E2E2E2E2E2E2E2E2E2E2E2E2E2E2E2E2E2E2E2E2E2E2E2E2E2E2E2E2E2E2E2E2E2E2E2E2F5E2F5F5F5E2F5E2E2E2E2E2E2E2E2E2E2E2F0E2E2E2E2E2E2E2E2ECE2E2E2E2E2E2F0
310
E2E2E2E2E2E2E2ECE2E2ECE2E2E2E2E2E2E2E2E2E2E2E2E2E2E2E2ECECE2E2ECE2E2E2E2E2E2E2E2E2E2E2E2E2E2E2E2E2E2E2E2E2E2E2E2E2ECECE2E2E2ECE2E2E2ECECECE2E2E2E2E2E2E2E2E2E2E2ECE2E2ECECE2E2E2E2E2E2E2E2E2E2E2E2E2ECE2E2E2E2E2E2E2E2E2E2E2E2E2E2E2E2E2E2E2E2E2E2E2E2E2E2E2E2
310
E2E2E2E2E2E2E2E2E2E2E2E2E2E2E2E2E2E2F5E2F5F5F5E2F5E2E2E2E2E2E2E2E2E2E2E2F0E2E2E2E2E2E2E2E2ECE2E2E2E2E2E2E2E2E2E2E2E2E2E2ECE2E2ECE2E2E2E2E2E2E2E2E2E2E2E2E2E2E2E2ECECE2E2ECE2E2E2E2E2E2E2E2E2E2E2E2E2E2E2E2E2E2E2E2E2E2E2E2E2ECECE2E2E2ECE2E2E2ECECECE2E2E2E2E2
310
E2E2E2E2E2E2ECE2E2ECECECECECE2E2E2E2E2E2E2E2E2E2ECE2E2E2E2E2E2E2E2E2E2E2E2E2E2E2E2E2E2E2E2E2E2E2E2E2E2E2E2E2E2E2E2E2E2E2E2E2E2E2E2E2E2E2E2E2E2F5E2F5F5F5E2F5E2E2E2E2E2E2E2E2E2E2E2F0E2E2E2E2E2E2E2E2ECE2E2E2E2E2E2E2E2E2E2E2E2E2E2ECE2E2ECE2E2E2E2E2E2E2E2E2E2
310
E2E2E2E2E2E2ECECE2E2ECE2E2E2E2E2E2E2E2E2E2E2E2E2E2E2E2E2E2E2E2E2E2E2E2E2ECECECECECECECECECECECECE2E2E2E2E2E2E2E2E2E2E2ECE2E2ECECECECECE2E2E2E2E2E2E2E2E2E2ECE2E2E2E2E2E2E2E2E2E2E2E2E2E2E2E2E2E2E2E2E2E2E2E2E2E2E2E2E2E2E2E2E2E2E2E2E2E2E2E2E2E2E2E2E2E2F5E2F5
310
F5F5E2F5E2E2E2E2E2E2E2E2E2E2E2F0E2E2E2E2E2E2E2E2ECE2E2E2E2E2E2E2E2E2E2E2E2E2E2ECE2E2ECE2E2E2E2E2E2E2E2E2E2E2E2E2E2E2E2ECECE2E2ECE2E2E2E2E2E2E2E2E2E2E2E2E2E2E2E2E2E2E2E2E2E2E2E2E2ECECECECECECECECECECECECE2E2E2E2E2E2E2E2E2E2E2ECE2E2ECECECECECE2E2E2E2E2E2E2
310
F0F0E2ECE2E2E2E2E2E2E2E2E2E2E2E2E2E2E2E2E2E2E2E2E2E2E2E2E2E2E2E2E2E2E2E2E2E2E2E2E2E2E2E2E2E2E2E2E2E2F5E2F5F5F5E2F5E2E2E2E2E2E2E2E2E2E2E2F0E2E2E2E2E2E2E2E2ECE2E2E2E2E2E2E2E2E2E2E2E2E2E2ECE2E2ECE2E2E2E2E2E2E2E2E2E2E2E2E2E2E2E2ECECE2E2ECE2E2E2E2E2E2E2E2E2E2
310
E2E2E2E2E2E2E2E2E2E2E2E2E2E2E2ECECE2E2E2ECE2E2E2ECECECE2E2E2E2E2E2E2E2E2E2E2ECE2E2ECECECECECE2E2E2E2E2E2E2E2E2F0F0F0F0E2E2E2E2E2E2E2E2E2E2E2E2E2E2E2E2E2E2E2E2E2E2E2E2E2E2E2E2E2E2E2E2E2E2E2E2E2E2E2E2E2E2E2E2F5E2F5F5F5E2F5E2E2E2E2E2E2E2E2E2E2E2F0E2E2E2E2E2
310
E2E2E2ECE2E2E2E2E2E2E2E2E2E2E2E2E2E2ECE2E2ECE2E2E2E2E2E2E2E2E2E2E2E2E2E2E2E2ECECE2E2ECE2E2E2E2E2E2E2E2E2E2E2E2E2E2E2E2E2E2E2E2E2E2E2E2E2ECECE2E2E2ECE2E2E2ECECECE2E2E2E2E2E2E2E2E2E2E2ECE2E2ECECECECE2E2E2E2E2E2E2E2E2E2E2ECE2E2F0F0DCDCF0DCDCDCDCDCDCF0DCF0F0
310
F0F0F0F0F0F0F0F0DCDCF0F0F0F0F0F0DCDCE2E2E2E2E2E2E2E2E2E2E2F5E2F5F5F5E2F5E2E2E2E2E2E2E2E2E2E2E2F0E2E2E2E2E2E2E2E2ECE2E2E2E2E2E2E2E2E2E2E2E2E2E2ECE2E2ECE2E2E2E2E2E2E2E2E2E2E2E2E2E2E2E2ECECE2E2ECECECECECECECECECECECECECECECECECECECECECECECECECECECECECECECEC
310
ECECECECECECE2E2E2E2E2E2E2E2E2E2E2ECE2E2ECECECECECECECECECECECECECECECECE2E2E2E2DCDCDCDCDCDCDCDCDCDCDCDCDCDCDCDCDCDCDCDCDCDCDCDCDCDCDCDCDCDCDCE2E2E2E2E2E2E2E2E2E2E2F5E2F5F5F5E2F5E2E2E2E2E2E2E2E2E2E2E2F0E2E2E2E2E2E2E2E2ECE2E2E2E2E2E2E2E2E2E2E2E2E2E2ECE2E2
310
ECE2E2E2E2E2E2E2E2E2E2E2E2E2E2E2E2ECECE2E2E2E2E2E2E2E2E2E2E2E2E2E2E2E2E2E2E2E2E2E2E2E2E2E2E2E2E2E2E2E2E2E2E2E2E2E2ECECE2E2E2E2E2E2E2E2E2E2E2ECE2E2ECE2ECECECECECECECECECECECECECECE2E2E2E2DCDCDCDCDCDCDCDCDCDCDCDCDCDCDCE2E2DCDCDCDCDCDCDCDCDCDCDCDCDCDCE2E2E2
310
E2E2E2E2E2E2E2E2F5E2F5F5F5E2F5E2E2E2E2E2E2E2E2E2E2F0F0E2E2E2E2E2E2E2E2ECE2E2E2E2E2E2E2E2E2E2E2E2E2E2ECE2E2ECE2E2E2E2E2E2E2E2E2E2E2E2E2E2E2E2ECECE2E2E2E2E2E2E2E2E2E2E2E2E2E2E2E2E2E2E2E2E2E2E2E2E2E2E2E2E2E2E2E2E2E2E2E2E2E2ECECE2E2E2E2E2E2E2E2E2E2E2ECE2E2EC
310
E2E2E2E2E2E2E2E2E2E2E2E2E2E2ECE2E2E2E2E2E2E2E2E2E2E2E2E2E2E2E2E2E2E2E2E2E2E2E2E2E2E2E2E2E2E2E2E2E2E2E2E2E2E2E2E2E2E2E2E2E2F5E2F5F5F5E2F5E2E2E2E2E2E2E2E2E2E2F0F0F0F0F0F0F0F0F0F0F0F0F0F0F0F0F0F0F0F0F0F0F0F0F0F0ECECECE2E2E2E2E2E2E2E2E2E2E2E2E2E2E2E2ECECECEC
310
ECECECECECECECECECECECE2ECECECECECECECECECECECECECECECECE2ECECECECECECECECE2E2E2E2E2E2E2E2E2E2E2E2ECECECECECECECECECECECECECECECECECECECE2E2E2E2E2E2E2E2E2E2E2E2E2E2E2E2E2E2E2E2E2E2E2E2E2E2E2E2E2E2E2E2E2E2E2E2E2E2E2E2E2E2E2E2E2E2F5E2F5F5F5E2F5E2E2E2E2E2E2
310
E2E2E2E2E2E2E2E2E2E2E2E2E2E2E2E2E2E2E2E2E2E2E2E2E2E2E2E2E2E2E2E2E2E2E2E2E2E2E2E2E2E2E2E2E2E2E2E2E2E2E2E2E2E2E2E2E2E2E2E2E2E2E2E2E2E2E2E2E2E2E2E2E2E2E2E2E2E2E2E2E2E2E2E2E2E2E2E2E2E2E2E2E2E2E2E2E2E2E2E2E2E2E2E2E2E2E2E2E2E2E2E2E2E2E2E2E2E2E2E2E2E2E2E2E2E2E2
310
E2E2E2E2E2E2E2E2E2E2E2E2E2E2E2E2E2E2E2E2E2E2E2E2E2E2E2E2E2E2E2E2E2E2E2E2E2E2E2E2F5E2F5F5F5E2F5E2E2E2E2E2E2E2E2E2E2E2E2E2E2E2E2E2E2E2E2E2E2E2E2E2E2E2E2E2E2E2E2E2E2E2E2E2E2E2E2E2E2E2E2E2E2E2E2E2E2E2E2E2E2E2E2E2E2E2E2E2E2E2E2E2E2E2E2E2E2E2E2E2E2E2E2E2E2E2E2
310
E2E2E2E2E2E2E2E2E2E2E2E2E2E2E2E2E2E2E2E2E2E2E2E2E2E2E2E2E2E2E2E2E2E2E2E2E2E2E2E2E2E2E2E2E2E2E2E2E2E2E2E2E2E2E2E2E2E2E2E2E2E2E2E2E2E2E2E2E2E2E2E2E2E2E2E2E2E2E2E2E2E2E2E2E2E2E2E2E2E2E2E2E2F5E2F5F5F5E2F5E2E2E2E2E2E2E2E2E2E2E2E2E2E2E2E2E2E2E2E2E2E2E2E2E2E2E2
310
E2E2E2E2E2E2E2E2E2E2E2E2E2E2E2E2E2E2E2E2E2E2E2E2E2E2E2E2E2E2E2E2E2E2E2E2E2E2E2E2E2E2E2E2E2E2E2E2E2E2E2E2E2E2E2E2E2E2E2E2E2E2E2E2E2E2E2E2E2E2E2E2E2E2E2E2E2E2E2E2E2E2E2E2E2E2E2E2E2E2E2E2E2E2E2E2E2E2E2E2E2E2E2E2E2E2E2E2E2E2E2E2E2E2E2E2E2E2E2E2E2E2E2E2E2E2E2
310
E2E2E2E2E2E2E2E2E2E2E2E2E2E2E2E2E2E2E2F5E2F5F5F5E2F5E2E2E2E2E2E2E2E2E2E2E2E2E2E2E2E2E2E2E2E2E2E2E2E2E2E2E2E2E2E2E2E2E2E2E2E2E2E2E2E2E2E2E2E2E2E2E2E2E2E2E2E2E2E2E2E2E2E2E2E2E2E2E2E2E2E2E2E2E2E2E2E2E2E2E2E2E2E2E2E2E2E2E2E2E2E2E2E2E2E2E2E2E2E2E2E2E2E2E2E2E2
310
E2E2E2E2E2E2E2E2E2E2E2E2E2E2E2E2E2E2E2E2E2E2E2E2E2E2E2E2E2E2E2E2E2E2E2E2E2E2E2E2E2E2E2E2E2E2E2E2E2E2E2E2E2E2E2E2E2E2E2E2E2E2E2E2E2E2E2E2E2E2E2E2F5E2F5F5F5E2F5E2E2E2E2E2E2E2E2E2E2E2E2E2E2E2E2E2E2E2E2E2E2E2E2E2E2E2E2E2E2E2E2E2E2E2E2E2E2E2E2E2E2E2E2E2E2E2E2
310
E2E2E2E2E2E2E2E2E2E2E2E2E2E2E2E2E2E2E2E2E2E2E2E2E2E2E2E2E2E2E2E2E2E2E2E2E2E2E2E2E2E2E2E2E2E2E2E2E2E2E2E2E2E2E2E2E2E2E2E2E2E2E2E2E2E2E2E2E2E2E2E2E2E2E2E2E2E2E2E2E2E2E2E2E2E2E2E2E2E2E2E2E2E2E2E2E2E2E2E2E2E2E2E2E2E2E2E2E2E2E2E2E2E2E2E2E2E2E2E2E2E2E2E2E2F5E2
310
F5F5F5E2F5E2E2E2E2E2E2E2E2E2E2E2E2E2E2E2E2E2E2E2E2E2E2E2E2E2E2E2E2E2E2E2E2E2E2E2E2E2E2E2E2E2E2E2E2E2E2E2E2E2E2E2E2E2E2E2E2E2E2E2E2E2E2E2E2E2E2E2E2E2E2E2E2E2E2E2E2E2E2E2E2E2E2E2E2E2E2E2E2E2E2E2E2E2E2E2E2E2E2E2E2E2E2E2E2E2E2E2E2E2E2E2E2E2E2E2E2E2E2E2E2E2E2
310
E2E2E2E2E2E2E2E2E2E2E2E2E2E2E2E2E2E2E2E2E2E2E2E2E2E2E2E2E2E2E2E2E2E2E2E2E2E2E2E2E2E2E2E2E2E2E2E2E2E2E2F5E2F5F5F5E2F5E2E2E2E2E2E2E2E2E2E2E2E2E2E2E2E2E2E2E2E2E2E2E2E2E2E2E2E2E2E2E2E2E2E2E2E2E2E2E2E2E2E2E2E2E2E2E2E2E2E2E2E2E2E2E2E2E2E2E2E2E2E2E2E2E2E2E2E2E2
310
E2E2E2E2E2E2E2E2E2E2E2E2E2E2E2E2E2E2E2E2E2E2E2E2E2E2E2E2E2E2E2E2E2E2E2E2E2E2E2E2E2E2E2E2E2E2E2E2E2E2E2E2E2E2E2E2E2E2E2E2E2E2E2E2E2E2E2E2E2E2E2E2E2E2E2E2E2E2E2E2E2E2E2E2E2E2E2E2E2E2E2E2E2E2E2E2E2E2E2E2E2E2E2E2F5E2F5F5F5E2F5E2E2E2E2E2E2E2E2E2E2E2E2E2E2E2E2
310
E2E2E2E2E2E2E2E2E2E2E2E2E2E2E2E2E2E2E2E2E2E2E2E2E2E2E2E2E2E2E2E2E2E2E2E2E2E2E2E2E2E2E2E2E2E2E2E2E2E2E2E2E2E2E2E2E2E2E2E2E2E2E2E2E2E2E2E2E2E2E2E2E2E2E2E2E2E2E2E2E2E2E2E2E2E2E2E2E2E2E2E2E2E2E2E2E2E2E2E2E2E2E2E2E2E2E2E2E2E2E2E2E2E2E2E2E2E2E2E2E2E2E2E2E2E2E2
310
E2E2E2E2E2E2E2E2E2E2E2E2E2E2E2E2E2E2E2E2E2E2E2E2E2E2E2E2E2E2F5E2F5F5F5E2F5E2E2E2E2E2E2E2E2E2E2E2E2E2E2E2E2E2E2E2E2E2E2E2E2E2E2E2E2E2E2E2E2E2E2E2E2E2E2E2E2E2E2E2E2E2E2E2E2E2E2E2E2E2E2E2E2E2E2E2E2E2E2E2E2E2E2E2E2E2E2E2E2E2E2E2E2E2E2E2E2E2E2E2E2E2E2E2E2E2E2
310
E2E2E2E2E2E2E2E2E2E2E2E2E2E2E2E2E2E2E2E2E2E2E2E2E2E2E2E2E2E2E2E2E2E2E2E2E2E2E2E2E2E2E2E2E2E2E2E2E2E2E2E2E2E2E2E2E2E2E2E2E2E2E2E2E2E2E2E2E2E2E2E2E2E2E2E2E2E2E2E2E2E2E2F5E2F5F5F5E2F5E2E2E2E2E2E2E2E2E2E2E2E2E2E2E2E2E2E2E2E2E2E2E2E2E2E2E2E2E2E2E2E2E2E2E2E2E2
310
E2E2E2E2E2E2E2E2E2E2E2E2E2E2E2E2E2E2E2E2E2E2E2E2E2E2E2E2E2E2E2E2E2E2E2E2E2E2E2E2E2E2E2E2E2E2E2E2E2E2E2E2E2E2E2E2E2E2E2E2E2E2E2E2E2E2E2E2E2E2E2E2E2E2E2E2E2E2E2E2E2E2E2E2E2E2E2E2E2E2E2E2E2E2E2E2E2E2E2E2E2E2E2E2E2E2E2E2E2E2E2E2E2E2E2E2E2E2E2E2E2E2E2E2E2E2E2
310
E2E2E2E2E2E2E2E2E2F5E2F5F5F5E2F5E2E2E2E2E2E2E2E2E2E2E2E2E2E2E2E2E2E2E2E2E2E2E2E2E2E2E2E2E2E2E2E2E2E2E2E2E2E2E2E2E2E2E2E2E2E2E2E2E2E2E2E2E2E2E2E2E2E2E2E2E2E2E2E2E2E2E2E2E2E2E2E2E2E2E2E2E2E2E2E2E2E2E2E2E2E2E2E2E2E2E2E2E2E2E2E2E2E2E2E2E2E2E2E2E2E2E2E2E2E2E2
310
E2E2E2E2E2E2E2E2E2E2E2E2E2E2E2E2E2E2E2E2E2E2E2E2E2E2E2E2E2E2E2E2E2E2E2E2E2E2E2E2E2E2E2E2E2E2E2E2E2E2E2E2E2E2E2E2E2E2E2E2E2E2F5E2F5F5F5E2F5E2E2E2E2E2E2E2E2E2E2E2E2E2E2E2E2E2E2E2E2E2E2E2E2E2E2E2E2E2E2E2E2E2E2E2E2E2E2E2E2E2E2E2E2E2E2E2E2E2E2E2E2E2E2E2E2E2E2
310
E2E2E2E2E2E2E2E2E2E2E2E2E2E2E2E2E2E2E2E2E2E2E2E2E2E2E2E2E2E2E2E2E2E2E2E2E2E2E2E2E2E2E2E2E2E2E2E2E2E2E2E2E2E2E2E2E2E2E2E2E2E2E2E2E2E2E2E2E2E2E2E2E2E2E2E2E2E2E2E2E2E2E2E2E2E2E2E2E2E2E2E2E2E2E2E2E2E2E2E2E2E2E2E2E2E2E2E2E2E2E2E2E2E2E2F5E2F5F5F5E2F5E2E2E2E2E2
310
E2E2E2E2E2E2E2E2E2E2E2E2E2E2E2E2E2E2E2E2E2E2E2E2E2E2E2E2E2E2E2E2E2E2E2E2E2E2E2E2E2E2E2E2E2E2E2E2E2E2E2E2E2E2E2E2E2E2E2E2E2E2E2E2E2E2E2E2E2E2E2E2E2E2E2E2E2E2E2E2E2E2E2E2E2E2E2E2E2E2E2E2E2E2E2E2E2E2E2E2E2E2E2E2E2E2E2E2E2E2E2E2E2E2E2E2E2E2E2E2E2E2E2E2E2E2E2
310
E2E2E2E2E2E2E2E2E2E2E2E2E2E2E2E2E2E2E2E2E2E2E2E2E2E2E2E2E2E2E2E2E2E2E2E2E2E2E2E2E2F5E2F5F5F5E2F5E2E2E2E2E2E2E2E2E2E2E2E2E2E2E2E2E2E2E2E2E2E2E2E2E2E2E2E2E2E2E2E2E2E2E2E2E2E2E2E2E2E2E2E2E2E2E2E2E2E2E2E2E2E2E2ECECECECECECECECECECECECECECECE2ECECECECECECECEC
310
ECECECECECECECECE2ECECECECECECECECECE2E2E2E2E2E2E2E2E2E2E2E2E2E2E2E2E2E2E2E2E2E2E2E2E2E2E2E2E2E2E2E2E2E2E2E2E2E2E2E2E2E2E2E2E2E2E2E2E2E2E2E2E2E2E2E2E2E2E2E2E2E2E2E2E2E2E2E2E2E2E2E2E2E2E2E2F5E2F5F5F5E2F5E2E2E2E2E2E2E2E2E2E2E2E2E2E2E2E2E2E2E2E2E2E2E2E2E2E2
310
E2E2E2E2E2E2E2E2E2E2E2E2E2E2E2E2E2E2E2E2E2E2E2E2E2E2E2E2E2ECE2E2E2E2E2E2E2E2E2E2E2E2E2E2E2E2E2E2E2E2E2E2E2E2E2E2E2E2E2E2E2E2E2E2E2E2E2E2E2E2ECE2E2E2E2E2E2E2E2E2E2E2E2E2E2E2E2E2E2E2E2E2E2E2E2E2E2E2E2E2E2E2E2E2E2E2E2E2E2E2E2E2E2E2E2E2E2E2E2E2E2E2E2E2E2E2E2
310
E2E2E2E2E2E2E2E2E2E2E2E2E2E2E2E2E2E2E2E2F5E2F5F5F5E2F5E2E2E2E2E2E2E2E2E2E2E2E2E2E2E2E2E2E2E2E2E2E2E2E2E2E2E2E2E2E2E2E2E2E2E2E2E2E2E2E2E2E2E2E2E2E2E2E2E2E2E2E2E2E2F5F5F5F5F5F5F5F5F5F5F5F5F5F5F5F5F5F5F5F5F5F5F5F5F5F5F5F5F5F5F5F5F5F5F5F5F5F5F5F5F5F5F5F5E2E2
310
E2E2E2E2E2E2E2E2E2E2E2E2E2E2E2E2E2E2E2E2E2E2E2E2E2E2E2E2E2E2E2E2E2E2E2E2E2E2E2E2E2E2E2E2E2E2E2E2E2E2E2E2E2E2E2E2E2E2E2E2E2E2E2E2E2E2E2E2E2E2E2E2E2F5E2F5F5F5E2F5E2E2E2E2E2E2E2E2E2E2E2E2E2E2E2E2E2E2E2E2E2E2E2E2E2E2E2E2E2E2E2E2E2E2E2E2E2E2E2E2E2E2E2E2E2E2E2
310
E2E2E2E2E2E2E2F5F5F5ECECECECECECECECECECECECECE2ECECECECECECECECECECECECECECECECE2ECECECECECECF5F5ECF5E2E2E2E2E2E2E2E2E2E2E2E2E2E2E2E2E2E2E2E2E2E2E2E2E2E2E2E2E2E2E2E2E2E2E2E2E2E2E2E2E2E2E2E2E2E2E2E2E2E2E2E2E2E2E2E2E2E2E2E2E2E2E2E2E2E2E2E2E2E2E2E2E2E2E2F5
310
E2F5F5F5E2F5E2E2E2E2E2E2E2E2E2E2E2E2E2E2E2E2E2E2E2E2E2E2E2E2E2E2E2E2E2E2E2E2E2E2E2E2E2E2E2E2E2E2E2E2E2E2E2E2E2E2E2E2E2E2F5F5F5E2E2E2E2E2E2E2E2E2E2E2E2E2E2E2E2E2E2E2E2E2E2E2E2E2E2E2E2E2E2E2E2E2E2E2E2E2F5F5F5F5E2E2E2E2E2E2E2E2E2E2E2E2E2E2E2E2E2E2E2E2E2E2E2
310
E2E2E2E2E2E2E2E2E2E2E2E2E2E2E2E2E2E2E2E2E2E2E2E2E2E2E2E2E2E2E2E2E2E2E2E2E2E2E2E2E2E2E2E2E2E2E2E2E2E2E2E2F5E2F5F5F5E2F5E2E2E2E2E2E2E2E2E2E2E2E2E2E2E2E2E2E2E2E2E2E2E2E2E2E2E2E2E2E2E2E2E2E2E2E2E2E2E2E2E2E2E2E2E2E2E2E2E2E2E2E2E2E2F5ECECF5F5F5E2E2E2E2E2E2E2E2
310
E2E2E2E2E2E2E2E2E2E2E2E2E2E2E2E2E2E2E2E2E2E2E2F5F5F5F5ECF5F5E2E2E2E2E2E2E2E2E2E2E2E2E2E2E2E2E2E2E2E2E2E2E2E2E2E2E2E2E2E2E2E2E2E2E2E2E2E2E2E2E2E2E2E2E2E2E2E2E2E2E2E2E2E2E2E2E2E2E2E2E2E2E2E2E2E2E2E2E2E2E2E2E2E2E2F5E2F5F5F5E2F5E2E2E2E2E2E2E2E2E2E2E2E2E2E2E2
310
E2E2E2E2E2E2E2E2E2E2E2E2E2E2E2E2E2E2E2E2E2E2E2E2E2E2E2E2E2E2E2E2E2E2E2E2E2E2E2F5ECECF5F5F5E2E2E2E2E2E2E2E2E2E2E2E2E2E2E2E2E2E2E2E2E2E2E2E2E2E2E2E2E2E2E2E2F5F5F5ECF5F5E2E2E2E2E2E2E2E2E2E2E2E2E2E2E2E2E2E2E2E2E2E2E2E2E2E2E2E2E2E2E2E2E2E2E2E2E2E2E2E2E2E2E2E2
310
E2E2E2E2E2E2E2E2E2E2E2E2E2E2E2E2E2E2E2E2E2E2E2E2E2E2E2E2E2E2E2F5E2F5F5F5E2F5E2E2E2E2E2E2E2E2E2E2E2E2E2E2E2E2E2E2E2E2E2E2E2E2E2E2E2E2E2E2E2E2E2E2E2E2E2E2E2E2E2E2E2E2E2E2E2E2E2E2E2E2E2E2F5ECECE2E2E2E2E2E2E2E2E2E2E2E2E2E2E2E2E2E2E2E2E2E2E2E2E2E2E2E2E2E2E2E2
310
E2E2E2E2E2E2ECF5F5E2E2E2E2E2E2E2E2E2E2E2E2E2E2E2E2E2E2E2E2E2E2E2E2E2E2E2E2E2E2E2E2E2E2E2E2E2E2E2E2E2E2E2E2E2E2E2E2E2E2E2E2E2E2E2E2E2E2E2E2E2E2E2E2E2E2E2E2E2E2E2E2E2E2E2F5E2F5F5F5E2F5E2E2E2E2E2E2E2E2E2E2E2E2E2E2E2E2E2E2E2E2E2E2E2E2E2E2E2E2E2E2E2E2E2E2E2E2
310
E2E2E2E2E2E2E2E2E2E2E2E2E2E2E2F5F5F5F5ECECE2E2E2E2E2E2E2E2E2E2E2E2E2E2E2E2E2E2E2E2E2E2E2E2E2E2E2E2E2E2E2E2E2E2E2E2E2E2ECF5F5F5F5F5E2E2E2E2E2E2E2E2E2E2E2E2E2E2E2E2E2E2E2E2E2E2E2E2E2E2E2E2E2E2E2E2E2E2E2E2E2E2E2E2E2E2E2E2E2E2E2E2E2E2E2E2E2E2E2E2E2E2E2E2E2E2
310
E2E2E2E2E2E2E2E2E2E2F5E2F5F5F5E2F5E2E2E2E2E2E2E2E2E2E2E2E2E2E2E2E2E2E2E2E2E2E2E2E2E2E2E2E2E2E2E2E2E2E2E2E2E2E2E2E2E2E2E2E2E2E2E2E2E2E2E2F5F5F5ECECECE2E2E2E2E2E2E2E2E2E2E2E2E2E2E2E2E2E2E2E2E2E2E2E2E2E2E2E2E2E2E2E2E2E2E2E2E2E2ECECF5F5F5F5E2E2E2E2E2E2E2E2E2
310
E2E2E2E2E2E2E2E2E2E2E2E2E2E2E2E2E2E2E2E2E2E2E2E2E2E2E2E2E2E2E2E2E2E2E2E2E2E2E2E2E2E2E2E2E2E2E2E2E2E2E2E2E2E2E2E2E2E2E2E2E2E2E2F5E2F5F5F5E2F5E2E2E2E2E2E2E2E2E2E2E2E2E2E2E2E2E2E2E2E2E2E2E2E2E2E2E2E2E2E2E2E2E2E2E2E2E2E2E2E2E2E2E2E2E2E2E2E2E2E2E2F0F5F5ECECEC
310
E2E2E2E2E2E2E2E2E2E2F5F5E2E2E2E2E2E2E2E2E2E2E2E2E2F5F5E2E2E2E2E2E2E2E2E2E2E2ECECF5F5F5F0E2E2E2E2E2E2E2E2E2E2E2E2E2E2E2E2E2E2E2E2E2E2E2E2E2E2E2E2E2E2E2E2E2E2E2E2E2E2E2E2E2E2E2E2E2E2E2E2E2E2E2E2E2E2E2E2E2E2E2E2E2E2E2E2E2E2E2E2E2E2E2E2F5E2F5F5F5E2F5E2E2E2E2
310
E2E2E2E2E2E2E2E2E2E2E2E2E2E2E2E2E2E2E2E2E2E2E2E2E2E2E2E2E2E2E2E2E2E2E2E2E2E2E2E2E2E2E2E2E2E2E2F0F5F5ECECECE2E2E2E2E2E2E2E2E2E2E2F5E2E2E2E2E2E2E2E2E2E2E2E2E2F5F5E2E2E2E2E2E2E2E2E2E2E2ECECF5F5F5F0E2E2E2E2E2E2E2E2E2E2E2E2E2E2E2E2E2E2E2E2E2E2E2E2E2E2E2E2E2E2
310
E2E2E2E2E2E2E2E2E2E2E2E2E2E2E2E2E2E2E2E2E2E2E2E2E2E2E2E2E2E2E2E2E2E2E2E2E2E2E2E2E2E2F5E2F5F5F5E2F5E2E2E2E2E2E2E2E2E2E2E2E2E2E2E2E2E2E2E2E2E2E2E2E2E2E2E2E2E2E2E2E2E2E2E2E2E2E2E2E2E2E2E2E2E2E2E2E2E2E2E2F0F5F5ECECECE2E2E2E2E2E2E2E2E2E2E2E2E2E2E2E2E2E2E2E2E2
310
E2E2E2E2E2E2E2E2E2E2E2E2E2E2E2E2E2ECECF5F5F5F0E2E2E2E2E2E2E2E2E2E2E2E2E2E2E2E2E2E2E2E2E2E2E2E2E2E2E2E2E2E2E2E2E2E2E2E2E2E2E2E2E2E2E2E2E2E2E2E2E2E2E2E2E2E2E2E2E2E2E2E2E2E2E2E2E2E2E2E2E2E2E2E2F5E2F5F5F5E2F5E2E2E2E2E2E2E2E2E2E2E2E2E2E2E2E2E2E2E2E2E2E2E2E2E2
310
E2E2E2E2E2E2E2E2E2E2E2E2E2E2E2E2E2E2E2E2E2E2E2E2E2E2F0F5F5F5ECECE2E2E2E2E2E2E2E2E2E2E2E2E2E2E2E2E2E2E2E2E2E2E2E2E2E2E2E2E2E2E2E2E2E2E2E2E2E2ECF5F5F5F5F0E2E2E2E2E2E2E2E2E2E2E2E2E2E2E2E2E2E2E2E2E2E2E2E2E2E2E2E2E2E2E2E2E2E2E2E2E2E2E2E2E2E2E2E2E2E2E2E2E2E2E2
310
E2E2E2E2E2E2E2E2E2E2E2E2E2E2E2E2E2E2E2E2E2F5E2F5F5F5E2F5E2E2E2E2E2E2E2E2E2E2E2E2E2E2E2E2E2E2E2E2E2E2E2E2E2E2E2E2E2E2E2E2E2E2E2E2E2E2E2E2E2E2E2E2E2E2E2E2E2E2E2F0E2E2F5ECECE2E2E2E2E2E2E2E2E2E2E2E2E2E2E2E2E2E2E2E2E2E2E2E2E2E2E2E2E2E2E2E2E2E2E2E2E2E2ECF5F5E2
310
E2F0E2E2E2E2E2E2E2E2E2E2E2E2E2E2E2E2E2E2E2E2E2E2E2E2E2E2E2E2E2E2E2E2E2E2E2E2E2E2E2E2E2E2E2E2E2E2E2E2E2E2E2E2E2E2E2E2E2E2E2E2E2E2E2E2E2E2E2E2E2E2E2E2F5E2F5F5F5E2F5E2E2E2E2E2E2E2E2E2E2E2E2E2E2E2E2E2E2E2E2E2E2E2E2E2E2E2E2E2E2E2E2E2E2E2E2E2E2E2E2E2E2E2E2E2E2
310
E2E2E2E2E2F0E2E2F5ECECF5F5F5E2E2E2E2E2E2E2E2E2E2E2E2E2E2E2E2E2E2E2E2E2E2E2E2E2E2E2E2E2E2E2E2F5F5F5ECF5F5E2E2F0E2E2E2E2E2E2E2E2E2E2E2E2E2E2E2E2E2E2E2E2E2E2E2E2E2E2E2E2E2E2E2E2E2E2E2E2E2E2E2E2E2E2E2E2E2E2E2E2E2E2E2E2E2E2E2E2E2E2E2E2E2E2E2E2E2E2E2E2E2E2E2E2
310
F5E2F5F5F5E2F5E2E2E2E2E2E2E2E2E2E2E2E2E2E2E2E2E2E2E2E2E2E2E2E2E2E2E2E2E2E2E2E2E2E2E2E2E2E2E2E2E2E2E2E2E2E2E2E2E2E2E2F0E2E2F5ECECF5F5F5E2E2E2E2E2E2E2E2E2E2E2E2E2E2E2E2E2E2E2E2E2E2E2E2E2E2E2E2E2E2E2F5F5F5F5ECF5F5E2E2F0E2E2E2E2E2E2E2E2E2E2E2E2E2E2E2E2E2E2E2
310
E2E2E2E2E2E2E2E2E2E2E2E2E2E2E2E2E2E2E2E2E2E2E2E2E2E2E2E2E2E2E2E2E2E2E2E2E2E2E2E2E2E2E2E2E2E2E2E2E2E2E2E2E2F5E2F5F5F5E2F5E2E2E2E2E2E2E2E2E2E2E2E2E2E2E2E2E2E2E2E2E2E2E2E2E2E2E2E2E2E2E2E2E2E2E2E2E2E2E2E2E2E2E2E2E2E2E2E2E2E2E2F0E2E2F5F5F5E2E2E2E2E2E2E2E2E2E2
310
E2E2E2E2E2E2E2E2E2E2E2E2E2E2E2E2E2E2E2E2E2E2E2E2E2E2E2F5F5F5F5E2E2F0E2E2E2E2E2E2E2E2E2E2E2E2E2E2E2E2E2E2E2E2E2E2E2E2E2E2E2E2E2E2E2E2E2E2E2E2E2E2E2E2E2E2E2E2E2E2E2E2E2E2E2E2E2E2E2E2E2E2E2E2E2E2E2E2E2E2E2E2E2E2E2E2F5E2F5F5F5E2F5E2E2E2E2E2E2E2E2E2E2E2E2E2E2
310
E2E2E2E2E2E2E2E2E2E2E2E2E2E2E2E2E2E2E2E2E2E2E2E2E2E2E2E2E2E2E2E2E2E2E2E2E2F0E2E2F5F5F5ECECECECECECECECECECECECECE2ECECECECECECECECECECECECECECECECE2ECECECECECECF5F5F5F5E2E2F0E2E2E2E2E2E2E2E2E2E2E2E2E2E2E2E2E2E2E2E2E2E2E2E2E2E2E2E2E2E2E2E2E2E2E2E2E2E2E2E2
310
E2E2E2E2E2E2E2E2E2E2E2E2E2E2E2E2E2E2E2E2E2E2E2E2E2E2E2E2E2E2E2E2F5E2F5F5F5E2F5E2E2E2E2E2E2E2E2E2E2E2E2E2E2E2E2E2E2E2E2E2E2E2E2E2E2E2E2E2E2E2E2E2E2E2E2E2E2E2E2E2E2E2E2E2E2E2E2E2E2E2F0E2E2F5F5ECF5F5ECECECECECECF5F5F5F5F5F5F5F5F5F5F5F5F5F5F5F5F5F5F5F5F5F5F5
310
F5F5F5F5ECF5ECF5F5F5E2E2F0E2E2E2E2E2E2E2E2E2E2E2E2E2E2E2E2E2E2E2E2E2E2E2E2E2E2E2E2E2E2E2E2E2E2E2E2E2E2E2E2E2E2E2E2E2E2E2E2E2E2E2E2E2E2E2E2E2E2E2E2E2E2E2E2E2E2E2E2E2E2E2E2F5E2F5F5F5E2F5E2E2E2E2E2E2E2E2E2E2E2E2E2E2E2E2E2E2E2E2E2E2E2E2E2E2E2E2E2E2E2E2E2E2E2
310
E2E2E2E2E2E2E2E2E2E2E2E2E2E2E2E2F0E2E2E2E2E2ECECE2ECECECECECE2E2E2E2E2E2E2E2E2E2E2E2E2E2E2E2E2E2E2E2E2E2E2E2E2E2E2ECECECE2E2E2E2E2F0E2E2E2E2E2E2E2E2E2E2E2E2E2E2E2E2E2E2E2E2E2E2E2E2E2E2E2E2E2E2E2E2E2E2E2E2E2E2E2E2E2E2E2E2E2E2E2E2E2E2E2E2E2E2E2E2E2E2E2E2E2
310
E2E2E2E2E2E2E2E2E2E2E2F5E2F5F5F5E2F5E2E2E2E2E2E2E2E2E2E2E2E2E2E2E2E2E2E2E2E2E2E2E2E2E2E2E2E2E2E2E2E2E2E2E2E2E2E2E2E2E2E2E2E2E2E2E2E2E2E2E2F0E2E2E2E2E2E2E2E2E2E2E2E2E2E2E2E2E2E2E2E2E2E2E2E2E2E2E2E2E2E2E2E2E2E2E2E2E2E2E2E2E2E2E2E2E2E2E2E2F0E2E2E2E2E2E2E2E2
310
E2E2E2E2E2E2E2E2E2E2E2E2E2E2E2E2E2E2E2E2E2E2E2E2E2E2E2E2E2E2E2E2E2E2E2E2E2E2E2E2E2E2E2E2E2E2E2E2E2E2E2E2E2E2E2E2E2E2E2E2E2E2E2E2F5E2F5F5F5E2F5E2E2E2E2E2E2E2E2E2E2E2E2E2E2E2E2E2E2E2E2E2E2E2E2E2E2E2E2E2E2E2E2E2E2E2E2E2E2E2E2E2E2E2E2E2E2E2E2E2E2E2F0E2E2E2E2
310
E2E2E2E2E2E2E2E2E2E2E2E2E2E2E2E2E2E2E2E2E2E2E2E2E2E2E2E2E2E2E2E2E2E2E2E2E2E2E2E2E2E2E2E2F0E2E2E2E2E2E2E2E2E2E2E2E2E2E2E2E2E2E2E2E2E2E2E2E2E2E2E2E2E2E2E2E2E2E2E2E2E2E2E2E2E2E2E2E2E2E2E2E2E2E2E2E2E2E2E2E2E2E2E2E2E2E2E2E2E2E2E2E2E2E2E2E2F5E2F5F5F5E2F5E2E2E2
310
E2E2E2E2E2E2E2E2E2E2E2E2E2E2E2E2E2E2E2E2E2E2E2E2E2E2E2E2E2E2E2E2E2E2E2E2E2E2E2E2E2E2E2E2E2E2E2E2F0E2E2E2E2E2E2E2E2E2E2E2E2E2E2E2E2E2E2E2E2E2E2E2E2E2E2E2E2E2E2E2E2E2E2E2E2E2E2E2E2E2E2E2E2E2E2E2E2F0E2E2E2E2E2E2E2E2E2E2E2E2E2E2E2E2E2E2E2E2E2E2E2E2E2E2E2E2E2
310
E2E2E2E2E2E2E2E2E2E2E2E2E2E2E2E2E2E2E2E2E2E2E2E2E2E2E2E2E2E2E2E2E2E2E2E2E2E2E2E2E2E2E2F5E2F5F5F5E2F5E2E2E2E2E2E2E2E2E2E2E2E2E2E2E2E2E2E2E2E2E2E2E2E2E2E2E2E2E2E2E2E2E2E2E2E2E2E2E2E2E2E2E2E2E2E2E2E2E2E2E2F0E2E2E2E2E2E2E2E2E2E2E2E2E2E2E2E2E2E2E2E2E2E2E2E2E2
310
E2E2E2E2E2E2E2E2E2E2E2E2E2E2E2E2E2E2E2E2E2E2E2F0E2E2E2E2E2E2E2E2E2E2E2E2E2E2E2E2E2E2E2E2E2E2E2E2E2E2E2E2E2E2E2E2E2E2E2E2E2E2E2E2E2E2E2E2E2E2E2E2E2E2E2E2E2E2E2E2E2E2E2E2E2E2E2E2E2E2E2E2E2E2E2E2F5E2F5F5F5E2F5E2E2E2E2E2E2E2E2E2E2E2E2E2E2E2E2E2E2E2E2E2E2E2E2
310
E2E2E2E2E2E2E2E2E2E2E2E2E2E2E2E2E2E2E2E2E2E2E2E2E2E2E2F0F0F0F0F0F0F0F0F0F0F0F0F0F0F0F0F0F0F0F0F0F0DCF0F0F0F0DCF0F0F0F0F0F0F0F0F0F0F0F0F0F0F0F0F0F0F0F0F0F0E2E2E2E2E2E2E2E2E2E2E2E2E2E2E2E2E2E2E2E2E2E2E2E2E2E2E2E2E2E2E2E2E2E2E2E2E2E2E2E2E2E2E2E2E2E2E2E2E2E2
310
E2E2E2E2E2E2E2E2E2E2E2E2E2E2E2E2E2E2E2E2E2E2F5E2F5F5F5E2F5E2E2E2E2E2E2E2E2E2E2E2E2E2E2E2E2E2E2E2E2E2E2E2E2E2E2E2E2E2E2E2E2E2E2E2E2E2E2E2E2E2E2E2E2E2E2E2E2E2E2E2F0E2E2E2E2E2E2E2E2E2E2E2E2E2E2E2E2E2E2E2E2E2DCDCDCDCDCDCE2E2E2E2E2E2E2E2E2E2E2E2E2E2E2E2E2E2E2
310
E2E2F0E2E2E2E2E2E2E2E2E2E2E2E2E2E2E2E2E2E2E2E2E2E2E2E2E2E2E2E2E2E2E2E2E2E2E2E2E2E2E2E2E2E2E2E2E2E2E2E2E2E2E2E2E2E2E2E2E2E2E2E2E2E2E2E2E2E2E2E2E2E2E2E2F5E2F5F5F5E2F5E2E2E2E2E2E2E2E2E2E2E2E2E2E2E2E2E2E2E2E2E2E2E2E2E2E2E2E2E2E2E2E2E2E2E2E2E2E2E2E2E2E2E2E2E2
310
E2E2E2E2E2E2E2E2E2E2E2E2E2E2E2E2E2E2E2E2E2E2E2E2E2E2E2E2DCDCDCDCDCDCE2E2E2E2E2E2E2E2E2E2E2E2E2E2E2E2E2E2E2E2E2E2E2E2E2E2E2E2E2E2E2E2E2E2E2E2E2E2E2E2E2E2E2E2E2E2E2E2E2E2E2E2E2E2E2E2E2E2E2E2E2E2E2E2E2E2E2E2E2E2E2E2E2E2E2E2E2E2E2E2E2E2E2E2E2E2E2E2E2E2E2E2E2
310
E2F5E2F5F5F5E2F5E2E2E2E2E2E2E2E2E2E2E2E2E2E2E2E2E2E2E2E2E2E2E2E2E2E2E2E2E2E2E2E2E2E2E2E2E2E2E2E2E2E2E2E2E2E2E2E2E2E2E2E2E2E2E2E2E2E2E2E2E2E2E2E2E2E2E2E2E2E2E2E2E2E2E2E2E2E2E2E2E2E2E2E2E2E2E2E2E2E2E2E2E2E2E2E2E2E2E2E2E2E2E2E2E2E2E2E2E2E2E2E2E2E2E2E2E2E2E2
310
E2E2E2E2E2E2E2E2E2E2E2E2E2E2E2E2E2E2E2E2E2E2E2E2E2E2E2E2E2E2E2E2E2E2E2E2E2E2E2E2E2E2E2E2E2E2E2E2E2E2E2E2E2E2F5E2F5F5F5E2F5E2E2E2E2E2E2E2E2E2E2E2E2E2E2E2E2E2E2E2E2E2E2E2E2E2E2E2E2E2E2E2E2E2E2E2E2E2E2E2E2E2E2E2E2E2E2E2E2E2E2E2E2E2E2E2E2E2E2E2E2E2E2E2E2E2E2
310
E2E2E2E2E2E2E2E2E2E2E2E2E2E2E2E2E2E2E2E2E2E2E2E2E2E2E2E2E2E2E2E2E2E2E2E2E2E2E2E2E2E2E2E2E2E2E2E2E2E2E2E2E2E2E2E2E2E2E2E2E2E2E2E2E2E2E2E2E2E2E2E2E2E2E2E2E2E2E2E2E2E2E2E2E2E2E2E2E2E2E2E2E2E2E2E2E2E2E2E2E2E2E2E2E2E2E2F5E2F5F5F5E2F5E2E2E2E2E2E2E2E2E2E2E2E2E2
310
E2E2E2E2E2E2E2E2E2E2E2E2E2E2E2E2E2E2E2E2E2E2E2E2E2E2E2E2E2E2E2E2E2E2E2E2E2E2E2E2E2E2E2E2E2E2E2E2E2E2E2E2E2E2E2E2E2E2E2E2E2E2E2E2E2E2E2E2E2E2E2E2E2E2E2E2E2E2E2E2E2E2E2E2E2E2E2E2E2E2E2E2E2E2E2E2E2E2E2E2E2E2E2E2E2E2E2E2E2E2E2E2E2E2E2E2E2E2E2E2E2E2E2E2E2E2E2
310
E2E2E2E2E2E2E2E2E2E2E2E2E2E2E2E2E2E2E2E2E2E2E2E2E2E2E2E2E2E2E2E2E2F5E2F5F5F5E2F5E2E2E2E2E2E2E2E2E2E2E2E2E2E2E2E2E2E2E2E2E2E2E2E2E2E2E2E2E2E2E2E2E2E2E2E2E2E2E2E2E2E2E2E2E2E2E2E2E2E2E2E2E2E2E2E2E2E2E2E2E2E2E2E2E2E2E2E2E2E2E2E2E2E2E2E2E2E2E2E2E2E2E2E2E2E2E2
310
E2E2E2E2E2E2E2E2E2E2E2E2E2E2E2E2E2E2E2E2E2E2E2E2E2E2E2E2E2E2E2E2E2E2E2E2E2E2E2E2E2E2E2E2E2E2E2E2E2E2E2E2E2E2E2E2E2E2E2E2E2E2E2E2E2E2E2E2E2E2E2E2E2E2E2E2E2E2E2E2E2E2E2E2E2E2F5E2F5F5F5E2F5E2E2E2E2E2E2E2E2E2E2E2E2E2E2E2E2E2E2E2E2E2E2E2E2E2E2E2E2E2E2E2E2E2E2
310
E2E2E2E2E2E2E2E2E2E2E2E2E2E2E2E2E2E2E2E2E2E2E2E2E2E2E2E2E2E2E2E2E2E2E2E2E2E2E2E2E2E2E2E2E2E2E2E2E2E2E2E2E2E2E2E2E2E2E2E2E2E2E2E2E2E2E2E2E2E2E2E2E2E2E2E2E2E2E2E2E2E2E2E2E2E2E2E2E2E2E2E2E2E2E2E2E2E2E2E2E2E2E2E2E2E2E2E2E2E2E2E2E2E2E2E2E2E2E2E2E2E2E2E2E2E2E2
310
E2E2E2E2E2E2E2E2E2E2E2E2F5E2F5F5F5E2F5F5F5F5F5F5F5F5F5F5F5F5F5F5F5F5F5F5F5F5F5F5F5F5F5F5F5F5F5F5F5F5F5F5F5F5F5F5F5F5F5F5F5F5F5F5F5F5F5F5F5F5F5F5F5F5F5F5F5F5F5F5F5F5F5F5F5F5F5F5F5F5F5F5F5F5F5F5F5F5F5F5F5F5F5F5F5F5F5F5F5F5F5F5F5F5F5F5F5F5F5F5F5F5F5F5F5F5F5
310
F5F5F5F5F5F5F5F5F5F5F5F5F5F5F5F5F5F5F5F5F5F5F5F5F5F5F5F5F5F5F5F5F5F5F5F5F5F5F5F5F5F5F5F5F5F5F5F5F5F5F5F5F5F5F5F5F5F5F5F5F5F5F5F5F5F5E2F5F5F5E2F5F5F5F5F5F5F5F5E2E2E2E2E2E2E2E2E2F5F5F5F5F5F5F5F5F5F5F5F5F5F5F5F5E2E2E2E2E2E2E2E2E2F5F5F5F5F5F5F5F5F5F5F5F5F5F5
310
F5F5E2E2E2E2E2E2E2E2E2F5F5F5F5F5F5F5F5F5F5F5F5F5F5F5F5E2E2E2E2E2E2E2E2E2F5F5F5F5F5F5F5F5F5F5F5F5F5F5F5F5E2E2E2E2E2E2E2E2E2F5F5F5F5F5F5F5F5F5F5F5F5F5F5F5F5E2E2E2E2E2E2E2E2E2F5F5F5F5F5F5F5F5F5F5F5F5F5F5F5F5E2E2E2E2E2E2E2E2E2F5F5F5F5F5F5F5F5E2F5EFF5F5F5F5F5
310
F5F5F5F5F5F5F5F5F5F5F5F5F5F5F5F5F5F5F5F5F5F5F5F5F5F5F5F5F5F5F5F5F5F5F5F5F5F5F5F5F5F5F5F5F5F5F5F5F5F5F5F5F5F5F5F5F5F5F5F5F5F5F5F5F5F5F5F5F5F5F5F5F5F5F5F5F5F5F5F5F5F5F5F5F5F5F5F5F5F5F5F5F5F5F5F5F5F5F5F5F5F5F5F5F5F5F5F5F5F5F5F5F5F5F5F5F5F5F5F5F5F5F5F5F5F5F5
310
F5F5F5F5F5F5F5F5F5F5F5F5F5F5F5F5F5F5F5F5F5F5F5F5F5F5F5F5F5F5F5F5F5F5F5F5F5F5F5F5F5F5F5F5F5F5F5EF
  0
XRECORD
  5
9F9E
102
{ACAD_REACTORS
330
9F1C
102
}
330
9F1C
100
AcDbXrecord
280
     1
102
MATERIAL
148
0.0
149
0.0
149
0.0
 93
        0
 94
      127
282
     0
 72
     0
 77
     0
171
     0
175
     0
179
     0
273
     0
  0
XRECORD
  5
9F1E
102
{ACAD_REACTORS
330
9F1C
102
}
330
9F1C
100
AcDbXrecord
280
     1
270
     1
271
     1
  0
XRECORD
  5
9F1D
102
{ACAD_REACTORS
330
9F1C
102
}
330
9F1C
100
AcDbXrecord
280
     1
270
     1
271
     1
  0
XRECORD
  5
9F21
102
{ACAD_REACTORS
330
9F1C
102
}
330
9F1C
100
AcDbXrecord
280
     1
270
     1
271
     1
  0
XRECORD
  5
9F20
102
{ACAD_REACTORS
330
9F1C
102
}
330
9F1C
100
AcDbXrecord
280
     1
270
     1
271
     1
  0
XRECORD
  5
9F22
102
{ACAD_REACTORS
330
9F1C
102
}
330
9F1C
100
AcDbXrecord
280
     1
270
     1
271
     1
  0
XRECORD
  5
9F1F
102
{ACAD_REACTORS
330
9F1C
102
}
330
9F1C
100
AcDbXrecord
280
     1
270
     1
271
     1
  0
XRECORD
  5
9F9D
102
{ACAD_REACTORS
330
9F14
102
}
330
9F14
100
AcDbXrecord
280
     1
102
MATERIAL
148
0.0
149
0.0
149
0.0
 93
        0
 94
      127
282
     0
 72
     0
 77
     0
171
     0
175
     0
179
     0
273
     0
  0
XRECORD
  5
9F16
102
{ACAD_REACTORS
330
9F14
102
}
330
9F14
100
AcDbXrecord
280
     1
270
     1
271
     1
  0
XRECORD
  5
9F15
102
{ACAD_REACTORS
330
9F14
102
}
330
9F14
100
AcDbXrecord
280
     1
270
     1
271
     1
  0
XRECORD
  5
9F19
102
{ACAD_REACTORS
330
9F14
102
}
330
9F14
100
AcDbXrecord
280
     1
270
     1
271
     1
  0
XRECORD
  5
9F18
102
{ACAD_REACTORS
330
9F14
102
}
330
9F14
100
AcDbXrecord
280
     1
270
     1
271
     1
  0
XRECORD
  5
9F1A
102
{ACAD_REACTORS
330
9F14
102
}
330
9F14
100
AcDbXrecord
280
     1
270
     1
271
     1
  0
XRECORD
  5
9F17
102
{ACAD_REACTORS
330
9F14
102
}
330
9F14
100
AcDbXrecord
280
     1
270
     1
271
     1
  0
XRECORD
  5
9F9F
102
{ACAD_REACTORS
330
9F24
102
}
330
9F24
100
AcDbXrecord
280
     1
102
MATERIAL
148
0.0
149
0.0
149
0.0
 93
        0
 94
      127
282
     0
 72
     0
 77
     0
171
     0
175
     0
179
     0
273
     0
  0
XRECORD
  5
9F26
102
{ACAD_REACTORS
330
9F24
102
}
330
9F24
100
AcDbXrecord
280
     1
270
     1
271
     1
  0
XRECORD
  5
9F25
102
{ACAD_REACTORS
330
9F24
102
}
330
9F24
100
AcDbXrecord
280
     1
270
     1
271
     1
  0
XRECORD
  5
9F29
102
{ACAD_REACTORS
330
9F24
102
}
330
9F24
100
AcDbXrecord
280
     1
270
     1
271
     1
  0
XRECORD
  5
9F28
102
{ACAD_REACTORS
330
9F24
102
}
330
9F24
100
AcDbXrecord
280
     1
270
     1
271
     1
  0
XRECORD
  5
9F2A
102
{ACAD_REACTORS
330
9F24
102
}
330
9F24
100
AcDbXrecord
280
     1
270
     1
271
     1
  0
XRECORD
  5
9F27
102
{ACAD_REACTORS
330
9F24
102
}
330
9F24
100
AcDbXrecord
280
     1
270
     1
271
     1
  0
XRECORD
  5
9FB7
102
{ACAD_REACTORS
330
9FB6
102
}
330
9FB6
100
AcDbXrecord
280
     1
102
SHADEPLOT
 70
     0
102
SHADEPLOTRESLEVEL
 70
     2
102
SHADEPLOTCUSTOMDPI
 70
   300
  0
CELLSTYLEMAP
  5
9FB2
102
{ACAD_REACTORS
330
9F8F
102
}
330
9F8F
100
AcDbCellStyleMap
 90
        3
300
CELLSTYLE
  1
TABLEFORMAT_BEGIN
 90
        5
170
     1
 91
        0
 92
    32768
 62
   257
 93
        1
300
CONTENTFORMAT
  1
CONTENTFORMAT_BEGIN
 90
        0
 91
        0
 92
        4
 93
        0
300

 40
0.0
140
1.0
 94
        5
 62
     0
340
10
144
6.0
309
CONTENTFORMAT_END
171
     1
301
MARGIN
  1
CELLMARGIN_BEGIN
 40
1.5
 40
1.5
 40
1.5
 40
1.5
 40
0.18
 40
0.18
309
CELLMARGIN_END
 94
        6
 95
        1
302
GRIDFORMAT
  1
GRIDFORMAT_BEGIN
 90
        0
 91
        1
 62
     0
 92
       -2
340
0
 93
        0
 40
0.045
309
GRIDFORMAT_END
 95
        2
302
GRIDFORMAT
  1
GRIDFORMAT_BEGIN
 90
        0
 91
        1
 62
     0
 92
       -2
340
0
 93
        0
 40
0.045
309
GRIDFORMAT_END
 95
        4
302
GRIDFORMAT
  1
GRIDFORMAT_BEGIN
 90
        0
 91
        1
 62
     0
 92
       -2
340
0
 93
        0
 40
0.045
309
GRIDFORMAT_END
 95
        8
302
GRIDFORMAT
  1
GRIDFORMAT_BEGIN
 90
        0
 91
        1
 62
     0
 92
       -2
340
0
 93
        0
 40
0.045
309
GRIDFORMAT_END
 95
       16
302
GRIDFORMAT
  1
GRIDFORMAT_BEGIN
 90
        0
 91
        1
 62
     0
 92
       -2
340
0
 93
        0
 40
0.045
309
GRIDFORMAT_END
 95
       32
302
GRIDFORMAT
  1
GRIDFORMAT_BEGIN
 90
        0
 91
        1
 62
     0
 92
       -2
340
0
 93
        0
 40
0.045
309
GRIDFORMAT_END
309
TABLEFORMAT_END
  1
CELLSTYLE_BEGIN
 90
        1
 91
        1
300
_TITLE
309
CELLSTYLE_END
300
CELLSTYLE
  1
TABLEFORMAT_BEGIN
 90
        5
170
     1
 91
        0
 92
        0
 62
   257
 93
        1
300
CONTENTFORMAT
  1
CONTENTFORMAT_BEGIN
 90
        0
 91
        0
 92
        4
 93
        0
300

 40
0.0
140
1.0
 94
        5
 62
     0
340
10
144
4.5
309
CONTENTFORMAT_END
171
     1
301
MARGIN
  1
CELLMARGIN_BEGIN
 40
1.5
 40
1.5
 40
1.5
 40
1.5
 40
0.18
 40
0.18
309
CELLMARGIN_END
 94
        6
 95
        1
302
GRIDFORMAT
  1
GRIDFORMAT_BEGIN
 90
        0
 91
        1
 62
     0
 92
       -2
340
0
 93
        0
 40
0.045
309
GRIDFORMAT_END
 95
        2
302
GRIDFORMAT
  1
GRIDFORMAT_BEGIN
 90
        0
 91
        1
 62
     0
 92
       -2
340
0
 93
        0
 40
0.045
309
GRIDFORMAT_END
 95
        4
302
GRIDFORMAT
  1
GRIDFORMAT_BEGIN
 90
        0
 91
        1
 62
     0
 92
       -2
340
0
 93
        0
 40
0.045
309
GRIDFORMAT_END
 95
        8
302
GRIDFORMAT
  1
GRIDFORMAT_BEGIN
 90
        0
 91
        1
 62
     0
 92
       -2
340
0
 93
        0
 40
0.045
309
GRIDFORMAT_END
 95
       16
302
GRIDFORMAT
  1
GRIDFORMAT_BEGIN
 90
        0
 91
        1
 62
     0
 92
       -2
340
0
 93
        0
 40
0.045
309
GRIDFORMAT_END
 95
       32
302
GRIDFORMAT
  1
GRIDFORMAT_BEGIN
 90
        0
 91
        1
 62
     0
 92
       -2
340
0
 93
        0
 40
0.045
309
GRIDFORMAT_END
309
TABLEFORMAT_END
  1
CELLSTYLE_BEGIN
 90
        2
 91
        1
300
_HEADER
309
CELLSTYLE_END
300
CELLSTYLE
  1
TABLEFORMAT_BEGIN
 90
        5
170
     1
 91
        0
 92
        0
 62
   257
 93
        1
300
CONTENTFORMAT
  1
CONTENTFORMAT_BEGIN
 90
        0
 91
        0
 92
        4
 93
        0
300

 40
0.0
140
1.0
 94
        2
 62
     0
340
10
144
4.5
309
CONTENTFORMAT_END
171
     1
301
MARGIN
  1
CELLMARGIN_BEGIN
 40
1.5
 40
1.5
 40
1.5
 40
1.5
 40
0.18
 40
0.18
309
CELLMARGIN_END
 94
        6
 95
        1
302
GRIDFORMAT
  1
GRIDFORMAT_BEGIN
 90
        0
 91
        1
 62
     0
 92
       -2
340
0
 93
        0
 40
0.045
309
GRIDFORMAT_END
 95
        2
302
GRIDFORMAT
  1
GRIDFORMAT_BEGIN
 90
        0
 91
        1
 62
     0
 92
       -2
340
0
 93
        0
 40
0.045
309
GRIDFORMAT_END
 95
        4
302
GRIDFORMAT
  1
GRIDFORMAT_BEGIN
 90
        0
 91
        1
 62
     0
 92
       -2
340
0
 93
        0
 40
0.045
309
GRIDFORMAT_END
 95
        8
302
GRIDFORMAT
  1
GRIDFORMAT_BEGIN
 90
        0
 91
        1
 62
     0
 92
       -2
340
0
 93
        0
 40
0.045
309
GRIDFORMAT_END
 95
       16
302
GRIDFORMAT
  1
GRIDFORMAT_BEGIN
 90
        0
 91
        1
 62
     0
 92
       -2
340
0
 93
        0
 40
0.045
309
GRIDFORMAT_END
 95
       32
302
GRIDFORMAT
  1
GRIDFORMAT_BEGIN
 90
        0
 91
        1
 62
     0
 92
       -2
340
0
 93
        0
 40
0.045
309
GRIDFORMAT_END
309
TABLEFORMAT_END
  1
CELLSTYLE_BEGIN
 90
        3
 91
        2
300
_DATA
309
CELLSTYLE_END
  0
XRECORD
  5
9FB8
102
{ACAD_REACTORS
330
9F8F
102
}
330
9F8F
100
AcDbXrecord
280
     1
102
ACAD_ROUNDTRIP_PRE2007_TABLESTYLE
 90
        4
 91
        0
  1

 92
        4
 93
        0
  2

 94
        4
 95
        0
  3

  0
ENDSEC
  0
EOF
