  0
SECTION
  2
HEADER
  9
$ACADVER
  1
AC1009
  9
$INSBASE
 10
1560.3025591261439
 20
2202.5073519442631
 30
0.0
  9
$EXTMIN
 10
0.0
 20
0.0
 30
0.0
  9
$EXTMAX
 10
840.0
 20
594.0
 30
0.0
  9
$LIMMIN
 10
0.0
 20
0.0
  9
$LIMMAX
 10
420.0
 20
297.0
  9
$ORTHOMODE
 70
     1
  9
$REGENMODE
 70
     1
  9
$FILLMODE
 70
     1
  9
$QTEXTMODE
 70
     0
  9
$MIRRTEXT
 70
     1
  9
$DRAGMODE
 70
     2
  9
$LTSCALE
 40
10.0
  9
$OSMODE
 70
   311
  9
$ATTMODE
 70
     1
  9
$TEXTSIZE
 40
4.0
  9
$TRACEWID
 40
1.0
  9
$TEXTSTYLE
  7
JPN
  9
$CLAYER
  8
MEASURE
  9
$CELTYPE
  6
BYLAYER
  9
$CECOLOR
 62
     7
  9
$DIMSCALE
 40
2.0
  9
$DIMASZ
 40
2.5
  9
$DIMEXO
 40
1.0
  9
$DIMDLI
 40
8.0
  9
$DIMRND
 40
0.0
  9
$DIMDLE
 40
0.0
  9
$DIMEXE
 40
2.0
  9
$DIMTP
 40
0.1
  9
$DIMTM
 40
0.1
  9
$DIMTXT
 40
3.5
  9
$DIMCEN
 40
-2.0
  9
$DIMTSZ
 40
0.0
  9
$DIMTOL
 70
     0
  9
$DIMLIM
 70
     0
  9
$DIMTIH
 70
     0
  9
$DIMTOH
 70
     0
  9
$DIMSE1
 70
     0
  9
$DIMSE2
 70
     0
  9
$DIMTAD
 70
     1
  9
$DIMZIN
 70
     8
  9
$DIMBLK
  1

  9
$DIMASO
 70
     1
  9
$DIMSHO
 70
     1
  9
$DIMPOST
  1

  9
$DIMAPOST
  1

  9
$DIMALT
 70
     0
  9
$DIMALTD
 70
     2
  9
$DIMALTF
 40
25.399999999999999
  9
$DIMLFAC
 40
1.0
  9
$DIMTOFL
 70
     1
  9
$DIMTVP
 40
0.0
  9
$DIMTIX
 70
     0
  9
$DIMSOXD
 70
     0
  9
$DIMSAH
 70
     0
  9
$DIMBLK1
  1

  9
$DIMBLK2
  1

  9
$DIMSTYLE
  2
AD-STANDARD
  9
$DIMCLRD
 70
   256
  9
$DIMCLRE
 70
   256
  9
$DIMCLRT
 70
     2
  9
$DIMTFAC
 40
0.7
  9
$DIMGAP
 40
1.5
  9
$LUNITS
 70
     2
  9
$LUPREC
 70
     4
  9
$SKETCHINC
 40
1.0
  9
$FILLETRAD
 40
1.0
  9
$AUNITS
 70
     0
  9
$AUPREC
 70
     0
  9
$MENU
  1
acad
  9
$ELEVATION
 40
0.0
  9
$PELEVATION
 40
0.0
  9
$THICKNESS
 40
0.0
  9
$LIMCHECK
 70
     0
  9
$BLIPMODE
 70
     0
  9
$CHAMFERA
 40
10.0
  9
$CHAMFERB
 40
10.0
  9
$SKPOLY
 70
     0
  9
$TDCREATE
 40
2449784.8382888888
  9
$TDUPDATE
 40
2454014.7936497559
  9
$TDINDWG
 40
0.7251485764
  9
$TDUSRTIMER
 40
0.7251485764
  9
$USRTIMER
 70
     1
  9
$ANGBASE
 50
0.0
  9
$ANGDIR
 70
     0
  9
$PDMODE
 70
     0
  9
$PDSIZE
 40
0.0
  9
$PLINEWID
 40
0.0
  9
$COORDS
 70
     1
  9
$SPLFRAME
 70
     0
  9
$SPLINETYPE
 70
     6
  9
$SPLINESEGS
 70
     8
  9
$ATTDIA
 70
     0
  9
$ATTREQ
 70
     1
  9
$HANDLING
 70
 22529
  9
$HANDSEED
  5
1355
  9
$SURFTAB1
 70
     6
  9
$SURFTAB2
 70
     6
  9
$SURFTYPE
 70
     6
  9
$SURFU
 70
     6
  9
$SURFV
 70
     6
  9
$UCSNAME
  2

  9
$UCSORG
 10
0.0
 20
0.0
 30
0.0
  9
$UCSXDIR
 10
1.0
 20
0.0
 30
0.0
  9
$UCSYDIR
 10
0.0
 20
1.0
 30
0.0
  9
$PUCSNAME
  2

  9
$PUCSORG
 10
0.0
 20
0.0
 30
0.0
  9
$PUCSXDIR
 10
1.0
 20
0.0
 30
0.0
  9
$PUCSYDIR
 10
0.0
 20
1.0
 30
0.0
  9
$USERI1
 70
     0
  9
$USERI2
 70
     0
  9
$USERI3
 70
     0
  9
$USERI4
 70
     0
  9
$USERI5
 70
     0
  9
$USERR1
 40
0.0
  9
$USERR2
 40
0.0
  9
$USERR3
 40
0.0
  9
$USERR4
 40
0.0
  9
$USERR5
 40
0.0
  9
$WORLDVIEW
 70
     1
  9
$SHADEDGE
 70
     3
  9
$SHADEDIF
 70
    70
  9
$TILEMODE
 70
     0
  9
$MAXACTVP
 70
    16
  9
$PLIMCHECK
 70
     0
  9
$PEXTMIN
 10
-0.0233557008396019
 20
-0.0155136928541424
 30
-0.0015258207003583
  9
$PEXTMAX
 10
408.03027904807908
 20
285.01278123749938
 30
0.0000000349246037
  9
$PLIMMIN
 10
-5.873748779296875
 20
-5.8737497329711914
  9
$PLIMMAX
 10
414.07290649414062
 20
291.05224514007568
  9
$UNITMODE
 70
     0
  9
$VISRETAIN
 70
     0
  9
$PLINEGEN
 70
     0
  9
$PSLTSCALE
 70
     1
  0
ENDSEC
  0
SECTION
  2
TABLES
  0
TABLE
  2
VPORT
 70
    13
  0
VPORT
  2
*ACTIVE
 70
     0
 10
0.0
 20
0.0
 11
1.0
 21
1.0
 12
421.66588005206859
 22
309.15544311508182
 13
0.0
 23
0.0
 14
1.0
 24
1.0
 15
10.0
 25
10.0
 16
0.0
 26
0.0
 36
1.0
 17
0.0
 27
0.0
 37
0.0
 40
760.80543001978094
 41
1.2185929648241201
 42
50.0
 43
0.0
 44
0.0
 50
0.0
 51
0.0
 71
     0
 72
   100
 73
     1
 74
     0
 75
     0
 76
     0
 77
     0
 78
     0
  0
ENDTAB
  0
TABLE
  2
LTYPE
 70
     5
  0
LTYPE
  2
CONTINUOUS
 70
     0
  3
Solid line
 72
    65
 73
     0
 40
0.0
  0
LTYPE
  2
CENTER
 70
     0
  3
____ _ ____ _ ____ _ ____ _ ____ _ ____ _ ____ 
 72
    65
 73
     4
 40
2.0
 49
1.25
 49
-0.25
 49
0.25
 49
-0.25
  0
LTYPE
  2
DASHED
 70
     0
  3
__ __ __ __ __ __ __ __ __ __ __ __ __ __ __ __
 72
    65
 73
     2
 40
0.75
 49
0.5
 49
-0.25
  0
LTYPE
  2
HIDDEN
 70
     0
  3
__ __ __ __ __ __ __ __ __ __ __ __ __ __ __ __
 72
    65
 73
     2
 40
0.375
 49
0.25
 49
-0.125
  0
LTYPE
  2
PHANTOM
 70
     0
  3
______  __  __  ______  __  __  ______  __  __ 
 72
    65
 73
     6
 40
63.5
 49
31.75
 49
-6.3499999999999988
 49
6.3499999999999988
 49
-6.3499999999999988
 49
6.3499999999999988
 49
-6.3499999999999988
  0
ENDTAB
  0
TABLE
  2
LAYER
 70
    11
  0
LAYER
  2
0
 70
     0
 62
     7
  6
CONTINUOUS
  0
LAYER
  2
AD4324
 70
     0
 62
     7
  6
CONTINUOUS
  0
LAYER
  2
HOJO
 70
     0
 62
     4
  6
CONTINUOUS
  0
LAYER
  2
CENTER
 70
     0
 62
     9
  6
CENTER
  0
LAYER
  2
MEASURE
 70
     0
 62
     9
  6
CONTINUOUS
  0
LAYER
  2
DEFPOINTS
 70
     0
 62
     7
  6
CONTINUOUS
  0
LAYER
  2
NOTE
 70
     0
 62
     2
  6
CONTINUOUS
  0
ENDTAB
  0
TABLE
  2
STYLE
 70
     9
  0
STYLE
  2
STANDARD
 70
     0
 40
0.0
 41
1.0
 50
0.0
 71
     0
 42
4.0
  3
TXT
  4
bigfont
  0
STYLE
  2
BIGFONT
 70
     0
 40
3.5
 41
0.8
 50
15.0
 71
     0
 42
3.5
  3
ROMANS.SHX
  4
BIGFONT.SHX
  0
STYLE
  2
ROMANS
 70
     0
 40
3.5
 41
0.8
 50
0.0
 71
     0
 42
3.5
  3
romans
  4

  0
STYLE
  2
AD-STANDARD
 70
     0
 40
0.0
 41
0.8
 50
0.0
 71
     0
 42
3.5
  3
C:\Program Files\AutoCAD LT\romans.shx
  4
bigfont.shx
  0
STYLE
  2
FUTURA
 70
     0
 40
3.0
 41
1.0
 50
0.0
 71
     0
 42
3.0
  3
txt
  4

  0
STYLE
  2
JPN
 70
     0
 40
3.0
 41
1.0
 50
0.0
 71
     0
 42
4.0
  3
txt
  4

  0
ENDTAB
  0
TABLE
  2
VIEW
 70
     0
  0
ENDTAB
  0
TABLE
  2
UCS
 70
     0
  0
ENDTAB
  0
TABLE
  2
APPID
 70
     1
  0
APPID
  2
ACAD
 70
     0
  0
ENDTAB
  0
TABLE
  2
DIMSTYLE
 70
     2
  0
DIMSTYLE
  2
STANDARD
 70
     0
  3

  4

  5

  6

  7

 40
1.0
 41
0.18
 42
0.0625
 43
0.38
 44
0.18
 45
0.0
 46
0.0
 47
0.0
 48
0.0
140
0.18
141
0.09
142
0.0
143
25.399999999999999
144
1.0
145
0.0
146
1.0
147
0.09
 71
     0
 72
     0
 73
     1
 74
     1
 75
     0
 76
     0
 77
     0
 78
     0
170
     0
171
     2
172
     0
173
     0
174
     0
175
     0
176
     0
177
     0
178
     0
  0
DIMSTYLE
  2
AD-STANDARD
 70
     0
  3

  4

  5

  6

  7

 40
1.0
 41
2.5
 42
1.0
 43
8.0
 44
2.0
 45
0.0
 46
0.0
 47
0.1
 48
0.1
140
3.5
141
-2.0
142
0.0
143
25.399999999999999
144
1.0
145
0.0
146
0.7
147
1.5
 71
     0
 72
     0
 73
     0
 74
     0
 75
     0
 76
     0
 77
     1
 78
     8
170
     0
171
     2
172
     1
173
     0
174
     0
175
     0
176
   256
177
   256
178
     2
  0
ENDTAB
  0
ENDSEC
  0
SECTION
  2
BLOCKS
  0
BLOCK
  8
0
  2
$MODEL_SPACE
 70
     0
 10
0.0
 20
0.0
 30
0.0
  3
$MODEL_SPACE
  1

  0
ENDBLK
  5
23
  8
0
  0
BLOCK
 67
     1
  8
0
 62
     7
  2
$PAPER_SPACE
 70
     0
 10
0.0
 20
0.0
 30
0.0
  3
$PAPER_SPACE
  1

  0
ENDBLK
  5
4AD
 67
     1
  8
0
 62
     7
  0
BLOCK
  8
0
 62
     7
  2
*D4
 70
     1
 10
0.0
 20
0.0
 30
0.0
  3
*D4
  1

  0
LINE
  5
1140
  8
MEASURE
 10
108.62615128962599
 20
116.61638503525251
 30
0.0
 11
108.62615128962599
 21
70.99576984718442
 31
0.0
  0
LINE
  5
1141
  8
MEASURE
 10
326.62615128962568
 20
116.61638503525251
 30
0.0
 11
326.62615128962568
 21
70.99576984718442
 31
0.0
  0
LINE
  5
1142
  8
MEASURE
 10
113.62615128962599
 20
74.99576984718442
 30
0.0
 11
321.6261512896258
 21
74.99576984718442
 31
0.0
  0
SOLID
  5
1143
  8
MEASURE
 10
113.62615128962599
 20
75.829103180517748
 30
0.0
 11
113.62615128962599
 21
74.162436513851091
 31
0.0
 12
108.62615128962599
 22
74.99576984718442
 32
0.0
 13
108.62615128962599
 23
74.99576984718442
 33
0.0
  0
SOLID
  5
1144
  8
MEASURE
 10
321.6261512896258
 20
75.829103180517748
 30
0.0
 11
321.6261512896258
 21
74.162436513851091
 31
0.0
 12
326.62615128962568
 22
74.99576984718442
 32
0.0
 13
326.62615128962568
 23
74.99576984718442
 33
0.0
  0
TEXT
  5
1145
  8
MEASURE
 62
     2
 10
209.6261512896258
 20
77.995769847184405
 30
0.0
 40
7.0
  1
218
 41
0.8
  7
AD-STANDARD
  0
POINT
  5
1146
  8
DEFPOINTS
 62
     0
 10
108.62615128962599
 20
118.61638503525251
 30
0.0
  0
POINT
  5
1147
  8
DEFPOINTS
 62
     0
 10
326.62615128962568
 20
118.61638503525251
 30
0.0
  0
POINT
  5
1148
  8
DEFPOINTS
 62
     0
 10
326.62615128962568
 20
74.99576984718442
 30
0.0
  0
ENDBLK
  5
E64
  8
0
 62
     7
  0
BLOCK
  8
0
 62
     7
  2
*D5
 70
     1
 10
0.0
 20
0.0
 30
0.0
  3
*D5
  1

  0
LINE
  5
112E
  8
MEASURE
 10
324.62615128962568
 20
249.61638503525239
 30
0.0
 11
384.74144595301817
 21
249.61638503525239
 31
0.0
  0
LINE
  5
112F
  8
MEASURE
 10
308.92615128962791
 20
107.01638503525371
 30
0.0
 11
384.74144595301817
 21
107.01638503525371
 31
0.0
  0
LINE
  5
1130
  8
MEASURE
 10
380.74144595301817
 20
244.61638503525251
 30
0.0
 11
380.74144595301817
 21
112.01638503525361
 31
0.0
  0
SOLID
  5
1131
  8
MEASURE
 10
379.90811261968491
 20
244.61638503525251
 30
0.0
 11
381.5747792863516
 21
244.61638503525251
 31
0.0
 12
380.74144595301817
 22
249.61638503525239
 32
0.0
 13
380.74144595301817
 23
249.61638503525239
 33
0.0
  0
SOLID
  5
1132
  8
MEASURE
 10
379.90811261968491
 20
112.01638503525361
 30
0.0
 11
381.57477928635149
 21
112.01638503525361
 31
0.0
 12
380.74144595301817
 22
107.01638503525371
 32
0.0
 13
380.74144595301817
 23
107.01638503525371
 33
0.0
  0
TEXT
  5
1133
  8
MEASURE
 62
     2
 10
374.74144595301817
 20
166.5830517019198
 30
0.0
 40
7.0
  1
(143)
 50
90.0
 41
0.8
  7
AD-STANDARD
  0
POINT
  5
1134
  8
DEFPOINTS
 62
     0
 10
322.62615128962568
 20
249.61638503525239
 30
0.0
  0
POINT
  5
1135
  8
DEFPOINTS
 62
     0
 10
306.92615128962791
 20
107.01638503525371
 30
0.0
  0
POINT
  5
1136
  8
DEFPOINTS
 62
     0
 10
380.74144595301817
 20
107.01638503525371
 30
0.0
  0
ENDBLK
  5
EA8
  8
0
 62
     7
  0
BLOCK
  8
0
 62
     7
  2
*D8
 70
     1
 10
0.0
 20
0.0
 30
0.0
  3
*D8
  1

  0
LINE
  5
10FB
  8
MEASURE
 10
509.32069139011259
 20
138.61638503525199
 30
0.0
 11
509.32069139011259
 21
70.957989112564064
 31
0.0
  0
LINE
  5
10FC
  8
MEASURE
 10
730.32069139011264
 20
113.11638503525199
 30
0.0
 11
730.32069139011264
 21
70.957989112564064
 31
0.0
  0
LINE
  5
10FD
  8
MEASURE
 10
514.32069139011264
 20
74.957989112564064
 30
0.0
 11
725.32069139011264
 21
74.957989112564064
 31
0.0
  0
SOLID
  5
10FE
  8
MEASURE
 10
514.32069139011264
 20
75.791322445897393
 30
0.0
 11
514.32069139011264
 21
74.124655779230736
 31
0.0
 12
509.32069139011259
 22
74.957989112564064
 32
0.0
 13
509.32069139011259
 23
74.957989112564064
 33
0.0
  0
SOLID
  5
10FF
  8
MEASURE
 10
725.32069139011264
 20
75.791322445897393
 30
0.0
 11
725.32069139011264
 21
74.124655779230736
 31
0.0
 12
730.32069139011264
 22
74.957989112564064
 32
0.0
 13
730.32069139011264
 23
74.957989112564064
 33
0.0
  0
TEXT
  5
1100
  8
MEASURE
 62
     2
 10
612.62069139011271
 20
77.957989112564064
 30
0.0
 40
7.0
  1
221
 41
0.8
  7
AD-STANDARD
  0
POINT
  5
1101
  8
DEFPOINTS
 62
     0
 10
509.32069139011259
 20
140.61638503525199
 30
0.0
  0
POINT
  5
1102
  8
DEFPOINTS
 62
     0
 10
730.32069139011264
 20
115.11638503525199
 30
0.0
  0
POINT
  5
1103
  8
DEFPOINTS
 62
     0
 10
730.32069139011264
 20
74.957989112564064
 30
0.0
  0
ENDBLK
  5
F64
  8
0
 62
     7
  0
BLOCK
  8
0
 62
     7
  2
*D16
 70
     1
 10
0.0
 20
0.0
 30
0.0
  3
*D16
  1

  0
LINE
  5
1137
  8
MEASURE
 10
324.62615128962568
 20
249.61638503525239
 30
0.0
 11
368.45294671934153
 21
249.61638503525239
 31
0.0
  0
LINE
  5
1138
  8
MEASURE
 10
324.62615128962568
 20
114.61638503525251
 30
0.0
 11
368.45294671934153
 21
114.61638503525241
 31
0.0
  0
LINE
  5
1139
  8
MEASURE
 10
364.45294671934153
 20
244.61638503525251
 30
0.0
 11
364.45294671934153
 21
119.61638503525241
 31
0.0
  0
SOLID
  5
113A
  8
MEASURE
 10
363.61961338600821
 20
244.61638503525251
 30
0.0
 11
365.2862800526749
 21
244.61638503525251
 31
0.0
 12
364.45294671934153
 22
249.61638503525239
 32
0.0
 13
364.45294671934153
 23
249.61638503525239
 33
0.0
  0
SOLID
  5
113B
  8
MEASURE
 10
363.61961338600821
 20
119.61638503525241
 30
0.0
 11
365.28628005267478
 21
119.61638503525241
 31
0.0
 12
364.45294671934153
 22
114.61638503525241
 32
0.0
 13
364.45294671934153
 23
114.61638503525241
 33
0.0
  0
TEXT
  5
113C
  8
MEASURE
 62
     2
 10
361.45294671934153
 20
173.7163850352525
 30
0.0
 40
7.0
  1
135
 50
90.0
 41
0.8
  7
AD-STANDARD
  0
POINT
  5
113D
  8
DEFPOINTS
 62
     0
 10
322.62615128962568
 20
249.61638503525239
 30
0.0
  0
POINT
  5
113E
  8
DEFPOINTS
 62
     0
 10
322.62615128962568
 20
114.61638503525251
 30
0.0
  0
POINT
  5
113F
  8
DEFPOINTS
 62
     0
 10
364.45294671934153
 20
114.61638503525241
 30
0.0
  0
ENDBLK
  5
1124
  8
0
 62
     7
  0
BLOCK
  8
0
 62
     7
  2
*U17
 70
     1
 10
0.0
 20
0.0
 30
0.0
  3
*U17
  1

  0
TEXT
  5
12B3
  8
MEASURE
 62
     8
 10
133.429509089514
 20
121.2596305923923
 30
0.0
 40
3.0
  1
AD-4324  WEIGHING
  7
FUTURA
  0
TEXT
  5
12B4
  8
MEASURE
 62
     8
 10
176.99918122066151
 20
121.2596305923923
 30
0.0
 40
3.0
  1
 
  7
FUTURA
  0
TEXT
  5
12B5
  8
MEASURE
 62
     8
 10
178.32872667520701
 20
121.2596305923923
 30
0.0
 40
3.0
  1
INDICATOR
  7
FUTURA
  0
ENDBLK
  5
12B7
  8
0
 62
     7
  0
BLOCK
  8
0
 62
     7
  2
*U18
 70
     1
 10
0.0
 20
0.0
 30
0.0
  3
*U18
  1

  0
SOLID
  5
12BE
  8
AD4324
  6
CONTINUOUS
 62
     8
 10
129.01217757250521
 20
121.3895599309967
 30
0.0
 11
124.80884512719339
 21
121.37506135090069
 31
0.0
 12
128.75108896872871
 22
121.3780295641487
 32
0.0
 13
128.75108896872871
 23
121.3780295641487
 33
0.0
210
0.0
220
0.0
230
1.0
  0
SOLID
  5
12BF
  8
AD4324
  6
CONTINUOUS
 62
     8
 10
129.25876759618561
 20
121.4273475688851
 30
0.0
 11
124.80884512719339
 21
121.37506135090069
 31
0.0
 12
129.01217757250521
 22
121.3895599309967
 32
0.0
 13
129.01217757250521
 23
121.3895599309967
 33
0.0
210
0.0
220
0.0
230
1.0
  0
SOLID
  5
12C0
  8
AD4324
  6
CONTINUOUS
 62
     8
 10
129.4878908265222
 20
121.4823736760211
 30
0.0
 11
124.80884512719339
 21
121.37506135090069
 31
0.0
 12
129.25876759618561
 22
121.4273475688851
 32
0.0
 13
129.25876759618561
 23
121.4273475688851
 33
0.0
  0
SOLID
  5
12C1
  8
AD4324
  6
CONTINUOUS
 62
     8
 10
129.6996614255622
 20
121.5606888409486
 30
0.0
 11
124.80884512719339
 21
121.37506135090069
 31
0.0
 12
129.4878908265222
 22
121.4823736760211
 32
0.0
 13
129.4878908265222
 23
121.4823736760211
 33
0.0
210
0.0
220
0.0
230
1.0
  0
SOLID
  5
12C2
  8
AD4324
  6
CONTINUOUS
 62
     8
 10
129.8969334445062
 20
121.6593248504205
 30
0.0
 11
124.80884512719339
 21
121.37506135090069
 31
0.0
 12
129.6996614255622
 22
121.5606888409486
 32
0.0
 13
129.6996614255622
 23
121.5606888409486
 33
0.0
210
0.0
220
0.0
230
1.0
  0
SOLID
  5
12C3
  8
AD4324
  6
CONTINUOUS
 62
     8
 10
130.07388461890559
 20
121.77245943998849
 30
0.0
 11
124.80884512719339
 21
121.37506135090069
 31
0.0
 12
129.8969334445062
 22
121.6593248504205
 32
0.0
 13
129.8969334445062
 23
121.6593248504205
 33
0.0
210
0.0
220
0.0
230
1.0
  0
SOLID
  5
12C4
  8
AD4324
  6
CONTINUOUS
 62
     8
 10
130.23336899996141
 20
121.9030608229011
 30
0.0
 11
124.80884512719339
 21
121.37506135090069
 31
0.0
 12
130.07388461890559
 22
121.77245943998849
 32
0.0
 13
130.07388461890559
 23
121.77245943998849
 33
0.0
210
0.0
220
0.0
230
1.0
  0
SOLID
  5
12C5
  8
AD4324
  6
CONTINUOUS
 62
     8
 10
130.37846896296989
 20
122.0480466238609
 30
0.0
 11
124.80884512719339
 21
121.37506135090069
 31
0.0
 12
130.23336899996141
 22
121.9030608229011
 32
0.0
 13
130.23336899996141
 23
121.9030608229011
 33
0.0
210
0.0
220
0.0
230
1.0
  0
SOLID
  5
12C6
  8
AD4324
  6
CONTINUOUS
 62
     8
 10
122.9291670068741
 20
122.1960006380685
 30
0.0
 11
120.1530884856578
 21
121.3722072997009
 31
0.0
 12
122.9291670068741
 22
121.3722072997009
 32
0.0
 13
122.9291670068741
 23
121.3722072997009
 33
0.0
210
0.0
220
0.0
230
1.0
  0
SOLID
  5
12C7
  8
AD4324
  6
CONTINUOUS
 62
     8
 10
120.1530884856578
 20
121.3722072997009
 30
0.0
 11
122.9291670068741
 21
122.1960006380685
 31
0.0
 12
122.3983134836741
 22
122.1960006380685
 32
0.0
 13
122.3983134836741
 23
122.1960006380685
 33
0.0
210
0.0
220
0.0
230
1.0
  0
SOLID
  5
12C8
  8
AD4324
  6
CONTINUOUS
 62
     8
 10
116.3761512896257
 20
122.1960006380685
 30
0.0
 11
116.3761512896257
 21
121.36638503525241
 31
0.0
 12
119.2131923444738
 22
121.36638503525241
 32
0.0
 13
119.2131923444738
 23
121.36638503525241
 33
0.0
210
0.0
220
0.0
230
1.0
  0
SOLID
  5
12C9
  8
AD4324
  6
CONTINUOUS
 62
     8
 10
119.2131923444738
 20
121.36638503525241
 30
0.0
 11
116.8953602839297
 21
122.1960006380685
 31
0.0
 12
116.3761512896257
 22
122.1960006380685
 32
0.0
 13
116.3761512896257
 23
122.1960006380685
 33
0.0
210
0.0
220
0.0
230
1.0
  0
SOLID
  5
12CA
  8
AD4324
  6
CONTINUOUS
 62
     8
 10
120.1530884856578
 20
122.1960006380685
 30
0.0
 11
120.1530884856578
 21
121.3722072997009
 31
0.0
 12
122.3983134836741
 22
122.1960006380685
 32
0.0
 13
122.3983134836741
 23
122.1960006380685
 33
0.0
210
0.0
220
0.0
230
1.0
  0
SOLID
  5
12CB
  8
AD4324
  6
CONTINUOUS
 62
     8
 10
122.3983134836741
 20
122.1960006380685
 30
0.0
 11
120.672297479962
 21
122.1960006380685
 31
0.0
 12
120.1530884856578
 22
122.1960006380685
 32
0.0
 13
120.1530884856578
 23
122.1960006380685
 33
0.0
210
0.0
220
0.0
230
1.0
  0
SOLID
  5
12CC
  8
AD4324
  6
CONTINUOUS
 62
     8
 10
124.80884512719339
 20
122.1960006380685
 30
0.0
 11
124.80884512719339
 21
121.37506135090069
 31
0.0
 12
130.37846896296989
 22
122.0480466238609
 32
0.0
 13
130.37846896296989
 23
122.0480466238609
 33
0.0
210
0.0
220
0.0
230
1.0
  0
SOLID
  5
12CD
  8
AD4324
  6
CONTINUOUS
 62
     8
 10
125.2294181120255
 20
122.1989688513171
 30
0.0
 11
124.80884512719339
 21
122.1960006380685
 31
0.0
 12
130.37846896296989
 22
122.0480466238609
 32
0.0
 13
130.37846896296989
 23
122.0480466238609
 33
0.0
210
0.0
220
0.0
230
1.0
  0
SOLID
  5
12CE
  8
AD4324
  6
CONTINUOUS
 62
     8
 10
127.31515872898581
 20
122.2046769537167
 30
0.0
 11
125.2294181120255
 21
122.1989688513171
 31
0.0
 12
130.37846896296989
 22
122.0480466238609
 32
0.0
 13
130.37846896296989
 23
122.0480466238609
 33
0.0
210
0.0
220
0.0
230
1.0
  0
SOLID
  5
12CF
  8
AD4324
  6
CONTINUOUS
 62
     8
 10
130.37846896296989
 20
122.0480466238609
 30
0.0
 11
128.66730321564481
 21
122.2046769537167
 31
0.0
 12
127.31515872898581
 22
122.2046769537167
 32
0.0
 13
127.31515872898581
 23
122.2046769537167
 33
0.0
  0
SOLID
  5
12D0
  8
AD4324
  6
CONTINUOUS
 62
     8
 10
119.2131923444738
 20
122.2076451669645
 30
0.0
 11
116.8953602839297
 21
122.1960006380685
 31
0.0
 12
119.2131923444738
 22
121.36638503525241
 32
0.0
 13
119.2131923444738
 23
121.36638503525241
 33
0.0
210
0.0
220
0.0
230
1.0
  0
SOLID
  5
12D1
  8
AD4324
  6
CONTINUOUS
 62
     8
 10
130.5032480814339
 20
122.20764516696551
 30
0.0
 11
128.66730321564481
 21
122.2046769537167
 31
0.0
 12
130.37846896296989
 22
122.0480466238609
 32
0.0
 13
130.37846896296989
 23
122.0480466238609
 33
0.0
210
0.0
220
0.0
230
1.0
  0
SOLID
  5
12D2
  8
AD4324
  6
CONTINUOUS
 62
     8
 10
118.6939833501697
 20
122.20764516696551
 30
0.0
 11
116.8953602839297
 21
122.1960006380685
 31
0.0
 12
119.2131923444738
 22
122.2076451669645
 32
0.0
 13
119.2131923444738
 23
122.2076451669645
 33
0.0
210
0.0
220
0.0
230
1.0
  0
SOLID
  5
12D3
  8
AD4324
  6
CONTINUOUS
 62
     8
 10
130.61341445775309
 20
122.3759200257164
 30
0.0
 11
128.66730321564481
 21
122.2046769537167
 31
0.0
 12
130.5032480814339
 22
122.20764516696551
 32
0.0
 13
130.5032480814339
 23
122.20764516696551
 33
0.0
  0
SOLID
  5
12D4
  8
AD4324
  6
CONTINUOUS
 62
     8
 10
129.07057969391619
 20
122.51055422828141
 30
0.0
 11
128.66730321564481
 21
122.2046769537167
 31
0.0
 12
130.61341445775309
 22
122.3759200257164
 32
0.0
 13
130.61341445775309
 23
122.3759200257164
 33
0.0
210
0.0
220
0.0
230
1.0
  0
SOLID
  5
12D5
  8
AD4324
  6
CONTINUOUS
 62
     8
 10
130.7062282027776
 20
122.5528712001169
 30
0.0
 11
129.07057969391619
 21
122.51055422828141
 31
0.0
 12
130.61341445775309
 22
122.3759200257164
 32
0.0
 13
130.61341445775309
 23
122.3759200257164
 33
0.0
210
0.0
220
0.0
230
1.0
  0
SOLID
  5
12D6
  8
AD4324
  6
CONTINUOUS
 62
     8
 10
119.10005775490571
 20
122.7210318968209
 30
0.0
 11
116.8953602839297
 21
122.1960006380685
 31
0.0
 12
118.6939833501697
 22
122.20764516696551
 32
0.0
 13
118.6939833501697
 23
122.20764516696551
 33
0.0
210
0.0
220
0.0
230
1.0
  0
SOLID
  5
12D7
  8
AD4324
  6
CONTINUOUS
 62
     8
 10
120.672297479962
 20
122.7210318968209
 30
0.0
 11
120.672297479962
 21
122.1960006380685
 31
0.0
 12
122.3983134836741
 22
122.1960006380685
 32
0.0
 13
122.3983134836741
 23
122.1960006380685
 33
0.0
210
0.0
220
0.0
230
1.0
  0
SOLID
  5
12D8
  8
AD4324
  6
CONTINUOUS
 62
     8
 10
130.78168931650521
 20
122.7384986901648
 30
0.0
 11
129.07057969391619
 21
122.51055422828141
 31
0.0
 12
130.7062282027776
 22
122.5528712001169
 32
0.0
 13
130.7062282027776
 23
122.5528712001169
 33
0.0
210
0.0
220
0.0
230
1.0
  0
SOLID
  5
12D9
  8
AD4324
  6
CONTINUOUS
 62
     8
 10
130.83968363688911
 20
122.9328024958609
 30
0.0
 11
129.07057969391619
 21
122.51055422828141
 31
0.0
 12
130.78168931650521
 22
122.7384986901648
 32
0.0
 13
130.78168931650521
 23
122.7384986901648
 33
0.0
210
0.0
220
0.0
230
1.0
  0
SOLID
  5
12DA
  8
AD4324
  6
CONTINUOUS
 62
     8
 10
130.88317937717699
 20
123.1300745148048
 30
0.0
 11
129.07057969391619
 21
122.51055422828141
 31
0.0
 12
130.83968363688911
 22
122.9328024958609
 32
0.0
 13
130.83968363688911
 23
122.9328024958609
 33
0.0
210
0.0
220
0.0
230
1.0
  0
SOLID
  5
12DB
  8
AD4324
  6
CONTINUOUS
 62
     8
 10
130.9151447506178
 20
123.5303266550933
 30
0.0
 11
129.07057969391619
 21
122.51055422828141
 31
0.0
 12
130.88317937717699
 22
123.1300745148048
 32
0.0
 13
130.88317937717699
 23
123.1300745148048
 33
0.0
210
0.0
220
0.0
230
1.0
  0
SOLID
  5
12DC
  8
AD4324
  6
CONTINUOUS
 62
     8
 10
119.773043027866
 20
123.5418570219405
 30
0.0
 11
119.10005775490571
 21
122.7210318968209
 31
0.0
 12
120.672297479962
 22
122.7210318968209
 32
0.0
 13
120.672297479962
 23
122.7210318968209
 33
0.0
210
0.0
220
0.0
230
1.0
  0
SOLID
  5
12DD
  8
AD4324
  6
CONTINUOUS
 62
     8
 10
119.773043027866
 20
123.5418570219405
 30
0.0
 11
120.672297479962
 21
122.7210318968209
 31
0.0
 12
122.3983134836741
 22
122.1960006380685
 32
0.0
 13
122.3983134836741
 23
122.1960006380685
 33
0.0
  0
SOLID
  5
12DE
  8
AD4324
  6
CONTINUOUS
 62
     8
 10
119.773043027866
 20
123.5418570219405
 30
0.0
 11
116.8953602839297
 21
122.1960006380685
 31
0.0
 12
119.10005775490571
 22
122.7210318968209
 32
0.0
 13
119.10005775490571
 23
122.7210318968209
 33
0.0
210
0.0
220
0.0
230
1.0
  0
SOLID
  5
12DF
  8
AD4324
  6
CONTINUOUS
 62
     8
 10
120.6664752155134
 20
123.5418570219414
 30
0.0
 11
119.773043027866
 21
123.5418570219405
 31
0.0
 12
122.3983134836741
 22
122.1960006380685
 32
0.0
 13
122.3983134836741
 23
122.1960006380685
 33
0.0
210
0.0
220
0.0
230
1.0
  0
SOLID
  5
12E0
  8
AD4324
  6
CONTINUOUS
 62
     8
 10
125.5862886740739
 20
123.730452725237
 30
0.0
 11
125.2294181120255
 21
122.1989688513171
 31
0.0
 12
127.31515872898581
 22
122.2046769537167
 32
0.0
 13
127.31515872898581
 23
122.2046769537167
 33
0.0
210
0.0
220
0.0
230
1.0
  0
SOLID
  5
12E1
  8
AD4324
  6
CONTINUOUS
 62
     8
 10
130.87747127477729
 20
123.93354700862849
 30
0.0
 11
129.07057969391619
 21
122.51055422828141
 31
0.0
 12
130.9151447506178
 22
123.5303266550933
 32
0.0
 13
130.9151447506178
 23
123.5303266550933
 33
0.0
  0
SOLID
  5
12E2
  8
AD4324
  6
CONTINUOUS
 62
     8
 10
130.8368295856902
 20
124.1308190275727
 30
0.0
 11
129.07057969391619
 21
122.51055422828141
 31
0.0
 12
130.87747127477729
 22
123.93354700862849
 32
0.0
 13
130.87747127477729
 23
123.93354700862849
 33
0.0
210
0.0
220
0.0
230
1.0
  0
SOLID
  5
12E3
  8
AD4324
  6
CONTINUOUS
 62
     8
 10
130.77586705205769
 20
124.322268782069
 30
0.0
 11
129.07057969391619
 21
122.51055422828141
 31
0.0
 12
130.8368295856902
 22
124.1308190275727
 32
0.0
 13
130.8368295856902
 23
124.1308190275727
 33
0.0
210
0.0
220
0.0
230
1.0
  0
SOLID
  5
12E4
  8
AD4324
  6
CONTINUOUS
 62
     8
 10
129.0670524820176
 20
124.4821245909805
 30
0.0
 11
129.07057969391619
 21
122.51055422828141
 31
0.0
 12
130.77586705205769
 22
124.322268782069
 32
0.0
 13
130.77586705205769
 23
124.322268782069
 33
0.0
  0
SOLID
  5
12E5
  8
AD4324
  6
CONTINUOUS
 62
     8
 10
130.69755188713009
 20
124.5107503233174
 30
0.0
 11
129.0670524820176
 21
124.4821245909805
 31
0.0
 12
130.77586705205769
 22
124.322268782069
 32
0.0
 13
130.77586705205769
 23
124.322268782069
 33
0.0
210
0.0
220
0.0
230
1.0
  0
SOLID
  5
12E6
  8
AD4324
  6
CONTINUOUS
 62
     8
 10
122.3954594324732
 20
124.65870433752499
 30
0.0
 11
120.6664752155134
 21
123.5418570219414
 31
0.0
 12
122.3983134836741
 22
122.1960006380685
 32
0.0
 13
122.3983134836741
 23
122.1960006380685
 33
0.0
  0
SOLID
  5
12E7
  8
AD4324
  6
CONTINUOUS
 62
     8
 10
122.3954594324732
 20
124.65870433752499
 30
0.0
 11
125.2294181120255
 21
122.1989688513171
 31
0.0
 12
125.5862886740739
 22
123.730452725237
 32
0.0
 13
125.5862886740739
 23
123.730452725237
 33
0.0
210
0.0
220
0.0
230
1.0
  0
SOLID
  5
12E8
  8
AD4324
  6
CONTINUOUS
 62
     8
 10
120.6664752155134
 20
124.65870433752499
 30
0.0
 11
116.8953602839297
 21
122.1960006380685
 31
0.0
 12
119.773043027866
 22
123.5418570219405
 32
0.0
 13
119.773043027866
 23
123.5418570219405
 33
0.0
210
0.0
220
0.0
230
1.0
  0
SOLID
  5
12E9
  8
AD4324
  6
CONTINUOUS
 62
     8
 10
120.6664752155134
 20
124.65870433752499
 30
0.0
 11
120.6664752155134
 21
123.5418570219414
 31
0.0
 12
122.3954594324732
 22
124.65870433752499
 32
0.0
 13
122.3954594324732
 23
124.65870433752499
 33
0.0
210
0.0
220
0.0
230
1.0
  0
SOLID
  5
12EA
  8
AD4324
  6
CONTINUOUS
 62
     8
 10
130.60473814210579
 20
124.6906697109646
 30
0.0
 11
129.0670524820176
 21
124.4821245909805
 31
0.0
 12
130.69755188713009
 22
124.5107503233174
 32
0.0
 13
130.69755188713009
 23
124.5107503233174
 33
0.0
210
0.0
220
0.0
230
1.0
  0
SOLID
  5
12EB
  8
AD4324
  6
CONTINUOUS
 62
     8
 10
130.4944576037376
 20
124.8589445697167
 30
0.0
 11
129.0670524820176
 21
124.4821245909805
 31
0.0
 12
130.60473814210579
 22
124.6906697109646
 32
0.0
 13
130.60473814210579
 23
124.6906697109646
 33
0.0
210
0.0
220
0.0
230
1.0
  0
SOLID
  5
12EC
  8
AD4324
  6
CONTINUOUS
 62
     8
 10
119.0565620146178
 20
124.8734431498127
 30
0.0
 11
116.8953602839297
 21
122.1960006380685
 31
0.0
 12
120.6664752155134
 22
124.65870433752499
 32
0.0
 13
120.6664752155134
 23
124.65870433752499
 33
0.0
210
0.0
220
0.0
230
1.0
  0
SOLID
  5
12ED
  8
AD4324
  6
CONTINUOUS
 62
     8
 10
128.71351917229839
 20
124.8785272941619
 30
0.0
 11
129.0670524820176
 21
124.4821245909805
 31
0.0
 12
130.4944576037376
 22
124.8589445697167
 32
0.0
 13
130.4944576037376
 23
124.8589445697167
 33
0.0
210
0.0
220
0.0
230
1.0
  0
SOLID
  5
12EE
  8
AD4324
  6
CONTINUOUS
 62
     8
 10
125.5891427252737
 20
124.8792654142611
 30
0.0
 11
125.5862886740739
 21
123.730452725237
 31
0.0
 12
127.31515872898581
 22
122.2046769537167
 32
0.0
 13
127.31515872898581
 23
122.2046769537167
 33
0.0
210
0.0
220
0.0
230
1.0
  0
SOLID
  5
12EF
  8
AD4324
  6
CONTINUOUS
 62
     8
 10
127.31515872898581
 20
124.8821194654609
 30
0.0
 11
124.80884512719339
 21
124.8792654142611
 31
0.0
 12
125.5891427252737
 22
124.8792654142611
 32
0.0
 13
125.5891427252737
 23
124.8792654142611
 33
0.0
210
0.0
220
0.0
230
1.0
  0
SOLID
  5
12F0
  8
AD4324
  6
CONTINUOUS
 62
     8
 10
127.31515872898581
 20
124.8821194654609
 30
0.0
 11
125.5891427252737
 21
124.8792654142611
 31
0.0
 12
127.31515872898581
 22
122.2046769537167
 32
0.0
 13
127.31515872898581
 23
122.2046769537167
 33
0.0
210
0.0
220
0.0
230
1.0
  0
SOLID
  5
12F1
  8
AD4324
  6
CONTINUOUS
 62
     8
 10
130.36682443407369
 20
125.0184289507724
 30
0.0
 11
127.31515872898581
 21
124.8821194654609
 31
0.0
 12
128.71351917229839
 22
124.8785272941619
 32
0.0
 13
128.71351917229839
 23
124.8785272941619
 33
0.0
210
0.0
220
0.0
230
1.0
  0
SOLID
  5
12F2
  8
AD4324
  6
CONTINUOUS
 62
     8
 10
130.36682443407369
 20
125.0184289507724
 30
0.0
 11
128.71351917229839
 21
124.8785272941619
 31
0.0
 12
130.4944576037376
 22
124.8589445697167
 32
0.0
 13
130.4944576037376
 23
124.8589445697167
 33
0.0
210
0.0
220
0.0
230
1.0
  0
SOLID
  5
12F3
  8
AD4324
  6
CONTINUOUS
 62
     8
 10
130.22469268431379
 20
125.1663829649808
 30
0.0
 11
127.31515872898581
 21
124.8821194654609
 31
0.0
 12
130.36682443407369
 22
125.0184289507724
 32
0.0
 13
130.36682443407369
 23
125.0184289507724
 33
0.0
210
0.0
220
0.0
230
1.0
  0
SOLID
  5
12F4
  8
AD4324
  6
CONTINUOUS
 62
     8
 10
130.22469268431379
 20
125.1663829649808
 30
0.0
 11
124.80884512719339
 21
124.8792654142611
 31
0.0
 12
127.31515872898581
 22
124.8821194654609
 32
0.0
 13
127.31515872898581
 23
124.8821194654609
 33
0.0
210
0.0
220
0.0
230
1.0
  0
SOLID
  5
12F5
  8
AD4324
  6
CONTINUOUS
 62
     8
 10
130.0622400900094
 20
125.2969843478926
 30
0.0
 11
124.80884512719339
 21
124.8792654142611
 31
0.0
 12
130.22469268431379
 22
125.1663829649808
 32
0.0
 13
130.22469268431379
 23
125.1663829649808
 33
0.0
210
0.0
220
0.0
230
1.0
  0
SOLID
  5
12F6
  8
AD4324
  6
CONTINUOUS
 62
     8
 10
129.88528891560989
 20
125.4158270398611
 30
0.0
 11
124.80884512719339
 21
124.8792654142611
 31
0.0
 12
130.0622400900094
 22
125.2969843478926
 32
0.0
 13
130.0622400900094
 23
125.2969843478926
 33
0.0
210
0.0
220
0.0
230
1.0
  0
SOLID
  5
12F7
  8
AD4324
  6
CONTINUOUS
 62
     8
 10
129.69098510991381
 20
125.514463049333
 30
0.0
 11
124.80884512719339
 21
124.8792654142611
 31
0.0
 12
129.88528891560989
 22
125.4158270398611
 32
0.0
 13
129.88528891560989
 23
125.4158270398611
 33
0.0
210
0.0
220
0.0
230
1.0
  0
SOLID
  5
12F8
  8
AD4324
  6
CONTINUOUS
 62
     8
 10
129.47921451087379
 20
125.5957464275083
 30
0.0
 11
124.80884512719339
 21
124.8792654142611
 31
0.0
 12
129.69098510991381
 22
125.514463049333
 32
0.0
 13
129.69098510991381
 23
125.514463049333
 33
0.0
210
0.0
220
0.0
230
1.0
  0
SOLID
  5
12F9
  8
AD4324
  6
CONTINUOUS
 62
     8
 10
129.2529453317371
 20
125.6565947990929
 30
0.0
 11
124.80884512719339
 21
124.8792654142611
 31
0.0
 12
129.47921451087379
 22
125.5957464275083
 32
0.0
 13
129.47921451087379
 23
125.5957464275083
 33
0.0
210
0.0
220
0.0
230
1.0
  0
SOLID
  5
12FA
  8
AD4324
  6
CONTINUOUS
 62
     8
 10
129.00635530805749
 20
125.6943824369812
 30
0.0
 11
124.80884512719339
 21
124.8792654142611
 31
0.0
 12
129.2529453317371
 22
125.6565947990929
 32
0.0
 13
129.2529453317371
 23
125.6565947990929
 33
0.0
210
0.0
220
0.0
230
1.0
  0
SOLID
  5
12FB
  8
AD4324
  6
CONTINUOUS
 62
     8
 10
118.6300526032902
 20
124.8734431498127
 30
0.0
 11
123.309212464666
 21
125.70305875262871
 31
0.0
 12
118.6300526032902
 22
125.70305875262871
 32
0.0
 13
118.6300526032902
 23
125.70305875262871
 33
0.0
210
0.0
220
0.0
230
1.0
  0
SOLID
  5
12FC
  8
AD4324
  6
CONTINUOUS
 62
     8
 10
123.309212464666
 20
125.70305875262871
 30
0.0
 11
118.6300526032902
 21
124.8734431498127
 31
0.0
 12
119.0565620146178
 22
124.8734431498127
 32
0.0
 13
119.0565620146178
 23
124.8734431498127
 33
0.0
210
0.0
220
0.0
230
1.0
  0
SOLID
  5
12FD
  8
AD4324
  6
CONTINUOUS
 62
     8
 10
123.309212464666
 20
125.70305875262871
 30
0.0
 11
119.0565620146178
 21
124.8734431498127
 31
0.0
 12
120.6664752155134
 22
124.65870433752499
 32
0.0
 13
120.6664752155134
 23
124.65870433752499
 33
0.0
210
0.0
220
0.0
230
1.0
  0
SOLID
  5
12FE
  8
AD4324
  6
CONTINUOUS
 62
     8
 10
123.309212464666
 20
125.70305875262871
 30
0.0
 11
120.6664752155134
 21
124.65870433752499
 31
0.0
 12
122.3954594324732
 22
124.65870433752499
 32
0.0
 13
122.3954594324732
 23
124.65870433752499
 33
0.0
  0
SOLID
  5
12FF
  8
AD4324
  6
CONTINUOUS
 62
     8
 10
123.309212464666
 20
125.70305875262871
 30
0.0
 11
122.3954594324732
 21
124.65870433752499
 31
0.0
 12
125.5862886740739
 22
123.730452725237
 32
0.0
 13
125.5862886740739
 23
123.730452725237
 33
0.0
210
0.0
220
0.0
230
1.0
  0
SOLID
  5
1300
  8
AD4324
  6
CONTINUOUS
 62
     8
 10
124.80884512719339
 20
125.70591280382941
 30
0.0
 11
124.80884512719339
 21
124.8792654142611
 31
0.0
 12
129.00635530805749
 22
125.6943824369812
 32
0.0
 13
129.00635530805749
 23
125.6943824369812
 33
0.0
210
0.0
220
0.0
230
1.0
  0
SOLID
  5
1301
  8
AD4324
  6
CONTINUOUS
 62
     8
 10
128.74823491753
 20
125.7088810170771
 30
0.0
 11
124.80884512719339
 21
125.70591280382941
 31
0.0
 12
129.00635530805749
 22
125.6943824369812
 32
0.0
 13
129.00635530805749
 23
125.6943824369812
 33
0.0
  0
ENDBLK
  5
1303
  8
0
 62
     7
  0
ENDSEC
  0
SECTION
  2
ENTITIES
  0
POLYLINE
  5
24
  8
AD4324
 62
     8
 66
     1
 10
0.0
 20
0.0
 30
0.0
 70
     1
  0
VERTEX
  5
11B2
  8
AD4324
 62
     8
 10
286.12615128962602
 20
164.61638503525199
 30
0.0
  0
VERTEX
  5
11B3
  8
AD4324
 62
     8
 10
286.12615128962602
 20
152.61638503525199
 30
0.0
 42
0.4142135623730951
  0
VERTEX
  5
11B4
  8
AD4324
 62
     8
 10
287.12615128962602
 20
151.61638503525199
 30
0.0
  0
VERTEX
  5
11B5
  8
AD4324
 62
     8
 10
309.12615128962602
 20
151.61638503525199
 30
0.0
 42
0.4142135623730951
  0
VERTEX
  5
11B6
  8
AD4324
 62
     8
 10
310.12615128962602
 20
152.61638503525199
 30
0.0
  0
VERTEX
  5
11B7
  8
AD4324
 62
     8
 10
310.12615128962602
 20
164.61638503525199
 30
0.0
 42
0.4142135623730977
  0
VERTEX
  5
11B8
  8
AD4324
 62
     8
 10
309.12615128962602
 20
165.61638503525199
 30
0.0
  0
VERTEX
  5
11B9
  8
AD4324
 62
     8
 10
287.12615128962602
 20
165.61638503525199
 30
0.0
 42
0.4142135623730951
  0
SEQEND
  5
11BA
  8
AD4324
 62
     8
  0
POLYLINE
  5
2E
  8
AD4324
 62
     8
 66
     1
 10
0.0
 20
0.0
 30
0.0
 70
     1
  0
VERTEX
  5
11BB
  8
AD4324
 62
     8
 10
221.6261512896258
 20
164.8163850352523
 30
0.0
  0
VERTEX
  5
11BC
  8
AD4324
 62
     8
 10
221.6261512896258
 20
152.4163850352522
 30
0.0
 42
0.4142135623730951
  0
VERTEX
  5
11BD
  8
AD4324
 62
     8
 10
222.42615128962569
 20
151.61638503525199
 30
0.0
  0
VERTEX
  5
11BE
  8
AD4324
 62
     8
 10
238.82615128962601
 20
151.61638503525199
 30
0.0
 42
0.4142135623730951
  0
VERTEX
  5
11BF
  8
AD4324
 62
     8
 10
239.62615128962599
 20
152.4163850352522
 30
0.0
  0
VERTEX
  5
11C0
  8
AD4324
 62
     8
 10
239.62615128962599
 20
164.8163850352523
 30
0.0
 42
0.4142135623730951
  0
VERTEX
  5
11C1
  8
AD4324
 62
     8
 10
238.82615128962601
 20
165.61638503525199
 30
0.0
  0
VERTEX
  5
11C2
  8
AD4324
 62
     8
 10
222.42615128962569
 20
165.61638503525199
 30
0.0
 42
0.4142135623730951
  0
SEQEND
  5
11C3
  8
AD4324
 62
     8
  0
POLYLINE
  5
38
  8
AD4324
 62
     8
 66
     1
 10
0.0
 20
0.0
 30
0.0
 70
     1
  0
VERTEX
  5
11C4
  8
AD4324
 62
     8
 10
200.6261512896258
 20
164.8163850352523
 30
0.0
  0
VERTEX
  5
11C5
  8
AD4324
 62
     8
 10
200.6261512896258
 20
152.4163850352522
 30
0.0
 42
0.4142135623730951
  0
VERTEX
  5
11C6
  8
AD4324
 62
     8
 10
201.42615128962569
 20
151.61638503525199
 30
0.0
  0
VERTEX
  5
11C7
  8
AD4324
 62
     8
 10
217.82615128962601
 20
151.61638503525199
 30
0.0
 42
0.4142135623730951
  0
VERTEX
  5
11C8
  8
AD4324
 62
     8
 10
218.62615128962599
 20
152.4163850352522
 30
0.0
  0
VERTEX
  5
11C9
  8
AD4324
 62
     8
 10
218.62615128962599
 20
164.8163850352523
 30
0.0
 42
0.4142135623730951
  0
VERTEX
  5
11CA
  8
AD4324
 62
     8
 10
217.82615128962601
 20
165.61638503525199
 30
0.0
  0
VERTEX
  5
11CB
  8
AD4324
 62
     8
 10
201.42615128962569
 20
165.61638503525199
 30
0.0
 42
0.4142135623730951
  0
SEQEND
  5
11CC
  8
AD4324
 62
     8
  0
POLYLINE
  5
42
  8
AD4324
 62
     8
 66
     1
 10
0.0
 20
0.0
 30
0.0
 70
     1
  0
VERTEX
  5
11CD
  8
AD4324
 62
     8
 10
179.6261512896258
 20
164.8163850352523
 30
0.0
  0
VERTEX
  5
11CE
  8
AD4324
 62
     8
 10
179.6261512896258
 20
152.4163850352522
 30
0.0
 42
0.4142135623730951
  0
VERTEX
  5
11CF
  8
AD4324
 62
     8
 10
180.42615128962569
 20
151.61638503525199
 30
0.0
  0
VERTEX
  5
11D0
  8
AD4324
 62
     8
 10
196.82615128962601
 20
151.61638503525199
 30
0.0
 42
0.4142135623730951
  0
VERTEX
  5
11D1
  8
AD4324
 62
     8
 10
197.62615128962599
 20
152.4163850352522
 30
0.0
  0
VERTEX
  5
11D2
  8
AD4324
 62
     8
 10
197.62615128962599
 20
164.8163850352523
 30
0.0
 42
0.4142135623730951
  0
VERTEX
  5
11D3
  8
AD4324
 62
     8
 10
196.82615128962601
 20
165.61638503525199
 30
0.0
  0
VERTEX
  5
11D4
  8
AD4324
 62
     8
 10
180.42615128962569
 20
165.61638503525199
 30
0.0
 42
0.4142135623730951
  0
SEQEND
  5
11D5
  8
AD4324
 62
     8
  0
POLYLINE
  5
4C
  8
AD4324
 62
     8
 66
     1
 10
0.0
 20
0.0
 30
0.0
 70
     1
  0
VERTEX
  5
11D6
  8
AD4324
 62
     8
 10
158.6261512896258
 20
164.8163850352523
 30
0.0
  0
VERTEX
  5
11D7
  8
AD4324
 62
     8
 10
158.6261512896258
 20
152.4163850352522
 30
0.0
 42
0.4142135623730951
  0
VERTEX
  5
11D8
  8
AD4324
 62
     8
 10
159.42615128962569
 20
151.61638503525199
 30
0.0
  0
VERTEX
  5
11D9
  8
AD4324
 62
     8
 10
175.82615128962601
 20
151.61638503525199
 30
0.0
 42
0.4142135623730951
  0
VERTEX
  5
11DA
  8
AD4324
 62
     8
 10
176.62615128962599
 20
152.4163850352522
 30
0.0
  0
VERTEX
  5
11DB
  8
AD4324
 62
     8
 10
176.62615128962571
 20
164.8163850352523
 30
0.0
 42
0.4142135623730951
  0
VERTEX
  5
11DC
  8
AD4324
 62
     8
 10
175.82615128962581
 20
165.61638503525199
 30
0.0
  0
VERTEX
  5
11DD
  8
AD4324
 62
     8
 10
159.42615128962569
 20
165.61638503525199
 30
0.0
 42
0.4142135623730951
  0
SEQEND
  5
11DE
  8
AD4324
 62
     8
  0
POLYLINE
  5
60
  8
AD4324
 62
     8
 66
     1
 10
0.0
 20
0.0
 30
0.0
 70
     1
  0
VERTEX
  5
11DF
  8
AD4324
 62
     8
 10
116.6261512896255
 20
164.8163850352523
 30
0.0
  0
VERTEX
  5
11E0
  8
AD4324
 62
     8
 10
116.6261512896257
 20
152.4163850352522
 30
0.0
 42
0.4142135623730951
  0
VERTEX
  5
11E1
  8
AD4324
 62
     8
 10
117.42615128962569
 20
151.61638503525199
 30
0.0
  0
VERTEX
  5
11E2
  8
AD4324
 62
     8
 10
133.82615128962601
 20
151.61638503525199
 30
0.0
 42
0.4142135623730951
  0
VERTEX
  5
11E3
  8
AD4324
 62
     8
 10
134.62615128962599
 20
152.4163850352522
 30
0.0
  0
VERTEX
  5
11E4
  8
AD4324
 62
     8
 10
134.6261512896258
 20
164.8163850352523
 30
0.0
 42
0.4142135623730951
  0
VERTEX
  5
11E5
  8
AD4324
 62
     8
 10
133.82615128962581
 20
165.61638503525199
 30
0.0
  0
VERTEX
  5
11E6
  8
AD4324
 62
     8
 10
117.42615128962549
 20
165.61638503525199
 30
0.0
 42
0.4142135623730951
  0
SEQEND
  5
11E7
  8
AD4324
 62
     8
  0
LINE
  5
6A
  8
AD4324
 10
108.6261512896258
 20
245.61638503525199
 30
0.0
 11
108.6261512896258
 21
118.61638503525251
 31
0.0
  0
LINE
  5
6B
  8
AD4324
 10
326.62615128962568
 20
118.61638503525251
 30
0.0
 11
326.62615128962568
 21
245.61638503525239
 31
0.0
  0
LINE
  5
6C
  8
AD4324
 62
     8
 10
324.62615128962551
 20
143.61638503525199
 30
0.0
 11
324.62615128962551
 21
245.61638503525199
 31
0.0
  0
LINE
  5
6D
  8
AD4324
 62
     8
 10
110.6261512896258
 20
245.61638503525199
 30
0.0
 11
110.62615128962599
 21
143.61638503525199
 31
0.0
  0
POLYLINE
  5
6E
  8
AD4324
 62
     8
 66
     1
 10
0.0
 20
0.0
 30
0.0
 70
     1
  0
VERTEX
  5
11E8
  8
AD4324
 62
     8
 10
222.62615128962571
 20
133.61638503525199
 30
0.0
  0
VERTEX
  5
11E9
  8
AD4324
 62
     8
 10
222.62615128962571
 20
120.61638503525199
 30
0.0
 42
0.4142135623730951
  0
VERTEX
  5
11EA
  8
AD4324
 62
     8
 10
224.62615128962571
 20
118.61638503525199
 30
0.0
  0
VERTEX
  5
11EB
  8
AD4324
 62
     8
 10
318.62615128962551
 20
118.61638503525199
 30
0.0
 42
0.4142135623730951
  0
VERTEX
  5
11EC
  8
AD4324
 62
     8
 10
320.62615128962551
 20
120.61638503525199
 30
0.0
  0
VERTEX
  5
11ED
  8
AD4324
 62
     8
 10
320.62615128962551
 20
133.61638503525199
 30
0.0
 42
0.4142135623730951
  0
VERTEX
  5
11EE
  8
AD4324
 62
     8
 10
318.62615128962551
 20
135.61638503525199
 30
0.0
  0
VERTEX
  5
11EF
  8
AD4324
 62
     8
 10
224.62615128962571
 20
135.61638503525199
 30
0.0
 42
0.4142135623730951
  0
SEQEND
  5
11F0
  8
AD4324
 62
     8
  0
LINE
  5
78
  8
AD4324
 62
     8
 10
112.62615128962599
 20
141.61638503525199
 30
0.0
 11
322.62615128962551
 21
141.61638503525199
 31
0.0
  0
LINE
  5
79
  8
AD4324
 10
112.62615128962599
 20
114.61638503525251
 30
0.0
 11
322.62615128962568
 21
114.61638503525251
 31
0.0
  0
LINE
  5
7A
  8
AD4324
 62
     8
 10
112.6261512896258
 20
139.61638503525199
 30
0.0
 11
322.62615128962568
 21
139.61638503525199
 31
0.0
  0
ARC
  5
85
  8
AD4324
 62
     8
 10
112.62615128962599
 20
143.61638503525199
 30
0.0
 40
2.0
 50
180.0
 51
270.0
  0
ARC
  5
86
  8
AD4324
 62
     8
 10
112.6261512896258
 20
143.61638503525199
 30
0.0
 40
4.0
 50
180.0
 51
270.0
  0
ARC
  5
87
  8
AD4324
 10
112.62615128962599
 20
118.61638503525251
 30
0.0
 40
4.0
 50
180.0
 51
270.0
  0
LINE
  5
88
  8
CENTER
  6
CENTER
 62
     9
 10
173.1261512896258
 20
118.0569081262242
 30
0.0
 11
173.1261512896258
 21
110.47091950764791
 31
0.0
  0
LINE
  5
89
  8
CENTER
  6
CENTER
 62
     9
 10
262.12615128962568
 20
118.0569081262242
 30
0.0
 11
262.12615128962568
 21
110.47091950764791
 31
0.0
  0
CIRCLE
  5
8A
  8
AD4324
 62
     8
 10
239.62615128962599
 20
127.11638503525199
 30
0.0
 40
2.5
  0
ARC
  5
8D
  8
AD4324
 62
     8
 10
322.62615128962551
 20
143.61638503525199
 30
0.0
 40
2.0
 50
270.0
 51
0.0000000000000636
  0
ARC
  5
8E
  8
AD4324
 62
     8
 10
322.62615128962568
 20
143.61638503525199
 30
0.0
 40
4.0
 50
270.0
 51
0.0
  0
ARC
  5
8F
  8
AD4324
 10
322.62615128962568
 20
118.61638503525251
 30
0.0
 40
4.0
 50
270.0
 51
0.0
  0
POLYLINE
  5
90
  8
AD4324
 62
     8
 66
     1
 10
0.0
 20
0.0
 30
0.0
 70
     1
  0
VERTEX
  5
11F1
  8
AD4324
 62
     8
 10
296.12615128962602
 20
182.61638503525199
 30
0.0
  0
VERTEX
  5
11F2
  8
AD4324
 62
     8
 10
296.12615128962602
 20
172.61638503525199
 30
0.0
 42
0.4142135623730951
  0
VERTEX
  5
11F3
  8
AD4324
 62
     8
 10
297.12615128962602
 20
171.61638503525199
 30
0.0
  0
VERTEX
  5
11F4
  8
AD4324
 62
     8
 10
309.12615128962551
 20
171.61638503525199
 30
0.0
 42
0.4142135623730951
  0
VERTEX
  5
11F5
  8
AD4324
 62
     8
 10
310.12615128962551
 20
172.61638503525199
 30
0.0
  0
VERTEX
  5
11F6
  8
AD4324
 62
     8
 10
310.12615128962551
 20
182.61638503525199
 30
0.0
 42
0.4142135623730951
  0
VERTEX
  5
11F7
  8
AD4324
 62
     8
 10
309.12615128962551
 20
183.61638503525199
 30
0.0
  0
VERTEX
  5
11F8
  8
AD4324
 62
     8
 10
297.12615128962602
 20
183.61638503525199
 30
0.0
 42
0.4142135623730951
  0
SEQEND
  5
11F9
  8
AD4324
 62
     8
  0
POLYLINE
  5
9A
  8
AD4324
 62
     8
 66
     1
 10
0.0
 20
0.0
 30
0.0
 70
     1
  0
VERTEX
  5
11FA
  8
AD4324
 62
     8
 10
245.12615128962599
 20
214.11638503525199
 30
0.0
  0
VERTEX
  5
11FB
  8
AD4324
 62
     8
 10
245.12615128962599
 20
203.11638503525199
 30
0.0
 42
0.4142135623730951
  0
VERTEX
  5
11FC
  8
AD4324
 62
     8
 10
247.12615128962599
 20
201.11638503525199
 30
0.0
  0
VERTEX
  5
11FD
  8
AD4324
 62
     8
 10
308.12615128962602
 20
201.11638503525199
 30
0.0
 42
0.4142135623730951
  0
VERTEX
  5
11FE
  8
AD4324
 62
     8
 10
310.12615128962602
 20
203.11638503525199
 30
0.0
  0
VERTEX
  5
11FF
  8
AD4324
 62
     8
 10
310.12615128962602
 20
214.11638503525199
 30
0.0
 42
0.4142135623730951
  0
VERTEX
  5
1200
  8
AD4324
 62
     8
 10
308.12615128962602
 20
216.11638503525199
 30
0.0
  0
VERTEX
  5
1201
  8
AD4324
 62
     8
 10
247.12615128962599
 20
216.11638503525199
 30
0.0
 42
0.4142135623730951
  0
SEQEND
  5
1202
  8
AD4324
 62
     8
  0
POLYLINE
  5
A4
  8
AD4324
 62
     8
 66
     1
 10
0.0
 20
0.0
 30
0.0
 70
     1
  0
VERTEX
  5
1203
  8
AD4324
 62
     8
 10
310.12615128962602
 20
222.11638503525199
 30
0.0
  0
VERTEX
  5
1204
  8
AD4324
 62
     8
 10
310.12615128962602
 20
233.11638503525199
 30
0.0
 42
0.4142135623730951
  0
VERTEX
  5
1205
  8
AD4324
 62
     8
 10
308.12615128962602
 20
235.11638503525199
 30
0.0
  0
VERTEX
  5
1206
  8
AD4324
 62
     8
 10
247.12615128962599
 20
235.11638503525199
 30
0.0
 42
0.4142135623730951
  0
VERTEX
  5
1207
  8
AD4324
 62
     8
 10
245.12615128962599
 20
233.11638503525199
 30
0.0
  0
VERTEX
  5
1208
  8
AD4324
 62
     8
 10
245.12615128962599
 20
222.11638503525199
 30
0.0
 42
0.4142135623730951
  0
VERTEX
  5
1209
  8
AD4324
 62
     8
 10
247.12615128962599
 20
220.11638503525199
 30
0.0
  0
VERTEX
  5
120A
  8
AD4324
 62
     8
 10
308.12615128962602
 20
220.11638503525199
 30
0.0
 42
0.4142135623730951
  0
SEQEND
  5
120B
  8
AD4324
 62
     8
  0
LINE
  5
AE
  8
AD4324
 62
     8
 10
317.62615128962602
 20
244.61638503525199
 30
0.0
 11
117.62615128962599
 21
244.61638503525251
 31
0.0
  0
LINE
  5
AF
  8
AD4324
 62
     8
 10
247.28300553911819
 20
189.61638503525199
 30
0.0
 11
317.6261512896258
 21
189.61638503525199
 31
0.0
  0
LINE
  5
B0
  8
AD4324
 10
322.62615128962568
 20
249.61638503525239
 30
0.0
 11
112.6261512896258
 21
249.61638503525199
 31
0.0
  0
LINE
  5
B1
  8
AD4324
 62
     8
 10
322.62615128962551
 20
247.61638503525199
 30
0.0
 11
112.6261512896258
 21
247.61638503525199
 31
0.0
  0
POLYLINE
  5
BC
  8
AD4324
 62
     8
 66
     1
 10
0.0
 20
0.0
 30
0.0
 70
     1
  0
VERTEX
  5
120C
  8
AD4324
 62
     8
 10
125.62615128962599
 20
221.61638503525199
 30
0.0
  0
VERTEX
  5
120D
  8
AD4324
 62
     8
 10
125.6261512896257
 20
219.61638503525199
 30
0.0
 42
0.4142135623730951
  0
VERTEX
  5
120E
  8
AD4324
 62
     8
 10
126.6261512896257
 20
218.61638503525199
 30
0.0
  0
VERTEX
  5
120F
  8
AD4324
 62
     8
 10
208.62615128962599
 20
218.61638503525199
 30
0.0
 42
0.4142135623730951
  0
VERTEX
  5
1210
  8
AD4324
 62
     8
 10
209.62615128962599
 20
219.61638503525199
 30
0.0
  0
VERTEX
  5
1211
  8
AD4324
 62
     8
 10
209.62615128962599
 20
221.61638503525199
 30
0.0
 42
0.4142135623730951
  0
VERTEX
  5
1212
  8
AD4324
 62
     8
 10
208.62615128962599
 20
222.61638503525199
 30
0.0
  0
VERTEX
  5
1213
  8
AD4324
 62
     8
 10
126.62615128962599
 20
222.61638503525199
 30
0.0
 42
0.4142135623730951
  0
SEQEND
  5
1214
  8
AD4324
 62
     8
  0
ARC
  5
C6
  8
AD4324
 62
     8
 10
140.12615128962571
 20
229.61638503525199
 30
0.0
 40
1.0
 50
270.0
 51
359.99999999999869
  0
ARC
  5
C7
  8
AD4324
 62
     8
 10
140.12615128962599
 20
233.61638503525199
 30
0.0
 40
1.0
 50
0.0
 51
90.0
  0
LINE
  5
C8
  8
AD4324
 62
     8
 10
117.62615128962599
 20
170.61638503525199
 30
0.0
 11
224.9692970401334
 21
170.61638503525199
 31
0.0
  0
LINE
  5
C9
  8
AD4324
 62
     8
 10
113.62615128962599
 20
240.61638503525251
 30
0.0
 11
113.62615128962599
 21
174.61638503525199
 31
0.0
  0
ARC
  5
CA
  8
AD4324
 62
     8
 10
117.62615128962599
 20
174.61638503525199
 30
0.0
 40
4.0
 50
180.0
 51
270.0
  0
ARC
  5
CB
  8
AD4324
 62
     8
 10
127.1261512896257
 20
229.61638503525199
 30
0.0
 40
1.0
 50
179.99999999999861
 51
270.0
  0
ARC
  5
CC
  8
AD4324
 62
     8
 10
127.12615128962599
 20
233.61638503525199
 30
0.0
 40
1.0
 50
90.0
 51
180.0
  0
ARC
  5
CD
  8
AD4324
 62
     8
 10
117.62615128962599
 20
240.61638503525251
 30
0.0
 40
4.0
 50
90.0
 51
180.0
  0
LINE
  5
CE
  8
AD4324
 62
     8
 10
140.12615128962599
 20
234.61638503525199
 30
0.0
 11
127.12615128962599
 21
234.61638503525199
 31
0.0
  0
LINE
  5
CF
  8
AD4324
 62
     8
 10
127.1261512896257
 20
228.61638503525199
 30
0.0
 11
140.12615128962571
 21
228.61638503525199
 31
0.0
  0
LINE
  5
D0
  8
AD4324
 62
     8
 10
126.12615128962599
 20
233.61638503525199
 30
0.0
 11
126.1261512896257
 21
229.61638503525199
 31
0.0
  0
ARC
  5
D1
  8
AD4324
 10
112.6261512896258
 20
245.61638503525199
 30
0.0
 40
4.0
 50
90.0
 51
180.0
  0
ARC
  5
D2
  8
AD4324
 62
     8
 10
112.6261512896258
 20
245.61638503525199
 30
0.0
 40
2.0
 50
90.0
 51
180.0
  0
POLYLINE
  5
D3
  8
AD4324
 62
     8
 66
     1
 10
0.0
 20
0.0
 30
0.0
 70
     1
  0
VERTEX
  5
1215
  8
AD4324
 62
     8
 10
160.12615128962531
 20
233.61638503525199
 30
0.0
  0
VERTEX
  5
1216
  8
AD4324
 62
     8
 10
160.12615128962551
 20
229.61638503525199
 30
0.0
 42
0.4142135623730951
  0
VERTEX
  5
1217
  8
AD4324
 62
     8
 10
161.12615128962551
 20
228.61638503525199
 30
0.0
  0
VERTEX
  5
1218
  8
AD4324
 62
     8
 10
174.12615128962551
 20
228.61638503525199
 30
0.0
 42
0.4142135623730951
  0
VERTEX
  5
1219
  8
AD4324
 62
     8
 10
175.12615128962551
 20
229.61638503525199
 30
0.0
  0
VERTEX
  5
121A
  8
AD4324
 62
     8
 10
175.12615128962551
 20
233.61638503525199
 30
0.0
 42
0.4142135623730951
  0
VERTEX
  5
121B
  8
AD4324
 62
     8
 10
174.12615128962551
 20
234.61638503525199
 30
0.0
  0
VERTEX
  5
121C
  8
AD4324
 62
     8
 10
161.12615128962531
 20
234.61638503525199
 30
0.0
 42
0.4142135623730951
  0
SEQEND
  5
121D
  8
AD4324
 62
     8
  0
LINE
  5
DD
  8
AD4324
 62
     8
 10
141.1261512896258
 20
229.61638503525199
 30
0.0
 11
141.12615128962599
 21
233.61638503525199
 31
0.0
  0
POLYLINE
  5
DE
  8
AD4324
 62
     8
 66
     1
 10
0.0
 20
0.0
 30
0.0
 70
     1
  0
VERTEX
  5
121E
  8
AD4324
 62
     8
 10
194.12615128962551
 20
233.61638503525199
 30
0.0
  0
VERTEX
  5
121F
  8
AD4324
 62
     8
 10
194.12615128962551
 20
229.61638503525199
 30
0.0
 42
0.4142135623730951
  0
VERTEX
  5
1220
  8
AD4324
 62
     8
 10
195.12615128962551
 20
228.61638503525199
 30
0.0
  0
VERTEX
  5
1221
  8
AD4324
 62
     8
 10
208.12615128962551
 20
228.61638503525199
 30
0.0
 42
0.4142135623730951
  0
VERTEX
  5
1222
  8
AD4324
 62
     8
 10
209.12615128962551
 20
229.61638503525199
 30
0.0
  0
VERTEX
  5
1223
  8
AD4324
 62
     8
 10
209.1261512896258
 20
233.61638503525199
 30
0.0
 42
0.4142135623730951
  0
VERTEX
  5
1224
  8
AD4324
 62
     8
 10
208.12615128962571
 20
234.61638503525199
 30
0.0
  0
VERTEX
  5
1225
  8
AD4324
 62
     8
 10
195.12615128962551
 20
234.61638503525199
 30
0.0
 42
0.4142135623730951
  0
SEQEND
  5
1226
  8
AD4324
 62
     8
  0
POLYLINE
  5
E8
  8
AD4324
 62
     8
 66
     1
 10
0.0
 20
0.0
 30
0.0
 70
     1
  0
VERTEX
  5
1227
  8
AD4324
 62
     8
 10
245.12615128962599
 20
182.61638503525199
 30
0.0
  0
VERTEX
  5
1228
  8
AD4324
 62
     8
 10
245.12615128962599
 20
172.61638503525199
 30
0.0
 42
0.4142135623730951
  0
VERTEX
  5
1229
  8
AD4324
 62
     8
 10
246.12615128962599
 20
171.61638503525199
 30
0.0
  0
VERTEX
  5
122A
  8
AD4324
 62
     8
 10
258.12615128962551
 20
171.61638503525199
 30
0.0
 42
0.4142135623730951
  0
VERTEX
  5
122B
  8
AD4324
 62
     8
 10
259.12615128962551
 20
172.61638503525199
 30
0.0
  0
VERTEX
  5
122C
  8
AD4324
 62
     8
 10
259.12615128962551
 20
182.61638503525199
 30
0.0
 42
0.4142135623730951
  0
VERTEX
  5
122D
  8
AD4324
 62
     8
 10
258.12615128962551
 20
183.61638503525199
 30
0.0
  0
VERTEX
  5
122E
  8
AD4324
 62
     8
 10
246.12615128962599
 20
183.61638503525199
 30
0.0
 42
0.4142135623730951
  0
SEQEND
  5
122F
  8
AD4324
 62
     8
  0
POLYLINE
  5
F5
  8
AD4324
 62
     8
 66
     1
 10
0.0
 20
0.0
 30
0.0
 70
     1
  0
VERTEX
  5
1230
  8
AD4324
 62
     8
 10
279.12615128962602
 20
182.61638503525199
 30
0.0
  0
VERTEX
  5
1231
  8
AD4324
 62
     8
 10
279.12615128962602
 20
172.61638503525199
 30
0.0
 42
0.4142135623730951
  0
VERTEX
  5
1232
  8
AD4324
 62
     8
 10
280.12615128962602
 20
171.61638503525199
 30
0.0
  0
VERTEX
  5
1233
  8
AD4324
 62
     8
 10
292.12615128962551
 20
171.61638503525199
 30
0.0
 42
0.4142135623730951
  0
VERTEX
  5
1234
  8
AD4324
 62
     8
 10
293.12615128962551
 20
172.61638503525199
 30
0.0
  0
VERTEX
  5
1235
  8
AD4324
 62
     8
 10
293.12615128962551
 20
182.61638503525199
 30
0.0
 42
0.4142135623730951
  0
VERTEX
  5
1236
  8
AD4324
 62
     8
 10
292.12615128962551
 20
183.61638503525199
 30
0.0
  0
VERTEX
  5
1237
  8
AD4324
 62
     8
 10
280.12615128962602
 20
183.61638503525199
 30
0.0
 42
0.4142135623730951
  0
SEQEND
  5
1238
  8
AD4324
 62
     8
  0
POLYLINE
  5
FF
  8
AD4324
 62
     8
 66
     1
 10
0.0
 20
0.0
 30
0.0
 70
     1
  0
VERTEX
  5
1239
  8
AD4324
 62
     8
 10
262.12615128962602
 20
182.61638503525199
 30
0.0
  0
VERTEX
  5
123A
  8
AD4324
 62
     8
 10
262.12615128962602
 20
172.61638503525199
 30
0.0
 42
0.4142135623730951
  0
VERTEX
  5
123B
  8
AD4324
 62
     8
 10
263.12615128962602
 20
171.61638503525199
 30
0.0
  0
VERTEX
  5
123C
  8
AD4324
 62
     8
 10
275.12615128962551
 20
171.61638503525199
 30
0.0
 42
0.4142135623730951
  0
VERTEX
  5
123D
  8
AD4324
 62
     8
 10
276.12615128962551
 20
172.61638503525199
 30
0.0
  0
VERTEX
  5
123E
  8
AD4324
 62
     8
 10
276.12615128962551
 20
182.61638503525199
 30
0.0
 42
0.4142135623730951
  0
VERTEX
  5
123F
  8
AD4324
 62
     8
 10
275.12615128962551
 20
183.61638503525199
 30
0.0
  0
VERTEX
  5
1240
  8
AD4324
 62
     8
 10
263.12615128962602
 20
183.61638503525199
 30
0.0
 42
0.4142135623730951
  0
SEQEND
  5
1241
  8
AD4324
 62
     8
  0
LINE
  5
109
  8
AD4324
 62
     8
 10
321.6261512896258
 20
193.61638503525199
 30
0.0
 11
321.62615128962602
 21
240.61638503525199
 31
0.0
  0
ARC
  5
10A
  8
AD4324
 62
     8
 10
317.6261512896258
 20
193.61638503525199
 30
0.0
 40
4.0
 50
270.0
 51
0.0
  0
ARC
  5
10B
  8
AD4324
 62
     8
 10
317.62615128962602
 20
240.61638503525199
 30
0.0
 40
4.0
 50
0.0
 51
89.999999999999915
  0
ARC
  5
10C
  8
AD4324
 10
322.62615128962568
 20
245.61638503525239
 30
0.0
 40
4.0
 50
0.0
 51
90.0
  0
ARC
  5
10D
  8
AD4324
 62
     8
 10
322.62615128962551
 20
245.61638503525199
 30
0.0
 40
2.0
 50
0.0
 51
90.0
  0
LINE
  5
10E
  8
AD4324
 10
730.3206913901131
 20
249.61638503525199
 30
0.0
 11
730.32069139011264
 21
115.11638503525199
 31
0.0
  0
LINE
  5
10F
  8
AD4324
 62
     8
 10
528.3206913901131
 20
114.6163850352529
 30
0.0
 11
528.3206913901131
 21
249.61638503525199
 31
0.0
  0
LINE
  5
110
  8
AD4324
 10
509.32069139011259
 20
248.61638503525199
 30
0.0
 11
509.32069139011259
 21
140.61638503525199
 31
0.0
  0
LINE
  5
111
  8
AD4324
 10
730.32069139011264
 20
115.11638503525199
 30
0.0
 11
528.32069139011264
 21
115.11638503525199
 31
0.0
  0
LINE
  5
112
  8
AD4324
 10
510.32069139011259
 20
139.61638503525199
 30
0.0
 11
512.82069139011264
 21
139.61638503525199
 31
0.0
  0
ARC
  5
113
  8
AD4324
 10
510.32069139011259
 20
140.61638503525199
 30
0.0
 40
1.0
 50
180.0
 51
270.0
  0
ARC
  5
115
  8
AD4324
 10
514.82069139011264
 20
115.61638503525251
 30
0.0
 40
1.0
 50
180.0
 51
270.0
  0
ARC
  5
116
  8
AD4324
 10
512.82069139011264
 20
138.61638503525199
 30
0.0
 40
1.0
 50
0.0
 51
90.0
  0
LINE
  5
117
  8
AD4324
 10
514.82069139011264
 20
114.61638503525251
 30
0.0
 11
528.3206913901131
 21
114.6163850352529
 31
0.0
  0
LINE
  5
118
  8
AD4324
 10
513.82069139011264
 20
138.61638503525199
 30
0.0
 11
513.82069139011264
 21
115.61638503525251
 31
0.0
  0
LINE
  5
119
  8
CENTER
  6
CENTER
 62
     9
 10
574.82069139011253
 20
119.05812957731349
 30
0.0
 11
574.82069139011253
 21
111.5737958638455
 31
0.0
  0
LINE
  5
11A
  8
CENTER
  6
CENTER
 62
     9
 10
663.82069139011264
 20
119.05812957731349
 30
0.0
 11
663.82069139011264
 21
111.5737958638455
 31
0.0
  0
LINE
  5
11B
  8
AD4324
 10
528.32069139011264
 20
249.61638503525199
 30
0.0
 11
730.32069139011264
 21
249.61638503525199
 31
0.0
  0
LINE
  5
11C
  8
AD4324
 10
528.3206913901131
 20
249.61638503525199
 30
0.0
 11
510.32069139011259
 21
249.61638503525199
 31
0.0
  0
ARC
  5
11D
  8
AD4324
 10
510.32069139011259
 20
248.61638503525199
 30
0.0
 40
1.0
 50
90.0
 51
180.0
  0
LINE
  5
135
  8
AD4324
 62
     8
 10
143.08914184333091
 20
188.36967043304691
 30
0.0
 11
147.4554762744396
 21
188.36967043304691
 31
0.0
  0
LINE
  5
136
  8
AD4324
 62
     8
 10
148.29256286450001
 20
189.07206948202989
 30
0.0
 11
149.2354891942266
 21
194.4196704330468
 31
0.0
  0
LINE
  5
137
  8
AD4324
 62
     8
 10
145.08163672533661
 20
201.36967043304679
 30
0.0
 11
149.24244977588751
 21
201.36967043304679
 31
0.0
  0
LINE
  5
138
  8
AD4324
 62
     8
 10
144.24455013527631
 20
200.66727138406381
 30
0.0
 11
144.1920750581275
 21
200.36967043304679
 31
0.0
  0
LINE
  5
139
  8
AD4324
 62
     8
 10
143.26790488222011
 20
189.36967043304691
 30
0.0
 11
147.1990706008298
 21
189.36967043304691
 31
0.0
  0
LINE
  5
13A
  8
AD4324
 62
     8
 10
142.9761512896259
 20
185.86967043304691
 30
0.0
 11
146.9761512896259
 21
185.86967043304691
 31
0.0
  0
LINE
  5
13B
  8
AD4324
 62
     8
 10
142.9761512896259
 20
185.86967043304691
 30
0.0
 11
144.9761512896259
 21
183.86967043304691
 31
0.0
  0
LINE
  5
13C
  8
AD4324
 62
     8
 10
144.9761512896259
 20
183.86967043304691
 30
0.0
 11
146.9761512896259
 21
185.86967043304691
 31
0.0
  0
LINE
  5
13D
  8
AD4324
 62
     8
 10
144.1920750581275
 20
200.36967043304679
 30
0.0
 11
149.0661227951791
 21
200.36967043304691
 31
0.0
  0
LINE
  5
13E
  8
AD4324
 62
     8
 10
144.43058141675709
 20
195.49467043304679
 30
0.0
 11
148.22996046951491
 21
195.49467043304691
 31
0.0
  0
LINE
  5
13F
  8
AD4324
 62
     8
 10
144.3776833225447
 20
194.64467043304691
 30
0.0
 11
148.32410552219761
 21
194.64467043304691
 31
0.0
  0
LINE
  5
140
  8
AD4324
 62
     8
 10
143.26790488222011
 20
189.36967043304691
 30
0.0
 11
143.3208029764327
 21
189.66967043304689
 31
0.0
  0
LINE
  5
141
  8
AD4324
 62
     8
 10
142.30537636454679
 20
189.66967043304689
 30
0.0
 11
142.2520552532705
 21
189.36727138406371
 31
0.0
  0
LINE
  5
142
  8
AD4324
 62
     8
 10
143.3472520235388
 20
189.81967043304689
 30
0.0
 11
144.1810822846553
 21
194.5485568335626
 31
0.0
  0
ARC
  5
143
  8
AD4324
 62
     8
 10
143.08914184333091
 20
189.21967043304679
 30
0.0
 40
0.85
 50
169.99999999999949
 51
270.0
  0
ARC
  5
144
  8
AD4324
 62
     8
 10
147.4554762744396
 20
189.21967043304679
 30
0.0
 40
0.85
 50
270.0
 51
303.24367296940977
  0
LINE
  5
145
  8
AD4324
 62
     8
 10
142.3318254116532
 20
189.81967043304689
 30
0.0
 11
143.3472520235388
 21
189.81967043304689
 31
0.0
  0
LINE
  5
146
  8
AD4324
 62
     8
 10
142.30537636454679
 20
189.66967043304689
 30
0.0
 11
143.3208029764327
 21
189.66967043304689
 31
0.0
  0
LINE
  5
147
  8
AD4324
 62
     8
 10
147.35227948945359
 20
189.4982279549842
 30
0.0
 11
148.0746559086619
 21
188.6373332621875
 31
0.0
  0
LINE
  5
148
  8
AD4324
 62
     8
 10
147.1990706008298
 20
189.36967043304691
 30
0.0
 11
147.9214470200381
 21
188.5087757402502
 31
0.0
  0
LINE
  5
149
  8
AD4324
 62
     8
 10
147.35227948945359
 20
189.4982279549842
 30
0.0
 11
148.1731517689513
 21
194.15362598992789
 31
0.0
  0
ARC
  5
14A
  8
AD4324
 62
     8
 10
147.4554762744396
 20
189.21967043304679
 30
0.0
 40
0.85
 50
316.7563270305892
 51
349.99999999999989
  0
ARC
  5
14B
  8
AD4324
 62
     8
 10
145.08163672533661
 20
200.51967043304691
 30
0.0
 40
0.85
 50
90.0
 51
169.9999999999998
  0
ARC
  5
14C
  8
AD4324
 62
     8
 10
149.44797115644539
 20
200.51967043304691
 30
0.0
 40
0.85
 50
349.99999999999977
 51
90.0
  0
LINE
  5
14D
  8
AD4324
 62
     8
 10
148.93311623421769
 20
195.27360671766809
 30
0.0
 11
149.46471426914761
 21
195.71967043304679
 31
0.0
  0
LINE
  5
14E
  8
AD4324
 62
     8
 10
149.0661227951791
 20
200.36967043304691
 30
0.0
 11
149.24244977588751
 21
201.36967043304679
 31
0.0
  0
LINE
  5
14F
  8
AD4324
 62
     8
 10
149.44553509826449
 20
201.36967043304679
 30
0.0
 11
149.44797115644539
 21
201.36967043304679
 31
0.0
  0
LINE
  5
150
  8
AD4324
 62
     8
 10
148.89254382322059
 20
194.82837681132941
 30
0.0
 11
149.2354891942266
 21
194.4196704330468
 31
0.0
  0
LINE
  5
151
  8
AD4324
 62
     8
 10
148.80455871228031
 20
195.27360671766809
 30
0.0
 11
148.4265615074045
 21
195.5907840325311
 31
0.0
  0
LINE
  5
152
  8
AD4324
 62
     8
 10
148.7393349345968
 20
194.82837681132941
 30
0.0
 11
148.1731517689513
 21
194.15362598992789
 31
0.0
  0
LINE
  5
153
  8
AD4324
 62
     8
 10
149.46471426914761
 20
195.71967043304679
 30
0.0
 11
150.2850577465058
 21
200.37206948203001
 31
0.0
  0
LINE
  5
154
  8
AD4324
 62
     8
 10
148.4265615074045
 20
195.5907840325311
 30
0.0
 11
149.44553509826449
 21
201.36967043304679
 31
0.0
  0
LINE
  5
155
  8
AD4324
 62
     8
 10
148.62714590499189
 20
195.16139228062909
 30
0.0
 11
148.22996046951491
 21
195.49467043304691
 31
0.0
  0
LINE
  5
156
  8
AD4324
 62
     8
 10
148.6394715883352
 20
195.02050907534851
 30
0.0
 11
148.32410552219761
 21
194.64467043304691
 31
0.0
  0
LINE
  5
157
  8
AD4324
 62
     8
 10
143.8559831743905
 20
195.2736067176682
 30
0.0
 11
144.38758120971889
 21
195.71967043304679
 31
0.0
  0
LINE
  5
158
  8
AD4324
 62
     8
 10
143.72742565245309
 20
195.2736067176682
 30
0.0
 11
143.3494284479759
 21
195.5907840325311
 31
0.0
  0
LINE
  5
159
  8
AD4324
 62
     8
 10
143.8154107635211
 20
194.85539167207821
 30
0.0
 11
144.1810822846553
 21
194.5485568335626
 31
0.0
  0
LINE
  5
15A
  8
AD4324
 62
     8
 10
143.6745275582407
 20
194.84306598873499
 30
0.0
 11
143.09601870952261
 21
194.1536259899278
 31
0.0
  0
LINE
  5
15B
  8
AD4324
 62
     8
 10
144.38758120971889
 20
195.71967043304679
 30
0.0
 11
145.17223627387139
 21
200.16967043304689
 31
0.0
  0
LINE
  5
15C
  8
AD4324
 62
     8
 10
143.09601870952261
 20
194.1536259899278
 30
0.0
 11
142.3318254116532
 21
189.81967043304689
 31
0.0
  0
LINE
  5
15D
  8
AD4324
 62
     8
 10
143.98893071451579
 20
195.12408149046789
 30
0.0
 11
144.43058141675709
 21
195.49467043304679
 31
0.0
  0
LINE
  5
15E
  8
AD4324
 62
     8
 10
143.98893071451579
 20
194.97087260184409
 30
0.0
 11
144.3776833225447
 21
194.64467043304691
 31
0.0
  0
LINE
  5
15F
  8
AD4324
 62
     8
 10
144.1568096619857
 20
200.16967043304689
 30
0.0
 11
145.17223627387139
 21
200.16967043304689
 31
0.0
  0
LINE
  5
160
  8
AD4324
 62
     8
 10
144.1568096619857
 20
200.16967043304689
 30
0.0
 11
143.3494284479759
 21
195.5907840325311
 31
0.0
  0
ARC
  5
161
  8
AD4324
 62
     8
 10
143.79170441342171
 20
195.3502111619801
 30
0.0
 40
0.1
 50
229.99999999999949
 51
309.99999999999898
  0
ARC
  5
162
  8
AD4324
 62
     8
 10
143.75113200255259
 20
194.77878722776629
 30
0.0
 40
0.1
 50
49.999999999999581
 51
140.00000000000091
  0
ARC
  5
163
  8
AD4324
 62
     8
 10
144.05320947548441
 20
195.04747704615599
 30
0.0
 40
0.1
 50
130.0000000000002
 51
229.99999999999829
  0
ARC
  5
164
  8
AD4324
 62
     8
 10
148.5628671440233
 20
195.08478783631719
 30
0.0
 40
0.1
 50
320.00000000000182
 51
49.999999999997122
  0
ARC
  5
165
  8
AD4324
 62
     8
 10
148.8688374732489
 20
195.35021116198001
 30
0.0
 40
0.1
 50
229.99999999999741
 51
309.9999999999996
  0
ARC
  5
166
  8
AD4324
 62
     8
 10
148.81593937890869
 20
194.76409805036079
 30
0.0
 40
0.1
 50
39.999999999999233
 51
140.00000000000111
  0
CIRCLE
  5
167
  8
AD4324
 62
     8
 10
149.67615128962589
 20
189.36967043304691
 30
0.0
 40
0.7
  0
ARC
  5
168
  8
AD4324
 62
     8
 10
149.67615128962589
 20
189.36967043304691
 30
0.0
 40
1.0
 50
225.5729959991954
 51
313.35061213530719
  0
ARC
  5
169
  8
AD4324
 62
     8
 10
142.78145921245979
 20
192.36967043304691
 30
0.0
 40
8.4478194048393505
 50
317.16282624695913
 51
333.81961418243588
  0
ARC
  5
16A
  8
AD4324
 62
     8
 10
144.41705050352689
 20
187.6406901183104
 30
0.0
 40
4.6706846470453618
 50
347.450787341465
 51
12.549212658535669
  0
LINE
  5
16B
  8
AD4324
 62
     8
 10
159.02656150740449
 20
195.5907840325311
 30
0.0
 11
160.04553509826471
 21
201.36967043304679
 31
0.0
  0
LINE
  5
16C
  8
AD4324
 62
     8
 10
154.9875812097188
 20
195.71967043304679
 30
0.0
 11
155.77223627387161
 21
200.16967043304689
 31
0.0
  0
LINE
  5
16D
  8
AD4324
 62
     8
 10
154.7568096619859
 20
200.16967043304689
 30
0.0
 11
153.94942844797581
 21
195.5907840325311
 31
0.0
  0
LINE
  5
16E
  8
AD4324
 62
     8
 10
160.06471426914749
 20
195.71967043304679
 30
0.0
 11
160.88505774650571
 21
200.37206948203001
 31
0.0
  0
LINE
  5
16F
  8
AD4324
 62
     8
 10
153.57615128962601
 20
185.86967043304691
 30
0.0
 11
157.57615128962601
 21
185.86967043304691
 31
0.0
  0
LINE
  5
170
  8
AD4324
 62
     8
 10
155.57615128962601
 20
183.86967043304691
 30
0.0
 11
157.57615128962601
 21
185.86967043304691
 31
0.0
  0
LINE
  5
171
  8
AD4324
 62
     8
 10
153.57615128962601
 20
185.86967043304691
 30
0.0
 11
155.57615128962601
 21
183.86967043304691
 31
0.0
  0
ARC
  5
172
  8
AD4324
 62
     8
 10
153.3814592124597
 20
192.36967043304691
 30
0.0
 40
8.4478194048393505
 50
317.16282624695913
 51
333.81961418243588
  0
ARC
  5
173
  8
AD4324
 62
     8
 10
160.2761512896258
 20
189.36967043304691
 30
0.0
 40
1.0
 50
225.5729959991954
 51
313.35061213530719
  0
CIRCLE
  5
174
  8
AD4324
 62
     8
 10
160.2761512896258
 20
189.36967043304691
 30
0.0
 40
0.7
  0
LINE
  5
175
  8
AD4324
 62
     8
 10
159.4925438232207
 20
194.82837681132941
 30
0.0
 11
159.83548919422651
 21
194.4196704330468
 31
0.0
  0
LINE
  5
176
  8
AD4324
 62
     8
 10
159.5331162342176
 20
195.27360671766809
 30
0.0
 11
160.06471426914749
 21
195.71967043304679
 31
0.0
  0
LINE
  5
177
  8
AD4324
 62
     8
 10
158.89256286450009
 20
189.07206948202989
 30
0.0
 11
159.83548919422671
 21
194.4196704330468
 31
0.0
  0
LINE
  5
178
  8
AD4324
 62
     8
 10
153.6960187095228
 20
194.1536259899278
 30
0.0
 11
152.93182541165331
 21
189.81967043304689
 31
0.0
  0
LINE
  5
179
  8
AD4324
 62
     8
 10
153.94725202353899
 20
189.81967043304689
 30
0.0
 11
154.78108228465521
 21
194.5485568335626
 31
0.0
  0
LINE
  5
17A
  8
AD4324
 62
     8
 10
157.9522794894537
 20
189.4982279549842
 30
0.0
 11
158.77315176895149
 21
194.15362598992789
 31
0.0
  0
LINE
  5
17B
  8
AD4324
 62
     8
 10
153.86790488222019
 20
189.36967043304691
 30
0.0
 11
157.79907060082991
 21
189.36967043304691
 31
0.0
  0
LINE
  5
17C
  8
AD4324
 62
     8
 10
153.68914184333099
 20
188.36967043304691
 30
0.0
 11
158.0554762744398
 21
188.36967043304691
 31
0.0
  0
LINE
  5
17D
  8
AD4324
 62
     8
 10
153.86790488222019
 20
189.36967043304691
 30
0.0
 11
153.92080297643261
 21
189.66967043304689
 31
0.0
  0
LINE
  5
17E
  8
AD4324
 62
     8
 10
152.93182541165331
 20
189.81967043304689
 30
0.0
 11
153.94725202353899
 21
189.81967043304689
 31
0.0
  0
LINE
  5
17F
  8
AD4324
 62
     8
 10
152.90537636454701
 20
189.66967043304689
 30
0.0
 11
153.92080297643261
 21
189.66967043304689
 31
0.0
  0
LINE
  5
180
  8
AD4324
 62
     8
 10
152.90537636454701
 20
189.66967043304689
 30
0.0
 11
152.85205525327069
 21
189.36727138406371
 31
0.0
  0
ARC
  5
181
  8
AD4324
 62
     8
 10
153.68914184333099
 20
189.21967043304679
 30
0.0
 40
0.85
 50
169.99999999999949
 51
270.0
  0
ARC
  5
182
  8
AD4324
 62
     8
 10
155.01705050352689
 20
187.6406901183104
 30
0.0
 40
4.6706846470453618
 50
347.450787341465
 51
12.549212658535669
  0
ARC
  5
183
  8
AD4324
 62
     8
 10
158.0554762744398
 20
189.21967043304679
 30
0.0
 40
0.85
 50
316.7563270305892
 51
349.99999999999989
  0
ARC
  5
184
  8
AD4324
 62
     8
 10
158.0554762744398
 20
189.21967043304679
 30
0.0
 40
0.85
 50
270.0
 51
303.24367296940977
  0
LINE
  5
185
  8
AD4324
 62
     8
 10
157.79907060082991
 20
189.36967043304691
 30
0.0
 11
158.52144702003801
 21
188.5087757402502
 31
0.0
  0
LINE
  5
186
  8
AD4324
 62
     8
 10
157.9522794894537
 20
189.4982279549842
 30
0.0
 11
158.6746559086618
 21
188.6373332621875
 31
0.0
  0
LINE
  5
187
  8
AD4324
 62
     8
 10
155.03058141675729
 20
195.49467043304679
 30
0.0
 11
158.82996046951479
 21
195.49467043304691
 31
0.0
  0
LINE
  5
188
  8
AD4324
 62
     8
 10
154.97768332254461
 20
194.64467043304691
 30
0.0
 11
158.92410552219781
 21
194.64467043304691
 31
0.0
  0
ARC
  5
189
  8
AD4324
 62
     8
 10
154.65320947548449
 20
195.04747704615599
 30
0.0
 40
0.1
 50
130.0000000000002
 51
229.99999999999829
  0
LINE
  5
18A
  8
AD4324
 62
     8
 10
154.5889307145159
 20
194.97087260184409
 30
0.0
 11
154.97768332254481
 21
194.64467043304691
 31
0.0
  0
LINE
  5
18B
  8
AD4324
 62
     8
 10
154.5889307145159
 20
195.12408149046789
 30
0.0
 11
155.03058141675729
 21
195.49467043304679
 31
0.0
  0
ARC
  5
18C
  8
AD4324
 62
     8
 10
154.3511320025525
 20
194.77878722776629
 30
0.0
 40
0.1
 50
49.999999999999581
 51
140.00000000000091
  0
LINE
  5
18D
  8
AD4324
 62
     8
 10
154.41541076352101
 20
194.85539167207821
 30
0.0
 11
154.78108228465521
 21
194.5485568335626
 31
0.0
  0
LINE
  5
18E
  8
AD4324
 62
     8
 10
154.27452755824049
 20
194.84306598873499
 30
0.0
 11
153.6960187095228
 21
194.1536259899278
 31
0.0
  0
ARC
  5
18F
  8
AD4324
 62
     8
 10
154.39170441342179
 20
195.3502111619801
 30
0.0
 40
0.1
 50
229.99999999999949
 51
309.99999999999898
  0
LINE
  5
190
  8
AD4324
 62
     8
 10
154.45598317439041
 20
195.2736067176682
 30
0.0
 11
154.9875812097188
 21
195.71967043304679
 31
0.0
  0
LINE
  5
191
  8
AD4324
 62
     8
 10
154.3274256524532
 20
195.2736067176682
 30
0.0
 11
153.94942844797581
 21
195.5907840325311
 31
0.0
  0
ARC
  5
192
  8
AD4324
 62
     8
 10
159.4159393789088
 20
194.76409805036079
 30
0.0
 40
0.1
 50
39.999999999999233
 51
140.00000000000111
  0
LINE
  5
193
  8
AD4324
 62
     8
 10
159.33933493459691
 20
194.82837681132941
 30
0.0
 11
158.77315176895149
 21
194.15362598992789
 31
0.0
  0
ARC
  5
194
  8
AD4324
 62
     8
 10
159.46883747324901
 20
195.35021116198001
 30
0.0
 40
0.1
 50
229.99999999999741
 51
309.9999999999996
  0
LINE
  5
195
  8
AD4324
 62
     8
 10
159.40455871228039
 20
195.27360671766809
 30
0.0
 11
159.02656150740449
 21
195.5907840325311
 31
0.0
  0
ARC
  5
196
  8
AD4324
 62
     8
 10
159.16286714402321
 20
195.08478783631719
 30
0.0
 40
0.1
 50
320.00000000000182
 51
49.999999999997122
  0
LINE
  5
197
  8
AD4324
 62
     8
 10
159.23947158833511
 20
195.02050907534851
 30
0.0
 11
158.92410552219781
 21
194.64467043304691
 31
0.0
  0
LINE
  5
198
  8
AD4324
 62
     8
 10
159.227145904992
 20
195.16139228062909
 30
0.0
 11
158.82996046951499
 21
195.49467043304691
 31
0.0
  0
LINE
  5
199
  8
AD4324
 62
     8
 10
159.66612279517901
 20
200.36967043304691
 30
0.0
 11
159.84244977588759
 21
201.36967043304679
 31
0.0
  0
LINE
  5
19A
  8
AD4324
 62
     8
 10
155.6816367253368
 20
201.36967043304679
 30
0.0
 11
159.84244977588759
 21
201.36967043304679
 31
0.0
  0
LINE
  5
19B
  8
AD4324
 62
     8
 10
154.7568096619859
 20
200.16967043304689
 30
0.0
 11
155.77223627387161
 21
200.16967043304689
 31
0.0
  0
LINE
  5
19C
  8
AD4324
 62
     8
 10
154.79207505812741
 20
200.36967043304679
 30
0.0
 11
159.66612279517901
 21
200.36967043304691
 31
0.0
  0
ARC
  5
19D
  8
AD4324
 62
     8
 10
155.6816367253368
 20
200.51967043304691
 30
0.0
 40
0.85
 50
90.0
 51
169.9999999999998
  0
LINE
  5
19E
  8
AD4324
 62
     8
 10
154.84455013527639
 20
200.66727138406381
 30
0.0
 11
154.79207505812741
 21
200.36967043304679
 31
0.0
  0
LINE
  5
19F
  8
AD4324
 62
     8
 10
160.04553509826471
 20
201.36967043304679
 30
0.0
 11
160.0479711564453
 21
201.36967043304679
 31
0.0
  0
ARC
  5
1A0
  8
AD4324
 62
     8
 10
160.0479711564453
 20
200.51967043304691
 30
0.0
 40
0.85
 50
349.99999999999977
 51
90.0
  0
LINE
  5
1A1
  8
AD4324
 62
     8
 10
181.2647142691475
 20
195.71967043304679
 30
0.0
 11
182.0850577465057
 21
200.37206948203001
 31
0.0
  0
LINE
  5
1A2
  8
AD4324
 62
     8
 10
175.95680966198589
 20
200.16967043304689
 30
0.0
 11
175.14942844797579
 21
195.5907840325311
 31
0.0
  0
LINE
  5
1A3
  8
AD4324
 62
     8
 10
176.1875812097189
 20
195.71967043304679
 30
0.0
 11
176.9722362738716
 21
200.16967043304689
 31
0.0
  0
LINE
  5
1A4
  8
AD4324
 62
     8
 10
180.22656150740451
 20
195.5907840325311
 30
0.0
 11
181.2455350982647
 21
201.36967043304679
 31
0.0
  0
LINE
  5
1A5
  8
AD4324
 62
     8
 10
169.6265615074044
 20
195.5907840325311
 30
0.0
 11
170.64553509826459
 21
201.36967043304679
 31
0.0
  0
LINE
  5
1A6
  8
AD4324
 62
     8
 10
165.58758120971871
 20
195.71967043304679
 30
0.0
 11
166.37223627387149
 21
200.16967043304689
 31
0.0
  0
LINE
  5
1A7
  8
AD4324
 62
     8
 10
165.35680966198581
 20
200.16967043304689
 30
0.0
 11
164.54942844797571
 21
195.5907840325311
 31
0.0
  0
LINE
  5
1A8
  8
AD4324
 62
     8
 10
170.66471426914759
 20
195.71967043304679
 30
0.0
 11
171.48505774650579
 21
200.37206948203001
 31
0.0
  0
LINE
  5
1A9
  8
AD4324
 62
     8
 10
176.1776833225446
 20
194.64467043304691
 30
0.0
 11
180.12410552219779
 21
194.64467043304691
 31
0.0
  0
LINE
  5
1AA
  8
AD4324
 62
     8
 10
176.2305814167573
 20
195.49467043304679
 30
0.0
 11
180.0299604695148
 21
195.49467043304691
 31
0.0
  0
LINE
  5
1AB
  8
AD4324
 62
     8
 10
174.88914184333109
 20
188.36967043304691
 30
0.0
 11
179.25547627443959
 21
188.36967043304691
 31
0.0
  0
LINE
  5
1AC
  8
AD4324
 62
     8
 10
175.06790488222009
 20
189.36967043304691
 30
0.0
 11
178.9990706008297
 21
189.36967043304691
 31
0.0
  0
LINE
  5
1AD
  8
AD4324
 62
     8
 10
176.7761512896258
 20
183.86967043304691
 30
0.0
 11
178.7761512896258
 21
185.86967043304691
 31
0.0
  0
LINE
  5
1AE
  8
AD4324
 62
     8
 10
174.7761512896258
 20
185.86967043304691
 30
0.0
 11
178.7761512896258
 21
185.86967043304691
 31
0.0
  0
LINE
  5
1AF
  8
AD4324
 62
     8
 10
164.17615128962589
 20
185.86967043304691
 30
0.0
 11
168.17615128962589
 21
185.86967043304691
 31
0.0
  0
LINE
  5
1B0
  8
AD4324
 62
     8
 10
166.17615128962589
 20
183.86967043304691
 30
0.0
 11
168.17615128962589
 21
185.86967043304691
 31
0.0
  0
LINE
  5
1B1
  8
AD4324
 62
     8
 10
164.17615128962589
 20
185.86967043304691
 30
0.0
 11
166.17615128962589
 21
183.86967043304691
 31
0.0
  0
LINE
  5
1B2
  8
AD4324
 62
     8
 10
174.7761512896258
 20
185.86967043304691
 30
0.0
 11
176.7761512896258
 21
183.86967043304691
 31
0.0
  0
ARC
  5
1B3
  8
AD4324
 62
     8
 10
163.98145921245981
 20
192.36967043304691
 30
0.0
 40
8.4478194048393505
 50
317.16282624695913
 51
333.81961418243588
  0
ARC
  5
1B4
  8
AD4324
 62
     8
 10
170.87615128962599
 20
189.36967043304691
 30
0.0
 40
1.0
 50
225.5729959991954
 51
313.35061213530719
  0
CIRCLE
  5
1B5
  8
AD4324
 62
     8
 10
170.87615128962599
 20
189.36967043304691
 30
0.0
 40
0.7
  0
LINE
  5
1B6
  8
AD4324
 62
     8
 10
170.09254382322061
 20
194.82837681132941
 30
0.0
 11
170.43548919422659
 21
194.4196704330468
 31
0.0
  0
LINE
  5
1B7
  8
AD4324
 62
     8
 10
170.1331162342176
 20
195.27360671766809
 30
0.0
 11
170.66471426914759
 21
195.71967043304679
 31
0.0
  0
LINE
  5
1B8
  8
AD4324
 62
     8
 10
169.4925628645
 20
189.07206948202989
 30
0.0
 11
170.43548919422659
 21
194.4196704330468
 31
0.0
  0
LINE
  5
1B9
  8
AD4324
 62
     8
 10
164.29601870952271
 20
194.1536259899278
 30
0.0
 11
163.53182541165319
 21
189.81967043304689
 31
0.0
  0
LINE
  5
1BA
  8
AD4324
 62
     8
 10
164.5472520235389
 20
189.81967043304689
 30
0.0
 11
165.38108228465509
 21
194.5485568335626
 31
0.0
  0
LINE
  5
1BB
  8
AD4324
 62
     8
 10
168.55227948945361
 20
189.4982279549842
 30
0.0
 11
169.3731517689514
 21
194.15362598992789
 31
0.0
  0
LINE
  5
1BC
  8
AD4324
 62
     8
 10
164.4679048822201
 20
189.36967043304691
 30
0.0
 11
168.39907060082979
 21
189.36967043304691
 31
0.0
  0
LINE
  5
1BD
  8
AD4324
 62
     8
 10
164.2891418433309
 20
188.36967043304691
 30
0.0
 11
168.65547627443971
 21
188.36967043304691
 31
0.0
  0
LINE
  5
1BE
  8
AD4324
 62
     8
 10
164.4679048822201
 20
189.36967043304691
 30
0.0
 11
164.52080297643261
 21
189.66967043304689
 31
0.0
  0
LINE
  5
1BF
  8
AD4324
 62
     8
 10
163.53182541165319
 20
189.81967043304689
 30
0.0
 11
164.5472520235389
 21
189.81967043304689
 31
0.0
  0
LINE
  5
1C0
  8
AD4324
 62
     8
 10
163.50537636454689
 20
189.66967043304689
 30
0.0
 11
164.52080297643261
 21
189.66967043304689
 31
0.0
  0
LINE
  5
1C1
  8
AD4324
 62
     8
 10
163.50537636454689
 20
189.66967043304689
 30
0.0
 11
163.4520552532706
 21
189.36727138406371
 31
0.0
  0
ARC
  5
1C2
  8
AD4324
 62
     8
 10
164.2891418433309
 20
189.21967043304679
 30
0.0
 40
0.85
 50
169.99999999999949
 51
270.0
  0
ARC
  5
1C3
  8
AD4324
 62
     8
 10
165.6170505035268
 20
187.6406901183104
 30
0.0
 40
4.6706846470453618
 50
347.450787341465
 51
12.549212658535669
  0
ARC
  5
1C4
  8
AD4324
 62
     8
 10
168.65547627443971
 20
189.21967043304679
 30
0.0
 40
0.85
 50
316.7563270305892
 51
349.99999999999989
  0
ARC
  5
1C5
  8
AD4324
 62
     8
 10
168.65547627443971
 20
189.21967043304679
 30
0.0
 40
0.85
 50
270.0
 51
303.24367296940977
  0
LINE
  5
1C6
  8
AD4324
 62
     8
 10
168.39907060082979
 20
189.36967043304691
 30
0.0
 11
169.12144702003789
 21
188.5087757402502
 31
0.0
  0
LINE
  5
1C7
  8
AD4324
 62
     8
 10
168.55227948945361
 20
189.4982279549842
 30
0.0
 11
169.27465590866171
 21
188.6373332621875
 31
0.0
  0
LINE
  5
1C8
  8
AD4324
 62
     8
 10
165.63058141675711
 20
195.49467043304679
 30
0.0
 11
169.4299604695149
 21
195.49467043304691
 31
0.0
  0
LINE
  5
1C9
  8
AD4324
 62
     8
 10
165.57768332254469
 20
194.64467043304691
 30
0.0
 11
169.52410552219769
 21
194.64467043304691
 31
0.0
  0
ARC
  5
1CA
  8
AD4324
 62
     8
 10
165.2532094754844
 20
195.04747704615599
 30
0.0
 40
0.1
 50
130.0000000000002
 51
229.99999999999829
  0
LINE
  5
1CB
  8
AD4324
 62
     8
 10
165.18893071451581
 20
194.97087260184409
 30
0.0
 11
165.57768332254469
 21
194.64467043304691
 31
0.0
  0
LINE
  5
1CC
  8
AD4324
 62
     8
 10
165.18893071451581
 20
195.12408149046789
 30
0.0
 11
165.63058141675711
 21
195.49467043304679
 31
0.0
  0
ARC
  5
1CD
  8
AD4324
 62
     8
 10
164.95113200255241
 20
194.77878722776629
 30
0.0
 40
0.1
 50
49.999999999999581
 51
140.00000000000091
  0
LINE
  5
1CE
  8
AD4324
 62
     8
 10
165.0154107635212
 20
194.85539167207821
 30
0.0
 11
165.38108228465509
 21
194.5485568335626
 31
0.0
  0
LINE
  5
1CF
  8
AD4324
 62
     8
 10
164.87452755824049
 20
194.84306598873499
 30
0.0
 11
164.29601870952271
 21
194.1536259899278
 31
0.0
  0
ARC
  5
1D0
  8
AD4324
 62
     8
 10
164.9917044134217
 20
195.3502111619801
 30
0.0
 40
0.1
 50
229.99999999999949
 51
309.99999999999898
  0
LINE
  5
1D1
  8
AD4324
 62
     8
 10
165.05598317439029
 20
195.2736067176682
 30
0.0
 11
165.58758120971871
 21
195.71967043304679
 31
0.0
  0
LINE
  5
1D2
  8
AD4324
 62
     8
 10
164.92742565245311
 20
195.2736067176682
 30
0.0
 11
164.54942844797591
 21
195.5907840325311
 31
0.0
  0
ARC
  5
1D3
  8
AD4324
 62
     8
 10
170.01593937890871
 20
194.76409805036079
 30
0.0
 40
0.1
 50
39.999999999999233
 51
140.00000000000111
  0
LINE
  5
1D4
  8
AD4324
 62
     8
 10
169.93933493459679
 20
194.82837681132941
 30
0.0
 11
169.3731517689514
 21
194.15362598992789
 31
0.0
  0
ARC
  5
1D5
  8
AD4324
 62
     8
 10
170.068837473249
 20
195.35021116198001
 30
0.0
 40
0.1
 50
229.99999999999741
 51
309.9999999999996
  0
LINE
  5
1D6
  8
AD4324
 62
     8
 10
170.00455871228041
 20
195.27360671766809
 30
0.0
 11
169.6265615074046
 21
195.5907840325311
 31
0.0
  0
ARC
  5
1D7
  8
AD4324
 62
     8
 10
169.76286714402329
 20
195.08478783631719
 30
0.0
 40
0.1
 50
320.00000000000182
 51
49.999999999997122
  0
LINE
  5
1D8
  8
AD4324
 62
     8
 10
169.8394715883353
 20
195.02050907534851
 30
0.0
 11
169.52410552219769
 21
194.64467043304691
 31
0.0
  0
LINE
  5
1D9
  8
AD4324
 62
     8
 10
169.82714590499191
 20
195.16139228062909
 30
0.0
 11
169.4299604695149
 21
195.49467043304691
 31
0.0
  0
LINE
  5
1DA
  8
AD4324
 62
     8
 10
175.14725202353901
 20
189.81967043304689
 30
0.0
 11
175.9810822846552
 21
194.5485568335626
 31
0.0
  0
LINE
  5
1DB
  8
AD4324
 62
     8
 10
174.89601870952259
 20
194.1536259899278
 30
0.0
 11
174.1318254116531
 21
189.81967043304689
 31
0.0
  0
ARC
  5
1DC
  8
AD4324
 62
     8
 10
174.88914184333109
 20
189.21967043304679
 30
0.0
 40
0.85
 50
169.99999999999949
 51
270.0
  0
LINE
  5
1DD
  8
AD4324
 62
     8
 10
174.105376364547
 20
189.66967043304689
 30
0.0
 11
175.12080297643271
 21
189.66967043304689
 31
0.0
  0
LINE
  5
1DE
  8
AD4324
 62
     8
 10
174.1318254116531
 20
189.81967043304689
 30
0.0
 11
175.14725202353901
 21
189.81967043304689
 31
0.0
  0
LINE
  5
1DF
  8
AD4324
 62
     8
 10
174.105376364547
 20
189.66967043304689
 30
0.0
 11
174.05205525327071
 21
189.36727138406371
 31
0.0
  0
LINE
  5
1E0
  8
AD4324
 62
     8
 10
175.06790488222009
 20
189.36967043304691
 30
0.0
 11
175.12080297643271
 21
189.66967043304689
 31
0.0
  0
LINE
  5
1E1
  8
AD4324
 62
     8
 10
175.52742565245299
 20
195.2736067176682
 30
0.0
 11
175.14942844797579
 21
195.5907840325311
 31
0.0
  0
LINE
  5
1E2
  8
AD4324
 62
     8
 10
175.6559831743904
 20
195.2736067176682
 30
0.0
 11
176.1875812097189
 21
195.71967043304679
 31
0.0
  0
ARC
  5
1E3
  8
AD4324
 62
     8
 10
175.59170441342161
 20
195.3502111619801
 30
0.0
 40
0.1
 50
229.99999999999949
 51
309.99999999999898
  0
LINE
  5
1E4
  8
AD4324
 62
     8
 10
175.4745275582406
 20
194.84306598873499
 30
0.0
 11
174.89601870952259
 21
194.1536259899278
 31
0.0
  0
LINE
  5
1E5
  8
AD4324
 62
     8
 10
175.61541076352111
 20
194.85539167207821
 30
0.0
 11
175.9810822846552
 21
194.5485568335626
 31
0.0
  0
ARC
  5
1E6
  8
AD4324
 62
     8
 10
175.55113200255249
 20
194.77878722776629
 30
0.0
 40
0.1
 50
49.999999999999581
 51
140.00000000000091
  0
LINE
  5
1E7
  8
AD4324
 62
     8
 10
175.78893071451569
 20
195.12408149046789
 30
0.0
 11
176.2305814167573
 21
195.49467043304679
 31
0.0
  0
LINE
  5
1E8
  8
AD4324
 62
     8
 10
175.78893071451569
 20
194.97087260184409
 30
0.0
 11
176.1776833225446
 21
194.64467043304691
 31
0.0
  0
ARC
  5
1E9
  8
AD4324
 62
     8
 10
175.85320947548431
 20
195.04747704615599
 30
0.0
 40
0.1
 50
130.0000000000002
 51
229.99999999999829
  0
LINE
  5
1EA
  8
AD4324
 62
     8
 10
179.15227948945349
 20
189.4982279549842
 30
0.0
 11
179.97315176895131
 21
194.15362598992789
 31
0.0
  0
LINE
  5
1EB
  8
AD4324
 62
     8
 10
180.0925628645
 20
189.07206948202989
 30
0.0
 11
181.0354891942265
 21
194.4196704330468
 31
0.0
  0
LINE
  5
1EC
  8
AD4324
 62
     8
 10
179.15227948945349
 20
189.4982279549842
 30
0.0
 11
179.87465590866191
 21
188.6373332621875
 31
0.0
  0
LINE
  5
1ED
  8
AD4324
 62
     8
 10
178.9990706008297
 20
189.36967043304691
 30
0.0
 11
179.72144702003811
 21
188.5087757402502
 31
0.0
  0
ARC
  5
1EE
  8
AD4324
 62
     8
 10
179.25547627443959
 20
189.21967043304679
 30
0.0
 40
0.85
 50
270.0
 51
303.24367296940977
  0
ARC
  5
1EF
  8
AD4324
 62
     8
 10
179.25547627443959
 20
189.21967043304679
 30
0.0
 40
0.85
 50
316.7563270305892
 51
349.99999999999989
  0
ARC
  5
1F0
  8
AD4324
 62
     8
 10
176.21705050352691
 20
187.6406901183104
 30
0.0
 40
4.6706846470453618
 50
347.450787341465
 51
12.549212658535669
  0
CIRCLE
  5
1F1
  8
AD4324
 62
     8
 10
181.4761512896259
 20
189.36967043304691
 30
0.0
 40
0.7
  0
ARC
  5
1F2
  8
AD4324
 62
     8
 10
181.4761512896259
 20
189.36967043304691
 30
0.0
 40
1.0
 50
225.5729959991954
 51
313.35061213530719
  0
ARC
  5
1F3
  8
AD4324
 62
     8
 10
174.58145921245969
 20
192.36967043304691
 30
0.0
 40
8.4478194048393505
 50
317.16282624695913
 51
333.81961418243588
  0
LINE
  5
1F4
  8
AD4324
 62
     8
 10
180.4271459049919
 20
195.16139228062909
 30
0.0
 11
180.0299604695148
 21
195.49467043304691
 31
0.0
  0
LINE
  5
1F5
  8
AD4324
 62
     8
 10
180.43947158833521
 20
195.02050907534851
 30
0.0
 11
180.12410552219779
 21
194.64467043304691
 31
0.0
  0
ARC
  5
1F6
  8
AD4324
 62
     8
 10
180.36286714402331
 20
195.08478783631719
 30
0.0
 40
0.1
 50
320.00000000000182
 51
49.999999999997122
  0
LINE
  5
1F7
  8
AD4324
 62
     8
 10
180.60455871228029
 20
195.27360671766809
 30
0.0
 11
180.22656150740451
 21
195.5907840325311
 31
0.0
  0
ARC
  5
1F8
  8
AD4324
 62
     8
 10
180.66883747324911
 20
195.35021116198001
 30
0.0
 40
0.1
 50
229.99999999999741
 51
309.9999999999996
  0
LINE
  5
1F9
  8
AD4324
 62
     8
 10
180.53933493459681
 20
194.82837681132941
 30
0.0
 11
179.97315176895131
 21
194.15362598992789
 31
0.0
  0
ARC
  5
1FA
  8
AD4324
 62
     8
 10
180.61593937890871
 20
194.76409805036079
 30
0.0
 40
0.1
 50
39.999999999999233
 51
140.00000000000111
  0
LINE
  5
1FB
  8
AD4324
 62
     8
 10
180.7331162342177
 20
195.27360671766809
 30
0.0
 11
181.2647142691475
 21
195.71967043304679
 31
0.0
  0
LINE
  5
1FC
  8
AD4324
 62
     8
 10
180.69254382322049
 20
194.82837681132941
 30
0.0
 11
181.0354891942265
 21
194.4196704330468
 31
0.0
  0
LINE
  5
1FD
  8
AD4324
 62
     8
 10
175.99207505812751
 20
200.36967043304679
 30
0.0
 11
180.866122795179
 21
200.36967043304691
 31
0.0
  0
LINE
  5
1FE
  8
AD4324
 62
     8
 10
176.88163672533659
 20
201.36967043304679
 30
0.0
 11
181.04244977588741
 21
201.36967043304679
 31
0.0
  0
LINE
  5
1FF
  8
AD4324
 62
     8
 10
170.26612279517909
 20
200.36967043304691
 30
0.0
 11
170.4424497758875
 21
201.36967043304679
 31
0.0
  0
LINE
  5
200
  8
AD4324
 62
     8
 10
166.28163672533671
 20
201.36967043304679
 30
0.0
 11
170.4424497758875
 21
201.36967043304679
 31
0.0
  0
LINE
  5
201
  8
AD4324
 62
     8
 10
165.35680966198581
 20
200.16967043304689
 30
0.0
 11
166.37223627387149
 21
200.16967043304689
 31
0.0
  0
LINE
  5
202
  8
AD4324
 62
     8
 10
165.3920750581276
 20
200.36967043304679
 30
0.0
 11
170.26612279517889
 21
200.36967043304691
 31
0.0
  0
ARC
  5
203
  8
AD4324
 62
     8
 10
166.28163672533671
 20
200.51967043304691
 30
0.0
 40
0.85
 50
90.0
 51
169.9999999999998
  0
LINE
  5
204
  8
AD4324
 62
     8
 10
165.4445501352763
 20
200.66727138406381
 30
0.0
 11
165.3920750581276
 21
200.36967043304679
 31
0.0
  0
LINE
  5
205
  8
AD4324
 62
     8
 10
170.64553509826459
 20
201.36967043304679
 30
0.0
 11
170.64797115644541
 21
201.36967043304679
 31
0.0
  0
ARC
  5
206
  8
AD4324
 62
     8
 10
170.64797115644541
 20
200.51967043304691
 30
0.0
 40
0.85
 50
349.99999999999977
 51
90.0
  0
LINE
  5
207
  8
AD4324
 62
     8
 10
176.04455013527621
 20
200.66727138406381
 30
0.0
 11
175.99207505812751
 21
200.36967043304679
 31
0.0
  0
ARC
  5
208
  8
AD4324
 62
     8
 10
176.88163672533659
 20
200.51967043304691
 30
0.0
 40
0.85
 50
90.0
 51
169.9999999999998
  0
LINE
  5
209
  8
AD4324
 62
     8
 10
175.95680966198569
 20
200.16967043304689
 30
0.0
 11
176.9722362738716
 21
200.16967043304689
 31
0.0
  0
ARC
  5
20A
  8
AD4324
 62
     8
 10
181.24797115644529
 20
200.51967043304691
 30
0.0
 40
0.85
 50
349.99999999999977
 51
90.0
  0
LINE
  5
20B
  8
AD4324
 62
     8
 10
181.2455350982645
 20
201.36967043304679
 30
0.0
 11
181.24797115644529
 21
201.36967043304679
 31
0.0
  0
LINE
  5
20C
  8
AD4324
 62
     8
 10
180.866122795179
 20
200.36967043304691
 30
0.0
 11
181.04244977588741
 21
201.36967043304679
 31
0.0
  0
LINE
  5
20D
  8
AD4324
 62
     8
 10
191.86471426914741
 20
195.71967043304679
 30
0.0
 11
192.68505774650561
 21
200.37206948203001
 31
0.0
  0
LINE
  5
20E
  8
AD4324
 62
     8
 10
186.5568096619858
 20
200.16967043304689
 30
0.0
 11
185.7494284479757
 21
195.5907840325311
 31
0.0
  0
LINE
  5
20F
  8
AD4324
 62
     8
 10
186.78758120971881
 20
195.71967043304679
 30
0.0
 11
187.57223627387151
 21
200.16967043304689
 31
0.0
  0
LINE
  5
210
  8
AD4324
 62
     8
 10
190.82656150740439
 20
195.5907840325311
 30
0.0
 11
191.84553509826469
 21
201.36967043304679
 31
0.0
  0
LINE
  5
211
  8
AD4324
 62
     8
 10
201.4265615074045
 20
195.5907840325311
 30
0.0
 11
202.4455350982646
 21
201.36967043304679
 31
0.0
  0
LINE
  5
212
  8
AD4324
 62
     8
 10
197.38758120971889
 20
195.71967043304679
 30
0.0
 11
198.17223627387139
 21
200.16967043304689
 31
0.0
  0
LINE
  5
213
  8
AD4324
 62
     8
 10
197.1568096619857
 20
200.16967043304689
 30
0.0
 11
196.3494284479759
 21
195.5907840325311
 31
0.0
  0
LINE
  5
214
  8
AD4324
 62
     8
 10
202.46471426914761
 20
195.71967043304679
 30
0.0
 11
203.28505774650569
 21
200.37206948203001
 31
0.0
  0
LINE
  5
215
  8
AD4324
 62
     8
 10
185.37615128962599
 20
185.86967043304691
 30
0.0
 11
187.37615128962599
 21
183.86967043304691
 31
0.0
  0
LINE
  5
216
  8
AD4324
 62
     8
 10
185.37615128962599
 20
185.86967043304691
 30
0.0
 11
189.37615128962599
 21
185.86967043304691
 31
0.0
  0
LINE
  5
217
  8
AD4324
 62
     8
 10
187.37615128962599
 20
183.86967043304691
 30
0.0
 11
189.37615128962599
 21
185.86967043304691
 31
0.0
  0
LINE
  5
218
  8
AD4324
 62
     8
 10
186.25598317439039
 20
195.2736067176682
 30
0.0
 11
186.78758120971881
 21
195.71967043304679
 31
0.0
  0
LINE
  5
219
  8
AD4324
 62
     8
 10
186.38893071451571
 20
195.12408149046789
 30
0.0
 11
186.83058141675721
 21
195.49467043304679
 31
0.0
  0
LINE
  5
21A
  8
AD4324
 62
     8
 10
186.38893071451571
 20
194.97087260184409
 30
0.0
 11
186.77768332254479
 21
194.64467043304691
 31
0.0
  0
LINE
  5
21B
  8
AD4324
 62
     8
 10
185.489141843331
 20
188.36967043304691
 30
0.0
 11
189.8554762744397
 21
188.36967043304691
 31
0.0
  0
LINE
  5
21C
  8
AD4324
 62
     8
 10
185.66790488222
 20
189.36967043304691
 30
0.0
 11
189.59907060082989
 21
189.36967043304691
 31
0.0
  0
LINE
  5
21D
  8
AD4324
 62
     8
 10
185.74725202353889
 20
189.81967043304689
 30
0.0
 11
186.58108228465511
 21
194.5485568335626
 31
0.0
  0
LINE
  5
21E
  8
AD4324
 62
     8
 10
185.49601870952279
 20
194.1536259899278
 30
0.0
 11
184.73182541165301
 21
189.81967043304689
 31
0.0
  0
ARC
  5
21F
  8
AD4324
 62
     8
 10
185.489141843331
 20
189.21967043304679
 30
0.0
 40
0.85
 50
169.99999999999949
 51
270.0
  0
LINE
  5
220
  8
AD4324
 62
     8
 10
184.70537636454691
 20
189.66967043304689
 30
0.0
 11
184.65205525327059
 21
189.36727138406371
 31
0.0
  0
LINE
  5
221
  8
AD4324
 62
     8
 10
184.70537636454691
 20
189.66967043304689
 30
0.0
 11
185.72080297643259
 21
189.66967043304689
 31
0.0
  0
LINE
  5
222
  8
AD4324
 62
     8
 10
184.7318254116532
 20
189.81967043304689
 30
0.0
 11
185.74725202353889
 21
189.81967043304689
 31
0.0
  0
LINE
  5
223
  8
AD4324
 62
     8
 10
185.66790488222
 20
189.36967043304691
 30
0.0
 11
185.72080297643259
 21
189.66967043304689
 31
0.0
  0
LINE
  5
224
  8
AD4324
 62
     8
 10
186.1274256524529
 20
195.2736067176682
 30
0.0
 11
185.7494284479757
 21
195.5907840325311
 31
0.0
  0
ARC
  5
225
  8
AD4324
 62
     8
 10
186.1917044134218
 20
195.3502111619801
 30
0.0
 40
0.1
 50
229.99999999999949
 51
309.99999999999898
  0
LINE
  5
226
  8
AD4324
 62
     8
 10
186.0745275582405
 20
194.84306598873499
 30
0.0
 11
185.49601870952279
 21
194.1536259899278
 31
0.0
  0
LINE
  5
227
  8
AD4324
 62
     8
 10
186.21541076352099
 20
194.85539167207821
 30
0.0
 11
186.58108228465511
 21
194.5485568335626
 31
0.0
  0
ARC
  5
228
  8
AD4324
 62
     8
 10
186.1511320025524
 20
194.77878722776629
 30
0.0
 40
0.1
 50
49.999999999999581
 51
140.00000000000091
  0
ARC
  5
229
  8
AD4324
 62
     8
 10
186.4532094754845
 20
195.04747704615599
 30
0.0
 40
0.1
 50
130.0000000000002
 51
229.99999999999829
  0
LINE
  5
22A
  8
AD4324
 62
     8
 10
189.75227948945371
 20
189.4982279549842
 30
0.0
 11
190.57315176895139
 21
194.15362598992789
 31
0.0
  0
LINE
  5
22B
  8
AD4324
 62
     8
 10
190.6925628645001
 20
189.07206948202989
 30
0.0
 11
191.63548919422641
 21
194.4196704330468
 31
0.0
  0
LINE
  5
22C
  8
AD4324
 62
     8
 10
189.75227948945371
 20
189.4982279549842
 30
0.0
 11
190.47465590866179
 21
188.6373332621875
 31
0.0
  0
LINE
  5
22D
  8
AD4324
 62
     8
 10
189.59907060082989
 20
189.36967043304691
 30
0.0
 11
190.32144702003799
 21
188.5087757402502
 31
0.0
  0
ARC
  5
22E
  8
AD4324
 62
     8
 10
189.8554762744397
 20
189.21967043304679
 30
0.0
 40
0.85
 50
270.0
 51
303.24367296940977
  0
ARC
  5
22F
  8
AD4324
 62
     8
 10
189.8554762744397
 20
189.21967043304679
 30
0.0
 40
0.85
 50
316.7563270305892
 51
349.99999999999989
  0
ARC
  5
230
  8
AD4324
 62
     8
 10
186.81705050352679
 20
187.6406901183104
 30
0.0
 40
4.6706846470453618
 50
347.450787341465
 51
12.549212658535669
  0
CIRCLE
  5
231
  8
AD4324
 62
     8
 10
192.07615128962581
 20
189.36967043304691
 30
0.0
 40
0.7
  0
ARC
  5
232
  8
AD4324
 62
     8
 10
192.07615128962581
 20
189.36967043304691
 30
0.0
 40
1.0
 50
225.5729959991954
 51
313.35061213530719
  0
ARC
  5
233
  8
AD4324
 62
     8
 10
185.18145921245971
 20
192.36967043304691
 30
0.0
 40
8.4478194048393505
 50
317.16282624695913
 51
333.81961418243588
  0
LINE
  5
234
  8
AD4324
 62
     8
 10
191.02714590499201
 20
195.16139228062909
 30
0.0
 11
190.62996046951471
 21
195.49467043304691
 31
0.0
  0
LINE
  5
235
  8
AD4324
 62
     8
 10
191.03947158833509
 20
195.02050907534851
 30
0.0
 11
190.7241055221977
 21
194.64467043304691
 31
0.0
  0
LINE
  5
236
  8
AD4324
 62
     8
 10
191.2045587122804
 20
195.27360671766809
 30
0.0
 11
190.82656150740439
 21
195.5907840325311
 31
0.0
  0
LINE
  5
237
  8
AD4324
 62
     8
 10
191.13933493459669
 20
194.82837681132941
 30
0.0
 11
190.57315176895139
 21
194.15362598992789
 31
0.0
  0
LINE
  5
238
  8
AD4324
 62
     8
 10
186.7776833225445
 20
194.64467043304691
 30
0.0
 11
190.7241055221977
 21
194.64467043304691
 31
0.0
  0
LINE
  5
239
  8
AD4324
 62
     8
 10
186.83058141675721
 20
195.49467043304679
 30
0.0
 11
190.62996046951471
 21
195.49467043304691
 31
0.0
  0
ARC
  5
23A
  8
AD4324
 62
     8
 10
190.96286714402319
 20
195.08478783631719
 30
0.0
 40
0.1
 50
320.00000000000182
 51
49.999999999997122
  0
ARC
  5
23B
  8
AD4324
 62
     8
 10
191.26883747324899
 20
195.35021116198001
 30
0.0
 40
0.1
 50
229.99999999999741
 51
309.9999999999996
  0
ARC
  5
23C
  8
AD4324
 62
     8
 10
191.21593937890859
 20
194.76409805036079
 30
0.0
 40
0.1
 50
39.999999999999233
 51
140.00000000000111
  0
LINE
  5
23D
  8
AD4324
 62
     8
 10
191.33311623421761
 20
195.27360671766809
 30
0.0
 11
191.86471426914741
 21
195.71967043304679
 31
0.0
  0
LINE
  5
23E
  8
AD4324
 62
     8
 10
191.29254382322051
 20
194.82837681132941
 30
0.0
 11
191.63548919422641
 21
194.4196704330468
 31
0.0
  0
LINE
  5
23F
  8
AD4324
 62
     8
 10
195.9761512896259
 20
185.86967043304691
 30
0.0
 11
199.9761512896259
 21
185.86967043304691
 31
0.0
  0
LINE
  5
240
  8
AD4324
 62
     8
 10
197.9761512896259
 20
183.86967043304691
 30
0.0
 11
199.9761512896259
 21
185.86967043304691
 31
0.0
  0
LINE
  5
241
  8
AD4324
 62
     8
 10
195.9761512896259
 20
185.86967043304691
 30
0.0
 11
197.9761512896259
 21
183.86967043304691
 31
0.0
  0
ARC
  5
242
  8
AD4324
 62
     8
 10
195.78145921245979
 20
192.36967043304691
 30
0.0
 40
8.4478194048393505
 50
317.16282624695913
 51
333.81961418243588
  0
ARC
  5
243
  8
AD4324
 62
     8
 10
202.67615128962589
 20
189.36967043304691
 30
0.0
 40
1.0
 50
225.5729959991954
 51
313.35061213530719
  0
CIRCLE
  5
244
  8
AD4324
 62
     8
 10
202.67615128962589
 20
189.36967043304691
 30
0.0
 40
0.7
  0
LINE
  5
245
  8
AD4324
 62
     8
 10
201.29256286450001
 20
189.07206948202989
 30
0.0
 11
202.2354891942266
 21
194.4196704330468
 31
0.0
  0
LINE
  5
246
  8
AD4324
 62
     8
 10
200.35227948945359
 20
189.4982279549842
 30
0.0
 11
201.1731517689513
 21
194.15362598992789
 31
0.0
  0
LINE
  5
247
  8
AD4324
 62
     8
 10
196.09601870952261
 20
194.1536259899278
 30
0.0
 11
195.33182541165311
 21
189.81967043304689
 31
0.0
  0
LINE
  5
248
  8
AD4324
 62
     8
 10
196.3472520235388
 20
189.81967043304689
 30
0.0
 11
197.1810822846553
 21
194.5485568335626
 31
0.0
  0
LINE
  5
249
  8
AD4324
 62
     8
 10
196.26790488222011
 20
189.36967043304691
 30
0.0
 11
200.1990706008298
 21
189.36967043304691
 31
0.0
  0
LINE
  5
24A
  8
AD4324
 62
     8
 10
196.08914184333091
 20
188.36967043304691
 30
0.0
 11
200.4554762744396
 21
188.36967043304691
 31
0.0
  0
LINE
  5
24B
  8
AD4324
 62
     8
 10
196.26790488222011
 20
189.36967043304691
 30
0.0
 11
196.3208029764325
 21
189.66967043304689
 31
0.0
  0
LINE
  5
24C
  8
AD4324
 62
     8
 10
195.30537636454679
 20
189.66967043304689
 30
0.0
 11
195.2520552532705
 21
189.36727138406371
 31
0.0
  0
LINE
  5
24D
  8
AD4324
 62
     8
 10
195.33182541165311
 20
189.81967043304689
 30
0.0
 11
196.3472520235388
 21
189.81967043304689
 31
0.0
  0
LINE
  5
24E
  8
AD4324
 62
     8
 10
195.30537636454679
 20
189.66967043304689
 30
0.0
 11
196.3208029764325
 21
189.66967043304689
 31
0.0
  0
ARC
  5
24F
  8
AD4324
 62
     8
 10
196.08914184333091
 20
189.21967043304679
 30
0.0
 40
0.85
 50
169.99999999999949
 51
270.0
  0
ARC
  5
250
  8
AD4324
 62
     8
 10
197.41705050352689
 20
187.6406901183104
 30
0.0
 40
4.6706846470453618
 50
347.450787341465
 51
12.549212658535669
  0
ARC
  5
251
  8
AD4324
 62
     8
 10
200.4554762744396
 20
189.21967043304679
 30
0.0
 40
0.85
 50
316.7563270305892
 51
349.99999999999989
  0
ARC
  5
252
  8
AD4324
 62
     8
 10
200.4554762744396
 20
189.21967043304679
 30
0.0
 40
0.85
 50
270.0
 51
303.24367296940977
  0
LINE
  5
253
  8
AD4324
 62
     8
 10
200.1990706008298
 20
189.36967043304691
 30
0.0
 11
200.9214470200381
 21
188.5087757402502
 31
0.0
  0
LINE
  5
254
  8
AD4324
 62
     8
 10
200.35227948945359
 20
189.4982279549842
 30
0.0
 11
201.0746559086619
 21
188.6373332621875
 31
0.0
  0
LINE
  5
255
  8
AD4324
 62
     8
 10
197.43058141675709
 20
195.49467043304679
 30
0.0
 11
201.22996046951491
 21
195.49467043304691
 31
0.0
  0
LINE
  5
256
  8
AD4324
 62
     8
 10
197.3776833225447
 20
194.64467043304691
 30
0.0
 11
201.32410552219761
 21
194.64467043304691
 31
0.0
  0
ARC
  5
257
  8
AD4324
 62
     8
 10
197.05320947548441
 20
195.04747704615599
 30
0.0
 40
0.1
 50
130.0000000000002
 51
229.99999999999829
  0
LINE
  5
258
  8
AD4324
 62
     8
 10
196.98893071451579
 20
194.97087260184409
 30
0.0
 11
197.3776833225447
 21
194.64467043304691
 31
0.0
  0
LINE
  5
259
  8
AD4324
 62
     8
 10
196.98893071451579
 20
195.12408149046789
 30
0.0
 11
197.43058141675709
 21
195.49467043304679
 31
0.0
  0
ARC
  5
25A
  8
AD4324
 62
     8
 10
196.75113200255259
 20
194.77878722776629
 30
0.0
 40
0.1
 50
49.999999999999581
 51
140.00000000000091
  0
LINE
  5
25B
  8
AD4324
 62
     8
 10
196.8154107635211
 20
194.85539167207821
 30
0.0
 11
197.1810822846553
 21
194.5485568335626
 31
0.0
  0
LINE
  5
25C
  8
AD4324
 62
     8
 10
196.6745275582407
 20
194.84306598873499
 30
0.0
 11
196.09601870952261
 21
194.1536259899278
 31
0.0
  0
ARC
  5
25D
  8
AD4324
 62
     8
 10
196.79170441342171
 20
195.3502111619801
 30
0.0
 40
0.1
 50
229.99999999999949
 51
309.99999999999898
  0
LINE
  5
25E
  8
AD4324
 62
     8
 10
196.8559831743905
 20
195.2736067176682
 30
0.0
 11
197.38758120971889
 21
195.71967043304679
 31
0.0
  0
LINE
  5
25F
  8
AD4324
 62
     8
 10
196.72742565245309
 20
195.2736067176682
 30
0.0
 11
196.3494284479759
 21
195.5907840325311
 31
0.0
  0
LINE
  5
260
  8
AD4324
 62
     8
 10
201.89254382322059
 20
194.82837681132941
 30
0.0
 11
202.2354891942266
 21
194.4196704330468
 31
0.0
  0
LINE
  5
261
  8
AD4324
 62
     8
 10
201.93311623421769
 20
195.27360671766809
 30
0.0
 11
202.46471426914761
 21
195.71967043304679
 31
0.0
  0
ARC
  5
262
  8
AD4324
 62
     8
 10
201.81593937890869
 20
194.76409805036079
 30
0.0
 40
0.1
 50
39.999999999999233
 51
140.00000000000111
  0
LINE
  5
263
  8
AD4324
 62
     8
 10
201.7393349345968
 20
194.82837681132941
 30
0.0
 11
201.1731517689513
 21
194.15362598992789
 31
0.0
  0
ARC
  5
264
  8
AD4324
 62
     8
 10
201.8688374732489
 20
195.35021116198001
 30
0.0
 40
0.1
 50
229.99999999999741
 51
309.9999999999996
  0
LINE
  5
265
  8
AD4324
 62
     8
 10
201.80455871228031
 20
195.27360671766809
 30
0.0
 11
201.4265615074045
 21
195.5907840325311
 31
0.0
  0
ARC
  5
266
  8
AD4324
 62
     8
 10
201.5628671440233
 20
195.08478783631719
 30
0.0
 40
0.1
 50
320.00000000000182
 51
49.999999999997122
  0
LINE
  5
267
  8
AD4324
 62
     8
 10
201.6394715883352
 20
195.02050907534851
 30
0.0
 11
201.32410552219761
 21
194.64467043304691
 31
0.0
  0
LINE
  5
268
  8
AD4324
 62
     8
 10
201.62714590499189
 20
195.16139228062909
 30
0.0
 11
201.22996046951491
 21
195.49467043304691
 31
0.0
  0
ARC
  5
269
  8
AD4324
 62
     8
 10
187.4816367253365
 20
200.51967043304691
 30
0.0
 40
0.85
 50
90.0
 51
169.9999999999998
  0
LINE
  5
26A
  8
AD4324
 62
     8
 10
186.59207505812739
 20
200.36967043304679
 30
0.0
 11
191.4661227951789
 21
200.36967043304691
 31
0.0
  0
LINE
  5
26B
  8
AD4324
 62
     8
 10
186.5568096619858
 20
200.16967043304689
 30
0.0
 11
187.57223627387151
 21
200.16967043304689
 31
0.0
  0
LINE
  5
26C
  8
AD4324
 62
     8
 10
186.64455013527609
 20
200.66727138406381
 30
0.0
 11
186.59207505812739
 21
200.36967043304679
 31
0.0
  0
LINE
  5
26D
  8
AD4324
 62
     8
 10
187.4816367253365
 20
201.36967043304679
 30
0.0
 11
191.64244977588729
 21
201.36967043304679
 31
0.0
  0
ARC
  5
26E
  8
AD4324
 62
     8
 10
191.84797115644531
 20
200.51967043304691
 30
0.0
 40
0.85
 50
349.99999999999977
 51
90.0
  0
LINE
  5
26F
  8
AD4324
 62
     8
 10
191.84553509826469
 20
201.36967043304679
 30
0.0
 11
191.84797115644531
 21
201.36967043304679
 31
0.0
  0
LINE
  5
270
  8
AD4324
 62
     8
 10
191.4661227951789
 20
200.36967043304691
 30
0.0
 11
191.6424497758876
 21
201.36967043304679
 31
0.0
  0
ARC
  5
271
  8
AD4324
 62
     8
 10
202.44797115644539
 20
200.51967043304691
 30
0.0
 40
0.85
 50
349.99999999999977
 51
90.0
  0
LINE
  5
272
  8
AD4324
 62
     8
 10
198.08163672533669
 20
201.36967043304679
 30
0.0
 11
202.24244977588751
 21
201.36967043304679
 31
0.0
  0
LINE
  5
273
  8
AD4324
 62
     8
 10
197.1920750581275
 20
200.36967043304679
 30
0.0
 11
202.0661227951791
 21
200.36967043304691
 31
0.0
  0
LINE
  5
274
  8
AD4324
 62
     8
 10
197.1568096619857
 20
200.16967043304689
 30
0.0
 11
198.17223627387139
 21
200.16967043304689
 31
0.0
  0
ARC
  5
275
  8
AD4324
 62
     8
 10
198.08163672533669
 20
200.51967043304691
 30
0.0
 40
0.85
 50
90.0
 51
169.9999999999998
  0
LINE
  5
276
  8
AD4324
 62
     8
 10
197.24455013527631
 20
200.66727138406381
 30
0.0
 11
197.1920750581275
 21
200.36967043304679
 31
0.0
  0
LINE
  5
277
  8
AD4324
 62
     8
 10
202.0661227951791
 20
200.36967043304691
 30
0.0
 11
202.24244977588751
 21
201.36967043304679
 31
0.0
  0
LINE
  5
278
  8
AD4324
 62
     8
 10
202.4455350982646
 20
201.36967043304679
 30
0.0
 11
202.44797115644539
 21
201.36967043304679
 31
0.0
  0
LINE
  5
279
  8
AD4324
 62
     8
 10
137.82656150740439
 20
195.5907840325311
 30
0.0
 11
138.84553509826461
 21
201.36967043304679
 31
0.0
  0
LINE
  5
27A
  8
AD4324
 62
     8
 10
133.78758120971881
 20
195.71967043304679
 30
0.0
 11
134.57223627387151
 21
200.16967043304689
 31
0.0
  0
LINE
  5
27B
  8
AD4324
 62
     8
 10
133.5568096619858
 20
200.16967043304689
 30
0.0
 11
132.7494284479757
 21
195.5907840325311
 31
0.0
  0
LINE
  5
27C
  8
AD4324
 62
     8
 10
138.8647142691475
 20
195.71967043304679
 30
0.0
 11
139.68505774650561
 21
200.37206948203001
 31
0.0
  0
LINE
  5
27D
  8
AD4324
 62
     8
 10
132.37615128962599
 20
185.86967043304691
 30
0.0
 11
136.37615128962599
 21
185.86967043304691
 31
0.0
  0
LINE
  5
27E
  8
AD4324
 62
     8
 10
134.37615128962599
 20
183.86967043304691
 30
0.0
 11
136.37615128962599
 21
185.86967043304691
 31
0.0
  0
LINE
  5
27F
  8
AD4324
 62
     8
 10
132.37615128962599
 20
185.86967043304691
 30
0.0
 11
134.37615128962599
 21
183.86967043304691
 31
0.0
  0
ARC
  5
280
  8
AD4324
 62
     8
 10
132.18145921245991
 20
192.36967043304691
 30
0.0
 40
8.4478194048393505
 50
317.16282624695913
 51
333.81961418243588
  0
ARC
  5
281
  8
AD4324
 62
     8
 10
139.07615128962601
 20
189.36967043304691
 30
0.0
 40
1.0
 50
225.5729959991954
 51
313.35061213530719
  0
CIRCLE
  5
282
  8
AD4324
 62
     8
 10
139.07615128962601
 20
189.36967043304691
 30
0.0
 40
0.7
  0
LINE
  5
283
  8
AD4324
 62
     8
 10
138.29254382322071
 20
194.82837681132941
 30
0.0
 11
138.63548919422669
 21
194.4196704330468
 31
0.0
  0
LINE
  5
284
  8
AD4324
 62
     8
 10
138.33311623421761
 20
195.27360671766809
 30
0.0
 11
138.8647142691477
 21
195.71967043304679
 31
0.0
  0
LINE
  5
285
  8
AD4324
 62
     8
 10
137.6925628645001
 20
189.07206948202989
 30
0.0
 11
138.63548919422669
 21
194.4196704330468
 31
0.0
  0
LINE
  5
286
  8
AD4324
 62
     8
 10
132.4960187095227
 20
194.1536259899278
 30
0.0
 11
131.7318254116532
 21
189.81967043304689
 31
0.0
  0
LINE
  5
287
  8
AD4324
 62
     8
 10
132.74725202353889
 20
189.81967043304689
 30
0.0
 11
133.58108228465511
 21
194.5485568335626
 31
0.0
  0
LINE
  5
288
  8
AD4324
 62
     8
 10
136.75227948945371
 20
189.4982279549842
 30
0.0
 11
137.57315176895139
 21
194.15362598992789
 31
0.0
  0
LINE
  5
289
  8
AD4324
 62
     8
 10
132.6679048822202
 20
189.36967043304691
 30
0.0
 11
136.59907060082989
 21
189.36967043304691
 31
0.0
  0
LINE
  5
28A
  8
AD4324
 62
     8
 10
132.489141843331
 20
188.36967043304691
 30
0.0
 11
136.8554762744397
 21
188.36967043304691
 31
0.0
  0
LINE
  5
28B
  8
AD4324
 62
     8
 10
132.6679048822202
 20
189.36967043304691
 30
0.0
 11
132.72080297643259
 21
189.66967043304689
 31
0.0
  0
LINE
  5
28C
  8
AD4324
 62
     8
 10
131.7318254116532
 20
189.81967043304689
 30
0.0
 11
132.74725202353889
 21
189.81967043304689
 31
0.0
  0
LINE
  5
28D
  8
AD4324
 62
     8
 10
131.70537636454691
 20
189.66967043304689
 30
0.0
 11
132.72080297643259
 21
189.66967043304689
 31
0.0
  0
LINE
  5
28E
  8
AD4324
 62
     8
 10
131.70537636454691
 20
189.66967043304689
 30
0.0
 11
131.65205525327059
 21
189.36727138406371
 31
0.0
  0
ARC
  5
28F
  8
AD4324
 62
     8
 10
132.489141843331
 20
189.21967043304679
 30
0.0
 40
0.85
 50
169.99999999999949
 51
270.0
  0
ARC
  5
290
  8
AD4324
 62
     8
 10
133.81705050352679
 20
187.6406901183104
 30
0.0
 40
4.6706846470453618
 50
347.450787341465
 51
12.549212658535669
  0
ARC
  5
291
  8
AD4324
 62
     8
 10
136.8554762744397
 20
189.21967043304679
 30
0.0
 40
0.85
 50
316.7563270305892
 51
349.99999999999989
  0
ARC
  5
292
  8
AD4324
 62
     8
 10
136.8554762744397
 20
189.21967043304679
 30
0.0
 40
0.85
 50
270.0
 51
303.24367296940977
  0
LINE
  5
293
  8
AD4324
 62
     8
 10
136.59907060082989
 20
189.36967043304691
 30
0.0
 11
137.32144702003799
 21
188.5087757402502
 31
0.0
  0
LINE
  5
294
  8
AD4324
 62
     8
 10
136.75227948945371
 20
189.4982279549842
 30
0.0
 11
137.47465590866179
 21
188.6373332621875
 31
0.0
  0
LINE
  5
295
  8
AD4324
 62
     8
 10
133.83058141675721
 20
195.49467043304679
 30
0.0
 11
137.629960469515
 21
195.49467043304691
 31
0.0
  0
LINE
  5
296
  8
AD4324
 62
     8
 10
133.77768332254479
 20
194.64467043304691
 30
0.0
 11
137.7241055221977
 21
194.64467043304691
 31
0.0
  0
ARC
  5
297
  8
AD4324
 62
     8
 10
133.4532094754845
 20
195.04747704615599
 30
0.0
 40
0.1
 50
130.0000000000002
 51
229.99999999999829
  0
LINE
  5
298
  8
AD4324
 62
     8
 10
133.38893071451591
 20
194.97087260184409
 30
0.0
 11
133.77768332254479
 21
194.64467043304691
 31
0.0
  0
LINE
  5
299
  8
AD4324
 62
     8
 10
133.38893071451591
 20
195.12408149046789
 30
0.0
 11
133.83058141675721
 21
195.49467043304679
 31
0.0
  0
ARC
  5
29A
  8
AD4324
 62
     8
 10
133.1511320025524
 20
194.77878722776629
 30
0.0
 40
0.1
 50
49.999999999999581
 51
140.00000000000091
  0
LINE
  5
29B
  8
AD4324
 62
     8
 10
133.21541076352119
 20
194.85539167207821
 30
0.0
 11
133.58108228465511
 21
194.5485568335626
 31
0.0
  0
LINE
  5
29C
  8
AD4324
 62
     8
 10
133.0745275582405
 20
194.84306598873499
 30
0.0
 11
132.4960187095227
 21
194.1536259899278
 31
0.0
  0
ARC
  5
29D
  8
AD4324
 62
     8
 10
133.1917044134218
 20
195.3502111619801
 30
0.0
 40
0.1
 50
229.99999999999949
 51
309.99999999999898
  0
LINE
  5
29E
  8
AD4324
 62
     8
 10
133.25598317439039
 20
195.2736067176682
 30
0.0
 11
133.78758120971881
 21
195.71967043304679
 31
0.0
  0
LINE
  5
29F
  8
AD4324
 62
     8
 10
133.12742565245321
 20
195.2736067176682
 30
0.0
 11
132.7494284479757
 21
195.5907840325311
 31
0.0
  0
ARC
  5
2A0
  8
AD4324
 62
     8
 10
138.21593937890881
 20
194.76409805036079
 30
0.0
 40
0.1
 50
39.999999999999233
 51
140.00000000000111
  0
LINE
  5
2A1
  8
AD4324
 62
     8
 10
138.13933493459689
 20
194.82837681132941
 30
0.0
 11
137.57315176895139
 21
194.15362598992789
 31
0.0
  0
ARC
  5
2A2
  8
AD4324
 62
     8
 10
138.26883747324899
 20
195.35021116198001
 30
0.0
 40
0.1
 50
229.99999999999741
 51
309.9999999999996
  0
LINE
  5
2A3
  8
AD4324
 62
     8
 10
138.2045587122804
 20
195.27360671766809
 30
0.0
 11
137.82656150740439
 21
195.5907840325311
 31
0.0
  0
ARC
  5
2A4
  8
AD4324
 62
     8
 10
137.96286714402339
 20
195.08478783631719
 30
0.0
 40
0.1
 50
320.00000000000182
 51
49.999999999997122
  0
LINE
  5
2A5
  8
AD4324
 62
     8
 10
138.03947158833529
 20
195.02050907534851
 30
0.0
 11
137.7241055221977
 21
194.64467043304691
 31
0.0
  0
LINE
  5
2A6
  8
AD4324
 62
     8
 10
138.02714590499201
 20
195.16139228062909
 30
0.0
 11
137.629960469515
 21
195.49467043304691
 31
0.0
  0
LINE
  5
2A7
  8
AD4324
 62
     8
 10
138.46612279517899
 20
200.36967043304691
 30
0.0
 11
138.64244977588751
 21
201.36967043304679
 31
0.0
  0
LINE
  5
2A8
  8
AD4324
 62
     8
 10
134.4816367253367
 20
201.36967043304679
 30
0.0
 11
138.64244977588751
 21
201.36967043304679
 31
0.0
  0
LINE
  5
2A9
  8
AD4324
 62
     8
 10
133.5568096619858
 20
200.16967043304689
 30
0.0
 11
134.57223627387151
 21
200.16967043304689
 31
0.0
  0
LINE
  5
2AA
  8
AD4324
 62
     8
 10
133.59207505812759
 20
200.36967043304679
 30
0.0
 11
138.46612279517899
 21
200.36967043304691
 31
0.0
  0
ARC
  5
2AB
  8
AD4324
 62
     8
 10
134.4816367253367
 20
200.51967043304691
 30
0.0
 40
0.85
 50
90.0
 51
169.9999999999998
  0
LINE
  5
2AC
  8
AD4324
 62
     8
 10
133.6445501352764
 20
200.66727138406381
 30
0.0
 11
133.59207505812759
 21
200.36967043304679
 31
0.0
  0
LINE
  5
2AD
  8
AD4324
 62
     8
 10
138.84553509826461
 20
201.36967043304679
 30
0.0
 11
138.8479711564452
 21
201.36967043304679
 31
0.0
  0
ARC
  5
2AE
  8
AD4324
 62
     8
 10
138.8479711564452
 20
200.51967043304691
 30
0.0
 40
0.85
 50
349.99999999999977
 51
90.0
  0
TEXT
  5
2B9
  8
AD4324
 62
     8
 10
128.5352421987169
 20
237.11638503525199
 30
0.0
 40
3.5
  1
軽量
  7
JPN
 72
     1
 11
133.62615128962599
 21
238.86638503525199
 31
0.0
 73
     2
  0
TEXT
  5
2BA
  8
AD4324
 62
     8
 10
162.5352421987167
 20
237.11638503525199
 30
0.0
 40
3.5
  1
正量
  7
JPN
 72
     1
 11
167.6261512896258
 21
238.86638503525199
 31
0.0
 73
     2
  0
TEXT
  5
2BB
  8
AD4324
 62
     8
 10
196.5352421987165
 20
237.11638503525199
 30
0.0
 40
3.5
  1
過量
  7
JPN
 72
     1
 11
201.6261512896256
 21
238.86638503525199
 31
0.0
 73
     2
  0
LINE
  5
2BD
  8
AD4324
 62
     8
 10
125.6261512896257
 20
214.61638503525199
 30
0.0
 11
209.6261512896258
 21
214.61638503525199
 31
0.0
  0
LINE
  5
2BE
  8
AD4324
 62
     8
 10
209.6261512896258
 20
214.61638503525199
 30
0.0
 11
209.6261512896258
 21
216.11638503525199
 31
0.0
  0
LINE
  5
2BF
  8
AD4324
 62
     8
 10
202.62615128962591
 20
214.61638503525199
 30
0.0
 11
202.62615128962591
 21
216.11638503525199
 31
0.0
  0
LINE
  5
2C0
  8
AD4324
 62
     8
 10
195.62615128962591
 20
214.61638503525199
 30
0.0
 11
195.62615128962591
 21
216.11638503525199
 31
0.0
  0
LINE
  5
2C1
  8
AD4324
 62
     8
 10
188.62615128962591
 20
214.61638503525199
 30
0.0
 11
188.62615128962591
 21
216.11638503525199
 31
0.0
  0
LINE
  5
2C2
  8
AD4324
 62
     8
 10
181.62615128962591
 20
214.61638503525199
 30
0.0
 11
181.62615128962591
 21
216.11638503525199
 31
0.0
  0
LINE
  5
2C3
  8
AD4324
 62
     8
 10
174.62615128962571
 20
214.61638503525199
 30
0.0
 11
174.62615128962571
 21
216.11638503525199
 31
0.0
  0
LINE
  5
2C4
  8
AD4324
 62
     8
 10
167.62615128962571
 20
214.61638503525199
 30
0.0
 11
167.62615128962571
 21
216.11638503525199
 31
0.0
  0
LINE
  5
2C5
  8
AD4324
 62
     8
 10
160.6261512896258
 20
214.61638503525199
 30
0.0
 11
160.6261512896258
 21
216.11638503525199
 31
0.0
  0
LINE
  5
2C6
  8
AD4324
 62
     8
 10
153.6261512896258
 20
214.61638503525199
 30
0.0
 11
153.6261512896258
 21
216.11638503525199
 31
0.0
  0
LINE
  5
2C7
  8
AD4324
 62
     8
 10
146.62615128962571
 20
214.61638503525199
 30
0.0
 11
146.62615128962571
 21
216.11638503525199
 31
0.0
  0
LINE
  5
2C8
  8
AD4324
 62
     8
 10
139.62615128962571
 20
214.61638503525199
 30
0.0
 11
139.62615128962571
 21
216.11638503525199
 31
0.0
  0
LINE
  5
2C9
  8
AD4324
 62
     8
 10
132.6261512896258
 20
214.61638503525199
 30
0.0
 11
132.6261512896258
 21
216.11638503525199
 31
0.0
  0
LINE
  5
2CA
  8
AD4324
 62
     8
 10
125.6261512896257
 20
214.61638503525199
 30
0.0
 11
125.6261512896257
 21
216.11638503525199
 31
0.0
  0
LINE
  5
2D5
  8
AD4324
 62
     8
 10
125.6261512896257
 20
206.11638503525199
 30
0.0
 11
125.6261512896257
 21
183.11638503525199
 31
0.0
  0
ARC
  5
2D6
  8
AD4324
 62
     8
 10
127.6261512896257
 20
183.11638503525199
 30
0.0
 40
2.0
 50
180.0
 51
270.0
  0
LINE
  5
2D7
  8
AD4324
 62
     8
 10
127.6261512896257
 20
181.11638503525199
 30
0.0
 11
207.62615128962619
 21
181.11638503525251
 31
0.0
  0
ARC
  5
2D8
  8
AD4324
 62
     8
 10
207.62615128962619
 20
183.11638503525251
 30
0.0
 40
2.0
 50
270.0
 51
0.0
  0
LINE
  5
2D9
  8
AD4324
 62
     8
 10
209.62615128962619
 20
183.11638503525251
 30
0.0
 11
209.62615128962619
 21
206.11638503525239
 31
0.0
  0
ARC
  5
2DA
  8
AD4324
 62
     8
 10
207.62615128962619
 20
206.11638503525239
 30
0.0
 40
2.0
 50
0.0
 51
90.0
  0
LINE
  5
2DB
  8
AD4324
 62
     8
 10
207.62615128962619
 20
208.11638503525239
 30
0.0
 11
127.6261512896257
 21
208.11638503525199
 31
0.0
  0
ARC
  5
2DC
  8
AD4324
 62
     8
 10
127.6261512896257
 20
206.11638503525199
 30
0.0
 40
2.0
 50
90.000000000000185
 51
180.0
  0
TEXT
  5
2DE
  8
AD4324
 62
     8
 10
161.92978765326211
 20
176.0163850352522
 30
0.0
 40
2.7000000000000002
  1
エラ－
 41
0.8
  7
JPN
 72
     1
 11
166.17615128962569
 21
177.36638503525219
 31
0.0
 73
     2
  0
TEXT
  5
2DF
  8
AD4324
 62
     8
 10
173.63433310780749
 20
176.01638503525231
 30
0.0
 40
2.7000000000000002
  1
重量
 41
0.8
  7
JPN
 72
     1
 11
176.77615128962569
 21
177.36638503525231
 31
0.0
 73
     2
  0
TEXT
  5
2E0
  8
AD4324
 62
     8
 10
184.23433310780749
 20
176.0163850352524
 30
0.0
 40
2.7000000000000002
  1
総数
 41
0.8
  7
JPN
 72
     1
 11
187.37615128962571
 21
177.36638503525231
 31
0.0
 73
     2
  0
TEXT
  5
2E1
  8
AD4324
 62
     8
 10
193.2634240168984
 20
176.0163850352524
 30
0.0
 40
2.7000000000000002
  1
正量数
 41
0.8
  7
JPN
 72
     1
 11
197.9761512896257
 21
177.36638503525239
 31
0.0
 73
     2
  0
TEXT
  5
2E2
  8
AD4324
 62
     8
 10
150.86342401689851
 20
176.0163850352522
 30
0.0
 40
2.7000000000000002
  1
動補正
 41
0.8
  7
JPN
 72
     1
 11
155.5761512896257
 21
177.36638503525219
 31
0.0
 73
     2
  0
TEXT
  5
2E3
  8
AD4324
 62
     8
 10
140.26342401689851
 20
176.01638503525211
 30
0.0
 40
2.7000000000000002
  1
風袋引
 41
0.8
  7
JPN
 72
     1
 11
144.9761512896257
 21
177.36638503525211
 31
0.0
 73
     2
  0
TEXT
  5
2E4
  8
AD4324
 62
     8
 10
131.2343331078076
 20
176.07329055898771
 30
0.0
 40
2.7000000000000002
  1
運転
 41
0.8
  7
JPN
 72
     1
 11
134.37615128962571
 21
177.42329055898779
 31
0.0
 73
     2
  0
CIRCLE
  5
2EB
  8
AD4324
 62
     8
 10
225.62615128962599
 20
198.61638503525199
 30
0.0
 40
2.5
  0
CIRCLE
  5
2EC
  8
AD4324
 62
     8
 10
225.62615128962599
 20
189.61638503525199
 30
0.0
 40
2.5
  0
TEXT
  5
2EE
  8
AD4324
 62
     8
 10
212.62615128962619
 20
196.59589323197329
 30
0.0
 40
6.0
  1
kg
 41
0.85
  7
FUTURA
 11
212.62615128962619
 21
194.61638503525199
 31
0.0
 73
     1
  0
TEXT
  5
2EF
  8
AD4324
 62
     8
 10
212.62615128962619
 20
187.61638503525199
 30
0.0
 40
4.0
  1
個
  7
JPN
 11
212.62615128962619
 21
189.61638503525199
 31
0.0
 73
     2
  0
TEXT
  5
2F2
  8
AD4324
 62
     8
 10
269.98978765326228
 20
237.11638503525199
 30
0.0
 40
3.5
  1
基準値
  7
JPN
 72
     1
 11
277.62615128962602
 21
238.86638503525199
 31
0.0
 73
     2
  0
LINE
  5
2F6
  8
AD4324
 62
     8
 10
244.45457841437201
 20
188.44481215999821
 30
0.0
 11
227.79772416487961
 21
171.78795791050581
 31
0.0
  0
ARC
  5
2F9
  8
AD4324
 62
     8
 10
224.9692970401334
 20
174.61638503525199
 30
0.0
 40
4.0
 50
270.0
 51
315.0
  0
LINE
  5
2FE
  8
AD4324
 62
     8
 10
272.62615128962602
 20
198.61638503525199
 30
0.0
 11
252.62615128962599
 21
198.61638503525199
 31
0.0
  0
LINE
  5
2FF
  8
AD4324
 62
     8
 10
252.62615128962599
 20
198.61638503525199
 30
0.0
 11
252.62615128962599
 21
200.11638503525199
 31
0.0
  0
LINE
  5
300
  8
AD4324
 62
     8
 10
272.62615128962602
 20
198.61638503525199
 30
0.0
 11
272.62615128962602
 21
200.11638503525199
 31
0.0
  0
TEXT
  5
302
  8
0
 62
     8
 10
257.5352421987169
 20
193.61638503525199
 30
0.0
 40
3.5
  1
下限
  7
JPN
 72
     1
 11
262.62615128962602
 21
195.36638503525199
 31
0.0
 73
     2
  0
LINE
  5
303
  8
AD4324
 62
     8
 10
282.62615128962602
 20
198.61638503525199
 30
0.0
 11
282.62615128962602
 21
200.11638503525199
 31
0.0
  0
LINE
  5
304
  8
AD4324
 62
     8
 10
302.62615128962602
 20
198.61638503525199
 30
0.0
 11
282.62615128962602
 21
198.61638503525199
 31
0.0
  0
LINE
  5
305
  8
AD4324
 62
     8
 10
302.62615128962602
 20
198.61638503525199
 30
0.0
 11
302.62615128962602
 21
200.11638503525199
 31
0.0
  0
TEXT
  5
306
  8
0
 62
     8
 10
287.5352421987169
 20
193.61638503525199
 30
0.0
 40
3.5
  1
上限
  7
JPN
 72
     1
 11
292.62615128962602
 21
195.36638503525199
 31
0.0
 73
     2
  0
TEXT
  5
318
  8
AD4324
 62
     8
 10
292.31365128962602
 20
157.0567259443429
 30
0.0
 40
3.0
  1
設　定
  7
JPN
 72
     4
 11
298.12615128962602
 21
158.61638503525199
 31
0.0
  0
TEXT
  5
31B
  8
AD4324
 62
     8
 10
226.26251492598951
 20
159.61638503525199
 30
0.0
 40
3.0
  1
表示
  7
JPN
 72
     1
 11
230.62615128962591
 21
161.11638503525199
 31
0.0
 73
     2
  0
TEXT
  5
31C
  8
AD4324
 62
     8
 10
226.26251492598951
 20
154.61638503525199
 30
0.0
 40
3.0
  1
選択
  7
JPN
 72
     1
 11
230.62615128962591
 21
156.11638503525199
 31
0.0
 73
     2
  0
POLYLINE
  5
31D
  8
AD4324
 62
     8
 66
     1
 10
0.0
 20
0.0
 30
0.0
 70
     1
  0
VERTEX
  5
1242
  8
AD4324
 62
     8
 10
222.42615128962581
 20
164.81638503525201
 30
0.0
  0
VERTEX
  5
1243
  8
AD4324
 62
     8
 10
222.42615128962569
 20
152.41638503525201
 30
0.0
  0
VERTEX
  5
1244
  8
AD4324
 62
     8
 10
238.82615128962601
 20
152.41638503525201
 30
0.0
  0
VERTEX
  5
1245
  8
AD4324
 62
     8
 10
238.82615128962601
 20
164.81638503525201
 30
0.0
  0
SEQEND
  5
1246
  8
AD4324
 62
     8
  0
POLYLINE
  5
323
  8
AD4324
 62
     8
 66
     1
 10
0.0
 20
0.0
 30
0.0
 70
     1
  0
VERTEX
  5
1247
  8
AD4324
 62
     8
 10
201.42615128962581
 20
164.81638503525201
 30
0.0
  0
VERTEX
  5
1248
  8
AD4324
 62
     8
 10
201.42615128962581
 20
152.41638503525201
 30
0.0
  0
VERTEX
  5
1249
  8
AD4324
 62
     8
 10
217.82615128962601
 20
152.41638503525201
 30
0.0
  0
VERTEX
  5
124A
  8
AD4324
 62
     8
 10
217.82615128962601
 20
164.81638503525201
 30
0.0
  0
SEQEND
  5
124B
  8
AD4324
 62
     8
  0
POLYLINE
  5
329
  8
AD4324
 62
     8
 66
     1
 10
0.0
 20
0.0
 30
0.0
 70
     1
  0
VERTEX
  5
124C
  8
AD4324
 62
     8
 10
180.42615128962581
 20
164.81638503525201
 30
0.0
  0
VERTEX
  5
124D
  8
AD4324
 62
     8
 10
180.42615128962581
 20
152.41638503525201
 30
0.0
  0
VERTEX
  5
124E
  8
AD4324
 62
     8
 10
196.82615128962601
 20
152.41638503525201
 30
0.0
  0
VERTEX
  5
124F
  8
AD4324
 62
     8
 10
196.82615128962601
 20
164.81638503525201
 30
0.0
  0
SEQEND
  5
1250
  8
AD4324
 62
     8
  0
POLYLINE
  5
32F
  8
AD4324
 62
     8
 66
     1
 10
0.0
 20
0.0
 30
0.0
 70
     1
  0
VERTEX
  5
1251
  8
AD4324
 62
     8
 10
159.42615128962569
 20
164.81638503525201
 30
0.0
  0
VERTEX
  5
1252
  8
AD4324
 62
     8
 10
159.42615128962581
 20
152.41638503525201
 30
0.0
  0
VERTEX
  5
1253
  8
AD4324
 62
     8
 10
175.82615128962601
 20
152.41638503525201
 30
0.0
  0
VERTEX
  5
1254
  8
AD4324
 62
     8
 10
175.8261512896257
 20
164.81638503525201
 30
0.0
  0
SEQEND
  5
1255
  8
AD4324
 62
     8
  0
POLYLINE
  5
335
  8
AD4324
 62
     8
 66
     1
 10
0.0
 20
0.0
 30
0.0
 70
     1
  0
VERTEX
  5
1256
  8
AD4324
 62
     8
 10
286.92615128962598
 20
164.61638503525199
 30
0.0
  0
VERTEX
  5
1257
  8
AD4324
 62
     8
 10
286.92615128962598
 20
152.61638503525199
 30
0.0
 42
0.414213562373041
  0
VERTEX
  5
1258
  8
AD4324
 62
     8
 10
287.12615128962602
 20
152.41638503525201
 30
0.0
  0
VERTEX
  5
1259
  8
AD4324
 62
     8
 10
309.12615128962602
 20
152.41638503525201
 30
0.0
 42
0.414213562373041
  0
VERTEX
  5
125A
  8
AD4324
 62
     8
 10
309.3261512896259
 20
152.61638503525199
 30
0.0
  0
VERTEX
  5
125B
  8
AD4324
 62
     8
 10
309.32615128962601
 20
164.61638503525199
 30
0.0
 42
0.4142135623731243
  0
VERTEX
  5
125C
  8
AD4324
 62
     8
 10
309.12615128962602
 20
164.81638503525201
 30
0.0
  0
VERTEX
  5
125D
  8
AD4324
 62
     8
 10
287.12615128962602
 20
164.81638503525201
 30
0.0
 42
0.414213562373041
  0
SEQEND
  5
125E
  8
AD4324
 62
     8
  0
TEXT
  5
34B
  8
AD4324
 62
     8
 10
205.26251492598951
 20
159.61638503525199
 30
0.0
 40
3.0
  1
個数
  7
JPN
 72
     1
 11
209.6261512896258
 21
161.11638503525199
 31
0.0
 73
     2
  0
TEXT
  5
34C
  8
AD4324
 62
     8
 10
204.28240128962591
 20
154.61638503525199
 30
0.0
 40
3.0
  1
クリア
  7
JPN
 72
     1
 11
209.6261512896258
 21
156.11638503525199
 31
0.0
 73
     2
  0
TEXT
  5
34E
  8
AD4324
 62
     8
 10
182.08069674417129
 20
157.0822941261612
 30
0.0
 40
3.0
  1
風袋引
  7
JPN
 72
     4
 11
188.62615128962591
 21
158.61638503525211
 31
0.0
  0
TEXT
  5
34F
  8
AD4324
 62
     8
 10
163.60342401689849
 20
156.8521804897976
 30
0.0
 40
3.0
  1
ゼロ
  7
JPN
 72
     4
 11
167.62615128962571
 21
158.61638503525211
 31
0.0
  0
TEXT
  5
350
  8
AD4324
 62
     8
 10
121.47707342077319
 20
160.16638503525201
 30
0.0
 40
3.5
  1
ON
  7
FUTURA
 72
     1
 11
125.6261512896256
 21
161.91638503525201
 31
0.0
 73
     2
  0
TEXT
  5
351
  8
AD4324
 62
     8
 10
120.8793958251448
 20
153.56638503525201
 30
0.0
 40
3.5
  1
OFF
  7
FUTURA
 72
     1
 11
125.6261512896256
 21
155.31638503525201
 31
0.0
 73
     2
  0
LINE
  5
352
  8
AD4324
 62
     8
 10
117.42615128962569
 20
159.0163850352522
 30
0.0
 11
133.82615128962581
 21
159.0163850352522
 31
0.0
  0
LINE
  5
353
  8
AD4324
 62
     8
 10
117.42615128962569
 20
158.2163850352523
 30
0.0
 11
133.82615128962601
 21
158.21638503525219
 31
0.0
  0
POLYLINE
  5
35A
  8
AD4324
 62
     8
 66
     1
 10
0.0
 20
0.0
 30
0.0
  0
VERTEX
  5
125F
  8
AD4324
 62
     8
 10
133.82615128962581
 20
159.0163850352522
 30
0.0
  0
VERTEX
  5
1260
  8
AD4324
 62
     8
 10
133.8261512896257
 20
164.81638503525201
 30
0.0
  0
VERTEX
  5
1261
  8
AD4324
 62
     8
 10
117.42615128962549
 20
164.81638503525201
 30
0.0
  0
SEQEND
  5
1262
  8
AD4324
 62
     8
  0
POLYLINE
  5
35F
  8
AD4324
 62
     8
 66
     1
 10
0.0
 20
0.0
 30
0.0
  0
VERTEX
  5
1263
  8
AD4324
 62
     8
 10
117.42615128962549
 20
164.81638503525201
 30
0.0
  0
VERTEX
  5
1264
  8
AD4324
 62
     8
 10
117.42615128962559
 20
159.0163850352522
 30
0.0
  0
SEQEND
  5
1265
  8
AD4324
 62
     8
  0
POLYLINE
  5
363
  8
AD4324
 62
     8
 66
     1
 10
0.0
 20
0.0
 30
0.0
  0
VERTEX
  5
1266
  8
AD4324
 62
     8
 10
117.42615128962569
 20
158.2163850352523
 30
0.0
  0
VERTEX
  5
1267
  8
AD4324
 62
     8
 10
117.42615128962569
 20
152.41638503525201
 30
0.0
  0
VERTEX
  5
1268
  8
AD4324
 62
     8
 10
133.82615128962601
 20
152.41638503525201
 30
0.0
  0
VERTEX
  5
1269
  8
AD4324
 62
     8
 10
133.8261512896259
 20
158.21638503525219
 30
0.0
  0
SEQEND
  5
126A
  8
AD4324
 62
     8
  0
TEXT
  5
369
  8
AD4324
 62
     8
 10
142.26251492598931
 20
153.81638503525201
 30
0.0
 40
3.0
  1
停止
  7
JPN
 72
     1
 11
146.6261512896256
 21
155.31638503525201
 31
0.0
 73
     2
  0
TEXT
  5
36A
  8
AD4324
 62
     8
 10
142.26251492598931
 20
160.41638503525201
 30
0.0
 40
3.0
  1
運転
  7
JPN
 72
     1
 11
146.6261512896256
 21
161.91638503525201
 31
0.0
 73
     2
  0
POLYLINE
  5
36B
  8
AD4324
 62
     8
 66
     1
 10
0.0
 20
0.0
 30
0.0
  0
VERTEX
  5
126B
  8
AD4324
 62
     8
 10
138.42615128962561
 20
158.2163850352523
 30
0.0
  0
VERTEX
  5
126C
  8
AD4324
 62
     8
 10
138.42615128962581
 20
152.41638503525201
 30
0.0
  0
VERTEX
  5
126D
  8
AD4324
 62
     8
 10
154.82615128962601
 20
152.41638503525201
 30
0.0
  0
VERTEX
  5
126E
  8
AD4324
 62
     8
 10
154.82615128962581
 20
158.21638503525219
 30
0.0
  0
SEQEND
  5
126F
  8
AD4324
 62
     8
  0
POLYLINE
  5
371
  8
AD4324
 62
     8
 66
     1
 10
0.0
 20
0.0
 30
0.0
  0
VERTEX
  5
1270
  8
AD4324
 62
     8
 10
138.42615128962549
 20
164.81638503525201
 30
0.0
  0
VERTEX
  5
1271
  8
AD4324
 62
     8
 10
138.42615128962561
 20
159.0163850352522
 30
0.0
  0
SEQEND
  5
1272
  8
AD4324
 62
     8
  0
POLYLINE
  5
375
  8
AD4324
 62
     8
 66
     1
 10
0.0
 20
0.0
 30
0.0
  0
VERTEX
  5
1273
  8
AD4324
 62
     8
 10
154.82615128962581
 20
159.0163850352522
 30
0.0
  0
VERTEX
  5
1274
  8
AD4324
 62
     8
 10
154.8261512896257
 20
164.8163850352521
 30
0.0
  0
VERTEX
  5
1275
  8
AD4324
 62
     8
 10
138.42615128962549
 20
164.81638503525201
 30
0.0
  0
SEQEND
  5
1276
  8
AD4324
 62
     8
  0
LINE
  5
37A
  8
AD4324
 62
     8
 10
138.42615128962569
 20
158.2163850352523
 30
0.0
 11
154.82615128962581
 21
158.21638503525219
 31
0.0
  0
LINE
  5
37B
  8
AD4324
 62
     8
 10
138.42615128962549
 20
159.0163850352522
 30
0.0
 11
154.82615128962581
 21
159.0163850352522
 31
0.0
  0
POLYLINE
  5
37C
  8
AD4324
 62
     8
 66
     1
 10
0.0
 20
0.0
 30
0.0
 70
     1
  0
VERTEX
  5
1277
  8
AD4324
 62
     8
 10
137.62615128962551
 20
164.8163850352523
 30
0.0
  0
VERTEX
  5
1278
  8
AD4324
 62
     8
 10
137.6261512896258
 20
152.4163850352522
 30
0.0
 42
0.4142135623730951
  0
VERTEX
  5
1279
  8
AD4324
 62
     8
 10
138.42615128962569
 20
151.61638503525199
 30
0.0
  0
VERTEX
  5
127A
  8
AD4324
 62
     8
 10
154.82615128962601
 20
151.61638503525199
 30
0.0
 42
0.4142135623730951
  0
VERTEX
  5
127B
  8
AD4324
 62
     8
 10
155.62615128962599
 20
152.4163850352522
 30
0.0
  0
VERTEX
  5
127C
  8
AD4324
 62
     8
 10
155.6261512896258
 20
164.8163850352523
 30
0.0
 42
0.4142135623730951
  0
VERTEX
  5
127D
  8
AD4324
 62
     8
 10
154.82615128962581
 20
165.61638503525199
 30
0.0
  0
VERTEX
  5
127E
  8
AD4324
 62
     8
 10
138.42615128962549
 20
165.61638503525199
 30
0.0
 42
0.4142135623730951
  0
SEQEND
  5
127F
  8
AD4324
 62
     8
  0
POLYLINE
  5
4B3
  8
0
 62
     9
 66
     1
 10
0.0
 20
0.0
 30
0.0
 70
     1
  0
VERTEX
  5
129E
  8
0
 62
     9
 10
0.0
 20
0.0
 30
0.0
  0
VERTEX
  5
129F
  8
0
 62
     9
 10
840.0
 20
0.0
 30
0.0
  0
VERTEX
  5
12A0
  8
0
 62
     9
 10
840.0
 20
594.0
 30
0.0
  0
VERTEX
  5
12A1
  8
0
 62
     9
 10
0.0
 20
594.0
 30
0.0
  0
SEQEND
  5
12A2
  8
0
 62
     9
  0
LINE
  5
859
  8
AD4324
 62
     8
 10
684.07069139011264
 20
447.54834377020819
 30
0.0
 11
684.07069139011173
 21
435.04834377020819
 31
0.0
  0
LINE
  5
85A
  8
AD4324
 62
     8
 10
714.57069139011355
 20
447.54834377020819
 30
0.0
 11
714.57069139011264
 21
435.04834377020819
 31
0.0
  0
ARC
  5
85B
  8
AD4324
 62
     8
 10
717.12346702784487
 20
441.27663780479219
 30
0.0
 40
6.0
 50
303.64728290645547
 51
39.595661983161307
  0
LINE
  5
85C
  8
AD4324
 62
     8
 10
687.3084582347642
 20
445.27663780479219
 30
0.0
 11
687.3084582347642
 21
433.2766378047931
 31
0.0
  0
LINE
  5
85D
  8
AD4324
 62
     8
 10
711.30845823476318
 20
445.27663780479043
 30
0.0
 11
711.30845823476318
 21
433.27663780479219
 31
0.0
  0
ARC
  5
85E
  8
AD4324
 62
     8
 10
681.32069139011264
 20
441.27663780479219
 30
0.0
 40
6.0
 50
123.2249806164786
 51
236.77501938352401
  0
LINE
  5
93E
  8
AD4324
 62
     8
 10
687.3084582347642
 20
433.2766378047931
 30
0.0
 11
711.30845823476409
 21
433.27663780479219
 31
0.0
  0
LINE
  5
93F
  8
AD4324
 62
     8
 10
689.07069139011173
 20
430.04834377020819
 30
0.0
 11
709.57069139011264
 21
430.04834377020819
 31
0.0
  0
ARC
  5
940
  8
AD4324
 62
     8
 10
709.57069139011264
 20
435.04834377020819
 30
0.0
 40
5.0
 50
270.0
 51
0.0
  0
LINE
  5
941
  8
AD4324
 62
     8
 10
720.44793936374617
 20
436.28185215495478
 30
0.0
 11
712.34108500336367
 21
430.88602239534288
 31
0.0
  0
ARC
  5
942
  8
AD4324
 62
     8
 10
689.07069139011173
 20
435.04834377020819
 30
0.0
 40
5.0
 50
180.0
 51
270.0
  0
LINE
  5
943
  8
AD4324
 62
     8
 10
686.33105141179612
 20
430.8223043411158
 30
0.0
 11
678.03312341613264
 21
436.25748480687929
 31
0.0
  0
LINE
  5
9E7
  8
AD4324
 62
     8
 10
681.07069139011276
 20
441.62663780479232
 30
0.0
 11
680.51069139011247
 21
441.62663780479232
 31
0.0
  0
LINE
  5
9E8
  8
AD4324
 62
     8
 10
680.51069139011247
 20
441.62663780479232
 30
0.0
 11
679.91569139011244
 21
441.87163780479199
 31
0.0
  0
LINE
  5
9E9
  8
AD4324
 62
     8
 10
679.91569139011244
 20
441.87163780479199
 30
0.0
 11
679.67069139011289
 21
442.46663780479219
 31
0.0
  0
LINE
  5
9EA
  8
AD4324
 62
     8
 10
679.67069139011289
 20
442.46663780479219
 30
0.0
 11
679.67069139011289
 21
443.02663780479219
 31
0.0
  0
LINE
  5
9EB
  8
AD4324
 62
     8
 10
678.1306913901127
 20
441.62663780479238
 30
0.0
 11
677.57069139011264
 21
441.62663780479238
 31
0.0
  0
LINE
  5
9EC
  8
AD4324
 62
     8
 10
678.72569139011284
 20
441.87163780479199
 30
0.0
 11
678.1306913901127
 21
441.62663780479238
 31
0.0
  0
LINE
  5
9ED
  8
AD4324
 62
     8
 10
678.97069139011251
 20
442.46663780479219
 30
0.0
 11
678.72569139011284
 21
441.87163780479199
 31
0.0
  0
LINE
  5
9EE
  8
AD4324
 62
     8
 10
678.97069139011251
 20
443.02663780479247
 30
0.0
 11
678.97069139011251
 21
442.46663780479219
 31
0.0
  0
LINE
  5
9EF
  8
AD4324
 62
     8
 10
678.97069139011251
 20
443.02663780479247
 30
0.0
 11
679.67069139011289
 21
443.02663780479219
 31
0.0
  0
LINE
  5
9F0
  8
AD4324
 62
     8
 10
678.97069139011239
 20
440.0866378047923
 30
0.0
 11
678.97069139011239
 21
439.52663780479219
 31
0.0
  0
LINE
  5
9F1
  8
AD4324
 62
     8
 10
678.72569139011284
 20
440.68163780479239
 30
0.0
 11
678.97069139011239
 21
440.0866378047923
 31
0.0
  0
LINE
  5
9F2
  8
AD4324
 62
     8
 10
678.1306913901127
 20
440.92663780479211
 30
0.0
 11
678.72569139011284
 21
440.68163780479239
 31
0.0
  0
LINE
  5
9F3
  8
AD4324
 62
     8
 10
677.57069139011242
 20
440.92663780479211
 30
0.0
 11
678.1306913901127
 21
440.92663780479211
 31
0.0
  0
LINE
  5
9F4
  8
AD4324
 62
     8
 10
680.51069139011247
 20
440.92663780479171
 30
0.0
 11
681.07069139011264
 21
440.92663780479171
 31
0.0
  0
LINE
  5
9F5
  8
AD4324
 62
     8
 10
679.91569139011244
 20
440.6816378047921
 30
0.0
 11
680.51069139011247
 21
440.92663780479171
 31
0.0
  0
LINE
  5
9F6
  8
AD4324
 62
     8
 10
679.67069139011267
 20
440.08663780479208
 30
0.0
 11
679.91569139011244
 21
440.6816378047921
 31
0.0
  0
LINE
  5
9F7
  8
AD4324
 62
     8
 10
679.67069139011267
 20
439.52663780479168
 30
0.0
 11
679.67069139011267
 21
440.08663780479208
 31
0.0
  0
LINE
  5
9F8
  8
AD4324
 62
     8
 10
678.97069139011239
 20
439.52663780479219
 30
0.0
 11
679.67069139011267
 21
439.52663780479168
 31
0.0
  0
LINE
  5
9F9
  8
AD4324
 62
     8
 10
681.07069139011276
 20
441.62663780479232
 30
0.0
 11
681.07069139011264
 21
440.92663780479171
 31
0.0
  0
LINE
  5
9FA
  8
AD4324
 62
     8
 10
677.57069139011264
 20
441.62663780479238
 30
0.0
 11
677.57069139011242
 21
440.92663780479211
 31
0.0
  0
CIRCLE
  5
9FB
  8
AD4324
 62
     8
 10
679.32069139011264
 20
441.27663780479219
 30
0.0
 40
2.75
  0
LINE
  5
A26
  8
AD4324
 62
     8
 10
721.07069139011287
 20
441.62663780479232
 30
0.0
 11
720.51069139011258
 21
441.62663780479232
 31
0.0
  0
LINE
  5
A27
  8
AD4324
 62
     8
 10
720.51069139011258
 20
441.62663780479232
 30
0.0
 11
719.91569139011244
 21
441.87163780479199
 31
0.0
  0
LINE
  5
A28
  8
AD4324
 62
     8
 10
719.91569139011244
 20
441.87163780479199
 30
0.0
 11
719.67069139011278
 21
442.46663780479219
 31
0.0
  0
LINE
  5
A29
  8
AD4324
 62
     8
 10
719.67069139011278
 20
442.46663780479219
 30
0.0
 11
719.67069139011278
 21
443.02663780479219
 31
0.0
  0
LINE
  5
A2A
  8
AD4324
 62
     8
 10
718.1306913901127
 20
441.62663780479238
 30
0.0
 11
717.57069139011264
 21
441.62663780479238
 31
0.0
  0
LINE
  5
A2B
  8
AD4324
 62
     8
 10
718.72569139011284
 20
441.87163780479199
 30
0.0
 11
718.1306913901127
 21
441.62663780479238
 31
0.0
  0
LINE
  5
A2C
  8
AD4324
 62
     8
 10
718.97069139011251
 20
442.46663780479219
 30
0.0
 11
718.72569139011284
 21
441.87163780479199
 31
0.0
  0
LINE
  5
A2D
  8
AD4324
 62
     8
 10
718.97069139011251
 20
443.02663780479247
 30
0.0
 11
718.97069139011251
 21
442.46663780479219
 31
0.0
  0
LINE
  5
A2E
  8
AD4324
 62
     8
 10
718.97069139011251
 20
443.02663780479247
 30
0.0
 11
719.67069139011278
 21
443.02663780479219
 31
0.0
  0
LINE
  5
A2F
  8
AD4324
 62
     8
 10
718.97069139011228
 20
440.0866378047923
 30
0.0
 11
718.97069139011228
 21
439.52663780479219
 31
0.0
  0
LINE
  5
A30
  8
AD4324
 62
     8
 10
718.72569139011284
 20
440.68163780479239
 30
0.0
 11
718.97069139011228
 21
440.0866378047923
 31
0.0
  0
LINE
  5
A31
  8
AD4324
 62
     8
 10
718.1306913901127
 20
440.92663780479211
 30
0.0
 11
718.72569139011284
 21
440.68163780479239
 31
0.0
  0
LINE
  5
A32
  8
AD4324
 62
     8
 10
717.57069139011242
 20
440.92663780479211
 30
0.0
 11
718.1306913901127
 21
440.92663780479211
 31
0.0
  0
LINE
  5
A33
  8
AD4324
 62
     8
 10
720.51069139011258
 20
440.92663780479171
 30
0.0
 11
721.07069139011264
 21
440.92663780479171
 31
0.0
  0
LINE
  5
A34
  8
AD4324
 62
     8
 10
719.91569139011244
 20
440.6816378047921
 30
0.0
 11
720.51069139011258
 21
440.92663780479171
 31
0.0
  0
LINE
  5
A35
  8
AD4324
 62
     8
 10
719.67069139011267
 20
440.08663780479208
 30
0.0
 11
719.91569139011244
 21
440.6816378047921
 31
0.0
  0
LINE
  5
A36
  8
AD4324
 62
     8
 10
719.67069139011267
 20
439.52663780479168
 30
0.0
 11
719.67069139011267
 21
440.08663780479208
 31
0.0
  0
LINE
  5
A37
  8
AD4324
 62
     8
 10
718.97069139011228
 20
439.52663780479219
 30
0.0
 11
719.67069139011267
 21
439.52663780479168
 31
0.0
  0
LINE
  5
A38
  8
AD4324
 62
     8
 10
721.07069139011287
 20
441.62663780479232
 30
0.0
 11
721.07069139011264
 21
440.92663780479171
 31
0.0
  0
LINE
  5
A39
  8
AD4324
 62
     8
 10
717.57069139011264
 20
441.62663780479238
 30
0.0
 11
717.57069139011242
 21
440.92663780479211
 31
0.0
  0
CIRCLE
  5
A3A
  8
AD4324
 62
     8
 10
719.32069139011264
 20
441.27663780479219
 30
0.0
 40
2.75
  0
LINE
  5
A4C
  8
AD4324
 62
     8
 10
681.07069139011276
 20
441.62663780479232
 30
0.0
 11
680.51069139011247
 21
441.62663780479232
 31
0.0
  0
LINE
  5
A4D
  8
AD4324
 62
     8
 10
680.51069139011247
 20
441.62663780479232
 30
0.0
 11
679.91569139011244
 21
441.87163780479199
 31
0.0
  0
LINE
  5
A4E
  8
AD4324
 62
     8
 10
679.91569139011244
 20
441.87163780479199
 30
0.0
 11
679.67069139011289
 21
442.46663780479219
 31
0.0
  0
LINE
  5
A4F
  8
AD4324
 62
     8
 10
679.67069139011289
 20
442.46663780479219
 30
0.0
 11
679.67069139011289
 21
443.02663780479219
 31
0.0
  0
LINE
  5
A50
  8
AD4324
 62
     8
 10
678.1306913901127
 20
441.62663780479238
 30
0.0
 11
677.57069139011264
 21
441.62663780479238
 31
0.0
  0
LINE
  5
A51
  8
AD4324
 62
     8
 10
678.72569139011284
 20
441.87163780479199
 30
0.0
 11
678.1306913901127
 21
441.62663780479238
 31
0.0
  0
LINE
  5
A52
  8
AD4324
 62
     8
 10
678.97069139011251
 20
442.46663780479219
 30
0.0
 11
678.72569139011284
 21
441.87163780479199
 31
0.0
  0
LINE
  5
A53
  8
AD4324
 62
     8
 10
678.97069139011251
 20
443.02663780479247
 30
0.0
 11
678.97069139011251
 21
442.46663780479219
 31
0.0
  0
LINE
  5
A54
  8
AD4324
 62
     8
 10
678.97069139011251
 20
443.02663780479247
 30
0.0
 11
679.67069139011289
 21
443.02663780479219
 31
0.0
  0
LINE
  5
A55
  8
AD4324
 62
     8
 10
678.97069139011239
 20
440.0866378047923
 30
0.0
 11
678.97069139011239
 21
439.52663780479219
 31
0.0
  0
LINE
  5
A56
  8
AD4324
 62
     8
 10
678.72569139011284
 20
440.68163780479239
 30
0.0
 11
678.97069139011239
 21
440.0866378047923
 31
0.0
  0
LINE
  5
A57
  8
AD4324
 62
     8
 10
678.1306913901127
 20
440.92663780479211
 30
0.0
 11
678.72569139011284
 21
440.68163780479239
 31
0.0
  0
LINE
  5
A58
  8
AD4324
 62
     8
 10
677.57069139011242
 20
440.92663780479211
 30
0.0
 11
678.1306913901127
 21
440.92663780479211
 31
0.0
  0
LINE
  5
A59
  8
AD4324
 62
     8
 10
680.51069139011247
 20
440.92663780479171
 30
0.0
 11
681.07069139011264
 21
440.92663780479171
 31
0.0
  0
LINE
  5
A5A
  8
AD4324
 62
     8
 10
679.91569139011244
 20
440.6816378047921
 30
0.0
 11
680.51069139011247
 21
440.92663780479171
 31
0.0
  0
LINE
  5
A5B
  8
AD4324
 62
     8
 10
679.67069139011267
 20
440.08663780479208
 30
0.0
 11
679.91569139011244
 21
440.6816378047921
 31
0.0
  0
LINE
  5
A5C
  8
AD4324
 62
     8
 10
679.67069139011267
 20
439.52663780479168
 30
0.0
 11
679.67069139011267
 21
440.08663780479208
 31
0.0
  0
LINE
  5
A5D
  8
AD4324
 62
     8
 10
678.97069139011239
 20
439.52663780479219
 30
0.0
 11
679.67069139011267
 21
439.52663780479168
 31
0.0
  0
LINE
  5
A5E
  8
AD4324
 62
     8
 10
681.07069139011276
 20
441.62663780479232
 30
0.0
 11
681.07069139011264
 21
440.92663780479171
 31
0.0
  0
LINE
  5
A5F
  8
AD4324
 62
     8
 10
677.57069139011264
 20
441.62663780479238
 30
0.0
 11
677.57069139011242
 21
440.92663780479211
 31
0.0
  0
TEXT
  5
A60
  8
AD4324
 62
     8
 10
691.69508563148656
 20
454.28301235358367
 30
0.0
 40
2.5
  1
AC100V
  7
AD-STANDARD
  0
ARC
  5
A61
  8
AD4324
 62
     8
 10
709.57069139011355
 20
447.54834377020819
 30
0.0
 40
5.0
 50
0.0
 51
90.0
  0
LINE
  5
A62
  8
AD4324
 62
     8
 10
689.07069139011264
 20
452.54834377020819
 30
0.0
 11
709.57069139011355
 21
452.54834377020819
 31
0.0
  0
LINE
  5
A63
  8
AD4324
 62
     8
 10
712.28586505773035
 20
451.73097126846682
 30
0.0
 11
720.58379305339304
 21
446.29579080270139
 31
0.0
  0
LINE
  5
A64
  8
AD4324
 62
     8
 10
720.53780320209853
 20
446.32591436385007
 30
0.0
 11
721.74683603770745
 21
445.10083170660209
 31
0.0
  0
LINE
  5
A65
  8
AD4324
 62
     8
 10
687.3084582347642
 20
445.27663780479219
 30
0.0
 11
691.3084582347642
 21
449.27663780479219
 31
0.0
  0
LINE
  5
A66
  8
AD4324
 62
     8
 10
691.3084582347642
 20
449.27663780479219
 30
0.0
 11
707.30845823476409
 21
449.27663780479043
 31
0.0
  0
LINE
  5
A67
  8
AD4324
 62
     8
 10
707.30845823476409
 20
449.27663780479043
 30
0.0
 11
711.30845823476318
 21
445.27663780479043
 31
0.0
  0
LINE
  5
A68
  8
AD4324
 62
     8
 10
691.32069139011264
 20
437.27663780479219
 30
0.0
 11
693.32069139011264
 21
437.27663780479219
 31
0.0
  0
POLYLINE
  5
A69
  8
AD4324
 62
     8
 66
     1
 10
0.0
 20
0.0
 30
0.0
  0
VERTEX
  5
12A3
  8
AD4324
 62
     8
 10
691.32069139011264
 20
437.27663780479219
 30
0.0
  0
VERTEX
  5
12A4
  8
AD4324
 62
     8
 10
691.32069139011264
 20
441.27663780479219
 30
0.0
  0
VERTEX
  5
12A5
  8
AD4324
 62
     8
 10
693.32069139011264
 20
441.27663780479219
 30
0.0
  0
VERTEX
  5
12A6
  8
AD4324
 62
     8
 10
693.32069139011264
 20
437.27663780479219
 30
0.0
  0
SEQEND
  5
12A7
  8
AD4324
 62
     8
  0
POLYLINE
  5
A6A
  8
AD4324
 62
     8
 66
     1
 10
0.0
 20
0.0
 30
0.0
  0
VERTEX
  5
12A8
  8
AD4324
 62
     8
 10
700.32069139011264
 20
445.27663780479219
 30
0.0
  0
VERTEX
  5
12A9
  8
AD4324
 62
     8
 10
700.32069139011264
 20
441.27663780479219
 30
0.0
  0
VERTEX
  5
12AA
  8
AD4324
 62
     8
 10
698.32069139011264
 20
441.27663780479219
 30
0.0
  0
VERTEX
  5
12AB
  8
AD4324
 62
     8
 10
698.32069139011264
 20
445.27663780479219
 30
0.0
  0
SEQEND
  5
12AC
  8
AD4324
 62
     8
  0
LINE
  5
A6B
  8
AD4324
 62
     8
 10
698.32069139011264
 20
445.27663780479219
 30
0.0
 11
700.32069139011264
 21
445.27663780479219
 31
0.0
  0
LINE
  5
A6C
  8
AD4324
 62
     8
 10
705.32069139011264
 20
437.27663780479219
 30
0.0
 11
707.32069139011264
 21
437.27663780479219
 31
0.0
  0
POLYLINE
  5
A6D
  8
AD4324
 62
     8
 66
     1
 10
0.0
 20
0.0
 30
0.0
  0
VERTEX
  5
12AD
  8
AD4324
 62
     8
 10
705.32069139011264
 20
437.27663780479219
 30
0.0
  0
VERTEX
  5
12AE
  8
AD4324
 62
     8
 10
705.32069139011264
 20
441.27663780479219
 30
0.0
  0
VERTEX
  5
12AF
  8
AD4324
 62
     8
 10
707.32069139011264
 20
441.27663780479219
 30
0.0
  0
VERTEX
  5
12B0
  8
AD4324
 62
     8
 10
707.32069139011264
 20
437.27663780479219
 30
0.0
  0
SEQEND
  5
12B1
  8
AD4324
 62
     8
  0
ARC
  5
A6E
  8
AD4324
 62
     8
 10
689.07069139011264
 20
447.54834377020819
 30
0.0
 40
5.0
 50
90.0
 51
180.0
  0
LINE
  5
A6F
  8
AD4324
 62
     8
 10
686.33105141179612
 20
451.73097126846869
 30
0.0
 11
678.03312341613264
 21
446.29579080270508
 31
0.0
  0
LINE
  5
A85
  8
AD4324
 62
     8
 10
521.82069139011264
 20
491.77663780479219
 30
0.0
 11
521.82069139011264
 21
361.27663780479219
 31
0.0
  0
LINE
  5
A86
  8
AD4324
 10
521.82069139011264
 20
361.27663780479219
 30
0.0
 11
736.82069139011264
 21
361.27663780479219
 31
0.0
  0
LINE
  5
A87
  8
AD4324
 62
     8
 10
736.82069139011264
 20
361.27663780479219
 30
0.0
 11
736.82069139011264
 21
491.77663780479207
 31
0.0
  0
LINE
  5
A88
  8
AD4324
 62
     8
 10
733.82069139011264
 20
494.77663780479207
 30
0.0
 11
524.82069139011264
 21
494.77663780479219
 31
0.0
  0
LINE
  5
A8C
  8
AD4324
 62
     8
 10
544.82069139011264
 20
453.27663780479219
 30
0.0
 11
613.82069139011264
 21
453.27663780479219
 31
0.0
  0
ARC
  5
A8D
  8
AD4324
 62
     8
 10
613.82069139011264
 20
461.27663780479219
 30
0.0
 40
8.0
 50
0.0
 51
90.0
  0
LINE
  5
A8E
  8
AD4324
 62
     8
 10
544.82069139011264
 20
469.27663780479219
 30
0.0
 11
613.82069139011264
 21
469.27663780479219
 31
0.0
  0
ARC
  5
A8F
  8
AD4324
 62
     8
 10
613.82069139011264
 20
461.27663780479219
 30
0.0
 40
8.0
 50
270.0
 51
0.0
  0
ARC
  5
A90
  8
AD4324
 62
     8
 10
544.82069139011264
 20
461.27663780479219
 30
0.0
 40
8.0
 50
90.0
 51
180.0
  0
ARC
  5
A91
  8
AD4324
 62
     8
 10
544.82069139011264
 20
461.27663780479219
 30
0.0
 40
8.0
 50
180.0
 51
270.0
  0
LINE
  5
A92
  8
AD4324
 62
     8
 10
536.82069139011264
 20
461.27663780479219
 30
0.0
 11
536.82069139011264
 21
461.27663780479219
 31
0.0
  0
TEXT
  5
A93
  8
AD4324
 62
     8
 10
570.5316919527653
 20
471.27663780479219
 30
0.0
 40
2.5
  1
DATA OUT
  7
AD-STANDARD
  0
TEXT
  5
A97
  8
AD4324
 62
     8
 10
534.43795972812632
 20
430.57663780479129
 30
0.0
 40
2.5
  1
LOAD CELL
  7
AD-STANDARD
  0
CIRCLE
  5
A98
  8
AD4324
 62
     8
 10
543.82069139011264
 20
414.57663780479209
 30
0.0
 40
11.25
  0
CIRCLE
  5
A99
  8
AD4324
 62
     8
 10
532.32069139011264
 20
403.07663780479209
 30
0.0
 40
3.25
  0
LINE
  5
A9A
  8
AD4324
 62
     8
 10
534.07069139011276
 20
403.42663780479228
 30
0.0
 11
533.51069139011258
 21
403.42663780479228
 31
0.0
  0
LINE
  5
A9B
  8
AD4324
 62
     8
 10
533.51069139011258
 20
403.42663780479228
 30
0.0
 11
532.91569139011244
 21
403.671637804792
 31
0.0
  0
LINE
  5
A9C
  8
AD4324
 62
     8
 10
532.91569139011244
 20
403.671637804792
 30
0.0
 11
532.67069139011278
 21
404.26663780479208
 31
0.0
  0
LINE
  5
A9D
  8
AD4324
 62
     8
 10
532.67069139011278
 20
404.26663780479208
 30
0.0
 11
532.67069139011278
 21
404.82663780479209
 31
0.0
  0
LINE
  5
A9E
  8
AD4324
 62
     8
 10
531.1306913901127
 20
403.42663780479239
 30
0.0
 11
530.57069139011264
 21
403.42663780479239
 31
0.0
  0
LINE
  5
A9F
  8
AD4324
 62
     8
 10
531.72569139011284
 20
403.671637804792
 30
0.0
 11
531.1306913901127
 21
403.42663780479239
 31
0.0
  0
LINE
  5
AA0
  8
AD4324
 62
     8
 10
531.97069139011251
 20
404.26663780479208
 30
0.0
 11
531.72569139011284
 21
403.671637804792
 31
0.0
  0
LINE
  5
AA1
  8
AD4324
 62
     8
 10
531.97069139011251
 20
404.82663780479243
 30
0.0
 11
531.97069139011251
 21
404.26663780479208
 31
0.0
  0
LINE
  5
AA2
  8
AD4324
 62
     8
 10
531.97069139011251
 20
404.82663780479243
 30
0.0
 11
532.67069139011278
 21
404.82663780479209
 31
0.0
  0
LINE
  5
AA3
  8
AD4324
 62
     8
 10
531.97069139011228
 20
401.8866378047922
 30
0.0
 11
531.97069139011228
 21
401.32663780479209
 31
0.0
  0
LINE
  5
AA4
  8
AD4324
 62
     8
 10
531.72569139011284
 20
402.4816378047924
 30
0.0
 11
531.97069139011228
 21
401.8866378047922
 31
0.0
  0
LINE
  5
AA5
  8
AD4324
 62
     8
 10
531.1306913901127
 20
402.72663780479201
 30
0.0
 11
531.72569139011284
 21
402.4816378047924
 31
0.0
  0
LINE
  5
AA6
  8
AD4324
 62
     8
 10
530.57069139011242
 20
402.72663780479201
 30
0.0
 11
531.1306913901127
 21
402.72663780479201
 31
0.0
  0
LINE
  5
AA7
  8
AD4324
 62
     8
 10
533.51069139011258
 20
402.72663780479172
 30
0.0
 11
534.07069139011264
 21
402.72663780479172
 31
0.0
  0
LINE
  5
AA8
  8
AD4324
 62
     8
 10
532.91569139011244
 20
402.48163780479211
 30
0.0
 11
533.51069139011258
 21
402.72663780479172
 31
0.0
  0
LINE
  5
AA9
  8
AD4324
 62
     8
 10
532.67069139011267
 20
401.88663780479209
 30
0.0
 11
532.91569139011244
 21
402.48163780479211
 31
0.0
  0
LINE
  5
AAA
  8
AD4324
 62
     8
 10
532.67069139011267
 20
401.32663780479169
 30
0.0
 11
532.67069139011267
 21
401.88663780479209
 31
0.0
  0
LINE
  5
AAB
  8
AD4324
 62
     8
 10
531.97069139011228
 20
401.32663780479209
 30
0.0
 11
532.67069139011267
 21
401.32663780479169
 31
0.0
  0
LINE
  5
AAC
  8
AD4324
 62
     8
 10
534.07069139011276
 20
403.42663780479228
 30
0.0
 11
534.07069139011264
 21
402.72663780479172
 31
0.0
  0
LINE
  5
AAD
  8
AD4324
 62
     8
 10
530.57069139011264
 20
403.42663780479239
 30
0.0
 11
530.57069139011242
 21
402.72663780479201
 31
0.0
  0
CIRCLE
  5
AAE
  8
AD4324
 62
     8
 10
532.32069139011264
 20
403.07663780479209
 30
0.0
 40
2.75
  0
LINE
  5
AAF
  8
AD4324
 62
     8
 10
534.07069139011276
 20
426.42663780479228
 30
0.0
 11
533.51069139011258
 21
426.42663780479228
 31
0.0
  0
LINE
  5
AB0
  8
AD4324
 62
     8
 10
533.51069139011258
 20
426.42663780479228
 30
0.0
 11
532.91569139011244
 21
426.67163780479189
 31
0.0
  0
LINE
  5
AB1
  8
AD4324
 62
     8
 10
532.91569139011244
 20
426.67163780479189
 30
0.0
 11
532.67069139011278
 21
427.26663780479208
 31
0.0
  0
LINE
  5
AB2
  8
AD4324
 62
     8
 10
532.67069139011278
 20
427.26663780479208
 30
0.0
 11
532.67069139011278
 21
427.8266378047922
 31
0.0
  0
LINE
  5
AB3
  8
AD4324
 62
     8
 10
531.1306913901127
 20
426.42663780479239
 30
0.0
 11
530.57069139011264
 21
426.42663780479239
 31
0.0
  0
LINE
  5
AB4
  8
AD4324
 62
     8
 10
531.72569139011284
 20
426.67163780479189
 30
0.0
 11
531.1306913901127
 21
426.42663780479239
 31
0.0
  0
LINE
  5
AB5
  8
AD4324
 62
     8
 10
531.97069139011251
 20
427.26663780479208
 30
0.0
 11
531.72569139011284
 21
426.67163780479189
 31
0.0
  0
LINE
  5
AB6
  8
AD4324
 62
     8
 10
531.97069139011251
 20
427.82663780479231
 30
0.0
 11
531.97069139011251
 21
427.26663780479208
 31
0.0
  0
LINE
  5
AB7
  8
AD4324
 62
     8
 10
531.97069139011251
 20
427.82663780479231
 30
0.0
 11
532.67069139011278
 21
427.8266378047922
 31
0.0
  0
LINE
  5
AB8
  8
AD4324
 62
     8
 10
531.97069139011228
 20
424.8866378047922
 30
0.0
 11
531.97069139011228
 21
424.3266378047922
 31
0.0
  0
LINE
  5
AB9
  8
AD4324
 62
     8
 10
531.72569139011284
 20
425.4816378047924
 30
0.0
 11
531.97069139011228
 21
424.8866378047922
 31
0.0
  0
LINE
  5
ABA
  8
AD4324
 62
     8
 10
531.1306913901127
 20
425.72663780479201
 30
0.0
 11
531.72569139011284
 21
425.4816378047924
 31
0.0
  0
LINE
  5
ABB
  8
AD4324
 62
     8
 10
530.57069139011242
 20
425.72663780479201
 30
0.0
 11
531.1306913901127
 21
425.72663780479201
 31
0.0
  0
LINE
  5
ABC
  8
AD4324
 62
     8
 10
533.51069139011258
 20
425.72663780479161
 30
0.0
 11
534.07069139011264
 21
425.72663780479161
 31
0.0
  0
LINE
  5
ABD
  8
AD4324
 62
     8
 10
532.91569139011244
 20
425.48163780479211
 30
0.0
 11
533.51069139011258
 21
425.72663780479161
 31
0.0
  0
LINE
  5
ABE
  8
AD4324
 62
     8
 10
532.67069139011267
 20
424.88663780479209
 30
0.0
 11
532.91569139011244
 21
425.48163780479211
 31
0.0
  0
LINE
  5
ABF
  8
AD4324
 62
     8
 10
532.67069139011267
 20
424.32663780479169
 30
0.0
 11
532.67069139011267
 21
424.88663780479209
 31
0.0
  0
LINE
  5
AC0
  8
AD4324
 62
     8
 10
531.97069139011228
 20
424.3266378047922
 30
0.0
 11
532.67069139011267
 21
424.32663780479169
 31
0.0
  0
LINE
  5
AC1
  8
AD4324
 62
     8
 10
534.07069139011276
 20
426.42663780479228
 30
0.0
 11
534.07069139011264
 21
425.72663780479161
 31
0.0
  0
LINE
  5
AC2
  8
AD4324
 62
     8
 10
530.57069139011264
 20
426.42663780479239
 30
0.0
 11
530.57069139011242
 21
425.72663780479201
 31
0.0
  0
CIRCLE
  5
AC3
  8
AD4324
 62
     8
 10
532.32069139011264
 20
426.0766378047922
 30
0.0
 40
2.75
  0
CIRCLE
  5
AC4
  8
AD4324
 62
     8
 10
555.32069139011264
 20
403.07663780479209
 30
0.0
 40
2.75
  0
LINE
  5
AC5
  8
AD4324
 62
     8
 10
557.07069139011276
 20
403.42663780479228
 30
0.0
 11
556.51069139011247
 21
403.42663780479228
 31
0.0
  0
LINE
  5
AC6
  8
AD4324
 62
     8
 10
556.51069139011247
 20
403.42663780479228
 30
0.0
 11
555.91569139011244
 21
403.671637804792
 31
0.0
  0
LINE
  5
AC7
  8
AD4324
 62
     8
 10
555.91569139011244
 20
403.671637804792
 30
0.0
 11
555.67069139011289
 21
404.26663780479208
 31
0.0
  0
LINE
  5
AC8
  8
AD4324
 62
     8
 10
555.67069139011289
 20
404.26663780479208
 30
0.0
 11
555.67069139011289
 21
404.82663780479209
 31
0.0
  0
LINE
  5
AC9
  8
AD4324
 62
     8
 10
554.13069139011259
 20
403.42663780479239
 30
0.0
 11
553.57069139011264
 21
403.42663780479239
 31
0.0
  0
LINE
  5
ACA
  8
AD4324
 62
     8
 10
554.72569139011284
 20
403.671637804792
 30
0.0
 11
554.13069139011259
 21
403.42663780479239
 31
0.0
  0
LINE
  5
ACB
  8
AD4324
 62
     8
 10
554.97069139011251
 20
404.26663780479208
 30
0.0
 11
554.72569139011284
 21
403.671637804792
 31
0.0
  0
LINE
  5
ACC
  8
AD4324
 62
     8
 10
554.97069139011251
 20
404.82663780479243
 30
0.0
 11
554.97069139011251
 21
404.26663780479208
 31
0.0
  0
LINE
  5
ACD
  8
AD4324
 62
     8
 10
554.97069139011251
 20
404.82663780479243
 30
0.0
 11
555.67069139011289
 21
404.82663780479209
 31
0.0
  0
LINE
  5
ACE
  8
AD4324
 62
     8
 10
554.97069139011239
 20
401.8866378047922
 30
0.0
 11
554.97069139011239
 21
401.32663780479209
 31
0.0
  0
LINE
  5
ACF
  8
AD4324
 62
     8
 10
554.72569139011284
 20
402.4816378047924
 30
0.0
 11
554.97069139011239
 21
401.8866378047922
 31
0.0
  0
LINE
  5
AD0
  8
AD4324
 62
     8
 10
554.13069139011259
 20
402.72663780479201
 30
0.0
 11
554.72569139011284
 21
402.4816378047924
 31
0.0
  0
LINE
  5
AD1
  8
AD4324
 62
     8
 10
553.5706913901123
 20
402.72663780479201
 30
0.0
 11
554.13069139011259
 21
402.72663780479201
 31
0.0
  0
LINE
  5
AD2
  8
AD4324
 62
     8
 10
556.51069139011247
 20
402.72663780479172
 30
0.0
 11
557.07069139011264
 21
402.72663780479172
 31
0.0
  0
LINE
  5
AD3
  8
AD4324
 62
     8
 10
555.91569139011244
 20
402.48163780479211
 30
0.0
 11
556.51069139011247
 21
402.72663780479172
 31
0.0
  0
LINE
  5
AD4
  8
AD4324
 62
     8
 10
555.67069139011278
 20
401.88663780479209
 30
0.0
 11
555.91569139011244
 21
402.48163780479211
 31
0.0
  0
LINE
  5
AD5
  8
AD4324
 62
     8
 10
555.67069139011278
 20
401.32663780479169
 30
0.0
 11
555.67069139011278
 21
401.88663780479209
 31
0.0
  0
LINE
  5
AD6
  8
AD4324
 62
     8
 10
554.97069139011239
 20
401.32663780479209
 30
0.0
 11
555.67069139011278
 21
401.32663780479169
 31
0.0
  0
LINE
  5
AD7
  8
AD4324
 62
     8
 10
557.07069139011276
 20
403.42663780479228
 30
0.0
 11
557.07069139011264
 21
402.72663780479172
 31
0.0
  0
LINE
  5
AD8
  8
AD4324
 62
     8
 10
553.57069139011264
 20
403.42663780479239
 30
0.0
 11
553.5706913901123
 21
402.72663780479201
 31
0.0
  0
CIRCLE
  5
AD9
  8
AD4324
 62
     8
 10
555.32069139011264
 20
426.0766378047922
 30
0.0
 40
2.75
  0
CIRCLE
  5
ADA
  8
AD4324
 62
     8
 10
555.32069139011264
 20
426.0766378047922
 30
0.0
 40
3.25
  0
LINE
  5
ADB
  8
AD4324
 62
     8
 10
557.07069139011276
 20
426.42663780479228
 30
0.0
 11
556.51069139011247
 21
426.42663780479228
 31
0.0
  0
LINE
  5
ADC
  8
AD4324
 62
     8
 10
556.51069139011247
 20
426.42663780479228
 30
0.0
 11
555.91569139011244
 21
426.67163780479189
 31
0.0
  0
LINE
  5
ADD
  8
AD4324
 62
     8
 10
555.91569139011244
 20
426.67163780479189
 30
0.0
 11
555.67069139011289
 21
427.26663780479208
 31
0.0
  0
LINE
  5
ADE
  8
AD4324
 62
     8
 10
555.67069139011289
 20
427.26663780479208
 30
0.0
 11
555.67069139011289
 21
427.8266378047922
 31
0.0
  0
LINE
  5
ADF
  8
AD4324
 62
     8
 10
554.13069139011259
 20
426.42663780479239
 30
0.0
 11
553.57069139011264
 21
426.42663780479239
 31
0.0
  0
LINE
  5
AE0
  8
AD4324
 62
     8
 10
554.72569139011284
 20
426.67163780479189
 30
0.0
 11
554.13069139011259
 21
426.42663780479239
 31
0.0
  0
LINE
  5
AE1
  8
AD4324
 62
     8
 10
554.97069139011251
 20
427.26663780479208
 30
0.0
 11
554.72569139011284
 21
426.67163780479189
 31
0.0
  0
LINE
  5
AE2
  8
AD4324
 62
     8
 10
554.97069139011251
 20
427.82663780479231
 30
0.0
 11
554.97069139011251
 21
427.26663780479208
 31
0.0
  0
LINE
  5
AE3
  8
AD4324
 62
     8
 10
554.97069139011251
 20
427.82663780479231
 30
0.0
 11
555.67069139011289
 21
427.8266378047922
 31
0.0
  0
LINE
  5
AE4
  8
AD4324
 62
     8
 10
554.97069139011239
 20
424.8866378047922
 30
0.0
 11
554.97069139011239
 21
424.3266378047922
 31
0.0
  0
LINE
  5
AE5
  8
AD4324
 62
     8
 10
554.72569139011284
 20
425.4816378047924
 30
0.0
 11
554.97069139011239
 21
424.8866378047922
 31
0.0
  0
LINE
  5
AE6
  8
AD4324
 62
     8
 10
554.13069139011259
 20
425.72663780479201
 30
0.0
 11
554.72569139011284
 21
425.4816378047924
 31
0.0
  0
LINE
  5
AE7
  8
AD4324
 62
     8
 10
553.5706913901123
 20
425.72663780479201
 30
0.0
 11
554.13069139011259
 21
425.72663780479201
 31
0.0
  0
LINE
  5
AE8
  8
AD4324
 62
     8
 10
556.51069139011247
 20
425.72663780479161
 30
0.0
 11
557.07069139011264
 21
425.72663780479161
 31
0.0
  0
LINE
  5
AE9
  8
AD4324
 62
     8
 10
555.91569139011244
 20
425.48163780479211
 30
0.0
 11
556.51069139011247
 21
425.72663780479161
 31
0.0
  0
LINE
  5
AEA
  8
AD4324
 62
     8
 10
555.67069139011278
 20
424.88663780479209
 30
0.0
 11
555.91569139011244
 21
425.48163780479211
 31
0.0
  0
LINE
  5
AEB
  8
AD4324
 62
     8
 10
555.67069139011278
 20
424.32663780479169
 30
0.0
 11
555.67069139011278
 21
424.88663780479209
 31
0.0
  0
LINE
  5
AEC
  8
AD4324
 62
     8
 10
554.97069139011239
 20
424.3266378047922
 30
0.0
 11
555.67069139011278
 21
424.32663780479169
 31
0.0
  0
LINE
  5
AED
  8
AD4324
 62
     8
 10
557.07069139011276
 20
426.42663780479228
 30
0.0
 11
557.07069139011264
 21
425.72663780479161
 31
0.0
  0
LINE
  5
AEE
  8
AD4324
 62
     8
 10
553.57069139011264
 20
426.42663780479239
 30
0.0
 11
553.5706913901123
 21
425.72663780479201
 31
0.0
  0
CIRCLE
  5
AF1
  8
AD4324
 62
     8
 10
581.32069139011264
 20
390.0766378047922
 30
0.0
 40
8.5
  0
LINE
  5
AF5
  8
AD4324
 62
     8
 10
631.82069139011207
 20
379.77663780479259
 30
0.0
 11
602.82069139011298
 21
379.77663780479259
 31
0.0
  0
LINE
  5
AF6
  8
AD4324
 62
     8
 10
631.82069139011207
 20
388.7766378047927
 30
0.0
 11
602.82069139011298
 21
388.77663780479168
 31
0.0
  0
TEXT
  5
AF7
  8
AD4324
 62
     8
 10
605.10893416557974
 20
391.21843712183721
 30
0.0
 40
2.5
  1
CONTROL I／O
  7
AD-STANDARD
  0
LINE
  5
AF8
  8
AD4324
 62
     8
 10
602.82069139011298
 20
388.7766378047927
 30
0.0
 11
602.82069139011298
 21
379.77663780479259
 31
0.0
  0
CIRCLE
  5
AF9
  8
AD4324
 62
     8
 10
600.57069139011298
 20
384.27663780479259
 30
0.0
 40
1.0
  0
CIRCLE
  5
AFA
  8
AD4324
 62
     8
 10
600.57069139011298
 20
384.27663780479259
 30
0.0
 40
1.5
  0
LINE
  5
AFB
  8
AD4324
 62
     8
 10
631.82069139011298
 20
388.7766378047927
 30
0.0
 11
631.82069139011207
 21
379.77663780479259
 31
0.0
  0
CIRCLE
  5
AFC
  8
AD4324
 62
     8
 10
634.07069139011298
 20
384.27663780479259
 30
0.0
 40
1.5
  0
CIRCLE
  5
AFD
  8
AD4324
 62
     8
 10
634.07069139011298
 20
384.27663780479259
 30
0.0
 40
1.0
  0
LINE
  5
B00
  8
AD4324
 62
     8
 10
642.67069139011289
 20
385.46663780479207
 30
0.0
 11
642.67069139011289
 21
386.02663780479219
 31
0.0
  0
LINE
  5
B01
  8
AD4324
 62
     8
 10
641.97069139011251
 20
386.02663780479241
 30
0.0
 11
641.97069139011251
 21
385.46663780479207
 31
0.0
  0
CIRCLE
  5
B02
  8
AD4324
 62
     8
 10
642.32069139011264
 20
384.27663780479219
 30
0.0
 40
2.75
  0
LINE
  5
B03
  8
AD4324
 62
     8
 10
644.07069139011276
 20
384.62663780479232
 30
0.0
 11
644.07069139011264
 21
383.92663780479171
 31
0.0
  0
LINE
  5
B04
  8
AD4324
 62
     8
 10
643.51069139011247
 20
384.62663780479232
 30
0.0
 11
642.91569139011244
 21
384.87163780479199
 31
0.0
  0
LINE
  5
B05
  8
AD4324
 62
     8
 10
641.13069139011259
 20
384.62663780479249
 30
0.0
 11
640.57069139011264
 21
384.62663780479249
 31
0.0
  0
LINE
  5
B06
  8
AD4324
 62
     8
 10
641.72569139011284
 20
384.87163780479199
 30
0.0
 11
641.13069139011259
 21
384.62663780479249
 31
0.0
  0
LINE
  5
B07
  8
AD4324
 62
     8
 10
641.97069139011239
 20
383.0866378047923
 30
0.0
 11
641.97069139011239
 21
382.52663780479219
 31
0.0
  0
LINE
  5
B08
  8
AD4324
 62
     8
 10
641.72569139011284
 20
383.68163780479239
 30
0.0
 11
641.97069139011239
 21
383.0866378047923
 31
0.0
  0
LINE
  5
B09
  8
AD4324
 62
     8
 10
641.13069139011259
 20
383.92663780479211
 30
0.0
 11
641.72569139011284
 21
383.68163780479239
 31
0.0
  0
LINE
  5
B0A
  8
AD4324
 62
     8
 10
640.57069139011242
 20
383.92663780479211
 30
0.0
 11
641.13069139011259
 21
383.92663780479211
 31
0.0
  0
LINE
  5
B0B
  8
AD4324
 62
     8
 10
642.91569139011244
 20
383.68163780479222
 30
0.0
 11
643.51069139011247
 21
383.92663780479171
 31
0.0
  0
LINE
  5
B0C
  8
AD4324
 62
     8
 10
642.67069139011278
 20
383.08663780479219
 30
0.0
 11
642.91569139011244
 21
383.68163780479222
 31
0.0
  0
LINE
  5
B0D
  8
AD4324
 62
     8
 10
642.67069139011278
 20
382.52663780479168
 30
0.0
 11
642.67069139011278
 21
383.08663780479219
 31
0.0
  0
LINE
  5
B0E
  8
AD4324
 62
     8
 10
641.97069139011239
 20
382.52663780479219
 30
0.0
 11
642.67069139011278
 21
382.52663780479168
 31
0.0
  0
LINE
  5
B0F
  8
AD4324
 62
     8
 10
640.57069139011264
 20
384.62663780479249
 30
0.0
 11
640.57069139011242
 21
383.92663780479211
 31
0.0
  0
LINE
  5
B10
  8
AD4324
 62
     8
 10
642.91569139011244
 20
384.87163780479199
 30
0.0
 11
642.67069139011289
 21
385.46663780479207
 31
0.0
  0
LINE
  5
B11
  8
AD4324
 62
     8
 10
641.97069139011251
 20
385.46663780479207
 30
0.0
 11
641.72569139011284
 21
384.87163780479199
 31
0.0
  0
LINE
  5
B12
  8
AD4324
 62
     8
 10
644.07069139011276
 20
384.62663780479232
 30
0.0
 11
643.51069139011247
 21
384.62663780479232
 31
0.0
  0
LINE
  5
B13
  8
AD4324
 62
     8
 10
643.51069139011247
 20
383.92663780479171
 30
0.0
 11
644.07069139011264
 21
383.92663780479171
 31
0.0
  0
LINE
  5
B14
  8
AD4324
 62
     8
 10
641.97069139011251
 20
386.02663780479241
 30
0.0
 11
642.67069139011289
 21
386.02663780479219
 31
0.0
  0
LINE
  5
B15
  8
AD4324
 62
     8
 10
658.07069139011287
 20
384.62663780479232
 30
0.0
 11
658.07069139011264
 21
383.92663780479171
 31
0.0
  0
LINE
  5
B16
  8
AD4324
 62
     8
 10
654.57069139011264
 20
384.62663780479249
 30
0.0
 11
654.57069139011242
 21
383.92663780479211
 31
0.0
  0
CIRCLE
  5
B17
  8
AD4324
 62
     8
 10
656.32069139011264
 20
384.27663780479219
 30
0.0
 40
2.75
  0
LINE
  5
B18
  8
AD4324
 62
     8
 10
657.51069139011258
 20
383.92663780479171
 30
0.0
 11
658.07069139011264
 21
383.92663780479171
 31
0.0
  0
LINE
  5
B19
  8
AD4324
 62
     8
 10
655.97069139011228
 20
383.0866378047923
 30
0.0
 11
655.97069139011228
 21
382.52663780479219
 31
0.0
  0
LINE
  5
B1A
  8
AD4324
 62
     8
 10
655.72569139011284
 20
383.68163780479239
 30
0.0
 11
655.97069139011228
 21
383.0866378047923
 31
0.0
  0
LINE
  5
B1B
  8
AD4324
 62
     8
 10
655.1306913901127
 20
383.92663780479211
 30
0.0
 11
655.72569139011284
 21
383.68163780479239
 31
0.0
  0
LINE
  5
B1C
  8
AD4324
 62
     8
 10
654.57069139011242
 20
383.92663780479211
 30
0.0
 11
655.1306913901127
 21
383.92663780479211
 31
0.0
  0
LINE
  5
B1D
  8
AD4324
 62
     8
 10
656.67069139011278
 20
383.08663780479219
 30
0.0
 11
656.91569139011244
 21
383.68163780479222
 31
0.0
  0
LINE
  5
B1E
  8
AD4324
 62
     8
 10
656.67069139011278
 20
382.52663780479168
 30
0.0
 11
656.67069139011278
 21
383.08663780479219
 31
0.0
  0
LINE
  5
B1F
  8
AD4324
 62
     8
 10
655.97069139011228
 20
382.52663780479219
 30
0.0
 11
656.67069139011278
 21
382.52663780479168
 31
0.0
  0
LINE
  5
B20
  8
AD4324
 62
     8
 10
656.91569139011244
 20
383.68163780479222
 30
0.0
 11
657.51069139011258
 21
383.92663780479171
 31
0.0
  0
LINE
  5
B21
  8
AD4324
 62
     8
 10
658.07069139011287
 20
384.62663780479232
 30
0.0
 11
657.51069139011258
 21
384.62663780479232
 31
0.0
  0
LINE
  5
B22
  8
AD4324
 62
     8
 10
656.67069139011278
 20
385.46663780479207
 30
0.0
 11
656.67069139011278
 21
386.02663780479219
 31
0.0
  0
LINE
  5
B23
  8
AD4324
 62
     8
 10
655.97069139011239
 20
386.02663780479241
 30
0.0
 11
655.97069139011239
 21
385.46663780479207
 31
0.0
  0
LINE
  5
B24
  8
AD4324
 62
     8
 10
655.1306913901127
 20
384.62663780479249
 30
0.0
 11
654.57069139011264
 21
384.62663780479249
 31
0.0
  0
LINE
  5
B25
  8
AD4324
 62
     8
 10
655.72569139011284
 20
384.87163780479199
 30
0.0
 11
655.1306913901127
 21
384.62663780479249
 31
0.0
  0
LINE
  5
B26
  8
AD4324
 62
     8
 10
656.91569139011244
 20
384.87163780479199
 30
0.0
 11
656.67069139011278
 21
385.46663780479207
 31
0.0
  0
LINE
  5
B27
  8
AD4324
 62
     8
 10
655.97069139011239
 20
385.46663780479207
 30
0.0
 11
655.72569139011284
 21
384.87163780479199
 31
0.0
  0
LINE
  5
B28
  8
AD4324
 62
     8
 10
655.97069139011239
 20
386.02663780479241
 30
0.0
 11
656.67069139011278
 21
386.02663780479219
 31
0.0
  0
LINE
  5
B29
  8
AD4324
 62
     8
 10
657.51069139011258
 20
384.62663780479232
 30
0.0
 11
656.91569139011244
 21
384.87163780479199
 31
0.0
  0
CIRCLE
  5
B2C
  8
AD4324
 62
     8
 10
654.32069139011264
 20
441.27663780479219
 30
0.0
 40
7.5
  0
CIRCLE
  5
B2D
  8
AD4324
 62
     8
 10
654.32069139011264
 20
441.27663780479219
 30
0.0
 40
8.5
  0
LINE
  5
B2E
  8
AD4324
 62
     8
 10
659.32069139011173
 20
440.27663780479219
 30
0.0
 11
654.32069139011173
 21
440.27663780479219
 31
0.0
  0
LINE
  5
B2F
  8
AD4324
 62
     8
 10
659.32069139011173
 20
442.27663780479219
 30
0.0
 11
654.32069139011173
 21
442.27663780479219
 31
0.0
  0
LINE
  5
B30
  8
AD4324
 62
     8
 10
649.32069139011173
 20
442.27663780479219
 30
0.0
 11
654.32069139011173
 21
442.27663780479219
 31
0.0
  0
LINE
  5
B31
  8
AD4324
 62
     8
 10
649.32069139011173
 20
440.27663780479219
 30
0.0
 11
654.32069139011173
 21
440.27663780479219
 31
0.0
  0
LINE
  5
B32
  8
AD4324
 62
     8
 10
649.32069139011173
 20
440.27663780479219
 30
0.0
 11
649.32069139011173
 21
442.27663780479219
 31
0.0
  0
LINE
  5
B33
  8
AD4324
 62
     8
 10
659.32069139011173
 20
440.27663780479219
 30
0.0
 11
659.32069139011173
 21
442.27663780479219
 31
0.0
  0
TEXT
  5
B34
  8
AD4324
 62
     8
 10
649.12787030423306
 20
452.21843712183681
 30
0.0
 40
2.5
  1
FUSE
  7
AD-STANDARD
  0
LINE
  5
B38
  8
AD4324
 62
     8
 10
692.8706913901126
 20
482.87663780479221
 30
0.0
 11
705.77069139011246
 21
482.87663780479221
 31
0.0
  0
LINE
  5
B39
  8
AD4324
 62
     8
 10
705.77069139011246
 20
482.87663780479221
 30
0.0
 11
705.77069139011246
 21
463.67663780479222
 31
0.0
  0
LINE
  5
B3A
  8
AD4324
 62
     8
 10
705.77069139011246
 20
463.67663780479222
 30
0.0
 11
692.8706913901126
 21
463.67663780479222
 31
0.0
  0
LINE
  5
B3B
  8
AD4324
 62
     8
 10
692.8706913901126
 20
463.67663780479222
 30
0.0
 11
692.8706913901126
 21
482.87663780479221
 31
0.0
  0
CIRCLE
  5
B3E
  8
AD4324
 62
     8
 10
716.32069139011264
 20
384.27663780479219
 30
0.0
 40
2.75
  0
LINE
  5
B3F
  8
AD4324
 62
     8
 10
714.57069139011242
 20
383.92663780479211
 30
0.0
 11
715.1306913901127
 21
383.92663780479211
 31
0.0
  0
LINE
  5
B40
  8
AD4324
 62
     8
 10
715.1306913901127
 20
384.62663780479249
 30
0.0
 11
714.57069139011264
 21
384.62663780479249
 31
0.0
  0
LINE
  5
B41
  8
AD4324
 62
     8
 10
714.57069139011264
 20
384.62663780479249
 30
0.0
 11
714.57069139011242
 21
383.92663780479211
 31
0.0
  0
LINE
  5
B42
  8
AD4324
 62
     8
 10
718.07069139011276
 20
384.62663780479232
 30
0.0
 11
717.51069139011247
 21
384.62663780479232
 31
0.0
  0
LINE
  5
B43
  8
AD4324
 62
     8
 10
716.67069139011289
 20
385.46663780479207
 30
0.0
 11
716.67069139011289
 21
386.02663780479219
 31
0.0
  0
LINE
  5
B44
  8
AD4324
 62
     8
 10
715.97069139011251
 20
386.02663780479241
 30
0.0
 11
715.97069139011251
 21
385.46663780479207
 31
0.0
  0
LINE
  5
B45
  8
AD4324
 62
     8
 10
715.72569139011284
 20
384.87163780479199
 30
0.0
 11
715.1306913901127
 21
384.62663780479249
 31
0.0
  0
LINE
  5
B46
  8
AD4324
 62
     8
 10
716.91569139011244
 20
384.87163780479199
 30
0.0
 11
716.67069139011289
 21
385.46663780479207
 31
0.0
  0
LINE
  5
B47
  8
AD4324
 62
     8
 10
715.97069139011251
 20
385.46663780479207
 30
0.0
 11
715.72569139011284
 21
384.87163780479199
 31
0.0
  0
LINE
  5
B48
  8
AD4324
 62
     8
 10
715.97069139011251
 20
386.02663780479241
 30
0.0
 11
716.67069139011289
 21
386.02663780479219
 31
0.0
  0
LINE
  5
B49
  8
AD4324
 62
     8
 10
717.51069139011247
 20
384.62663780479232
 30
0.0
 11
716.91569139011244
 21
384.87163780479199
 31
0.0
  0
LINE
  5
B4A
  8
AD4324
 62
     8
 10
717.51069139011247
 20
383.92663780479171
 30
0.0
 11
718.07069139011264
 21
383.92663780479171
 31
0.0
  0
LINE
  5
B4B
  8
AD4324
 62
     8
 10
715.97069139011239
 20
383.0866378047923
 30
0.0
 11
715.97069139011239
 21
382.52663780479219
 31
0.0
  0
LINE
  5
B4C
  8
AD4324
 62
     8
 10
715.72569139011284
 20
383.68163780479239
 30
0.0
 11
715.97069139011239
 21
383.0866378047923
 31
0.0
  0
LINE
  5
B4D
  8
AD4324
 62
     8
 10
715.1306913901127
 20
383.92663780479211
 30
0.0
 11
715.72569139011284
 21
383.68163780479239
 31
0.0
  0
LINE
  5
B4E
  8
AD4324
 62
     8
 10
716.67069139011267
 20
383.08663780479219
 30
0.0
 11
716.91569139011244
 21
383.68163780479222
 31
0.0
  0
LINE
  5
B4F
  8
AD4324
 62
     8
 10
716.67069139011267
 20
382.52663780479168
 30
0.0
 11
716.67069139011267
 21
383.08663780479219
 31
0.0
  0
LINE
  5
B50
  8
AD4324
 62
     8
 10
715.97069139011239
 20
382.52663780479219
 30
0.0
 11
716.67069139011267
 21
382.52663780479168
 31
0.0
  0
LINE
  5
B51
  8
AD4324
 62
     8
 10
716.91569139011244
 20
383.68163780479222
 30
0.0
 11
717.51069139011247
 21
383.92663780479171
 31
0.0
  0
LINE
  5
B52
  8
AD4324
 62
     8
 10
718.07069139011276
 20
384.62663780479232
 30
0.0
 11
718.07069139011264
 21
383.92663780479171
 31
0.0
  0
LINE
  5
B53
  8
AD4324
 62
     8
 10
533.9706913901133
 20
458.02663780479241
 30
0.0
 11
534.6706913901138
 21
458.02663780479219
 31
0.0
  0
LINE
  5
B54
  8
AD4324
 62
     8
 10
533.9706913901133
 20
454.52663780479219
 30
0.0
 11
534.67069139011369
 21
454.52663780479179
 31
0.0
  0
LINE
  5
B55
  8
AD4324
 62
     8
 10
533.9706913901133
 20
457.46663780479207
 30
0.0
 11
533.72569139011375
 21
456.87163780479199
 31
0.0
  0
LINE
  5
B56
  8
AD4324
 62
     8
 10
533.9706913901133
 20
458.02663780479241
 30
0.0
 11
533.9706913901133
 21
457.46663780479207
 31
0.0
  0
LINE
  5
B57
  8
AD4324
 62
     8
 10
533.9706913901133
 20
455.08663780479219
 30
0.0
 11
533.9706913901133
 21
454.52663780479219
 31
0.0
  0
LINE
  5
B58
  8
AD4324
 62
     8
 10
533.72569139011375
 20
455.68163780479239
 30
0.0
 11
533.9706913901133
 21
455.08663780479219
 31
0.0
  0
LINE
  5
B59
  8
AD4324
 62
     8
 10
533.13069139011361
 20
456.62663780479249
 30
0.0
 11
532.57069139011355
 21
456.62663780479249
 31
0.0
  0
LINE
  5
B5A
  8
AD4324
 62
     8
 10
532.57069139011332
 20
455.92663780479211
 30
0.0
 11
533.13069139011361
 21
455.92663780479211
 31
0.0
  0
LINE
  5
B5B
  8
AD4324
 62
     8
 10
532.57069139011355
 20
456.62663780479249
 30
0.0
 11
532.57069139011332
 21
455.92663780479211
 31
0.0
  0
LINE
  5
B5C
  8
AD4324
 62
     8
 10
533.72569139011375
 20
456.87163780479199
 30
0.0
 11
533.13069139011361
 21
456.62663780479249
 31
0.0
  0
LINE
  5
B5D
  8
AD4324
 62
     8
 10
533.13069139011361
 20
455.92663780479211
 30
0.0
 11
533.72569139011375
 21
455.68163780479239
 31
0.0
  0
LINE
  5
B5E
  8
AD4324
 62
     8
 10
536.07069139011378
 20
456.62663780479238
 30
0.0
 11
535.51069139011349
 21
456.62663780479238
 31
0.0
  0
LINE
  5
B5F
  8
AD4324
 62
     8
 10
535.51069139011349
 20
456.62663780479238
 30
0.0
 11
534.91569139011335
 21
456.87163780479199
 31
0.0
  0
LINE
  5
B60
  8
AD4324
 62
     8
 10
534.91569139011335
 20
456.87163780479199
 30
0.0
 11
534.6706913901138
 21
457.46663780479207
 31
0.0
  0
LINE
  5
B61
  8
AD4324
 62
     8
 10
534.6706913901138
 20
457.46663780479207
 30
0.0
 11
534.6706913901138
 21
458.02663780479219
 31
0.0
  0
LINE
  5
B62
  8
AD4324
 62
     8
 10
535.51069139011349
 20
455.92663780479171
 30
0.0
 11
536.07069139011355
 21
455.92663780479171
 31
0.0
  0
LINE
  5
B63
  8
AD4324
 62
     8
 10
534.91569139011335
 20
455.68163780479222
 30
0.0
 11
535.51069139011349
 21
455.92663780479171
 31
0.0
  0
LINE
  5
B64
  8
AD4324
 62
     8
 10
534.67069139011369
 20
455.08663780479208
 30
0.0
 11
534.91569139011335
 21
455.68163780479222
 31
0.0
  0
LINE
  5
B65
  8
AD4324
 62
     8
 10
534.67069139011369
 20
454.52663780479179
 30
0.0
 11
534.67069139011369
 21
455.08663780479208
 31
0.0
  0
LINE
  5
B66
  8
AD4324
 62
     8
 10
536.07069139011378
 20
456.62663780479238
 30
0.0
 11
536.07069139011355
 21
455.92663780479171
 31
0.0
  0
CIRCLE
  5
B67
  8
AD4324
 62
     8
 10
534.32069139011355
 20
456.27663780479219
 30
0.0
 40
2.75
  0
LINE
  5
B68
  8
AD4324
 62
     8
 10
624.72569139011375
 20
456.87163780479199
 30
0.0
 11
624.1306913901135
 21
456.62663780479249
 31
0.0
  0
LINE
  5
B69
  8
AD4324
 62
     8
 10
624.1306913901135
 20
455.92663780479211
 30
0.0
 11
624.72569139011375
 21
455.68163780479239
 31
0.0
  0
CIRCLE
  5
B6A
  8
AD4324
 62
     8
 10
625.32069139011355
 20
456.27663780479219
 30
0.0
 40
2.75
  0
LINE
  5
B6B
  8
AD4324
 62
     8
 10
624.1306913901135
 20
456.62663780479249
 30
0.0
 11
623.57069139011355
 21
456.62663780479249
 31
0.0
  0
LINE
  5
B6C
  8
AD4324
 62
     8
 10
623.57069139011321
 20
455.92663780479211
 30
0.0
 11
624.1306913901135
 21
455.92663780479211
 31
0.0
  0
LINE
  5
B6D
  8
AD4324
 62
     8
 10
623.57069139011355
 20
456.62663780479249
 30
0.0
 11
623.57069139011321
 21
455.92663780479211
 31
0.0
  0
LINE
  5
B6E
  8
AD4324
 62
     8
 10
627.07069139011367
 20
456.62663780479238
 30
0.0
 11
626.51069139011349
 21
456.62663780479238
 31
0.0
  0
LINE
  5
B6F
  8
AD4324
 62
     8
 10
626.51069139011349
 20
456.62663780479238
 30
0.0
 11
625.91569139011335
 21
456.87163780479199
 31
0.0
  0
LINE
  5
B70
  8
AD4324
 62
     8
 10
625.91569139011335
 20
456.87163780479199
 30
0.0
 11
625.6706913901138
 21
457.46663780479207
 31
0.0
  0
LINE
  5
B71
  8
AD4324
 62
     8
 10
625.6706913901138
 20
457.46663780479207
 30
0.0
 11
625.6706913901138
 21
458.02663780479219
 31
0.0
  0
LINE
  5
B72
  8
AD4324
 62
     8
 10
624.97069139011342
 20
457.46663780479207
 30
0.0
 11
624.72569139011375
 21
456.87163780479199
 31
0.0
  0
LINE
  5
B73
  8
AD4324
 62
     8
 10
624.97069139011342
 20
458.02663780479241
 30
0.0
 11
624.97069139011342
 21
457.46663780479207
 31
0.0
  0
LINE
  5
B74
  8
AD4324
 62
     8
 10
624.97069139011342
 20
458.02663780479241
 30
0.0
 11
625.6706913901138
 21
458.02663780479219
 31
0.0
  0
LINE
  5
B75
  8
AD4324
 62
     8
 10
624.9706913901133
 20
455.08663780479219
 30
0.0
 11
624.9706913901133
 21
454.52663780479219
 31
0.0
  0
LINE
  5
B76
  8
AD4324
 62
     8
 10
624.72569139011375
 20
455.68163780479239
 30
0.0
 11
624.9706913901133
 21
455.08663780479219
 31
0.0
  0
LINE
  5
B77
  8
AD4324
 62
     8
 10
626.51069139011349
 20
455.92663780479171
 30
0.0
 11
627.07069139011355
 21
455.92663780479171
 31
0.0
  0
LINE
  5
B78
  8
AD4324
 62
     8
 10
625.91569139011335
 20
455.68163780479222
 30
0.0
 11
626.51069139011349
 21
455.92663780479171
 31
0.0
  0
LINE
  5
B79
  8
AD4324
 62
     8
 10
625.67069139011369
 20
455.08663780479208
 30
0.0
 11
625.91569139011335
 21
455.68163780479222
 31
0.0
  0
LINE
  5
B7A
  8
AD4324
 62
     8
 10
625.67069139011369
 20
454.52663780479179
 30
0.0
 11
625.67069139011369
 21
455.08663780479208
 31
0.0
  0
LINE
  5
B7B
  8
AD4324
 62
     8
 10
624.9706913901133
 20
454.52663780479219
 30
0.0
 11
625.67069139011369
 21
454.52663780479179
 31
0.0
  0
LINE
  5
B7C
  8
AD4324
 62
     8
 10
627.07069139011367
 20
456.62663780479238
 30
0.0
 11
627.07069139011355
 21
455.92663780479171
 31
0.0
  0
LINE
  5
B88
  8
AD4324
 62
     8
 10
599.32069139011264
 20
439.37663780479261
 30
0.0
 11
639.32069139011264
 21
439.37663780479352
 31
0.0
  0
LINE
  5
B89
  8
AD4324
 62
     8
 10
599.32069139011264
 20
443.17663780479182
 30
0.0
 11
639.32069139011264
 21
443.17663780479182
 31
0.0
  0
LINE
  5
B8A
  8
AD4324
 62
     8
 10
599.32069139011264
 20
435.27663780479219
 30
0.0
 11
639.32069139011264
 21
435.27663780479219
 31
0.0
  0
LINE
  5
B8B
  8
AD4324
 62
     8
 10
599.32069139011264
 20
447.27663780479219
 30
0.0
 11
639.32069139011264
 21
447.27663780479219
 31
0.0
  0
TEXT
  5
B8C
  8
AD4324
 62
     8
 10
601.27271445485746
 20
444.27663780479219
 30
0.0
 40
2.0
  1
LINE VOLTAGE
  7
AD-STANDARD
  0
TEXT
  5
B8D
  8
AD4324
 62
     8
 10
601.27271445485746
 20
440.27663780479219
 30
0.0
 40
2.0
  1
AC100V／120V
  7
AD-STANDARD
  0
TEXT
  5
B8E
  8
AD4324
 62
     8
 10
601.27271445485746
 20
436.47663780479297
 30
0.0
 40
2.0
  1
AC220V／240V
  7
AD-STANDARD
  0
LINE
  5
B8F
  8
AD4324
 62
     8
 10
599.32069139011264
 20
435.27663780479219
 30
0.0
 11
599.32069139011264
 21
447.27663780479219
 31
0.0
  0
TEXT
  5
B90
  8
AD4324
 62
     8
 10
627.99933167355493
 20
444.27663780479219
 30
0.0
 40
2.0
  1
FUSE
  7
AD-STANDARD
  0
LINE
  5
B91
  8
AD4324
 62
     8
 10
624.32069139011264
 20
435.27663780479219
 30
0.0
 11
624.32069139011264
 21
447.27663780479219
 31
0.0
  0
TEXT
  5
B92
  8
AD4324
 62
     8
 10
625.3356522363888
 20
440.27663780479219
 30
0.0
 40
2.0
  1
  0.5A
  7
AD-STANDARD
  0
TEXT
  5
B93
  8
AD4324
 62
     8
 10
625.3356522363888
 20
436.27663780479219
 30
0.0
 40
2.0
  1
  0.3A
  7
AD-STANDARD
  0
LINE
  5
B94
  8
AD4324
 62
     8
 10
639.32069139011264
 20
435.27663780479219
 30
0.0
 11
639.32069139011264
 21
447.27663780479219
 31
0.0
  0
TEXT
  5
B9E
  8
MEASURE
 62
     8
 10
709.31445097099595
 20
466.29275515313918
 30
0.0
 40
2.5
  1
OFF
  0
TEXT
  5
BA0
  8
MEASURE
 62
     8
 10
709.31445097099595
 20
477.77663780479219
 30
0.0
 40
2.5
  1
ON
  0
TEXT
  5
BA1
  8
MEASURE
 62
     8
 10
691.50385182766104
 20
485.80212361884509
 30
0.0
 40
3.0
  1
POWER
  0
LINE
  5
BA6
  8
AD4324
 62
     8
 10
532.91569139011244
 20
385.28163780479218
 30
0.0
 11
533.51069139011258
 21
385.52663780479179
 31
0.0
  0
LINE
  5
BA7
  8
AD4324
 62
     8
 10
533.51069139011258
 20
386.22663780479229
 30
0.0
 11
532.91569139011244
 21
386.47163780479201
 31
0.0
  0
CIRCLE
  5
BA8
  8
AD4324
 62
     8
 10
532.32069139011264
 20
385.87663780479221
 30
0.0
 40
2.75
  0
LINE
  5
BA9
  8
AD4324
 62
     8
 10
530.57069139011264
 20
386.22663780479252
 30
0.0
 11
530.57069139011242
 21
385.52663780479207
 31
0.0
  0
LINE
  5
BAA
  8
AD4324
 62
     8
 10
531.97069139011228
 20
384.12663780479221
 30
0.0
 11
532.67069139011267
 21
384.12663780479181
 31
0.0
  0
LINE
  5
BAB
  8
AD4324
 62
     8
 10
532.67069139011267
 20
384.12663780479181
 30
0.0
 11
532.67069139011267
 21
384.68663780479221
 31
0.0
  0
LINE
  5
BAC
  8
AD4324
 62
     8
 10
532.67069139011267
 20
384.68663780479221
 30
0.0
 11
532.91569139011244
 21
385.28163780479218
 31
0.0
  0
LINE
  5
BAD
  8
AD4324
 62
     8
 10
530.57069139011242
 20
385.52663780479207
 30
0.0
 11
531.1306913901127
 21
385.52663780479207
 31
0.0
  0
LINE
  5
BAE
  8
AD4324
 62
     8
 10
531.1306913901127
 20
385.52663780479207
 30
0.0
 11
531.72569139011284
 21
385.28163780479241
 31
0.0
  0
LINE
  5
BAF
  8
AD4324
 62
     8
 10
531.72569139011284
 20
385.28163780479241
 30
0.0
 11
531.97069139011228
 21
384.68663780479233
 31
0.0
  0
LINE
  5
BB0
  8
AD4324
 62
     8
 10
531.97069139011228
 20
384.68663780479233
 30
0.0
 11
531.97069139011228
 21
384.12663780479221
 31
0.0
  0
LINE
  5
BB1
  8
AD4324
 62
     8
 10
531.97069139011251
 20
387.62663780479249
 30
0.0
 11
532.67069139011278
 21
387.62663780479221
 31
0.0
  0
LINE
  5
BB2
  8
AD4324
 62
     8
 10
531.97069139011251
 20
387.62663780479249
 30
0.0
 11
531.97069139011251
 21
387.06663780479221
 31
0.0
  0
LINE
  5
BB3
  8
AD4324
 62
     8
 10
531.97069139011251
 20
387.06663780479221
 30
0.0
 11
531.72569139011284
 21
386.47163780479201
 31
0.0
  0
LINE
  5
BB4
  8
AD4324
 62
     8
 10
531.72569139011284
 20
386.47163780479201
 30
0.0
 11
531.1306913901127
 21
386.22663780479252
 31
0.0
  0
LINE
  5
BB5
  8
AD4324
 62
     8
 10
531.1306913901127
 20
386.22663780479252
 30
0.0
 11
530.57069139011264
 21
386.22663780479252
 31
0.0
  0
LINE
  5
BB6
  8
AD4324
 62
     8
 10
532.67069139011278
 20
387.06663780479221
 30
0.0
 11
532.67069139011278
 21
387.62663780479221
 31
0.0
  0
LINE
  5
BB7
  8
AD4324
 62
     8
 10
532.91569139011244
 20
386.47163780479201
 30
0.0
 11
532.67069139011278
 21
387.06663780479221
 31
0.0
  0
LINE
  5
BB8
  8
AD4324
 62
     8
 10
534.07069139011276
 20
386.22663780479229
 30
0.0
 11
534.07069139011264
 21
385.52663780479179
 31
0.0
  0
LINE
  5
BB9
  8
AD4324
 62
     8
 10
533.51069139011258
 20
385.52663780479179
 30
0.0
 11
534.07069139011264
 21
385.52663780479179
 31
0.0
  0
LINE
  5
BBA
  8
AD4324
 62
     8
 10
534.07069139011276
 20
386.22663780479229
 30
0.0
 11
533.51069139011258
 21
386.22663780479229
 31
0.0
  0
CIRCLE
  5
BBD
  8
AD4324
 62
     8
 10
611.32069139011264
 20
481.27663780479219
 30
0.0
 40
1.5
  0
CIRCLE
  5
BBE
  8
AD4324
 62
     8
 10
647.32069139011264
 20
481.27663780479219
 30
0.0
 40
1.5
  0
LINE
  5
BC0
  8
AD4324
 10
520.57069139011264
 20
361.27663780479219
 30
0.0
 11
520.57069139011264
 21
491.77663780479207
 31
0.0
  0
LINE
  5
BC1
  8
AD4324
 10
524.57069139011264
 20
495.77663780479207
 30
0.0
 11
734.07069139011264
 21
495.77663780479219
 31
0.0
  0
LINE
  5
BC2
  8
AD4324
 10
738.07069139011264
 20
491.77663780479219
 30
0.0
 11
738.07069139011264
 21
361.27663780479219
 31
0.0
  0
ARC
  5
BC3
  8
AD4324
 10
524.57069139011264
 20
491.77663780479207
 30
0.0
 40
4.0
 50
90.0
 51
180.0
  0
ARC
  5
BC4
  8
AD4324
 10
734.07069139011264
 20
491.77663780479219
 30
0.0
 40
4.0
 50
0.0
 51
90.0
  0
LINE
  5
BC5
  8
AD4324
 62
     8
 10
521.57069139011264
 20
361.27663780479219
 30
0.0
 11
521.57069139011264
 21
491.77663780479207
 31
0.0
  0
ARC
  5
BC6
  8
AD4324
 62
     8
 10
524.57069139011264
 20
491.77663780479207
 30
0.0
 40
3.0
 50
90.0
 51
180.0
  0
LINE
  5
BC7
  8
AD4324
 62
     8
 10
524.57069139011264
 20
494.77663780479207
 30
0.0
 11
734.07069139011264
 21
494.77663780479219
 31
0.0
  0
ARC
  5
BC8
  8
AD4324
 62
     8
 10
734.07069139011264
 20
491.77663780479219
 30
0.0
 40
3.0
 50
0.0
 51
90.0
  0
LINE
  5
BC9
  8
AD4324
 62
     8
 10
737.07069139011264
 20
491.77663780479219
 30
0.0
 11
737.07069139011264
 21
361.27663780479219
 31
0.0
  0
LINE
  5
BCA
  8
AD4324
 10
520.57069139011264
 20
361.27663780479219
 30
0.0
 11
521.57069139011264
 21
361.27663780479219
 31
0.0
  0
LINE
  5
BCB
  8
AD4324
 10
737.07069139011264
 20
361.27663780479219
 30
0.0
 11
738.07069139011264
 21
361.27663780479219
 31
0.0
  0
ARC
  5
BCC
  8
AD4324
 62
     8
 10
733.82069139011264
 20
491.77663780479207
 30
0.0
 40
3.0
 50
0.0
 51
90.0
  0
ARC
  5
BCD
  8
AD4324
 62
     8
 10
524.82069139011264
 20
491.77663780479219
 30
0.0
 40
3.0
 50
89.999999999999986
 51
180.0
  0
TEXT
  5
BD2
  8
MEASURE
 62
     8
 10
572.16186712120361
 20
401.2845603540967
 30
0.0
 40
3.0
  1
SER.OUT
  0
ARC
  5
BEE
  8
AD4324
 62
     8
 10
629.32069139011264
 20
491.97663780479132
 30
0.0
 40
7.0000000000002851
 50
73.448632475759084
 51
106.5513675242409
  0
LINE
  5
BEF
  8
AD4324
 62
     8
 10
632.27069139011235
 20
496.9766378047911
 30
0.0
 11
626.37069139011282
 21
496.9766378047911
 31
0.0
  0
LINE
  5
BF0
  8
AD4324
 62
     8
 10
632.32069139011264
 20
496.27663780479219
 30
0.0
 11
626.32069139011264
 21
496.27663780479219
 31
0.0
  0
LINE
  5
BF1
  8
AD4324
 62
     8
 10
632.32069139011264
 20
496.27663780479219
 30
0.0
 11
632.32069139011264
 21
495.77663780479219
 31
0.0
  0
LINE
  5
BF2
  8
AD4324
 62
     8
 10
632.02856998544985
 20
497.78036208464022
 30
0.0
 11
632.07069139011264
 21
496.9766378047911
 31
0.0
  0
LINE
  5
BF3
  8
AD4324
 62
     8
 10
632.27069139011235
 20
496.9766378047911
 30
0.0
 11
632.27069139011235
 21
496.27663780479219
 31
0.0
  0
ARC
  5
BF4
  8
AD4324
 62
     8
 10
631.02994045069545
 20
497.72802612839729
 30
0.0
 40
1.0
 50
3.0000000000057438
 51
73.448632475759084
  0
LINE
  5
BF5
  8
AD4324
 62
     8
 10
629.72483657854582
 20
496.9766378047911
 30
0.0
 11
629.32069139011264
 21
496.27663780479219
 31
0.0
  0
LINE
  5
BF6
  8
AD4324
 62
     8
 10
629.32483657854516
 20
496.9766378047911
 30
0.0
 11
628.92069139011289
 21
496.27663780479219
 31
0.0
  0
LINE
  5
BF7
  8
AD4324
 62
     8
 10
626.32069139011264
 20
496.27663780479219
 30
0.0
 11
626.32069139011264
 21
495.77663780479219
 31
0.0
  0
LINE
  5
BF8
  8
AD4324
 62
     8
 10
626.57069139011264
 20
496.9766378047911
 30
0.0
 11
626.61281279477544
 21
497.78036208464022
 31
0.0
  0
LINE
  5
BF9
  8
AD4324
 62
     8
 10
626.37069139011282
 20
496.9766378047911
 30
0.0
 11
626.37069139011282
 21
496.27663780479219
 31
0.0
  0
ARC
  5
BFA
  8
AD4324
 62
     8
 10
627.61144232952984
 20
497.72802612839729
 30
0.0
 40
1.0
 50
106.5513675242409
 51
176.9999999999942
  0
ARC
  5
BFF
  8
AD4324
 62
     8
 10
740.02207971371763
 20
467.68588686537498
 30
0.0
 40
1.0
 50
16.551367524240931
 51
86.99999999999423
  0
LINE
  5
C00
  8
AD4324
 62
     8
 10
739.27069139011155
 20
468.92663780479199
 30
0.0
 11
738.57069139011264
 21
468.92663780479199
 31
0.0
  0
LINE
  5
C01
  8
AD4324
 62
     8
 10
739.27069139011155
 20
468.72663780479218
 30
0.0
 11
740.07441566996056
 21
468.6845164001295
 31
0.0
  0
LINE
  5
C02
  8
AD4324
 62
     8
 10
738.57069139011264
 20
468.97663780479229
 30
0.0
 11
738.07069139011264
 21
468.97663780479229
 31
0.0
  0
LINE
  5
C03
  8
AD4324
 62
     8
 10
739.27069139011155
 20
465.97249261635972
 30
0.0
 11
738.57069139011264
 21
466.37663780479193
 31
0.0
  0
LINE
  5
C04
  8
AD4324
 62
     8
 10
739.27069139011155
 20
465.57249261635911
 30
0.0
 11
738.57069139011264
 21
465.97663780479229
 31
0.0
  0
ARC
  5
C05
  8
AD4324
 62
     8
 10
740.02207971371763
 20
464.26738874420948
 30
0.0
 40
1.0
 50
273.00000000000568
 51
343.44863247575898
  0
LINE
  5
C06
  8
AD4324
 62
     8
 10
739.27069139011155
 20
463.02663780479247
 30
0.0
 11
738.57069139011264
 21
463.02663780479247
 31
0.0
  0
LINE
  5
C07
  8
AD4324
 62
     8
 10
740.07441566996056
 20
463.26875920945503
 30
0.0
 11
739.27069139011155
 21
463.22663780479229
 31
0.0
  0
LINE
  5
C08
  8
AD4324
 62
     8
 10
738.57069139011264
 20
462.97663780479218
 30
0.0
 11
738.07069139011264
 21
462.97663780479218
 31
0.0
  0
LINE
  5
C09
  8
AD4324
 62
     8
 10
738.57069139011264
 20
462.97663780479218
 30
0.0
 11
738.57069139011264
 21
468.97663780479229
 31
0.0
  0
LINE
  5
C0A
  8
AD4324
 62
     8
 10
739.27069139011155
 20
463.02663780479247
 30
0.0
 11
739.27069139011155
 21
468.92663780479199
 31
0.0
  0
ARC
  5
C0B
  8
AD4324
 62
     8
 10
734.27069139011155
 20
465.97663780479229
 30
0.0
 40
7.0000000000002851
 50
343.44863247575898
 51
16.551367524240931
  0
ARC
  5
C0C
  8
AD4324
 62
     8
 10
734.27069139011155
 20
411.27663780479219
 30
0.0
 40
7.0000000000002851
 50
343.44863247575898
 51
16.551367524240931
  0
LINE
  5
C0D
  8
AD4324
 62
     8
 10
739.27069139011155
 20
408.32663780479243
 30
0.0
 11
739.27069139011155
 21
414.22663780479201
 31
0.0
  0
LINE
  5
C0E
  8
AD4324
 62
     8
 10
738.57069139011264
 20
408.27663780479219
 30
0.0
 11
738.57069139011264
 21
414.27663780479219
 31
0.0
  0
LINE
  5
C0F
  8
AD4324
 62
     8
 10
738.57069139011264
 20
408.27663780479219
 30
0.0
 11
738.07069139011264
 21
408.27663780479219
 31
0.0
  0
LINE
  5
C10
  8
AD4324
 62
     8
 10
740.07441566996056
 20
408.56875920945498
 30
0.0
 11
739.27069139011155
 21
408.52663780479219
 31
0.0
  0
LINE
  5
C11
  8
AD4324
 62
     8
 10
739.27069139011155
 20
408.32663780479243
 30
0.0
 11
738.57069139011264
 21
408.32663780479243
 31
0.0
  0
ARC
  5
C12
  8
AD4324
 62
     8
 10
740.02207971371763
 20
409.56738874420938
 30
0.0
 40
1.0
 50
273.00000000000568
 51
343.44863247575898
  0
LINE
  5
C13
  8
AD4324
 62
     8
 10
739.27069139011155
 20
410.87249261635901
 30
0.0
 11
738.57069139011264
 21
411.27663780479219
 31
0.0
  0
LINE
  5
C14
  8
AD4324
 62
     8
 10
739.27069139011155
 20
411.27249261635961
 30
0.0
 11
738.57069139011264
 21
411.67663780479182
 31
0.0
  0
LINE
  5
C15
  8
AD4324
 62
     8
 10
738.57069139011264
 20
414.27663780479219
 30
0.0
 11
738.07069139011264
 21
414.27663780479219
 31
0.0
  0
LINE
  5
C16
  8
AD4324
 62
     8
 10
739.27069139011155
 20
414.02663780479219
 30
0.0
 11
740.07441566996056
 21
413.98451640012939
 31
0.0
  0
LINE
  5
C17
  8
AD4324
 62
     8
 10
739.27069139011155
 20
414.22663780479201
 30
0.0
 11
738.57069139011264
 21
414.22663780479201
 31
0.0
  0
ARC
  5
C18
  8
AD4324
 62
     8
 10
740.02207971371763
 20
412.98588686537499
 30
0.0
 40
1.0
 50
16.551367524240931
 51
86.99999999999423
  0
ARC
  5
C19
  8
AD4324
 62
     8
 10
740.02207971371763
 20
370.76738874420943
 30
0.0
 40
1.0
 50
273.00000000000568
 51
343.44863247575898
  0
LINE
  5
C1A
  8
AD4324
 62
     8
 10
738.57069139011264
 20
369.47663780479229
 30
0.0
 11
738.57069139011264
 21
375.47663780479218
 31
0.0
  0
LINE
  5
C1B
  8
AD4324
 62
     8
 10
739.27069139011155
 20
369.52663780479241
 30
0.0
 11
739.27069139011155
 21
375.42663780479211
 31
0.0
  0
LINE
  5
C1C
  8
AD4324
 62
     8
 10
739.27069139011155
 20
369.52663780479241
 30
0.0
 11
738.57069139011264
 21
369.52663780479241
 31
0.0
  0
LINE
  5
C1D
  8
AD4324
 62
     8
 10
740.07441566996056
 20
369.76875920945503
 30
0.0
 11
739.27069139011155
 21
369.72663780479229
 31
0.0
  0
LINE
  5
C1E
  8
AD4324
 62
     8
 10
738.57069139011264
 20
369.47663780479229
 30
0.0
 11
738.07069139011264
 21
369.47663780479229
 31
0.0
  0
ARC
  5
C1F
  8
AD4324
 62
     8
 10
740.02207971371763
 20
374.18588686537498
 30
0.0
 40
1.0
 50
16.551367524240931
 51
86.99999999999423
  0
LINE
  5
C20
  8
AD4324
 62
     8
 10
739.27069139011155
 20
375.42663780479211
 30
0.0
 11
738.57069139011264
 21
375.42663780479211
 31
0.0
  0
LINE
  5
C21
  8
AD4324
 62
     8
 10
739.27069139011155
 20
375.22663780479218
 30
0.0
 11
740.07441566996056
 21
375.1845164001295
 31
0.0
  0
LINE
  5
C22
  8
AD4324
 62
     8
 10
738.57069139011264
 20
375.47663780479218
 30
0.0
 11
738.07069139011264
 21
375.47663780479218
 31
0.0
  0
LINE
  5
C23
  8
AD4324
 62
     8
 10
739.27069139011155
 20
372.4724926163596
 30
0.0
 11
738.57069139011264
 21
372.87663780479193
 31
0.0
  0
LINE
  5
C24
  8
AD4324
 62
     8
 10
739.27069139011155
 20
372.07249261635911
 30
0.0
 11
738.57069139011264
 21
372.47663780479218
 31
0.0
  0
ARC
  5
C25
  8
AD4324
 62
     8
 10
734.27069139011155
 20
372.47663780479218
 30
0.0
 40
7.0000000000002851
 50
343.44863247575898
 51
16.551367524240931
  0
ARC
  5
C4D
  8
AD4324
 62
     8
 10
524.37069139011373
 20
372.47663780479218
 30
0.0
 40
7.0000000000002851
 50
163.44863247575901
 51
196.5513675242409
  0
LINE
  5
C4E
  8
AD4324
 62
     8
 10
519.37069139011373
 20
372.07249261635911
 30
0.0
 11
520.07069139011264
 21
372.47663780479218
 31
0.0
  0
LINE
  5
C4F
  8
AD4324
 62
     8
 10
519.37069139011373
 20
372.4724926163596
 30
0.0
 11
520.07069139011264
 21
372.87663780479193
 31
0.0
  0
LINE
  5
C50
  8
AD4324
 62
     8
 10
520.07069139011264
 20
375.47663780479218
 30
0.0
 11
520.57069139011264
 21
375.47663780479218
 31
0.0
  0
LINE
  5
C51
  8
AD4324
 62
     8
 10
519.37069139011373
 20
375.22663780479218
 30
0.0
 11
518.56696711026461
 21
375.1845164001295
 31
0.0
  0
LINE
  5
C52
  8
AD4324
 62
     8
 10
519.37069139011373
 20
375.42663780479211
 30
0.0
 11
520.07069139011264
 21
375.42663780479211
 31
0.0
  0
ARC
  5
C53
  8
AD4324
 62
     8
 10
518.61930306650765
 20
374.18588686537498
 30
0.0
 40
1.0
 50
93.000000000005784
 51
163.44863247575901
  0
LINE
  5
C54
  8
AD4324
 62
     8
 10
520.07069139011264
 20
369.47663780479229
 30
0.0
 11
520.57069139011264
 21
369.47663780479229
 31
0.0
  0
LINE
  5
C55
  8
AD4324
 62
     8
 10
518.56696711026461
 20
369.76875920945503
 30
0.0
 11
519.37069139011373
 21
369.72663780479229
 31
0.0
  0
LINE
  5
C56
  8
AD4324
 62
     8
 10
519.37069139011373
 20
369.52663780479241
 30
0.0
 11
520.07069139011264
 21
369.52663780479241
 31
0.0
  0
LINE
  5
C57
  8
AD4324
 62
     8
 10
519.37069139011373
 20
369.52663780479241
 30
0.0
 11
519.37069139011373
 21
375.42663780479211
 31
0.0
  0
LINE
  5
C58
  8
AD4324
 62
     8
 10
520.07069139011264
 20
369.47663780479229
 30
0.0
 11
520.07069139011264
 21
375.47663780479218
 31
0.0
  0
ARC
  5
C59
  8
AD4324
 62
     8
 10
518.61930306650765
 20
370.76738874420943
 30
0.0
 40
1.0
 50
196.5513675242409
 51
266.9999999999942
  0
ARC
  5
C5A
  8
AD4324
 62
     8
 10
518.61930306650765
 20
409.56738874420938
 30
0.0
 40
1.0
 50
196.5513675242409
 51
266.9999999999942
  0
LINE
  5
C5B
  8
AD4324
 62
     8
 10
520.07069139011264
 20
408.27663780479219
 30
0.0
 11
520.07069139011264
 21
414.27663780479219
 31
0.0
  0
LINE
  5
C5C
  8
AD4324
 62
     8
 10
519.37069139011373
 20
408.32663780479243
 30
0.0
 11
519.37069139011373
 21
414.22663780479201
 31
0.0
  0
LINE
  5
C5D
  8
AD4324
 62
     8
 10
519.37069139011373
 20
408.32663780479243
 30
0.0
 11
520.07069139011264
 21
408.32663780479243
 31
0.0
  0
LINE
  5
C5E
  8
AD4324
 62
     8
 10
518.56696711026461
 20
408.56875920945498
 30
0.0
 11
519.37069139011373
 21
408.52663780479219
 31
0.0
  0
LINE
  5
C5F
  8
AD4324
 62
     8
 10
520.07069139011264
 20
408.27663780479219
 30
0.0
 11
520.57069139011264
 21
408.27663780479219
 31
0.0
  0
ARC
  5
C60
  8
AD4324
 62
     8
 10
518.61930306650765
 20
412.98588686537499
 30
0.0
 40
1.0
 50
93.000000000005784
 51
163.44863247575901
  0
LINE
  5
C61
  8
AD4324
 62
     8
 10
519.37069139011373
 20
414.22663780479201
 30
0.0
 11
520.07069139011264
 21
414.22663780479201
 31
0.0
  0
LINE
  5
C62
  8
AD4324
 62
     8
 10
519.37069139011373
 20
414.02663780479219
 30
0.0
 11
518.56696711026461
 21
413.98451640012939
 31
0.0
  0
LINE
  5
C63
  8
AD4324
 62
     8
 10
520.07069139011264
 20
414.27663780479219
 30
0.0
 11
520.57069139011264
 21
414.27663780479219
 31
0.0
  0
LINE
  5
C64
  8
AD4324
 62
     8
 10
519.37069139011373
 20
411.27249261635961
 30
0.0
 11
520.07069139011264
 21
411.67663780479182
 31
0.0
  0
LINE
  5
C65
  8
AD4324
 62
     8
 10
519.37069139011373
 20
410.87249261635901
 30
0.0
 11
520.07069139011264
 21
411.27663780479219
 31
0.0
  0
ARC
  5
C66
  8
AD4324
 62
     8
 10
524.37069139011373
 20
411.27663780479219
 30
0.0
 40
7.0000000000002851
 50
163.44863247575901
 51
196.5513675242409
  0
ARC
  5
C67
  8
AD4324
 62
     8
 10
524.37069139011373
 20
465.97663780479229
 30
0.0
 40
7.0000000000002851
 50
163.44863247575901
 51
196.5513675242409
  0
LINE
  5
C68
  8
AD4324
 62
     8
 10
519.37069139011373
 20
463.02663780479247
 30
0.0
 11
519.37069139011373
 21
468.92663780479199
 31
0.0
  0
LINE
  5
C69
  8
AD4324
 62
     8
 10
520.07069139011264
 20
462.97663780479218
 30
0.0
 11
520.07069139011264
 21
468.97663780479229
 31
0.0
  0
LINE
  5
C6A
  8
AD4324
 62
     8
 10
520.07069139011264
 20
462.97663780479218
 30
0.0
 11
520.57069139011264
 21
462.97663780479218
 31
0.0
  0
LINE
  5
C6B
  8
AD4324
 62
     8
 10
518.56696711026461
 20
463.26875920945503
 30
0.0
 11
519.37069139011373
 21
463.22663780479229
 31
0.0
  0
LINE
  5
C6C
  8
AD4324
 62
     8
 10
519.37069139011373
 20
463.02663780479247
 30
0.0
 11
520.07069139011264
 21
463.02663780479247
 31
0.0
  0
ARC
  5
C6D
  8
AD4324
 62
     8
 10
518.61930306650765
 20
464.26738874420948
 30
0.0
 40
1.0
 50
196.5513675242409
 51
266.9999999999942
  0
LINE
  5
C6E
  8
AD4324
 62
     8
 10
519.37069139011373
 20
465.57249261635911
 30
0.0
 11
520.07069139011264
 21
465.97663780479229
 31
0.0
  0
LINE
  5
C6F
  8
AD4324
 62
     8
 10
519.37069139011373
 20
465.97249261635972
 30
0.0
 11
520.07069139011264
 21
466.37663780479193
 31
0.0
  0
LINE
  5
C70
  8
AD4324
 62
     8
 10
520.07069139011264
 20
468.97663780479229
 30
0.0
 11
520.57069139011264
 21
468.97663780479229
 31
0.0
  0
LINE
  5
C71
  8
AD4324
 62
     8
 10
519.37069139011373
 20
468.72663780479218
 30
0.0
 11
518.56696711026461
 21
468.6845164001295
 31
0.0
  0
LINE
  5
C72
  8
AD4324
 62
     8
 10
519.37069139011373
 20
468.92663780479199
 30
0.0
 11
520.07069139011264
 21
468.92663780479199
 31
0.0
  0
ARC
  5
C73
  8
AD4324
 62
     8
 10
518.61930306650765
 20
467.68588686537498
 30
0.0
 40
1.0
 50
93.000000000005784
 51
163.44863247575901
  0
ARC
  5
C75
  8
AD4324
 62
     8
 10
685.07069139011264
 20
365.07663780479322
 30
0.0
 40
7.0000000000002851
 50
253.44863247575901
 51
286.5513675242409
  0
LINE
  5
C76
  8
AD4324
 62
     8
 10
682.07069139011264
 20
360.77663780479219
 30
0.0
 11
688.07069139011264
 21
360.77663780479219
 31
0.0
  0
LINE
  5
C77
  8
AD4324
 62
     8
 10
682.12069139011282
 20
360.07663780479328
 30
0.0
 11
688.02069139011235
 21
360.07663780479328
 31
0.0
  0
ARC
  5
C78
  8
AD4324
 62
     8
 10
686.77994045069545
 20
359.32524948118709
 30
0.0
 40
1.0
 50
286.5513675242409
 51
356.9999999999942
  0
LINE
  5
C79
  8
AD4324
 62
     8
 10
688.02069139011235
 20
360.07663780479328
 30
0.0
 11
688.02069139011235
 21
360.77663780479219
 31
0.0
  0
LINE
  5
C7A
  8
AD4324
 62
     8
 10
687.82069139011264
 20
360.07663780479328
 30
0.0
 11
687.77856998544985
 21
359.27291352494422
 31
0.0
  0
LINE
  5
C7B
  8
AD4324
 62
     8
 10
688.07069139011264
 20
360.77663780479219
 30
0.0
 11
688.07069139011264
 21
361.27663780479219
 31
0.0
  0
LINE
  5
C7C
  8
AD4324
 62
     8
 10
685.06654620168001
 20
360.07663780479328
 30
0.0
 11
685.47069139011217
 21
360.77663780479219
 31
0.0
  0
LINE
  5
C7D
  8
AD4324
 62
     8
 10
684.66654620167935
 20
360.07663780479328
 30
0.0
 11
685.07069139011264
 21
360.77663780479219
 31
0.0
  0
LINE
  5
C7E
  8
AD4324
 62
     8
 10
682.12069139011282
 20
360.07663780479328
 30
0.0
 11
682.12069139011282
 21
360.77663780479219
 31
0.0
  0
LINE
  5
C7F
  8
AD4324
 62
     8
 10
682.36281279477544
 20
359.27291352494422
 30
0.0
 11
682.32069139011264
 21
360.07663780479328
 31
0.0
  0
LINE
  5
C80
  8
AD4324
 62
     8
 10
682.07069139011264
 20
360.77663780479219
 30
0.0
 11
682.07069139011264
 21
361.27663780479219
 31
0.0
  0
ARC
  5
C81
  8
AD4324
 62
     8
 10
683.36144232952984
 20
359.32524948118709
 30
0.0
 40
1.0
 50
183.00000000000571
 51
253.44863247575901
  0
LINE
  5
C83
  8
AD4324
 62
     8
 10
538.77069139011292
 20
113.9163850352531
 30
0.0
 11
532.87069139011317
 21
113.9163850352531
 31
0.0
  0
LINE
  5
C84
  8
AD4324
 62
     8
 10
538.8206913901131
 20
114.61638503525199
 30
0.0
 11
532.8206913901131
 21
114.61638503525199
 31
0.0
  0
ARC
  5
C85
  8
AD4324
 62
     8
 10
535.82069139011298
 20
118.916385035253
 30
0.0
 40
7.0000000000002851
 50
253.44863247575901
 51
286.5513675242409
  0
LINE
  5
C86
  8
AD4324
 62
     8
 10
536.22483657854616
 20
113.9163850352531
 30
0.0
 11
535.82069139011298
 21
114.61638503525199
 31
0.0
  0
LINE
  5
C87
  8
AD4324
 62
     8
 10
535.82483657854573
 20
113.9163850352531
 30
0.0
 11
535.42069139011335
 21
114.61638503525199
 31
0.0
  0
LINE
  5
C88
  8
AD4324
 62
     8
 10
532.8206913901131
 20
114.61638503525199
 30
0.0
 11
532.8206913901131
 21
115.11638503525199
 31
0.0
  0
LINE
  5
C89
  8
AD4324
 62
     8
 10
533.07069139011298
 20
113.9163850352531
 30
0.0
 11
533.11281279477578
 21
113.11266075540399
 31
0.0
  0
LINE
  5
C8A
  8
AD4324
 62
     8
 10
532.87069139011317
 20
113.9163850352531
 30
0.0
 11
532.87069139011317
 21
114.61638503525199
 31
0.0
  0
ARC
  5
C8B
  8
AD4324
 62
     8
 10
534.11144232953018
 20
113.16499671164691
 30
0.0
 40
1.0
 50
183.00000000000571
 51
253.44863247575901
  0
ARC
  5
C8C
  8
AD4324
 62
     8
 10
537.5299404506959
 20
113.16499671164691
 30
0.0
 40
1.0
 50
286.5513675242409
 51
356.9999999999942
  0
LINE
  5
C8D
  8
AD4324
 62
     8
 10
538.8206913901131
 20
114.61638503525199
 30
0.0
 11
538.8206913901131
 21
115.11638503525199
 31
0.0
  0
LINE
  5
C8E
  8
AD4324
 62
     8
 10
538.52856998545019
 20
113.11266075540399
 30
0.0
 11
538.57069139011298
 21
113.9163850352531
 31
0.0
  0
LINE
  5
C8F
  8
AD4324
 62
     8
 10
538.77069139011292
 20
113.9163850352531
 30
0.0
 11
538.77069139011292
 21
114.61638503525199
 31
0.0
  0
LINE
  5
C93
  8
AD4324
 62
     8
 10
693.32069139011264
 20
482.27663780479219
 30
0.0
 11
705.32069139011264
 21
482.27663780479219
 31
0.0
  0
LINE
  5
C94
  8
AD4324
 62
     8
 10
705.32069139011264
 20
482.27663780479219
 30
0.0
 11
705.32069139011264
 21
464.27663780479219
 31
0.0
  0
LINE
  5
C95
  8
AD4324
 62
     8
 10
705.32069139011264
 20
464.27663780479219
 30
0.0
 11
693.32069139011264
 21
464.27663780479219
 31
0.0
  0
LINE
  5
C96
  8
AD4324
 62
     8
 10
693.32069139011264
 20
464.27663780479219
 30
0.0
 11
693.32069139011264
 21
482.27663780479219
 31
0.0
  0
LINE
  5
C99
  8
AD4324
 62
     8
 10
705.32069139011264
 20
468.27663780479219
 30
0.0
 11
693.32069139011264
 21
468.27663780479219
 31
0.0
  0
CIRCLE
  5
C9A
  8
AD4324
 62
     8
 10
699.32069139011264
 20
479.27663780479219
 30
0.0
 40
1.0
  0
INSERT
  5
CE9
  8
MEASURE
 62
     7
  2
*U17
 10
0.0
 20
0.0
 30
0.0
  0
POLYLINE
  5
CEA
  8
AD4324
 62
     8
 66
     1
 10
0.0
 20
0.0
 30
0.0
  0
VERTEX
  5
12B8
  8
AD4324
 62
     8
 10
120.6664752155134
 20
123.5418570219405
 30
0.0
  0
VERTEX
  5
12B9
  8
AD4324
 62
     8
 10
119.773043027866
 20
123.5418570219405
 30
0.0
  0
VERTEX
  5
12BA
  8
AD4324
 62
     8
 10
120.6664752155134
 20
124.65870433752509
 30
0.0
  0
VERTEX
  5
12BB
  8
AD4324
 62
     8
 10
120.6664752155134
 20
123.5418570219405
 30
0.0
  0
SEQEND
  5
12BC
  8
AD4324
 62
     8
  0
INSERT
  5
CEB
  8
AD4324
  6
CONTINUOUS
 62
     8
  2
*U18
 10
0.0
 20
0.0
 30
0.0
1001
ACAD
1002
{
1000
R14_HATCH_DATA
1000
CEB
1011
1.0
1021
0.0
1031
0.0
1021
0.0
1031
0.0
1011
0.0
1021
0.0
1031
0.0
1021
1.0
1031
0.0
1011
0.0
1021
0.0
1031
0.0
1021
0.0
1031
1.0
1040
0.0
1010
0.0
1020
0.0
1030
1.0
1000
SOLID
1070
     1
1070
     0
1071
        3
1071
        7
1070
     0
1070
     1
1071
       57
1040
125.5862886740739
1040
123.730452725237
1040
123.309212464666
1040
125.70305875262871
1040
118.6300526032902
1040
125.70305875262871
1040
118.6300526032902
1040
124.8734431498127
1040
119.0565620146178
1040
124.8734431498127
1040
116.8953602839297
1040
122.1960006380685
1040
116.3761512896257
1040
122.1960006380685
1040
116.3761512896257
1040
121.36638503525241
1040
119.2131923444738
1040
121.36638503525241
1040
119.2131923444738
1040
122.2076451669645
1040
118.6939833501697
1040
122.20764516696551
1040
119.10005775490571
1040
122.7210318968209
1040
120.672297479962
1040
122.7210318968209
1040
120.672297479962
1040
122.1960006380685
1040
120.1530884856578
1040
122.1960006380685
1040
120.1530884856578
1040
121.3722072997009
1040
122.9291670068741
1040
121.3722072997009
1040
122.9291670068741
1040
122.1960006380685
1040
122.3983134836741
1040
122.1960006380685
1040
122.3954594324732
1040
124.65870433752499
1040
125.2294181120255
1040
122.1989688513171
1040
124.80884512719339
1040
122.1960006380685
1040
124.80884512719339
1040
121.37506135090069
1040
128.75108896872871
1040
121.3780295641487
1040
129.01217757250521
1040
121.3895599309967
1040
129.25876759618561
1040
121.4273475688851
1040
129.4878908265222
1040
121.4823736760211
1040
129.6996614255622
1040
121.5606888409486
1040
129.8969334445062
1040
121.6593248504205
1040
130.07388461890559
1040
121.77245943998849
1040
130.23336899996141
1040
121.9030608229011
1040
130.37846896296989
1040
122.0480466238609
1040
130.5032480814339
1040
122.20764516696551
1040
130.61341445775309
1040
122.3759200257164
1040
130.7062282027776
1040
122.5528712001169
1040
130.78168931650521
1040
122.7384986901648
1040
130.83968363688911
1040
122.9328024958609
1040
130.88317937717699
1040
123.1300745148048
1040
130.9151447506178
1040
123.5303266550933
1040
130.87747127477729
1040
123.93354700862849
1040
130.8368295856902
1040
124.1308190275727
1040
130.77586705205769
1040
124.322268782069
1040
130.69755188713009
1040
124.5107503233174
1040
130.60473814210579
1040
124.6906697109646
1040
130.4944576037376
1040
124.8589445697167
1040
130.36682443407369
1040
125.0184289507724
1040
130.22469268431379
1040
125.1663829649808
1040
130.0622400900094
1040
125.2969843478926
1040
129.88528891560989
1040
125.4158270398611
1040
129.69098510991381
1040
125.514463049333
1040
129.47921451087379
1040
125.5957464275083
1040
129.2529453317371
1040
125.6565947990929
1040
129.00635530805749
1040
125.6943824369812
1040
128.74823491753
1040
125.7088810170771
1040
124.80884512719339
1040
125.70591280382941
1040
124.80884512719339
1040
124.8792654142611
1040
125.5891427252737
1040
124.8792654142611
1071
        0
1071
       22
1070
     0
1070
     1
1071
        6
1040
127.31515872898581
1040
124.8821194654609
1040
128.71351917229839
1040
124.8785272941619
1040
129.0670524820176
1040
124.4821245909805
1040
129.07057969391619
1040
122.51055422828141
1040
128.66730321564481
1040
122.2046769537167
1040
127.31515872898581
1040
122.2046769537167
1071
        0
1071
       22
1070
     0
1070
     1
1071
        3
1040
120.6664752155134
1040
123.5418570219414
1040
119.773043027866
1040
123.5418570219405
1040
120.6664752155134
1040
124.65870433752499
1071
        0
1070
     0
1070
     1
1040
0.0677524763591524
1071
        3
1040
126.0821464240274
1040
123.284069621085
1040
0.0
1040
126.0821464240274
1040
123.284069621085
1040
0.0
1040
126.0821464240274
1040
123.284069621085
1040
0.0
1002
}
  0
POLYLINE
  5
CEC
  8
AD4324
 62
     8
 66
     1
 10
0.0
 20
0.0
 30
0.0
  0
VERTEX
  5
1304
  8
AD4324
 62
     8
 10
122.3954594324742
 20
124.65870433752509
 30
0.0
  0
VERTEX
  5
1305
  8
AD4324
 62
     8
 10
125.2294181120255
 20
122.1989688513171
 30
0.0
  0
VERTEX
  5
1306
  8
AD4324
 62
     8
 10
124.80884512719339
 20
122.1960006380685
 30
0.0
  0
VERTEX
  5
1307
  8
AD4324
 62
     8
 10
124.80884512719339
 20
121.37506135090069
 30
0.0
  0
VERTEX
  5
1308
  8
AD4324
 62
     8
 10
128.75108896872979
 20
121.3780295641487
 30
0.0
  0
VERTEX
  5
1309
  8
AD4324
 62
     8
 10
129.01217757250609
 20
121.3895599309968
 30
0.0
  0
VERTEX
  5
130A
  8
AD4324
 62
     8
 10
129.25876759618561
 20
121.4273475688851
 30
0.0
  0
VERTEX
  5
130B
  8
AD4324
 62
     8
 10
129.4878908265222
 20
121.4823736760211
 30
0.0
  0
VERTEX
  5
130C
  8
AD4324
 62
     8
 10
129.6996614255622
 20
121.5606888409486
 30
0.0
  0
VERTEX
  5
130D
  8
AD4324
 62
     8
 10
129.8969334445062
 20
121.6593248504205
 30
0.0
  0
VERTEX
  5
130E
  8
AD4324
 62
     8
 10
130.07388461890559
 20
121.77245943998849
 30
0.0
  0
VERTEX
  5
130F
  8
AD4324
 62
     8
 10
130.23336899996141
 20
121.9030608229011
 30
0.0
  0
VERTEX
  5
1310
  8
AD4324
 62
     8
 10
130.37846896296989
 20
122.0480466238609
 30
0.0
  0
VERTEX
  5
1311
  8
AD4324
 62
     8
 10
130.5032480814339
 20
122.2076451669646
 30
0.0
  0
VERTEX
  5
1312
  8
AD4324
 62
     8
 10
130.6134144577542
 20
122.3759200257165
 30
0.0
  0
VERTEX
  5
1313
  8
AD4324
 62
     8
 10
130.7062282027776
 20
122.5528712001169
 30
0.0
  0
VERTEX
  5
1314
  8
AD4324
 62
     8
 10
130.78168931650609
 20
122.7384986901648
 30
0.0
  0
VERTEX
  5
1315
  8
AD4324
 62
     8
 10
130.83968363688999
 20
122.932802495861
 30
0.0
  0
VERTEX
  5
1316
  8
AD4324
 62
     8
 10
130.8831793771779
 20
123.1300745148048
 30
0.0
  0
VERTEX
  5
1317
  8
AD4324
 62
     8
 10
130.9151447506178
 20
123.5303266550933
 30
0.0
  0
VERTEX
  5
1318
  8
AD4324
 62
     8
 10
130.87747127477729
 20
123.93354700862859
 30
0.0
  0
VERTEX
  5
1319
  8
AD4324
 62
     8
 10
130.8368295856902
 20
124.1308190275727
 30
0.0
  0
VERTEX
  5
131A
  8
AD4324
 62
     8
 10
130.77586705205769
 20
124.322268782069
 30
0.0
  0
VERTEX
  5
131B
  8
AD4324
 62
     8
 10
130.69755188713009
 20
124.5107503233166
 30
0.0
  0
VERTEX
  5
131C
  8
AD4324
 62
     8
 10
130.60473814210579
 20
124.6906697109646
 30
0.0
  0
VERTEX
  5
131D
  8
AD4324
 62
     8
 10
130.4944576037376
 20
124.8589445697168
 30
0.0
  0
VERTEX
  5
131E
  8
AD4324
 62
     8
 10
130.36682443407369
 20
125.0184289507724
 30
0.0
  0
VERTEX
  5
131F
  8
AD4324
 62
     8
 10
130.22469268431379
 20
125.1663829649808
 30
0.0
  0
VERTEX
  5
1320
  8
AD4324
 62
     8
 10
130.06224009001019
 20
125.2969843478927
 30
0.0
  0
VERTEX
  5
1321
  8
AD4324
 62
     8
 10
129.88528891560989
 20
125.4158270398611
 30
0.0
  0
VERTEX
  5
1322
  8
AD4324
 62
     8
 10
129.69098510991381
 20
125.514463049333
 30
0.0
  0
VERTEX
  5
1323
  8
AD4324
 62
     8
 10
129.47921451087379
 20
125.5957464275084
 30
0.0
  0
VERTEX
  5
1324
  8
AD4324
 62
     8
 10
129.25294533173789
 20
125.6565947990929
 30
0.0
  0
VERTEX
  5
1325
  8
AD4324
 62
     8
 10
129.00635530805749
 20
125.6943824369812
 30
0.0
  0
VERTEX
  5
1326
  8
AD4324
 62
     8
 10
128.74823491753
 20
125.7088810170771
 30
0.0
  0
VERTEX
  5
1327
  8
AD4324
 62
     8
 10
124.80884512719339
 20
125.70591280382941
 30
0.0
  0
VERTEX
  5
1328
  8
AD4324
 62
     8
 10
124.80884512719339
 20
124.8792654142611
 30
0.0
  0
VERTEX
  5
1329
  8
AD4324
 62
     8
 10
125.5891427252737
 20
124.8792654142611
 30
0.0
  0
VERTEX
  5
132A
  8
AD4324
 62
     8
 10
125.5862886740739
 20
123.730452725237
 30
0.0
  0
VERTEX
  5
132B
  8
AD4324
 62
     8
 10
123.309212464666
 20
125.70305875262871
 30
0.0
  0
VERTEX
  5
132C
  8
AD4324
 62
     8
 10
118.6300526032902
 20
125.70305875262871
 30
0.0
  0
VERTEX
  5
132D
  8
AD4324
 62
     8
 10
118.6300526032902
 20
124.8734431498127
 30
0.0
  0
VERTEX
  5
132E
  8
AD4324
 62
     8
 10
119.0565620146178
 20
124.8734431498127
 30
0.0
  0
VERTEX
  5
132F
  8
AD4324
 62
     8
 10
116.8953602839297
 20
122.1960006380685
 30
0.0
  0
VERTEX
  5
1330
  8
AD4324
 62
     8
 10
116.3761512896257
 20
122.1960006380685
 30
0.0
  0
VERTEX
  5
1331
  8
AD4324
 62
     8
 10
116.3761512896257
 20
121.36638503525241
 30
0.0
  0
VERTEX
  5
1332
  8
AD4324
 62
     8
 10
119.2131923444738
 20
121.36638503525241
 30
0.0
  0
VERTEX
  5
1333
  8
AD4324
 62
     8
 10
119.2131923444738
 20
122.2076451669646
 30
0.0
  0
VERTEX
  5
1334
  8
AD4324
 62
     8
 10
118.6939833501697
 20
122.2076451669646
 30
0.0
  0
VERTEX
  5
1335
  8
AD4324
 62
     8
 10
119.10005775490571
 20
122.7210318968209
 30
0.0
  0
VERTEX
  5
1336
  8
AD4324
 62
     8
 10
120.672297479962
 20
122.7210318968209
 30
0.0
  0
VERTEX
  5
1337
  8
AD4324
 62
     8
 10
120.672297479962
 20
122.1960006380685
 30
0.0
  0
VERTEX
  5
1338
  8
AD4324
 62
     8
 10
120.1530884856578
 20
122.1960006380685
 30
0.0
  0
VERTEX
  5
1339
  8
AD4324
 62
     8
 10
120.1530884856578
 20
121.3722072997009
 30
0.0
  0
VERTEX
  5
133A
  8
AD4324
 62
     8
 10
122.9291670068741
 20
121.3722072997009
 30
0.0
  0
VERTEX
  5
133B
  8
AD4324
 62
     8
 10
122.9291670068741
 20
122.1960006380685
 30
0.0
  0
VERTEX
  5
133C
  8
AD4324
 62
     8
 10
122.3983134836741
 20
122.1960006380685
 30
0.0
  0
VERTEX
  5
133D
  8
AD4324
 62
     8
 10
122.3954594324742
 20
124.65870433752509
 30
0.0
  0
SEQEND
  5
133E
  8
AD4324
 62
     8
  0
POLYLINE
  5
CED
  8
AD4324
 62
     8
 66
     1
 10
0.0
 20
0.0
 30
0.0
  0
VERTEX
  5
133F
  8
AD4324
 62
     8
 10
129.07017189288999
 20
122.7384986901648
 30
0.0
  0
VERTEX
  5
1340
  8
AD4324
 62
     8
 10
129.06731784169011
 20
124.33379914891709
 30
0.0
  0
VERTEX
  5
1341
  8
AD4324
 62
     8
 10
129.0440287838978
 20
124.4324351583891
 30
0.0
  0
VERTEX
  5
1342
  8
AD4324
 62
     8
 10
129.00635530805749
 20
124.5252489034125
 30
0.0
  0
VERTEX
  5
1343
  8
AD4324
 62
     8
 10
128.9483609876736
 20
124.6152085972371
 30
0.0
  0
VERTEX
  5
1344
  8
AD4324
 62
     8
 10
128.87586808719379
 20
124.69649197541329
 30
0.0
  0
VERTEX
  5
1345
  8
AD4324
 62
     8
 10
128.7859083933694
 20
124.7661308246924
 30
0.0
  0
VERTEX
  5
1346
  8
AD4324
 62
     8
 10
128.67859606824979
 20
124.8211569318286
 30
0.0
  0
VERTEX
  5
1347
  8
AD4324
 62
     8
 10
128.5596392142335
 20
124.8589445697168
 30
0.0
  0
VERTEX
  5
1348
  8
AD4324
 62
     8
 10
128.4261837801217
 20
124.8792654142611
 30
0.0
  0
VERTEX
  5
1349
  8
AD4324
 62
     8
 10
127.31515872898581
 20
124.8821194654609
 30
0.0
  0
VERTEX
  5
134A
  8
AD4324
 62
     8
 10
127.31515872898581
 20
122.2046769537167
 30
0.0
  0
VERTEX
  5
134B
  8
AD4324
 62
     8
 10
128.4551809403138
 20
122.2046769537167
 30
0.0
  0
VERTEX
  5
134C
  8
AD4324
 62
     8
 10
128.57699184552999
 20
122.2163214826128
 30
0.0
  0
VERTEX
  5
134D
  8
AD4324
 62
     8
 10
128.6872723838982
 20
122.2453186428049
 30
0.0
  0
VERTEX
  5
134E
  8
AD4324
 62
     8
 10
128.7859083933694
 20
122.2946366475413
 30
0.0
  0
VERTEX
  5
134F
  8
AD4324
 62
     8
 10
128.87004582274611
 20
122.3584532323727
 30
0.0
  0
VERTEX
  5
1350
  8
AD4324
 62
     8
 10
128.94253872322611
 20
122.43676839730119
 30
0.0
  0
VERTEX
  5
1351
  8
AD4324
 62
     8
 10
129.00053304360989
 20
122.5267280911248
 30
0.0
  0
VERTEX
  5
1352
  8
AD4324
 62
     8
 10
129.0440287838978
 20
122.6282181517965
 30
0.0
  0
VERTEX
  5
1353
  8
AD4324
 62
     8
 10
129.07017189288999
 20
122.7384986901648
 30
0.0
  0
SEQEND
  5
1354
  8
AD4324
 62
     8
  0
LINE
  5
CEE
  8
AD4324
 62
     8
 10
324.62615128962619
 20
118.61638503525251
 30
0.0
 11
324.62615128962602
 21
135.61638503525199
 31
0.0
  0
ARC
  5
CEF
  8
AD4324
 62
     8
 10
322.62615128962602
 20
135.61638503525199
 30
0.0
 40
2.0
 50
0.0
 51
90.0
  0
LINE
  5
CF0
  8
AD4324
 62
     8
 10
322.62615128962602
 20
137.61638503525199
 30
0.0
 11
112.6261512896258
 21
137.61638503525251
 31
0.0
  0
ARC
  5
CF1
  8
AD4324
 62
     8
 10
112.6261512896258
 20
135.61638503525251
 30
0.0
 40
2.0
 50
90.0
 51
180.0
  0
LINE
  5
CF2
  8
AD4324
 62
     8
 10
110.6261512896258
 20
135.61638503525251
 30
0.0
 11
110.6261512896258
 21
118.61638503525251
 31
0.0
  0
ARC
  5
CF3
  8
AD4324
 62
     8
 10
112.6261512896258
 20
118.61638503525251
 30
0.0
 40
2.0
 50
180.0
 51
270.0
  0
LINE
  5
CF4
  8
AD4324
 62
     8
 10
112.6261512896258
 20
116.61638503525251
 30
0.0
 11
322.62615128962619
 21
116.61638503525251
 31
0.0
  0
ARC
  5
CF5
  8
AD4324
 62
     8
 10
322.62615128962619
 20
118.61638503525251
 30
0.0
 40
1.999999999999992
 50
270.0
 51
0.0000000000002036
  0
LINE
  5
CFF
  8
AD4324
 62
     8
 10
270.42615128962598
 20
113.4163850352535
 30
0.0
 11
276.32615128962573
 21
113.4163850352535
 31
0.0
  0
LINE
  5
D00
  8
AD4324
 62
     8
 10
270.37615128962591
 20
114.11638503525241
 30
0.0
 11
276.3761512896258
 21
114.11638503525241
 31
0.0
  0
ARC
  5
D01
  8
AD4324
 62
     8
 10
271.6669022290431
 20
112.6649967116474
 30
0.0
 40
1.0
 50
183.00000000000571
 51
253.44863247575901
  0
LINE
  5
D02
  8
AD4324
 62
     8
 10
128.3261512896251
 20
107.01638503525371
 30
0.0
 11
144.92615128962549
 21
107.01638503525371
 31
0.0
  0
LINE
  5
D03
  8
AD4324
 62
     8
 10
128.3261512896251
 20
107.0163850352528
 30
0.0
 11
126.3433701782258
 21
114.61638503525251
 31
0.0
  0
LINE
  5
D04
  8
AD4324
 62
     8
 10
144.92615128962549
 20
107.0163850352528
 30
0.0
 11
146.9089324010275
 21
114.61638503525251
 31
0.0
  0
ARC
  5
D05
  8
AD4324
 62
     8
 10
163.58540035020869
 20
112.6649967116474
 30
0.0
 40
1.0
 50
286.5513675242409
 51
356.9999999999942
  0
LINE
  5
D06
  8
AD4324
 62
     8
 10
164.87615128962591
 20
114.11638503525241
 30
0.0
 11
158.87615128962591
 21
114.11638503525241
 31
0.0
  0
LINE
  5
D07
  8
AD4324
 62
     8
 10
164.8261512896257
 20
113.4163850352535
 30
0.0
 11
158.92615128962609
 21
113.4163850352535
 31
0.0
  0
ARC
  5
D08
  8
AD4324
 62
     8
 10
160.1669022290431
 20
112.6649967116474
 30
0.0
 40
1.0
 50
183.00000000000571
 51
253.44863247575901
  0
LINE
  5
D09
  8
AD4324
 62
     8
 10
158.92615128962609
 20
113.4163850352535
 30
0.0
 11
158.92615128962609
 21
114.11638503525241
 31
0.0
  0
LINE
  5
D0A
  8
AD4324
 62
     8
 10
159.12615128962591
 20
113.4163850352535
 30
0.0
 11
159.16827269428859
 21
112.61266075540441
 31
0.0
  0
LINE
  5
D0B
  8
AD4324
 62
     8
 10
158.87615128962591
 20
114.11638503525241
 30
0.0
 11
158.87615128962591
 21
114.61638503525251
 31
0.0
  0
LINE
  5
D0C
  8
AD4324
 62
     8
 10
161.88029647805851
 20
113.4163850352535
 30
0.0
 11
161.47615128962619
 21
114.11638503525241
 31
0.0
  0
LINE
  5
D0D
  8
AD4324
 62
     8
 10
162.280296478059
 20
113.4163850352535
 30
0.0
 11
161.87615128962591
 21
114.11638503525241
 31
0.0
  0
ARC
  5
D0E
  8
AD4324
 62
     8
 10
161.87615128962591
 20
118.4163850352534
 30
0.0
 40
7.0000000000002851
 50
253.44863247575901
 51
286.5513675242409
  0
LINE
  5
D0F
  8
AD4324
 62
     8
 10
164.8261512896257
 20
113.4163850352535
 30
0.0
 11
164.8261512896257
 21
114.11638503525241
 31
0.0
  0
LINE
  5
D10
  8
AD4324
 62
     8
 10
164.58402988496309
 20
112.61266075540441
 30
0.0
 11
164.62615128962591
 21
113.4163850352535
 31
0.0
  0
LINE
  5
D11
  8
AD4324
 62
     8
 10
164.87615128962591
 20
114.11638503525241
 30
0.0
 11
164.87615128962591
 21
114.61638503525251
 31
0.0
  0
LINE
  5
D12
  8
AD4324
 62
     8
 10
270.37615128962591
 20
114.11638503525241
 30
0.0
 11
270.37615128962591
 21
114.61638503525251
 31
0.0
  0
LINE
  5
D13
  8
AD4324
 62
     8
 10
270.6682726942887
 20
112.61266075540441
 30
0.0
 11
270.62615128962591
 21
113.4163850352535
 31
0.0
  0
LINE
  5
D14
  8
AD4324
 62
     8
 10
270.42615128962598
 20
113.4163850352535
 30
0.0
 11
270.42615128962598
 21
114.11638503525241
 31
0.0
  0
LINE
  5
D15
  8
AD4324
 62
     8
 10
290.32615128962732
 20
107.01638503525371
 30
0.0
 11
306.92615128962768
 21
107.01638503525371
 31
0.0
  0
LINE
  5
D16
  8
AD4324
 62
     8
 10
290.32615128962732
 20
107.0163850352528
 30
0.0
 11
288.34337017822452
 21
114.61638503525251
 31
0.0
  0
ARC
  5
D17
  8
AD4324
 62
     8
 10
273.37615128962591
 20
118.4163850352534
 30
0.0
 40
7.0000000000002851
 50
253.44863247575901
 51
286.5513675242409
  0
LINE
  5
D18
  8
AD4324
 62
     8
 10
272.97200610119268
 20
113.4163850352535
 30
0.0
 11
273.37615128962591
 21
114.11638503525241
 31
0.0
  0
LINE
  5
D19
  8
AD4324
 62
     8
 10
273.37200610119322
 20
113.4163850352535
 30
0.0
 11
273.77615128962549
 21
114.11638503525241
 31
0.0
  0
LINE
  5
D1A
  8
AD4324
 62
     8
 10
276.3761512896258
 20
114.11638503525241
 30
0.0
 11
276.3761512896258
 21
114.61638503525251
 31
0.0
  0
LINE
  5
D1B
  8
AD4324
 62
     8
 10
276.1261512896258
 20
113.4163850352535
 30
0.0
 11
276.08402988496312
 21
112.61266075540441
 31
0.0
  0
LINE
  5
D1C
  8
AD4324
 62
     8
 10
276.32615128962573
 20
113.4163850352535
 30
0.0
 11
276.32615128962573
 21
114.11638503525241
 31
0.0
  0
ARC
  5
D1D
  8
AD4324
 62
     8
 10
275.08540035020872
 20
112.6649967116474
 30
0.0
 40
1.0
 50
286.5513675242409
 51
356.9999999999942
  0
LINE
  5
D1E
  8
AD4324
 62
     8
 10
306.92615128962768
 20
107.0163850352528
 30
0.0
 11
308.90893240102707
 21
114.61638503525251
 31
0.0
  0
ARC
  5
D1F
  8
AD4324
 62
     8
 10
106.92476296602089
 20
124.1071359746697
 30
0.0
 40
1.0
 50
196.5513675242409
 51
266.9999999999942
  0
ARC
  5
D20
  8
AD4324
 62
     8
 10
106.92476296602089
 20
127.5256340958353
 30
0.0
 40
1.0
 50
93.000000000005784
 51
163.44863247575901
  0
ARC
  5
D21
  8
AD4324
 62
     8
 10
112.676151289627
 20
125.81638503525249
 30
0.0
 40
7.0000000000002851
 50
163.44863247575901
 51
196.5513675242409
  0
LINE
  5
D22
  8
AD4324
 62
     8
 10
108.37615128962589
 20
122.81638503525249
 30
0.0
 11
108.37615128962589
 21
128.81638503525249
 31
0.0
  0
LINE
  5
D23
  8
AD4324
 62
     8
 10
107.6761512896269
 20
122.8663850352527
 30
0.0
 11
107.6761512896269
 21
128.76638503525231
 31
0.0
  0
LINE
  5
D24
  8
AD4324
 62
     8
 10
107.6761512896269
 20
122.8663850352527
 30
0.0
 11
108.37615128962589
 21
122.8663850352527
 31
0.0
  0
LINE
  5
D25
  8
AD4324
 62
     8
 10
106.87242700977779
 20
123.1085064399153
 30
0.0
 11
107.6761512896269
 21
123.06638503525249
 31
0.0
  0
LINE
  5
D26
  8
AD4324
 62
     8
 10
108.37615128962589
 20
122.81638503525249
 30
0.0
 11
108.6261512896258
 21
122.81638503525249
 31
0.0
  0
LINE
  5
D27
  8
AD4324
 62
     8
 10
107.6761512896269
 20
125.81223984681991
 30
0.0
 11
108.37615128962589
 21
126.2163850352521
 31
0.0
  0
LINE
  5
D28
  8
AD4324
 62
     8
 10
107.6761512896269
 20
125.4122398468193
 30
0.0
 11
108.37615128962589
 21
125.81638503525249
 31
0.0
  0
LINE
  5
D29
  8
AD4324
 62
     8
 10
107.6761512896269
 20
128.76638503525231
 30
0.0
 11
108.37615128962589
 21
128.76638503525231
 31
0.0
  0
LINE
  5
D2A
  8
AD4324
 62
     8
 10
107.6761512896269
 20
128.56638503525249
 30
0.0
 11
106.87242700977779
 21
128.5242636305897
 31
0.0
  0
LINE
  5
D2B
  8
AD4324
 62
     8
 10
108.37615128962589
 20
128.81638503525249
 30
0.0
 11
108.6261512896258
 21
128.81638503525249
 31
0.0
  0
ARC
  5
D2C
  8
AD4324
 62
     8
 10
106.92476296602089
 20
166.32563409583531
 30
0.0
 40
1.0
 50
93.000000000005784
 51
163.44863247575901
  0
ARC
  5
D2D
  8
AD4324
 62
     8
 10
106.92476296602089
 20
162.9071359746697
 30
0.0
 40
1.0
 50
196.5513675242409
 51
266.9999999999942
  0
ARC
  5
D2E
  8
AD4324
 62
     8
 10
112.676151289627
 20
164.61638503525251
 30
0.0
 40
7.0000000000002851
 50
163.44863247575901
 51
196.5513675242409
  0
LINE
  5
D2F
  8
AD4324
 62
     8
 10
108.37615128962589
 20
167.61638503525251
 30
0.0
 11
108.6261512896258
 21
167.61638503525251
 31
0.0
  0
LINE
  5
D30
  8
AD4324
 62
     8
 10
107.6761512896269
 20
167.36638503525251
 30
0.0
 11
106.87242700977779
 21
167.32426363058971
 31
0.0
  0
LINE
  5
D31
  8
AD4324
 62
     8
 10
107.6761512896269
 20
167.5663850352523
 30
0.0
 11
108.37615128962589
 21
167.5663850352523
 31
0.0
  0
LINE
  5
D32
  8
AD4324
 62
     8
 10
108.37615128962589
 20
161.61638503525251
 30
0.0
 11
108.6261512896258
 21
161.61638503525251
 31
0.0
  0
LINE
  5
D33
  8
AD4324
 62
     8
 10
106.87242700977779
 20
161.90850643991519
 30
0.0
 11
107.6761512896269
 21
161.86638503525251
 31
0.0
  0
LINE
  5
D34
  8
AD4324
 62
     8
 10
107.6761512896269
 20
161.66638503525269
 30
0.0
 11
108.37615128962589
 21
161.66638503525269
 31
0.0
  0
LINE
  5
D35
  8
AD4324
 62
     8
 10
107.6761512896269
 20
164.2122398468193
 30
0.0
 11
108.37615128962589
 21
164.61638503525251
 31
0.0
  0
LINE
  5
D36
  8
AD4324
 62
     8
 10
107.6761512896269
 20
164.61223984681979
 30
0.0
 11
108.37615128962589
 21
165.01638503525211
 31
0.0
  0
LINE
  5
D37
  8
AD4324
 62
     8
 10
107.6761512896269
 20
161.66638503525269
 30
0.0
 11
107.6761512896269
 21
167.5663850352523
 31
0.0
  0
LINE
  5
D38
  8
AD4324
 62
     8
 10
108.37615128962589
 20
161.61638503525251
 30
0.0
 11
108.37615128962589
 21
167.61638503525251
 31
0.0
  0
ARC
  5
D39
  8
AD4324
 62
     8
 10
106.92476296602089
 20
221.0256340958353
 30
0.0
 40
1.0
 50
93.000000000005784
 51
163.44863247575901
  0
ARC
  5
D3A
  8
AD4324
 62
     8
 10
106.92476296602089
 20
217.60713597466969
 30
0.0
 40
1.0
 50
196.5513675242409
 51
266.9999999999942
  0
ARC
  5
D3B
  8
AD4324
 62
     8
 10
112.676151289627
 20
219.31638503525249
 30
0.0
 40
7.0000000000002851
 50
163.44863247575901
 51
196.5513675242409
  0
LINE
  5
D3C
  8
AD4324
 62
     8
 10
108.37615128962589
 20
216.31638503525249
 30
0.0
 11
108.37615128962589
 21
222.31638503525249
 31
0.0
  0
LINE
  5
D3D
  8
AD4324
 62
     8
 10
107.6761512896269
 20
216.3663850352527
 30
0.0
 11
107.6761512896269
 21
222.26638503525231
 31
0.0
  0
LINE
  5
D3E
  8
AD4324
 62
     8
 10
107.6761512896269
 20
219.31223984681989
 30
0.0
 11
108.37615128962589
 21
219.7163850352521
 31
0.0
  0
LINE
  5
D3F
  8
AD4324
 62
     8
 10
107.6761512896269
 20
218.91223984681929
 30
0.0
 11
108.37615128962589
 21
219.31638503525249
 31
0.0
  0
LINE
  5
D40
  8
AD4324
 62
     8
 10
107.6761512896269
 20
216.3663850352527
 30
0.0
 11
108.37615128962589
 21
216.3663850352527
 31
0.0
  0
LINE
  5
D41
  8
AD4324
 62
     8
 10
106.87242700977779
 20
216.60850643991529
 30
0.0
 11
107.6761512896269
 21
216.56638503525249
 31
0.0
  0
LINE
  5
D42
  8
AD4324
 62
     8
 10
108.37615128962589
 20
216.31638503525249
 30
0.0
 11
108.6261512896258
 21
216.31638503525249
 31
0.0
  0
LINE
  5
D43
  8
AD4324
 62
     8
 10
107.6761512896269
 20
222.26638503525231
 30
0.0
 11
108.37615128962589
 21
222.26638503525231
 31
0.0
  0
LINE
  5
D44
  8
AD4324
 62
     8
 10
107.6761512896269
 20
222.06638503525249
 30
0.0
 11
106.87242700977779
 21
222.0242636305897
 31
0.0
  0
LINE
  5
D45
  8
AD4324
 62
     8
 10
108.37615128962589
 20
222.31638503525249
 30
0.0
 11
108.6261512896258
 21
222.31638503525249
 31
0.0
  0
LINE
  5
D46
  8
AD4324
 62
     8
 10
220.5761512896257
 20
250.3163850352513
 30
0.0
 11
220.5761512896257
 21
249.61638503525239
 31
0.0
  0
LINE
  5
D47
  8
AD4324
 62
     8
 10
220.33402988496309
 20
251.12010931510051
 30
0.0
 11
220.37615128962591
 21
250.3163850352513
 31
0.0
  0
ARC
  5
D49
  8
AD4324
 62
     8
 10
219.33540035020869
 20
251.06777335885749
 30
0.0
 40
1.0
 50
3.0000000000057438
 51
73.448632475759084
  0
ARC
  5
D4A
  8
AD4324
 62
     8
 10
215.9169022290431
 20
251.06777335885749
 30
0.0
 40
1.0
 50
106.5513675242409
 51
176.9999999999942
  0
LINE
  5
D4B
  8
AD4324
 62
     8
 10
214.67615128962609
 20
250.3163850352513
 30
0.0
 11
214.67615128962609
 21
249.61638503525239
 31
0.0
  0
LINE
  5
D4C
  8
AD4324
 62
     8
 10
214.87615128962591
 20
250.3163850352513
 30
0.0
 11
214.91827269428859
 21
251.12010931510051
 31
0.0
  0
LINE
  5
D4E
  8
AD4324
 62
     8
 10
217.63029647805851
 20
250.3163850352513
 30
0.0
 11
217.22615128962619
 21
249.61638503525239
 31
0.0
  0
LINE
  5
D4F
  8
AD4324
 62
     8
 10
218.030296478059
 20
250.3163850352513
 30
0.0
 11
217.62615128962591
 21
249.61638503525239
 31
0.0
  0
ARC
  5
D50
  8
AD4324
 62
     8
 10
217.62615128962591
 20
245.3163850352515
 30
0.0
 40
7.0000000000002851
 50
73.448632475759084
 51
106.5513675242409
  0
LINE
  5
D51
  8
AD4324
 62
     8
 10
220.62615128962591
 20
249.61638503525239
 30
0.0
 11
214.62615128962591
 21
249.61638503525239
 31
0.0
  0
LINE
  5
D52
  8
AD4324
 62
     8
 10
220.5761512896257
 20
250.3163850352513
 30
0.0
 11
214.67615128962609
 21
250.3163850352513
 31
0.0
  0
ARC
  5
D53
  8
AD4324
 62
     8
 10
322.57615128962482
 20
125.81638503525249
 30
0.0
 40
7.0000000000002851
 50
343.44863247575898
 51
16.551367524240931
  0
LINE
  5
D54
  8
AD4324
 62
     8
 10
327.57615128962482
 20
122.8663850352527
 30
0.0
 11
327.57615128962482
 21
128.76638503525231
 31
0.0
  0
LINE
  5
D55
  8
AD4324
 62
     8
 10
326.87615128962591
 20
122.81638503525249
 30
0.0
 11
326.87615128962591
 21
128.81638503525249
 31
0.0
  0
LINE
  5
D56
  8
AD4324
 62
     8
 10
328.37987556947388
 20
123.1085064399153
 30
0.0
 11
327.57615128962482
 21
123.06638503525249
 31
0.0
  0
LINE
  5
D57
  8
AD4324
 62
     8
 10
327.57615128962482
 20
125.4122398468193
 30
0.0
 11
326.87615128962591
 21
125.81638503525249
 31
0.0
  0
LINE
  5
D58
  8
AD4324
 62
     8
 10
327.57615128962482
 20
125.81223984681991
 30
0.0
 11
326.87615128962591
 21
126.2163850352521
 31
0.0
  0
LINE
  5
D59
  8
AD4324
 62
     8
 10
326.87615128962591
 20
122.81638503525249
 30
0.0
 11
326.62615128962568
 21
122.81638503525249
 31
0.0
  0
LINE
  5
D5A
  8
AD4324
 62
     8
 10
327.57615128962482
 20
122.8663850352527
 30
0.0
 11
326.87615128962591
 21
122.8663850352527
 31
0.0
  0
ARC
  5
D5B
  8
AD4324
 62
     8
 10
328.32753961323078
 20
124.1071359746697
 30
0.0
 40
1.0
 50
273.00000000000568
 51
343.44863247575898
  0
LINE
  5
D5C
  8
AD4324
 62
     8
 10
327.57615128962482
 20
128.56638503525249
 30
0.0
 11
328.37987556947388
 21
128.5242636305897
 31
0.0
  0
LINE
  5
D5D
  8
AD4324
 62
     8
 10
326.87615128962591
 20
128.81638503525249
 30
0.0
 11
326.62615128962568
 21
128.81638503525249
 31
0.0
  0
LINE
  5
D5E
  8
AD4324
 62
     8
 10
327.57615128962482
 20
128.76638503525231
 30
0.0
 11
326.87615128962591
 21
128.76638503525231
 31
0.0
  0
ARC
  5
D5F
  8
AD4324
 62
     8
 10
328.32753961323078
 20
127.5256340958353
 30
0.0
 40
1.0
 50
16.551367524240931
 51
86.99999999999423
  0
LINE
  5
D60
  8
AD4324
 62
     8
 10
327.57615128962482
 20
167.36638503525251
 30
0.0
 11
328.37987556947388
 21
167.32426363058971
 31
0.0
  0
LINE
  5
D61
  8
AD4324
 62
     8
 10
328.37987556947388
 20
161.90850643991519
 30
0.0
 11
327.57615128962482
 21
161.86638503525251
 31
0.0
  0
LINE
  5
D62
  8
AD4324
 62
     8
 10
327.57615128962482
 20
167.5663850352523
 30
0.0
 11
326.87615128962591
 21
167.5663850352523
 31
0.0
  0
LINE
  5
D63
  8
AD4324
 62
     8
 10
326.87615128962591
 20
167.61638503525251
 30
0.0
 11
326.62615128962568
 21
167.61638503525251
 31
0.0
  0
LINE
  5
D64
  8
AD4324
 62
     8
 10
327.57615128962482
 20
161.66638503525269
 30
0.0
 11
326.87615128962591
 21
161.66638503525269
 31
0.0
  0
LINE
  5
D65
  8
AD4324
 62
     8
 10
326.87615128962591
 20
161.61638503525251
 30
0.0
 11
326.62615128962568
 21
161.61638503525251
 31
0.0
  0
LINE
  5
D66
  8
AD4324
 62
     8
 10
327.57615128962482
 20
164.61223984681979
 30
0.0
 11
326.87615128962591
 21
165.01638503525211
 31
0.0
  0
LINE
  5
D67
  8
AD4324
 62
     8
 10
327.57615128962482
 20
164.2122398468193
 30
0.0
 11
326.87615128962591
 21
164.61638503525251
 31
0.0
  0
LINE
  5
D68
  8
AD4324
 62
     8
 10
326.87615128962591
 20
161.61638503525251
 30
0.0
 11
326.87615128962591
 21
167.61638503525251
 31
0.0
  0
LINE
  5
D69
  8
AD4324
 62
     8
 10
327.57615128962482
 20
161.66638503525269
 30
0.0
 11
327.57615128962482
 21
167.5663850352523
 31
0.0
  0
ARC
  5
D6A
  8
AD4324
 62
     8
 10
328.32753961323078
 20
166.32563409583531
 30
0.0
 40
1.0
 50
16.551367524240931
 51
86.99999999999423
  0
ARC
  5
D6B
  8
AD4324
 62
     8
 10
328.32753961323078
 20
162.9071359746697
 30
0.0
 40
1.0
 50
273.00000000000568
 51
343.44863247575898
  0
ARC
  5
D6C
  8
AD4324
 62
     8
 10
322.57615128962482
 20
164.61638503525251
 30
0.0
 40
7.0000000000002851
 50
343.44863247575898
 51
16.551367524240931
  0
LINE
  5
D6D
  8
AD4324
 62
     8
 10
327.57615128962482
 20
216.3663850352527
 30
0.0
 11
327.57615128962482
 21
222.26638503525231
 31
0.0
  0
LINE
  5
D6E
  8
AD4324
 62
     8
 10
326.87615128962591
 20
216.31638503525249
 30
0.0
 11
326.87615128962591
 21
222.31638503525249
 31
0.0
  0
ARC
  5
D6F
  8
AD4324
 62
     8
 10
328.32753961323078
 20
221.0256340958353
 30
0.0
 40
1.0
 50
16.551367524240931
 51
86.99999999999423
  0
LINE
  5
D70
  8
AD4324
 62
     8
 10
328.37987556947388
 20
216.60850643991529
 30
0.0
 11
327.57615128962482
 21
216.56638503525249
 31
0.0
  0
LINE
  5
D71
  8
AD4324
 62
     8
 10
326.87615128962591
 20
216.31638503525249
 30
0.0
 11
326.62615128962568
 21
216.31638503525249
 31
0.0
  0
LINE
  5
D72
  8
AD4324
 62
     8
 10
327.57615128962482
 20
216.3663850352527
 30
0.0
 11
326.87615128962591
 21
216.3663850352527
 31
0.0
  0
LINE
  5
D73
  8
AD4324
 62
     8
 10
327.57615128962482
 20
218.91223984681929
 30
0.0
 11
326.87615128962591
 21
219.31638503525249
 31
0.0
  0
LINE
  5
D74
  8
AD4324
 62
     8
 10
327.57615128962482
 20
219.31223984681989
 30
0.0
 11
326.87615128962591
 21
219.7163850352521
 31
0.0
  0
ARC
  5
D75
  8
AD4324
 62
     8
 10
322.57615128962482
 20
219.31638503525249
 30
0.0
 40
7.0000000000002851
 50
343.44863247575898
 51
16.551367524240931
  0
ARC
  5
D76
  8
AD4324
 62
     8
 10
328.32753961323078
 20
217.60713597466969
 30
0.0
 40
1.0
 50
273.00000000000568
 51
343.44863247575898
  0
LINE
  5
D77
  8
AD4324
 62
     8
 10
327.57615128962482
 20
222.06638503525249
 30
0.0
 11
328.37987556947388
 21
222.0242636305897
 31
0.0
  0
LINE
  5
D78
  8
AD4324
 62
     8
 10
326.87615128962591
 20
222.31638503525249
 30
0.0
 11
326.62615128962568
 21
222.31638503525249
 31
0.0
  0
LINE
  5
D79
  8
AD4324
 62
     8
 10
327.57615128962482
 20
222.26638503525231
 30
0.0
 11
326.87615128962591
 21
222.26638503525231
 31
0.0
  0
LINE
  5
D7D
  8
AD4324
 62
     8
 10
720.51069139011258
 20
164.76638503525149
 30
0.0
 11
721.07069139011264
 21
164.76638503525149
 31
0.0
  0
LINE
  5
D7E
  8
AD4324
 62
     8
 10
721.07069139011287
 20
165.4663850352521
 30
0.0
 11
720.51069139011258
 21
165.4663850352521
 31
0.0
  0
CIRCLE
  5
D7F
  8
AD4324
 62
     8
 10
719.32069139011264
 20
165.11638503525199
 30
0.0
 40
2.75
  0
LINE
  5
D80
  8
AD4324
 62
     8
 10
718.97069139011228
 20
163.92638503525211
 30
0.0
 11
718.97069139011228
 21
163.36638503525199
 31
0.0
  0
LINE
  5
D81
  8
AD4324
 62
     8
 10
718.72569139011284
 20
164.52138503525219
 30
0.0
 11
718.97069139011228
 21
163.92638503525211
 31
0.0
  0
LINE
  5
D82
  8
AD4324
 62
     8
 10
719.67069139011267
 20
163.926385035252
 30
0.0
 11
719.91569139011244
 21
164.521385035252
 31
0.0
  0
LINE
  5
D83
  8
AD4324
 62
     8
 10
719.67069139011267
 20
163.3663850352516
 30
0.0
 11
719.67069139011267
 21
163.926385035252
 31
0.0
  0
LINE
  5
D84
  8
AD4324
 62
     8
 10
718.97069139011228
 20
163.36638503525199
 30
0.0
 11
719.67069139011267
 21
163.3663850352516
 31
0.0
  0
LINE
  5
D85
  8
AD4324
 62
     8
 10
719.91569139011244
 20
164.521385035252
 30
0.0
 11
720.51069139011258
 21
164.76638503525149
 31
0.0
  0
LINE
  5
D86
  8
AD4324
 62
     8
 10
719.67069139011278
 20
166.30638503525191
 30
0.0
 11
719.67069139011278
 21
166.86638503525199
 31
0.0
  0
LINE
  5
D87
  8
AD4324
 62
     8
 10
718.97069139011251
 20
166.86638503525219
 30
0.0
 11
718.97069139011251
 21
166.30638503525191
 31
0.0
  0
LINE
  5
D88
  8
AD4324
 62
     8
 10
719.91569139011244
 20
165.71138503525179
 30
0.0
 11
719.67069139011278
 21
166.30638503525191
 31
0.0
  0
LINE
  5
D89
  8
AD4324
 62
     8
 10
718.97069139011251
 20
166.30638503525191
 30
0.0
 11
718.72569139011284
 21
165.71138503525179
 31
0.0
  0
LINE
  5
D8A
  8
AD4324
 62
     8
 10
718.97069139011251
 20
166.86638503525219
 30
0.0
 11
719.67069139011278
 21
166.86638503525199
 31
0.0
  0
LINE
  5
D8B
  8
AD4324
 62
     8
 10
720.51069139011258
 20
165.4663850352521
 30
0.0
 11
719.91569139011244
 21
165.71138503525179
 31
0.0
  0
LINE
  5
D8C
  8
AD4324
 62
     8
 10
717.57069139011264
 20
165.4663850352523
 30
0.0
 11
717.57069139011242
 21
164.76638503525189
 31
0.0
  0
LINE
  5
D8D
  8
AD4324
 62
     8
 10
717.57069139011242
 20
164.76638503525189
 30
0.0
 11
718.1306913901127
 21
164.76638503525189
 31
0.0
  0
LINE
  5
D8E
  8
AD4324
 62
     8
 10
718.1306913901127
 20
165.4663850352523
 30
0.0
 11
717.57069139011264
 21
165.4663850352523
 31
0.0
  0
LINE
  5
D8F
  8
AD4324
 62
     8
 10
718.1306913901127
 20
164.76638503525189
 30
0.0
 11
718.72569139011284
 21
164.52138503525219
 31
0.0
  0
LINE
  5
D90
  8
AD4324
 62
     8
 10
718.72569139011284
 20
165.71138503525179
 30
0.0
 11
718.1306913901127
 21
165.4663850352523
 31
0.0
  0
LINE
  5
D91
  8
AD4324
 62
     8
 10
721.07069139011287
 20
165.4663850352521
 30
0.0
 11
721.07069139011264
 21
164.76638503525149
 31
0.0
  0
LINE
  5
D92
  8
AD4324
 62
     8
 10
537.57069139011332
 20
220.1663850352524
 30
0.0
 11
537.57069139011298
 21
219.46638503525179
 31
0.0
  0
LINE
  5
D93
  8
AD4324
 62
     8
 10
535.2256913901133
 20
220.4113850352521
 30
0.0
 11
534.63069139011316
 21
220.16638503525249
 31
0.0
  0
LINE
  5
D94
  8
AD4324
 62
     8
 10
534.63069139011316
 20
219.4663850352521
 30
0.0
 11
535.2256913901133
 21
219.2213850352525
 31
0.0
  0
LINE
  5
D95
  8
AD4324
 62
     8
 10
534.63069139011316
 20
220.16638503525249
 30
0.0
 11
534.07069139011298
 21
220.16638503525249
 31
0.0
  0
LINE
  5
D96
  8
AD4324
 62
     8
 10
534.07069139011276
 20
219.4663850352521
 30
0.0
 11
534.63069139011316
 21
219.4663850352521
 31
0.0
  0
LINE
  5
D97
  8
AD4324
 62
     8
 10
534.07069139011298
 20
220.16638503525249
 30
0.0
 11
534.07069139011276
 21
219.4663850352521
 31
0.0
  0
LINE
  5
D98
  8
AD4324
 62
     8
 10
537.01069139011304
 20
220.1663850352524
 30
0.0
 11
536.4156913901129
 21
220.4113850352521
 31
0.0
  0
LINE
  5
D99
  8
AD4324
 62
     8
 10
535.47069139011296
 20
221.56638503525249
 30
0.0
 11
536.17069139011335
 21
221.5663850352523
 31
0.0
  0
LINE
  5
D9A
  8
AD4324
 62
     8
 10
535.47069139011296
 20
221.00638503525221
 30
0.0
 11
535.2256913901133
 21
220.4113850352521
 31
0.0
  0
LINE
  5
D9B
  8
AD4324
 62
     8
 10
536.4156913901129
 20
220.4113850352521
 30
0.0
 11
536.17069139011335
 21
221.00638503525221
 31
0.0
  0
LINE
  5
D9C
  8
AD4324
 62
     8
 10
535.47069139011296
 20
221.56638503525249
 30
0.0
 11
535.47069139011296
 21
221.00638503525221
 31
0.0
  0
LINE
  5
D9D
  8
AD4324
 62
     8
 10
536.17069139011335
 20
221.00638503525221
 30
0.0
 11
536.17069139011335
 21
221.5663850352523
 31
0.0
  0
LINE
  5
D9E
  8
AD4324
 62
     8
 10
536.4156913901129
 20
219.22138503525221
 30
0.0
 11
537.01069139011304
 21
219.46638503525179
 31
0.0
  0
LINE
  5
D9F
  8
AD4324
 62
     8
 10
535.47069139011285
 20
218.0663850352523
 30
0.0
 11
536.17069139011323
 21
218.06638503525181
 31
0.0
  0
LINE
  5
DA0
  8
AD4324
 62
     8
 10
536.17069139011323
 20
218.06638503525181
 30
0.0
 11
536.17069139011323
 21
218.62638503525221
 31
0.0
  0
LINE
  5
DA1
  8
AD4324
 62
     8
 10
536.17069139011323
 20
218.62638503525221
 30
0.0
 11
536.4156913901129
 21
219.22138503525221
 31
0.0
  0
LINE
  5
DA2
  8
AD4324
 62
     8
 10
535.2256913901133
 20
219.2213850352525
 30
0.0
 11
535.47069139011285
 21
218.6263850352523
 31
0.0
  0
LINE
  5
DA3
  8
AD4324
 62
     8
 10
535.47069139011285
 20
218.6263850352523
 30
0.0
 11
535.47069139011285
 21
218.0663850352523
 31
0.0
  0
CIRCLE
  5
DA4
  8
AD4324
 62
     8
 10
535.82069139011298
 20
219.8163850352523
 30
0.0
 40
2.75
  0
LINE
  5
DA5
  8
AD4324
 62
     8
 10
537.57069139011332
 20
220.1663850352524
 30
0.0
 11
537.01069139011304
 21
220.1663850352524
 31
0.0
  0
LINE
  5
DA6
  8
AD4324
 62
     8
 10
537.01069139011304
 20
219.46638503525179
 30
0.0
 11
537.57069139011298
 21
219.46638503525179
 31
0.0
  0
CIRCLE
  5
DA7
  8
AD4324
 62
     8
 10
535.82069139011298
 20
126.3163850352523
 30
0.0
 40
2.75
  0
LINE
  5
DA8
  8
AD4324
 62
     8
 10
534.63069139011316
 20
125.9663850352521
 30
0.0
 11
535.2256913901133
 21
125.7213850352525
 31
0.0
  0
LINE
  5
DA9
  8
AD4324
 62
     8
 10
535.2256913901133
 20
126.9113850352521
 30
0.0
 11
534.63069139011316
 21
126.6663850352525
 31
0.0
  0
LINE
  5
DAA
  8
AD4324
 62
     8
 10
534.07069139011298
 20
126.6663850352525
 30
0.0
 11
534.07069139011276
 21
125.9663850352521
 31
0.0
  0
LINE
  5
DAB
  8
AD4324
 62
     8
 10
534.07069139011276
 20
125.9663850352521
 30
0.0
 11
534.63069139011316
 21
125.9663850352521
 31
0.0
  0
LINE
  5
DAC
  8
AD4324
 62
     8
 10
534.63069139011316
 20
126.6663850352525
 30
0.0
 11
534.07069139011298
 21
126.6663850352525
 31
0.0
  0
LINE
  5
DAD
  8
AD4324
 62
     8
 10
537.01069139011304
 20
125.9663850352518
 30
0.0
 11
537.57069139011298
 21
125.9663850352518
 31
0.0
  0
LINE
  5
DAE
  8
AD4324
 62
     8
 10
537.57069139011332
 20
126.6663850352524
 30
0.0
 11
537.01069139011304
 21
126.6663850352524
 31
0.0
  0
LINE
  5
DAF
  8
AD4324
 62
     8
 10
535.47069139011285
 20
125.1263850352523
 30
0.0
 11
535.47069139011285
 21
124.5663850352523
 31
0.0
  0
LINE
  5
DB0
  8
AD4324
 62
     8
 10
535.2256913901133
 20
125.7213850352525
 30
0.0
 11
535.47069139011285
 21
125.1263850352523
 31
0.0
  0
LINE
  5
DB1
  8
AD4324
 62
     8
 10
536.17069139011323
 20
125.1263850352522
 30
0.0
 11
536.4156913901129
 21
125.7213850352522
 31
0.0
  0
LINE
  5
DB2
  8
AD4324
 62
     8
 10
536.17069139011323
 20
124.5663850352518
 30
0.0
 11
536.17069139011323
 21
125.1263850352522
 31
0.0
  0
LINE
  5
DB3
  8
AD4324
 62
     8
 10
535.47069139011285
 20
124.5663850352523
 30
0.0
 11
536.17069139011323
 21
124.5663850352518
 31
0.0
  0
LINE
  5
DB4
  8
AD4324
 62
     8
 10
536.4156913901129
 20
125.7213850352522
 30
0.0
 11
537.01069139011304
 21
125.9663850352518
 31
0.0
  0
LINE
  5
DB5
  8
AD4324
 62
     8
 10
536.17069139011335
 20
127.50638503525219
 30
0.0
 11
536.17069139011335
 21
128.0663850352523
 31
0.0
  0
LINE
  5
DB6
  8
AD4324
 62
     8
 10
535.47069139011296
 20
128.06638503525249
 30
0.0
 11
535.47069139011296
 21
127.50638503525219
 31
0.0
  0
LINE
  5
DB7
  8
AD4324
 62
     8
 10
536.4156913901129
 20
126.9113850352521
 30
0.0
 11
536.17069139011335
 21
127.50638503525219
 31
0.0
  0
LINE
  5
DB8
  8
AD4324
 62
     8
 10
535.47069139011296
 20
127.50638503525219
 30
0.0
 11
535.2256913901133
 21
126.9113850352521
 31
0.0
  0
LINE
  5
DB9
  8
AD4324
 62
     8
 10
535.47069139011296
 20
128.06638503525249
 30
0.0
 11
536.17069139011335
 21
128.0663850352523
 31
0.0
  0
LINE
  5
DBA
  8
AD4324
 62
     8
 10
537.01069139011304
 20
126.6663850352524
 30
0.0
 11
536.4156913901129
 21
126.9113850352521
 31
0.0
  0
LINE
  5
DBB
  8
AD4324
 62
     8
 10
537.57069139011332
 20
126.6663850352524
 30
0.0
 11
537.57069139011298
 21
125.9663850352518
 31
0.0
  0
ARC
  5
DBC
  8
AD4324
 62
     8
 10
247.28300553911819
 20
185.61638503525199
 30
0.0
 40
4.0
 50
90.0
 51
135.00000000000011
  0
LINE
  5
DC2
  8
AD4324
 10
108.8761512896257
 20
347.33955093631761
 30
0.0
 11
108.8761512896257
 21
549.33955093631755
 31
0.0
  0
LINE
  5
DC3
  8
AD4324
 10
108.8761512896257
 20
549.33955093631755
 30
0.0
 11
326.3761512896258
 21
549.33955093631755
 31
0.0
  0
LINE
  5
DC5
  8
AD4324
 10
325.6261512896258
 20
328.33955093631749
 30
0.0
 11
109.6261512896258
 21
328.33955093631761
 31
0.0
  0
LINE
  5
DC6
  8
AD4324
 10
326.62615128962568
 20
347.33955093631761
 30
0.0
 11
108.6261512896258
 21
347.33955093631761
 31
0.0
  0
LINE
  5
DC9
  8
AD4324
 10
108.6261512896258
 20
347.33955093631761
 30
0.0
 11
108.6261512896258
 21
329.33955093631761
 31
0.0
  0
LINE
  5
DCA
  8
AD4324
 10
326.62615128962568
 20
347.33955093631761
 30
0.0
 11
326.6261512896258
 21
329.33955093631749
 31
0.0
  0
ARC
  5
DD5
  8
AD4324
 10
325.6261512896258
 20
329.33955093631749
 30
0.0
 40
1.0
 50
270.0
 51
0.0
  0
ARC
  5
DD6
  8
AD4324
 10
109.6261512896258
 20
329.33955093631761
 30
0.0
 40
1.0
 50
180.0
 51
270.0
  0
LINE
  5
DDB
  8
AD4324
 10
326.3761512896258
 20
347.33955093631761
 30
0.0
 11
326.3761512896258
 21
549.33955093631755
 31
0.0
  0
LINE
  5
E08
  8
AD4324
 62
     8
 10
738.07069139011264
 20
414.27663780479219
 30
0.0
 11
738.07069139011264
 21
408.27663780479219
 31
0.0
  0
LINE
  5
E09
  8
AD4324
 62
     8
 10
326.3761512896258
 20
541.33955093631755
 30
0.0
 11
326.3761512896258
 21
535.33955093631755
 31
0.0
  0
ARC
  5
E0A
  8
AD4324
 62
     8
 10
328.32753961323078
 20
540.04879999690036
 30
0.0
 40
1.0
 50
16.551367524240931
 51
86.99999999999423
  0
ARC
  5
E0B
  8
AD4324
 62
     8
 10
328.32753961323078
 20
536.63030187573474
 30
0.0
 40
1.0
 50
273.00000000000568
 51
343.44863247575898
  0
ARC
  5
E0C
  8
AD4324
 62
     8
 10
322.5761512896247
 20
538.33955093631755
 30
0.0
 40
7.0000000000002851
 50
343.44863247575898
 51
16.551367524240931
  0
LINE
  5
E0D
  8
AD4324
 62
     8
 10
327.57615128962459
 20
541.28955093631737
 30
0.0
 11
326.87615128962568
 21
541.28955093631737
 31
0.0
  0
LINE
  5
E0E
  8
AD4324
 62
     8
 10
326.87615128962568
 20
541.33955093631755
 30
0.0
 11
326.3761512896258
 21
541.33955093631755
 31
0.0
  0
LINE
  5
E0F
  8
AD4324
 62
     8
 10
327.57615128962459
 20
535.38955093631785
 30
0.0
 11
326.87615128962568
 21
535.38955093631785
 31
0.0
  0
LINE
  5
E10
  8
AD4324
 62
     8
 10
326.87615128962568
 20
535.33955093631755
 30
0.0
 11
326.3761512896258
 21
535.33955093631755
 31
0.0
  0
LINE
  5
E11
  8
AD4324
 62
     8
 10
327.57615128962459
 20
538.33540574788503
 30
0.0
 11
326.87615128962568
 21
538.73955093631719
 31
0.0
  0
LINE
  5
E12
  8
AD4324
 62
     8
 10
327.57615128962459
 20
537.93540574788437
 30
0.0
 11
326.87615128962568
 21
538.33955093631755
 31
0.0
  0
LINE
  5
E13
  8
AD4324
 62
     8
 10
326.87615128962568
 20
535.33955093631755
 30
0.0
 11
326.87615128962568
 21
541.33955093631755
 31
0.0
  0
LINE
  5
E14
  8
AD4324
 62
     8
 10
327.57615128962459
 20
535.38955093631785
 30
0.0
 11
327.57615128962459
 21
541.28955093631737
 31
0.0
  0
LINE
  5
E15
  8
AD4324
 62
     8
 10
327.57615128962459
 20
541.08955093631755
 30
0.0
 11
328.37987556947382
 21
541.04742953165476
 31
0.0
  0
LINE
  5
E16
  8
AD4324
 62
     8
 10
328.37987556947382
 20
535.63167234098034
 30
0.0
 11
327.57615128962459
 21
535.58955093631755
 31
0.0
  0
LINE
  5
E17
  8
AD4324
 62
     8
 10
328.37987556947382
 20
352.1316723409808
 30
0.0
 11
327.57615128962459
 21
352.08955093631801
 31
0.0
  0
LINE
  5
E18
  8
AD4324
 62
     8
 10
327.57615128962459
 20
357.58955093631801
 30
0.0
 11
328.37987556947382
 21
357.54742953165521
 31
0.0
  0
LINE
  5
E19
  8
AD4324
 62
     8
 10
327.57615128962459
 20
351.88955093631819
 30
0.0
 11
327.57615128962459
 21
357.78955093631788
 31
0.0
  0
LINE
  5
E1A
  8
AD4324
 62
     8
 10
326.87615128962568
 20
351.83955093631801
 30
0.0
 11
326.87615128962568
 21
357.83955093631801
 31
0.0
  0
LINE
  5
E1B
  8
AD4324
 62
     8
 10
327.57615128962459
 20
354.43540574788489
 30
0.0
 11
326.87615128962568
 21
354.83955093631801
 31
0.0
  0
LINE
  5
E1C
  8
AD4324
 62
     8
 10
327.57615128962459
 20
354.83540574788537
 30
0.0
 11
326.87615128962568
 21
355.2395509363177
 31
0.0
  0
LINE
  5
E1D
  8
AD4324
 62
     8
 10
326.87615128962568
 20
351.83955093631801
 30
0.0
 11
326.3761512896258
 21
351.83955093631801
 31
0.0
  0
LINE
  5
E1E
  8
AD4324
 62
     8
 10
327.57615128962459
 20
351.88955093631819
 30
0.0
 11
326.87615128962568
 21
351.88955093631819
 31
0.0
  0
LINE
  5
E1F
  8
AD4324
 62
     8
 10
326.87615128962568
 20
357.83955093631801
 30
0.0
 11
326.3761512896258
 21
357.83955093631801
 31
0.0
  0
LINE
  5
E20
  8
AD4324
 62
     8
 10
327.57615128962459
 20
357.78955093631788
 30
0.0
 11
326.87615128962568
 21
357.78955093631788
 31
0.0
  0
ARC
  5
E21
  8
AD4324
 62
     8
 10
322.5761512896247
 20
354.83955093631801
 30
0.0
 40
7.0000000000002851
 50
343.44863247575898
 51
16.551367524240931
  0
ARC
  5
E22
  8
AD4324
 62
     8
 10
328.32753961323078
 20
353.1303018757352
 30
0.0
 40
1.0
 50
273.00000000000568
 51
343.44863247575898
  0
ARC
  5
E23
  8
AD4324
 62
     8
 10
328.32753961323078
 20
356.54879999690081
 30
0.0
 40
1.0
 50
16.551367524240931
 51
86.99999999999423
  0
LINE
  5
E24
  8
AD4324
 62
     8
 10
326.3761512896258
 20
357.83955093631801
 30
0.0
 11
326.3761512896258
 21
351.83955093631801
 31
0.0
  0
LINE
  5
E25
  8
AD4324
 62
     8
 10
108.8761512896257
 20
357.83955093631801
 30
0.0
 11
108.8761512896257
 21
351.83955093631801
 31
0.0
  0
ARC
  5
E26
  8
AD4324
 62
     8
 10
106.92476296602079
 20
356.54879999690081
 30
0.0
 40
1.0
 50
93.000000000005784
 51
163.44863247575901
  0
ARC
  5
E27
  8
AD4324
 62
     8
 10
106.92476296602079
 20
353.1303018757352
 30
0.0
 40
1.0
 50
196.5513675242409
 51
266.9999999999942
  0
ARC
  5
E28
  8
AD4324
 62
     8
 10
112.6761512896268
 20
354.83955093631801
 30
0.0
 40
7.0000000000002851
 50
163.44863247575901
 51
196.5513675242409
  0
LINE
  5
E29
  8
AD4324
 62
     8
 10
107.6761512896268
 20
357.78955093631788
 30
0.0
 11
108.3761512896257
 21
357.78955093631788
 31
0.0
  0
LINE
  5
E2A
  8
AD4324
 62
     8
 10
108.3761512896257
 20
357.83955093631801
 30
0.0
 11
108.8761512896257
 21
357.83955093631801
 31
0.0
  0
LINE
  5
E2B
  8
AD4324
 62
     8
 10
107.6761512896268
 20
351.88955093631819
 30
0.0
 11
108.3761512896257
 21
351.88955093631819
 31
0.0
  0
LINE
  5
E2C
  8
AD4324
 62
     8
 10
108.3761512896257
 20
351.83955093631801
 30
0.0
 11
108.8761512896257
 21
351.83955093631801
 31
0.0
  0
LINE
  5
E2D
  8
AD4324
 62
     8
 10
107.6761512896268
 20
354.83540574788537
 30
0.0
 11
108.3761512896257
 21
355.2395509363177
 31
0.0
  0
LINE
  5
E2E
  8
AD4324
 62
     8
 10
107.6761512896268
 20
354.43540574788489
 30
0.0
 11
108.3761512896257
 21
354.83955093631801
 31
0.0
  0
LINE
  5
E2F
  8
AD4324
 62
     8
 10
108.3761512896257
 20
351.83955093631801
 30
0.0
 11
108.3761512896257
 21
357.83955093631801
 31
0.0
  0
LINE
  5
E30
  8
AD4324
 62
     8
 10
107.6761512896268
 20
351.88955093631819
 30
0.0
 11
107.6761512896268
 21
357.78955093631788
 31
0.0
  0
LINE
  5
E31
  8
AD4324
 62
     8
 10
107.6761512896268
 20
357.58955093631801
 30
0.0
 11
106.8724270097777
 21
357.54742953165521
 31
0.0
  0
LINE
  5
E32
  8
AD4324
 62
     8
 10
106.8724270097777
 20
352.1316723409808
 30
0.0
 11
107.6761512896268
 21
352.08955093631801
 31
0.0
  0
LINE
  5
E33
  8
AD4324
 62
     8
 10
106.8724270097777
 20
535.63167234098034
 30
0.0
 11
107.6761512896268
 21
535.58955093631755
 31
0.0
  0
LINE
  5
E34
  8
AD4324
 62
     8
 10
107.6761512896268
 20
541.08955093631755
 30
0.0
 11
106.8724270097777
 21
541.04742953165476
 31
0.0
  0
LINE
  5
E35
  8
AD4324
 62
     8
 10
107.6761512896268
 20
535.38955093631785
 30
0.0
 11
107.6761512896268
 21
541.28955093631737
 31
0.0
  0
LINE
  5
E36
  8
AD4324
 62
     8
 10
108.3761512896257
 20
535.33955093631755
 30
0.0
 11
108.3761512896257
 21
541.33955093631755
 31
0.0
  0
LINE
  5
E37
  8
AD4324
 62
     8
 10
107.6761512896268
 20
537.93540574788437
 30
0.0
 11
108.3761512896257
 21
538.33955093631755
 31
0.0
  0
LINE
  5
E38
  8
AD4324
 62
     8
 10
107.6761512896268
 20
538.33540574788503
 30
0.0
 11
108.3761512896257
 21
538.73955093631719
 31
0.0
  0
LINE
  5
E39
  8
AD4324
 62
     8
 10
108.3761512896257
 20
535.33955093631755
 30
0.0
 11
108.8761512896257
 21
535.33955093631755
 31
0.0
  0
LINE
  5
E3A
  8
AD4324
 62
     8
 10
107.6761512896268
 20
535.38955093631785
 30
0.0
 11
108.3761512896257
 21
535.38955093631785
 31
0.0
  0
LINE
  5
E3B
  8
AD4324
 62
     8
 10
108.3761512896257
 20
541.33955093631755
 30
0.0
 11
108.8761512896257
 21
541.33955093631755
 31
0.0
  0
LINE
  5
E3C
  8
AD4324
 62
     8
 10
107.6761512896268
 20
541.28955093631737
 30
0.0
 11
108.3761512896257
 21
541.28955093631737
 31
0.0
  0
ARC
  5
E3D
  8
AD4324
 62
     8
 10
112.6761512896268
 20
538.33955093631755
 30
0.0
 40
7.0000000000002851
 50
163.44863247575901
 51
196.5513675242409
  0
ARC
  5
E3E
  8
AD4324
 62
     8
 10
106.92476296602079
 20
536.63030187573474
 30
0.0
 40
1.0
 50
196.5513675242409
 51
266.9999999999942
  0
ARC
  5
E3F
  8
AD4324
 62
     8
 10
106.92476296602079
 20
540.04879999690036
 30
0.0
 40
1.0
 50
93.000000000005784
 51
163.44863247575901
  0
LINE
  5
E40
  8
AD4324
 62
     8
 10
108.8761512896257
 20
541.33955093631755
 30
0.0
 11
108.8761512896257
 21
535.33955093631755
 31
0.0
  0
LINE
  5
E42
  8
AD4324
 62
     8
 10
219.37615128962599
 20
542.6895509363178
 30
0.0
 11
218.81615128962571
 21
542.6895509363178
 31
0.0
  0
LINE
  5
E43
  8
AD4324
 62
     8
 10
218.81615128962571
 20
541.98955093631707
 30
0.0
 11
219.3761512896258
 21
541.98955093631707
 31
0.0
  0
CIRCLE
  5
E44
  8
AD4324
 62
     8
 10
217.6261512896258
 20
542.33955093631755
 30
0.0
 40
2.75
  0
LINE
  5
E45
  8
AD4324
 62
     8
 10
218.22115128962551
 20
542.93455093631735
 30
0.0
 11
217.97615128962599
 21
543.52955093631761
 31
0.0
  0
LINE
  5
E46
  8
AD4324
 62
     8
 10
217.97615128962599
 20
543.52955093631761
 30
0.0
 11
217.97615128962599
 21
544.08955093631755
 31
0.0
  0
LINE
  5
E47
  8
AD4324
 62
     8
 10
216.4361512896258
 20
542.68955093631791
 30
0.0
 11
215.8761512896258
 21
542.68955093631791
 31
0.0
  0
LINE
  5
E48
  8
AD4324
 62
     8
 10
217.031151289626
 20
542.93455093631735
 30
0.0
 11
216.4361512896258
 21
542.68955093631791
 31
0.0
  0
LINE
  5
E49
  8
AD4324
 62
     8
 10
217.2761512896256
 20
543.52955093631761
 30
0.0
 11
217.031151289626
 21
542.93455093631735
 31
0.0
  0
LINE
  5
E4A
  8
AD4324
 62
     8
 10
217.2761512896256
 20
544.08955093631789
 30
0.0
 11
217.2761512896256
 21
543.52955093631761
 31
0.0
  0
LINE
  5
E4B
  8
AD4324
 62
     8
 10
217.2761512896256
 20
544.08955093631789
 30
0.0
 11
217.97615128962599
 21
544.08955093631755
 31
0.0
  0
LINE
  5
E4C
  8
AD4324
 62
     8
 10
217.27615128962549
 20
541.14955093631761
 30
0.0
 11
217.27615128962549
 21
540.58955093631755
 31
0.0
  0
LINE
  5
E4D
  8
AD4324
 62
     8
 10
217.031151289626
 20
541.74455093631786
 30
0.0
 11
217.27615128962549
 21
541.14955093631761
 31
0.0
  0
LINE
  5
E4E
  8
AD4324
 62
     8
 10
216.4361512896258
 20
541.98955093631753
 30
0.0
 11
217.031151289626
 21
541.74455093631786
 31
0.0
  0
LINE
  5
E4F
  8
AD4324
 62
     8
 10
215.87615128962551
 20
541.98955093631753
 30
0.0
 11
216.4361512896258
 21
541.98955093631753
 31
0.0
  0
LINE
  5
E50
  8
AD4324
 62
     8
 10
217.9761512896259
 20
541.14955093631761
 30
0.0
 11
218.22115128962551
 21
541.74455093631764
 31
0.0
  0
LINE
  5
E51
  8
AD4324
 62
     8
 10
217.9761512896259
 20
540.58955093631721
 30
0.0
 11
217.9761512896259
 21
541.14955093631761
 31
0.0
  0
LINE
  5
E52
  8
AD4324
 62
     8
 10
217.27615128962549
 20
540.58955093631755
 30
0.0
 11
217.9761512896259
 21
540.58955093631721
 31
0.0
  0
LINE
  5
E53
  8
AD4324
 62
     8
 10
215.8761512896258
 20
542.68955093631791
 30
0.0
 11
215.87615128962551
 21
541.98955093631753
 31
0.0
  0
LINE
  5
E54
  8
AD4324
 62
     8
 10
218.81615128962571
 20
542.6895509363178
 30
0.0
 11
218.22115128962551
 21
542.93455093631735
 31
0.0
  0
LINE
  5
E55
  8
AD4324
 62
     8
 10
218.22115128962551
 20
541.74455093631764
 30
0.0
 11
218.81615128962571
 21
541.98955093631707
 31
0.0
  0
LINE
  5
E56
  8
AD4324
 62
     8
 10
219.37615128962599
 20
542.6895509363178
 30
0.0
 11
219.3761512896258
 21
541.98955093631707
 31
0.0
  0
DIMENSION
  5
E58
  8
MEASURE
 62
     7
  2
*D4
 10
326.62615128962568
 20
74.99576984718442
 30
0.0
 11
217.62615128962591
 21
81.495769847184405
 31
0.0
 70
     0
 13
108.62615128962599
 23
118.61638503525251
 33
0.0
 14
326.62615128962568
 24
118.61638503525251
 34
0.0
1001
ACAD
1000
DSTYLE
1002
{
1070
    40
1040
2.0
1002
}
  0
DIMENSION
  5
E9B
  8
MEASURE
 62
     7
  2
*D5
 10
380.74144595301817
 20
107.01638503525371
 30
0.0
 11
372.40811261968491
 21
178.31638503525309
 31
0.0
 70
     0
  1
(<>)
 13
322.62615128962568
 23
249.61638503525239
 33
0.0
 14
306.92615128962791
 24
107.01638503525371
 34
0.0
 50
90.0
1001
ACAD
1000
DSTYLE
1002
{
1070
   271
1070
     0
1070
    40
1040
2.0
1002
}
  0
DIMENSION
  5
F58
  8
MEASURE
 62
     7
  2
*D8
 10
730.32069139011264
 20
74.957989112564064
 30
0.0
 11
619.82069139011264
 21
81.457989112564064
 31
0.0
 70
     0
 13
509.32069139011259
 23
140.61638503525199
 33
0.0
 14
730.32069139011264
 24
115.11638503525199
 34
0.0
1001
ACAD
1000
DSTYLE
1002
{
1070
    40
1040
2.0
1002
}
  0
TEXT
  5
F9D
  8
MEASURE
 10
595.94454779848854
 20
317.05980994438931
 30
0.0
 40
6.0
  1
REAR　VIEW
 41
0.8
  7
AD-STANDARD
  0
TEXT
  5
F9F
  8
MEASURE
 10
189.55493447712371
 20
300.92359125880711
 30
0.0
 40
6.0
  1
TOP　VIEW
 41
0.8
  7
AD-STANDARD
  0
TEXT
  5
FA2
  8
MEASURE
 10
187.83651668770361
 20
49.18148481683329
 30
0.0
 40
6.0
  1
FRONT　VIEW
 41
0.8
  7
AD-STANDARD
  0
TEXT
  5
FA3
  8
MEASURE
 10
587.7222545130885
 20
49.413541713708362
 30
0.0
 40
6.0
  1
SIDE　VIEW
 41
0.8
  7
AD-STANDARD
  0
LINE
  5
FA5
  8
AD4324
 62
     8
 10
540.02069139011189
 20
353.67663780479342
 30
0.0
 11
556.62069139011226
 21
353.67663780479342
 31
0.0
  0
LINE
  5
FA6
  8
AD4324
 62
     8
 10
540.02069139011189
 20
353.67663780479251
 30
0.0
 11
538.0379102787125
 21
361.27663780479219
 31
0.0
  0
LINE
  5
FA7
  8
AD4324
 62
     8
 10
556.62069139011226
 20
353.67663780479251
 30
0.0
 11
558.60347250151415
 21
361.27663780479219
 31
0.0
  0
LINE
  5
FA8
  8
AD4324
 62
     8
 10
702.02069139011405
 20
353.67663780479342
 30
0.0
 11
718.62069139011442
 21
353.67663780479342
 31
0.0
  0
LINE
  5
FA9
  8
AD4324
 62
     8
 10
702.02069139011405
 20
353.67663780479251
 30
0.0
 11
700.03791027871125
 21
361.27663780479219
 31
0.0
  0
LINE
  5
FAA
  8
AD4324
 62
     8
 10
718.62069139011442
 20
353.67663780479251
 30
0.0
 11
720.60347250151381
 21
361.27663780479219
 31
0.0
  0
LINE
  5
FAF
  8
AD4324
 62
     8
 10
709.62069139011487
 20
107.5163850352523
 30
0.0
 11
711.60347250151426
 21
115.11638503525199
 31
0.0
  0
LINE
  5
FB0
  8
AD4324
 62
     8
 10
693.02069139011451
 20
107.5163850352523
 30
0.0
 11
691.03791027871182
 21
115.11638503525199
 31
0.0
  0
LINE
  5
FB1
  8
AD4324
 62
     8
 10
693.02069139011451
 20
107.51638503525319
 30
0.0
 11
709.62069139011487
 21
107.51638503525319
 31
0.0
  0
LINE
  5
FB2
  8
AD4324
 62
     8
 10
563.02069139011235
 20
107.51638503525319
 30
0.0
 11
579.62069139011282
 21
107.51638503525319
 31
0.0
  0
LINE
  5
FB3
  8
AD4324
 62
     8
 10
563.02069139011235
 20
107.5163850352523
 30
0.0
 11
561.03791027870966
 21
115.11638503525199
 31
0.0
  0
LINE
  5
FB4
  8
AD4324
 62
     8
 10
579.62069139011282
 20
107.5163850352523
 30
0.0
 11
581.6034725015121
 21
115.11638503525199
 31
0.0
  0
CIRCLE
  5
FC6
  8
AD4324
 62
     8
 10
227.62615128962551
 20
127.11638503525199
 30
0.0
 40
3.5
  0
CIRCLE
  5
FC7
  8
AD4324
 62
     8
 10
227.62615128962551
 20
127.11638503525199
 30
0.0
 40
3.0
  0
CIRCLE
  5
FC8
  8
AD4324
 62
     8
 10
315.62615128962602
 20
127.11638503525199
 30
0.0
 40
3.0
  0
CIRCLE
  5
FC9
  8
AD4324
 62
     8
 10
315.62615128962602
 20
127.11638503525199
 30
0.0
 40
3.5
  0
DIMENSION
  5
1118
  8
MEASURE
 62
     7
  2
*D16
 10
364.45294671934153
 20
114.61638503525241
 30
0.0
 11
357.95294671934153
 21
182.11638503525251
 31
0.0
 70
     0
 13
322.62615128962568
 23
249.61638503525239
 33
0.0
 14
322.62615128962568
 24
114.61638503525251
 34
0.0
 50
90.0
1001
ACAD
1000
DSTYLE
1002
{
1070
    40
1040
2.0
1002
}
  0
LINE
  5
1177
  8
AD4324
 62
     8
 10
281.62615128962568
 20
178.11638503525199
 30
0.0
 11
285.62615128962568
 21
178.11638503525199
 31
0.0
  0
LINE
  5
1178
  8
AD4324
 62
     8
 10
281.62615128962568
 20
177.11638503525199
 30
0.0
 11
285.62615128962568
 21
177.11638503525199
 31
0.0
  0
LINE
  5
1179
  8
AD4324
 62
     8
 10
286.6261512896258
 20
173.11638503525199
 30
0.0
 11
286.6261512896258
 21
177.11638503525199
 31
0.0
  0
LINE
  5
117B
  8
AD4324
 62
     8
 10
285.62615128962568
 20
173.11638503525199
 30
0.0
 11
285.62615128962568
 21
177.11638503525199
 31
0.0
  0
ARC
  5
1186
  8
AD4324
 62
     8
 10
281.62615128962568
 20
177.61638503525199
 30
0.0
 40
0.5
 50
90.0
 51
270.0
  0
ARC
  5
1187
  8
AD4324
 62
     8
 10
290.6261512896258
 20
177.61638503525199
 30
0.0
 40
0.5
 50
270.0
 51
90.0
  0
ARC
  5
1188
  8
AD4324
 62
     8
 10
286.1261512896258
 20
182.11638503525199
 30
0.0
 40
0.5
 50
0.0
 51
180.0
  0
ARC
  5
1189
  8
AD4324
 62
     8
 10
286.1261512896258
 20
173.11638503525199
 30
0.0
 40
0.5
 50
180.0
 51
0.0
  0
LINE
  5
118A
  8
AD4324
 62
     8
 10
286.6261512896258
 20
178.11638503525199
 30
0.0
 11
286.6261512896258
 21
182.11638503525199
 31
0.0
  0
LINE
  5
118B
  8
AD4324
 62
     8
 10
285.62615128962568
 20
178.11638503525199
 30
0.0
 11
285.62615128962568
 21
182.11638503525199
 31
0.0
  0
LINE
  5
118C
  8
AD4324
 62
     8
 10
286.6261512896258
 20
177.11638503525199
 30
0.0
 11
290.6261512896258
 21
177.11638503525199
 31
0.0
  0
LINE
  5
118D
  8
AD4324
 62
     8
 10
286.6261512896258
 20
178.11638503525199
 30
0.0
 11
290.6261512896258
 21
178.11638503525199
 31
0.0
  0
LINE
  5
118E
  8
AD4324
 62
     8
 10
298.6261512896258
 20
178.11638503525199
 30
0.0
 11
307.6261512896258
 21
178.11638503525211
 31
0.0
  0
LINE
  5
118F
  8
AD4324
 62
     8
 10
298.6261512896258
 20
177.11638503525199
 30
0.0
 11
307.6261512896258
 21
177.11638503525211
 31
0.0
  0
ARC
  5
1190
  8
AD4324
 62
     8
 10
298.6261512896258
 20
177.61638503525199
 30
0.0
 40
0.5
 50
90.0
 51
270.0
  0
ARC
  5
1191
  8
AD4324
 62
     8
 10
307.6261512896258
 20
177.61638503525199
 30
0.0
 40
0.5
 50
270.0
 51
90.0
  0
ARC
  5
119C
  8
AD4324
 62
     8
 10
248.12615128962599
 20
177.61638503525199
 30
0.0
 40
0.5
 50
120.9637565320746
 51
239.03624346792481
  0
ARC
  5
119D
  8
AD4324
 62
     8
 10
255.62615128962551
 20
173.11638503525199
 30
0.0
 40
0.5
 50
239.03624346792481
 51
59.03624346792536
  0
ARC
  5
119E
  8
AD4324
 62
     8
 10
255.62615128962551
 20
182.11638503525199
 30
0.0
 40
0.5
 50
300.96375653207463
 51
120.9637565320735
  0
LINE
  5
11A1
  8
AD4324
 62
     8
 10
247.86890341191221
 20
178.0451314981083
 30
0.0
 11
255.36890341191179
 21
182.5451314981083
 31
0.0
  0
LINE
  5
11A2
  8
AD4324
 62
     8
 10
249.09797660543339
 20
177.61638503525199
 30
0.0
 11
255.88339916733929
 21
181.6876385723958
 31
0.0
  0
LINE
  5
11A3
  8
AD4324
 62
     8
 10
255.88339916733929
 20
173.5451314981083
 30
0.0
 11
249.09797660543339
 21
177.61638503525199
 31
0.0
  0
LINE
  5
11A4
  8
AD4324
 62
     8
 10
255.36890341191179
 20
172.68763857239571
 30
0.0
 11
247.86890341191221
 21
177.1876385723958
 31
0.0
  0
ARC
  5
11A7
  8
AD4324
 62
     8
 10
265.62615128962602
 20
182.11638503525199
 30
0.0
 40
0.5
 50
59.036243467926496
 51
239.03624346792529
  0
ARC
  5
11A8
  8
AD4324
 62
     8
 10
265.62615128962602
 20
173.11638503525199
 30
0.0
 40
0.5
 50
120.9637565320746
 51
300.96375653207519
  0
LINE
  5
11A9
  8
AD4324
 62
     8
 10
272.15432597381812
 20
177.61638503525199
 30
0.0
 11
265.36890341191219
 21
181.6876385723958
 31
0.0
  0
LINE
  5
11AA
  8
AD4324
 62
     8
 10
273.38339916733929
 20
178.0451314981083
 30
0.0
 11
265.8833991673398
 21
182.5451314981083
 31
0.0
  0
ARC
  5
11AB
  8
AD4324
 62
     8
 10
273.12615128962551
 20
177.61638503525199
 30
0.0
 40
0.5
 50
300.96375653207519
 51
59.036243467925367
  0
LINE
  5
11AC
  8
AD4324
 62
     8
 10
265.36890341191219
 20
173.5451314981083
 30
0.0
 11
272.15432597381812
 21
177.61638503525199
 31
0.0
  0
LINE
  5
11AD
  8
AD4324
 62
     8
 10
265.8833991673398
 20
172.68763857239571
 30
0.0
 11
273.38339916733929
 21
177.1876385723958
 31
0.0
  0
VIEWPORT
  5
4A0
 67
     1
  8
0
 10
203.36084045400369
 20
150.96531988959569
 30
0.0
 40
460.88797979091868
 41
378.2132287768776
 68
     1
 69
     1
1001
ACAD
1000
MVIEW
1002
{
1070
    16
1010
0.0
1020
0.0
1030
0.0
1010
0.0
1020
0.0
1030
1.0
1040
0.0
1040
378.2132287768776
1040
203.36084045400369
1040
150.96531988959569
1040
50.0
1040
0.0
1040
0.0
1070
     0
1070
   100
1070
     1
1070
     0
1070
     0
1070
     0
1070
     0
1070
     0
1040
0.0
1040
0.0
1040
0.0
1040
1.0
1040
1.0
1040
10.0
1040
10.0
1070
     0
1002
{
1002
}
1002
}
  0
VIEWPORT
  5
4A1
 67
     1
  8
DEFPOINTS
 62
     8
 10
204.0
 20
142.5
 30
0.0
 40
408.0
 41
285.0
 68
     2
 69
     2
1001
ACAD
1000
MVIEW
1002
{
1070
    16
1010
0.0
1020
0.0
1030
0.0
1010
0.0
1020
0.0
1030
1.0
1040
0.0
1040
570.00000163179845
1040
416.3799961489687
1040
295.4562700048744
1040
50.0
1040
0.0
1040
0.0
1070
     0
1070
   100
1070
     1
1070
     0
1070
     0
1070
     0
1070
     0
1070
     1
1040
0.0
1040
0.0
1040
0.0
1040
168.0
1040
168.0
1040
0.0
1040
0.0
1070
     0
1002
{
1002
}
1002
}
  0
ENDSEC
  0
EOF
