  0
SECTION
  2
HEADER
  9
$ACADVER
  1
AC1009
  9
$INSBASE
 10
0.0
 20
0.0
 30
0.0
  9
$EXTMIN
 10
0.0
 20
0.0
 30
0.0
  9
$EXTMAX
 10
630.0
 20
445.5
 30
0.0
  9
$LIMMIN
 10
0.0
 20
0.0
  9
$LIMMAX
 10
10000.0
 20
10000.0
  9
$ORTHOMODE
 70
     1
  9
$REGENMODE
 70
     1
  9
$FILLMODE
 70
     1
  9
$QTEXTMODE
 70
     0
  9
$MIRRTEXT
 70
     1
  9
$DRAGMODE
 70
     2
  9
$LTSCALE
 40
33.670033670033661
  9
$OSMODE
 70
   311
  9
$ATTMODE
 70
     1
  9
$TEXTSIZE
 40
3.0
  9
$TRACEWID
 40
1.0
  9
$TEXTSTYLE
  7
FUTURA
  9
$CLAYER
  8
MEASURE
  9
$CELTYPE
  6
BYLAYER
  9
$CECOLOR
 62
   256
  9
$DIMSCALE
 40
1.5
  9
$DIMASZ
 40
2.5
  9
$DIMEXO
 40
1.0
  9
$DIMDLI
 40
0.38
  9
$DIMRND
 40
0.0
  9
$DIMDLE
 40
0.0
  9
$DIMEXE
 40
2.0
  9
$DIMTP
 40
0.0
  9
$DIMTM
 40
0.0
  9
$DIMTXT
 40
2.7999999999999989
  9
$DIMCEN
 40
2.0
  9
$DIMTSZ
 40
0.0
  9
$DIMTOL
 70
     0
  9
$DIMLIM
 70
     0
  9
$DIMTIH
 70
     0
  9
$DIMTOH
 70
     0
  9
$DIMSE1
 70
     0
  9
$DIMSE2
 70
     0
  9
$DIMTAD
 70
     1
  9
$DIMZIN
 70
     8
  9
$DIMBLK
  1

  9
$DIMASO
 70
     1
  9
$DIMSHO
 70
     1
  9
$DIMPOST
  1

  9
$DIMAPOST
  1

  9
$DIMALT
 70
     0
  9
$DIMALTD
 70
     2
  9
$DIMALTF
 40
25.399999999999999
  9
$DIMLFAC
 40
1.0
  9
$DIMTOFL
 70
     1
  9
$DIMTVP
 40
0.0
  9
$DIMTIX
 70
     0
  9
$DIMSOXD
 70
     0
  9
$DIMSAH
 70
     0
  9
$DIMBLK1
  1

  9
$DIMBLK2
  1

  9
$DIMSTYLE
  2
AD-STANDARD
  9
$DIMCLRD
 70
     9
  9
$DIMCLRE
 70
     9
  9
$DIMCLRT
 70
     2
  9
$DIMTFAC
 40
1.0
  9
$DIMGAP
 40
0.5
  9
$LUNITS
 70
     2
  9
$LUPREC
 70
     4
  9
$SKETCHINC
 40
1.0
  9
$FILLETRAD
 40
0.5
  9
$AUNITS
 70
     0
  9
$AUPREC
 70
     0
  9
$MENU
  1
.
  9
$ELEVATION
 40
0.0
  9
$PELEVATION
 40
0.0
  9
$THICKNESS
 40
0.0
  9
$LIMCHECK
 70
     0
  9
$BLIPMODE
 70
     0
  9
$CHAMFERA
 40
336.70033670033661
  9
$CHAMFERB
 40
336.70033670033661
  9
$SKPOLY
 70
     0
  9
$TDCREATE
 40
2450899.8310824069
  9
$TDUPDATE
 40
2453986.483145046
  9
$TDINDWG
 40
1.1073009491000001
  9
$TDUSRTIMER
 40
1.1073009491000001
  9
$USRTIMER
 70
     1
  9
$ANGBASE
 50
0.0
  9
$ANGDIR
 70
     0
  9
$PDMODE
 70
     0
  9
$PDSIZE
 40
0.0
  9
$PLINEWID
 40
0.0
  9
$COORDS
 70
     1
  9
$SPLFRAME
 70
     0
  9
$SPLINETYPE
 70
     6
  9
$SPLINESEGS
 70
     8
  9
$ATTDIA
 70
     0
  9
$ATTREQ
 70
     1
  9
$HANDLING
 70
 22529
  9
$HANDSEED
  5
F5E
  9
$SURFTAB1
 70
     6
  9
$SURFTAB2
 70
     6
  9
$SURFTYPE
 70
     6
  9
$SURFU
 70
     6
  9
$SURFV
 70
     6
  9
$UCSNAME
  2

  9
$UCSORG
 10
0.0
 20
0.0
 30
0.0
  9
$UCSXDIR
 10
1.0
 20
0.0
 30
0.0
  9
$UCSYDIR
 10
0.0
 20
1.0
 30
0.0
  9
$PUCSNAME
  2

  9
$PUCSORG
 10
0.0
 20
0.0
 30
0.0
  9
$PUCSXDIR
 10
1.0
 20
0.0
 30
0.0
  9
$PUCSYDIR
 10
0.0
 20
1.0
 30
0.0
  9
$USERI1
 70
     0
  9
$USERI2
 70
     0
  9
$USERI3
 70
     0
  9
$USERI4
 70
     0
  9
$USERI5
 70
     0
  9
$USERR1
 40
0.0
  9
$USERR2
 40
0.0
  9
$USERR3
 40
0.0
  9
$USERR4
 40
0.0
  9
$USERR5
 40
0.0
  9
$WORLDVIEW
 70
     1
  9
$SHADEDGE
 70
     3
  9
$SHADEDIF
 70
    70
  9
$TILEMODE
 70
     0
  9
$MAXACTVP
 70
    16
  9
$PLIMCHECK
 70
     0
  9
$PEXTMIN
 10
1.194141012338491
 20
1.4116666125336219
 30
-0.0015258207003583
  9
$PEXTMAX
 10
407.45357007867892
 20
284.46909350211359
 30
0.0000000349246037
  9
$PLIMMIN
 10
-5.873748779296875
 20
-5.8737497329711914
  9
$PLIMMAX
 10
414.07290649414062
 20
291.05224514007568
  9
$UNITMODE
 70
     0
  9
$VISRETAIN
 70
     0
  9
$PLINEGEN
 70
     0
  9
$PSLTSCALE
 70
     1
  0
ENDSEC
  0
SECTION
  2
TABLES
  0
TABLE
  2
VPORT
 70
     1
  0
VPORT
  2
*ACTIVE
 70
     0
 10
0.0
 20
0.0
 11
1.0
 21
1.0
 12
319.91831017735723
 22
248.80264434242989
 13
0.0
 23
0.0
 14
168.0
 24
168.0
 15
0.0
 25
0.0
 16
0.0
 26
0.0
 36
1.0
 17
0.0
 27
0.0
 37
0.0
 40
652.7281967936807
 41
1.2185929648241201
 42
50.0
 43
0.0
 44
0.0
 50
0.0
 51
0.0
 71
     0
 72
   100
 73
     1
 74
     0
 75
     0
 76
     0
 77
     0
 78
     1
  0
ENDTAB
  0
TABLE
  2
LTYPE
 70
     3
  0
LTYPE
  2
CONTINUOUS
 70
     0
  3
Solid line
 72
    65
 73
     0
 40
0.0
  0
LTYPE
  2
CENTER
 70
     0
  3
____ _ ____ _ ____ _ ____ _ ____ _ ____ _ ____ 
 72
    65
 73
     4
 40
2.0
 49
1.25
 49
-0.25
 49
0.25
 49
-0.25
  0
LTYPE
  2
HIDDEN
 70
     0
  3
__ __ __ __ __ __ __ __ __ __ __ __ __ __ __ __
 72
    65
 73
     2
 40
0.375
 49
0.25
 49
-0.125
  0
ENDTAB
  0
TABLE
  2
LAYER
 70
    20
  0
LAYER
  2
0
 70
     0
 62
     7
  6
CONTINUOUS
  0
LAYER
  2
HOJO
 70
     0
 62
     4
  6
CONTINUOUS
  0
LAYER
  2
MEASURE
 70
     0
 62
     8
  6
CONTINUOUS
  0
LAYER
  2
DEFPOINTS
 70
     0
 62
     7
  6
CONTINUOUS
  0
LAYER
  2
NEJI
 70
     0
 62
     7
  6
CONTINUOUS
  0
LAYER
  2
CENTER
 70
     0
 62
     8
  6
CENTER
  0
LAYER
  2
1
 70
     0
 62
     7
  6
CONTINUOUS
  0
LAYER
  2
2
 70
     0
 62
     4
  6
HIDDEN
  0
LAYER
  2
3
 70
     0
 62
     9
  6
CONTINUOUS
  0
LAYER
  2
4
 70
     0
 62
     5
  6
CONTINUOUS
  0
LAYER
  2
6
 70
     0
 62
     3
  6
CONTINUOUS
  0
LAYER
  2
FCC
 70
     0
 62
     2
  6
CONTINUOUS
  0
LAYER
  2
S仕様銘板
 70
     0
 62
     3
  6
CONTINUOUS
  0
LAYER
  2
社銘板
 70
     0
 62
     3
  6
CONTINUOUS
  0
LAYER
  2
銘板
 70
     0
 62
     7
  6
CONTINUOUS
  0
LAYER
  2
ROGO
 70
     0
 62
     7
  6
CONTINUOUS
  0
LAYER
  2
LABEL
 70
     0
 62
     8
  6
CONTINUOUS
  0
LAYER
  2
PRINT
 70
     0
 62
     8
  6
CONTINUOUS
  0
LAYER
  2
AD4323
 70
     0
 62
     7
  6
CONTINUOUS
  0
LAYER
  2
PANEL_CUT
 70
     0
 62
     6
  6
CONTINUOUS
  0
ENDTAB
  0
TABLE
  2
STYLE
 70
     8
  0
STYLE
  2
STANDARD
 70
     0
 40
0.0
 41
0.8
 50
0.0
 71
     0
 42
84.175084175084166
  3
C:\ACLTWIN2\Romans.shx
  4
C:\ACLTWIN2\Bigfont.shx
  0
STYLE
  2
AD-STANDARD
 70
     0
 40
0.0
 41
0.8
 50
0.0
 71
     0
 42
3.5
  3
C:\ACLTWIN2\Romans.shx
  4
C:\ACLTWIN2\Bigfont.shx
  0
STYLE
  2
BIGFONT
 70
     0
 40
3.5
 41
0.8
 50
15.0
 71
     0
 42
3.5
  3
ROMANS.SHX
  4
BIGFONT.SHX
  0
STYLE
  2
ROMAND
 70
     0
 40
5.0
 41
1.0
 50
0.0
 71
     0
 42
4.5
  3
romand
  4

  0
STYLE
  2
FORM
 70
     0
 40
3.5
 41
0.8
 50
0.0
 71
     0
 42
3.5
  3
ROMANS.SHX
  4
BIGFONT.SHX
  0
STYLE
  2
KANJI
 70
     0
 40
0.0
 41
1.0
 50
0.0
 71
     0
 42
2.0
  3
TXT
  4
BIGFONT
  0
STYLE
  2
FUTURA
 70
     0
 40
3.0
 41
1.0
 50
0.0
 71
     0
 42
3.0
  3
txt
  4

  0
STYLE
  2
和文
 70
     0
 40
3.5
 41
1.0
 50
0.0
 71
     0
 42
3.5
  3
txt
  4

  0
ENDTAB
  0
TABLE
  2
VIEW
 70
     0
  0
ENDTAB
  0
TABLE
  2
UCS
 70
     0
  0
ENDTAB
  0
TABLE
  2
APPID
 70
     1
  0
APPID
  2
ACAD
 70
     0
  0
ENDTAB
  0
TABLE
  2
DIMSTYLE
 70
     2
  0
DIMSTYLE
  2
STANDARD
 70
     0
  3

  4

  5

  6

  7

 40
1.0
 41
0.18
 42
0.0625
 43
0.38
 44
0.18
 45
0.0
 46
0.0
 47
0.0
 48
0.0
140
0.18
141
0.09
142
0.0
143
25.399999999999999
144
1.0
145
0.0
146
1.0
147
0.09
 71
     0
 72
     0
 73
     1
 74
     1
 75
     0
 76
     0
 77
     0
 78
     0
170
     0
171
     2
172
     0
173
     0
174
     0
175
     0
176
     0
177
     0
178
     0
  0
DIMSTYLE
  2
AD-STANDARD
 70
     0
  3

  4

  5

  6

  7

 40
1.0
 41
2.5
 42
1.0
 43
0.38
 44
2.0
 45
0.0
 46
0.0
 47
0.0
 48
0.0
140
2.7999999999999989
141
2.0
142
0.0
143
25.399999999999999
144
1.0
145
0.0
146
1.0
147
0.5
 71
     0
 72
     0
 73
     0
 74
     0
 75
     0
 76
     0
 77
     1
 78
     8
170
     0
171
     2
172
     1
173
     0
174
     0
175
     0
176
     9
177
     9
178
     2
  0
ENDTAB
  0
ENDSEC
  0
SECTION
  2
BLOCKS
  0
BLOCK
  8
0
  2
$MODEL_SPACE
 70
     0
 10
0.0
 20
0.0
 30
0.0
  3
$MODEL_SPACE
  1

  0
ENDBLK
  5
1C
  8
0
  0
BLOCK
 67
     1
  8
0
  2
$PAPER_SPACE
 70
     0
 10
0.0
 20
0.0
 30
0.0
  3
$PAPER_SPACE
  1

  0
ENDBLK
  5
D66
 67
     1
  8
0
  0
BLOCK
  8
0
  2
NB04
 70
     0
 10
0.0
 20
0.0
 30
0.0
  3
NB04
  1

  0
LINE
  5
23E
  8
NEJI
 10
1.3939999999998911
 20
-0.4100000000005651
 30
0.0
 11
2.0500000000000109
 21
-0.4100000000005651
 31
0.0
  0
LINE
  5
23F
  8
NEJI
 10
2.0500000000002379
 20
0.4100000000000819
 30
0.0
 11
1.3939999999998911
 21
0.4100000000000819
 31
0.0
  0
CIRCLE
  5
240
  8
NEJI
 10
0.0
 20
0.0
 30
0.0
 40
3.5
  0
LINE
  5
241
  8
NEJI
 10
-2.0500000000000109
 20
0.4100000000003377
 30
0.0
 11
-2.0500000000002379
 21
-0.4100000000000819
 31
0.0
  0
LINE
  5
242
  8
NEJI
 10
0.4100000000000819
 20
-1.3940000000001189
 30
0.0
 11
0.6969999999998322
 21
-0.6970000000000596
 31
0.0
  0
LINE
  5
243
  8
NEJI
 10
0.6969999999998322
 20
-0.6970000000000596
 30
0.0
 11
1.3939999999998911
 21
-0.4100000000005651
 31
0.0
  0
LINE
  5
244
  8
NEJI
 10
-2.0500000000002379
 20
-0.4100000000000819
 30
0.0
 11
-1.3939999999998911
 21
-0.4100000000000819
 31
0.0
  0
LINE
  5
245
  8
NEJI
 10
-1.3939999999998911
 20
-0.4100000000000819
 30
0.0
 11
-0.6969999999998322
 21
-0.6969999999998322
 31
0.0
  0
LINE
  5
246
  8
NEJI
 10
-0.6969999999998322
 20
-0.6969999999998322
 30
0.0
 11
-0.4100000000003377
 21
-1.3939999999998911
 31
0.0
  0
LINE
  5
247
  8
NEJI
 10
-0.4100000000003377
 20
-2.0500000000000109
 30
0.0
 11
0.4100000000000819
 21
-2.0500000000004661
 31
0.0
  0
LINE
  5
248
  8
NEJI
 10
0.4100000000000819
 20
-2.0500000000004661
 30
0.0
 11
0.4100000000000819
 21
-1.3940000000001189
 31
0.0
  0
LINE
  5
249
  8
NEJI
 10
-0.4100000000003377
 20
-1.3939999999998911
 30
0.0
 11
-0.4100000000003377
 21
-2.0500000000000109
 31
0.0
  0
LINE
  5
24A
  8
NEJI
 10
-0.4100000000000819
 20
2.0500000000002379
 30
0.0
 11
0.4100000000003377
 21
2.0500000000000109
 31
0.0
  0
LINE
  5
24B
  8
NEJI
 10
-0.4100000000000819
 20
2.0500000000002379
 30
0.0
 11
-0.4100000000000819
 21
1.3939999999998911
 31
0.0
  0
LINE
  5
24C
  8
NEJI
 10
-0.4100000000000819
 20
1.3939999999998911
 30
0.0
 11
-0.6969999999998322
 21
0.6969999999998322
 31
0.0
  0
LINE
  5
24D
  8
NEJI
 10
-0.6969999999998322
 20
0.6969999999998322
 30
0.0
 11
-1.3939999999998911
 21
0.4100000000003377
 31
0.0
  0
LINE
  5
24E
  8
NEJI
 10
-1.3939999999998911
 20
0.4100000000003377
 30
0.0
 11
-2.0500000000000109
 21
0.4100000000003377
 31
0.0
  0
LINE
  5
24F
  8
NEJI
 10
0.4100000000003377
 20
1.3939999999998911
 30
0.0
 11
0.4100000000003377
 21
2.0500000000000109
 31
0.0
  0
LINE
  5
250
  8
NEJI
 10
0.6969999999998322
 20
0.6969999999998322
 30
0.0
 11
0.4100000000003377
 21
1.3939999999998911
 31
0.0
  0
LINE
  5
251
  8
NEJI
 10
1.3939999999998911
 20
0.4100000000000819
 30
0.0
 11
0.6969999999998322
 21
0.6969999999998322
 31
0.0
  0
LINE
  5
252
  8
NEJI
 10
2.0500000000002379
 20
0.4100000000000819
 30
0.0
 11
2.0500000000000109
 21
-0.4100000000005651
 31
0.0
  0
ENDBLK
  5
254
  8
0
  0
BLOCK
  8
0
  2
NB03
 70
     0
 10
0.0
 20
0.0
 30
0.0
  3
NB03
  1

  0
CIRCLE
  5
256
  8
NEJI
 10
0.0
 20
0.0
 30
0.0
 40
2.75
  0
LINE
  5
257
  8
NEJI
 10
-1.75
 20
0.3500000000002785
 30
0.0
 11
-1.7500000000001981
 21
-0.3500000000000796
 31
0.0
  0
LINE
  5
258
  8
NEJI
 10
1.7500000000001981
 20
0.3500000000000796
 30
0.0
 11
1.75
 21
-0.3500000000004775
 31
0.0
  0
LINE
  5
259
  8
NEJI
 10
-0.3500000000002785
 20
-1.75
 30
0.0
 11
0.3500000000000796
 21
-1.750000000000397
 31
0.0
  0
LINE
  5
25A
  8
NEJI
 10
0.3500000000000796
 20
-1.750000000000397
 30
0.0
 11
0.3500000000000796
 21
-1.190000000000111
 31
0.0
  0
LINE
  5
25B
  8
NEJI
 10
0.3500000000000796
 20
-1.190000000000111
 30
0.0
 11
0.5949999999998568
 21
-0.5950000000000557
 31
0.0
  0
LINE
  5
25C
  8
NEJI
 10
0.5949999999998568
 20
-0.5950000000000557
 30
0.0
 11
1.189999999999912
 21
-0.3500000000004775
 31
0.0
  0
LINE
  5
25D
  8
NEJI
 10
1.189999999999912
 20
-0.3500000000004775
 30
0.0
 11
1.75
 21
-0.3500000000004775
 31
0.0
  0
LINE
  5
25E
  8
NEJI
 10
-1.7500000000001981
 20
-0.3500000000000796
 30
0.0
 11
-1.189999999999912
 21
-0.3500000000000796
 31
0.0
  0
LINE
  5
25F
  8
NEJI
 10
-1.189999999999912
 20
-0.3500000000000796
 30
0.0
 11
-0.5949999999998568
 21
-0.5949999999998568
 31
0.0
  0
LINE
  5
260
  8
NEJI
 10
-0.5949999999998568
 20
-0.5949999999998568
 30
0.0
 11
-0.3500000000002785
 21
-1.189999999999912
 31
0.0
  0
LINE
  5
261
  8
NEJI
 10
-0.3500000000002785
 20
-1.189999999999912
 30
0.0
 11
-0.3500000000002785
 21
-1.75
 31
0.0
  0
LINE
  5
262
  8
NEJI
 10
-0.3500000000000796
 20
1.7500000000001981
 30
0.0
 11
0.3500000000002785
 21
1.75
 31
0.0
  0
LINE
  5
263
  8
NEJI
 10
-0.3500000000000796
 20
1.7500000000001981
 30
0.0
 11
-0.3500000000000796
 21
1.189999999999912
 31
0.0
  0
LINE
  5
264
  8
NEJI
 10
-0.3500000000000796
 20
1.189999999999912
 30
0.0
 11
-0.5949999999998568
 21
0.5949999999998568
 31
0.0
  0
LINE
  5
265
  8
NEJI
 10
-0.5949999999998568
 20
0.5949999999998568
 30
0.0
 11
-1.189999999999912
 21
0.3500000000002785
 31
0.0
  0
LINE
  5
266
  8
NEJI
 10
-1.189999999999912
 20
0.3500000000002785
 30
0.0
 11
-1.75
 21
0.3500000000002785
 31
0.0
  0
LINE
  5
267
  8
NEJI
 10
0.3500000000002785
 20
1.189999999999912
 30
0.0
 11
0.3500000000002785
 21
1.75
 31
0.0
  0
LINE
  5
268
  8
NEJI
 10
0.5949999999998568
 20
0.5949999999998568
 30
0.0
 11
0.3500000000002785
 21
1.189999999999912
 31
0.0
  0
LINE
  5
269
  8
NEJI
 10
1.189999999999912
 20
0.3500000000000796
 30
0.0
 11
0.5949999999998568
 21
0.5949999999998568
 31
0.0
  0
LINE
  5
26A
  8
NEJI
 10
1.7500000000001981
 20
0.3500000000000796
 30
0.0
 11
1.189999999999912
 21
0.3500000000000796
 31
0.0
  0
ENDBLK
  5
26C
  8
0
  0
BLOCK
  8
0
  2
AS-A3FORM
 70
     2
 10
0.0
 20
0.0
 30
0.0
  3
AS-A3FORM
  1

  0
LINE
  5
688
  8
0
 10
276.99999999999989
 20
43.999999999999943
 30
0.0
 11
358.99999999999977
 21
43.999999999999943
 31
0.0
  0
LINE
  5
689
  8
0
 10
276.99999999999989
 20
34.999999999999943
 30
0.0
 11
346.99999999999977
 21
34.999999999999943
 31
0.0
  0
TEXT
  5
68A
  8
0
 62
     2
 10
282.99375651078589
 20
9.7882830459161596
 30
0.0
 40
4.5
  1
A&D CO.,LTD.
  7
ROMAND
  0
POLYLINE
  5
68B
  8
0
 66
     1
 10
0.0
 20
0.0
 30
0.0
 40
0.3
 41
0.3
  0
VERTEX
  5
F2C
  8
0
 10
276.99999999999989
 20
16.99999999999994
 30
0.0
  0
VERTEX
  5
F2D
  8
0
 10
276.99999999999989
 20
12.99999999999994
 30
0.0
  0
VERTEX
  5
F2E
  8
0
 10
228.9999999999998
 20
12.99999999999994
 30
0.0
  0
VERTEX
  5
F2F
  8
0
 10
228.9999999999998
 20
52.999999999999943
 30
0.0
  0
VERTEX
  5
F30
  8
0
 10
404.99999999999977
 20
52.999999999999943
 30
0.0
  0
SEQEND
  5
F31
  8
0
  0
POLYLINE
  5
68C
  8
0
 66
     1
 10
0.0
 20
0.0
 30
0.0
 40
0.3
 41
0.3
  0
VERTEX
  5
F32
  8
0
 10
276.99999999999989
 20
39.999999999999943
 30
0.0
  0
VERTEX
  5
F33
  8
0
 10
404.99999999999977
 20
39.999999999999943
 30
0.0
  0
SEQEND
  5
F34
  8
0
  0
ATTDEF
  5
68D
  8
0
 62
     1
 10
284.0
 20
48.500000000000171
 30
0.0
 40
3.5
  1

 41
0.8
  7
FORM
 72
     4
 11
284.0
 21
48.500000000000171
 31
0.0
  3
尺度
  2
SCALE
 70
     0
  0
ATTDEF
  5
68E
  8
0
 62
     1
 10
296.26666666666671
 20
46.666666666666828
 30
0.0
 40
3.5
  1
%%P
 41
0.8
  7
FORM
 72
     4
 11
298.0
 21
48.500000000000171
 31
0.0
  3
公差
  2
TOLERANCE
 70
     0
  0
LINE
  5
68F
  8
0
 10
228.9999999999998
 20
20.99999999999994
 30
0.0
 11
276.99999999999989
 21
20.99999999999994
 31
0.0
  0
LINE
  5
690
  8
0
 10
228.9999999999998
 20
24.99999999999994
 30
0.0
 11
276.99999999999989
 21
24.99999999999994
 31
0.0
  0
LINE
  5
691
  8
0
 10
228.9999999999998
 20
32.999999999999943
 30
0.0
 11
276.99999999999989
 21
32.999999999999943
 31
0.0
  0
LINE
  5
692
  8
0
 10
228.9999999999998
 20
36.999999999999943
 30
0.0
 11
276.99999999999989
 21
36.999999999999943
 31
0.0
  0
LINE
  5
693
  8
0
 10
228.9999999999998
 20
40.999999999999943
 30
0.0
 11
276.99999999999989
 21
40.999999999999943
 31
0.0
  0
LINE
  5
694
  8
0
 10
228.9999999999998
 20
44.999999999999943
 30
0.0
 11
276.99999999999989
 21
44.999999999999943
 31
0.0
  0
LINE
  5
695
  8
0
 10
228.9999999999998
 20
48.99999999999995
 30
0.0
 11
276.99999999999989
 21
48.99999999999995
 31
0.0
  0
LINE
  5
696
  8
0
 10
228.9999999999998
 20
28.999999999999911
 30
0.0
 11
276.99999999999989
 21
28.999999999999911
 31
0.0
  0
LINE
  5
697
  8
0
 10
236.4999999999998
 20
52.999999999999943
 30
0.0
 11
236.4999999999998
 21
12.99999999999994
 31
0.0
  0
LINE
  5
698
  8
0
 10
245.4999999999998
 20
52.999999999999943
 30
0.0
 11
245.4999999999998
 21
12.99999999999994
 31
0.0
  0
LINE
  5
699
  8
0
 10
253.4999999999998
 20
52.999999999999943
 30
0.0
 11
253.4999999999998
 21
12.99999999999994
 31
0.0
  0
TEXT
  5
69A
  8
0
 62
     2
 10
236.65800501565951
 20
17.500478866360879
 30
0.0
 40
2.5
  1
 月 日
  7
FORM
  0
TEXT
  5
69B
  8
0
 62
     2
 10
230.29858670526829
 20
17.500479853137051
 30
0.0
 40
2.5
  1
記号
  7
FORM
  0
TEXT
  5
69C
  8
0
 62
     2
 10
230.18842846245849
 20
13.65217228338059
 30
0.0
 40
2.5
  1
設置
  7
FORM
  0
TEXT
  5
69D
  8
0
 62
     2
 10
246.72708424057251
 20
17.677072331130141
 30
0.0
 40
2.5
  1
担当
  7
FORM
  0
POLYLINE
  5
69E
  8
0
 66
     1
 10
0.0
 20
0.0
 30
0.0
 40
0.3
 41
0.3
  0
VERTEX
  5
F35
  8
0
 10
276.99999999999989
 20
16.99999999999994
 30
0.0
  0
VERTEX
  5
F36
  8
0
 10
276.99999999999989
 20
52.999999999999943
 30
0.0
  0
SEQEND
  5
F37
  8
0
  0
TEXT
  5
69F
  8
0
 62
     2
 10
258.73932178403152
 20
17.853664809123181
 30
0.0
 40
2.5
  1
改　連No.
  7
FORM
  0
TEXT
  5
6A0
  8
0
 62
     2
 10
279.23078187366252
 20
40.847440537267907
 30
0.0
 40
2.5
  1
尺  度
  7
FORM
  0
TEXT
  5
6A1
  8
0
 62
     2
 10
279.11980563654282
 20
36.293629101251518
 30
0.0
 40
2.5
  1
製　図
  7
FORM
  0
LINE
  5
6A2
  8
0
 10
346.99999999999977
 20
34.02499999999992
 30
0.0
 11
404.99999999999977
 21
34.02499999999992
 31
0.0
  0
TEXT
  5
6A3
  8
0
 62
     2
 10
349.18439029177631
 20
35.549660276819218
 30
0.0
 40
2.5
  1
名　称
  7
FORM
  0
TEXT
  5
6A4
  8
0
 62
     2
 10
347.94783805436452
 20
29.368917626405189
 30
0.0
 40
2.5
  1
ｽﾄｯｸNo.
  7
FORM
  0
TEXT
  5
6A5
  8
0
 62
     2
 10
336.9955038212546
 20
11.70965350179506
 30
0.0
 40
3.0
  1
適用ロット
  7
FORM
  0
POLYLINE
  5
6A6
  8
0
 66
     1
 10
0.0
 20
0.0
 30
0.0
 40
0.3
 41
0.3
  0
VERTEX
  5
F38
  8
0
 10
346.99999999999977
 20
28.02499999999992
 30
0.0
  0
VERTEX
  5
F39
  8
0
 10
404.99999999999977
 20
28.02499999999992
 30
0.0
  0
SEQEND
  5
F3A
  8
0
  0
POLYLINE
  5
6A7
  8
0
 66
     1
 10
0.0
 20
0.0
 30
0.0
 40
0.3
 41
0.3
  0
VERTEX
  5
F3B
  8
0
 10
404.99999999999977
 20
16.99999999999994
 30
0.0
  0
VERTEX
  5
F3C
  8
0
 10
404.99999999999977
 20
9.9999999999999432
 30
0.0
  0
VERTEX
  5
F3D
  8
0
 10
332.99999999999977
 20
9.9999999999999432
 30
0.0
  0
VERTEX
  5
F3E
  8
0
 10
332.99999999999977
 20
16.99999999999994
 30
0.0
  0
SEQEND
  5
F3F
  8
0
  0
ATTDEF
  5
6A8
  8
0
 62
     1
 10
334.99999999999977
 20
46.749999999999943
 30
0.0
 40
3.5
  1

 41
0.7764705882352943
  7
FORM
 72
     5
 11
356.99999999999977
 21
46.749999999999943
 31
0.0
  3
処理
  2
TREATMENT
 70
     0
  0
TEXT
  5
6A9
  8
0
 62
     2
 10
311.91112822551179
 20
40.847438563715571
 30
0.0
 40
2.5
  1
材　　　質
  7
FORM
  0
ATTDEF
  5
6AA
  8
0
 62
     1
 10
306.99999999999977
 20
46.749999999999943
 30
0.0
 40
3.5
  1

 41
1.2
  7
FORM
 72
     5
 11
330.99999999999977
 21
46.749999999999943
 31
0.0
  3
材質
  2
QUALITY
 70
     0
  0
LINE
  5
6AB
  8
0
 10
318.99999999999989
 20
16.99999999999994
 30
0.0
 11
318.99999999999989
 21
39.999999999999943
 31
0.0
  0
LINE
  5
6AC
  8
0
 10
318.99999999999989
 20
16.99999999999994
 30
0.0
 11
318.99999999999989
 21
39.999999999999943
 31
0.0
  0
LINE
  5
6AD
  8
0
 10
304.99999999999977
 20
16.99999999999994
 30
0.0
 11
304.99999999999977
 21
52.999999999999943
 31
0.0
  0
LINE
  5
6AE
  8
0
 10
304.99999999999977
 20
16.99999999999994
 30
0.0
 11
304.99999999999977
 21
43.999999999999943
 31
0.0
  0
LINE
  5
6AF
  8
0
 10
304.99999999999977
 20
16.99999999999994
 30
0.0
 11
304.99999999999977
 21
43.999999999999943
 31
0.0
  0
LINE
  5
6B0
  8
0
 10
304.99999999999977
 20
16.99999999999994
 30
0.0
 11
304.99999999999977
 21
43.999999999999943
 31
0.0
  0
LINE
  5
6B1
  8
0
 10
290.99999999999977
 20
16.99999999999994
 30
0.0
 11
290.99999999999977
 21
52.999999999999943
 31
0.0
  0
LINE
  5
6B2
  8
0
 10
290.99999999999977
 20
16.99999999999994
 30
0.0
 11
290.99999999999977
 21
43.999999999999943
 31
0.0
  0
TEXT
  5
6B3
  8
0
 62
     2
 10
293.82640891615267
 20
36.291555001817237
 30
0.0
 40
2.5
  1
設　計
  7
FORM
  0
TEXT
  5
6B4
  8
0
 62
     2
 10
293.74503025428868
 20
40.847440537267907
 30
0.0
 40
2.5
  1
公　差
  7
FORM
  0
TEXT
  5
6B5
  8
0
 62
     2
 10
308.20146871175211
 20
36.079437710798373
 30
0.0
 40
2.5
  1
検　図
  7
FORM
  0
LINE
  5
6B6
  8
0
 10
332.99999999999977
 20
16.99999999999994
 30
0.0
 11
332.99999999999977
 21
52.999999999999943
 31
0.0
  0
POLYLINE
  5
6B7
  8
0
 66
     1
 10
0.0
 20
0.0
 30
0.0
 40
0.3
 41
0.3
  0
VERTEX
  5
F40
  8
0
 10
346.99999999999977
 20
16.99999999999994
 30
0.0
  0
VERTEX
  5
F41
  8
0
 10
346.99999999999977
 20
39.999999999999943
 30
0.0
  0
SEQEND
  5
F42
  8
0
  0
LINE
  5
6B8
  8
0
 10
352.99999999999977
 20
16.99999999999994
 30
0.0
 11
352.99999999999977
 21
28.02499999999992
 31
0.0
  0
TEXT
  5
6B9
  8
0
 62
     2
 10
348.83108865197141
 20
18.420174123073991
 30
0.0
 40
2.5
  1
番
  7
FORM
  0
TEXT
  5
6BA
  8
0
 62
     2
 10
348.83108865197141
 20
23.541360918753458
 30
0.0
 40
2.5
  1
図
  7
FORM
  0
TEXT
  5
6BB
  8
0
 62
     2
 10
335.75895039138419
 20
35.90284621958147
 30
0.0
 40
2.5
  1
入　庫
  7
FORM
  0
TEXT
  5
6BC
  8
0
 62
     2
 10
321.98021025194919
 20
36.079437710798373
 30
0.0
 40
2.5
  1
承　認
  7
FORM
  0
TEXT
  5
6BD
  8
0
 62
     2
 10
340.52851482455861
 20
40.670847072498702
 30
0.0
 40
2.5
  1
処　　理
  7
FORM
  0
LINE
  5
6BE
  8
0
 10
358.99999999999977
 20
46.499999999999943
 30
0.0
 11
404.99999999999977
 21
46.499999999999943
 31
0.0
  0
LINE
  5
6BF
  8
0
 10
372.99999999999989
 20
46.499999999999943
 30
0.0
 11
404.99999999999977
 21
39.999999999999943
 31
0.0
  0
ATTDEF
  5
6C0
  8
0
 62
     1
 10
374.26540980256749
 20
48.152753203656353
 30
0.0
 40
3.0
  1

 41
1.978785165414396
  7
FORM
 72
     5
 11
403.0991364986059
 21
48.152753203656353
 31
0.0
  3
機種名
  2
MODEL
 70
     0
  0
ATTDEF
  5
6C1
  8
0
 62
     1
 10
360.99999999999977
 20
35.02499999999992
 30
0.0
 40
3.5
  1

 41
3.4054054054054101
  7
FORM
 72
     5
 11
402.99999999999989
 21
35.02499999999992
 31
0.0
  3
名称
  2
TITLE
 70
     0
  0
ATTDEF
  5
6C2
  8
0
 62
     1
 10
382.0000000000004
 20
31.024999999999888
 30
0.0
 40
3.5
  1

 41
0.8
  7
FORM
 72
     4
 11
382.0000000000004
 21
31.024999999999888
 31
0.0
  3
ストック　No.
  2
STOCK
 70
     0
  0
ATTDEF
  5
6C3
  8
0
 62
     1
 10
354.99999999999977
 20
19.709530427649039
 30
0.0
 40
5.0
  1

 41
1.6390243902439039
  7
FORM
 72
     5
 11
402.99999999999989
 21
19.709530427649039
 31
0.0
  3
図番
  2
DRG.NO.
 70
     0
  0
LINE
  5
6C4
  8
0
 10
358.99999999999977
 20
28.02499999999992
 30
0.0
 11
358.99999999999977
 21
52.999999999999943
 31
0.0
  0
LINE
  5
6C5
  8
0
 10
358.99999999999977
 20
9.9999999999999432
 30
0.0
 11
358.99999999999977
 21
16.99999999999994
 31
0.0
  0
TEXT
  5
6C6
  8
0
 62
     2
 10
362.25652995312578
 20
48.440923998402553
 30
0.0
 40
2.5
  1
機種名
  7
FORM
  0
LINE
  5
6C7
  8
0
 10
372.99999999999989
 20
39.999999999999943
 30
0.0
 11
372.99999999999989
 21
52.999999999999943
 31
0.0
  0
TEXT
  5
6C8
  8
0
 62
     2
 10
362.25652995312578
 20
41.940923998402553
 30
0.0
 40
2.5
  1
部品表
  7
FORM
  0
ATTDEF
  5
6C9
  8
DEFPOINTS
 62
     1
 10
354.99999999999977
 20
-25.145011193094501
 30
0.0
 40
5.0
  1

  7
FORM
 11
354.99999999999977
 21
-25.811677859761168
 31
0.0
  3
改連No.
  2
改連NO.
 70
     0
 74
     1
  0
ATTDEF
  5
6CA
  8
DEFPOINTS
 62
     1
 10
354.99999999999977
 20
-11.15672354517217
 30
0.0
 40
5.0
  1

  7
FORM
 11
354.99999999999977
 21
-11.82339021183884
 31
0.0
  3
ヴァージョン
  2
VER.
 70
     0
 74
     1
  0
POLYLINE
  5
6CB
  8
0
 66
     1
 10
0.0
 20
0.0
 30
0.0
 70
     1
 40
0.3
 41
0.3
  0
VERTEX
  5
F43
  8
0
 10
405.0
 20
281.99999999999989
 30
0.0
  0
VERTEX
  5
F44
  8
0
 10
20.000000000000028
 20
281.99999999999989
 30
0.0
  0
VERTEX
  5
F45
  8
0
 10
20.000000000000028
 20
17.0
 30
0.0
  0
VERTEX
  5
F46
  8
0
 10
404.99999999999989
 20
16.99999999999994
 30
0.0
  0
SEQEND
  5
F47
  8
0
  0
TEXT
  5
6CC
  8
DEFPOINTS
 10
337.43378002762728
 20
-10.09117250964141
 30
0.0
 40
3.5
  1
図面Ver.
 41
0.8
 51
15.0
  7
BIGFONT
  0
TEXT
  5
6CD
  8
DEFPOINTS
 10
336.76950296086818
 20
-24.200630254439709
 30
0.0
 40
3.5
  1
改連No.
 41
0.8
 51
15.0
  7
BIGFONT
  0
LINE
  5
6CE
  8
DEFPOINTS
 10
334.94274139601242
 20
-12.747070891793321
 30
0.0
 11
405.35611784713592
 21
-12.747070891793321
 31
0.0
  0
LINE
  5
6CF
  8
DEFPOINTS
 10
334.94274139601242
 20
-26.358547631148319
 30
0.0
 11
405.35611784713592
 21
-26.358547631148319
 31
0.0
  0
LINE
  5
6D0
  8
0
 10
90.0
 20
261.99999999999989
 30
0.0
 11
20.0
 21
261.99999999999989
 31
0.0
  0
LINE
  5
6D1
  8
0
 10
90.0
 20
266.99999999999989
 30
0.0
 11
20.0
 21
266.99999999999989
 31
0.0
  0
LINE
  5
6D2
  8
0
 10
90.0
 20
271.99999999999989
 30
0.0
 11
20.0
 21
271.99999999999989
 31
0.0
  0
LINE
  5
6D3
  8
0
 10
90.0
 20
276.99999999999989
 30
0.0
 11
20.0
 21
276.99999999999989
 31
0.0
  0
TEXT
  5
6D4
  8
0
 10
22.481710804308928
 20
263.0876400726051
 30
0.0
 40
3.0
  1
63をこえ200以下
 41
0.6
  7
BIGFONT
  0
TEXT
  5
6D5
  8
0
 10
22.233560564061229
 20
268.0876400726051
 30
0.0
 40
3.0
  1
16をこえ　63以下
 41
0.6
  7
BIGFONT
  0
TEXT
  5
6D6
  8
0
 10
22.233560564061229
 20
273.08764007260498
 30
0.0
 40
3.0
  1
16以下
 41
0.6
  7
BIGFONT
  0
TEXT
  5
6D7
  8
0
 10
22.233560564061229
 20
278.0876400726051
 30
0.0
 40
3.0
  1
普通寸法許容差
 41
0.8
  7
BIGFONT
  0
TEXT
  5
6D8
  8
0
 10
69.902300775522676
 20
278.2116501236207
 30
0.0
 40
3.0
  1
C
 41
0.8
  0
TEXT
  5
6D9
  8
0
 10
59.902300775522683
 20
278.2116501236207
 30
0.0
 40
3.0
  1
B
 41
0.8
  0
TEXT
  5
6DA
  8
0
 10
49.902300775522683
 20
278.2116501236207
 30
0.0
 40
3.0
  1
A
 41
0.8
  0
LINE
  5
6DB
  8
0
 10
76.0
 20
281.99999999999989
 30
0.0
 11
76.0
 21
261.99999999999989
 31
0.0
  0
LINE
  5
6DC
  8
0
 10
66.0
 20
281.99999999999989
 30
0.0
 11
66.0
 21
261.99999999999989
 31
0.0
  0
LINE
  5
6DD
  8
0
 10
56.0
 20
281.99999999999989
 30
0.0
 11
56.0
 21
261.99999999999989
 31
0.0
  0
LINE
  5
6DE
  8
0
 10
46.0
 20
281.99999999999989
 30
0.0
 11
46.0
 21
261.99999999999989
 31
0.0
  0
TEXT
  5
6DF
  8
0
 10
56.800424468970732
 20
273.2116501236207
 30
0.0
 40
3.0
  1
%%P0.1
 41
0.6
  0
TEXT
  5
6E0
  8
0
 10
56.800424468970732
 20
268.21165012362059
 30
0.0
 40
3.0
  1
%%P0.2
 41
0.6
  0
TEXT
  5
6E1
  8
0
 10
56.800424468970732
 20
263.2116501236207
 30
0.0
 40
3.0
  1
%%P0.3
 41
0.6
  0
TEXT
  5
6E2
  8
0
 10
46.800424468970732
 20
268.21165012362059
 30
0.0
 40
3.0
  1
%%P0.1
 41
0.6
  0
TEXT
  5
6E3
  8
0
 10
46.800424468970732
 20
263.2116501236207
 30
0.0
 40
3.0
  1
%%P0.2
 41
0.6
  0
TEXT
  5
6E4
  8
0
 10
46.800424468970732
 20
273.2116501236207
 30
0.0
 40
3.0
  1
%%P0.05
 41
0.6
  0
TEXT
  5
6E5
  8
0
 10
66.800424468970732
 20
268.21165012362059
 30
0.0
 40
3.0
  1
%%P0.4
 41
0.6
  0
TEXT
  5
6E6
  8
0
 10
66.800424468970732
 20
263.2116501236207
 30
0.0
 40
3.0
  1
%%P0.6
 41
0.6
  0
TEXT
  5
6E7
  8
0
 10
66.800424468970732
 20
273.2116501236207
 30
0.0
 40
3.0
  1
%%P0.2
 41
0.6
  0
TEXT
  5
6E8
  8
0
 10
81.771574736591674
 20
278.2116501236207
 30
0.0
 40
3.0
  1
S
 41
0.8
  0
LINE
  5
6E9
  8
0
 10
90.0
 20
281.99999999999989
 30
0.0
 11
90.0
 21
261.99999999999989
 31
0.0
  0
ENDBLK
  5
6EB
  8
0
  0
BLOCK
  8
0
  2
*D3
 70
     1
 10
0.0
 20
0.0
 30
0.0
  3
*D3
  1

  0
LINE
  5
E26
  8
MEASURE
 62
     9
 10
88.609943200214744
 20
349.4376825871945
 30
0.0
 11
88.609943200214744
 21
376.84526126534439
 31
0.0
  0
LINE
  5
E27
  8
MEASURE
 62
     9
 10
280.60994320021513
 20
349.4376825871945
 30
0.0
 11
280.60994320021513
 21
376.84526126534439
 31
0.0
  0
LINE
  5
E28
  8
MEASURE
 62
     9
 10
92.359943200214744
 20
373.84526126534439
 30
0.0
 11
276.85994320021513
 21
373.84526126534439
 31
0.0
  0
SOLID
  5
E29
  8
MEASURE
 62
     9
 10
92.359943200214744
 20
374.47026126534439
 30
0.0
 11
92.359943200214744
 21
373.22026126534439
 31
0.0
 12
88.609943200214744
 22
373.84526126534439
 32
0.0
 13
88.609943200214744
 23
373.84526126534439
 33
0.0
  0
SOLID
  5
E2A
  8
MEASURE
 62
     9
 10
276.85994320021513
 20
374.47026126534439
 30
0.0
 11
276.85994320021513
 21
373.22026126534439
 31
0.0
 12
280.60994320021513
 22
373.84526126534439
 32
0.0
 13
280.60994320021513
 23
373.84526126534439
 33
0.0
  0
TEXT
  5
E2B
  8
MEASURE
 62
     2
 10
179.56994320021491
 20
374.59526126534439
 30
0.0
 40
4.1999999999999993
  1
192
 41
0.8
  7
AD-STANDARD
  0
POINT
  5
E2C
  8
DEFPOINTS
 62
     0
 10
88.609943200214744
 20
347.9376825871945
 30
0.0
  0
POINT
  5
E2D
  8
DEFPOINTS
 62
     0
 10
280.60994320021513
 20
347.9376825871945
 30
0.0
  0
POINT
  5
E2E
  8
DEFPOINTS
 62
     0
 10
280.60994320021513
 20
373.84526126534439
 30
0.0
  0
ENDBLK
  5
D60
  8
0
  0
BLOCK
  8
0
  2
*D4
 70
     1
 10
0.0
 20
0.0
 30
0.0
  3
*D4
  1

  0
LINE
  5
E1D
  8
MEASURE
 62
     9
 10
281.10994320021513
 20
348.9376825871945
 30
0.0
 11
306.89066330271311
 21
348.9376825871945
 31
0.0
  0
LINE
  5
E1E
  8
MEASURE
 62
     9
 10
281.10994320021467
 20
252.9376825871945
 30
0.0
 11
306.89066330271311
 21
252.9376825871945
 31
0.0
  0
LINE
  5
E1F
  8
MEASURE
 62
     9
 10
303.89066330271311
 20
345.1876825871945
 30
0.0
 11
303.89066330271311
 21
256.6876825871945
 31
0.0
  0
SOLID
  5
E20
  8
MEASURE
 62
     9
 10
303.26566330271311
 20
345.1876825871945
 30
0.0
 11
304.51566330271311
 21
345.1876825871945
 31
0.0
 12
303.89066330271311
 22
348.9376825871945
 32
0.0
 13
303.89066330271311
 23
348.9376825871945
 33
0.0
  0
SOLID
  5
E21
  8
MEASURE
 62
     9
 10
303.26566330271311
 20
256.6876825871945
 30
0.0
 11
304.51566330271311
 21
256.6876825871945
 31
0.0
 12
303.89066330271311
 22
252.9376825871945
 32
0.0
 13
303.89066330271311
 23
252.9376825871945
 33
0.0
  0
TEXT
  5
E22
  8
MEASURE
 62
     2
 10
303.14066330271311
 20
297.73768258719463
 30
0.0
 40
4.1999999999999993
  1
96
 50
90.0
 41
0.8
  7
AD-STANDARD
  0
POINT
  5
E23
  8
DEFPOINTS
 62
     0
 10
279.60994320021513
 20
348.9376825871945
 30
0.0
  0
POINT
  5
E24
  8
DEFPOINTS
 62
     0
 10
279.60994320021467
 20
252.9376825871945
 30
0.0
  0
POINT
  5
E25
  8
DEFPOINTS
 62
     0
 10
303.89066330271311
 20
252.9376825871945
 30
0.0
  0
ENDBLK
  5
D82
  8
0
  0
BLOCK
  8
0
  2
*D5
 70
     1
 10
0.0
 20
0.0
 30
0.0
  3
*D5
  1

  0
LINE
  5
E38
  8
MEASURE
 62
     9
 10
366.92871044547201
 20
349.4376825871945
 30
0.0
 11
366.92871044547201
 21
376.73400399524411
 31
0.0
  0
LINE
  5
E39
  8
MEASURE
 62
     9
 10
378.92871044547201
 20
350.4376825871945
 30
0.0
 11
378.92871044547201
 21
376.73400399524411
 31
0.0
  0
LINE
  5
E3A
  8
MEASURE
 62
     9
 10
370.67871044547201
 20
373.73400399524411
 30
0.0
 11
375.17871044547201
 21
373.73400399524411
 31
0.0
  0
SOLID
  5
E3B
  8
MEASURE
 62
     9
 10
370.67871044547201
 20
374.35900399524411
 30
0.0
 11
370.67871044547201
 21
373.10900399524411
 31
0.0
 12
366.92871044547201
 22
373.73400399524411
 32
0.0
 13
366.92871044547201
 23
373.73400399524411
 33
0.0
  0
SOLID
  5
E3C
  8
MEASURE
 62
     9
 10
375.17871044547201
 20
374.35900399524411
 30
0.0
 11
375.17871044547201
 21
373.10900399524411
 31
0.0
 12
378.92871044547201
 22
373.73400399524411
 32
0.0
 13
378.92871044547201
 23
373.73400399524411
 33
0.0
  0
TEXT
  5
E3D
  8
MEASURE
 62
     2
 10
369.48871044547201
 20
374.48400399524411
 30
0.0
 40
4.1999999999999993
  1
12
 41
0.8
  7
AD-STANDARD
  0
POINT
  5
E3E
  8
DEFPOINTS
 62
     0
 10
366.92871044547201
 20
347.9376825871945
 30
0.0
  0
POINT
  5
E3F
  8
DEFPOINTS
 62
     0
 10
378.92871044547201
 20
348.9376825871945
 30
0.0
  0
POINT
  5
E40
  8
DEFPOINTS
 62
     0
 10
378.92871044547201
 20
373.73400399524411
 30
0.0
  0
ENDBLK
  5
D8F
  8
0
  0
BLOCK
  8
0
  2
*D6
 70
     1
 10
0.0
 20
0.0
 30
0.0
  3
*D6
  1

  0
LINE
  5
E2F
  8
MEASURE
 62
     9
 10
378.92871044547201
 20
350.4376825871945
 30
0.0
 11
378.92871044547201
 21
376.73400399524411
 31
0.0
  0
LINE
  5
E30
  8
MEASURE
 62
     9
 10
546.9287104454728
 20
347.9376825871945
 30
0.0
 11
546.9287104454728
 21
376.73400399524411
 31
0.0
  0
LINE
  5
E31
  8
MEASURE
 62
     9
 10
382.67871044547189
 20
373.73400399524411
 30
0.0
 11
543.17871044547292
 21
373.73400399524411
 31
0.0
  0
SOLID
  5
E32
  8
MEASURE
 62
     9
 10
382.67871044547189
 20
374.35900399524411
 30
0.0
 11
382.67871044547189
 21
373.10900399524411
 31
0.0
 12
378.92871044547201
 22
373.73400399524411
 32
0.0
 13
378.92871044547201
 23
373.73400399524411
 33
0.0
  0
SOLID
  5
E33
  8
MEASURE
 62
     9
 10
543.17871044547292
 20
374.35900399524411
 30
0.0
 11
543.17871044547292
 21
373.10900399524411
 31
0.0
 12
546.9287104454728
 22
373.73400399524411
 32
0.0
 13
546.9287104454728
 23
373.73400399524411
 33
0.0
  0
TEXT
  5
E34
  8
MEASURE
 62
     2
 10
457.88871044547238
 20
374.48400399524411
 30
0.0
 40
4.1999999999999993
  1
168
 41
0.8
  7
AD-STANDARD
  0
POINT
  5
E35
  8
DEFPOINTS
 62
     0
 10
378.92871044547201
 20
348.9376825871945
 30
0.0
  0
POINT
  5
E36
  8
DEFPOINTS
 62
     0
 10
546.9287104454728
 20
346.4376825871945
 30
0.0
  0
POINT
  5
E37
  8
DEFPOINTS
 62
     0
 10
546.9287104454728
 20
373.73400399524411
 30
0.0
  0
ENDBLK
  5
D9C
  8
0
  0
BLOCK
  8
0
  2
*D7
 70
     1
 10
0.0
 20
0.0
 30
0.0
  3
*D7
  1

  0
LINE
  5
E68
  8
MEASURE
 62
     9
 10
373.81903118299999
 20
140.2561994408122
 30
0.0
 11
551.31903118299999
 21
140.2561994408122
 31
0.0
  0
SOLID
  5
E69
  8
MEASURE
 62
     9
 10
373.81903118299999
 20
140.8811994408122
 30
0.0
 11
373.81903118299999
 21
139.6311994408122
 31
0.0
 12
370.06903118299999
 22
140.2561994408122
 32
0.0
 13
370.06903118299999
 23
140.2561994408122
 33
0.0
  0
SOLID
  5
E6A
  8
MEASURE
 62
     9
 10
551.31903118299999
 20
140.8811994408122
 30
0.0
 11
551.31903118299999
 21
139.6311994408122
 31
0.0
 12
555.06903118300011
 22
140.2561994408122
 32
0.0
 13
555.06903118300011
 23
140.2561994408122
 33
0.0
  0
TEXT
  5
E6B
  8
MEASURE
 62
     2
 10
457.52903118300009
 20
141.0061994408122
 30
0.0
 40
4.1999999999999993
  1
185
 41
0.8
  7
AD-STANDARD
  0
POINT
  5
E6C
  8
DEFPOINTS
 62
     0
 10
370.06903118299999
 20
159.43535481896649
 30
0.0
  0
POINT
  5
E6D
  8
DEFPOINTS
 62
     0
 10
555.06903118300011
 20
159.43535481896649
 30
0.0
  0
POINT
  5
E6E
  8
DEFPOINTS
 62
     0
 10
555.06903118300011
 20
140.2561994408122
 30
0.0
  0
ENDBLK
  5
DAA
  8
0
  0
BLOCK
  8
0
  2
*D8
 70
     1
 10
0.0
 20
0.0
 30
0.0
  3
*D8
  1

  0
LINE
  5
E6F
  8
MEASURE
 62
     9
 10
516.18082731064135
 20
160.68535481896561
 30
0.0
 11
516.18082731064135
 21
77.185354818965621
 31
0.0
  0
SOLID
  5
E70
  8
MEASURE
 62
     9
 10
515.55582731064135
 20
160.68535481896561
 30
0.0
 11
516.80582731064146
 21
160.68535481896561
 31
0.0
 12
516.18082731064135
 22
164.43535481896561
 32
0.0
 13
516.18082731064135
 23
164.43535481896561
 33
0.0
  0
SOLID
  5
E71
  8
MEASURE
 62
     9
 10
515.55582731064135
 20
77.185354818965621
 30
0.0
 11
516.80582731064146
 21
77.185354818965621
 31
0.0
 12
516.18082731064135
 22
73.435354818965621
 32
0.0
 13
516.18082731064135
 23
73.435354818965621
 33
0.0
  0
TEXT
  5
E72
  8
MEASURE
 62
     2
 10
515.43082731064146
 20
116.21535481896559
 30
0.0
 40
4.1999999999999993
  1
91
 50
90.0
 41
0.8
  7
AD-STANDARD
  0
POINT
  5
E73
  8
DEFPOINTS
 62
     0
 10
550.06903118300011
 20
164.43535481896561
 30
0.0
  0
POINT
  5
E74
  8
DEFPOINTS
 62
     0
 10
550.06903118300011
 20
73.435354818965607
 30
0.0
  0
POINT
  5
E75
  8
DEFPOINTS
 62
     0
 10
516.18082731064135
 20
73.435354818965621
 30
0.0
  0
ENDBLK
  5
DB7
  8
0
  0
BLOCK
  8
0
  2
*D9
 70
     1
 10
0.0
 20
0.0
 30
0.0
  3
*D9
  1

  0
LINE
  5
E53
  8
MEASURE
 62
     9
 10
390.6669923474243
 20
146.29675117798931
 30
0.0
 11
374.1129972395218
 21
160.2406492365042
 31
0.0
  0
TEXT
  5
E54
  8
MEASURE
 62
     2
 10
380.29727167158183
 20
156.01207377196451
 30
0.0
 40
4.1999999999999993
  1
4-R5
 50
319.89161739061478
 41
0.8
  7
AD-STANDARD
  0
SOLID
  5
E55
  8
MEASURE
 62
     9
 10
374.51564444829069
 20
160.71866620824329
 30
0.0
 11
373.71035003075292
 21
159.7626322647651
 31
0.0
 12
371.24489540908712
 22
162.65653248911741
 32
0.0
 13
371.24489540908712
 23
162.65653248911741
 33
0.0
  0
POINT
  5
E56
  8
DEFPOINTS
 62
     0
 10
371.24489540908712
 20
162.65653248911741
 30
0.0
  0
POINT
  5
E57
  8
DEFPOINTS
 62
     0
 10
375.06903118300011
 20
159.43535481896649
 30
0.0
  0
ENDBLK
  5
DC1
  8
0
  0
BLOCK
  8
0
  2
*D10
 70
     1
 10
0.0
 20
0.0
 30
0.0
  3
*D10
  1

  0
LINE
  5
E81
  8
MEASURE
 62
     9
 10
281.10994320021467
 20
252.9376825871945
 30
0.0
 11
306.89066330271311
 21
252.9376825871945
 31
0.0
  0
LINE
  5
E82
  8
MEASURE
 62
     9
 10
267.20994320021532
 20
247.7716825871961
 30
0.0
 11
306.89066330271311
 21
247.7716825871961
 31
0.0
  0
LINE
  5
E83
  8
MEASURE
 62
     9
 10
303.89066330271311
 20
256.6876825871945
 30
0.0
 11
303.89066330271311
 21
260.4376825871945
 31
0.0
  0
LINE
  5
E84
  8
MEASURE
 62
     9
 10
303.89066330271311
 20
244.02168258719621
 30
0.0
 11
303.89066330271311
 21
227.57168258719619
 31
0.0
  0
LINE
  5
E85
  8
MEASURE
 62
     9
 10
303.89066330271311
 20
252.9376825871945
 30
0.0
 11
303.89066330271311
 21
247.7716825871961
 31
0.0
  0
SOLID
  5
E86
  8
MEASURE
 62
     9
 10
303.26566330271311
 20
256.6876825871945
 30
0.0
 11
304.51566330271311
 21
256.6876825871945
 31
0.0
 12
303.89066330271311
 22
252.9376825871945
 32
0.0
 13
303.89066330271311
 23
252.9376825871945
 33
0.0
  0
SOLID
  5
E87
  8
MEASURE
 62
     9
 10
303.26566330271311
 20
244.02168258719621
 30
0.0
 11
304.51566330271311
 21
244.02168258719621
 31
0.0
 12
303.89066330271311
 22
247.7716825871961
 32
0.0
 13
303.89066330271311
 23
247.7716825871961
 33
0.0
  0
TEXT
  5
E88
  8
MEASURE
 62
     2
 10
301.3406633027131
 20
227.68168258719621
 30
0.0
 40
4.1999999999999993
  1
(5.2)
 50
90.0
 41
0.8
  7
AD-STANDARD
  0
POINT
  5
E89
  8
DEFPOINTS
 62
     0
 10
279.60994320021467
 20
252.9376825871945
 30
0.0
  0
POINT
  5
E8A
  8
DEFPOINTS
 62
     0
 10
265.70994320021532
 20
247.7716825871961
 30
0.0
  0
POINT
  5
E8B
  8
DEFPOINTS
 62
     0
 10
303.89066330271311
 20
247.7716825871961
 30
0.0
  0
ENDBLK
  5
E04
  8
0
  0
ENDSEC
  0
SECTION
  2
ENTITIES
  0
TEXT
  5
455
  8
AD4323
 62
     8
 10
202.27449348522691
 20
309.93768258719541
 30
0.0
 40
6.0
  1
t
  7
AD-STANDARD
  0
LINE
  5
457
  8
AD4323
 62
     8
 10
103.60994320021381
 20
336.4376825871945
 30
0.0
 11
215.6099432002147
 21
336.4376825871945
 31
0.0
  0
LINE
  5
458
  8
AD4323
 62
     8
 10
103.6099432002151
 20
295.4376825871945
 30
0.0
 11
215.60994320021521
 21
295.4376825871945
 31
0.0
  0
LINE
  5
45B
  8
AD4323
 62
     8
 10
92.60994320021382
 20
266.93768258719359
 30
0.0
 11
276.60994320021513
 21
266.93768258719359
 31
0.0
  0
LINE
  5
45C
  8
AD4323
 62
     8
 10
92.609943200214275
 20
264.9376825871945
 30
0.0
 11
276.60994320021467
 21
264.93768258719359
 31
0.0
  0
LINE
  5
45D
  8
AD4323
 62
     8
 10
92.60994320021382
 20
255.9376825871945
 30
0.0
 11
276.60994320021598
 21
255.9376825871945
 31
0.0
  0
LINE
  5
45E
  8
AD4323
 62
     8
 10
92.609943200214715
 20
345.93768258719541
 30
0.0
 11
276.60994320021382
 21
345.9376825871945
 31
0.0
  0
LINE
  5
45F
  8
AD4323
 62
     8
 10
89.60994320021473
 20
253.9376825871945
 30
0.0
 11
279.60994320021513
 21
253.9376825871945
 31
0.0
  0
LINE
  5
460
  8
AD4323
 62
     8
 10
89.60994320021473
 20
347.9376825871945
 30
0.0
 11
279.60994320021513
 21
347.9376825871945
 31
0.0
  0
LINE
  5
461
  8
AD4323
 10
89.609943200214275
 20
252.9376825871945
 30
0.0
 11
279.60994320021467
 21
252.9376825871945
 31
0.0
  0
LINE
  5
462
  8
AD4323
 10
89.60994320021473
 20
348.9376825871945
 30
0.0
 11
279.60994320021513
 21
348.9376825871945
 31
0.0
  0
LINE
  5
463
  8
AD4323
 10
103.5099432002134
 20
247.7716825871961
 30
0.0
 11
120.10994320021381
 21
247.7716825871961
 31
0.0
  0
LINE
  5
465
  8
AD4323
 10
103.5099432002134
 20
247.7716825871953
 30
0.0
 11
102.1621738289641
 21
252.9376825871945
 31
0.0
  0
LINE
  5
467
  8
AD4323
 62
     8
 10
101.60994320021381
 20
334.4376825871945
 30
0.0
 11
101.6099432002151
 21
297.43768258719439
 31
0.0
  0
ARC
  5
46C
  8
AD4323
 62
     8
 10
92.60994320021382
 20
267.93768258719359
 30
0.0
 40
1.0
 50
179.9999999999996
 51
269.99999999999972
  0
LINE
  5
46D
  8
AD4323
 62
     8
 10
91.60994320021382
 20
267.93768258719359
 30
0.0
 11
91.609943200214715
 21
344.93768258719541
 31
0.0
  0
ARC
  5
46E
  8
AD4323
 62
     8
 10
92.609943200214275
 20
263.9376825871945
 30
0.0
 40
1.0
 50
89.999999999999716
 51
179.9999999999967
  0
LINE
  5
46F
  8
AD4323
 62
     8
 10
91.60994320021382
 20
256.9376825871945
 30
0.0
 11
91.609943200214275
 21
263.9376825871945
 31
0.0
  0
ARC
  5
470
  8
AD4323
 62
     8
 10
92.60994320021382
 20
256.9376825871945
 30
0.0
 40
1.0
 50
179.99999999999969
 51
270.0
  0
ARC
  5
471
  8
AD4323
 62
     8
 10
92.609943200214715
 20
344.93768258719541
 30
0.0
 40
1.0
 50
90.0
 51
180.0
  0
LINE
  5
472
  8
AD4323
 62
     8
 10
89.609943200214275
 20
253.9376825871945
 30
0.0
 11
89.609943200214275
 21
347.93768258719359
 31
0.0
  0
ARC
  5
473
  8
AD4323
 10
89.60994320021473
 20
347.9376825871945
 30
0.0
 40
1.0
 50
90.000000000000256
 51
179.99999999999969
  0
LINE
  5
474
  8
AD4323
 10
88.609943200214275
 20
253.9376825871945
 30
0.0
 11
88.609943200214744
 21
347.9376825871945
 31
0.0
  0
ARC
  5
475
  8
AD4323
 10
89.609943200214275
 20
253.9376825871945
 30
0.0
 40
1.0
 50
180.0
 51
270.00000000000023
  0
LINE
  5
476
  8
AD4323
 10
120.10994320021381
 20
247.7716825871953
 30
0.0
 11
121.4577125714636
 21
252.9376825871945
 31
0.0
  0
TEXT
  5
477
  8
3
 10
159.6432765335482
 20
299.18768258719422
 30
0.0
 40
2.5
  1
風袋引中
 41
0.8
  7
AD-STANDARD
 72
     1
 11
164.1099432002149
 21
300.43768258719422
 31
0.0
 73
     2
  0
TEXT
  5
478
  8
3
 10
150.9766098668816
 20
299.1876825871941
 30
0.0
 40
2.5
  1
正味
 41
0.8
  7
AD-STANDARD
 72
     1
 11
153.1099432002149
 21
300.4376825871941
 31
0.0
 73
     2
  0
TEXT
  5
479
  8
3
 10
139.2766098668815
 20
299.18768258719399
 30
0.0
 40
2.5
  1
総重量
 41
0.8
  7
AD-STANDARD
 72
     1
 11
142.6099432002149
 21
300.43768258719388
 31
0.0
 73
     2
  0
TEXT
  5
47A
  8
3
 10
129.97660986688149
 20
299.18768258719382
 30
0.0
 40
2.5
  1
安定
 41
0.8
  7
AD-STANDARD
 72
     1
 11
132.1099432002149
 21
300.43768258719382
 31
0.0
 73
     2
  0
TEXT
  5
47B
  8
3
 10
118.20994320021489
 20
299.18768258719371
 30
0.0
 40
2.5
  1
ゼロ点
 41
0.8
  7
AD-STANDARD
 72
     1
 11
121.6099432002149
 21
300.43768258719371
 31
0.0
 73
     2
  0
TEXT
  5
47C
  8
AD4323
 62
     8
 10
198.8098003118277
 20
318.93768258719541
 30
0.0
 40
6.0
  1
kg
  7
AD-STANDARD
  0
TEXT
  5
47F
  8
3
 10
272.43056225633291
 20
168.6696265534078
 30
0.0
 40
3.0
  1

  7
AD-STANDARD
  0
TEXT
  5
480
  8
3
 10
268.90591922667488
 20
163.6696265534078
 30
0.0
 40
3.0
  1

  7
AD-STANDARD
  0
TEXT
  5
481
  8
AD4323
 62
     8
 10
141.06171984996129
 20
279.18768258719359
 30
0.0
 40
3.5
  1
風袋
  7
和文
 72
     1
 11
145.6099432002151
 21
280.93768258719359
 31
0.0
 73
     2
  0
TEXT
  5
482
  8
3
 10
219.36447207976781
 20
166.1696265534078
 30
0.0
 40
3.0
  1

  7
AD-STANDARD
  0
ARC
  5
485
  8
AD4323
 62
     8
 10
197.6099432002151
 20
330.93768258719541
 30
0.0
 40
1.0
 50
0.0
 51
90.000000000000298
  0
LINE
  5
486
  8
AD4323
 62
     8
 10
198.6099432002151
 20
330.93768258719541
 30
0.0
 11
198.6099432002151
 21
305.9376825871945
 31
0.0
  0
LINE
  5
487
  8
AD4323
 62
     8
 10
113.60994320021381
 20
331.9376825871945
 30
0.0
 11
197.6099432002151
 21
331.93768258719541
 31
0.0
  0
ARC
  5
488
  8
AD4323
 62
     8
 10
113.60994320021381
 20
330.9376825871945
 30
0.0
 40
1.0
 50
90.000000000000284
 51
179.99999999999929
  0
LINE
  5
489
  8
AD4323
 62
     8
 10
112.60994320021381
 20
330.9376825871945
 30
0.0
 11
112.6099432002147
 21
305.93768258719359
 31
0.0
  0
ARC
  5
48A
  8
AD4323
 62
     8
 10
197.6099432002151
 20
305.9376825871945
 30
0.0
 40
1.0
 50
270.00000000000063
 51
0.0
  0
LINE
  5
48B
  8
AD4323
 62
     8
 10
113.6099432002147
 20
304.93768258719359
 30
0.0
 11
197.6099432002151
 21
304.9376825871945
 31
0.0
  0
ARC
  5
48C
  8
AD4323
 62
     8
 10
113.6099432002147
 20
305.93768258719359
 30
0.0
 40
1.0
 50
180.0
 51
270.00000000000023
  0
LINE
  5
48D
  8
AD4323
 10
389.9287104454711
 20
247.7716825871961
 30
0.0
 11
406.5287104454714
 21
247.7716825871961
 31
0.0
  0
LINE
  5
48E
  8
AD4323
 10
387.9287104454711
 20
255.43768258719541
 30
0.0
 11
408.52871044547243
 21
255.43768258719541
 31
0.0
  0
LINE
  5
48F
  8
AD4323
 10
546.9287104454728
 20
255.43768258719541
 30
0.0
 11
378.9287104454724
 21
255.43768258719541
 31
0.0
  0
LINE
  5
490
  8
AD4323
 10
546.9287104454728
 20
346.4376825871945
 30
0.0
 11
378.9287104454724
 21
346.43768258719541
 31
0.0
  0
LINE
  5
491
  8
AD4323
 62
     8
 10
378.92871044547292
 20
289.43768258719541
 30
0.0
 11
545.7287104454731
 21
289.43768258719541
 31
0.0
  0
LINE
  5
492
  8
AD4323
 62
     8
 10
378.92871044547292
 20
312.43768258719632
 30
0.0
 11
545.72871044547219
 21
312.43768258719632
 31
0.0
  0
LINE
  5
493
  8
AD4323
 62
     8
 10
545.72871044547219
 20
286.4376825871945
 30
0.0
 11
378.9287104454724
 21
286.43768258719541
 31
0.0
  0
LINE
  5
494
  8
AD4323
 62
     8
 10
545.7287104454731
 20
315.43768258719541
 30
0.0
 11
378.92871044547149
 21
315.43768258719177
 31
0.0
  0
LINE
  5
495
  8
AD4323
 10
265.70994320021509
 20
247.7716825871953
 30
0.0
 11
267.05771257146438
 21
252.9376825871945
 31
0.0
  0
LINE
  5
496
  8
AD4323
 10
249.1099432002147
 20
247.7716825871953
 30
0.0
 11
247.7621738289653
 21
252.9376825871945
 31
0.0
  0
LINE
  5
497
  8
AD4323
 10
249.1099432002147
 20
247.7716825871961
 30
0.0
 11
265.70994320021509
 21
247.7716825871961
 31
0.0
  0
CIRCLE
  5
498
  8
AD4323
 62
     8
 10
260.60994320021422
 20
321.9376825871945
 30
0.0
 40
3.0
  0
CIRCLE
  5
499
  8
AD4323
 62
     8
 10
260.60994320021422
 20
321.9376825871945
 30
0.0
 40
3.5
  0
CIRCLE
  5
49B
  8
AD4323
 62
     8
 10
260.60994320021422
 20
309.9376825871945
 30
0.0
 40
2.5
  0
LINE
  5
4A0
  8
AD4323
 62
     8
 10
224.10994320021521
 20
296.43768258719552
 30
0.0
 11
224.10994320021419
 21
335.4376825871945
 31
0.0
  0
LINE
  5
4A1
  8
AD4323
 62
     8
 10
224.1099432002147
 20
296.43768258719552
 30
0.0
 11
266.60994320021558
 21
296.43768258719552
 31
0.0
  0
LINE
  5
4A2
  8
AD4323
 62
     8
 10
266.60994320021513
 20
296.43768258719552
 30
0.0
 11
266.60994320021382
 21
335.4376825871945
 31
0.0
  0
ARC
  5
4A3
  8
AD4323
 62
     8
 10
224.10994320021561
 20
296.43768258719552
 30
0.0
 40
1.0
 50
180.00000000000091
 51
269.99999999999972
  0
LINE
  5
4A4
  8
AD4323
 62
     8
 10
224.10994320021561
 20
295.43768258719541
 30
0.0
 11
266.60994320021558
 21
295.43768258719541
 31
0.0
  0
ARC
  5
4A5
  8
AD4323
 62
     8
 10
266.60994320021558
 20
296.43768258719552
 30
0.0
 40
1.0
 50
269.99999999999898
 51
0.0000000000010178
  0
LINE
  5
4A6
  8
AD4323
 62
     8
 10
267.60994320021558
 20
296.43768258719552
 30
0.0
 11
267.60994320021382
 21
335.4376825871945
 31
0.0
  0
ARC
  5
4A7
  8
AD4323
 62
     8
 10
266.60994320021382
 20
335.4376825871945
 30
0.0
 40
1.0
 50
0.0000000000021373
 51
89.999999999999716
  0
LINE
  5
4A8
  8
AD4323
 62
     8
 10
223.10994320021561
 20
296.43768258719552
 30
0.0
 11
223.10994320021379
 21
335.43768258719359
 31
0.0
  0
ARC
  5
4A9
  8
AD4323
 62
     8
 10
224.10994320021379
 20
335.43768258719359
 30
0.0
 40
1.0
 50
89.999999999999687
 51
180.0000000000021
  0
LINE
  5
4AA
  8
AD4323
 62
     8
 10
224.10994320021419
 20
335.4376825871945
 30
0.0
 11
266.60994320021422
 21
335.4376825871945
 31
0.0
  0
LINE
  5
4AB
  8
AD4323
 62
     8
 10
224.10994320021379
 20
336.43768258719359
 30
0.0
 11
266.60994320021382
 21
336.4376825871945
 31
0.0
  0
CIRCLE
  5
4AC
  8
AD4323
 62
     8
 10
211.60994320021521
 20
312.43768258719541
 30
0.0
 40
2.5
  0
CIRCLE
  5
4AD
  8
AD4323
 62
     8
 10
211.60994320021521
 20
321.43768258719541
 30
0.0
 40
2.5
  0
LINE
  5
4AF
  8
AD4323
 62
     8
 10
217.6099432002147
 20
334.4376825871945
 30
0.0
 11
217.60994320021521
 21
297.4376825871945
 31
0.0
  0
ARC
  5
4B4
  8
AD4323
 62
     8
 10
276.60994320021513
 20
267.93768258719359
 30
0.0
 40
1.0
 50
269.99999999999972
 51
0.0000000000009923
  0
LINE
  5
4B5
  8
AD4323
 62
     8
 10
277.60994320021513
 20
267.93768258719359
 30
0.0
 11
277.60994320021382
 21
344.9376825871945
 31
0.0
  0
ARC
  5
4B6
  8
AD4323
 62
     8
 10
276.60994320021467
 20
263.93768258719359
 30
0.0
 40
1.0
 50
0.0000000000065138
 51
89.999999999999716
  0
LINE
  5
4B7
  8
AD4323
 62
     8
 10
277.60994320021609
 20
256.9376825871945
 30
0.0
 11
277.60994320021467
 21
263.93768258719359
 31
0.0
  0
ARC
  5
4B8
  8
AD4323
 62
     8
 10
276.60994320021598
 20
256.9376825871945
 30
0.0
 40
1.0
 50
270.0
 51
0.0000000000008524
  0
ARC
  5
4B9
  8
AD4323
 62
     8
 10
276.60994320021382
 20
344.9376825871945
 30
0.0
 40
1.0
 50
0.0000000000003053
 51
89.999999999999716
  0
LINE
  5
4BA
  8
AD4323
 62
     8
 10
279.60994320021513
 20
253.9376825871945
 30
0.0
 11
279.60994320021467
 21
347.9376825871945
 31
0.0
  0
ARC
  5
4BB
  8
AD4323
 10
279.60994320021467
 20
253.9376825871945
 30
0.0
 40
1.0
 50
270.0
 51
0.0
  0
LINE
  5
4BC
  8
AD4323
 10
280.60994320021467
 20
253.9376825871945
 30
0.0
 11
280.60994320021513
 21
347.9376825871945
 31
0.0
  0
ARC
  5
4BD
  8
AD4323
 10
279.60994320021513
 20
347.9376825871945
 30
0.0
 40
1.0
 50
0.0
 51
90.0
  0
LINE
  5
4BE
  8
AD4323
 10
389.9287104454711
 20
247.7716825871953
 30
0.0
 11
387.9287104454711
 21
255.43768258719541
 31
0.0
  0
LINE
  5
4BF
  8
AD4323
 62
     8
 10
362.42871044547201
 20
325.43768258719541
 30
0.0
 11
364.42871044547149
 21
325.4376825871945
 31
0.0
  0
LINE
  5
4C0
  8
AD4323
 62
     8
 10
362.42871044547201
 20
318.4376825871945
 30
0.0
 11
364.42871044547149
 21
318.43768258719541
 31
0.0
  0
LINE
  5
4C1
  8
AD4323
 62
     8
 10
362.42871044547098
 20
325.43768258719541
 30
0.0
 11
364.42871044547098
 21
325.43768258719541
 31
0.0
  0
LINE
  5
4C2
  8
AD4323
 62
     8
 10
362.42871044547098
 20
325.23768258719559
 30
0.0
 11
364.42871044547098
 21
325.23768258719559
 31
0.0
  0
LINE
  5
4C3
  8
AD4323
 62
     8
 10
362.42871044547098
 20
324.93768258719541
 30
0.0
 11
364.42871044547098
 21
324.93768258719541
 31
0.0
  0
LINE
  5
4C4
  8
AD4323
 62
     8
 10
362.42871044547098
 20
324.53768258719668
 30
0.0
 11
364.42871044547098
 21
324.53768258719577
 31
0.0
  0
LINE
  5
4C5
  8
AD4323
 62
     8
 10
362.42871044547098
 20
323.93768258719632
 30
0.0
 11
364.42871044547098
 21
323.93768258719541
 31
0.0
  0
LINE
  5
4C6
  8
AD4323
 62
     8
 10
362.42871044547098
 20
323.13768258719608
 30
0.0
 11
364.42871044547098
 21
323.13768258719529
 31
0.0
  0
LINE
  5
4C7
  8
AD4323
 62
     8
 10
362.42871044547098
 20
321.93768258719541
 30
0.0
 11
364.42871044547149
 21
321.93768258719541
 31
0.0
  0
LINE
  5
4C8
  8
AD4323
 62
     8
 10
362.42871044547098
 20
320.73768258719468
 30
0.0
 11
364.42871044547149
 21
320.73768258719468
 31
0.0
  0
LINE
  5
4C9
  8
AD4323
 62
     8
 10
362.42871044547098
 20
319.9376825871945
 30
0.0
 11
364.42871044547149
 21
319.9376825871945
 31
0.0
  0
LINE
  5
4CA
  8
AD4323
 62
     8
 10
362.42871044547098
 20
319.33768258719419
 30
0.0
 11
364.42871044547149
 21
319.33768258719419
 31
0.0
  0
LINE
  5
4CB
  8
AD4323
 62
     8
 10
362.42871044547098
 20
318.93768258719541
 30
0.0
 11
364.42871044547149
 21
318.9376825871945
 31
0.0
  0
LINE
  5
4CC
  8
AD4323
 62
     8
 10
362.42871044547098
 20
318.63768258719529
 30
0.0
 11
364.42871044547149
 21
318.63768258719432
 31
0.0
  0
LINE
  5
4CD
  8
AD4323
 62
     8
 10
362.42871044547098
 20
318.4376825871945
 30
0.0
 11
364.42871044547149
 21
318.4376825871945
 31
0.0
  0
CIRCLE
  5
4CE
  8
AD4323
 62
     8
 10
365.67871044547149
 20
321.93768258719541
 30
0.0
 40
0.75
  0
LINE
  5
4CF
  8
AD4323
 62
     8
 10
364.42871044547149
 20
318.93768258719541
 30
0.0
 11
366.92871044547201
 21
318.93768258719632
 31
0.0
  0
LINE
  5
4D0
  8
AD4323
 62
     8
 10
364.42871044547149
 20
324.93768258719541
 30
0.0
 11
366.92871044547201
 21
324.93768258719632
 31
0.0
  0
LINE
  5
4D1
  8
AD4323
 62
     8
 10
364.42871044547149
 20
325.4376825871945
 30
0.0
 11
364.42871044547149
 21
318.43768258719541
 31
0.0
  0
LINE
  5
4D2
  8
AD4323
 10
366.92871044547201
 20
347.93768258719541
 30
0.0
 11
366.92871044547098
 21
253.9376825871945
 31
0.0
  0
LINE
  5
4D3
  8
AD4323
 62
     8
 10
362.42871044547098
 20
325.43768258719541
 30
0.0
 11
362.42871044547149
 21
318.43768258719541
 31
0.0
  0
LINE
  5
4D4
  8
AD4323
 62
     8
 10
361.92871044547201
 20
318.9376825871945
 30
0.0
 11
362.42871044547201
 21
318.4376825871945
 31
0.0
  0
LINE
  5
4D5
  8
AD4323
 62
     8
 10
361.92871044547201
 20
324.93768258719541
 30
0.0
 11
361.92871044547201
 21
318.9376825871945
 31
0.0
  0
LINE
  5
4D6
  8
AD4323
 62
     8
 10
362.42871044547201
 20
325.43768258719541
 30
0.0
 11
361.92871044547201
 21
324.93768258719541
 31
0.0
  0
LINE
  5
4D7
  8
AD4323
 62
     8
 10
363.92871044547149
 20
307.93768258719541
 30
0.0
 11
366.92871044547098
 21
307.63768258719517
 31
0.0
  0
LINE
  5
4D8
  8
AD4323
 62
     8
 10
363.92871044547149
 20
311.93768258719541
 30
0.0
 11
366.92871044547149
 21
312.2376825871965
 31
0.0
  0
LINE
  5
4D9
  8
AD4323
 62
     8
 10
363.92871044547059
 20
311.93768258719632
 30
0.0
 11
363.9287104454711
 21
307.9376825871945
 31
0.0
  0
LINE
  5
4DA
  8
AD4323
 10
378.92871044547331
 20
255.43768258719541
 30
0.0
 11
378.9287104454724
 21
346.43768258719541
 31
0.0
  0
LINE
  5
4DB
  8
AD4323
 10
378.9287104454724
 20
348.93768258719541
 30
0.0
 11
378.9287104454724
 21
252.9376825871945
 31
0.0
  0
LINE
  5
4DC
  8
AD4323
 10
366.92871044547201
 20
253.9376825871945
 30
0.0
 11
378.92871044547201
 21
252.9376825871945
 31
0.0
  0
LINE
  5
4DD
  8
AD4323
 10
366.92871044547201
 20
347.9376825871945
 30
0.0
 11
378.92871044547201
 21
348.9376825871945
 31
0.0
  0
LINE
  5
4DE
  8
AD4323
 10
406.5287104454714
 20
247.7716825871953
 30
0.0
 11
408.5287104454714
 21
255.43768258719541
 31
0.0
  0
LINE
  5
4DF
  8
AD4323
 10
535.92871044547201
 20
247.771682587198
 30
0.0
 11
537.92871044547201
 21
255.43768258719811
 31
0.0
  0
LINE
  5
4E0
  8
AD4323
 10
519.32871044547164
 20
247.771682587198
 30
0.0
 11
517.32871044547164
 21
255.43768258719811
 31
0.0
  0
LINE
  5
4E2
  8
AD4323
 10
519.32871044547164
 20
247.77168258719891
 30
0.0
 11
535.92871044547201
 21
247.77168258719891
 31
0.0
  0
LINE
  5
4E3
  8
AD4323
 62
     8
 10
548.02871044547317
 20
296.60845935148581
 30
0.0
 11
547.72871044547298
 21
296.60845935148581
 31
0.0
  0
LINE
  5
4E4
  8
AD4323
 62
     8
 10
548.02871044547317
 20
304.97744973264861
 30
0.0
 11
547.72871044547298
 21
304.97744973264952
 31
0.0
  0
ARC
  5
4E5
  8
AD4323
 62
     8
 10
543.7287104454731
 20
300.93768258719541
 30
0.0
 40
6.0
 50
315.77995557231873
 51
44.220044427669002
  0
LINE
  5
4E6
  8
AD4323
 62
     8
 10
548.02871044547317
 20
296.7531873966131
 30
0.0
 11
548.02871044547317
 21
305.12217777777772
 31
0.0
  0
LINE
  5
4E7
  8
AD4323
 62
     8
 10
545.7287104454731
 20
311.2376825871965
 30
0.0
 11
545.72871044547219
 21
346.43768258719729
 31
0.0
  0
LINE
  5
4E8
  8
AD4323
 62
     8
 10
545.7287104454731
 20
255.43768258719729
 30
0.0
 11
545.7287104454731
 21
290.63768258719517
 31
0.0
  0
LINE
  5
4E9
  8
AD4323
 10
546.92871044547189
 20
311.2376825871965
 30
0.0
 11
546.92871044547189
 21
346.43768258719729
 31
0.0
  0
LINE
  5
4EA
  8
AD4323
 10
546.9287104454728
 20
255.43768258719729
 30
0.0
 11
546.92871044547189
 21
290.63768258719517
 31
0.0
  0
LINE
  5
4EB
  8
AD4323
 62
     8
 10
545.72871044547219
 20
311.2376825871965
 30
0.0
 11
547.72871044547298
 21
311.2376825871965
 31
0.0
  0
LINE
  5
4EC
  8
AD4323
 62
     8
 10
545.7287104454731
 20
290.63768258719517
 30
0.0
 11
547.72871044547298
 21
290.63768258719517
 31
0.0
  0
LINE
  5
4ED
  8
AD4323
 10
547.72871044547298
 20
290.63768258719517
 30
0.0
 11
547.72871044547298
 21
311.2376825871965
 31
0.0
  0
TEXT
  5
4EF
  8
AD4323
 62
     8
 10
209.8209437628677
 20
157.93535481896561
 30
0.0
 40
2.5
  1
DATA OUT
  7
AD-STANDARD
  0
LINE
  5
4F0
  8
AD4323
 10
121.4577125714633
 20
70.935354818966516
 30
0.0
 11
247.76217382896371
 21
70.935354818965607
 31
0.0
  0
LINE
  5
4F4
  8
AD4323
 62
     8
 10
184.1099432002149
 20
139.93535481896561
 30
0.0
 11
253.1099432002149
 21
139.93535481896561
 31
0.0
  0
LINE
  5
4F5
  8
AD4323
 62
     8
 10
184.1099432002149
 20
155.93535481896561
 30
0.0
 11
253.1099432002149
 21
155.93535481896561
 31
0.0
  0
LINE
  5
4F8
  8
AD4323
 62
     8
 10
272.1099432002149
 20
164.43535481896561
 30
0.0
 11
97.109943200214957
 21
164.43535481896561
 31
0.0
  0
LINE
  5
4F9
  8
AD4323
 62
     8
 10
97.109943200214957
 20
73.435354818965607
 30
0.0
 11
272.1099432002149
 21
73.435354818965607
 31
0.0
  0
LINE
  5
4FA
  8
AD4323
 10
89.609943200214957
 20
166.93535481896561
 30
0.0
 11
279.6099432002149
 21
166.93535481896561
 31
0.0
  0
TEXT
  5
544
  8
AD4323
 62
     8
 10
125.1196137155704
 20
94.677154136010358
 30
0.0
 40
2.5
  1
SET POINT
  7
AD-STANDARD
  0
TEXT
  5
545
  8
AD4323
 62
     8
 10
122.2272115382286
 20
136.9353548189647
 30
0.0
 40
2.5
  1
LOAD CELL
  7
AD-STANDARD
  0
TEXT
  5
546
  8
AD4323
 62
     8
 10
120.4274736327599
 20
156.93535481896561
 30
0.0
 40
2.5
  1
ANALOG OUT
  7
AD-STANDARD
  0
CIRCLE
  5
547
  8
AD4323
 62
     8
 10
131.6099432002149
 20
120.93535481896561
 30
0.0
 40
11.25
  0
CIRCLE
  5
548
  8
AD4323
 62
     8
 10
131.80929435898651
 20
147.93535481896561
 30
0.0
 40
6.5
  0
LINE
  5
549
  8
AD4323
 62
     8
 10
153.10994320021399
 20
83.235354818965789
 30
0.0
 11
114.1099432002149
 21
83.235354818965789
 31
0.0
  0
LINE
  5
54A
  8
AD4323
 62
     8
 10
153.10994320021399
 20
92.235354818965789
 30
0.0
 11
114.1099432002149
 21
92.235354818964879
 31
0.0
  0
CIRCLE
  5
54D
  8
AD4323
 62
     8
 10
120.1099432002149
 20
109.43535481896561
 30
0.0
 40
3.25
  0
CIRCLE
  5
551
  8
AD4323
 62
     8
 10
111.8599432002149
 20
87.735354818965774
 30
0.0
 40
1.5
  0
CIRCLE
  5
552
  8
AD4323
 62
     8
 10
111.8599432002149
 20
87.735354818965774
 30
0.0
 40
1.0
  0
LINE
  5
553
  8
AD4323
 62
     8
 10
114.1099432002149
 20
92.235354818965789
 30
0.0
 11
114.1099432002149
 21
83.235354818965789
 31
0.0
  0
LINE
  5
554
  8
AD4323
 10
89.609943200214033
 20
70.935354818965607
 30
0.0
 11
102.1621738289634
 21
70.935354818966516
 31
0.0
  0
LINE
  5
555
  8
AD4323
 10
120.1099432002131
 20
65.769354818966349
 30
0.0
 11
122.109943200214
 21
73.435354818965607
 31
0.0
  0
LINE
  5
556
  8
AD4323
 10
103.5099432002127
 20
65.769354818966349
 30
0.0
 11
101.50994320021459
 21
73.435354818965607
 31
0.0
  0
LINE
  5
557
  8
AD4323
 62
     8
 10
96.859943200214957
 20
136.93535481896561
 30
0.0
 11
96.859943200214957
 21
129.2353548189667
 31
0.0
  0
LINE
  5
558
  8
AD4323
 62
     8
 10
96.109943200215866
 20
129.2353548189667
 30
0.0
 11
96.109943200215866
 21
135.9353548189647
 31
0.0
  0
LINE
  5
559
  8
AD4323
 62
     8
 10
96.859943200214957
 20
108.63535481896361
 30
0.0
 11
96.859943200214957
 21
100.93535481896561
 31
0.0
  0
LINE
  5
55A
  8
AD4323
 62
     8
 10
96.109943200215866
 20
108.6353548189645
 30
0.0
 11
96.109943200215866
 21
101.9353548189665
 31
0.0
  0
LINE
  5
55B
  8
AD4323
 62
     8
 10
89.109943200215866
 20
129.2353548189667
 30
0.0
 11
89.109943200214047
 21
108.6353548189645
 31
0.0
  0
LINE
  5
55C
  8
AD4323
 62
     8
 10
102.1099432002158
 20
110.63535481896361
 30
0.0
 11
102.1099432002158
 21
127.2353548189667
 31
0.0
  0
LINE
  5
55D
  8
AD4323
 62
     8
 10
102.1099432002158
 20
127.23535481896759
 30
0.0
 11
102.1099432002158
 21
110.63535481896361
 31
0.0
  0
LINE
  5
55E
  8
AD4323
 62
     8
 10
100.1099432002158
 20
129.23535481896761
 30
0.0
 11
102.1099432002158
 21
127.23535481896759
 31
0.0
  0
LINE
  5
55F
  8
AD4323
 62
     8
 10
94.909943200215125
 20
130.43535481896649
 30
0.0
 11
94.909943200216034
 21
135.68535481896561
 31
0.0
  0
ARC
  5
560
  8
AD4323
 62
     8
 10
94.909943200216034
 20
130.4353548189647
 30
0.0
 40
1.1999999999999991
 50
270.0
 51
0.0
  0
LINE
  5
561
  8
AD4323
 62
     8
 10
96.109943200215866
 20
130.4353548189647
 30
0.0
 11
96.109943200215866
 21
135.68535481896561
 31
0.0
  0
LINE
  5
562
  8
AD4323
 62
     8
 10
94.909943200215125
 20
135.68535481896649
 30
0.0
 11
96.109943200216776
 21
135.68535481896649
 31
0.0
  0
ARC
  5
563
  8
AD4323
 62
     8
 10
90.309943200215685
 20
129.2353548189667
 30
0.0
 40
1.1999999999999991
 50
90.000000000008257
 51
180.0
  0
LINE
  5
564
  8
AD4323
 62
     8
 10
89.109943200215866
 20
129.2353548189667
 30
0.0
 11
100.1099432002158
 21
129.23535481896761
 31
0.0
  0
LINE
  5
565
  8
AD4323
 62
     8
 10
90.309943200215685
 20
130.43535481896649
 30
0.0
 11
94.909943200215125
 21
130.43535481896649
 31
0.0
  0
ARC
  5
566
  8
AD4323
 62
     8
 10
90.309943200215685
 20
108.6353548189645
 30
0.0
 40
1.1999999999999991
 50
180.0
 51
269.9999999999917
  0
LINE
  5
567
  8
AD4323
 62
     8
 10
90.309943200215685
 20
107.4353548189646
 30
0.0
 11
94.909943200215125
 21
107.4353548189646
 31
0.0
  0
LINE
  5
568
  8
AD4323
 62
     8
 10
94.909943200215125
 20
102.1853548189646
 30
0.0
 11
96.109943200216776
 21
102.1853548189646
 31
0.0
  0
LINE
  5
569
  8
AD4323
 62
     8
 10
96.109943200215866
 20
107.4353548189665
 30
0.0
 11
96.109943200215866
 21
102.18535481896561
 31
0.0
  0
ARC
  5
56A
  8
AD4323
 62
     8
 10
94.909943200216034
 20
107.4353548189665
 30
0.0
 40
1.1999999999999991
 50
0.0
 51
90.0
  0
LINE
  5
56B
  8
AD4323
 62
     8
 10
94.909943200215125
 20
107.4353548189646
 30
0.0
 11
94.909943200216034
 21
102.18535481896561
 31
0.0
  0
LINE
  5
56C
  8
AD4323
 62
     8
 10
89.109943200215866
 20
108.6353548189645
 30
0.0
 11
100.1099432002158
 21
108.63535481896361
 31
0.0
  0
LINE
  5
56D
  8
AD4323
 62
     8
 10
100.1099432002158
 20
108.63535481896361
 30
0.0
 11
102.1099432002158
 21
110.63535481896361
 31
0.0
  0
LINE
  5
56E
  8
AD4323
 62
     8
 10
89.109943200215866
 20
108.63535481896631
 30
0.0
 11
94.909943200216034
 21
108.63535481896631
 31
0.0
  0
LINE
  5
576
  8
AD4323
 62
     8
 10
92.359943200214957
 20
136.93535481896561
 30
0.0
 11
96.859943200214957
 21
136.93535481896561
 31
0.0
  0
LINE
  5
577
  8
AD4323
 62
     8
 10
92.359943200214957
 20
100.93535481896561
 30
0.0
 11
96.859943200214957
 21
100.93535481896561
 31
0.0
  0
ARC
  5
578
  8
AD4323
 62
     8
 10
97.109943200214957
 20
159.43535481896649
 30
0.0
 40
5.0
 50
90.0
 51
180.0
  0
LINE
  5
579
  8
AD4323
 62
     8
 10
94.409943200216048
 20
133.43535481896561
 30
0.0
 11
92.109943200214957
 21
133.43535481896561
 31
0.0
  0
LINE
  5
57A
  8
AD4323
 62
     8
 10
96.109943200215866
 20
135.9353548189637
 30
0.0
 11
94.409943200216048
 21
135.9353548189647
 31
0.0
  0
LINE
  5
57B
  8
AD4323
 62
     8
 10
94.409943200216048
 20
133.43535481896561
 30
0.0
 11
94.409943200216048
 21
135.93535481896561
 31
0.0
  0
LINE
  5
57C
  8
AD4323
 62
     8
 10
92.109943200214957
 20
159.43535481896561
 30
0.0
 11
92.109943200214957
 21
133.43535481896561
 31
0.0
  0
LINE
  5
57D
  8
AD4323
 62
     8
 10
94.409943200216048
 20
104.43535481896549
 30
0.0
 11
92.109943200214957
 21
104.43535481896549
 31
0.0
  0
LINE
  5
57E
  8
AD4323
 62
     8
 10
96.109943200215866
 20
101.9353548189674
 30
0.0
 11
94.409943200216048
 21
101.9353548189665
 31
0.0
  0
LINE
  5
57F
  8
AD4323
 62
     8
 10
94.409943200216048
 20
104.43535481896549
 30
0.0
 11
94.409943200216048
 21
101.93535481896561
 31
0.0
  0
ARC
  5
580
  8
AD4323
 62
     8
 10
97.109943200214957
 20
78.435354818966516
 30
0.0
 40
5.0
 50
180.0
 51
270.0
  0
LINE
  5
581
  8
AD4323
 62
     8
 10
92.109943200214957
 20
104.43535481896549
 30
0.0
 11
92.109943200214957
 21
78.435354818965607
 31
0.0
  0
LINE
  5
582
  8
AD4323
 10
103.5099432002127
 20
65.769354818967244
 30
0.0
 11
120.1099432002131
 21
65.769354818967244
 31
0.0
  0
ARC
  5
583
  8
AD4323
 10
89.609943200214033
 20
71.935354818965607
 30
0.0
 40
1.0
 50
180.0
 51
270.00000000000023
  0
LINE
  5
584
  8
AD4323
 10
88.609943200214033
 20
71.935354818965607
 30
0.0
 11
88.609943200214957
 21
165.93535481896561
 31
0.0
  0
ARC
  5
585
  8
AD4323
 10
89.609943200214957
 20
165.93535481896561
 30
0.0
 40
1.0
 50
90.000000000000256
 51
179.99999999999969
  0
TEXT
  5
586
  8
AD4323
 62
     8
 10
179.62490404648929
 20
131.93535481896649
 30
0.0
 40
2.0
  1
  0.5A
  7
AD-STANDARD
  0
TEXT
  5
587
  8
AD4323
 62
     8
 10
179.62490404648929
 20
127.9353548189665
 30
0.0
 40
2.0
  1
  0.3A
  7
AD-STANDARD
  0
TEXT
  5
588
  8
AD4323
 62
     8
 10
182.2885834836554
 20
135.93535481896649
 30
0.0
 40
2.0
  1
FUSE
  7
AD-STANDARD
  0
TEXT
  5
589
  8
AD4323
 62
     8
 10
155.56196626495799
 20
135.93535481896649
 30
0.0
 40
2.0
  1
LINE VOLTAGE
  7
AD-STANDARD
  0
TEXT
  5
58B
  8
AD4323
 62
     8
 10
155.56196626495799
 20
131.93535481896649
 30
0.0
 40
2.0
  1
AC100V／120V
  7
AD-STANDARD
  0
LINE
  5
58C
  8
AD4323
 62
     8
 10
153.60994320021311
 20
131.03535481896679
 30
0.0
 11
193.60994320021311
 21
131.0353548189677
 31
0.0
  0
LINE
  5
58D
  8
AD4323
 62
     8
 10
153.60994320021311
 20
134.8353548189661
 30
0.0
 11
193.60994320021311
 21
134.8353548189661
 31
0.0
  0
LINE
  5
58E
  8
AD4323
 62
     8
 10
178.60994320021311
 20
126.9353548189665
 30
0.0
 11
178.60994320021311
 21
138.93535481896649
 31
0.0
  0
LINE
  5
593
  8
AD4323
 62
     8
 10
153.60994320021311
 20
126.9353548189665
 30
0.0
 11
153.60994320021311
 21
138.93535481896649
 31
0.0
  0
LINE
  5
594
  8
AD4323
 62
     8
 10
153.60994320021311
 20
126.9353548189665
 30
0.0
 11
193.60994320021311
 21
126.9353548189665
 31
0.0
  0
LINE
  5
595
  8
AD4323
 62
     8
 10
193.60994320021311
 20
126.9353548189665
 30
0.0
 11
193.60994320021311
 21
138.93535481896649
 31
0.0
  0
LINE
  5
596
  8
AD4323
 62
     8
 10
153.60994320021311
 20
138.93535481896649
 30
0.0
 11
193.60994320021311
 21
138.93535481896649
 31
0.0
  0
TEXT
  5
59B
  8
AD4323
 62
     8
 10
168.37183111880881
 20
114.44401315961559
 30
0.0
 40
2.5
  1
MODE
  7
AD-STANDARD
  0
TEXT
  5
59C
  8
AD4323
 62
     8
 10
198.41712211433531
 20
132.87715413601009
 30
0.0
 40
2.5
  1
FUSE
  7
AD-STANDARD
  0
TEXT
  5
59D
  8
AD4323
 62
     8
 10
171.39818597568151
 20
94.677154136010358
 30
0.0
 40
2.5
  1
CONTROL I／O
  7
AD-STANDARD
  0
CIRCLE
  5
5A1
  8
AD4323
 62
     8
 10
143.1099432002149
 20
132.43535481896561
 30
0.0
 40
3.25
  0
CIRCLE
  5
5A2
  8
AD4323
 62
     8
 10
155.3599432002149
 20
87.735354818965774
 30
0.0
 40
1.0
  0
CIRCLE
  5
5A3
  8
AD4323
 62
     8
 10
155.3599432002149
 20
87.735354818965774
 30
0.0
 40
1.5
  0
LINE
  5
5A4
  8
AD4323
 62
     8
 10
153.1099432002149
 20
92.235354818965789
 30
0.0
 11
153.10994320021399
 21
83.235354818965789
 31
0.0
  0
CIRCLE
  5
5A5
  8
AD4323
 62
     8
 10
200.3599432002149
 20
87.735354818965774
 30
0.0
 40
1.0
  0
CIRCLE
  5
5A6
  8
AD4323
 62
     8
 10
200.3599432002149
 20
87.735354818965774
 30
0.0
 40
1.5
  0
CIRCLE
  5
5A7
  8
AD4323
 62
     8
 10
166.8599432002149
 20
87.735354818965774
 30
0.0
 40
1.5
  0
CIRCLE
  5
5A8
  8
AD4323
 62
     8
 10
166.8599432002149
 20
87.735354818965774
 30
0.0
 40
1.0
  0
LINE
  5
5A9
  8
AD4323
 62
     8
 10
198.10994320021399
 20
92.235354818965789
 30
0.0
 11
169.1099432002149
 21
92.235354818964879
 31
0.0
  0
LINE
  5
5AA
  8
AD4323
 62
     8
 10
198.10994320021399
 20
83.235354818965789
 30
0.0
 11
169.1099432002149
 21
83.235354818965789
 31
0.0
  0
LINE
  5
5AB
  8
AD4323
 62
     8
 10
198.1099432002149
 20
92.235354818965789
 30
0.0
 11
198.10994320021399
 21
83.235354818965789
 31
0.0
  0
LINE
  5
5AC
  8
AD4323
 62
     8
 10
169.1099432002149
 20
92.235354818965789
 30
0.0
 11
169.1099432002149
 21
83.235354818965789
 31
0.0
  0
LINE
  5
5AF
  8
AD4323
 62
     8
 10
178.10994320021311
 20
124.43535481896561
 30
0.0
 11
169.10994320021399
 21
124.43535481896561
 31
0.0
  0
LINE
  5
5B0
  8
AD4323
 62
     8
 10
178.10994320021311
 20
119.4353548189665
 30
0.0
 11
169.10994320021399
 21
119.4353548189665
 31
0.0
  0
LINE
  5
5B1
  8
AD4323
 62
     8
 10
169.10994320021399
 20
124.43535481896561
 30
0.0
 11
169.10994320021399
 21
119.4353548189665
 31
0.0
  0
LINE
  5
5B2
  8
AD4323
 62
     8
 10
178.10994320021399
 20
124.43535481896561
 30
0.0
 11
178.10994320021311
 21
119.4353548189665
 31
0.0
  0
LINE
  5
5B5
  8
AD4323
 62
     8
 10
208.60994320021399
 20
122.93535481896561
 30
0.0
 11
203.60994320021399
 21
122.93535481896561
 31
0.0
  0
LINE
  5
5B6
  8
AD4323
 62
     8
 10
208.60994320021399
 20
120.93535481896561
 30
0.0
 11
203.60994320021399
 21
120.93535481896561
 31
0.0
  0
LINE
  5
5B7
  8
AD4323
 62
     8
 10
208.60994320021399
 20
120.93535481896561
 30
0.0
 11
208.60994320021399
 21
122.93535481896561
 31
0.0
  0
LINE
  5
5B8
  8
AD4323
 62
     8
 10
198.60994320021399
 20
120.93535481896561
 30
0.0
 11
198.60994320021399
 21
122.93535481896561
 31
0.0
  0
LINE
  5
5B9
  8
AD4323
 62
     8
 10
198.60994320021399
 20
120.93535481896561
 30
0.0
 11
203.60994320021399
 21
120.93535481896561
 31
0.0
  0
LINE
  5
5BA
  8
AD4323
 62
     8
 10
198.60994320021399
 20
122.93535481896561
 30
0.0
 11
203.60994320021399
 21
122.93535481896561
 31
0.0
  0
CIRCLE
  5
5BB
  8
AD4323
 62
     8
 10
203.6099432002149
 20
121.93535481896561
 30
0.0
 40
8.5
  0
CIRCLE
  5
5BC
  8
AD4323
 62
     8
 10
203.6099432002149
 20
121.93535481896561
 30
0.0
 40
7.5
  0
ARC
  5
5BF
  8
AD4323
 62
     8
 10
184.1099432002149
 20
147.93535481896561
 30
0.0
 40
8.0
 50
180.0
 51
270.0
  0
LINE
  5
5C0
  8
3
 10
176.1099432002149
 20
147.93535481896561
 30
0.0
 11
176.1099432002149
 21
147.93535481896561
 31
0.0
  0
ARC
  5
5C1
  8
AD4323
 62
     8
 10
184.1099432002149
 20
147.93535481896561
 30
0.0
 40
8.0
 50
90.0
 51
180.0
  0
TEXT
  5
5C5
  8
AD4323
 62
     8
 10
227.30420769243139
 20
104.7353548189657
 30
0.0
 40
2.5
  1
SER. OUT
  7
AD-STANDARD
  0
CIRCLE
  5
5CA
  8
AD4323
 62
     8
 10
236.6099432002149
 20
93.735354818965789
 30
0.0
 40
8.5
  0
LINE
  5
5CB
  8
AD4323
 10
267.0577125714637
 20
70.935354818965607
 30
0.0
 11
279.6099432002149
 21
70.935354818965607
 31
0.0
  0
LINE
  5
5CC
  8
AD4323
 10
265.70994320021532
 20
65.769354818966349
 30
0.0
 11
267.7099432002135
 21
73.435354818965607
 31
0.0
  0
LINE
  5
5CD
  8
AD4323
 10
249.1099432002149
 20
65.769354818966349
 30
0.0
 11
247.10994320021311
 21
73.435354818965607
 31
0.0
  0
ARC
  5
5E3
  8
AD4323
 62
     8
 10
253.1099432002149
 20
147.93535481896561
 30
0.0
 40
8.0
 50
270.0
 51
0.0
  0
LINE
  5
5E4
  8
3
 10
261.1099432002149
 20
147.93535481896561
 30
0.0
 11
261.1099432002149
 21
147.93535481896561
 31
0.0
  0
ARC
  5
5E5
  8
AD4323
 62
     8
 10
253.1099432002149
 20
147.93535481896561
 30
0.0
 40
8.0
 50
0.0
 51
90.0
  0
LINE
  5
5E6
  8
AD4323
 62
     8
 10
273.10994320021581
 20
108.63535481896361
 30
0.0
 11
273.1099432002149
 21
101.9353548189665
 31
0.0
  0
LINE
  5
5E7
  8
AD4323
 62
     8
 10
273.10994320021581
 20
129.23535481896761
 30
0.0
 11
273.1099432002149
 21
135.9353548189647
 31
0.0
  0
LINE
  5
5E8
  8
AD4323
 62
     8
 10
272.3599432002149
 20
136.93535481896561
 30
0.0
 11
272.3599432002149
 21
129.2353548189667
 31
0.0
  0
LINE
  5
5E9
  8
AD4323
 62
     8
 10
272.3599432002149
 20
108.6353548189645
 30
0.0
 11
272.3599432002149
 21
100.93535481896561
 31
0.0
  0
LINE
  5
5EA
  8
AD4323
 62
     8
 10
274.30994320021472
 20
135.68535481896649
 30
0.0
 11
273.10994320021308
 21
135.68535481896649
 31
0.0
  0
LINE
  5
5EB
  8
AD4323
 62
     8
 10
273.10994320021399
 20
130.4353548189647
 30
0.0
 11
273.10994320021399
 21
135.68535481896561
 31
0.0
  0
ARC
  5
5EC
  8
AD4323
 62
     8
 10
274.30994320021381
 20
130.4353548189647
 30
0.0
 40
1.1999999999999991
 50
180.0
 51
270.0
  0
LINE
  5
5ED
  8
AD4323
 62
     8
 10
274.30994320021472
 20
130.43535481896649
 30
0.0
 11
274.30994320021381
 21
135.68535481896561
 31
0.0
  0
LINE
  5
5EE
  8
AD4323
 62
     8
 10
269.10994320021399
 20
129.23535481896761
 30
0.0
 11
267.10994320021399
 21
127.23535481896759
 31
0.0
  0
LINE
  5
5EF
  8
AD4323
 62
     8
 10
269.10994320021399
 20
108.63535481896361
 30
0.0
 11
267.10994320021399
 21
110.63535481896361
 31
0.0
  0
LINE
  5
5F0
  8
AD4323
 62
     8
 10
267.10994320021399
 20
127.23535481896759
 30
0.0
 11
267.10994320021399
 21
110.63535481896361
 31
0.0
  0
LINE
  5
5F1
  8
AD4323
 62
     8
 10
267.10994320021399
 20
110.63535481896361
 30
0.0
 11
267.10994320021399
 21
127.2353548189667
 31
0.0
  0
ARC
  5
5F2
  8
AD4323
 62
     8
 10
274.30994320021381
 20
107.4353548189665
 30
0.0
 40
1.1999999999999991
 50
90.0
 51
180.0
  0
LINE
  5
5F3
  8
AD4323
 62
     8
 10
273.10994320021399
 20
107.4353548189665
 30
0.0
 11
273.10994320021399
 21
102.18535481896561
 31
0.0
  0
LINE
  5
5F4
  8
AD4323
 62
     8
 10
274.30994320021472
 20
102.1853548189646
 30
0.0
 11
273.10994320021308
 21
102.1853548189646
 31
0.0
  0
LINE
  5
5F5
  8
AD4323
 62
     8
 10
274.30994320021472
 20
107.4353548189646
 30
0.0
 11
274.30994320021381
 21
102.18535481896561
 31
0.0
  0
LINE
  5
5F6
  8
AD4323
 62
     8
 10
280.10994320021399
 20
108.63535481896631
 30
0.0
 11
274.30994320021381
 21
108.63535481896631
 31
0.0
  0
LINE
  5
5F7
  8
AD4323
 62
     8
 10
280.10994320021399
 20
108.6353548189645
 30
0.0
 11
269.10994320021399
 21
108.63535481896361
 31
0.0
  0
LINE
  5
5F8
  8
AD4323
 62
     8
 10
278.90994320021417
 20
107.4353548189646
 30
0.0
 11
274.30994320021472
 21
107.4353548189646
 31
0.0
  0
ARC
  5
5F9
  8
AD4323
 62
     8
 10
278.90994320021417
 20
108.6353548189645
 30
0.0
 40
1.1999999999999991
 50
270.00000000000819
 51
0.000000000000007
  0
LINE
  5
5FA
  8
AD4323
 62
     8
 10
280.10994320021399
 20
129.2353548189667
 30
0.0
 11
280.10994320021581
 21
108.6353548189645
 31
0.0
  0
LINE
  5
5FB
  8
AD4323
 62
     8
 10
278.90994320021417
 20
130.43535481896649
 30
0.0
 11
274.30994320021472
 21
130.43535481896649
 31
0.0
  0
LINE
  5
5FC
  8
AD4323
 62
     8
 10
280.10994320021399
 20
129.2353548189667
 30
0.0
 11
269.10994320021399
 21
129.23535481896761
 31
0.0
  0
ARC
  5
5FD
  8
AD4323
 62
     8
 10
278.90994320021417
 20
129.2353548189667
 30
0.0
 40
1.1999999999999991
 50
0.000000000000007
 51
89.999999999991743
  0
LINE
  5
603
  8
AD4323
 62
     8
 10
276.8599432002149
 20
100.93535481896561
 30
0.0
 11
272.3599432002149
 21
100.93535481896561
 31
0.0
  0
LINE
  5
604
  8
AD4323
 62
     8
 10
276.8599432002149
 20
136.93535481896561
 30
0.0
 11
272.3599432002149
 21
136.93535481896561
 31
0.0
  0
ARC
  5
607
  8
AD4323
 62
     8
 10
272.10994320021581
 20
159.43535481896649
 30
0.0
 40
5.0
 50
0.0
 51
90.0
  0
LINE
  5
608
  8
AD4323
 62
     8
 10
273.1099432002149
 20
135.9353548189637
 30
0.0
 11
274.80994320021568
 21
135.9353548189647
 31
0.0
  0
LINE
  5
609
  8
AD4323
 62
     8
 10
274.80994320021568
 20
133.43535481896561
 30
0.0
 11
277.1099432002149
 21
133.43535481896561
 31
0.0
  0
LINE
  5
60A
  8
AD4323
 62
     8
 10
274.80994320021568
 20
133.43535481896561
 30
0.0
 11
274.80994320021568
 21
135.93535481896561
 31
0.0
  0
LINE
  5
60B
  8
AD4323
 62
     8
 10
277.1099432002149
 20
159.43535481896561
 30
0.0
 11
277.1099432002149
 21
133.43535481896561
 31
0.0
  0
LINE
  5
60C
  8
AD4323
 62
     8
 10
274.80994320021568
 20
101.93535481896561
 30
0.0
 11
273.1099432002149
 21
101.9353548189665
 31
0.0
  0
LINE
  5
60D
  8
AD4323
 62
     8
 10
274.80994320021568
 20
104.43535481896549
 30
0.0
 11
277.1099432002149
 21
104.43535481896549
 31
0.0
  0
LINE
  5
60E
  8
AD4323
 62
     8
 10
274.80994320021568
 20
104.43535481896549
 30
0.0
 11
274.80994320021568
 21
101.93535481896561
 31
0.0
  0
ARC
  5
60F
  8
AD4323
 62
     8
 10
272.10994320021581
 20
78.435354818966516
 30
0.0
 40
5.0
 50
270.0
 51
0.0
  0
LINE
  5
610
  8
AD4323
 62
     8
 10
277.1099432002149
 20
104.43535481896549
 30
0.0
 11
277.1099432002149
 21
78.435354818965607
 31
0.0
  0
LINE
  5
611
  8
AD4323
 10
249.1099432002149
 20
65.769354818967244
 30
0.0
 11
265.70994320021532
 21
65.769354818967244
 31
0.0
  0
ARC
  5
612
  8
AD4323
 10
279.6099432002149
 20
165.93535481896561
 30
0.0
 40
1.0
 50
0.0
 51
90.0
  0
LINE
  5
613
  8
AD4323
 10
280.6099432002149
 20
71.935354818965607
 30
0.0
 11
280.6099432002149
 21
165.93535481896561
 31
0.0
  0
ARC
  5
614
  8
AD4323
 10
279.6099432002149
 20
71.935354818965607
 30
0.0
 40
1.0
 50
270.0
 51
0.0
  0
TEXT
  5
714
  8
2
 10
568.77806836708157
 20
363.02652996062028
 30
0.0
 40
2.7999999999999989
  1

 41
0.8
  7
AD-STANDARD
  0
LINE
  5
71B
  8
AD4323
 62
     8
 10
210.43025441513191
 20
103.86775648842119
 30
0.0
 11
182.43025441513191
 21
103.86775648842119
 31
0.0
  0
LINE
  5
71C
  8
AD4323
 62
     8
 10
182.43025441513191
 20
108.86775648842119
 30
0.0
 11
182.43025441513191
 21
103.86775648842119
 31
0.0
  0
LINE
  5
71D
  8
AD4323
 62
     8
 10
210.43025441513191
 20
108.86775648842119
 30
0.0
 11
182.43025441513191
 21
108.86775648842119
 31
0.0
  0
LINE
  5
71E
  8
AD4323
 62
     8
 10
210.43025441513191
 20
108.86775648842119
 30
0.0
 11
210.43025441513191
 21
103.86775648842119
 31
0.0
  0
LINE
  5
71F
  8
AD4323
 62
     8
 10
170.43025441513191
 20
109.86775648842119
 30
0.0
 11
170.43025441513191
 21
99.367756488421264
 31
0.0
  0
LINE
  5
720
  8
AD4323
 62
     8
 10
212.43025441513191
 20
109.86775648842119
 30
0.0
 11
170.43025441513191
 21
109.86775648842119
 31
0.0
  0
LINE
  5
721
  8
AD4323
 62
     8
 10
212.43025441513191
 20
99.367756488421264
 30
0.0
 11
212.43025441513191
 21
109.86775648842119
 31
0.0
  0
LINE
  5
722
  8
AD4323
 62
     8
 10
170.43025441513191
 20
99.367756488421264
 30
0.0
 11
212.43025441513191
 21
99.367756488421264
 31
0.0
  0
TEXT
  5
723
  8
AD4323
 62
     8
 10
178.43025441513191
 20
100.36775648842119
 30
0.0
 40
2.5
  1
ＭＡＤＥ　ＩＮ　ＪＡＰＡＮ
 41
0.6812227074235804
  7
KANJI
 72
     5
 11
204.43025441513191
 21
100.36775648842119
 31
0.0
  0
TEXT
  5
724
  8
AD4323
 62
     8
 10
172.43025441513191
 20
104.86775648842119
 30
0.0
 40
3.0
  1
ＳＥＲ．
 41
0.8275867327586182
  7
KANJI
 72
     5
 11
182.0302605151318
 21
104.86775648842119
 31
0.0
  0
LINE
  5
766
  8
AD4323
 62
     8
 10
499.9287104454724
 20
276.9376825871953
 30
0.0
 11
457.9287104454724
 21
276.9376825871953
 31
0.0
  0
LINE
  5
767
  8
AD4323
 62
     8
 10
457.9287104454724
 20
266.4376825871953
 30
0.0
 11
499.9287104454724
 21
266.4376825871953
 31
0.0
  0
LINE
  5
768
  8
AD4323
 62
     8
 10
497.92871044547252
 20
275.9376825871953
 30
0.0
 11
469.9287104454724
 21
275.9376825871953
 31
0.0
  0
LINE
  5
769
  8
AD4323
 62
     8
 10
497.92871044547252
 20
270.9376825871953
 30
0.0
 11
469.9287104454724
 21
270.9376825871953
 31
0.0
  0
TEXT
  5
76A
  8
AD4323
 62
     8
 10
459.9287104454724
 20
271.9376825871953
 30
0.0
 40
3.0
  1
SER.
  7
FUTURA
 11
459.9287104454724
 21
273.4376825871953
 31
0.0
 73
     2
  0
TEXT
  5
76B
  8
AD4323
 62
     8
 10
465.02416809574561
 20
267.46247766916252
 30
0.0
 40
2.5
  1
MADE IN JAPAN
  7
FUTURA
 72
     1
 11
478.9287104454724
 21
266.63768258719529
 31
0.0
 73
     1
  0
LINE
  5
76C
  8
AD4323
 62
     8
 10
457.9287104454724
 20
276.9376825871953
 30
0.0
 11
457.9287104454724
 21
266.4376825871953
 31
0.0
  0
LINE
  5
76D
  8
AD4323
 62
     8
 10
469.9287104454724
 20
275.9376825871953
 30
0.0
 11
469.9287104454724
 21
270.9376825871953
 31
0.0
  0
LINE
  5
76E
  8
AD4323
 62
     8
 10
499.9287104454724
 20
266.4376825871953
 30
0.0
 11
499.9287104454724
 21
276.9376825871953
 31
0.0
  0
LINE
  5
76F
  8
AD4323
 62
     8
 10
497.92871044547252
 20
275.9376825871953
 30
0.0
 11
497.92871044547252
 21
270.9376825871953
 31
0.0
  0
TEXT
  5
83D
  8
3
 10
170.6432765335482
 20
299.18768258719427
 30
0.0
 40
2.5
  1
ホールド
 41
0.8
  7
AD-STANDARD
 72
     1
 11
175.1099432002149
 21
300.43768258719427
 31
0.0
 73
     2
  0
TEXT
  5
84C
  8
AD4323
 62
     8
 10
395.92871044547252
 20
275.4376825871953
 30
0.0
 40
3.0
  1
AD-4323B
  7
AD-STANDARD
  0
TEXT
  5
84D
  8
AD4323
 62
     8
 10
439.27031595806329
 20
273.4376825871953
 30
0.0
 40
3.0
  1
04
 41
0.8
  7
AD-STANDARD
  0
TEXT
  5
84E
  8
AD4323
 62
     8
 10
434.37582572913112
 20
273.4376825871953
 30
0.0
 40
3.0
  1
01
 41
0.8
  7
AD-STANDARD
  0
LINE
  5
84F
  8
AD4323
 62
     8
 10
448.92871044547331
 20
277.43768258719439
 30
0.0
 11
448.9287104454724
 21
267.43768258719439
 31
0.0
  0
LINE
  5
850
  8
AD4323
 62
     8
 10
443.92871044547331
 20
277.43768258719439
 30
0.0
 11
443.92871044547252
 21
267.43768258719439
 31
0.0
  0
LINE
  5
851
  8
AD4323
 62
     8
 10
438.92871044547343
 20
277.43768258719439
 30
0.0
 11
438.9287104454724
 21
267.43768258719439
 31
0.0
  0
LINE
  5
852
  8
AD4323
 62
     8
 10
453.92871044547331
 20
272.4376825871953
 30
0.0
 11
433.9287104454724
 21
272.4376825871953
 31
0.0
  0
LINE
  5
853
  8
AD4323
 62
     8
 10
453.92871044547331
 20
267.4376825871953
 30
0.0
 11
433.9287104454724
 21
267.4376825871953
 31
0.0
  0
LINE
  5
854
  8
AD4323
 62
     8
 10
433.92871044547331
 20
277.4376825871953
 30
0.0
 11
433.9287104454724
 21
267.4376825871953
 31
0.0
  0
LINE
  5
855
  8
AD4323
 62
     8
 10
453.92871044547331
 20
277.4376825871953
 30
0.0
 11
453.9287104454724
 21
267.4376825871953
 31
0.0
  0
LINE
  5
856
  8
AD4323
 62
     8
 10
433.92871044547331
 20
277.4376825871953
 30
0.0
 11
453.92871044547331
 21
277.4376825871953
 31
0.0
  0
TEXT
  5
857
  8
AD4323
 62
     8
 10
435.41391085865769
 20
278.4376825871953
 30
0.0
 40
2.0
  1
OPTION LIST
  7
AD-STANDARD
  0
TEXT
  5
858
  8
AD4323
 62
     8
 10
395.68766922160188
 20
269.4376825871953
 30
0.0
 40
2.0
  1
MFD BY A&D CO., LTD.
  7
AD-STANDARD
  0
LINE
  5
859
  8
AD4323
 62
     8
 10
393.92871044547252
 20
266.4376825871953
 30
0.0
 11
393.92871044547252
 21
281.4376825871953
 31
0.0
  0
LINE
  5
85A
  8
AD4323
 62
     8
 10
455.9287104454724
 20
266.4376825871953
 30
0.0
 11
393.92871044547252
 21
266.4376825871953
 31
0.0
  0
LINE
  5
85B
  8
AD4323
 62
     8
 10
455.9287104454724
 20
281.4376825871953
 30
0.0
 11
455.9287104454724
 21
266.4376825871953
 31
0.0
  0
LINE
  5
85C
  8
AD4323
 62
     8
 10
393.92871044547252
 20
281.4376825871953
 30
0.0
 11
455.9287104454724
 21
281.4376825871953
 31
0.0
  0
TEXT
  5
85D
  8
AD4323
 62
     8
 10
444.473495435036
 20
273.4376825871953
 30
0.0
 40
3.0
  1
07
 41
0.8
  7
AD-STANDARD
  0
LINE
  5
900
  8
AD4323
 62
     8
 10
227.62030322189841
 20
111.4810213552891
 30
0.0
 11
219.3223752262349
 21
116.9162018210527
 31
0.0
  0
LINE
  5
901
  8
AD4323
 62
     8
 10
227.62030322189841
 20
132.389688282642
 30
0.0
 11
219.3223752262349
 21
126.9545078168785
 31
0.0
  0
ARC
  5
902
  8
AD4323
 62
     8
 10
230.35994320021399
 20
115.7070607843816
 30
0.0
 40
5.0
 50
180.0
 51
270.0
  0
ARC
  5
903
  8
AD4323
 62
     8
 10
230.3599432002149
 20
128.20706078438161
 30
0.0
 40
5.0
 50
90.0
 51
180.0
  0
ARC
  5
904
  8
AD4323
 62
     8
 10
222.6099432002149
 20
121.93535481896561
 30
0.0
 40
6.0
 50
123.2249806164792
 51
236.7750193835233
  0
POLYLINE
  5
906
  8
AD4323
 62
     8
 66
     1
 10
0.0
 20
0.0
 30
0.0
  0
VERTEX
  5
F48
  8
AD4323
 62
     8
 10
246.6099432002149
 20
117.93535481896549
 30
0.0
  0
VERTEX
  5
F49
  8
AD4323
 62
     8
 10
246.6099432002149
 20
121.93535481896561
 30
0.0
  0
VERTEX
  5
F4A
  8
AD4323
 62
     8
 10
248.6099432002149
 20
121.93535481896561
 30
0.0
  0
VERTEX
  5
F4B
  8
AD4323
 62
     8
 10
248.6099432002149
 20
117.93535481896549
 30
0.0
  0
SEQEND
  5
F4C
  8
AD4323
 62
     8
  0
LINE
  5
907
  8
AD4323
 62
     8
 10
246.6099432002149
 20
117.93535481896549
 30
0.0
 11
248.6099432002149
 21
117.93535481896549
 31
0.0
  0
LINE
  5
908
  8
AD4323
 62
     8
 10
239.6099432002149
 20
125.93535481896561
 30
0.0
 11
241.6099432002149
 21
125.93535481896561
 31
0.0
  0
POLYLINE
  5
909
  8
AD4323
 62
     8
 66
     1
 10
0.0
 20
0.0
 30
0.0
  0
VERTEX
  5
F4D
  8
AD4323
 62
     8
 10
241.6099432002149
 20
125.93535481896561
 30
0.0
  0
VERTEX
  5
F4E
  8
AD4323
 62
     8
 10
241.6099432002149
 20
121.93535481896561
 30
0.0
  0
VERTEX
  5
F4F
  8
AD4323
 62
     8
 10
239.6099432002149
 20
121.93535481896561
 30
0.0
  0
VERTEX
  5
F50
  8
AD4323
 62
     8
 10
239.6099432002149
 20
125.93535481896561
 30
0.0
  0
SEQEND
  5
F51
  8
AD4323
 62
     8
  0
POLYLINE
  5
90A
  8
AD4323
 62
     8
 66
     1
 10
0.0
 20
0.0
 30
0.0
  0
VERTEX
  5
F52
  8
AD4323
 62
     8
 10
232.6099432002149
 20
117.93535481896549
 30
0.0
  0
VERTEX
  5
F53
  8
AD4323
 62
     8
 10
232.6099432002149
 20
121.93535481896561
 30
0.0
  0
VERTEX
  5
F54
  8
AD4323
 62
     8
 10
234.6099432002149
 20
121.93535481896561
 30
0.0
  0
VERTEX
  5
F55
  8
AD4323
 62
     8
 10
234.6099432002149
 20
117.93535481896549
 30
0.0
  0
SEQEND
  5
F56
  8
AD4323
 62
     8
  0
LINE
  5
90B
  8
AD4323
 62
     8
 10
232.6099432002149
 20
117.93535481896549
 30
0.0
 11
234.6099432002149
 21
117.93535481896549
 31
0.0
  0
LINE
  5
90C
  8
AD4323
 62
     8
 10
248.59771004486649
 20
129.9353548189637
 30
0.0
 11
252.59771004486561
 21
125.9353548189637
 31
0.0
  0
LINE
  5
90D
  8
AD4323
 62
     8
 10
252.59771004486561
 20
125.9353548189637
 30
0.0
 11
252.59771004486561
 21
113.93535481896561
 31
0.0
  0
LINE
  5
90E
  8
AD4323
 62
     8
 10
232.59771004486649
 20
129.93535481896561
 30
0.0
 11
248.59771004486649
 21
129.9353548189637
 31
0.0
  0
LINE
  5
90F
  8
AD4323
 62
     8
 10
228.59771004486649
 20
125.93535481896561
 30
0.0
 11
232.59771004486649
 21
129.93535481896561
 31
0.0
  0
LINE
  5
910
  8
AD4323
 62
     8
 10
228.59771004486649
 20
125.93535481896561
 30
0.0
 11
228.59771004486649
 21
113.9353548189665
 31
0.0
  0
ARC
  5
911
  8
AD4323
 62
     8
 10
258.41271883794718
 20
121.93535481896561
 30
0.0
 40
6.0
 50
303.64728290645439
 51
39.595661983160909
  0
LINE
  5
912
  8
AD4323
 62
     8
 10
261.73719117384849
 20
116.9405691691281
 30
0.0
 11
253.6303368134661
 21
111.5447394095163
 31
0.0
  0
LINE
  5
913
  8
AD4323
 62
     8
 10
261.82705501220079
 20
126.98463137802349
 30
0.0
 11
263.03608784780971
 21
125.7595487207754
 31
0.0
  0
LINE
  5
914
  8
AD4323
 62
     8
 10
253.57511686783269
 20
132.38968828264021
 30
0.0
 11
261.87304486349529
 21
126.95450781687479
 31
0.0
  0
ARC
  5
915
  8
AD4323
 62
     8
 10
250.8599432002149
 20
115.7070607843816
 30
0.0
 40
5.0
 50
270.0
 51
0.0
  0
LINE
  5
916
  8
AD4323
 62
     8
 10
255.85994320021581
 20
128.20706078438161
 30
0.0
 11
255.8599432002149
 21
115.7070607843816
 31
0.0
  0
LINE
  5
917
  8
AD4323
 62
     8
 10
230.35994320021399
 20
110.7070607843816
 30
0.0
 11
250.8599432002149
 21
110.7070607843816
 31
0.0
  0
LINE
  5
918
  8
AD4323
 62
     8
 10
225.3599432002149
 20
128.20706078438161
 30
0.0
 11
225.35994320021399
 21
115.7070607843816
 31
0.0
  0
LINE
  5
919
  8
AD4323
 62
     8
 10
230.3599432002149
 20
133.20706078438161
 30
0.0
 11
250.85994320021581
 21
133.20706078438161
 31
0.0
  0
ARC
  5
91A
  8
AD4323
 62
     8
 10
250.85994320021581
 20
128.20706078438161
 30
0.0
 40
5.0
 50
0.0
 51
90.0
  0
LINE
  5
91B
  8
AD4323
 62
     8
 10
228.59771004486649
 20
113.9353548189665
 30
0.0
 11
252.59771004486649
 21
113.93535481896561
 31
0.0
  0
TEXT
  5
91C
  8
AD4323
 62
     8
 10
232.98433744158879
 20
134.94172936775709
 30
0.0
 40
2.5
  1
AC100V
  7
AD-STANDARD
  0
TEXT
  5
95B
  8
AD4323
 62
     8
 10
155.56196626495799
 20
128.13535481896719
 30
0.0
 40
2.0
  1
AC220V／240V
  7
AD-STANDARD
  0
POLYLINE
  5
AE8
  8
3
 66
     1
 10
0.0
 20
0.0
 30
0.0
 70
     1
  0
VERTEX
  5
F57
  8
3
 10
0.0
 20
0.0
 30
0.0
  0
VERTEX
  5
F58
  8
3
 10
630.0
 20
0.0
 30
0.0
  0
VERTEX
  5
F59
  8
3
 10
630.0
 20
445.5
 30
0.0
  0
VERTEX
  5
F5A
  8
3
 10
0.0
 20
445.5
 30
0.0
  0
SEQEND
  5
F5B
  8
3
  0
LINE
  5
B0B
  8
PANEL_CUT
 10
370.06903118300011
 20
159.43535481896649
 30
0.0
 11
370.06903118300011
 21
78.435354818965607
 31
0.0
  0
ARC
  5
B0C
  8
PANEL_CUT
 10
375.06903118300011
 20
78.435354818966516
 30
0.0
 40
5.0
 50
180.0
 51
270.0
  0
LINE
  5
B0D
  8
PANEL_CUT
 10
375.06903118300011
 20
73.435354818965607
 30
0.0
 11
550.06903118300011
 21
73.435354818965607
 31
0.0
  0
ARC
  5
B0E
  8
PANEL_CUT
 10
550.06903118300102
 20
78.435354818966516
 30
0.0
 40
5.0
 50
270.0
 51
0.0
  0
LINE
  5
B0F
  8
PANEL_CUT
 10
555.06903118300011
 20
159.43535481896649
 30
0.0
 11
555.06903118300011
 21
78.435354818965607
 31
0.0
  0
ARC
  5
B10
  8
PANEL_CUT
 10
550.06903118300102
 20
159.43535481896649
 30
0.0
 40
5.0
 50
0.0
 51
90.0
  0
LINE
  5
B11
  8
PANEL_CUT
 10
550.06903118300011
 20
164.43535481896561
 30
0.0
 11
375.06903118300011
 21
164.43535481896561
 31
0.0
  0
ARC
  5
B12
  8
PANEL_CUT
 10
375.06903118300011
 20
159.43535481896649
 30
0.0
 40
5.0
 50
90.0
 51
180.0
  0
CIRCLE
  5
B32
  8
AD4323
 62
     8
 10
105.6099432002149
 20
147.93535481896561
 30
0.0
 40
2.75
  0
LINE
  5
B33
  8
AD4323
 62
     8
 10
103.8599432002149
 20
148.2853548189658
 30
0.0
 11
103.8599432002147
 21
147.5853548189655
 31
0.0
  0
LINE
  5
B34
  8
AD4323
 62
     8
 10
107.3599432002151
 20
148.2853548189656
 30
0.0
 11
107.3599432002149
 21
147.5853548189651
 31
0.0
  0
LINE
  5
B35
  8
AD4323
 62
     8
 10
105.25994320021471
 20
146.18535481896561
 30
0.0
 11
105.95994320021499
 21
146.18535481896521
 31
0.0
  0
LINE
  5
B36
  8
AD4323
 62
     8
 10
105.95994320021499
 20
146.18535481896521
 30
0.0
 11
105.95994320021499
 21
146.74535481896541
 31
0.0
  0
LINE
  5
B37
  8
AD4323
 62
     8
 10
105.95994320021499
 20
146.74535481896541
 30
0.0
 11
106.2049432002148
 21
147.34035481896549
 31
0.0
  0
LINE
  5
B38
  8
AD4323
 62
     8
 10
106.2049432002148
 20
147.34035481896549
 30
0.0
 11
106.7999432002149
 21
147.5853548189651
 31
0.0
  0
LINE
  5
B39
  8
AD4323
 62
     8
 10
106.7999432002149
 20
147.5853548189651
 30
0.0
 11
107.3599432002149
 21
147.5853548189651
 31
0.0
  0
LINE
  5
B3A
  8
AD4323
 62
     8
 10
103.8599432002147
 20
147.5853548189655
 30
0.0
 11
104.419943200215
 21
147.5853548189655
 31
0.0
  0
LINE
  5
B3B
  8
AD4323
 62
     8
 10
104.419943200215
 20
147.5853548189655
 30
0.0
 11
105.014943200215
 21
147.34035481896569
 31
0.0
  0
LINE
  5
B3C
  8
AD4323
 62
     8
 10
105.014943200215
 20
147.34035481896569
 30
0.0
 11
105.25994320021471
 21
146.74535481896561
 31
0.0
  0
LINE
  5
B3D
  8
AD4323
 62
     8
 10
105.25994320021471
 20
146.74535481896561
 30
0.0
 11
105.25994320021471
 21
146.18535481896561
 31
0.0
  0
LINE
  5
B3E
  8
AD4323
 62
     8
 10
105.25994320021481
 20
149.68535481896581
 30
0.0
 11
105.95994320021521
 21
149.68535481896561
 31
0.0
  0
LINE
  5
B3F
  8
AD4323
 62
     8
 10
105.25994320021481
 20
149.68535481896581
 30
0.0
 11
105.25994320021481
 21
149.12535481896549
 31
0.0
  0
LINE
  5
B40
  8
AD4323
 62
     8
 10
105.25994320021481
 20
149.12535481896549
 30
0.0
 11
105.014943200215
 21
148.53035481896541
 31
0.0
  0
LINE
  5
B41
  8
AD4323
 62
     8
 10
105.014943200215
 20
148.53035481896541
 30
0.0
 11
104.419943200215
 21
148.2853548189658
 31
0.0
  0
LINE
  5
B42
  8
AD4323
 62
     8
 10
104.419943200215
 20
148.2853548189658
 30
0.0
 11
103.8599432002149
 21
148.2853548189658
 31
0.0
  0
LINE
  5
B43
  8
AD4323
 62
     8
 10
105.95994320021521
 20
149.12535481896549
 30
0.0
 11
105.95994320021521
 21
149.68535481896561
 31
0.0
  0
LINE
  5
B44
  8
AD4323
 62
     8
 10
106.2049432002148
 20
148.53035481896541
 30
0.0
 11
105.95994320021521
 21
149.12535481896549
 31
0.0
  0
LINE
  5
B45
  8
AD4323
 62
     8
 10
106.7999432002149
 20
148.2853548189656
 30
0.0
 11
106.2049432002148
 21
148.53035481896541
 31
0.0
  0
LINE
  5
B46
  8
AD4323
 62
     8
 10
107.3599432002151
 20
148.2853548189656
 30
0.0
 11
106.7999432002149
 21
148.2853548189656
 31
0.0
  0
CIRCLE
  5
B47
  8
AD4323
 62
     8
 10
105.6099432002149
 20
155.93535481896561
 30
0.0
 40
2.75
  0
LINE
  5
B48
  8
AD4323
 62
     8
 10
103.8599432002149
 20
156.2853548189658
 30
0.0
 11
103.8599432002147
 21
155.5853548189655
 31
0.0
  0
LINE
  5
B49
  8
AD4323
 62
     8
 10
107.3599432002151
 20
156.2853548189656
 30
0.0
 11
107.3599432002149
 21
155.5853548189651
 31
0.0
  0
LINE
  5
B4A
  8
AD4323
 62
     8
 10
105.25994320021471
 20
154.18535481896561
 30
0.0
 11
105.95994320021499
 21
154.18535481896521
 31
0.0
  0
LINE
  5
B4B
  8
AD4323
 62
     8
 10
105.95994320021499
 20
154.18535481896521
 30
0.0
 11
105.95994320021499
 21
154.74535481896541
 31
0.0
  0
LINE
  5
B4C
  8
AD4323
 62
     8
 10
105.95994320021499
 20
154.74535481896541
 30
0.0
 11
106.2049432002148
 21
155.34035481896549
 31
0.0
  0
LINE
  5
B4D
  8
AD4323
 62
     8
 10
106.2049432002148
 20
155.34035481896549
 30
0.0
 11
106.7999432002149
 21
155.5853548189651
 31
0.0
  0
LINE
  5
B4E
  8
AD4323
 62
     8
 10
106.7999432002149
 20
155.5853548189651
 30
0.0
 11
107.3599432002149
 21
155.5853548189651
 31
0.0
  0
LINE
  5
B4F
  8
AD4323
 62
     8
 10
103.8599432002147
 20
155.5853548189655
 30
0.0
 11
104.419943200215
 21
155.5853548189655
 31
0.0
  0
LINE
  5
B50
  8
AD4323
 62
     8
 10
104.419943200215
 20
155.5853548189655
 30
0.0
 11
105.014943200215
 21
155.34035481896569
 31
0.0
  0
LINE
  5
B51
  8
AD4323
 62
     8
 10
105.014943200215
 20
155.34035481896569
 30
0.0
 11
105.25994320021471
 21
154.74535481896569
 31
0.0
  0
LINE
  5
B52
  8
AD4323
 62
     8
 10
105.25994320021471
 20
154.74535481896569
 30
0.0
 11
105.25994320021471
 21
154.18535481896561
 31
0.0
  0
LINE
  5
B53
  8
AD4323
 62
     8
 10
105.25994320021481
 20
157.68535481896581
 30
0.0
 11
105.95994320021521
 21
157.68535481896561
 31
0.0
  0
LINE
  5
B54
  8
AD4323
 62
     8
 10
105.25994320021481
 20
157.68535481896581
 30
0.0
 11
105.25994320021481
 21
157.12535481896549
 31
0.0
  0
LINE
  5
B55
  8
AD4323
 62
     8
 10
105.25994320021481
 20
157.12535481896549
 30
0.0
 11
105.014943200215
 21
156.53035481896541
 31
0.0
  0
LINE
  5
B56
  8
AD4323
 62
     8
 10
105.014943200215
 20
156.53035481896541
 30
0.0
 11
104.419943200215
 21
156.2853548189658
 31
0.0
  0
LINE
  5
B57
  8
AD4323
 62
     8
 10
104.419943200215
 20
156.2853548189658
 30
0.0
 11
103.8599432002149
 21
156.2853548189658
 31
0.0
  0
LINE
  5
B58
  8
AD4323
 62
     8
 10
105.95994320021521
 20
157.12535481896549
 30
0.0
 11
105.95994320021521
 21
157.68535481896561
 31
0.0
  0
LINE
  5
B59
  8
AD4323
 62
     8
 10
106.2049432002148
 20
156.53035481896541
 30
0.0
 11
105.95994320021521
 21
157.12535481896549
 31
0.0
  0
LINE
  5
B5A
  8
AD4323
 62
     8
 10
106.7999432002149
 20
156.2853548189656
 30
0.0
 11
106.2049432002148
 21
156.53035481896541
 31
0.0
  0
LINE
  5
B5B
  8
AD4323
 62
     8
 10
107.3599432002151
 20
156.2853548189656
 30
0.0
 11
106.7999432002149
 21
156.2853548189656
 31
0.0
  0
LINE
  5
B5C
  8
AD4323
 62
     8
 10
98.003943200214849
 20
154.52535481896589
 30
0.0
 11
98.659943200214968
 21
154.52535481896589
 31
0.0
  0
LINE
  5
B5D
  8
AD4323
 62
     8
 10
98.659943200215196
 20
155.3453548189666
 30
0.0
 11
98.003943200214849
 21
155.3453548189666
 31
0.0
  0
CIRCLE
  5
B5E
  8
AD4323
 62
     8
 10
96.609943200214957
 20
154.93535481896649
 30
0.0
 40
3.5
  0
LINE
  5
B5F
  8
AD4323
 62
     8
 10
94.559943200214946
 20
155.3453548189668
 30
0.0
 11
94.559943200214718
 21
154.52535481896641
 31
0.0
  0
LINE
  5
B60
  8
AD4323
 62
     8
 10
97.019943200215053
 20
153.5413548189664
 30
0.0
 11
97.306943200214789
 21
154.2383548189664
 31
0.0
  0
LINE
  5
B61
  8
AD4323
 62
     8
 10
97.306943200214789
 20
154.2383548189664
 30
0.0
 11
98.003943200214849
 21
154.52535481896589
 31
0.0
  0
LINE
  5
B62
  8
AD4323
 62
     8
 10
94.559943200214718
 20
154.52535481896641
 30
0.0
 11
95.215943200215065
 21
154.52535481896641
 31
0.0
  0
LINE
  5
B63
  8
AD4323
 62
     8
 10
95.215943200215065
 20
154.52535481896641
 30
0.0
 11
95.912943200215125
 21
154.2383548189666
 31
0.0
  0
LINE
  5
B64
  8
AD4323
 62
     8
 10
95.912943200215125
 20
154.2383548189666
 30
0.0
 11
96.199943200214648
 21
153.5413548189666
 31
0.0
  0
LINE
  5
B65
  8
AD4323
 62
     8
 10
96.199943200214648
 20
152.8853548189665
 30
0.0
 11
97.019943200215053
 21
152.88535481896599
 31
0.0
  0
LINE
  5
B66
  8
AD4323
 62
     8
 10
97.019943200215053
 20
152.88535481896599
 30
0.0
 11
97.019943200215053
 21
153.5413548189664
 31
0.0
  0
LINE
  5
B67
  8
AD4323
 62
     8
 10
96.199943200214648
 20
153.5413548189666
 30
0.0
 11
96.199943200214648
 21
152.8853548189665
 31
0.0
  0
LINE
  5
B68
  8
AD4323
 62
     8
 10
96.199943200214875
 20
156.9853548189667
 30
0.0
 11
97.019943200215266
 21
156.9853548189665
 31
0.0
  0
LINE
  5
B69
  8
AD4323
 62
     8
 10
96.199943200214875
 20
156.9853548189667
 30
0.0
 11
96.199943200214875
 21
156.32935481896641
 31
0.0
  0
LINE
  5
B6A
  8
AD4323
 62
     8
 10
96.199943200214875
 20
156.32935481896641
 30
0.0
 11
95.912943200215125
 21
155.63235481896629
 31
0.0
  0
LINE
  5
B6B
  8
AD4323
 62
     8
 10
95.912943200215125
 20
155.63235481896629
 30
0.0
 11
95.215943200215065
 21
155.3453548189668
 31
0.0
  0
LINE
  5
B6C
  8
AD4323
 62
     8
 10
95.215943200215065
 20
155.3453548189668
 30
0.0
 11
94.559943200214946
 21
155.3453548189668
 31
0.0
  0
LINE
  5
B6D
  8
AD4323
 62
     8
 10
97.019943200215266
 20
156.32935481896641
 30
0.0
 11
97.019943200215266
 21
156.9853548189665
 31
0.0
  0
LINE
  5
B6E
  8
AD4323
 62
     8
 10
97.306943200214789
 20
155.63235481896629
 30
0.0
 11
97.019943200215266
 21
156.32935481896641
 31
0.0
  0
LINE
  5
B6F
  8
AD4323
 62
     8
 10
98.003943200214849
 20
155.3453548189666
 30
0.0
 11
97.306943200214789
 21
155.63235481896629
 31
0.0
  0
LINE
  5
B70
  8
AD4323
 62
     8
 10
98.659943200215196
 20
155.3453548189666
 30
0.0
 11
98.659943200214968
 21
154.52535481896589
 31
0.0
  0
LINE
  5
B71
  8
AD4323
 62
     8
 10
98.003943200214849
 20
118.52535481896589
 30
0.0
 11
98.659943200214968
 21
118.52535481896589
 31
0.0
  0
LINE
  5
B72
  8
AD4323
 62
     8
 10
98.659943200215196
 20
119.3453548189665
 30
0.0
 11
98.003943200214849
 21
119.3453548189665
 31
0.0
  0
CIRCLE
  5
B73
  8
AD4323
 62
     8
 10
96.609943200214957
 20
118.9353548189665
 30
0.0
 40
3.5
  0
LINE
  5
B74
  8
AD4323
 62
     8
 10
94.559943200214946
 20
119.3453548189668
 30
0.0
 11
94.559943200214718
 21
118.52535481896641
 31
0.0
  0
LINE
  5
B75
  8
AD4323
 62
     8
 10
97.019943200215053
 20
117.5413548189663
 30
0.0
 11
97.306943200214789
 21
118.2383548189664
 31
0.0
  0
LINE
  5
B76
  8
AD4323
 62
     8
 10
97.306943200214789
 20
118.2383548189664
 30
0.0
 11
98.003943200214849
 21
118.52535481896589
 31
0.0
  0
LINE
  5
B77
  8
AD4323
 62
     8
 10
94.559943200214718
 20
118.52535481896641
 30
0.0
 11
95.215943200215065
 21
118.52535481896641
 31
0.0
  0
LINE
  5
B78
  8
AD4323
 62
     8
 10
95.215943200215065
 20
118.52535481896641
 30
0.0
 11
95.912943200215125
 21
118.2383548189666
 31
0.0
  0
LINE
  5
B79
  8
AD4323
 62
     8
 10
95.912943200215125
 20
118.2383548189666
 30
0.0
 11
96.199943200214648
 21
117.5413548189666
 31
0.0
  0
LINE
  5
B7A
  8
AD4323
 62
     8
 10
96.199943200214648
 20
116.8853548189665
 30
0.0
 11
97.019943200215053
 21
116.88535481896599
 31
0.0
  0
LINE
  5
B7B
  8
AD4323
 62
     8
 10
97.019943200215053
 20
116.88535481896599
 30
0.0
 11
97.019943200215053
 21
117.5413548189663
 31
0.0
  0
LINE
  5
B7C
  8
AD4323
 62
     8
 10
96.199943200214648
 20
117.5413548189666
 30
0.0
 11
96.199943200214648
 21
116.8853548189665
 31
0.0
  0
LINE
  5
B7D
  8
AD4323
 62
     8
 10
96.199943200214875
 20
120.9853548189667
 30
0.0
 11
97.019943200215266
 21
120.9853548189665
 31
0.0
  0
LINE
  5
B7E
  8
AD4323
 62
     8
 10
96.199943200214875
 20
120.9853548189667
 30
0.0
 11
96.199943200214875
 21
120.32935481896639
 31
0.0
  0
LINE
  5
B7F
  8
AD4323
 62
     8
 10
96.199943200214875
 20
120.32935481896639
 30
0.0
 11
95.912943200215125
 21
119.63235481896631
 31
0.0
  0
LINE
  5
B80
  8
AD4323
 62
     8
 10
95.912943200215125
 20
119.63235481896631
 30
0.0
 11
95.215943200215065
 21
119.3453548189668
 31
0.0
  0
LINE
  5
B81
  8
AD4323
 62
     8
 10
95.215943200215065
 20
119.3453548189668
 30
0.0
 11
94.559943200214946
 21
119.3453548189668
 31
0.0
  0
LINE
  5
B82
  8
AD4323
 62
     8
 10
97.019943200215266
 20
120.32935481896639
 30
0.0
 11
97.019943200215266
 21
120.9853548189665
 31
0.0
  0
LINE
  5
B83
  8
AD4323
 62
     8
 10
97.306943200214789
 20
119.63235481896631
 30
0.0
 11
97.019943200215266
 21
120.32935481896639
 31
0.0
  0
LINE
  5
B84
  8
AD4323
 62
     8
 10
98.003943200214849
 20
119.3453548189665
 30
0.0
 11
97.306943200214789
 21
119.63235481896631
 31
0.0
  0
LINE
  5
B85
  8
AD4323
 62
     8
 10
98.659943200215196
 20
119.3453548189665
 30
0.0
 11
98.659943200214968
 21
118.52535481896589
 31
0.0
  0
LINE
  5
B86
  8
AD4323
 62
     8
 10
98.003943200214849
 20
82.525354818965951
 30
0.0
 11
98.659943200214968
 21
82.525354818965951
 31
0.0
  0
LINE
  5
B87
  8
AD4323
 62
     8
 10
98.659943200215196
 20
83.345354818966598
 30
0.0
 11
98.003943200214849
 21
83.345354818966598
 31
0.0
  0
CIRCLE
  5
B88
  8
AD4323
 62
     8
 10
96.609943200214957
 20
82.935354818966516
 30
0.0
 40
3.5
  0
LINE
  5
B89
  8
AD4323
 62
     8
 10
94.559943200214946
 20
83.345354818966854
 30
0.0
 11
94.559943200214718
 21
82.525354818966434
 31
0.0
  0
LINE
  5
B8A
  8
AD4323
 62
     8
 10
97.019943200215053
 20
81.541354818966397
 30
0.0
 11
97.306943200214789
 21
82.238354818966457
 31
0.0
  0
LINE
  5
B8B
  8
AD4323
 62
     8
 10
97.306943200214789
 20
82.238354818966457
 30
0.0
 11
98.003943200214849
 21
82.525354818965951
 31
0.0
  0
LINE
  5
B8C
  8
AD4323
 62
     8
 10
94.559943200214718
 20
82.525354818966434
 30
0.0
 11
95.215943200215065
 21
82.525354818966434
 31
0.0
  0
LINE
  5
B8D
  8
AD4323
 62
     8
 10
95.215943200215065
 20
82.525354818966434
 30
0.0
 11
95.912943200215125
 21
82.238354818966684
 31
0.0
  0
LINE
  5
B8E
  8
AD4323
 62
     8
 10
95.912943200215125
 20
82.238354818966684
 30
0.0
 11
96.199943200214648
 21
81.541354818966624
 31
0.0
  0
LINE
  5
B8F
  8
AD4323
 62
     8
 10
96.199943200214648
 20
80.885354818966505
 30
0.0
 11
97.019943200215053
 21
80.885354818966036
 31
0.0
  0
LINE
  5
B90
  8
AD4323
 62
     8
 10
97.019943200215053
 20
80.885354818966036
 30
0.0
 11
97.019943200215053
 21
81.541354818966397
 31
0.0
  0
LINE
  5
B91
  8
AD4323
 62
     8
 10
96.199943200214648
 20
81.541354818966624
 30
0.0
 11
96.199943200214648
 21
80.885354818966505
 31
0.0
  0
LINE
  5
B92
  8
AD4323
 62
     8
 10
96.199943200214875
 20
84.985354818966755
 30
0.0
 11
97.019943200215266
 21
84.985354818966513
 31
0.0
  0
LINE
  5
B93
  8
AD4323
 62
     8
 10
96.199943200214875
 20
84.985354818966755
 30
0.0
 11
96.199943200214875
 21
84.329354818966394
 31
0.0
  0
LINE
  5
B94
  8
AD4323
 62
     8
 10
96.199943200214875
 20
84.329354818966394
 30
0.0
 11
95.912943200215125
 21
83.632354818966348
 31
0.0
  0
LINE
  5
B95
  8
AD4323
 62
     8
 10
95.912943200215125
 20
83.632354818966348
 30
0.0
 11
95.215943200215065
 21
83.345354818966854
 31
0.0
  0
LINE
  5
B96
  8
AD4323
 62
     8
 10
95.215943200215065
 20
83.345354818966854
 30
0.0
 11
94.559943200214946
 21
83.345354818966854
 31
0.0
  0
LINE
  5
B97
  8
AD4323
 62
     8
 10
97.019943200215266
 20
84.329354818966394
 30
0.0
 11
97.019943200215266
 21
84.985354818966513
 31
0.0
  0
LINE
  5
B98
  8
AD4323
 62
     8
 10
97.306943200214789
 20
83.632354818966348
 30
0.0
 11
97.019943200215266
 21
84.329354818966394
 31
0.0
  0
LINE
  5
B99
  8
AD4323
 62
     8
 10
98.003943200214849
 20
83.345354818966598
 30
0.0
 11
97.306943200214789
 21
83.632354818966348
 31
0.0
  0
LINE
  5
B9A
  8
AD4323
 62
     8
 10
98.659943200215196
 20
83.345354818966598
 30
0.0
 11
98.659943200214968
 21
82.525354818965951
 31
0.0
  0
CIRCLE
  5
B9B
  8
AD4323
 62
     8
 10
104.6099432002149
 20
87.735354818965774
 30
0.0
 40
2.75
  0
LINE
  5
B9C
  8
AD4323
 62
     8
 10
102.8599432002149
 20
88.085354818966067
 30
0.0
 11
102.8599432002147
 21
87.385354818965709
 31
0.0
  0
LINE
  5
B9D
  8
AD4323
 62
     8
 10
106.3599432002151
 20
88.085354818965868
 30
0.0
 11
106.3599432002149
 21
87.385354818965325
 31
0.0
  0
LINE
  5
B9E
  8
AD4323
 62
     8
 10
104.25994320021459
 20
85.985354818965789
 30
0.0
 11
104.95994320021499
 21
85.985354818965376
 31
0.0
  0
LINE
  5
B9F
  8
AD4323
 62
     8
 10
104.95994320021499
 20
85.985354818965376
 30
0.0
 11
104.95994320021499
 21
86.545354818965677
 31
0.0
  0
LINE
  5
BA0
  8
AD4323
 62
     8
 10
104.95994320021499
 20
86.545354818965677
 30
0.0
 11
105.2049432002148
 21
87.140354818965733
 31
0.0
  0
LINE
  5
BA1
  8
AD4323
 62
     8
 10
105.2049432002148
 20
87.140354818965733
 30
0.0
 11
105.7999432002149
 21
87.385354818965325
 31
0.0
  0
LINE
  5
BA2
  8
AD4323
 62
     8
 10
105.7999432002149
 20
87.385354818965325
 30
0.0
 11
106.3599432002149
 21
87.385354818965325
 31
0.0
  0
LINE
  5
BA3
  8
AD4323
 62
     8
 10
102.8599432002147
 20
87.385354818965709
 30
0.0
 11
103.419943200215
 21
87.385354818965709
 31
0.0
  0
LINE
  5
BA4
  8
AD4323
 62
     8
 10
103.419943200215
 20
87.385354818965709
 30
0.0
 11
104.014943200215
 21
87.140354818965918
 31
0.0
  0
LINE
  5
BA5
  8
AD4323
 62
     8
 10
104.014943200215
 20
87.140354818965918
 30
0.0
 11
104.25994320021459
 21
86.545354818965876
 31
0.0
  0
LINE
  5
BA6
  8
AD4323
 62
     8
 10
104.25994320021459
 20
86.545354818965876
 30
0.0
 11
104.25994320021459
 21
85.985354818965789
 31
0.0
  0
LINE
  5
BA7
  8
AD4323
 62
     8
 10
104.25994320021481
 20
89.485354818965973
 30
0.0
 11
104.95994320021509
 21
89.485354818965789
 31
0.0
  0
LINE
  5
BA8
  8
AD4323
 62
     8
 10
104.25994320021481
 20
89.485354818965973
 30
0.0
 11
104.25994320021481
 21
88.925354818965715
 31
0.0
  0
LINE
  5
BA9
  8
AD4323
 62
     8
 10
104.25994320021481
 20
88.925354818965715
 30
0.0
 11
104.014943200215
 21
88.330354818965645
 31
0.0
  0
LINE
  5
BAA
  8
AD4323
 62
     8
 10
104.014943200215
 20
88.330354818965645
 30
0.0
 11
103.419943200215
 21
88.085354818966067
 31
0.0
  0
LINE
  5
BAB
  8
AD4323
 62
     8
 10
103.419943200215
 20
88.085354818966067
 30
0.0
 11
102.8599432002149
 21
88.085354818966067
 31
0.0
  0
LINE
  5
BAC
  8
AD4323
 62
     8
 10
104.95994320021509
 20
88.925354818965715
 30
0.0
 11
104.95994320021509
 21
89.485354818965789
 31
0.0
  0
LINE
  5
BAD
  8
AD4323
 62
     8
 10
105.2049432002148
 20
88.330354818965645
 30
0.0
 11
104.95994320021509
 21
88.925354818965715
 31
0.0
  0
LINE
  5
BAE
  8
AD4323
 62
     8
 10
105.7999432002149
 20
88.085354818965868
 30
0.0
 11
105.2049432002148
 21
88.330354818965645
 31
0.0
  0
LINE
  5
BAF
  8
AD4323
 62
     8
 10
106.3599432002151
 20
88.085354818965868
 30
0.0
 11
105.7999432002149
 21
88.085354818965868
 31
0.0
  0
CIRCLE
  5
BB0
  8
AD4323
 62
     8
 10
120.1099432002149
 20
109.43535481896561
 30
0.0
 40
2.75
  0
LINE
  5
BB1
  8
AD4323
 62
     8
 10
118.3599432002149
 20
109.7853548189658
 30
0.0
 11
118.3599432002147
 21
109.0853548189655
 31
0.0
  0
LINE
  5
BB2
  8
AD4323
 62
     8
 10
121.8599432002151
 20
109.7853548189656
 30
0.0
 11
121.8599432002149
 21
109.0853548189651
 31
0.0
  0
LINE
  5
BB3
  8
AD4323
 62
     8
 10
119.75994320021471
 20
107.68535481896561
 30
0.0
 11
120.45994320021499
 21
107.68535481896519
 31
0.0
  0
LINE
  5
BB4
  8
AD4323
 62
     8
 10
120.45994320021499
 20
107.68535481896519
 30
0.0
 11
120.45994320021499
 21
108.2453548189654
 31
0.0
  0
LINE
  5
BB5
  8
AD4323
 62
     8
 10
120.45994320021499
 20
108.2453548189654
 30
0.0
 11
120.7049432002148
 21
108.84035481896549
 31
0.0
  0
LINE
  5
BB6
  8
AD4323
 62
     8
 10
120.7049432002148
 20
108.84035481896549
 30
0.0
 11
121.2999432002149
 21
109.0853548189651
 31
0.0
  0
LINE
  5
BB7
  8
AD4323
 62
     8
 10
121.2999432002149
 20
109.0853548189651
 30
0.0
 11
121.8599432002149
 21
109.0853548189651
 31
0.0
  0
LINE
  5
BB8
  8
AD4323
 62
     8
 10
118.3599432002147
 20
109.0853548189655
 30
0.0
 11
118.919943200215
 21
109.0853548189655
 31
0.0
  0
LINE
  5
BB9
  8
AD4323
 62
     8
 10
118.919943200215
 20
109.0853548189655
 30
0.0
 11
119.514943200215
 21
108.84035481896569
 31
0.0
  0
LINE
  5
BBA
  8
AD4323
 62
     8
 10
119.514943200215
 20
108.84035481896569
 30
0.0
 11
119.75994320021471
 21
108.24535481896559
 31
0.0
  0
LINE
  5
BBB
  8
AD4323
 62
     8
 10
119.75994320021471
 20
108.24535481896559
 30
0.0
 11
119.75994320021471
 21
107.68535481896561
 31
0.0
  0
LINE
  5
BBC
  8
AD4323
 62
     8
 10
119.75994320021481
 20
111.18535481896581
 30
0.0
 11
120.45994320021521
 21
111.18535481896561
 31
0.0
  0
LINE
  5
BBD
  8
AD4323
 62
     8
 10
119.75994320021481
 20
111.18535481896581
 30
0.0
 11
119.75994320021481
 21
110.6253548189655
 31
0.0
  0
LINE
  5
BBE
  8
AD4323
 62
     8
 10
119.75994320021481
 20
110.6253548189655
 30
0.0
 11
119.514943200215
 21
110.03035481896541
 31
0.0
  0
LINE
  5
BBF
  8
AD4323
 62
     8
 10
119.514943200215
 20
110.03035481896541
 30
0.0
 11
118.919943200215
 21
109.7853548189658
 31
0.0
  0
LINE
  5
BC0
  8
AD4323
 62
     8
 10
118.919943200215
 20
109.7853548189658
 30
0.0
 11
118.3599432002149
 21
109.7853548189658
 31
0.0
  0
LINE
  5
BC1
  8
AD4323
 62
     8
 10
120.45994320021521
 20
110.6253548189655
 30
0.0
 11
120.45994320021521
 21
111.18535481896561
 31
0.0
  0
LINE
  5
BC2
  8
AD4323
 62
     8
 10
120.7049432002148
 20
110.03035481896541
 30
0.0
 11
120.45994320021521
 21
110.6253548189655
 31
0.0
  0
LINE
  5
BC3
  8
AD4323
 62
     8
 10
121.2999432002149
 20
109.7853548189656
 30
0.0
 11
120.7049432002148
 21
110.03035481896541
 31
0.0
  0
LINE
  5
BC4
  8
AD4323
 62
     8
 10
121.8599432002151
 20
109.7853548189656
 30
0.0
 11
121.2999432002149
 21
109.7853548189656
 31
0.0
  0
CIRCLE
  5
BC5
  8
AD4323
 62
     8
 10
120.1099432002149
 20
132.43535481896561
 30
0.0
 40
2.75
  0
LINE
  5
BC6
  8
AD4323
 62
     8
 10
118.3599432002149
 20
132.7853548189658
 30
0.0
 11
118.3599432002147
 21
132.0853548189655
 31
0.0
  0
LINE
  5
BC7
  8
AD4323
 62
     8
 10
121.8599432002151
 20
132.7853548189656
 30
0.0
 11
121.8599432002149
 21
132.0853548189651
 31
0.0
  0
LINE
  5
BC8
  8
AD4323
 62
     8
 10
119.75994320021471
 20
130.68535481896561
 30
0.0
 11
120.45994320021499
 21
130.68535481896521
 31
0.0
  0
LINE
  5
BC9
  8
AD4323
 62
     8
 10
120.45994320021499
 20
130.68535481896521
 30
0.0
 11
120.45994320021499
 21
131.24535481896541
 31
0.0
  0
LINE
  5
BCA
  8
AD4323
 62
     8
 10
120.45994320021499
 20
131.24535481896541
 30
0.0
 11
120.7049432002148
 21
131.84035481896549
 31
0.0
  0
LINE
  5
BCB
  8
AD4323
 62
     8
 10
120.7049432002148
 20
131.84035481896549
 30
0.0
 11
121.2999432002149
 21
132.0853548189651
 31
0.0
  0
LINE
  5
BCC
  8
AD4323
 62
     8
 10
121.2999432002149
 20
132.0853548189651
 30
0.0
 11
121.8599432002149
 21
132.0853548189651
 31
0.0
  0
LINE
  5
BCD
  8
AD4323
 62
     8
 10
118.3599432002147
 20
132.0853548189655
 30
0.0
 11
118.919943200215
 21
132.0853548189655
 31
0.0
  0
LINE
  5
BCE
  8
AD4323
 62
     8
 10
118.919943200215
 20
132.0853548189655
 30
0.0
 11
119.514943200215
 21
131.84035481896569
 31
0.0
  0
LINE
  5
BCF
  8
AD4323
 62
     8
 10
119.514943200215
 20
131.84035481896569
 30
0.0
 11
119.75994320021471
 21
131.24535481896561
 31
0.0
  0
LINE
  5
BD0
  8
AD4323
 62
     8
 10
119.75994320021471
 20
131.24535481896561
 30
0.0
 11
119.75994320021471
 21
130.68535481896561
 31
0.0
  0
LINE
  5
BD1
  8
AD4323
 62
     8
 10
119.75994320021481
 20
134.18535481896581
 30
0.0
 11
120.45994320021521
 21
134.18535481896561
 31
0.0
  0
LINE
  5
BD2
  8
AD4323
 62
     8
 10
119.75994320021481
 20
134.18535481896581
 30
0.0
 11
119.75994320021481
 21
133.62535481896549
 31
0.0
  0
LINE
  5
BD3
  8
AD4323
 62
     8
 10
119.75994320021481
 20
133.62535481896549
 30
0.0
 11
119.514943200215
 21
133.03035481896541
 31
0.0
  0
LINE
  5
BD4
  8
AD4323
 62
     8
 10
119.514943200215
 20
133.03035481896541
 30
0.0
 11
118.919943200215
 21
132.7853548189658
 31
0.0
  0
LINE
  5
BD5
  8
AD4323
 62
     8
 10
118.919943200215
 20
132.7853548189658
 30
0.0
 11
118.3599432002149
 21
132.7853548189658
 31
0.0
  0
LINE
  5
BD6
  8
AD4323
 62
     8
 10
120.45994320021521
 20
133.62535481896549
 30
0.0
 11
120.45994320021521
 21
134.18535481896561
 31
0.0
  0
LINE
  5
BD7
  8
AD4323
 62
     8
 10
120.7049432002148
 20
133.03035481896541
 30
0.0
 11
120.45994320021521
 21
133.62535481896549
 31
0.0
  0
LINE
  5
BD8
  8
AD4323
 62
     8
 10
121.2999432002149
 20
132.7853548189656
 30
0.0
 11
120.7049432002148
 21
133.03035481896541
 31
0.0
  0
LINE
  5
BD9
  8
AD4323
 62
     8
 10
121.8599432002151
 20
132.7853548189656
 30
0.0
 11
121.2999432002149
 21
132.7853548189656
 31
0.0
  0
CIRCLE
  5
BDA
  8
AD4323
 62
     8
 10
143.1099432002149
 20
132.43535481896561
 30
0.0
 40
2.75
  0
LINE
  5
BDB
  8
AD4323
 62
     8
 10
141.3599432002149
 20
132.7853548189658
 30
0.0
 11
141.3599432002147
 21
132.0853548189655
 31
0.0
  0
LINE
  5
BDC
  8
AD4323
 62
     8
 10
144.8599432002151
 20
132.7853548189656
 30
0.0
 11
144.8599432002149
 21
132.0853548189651
 31
0.0
  0
LINE
  5
BDD
  8
AD4323
 62
     8
 10
142.75994320021459
 20
130.68535481896561
 30
0.0
 11
143.45994320021501
 21
130.68535481896521
 31
0.0
  0
LINE
  5
BDE
  8
AD4323
 62
     8
 10
143.45994320021501
 20
130.68535481896521
 30
0.0
 11
143.45994320021501
 21
131.24535481896541
 31
0.0
  0
LINE
  5
BDF
  8
AD4323
 62
     8
 10
143.45994320021501
 20
131.24535481896541
 30
0.0
 11
143.70494320021481
 21
131.84035481896549
 31
0.0
  0
LINE
  5
BE0
  8
AD4323
 62
     8
 10
143.70494320021481
 20
131.84035481896549
 30
0.0
 11
144.2999432002149
 21
132.0853548189651
 31
0.0
  0
LINE
  5
BE1
  8
AD4323
 62
     8
 10
144.2999432002149
 20
132.0853548189651
 30
0.0
 11
144.8599432002149
 21
132.0853548189651
 31
0.0
  0
LINE
  5
BE2
  8
AD4323
 62
     8
 10
141.3599432002147
 20
132.0853548189655
 30
0.0
 11
141.91994320021499
 21
132.0853548189655
 31
0.0
  0
LINE
  5
BE3
  8
AD4323
 62
     8
 10
141.91994320021499
 20
132.0853548189655
 30
0.0
 11
142.51494320021499
 21
131.84035481896569
 31
0.0
  0
LINE
  5
BE4
  8
AD4323
 62
     8
 10
142.51494320021499
 20
131.84035481896569
 30
0.0
 11
142.75994320021459
 21
131.24535481896561
 31
0.0
  0
LINE
  5
BE5
  8
AD4323
 62
     8
 10
142.75994320021459
 20
131.24535481896561
 30
0.0
 11
142.75994320021459
 21
130.68535481896561
 31
0.0
  0
LINE
  5
BE6
  8
AD4323
 62
     8
 10
142.75994320021479
 20
134.18535481896581
 30
0.0
 11
143.45994320021509
 21
134.18535481896561
 31
0.0
  0
LINE
  5
BE7
  8
AD4323
 62
     8
 10
142.75994320021479
 20
134.18535481896581
 30
0.0
 11
142.75994320021479
 21
133.62535481896549
 31
0.0
  0
LINE
  5
BE8
  8
AD4323
 62
     8
 10
142.75994320021479
 20
133.62535481896549
 30
0.0
 11
142.51494320021499
 21
133.03035481896541
 31
0.0
  0
LINE
  5
BE9
  8
AD4323
 62
     8
 10
142.51494320021499
 20
133.03035481896541
 30
0.0
 11
141.91994320021499
 21
132.7853548189658
 31
0.0
  0
LINE
  5
BEA
  8
AD4323
 62
     8
 10
141.91994320021499
 20
132.7853548189658
 30
0.0
 11
141.3599432002149
 21
132.7853548189658
 31
0.0
  0
LINE
  5
BEB
  8
AD4323
 62
     8
 10
143.45994320021509
 20
133.62535481896549
 30
0.0
 11
143.45994320021509
 21
134.18535481896561
 31
0.0
  0
LINE
  5
BEC
  8
AD4323
 62
     8
 10
143.70494320021481
 20
133.03035481896541
 30
0.0
 11
143.45994320021509
 21
133.62535481896549
 31
0.0
  0
LINE
  5
BED
  8
AD4323
 62
     8
 10
144.2999432002149
 20
132.7853548189656
 30
0.0
 11
143.70494320021481
 21
133.03035481896541
 31
0.0
  0
LINE
  5
BEE
  8
AD4323
 62
     8
 10
144.8599432002151
 20
132.7853548189656
 30
0.0
 11
144.2999432002149
 21
132.7853548189656
 31
0.0
  0
CIRCLE
  5
BEF
  8
AD4323
 62
     8
 10
143.1099432002149
 20
109.43535481896561
 30
0.0
 40
2.75
  0
LINE
  5
BF0
  8
AD4323
 62
     8
 10
141.3599432002149
 20
109.7853548189658
 30
0.0
 11
141.3599432002147
 21
109.0853548189655
 31
0.0
  0
LINE
  5
BF1
  8
AD4323
 62
     8
 10
144.8599432002151
 20
109.7853548189656
 30
0.0
 11
144.8599432002149
 21
109.0853548189651
 31
0.0
  0
LINE
  5
BF2
  8
AD4323
 62
     8
 10
142.75994320021459
 20
107.68535481896561
 30
0.0
 11
143.45994320021501
 21
107.68535481896519
 31
0.0
  0
LINE
  5
BF3
  8
AD4323
 62
     8
 10
143.45994320021501
 20
107.68535481896519
 30
0.0
 11
143.45994320021501
 21
108.2453548189654
 31
0.0
  0
LINE
  5
BF4
  8
AD4323
 62
     8
 10
143.45994320021501
 20
108.2453548189654
 30
0.0
 11
143.70494320021481
 21
108.84035481896549
 31
0.0
  0
LINE
  5
BF5
  8
AD4323
 62
     8
 10
143.70494320021481
 20
108.84035481896549
 30
0.0
 11
144.2999432002149
 21
109.0853548189651
 31
0.0
  0
LINE
  5
BF6
  8
AD4323
 62
     8
 10
144.2999432002149
 20
109.0853548189651
 30
0.0
 11
144.8599432002149
 21
109.0853548189651
 31
0.0
  0
LINE
  5
BF7
  8
AD4323
 62
     8
 10
141.3599432002147
 20
109.0853548189655
 30
0.0
 11
141.91994320021499
 21
109.0853548189655
 31
0.0
  0
LINE
  5
BF8
  8
AD4323
 62
     8
 10
141.91994320021499
 20
109.0853548189655
 30
0.0
 11
142.51494320021499
 21
108.84035481896569
 31
0.0
  0
LINE
  5
BF9
  8
AD4323
 62
     8
 10
142.51494320021499
 20
108.84035481896569
 30
0.0
 11
142.75994320021459
 21
108.24535481896559
 31
0.0
  0
LINE
  5
BFA
  8
AD4323
 62
     8
 10
142.75994320021459
 20
108.24535481896559
 30
0.0
 11
142.75994320021459
 21
107.68535481896561
 31
0.0
  0
LINE
  5
BFB
  8
AD4323
 62
     8
 10
142.75994320021479
 20
111.18535481896581
 30
0.0
 11
143.45994320021509
 21
111.18535481896561
 31
0.0
  0
LINE
  5
BFC
  8
AD4323
 62
     8
 10
142.75994320021479
 20
111.18535481896581
 30
0.0
 11
142.75994320021479
 21
110.6253548189655
 31
0.0
  0
LINE
  5
BFD
  8
AD4323
 62
     8
 10
142.75994320021479
 20
110.6253548189655
 30
0.0
 11
142.51494320021499
 21
110.03035481896541
 31
0.0
  0
LINE
  5
BFE
  8
AD4323
 62
     8
 10
142.51494320021499
 20
110.03035481896541
 30
0.0
 11
141.91994320021499
 21
109.7853548189658
 31
0.0
  0
LINE
  5
BFF
  8
AD4323
 62
     8
 10
141.91994320021499
 20
109.7853548189658
 30
0.0
 11
141.3599432002149
 21
109.7853548189658
 31
0.0
  0
LINE
  5
C00
  8
AD4323
 62
     8
 10
143.45994320021509
 20
110.6253548189655
 30
0.0
 11
143.45994320021509
 21
111.18535481896561
 31
0.0
  0
LINE
  5
C01
  8
AD4323
 62
     8
 10
143.70494320021481
 20
110.03035481896541
 30
0.0
 11
143.45994320021509
 21
110.6253548189655
 31
0.0
  0
LINE
  5
C02
  8
AD4323
 62
     8
 10
144.2999432002149
 20
109.7853548189656
 30
0.0
 11
143.70494320021481
 21
110.03035481896541
 31
0.0
  0
LINE
  5
C03
  8
AD4323
 62
     8
 10
144.8599432002151
 20
109.7853548189656
 30
0.0
 11
144.2999432002149
 21
109.7853548189656
 31
0.0
  0
CIRCLE
  5
C04
  8
AD4323
 62
     8
 10
164.10994320021399
 20
101.9353548189646
 30
0.0
 40
2.75
  0
LINE
  5
C05
  8
AD4323
 62
     8
 10
162.35994320021399
 20
102.2853548189649
 30
0.0
 11
162.35994320021379
 21
101.5853548189646
 31
0.0
  0
LINE
  5
C06
  8
AD4323
 62
     8
 10
165.85994320021419
 20
102.28535481896471
 30
0.0
 11
165.85994320021399
 21
101.58535481896421
 31
0.0
  0
LINE
  5
C07
  8
AD4323
 62
     8
 10
163.7599432002138
 20
100.1853548189646
 30
0.0
 11
164.4599432002141
 21
100.1853548189643
 31
0.0
  0
LINE
  5
C08
  8
AD4323
 62
     8
 10
164.4599432002141
 20
100.1853548189643
 30
0.0
 11
164.4599432002141
 21
100.7453548189645
 31
0.0
  0
LINE
  5
C09
  8
AD4323
 62
     8
 10
164.4599432002141
 20
100.7453548189645
 30
0.0
 11
164.7049432002139
 21
101.3403548189646
 31
0.0
  0
LINE
  5
C0A
  8
AD4323
 62
     8
 10
164.7049432002139
 20
101.3403548189646
 30
0.0
 11
165.2999432002139
 21
101.58535481896421
 31
0.0
  0
LINE
  5
C0B
  8
AD4323
 62
     8
 10
165.2999432002139
 20
101.58535481896421
 30
0.0
 11
165.85994320021399
 21
101.58535481896421
 31
0.0
  0
LINE
  5
C0C
  8
AD4323
 62
     8
 10
162.35994320021379
 20
101.5853548189646
 30
0.0
 11
162.91994320021411
 21
101.5853548189646
 31
0.0
  0
LINE
  5
C0D
  8
AD4323
 62
     8
 10
162.91994320021411
 20
101.5853548189646
 30
0.0
 11
163.51494320021411
 21
101.3403548189648
 31
0.0
  0
LINE
  5
C0E
  8
AD4323
 62
     8
 10
163.51494320021411
 20
101.3403548189648
 30
0.0
 11
163.7599432002138
 21
100.7453548189647
 31
0.0
  0
LINE
  5
C0F
  8
AD4323
 62
     8
 10
163.7599432002138
 20
100.7453548189647
 30
0.0
 11
163.7599432002138
 21
100.1853548189646
 31
0.0
  0
LINE
  5
C10
  8
AD4323
 62
     8
 10
163.75994320021391
 20
103.6853548189649
 30
0.0
 11
164.4599432002143
 21
103.6853548189647
 31
0.0
  0
LINE
  5
C11
  8
AD4323
 62
     8
 10
163.75994320021391
 20
103.6853548189649
 30
0.0
 11
163.75994320021391
 21
103.1253548189646
 31
0.0
  0
LINE
  5
C12
  8
AD4323
 62
     8
 10
163.75994320021391
 20
103.1253548189646
 30
0.0
 11
163.51494320021411
 21
102.5303548189645
 31
0.0
  0
LINE
  5
C13
  8
AD4323
 62
     8
 10
163.51494320021411
 20
102.5303548189645
 30
0.0
 11
162.91994320021411
 21
102.2853548189649
 31
0.0
  0
LINE
  5
C14
  8
AD4323
 62
     8
 10
162.91994320021411
 20
102.2853548189649
 30
0.0
 11
162.35994320021399
 21
102.2853548189649
 31
0.0
  0
LINE
  5
C15
  8
AD4323
 62
     8
 10
164.4599432002143
 20
103.1253548189646
 30
0.0
 11
164.4599432002143
 21
103.6853548189647
 31
0.0
  0
LINE
  5
C16
  8
AD4323
 62
     8
 10
164.7049432002139
 20
102.5303548189645
 30
0.0
 11
164.4599432002143
 21
103.1253548189646
 31
0.0
  0
LINE
  5
C17
  8
AD4323
 62
     8
 10
165.2999432002139
 20
102.28535481896471
 30
0.0
 11
164.7049432002139
 21
102.5303548189645
 31
0.0
  0
LINE
  5
C18
  8
AD4323
 62
     8
 10
165.85994320021419
 20
102.28535481896471
 30
0.0
 11
165.2999432002139
 21
102.28535481896471
 31
0.0
  0
CIRCLE
  5
C19
  8
AD4323
 62
     8
 10
164.10994320021399
 20
121.93535481896561
 30
0.0
 40
2.75
  0
LINE
  5
C1A
  8
AD4323
 62
     8
 10
162.35994320021399
 20
122.2853548189658
 30
0.0
 11
162.35994320021379
 21
121.5853548189655
 31
0.0
  0
LINE
  5
C1B
  8
AD4323
 62
     8
 10
165.85994320021419
 20
122.2853548189656
 30
0.0
 11
165.85994320021399
 21
121.5853548189651
 31
0.0
  0
LINE
  5
C1C
  8
AD4323
 62
     8
 10
163.7599432002138
 20
120.18535481896561
 30
0.0
 11
164.4599432002141
 21
120.18535481896519
 31
0.0
  0
LINE
  5
C1D
  8
AD4323
 62
     8
 10
164.4599432002141
 20
120.18535481896519
 30
0.0
 11
164.4599432002141
 21
120.7453548189654
 31
0.0
  0
LINE
  5
C1E
  8
AD4323
 62
     8
 10
164.4599432002141
 20
120.7453548189654
 30
0.0
 11
164.7049432002139
 21
121.34035481896549
 31
0.0
  0
LINE
  5
C1F
  8
AD4323
 62
     8
 10
164.7049432002139
 20
121.34035481896549
 30
0.0
 11
165.2999432002139
 21
121.5853548189651
 31
0.0
  0
LINE
  5
C20
  8
AD4323
 62
     8
 10
165.2999432002139
 20
121.5853548189651
 30
0.0
 11
165.85994320021399
 21
121.5853548189651
 31
0.0
  0
LINE
  5
C21
  8
AD4323
 62
     8
 10
162.35994320021379
 20
121.5853548189655
 30
0.0
 11
162.91994320021411
 21
121.5853548189655
 31
0.0
  0
LINE
  5
C22
  8
AD4323
 62
     8
 10
162.91994320021411
 20
121.5853548189655
 30
0.0
 11
163.51494320021411
 21
121.34035481896569
 31
0.0
  0
LINE
  5
C23
  8
AD4323
 62
     8
 10
163.51494320021411
 20
121.34035481896569
 30
0.0
 11
163.7599432002138
 21
120.74535481896559
 31
0.0
  0
LINE
  5
C24
  8
AD4323
 62
     8
 10
163.7599432002138
 20
120.74535481896559
 30
0.0
 11
163.7599432002138
 21
120.18535481896561
 31
0.0
  0
LINE
  5
C25
  8
AD4323
 62
     8
 10
163.75994320021391
 20
123.68535481896581
 30
0.0
 11
164.4599432002143
 21
123.68535481896561
 31
0.0
  0
LINE
  5
C26
  8
AD4323
 62
     8
 10
163.75994320021391
 20
123.68535481896581
 30
0.0
 11
163.75994320021391
 21
123.1253548189655
 31
0.0
  0
LINE
  5
C27
  8
AD4323
 62
     8
 10
163.75994320021391
 20
123.1253548189655
 30
0.0
 11
163.51494320021411
 21
122.53035481896541
 31
0.0
  0
LINE
  5
C28
  8
AD4323
 62
     8
 10
163.51494320021411
 20
122.53035481896541
 30
0.0
 11
162.91994320021411
 21
122.2853548189658
 31
0.0
  0
LINE
  5
C29
  8
AD4323
 62
     8
 10
162.91994320021411
 20
122.2853548189658
 30
0.0
 11
162.35994320021399
 21
122.2853548189658
 31
0.0
  0
LINE
  5
C2A
  8
AD4323
 62
     8
 10
164.4599432002143
 20
123.1253548189655
 30
0.0
 11
164.4599432002143
 21
123.68535481896561
 31
0.0
  0
LINE
  5
C2B
  8
AD4323
 62
     8
 10
164.7049432002139
 20
122.53035481896541
 30
0.0
 11
164.4599432002143
 21
123.1253548189655
 31
0.0
  0
LINE
  5
C2C
  8
AD4323
 62
     8
 10
165.2999432002139
 20
122.2853548189656
 30
0.0
 11
164.7049432002139
 21
122.53035481896541
 31
0.0
  0
LINE
  5
C2D
  8
AD4323
 62
     8
 10
165.85994320021419
 20
122.2853548189656
 30
0.0
 11
165.2999432002139
 21
122.2853548189656
 31
0.0
  0
CIRCLE
  5
C2E
  8
AD4323
 62
     8
 10
183.10994320021399
 20
121.93535481896561
 30
0.0
 40
2.75
  0
LINE
  5
C2F
  8
AD4323
 62
     8
 10
181.35994320021399
 20
122.2853548189658
 30
0.0
 11
181.35994320021379
 21
121.5853548189655
 31
0.0
  0
LINE
  5
C30
  8
AD4323
 62
     8
 10
184.85994320021419
 20
122.2853548189656
 30
0.0
 11
184.85994320021399
 21
121.5853548189651
 31
0.0
  0
LINE
  5
C31
  8
AD4323
 62
     8
 10
182.7599432002138
 20
120.18535481896561
 30
0.0
 11
183.4599432002141
 21
120.18535481896519
 31
0.0
  0
LINE
  5
C32
  8
AD4323
 62
     8
 10
183.4599432002141
 20
120.18535481896519
 30
0.0
 11
183.4599432002141
 21
120.7453548189654
 31
0.0
  0
LINE
  5
C33
  8
AD4323
 62
     8
 10
183.4599432002141
 20
120.7453548189654
 30
0.0
 11
183.7049432002139
 21
121.34035481896549
 31
0.0
  0
LINE
  5
C34
  8
AD4323
 62
     8
 10
183.7049432002139
 20
121.34035481896549
 30
0.0
 11
184.2999432002139
 21
121.5853548189651
 31
0.0
  0
LINE
  5
C35
  8
AD4323
 62
     8
 10
184.2999432002139
 20
121.5853548189651
 30
0.0
 11
184.85994320021399
 21
121.5853548189651
 31
0.0
  0
LINE
  5
C36
  8
AD4323
 62
     8
 10
181.35994320021379
 20
121.5853548189655
 30
0.0
 11
181.91994320021411
 21
121.5853548189655
 31
0.0
  0
LINE
  5
C37
  8
AD4323
 62
     8
 10
181.91994320021411
 20
121.5853548189655
 30
0.0
 11
182.51494320021419
 21
121.34035481896569
 31
0.0
  0
LINE
  5
C38
  8
AD4323
 62
     8
 10
182.51494320021419
 20
121.34035481896569
 30
0.0
 11
182.7599432002138
 21
120.74535481896559
 31
0.0
  0
LINE
  5
C39
  8
AD4323
 62
     8
 10
182.7599432002138
 20
120.74535481896559
 30
0.0
 11
182.7599432002138
 21
120.18535481896561
 31
0.0
  0
LINE
  5
C3A
  8
AD4323
 62
     8
 10
182.75994320021391
 20
123.68535481896581
 30
0.0
 11
183.4599432002143
 21
123.68535481896561
 31
0.0
  0
LINE
  5
C3B
  8
AD4323
 62
     8
 10
182.75994320021391
 20
123.68535481896581
 30
0.0
 11
182.75994320021391
 21
123.1253548189655
 31
0.0
  0
LINE
  5
C3C
  8
AD4323
 62
     8
 10
182.75994320021391
 20
123.1253548189655
 30
0.0
 11
182.51494320021419
 21
122.53035481896541
 31
0.0
  0
LINE
  5
C3D
  8
AD4323
 62
     8
 10
182.51494320021419
 20
122.53035481896541
 30
0.0
 11
181.91994320021411
 21
122.2853548189658
 31
0.0
  0
LINE
  5
C3E
  8
AD4323
 62
     8
 10
181.91994320021411
 20
122.2853548189658
 30
0.0
 11
181.35994320021399
 21
122.2853548189658
 31
0.0
  0
LINE
  5
C3F
  8
AD4323
 62
     8
 10
183.4599432002143
 20
123.1253548189655
 30
0.0
 11
183.4599432002143
 21
123.68535481896561
 31
0.0
  0
LINE
  5
C40
  8
AD4323
 62
     8
 10
183.7049432002139
 20
122.53035481896541
 30
0.0
 11
183.4599432002143
 21
123.1253548189655
 31
0.0
  0
LINE
  5
C41
  8
AD4323
 62
     8
 10
184.2999432002139
 20
122.2853548189656
 30
0.0
 11
183.7049432002139
 21
122.53035481896541
 31
0.0
  0
LINE
  5
C42
  8
AD4323
 62
     8
 10
184.85994320021419
 20
122.2853548189656
 30
0.0
 11
184.2999432002139
 21
122.2853548189656
 31
0.0
  0
CIRCLE
  5
C43
  8
AD4323
 62
     8
 10
173.60994320021581
 20
142.93535481896561
 30
0.0
 40
2.75
  0
LINE
  5
C44
  8
AD4323
 62
     8
 10
171.85994320021581
 20
143.2853548189658
 30
0.0
 11
171.85994320021561
 21
142.5853548189655
 31
0.0
  0
LINE
  5
C45
  8
AD4323
 62
     8
 10
175.35994320021609
 20
143.2853548189656
 30
0.0
 11
175.35994320021581
 21
142.5853548189651
 31
0.0
  0
LINE
  5
C46
  8
AD4323
 62
     8
 10
173.25994320021559
 20
141.18535481896561
 30
0.0
 11
173.95994320021589
 21
141.18535481896521
 31
0.0
  0
LINE
  5
C47
  8
AD4323
 62
     8
 10
173.95994320021589
 20
141.18535481896521
 30
0.0
 11
173.95994320021589
 21
141.7453548189655
 31
0.0
  0
LINE
  5
C48
  8
AD4323
 62
     8
 10
173.95994320021589
 20
141.7453548189655
 30
0.0
 11
174.20494320021569
 21
142.34035481896549
 31
0.0
  0
LINE
  5
C49
  8
AD4323
 62
     8
 10
174.20494320021569
 20
142.34035481896549
 30
0.0
 11
174.79994320021581
 21
142.5853548189651
 31
0.0
  0
LINE
  5
C4A
  8
AD4323
 62
     8
 10
174.79994320021581
 20
142.5853548189651
 30
0.0
 11
175.35994320021581
 21
142.5853548189651
 31
0.0
  0
LINE
  5
C4B
  8
AD4323
 62
     8
 10
171.85994320021561
 20
142.5853548189655
 30
0.0
 11
172.4199432002159
 21
142.5853548189655
 31
0.0
  0
LINE
  5
C4C
  8
AD4323
 62
     8
 10
172.4199432002159
 20
142.5853548189655
 30
0.0
 11
173.01494320021601
 21
142.34035481896569
 31
0.0
  0
LINE
  5
C4D
  8
AD4323
 62
     8
 10
173.01494320021601
 20
142.34035481896569
 30
0.0
 11
173.25994320021559
 21
141.74535481896569
 31
0.0
  0
LINE
  5
C4E
  8
AD4323
 62
     8
 10
173.25994320021559
 20
141.74535481896569
 30
0.0
 11
173.25994320021559
 21
141.18535481896561
 31
0.0
  0
LINE
  5
C4F
  8
AD4323
 62
     8
 10
173.2599432002157
 20
144.68535481896581
 30
0.0
 11
173.95994320021609
 21
144.68535481896561
 31
0.0
  0
LINE
  5
C50
  8
AD4323
 62
     8
 10
173.2599432002157
 20
144.68535481896581
 30
0.0
 11
173.2599432002157
 21
144.12535481896549
 31
0.0
  0
LINE
  5
C51
  8
AD4323
 62
     8
 10
173.2599432002157
 20
144.12535481896549
 30
0.0
 11
173.01494320021601
 21
143.53035481896541
 31
0.0
  0
LINE
  5
C52
  8
AD4323
 62
     8
 10
173.01494320021601
 20
143.53035481896541
 30
0.0
 11
172.4199432002159
 21
143.2853548189658
 31
0.0
  0
LINE
  5
C53
  8
AD4323
 62
     8
 10
172.4199432002159
 20
143.2853548189658
 30
0.0
 11
171.85994320021581
 21
143.2853548189658
 31
0.0
  0
LINE
  5
C54
  8
AD4323
 62
     8
 10
173.95994320021609
 20
144.12535481896549
 30
0.0
 11
173.95994320021609
 21
144.68535481896561
 31
0.0
  0
LINE
  5
C55
  8
AD4323
 62
     8
 10
174.20494320021569
 20
143.53035481896541
 30
0.0
 11
173.95994320021609
 21
144.12535481896549
 31
0.0
  0
LINE
  5
C56
  8
AD4323
 62
     8
 10
174.79994320021581
 20
143.2853548189656
 30
0.0
 11
174.20494320021569
 21
143.53035481896541
 31
0.0
  0
LINE
  5
C57
  8
AD4323
 62
     8
 10
175.35994320021609
 20
143.2853548189656
 30
0.0
 11
174.79994320021581
 21
143.2853548189656
 31
0.0
  0
LINE
  5
C59
  8
AD4323
 62
     8
 10
218.8599432002149
 20
122.2853548189658
 30
0.0
 11
218.8599432002147
 21
121.5853548189655
 31
0.0
  0
LINE
  5
C5A
  8
AD4323
 62
     8
 10
222.3599432002151
 20
122.2853548189656
 30
0.0
 11
222.3599432002149
 21
121.5853548189651
 31
0.0
  0
LINE
  5
C5B
  8
AD4323
 62
     8
 10
220.25994320021471
 20
120.18535481896561
 30
0.0
 11
220.95994320021501
 21
120.18535481896519
 31
0.0
  0
LINE
  5
C5C
  8
AD4323
 62
     8
 10
220.95994320021501
 20
120.18535481896519
 30
0.0
 11
220.95994320021501
 21
120.7453548189654
 31
0.0
  0
LINE
  5
C5D
  8
AD4323
 62
     8
 10
220.95994320021501
 20
120.7453548189654
 30
0.0
 11
221.20494320021481
 21
121.34035481896549
 31
0.0
  0
LINE
  5
C5E
  8
AD4323
 62
     8
 10
221.20494320021481
 20
121.34035481896549
 30
0.0
 11
221.79994320021481
 21
121.5853548189651
 31
0.0
  0
LINE
  5
C5F
  8
AD4323
 62
     8
 10
221.79994320021481
 20
121.5853548189651
 30
0.0
 11
222.3599432002149
 21
121.5853548189651
 31
0.0
  0
LINE
  5
C60
  8
AD4323
 62
     8
 10
218.8599432002147
 20
121.5853548189655
 30
0.0
 11
219.41994320021499
 21
121.5853548189655
 31
0.0
  0
LINE
  5
C61
  8
AD4323
 62
     8
 10
219.41994320021499
 20
121.5853548189655
 30
0.0
 11
220.0149432002151
 21
121.34035481896569
 31
0.0
  0
LINE
  5
C62
  8
AD4323
 62
     8
 10
220.0149432002151
 20
121.34035481896569
 30
0.0
 11
220.25994320021471
 21
120.74535481896559
 31
0.0
  0
LINE
  5
C63
  8
AD4323
 62
     8
 10
220.25994320021471
 20
120.74535481896559
 30
0.0
 11
220.25994320021471
 21
120.18535481896561
 31
0.0
  0
LINE
  5
C64
  8
AD4323
 62
     8
 10
220.25994320021479
 20
123.68535481896581
 30
0.0
 11
220.95994320021521
 21
123.68535481896561
 31
0.0
  0
LINE
  5
C65
  8
AD4323
 62
     8
 10
220.25994320021479
 20
123.68535481896581
 30
0.0
 11
220.25994320021479
 21
123.1253548189655
 31
0.0
  0
LINE
  5
C66
  8
AD4323
 62
     8
 10
220.25994320021479
 20
123.1253548189655
 30
0.0
 11
220.0149432002151
 21
122.53035481896541
 31
0.0
  0
LINE
  5
C67
  8
AD4323
 62
     8
 10
220.0149432002151
 20
122.53035481896541
 30
0.0
 11
219.41994320021499
 21
122.2853548189658
 31
0.0
  0
LINE
  5
C68
  8
AD4323
 62
     8
 10
219.41994320021499
 20
122.2853548189658
 30
0.0
 11
218.8599432002149
 21
122.2853548189658
 31
0.0
  0
LINE
  5
C69
  8
AD4323
 62
     8
 10
220.95994320021521
 20
123.1253548189655
 30
0.0
 11
220.95994320021521
 21
123.68535481896561
 31
0.0
  0
LINE
  5
C6A
  8
AD4323
 62
     8
 10
221.20494320021481
 20
122.53035481896541
 30
0.0
 11
220.95994320021521
 21
123.1253548189655
 31
0.0
  0
LINE
  5
C6B
  8
AD4323
 62
     8
 10
221.79994320021481
 20
122.2853548189656
 30
0.0
 11
221.20494320021481
 21
122.53035481896541
 31
0.0
  0
LINE
  5
C6C
  8
AD4323
 62
     8
 10
222.3599432002151
 20
122.2853548189656
 30
0.0
 11
221.79994320021481
 21
122.2853548189656
 31
0.0
  0
CIRCLE
  5
C6D
  8
AD4323
 62
     8
 10
218.6099432002149
 20
101.9353548189646
 30
0.0
 40
2.75
  0
LINE
  5
C6E
  8
AD4323
 62
     8
 10
216.8599432002149
 20
102.2853548189649
 30
0.0
 11
216.8599432002147
 21
101.5853548189646
 31
0.0
  0
LINE
  5
C6F
  8
AD4323
 62
     8
 10
220.3599432002151
 20
102.28535481896471
 30
0.0
 11
220.3599432002149
 21
101.58535481896421
 31
0.0
  0
LINE
  5
C70
  8
AD4323
 62
     8
 10
218.25994320021471
 20
100.1853548189646
 30
0.0
 11
218.95994320021501
 21
100.1853548189643
 31
0.0
  0
LINE
  5
C71
  8
AD4323
 62
     8
 10
218.95994320021501
 20
100.1853548189643
 30
0.0
 11
218.95994320021501
 21
100.7453548189645
 31
0.0
  0
LINE
  5
C72
  8
AD4323
 62
     8
 10
218.95994320021501
 20
100.7453548189645
 30
0.0
 11
219.20494320021481
 21
101.3403548189646
 31
0.0
  0
LINE
  5
C73
  8
AD4323
 62
     8
 10
219.20494320021481
 20
101.3403548189646
 30
0.0
 11
219.79994320021481
 21
101.58535481896421
 31
0.0
  0
LINE
  5
C74
  8
AD4323
 62
     8
 10
219.79994320021481
 20
101.58535481896421
 30
0.0
 11
220.3599432002149
 21
101.58535481896421
 31
0.0
  0
LINE
  5
C75
  8
AD4323
 62
     8
 10
216.8599432002147
 20
101.5853548189646
 30
0.0
 11
217.41994320021499
 21
101.5853548189646
 31
0.0
  0
LINE
  5
C76
  8
AD4323
 62
     8
 10
217.41994320021499
 20
101.5853548189646
 30
0.0
 11
218.0149432002151
 21
101.3403548189648
 31
0.0
  0
LINE
  5
C77
  8
AD4323
 62
     8
 10
218.0149432002151
 20
101.3403548189648
 30
0.0
 11
218.25994320021471
 21
100.7453548189647
 31
0.0
  0
LINE
  5
C78
  8
AD4323
 62
     8
 10
218.25994320021471
 20
100.7453548189647
 30
0.0
 11
218.25994320021471
 21
100.1853548189646
 31
0.0
  0
LINE
  5
C79
  8
AD4323
 62
     8
 10
218.25994320021479
 20
103.6853548189649
 30
0.0
 11
218.95994320021521
 21
103.6853548189647
 31
0.0
  0
LINE
  5
C7A
  8
AD4323
 62
     8
 10
218.25994320021479
 20
103.6853548189649
 30
0.0
 11
218.25994320021479
 21
103.1253548189646
 31
0.0
  0
LINE
  5
C7B
  8
AD4323
 62
     8
 10
218.25994320021479
 20
103.1253548189646
 30
0.0
 11
218.0149432002151
 21
102.5303548189645
 31
0.0
  0
LINE
  5
C7C
  8
AD4323
 62
     8
 10
218.0149432002151
 20
102.5303548189645
 30
0.0
 11
217.41994320021499
 21
102.2853548189649
 31
0.0
  0
LINE
  5
C7D
  8
AD4323
 62
     8
 10
217.41994320021499
 20
102.2853548189649
 30
0.0
 11
216.8599432002149
 21
102.2853548189649
 31
0.0
  0
LINE
  5
C7E
  8
AD4323
 62
     8
 10
218.95994320021521
 20
103.1253548189646
 30
0.0
 11
218.95994320021521
 21
103.6853548189647
 31
0.0
  0
LINE
  5
C7F
  8
AD4323
 62
     8
 10
219.20494320021481
 20
102.5303548189645
 30
0.0
 11
218.95994320021521
 21
103.1253548189646
 31
0.0
  0
LINE
  5
C80
  8
AD4323
 62
     8
 10
219.79994320021481
 20
102.28535481896471
 30
0.0
 11
219.20494320021481
 21
102.5303548189645
 31
0.0
  0
LINE
  5
C81
  8
AD4323
 62
     8
 10
220.3599432002151
 20
102.28535481896471
 30
0.0
 11
219.79994320021481
 21
102.28535481896471
 31
0.0
  0
CIRCLE
  5
C82
  8
AD4323
 62
     8
 10
208.6099432002149
 20
87.735354818965774
 30
0.0
 40
2.75
  0
LINE
  5
C83
  8
AD4323
 62
     8
 10
206.8599432002149
 20
88.085354818966067
 30
0.0
 11
206.8599432002147
 21
87.385354818965709
 31
0.0
  0
LINE
  5
C84
  8
AD4323
 62
     8
 10
210.3599432002151
 20
88.085354818965868
 30
0.0
 11
210.3599432002149
 21
87.385354818965325
 31
0.0
  0
LINE
  5
C85
  8
AD4323
 62
     8
 10
208.25994320021471
 20
85.985354818965789
 30
0.0
 11
208.95994320021501
 21
85.985354818965376
 31
0.0
  0
LINE
  5
C86
  8
AD4323
 62
     8
 10
208.95994320021501
 20
85.985354818965376
 30
0.0
 11
208.95994320021501
 21
86.545354818965677
 31
0.0
  0
LINE
  5
C87
  8
AD4323
 62
     8
 10
208.95994320021501
 20
86.545354818965677
 30
0.0
 11
209.20494320021481
 21
87.140354818965733
 31
0.0
  0
LINE
  5
C88
  8
AD4323
 62
     8
 10
209.20494320021481
 20
87.140354818965733
 30
0.0
 11
209.79994320021481
 21
87.385354818965325
 31
0.0
  0
LINE
  5
C89
  8
AD4323
 62
     8
 10
209.79994320021481
 20
87.385354818965325
 30
0.0
 11
210.3599432002149
 21
87.385354818965325
 31
0.0
  0
LINE
  5
C8A
  8
AD4323
 62
     8
 10
206.8599432002147
 20
87.385354818965709
 30
0.0
 11
207.41994320021499
 21
87.385354818965709
 31
0.0
  0
LINE
  5
C8B
  8
AD4323
 62
     8
 10
207.41994320021499
 20
87.385354818965709
 30
0.0
 11
208.01494320021499
 21
87.140354818965918
 31
0.0
  0
LINE
  5
C8C
  8
AD4323
 62
     8
 10
208.01494320021499
 20
87.140354818965918
 30
0.0
 11
208.25994320021471
 21
86.545354818965876
 31
0.0
  0
LINE
  5
C8D
  8
AD4323
 62
     8
 10
208.25994320021471
 20
86.545354818965876
 30
0.0
 11
208.25994320021471
 21
85.985354818965789
 31
0.0
  0
LINE
  5
C8E
  8
AD4323
 62
     8
 10
208.25994320021479
 20
89.485354818965973
 30
0.0
 11
208.95994320021521
 21
89.485354818965789
 31
0.0
  0
LINE
  5
C8F
  8
AD4323
 62
     8
 10
208.25994320021479
 20
89.485354818965973
 30
0.0
 11
208.25994320021479
 21
88.925354818965715
 31
0.0
  0
LINE
  5
C90
  8
AD4323
 62
     8
 10
208.25994320021479
 20
88.925354818965715
 30
0.0
 11
208.01494320021499
 21
88.330354818965645
 31
0.0
  0
LINE
  5
C91
  8
AD4323
 62
     8
 10
208.01494320021499
 20
88.330354818965645
 30
0.0
 11
207.41994320021499
 21
88.085354818966067
 31
0.0
  0
LINE
  5
C92
  8
AD4323
 62
     8
 10
207.41994320021499
 20
88.085354818966067
 30
0.0
 11
206.8599432002149
 21
88.085354818966067
 31
0.0
  0
LINE
  5
C93
  8
AD4323
 62
     8
 10
208.95994320021521
 20
88.925354818965715
 30
0.0
 11
208.95994320021521
 21
89.485354818965789
 31
0.0
  0
LINE
  5
C94
  8
AD4323
 62
     8
 10
209.20494320021481
 20
88.330354818965645
 30
0.0
 11
208.95994320021521
 21
88.925354818965715
 31
0.0
  0
LINE
  5
C95
  8
AD4323
 62
     8
 10
209.79994320021481
 20
88.085354818965868
 30
0.0
 11
209.20494320021481
 21
88.330354818965645
 31
0.0
  0
LINE
  5
C96
  8
AD4323
 62
     8
 10
210.3599432002151
 20
88.085354818965868
 30
0.0
 11
209.79994320021481
 21
88.085354818965868
 31
0.0
  0
CIRCLE
  5
C97
  8
AD4323
 62
     8
 10
254.6099432002149
 20
101.9353548189646
 30
0.0
 40
2.75
  0
LINE
  5
C98
  8
AD4323
 62
     8
 10
252.8599432002149
 20
102.2853548189649
 30
0.0
 11
252.8599432002147
 21
101.5853548189646
 31
0.0
  0
LINE
  5
C99
  8
AD4323
 62
     8
 10
256.35994320021513
 20
102.28535481896471
 30
0.0
 11
256.3599432002149
 21
101.58535481896421
 31
0.0
  0
LINE
  5
C9A
  8
AD4323
 62
     8
 10
254.25994320021459
 20
100.1853548189646
 30
0.0
 11
254.95994320021501
 21
100.1853548189643
 31
0.0
  0
LINE
  5
C9B
  8
AD4323
 62
     8
 10
254.95994320021501
 20
100.1853548189643
 30
0.0
 11
254.95994320021501
 21
100.7453548189645
 31
0.0
  0
LINE
  5
C9C
  8
AD4323
 62
     8
 10
254.95994320021501
 20
100.7453548189645
 30
0.0
 11
255.20494320021481
 21
101.3403548189646
 31
0.0
  0
LINE
  5
C9D
  8
AD4323
 62
     8
 10
255.20494320021481
 20
101.3403548189646
 30
0.0
 11
255.79994320021481
 21
101.58535481896421
 31
0.0
  0
LINE
  5
C9E
  8
AD4323
 62
     8
 10
255.79994320021481
 20
101.58535481896421
 30
0.0
 11
256.3599432002149
 21
101.58535481896421
 31
0.0
  0
LINE
  5
C9F
  8
AD4323
 62
     8
 10
252.8599432002147
 20
101.5853548189646
 30
0.0
 11
253.41994320021499
 21
101.5853548189646
 31
0.0
  0
LINE
  5
CA0
  8
AD4323
 62
     8
 10
253.41994320021499
 20
101.5853548189646
 30
0.0
 11
254.01494320021499
 21
101.3403548189648
 31
0.0
  0
LINE
  5
CA1
  8
AD4323
 62
     8
 10
254.01494320021499
 20
101.3403548189648
 30
0.0
 11
254.25994320021459
 21
100.7453548189647
 31
0.0
  0
LINE
  5
CA2
  8
AD4323
 62
     8
 10
254.25994320021459
 20
100.7453548189647
 30
0.0
 11
254.25994320021459
 21
100.1853548189646
 31
0.0
  0
LINE
  5
CA3
  8
AD4323
 62
     8
 10
254.25994320021479
 20
103.6853548189649
 30
0.0
 11
254.95994320021509
 21
103.6853548189647
 31
0.0
  0
LINE
  5
CA4
  8
AD4323
 62
     8
 10
254.25994320021479
 20
103.6853548189649
 30
0.0
 11
254.25994320021479
 21
103.1253548189646
 31
0.0
  0
LINE
  5
CA5
  8
AD4323
 62
     8
 10
254.25994320021479
 20
103.1253548189646
 30
0.0
 11
254.01494320021499
 21
102.5303548189645
 31
0.0
  0
LINE
  5
CA6
  8
AD4323
 62
     8
 10
254.01494320021499
 20
102.5303548189645
 30
0.0
 11
253.41994320021499
 21
102.2853548189649
 31
0.0
  0
LINE
  5
CA7
  8
AD4323
 62
     8
 10
253.41994320021499
 20
102.2853548189649
 30
0.0
 11
252.8599432002149
 21
102.2853548189649
 31
0.0
  0
LINE
  5
CA8
  8
AD4323
 62
     8
 10
254.95994320021509
 20
103.1253548189646
 30
0.0
 11
254.95994320021509
 21
103.6853548189647
 31
0.0
  0
LINE
  5
CA9
  8
AD4323
 62
     8
 10
255.20494320021481
 20
102.5303548189645
 30
0.0
 11
254.95994320021509
 21
103.1253548189646
 31
0.0
  0
LINE
  5
CAA
  8
AD4323
 62
     8
 10
255.79994320021481
 20
102.28535481896471
 30
0.0
 11
255.20494320021481
 21
102.5303548189645
 31
0.0
  0
LINE
  5
CAB
  8
AD4323
 62
     8
 10
256.35994320021513
 20
102.28535481896471
 30
0.0
 11
255.79994320021481
 21
102.28535481896471
 31
0.0
  0
CIRCLE
  5
CAC
  8
AD4323
 62
     8
 10
264.6099432002149
 20
101.9353548189646
 30
0.0
 40
2.75
  0
LINE
  5
CAD
  8
AD4323
 62
     8
 10
262.8599432002149
 20
102.2853548189649
 30
0.0
 11
262.85994320021467
 21
101.5853548189646
 31
0.0
  0
LINE
  5
CAE
  8
AD4323
 62
     8
 10
266.35994320021513
 20
102.28535481896471
 30
0.0
 11
266.3599432002149
 21
101.58535481896421
 31
0.0
  0
LINE
  5
CAF
  8
AD4323
 62
     8
 10
264.25994320021471
 20
100.1853548189646
 30
0.0
 11
264.95994320021498
 21
100.1853548189643
 31
0.0
  0
LINE
  5
CB0
  8
AD4323
 62
     8
 10
264.95994320021498
 20
100.1853548189643
 30
0.0
 11
264.95994320021498
 21
100.7453548189645
 31
0.0
  0
LINE
  5
CB1
  8
AD4323
 62
     8
 10
264.95994320021498
 20
100.7453548189645
 30
0.0
 11
265.20494320021481
 21
101.3403548189646
 31
0.0
  0
LINE
  5
CB2
  8
AD4323
 62
     8
 10
265.20494320021481
 20
101.3403548189646
 30
0.0
 11
265.79994320021478
 21
101.58535481896421
 31
0.0
  0
LINE
  5
CB3
  8
AD4323
 62
     8
 10
265.79994320021478
 20
101.58535481896421
 30
0.0
 11
266.3599432002149
 21
101.58535481896421
 31
0.0
  0
LINE
  5
CB4
  8
AD4323
 62
     8
 10
262.85994320021467
 20
101.5853548189646
 30
0.0
 11
263.41994320021502
 21
101.5853548189646
 31
0.0
  0
LINE
  5
CB5
  8
AD4323
 62
     8
 10
263.41994320021502
 20
101.5853548189646
 30
0.0
 11
264.0149432002151
 21
101.3403548189648
 31
0.0
  0
LINE
  5
CB6
  8
AD4323
 62
     8
 10
264.0149432002151
 20
101.3403548189648
 30
0.0
 11
264.25994320021471
 21
100.7453548189647
 31
0.0
  0
LINE
  5
CB7
  8
AD4323
 62
     8
 10
264.25994320021471
 20
100.7453548189647
 30
0.0
 11
264.25994320021471
 21
100.1853548189646
 31
0.0
  0
LINE
  5
CB8
  8
AD4323
 62
     8
 10
264.25994320021482
 20
103.6853548189649
 30
0.0
 11
264.95994320021521
 21
103.6853548189647
 31
0.0
  0
LINE
  5
CB9
  8
AD4323
 62
     8
 10
264.25994320021482
 20
103.6853548189649
 30
0.0
 11
264.25994320021482
 21
103.1253548189646
 31
0.0
  0
LINE
  5
CBA
  8
AD4323
 62
     8
 10
264.25994320021482
 20
103.1253548189646
 30
0.0
 11
264.0149432002151
 21
102.5303548189645
 31
0.0
  0
LINE
  5
CBB
  8
AD4323
 62
     8
 10
264.0149432002151
 20
102.5303548189645
 30
0.0
 11
263.41994320021502
 21
102.2853548189649
 31
0.0
  0
LINE
  5
CBC
  8
AD4323
 62
     8
 10
263.41994320021502
 20
102.2853548189649
 30
0.0
 11
262.8599432002149
 21
102.2853548189649
 31
0.0
  0
LINE
  5
CBD
  8
AD4323
 62
     8
 10
264.95994320021521
 20
103.1253548189646
 30
0.0
 11
264.95994320021521
 21
103.6853548189647
 31
0.0
  0
LINE
  5
CBE
  8
AD4323
 62
     8
 10
265.20494320021481
 20
102.5303548189645
 30
0.0
 11
264.95994320021521
 21
103.1253548189646
 31
0.0
  0
LINE
  5
CBF
  8
AD4323
 62
     8
 10
265.79994320021478
 20
102.28535481896471
 30
0.0
 11
265.20494320021481
 21
102.5303548189645
 31
0.0
  0
LINE
  5
CC0
  8
AD4323
 62
     8
 10
266.35994320021513
 20
102.28535481896471
 30
0.0
 11
265.79994320021478
 21
102.28535481896471
 31
0.0
  0
CIRCLE
  5
CC1
  8
AD4323
 62
     8
 10
264.6099432002149
 20
87.735354818965774
 30
0.0
 40
2.75
  0
LINE
  5
CC2
  8
AD4323
 62
     8
 10
262.8599432002149
 20
88.085354818966067
 30
0.0
 11
262.85994320021467
 21
87.385354818965709
 31
0.0
  0
LINE
  5
CC3
  8
AD4323
 62
     8
 10
266.35994320021513
 20
88.085354818965868
 30
0.0
 11
266.3599432002149
 21
87.385354818965325
 31
0.0
  0
LINE
  5
CC4
  8
AD4323
 62
     8
 10
264.25994320021471
 20
85.985354818965789
 30
0.0
 11
264.95994320021498
 21
85.985354818965376
 31
0.0
  0
LINE
  5
CC5
  8
AD4323
 62
     8
 10
264.95994320021498
 20
85.985354818965376
 30
0.0
 11
264.95994320021498
 21
86.545354818965677
 31
0.0
  0
LINE
  5
CC6
  8
AD4323
 62
     8
 10
264.95994320021498
 20
86.545354818965677
 30
0.0
 11
265.20494320021481
 21
87.140354818965733
 31
0.0
  0
LINE
  5
CC7
  8
AD4323
 62
     8
 10
265.20494320021481
 20
87.140354818965733
 30
0.0
 11
265.79994320021478
 21
87.385354818965325
 31
0.0
  0
LINE
  5
CC8
  8
AD4323
 62
     8
 10
265.79994320021478
 20
87.385354818965325
 30
0.0
 11
266.3599432002149
 21
87.385354818965325
 31
0.0
  0
LINE
  5
CC9
  8
AD4323
 62
     8
 10
262.85994320021467
 20
87.385354818965709
 30
0.0
 11
263.41994320021502
 21
87.385354818965709
 31
0.0
  0
LINE
  5
CCA
  8
AD4323
 62
     8
 10
263.41994320021502
 20
87.385354818965709
 30
0.0
 11
264.0149432002151
 21
87.140354818965918
 31
0.0
  0
LINE
  5
CCB
  8
AD4323
 62
     8
 10
264.0149432002151
 20
87.140354818965918
 30
0.0
 11
264.25994320021471
 21
86.545354818965876
 31
0.0
  0
LINE
  5
CCC
  8
AD4323
 62
     8
 10
264.25994320021471
 20
86.545354818965876
 30
0.0
 11
264.25994320021471
 21
85.985354818965789
 31
0.0
  0
LINE
  5
CCD
  8
AD4323
 62
     8
 10
264.25994320021482
 20
89.485354818965973
 30
0.0
 11
264.95994320021521
 21
89.485354818965789
 31
0.0
  0
LINE
  5
CCE
  8
AD4323
 62
     8
 10
264.25994320021482
 20
89.485354818965973
 30
0.0
 11
264.25994320021482
 21
88.925354818965715
 31
0.0
  0
LINE
  5
CCF
  8
AD4323
 62
     8
 10
264.25994320021482
 20
88.925354818965715
 30
0.0
 11
264.0149432002151
 21
88.330354818965645
 31
0.0
  0
LINE
  5
CD0
  8
AD4323
 62
     8
 10
264.0149432002151
 20
88.330354818965645
 30
0.0
 11
263.41994320021502
 21
88.085354818966067
 31
0.0
  0
LINE
  5
CD1
  8
AD4323
 62
     8
 10
263.41994320021502
 20
88.085354818966067
 30
0.0
 11
262.8599432002149
 21
88.085354818966067
 31
0.0
  0
LINE
  5
CD2
  8
AD4323
 62
     8
 10
264.95994320021521
 20
88.925354818965715
 30
0.0
 11
264.95994320021521
 21
89.485354818965789
 31
0.0
  0
LINE
  5
CD3
  8
AD4323
 62
     8
 10
265.20494320021481
 20
88.330354818965645
 30
0.0
 11
264.95994320021521
 21
88.925354818965715
 31
0.0
  0
LINE
  5
CD4
  8
AD4323
 62
     8
 10
265.79994320021478
 20
88.085354818965868
 30
0.0
 11
265.20494320021481
 21
88.330354818965645
 31
0.0
  0
LINE
  5
CD5
  8
AD4323
 62
     8
 10
266.35994320021513
 20
88.085354818965868
 30
0.0
 11
265.79994320021478
 21
88.085354818965868
 31
0.0
  0
LINE
  5
CD6
  8
AD4323
 62
     8
 10
274.0039432002157
 20
82.525354818965951
 30
0.0
 11
274.65994320021582
 21
82.525354818965951
 31
0.0
  0
LINE
  5
CD7
  8
AD4323
 62
     8
 10
274.65994320021599
 20
83.345354818966598
 30
0.0
 11
274.0039432002157
 21
83.345354818966598
 31
0.0
  0
CIRCLE
  5
CD8
  8
AD4323
 62
     8
 10
272.60994320021581
 20
82.935354818966516
 30
0.0
 40
3.5
  0
LINE
  5
CD9
  8
AD4323
 62
     8
 10
270.5599432002158
 20
83.345354818966854
 30
0.0
 11
270.55994320021563
 21
82.525354818966434
 31
0.0
  0
LINE
  5
CDA
  8
AD4323
 62
     8
 10
273.01994320021589
 20
81.541354818966397
 30
0.0
 11
273.3069432002157
 21
82.238354818966457
 31
0.0
  0
LINE
  5
CDB
  8
AD4323
 62
     8
 10
273.3069432002157
 20
82.238354818966457
 30
0.0
 11
274.0039432002157
 21
82.525354818965951
 31
0.0
  0
LINE
  5
CDC
  8
AD4323
 62
     8
 10
270.55994320021563
 20
82.525354818966434
 30
0.0
 11
271.21594320021592
 21
82.525354818966434
 31
0.0
  0
LINE
  5
CDD
  8
AD4323
 62
     8
 10
271.21594320021592
 20
82.525354818966434
 30
0.0
 11
271.91294320021598
 21
82.238354818966684
 31
0.0
  0
LINE
  5
CDE
  8
AD4323
 62
     8
 10
271.91294320021598
 20
82.238354818966684
 30
0.0
 11
272.1999432002155
 21
81.541354818966624
 31
0.0
  0
LINE
  5
CDF
  8
AD4323
 62
     8
 10
272.1999432002155
 20
80.885354818966505
 30
0.0
 11
273.01994320021589
 21
80.885354818966036
 31
0.0
  0
LINE
  5
CE0
  8
AD4323
 62
     8
 10
273.01994320021589
 20
80.885354818966036
 30
0.0
 11
273.01994320021589
 21
81.541354818966397
 31
0.0
  0
LINE
  5
CE1
  8
AD4323
 62
     8
 10
272.1999432002155
 20
81.541354818966624
 30
0.0
 11
272.1999432002155
 21
80.885354818966505
 31
0.0
  0
LINE
  5
CE2
  8
AD4323
 62
     8
 10
272.19994320021573
 20
84.985354818966755
 30
0.0
 11
273.01994320021612
 21
84.985354818966513
 31
0.0
  0
LINE
  5
CE3
  8
AD4323
 62
     8
 10
272.19994320021573
 20
84.985354818966755
 30
0.0
 11
272.19994320021573
 21
84.329354818966394
 31
0.0
  0
LINE
  5
CE4
  8
AD4323
 62
     8
 10
272.19994320021573
 20
84.329354818966394
 30
0.0
 11
271.91294320021598
 21
83.632354818966348
 31
0.0
  0
LINE
  5
CE5
  8
AD4323
 62
     8
 10
271.91294320021598
 20
83.632354818966348
 30
0.0
 11
271.21594320021592
 21
83.345354818966854
 31
0.0
  0
LINE
  5
CE6
  8
AD4323
 62
     8
 10
271.21594320021592
 20
83.345354818966854
 30
0.0
 11
270.5599432002158
 21
83.345354818966854
 31
0.0
  0
LINE
  5
CE7
  8
AD4323
 62
     8
 10
273.01994320021612
 20
84.329354818966394
 30
0.0
 11
273.01994320021612
 21
84.985354818966513
 31
0.0
  0
LINE
  5
CE8
  8
AD4323
 62
     8
 10
273.3069432002157
 20
83.632354818966348
 30
0.0
 11
273.01994320021612
 21
84.329354818966394
 31
0.0
  0
LINE
  5
CE9
  8
AD4323
 62
     8
 10
274.0039432002157
 20
83.345354818966598
 30
0.0
 11
273.3069432002157
 21
83.632354818966348
 31
0.0
  0
LINE
  5
CEA
  8
AD4323
 62
     8
 10
274.65994320021599
 20
83.345354818966598
 30
0.0
 11
274.65994320021582
 21
82.525354818965951
 31
0.0
  0
LINE
  5
CEB
  8
AD4323
 62
     8
 10
274.0039432002157
 20
118.52535481896589
 30
0.0
 11
274.65994320021582
 21
118.52535481896589
 31
0.0
  0
LINE
  5
CEC
  8
AD4323
 62
     8
 10
274.65994320021599
 20
119.3453548189665
 30
0.0
 11
274.0039432002157
 21
119.3453548189665
 31
0.0
  0
CIRCLE
  5
CED
  8
AD4323
 62
     8
 10
272.60994320021581
 20
118.9353548189665
 30
0.0
 40
3.5
  0
LINE
  5
CEE
  8
AD4323
 62
     8
 10
270.5599432002158
 20
119.3453548189668
 30
0.0
 11
270.55994320021563
 21
118.52535481896641
 31
0.0
  0
LINE
  5
CEF
  8
AD4323
 62
     8
 10
273.01994320021589
 20
117.5413548189663
 30
0.0
 11
273.3069432002157
 21
118.2383548189664
 31
0.0
  0
LINE
  5
CF0
  8
AD4323
 62
     8
 10
273.3069432002157
 20
118.2383548189664
 30
0.0
 11
274.0039432002157
 21
118.52535481896589
 31
0.0
  0
LINE
  5
CF1
  8
AD4323
 62
     8
 10
270.55994320021563
 20
118.52535481896641
 30
0.0
 11
271.21594320021592
 21
118.52535481896641
 31
0.0
  0
LINE
  5
CF2
  8
AD4323
 62
     8
 10
271.21594320021592
 20
118.52535481896641
 30
0.0
 11
271.91294320021598
 21
118.2383548189666
 31
0.0
  0
LINE
  5
CF3
  8
AD4323
 62
     8
 10
271.91294320021598
 20
118.2383548189666
 30
0.0
 11
272.1999432002155
 21
117.5413548189666
 31
0.0
  0
LINE
  5
CF4
  8
AD4323
 62
     8
 10
272.1999432002155
 20
116.8853548189665
 30
0.0
 11
273.01994320021589
 21
116.88535481896599
 31
0.0
  0
LINE
  5
CF5
  8
AD4323
 62
     8
 10
273.01994320021589
 20
116.88535481896599
 30
0.0
 11
273.01994320021589
 21
117.5413548189663
 31
0.0
  0
LINE
  5
CF6
  8
AD4323
 62
     8
 10
272.1999432002155
 20
117.5413548189666
 30
0.0
 11
272.1999432002155
 21
116.8853548189665
 31
0.0
  0
LINE
  5
CF7
  8
AD4323
 62
     8
 10
272.19994320021573
 20
120.9853548189667
 30
0.0
 11
273.01994320021612
 21
120.9853548189665
 31
0.0
  0
LINE
  5
CF8
  8
AD4323
 62
     8
 10
272.19994320021573
 20
120.9853548189667
 30
0.0
 11
272.19994320021573
 21
120.32935481896639
 31
0.0
  0
LINE
  5
CF9
  8
AD4323
 62
     8
 10
272.19994320021573
 20
120.32935481896639
 30
0.0
 11
271.91294320021598
 21
119.63235481896631
 31
0.0
  0
LINE
  5
CFA
  8
AD4323
 62
     8
 10
271.91294320021598
 20
119.63235481896631
 30
0.0
 11
271.21594320021592
 21
119.3453548189668
 31
0.0
  0
LINE
  5
CFB
  8
AD4323
 62
     8
 10
271.21594320021592
 20
119.3453548189668
 30
0.0
 11
270.5599432002158
 21
119.3453548189668
 31
0.0
  0
LINE
  5
CFC
  8
AD4323
 62
     8
 10
273.01994320021612
 20
120.32935481896639
 30
0.0
 11
273.01994320021612
 21
120.9853548189665
 31
0.0
  0
LINE
  5
CFD
  8
AD4323
 62
     8
 10
273.3069432002157
 20
119.63235481896631
 30
0.0
 11
273.01994320021612
 21
120.32935481896639
 31
0.0
  0
LINE
  5
CFE
  8
AD4323
 62
     8
 10
274.0039432002157
 20
119.3453548189665
 30
0.0
 11
273.3069432002157
 21
119.63235481896631
 31
0.0
  0
LINE
  5
CFF
  8
AD4323
 62
     8
 10
274.65994320021599
 20
119.3453548189665
 30
0.0
 11
274.65994320021582
 21
118.52535481896589
 31
0.0
  0
CIRCLE
  5
D00
  8
AD4323
 62
     8
 10
260.6099432002149
 20
121.93535481896561
 30
0.0
 40
2.75
  0
LINE
  5
D01
  8
AD4323
 62
     8
 10
258.8599432002149
 20
122.2853548189658
 30
0.0
 11
258.85994320021467
 21
121.5853548189655
 31
0.0
  0
LINE
  5
D02
  8
AD4323
 62
     8
 10
262.35994320021513
 20
122.2853548189656
 30
0.0
 11
262.3599432002149
 21
121.5853548189651
 31
0.0
  0
LINE
  5
D03
  8
AD4323
 62
     8
 10
260.25994320021471
 20
120.18535481896561
 30
0.0
 11
260.95994320021498
 21
120.18535481896519
 31
0.0
  0
LINE
  5
D04
  8
AD4323
 62
     8
 10
260.95994320021498
 20
120.18535481896519
 30
0.0
 11
260.95994320021498
 21
120.7453548189654
 31
0.0
  0
LINE
  5
D05
  8
AD4323
 62
     8
 10
260.95994320021498
 20
120.7453548189654
 30
0.0
 11
261.20494320021481
 21
121.34035481896549
 31
0.0
  0
LINE
  5
D06
  8
AD4323
 62
     8
 10
261.20494320021481
 20
121.34035481896549
 30
0.0
 11
261.79994320021478
 21
121.5853548189651
 31
0.0
  0
LINE
  5
D07
  8
AD4323
 62
     8
 10
261.79994320021478
 20
121.5853548189651
 30
0.0
 11
262.3599432002149
 21
121.5853548189651
 31
0.0
  0
LINE
  5
D08
  8
AD4323
 62
     8
 10
258.85994320021467
 20
121.5853548189655
 30
0.0
 11
259.41994320021502
 21
121.5853548189655
 31
0.0
  0
LINE
  5
D09
  8
AD4323
 62
     8
 10
259.41994320021502
 20
121.5853548189655
 30
0.0
 11
260.01494320021499
 21
121.34035481896569
 31
0.0
  0
LINE
  5
D0A
  8
AD4323
 62
     8
 10
260.01494320021499
 20
121.34035481896569
 30
0.0
 11
260.25994320021471
 21
120.74535481896559
 31
0.0
  0
LINE
  5
D0B
  8
AD4323
 62
     8
 10
260.25994320021471
 20
120.74535481896559
 30
0.0
 11
260.25994320021471
 21
120.18535481896561
 31
0.0
  0
LINE
  5
D0C
  8
AD4323
 62
     8
 10
260.25994320021482
 20
123.68535481896581
 30
0.0
 11
260.95994320021521
 21
123.68535481896561
 31
0.0
  0
LINE
  5
D0D
  8
AD4323
 62
     8
 10
260.25994320021482
 20
123.68535481896581
 30
0.0
 11
260.25994320021482
 21
123.1253548189655
 31
0.0
  0
LINE
  5
D0E
  8
AD4323
 62
     8
 10
260.25994320021482
 20
123.1253548189655
 30
0.0
 11
260.01494320021499
 21
122.53035481896541
 31
0.0
  0
LINE
  5
D0F
  8
AD4323
 62
     8
 10
260.01494320021499
 20
122.53035481896541
 30
0.0
 11
259.41994320021502
 21
122.2853548189658
 31
0.0
  0
LINE
  5
D10
  8
AD4323
 62
     8
 10
259.41994320021502
 20
122.2853548189658
 30
0.0
 11
258.8599432002149
 21
122.2853548189658
 31
0.0
  0
LINE
  5
D11
  8
AD4323
 62
     8
 10
260.95994320021521
 20
123.1253548189655
 30
0.0
 11
260.95994320021521
 21
123.68535481896561
 31
0.0
  0
LINE
  5
D12
  8
AD4323
 62
     8
 10
261.20494320021481
 20
122.53035481896541
 30
0.0
 11
260.95994320021521
 21
123.1253548189655
 31
0.0
  0
LINE
  5
D13
  8
AD4323
 62
     8
 10
261.79994320021478
 20
122.2853548189656
 30
0.0
 11
261.20494320021481
 21
122.53035481896541
 31
0.0
  0
LINE
  5
D14
  8
AD4323
 62
     8
 10
262.35994320021513
 20
122.2853548189656
 30
0.0
 11
261.79994320021478
 21
122.2853548189656
 31
0.0
  0
CIRCLE
  5
D15
  8
AD4323
 62
     8
 10
264.60994320021581
 20
142.93535481896561
 30
0.0
 40
2.75
  0
LINE
  5
D16
  8
AD4323
 62
     8
 10
262.85994320021581
 20
143.2853548189658
 30
0.0
 11
262.85994320021558
 21
142.5853548189655
 31
0.0
  0
LINE
  5
D17
  8
AD4323
 62
     8
 10
266.35994320021609
 20
143.2853548189656
 30
0.0
 11
266.35994320021581
 21
142.5853548189651
 31
0.0
  0
LINE
  5
D18
  8
AD4323
 62
     8
 10
264.25994320021562
 20
141.18535481896561
 30
0.0
 11
264.95994320021589
 21
141.18535481896521
 31
0.0
  0
LINE
  5
D19
  8
AD4323
 62
     8
 10
264.95994320021589
 20
141.18535481896521
 30
0.0
 11
264.95994320021589
 21
141.7453548189655
 31
0.0
  0
LINE
  5
D1A
  8
AD4323
 62
     8
 10
264.95994320021589
 20
141.7453548189655
 30
0.0
 11
265.20494320021572
 21
142.34035481896549
 31
0.0
  0
LINE
  5
D1B
  8
AD4323
 62
     8
 10
265.20494320021572
 20
142.34035481896549
 30
0.0
 11
265.79994320021581
 21
142.5853548189651
 31
0.0
  0
LINE
  5
D1C
  8
AD4323
 62
     8
 10
265.79994320021581
 20
142.5853548189651
 30
0.0
 11
266.35994320021581
 21
142.5853548189651
 31
0.0
  0
LINE
  5
D1D
  8
AD4323
 62
     8
 10
262.85994320021558
 20
142.5853548189655
 30
0.0
 11
263.41994320021593
 21
142.5853548189655
 31
0.0
  0
LINE
  5
D1E
  8
AD4323
 62
     8
 10
263.41994320021593
 20
142.5853548189655
 30
0.0
 11
264.01494320021601
 21
142.34035481896569
 31
0.0
  0
LINE
  5
D1F
  8
AD4323
 62
     8
 10
264.01494320021601
 20
142.34035481896569
 30
0.0
 11
264.25994320021562
 21
141.74535481896569
 31
0.0
  0
LINE
  5
D20
  8
AD4323
 62
     8
 10
264.25994320021562
 20
141.74535481896569
 30
0.0
 11
264.25994320021562
 21
141.18535481896561
 31
0.0
  0
LINE
  5
D21
  8
AD4323
 62
     8
 10
264.25994320021567
 20
144.68535481896581
 30
0.0
 11
264.95994320021612
 21
144.68535481896561
 31
0.0
  0
LINE
  5
D22
  8
AD4323
 62
     8
 10
264.25994320021567
 20
144.68535481896581
 30
0.0
 11
264.25994320021567
 21
144.12535481896549
 31
0.0
  0
LINE
  5
D23
  8
AD4323
 62
     8
 10
264.25994320021567
 20
144.12535481896549
 30
0.0
 11
264.01494320021601
 21
143.53035481896541
 31
0.0
  0
LINE
  5
D24
  8
AD4323
 62
     8
 10
264.01494320021601
 20
143.53035481896541
 30
0.0
 11
263.41994320021593
 21
143.2853548189658
 31
0.0
  0
LINE
  5
D25
  8
AD4323
 62
     8
 10
263.41994320021593
 20
143.2853548189658
 30
0.0
 11
262.85994320021581
 21
143.2853548189658
 31
0.0
  0
LINE
  5
D26
  8
AD4323
 62
     8
 10
264.95994320021612
 20
144.12535481896549
 30
0.0
 11
264.95994320021612
 21
144.68535481896561
 31
0.0
  0
LINE
  5
D27
  8
AD4323
 62
     8
 10
265.20494320021572
 20
143.53035481896541
 30
0.0
 11
264.95994320021612
 21
144.12535481896549
 31
0.0
  0
LINE
  5
D28
  8
AD4323
 62
     8
 10
265.79994320021581
 20
143.2853548189656
 30
0.0
 11
265.20494320021572
 21
143.53035481896541
 31
0.0
  0
LINE
  5
D29
  8
AD4323
 62
     8
 10
266.35994320021609
 20
143.2853548189656
 30
0.0
 11
265.79994320021581
 21
143.2853548189656
 31
0.0
  0
LINE
  5
D2A
  8
AD4323
 62
     8
 10
274.0039432002157
 20
154.52535481896589
 30
0.0
 11
274.65994320021582
 21
154.52535481896589
 31
0.0
  0
LINE
  5
D2B
  8
AD4323
 62
     8
 10
274.65994320021599
 20
155.3453548189666
 30
0.0
 11
274.0039432002157
 21
155.3453548189666
 31
0.0
  0
CIRCLE
  5
D2C
  8
AD4323
 62
     8
 10
272.60994320021581
 20
154.93535481896649
 30
0.0
 40
3.5
  0
LINE
  5
D2D
  8
AD4323
 62
     8
 10
270.5599432002158
 20
155.3453548189668
 30
0.0
 11
270.55994320021563
 21
154.52535481896641
 31
0.0
  0
LINE
  5
D2E
  8
AD4323
 62
     8
 10
273.01994320021589
 20
153.5413548189664
 30
0.0
 11
273.3069432002157
 21
154.2383548189664
 31
0.0
  0
LINE
  5
D2F
  8
AD4323
 62
     8
 10
273.3069432002157
 20
154.2383548189664
 30
0.0
 11
274.0039432002157
 21
154.52535481896589
 31
0.0
  0
LINE
  5
D30
  8
AD4323
 62
     8
 10
270.55994320021563
 20
154.52535481896641
 30
0.0
 11
271.21594320021592
 21
154.52535481896641
 31
0.0
  0
LINE
  5
D31
  8
AD4323
 62
     8
 10
271.21594320021592
 20
154.52535481896641
 30
0.0
 11
271.91294320021598
 21
154.2383548189666
 31
0.0
  0
LINE
  5
D32
  8
AD4323
 62
     8
 10
271.91294320021598
 20
154.2383548189666
 30
0.0
 11
272.1999432002155
 21
153.5413548189666
 31
0.0
  0
LINE
  5
D33
  8
AD4323
 62
     8
 10
272.1999432002155
 20
152.8853548189665
 30
0.0
 11
273.01994320021589
 21
152.88535481896599
 31
0.0
  0
LINE
  5
D34
  8
AD4323
 62
     8
 10
273.01994320021589
 20
152.88535481896599
 30
0.0
 11
273.01994320021589
 21
153.5413548189664
 31
0.0
  0
LINE
  5
D35
  8
AD4323
 62
     8
 10
272.1999432002155
 20
153.5413548189666
 30
0.0
 11
272.1999432002155
 21
152.8853548189665
 31
0.0
  0
LINE
  5
D36
  8
AD4323
 62
     8
 10
272.19994320021573
 20
156.9853548189667
 30
0.0
 11
273.01994320021612
 21
156.9853548189665
 31
0.0
  0
LINE
  5
D37
  8
AD4323
 62
     8
 10
272.19994320021573
 20
156.9853548189667
 30
0.0
 11
272.19994320021573
 21
156.32935481896641
 31
0.0
  0
LINE
  5
D38
  8
AD4323
 62
     8
 10
272.19994320021573
 20
156.32935481896641
 30
0.0
 11
271.91294320021598
 21
155.63235481896629
 31
0.0
  0
LINE
  5
D39
  8
AD4323
 62
     8
 10
271.91294320021598
 20
155.63235481896629
 30
0.0
 11
271.21594320021592
 21
155.3453548189668
 31
0.0
  0
LINE
  5
D3A
  8
AD4323
 62
     8
 10
271.21594320021592
 20
155.3453548189668
 30
0.0
 11
270.5599432002158
 21
155.3453548189668
 31
0.0
  0
LINE
  5
D3B
  8
AD4323
 62
     8
 10
273.01994320021612
 20
156.32935481896641
 30
0.0
 11
273.01994320021612
 21
156.9853548189665
 31
0.0
  0
LINE
  5
D3C
  8
AD4323
 62
     8
 10
273.3069432002157
 20
155.63235481896629
 30
0.0
 11
273.01994320021612
 21
156.32935481896641
 31
0.0
  0
LINE
  5
D3D
  8
AD4323
 62
     8
 10
274.0039432002157
 20
155.3453548189666
 30
0.0
 11
273.3069432002157
 21
155.63235481896629
 31
0.0
  0
LINE
  5
D3E
  8
AD4323
 62
     8
 10
274.65994320021599
 20
155.3453548189666
 30
0.0
 11
274.65994320021582
 21
154.52535481896589
 31
0.0
  0
CIRCLE
  5
D3F
  8
AD4323
 62
     8
 10
220.6099432002149
 20
121.93535481896561
 30
0.0
 40
2.75
  0
LINE
  5
D40
  8
AD4323
 62
     8
 10
218.8599432002149
 20
122.2853548189658
 30
0.0
 11
218.8599432002147
 21
121.5853548189655
 31
0.0
  0
LINE
  5
D41
  8
AD4323
 62
     8
 10
222.3599432002151
 20
122.2853548189656
 30
0.0
 11
222.3599432002149
 21
121.5853548189651
 31
0.0
  0
LINE
  5
D42
  8
AD4323
 62
     8
 10
220.25994320021471
 20
120.18535481896561
 30
0.0
 11
220.95994320021501
 21
120.18535481896519
 31
0.0
  0
LINE
  5
D43
  8
AD4323
 62
     8
 10
220.95994320021501
 20
120.18535481896519
 30
0.0
 11
220.95994320021501
 21
120.7453548189654
 31
0.0
  0
LINE
  5
D44
  8
AD4323
 62
     8
 10
220.95994320021501
 20
120.7453548189654
 30
0.0
 11
221.20494320021481
 21
121.34035481896549
 31
0.0
  0
LINE
  5
D45
  8
AD4323
 62
     8
 10
221.20494320021481
 20
121.34035481896549
 30
0.0
 11
221.79994320021481
 21
121.5853548189651
 31
0.0
  0
LINE
  5
D46
  8
AD4323
 62
     8
 10
221.79994320021481
 20
121.5853548189651
 30
0.0
 11
222.3599432002149
 21
121.5853548189651
 31
0.0
  0
LINE
  5
D47
  8
AD4323
 62
     8
 10
218.8599432002147
 20
121.5853548189655
 30
0.0
 11
219.41994320021499
 21
121.5853548189655
 31
0.0
  0
LINE
  5
D48
  8
AD4323
 62
     8
 10
219.41994320021499
 20
121.5853548189655
 30
0.0
 11
220.0149432002151
 21
121.34035481896569
 31
0.0
  0
LINE
  5
D49
  8
AD4323
 62
     8
 10
220.0149432002151
 20
121.34035481896569
 30
0.0
 11
220.25994320021471
 21
120.74535481896559
 31
0.0
  0
LINE
  5
D4A
  8
AD4323
 62
     8
 10
220.25994320021471
 20
120.74535481896559
 30
0.0
 11
220.25994320021471
 21
120.18535481896561
 31
0.0
  0
LINE
  5
D4B
  8
AD4323
 62
     8
 10
220.25994320021479
 20
123.68535481896581
 30
0.0
 11
220.95994320021521
 21
123.68535481896561
 31
0.0
  0
LINE
  5
D4C
  8
AD4323
 62
     8
 10
220.25994320021479
 20
123.68535481896581
 30
0.0
 11
220.25994320021479
 21
123.1253548189655
 31
0.0
  0
LINE
  5
D4D
  8
AD4323
 62
     8
 10
220.25994320021479
 20
123.1253548189655
 30
0.0
 11
220.0149432002151
 21
122.53035481896541
 31
0.0
  0
LINE
  5
D4E
  8
AD4323
 62
     8
 10
220.0149432002151
 20
122.53035481896541
 30
0.0
 11
219.41994320021499
 21
122.2853548189658
 31
0.0
  0
LINE
  5
D4F
  8
AD4323
 62
     8
 10
219.41994320021499
 20
122.2853548189658
 30
0.0
 11
218.8599432002149
 21
122.2853548189658
 31
0.0
  0
LINE
  5
D50
  8
AD4323
 62
     8
 10
220.95994320021521
 20
123.1253548189655
 30
0.0
 11
220.95994320021521
 21
123.68535481896561
 31
0.0
  0
LINE
  5
D51
  8
AD4323
 62
     8
 10
221.20494320021481
 20
122.53035481896541
 30
0.0
 11
220.95994320021521
 21
123.1253548189655
 31
0.0
  0
LINE
  5
D52
  8
AD4323
 62
     8
 10
221.79994320021481
 20
122.2853548189656
 30
0.0
 11
221.20494320021481
 21
122.53035481896541
 31
0.0
  0
LINE
  5
D53
  8
AD4323
 62
     8
 10
222.3599432002151
 20
122.2853548189656
 30
0.0
 11
221.79994320021481
 21
122.2853548189656
 31
0.0
  0
DIMENSION
  5
D54
  8
MEASURE
  2
*D3
 10
280.60994320021513
 20
373.84526126534439
 30
0.0
 11
184.6099432002149
 21
376.69526126534441
 31
0.0
 70
     0
 13
88.609943200214744
 23
347.9376825871945
 33
0.0
 14
280.60994320021513
 24
347.9376825871945
 34
0.0
1001
ACAD
1000
DSTYLE
1002
{
1070
    40
1040
1.5
1002
}
  0
DIMENSION
  5
D76
  8
MEASURE
  2
*D4
 10
303.89066330271311
 20
252.9376825871945
 30
0.0
 11
301.04066330271303
 21
300.93768258719462
 31
0.0
 70
     0
 13
279.60994320021513
 23
348.9376825871945
 33
0.0
 14
279.60994320021467
 24
252.9376825871945
 34
0.0
 50
90.0
1001
ACAD
1000
DSTYLE
1002
{
1070
    40
1040
1.5
1002
}
  0
DIMENSION
  5
D83
  8
MEASURE
  2
*D5
 10
378.92871044547201
 20
373.73400399524411
 30
0.0
 11
372.92871044547201
 21
376.58400399524419
 31
0.0
 70
     0
 13
366.92871044547201
 23
347.9376825871945
 33
0.0
 14
378.92871044547201
 24
348.9376825871945
 34
0.0
1001
ACAD
1000
DSTYLE
1002
{
1070
    40
1040
1.5
1002
}
  0
DIMENSION
  5
D90
  8
MEASURE
  2
*D6
 10
546.9287104454728
 20
373.73400399524411
 30
0.0
 11
462.9287104454724
 21
376.58400399524419
 31
0.0
 70
     0
 13
378.92871044547201
 23
348.9376825871945
 33
0.0
 14
546.9287104454728
 24
346.4376825871945
 34
0.0
1001
ACAD
1000
DSTYLE
1002
{
1070
    40
1040
1.5
1002
}
  0
DIMENSION
  5
D9E
  8
MEASURE
  2
*D7
 10
555.06903118300011
 20
140.2561994408122
 30
0.0
 11
462.56903118300011
 21
143.10619944081219
 31
0.0
 70
     0
 13
370.06903118299999
 23
159.43535481896649
 33
0.0
 14
555.06903118300011
 24
159.43535481896649
 34
0.0
1001
ACAD
1000
DSTYLE
1002
{
1070
    76
1070
     1
1070
    75
1070
     1
1070
    40
1040
1.5
1002
}
  0
DIMENSION
  5
DAB
  8
MEASURE
  2
*D8
 10
516.18082731064135
 20
73.435354818965621
 30
0.0
 11
513.33082731064144
 21
118.93535481896561
 31
0.0
 70
     0
 13
550.06903118300011
 23
164.43535481896561
 33
0.0
 14
550.06903118300011
 24
73.435354818965607
 34
0.0
 50
90.0
1001
ACAD
1000
DSTYLE
1002
{
1070
    76
1070
     1
1070
    75
1070
     1
1070
    40
1040
1.5
1002
}
  0
DIMENSION
  5
DB8
  8
MEASURE
  2
*D9
 10
375.06903118300011
 20
159.43535481896649
 30
0.0
 11
385.1372920183461
 21
150.95457408902749
 31
0.0
 70
   132
  1
4-<>
 15
371.24489540908712
 25
162.65653248911741
 35
0.0
 40
0.0
1001
ACAD
1000
DSTYLE
1002
{
1070
    40
1040
1.5
1002
}
  0
DIMENSION
  5
DF6
  8
MEASURE
  2
*D10
 10
303.89066330271311
 20
247.7716825871961
 30
0.0
 11
299.94066330271312
 21
233.92168258719619
 31
0.0
 70
     0
  1
(<>)
 13
279.60994320021467
 23
252.9376825871945
 33
0.0
 14
265.70994320021532
 24
247.7716825871961
 34
0.0
 50
90.0
1001
ACAD
1000
DSTYLE
1002
{
1070
   271
1070
     1
1070
    40
1040
1.5
1002
}
  0
ARC
  5
E90
  8
AD4323
 62
     8
 10
103.6099432002151
 20
297.4376825871945
 30
0.0
 40
2.0
 50
180.00000000000199
 51
270.0
  0
ARC
  5
E91
  8
AD4323
 62
     8
 10
103.60994320021381
 20
334.4376825871945
 30
0.0
 40
2.0
 50
90.0
 51
180.00000000000199
  0
ARC
  5
E92
  8
AD4323
 62
     8
 10
215.6099432002147
 20
334.4376825871945
 30
0.0
 40
2.0
 50
0.0000000000006616
 51
90.0
  0
ARC
  5
E93
  8
AD4323
 62
     8
 10
215.60994320021521
 20
297.4376825871945
 30
0.0
 40
2.0
 50
270.0
 51
0.000000000000687
  0
LINE
  5
E94
  8
AD4323
 62
     8
 10
102.60994320021381
 20
334.4376825871945
 30
0.0
 11
102.6099432002151
 21
297.4376825871945
 31
0.0
  0
ARC
  5
E95
  8
AD4323
 62
     8
 10
103.6099432002151
 20
297.4376825871945
 30
0.0
 40
1.0
 50
180.00000000000199
 51
270.0
  0
LINE
  5
E96
  8
AD4323
 62
     8
 10
103.6099432002151
 20
296.4376825871945
 30
0.0
 11
215.60994320021521
 21
296.4376825871945
 31
0.0
  0
LINE
  5
E98
  8
AD4323
 62
     8
 10
103.60994320021381
 20
335.4376825871945
 30
0.0
 11
215.6099432002147
 21
335.4376825871945
 31
0.0
  0
ARC
  5
E99
  8
AD4323
 62
     8
 10
103.60994320021381
 20
334.4376825871945
 30
0.0
 40
1.0
 50
90.0
 51
180.00000000000199
  0
ARC
  5
E9A
  8
AD4323
 62
     8
 10
215.6099432002147
 20
334.4376825871945
 30
0.0
 40
1.0
 50
0.0000000000006616
 51
90.0
  0
LINE
  5
E9B
  8
AD4323
 62
     8
 10
216.6099432002147
 20
334.4376825871945
 30
0.0
 11
216.6099432002151
 21
297.4376825871945
 31
0.0
  0
ARC
  5
E9C
  8
AD4323
 62
     8
 10
215.60994320021521
 20
297.4376825871945
 30
0.0
 40
1.0
 50
270.0
 51
0.000000000000687
  0
LINE
  5
E9F
  8
AD4323
 62
     8
 10
110.1099432002151
 20
273.93768258719359
 30
0.0
 11
129.1099432002151
 21
273.93768258719359
 31
0.0
  0
LINE
  5
EA1
  8
AD4323
 62
     8
 10
129.1099432002151
 20
287.93768258719359
 30
0.0
 11
110.1099432002151
 21
287.93768258719359
 31
0.0
  0
LINE
  5
EA4
  8
AD4323
 62
     8
 10
129.6099432002151
 20
274.43768258719359
 30
0.0
 11
129.6099432002151
 21
287.43768258719359
 31
0.0
  0
LINE
  5
EA6
  8
AD4323
 62
     8
 10
109.6099432002151
 20
287.43768258719359
 30
0.0
 11
109.6099432002151
 21
274.43768258719359
 31
0.0
  0
ARC
  5
EA7
  8
AD4323
 62
     8
 10
110.1099432002151
 20
287.43768258719359
 30
0.0
 40
0.5
 50
90.0
 51
180.0
  0
ARC
  5
EA8
  8
AD4323
 62
     8
 10
110.1099432002151
 20
274.43768258719359
 30
0.0
 40
0.5
 50
180.0
 51
270.0
  0
ARC
  5
EA9
  8
AD4323
 62
     8
 10
129.1099432002151
 20
274.43768258719359
 30
0.0
 40
0.5
 50
270.0
 51
0.0
  0
ARC
  5
EAA
  8
AD4323
 62
     8
 10
129.1099432002151
 20
287.43768258719359
 30
0.0
 40
0.5
 50
0.0
 51
90.0
  0
LINE
  5
EAB
  8
AD4323
 62
     8
 10
155.1099432002151
 20
287.93768258719359
 30
0.0
 11
136.1099432002151
 21
287.93768258719359
 31
0.0
  0
LINE
  5
EAC
  8
AD4323
 62
     8
 10
155.6099432002151
 20
274.43768258719359
 30
0.0
 11
155.6099432002151
 21
287.43768258719359
 31
0.0
  0
ARC
  5
EAD
  8
AD4323
 62
     8
 10
155.1099432002151
 20
287.43768258719359
 30
0.0
 40
0.5
 50
0.0
 51
90.0
  0
LINE
  5
EAE
  8
AD4323
 62
     8
 10
136.1099432002151
 20
273.93768258719359
 30
0.0
 11
155.1099432002151
 21
273.93768258719359
 31
0.0
  0
ARC
  5
EAF
  8
AD4323
 62
     8
 10
155.1099432002151
 20
274.43768258719359
 30
0.0
 40
0.5
 50
270.0
 51
0.0
  0
LINE
  5
EB0
  8
AD4323
 62
     8
 10
135.6099432002151
 20
287.43768258719359
 30
0.0
 11
135.6099432002151
 21
274.43768258719359
 31
0.0
  0
ARC
  5
EB1
  8
AD4323
 62
     8
 10
136.1099432002151
 20
274.43768258719359
 30
0.0
 40
0.5
 50
180.0
 51
270.0
  0
ARC
  5
EB2
  8
AD4323
 62
     8
 10
136.1099432002151
 20
287.43768258719359
 30
0.0
 40
0.5
 50
90.0
 51
180.0
  0
ARC
  5
EB3
  8
AD4323
 62
     8
 10
181.1099432002151
 20
287.43768258719359
 30
0.0
 40
0.5
 50
0.0
 51
90.0
  0
LINE
  5
EB4
  8
AD4323
 62
     8
 10
181.6099432002151
 20
274.43768258719359
 30
0.0
 11
181.6099432002151
 21
287.43768258719359
 31
0.0
  0
LINE
  5
EB5
  8
AD4323
 62
     8
 10
181.1099432002151
 20
287.93768258719359
 30
0.0
 11
162.1099432002151
 21
287.93768258719359
 31
0.0
  0
ARC
  5
EB6
  8
AD4323
 62
     8
 10
181.1099432002151
 20
274.43768258719359
 30
0.0
 40
0.5
 50
270.0
 51
0.0
  0
LINE
  5
EB7
  8
AD4323
 62
     8
 10
162.1099432002151
 20
273.93768258719359
 30
0.0
 11
181.1099432002151
 21
273.93768258719359
 31
0.0
  0
ARC
  5
EB8
  8
AD4323
 62
     8
 10
162.1099432002151
 20
287.43768258719359
 30
0.0
 40
0.5
 50
90.0
 51
180.0
  0
LINE
  5
EB9
  8
AD4323
 62
     8
 10
161.6099432002151
 20
287.43768258719359
 30
0.0
 11
161.6099432002151
 21
274.43768258719359
 31
0.0
  0
ARC
  5
EBA
  8
AD4323
 62
     8
 10
162.1099432002151
 20
274.43768258719359
 30
0.0
 40
0.5
 50
180.0
 51
270.0
  0
LINE
  5
EBB
  8
AD4323
 62
     8
 10
233.1099432002151
 20
287.93768258719359
 30
0.0
 11
214.1099432002151
 21
287.93768258719359
 31
0.0
  0
LINE
  5
EBC
  8
AD4323
 62
     8
 10
233.6099432002151
 20
274.43768258719359
 30
0.0
 11
233.6099432002151
 21
287.43768258719359
 31
0.0
  0
ARC
  5
EBD
  8
AD4323
 62
     8
 10
233.1099432002151
 20
287.43768258719359
 30
0.0
 40
0.5
 50
0.0
 51
90.0
  0
ARC
  5
EBE
  8
AD4323
 62
     8
 10
214.1099432002151
 20
274.43768258719359
 30
0.0
 40
0.5
 50
180.0
 51
270.0
  0
LINE
  5
EBF
  8
AD4323
 62
     8
 10
213.60994320021521
 20
287.43768258719359
 30
0.0
 11
213.60994320021521
 21
274.43768258719359
 31
0.0
  0
LINE
  5
EC0
  8
AD4323
 62
     8
 10
214.1099432002151
 20
273.93768258719359
 30
0.0
 11
233.1099432002151
 21
273.93768258719359
 31
0.0
  0
ARC
  5
EC1
  8
AD4323
 62
     8
 10
233.1099432002151
 20
274.43768258719359
 30
0.0
 40
0.5
 50
270.0
 51
0.0
  0
ARC
  5
EC2
  8
AD4323
 62
     8
 10
214.1099432002151
 20
287.43768258719359
 30
0.0
 40
0.5
 50
90.0
 51
180.0
  0
LINE
  5
EC3
  8
AD4323
 62
     8
 10
207.10994320021521
 20
287.93768258719359
 30
0.0
 11
188.1099432002151
 21
287.93768258719359
 31
0.0
  0
LINE
  5
EC4
  8
AD4323
 62
     8
 10
207.6099432002151
 20
274.43768258719359
 30
0.0
 11
207.6099432002151
 21
280.63768258719358
 31
0.0
  0
ARC
  5
EC5
  8
AD4323
 62
     8
 10
207.10994320021521
 20
287.43768258719359
 30
0.0
 40
0.5
 50
0.0
 51
90.0
  0
LINE
  5
EC6
  8
AD4323
 62
     8
 10
187.6099432002151
 20
287.43768258719359
 30
0.0
 11
187.6099432002151
 21
281.2376825871936
 31
0.0
  0
ARC
  5
EC7
  8
AD4323
 62
     8
 10
188.1099432002151
 20
287.43768258719359
 30
0.0
 40
0.5
 50
90.0
 51
180.0
  0
LINE
  5
EC8
  8
AD4323
 62
     8
 10
188.1099432002151
 20
273.93768258719359
 30
0.0
 11
207.10994320021521
 21
273.93768258719359
 31
0.0
  0
ARC
  5
EC9
  8
AD4323
 62
     8
 10
207.10994320021521
 20
274.43768258719359
 30
0.0
 40
0.5
 50
270.0
 51
0.0
  0
ARC
  5
ECA
  8
AD4323
 62
     8
 10
188.1099432002151
 20
274.43768258719359
 30
0.0
 40
0.5
 50
180.0
 51
270.0
  0
LINE
  5
ECB
  8
AD4323
 62
     8
 10
207.6099432002151
 20
281.2376825871936
 30
0.0
 11
187.6099432002151
 21
281.2376825871936
 31
0.0
  0
LINE
  5
ECC
  8
AD4323
 62
     8
 10
187.6099432002151
 20
280.63768258719358
 30
0.0
 11
207.6099432002151
 21
280.63768258719358
 31
0.0
  0
LINE
  5
ECD
  8
AD4323
 62
     8
 10
187.6099432002151
 20
280.63768258719358
 30
0.0
 11
187.6099432002151
 21
274.43768258719359
 31
0.0
  0
LINE
  5
ECE
  8
AD4323
 62
     8
 10
207.6099432002151
 20
281.2376825871936
 30
0.0
 11
207.6099432002151
 21
287.43768258719359
 31
0.0
  0
TEXT
  5
ED2
  8
AD4323
 62
     8
 10
162.51349649970749
 20
279.18768258719359
 30
0.0
 40
3.5
  1
風袋クリア
 41
0.8
  7
和文
 72
     1
 11
171.6099432002151
 21
280.93768258719359
 31
0.0
 73
     2
  0
TEXT
  5
ED3
  8
AD4323
 62
     8
 10
115.06171984996131
 20
279.18768258719359
 30
0.0
 40
3.5
  1
ゼロ
  7
和文
 72
     1
 11
119.6099432002151
 21
280.93768258719359
 31
0.0
 73
     2
  0
LINE
  5
ED5
  8
AD4323
 62
     8
 10
221.30054212345669
 20
280.93768258719359
 30
0.0
 11
225.91934427697359
 21
280.93768258719359
 31
0.0
  0
LINE
  5
ED7
  8
AD4323
 62
     8
 10
224.7646437385944
 20
278.93768258719359
 30
0.0
 11
222.45524266183591
 21
282.93768258719359
 31
0.0
  0
LINE
  5
ED8
  8
AD4323
 62
     8
 10
224.76464373859429
 20
282.93768258719359
 30
0.0
 11
222.4552426618358
 21
278.93768258719359
 31
0.0
  0
TEXT
  5
EDE
  8
AD4323
 62
     8
 10
193.06171984996129
 20
275.93768258719359
 30
0.0
 40
3.5
  1
正 味
 41
0.8
  7
和文
 72
     1
 11
197.6099432002151
 21
277.68768258719359
 31
0.0
 73
     2
  0
TEXT
  5
EDF
  8
AD4323
 62
     8
 10
192.15207517991061
 20
282.43768258719359
 30
0.0
 40
3.5
  1
総重量
 41
0.8
  7
和文
 72
     1
 11
197.6099432002151
 21
284.18768258719359
 31
0.0
 73
     2
  0
TEXT
  5
EE0
  8
AD4323
 62
     8
 10
245.54129565923151
 20
276.18768258719359
 30
0.0
 40
3.0
  1
OFF
  7
FUTURA
 72
     1
 11
249.6099432002151
 21
277.68768258719359
 31
0.0
 73
     2
  0
TEXT
  5
EE1
  8
AD4323
 62
     8
 10
246.05359074119869
 20
282.68768258719359
 30
0.0
 40
3.0
  1
ON
  7
FUTURA
 72
     1
 11
249.6099432002151
 21
284.18768258719359
 31
0.0
 73
     2
  0
LINE
  5
EE2
  8
AD4323
 62
     8
 10
259.60994320021513
 20
274.43768258719359
 30
0.0
 11
259.60994320021513
 21
280.63768258719358
 31
0.0
  0
LINE
  5
EE3
  8
AD4323
 62
     8
 10
259.60994320021513
 20
281.2376825871936
 30
0.0
 11
259.60994320021513
 21
287.43768258719359
 31
0.0
  0
LINE
  5
EE4
  8
AD4323
 62
     8
 10
239.6099432002151
 20
280.63768258719358
 30
0.0
 11
259.60994320021513
 21
280.63768258719358
 31
0.0
  0
LINE
  5
EE5
  8
AD4323
 62
     8
 10
259.60994320021513
 20
281.2376825871936
 30
0.0
 11
239.6099432002151
 21
281.2376825871936
 31
0.0
  0
ARC
  5
EE6
  8
AD4323
 62
     8
 10
259.10994320021518
 20
287.43768258719359
 30
0.0
 40
0.5
 50
0.0
 51
90.0
  0
LINE
  5
EE7
  8
AD4323
 62
     8
 10
259.10994320021518
 20
287.93768258719359
 30
0.0
 11
240.1099432002151
 21
287.93768258719359
 31
0.0
  0
ARC
  5
EE8
  8
AD4323
 62
     8
 10
259.10994320021518
 20
274.43768258719359
 30
0.0
 40
0.5
 50
270.0
 51
0.0
  0
LINE
  5
EE9
  8
AD4323
 62
     8
 10
240.1099432002151
 20
273.93768258719359
 30
0.0
 11
259.10994320021518
 21
273.93768258719359
 31
0.0
  0
LINE
  5
EEA
  8
AD4323
 62
     8
 10
239.6099432002151
 20
287.43768258719359
 30
0.0
 11
239.6099432002151
 21
281.2376825871936
 31
0.0
  0
ARC
  5
EEB
  8
AD4323
 62
     8
 10
240.1099432002151
 20
287.43768258719359
 30
0.0
 40
0.5
 50
90.0
 51
180.0
  0
LINE
  5
EEC
  8
AD4323
 62
     8
 10
239.6099432002151
 20
280.63768258719358
 30
0.0
 11
239.6099432002151
 21
274.43768258719359
 31
0.0
  0
ARC
  5
EED
  8
AD4323
 62
     8
 10
240.1099432002151
 20
274.43768258719359
 30
0.0
 40
0.5
 50
180.0
 51
270.0
  0
LINE
  5
F02
  8
AD4323
 62
     8
 10
186.47596860399929
 20
301.93768258719439
 30
0.0
 11
184.7439177964304
 21
298.93768258719439
 31
0.0
  0
LINE
  5
F03
  8
AD4323
 62
     8
 10
186.47596860399929
 20
298.93768258719439
 30
0.0
 11
184.74391779643051
 21
301.93768258719439
 31
0.0
  0
LINE
  5
F04
  8
AD4323
 62
     8
 10
183.877892392646
 20
300.43768258719439
 30
0.0
 11
187.3419940077838
 21
300.43768258719439
 31
0.0
  0
LINE
  5
F0A
  8
MEASURE
 10
121.1099432002151
 20
272.43768258719359
 30
0.0
 11
121.1099432002151
 21
269.43768258719348
 31
0.0
  0
LINE
  5
F0C
  8
MEASURE
 10
199.1099432002151
 20
272.43768258719359
 30
0.0
 11
196.10994320021521
 21
272.43768258719359
 31
0.0
  0
LINE
  5
F0D
  8
MEASURE
 10
173.1099432002151
 20
269.43768258719359
 30
0.0
 11
170.1099432002151
 21
269.43768258719359
 31
0.0
  0
LINE
  5
F0E
  8
MEASURE
 10
121.1099432002151
 20
272.43768258719359
 30
0.0
 11
117.1099432002151
 21
270.93768258719359
 31
0.0
  0
LINE
  5
F0F
  8
MEASURE
 10
117.1099432002151
 20
270.93768258719359
 30
0.0
 11
121.1099432002151
 21
269.43768258719359
 31
0.0
  0
LINE
  5
F12
  8
MEASURE
 10
148.1099432002151
 20
270.93768258719359
 30
0.0
 11
144.1099432002151
 21
269.43768258719359
 31
0.0
  0
LINE
  5
F13
  8
MEASURE
 10
144.1099432002151
 20
272.43768258719359
 30
0.0
 11
148.1099432002151
 21
270.93768258719359
 31
0.0
  0
LINE
  5
F14
  8
MEASURE
 10
144.1099432002151
 20
272.43768258719359
 30
0.0
 11
144.1099432002151
 21
269.43768258719359
 31
0.0
  0
LINE
  5
F17
  8
MEASURE
 10
170.1099432002151
 20
269.43768258719359
 30
0.0
 11
171.6099432002151
 21
272.43768258719359
 31
0.0
  0
LINE
  5
F18
  8
MEASURE
 10
171.6099432002151
 20
272.43768258719359
 30
0.0
 11
173.1099432002151
 21
269.43768258719359
 31
0.0
  0
LINE
  5
F1B
  8
MEASURE
 10
196.10994320021521
 20
272.43768258719359
 30
0.0
 11
197.6099432002151
 21
269.43768258719359
 31
0.0
  0
LINE
  5
F1C
  8
MEASURE
 10
197.6099432002151
 20
269.43768258719359
 30
0.0
 11
199.1099432002151
 21
272.43768258719359
 31
0.0
  0
VIEWPORT
  5
D6A
 67
     1
  8
0
 10
215.44060110496139
 20
145.83841439386981
 30
0.0
 40
456.83686553100631
 41
374.88880923987728
 68
     1
 69
     1
1001
ACAD
1000
MVIEW
1002
{
1070
    16
1010
0.0
1020
0.0
1030
0.0
1010
0.0
1020
0.0
1030
1.0
1040
0.0
1040
374.88880923987728
1040
215.44060110496139
1040
145.83841439386981
1040
50.0
1040
0.0
1040
0.0
1070
     0
1070
   100
1070
     1
1070
     1
1070
     0
1070
     0
1070
     0
1070
     0
1040
0.0
1040
0.0
1040
0.0
1040
10.0
1040
10.0
1040
10.0
1040
10.0
1070
     0
1002
{
1002
}
1002
}
  0
VIEWPORT
  5
D6C
 67
     1
  8
DEFPOINTS
 10
204.3178318424479
 20
142.9434835274796
 30
0.0
 40
406.21090050144238
 41
283.02562649587259
 68
     2
 69
     2
1001
ACAD
1000
MVIEW
1002
{
1070
    16
1010
0.0
1020
0.0
1030
0.0
1010
0.0
1020
0.0
1030
1.0
1040
0.0
1040
424.53843962727689
1040
310.72011155754001
1040
232.09815878091601
1040
50.0
1040
0.0
1040
0.0
1070
     0
1070
   100
1070
     1
1070
     0
1070
     0
1070
     0
1070
     0
1070
     1
1040
0.0
1040
0.0
1040
0.0
1040
168.0
1040
168.0
1040
0.0
1040
0.0
1070
     0
1002
{
1002
}
1002
}
  0
ENDSEC
  0
EOF
