  0
SECTION
  2
HEADER
  9
$ACADVER
  1
AC1015
  9
$ACADMAINTVER
 70
    20
  9
$DWGCODEPAGE
  3
ANSI_932
  9
$INSBASE
 10
0.0
 20
0.0
 30
0.0
  9
$EXTMIN
 10
0.0
 20
0.0
 30
-0.000000000000394
  9
$EXTMAX
 10
4200.0
 20
2970.0
 30
0.0000000000013365
  9
$LIMMIN
 10
0.0
 20
0.0
  9
$LIMMAX
 10
10000.0
 20
10000.0
  9
$ORTHOMODE
 70
     1
  9
$REGENMODE
 70
     1
  9
$FILLMODE
 70
     1
  9
$QTEXTMODE
 70
     0
  9
$MIRRTEXT
 70
     1
  9
$LTSCALE
 40
33.67003367003367
  9
$ATTMODE
 70
     1
  9
$TEXTSIZE
 40
2.5
  9
$TRACEWID
 40
1.0
  9
$TEXTSTYLE
  7
AD-STANDARD
  9
$CLAYER
  8
0
  9
$CELTYPE
  6
BYLAYER
  9
$CECOLOR
 62
   256
  9
$CELTSCALE
 40
1.0
  9
$DISPSILH
 70
     0
  9
$DIMSCALE
 40
3.0
  9
$DIMASZ
 40
2.5
  9
$DIMEXO
 40
1.0
  9
$DIMDLI
 40
0.38
  9
$DIMRND
 40
0.0
  9
$DIMDLE
 40
0.0
  9
$DIMEXE
 40
2.0
  9
$DIMTP
 40
0.0
  9
$DIMTM
 40
0.0
  9
$DIMTXT
 40
3.0
  9
$DIMCEN
 40
-2.0
  9
$DIMTSZ
 40
0.0
  9
$DIMTOL
 70
     0
  9
$DIMLIM
 70
     0
  9
$DIMTIH
 70
     0
  9
$DIMTOH
 70
     0
  9
$DIMSE1
 70
     0
  9
$DIMSE2
 70
     0
  9
$DIMTAD
 70
     1
  9
$DIMZIN
 70
     8
  9
$DIMBLK
  1

  9
$DIMASO
 70
     1
  9
$DIMSHO
 70
     1
  9
$DIMPOST
  1

  9
$DIMAPOST
  1

  9
$DIMALT
 70
     0
  9
$DIMALTD
 70
     2
  9
$DIMALTF
 40
25.4
  9
$DIMLFAC
 40
1.0
  9
$DIMTOFL
 70
     1
  9
$DIMTVP
 40
0.0
  9
$DIMTIX
 70
     0
  9
$DIMSOXD
 70
     0
  9
$DIMSAH
 70
     0
  9
$DIMBLK1
  1

  9
$DIMBLK2
  1

  9
$DIMSTYLE
  2
AD-STANDARD
  9
$DIMCLRD
 70
     9
  9
$DIMCLRE
 70
     9
  9
$DIMCLRT
 70
     2
  9
$DIMTFAC
 40
1.0
  9
$DIMGAP
 40
0.5
  9
$DIMJUST
 70
     0
  9
$DIMSD1
 70
     0
  9
$DIMSD2
 70
     0
  9
$DIMTOLJ
 70
     1
  9
$DIMTZIN
 70
     8
  9
$DIMALTZ
 70
     0
  9
$DIMALTTZ
 70
     0
  9
$DIMUPT
 70
     0
  9
$DIMDEC
 70
     4
  9
$DIMTDEC
 70
     4
  9
$DIMALTU
 70
     2
  9
$DIMALTTD
 70
     2
  9
$DIMTXSTY
  7
AD-STANDARD
  9
$DIMAUNIT
 70
     0
  9
$DIMADEC
 70
     0
  9
$DIMALTRND
 40
0.0
  9
$DIMAZIN
 70
     0
  9
$DIMDSEP
 70
    46
  9
$DIMATFIT
 70
     3
  9
$DIMFRAC
 70
     0
  9
$DIMLDRBLK
  1

  9
$DIMLUNIT
 70
     2
  9
$DIMLWD
 70
    -2
  9
$DIMLWE
 70
    -2
  9
$DIMTMOVE
 70
     0
  9
$LUNITS
 70
     2
  9
$LUPREC
 70
     4
  9
$SKETCHINC
 40
1.0
  9
$FILLETRAD
 40
0.0
  9
$AUNITS
 70
     0
  9
$AUPREC
 70
     0
  9
$MENU
  1
.
  9
$ELEVATION
 40
0.0
  9
$PELEVATION
 40
0.0
  9
$THICKNESS
 40
0.0
  9
$LIMCHECK
 70
     0
  9
$CHAMFERA
 40
336.7003367003367
  9
$CHAMFERB
 40
336.7003367003367
  9
$CHAMFERC
 40
673.4006734006733
  9
$CHAMFERD
 40
0.0
  9
$SKPOLY
 70
     0
  9
$TDCREATE
 40
2450771.449661690
  9
$TDUCREATE
 40
2450771.074661690
  9
$TDUPDATE
 40
2455856.491379387
  9
$TDUUPDATE
 40
2455856.116379387
  9
$TDINDWG
 40
0.4886513079
  9
$TDUSRTIMER
 40
0.4886513079
  9
$USRTIMER
 70
     1
  9
$ANGBASE
 50
0.0
  9
$ANGDIR
 70
     0
  9
$PDMODE
 70
     0
  9
$PDSIZE
 40
0.0
  9
$PLINEWID
 40
0.0
  9
$SPLFRAME
 70
     0
  9
$SPLINETYPE
 70
     6
  9
$SPLINESEGS
 70
     8
  9
$HANDSEED
  5
151C4
  9
$SURFTAB1
 70
     6
  9
$SURFTAB2
 70
     6
  9
$SURFTYPE
 70
     6
  9
$SURFU
 70
     6
  9
$SURFV
 70
     6
  9
$UCSBASE
  2

  9
$UCSNAME
  2

  9
$UCSORG
 10
0.0
 20
0.0
 30
0.0
  9
$UCSXDIR
 10
1.0
 20
0.0
 30
0.0
  9
$UCSYDIR
 10
0.0
 20
1.0
 30
0.0
  9
$UCSORTHOREF
  2

  9
$UCSORTHOVIEW
 70
     0
  9
$UCSORGTOP
 10
0.0
 20
0.0
 30
0.0
  9
$UCSORGBOTTOM
 10
0.0
 20
0.0
 30
0.0
  9
$UCSORGLEFT
 10
0.0
 20
0.0
 30
0.0
  9
$UCSORGRIGHT
 10
0.0
 20
0.0
 30
0.0
  9
$UCSORGFRONT
 10
0.0
 20
0.0
 30
0.0
  9
$UCSORGBACK
 10
0.0
 20
0.0
 30
0.0
  9
$PUCSBASE
  2

  9
$PUCSNAME
  2

  9
$PUCSORG
 10
0.0
 20
0.0
 30
0.0
  9
$PUCSXDIR
 10
1.0
 20
0.0
 30
0.0
  9
$PUCSYDIR
 10
0.0
 20
1.0
 30
0.0
  9
$PUCSORTHOREF
  2

  9
$PUCSORTHOVIEW
 70
     0
  9
$PUCSORGTOP
 10
0.0
 20
0.0
 30
0.0
  9
$PUCSORGBOTTOM
 10
0.0
 20
0.0
 30
0.0
  9
$PUCSORGLEFT
 10
0.0
 20
0.0
 30
0.0
  9
$PUCSORGRIGHT
 10
0.0
 20
0.0
 30
0.0
  9
$PUCSORGFRONT
 10
0.0
 20
0.0
 30
0.0
  9
$PUCSORGBACK
 10
0.0
 20
0.0
 30
0.0
  9
$USERI1
 70
     0
  9
$USERI2
 70
     0
  9
$USERI3
 70
     0
  9
$USERI4
 70
     0
  9
$USERI5
 70
     0
  9
$USERR1
 40
0.0
  9
$USERR2
 40
0.0
  9
$USERR3
 40
0.0
  9
$USERR4
 40
0.0
  9
$USERR5
 40
0.0
  9
$WORLDVIEW
 70
     1
  9
$SHADEDGE
 70
     3
  9
$SHADEDIF
 70
    70
  9
$TILEMODE
 70
     0
  9
$MAXACTVP
 70
    16
  9
$PINSBASE
 10
0.0
 20
0.0
 30
0.0
  9
$PLIMCHECK
 70
     0
  9
$PEXTMIN
 10
10.58678151144852
 20
9.207991429517278
 30
0.0
  9
$PEXTMAX
 10
419.3816148461368
 20
295.0104915295863
 30
0.0
  9
$PLIMMIN
 10
4.689054530676116
 20
3.159077773078934
  9
$PLIMMAX
 10
424.8473797259886
 20
300.1909076070633
  9
$UNITMODE
 70
     0
  9
$VISRETAIN
 70
     0
  9
$PLINEGEN
 70
     0
  9
$PSLTSCALE
 70
     1
  9
$TREEDEPTH
 70
  3020
  9
$CMLSTYLE
  2
STANDARD
  9
$CMLJUST
 70
     0
  9
$CMLSCALE
 40
1.0
  9
$PROXYGRAPHICS
 70
     1
  9
$MEASUREMENT
 70
     1
  9
$CELWEIGHT
370
    -1
  9
$ENDCAPS
280
     0
  9
$JOINSTYLE
280
     0
  9
$LWDISPLAY
290
     0
  9
$INSUNITS
 70
     0
  9
$HYPERLINKBASE
  1

  9
$STYLESHEET
  1

  9
$XEDIT
290
     1
  9
$CEPSNTYPE
380
     0
  9
$PSTYLEMODE
290
     1
  9
$FINGERPRINTGUID
  2
{86623588-72C1-4EF3-B6FD-E8CBEE47F90E}
  9
$VERSIONGUID
  2
{DC3E536E-2714-45FA-8DD6-A607E9E2F266}
  9
$EXTNAMES
290
     1
  9
$PSVPSCALE
 40
0.0
  9
$OLESTARTUP
290
     0
  0
ENDSEC
  0
SECTION
  2
CLASSES
  0
CLASS
  1
ACDBDICTIONARYWDFLT
  2
AcDbDictionaryWithDefault
  3
ObjectDBX Classes
 90
        0
280
     0
281
     0
  0
CLASS
  1
TABLESTYLE
  2
AcDbTableStyle
  3
ObjectDBX Classes
 90
     2047
280
     0
281
     0
  0
CLASS
  1
DICTIONARYVAR
  2
AcDbDictionaryVar
  3
ObjectDBX Classes
 90
        0
280
     0
281
     0
  0
CLASS
  1
SORTENTSTABLE
  2
AcDbSortentsTable
  3
ObjectDBX Classes
 90
        0
280
     0
281
     0
  0
CLASS
  1
PLOTSETTINGS
  2
AcDbPlotSettings
  3
ObjectDBX Classes
 90
        0
280
     0
281
     0
  0
CLASS
  1
ACDBPLACEHOLDER
  2
AcDbPlaceHolder
  3
ObjectDBX Classes
 90
        0
280
     0
281
     0
  0
CLASS
  1
LAYOUT
  2
AcDbLayout
  3
ObjectDBX Classes
 90
        0
280
     0
281
     0
  0
CLASS
  1
MATERIAL
  2
AcDbMaterial
  3
ObjectDBX Classes
 90
        0
280
     0
281
     0
  0
ENDSEC
  0
SECTION
  2
TABLES
  0
TABLE
  2
VPORT
  5
8
330
0
100
AcDbSymbolTable
 70
    21
  0
VPORT
  5
151AB
330
8
100
AcDbSymbolTableRecord
100
AcDbViewportTableRecord
  2
*Active
 70
     0
 10
0.0
 20
0.0
 11
1.0
 21
1.0
 12
2169.872716595492
 22
1663.146574515995
 13
0.0
 23
0.0
 14
168.0
 24
168.0
 15
0.0
 25
0.0
 16
0.0
 26
0.0
 36
1.0
 17
0.0
 27
0.0
 37
0.0
 40
4508.048415866971
 41
1.330287206266318
 42
50.0
 43
0.0
 44
0.0
 50
0.0
 51
0.0
 71
     0
 72
   100
 73
     1
 74
     0
 75
     0
 76
     0
 77
     0
 78
     1
281
     0
 65
     1
110
0.0
120
0.0
130
0.0
111
1.0
121
0.0
131
0.0
112
0.0
122
1.0
132
0.0
 79
     0
146
0.0
  0
ENDTAB
  0
TABLE
  2
LTYPE
  5
5
330
0
100
AcDbSymbolTable
 70
     6
  0
LTYPE
  5
14
330
5
100
AcDbSymbolTableRecord
100
AcDbLinetypeTableRecord
  2
BYBLOCK
 70
     0
  3

 72
    65
 73
     0
 40
0.0
  0
LTYPE
  5
15
330
5
100
AcDbSymbolTableRecord
100
AcDbLinetypeTableRecord
  2
BYLAYER
 70
     0
  3

 72
    65
 73
     0
 40
0.0
  0
LTYPE
  5
16
330
5
100
AcDbSymbolTableRecord
100
AcDbLinetypeTableRecord
  2
CONTINUOUS
 70
     0
  3
Solid line
 72
    65
 73
     0
 40
0.0
  0
LTYPE
  5
6E
330
5
100
AcDbSymbolTableRecord
100
AcDbLinetypeTableRecord
  2
CENTER
 70
     0
  3
____ _ ____ _ ____ _ ____ _ ____ _ ____ _ ____ 
 72
    65
 73
     4
 40
2.0
 49
1.25
 74
     0
 49
-0.25
 74
     0
 49
0.25
 74
     0
 49
-0.25
 74
     0
  0
LTYPE
  5
14F9D
330
5
100
AcDbSymbolTableRecord
100
AcDbLinetypeTableRecord
  2
PHANTOM
 70
     0
  3
Phantom ______  __  __  ______  __  __  ______
 72
    65
 73
     6
 40
63.5
 49
31.75
 74
     0
 49
-6.349999999999999
 74
     0
 49
6.349999999999999
 74
     0
 49
-6.349999999999999
 74
     0
 49
6.349999999999999
 74
     0
 49
-6.349999999999999
 74
     0
  0
ENDTAB
  0
TABLE
  2
LAYER
  5
2
102
{ACAD_XDICTIONARY
360
12369
102
}
330
0
100
AcDbSymbolTable
 70
    15
  0
LAYER
  5
F
330
2
100
AcDbSymbolTableRecord
100
AcDbLayerTableRecord
  2
0
 70
     0
 62
     7
  6
CONTINUOUS
370
    -3
390
12354
  0
LAYER
  5
71
330
2
100
AcDbSymbolTableRecord
100
AcDbLayerTableRecord
  2
MEASURE
 70
     0
 62
     8
  6
CONTINUOUS
370
    -3
390
12354
  0
LAYER
  5
72
330
2
100
AcDbSymbolTableRecord
100
AcDbLayerTableRecord
  2
DEFPOINTS
 70
     0
 62
     7
  6
CONTINUOUS
290
     0
370
    -3
390
12354
  0
LAYER
  5
1422F
330
2
100
AcDbSymbolTableRecord
100
AcDbLayerTableRecord
  2
CENTER
 70
     0
 62
     9
  6
CENTER
370
    18
390
12354
  0
LAYER
  5
14F07
330
2
100
AcDbSymbolTableRecord
100
AcDbLayerTableRecord
  2
SN
 70
     0
 62
     7
  6
CONTINUOUS
370
    -3
390
12354
1001
AcAecLayerStandard
1000

1000

  0
ENDTAB
  0
TABLE
  2
STYLE
  5
3
330
0
100
AcDbSymbolTable
 70
     8
  0
STYLE
  5
10
330
3
100
AcDbSymbolTableRecord
100
AcDbTextStyleTableRecord
  2
STANDARD
 70
     0
 40
0.0
 41
0.8
 50
0.0
 71
     0
 42
84.17508417508416
  3
TXT
  4
bigfont.shx
  0
STYLE
  5
63
330
3
100
AcDbSymbolTableRecord
100
AcDbTextStyleTableRecord
  2
AD-STANDARD
 70
     0
 40
0.0
 41
0.8
 50
0.0
 71
     0
 42
2.5
  3
C:\Program Files\AutoCAD LT\romans.shx
  4
bigfont.shx
  0
ENDTAB
  0
TABLE
  2
VIEW
  5
6
330
0
100
AcDbSymbolTable
 70
     7
  0
ENDTAB
  0
TABLE
  2
UCS
  5
7
330
0
100
AcDbSymbolTable
 70
     0
  0
ENDTAB
  0
TABLE
  2
APPID
  5
9
330
0
100
AcDbSymbolTable
 70
     8
  0
APPID
  5
11
330
9
100
AcDbSymbolTableRecord
100
AcDbRegAppTableRecord
  2
ACAD
 70
     0
  0
APPID
  5
12363
330
9
100
AcDbSymbolTableRecord
100
AcDbRegAppTableRecord
  2
ACAD_PSEXT
 70
     0
  0
APPID
  5
13A8E
330
9
100
AcDbSymbolTableRecord
100
AcDbRegAppTableRecord
  2
ACAD_DSTYLE_DIMTEXT_FILL
 70
     0
  0
APPID
  5
13D39
330
9
100
AcDbSymbolTableRecord
100
AcDbRegAppTableRecord
  2
ACAD_EXEMPT_FROM_CAD_STANDARDS
 70
     0
  0
APPID
  5
1478F
330
9
100
AcDbSymbolTableRecord
100
AcDbRegAppTableRecord
  2
ACAD_DSTYLE_DIMJAG
 70
     0
  0
APPID
  5
14790
330
9
100
AcDbSymbolTableRecord
100
AcDbRegAppTableRecord
  2
ACAD_DSTYLE_DIMTALN
 70
     0
  0
APPID
  5
14791
330
9
100
AcDbSymbolTableRecord
100
AcDbRegAppTableRecord
  2
ACAD_DSTYLE_DIMRADIAL_EXTENSION
 70
     0
  0
APPID
  5
14F08
330
9
100
AcDbSymbolTableRecord
100
AcDbRegAppTableRecord
  2
AcAecLayerStandard
 70
     0
  0
ENDTAB
  0
TABLE
  2
DIMSTYLE
  5
A
330
0
100
AcDbSymbolTable
 70
     8
100
AcDbDimStyleTable
 71
     2
340
68
340
14232
  0
DIMSTYLE
105
1D
330
A
100
AcDbSymbolTableRecord
100
AcDbDimStyleTableRecord
  2
STANDARD
 70
     0
340
10
  0
DIMSTYLE
105
68
330
A
100
AcDbSymbolTableRecord
100
AcDbDimStyleTableRecord
  2
AD-STANDARD
 70
     0
 41
2.5
 42
1.0
 44
2.0
 73
     0
 74
     0
 77
     1
 78
     8
140
3.5
141
-2.0
147
0.5
172
     1
176
     9
177
     9
178
     2
284
     8
340
63
  0
DIMSTYLE
105
14232
102
{ACAD_REACTORS
330
14235
330
14236
330
14237
330
14238
330
14239
330
1423A
330
1423B
330
1423E
330
142B8
330
1436A
330
1436B
330
1436C
330
1436D
330
1436E
330
1436F
330
14370
330
14373
330
143ED
330
14B40
330
14C2C
330
14C2D
330
14E40
330
14E41
330
14C30
330
14C2F
330
14C2E
330
14E42
102
}
330
A
100
AcDbSymbolTableRecord
100
AcDbDimStyleTableRecord
  2
AD-STANDARDx3
 70
     0
 40
8.0
 41
2.5
 42
1.0
 44
2.0
 48
0.000000001
 73
     0
 74
     0
 77
     1
 78
     8
140
3.5
141
0.0
146
0.5
147
0.5
172
     1
176
     9
177
     9
178
     2
284
     8
340
63
371
    18
372
    18
  0
ENDTAB
  0
TABLE
  2
BLOCK_RECORD
  5
1
330
0
100
AcDbSymbolTable
 70
    64
  0
BLOCK_RECORD
  5
1A
102
{ACAD_XDICTIONARY
360
13F76
102
}
330
1
100
AcDbSymbolTableRecord
100
AcDbBlockTableRecord
  2
*MODEL_SPACE
340
1235B
  0
BLOCK_RECORD
  5
17
330
1
100
AcDbSymbolTableRecord
100
AcDbBlockTableRecord
  2
*PAPER_SPACE
340
1235C
  0
BLOCK_RECORD
  5
1449A
330
1
100
AcDbSymbolTableRecord
100
AcDbBlockTableRecord
  2
*D35
340
0
  0
BLOCK_RECORD
  5
144A6
330
1
100
AcDbSymbolTableRecord
100
AcDbBlockTableRecord
  2
*D36
340
0
  0
BLOCK_RECORD
  5
144B2
330
1
100
AcDbSymbolTableRecord
100
AcDbBlockTableRecord
  2
*D37
340
0
  0
BLOCK_RECORD
  5
144BE
330
1
100
AcDbSymbolTableRecord
100
AcDbBlockTableRecord
  2
*D38
340
0
  0
BLOCK_RECORD
  5
144CC
330
1
100
AcDbSymbolTableRecord
100
AcDbBlockTableRecord
  2
*D39
340
0
  0
BLOCK_RECORD
  5
144D8
330
1
100
AcDbSymbolTableRecord
100
AcDbBlockTableRecord
  2
*D40
340
0
  0
BLOCK_RECORD
  5
144E4
330
1
100
AcDbSymbolTableRecord
100
AcDbBlockTableRecord
  2
*D41
340
0
  0
BLOCK_RECORD
  5
144F0
330
1
100
AcDbSymbolTableRecord
100
AcDbBlockTableRecord
  2
*D42
340
0
  0
BLOCK_RECORD
  5
144FD
330
1
100
AcDbSymbolTableRecord
100
AcDbBlockTableRecord
  2
*D43
340
0
  0
BLOCK_RECORD
  5
14E44
330
1
100
AcDbSymbolTableRecord
100
AcDbBlockTableRecord
  2
*D55
340
0
  0
BLOCK_RECORD
  5
14E52
330
1
100
AcDbSymbolTableRecord
100
AcDbBlockTableRecord
  2
*D56
340
0
  0
BLOCK_RECORD
  5
14E5E
330
1
100
AcDbSymbolTableRecord
100
AcDbBlockTableRecord
  2
*D57
340
0
  0
BLOCK_RECORD
  5
14E6A
330
1
100
AcDbSymbolTableRecord
100
AcDbBlockTableRecord
  2
*D58
340
0
  0
BLOCK_RECORD
  5
14E76
330
1
100
AcDbSymbolTableRecord
100
AcDbBlockTableRecord
  2
*D59
340
0
  0
BLOCK_RECORD
  5
14E82
330
1
100
AcDbSymbolTableRecord
100
AcDbBlockTableRecord
  2
*D60
340
0
  0
BLOCK_RECORD
  5
14E90
330
1
100
AcDbSymbolTableRecord
100
AcDbBlockTableRecord
  2
*D61
340
0
  0
BLOCK_RECORD
  5
14E9C
330
1
100
AcDbSymbolTableRecord
100
AcDbBlockTableRecord
  2
*D62
340
0
  0
BLOCK_RECORD
  5
14EA8
330
1
100
AcDbSymbolTableRecord
100
AcDbBlockTableRecord
  2
*D63
340
0
  0
ENDTAB
  0
ENDSEC
  0
SECTION
  2
BLOCKS
  0
BLOCK
  5
1B
330
1A
100
AcDbEntity
  8
0
100
AcDbBlockBegin
  2
*MODEL_SPACE
 70
     0
 10
0.0
 20
0.0
 30
0.0
  3
*MODEL_SPACE
  1

  0
ENDBLK
  5
1C
330
1A
100
AcDbEntity
  8
0
100
AcDbBlockEnd
  0
BLOCK
  5
18
330
17
100
AcDbEntity
 67
     1
  8
0
100
AcDbBlockBegin
  2
*PAPER_SPACE
 70
     0
 10
0.0
 20
0.0
 30
0.0
  3
*PAPER_SPACE
  1

  0
ENDBLK
  5
19
330
17
100
AcDbEntity
 67
     1
  8
0
100
AcDbBlockEnd
  0
BLOCK
  5
144A4
330
1449A
100
AcDbEntity
  8
0
100
AcDbBlockBegin
  2
*D35
 70
     1
 10
0.0
 20
0.0
 30
0.0
  3
*D35
  1

  0
LINE
  5
1508E
330
1449A
100
AcDbEntity
  8
MEASURE
 62
     9
370
    18
100
AcDbLine
 10
707.3094093474011
 20
2230.286097883606
 30
0.0
 11
707.3094093474011
 21
2518.63920126988
 31
0.0
  0
LINE
  5
1508F
330
1449A
100
AcDbEntity
  8
MEASURE
 62
     9
370
    18
100
AcDbLine
 10
1807.309409347401
 20
2230.286097883606
 30
0.0
 11
1807.309409347401
 21
2518.63920126988
 31
0.0
  0
LINE
  5
15090
330
1449A
100
AcDbEntity
  8
MEASURE
 62
     9
370
    18
100
AcDbLine
 10
727.3094093474011
 20
2502.63920126988
 30
0.0
 11
1787.309409347401
 21
2502.63920126988
 31
0.0
  0
SOLID
  5
15091
330
1449A
100
AcDbEntity
  8
MEASURE
 62
     9
100
AcDbTrace
 10
727.3094093474011
 20
2505.972534603214
 30
0.0
 11
727.3094093474011
 21
2499.305867936547
 31
0.0
 12
707.3094093474011
 22
2502.63920126988
 32
0.0
 13
707.3094093474011
 23
2502.63920126988
 33
0.0
  0
SOLID
  5
15092
330
1449A
100
AcDbEntity
  8
MEASURE
 62
     9
100
AcDbTrace
 10
1787.309409347401
 20
2505.972534603214
 30
0.0
 11
1787.309409347401
 21
2499.305867936547
 31
0.0
 12
1807.309409347401
 22
2502.63920126988
 32
0.0
 13
1807.309409347401
 23
2502.63920126988
 33
0.0
  0
MTEXT
  5
15093
330
1449A
100
AcDbEntity
  8
MEASURE
 62
     2
100
AcDbMText
 10
1257.309409347401
 20
2520.63920126988
 30
0.0
 40
28.0
 41
0.0
 71
     5
 72
     1
  1
\A1;1100{\H19.600000;±5}
  7
AD-STANDARD
 73
     1
 44
1.0
1001
ACAD
1000
MTEXTBEGIN
1070
    73
1070
     1
1070
    44
1040
1.0
1070
    74
1070
     0
1000
MTEXTEND
  0
POINT
  5
15094
330
1449A
100
AcDbEntity
  8
DEFPOINTS
 62
     0
100
AcDbPoint
 10
707.3094093474011
 20
2222.286097883607
 30
0.0
  0
POINT
  5
15095
330
1449A
100
AcDbEntity
  8
DEFPOINTS
 62
     0
100
AcDbPoint
 10
1807.309409347401
 20
2222.286097883607
 30
0.0
  0
POINT
  5
15096
330
1449A
100
AcDbEntity
  8
DEFPOINTS
 62
     0
100
AcDbPoint
 10
1807.309409347401
 20
2502.63920126988
 30
0.0
  0
ENDBLK
  5
144A5
330
1449A
100
AcDbEntity
  8
0
100
AcDbBlockEnd
  0
BLOCK
  5
144B0
330
144A6
100
AcDbEntity
  8
0
100
AcDbBlockBegin
  2
*D36
 70
     1
 10
0.0
 20
0.0
 30
0.0
  3
*D36
  1

  0
LINE
  5
15085
330
144A6
100
AcDbEntity
  8
MEASURE
 62
     9
370
    18
100
AcDbLine
 10
699.309409347401
 20
1122.286097883607
 30
0.0
 11
390.1700609729029
 21
1122.286097883607
 31
0.0
  0
LINE
  5
15086
330
144A6
100
AcDbEntity
  8
MEASURE
 62
     9
370
    18
100
AcDbLine
 10
699.309409347401
 20
2222.286097883607
 30
0.0
 11
390.1700609729033
 21
2222.286097883607
 31
0.0
  0
LINE
  5
15087
330
144A6
100
AcDbEntity
  8
MEASURE
 62
     9
370
    18
100
AcDbLine
 10
406.1700609729029
 20
1142.286097883607
 30
0.0
 11
406.1700609729032
 21
2202.286097883606
 31
0.0
  0
SOLID
  5
15088
330
144A6
100
AcDbEntity
  8
MEASURE
 62
     9
100
AcDbTrace
 10
402.8367276395696
 20
1142.286097883607
 30
0.0
 11
409.5033943062362
 21
1142.286097883607
 31
0.0
 12
406.1700609729029
 22
1122.286097883607
 32
0.0
 13
406.1700609729029
 23
1122.286097883607
 33
0.0
  0
SOLID
  5
15089
330
144A6
100
AcDbEntity
  8
MEASURE
 62
     9
100
AcDbTrace
 10
402.8367276395699
 20
2202.286097883606
 30
0.0
 11
409.5033943062365
 21
2202.286097883606
 31
0.0
 12
406.1700609729032
 22
2222.286097883607
 32
0.0
 13
406.1700609729032
 23
2222.286097883607
 33
0.0
  0
MTEXT
  5
1508A
330
144A6
100
AcDbEntity
  8
MEASURE
 62
     2
100
AcDbMText
 10
388.1700609729028
 20
1672.286097883607
 30
0.0
 40
28.0
 41
0.0
 71
     5
 72
     1
  1
\A1;1100{\H19.600000;±5}
  7
AD-STANDARD
 11
0.0000000000000001
 21
1.0
 31
0.0
 73
     1
 44
1.0
1001
ACAD
1000
MTEXTBEGIN
1070
    73
1070
     1
1070
    44
1040
1.0
1070
    74
1070
     0
1000
MTEXTEND
  0
POINT
  5
1508B
330
144A6
100
AcDbEntity
  8
DEFPOINTS
 62
     0
100
AcDbPoint
 10
707.309409347401
 20
1122.286097883607
 30
0.0
  0
POINT
  5
1508C
330
144A6
100
AcDbEntity
  8
DEFPOINTS
 62
     0
100
AcDbPoint
 10
707.309409347401
 20
2222.286097883607
 30
0.0
  0
POINT
  5
1508D
330
144A6
100
AcDbEntity
  8
DEFPOINTS
 62
     0
100
AcDbPoint
 10
406.1700609729032
 20
2222.286097883607
 30
0.0
  0
ENDBLK
  5
144B1
330
144A6
100
AcDbEntity
  8
0
100
AcDbBlockEnd
  0
BLOCK
  5
144BC
330
144B2
100
AcDbEntity
  8
0
100
AcDbBlockBegin
  2
*D37
 70
     1
 10
0.0
 20
0.0
 30
0.0
  3
*D37
  1

  0
LINE
  5
150E2
330
144B2
100
AcDbEntity
  8
MEASURE
 62
     9
370
    18
100
AcDbLine
 10
745.3094093473993
 20
514.1227716117477
 30
0.0
 11
745.3094093473993
 21
272.6829210988199
 31
0.0
  0
LINE
  5
150E3
330
144B2
100
AcDbEntity
  8
MEASURE
 62
     9
370
    18
100
AcDbLine
 10
1769.309409347403
 20
515.1227716117456
 30
0.0
 11
1769.309409347403
 21
272.6829210988199
 31
0.0
  0
LINE
  5
150E4
330
144B2
100
AcDbEntity
  8
MEASURE
 62
     9
370
    18
100
AcDbLine
 10
765.3094093473993
 20
288.6829210988199
 30
0.0
 11
1749.309409347403
 21
288.6829210988199
 31
0.0
  0
SOLID
  5
150E5
330
144B2
100
AcDbEntity
  8
MEASURE
 62
     9
100
AcDbTrace
 10
765.3094093473993
 20
292.0162544321532
 30
0.0
 11
765.3094093473993
 21
285.3495877654865
 31
0.0
 12
745.3094093473993
 22
288.6829210988199
 32
0.0
 13
745.3094093473993
 23
288.6829210988199
 33
0.0
  0
SOLID
  5
150E6
330
144B2
100
AcDbEntity
  8
MEASURE
 62
     9
100
AcDbTrace
 10
1749.309409347403
 20
292.0162544321532
 30
0.0
 11
1749.309409347403
 21
285.3495877654865
 31
0.0
 12
1769.309409347403
 22
288.6829210988199
 32
0.0
 13
1769.309409347403
 23
288.6829210988199
 33
0.0
  0
MTEXT
  5
150E7
330
144B2
100
AcDbEntity
  8
MEASURE
 62
     2
100
AcDbMText
 10
1257.309409347401
 20
306.6829210988199
 30
0.0
 40
28.0
 41
0.0
 71
     5
 72
     1
  1
\A1;1024{\H19.600000;±10}
  7
AD-STANDARD
 73
     1
 44
1.0
1001
ACAD
1000
MTEXTBEGIN
1070
    73
1070
     1
1070
    44
1040
1.0
1070
    74
1070
     0
1000
MTEXTEND
  0
POINT
  5
150E8
330
144B2
100
AcDbEntity
  8
DEFPOINTS
 62
     0
100
AcDbPoint
 10
745.3094093473993
 20
522.1227716117477
 30
0.0
  0
POINT
  5
150E9
330
144B2
100
AcDbEntity
  8
DEFPOINTS
 62
     0
100
AcDbPoint
 10
1769.309409347403
 20
523.1227716117456
 30
0.0
  0
POINT
  5
150EA
330
144B2
100
AcDbEntity
  8
DEFPOINTS
 62
     0
100
AcDbPoint
 10
1769.309409347403
 20
288.6829210988199
 30
0.0
  0
ENDBLK
  5
144BD
330
144B2
100
AcDbEntity
  8
0
100
AcDbBlockEnd
  0
BLOCK
  5
144CA
330
144BE
100
AcDbEntity
  8
0
100
AcDbBlockBegin
  2
*D38
 70
     1
 10
0.0
 20
0.0
 30
0.0
  3
*D38
  1

  0
LINE
  5
150EB
330
144BE
100
AcDbEntity
  8
MEASURE
 62
     9
370
    18
100
AcDbLine
 10
710.3094093473994
 20
530.8548608592642
 30
0.0
 11
460.9042552696573
 21
530.8548608592642
 31
0.0
  0
LINE
  5
150EC
330
144BE
100
AcDbEntity
  8
MEASURE
 62
     9
370
    18
100
AcDbLine
 10
699.3094093474011
 20
573.8548608592615
 30
0.0
 11
460.9042552696573
 21
573.8548608592615
 31
0.0
  0
LINE
  5
150ED
330
144BE
100
AcDbEntity
  8
MEASURE
 62
     9
370
    18
100
AcDbLine
 10
476.9042552696573
 20
593.8548608592615
 30
0.0
 11
476.9042552696573
 21
613.8548608592615
 31
0.0
  0
LINE
  5
150EE
330
144BE
100
AcDbEntity
  8
MEASURE
 62
     9
370
    18
100
AcDbLine
 10
476.9042552696573
 20
510.8548608592642
 30
0.0
 11
476.9042552696573
 21
351.1615275259306
 31
0.0
  0
LINE
  5
150EF
330
144BE
100
AcDbEntity
  8
MEASURE
 62
     9
370
    18
100
AcDbLine
 10
476.9042552696573
 20
573.8548608592615
 30
0.0
 11
476.9042552696573
 21
530.8548608592642
 31
0.0
  0
SOLID
  5
150F0
330
144BE
100
AcDbEntity
  8
MEASURE
 62
     9
100
AcDbTrace
 10
473.570921936324
 20
593.8548608592615
 30
0.0
 11
480.2375886029906
 21
593.8548608592615
 31
0.0
 12
476.9042552696573
 22
573.8548608592615
 32
0.0
 13
476.9042552696573
 23
573.8548608592615
 33
0.0
  0
SOLID
  5
150F1
330
144BE
100
AcDbEntity
  8
MEASURE
 62
     9
100
AcDbTrace
 10
473.570921936324
 20
510.8548608592642
 30
0.0
 11
480.2375886029906
 21
510.8548608592642
 31
0.0
 12
476.9042552696573
 22
530.8548608592642
 32
0.0
 13
476.9042552696573
 23
530.8548608592642
 33
0.0
  0
MTEXT
  5
150F2
330
144BE
100
AcDbEntity
  8
MEASURE
 62
     2
100
AcDbMText
 10
458.9042552696573
 20
408.0681941925974
 30
0.0
 40
28.0
 41
0.0
 71
     5
 72
     1
  1
\A1;38～43
  7
AD-STANDARD
 11
0.0000000000000001
 21
1.0
 31
0.0
 73
     1
 44
1.0
1001
ACAD
1000
MTEXTBEGIN
1070
    73
1070
     1
1070
    44
1040
1.0
1070
    74
1070
     0
1000
MTEXTEND
  0
POINT
  5
150F3
330
144BE
100
AcDbEntity
  8
DEFPOINTS
 62
     0
100
AcDbPoint
 10
718.3094093473994
 20
530.8548608592642
 30
0.0
  0
POINT
  5
150F4
330
144BE
100
AcDbEntity
  8
DEFPOINTS
 62
     0
100
AcDbPoint
 10
707.3094093474011
 20
573.8548608592615
 30
0.0
  0
POINT
  5
150F5
330
144BE
100
AcDbEntity
  8
DEFPOINTS
 62
     0
100
AcDbPoint
 10
476.9042552696573
 20
573.8548608592615
 30
0.0
  0
ENDBLK
  5
144CB
330
144BE
100
AcDbEntity
  8
0
100
AcDbBlockEnd
  0
BLOCK
  5
144D6
330
144CC
100
AcDbEntity
  8
0
100
AcDbBlockBegin
  2
*D39
 70
     1
 10
0.0
 20
0.0
 30
0.0
  3
*D39
  1

  0
LINE
  5
150F6
330
144CC
100
AcDbEntity
  8
MEASURE
 62
     9
370
    18
100
AcDbLine
 10
699.3094093474011
 20
573.8548608592614
 30
0.0
 11
460.9042552696573
 21
573.8548608592614
 31
0.0
  0
LINE
  5
150F7
330
144CC
100
AcDbEntity
  8
MEASURE
 62
     9
370
    18
100
AcDbLine
 10
699.3094093474011
 20
648.8548608592614
 30
0.0
 11
460.9042552696573
 21
648.8548608592614
 31
0.0
  0
LINE
  5
150F8
330
144CC
100
AcDbEntity
  8
MEASURE
 62
     9
370
    18
100
AcDbLine
 10
476.9042552696573
 20
593.8548608592614
 30
0.0
 11
476.9042552696573
 21
628.8548608592614
 31
0.0
  0
SOLID
  5
150F9
330
144CC
100
AcDbEntity
  8
MEASURE
 62
     9
100
AcDbTrace
 10
473.570921936324
 20
593.8548608592614
 30
0.0
 11
480.2375886029905
 21
593.8548608592614
 31
0.0
 12
476.9042552696573
 22
573.8548608592614
 32
0.0
 13
476.9042552696573
 23
573.8548608592614
 33
0.0
  0
SOLID
  5
150FA
330
144CC
100
AcDbEntity
  8
MEASURE
 62
     9
100
AcDbTrace
 10
473.570921936324
 20
628.8548608592614
 30
0.0
 11
480.2375886029905
 21
628.8548608592614
 31
0.0
 12
476.9042552696573
 22
648.8548608592614
 32
0.0
 13
476.9042552696573
 23
648.8548608592614
 33
0.0
  0
MTEXT
  5
150FB
330
144CC
100
AcDbEntity
  8
MEASURE
 62
     2
100
AcDbMText
 10
458.9042552696573
 20
611.3548608592615
 30
0.0
 40
28.0
 41
0.0
 71
     5
 72
     1
  1
\A1;75
  7
AD-STANDARD
 11
0.0000000000000001
 21
1.0
 31
0.0
 73
     1
 44
1.0
1001
ACAD
1000
MTEXTBEGIN
1070
    73
1070
     1
1070
    44
1040
1.0
1070
    74
1070
     0
1000
MTEXTEND
  0
POINT
  5
150FC
330
144CC
100
AcDbEntity
  8
DEFPOINTS
 62
     0
100
AcDbPoint
 10
707.3094093474011
 20
573.8548608592614
 30
0.0
  0
POINT
  5
150FD
330
144CC
100
AcDbEntity
  8
DEFPOINTS
 62
     0
100
AcDbPoint
 10
707.3094093474011
 20
648.8548608592614
 30
0.0
  0
POINT
  5
150FE
330
144CC
100
AcDbEntity
  8
DEFPOINTS
 62
     0
100
AcDbPoint
 10
476.9042552696573
 20
648.8548608592614
 30
0.0
  0
ENDBLK
  5
144D7
330
144CC
100
AcDbEntity
  8
0
100
AcDbBlockEnd
  0
BLOCK
  5
144E2
330
144D8
100
AcDbEntity
  8
0
100
AcDbBlockBegin
  2
*D40
 70
     1
 10
0.0
 20
0.0
 30
0.0
  3
*D40
  1

  0
LINE
  5
150FF
330
144D8
100
AcDbEntity
  8
MEASURE
 62
     9
370
    18
100
AcDbLine
 10
699.3094093474011
 20
648.8548608592614
 30
0.0
 11
460.9042552696573
 21
648.8548608592614
 31
0.0
  0
LINE
  5
15100
330
144D8
100
AcDbEntity
  8
MEASURE
 62
     9
370
    18
100
AcDbLine
 10
699.3094093474019
 20
798.8548608592614
 30
0.0
 11
460.9042552696573
 21
798.8548608592614
 31
0.0
  0
LINE
  5
15101
330
144D8
100
AcDbEntity
  8
MEASURE
 62
     9
370
    18
100
AcDbLine
 10
476.9042552696573
 20
668.8548608592614
 30
0.0
 11
476.9042552696573
 21
778.8548608592614
 31
0.0
  0
SOLID
  5
15102
330
144D8
100
AcDbEntity
  8
MEASURE
 62
     9
100
AcDbTrace
 10
473.570921936324
 20
668.8548608592614
 30
0.0
 11
480.2375886029906
 21
668.8548608592614
 31
0.0
 12
476.9042552696573
 22
648.8548608592614
 32
0.0
 13
476.9042552696573
 23
648.8548608592614
 33
0.0
  0
SOLID
  5
15103
330
144D8
100
AcDbEntity
  8
MEASURE
 62
     9
100
AcDbTrace
 10
473.570921936324
 20
778.8548608592614
 30
0.0
 11
480.2375886029906
 21
778.8548608592614
 31
0.0
 12
476.9042552696573
 22
798.8548608592614
 32
0.0
 13
476.9042552696573
 23
798.8548608592614
 33
0.0
  0
MTEXT
  5
15104
330
144D8
100
AcDbEntity
  8
MEASURE
 62
     2
100
AcDbMText
 10
458.9042552696573
 20
723.8548608592615
 30
0.0
 40
28.0
 41
0.0
 71
     5
 72
     1
  1
\A1;150{\H19.600000;±2}
  7
AD-STANDARD
 11
0.0000000000000001
 21
1.0
 31
0.0
 73
     1
 44
1.0
1001
ACAD
1000
MTEXTBEGIN
1070
    73
1070
     1
1070
    44
1040
1.0
1070
    74
1070
     0
1000
MTEXTEND
  0
POINT
  5
15105
330
144D8
100
AcDbEntity
  8
DEFPOINTS
 62
     0
100
AcDbPoint
 10
707.3094093474011
 20
648.8548608592614
 30
0.0
  0
POINT
  5
15106
330
144D8
100
AcDbEntity
  8
DEFPOINTS
 62
     0
100
AcDbPoint
 10
707.3094093474018
 20
798.8548608592614
 30
0.0
  0
POINT
  5
15107
330
144D8
100
AcDbEntity
  8
DEFPOINTS
 62
     0
100
AcDbPoint
 10
476.9042552696573
 20
798.8548608592614
 30
0.0
  0
ENDBLK
  5
144E3
330
144D8
100
AcDbEntity
  8
0
100
AcDbBlockEnd
  0
BLOCK
  5
144EE
330
144E4
100
AcDbEntity
  8
0
100
AcDbBlockBegin
  2
*D41
 70
     1
 10
0.0
 20
0.0
 30
0.0
  3
*D41
  1

  0
LINE
  5
15108
330
144E4
100
AcDbEntity
  8
MEASURE
 62
     9
370
    18
100
AcDbLine
 10
710.3094093473993
 20
530.8548608592642
 30
0.0
 11
390.1886136840967
 21
530.8548608592642
 31
0.0
  0
LINE
  5
15109
330
144E4
100
AcDbEntity
  8
MEASURE
 62
     9
370
    18
100
AcDbLine
 10
699.3094093474019
 20
798.8548608592614
 30
0.0
 11
390.1886136840967
 21
798.8548608592614
 31
0.0
  0
LINE
  5
1510A
330
144E4
100
AcDbEntity
  8
MEASURE
 62
     9
370
    18
100
AcDbLine
 10
406.1886136840966
 20
550.8548608592642
 30
0.0
 11
406.1886136840967
 21
778.8548608592614
 31
0.0
  0
SOLID
  5
1510B
330
144E4
100
AcDbEntity
  8
MEASURE
 62
     9
100
AcDbTrace
 10
402.8552803507633
 20
550.8548608592642
 30
0.0
 11
409.5219470174299
 21
550.8548608592642
 31
0.0
 12
406.1886136840966
 22
530.8548608592642
 32
0.0
 13
406.1886136840966
 23
530.8548608592642
 33
0.0
  0
SOLID
  5
1510C
330
144E4
100
AcDbEntity
  8
MEASURE
 62
     9
100
AcDbTrace
 10
402.8552803507634
 20
778.8548608592614
 30
0.0
 11
409.52194701743
 21
778.8548608592614
 31
0.0
 12
406.1886136840967
 22
798.8548608592614
 32
0.0
 13
406.1886136840967
 23
798.8548608592614
 33
0.0
  0
MTEXT
  5
1510D
330
144E4
100
AcDbEntity
  8
MEASURE
 62
     2
100
AcDbMText
 10
388.1886136840966
 20
650.8548608592629
 30
0.0
 40
28.0
 41
0.0
 71
     5
 72
     1
  1
\A1;263～268
  7
AD-STANDARD
 11
0.0000000000000001
 21
1.0
 31
0.0
 73
     1
 44
1.0
1001
ACAD
1000
MTEXTBEGIN
1070
    73
1070
     1
1070
    44
1040
1.0
1070
    74
1070
     0
1000
MTEXTEND
  0
POINT
  5
1510E
330
144E4
100
AcDbEntity
  8
DEFPOINTS
 62
     0
100
AcDbPoint
 10
718.3094093473993
 20
530.8548608592642
 30
0.0
  0
POINT
  5
1510F
330
144E4
100
AcDbEntity
  8
DEFPOINTS
 62
     0
100
AcDbPoint
 10
707.3094093474018
 20
798.8548608592614
 30
0.0
  0
POINT
  5
15110
330
144E4
100
AcDbEntity
  8
DEFPOINTS
 62
     0
100
AcDbPoint
 10
406.1886136840967
 20
798.8548608592614
 30
0.0
  0
ENDBLK
  5
144EF
330
144E4
100
AcDbEntity
  8
0
100
AcDbBlockEnd
  0
BLOCK
  5
144FB
330
144F0
100
AcDbEntity
  8
0
100
AcDbBlockBegin
  2
*D42
 70
     1
 10
0.0
 20
0.0
 30
0.0
  3
*D42
  1

  0
LINE
  5
15111
330
144F0
100
AcDbEntity
  8
MEASURE
 62
     9
370
    18
100
AcDbLine
 10
716.3094093473993
 20
524.8548608592642
 30
0.0
 11
716.3094093473993
 21
335.8096570378493
 31
0.0
  0
LINE
  5
15112
330
144F0
100
AcDbEntity
  8
MEASURE
 62
     9
370
    18
100
AcDbLine
 10
774.3094093473993
 20
524.8548608592642
 30
0.0
 11
774.3094093473993
 21
335.8096570378493
 31
0.0
  0
LINE
  5
15113
330
144F0
100
AcDbEntity
  8
MEASURE
 62
     9
370
    18
100
AcDbLine
 10
754.3094093473992
 20
351.8096570378493
 30
0.0
 11
736.3094093473993
 21
351.8096570378493
 31
0.0
  0
LINE
  5
15114
330
144F0
100
AcDbEntity
  8
MEASURE
 62
     9
370
    18
100
AcDbLine
 10
716.3094093473993
 20
351.8096570378493
 30
0.0
 11
631.1482610543706
 21
351.8096570378493
 31
0.0
  0
SOLID
  5
15115
330
144F0
100
AcDbEntity
  8
MEASURE
 62
     9
100
AcDbTrace
 10
754.3094093473992
 20
355.1429903711826
 30
0.0
 11
754.3094093473992
 21
348.476323704516
 31
0.0
 12
774.3094093473993
 22
351.8096570378493
 32
0.0
 13
774.3094093473993
 23
351.8096570378493
 33
0.0
  0
SOLID
  5
15116
330
144F0
100
AcDbEntity
  8
MEASURE
 62
     9
100
AcDbTrace
 10
736.3094093473993
 20
355.1429903711826
 30
0.0
 11
736.3094093473993
 21
348.476323704516
 31
0.0
 12
716.3094093473993
 22
351.8096570378493
 32
0.0
 13
716.3094093473993
 23
351.8096570378493
 33
0.0
  0
MTEXT
  5
15117
330
144F0
100
AcDbEntity
  8
MEASURE
 62
     2
100
AcDbMText
 10
663.4149277210371
 20
369.8096570378493
 30
0.0
 40
28.0
 41
0.0
 71
     5
 72
     1
  1
\A1;%%C58
  7
AD-STANDARD
 73
     1
 44
1.0
1001
ACAD
1000
MTEXTBEGIN
1070
    73
1070
     1
1070
    44
1040
1.0
1070
    74
1070
     0
1000
MTEXTEND
  0
POINT
  5
15118
330
144F0
100
AcDbEntity
  8
DEFPOINTS
 62
     0
100
AcDbPoint
 10
716.3094093473993
 20
532.8548608592642
 30
0.0
  0
POINT
  5
15119
330
144F0
100
AcDbEntity
  8
DEFPOINTS
 62
     0
100
AcDbPoint
 10
774.3094093473993
 20
532.8548608592642
 30
0.0
  0
POINT
  5
1511A
330
144F0
100
AcDbEntity
  8
DEFPOINTS
 62
     0
100
AcDbPoint
 10
774.3094093473993
 20
351.8096570378493
 30
0.0
  0
ENDBLK
  5
144FC
330
144F0
100
AcDbEntity
  8
0
100
AcDbBlockEnd
  0
BLOCK
  5
14507
330
144FD
100
AcDbEntity
  8
0
100
AcDbBlockBegin
  2
*D43
 70
     1
 10
0.0
 20
0.0
 30
0.0
  3
*D43
  1

  0
LINE
  5
1511B
330
144FD
100
AcDbEntity
  8
MEASURE
 62
     9
370
    18
100
AcDbLine
 10
2313.658000528989
 20
515.1227716117476
 30
0.0
 11
2313.658000528989
 21
272.682864673754
 31
0.0
  0
LINE
  5
1511C
330
144FD
100
AcDbEntity
  8
MEASURE
 62
     9
370
    18
100
AcDbLine
 10
3339.658000528993
 20
515.1227716117473
 30
0.0
 11
3339.658000528993
 21
272.682864673754
 31
0.0
  0
LINE
  5
1511D
330
144FD
100
AcDbEntity
  8
MEASURE
 62
     9
370
    18
100
AcDbLine
 10
2333.658000528989
 20
288.682864673754
 30
0.0
 11
3319.658000528992
 21
288.682864673754
 31
0.0
  0
SOLID
  5
1511E
330
144FD
100
AcDbEntity
  8
MEASURE
 62
     9
100
AcDbTrace
 10
2333.658000528989
 20
292.0161980070873
 30
0.0
 11
2333.658000528989
 21
285.3495313404207
 31
0.0
 12
2313.658000528989
 22
288.682864673754
 32
0.0
 13
2313.658000528989
 23
288.682864673754
 33
0.0
  0
SOLID
  5
1511F
330
144FD
100
AcDbEntity
  8
MEASURE
 62
     9
100
AcDbTrace
 10
3319.658000528992
 20
292.0161980070873
 30
0.0
 11
3319.658000528992
 21
285.3495313404207
 31
0.0
 12
3339.658000528993
 22
288.682864673754
 32
0.0
 13
3339.658000528993
 23
288.682864673754
 33
0.0
  0
MTEXT
  5
15120
330
144FD
100
AcDbEntity
  8
MEASURE
 62
     2
100
AcDbMText
 10
2826.658000528991
 20
306.682864673754
 30
0.0
 40
28.0
 41
0.0
 71
     5
 72
     1
  1
\A1;1026{\H19.600000;±10}
  7
AD-STANDARD
 73
     1
 44
1.0
1001
ACAD
1000
MTEXTBEGIN
1070
    73
1070
     1
1070
    44
1040
1.0
1070
    74
1070
     0
1000
MTEXTEND
  0
POINT
  5
15121
330
144FD
100
AcDbEntity
  8
DEFPOINTS
 62
     0
100
AcDbPoint
 10
2313.658000528989
 20
523.1227716117476
 30
0.0
  0
POINT
  5
15122
330
144FD
100
AcDbEntity
  8
DEFPOINTS
 62
     0
100
AcDbPoint
 10
3339.658000528993
 20
523.1227716117473
 30
0.0
  0
POINT
  5
15123
330
144FD
100
AcDbEntity
  8
DEFPOINTS
 62
     0
100
AcDbPoint
 10
3339.658000528993
 20
288.682864673754
 30
0.0
  0
ENDBLK
  5
14508
330
144FD
100
AcDbEntity
  8
0
100
AcDbBlockEnd
  0
BLOCK
  5
14E50
330
14E44
100
AcDbEntity
  8
0
100
AcDbBlockBegin
  2
*D55
 70
     1
 10
0.0
 20
0.0
 30
0.0
  3
*D55
  1

  0
LINE
  5
1517E
330
14E44
100
AcDbEntity
  8
MEASURE
 62
     9
370
    18
100
AcDbLine
 10
2795.190890482256
 20
1969.878504278553
 30
0.0
 11
2775.190890482256
 21
1969.878504278553
 31
0.0
  0
LINE
  5
1517F
330
14E44
100
AcDbEntity
  8
MEASURE
 62
     9
370
    18
100
AcDbLine
 10
2857.058819921502
 20
1969.878504278553
 30
0.0
 11
2946.925486588169
 21
1969.878504278553
 31
0.0
  0
LINE
  5
15180
330
14E44
100
AcDbEntity
  8
MEASURE
 62
     9
370
    18
100
AcDbLine
 10
2815.190890482256
 20
1969.878504278553
 30
0.0
 11
2837.058819921502
 21
1969.878504278553
 31
0.0
  0
SOLID
  5
15181
330
14E44
100
AcDbEntity
  8
MEASURE
 62
     9
100
AcDbTrace
 10
2795.190890482256
 20
1973.211837611886
 30
0.0
 11
2795.190890482256
 21
1966.54517094522
 31
0.0
 12
2815.190890482256
 22
1969.878504278553
 32
0.0
 13
2815.190890482256
 23
1969.878504278553
 33
0.0
  0
SOLID
  5
15182
330
14E44
100
AcDbEntity
  8
MEASURE
 62
     9
100
AcDbTrace
 10
2857.058819921502
 20
1973.211837611886
 30
0.0
 11
2857.058819921502
 21
1966.54517094522
 31
0.0
 12
2837.058819921502
 22
1969.878504278553
 32
0.0
 13
2837.058819921502
 23
1969.878504278553
 33
0.0
  0
MTEXT
  5
15183
330
14E44
100
AcDbEntity
  8
MEASURE
 62
     2
100
AcDbMText
 10
2911.992153254835
 20
1987.878504278553
 30
0.0
 40
28.0
 41
0.0
 71
     5
 72
     1
  1
\A1;φ22
  7
AD-STANDARD
 73
     1
 44
1.0
1001
ACAD
1000
MTEXTBEGIN
1070
    73
1070
     1
1070
    44
1040
1.0
1070
    74
1070
     0
1000
MTEXTEND
  0
POINT
  5
15184
330
14E44
100
AcDbEntity
  8
DEFPOINTS
 62
     0
100
AcDbPoint
 10
2815.190890482256
 20
1996.184128337777
 30
0.0
  0
POINT
  5
15185
330
14E44
100
AcDbEntity
  8
DEFPOINTS
 62
     0
100
AcDbPoint
 10
2837.058819921502
 20
1996.184128337777
 30
0.0
  0
POINT
  5
15186
330
14E44
100
AcDbEntity
  8
DEFPOINTS
 62
     0
100
AcDbPoint
 10
2837.058819921502
 20
1969.878504278553
 30
0.0
  0
ENDBLK
  5
14E51
330
14E44
100
AcDbEntity
  8
0
100
AcDbBlockEnd
  0
BLOCK
  5
14E5C
330
14E52
100
AcDbEntity
  8
0
100
AcDbBlockBegin
  2
*D56
 70
     1
 10
0.0
 20
0.0
 30
0.0
  3
*D56
  1

  0
LINE
  5
15187
330
14E52
100
AcDbEntity
  8
MEASURE
 62
     9
370
    18
100
AcDbLine
 10
2688.581124897952
 20
2172.750260441532
 30
0.0
 11
2688.581124897952
 21
2303.197186885173
 31
0.0
  0
LINE
  5
15188
330
14E52
100
AcDbEntity
  8
MEASURE
 62
     9
370
    18
100
AcDbLine
 10
2963.581124897952
 20
2172.750260441532
 30
0.0
 11
2963.581124897952
 21
2303.197186885173
 31
0.0
  0
LINE
  5
15189
330
14E52
100
AcDbEntity
  8
MEASURE
 62
     9
370
    18
100
AcDbLine
 10
2708.581124897952
 20
2287.197186885173
 30
0.0
 11
2943.581124897952
 21
2287.197186885173
 31
0.0
  0
SOLID
  5
1518A
330
14E52
100
AcDbEntity
  8
MEASURE
 62
     9
100
AcDbTrace
 10
2708.581124897952
 20
2290.530520218506
 30
0.0
 11
2708.581124897952
 21
2283.863853551839
 31
0.0
 12
2688.581124897952
 22
2287.197186885173
 32
0.0
 13
2688.581124897952
 23
2287.197186885173
 33
0.0
  0
SOLID
  5
1518B
330
14E52
100
AcDbEntity
  8
MEASURE
 62
     9
100
AcDbTrace
 10
2943.581124897952
 20
2290.530520218506
 30
0.0
 11
2943.581124897952
 21
2283.863853551839
 31
0.0
 12
2963.581124897952
 22
2287.197186885173
 32
0.0
 13
2963.581124897952
 23
2287.197186885173
 33
0.0
  0
MTEXT
  5
1518C
330
14E52
100
AcDbEntity
  8
MEASURE
 62
     2
100
AcDbMText
 10
2826.081124897952
 20
2305.197186885172
 30
0.0
 40
28.0
 41
0.0
 71
     5
 72
     1
  1
\A1;275
  7
AD-STANDARD
 73
     1
 44
1.0
1001
ACAD
1000
MTEXTBEGIN
1070
    73
1070
     1
1070
    44
1040
1.0
1070
    74
1070
     0
1000
MTEXTEND
  0
POINT
  5
1518D
330
14E52
100
AcDbEntity
  8
DEFPOINTS
 62
     0
100
AcDbPoint
 10
2688.581124897952
 20
2164.750260441532
 30
0.0
  0
POINT
  5
1518E
330
14E52
100
AcDbEntity
  8
DEFPOINTS
 62
     0
100
AcDbPoint
 10
2963.581124897952
 20
2164.750260441532
 30
0.0000000000000107
  0
POINT
  5
1518F
330
14E52
100
AcDbEntity
  8
DEFPOINTS
 62
     0
100
AcDbPoint
 10
2963.581124897952
 20
2287.197186885173
 30
0.0
  0
ENDBLK
  5
14E5D
330
14E52
100
AcDbEntity
  8
0
100
AcDbBlockEnd
  0
BLOCK
  5
14E68
330
14E5E
100
AcDbEntity
  8
0
100
AcDbBlockBegin
  2
*D57
 70
     1
 10
0.0
 20
0.0
 30
0.0
  3
*D57
  1

  0
LINE
  5
15136
330
14E5E
100
AcDbEntity
  8
MEASURE
 62
     9
370
    18
100
AcDbLine
 10
2789.581124897948
 20
1715.440913184811
 30
0.0
 11
2769.581124897948
 21
1715.440913184811
 31
0.0
  0
LINE
  5
15137
330
14E5E
100
AcDbEntity
  8
MEASURE
 62
     9
370
    18
100
AcDbLine
 10
2862.581124897948
 20
1715.440913184811
 30
0.0
 11
2947.114458231281
 21
1715.440913184811
 31
0.0
  0
LINE
  5
15138
330
14E5E
100
AcDbEntity
  8
MEASURE
 62
     9
370
    18
100
AcDbLine
 10
2809.581124897948
 20
1715.440913184811
 30
0.0
 11
2842.581124897948
 21
1715.440913184811
 31
0.0
  0
SOLID
  5
15139
330
14E5E
100
AcDbEntity
  8
MEASURE
 62
     9
100
AcDbTrace
 10
2789.581124897948
 20
1718.774246518145
 30
0.0
 11
2789.581124897948
 21
1712.107579851478
 31
0.0
 12
2809.581124897948
 22
1715.440913184811
 32
0.0
 13
2809.581124897948
 23
1715.440913184811
 33
0.0
  0
SOLID
  5
1513A
330
14E5E
100
AcDbEntity
  8
MEASURE
 62
     9
100
AcDbTrace
 10
2862.581124897948
 20
1718.774246518145
 30
0.0
 11
2862.581124897948
 21
1712.107579851478
 31
0.0
 12
2842.581124897948
 22
1715.440913184811
 32
0.0
 13
2842.581124897948
 23
1715.440913184811
 33
0.0
  0
MTEXT
  5
1513B
330
14E5E
100
AcDbEntity
  8
MEASURE
 62
     2
100
AcDbMText
 10
2914.847791564615
 20
1733.440913184811
 30
0.0
 40
28.0
 41
0.0
 71
     5
 72
     1
  1
\A1;%%C33
  7
AD-STANDARD
 73
     1
 44
1.0
1001
ACAD
1000
MTEXTBEGIN
1070
    73
1070
     1
1070
    44
1040
1.0
1070
    74
1070
     0
1000
MTEXTEND
  0
POINT
  5
1513C
330
14E5E
100
AcDbEntity
  8
DEFPOINTS
 62
     0
100
AcDbPoint
 10
2809.581124897948
 20
1673.268939685176
 30
0.0
  0
POINT
  5
1513D
330
14E5E
100
AcDbEntity
  8
DEFPOINTS
 62
     0
100
AcDbPoint
 10
2842.581124897948
 20
1673.268939685176
 30
0.0
  0
POINT
  5
1513E
330
14E5E
100
AcDbEntity
  8
DEFPOINTS
 62
     0
100
AcDbPoint
 10
2842.581124897948
 20
1715.440913184811
 30
0.0
  0
ENDBLK
  5
14E69
330
14E5E
100
AcDbEntity
  8
0
100
AcDbBlockEnd
  0
BLOCK
  5
14E74
330
14E6A
100
AcDbEntity
  8
0
100
AcDbBlockBegin
  2
*D58
 70
     1
 10
0.0
 20
0.0
 30
0.0
  3
*D58
  1

  0
LINE
  5
15190
330
14E6A
100
AcDbEntity
  8
MEASURE
 62
     9
370
    18
100
AcDbLine
 10
2971.581124897952
 20
2197.391250663444
 30
0.0
 11
3232.192909623489
 21
2197.391250663444
 31
0.0
  0
LINE
  5
15191
330
14E6A
100
AcDbEntity
  8
MEASURE
 62
     9
370
    18
100
AcDbLine
 10
3018.750241314782
 20
1356.370264570998
 30
0.0
 11
3232.192909623489
 21
1356.370264570998
 31
0.0
  0
LINE
  5
15192
330
14E6A
100
AcDbEntity
  8
MEASURE
 62
     9
370
    18
100
AcDbLine
 10
3216.192909623489
 20
2177.391250663444
 30
0.0
 11
3216.192909623489
 21
1376.370264570998
 31
0.0
  0
SOLID
  5
15193
330
14E6A
100
AcDbEntity
  8
MEASURE
 62
     9
100
AcDbTrace
 10
3212.859576290155
 20
2177.391250663444
 30
0.0
 11
3219.526242956823
 21
2177.391250663444
 31
0.0
 12
3216.192909623489
 22
2197.391250663444
 32
0.0
 13
3216.192909623489
 23
2197.391250663444
 33
0.0
  0
SOLID
  5
15194
330
14E6A
100
AcDbEntity
  8
MEASURE
 62
     9
100
AcDbTrace
 10
3212.859576290155
 20
1376.370264570998
 30
0.0
 11
3219.526242956823
 21
1376.370264570998
 31
0.0
 12
3216.192909623489
 22
1356.370264570998
 32
0.0
 13
3216.192909623489
 23
1356.370264570998
 33
0.0
  0
MTEXT
  5
15195
330
14E6A
100
AcDbEntity
  8
MEASURE
 62
     2
100
AcDbMText
 10
3198.192909623489
 20
1776.880757617224
 30
0.0
 40
28.0
 41
0.0
 71
     5
 72
     1
  1
\A1;780～1050
  7
AD-STANDARD
 11
0.0000000000000001
 21
1.0
 31
0.0
 73
     1
 44
1.0
1001
ACAD
1000
MTEXTBEGIN
1070
    73
1070
     1
1070
    44
1040
1.0
1070
    74
1070
     0
1000
MTEXTEND
  0
POINT
  5
15196
330
14E6A
100
AcDbEntity
  8
DEFPOINTS
 62
     0
100
AcDbPoint
 10
2963.581124897952
 20
2197.391250663444
 30
0.0
  0
POINT
  5
15197
330
14E6A
100
AcDbEntity
  8
DEFPOINTS
 62
     0
100
AcDbPoint
 10
3010.750241314781
 20
1356.370264570998
 30
0.0
  0
POINT
  5
15198
330
14E6A
100
AcDbEntity
  8
DEFPOINTS
 62
     0
100
AcDbPoint
 10
3216.192909623489
 20
1356.370264570998
 30
0.0
  0
ENDBLK
  5
14E75
330
14E6A
100
AcDbEntity
  8
0
100
AcDbBlockEnd
  0
BLOCK
  5
14E80
330
14E76
100
AcDbEntity
  8
0
100
AcDbBlockBegin
  2
*D59
 70
     1
 10
0.0
 20
0.0
 30
0.0
  3
*D59
  1

  0
LINE
  5
15199
330
14E76
100
AcDbEntity
  8
MEASURE
 62
     9
370
    18
100
AcDbLine
 10
2978.581124897952
 20
2197.391250663444
 30
0.0
 11
3170.076868769215
 21
2197.391250663444
 31
0.0
  0
LINE
  5
1519A
330
14E76
100
AcDbEntity
  8
MEASURE
 62
     9
370
    18
100
AcDbLine
 10
2872.581124897948
 20
2049.150264570998
 30
0.0
 11
3170.076868769215
 21
2049.150264570998
 31
0.0
  0
LINE
  5
1519B
330
14E76
100
AcDbEntity
  8
MEASURE
 62
     9
370
    18
100
AcDbLine
 10
3154.076868769215
 20
2177.391250663444
 30
0.0
 11
3154.076868769215
 21
2069.150264570998
 31
0.0
  0
SOLID
  5
1519C
330
14E76
100
AcDbEntity
  8
MEASURE
 62
     9
100
AcDbTrace
 10
3150.743535435881
 20
2177.391250663444
 30
0.0
 11
3157.410202102548
 21
2177.391250663444
 31
0.0
 12
3154.076868769215
 22
2197.391250663444
 32
0.0
 13
3154.076868769215
 23
2197.391250663444
 33
0.0
  0
SOLID
  5
1519D
330
14E76
100
AcDbEntity
  8
MEASURE
 62
     9
100
AcDbTrace
 10
3150.743535435881
 20
2069.150264570998
 30
0.0
 11
3157.410202102548
 21
2069.150264570998
 31
0.0
 12
3154.076868769215
 22
2049.150264570998
 32
0.0
 13
3154.076868769215
 23
2049.150264570998
 33
0.0
  0
MTEXT
  5
1519E
330
14E76
100
AcDbEntity
  8
MEASURE
 62
     2
100
AcDbMText
 10
3136.076868769214
 20
2123.270757617222
 30
0.0
 40
28.0
 41
0.0
 71
     5
 72
     1
  1
\A1;（148）
  7
AD-STANDARD
 11
0.0000000000000001
 21
1.0
 31
0.0
 73
     1
 44
1.0
1001
ACAD
1000
MTEXTBEGIN
1070
    73
1070
     1
1070
    44
1040
1.0
1070
    74
1070
     0
1000
MTEXTEND
  0
POINT
  5
1519F
330
14E76
100
AcDbEntity
  8
DEFPOINTS
 62
     0
100
AcDbPoint
 10
2970.581124897952
 20
2197.391250663444
 30
0.0
  0
POINT
  5
151A0
330
14E76
100
AcDbEntity
  8
DEFPOINTS
 62
     0
100
AcDbPoint
 10
2864.581124897948
 20
2049.150264570998
 30
0.0
  0
POINT
  5
151A1
330
14E76
100
AcDbEntity
  8
DEFPOINTS
 62
     0
100
AcDbPoint
 10
3154.076868769215
 20
2049.150264570998
 30
0.0
  0
ENDBLK
  5
14E81
330
14E76
100
AcDbEntity
  8
0
100
AcDbBlockEnd
  0
BLOCK
  5
14E8E
330
14E82
100
AcDbEntity
  8
0
100
AcDbBlockBegin
  2
*D60
 70
     1
 10
0.0
 20
0.0
 30
0.0
  3
*D60
  1

  0
LINE
  5
15151
330
14E82
100
AcDbEntity
  8
MEASURE
 62
     9
370
    18
100
AcDbLine
 10
3647.163905238708
 20
2049.150264570998
 30
0.0
 11
3791.443175132935
 21
2049.150264570998
 31
0.0
  0
LINE
  5
15152
330
14E82
100
AcDbEntity
  8
MEASURE
 62
     9
370
    18
100
AcDbLine
 10
3612.716168064741
 20
2202.803017784976
 30
0.0
 11
3685.861792148453
 21
2284.806758968367
 31
0.0
  0
ARC
  5
15153
330
14E82
100
AcDbEntity
  8
MEASURE
 62
     9
370
    18
100
AcDbCircle
 10
3475.661121992118
 20
2049.150264570998
 30
0.0
 40
299.7820531408168
100
AcDbArc
 50
3.823204891671292
 51
44.44449990832589
  0
SOLID
  5
15154
330
14E82
100
AcDbEntity
  8
MEASURE
 62
     9
100
AcDbTrace
 10
3778.107502059457
 20
2069.250326091793
 30
0.0
 11
3771.444545516145
 21
2069.027942310081
 31
0.0
 12
3775.443175132935
 22
2049.150264570998
 32
0.0
 13
3775.443175132935
 23
2049.150264570998
 33
0.0
  0
SOLID
  5
15155
330
14E82
100
AcDbEntity
  8
MEASURE
 62
     9
100
AcDbTrace
 10
3687.383659842691
 20
2256.650921606114
 30
0.0
 11
3691.984820987171
 21
2261.475210213459
 31
0.0
 12
3675.211374592894
 22
2272.866549343229
 32
0.0
 13
3675.211374592894
 23
2272.866549343229
 33
0.0
  0
MTEXT
  5
15156
330
14E82
100
AcDbEntity
  8
MEASURE
 62
     2
100
AcDbMText
 10
3760.141416086586
 20
2190.770868899315
 30
0.0
 40
28.0
 41
0.0
 71
     5
 72
     1
  1
\A1;48°
  7
AD-STANDARD
 11
0.4456532485979044
 21
-0.895205664645915
 31
0.0
 73
     1
 44
1.0
1001
ACAD
1000
MTEXTBEGIN
1070
    73
1070
     1
1070
    44
1040
1.0
1070
    74
1070
     0
1000
MTEXTEND
  0
POINT
  5
15157
330
14E82
100
AcDbEntity
  8
DEFPOINTS
 62
     0
100
AcDbPoint
 10
3763.701084051139
 20
2132.230103535462
 30
0.0
  0
POINT
  5
15158
330
14E82
100
AcDbEntity
  8
DEFPOINTS
 62
     0
100
AcDbPoint
 10
3578.163905238707
 20
2049.150264570998
 30
0.0
  0
POINT
  5
15159
330
14E82
100
AcDbEntity
  8
DEFPOINTS
 62
     0
100
AcDbPoint
 10
3607.390959286961
 20
2196.832912972406
 30
0.0
  0
POINT
  5
1515A
330
14E82
100
AcDbEntity
  8
DEFPOINTS
 62
     0
100
AcDbPoint
 10
3592.356705763123
 20
2179.97797393404
 30
0.0
  0
POINT
  5
1515B
330
14E82
100
AcDbEntity
  8
DEFPOINTS
 62
     0
100
AcDbPoint
 10
3639.163905238707
 20
2049.150264570998
 30
0.0
  0
ENDBLK
  5
14E8F
330
14E82
100
AcDbEntity
  8
0
100
AcDbBlockEnd
  0
BLOCK
  5
14E9A
330
14E90
100
AcDbEntity
  8
0
100
AcDbBlockBegin
  2
*D61
 70
     1
 10
0.0
 20
0.0
 30
0.0
  3
*D61
  1

  0
LINE
  5
1515C
330
14E90
100
AcDbEntity
  8
MEASURE
 62
     9
370
    18
100
AcDbLine
 10
2594.092936398887
 20
1396.150264570998
 30
0.0
 11
2594.092936398887
 21
1232.100827504159
 31
0.0
  0
LINE
  5
1515D
330
14E90
100
AcDbEntity
  8
MEASURE
 62
     9
370
    18
100
AcDbLine
 10
3060.143656532812
 20
1396.150264570999
 30
0.0
 11
3060.143656532812
 21
1232.100827504159
 31
0.0
  0
LINE
  5
1515E
330
14E90
100
AcDbEntity
  8
MEASURE
 62
     9
370
    18
100
AcDbLine
 10
2614.092936398887
 20
1248.100827504159
 30
0.0
 11
3040.143656532811
 21
1248.100827504159
 31
0.0
  0
SOLID
  5
1515F
330
14E90
100
AcDbEntity
  8
MEASURE
 62
     9
100
AcDbTrace
 10
2614.092936398887
 20
1251.434160837493
 30
0.0
 11
2614.092936398887
 21
1244.767494170826
 31
0.0
 12
2594.092936398887
 22
1248.100827504159
 32
0.0
 13
2594.092936398887
 23
1248.100827504159
 33
0.0
  0
SOLID
  5
15160
330
14E90
100
AcDbEntity
  8
MEASURE
 62
     9
100
AcDbTrace
 10
3040.143656532811
 20
1251.434160837493
 30
0.0
 11
3040.143656532811
 21
1244.767494170826
 31
0.0
 12
3060.143656532812
 22
1248.100827504159
 32
0.0
 13
3060.143656532812
 23
1248.100827504159
 33
0.0
  0
MTEXT
  5
15161
330
14E90
100
AcDbEntity
  8
MEASURE
 62
     2
100
AcDbMText
 10
2827.11829646585
 20
1266.100827504159
 30
0.0
 40
28.0
 41
0.0
 71
     5
 72
     1
  1
\A1;（466）
  7
AD-STANDARD
 73
     1
 44
1.0
1001
ACAD
1000
MTEXTBEGIN
1070
    73
1070
     1
1070
    44
1040
1.0
1070
    74
1070
     0
1000
MTEXTEND
  0
POINT
  5
15162
330
14E90
100
AcDbEntity
  8
DEFPOINTS
 62
     0
100
AcDbPoint
 10
2594.092936398887
 20
1404.150264570998
 30
0.0
  0
POINT
  5
15163
330
14E90
100
AcDbEntity
  8
DEFPOINTS
 62
     0
100
AcDbPoint
 10
3060.143656532812
 20
1404.150264570999
 30
0.0
  0
POINT
  5
15164
330
14E90
100
AcDbEntity
  8
DEFPOINTS
 62
     0
100
AcDbPoint
 10
3060.143656532812
 20
1248.100827504159
 30
0.0
  0
ENDBLK
  5
14E9B
330
14E90
100
AcDbEntity
  8
0
100
AcDbBlockEnd
  0
BLOCK
  5
14EA6
330
14E9C
100
AcDbEntity
  8
0
100
AcDbBlockBegin
  2
*D62
 70
     1
 10
0.0
 20
0.0
 30
0.0
  3
*D62
  1

  0
LINE
  5
15165
330
14E9C
100
AcDbEntity
  8
MEASURE
 62
     9
370
    18
100
AcDbLine
 10
3365.913905238708
 20
1396.150264571
 30
0.0
 11
3365.913905238708
 21
1232.100827504159
 31
0.0
  0
LINE
  5
15166
330
14E9C
100
AcDbEntity
  8
MEASURE
 62
     9
370
    18
100
AcDbLine
 10
3817.514421731408
 20
1396.150264570999
 30
0.0
 11
3817.514421731408
 21
1232.100827504159
 31
0.0
  0
LINE
  5
15167
330
14E9C
100
AcDbEntity
  8
MEASURE
 62
     9
370
    18
100
AcDbLine
 10
3385.913905238707
 20
1248.100827504159
 30
0.0
 11
3797.514421731408
 21
1248.100827504159
 31
0.0
  0
SOLID
  5
15168
330
14E9C
100
AcDbEntity
  8
MEASURE
 62
     9
100
AcDbTrace
 10
3385.913905238707
 20
1251.434160837493
 30
0.0
 11
3385.913905238707
 21
1244.767494170826
 31
0.0
 12
3365.913905238708
 22
1248.100827504159
 32
0.0
 13
3365.913905238708
 23
1248.100827504159
 33
0.0
  0
SOLID
  5
15169
330
14E9C
100
AcDbEntity
  8
MEASURE
 62
     9
100
AcDbTrace
 10
3797.514421731408
 20
1251.434160837493
 30
0.0
 11
3797.514421731408
 21
1244.767494170826
 31
0.0
 12
3817.514421731408
 22
1248.100827504159
 32
0.0
 13
3817.514421731408
 23
1248.100827504159
 33
0.0
  0
MTEXT
  5
1516A
330
14E9C
100
AcDbEntity
  8
MEASURE
 62
     2
100
AcDbMText
 10
3591.714163485058
 20
1266.100827504159
 30
0.0
 40
28.0
 41
0.0
 71
     5
 72
     1
  1
\A1;（452）
  7
AD-STANDARD
 73
     1
 44
1.0
1001
ACAD
1000
MTEXTBEGIN
1070
    73
1070
     1
1070
    44
1040
1.0
1070
    74
1070
     0
1000
MTEXTEND
  0
POINT
  5
1516B
330
14E9C
100
AcDbEntity
  8
DEFPOINTS
 62
     0
100
AcDbPoint
 10
3365.913905238708
 20
1404.150264571
 30
0.0
  0
POINT
  5
1516C
330
14E9C
100
AcDbEntity
  8
DEFPOINTS
 62
     0
100
AcDbPoint
 10
3817.514421731408
 20
1404.150264570999
 30
0.0
  0
POINT
  5
1516D
330
14E9C
100
AcDbEntity
  8
DEFPOINTS
 62
     0
100
AcDbPoint
 10
3817.514421731408
 20
1248.100827504159
 30
0.0
  0
ENDBLK
  5
14EA7
330
14E9C
100
AcDbEntity
  8
0
100
AcDbBlockEnd
  0
BLOCK
  5
14EB1
330
14EA8
100
AcDbEntity
  8
0
100
AcDbBlockBegin
  2
*D63
 70
     1
 10
0.0
 20
0.0
 30
0.0
  3
*D63
  1

  0
LINE
  5
1516E
330
14EA8
100
AcDbEntity
  8
MEASURE
 62
     9
370
    18
100
AcDbLine
 10
3801.358687801565
 20
1273.190236374905
 30
0.0
 11
3756.291732281981
 21
1343.444445961522
 31
0.0
  0
LINE
  5
1516F
330
14EA8
100
AcDbEntity
  8
MEASURE
 62
     9
370
    18
100
AcDbLine
 10
3708.237111180828
 20
1418.356083180474
 30
0.0
 11
3697.438319922142
 21
1435.190158960015
 31
0.0
  0
MTEXT
  5
15170
330
14EA8
100
AcDbEntity
  8
MEASURE
 62
     2
100
AcDbMText
 10
3799.375273872703
 20
1309.619215411261
 30
0.0
 40
28.0
 41
0.0
 71
     5
 72
     1
  1
\A1;\U+220549
  7
AD-STANDARD
 11
0.5399395629343196
 21
-0.8417037889770343
 31
0.0
 73
     1
 44
1.0
1001
ACAD
1000
MTEXTBEGIN
1070
    73
1070
     1
1070
    44
1040
1.0
1070
    74
1070
     0
1000
MTEXTEND
  0
LINE
  5
15171
330
14EA8
100
AcDbEntity
  8
MEASURE
 62
     9
370
    18
100
AcDbLine
 10
3719.035902439514
 20
1401.522007400934
 30
0.0
 11
3745.492941023294
 21
1360.278521741062
 31
0.0
  0
SOLID
  5
15172
330
14EA8
100
AcDbEntity
  8
MEASURE
 62
     9
100
AcDbTrace
 10
3711.042790477419
 20
1420.155881723589
 30
0.0
 11
3705.431431884238
 21
1416.55628463736
 31
0.0
 12
3719.035902439514
 22
1401.522007400934
 32
0.0
 13
3719.035902439514
 23
1401.522007400934
 33
0.0
  0
SOLID
  5
15173
330
14EA8
100
AcDbEntity
  8
MEASURE
 62
     9
100
AcDbTrace
 10
3759.097411578571
 20
1345.244244504636
 30
0.0
 11
3753.48605298539
 21
1341.644647418407
 31
0.0
 12
3745.492941023294
 22
1360.278521741062
 32
0.0
 13
3745.492941023294
 23
1360.278521741062
 33
0.0
  0
POINT
  5
15174
330
14EA8
100
AcDbEntity
  8
DEFPOINTS
 62
     0
100
AcDbPoint
 10
3745.492941023294
 20
1360.278521741062
 30
0.0
  0
POINT
  5
15175
330
14EA8
100
AcDbEntity
  8
DEFPOINTS
 62
     0
100
AcDbPoint
 10
3719.035902439514
 20
1401.522007400934
 30
0.0
  0
ENDBLK
  5
14EB2
330
14EA8
100
AcDbEntity
  8
0
100
AcDbBlockEnd
  0
ENDSEC
  0
SECTION
  2
ENTITIES
  0
MTEXT
  5
3ADF
330
1A
100
AcDbEntity
  8
MEASURE
 62
     2
100
AcDbMText
 10
3054.554201207315
 20
4995.708229070817
 30
0.0
 40
3.5
 41
0.0
 71
     7
 72
     5
  1

  7
AD-STANDARD
 73
     1
 44
1.0
1001
ACAD
1000
MTEXTBEGIN
1070
    73
1070
     1
1070
    44
1040
1.0
1070
    74
1070
     0
1000
MTEXTEND
  0
MTEXT
  5
BEF5
330
1A
100
AcDbEntity
  8
MEASURE
 62
     2
100
AcDbMText
 10
5901.138189244232
 20
6136.2348787692
 30
0.0
 40
3.5
 41
0.0
 71
     7
 72
     5
  1

  7
AD-STANDARD
 73
     1
 44
1.0
1001
ACAD
1000
MTEXTBEGIN
1070
    73
1070
     1
1070
    44
1040
1.0
1070
    74
1070
     0
1000
MTEXTEND
  0
LWPOLYLINE
  5
13ACB
330
1A
100
AcDbEntity
  8
DEFPOINTS
100
AcDbPolyline
 90
        4
 70
     1
 43
0.0
 10
0.0
 20
0.0
 10
4200.0
 20
0.0
 10
4200.0
 20
2970.0
 10
0.0
 20
2970.0
  0
LWPOLYLINE
  5
14369
330
1A
100
AcDbEntity
  8
SN
100
AcDbPolyline
 90
        4
 70
     1
 43
0.0
 10
707.3094093474011
 20
1122.286097883606
 10
1807.309409347401
 20
1122.286097883606
 10
1807.309409347401
 20
2222.286097883607
 10
707.3094093474011
 20
2222.286097883607
  0
DIMENSION
  5
1436A
330
1A
100
AcDbEntity
  8
MEASURE
100
AcDbDimension
  2
*D35
 10
1807.309409347401
 20
2502.63920126988
 30
0.0
 11
1257.309409347401
 21
2502.63920126988
 31
0.0
 70
   160
 71
     5
 42
1100.0
  3
AD-STANDARDx3
100
AcDbAlignedDimension
 13
707.3094093474011
 23
2222.286097883607
 33
0.0
 14
1807.309409347401
 24
2222.286097883607
 34
0.0
100
AcDbRotatedDimension
1001
ACAD
1000
DSTYLE
1002
{
1070
    47
1040
5.0
1070
    48
1040
5.0
1070
    71
1070
     1
1070
    78
1070
     8
1070
   146
1040
0.7
1002
}
  0
DIMENSION
  5
1436B
330
1A
100
AcDbEntity
  8
MEASURE
100
AcDbDimension
  2
*D36
 10
406.1700609729032
 20
2222.286097883607
 30
0.0
 11
388.1700609729028
 21
1672.286097883607
 31
0.0
 70
    32
 71
     5
 42
1099.999999999999
  3
AD-STANDARDx3
100
AcDbAlignedDimension
 13
707.309409347401
 23
1122.286097883607
 33
0.0
 14
707.309409347401
 24
2222.286097883607
 34
0.0
 50
90.0
100
AcDbRotatedDimension
1001
ACAD
1000
DSTYLE
1002
{
1070
    47
1040
5.0
1070
    48
1040
5.0
1070
    71
1070
     1
1070
    78
1070
     8
1070
   146
1040
0.7
1002
}
  0
DIMENSION
  5
1436C
330
1A
100
AcDbEntity
  8
MEASURE
100
AcDbDimension
  2
*D37
 10
1769.309409347403
 20
288.6829210988199
 30
0.0
 11
1257.309409347401
 21
306.6829210988199
 31
0.0
 70
    32
 71
     5
 42
1024.000000000003
  3
AD-STANDARDx3
100
AcDbAlignedDimension
 13
745.3094093473993
 23
522.1227716117477
 33
0.0
 14
1769.309409347403
 24
523.1227716117456
 34
0.0
100
AcDbRotatedDimension
1001
ACAD
1000
DSTYLE
1002
{
1070
    47
1040
10.0
1070
    48
1040
10.0
1070
    71
1070
     1
1070
    78
1070
     8
1070
   146
1040
0.7
1002
}
  0
DIMENSION
  5
1436D
330
1A
100
AcDbEntity
  8
MEASURE
100
AcDbDimension
  2
*D38
 10
476.9042552696573
 20
573.8548608592615
 30
0.0
 11
476.9042552696572
 21
408.0681941925973
 31
0.0
 70
   160
  1
38～<>
 71
     5
 42
42.99999999999727
  3
AD-STANDARDx3
100
AcDbAlignedDimension
 13
718.3094093473994
 23
530.8548608592642
 33
0.0
 14
707.3094093474011
 24
573.8548608592615
 34
0.0
 50
90.0
100
AcDbRotatedDimension
1001
ACAD
1000
DSTYLE
1002
{
1070
     3
1000
<>
1002
}
  0
DIMENSION
  5
1436E
330
1A
100
AcDbEntity
  8
MEASURE
100
AcDbDimension
  2
*D39
 10
476.9042552696573
 20
648.8548608592614
 30
0.0
 11
458.9042552696573
 21
611.3548608592615
 31
0.0
 70
    32
 71
     5
 42
75.0
  3
AD-STANDARDx3
100
AcDbAlignedDimension
 13
707.3094093474011
 23
573.8548608592614
 33
0.0
 14
707.3094093474011
 24
648.8548608592614
 34
0.0
 50
90.0
100
AcDbRotatedDimension
  0
DIMENSION
  5
1436F
330
1A
100
AcDbEntity
  8
MEASURE
100
AcDbDimension
  2
*D40
 10
476.9042552696573
 20
798.8548608592614
 30
0.0
 11
458.9042552696573
 21
723.8548608592615
 31
0.0
 70
    32
 71
     5
 42
150.0
  3
AD-STANDARDx3
100
AcDbAlignedDimension
 13
707.3094093474011
 23
648.8548608592614
 33
0.0
 14
707.3094093474018
 24
798.8548608592614
 34
0.0
 50
90.0
100
AcDbRotatedDimension
1001
ACAD
1000
DSTYLE
1002
{
1070
    47
1040
2.0
1070
    48
1040
2.0
1070
    71
1070
     1
1070
    78
1070
     8
1070
   146
1040
0.7
1002
}
  0
DIMENSION
  5
14370
330
1A
100
AcDbEntity
  8
MEASURE
100
AcDbDimension
  2
*D41
 10
406.1886136840967
 20
798.8548608592614
 30
0.0
 11
406.1886136840966
 21
650.8548608592629
 31
0.0
 70
   160
  1
263～<>
 71
     5
 42
267.9999999999972
  3
AD-STANDARDx3
100
AcDbAlignedDimension
 13
718.3094093473993
 23
530.8548608592642
 33
0.0
 14
707.3094093474018
 24
798.8548608592614
 34
0.0
 50
90.0
100
AcDbRotatedDimension
  0
LEADER
  5
14371
330
1A
100
AcDbEntity
  8
MEASURE
100
AcDbLeader
  3
AD-STANDARDx3
 73
     0
 74
     0
 75
     1
 40
28.00000000000001
 41
186.6666666666666
 76
     3
 10
799.5824152925961
 20
564.4220929243458
 30
0.0
 10
879.1294769554955
 20
385.2296964773886
 30
0.0
 10
899.1294769554954
 20
385.2296964773886
 30
0.0
340
14372
213
19.17090177871432
223
-8.996676779721383
233
0.0
1001
ACAD
1000
DSTYLE
1002
{
1070
   147
1040
0.5
1070
    77
1070
     1
1002
}
  0
MTEXT
  5
14372
102
{ACAD_REACTORS
330
14371
102
}
330
1A
100
AcDbEntity
  8
MEASURE
 62
     2
100
AcDbMText
 10
1070.625241843448
 20
398.22637325711
 30
0.0
 40
28.0
 41
0.0
 71
     9
 72
     1
  1
ケーブル引出口
  7
AD-STANDARD
 73
     1
 44
1.0
1001
ACAD
1000
MTEXTBEGIN
1070
    73
1070
     1
1070
    44
1040
1.0
1070
    74
1070
     0
1000
MTEXTEND
  0
DIMENSION
  5
14373
330
1A
100
AcDbEntity
  8
MEASURE
100
AcDbDimension
  2
*D42
 10
774.3094093473993
 20
351.8096570378493
 30
0.0
 11
663.4149277210371
 21
351.8096570378493
 31
0.0
 70
   160
 71
     5
 42
58.0
  3
AD-STANDARDx3
100
AcDbAlignedDimension
 13
716.3094093473993
 23
532.8548608592642
 33
0.0
 14
774.3094093473993
 24
532.8548608592642
 34
0.0
100
AcDbRotatedDimension
1001
ACAD
1000
DSTYLE
1002
{
1070
     3
1000
%%C<>
1002
}
  0
LEADER
  5
14374
330
1A
100
AcDbEntity
  8
MEASURE
100
AcDbLeader
  3
AD-STANDARDx3
 73
     0
 74
     0
 75
     1
 40
28.0
 41
80.64000000000001
 76
     3
 10
1793.959013299351
 20
1434.895086956484
 30
0.0
 10
1999.487315410499
 20
1266.738536671153
 30
0.0
 10
2019.4873154105
 20
1266.738536671153
 30
0.0
340
14375
1001
ACAD
1000
DSTYLE
1002
{
1070
   147
1040
0.5
1070
    77
1070
     1
1002
}
  0
MTEXT
  5
14375
102
{ACAD_REACTORS
330
14374
102
}
330
1A
100
AcDbEntity
  8
MEASURE
 62
     2
100
AcDbMText
 10
2023.4873154105
 20
1270.738536671153
 30
0.0
 40
28.0
 41
0.0
 71
     7
 72
     1
  1
水平器
  7
AD-STANDARD
 73
     1
 44
1.0
1001
ACAD
1000
MTEXTBEGIN
1070
    73
1070
     1
1070
    44
1040
1.0
1070
    74
1070
     0
1000
MTEXTEND
  0
LINE
  5
14376
330
1A
100
AcDbEntity
  8
SN
100
AcDbLine
 10
3376.658000528991
 20
648.8548608592614
 30
0.0
 11
2276.658000528991
 21
648.8548608592614
 31
0.0
  0
LINE
  5
14377
330
1A
100
AcDbEntity
  8
CENTER
100
AcDbLine
 10
2313.658000528989
 20
523.1227716117476
 30
0.0
 11
2313.658000528989
 21
582.5869501067783
 31
0.0
  0
LINE
  5
14378
330
1A
100
AcDbEntity
  8
SN
100
AcDbLine
 10
2323.875216739155
 20
573.8548608592614
 30
0.0
 11
2323.875216739154
 21
571.8548608592642
 31
0.0
  0
LINE
  5
14379
330
1A
100
AcDbEntity
  8
SN
100
AcDbLine
 10
2319.895266990734
 20
573.8548608592614
 30
0.0
 11
2319.895266990734
 21
571.8548608592633
 31
0.0
  0
LINE
  5
1437A
330
1A
100
AcDbEntity
  8
SN
100
AcDbLine
 10
2342.658000528989
 20
540.8548608592651
 30
0.0
 11
2342.658000528989
 21
532.8548608592642
 31
0.0
  0
ARC
  5
1437B
330
1A
100
AcDbEntity
  8
SN
100
AcDbCircle
 10
2340.658000528989
 20
532.8548608592642
 30
0.0
 40
2.0
100
AcDbArc
 50
270.0
 51
0.0
  0
LINE
  5
1437C
330
1A
100
AcDbEntity
  8
SN
100
AcDbLine
 10
2324.121309842441
 20
563.8548608592642
 30
0.0
 11
2324.121309842441
 21
568.8548608592651
 31
0.0
  0
LINE
  5
1437D
330
1A
100
AcDbEntity
  8
SN
100
AcDbLine
 10
2324.158000528989
 20
568.8548608592642
 30
0.0
 11
2324.158000528989
 21
563.8548608592642
 31
0.0
  0
LINE
  5
1437E
330
1A
100
AcDbEntity
  8
SN
100
AcDbLine
 10
2323.158000528993
 20
550.8548608592642
 30
0.0
 11
2324.627655643595
 21
551.7033666352959
 31
0.0
  0
LINE
  5
1437F
330
1A
100
AcDbEntity
  8
SN
100
AcDbLine
 10
2323.158000528993
 20
557.8548608592642
 30
0.0
 11
2324.627655643595
 21
557.0063550832324
 31
0.0
  0
LINE
  5
14380
330
1A
100
AcDbEntity
  8
SN
100
AcDbLine
 10
2324.627655643564
 20
551.7033666352777
 30
0.0
 11
2324.627655643595
 21
557.0063550832288
 31
0.0
  0
LINE
  5
14381
330
1A
100
AcDbEntity
  8
SN
100
AcDbLine
 10
2336.658000528989
 20
540.8548608592651
 30
0.0
 11
2326.658000528989
 21
550.8548608592642
 31
0.0
  0
LINE
  5
14382
330
1A
100
AcDbEntity
  8
SN
100
AcDbLine
 10
2309.678050780567
 20
573.8548608592614
 30
0.0
 11
2309.678050780567
 21
571.8548608592642
 31
0.0
  0
LINE
  5
14383
330
1A
100
AcDbEntity
  8
SN
100
AcDbLine
 10
2307.420734067244
 20
573.8548608592614
 30
0.0
 11
2307.420734067244
 21
571.8548608592633
 31
0.0
  0
LINE
  5
14384
330
1A
100
AcDbEntity
  8
SN
100
AcDbLine
 10
2317.637950277413
 20
573.8548608592614
 30
0.0
 11
2317.637950277413
 21
571.8548608592642
 31
0.0
  0
LINE
  5
14385
330
1A
100
AcDbEntity
  8
SN
100
AcDbLine
 10
2303.440784318824
 20
573.8548608592614
 30
0.0
 11
2303.440784318824
 21
571.8548608592642
 31
0.0
  0
ARC
  5
14386
330
1A
100
AcDbEntity
  8
SN
100
AcDbCircle
 10
2307.258000528991
 20
569.2548608592647
 30
0.0
 40
0.4
100
AcDbArc
 50
270.0
 51
0.0
  0
LINE
  5
14387
330
1A
100
AcDbEntity
  8
SN
100
AcDbLine
 10
2307.658000528989
 20
571.8548608592642
 30
0.0
 11
2307.658000528989
 21
569.2548608592647
 31
0.0
  0
LINE
  5
14388
330
1A
100
AcDbEntity
  8
SN
100
AcDbLine
 10
2319.658000528989
 20
571.8548608592642
 30
0.0
 11
2319.658000528989
 21
569.2548608592647
 31
0.0
  0
LINE
  5
14389
330
1A
100
AcDbEntity
  8
SN
100
AcDbLine
 10
2309.185864573992
 20
568.8548608592651
 30
0.0
 11
2309.185864573992
 21
563.8548608592642
 31
0.0
  0
LINE
  5
1438A
330
1A
100
AcDbEntity
  8
SN
100
AcDbLine
 10
2307.658000528991
 20
568.8548608592651
 30
0.0
 11
2307.658000528991
 21
563.8548608592642
 31
0.0
  0
LINE
  5
1438B
330
1A
100
AcDbEntity
  8
SN
100
AcDbLine
 10
2319.658000528989
 20
568.8548608592651
 30
0.0
 11
2319.658000528989
 21
563.8548608592642
 31
0.0
  0
LINE
  5
1438C
330
1A
100
AcDbEntity
  8
SN
100
AcDbLine
 10
2318.130136483988
 20
568.8548608592651
 30
0.0
 11
2318.130136483988
 21
563.8548608592642
 31
0.0
  0
LINE
  5
1438D
330
1A
100
AcDbEntity
  8
SN
100
AcDbLine
 10
2318.658000528989
 20
563.8548608592642
 30
0.0
 11
2318.658000528989
 21
561.8548608592642
 31
0.0
  0
LINE
  5
1438E
330
1A
100
AcDbEntity
  8
SN
100
AcDbLine
 10
2308.658000528989
 20
563.8548608592642
 30
0.0
 11
2308.658000528989
 21
561.8548608592642
 31
0.0
  0
LINE
  5
1438F
330
1A
100
AcDbEntity
  8
SN
100
AcDbLine
 10
2303.194691215536
 20
563.8548608592642
 30
0.0
 11
2303.194691215536
 21
568.8548608592651
 31
0.0
  0
LINE
  5
14390
330
1A
100
AcDbEntity
  8
SN
100
AcDbLine
 10
2303.158000528989
 20
568.8548608592651
 30
0.0
 11
2303.158000528989
 21
563.8548608592642
 31
0.0
  0
LINE
  5
14391
330
1A
100
AcDbEntity
  8
SN
100
AcDbLine
 10
2290.658000528989
 20
540.8548608592642
 30
0.0
 11
2300.658000528991
 21
550.8548608592642
 31
0.0
  0
LINE
  5
14392
330
1A
100
AcDbEntity
  8
SN
100
AcDbLine
 10
2284.658000528989
 20
540.8548608592642
 30
0.0
 11
2284.658000528989
 21
532.8548608592642
 31
0.0
  0
ARC
  5
14393
330
1A
100
AcDbEntity
  8
SN
100
AcDbCircle
 10
2286.658000528989
 20
532.8548608592642
 30
0.0
 40
2.0
100
AcDbArc
 50
180.0
 51
270.0
  0
ARC
  5
14394
330
1A
100
AcDbEntity
  8
SN
100
AcDbCircle
 10
2313.658000528989
 20
569.0063550832361
 30
0.0
 40
18.15149422397189
100
AcDbArc
 50
252.4120462260363
 51
287.5879537739636
  0
LINE
  5
14395
330
1A
100
AcDbEntity
  8
SN
100
AcDbLine
 10
2304.158000528991
 20
550.8548608592642
 30
0.0
 11
2302.688345414388
 21
551.7033666352959
 31
0.0
  0
ARC
  5
14396
330
1A
100
AcDbEntity
  8
SN
100
AcDbCircle
 10
2305.430759193038
 20
555.7109240812666
 30
0.0
 40
4.856063222002592
100
AcDbArc
 50
235.6157525319143
 51
304.3842474680857
  0
ARC
  5
14397
330
1A
100
AcDbEntity
  8
SN
100
AcDbCircle
 10
2305.430759193038
 20
552.9987976372609
 30
0.0
 40
4.856063222002592
100
AcDbArc
 50
55.61575253191434
 51
124.3842474680856
  0
ARC
  5
14398
330
1A
100
AcDbEntity
  8
SN
100
AcDbCircle
 10
2313.658000528989
 20
539.7033666352923
 30
0.0
 40
18.15149422397189
100
AcDbArc
 50
72.41204622603631
 51
107.5879537739637
  0
LINE
  5
14399
330
1A
100
AcDbEntity
  8
SN
100
AcDbLine
 10
2304.158000528991
 20
557.8548608592642
 30
0.0
 11
2302.688345414388
 21
557.0063550832324
 31
0.0
  0
LINE
  5
1439A
330
1A
100
AcDbEntity
  8
SN
100
AcDbLine
 10
2319.142828086291
 20
551.7033666352959
 30
0.0
 11
2319.142828086291
 21
557.0063550832324
 31
0.0
  0
LINE
  5
1439B
330
1A
100
AcDbEntity
  8
SN
100
AcDbLine
 10
2319.658000528989
 20
561.8548608592642
 30
0.0
 11
2319.658000528989
 21
557.8548608592642
 31
0.0
  0
LINE
  5
1439C
330
1A
100
AcDbEntity
  8
SN
 62
     9
100
AcDbLine
 10
2318.70800052899
 20
561.8548608592642
 30
0.0
 11
2318.70800052899
 21
557.8548608592642
 31
0.0
  0
LINE
  5
1439D
330
1A
100
AcDbEntity
  8
SN
100
AcDbLine
 10
2308.173172971687
 20
551.7033666352959
 30
0.0
 11
2308.173172971687
 21
557.0063550832324
 31
0.0
  0
LINE
  5
1439E
330
1A
100
AcDbEntity
  8
SN
100
AcDbLine
 10
2302.688345414388
 20
551.7033666352959
 30
0.0
 11
2302.688345414388
 21
557.0063550832324
 31
0.0
  0
LINE
  5
1439F
330
1A
100
AcDbEntity
  8
SN
100
AcDbLine
 10
2307.658000528989
 20
561.8548608592642
 30
0.0
 11
2307.658000528989
 21
557.8548608592633
 31
0.0
  0
LINE
  5
143A0
330
1A
100
AcDbEntity
  8
SN
 62
     9
100
AcDbLine
 10
2308.60800052899
 20
561.8548608592642
 30
0.0
 11
2308.60800052899
 21
557.8548608592642
 31
0.0
  0
LINE
  5
143A1
330
1A
100
AcDbEntity
  8
SN
100
AcDbLine
 10
2307.658000528989
 20
561.8548608592642
 30
0.0
 11
2319.658000528989
 21
561.8548608592642
 31
0.0
  0
LINE
  5
143A2
330
1A
100
AcDbEntity
  8
SN
100
AcDbLine
 10
2303.358000528988
 20
571.8548608592642
 30
0.0
 11
2323.95800052899
 21
571.8548608592642
 31
0.0
  0
ARC
  5
143A3
330
1A
100
AcDbEntity
  8
SN
100
AcDbCircle
 10
2320.058000528989
 20
569.2548608592647
 30
0.0
 40
0.4
100
AcDbArc
 50
180.0
 51
270.0
  0
LINE
  5
143A4
330
1A
100
AcDbEntity
  8
SN
100
AcDbLine
 10
2303.158000528989
 20
568.8548608592651
 30
0.0
 11
2324.158000528989
 21
568.8548608592642
 31
0.0
  0
LINE
  5
143A5
330
1A
100
AcDbEntity
  8
SN
100
AcDbLine
 10
2303.158000528989
 20
563.8548608592642
 30
0.0
 11
2324.158000528989
 21
563.8548608592642
 31
0.0
  0
ARC
  5
143A6
330
1A
100
AcDbEntity
  8
SN
100
AcDbCircle
 10
2321.88524186494
 20
555.7109240812675
 30
0.0
 40
4.856063222002592
100
AcDbArc
 50
235.6157525319143
 51
304.3842474680857
  0
ARC
  5
143A7
330
1A
100
AcDbEntity
  8
SN
100
AcDbCircle
 10
2321.88524186494
 20
552.9987976372609
 30
0.0
 40
4.856063222002592
100
AcDbArc
 50
55.61575253191434
 51
124.3842474680856
  0
LINE
  5
143A8
330
1A
100
AcDbEntity
  8
SN
100
AcDbLine
 10
2300.658000528993
 20
550.8548608592642
 30
0.0
 11
2326.658000528987
 21
550.8548608592642
 31
0.0
  0
LINE
  5
143A9
330
1A
100
AcDbEntity
  8
SN
100
AcDbLine
 10
2304.158000528991
 20
557.8548608592633
 30
0.0
 11
2323.158000528991
 21
557.8548608592642
 31
0.0
  0
LINE
  5
143AA
330
1A
100
AcDbEntity
  8
SN
100
AcDbLine
 10
2286.658000528989
 20
530.8548608592642
 30
0.0
 11
2340.658000528989
 21
530.8548608592651
 31
0.0
  0
LINE
  5
143AB
330
1A
100
AcDbEntity
  8
SN
100
AcDbLine
 10
2284.658000528989
 20
540.8548608592642
 30
0.0
 11
2342.658000528991
 21
540.8548608592651
 31
0.0
  0
LINE
  5
143AC
330
1A
100
AcDbEntity
  8
SN
100
AcDbLine
 10
2276.658000528991
 20
573.8548608592615
 30
0.0
 11
2276.658000528991
 21
648.8548608592614
 31
0.0
  0
LINE
  5
143AD
330
1A
100
AcDbEntity
  8
CENTER
100
AcDbLine
 10
2826.658000528991
 20
831.3953837840536
 30
0.0
 11
2826.658000528991
 21
514.9829560543436
 31
0.0
  0
LINE
  5
143AE
330
1A
100
AcDbEntity
  8
SN
100
AcDbLine
 10
3376.658000528991
 20
573.8548608592614
 30
0.0
 11
2276.658000528991
 21
573.8548608592614
 31
0.0
  0
LINE
  5
143AF
330
1A
100
AcDbEntity
  8
CENTER
100
AcDbLine
 10
3339.658000528993
 20
523.1227716117473
 30
0.0
 11
3339.658000528993
 21
582.586950106778
 31
0.0
  0
LINE
  5
143B0
330
1A
100
AcDbEntity
  8
SN
100
AcDbLine
 10
3349.158000528991
 20
557.8548608592631
 30
0.0
 11
3330.158000528991
 21
557.8548608592639
 31
0.0
  0
LINE
  5
143B1
330
1A
100
AcDbEntity
  8
SN
100
AcDbLine
 10
3352.658000528989
 20
550.854860859264
 30
0.0
 11
3326.658000528995
 21
550.854860859264
 31
0.0
  0
ARC
  5
143B2
330
1A
100
AcDbEntity
  8
SN
100
AcDbCircle
 10
3331.430759193041
 20
552.9987976372607
 30
0.0
 40
4.856063222002592
100
AcDbArc
 50
55.61575253191434
 51
124.3842474680856
  0
ARC
  5
143B3
330
1A
100
AcDbEntity
  8
SN
100
AcDbCircle
 10
3331.430759193041
 20
555.7109240812673
 30
0.0
 40
4.856063222002592
100
AcDbArc
 50
235.6157525319143
 51
304.3842474680857
  0
LINE
  5
143B4
330
1A
100
AcDbEntity
  8
SN
100
AcDbLine
 10
3350.158000528992
 20
563.854860859264
 30
0.0
 11
3329.158000528992
 21
563.854860859264
 31
0.0
  0
LINE
  5
143B5
330
1A
100
AcDbEntity
  8
SN
100
AcDbLine
 10
3350.158000528992
 20
568.8548608592649
 30
0.0
 11
3329.158000528992
 21
568.854860859264
 31
0.0
  0
ARC
  5
143B6
330
1A
100
AcDbEntity
  8
SN
100
AcDbCircle
 10
3333.258000528993
 20
569.2548608592645
 30
0.0
 40
0.4
100
AcDbArc
 50
270.0
 51
0.0
  0
LINE
  5
143B7
330
1A
100
AcDbEntity
  8
SN
100
AcDbLine
 10
3349.958000528994
 20
571.854860859264
 30
0.0
 11
3329.358000528991
 21
571.854860859264
 31
0.0
  0
LINE
  5
143B8
330
1A
100
AcDbEntity
  8
SN
100
AcDbLine
 10
3345.658000528992
 20
561.8548608592639
 30
0.0
 11
3333.658000528993
 21
561.8548608592639
 31
0.0
  0
LINE
  5
143B9
330
1A
100
AcDbEntity
  8
SN
 62
     9
100
AcDbLine
 10
3344.708000528992
 20
561.8548608592639
 30
0.0
 11
3344.708000528992
 21
557.8548608592639
 31
0.0
  0
LINE
  5
143BA
330
1A
100
AcDbEntity
  8
SN
100
AcDbLine
 10
3345.658000528992
 20
561.8548608592639
 30
0.0
 11
3345.658000528992
 21
557.8548608592631
 31
0.0
  0
LINE
  5
143BB
330
1A
100
AcDbEntity
  8
SN
100
AcDbLine
 10
3350.627655643594
 20
551.7033666352957
 30
0.0
 11
3350.627655643594
 21
557.0063550832323
 31
0.0
  0
LINE
  5
143BC
330
1A
100
AcDbEntity
  8
SN
100
AcDbLine
 10
3345.142828086295
 20
551.7033666352957
 30
0.0
 11
3345.142828086295
 21
557.0063550832323
 31
0.0
  0
LINE
  5
143BD
330
1A
100
AcDbEntity
  8
SN
 62
     9
100
AcDbLine
 10
3334.608000528991
 20
561.8548608592639
 30
0.0
 11
3334.608000528991
 21
557.8548608592639
 31
0.0
  0
LINE
  5
143BE
330
1A
100
AcDbEntity
  8
SN
100
AcDbLine
 10
3333.658000528993
 20
561.8548608592639
 30
0.0
 11
3333.658000528993
 21
557.8548608592639
 31
0.0
  0
LINE
  5
143BF
330
1A
100
AcDbEntity
  8
SN
100
AcDbLine
 10
3334.173172971691
 20
551.7033666352957
 30
0.0
 11
3334.173172971691
 21
557.0063550832323
 31
0.0
  0
LINE
  5
143C0
330
1A
100
AcDbEntity
  8
SN
100
AcDbLine
 10
3349.158000528991
 20
557.8548608592639
 30
0.0
 11
3350.627655643594
 21
557.0063550832323
 31
0.0
  0
ARC
  5
143C1
330
1A
100
AcDbEntity
  8
SN
100
AcDbCircle
 10
3339.658000528993
 20
539.7033666352921
 30
0.0
 40
18.15149422397189
100
AcDbArc
 50
72.41204622603631
 51
107.5879537739637
  0
ARC
  5
143C2
330
1A
100
AcDbEntity
  8
SN
100
AcDbCircle
 10
3347.885241864944
 20
552.9987976372607
 30
0.0
 40
4.856063222002592
100
AcDbArc
 50
55.61575253191434
 51
124.3842474680856
  0
ARC
  5
143C3
330
1A
100
AcDbEntity
  8
SN
100
AcDbCircle
 10
3347.885241864944
 20
555.7109240812663
 30
0.0
 40
4.856063222002592
100
AcDbArc
 50
235.6157525319143
 51
304.3842474680857
  0
LINE
  5
143C4
330
1A
100
AcDbEntity
  8
SN
100
AcDbLine
 10
3349.158000528991
 20
550.854860859264
 30
0.0
 11
3350.627655643594
 21
551.7033666352957
 31
0.0
  0
ARC
  5
143C5
330
1A
100
AcDbEntity
  8
SN
100
AcDbCircle
 10
3339.658000528993
 20
569.0063550832359
 30
0.0
 40
18.15149422397189
100
AcDbArc
 50
252.4120462260363
 51
287.5879537739636
  0
LINE
  5
143C6
330
1A
100
AcDbEntity
  8
SN
100
AcDbLine
 10
3350.158000528992
 20
568.8548608592649
 30
0.0
 11
3350.158000528992
 21
563.854860859264
 31
0.0
  0
LINE
  5
143C7
330
1A
100
AcDbEntity
  8
SN
100
AcDbLine
 10
3350.121309842445
 20
563.854860859264
 30
0.0
 11
3350.121309842445
 21
568.8548608592649
 31
0.0
  0
LINE
  5
143C8
330
1A
100
AcDbEntity
  8
SN
100
AcDbLine
 10
3344.658000528993
 20
563.854860859264
 30
0.0
 11
3344.658000528993
 21
561.8548608592639
 31
0.0
  0
LINE
  5
143C9
330
1A
100
AcDbEntity
  8
SN
100
AcDbLine
 10
3334.658000528992
 20
563.854860859264
 30
0.0
 11
3334.658000528992
 21
561.8548608592639
 31
0.0
  0
LINE
  5
143CA
330
1A
100
AcDbEntity
  8
SN
100
AcDbLine
 10
3335.185864573994
 20
568.8548608592649
 30
0.0
 11
3335.185864573994
 21
563.854860859264
 31
0.0
  0
LINE
  5
143CB
330
1A
100
AcDbEntity
  8
SN
100
AcDbLine
 10
3333.658000528993
 20
568.8548608592649
 30
0.0
 11
3333.658000528993
 21
563.854860859264
 31
0.0
  0
LINE
  5
143CC
330
1A
100
AcDbEntity
  8
SN
100
AcDbLine
 10
3345.658000528991
 20
568.8548608592649
 30
0.0
 11
3345.658000528991
 21
563.854860859264
 31
0.0
  0
LINE
  5
143CD
330
1A
100
AcDbEntity
  8
SN
100
AcDbLine
 10
3344.13013648399
 20
568.8548608592649
 30
0.0
 11
3344.13013648399
 21
563.854860859264
 31
0.0
  0
LINE
  5
143CE
330
1A
100
AcDbEntity
  8
SN
100
AcDbLine
 10
3333.658000528993
 20
571.854860859264
 30
0.0
 11
3333.658000528993
 21
569.2548608592645
 31
0.0
  0
LINE
  5
143CF
330
1A
100
AcDbEntity
  8
SN
100
AcDbLine
 10
3345.658000528992
 20
571.854860859264
 30
0.0
 11
3345.658000528992
 21
569.2548608592645
 31
0.0
  0
ARC
  5
143D0
330
1A
100
AcDbEntity
  8
SN
100
AcDbCircle
 10
3346.058000528991
 20
569.2548608592645
 30
0.0
 40
0.4
100
AcDbArc
 50
180.0
 51
270.0
  0
LINE
  5
143D1
330
1A
100
AcDbEntity
  8
SN
100
AcDbLine
 10
3316.658000528992
 20
540.8548608592649
 30
0.0
 11
3326.658000528992
 21
550.854860859264
 31
0.0
  0
LINE
  5
143D2
330
1A
100
AcDbEntity
  8
SN
100
AcDbLine
 10
3328.688345414418
 20
551.7033666352776
 30
0.0
 11
3328.688345414386
 21
557.0063550832286
 31
0.0
  0
LINE
  5
143D3
330
1A
100
AcDbEntity
  8
SN
100
AcDbLine
 10
3330.158000528989
 20
557.8548608592639
 30
0.0
 11
3328.688345414386
 21
557.0063550832323
 31
0.0
  0
LINE
  5
143D4
330
1A
100
AcDbEntity
  8
SN
100
AcDbLine
 10
3330.158000528989
 20
550.854860859264
 30
0.0
 11
3328.688345414386
 21
551.7033666352957
 31
0.0
  0
LINE
  5
143D5
330
1A
100
AcDbEntity
  8
SN
100
AcDbLine
 10
3329.158000528992
 20
568.854860859264
 30
0.0
 11
3329.158000528992
 21
563.854860859264
 31
0.0
  0
LINE
  5
143D6
330
1A
100
AcDbEntity
  8
SN
100
AcDbLine
 10
3329.194691215541
 20
563.854860859264
 30
0.0
 11
3329.194691215541
 21
568.8548608592649
 31
0.0
  0
LINE
  5
143D7
330
1A
100
AcDbEntity
  8
SN
100
AcDbLine
 10
3329.440784318828
 20
573.8548608592611
 30
0.0
 11
3329.440784318828
 21
571.854860859264
 31
0.0
  0
LINE
  5
143D8
330
1A
100
AcDbEntity
  8
SN
100
AcDbLine
 10
3333.420734067248
 20
573.8548608592611
 30
0.0
 11
3333.420734067248
 21
571.8548608592631
 31
0.0
  0
LINE
  5
143D9
330
1A
100
AcDbEntity
  8
SN
100
AcDbLine
 10
3335.678050780569
 20
573.8548608592611
 30
0.0
 11
3335.678050780569
 21
571.854860859264
 31
0.0
  0
LINE
  5
143DA
330
1A
100
AcDbEntity
  8
SN
100
AcDbLine
 10
3343.637950277415
 20
573.8548608592611
 30
0.0
 11
3343.637950277415
 21
571.854860859264
 31
0.0
  0
LINE
  5
143DB
330
1A
100
AcDbEntity
  8
SN
100
AcDbLine
 10
3345.895266990738
 20
573.8548608592611
 30
0.0
 11
3345.895266990738
 21
571.8548608592631
 31
0.0
  0
LINE
  5
143DC
330
1A
100
AcDbEntity
  8
SN
100
AcDbLine
 10
3349.875216739158
 20
573.8548608592611
 30
0.0
 11
3349.875216739158
 21
571.854860859264
 31
0.0
  0
LINE
  5
143DD
330
1A
100
AcDbEntity
  8
SN
100
AcDbLine
 10
3368.658000528993
 20
540.8548608592639
 30
0.0
 11
3310.658000528991
 21
540.8548608592649
 31
0.0
  0
LINE
  5
143DE
330
1A
100
AcDbEntity
  8
SN
100
AcDbLine
 10
3362.658000528992
 20
540.8548608592639
 30
0.0
 11
3352.658000528991
 21
550.854860859264
 31
0.0
  0
ARC
  5
143DF
330
1A
100
AcDbEntity
  8
SN
100
AcDbCircle
 10
3312.658000528993
 20
532.8548608592639
 30
0.0
 40
2.0
100
AcDbArc
 50
180.0
 51
270.0
  0
ARC
  5
143E0
330
1A
100
AcDbEntity
  8
SN
100
AcDbCircle
 10
3366.658000528992
 20
532.8548608592639
 30
0.0
 40
2.0
100
AcDbArc
 50
270.0
 51
0.0
  0
LINE
  5
143E1
330
1A
100
AcDbEntity
  8
SN
100
AcDbLine
 10
3366.658000528992
 20
530.854860859264
 30
0.0
 11
3312.658000528993
 21
530.8548608592649
 31
0.0
  0
LINE
  5
143E2
330
1A
100
AcDbEntity
  8
SN
100
AcDbLine
 10
3368.658000528993
 20
540.8548608592639
 30
0.0
 11
3368.658000528993
 21
532.8548608592639
 31
0.0
  0
LINE
  5
143E3
330
1A
100
AcDbEntity
  8
SN
100
AcDbLine
 10
3310.658000528993
 20
540.8548608592649
 30
0.0
 11
3310.658000528993
 21
532.8548608592639
 31
0.0
  0
LINE
  5
143E4
330
1A
100
AcDbEntity
  8
SN
100
AcDbLine
 10
3376.658000528991
 20
648.8548608592614
 30
0.0
 11
3376.658000528991
 21
573.8548608592614
 31
0.0
  0
LWPOLYLINE
  5
143E5
330
1A
100
AcDbEntity
  8
SN
100
AcDbPolyline
 90
        6
 70
     0
 43
0.0
 10
2381.65800052899
 20
573.8548608592614
 10
2381.658000528991
 20
567.0548608592634
 10
2382.858000528992
 20
565.8548608592633
 10
2398.458000528988
 20
565.8548608592633
 10
2399.658000528989
 20
567.0548608592634
 10
2399.658000528989
 20
573.8548608592614
  0
LINE
  5
143E6
330
1A
100
AcDbEntity
  8
SN
100
AcDbLine
 10
2381.658000528991
 20
567.0548608592631
 30
0.0
 11
2399.658000528989
 21
567.0548608592631
 31
0.0
  0
LINE
  5
143E7
330
1A
100
AcDbEntity
  8
SN
100
AcDbLine
 10
2406.658000528991
 20
567.0548608592631
 30
0.0
 11
2424.658000528989
 21
567.0548608592631
 31
0.0
  0
LWPOLYLINE
  5
143E8
330
1A
100
AcDbEntity
  8
SN
100
AcDbPolyline
 90
        6
 70
     0
 43
0.0
 10
2406.65800052899
 20
573.8548608592614
 10
2406.658000528991
 20
567.0548608592634
 10
2407.858000528992
 20
565.8548608592633
 10
2423.458000528988
 20
565.8548608592633
 10
2424.658000528989
 20
567.0548608592634
 10
2424.658000528989
 20
573.8548608592614
  0
LWPOLYLINE
  5
143E9
330
1A
100
AcDbEntity
  8
SN
100
AcDbPolyline
 90
        6
 70
     0
 43
0.0
 10
3246.658000528992
 20
573.8548608592607
 10
3246.658000528991
 20
567.0548608592627
 10
3245.45800052899
 20
565.8548608592626
 10
3229.858000528994
 20
565.8548608592627
 10
3228.658000528993
 20
567.0548608592627
 10
3228.658000528993
 20
573.8548608592608
  0
LWPOLYLINE
  5
143EA
330
1A
100
AcDbEntity
  8
SN
100
AcDbPolyline
 90
        6
 70
     0
 43
0.0
 10
3271.658000528992
 20
573.8548608592607
 10
3271.658000528991
 20
567.0548608592627
 10
3270.45800052899
 20
565.8548608592626
 10
3254.858000528994
 20
565.8548608592626
 10
3253.658000528993
 20
567.0548608592627
 10
3253.658000528993
 20
573.8548608592607
  0
LINE
  5
143EB
330
1A
100
AcDbEntity
  8
SN
100
AcDbLine
 10
3246.658000528991
 20
567.0548608592624
 30
0.0
 11
3228.658000528993
 21
567.0548608592626
 31
0.0
  0
LINE
  5
143EC
330
1A
100
AcDbEntity
  8
SN
100
AcDbLine
 10
3271.658000528991
 20
567.0548608592624
 30
0.0
 11
3253.658000528993
 21
567.0548608592624
 31
0.0
  0
DIMENSION
  5
143ED
330
1A
100
AcDbEntity
  8
MEASURE
100
AcDbDimension
  2
*D43
 10
3339.658000528993
 20
288.682864673754
 30
0.0
 11
2826.658000528991
 21
306.682864673754
 31
0.0
 70
    32
 71
     5
 42
1026.000000000004
  3
AD-STANDARDx3
100
AcDbAlignedDimension
 13
2313.658000528989
 23
523.1227716117476
 33
0.0
 14
3339.658000528993
 24
523.1227716117473
 34
0.0
100
AcDbRotatedDimension
1001
ACAD
1000
DSTYLE
1002
{
1070
    47
1040
10.0
1070
    48
1040
10.0
1070
    71
1070
     1
1070
    78
1070
     8
1070
   146
1040
0.7
1002
}
  0
LINE
  5
143EE
330
1A
100
AcDbEntity
  8
MEASURE
100
AcDbLine
 10
1833.762465098453
 20
1442.110831934186
 30
0.0
 11
1765.365951914157
 21
1442.110831934186
 31
0.0
  0
LINE
  5
143EF
330
1A
100
AcDbEntity
  8
MEASURE
100
AcDbLine
 10
1784.547118847374
 20
1442.113130785356
 30
0.0
 11
1784.547118847374
 21
1443.381783615649
 31
0.0
  0
LINE
  5
143F0
330
1A
100
AcDbEntity
  8
MEASURE
100
AcDbLine
 10
1784.547118847374
 20
1457.294424509246
 30
0.0
 11
1784.547118847374
 21
1426.341638208326
 31
0.0
  0
CIRCLE
  5
143F1
330
1A
100
AcDbEntity
  8
SN
 62
     9
100
AcDbCircle
 10
1784.547118847374
 20
1442.110831934186
 30
0.0
 40
8.0
  0
CIRCLE
  5
143F2
330
1A
100
AcDbEntity
  8
SN
 62
     9
100
AcDbCircle
 10
1784.547118847374
 20
1442.110831934186
 30
0.0
 40
9.0
  0
CIRCLE
  5
143F3
330
1A
100
AcDbEntity
  8
SN
 62
     9
100
AcDbCircle
 10
1784.547118847374
 20
1442.110831934186
 30
0.0
 40
3.0
  0
CIRCLE
  5
143F4
330
1A
100
AcDbEntity
  8
SN
 62
     9
100
AcDbCircle
 10
1784.547118847374
 20
1442.110831934186
 30
0.0
 40
1.5
  0
CIRCLE
  5
143F5
330
1A
100
AcDbEntity
  8
SN
100
AcDbCircle
 10
1784.566418274629
 20
1442.104358399662
 30
0.0
 40
10.0
  0
LINE
  5
143F6
330
1A
100
AcDbEntity
  8
CENTER
100
AcDbLine
 10
2596.704969370629
 20
622.337721353525
 30
0.0
 11
2596.704969370629
 21
818.6190450887398
 31
0.0
  0
LINE
  5
143F7
330
1A
100
AcDbEntity
  8
SN
100
AcDbLine
 10
2567.567943316084
 20
653.9700466813187
 30
0.0
 11
2642.592483138456
 21
653.9700466813187
 31
0.0
  0
SPLINE
  5
143F8
330
1A
100
AcDbEntity
  8
SN
100
AcDbSpline
210
0.0
220
0.0
230
1.0
 70
     8
 71
     3
 72
    10
 73
     6
 74
     4
 42
0.0000000001
 43
0.0000000001
 44
0.0000000001
 40
0.0
 40
0.0
 40
0.0
 40
0.0
 40
19.53758582084441
 40
28.13222242188433
 40
111.001730510237
 40
111.001730510237
 40
111.001730510237
 40
111.001730510237
 10
2565.845234433434
 20
683.6830761481856
 30
0.0
 10
2569.342464299769
 20
677.4406480505392
 30
0.0
 10
2574.378134999433
 20
668.4521590270774
 30
0.0
 10
2557.082885018055
 20
633.9461521183072
 30
0.0
 10
2561.394826439915
 20
602.6080949019138
 30
0.0
 10
2565.301586468654
 20
574.2147895822572
 30
0.0
 11
2565.845234433434
 21
683.6830761481856
 31
0.0
 11
2571.793982671764
 21
665.0731418628684
 31
0.0
 11
2568.819608552599
 21
657.0095894879423
 31
0.0
 11
2565.301586468654
 21
574.2147895822572
 31
0.0
  0
SPLINE
  5
143F9
330
1A
100
AcDbEntity
  8
SN
100
AcDbSpline
210
0.0
220
0.0
230
1.0
 70
     8
 71
     3
 72
    10
 73
     6
 74
     4
 42
0.0000000001
 43
0.0000000001
 44
0.0000000001
 40
0.0
 40
0.0
 40
0.0
 40
0.0
 40
8.753383474812139
 40
21.05206609038685
 40
112.4216343838121
 40
112.4216343838121
 40
112.4216343838121
 40
112.4216343838121
 10
2632.131303722291
 20
683.2586810948583
 30
0.0
 10
2634.183774938917
 20
681.1082673311111
 30
0.0
 10
2639.12001014732
 20
675.9364782958946
 30
0.0
 10
2645.910242456814
 20
637.8435166021268
 30
0.0
 10
2646.490545923653
 20
603.6286988701131
 30
0.0
 10
2647.002005090556
 20
573.4729559304887
 30
0.0
 11
2632.131303722291
 21
683.2586810948583
 31
0.0
 11
2637.655138748622
 21
676.4683225727339
 31
0.0
 11
2641.054426079787
 21
664.6487439119346
 31
0.0
 11
2647.002005090556
 21
573.4729559304887
 31
0.0
  0
LINE
  5
143FA
330
1A
100
AcDbEntity
  8
SN
100
AcDbLine
 10
2644.161542621144
 20
639.8275829551339
 30
0.0
 11
2563.45224768275
 21
639.8275829551339
 31
0.0
  0
LINE
  5
143FB
330
1A
100
AcDbEntity
  8
SN
100
AcDbLine
 10
2603.704981906807
 20
639.8275829551339
 30
0.0
 11
2603.704981906807
 21
648.8548608592614
 31
0.0
  0
LINE
  5
143FC
330
1A
100
AcDbEntity
  8
SN
100
AcDbLine
 10
2589.704981906807
 20
648.8548608592614
 30
0.0
 11
2589.704981906807
 21
639.8275829551339
 31
0.0
  0
LINE
  5
143FD
330
1A
100
AcDbEntity
  8
SN
100
AcDbLine
 10
2603.704981906807
 20
642.3364728121883
 30
0.0
 11
2589.704981906807
 21
642.3364728121883
 31
0.0
  0
LINE
  5
143FE
330
1A
100
AcDbEntity
  8
SN
100
AcDbLine
 10
2605.208581413645
 20
648.8548608592614
 30
0.0
 11
2605.208581413645
 21
653.9700466813187
 31
0.0
  0
LINE
  5
143FF
330
1A
100
AcDbEntity
  8
SN
100
AcDbLine
 10
2588.208581413645
 20
653.9700466813187
 30
0.0
 11
2588.208581413645
 21
648.8548608592614
 31
0.0
  0
LINE
  5
14400
330
1A
100
AcDbEntity
  8
SN
100
AcDbLine
 10
2605.208581413645
 20
650.2987992306723
 30
0.0
 11
2588.214467625419
 21
650.2987992306723
 31
0.0
  0
LINE
  5
14401
330
1A
100
AcDbEntity
  8
SN
100
AcDbLine
 10
2587.018579757673
 20
798.8548608592614
 30
0.0
 11
2587.018579757673
 21
763.8548608592614
 31
0.0
  0
LINE
  5
14402
330
1A
100
AcDbEntity
  8
SN
100
AcDbLine
 10
2607.018579757673
 20
763.8548608592614
 30
0.0
 11
2607.018579757673
 21
798.8548608592614
 31
0.0
  0
LWPOLYLINE
  5
14403
330
1A
100
AcDbEntity
  8
SN
100
AcDbPolyline
 90
        6
 70
     0
 43
0.0
 10
2596.704969370629
 20
650.2987992306723
 10
2596.704969370629
 20
650.2987992306723
 10
2588.208581413645
 20
650.2987992306723
 10
2588.208581413645
 20
648.8548608592614
 10
2596.704969370629
 20
648.8548608592614
 10
2596.704969370629
 20
648.8548608592614
  0
HATCH
  5
14404
330
1A
100
AcDbEntity
  8
SN
 62
     9
100
AcDbHatch
 10
0.0
 20
0.0
 30
0.0
210
0.0
220
0.0
230
1.0
  2
ANSI31
 70
     0
 71
     0
 91
        1
 92
        7
 72
     0
 73
     1
 93
        4
 10
2596.704969370629
 20
650.2987992306723
 10
2588.208581413645
 20
650.2987992306723
 10
2588.208581413645
 20
648.8548608592616
 10
2596.704969370629
 20
648.8548608592614
 97
        0
 75
     0
 76
     1
 52
0.0
 41
0.5
 77
     0
 78
     1
 53
45.0
 43
1370.772991866027
 44
1047.627209884941
 45
-1.122532015133643
 46
1.122532015133644
 79
     0
 47
0.0397683142482748
 98
        1
 10
2595.082046278868
 20
649.4203489705
  0
HATCH
  5
14405
330
1A
100
AcDbEntity
  8
SN
 62
     9
100
AcDbHatch
 10
0.0
 20
0.0
 30
0.0
210
0.0
220
0.0
230
1.0
  2
ANSI31
 70
     0
 71
     0
 91
        1
 92
        7
 72
     0
 73
     1
 93
        4
 10
2605.208581413645
 20
650.2987992306723
 10
2596.704969370629
 20
650.2987992306723
 10
2596.704969370629
 20
648.8548608592614
 10
2605.208581413645
 20
648.8548608592614
 97
        0
 75
     0
 76
     1
 52
0.0
 41
0.5
 77
     0
 78
     1
 53
45.0
 43
1370.772991866027
 44
1047.627209884941
 45
-1.122532015133643
 46
1.122532015133644
 79
     0
 47
0.03941271206222
 98
        1
 10
2600.58213506362
 20
649.9188811828036
  0
HATCH
  5
14406
330
1A
100
AcDbEntity
  8
SN
 62
     9
100
AcDbHatch
 10
0.0
 20
0.0
 30
0.0
210
0.0
220
0.0
230
1.0
  2
ANSI31
 70
     0
 71
     0
 91
        1
 92
        7
 72
     0
 73
     1
 93
        4
 10
2596.704969370629
 20
648.8548608592614
 10
2589.704981906807
 20
648.8548608592614
 10
2589.704981906807
 20
642.3364728121883
 10
2596.704969370629
 20
642.3364728121883
 97
        0
 75
     0
 76
     1
 52
0.0
 41
0.5
 77
     0
 78
     1
 53
45.0
 43
1370.772991866027
 44
1047.627209884941
 45
-1.122532015133643
 46
1.122532015133644
 79
     0
 47
0.0867419705430255
 98
        1
 10
2595.004027508615
 20
646.5157581956446
  0
HATCH
  5
14407
330
1A
100
AcDbEntity
  8
SN
 62
     9
100
AcDbHatch
 10
0.0
 20
0.0
 30
0.0
210
0.0
220
0.0
230
1.0
  2
ANSI31
 70
     0
 71
     0
 91
        1
 92
        7
 72
     0
 73
     1
 93
        4
 10
2603.704981906807
 20
648.8548608592614
 10
2596.704969370629
 20
648.8548608592616
 10
2596.704969370629
 20
642.3364728121883
 10
2603.704981906807
 20
642.3364728121883
 97
        0
 75
     0
 76
     1
 52
0.0
 41
0.5
 77
     0
 78
     1
 53
45.0
 43
1370.772991866027
 44
1047.627209884941
 45
-1.122532015133643
 46
1.122532015133644
 79
     0
 47
0.0867419705430255
 98
        1
 10
2601.430697429266
 20
645.4748545647962
  0
SPLINE
  5
14408
330
1A
100
AcDbEntity
  8
SN
100
AcDbSpline
210
0.0
220
0.0
230
1.0
 70
     8
 71
     3
 72
    10
 73
     6
 74
     4
 42
0.0000000001
 43
0.0000000001
 44
0.0000000001
 40
0.0
 40
0.0
 40
0.0
 40
0.0
 40
1.615549442140194
 40
4.846648326422014
 40
6.462197768562209
 40
6.462197768562209
 40
6.462197768562209
 40
6.462197768562209
 10
828.7407369561433
 20
535.2795143247553
 30
0.0
 10
828.8821583123796
 20
535.8451997497049
 30
0.0
 10
829.306422381089
 20
537.5422560245543
 30
0.0
 10
832.417692218314
 20
537.2594133120763
 30
0.0
 10
832.8419562870234
 20
538.9564695869258
 30
0.0
 10
832.9833776432597
 20
539.5221550118754
 30
0.0
 11
828.7407369561433
 21
535.2795143247553
 31
0.0
 11
829.377133059209
 21
536.7644385652479
 31
0.0
 11
832.346981540194
 21
538.0372307713828
 31
0.0
 11
832.9833776432597
 21
539.5221550118754
 31
0.0
  0
SPLINE
  5
14409
330
1A
100
AcDbEntity
  8
SN
100
AcDbSpline
210
0.0
220
0.0
230
1.0
 70
     8
 71
     3
 72
     9
 73
     5
 74
     0
 42
0.0000000001
 43
0.0000000001
 40
0.0
 40
0.0
 40
0.0
 40
0.0
 40
1.615549442140402
 40
3.231098884280785
 40
3.231098884280785
 40
3.231098884280785
 40
3.231098884280785
 10
828.717671768717
 20
535.2293180518485
 30
0.0
 10
829.2833571936634
 20
535.3707394080852
 30
0.0
 10
830.4147280435635
 20
535.6535821205603
 30
0.0
 10
830.6975707560368
 20
536.7849529704585
 30
0.0
 10
830.8389921122753
 20
537.3506383954086
 30
0.0
  0
SPLINE
  5
1440A
330
1A
100
AcDbEntity
  8
SN
100
AcDbSpline
210
0.0
220
0.0
230
1.0
 70
     8
 71
     3
 72
    10
 73
     6
 74
     4
 42
0.0000000001
 43
0.0000000001
 44
0.0000000001
 40
0.0
 40
0.0
 40
0.0
 40
0.0
 40
1.802775637731994
 40
5.408326913195983
 40
7.211102550927978
 40
7.211102550927978
 40
7.211102550927978
 40
7.211102550927978
 10
795.4249661654557
 20
1032.444411094358
 30
0.0
 10
795.9249661654557
 20
1031.944411094358
 30
0.0
 10
797.4249661654558
 20
1030.444411094358
 30
0.0
 10
799.4249661654557
 20
1034.444411094358
 30
0.0
 10
800.9249661654557
 20
1032.944411094358
 30
0.0
 10
801.4249661654558
 20
1032.444411094358
 30
0.0
 11
795.4249661654557
 21
1032.444411094358
 31
0.0
 11
796.9249661654558
 21
1031.444411094358
 31
0.0
 11
799.9249661654557
 21
1033.444411094358
 31
0.0
 11
801.4249661654558
 21
1032.444411094358
 31
0.0
  0
LINE
  5
1440B
330
1A
100
AcDbEntity
  8
SN
100
AcDbLine
 10
707.3094093474018
 20
648.8548608592614
 30
0.0
 11
1807.309409347402
 21
648.8548608592614
 31
0.0
  0
LINE
  5
1440C
330
1A
100
AcDbEntity
  8
SN
100
AcDbLine
 10
1807.309409347402
 20
798.8548608592614
 30
0.0
 11
707.3094093474018
 21
798.8548608592614
 31
0.0
  0
LINE
  5
1440D
330
1A
100
AcDbEntity
  8
SN
100
AcDbLine
 10
1807.309409347405
 20
573.8548608592595
 30
0.0
 11
707.3094093474018
 21
573.8548608592614
 31
0.0
  0
LINE
  5
1440E
330
1A
100
AcDbEntity
  8
SN
100
AcDbLine
 10
1807.309409347402
 20
648.8548608592614
 30
0.0
 11
707.3094093474018
 21
648.8548608592614
 31
0.0
  0
LINE
  5
1440F
330
1A
100
AcDbEntity
  8
SN
100
AcDbLine
 10
734.3397542327975
 20
551.703366635295
 30
0.0
 11
734.3397542327975
 21
557.0063550832315
 31
0.0
  0
LINE
  5
14410
330
1A
100
AcDbEntity
  8
SN
100
AcDbLine
 10
739.8245817900961
 20
551.703366635295
 30
0.0
 11
739.8245817900961
 21
557.0063550832315
 31
0.0
  0
LINE
  5
14411
330
1A
100
AcDbEntity
  8
SN
100
AcDbLine
 10
750.7942369047005
 20
551.703366635295
 30
0.0
 11
750.7942369047005
 21
557.0063550832315
 31
0.0
  0
LINE
  5
14412
330
1A
100
AcDbEntity
  8
SN
100
AcDbLine
 10
756.2790644619735
 20
551.7033666352768
 30
0.0
 11
756.2790644620063
 21
557.0063550832278
 31
0.0
  0
LINE
  5
14413
330
1A
100
AcDbEntity
  8
SN
100
AcDbLine
 10
796.1129067800275
 20
567.8944250805293
 30
0.0
 11
828.7568744491354
 21
535.2238902678222
 31
0.0
  0
LINE
  5
14414
330
1A
100
AcDbEntity
  8
SN
100
AcDbLine
 10
800.3555474671475
 20
572.1370657676475
 30
0.0
 11
832.8995393740287
 21
539.6186410119431
 31
0.0
  0
LINE
  5
14415
330
1A
100
AcDbEntity
  8
CENTER
100
AcDbLine
 10
795.7209487422906
 20
572.5290239947485
 30
0.0
 11
835.0608784883288
 21
533.1415469255684
 31
0.0
  0
LINE
  5
14416
330
1A
100
AcDbEntity
  8
CENTER
100
AcDbLine
 10
745.3094093473983
 20
522.1227716117469
 30
0.0
 11
745.3094093473983
 21
582.5869501067777
 31
0.0
  0
LINE
  5
14417
330
1A
100
AcDbEntity
  8
SN
100
AcDbLine
 10
716.3094093473983
 20
540.8548608592631
 30
0.0
 11
774.3094093474019
 21
540.854860859265
 31
0.0
  0
LINE
  5
14418
330
1A
100
AcDbEntity
  8
SN
100
AcDbLine
 10
718.3094093473982
 20
530.8548608592632
 30
0.0
 11
772.3094093473982
 21
530.854860859265
 31
0.0
  0
LINE
  5
14419
330
1A
100
AcDbEntity
  8
SN
100
AcDbLine
 10
732.3094093474018
 20
550.8548608592632
 30
0.0
 11
758.3094093473983
 21
550.8548608592632
 31
0.0
  0
ARC
  5
1441A
330
1A
100
AcDbEntity
  8
SN
100
AcDbCircle
 10
753.5366506833516
 20
555.7109240812665
 30
0.0
 40
4.856063222002592
100
AcDbArc
 50
235.6157525320411
 51
304.3842474679589
  0
ARC
  5
1441B
330
1A
100
AcDbEntity
  8
SN
100
AcDbCircle
 10
737.0821680114486
 20
555.7109240812665
 30
0.0
 40
4.856063222002592
100
AcDbArc
 50
235.6157525320411
 51
304.3842474679589
  0
LINE
  5
1441C
330
1A
100
AcDbEntity
  8
SN
100
AcDbLine
 10
735.8094093474019
 20
550.8548608592632
 30
0.0
 11
734.3397542327975
 21
551.703366635295
 31
0.0
  0
ARC
  5
1441D
330
1A
100
AcDbEntity
  8
SN
100
AcDbCircle
 10
745.3094093473983
 20
569.0063550832351
 30
0.0
 40
18.15149422397189
100
AcDbArc
 50
252.41204622605
 51
287.5879537739499
  0
ARC
  5
1441E
330
1A
100
AcDbEntity
  8
SN
100
AcDbCircle
 10
718.3094093473982
 20
532.8548608592632
 30
0.0
 40
2.0
100
AcDbArc
 50
180.0
 51
270.0
  0
LINE
  5
1441F
330
1A
100
AcDbEntity
  8
SN
100
AcDbLine
 10
716.3094093473983
 20
540.8548608592631
 30
0.0
 11
716.3094093473983
 21
532.8548608592632
 31
0.0
  0
LINE
  5
14420
330
1A
100
AcDbEntity
  8
SN
100
AcDbLine
 10
722.3094093473982
 20
540.8548608592631
 30
0.0
 11
732.3094093474018
 21
550.8548608592632
 31
0.0
  0
LINE
  5
14421
330
1A
100
AcDbEntity
  8
SN
100
AcDbLine
 10
768.3094093473982
 20
540.854860859265
 30
0.0
 11
758.3094093473983
 21
550.8548608592632
 31
0.0
  0
LINE
  5
14422
330
1A
100
AcDbEntity
  8
SN
100
AcDbLine
 10
754.8094093474019
 20
550.8548608592632
 30
0.0
 11
756.2790644620063
 21
551.703366635295
 31
0.0
  0
ARC
  5
14423
330
1A
100
AcDbEntity
  8
SN
100
AcDbCircle
 10
772.3094093473982
 20
532.8548608592632
 30
0.0
 40
2.0
100
AcDbArc
 50
270.0
 51
0.0
  0
LINE
  5
14424
330
1A
100
AcDbEntity
  8
SN
100
AcDbLine
 10
774.3094093473983
 20
540.854860859265
 30
0.0
 11
774.3094093473983
 21
532.8548608592632
 31
0.0
  0
LINE
  5
14425
330
1A
100
AcDbEntity
  8
SN
100
AcDbLine
 10
707.3094093474018
 20
573.8548608592614
 30
0.0
 11
707.3094093474018
 21
648.8548608592614
 31
0.0
  0
LINE
  5
14426
330
1A
100
AcDbEntity
  8
SN
100
AcDbLine
 10
735.8094093474019
 20
557.8548608592632
 30
0.0
 11
754.8094093474019
 21
557.8548608592632
 31
0.0
  0
ARC
  5
14427
330
1A
100
AcDbEntity
  8
SN
100
AcDbCircle
 10
753.5366506833516
 20
552.9987976372599
 30
0.0
 40
4.856063222002592
100
AcDbArc
 50
55.61575253204106
 51
124.3842474679589
  0
LINE
  5
14428
330
1A
100
AcDbEntity
  8
SN
100
AcDbLine
 10
734.8094093473982
 20
563.8548608592632
 30
0.0
 11
755.8094093473982
 21
563.8548608592632
 31
0.0
  0
LINE
  5
14429
330
1A
100
AcDbEntity
  8
SN
100
AcDbLine
 10
734.8094093473982
 20
568.854860859265
 30
0.0
 11
755.8094093473982
 21
568.8548608592632
 31
0.0
  0
ARC
  5
1442A
330
1A
100
AcDbEntity
  8
SN
100
AcDbCircle
 10
751.7094093473997
 20
569.2548608592646
 30
0.0
 40
0.4
100
AcDbArc
 50
180.0
 51
270.0
  0
LINE
  5
1442B
330
1A
100
AcDbEntity
  8
SN
100
AcDbLine
 10
735.009409347399
 20
571.8548608592632
 30
0.0
 11
755.6094093474012
 21
571.8548608592632
 31
0.0
  0
LINE
  5
1442C
330
1A
100
AcDbEntity
  8
SN
100
AcDbLine
 10
739.3094093473982
 20
561.8548608592631
 30
0.0
 11
751.3094093473982
 21
561.8548608592631
 31
0.0
  0
LINE
  5
1442D
330
1A
100
AcDbEntity
  8
SN
 62
     9
100
AcDbLine
 10
740.259409347399
 20
561.8548608592631
 30
0.0
 11
740.259409347399
 21
557.8548608592632
 31
0.0
  0
LINE
  5
1442E
330
1A
100
AcDbEntity
  8
SN
100
AcDbLine
 10
739.3094093473982
 20
561.8548608592631
 30
0.0
 11
739.3094093473982
 21
557.8548608592632
 31
0.0
  0
LINE
  5
1442F
330
1A
100
AcDbEntity
  8
SN
 62
     9
100
AcDbLine
 10
750.3594093474012
 20
561.8548608592631
 30
0.0
 11
750.3594093474012
 21
557.8548608592632
 31
0.0
  0
LINE
  5
14430
330
1A
100
AcDbEntity
  8
SN
100
AcDbLine
 10
751.3094093473982
 20
561.8548608592631
 30
0.0
 11
751.3094093473982
 21
557.8548608592632
 31
0.0
  0
LINE
  5
14431
330
1A
100
AcDbEntity
  8
SN
100
AcDbLine
 10
735.8094093474019
 20
557.8548608592632
 30
0.0
 11
734.3397542327975
 21
557.0063550832315
 31
0.0
  0
ARC
  5
14432
330
1A
100
AcDbEntity
  8
SN
100
AcDbCircle
 10
745.3094093473983
 20
539.7033666352913
 30
0.0
 40
18.15149422397189
100
AcDbArc
 50
72.41204622605
 51
107.58795377395
  0
ARC
  5
14433
330
1A
100
AcDbEntity
  8
SN
100
AcDbCircle
 10
737.0821680114486
 20
552.9987976372599
 30
0.0
 40
4.856063222002592
100
AcDbArc
 50
55.61575253204106
 51
124.3842474679589
  0
LINE
  5
14434
330
1A
100
AcDbEntity
  8
SN
100
AcDbLine
 10
734.8094093473982
 20
568.854860859265
 30
0.0
 11
734.8094093473982
 21
563.8548608592632
 31
0.0
  0
LINE
  5
14435
330
1A
100
AcDbEntity
  8
SN
100
AcDbLine
 10
734.8461000339475
 20
563.8548608592632
 30
0.0
 11
734.8461000339475
 21
568.854860859265
 31
0.0
  0
LINE
  5
14436
330
1A
100
AcDbEntity
  8
SN
100
AcDbLine
 10
740.3094093473982
 20
563.8548608592632
 30
0.0
 11
740.3094093473982
 21
561.8548608592631
 31
0.0
  0
LINE
  5
14437
330
1A
100
AcDbEntity
  8
SN
100
AcDbLine
 10
750.3094093473983
 20
563.8548608592632
 30
0.0
 11
750.3094093473983
 21
561.8548608592631
 31
0.0
  0
LINE
  5
14438
330
1A
100
AcDbEntity
  8
SN
100
AcDbLine
 10
749.7815453023967
 20
568.854860859265
 30
0.0
 11
749.7815453023967
 21
563.8548608592632
 31
0.0
  0
LINE
  5
14439
330
1A
100
AcDbEntity
  8
SN
100
AcDbLine
 10
751.3094093473982
 20
568.854860859265
 30
0.0
 11
751.3094093473982
 21
563.8548608592632
 31
0.0
  0
LINE
  5
1443A
330
1A
100
AcDbEntity
  8
SN
100
AcDbLine
 10
739.3094093474019
 20
568.854860859265
 30
0.0
 11
739.3094093474019
 21
563.8548608592632
 31
0.0
  0
LINE
  5
1443B
330
1A
100
AcDbEntity
  8
SN
100
AcDbLine
 10
740.8372733924034
 20
568.854860859265
 30
0.0
 11
740.8372733924034
 21
563.8548608592632
 31
0.0
  0
LINE
  5
1443C
330
1A
100
AcDbEntity
  8
SN
100
AcDbLine
 10
751.3094093473982
 20
571.8548608592632
 30
0.0
 11
751.3094093473982
 21
569.2548608592646
 31
0.0
  0
LINE
  5
1443D
330
1A
100
AcDbEntity
  8
SN
100
AcDbLine
 10
739.3094093473982
 20
571.8548608592632
 30
0.0
 11
739.3094093473982
 21
569.2548608592646
 31
0.0
  0
ARC
  5
1443E
330
1A
100
AcDbEntity
  8
SN
100
AcDbCircle
 10
738.9094093474004
 20
569.2548608592646
 30
0.0
 40
0.4
100
AcDbArc
 50
270.0
 51
0.0
  0
LINE
  5
1443F
330
1A
100
AcDbEntity
  8
SN
100
AcDbLine
 10
735.0921931372349
 20
573.8548608592614
 30
0.0
 11
735.0921931372349
 21
571.8548608592632
 31
0.0
  0
LINE
  5
14440
330
1A
100
AcDbEntity
  8
SN
100
AcDbLine
 10
749.2893590958219
 20
573.8548608592614
 30
0.0
 11
749.2893590958219
 21
571.8548608592632
 31
0.0
  0
LINE
  5
14441
330
1A
100
AcDbEntity
  8
SN
100
AcDbLine
 10
739.072142885655
 20
573.8548608592614
 30
0.0
 11
739.072142885655
 21
571.8548608592632
 31
0.0
  0
LINE
  5
14442
330
1A
100
AcDbEntity
  8
SN
100
AcDbLine
 10
741.3294595989782
 20
573.8548608592614
 30
0.0
 11
741.3294595989782
 21
571.8548608592632
 31
0.0
  0
LINE
  5
14443
330
1A
100
AcDbEntity
  8
SN
100
AcDbLine
 10
754.8094093474019
 20
557.8548608592632
 30
0.0
 11
756.2790644620063
 21
557.0063550832315
 31
0.0
  0
LINE
  5
14444
330
1A
100
AcDbEntity
  8
SN
100
AcDbLine
 10
755.8094093473982
 20
568.8548608592632
 30
0.0
 11
755.8094093473982
 21
563.8548608592632
 31
0.0
  0
LINE
  5
14445
330
1A
100
AcDbEntity
  8
SN
100
AcDbLine
 10
755.7727186608526
 20
563.8548608592632
 30
0.0
 11
755.7727186608526
 21
568.854860859265
 31
0.0
  0
LINE
  5
14446
330
1A
100
AcDbEntity
  8
SN
100
AcDbLine
 10
751.5466758091451
 20
573.8548608592614
 30
0.0
 11
751.5466758091451
 21
571.8548608592632
 31
0.0
  0
LINE
  5
14447
330
1A
100
AcDbEntity
  8
SN
100
AcDbLine
 10
755.5266255575652
 20
573.8548608592614
 30
0.0
 11
755.5266255575652
 21
571.8548608592632
 31
0.0
  0
LINE
  5
14448
330
1A
100
AcDbEntity
  8
CENTER
100
AcDbLine
 10
798.2342271235856
 20
580.1014490259863
 30
0.0
 11
798.2342271235856
 21
559.9300418221905
 31
0.0
  0
ARC
  5
14449
330
1A
100
AcDbEntity
  8
SN
100
AcDbCircle
 10
798.2342271235856
 20
570.0157454240893
 30
0.0
 40
3.0
100
AcDbArc
 50
45.00000000007768
 51
225.0000000000777
  0
LINE
  5
1444A
330
1A
100
AcDbEntity
  8
SN
100
AcDbLine
 10
707.3094093474018
 20
798.8548608592614
 30
0.0
 11
707.3094093474018
 21
648.8548608592614
 31
0.0
  0
LINE
  5
1444B
330
1A
100
AcDbEntity
  8
SN
100
AcDbLine
 10
795.4249661654557
 20
1122.286097883606
 30
0.0
 11
795.4249661654557
 21
1032.367661690879
 31
0.0
  0
LINE
  5
1444C
330
1A
100
AcDbEntity
  8
SN
100
AcDbLine
 10
801.4249661654558
 20
1122.286097883606
 30
0.0
 11
801.4249661654558
 21
1032.404934198395
 31
0.0
  0
LINE
  5
1444D
330
1A
100
AcDbEntity
  8
CENTER
100
AcDbLine
 10
798.4249661654557
 20
994.3010357586844
 30
0.0
 11
798.4249661654557
 21
1135.531953730951
 31
0.0
  0
LINE
  5
1444E
330
1A
100
AcDbEntity
  8
SN
100
AcDbLine
 10
1780.279064462003
 20
551.703366635295
 30
0.0
 11
1780.279064462003
 21
557.0063550832315
 31
0.0
  0
LINE
  5
1444F
330
1A
100
AcDbEntity
  8
SN
100
AcDbLine
 10
1758.339754232826
 20
551.7033666352768
 30
0.0
 11
1758.339754232797
 21
557.0063550832278
 31
0.0
  0
LINE
  5
14450
330
1A
100
AcDbEntity
  8
SN
100
AcDbLine
 10
1763.8245817901
 20
551.703366635295
 30
0.0
 11
1763.8245817901
 21
557.0063550832315
 31
0.0
  0
LINE
  5
14451
330
1A
100
AcDbEntity
  8
SN
100
AcDbLine
 10
1774.794236904704
 20
551.703366635295
 30
0.0
 11
1774.794236904704
 21
557.0063550832315
 31
0.0
  0
LINE
  5
14452
330
1A
100
AcDbEntity
  8
CENTER
100
AcDbLine
 10
1769.309409347402
 20
523.1227716117468
 30
0.0
 11
1769.309409347402
 21
582.5869501067777
 31
0.0
  0
LINE
  5
14453
330
1A
100
AcDbEntity
  8
CENTER
100
AcDbLine
 10
1257.309409347402
 20
831.395383784053
 30
0.0
 11
1257.309409347402
 21
514.9829560543426
 31
0.0
  0
LINE
  5
14454
330
1A
100
AcDbEntity
  8
SN
100
AcDbLine
 10
1798.309409347402
 20
540.8548608592631
 30
0.0
 11
1798.309409347402
 21
532.8548608592632
 31
0.0
  0
ARC
  5
14455
330
1A
100
AcDbEntity
  8
SN
100
AcDbCircle
 10
1796.309409347402
 20
532.8548608592632
 30
0.0
 40
2.0
100
AcDbArc
 50
270.0
 51
0.0
  0
LINE
  5
14456
330
1A
100
AcDbEntity
  8
SN
100
AcDbLine
 10
1792.309409347402
 20
540.8548608592631
 30
0.0
 11
1782.309409347402
 21
550.8548608592632
 31
0.0
  0
LINE
  5
14457
330
1A
100
AcDbEntity
  8
SN
100
AcDbLine
 10
1778.809409347402
 20
550.8548608592632
 30
0.0
 11
1780.279064462003
 21
551.703366635295
 31
0.0
  0
LINE
  5
14458
330
1A
100
AcDbEntity
  8
SN
100
AcDbLine
 10
1740.309409347402
 20
540.854860859265
 30
0.0
 11
1740.309409347402
 21
532.8548608592632
 31
0.0
  0
ARC
  5
14459
330
1A
100
AcDbEntity
  8
SN
100
AcDbCircle
 10
1742.309409347402
 20
532.8548608592632
 30
0.0
 40
2.0
100
AcDbArc
 50
180.0
 51
270.0
  0
LINE
  5
1445A
330
1A
100
AcDbEntity
  8
SN
100
AcDbLine
 10
1759.809409347398
 20
550.8548608592632
 30
0.0
 11
1758.339754232797
 21
551.703366635295
 31
0.0
  0
LINE
  5
1445B
330
1A
100
AcDbEntity
  8
SN
100
AcDbLine
 10
1746.309409347402
 20
540.854860859265
 30
0.0
 11
1756.309409347402
 21
550.8548608592632
 31
0.0
  0
ARC
  5
1445C
330
1A
100
AcDbEntity
  8
SN
100
AcDbCircle
 10
1769.309409347402
 20
569.0063550832351
 30
0.0
 40
18.15149422397189
100
AcDbArc
 50
252.41204622605
 51
287.5879537739499
  0
ARC
  5
1445D
330
1A
100
AcDbEntity
  8
SN
100
AcDbCircle
 10
1761.082168011452
 20
555.7109240812665
 30
0.0
 40
4.856063222002592
100
AcDbArc
 50
235.6157525320411
 51
304.3842474679589
  0
LINE
  5
1445E
330
1A
100
AcDbEntity
  8
SN
100
AcDbLine
 10
1796.309409347402
 20
530.8548608592632
 30
0.0
 11
1742.309409347402
 21
530.854860859265
 31
0.0
  0
LINE
  5
1445F
330
1A
100
AcDbEntity
  8
SN
100
AcDbLine
 10
1798.309409347402
 20
540.8548608592631
 30
0.0
 11
1740.309409347402
 21
540.854860859265
 31
0.0
  0
ARC
  5
14460
330
1A
100
AcDbEntity
  8
SN
100
AcDbCircle
 10
1777.536650683355
 20
555.7109240812665
 30
0.0
 40
4.856063222002592
100
AcDbArc
 50
235.6157525320411
 51
304.3842474679589
  0
LINE
  5
14461
330
1A
100
AcDbEntity
  8
SN
100
AcDbLine
 10
1782.309409347398
 20
550.8548608592632
 30
0.0
 11
1756.309409347405
 21
550.8548608592632
 31
0.0
  0
LINE
  5
14462
330
1A
100
AcDbEntity
  8
SN
100
AcDbLine
 10
1807.309409347402
 20
648.8548608592614
 30
0.0
 11
1807.309409347402
 21
573.8548608592614
 31
0.0
  0
LINE
  5
14463
330
1A
100
AcDbEntity
  8
SN
100
AcDbLine
 10
1779.526625557569
 20
573.8548608592614
 30
0.0
 11
1779.526625557569
 21
571.8548608592632
 31
0.0
  0
LINE
  5
14464
330
1A
100
AcDbEntity
  8
SN
100
AcDbLine
 10
1779.772718660856
 20
563.8548608592632
 30
0.0
 11
1779.772718660856
 21
568.854860859265
 31
0.0
  0
LINE
  5
14465
330
1A
100
AcDbEntity
  8
SN
100
AcDbLine
 10
1779.809409347402
 20
568.854860859265
 30
0.0
 11
1779.809409347402
 21
563.8548608592632
 31
0.0
  0
LINE
  5
14466
330
1A
100
AcDbEntity
  8
SN
100
AcDbLine
 10
1778.809409347402
 20
557.8548608592632
 30
0.0
 11
1780.279064462003
 21
557.0063550832315
 31
0.0
  0
LINE
  5
14467
330
1A
100
AcDbEntity
  8
SN
100
AcDbLine
 10
1775.546675809149
 20
573.8548608592614
 30
0.0
 11
1775.546675809149
 21
571.8548608592632
 31
0.0
  0
LINE
  5
14468
330
1A
100
AcDbEntity
  8
SN
100
AcDbLine
 10
1773.289359095825
 20
573.8548608592614
 30
0.0
 11
1773.289359095825
 21
571.8548608592632
 31
0.0
  0
LINE
  5
14469
330
1A
100
AcDbEntity
  8
SN
100
AcDbLine
 10
1765.329459598978
 20
573.8548608592614
 30
0.0
 11
1765.329459598978
 21
571.8548608592632
 31
0.0
  0
LINE
  5
1446A
330
1A
100
AcDbEntity
  8
SN
100
AcDbLine
 10
1763.072142885658
 20
573.8548608592614
 30
0.0
 11
1763.072142885658
 21
571.8548608592632
 31
0.0
  0
LINE
  5
1446B
330
1A
100
AcDbEntity
  8
SN
100
AcDbLine
 10
1759.092193137238
 20
573.8548608592614
 30
0.0
 11
1759.092193137238
 21
571.8548608592632
 31
0.0
  0
LINE
  5
1446C
330
1A
100
AcDbEntity
  8
SN
100
AcDbLine
 10
1758.846100033951
 20
563.8548608592632
 30
0.0
 11
1758.846100033951
 21
568.854860859265
 31
0.0
  0
LINE
  5
1446D
330
1A
100
AcDbEntity
  8
SN
100
AcDbLine
 10
1758.809409347402
 20
568.8548608592632
 30
0.0
 11
1758.809409347402
 21
563.8548608592632
 31
0.0
  0
LINE
  5
1446E
330
1A
100
AcDbEntity
  8
SN
100
AcDbLine
 10
1759.809409347398
 20
557.8548608592632
 30
0.0
 11
1758.339754232797
 21
557.0063550832315
 31
0.0
  0
ARC
  5
1446F
330
1A
100
AcDbEntity
  8
SN
100
AcDbCircle
 10
1775.7094093474
 20
569.2548608592646
 30
0.0
 40
0.4
100
AcDbArc
 50
180.0
 51
270.0
  0
LINE
  5
14470
330
1A
100
AcDbEntity
  8
SN
100
AcDbLine
 10
1775.309409347402
 20
571.8548608592632
 30
0.0
 11
1775.309409347402
 21
569.2548608592646
 31
0.0
  0
LINE
  5
14471
330
1A
100
AcDbEntity
  8
SN
100
AcDbLine
 10
1763.309409347402
 20
571.8548608592632
 30
0.0
 11
1763.309409347402
 21
569.2548608592646
 31
0.0
  0
LINE
  5
14472
330
1A
100
AcDbEntity
  8
SN
100
AcDbLine
 10
1773.7815453024
 20
568.854860859265
 30
0.0
 11
1773.7815453024
 21
563.8548608592632
 31
0.0
  0
LINE
  5
14473
330
1A
100
AcDbEntity
  8
SN
100
AcDbLine
 10
1775.309409347402
 20
568.854860859265
 30
0.0
 11
1775.309409347402
 21
563.8548608592632
 31
0.0
  0
LINE
  5
14474
330
1A
100
AcDbEntity
  8
SN
100
AcDbLine
 10
1763.309409347402
 20
568.854860859265
 30
0.0
 11
1763.309409347402
 21
563.8548608592632
 31
0.0
  0
LINE
  5
14475
330
1A
100
AcDbEntity
  8
SN
100
AcDbLine
 10
1764.837273392403
 20
568.854860859265
 30
0.0
 11
1764.837273392403
 21
563.8548608592632
 31
0.0
  0
LINE
  5
14476
330
1A
100
AcDbEntity
  8
SN
100
AcDbLine
 10
1764.309409347402
 20
563.8548608592632
 30
0.0
 11
1764.309409347402
 21
561.8548608592631
 31
0.0
  0
LINE
  5
14477
330
1A
100
AcDbEntity
  8
SN
100
AcDbLine
 10
1774.309409347402
 20
563.8548608592632
 30
0.0
 11
1774.309409347402
 21
561.8548608592631
 31
0.0
  0
ARC
  5
14478
330
1A
100
AcDbEntity
  8
SN
100
AcDbCircle
 10
1769.309409347402
 20
539.7033666352913
 30
0.0
 40
18.15149422397189
100
AcDbArc
 50
72.41204622605
 51
107.58795377395
  0
LINE
  5
14479
330
1A
100
AcDbEntity
  8
SN
100
AcDbLine
 10
1763.309409347402
 20
561.8548608592631
 30
0.0
 11
1763.309409347402
 21
557.8548608592632
 31
0.0
  0
LINE
  5
1447A
330
1A
100
AcDbEntity
  8
SN
 62
     9
100
AcDbLine
 10
1764.259409347403
 20
561.8548608592631
 30
0.0
 11
1764.259409347403
 21
557.8548608592632
 31
0.0
  0
LINE
  5
1447B
330
1A
100
AcDbEntity
  8
SN
100
AcDbLine
 10
1775.309409347402
 20
561.8548608592631
 30
0.0
 11
1775.309409347402
 21
557.8548608592632
 31
0.0
  0
LINE
  5
1447C
330
1A
100
AcDbEntity
  8
SN
 62
     9
100
AcDbLine
 10
1774.359409347401
 20
561.8548608592631
 30
0.0
 11
1774.359409347401
 21
557.8548608592632
 31
0.0
  0
LINE
  5
1447D
330
1A
100
AcDbEntity
  8
SN
100
AcDbLine
 10
1775.309409347402
 20
561.8548608592631
 30
0.0
 11
1763.309409347402
 21
561.8548608592631
 31
0.0
  0
ARC
  5
1447E
330
1A
100
AcDbEntity
  8
SN
100
AcDbCircle
 10
1762.909409347404
 20
569.2548608592646
 30
0.0
 40
0.4
100
AcDbArc
 50
270.0
 51
0.0
  0
ARC
  5
1447F
330
1A
100
AcDbEntity
  8
SN
100
AcDbCircle
 10
1761.082168011452
 20
552.9987976372599
 30
0.0
 40
4.856063222002592
100
AcDbArc
 50
55.61575253204106
 51
124.3842474679589
  0
ARC
  5
14480
330
1A
100
AcDbEntity
  8
SN
100
AcDbCircle
 10
1777.536650683355
 20
552.9987976372599
 30
0.0
 40
4.856063222002592
100
AcDbArc
 50
55.61575253204106
 51
124.3842474679589
  0
LINE
  5
14481
330
1A
100
AcDbEntity
  8
SN
100
AcDbLine
 10
1779.609409347405
 20
571.8548608592632
 30
0.0
 11
1759.009409347402
 21
571.8548608592632
 31
0.0
  0
LINE
  5
14482
330
1A
100
AcDbEntity
  8
SN
100
AcDbLine
 10
1779.809409347402
 20
568.854860859265
 30
0.0
 11
1758.809409347402
 21
568.8548608592632
 31
0.0
  0
LINE
  5
14483
330
1A
100
AcDbEntity
  8
SN
100
AcDbLine
 10
1779.809409347402
 20
563.8548608592632
 30
0.0
 11
1758.809409347402
 21
563.8548608592632
 31
0.0
  0
LINE
  5
14484
330
1A
100
AcDbEntity
  8
SN
100
AcDbLine
 10
1778.809409347402
 20
557.8548608592632
 30
0.0
 11
1759.809409347402
 21
557.8548608592632
 31
0.0
  0
LINE
  5
14485
330
1A
100
AcDbEntity
  8
SN
100
AcDbLine
 10
1807.309409347402
 20
648.8548608592614
 30
0.0
 11
1807.309409347402
 21
798.8548608592614
 31
0.0
  0
LINE
  5
14486
330
1A
100
AcDbEntity
  8
SN
100
AcDbLine
 10
2491.658000528992
 20
683.8548608592613
 30
0.0
 11
2711.658000528992
 21
683.8548608592613
 31
0.0
  0
LWPOLYLINE
  5
14487
330
1A
100
AcDbEntity
  8
SN
100
AcDbPolyline
 90
        4
 70
     0
 43
0.0
 10
3376.658000528992
 20
648.8548608592614
 10
3376.658000528992
 20
798.8548608592614
 10
2276.658000528992
 20
798.8548608592614
 10
2276.658000528992
 20
648.8548608592614
  0
LINE
  5
14488
330
1A
100
AcDbEntity
  8
SN
100
AcDbLine
 10
2491.658000528992
 20
763.8548608592614
 30
0.0
 11
2711.658000528992
 21
763.8548608592614
 31
0.0
  0
ARC
  5
14489
330
1A
100
AcDbEntity
  8
SN
100
AcDbCircle
 10
2491.658000528992
 20
703.8548608592618
 30
0.0
 40
20.0
100
AcDbArc
 50
180.0
 51
270.0
  0
LINE
  5
1448A
330
1A
100
AcDbEntity
  8
SN
100
AcDbLine
 10
2471.658000528992
 20
743.8548608592614
 30
0.0
 11
2471.658000528992
 21
703.8548608592618
 31
0.0
  0
ARC
  5
1448B
330
1A
100
AcDbEntity
  8
SN
100
AcDbCircle
 10
2491.658000528992
 20
743.8548608592614
 30
0.0
 40
20.0
100
AcDbArc
 50
90.0
 51
180.0
  0
ARC
  5
1448C
330
1A
100
AcDbEntity
  8
SN
100
AcDbCircle
 10
2711.658000528992
 20
703.8548608592618
 30
0.0
 40
20.0
100
AcDbArc
 50
270.0
 51
0.0
  0
LINE
  5
1448D
330
1A
100
AcDbEntity
  8
SN
100
AcDbLine
 10
2731.658000528992
 20
743.8548608592614
 30
0.0
 11
2731.658000528992
 21
703.8548608592618
 31
0.0
  0
ARC
  5
1448E
330
1A
100
AcDbEntity
  8
SN
100
AcDbCircle
 10
2711.658000528992
 20
743.8548608592614
 30
0.0
 40
20.0
100
AcDbArc
 50
0.0
 51
90.0
  0
ARC
  5
1448F
330
1A
100
AcDbEntity
  8
SN
100
AcDbCircle
 10
2941.658000528992
 20
703.8548608592618
 30
0.0
 40
20.0
100
AcDbArc
 50
180.0
 51
270.0
  0
LINE
  5
14490
330
1A
100
AcDbEntity
  8
SN
100
AcDbLine
 10
2921.658000528992
 20
743.8548608592614
 30
0.0
 11
2921.658000528992
 21
703.8548608592618
 31
0.0
  0
ARC
  5
14491
330
1A
100
AcDbEntity
  8
SN
100
AcDbCircle
 10
2941.658000528992
 20
743.8548608592614
 30
0.0
 40
20.0
100
AcDbArc
 50
90.0
 51
180.0
  0
ARC
  5
14492
330
1A
100
AcDbEntity
  8
SN
100
AcDbCircle
 10
3161.658000528992
 20
703.8548608592618
 30
0.0
 40
20.0
100
AcDbArc
 50
270.0
 51
0.0
  0
LINE
  5
14493
330
1A
100
AcDbEntity
  8
SN
100
AcDbLine
 10
3181.658000528992
 20
743.8548608592614
 30
0.0
 11
3181.658000528992
 21
703.8548608592618
 31
0.0
  0
ARC
  5
14494
330
1A
100
AcDbEntity
  8
SN
100
AcDbCircle
 10
3161.658000528992
 20
743.8548608592614
 30
0.0
 40
20.0
100
AcDbArc
 50
0.0
 51
90.0
  0
LEADER
  5
14495
330
1A
100
AcDbEntity
  8
MEASURE
100
AcDbLeader
  3
AD-STANDARDx3
 73
     0
 74
     0
 75
     1
 40
28.0
 41
80.64000000000001
 76
     3
 10
2596.704969370629
 20
653.9700466813187
 30
0.0
 10
2723.313256297214
 20
873.8347405887079
 30
0.0
 10
2743.313256297214
 20
873.8347405887079
 30
0.0
340
14496
1001
ACAD
1000
DSTYLE
1002
{
1070
   147
1040
0.5
1070
    77
1070
     1
1002
}
  0
MTEXT
  5
14496
102
{ACAD_REACTORS
330
14495
102
}
330
1A
100
AcDbEntity
  8
MEASURE
 62
     2
100
AcDbMText
 10
2747.313256297215
 20
877.834740588708
 30
0.0
 40
28.0
 41
0.0
 71
     7
 72
     1
  1
水平器
  7
AD-STANDARD
 73
     1
 44
1.0
1001
ACAD
1000
MTEXTBEGIN
1070
    73
1070
     1
1070
    44
1040
1.0
1070
    74
1070
     0
1000
MTEXTEND
  0
LINE
  5
14497
330
1A
100
AcDbEntity
  8
SN
100
AcDbLine
 10
2941.658000528992
 20
763.8548608592614
 30
0.0
 11
3161.658000528992
 21
763.8548608592614
 31
0.0
  0
LINE
  5
14498
330
1A
100
AcDbEntity
  8
SN
100
AcDbLine
 10
2941.658000528992
 20
683.8548608592613
 30
0.0
 11
3161.658000528992
 21
683.8548608592613
 31
0.0
  0
LINE
  5
14499
330
1A
100
AcDbEntity
  8
SN
100
AcDbLine
 10
2276.658000528992
 20
648.8548608592614
 30
0.0
 11
3376.658000528992
 21
648.8548608592614
 31
0.0
  0
LINE
  5
14AEE
330
1A
100
AcDbEntity
  8
SN
100
AcDbLine
 10
2798.581124897948
 20
1471.150264570998
 30
0.0
 11
2798.581124897948
 21
1466.150264570998
 31
0.0
  0
LINE
  5
14AEF
330
1A
100
AcDbEntity
  8
SN
100
AcDbLine
 10
2853.581124897948
 20
1466.150264570998
 30
0.0
 11
2853.581124897948
 21
1471.150264570998
 31
0.0
  0
LINE
  5
14AF0
330
1A
100
AcDbEntity
  8
SN
100
AcDbLine
 10
2801.581124897948
 20
1474.150264570998
 30
0.0
 11
2850.581124897948
 21
1474.150264570998
 31
0.0
  0
LINE
  5
14AF1
330
1A
100
AcDbEntity
  8
SN
100
AcDbLine
 10
2640.013310682351
 20
1414.150264570997
 30
0.0
 11
3012.148939114073
 21
1414.150264570998
 31
0.0
  0
ARC
  5
14AF2
330
1A
100
AcDbEntity
  8
SN
100
AcDbCircle
 10
2801.581124897948
 20
1471.150264570998
 30
0.0
 40
3.0
100
AcDbArc
 50
90.0
 51
180.0
  0
ARC
  5
14AF3
330
1A
100
AcDbEntity
  8
SN
100
AcDbCircle
 10
2850.581124897948
 20
1471.150264570998
 30
0.0
 40
3.0
100
AcDbArc
 50
0.0
 51
90.0
  0
LINE
  5
14AF4
330
1A
100
AcDbEntity
  8
SN
100
AcDbLine
 10
2838.581124897948
 20
1453.650264570998
 30
0.0
 11
2838.581124897948
 21
1414.150264570998
 31
0.0
  0
LINE
  5
14AF5
330
1A
100
AcDbEntity
  8
SN
100
AcDbLine
 10
2813.581124897948
 20
1453.650264570998
 30
0.0
 11
2813.581124897948
 21
1414.150264570998
 31
0.0
  0
ARC
  5
14AF6
330
1A
100
AcDbEntity
  8
SN
100
AcDbCircle
 10
2826.081124897948
 20
1437.893213483606
 30
0.0
 40
12.5
100
AcDbArc
 50
0.0
 51
180.0
  0
ARC
  5
14AF7
330
1A
100
AcDbEntity
  8
SN
100
AcDbCircle
 10
2826.081124897948
 20
1453.650264570998
 30
0.0
 40
12.5
100
AcDbArc
 50
0.0
 51
180.0
  0
LINE
  5
14AF8
330
1A
100
AcDbEntity
  8
SN
100
AcDbLine
 10
2640.013310682352
 20
1425.250358497192
 30
0.0
 11
2640.013310682352
 21
1414.150264570998
 31
0.0
  0
LINE
  5
14AF9
330
1A
100
AcDbEntity
  8
SN
100
AcDbLine
 10
2646.178738020528
 20
1444.358318671828
 30
0.0
 11
2641.478525317885
 21
1432.764460671977
 31
0.0
  0
LINE
  5
14AFA
330
1A
100
AcDbEntity
  8
SN
100
AcDbLine
 10
2654.370175874138
 20
1450.54321514046
 30
0.0
 11
2799.927070699832
 21
1466.295927870511
 31
0.0
  0
ARC
  5
14AFB
330
1A
100
AcDbEntity
  8
SN
100
AcDbCircle
 10
2655.446130702762
 20
1440.601267584435
 30
0.0
 40
10.0
100
AcDbArc
 50
96.17672415936452
 51
157.9321004375664
  0
ARC
  5
14AFC
330
1A
100
AcDbEntity
  8
SN
100
AcDbCircle
 10
2660.013310682352
 20
1425.250358497192
 30
0.0
 40
20.0
100
AcDbArc
 50
157.9321004375664
 51
180.0
  0
LINE
  5
14AFD
330
1A
100
AcDbEntity
  8
SN
100
AcDbLine
 10
2806.647805512916
 20
1414.150264570998
 30
0.0
 11
2806.647805512916
 21
1453.650264570998
 31
0.0
  0
ELLIPSE
  5
14AFE
330
1A
100
AcDbEntity
  8
SN
100
AcDbEllipse
 10
2799.927070699832
 20
1453.650264570998
 30
0.0
 11
0.0
 21
12.6456632995139
 31
0.0
210
0.0
220
0.0
230
1.0
 40
0.5314655826192326
 41
4.712388980384689
 42
6.398093099796154
  0
ELLIPSE
  5
14AFF
330
1A
100
AcDbEntity
  8
SN
100
AcDbEllipse
 10
2852.235179096066
 20
1453.650264570998
 30
0.0
 11
0.0
 21
12.6456632995139
 31
0.0
210
0.0
220
0.0
230
-1.0
 40
0.5314655826192326
 41
4.712388980384689
 42
6.398093099796154
  0
LINE
  5
14B00
330
1A
100
AcDbEntity
  8
SN
100
AcDbLine
 10
2997.746320789382
 20
1450.548166715936
 30
0.0
 11
2852.235179096066
 21
1466.295927870511
 31
0.0
  0
LINE
  5
14B01
330
1A
100
AcDbEntity
  8
SN
100
AcDbLine
 10
3005.937758642991
 20
1444.363270247303
 30
0.0
 11
3010.639978741094
 21
1432.764460671976
 31
0.0
  0
ARC
  5
14B02
330
1A
100
AcDbEntity
  8
SN
100
AcDbCircle
 10
2996.670365960758
 20
1440.606219159911
 30
0.0
 40
10.0
100
AcDbArc
 50
22.06789956243355
 51
83.82327584063551
  0
LINE
  5
14B03
330
1A
100
AcDbEntity
  8
SN
100
AcDbLine
 10
3012.105193376625
 20
1425.250358497191
 30
0.0
 11
3012.105193376625
 21
1414.150264570997
 31
0.0
  0
ARC
  5
14B04
330
1A
100
AcDbEntity
  8
SN
100
AcDbCircle
 10
2992.105193376625
 20
1425.250358497191
 30
0.0
 40
20.0
100
AcDbArc
 50
0.0
 51
22.06789956243355
  0
LINE
  5
14B05
330
1A
100
AcDbEntity
  8
SN
100
AcDbLine
 10
2845.514444282983
 20
1414.150264570998
 30
0.0
 11
2845.514444282983
 21
1453.650264570998
 31
0.0
  0
LINE
  5
14B06
330
1A
100
AcDbEntity
  8
SN
100
AcDbLine
 10
2809.581124897948
 20
1889.150264570998
 30
0.0
 11
2809.581124897948
 21
1474.150264570998
 31
0.0
  0
LINE
  5
14B07
330
1A
100
AcDbEntity
  8
SN
100
AcDbLine
 10
2842.581124897948
 20
1889.150264570998
 30
0.0
 11
2842.581124897948
 21
1474.150264570998
 31
0.0
  0
LINE
  5
14B08
330
1A
100
AcDbEntity
  8
SN
100
AcDbLine
 10
2806.081124897948
 20
1889.150264570998
 30
0.0
 11
2846.081124897948
 21
1889.150264570998
 31
0.0
  0
LINE
  5
14B0A
330
1A
100
AcDbEntity
  8
SN
100
AcDbLine
 10
2806.081124897948
 20
1939.150264570997
 30
0.0
 11
2806.081124897948
 21
1889.150264570998
 31
0.0
  0
LINE
  5
14B0B
330
1A
100
AcDbEntity
  8
SN
100
AcDbLine
 10
2846.081124897948
 20
1939.150264570998
 30
0.0
 11
2846.081124897948
 21
1889.150264570998
 31
0.0
  0
LINE
  5
14B0C
330
1A
100
AcDbEntity
  8
SN
100
AcDbLine
 10
2815.190890482256
 20
2049.150264570998
 30
0.0
 11
2815.190890482256
 21
1939.150264570998
 31
0.0
  0
LINE
  5
14B0D
330
1A
100
AcDbEntity
  8
SN
100
AcDbLine
 10
2837.058819921502
 20
2049.153982067072
 30
0.0
 11
2837.058819921502
 21
1939.153982067072
 31
0.0
  0
LINE
  5
14B0F
330
1A
100
AcDbEntity
  8
SN
100
AcDbLine
 10
2816.266170321727
 20
2052.750264570999
 30
0.0
 11
2835.896079474175
 21
2052.750264570999
 31
0.0
  0
ARC
  5
14B10
330
1A
100
AcDbEntity
  8
SN
100
AcDbCircle
 10
2826.081124897952
 20
2044.509453949554
 30
0.0
 40
16.24081062144507
100
AcDbArc
 50
72.41204622603632
 51
107.5879537739637
  0
LINE
  5
14B11
330
1A
100
AcDbEntity
  8
SN
100
AcDbLine
 10
2817.581124897952
 20
2060.750264570999
 30
0.0
 11
2834.581124897951
 21
2060.750264570999
 31
0.0
  0
LINE
  5
14B12
330
1A
100
AcDbEntity
  8
SN
100
AcDbLine
 10
2821.173647609838
 20
2059.991075192444
 30
0.0
 11
2821.173647609838
 21
2052.750264570999
 31
0.0
  0
LINE
  5
14B13
330
1A
100
AcDbEntity
  8
SN
100
AcDbLine
 10
2816.266170321727
 20
2059.991075192444
 30
0.0
 11
2816.266170321727
 21
2052.750264570999
 31
0.0
  0
LINE
  5
14B14
330
1A
100
AcDbEntity
  8
SN
100
AcDbLine
 10
2817.581124897952
 20
2060.750264570999
 30
0.0
 11
2816.266170321727
 21
2059.991075192444
 31
0.0
  0
ARC
  5
14B15
330
1A
100
AcDbEntity
  8
SN
100
AcDbCircle
 10
2817.581124897952
 20
2051.870669881722
 30
0.0
 40
8.879594689277416
100
AcDbArc
 50
66.13507458388179
 51
90.0
  0
LINE
  5
14B16
330
1A
100
AcDbEntity
  8
SN
100
AcDbLine
 10
2830.988602186062
 20
2059.991075192444
 30
0.0
 11
2830.988602186062
 21
2052.750264570999
 31
0.0
  0
LINE
  5
14B17
330
1A
100
AcDbEntity
  8
SN
100
AcDbLine
 10
2835.896079474175
 20
2059.991075192444
 30
0.0
 11
2835.896079474175
 21
2052.750264570999
 31
0.0
  0
LINE
  5
14B18
330
1A
100
AcDbEntity
  8
SN
100
AcDbLine
 10
2830.988602186062
 20
2059.991075192444
 30
0.0
 11
2830.988602186062
 21
2052.750264570999
 31
0.0
  0
LINE
  5
14B19
330
1A
100
AcDbEntity
  8
SN
100
AcDbLine
 10
2834.581124897951
 20
2060.750264570999
 30
0.0
 11
2835.896079474175
 21
2059.991075192444
 31
0.0
  0
ARC
  5
14B1A
330
1A
100
AcDbEntity
  8
SN
100
AcDbCircle
 10
2834.581124897951
 20
2051.870669881722
 30
0.0
 40
8.879594689277416
100
AcDbArc
 50
90.0
 51
113.8649254161182
  0
LWPOLYLINE
  5
14B1B
330
1A
100
AcDbEntity
  8
SN
100
AcDbPolyline
 90
        4
 70
     1
 43
0.0
 10
2817.23112489795
 20
2050.750264570999
 10
2834.931124897951
 20
2050.750264570999
 10
2834.931124897951
 20
2052.750264570999
 10
2817.23112489795
 20
2052.750264570999
  0
LINE
  5
14B1D
330
1A
100
AcDbEntity
  8
SN
100
AcDbLine
 10
2806.081124897948
 20
1939.150264570997
 30
0.0
 11
2846.081124897948
 21
1939.150264570998
 31
0.0
  0
LINE
  5
14B1E
330
1A
100
AcDbEntity
  8
CENTER
100
AcDbLine
 10
2826.081124897948
 20
2303.732814665149
 30
0.0
 11
2826.081124897948
 21
1276.993284084688
 31
0.0
  0
LINE
  5
14B1F
330
1A
100
AcDbEntity
  8
SN
100
AcDbLine
 10
3428.059923048593
 20
1450.500291278304
 30
0.0
 11
3581.163905212012
 21
1466.150264570998
 31
0.0
  0
ARC
  5
14B20
330
1A
100
AcDbEntity
  8
SN
100
AcDbCircle
 10
3429.076803786549
 20
1440.552127952102
 30
0.0
 40
10.0
100
AcDbArc
 50
95.83638557178186
 51
157.9321004375664
  0
LINE
  5
14B21
330
1A
100
AcDbEntity
  8
SN
100
AcDbLine
 10
3413.663905238708
 20
1414.150264570999
 30
0.0
 11
3770.832049171375
 21
1414.150264570998
 31
0.0
  0
LINE
  5
14B22
330
1A
100
AcDbEntity
  8
SN
100
AcDbLine
 10
3419.809411104314
 20
1444.309179039495
 30
0.0
 11
3415.12911987424
 21
1432.764460671977
 31
0.0
  0
ARC
  5
14B23
330
1A
100
AcDbEntity
  8
SN
100
AcDbCircle
 10
3433.663905238707
 20
1425.250358497192
 30
0.0
 40
20.0
100
AcDbArc
 50
157.9321004375664
 51
180.0
  0
LINE
  5
14B24
330
1A
100
AcDbEntity
  8
SN
100
AcDbLine
 10
3413.663905238708
 20
1425.250358497192
 30
0.0
 11
3413.663905238708
 21
1414.150264570998
 31
0.0
  0
LINE
  5
14B25
330
1A
100
AcDbEntity
  8
SN
100
AcDbLine
 10
3625.163905238707
 20
1889.150264570998
 30
0.0
 11
3625.163905238707
 21
1474.150264570998
 31
0.0
  0
LINE
  5
14B26
330
1A
100
AcDbEntity
  8
SN
100
AcDbLine
 10
3592.163905238707
 20
1889.150264570998
 30
0.0
 11
3592.163905238707
 21
1474.150264570998
 31
0.0
  0
LINE
  5
14B27
330
1A
100
AcDbEntity
  8
SN
100
AcDbLine
 10
3584.163905238707
 20
1474.150264570998
 30
0.0
 11
3633.163905238708
 21
1474.150264570998
 31
0.0
  0
ARC
  5
14B28
330
1A
100
AcDbEntity
  8
SN
100
AcDbCircle
 10
3584.163905238707
 20
1471.150264570998
 30
0.0
 40
3.0
100
AcDbArc
 50
90.0
 51
180.0
  0
LINE
  5
14B29
330
1A
100
AcDbEntity
  8
SN
100
AcDbLine
 10
3581.163905238707
 20
1471.150264570998
 30
0.0
 11
3581.163905238707
 21
1461.914545648208
 31
0.0
  0
ARC
  5
14B2A
330
1A
100
AcDbEntity
  8
SN
100
AcDbCircle
 10
3633.163905238708
 20
1471.150264570998
 30
0.0
 40
3.0
100
AcDbArc
 50
0.0
 51
90.0
  0
LINE
  5
14B2B
330
1A
100
AcDbEntity
  8
SN
100
AcDbLine
 10
3636.163905238708
 20
1465.485935954997
 30
0.0
 11
3636.163905238708
 21
1471.150264570998
 31
0.0
  0
LINE
  5
14B2C
330
1A
100
AcDbEntity
  8
SN
100
AcDbLine
 10
3619.663905238707
 20
2049.150264570998
 30
0.0
 11
3619.663905238707
 21
1939.150264570998
 31
0.0
  0
LINE
  5
14B2D
330
1A
100
AcDbEntity
  8
SN
100
AcDbLine
 10
3597.663905238707
 20
2049.150264570998
 30
0.0
 11
3597.663905238707
 21
1939.150264570998
 31
0.0
  0
LINE
  5
14B2E
330
1A
100
AcDbEntity
  8
SN
100
AcDbLine
 10
3628.663905238707
 20
1939.150264570998
 30
0.0
 11
3628.663905238707
 21
1889.150264570998
 31
0.0
  0
LINE
  5
14B2F
330
1A
100
AcDbEntity
  8
SN
100
AcDbLine
 10
3588.663905238707
 20
1939.150264570998
 30
0.0
 11
3599.65064319981
 21
1939.150264570998
 31
0.0
  0
LINE
  5
14B30
330
1A
100
AcDbEntity
  8
SN
100
AcDbLine
 10
3617.677167234684
 20
1939.150264570998
 30
0.0
 11
3628.663905238707
 21
1939.150264570998
 31
0.0
  0
LINE
  5
14B31
330
1A
100
AcDbEntity
  8
SN
100
AcDbLine
 10
3588.663905238707
 20
1939.150264570998
 30
0.0
 11
3588.663905238707
 21
1889.150264570998
 31
0.0
  0
LINE
  5
14B32
330
1A
100
AcDbEntity
  8
SN
100
AcDbLine
 10
3588.663905238707
 20
1889.150264570998
 30
0.0
 11
3628.663905238707
 21
1889.150264570998
 31
0.0
  0
LINE
  5
14B34
330
1A
100
AcDbEntity
  8
SN
100
AcDbLine
 10
3755.483575408064
 20
1450.393213483606
 30
0.0
 11
3630.911872557324
 21
1466.150264573726
 31
0.0
  0
LINE
  5
14B35
330
1A
100
AcDbEntity
  8
SN
100
AcDbLine
 10
3764.750968090295
 20
1444.150264570998
 30
0.0
 11
3769.366834535845
 21
1432.764460671977
 31
0.0
  0
ARC
  5
14B36
330
1A
100
AcDbEntity
  8
SN
100
AcDbCircle
 10
3750.832049171375
 20
1425.250358497192
 30
0.0
 40
20.0
100
AcDbArc
 50
0.0
 51
22.06789956243355
  0
ARC
  5
14B37
330
1A
100
AcDbEntity
  8
SN
100
AcDbCircle
 10
3755.483575408064
 20
1440.393213483606
 30
0.0
 40
10.0
100
AcDbArc
 50
22.06789956243355
 51
90.0
  0
LINE
  5
14B38
330
1A
100
AcDbEntity
  8
SN
100
AcDbLine
 10
3770.832049171375
 20
1425.250358497192
 30
0.0
 11
3770.832049171375
 21
1414.150264570998
 31
0.0
  0
LINE
  5
14B39
330
1A
100
AcDbEntity
  8
SN
100
AcDbLine
 10
3612.98277208503
 20
1414.150264570998
 30
0.0
 11
3612.98277208503
 21
1453.650264570998
 31
0.0
  0
LINE
  5
14B3A
330
1A
100
AcDbEntity
  8
SN
100
AcDbLine
 10
3538.995761252649
 20
1448.650264570998
 30
0.0
 11
3538.995761252649
 21
1414.150264570998
 31
0.0
  0
ELLIPSE
  5
14B3B
330
1A
100
AcDbEntity
  8
SN
100
AcDbEllipse
 10
3601.094565631342
 20
1453.650264570998
 30
0.0
 11
0.0
 21
-12.53444651850494
 31
0.0
210
0.0
220
0.0
230
1.0
 40
0.9484428719001524
 41
1.570796326794896
 42
3.219785671039474
  0
ARC
  5
14B3C
330
1A
100
AcDbEntity
  8
SN
100
AcDbCircle
 10
3543.995761252649
 20
1448.650264570998
 30
0.0
 40
5.0
100
AcDbArc
 50
90.0
 51
180.0
  0
LINE
  5
14B3D
330
1A
100
AcDbEntity
  8
SN
100
AcDbLine
 10
3543.995761252649
 20
1453.650264570998
 30
0.0
 11
3600.21381524732
 21
1466.150264570998
 31
0.0
  0
LINE
  5
14B3E
330
1A
100
AcDbEntity
  8
SN
100
AcDbLine
 10
3621.133377852944
 20
1453.891998928715
 30
0.0
 11
3621.133377852944
 21
1414.150264570998
 31
0.0
  0
ELLIPSE
  5
14B3F
330
1A
100
AcDbEntity
  8
SN
100
AcDbEllipse
 10
3630.911872557324
 20
1453.75688055505
 30
0.0
 11
0.0
 21
12.39338401867638
 31
0.0
210
0.0
220
0.0
230
1.0
 40
0.7890561524734743
 41
6.283185307179586
 42
7.862584393234284
  0
DIMENSION
  5
14B40
330
1A
100
AcDbEntity
  8
MEASURE
100
AcDbDimension
  2
*D55
 10
2837.058819921502
 20
1969.878504278553
 30
0.0
 11
2911.992153254835
 21
1987.878504278553
 31
0.0
 70
    32
  1
φ22
 71
     5
 42
21.86792943924593
  3
AD-STANDARDx3
100
AcDbAlignedDimension
 13
2815.190890482256
 23
1996.184128337777
 33
0.0
 14
2837.058819921502
 24
1996.184128337777
 34
0.0
100
AcDbRotatedDimension
1001
ACAD
1000
DSTYLE
1002
{
1070
    76
1070
     1
1070
    75
1070
     1
1002
}
  0
LINE
  5
14B41
330
1A
100
AcDbEntity
  8
SN
100
AcDbLine
 10
2938.96460905106
 20
2197.391250663444
 30
0.0
 11
2713.197640744842
 21
2197.391250663444
 31
0.0
  0
LINE
  5
14B42
330
1A
100
AcDbEntity
  8
SN
 62
     9
100
AcDbLine
 10
2923.58112489795
 20
2073.552071975901
 30
0.0
 11
2728.581124897952
 21
2073.552071975901
 31
0.0
  0
LINE
  5
14B43
330
1A
100
AcDbEntity
  8
SN
100
AcDbLine
 10
3619.778986189646
 20
2080.245561752616
 30
0.0
 11
3636.998834144753
 21
2088.275308722666
 31
0.0
  0
ARC
  5
14B44
330
1A
100
AcDbEntity
  8
SN
100
AcDbCircle
 10
3599.208726132769
 20
2059.965267036587
 30
0.0
 40
97.99999999999998
100
AcDbArc
 50
108.8762631894704
 51
138.2677048000154
  0
LINE
  5
14B47
330
1A
100
AcDbEntity
  8
SN
 62
     9
100
AcDbLine
 10
3567.756344137655
 20
2067.020784566288
 30
-0.0000000000000107
 11
3642.526736574357
 21
2101.88679114665
 31
-0.0000000000000107
  0
ARC
  5
14B48
330
1A
100
AcDbEntity
  8
SN
 62
     9
100
AcDbCircle
 10
3578.136196708368
 20
2168.542191397495
 30
0.0
 40
44.99999999999999
100
AcDbArc
 50
260.4986574353936
 51
16.0367521643692
  0
LINE
  5
14B4A
330
1A
100
AcDbEntity
  8
SN
 62
     9
100
AcDbLine
 10
3619.284442606979
 20
2192.139264509795
 30
0.0
 11
3513.579048368069
 21
2073.632683980295
 31
0.0
  0
LINE
  5
14B4B
330
1A
100
AcDbEntity
  8
SN
100
AcDbLine
 10
3592.023880214511
 20
2179.604842383253
 30
0.0
 11
3519.241610511036
 21
2098.008458699746
 31
0.0
  0
LINE
  5
14B4C
330
1A
100
AcDbEntity
  8
SN
 62
     9
100
AcDbLine
 10
3554.443868897881
 20
2095.569479860301
 30
-0.0000000000000107
 11
3629.214261334583
 21
2130.435486440662
 31
-0.0000000000000107
  0
LINE
  5
14B4D
330
1A
100
AcDbEntity
  8
SN
 62
     9
100
AcDbLine
 10
3600.232774331813
 20
2172.282680313767
 30
0.0
 11
3512.832785266488
 21
2074.29833507751
 31
0.0
  0
LINE
  5
14B4E
330
1A
100
AcDbEntity
  8
SN
100
AcDbLine
 10
3512.780267051207
 20
2072.737168258574
 30
0.0
 11
3520.423263438392
 21
2067.033549988177
 31
0.0
  0
ARC
  5
14B4F
330
1A
100
AcDbEntity
  8
SN
100
AcDbCircle
 10
3510.305433643615
 20
2086.487800058505
 30
0.0
 40
0.9999999999999998
100
AcDbArc
 50
138.2677048000154
 51
183.2677048000042
  0
LINE
  5
14B50
330
1A
100
AcDbEntity
  8
SN
100
AcDbLine
 10
3512.167134169311
 20
2073.552071975902
 30
0.0
 11
3510.154626523422
 21
2075.690106419896
 31
0.0
  0
ARC
  5
14B51
330
1A
100
AcDbEntity
  8
SN
100
AcDbCircle
 10
3510.882785732152
 20
2076.375514449274
 30
0.0
 40
0.9999999999999998
100
AcDbArc
 50
183.2677048000042
 51
223.2677047999783
  0
LINE
  5
14B52
330
1A
100
AcDbEntity
  8
SN
100
AcDbLine
 10
3512.832785266488
 20
2074.29833507751
 30
0.0
 11
3512.167134169311
 21
2073.552071975902
 31
0.0
  0
LINE
  5
14B53
330
1A
100
AcDbEntity
  8
MEASURE
 62
     7
100
AcDbLine
 10
3512.844778352985
 20
2074.285593942315
 30
0.0
 11
3512.832785266492
 21
2074.298335077516
 31
0.0
  0
LINE
  5
14B54
330
1A
100
AcDbEntity
  8
SN
100
AcDbLine
 10
3512.832785266485
 20
2074.298335077526
 30
0.0
 11
3513.579048368069
 21
2073.632683980295
 31
0.0
  0
LINE
  5
14B55
330
1A
100
AcDbEntity
  8
SN
100
AcDbLine
 10
3513.579048368069
 20
2073.632683980295
 30
0.0
 11
3512.780267051207
 21
2072.737168258574
 31
0.0
  0
LINE
  5
14B56
330
1A
100
AcDbEntity
  8
SN
100
AcDbLine
 10
3509.307059539195
 20
2086.430798763584
 30
0.0
 11
3509.884411627733
 21
2076.318513154354
 31
0.0
  0
LINE
  5
14B57
330
1A
100
AcDbEntity
  8
SN
 62
     9
100
AcDbLine
 10
3520.020767289174
 20
2067.333914436118
 30
0.0
 11
3570.708014460023
 21
2124.159513374583
 31
0.0
  0
ARC
  5
14B59
330
1A
100
AcDbEntity
  8
SN
100
AcDbCircle
 10
3550.701624530641
 20
2103.232588356043
 30
0.0
 40
32.99999999999999
100
AcDbArc
 50
138.2677048000154
 51
188.5586882469983
  0
ARC
  5
14B5A
330
1A
100
AcDbEntity
  8
SN
100
AcDbCircle
 10
3515.102522585948
 20
2097.874982479217
 30
0.0
 40
2.999999999999999
100
AcDbArc
 50
318.2677048000154
 51
8.558688246998304
  0
LINE
  5
14B5B
330
1A
100
AcDbEntity
  8
SN
100
AcDbLine
 10
3619.778986189646
 20
2080.245561752616
 30
0.0
 11
3617.3419943595
 21
2082.419307556532
 31
0.0
  0
LINE
  5
14B5C
330
1A
100
AcDbEntity
  8
SN
100
AcDbLine
 10
3569.915528256832
 20
2056.993849467244
 30
0.0
 11
3567.478536426708
 21
2059.16759527114
 31
0.0
  0
ARC
  5
14B5D
330
1A
100
AcDbEntity
  8
SN
100
AcDbCircle
 10
3557.12910799187
 20
2065.375356725397
 30
0.0
 40
9.999999999999998
100
AcDbArc
 50
237.1483639505008
 51
294.9999999898581
  0
LINE
  5
14B5F
330
1A
100
AcDbEntity
  8
SN
100
AcDbLine
 10
3594.149687040979
 20
2068.294423291922
 30
0.0
 11
3592.8818322562
 21
2071.013346653323
 31
0.0
  0
LINE
  5
14B60
330
1A
100
AcDbEntity
  8
SN
100
AcDbLine
 10
3569.915528256832
 20
2056.993849467244
 30
0.0
 11
3594.149687040947
 21
2068.294423291996
 31
0.0
  0
ARC
  5
14B61
330
1A
100
AcDbEntity
  8
SN
100
AcDbCircle
 10
3524.673750371232
 20
2068.043519795952
 30
0.0
 40
0.9999999999999998
100
AcDbArc
 50
273.2677047999531
 51
318.2677047999051
  0
ARC
  5
14B62
330
1A
100
AcDbEntity
  8
SN
100
AcDbCircle
 10
3521.021340417323
 20
2067.834988649133
 30
0.0
 40
0.9999999999999998
100
AcDbArc
 50
233.2677047999875
 51
273.2677047999531
  0
LINE
  5
14B63
330
1A
100
AcDbEntity
  8
SN
100
AcDbLine
 10
3524.730751666153
 20
2067.045145691533
 30
0.0
 11
3521.078341712244
 21
2066.836614544713
 31
0.0
  0
LINE
  5
14B64
330
1A
100
AcDbEntity
  8
SN
 62
     9
100
AcDbLine
 10
3525.420013472802
 20
2067.37786869873
 30
0.0
 11
3575.582119921513
 21
2123.614731066793
 31
0.0
  0
LINE
  5
14B65
330
1A
100
AcDbEntity
  8
SN
 62
     9
100
AcDbLine
 10
3567.756344137655
 20
2067.020784566288
 30
0.0
 11
3554.443868897881
 21
2095.569479860301
 31
-0.0000000000000002
  0
LINE
  5
14B66
330
1A
100
AcDbEntity
  8
SN
100
AcDbLine
 10
3529.138198343851
 20
2071.546335010367
 30
0.0
 11
3551.704452743343
 21
2056.974576081035
 31
0.0
  0
LINE
  5
14B67
330
1A
100
AcDbEntity
  8
SN
100
AcDbLine
 10
3619.284442606979
 20
2192.139264509795
 30
0.0
 11
3625.820901786567
 21
2185.195104622327
 31
0.0
  0
LINE
  5
14B68
330
1A
100
AcDbEntity
  8
SN
100
AcDbLine
 10
3607.390959286961
 20
2196.832912972406
 30
0.0
 11
3592.356705763123
 21
2179.97797393404
 31
0.0
  0
LINE
  5
14B69
330
1A
100
AcDbEntity
  8
SN
 62
     9
100
AcDbLine
 10
3618.538179505406
 20
2192.804915607017
 30
0.0
 11
3600.565599880403
 21
2172.655811864596
 31
0.0
  0
LINE
  5
14B6B
330
1A
100
AcDbEntity
  8
SN
 62
     9
100
AcDbLine
 10
3592.023880214511
 20
2179.604842383253
 30
0.0
 11
3600.979037433364
 21
2171.617029216589
 31
0.0
  0
LINE
  5
14B6C
330
1A
100
AcDbEntity
  8
SN
 62
     9
100
AcDbLine
 10
3592.356705763123
 20
2179.97797393404
 30
0.0
 11
3601.311862981976
 21
2171.990160767374
 31
0.0
  0
LINE
  5
14B6F
330
1A
100
AcDbEntity
  8
SN
 62
     9
100
AcDbLine
 10
3593.102968864692
 20
2179.312322836818
 30
0.0
 11
3592.77014331608
 21
2178.939191286031
 31
0.0
  0
LINE
  5
14B70
330
1A
100
AcDbEntity
  8
SN
 62
     9
100
AcDbLine
 10
3621.385007832065
 20
2180.973616753689
 30
0.0
 11
3625.476678197265
 21
2185.560798582235
 31
0.0
  0
LINE
  5
14B71
330
1A
100
AcDbEntity
  8
SN
100
AcDbLine
 10
3612.658448941402
 20
2197.1926893244
 30
0.0
 11
3618.538179505406
 21
2192.804915607017
 31
0.0
  0
ARC
  5
14B72
330
1A
100
AcDbEntity
  8
SN
100
AcDbCircle
 10
3612.060371962474
 20
2196.391250663444
 30
0.0
 40
0.9999999999999998
100
AcDbArc
 50
53.26770480009704
 51
93.26770479995316
  0
ARC
  5
14B73
330
1A
100
AcDbEntity
  8
SN
100
AcDbCircle
 10
3608.13722238853
 20
2196.167261875184
 30
0.0
 40
0.9999999999999998
100
AcDbArc
 50
93.26770479995316
 51
138.2677048000154
  0
LINE
  5
14B74
330
1A
100
AcDbEntity
  8
SN
100
AcDbLine
 10
3608.080221093609
 20
2197.165635979604
 30
0.0
 11
3612.003370667554
 21
2197.389624767865
 31
0.0
  0
LINE
  5
14B75
330
1A
100
AcDbEntity
  8
SN
100
AcDbLine
 10
3618.072223737352
 20
2192.282531435916
 30
0.0
 11
3618.818486838922
 21
2191.616880338694
 31
0.0
  0
ARC
  5
14B77
330
1A
100
AcDbEntity
  8
SN
100
AcDbCircle
 10
3566.532656594983
 20
2155.533433700816
 30
0.0
 40
2.999999999999999
100
AcDbArc
 50
288.8762631894704
 51
318.2677048000154
  0
LINE
  5
14B78
330
1A
100
AcDbEntity
  8
SN
100
AcDbLine
 10
3626.091116682252
 20
2184.566697887869
 30
0.0
 11
3626.299647829066
 21
2180.914287933982
 31
0.0
  0
ARC
  5
14B79
330
1A
100
AcDbEntity
  8
SN
100
AcDbCircle
 10
3625.301273724647
 20
2180.857286639064
 30
0.0
 40
0.9999999999999998
100
AcDbArc
 50
318.2677047999051
 51
3.26770479990026
  0
ARC
  5
14B7A
330
1A
100
AcDbEntity
  8
SN
100
AcDbCircle
 10
3625.092742577832
 20
2184.509696592952
 30
0.0
 40
0.9999999999999998
100
AcDbArc
 50
3.26770479990026
 51
43.26770479997837
  0
LINE
  5
14B7B
330
1A
100
AcDbEntity
  8
SN
 62
     9
100
AcDbLine
 10
3622.481007183138
 20
2176.193190283678
 30
0.0
 11
3625.633954257795
 21
2179.727967095185
 31
0.0
  0
LINE
  5
14B7C
330
1A
100
AcDbEntity
  8
SN
100
AcDbLine
 10
3625.65760744127
 20
2179.754484738039
 30
0.0
 11
3626.047536826217
 21
2180.191635541839
 31
0.0
  0
LINE
  5
14B7D
330
1A
100
AcDbEntity
  8
SN
100
AcDbLine
 10
3625.65760744127
 20
2179.754484738039
 30
0.0
 11
3648.652909099535
 21
2117.238984184564
 31
0.0
  0
LINE
  5
14B7E
330
1A
100
AcDbEntity
  8
SN
100
AcDbLine
 10
3636.998834144753
 20
2088.275308722666
 30
0.0
 11
3635.730979360004
 21
2090.994232084006
 31
0.0
  0
LINE
  5
14B7F
330
1A
100
AcDbEntity
  8
SN
 62
     9
100
AcDbLine
 10
3642.526736574357
 20
2101.88679114665
 30
0.0
 11
3629.214261334583
 21
2130.435486440662
 31
-0.0000000000000003
  0
ARC
  5
14B80
330
1A
100
AcDbEntity
  8
SN
100
AcDbCircle
 10
3629.882472310223
 20
2110.334586836606
 30
0.0
 40
20.0
100
AcDbArc
 50
294.9999999898581
 51
20.19521786404792
  0
LINE
  5
14B81
330
1A
100
AcDbEntity
  8
SN
100
AcDbLine
 10
3561.355290607668
 20
2056.31227885428
 30
0.0
 11
3639.163905238707
 21
2092.595031718452
 31
0.0
  0
LINE
  5
14B82
330
1A
100
AcDbEntity
  8
SN
100
AcDbLine
 10
3639.163905238707
 20
2092.595031718452
 30
0.0
 11
3639.840094457493
 21
2091.144939259194
 31
0.0
  0
LINE
  5
14B83
330
1A
100
AcDbEntity
  8
SN
100
AcDbLine
 10
3639.840094457493
 20
2091.144939259194
 30
0.0
 11
3636.407168575726
 21
2089.544139630648
 31
0.0
  0
LINE
  5
14B84
330
1A
100
AcDbEntity
  8
SN
100
AcDbLine
 10
3618.641723332985
 20
2081.259976463424
 30
0.0
 11
3593.558021475459
 21
2069.563254192384
 31
0.0
  0
LINE
  5
14B86
330
1A
100
AcDbEntity
  8
SN
100
AcDbLine
 10
3578.163905238707
 20
2049.150264570998
 30
0.0
 11
3639.163905238707
 21
2049.150264570998
 31
0.0
  0
LINE
  5
14B88
330
1A
100
AcDbEntity
  8
SN
100
AcDbLine
 10
3639.163905238707
 20
2049.150264570998
 30
0.0
 11
3639.163905238707
 21
2090.829627048112
 31
0.0
  0
LINE
  5
14B89
330
1A
100
AcDbEntity
  8
SN
100
AcDbLine
 10
3578.163905238711
 20
2049.150264570999
 30
0.0
 11
3578.163905238707
 21
2060.840130819464
 31
0.0
  0
LINE
  5
14B8C
330
1A
100
AcDbEntity
  8
MEASURE
 62
     7
100
AcDbLine
 10
3608.663905238711
 20
2048.029268740902
 30
0.0
 11
3608.663905238707
 21
2051.871260401092
 31
0.0
  0
LINE
  5
14B8D
330
1A
100
AcDbEntity
  8
SN
 62
     9
100
AcDbLine
 10
2847.581124897952
 20
2194.082346553731
 30
-0.0000000000000008
 11
2713.197640744842
 21
2194.082346553733
 31
0.0
  0
LINE
  5
14B8E
330
1A
100
AcDbEntity
  8
SN
 62
     9
100
AcDbLine
 10
2847.581124897952
 20
2140.127524310142
 30
0.0
 11
2713.19764074484
 21
2140.12752431014
 31
0.0
  0
ARC
  5
14B8F
330
1A
100
AcDbEntity
  8
SN
 62
     9
100
AcDbCircle
 10
2847.581124897952
 20
2145.127524310142
 30
0.0000000000001509
 40
5.0
100
AcDbArc
 50
270.0
 51
0.0
  0
LINE
  5
14B90
330
1A
100
AcDbEntity
  8
SN
 62
     9
100
AcDbLine
 10
2852.581124897952
 20
2189.082346553732
 30
-0.0000000000000015
 11
2852.581124897952
 21
2145.127524310142
 31
-0.0000000000000002
  0
ARC
  5
14B91
330
1A
100
AcDbEntity
  8
SN
 62
     9
100
AcDbCircle
 10
2847.581124897952
 20
2189.082346553732
 30
0.0000000000013365
 40
5.0
100
AcDbArc
 50
0.0
 51
90.0
  0
ELLIPSE
  5
14B92
330
1A
100
AcDbEntity
  8
SN
 62
     9
100
AcDbEllipse
 10
2713.197640744842
 20
2167.104935431936
 30
0.0
 11
0.0
 21
-26.97741112179574
 31
0.0
210
0.0
220
0.0
230
1.0
 40
0.6120369733514975
 41
3.141592653589793
 42
6.283185307179586
  0
LINE
  5
14B93
330
1A
100
AcDbEntity
  8
SN
100
AcDbLine
 10
2698.339311491062
 20
2113.144828362957
 30
-0.0000000000000107
 11
2698.357726955332
 21
2101.923195235966
 31
-0.0000000000000107
  0
ELLIPSE
  5
14B94
330
1A
100
AcDbEntity
  8
SN
100
AcDbEllipse
 10
2713.197640744842
 20
2164.750260441532
 30
0.0
 11
0.0
 21
-32.64099022191203
 31
0.0
210
0.0
220
0.0
230
1.0
 40
0.7541595913461593
 41
3.141592653589793
 42
5.193802581516269
  0
ARC
  5
14B95
330
1A
100
AcDbEntity
  8
SN
 62
     9
100
AcDbCircle
 10
2728.581124897952
 20
2103.835934946082
 30
-0.0000000000000107
 40
30.28386297018005
100
AcDbArc
 50
183.6212324860519
 51
270.0
  0
LINE
  5
14B96
330
1A
100
AcDbEntity
  8
SN
100
AcDbLine
 10
2953.822938304839
 20
2113.144828362983
 30
0.0
 11
2953.80452284057
 21
2101.923195235966
 31
0.0
  0
ELLIPSE
  5
14B97
330
1A
100
AcDbEntity
  8
SN
100
AcDbEllipse
 10
2938.96460905106
 20
2164.750260441532
 30
0.0000000000000107
 11
0.0
 21
-32.64099022191203
 31
0.0
210
0.0
220
0.0
230
-1.0
 40
0.7541595913461593
 41
3.141592653589793
 42
5.19380258151602
  0
ARC
  5
14B98
330
1A
100
AcDbEntity
  8
SN
 62
     9
100
AcDbCircle
 10
2923.58112489795
 20
2103.835934946082
 30
0.0
 40
30.28386297018005
100
AcDbArc
 50
270.0
 51
356.378767513948
  0
LINE
  5
14B99
330
1A
100
AcDbEntity
  8
SN
100
AcDbLine
 10
2923.58112489795
 20
2066.940880118123
 30
0.0
 11
2728.581124897952
 21
2066.940880118123
 31
0.0
  0
ARC
  5
14B9A
330
1A
100
AcDbEntity
  8
SN
100
AcDbCircle
 10
2728.581124897952
 20
2097.224743088304
 30
-0.0000000000000107
 40
30.28386297018005
100
AcDbArc
 50
183.6212324860519
 51
270.0
  0
ARC
  5
14B9B
330
1A
100
AcDbEntity
  8
SN
100
AcDbCircle
 10
2923.58112489795
 20
2097.224743088304
 30
0.0
 40
30.28386297018005
100
AcDbArc
 50
270.0
 51
356.378767513948
  0
ARC
  5
14B9C
330
1A
100
AcDbEntity
  8
SN
100
AcDbCircle
 10
2598.339446146029
 20
2112.980721772919
 30
0.0
 40
100.0
100
AcDbArc
 50
0.0940261921766568
 51
21.50343278432058
  0
ARC
  5
14B9D
330
1A
100
AcDbEntity
  8
SN
100
AcDbCircle
 10
3053.822803649881
 20
2112.980721772947
 30
0.0000000000000107
 40
100.0
100
AcDbArc
 50
158.4965672156794
 51
179.9059738078233
  0
LINE
  5
14B9E
330
1A
100
AcDbEntity
  8
SN
 62
     9
100
AcDbLine
 10
2948.965384251437
 20
2179.97797393404
 30
0.0
 11
2857.581124897952
 21
2179.97797393404
 31
0.0
  0
LINE
  5
14B9F
330
1A
100
AcDbEntity
  8
SN
 62
     9
100
AcDbLine
 10
2960.884275905375
 20
2179.604842383253
 30
0.0
 11
2857.58112489795
 21
2179.604842383253
 31
0.0
  0
LINE
  5
14BA0
330
1A
100
AcDbEntity
  8
SN
 62
     9
100
AcDbLine
 10
2857.58112489795
 20
2194.156972863889
 30
-0.0000000000000107
 11
2857.581124897952
 21
2179.97797393404
 31
-0.0000000000000107
  0
LINE
  5
14BA1
330
1A
100
AcDbEntity
  8
SN
 62
     9
100
AcDbLine
 10
2940.131857425851
 20
2194.156972863889
 30
-0.0000000000000095
 11
2857.58112489795
 21
2194.156972863889
 31
-0.0000000000000107
  0
ELLIPSE
  5
14BA2
330
1A
100
AcDbEntity
  8
SN
 62
     9
100
AcDbEllipse
 10
2940.131857425851
 20
2179.977973398964
 30
-0.0000000000000107
 11
0.0
 21
-14.17899946492434
 31
0.0
210
0.0
220
0.0
230
1.0
 40
0.6230007164777582
 41
7.853981671711682
 42
9.424777960769379
  0
LINE
  5
14BA3
330
1A
100
AcDbEntity
  8
SN
 62
     9
100
AcDbLine
 10
2857.58112489795
 20
2179.604842383253
 30
0.0
 11
2857.58112489795
 21
2073.552071975901
 31
0.0
  0
LINE
  5
14BA4
330
1A
100
AcDbEntity
  8
SN
 62
     9
100
AcDbLine
 10
2844.58112489795
 20
2138.560371796838
 30
0.0
 11
2712.331124897952
 21
2138.560371796837
 31
0.0
  0
LINE
  5
14BA5
330
1A
100
AcDbEntity
  8
SN
 62
     9
100
AcDbLine
 10
2844.581124897948
 20
2127.366425273272
 30
0.0
 11
2712.331124897952
 21
2127.366425273273
 31
0.0
  0
ARC
  5
14BA6
330
1A
100
AcDbEntity
  8
SN
 62
     9
100
AcDbCircle
 10
2844.581124897948
 20
2129.366425273273
 30
0.000000000000166
 40
2.0
100
AcDbArc
 50
270.0
 51
0.0
  0
ARC
  5
14BA7
330
1A
100
AcDbEntity
  8
SN
 62
     9
100
AcDbCircle
 10
2712.331124897952
 20
2129.366425273273
 30
0.000000000000166
 40
2.0
100
AcDbArc
 50
180.0
 51
270.0
  0
LINE
  5
14BA8
330
1A
100
AcDbEntity
  8
SN
 62
     9
100
AcDbLine
 10
2710.331124897952
 20
2136.560371796837
 30
-0.0000000000000003
 11
2710.331124897952
 21
2129.366425273274
 31
-0.0000000000000001
  0
ARC
  5
14BA9
330
1A
100
AcDbEntity
  8
SN
 62
     9
100
AcDbCircle
 10
2712.331124897952
 20
2136.560371796837
 30
0.0000000000001464
 40
2.0
100
AcDbArc
 50
90.0
 51
180.0
  0
LINE
  5
14BAA
330
1A
100
AcDbEntity
  8
SN
 62
     9
100
AcDbLine
 10
2846.58112489795
 20
2136.560371796838
 30
-0.0000000000000003
 11
2846.581124897948
 21
2129.366425273273
 31
-0.0000000000000001
  0
ARC
  5
14BAB
330
1A
100
AcDbEntity
  8
SN
 62
     9
100
AcDbCircle
 10
2844.58112489795
 20
2136.560371796838
 30
0.0000000000001662
 40
2.0
100
AcDbArc
 50
0.0
 51
90.0
  0
LINE
  5
14BAC
330
1A
100
AcDbEntity
  8
SN
 62
     9
100
AcDbLine
 10
2846.581124897948
 20
2124.060464845524
 30
-0.0000000000000107
 11
2846.58112489795
 21
2088.374178216181
 31
-0.0000000000000107
  0
LINE
  5
14BAD
330
1A
100
AcDbEntity
  8
SN
 62
     9
100
AcDbLine
 10
2710.331124897952
 20
2124.060464845522
 30
-0.0000000000000002
 11
2710.331124897952
 21
2103.374178216181
 31
-0.0000000000000002
  0
ARC
  5
14BAE
330
1A
100
AcDbEntity
  8
SN
 62
     9
100
AcDbCircle
 10
2725.331124897952
 20
2103.374178216181
 30
-0.0000000000000098
 40
15.0
100
AcDbArc
 50
180.0
 51
270.0
  0
ARC
  5
14BAF
330
1A
100
AcDbEntity
  8
SN
 62
     9
100
AcDbCircle
 10
2712.331124897952
 20
2124.060464845522
 30
-0.0000000000000017
 40
2.0
100
AcDbArc
 50
90.0
 51
180.0
  0
LINE
  5
14BB0
330
1A
100
AcDbEntity
  8
SN
 62
     9
100
AcDbLine
 10
2844.581124897948
 20
2126.060464845524
 30
-0.0000000000000002
 11
2712.331124897952
 21
2126.060464845522
 31
-0.0000000000000002
  0
ARC
  5
14BB1
330
1A
100
AcDbEntity
  8
SN
 62
     9
100
AcDbCircle
 10
2844.581124897948
 20
2124.060464845524
 30
-0.0000000000000122
 40
2.0
100
AcDbArc
 50
0.0
 51
90.0
  0
LINE
  5
14BB2
330
1A
100
AcDbEntity
  8
SN
 62
     9
100
AcDbLine
 10
2846.58112489795
 20
2088.374178216181
 30
0.0
 11
2725.331124897952
 21
2088.374178216181
 31
0.0
  0
LINE
  5
14BB3
330
1A
100
AcDbEntity
  8
SN
 62
     9
100
AcDbLine
 10
2725.58112489795
 20
2121.023188909915
 30
0.0000000000000107
 11
2725.581124897948
 21
2109.829242386347
 31
0.0000000000000107
  0
LINE
  5
14BB4
330
1A
100
AcDbEntity
  8
SN
 62
     9
100
AcDbLine
 10
2725.581124897948
 20
2103.859137573777
 30
0.0000000000000107
 11
2725.581124897952
 21
2092.665191050214
 31
0.0000000000000107
  0
LINE
  5
14BB5
330
1A
100
AcDbEntity
  8
SN
 62
     9
100
AcDbLine
 10
2739.581124897952
 20
2121.023188909916
 30
0.0000000000000107
 11
2739.581124897952
 21
2109.829242386347
 31
0.0000000000000107
  0
LINE
  5
14BB6
330
1A
100
AcDbEntity
  8
SN
 62
     9
100
AcDbLine
 10
2739.581124897952
 20
2103.859137573777
 30
0.0000000000000107
 11
2739.581124897952
 21
2092.665191050214
 31
0.0000000000000107
  0
LINE
  5
14BB7
330
1A
100
AcDbEntity
  8
SN
 62
     9
100
AcDbLine
 10
2741.581124897952
 20
2121.023188909915
 30
0.0000000000000107
 11
2741.581124897952
 21
2109.829242386347
 31
0.0000000000000107
  0
LINE
  5
14BB8
330
1A
100
AcDbEntity
  8
SN
 62
     9
100
AcDbLine
 10
2741.581124897952
 20
2103.859137573777
 30
0.0000000000000107
 11
2741.581124897952
 21
2092.665191050214
 31
0.0000000000000107
  0
LINE
  5
14BB9
330
1A
100
AcDbEntity
  8
SN
 62
     9
100
AcDbLine
 10
2755.581124897952
 20
2121.023188909916
 30
0.0000000000000107
 11
2755.581124897952
 21
2109.829242386347
 31
0.0000000000000107
  0
LINE
  5
14BBA
330
1A
100
AcDbEntity
  8
SN
 62
     9
100
AcDbLine
 10
2755.581124897952
 20
2103.859137573777
 30
0.0000000000000107
 11
2755.581124897952
 21
2092.665191050214
 31
0.0000000000000107
  0
LINE
  5
14BBB
330
1A
100
AcDbEntity
  8
SN
 62
     9
100
AcDbLine
 10
2757.581124897952
 20
2121.023188909915
 30
0.0000000000000107
 11
2757.581124897952
 21
2109.829242386347
 31
0.0000000000000107
  0
LINE
  5
14BBC
330
1A
100
AcDbEntity
  8
SN
 62
     9
100
AcDbLine
 10
2757.581124897952
 20
2103.859137573777
 30
0.0000000000000107
 11
2757.581124897952
 21
2092.665191050214
 31
0.0000000000000107
  0
LINE
  5
14BBD
330
1A
100
AcDbEntity
  8
SN
 62
     9
100
AcDbLine
 10
2771.581124897952
 20
2121.023188909916
 30
0.0000000000000107
 11
2771.581124897952
 21
2109.829242386347
 31
0.0000000000000107
  0
LINE
  5
14BBE
330
1A
100
AcDbEntity
  8
SN
 62
     9
100
AcDbLine
 10
2771.581124897952
 20
2103.859137573777
 30
0.0000000000000107
 11
2771.581124897952
 21
2092.665191050214
 31
0.0000000000000107
  0
LINE
  5
14BBF
330
1A
100
AcDbEntity
  8
SN
 62
     9
100
AcDbLine
 10
2773.581124897952
 20
2121.023188909915
 30
0.0000000000000107
 11
2773.581124897952
 21
2109.829242386347
 31
0.0000000000000107
  0
LINE
  5
14BC0
330
1A
100
AcDbEntity
  8
SN
 62
     9
100
AcDbLine
 10
2773.581124897952
 20
2103.859137573777
 30
0.0000000000000107
 11
2773.581124897952
 21
2092.665191050214
 31
0.0000000000000107
  0
LINE
  5
14BC1
330
1A
100
AcDbEntity
  8
SN
 62
     9
100
AcDbLine
 10
2787.581124897952
 20
2121.023188909916
 30
0.0000000000000107
 11
2787.581124897952
 21
2109.829242386347
 31
0.0000000000000107
  0
LINE
  5
14BC2
330
1A
100
AcDbEntity
  8
SN
 62
     9
100
AcDbLine
 10
2787.581124897952
 20
2103.859137573777
 30
0.0000000000000107
 11
2787.581124897952
 21
2092.665191050214
 31
0.0000000000000107
  0
LINE
  5
14BC3
330
1A
100
AcDbEntity
  8
SN
 62
     9
100
AcDbLine
 10
2789.581124897952
 20
2121.023188909915
 30
0.0000000000000107
 11
2789.581124897952
 21
2109.829242386347
 31
0.0000000000000107
  0
LINE
  5
14BC4
330
1A
100
AcDbEntity
  8
SN
 62
     9
100
AcDbLine
 10
2789.581124897953
 20
2103.859137573777
 30
0.0000000000000107
 11
2789.581124897952
 21
2092.665191050214
 31
0.0000000000000107
  0
LINE
  5
14BC5
330
1A
100
AcDbEntity
  8
SN
 62
     9
100
AcDbLine
 10
2803.581124897952
 20
2121.023188909916
 30
0.0000000000000107
 11
2803.581124897952
 21
2109.829242386347
 31
0.0000000000000107
  0
LINE
  5
14BC6
330
1A
100
AcDbEntity
  8
SN
 62
     9
100
AcDbLine
 10
2803.581124897952
 20
2103.859137573777
 30
0.0000000000000107
 11
2803.581124897952
 21
2092.665191050214
 31
0.0000000000000107
  0
LINE
  5
14BC7
330
1A
100
AcDbEntity
  8
SN
 62
     9
100
AcDbLine
 10
2805.581124897951
 20
2121.023188909915
 30
0.0000000000000107
 11
2805.581124897951
 21
2109.829242386347
 31
0.0000000000000107
  0
LINE
  5
14BC8
330
1A
100
AcDbEntity
  8
SN
 62
     9
100
AcDbLine
 10
2805.581124897951
 20
2103.859137573777
 30
0.0000000000000107
 11
2805.581124897951
 21
2092.665191050214
 31
0.0000000000000107
  0
LINE
  5
14BC9
330
1A
100
AcDbEntity
  8
SN
 62
     9
100
AcDbLine
 10
2819.581124897954
 20
2121.023188909916
 30
0.0000000000000107
 11
2819.581124897952
 21
2109.829242386347
 31
0.0000000000000107
  0
LINE
  5
14BCA
330
1A
100
AcDbEntity
  8
SN
 62
     9
100
AcDbLine
 10
2819.581124897952
 20
2103.859137573777
 30
0.0000000000000107
 11
2819.581124897952
 21
2092.665191050214
 31
0.0000000000000107
  0
LINE
  5
14BCB
330
1A
100
AcDbEntity
  8
SN
 62
     9
100
AcDbLine
 10
2821.581124897952
 20
2121.023188909915
 30
-0.0000000000000107
 11
2821.581124897952
 21
2109.829242386347
 31
-0.0000000000000107
  0
LINE
  5
14BCC
330
1A
100
AcDbEntity
  8
SN
 62
     9
100
AcDbLine
 10
2821.581124897952
 20
2103.859137573777
 30
-0.0000000000000107
 11
2821.581124897952
 21
2092.665191050214
 31
-0.0000000000000107
  0
LINE
  5
14BCD
330
1A
100
AcDbEntity
  8
SN
 62
     9
100
AcDbLine
 10
2835.581124897952
 20
2121.023188909916
 30
-0.0000000000000107
 11
2835.581124897952
 21
2109.829242386347
 31
-0.0000000000000107
  0
LINE
  5
14BCE
330
1A
100
AcDbEntity
  8
SN
 62
     9
100
AcDbLine
 10
2835.581124897952
 20
2103.859137573777
 30
-0.0000000000000107
 11
2835.581124897952
 21
2092.665191050214
 31
-0.0000000000000107
  0
LINE
  5
14BCF
330
1A
100
AcDbEntity
  8
SN
 62
     9
100
AcDbLine
 10
2835.581124897952
 20
2121.023188909915
 30
0.0000000000000107
 11
2821.581124897952
 21
2121.023188909915
 31
0.0000000000000107
  0
LINE
  5
14BD0
330
1A
100
AcDbEntity
  8
SN
 62
     9
100
AcDbLine
 10
2819.581124897952
 20
2121.023188909914
 30
0.0000000000000107
 11
2805.581124897951
 21
2121.023188909915
 31
0.0000000000000107
  0
LINE
  5
14BD1
330
1A
100
AcDbEntity
  8
SN
 62
     9
100
AcDbLine
 10
2803.58112489795
 20
2121.023188909915
 30
0.0000000000000107
 11
2789.581124897952
 21
2121.023188909916
 31
0.0000000000000107
  0
LINE
  5
14BD2
330
1A
100
AcDbEntity
  8
SN
 62
     9
100
AcDbLine
 10
2787.581124897952
 20
2121.023188909916
 30
0.0000000000000107
 11
2773.58112489795
 21
2121.023188909916
 31
0.0000000000000107
  0
LINE
  5
14BD3
330
1A
100
AcDbEntity
  8
SN
 62
     9
100
AcDbLine
 10
2771.581124897952
 20
2121.023188909916
 30
0.0000000000000107
 11
2757.58112489795
 21
2121.023188909916
 31
0.0000000000000107
  0
LINE
  5
14BD4
330
1A
100
AcDbEntity
  8
SN
 62
     9
100
AcDbLine
 10
2755.581124897952
 20
2121.023188909916
 30
0.0000000000000107
 11
2741.581124897952
 21
2121.023188909916
 31
0.0000000000000107
  0
LINE
  5
14BD5
330
1A
100
AcDbEntity
  8
SN
 62
     9
100
AcDbLine
 10
2739.581124897952
 20
2121.023188909915
 30
0.0000000000000107
 11
2725.581124897952
 21
2121.023188909915
 31
0.0000000000000107
  0
LINE
  5
14BD6
330
1A
100
AcDbEntity
  8
SN
 62
     9
100
AcDbLine
 10
2835.581124897952
 20
2109.829242386347
 30
0.0000000000000107
 11
2821.58112489795
 21
2109.829242386347
 31
0.0000000000000107
  0
LINE
  5
14BD7
330
1A
100
AcDbEntity
  8
SN
 62
     9
100
AcDbLine
 10
2819.581124897952
 20
2109.829242386347
 30
0.0000000000000107
 11
2805.581124897951
 21
2109.829242386347
 31
0.0000000000000107
  0
LINE
  5
14BD8
330
1A
100
AcDbEntity
  8
SN
 62
     9
100
AcDbLine
 10
2803.58112489795
 20
2109.829242386347
 30
0.0000000000000107
 11
2789.581124897952
 21
2109.829242386347
 31
0.0000000000000107
  0
LINE
  5
14BD9
330
1A
100
AcDbEntity
  8
SN
 62
     9
100
AcDbLine
 10
2787.581124897952
 20
2109.829242386347
 30
0.0000000000000107
 11
2773.58112489795
 21
2109.829242386347
 31
0.0000000000000107
  0
LINE
  5
14BDA
330
1A
100
AcDbEntity
  8
SN
 62
     9
100
AcDbLine
 10
2771.58112489795
 20
2109.829242386346
 30
0.0000000000000107
 11
2757.581124897952
 21
2109.829242386346
 31
0.0000000000000107
  0
LINE
  5
14BDB
330
1A
100
AcDbEntity
  8
SN
 62
     9
100
AcDbLine
 10
2755.581124897952
 20
2109.829242386347
 30
0.0000000000000107
 11
2741.581124897952
 21
2109.829242386346
 31
0.0000000000000107
  0
LINE
  5
14BDC
330
1A
100
AcDbEntity
  8
SN
 62
     9
100
AcDbLine
 10
2739.581124897952
 20
2109.829242386346
 30
0.0000000000000107
 11
2725.581124897952
 21
2109.829242386346
 31
0.0000000000000107
  0
LINE
  5
14BDD
330
1A
100
AcDbEntity
  8
SN
 62
     9
100
AcDbLine
 10
2835.581124897952
 20
2103.859137573776
 30
0.0
 11
2821.58112489795
 21
2103.859137573775
 31
0.0
  0
LINE
  5
14BDE
330
1A
100
AcDbEntity
  8
SN
 62
     9
100
AcDbLine
 10
2819.581124897952
 20
2103.859137573775
 30
0.0
 11
2805.581124897951
 21
2103.859137573775
 31
0.0
  0
LINE
  5
14BDF
330
1A
100
AcDbEntity
  8
SN
 62
     9
100
AcDbLine
 10
2803.58112489795
 20
2103.859137573775
 30
0.0
 11
2789.581124897952
 21
2103.859137573775
 31
0.0
  0
LINE
  5
14BE0
330
1A
100
AcDbEntity
  8
SN
 62
     9
100
AcDbLine
 10
2787.581124897952
 20
2103.859137573776
 30
0.0
 11
2773.58112489795
 21
2103.859137573776
 31
0.0
  0
LINE
  5
14BE1
330
1A
100
AcDbEntity
  8
SN
 62
     9
100
AcDbLine
 10
2771.58112489795
 20
2103.859137573777
 30
0.0
 11
2757.581124897952
 21
2103.859137573777
 31
0.0
  0
LINE
  5
14BE2
330
1A
100
AcDbEntity
  8
SN
 62
     9
100
AcDbLine
 10
2755.581124897952
 20
2103.859137573776
 30
0.0
 11
2741.581124897952
 21
2103.859137573776
 31
0.0
  0
LINE
  5
14BE3
330
1A
100
AcDbEntity
  8
SN
 62
     9
100
AcDbLine
 10
2739.581124897952
 20
2103.859137573776
 30
0.0
 11
2725.581124897952
 21
2103.859137573776
 31
0.0
  0
LINE
  5
14BE4
330
1A
100
AcDbEntity
  8
SN
 62
     9
100
AcDbLine
 10
2835.581124897952
 20
2092.665191050214
 30
0.0
 11
2821.581124897952
 21
2092.665191050214
 31
0.0
  0
LINE
  5
14BE5
330
1A
100
AcDbEntity
  8
SN
 62
     9
100
AcDbLine
 10
2819.581124897952
 20
2092.665191050214
 30
0.0
 11
2805.581124897951
 21
2092.665191050214
 31
0.0
  0
LINE
  5
14BE6
330
1A
100
AcDbEntity
  8
SN
 62
     9
100
AcDbLine
 10
2803.58112489795
 20
2092.665191050212
 30
0.0
 11
2789.581124897952
 21
2092.665191050214
 31
0.0
  0
LINE
  5
14BE7
330
1A
100
AcDbEntity
  8
SN
 62
     9
100
AcDbLine
 10
2787.581124897952
 20
2092.665191050214
 30
0.0
 11
2773.58112489795
 21
2092.665191050214
 31
0.0
  0
LINE
  5
14BE8
330
1A
100
AcDbEntity
  8
SN
 62
     9
100
AcDbLine
 10
2771.581124897952
 20
2092.665191050214
 30
0.0
 11
2757.581124897952
 21
2092.665191050214
 31
0.0
  0
LINE
  5
14BE9
330
1A
100
AcDbEntity
  8
SN
 62
     9
100
AcDbLine
 10
2755.581124897952
 20
2092.665191050214
 30
0.0
 11
2741.581124897952
 21
2092.665191050214
 31
0.0
  0
LINE
  5
14BEA
330
1A
100
AcDbEntity
  8
SN
 62
     9
100
AcDbLine
 10
2739.581124897952
 20
2092.665191050212
 30
0.0
 11
2725.581124897952
 21
2092.665191050212
 31
0.0
  0
LINE
  5
14BEB
330
1A
100
AcDbEntity
  8
SN
100
AcDbLine
 10
2786.081124897952
 20
2066.940880118124
 30
0.0
 11
2786.08112489795
 21
2050.650264570998
 31
0.0
  0
ARC
  5
14BEC
330
1A
100
AcDbEntity
  8
SN
100
AcDbCircle
 10
2787.58112489795
 20
2050.650264570998
 30
0.0
 40
1.5
100
AcDbArc
 50
180.0
 51
270.0
  0
LINE
  5
14BED
330
1A
100
AcDbEntity
  8
SN
100
AcDbLine
 10
2787.681124897952
 20
2066.940880118124
 30
0.0
 11
2787.681124897954
 21
2050.750264570999
 31
0.0
  0
LINE
  5
14BEE
330
1A
100
AcDbEntity
  8
SN
100
AcDbLine
 10
2866.081124897947
 20
2066.940880118123
 30
0.0
 11
2866.081124897948
 21
2050.650264570998
 31
0.0
  0
LINE
  5
14BEF
330
1A
100
AcDbEntity
  8
SN
100
AcDbLine
 10
2864.481124897947
 20
2066.940880118123
 30
0.0
 11
2864.481124897949
 21
2050.750264570998
 31
0.0
  0
LINE
  5
14BF0
330
1A
100
AcDbEntity
  8
SN
100
AcDbLine
 10
2864.581124897948
 20
2049.150264570998
 30
0.0
 11
2787.58112489795
 21
2049.150264570998
 31
0.0
  0
ARC
  5
14BF1
330
1A
100
AcDbEntity
  8
SN
100
AcDbCircle
 10
2864.581124897948
 20
2050.650264570998
 30
0.0
 40
1.5
100
AcDbArc
 50
270.0
 51
0.0
  0
LINE
  5
14BF2
330
1A
100
AcDbEntity
  8
SN
100
AcDbLine
 10
2864.481124897949
 20
2050.750264570999
 30
0.0
 11
2787.681124897954
 21
2050.750264570999
 31
0.0
  0
LINE
  5
14BF3
330
1A
100
AcDbEntity
  8
SN
 62
     9
100
AcDbLine
 10
2930.549202573871
 20
2086.430798763584
 30
0.0
 11
2721.613047222032
 21
2086.430798763584
 31
0.0
  0
ELLIPSE
  5
14BF4
330
1A
100
AcDbEntity
  8
SN
 62
     9
100
AcDbEllipse
 10
2717.197640744842
 20
2164.750260441531
 30
-0.0000000000000107
 11
0.0
 21
-32.64099022191203
 31
0.0
210
0.0
220
0.0
230
1.0
 40
0.7541595913461593
 41
3.141592653589793
 42
5.193802581516269
  0
ARC
  5
14BF5
330
1A
100
AcDbEntity
  8
SN
 62
     9
100
AcDbCircle
 10
2602.33944614603
 20
2112.980721772919
 30
-0.0000000000000107
 40
100.0
100
AcDbArc
 50
0.0940261921766568
 51
21.50343278432058
  0
LINE
  5
14BF6
330
1A
100
AcDbEntity
  8
SN
 62
     9
100
AcDbLine
 10
2702.339311491063
 20
2113.144828362957
 30
-0.0000000000000213
 11
2702.357726955332
 21
2101.923195235965
 31
-0.0000000000000213
  0
ELLIPSE
  5
14BF7
330
1A
100
AcDbEntity
  8
SN
 62
     9
100
AcDbEllipse
 10
2722.357770646597
 20
2101.869947905662
 30
-0.0000000000000213
 11
19.99990244694052
 21
0.0328212021117205
 31
0.0
210
0.0
220
0.0
230
1.0
 40
0.7724708379948459
 41
3.13602164146353
 42
4.746652716207075
  0
ELLIPSE
  5
14BF8
330
1A
100
AcDbEntity
  8
SN
 62
     9
100
AcDbEllipse
 10
2934.96460905106
 20
2164.750260441531
 30
-0.0000000000000107
 11
0.0
 21
-32.64099022191203
 31
0.0
210
0.0
220
0.0
230
-1.0
 40
0.7541595913461593
 41
3.141592653589793
 42
5.193802581516269
  0
ARC
  5
14BF9
330
1A
100
AcDbEntity
  8
SN
 62
     9
100
AcDbCircle
 10
3049.822803649873
 20
2112.980721772919
 30
-0.0000000000000107
 40
100.0
100
AcDbArc
 50
158.4965672156794
 51
179.9059738078233
  0
LINE
  5
14BFA
330
1A
100
AcDbEntity
  8
SN
 62
     9
100
AcDbLine
 10
2949.822938304838
 20
2113.144828362957
 30
-0.0000000000000213
 11
2949.80452284057
 21
2101.923195235965
 31
-0.0000000000000213
  0
ELLIPSE
  5
14BFB
330
1A
100
AcDbEntity
  8
SN
 62
     9
100
AcDbEllipse
 10
2929.804479149305
 20
2101.869947905662
 30
-0.0000000000000213
 11
-19.99990244694052
 21
0.0328212021117205
 31
0.0
210
0.0
220
0.0
230
-1.0
 40
0.7724708379948459
 41
3.13602164146353
 42
4.746652716207075
  0
ARC
  5
14BFC
330
1A
100
AcDbEntity
  8
SN
100
AcDbCircle
 10
3605.403487327247
 20
2072.334082142739
 30
0.0
 40
1.3
100
AcDbArc
 50
311.1832992197776
 51
21.99999999999211
  0
ARC
  5
14BFD
330
1A
100
AcDbEntity
  8
SN
100
AcDbCircle
 10
3601.513476330212
 20
2070.520140224514
 30
0.0
 40
1.3
100
AcDbArc
 50
207.9999999999696
 51
278.8167007802262
  0
ARC
  5
14BFE
330
1A
100
AcDbEntity
  8
SN
100
AcDbCircle
 10
3600.333267437658
 20
2078.129155073357
 30
0.0
 40
8.999999999999831
100
AcDbArc
 50
278.8167007802262
 51
311.1832992197776
  0
LINE
  5
14BFF
330
1A
100
AcDbEntity
  8
SN
100
AcDbLine
 10
3606.210101567427
 20
2073.807949152416
 30
0.0
 11
3606.608826338187
 21
2072.821070714179
 31
0.0
  0
LINE
  5
14C00
330
1A
100
AcDbEntity
  8
SN
 62
     9
100
AcDbLine
 10
3599.86594705817
 20
2070.849621320231
 30
0.0
 11
3606.210101567427
 21
2073.807949152416
 31
0.0
  0
LINE
  5
14C01
330
1A
100
AcDbEntity
  8
SN
100
AcDbLine
 10
3600.365644459497
 20
2069.909827192891
 30
0.0
 11
3599.86594705817
 21
2070.849621320231
 31
0.0
  0
LINE
  5
14C02
330
1A
100
AcDbEntity
  8
SN
100
AcDbLine
 10
3599.86594705817
 20
2070.849621320231
 30
0.0
 11
3599.570114274953
 21
2071.484036771156
 31
0.0
  0
LINE
  5
14C03
330
1A
100
AcDbEntity
  8
SN
 62
     9
100
AcDbLine
 10
3599.570114274953
 20
2071.484036771156
 30
0.0
 11
3605.914268784211
 21
2074.442364603341
 31
0.0
  0
LINE
  5
14C04
330
1A
100
AcDbEntity
  8
SN
100
AcDbLine
 10
3606.210101567427
 20
2073.807949152416
 30
0.0
 11
3605.914268784211
 21
2074.442364603341
 31
0.0
  0
LINE
  5
14C05
330
1A
100
AcDbEntity
  8
SN
100
AcDbLine
 10
3599.570114274953
 20
2071.484036771156
 30
0.0
 11
3599.23201966556
 21
2072.209083000785
 31
0.0
  0
LINE
  5
14C06
330
1A
100
AcDbEntity
  8
SN
100
AcDbLine
 10
3599.23201966556
 20
2072.209083000785
 30
0.0
 11
3605.576174174818
 21
2075.167410832971
 31
0.0
  0
LINE
  5
14C07
330
1A
100
AcDbEntity
  8
SN
100
AcDbLine
 10
3605.914268784211
 20
2074.442364603341
 30
0.0
 11
3605.576174174818
 21
2075.167410832971
 31
0.0
  0
LINE
  5
14C08
330
1A
100
AcDbEntity
  8
SN
100
AcDbLine
 10
2856.081124897948
 20
1939.650264570998
 30
0.0
 11
2856.081124897948
 21
1918.650264570998
 31
0.0
  0
LINE
  5
14C09
330
1A
100
AcDbEntity
  8
SN
100
AcDbLine
 10
2856.081124897948
 20
1933.150264570998
 30
0.0
 11
2846.081124897948
 21
1933.150264570998
 31
0.0
  0
LINE
  5
14C0A
330
1A
100
AcDbEntity
  8
SN
100
AcDbLine
 10
2856.081124897948
 20
1925.150264570998
 30
0.0
 11
2846.081124897948
 21
1925.150264570998
 31
0.0
  0
LINE
  5
14C0B
330
1A
100
AcDbEntity
  8
SN
 62
     9
100
AcDbLine
 10
2856.081124897948
 20
1932.338264570998
 30
0.0
 11
2846.081124897948
 21
1932.338264570998
 31
0.0
  0
LINE
  5
14C0C
330
1A
100
AcDbEntity
  8
SN
 62
     9
100
AcDbLine
 10
2856.081124897948
 20
1925.962264570998
 30
0.0
 11
2846.081124897948
 21
1925.962264570998
 31
0.0
  0
LINE
  5
14C0D
330
1A
100
AcDbEntity
  8
SN
100
AcDbLine
 10
2867.081124897948
 20
1946.248485637933
 30
0.0
 11
2867.08112489795
 21
1910.64927138881
 31
0.0
  0
LINE
  5
14C0E
330
1A
100
AcDbEntity
  8
SN
100
AcDbLine
 10
2867.081124897948
 20
1939.650264570998
 30
0.0
 11
2856.08112489795
 21
1939.650264570998
 31
0.0
  0
LINE
  5
14C0F
330
1A
100
AcDbEntity
  8
SN
100
AcDbLine
 10
2867.081124897948
 20
1918.650264570998
 30
0.0
 11
2856.081124897948
 21
1918.650264570998
 31
0.0
  0
LINE
  5
14C10
330
1A
100
AcDbEntity
  8
SN
100
AcDbLine
 10
2878.08112489795
 20
1910.64927138881
 30
0.0
 11
2867.08112489795
 21
1910.64927138881
 31
0.0
  0
LINE
  5
14C11
330
1A
100
AcDbEntity
  8
SN
100
AcDbLine
 10
2867.081124897948
 20
1946.248485637933
 30
0.0
 11
2878.081124897948
 21
1946.248485637933
 31
0.0
  0
LINE
  5
14C12
330
1A
100
AcDbEntity
  8
SN
100
AcDbLine
 10
2878.081124897948
 20
1946.248485637933
 30
0.0
 11
2878.08112489795
 21
1910.64927138881
 31
0.0
  0
LINE
  5
14C13
330
1A
100
AcDbEntity
  8
SN
 62
     9
100
AcDbLine
 10
2876.234124159737
 20
1926.678288188303
 30
0.0
 11
2868.928125636161
 21
1926.678288188303
 31
0.0
  0
LINE
  5
14C14
330
1A
100
AcDbEntity
  8
SN
 62
     9
100
AcDbLine
 10
2876.234124159737
 20
1937.117887111656
 30
0.0
 11
2868.928125636161
 21
1937.117887111656
 31
0.0
  0
LINE
  5
14C15
330
1A
100
AcDbEntity
  8
SN
 62
     9
100
AcDbLine
 10
2876.234124159737
 20
1917.754838643972
 30
0.0
 11
2868.928125636161
 21
1917.754838643972
 31
0.0
  0
ARC
  5
14C16
330
1A
100
AcDbEntity
  8
SN
100
AcDbCircle
 10
3608.663905238707
 20
1941.248485637933
 30
0.0
 40
5.0
100
AcDbArc
 50
54.00000000005336
 51
125.9999999999466
  0
ARC
  5
14C17
330
1A
100
AcDbEntity
  8
SN
100
AcDbCircle
 10
3622.122442967965
 20
1931.470285581027
 30
0.0
 40
5.0
100
AcDbArc
 50
341.9999999999677
 51
53.99999991129163
  0
ARC
  5
14C18
330
1A
100
AcDbEntity
  8
SN
100
AcDbCircle
 10
3616.981738972736
 20
1915.648825525432
 30
0.0
 40
5.0
100
AcDbArc
 50
270.0
 51
341.9999999999677
  0
ARC
  5
14C19
330
1A
100
AcDbEntity
  8
SN
100
AcDbCircle
 10
3600.346071397897
 20
1915.648825525433
 30
0.0
 40
5.0
100
AcDbArc
 50
198.0000000000323
 51
270.0
  0
ARC
  5
14C1A
330
1A
100
AcDbEntity
  8
SN
100
AcDbCircle
 10
3595.205367406328
 20
1931.470285569779
 30
0.0
 40
5.0
100
AcDbArc
 50
125.9999999113153
 51
198.0000000000323
  0
LINE
  5
14C1B
330
1A
100
AcDbEntity
  8
SN
100
AcDbLine
 10
3592.266441151128
 20
1935.515370546204
 30
0.0
 11
3598.903046217863
 21
1938.72040367574
 31
0.0
  0
LINE
  5
14C1C
330
1A
100
AcDbEntity
  8
SN
100
AcDbLine
 10
3600.625987567404
 20
1939.972193835362
 30
0.0
 11
3605.724978977247
 21
1945.293570609807
 31
0.0
  0
LINE
  5
14C1D
330
1A
100
AcDbEntity
  8
SN
100
AcDbLine
 10
3611.602831506433
 20
1945.293570605258
 30
0.0
 11
3616.70182286041
 21
1939.972193846057
 31
0.0
  0
LINE
  5
14C1E
330
1A
100
AcDbEntity
  8
SN
100
AcDbLine
 10
3618.424764214225
 20
1938.720403674962
 30
0.0
 11
3625.061369235686
 21
1935.515370548351
 31
0.0
  0
LINE
  5
14C1F
330
1A
100
AcDbEntity
  8
SN
100
AcDbLine
 10
3626.877725549439
 20
1929.925200609153
 30
0.0
 11
3623.392470488325
 21
1923.431375767453
 31
0.0
  0
LINE
  5
14C20
330
1A
100
AcDbEntity
  8
SN
100
AcDbLine
 10
3622.734365452962
 20
1921.405936734387
 30
0.0
 11
3621.73702155421
 21
1914.103740553557
 31
0.0
  0
LINE
  5
14C21
330
1A
100
AcDbEntity
  8
SN
100
AcDbLine
 10
3616.981738972736
 20
1910.648825525431
 30
0.0
 11
3609.728741501069
 21
1911.956797827542
 31
0.0
  0
LINE
  5
14C22
330
1A
100
AcDbEntity
  8
SN
100
AcDbLine
 10
3607.599068869568
 20
1911.956797827542
 30
0.0
 11
3600.346071397897
 21
1910.648825525433
 31
0.0
  0
LINE
  5
14C23
330
1A
100
AcDbEntity
  8
SN
100
AcDbLine
 10
3595.590788816422
 20
1914.103740553557
 30
0.0
 11
3594.593444919472
 21
1921.405936727982
 31
0.0
  0
LINE
  5
14C24
330
1A
100
AcDbEntity
  8
SN
100
AcDbLine
 10
3593.935339883657
 20
1923.431375762444
 30
0.0
 11
3590.45008482485
 21
1929.925200597904
 31
0.0
  0
ARC
  5
14C25
330
1A
100
AcDbEntity
  8
SN
100
AcDbCircle
 10
3596.293789390035
 20
1944.123345356566
 30
0.0
 40
6.0
100
AcDbArc
 50
295.7774126080981
 51
316.222587214499
  0
ARC
  5
14C26
330
1A
100
AcDbEntity
  8
SN
100
AcDbCircle
 10
3621.034021054558
 20
1944.123345349751
 30
0.0
 40
6.0
100
AcDbArc
 50
223.7774125539356
 51
244.2225872593807
  0
ARC
  5
14C27
330
1A
100
AcDbEntity
  8
SN
100
AcDbCircle
 10
3628.679173047174
 20
1920.593986817335
 30
0.0
 40
6.0
100
AcDbArc
 50
151.7774126779839
 51
172.2225873220461
  0
ARC
  5
14C28
330
1A
100
AcDbEntity
  8
SN
100
AcDbCircle
 10
3608.663905185316
 20
1906.052043504062
 30
0.0
 40
6.0
100
AcDbArc
 50
79.77741267442595
 51
100.222587325574
  0
ARC
  5
14C29
330
1A
100
AcDbEntity
  8
SN
100
AcDbCircle
 10
3588.648637325161
 20
1920.593986811669
 30
0.0
 40
6.0
100
AcDbArc
 50
7.777412670865953
 51
28.2225873291499
  0
LINE
  5
14C2A
330
1A
100
AcDbEntity
  8
SN
100
AcDbLine
 10
2698.35772695533
 20
2095.312003378187
 30
-0.0000000000000107
 11
2698.357726955332
 21
2101.923195235961
 31
-0.0000000000000107
  0
LINE
  5
14C2B
330
1A
100
AcDbEntity
  8
SN
100
AcDbLine
 10
2953.80452284057
 20
2095.312003378191
 30
0.0
 11
2953.80452284057
 21
2101.923195235961
 31
0.0
  0
DIMENSION
  5
14C2C
330
1A
100
AcDbEntity
  8
MEASURE
100
AcDbDimension
  2
*D56
 10
2963.581124897952
 20
2287.197186885173
 30
0.0
 11
2826.081124897952
 21
2287.197186885173
 31
0.0
 70
   160
  1
275
 71
     5
 42
275.0
  3
AD-STANDARDx3
100
AcDbAlignedDimension
 13
2688.581124897952
 23
2164.750260441532
 33
0.0
 14
2963.581124897952
 24
2164.750260441532
 34
0.0000000000000107
100
AcDbRotatedDimension
  0
DIMENSION
  5
14C2D
330
1A
100
AcDbEntity
  8
MEASURE
100
AcDbDimension
  2
*D57
 10
2842.581124897948
 20
1715.440913184811
 30
0.0
 11
2914.847791564615
 21
1733.440913184811
 31
0.0
 70
    32
  1
%%C<>
 71
     5
 42
33.0
  3
AD-STANDARDx3
100
AcDbAlignedDimension
 13
2809.581124897948
 23
1673.268939685176
 33
0.0
 14
2842.581124897948
 24
1673.268939685176
 34
0.0
100
AcDbRotatedDimension
1001
ACAD
1000
DSTYLE
1002
{
1070
    76
1070
     1
1070
    75
1070
     1
1002
}
  0
DIMENSION
  5
14C2E
330
1A
100
AcDbEntity
  8
MEASURE
100
AcDbDimension
  2
*D58
 10
3216.192909623489
 20
1356.370264570998
 30
0.0
 11
3216.192909623489
 21
1776.880757617224
 31
0.0
 70
   160
  1
780～1050
 71
     5
 42
841.0209860924458
  3
AD-STANDARDx3
100
AcDbAlignedDimension
 13
2963.581124897952
 23
2197.391250663444
 33
0.0
 14
3010.750241314781
 24
1356.370264570998
 34
0.0
 50
90.0
100
AcDbRotatedDimension
  0
DIMENSION
  5
14C2F
330
1A
100
AcDbEntity
  8
MEASURE
100
AcDbDimension
  2
*D59
 10
3154.076868769215
 20
2049.150264570998
 30
0.0
 11
3136.076868769214
 21
2123.270757617222
 31
0.0
 70
    32
  1
（148）
 71
     5
 42
148.2409860924463
  3
AD-STANDARDx3
100
AcDbAlignedDimension
 13
2970.581124897952
 23
2197.391250663444
 33
0.0
 14
2864.581124897948
 24
2049.150264570998
 34
0.0
 50
90.0
100
AcDbRotatedDimension
  0
DIMENSION
  5
14C30
330
1A
100
AcDbEntity
  8
MEASURE
100
AcDbDimension
  2
*D60
 10
3639.163905238707
 20
2049.150264570998
 30
0.0
 11
3744.02771412296
 21
2182.749110424553
 31
0.0
 70
   162
  1
48°
 71
     5
 42
0.8424303711406198
  3
AD-STANDARDx3
100
AcDb2LineAngularDimension
 13
3607.390959286961
 23
2196.832912972406
 33
0.0
 14
3592.356705763123
 24
2179.97797393404
 34
0.0
 15
3578.163905238707
 25
2049.150264570998
 35
0.0
 16
3763.701084051139
 26
2132.230103535462
 36
0.0
  0
LINE
  5
14C31
330
1A
100
AcDbEntity
  8
SN
100
AcDbLine
 10
3424.913905238711
 20
1411.150264570998
 30
0.0
 11
3424.913905238707
 21
1407.844651741613
 31
0.0
  0
LINE
  5
14C32
330
1A
100
AcDbEntity
  8
SN
100
AcDbLine
 10
3437.413905238711
 20
1411.150264570998
 30
0.0
 11
3437.413905238707
 21
1395.933560949371
 31
0.0
  0
CIRCLE
  5
14C33
330
1A
100
AcDbEntity
  8
SN
100
AcDbCircle
 10
3411.163905238708
 20
1380.900264570999
 30
0.0
 40
24.5
  0
ARC
  5
14C34
330
1A
100
AcDbEntity
  8
SN
100
AcDbCircle
 10
3411.163905238708
 20
1380.900264570999
 30
0.0
 40
30.25
100
AcDbArc
 50
350.6541686886927
 51
189.3458313113073
  0
ARC
  5
14C35
330
1A
100
AcDbEntity
  8
SN
100
AcDbCircle
 10
3382.302165859382
 20
1376.150264570999
 30
0.0
 40
1.0
100
AcDbArc
 50
189.3458313113073
 51
270.0
  0
ARC
  5
14C36
330
1A
100
AcDbEntity
  8
SN
100
AcDbCircle
 10
3440.025644618032
 20
1376.150264570999
 30
0.0
 40
1.0
100
AcDbArc
 50
270.0
 51
350.6541686886927
  0
ARC
  5
14C37
330
1A
100
AcDbEntity
  8
SN
100
AcDbCircle
 10
3411.163905238708
 20
1380.900264570999
 30
0.0
 40
28.25
100
AcDbArc
 50
350.6541686886927
 51
189.3458313113073
  0
ARC
  5
14C38
330
1A
100
AcDbEntity
  8
SN
100
AcDbCircle
 10
3382.302165859382
 20
1376.150264570999
 30
0.0
 40
1.0
100
AcDbArc
 50
270.0
 51
9.345831311307291
  0
ARC
  5
14C39
330
1A
100
AcDbEntity
  8
SN
100
AcDbCircle
 10
3440.025644618032
 20
1376.150264570999
 30
0.0
 40
1.0
100
AcDbArc
 50
170.6541686886927
 51
270.0
  0
LINE
  5
14C3A
330
1A
100
AcDbEntity
  8
SN
100
AcDbLine
 10
3382.302165859382
 20
1375.150264570999
 30
0.0
 11
3382.302165859382
 21
1375.150264570999
 31
0.0
  0
LINE
  5
14C3B
330
1A
100
AcDbEntity
  8
SN
100
AcDbLine
 10
3440.025644618032
 20
1375.150264570999
 30
0.0
 11
3440.025644618032
 21
1375.150264570999
 31
0.0
  0
LINE
  5
14C3C
330
1A
100
AcDbEntity
  8
SN
100
AcDbLine
 10
3424.913905238711
 20
1411.150264570998
 30
0.0
 11
3437.413905238707
 21
1411.150264570999
 31
0.0
  0
LINE
  5
14C3D
330
1A
100
AcDbEntity
  8
SN
100
AcDbLine
 10
3439.163905238707
 20
1411.150264570999
 30
0.0
 11
3423.163905238708
 21
1411.150264570999
 31
0.0
  0
LINE
  5
14C3E
330
1A
100
AcDbEntity
  8
SN
100
AcDbLine
 10
3423.163905238708
 20
1411.150264570999
 30
0.0
 11
3423.163905238708
 21
1414.150264570999
 31
0.0
  0
LINE
  5
14C3F
330
1A
100
AcDbEntity
  8
SN
100
AcDbLine
 10
3423.163905238708
 20
1414.150264570999
 30
0.0
 11
3439.163905238707
 21
1414.150264570999
 31
0.0
  0
LINE
  5
14C40
330
1A
100
AcDbEntity
  8
SN
100
AcDbLine
 10
3439.163905238707
 20
1414.150264570999
 30
0.0
 11
3439.163905238707
 21
1411.150264570999
 31
0.0
  0
LINE
  5
14C41
330
1A
100
AcDbEntity
  8
SN
100
AcDbLine
 10
3435.036888584913
 20
1414.150264570999
 30
0.0
 11
3435.036888584913
 21
1411.150264570999
 31
0.0
  0
LINE
  5
14C42
330
1A
100
AcDbEntity
  8
SN
100
AcDbLine
 10
3427.290921892502
 20
1414.150264570999
 30
0.0
 11
3427.290921892502
 21
1411.150264570999
 31
0.0
  0
LINE
  5
14C43
330
1A
100
AcDbEntity
  8
SN
100
AcDbLine
 10
3367.913905238707
 20
1406.150264570999
 30
0.0
 11
3378.413905238708
 21
1406.150264570999
 31
0.0
  0
ARC
  5
14C44
330
1A
100
AcDbEntity
  8
SN
100
AcDbCircle
 10
3378.413905238708
 20
1405.650264570999
 30
0.0
 40
0.5
100
AcDbArc
 50
0.0
 51
90.0
  0
ARC
  5
14C45
330
1A
100
AcDbEntity
  8
SN
100
AcDbCircle
 10
3367.913905238707
 20
1404.150264571
 30
0.0
 40
2.0
100
AcDbArc
 50
90.0
 51
270.0
  0
ARC
  5
14C46
330
1A
100
AcDbEntity
  8
SN
100
AcDbCircle
 10
3370.913905238707
 20
1402.150264571
 30
0.0
 40
2.0
100
AcDbArc
 50
180.0
 51
341.9055972391792
  0
ARC
  5
14C47
330
1A
100
AcDbEntity
  8
SN
100
AcDbCircle
 10
3378.913905238707
 20
1402.150264571
 30
0.0
 40
2.0
100
AcDbArc
 50
198.0944027592181
 51
44.99999999999073
  0
ELLIPSE
  5
14C48
330
1A
100
AcDbEntity
  8
SN
100
AcDbEllipse
 10
3374.913905238707
 20
1401.150264571
 30
0.0
 11
2.267949192431842
 21
0.0
 31
0.0
210
0.0
220
0.0
230
-1.0
 40
0.440926985197466
 41
3.530127480805852
 42
5.894650479914343
  0
LINE
  5
14C49
330
1A
100
AcDbEntity
  8
SN
100
AcDbLine
 10
3367.913905238707
 20
1402.150264571
 30
0.0
 11
3368.913905238707
 21
1402.150264571
 31
0.0
  0
LINE
  5
14C4A
330
1A
100
AcDbEntity
  8
SN
100
AcDbLine
 10
3380.328118801077
 20
1403.564478133372
 30
0.0
 11
3378.913905238707
 21
1404.978691695744
 31
0.0
  0
LINE
  5
14C4B
330
1A
100
AcDbEntity
  8
SN
100
AcDbLine
 10
3378.913905238707
 20
1404.978691695744
 30
0.0
 11
3378.913905238707
 21
1405.650264570999
 31
0.0
  0
LINE
  5
14C4C
330
1A
100
AcDbEntity
  8
SN
100
AcDbLine
 10
3375.138696505921
 20
1402.145340403457
 30
0.0
 11
3383.847206599265
 21
1393.894897133788
 31
0.0
  0
LINE
  5
14C4D
330
1A
100
AcDbEntity
  8
SN
100
AcDbLine
 10
3378.905893815838
 20
1405.739411864694
 30
0.0
 11
3386.555335188725
 21
1398.492330398956
 31
0.0
  0
LINE
  5
14C4E
330
1A
100
AcDbEntity
  8
SN
100
AcDbLine
 10
3382.913905238707
 20
1380.900264570998
 30
0.0
 11
3386.663905238707
 21
1380.900264570998
 31
0.0
  0
LINE
  5
14C4F
330
1A
100
AcDbEntity
  8
SN
100
AcDbLine
 10
3435.663905238707
 20
1380.900264570999
 30
0.0
 11
3439.413905238708
 21
1380.900264570999
 31
0.0
  0
LINE
  5
14C50
330
1A
100
AcDbEntity
  8
SN
100
AcDbLine
 10
3547.563388713985
 20
1411.150264570998
 30
0.0
 11
3547.563388713982
 21
1407.844651741613
 31
0.0
  0
LINE
  5
14C51
330
1A
100
AcDbEntity
  8
SN
100
AcDbLine
 10
3560.063388713985
 20
1411.150264570998
 30
0.0
 11
3560.063388713981
 21
1395.933560949371
 31
0.0
  0
CIRCLE
  5
14C52
330
1A
100
AcDbEntity
  8
SN
100
AcDbCircle
 10
3533.813388713981
 20
1380.900264570999
 30
0.0
 40
24.5
  0
ARC
  5
14C53
330
1A
100
AcDbEntity
  8
SN
100
AcDbCircle
 10
3533.813388713981
 20
1380.900264570999
 30
0.0
 40
30.25
100
AcDbArc
 50
350.6541686886927
 51
189.3458313113073
  0
ARC
  5
14C54
330
1A
100
AcDbEntity
  8
SN
100
AcDbCircle
 10
3504.951649334657
 20
1376.150264570999
 30
0.0
 40
1.0
100
AcDbArc
 50
189.3458313113073
 51
270.0
  0
ARC
  5
14C55
330
1A
100
AcDbEntity
  8
SN
100
AcDbCircle
 10
3562.675128093306
 20
1376.150264570999
 30
0.0
 40
1.0
100
AcDbArc
 50
270.0
 51
350.6541686886927
  0
ARC
  5
14C56
330
1A
100
AcDbEntity
  8
SN
100
AcDbCircle
 10
3533.813388713981
 20
1380.900264570999
 30
0.0
 40
28.25
100
AcDbArc
 50
350.6541686886927
 51
189.3458313113073
  0
ARC
  5
14C57
330
1A
100
AcDbEntity
  8
SN
100
AcDbCircle
 10
3504.951649334657
 20
1376.150264570999
 30
0.0
 40
1.0
100
AcDbArc
 50
270.0
 51
9.345831311307291
  0
ARC
  5
14C58
330
1A
100
AcDbEntity
  8
SN
100
AcDbCircle
 10
3562.675128093306
 20
1376.150264570999
 30
0.0
 40
1.0
100
AcDbArc
 50
170.6541686886927
 51
270.0
  0
LINE
  5
14C59
330
1A
100
AcDbEntity
  8
SN
100
AcDbLine
 10
3504.951649334657
 20
1375.150264570999
 30
0.0
 11
3504.951649334657
 21
1375.150264570999
 31
0.0
  0
LINE
  5
14C5A
330
1A
100
AcDbEntity
  8
SN
100
AcDbLine
 10
3562.675128093306
 20
1375.150264570999
 30
0.0
 11
3562.675128093306
 21
1375.150264570999
 31
0.0
  0
LINE
  5
14C5B
330
1A
100
AcDbEntity
  8
SN
100
AcDbLine
 10
3547.563388713985
 20
1411.150264570998
 30
0.0
 11
3560.063388713981
 21
1411.150264570999
 31
0.0
  0
LINE
  5
14C5C
330
1A
100
AcDbEntity
  8
SN
100
AcDbLine
 10
3561.813388713981
 20
1411.150264570999
 30
0.0
 11
3545.813388713981
 21
1411.150264570999
 31
0.0
  0
LINE
  5
14C5D
330
1A
100
AcDbEntity
  8
SN
100
AcDbLine
 10
3545.813388713981
 20
1411.150264570999
 30
0.0
 11
3545.813388713981
 21
1414.150264570999
 31
0.0
  0
LINE
  5
14C5E
330
1A
100
AcDbEntity
  8
SN
100
AcDbLine
 10
3545.813388713981
 20
1414.150264570999
 30
0.0
 11
3561.813388713981
 21
1414.150264570999
 31
0.0
  0
LINE
  5
14C5F
330
1A
100
AcDbEntity
  8
SN
100
AcDbLine
 10
3561.813388713981
 20
1414.150264570999
 30
0.0
 11
3561.813388713981
 21
1411.150264570999
 31
0.0
  0
LINE
  5
14C60
330
1A
100
AcDbEntity
  8
SN
100
AcDbLine
 10
3557.686372060187
 20
1414.150264570999
 30
0.0
 11
3557.686372060187
 21
1411.150264570999
 31
0.0
  0
LINE
  5
14C61
330
1A
100
AcDbEntity
  8
SN
100
AcDbLine
 10
3549.940405367776
 20
1414.150264570999
 30
0.0
 11
3549.940405367776
 21
1411.150264570999
 31
0.0
  0
LINE
  5
14C62
330
1A
100
AcDbEntity
  8
SN
100
AcDbLine
 10
3490.563388713982
 20
1406.150264570999
 30
0.0
 11
3501.063388713981
 21
1406.150264570999
 31
0.0
  0
ARC
  5
14C63
330
1A
100
AcDbEntity
  8
SN
100
AcDbCircle
 10
3501.063388713981
 20
1405.650264570999
 30
0.0
 40
0.5
100
AcDbArc
 50
0.0
 51
90.0
  0
ARC
  5
14C64
330
1A
100
AcDbEntity
  8
SN
100
AcDbCircle
 10
3490.563388713982
 20
1404.150264571
 30
0.0
 40
2.0
100
AcDbArc
 50
90.0
 51
270.0
  0
ARC
  5
14C65
330
1A
100
AcDbEntity
  8
SN
100
AcDbCircle
 10
3493.563388713982
 20
1402.150264571
 30
0.0
 40
2.0
100
AcDbArc
 50
180.0
 51
341.9055972391792
  0
ARC
  5
14C66
330
1A
100
AcDbEntity
  8
SN
100
AcDbCircle
 10
3501.563388713981
 20
1402.150264571
 30
0.0
 40
2.0
100
AcDbArc
 50
198.0944027592181
 51
44.99999999999073
  0
ELLIPSE
  5
14C67
330
1A
100
AcDbEntity
  8
SN
100
AcDbEllipse
 10
3497.563388713981
 20
1401.150264571
 30
0.0
 11
2.267949192431842
 21
0.0
 31
0.0
210
0.0
220
0.0
230
-1.0
 40
0.440926985197466
 41
3.530127480805852
 42
5.894650479914343
  0
LINE
  5
14C68
330
1A
100
AcDbEntity
  8
SN
100
AcDbLine
 10
3490.563388713982
 20
1402.150264571
 30
0.0
 11
3491.563388713981
 21
1402.150264571
 31
0.0
  0
LINE
  5
14C69
330
1A
100
AcDbEntity
  8
SN
100
AcDbLine
 10
3502.977602276351
 20
1403.564478133372
 30
0.0
 11
3501.563388713981
 21
1404.978691695744
 31
0.0
  0
LINE
  5
14C6A
330
1A
100
AcDbEntity
  8
SN
100
AcDbLine
 10
3501.563388713981
 20
1404.978691695744
 30
0.0
 11
3501.563388713981
 21
1405.650264570999
 31
0.0
  0
LINE
  5
14C6B
330
1A
100
AcDbEntity
  8
SN
100
AcDbLine
 10
3497.788179981195
 20
1402.145340403457
 30
0.0
 11
3506.496690074538
 21
1393.894897133788
 31
0.0
  0
LINE
  5
14C6C
330
1A
100
AcDbEntity
  8
SN
100
AcDbLine
 10
3501.555377291112
 20
1405.739411864694
 30
0.0
 11
3509.204818663999
 21
1398.492330398956
 31
0.0
  0
LINE
  5
14C6D
330
1A
100
AcDbEntity
  8
SN
100
AcDbLine
 10
3505.563388713981
 20
1380.900264570998
 30
0.0
 11
3509.313388713982
 21
1380.900264570998
 31
0.0
  0
LINE
  5
14C6E
330
1A
100
AcDbEntity
  8
SN
100
AcDbLine
 10
3558.313388713981
 20
1380.900264570999
 30
0.0
 11
3562.063388713981
 21
1380.900264570999
 31
0.0
  0
LINE
  5
14C6F
330
1A
100
AcDbEntity
  8
SN
100
AcDbLine
 10
3746.014421731412
 20
1411.150264570997
 30
0.0
 11
3746.014421731408
 21
1407.844651741612
 31
0.0
  0
LINE
  5
14C70
330
1A
100
AcDbEntity
  8
SN
100
AcDbLine
 10
3758.514421731412
 20
1411.150264570997
 30
0.0
 11
3758.514421731408
 21
1395.93356094937
 31
0.0
  0
CIRCLE
  5
14C71
330
1A
100
AcDbEntity
  8
SN
100
AcDbCircle
 10
3732.264421731409
 20
1380.900264570998
 30
0.0
 40
24.5
  0
ARC
  5
14C72
330
1A
100
AcDbEntity
  8
SN
100
AcDbCircle
 10
3732.264421731409
 20
1380.900264570998
 30
0.0
 40
30.25
100
AcDbArc
 50
350.6541686886927
 51
189.3458313113073
  0
ARC
  5
14C73
330
1A
100
AcDbEntity
  8
SN
100
AcDbCircle
 10
3703.402682352083
 20
1376.150264570998
 30
0.0
 40
1.0
100
AcDbArc
 50
189.3458313113073
 51
270.0
  0
ARC
  5
14C74
330
1A
100
AcDbEntity
  8
SN
100
AcDbCircle
 10
3761.126161110733
 20
1376.150264570998
 30
0.0
 40
1.0
100
AcDbArc
 50
270.0
 51
350.6541686886927
  0
ARC
  5
14C75
330
1A
100
AcDbEntity
  8
SN
100
AcDbCircle
 10
3732.264421731409
 20
1380.900264570998
 30
0.0
 40
28.25
100
AcDbArc
 50
350.6541686886927
 51
189.3458313113073
  0
ARC
  5
14C76
330
1A
100
AcDbEntity
  8
SN
100
AcDbCircle
 10
3703.402682352083
 20
1376.150264570998
 30
0.0
 40
1.0
100
AcDbArc
 50
270.0
 51
9.345831311307291
  0
ARC
  5
14C77
330
1A
100
AcDbEntity
  8
SN
100
AcDbCircle
 10
3761.126161110733
 20
1376.150264570998
 30
0.0
 40
1.0
100
AcDbArc
 50
170.6541686886927
 51
270.0
  0
LINE
  5
14C78
330
1A
100
AcDbEntity
  8
SN
100
AcDbLine
 10
3703.402682352083
 20
1375.150264570998
 30
0.0
 11
3703.402682352083
 21
1375.150264570998
 31
0.0
  0
LINE
  5
14C79
330
1A
100
AcDbEntity
  8
SN
100
AcDbLine
 10
3761.126161110733
 20
1375.150264570998
 30
0.0
 11
3761.126161110733
 21
1375.150264570998
 31
0.0
  0
LINE
  5
14C7A
330
1A
100
AcDbEntity
  8
SN
100
AcDbLine
 10
3746.014421731412
 20
1411.150264570997
 30
0.0
 11
3758.514421731408
 21
1411.150264570998
 31
0.0
  0
LINE
  5
14C7B
330
1A
100
AcDbEntity
  8
SN
100
AcDbLine
 10
3760.264421731409
 20
1411.150264570998
 30
0.0
 11
3744.264421731408
 21
1411.150264570998
 31
0.0
  0
LINE
  5
14C7C
330
1A
100
AcDbEntity
  8
SN
100
AcDbLine
 10
3744.264421731408
 20
1411.150264570998
 30
0.0
 11
3744.264421731408
 21
1414.150264570998
 31
0.0
  0
LINE
  5
14C7D
330
1A
100
AcDbEntity
  8
SN
100
AcDbLine
 10
3744.264421731408
 20
1414.150264570998
 30
0.0
 11
3760.264421731409
 21
1414.150264570998
 31
0.0
  0
LINE
  5
14C7E
330
1A
100
AcDbEntity
  8
SN
100
AcDbLine
 10
3760.264421731409
 20
1414.150264570998
 30
0.0
 11
3760.264421731409
 21
1411.150264570998
 31
0.0
  0
LINE
  5
14C7F
330
1A
100
AcDbEntity
  8
SN
100
AcDbLine
 10
3756.137405077614
 20
1414.150264570998
 30
0.0
 11
3756.137405077614
 21
1411.150264570998
 31
0.0
  0
LINE
  5
14C80
330
1A
100
AcDbEntity
  8
SN
100
AcDbLine
 10
3748.391438385203
 20
1414.150264570998
 30
0.0
 11
3748.391438385203
 21
1411.150264570998
 31
0.0
  0
LINE
  5
14C81
330
1A
100
AcDbEntity
  8
SN
100
AcDbLine
 10
3689.014421731408
 20
1406.150264570998
 30
0.0
 11
3699.514421731409
 21
1406.150264570998
 31
0.0
  0
ARC
  5
14C82
330
1A
100
AcDbEntity
  8
SN
100
AcDbCircle
 10
3699.514421731409
 20
1405.650264570998
 30
0.0
 40
0.5
100
AcDbArc
 50
0.0
 51
90.0
  0
ARC
  5
14C83
330
1A
100
AcDbEntity
  8
SN
100
AcDbCircle
 10
3689.014421731408
 20
1404.150264570999
 30
0.0
 40
2.0
100
AcDbArc
 50
90.0
 51
270.0
  0
ARC
  5
14C84
330
1A
100
AcDbEntity
  8
SN
100
AcDbCircle
 10
3692.014421731408
 20
1402.150264570999
 30
0.0
 40
2.0
100
AcDbArc
 50
180.0
 51
341.9055972391792
  0
ARC
  5
14C85
330
1A
100
AcDbEntity
  8
SN
100
AcDbCircle
 10
3700.014421731408
 20
1402.150264570999
 30
0.0
 40
2.0
100
AcDbArc
 50
198.0944027592181
 51
44.99999999999073
  0
ELLIPSE
  5
14C86
330
1A
100
AcDbEntity
  8
SN
100
AcDbEllipse
 10
3696.014421731408
 20
1401.150264570999
 30
0.0
 11
2.267949192431842
 21
0.0
 31
0.0
210
0.0
220
0.0
230
-1.0
 40
0.440926985197466
 41
3.530127480805852
 42
5.894650479914343
  0
LINE
  5
14C87
330
1A
100
AcDbEntity
  8
SN
100
AcDbLine
 10
3689.014421731408
 20
1402.150264570999
 30
0.0
 11
3690.014421731409
 21
1402.150264570999
 31
0.0
  0
LINE
  5
14C88
330
1A
100
AcDbEntity
  8
SN
100
AcDbLine
 10
3701.428635293778
 20
1403.564478133371
 30
0.0
 11
3700.014421731408
 21
1404.978691695744
 31
0.0
  0
LINE
  5
14C89
330
1A
100
AcDbEntity
  8
SN
100
AcDbLine
 10
3700.014421731408
 20
1404.978691695744
 30
0.0
 11
3700.014421731408
 21
1405.650264570998
 31
0.0
  0
LINE
  5
14C8A
330
1A
100
AcDbEntity
  8
SN
100
AcDbLine
 10
3696.239212998622
 20
1402.145340403456
 30
0.0
 11
3704.947723091966
 21
1393.894897133787
 31
0.0
  0
LINE
  5
14C8B
330
1A
100
AcDbEntity
  8
SN
100
AcDbLine
 10
3700.006410308539
 20
1405.739411864693
 30
0.0
 11
3707.655851681426
 21
1398.492330398955
 31
0.0
  0
LINE
  5
14C8C
330
1A
100
AcDbEntity
  8
SN
100
AcDbLine
 10
3704.014421731409
 20
1380.900264570997
 30
0.0
 11
3707.764421731408
 21
1380.900264570997
 31
0.0
  0
LINE
  5
14C8D
330
1A
100
AcDbEntity
  8
SN
100
AcDbLine
 10
3756.764421731408
 20
1380.900264570998
 30
0.0
 11
3760.514421731409
 21
1380.900264570998
 31
0.0
  0
LINE
  5
14C8E
330
1A
100
AcDbEntity
  8
SN
100
AcDbLine
 10
2838.58112489795
 20
2498.257444091819
 30
0.0
 11
2838.581124897948
 21
2415.114289791337
 31
0.0
  0
LINE
  5
14C8F
330
1A
100
AcDbEntity
  8
SN
100
AcDbLine
 10
2813.581124897946
 20
2498.257444091818
 30
0.0
 11
2813.581124897948
 21
2415.114289791337
 31
0.0
  0
ARC
  5
14C90
330
1A
100
AcDbEntity
  8
SN
100
AcDbCircle
 10
2826.081124897948
 20
2415.114289791337
 30
0.0
 40
12.5
100
AcDbArc
 50
180.0
 51
0.0
  0
LINE
  5
14C91
330
1A
100
AcDbEntity
  8
SN
100
AcDbLine
 10
2955.706551904368
 20
2542.353157594948
 30
0.0
 11
2995.78622668438
 21
2529.330481840397
 31
0.0
  0
LINE
  5
14C92
330
1A
100
AcDbEntity
  8
SN
100
AcDbLine
 10
2962.724989717452
 20
2566.35928451837
 30
0.0
 11
3003.511739873236
 21
2553.106866047425
 31
0.0
  0
ARC
  5
14C93
330
1A
100
AcDbEntity
  8
SN
100
AcDbCircle
 10
2999.648939114073
 20
2541.218688294084
 30
0.0
 40
12.5
100
AcDbArc
 50
251.99999999998
 51
71.99999999997995
  0
LINE
  5
14C94
330
1A
100
AcDbEntity
  8
SN
100
AcDbLine
 10
2871.479016556894
 20
2638.832856862848
 30
0.0
 11
2943.46464588296
 21
2737.912575601194
 31
0.0
  0
LINE
  5
14C95
330
1A
100
AcDbEntity
  8
SN
100
AcDbLine
 10
2840.577317119498
 20
2638.832856862848
 30
0.0
 11
2923.239262639209
 21
2752.607264187155
 31
0.0
  0
ARC
  5
14C96
330
1A
100
AcDbEntity
  8
SN
100
AcDbCircle
 10
2933.35193345386
 20
2745.259891255657
 30
0.0
 40
12.5
100
AcDbArc
 50
324.0000000000455
 51
144.0000000000455
  0
LINE
  5
14C97
330
1A
100
AcDbEntity
  8
SN
100
AcDbLine
 10
2811.584932676402
 20
2638.832856862848
 30
0.0
 11
2728.92298715669
 21
2752.607264187156
 31
0.0
  0
LINE
  5
14C98
330
1A
100
AcDbEntity
  8
SN
100
AcDbLine
 10
2780.683233239008
 20
2638.832856862848
 30
0.0
 11
2708.697603912937
 21
2737.912575601197
 31
0.0
  0
ARC
  5
14C99
330
1A
100
AcDbEntity
  8
SN
100
AcDbCircle
 10
2718.810316342038
 20
2745.259891255659
 30
0.0
 40
12.5
100
AcDbArc
 50
35.99999999995445
 51
215.9999999999544
  0
LINE
  5
14C9A
330
1A
100
AcDbEntity
  8
SN
100
AcDbLine
 10
2689.437260078654
 20
2566.359284517333
 30
0.0
 11
2648.65059825266
 21
2553.106894746147
 31
0.0
  0
LINE
  5
14C9B
330
1A
100
AcDbEntity
  8
SN
100
AcDbLine
 10
2696.466644239615
 20
2542.356714278767
 30
0.0
 11
2656.375847332527
 21
2529.33042472598
 31
0.0
  0
ARC
  5
14C9C
330
1A
100
AcDbEntity
  8
SN
100
AcDbCircle
 10
2652.513310682353
 20
2541.218688292459
 30
0.0
 40
12.5
100
AcDbArc
 50
108.00000000002
 51
288.0000000000201
  0
LINE
  5
14C9D
330
1A
100
AcDbEntity
  8
SN
 62
     9
100
AcDbLine
 10
2938.955401318923
 20
2607.488564058032
 30
0.0
 11
2713.206848476974
 21
2607.488564058032
 31
0.0
  0
LINE
  5
14C9E
330
1A
100
AcDbEntity
  8
SN
100
AcDbLine
 10
2923.813730572704
 20
2498.257444091817
 30
0.0
 11
2728.348519223193
 21
2498.257444091821
 31
0.0
  0
ARC
  5
14C9F
330
1A
100
AcDbEntity
  8
SN
100
AcDbCircle
 10
2923.813730572704
 20
2528.257444091817
 30
0.0
 40
30.0
100
AcDbArc
 50
270.0
 51
0.0
  0
ARC
  5
14CA0
330
1A
100
AcDbEntity
  8
SN
100
AcDbCircle
 10
2728.348519223193
 20
2528.257444091821
 30
-0.000000000000197
 40
30.0
100
AcDbArc
 50
180.0
 51
270.0
  0
LINE
  5
14CA1
330
1A
100
AcDbEntity
  8
SN
100
AcDbLine
 10
2938.955401318923
 20
2615.195849129325
 30
0.0
 11
2713.206848476974
 21
2615.195849129325
 31
0.0
  0
LINE
  5
14CA2
330
1A
100
AcDbEntity
  8
SN
 62
     9
100
AcDbLine
 10
2847.581124897948
 20
2544.583129915397
 30
0.0
 11
2713.197640744839
 21
2544.583129915401
 31
0.0
  0
ARC
  5
14CA3
330
1A
100
AcDbEntity
  8
SN
 62
     9
100
AcDbCircle
 10
2847.581124897948
 20
2549.583129915397
 30
-0.0000000000000126
 40
5.0
100
AcDbArc
 50
270.0
 51
0.0
  0
LINE
  5
14CA4
330
1A
100
AcDbEntity
  8
SN
 62
     9
100
AcDbLine
 10
2847.581124897948
 20
2593.887896053252
 30
0.0
 11
2713.197640744839
 21
2593.887896053256
 31
0.0
  0
ARC
  5
14CA5
330
1A
100
AcDbEntity
  8
SN
 62
     9
100
AcDbCircle
 10
2847.581124897948
 20
2588.887896053252
 30
-0.0000000000000126
 40
5.0
100
AcDbArc
 50
0.0
 51
90.0
  0
LINE
  5
14CA6
330
1A
100
AcDbEntity
  8
SN
 62
     9
100
AcDbLine
 10
2852.581124897948
 20
2549.583129915397
 30
-0.0000000000000001
 11
2852.581124897948
 21
2588.887896053252
 31
0.0
  0
ELLIPSE
  5
14CA7
330
1A
100
AcDbEntity
  8
SN
 62
     9
100
AcDbEllipse
 10
2713.197640744839
 20
2569.235512984326
 30
0.0
 11
-0.0000000000000075
 21
-24.65238306892661
 31
0.0
210
0.0
220
0.0
230
1.0
 40
0.6697597147374605
 41
3.141592653589793
 42
6.283185307179586
  0
ELLIPSE
  5
14CA8
330
1A
100
AcDbEntity
  8
SN
 62
     9
100
AcDbEllipse
 10
2713.206848476974
 20
2574.847573836119
 30
0.0
 11
-0.000000000000016
 21
-32.64099022191203
 31
0.0
210
0.0
220
0.0
230
1.0
 40
0.7541595913461593
 41
3.141592653589793
 42
5.193802581516269
  0
ARC
  5
14CA9
330
1A
100
AcDbEntity
  8
SN
100
AcDbCircle
 10
2585.393429379314
 20
2519.326186275287
 30
-0.000000000000394
 40
113.4357275267453
100
AcDbArc
 50
5.276246453534008
 51
20.86794799159559
  0
ELLIPSE
  5
14CAA
330
1A
100
AcDbEntity
  8
SN
100
AcDbEllipse
 10
2713.206848476974
 20
2582.554858907413
 30
0.0
 11
-0.000000000000016
 21
-32.64099022191203
 31
0.0
210
0.0
220
0.0
230
1.0
 40
0.7541595913461593
 41
3.141592653589793
 42
4.830726428719177
  0
ARC
  5
14CAB
330
1A
100
AcDbEntity
  8
SN
100
AcDbCircle
 10
2923.813730572704
 20
2528.257444091821
 30
-0.000000000000197
 40
30.0
100
AcDbArc
 50
270.0
 51
0.0
  0
ELLIPSE
  5
14CAC
330
1A
100
AcDbEntity
  8
SN
100
AcDbEllipse
 10
2938.955401318923
 20
2574.847573836119
 30
0.0
 11
-0.000000000000004
 21
-32.64099022191203
 31
0.0
210
0.0
220
0.0
230
-1.0
 40
0.7541595913461593
 41
3.141592653589793
 42
5.193802581516269
  0
ARC
  5
14CAD
330
1A
100
AcDbEntity
  8
SN
100
AcDbCircle
 10
3061.278261154959
 20
2521.001678004987
 30
0.0
 40
107.7091986543944
100
AcDbArc
 50
158.9244662857019
 51
176.1373787301883
  0
ELLIPSE
  5
14CAE
330
1A
100
AcDbEntity
  8
SN
100
AcDbEllipse
 10
2938.955401318923
 20
2582.554858907413
 30
0.0
 11
-0.000000000000004
 21
-32.64099022191203
 31
0.0
210
0.0
220
0.0
230
-1.0
 40
0.7541595913461593
 41
3.141592653589793
 42
4.830726428719177
  0
LINE
  5
14CAF
330
1A
100
AcDbEntity
  8
SN
100
AcDbLine
 10
2935.586477668698
 20
2638.832856862848
 30
0.0
 11
2716.575772127202
 21
2638.832856862848
 31
0.0
  0
LINE
  5
14CB0
330
1A
100
AcDbEntity
  8
SN
100
AcDbLine
 10
2939.345469441491
 20
2615.191750974648
 30
0.0
 11
2935.586477668698
 21
2638.832856862848
 31
0.0000000000000053
  0
LINE
  5
14CB1
330
1A
100
AcDbEntity
  8
SN
100
AcDbLine
 10
2712.81678035441
 20
2615.191750974652
 30
0.0
 11
2716.575772127202
 21
2638.832856862848
 31
0.0000000000000053
  0
LINE
  5
14CB2
330
1A
100
AcDbEntity
  8
SN
 62
     9
100
AcDbLine
 10
2710.331124897948
 20
2536.378687961572
 30
-0.0000000000000002
 11
2710.331124897948
 21
2542.363454419908
 31
-0.0000000000000004
  0
LINE
  5
14CB3
330
1A
100
AcDbEntity
  8
SN
 62
     9
100
AcDbLine
 10
2846.581124897948
 20
2536.378687961576
 30
-0.0000000000000002
 11
2846.581124897945
 21
2542.363454419904
 31
-0.0000000000000002
  0
LINE
  5
14CB4
330
1A
100
AcDbEntity
  8
SN
 62
     9
100
AcDbLine
 10
2844.581124897945
 20
2544.363454419904
 30
0.0
 11
2712.331124897948
 21
2544.363454419908
 31
0.0
  0
ARC
  5
14CB5
330
1A
100
AcDbEntity
  8
SN
 62
     9
100
AcDbCircle
 10
2844.581124897945
 20
2542.363454419904
 30
-0.0000000000000002
 40
2.0
100
AcDbArc
 50
0.0
 51
90.0
  0
ARC
  5
14CB6
330
1A
100
AcDbEntity
  8
SN
 62
     9
100
AcDbCircle
 10
2712.331124897948
 20
2542.363454419908
 30
-0.0000000000002048
 40
2.0
100
AcDbArc
 50
90.0
 51
180.0
  0
LINE
  5
14CB7
330
1A
100
AcDbEntity
  8
SN
 62
     9
100
AcDbLine
 10
2844.581124897948
 20
2534.378687961576
 30
0.0
 11
2712.331124897948
 21
2534.378687961572
 31
0.0
  0
ARC
  5
14CB8
330
1A
100
AcDbEntity
  8
SN
 62
     9
100
AcDbCircle
 10
2844.581124897948
 20
2536.378687961576
 30
-0.0000000000000002
 40
2.0
100
AcDbArc
 50
270.0
 51
0.0
  0
ARC
  5
14CB9
330
1A
100
AcDbEntity
  8
SN
 62
     9
100
AcDbCircle
 10
2712.331124897948
 20
2536.378687961572
 30
0.0000000000008161
 40
2.0
100
AcDbArc
 50
180.0
 51
270.0
  0
LINE
  5
14CBA
330
1A
100
AcDbEntity
  8
SN
 62
     9
100
AcDbLine
 10
2725.581124897948
 20
2503.350775079165
 30
0.0000000000000107
 11
2725.581124897948
 21
2513.410678399067
 31
0.0000000000000107
  0
LINE
  5
14CBB
330
1A
100
AcDbEntity
  8
SN
 62
     9
100
AcDbLine
 10
2725.581124897944
 20
2518.735887176847
 30
0.0000000000000107
 11
2725.581124897948
 21
2528.720653635183
 31
0.0000000000000107
  0
LINE
  5
14CBC
330
1A
100
AcDbEntity
  8
SN
 62
     9
100
AcDbLine
 10
2739.581124897948
 20
2503.350775079165
 30
0.0000000000000107
 11
2739.581124897948
 21
2513.410678399067
 31
0.0000000000000107
  0
LINE
  5
14CBD
330
1A
100
AcDbEntity
  8
SN
 62
     9
100
AcDbLine
 10
2739.581124897948
 20
2518.735887176847
 30
0.0000000000000107
 11
2739.581124897948
 21
2528.720653635183
 31
0.0000000000000107
  0
LINE
  5
14CBE
330
1A
100
AcDbEntity
  8
SN
 62
     9
100
AcDbLine
 10
2741.581124897948
 20
2503.350775079165
 30
0.0000000000000107
 11
2741.581124897948
 21
2513.410678399067
 31
0.0000000000000107
  0
LINE
  5
14CBF
330
1A
100
AcDbEntity
  8
SN
 62
     9
100
AcDbLine
 10
2741.581124897948
 20
2518.735887176847
 30
0.0000000000000107
 11
2741.581124897948
 21
2528.720653635183
 31
0.0000000000000107
  0
LINE
  5
14CC0
330
1A
100
AcDbEntity
  8
SN
 62
     9
100
AcDbLine
 10
2755.581124897948
 20
2503.350775079165
 30
0.0000000000000107
 11
2755.581124897948
 21
2513.410678399067
 31
0.0000000000000107
  0
LINE
  5
14CC1
330
1A
100
AcDbEntity
  8
SN
 62
     9
100
AcDbLine
 10
2755.581124897948
 20
2518.735887176847
 30
0.0000000000000107
 11
2755.581124897948
 21
2528.720653635183
 31
0.0000000000000107
  0
LINE
  5
14CC2
330
1A
100
AcDbEntity
  8
SN
 62
     9
100
AcDbLine
 10
2757.581124897944
 20
2503.350775079165
 30
0.0000000000000107
 11
2757.581124897944
 21
2513.410678399067
 31
0.0000000000000107
  0
LINE
  5
14CC3
330
1A
100
AcDbEntity
  8
SN
 62
     9
100
AcDbLine
 10
2757.581124897944
 20
2518.735887176847
 30
0.0000000000000107
 11
2757.581124897944
 21
2528.720653635183
 31
0.0000000000000107
  0
LINE
  5
14CC4
330
1A
100
AcDbEntity
  8
SN
 62
     9
100
AcDbLine
 10
2771.581124897948
 20
2503.350775079165
 30
0.0000000000000107
 11
2771.581124897948
 21
2513.410678399067
 31
0.0000000000000107
  0
LINE
  5
14CC5
330
1A
100
AcDbEntity
  8
SN
 62
     9
100
AcDbLine
 10
2771.581124897948
 20
2518.735887176847
 30
0.0000000000000107
 11
2771.581124897948
 21
2528.720653635183
 31
0.0000000000000107
  0
LINE
  5
14CC6
330
1A
100
AcDbEntity
  8
SN
 62
     9
100
AcDbLine
 10
2773.581124897948
 20
2503.350775079165
 30
0.0000000000000107
 11
2773.581124897948
 21
2513.410678399067
 31
0.0000000000000107
  0
LINE
  5
14CC7
330
1A
100
AcDbEntity
  8
SN
 62
     9
100
AcDbLine
 10
2773.581124897948
 20
2518.735887176847
 30
0.0000000000000107
 11
2773.581124897948
 21
2528.720653635183
 31
0.0000000000000107
  0
LINE
  5
14CC8
330
1A
100
AcDbEntity
  8
SN
 62
     9
100
AcDbLine
 10
2787.581124897948
 20
2503.350775079165
 30
0.0000000000000107
 11
2787.581124897948
 21
2513.410678399067
 31
0.0000000000000107
  0
LINE
  5
14CC9
330
1A
100
AcDbEntity
  8
SN
 62
     9
100
AcDbLine
 10
2787.581124897948
 20
2518.735887176847
 30
0.0000000000000107
 11
2787.581124897948
 21
2528.720653635183
 31
0.0000000000000107
  0
LINE
  5
14CCA
330
1A
100
AcDbEntity
  8
SN
 62
     9
100
AcDbLine
 10
2789.581124897948
 20
2503.350775079165
 30
0.0000000000000107
 11
2789.581124897948
 21
2513.410678399067
 31
0.0000000000000107
  0
LINE
  5
14CCB
330
1A
100
AcDbEntity
  8
SN
 62
     9
100
AcDbLine
 10
2789.581124897948
 20
2518.735887176847
 30
0.0000000000000107
 11
2789.581124897948
 21
2528.720653635183
 31
0.0000000000000107
  0
LINE
  5
14CCC
330
1A
100
AcDbEntity
  8
SN
 62
     9
100
AcDbLine
 10
2803.581124897948
 20
2503.350775079165
 30
0.0000000000000107
 11
2803.581124897948
 21
2513.410678399067
 31
0.0000000000000107
  0
LINE
  5
14CCD
330
1A
100
AcDbEntity
  8
SN
 62
     9
100
AcDbLine
 10
2803.581124897948
 20
2518.735887176847
 30
0.0000000000000107
 11
2803.581124897948
 21
2528.720653635183
 31
0.0000000000000107
  0
LINE
  5
14CCE
330
1A
100
AcDbEntity
  8
SN
 62
     9
100
AcDbLine
 10
2805.581124897944
 20
2503.350775079165
 30
0.0000000000000107
 11
2805.581124897944
 21
2513.410678399067
 31
0.0000000000000107
  0
LINE
  5
14CCF
330
1A
100
AcDbEntity
  8
SN
 62
     9
100
AcDbLine
 10
2805.581124897944
 20
2518.735887176847
 30
0.0000000000000107
 11
2805.581124897944
 21
2528.720653635183
 31
0.0000000000000107
  0
LINE
  5
14CD0
330
1A
100
AcDbEntity
  8
SN
 62
     9
100
AcDbLine
 10
2819.581124897948
 20
2503.350775079165
 30
0.0000000000000107
 11
2819.581124897948
 21
2513.410678399067
 31
0.0000000000000107
  0
LINE
  5
14CD1
330
1A
100
AcDbEntity
  8
SN
 62
     9
100
AcDbLine
 10
2819.581124897948
 20
2518.735887176847
 30
0.0000000000000107
 11
2819.581124897948
 21
2528.720653635183
 31
0.0000000000000107
  0
LINE
  5
14CD2
330
1A
100
AcDbEntity
  8
SN
 62
     9
100
AcDbLine
 10
2821.581124897948
 20
2503.350775079165
 30
0.0000000000000107
 11
2821.581124897948
 21
2513.410678399067
 31
0.0000000000000107
  0
LINE
  5
14CD3
330
1A
100
AcDbEntity
  8
SN
 62
     9
100
AcDbLine
 10
2821.581124897948
 20
2518.735887176847
 30
0.0000000000000107
 11
2821.581124897948
 21
2528.720653635183
 31
0.0000000000000107
  0
LINE
  5
14CD4
330
1A
100
AcDbEntity
  8
SN
 62
     9
100
AcDbLine
 10
2835.581124897948
 20
2503.350775079165
 30
0.0000000000000107
 11
2835.581124897948
 21
2513.410678399067
 31
0.0000000000000107
  0
LINE
  5
14CD5
330
1A
100
AcDbEntity
  8
SN
 62
     9
100
AcDbLine
 10
2835.581124897948
 20
2518.735887176847
 30
0.0000000000000107
 11
2835.581124897948
 21
2528.720653635183
 31
0.0000000000000107
  0
LINE
  5
14CD6
330
1A
100
AcDbEntity
  8
SN
 62
     9
100
AcDbLine
 10
2835.581124897948
 20
2503.350775079165
 30
0.0
 11
2821.581124897944
 21
2503.350775079165
 31
0.0
  0
LINE
  5
14CD7
330
1A
100
AcDbEntity
  8
SN
 62
     9
100
AcDbLine
 10
2819.581124897948
 20
2503.350775079165
 30
0.0
 11
2805.581124897944
 21
2503.350775079165
 31
0.0
  0
LINE
  5
14CD8
330
1A
100
AcDbEntity
  8
SN
 62
     9
100
AcDbLine
 10
2803.581124897948
 20
2503.350775079165
 30
0.0
 11
2789.581124897948
 21
2503.350775079168
 31
0.0
  0
LINE
  5
14CD9
330
1A
100
AcDbEntity
  8
SN
 62
     9
100
AcDbLine
 10
2787.581124897948
 20
2503.350775079168
 30
0.0
 11
2773.581124897948
 21
2503.350775079168
 31
0.0
  0
LINE
  5
14CDA
330
1A
100
AcDbEntity
  8
SN
 62
     9
100
AcDbLine
 10
2771.581124897948
 20
2503.350775079168
 30
0.0
 11
2757.581124897944
 21
2503.350775079165
 31
0.0
  0
LINE
  5
14CDB
330
1A
100
AcDbEntity
  8
SN
 62
     9
100
AcDbLine
 10
2755.581124897948
 20
2503.350775079165
 30
0.0
 11
2741.581124897948
 21
2503.350775079165
 31
0.0
  0
LINE
  5
14CDC
330
1A
100
AcDbEntity
  8
SN
 62
     9
100
AcDbLine
 10
2739.581124897948
 20
2503.350775079165
 30
0.0
 11
2725.581124897948
 21
2503.350775079165
 31
0.0
  0
LINE
  5
14CDD
330
1A
100
AcDbEntity
  8
SN
 62
     9
100
AcDbLine
 10
2835.581124897948
 20
2513.410678399067
 30
0.0
 11
2821.581124897944
 21
2513.410678399067
 31
0.0
  0
LINE
  5
14CDE
330
1A
100
AcDbEntity
  8
SN
 62
     9
100
AcDbLine
 10
2819.581124897948
 20
2513.410678399067
 30
0.0
 11
2805.581124897944
 21
2513.410678399067
 31
0.0
  0
LINE
  5
14CDF
330
1A
100
AcDbEntity
  8
SN
 62
     9
100
AcDbLine
 10
2803.581124897948
 20
2513.410678399067
 30
0.0
 11
2789.581124897948
 21
2513.410678399067
 31
0.0
  0
LINE
  5
14CE0
330
1A
100
AcDbEntity
  8
SN
 62
     9
100
AcDbLine
 10
2787.581124897948
 20
2513.410678399067
 30
0.0
 11
2773.581124897948
 21
2513.410678399067
 31
0.0
  0
LINE
  5
14CE1
330
1A
100
AcDbEntity
  8
SN
 62
     9
100
AcDbLine
 10
2771.581124897948
 20
2513.410678399067
 30
0.0
 11
2757.581124897944
 21
2513.410678399067
 31
0.0
  0
LINE
  5
14CE2
330
1A
100
AcDbEntity
  8
SN
 62
     9
100
AcDbLine
 10
2755.581124897948
 20
2513.410678399067
 30
0.0
 11
2741.581124897948
 21
2513.410678399067
 31
0.0
  0
LINE
  5
14CE3
330
1A
100
AcDbEntity
  8
SN
 62
     9
100
AcDbLine
 10
2739.581124897948
 20
2513.410678399067
 30
0.0
 11
2725.581124897948
 21
2513.410678399067
 31
0.0
  0
LINE
  5
14CE4
330
1A
100
AcDbEntity
  8
SN
 62
     9
100
AcDbLine
 10
2835.581124897948
 20
2518.735887176847
 30
0.0000000000000107
 11
2821.581124897948
 21
2518.735887176847
 31
0.0000000000000107
  0
LINE
  5
14CE5
330
1A
100
AcDbEntity
  8
SN
 62
     9
100
AcDbLine
 10
2739.581124897948
 20
2518.735887176847
 30
0.0000000000000107
 11
2725.581124897948
 21
2518.735887176847
 31
0.0000000000000107
  0
LINE
  5
14CE6
330
1A
100
AcDbEntity
  8
SN
 62
     9
100
AcDbLine
 10
2835.581124897948
 20
2528.720653635183
 30
0.0000000000000107
 11
2821.581124897948
 21
2528.720653635183
 31
0.0000000000000107
  0
LINE
  5
14CE7
330
1A
100
AcDbEntity
  8
SN
 62
     9
100
AcDbLine
 10
2739.581124897948
 20
2528.720653635183
 30
0.0000000000000107
 11
2725.581124897948
 21
2528.720653635183
 31
0.0000000000000107
  0
LINE
  5
14CE8
330
1A
100
AcDbEntity
  8
SN
 62
     9
100
AcDbLine
 10
2844.581124897948
 20
2533.213798541433
 30
0.0
 11
2712.331124897948
 21
2533.213798541437
 31
0.0
  0
ARC
  5
14CE9
330
1A
100
AcDbEntity
  8
SN
 62
     9
100
AcDbCircle
 10
2712.331124897948
 20
2531.213798541437
 30
-0.0000000000000754
 40
2.0
100
AcDbArc
 50
90.0
 51
180.0
  0
ARC
  5
14CEA
330
1A
100
AcDbEntity
  8
SN
 62
     9
100
AcDbCircle
 10
2844.581124897948
 20
2531.213798541433
 30
-0.0000000000000107
 40
2.0
100
AcDbArc
 50
0.0
 51
90.0
  0
LINE
  5
14CEB
330
1A
100
AcDbEntity
  8
SN
 62
     9
100
AcDbLine
 10
2844.581124897948
 20
2499.605149444268
 30
0.0
 11
2724.136653852751
 21
2499.605149444268
 31
0.0
  0
ARC
  5
14CEC
330
1A
100
AcDbEntity
  8
SN
 62
     9
100
AcDbCircle
 10
2844.581124897948
 20
2501.605149444268
 30
-0.0000000000000107
 40
2.0
100
AcDbArc
 50
270.0
 51
0.0
  0
LINE
  5
14CED
330
1A
100
AcDbEntity
  8
SN
 62
     9
100
AcDbLine
 10
2846.581124897948
 20
2501.605149444268
 30
-0.0000000000000107
 11
2846.581124897948
 21
2531.213798541433
 31
-0.0000000000000107
  0
LINE
  5
14CEE
330
1A
100
AcDbEntity
  8
SN
 62
     9
100
AcDbLine
 10
2710.331124897948
 20
2513.410678399067
 30
-0.0000000000000002
 11
2710.331124897948
 21
2531.213798541437
 31
-0.0000000000000002
  0
ARC
  5
14CEF
330
1A
100
AcDbEntity
  8
SN
 62
     9
100
AcDbCircle
 10
2724.136653852751
 20
2513.410678399067
 30
0.0
 40
13.80552895480287
100
AcDbArc
 50
180.0
 51
270.0
  0
LINE
  5
14CF0
330
1A
100
AcDbEntity
  8
SN
100
AcDbLine
 10
2698.348519223193
 20
2528.257444091821
 30
-0.000000000000197
 11
2698.348519223193
 21
2529.757483312714
 31
-0.000000000000394
  0
LINE
  5
14CF1
330
1A
100
AcDbEntity
  8
SN
100
AcDbLine
 10
2698.348519223193
 20
2529.757483312714
 30
-0.000000000000394
 11
2698.311665496934
 21
2530.14913557791
 31
-0.000000000000394
  0
LINE
  5
14CF2
330
1A
100
AcDbEntity
  8
SN
 62
     9
100
AcDbLine
 10
2857.581124897948
 20
2585.633822447692
 30
0.0
 11
2857.581124897948
 21
2593.887896053252
 31
0.0
  0
LINE
  5
14CF3
330
1A
100
AcDbEntity
  8
SN
 62
     9
100
AcDbLine
 10
2948.965384251435
 20
2585.633822447692
 30
0.0
 11
2857.581124897948
 21
2585.633822447692
 31
0.0
  0
LINE
  5
14CF4
330
1A
100
AcDbEntity
  8
SN
 62
     9
100
AcDbLine
 10
2940.47431767474
 20
2593.887896053252
 30
0.0
 11
2857.581124897948
 21
2593.887896053252
 31
0.0
  0
LINE
  5
14CF5
330
1A
100
AcDbEntity
  8
SN
 62
     9
100
AcDbLine
 10
2857.581124897948
 20
2580.974264767136
 30
0.0
 11
2857.581124897948
 21
2498.257444091817
 31
0.0
  0
LINE
  5
14CF6
330
1A
100
AcDbEntity
  8
SN
 62
     9
100
AcDbLine
 10
2963.543039273991
 20
2580.974264767136
 30
0.0
 11
2857.581124897948
 21
2580.974264767136
 31
0.0
  0
ARC
  5
14CF7
330
1A
100
AcDbEntity
  8
SN
 62
     9
100
AcDbCircle
 10
2940.47431767474
 20
2585.396829476561
 30
0.0
 40
8.491066576691082
100
AcDbArc
 50
1.599382188370606
 51
90.0
  0
LINE
  5
14CF8
330
1A
100
AcDbEntity
  8
SN
 62
     9
100
AcDbLine
 10
2938.955401318923
 20
2596.652883382386
 30
0.0
 11
2713.206848476974
 21
2596.652883382386
 31
0.0
  0
LINE
  5
14CF9
330
1A
100
AcDbEntity
  8
SN
 62
     9
100
AcDbLine
 10
2938.955401318923
 20
2596.652883382386
 30
0.0
 11
2713.206848476974
 21
2596.652883382386
 31
0.0
  0
ELLIPSE
  5
14CFA
330
1A
100
AcDbEntity
  8
SN
 62
     9
100
AcDbEllipse
 10
2938.955401318923
 20
2564.011893160473
 30
0.0
 11
-0.000000000000004
 21
-32.64099022191203
 31
0.0
210
0.0
220
0.0
230
-1.0
 40
0.7541595913461593
 41
3.141592653589793
 42
4.165930485755673
  0
ARC
  5
14CFB
330
1A
100
AcDbEntity
  8
SN
 62
     9
100
AcDbCircle
 10
2920.66635474045
 20
2528.257444091821
 30
-0.000000000000197
 40
30.0
100
AcDbArc
 50
270.0
 51
0.0
  0
ELLIPSE
  5
14CFC
330
1A
100
AcDbEntity
  8
SN
 62
     9
100
AcDbEllipse
 10
2935.808025486669
 20
2574.847573836119
 30
0.0
 11
-0.000000000000004
 21
-32.64099022191203
 31
0.0
210
0.0
220
0.0
230
-1.0
 40
0.7541595913461593
 41
4.523569694442809
 42
5.193802581516269
  0
ARC
  5
14CFD
330
1A
100
AcDbEntity
  8
SN
 62
     9
100
AcDbCircle
 10
3058.130885322706
 20
2521.001678004987
 30
0.0
 40
107.7091986543944
100
AcDbArc
 50
158.9244662857019
 51
176.1373787301883
  0
ELLIPSE
  5
14CFE
330
1A
100
AcDbEntity
  8
SN
 62
     9
100
AcDbEllipse
 10
2713.206848476974
 20
2564.011893160477
 30
0.0
 11
-0.000000000000016
 21
-32.64099022191203
 31
0.0
210
0.0
220
0.0
230
1.0
 40
0.7541595913461593
 41
3.141592653589793
 42
4.165930485755673
  0
ARC
  5
14CFF
330
1A
100
AcDbEntity
  8
SN
 62
     9
100
AcDbCircle
 10
2731.495895055447
 20
2528.257444091821
 30
-0.000000000000197
 40
30.0
100
AcDbArc
 50
180.0
 51
235.4014246662711
  0
ELLIPSE
  5
14D00
330
1A
100
AcDbEntity
  8
SN
 62
     9
100
AcDbEllipse
 10
2716.354224309227
 20
2574.847573836119
 30
0.0
 11
-0.000000000000016
 21
-32.64099022191203
 31
0.0
210
0.0
220
0.0
230
1.0
 40
0.7541595913461593
 41
4.523569694442809
 42
5.193802581516269
  0
ARC
  5
14D01
330
1A
100
AcDbEntity
  8
SN
 62
     9
100
AcDbCircle
 10
2594.03136447319
 20
2521.001678004987
 30
0.0
 40
107.7091986543944
100
AcDbArc
 50
3.862621269811603
 51
21.07553371429808
  0
LINE
  5
14D02
330
1A
100
AcDbEntity
  8
SN
100
AcDbLine
 10
2638.942936398884
 20
1356.400264570998
 30
0.0
 11
2648.442936398888
 21
1356.400264570999
 31
0.0
  0
LINE
  5
14D03
330
1A
100
AcDbEntity
  8
SN
100
AcDbLine
 10
2670.242936398891
 20
1356.400264570997
 30
0.0
 11
2679.742936398887
 21
1356.400264570999
 31
0.0
  0
LINE
  5
14D04
330
1A
100
AcDbEntity
  8
SN
100
AcDbLine
 10
2665.342936398889
 20
1406.150264570999
 30
0.0
 11
2665.342936398889
 21
1400.175146307629
 31
0.0
  0
LINE
  5
14D05
330
1A
100
AcDbEntity
  8
SN
100
AcDbLine
 10
2653.342936398889
 20
1406.150264570999
 30
0.0
 11
2653.342936398889
 21
1400.175146307627
 31
0.0
  0
LINE
  5
14D06
330
1A
100
AcDbEntity
  8
SN
100
AcDbLine
 10
2661.742936398891
 20
1400.175146307629
 30
0.0
 11
2661.742936398891
 21
1385.850264570995
 31
0.0
  0
LINE
  5
14D07
330
1A
100
AcDbEntity
  8
SN
100
AcDbLine
 10
2656.942936398888
 20
1400.175146307628
 30
0.0
 11
2656.942936398888
 21
1385.850264570995
 31
0.0
  0
LINE
  5
14D08
330
1A
100
AcDbEntity
  8
SN
100
AcDbLine
 10
2669.74293639889
 20
1375.150264570997
 30
0.0
 11
2669.74293639889
 21
1356.900264570997
 31
0.0
  0
LINE
  5
14D09
330
1A
100
AcDbEntity
  8
SN
100
AcDbLine
 10
2670.242936398891
 20
1356.400264570997
 30
0.0
 11
2669.74293639889
 21
1356.900264570997
 31
0.0
  0
LINE
  5
14D0A
330
1A
100
AcDbEntity
  8
SN
100
AcDbLine
 10
2679.74293639889
 20
1405.400264570996
 30
0.0
 11
2679.74293639889
 21
1356.400264570998
 31
0.0
  0
LINE
  5
14D0B
330
1A
100
AcDbEntity
  8
SN
100
AcDbLine
 10
2648.942936398888
 20
1375.150264570995
 30
0.0
 11
2648.942936398888
 21
1356.900264570999
 31
0.0
  0
LINE
  5
14D0C
330
1A
100
AcDbEntity
  8
SN
100
AcDbLine
 10
2648.442936398888
 20
1356.400264570999
 30
0.0
 11
2648.942936398888
 21
1356.900264570999
 31
0.0
  0
LINE
  5
14D0D
330
1A
100
AcDbEntity
  8
SN
100
AcDbLine
 10
2638.942936398887
 20
1405.400264570998
 30
0.0
 11
2638.942936398884
 21
1356.400264570997
 31
0.0
  0
LINE
  5
14D0E
330
1A
100
AcDbEntity
  8
SN
100
AcDbLine
 10
2678.142936398885
 20
1411.150264570998
 30
0.0
 11
2678.142936398888
 21
1378.150264570998
 31
0.0
  0
ARC
  5
14D0F
330
1A
100
AcDbEntity
  8
SN
100
AcDbCircle
 10
2675.142936398888
 20
1378.150264570998
 30
0.0
 40
3.0
100
AcDbArc
 50
270.0
 51
0.0
  0
LINE
  5
14D10
330
1A
100
AcDbEntity
  8
SN
100
AcDbLine
 10
2640.542936398886
 20
1411.150264570997
 30
0.0
 11
2640.542936398886
 21
1378.150264570995
 31
0.0
  0
ARC
  5
14D11
330
1A
100
AcDbEntity
  8
SN
100
AcDbCircle
 10
2643.542936398886
 20
1378.150264570995
 30
0.0
 40
3.0
100
AcDbArc
 50
180.0
 51
270.0
  0
LINE
  5
14D12
330
1A
100
AcDbEntity
  8
SN
100
AcDbLine
 10
2640.54293639889
 20
1411.150264570998
 30
0.0
 11
2678.142936398888
 21
1411.150264570998
 31
0.0
  0
LINE
  5
14D13
330
1A
100
AcDbEntity
  8
SN
100
AcDbLine
 10
2643.542936398886
 20
1375.150264570995
 30
0.0
 11
2675.142936398888
 21
1375.150264570998
 31
0.0
  0
LINE
  5
14D14
330
1A
100
AcDbEntity
  8
SN
100
AcDbLine
 10
2656.942936398888
 20
1385.850264570995
 30
0.0
 11
2661.742936398891
 21
1385.850264570997
 31
0.0
  0
LINE
  5
14D15
330
1A
100
AcDbEntity
  8
SN
100
AcDbLine
 10
2679.74293639889
 20
1405.400264570996
 30
0.0
 11
2678.142936398888
 21
1405.400264570996
 31
0.0
  0
LINE
  5
14D16
330
1A
100
AcDbEntity
  8
SN
 62
     0
100
AcDbLine
 10
2640.54293639889
 20
1405.400264570998
 30
0.0
 11
2638.942936398891
 21
1405.400264570998
 31
0.0
  0
ELLIPSE
  5
14D17
330
1A
100
AcDbEntity
  8
SN
100
AcDbEllipse
 10
2638.942936398884
 20
1380.900264570998
 30
0.0
 11
0.0
 21
-24.5
 31
0.0
210
0.0
220
0.0
230
1.0
 40
0.1367346938771946
 41
3.141592653589793
 42
6.283185307179586
  0
ELLIPSE
  5
14D18
330
1A
100
AcDbEntity
  8
SN
100
AcDbEllipse
 10
2679.74293639889
 20
1380.900264570997
 30
0.0
 11
0.0
 21
-24.49999999999818
 31
0.0
210
0.0
220
0.0
230
1.0
 40
0.1367346938775018
 41
0.0
 42
3.141592653589793
  0
LINE
  5
14D19
330
1A
100
AcDbEntity
  8
SN
100
AcDbLine
 10
2648.442936398888
 20
1356.400264570999
 30
0.0
 11
2648.442936398888
 21
1375.150264570995
 31
0.0
  0
LINE
  5
14D1A
330
1A
100
AcDbEntity
  8
SN
100
AcDbLine
 10
2670.242936398891
 20
1356.400264570997
 30
0.0
 11
2670.242936398887
 21
1375.150264570996
 31
0.0
  0
LINE
  5
14D1B
330
1A
100
AcDbEntity
  8
SN
100
AcDbLine
 10
2653.342936398889
 20
1406.150264570999
 30
0.0
 11
2665.342936398889
 21
1406.150264570998
 31
0.0
  0
LINE
  5
14D1C
330
1A
100
AcDbEntity
  8
SN
100
AcDbLine
 10
2653.342936398889
 20
1402.150264570998
 30
0.0
 11
2665.342936398889
 21
1402.150264570999
 31
0.0
  0
LINE
  5
14D1D
330
1A
100
AcDbEntity
  8
SN
100
AcDbLine
 10
2653.342936398889
 20
1400.175146307628
 30
0.0
 11
2665.342936398893
 21
1400.175146307629
 31
0.0
  0
LINE
  5
14D1E
330
1A
100
AcDbEntity
  8
SN
100
AcDbLine
 10
2659.342936398889
 20
1411.150264570998
 30
0.0
 11
2652.342936398889
 21
1411.150264570998
 31
0.0
  0
LINE
  5
14D1F
330
1A
100
AcDbEntity
  8
SN
100
AcDbLine
 10
2652.342936398889
 20
1411.150264570998
 30
0.0
 11
2652.342936398889
 21
1414.150264570998
 31
0.0
  0
LINE
  5
14D20
330
1A
100
AcDbEntity
  8
SN
100
AcDbLine
 10
2652.342936398889
 20
1414.150264570998
 30
0.0
 11
2666.342936398889
 21
1414.150264570998
 31
0.0
  0
LINE
  5
14D21
330
1A
100
AcDbEntity
  8
SN
100
AcDbLine
 10
2666.342936398889
 20
1414.150264570998
 30
0.0
 11
2666.342936398889
 21
1411.150264570998
 31
0.0
  0
LINE
  5
14D22
330
1A
100
AcDbEntity
  8
SN
100
AcDbLine
 10
2659.342936398889
 20
1414.150264570998
 30
0.0
 11
2659.342936398889
 21
1411.150264570998
 31
0.0
  0
LINE
  5
14D23
330
1A
100
AcDbEntity
  8
SN
100
AcDbLine
 10
2701.34924260385
 20
1356.400264570998
 30
0.0
 11
2710.849242603854
 21
1356.400264570999
 31
0.0
  0
LINE
  5
14D24
330
1A
100
AcDbEntity
  8
SN
100
AcDbLine
 10
2732.649242603857
 20
1356.400264570997
 30
0.0
 11
2742.149242603853
 21
1356.400264570999
 31
0.0
  0
LINE
  5
14D25
330
1A
100
AcDbEntity
  8
SN
100
AcDbLine
 10
2727.749242603855
 20
1406.150264570999
 30
0.0
 11
2727.749242603855
 21
1400.175146307629
 31
0.0
  0
LINE
  5
14D26
330
1A
100
AcDbEntity
  8
SN
100
AcDbLine
 10
2715.749242603855
 20
1406.150264570999
 30
0.0
 11
2715.749242603855
 21
1400.175146307627
 31
0.0
  0
LINE
  5
14D27
330
1A
100
AcDbEntity
  8
SN
100
AcDbLine
 10
2724.149242603857
 20
1400.175146307629
 30
0.0
 11
2724.149242603857
 21
1385.850264570995
 31
0.0
  0
LINE
  5
14D28
330
1A
100
AcDbEntity
  8
SN
100
AcDbLine
 10
2719.349242603854
 20
1400.175146307628
 30
0.0
 11
2719.349242603854
 21
1385.850264570995
 31
0.0
  0
LINE
  5
14D29
330
1A
100
AcDbEntity
  8
SN
100
AcDbLine
 10
2732.149242603857
 20
1375.150264570997
 30
0.0
 11
2732.149242603857
 21
1356.900264570997
 31
0.0
  0
LINE
  5
14D2A
330
1A
100
AcDbEntity
  8
SN
100
AcDbLine
 10
2732.649242603857
 20
1356.400264570997
 30
0.0
 11
2732.149242603857
 21
1356.900264570997
 31
0.0
  0
LINE
  5
14D2B
330
1A
100
AcDbEntity
  8
SN
100
AcDbLine
 10
2742.149242603857
 20
1405.400264570996
 30
0.0
 11
2742.149242603857
 21
1356.400264570998
 31
0.0
  0
LINE
  5
14D2C
330
1A
100
AcDbEntity
  8
SN
100
AcDbLine
 10
2711.349242603854
 20
1375.150264570995
 30
0.0
 11
2711.349242603854
 21
1356.900264570999
 31
0.0
  0
LINE
  5
14D2D
330
1A
100
AcDbEntity
  8
SN
100
AcDbLine
 10
2710.849242603854
 20
1356.400264570999
 30
0.0
 11
2711.349242603854
 21
1356.900264570999
 31
0.0
  0
LINE
  5
14D2E
330
1A
100
AcDbEntity
  8
SN
100
AcDbLine
 10
2701.349242603854
 20
1405.400264570998
 30
0.0
 11
2701.34924260385
 21
1356.400264570997
 31
0.0
  0
LINE
  5
14D2F
330
1A
100
AcDbEntity
  8
SN
100
AcDbLine
 10
2740.549242603851
 20
1411.150264570998
 30
0.0
 11
2740.549242603855
 21
1378.150264570998
 31
0.0
  0
ARC
  5
14D30
330
1A
100
AcDbEntity
  8
SN
100
AcDbCircle
 10
2737.549242603855
 20
1378.150264570998
 30
0.0
 40
3.0
100
AcDbArc
 50
270.0
 51
0.0
  0
LINE
  5
14D31
330
1A
100
AcDbEntity
  8
SN
100
AcDbLine
 10
2702.949242603852
 20
1411.150264570997
 30
0.0
 11
2702.949242603852
 21
1378.150264570995
 31
0.0
  0
ARC
  5
14D32
330
1A
100
AcDbEntity
  8
SN
100
AcDbCircle
 10
2705.949242603852
 20
1378.150264570995
 30
0.0
 40
3.0
100
AcDbArc
 50
180.0
 51
270.0
  0
LINE
  5
14D33
330
1A
100
AcDbEntity
  8
SN
100
AcDbLine
 10
2702.949242603856
 20
1411.150264570998
 30
0.0
 11
2740.549242603855
 21
1411.150264570998
 31
0.0
  0
LINE
  5
14D34
330
1A
100
AcDbEntity
  8
SN
100
AcDbLine
 10
2705.949242603852
 20
1375.150264570995
 30
0.0
 11
2737.549242603855
 21
1375.150264570998
 31
0.0
  0
LINE
  5
14D35
330
1A
100
AcDbEntity
  8
SN
100
AcDbLine
 10
2719.349242603854
 20
1385.850264570995
 30
0.0
 11
2724.149242603857
 21
1385.850264570997
 31
0.0
  0
LINE
  5
14D36
330
1A
100
AcDbEntity
  8
SN
100
AcDbLine
 10
2742.149242603857
 20
1405.400264570996
 30
0.0
 11
2740.549242603855
 21
1405.400264570996
 31
0.0
  0
LINE
  5
14D37
330
1A
100
AcDbEntity
  8
SN
100
AcDbLine
 10
2702.949242603856
 20
1405.400264570998
 30
0.0
 11
2701.349242603857
 21
1405.400264570998
 31
0.0
  0
ELLIPSE
  5
14D38
330
1A
100
AcDbEntity
  8
SN
100
AcDbEllipse
 10
2701.34924260385
 20
1380.900264570998
 30
0.0
 11
0.0
 21
-24.5
 31
0.0
210
0.0
220
0.0
230
1.0
 40
0.1367346938771946
 41
3.141592653589793
 42
6.283185307179586
  0
ELLIPSE
  5
14D39
330
1A
100
AcDbEntity
  8
SN
100
AcDbEllipse
 10
2742.149242603857
 20
1380.900264570997
 30
0.0
 11
0.0
 21
-24.49999999999818
 31
0.0
210
0.0
220
0.0
230
1.0
 40
0.1367346938775018
 41
0.0
 42
3.141592653589793
  0
LINE
  5
14D3A
330
1A
100
AcDbEntity
  8
SN
100
AcDbLine
 10
2710.849242603854
 20
1356.400264570999
 30
0.0
 11
2710.849242603854
 21
1375.150264570995
 31
0.0
  0
LINE
  5
14D3B
330
1A
100
AcDbEntity
  8
SN
100
AcDbLine
 10
2732.649242603857
 20
1356.400264570997
 30
0.0
 11
2732.649242603853
 21
1375.150264570996
 31
0.0
  0
LINE
  5
14D3C
330
1A
100
AcDbEntity
  8
SN
100
AcDbLine
 10
2715.749242603855
 20
1406.150264570999
 30
0.0
 11
2727.749242603855
 21
1406.150264570998
 31
0.0
  0
LINE
  5
14D3D
330
1A
100
AcDbEntity
  8
SN
100
AcDbLine
 10
2715.749242603855
 20
1402.150264570998
 30
0.0
 11
2727.749242603855
 21
1402.150264570999
 31
0.0
  0
LINE
  5
14D3E
330
1A
100
AcDbEntity
  8
SN
100
AcDbLine
 10
2715.749242603855
 20
1400.175146307628
 30
0.0
 11
2727.749242603859
 21
1400.175146307629
 31
0.0
  0
LINE
  5
14D3F
330
1A
100
AcDbEntity
  8
SN
100
AcDbLine
 10
2721.749242603856
 20
1411.150264570998
 30
0.0
 11
2714.749242603855
 21
1411.150264570998
 31
0.0
  0
LINE
  5
14D40
330
1A
100
AcDbEntity
  8
SN
100
AcDbLine
 10
2714.749242603855
 20
1411.150264570998
 30
0.0
 11
2714.749242603855
 21
1414.150264570998
 31
0.0
  0
LINE
  5
14D41
330
1A
100
AcDbEntity
  8
SN
100
AcDbLine
 10
2714.749242603855
 20
1414.150264570998
 30
0.0
 11
2728.749242603856
 21
1414.150264570998
 31
0.0
  0
LINE
  5
14D42
330
1A
100
AcDbEntity
  8
SN
100
AcDbLine
 10
2728.749242603856
 20
1414.150264570998
 30
0.0
 11
2728.749242603856
 21
1411.150264570998
 31
0.0
  0
LINE
  5
14D43
330
1A
100
AcDbEntity
  8
SN
100
AcDbLine
 10
2721.749242603856
 20
1414.150264570998
 30
0.0
 11
2721.749242603856
 21
1411.150264570998
 31
0.0
  0
LINE
  5
14D44
330
1A
100
AcDbEntity
  8
SN
100
AcDbLine
 10
2805.681124897943
 20
1356.400264570998
 30
0.0
 11
2815.181124897947
 21
1356.400264570999
 31
0.0
  0
LINE
  5
14D45
330
1A
100
AcDbEntity
  8
SN
100
AcDbLine
 10
2836.981124897949
 20
1356.400264570997
 30
0.0
 11
2846.481124897946
 21
1356.400264570999
 31
0.0
  0
LINE
  5
14D46
330
1A
100
AcDbEntity
  8
SN
100
AcDbLine
 10
2832.081124897948
 20
1406.150264570999
 30
0.0
 11
2832.081124897948
 21
1400.175146307629
 31
0.0
  0
LINE
  5
14D47
330
1A
100
AcDbEntity
  8
SN
100
AcDbLine
 10
2820.081124897948
 20
1406.150264570999
 30
0.0
 11
2820.081124897948
 21
1400.175146307627
 31
0.0
  0
LINE
  5
14D48
330
1A
100
AcDbEntity
  8
SN
100
AcDbLine
 10
2828.48112489795
 20
1400.175146307629
 30
0.0
 11
2828.48112489795
 21
1385.850264570995
 31
0.0
  0
LINE
  5
14D49
330
1A
100
AcDbEntity
  8
SN
100
AcDbLine
 10
2823.681124897947
 20
1400.175146307628
 30
0.0
 11
2823.681124897947
 21
1385.850264570995
 31
0.0
  0
LINE
  5
14D4A
330
1A
100
AcDbEntity
  8
SN
100
AcDbLine
 10
2836.48112489795
 20
1375.150264570997
 30
0.0
 11
2836.48112489795
 21
1356.900264570997
 31
0.0
  0
LINE
  5
14D4B
330
1A
100
AcDbEntity
  8
SN
100
AcDbLine
 10
2836.981124897949
 20
1356.400264570997
 30
0.0
 11
2836.48112489795
 21
1356.900264570997
 31
0.0
  0
LINE
  5
14D4C
330
1A
100
AcDbEntity
  8
SN
100
AcDbLine
 10
2846.48112489795
 20
1405.400264570996
 30
0.0
 11
2846.48112489795
 21
1356.400264570998
 31
0.0
  0
LINE
  5
14D4D
330
1A
100
AcDbEntity
  8
SN
100
AcDbLine
 10
2815.681124897947
 20
1375.150264570995
 30
0.0
 11
2815.681124897947
 21
1356.900264570999
 31
0.0
  0
LINE
  5
14D4E
330
1A
100
AcDbEntity
  8
SN
100
AcDbLine
 10
2815.181124897947
 20
1356.400264570999
 30
0.0
 11
2815.681124897947
 21
1356.900264570999
 31
0.0
  0
LINE
  5
14D4F
330
1A
100
AcDbEntity
  8
SN
100
AcDbLine
 10
2805.681124897947
 20
1405.400264570998
 30
0.0
 11
2805.681124897943
 21
1356.400264570997
 31
0.0
  0
LINE
  5
14D50
330
1A
100
AcDbEntity
  8
SN
100
AcDbLine
 10
2844.881124897944
 20
1411.150264570998
 30
0.0
 11
2844.881124897947
 21
1378.150264570998
 31
0.0
  0
ARC
  5
14D51
330
1A
100
AcDbEntity
  8
SN
100
AcDbCircle
 10
2841.881124897947
 20
1378.150264570998
 30
0.0
 40
3.0
100
AcDbArc
 50
270.0
 51
0.0
  0
LINE
  5
14D52
330
1A
100
AcDbEntity
  8
SN
100
AcDbLine
 10
2807.281124897945
 20
1411.150264570997
 30
0.0
 11
2807.281124897945
 21
1378.150264570995
 31
0.0
  0
ARC
  5
14D53
330
1A
100
AcDbEntity
  8
SN
100
AcDbCircle
 10
2810.281124897946
 20
1378.150264570995
 30
0.0
 40
3.0
100
AcDbArc
 50
180.0
 51
270.0
  0
LINE
  5
14D54
330
1A
100
AcDbEntity
  8
SN
100
AcDbLine
 10
2807.281124897949
 20
1411.150264570998
 30
0.0
 11
2844.881124897947
 21
1411.150264570998
 31
0.0
  0
LINE
  5
14D55
330
1A
100
AcDbEntity
  8
SN
100
AcDbLine
 10
2810.281124897946
 20
1375.150264570995
 30
0.0
 11
2841.881124897947
 21
1375.150264570998
 31
0.0
  0
LINE
  5
14D56
330
1A
100
AcDbEntity
  8
SN
100
AcDbLine
 10
2823.681124897947
 20
1385.850264570995
 30
0.0
 11
2828.48112489795
 21
1385.850264570997
 31
0.0
  0
LINE
  5
14D57
330
1A
100
AcDbEntity
  8
SN
100
AcDbLine
 10
2846.48112489795
 20
1405.400264570996
 30
0.0
 11
2844.881124897947
 21
1405.400264570996
 31
0.0
  0
LINE
  5
14D58
330
1A
100
AcDbEntity
  8
SN
100
AcDbLine
 10
2807.281124897949
 20
1405.400264570998
 30
0.0
 11
2805.681124897951
 21
1405.400264570998
 31
0.0
  0
ELLIPSE
  5
14D59
330
1A
100
AcDbEntity
  8
SN
100
AcDbEllipse
 10
2805.681124897943
 20
1380.900264570998
 30
0.0
 11
0.0
 21
-24.5
 31
0.0
210
0.0
220
0.0
230
1.0
 40
0.1367346938771946
 41
3.141592653589793
 42
6.283185307179586
  0
ELLIPSE
  5
14D5A
330
1A
100
AcDbEntity
  8
SN
100
AcDbEllipse
 10
2846.48112489795
 20
1380.900264570997
 30
0.0
 11
0.0
 21
-24.49999999999818
 31
0.0
210
0.0
220
0.0
230
1.0
 40
0.1367346938775018
 41
0.0
 42
3.141592653589793
  0
LINE
  5
14D5B
330
1A
100
AcDbEntity
  8
SN
100
AcDbLine
 10
2815.181124897947
 20
1356.400264570999
 30
0.0
 11
2815.181124897947
 21
1375.150264570995
 31
0.0
  0
LINE
  5
14D5C
330
1A
100
AcDbEntity
  8
SN
100
AcDbLine
 10
2836.981124897949
 20
1356.400264570997
 30
0.0
 11
2836.981124897946
 21
1375.150264570996
 31
0.0
  0
LINE
  5
14D5D
330
1A
100
AcDbEntity
  8
SN
100
AcDbLine
 10
2820.081124897948
 20
1406.150264570999
 30
0.0
 11
2832.081124897948
 21
1406.150264570998
 31
0.0
  0
LINE
  5
14D5E
330
1A
100
AcDbEntity
  8
SN
100
AcDbLine
 10
2820.081124897948
 20
1402.150264570998
 30
0.0
 11
2832.081124897948
 21
1402.150264570999
 31
0.0
  0
LINE
  5
14D5F
330
1A
100
AcDbEntity
  8
SN
100
AcDbLine
 10
2820.081124897948
 20
1400.175146307628
 30
0.0
 11
2832.081124897952
 21
1400.175146307629
 31
0.0
  0
LINE
  5
14D60
330
1A
100
AcDbEntity
  8
SN
100
AcDbLine
 10
2826.081124897948
 20
1411.150264570998
 30
0.0
 11
2819.081124897948
 21
1411.150264570998
 31
0.0
  0
LINE
  5
14D61
330
1A
100
AcDbEntity
  8
SN
100
AcDbLine
 10
2819.081124897948
 20
1411.150264570998
 30
0.0
 11
2819.081124897948
 21
1414.150264570998
 31
0.0
  0
LINE
  5
14D62
330
1A
100
AcDbEntity
  8
SN
100
AcDbLine
 10
2819.081124897948
 20
1414.150264570998
 30
0.0
 11
2833.081124897948
 21
1414.150264570998
 31
0.0
  0
LINE
  5
14D63
330
1A
100
AcDbEntity
  8
SN
100
AcDbLine
 10
2833.081124897948
 20
1414.150264570998
 30
0.0
 11
2833.081124897948
 21
1411.150264570998
 31
0.0
  0
LINE
  5
14D64
330
1A
100
AcDbEntity
  8
SN
100
AcDbLine
 10
2826.081124897948
 20
1414.150264570998
 30
0.0
 11
2826.081124897948
 21
1411.150264570998
 31
0.0
  0
LINE
  5
14D65
330
1A
100
AcDbEntity
  8
SN
100
AcDbLine
 10
2910.01300719204
 20
1356.400264570998
 30
0.0
 11
2919.513007192043
 21
1356.400264570999
 31
0.0
  0
LINE
  5
14D66
330
1A
100
AcDbEntity
  8
SN
100
AcDbLine
 10
2941.313007192046
 20
1356.400264570997
 30
0.0
 11
2950.813007192043
 21
1356.400264570999
 31
0.0
  0
LINE
  5
14D67
330
1A
100
AcDbEntity
  8
SN
100
AcDbLine
 10
2936.413007192045
 20
1406.150264570999
 30
0.0
 11
2936.413007192045
 21
1400.175146307629
 31
0.0
  0
LINE
  5
14D68
330
1A
100
AcDbEntity
  8
SN
100
AcDbLine
 10
2924.413007192045
 20
1406.150264570999
 30
0.0
 11
2924.413007192045
 21
1400.175146307627
 31
0.0
  0
LINE
  5
14D69
330
1A
100
AcDbEntity
  8
SN
100
AcDbLine
 10
2932.813007192046
 20
1400.175146307629
 30
0.0
 11
2932.813007192046
 21
1385.850264570995
 31
0.0
  0
LINE
  5
14D6A
330
1A
100
AcDbEntity
  8
SN
100
AcDbLine
 10
2928.013007192043
 20
1400.175146307628
 30
0.0
 11
2928.013007192043
 21
1385.850264570995
 31
0.0
  0
LINE
  5
14D6B
330
1A
100
AcDbEntity
  8
SN
100
AcDbLine
 10
2940.813007192046
 20
1375.150264570997
 30
0.0
 11
2940.813007192046
 21
1356.900264570997
 31
0.0
  0
LINE
  5
14D6C
330
1A
100
AcDbEntity
  8
SN
100
AcDbLine
 10
2941.313007192046
 20
1356.400264570997
 30
0.0
 11
2940.813007192046
 21
1356.900264570997
 31
0.0
  0
LINE
  5
14D6D
330
1A
100
AcDbEntity
  8
SN
100
AcDbLine
 10
2950.813007192046
 20
1405.400264570996
 30
0.0
 11
2950.813007192046
 21
1356.400264570998
 31
0.0
  0
LINE
  5
14D6E
330
1A
100
AcDbEntity
  8
SN
100
AcDbLine
 10
2920.013007192043
 20
1375.150264570995
 30
0.0
 11
2920.013007192043
 21
1356.900264570999
 31
0.0
  0
LINE
  5
14D6F
330
1A
100
AcDbEntity
  8
SN
100
AcDbLine
 10
2919.513007192043
 20
1356.400264570999
 30
0.0
 11
2920.013007192043
 21
1356.900264570999
 31
0.0
  0
LINE
  5
14D70
330
1A
100
AcDbEntity
  8
SN
100
AcDbLine
 10
2910.013007192043
 20
1405.400264570998
 30
0.0
 11
2910.01300719204
 21
1356.400264570997
 31
0.0
  0
LINE
  5
14D71
330
1A
100
AcDbEntity
  8
SN
100
AcDbLine
 10
2949.21300719204
 20
1411.150264570998
 30
0.0
 11
2949.213007192044
 21
1378.150264570998
 31
0.0
  0
ARC
  5
14D72
330
1A
100
AcDbEntity
  8
SN
100
AcDbCircle
 10
2946.213007192044
 20
1378.150264570998
 30
0.0
 40
3.0
100
AcDbArc
 50
270.0
 51
0.0
  0
LINE
  5
14D73
330
1A
100
AcDbEntity
  8
SN
100
AcDbLine
 10
2911.613007192041
 20
1411.150264570997
 30
0.0
 11
2911.613007192041
 21
1378.150264570995
 31
0.0
  0
ARC
  5
14D74
330
1A
100
AcDbEntity
  8
SN
100
AcDbCircle
 10
2914.613007192042
 20
1378.150264570995
 30
0.0
 40
3.0
100
AcDbArc
 50
180.0
 51
270.0
  0
LINE
  5
14D75
330
1A
100
AcDbEntity
  8
SN
100
AcDbLine
 10
2911.613007192045
 20
1411.150264570998
 30
0.0
 11
2949.213007192044
 21
1411.150264570998
 31
0.0
  0
LINE
  5
14D76
330
1A
100
AcDbEntity
  8
SN
100
AcDbLine
 10
2914.613007192042
 20
1375.150264570995
 30
0.0
 11
2946.213007192044
 21
1375.150264570998
 31
0.0
  0
LINE
  5
14D77
330
1A
100
AcDbEntity
  8
SN
100
AcDbLine
 10
2928.013007192043
 20
1385.850264570995
 30
0.0
 11
2932.813007192046
 21
1385.850264570997
 31
0.0
  0
LINE
  5
14D78
330
1A
100
AcDbEntity
  8
SN
100
AcDbLine
 10
2950.813007192046
 20
1405.400264570996
 30
0.0
 11
2949.213007192044
 21
1405.400264570996
 31
0.0
  0
LINE
  5
14D79
330
1A
100
AcDbEntity
  8
SN
100
AcDbLine
 10
2911.613007192045
 20
1405.400264570998
 30
0.0
 11
2910.013007192047
 21
1405.400264570998
 31
0.0
  0
ELLIPSE
  5
14D7A
330
1A
100
AcDbEntity
  8
SN
100
AcDbEllipse
 10
2910.01300719204
 20
1380.900264570998
 30
0.0
 11
0.0
 21
-24.5
 31
0.0
210
0.0
220
0.0
230
1.0
 40
0.1367346938771946
 41
3.141592653589793
 42
6.283185307179586
  0
ELLIPSE
  5
14D7B
330
1A
100
AcDbEntity
  8
SN
100
AcDbEllipse
 10
2950.813007192046
 20
1380.900264570997
 30
0.0
 11
0.0
 21
-24.49999999999818
 31
0.0
210
0.0
220
0.0
230
1.0
 40
0.1367346938775018
 41
0.0
 42
3.141592653589793
  0
LINE
  5
14D7C
330
1A
100
AcDbEntity
  8
SN
100
AcDbLine
 10
2919.513007192043
 20
1356.400264570999
 30
0.0
 11
2919.513007192043
 21
1375.150264570995
 31
0.0
  0
LINE
  5
14D7D
330
1A
100
AcDbEntity
  8
SN
100
AcDbLine
 10
2941.313007192046
 20
1356.400264570997
 30
0.0
 11
2941.313007192043
 21
1375.150264570996
 31
0.0
  0
LINE
  5
14D7E
330
1A
100
AcDbEntity
  8
SN
100
AcDbLine
 10
2924.413007192045
 20
1406.150264570999
 30
0.0
 11
2936.413007192045
 21
1406.150264570998
 31
0.0
  0
LINE
  5
14D7F
330
1A
100
AcDbEntity
  8
SN
100
AcDbLine
 10
2924.413007192045
 20
1402.150264570998
 30
0.0
 11
2936.413007192045
 21
1402.150264570999
 31
0.0
  0
LINE
  5
14D80
330
1A
100
AcDbEntity
  8
SN
100
AcDbLine
 10
2924.413007192045
 20
1400.175146307628
 30
0.0
 11
2936.413007192048
 21
1400.175146307629
 31
0.0
  0
LINE
  5
14D81
330
1A
100
AcDbEntity
  8
SN
100
AcDbLine
 10
2930.413007192044
 20
1411.150264570998
 30
0.0
 11
2923.413007192045
 21
1411.150264570998
 31
0.0
  0
LINE
  5
14D82
330
1A
100
AcDbEntity
  8
SN
100
AcDbLine
 10
2923.413007192045
 20
1411.150264570998
 30
0.0
 11
2923.413007192045
 21
1414.150264570998
 31
0.0
  0
LINE
  5
14D83
330
1A
100
AcDbEntity
  8
SN
100
AcDbLine
 10
2923.413007192045
 20
1414.150264570998
 30
0.0
 11
2937.413007192045
 21
1414.150264570998
 31
0.0
  0
LINE
  5
14D84
330
1A
100
AcDbEntity
  8
SN
100
AcDbLine
 10
2937.413007192045
 20
1414.150264570998
 30
0.0
 11
2937.413007192045
 21
1411.150264570998
 31
0.0
  0
LINE
  5
14D85
330
1A
100
AcDbEntity
  8
SN
100
AcDbLine
 10
2930.413007192044
 20
1414.150264570998
 30
0.0
 11
2930.413007192044
 21
1411.150264570998
 31
0.0
  0
LINE
  5
14D86
330
1A
100
AcDbEntity
  8
SN
 62
     0
100
AcDbLine
 10
2974.493656532804
 20
1356.400264570998
 30
0.0
 11
2983.993656532808
 21
1356.400264570999
 31
0.0
  0
LINE
  5
14D87
330
1A
100
AcDbEntity
  8
SN
 62
     0
100
AcDbLine
 10
3005.793656532811
 20
1356.400264570997
 30
0.0
 11
3015.293656532807
 21
1356.400264570999
 31
0.0
  0
LINE
  5
14D88
330
1A
100
AcDbEntity
  8
SN
 62
     0
100
AcDbLine
 10
3000.89365653281
 20
1406.150264570999
 30
0.0
 11
3000.89365653281
 21
1400.175146307629
 31
0.0
  0
LINE
  5
14D89
330
1A
100
AcDbEntity
  8
SN
 62
     0
100
AcDbLine
 10
2988.893656532809
 20
1406.150264570999
 30
0.0
 11
2988.893656532809
 21
1400.175146307627
 31
0.0
  0
LINE
  5
14D8A
330
1A
100
AcDbEntity
  8
SN
 62
     0
100
AcDbLine
 10
2997.293656532811
 20
1400.175146307629
 30
0.0
 11
2997.293656532811
 21
1385.850264570995
 31
0.0
  0
LINE
  5
14D8B
330
1A
100
AcDbEntity
  8
SN
 62
     0
100
AcDbLine
 10
2992.493656532808
 20
1400.175146307628
 30
0.0
 11
2992.493656532808
 21
1385.850264570995
 31
0.0
  0
LINE
  5
14D8C
330
1A
100
AcDbEntity
  8
SN
 62
     0
100
AcDbLine
 10
3005.293656532811
 20
1375.150264570997
 30
0.0
 11
3005.293656532811
 21
1356.900264570997
 31
0.0
  0
LINE
  5
14D8D
330
1A
100
AcDbEntity
  8
SN
 62
     0
100
AcDbLine
 10
3005.793656532811
 20
1356.400264570997
 30
0.0
 11
3005.293656532811
 21
1356.900264570997
 31
0.0
  0
LINE
  5
14D8E
330
1A
100
AcDbEntity
  8
SN
 62
     0
100
AcDbLine
 10
3015.293656532811
 20
1405.400264570996
 30
0.0
 11
3015.293656532811
 21
1356.400264570998
 31
0.0
  0
LINE
  5
14D8F
330
1A
100
AcDbEntity
  8
SN
 62
     0
100
AcDbLine
 10
2984.493656532808
 20
1375.150264570995
 30
0.0
 11
2984.493656532808
 21
1356.900264570999
 31
0.0
  0
LINE
  5
14D90
330
1A
100
AcDbEntity
  8
SN
 62
     0
100
AcDbLine
 10
2983.993656532808
 20
1356.400264570999
 30
0.0
 11
2984.493656532808
 21
1356.900264570999
 31
0.0
  0
LINE
  5
14D91
330
1A
100
AcDbEntity
  8
SN
 62
     0
100
AcDbLine
 10
2974.493656532808
 20
1405.400264570998
 30
0.0
 11
2974.493656532804
 21
1356.400264570997
 31
0.0
  0
LINE
  5
14D92
330
1A
100
AcDbEntity
  8
SN
 62
     0
100
AcDbLine
 10
3013.693656532805
 20
1411.150264570998
 30
0.0
 11
3013.693656532809
 21
1378.150264570998
 31
0.0
  0
ARC
  5
14D93
330
1A
100
AcDbEntity
  8
SN
 62
     0
100
AcDbCircle
 10
3010.693656532809
 20
1378.150264570998
 30
0.0
 40
3.0
100
AcDbArc
 50
270.0
 51
0.0
  0
LINE
  5
14D94
330
1A
100
AcDbEntity
  8
SN
 62
     0
100
AcDbLine
 10
2976.093656532807
 20
1411.150264570997
 30
0.0
 11
2976.093656532807
 21
1378.150264570995
 31
0.0
  0
ARC
  5
14D95
330
1A
100
AcDbEntity
  8
SN
 62
     0
100
AcDbCircle
 10
2979.093656532807
 20
1378.150264570995
 30
0.0
 40
3.0
100
AcDbArc
 50
180.0
 51
270.0
  0
LINE
  5
14D96
330
1A
100
AcDbEntity
  8
SN
 62
     0
100
AcDbLine
 10
2976.09365653281
 20
1411.150264570998
 30
0.0
 11
3013.693656532809
 21
1411.150264570998
 31
0.0
  0
LINE
  5
14D97
330
1A
100
AcDbEntity
  8
SN
 62
     0
100
AcDbLine
 10
2979.093656532807
 20
1375.150264570995
 30
0.0
 11
3010.693656532809
 21
1375.150264570998
 31
0.0
  0
LINE
  5
14D98
330
1A
100
AcDbEntity
  8
SN
 62
     0
100
AcDbLine
 10
2992.493656532808
 20
1385.850264570995
 30
0.0
 11
2997.293656532811
 21
1385.850264570997
 31
0.0
  0
LINE
  5
14D99
330
1A
100
AcDbEntity
  8
SN
 62
     0
100
AcDbLine
 10
3015.293656532811
 20
1405.400264570996
 30
0.0
 11
3013.693656532809
 21
1405.400264570996
 31
0.0
  0
LINE
  5
14D9A
330
1A
100
AcDbEntity
  8
SN
 62
     0
100
AcDbLine
 10
2976.09365653281
 20
1405.400264570998
 30
0.0
 11
2974.493656532812
 21
1405.400264570998
 31
0.0
  0
ELLIPSE
  5
14D9B
330
1A
100
AcDbEntity
  8
SN
 62
     0
100
AcDbEllipse
 10
2974.493656532804
 20
1380.900264570998
 30
0.0
 11
0.0
 21
-24.5
 31
0.0
210
0.0
220
0.0
230
1.0
 40
0.1367346938771946
 41
3.141592653589793
 42
6.283185307179586
  0
ELLIPSE
  5
14D9C
330
1A
100
AcDbEntity
  8
SN
 62
     0
100
AcDbEllipse
 10
3015.293656532811
 20
1380.900264570997
 30
0.0
 11
0.0
 21
-24.49999999999818
 31
0.0
210
0.0
220
0.0
230
1.0
 40
0.1367346938775018
 41
0.0
 42
3.141592653589793
  0
LINE
  5
14D9D
330
1A
100
AcDbEntity
  8
SN
 62
     0
100
AcDbLine
 10
2983.993656532808
 20
1356.400264570999
 30
0.0
 11
2983.993656532808
 21
1375.150264570995
 31
0.0
  0
LINE
  5
14D9E
330
1A
100
AcDbEntity
  8
SN
 62
     0
100
AcDbLine
 10
3005.793656532811
 20
1356.400264570997
 30
0.0
 11
3005.793656532807
 21
1375.150264570996
 31
0.0
  0
LINE
  5
14D9F
330
1A
100
AcDbEntity
  8
SN
 62
     0
100
AcDbLine
 10
2988.893656532809
 20
1406.150264570999
 30
0.0
 11
3000.89365653281
 21
1406.150264570998
 31
0.0
  0
LINE
  5
14DA0
330
1A
100
AcDbEntity
  8
SN
 62
     0
100
AcDbLine
 10
2988.893656532809
 20
1402.150264570998
 30
0.0
 11
3000.89365653281
 21
1402.150264570999
 31
0.0
  0
LINE
  5
14DA1
330
1A
100
AcDbEntity
  8
SN
 62
     0
100
AcDbLine
 10
2988.893656532809
 20
1400.175146307628
 30
0.0
 11
3000.893656532813
 21
1400.175146307629
 31
0.0
  0
LINE
  5
14DA2
330
1A
100
AcDbEntity
  8
SN
 62
     0
100
AcDbLine
 10
2994.89365653281
 20
1411.150264570998
 30
0.0
 11
2987.89365653281
 21
1411.150264570998
 31
0.0
  0
LINE
  5
14DA3
330
1A
100
AcDbEntity
  8
SN
 62
     0
100
AcDbLine
 10
2987.89365653281
 20
1411.150264570998
 30
0.0
 11
2987.89365653281
 21
1414.150264570998
 31
0.0
  0
LINE
  5
14DA4
330
1A
100
AcDbEntity
  8
SN
 62
     0
100
AcDbLine
 10
2987.89365653281
 20
1414.150264570998
 30
0.0
 11
3001.893656532809
 21
1414.150264570998
 31
0.0
  0
LINE
  5
14DA5
330
1A
100
AcDbEntity
  8
SN
 62
     0
100
AcDbLine
 10
3001.893656532809
 20
1414.150264570998
 30
0.0
 11
3001.893656532809
 21
1411.150264570998
 31
0.0
  0
LINE
  5
14DA6
330
1A
100
AcDbEntity
  8
SN
 62
     0
100
AcDbLine
 10
2994.89365653281
 20
1414.150264570998
 30
0.0
 11
2994.89365653281
 21
1411.150264570998
 31
0.0
  0
LINE
  5
14DA7
330
1A
100
AcDbEntity
  8
SN
100
AcDbLine
 10
2846.481124897957
 20
2424.614289791337
 30
0.0
 11
2844.881124897951
 21
2424.614289791341
 31
0.0
  0
LINE
  5
14DA8
330
1A
100
AcDbEntity
  8
SN
100
AcDbLine
 10
2807.281124897949
 20
2424.614289791334
 30
0.0
 11
2805.681124897954
 21
2424.614289791334
 31
0.0
  0
LINE
  5
14DA9
330
1A
100
AcDbEntity
  8
SN
100
AcDbLine
 10
2805.681124897947
 20
2375.614289791337
 30
0.0
 11
2805.681124897947
 21
2424.614289791337
 31
0.0
  0
LINE
  5
14DAA
330
1A
100
AcDbEntity
  8
SN
100
AcDbLine
 10
2846.48112489795
 20
2375.614289791337
 30
0.0
 11
2846.481124897957
 21
2424.614289791337
 31
0.0
  0
LINE
  5
14DAB
330
1A
100
AcDbEntity
  8
SN
100
AcDbLine
 10
2807.281124897953
 20
2369.864289791337
 30
0.0
 11
2807.281124897949
 21
2430.364289791337
 31
0.0
  0
LINE
  5
14DAC
330
1A
100
AcDbEntity
  8
SN
100
AcDbLine
 10
2844.881124897951
 20
2369.864289791337
 30
0.0
 11
2844.881124897951
 21
2430.364289791337
 31
0.0
  0
LINE
  5
14DAD
330
1A
100
AcDbEntity
  8
SN
100
AcDbLine
 10
2844.881124897951
 20
2369.864289791337
 30
0.0
 11
2807.281124897953
 21
2369.864289791337
 31
0.0
  0
LINE
  5
14DAE
330
1A
100
AcDbEntity
  8
SN
100
AcDbLine
 10
2805.681124897947
 20
2375.614289791337
 30
0.0
 11
2807.281124897953
 21
2375.614289791337
 31
0.0
  0
LINE
  5
14DAF
330
1A
100
AcDbEntity
  8
SN
100
AcDbLine
 10
2844.881124897951
 20
2375.614289791337
 30
0.0
 11
2846.48112489795
 21
2375.614289791337
 31
0.0
  0
ELLIPSE
  5
14DB0
330
1A
100
AcDbEntity
  8
SN
100
AcDbEllipse
 10
2846.481124897957
 20
2400.114289791337
 30
0.0
 11
0.000000000000003
 21
24.5
 31
0.0
210
0.0
220
0.0
230
1.0
 40
0.1367346938771946
 41
3.141592653589793
 42
6.283185307179586
  0
ELLIPSE
  5
14DB1
330
1A
100
AcDbEntity
  8
SN
100
AcDbEllipse
 10
2805.681124897947
 20
2400.114289791337
 30
0.0
 11
0.000000000000003
 21
24.49999999999818
 31
0.0
210
0.0
220
0.0
230
1.0
 40
0.1367346938775018
 41
0.0
 42
3.141592653589793
  0
LINE
  5
14DB2
330
1A
100
AcDbEntity
  8
SN
100
AcDbLine
 10
2844.881124897951
 20
2430.364289791337
 30
0.0
 11
2838.581124897948
 21
2430.364289791336
 31
0.0
  0
LINE
  5
14DB3
330
1A
100
AcDbEntity
  8
SN
100
AcDbLine
 10
2813.581124897948
 20
2430.364289791336
 30
0.0
 11
2807.281124897949
 21
2430.364289791337
 31
0.0
  0
LINE
  5
14DB4
330
1A
100
AcDbEntity
  8
SN
100
AcDbLine
 10
2827.98112489795
 20
2369.864289791333
 30
0.0
 11
2827.98112489795
 21
2375.505719741354
 31
0.0
  0
LINE
  5
14DB5
330
1A
100
AcDbEntity
  8
SN
100
AcDbLine
 10
2824.18112489795
 20
2369.864289791333
 30
0.0
 11
2824.181124897954
 21
2375.505719741354
 31
0.0
  0
LINE
  5
14DB6
330
1A
100
AcDbEntity
  8
SN
100
AcDbLine
 10
2832.081124897948
 20
2354.864289791337
 30
0.0
 11
2820.081124897948
 21
2354.864289791337
 31
0.0
  0
LINE
  5
14DB7
330
1A
100
AcDbEntity
  8
SN
100
AcDbLine
 10
2820.081124897948
 20
2369.864289791337
 30
0.0
 11
2820.081124897948
 21
2354.864289791337
 31
0.0
  0
LINE
  5
14DB8
330
1A
100
AcDbEntity
  8
SN
100
AcDbLine
 10
2832.081124897948
 20
2369.864289791337
 30
0.0
 11
2832.081124897948
 21
2354.864289791337
 31
0.0
  0
LINE
  5
14DB9
330
1A
100
AcDbEntity
  8
SN
100
AcDbLine
 10
2827.98112489795
 20
2375.505719741354
 30
0.0
 11
2824.181124897954
 21
2375.505719741354
 31
0.0
  0
LINE
  5
14DBA
330
1A
100
AcDbEntity
  8
SN
100
AcDbLine
 10
2638.468593263088
 20
2547.263773266609
 30
0.0
 11
2636.868593263093
 21
2547.263773266609
 31
0.0
  0
LINE
  5
14DBB
330
1A
100
AcDbEntity
  8
SN
100
AcDbLine
 10
2636.868593263085
 20
2498.263773266613
 30
0.0
 11
2636.868593263085
 21
2547.263773266613
 31
0.0
  0
LINE
  5
14DBC
330
1A
100
AcDbEntity
  8
SN
100
AcDbLine
 10
2677.668593263088
 20
2498.263773266613
 30
0.0
 11
2677.668593263097
 21
2536.248857265705
 31
0.0
  0
LINE
  5
14DBD
330
1A
100
AcDbEntity
  8
SN
100
AcDbLine
 10
2638.468593263091
 20
2492.513773266613
 30
0.0
 11
2638.468593263088
 21
2553.013773266613
 31
0.0
  0
LINE
  5
14DBE
330
1A
100
AcDbEntity
  8
SN
100
AcDbLine
 10
2676.06859326309
 20
2492.513773266613
 30
0.0
 11
2676.06859326309
 21
2535.72898575173
 31
0.0
  0
LINE
  5
14DBF
330
1A
100
AcDbEntity
  8
SN
100
AcDbLine
 10
2676.06859326309
 20
2492.513773266613
 30
0.0
 11
2638.468593263091
 21
2492.513773266613
 31
0.0
  0
LINE
  5
14DC0
330
1A
100
AcDbEntity
  8
SN
100
AcDbLine
 10
2636.868593263085
 20
2498.263773266613
 30
0.0
 11
2638.468593263091
 21
2498.263773266613
 31
0.0
  0
LINE
  5
14DC1
330
1A
100
AcDbEntity
  8
SN
100
AcDbLine
 10
2676.06859326309
 20
2498.263773266613
 30
0.0
 11
2677.668593263088
 21
2498.263773266613
 31
0.0
  0
ELLIPSE
  5
14DC2
330
1A
100
AcDbEntity
  8
SN
100
AcDbEllipse
 10
2677.668593263096
 20
2522.763773266613
 30
0.0
 11
0.000000000000003
 21
24.5
 31
0.0
210
0.0
220
0.0
230
1.0
 40
0.1367346938771946
 41
3.141592653589793
 42
5.338995191901531
  0
ELLIPSE
  5
14DC3
330
1A
100
AcDbEntity
  8
SN
100
AcDbEllipse
 10
2636.868593263085
 20
2522.763773266613
 30
0.0
 11
0.000000000000003
 21
24.49999999999818
 31
0.0
210
0.0
220
0.0
230
1.0
 40
0.1367346938775018
 41
0.0
 42
3.141592653589793
  0
LINE
  5
14DC4
330
1A
100
AcDbEntity
  8
SN
100
AcDbLine
 10
2648.374957090342
 20
2553.013773266613
 30
0.0
 11
2638.468593263088
 21
2553.013773266613
 31
0.0
  0
LINE
  5
14DC5
330
1A
100
AcDbEntity
  8
SN
100
AcDbLine
 10
2659.168593263088
 20
2492.513773266609
 30
0.0
 11
2659.168593263088
 21
2498.15520321663
 31
0.0
  0
LINE
  5
14DC6
330
1A
100
AcDbEntity
  8
SN
100
AcDbLine
 10
2655.368593263089
 20
2492.513773266609
 30
0.0
 11
2655.368593263093
 21
2498.15520321663
 31
0.0
  0
LINE
  5
14DC7
330
1A
100
AcDbEntity
  8
SN
100
AcDbLine
 10
2663.268593263087
 20
2477.513773266613
 30
0.0
 11
2651.268593263087
 21
2477.513773266613
 31
0.0
  0
LINE
  5
14DC8
330
1A
100
AcDbEntity
  8
SN
100
AcDbLine
 10
2651.268593263087
 20
2492.513773266613
 30
0.0
 11
2651.268593263087
 21
2477.513773266613
 31
0.0
  0
LINE
  5
14DC9
330
1A
100
AcDbEntity
  8
SN
100
AcDbLine
 10
2663.268593263087
 20
2492.513773266613
 30
0.0
 11
2663.268593263087
 21
2477.513773266613
 31
0.0
  0
LINE
  5
14DCA
330
1A
100
AcDbEntity
  8
SN
100
AcDbLine
 10
2659.168593263088
 20
2498.15520321663
 30
0.0
 11
2655.368593263093
 21
2498.15520321663
 31
0.0
  0
LINE
  5
14DCB
330
1A
100
AcDbEntity
  8
SN
100
AcDbLine
 10
2742.149242603864
 20
2745.714806284042
 30
0.0
 11
2740.549242603858
 21
2745.714806284045
 31
0.0
  0
LINE
  5
14DCC
330
1A
100
AcDbEntity
  8
SN
100
AcDbLine
 10
2702.949242603856
 20
2745.714806284038
 30
0.0
 11
2701.349242603861
 21
2745.714806284038
 31
0.0
  0
LINE
  5
14DCD
330
1A
100
AcDbEntity
  8
SN
100
AcDbLine
 10
2701.349242603854
 20
2696.714806284042
 30
0.0
 11
2701.349242603854
 21
2745.714806284042
 31
0.0
  0
LINE
  5
14DCE
330
1A
100
AcDbEntity
  8
SN
100
AcDbLine
 10
2742.14924260386
 20
2734.402885314136
 30
0.0
 11
2742.149242603864
 21
2745.714806284042
 31
0.0
  0
LINE
  5
14DCF
330
1A
100
AcDbEntity
  8
SN
100
AcDbLine
 10
2702.94924260386
 20
2690.964806284041
 30
0.0
 11
2702.949242603856
 21
2751.464806284042
 31
0.0
  0
LINE
  5
14DD0
330
1A
100
AcDbEntity
  8
SN
100
AcDbLine
 10
2740.549242603858
 20
2690.964806284041
 30
0.0
 11
2740.549242603857
 21
2694.072555969542
 31
0.0
  0
LINE
  5
14DD1
330
1A
100
AcDbEntity
  8
SN
100
AcDbLine
 10
2740.549242603857
 20
2736.605096386892
 30
0.0
 11
2740.549242603858
 21
2751.464806284042
 31
0.0
  0
LINE
  5
14DD2
330
1A
100
AcDbEntity
  8
SN
100
AcDbLine
 10
2740.549242603858
 20
2690.964806284041
 30
0.0
 11
2702.94924260386
 21
2690.964806284041
 31
0.0
  0
LINE
  5
14DD3
330
1A
100
AcDbEntity
  8
SN
100
AcDbLine
 10
2701.349242603854
 20
2696.714806284042
 30
0.0
 11
2702.94924260386
 21
2696.714806284042
 31
0.0
  0
ELLIPSE
  5
14DD4
330
1A
100
AcDbEntity
  8
SN
100
AcDbEllipse
 10
2742.149242603864
 20
2721.214806284042
 30
0.0
 11
0.000000000000003
 21
24.5
 31
0.0
210
0.0
220
0.0
230
1.0
 40
0.1367346938771946
 41
5.083789942369551
 42
6.283185307179586
  0
ELLIPSE
  5
14DD5
330
1A
100
AcDbEntity
  8
SN
100
AcDbEllipse
 10
2701.349242603854
 20
2721.214806284042
 30
0.0
 11
0.000000000000003
 21
24.49999999999818
 31
0.0
210
0.0
220
0.0
230
1.0
 40
0.1367346938775018
 41
0.0
 42
3.141592653589793
  0
LINE
  5
14DD6
330
1A
100
AcDbEntity
  8
SN
100
AcDbLine
 10
2740.549242603858
 20
2751.464806284042
 30
0.0
 11
2729.753031409757
 21
2751.464806284042
 31
0.0
  0
LINE
  5
14DD7
330
1A
100
AcDbEntity
  8
SN
100
AcDbLine
 10
2707.959093853741
 20
2751.464806284042
 30
0.0
 11
2702.949242603856
 21
2751.464806284042
 31
0.0
  0
LINE
  5
14DD8
330
1A
100
AcDbEntity
  8
SN
100
AcDbLine
 10
2723.649242603857
 20
2690.964806284038
 30
0.0
 11
2723.649242603857
 21
2696.606236234059
 31
0.0
  0
LINE
  5
14DD9
330
1A
100
AcDbEntity
  8
SN
100
AcDbLine
 10
2719.849242603857
 20
2690.964806284038
 30
0.0
 11
2719.849242603861
 21
2696.606236234059
 31
0.0
  0
LINE
  5
14DDA
330
1A
100
AcDbEntity
  8
SN
100
AcDbLine
 10
2727.749242603855
 20
2675.964806284042
 30
0.0
 11
2715.749242603855
 21
2675.964806284042
 31
0.0
  0
LINE
  5
14DDB
330
1A
100
AcDbEntity
  8
SN
100
AcDbLine
 10
2715.749242603855
 20
2690.964806284041
 30
0.0
 11
2715.749242603855
 21
2675.964806284042
 31
0.0
  0
LINE
  5
14DDC
330
1A
100
AcDbEntity
  8
SN
100
AcDbLine
 10
2727.749242603855
 20
2690.964806284041
 30
0.0
 11
2727.749242603855
 21
2675.964806284042
 31
0.0
  0
LINE
  5
14DDD
330
1A
100
AcDbEntity
  8
SN
100
AcDbLine
 10
2723.649242603857
 20
2696.606236234059
 30
0.0
 11
2719.849242603861
 21
2696.606236234059
 31
0.0
  0
LINE
  5
14DDE
330
1A
100
AcDbEntity
  8
SN
100
AcDbLine
 10
2950.813007192053
 20
2745.714806284039
 30
0.0
 11
2949.213007192048
 21
2745.714806284043
 31
0.0
  0
LINE
  5
14DDF
330
1A
100
AcDbEntity
  8
SN
100
AcDbLine
 10
2911.613007192045
 20
2745.714806284035
 30
0.0
 11
2910.013007192051
 21
2745.714806284035
 31
0.0
  0
LINE
  5
14DE0
330
1A
100
AcDbEntity
  8
SN
100
AcDbLine
 10
2910.013007192043
 20
2734.402885314139
 30
0.0
 11
2910.013007192043
 21
2745.714806284039
 31
0.0
  0
LINE
  5
14DE1
330
1A
100
AcDbEntity
  8
SN
100
AcDbLine
 10
2950.813007192046
 20
2696.714806284039
 30
0.0
 11
2950.813007192053
 21
2745.714806284039
 31
0.0
  0
LINE
  5
14DE2
330
1A
100
AcDbEntity
  8
SN
100
AcDbLine
 10
2911.613007192049
 20
2690.964806284039
 30
0.0
 11
2911.613007192049
 21
2694.072555969553
 31
0.0
  0
LINE
  5
14DE3
330
1A
100
AcDbEntity
  8
SN
100
AcDbLine
 10
2911.613007192047
 20
2736.605096386902
 30
0.0
 11
2911.613007192045
 21
2751.464806284039
 31
0.0
  0
LINE
  5
14DE4
330
1A
100
AcDbEntity
  8
SN
100
AcDbLine
 10
2949.213007192048
 20
2690.964806284039
 30
0.0
 11
2949.213007192048
 21
2751.464806284039
 31
0.0
  0
LINE
  5
14DE5
330
1A
100
AcDbEntity
  8
SN
100
AcDbLine
 10
2949.213007192048
 20
2690.964806284039
 30
0.0
 11
2911.613007192049
 21
2690.964806284039
 31
0.0
  0
LINE
  5
14DE6
330
1A
100
AcDbEntity
  8
SN
100
AcDbLine
 10
2949.213007192048
 20
2696.714806284039
 30
0.0
 11
2950.813007192046
 21
2696.714806284039
 31
0.0
  0
ELLIPSE
  5
14DE7
330
1A
100
AcDbEntity
  8
SN
100
AcDbEllipse
 10
2950.813007192053
 20
2721.214806284039
 30
0.0
 11
0.000000000000003
 21
24.5
 31
0.0
210
0.0
220
0.0
230
1.0
 40
0.1367346938771946
 41
3.141592653589793
 42
6.283185307179586
  0
ELLIPSE
  5
14DE8
330
1A
100
AcDbEntity
  8
SN
100
AcDbEllipse
 10
2910.013007192043
 20
2721.214806284039
 30
0.0
 11
0.000000000000003
 21
24.49999999999818
 31
0.0
210
0.0
220
0.0
230
1.0
 40
0.1367346938775018
 41
0.0
 42
1.199395364809808
  0
LINE
  5
14DE9
330
1A
100
AcDbEntity
  8
SN
100
AcDbLine
 10
2949.213007192048
 20
2751.464806284039
 30
0.0
 11
2944.20315594216
 21
2751.464806284039
 31
0.0
  0
LINE
  5
14DEA
330
1A
100
AcDbEntity
  8
SN
100
AcDbLine
 10
2922.409218386138
 20
2751.464806284039
 30
0.0
 11
2911.613007192045
 21
2751.464806284039
 31
0.0
  0
LINE
  5
14DEB
330
1A
100
AcDbEntity
  8
SN
100
AcDbLine
 10
2932.313007192046
 20
2690.964806284035
 30
0.0
 11
2932.313007192046
 21
2696.606236234056
 31
0.0
  0
LINE
  5
14DEC
330
1A
100
AcDbEntity
  8
SN
100
AcDbLine
 10
2928.513007192047
 20
2690.964806284035
 30
0.0
 11
2928.51300719205
 21
2696.606236234056
 31
0.0
  0
LINE
  5
14DED
330
1A
100
AcDbEntity
  8
SN
100
AcDbLine
 10
2936.413007192045
 20
2675.964806284039
 30
0.0
 11
2924.413007192045
 21
2675.964806284039
 31
0.0
  0
LINE
  5
14DEE
330
1A
100
AcDbEntity
  8
SN
100
AcDbLine
 10
2924.413007192045
 20
2690.964806284039
 30
0.0
 11
2924.413007192045
 21
2675.964806284039
 31
0.0
  0
LINE
  5
14DEF
330
1A
100
AcDbEntity
  8
SN
100
AcDbLine
 10
2936.413007192045
 20
2690.964806284039
 30
0.0
 11
2936.413007192045
 21
2675.964806284039
 31
0.0
  0
LINE
  5
14DF0
330
1A
100
AcDbEntity
  8
SN
100
AcDbLine
 10
2932.313007192046
 20
2696.606236234056
 30
0.0
 11
2928.51300719205
 21
2696.606236234056
 31
0.0
  0
LINE
  5
14DF1
330
1A
100
AcDbEntity
  8
SN
100
AcDbLine
 10
3015.293656532818
 20
2547.263773266612
 30
0.0
 11
3013.693656532812
 21
2547.263773266616
 31
0.0
  0
LINE
  5
14DF2
330
1A
100
AcDbEntity
  8
SN
100
AcDbLine
 10
2974.493656532808
 20
2498.263773266612
 30
0.0
 11
2974.493656532806
 21
2536.248857266017
 31
0.0
  0
LINE
  5
14DF3
330
1A
100
AcDbEntity
  8
SN
100
AcDbLine
 10
3015.293656532811
 20
2498.263773266612
 30
0.0
 11
3015.293656532818
 21
2547.263773266612
 31
0.0
  0
LINE
  5
14DF4
330
1A
100
AcDbEntity
  8
SN
100
AcDbLine
 10
2976.093656532814
 20
2492.513773266612
 30
0.0
 11
2976.09365653281
 21
2535.728985752048
 31
0.0
  0
LINE
  5
14DF5
330
1A
100
AcDbEntity
  8
SN
100
AcDbLine
 10
3013.693656532812
 20
2492.513773266612
 30
0.0
 11
3013.693656532812
 21
2553.013773266612
 31
0.0
  0
LINE
  5
14DF6
330
1A
100
AcDbEntity
  8
SN
100
AcDbLine
 10
3013.693656532812
 20
2492.513773266612
 30
0.0
 11
2976.093656532814
 21
2492.513773266612
 31
0.0
  0
LINE
  5
14DF7
330
1A
100
AcDbEntity
  8
SN
100
AcDbLine
 10
2974.493656532808
 20
2498.263773266612
 30
0.0
 11
2976.093656532814
 21
2498.263773266612
 31
0.0
  0
LINE
  5
14DF8
330
1A
100
AcDbEntity
  8
SN
100
AcDbLine
 10
3013.693656532812
 20
2498.263773266612
 30
0.0
 11
3015.293656532811
 21
2498.263773266612
 31
0.0
  0
ELLIPSE
  5
14DF9
330
1A
100
AcDbEntity
  8
SN
100
AcDbEllipse
 10
3015.293656532818
 20
2522.763773266612
 30
0.0
 11
0.000000000000003
 21
24.5
 31
0.0
210
0.0
220
0.0
230
1.0
 40
0.1367346938771946
 41
3.141592653589793
 42
6.283185307179586
  0
ELLIPSE
  5
14DFA
330
1A
100
AcDbEntity
  8
SN
100
AcDbEllipse
 10
2974.493656532808
 20
2522.763773266612
 30
0.0
 11
0.000000000000003
 21
24.49999999999818
 31
0.0
210
0.0
220
0.0
230
1.0
 40
0.1367346938775018
 41
0.944190115262824
 42
3.141592653589793
  0
LINE
  5
14DFB
330
1A
100
AcDbEntity
  8
SN
100
AcDbLine
 10
3013.693656532812
 20
2553.013773266612
 30
0.0
 11
3003.787292710717
 21
2553.013773266613
 31
0.0
  0
LINE
  5
14DFC
330
1A
100
AcDbEntity
  8
SN
100
AcDbLine
 10
2996.793656532811
 20
2492.513773266608
 30
0.0
 11
2996.793656532811
 21
2498.155203216629
 31
0.0
  0
LINE
  5
14DFD
330
1A
100
AcDbEntity
  8
SN
100
AcDbLine
 10
2992.993656532812
 20
2492.513773266608
 30
0.0
 11
2992.993656532815
 21
2498.155203216629
 31
0.0
  0
LINE
  5
14DFE
330
1A
100
AcDbEntity
  8
SN
100
AcDbLine
 10
3000.89365653281
 20
2477.513773266612
 30
0.0
 11
2988.893656532809
 21
2477.513773266612
 31
0.0
  0
LINE
  5
14DFF
330
1A
100
AcDbEntity
  8
SN
100
AcDbLine
 10
2988.893656532809
 20
2492.513773266612
 30
0.0
 11
2988.893656532809
 21
2477.513773266612
 31
0.0
  0
LINE
  5
14E00
330
1A
100
AcDbEntity
  8
SN
100
AcDbLine
 10
3000.89365653281
 20
2492.513773266612
 30
0.0
 11
3000.89365653281
 21
2477.513773266612
 31
0.0
  0
LINE
  5
14E01
330
1A
100
AcDbEntity
  8
SN
100
AcDbLine
 10
2996.793656532811
 20
2498.155203216629
 30
0.0
 11
2992.993656532815
 21
2498.155203216629
 31
0.0
  0
CIRCLE
  5
14E02
330
1A
100
AcDbEntity
  8
SN
  6
PHANTOM
 62
     9
 48
0.01
100
AcDbCircle
 10
2639.342936398887
 20
1380.900264570997
 30
0.0
 40
24.5
  0
ARC
  5
14E03
330
1A
100
AcDbEntity
  8
SN
  6
PHANTOM
 62
     9
 48
0.01
100
AcDbCircle
 10
2639.342936398887
 20
1380.900264570997
 30
0.0
 40
30.25
100
AcDbArc
 50
350.6541686886927
 51
189.3458313113073
  0
ARC
  5
14E04
330
1A
100
AcDbEntity
  8
SN
  6
PHANTOM
 62
     9
 48
0.01
100
AcDbCircle
 10
2610.481197019562
 20
1376.150264570997
 30
0.0
 40
1.0
100
AcDbArc
 50
189.3458313113073
 51
270.0
  0
ARC
  5
14E05
330
1A
100
AcDbEntity
  8
SN
  6
PHANTOM
 62
     9
 48
0.01
100
AcDbCircle
 10
2639.342936398887
 20
1380.900264570997
 30
0.0
 40
28.25
100
AcDbArc
 50
350.6541686886927
 51
189.3458313113073
  0
ARC
  5
14E06
330
1A
100
AcDbEntity
  8
SN
  6
PHANTOM
 62
     9
 48
0.01
100
AcDbCircle
 10
2610.481197019562
 20
1376.150264570997
 30
0.0
 40
1.0
100
AcDbArc
 50
270.0
 51
9.345831311307291
  0
LINE
  5
14E07
330
1A
100
AcDbEntity
  8
SN
  6
PHANTOM
 62
     9
 48
0.01
100
AcDbLine
 10
2610.481197019562
 20
1375.150264570997
 30
0.0
 11
2610.481197019562
 21
1375.150264570997
 31
0.0
  0
LINE
  5
14E08
330
1A
100
AcDbEntity
  8
SN
  6
PHANTOM
 62
     9
 48
0.01
100
AcDbLine
 10
2596.092936398887
 20
1406.150264570997
 30
0.0
 11
2606.592936398887
 21
1406.150264570997
 31
0.0
  0
ARC
  5
14E09
330
1A
100
AcDbEntity
  8
SN
  6
PHANTOM
 62
     9
 48
0.01
100
AcDbCircle
 10
2606.592936398887
 20
1405.650264570997
 30
0.0
 40
0.5
100
AcDbArc
 50
0.0
 51
90.0
  0
ARC
  5
14E0A
330
1A
100
AcDbEntity
  8
SN
  6
PHANTOM
 62
     9
 48
0.01
100
AcDbCircle
 10
2596.092936398887
 20
1404.150264570998
 30
0.0
 40
2.0
100
AcDbArc
 50
90.0
 51
270.0
  0
ARC
  5
14E0B
330
1A
100
AcDbEntity
  8
SN
  6
PHANTOM
 62
     9
 48
0.01
100
AcDbCircle
 10
2599.092936398887
 20
1402.150264570998
 30
0.0
 40
2.0
100
AcDbArc
 50
180.0
 51
341.9055972391792
  0
ARC
  5
14E0C
330
1A
100
AcDbEntity
  8
SN
  6
PHANTOM
 62
     9
 48
0.01
100
AcDbCircle
 10
2607.092936398887
 20
1402.150264570998
 30
0.0
 40
2.0
100
AcDbArc
 50
198.0944027592181
 51
44.99999999999073
  0
ELLIPSE
  5
14E0D
330
1A
100
AcDbEntity
  8
SN
  6
PHANTOM
 62
     9
 48
0.01
100
AcDbEllipse
 10
2603.092936398887
 20
1401.150264570998
 30
0.0
 11
2.267949192431842
 21
0.0
 31
0.0
210
0.0
220
0.0
230
-1.0
 40
0.440926985197466
 41
3.530127480805852
 42
5.894650479914343
  0
LINE
  5
14E0E
330
1A
100
AcDbEntity
  8
SN
  6
PHANTOM
 62
     9
 48
0.01
100
AcDbLine
 10
2596.092936398887
 20
1402.150264570998
 30
0.0
 11
2597.092936398887
 21
1402.150264570998
 31
0.0
  0
LINE
  5
14E0F
330
1A
100
AcDbEntity
  8
SN
  6
PHANTOM
 62
     9
 48
0.01
100
AcDbLine
 10
2608.507149961257
 20
1403.56447813337
 30
0.0
 11
2607.092936398887
 21
1404.978691695743
 31
0.0
  0
LINE
  5
14E10
330
1A
100
AcDbEntity
  8
SN
  6
PHANTOM
 62
     9
 48
0.01
100
AcDbLine
 10
2607.092936398887
 20
1404.978691695743
 30
0.0
 11
2607.092936398887
 21
1405.650264570997
 31
0.0
  0
LINE
  5
14E11
330
1A
100
AcDbEntity
  8
SN
  6
PHANTOM
 62
     9
 48
0.01
100
AcDbLine
 10
2603.317727666101
 20
1402.145340403455
 30
0.0
 11
2612.026237759445
 21
1393.894897133786
 31
0.0
  0
LINE
  5
14E12
330
1A
100
AcDbEntity
  8
SN
  6
PHANTOM
 62
     9
 48
0.01
100
AcDbLine
 10
2607.084924976018
 20
1405.739411864692
 30
0.0
 11
2614.734366348905
 21
1398.492330398954
 31
0.0
  0
LINE
  5
14E13
330
1A
100
AcDbEntity
  8
SN
  6
PHANTOM
 62
     9
 48
0.01
100
AcDbLine
 10
2611.092936398887
 20
1380.900264570996
 30
0.0
 11
2614.842936398887
 21
1380.900264570996
 31
0.0
  0
CIRCLE
  5
14E14
330
1A
100
AcDbEntity
  8
SN
  6
PHANTOM
 62
     9
 48
0.01
100
AcDbCircle
 10
3014.893656532811
 20
1380.900264570998
 30
0.0
 40
24.5
  0
ARC
  5
14E15
330
1A
100
AcDbEntity
  8
SN
  6
PHANTOM
 62
     9
 48
0.01
100
AcDbCircle
 10
3014.893656532811
 20
1380.900264570998
 30
0.0
 40
30.25
100
AcDbArc
 50
350.6541686886927
 51
189.3458313113073
  0
ARC
  5
14E16
330
1A
100
AcDbEntity
  8
SN
  6
PHANTOM
 62
     9
 48
0.01
100
AcDbCircle
 10
3043.755395912136
 20
1376.150264570998
 30
0.0
 40
1.0
100
AcDbArc
 50
270.0
 51
350.6541686886927
  0
ARC
  5
14E17
330
1A
100
AcDbEntity
  8
SN
  6
PHANTOM
 62
     9
 48
0.01
100
AcDbCircle
 10
2986.031917153487
 20
1376.150264570998
 30
0.0
 40
1.0
100
AcDbArc
 50
189.3458313113073
 51
270.0
  0
ARC
  5
14E18
330
1A
100
AcDbEntity
  8
SN
  6
PHANTOM
 62
     9
 48
0.01
100
AcDbCircle
 10
3014.893656532811
 20
1380.900264570998
 30
0.0
 40
28.25
100
AcDbArc
 50
350.6541686886927
 51
189.3458313113073
  0
ARC
  5
14E19
330
1A
100
AcDbEntity
  8
SN
  6
PHANTOM
 62
     9
 48
0.01
100
AcDbCircle
 10
3043.755395912136
 20
1376.150264570998
 30
0.0
 40
1.0
100
AcDbArc
 50
170.6541686886927
 51
270.0
  0
ARC
  5
14E1A
330
1A
100
AcDbEntity
  8
SN
  6
PHANTOM
 62
     9
 48
0.01
100
AcDbCircle
 10
2986.031917153487
 20
1376.150264570998
 30
0.0
 40
1.0
100
AcDbArc
 50
270.0
 51
9.345831311307291
  0
LINE
  5
14E1B
330
1A
100
AcDbEntity
  8
SN
  6
PHANTOM
 62
     9
 48
0.01
100
AcDbLine
 10
3043.755395912136
 20
1375.150264570998
 30
0.0
 11
3043.755395912136
 21
1375.150264570998
 31
0.0
  0
LINE
  5
14E1C
330
1A
100
AcDbEntity
  8
SN
  6
PHANTOM
 62
     9
 48
0.01
100
AcDbLine
 10
2986.031917153487
 20
1375.150264570998
 30
0.0
 11
2986.031917153487
 21
1375.150264570998
 31
0.0
  0
LINE
  5
14E1D
330
1A
100
AcDbEntity
  8
SN
  6
PHANTOM
 62
     9
 48
0.01
100
AcDbLine
 10
3058.143656532811
 20
1406.150264570998
 30
0.0
 11
3047.643656532811
 21
1406.150264570998
 31
0.0
  0
ARC
  5
14E1E
330
1A
100
AcDbEntity
  8
SN
  6
PHANTOM
 62
     9
 48
0.01
100
AcDbCircle
 10
3047.643656532811
 20
1405.650264570998
 30
0.0
 40
0.5
100
AcDbArc
 50
90.0
 51
180.0
  0
ARC
  5
14E1F
330
1A
100
AcDbEntity
  8
SN
  6
PHANTOM
 62
     9
 48
0.01
100
AcDbCircle
 10
3058.143656532811
 20
1404.150264570999
 30
0.0
 40
2.0
100
AcDbArc
 50
270.0
 51
90.0
  0
ARC
  5
14E20
330
1A
100
AcDbEntity
  8
SN
  6
PHANTOM
 62
     9
 48
0.01
100
AcDbCircle
 10
3055.143656532811
 20
1402.150264570999
 30
0.0
 40
2.0
100
AcDbArc
 50
198.0944027608208
 51
0.0
  0
ARC
  5
14E21
330
1A
100
AcDbEntity
  8
SN
  6
PHANTOM
 62
     9
 48
0.01
100
AcDbCircle
 10
3047.143656532811
 20
1402.150264570999
 30
0.0
 40
2.0
100
AcDbArc
 50
134.9999999998987
 51
341.9055972407241
  0
ELLIPSE
  5
14E22
330
1A
100
AcDbEntity
  8
SN
  6
PHANTOM
 62
     9
 48
0.01
100
AcDbEllipse
 10
3051.143656532812
 20
1401.150264570999
 30
0.0
 11
-2.267949192431842
 21
0.0
 31
0.0
210
0.0
220
0.0
230
1.0
 40
0.440926985197466
 41
3.530127480805852
 42
5.894650479914343
  0
LINE
  5
14E23
330
1A
100
AcDbEntity
  8
SN
  6
PHANTOM
 62
     9
 48
0.01
100
AcDbLine
 10
3058.143656532811
 20
1402.150264570999
 30
0.0
 11
3057.143656532812
 21
1402.150264570999
 31
0.0
  0
LINE
  5
14E24
330
1A
100
AcDbEntity
  8
SN
  6
PHANTOM
 62
     9
 48
0.01
100
AcDbLine
 10
3045.729442970442
 20
1403.564478133371
 30
0.0
 11
3047.143656532811
 21
1404.978691695744
 31
0.0
  0
LINE
  5
14E25
330
1A
100
AcDbEntity
  8
SN
  6
PHANTOM
 62
     9
 48
0.01
100
AcDbLine
 10
3047.143656532811
 20
1404.978691695744
 30
0.0
 11
3047.143656532811
 21
1405.650264570998
 31
0.0
  0
LINE
  5
14E26
330
1A
100
AcDbEntity
  8
SN
  6
PHANTOM
 62
     9
 48
0.01
100
AcDbLine
 10
3050.918865265598
 20
1402.145340403456
 30
0.0
 11
3042.210355172254
 21
1393.894897133787
 31
0.0
  0
LINE
  5
14E27
330
1A
100
AcDbEntity
  8
SN
  6
PHANTOM
 62
     9
 48
0.01
100
AcDbLine
 10
3047.151667955681
 20
1405.739411864693
 30
0.0
 11
3039.502226582794
 21
1398.492330398955
 31
0.0
  0
LINE
  5
14E28
330
1A
100
AcDbEntity
  8
SN
  6
PHANTOM
 62
     9
 48
0.01
100
AcDbLine
 10
3043.143656532811
 20
1380.900264570997
 30
0.0
 11
3039.393656532812
 21
1380.900264570997
 31
0.0
  0
LINE
  5
14E29
330
1A
100
AcDbEntity
  8
SN
  6
PHANTOM
 62
     9
 48
0.01
100
AcDbLine
 10
2990.393656532811
 20
1380.900264570998
 30
0.0
 11
2986.643656532812
 21
1380.900264570998
 31
0.0
  0
CIRCLE
  5
14E2A
330
1A
100
AcDbEntity
  8
SN
  6
PHANTOM
 62
     9
 48
0.01
100
AcDbCircle
 10
3772.264421731409
 20
1380.900264570998
 30
0.0
 40
24.5
  0
ARC
  5
14E2B
330
1A
100
AcDbEntity
  8
SN
  6
PHANTOM
 62
     9
 48
0.01
100
AcDbCircle
 10
3772.264421731409
 20
1380.900264570998
 30
0.0
 40
30.25
100
AcDbArc
 50
350.6541686886927
 51
189.3458313113073
  0
ARC
  5
14E2C
330
1A
100
AcDbEntity
  8
SN
  6
PHANTOM
 62
     9
 48
0.01
100
AcDbCircle
 10
3801.126161110733
 20
1376.150264570998
 30
0.0
 40
1.0
100
AcDbArc
 50
270.0
 51
350.6541686886927
  0
ARC
  5
14E2D
330
1A
100
AcDbEntity
  8
SN
  6
PHANTOM
 62
     9
 48
0.01
100
AcDbCircle
 10
3743.402682352084
 20
1376.150264570998
 30
0.0
 40
1.0
100
AcDbArc
 50
189.3458313113073
 51
270.0
  0
ARC
  5
14E2E
330
1A
100
AcDbEntity
  8
SN
  6
PHANTOM
 62
     9
 48
0.01
100
AcDbCircle
 10
3772.264421731409
 20
1380.900264570998
 30
0.0
 40
28.25
100
AcDbArc
 50
350.6541686886927
 51
189.3458313113073
  0
ARC
  5
14E2F
330
1A
100
AcDbEntity
  8
SN
  6
PHANTOM
 62
     9
 48
0.01
100
AcDbCircle
 10
3801.126161110733
 20
1376.150264570998
 30
0.0
 40
1.0
100
AcDbArc
 50
170.6541686886927
 51
270.0
  0
ARC
  5
14E30
330
1A
100
AcDbEntity
  8
SN
  6
PHANTOM
 62
     9
 48
0.01
100
AcDbCircle
 10
3743.402682352084
 20
1376.150264570998
 30
0.0
 40
1.0
100
AcDbArc
 50
270.0
 51
9.345831311307291
  0
LINE
  5
14E31
330
1A
100
AcDbEntity
  8
SN
  6
PHANTOM
 62
     9
 48
0.01
100
AcDbLine
 10
3801.126161110733
 20
1375.150264570998
 30
0.0
 11
3801.126161110733
 21
1375.150264570998
 31
0.0
  0
LINE
  5
14E32
330
1A
100
AcDbEntity
  8
SN
  6
PHANTOM
 62
     9
 48
0.01
100
AcDbLine
 10
3743.402682352084
 20
1375.150264570998
 30
0.0
 11
3743.402682352084
 21
1375.150264570998
 31
0.0
  0
LINE
  5
14E33
330
1A
100
AcDbEntity
  8
SN
  6
PHANTOM
 62
     9
 48
0.01
100
AcDbLine
 10
3815.514421731408
 20
1406.150264570998
 30
0.0
 11
3805.014421731409
 21
1406.150264570998
 31
0.0
  0
ARC
  5
14E34
330
1A
100
AcDbEntity
  8
SN
  6
PHANTOM
 62
     9
 48
0.01
100
AcDbCircle
 10
3805.014421731409
 20
1405.650264570998
 30
0.0
 40
0.5
100
AcDbArc
 50
90.0
 51
180.0
  0
ARC
  5
14E35
330
1A
100
AcDbEntity
  8
SN
  6
PHANTOM
 62
     9
 48
0.01
100
AcDbCircle
 10
3815.514421731408
 20
1404.150264570999
 30
0.0
 40
2.0
100
AcDbArc
 50
270.0
 51
90.0
  0
ARC
  5
14E36
330
1A
100
AcDbEntity
  8
SN
  6
PHANTOM
 62
     9
 48
0.01
100
AcDbCircle
 10
3812.514421731408
 20
1402.150264570999
 30
0.0
 40
2.0
100
AcDbArc
 50
198.0944027608208
 51
0.0
  0
ARC
  5
14E37
330
1A
100
AcDbEntity
  8
SN
  6
PHANTOM
 62
     9
 48
0.01
100
AcDbCircle
 10
3804.514421731408
 20
1402.150264570999
 30
0.0
 40
2.0
100
AcDbArc
 50
134.9999999998987
 51
341.9055972407241
  0
ELLIPSE
  5
14E38
330
1A
100
AcDbEntity
  8
SN
  6
PHANTOM
 62
     9
 48
0.01
100
AcDbEllipse
 10
3808.514421731408
 20
1401.150264570999
 30
0.0
 11
-2.267949192431842
 21
0.0
 31
0.0
210
0.0
220
0.0
230
1.0
 40
0.440926985197466
 41
3.530127480805852
 42
5.894650479914343
  0
LINE
  5
14E39
330
1A
100
AcDbEntity
  8
SN
  6
PHANTOM
 62
     9
 48
0.01
100
AcDbLine
 10
3815.514421731408
 20
1402.150264570999
 30
0.0
 11
3814.514421731408
 21
1402.150264570999
 31
0.0
  0
LINE
  5
14E3A
330
1A
100
AcDbEntity
  8
SN
  6
PHANTOM
 62
     9
 48
0.01
100
AcDbLine
 10
3803.100208169039
 20
1403.564478133371
 30
0.0
 11
3804.514421731408
 21
1404.978691695744
 31
0.0
  0
LINE
  5
14E3B
330
1A
100
AcDbEntity
  8
SN
  6
PHANTOM
 62
     9
 48
0.01
100
AcDbLine
 10
3804.514421731408
 20
1404.978691695744
 30
0.0
 11
3804.514421731408
 21
1405.650264570998
 31
0.0
  0
LINE
  5
14E3C
330
1A
100
AcDbEntity
  8
SN
  6
PHANTOM
 62
     9
 48
0.01
100
AcDbLine
 10
3808.289630464198
 20
1402.145340403456
 30
0.0
 11
3799.581120370851
 21
1393.894897133787
 31
0.0
  0
LINE
  5
14E3D
330
1A
100
AcDbEntity
  8
SN
  6
PHANTOM
 62
     9
 48
0.01
100
AcDbLine
 10
3804.522433154278
 20
1405.739411864693
 30
0.0
 11
3796.872991781391
 21
1398.492330398955
 31
0.0
  0
LINE
  5
14E3E
330
1A
100
AcDbEntity
  8
SN
  6
PHANTOM
 62
     9
 48
0.01
100
AcDbLine
 10
3800.514421731408
 20
1380.900264570997
 30
0.0
 11
3796.764421731408
 21
1380.900264570997
 31
0.0
  0
LINE
  5
14E3F
330
1A
100
AcDbEntity
  8
SN
  6
PHANTOM
 62
     9
 48
0.01
100
AcDbLine
 10
3747.764421731409
 20
1380.900264570998
 30
0.0
 11
3744.014421731409
 21
1380.900264570998
 31
0.0
  0
DIMENSION
  5
14E40
330
1A
100
AcDbEntity
  8
MEASURE
100
AcDbDimension
  2
*D61
 10
3060.143656532812
 20
1248.100827504159
 30
0.0
 11
2827.11829646585
 21
1266.100827504159
 31
0.0
 70
    32
  1
（466）
 71
     5
 42
466.0507201339242
  3
AD-STANDARDx3
100
AcDbAlignedDimension
 13
2594.092936398887
 23
1404.150264570998
 33
0.0
 14
3060.143656532812
 24
1404.150264570999
 34
0.0
100
AcDbRotatedDimension
  0
DIMENSION
  5
14E41
330
1A
100
AcDbEntity
  8
MEASURE
100
AcDbDimension
  2
*D62
 10
3817.514421731408
 20
1248.100827504159
 30
0.0
 11
3591.714163485058
 21
1266.100827504159
 31
0.0
 70
    32
  1
（452）
 71
     5
 42
451.6005164927009
  3
AD-STANDARDx3
100
AcDbAlignedDimension
 13
3365.913905238708
 23
1404.150264571
 33
0.0
 14
3817.514421731408
 24
1404.150264570999
 34
0.0
100
AcDbRotatedDimension
  0
DIMENSION
  5
14E42
330
1A
100
AcDbEntity
  8
MEASURE
100
AcDbDimension
  2
*D63
 10
3719.035902439514
 20
1401.522007400934
 30
0.0
 11
3799.375273872703
 21
1309.619215411261
 31
0.0
 70
    35
 71
     5
 42
48.99999999999613
  3
AD-STANDARDx3
100
AcDbDiametricDimension
 15
3745.492941023294
 25
1360.278521741062
 35
0.0
 40
0.0
1001
ACAD_DSTYLE_DIMRADIAL_EXTENSION
1070
   387
1070
     1
1070
   388
1040
0.0
1070
   390
1040
0.0
1001
ACAD
1000
DSTYLE
1002
{
1070
    75
1070
     1
1070
    76
1070
     1
1002
}
  0
MTEXT
  5
14E43
330
1A
100
AcDbEntity
  8
MEASURE
 62
     2
100
AcDbMText
 10
3737.440049831792
 20
1348.447242605887
 30
0.0
 40
24.5
 41
395.4149114398351
 71
     1
 72
     5
  1
（車輪径）
  7
AD-STANDARD
 11
0.5509325841111984
 21
-0.8345497515214761
 31
0.0
 73
     1
 44
1.0
1001
ACAD
1000
MTEXTBEGIN
1070
    73
1070
     1
1070
    44
1040
1.0
1070
    74
1070
     0
1000
MTEXTEND
  0
LINE
  5
1500C
330
1A
100
AcDbEntity
  8
SN
 62
     9
100
AcDbLine
 10
2819.581124897948
 20
2518.735887176847
 30
0.0000000000000107
 11
2805.581124897944
 21
2518.735887176847
 31
0.0000000000000107
  0
LINE
  5
1500D
330
1A
100
AcDbEntity
  8
SN
 62
     9
100
AcDbLine
 10
2819.581124897948
 20
2528.720653635183
 30
0.0000000000000107
 11
2805.581124897944
 21
2528.720653635183
 31
0.0000000000000107
  0
LINE
  5
1500E
330
1A
100
AcDbEntity
  8
SN
 62
     9
100
AcDbLine
 10
2803.581124897948
 20
2528.720653635183
 30
0.0000000000000107
 11
2789.581124897948
 21
2528.720653635183
 31
0.0000000000000107
  0
LINE
  5
1500F
330
1A
100
AcDbEntity
  8
SN
 62
     9
100
AcDbLine
 10
2803.581124897948
 20
2518.735887176847
 30
0.0000000000000107
 11
2789.581124897948
 21
2518.735887176847
 31
0.0000000000000107
  0
LINE
  5
15010
330
1A
100
AcDbEntity
  8
SN
 62
     9
100
AcDbLine
 10
2787.581124897948
 20
2518.735887176847
 30
0.0000000000000107
 11
2773.581124897948
 21
2518.735887176848
 31
0.0000000000000107
  0
LINE
  5
15011
330
1A
100
AcDbEntity
  8
SN
 62
     9
100
AcDbLine
 10
2787.581124897948
 20
2528.720653635183
 30
0.0000000000000107
 11
2773.581124897948
 21
2528.720653635183
 31
0.0000000000000107
  0
LINE
  5
15012
330
1A
100
AcDbEntity
  8
SN
 62
     9
100
AcDbLine
 10
2771.581124897949
 20
2528.720653635183
 30
0.0000000000000107
 11
2757.581124897944
 21
2528.720653635183
 31
0.0000000000000107
  0
LINE
  5
15013
330
1A
100
AcDbEntity
  8
SN
 62
     9
100
AcDbLine
 10
2771.581124897949
 20
2518.735887176848
 30
0.0000000000000107
 11
2757.581124897944
 21
2518.735887176848
 31
0.0000000000000107
  0
LINE
  5
15014
330
1A
100
AcDbEntity
  8
SN
 62
     9
100
AcDbLine
 10
2755.581124897948
 20
2518.735887176847
 30
0.0000000000000107
 11
2741.581124897948
 21
2518.735887176847
 31
0.0000000000000107
  0
LINE
  5
15015
330
1A
100
AcDbEntity
  8
SN
 62
     9
100
AcDbLine
 10
2755.581124897948
 20
2528.720653635183
 30
0.0000000000000107
 11
2741.581124897948
 21
2528.720653635183
 31
0.0000000000000107
  0
VIEWPORT
  5
22
102
{ACAD_XDICTIONARY
360
151BD
102
}
330
17
100
AcDbEntity
 67
     1
  8
0
100
AcDbViewport
 10
210.8420664587033
 20
149.4937982051795
 30
0.0
 40
444.527507849643
 41
334.1590490803008
 68
     1
 69
     1
 12
210.8420664587033
 22
149.4937982051795
 13
0.0
 23
0.0
 14
1.0
 24
1.0
 15
10.0
 25
10.0
 16
0.0
 26
0.0
 36
1.0
 17
0.0
 27
0.0
 37
0.0
 42
50.0
 43
0.0
 44
0.0
 45
334.1590490803008
 50
0.0
 51
0.0
 72
   100
 90
    36864
  1

281
     0
 71
     1
 74
     0
110
0.0
120
0.0
130
0.0
111
1.0
121
0.0
131
0.0
112
0.0
122
1.0
132
0.0
 79
     0
146
0.0
  0
VIEWPORT
  5
2A3
102
{ACAD_XDICTIONARY
360
151BF
102
}
330
17
100
AcDbEntity
 67
     1
  8
DEFPOINTS
100
AcDbViewport
 10
214.9841981787927
 20
152.1092414795518
 30
0.0
 40
408.7948333346883
 41
285.802500100069
 68
     2
 69
     2
 12
2119.29869518377
 22
1448.75872432494
 13
0.0
 23
0.0
 14
168.0
 24
168.0
 15
0.0
 25
0.0
 16
0.0
 26
0.0
 36
1.0
 17
0.0
 27
0.0
 37
0.0
 42
50.0
 43
0.0
 44
0.0
 45
2858.025003533784
 50
0.0
 51
0.0
 72
   100
 90
    36864
  1

281
     0
 71
     1
 74
     0
110
0.0
120
0.0
130
0.0
111
1.0
121
0.0
131
0.0
112
0.0
122
1.0
132
0.0
 79
     0
146
0.0
  0
ENDSEC
  0
SECTION
  2
OBJECTS
  0
DICTIONARY
  5
C
330
0
100
AcDbDictionary
281
     1
  3
ACAD_COLOR
350
12356
  3
ACAD_GROUP
350
D
  3
ACAD_LAYOUT
350
12359
  3
ACAD_MATERIAL
350
12355
  3
ACAD_MLINESTYLE
350
E
  3
ACAD_PLOTSETTINGS
350
1235A
  3
ACAD_PLOTSTYLENAME
350
12353
  3
ACAD_TABLESTYLE
350
12357
  3
ACDBHEADERROUNDTRIPXREC
350
151BC
  3
AcDbVariableDictionary
350
12364
  0
DICTIONARY
  5
12369
330
2
100
AcDbDictionary
280
     1
281
     1
  3
ACAD_LAYERFILTERS
360
14F0C
  3
ACAD_LAYERSTATES
360
1236A
  3
ACLYDICTIONARY
360
14F0B
  0
DICTIONARY
  5
13F76
330
1A
100
AcDbDictionary
280
     1
281
     1
  3
ACAD_SORTENTS
360
13F77
  0
DICTIONARY
  5
151BD
330
22
100
AcDbDictionary
280
     1
281
     1
  3
ACAD_XREC_ROUNDTRIP
360
151BE
  0
DICTIONARY
  5
151BF
330
2A3
100
AcDbDictionary
280
     1
281
     1
  3
ACAD_XREC_ROUNDTRIP
360
151C0
  0
DICTIONARY
  5
12356
102
{ACAD_REACTORS
330
C
102
}
330
C
100
AcDbDictionary
281
     1
  0
DICTIONARY
  5
D
102
{ACAD_REACTORS
330
C
102
}
330
C
100
AcDbDictionary
281
     1
  0
DICTIONARY
  5
12359
102
{ACAD_REACTORS
330
C
102
}
330
C
100
AcDbDictionary
281
     1
  3
Model
350
1235B
  3
レイアウト1
350
1235C
  0
DICTIONARY
  5
12355
102
{ACAD_REACTORS
330
C
102
}
330
C
100
AcDbDictionary
281
     1
  3
Global
350
12409
  0
DICTIONARY
  5
E
102
{ACAD_REACTORS
330
C
102
}
330
C
100
AcDbDictionary
281
     1
  3
STANDARD
350
13
  0
DICTIONARY
  5
1235A
102
{ACAD_REACTORS
330
C
102
}
330
C
100
AcDbDictionary
281
     1
  0
ACDBDICTIONARYWDFLT
  5
12353
102
{ACAD_REACTORS
330
C
102
}
330
C
100
AcDbDictionary
281
     1
  3
Normal
350
12354
100
AcDbDictionaryWithDefault
340
12354
  0
DICTIONARY
  5
12357
102
{ACAD_REACTORS
330
C
102
}
330
C
100
AcDbDictionary
281
     1
  3
Standard
350
12358
  0
DICTIONARY
  5
151BC
102
{ACAD_REACTORS
330
C
102
}
330
C
100
AcDbDictionary
281
     1
  0
DICTIONARY
  5
12364
102
{ACAD_REACTORS
330
C
102
}
330
C
100
AcDbDictionary
281
     1
  3
CTABLESTYLE
350
12365
  3
DIMASSOC
350
123D2
  3
PROJECTNAME
350
123D3
  0
DICTIONARY
  5
14F0C
102
{ACAD_REACTORS
330
12369
102
}
330
12369
100
AcDbDictionary
281
     1
  0
DICTIONARY
  5
1236A
102
{ACAD_REACTORS
330
12369
102
}
330
12369
100
AcDbDictionary
281
     1
  0
DICTIONARY
  5
14F0B
102
{ACAD_REACTORS
330
12369
102
}
330
12369
100
AcDbDictionary
281
     1
1001
ACAD
1000
<All
  0
SORTENTSTABLE
  5
13F77
102
{ACAD_REACTORS
330
13F76
102
}
330
13F76
100
AcDbSortentsTable
330
1A
331
14E39
  5
14E43
331
14D28
  5
14D32
331
14C39
  5
14C39
331
14D4A
  5
14D54
331
14AF2
  5
14AF2
331
14421
  5
14421
331
14C5B
  5
14C5B
331
14D6C
  5
14D76
331
14B14
  5
14B14
331
14443
  5
14443
331
14D86
  5
14D90
331
14C7D
  5
14C7D
331
14B2E
  5
14B2E
331
14DA8
  5
14DB2
331
14C97
  5
14C97
331
14DCA
  5
14DD4
331
14CB9
  5
14CB9
331
14BA8
  5
14BA8
331
14DEC
  5
14DF6
331
14CDB
  5
14CDB
331
14BCA
  5
14BCA
331
14B72
  5
14B72
331
14B50
  5
14B50
331
14487
  5
14487
331
14465
  5
14465
331
1440D
  5
1440D
331
143EB
  5
143EB
331
143C9
  5
143C9
331
14E06
  5
14E10
331
14CFD
  5
14D07
331
14BEC
  5
14BEC
331
14B94
  5
14B94
331
14E28
  5
14E32
331
14D17
  5
14D21
331
14C0E
  5
14C0E
331
14D39
  5
14D43
331
14C28
  5
14C28
331
14C4A
  5
14C4A
331
14D5B
  5
14D65
331
1500C
  5
14CE5
331
14B03
  5
14B03
331
14432
  5
14432
331
14C6C
  5
14C6C
331
14454
  5
14454
331
143FC
  5
143FC
331
143DA
  5
143DA
331
143B8
  5
143B8
331
1439E
  5
1439E
331
1437C
  5
1437C
331
14D7D
  5
14D87
331
14B25
  5
14B25
331
14D97
  5
14DA1
331
14C8E
  5
14C8E
331
14DB9
  5
14DC3
331
14CA8
  5
14CA8
331
14DDB
  5
14DE5
331
14CCA
  5
14CCA
331
14BB9
  5
14BB9
331
14B61
  5
14B61
331
14B3F
  5
14B3F
331
14476
  5
14476
331
1441E
  5
1441E
331
14CEC
  5
14CF6
331
14BDB
  5
14BDB
331
14B83
  5
14B83
331
14E17
  5
14E21
331
14BFD
  5
14BFD
331
1438D
  5
1438D
331
1436B
  5
1436B
331
BEF5
  5
BEF5
331
14D48
  5
14D52
331
14AF0
  5
14AF0
331
14C59
  5
14C59
331
14D6A
  5
14D74
331
14B12
  5
14B12
331
14441
  5
14441
331
14D84
  5
14D8E
331
14C7B
  5
14C7B
331
14B2C
  5
14B2C
331
14DA6
  5
14DB0
331
14C95
  5
14C95
331
14DC8
  5
14DD2
331
14CB7
  5
14CB7
331
14BA6
  5
14BA6
331
14DEA
  5
14DF4
331
14CD9
  5
14CD9
331
14BC8
  5
14BC8
331
14B70
  5
14B70
331
14B4E
  5
14B4E
331
14485
  5
14485
331
14463
  5
14463
331
1440B
  5
1440B
331
143E9
  5
143E9
331
14E04
  5
14E0E
331
14CFB
  5
14D05
331
14BEA
  5
14BEA
331
14B92
  5
14B92
331
14E26
  5
14E30
331
14D15
  5
14D1F
331
14C0C
  5
14C0C
331
14D37
  5
14D41
331
14C26
  5
14C26
331
14C48
  5
14C48
331
14D59
  5
14D63
331
14B01
  5
14B01
331
14430
  5
14430
331
14C6A
  5
14C6A
331
14D7B
  5
14D85
331
14B23
  5
14B23
331
14452
  5
14452
331
143FA
  5
143FA
331
143D8
  5
143D8
331
143B6
  5
143B6
331
1439C
  5
1439C
331
1437A
  5
1437A
331
14D95
  5
14D9F
331
14C8C
  5
14C8C
331
14B3D
  5
14B3D
331
14DB7
  5
14DC1
331
14CA6
  5
14CA6
331
14DD9
  5
14DE3
331
14CC8
  5
14CC8
331
14BB7
  5
14BB7
331
14B5F
  5
14B5F
331
14496
  5
14496
331
14474
  5
14474
331
1441C
  5
1441C
331
14CEA
  5
14CF4
331
14BD9
  5
14BD9
331
14B81
  5
14B81
331
14E15
  5
14E1F
331
14E37
  5
14E41
331
14D26
  5
14D30
331
14BFB
  5
14BFB
331
14C37
  5
14C37
331
143C7
  5
143C7
331
1438B
  5
1438B
331
14369
  5
14369
331
13ACB
  5
13FA0
331
14D68
  5
14D72
331
14B10
  5
14B10
331
14D82
  5
14D8C
331
14C79
  5
14C79
331
14B2A
  5
14B2A
331
14DA4
  5
14DAE
331
14C93
  5
14C93
331
14DC6
  5
14DD0
331
14CB5
  5
14CB5
331
14DE8
  5
14DF2
331
14CD7
  5
14CD7
331
14BC6
  5
14BC6
331
14BA4
  5
14BA4
331
14B4C
  5
14B4C
331
14483
  5
14483
331
14461
  5
14461
331
14409
  5
14409
331
14E02
  5
14E0C
331
14CF9
  5
14D03
331
14BE8
  5
14BE8
331
14B90
  5
14B90
331
14E24
  5
14E2E
331
14D13
  5
14D1D
331
14C0A
  5
14C0A
331
14D35
  5
14D3F
331
14C24
  5
14C24
331
14C46
  5
14C46
331
14D57
  5
14D61
331
14AFF
  5
14AFF
331
1442E
  5
1442E
331
14C68
  5
14C68
331
14D79
  5
14D83
331
14B21
  5
14B21
331
14450
  5
14450
331
14D93
  5
14D9D
331
14C8A
  5
14C8A
331
14B3B
  5
14B3B
331
14DB5
  5
14DBF
331
14CA4
  5
14CA4
331
14DD7
  5
14DE1
331
14CC6
  5
14CC6
331
14BB5
  5
14BB5
331
14CE8
  5
14CF2
331
14BD7
  5
14BD7
331
14B7F
  5
14B7F
331
14B5D
  5
14B5D
331
14494
  5
14494
331
14472
  5
14472
331
1441A
  5
1441A
331
143F8
  5
143F8
331
143D6
  5
143D6
331
143B4
  5
143B4
331
1439A
  5
1439A
331
14E13
  5
14E1D
331
14E35
  5
14E3F
331
14D24
  5
14D2E
331
14BF9
  5
14BF9
331
14C35
  5
14C35
331
14D46
  5
14D50
331
14AEE
  5
14AEE
331
14C57
  5
14C57
331
1443F
  5
1443F
331
143E7
  5
143E7
331
143C5
  5
143C5
331
14389
  5
14389
331
14378
  5
14378
331
14D80
  5
14D8A
331
14B28
  5
14B28
331
14DA2
  5
14DAC
331
14C91
  5
14C91
331
14DC4
  5
14DCE
331
14CB3
  5
14CB3
331
14BA2
  5
14BA2
331
14DE6
  5
14DF0
331
14CD5
  5
14CD5
331
14BC4
  5
14BC4
331
14B6C
  5
14B6C
331
14B4A
  5
14B4A
331
14481
  5
14481
331
14E00
  5
14E0A
331
14CF7
  5
14D01
331
14BE6
  5
14BE6
331
14B8E
  5
14B8E
331
14E22
  5
14E2C
331
14D11
  5
14D1B
331
14C08
  5
14C08
331
14D33
  5
14D3D
331
14C22
  5
14C22
331
14C44
  5
14C44
331
14D55
  5
14D5F
331
14AFD
  5
14AFD
331
1442C
  5
1442C
331
14C66
  5
14C66
331
1444E
  5
1444E
331
143F6
  5
143F6
331
143D4
  5
143D4
331
143B2
  5
143B2
331
14398
  5
14398
331
14376
  5
14376
331
14D77
  5
14D81
331
14B1F
  5
14B1F
331
14D91
  5
14D9B
331
14C88
  5
14C88
331
14B39
  5
14B39
331
14DB3
  5
14DBD
331
14CA2
  5
14CA2
331
14DD5
  5
14DDF
331
14CC4
  5
14CC4
331
14BB3
  5
14BB3
331
14DF7
  5
14E01
331
14CE6
  5
14CEB
331
14BD5
  5
14BD5
331
14B7D
  5
14B7D
331
14B5B
  5
14B5B
331
14492
  5
14492
331
14470
  5
14470
331
14418
  5
14418
331
14E11
  5
14E1B
331
14E33
  5
14E3D
331
14D22
  5
14D2C
331
14BF7
  5
14BF7
331
14B9F
  5
14B9F
331
14D44
  5
14D4E
331
14C33
  5
14C33
331
14D66
  5
14D70
331
14C55
  5
14C55
331
1443D
  5
1443D
331
14C77
  5
14C77
331
1445F
  5
1445F
331
14407
  5
14407
331
143E5
  5
143E5
331
143C3
  5
143C3
331
14387
  5
14387
331
3ADF
  5
3ADF
331
14DA0
  5
14DAA
331
14BA0
  5
14BA0
331
14B48
  5
14B48
331
14DC2
  5
14DCC
331
14CB1
  5
14CB1
331
14DE4
  5
14DEE
331
14CD3
  5
14CD3
331
14BC2
  5
14BC2
331
14499
  5
14499
331
14DFE
  5
14E08
331
14CF5
  5
14CFF
331
14BE4
  5
14BE4
331
14B8C
  5
14B8C
331
14E20
  5
14E2A
331
14D0F
  5
14D19
331
14C06
  5
14C06
331
14E42
  5
15014
331
14D31
  5
14D3B
331
14C20
  5
14C20
331
14C42
  5
14C42
331
14D53
  5
14D5D
331
14AFB
  5
14AFB
331
1442A
  5
1442A
331
14C64
  5
14C64
331
14D75
  5
14D7F
331
14B1D
  5
14B1D
331
1444C
  5
1444C
331
14D8F
  5
14D99
331
14C86
  5
14C86
331
14B37
  5
14B37
331
14DB1
  5
14DBB
331
14CA0
  5
14CA0
331
14DD3
  5
14DDD
331
14CC2
  5
14CC2
331
14BB1
  5
14BB1
331
14DF5
  5
14DFF
331
14CE4
  5
14CE4
331
14BD3
  5
14BD3
331
14B7B
  5
14B7B
331
14B59
  5
14B59
331
14490
  5
14490
331
1446E
  5
1446E
331
14416
  5
14416
331
143F4
  5
143F4
331
143D2
  5
143D2
331
143B0
  5
143B0
331
14396
  5
14396
331
14E0F
  5
14E19
331
14D06
  5
14D10
331
14BF5
  5
14BF5
331
14B9D
  5
14B9D
331
14E31
  5
14E3B
331
14D20
  5
14D2A
331
14C17
  5
14C17
331
14D42
  5
14D4C
331
14C31
  5
14C31
331
14C53
  5
14C53
331
14D64
  5
14D6E
331
15015
  5
14CF0
331
14B0C
  5
14B0C
331
1443B
  5
1443B
331
14C75
  5
14C75
331
1447F
  5
1447F
331
1445D
  5
1445D
331
14405
  5
14405
331
143E3
  5
143E3
331
143C1
  5
143C1
331
143A7
  5
143A7
331
14385
  5
14385
331
14374
  5
14374
331
14DC0
  5
14DCA
331
14DE2
  5
14DEC
331
14CD1
  5
14CD1
331
14BC0
  5
14BC0
331
14B68
  5
14B68
331
14DFC
  5
14E06
331
14CF3
  5
14CFD
331
14BE2
  5
14BE2
331
14E1E
  5
14E28
331
14D0D
  5
14D17
331
14C04
  5
14C04
331
14E40
  5
15012
331
14D2F
  5
14D39
331
14C1E
  5
14C1E
331
14C40
  5
14C40
331
14D51
  5
14D5B
331
14AF9
  5
14AF9
331
14428
  5
14428
331
14C62
  5
14C62
331
14D73
  5
14D7D
331
14B1B
  5
14B1B
331
1444A
  5
1444A
331
14D8D
  5
14D97
331
14C84
  5
14C84
331
14B35
  5
14B35
331
14DAF
  5
14DB9
331
14C9E
  5
14C9E
331
14DD1
  5
14DDB
331
14CC0
  5
14CC0
331
14BAF
  5
14BAF
331
14DF3
  5
14DFD
331
14CE2
  5
14CE2
331
14BD1
  5
14BD1
331
14B79
  5
14B79
331
14B57
  5
14B57
331
1448E
  5
1448E
331
1446C
  5
1446C
331
14414
  5
14414
331
143F2
  5
143F2
331
143D0
  5
143D0
331
143AE
  5
143AE
331
14394
  5
14394
331
14E0D
  5
14E17
331
14D04
  5
14D0E
331
14BF3
  5
14BF3
331
14B9B
  5
14B9B
331
14E2F
  5
14E39
331
14D1E
  5
14D28
331
14C15
  5
14C15
331
14D40
  5
14D4A
331
14C2F
  5
14C2F
331
14C51
  5
14C51
331
14D62
  5
14D6C
331
15013
  5
14CE8
331
14B0A
  5
14B0A
331
14439
  5
14439
331
14C73
  5
14C73
331
14D9E
  5
14DA8
331
14CAF
  5
14CAF
331
1447D
  5
1447D
331
1445B
  5
1445B
331
14403
  5
14403
331
143E1
  5
143E1
331
143BF
  5
143BF
331
143A5
  5
143A5
331
14383
  5
14383
331
14372
  5
14372
331
14DE0
  5
14DEA
331
14DFA
  5
14E04
331
14CF1
  5
14CFB
331
14BE0
  5
14BE0
331
14B88
  5
14B88
331
14E1C
  5
14E26
331
14D0B
  5
14D15
331
14C02
  5
14C02
331
14E3E
  5
15010
331
14D2D
  5
14D37
331
14C1C
  5
14C1C
331
14C3E
  5
14C3E
331
14D4F
  5
14D59
331
14AF7
  5
14AF7
331
14426
  5
14426
331
14C60
  5
14C60
331
14D71
  5
14D7B
331
14B19
  5
14B19
331
14448
  5
14448
331
14D8B
  5
14D95
331
14C82
  5
14C82
331
14DAD
  5
14DB7
331
14C9C
  5
14C9C
331
14DCF
  5
14DD9
331
14CBE
  5
14CBE
331
14BAD
  5
14BAD
331
14DF1
  5
14DFB
331
14CE0
  5
14CE0
331
14BCF
  5
14BCF
331
14B77
  5
14B77
331
14B55
  5
14B55
331
1448C
  5
1448C
331
1446A
  5
1446A
331
14412
  5
14412
331
143F0
  5
143F0
331
143CE
  5
143CE
331
143AC
  5
143AC
331
14392
  5
14392
331
14E0B
  5
14E15
331
14D02
  5
14D0C
331
14BF1
  5
14BF1
331
14B99
  5
14B99
331
14E2D
  5
14E37
331
14D1C
  5
14D26
331
14C13
  5
14C13
331
14D3E
  5
14D48
331
14C2D
  5
14C2D
331
14C4F
  5
14C4F
331
14D60
  5
14D6A
331
15011
  5
14CEE
331
14B08
  5
14B08
331
14437
  5
14437
331
14C71
  5
14C71
331
14D9C
  5
14DA6
331
14DBE
  5
14DC8
331
14CAD
  5
14CAD
331
14CCF
  5
14CCF
331
14BBE
  5
14BBE
331
14B66
  5
14B66
331
14B44
  5
14B44
331
1447B
  5
1447B
331
14459
  5
14459
331
14401
  5
14401
331
143DF
  5
143DF
331
143BD
  5
143BD
331
143A3
  5
143A3
331
14381
  5
14381
331
14370
  5
14370
331
14DF8
  5
14E02
331
14E1A
  5
14E24
331
14D09
  5
14D13
331
14C00
  5
14C00
331
14E3C
  5
1500E
331
14D2B
  5
14D35
331
14C1A
  5
14C1A
331
14C3C
  5
14C3C
331
14D4D
  5
14D57
331
14AF5
  5
14AF5
331
14424
  5
14424
331
14C5E
  5
14C5E
331
14D6F
  5
14D79
331
14B17
  5
14B17
331
14446
  5
14446
331
14D89
  5
14D93
331
14C80
  5
14C80
331
14B31
  5
14B31
331
14DAB
  5
14DB5
331
14C9A
  5
14C9A
331
14DCD
  5
14DD7
331
14CBC
  5
14CBC
331
14BAB
  5
14BAB
331
14DEF
  5
14DF9
331
14CDE
  5
14CDE
331
14BCD
  5
14BCD
331
14B75
  5
14B75
331
14B53
  5
14B53
331
1448A
  5
1448A
331
14468
  5
14468
331
14410
  5
14410
331
143EE
  5
143EE
331
143CC
  5
143CC
331
143AA
  5
143AA
331
14390
  5
14390
331
14E09
  5
14E13
331
14D00
  5
14D0A
331
14BEF
  5
14BEF
331
14B97
  5
14B97
331
14E2B
  5
14E35
331
14D1A
  5
14D24
331
14C11
  5
14C11
331
14D3C
  5
14D46
331
14C2B
  5
14C2B
331
14C4D
  5
14C4D
331
14D5E
  5
14D68
331
1500F
  5
14CE6
331
14B06
  5
14B06
331
14435
  5
14435
331
14C6F
  5
14C6F
331
14D9A
  5
14DA4
331
14DBC
  5
14DC6
331
14CAB
  5
14CAB
331
14DDE
  5
14DE8
331
14CCD
  5
14CCD
331
14BBC
  5
14BBC
331
14B64
  5
14B64
331
14B42
  5
14B42
331
14479
  5
14479
331
14457
  5
14457
331
143FF
  5
143FF
331
143DD
  5
143DD
331
143BB
  5
143BB
331
143A1
  5
143A1
331
1437F
  5
1437F
331
14CEF
  5
14CF9
331
14BDE
  5
14BDE
331
14B86
  5
14B86
331
1436E
  5
1436E
331
14E18
  5
14E22
331
14E3A
  5
1500C
331
14D29
  5
14D33
331
14C18
  5
14C18
331
14C3A
  5
14C3A
331
14D4B
  5
14D55
331
14AF3
  5
14AF3
331
14422
  5
14422
331
14C5C
  5
14C5C
331
14D6D
  5
14D77
331
14B15
  5
14B15
331
14444
  5
14444
331
14D87
  5
14D91
331
14C7E
  5
14C7E
331
14B2F
  5
14B2F
331
14DA9
  5
14DB3
331
14C98
  5
14C98
331
14DCB
  5
14DD5
331
14CBA
  5
14CBA
331
14BA9
  5
14BA9
331
14DED
  5
14DF7
331
14CDC
  5
14CDC
331
14BCB
  5
14BCB
331
14B73
  5
14B73
331
14B51
  5
14B51
331
14488
  5
14488
331
14466
  5
14466
331
1440E
  5
1440E
331
143EC
  5
143EC
331
143CA
  5
143CA
331
143A8
  5
143A8
331
14E07
  5
14E11
331
14CFE
  5
14D08
331
14BED
  5
14BED
331
14B95
  5
14B95
331
14E29
  5
14E33
331
14D18
  5
14D22
331
14C0F
  5
14C0F
331
14D3A
  5
14D44
331
14C29
  5
14C29
331
14C4B
  5
14C4B
331
14D5C
  5
14D66
331
1500D
  5
14CEC
331
14B04
  5
14B04
331
14433
  5
14433
331
14C6D
  5
14C6D
331
14D7E
  5
14D88
331
14B26
  5
14B26
331
14455
  5
14455
331
14D98
  5
14DA2
331
14C8F
  5
14C8F
331
14DBA
  5
14DC4
331
14CA9
  5
14CA9
331
14DDC
  5
14DE6
331
14CCB
  5
14CCB
331
14BBA
  5
14BBA
331
14B62
  5
14B62
331
14B40
  5
14B40
331
14477
  5
14477
331
1441F
  5
1441F
331
143FD
  5
143FD
331
143DB
  5
143DB
331
143B9
  5
143B9
331
1439F
  5
1439F
331
1437D
  5
1437D
331
14CED
  5
14CF7
331
14BDC
  5
14BDC
331
14B84
  5
14B84
331
14BFE
  5
14BFE
331
1438E
  5
1438E
331
1436C
  5
1436C
331
14E38
  5
14E42
331
14C38
  5
14C38
331
14D49
  5
14D53
331
14AF1
  5
14AF1
331
14420
  5
14420
331
14C5A
  5
14C5A
331
14D6B
  5
14D75
331
14B13
  5
14B13
331
14442
  5
14442
331
14D85
  5
14D8F
331
14C7C
  5
14C7C
331
14B2D
  5
14B2D
331
14DA7
  5
14DB1
331
14C96
  5
14C96
331
14DC9
  5
14DD3
331
14CB8
  5
14CB8
331
14BA7
  5
14BA7
331
14DEB
  5
14DF5
331
14CDA
  5
14CDA
331
14BC9
  5
14BC9
331
14B71
  5
14B71
331
14B4F
  5
14B4F
331
14486
  5
14486
331
14464
  5
14464
331
1440C
  5
1440C
331
143EA
  5
143EA
331
143C8
  5
143C8
331
14E05
  5
14E0F
331
14CFC
  5
14D06
331
14BEB
  5
14BEB
331
14B93
  5
14B93
331
14E27
  5
14E31
331
14D16
  5
14D20
331
14C0D
  5
14C0D
331
14D38
  5
14D42
331
14C27
  5
14C27
331
14C49
  5
14C49
331
14D5A
  5
14D64
331
14B02
  5
14B02
331
14431
  5
14431
331
14C6B
  5
14C6B
331
14D7C
  5
14D86
331
14B24
  5
14B24
331
14453
  5
14453
331
14D96
  5
14DA0
331
14C8D
  5
14C8D
331
14B3E
  5
14B3E
331
14DB8
  5
14DC2
331
14CA7
  5
14CA7
331
14DDA
  5
14DE4
331
14CC9
  5
14CC9
331
14BB8
  5
14BB8
331
14B60
  5
14B60
331
14497
  5
14497
331
14475
  5
14475
331
1441D
  5
1441D
331
143FB
  5
143FB
331
143D9
  5
143D9
331
143B7
  5
143B7
331
1439D
  5
1439D
331
1437B
  5
1437B
331
14CEB
  5
14CF5
331
14BDA
  5
14BDA
331
14B82
  5
14B82
331
14E16
  5
14E20
331
14D27
  5
14D31
331
14BFC
  5
14BFC
331
1438C
  5
1438C
331
1436A
  5
1436A
331
14C58
  5
14C58
331
14D69
  5
14D73
331
14B11
  5
14B11
331
14440
  5
14440
331
14D83
  5
14D8D
331
14C7A
  5
14C7A
331
14B2B
  5
14B2B
331
14DA5
  5
14DAF
331
14C94
  5
14C94
331
14DC7
  5
14DD1
331
14CB6
  5
14CB6
331
14BA5
  5
14BA5
331
14DE9
  5
14DF3
331
14CD8
  5
14CD8
331
14BC7
  5
14BC7
331
14B6F
  5
14B6F
331
14B4D
  5
14B4D
331
14484
  5
14484
331
14462
  5
14462
331
1440A
  5
1440A
331
143E8
  5
143E8
331
14E03
  5
14E0D
331
14CFA
  5
14D04
331
14BE9
  5
14BE9
331
14B91
  5
14B91
331
14E25
  5
14E2F
331
14D14
  5
14D1E
331
14C0B
  5
14C0B
331
14D36
  5
14D40
331
14C25
  5
14C25
331
14C47
  5
14C47
331
14D58
  5
14D62
331
14B00
  5
14B00
331
1442F
  5
1442F
331
14C69
  5
14C69
331
14D7A
  5
14D84
331
14B22
  5
14B22
331
14451
  5
14451
331
14D94
  5
14D9E
331
14C8B
  5
14C8B
331
14B3C
  5
14B3C
331
14DB6
  5
14DC0
331
14CA5
  5
14CA5
331
14DD8
  5
14DE2
331
14CC7
  5
14CC7
331
14BB6
  5
14BB6
331
14CE9
  5
14CF3
331
14BD8
  5
14BD8
331
14B80
  5
14B80
331
14495
  5
14495
331
14473
  5
14473
331
1441B
  5
1441B
331
143F9
  5
143F9
331
143D7
  5
143D7
331
143B5
  5
143B5
331
1439B
  5
1439B
331
14E14
  5
14E1E
331
14E36
  5
14E40
331
14D25
  5
14D2F
331
14BFA
  5
14BFA
331
14C36
  5
14C36
331
14D47
  5
14D51
331
14AEF
  5
14AEF
331
143C6
  5
143C6
331
1438A
  5
1438A
331
14379
  5
14379
331
14D81
  5
14D8B
331
14C78
  5
14C78
331
14B29
  5
14B29
331
14DA3
  5
14DAD
331
14C92
  5
14C92
331
14DC5
  5
14DCF
331
14CB4
  5
14CB4
331
14DE7
  5
14DF1
331
14CD6
  5
14CD6
331
14BC5
  5
14BC5
331
14BA3
  5
14BA3
331
14B4B
  5
14B4B
331
14482
  5
14482
331
14460
  5
14460
331
14408
  5
14408
331
14E01
  5
14E0B
331
14CF8
  5
14D02
331
14BE7
  5
14BE7
331
14B8F
  5
14B8F
331
14E23
  5
14E2D
331
14D12
  5
14D1C
331
14C09
  5
14C09
331
14D34
  5
14D3E
331
14C23
  5
14C23
331
14C45
  5
14C45
331
14D56
  5
14D60
331
14AFE
  5
14AFE
331
1442D
  5
1442D
331
14C67
  5
14C67
331
14D78
  5
14D82
331
14B20
  5
14B20
331
1444F
  5
1444F
331
14D92
  5
14D9C
331
14C89
  5
14C89
331
14B3A
  5
14B3A
331
14DB4
  5
14DBE
331
14CA3
  5
14CA3
331
14DD6
  5
14DE0
331
14CC5
  5
14CC5
331
14BB4
  5
14BB4
331
14CE7
  5
14CF1
331
14BD6
  5
14BD6
331
14B7E
  5
14B7E
331
14B5C
  5
14B5C
331
14493
  5
14493
331
14471
  5
14471
331
14419
  5
14419
331
143F7
  5
143F7
331
143D5
  5
143D5
331
143B3
  5
143B3
331
14399
  5
14399
331
14E12
  5
14E1C
331
14E34
  5
14E3E
331
14D23
  5
14D2D
331
14BF8
  5
14BF8
331
14D45
  5
14D4F
331
14C34
  5
14C34
331
14C56
  5
14C56
331
14D67
  5
14D71
331
14B0F
  5
14B0F
331
1443E
  5
1443E
331
143E6
  5
143E6
331
143C4
  5
143C4
331
14388
  5
14388
331
14377
  5
14377
331
14DA1
  5
14DAB
331
14C90
  5
14C90
331
14DC3
  5
14DCD
331
14CB2
  5
14CB2
331
14BA1
  5
14BA1
331
14DE5
  5
14DEF
331
14CD4
  5
14CD4
331
14BC3
  5
14BC3
331
14B6B
  5
14B6B
331
14480
  5
14480
331
14DFF
  5
14E09
331
14CF6
  5
14D00
331
14BE5
  5
14BE5
331
14B8D
  5
14B8D
331
14E21
  5
14E2B
331
14D10
  5
14D1A
331
14C07
  5
14C07
331
14E43
  5
15015
331
14D32
  5
14D3C
331
14C21
  5
14C21
331
14C43
  5
14C43
331
14D54
  5
14D5E
331
14AFC
  5
14AFC
331
1442B
  5
1442B
331
14C65
  5
14C65
331
14D76
  5
14D80
331
14B1E
  5
14B1E
331
1444D
  5
1444D
331
14D90
  5
14D9A
331
14C87
  5
14C87
331
14B38
  5
14B38
331
14DB2
  5
14DBC
331
14CA1
  5
14CA1
331
14DD4
  5
14DDE
331
14CC3
  5
14CC3
331
14BB2
  5
14BB2
331
14DF6
  5
14E00
331
14CE5
  5
14CEA
331
14BD4
  5
14BD4
331
14B7C
  5
14B7C
331
14B5A
  5
14B5A
331
14491
  5
14491
331
1446F
  5
1446F
331
14417
  5
14417
331
143F5
  5
143F5
331
143D3
  5
143D3
331
143B1
  5
143B1
331
14397
  5
14397
331
14E10
  5
14E1A
331
14D07
  5
14D11
331
14E32
  5
14E3C
331
14D21
  5
14D2B
331
14BF6
  5
14BF6
331
14B9E
  5
14B9E
331
14D43
  5
14D4D
331
14C32
  5
14C32
331
14C54
  5
14C54
331
14D65
  5
14D6F
331
14B0D
  5
14B0D
331
1443C
  5
1443C
331
14C76
  5
14C76
331
1445E
  5
1445E
331
14406
  5
14406
331
143E4
  5
143E4
331
143C2
  5
143C2
331
14386
  5
14386
331
14375
  5
14375
331
14DC1
  5
14DCB
331
14CB0
  5
14CB0
331
14DE3
  5
14DED
331
14CD2
  5
14CD2
331
14BC1
  5
14BC1
331
14B69
  5
14B69
331
14498
  5
14498
331
14DFD
  5
14E07
331
14CF4
  5
14CFE
331
14BE3
  5
14BE3
331
14E1F
  5
14E29
331
14D0E
  5
14D18
331
14C05
  5
14C05
331
14E41
  5
15013
331
14D30
  5
14D3A
331
14C1F
  5
14C1F
331
14C41
  5
14C41
331
14D52
  5
14D5C
331
14AFA
  5
14AFA
331
14429
  5
14429
331
14D74
  5
14D7E
331
14C63
  5
14C63
331
1444B
  5
1444B
331
14D8E
  5
14D98
331
14C85
  5
14C85
331
14B36
  5
14B36
331
14DB0
  5
14DBA
331
14C9F
  5
14C9F
331
14DD2
  5
14DDC
331
14CC1
  5
14CC1
331
14BB0
  5
14BB0
331
14DF4
  5
14DFE
331
14CE3
  5
14CE3
331
14BD2
  5
14BD2
331
14B7A
  5
14B7A
331
1448F
  5
1448F
331
1446D
  5
1446D
331
14415
  5
14415
331
143F3
  5
143F3
331
143D1
  5
143D1
331
143AF
  5
143AF
331
14395
  5
14395
331
14E0E
  5
14E18
331
14D05
  5
14D0F
331
14BF4
  5
14BF4
331
14B9C
  5
14B9C
331
14E30
  5
14E3A
331
14D1F
  5
14D29
331
14C16
  5
14C16
331
14D41
  5
14D4B
331
14C30
  5
14C30
331
14C52
  5
14C52
331
14D63
  5
14D6D
331
15014
  5
14CE9
331
14B0B
  5
14B0B
331
1443A
  5
1443A
331
14C74
  5
14C74
331
14D9F
  5
14DA9
331
14B47
  5
14B47
331
1447E
  5
1447E
331
1445C
  5
1445C
331
14404
  5
14404
331
143E2
  5
143E2
331
143C0
  5
143C0
331
143A6
  5
143A6
331
14384
  5
14384
331
14373
  5
14373
331
14DE1
  5
14DEB
331
14CD0
  5
14CD0
331
14DFB
  5
14E05
331
14CF2
  5
14CFC
331
14BE1
  5
14BE1
331
14B89
  5
14B89
331
14E1D
  5
14E27
331
14D0C
  5
14D16
331
14C03
  5
14C03
331
14E3F
  5
15011
331
14D2E
  5
14D38
331
14C1D
  5
14C1D
331
14C3F
  5
14C3F
331
14D50
  5
14D5A
331
14AF8
  5
14AF8
331
14427
  5
14427
331
14C61
  5
14C61
331
14D72
  5
14D7C
331
14B1A
  5
14B1A
331
14449
  5
14449
331
14D8C
  5
14D96
331
14C83
  5
14C83
331
14B34
  5
14B34
331
14DAE
  5
14DB8
331
14C9D
  5
14C9D
331
14DD0
  5
14DDA
331
14CBF
  5
14CBF
331
14BAE
  5
14BAE
331
14DF2
  5
14DFC
331
14CE1
  5
14CE1
331
14BD0
  5
14BD0
331
14B78
  5
14B78
331
14B56
  5
14B56
331
1448D
  5
1448D
331
1446B
  5
1446B
331
14413
  5
14413
331
143F1
  5
143F1
331
143CF
  5
143CF
331
143AD
  5
143AD
331
14393
  5
14393
331
14E0C
  5
14E16
331
14D03
  5
14D0D
331
14BF2
  5
14BF2
331
14B9A
  5
14B9A
331
14E2E
  5
14E38
331
14D1D
  5
14D27
331
14C14
  5
14C14
331
14D3F
  5
14D49
331
14C2E
  5
14C2E
331
14D61
  5
14D6B
331
15012
  5
14CEF
331
14C50
  5
14C50
331
14438
  5
14438
331
14C72
  5
14C72
331
14D9D
  5
14DA7
331
14DBF
  5
14DC9
331
14CAE
  5
14CAE
331
14BBF
  5
14BBF
331
14B67
  5
14B67
331
1447C
  5
1447C
331
1445A
  5
1445A
331
14402
  5
14402
331
143E0
  5
143E0
331
143BE
  5
143BE
331
143A4
  5
143A4
331
14382
  5
14382
331
14371
  5
14371
331
14DF9
  5
14E03
331
14CF0
  5
14CFA
331
14E1B
  5
14E25
331
14D0A
  5
14D14
331
14C01
  5
14C01
331
14E3D
  5
1500F
331
14D2C
  5
14D36
331
14C1B
  5
14C1B
331
14C3D
  5
14C3D
331
14D4E
  5
14D58
331
14AF6
  5
14AF6
331
14425
  5
14425
331
14C5F
  5
14C5F
331
14D70
  5
14D7A
331
14B18
  5
14B18
331
14447
  5
14447
331
14D8A
  5
14D94
331
14C81
  5
14C81
331
14B32
  5
14B32
331
14DAC
  5
14DB6
331
14C9B
  5
14C9B
331
14DCE
  5
14DD8
331
14CBD
  5
14CBD
331
14DF0
  5
14DFA
331
14CDF
  5
14CDF
331
14BCE
  5
14BCE
331
14BAC
  5
14BAC
331
14B54
  5
14B54
331
1448B
  5
1448B
331
14469
  5
14469
331
14411
  5
14411
331
143EF
  5
143EF
331
143CD
  5
143CD
331
143AB
  5
143AB
331
14391
  5
14391
331
14E0A
  5
14E14
331
14D01
  5
14D0B
331
14BF0
  5
14BF0
331
14B98
  5
14B98
331
14E2C
  5
14E36
331
14D1B
  5
14D25
331
14C12
  5
14C12
331
14D3D
  5
14D47
331
14C2C
  5
14C2C
331
14C4E
  5
14C4E
331
14D5F
  5
14D69
331
15010
  5
14CE7
331
14B07
  5
14B07
331
14436
  5
14436
331
14C70
  5
14C70
331
14D9B
  5
14DA5
331
14DBD
  5
14DC7
331
14CAC
  5
14CAC
331
14DDF
  5
14DE9
331
14CCE
  5
14CCE
331
14BBD
  5
14BBD
331
14B65
  5
14B65
331
14B43
  5
14B43
331
1447A
  5
1447A
331
14458
  5
14458
331
14400
  5
14400
331
143DE
  5
143DE
331
143BC
  5
143BC
331
143A2
  5
143A2
331
14380
  5
14380
331
14BDF
  5
14BDF
331
1436F
  5
1436F
331
14E19
  5
14E23
331
14D08
  5
14D12
331
14E3B
  5
1500D
331
14D2A
  5
14D34
331
14C19
  5
14C19
331
14C3B
  5
14C3B
331
14D4C
  5
14D56
331
14AF4
  5
14AF4
331
14423
  5
14423
331
14C5D
  5
14C5D
331
14D6E
  5
14D78
331
14B16
  5
14B16
331
14445
  5
14445
331
14D88
  5
14D92
331
14C7F
  5
14C7F
331
14B30
  5
14B30
331
14DAA
  5
14DB4
331
14C99
  5
14C99
331
14DCC
  5
14DD6
331
14CBB
  5
14CBB
331
14BAA
  5
14BAA
331
14DEE
  5
14DF8
331
14CDD
  5
14CDD
331
14BCC
  5
14BCC
331
14B74
  5
14B74
331
14B52
  5
14B52
331
14489
  5
14489
331
14467
  5
14467
331
1440F
  5
1440F
331
143ED
  5
143ED
331
143CB
  5
143CB
331
143A9
  5
143A9
331
14E08
  5
14E12
331
14CFF
  5
14D09
331
14BEE
  5
14BEE
331
14B96
  5
14B96
331
14E2A
  5
14E34
331
14D19
  5
14D23
331
14C10
  5
14C10
331
14D3B
  5
14D45
331
14C2A
  5
14C2A
331
14C4C
  5
14C4C
331
14D5D
  5
14D67
331
1500E
  5
14CED
331
14B05
  5
14B05
331
14434
  5
14434
331
14C6E
  5
14C6E
331
14D7F
  5
14D89
331
14B27
  5
14B27
331
14D99
  5
14DA3
331
14DBB
  5
14DC5
331
14CAA
  5
14CAA
331
14DDD
  5
14DE7
331
14CCC
  5
14CCC
331
14BBB
  5
14BBB
331
14B63
  5
14B63
331
14B41
  5
14B41
331
14478
  5
14478
331
14456
  5
14456
331
143FE
  5
143FE
331
143DC
  5
143DC
331
143BA
  5
143BA
331
143A0
  5
143A0
331
1437E
  5
1437E
331
14CEE
  5
14CF8
331
14BDD
  5
14BDD
331
14BFF
  5
14BFF
331
1438F
  5
1438F
331
1436D
  5
1436D
  0
XRECORD
  5
151BE
102
{ACAD_REACTORS
330
151BD
102
}
330
151BD
100
AcDbXrecord
280
     1
102
SHADEPLOT
 70
     0
  0
XRECORD
  5
151C0
102
{ACAD_REACTORS
330
151BF
102
}
330
151BF
100
AcDbXrecord
280
     1
102
SHADEPLOT
 70
     0
  0
LAYOUT
  5
1235B
102
{ACAD_XDICTIONARY
360
151C1
102
}
102
{ACAD_REACTORS
330
12359
102
}
330
12359
100
AcDbPlotSettings
  1

  2
HP Designjet 500 plus 24
  4

  6

 40
0.0
 41
0.0
 42
0.0
 43
0.0
 44
0.0
 45
0.0
 46
0.0
 47
0.0
 48
0.0
 49
0.0
140
0.0
141
0.0
142
1.0
143
1.0
 70
  1712
 72
     0
 73
     0
 74
     0
  7

 75
     0
147
1.0
148
0.0
149
0.0
100
AcDbLayout
  1
Model
 70
     1
 71
     0
 10
0.0
 20
0.0
 11
12.0
 21
9.0
 12
0.0
 22
0.0
 32
0.0
 14
0.0
 24
0.0
 34
0.0
 15
0.0
 25
0.0
 35
0.0
146
0.0
 13
0.0
 23
0.0
 33
0.0
 16
1.0
 26
0.0
 36
0.0
 17
0.0
 27
1.0
 37
0.0
 76
     0
330
1A
  0
LAYOUT
  5
1235C
102
{ACAD_XDICTIONARY
360
1236C
102
}
102
{ACAD_REACTORS
330
12359
102
}
330
12359
100
AcDbPlotSettings
  1

  2
Adobe PDF
  4
A3
  6

 40
3.174999952316284
 41
3.174999952316284
 42
3.17498779296875
 43
3.17498779296875
 44
297.0318298339844
 45
420.1583251953125
 46
0.0
 47
0.0
 48
0.0
 49
0.0
140
0.0
141
0.0
142
1.0
143
1.0
 70
   688
 72
     1
 73
     1
 74
     5
  7
monochrome.ctb
 75
    16
147
1.0
148
-7.864042323644866
149
-6.334077725395218
100
AcDbLayout
  1
レイアウト1
 70
     1
 71
     1
 10
4.689054530676116
 20
3.159077773078934
 11
424.8473797259886
 21
300.1909076070633
 12
0.0
 22
0.0
 32
0.0
 14
10.58678151144852
 24
9.207991429517278
 34
0.0
 15
419.3816148461368
 25
295.0104915295863
 35
0.0
146
0.0
 13
0.0
 23
0.0
 33
0.0
 16
1.0
 26
0.0
 36
0.0
 17
0.0
 27
1.0
 37
0.0
 76
     0
330
17
331
22
1001
ACAD_PSEXT
1000
Adobe PDF
1000
Adobe PDF Converter
1000
Desktop
1000

1070
     0
  0
MATERIAL
  5
12409
102
{ACAD_XDICTIONARY
360
1240A
102
}
102
{ACAD_REACTORS
330
12355
102
}
330
12355
100
AcDbMaterial
  1
Global
  0
MLINESTYLE
  5
13
102
{ACAD_REACTORS
330
E
102
}
330
E
100
AcDbMlineStyle
  2
STANDARD
 70
     0
  3

 62
     0
 51
90.0
 52
90.0
 71
     2
 49
0.5
 62
   256
  6
BYLAYER
 49
-0.5
 62
   256
  6
BYLAYER
  0
ACDBPLACEHOLDER
  5
12354
102
{ACAD_REACTORS
330
12353
102
}
330
12353
  0
TABLESTYLE
  5
12358
102
{ACAD_REACTORS
330
12357
102
}
330
12357
100
AcDbTableStyle
  3
Standard
 70
     0
 71
     0
 40
1.5
 41
1.5
280
     0
281
     0
  7
STANDARD
140
4.5
170
     2
 62
     0
 63
     7
283
     0
274
    -2
284
     1
 64
     0
275
    -2
285
     1
 65
     0
276
    -2
286
     1
 66
     0
277
    -2
287
     1
 67
     0
278
    -2
288
     1
 68
     0
279
    -2
289
     1
 69
     0
  7
STANDARD
140
6.0
170
     5
 62
     0
 63
     7
283
     0
274
    -2
284
     1
 64
     0
275
    -2
285
     1
 65
     0
276
    -2
286
     1
 66
     0
277
    -2
287
     1
 67
     0
278
    -2
288
     1
 68
     0
279
    -2
289
     1
 69
     0
  7
STANDARD
140
4.5
170
     5
 62
     0
 63
     7
283
     0
274
    -2
284
     1
 64
     0
275
    -2
285
     1
 65
     0
276
    -2
286
     1
 66
     0
277
    -2
287
     1
 67
     0
278
    -2
288
     1
 68
     0
279
    -2
289
     1
 69
     0
  0
DICTIONARYVAR
  5
12365
102
{ACAD_REACTORS
330
12364
102
}
330
12364
100
DictionaryVariables
280
     0
  1
STANDARD
  0
DICTIONARYVAR
  5
123D2
102
{ACAD_REACTORS
330
12364
102
}
330
12364
100
DictionaryVariables
280
     0
  1
1
  0
DICTIONARYVAR
  5
123D3
102
{ACAD_REACTORS
330
12364
102
}
330
12364
100
DictionaryVariables
280
     0
  1

  0
DICTIONARY
  5
151C1
330
1235B
100
AcDbDictionary
280
     1
281
     1
  3
ACAD_XREC_ROUNDTRIP
360
151C2
  0
DICTIONARY
  5
1236C
330
1235C
100
AcDbDictionary
280
     1
281
     1
  3
ACAD_XREC_ROUNDTRIP
360
151C3
  3
ADSK_XREC_LAYOUTTHUMBNAIL
360
1236D
  0
DICTIONARY
  5
1240A
330
12409
100
AcDbDictionary
280
     1
281
     1
  3
ACAD_XREC_ROUNDTRIP
360
1240B
  0
XRECORD
  5
151C2
102
{ACAD_REACTORS
330
151C1
102
}
330
151C1
100
AcDbXrecord
280
     1
102
SHADEPLOT
 70
     0
102
SHADEPLOTRESLEVEL
 70
     2
102
SHADEPLOTCUSTOMDPI
 70
   300
  0
XRECORD
  5
151C3
102
{ACAD_REACTORS
330
1236C
102
}
330
1236C
100
AcDbXrecord
280
     1
102
SHADEPLOT
 70
     0
102
SHADEPLOTRESLEVEL
 70
     2
102
SHADEPLOTCUSTOMDPI
 70
   300
  0
XRECORD
  5
1236D
102
{ACAD_REACTORS
330
1236C
102
}
330
1236C
100
AcDbXrecord
280
     1
310
28000000B40000007F00000001000800000000004C590000000000000000000000010000000000000000000000000000FFFFFF000000000000000000000000000000000000000000000000000000000000000000330000006600000099000000CC000000FF00000000330000333300006633000099330000CC330000FF3300
310
0000660000336600006666000099660000CC660000FF66000000990000339900006699000099990000CC990000FF99000000CC000033CC000066CC000099CC0000CCCC0000FFCC000000FF000033FF000066FF000099FF0000CCFF0000FFFF000000003300330033006600330099003300CC003300FF003300003333003333
310
33006633330099333300CC333300FF33330000663300336633006666330099663300CC663300FF66330000993300339933006699330099993300CC993300FF99330000CC330033CC330066CC330099CC3300CCCC3300FFCC330000FF330033FF330066FF330099FF3300CCFF3300FFFF330000006600330066006600660099
310
006600CC006600FF00660000336600333366006633660099336600CC336600FF33660000666600336666006666660099666600CC666600FF66660000996600339966006699660099996600CC996600FF99660000CC660033CC660066CC660099CC6600CCCC6600FFCC660000FF660033FF660066FF660099FF6600CCFF6600
310
FFFF660000009900330099006600990099009900CC009900FF00990000339900333399006633990099339900CC339900FF33990000669900336699006666990099669900CC669900FF66990000999900339999006699990099999900CC999900FF99990000CC990033CC990066CC990099CC9900CCCC9900FFCC990000FF99
310
0033FF990066FF990099FF9900CCFF9900FFFF99000000CC003300CC006600CC009900CC00CC00CC00FF00CC000033CC003333CC006633CC009933CC00CC33CC00FF33CC000066CC003366CC006666CC009966CC00CC66CC00FF66CC000099CC003399CC006699CC009999CC00CC99CC00FF99CC0000CCCC0033CCCC0066CC
310
CC0099CCCC00CCCCCC00FFCCCC0000FFCC0033FFCC0066FFCC0099FFCC00CCFFCC00FFFFCC000000FF003300FF006600FF009900FF00CC00FF00FF00FF000033FF003333FF006633FF009933FF00CC33FF00FF33FF000066FF003366FF006666FF009966FF00CC66FF00FF66FF000099FF003399FF006699FF009999FF00CC
310
99FF00FF99FF0000CCFF0033CCFF0066CCFF0099CCFF00CCCCFF00FFCCFF0000FFFF0033FFFF0066FFFF0099FFFF00CCFFFF00FFFFFF00000000000D0D0D001A1A1A00282828003535350043434300505050005D5D5D006B6B6B00787878008686860093939300A1A1A100AEAEAE00BBBBBB00C9C9C900D6D6D600E4E4E400
310
F1F1F100FFFFFF0000000000000000000000000000000000000000000000000000000000000000000000000000000000F5F5F5F5F5F5F5F5F5F5F5F5F5F5F5F5F5F5F5F5F5F5F5F5F5F5F5F5F5F5F5F5F5F5F5F5F5F5F5F5F5F5F5F5F5F5F5F5F5F5F5F5F5F5F5F5F5F5F5F5F5F5F5F5F5F5F5F5F5F5F5F5F5F5F5F5F5F5F5
310
F5F5F5F5F5F5F5F5F5F5F5F5F5F5F5F5F5F5F5F5F5F5F5F5F5F5F5F5F5F5F5F5F5F5F5F5F5F5F5F5F5F5F5F5F5F5F5F5F5F5F5F5F5F5F5F5F5F5F5F5F5F5F5F5F5F5F5F5F5F5F5F5F5F5F5F5F5F5F5F5F5F5F5F5F5F5F5F5F5F5F5F5F5F5F5F5F5F5F5F5F5F5E2E2E2E2E2E2E2E2E2E2E2E2E2E2E2E2E2E2E2E2E2E2E2E2E2
310
E2E2E2E2E2E2E2E2E2E2E2E2E2E2E2E2E2E2E2E2E2E2E2E2E2E2E2E2E2E2E2E2E2E2E2E2E2E2E2E2E2E2E2E2E2E2E2E2E2E2E2E2E2E2E2E2E2E2E2E2E2E2E2E2E2E2E2E2E2E2E2E2E2E2E2E2E2E2E2E2E2E2E2E2E2E2E2E2E2E2E2E2E2E2E2E2E2E2E2E2E2E2E2E2E2E2E2E2E2E2E2E2E2E2E2E2E2E2E2E2E2E2E2E2E2E2E2
310
E2E2E2E2E2E2E2E2E2E2E2E2E2E2E2E2E2E2E2E2E2E2E2E2E2F5F5F5E2F5F5F5F5F5F5F5F5E2E2E2E2E2E2E2E2E2F5F5F5F5F5F5F5F5F5F5F5F5F5F5F5F5E2E2E2E2E2E2E2E2E2F5F5F5F5F5F5F5F5F5F5F5F5F5F5F5F5E2E2E2E2E2E2E2E2E2F5F5F5F5F5F5F5F5F5F5F5F5F5F5F5F5E2E2E2E2E2E2E2E2E2F5F5F5F5F5F5
310
F5F5F5F5F5F5F5F5F5F5E2E2E2E2E2E2E2E2E2F5F5F5F5F5F5F5F5F5F5F5F5F5F5F5F5E2E2E2E2E2E2E2E2E2F5F5F5F5F5F5F5F5F5F5F5F5F5F5F5F5E2E2E2E2E2E2E2E2E2F5F5F5F5F5F5F5F5E2F5F5F5E2F5F5F5F5F5F5F5F5F5F5F5F5F5F5F5F5F5F5F5F5F5F5F5F5F5F5F5F5F5F5F5F5F5F5F5F5F5F5F5F5F5F5F5F5F5
310
F5F5F5F5F5F5F5F5F5F5F5F5F5F5F5F5F5F5F5F5F5F5F5F5F5F5F5F5F5F5F5F5F5F5F5F5F5F5F5F5F5F5F5F5F5F5F5F5F5F5F5F5F5F5F5F5F5F5F5F5F5F5F5F5F5F5F5F5F5F5F5F5F5F5F5F5F5F5F5F5F5F5F5F5F5F5F5F5F5F5F5F5F5F5F5F5F5F5F5F5F5F5F5F5F5F5F5F5F5F5F5F5F5F5F5F5F5F5F5F5F5F5F5F5F5F5F5
310
F5F5F5E2F5F5F5E2F5F5E2E2E2E2E2E2E2E2E2E2E2E2E2E2E2E2E2E2E2E2E2E2E2E2E2E2E2E2E2E2E2E2E2E2E2E2E2E2E2E2E2E2E2E2E2E2E2E2E2E2E2E2E2E2E2E2E2E2E2E2E2E2E2E2E2E2E2E2E2E2E2E2E2E2E2E2E2E2E2E2E2E2E2E2E2E2E2E2E2E2E2E2E2E2E2E2E2E2E2E2E2E2E2E2E2E2E2E2E2E2E2E2E2E2E2E2E2
310
E2E2E2E2E2E2E2E2E2E2E2E2E2E2E2E2E2E2E2E2E2E2E2E2E2E2E2E2E2E2E2E2E2E2E2E2E2E2E2E2E2E2E2E2E2E2E2E2E2E2E2E2E2E2F5F5E2F5F5F5E2F5F5E2E2E2E2E2E2E2E2E2E2E2E2E2E2E2E2E2E2E2E2E2E2E2E2E2E2E2E2E2E2E2E2E2E2E2E2E2E2E2E2E2E2E2E2E2E2E2E2E2E2E2E2E2E2E2E2E2E2E2E2E2E2E2E2
310
E2E2E2E2E2E2E2E2E2E2E2E2E2E2E2E2E2E2E2E2E2E2E2E2E2E2E2E2E2E2E2E2E2E2E2E2E2E2E2E2E2E2E2E2E2E2E2E2E2E2E2E2E2E2E2E2E2E2E2E2E2E2E2E2E2E2E2E2E2E2E2E2E2E2E2E2E2E2E2E2E2E2E2E2E2E2E2E2E2E2E2E2E2E2E2E2E2E2E2E2E2E2E2E2E2E2E2F5F5E2F5F5F5E2F5F5E2E2E2E2E2E2E2E2E2E2E2
310
E2E2E2E2E2E2E2E2E2E2E2E2E2E2E2E2E2E2E2E2E2E2E2E2E2E2E2E2E2E2E2E2E2E2E2E2E2E2E2E2E2E2E2E2E2E2E2E2E2E2E2E2E2E2E2E2E2E2E2E2E2E2E2E2E2E2E2E2E2E2E2E2E2E2E2E2E2E2E2E2E2E2E2E2E2E2E2E2E2E2E2E2E2E2E2E2E2E2E2E2E2E2E2E2E2E2E2E2E2E2E2E2E2E2E2E2E2E2E2E2E2E2E2E2E2E2E2
310
E2E2E2E2E2E2E2E2E2E2E2E2E2E2E2E2E2E2E2E2E2E2E2E2E2E2E2E2E2E2E2E2E2F5F5E2F5F5F5E2F5F5E2E2E2E2E2E2E2E2E2E2E2E2E2E2E2E2E2E2E2E2E2E2E2E2E2E2E2E2E2E2E2E2E2E2E2E2E2E2E2E2E2E2E2E2E2E2E2E2E2E2E2E2E2E2E2E2E2E2E2E2E2E2E2E2E2E2E2E2E2E2E2E2E2E2E2E2E2E2E2E2E2E2E2E2E2
310
E2E2E2E2E2E2E2E2E2E2E2E2E2E2E2E2E2E2E2E2E2E2E2E2E2E2E2E2E2E2E2E2E2E2E2E2E2E2E2E2E2E2E2E2E2E2E2E2E2E2E2E2E2E2E2E2E2E2E2E2E2E2E2E2E2E2E2E2E2E2E2E2E2E2E2E2E2E2E2E2E2E2E2E2E2E2F5F5E2F5F5F5E2F5F5E2E2E2E2E2E2E2E2E2E2E2E2E2E2E2E2E2E2E2E2E2E2E2E2E2E2E2E2E2E2E2E2
310
E2E2E2E2E2E2E2E2E2E2E2E2E2E2E2E2E2E2E2E2E2E2E2E2E2E2E2E2E2E2E2E2E2E2E2E2E2E2E2E2E2E2E2E2E2E2E2E2E2E2E2E2E2E2E2E2E2E2E2E2E2E2E2E2E2E2E2E2E2E2E2E2E2E2E2E2E2E2E2E2E2E2E2E2E2E2E2E2E2E2E2E2E2E2E2E2E2E2E2E2E2E2E2E2E2E2E2E2E2E2E2E2E2E2E2E2E2E2E2E2E2E2E2E2E2E2E2
310
E2E2E2E2E2E2E2E2E2E2E2E2F5F5E2F5F5F5E2F5F5E2E2E2E2E2E2E2E2E2E2E2E2E2E2E2E2E2E2E2E2E2E2E2E2E2E2E2E2E2E2E2E2E2E2E2E2E2E2E2E2E2E2E2E2E2E2E2E2E2E2E2E2E2E2E2E2E2E2E2E2E2E2E2E2E2E2E2E2E2E2E2E2E2E2E2E2E2E2E2E2E2E2E2E2E2E2E2E2E2E2E2E2E2E2E2E2E2E2E2E2E2E2E2E2E2E2
310
E2E2E2E2E2E2E2E2E2E2E2E2E2E2E2E2E2E2E2E2E2E2E2E2E2E2E2E2E2E2E2E2E2E2E2E2E2E2E2E2E2E2E2E2E2E2E2E2E2E2E2E2E2E2E2E2E2E2E2E2E2E2E2E2E2F5F5E2F5F5F5E2E2F5E2E2E2E2E2E2E2E2E2E2E2E2E2E2E2E2E2E2E2E2E2E2E2E2E2E2E2E2E2E2E2E2E2E2E2E2E2E2E2E2E2E2E2E2E2E2E2E2E2E2E2E2E2
310
E2E2E2E2E2E2E2E2E2E2E2E2E2E2E2E2E2E2E2E2E2E2E2E2E2E2E2E2E2E2E2E2E2E2E2E2E2E2E2E2E2E2E2E2E2E2E2E2E2E2E2E2E2E2E2E2E2E2E2E2E2E2E2E2E2E2E2E2E2E2E2E2E2E2E2E2E2E2E2E2E2E2E2E2E2E2E2E2E2E2E2E2E2E2E2E2E2E2E2E2E2E2E2E2E2E2E2E2E2E2E2E2E2E2E2E2E2E2F5E2E2F5F5F5E2E2F5
310
E2E2E2E2E2E2E2E2E2E2E2E2E2E2E2E2E2E2E2E2E2E2E2E2E2E2E2E2E2E2E2E2E2E2E2E2E2E2E2E2E2E2E2E2E2E2E2E2E2E2E2E2E2E2E2E2E2E2E2E2E2E2E2E2E2E2E2E2E2E2E2E2E2E2E2E2E2E2E2E2E2E2E2E2E2E2E2E2E2E2E2E2E2E2E2E2E2E2E2E2E2E2E2E2E2E2E2E2E2E2E2E2E2E2E2E2E2E2E2E2E2E2E2E2E2E2E2
310
E2E2E2E2E2E2E2E2E2E2E2E2E2E2E2E2E2E2E2E2E2E2E2E2E2E2E2E2E2E2E2E2E2E2E2E2E2E2E2E2E2E2E2E2F5E2E2F5F5F5E2E2F5E2E2E2E2E2E2E2E2E2E2E2E2E2E2E2E2E2E2E2E2E2E2E2E2E2E2E2E2E2E2E2E2E2E2E2E2E2E2E2E2E2E2E2E2E2E2E2E2E2E2E2E2E2E2E2E2E2E2E2E2E2E2E2E2E2E2E2E2E2E2E2E2E2E2
310
E2E2E2E2E2E2E2E2E2E2E2E2E2E2E2E2E2E2E2E2E2E2E2E2E2E2E2E2E2E2E2E2E2E2E2E2E2E2E2E2E2E2E2E2E2E2E2E2E2E2E2E2E2E2E2E2E2E2E2E2E2E2E2E2E2E2E2E2E2E2E2E2E2E2E2E2E2E2E2E2E2E2E2E2E2E2E2E2E2E2E2E2E2E2E2E2E2F5E2E2F5F5F5E2E2F5E2E2E2E2E2E2E2E2E2E2E2E2E2E2E2E2E2E2E2E2E2
310
E2E2E2E2E2E2E2E2E2E2E2E2E2E2E2E2E2E2E2E2E2E2E2E2E2E2E2E2E2E2E2E2E2E2E2E2E2E2E2E2E2E2E2E2E2E2E2E2E2E2E2E2E2E2E2E2E2E2E2E2E2E2E2E2E2E2E2E2E2E2E2E2E2E2E2E2E2E2E2E2E2E2E2E2E2E2E2E2E2E2E2E2E2E2E2E2E2E2E2E2E2E2E2E2E2E2E2E2E2E2E2E2E2E2E2E2E2E2E2E2E2E2E2E2E2E2E2
310
E2E2E2E2E2E2E2E2E2E2E2E2E2E2E2E2E2E2E2E2E2E2E2F5E2E2F5F5F5E2E2F5E2E2E2E2E2E2E2E2E2E2E2E2E2E2E2E2E2E2E2E2E2E2E2E2E2E2E2E2E2E2E2E2E2E2E2E2E2E2E2E2E2E2E2E2E2E2E2E2E2E2E2E2E2E2E2E2E2E2E2E2E2E2E2E2E2E2E2E2E2E2E2E2E2E2E2E2E2E2E2E2E2E2E2E2E2E2E2E2E2E2E2E2E2E2E2
310
E2E2E2E2E2E2E2E2E2E2E2E2E2E2E2E2E2E2E2E2E2E2E2E2E2E2E2E2E2E2E2E2E2E2E2E2E2E2E2E2E2E2E2E2E2E2E2E2E2E2E2E2E2E2E2E2E2E2E2E2E2E2E2E2E2E2E2E2E2E2E2E2E2E2E2E2F5E2E2F5F5F5E2E2F5E2E2E2E2E2E2E2E2E2E2E2E2E2E2E2E2E2E2E2E2E2E2E2E2E2E2E2E2E2E2E2E2E2E2E2E2E2E2E2E2E2E2
310
E2E2E2E2E2E2E2E2E2E2E2E2E2E2E2E2E2E2E2E2E2E2E2E2E2E2E2E2E2E2E2E2E2E2E2E2E2E2E2E2E2E2E2E2E2E2E2E2E2E2E2E2E2E2E2E2E2E2E2E2E2E2E2E2E2E2E2E2E2E2E2E2E2E2E2E2E2E2E2E2E2E2E2E2E2E2E2E2E2E2E2E2E2E2E2E2E2E2E2E2E2E2E2E2E2E2E2E2E2E2E2E2E2E2E2E2E2E2E2E2E2E2E2E2E2E2E2
310
E2E2F5E2E2F5F5F5E2E2F5E2E2E2E2E2E2E2E2E2E2E2E2E2E2E2E2E2E2E2E2E2E2E2E2E2E2E2E2E2E2E2E2E2E2E2E2E2E2E2E2E2E2E2E2E2E2E2E2E2E2E2E2E2E2E2E2E2E2E2E2E2E2E2E2E2E2E2E2E2E2E2E2E2E2E2E2E2E2E2E2E2E2E2E2E2E2E2E2E2E2E2E2E2E2E2E2E2E2E2E2E2E2E2E2E2E2E2E2E2E2E2E2E2E2E2E2
310
E2E2E2E2E2E2E2E2E2E2E2E2E2E2E2E2E2E2E2E2E2E2E2E2E2E2E2E2E2E2E2E2E2E2E2E2E2E2E2E2E2E2E2E2E2E2E2E2E2E2E2E2E2E2E2F5E2E2F5F5F5E2E2F5E2E2E2E2E2E2E2E2E2E2E2E2E2E2E2E2E2E2E2E2E2E2E2E2E2E2E2E2E2E2E2E2E2E2E2E2E2E2E2E2E2E2E2E2E2E2E2E2E2E2E2E2E2E2E2E2E2E2E2E2E2E2E2
310
E2E2E2E2E2E2E2E2E2E2E2E2E2E2E2E2E2E2E2E2E2E2E2E2E2E2E2E2E2E2E2E2E2E2E2E2E2E2E2E2E2E2E2E2E2E2E2E2E2E2E2E2E2E2E2E2E2E2E2E2E2E2E2E2E2E2E2E2E2E2E2E2E2E2E2E2E2E2E2E2E2E2E2E2E2E2E2E2E2E2E2E2E2E2E2E2E2E2E2E2E2E2E2E2E2E2E2E2F5E2E2F5F5F5E2E2F5E2E2E2E2E2E2E2E2E2E2
310
E2E2E2E2E2E2E2E2E2E2E2E2E2E2E2E2E2E2E2E2E2E2E2E2E2E2E2E2E2E2E2E2E2E2E2E2E2E2E2E2E2E2E2E2E2E2E2E2E2E2E2E2E2E2E2E2E2E2E2E2E2E2E2E2E2E2E2E2E2E2E2E2E2E2E2E2E2E2E2E2E2E2E2E2E2E2E2E2E2E2E2E2E2E2E2E2E2E2E2E2E2E2E2E2E2E2E2E2E2E2E2E2E2E2E2E2E2E2E2E2E2E2E2E2E2E2E2
310
E2E2E2E2E2E2E2E2E2E2E2E2E2E2E2E2E2E2E2E2E2E2E2E2E2E2E2E2E2E2E2E2E2E2F5E2E2F5F5F5E2F5F5E2E2E2E2E2E2E2E2E2E2E2E2E2E2E2E2E2E2E2E2E2E2E2E2E2E2E2E2E2E2E2E2E2E2E2E2E2E2E2E2E2E2E2E2E2E2E2E2E2E2E2E2E2E2E2E2E2E2E2E2E2E2E2E2E2E2E2E2E2E2E2E2E2E2E2E2E2E2E2E2E2E2E2E2
310
E2E2E2E2E2E2E2E2E2E2E2E2E2E2E2E2E2E2E2E2E2E2E2E2E2E2E2E2E2E2E2E2E2E2E2E2E2E2E2E2E2E2E2E2E2E2E2E2E2E2E2E2E2E2E2E2E2E2E2E2E2E2E2E2E2E2E2E2E2E2E2E2E2E2E2E2E2E2E2E2E2E2E2E2E2E2E2F5F5E2F5F5F5E2F5F5E2E2E2E2E2E2E2E2E2E2E2E2E2E2E2E2E2E2E2E2E2E2E2E2E2E2E2E2E2E2E2
310
E2E2E2E2E2E2E2E2E2E2E2E2E2E2E2E2E2E2E2E2E2E2E2E2E2E2E2E2E2E2E2E2E2E2E2E2E2E2E2E2E2E2E2E2E2E2E2E2E2E2E2E2E2E2E2E2E2E2E2E2E2E2E2E2E2E2E2E2E2E2E2E2E2E2E2E2E2E2E2E2E2E2E2E2E2E2E2E2E2E2E2E2E2E2E2E2E2E2E2E2E2E2E2E2E2E2E2E2E2E2E2E2E2E2E2E2E2E2E2E2E2E2E2E2E2E2E2
310
E2E2E2E2E2E2E2E2E2E2E2E2E2F5F5E2F5F5F5E2F5F5E2E2E2E2E2E2E2E2E2E2E2E2E2E2E2E2E2E2E2E2E2E2E2E2E2E2E2E2E2E2E2E2E2E2E2E2E2E2E2E2E2E2E2E2E2E2E2E2E2E2E2E2E2E2E2E2E2E2E2E2E2E2E2E2E2E2E2E2E2E2E2E2E2E2E2E2E2E2E2E2E2E2E2E2E2E2E2E2E2E2E2E2E2E2E2E2E2E2E2E2E2E2E2E2E2
310
E2E2E2E2E2E2E2E2E2E2E2E2E2E2E2E2E2E2E2E2E2E2E2E2E2E2E2E2E2E2E2E2E2E2E2E2E2E2E2E2E2E2E2E2E2E2E2E2E2E2E2E2E2E2E2E2E2E2E2E2E2E2E2E2E2E2F5F5E2F5F5F5E2F5F5E2E2E2E2E2E2E2E2E2E2E2E2E2E2E2E2E2E2E2E2E2E2E2E2E2E2E2E2E2E2E2E2E2E2E2E2E2E2E2E2E2E2E2E2E2E2E2E2E2E2E2E2
310
E2E2E2E2E2E2E2E2E2E2E2E2E2E2E2E2E2E2E2E2E2E2E2E2E2E2E2E2E2E2E2E2E2E2E2E2E2E2E2E2E2E2E2E2E2E2E2E2E2E2E2E2E2E2E2E2E2E2E2E2E2E2E2E2E2E2E2E2E2E2E2E2E2E2E2E2E2E2E2E2E2E2E2E2E2E2E2E2E2E2E2E2E2E2E2E2E2E2E2E2E2E2E2E2E2E2E2E2E2E2E2E2E2E2E2E2E2E2E2F5F5E2F5F5F5E2F5
310
F5E2E2E2E2E2E2E2E2E2E2E2E2E2E2E2E2E2E2E2E2E2E2E2E2E2E2E2E2E2E2E2E2E2E2E2E2E2E2E2E2E2E2E2E2E2E2E2E2E2E2E2E2E2E2E2E2E2E2E2E2E2E2E2E2E2E2E2E2E2E2E2E2E2E2E2E2E2E2E2E2E2E2E2E2E2E2E2E2E2E2E2E2E2E2E2E2E2E2E2E2E2E2E2E2E2E2E2E2E2E2E2E2E2E2E2E2E2E2E2E2E2E2E2E2E2E2
310
E2E2E2E2E2E2E2E2E2E2E2E2E2E2E2E2E2E2E2E2E2E2E2E2E2E2E2E2E2E2E2E2E2E2E2E2E2E2E2E2E2E2E2E2E2F5F5E2F5F5F5E2F5F5E2E2E2E2E2E2E2E2E2E2E2E2E2E2E2E2E2E2E2E2E2E2E2E2E2E2E2E2E2E2E2E2F0F0F0F0F0DCDCDCF0F0E2E2E2E2E2E2E2E2E2E2E2E2E2E2E2E2E2E2E2E2E2E2E2E2E2E2E2E2E2E2E2
310
E2E2E2E2E2E2E2E2E2E2E2E2E2E2E2E2E2E2E2E2E2E2E2E2E2E2E2E2E2E2E2E2E2E2E2E2E2E2E2E2E2E2E2E2E2E2E2E2E2E2E2E2E2E2E2E2E2E2E2E2E2E2E2E2E2E2E2E2E2E2E2E2E2E2E2E2E2E2E2E2E2E2E2E2E2E2E2E2E2E2E2E2E2E2E2E2E2E2F5F5E2F5F5F5E2F5F5E2E2E2E2E2E2E2E2E2E2E2E2E2E2E2E2E2E2E2DC
310
E2E2E2E2E2E2E2E2E2E2E2E2DCDCDCDCDCDCDCDCDCE2E2E2E2E2E2E2E2E2E2E2E2E2E2E2E2E2E2E2E2E2E2E2E2E2E2E2E2E2E2E2E2E2E2E2E2E2E2E2E2E2E2E2E2E2E2E2E2E2E2E2E2E2E2E2E2E2E2E2E2E2E2E2E2E2E2E2E2E2E2E2E2E2E2E2E2E2E2E2E2E2E2E2E2E2E2E2E2E2E2E2E2E2E2E2E2E2E2E2E2E2E2E2E2E2E2
310
E2E2E2E2E2E2E2E2E2E2E2E2E2E2E2E2E2E2E2E2E2E2E2E2F5F5E2F5F5F5E2F5F5E2E2E2E2E2E2E2E2E2E2E2E2E2E2E2E2E2E2DCDCE2E2E2E2E2E2E2E2E2E2E2E2DCE2E2DCDCDCDCDCDCE2E2E2E2E2E2E2E2E2E2E2E2E2E2E2E2E2E2E2E2E2E2E2E2E2E2E2E2E2E2E2E2E2E2E2E2E2E2E2E2E2E2E2E2E2E2E2E2E2E2E2E2E2
310
E2E2E2E2E2E2E2E2E2E2E2E2E2E2E2E2E2E2E2E2E2E2E2E2E2E2E2E2E2E2E2E2E2E2E2E2E2E2E2E2E2E2E2E2E2E2E2E2E2E2E2E2E2E2E2E2E2E2E2E2E2E2E2E2E2E2E2E2E2E2E2E2E2E2E2E2E2F5F5E2F5F5F5E2F5F5E2E2E2E2E2E2E2E2E2E2E2E2E2E2E2E2E2E2DCDCE2E2E2E2E2E2E2E2E2E2E2F0E2E2E2E2E2E2E2E2E2
310
E2E2E2E2E2E2E2E2E2E2E2E2E2E2E2E2E2E2E2E2E2E2E2E2E2E2E2E2E2E2E2E2E2E2E2E2E2E2E2E2E2E2E2E2E2E2E2E2E2E2E2E2E2E2E2E2E2E2E2E2E2E2E2E2E2E2E2E2E2E2E2E2E2E2E2E2E2E2E2E2E2E2E2E2E2E2E2E2E2E2E2E2E2E2E2E2E2E2E2E2E2E2E2E2E2E2E2E2E2E2E2E2E2E2E2E2E2E2E2E2E2E2E2E2E2E2E2
310
E2E2E2F5F5E2F5F5F5E2F5F5E2E2E2E2E2E2E2E2E2E2E2E2E2E2E2E2E2E2DCF0E2E2E2E2E2E2E2E2E2E2E2F0E2E2E2E2E2E2E2E2E2E2E2E2E2E2E2E2E2E2E2E2E2E2E2E2E2E2E2E2E2E2E2E2E2E2E2E2E2E2E2E2E2E2E2E2E2E2E2E2E2E2E2E2E2E2E2E2E2E2E2E2E2E2E2E2E2E2E2E2E2E2E2E2E2E2E2E2E2E2E2E2E2E2E2
310
E2E2E2E2E2E2E2E2E2E2E2E2E2E2E2E2E2E2E2E2E2E2E2E2E2E2E2E2E2E2E2E2E2E2E2E2E2E2E2E2E2E2E2E2E2E2E2E2E2E2E2E2E2E2E2E2F5F5E2F5F5F5E2F5F5E2E2E2E2E2E2E2E2E2E2E2E2E2E2E2E2E2E2DCDCE2E2E2E2E2E2E2F0E2E2E2F0E2E2E2E2E2E2E2E2E2E2E2E2E2E2E2E2E2E2E2E2E2E2E2E2E2E2E2E2E2E2
310
E2E2E2E2E2E2E2E2F0E2E2E2E2E2E2E2E2E2E2E2E2E2E2E2E2E2E2E2E2E2E2F0E2E2E2E2E2E2E2E2E2E2E2E2E2E2E2E2E2E2E2E2E2E2E2E2E2E2E2E2E2E2E2E2E2E2E2E2E2E2E2E2E2E2F0E2E2E2E2E2E2E2E2E2E2E2E2E2E2E2E2E2E2E2E2E2E2E2E2E2E2E2E2E2E2E2E2E2E2F5F5E2F5F5F5E2F5F5E2E2E2E2E2E2E2E2E2
310
E2E2E2E2E2E2E2E2E2DCDCE2E2E2E2E2E2F0F0F0F0F0F0F0F0F0F0F0F0F0F0F0F0F0F0F0F0DCDCDCDCDCDCF0F0F0F0F0F0F0F0F0F0F0F0F0F0F0F0F0F0ECE2E2E2E2E2E2E2E2E2E2E2E2E2E2E2E2E2E2E2E2E2E2F0F0F0F0F0F0F0F0F0F0F0F0F0F0F0F0F0F0F0DCDCDCDCDCDCF0F0F0F0F0F0F0F0F0F0F0F0F0F0F0F0F0F0
310
ECE2E2E2E2E2E2E2E2E2E2E2E2E2E2E2E2E2E2E2E2E2E2E2E2E2E2E2E2E2E2E2E2E2E2F5F5E2F5F5F5E2F5F5E2E2E2E2E2E2E2E2E2E2E2E2E2E2E2E2E2E2E2F0E2E2F0DCDCDCF0F0ECE2F0E2E2E2E2E2E2E2E2E2E2E2E2E2E2E2DCDCDCDCDCDCE2E2E2E2E2E2E2E2E2E2E2E2E2E2E2E2E2E2F0E2E2E2E2E2E2E2E2E2E2E2E2
310
E2E2E2E2E2E2E2E2E2E2F0E2E2E2E2E2E2E2E2E2E2E2E2E2E2E2E2E2E2DCDCDCDCDCDCE2E2E2E2E2E2E2E2E2E2E2E2E2E2E2E2E2E2F0E2E2E2E2E2E2E2E2E2E2E2E2E2E2E2E2E2E2E2E2E2E2E2E2E2E2E2E2E2E2E2E2E2E2F5F5E2F5F5F5E2F5F5E2E2E2E2E2E2E2E2E2E2E2E2E2E2E2E2E2E2E2F0E2E2DCDCDCDCF0F0F0E2
310
F0E2E2E2E2E2E2E2E2E2E2E2E2E2E2E2E2E2E2F0E2E2E2E2E2E2E2E2E2E2E2E2E2E2E2E2E2E2E2E2F0E2E2E2E2E2E2E2E2E2E2E2E2E2E2E2E2E2E2E2E2E2E2F0E2E2E2E2E2E2E2E2E2E2E2E2E2E2E2E2E2E2E2E2E2F0E2E2E2E2E2E2E2E2E2E2E2E2E2E2E2E2E2E2E2E2F0E2E2E2E2E2E2E2E2E2E2E2E2E2E2E2E2E2E2E2E2
310
E2E2E2E2E2E2E2E2E2E2E2E2E2E2F5F5E2F5F5F5E2F5F5E2E2E2E2E2E2E2E2E2E2E2E2E2E2E2F0F0F0F0F0F0F0F0DCDCDCF5F5F5F0F0F0E2E2E2E2E2E2E2E2E2E2E2E2E2E2E2E2E2F0E2E2E2E2E2E2E2E2E2E2E2E2E2E2E2E2E2E2E2F5F5F5E2E2E2E2E2E2E2E2E2E2E2E2E2E2E2E2E2E2E2E2F5ECF5E2E2E2E2E2E2E2E2E2
310
E2E2E2E2E2E2E2E2E2E2E2F0E2E2E2E2E2E2E2E2E2E2E2E2E2E2E2E2E2E2E2F5ECF5F5E2E2E2E2E2E2E2E2E2E2E2E2E2E2E2E2E2E2E2E2E2E2E2E2E2E2E2E2E2E2E2E2F5F5E2F5F5F5E2F5F5E2E2E2E2E2E2E2E2E2E2E2E2E2E2E2E2F0E2E2F0E2E2E2E2E2E2E2F5F5F5F0E2E2E2E2E2E2E2E2E2E2E2E2E2E2E2E2E2E2F0E2
310
E2E2E2E2E2E2E2E2E2E2E2E2E2E2E2E2E2E2E2F5F5E2E2E2E2E2E2E2E2E2E2E2E2E2E2E2E2E2E2E2E2E2F5F5E2F5F5F5E2E2E2E2E2E2E2E2E2E2E2E2E2E2E2E2F0E2E2E2E2E2E2E2E2E2E2E2E2E2E2E2E2F5F5F5E2F5F5E2E2E2E2E2E2E2E2E2E2E2E2E2E2E2E2E2E2E2E2E2E2E2E2E2E2E2E2E2E2E2E2E2F5F5E2F5F5F5E2
310
E2F5E2E2E2E2E2E2E2E2E2E2E2E2E2E2E2DCDCE2DCF0F0F0F0F0F0F5F5F5F5F5F5F5F5F5F5F5F5F5F5F5F5F5F5F5F5F5F5F5F5F0F5F5F5F5F5F5F5F5F5F5F5F5F5F5F5F5F5F5F5F5F5F5F5E2E2E2E2E2E2E2E2E2E2E2E2E2E2E2E2E2E2E2F5F5F5F5F5F5F5F5F5F5F5F5F5F5F5F5F5F5F5F5F5F5F5F5F5F5F5F5F5F5F5F5F5
310
F5F5F5F5F5F5F5F5F5F5F5F5F5F5E2E2E2E2E2E2E2E2E2E2E2E2E2E2E2E2E2E2E2E2E2E2E2E2E2E2E2E2E2E2E2E2F5E2E2F5F5F5E2E2F5E2E2E2E2E2E2E2E2E2E2E2E2E2E2E2DCDCE2DCDCE2E2E2E2E2F5E2E2E2E2E2E2E2E2E2E2E2E2E2E2E2E2E2E2E2E2E2E2E2F0E2E2E2E2E2E2E2E2E2E2E2E2E2E2E2E2E2E2E2E2E2E2
310
F5E2E2E2E2E2E2E2E2E2E2E2E2E2E2E2E2E2E2E2F5E2E2E2E2E2E2E2E2E2E2E2F5E2E2F5E2E2E2E2E2E2E2F0E2E2E2E2E2E2E2E2E2E2E2E2E2E2E2E2E2E2E2E2E2E2F5E2E2E2E2E2E2E2E2E2E2E2E2E2E2E2E2E2E2E2E2E2E2E2E2E2E2E2E2E2E2E2E2F5E2E2F5F5F5E2E2F5E2E2E2E2E2E2E2E2E2E2E2E2E2E2E2DCDCE2DC
310
DCE2E2E2E2E2F5E2E2E2E2E2E2E2E2E2E2E2E2E2E2E2E2E2E2E2E2E2E2E2F0E2E2E2E2E2E2E2E2E2E2E2E2E2E2E2E2E2E2E2E2E2E2F5E2E2E2E2E2E2E2E2E2E2E2E2E2E2E2E2E2E2E2F5E2E2E2E2E2E2E2E2E2E2E2F5F5F5F5E2E2E2E2E2E2E2F0E2E2E2E2E2E2E2E2E2E2E2E2E2E2E2E2E2E2E2E2E2E2F5E2E2E2E2E2E2E2
310
E2E2E2E2E2E2E2E2E2E2E2E2E2E2E2E2E2E2E2E2E2E2E2E2E2F5E2E2F5F5F5E2E2F5E2E2E2E2E2E2E2E2E2E2E2E2E2E2E2DCF0E2F0F0F0F0F0F0F0F5F5F5F5F5F5F5F5F5F5F5F5F5F5F5F5F5F5F5F5F5F5F5F5F0F5F5F5F5F5F5F5F5F5F5F5F5F5F5F5F5F5F5F5F5F5F5F5E2E2E2E2E2E2E2E2E2E2E2E2E2E2E2E2E2E2E2F5
310
F5F5F5F5F5F5F5F5F5F5F5F5F5F5F5F5F5F5F5F5F5F5F5F5F5F5F5F5F5F5F5F5F5F5F5F5F5F5F5F5F5F5F5F5F5F5E2E2E2E2E2E2E2E2E2E2E2E2E2E2E2E2E2E2E2E2E2E2E2E2E2E2E2E2E2E2E2E2F5E2E2F5F5F5E2E2F5E2E2E2E2E2E2E2E2E2E2E2E2E2E2E2DCDCE2DCDCE2E2E2E2E2F5E2E2E2E2E2E2E2E2E2E2E2E2E2E2
310
E2E2E2E2E2E2E2E2E2F0E2E2E2E2E2E2E2E2E2E2E2E2E2E2E2E2E2E2E2E2E2E2F5E2E2E2E2E2E2E2E2E2E2E2E2E2E2E2E2E2E2E2F5E2E2E2E2E2E2E2F5F5F5F5F5F0F0F5F5F5F5E2E2E2E2F0E2E2E2F5F5F5F5F5F5F5F5F5F5F5E2E2E2E2E2E2E2E2F5E2E2E2E2E2E2E2E2E2E2E2E2E2E2E2E2E2E2E2E2E2E2E2E2E2E2E2E2
310
E2E2E2E2F5E2E2F5F5F5E2E2F5E2E2E2E2E2E2E2E2E2E2E2E2E2E2E2DCDCE2DCDCE2E2E2E2E2F5E2E2E2E2E2E2E2E2E2E2E2E2E2E2E2E2E2E2E2E2E2E2E2F0E2E2E2E2E2E2E2E2E2E2E2E2E2E2E2E2E2E2E2E2E2E2F5E2E2E2E2E2E2E2E2E2E2E2E2E2E2E2E2E2E2E2F5E2E2E2E2E2E2E2F5E2E2E2E2F0E2F0E2E2E2F5E2E2
310
E2F0E2E2E2F5E2E2E2E2E2E2E2E2E2E2F5E2E2E2E2E2E2E2F5E2E2E2E2E2E2E2E2E2E2E2E2E2E2E2E2E2E2E2E2E2E2E2E2E2E2E2E2E2E2E2E2F5E2E2F5F5F5E2E2F5E2E2E2E2E2E2E2E2E2E2E2E2E2E2E2DCDCE2DCDCE2E2E2E2E2F5E2E2E2E2E2E2E2E2E2E2E2E2E2E2E2E2E2E2E2E2E2E2E2F0E2E2E2E2E2E2E2E2E2E2E2
310
E2E2E2E2E2E2E2E2E2E2E2F5E2E2E2E2E2E2E2E2E2E2E2E2E2E2E2E2E2E2E2F5E2E2E2E2E2E2E2F5E2E2E2E2F0E2F0E2E2E2F5E2E2E2F0E2E2E2F5E2E2E2E2E2E2E2E2E2E2F5E2E2E2E2E2E2E2F5E2E2E2E2E2E2E2E2E2E2E2E2E2E2E2E2E2E2E2E2E2E2E2E2E2E2E2E2E2E2E2E2F5E2E2F5F5F5E2E2F5E2E2E2E2E2E2E2E2
310
E2E2E2E2E2E2E2E2F0E2DCDCE2E2E2E2E2F5E2E2E2E2E2E2E2E2E2E2E2E2E2E2E2E2E2E2E2E2E2E2E2F0E2E2E2E2E2E2E2E2E2E2E2E2E2E2E2E2E2E2E2E2E2E2F5E2E2E2E2E2E2E2E2E2E2E2E2E2E2E2E2E2E2E2F5E2E2E2E2E2E2E2F5E2E2E2E2F0E2E2F0E2E2F5E2E2E2F0E2E2E2F5E2E2E2E2E2E2E2E2E2E2F5E2E2E2E2
310
E2E2E2F5E2E2E2E2E2E2E2E2E2E2E2E2E2E2E2E2E2E2E2E2E2E2E2E2E2E2E2E2E2E2E2E2F5E2E2F5F5F5E2F5F5E2E2E2E2E2E2E2E2E2E2E2E2E2E2E2E2F0E2DCDCE2E2E2E2E2F5E2E2E2E2E2E2E2E2E2E2E2E2E2E2E2E2E2E2E2E2E2E2E2F0E2E2E2E2E2E2E2E2E2E2E2E2E2E2E2E2E2E2E2E2E2E2F5E2E2E2E2E2E2E2E2E2
310
E2E2E2E2E2E2E2E2E2E2F5E2E2E2E2E2E2E2F5F5F5F5F5F5F5F5F0F5F5E2E2E2E2F0E2E2E2F5F5F5F5F5F5F5F5F5F5F5E2E2E2E2E2E2E2E2F5E2E2E2E2E2E2E2E2E2E2E2E2E2E2E2E2E2E2E2E2E2E2E2E2E2E2E2E2E2E2E2E2F5F5E2F5F5F5E2F5F5E2E2E2E2E2E2E2E2E2E2E2E2E2E2E2F0ECF0F0F0F0F0F0F0F0F5F5F5F5
310
F5F5F5F5F5F5F5F5F5F5F5F5F5F5F5F5F5F5F5F5F0F5F5F5F5F5F5F5F5F5F5F5F5F5F5F5F5F5F5F5F5F5F5F5E2E2E2E2E2E2E2E2E2E2E2E2E2E2E2E2E2E2E2F5F5F5F5F5F5F5F5F5F5F5F5F5F5F5F5F5F0F5F5F5F5F5F5F5F5F5F5F5F5F5F5F5F5F5F5F5F5F5F5F5F5F5F5F5F5F5E2E2E2E2E2E2E2E2E2E2E2E2E2E2E2E2E2
310
E2E2E2E2E2E2E2E2E2E2E2E2E2E2E2F5F5E2F5F5F5E2F5F5E2E2E2E2E2E2E2E2E2E2E2E2E2E2E2E2E2E2E2E2E2E2E2E2E2E2E2E2E2E2E2E2E2E2E2E2E2E2E2E2E2E2E2E2E2E2E2E2E2F0E2E2E2E2E2E2E2E2E2E2E2E2E2E2E2E2E2E2E2E2E2E2E2E2E2E2E2E2E2E2E2E2E2E2E2E2E2E2E2E2E2E2E2E2E2E2E2E2E2E2E2E2E2
310
E2E2F0E2E2E2F0E2E2E2E2E2F0E2E2E2E2E2E2E2E2E2E2E2E2E2E2E2E2E2E2E2E2E2E2E2E2E2E2E2E2E2E2E2E2E2E2E2E2E2E2E2E2E2E2E2E2E2E2E2E2E2E2E2E2E2E2E2F5F5E2F5F5F5E2F5F5E2E2E2E2E2E2E2E2E2E2E2E2E2E2E2E2E2E2E2E2E2E2E2E2E2E2E2E2E2E2E2E2E2E2E2E2E2E2E2E2E2E2E2E2E2E2E2E2E2F0
310
E2E2E2E2E2E2E2E2E2E2E2E2E2E2E2E2E2E2E2E2E2E2E2E2E2E2E2E2E2E2E2E2E2E2E2E2E2E2E2E2E2E2E2E2E2E2E2E2E2E2E2E2E2E2E2E2E2E2E2E2F0E2E2E2E2F0E2E2E2E2E2E2E2E2E2E2E2E2E2E2E2E2E2E2E2E2E2E2E2E2E2E2E2E2E2E2E2E2E2E2E2E2E2E2E2E2E2E2E2E2E2E2E2E2E2E2E2E2E2E2E2F5F5E2F5F5F5
310
E2F5F5E2E2E2E2E2E2E2E2E2E2E2E2E2E2E2E2E2E2E2E2E2E2E2E2E2E2E2E2E2E2E2E2E2E2E2E2E2E2E2E2E2E2E2E2E2E2E2E2E2E2E2E2E2E2E2E2E2E2E2E2E2E2E2E2E2E2E2E2E2E2E2E2E2E2E2E2E2E2E2E2E2E2E2E2E2E2E2E2E2E2E2E2E2E2E2E2E2E2E2E2E2E2E2E2E2E2E2E2E2E2F0F0DCDCDCDCE2E2E2E2E2E2E2E2
310
E2E2E2E2E2E2E2E2E2E2E2E2E2E2E2E2E2E2E2E2E2E2E2E2E2E2E2E2E2E2E2E2E2E2E2E2E2E2E2E2E2E2E2E2E2E2E2F5F5E2F5F5F5E2F5F5E2E2E2E2E2E2E2E2E2E2E2E2E2E2E2E2E2E2E2E2E2E2E2E2E2E2E2E2E2E2E2E2E2E2E2E2E2E2E2E2E2E2E2E2E2E2E2E2E2E2E2E2E2E2E2E2E2E2E2E2E2E2E2E2E2E2E2E2E2E2E2
310
E2E2E2E2E2E2E2E2E2E2E2E2E2E2E2E2E2E2E2E2E2E2E2E2E2E2E2E2E2E2E2E2E2E2E2E2E2E2E2E2DCDCDCDCDCE2E2E2E2E2E2E2E2E2E2E2E2E2E2E2E2E2E2E2E2E2E2E2E2E2E2E2E2E2E2E2E2E2E2E2E2E2E2E2E2E2E2E2E2E2E2E2E2E2E2E2E2E2E2E2F5F5E2F5F5F5E2F5F5E2E2E2E2E2E2E2E2E2E2E2E2E2E2E2E2E2E2
310
E2E2E2E2E2E2E2E2E2E2E2E2E2E2E2E2E2E2E2E2E2E2E2E2E2E2E2E2E2E2E2E2E2E2E2E2E2E2E2E2E2E2E2E2E2E2E2E2E2E2E2E2E2E2E2E2E2E2E2E2E2E2E2E2E2E2E2E2E2E2E2E2E2E2E2E2E2E2E2E2E2E2E2E2E2E2E2E2E2E2E2E2E2E2DCDCDCDCE2E2E2E2E2E2E2E2E2E2E2E2E2E2E2E2E2E2E2E2E2E2E2E2E2E2E2E2E2
310
E2E2E2E2E2E2E2E2E2E2E2E2E2E2E2E2E2E2E2E2E2E2E2E2E2E2F5F5E2F5F5F5E2F5F5E2E2E2E2E2E2E2E2E2E2E2E2E2E2E2E2E2E2E2E2E2E2E2E2E2E2E2E2E2E2E2E2E2E2E2E2E2E2E2E2E2E2E2E2E2E2E2E2E2E2E2E2E2E2E2E2E2E2E2E2E2E2E2E2E2E2E2E2E2E2E2E2E2E2E2E2E2E2E2E2E2E2E2E2E2E2E2E2E2E2E2E2
310
E2E2E2E2E2E2E2E2E2E2E2E2E2E2E2E2E2E2E2E2E2E2E2E2E2E2E2E2E2E2E2E2E2E2E2E2E2E2E2E2E2E2E2E2E2E2E2E2E2E2E2E2E2E2E2E2E2E2E2E2E2E2E2E2E2E2E2E2E2E2E2E2E2E2E2E2E2E2E2F5F5E2F5F5F5E2F5F5E2E2E2E2E2E2E2E2E2E2E2E2E2E2E2E2E2E2E2E2E2E2E2E2E2E2E2E2E2E2E2E2E2E2E2E2E2E2E2
310
E2E2E2E2E2E2E2E2E2E2E2E2E2E2E2E2E2E2E2E2E2E2E2E2E2E2E2E2E2E2E2E2E2E2E2E2E2E2E2E2E2E2E2E2E2E2E2E2E2E2E2E2E2E2E2E2E2E2E2E2E2E2E2E2E2E2E2E2E2E2E2E2E2E2E2E2E2E2E2E2E2E2E2E2E2E2E2E2E2E2E2E2E2E2E2E2E2E2E2E2E2E2E2E2E2E2E2E2E2E2E2E2E2E2E2E2E2E2E2E2E2E2E2E2E2E2E2
310
E2E2E2E2E2F5F5E2F5F5F5E2F5F5E2E2E2E2E2E2E2E2E2E2E2E2E2E2E2E2E2E2E2E2E2E2E2E2E2E2E2E2E2E2E2E2E2E2E2E2E2E2E2E2E2E2E2E2E2E2E2E2E2E2E2E2E2E2E2E2E2E2E2E2E2E2E2E2E2E2E2E2E2E2E2E2E2E2E2E2E2E2E2E2E2E2E2E2E2E2E2E2E2E2E2E2E2E2E2E2E2E2E2E2E2E2E2E2E2E2E2E2E2E2E2E2E2
310
E2E2E2E2E2E2E2E2E2E2E2E2E2E2E2E2E2E2E2E2E2E2E2E2E2E2E2E2E2E2E2E2E2E2E2E2E2E2E2E2E2E2E2E2E2E2E2E2E2E2E2E2E2E2E2E2E2E2F5F5E2F5F5F5E2F5F5E2E2E2E2E2E2E2E2E2E2E2E2E2E2E2E2E2E2E2E2E2E2E2E2E2E2E2E2E2E2E2E2E2E2E2E2E2E2E2E2E2E2E2E2E2E2E2E2E2E2E2E2E2E2E2E2E2E2E2E2
310
E2E2E2E2E2E2E2E2E2E2E2E2E2E2E2E2E2E2E2E2E2E2E2E2E2E2E2E2E2E2E2E2E2E2E2E2E2E2E2E2E2E2E2E2E2E2E2E2E2E2E2E2E2E2E2E2E2E2E2E2E2E2E2E2E2E2E2E2E2E2E2E2E2E2E2E2E2E2E2E2E2E2E2E2E2E2E2E2E2E2E2E2E2E2E2E2E2E2E2E2E2E2E2E2E2E2E2E2E2E2E2F5F5E2F5F5F5E2F5F5E2E2E2E2E2E2E2
310
E2E2E2E2E2E2E2E2E2E2E2E2E2E2E2E2E2E2E2E2E2E2E2E2E2E2E2E2E2E2E2E2E2E2E2E2E2E2E2E2E2E2E2E2E2E2E2E2E2E2E2E2E2E2E2E2E2E2E2E2E2E2E2E2E2E2E2E2E2E2E2E2E2E2E2E2E2E2E2E2E2E2E2E2E2E2E2E2E2E2E2E2E2E2E2E2E2E2E2E2E2E2E2E2E2E2E2E2E2E2E2E2E2E2E2E2E2E2E2E2E2E2E2E2E2E2E2
310
E2E2E2E2E2E2E2E2E2E2E2E2E2E2E2E2E2E2E2E2E2E2E2E2E2E2E2E2E2E2E2E2E2E2E2E2E2F5F5E2F5F5F5E2F5F5E2E2E2E2E2E2E2E2E2E2E2E2E2E2E2E2E2E2E2E2E2E2E2E2E2E2E2E2E2E2E2E2E2E2E2E2E2E2E2E2E2E2E2E2E2E2E2E2E2E2E2E2E2E2E2E2E2E2E2E2E2E2E2E2E2E2E2E2E2E2E2E2E2E2E2E2E2E2E2E2E2
310
E2E2E2E2E2E2E2E2E2E2E2E2E2E2E2E2E2E2E2E2E2E2E2E2E2E2E2E2E2E2E2E2E2E2E2E2E2E2E2E2E2E2E2E2E2E2E2E2E2E2E2E2E2E2E2E2E2E2E2E2E2E2E2E2E2E2E2E2E2E2E2E2E2E2E2E2E2E2E2E2E2E2E2E2E2E2E2E2E2E2F5F5E2F5F5F5E2F5F5E2E2E2E2E2E2E2E2E2E2E2E2E2E2E2E2E2E2E2E2E2E2E2E2E2E2E2E2
310
E2F0E2E2E2E2E2E2E2E2E2E2E2E2E2E2E2E2E2E2E2E2E2E2E2E2E2E2E2E2E2E2E2E2E2E2E2E2E2E2E2E2E2E2E2E2E2E2E2E2E2E2E2E2E2E2E2E2E2E2E2E2E2E2E2E2E2E2E2E2E2E2E2E2E2E2E2E2E2E2E2E2E2E2E2E2E2E2E2E2E2E2E2E2E2E2E2E2E2E2E2E2E2E2E2E2E2E2E2E2E2E2E2E2E2E2E2E2E2E2E2E2E2E2E2E2E2
310
E2E2E2E2E2E2E2E2E2E2E2E2E2E2E2E2F5F5E2F5F5F5E2F5F5E2E2E2E2E2E2E2E2E2E2E2E2E2E2E2E2E2E2E2E2E2E2E2E2E2E2E2E2E2F0E2E2E2E2E2E2E2E2E2E2E2E2E2E2E2E2E2E2E2E2E2E2E2E2E2E2E2E2E2E2E2E2E2E2E2E2E2E2E2E2E2E2E2E2E2E2E2E2E2E2E2E2E2E2E2E2E2E2E2E2E2E2E2E2E2E2E2E2E2E2E2E2
310
E2E2E2E2E2E2E2E2E2E2E2E2E2E2E2E2E2E2E2E2E2E2E2E2E2E2E2E2E2E2E2E2E2E2E2E2E2E2E2E2E2E2E2E2E2E2E2E2E2E2E2E2E2E2E2E2E2E2E2E2E2E2E2E2E2E2E2E2E2F5F5E2F5F5F5E2F5F5E2E2E2E2E2E2E2E2E2E2E2E2E2E2E2E2E2E2E2E2E2E2E2E2E2E2E2E2E2F0E2E2E2E2E2E2E2E2E2E2E2E2E2E2E2E2E2E2E2
310
E2E2E2E2E2E2E2E2E2E2E2E2E2E2E2E2E2E2E2E2E2E2E2E2E2E2E2E2E2E2E2E2E2E2E2E2E2E2E2E2E2E2E2E2E2E2E2E2E2E2E2E2E2E2E2E2E2E2E2E2E2E2E2E2E2E2E2E2E2E2E2E2E2E2E2E2E2E2E2E2E2E2E2E2E2E2E2E2E2E2E2E2E2E2E2E2E2E2E2E2E2E2E2E2E2E2E2E2E2E2E2E2E2E2E2E2E2E2E2E2E2E2F5F5E2F5F5
310
F5E2E2F5E2E2E2E2E2E2E2E2E2E2E2E2E2E2E2E2E2E2E2E2E2E2E2E2E2E2E2E2E2F0E2E2E2E2E2E2E2E2E2E2E2E2E2E2E2E2E2E2E2E2E2E2E2E2E2E2E2E2E2E2E2E2E2E2E2E2E2E2E2E2E2E2E2E2E2E2E2E2E2E2E2E2E2E2E2E2E2E2E2E2E2E2E2E2E2E2E2E2E2E2E2E2E2E2E2E2E2E2E2E2E2E2E2E2E2E2E2E2E2E2E2E2E2
310
E2E2E2E2E2E2E2E2E2E2E2E2E2E2E2E2E2E2E2E2E2E2E2E2E2E2E2E2E2E2E2E2E2E2E2E2E2E2E2E2E2E2E2E2E2E2E2E2F5E2E2F5F5F5E2E2F5E2E2E2E2E2E2E2E2E2E2E2E2E2E2E2E2E2E2E2E2E2E2E2E2E2F5F5F5F5F0F5F5F5F5F5F5F5F5F5F5F5F5F5F5F5F5F5F5F5F5F5F5F5F5F5F5F5F5F5F5F5F5F5F5F5F5F5F5F5F5
310
F5F5ECF0F0F0F0E2E2E2E2E2E2E2E2E2E2E2E2E2E2E2E2E2E2E2E2E2E2E2E2E2E2E2E2E2E2E2E2E2E2E2E2E2E2E2E2E2E2E2E2E2E2E2E2E2E2E2E2E2E2E2E2E2E2E2E2E2E2E2E2E2E2E2E2E2E2E2E2E2E2E2E2E2E2E2E2E2E2E2E2E2E2E2E2E2E2E2E2E2E2F5E2E2F5F5F5E2E2F5E2E2E2E2E2E2E2E2E2E2E2E2E2E2E2E2E2
310
E2E2E2E2E2E2E2E2F5E2E2E2E2E2E2E2E2E2E2E2E2E2E2E2E2E2E2E2E2E2E2E2E2E2E2E2E2E2E2E2E2E2E2E2E2E2E2E2E2E2E2E2E2E2E2F5E2E2F0E2E2E2E2E2E2E2E2E2E2E2E2E2E2E2E2E2E2E2E2E2E2E2E2E2E2E2E2E2E2E2E2E2E2E2E2E2E2E2E2E2E2E2E2E2E2E2E2E2E2E2E2E2E2E2E2E2E2E2E2E2E2E2E2E2E2E2E2
310
E2E2E2E2E2E2E2E2E2E2E2E2E2E2E2E2E2E2E2E2E2E2E2E2E2E2E2F5E2E2F5F5F5E2E2F5E2E2E2E2E2E2E2E2E2E2E2E2E2E2E2E2E2E2E2E2E2E2E2E2E2F5E2E2E2E2E2E2E2E2E2E2E2E2E2E2E2E2E2E2E2E2E2E2E2E2E2E2E2E2E2E2E2E2E2E2E2E2E2E2E2E2E2E2E2E2E2E2F5E2E2F0E2E2E2E2E2E2E2E2E2E2E2E2E2E2E2
310
E2E2E2E2E2E2E2E2E2E2E2E2E2E2E2E2E2E2E2E2E2E2E2E2E2E2E2E2E2E2E2E2E2E2E2E2E2E2E2E2E2E2E2E2E2E2E2E2E2E2E2E2E2E2E2E2E2E2E2E2E2E2E2E2E2E2E2E2E2E2E2E2E2E2E2E2E2E2E2E2F5E2E2F5F5F5E2E2F5E2E2E2E2E2E2E2E2E2E2E2E2E2E2E2E2E2E2E2E2E2E2E2E2E2F5E2E2E2E2E2E2E2E2E2E2E2E2
310
E2E2E2E2E2E2E2E2E2E2E2E2E2E2E2E2E2E2E2E2E2E2E2E2E2E2E2E2E2E2E2E2E2E2F5E2E2F0E2E2E2E2E2E2E2E2E2E2E2E2E2E2E2E2E2E2E2E2E2E2E2E2E2E2E2E2E2E2E2E2E2E2E2E2E2E2E2E2E2E2E2E2E2E2E2E2E2E2E2E2E2E2E2E2E2E2E2E2E2E2E2E2E2E2E2E2E2E2E2E2E2E2E2E2E2E2E2E2E2E2E2E2E2E2E2E2E2
310
E2E2E2E2E2E2F5E2E2F5F5F5E2E2F5E2E2E2E2E2E2E2E2E2E2E2E2E2E2E2E2E2E2E2E2E2E2E2E2E2F5E2E2E2E2E2E2E2E2E2E2E2E2E2E2E2E2E2E2E2E2E2E2E2E2E2E2E2E2E2E2E2E2E2E2E2E2E2E2E2E2E2E2E2E2E2E2F5E2E2F0E2E2E2E2E2E2E2E2E2E2E2E2E2E2E2E2E2E2E2E2E2E2E2E2E2E2E2E2E2E2E2E2E2E2E2E2
310
E2E2E2E2E2E2E2E2E2E2E2E2E2E2E2E2E2E2E2E2E2E2E2E2E2E2E2E2E2E2E2E2E2E2E2E2E2E2E2E2E2E2E2E2E2E2E2E2E2E2E2E2E2E2E2E2E2E2E2F5E2E2F5F5F5E2E2F5E2E2E2E2E2E2E2E2E2E2E2E2E2E2E2E2E2E2E2E2E2E2E2E2E2F5E2E2E2E2E2E2E2E2E2E2E2E2E2E2E2E2E2E2E2E2E2E2E2E2E2E2E2E2E2E2E2E2E2
310
E2E2E2E2E2E2E2E2E2E2E2E2E2F5E2E2F0E2E2E2E2E2E2E2E2E2E2E2E2E2E2E2E2E2E2E2E2E2E2E2E2E2E2E2E2E2E2E2E2E2E2E2E2E2E2E2E2E2E2E2E2E2E2E2E2E2E2E2E2E2E2E2E2E2E2E2E2E2E2E2E2E2E2E2E2E2E2E2E2E2E2E2E2E2E2E2E2E2E2E2E2E2E2E2E2E2E2E2E2E2E2E2F5E2E2F5F5F5E2E2F5E2E2E2E2E2E2
310
E2E2E2E2E2E2E2E2E2E2E2E2E2E2E2E2E2E2E2F5E2E2E2E2E2E2E2E2E2E2E2E2E2E2E2E2E2E2E2E2E2E2E2E2E2E2E2E2E2E2E2E2E2E2E2E2E2E2E2E2E2E2E2E2E2E2F5E2E2F0E2E2E2E2F0DCF0DCDCE2E2E2E2E2E2E2E2E2E2E2E2E2E2E2E2E2E2E2E2E2E2E2E2E2E2E2E2E2E2E2E2E2E2E2E2E2E2E2E2E2E2E2E2E2E2E2E2
310
E2E2E2E2E2E2E2E2E2E2E2E2E2E2E2E2E2E2E2E2E2E2E2E2E2E2E2E2E2E2E2E2E2E2E2E2E2E2F5E2E2F5F5F5E2E2F5E2E2E2E2E2E2E2E2E2E2E2E2E2E2E2E2E2E2E2E2E2E2E2E2E2F5E2E2E2E2E2E2E2E2E2E2E2E2E2E2E2E2E2E2E2E2E2E2E2E2E2E2E2E2E2E2E2E2E2E2E2E2E2E2E2E2E2E2E2E2E2E2F5E2E2F0E2E2E2F0
310
E2DCDCDCDCE2E2E2E2E2E2E2E2E2E2E2E2E2E2E2E2E2E2E2E2E2E2E2E2E2E2E2E2E2E2E2E2E2E2E2E2E2E2E2E2E2E2E2E2E2E2E2E2E2E2E2E2E2E2E2E2E2E2E2E2E2E2E2E2E2E2E2E2E2E2E2E2E2E2E2E2E2E2E2E2E2E2E2E2E2E2F5E2E2F5F5F5E2F5F5E2E2E2E2E2E2E2E2E2E2E2E2E2E2E2E2E2E2E2E2E2E2E2E2E2F5E2
310
E2E2E2E2E2E2E2E2E2E2E2E2E2E2E2E2E2E2E2E2E2E2E2E2E2E2E2E2E2E2E2E2E2E2E2E2E2E2E2E2E2E2E2E2E2F5E2E2F0E2E2F0E2E2DCDCDCDCE2E2E2E2E2E2E2E2E2E2E2E2E2E2E2E2E2E2E2E2E2E2E2E2E2E2E2E2E2E2E2E2E2E2E2E2E2E2E2E2E2E2E2E2E2E2E2E2E2E2E2E2E2E2E2E2E2E2E2E2E2E2E2E2E2E2E2E2E2
310
E2E2E2E2E2E2E2E2E2E2E2E2E2E2E2E2E2F5F5E2F5F5F5E2F5F5E2E2E2E2E2E2E2E2E2E2E2E2E2E2E2E2E2E2E2E2E2E2E2E2E2F5E2E2E2E2E2E2E2E2E2E2E2E2E2E2E2E2E2E2E2E2E2E2E2E2E2E2E2E2E2E2E2E2E2E2E2E2E2E2E2E2E2E2E2E2E2E2F5E2E2F0F0F0E2E2E2E2E2E2E2E2E2E2E2E2E2E2E2E2E2E2E2E2E2E2E2
310
E2E2E2E2E2E2E2E2E2E2E2E2E2E2E2E2E2E2E2E2E2E2E2E2E2E2E2E2E2E2E2E2E2E2E2E2E2E2E2E2E2E2E2E2E2E2E2E2E2E2E2E2E2E2E2E2E2E2E2E2E2E2E2E2E2E2E2E2E2E2F5F5E2F5F5F5E2F5F5E2E2E2E2E2E2E2E2E2E2E2E2E2E2E2E2E2E2E2E2E2E2E2E2E2F5E2E2E2E2E2E2E2E2E2E2E2E2E2E2E2E2E2E2E2E2E2E2
310
E2E2E2E2E2E2E2E2E2E2E2E2E2E2E2E2E2E2E2E2E2E2E2E2F5E2E2F0E2E2E2E2E2E2E2E2E2E2E2E2E2E2E2E2E2E2E2E2E2E2E2E2E2E2E2E2E2E2E2E2E2E2E2E2E2E2E2E2E2E2E2E2E2E2E2E2E2E2E2E2E2E2E2E2E2E2E2E2E2E2E2E2E2E2E2E2E2E2E2E2E2E2E2E2E2E2E2E2E2E2E2E2E2E2E2E2E2E2E2E2E2E2E2F5F5E2F5
310
F5F5E2F5F5E2E2E2E2E2E2E2E2E2E2E2E2E2E2E2E2E2E2E2E2E2E2E2E2E2F5E2E2E2E2E2E2E2E2E2E2E2E2E2E2E2E2E2E2E2E2E2E2E2E2E2E2E2E2E2E2E2E2E2E2E2E2E2E2E2E2E2E2E2E2E2E2F5E2F0F0E2E2E2E2E2E2E2E2E2E2E2E2E2E2E2E2E2E2E2E2E2E2E2E2E2E2E2E2E2E2E2E2E2E2E2E2E2E2E2E2E2E2E2E2E2E2
310
E2E2E2E2E2E2E2E2E2E2E2E2E2E2E2E2E2E2E2E2E2E2E2E2E2E2E2E2E2E2E2E2E2E2E2E2E2E2E2E2E2E2E2E2E2E2E2E2E2F5F5E2F5F5F5E2F5F5E2E2E2E2E2E2E2E2E2E2E2E2E2E2E2E2E2E2E2E2E2E2E2E2E2F5E2E2E2E2E2E2E2E2E2E2E2E2E2E2E2E2E2E2E2E2E2E2E2E2E2E2E2E2E2E2E2E2E2E2E2E2E2E2E2E2E2E2E2
310
E2E2E2F5F0E2F0E2E2E2E2E2E2E2E2E2E2E2E2E2E2E2E2E2E2E2E2E2E2E2E2E2E2E2E2E2E2E2E2E2E2E2E2E2E2E2E2E2E2E2E2E2E2E2E2E2E2E2E2E2E2E2E2E2E2E2E2E2E2E2E2E2E2E2E2E2E2E2E2E2E2E2E2E2E2E2E2E2E2E2E2E2E2E2E2E2E2E2E2E2E2E2F5F5E2F5F5F5E2F5F5E2E2E2E2E2E2E2E2E2E2E2E2E2E2E2E2
310
E2E2E2E2E2E2E2E2E2F5E2E2E2E2E2E2E2E2E2E2E2E2E2E2E2E2E2E2E2E2E2E2E2E2E2E2E2E2E2E2E2E2E2E2E2E2E2E2E2E2E2E2E2E2E2F5F0E2E2F0E2E2E2E2E2E2E2E2E2E2E2E2E2E2E2E2E2E2E2E2E2E2E2E2E2E2E2E2E2E2E2E2E2E2E2E2E2E2E2E2E2E2E2E2E2E2E2E2E2E2E2E2E2E2E2E2E2E2E2E2E2E2E2E2E2E2E2
310
E2E2E2E2E2E2E2E2E2E2E2E2E2E2E2E2E2E2E2E2E2E2E2E2E2E2E2E2F5F5E2F5F5F5E2F5F5E2E2E2E2E2E2E2E2E2E2E2E2E2E2E2E2E2E2E2E2E2E2E2E2E2F5E2E2E2E2E2E2E2E2E2E2E2E2E2E2E2E2E2E2E2E2E2E2E2E2E2E2E2E2E2E2E2E2E2E2E2E2E2E2E2E2E2E2E2E2F5F5ECECE2F0E2E2E2E2E2E2E2E2E2E2E2E2E2E2
310
E2E2E2E2E2E2E2E2E2E2E2E2E2E2E2E2E2E2E2E2E2E2E2E2E2E2E2E2E2E2E2E2E2E2E2E2E2E2E2E2E2E2E2E2E2E2E2E2E2E2E2E2E2E2E2E2E2E2E2E2E2E2E2E2E2E2E2E2E2E2E2E2E2E2E2E2E2E2E2E2E2F5F5E2F5F5F5E2F5F5E2E2E2E2E2E2E2E2E2E2E2E2E2E2E2E2E2E2E2E2E2E2E2E2E2F5E2E2E2E2E2E2E2E2E2E2E2
310
E2E2E2E2E2E2E2E2E2E2E2E2E2E2E2E2E2E2E2E2E2E2E2E2E2E2E2E2E2E2E2E2E2E2E2F5E2E2F0E2E2E2E2E2E2E2E2E2E2E2E2E2E2E2E2E2E2E2E2E2E2E2E2E2E2E2E2E2E2E2E2E2E2E2E2E2E2E2E2E2E2E2E2E2E2E2E2E2E2E2E2E2E2E2E2E2E2E2E2E2E2E2E2E2E2E2E2E2E2E2E2E2E2E2E2E2E2E2E2E2E2E2E2E2E2E2E2
310
E2E2E2E2E2E2E2F5F5E2F5F5F5E2F5F5E2E2E2E2E2E2E2E2E2E2E2E2E2E2E2E2E2E2E2E2E2E2E2E2E2F5E2E2E2E2E2E2E2E2E2E2E2E2E2E2E2E2E2E2E2E2E2E2E2E2E2E2E2E2E2E2E2E2E2E2E2E2E2E2E2E2E2E2E2E2E2E2F5E2E2F0E2E2E2E2E2E2E2E2E2E2E2E2E2E2E2E2E2E2E2E2E2E2E2E2E2E2E2E2E2E2E2E2E2E2E2
310
E2E2E2E2E2E2E2E2E2E2E2E2E2E2E2E2E2E2E2E2E2E2E2E2E2E2E2E2E2E2E2E2E2E2E2E2E2E2E2E2E2E2E2E2E2E2E2E2E2E2E2E2E2E2E2E2E2E2E2E2F5F5E2F5F5F5E2F5F5E2E2E2E2E2E2E2E2E2E2E2E2E2E2E2E2E2E2E2E2E2E2E2E2E2F5E2E2E2E2E2E2E2E2E2E2E2E2E2E2E2E2E2E2E2E2E2E2E2E2E2E2E2E2E2E2E2E2
310
E2E2E2E2E2E2E2E2E2E2E2E2E2E2F5E2E2F0E2E2E2E2E2E2E2E2E2E2E2E2E2E2E2E2E2E2E2E2E2E2E2E2E2E2E2E2E2E2E2E2E2E2E2E2E2E2E2E2E2E2E2E2E2E2E2E2E2E2E2E2E2E2E2E2E2E2E2E2E2E2E2E2E2E2E2E2E2E2E2E2E2E2E2E2E2E2E2E2E2E2E2E2E2E2E2E2E2E2E2E2E2E2E2F5F5E2F5F5F5E2F5F5E2E2E2E2E2
310
E2E2E2E2E2E2E2E2E2E2E2E2E2E2E2E2E2E2E2E2F5E2E2E2E2E2E2E2E2E2E2E2E2E2E2E2E2E2E2E2E2E2E2E2E2E2E2E2E2E2E2E2E2E2E2E2E2E2E2E2E2E2E2E2E2E2E2F5E2E2F0E2E2E2E2E2E2E2E2E2E2E2E2E2E2E2E2E2E2E2E2E2E2E2E2E2E2E2E2E2E2E2E2E2E2E2E2E2E2E2E2E2E2E2E2E2E2E2E2E2E2E2E2E2E2E2E2
310
E2E2E2E2E2E2E2E2E2E2E2E2E2E2E2E2E2E2E2E2E2E2E2E2E2E2E2E2E2E2E2E2E2E2E2E2E2E2E2F5F5E2F5F5F5E2F5F5E2E2E2E2E2E2E2E2E2E2E2E2E2E2E2E2E2E2E2E2E2E2E2E2E2F5E2E2E2E2E2E2E2E2E2E2E2E2E2E2E2E2E2E2E2E2E2E2E2E2E2E2E2E2E2E2E2E2E2E2E2E2E2E2E2E2E2E2E2E2E2E2F5E2E2F0E2E2E2
310
E2E2E2E2E2E2E2E2E2E2E2E2E2E2E2E2E2E2E2E2E2E2E2E2E2E2E2E2E2E2E2E2E2E2E2E2E2E2E2E2E2E2E2E2E2E2E2E2E2E2E2E2E2E2E2E2E2E2E2E2E2E2E2E2E2E2E2E2E2E2E2E2E2E2E2E2E2E2E2E2E2E2E2E2E2E2E2E2E2E2E2E2F5F5E2F5F5F5E2F5F5E2E2E2E2E2E2E2E2E2E2E2E2E2E2E2E2E2E2E2E2E2E2E2E2E2F5
310
E2E2E2E2E2E2E2E2E2E2E2E2E2E2E2E2E2E2E2E2E2E2E2E2E2E2E2E2E2E2E2E2E2E2E2E2E2E2E2E2E2E2E2E2E2E2F5E2E2F0E2E2E2E2E2E2E2E2E2E2E2E2E2E2E2E2E2E2E2E2E2E2E2E2E2E2E2E2E2E2E2E2E2E2E2E2E2E2E2E2E2E2E2E2E2E2E2E2E2E2E2E2E2E2E2E2E2E2E2E2E2E2E2E2E2E2E2E2E2E2E2E2E2E2E2E2E2
310
E2E2E2E2E2E2E2E2E2E2E2E2E2E2E2E2E2E2F5F5E2F5F5F5E2F5F5E2E2E2E2E2E2E2E2E2E2E2E2E2E2E2E2E2E2E2E2E2E2E2E2E2F5E2E2E2E2E2E2E2E2E2E2E2E2E2E2E2E2E2E2E2E2E2E2E2E2E2E2E2E2E2E2E2E2E2E2E2E2E2E2E2E2E2E2E2E2E2E2F5E2DCDCE2E2E2E2E2E2E2E2E2E2E2E2E2E2E2E2E2E2E2E2E2E2E2E2
310
E2E2E2E2E2E2E2E2E2E2E2E2E2E2E2E2E2E2E2E2E2E2E2E2E2E2E2E2E2E2E2E2E2E2E2E2E2E2E2E2E2E2E2E2E2E2E2E2E2E2E2E2E2E2E2E2E2E2E2E2E2E2E2E2E2E2E2E2E2E2E2F5F5E2F5F5F5E2F5F5E2E2E2E2E2E2E2E2E2E2E2E2E2E2E2E2E2E2E2E2E2E2E2E2E2F5E2E2E2E2E2E2E2E2E2E2E2E2E2E2E2E2E2E2E2E2E2
310
E2E2E2E2E2E2E2E2E2E2E2E2E2E2E2E2E2E2E2E2E2E2E2E2E2F5E2DCDCE2E2E2E2E2E2E2E2E2E2E2E2E2E2E2E2E2E2E2E2E2E2E2E2E2E2E2E2E2E2E2E2E2E2E2E2E2E2E2E2E2E2E2E2E2E2E2E2E2E2E2E2E2E2E2E2E2E2E2E2E2E2E2E2E2E2E2E2E2E2E2E2E2E2E2E2E2E2E2E2E2E2E2E2E2E2E2E2E2E2E2E2E2E2E2F5F5E2
310
F5F5F5E2F5F5E2E2E2E2E2E2E2E2E2E2E2E2E2E2E2E2E2E2E2E2E2E2E2E2E2F5E2E2E2E2E2E2E2E2E2E2E2E2E2E2E2E2E2E2E2E2E2E2E2E2E2E2E2E2E2E2E2E2E2E2E2E2E2E2E2E2E2E2E2E2E2E2F5E2DCDCE2E2E2E2E2E2E2E2E2E2E2E2E2E2E2E2E2E2E2E2E2E2E2E2E2E2E2E2E2E2E2E2E2E2E2E2E2E2E2E2E2E2E2E2E2
310
E2E2E2E2E2E2E2E2E2E2E2E2E2E2E2E2E2E2E2E2E2E2E2E2E2E2E2E2E2E2E2E2E2E2E2E2E2E2E2E2E2E2E2E2E2E2E2E2E2E2F5F5E2F5F5F5E2E2F5E2E2E2E2E2E2E2E2E2E2E2E2E2E2E2E2E2E2E2E2E2E2E2E2E2F5E2E2E2E2E2E2E2E2E2E2E2E2E2E2E2E2E2E2E2E2E2E2E2E2E2E2E2E2E2E2E2E2E2E2E2E2E2E2E2E2E2E2
310
E2E2E2E2F5E2DCDCE2E2E2E2E2E2E2E2E2E2E2E2E2E2E2E2E2E2E2E2E2E2E2E2E2E2E2E2E2E2E2E2E2E2E2E2E2E2E2E2E2E2E2E2E2E2E2E2E2E2E2E2E2E2E2E2E2E2E2E2E2E2E2E2E2E2E2E2E2E2E2E2E2E2E2E2E2E2E2E2E2E2E2E2E2E2E2E2E2E2E2E2E2E2E2F5E2E2F5F5F5E2E2F5E2E2E2E2E2E2E2E2E2E2E2E2E2E2E2
310
E2E2E2E2E2E2E2E2E2E2F5E2E2E2E2E2E2E2E2E2E2E2E2E2E2E2E2E2E2E2E2E2E2E2E2E2E2E2E2E2E2E2E2E2E2E2E2E2E2E2E2E2E2E2E2E2E2F5E2DCDCE2E2E2E2E2E2E2E2E2E2E2E2E2E2E2E2E2E2E2E2E2E2E2E2E2E2E2E2E2E2E2E2E2E2E2E2E2E2E2E2E2E2E2E2E2E2E2E2E2E2E2E2E2E2E2E2E2E2E2E2E2E2E2E2E2E2
310
E2E2E2E2E2E2E2E2E2E2E2E2E2E2E2E2E2E2E2E2E2E2E2E2E2E2E2E2E2F5E2E2F5F5F5E2E2F5E2E2E2E2E2E2E2E2E2E2E2E2E2E2E2E2E2E2E2E2E2E2E2E2E2F5E2E2E2E2E2E2E2E2E2E2E2E2E2E2E2E2E2E2E2E2E2E2E2E2E2E2E2E2E2E2E2E2E2E2E2E2E2E2E2E2E2E2E2E2E2E2F5E2DCDCE2E2E2E2E2E2E2E2E2E2E2E2E2
310
E2E2E2E2E2E2E2E2E2E2E2E2E2E2E2E2E2E2E2E2E2E2E2E2E2E2E2E2E2E2E2E2E2E2E2E2E2E2E2E2E2E2E2E2E2E2E2E2E2E2E2E2E2E2E2E2E2E2E2E2E2E2E2E2E2E2E2E2E2E2E2E2E2E2E2E2E2E2E2E2E2E2F5E2E2F5F5F5E2E2F5E2E2E2E2E2E2E2E2E2E2E2E2E2E2E2E2E2E2E2E2E2E2E2E2E2F5E2E2E2E2E2E2E2E2E2E2
310
E2E2E2E2E2E2E2E2E2E2E2E2E2E2E2E2E2E2E2E2E2E2E2E2E2E2E2E2E2E2E2E2E2E2E2E2F5E2E2F0E2E2E2E2E2E2E2E2E2E2E2E2E2E2E2E2E2E2E2E2E2E2E2E2E2E2E2E2E2E2E2E2E2E2E2E2E2E2E2E2E2E2E2E2E2E2E2E2E2E2E2E2E2E2E2E2E2E2E2E2E2E2E2E2E2E2E2E2E2E2E2E2E2E2E2E2E2E2E2E2E2E2E2E2E2E2E2
310
E2E2E2E2E2E2E2E2F5E2E2F5F5F5E2E2F5E2E2E2E2E2E2E2E2E2E2E2E2E2E2E2E2E2E2E2E2E2E2E2E2E2F5E2E2E2E2E2E2E2E2E2E2E2E2E2E2E2E2E2E2E2E2E2E2E2E2E2E2E2E2E2E2E2E2E2E2E2E2E2E2E2E2E2E2E2E2E2E2F5E2E2F0E2E2E2E2E2E2E2E2E2E2E2E2E2E2E2E2E2E2E2E2E2E2E2E2E2E2E2E2E2E2E2E2E2E2
310
E2E2E2E2E2E2E2E2E2E2E2E2E2E2E2E2E2E2E2E2E2E2E2E2E2E2E2E2E2E2E2E2E2E2E2E2E2E2E2E2E2E2E2E2E2E2E2E2E2E2E2E2E2E2E2E2E2E2E2E2E2F5E2E2F5F5F5E2E2F5E2E2E2E2E2E2E2E2E2E2E2E2E2E2E2E2E2E2E2E2E2E2E2E2E2F5E2E2E2E2E2E2E2E2E2E2E2E2E2E2E2E2E2E2E2E2E2E2E2E2E2E2E2E2E2E2E2
310
E2E2E2E2E2E2E2E2E2E2E2E2E2E2E2F5E2E2F0E2E2E2E2E2E2E2E2E2E2E2E2E2E2E2E2E2E2E2E2E2E2E2E2E2E2E2E2E2E2E2E2E2E2E2E2E2E2E2E2E2E2E2E2E2E2E2E2E2E2E2E2E2E2E2E2E2E2E2E2E2E2E2E2E2E2E2E2E2E2E2E2E2E2E2E2E2E2E2E2E2E2E2E2E2E2E2E2E2E2E2E2E2E2E2F5E2E2F5F5F5E2E2F5E2E2E2E2
310
E2E2E2E2E2E2E2E2E2E2E2E2E2E2E2E2E2E2E2E2E2F5E2E2E2E2E2E2E2E2E2E2E2E2E2E2E2E2E2E2E2E2E2E2E2E2E2E2E2E2E2E2E2E2E2E2E2E2E2E2E2E2E2E2E2E2E2E2F5E2E2F0E2E2E2E2E2E2E2E2E2E2E2E2E2E2E2E2E2E2E2E2E2E2E2E2E2E2E2E2E2E2E2E2E2E2E2E2E2E2E2E2E2E2E2E2E2E2E2E2E2E2E2E2E2E2E2
310
E2E2E2E2E2E2E2E2E2E2E2E2E2E2E2E2E2E2E2E2E2E2E2E2E2E2E2E2E2E2E2E2E2E2E2E2E2E2E2E2F5E2E2F5F5F5E2E2F5E2E2E2E2E2E2E2E2E2E2E2E2E2E2E2E2E2E2E2E2E2E2E2E2E2F5E2E2E2E2E2E2E2E2E2E2E2E2E2E2E2E2E2E2E2E2E2E2E2E2E2E2E2E2E2E2E2E2E2E2E2E2E2E2E2E2E2E2E2E2E2E2F5E2E2F0E2E2
310
E2E2E2E2E2E2E2E2E2E2E2E2E2E2E2E2E2E2E2E2E2E2E2E2E2E2E2E2E2E2E2E2E2E2E2E2E2E2E2E2E2E2E2E2E2E2E2E2E2E2E2E2E2E2E2E2E2E2E2E2E2E2E2E2E2E2E2E2E2E2E2E2E2E2E2E2E2E2E2E2E2E2E2E2E2E2E2E2E2E2E2E2E2F5E2E2F5F5F5E2F5F5E2E2E2E2E2E2E2E2E2E2E2E2E2E2E2E2E2E2E2E2E2E2E2E2E2
310
F5E2E2E2E2E2E2E2E2E2E2E2E2E2E2E2E2E2E2E2E2E2E2E2E2E2E2E2E2E2E2E2E2E2E2E2E2E2E2E2E2E2E2E2E2E2E2F5E2E2F0E2E2E2E2E2E2E2E2E2E2E2E2E2E2E2E2E2E2E2E2E2E2E2E2E2E2E2E2E2E2E2E2E2E2E2E2E2E2E2E2E2E2E2E2E2E2E2E2E2E2E2E2E2E2E2E2E2E2E2E2E2E2E2E2E2E2E2E2E2E2E2E2E2E2E2E2
310
E2E2E2E2E2E2E2E2E2E2E2E2E2E2E2E2E2E2E2F5F5E2F5F5F5E2F5F5E2E2E2E2E2E2E2E2E2E2E2E2E2E2E2E2E2E2E2E2E2E2E2E2E2F5E2E2E2E2E2E2E2E2E2E2E2E2E2E2E2E2E2E2E2E2E2E2E2E2E2E2E2E2E2E2E2E2E2E2E2E2E2E2E2E2E2E2E2E2E2E2F5E2E2F0E2E2E2E2E2E2E2E2E2E2E2E2E2E2E2E2E2E2E2E2E2E2E2
310
E2E2E2E2E2E2E2E2E2E2E2E2E2E2E2E2E2E2E2E2E2E2E2E2E2E2E2E2E2E2E2E2E2E2E2E2E2E2E2E2E2E2E2E2E2E2E2E2E2E2E2E2E2E2E2E2E2E2E2E2E2E2E2E2E2E2E2E2E2E2E2E2F5F5E2F5F5F5E2F5F5E2E2E2E2E2E2E2E2E2E2E2E2E2E2E2E2E2E2E2E2E2E2E2E2E2F5E2E2E2E2E2E2E2E2E2E2E2E2E2E2E2E2E2E2E2E2
310
E2E2E2E2E2E2E2E2E2E2E2E2E2E2E2E2E2E2E2E2E2E2E2E2E2E2F5E2E2F0E2E2E2E2E2E2E2E2E2E2E2E2E2E2E2E2E2E2E2E2E2E2E2E2E2E2E2E2E2E2E2E2E2E2E2E2E2E2E2E2E2E2E2E2E2E2E2E2E2E2E2E2E2E2E2E2E2E2E2E2E2E2E2E2E2E2E2E2E2E2E2E2E2E2E2E2E2E2E2E2E2E2E2E2E2E2E2E2E2E2E2E2E2E2E2F5F5
310
E2F5F5F5E2F5F5E2E2E2E2E2E2E2E2E2E2E2E2E2E2E2E2E2E2E2E2E2E2E2E2E2F5E2E2E2E2E2E2E2E2E2E2E2E2E2E2E2E2E2E2E2E2E2E2E2E2E2E2E2E2E2E2E2E2E2E2E2E2E2E2E2E2E2E2E2E2E2E2F5E2E2F0E2E2E2E2E2E2E2E2E2E2E2E2E2E2E2E2E2E2E2E2E2E2E2E2E2E2E2E2E2E2E2E2E2E2E2E2E2E2E2E2E2E2E2E2
310
E2E2E2E2E2E2E2E2E2E2E2E2E2E2E2E2E2E2E2E2E2E2E2E2E2E2E2E2E2E2E2E2E2E2E2E2E2E2E2E2E2E2E2E2E2E2E2E2E2E2E2F5F5E2F5F5F5E2F5F5E2E2E2E2E2E2E2E2E2E2E2E2E2E2E2E2E2E2E2E2E2E2E2E2E2F5E2E2E2E2E2E2E2E2E2E2E2E2E2E2E2E2E2E2E2E2E2E2E2E2E2E2E2E2E2E2E2E2E2E2E2E2E2E2E2E2E2
310
E2E2E2E2E2F5E2E2F0E2E2E2E2E2E2E2E2E2E2E2E2E2E2E2E2E2E2E2E2E2E2E2E2E2E2E2E2E2E2E2E2E2E2E2E2E2E2E2E2E2E2E2E2E2E2E2E2E2E2E2E2E2E2E2E2E2E2E2E2E2E2E2E2E2E2E2E2E2E2E2E2E2E2E2E2E2E2E2E2E2E2E2E2E2E2E2E2E2E2E2E2E2E2E2F5F5E2F5F5F5E2F5F5E2E2E2E2E2E2E2E2E2E2E2E2E2E2
310
E2E2E2E2E2E2E2E2E2E2E2F5E2E2E2E2E2E2E2E2E2E2E2E2E2E2E2E2E2E2E2E2E2E2E2E2E2E2E2E2E2E2E2E2E2E2E2E2E2E2E2E2E2E2E2E2E2E2F5E2E2F0E2E2E2E2E2E2E2E2E2E2E2E2E2E2E2E2E2E2E2E2E2E2E2E2E2E2E2E2E2E2E2E2E2E2E2E2E2E2E2E2E2E2E2E2E2E2E2E2E2E2E2E2E2E2E2E2E2E2E2E2E2E2E2E2E2
310
E2E2E2E2E2E2E2E2E2E2E2E2E2E2E2E2E2E2E2E2E2E2E2E2E2E2E2E2E2E2F5F5E2F5F5F5E2F5F5E2E2E2E2E2E2E2E2E2E2E2E2E2E2E2E2E2E2E2E2E2E2E2E2E2F5E2E2E2E2E2E2E2E2E2E2E2E2E2E2E2E2E2E2E2E2E2E2E2E2E2E2E2E2E2E2E2E2E2E2E2E2E2E2E2E2E2E2E2E2E2E2F5E2E2F0E2E2E2E2E2E2E2E2E2E2E2E2
310
E2E2E2E2E2E2E2E2E2E2E2E2E2E2E2E2E2E2E2E2E2E2E2E2E2E2E2E2E2E2E2E2E2E2E2E2E2E2E2E2E2E2E2E2E2E2E2E2E2E2E2E2E2E2E2E2E2E2E2E2E2E2E2E2E2E2E2E2E2E2E2E2E2E2E2E2E2E2E2E2E2E2E2F5F5E2F5F5F5E2F5F5E2E2E2E2E2E2E2E2E2E2E2E2E2E2E2E2E2E2E2E2E2E2E2E2E2F5E2E2E2E2E2E2E2E2E2
310
E2E2E2E2E2E2E2E2E2E2E2E2E2E2E2E2E2E2E2E2E2E2E2E2E2E2E2E2E2E2E2E2E2E2E2E2E2F5E2E2F0E2E2E2E2E2E2E2E2E2E2E2E2E2E2E2E2E2E2E2E2E2E2E2E2E2E2E2E2E2E2E2E2E2E2E2E2E2E2E2E2E2E2E2E2E2E2E2E2E2E2E2E2E2E2E2E2E2E2E2E2E2E2E2E2E2E2E2E2E2E2E2E2E2E2E2E2E2E2E2E2E2E2E2E2E2E2
310
E2E2E2E2E2E2E2E2E2F5F5E2F5F5F5E2F5F5E2E2E2E2E2E2E2E2E2E2E2E2E2E2E2E2E2E2E2E2E2E2E2E2E2F5E2E2E2E2E2E2E2E2E2E2E2E2E2E2E2E2E2E2E2E2E2E2E2E2E2E2E2E2E2E2E2E2E2E2E2E2E2E2E2E2E2E2E2E2E2E2F5E2E2F0E2E2E2E2E2E2E2E2E2E2E2E2E2E2E2E2E2E2E2E2E2E2E2E2E2E2E2E2E2E2E2E2E2
310
E2E2E2E2E2E2E2E2E2E2E2E2E2E2E2E2E2E2E2E2E2E2E2E2E2E2E2E2E2E2E2E2E2E2E2E2E2E2E2E2E2E2E2E2E2E2E2E2E2E2E2E2E2E2E2E2E2E2E2E2E2E2F5F5E2F5F5F5E2F5F5E2E2E2E2E2E2E2E2E2E2E2E2E2E2E2E2E2E2E2E2E2E2E2E2E2F5E2E2E2E2E2E2E2E2E2E2E2E2E2E2E2E2E2E2E2E2E2E2E2E2E2E2E2E2E2E2
310
E2E2E2E2E2E2E2E2E2E2E2E2E2E2E2E2F5E2E2F0E2E2E2E2E2E2E2E2E2E2E2E2E2E2E2E2E2E2E2E2E2E2E2E2E2E2E2E2E2E2E2E2E2E2E2E2E2E2E2E2E2E2E2E2E2E2E2E2E2E2E2E2E2E2E2E2E2E2E2E2E2E2E2E2E2E2E2E2E2E2E2E2E2E2E2E2E2E2E2E2E2E2E2E2E2E2E2E2E2E2E2E2E2E2E2F5F5E2F5F5F5E2F5F5E2E2E2
310
E2E2E2E2E2E2E2E2E2E2E2E2E2E2E2E2E2E2E2E2E2E2F5E2E2E2E2E2E2E2E2E2E2E2E2E2E2E2E2E2E2E2E2E2E2E2E2E2E2E2E2E2E2E2E2E2E2E2E2E2E2E2E2E2E2E2E2E2E2F5E2E2F0E2E2E2E2E2E2E2E2E2E2E2E2E2E2E2E2E2E2E2E2E2E2E2E2E2E2E2E2E2E2E2E2E2E2E2E2E2E2E2E2E2E2E2E2E2E2E2E2E2E2E2E2E2E2
310
E2E2E2E2E2E2E2E2E2E2E2E2E2E2E2E2E2E2E2E2E2E2E2E2E2E2E2E2E2E2E2E2E2E2E2E2E2E2E2E2E2F5F5E2F5F5F5E2F5F5E2E2E2E2E2E2E2E2E2E2E2E2E2E2E2E2E2E2E2E2E2E2E2E2E2F5E2E2E2E2E2E2E2E2E2E2E2E2E2E2E2E2E2E2E2E2E2E2E2E2E2E2E2E2E2E2E2E2E2E2E2E2E2E2E2E2E2E2E2E2E2E2F5E2E2F0E2
310
E2E2E2E2E2E2E2E2E2E2E2E2E2E2E2E2E2E2E2E2E2E2E2E2E2E2E2E2E2E2E2E2E2E2E2E2E2E2E2E2E2E2E2E2E2E2E2E2E2E2E2E2E2E2E2E2E2E2E2E2E2E2E2E2E2E2E2E2E2E2E2E2E2E2E2E2E2E2E2E2E2E2E2E2E2E2E2E2E2E2E2E2E2E2F5F5E2F5F5F5E2F5F5E2E2E2E2E2E2E2E2E2E2E2E2E2E2E2E2E2E2E2E2E2E2E2E2
310
E2F5E2E2E2E2E2E2E2E2E2E2E2E2E2E2E2E2E2E2E2E2E2E2E2E2E2E2E2E2E2E2E2E2E2E2E2E2E2E2E2E2E2E2E2E2E2E2F5E2E2F0E2E2E2E2E2E2E2E2E2E2E2E2E2E2E2E2E2E2E2E2E2E2E2E2E2E2E2E2E2E2E2E2E2E2E2E2E2E2E2E2E2E2E2E2E2E2E2E2E2E2E2E2E2E2E2E2E2E2E2E2E2E2E2E2E2E2E2E2E2E2E2E2E2E2E2
310
E2E2E2E2E2E2E2E2E2E2E2E2E2E2E2E2E2E2E2E2F5F5E2F5F5F5E2F5F5E2E2E2E2E2E2E2E2E2E2E2E2E2E2E2E2E2E2E2E2E2E2E2E2E2F5E2E2E2E2E2E2E2E2E2E2E2E2E2E2E2E2E2E2E2E2E2E2E2E2E2E2E2E2E2E2E2E2E2E2E2E2E2E2E2E2E2E2E2E2E2E2F5E2E2F0E2E2E2E2E2E2E2E2E2E2E2E2E2E2E2E2E2E2E2E2E2E2
310
E2E2E2E2E2E2E2E2E2E2E2E2E2E2E2E2E2E2E2E2E2E2E2E2E2E2E2E2E2E2E2E2E2E2E2E2E2E2E2E2E2E2E2E2E2E2E2E2E2E2E2E2E2E2E2E2E2E2E2E2E2E2E2E2E2E2E2E2E2E2E2E2E2F5F5E2F5F5F5E2F5F5E2E2E2E2E2E2E2E2E2E2E2E2E2E2E2E2E2E2E2E2E2E2E2E2E2F5E2E2E2E2E2E2E2E2E2E2E2E2E2E2E2E2E2E2E2
310
E2E2E2E2E2E2E2E2E2E2E2E2E2E2E2E2E2E2E2E2E2E2E2E2E2E2E2F5E2E2F0E2E2E2E2E2E2E2E2E2E2E2E2E2E2E2E2E2E2E2E2E2E2E2E2E2E2E2E2E2E2E2E2E2E2E2E2E2E2E2E2E2E2E2E2E2E2E2E2E2E2E2E2E2E2E2E2E2E2E2E2E2E2E2E2E2E2E2E2E2E2E2E2E2E2E2E2E2E2E2E2E2E2E2E2E2E2E2E2E2E2E2E2E2E2E2F5
310
F5E2F5F5F5E2F5F5E2E2E2E2E2E2E2E2E2E2E2E2E2E2E2E2E2E2E2E2E2E2E2E2E2ECF5F5F5F5F5F5F5F5F5F5F5F5F5F5F5F5F5F5F5F5F5F5F5F5F5F5F5F5F5F5F5F5F5F5F5F5F5F5F5F5F5F5F5F5F5F5ECF0F0ECF0E2E2E2E2E2E2E2E2E2E2E2E2E2E2E2E2E2E2E2E2E2E2E2E2E2E2E2E2E2E2E2E2E2E2E2E2E2E2E2E2E2E2
310
E2E2E2E2E2E2E2E2E2E2E2E2E2E2E2E2E2E2E2E2E2E2E2E2E2E2E2E2E2E2E2E2E2E2E2E2E2E2E2E2E2E2E2E2E2E2E2E2E2E2E2E2F5F5E2F5F5F5E2E2F5E2E2E2E2E2E2E2E2E2E2E2E2E2E2E2E2E2E2E2E2E2E2E2E2E2F0E2E2E2E2E2E2E2E2E2E2E2E2E2E2E2E2E2E2E2E2E2E2E2E2E2E2E2E2E2E2E2E2E2E2E2E2E2E2E2E2
310
E2E2E2E2E2E2F0E2E2E2E2E2E2E2E2E2E2E2E2E2E2E2E2E2E2E2E2E2E2E2E2E2E2E2E2E2E2E2E2E2E2E2E2E2E2E2E2E2E2E2E2E2E2E2E2E2E2E2E2E2E2E2E2E2E2E2E2E2E2E2E2E2E2E2E2E2E2E2E2E2E2E2E2E2E2E2E2E2E2E2E2E2E2E2E2E2E2E2E2E2E2E2E2E2E2F5E2E2F5F5F5E2E2F5E2E2E2E2E2E2E2E2E2E2E2E2E2
310
E2E2E2E2E2E2E2E2E2E2E2E2F0E2E2E2E2E2E2E2E2E2E2E2E2E2E2E2E2E2E2E2E2E2E2E2E2E2E2E2E2E2E2E2E2E2E2E2E2E2E2E2E2E2E2E2E2E2E2F0E2E2E2E2E2E2E2E2E2E2E2E2E2E2E2E2E2E2E2E2E2E2E2E2E2E2E2E2E2E2E2E2E2E2E2E2E2E2E2E2E2E2E2E2E2E2E2E2E2E2E2E2E2E2E2E2E2E2E2E2E2E2E2E2E2E2E2
310
E2E2E2E2E2E2E2E2E2E2E2E2E2E2E2E2E2E2E2E2E2E2E2E2E2E2E2E2E2E2E2F5E2E2F5F5F5E2E2F5E2E2E2E2E2E2E2E2E2E2E2E2E2E2E2E2E2E2E2E2E2E2E2E2E2F0F0F0F0F0F0F0F0F0F0F0F0F0F0F0F0F0F0F0F0F0F0DCDCDCDCDCF0F0F0F0F0F0F0F0F0F0F0F0F0F0F0F0F0F0F0F0ECE2E2E2E2E2E2E2E2E2E2E2E2E2E2
310
E2E2E2E2E2E2E2E2E2E2E2E2E2E2E2E2E2E2E2E2E2E2E2E2E2E2E2E2E2E2E2E2E2E2E2E2E2E2E2E2E2E2E2E2E2E2E2E2E2E2E2E2E2E2E2E2E2E2E2E2E2E2E2E2E2E2E2E2E2E2E2E2E2E2E2E2E2E2E2E2E2E2E2E2F5E2E2F5F5F5E2E2F5E2E2E2E2E2E2E2E2E2E2E2E2E2E2E2E2E2E2E2E2E2E2E2E2E2E2E2E2E2E2E2E2E2E2
310
E2E2E2E2E2E2E2E2E2E2E2E2DCDCDCDCDCDCE2E2E2E2E2E2E2E2E2E2E2E2E2E2E2E2E2E2E2E2E2E2E2E2E2E2E2E2E2E2E2E2E2E2E2E2E2E2E2E2E2E2E2E2E2E2E2E2E2E2E2E2E2E2E2E2E2E2E2E2E2E2E2E2E2E2E2E2E2E2E2E2E2E2E2E2E2E2E2E2E2E2E2E2E2E2E2E2E2E2E2E2E2E2E2E2E2E2E2E2E2E2E2E2E2E2E2E2E2
310
E2E2E2E2E2E2E2E2E2E2F5E2E2F5F5F5E2E2F5E2E2E2E2E2E2E2E2E2E2E2E2E2E2E2E2E2E2E2E2E2E2E2E2E2E2E2E2E2E2E2E2E2E2E2E2E2E2E2E2E2E2E2E2E2E2E2E2E2E2E2E2E2E2E2E2E2E2E2E2E2E2E2E2E2E2E2E2E2E2E2E2E2E2E2E2E2E2E2E2E2E2E2E2E2E2E2E2E2E2E2E2E2E2E2E2E2E2E2E2E2E2E2E2E2E2E2E2
310
E2E2E2E2E2E2E2E2E2E2E2E2E2E2E2E2E2E2E2E2E2E2E2E2E2E2E2E2E2E2E2E2E2E2E2E2E2E2E2E2E2E2E2E2E2E2E2E2E2E2E2E2E2E2E2E2E2E2E2E2E2E2E2F5E2E2F5F5F5E2E2F5E2E2E2E2E2E2E2E2E2E2E2E2E2E2E2E2E2E2E2E2E2E2E2E2E2E2E2E2E2E2E2E2E2E2E2E2E2E2E2E2E2E2E2E2E2E2E2E2E2E2E2E2E2E2E2
310
E2E2E2E2E2E2E2E2E2E2E2E2E2E2E2E2E2E2E2E2E2E2E2E2E2E2E2E2E2E2E2E2E2E2E2E2E2E2E2E2E2E2E2E2E2E2E2E2E2E2E2E2E2E2E2E2E2E2E2E2E2E2E2E2E2E2E2E2E2E2E2E2E2E2E2E2E2E2E2E2E2E2E2E2E2E2E2E2E2E2E2E2E2E2E2E2E2E2E2E2E2E2E2E2E2E2E2E2E2E2E2E2E2E2E2E2F5E2E2F5F5F5E2E2F5E2E2
310
E2E2E2E2E2E2E2E2E2E2E2E2E2E2E2E2E2E2E2E2E2E2E2E2E2E2E2E2E2E2E2E2E2E2E2E2E2E2E2E2E2E2E2E2E2E2E2E2E2E2E2E2E2E2E2E2E2E2E2E2E2E2E2E2E2E2E2E2E2E2E2E2E2E2E2E2E2E2E2E2E2E2E2E2E2E2E2E2E2E2E2E2E2E2E2E2E2E2E2E2E2E2E2E2E2E2E2E2E2E2E2E2E2E2E2E2E2E2E2E2E2E2E2E2E2E2E2
310
E2E2E2E2E2E2E2E2E2E2E2E2E2E2E2E2E2E2E2E2E2E2E2E2E2E2E2E2E2E2E2E2E2E2E2E2E2E2E2E2E2E2F5E2E2F5F5F5E2E2F5E2E2E2E2E2E2E2E2E2E2E2E2E2E2E2E2E2E2E2E2E2E2E2E2E2E2E2E2E2E2E2E2E2E2E2E2E2E2E2E2E2E2E2E2E2E2E2E2E2E2E2E2E2E2E2E2E2E2E2E2E2E2E2E2E2E2E2E2E2E2E2E2E2E2E2E2
310
E2E2E2E2E2E2E2E2E2E2E2E2E2E2E2E2E2E2E2E2E2E2E2E2E2E2E2E2E2E2E2E2E2E2E2E2E2E2E2E2E2E2E2E2E2E2E2E2E2E2E2E2E2E2E2E2E2E2E2E2E2E2E2E2E2E2E2E2E2E2E2E2E2E2E2E2E2E2E2E2E2E2E2E2E2E2E2E2E2E2E2E2E2E2E2F5E2E2F5F5F5E2E2F5E2E2E2E2E2E2E2E2E2E2E2E2E2E2E2E2E2E2E2E2E2E2E2
310
E2E2E2E2E2E2E2E2E2E2E2E2E2E2E2E2E2E2E2E2E2E2E2E2E2E2E2E2E2E2E2E2E2E2E2E2E2E2E2E2E2E2E2E2E2E2E2E2E2E2E2E2E2E2E2E2E2E2E2E2E2E2E2E2E2E2E2E2E2E2E2E2E2E2E2E2E2E2E2E2E2E2E2E2E2E2E2E2E2E2E2E2E2E2E2E2E2E2E2E2E2E2E2E2E2E2E2E2E2E2E2E2E2E2E2E2E2E2E2E2E2E2E2E2E2E2E2
310
E2E2E2E2E2E2E2E2E2E2E2E2E2E2E2E2E2E2E2E2E2F5E2E2F5F5F5E2F5F5E2E2E2E2E2E2E2E2E2E2E2E2E2E2E2E2E2E2E2E2E2E2E2E2E2E2E2E2E2E2E2E2E2E2E2E2E2E2E2E2E2E2E2E2E2E2E2E2E2E2E2E2E2E2E2E2E2E2E2E2E2E2E2E2E2E2E2E2E2E2E2E2E2E2E2E2E2E2E2E2E2E2E2E2E2E2E2E2E2E2E2E2E2E2E2E2E2
310
E2E2E2E2E2E2E2E2E2E2E2E2E2E2E2E2E2E2E2E2E2E2E2E2E2E2E2E2E2E2E2E2E2E2E2E2E2E2E2E2E2E2E2E2E2E2E2E2E2E2E2E2E2E2E2E2E2E2E2E2E2E2E2E2E2E2E2E2E2E2E2E2E2E2F5F5E2F5F5F5E2F5F5E2E2E2E2E2E2E2E2E2E2E2E2E2E2E2E2E2E2E2E2E2E2E2E2E2E2E2E2E2E2E2E2E2E2E2E2E2E2E2E2E2E2E2E2
310
E2E2E2E2E2E2E2E2E2E2E2E2E2E2E2E2E2E2E2E2E2E2E2E2E2E2E2E2E2E2E2E2E2E2E2E2E2E2E2E2E2E2E2E2E2E2E2E2E2E2E2E2E2E2E2E2E2E2E2E2E2E2E2E2E2E2E2E2E2E2E2E2E2E2E2E2E2E2E2E2E2E2E2E2E2E2E2E2E2E2E2E2E2E2E2E2E2E2E2E2E2E2E2E2E2E2E2E2E2E2E2E2E2E2E2E2E2E2E2E2E2E2E2E2E2E2E2
310
F5F5E2F5F5F5E2F5F5E2E2E2E2E2E2E2E2E2E2E2E2E2E2E2E2E2E2E2E2E2E2E2E2E2E2E2E2E2E2E2E2E2E2E2E2E2E2E2E2E2E2E2E2E2E2E2E2E2E2E2E2E2E2E2E2E2E2E2E2E2E2E2E2E2E2E2E2E2E2E2E2E2E2E2E2E2E2E2E2E2E2E2E2E2E2E2E2E2E2E2E2E2E2E2E2E2E2E2E2E2E2E2E2E2E2E2E2E2E2E2E2E2E2E2E2E2E2
310
E2E2E2E2E2E2E2E2E2E2E2E2E2E2E2E2E2E2E2E2E2E2E2E2E2E2E2E2E2E2E2E2E2E2E2E2E2E2E2E2E2E2E2E2E2E2E2E2E2E2E2E2E2F5F5E2F5F5F5E2F5F5E2E2E2E2E2E2E2E2E2E2E2E2E2E2E2E2E2E2E2E2E2E2E2E2E2E2E2E2E2E2E2E2E2E2E2E2E2E2E2E2E2E2E2E2E2E2E2E2E2E2E2E2E2E2E2E2E2E2E2E2E2E2E2E2E2
310
E2E2E2E2E2E2E2E2E2E2E2E2E2E2E2E2E2E2E2E2E2E2E2E2E2E2E2E2E2E2E2E2E2E2E2E2E2E2E2E2E2E2E2E2E2E2E2E2E2E2E2E2E2E2E2E2E2E2E2E2E2E2E2E2E2E2E2E2E2E2E2E2E2E2E2E2E2E2E2E2E2E2E2E2E2E2E2E2E2E2E2E2E2E2E2E2E2E2E2E2E2E2E2E2E2E2F5F5E2F5F5F5E2F5F5E2E2E2E2E2E2E2E2E2E2E2E2
310
E2E2E2E2E2E2E2E2E2E2E2E2E2E2E2E2E2E2E2E2E2E2E2E2E2E2E2E2E2E2E2E2E2E2E2E2E2E2E2E2E2E2E2E2E2E2E2E2E2E2E2E2E2E2E2E2E2E2E2E2E2E2E2E2E2E2E2E2E2E2E2E2E2E2E2E2E2E2E2E2E2E2E2E2E2E2E2E2E2E2E2E2E2E2E2E2E2E2E2E2E2E2E2E2E2E2E2E2E2E2E2E2E2E2E2E2E2E2E2E2E2E2E2E2E2E2E2
310
E2E2E2E2E2E2E2E2E2E2E2E2E2E2E2E2E2E2E2E2E2E2E2E2E2E2E2E2E2E2E2E2F5F5E2F5F5F5E2F5F5E2E2E2E2E2E2E2E2E2E2E2E2E2E2E2E2E2E2E2E2E2E2E2E2E2E2E2E2E2E2E2E2E2E2E2E2E2E2E2E2E2E2E2E2E2E2E2E2E2E2E2E2E2E2E2E2E2E2E2E2E2E2E2E2E2E2E2E2E2E2E2E2E2E2E2E2E2E2E2E2E2E2E2E2E2E2
310
E2E2E2E2E2E2E2E2E2E2E2E2E2E2E2E2E2E2E2E2E2E2E2E2E2E2E2E2E2E2E2E2E2E2E2E2E2E2E2E2E2E2E2E2E2E2E2E2E2E2E2E2E2E2E2E2E2E2E2E2E2E2E2E2E2E2E2E2E2E2E2E2E2E2E2E2E2E2E2E2E2E2E2E2E2F5F5E2F5F5F5E2F5F5F5F5F5F5F5F5F5F5F5F5F5F5F5F5F5F5F5F5F5F5F5F5F5F5F5F5F5F5F5F5F5F5F5
310
F5F5F5F5F5F5F5F5F5F5F5F5F5F5F5F5F5F5F5F5F5F5F5F5F5F5F5F5F5F5F5F5F5F5F5F5F5F5F5F5F5F5F5F5F5F5F5F5F5F5F5F5F5F5F5F5F5F5F5F5F5F5F5F5F5F5F5F5F5F5F5F5F5F5F5F5F5F5F5F5F5F5F5F5F5F5F5F5F5F5F5F5F5F5F5F5F5F5F5F5F5F5F5F5F5F5F5F5F5F5F5F5F5F5F5F5F5F5F5F5F5F5F5F5F5F5F5
310
F5F5F5F5F5F5F5F5F5F5F5F5F5E2F5F5F5E2F5F5F5F5F5F5F5F5E2E2E2E2E2E2E2E2E2F5F5F5F5F5F5F5F5F5F5F5F5F5F5F5F5E2E2E2E2E2E2E2E2E2F5F5F5F5F5F5F5F5F5F5F5F5F5F5F5F5E2E2E2E2E2E2E2E2E2F5F5F5F5F5F5F5F5F5F5F5F5F5F5F5F5E2E2E2E2E2E2E2E2E2F5F5F5F5F5F5F5F5F5F5F5F5F5F5F5F5E2
310
E2E2E2E2E2E2E2E2F5F5F5F5F5F5F5F5F5F5F5F5F5F5F5F5E2E2E2E2E2E2E2E2E2F5F5F5F5F5F5F5F5F5F5F5F5F5F5F5F5E2E2E2E2E2E2E2E2E2F5F5F5F5F5F5F5F5E2F5F5F5E2E2E2E2E2E2E2E2E2E2E2E2E2E2E2E2E2E2E2E2E2E2E2E2E2E2E2E2E2E2E2E2E2E2E2E2E2E2E2E2E2E2E2E2E2E2E2E2E2E2E2E2E2E2E2E2E2
310
E2E2E2E2E2E2E2E2E2E2E2E2E2E2E2E2E2E2E2E2E2E2E2E2E2E2E2E2E2E2E2E2E2E2E2E2E2E2E2E2E2E2E2E2E2E2E2E2E2E2E2E2E2E2E2E2E2E2E2E2E2E2E2E2E2E2E2E2E2E2E2E2E2E2E2E2E2E2E2E2E2E2E2E2E2E2E2E2E2E2E2E2E2E2E2E2E2E2E2E2E2E2E2E2E2E2E2E2E2E2E2E2E2E2E2E2E2E2E2E2F5EFF5F5F5F5F5
310
F5F5F5F5F5F5F5F5F5F5F5F5F5F5F5F5F5F5F5F5F5F5F5F5F5F5F5F5F5F5F5F5F5F5F5F5F5F5F5F5F5F5F5F5F5F5F5F5F5F5F5F5F5F5F5F5F5F5F5F5F5F5F5F5F5F5F5F5F5F5F5F5F5F5F5F5F5F5F5F5F5F5F5F5F5F5F5F5F5F5F5F5F5F5F5F5F5F5F5F5F5F5F5F5F5F5F5F5F5F5F5F5F5F5F5F5F5F5F5F5F5F5F5F5F5F5F5
310
F5F5F5F5F5F5F5F5F5F5F5F5F5F5F5F5F5F5F5F5F5F5F5F5F5F5F5F5F5F5F5F5F5F5F5F5F5F5F5F5F5F5F5F5F5F5F5EF
  0
XRECORD
  5
1240B
102
{ACAD_REACTORS
330
1240A
102
}
330
1240A
100
AcDbXrecord
280
     1
102
MATERIAL
148
0.0
149
0.0
149
0.0
 93
        0
 94
       63
282
     0
 72
     1
 77
     1
171
     1
175
     1
179
     1
273
     0
  0
ENDSEC
  0
EOF
