  0
SECTION
  2
HEADER
  9
$ACADVER
  1
AC1015
  9
$ACADMAINTVER
 70
    20
  9
$DWGCODEPAGE
  3
ANSI_932
  9
$INSBASE
 10
0.0
 20
0.0
 30
0.0
  9
$EXTMIN
 10
-156.1800074145081
 20
194.2706320726129
 30
-0.0000000000029055
  9
$EXTMAX
 10
900.0961172299266
 20
837.8848131333663
 30
0.0000000000001068
  9
$LIMMIN
 10
0.0
 20
0.0
  9
$LIMMAX
 10
10000.0
 20
10000.0
  9
$ORTHOMODE
 70
     1
  9
$REGENMODE
 70
     1
  9
$FILLMODE
 70
     1
  9
$QTEXTMODE
 70
     0
  9
$MIRRTEXT
 70
     1
  9
$LTSCALE
 40
1.0
  9
$ATTMODE
 70
     1
  9
$TEXTSIZE
 40
2.5
  9
$TRACEWID
 40
1.0
  9
$TEXTSTYLE
  7
AD-STANDARD
  9
$CLAYER
  8
MEASURE
  9
$CELTYPE
  6
BYLAYER
  9
$CECOLOR
 62
   256
  9
$CELTSCALE
 40
1.0
  9
$DISPSILH
 70
     0
  9
$DIMSCALE
 40
5.0
  9
$DIMASZ
 40
2.5
  9
$DIMEXO
 40
1.0
  9
$DIMDLI
 40
0.38
  9
$DIMRND
 40
0.0
  9
$DIMDLE
 40
0.0
  9
$DIMEXE
 40
2.0
  9
$DIMTP
 40
0.0
  9
$DIMTM
 40
0.0
  9
$DIMTXT
 40
2.799999999999999
  9
$DIMCEN
 40
-2.0
  9
$DIMTSZ
 40
0.0
  9
$DIMTOL
 70
     0
  9
$DIMLIM
 70
     0
  9
$DIMTIH
 70
     0
  9
$DIMTOH
 70
     0
  9
$DIMSE1
 70
     0
  9
$DIMSE2
 70
     0
  9
$DIMTAD
 70
     1
  9
$DIMZIN
 70
     8
  9
$DIMBLK
  1

  9
$DIMASO
 70
     1
  9
$DIMSHO
 70
     1
  9
$DIMPOST
  1

  9
$DIMAPOST
  1

  9
$DIMALT
 70
     0
  9
$DIMALTD
 70
     2
  9
$DIMALTF
 40
25.4
  9
$DIMLFAC
 40
1.0
  9
$DIMTOFL
 70
     1
  9
$DIMTVP
 40
0.0
  9
$DIMTIX
 70
     0
  9
$DIMSOXD
 70
     0
  9
$DIMSAH
 70
     0
  9
$DIMBLK1
  1

  9
$DIMBLK2
  1

  9
$DIMSTYLE
  2
AD-STANDARD
  9
$DIMCLRD
 70
     9
  9
$DIMCLRE
 70
     9
  9
$DIMCLRT
 70
     2
  9
$DIMTFAC
 40
1.0
  9
$DIMGAP
 40
0.5
  9
$DIMJUST
 70
     0
  9
$DIMSD1
 70
     0
  9
$DIMSD2
 70
     0
  9
$DIMTOLJ
 70
     1
  9
$DIMTZIN
 70
     8
  9
$DIMALTZ
 70
     0
  9
$DIMALTTZ
 70
     0
  9
$DIMUPT
 70
     0
  9
$DIMDEC
 70
     3
  9
$DIMTDEC
 70
     8
  9
$DIMALTU
 70
     2
  9
$DIMALTTD
 70
     2
  9
$DIMTXSTY
  7
AD-STANDARD
  9
$DIMAUNIT
 70
     0
  9
$DIMADEC
 70
     0
  9
$DIMALTRND
 40
0.0
  9
$DIMAZIN
 70
     0
  9
$DIMDSEP
 70
    46
  9
$DIMATFIT
 70
     1
  9
$DIMFRAC
 70
     0
  9
$DIMLDRBLK
  1

  9
$DIMLUNIT
 70
     2
  9
$DIMLWD
 70
    -2
  9
$DIMLWE
 70
    -2
  9
$DIMTMOVE
 70
     0
  9
$LUNITS
 70
     2
  9
$LUPREC
 70
     4
  9
$SKETCHINC
 40
1.0
  9
$FILLETRAD
 40
0.0
  9
$AUNITS
 70
     0
  9
$AUPREC
 70
     0
  9
$MENU
  1
.
  9
$ELEVATION
 40
0.0
  9
$PELEVATION
 40
0.0
  9
$THICKNESS
 40
0.0
  9
$LIMCHECK
 70
     0
  9
$CHAMFERA
 40
0.0
  9
$CHAMFERB
 40
0.0
  9
$CHAMFERC
 40
673.4006734006733
  9
$CHAMFERD
 40
0.0
  9
$SKPOLY
 70
     0
  9
$TDCREATE
 40
2451414.480340509
  9
$TDUCREATE
 40
2451414.105340509
  9
$TDUPDATE
 40
2458143.473643125
  9
$TDUUPDATE
 40
2458143.098643125
  9
$TDINDWG
 40
0.5708009144
  9
$TDUSRTIMER
 40
0.5708009144
  9
$USRTIMER
 70
     1
  9
$ANGBASE
 50
0.0
  9
$ANGDIR
 70
     0
  9
$PDMODE
 70
     0
  9
$PDSIZE
 40
0.0
  9
$PLINEWID
 40
0.0
  9
$SPLFRAME
 70
     0
  9
$SPLINETYPE
 70
     6
  9
$SPLINESEGS
 70
     8
  9
$HANDSEED
  5
45AD
  9
$SURFTAB1
 70
     6
  9
$SURFTAB2
 70
     6
  9
$SURFTYPE
 70
     6
  9
$SURFU
 70
     6
  9
$SURFV
 70
     6
  9
$UCSBASE
  2

  9
$UCSNAME
  2

  9
$UCSORG
 10
0.0
 20
0.0
 30
0.0
  9
$UCSXDIR
 10
1.0
 20
0.0
 30
0.0
  9
$UCSYDIR
 10
0.0
 20
1.0
 30
0.0
  9
$UCSORTHOREF
  2

  9
$UCSORTHOVIEW
 70
     0
  9
$UCSORGTOP
 10
0.0
 20
0.0
 30
0.0
  9
$UCSORGBOTTOM
 10
0.0
 20
0.0
 30
0.0
  9
$UCSORGLEFT
 10
0.0
 20
0.0
 30
0.0
  9
$UCSORGRIGHT
 10
0.0
 20
0.0
 30
0.0
  9
$UCSORGFRONT
 10
0.0
 20
0.0
 30
0.0
  9
$UCSORGBACK
 10
0.0
 20
0.0
 30
0.0
  9
$PUCSBASE
  2

  9
$PUCSNAME
  2

  9
$PUCSORG
 10
0.0
 20
0.0
 30
0.0
  9
$PUCSXDIR
 10
1.0
 20
0.0
 30
0.0
  9
$PUCSYDIR
 10
0.0
 20
1.0
 30
0.0
  9
$PUCSORTHOREF
  2

  9
$PUCSORTHOVIEW
 70
     0
  9
$PUCSORGTOP
 10
0.0
 20
0.0
 30
0.0
  9
$PUCSORGBOTTOM
 10
0.0
 20
0.0
 30
0.0
  9
$PUCSORGLEFT
 10
0.0
 20
0.0
 30
0.0
  9
$PUCSORGRIGHT
 10
0.0
 20
0.0
 30
0.0
  9
$PUCSORGFRONT
 10
0.0
 20
0.0
 30
0.0
  9
$PUCSORGBACK
 10
0.0
 20
0.0
 30
0.0
  9
$USERI1
 70
     0
  9
$USERI2
 70
     0
  9
$USERI3
 70
     0
  9
$USERI4
 70
     0
  9
$USERI5
 70
     0
  9
$USERR1
 40
0.0
  9
$USERR2
 40
0.0
  9
$USERR3
 40
0.0
  9
$USERR4
 40
0.0
  9
$USERR5
 40
0.0
  9
$WORLDVIEW
 70
     1
  9
$SHADEDGE
 70
     3
  9
$SHADEDIF
 70
    70
  9
$TILEMODE
 70
     0
  9
$MAXACTVP
 70
    16
  9
$PINSBASE
 10
0.0
 20
0.0
 30
0.0
  9
$PLIMCHECK
 70
     0
  9
$PEXTMIN
 10
19.97976082798436
 20
16.99332813661567
 30
-0.0015258207003583
  9
$PEXTMAX
 10
405.0291155752745
 20
282.018445135899
 30
0.0000000349246037
  9
$PLIMMIN
 10
2.531109587146147
 20
-2.932828056609707
  9
$PLIMMAX
 10
422.4777648605836
 20
293.9931668164372
  9
$UNITMODE
 70
     0
  9
$VISRETAIN
 70
     0
  9
$PLINEGEN
 70
     0
  9
$PSLTSCALE
 70
     0
  9
$TREEDEPTH
 70
  3020
  9
$CMLSTYLE
  2
STANDARD
  9
$CMLJUST
 70
     0
  9
$CMLSCALE
 40
1.0
  9
$PROXYGRAPHICS
 70
     1
  9
$MEASUREMENT
 70
     1
  9
$CELWEIGHT
370
    -1
  9
$ENDCAPS
280
     0
  9
$JOINSTYLE
280
     0
  9
$LWDISPLAY
290
     0
  9
$INSUNITS
 70
     0
  9
$HYPERLINKBASE
  1

  9
$STYLESHEET
  1

  9
$XEDIT
290
     1
  9
$CEPSNTYPE
380
     0
  9
$PSTYLEMODE
290
     1
  9
$FINGERPRINTGUID
  2
{11E8CC94-4B60-11D4-BACD-00E0292259DE}
  9
$VERSIONGUID
  2
{BAA09E0D-6515-4325-BE19-144292EAAE10}
  9
$EXTNAMES
290
     1
  9
$PSVPSCALE
 40
0.0
  9
$OLESTARTUP
290
     0
  0
ENDSEC
  0
SECTION
  2
CLASSES
  0
CLASS
  1
ACDBDICTIONARYWDFLT
  2
AcDbDictionaryWithDefault
  3
ObjectDBX Classes
 90
        0
280
     0
281
     0
  0
CLASS
  1
ACDBPLACEHOLDER
  2
AcDbPlaceHolder
  3
ObjectDBX Classes
 90
        0
280
     0
281
     0
  0
CLASS
  1
LAYOUT
  2
AcDbLayout
  3
ObjectDBX Classes
 90
        0
280
     0
281
     0
  0
CLASS
  1
DICTIONARYVAR
  2
AcDbDictionaryVar
  3
ObjectDBX Classes
 90
        0
280
     0
281
     0
  0
CLASS
  1
MATERIAL
  2
AcDbMaterial
  3
ObjectDBX Classes
 90
     1153
280
     0
281
     0
  0
CLASS
  1
VISUALSTYLE
  2
AcDbVisualStyle
  3
ObjectDBX Classes
 90
     4095
280
     0
281
     0
  0
CLASS
  1
TABLESTYLE
  2
AcDbTableStyle
  3
ObjectDBX Classes
 90
     4095
280
     0
281
     0
  0
CLASS
  1
SCALE
  2
AcDbScale
  3
ObjectDBX Classes
 90
     1153
280
     0
281
     0
  0
CLASS
  1
MLEADERSTYLE
  2
AcDbMLeaderStyle
  3
ACDB_MLEADERSTYLE_CLASS
 90
     4095
280
     0
281
     0
  0
CLASS
  1
SORTENTSTABLE
  2
AcDbSortentsTable
  3
ObjectDBX Classes
 90
        0
280
     0
281
     0
  0
CLASS
  1
CELLSTYLEMAP
  2
AcDbCellStyleMap
  3
ObjectDBX Classes
 90
     1152
280
     0
281
     0
  0
ENDSEC
  0
SECTION
  2
TABLES
  0
TABLE
  2
VPORT
  5
8
102
{ACAD_XDICTIONARY
360
4076
102
}
330
0
100
AcDbSymbolTable
 70
     1
  0
VPORT
  5
40D5
330
8
100
AcDbSymbolTableRecord
100
AcDbViewportTableRecord
  2
*Active
 70
     0
 10
0.0
 20
0.0
 11
1.0
 21
1.0
 12
371.9612076099839
 22
516.2048520476146
 13
0.0
 23
0.0
 14
1.0
 24
1.0
 15
0.0
 25
0.0
 16
0.0
 26
0.0
 36
1.0
 17
0.0
 27
0.0
 37
0.0
 40
649.0381396320465
 41
1.746684350132625
 42
50.0
 43
0.0
 44
0.0
 50
0.0
 51
0.0
 71
     0
 72
   100
 73
     1
 74
     0
 75
     0
 76
     0
 77
     0
 78
     1
281
     0
 65
     1
110
0.0
120
0.0
130
0.0
111
1.0
121
0.0
131
0.0
112
0.0
122
1.0
132
0.0
 79
     0
146
0.0
  0
ENDTAB
  0
TABLE
  2
LTYPE
  5
5
330
0
100
AcDbSymbolTable
 70
     2
  0
LTYPE
  5
14
330
5
100
AcDbSymbolTableRecord
100
AcDbLinetypeTableRecord
  2
BYBLOCK
 70
     0
  3

 72
    65
 73
     0
 40
0.0
  0
LTYPE
  5
15
330
5
100
AcDbSymbolTableRecord
100
AcDbLinetypeTableRecord
  2
BYLAYER
 70
     0
  3

 72
    65
 73
     0
 40
0.0
  0
LTYPE
  5
16
330
5
100
AcDbSymbolTableRecord
100
AcDbLinetypeTableRecord
  2
CONTINUOUS
 70
     0
  3
Solid line
 72
    65
 73
     0
 40
0.0
  0
LTYPE
  5
6E
330
5
100
AcDbSymbolTableRecord
100
AcDbLinetypeTableRecord
  2
CENTER
 70
     0
  3
____ _ ____ _ ____ _ ____ _ ____ _ ____ _ ____ 
 72
    65
 73
     4
 40
2.0
 49
1.25
 74
     0
 49
-0.25
 74
     0
 49
0.25
 74
     0
 49
-0.25
 74
     0
  0
ENDTAB
  0
TABLE
  2
LAYER
  5
2
102
{ACAD_XDICTIONARY
360
2730
102
}
330
0
100
AcDbSymbolTable
 70
     6
  0
LAYER
  5
F
102
{ACAD_XDICTIONARY
360
4166
102
}
330
2
100
AcDbSymbolTableRecord
100
AcDbLayerTableRecord
  2
0
 70
     0
 62
     7
  6
CONTINUOUS
370
    -3
390
2269
  0
LAYER
  5
71
102
{ACAD_XDICTIONARY
360
416A
102
}
330
2
100
AcDbSymbolTableRecord
100
AcDbLayerTableRecord
  2
MEASURE
 70
     0
 62
     9
  6
CONTINUOUS
370
    -3
390
2269
  0
LAYER
  5
72
330
2
100
AcDbSymbolTableRecord
100
AcDbLayerTableRecord
  2
DEFPOINTS
 70
     0
 62
     7
  6
CONTINUOUS
290
     0
370
    -3
390
2269
  0
LAYER
  5
73
102
{ACAD_XDICTIONARY
360
416C
102
}
330
2
100
AcDbSymbolTableRecord
100
AcDbLayerTableRecord
  2
NEJI
 70
     0
 62
     7
  6
CONTINUOUS
370
    -3
390
2269
  0
LAYER
  5
74
102
{ACAD_XDICTIONARY
360
416E
102
}
330
2
100
AcDbSymbolTableRecord
100
AcDbLayerTableRecord
  2
CENTER
 70
     0
 62
     9
  6
CENTER
370
    -3
390
2269
  0
LAYER
  5
244
102
{ACAD_XDICTIONARY
360
4170
102
}
330
2
100
AcDbSymbolTableRecord
100
AcDbLayerTableRecord
  2
NOTE
 70
     0
 62
     2
  6
CONTINUOUS
370
    -3
390
2269
  0
ENDTAB
  0
TABLE
  2
STYLE
  5
3
330
0
100
AcDbSymbolTable
 70
     5
  0
STYLE
  5
10
330
3
100
AcDbSymbolTableRecord
100
AcDbTextStyleTableRecord
  2
STANDARD
 70
     0
 40
0.0
 41
0.8
 50
0.0
 71
     0
 42
84.17508417508416
  3
TXT
  4
bigfont.shx
  0
STYLE
  5
63
330
3
100
AcDbSymbolTableRecord
100
AcDbTextStyleTableRecord
  2
AD-STANDARD
 70
     0
 40
0.0
 41
0.8
 50
0.0
 71
     0
 42
2.5
  3
C:\Program Files\AutoCAD LT\romans.shx
  4
bigfont.shx
  0
STYLE
  5
265
330
3
100
AcDbSymbolTableRecord
100
AcDbTextStyleTableRecord
  2
ROMAND
 70
     0
 40
5.0
 41
1.0
 50
0.0
 71
     0
 42
4.5
  3
romand
  4

  0
STYLE
  5
266
330
3
100
AcDbSymbolTableRecord
100
AcDbTextStyleTableRecord
  2
FORM
 70
     0
 40
3.5
 41
0.8
 50
0.0
 71
     0
 42
3.5
  3
ROMANS.SHX
  4
BIGFONT.SHX
  0
ENDTAB
  0
TABLE
  2
VIEW
  5
6
330
0
100
AcDbSymbolTable
 70
     0
  0
ENDTAB
  0
TABLE
  2
UCS
  5
7
330
0
100
AcDbSymbolTable
 70
     0
  0
ENDTAB
  0
TABLE
  2
APPID
  5
9
330
0
100
AcDbSymbolTable
 70
     8
  0
APPID
  5
11
330
9
100
AcDbSymbolTableRecord
100
AcDbRegAppTableRecord
  2
ACAD
 70
     0
  0
APPID
  5
22A
330
9
100
AcDbSymbolTableRecord
100
AcDbRegAppTableRecord
  2
CONTENTTABDATA
 70
     0
  0
APPID
  5
22B
330
9
100
AcDbSymbolTableRecord
100
AcDbRegAppTableRecord
  2
CONTENTCURRENTTAB
 70
     0
  0
APPID
  5
232
330
9
100
AcDbSymbolTableRecord
100
AcDbRegAppTableRecord
  2
CONTENTBLOCKDESCRIPTION
 70
     0
  0
APPID
  5
233
330
9
100
AcDbSymbolTableRecord
100
AcDbRegAppTableRecord
  2
CONTENTBLOCKICON
 70
     0
  0
APPID
  5
2725
330
9
100
AcDbSymbolTableRecord
100
AcDbRegAppTableRecord
  2
ACAD_MLEADERVER
 70
     0
  0
APPID
  5
2982
330
9
100
AcDbSymbolTableRecord
100
AcDbRegAppTableRecord
  2
ACAD_PSEXT
 70
     0
  0
APPID
  5
35A0
330
9
100
AcDbSymbolTableRecord
100
AcDbRegAppTableRecord
  2
ACAD_EXEMPT_FROM_CAD_STANDARDS
 70
     0
  0
ENDTAB
  0
TABLE
  2
DIMSTYLE
  5
A
330
0
100
AcDbSymbolTable
 70
     3
100
AcDbDimStyleTable
 71
     1
340
68
  0
DIMSTYLE
105
1D
330
A
100
AcDbSymbolTableRecord
100
AcDbDimStyleTableRecord
  2
STANDARD
 70
     0
340
10
  0
DIMSTYLE
105
68
102
{ACAD_REACTORS
330
8EF
330
8F0
330
8F9
330
901
330
EB5
330
EF9
330
F20
330
F2D
330
F47
330
FEE
330
1DF3
330
1D95
330
2072
330
20DC
330
2065
102
}
330
A
100
AcDbSymbolTableRecord
100
AcDbDimStyleTableRecord
  2
AD-STANDARD
 70
     0
 41
2.5
 42
1.0
 44
2.0
 73
     0
 74
     0
 77
     1
 78
     8
140
3.5
141
-2.0
147
0.5
172
     1
176
     9
177
     9
178
     2
284
     8
340
63
  0
ENDTAB
  0
TABLE
  2
BLOCK_RECORD
  5
1
330
0
100
AcDbSymbolTable
 70
    21
  0
BLOCK_RECORD
  5
1A
102
{ACAD_XDICTIONARY
360
2297
102
}
330
1
100
AcDbSymbolTableRecord
100
AcDbBlockTableRecord
  2
*MODEL_SPACE
340
226C
  0
BLOCK_RECORD
  5
17
102
{ACAD_XDICTIONARY
360
2295
102
}
330
1
100
AcDbSymbolTableRecord
100
AcDbBlockTableRecord
  2
*PAPER_SPACE
340
226D
  0
BLOCK_RECORD
  5
267
330
1
100
AcDbSymbolTableRecord
100
AcDbBlockTableRecord
  2
A3FORM
340
0
  0
BLOCK_RECORD
  5
DD7
330
1
100
AcDbSymbolTableRecord
100
AcDbBlockTableRecord
  2
*D1
340
0
  0
BLOCK_RECORD
  5
DE3
330
1
100
AcDbSymbolTableRecord
100
AcDbBlockTableRecord
  2
*D2
340
0
  0
BLOCK_RECORD
  5
DEF
330
1
100
AcDbSymbolTableRecord
100
AcDbBlockTableRecord
  2
*D3
340
0
  0
BLOCK_RECORD
  5
DFB
330
1
100
AcDbSymbolTableRecord
100
AcDbBlockTableRecord
  2
*D4
340
0
  0
BLOCK_RECORD
  5
EA9
330
1
100
AcDbSymbolTableRecord
100
AcDbBlockTableRecord
  2
*D5
340
0
  0
BLOCK_RECORD
  5
EED
330
1
100
AcDbSymbolTableRecord
100
AcDbBlockTableRecord
  2
*D6
340
0
  0
BLOCK_RECORD
  5
F14
330
1
100
AcDbSymbolTableRecord
100
AcDbBlockTableRecord
  2
*D7
340
0
  0
BLOCK_RECORD
  5
F21
330
1
100
AcDbSymbolTableRecord
100
AcDbBlockTableRecord
  2
*D8
340
0
  0
BLOCK_RECORD
  5
F3B
330
1
100
AcDbSymbolTableRecord
100
AcDbBlockTableRecord
  2
*D9
340
0
  0
BLOCK_RECORD
  5
FE2
330
1
100
AcDbSymbolTableRecord
100
AcDbBlockTableRecord
  2
*D10
340
0
  0
BLOCK_RECORD
  5
1B50
330
1
100
AcDbSymbolTableRecord
100
AcDbBlockTableRecord
  2
CENT
340
0
102
{BLKREFS
331
2101
102
}
  0
BLOCK_RECORD
  5
2011
330
1
100
AcDbSymbolTableRecord
100
AcDbBlockTableRecord
  2
*D12
340
0
  0
BLOCK_RECORD
  5
2041
330
1
100
AcDbSymbolTableRecord
100
AcDbBlockTableRecord
  2
*D13
340
0
  0
BLOCK_RECORD
  5
2124
330
1
100
AcDbSymbolTableRecord
100
AcDbBlockTableRecord
  2
*D14
340
0
  0
BLOCK_RECORD
  5
2152
330
1
100
AcDbSymbolTableRecord
100
AcDbBlockTableRecord
  2
*D15
340
0
  0
BLOCK_RECORD
  5
215E
330
1
100
AcDbSymbolTableRecord
100
AcDbBlockTableRecord
  2
*D16
340
0
  0
BLOCK_RECORD
  5
28AE
330
1
100
AcDbSymbolTableRecord
100
AcDbBlockTableRecord
  2
NUT08_S1
340
0
102
{BLKREFS
331
3D0F
331
3D10
102
}
  0
BLOCK_RECORD
  5
368C
330
1
100
AcDbSymbolTableRecord
100
AcDbBlockTableRecord
  2
NUT08_S2
340
0
102
{BLKREFS
331
3CB9
331
3CBA
102
}
  0
ENDTAB
  0
ENDSEC
  0
SECTION
  2
BLOCKS
  0
BLOCK
  5
1B
330
1A
100
AcDbEntity
  8
0
100
AcDbBlockBegin
  2
*MODEL_SPACE
 70
     0
 10
0.0
 20
0.0
 30
0.0
  3
*MODEL_SPACE
  1

  0
ENDBLK
  5
1C
330
1A
100
AcDbEntity
  8
0
100
AcDbBlockEnd
  0
BLOCK
  5
18
330
17
100
AcDbEntity
 67
     1
  8
0
100
AcDbBlockBegin
  2
*PAPER_SPACE
 70
     0
 10
0.0
 20
0.0
 30
0.0
  3
*PAPER_SPACE
  1

  0
ENDBLK
  5
19
330
17
100
AcDbEntity
 67
     1
  8
0
100
AcDbBlockEnd
  0
BLOCK
  5
2AA
330
267
100
AcDbEntity
  8
0
100
AcDbBlockBegin
  2
A3FORM
 70
     2
 10
0.0
 20
0.0
 30
0.0
  3
A3FORM
  1

  0
LINE
  5
268
330
267
100
AcDbEntity
  8
0
100
AcDbLine
 10
276.9999999999999
 20
43.99999999999994
 30
0.0
 11
358.9999999999999
 21
43.99999999999994
 31
0.0
  0
LINE
  5
269
330
267
100
AcDbEntity
  8
0
100
AcDbLine
 10
276.9999999999999
 20
34.99999999999995
 30
0.0
 11
346.9999999999999
 21
34.99999999999995
 31
0.0
  0
TEXT
  5
26A
330
267
100
AcDbEntity
  8
0
 62
     2
100
AcDbText
 10
282.9937565107859
 20
9.788283045916159
 30
0.0
 40
4.5
  1
A&D CO.,LTD.
  7
ROMAND
100
AcDbText
  0
LWPOLYLINE
  5
26B
330
267
100
AcDbEntity
  8
0
100
AcDbPolyline
 90
        5
 70
     0
 43
0.3
 10
276.9999999999999
 20
16.99999999999994
 10
276.9999999999999
 20
12.99999999999994
 10
228.9999999999999
 20
12.99999999999994
 10
228.9999999999999
 20
52.99999999999994
 10
404.9999999999998
 20
52.99999999999994
  0
LWPOLYLINE
  5
26C
330
267
100
AcDbEntity
  8
0
100
AcDbPolyline
 90
        2
 70
     0
 43
0.3
 10
276.9999999999999
 20
39.99999999999995
 10
404.9999999999998
 20
39.99999999999995
  0
ATTDEF
  5
26D
330
267
100
AcDbEntity
  8
0
 62
     1
100
AcDbText
 10
284.0000000000001
 20
48.50000000000017
 30
0.0
 40
3.5
  1

 41
0.8
  7
FORM
 72
     4
 11
284.0000000000001
 21
48.50000000000017
 31
0.0
100
AcDbAttributeDefinition
  3
尺度
  2
SCALE
 70
     0
  0
ATTDEF
  5
26E
330
267
100
AcDbEntity
  8
0
 62
     1
100
AcDbText
 10
296.2666666666667
 20
46.66666666666683
 30
0.0
 40
3.5
  1
%%P
 41
0.8
  7
FORM
 72
     4
 11
298.0
 21
48.50000000000017
 31
0.0
100
AcDbAttributeDefinition
  3
公差
  2
TOLERANCE
 70
     0
  0
LINE
  5
26F
330
267
100
AcDbEntity
  8
0
100
AcDbLine
 10
228.9999999999999
 20
20.99999999999994
 30
0.0
 11
276.9999999999999
 21
20.99999999999994
 31
0.0
  0
LINE
  5
270
330
267
100
AcDbEntity
  8
0
100
AcDbLine
 10
228.9999999999999
 20
24.99999999999995
 30
0.0
 11
276.9999999999999
 21
24.99999999999995
 31
0.0
  0
LINE
  5
271
330
267
100
AcDbEntity
  8
0
100
AcDbLine
 10
228.9999999999999
 20
32.99999999999994
 30
0.0
 11
276.9999999999999
 21
32.99999999999994
 31
0.0
  0
LINE
  5
272
330
267
100
AcDbEntity
  8
0
100
AcDbLine
 10
228.9999999999999
 20
36.99999999999994
 30
0.0
 11
276.9999999999999
 21
36.99999999999994
 31
0.0
  0
LINE
  5
273
330
267
100
AcDbEntity
  8
0
100
AcDbLine
 10
228.9999999999999
 20
40.99999999999994
 30
0.0
 11
276.9999999999999
 21
40.99999999999994
 31
0.0
  0
LINE
  5
274
330
267
100
AcDbEntity
  8
0
100
AcDbLine
 10
228.9999999999999
 20
44.99999999999994
 30
0.0
 11
276.9999999999999
 21
44.99999999999994
 31
0.0
  0
LINE
  5
275
330
267
100
AcDbEntity
  8
0
100
AcDbLine
 10
228.9999999999999
 20
48.99999999999995
 30
0.0
 11
276.9999999999999
 21
48.99999999999995
 31
0.0
  0
LINE
  5
276
330
267
100
AcDbEntity
  8
0
100
AcDbLine
 10
228.9999999999999
 20
28.99999999999991
 30
0.0
 11
276.9999999999999
 21
28.99999999999991
 31
0.0
  0
LINE
  5
277
330
267
100
AcDbEntity
  8
0
100
AcDbLine
 10
236.4999999999999
 20
52.99999999999994
 30
0.0
 11
236.4999999999999
 21
12.99999999999994
 31
0.0
  0
LINE
  5
278
330
267
100
AcDbEntity
  8
0
100
AcDbLine
 10
245.4999999999999
 20
52.99999999999994
 30
0.0
 11
245.4999999999999
 21
12.99999999999994
 31
0.0
  0
LINE
  5
279
330
267
100
AcDbEntity
  8
0
100
AcDbLine
 10
253.4999999999999
 20
52.99999999999994
 30
0.0
 11
253.4999999999999
 21
12.99999999999994
 31
0.0
  0
TEXT
  5
27A
330
267
100
AcDbEntity
  8
0
 62
     2
100
AcDbText
 10
236.6580050156595
 20
17.50047886636088
 30
0.0
 40
2.5
  1
 月 日
  7
FORM
100
AcDbText
  0
TEXT
  5
27B
330
267
100
AcDbEntity
  8
0
 62
     2
100
AcDbText
 10
230.2985867052683
 20
17.50047985313705
 30
0.0
 40
2.5
  1
記号
  7
FORM
100
AcDbText
  0
TEXT
  5
27C
330
267
100
AcDbEntity
  8
0
 62
     2
100
AcDbText
 10
230.1884284624586
 20
13.65217228338059
 30
0.0
 40
2.5
  1
設置
  7
FORM
100
AcDbText
  0
TEXT
  5
27D
330
267
100
AcDbEntity
  8
0
 62
     2
100
AcDbText
 10
246.7270842405725
 20
17.67707233113014
 30
0.0
 40
2.5
  1
担当
  7
FORM
100
AcDbText
  0
LWPOLYLINE
  5
27E
330
267
100
AcDbEntity
  8
0
100
AcDbPolyline
 90
        2
 70
     0
 43
0.3
 10
276.9999999999999
 20
16.99999999999994
 10
276.9999999999999
 20
52.99999999999994
  0
TEXT
  5
27F
330
267
100
AcDbEntity
  8
0
 62
     2
100
AcDbText
 10
258.7393217840316
 20
17.85366480912319
 30
0.0
 40
2.5
  1
改　連No.
  7
FORM
100
AcDbText
  0
TEXT
  5
280
330
267
100
AcDbEntity
  8
0
 62
     2
100
AcDbText
 10
279.2307818736626
 20
40.84744053726791
 30
0.0
 40
2.5
  1
尺  度
  7
FORM
100
AcDbText
  0
TEXT
  5
281
330
267
100
AcDbEntity
  8
0
 62
     2
100
AcDbText
 10
279.1198056365428
 20
36.29362910125152
 30
0.0
 40
2.5
  1
製　図
  7
FORM
100
AcDbText
  0
LINE
  5
282
330
267
100
AcDbEntity
  8
0
100
AcDbLine
 10
346.9999999999999
 20
34.02499999999992
 30
0.0
 11
404.9999999999998
 21
34.02499999999992
 31
0.0
  0
TEXT
  5
283
330
267
100
AcDbEntity
  8
0
 62
     2
100
AcDbText
 10
349.1843902917764
 20
35.54966027681923
 30
0.0
 40
2.5
  1
名　称
  7
FORM
100
AcDbText
  0
TEXT
  5
284
330
267
100
AcDbEntity
  8
0
 62
     2
100
AcDbText
 10
347.9478380543646
 20
29.36891762640519
 30
0.0
 40
2.5
  1
ｽﾄｯｸNo.
  7
FORM
100
AcDbText
  0
TEXT
  5
285
330
267
100
AcDbEntity
  8
0
 62
     2
100
AcDbText
 10
336.9955038212546
 20
11.70965350179506
 30
0.0
 40
3.0
  1
適用ロット
  7
FORM
100
AcDbText
  0
LWPOLYLINE
  5
286
330
267
100
AcDbEntity
  8
0
100
AcDbPolyline
 90
        2
 70
     0
 43
0.3
 10
346.9999999999999
 20
28.02499999999992
 10
404.9999999999998
 20
28.02499999999992
  0
LWPOLYLINE
  5
287
330
267
100
AcDbEntity
  8
0
100
AcDbPolyline
 90
        4
 70
     0
 43
0.3
 10
404.9999999999998
 20
16.99999999999994
 10
404.9999999999998
 20
9.999999999999943
 10
332.9999999999999
 20
9.999999999999943
 10
332.9999999999999
 20
16.99999999999994
  0
ATTDEF
  5
288
330
267
100
AcDbEntity
  8
0
 62
     1
100
AcDbText
 10
334.9999999999999
 20
46.74999999999994
 30
0.0
 40
3.5
  1

 41
0.776470588235294
  7
FORM
 72
     5
 11
356.9999999999999
 21
46.74999999999994
 31
0.0
100
AcDbAttributeDefinition
  3
処理
  2
TREATMENT
 70
     0
  0
TEXT
  5
289
330
267
100
AcDbEntity
  8
0
 62
     2
100
AcDbText
 10
311.9111282255119
 20
40.84743856371557
 30
0.0
 40
2.5
  1
材　　　質
  7
FORM
100
AcDbText
  0
ATTDEF
  5
28A
330
267
100
AcDbEntity
  8
0
 62
     1
100
AcDbText
 10
306.9999999999999
 20
46.74999999999994
 30
0.0
 40
3.5
  1

 41
1.199999999999999
  7
FORM
 72
     5
 11
330.9999999999999
 21
46.74999999999994
 31
0.0
100
AcDbAttributeDefinition
  3
材質
  2
QUALITY
 70
     0
  0
LINE
  5
28B
330
267
100
AcDbEntity
  8
0
100
AcDbLine
 10
318.9999999999999
 20
16.99999999999994
 30
0.0
 11
318.9999999999999
 21
39.99999999999995
 31
0.0
  0
LINE
  5
28C
330
267
100
AcDbEntity
  8
0
100
AcDbLine
 10
318.9999999999999
 20
16.99999999999994
 30
0.0
 11
318.9999999999999
 21
39.99999999999995
 31
0.0
  0
LINE
  5
28D
330
267
100
AcDbEntity
  8
0
100
AcDbLine
 10
304.9999999999999
 20
16.99999999999994
 30
0.0
 11
304.9999999999999
 21
52.99999999999994
 31
0.0
  0
LINE
  5
28E
330
267
100
AcDbEntity
  8
0
100
AcDbLine
 10
304.9999999999999
 20
16.99999999999994
 30
0.0
 11
304.9999999999999
 21
43.99999999999994
 31
0.0
  0
LINE
  5
28F
330
267
100
AcDbEntity
  8
0
100
AcDbLine
 10
304.9999999999999
 20
16.99999999999994
 30
0.0
 11
304.9999999999999
 21
43.99999999999994
 31
0.0
  0
LINE
  5
290
330
267
100
AcDbEntity
  8
0
100
AcDbLine
 10
304.9999999999999
 20
16.99999999999994
 30
0.0
 11
304.9999999999999
 21
43.99999999999994
 31
0.0
  0
LINE
  5
291
330
267
100
AcDbEntity
  8
0
100
AcDbLine
 10
290.9999999999999
 20
16.99999999999994
 30
0.0
 11
290.9999999999999
 21
52.99999999999994
 31
0.0
  0
LINE
  5
292
330
267
100
AcDbEntity
  8
0
100
AcDbLine
 10
290.9999999999999
 20
16.99999999999994
 30
0.0
 11
290.9999999999999
 21
43.99999999999994
 31
0.0
  0
TEXT
  5
293
330
267
100
AcDbEntity
  8
0
 62
     2
100
AcDbText
 10
293.8264089161527
 20
36.29155500181724
 30
0.0
 40
2.5
  1
設　計
  7
FORM
100
AcDbText
  0
TEXT
  5
294
330
267
100
AcDbEntity
  8
0
 62
     2
100
AcDbText
 10
293.7450302542887
 20
40.84744053726791
 30
0.0
 40
2.5
  1
公　差
  7
FORM
100
AcDbText
  0
TEXT
  5
295
330
267
100
AcDbEntity
  8
0
 62
     2
100
AcDbText
 10
308.2014687117522
 20
36.07943771079837
 30
0.0
 40
2.5
  1
検　図
  7
FORM
100
AcDbText
  0
LINE
  5
296
330
267
100
AcDbEntity
  8
0
100
AcDbLine
 10
332.9999999999999
 20
16.99999999999994
 30
0.0
 11
332.9999999999999
 21
52.99999999999994
 31
0.0
  0
LWPOLYLINE
  5
297
330
267
100
AcDbEntity
  8
0
100
AcDbPolyline
 90
        2
 70
     0
 43
0.3
 10
346.9999999999999
 20
16.99999999999994
 10
346.9999999999999
 20
39.99999999999995
  0
LINE
  5
298
330
267
100
AcDbEntity
  8
0
100
AcDbLine
 10
352.9999999999999
 20
16.99999999999994
 30
0.0
 11
352.9999999999999
 21
28.02499999999992
 31
0.0
  0
TEXT
  5
299
330
267
100
AcDbEntity
  8
0
 62
     2
100
AcDbText
 10
348.8310886519715
 20
18.42017412307399
 30
0.0
 40
2.5
  1
番
  7
FORM
100
AcDbText
  0
TEXT
  5
29A
330
267
100
AcDbEntity
  8
0
 62
     2
100
AcDbText
 10
348.8310886519715
 20
23.54136091875347
 30
0.0
 40
2.5
  1
図
  7
FORM
100
AcDbText
  0
TEXT
  5
29B
330
267
100
AcDbEntity
  8
0
 62
     2
100
AcDbText
 10
335.7589503913842
 20
35.90284621958148
 30
0.0
 40
2.5
  1
入　庫
  7
FORM
100
AcDbText
  0
TEXT
  5
29C
330
267
100
AcDbEntity
  8
0
 62
     2
100
AcDbText
 10
321.9802102519492
 20
36.07943771079837
 30
0.0
 40
2.5
  1
承　認
  7
FORM
100
AcDbText
  0
TEXT
  5
29D
330
267
100
AcDbEntity
  8
0
 62
     2
100
AcDbText
 10
340.5285148245587
 20
40.6708470724987
 30
0.0
 40
2.5
  1
処　　理
  7
FORM
100
AcDbText
  0
LINE
  5
29E
330
267
100
AcDbEntity
  8
0
100
AcDbLine
 10
358.9999999999999
 20
46.49999999999994
 30
0.0
 11
404.9999999999998
 21
46.49999999999994
 31
0.0
  0
LINE
  5
29F
330
267
100
AcDbEntity
  8
0
100
AcDbLine
 10
372.9999999999999
 20
46.49999999999994
 30
0.0
 11
404.9999999999998
 21
39.99999999999995
 31
0.0
  0
ATTDEF
  5
2A0
330
267
100
AcDbEntity
  8
0
 62
     1
100
AcDbText
 10
374.2654098025676
 20
48.15275320365635
 30
0.0
 40
3.0
  1

 41
1.978785165414396
  7
FORM
 72
     5
 11
403.0991364986059
 21
48.15275320365635
 31
0.0
100
AcDbAttributeDefinition
  3
機種名
  2
MODEL
 70
     0
  0
ATTDEF
  5
2A1
330
267
100
AcDbEntity
  8
0
 62
     1
100
AcDbText
 10
360.9999999999999
 20
35.02499999999992
 30
0.0
 40
3.5
  1

 41
3.40540540540541
  7
FORM
 72
     5
 11
402.9999999999999
 21
35.02499999999992
 31
0.0
100
AcDbAttributeDefinition
  3
名称
  2
TITLE
 70
     0
  0
ATTDEF
  5
2A2
330
267
100
AcDbEntity
  8
0
 62
     1
100
AcDbText
 10
382.0000000000005
 20
31.02499999999989
 30
0.0
 40
3.5
  1

 41
0.8
  7
FORM
 72
     4
 11
382.0000000000005
 21
31.02499999999989
 31
0.0
100
AcDbAttributeDefinition
  3
ストック　No.
  2
STOCK
 70
     0
  0
ATTDEF
  5
2A3
330
267
100
AcDbEntity
  8
0
 62
     1
100
AcDbText
 10
354.9999999999999
 20
19.70953042764904
 30
0.0
 40
5.0
  1

 41
1.639024390243904
  7
FORM
 72
     5
 11
402.9999999999999
 21
19.70953042764904
 31
0.0
100
AcDbAttributeDefinition
  3
図番
  2
DRG.NO.
 70
     0
  0
LINE
  5
2A4
330
267
100
AcDbEntity
  8
0
100
AcDbLine
 10
358.9999999999999
 20
28.02499999999992
 30
0.0
 11
358.9999999999999
 21
52.99999999999994
 31
0.0
  0
LINE
  5
2A5
330
267
100
AcDbEntity
  8
0
100
AcDbLine
 10
358.9999999999999
 20
9.999999999999943
 30
0.0
 11
358.9999999999999
 21
16.99999999999994
 31
0.0
  0
TEXT
  5
2A6
330
267
100
AcDbEntity
  8
0
 62
     2
100
AcDbText
 10
362.2565299531258
 20
48.44092399840255
 30
0.0
 40
2.5
  1
機種名
  7
FORM
100
AcDbText
  0
LINE
  5
2A7
330
267
100
AcDbEntity
  8
0
100
AcDbLine
 10
372.9999999999999
 20
39.99999999999995
 30
0.0
 11
372.9999999999999
 21
52.99999999999994
 31
0.0
  0
TEXT
  5
2A8
330
267
100
AcDbEntity
  8
0
 62
     2
100
AcDbText
 10
362.2565299531258
 20
41.94092399840255
 30
0.0
 40
2.5
  1
部品表
  7
FORM
100
AcDbText
  0
LWPOLYLINE
  5
2A9
330
267
100
AcDbEntity
  8
0
100
AcDbPolyline
 90
        4
 70
     1
 43
0.3
 10
405.0
 20
281.9999999999999
 10
20.00000000000003
 20
281.9999999999999
 10
20.00000000000003
 20
17.0
 10
404.9999999999999
 20
16.99999999999994
  0
ENDBLK
  5
2AB
330
267
100
AcDbEntity
  8
0
100
AcDbBlockEnd
  0
BLOCK
  5
21A0
330
DD7
100
AcDbEntity
  8
0
100
AcDbBlockBegin
  2
*D1
 70
     1
 10
0.0
 20
0.0
 30
0.0
  3
*D1
  1

  0
LINE
  5
443E
330
DD7
100
AcDbEntity
  8
0
 62
     9
370
    -2
100
AcDbLine
 10
832.0583480646508
 20
631.1555159366431
 30
0.0
 11
832.0583480646508
 21
194.2706320726129
 31
0.0
  0
LINE
  5
443F
330
DD7
100
AcDbEntity
  8
0
 62
     9
370
    -2
100
AcDbLine
 10
323.3452802065867
 20
347.1764420861209
 30
0.0
 11
323.3452802065867
 21
194.2706320726129
 31
0.0
  0
LINE
  5
4440
330
DD7
100
AcDbEntity
  8
0
 62
     9
370
    -2
100
AcDbLine
 10
819.5583480646508
 20
204.2706320726129
 30
0.0
 11
335.8452802065867
 21
204.2706320726129
 31
0.0
  0
SOLID
  5
4441
330
DD7
100
AcDbEntity
  8
0
 62
     9
100
AcDbTrace
 10
819.5583480646508
 20
206.3539654059463
 30
0.0
 11
819.5583480646508
 21
202.1872987392796
 31
0.0
 12
832.0583480646508
 22
204.2706320726129
 32
0.0
 13
832.0583480646508
 23
204.2706320726129
 33
0.0
  0
SOLID
  5
4442
330
DD7
100
AcDbEntity
  8
0
 62
     9
100
AcDbTrace
 10
335.8452802065867
 20
206.3539654059463
 30
0.0
 11
335.8452802065867
 21
202.1872987392796
 31
0.0
 12
323.3452802065867
 22
204.2706320726129
 32
0.0
 13
323.3452802065867
 23
204.2706320726129
 33
0.0
  0
MTEXT
  5
4443
330
DD7
100
AcDbEntity
  8
0
 62
     2
100
AcDbMText
 10
577.7018141356188
 20
213.7706320726129
 30
0.0
 40
14.0
 41
0.0
 71
     5
 72
     1
  1
\A1;（510）
  7
AD-STANDARD
 73
     1
 44
1.0
1001
ACAD
1000
MTEXTBEGIN
1070
    73
1070
     1
1070
    44
1040
1.0
1070
    74
1070
     0
1000
MTEXTEND
  0
POINT
  5
4444
330
DD7
100
AcDbEntity
  8
DEFPOINTS
 62
     0
100
AcDbPoint
 10
832.0583480646508
 20
636.1555159366432
 30
0.0
  0
POINT
  5
4445
330
DD7
100
AcDbEntity
  8
DEFPOINTS
 62
     0
100
AcDbPoint
 10
323.3452802065867
 20
352.1764420861209
 30
0.0
  0
POINT
  5
4446
330
DD7
100
AcDbEntity
  8
DEFPOINTS
 62
     0
100
AcDbPoint
 10
323.3452802065867
 20
204.2706320726129
 30
0.0
  0
ENDBLK
  5
21AA
330
DD7
100
AcDbEntity
  8
0
100
AcDbBlockEnd
  0
BLOCK
  5
2253
330
DE3
100
AcDbEntity
  8
0
100
AcDbBlockBegin
  2
*D2
 70
     1
 10
0.0
 20
0.0
 30
0.0
  3
*D2
  1

  0
LINE
  5
4435
330
DE3
100
AcDbEntity
  8
0
 62
     9
370
    -2
100
AcDbLine
 10
543.3452364199228
 20
309.1765170681435
 30
0.0
 11
900.0961172299266
 21
309.1765170681434
 31
0.0
  0
LINE
  5
4436
330
DE3
100
AcDbEntity
  8
0
 62
     9
370
    -2
100
AcDbLine
 10
736.6601116030234
 20
739.1555159366419
 30
0.0
 11
900.0961172299266
 21
739.1555159366419
 31
0.0
  0
LINE
  5
4437
330
DE3
100
AcDbEntity
  8
0
 62
     9
370
    -2
100
AcDbLine
 10
890.0961172299266
 20
321.6765170681435
 30
0.0
 11
890.0961172299266
 21
726.6555159366419
 31
0.0
  0
SOLID
  5
4438
330
DE3
100
AcDbEntity
  8
0
 62
     9
100
AcDbTrace
 10
888.0127838965933
 20
321.6765170681435
 30
0.0
 11
892.17945056326
 21
321.6765170681435
 31
0.0
 12
890.0961172299266
 22
309.1765170681435
 32
0.0
 13
890.0961172299266
 23
309.1765170681435
 33
0.0
  0
SOLID
  5
4439
330
DE3
100
AcDbEntity
  8
0
 62
     9
100
AcDbTrace
 10
888.0127838965933
 20
726.6555159366419
 30
0.0
 11
892.17945056326
 21
726.6555159366419
 31
0.0
 12
890.0961172299266
 22
739.1555159366419
 32
0.0
 13
890.0961172299266
 23
739.1555159366419
 33
0.0
  0
MTEXT
  5
443A
330
DE3
100
AcDbEntity
  8
0
 62
     2
100
AcDbMText
 10
880.5961172299266
 20
524.1660165023929
 30
0.0
 40
14.0
 41
0.0
 71
     5
 72
     1
  1
\A1;（437）
  7
AD-STANDARD
 11
0.0000000000000001
 21
1.0
 31
0.0
 73
     1
 44
1.0
1001
ACAD
1000
MTEXTBEGIN
1070
    73
1070
     1
1070
    44
1040
1.0
1070
    74
1070
     0
1000
MTEXTEND
  0
POINT
  5
443B
330
DE3
100
AcDbEntity
  8
DEFPOINTS
 62
     0
100
AcDbPoint
 10
538.3452364199229
 20
309.1765170681435
 30
0.0
  0
POINT
  5
443C
330
DE3
100
AcDbEntity
  8
DEFPOINTS
 62
     0
100
AcDbPoint
 10
731.6601116030234
 20
739.1555159366419
 30
0.0
  0
POINT
  5
443D
330
DE3
100
AcDbEntity
  8
DEFPOINTS
 62
     0
100
AcDbPoint
 10
890.0961172299266
 20
739.1555159366419
 30
0.0
  0
ENDBLK
  5
225D
330
DE3
100
AcDbEntity
  8
0
100
AcDbBlockEnd
  0
BLOCK
  5
10D6
330
DEF
100
AcDbEntity
  8
0
100
AcDbBlockBegin
  2
*D3
 70
     1
 10
0.0
 20
0.0
 30
0.0
  3
*D3
  1

  0
LINE
  5
447B
330
DEF
100
AcDbEntity
  8
0
 62
     9
370
    -2
100
AcDbLine
 10
353.3453235926836
 20
309.1765170681435
 30
0.0
 11
208.9066965330024
 21
309.1765170681435
 31
0.0
  0
LINE
  5
447C
330
DEF
100
AcDbEntity
  8
0
 62
     9
370
    -2
100
AcDbLine
 10
329.8452802065846
 20
413.1764420861154
 30
0.0
 11
208.9066965330025
 21
413.1764420861154
 31
0.0
  0
LINE
  5
447D
330
DEF
100
AcDbEntity
  8
0
 62
     9
370
    -2
100
AcDbLine
 10
218.9066965330024
 20
321.6765170681435
 30
0.0
 11
218.9066965330024
 21
400.6764420861154
 31
0.0
  0
SOLID
  5
447E
330
DEF
100
AcDbEntity
  8
0
 62
     9
100
AcDbTrace
 10
216.8233631996691
 20
321.6765170681435
 30
0.0
 11
220.9900298663358
 21
321.6765170681435
 31
0.0
 12
218.9066965330024
 22
309.1765170681435
 32
0.0
 13
218.9066965330024
 23
309.1765170681435
 33
0.0
  0
SOLID
  5
447F
330
DEF
100
AcDbEntity
  8
0
 62
     9
100
AcDbTrace
 10
216.8233631996691
 20
400.6764420861154
 30
0.0
 11
220.9900298663358
 21
400.6764420861154
 31
0.0
 12
218.9066965330024
 22
413.1764420861154
 32
0.0
 13
218.9066965330024
 23
413.1764420861154
 33
0.0
  0
MTEXT
  5
4480
330
DEF
100
AcDbEntity
  8
0
 62
     2
100
AcDbMText
 10
209.4066965330024
 20
361.1764795771295
 30
0.0
 40
14.0
 41
0.0
 71
     5
 72
     1
  1
\A1;104
  7
AD-STANDARD
 11
0.0000000000000001
 21
1.0
 31
0.0
 73
     1
 44
1.0
1001
ACAD
1000
MTEXTBEGIN
1070
    73
1070
     1
1070
    44
1040
1.0
1070
    74
1070
     0
1000
MTEXTEND
  0
POINT
  5
4481
330
DEF
100
AcDbEntity
  8
DEFPOINTS
 62
     0
100
AcDbPoint
 10
358.3453235926836
 20
309.1765170681435
 30
0.0
  0
POINT
  5
4482
330
DEF
100
AcDbEntity
  8
DEFPOINTS
 62
     0
100
AcDbPoint
 10
334.8452802065846
 20
413.1764420861154
 30
0.0
  0
POINT
  5
4483
330
DEF
100
AcDbEntity
  8
DEFPOINTS
 62
     0
100
AcDbPoint
 10
218.9066965330024
 20
413.1764420861154
 30
0.0
  0
ENDBLK
  5
10E0
330
DEF
100
AcDbEntity
  8
0
100
AcDbBlockEnd
  0
BLOCK
  5
105F
330
DFB
100
AcDbEntity
  8
0
100
AcDbBlockBegin
  2
*D4
 70
     1
 10
0.0
 20
0.0
 30
0.0
  3
*D4
  1

  0
LINE
  5
4484
330
DFB
100
AcDbEntity
  8
0
 62
     9
370
    -2
100
AcDbLine
 10
318.3452802065867
 20
353.1764420861227
 30
0.0
 11
255.7135211098033
 21
353.1764420861227
 31
0.0
  0
LINE
  5
4485
330
DFB
100
AcDbEntity
  8
0
 62
     9
370
    -2
100
AcDbLine
 10
329.8452802065858
 20
413.1764420861164
 30
0.0
 11
255.7135211098033
 21
413.1764420861164
 31
0.0
  0
LINE
  5
4486
330
DFB
100
AcDbEntity
  8
0
 62
     9
370
    -2
100
AcDbLine
 10
265.7135211098033
 20
365.6764420861227
 30
0.0
 11
265.7135211098033
 21
400.6764420861164
 31
0.0
  0
SOLID
  5
4487
330
DFB
100
AcDbEntity
  8
0
 62
     9
100
AcDbTrace
 10
263.63018777647
 20
365.6764420861227
 30
0.0
 11
267.7968544431366
 21
365.6764420861227
 31
0.0
 12
265.7135211098033
 22
353.1764420861227
 32
0.0
 13
265.7135211098033
 23
353.1764420861227
 33
0.0
  0
SOLID
  5
4488
330
DFB
100
AcDbEntity
  8
0
 62
     9
100
AcDbTrace
 10
263.63018777647
 20
400.6764420861164
 30
0.0
 11
267.7968544431366
 21
400.6764420861164
 31
0.0
 12
265.7135211098033
 22
413.1764420861164
 32
0.0
 13
265.7135211098033
 23
413.1764420861164
 33
0.0
  0
MTEXT
  5
4489
330
DFB
100
AcDbEntity
  8
0
 62
     2
100
AcDbMText
 10
256.2135211098032
 20
383.1764420861196
 30
0.0
 40
14.0
 41
0.0
 71
     5
 72
     1
  1
\A1;60
  7
AD-STANDARD
 11
0.0000000000000001
 21
1.0
 31
0.0
 73
     1
 44
1.0
1001
ACAD
1000
MTEXTBEGIN
1070
    73
1070
     1
1070
    44
1040
1.0
1070
    74
1070
     0
1000
MTEXTEND
  0
POINT
  5
448A
330
DFB
100
AcDbEntity
  8
DEFPOINTS
 62
     0
100
AcDbPoint
 10
323.3452802065867
 20
353.1764420861227
 30
0.0
  0
POINT
  5
448B
330
DFB
100
AcDbEntity
  8
DEFPOINTS
 62
     0
100
AcDbPoint
 10
334.8452802065858
 20
413.1764420861164
 30
0.0
  0
POINT
  5
448C
330
DFB
100
AcDbEntity
  8
DEFPOINTS
 62
     0
100
AcDbPoint
 10
265.7135211098033
 20
413.1764420861164
 30
0.0
  0
ENDBLK
  5
1069
330
DFB
100
AcDbEntity
  8
0
100
AcDbBlockEnd
  0
BLOCK
  5
1049
330
EA9
100
AcDbEntity
  8
0
100
AcDbBlockBegin
  2
*D5
 70
     1
 10
0.0
 20
0.0
 30
0.0
  3
*D5
  1

  0
LINE
  5
441A
330
EA9
100
AcDbEntity
  8
0
 62
     9
370
    -2
100
AcDbLine
 10
358.3453235926846
 20
306.6765349251991
 30
0.0
 11
358.3453235926846
 21
244.2776047495281
 31
0.0
  0
LINE
  5
441B
330
EA9
100
AcDbEntity
  8
0
 62
     9
370
    -2
100
AcDbLine
 10
538.3452364199237
 20
306.6765349251991
 30
0.0
 11
538.3452364199237
 21
244.2776047495281
 31
0.0
  0
LINE
  5
441C
330
EA9
100
AcDbEntity
  8
0
 62
     9
370
    -2
100
AcDbLine
 10
370.8453235926846
 20
254.2776047495281
 30
0.0
 11
525.8452364199237
 21
254.2776047495281
 31
0.0
  0
SOLID
  5
441D
330
EA9
100
AcDbEntity
  8
0
 62
     9
100
AcDbTrace
 10
370.8453235926846
 20
256.3609380828615
 30
0.0
 11
370.8453235926846
 21
252.1942714161948
 31
0.0
 12
358.3453235926846
 22
254.2776047495281
 32
0.0
 13
358.3453235926846
 23
254.2776047495281
 33
0.0
  0
SOLID
  5
441E
330
EA9
100
AcDbEntity
  8
0
 62
     9
100
AcDbTrace
 10
525.8452364199237
 20
256.3609380828615
 30
0.0
 11
525.8452364199237
 21
252.1942714161948
 31
0.0
 12
538.3452364199237
 22
254.2776047495281
 32
0.0
 13
538.3452364199237
 23
254.2776047495281
 33
0.0
  0
MTEXT
  5
441F
330
EA9
100
AcDbEntity
  8
0
 62
     2
100
AcDbMText
 10
448.3452800063041
 20
263.7776047495281
 30
0.0
 40
14.0
 41
0.0
 71
     5
 72
     1
  1
\A1;180
  7
AD-STANDARD
 73
     1
 44
1.0
1001
ACAD
1000
MTEXTBEGIN
1070
    73
1070
     1
1070
    44
1040
1.0
1070
    74
1070
     0
1000
MTEXTEND
  0
POINT
  5
4420
330
EA9
100
AcDbEntity
  8
DEFPOINTS
 62
     0
100
AcDbPoint
 10
358.3453235926846
 20
311.6765349251991
 30
0.0
  0
POINT
  5
4421
330
EA9
100
AcDbEntity
  8
DEFPOINTS
 62
     0
100
AcDbPoint
 10
538.3452364199237
 20
311.6765349251991
 30
0.0
  0
POINT
  5
4422
330
EA9
100
AcDbEntity
  8
DEFPOINTS
 62
     0
100
AcDbPoint
 10
538.3452364199237
 20
254.2776047495281
 30
0.0
  0
ENDBLK
  5
1053
330
EA9
100
AcDbEntity
  8
0
100
AcDbBlockEnd
  0
BLOCK
  5
FAE
330
EED
100
AcDbEntity
  8
0
100
AcDbBlockBegin
  2
*D6
 70
     1
 10
0.0
 20
0.0
 30
0.0
  3
*D6
  1

  0
LINE
  5
4411
330
EED
100
AcDbEntity
  8
0
 62
     9
370
    -2
100
AcDbLine
 10
358.3453235926846
 20
306.6765349251991
 30
0.0
 11
358.3453235926846
 21
244.2776047495281
 31
0.0
  0
LINE
  5
4412
330
EED
100
AcDbEntity
  8
0
 62
     9
370
    -2
100
AcDbLine
 10
323.3452802065867
 20
347.1764420861209
 30
0.0
 11
323.3452802065867
 21
244.2776047495281
 31
0.0
  0
LINE
  5
4413
330
EED
100
AcDbEntity
  8
0
 62
     9
370
    -2
100
AcDbLine
 10
345.8453235926846
 20
254.2776047495281
 30
0.0
 11
335.8452802065867
 21
254.2776047495281
 31
0.0
  0
SOLID
  5
4414
330
EED
100
AcDbEntity
  8
0
 62
     9
100
AcDbTrace
 10
345.8453235926846
 20
256.3609380828615
 30
0.0
 11
345.8453235926846
 21
252.1942714161948
 31
0.0
 12
358.3453235926846
 22
254.2776047495281
 32
0.0
 13
358.3453235926846
 23
254.2776047495281
 33
0.0
  0
SOLID
  5
4415
330
EED
100
AcDbEntity
  8
0
 62
     9
100
AcDbTrace
 10
335.8452802065867
 20
256.3609380828615
 30
0.0
 11
335.8452802065867
 21
252.1942714161948
 31
0.0
 12
323.3452802065867
 22
254.2776047495281
 32
0.0
 13
323.3452802065867
 23
254.2776047495281
 33
0.0
  0
MTEXT
  5
4416
330
EED
100
AcDbEntity
  8
0
 62
     2
100
AcDbMText
 10
340.8453018996356
 20
263.7776047495281
 30
0.0
 40
14.0
 41
0.0
 71
     5
 72
     1
  1
\A1;35
  7
AD-STANDARD
 73
     1
 44
1.0
1001
ACAD
1000
MTEXTBEGIN
1070
    73
1070
     1
1070
    44
1040
1.0
1070
    74
1070
     0
1000
MTEXTEND
  0
POINT
  5
4417
330
EED
100
AcDbEntity
  8
DEFPOINTS
 62
     0
100
AcDbPoint
 10
358.3453235926846
 20
311.6765349251991
 30
0.0
  0
POINT
  5
4418
330
EED
100
AcDbEntity
  8
DEFPOINTS
 62
     0
100
AcDbPoint
 10
323.3452802065867
 20
352.1764420861209
 30
0.0
  0
POINT
  5
4419
330
EED
100
AcDbEntity
  8
DEFPOINTS
 62
     0
100
AcDbPoint
 10
323.3452802065867
 20
254.2776047495281
 30
0.0
  0
ENDBLK
  5
FB8
330
EED
100
AcDbEntity
  8
0
100
AcDbBlockEnd
  0
BLOCK
  5
1080
330
F14
100
AcDbEntity
  8
0
100
AcDbBlockBegin
  2
*D7
 70
     1
 10
0.0
 20
0.0
 30
0.0
  3
*D7
  1

  0
LINE
  5
4408
330
F14
100
AcDbEntity
  8
0
 62
     9
370
    -2
100
AcDbLine
 10
-121.1799640284094
 20
306.6765349251915
 30
0.0
 11
-121.1799640284094
 21
244.2776047495281
 31
0.0
  0
LINE
  5
4409
330
F14
100
AcDbEntity
  8
0
 62
     9
370
    -2
100
AcDbLine
 10
58.8199487988299
 20
306.6765349251914
 30
0.0
 11
58.81994879882989
 21
244.2776047495281
 31
0.0
  0
LINE
  5
440A
330
F14
100
AcDbEntity
  8
0
 62
     9
370
    -2
100
AcDbLine
 10
-108.6799640284094
 20
254.2776047495281
 30
0.0
 11
46.3199487988299
 21
254.2776047495281
 31
0.0
  0
SOLID
  5
440B
330
F14
100
AcDbEntity
  8
0
 62
     9
100
AcDbTrace
 10
-108.6799640284094
 20
256.3609380828614
 30
0.0
 11
-108.6799640284094
 21
252.1942714161948
 31
0.0
 12
-121.1799640284094
 22
254.2776047495281
 32
0.0
 13
-121.1799640284094
 23
254.2776047495281
 33
0.0
  0
SOLID
  5
440C
330
F14
100
AcDbEntity
  8
0
 62
     9
100
AcDbTrace
 10
46.3199487988299
 20
256.3609380828614
 30
0.0
 11
46.3199487988299
 21
252.1942714161948
 31
0.0
 12
58.8199487988299
 22
254.2776047495281
 32
0.0
 13
58.8199487988299
 23
254.2776047495281
 33
0.0
  0
MTEXT
  5
440D
330
F14
100
AcDbEntity
  8
0
 62
     2
100
AcDbMText
 10
-31.18000761478976
 20
263.7776047495281
 30
0.0
 40
14.0
 41
0.0
 71
     5
 72
     1
  1
\A1;180
  7
AD-STANDARD
 73
     1
 44
1.0
1001
ACAD
1000
MTEXTBEGIN
1070
    73
1070
     1
1070
    44
1040
1.0
1070
    74
1070
     0
1000
MTEXTEND
  0
POINT
  5
440E
330
F14
100
AcDbEntity
  8
DEFPOINTS
 62
     0
100
AcDbPoint
 10
-121.1799640284094
 20
311.6765349251914
 30
0.0
  0
POINT
  5
440F
330
F14
100
AcDbEntity
  8
DEFPOINTS
 62
     0
100
AcDbPoint
 10
58.8199487988299
 20
311.6765349251914
 30
0.0
  0
POINT
  5
4410
330
F14
100
AcDbEntity
  8
DEFPOINTS
 62
     0
100
AcDbPoint
 10
58.8199487988299
 20
254.2776047495281
 30
0.0
  0
ENDBLK
  5
108A
330
F14
100
AcDbEntity
  8
0
100
AcDbBlockEnd
  0
BLOCK
  5
103E
330
F21
100
AcDbEntity
  8
0
100
AcDbBlockBegin
  2
*D8
 70
     1
 10
0.0
 20
0.0
 30
0.0
  3
*D8
  1

  0
LINE
  5
43FF
330
F21
100
AcDbEntity
  8
0
 62
     9
370
    -2
100
AcDbLine
 10
538.3452364199237
 20
306.6765349251991
 30
0.0
 11
538.3452364199237
 21
244.2776047495281
 31
0.0
  0
LINE
  5
4400
330
F21
100
AcDbEntity
  8
0
 62
     9
370
    -2
100
AcDbLine
 10
739.3452364199236
 20
306.6765349251991
 30
0.0
 11
739.3452364199236
 21
244.2776047495281
 31
0.0
  0
LINE
  5
4401
330
F21
100
AcDbEntity
  8
0
 62
     9
370
    -2
100
AcDbLine
 10
550.8452364199237
 20
254.2776047495281
 30
0.0
 11
726.8452364199236
 21
254.2776047495281
 31
0.0
  0
SOLID
  5
4402
330
F21
100
AcDbEntity
  8
0
 62
     9
100
AcDbTrace
 10
550.8452364199237
 20
256.3609380828615
 30
0.0
 11
550.8452364199237
 21
252.1942714161948
 31
0.0
 12
538.3452364199237
 22
254.2776047495281
 32
0.0
 13
538.3452364199237
 23
254.2776047495281
 33
0.0
  0
SOLID
  5
4403
330
F21
100
AcDbEntity
  8
0
 62
     9
100
AcDbTrace
 10
726.8452364199236
 20
256.3609380828615
 30
0.0
 11
726.8452364199236
 21
252.1942714161948
 31
0.0
 12
739.3452364199236
 22
254.2776047495281
 32
0.0
 13
739.3452364199236
 23
254.2776047495281
 33
0.0
  0
MTEXT
  5
4404
330
F21
100
AcDbEntity
  8
0
 62
     2
100
AcDbMText
 10
638.8452364199237
 20
263.7776047495281
 30
0.0
 40
14.0
 41
0.0
 71
     5
 72
     1
  1
\A1;201
  7
AD-STANDARD
 73
     1
 44
1.0
1001
ACAD
1000
MTEXTBEGIN
1070
    73
1070
     1
1070
    44
1040
1.0
1070
    74
1070
     0
1000
MTEXTEND
  0
POINT
  5
4405
330
F21
100
AcDbEntity
  8
DEFPOINTS
 62
     0
100
AcDbPoint
 10
538.3452364199237
 20
311.6765349251991
 30
0.0
  0
POINT
  5
4406
330
F21
100
AcDbEntity
  8
DEFPOINTS
 62
     0
100
AcDbPoint
 10
739.3452364199236
 20
311.6765349251991
 30
0.0
  0
POINT
  5
4407
330
F21
100
AcDbEntity
  8
DEFPOINTS
 62
     0
100
AcDbPoint
 10
739.3452364199236
 20
254.2776047495281
 30
0.0
  0
ENDBLK
  5
1048
330
F21
100
AcDbEntity
  8
0
100
AcDbBlockEnd
  0
BLOCK
  5
106A
330
F3B
100
AcDbEntity
  8
0
100
AcDbBlockBegin
  2
*D9
 70
     1
 10
0.0
 20
0.0
 30
0.0
  3
*D9
  1

  0
LINE
  5
448D
330
F3B
100
AcDbEntity
  8
0
 62
     9
370
    -2
100
AcDbLine
 10
323.3452802065858
 20
406.6764420861138
 30
0.0
 11
323.3452802065858
 21
473.119934275076
 31
0.0
  0
LINE
  5
448E
330
F3B
100
AcDbEntity
  8
0
 62
     9
370
    -2
100
AcDbLine
 10
573.3452798060215
 20
406.6764420861305
 30
0.0
 11
573.3452798060215
 21
473.119934275076
 31
0.0
  0
LINE
  5
448F
330
F3B
100
AcDbEntity
  8
0
 62
     9
370
    -2
100
AcDbLine
 10
335.8452802065858
 20
463.119934275076
 30
0.0
 11
560.8452798060215
 21
463.119934275076
 31
0.0
  0
SOLID
  5
4490
330
F3B
100
AcDbEntity
  8
0
 62
     9
100
AcDbTrace
 10
335.8452802065858
 20
465.2032676084093
 30
0.0
 11
335.8452802065858
 21
461.0366009417427
 31
0.0
 12
323.3452802065858
 22
463.119934275076
 32
0.0
 13
323.3452802065858
 23
463.119934275076
 33
0.0
  0
SOLID
  5
4491
330
F3B
100
AcDbEntity
  8
0
 62
     9
100
AcDbTrace
 10
560.8452798060215
 20
465.2032676084093
 30
0.0
 11
560.8452798060215
 21
461.0366009417427
 31
0.0
 12
573.3452798060215
 22
463.119934275076
 32
0.0
 13
573.3452798060215
 23
463.119934275076
 33
0.0
  0
MTEXT
  5
4492
330
F3B
100
AcDbEntity
  8
0
 62
     2
100
AcDbMText
 10
448.3452800063036
 20
472.619934275076
 30
0.0
 40
14.0
 41
0.0
 71
     5
 72
     1
  1
\A1;250
  7
AD-STANDARD
 73
     1
 44
1.0
1001
ACAD
1000
MTEXTBEGIN
1070
    73
1070
     1
1070
    44
1040
1.0
1070
    74
1070
     0
1000
MTEXTEND
  0
POINT
  5
4493
330
F3B
100
AcDbEntity
  8
DEFPOINTS
 62
     0
100
AcDbPoint
 10
323.3452802065858
 20
401.6764420861139
 30
0.0
  0
POINT
  5
4494
330
F3B
100
AcDbEntity
  8
DEFPOINTS
 62
     0
100
AcDbPoint
 10
573.3452798060215
 20
401.6764420861306
 30
0.0
  0
POINT
  5
4495
330
F3B
100
AcDbEntity
  8
DEFPOINTS
 62
     0
100
AcDbPoint
 10
573.3452798060215
 20
463.119934275076
 30
0.0
  0
ENDBLK
  5
1074
330
F3B
100
AcDbEntity
  8
0
100
AcDbBlockEnd
  0
BLOCK
  5
1075
330
FE2
100
AcDbEntity
  8
0
100
AcDbBlockBegin
  2
*D10
 70
     1
 10
0.0
 20
0.0
 30
0.0
  3
*D10
  1

  0
LINE
  5
43ED
330
FE2
100
AcDbEntity
  8
0
 62
     9
370
    -2
100
AcDbLine
 10
-156.1800074145071
 20
357.176442086115
 30
0.0
 11
-156.1800074145071
 21
471.692463664036
 31
0.0
  0
LINE
  5
43EE
330
FE2
100
AcDbEntity
  8
0
 62
     9
370
    -2
100
AcDbLine
 10
93.81999218493229
 20
357.1764420861385
 30
0.0
 11
93.81999218493231
 21
471.692463664036
 31
0.0
  0
LINE
  5
43EF
330
FE2
100
AcDbEntity
  8
0
 62
     9
370
    -2
100
AcDbLine
 10
-143.6800074145071
 20
461.692463664036
 30
0.0
 11
81.31999218493229
 21
461.692463664036
 31
0.0
  0
SOLID
  5
43F0
330
FE2
100
AcDbEntity
  8
0
 62
     9
100
AcDbTrace
 10
-143.6800074145071
 20
463.7757969973693
 30
0.0
 11
-143.6800074145071
 21
459.6091303307026
 31
0.0
 12
-156.1800074145071
 22
461.692463664036
 32
0.0
 13
-156.1800074145071
 23
461.692463664036
 33
0.0
  0
SOLID
  5
43F1
330
FE2
100
AcDbEntity
  8
0
 62
     9
100
AcDbTrace
 10
81.31999218493229
 20
463.7757969973693
 30
0.0
 11
81.31999218493229
 21
459.6091303307026
 31
0.0
 12
93.81999218493229
 22
461.692463664036
 32
0.0
 13
93.81999218493229
 23
461.692463664036
 33
0.0
  0
MTEXT
  5
43F2
330
FE2
100
AcDbEntity
  8
0
 62
     2
100
AcDbMText
 10
-31.18000761478743
 20
471.192463664036
 30
0.0
 40
14.0
 41
0.0
 71
     5
 72
     1
  1
\A1;250
  7
AD-STANDARD
 73
     1
 44
1.0
1001
ACAD
1000
MTEXTBEGIN
1070
    73
1070
     1
1070
    44
1040
1.0
1070
    74
1070
     0
1000
MTEXTEND
  0
POINT
  5
43F3
330
FE2
100
AcDbEntity
  8
DEFPOINTS
 62
     0
100
AcDbPoint
 10
-156.1800074145071
 20
352.176442086115
 30
0.0
  0
POINT
  5
43F4
330
FE2
100
AcDbEntity
  8
DEFPOINTS
 62
     0
100
AcDbPoint
 10
93.81999218493229
 20
352.1764420861385
 30
0.0
  0
POINT
  5
43F5
330
FE2
100
AcDbEntity
  8
DEFPOINTS
 62
     0
100
AcDbPoint
 10
93.81999218493229
 20
461.692463664036
 30
0.0
  0
ENDBLK
  5
107F
330
FE2
100
AcDbEntity
  8
0
100
AcDbBlockEnd
  0
BLOCK
  5
1B53
330
1B50
100
AcDbEntity
  8
0
100
AcDbBlockBegin
  2
CENT
 70
     0
 10
0.0
 20
0.0
 30
0.0
  3
CENT
  1

  0
LINE
  5
1B51
330
1B50
100
AcDbEntity
  8
CENTER
100
AcDbLine
 10
-0.5
 20
0.0
 30
0.0
 11
0.5
 21
0.0
 31
0.0
  0
LINE
  5
1B52
330
1B50
100
AcDbEntity
  8
CENTER
100
AcDbLine
 10
0.0
 20
-0.5
 30
0.0
 11
0.0
 21
0.5
 31
0.0
  0
ENDBLK
  5
1B54
330
1B50
100
AcDbEntity
  8
0
100
AcDbBlockEnd
  0
BLOCK
  5
21FA
330
2011
100
AcDbEntity
  8
0
100
AcDbBlockBegin
  2
*D12
 70
     1
 10
0.0
 20
0.0
 30
0.0
  3
*D12
  1

  0
LINE
  5
43DB
330
2011
100
AcDbEntity
  8
0
 62
     9
 48
0.25
370
    -2
100
AcDbLine
 10
72.5199440120652
 20
739.1555159294043
 30
0.0
 11
137.6258966997044
 21
739.1555159294043
 31
0.0
  0
LINE
  5
43DC
330
2011
100
AcDbEntity
  8
0
 62
     9
 48
0.25
370
    -2
100
AcDbLine
 10
72.51994401206565
 20
533.1555159294061
 30
0.0
 11
137.6258966997043
 21
533.1555159294061
 31
0.0
  0
LINE
  5
43DD
330
2011
100
AcDbEntity
  8
0
 62
     9
 48
0.25
370
    -2
100
AcDbLine
 10
127.6258966997044
 20
726.6555159294043
 30
0.0
 11
127.6258966997044
 21
545.6555159294061
 31
0.0
  0
SOLID
  5
43DE
330
2011
100
AcDbEntity
  8
0
 62
     9
 48
0.25
100
AcDbTrace
 10
125.5425633663711
 20
726.6555159294043
 30
0.0
 11
129.7092300330377
 21
726.6555159294043
 31
0.0
 12
127.6258966997044
 22
739.1555159294043
 32
0.0
 13
127.6258966997044
 23
739.1555159294043
 33
0.0
  0
SOLID
  5
43DF
330
2011
100
AcDbEntity
  8
0
 62
     9
 48
0.25
100
AcDbTrace
 10
125.542563366371
 20
545.6555159294061
 30
0.0
 11
129.7092300330377
 21
545.6555159294061
 31
0.0
 12
127.6258966997043
 22
533.1555159294061
 32
0.0
 13
127.6258966997043
 23
533.1555159294061
 33
0.0
  0
MTEXT
  5
43E0
330
2011
100
AcDbEntity
  8
0
 62
     2
 48
0.25
100
AcDbMText
 10
118.1258966997043
 20
635.7622563151385
 30
0.0
 40
14.0
 41
0.0
 71
     5
 72
     1
  1
\A1;206
  7
AD-STANDARD
 11
0.0000000000000001
 21
1.0
 31
0.0
 73
     1
 44
1.0
1001
ACAD
1000
MTEXTBEGIN
1070
    73
1070
     1
1070
    44
1040
1.0
1070
    74
1070
     0
1000
MTEXTEND
  0
POINT
  5
43E1
330
2011
100
AcDbEntity
  8
DEFPOINTS
 62
     0
 48
0.25
100
AcDbPoint
 10
67.5199440120652
 20
739.1555159294043
 30
0.0
  0
POINT
  5
43E2
330
2011
100
AcDbEntity
  8
DEFPOINTS
 62
     0
 48
0.25
100
AcDbPoint
 10
67.51994401206565
 20
533.1555159294061
 30
0.0
  0
POINT
  5
43E3
330
2011
100
AcDbEntity
  8
DEFPOINTS
 62
     0
 48
0.25
100
AcDbPoint
 10
127.6258966997043
 20
533.1555159294061
 30
0.0
  0
ENDBLK
  5
2204
330
2011
100
AcDbEntity
  8
0
100
AcDbBlockEnd
  0
BLOCK
  5
21EF
330
2041
100
AcDbEntity
  8
0
100
AcDbBlockBegin
  2
*D13
 70
     1
 10
0.0
 20
0.0
 30
0.0
  3
*D13
  1

  0
LINE
  5
43E4
330
2041
100
AcDbEntity
  8
0
 62
     9
 48
0.25
370
    -2
100
AcDbLine
 10
68.31994401206538
 20
743.3555159294045
 30
0.0
 11
68.31994401206538
 21
795.4418414964698
 31
0.0
  0
LINE
  5
43E5
330
2041
100
AcDbEntity
  8
0
 62
     9
 48
0.25
370
    -2
100
AcDbLine
 10
-130.6800559879228
 20
743.3555159294041
 30
0.0
 11
-130.6800559879228
 21
795.4418414964698
 31
0.0
  0
LINE
  5
43E6
330
2041
100
AcDbEntity
  8
0
 62
     9
 48
0.25
370
    -2
100
AcDbLine
 10
55.81994401206538
 20
785.4418414964698
 30
0.0
 11
-118.1800559879228
 21
785.4418414964698
 31
0.0
  0
SOLID
  5
43E7
330
2041
100
AcDbEntity
  8
0
 62
     9
 48
0.25
100
AcDbTrace
 10
55.81994401206538
 20
787.5251748298031
 30
0.0
 11
55.81994401206538
 21
783.3585081631364
 31
0.0
 12
68.31994401206538
 22
785.4418414964698
 32
0.0
 13
68.31994401206538
 23
785.4418414964698
 33
0.0
  0
SOLID
  5
43E8
330
2041
100
AcDbEntity
  8
0
 62
     9
 48
0.25
100
AcDbTrace
 10
-118.1800559879228
 20
787.5251748298031
 30
0.0
 11
-118.1800559879228
 21
783.3585081631364
 31
0.0
 12
-130.6800559879228
 22
785.4418414964698
 32
0.0
 13
-130.6800559879228
 23
785.4418414964698
 33
0.0
  0
MTEXT
  5
43E9
330
2041
100
AcDbEntity
  8
0
 62
     2
 48
0.25
100
AcDbMText
 10
-28.19447367572138
 20
794.9418414964697
 30
0.0
 40
14.0
 41
0.0
 71
     5
 72
     1
  1
\A1;199
  7
AD-STANDARD
 73
     1
 44
1.0
1001
ACAD
1000
MTEXTBEGIN
1070
    73
1070
     1
1070
    44
1040
1.0
1070
    74
1070
     0
1000
MTEXTEND
  0
POINT
  5
43EA
330
2041
100
AcDbEntity
  8
DEFPOINTS
 62
     0
 48
0.25
100
AcDbPoint
 10
68.31994401206538
 20
738.3555159294045
 30
0.0
  0
POINT
  5
43EB
330
2041
100
AcDbEntity
  8
DEFPOINTS
 62
     0
 48
0.25
100
AcDbPoint
 10
-130.6800559879228
 20
738.355515929404
 30
0.0
  0
POINT
  5
43EC
330
2041
100
AcDbEntity
  8
DEFPOINTS
 62
     0
 48
0.25
100
AcDbPoint
 10
-130.6800559879228
 20
785.4418414964698
 30
0.0
  0
ENDBLK
  5
21F9
330
2041
100
AcDbEntity
  8
0
100
AcDbBlockEnd
  0
BLOCK
  5
21CE
330
2124
100
AcDbEntity
  8
0
100
AcDbBlockBegin
  2
*D14
 70
     1
 10
0.0
 20
0.0
 30
0.0
  3
*D14
  1

  0
LINE
  5
43C9
330
2124
100
AcDbEntity
  8
0
 62
     9
 48
0.25
370
    -2
100
AcDbLine
 10
705.058348064652
 20
739.1555159366422
 30
0.0
 11
652.7769683081443
 21
739.1555159366422
 31
0.0
  0
LINE
  5
43CA
330
2124
100
AcDbEntity
  8
0
 62
     9
 48
0.25
370
    -2
100
AcDbLine
 10
684.058348064652
 20
516.1555159366431
 30
0.0
 11
652.7769683081443
 21
516.1555159366431
 31
0.0
  0
LINE
  5
43CB
330
2124
100
AcDbEntity
  8
0
 62
     9
 48
0.25
370
    -2
100
AcDbLine
 10
662.7769683081443
 20
726.6555159366422
 30
0.0
 11
662.7769683081443
 21
528.6555159366431
 31
0.0
  0
SOLID
  5
43CC
330
2124
100
AcDbEntity
  8
0
 62
     9
 48
0.25
100
AcDbTrace
 10
660.6936349748109
 20
726.6555159366422
 30
0.0
 11
664.8603016414776
 21
726.6555159366422
 31
0.0
 12
662.7769683081443
 22
739.1555159366422
 32
0.0
 13
662.7769683081443
 23
739.1555159366422
 33
0.0
  0
SOLID
  5
43CD
330
2124
100
AcDbEntity
  8
0
 62
     9
 48
0.25
100
AcDbTrace
 10
660.6936349748109
 20
528.6555159366431
 30
0.0
 11
664.8603016414776
 21
528.6555159366431
 31
0.0
 12
662.7769683081443
 22
516.1555159366431
 32
0.0
 13
662.7769683081443
 23
516.1555159366431
 33
0.0
  0
MTEXT
  5
43CE
330
2124
100
AcDbEntity
  8
0
 62
     2
 48
0.25
100
AcDbMText
 10
653.2769683081442
 20
627.6555159366428
 30
0.0
 40
14.0
 41
0.0
 71
     5
 72
     1
  1
\A1;223
  7
AD-STANDARD
 11
0.0000000000000001
 21
1.0
 31
0.0
 73
     1
 44
1.0
1001
ACAD
1000
MTEXTBEGIN
1070
    73
1070
     1
1070
    44
1040
1.0
1070
    74
1070
     0
1000
MTEXTEND
  0
POINT
  5
43CF
330
2124
100
AcDbEntity
  8
DEFPOINTS
 62
     0
 48
0.25
100
AcDbPoint
 10
710.058348064652
 20
739.1555159366422
 30
0.0
  0
POINT
  5
43D0
330
2124
100
AcDbEntity
  8
DEFPOINTS
 62
     0
 48
0.25
100
AcDbPoint
 10
689.058348064652
 20
516.1555159366431
 30
0.0
  0
POINT
  5
43D1
330
2124
100
AcDbEntity
  8
DEFPOINTS
 62
     0
 48
0.25
100
AcDbPoint
 10
662.7769683081443
 20
516.1555159366431
 30
0.0
  0
ENDBLK
  5
21D8
330
2124
100
AcDbEntity
  8
0
100
AcDbBlockEnd
  0
BLOCK
  5
2226
330
2152
100
AcDbEntity
  8
0
100
AcDbBlockBegin
  2
*D15
 70
     1
 10
0.0
 20
0.0
 30
0.0
  3
*D15
  1

  0
LINE
  5
43C0
330
2152
100
AcDbEntity
  8
0
 62
     9
 48
0.25
370
    -2
100
AcDbLine
 10
692.0583480646524
 20
711.4555159366423
 30
0.0
 11
692.0583480646524
 21
797.226791673617
 31
0.0
  0
LINE
  5
43C1
330
2152
100
AcDbEntity
  8
0
 62
     9
 48
0.25
370
    -2
100
AcDbLine
 10
754.0583751413943
 20
725.1555159366424
 30
0.0
 11
754.0583751413943
 21
797.226791673617
 31
0.0
  0
LINE
  5
43C2
330
2152
100
AcDbEntity
  8
0
 62
     9
 48
0.25
370
    -2
100
AcDbLine
 10
704.5583480646524
 20
787.2267916736169
 30
0.0
 11
741.5583751413943
 21
787.2267916736169
 31
0.0
  0
SOLID
  5
43C3
330
2152
100
AcDbEntity
  8
0
 62
     9
 48
0.25
100
AcDbTrace
 10
704.5583480646524
 20
789.3101250069503
 30
0.0
 11
704.5583480646524
 21
785.1434583402835
 31
0.0
 12
692.0583480646524
 22
787.2267916736169
 32
0.0
 13
692.0583480646524
 23
787.2267916736169
 33
0.0
  0
SOLID
  5
43C4
330
2152
100
AcDbEntity
  8
0
 62
     9
 48
0.25
100
AcDbTrace
 10
741.5583751413943
 20
789.3101250069503
 30
0.0
 11
741.5583751413943
 21
785.1434583402835
 31
0.0
 12
754.0583751413943
 22
787.2267916736169
 32
0.0
 13
754.0583751413943
 23
787.2267916736169
 33
0.0
  0
MTEXT
  5
43C5
330
2152
100
AcDbEntity
  8
0
 62
     2
 48
0.25
100
AcDbMText
 10
723.0583616030234
 20
796.726791673617
 30
0.0
 40
14.0
 41
0.0
 71
     5
 72
     1
  1
\A1;62
  7
AD-STANDARD
 73
     1
 44
1.0
1001
ACAD
1000
MTEXTBEGIN
1070
    73
1070
     1
1070
    44
1040
1.0
1070
    74
1070
     0
1000
MTEXTEND
  0
POINT
  5
43C6
330
2152
100
AcDbEntity
  8
DEFPOINTS
 62
     0
 48
0.25
100
AcDbPoint
 10
692.0583480646524
 20
706.4555159366423
 30
0.0
  0
POINT
  5
43C7
330
2152
100
AcDbEntity
  8
DEFPOINTS
 62
     0
 48
0.25
100
AcDbPoint
 10
754.0583751413943
 20
720.1555159366424
 30
0.0
  0
POINT
  5
43C8
330
2152
100
AcDbEntity
  8
DEFPOINTS
 62
     0
 48
0.25
100
AcDbPoint
 10
754.0583751413943
 20
787.2267916736169
 30
0.0
  0
ENDBLK
  5
2230
330
2152
100
AcDbEntity
  8
0
100
AcDbBlockEnd
  0
BLOCK
  5
223C
330
215E
100
AcDbEntity
  8
0
100
AcDbBlockBegin
  2
*D16
 70
     1
 10
0.0
 20
0.0
 30
0.0
  3
*D16
  1

  0
LINE
  5
43D2
330
215E
100
AcDbEntity
  8
0
 62
     9
 48
0.25
370
    -2
100
AcDbLine
 10
788.8583751413944
 20
581.3561407841331
 30
0.0
 11
788.8583751413944
 21
822.7181464666998
 31
0.0
  0
LINE
  5
43D3
330
215E
100
AcDbEntity
  8
0
 62
     9
 48
0.25
370
    -2
100
AcDbLine
 10
692.0583480646524
 20
713.4555159366422
 30
0.0
 11
692.0583480646524
 21
822.7181464666998
 31
0.0
  0
LINE
  5
43D4
330
215E
100
AcDbEntity
  8
0
 62
     9
 48
0.25
370
    -2
100
AcDbLine
 10
776.3583751413944
 20
812.7181464666998
 30
0.0
 11
704.5583480646524
 21
812.7181464666998
 31
0.0
  0
SOLID
  5
43D5
330
215E
100
AcDbEntity
  8
0
 62
     9
 48
0.25
100
AcDbTrace
 10
776.3583751413944
 20
814.801479800033
 30
0.0
 11
776.3583751413944
 21
810.6348131333664
 31
0.0
 12
788.8583751413944
 22
812.7181464666998
 32
0.0
 13
788.8583751413944
 23
812.7181464666998
 33
0.0
  0
SOLID
  5
43D6
330
215E
100
AcDbEntity
  8
0
 62
     9
 48
0.25
100
AcDbTrace
 10
704.5583480646524
 20
814.801479800033
 30
0.0
 11
704.5583480646524
 21
810.6348131333664
 31
0.0
 12
692.0583480646524
 22
812.7181464666998
 32
0.0
 13
692.0583480646524
 23
812.7181464666998
 33
0.0
  0
MTEXT
  5
43D7
330
215E
100
AcDbEntity
  8
0
 62
     2
 48
0.25
100
AcDbMText
 10
732.4583616030232
 20
825.8848131333664
 30
0.0
 40
14.0
 41
0.0
 71
     5
 72
     1
  1
\A1;(100)
  7
AD-STANDARD
 73
     1
 44
1.0
1001
ACAD
1000
MTEXTBEGIN
1070
    73
1070
     1
1070
    44
1040
1.0
1070
    74
1070
     0
1000
MTEXTEND
  0
POINT
  5
43D8
330
215E
100
AcDbEntity
  8
DEFPOINTS
 62
     0
 48
0.25
100
AcDbPoint
 10
788.8583751413944
 20
576.3561407841331
 30
0.0
  0
POINT
  5
43D9
330
215E
100
AcDbEntity
  8
DEFPOINTS
 62
     0
 48
0.25
100
AcDbPoint
 10
692.0583480646524
 20
708.4555159366423
 30
0.0
  0
POINT
  5
43DA
330
215E
100
AcDbEntity
  8
DEFPOINTS
 62
     0
 48
0.25
100
AcDbPoint
 10
692.0583480646524
 20
812.7181464666998
 30
0.0
  0
ENDBLK
  5
2246
330
215E
100
AcDbEntity
  8
0
100
AcDbBlockEnd
  0
BLOCK
  5
28AF
330
28AE
100
AcDbEntity
  8
0
100
AcDbBlockBegin
  2
NUT08_S1
 70
     0
 10
0.0
 20
0.0
 30
0.0
  3
NUT08_S1
  1

  0
LINE
  5
28B0
330
28AE
100
AcDbEntity
  8
NEJI
100
AcDbLine
 10
-6.499999999999999
 20
6.499999999999999
 30
0.0
 11
6.499999999999998
 21
6.5
 31
0.0
  0
ARC
  5
28B1
330
28AE
100
AcDbEntity
  8
NEJI
100
AcDbCircle
 10
0.0000000000000002
 20
-5.919443416399242
 30
0.0
 40
12.41944341639924
100
AcDbArc
 50
72.41204622600619
 51
107.5879537739937
  0
LINE
  5
28B2
330
28AE
100
AcDbEntity
  8
NEJI
100
AcDbLine
 10
-7.505553499465135
 20
0.0
 30
0.0
 11
7.505553499465134
 21
0.0
 31
0.0
  0
LINE
  5
28B3
330
28AE
100
AcDbEntity
  8
CENTER
100
AcDbLine
 10
0.0
 20
-1.22117484578974
 30
0.0
 11
0.0
 21
8.0
 31
0.0
  0
LINE
  5
28B4
330
28AE
100
AcDbEntity
  8
NEJI
100
AcDbLine
 10
-3.75277674973257
 20
5.919443416399232
 30
0.0
 11
-3.752776749732569
 21
0.0
 31
0.0
  0
LINE
  5
28B5
330
28AE
100
AcDbEntity
  8
NEJI
100
AcDbLine
 10
-7.505553499465135
 20
5.919443416399231
 30
0.0
 11
-7.505553499465135
 21
0.0
 31
0.0
  0
ARC
  5
28B6
330
28AE
100
AcDbEntity
  8
NEJI
100
AcDbCircle
 10
-6.5
 20
-0.290278291800357
 30
0.0
 40
6.790278291800357
100
AcDbArc
 50
66.13507458395003
 51
90.0
  0
LINE
  5
28B7
330
28AE
100
AcDbEntity
  8
NEJI
100
AcDbLine
 10
-6.499999999999999
 20
6.499999999999999
 30
0.0
 11
-7.505553499465135
 21
5.919443416399231
 31
0.0
  0
LINE
  5
28B8
330
28AE
100
AcDbEntity
  8
NEJI
100
AcDbLine
 10
7.505553499465134
 20
5.919443416399232
 30
0.0
 11
7.505553499465134
 21
0.0
 31
0.0
  0
LINE
  5
28B9
330
28AE
100
AcDbEntity
  8
NEJI
100
AcDbLine
 10
3.752776749732571
 20
5.919443416399232
 30
0.0
 11
3.75277674973257
 21
0.0
 31
0.0
  0
ARC
  5
28BA
330
28AE
100
AcDbEntity
  8
NEJI
100
AcDbCircle
 10
6.5
 20
-0.290278291800357
 30
0.0
 40
6.790278291800357
100
AcDbArc
 50
90.0
 51
113.86492541605
  0
LINE
  5
28BB
330
28AE
100
AcDbEntity
  8
NEJI
100
AcDbLine
 10
6.499999999999998
 20
6.5
 30
0.0
 11
7.505553499465134
 21
5.919443416399232
 31
0.0
  0
ENDBLK
  5
28BC
330
28AE
100
AcDbEntity
  8
0
100
AcDbBlockEnd
  0
BLOCK
  5
368D
330
368C
100
AcDbEntity
  8
0
100
AcDbBlockBegin
  2
NUT08_S2
 70
     0
 10
0.0
 20
0.0
 30
0.0
  3
NUT08_S2
  1

  0
ARC
  5
368E
330
368C
100
AcDbEntity
  8
NEJI
100
AcDbCircle
 10
3.249999999999998
 20
-2.887152135249497
 30
0.0
 40
9.387152135249497
100
AcDbArc
 50
69.74384199958365
 51
110.2561580004164
  0
LINE
  5
368F
330
368C
100
AcDbEntity
  8
NEJI
100
AcDbLine
 10
6.5
 20
0.0
 30
0.0
 11
-6.5
 21
0.0
 31
0.0
  0
LINE
  5
3690
330
368C
100
AcDbEntity
  8
NEJI
100
AcDbLine
 10
6.5
 20
6.499999999999999
 30
0.0
 11
-6.5
 21
6.499999999999998
 31
0.0
  0
LINE
  5
3691
330
368C
100
AcDbEntity
  8
CENTER
100
AcDbLine
 10
0.0
 20
-1.22117484578974
 30
0.0
 11
0.0
 21
7.340244009361525
 31
0.0
  0
LINE
  5
3692
330
368C
100
AcDbEntity
  8
NEJI
100
AcDbLine
 10
0.0
 20
5.919443416399232
 30
0.0
 11
0.0
 21
0.0
 31
0.0
  0
LINE
  5
3693
330
368C
100
AcDbEntity
  8
NEJI
100
AcDbLine
 10
-6.5
 20
6.499999999999998
 30
0.0
 11
-6.5
 21
0.0
 31
0.0
  0
ARC
  5
3694
330
368C
100
AcDbEntity
  8
NEJI
100
AcDbCircle
 10
-3.249999999999999
 20
-2.887152135249497
 30
0.0
 40
9.387152135249497
100
AcDbArc
 50
69.74384199958357
 51
110.2561580004163
  0
LINE
  5
3695
330
368C
100
AcDbEntity
  8
NEJI
100
AcDbLine
 10
6.5
 20
6.499999999999999
 30
0.0
 11
6.5
 21
0.0
 31
0.0
  0
ENDBLK
  5
3696
330
368C
100
AcDbEntity
  8
0
100
AcDbBlockEnd
  0
ENDSEC
  0
SECTION
  2
ENTITIES
  0
DIMENSION
  5
8EF
330
1A
100
AcDbEntity
  8
0
100
AcDbDimension
  2
*D1
 10
323.3452802065867
 20
204.2706320726129
 30
0.0
 11
577.7018141356188
 21
213.7706320726129
 31
0.0
 70
    32
  1
（510）
 71
     5
 42
508.7130678580641
  3
AD-STANDARD
100
AcDbAlignedDimension
 13
832.0583480646508
 23
636.1555159366432
 33
0.0
 14
323.3452802065867
 24
352.1764420861209
 34
0.0
100
AcDbRotatedDimension
1001
ACAD
1000
DSTYLE
1002
{
1070
   287
1070
     1
1070
   287
1070
     1
1070
   287
1070
     1
1070
   287
1070
     1
1070
   287
1070
     1
1070
    40
1040
5.0
1070
   140
1040
2.799999999999999
1070
   271
1070
     3
1070
   272
1070
     8
1070
   289
1070
     1
1002
}
  0
DIMENSION
  5
8F0
330
1A
100
AcDbEntity
  8
0
100
AcDbDimension
  2
*D2
 10
890.0961172299266
 20
739.1555159366419
 30
0.0
 11
880.5961172299266
 21
524.1660165023929
 31
0.0
 70
    32
  1
（437）
 71
     5
 42
429.9789988684985
  3
AD-STANDARD
100
AcDbAlignedDimension
 13
538.3452364199229
 23
309.1765170681435
 33
0.0
 14
731.6601116030234
 24
739.1555159366419
 34
0.0
 50
90.0
100
AcDbRotatedDimension
1001
ACAD
1000
DSTYLE
1002
{
1070
   287
1070
     1
1070
   287
1070
     1
1070
   287
1070
     1
1070
   287
1070
     1
1070
   287
1070
     1
1070
    40
1040
5.0
1070
   140
1040
2.799999999999999
1070
   271
1070
     3
1070
   272
1070
     8
1070
   289
1070
     1
1002
}
  0
LINE
  5
8F7
330
1A
100
AcDbEntity
  8
0
100
AcDbLine
 10
570.8216096357753
 20
343.5555158677305
 30
0.0
 11
750.4083480080899
 21
343.5555159486439
 31
0.0
  0
LINE
  5
8F8
330
1A
100
AcDbEntity
  8
0
100
AcDbLine
 10
599.8638754009111
 20
328.5545745824117
 30
0.0
 11
759.0583480080895
 21
328.5555159511869
 31
0.0
  0
DIMENSION
  5
8F9
330
1A
100
AcDbEntity
  8
0
100
AcDbDimension
  2
*D3
 10
218.9066965330024
 20
413.1764420861154
 30
0.0
 11
209.4066965330024
 21
361.1764795771295
 31
0.0
 70
    32
 71
     5
 42
103.9999250179719
  3
AD-STANDARD
100
AcDbAlignedDimension
 13
358.3453235926836
 23
309.1765170681435
 33
0.0
 14
334.8452802065846
 24
413.1764420861154
 34
0.0
 50
90.0
100
AcDbRotatedDimension
1001
ACAD
1000
DSTYLE
1002
{
1070
   287
1070
     1
1070
   287
1070
     1
1070
   287
1070
     1
1070
   287
1070
     1
1070
   287
1070
     1
1070
    40
1040
5.0
1070
   140
1040
2.799999999999999
1070
   271
1070
     3
1070
   272
1070
     8
1070
   289
1070
     1
1002
}
  0
LINE
  5
8FC
330
1A
100
AcDbEntity
  8
0
100
AcDbLine
 10
369.5453506732438
 20
332.6765349252144
 30
0.0
 11
568.6270523901125
 21
332.6765349252116
 31
0.0
  0
LINE
  5
8FD
330
1A
100
AcDbEntity
  8
0
100
AcDbLine
 10
334.8452802065858
 20
413.1764420861164
 30
0.0
 11
561.8452798060216
 21
413.1764420861318
 31
0.0
  0
LINE
  5
8FE
330
1A
100
AcDbEntity
  8
0
100
AcDbLine
 10
360.0315712873999
 20
332.6765349252046
 30
0.0
 11
555.3452799204205
 21
332.6765349252119
 31
0.0
  0
LINE
  5
8FF
330
1A
100
AcDbEntity
  8
0
100
AcDbLine
 10
388.102530988187
 20
317.6765349252101
 30
0.0
 11
475.0315712874063
 21
317.6765349252101
 31
0.0
  0
LINE
  5
900
330
1A
100
AcDbEntity
  8
0
100
AcDbLine
 10
323.3452802065867
 20
353.1764420861209
 30
0.0
 11
573.3452798060215
 21
353.1764420861246
 31
0.0
  0
DIMENSION
  5
901
330
1A
100
AcDbEntity
  8
0
100
AcDbDimension
  2
*D4
 10
265.7135211098033
 20
413.1764420861164
 30
0.0
 11
256.2135211098032
 21
383.1764420861196
 31
0.0
 70
    32
 71
     5
 42
59.99999999999364
  3
AD-STANDARD
100
AcDbAlignedDimension
 13
323.3452802065867
 23
353.1764420861227
 33
0.0
 14
334.8452802065858
 24
413.1764420861164
 34
0.0
 50
90.0
100
AcDbRotatedDimension
1001
ACAD
1000
DSTYLE
1002
{
1070
   287
1070
     1
1070
   287
1070
     1
1070
   287
1070
     1
1070
   287
1070
     1
1070
   287
1070
     1
1070
    40
1040
5.0
1070
   140
1040
2.799999999999999
1070
   271
1070
     3
1070
   272
1070
     8
1070
   289
1070
     1
1002
}
  0
ARC
  5
902
330
1A
100
AcDbEntity
  8
0
100
AcDbCircle
 10
334.8452802065858
 20
401.6764420861155
 30
0.0
 40
11.5
100
AcDbArc
 50
90.00000000000609
 51
180.0000000000077
  0
ARC
  5
903
330
1A
100
AcDbEntity
  8
0
100
AcDbCircle
 10
341.3452796523743
 20
340.6765349252101
 30
0.0
 40
8.0
100
AcDbArc
 50
180.0
 51
270.0
  0
LINE
  5
907
330
1A
100
AcDbEntity
  8
0
100
AcDbLine
 10
333.3452796523743
 20
353.1764420861211
 30
0.0
 11
333.3452796523743
 21
340.6765349252101
 31
0.0
  0
LINE
  5
909
330
1A
100
AcDbEntity
  8
0
100
AcDbLine
 10
323.3452802065858
 20
401.6764420861145
 30
0.0
 11
323.3452802065867
 21
353.1764420861227
 31
0.0
  0
LINE
  5
90B
330
1A
100
AcDbEntity
  8
0
100
AcDbLine
 10
360.0315712873989
 20
332.6765349252009
 30
0.0
 11
341.3452796523752
 21
332.6765349251991
 31
0.0
  0
ARC
  5
932
330
1A
100
AcDbEntity
  8
0
100
AcDbCircle
 10
573.1511227061068
 20
340.8764861252168
 30
0.0
 40
5.0
100
AcDbArc
 50
185.0000000000001
 51
270.0
  0
ARC
  5
933
330
1A
100
AcDbEntity
  8
0
100
AcDbCircle
 10
568.6270523901125
 20
326.6765349252057
 30
0.0
 40
6.0
100
AcDbArc
 50
2.349097855641584
 51
90.0
  0
ARC
  5
934
330
1A
100
AcDbEntity
  8
0
100
AcDbCircle
 10
561.8452798060216
 20
401.6764420861309
 30
0.0
 40
11.5
100
AcDbArc
 50
359.9999999999984
 51
89.99999999999998
  0
LINE
  5
935
330
1A
100
AcDbEntity
  8
0
100
AcDbLine
 10
545.8507899193891
 20
329.5555158575317
 30
0.0
 11
573.8912207689147
 21
329.5555158698489
 31
0.0
  0
LINE
  5
936
330
1A
100
AcDbEntity
  8
0
100
AcDbLine
 10
567.0559168099428
 20
353.1764420861245
 30
0.0
 11
568.170149215648
 21
340.4407074114786
 31
0.0
  0
LINE
  5
937
330
1A
100
AcDbEntity
  8
0
100
AcDbLine
 10
563.3452799204206
 20
353.1764420861244
 30
0.0
 11
563.3452799204206
 21
340.6765349252119
 31
0.0
  0
ARC
  5
938
330
1A
100
AcDbEntity
  8
0
100
AcDbCircle
 10
555.3452799204205
 20
340.6765349252119
 30
0.0
 40
8.0
100
AcDbArc
 50
270.0
 51
0.0
  0
LINE
  5
939
330
1A
100
AcDbEntity
  8
0
100
AcDbLine
 10
519.0583480160295
 20
329.5555158457619
 30
0.0
 11
530.8396829204585
 21
329.5555158509378
 31
0.0
  0
LINE
  5
93A
330
1A
100
AcDbEntity
  8
0
100
AcDbLine
 10
519.0583480160295
 20
329.5555158457619
 30
0.0
 11
519.0583480160295
 21
332.6765349252123
 31
0.0
  0
LINE
  5
965
330
1A
100
AcDbEntity
  8
0
100
AcDbLine
 10
491.0021340358845
 20
330.3333891747016
 30
0.0
 11
480.6884255368978
 21
320.0196806757167
 31
0.0
  0
ARC
  5
966
330
1A
100
AcDbEntity
  8
0
100
AcDbCircle
 10
496.6589882853751
 20
324.67653492521
 30
0.0
 40
8.0
100
AcDbArc
 50
89.99999999999998
 51
135.0000000000032
  0
ARC
  5
967
330
1A
100
AcDbEntity
  8
0
100
AcDbCircle
 10
475.0315712874063
 20
325.67653492521
 30
0.0
 40
8.0
100
AcDbArc
 50
270.0
 51
314.9999999999938
  0
ARC
  5
968
330
1A
100
AcDbEntity
  8
0
100
AcDbCircle
 10
597.7745918838209
 20
326.6765349252207
 30
0.0
 40
2.0
100
AcDbArc
 50
270.0
 51
358.2418555684471
  0
ARC
  5
969
330
1A
100
AcDbEntity
  8
0
100
AcDbCircle
 10
599.6589914882158
 20
339.1765349252207
 30
0.0
 40
0.5
100
AcDbArc
 50
357.9835241760201
 51
90.0
  0
LINE
  5
96A
330
1A
100
AcDbEntity
  8
0
100
AcDbLine
 10
599.7736503633728
 20
326.6151737377238
 30
0.0
 11
600.158681863262
 21
339.1589414864914
 31
0.0
  0
ARC
  5
96B
330
1A
100
AcDbEntity
  8
0
100
AcDbCircle
 10
573.1511227061068
 20
340.8764861252155
 30
0.0
 40
2.0
100
AcDbArc
 50
184.9999999999999
 51
270.0
  0
LINE
  5
96C
330
1A
100
AcDbEntity
  8
0
100
AcDbLine
 10
570.0673763225723
 20
353.1764420861245
 30
0.0
 11
571.1587333099232
 21
340.7021746397202
 31
0.0
  0
LINE
  5
96D
330
1A
100
AcDbEntity
  8
0
100
AcDbLine
 10
574.6220102214374
 20
326.9224629647545
 30
0.0
 11
574.2546939827106
 21
335.8764861252168
 31
0.0
  0
ARC
  5
96E
330
1A
100
AcDbEntity
  8
0
100
AcDbCircle
 10
576.6337809360893
 20
326.6765349252207
 30
0.0
 40
2.0
100
AcDbArc
 50
182.3490978556428
 51
270.0
  0
LINE
  5
96F
330
1A
100
AcDbEntity
  8
0
100
AcDbLine
 10
574.635461658981
 20
326.5945589120377
 30
0.0
 11
574.6220102214374
 21
326.9224629647545
 31
0.0
  0
ARC
  5
970
330
1A
100
AcDbEntity
  8
0
100
AcDbCircle
 10
574.9486636827128
 20
338.8764861252173
 30
0.0
 40
0.8
100
AcDbArc
 50
90.0
 51
180.0000000001302
  0
LINE
  5
971
330
1A
100
AcDbEntity
  8
0
100
AcDbLine
 10
573.1511227061068
 20
338.8764861252155
 30
0.0
 11
574.1486636827126
 21
338.8764861252159
 31
0.0
  0
LINE
  5
972
330
1A
100
AcDbEntity
  8
0
100
AcDbLine
 10
573.1511227061068
 20
335.8764861252168
 30
0.0
 11
574.2546939827106
 21
335.8764861252173
 31
0.0
  0
LINE
  5
973
330
1A
100
AcDbEntity
  8
0
100
AcDbLine
 10
576.6337809360893
 20
324.6765349252207
 30
0.0
 11
597.7745918838209
 21
324.6765349252207
 31
0.0
  0
LINE
  5
974
330
1A
100
AcDbEntity
  8
0
100
AcDbLine
 10
574.9486636827119
 20
339.6765349252207
 30
0.0
 11
599.6589914882158
 21
339.6765349252207
 31
0.0
  0
LINE
  5
975
330
1A
100
AcDbEntity
  8
0
100
AcDbLine
 10
573.3452798060215
 20
401.6764420861318
 30
0.0
 11
573.3452798060262
 21
353.1764420861255
 31
0.0
  0
ARC
  5
984
330
1A
100
AcDbEntity
  8
0
100
AcDbCircle
 10
757.0583480080895
 20
341.555515951638
 30
0.0
 40
2.0
100
AcDbArc
 50
359.9999999999957
 51
90.00000002581492
  0
LINE
  5
985
330
1A
100
AcDbEntity
  8
0
100
AcDbLine
 10
759.0583480080895
 20
341.555515951638
 30
0.0
 11
759.0583480080886
 21
328.5555159511869
 31
0.0
  0
LINE
  5
986
330
1A
100
AcDbEntity
  8
0
100
AcDbLine
 10
750.408348008089
 20
343.5555159486421
 30
0.0
 11
757.0583480071881
 21
343.555515951638
 31
0.0
  0
LINE
  5
987
330
1A
100
AcDbEntity
  8
0
100
AcDbLine
 10
750.789211170857
 20
318.9713053676816
 30
0.0
 11
754.0583480078384
 21
315.176517068143
 31
0.0
  0
LINE
  5
988
330
1A
100
AcDbEntity
  8
0
100
AcDbLine
 10
754.5583480078384
 20
315.176517068143
 30
0.0
 11
723.5583480078394
 21
315.176517068143
 31
0.0
  0
LINE
  5
989
330
1A
100
AcDbEntity
  8
0
100
AcDbLine
 10
755.0583480078385
 20
311.176517068143
 30
0.0
 11
723.0583480078385
 21
311.176517068143
 31
0.0
  0
LINE
  5
98A
330
1A
100
AcDbEntity
  8
0
100
AcDbLine
 10
753.0583480078385
 20
309.1765170681439
 30
0.0
 11
725.0583480078384
 21
309.176517068143
 31
0.0
  0
LINE
  5
98B
330
1A
100
AcDbEntity
  8
0
100
AcDbLine
 10
738.490607462676
 20
315.176517068143
 30
0.0
 11
738.490607462676
 21
311.176517068143
 31
0.0
  0
LINE
  5
98C
330
1A
100
AcDbEntity
  8
0
100
AcDbLine
 10
736.5492571924151
 20
315.176517068143
 30
0.0
 11
736.5492571924151
 21
311.176517068143
 31
0.0
  0
LINE
  5
98D
330
1A
100
AcDbEntity
  8
0
100
AcDbLine
 10
733.5776015894007
 20
315.176517068143
 30
0.0
 11
733.5776015894007
 21
311.176517068143
 31
0.0
  0
LINE
  5
98E
330
1A
100
AcDbEntity
  8
0
100
AcDbLine
 10
732.5447715481214
 20
315.1765170681421
 30
0.0
 11
732.5447715481214
 21
311.176517068143
 31
0.0
  0
LINE
  5
98F
330
1A
100
AcDbEntity
  8
0
100
AcDbLine
 10
730.8083480078384
 20
315.176517068143
 30
0.0
 11
730.8083480078384
 21
311.176517068143
 31
0.0
  0
LINE
  5
990
330
1A
100
AcDbEntity
  8
0
100
AcDbLine
 10
729.9356285548992
 20
315.176517068143
 30
0.0
 11
729.9356285548992
 21
311.176517068143
 31
0.0
  0
LINE
  5
991
330
1A
100
AcDbEntity
  8
0
100
AcDbLine
 10
728.3559542156336
 20
315.176517068143
 30
0.0
 11
728.3559542156345
 21
311.176517068143
 31
0.0
  0
LINE
  5
992
330
1A
100
AcDbEntity
  8
0
100
AcDbLine
 10
727.7251921774359
 20
315.176517068143
 30
0.0
 11
727.7251921774359
 21
311.176517068143
 31
0.0
  0
LINE
  5
993
330
1A
100
AcDbEntity
  8
0
100
AcDbLine
 10
726.3276015894016
 20
315.176517068143
 30
0.0
 11
726.3276015894016
 21
311.176517068143
 31
0.0
  0
LINE
  5
994
330
1A
100
AcDbEntity
  8
0
100
AcDbLine
 10
735.4385890882412
 20
315.176517068143
 30
0.0
 11
735.4385890882412
 21
311.176517068143
 31
0.0
  0
LINE
  5
995
330
1A
100
AcDbEntity
  8
0
100
AcDbLine
 10
723.8752077971985
 20
315.176517068143
 30
0.0
 11
723.8752077971985
 21
311.176517068143
 31
0.0
  0
LINE
  5
996
330
1A
100
AcDbEntity
  8
0
100
AcDbLine
 10
724.8119388720188
 20
315.1765170681421
 30
0.0
 11
724.8119388720197
 21
311.176517068143
 31
0.0
  0
LINE
  5
997
330
1A
100
AcDbEntity
  8
0
100
AcDbLine
 10
751.7890944262753
 20
315.176517068143
 30
0.0
 11
751.7890944262753
 21
311.176517068143
 31
0.0
  0
LINE
  5
998
330
1A
100
AcDbEntity
  8
0
100
AcDbLine
 10
750.3915038382411
 20
315.176517068143
 30
0.0
 11
750.3915038382411
 21
311.176517068143
 31
0.0
  0
LINE
  5
999
330
1A
100
AcDbEntity
  8
0
100
AcDbLine
 10
749.7607418000434
 20
315.176517068143
 30
0.0
 11
749.7607418000425
 21
311.176517068143
 31
0.0
  0
LINE
  5
99A
330
1A
100
AcDbEntity
  8
0
100
AcDbLine
 10
748.1810674607777
 20
315.176517068143
 30
0.0
 11
748.1810674607777
 21
311.176517068143
 31
0.0
  0
LINE
  5
99B
330
1A
100
AcDbEntity
  8
0
100
AcDbLine
 10
747.3083480078384
 20
315.176517068143
 30
0.0
 11
747.3083480078384
 21
311.176517068143
 31
0.0
  0
LINE
  5
99C
330
1A
100
AcDbEntity
  8
0
100
AcDbLine
 10
745.5719244675556
 20
315.1765170681421
 30
0.0
 11
745.5719244675556
 21
311.176517068143
 31
0.0
  0
LINE
  5
99D
330
1A
100
AcDbEntity
  8
0
100
AcDbLine
 10
744.5390944262762
 20
315.176517068143
 30
0.0
 11
744.5390944262762
 21
311.176517068143
 31
0.0
  0
LINE
  5
99E
330
1A
100
AcDbEntity
  8
0
100
AcDbLine
 10
742.6781069274356
 20
315.176517068143
 30
0.0
 11
742.6781069274356
 21
311.176517068143
 31
0.0
  0
LINE
  5
99F
330
1A
100
AcDbEntity
  8
0
100
AcDbLine
 10
739.626088553001
 20
315.176517068143
 30
0.0
 11
739.626088553001
 21
311.176517068143
 31
0.0
  0
LINE
  5
9A0
330
1A
100
AcDbEntity
  8
0
100
AcDbLine
 10
741.5674388232619
 20
315.176517068143
 30
0.0
 11
741.5674388232619
 21
311.176517068143
 31
0.0
  0
LINE
  5
9A1
330
1A
100
AcDbEntity
  8
0
100
AcDbLine
 10
735.0583480078385
 20
323.176517068143
 30
0.0
 11
732.5583480078385
 21
323.176517068143
 31
0.0
  0
LINE
  5
9A2
330
1A
100
AcDbEntity
  8
0
100
AcDbLine
 10
735.0583480078376
 20
323.176517068143
 30
0.0
 11
735.0583480078376
 21
328.5555159406444
 31
0.0
  0
LINE
  5
9A3
330
1A
100
AcDbEntity
  8
0
100
AcDbLine
 10
743.0583480078385
 20
328.5555159441585
 30
0.0
 11
743.0583480078385
 21
323.176517068143
 31
0.0
  0
LINE
  5
9A4
330
1A
100
AcDbEntity
  8
0
100
AcDbLine
 10
735.7348805078381
 20
323.176517068143
 30
0.0
 11
735.7348805078381
 21
328.5555159409416
 31
0.0
  0
LINE
  5
9A5
330
1A
100
AcDbEntity
  8
0
100
AcDbLine
 10
742.3818155078387
 20
323.176517068143
 30
0.0
 11
742.3818155078388
 21
328.5555159438614
 31
0.0
  0
ARC
  5
9A6
330
1A
100
AcDbEntity
  8
0
100
AcDbCircle
 10
723.5583480078394
 20
314.676517068143
 30
0.0
 40
0.5
100
AcDbArc
 50
89.99999999999998
 51
180.0
  0
ARC
  5
9A7
330
1A
100
AcDbEntity
  8
0
100
AcDbCircle
 10
726.6631210059886
 20
319.7187146863645
 30
0.0
 40
1.0
100
AcDbArc
 50
311.6335393365702
 51
345.9637565320622
  0
ARC
  5
9A8
330
1A
100
AcDbEntity
  8
0
100
AcDbCircle
 10
751.4535750096865
 20
319.7187146863655
 30
0.0
 40
1.0
100
AcDbArc
 50
194.0362434679226
 51
228.3664606634298
  0
ARC
  5
9A9
330
1A
100
AcDbEntity
  8
0
100
AcDbCircle
 10
748.7775716014348
 20
322.176517068143
 30
0.0
 40
1.0
100
AcDbArc
 50
14.03624346792646
 51
89.99999999999998
  0
ARC
  5
9AA
330
1A
100
AcDbEntity
  8
0
100
AcDbCircle
 10
729.3391244142431
 20
322.176517068143
 30
0.0
 40
1.0
100
AcDbArc
 50
89.99999999999998
 51
165.9637565320735
  0
ARC
  5
9AB
330
1A
100
AcDbEntity
  8
0
100
AcDbCircle
 10
725.0583480078384
 20
310.176517068143
 30
0.0
 40
1.0
100
AcDbArc
 50
180.0
 51
270.0000000000017
  0
LINE
  5
9AC
330
1A
100
AcDbEntity
  8
0
100
AcDbLine
 10
724.0583480078385
 20
311.176517068143
 30
0.0
 11
724.0583480078385
 21
310.176517068143
 31
0.0
  0
LINE
  5
9AD
330
1A
100
AcDbEntity
  8
0
100
AcDbLine
 10
727.3274848448181
 20
318.9713053676807
 30
0.0
 11
724.0583480078385
 21
315.176517068143
 31
0.0
  0
LINE
  5
9AE
330
1A
100
AcDbEntity
  8
0
100
AcDbLine
 10
728.3689819140981
 20
322.419052693179
 30
0.0
 11
727.6332635061335
 21
319.4761790613276
 31
0.0
  0
LINE
  5
9AF
330
1A
100
AcDbEntity
  8
0
100
AcDbLine
 10
749.7477141015797
 20
322.419052693179
 30
0.0
 11
750.4834325095417
 21
319.4761790613295
 31
0.0
  0
LINE
  5
9B0
330
1A
100
AcDbEntity
  8
0
100
AcDbLine
 10
750.5583480078375
 20
319.176517068143
 30
0.0
 11
727.5583480078385
 21
319.176517068143
 31
0.0
  0
LINE
  5
9B1
330
1A
100
AcDbEntity
  8
0
100
AcDbLine
 10
723.0583480078394
 20
314.676517068143
 30
0.0
 11
723.0583480078394
 21
311.176517068143
 31
0.0
  0
LINE
  5
9B2
330
1A
100
AcDbEntity
  8
0
100
AcDbLine
 10
748.7775716014348
 20
323.176517068143
 30
0.0
 11
729.3391244142431
 21
323.176517068143
 31
0.0
  0
LINE
  5
9B3
330
1A
100
AcDbEntity
  8
0
100
AcDbLine
 10
753.3047571436582
 20
315.1765170681421
 30
0.0
 11
753.3047571436573
 21
311.176517068143
 31
0.0
  0
LINE
  5
9B4
330
1A
100
AcDbEntity
  8
0
100
AcDbLine
 10
754.2414882184784
 20
315.176517068143
 30
0.0
 11
754.2414882184784
 21
311.176517068143
 31
0.0
  0
ARC
  5
9B5
330
1A
100
AcDbEntity
  8
0
100
AcDbCircle
 10
754.5583480078384
 20
314.676517068143
 30
0.0
 40
0.5
100
AcDbArc
 50
0.0
 51
89.99999999999998
  0
ARC
  5
9B6
330
1A
100
AcDbEntity
  8
0
100
AcDbCircle
 10
753.0583480078385
 20
310.1765170681439
 30
0.0
 40
1.0
100
AcDbArc
 50
270.0
 51
0.0
  0
LINE
  5
9B7
330
1A
100
AcDbEntity
  8
0
100
AcDbLine
 10
754.0583480078384
 20
311.176517068143
 30
0.0
 11
754.0583480078384
 21
310.1765170681439
 31
0.0
  0
LINE
  5
9B8
330
1A
100
AcDbEntity
  8
0
100
AcDbLine
 10
755.0583480078385
 20
314.676517068143
 30
0.0
 11
755.0583480078385
 21
311.176517068143
 31
0.0
  0
LINE
  5
9B9
330
1A
100
AcDbEntity
  8
0
100
AcDbLine
 10
707.7083481212138
 20
518.5555159294053
 30
0.0
 11
707.7083480080901
 21
343.5555159294044
 31
0.0
  0
LINE
  5
9BA
330
1A
100
AcDbEntity
  8
0
100
AcDbLine
 10
750.408348121214
 20
518.555515943881
 30
0.0
 11
750.408348008089
 21
343.5555159486421
 31
0.0
  0
LINE
  5
A97
330
1A
100
AcDbEntity
  8
0
100
AcDbLine
 10
-144.680007414508
 20
413.1764420861086
 30
0.0
 11
82.31999218492774
 21
413.1764420861241
 31
0.0
  0
LINE
  5
A98
330
1A
100
AcDbEntity
  8
0
100
AcDbLine
 10
29.06274140332738
 20
317.6765349252023
 30
0.0
 11
-57.86629889589182
 21
317.6765349252023
 31
0.0
  0
LINE
  5
A99
330
1A
100
AcDbEntity
  8
0
100
AcDbLine
 10
-156.1800074145071
 20
353.1764420861132
 30
0.0
 11
93.81999218492774
 21
353.1764420861168
 31
0.0
  0
LINE
  5
A9A
330
1A
100
AcDbEntity
  8
0
100
AcDbLine
 10
57.13370110411455
 20
332.6765349251969
 30
0.0
 11
-138.1800075289061
 21
332.6765349252042
 31
0.0
  0
LINE
  5
AA0
330
1A
100
AcDbEntity
  8
0
100
AcDbLine
 10
93.81999218492774
 20
401.6764420861241
 30
0.0
 11
93.81999218493229
 21
353.1764420861177
 31
0.0
  0
LINE
  5
AB8
330
1A
100
AcDbEntity
  8
0
100
AcDbLine
 10
57.13370110411545
 20
332.6765349251932
 30
0.0
 11
75.81999273913919
 21
332.6765349251914
 31
0.0
  0
ARC
  5
AB9
330
1A
100
AcDbEntity
  8
0
100
AcDbCircle
 10
75.81999273914011
 20
340.6765349252023
 30
0.0
 40
8.0
100
AcDbArc
 50
270.0
 51
0.0
  0
LINE
  5
ABA
330
1A
100
AcDbEntity
  8
0
100
AcDbLine
 10
83.81999273914017
 20
353.1764420861167
 30
0.0
 11
83.81999273914017
 21
340.6765349252023
 31
0.0
  0
ARC
  5
AD0
330
1A
100
AcDbEntity
  8
0
100
AcDbCircle
 10
82.31999218492768
 20
401.6764420861232
 30
0.0
 40
11.5
100
AcDbArc
 50
359.9999999999984
 51
90.0
  0
LINE
  5
AD1
330
1A
100
AcDbEntity
  8
0
100
AcDbLine
 10
-9.830031802009681
 20
413.1764420861178
 30
-0.0000000000000071
 11
-9.830031802011362
 21
518.5555159294053
 31
-0.0000000000000071
  0
LINE
  5
AE3
330
1A
100
AcDbEntity
  8
0
100
AcDbLine
 10
-156.180007414508
 20
401.6764420861067
 30
0.0
 11
-156.1800074145071
 21
353.176442086115
 31
0.0
  0
LINE
  5
AE6
330
1A
100
AcDbEntity
  8
0
100
AcDbLine
 10
-73.83686164437
 20
330.3333891746938
 30
0.0
 11
-63.52315314538333
 21
320.019680675709
 31
0.0
  0
LINE
  5
AFB
330
1A
100
AcDbEntity
  8
0
100
AcDbLine
 10
-101.893075624515
 20
328.5555158457542
 30
0.0
 11
-114.6799640284103
 21
328.5555158513731
 31
0.0
  0
LINE
  5
AFE
330
1A
100
AcDbEntity
  8
0
100
AcDbLine
 10
-101.893075624515
 20
328.5555158457542
 30
0.0
 11
-101.893075624515
 21
332.6765349252033
 31
0.0
  0
ARC
  5
AFF
330
1A
100
AcDbEntity
  8
0
100
AcDbCircle
 10
-79.49371589386061
 20
324.6765349252023
 30
0.0
 40
8.0
100
AcDbArc
 50
44.9999999999968
 51
90.00000000000003
  0
ARC
  5
B02
330
1A
100
AcDbEntity
  8
0
100
AcDbCircle
 10
-138.1800075289062
 20
340.6765349252041
 30
0.0
 40
8.0
100
AcDbArc
 50
180.0
 51
270.0
  0
LINE
  5
B03
330
1A
100
AcDbEntity
  8
0
100
AcDbLine
 10
-146.1800075289061
 20
353.1764420861133
 30
0.0
 11
-146.1800075289061
 21
340.6765349252041
 31
0.0
  0
ARC
  5
B11
330
1A
100
AcDbEntity
  8
0
100
AcDbCircle
 10
-57.86629889589182
 20
325.6765349252023
 30
0.0
 40
8.0
100
AcDbArc
 50
225.0000000000063
 51
270.0
  0
LINE
  5
B18
330
1A
100
AcDbEntity
  8
0
100
AcDbLine
 10
-52.53003181150124
 20
413.1764420861149
 30
-0.0000000000000071
 11
-52.53003179943599
 21
518.5555159294053
 31
-0.0000000000000071
  0
ARC
  5
B19
330
1A
100
AcDbEntity
  8
0
100
AcDbCircle
 10
-144.6800074145081
 20
401.6764420861077
 30
0.0
 40
11.5
100
AcDbArc
 50
90.00000000000609
 51
180.0000000000077
  0
DIMENSION
  5
EB5
330
1A
100
AcDbEntity
  8
0
100
AcDbDimension
  2
*D5
 10
538.3452364199237
 20
254.2776047495281
 30
0.0
 11
448.3452800063041
 21
263.7776047495281
 31
0.0
 70
    32
 71
     5
 42
179.9999128272391
  3
AD-STANDARD
100
AcDbAlignedDimension
 13
358.3453235926846
 23
311.6765349251991
 33
0.0
 14
538.3452364199237
 24
311.6765349251991
 34
0.0
100
AcDbRotatedDimension
1001
ACAD
1000
DSTYLE
1002
{
1070
   287
1070
     1
1070
   287
1070
     1
1070
   287
1070
     1
1070
   287
1070
     1
1070
   287
1070
     1
1070
    40
1040
5.0
1070
   140
1040
2.799999999999999
1070
   271
1070
     3
1070
   272
1070
     8
1070
   289
1070
     1
1002
}
  0
DIMENSION
  5
EF9
330
1A
100
AcDbEntity
  8
0
100
AcDbDimension
  2
*D6
 10
323.3452802065867
 20
254.2776047495281
 30
0.0
 11
340.8453018996356
 21
263.7776047495281
 31
0.0
 70
    32
 71
     5
 42
35.00004338609784
  3
AD-STANDARD
100
AcDbAlignedDimension
 13
358.3453235926846
 23
311.6765349251991
 33
0.0
 14
323.3452802065867
 24
352.1764420861209
 34
0.0
100
AcDbRotatedDimension
1001
ACAD
1000
DSTYLE
1002
{
1070
   287
1070
     1
1070
   287
1070
     1
1070
   287
1070
     1
1070
   287
1070
     1
1070
   287
1070
     1
1070
    40
1040
5.0
1070
   140
1040
2.799999999999999
1070
   271
1070
     3
1070
   272
1070
     8
1070
   289
1070
     1
1002
}
  0
DIMENSION
  5
F20
330
1A
100
AcDbEntity
  8
0
100
AcDbDimension
  2
*D7
 10
58.8199487988299
 20
254.2776047495281
 30
0.0
 11
-31.18000761478976
 21
263.7776047495281
 31
0.0
 70
    32
 71
     5
 42
179.9999128272393
  3
AD-STANDARD
100
AcDbAlignedDimension
 13
-121.1799640284094
 23
311.6765349251914
 33
0.0
 14
58.8199487988299
 24
311.6765349251914
 34
0.0
 50
180.0
100
AcDbRotatedDimension
1001
ACAD
1000
DSTYLE
1002
{
1070
   287
1070
     1
1070
   287
1070
     1
1070
   287
1070
     1
1070
   287
1070
     1
1070
   287
1070
     1
1070
    40
1040
5.0
1070
   140
1040
2.799999999999999
1070
   271
1070
     3
1070
   272
1070
     8
1070
   289
1070
     1
1002
}
  0
DIMENSION
  5
F2D
330
1A
100
AcDbEntity
  8
0
100
AcDbDimension
  2
*D8
 10
739.3452364199236
 20
254.2776047495281
 30
0.0
 11
638.8452364199237
 21
263.7776047495281
 31
0.0
 70
    32
 71
     5
 42
201.0
  3
AD-STANDARD
100
AcDbAlignedDimension
 13
538.3452364199237
 23
311.6765349251991
 33
0.0
 14
739.3452364199236
 24
311.6765349251991
 34
0.0
100
AcDbRotatedDimension
1001
ACAD
1000
DSTYLE
1002
{
1070
   287
1070
     1
1070
   287
1070
     1
1070
   287
1070
     1
1070
   287
1070
     1
1070
   287
1070
     1
1070
    40
1040
5.0
1070
   140
1040
2.799999999999999
1070
   271
1070
     3
1070
   272
1070
     8
1070
   289
1070
     1
1002
}
  0
DIMENSION
  5
F47
330
1A
100
AcDbEntity
  8
0
100
AcDbDimension
  2
*D9
 10
573.3452798060215
 20
463.119934275076
 30
0.0
 11
448.3452800063036
 21
472.619934275076
 31
0.0
 70
    32
 71
     5
 42
249.9999995994358
  3
AD-STANDARD
100
AcDbAlignedDimension
 13
323.3452802065858
 23
401.6764420861139
 33
0.0
 14
573.3452798060215
 24
401.6764420861306
 34
0.0
100
AcDbRotatedDimension
1001
ACAD
1000
DSTYLE
1002
{
1070
   287
1070
     1
1070
   287
1070
     1
1070
   287
1070
     1
1070
   287
1070
     1
1070
   287
1070
     1
1070
    40
1040
5.0
1070
   140
1040
2.799999999999999
1070
   271
1070
     3
1070
   272
1070
     8
1070
   289
1070
     1
1002
}
  0
DIMENSION
  5
FEE
330
1A
100
AcDbEntity
  8
0
100
AcDbDimension
  2
*D10
 10
93.81999218493229
 20
461.692463664036
 30
0.0
 11
-31.18000761478743
 21
461.692463664036
 31
0.0
 70
   160
 71
     5
 42
249.9999995994394
  3
AD-STANDARD
100
AcDbAlignedDimension
 13
-156.1800074145071
 23
352.176442086115
 33
0.0
 14
93.81999218493229
 24
352.1764420861385
 34
0.0
100
AcDbRotatedDimension
1001
ACAD
1000
DSTYLE
1002
{
1070
   287
1070
     1
1070
   287
1070
     1
1070
   287
1070
     1
1070
   287
1070
     1
1070
   287
1070
     1
1070
    40
1040
5.0
1070
   140
1040
2.799999999999999
1070
   271
1070
     3
1070
   272
1070
     8
1070
   289
1070
     1
1002
}
  0
LINE
  5
1574
330
1A
100
AcDbEntity
  8
0
100
AcDbLine
 10
707.7083480080901
 20
516.1555159294054
 30
0.0
 11
750.4083481212139
 21
516.155515943881
 31
0.0
  0
LINE
  5
1575
330
1A
100
AcDbEntity
  8
0
100
AcDbLine
 10
-11.18005598922207
 20
516.1555159294054
 30
0.0
 11
-51.18005598664672
 21
516.1555159294054
 31
0.0
  0
LINE
  5
1D87
330
1A
100
AcDbEntity
  8
0
 48
0.25
100
AcDbLine
 10
-101.6397148034999
 20
519.7555159294048
 30
0.0
 11
-31.1800559879344
 21
519.7555159294048
 31
0.0
  0
LINE
  5
1D88
330
1A
100
AcDbEntity
  8
0
 48
0.25
100
AcDbLine
 10
-129.580055987934
 20
517.3555159294052
 30
0.0
 11
-31.1800559879344
 21
517.3555159294052
 31
0.0
  0
LINE
  5
1D89
330
1A
100
AcDbEntity
  8
0
 48
0.25
100
AcDbLine
 10
-129.5800559879348
 20
516.1555159294054
 30
0.0
 11
-31.1800559879344
 21
516.1555159294054
 31
0.0
  0
LINE
  5
1D8A
330
1A
100
AcDbEntity
  8
0
100
AcDbLine
 10
-84.18005598791394
 20
575.1555159294067
 30
0.0
 11
-71.18005598791393
 21
575.1555159294067
 31
0.0
  0
LINE
  5
1D8B
330
1A
100
AcDbEntity
  8
0
100
AcDbLine
 10
-85.18005598791393
 20
576.1555159294068
 30
0.0
 11
-72.18005598791393
 21
576.1555159294068
 31
0.0
  0
LINE
  5
1D8C
330
1A
100
AcDbEntity
  8
0
100
AcDbLine
 10
-72.18005598791393
 20
591.1555159294067
 30
0.0
 11
-85.18005598791393
 21
591.1555159294067
 31
0.0
  0
LINE
  5
1D8D
330
1A
100
AcDbEntity
  8
0
100
AcDbLine
 10
-70.68005598793212
 20
612.6555159294067
 30
0.0
 11
-85.68005598793211
 21
612.6555159294067
 31
0.0
  0
LINE
  5
1D8E
330
1A
100
AcDbEntity
  8
0
100
AcDbLine
 10
-85.68005598793211
 20
600.6555159294067
 30
0.0
 11
-70.68005598793212
 21
600.6555159294067
 31
0.0
  0
CIRCLE
  5
1D93
330
1A
100
AcDbEntity
  8
0
100
AcDbCircle
 10
-77.9800559879348
 20
690.7555159294046
 30
0.0
 40
3.099999899999999
  0
CIRCLE
  5
1D94
330
1A
100
AcDbEntity
  8
0
100
AcDbCircle
 10
-77.9800559879348
 20
690.7555159294046
 30
0.0
 40
4.0
  0
DIMENSION
  5
1D95
330
1A
100
AcDbEntity
  8
0
 48
0.25
100
AcDbDimension
  2
*D13
 10
-130.6800559879228
 20
785.4418414964698
 30
0.0
 11
-28.19447367572138
 21
785.4418414964698
 31
0.0
 70
   160
 71
     5
 42
198.9999999999882
  3
AD-STANDARD
100
AcDbAlignedDimension
 13
68.31994401206538
 23
738.3555159294045
 33
0.0
 14
-130.6800559879228
 24
738.355515929404
 34
0.0
100
AcDbRotatedDimension
1001
ACAD
1000
DSTYLE
1002
{
1070
   287
1070
     1
1070
   287
1070
     1
1070
   287
1070
     1
1070
   287
1070
     1
1070
   287
1070
     1
1070
    40
1040
5.0
1070
   140
1040
2.799999999999999
1070
   271
1070
     3
1070
   272
1070
     8
1070
   289
1070
     1
1002
}
  0
LINE
  5
1D96
330
1A
100
AcDbEntity
  8
0
 48
0.1
100
AcDbLine
 10
-129.880055987923
 20
723.1555159294043
 30
0.0
 11
67.5199440120652
 21
723.1555159294043
 31
0.0
  0
LINE
  5
1D97
330
1A
100
AcDbEntity
  8
0
 48
0.1
100
AcDbLine
 10
-129.880055987923
 20
739.1555159294043
 30
0.0
 11
67.5199440120652
 21
739.1555159294043
 31
0.0
  0
LINE
  5
1D99
330
1A
100
AcDbEntity
  8
0
100
AcDbLine
 10
-95.6800559879319
 20
624.1555159294051
 30
0.0
 11
33.31994401206629
 21
624.155515929407
 31
0.0
  0
LINE
  5
1D9A
330
1A
100
AcDbEntity
  8
0
100
AcDbLine
 10
-95.6800559879319
 20
625.1555159294051
 30
0.0
 11
33.31994401206629
 21
625.155515929407
 31
0.0
  0
LINE
  5
1D9B
330
1A
100
AcDbEntity
  8
0
100
AcDbLine
 10
-95.6800559879319
 20
640.1555159294051
 30
0.0
 11
33.31994401206811
 21
640.1555159294051
 31
0.0
  0
LINE
  5
1D9C
330
1A
100
AcDbEntity
  8
0
 48
0.1
100
AcDbLine
 10
-89.68005598793189
 20
706.4555159294044
 30
0.0
 11
27.31994401206538
 21
706.4555159294044
 31
0.0
  0
LINE
  5
1D9D
330
1A
100
AcDbEntity
  8
0
 48
0.1
100
AcDbLine
 10
-89.68005598793189
 20
708.4555159294044
 30
0.0
 11
27.31994401206538
 21
708.4555159294044
 31
0.0
  0
LINE
  5
1D9E
330
1A
100
AcDbEntity
  8
0
100
AcDbLine
 10
-89.68005598793144
 20
641.1555159294051
 30
0.0
 11
27.31994401206538
 21
641.155515929407
 31
0.0
  0
LINE
  5
1D9F
330
1A
100
AcDbEntity
  8
0
100
AcDbLine
 10
-89.38005598793102
 20
641.4555159294045
 30
0.0
 11
27.01994401206565
 21
641.4555159294064
 31
0.0
  0
LINE
  5
1DA0
330
1A
100
AcDbEntity
  8
0
 48
0.1
100
AcDbLine
 10
-89.38005598793195
 20
706.1555159294043
 30
0.0
 11
27.01994401206588
 21
706.1555159294039
 31
0.0
  0
LINE
  5
1DA1
330
1A
100
AcDbEntity
  8
0
 48
0.25
100
AcDbLine
 10
-95.68005598793144
 20
625.1555159294049
 30
0.0
 11
33.31994401206856
 21
625.1555159294049
 31
0.0000000000000137
  0
LINE
  5
1DA2
330
1A
100
AcDbEntity
  8
0
 48
0.25
100
AcDbLine
 10
-95.6800559879319
 20
640.1555159294051
 30
0.0
 11
33.31994401206856
 21
640.1555159294051
 31
0.0000000000000137
  0
LINE
  5
1DA3
330
1A
100
AcDbEntity
  8
0
 48
0.25
100
AcDbLine
 10
-129.8800559879381
 20
549.1555159294074
 30
0.0
 11
67.51994401206565
 21
549.155515929406
 31
0.0
  0
LINE
  5
1DA4
330
1A
100
AcDbEntity
  8
0
 48
0.25
100
AcDbLine
 10
-129.8800559879381
 20
533.1555159294074
 30
0.0
 11
67.51994401206565
 21
533.1555159294061
 31
0.0
  0
LINE
  5
1DA5
330
1A
100
AcDbEntity
  8
0
100
AcDbLine
 10
-89.68005598793189
 20
564.1555159294069
 30
0.0
 11
27.31994401206538
 21
564.1555159294069
 31
0.0
  0
LINE
  5
1DA6
330
1A
100
AcDbEntity
  8
0
 48
0.25
100
AcDbLine
 10
-89.68005598793189
 20
566.155515929407
 30
0.0
 11
27.31994401206538
 21
566.155515929406
 31
0.0
  0
LINE
  5
1DA8
330
1A
100
AcDbEntity
  8
0
 48
0.25
100
AcDbLine
 10
-135.1800559879344
 20
608.8290376266519
 30
0.0
 11
-135.1800559879344
 21
543.1555159294053
 31
0.0
  0
LINE
  5
1DA9
330
1A
100
AcDbEntity
  8
0
 48
0.25
100
AcDbLine
 10
-137.580055987934
 20
656.1555159294044
 30
0.0
 11
-137.580055987934
 21
525.3555159294052
 31
0.0
  0
LINE
  5
1DAA
330
1A
100
AcDbEntity
  8
0
 48
0.25
100
AcDbLine
 10
-135.1800559879344
 20
648.7760409266781
 30
0.0
 11
-135.1800559879344
 21
526.2525722042526
 31
0.0
  0
LINE
  5
1DAB
330
1A
100
AcDbEntity
  8
0
 48
0.25
100
AcDbLine
 10
-138.7800559879347
 20
656.1555159294044
 30
0.0
 11
-138.7800559879347
 21
525.3555159294054
 31
0.0
  0
LINE
  5
1DAC
330
1A
100
AcDbEntity
  8
0
 48
0.25
100
AcDbLine
 10
-97.68005598793189
 20
622.1555159294052
 30
0.0
 11
-97.68005598793189
 21
574.155515929407
 31
0.0
  0
LINE
  5
1DAD
330
1A
100
AcDbEntity
  8
0
 48
0.25
100
AcDbLine
 10
-99.6800559879319
 20
698.4555159294044
 30
0.0
 11
-99.6800559879319
 21
574.155515929407
 31
0.0
  0
LINE
  5
1DAF
330
1A
100
AcDbEntity
  8
0
100
AcDbLine
 10
-130.6800559879228
 20
738.355515929404
 30
0.0
 11
-130.6800559879382
 21
533.9555159294071
 31
0.0
  0
LINE
  5
1DB0
330
1A
100
AcDbEntity
  8
0
 48
0.25
100
AcDbLine
 10
-128.6829997130866
 20
519.7555159294048
 30
0.0
 11
-101.6397148034999
 21
519.7555159294048
 31
0.0
  0
LINE
  5
1DB1
330
1A
100
AcDbEntity
  8
0
 48
10.0
100
AcDbLine
 10
-129.5800559879344
 20
519.7555159294049
 30
0.0
 11
-128.6829997130867
 21
519.7555159294049
 31
0.0
  0
ARC
  5
1DB2
330
1A
100
AcDbEntity
  8
0
 48
0.25
100
AcDbCircle
 10
-119.6383017323856
 20
517.7555159294048
 30
0.0
 40
2.0
100
AcDbArc
 50
90.0
 51
149.9999999999983
  0
LINE
  5
1DB3
330
1A
100
AcDbEntity
  8
0
 48
0.25
100
AcDbLine
 10
-122.1812797434173
 20
517.3509488117685
 30
0.0
 11
-121.3703525399547
 21
518.7555159294048
 31
0.0
  0
LINE
  5
1DB4
330
1A
100
AcDbEntity
  8
0
 48
0.25
100
AcDbLine
 10
-137.580055987934
 20
528.6525722042522
 30
0.0
 11
-126.2829997130866
 21
517.3555159294048
 31
0.0
  0
ARC
  5
1DB5
330
1A
100
AcDbEntity
  8
0
 48
10.0
100
AcDbCircle
 10
-129.5800559879344
 20
525.355515929405
 30
0.0
 40
5.599999999999999
100
AcDbArc
 50
180.0
 51
269.9999999999998
  0
LINE
  5
1DB6
330
1A
100
AcDbEntity
  8
0
 48
10.0
100
AcDbLine
 10
-135.1800559879344
 20
526.2525722042526
 30
0.0
 11
-135.1800559879344
 21
525.355515929405
 31
0.0
  0
LINE
  5
1DB7
330
1A
100
AcDbEntity
  8
0
 48
10.0
100
AcDbLine
 10
-138.7800559879347
 20
528.1555159294052
 30
0.0
 11
-126.7800559879347
 21
516.1555159294052
 31
0.0
  0
ARC
  5
1DB8
330
1A
100
AcDbEntity
  8
0
 48
0.25
100
AcDbCircle
 10
-129.5800559879347
 20
525.3555159294053
 30
0.0
 40
9.199999999999999
100
AcDbArc
 50
180.0
 51
270.0
  0
ARC
  5
1DB9
330
1A
100
AcDbEntity
  8
0
 48
0.25
100
AcDbCircle
 10
-129.580055987934
 20
525.3555159294051
 30
0.0
 40
8.0
100
AcDbArc
 50
180.0
 51
270.0
  0
ARC
  5
1DBA
330
1A
100
AcDbEntity
  8
0
 48
0.25
100
AcDbCircle
 10
-107.2218102434831
 20
517.7555159294048
 30
0.0
 40
2.0
100
AcDbArc
 50
30.00000000000165
 51
90.0
  0
LINE
  5
1DBB
330
1A
100
AcDbEntity
  8
0
 48
0.25
100
AcDbLine
 10
-104.6788322324515
 20
517.3509488117685
 30
0.0
 11
-105.4897594359141
 21
518.7555159294048
 31
0.0
  0
ARC
  5
1DBC
330
1A
100
AcDbEntity
  8
0
100
AcDbCircle
 10
-84.18005598791394
 20
576.1555159294068
 30
0.0
 40
1.0
100
AcDbArc
 50
180.0
 51
270.0
  0
ARC
  5
1DBD
330
1A
100
AcDbEntity
  8
0
100
AcDbCircle
 10
-85.18005598791393
 20
577.1555159294067
 30
0.0
 40
1.0
100
AcDbArc
 50
180.0
 51
270.0
  0
ARC
  5
1DBE
330
1A
100
AcDbEntity
  8
0
100
AcDbCircle
 10
-85.18005598791393
 20
590.1555159294067
 30
0.0
 40
1.0
100
AcDbArc
 50
90.0
 51
180.0
  0
LINE
  5
1DBF
330
1A
100
AcDbEntity
  8
0
100
AcDbLine
 10
-86.18005598791393
 20
590.1555159294067
 30
0.0
 11
-86.18005598791393
 21
577.1555159294067
 31
0.0
  0
ARC
  5
1DC0
330
1A
100
AcDbEntity
  8
0
 48
0.25
100
AcDbCircle
 10
-129.8800559879381
 20
533.9555159294071
 30
0.0
 40
0.8
100
AcDbArc
 50
179.9999999999956
 51
269.9999999999998
  0
ARC
  5
1DC1
330
1A
100
AcDbEntity
  8
0
 48
0.25
100
AcDbCircle
 10
-89.68005598793189
 20
574.155515929407
 30
0.0
 40
10.0
100
AcDbArc
 50
180.0
 51
270.0
  0
ARC
  5
1DC2
330
1A
100
AcDbEntity
  8
0
 48
0.25
100
AcDbCircle
 10
-89.68005598793189
 20
574.155515929407
 30
0.0
 40
8.0
100
AcDbArc
 50
180.0
 51
269.9999999999998
  0
LINE
  5
1DC3
330
1A
100
AcDbEntity
  8
0
 48
0.5
100
AcDbLine
 10
-138.7800559879347
 20
628.1555159294056
 30
0.0
 11
-141.9800559879338
 21
628.1555159294056
 31
0.0
  0
LINE
  5
1DC4
330
1A
100
AcDbEntity
  8
0
 48
0.5
100
AcDbLine
 10
-138.7800559879347
 20
644.1555159294063
 30
0.0
 11
-141.9800559879338
 21
644.1555159294056
 31
0.0
  0
LINE
  5
1DC5
330
1A
100
AcDbEntity
  8
0
100
AcDbLine
 10
-153.9800559879334
 20
642.6097415319881
 30
0.0
 11
-141.9800559879343
 21
642.6097415319872
 31
0.0
  0
LINE
  5
1DC6
330
1A
100
AcDbEntity
  8
0
100
AcDbLine
 10
-153.9800559879339
 20
629.6325926318394
 30
0.0
 11
-141.9800559879343
 21
629.6325926318394
 31
0.0
  0
LINE
  5
1DC7
330
1A
100
AcDbEntity
  8
0
100
AcDbLine
 10
-148.9800559879339
 20
653.5975208683538
 30
0.0
 11
-141.9800559879347
 21
653.5975208683538
 31
0.0
  0
LINE
  5
1DC8
330
1A
100
AcDbEntity
  8
0
100
AcDbLine
 10
-148.9800559879339
 20
618.7135109904582
 30
0.0
 11
-141.9800559879347
 21
618.7135109904582
 31
0.0
  0
ARC
  5
1DC9
330
1A
100
AcDbEntity
  8
0
100
AcDbCircle
 10
-148.9800559879339
 20
648.5975208683538
 30
0.0
 40
5.0
100
AcDbArc
 50
89.99999999999998
 51
180.0
  0
LINE
  5
1DCA
330
1A
100
AcDbEntity
  8
0
100
AcDbLine
 10
-153.9800559879339
 20
636.1555159294056
 30
0.0
 11
-153.9800559879339
 21
648.5975208683538
 31
0.0
  0
ARC
  5
1DCB
330
1A
100
AcDbEntity
  8
0
100
AcDbCircle
 10
-148.9800559879339
 20
623.7135109904583
 30
0.0
 40
5.0
100
AcDbArc
 50
180.0
 51
270.0
  0
LINE
  5
1DCC
330
1A
100
AcDbEntity
  8
0
100
AcDbLine
 10
-153.9800559879339
 20
636.1555159294056
 30
0.0
 11
-153.9800559879339
 21
623.7135109904583
 31
0.0
  0
LINE
  5
1DCD
330
1A
100
AcDbEntity
  8
0
100
AcDbLine
 10
-141.9800559879347
 20
636.1555159294056
 30
0.0
 11
-141.9800559879347
 21
653.5975208683538
 31
0.0
  0
LINE
  5
1DCE
330
1A
100
AcDbEntity
  8
0
100
AcDbLine
 10
-141.9800559879347
 20
636.1555159294056
 30
0.0
 11
-141.9800559879347
 21
618.7135109904582
 31
0.0
  0
ARC
  5
1DCF
330
1A
100
AcDbEntity
  8
0
 48
0.25
100
AcDbCircle
 10
-137.1800559879344
 20
648.7760409266781
 30
0.0
 40
2.0
100
AcDbArc
 50
0.000000000000007
 51
60.00000000000034
  0
LINE
  5
1DD0
330
1A
100
AcDbEntity
  8
0
 48
0.25
100
AcDbLine
 10
-137.580055987934
 20
651.3163821111126
 30
0.0
 11
-136.1800559879344
 21
650.5080917342471
 31
0.0
  0
LINE
  5
1DD1
330
1A
100
AcDbEntity
  8
0
 48
0.25
100
AcDbLine
 10
-138.7800559879347
 20
656.1555159294053
 30
0.0
 11
-137.580055987934
 21
656.1555159294053
 31
0.0
  0
ARC
  5
1DD2
330
1A
100
AcDbEntity
  8
0
 48
0.25
100
AcDbCircle
 10
-95.68005598793144
 20
627.1555159294049
 30
0.0000000000000438
 40
2.0
100
AcDbArc
 50
180.0
 51
270.0
  0
ARC
  5
1DD3
330
1A
100
AcDbEntity
  8
0
100
AcDbCircle
 10
-85.68005598793211
 20
612.1555159294067
 30
0.0
 40
0.5
100
AcDbArc
 50
90.0
 51
180.0
  0
LINE
  5
1DD4
330
1A
100
AcDbEntity
  8
0
100
AcDbLine
 10
-86.18005598793212
 20
612.1555159294067
 30
0.0
 11
-86.18005598793212
 21
601.1555159294068
 31
0.0
  0
ARC
  5
1DD5
330
1A
100
AcDbEntity
  8
0
100
AcDbCircle
 10
-85.68005598793211
 20
601.1555159294068
 30
0.0
 40
0.5
100
AcDbArc
 50
180.0
 51
270.0
  0
ARC
  5
1DD6
330
1A
100
AcDbEntity
  8
0
 48
0.1
100
AcDbCircle
 10
-129.880055987923
 20
738.3555159294045
 30
0.0
 40
0.8
100
AcDbArc
 50
89.99999999999992
 51
179.9999999999957
  0
LINE
  5
1DD7
330
1A
100
AcDbEntity
  8
0
 48
0.25
100
AcDbLine
 10
-130.6800559879305
 20
626.1555159294056
 30
0.0
 11
-134.6800559879305
 21
626.1555159294056
 31
0.0
  0
LINE
  5
1DD8
330
1A
100
AcDbEntity
  8
0
 48
0.25
100
AcDbLine
 10
-130.6800559879305
 20
646.1555159294056
 30
0.0
 11
-134.6800559879305
 21
646.1555159294056
 31
0.0
  0
LINE
  5
1DD9
330
1A
100
AcDbEntity
  8
0
 48
0.25
100
AcDbLine
 10
-134.680055987931
 20
646.1555159294056
 30
0.0
 11
-134.680055987931
 21
636.1555159294056
 31
0.0
  0
LINE
  5
1DDA
330
1A
100
AcDbEntity
  8
0
 48
0.25
100
AcDbLine
 10
-134.6800559879305
 20
626.1555159294056
 30
0.0
 11
-134.6800559879305
 21
636.1555159294056
 31
0.0
  0
LINE
  5
1DDB
330
1A
100
AcDbEntity
  8
0
 48
0.25
100
AcDbLine
 10
-134.6800559879305
 20
646.1555159294056
 30
0.0
 11
-134.6800559879305
 21
636.1555159294056
 31
0.0
  0
LINE
  5
1DDC
330
1A
100
AcDbEntity
  8
0
 48
0.25
100
AcDbLine
 10
-130.6800559879305
 20
626.1555159294056
 30
0.0
 11
-130.6800559879305
 21
636.1555159294056
 31
0.0
  0
LINE
  5
1DDD
330
1A
100
AcDbEntity
  8
0
 48
0.25
100
AcDbLine
 10
-130.6800559879305
 20
646.1555159294056
 30
0.0
 11
-130.6800559879305
 21
636.1555159294056
 31
0.0
  0
LINE
  5
1DDE
330
1A
100
AcDbEntity
  8
0
 48
0.25
100
AcDbLine
 10
-97.68005598793145
 20
638.1555159294052
 30
0.0000000000000026
 11
-97.68005598793145
 21
627.1555159294049
 31
-0.000000000000003
  0
LINE
  5
1DDF
330
1A
100
AcDbEntity
  8
0
 48
0.25
100
AcDbLine
 10
-97.68005598793189
 20
638.1555159294052
 30
0.0
 11
-97.68005598793189
 21
627.1555159294051
 31
0.0
  0
ARC
  5
1DE0
330
1A
100
AcDbEntity
  8
0
100
AcDbCircle
 10
-95.6800559879319
 20
638.1555159294052
 30
0.0
 40
2.0
100
AcDbArc
 50
90.0
 51
180.0
  0
ARC
  5
1DE1
330
1A
100
AcDbEntity
  8
0
100
AcDbCircle
 10
-95.6800559879319
 20
627.1555159294051
 30
0.0
 40
2.0
100
AcDbArc
 50
180.0
 51
270.0000000000008
  0
ARC
  5
1DE2
330
1A
100
AcDbEntity
  8
0
100
AcDbCircle
 10
-95.6800559879319
 20
622.1555159294052
 30
0.0
 40
2.0
100
AcDbArc
 50
90.00000000000078
 51
180.0
  0
ARC
  5
1DE3
330
1A
100
AcDbEntity
  8
0
100
AcDbCircle
 10
-95.6800559879319
 20
622.1555159294052
 30
0.0
 40
2.0
100
AcDbArc
 50
90.00000000000078
 51
180.0
  0
LINE
  5
1DE4
330
1A
100
AcDbEntity
  8
0
 48
0.25
100
AcDbLine
 10
-97.68005598793189
 20
698.4555159294044
 30
0.0
 11
-97.68005598793189
 21
649.1555159294051
 31
0.0
  0
LINE
  5
1DE5
330
1A
100
AcDbEntity
  8
0
 48
0.25
100
AcDbLine
 10
-97.38005598793193
 20
698.1555159294041
 30
0.0
 11
-97.38005598793149
 21
649.4555159294045
 31
0.0
  0
ARC
  5
1DE6
330
1A
100
AcDbEntity
  8
0
 48
0.1
100
AcDbCircle
 10
-89.68005598793189
 20
698.4555159294044
 30
0.0
 40
8.0
100
AcDbArc
 50
90.0
 51
180.0000000000002
  0
ARC
  5
1DE7
330
1A
100
AcDbEntity
  8
0
 48
0.1
100
AcDbCircle
 10
-89.68005598793189
 20
698.4555159294044
 30
0.0
 40
10.0
100
AcDbArc
 50
90.0
 51
180.0000000000002
  0
ARC
  5
1DE8
330
1A
100
AcDbEntity
  8
0
 48
0.25
100
AcDbCircle
 10
-89.68005598793189
 20
649.1555159294051
 30
0.0
 40
8.0
100
AcDbArc
 50
180.0000000000001
 51
270.0000000000007
  0
ARC
  5
1DE9
330
1A
100
AcDbEntity
  8
0
 48
0.25
100
AcDbCircle
 10
-89.38005598793148
 20
649.4555159294044
 30
0.0
 40
8.0
100
AcDbArc
 50
180.0000000000005
 51
270.0000000000009
  0
ARC
  5
1DEA
330
1A
100
AcDbEntity
  8
0
 48
0.25
100
AcDbCircle
 10
-89.38005598793195
 20
698.1555159294043
 30
0.0
 40
8.0
100
AcDbArc
 50
89.99999999999992
 51
180.0000000000006
  0
ARC
  5
1DEB
330
1A
100
AcDbEntity
  8
0
 48
0.25
100
AcDbCircle
 10
-95.6800559879319
 20
638.1555159294052
 30
-0.0000000000029055
 40
2.0
100
AcDbArc
 50
89.99999999999992
 51
180.0
  0
LINE
  5
1DEC
330
1A
100
AcDbEntity
  8
0
 48
0.25
100
AcDbLine
 10
72.8199440120656
 20
648.7760409266781
 30
0.0
 11
72.81994401206566
 21
526.2525722042527
 31
0.0
  0
LINE
  5
1DED
330
1A
100
AcDbEntity
  8
0
 48
0.25
100
AcDbLine
 10
72.8199440120656
 20
608.8290376266519
 30
0.0
 11
72.8199440120656
 21
543.1555159294053
 31
0.0
  0
LINE
  5
1DEE
330
1A
100
AcDbEntity
  8
0
 48
0.25
100
AcDbLine
 10
76.41994401206597
 20
656.1555159294044
 30
0.0
 11
76.41994401206591
 21
525.3555159294054
 31
0.0
  0
LINE
  5
1DEF
330
1A
100
AcDbEntity
  8
0
 48
0.25
100
AcDbLine
 10
75.21994401206524
 20
656.1555159294044
 30
0.0
 11
75.21994401206524
 21
525.3555159294052
 31
0.0
  0
LINE
  5
1DF0
330
1A
100
AcDbEntity
  8
0
 48
0.25
100
AcDbLine
 10
35.31994401206538
 20
622.1555159294069
 30
0.0
 11
35.31994401206538
 21
574.155515929406
 31
0.0
  0
LINE
  5
1DF1
330
1A
100
AcDbEntity
  8
0
 48
0.25
100
AcDbLine
 10
37.31994401206538
 20
698.4555159294044
 30
0.0
 11
37.31994401206538
 21
574.155515929407
 31
0.0
  0
DIMENSION
  5
1DF3
330
1A
100
AcDbEntity
  8
0
 48
0.25
100
AcDbDimension
  2
*D12
 10
127.6258966997043
 20
533.1555159294061
 30
0.0
 11
127.6258966997043
 21
635.7622563151385
 31
0.0
 70
   160
 71
     5
 42
205.9999999999982
  3
AD-STANDARD
100
AcDbAlignedDimension
 13
67.5199440120652
 23
739.1555159294043
 33
0.0
 14
67.51994401206565
 24
533.1555159294061
 34
0.0
 50
90.0
100
AcDbRotatedDimension
1001
ACAD
1000
DSTYLE
1002
{
1070
   287
1070
     1
1070
   287
1070
     1
1070
   287
1070
     1
1070
   287
1070
     1
1070
   287
1070
     1
1070
    40
1040
5.0
1070
   140
1040
2.799999999999999
1070
   271
1070
     3
1070
   272
1070
     8
1070
   289
1070
     1
1002
}
  0
LINE
  5
1DF4
330
1A
100
AcDbEntity
  8
0
 48
0.25
100
AcDbLine
 10
68.31994401206538
 20
738.3555159294045
 30
0.0
 11
68.31994401206583
 21
533.9555159294063
 31
0.0
  0
LINE
  5
1DF5
330
1A
100
AcDbEntity
  8
0
 48
0.25
100
AcDbLine
 10
39.27960282763109
 20
519.7555159294048
 30
0.0
 11
-31.1800559879344
 21
519.7555159294048
 31
0.0
  0
LINE
  5
1DF6
330
1A
100
AcDbEntity
  8
0
 48
0.25
100
AcDbLine
 10
67.21994401206592
 20
516.1555159294054
 30
0.0
 11
-31.1800559879344
 21
516.1555159294054
 31
0.0
  0
LINE
  5
1DF7
330
1A
100
AcDbEntity
  8
0
 48
0.25
100
AcDbLine
 10
67.21994401206524
 20
517.3555159294052
 30
0.0
 11
-31.1800559879344
 21
517.3555159294052
 31
0.0
  0
LINE
  5
1DF8
330
1A
100
AcDbEntity
  8
0
100
AcDbLine
 10
11.81994401207879
 20
575.1555293935081
 30
0.0
 11
24.8199440120788
 21
575.1555293935081
 31
0.0
  0
LINE
  5
1DF9
330
1A
100
AcDbEntity
  8
0
100
AcDbLine
 10
10.81994401207879
 20
576.1555293935081
 30
0.0
 11
23.81994401207879
 21
576.1555293935081
 31
0.0
  0
LINE
  5
1DFA
330
1A
100
AcDbEntity
  8
0
100
AcDbLine
 10
23.81994401207879
 20
591.1555293935081
 30
0.0
 11
10.81994401207879
 21
591.1555293935081
 31
0.0
  0
ARC
  5
1DFB
330
1A
100
AcDbEntity
  8
0
 48
0.25
100
AcDbCircle
 10
-1.452975232256278
 20
517.7555159294048
 30
0.0
 40
2.0
100
AcDbArc
 50
30.00000000000165
 51
90.0
  0
LINE
  5
1DFC
330
1A
100
AcDbEntity
  8
0
 48
0.25
100
AcDbLine
 10
1.090002778775385
 20
517.3509488117685
 30
0.0
 11
0.2790755753127883
 21
518.7555159294048
 31
0.0
  0
ARC
  5
1DFD
330
1A
100
AcDbEntity
  8
0
 48
0.25
100
AcDbCircle
 10
-61.40713674361251
 20
517.7555159294048
 30
0.0
 40
2.0
100
AcDbArc
 50
90.0
 51
149.9999999999983
  0
LINE
  5
1DFE
330
1A
100
AcDbEntity
  8
0
 48
0.25
100
AcDbLine
 10
-63.95011475464418
 20
517.3509488117685
 30
0.0
 11
-63.13918755118158
 21
518.7555159294048
 31
0.0
  0
ARC
  5
1DFF
330
1A
100
AcDbEntity
  8
0
100
AcDbCircle
 10
11.81994401207879
 20
576.1555293935081
 30
0.0
 40
1.0
100
AcDbArc
 50
180.0
 51
270.0
  0
ARC
  5
1E00
330
1A
100
AcDbEntity
  8
0
100
AcDbCircle
 10
10.81994401207879
 20
577.155529393508
 30
0.0
 40
1.0
100
AcDbArc
 50
180.0
 51
270.0
  0
LINE
  5
1E01
330
1A
100
AcDbEntity
  8
0
100
AcDbLine
 10
9.819944012078792
 20
590.1555293935081
 30
0.0
 11
9.819944012078792
 21
577.155529393508
 31
0.0
  0
ARC
  5
1E02
330
1A
100
AcDbEntity
  8
0
100
AcDbCircle
 10
10.81994401207879
 20
590.1555293935081
 30
0.0
 40
1.0
100
AcDbArc
 50
90.0
 51
180.0
  0
ARC
  5
1E03
330
1A
100
AcDbEntity
  8
0
100
AcDbCircle
 10
-72.18005598791393
 20
577.1555159294067
 30
0.0
 40
1.0
100
AcDbArc
 50
270.0
 51
0.0
  0
ARC
  5
1E04
330
1A
100
AcDbEntity
  8
0
100
AcDbCircle
 10
-71.18005598791393
 20
576.1555159294068
 30
0.0
 40
1.0
100
AcDbArc
 50
270.0
 51
0.0
  0
LINE
  5
1E05
330
1A
100
AcDbEntity
  8
0
100
AcDbLine
 10
-70.18005598791393
 20
576.1555159294068
 30
0.0
 11
-70.18005598791393
 21
589.1555159294068
 31
0.0
  0
LINE
  5
1E06
330
1A
100
AcDbEntity
  8
0
100
AcDbLine
 10
-71.18005598791393
 20
577.1555159294067
 30
0.0
 11
-71.18005598791393
 21
590.1555159294067
 31
0.0
  0
ARC
  5
1E07
330
1A
100
AcDbEntity
  8
0
100
AcDbCircle
 10
-72.18005598791393
 20
590.1555159294067
 30
0.0
 40
1.0
100
AcDbArc
 50
0.0
 51
90.0
  0
ARC
  5
1E08
330
1A
100
AcDbEntity
  8
0
100
AcDbCircle
 10
-71.18005598791393
 20
589.1555159294068
 30
0.0
 40
1.0
100
AcDbArc
 50
0.0
 51
90.0
  0
LINE
  5
1E09
330
1A
100
AcDbEntity
  8
0
100
AcDbLine
 10
-12.18005598793212
 20
575.1555428576131
 30
0.0
 11
0.8199440120678787
 21
575.1555428576131
 31
0.0
  0
ARC
  5
1E0A
330
1A
100
AcDbEntity
  8
0
100
AcDbCircle
 10
0.8199440120678787
 20
576.1555428576131
 30
0.0
 40
1.0
100
AcDbArc
 50
270.0
 51
0.0
  0
ARC
  5
1E0B
330
1A
100
AcDbEntity
  8
0
100
AcDbCircle
 10
-0.1800559879321213
 20
577.1555428576131
 30
0.0
 40
1.0
100
AcDbArc
 50
270.0
 51
0.0
  0
LINE
  5
1E0C
330
1A
100
AcDbEntity
  8
0
100
AcDbLine
 10
-13.18005598793212
 20
576.1555428576131
 30
0.0
 11
-0.1800559879321213
 21
576.1555428576131
 31
0.0
  0
ARC
  5
1E0D
330
1A
100
AcDbEntity
  8
0
100
AcDbCircle
 10
-12.18005598793212
 20
576.1555428576131
 30
0.0
 40
1.0
100
AcDbArc
 50
180.0
 51
270.0
  0
ARC
  5
1E0E
330
1A
100
AcDbEntity
  8
0
100
AcDbCircle
 10
-13.18005598793212
 20
577.1555428576131
 30
0.0
 40
1.0
100
AcDbArc
 50
180.0
 51
270.0
  0
LINE
  5
1E0F
330
1A
100
AcDbEntity
  8
0
100
AcDbLine
 10
1.819944012067878
 20
576.1555428576131
 30
0.0
 11
1.819944012067878
 21
589.1555428576131
 31
0.0
  0
ARC
  5
1E10
330
1A
100
AcDbEntity
  8
0
100
AcDbCircle
 10
-0.1800559879321213
 20
590.1555428576131
 30
0.0
 40
1.0
100
AcDbArc
 50
0.0
 51
90.0
  0
ARC
  5
1E11
330
1A
100
AcDbEntity
  8
0
100
AcDbCircle
 10
0.8199440120678787
 20
589.1555428576131
 30
0.0
 40
1.0
100
AcDbArc
 50
0.0
 51
90.0
  0
LINE
  5
1E12
330
1A
100
AcDbEntity
  8
0
100
AcDbLine
 10
0.8199440120678787
 20
577.1555428576131
 30
0.0
 11
0.8199440120678787
 21
590.1555428576131
 31
0.0
  0
LINE
  5
1E13
330
1A
100
AcDbEntity
  8
0
100
AcDbLine
 10
-14.18005598793212
 20
590.1555428576131
 30
0.0
 11
-14.18005598793212
 21
577.1555428576131
 31
0.0
  0
LINE
  5
1E14
330
1A
100
AcDbEntity
  8
0
100
AcDbLine
 10
-0.1800559879321213
 20
591.155542857613
 30
0.0
 11
-13.18005598793212
 21
591.155542857613
 31
0.0
  0
ARC
  5
1E15
330
1A
100
AcDbEntity
  8
0
100
AcDbCircle
 10
-13.18005598793212
 20
590.1555428576131
 30
0.0
 40
1.0
100
AcDbArc
 50
90.0
 51
180.0
  0
LINE
  5
1E16
330
1A
100
AcDbEntity
  8
0
 48
10.0
100
AcDbLine
 10
76.41994401206597
 20
528.1555159294052
 30
0.0
 11
64.41994401206597
 21
516.1555159294052
 31
0.0
  0
ARC
  5
1E17
330
1A
100
AcDbEntity
  8
0
 48
0.25
100
AcDbCircle
 10
67.21994401206524
 20
525.3555159294051
 30
0.0
 40
8.0
100
AcDbArc
 50
270.0
 51
0.000000000000007
  0
ARC
  5
1E18
330
1A
100
AcDbEntity
  8
0
 48
0.25
100
AcDbCircle
 10
67.21994401206592
 20
525.3555159294053
 30
0.0
 40
9.199999999999999
100
AcDbArc
 50
270.0
 51
0.000000000000007
  0
LINE
  5
1E19
330
1A
100
AcDbEntity
  8
0
 48
10.0
100
AcDbLine
 10
67.21994401206547
 20
519.7555159294049
 30
0.0
 11
66.32288773721796
 21
519.7555159294049
 31
0.0
  0
LINE
  5
1E1A
330
1A
100
AcDbEntity
  8
0
 48
10.0
100
AcDbLine
 10
72.8199440120656
 20
526.2525722042526
 30
0.0
 11
72.8199440120656
 21
525.355515929405
 31
0.0
  0
ARC
  5
1E1B
330
1A
100
AcDbEntity
  8
0
 48
10.0
100
AcDbCircle
 10
67.21994401206547
 20
525.355515929405
 30
0.0
 40
5.599999999999999
100
AcDbArc
 50
270.0000000000002
 51
0.000000000000007
  0
LINE
  5
1E1C
330
1A
100
AcDbEntity
  8
0
 48
0.25
100
AcDbLine
 10
75.21994401206524
 20
528.6525722042522
 30
0.0
 11
63.92288773721787
 21
517.3555159294048
 31
0.0
  0
LINE
  5
1E1D
330
1A
100
AcDbEntity
  8
0
 48
0.25
100
AcDbLine
 10
59.8211677675485
 20
517.3509488117685
 30
0.0
 11
59.01024056408591
 21
518.7555159294048
 31
0.0
  0
ARC
  5
1E1E
330
1A
100
AcDbEntity
  8
0
 48
0.25
100
AcDbCircle
 10
57.27818975651683
 20
517.7555159294048
 30
0.0
 40
2.0
100
AcDbArc
 50
30.00000000000165
 51
90.0
  0
ARC
  5
1E1F
330
1A
100
AcDbEntity
  8
0
 48
0.25
100
AcDbCircle
 10
44.36169826761437
 20
517.7555159294048
 30
0.0
 40
2.0
100
AcDbArc
 50
90.0
 51
149.9999999999983
  0
LINE
  5
1E20
330
1A
100
AcDbEntity
  8
0
 48
0.25
100
AcDbLine
 10
41.81872025658271
 20
517.3509488117685
 30
0.0
 11
42.6296474600453
 21
518.7555159294048
 31
0.0
  0
LINE
  5
1E21
330
1A
100
AcDbEntity
  8
0
 48
0.25
100
AcDbLine
 10
66.32288773721779
 20
519.7555159294048
 30
0.0
 11
39.27960282763109
 21
519.7555159294048
 31
0.0
  0
ARC
  5
1E22
330
1A
100
AcDbEntity
  8
0
100
AcDbCircle
 10
23.81994401207879
 20
590.1555293935081
 30
0.0
 40
1.0
100
AcDbArc
 50
0.0
 51
90.0
  0
ARC
  5
1E23
330
1A
100
AcDbEntity
  8
0
100
AcDbCircle
 10
24.8199440120788
 20
589.1555293935081
 30
0.0
 40
1.0
100
AcDbArc
 50
0.0
 51
90.0
  0
LINE
  5
1E24
330
1A
100
AcDbEntity
  8
0
100
AcDbLine
 10
24.8199440120788
 20
577.155529393508
 30
0.0
 11
24.8199440120788
 21
590.1555293935081
 31
0.0
  0
LINE
  5
1E25
330
1A
100
AcDbEntity
  8
0
100
AcDbLine
 10
25.81994401207879
 20
576.1555293935081
 30
0.0
 11
25.81994401207879
 21
589.1555293935081
 31
0.0
  0
ARC
  5
1E26
330
1A
100
AcDbEntity
  8
0
100
AcDbCircle
 10
24.8199440120788
 20
576.1555293935081
 30
0.0
 40
1.0
100
AcDbArc
 50
270.0
 51
0.0
  0
ARC
  5
1E27
330
1A
100
AcDbEntity
  8
0
100
AcDbCircle
 10
23.81994401207879
 20
577.155529393508
 30
0.0
 40
1.0
100
AcDbArc
 50
270.0
 51
0.0
  0
ARC
  5
1E28
330
1A
100
AcDbEntity
  8
0
 48
0.25
100
AcDbCircle
 10
67.51994401206565
 20
533.9555159294063
 30
0.0
 40
0.8
100
AcDbArc
 50
269.9999999999998
 51
0.0000000000000509
  0
ARC
  5
1E29
330
1A
100
AcDbEntity
  8
0
100
AcDbCircle
 10
27.31994401206538
 20
574.155515929407
 30
0.0
 40
10.0
100
AcDbArc
 50
270.0000000000002
 51
0.0000000000000509
  0
ARC
  5
1E2A
330
1A
100
AcDbEntity
  8
0
 48
0.25
100
AcDbCircle
 10
27.31994401206538
 20
574.155515929406
 30
0.0
 40
8.0
100
AcDbArc
 50
269.9999999999998
 51
0.0000000000003562
  0
LINE
  5
1E2B
330
1A
100
AcDbEntity
  8
0
100
AcDbLine
 10
25.31994401206788
 20
612.6555159294067
 30
0.0
 11
10.31994401206788
 21
612.6555159294067
 31
0.0
  0
LINE
  5
1E2C
330
1A
100
AcDbEntity
  8
0
100
AcDbLine
 10
10.31994401206788
 20
600.6555159294067
 30
0.0
 11
25.31994401206788
 21
600.6555159294067
 31
0.0
  0
ELLIPSE
  5
1E2D
330
1A
100
AcDbEntity
  8
0
100
AcDbEllipse
 10
16.1198783420661
 20
668.405665069404
 30
0.0
 11
2.499999669999999
 21
0.0
 31
0.0
210
0.0
220
0.0
230
1.0
 40
0.5600001
 41
-3.14159260717958
 42
0.0
  0
LINE
  5
1E2E
330
1A
100
AcDbEntity
  8
0
100
AcDbLine
 10
17.01978952206644
 20
673.7055193494046
 30
0.0
 11
18.61988487206616
 21
673.7055193494046
 31
0.0
  0
ARC
  5
1E2F
330
1A
100
AcDbEntity
  8
0
100
AcDbCircle
 10
10.31994401206788
 20
601.1555159294068
 30
0.0
 40
0.5
100
AcDbArc
 50
180.0
 51
270.0
  0
LINE
  5
1E30
330
1A
100
AcDbEntity
  8
0
100
AcDbLine
 10
9.819944012067878
 20
612.1555159294067
 30
0.0
 11
9.819944012067878
 21
601.1555159294068
 31
0.0
  0
ARC
  5
1E31
330
1A
100
AcDbEntity
  8
0
100
AcDbCircle
 10
10.31994401206788
 20
612.1555159294067
 30
0.0
 40
0.5
100
AcDbArc
 50
90.0
 51
180.0
  0
POINT
  5
1E32
330
1A
100
AcDbEntity
  8
0
 48
0.25
100
AcDbPoint
 10
9.819944012067878
 20
612.1555159294067
 30
0.0
  0
ARC
  5
1E33
330
1A
100
AcDbEntity
  8
0
100
AcDbCircle
 10
4.943683388675879
 20
689.8555125294055
 30
0.0
 40
1.6
100
AcDbArc
 50
350.0000916
 51
80.0001373
  0
LINE
  5
1E34
330
1A
100
AcDbEntity
  8
0
100
AcDbLine
 10
4.334422888676442
 20
689.8555125294055
 30
0.0
 11
4.616542588675827
 21
691.4555186294054
 31
0.0
  0
CIRCLE
  5
1E67
330
1A
100
AcDbEntity
  8
0
100
AcDbCircle
 10
5.719961488676005
 20
673.2555255294053
 30
0.0
 40
0.7
  0
LINE
  5
1E68
330
1A
100
AcDbEntity
  8
0
100
AcDbLine
 10
4.364746183238082
 20
682.1781157294052
 30
0.0
 11
5.362205583238562
 21
683.0150145294054
 31
0.0
  0
LINE
  5
1E69
330
1A
100
AcDbEntity
  8
0
100
AcDbLine
 10
8.119922662066699
 20
676.0055159294046
 30
0.0
 11
9.719801712066498
 21
676.0055159294046
 31
0.0
  0
LINE
  5
1E6A
330
1A
100
AcDbEntity
  8
0
100
AcDbLine
 10
13.2197937320663
 20
673.7055193494046
 30
0.0
 11
11.56720580206655
 21
672.0055204894046
 31
0.0
  0
LINE
  5
1E6B
330
1A
100
AcDbEntity
  8
0
100
AcDbLine
 10
11.56720580206655
 20
672.0055204894046
 30
0.0
 11
13.41998785206596
 21
669.0055159294046
 31
0.0
  0
LINE
  5
1E6C
330
1A
100
AcDbEntity
  8
0
100
AcDbLine
 10
13.41998785206596
 20
669.0055159294046
 30
0.0
 11
11.78155252206596
 21
669.0055159294046
 31
0.0
  0
LINE
  5
1E6D
330
1A
100
AcDbEntity
  8
0
100
AcDbLine
 10
11.78155252206596
 20
669.0055159294046
 30
0.0
 11
10.56526164206587
 21
670.9750362794046
 31
0.0
  0
LINE
  5
1E6E
330
1A
100
AcDbEntity
  8
0
100
AcDbLine
 10
9.719801712066498
 20
672.1054026494047
 30
0.0
 11
11.27547415206589
 21
673.7055193494046
 31
0.0
  0
LINE
  5
1E6F
330
1A
100
AcDbEntity
  8
0
100
AcDbLine
 10
11.27547415206589
 20
673.7055193494046
 30
0.0
 11
13.2197937320663
 21
673.7055193494046
 31
0.0
  0
LINE
  5
1E70
330
1A
100
AcDbEntity
  8
0
100
AcDbLine
 10
10.56526164206587
 20
670.9750362794046
 30
0.0
 11
9.719801712066498
 21
670.105376859405
 31
0.0
  0
LINE
  5
1E71
330
1A
100
AcDbEntity
  8
0
100
AcDbLine
 10
9.719801712066498
 20
670.105376859405
 30
0.0
 11
9.719801712066498
 21
669.0055159294046
 31
0.0
  0
LINE
  5
1E72
330
1A
100
AcDbEntity
  8
0
100
AcDbLine
 10
9.719801712066498
 20
669.0055159294046
 30
0.0
 11
8.119922662066699
 21
669.0055159294046
 31
0.0
  0
LINE
  5
1E73
330
1A
100
AcDbEntity
  8
0
100
AcDbLine
 10
8.119922662066699
 20
669.0055159294046
 30
0.0
 11
8.119922662066699
 21
676.0055159294046
 31
0.0
  0
LINE
  5
1E74
330
1A
100
AcDbEntity
  8
0
100
AcDbLine
 10
9.719801712066498
 20
676.0055159294046
 30
0.0
 11
9.719801712066498
 21
672.1054026494047
 31
0.0
  0
ARC
  5
1E76
330
1A
100
AcDbEntity
  8
0
100
AcDbCircle
 10
16.2197257820664
 20
668.4056650694046
 30
0.0
 40
0.7999999
100
AcDbArc
 50
180.0
 51
0.0
  0
ELLIPSE
  5
1E77
330
1A
100
AcDbEntity
  8
0
100
AcDbEllipse
 10
15.56983108206549
 20
671.5055451394045
 30
0.0
 11
-0.00000014
 21
2.499999669999999
 31
0.0
210
0.0
220
0.0
230
1.0
 40
0.8999999
 41
-0.7003029071799109
 42
3.84189559999998
  0
ELLIPSE
  5
1E78
330
1A
100
AcDbEntity
  8
0
100
AcDbEllipse
 10
16.06982652206642
 20
671.5055451394045
 30
0.0
 11
0.0
 21
1.500000600000111
 31
0.0
210
0.0
220
0.0
230
1.0
 40
0.6666667000000384
 41
0.0
 42
6.283185307179586
  0
LINE
  5
1E79
330
1A
100
AcDbEntity
  8
0
100
AcDbLine
 10
13.61986922206614
 20
668.4056650694046
 30
0.0
 11
15.41991845206593
 21
668.4056650694046
 31
0.0
  0
LINE
  5
1E7A
330
1A
100
AcDbEntity
  8
0
100
AcDbLine
 10
17.01978952206644
 20
673.4172029994046
 30
0.0
 11
17.01978952206644
 21
673.7055193494046
 31
0.0
  0
LINE
  5
1E7B
330
1A
100
AcDbEntity
  8
0
100
AcDbLine
 10
17.01978952206644
 20
668.4056650694046
 30
0.0
 11
17.01978952206644
 21
669.5938872094046
 31
0.0
  0
LINE
  5
1E90
330
1A
100
AcDbEntity
  8
0
100
AcDbLine
 10
5.362205601200173
 20
683.0150145444762
 30
0.0
 11
6.519363188676095
 21
689.5777148294054
 31
0.0
  0
ARC
  5
1E93
330
1A
100
AcDbEntity
  8
0
100
AcDbCircle
 10
-70.68005598793212
 20
601.1555159294068
 30
0.0
 40
0.5
100
AcDbArc
 50
270.0
 51
0.0
  0
LINE
  5
1E94
330
1A
100
AcDbEntity
  8
0
100
AcDbLine
 10
-70.18005598793212
 20
601.1555159294068
 30
0.0
 11
-70.18005598793212
 21
612.1555159294067
 31
0.0
  0
ARC
  5
1E95
330
1A
100
AcDbEntity
  8
0
100
AcDbCircle
 10
-70.68005598793212
 20
612.1555159294067
 30
0.0
 40
0.5
100
AcDbArc
 50
0.0
 51
90.0
  0
ARC
  5
1E96
330
1A
100
AcDbEntity
  8
0
100
AcDbCircle
 10
-61.68005598793212
 20
601.1555159294068
 30
0.0
 40
0.5
100
AcDbArc
 50
180.0
 51
270.0
  0
LINE
  5
1E97
330
1A
100
AcDbEntity
  8
0
100
AcDbLine
 10
-62.18005598793212
 20
612.1555159294067
 30
0.0
 11
-62.18005598793212
 21
601.1555159294068
 31
0.0
  0
LINE
  5
1E98
330
1A
100
AcDbEntity
  8
0
100
AcDbLine
 10
-61.68005598793212
 20
600.6555159294067
 30
0.0
 11
-46.68005598793212
 21
600.6555159294067
 31
0.0
  0
ARC
  5
1E99
330
1A
100
AcDbEntity
  8
0
100
AcDbCircle
 10
-46.68005598793212
 20
601.1555159294068
 30
0.0
 40
0.5
100
AcDbArc
 50
270.0
 51
0.0
  0
LINE
  5
1E9A
330
1A
100
AcDbEntity
  8
0
100
AcDbLine
 10
-46.18005598793212
 20
601.1555159294068
 30
0.0
 11
-46.18005598793212
 21
612.1555159294067
 31
0.0
  0
ARC
  5
1E9B
330
1A
100
AcDbEntity
  8
0
100
AcDbCircle
 10
-61.68005598793212
 20
612.1555159294067
 30
0.0
 40
0.5
100
AcDbArc
 50
90.0
 51
180.0
  0
LINE
  5
1E9C
330
1A
100
AcDbEntity
  8
0
100
AcDbLine
 10
-46.68005598793212
 20
612.6555159294067
 30
0.0
 11
-61.68005598793212
 21
612.6555159294067
 31
0.0
  0
ARC
  5
1E9D
330
1A
100
AcDbEntity
  8
0
100
AcDbCircle
 10
-46.68005598793212
 20
612.1555159294067
 30
0.0
 40
0.5
100
AcDbArc
 50
0.0
 51
90.0
  0
ARC
  5
1E9E
330
1A
100
AcDbEntity
  8
0
100
AcDbCircle
 10
-37.68005598793212
 20
612.1555159294067
 30
0.0
 40
0.5
100
AcDbArc
 50
90.0
 51
180.0
  0
LINE
  5
1E9F
330
1A
100
AcDbEntity
  8
0
100
AcDbLine
 10
-22.68005598793212
 20
612.6555159294067
 30
0.0
 11
-37.68005598793212
 21
612.6555159294067
 31
0.0
  0
ARC
  5
1EA0
330
1A
100
AcDbEntity
  8
0
100
AcDbCircle
 10
-22.68005598793212
 20
612.1555159294067
 30
0.0
 40
0.5
100
AcDbArc
 50
0.0
 51
90.0
  0
LINE
  5
1EA1
330
1A
100
AcDbEntity
  8
0
100
AcDbLine
 10
-22.18005598793212
 20
601.1555159294068
 30
0.0
 11
-22.18005598793212
 21
612.1555159294067
 31
0.0
  0
ARC
  5
1EA2
330
1A
100
AcDbEntity
  8
0
100
AcDbCircle
 10
-22.68005598793212
 20
601.1555159294068
 30
0.0
 40
0.5
100
AcDbArc
 50
270.0
 51
0.0
  0
ARC
  5
1EA3
330
1A
100
AcDbEntity
  8
0
100
AcDbCircle
 10
-37.68005598793212
 20
601.1555159294068
 30
0.0
 40
0.5
100
AcDbArc
 50
180.0
 51
270.0
  0
LINE
  5
1EA4
330
1A
100
AcDbEntity
  8
0
100
AcDbLine
 10
-38.18005598793212
 20
612.1555159294067
 30
0.0
 11
-38.18005598793212
 21
601.1555159294068
 31
0.0
  0
LINE
  5
1EA5
330
1A
100
AcDbEntity
  8
0
100
AcDbLine
 10
-37.68005598793212
 20
600.6555159294067
 30
0.0
 11
-22.68005598793212
 21
600.6555159294067
 31
0.0
  0
LINE
  5
1EA6
330
1A
100
AcDbEntity
  8
0
100
AcDbLine
 10
1.819944012067878
 20
601.1555159294068
 30
0.0
 11
1.819944012067878
 21
612.1555159294067
 31
0.0
  0
ARC
  5
1EA7
330
1A
100
AcDbEntity
  8
0
100
AcDbCircle
 10
1.319944012067878
 20
601.1555159294068
 30
0.0
 40
0.5
100
AcDbArc
 50
270.0
 51
0.0
  0
ARC
  5
1EA8
330
1A
100
AcDbEntity
  8
0
100
AcDbCircle
 10
1.319944012067878
 20
612.1555159294067
 30
0.0
 40
0.5
100
AcDbArc
 50
0.0
 51
90.0
  0
LINE
  5
1EA9
330
1A
100
AcDbEntity
  8
0
100
AcDbLine
 10
-13.68005598793212
 20
600.6555159294067
 30
0.0
 11
1.319944012067878
 21
600.6555159294067
 31
0.0
  0
ARC
  5
1EAA
330
1A
100
AcDbEntity
  8
0
100
AcDbCircle
 10
-13.68005598793212
 20
601.1555159294068
 30
0.0
 40
0.5
100
AcDbArc
 50
180.0
 51
270.0
  0
LINE
  5
1EAB
330
1A
100
AcDbEntity
  8
0
100
AcDbLine
 10
-14.18005598793212
 20
612.1555159294067
 30
0.0
 11
-14.18005598793212
 21
601.1555159294068
 31
0.0
  0
ARC
  5
1EAC
330
1A
100
AcDbEntity
  8
0
100
AcDbCircle
 10
-13.68005598793212
 20
612.1555159294067
 30
0.0
 40
0.5
100
AcDbArc
 50
90.0
 51
180.0
  0
LINE
  5
1EAD
330
1A
100
AcDbEntity
  8
0
100
AcDbLine
 10
1.319944012067878
 20
612.6555159294067
 30
0.0
 11
-13.68005598793212
 21
612.6555159294067
 31
0.0
  0
LINE
  5
1EAE
330
1A
100
AcDbEntity
  8
0
100
AcDbLine
 10
-16.17201641132379
 20
689.8555125294055
 30
0.0
 11
-9.165577111323557
 21
689.8555125294055
 31
0.0
  0
LINE
  5
1EAF
330
1A
100
AcDbEntity
  8
0
100
AcDbLine
 10
-14.54733681132421
 20
691.4555186294054
 30
0.0
 11
-8.883457411324172
 21
691.4555186294054
 31
0.0
  0
LINE
  5
1EB0
330
1A
100
AcDbEntity
  8
0
100
AcDbLine
 10
-16.17201641132379
 20
689.8555125294055
 30
0.0
 11
-16.12302801132392
 21
690.1333140294053
 31
0.0
  0
LINE
  5
1EB1
330
1A
100
AcDbEntity
  8
0
100
AcDbLine
 10
-16.27780941132352
 20
689.2555255294054
 30
0.0
 11
-14.6531260113241
 21
689.2555255294054
 31
0.0
  0
ARC
  5
1EB2
330
1A
100
AcDbEntity
  8
0
100
AcDbCircle
 10
-14.54733681132421
 20
689.8555125294055
 30
0.0
 40
1.6
100
AcDbArc
 50
90.0
 51
170.0001068
  0
LINE
  5
1EB3
330
1A
100
AcDbEntity
  8
0
100
AcDbLine
 10
-28.04733681132422
 20
691.4555186294054
 30
0.0
 11
-22.38345741132417
 21
691.4555186294054
 31
0.0
  0
ARC
  5
1EB4
330
1A
100
AcDbEntity
  8
0
100
AcDbCircle
 10
-28.04733681132422
 20
689.8555125294055
 30
0.0
 40
1.6
100
AcDbArc
 50
90.0
 51
170.0001068
  0
ARC
  5
1EB5
330
1A
100
AcDbEntity
  8
0
100
AcDbCircle
 10
-22.05631661132412
 20
689.8555125294055
 30
0.0
 40
1.6
100
AcDbArc
 50
350.0000916
 51
80.0001373
  0
LINE
  5
1EB6
330
1A
100
AcDbEntity
  8
0
100
AcDbLine
 10
-29.77780941132352
 20
689.2555255294054
 30
0.0
 11
-28.1531260113241
 21
689.2555255294054
 31
0.0
  0
LINE
  5
1EB7
330
1A
100
AcDbEntity
  8
0
100
AcDbLine
 10
-29.6720164113238
 20
689.8555125294055
 30
0.0
 11
-22.66557711132356
 21
689.8555125294055
 31
0.0
  0
LINE
  5
1EB8
330
1A
100
AcDbEntity
  8
0
100
AcDbLine
 10
-22.66557711132356
 20
689.8555125294055
 30
0.0
 11
-22.38345741132417
 21
691.4555186294054
 31
0.0
  0
LINE
  5
1EB9
330
1A
100
AcDbEntity
  8
0
100
AcDbLine
 10
-29.6720164113238
 20
689.8555125294055
 30
0.0
 11
-29.62302801132393
 21
690.1333140294053
 31
0.0
  0
LINE
  5
1EBA
330
1A
100
AcDbEntity
  8
0
100
AcDbLine
 10
-36.16557711132356
 20
689.8555125294055
 30
0.0
 11
-35.88345741132417
 21
691.4555186294054
 31
0.0
  0
ARC
  5
1EBB
330
1A
100
AcDbEntity
  8
0
100
AcDbCircle
 10
-35.55631661132412
 20
689.8555125294055
 30
0.0
 40
1.6
100
AcDbArc
 50
350.0000916
 51
80.0001373
  0
ARC
  5
1EBC
330
1A
100
AcDbEntity
  8
0
100
AcDbCircle
 10
-1.047336811324214
 20
689.8555125294055
 30
0.0
 40
1.6
100
AcDbArc
 50
90.0
 51
170.0001068
  0
LINE
  5
1EBD
330
1A
100
AcDbEntity
  8
0
100
AcDbLine
 10
-2.777809411323516
 20
689.2555255294054
 30
0.0
 11
-1.153126011324104
 21
689.2555255294054
 31
0.0
  0
LINE
  5
1EBE
330
1A
100
AcDbEntity
  8
0
100
AcDbLine
 10
-2.672016411323795
 20
689.8555125294055
 30
0.0
 11
-2.623028011323924
 21
690.1333140294053
 31
0.0
  0
LINE
  5
1EBF
330
1A
100
AcDbEntity
  8
0
100
AcDbLine
 10
-9.165577111323557
 20
689.8555125294055
 30
0.0
 11
-8.883457411324172
 21
691.4555186294054
 31
0.0
  0
ARC
  5
1EC0
330
1A
100
AcDbEntity
  8
0
100
AcDbCircle
 10
-8.55631661132412
 20
689.8555125294055
 30
0.0
 40
1.6
100
AcDbArc
 50
350.0000916
 51
80.0001373
  0
LINE
  5
1EC1
330
1A
100
AcDbEntity
  8
0
100
AcDbLine
 10
-43.17201641132379
 20
689.8555125294055
 30
0.0
 11
-43.12302801132392
 21
690.1333140294053
 31
0.0
  0
LINE
  5
1EC2
330
1A
100
AcDbEntity
  8
0
100
AcDbLine
 10
-43.27780941132352
 20
689.2555255294054
 30
0.0
 11
-41.6531260113241
 21
689.2555255294054
 31
0.0
  0
ARC
  5
1EC3
330
1A
100
AcDbEntity
  8
0
100
AcDbCircle
 10
-41.54733681132421
 20
689.8555125294055
 30
0.0
 40
1.6
100
AcDbArc
 50
90.0
 51
170.0001068
  0
LINE
  5
1EC4
330
1A
100
AcDbEntity
  8
0
100
AcDbLine
 10
-55.04733681132421
 20
691.4555186294054
 30
0.0
 11
-49.38345741132417
 21
691.4555186294054
 31
0.0
  0
ARC
  5
1EC5
330
1A
100
AcDbEntity
  8
0
100
AcDbCircle
 10
-55.04733681132421
 20
689.8555125294055
 30
0.0
 40
1.6
100
AcDbArc
 50
90.0
 51
170.0001068
  0
ARC
  5
1EC6
330
1A
100
AcDbEntity
  8
0
100
AcDbCircle
 10
-49.05631661132412
 20
689.8555125294055
 30
0.0
 40
1.6
100
AcDbArc
 50
350.0000916
 51
80.0001373
  0
LINE
  5
1EC7
330
1A
100
AcDbEntity
  8
0
100
AcDbLine
 10
-56.77780941132351
 20
689.2555255294054
 30
0.0
 11
-55.15312601132411
 21
689.2555255294054
 31
0.0
  0
LINE
  5
1EC8
330
1A
100
AcDbEntity
  8
0
100
AcDbLine
 10
-56.67201641132379
 20
689.8555125294055
 30
0.0
 11
-49.66557711132356
 21
689.8555125294055
 31
0.0
  0
LINE
  5
1EC9
330
1A
100
AcDbEntity
  8
0
100
AcDbLine
 10
-49.66557711132356
 20
689.8555125294055
 30
0.0
 11
-49.38345741132417
 21
691.4555186294054
 31
0.0
  0
LINE
  5
1ECA
330
1A
100
AcDbEntity
  8
0
100
AcDbLine
 10
-56.67201641132379
 20
689.8555125294055
 30
0.0
 11
-56.62302801132392
 21
690.1333140294053
 31
0.0
  0
LINE
  5
1ECB
330
1A
100
AcDbEntity
  8
0
100
AcDbLine
 10
-63.16557711132356
 20
689.8555125294055
 30
0.0
 11
-62.88345741132417
 21
691.4555186294054
 31
0.0
  0
ARC
  5
1ECC
330
1A
100
AcDbEntity
  8
0
100
AcDbCircle
 10
-62.55631661132412
 20
689.8555125294055
 30
0.0
 40
1.6
100
AcDbArc
 50
350.0000916
 51
80.0001373
  0
LINE
  5
1ECD
330
1A
100
AcDbEntity
  8
0
100
AcDbLine
 10
-43.17201641132379
 20
689.8555125294055
 30
0.0
 11
-36.16557711132356
 21
689.8555125294055
 31
0.0
  0
LINE
  5
1ECE
330
1A
100
AcDbEntity
  8
0
100
AcDbLine
 10
-41.54733681132421
 20
691.4555186294054
 30
0.0
 11
-35.88345741132417
 21
691.4555186294054
 31
0.0
  0
LINE
  5
1ECF
330
1A
100
AcDbEntity
  8
0
100
AcDbLine
 10
-70.1720164113238
 20
689.8555125294055
 30
0.0
 11
-70.12302801132392
 21
690.1333140294053
 31
0.0
  0
LINE
  5
1ED0
330
1A
100
AcDbEntity
  8
0
100
AcDbLine
 10
-70.27780941132352
 20
689.2555255294054
 30
0.0
 11
-68.6531260113241
 21
689.2555255294054
 31
0.0
  0
ARC
  5
1ED1
330
1A
100
AcDbEntity
  8
0
100
AcDbCircle
 10
-68.54733681132421
 20
689.8555125294055
 30
0.0
 40
1.6
100
AcDbArc
 50
90.0
 51
170.0001068
  0
LINE
  5
1ED2
330
1A
100
AcDbEntity
  8
0
100
AcDbLine
 10
-70.1720164113238
 20
689.8555125294055
 30
0.0
 11
-63.16557711132356
 21
689.8555125294055
 31
0.0
  0
LINE
  5
1ED3
330
1A
100
AcDbEntity
  8
0
100
AcDbLine
 10
-68.54733681132421
 20
691.4555186294054
 30
0.0
 11
-62.88345741132417
 21
691.4555186294054
 31
0.0
  0
LINE
  5
1ED4
330
1A
100
AcDbEntity
  8
0
100
AcDbLine
 10
-17.0329058113237
 20
671.4555148294055
 30
0.0
 11
-11.5185892113239
 21
671.4555148294055
 31
0.0
  0
LINE
  5
1ED5
330
1A
100
AcDbEntity
  8
0
100
AcDbLine
 10
-17.0329058113237
 20
673.0555057294053
 30
0.0
 11
-11.91020611132427
 21
673.0555057294053
 31
0.0
  0
LINE
  5
1ED6
330
1A
100
AcDbEntity
  8
0
100
AcDbLine
 10
-10.23509591676139
 20
682.5555152294054
 30
0.0
 11
-15.36784351676198
 21
682.5555152294054
 31
0.0
  0
LINE
  5
1ED7
330
1A
100
AcDbEntity
  8
0
100
AcDbLine
 10
-10.59233461676177
 20
680.9555052294053
 30
0.0
 11
-15.72499451676214
 21
680.9555052294053
 31
0.0
  0
LINE
  5
1ED8
330
1A
100
AcDbEntity
  8
0
100
AcDbLine
 10
-17.78009731132425
 20
666.4555148294056
 30
0.0
 11
-12.18009731132389
 21
666.4555148294056
 31
0.0
  0
LINE
  5
1ED9
330
1A
100
AcDbEntity
  8
0
100
AcDbLine
 10
-14.98009731132407
 20
663.6555156294056
 30
0.0
 11
-12.18009731132389
 21
666.4555148294056
 31
0.0
  0
LINE
  5
1EDA
330
1A
100
AcDbEntity
  8
0
100
AcDbLine
 10
-19.00250651132393
 20
673.8028049294056
 30
0.0
 11
-18.99319861132409
 21
673.8555163294058
 31
0.0
  0
LINE
  5
1EDB
330
1A
100
AcDbEntity
  8
0
100
AcDbLine
 10
-17.42680761132379
 20
673.5249156294056
 30
0.0
 11
-17.3684962113237
 21
673.8555163294058
 31
0.0
  0
ARC
  5
1EDC
330
1A
100
AcDbEntity
  8
0
100
AcDbCircle
 10
-17.0329058113237
 20
673.4555148294056
 30
0.0
 40
2.0
100
AcDbArc
 50
170.0001068
 51
270.0
  0
LINE
  5
1EDD
330
1A
100
AcDbEntity
  8
0
100
AcDbLine
 10
-18.99319861132409
 20
673.8555163294058
 30
0.0
 11
-17.3684962113237
 21
673.8555163294058
 31
0.0
  0
LINE
  5
1EDE
330
1A
100
AcDbEntity
  8
0
100
AcDbLine
 10
-18.88740561132437
 20
674.4555148294056
 30
0.0
 11
-17.26270701132381
 21
674.4555148294056
 31
0.0
  0
ARC
  5
1EDF
330
1A
100
AcDbEntity
  8
0
100
AcDbCircle
 10
-17.0329058113237
 20
673.4555148294056
 30
0.0
 40
0.4
100
AcDbArc
 50
170.0001068
 51
270.0
  0
LINE
  5
1EE0
330
1A
100
AcDbEntity
  8
0
100
AcDbLine
 10
-16.36523431676215
 20
681.7184142294053
 30
0.0
 11
-15.36784351676198
 21
682.5555152294054
 31
0.0
  0
LINE
  5
1EE1
330
1A
100
AcDbEntity
  8
0
100
AcDbLine
 10
-16.36523431676215
 20
681.7184142294053
 30
0.0
 11
-15.72499451676214
 21
680.9555052294053
 31
0.0
  0
LINE
  5
1EE2
330
1A
100
AcDbEntity
  8
0
100
AcDbLine
 10
-16.82481371676187
 20
681.3327254294052
 30
0.0
 11
-16.18463501676143
 21
680.5698165294055
 31
0.0
  0
LINE
  5
1EE3
330
1A
100
AcDbEntity
  8
0
100
AcDbLine
 10
-17.82246391676182
 20
680.4954146294051
 30
0.0
 11
-16.82481371676187
 21
681.3327254294052
 31
0.0
  0
LINE
  5
1EE4
330
1A
100
AcDbEntity
  8
0
100
AcDbLine
 10
-17.39115511676192
 20
682.9410132294055
 30
0.0
 11
-16.75092691676201
 21
682.1780165294052
 31
0.0
  0
LINE
  5
1EE5
330
1A
100
AcDbEntity
  8
0
100
AcDbLine
 10
-16.75092691676201
 20
682.1780165294052
 30
0.0
 11
-15.75346361676185
 21
683.0152167294053
 31
0.0
  0
LINE
  5
1EE6
330
1A
100
AcDbEntity
  8
0
100
AcDbLine
 10
-18.88740561132437
 20
674.4555148294056
 30
0.0
 11
-17.8224638481077
 21
680.4954146870258
 31
0.0
  0
LINE
  5
1EE7
330
1A
100
AcDbEntity
  8
0
100
AcDbLine
 10
-17.26270701132381
 20
674.4555148294056
 30
0.0
 11
-16.18462557214644
 21
680.5698052741408
 31
0.0
  0
LINE
  5
1EE8
330
1A
100
AcDbEntity
  8
0
100
AcDbLine
 10
-17.78009731132425
 20
666.4555148294056
 30
0.0
 11
-14.98009731132407
 21
663.6555156294056
 31
0.0
  0
LINE
  5
1EE9
330
1A
100
AcDbEntity
  8
0
100
AcDbLine
 10
-28.48009731132407
 20
663.6555156294056
 30
0.0
 11
-25.68009731132389
 21
666.4555148294056
 31
0.0
  0
LINE
  5
1EEA
330
1A
100
AcDbEntity
  8
0
100
AcDbLine
 10
-31.28009731132426
 20
666.4555148294056
 30
0.0
 11
-28.48009731132407
 21
663.6555156294056
 31
0.0
  0
LINE
  5
1EEB
330
1A
100
AcDbEntity
  8
0
100
AcDbLine
 10
-31.28009731132426
 20
666.4555148294056
 30
0.0
 11
-25.68009731132389
 21
666.4555148294056
 31
0.0
  0
CIRCLE
  5
1EEF
330
1A
100
AcDbEntity
  8
0
100
AcDbCircle
 10
-21.28003851132399
 20
673.2555255294053
 30
0.0
 40
0.7
  0
LINE
  5
1EF0
330
1A
100
AcDbEntity
  8
0
100
AcDbLine
 10
-23.44289801132419
 20
672.7777041294055
 30
0.0
 11
-22.06897342741178
 21
680.5696143421004
 31
0.0
  0
LINE
  5
1EF1
330
1A
100
AcDbEntity
  8
0
100
AcDbLine
 10
-24.9505694113239
 20
673.4412250294057
 30
0.0
 11
-23.70665351050758
 21
680.4959143346531
 31
0.0
  0
LINE
  5
1EF2
330
1A
100
AcDbEntity
  8
0
100
AcDbLine
 10
-30.76270701132381
 20
674.4555148294056
 30
0.0
 11
-29.68462557214645
 21
680.5698052741408
 31
0.0
  0
LINE
  5
1EF3
330
1A
100
AcDbEntity
  8
0
100
AcDbLine
 10
-32.38740561132437
 20
674.4555148294056
 30
0.0
 11
-31.3224638481077
 21
680.4954146870258
 31
0.0
  0
LINE
  5
1EF4
330
1A
100
AcDbEntity
  8
0
100
AcDbLine
 10
-22.63525381676192
 20
682.1781157294052
 30
0.0
 11
-21.63779441676144
 21
683.0150145294054
 31
0.0
  0
LINE
  5
1EF5
330
1A
100
AcDbEntity
  8
0
100
AcDbLine
 10
-23.27548591676151
 20
682.9412154294053
 30
0.0
 11
-22.63525381676192
 21
682.1781157294052
 31
0.0
  0
LINE
  5
1EF6
330
1A
100
AcDbEntity
  8
0
100
AcDbLine
 10
-23.70665351676217
 20
680.4959143294053
 30
0.0
 11
-22.70924371676193
 21
681.3328131294055
 31
0.0
  0
LINE
  5
1EF7
330
1A
100
AcDbEntity
  8
0
100
AcDbLine
 10
-22.70924371676193
 20
681.3328131294055
 30
0.0
 11
-22.06897341676159
 21
680.5696143294052
 31
0.0
  0
LINE
  5
1EF8
330
1A
100
AcDbEntity
  8
0
100
AcDbLine
 10
-30.25092691676201
 20
682.1780165294052
 30
0.0
 11
-29.25346361676185
 21
683.0152167294053
 31
0.0
  0
LINE
  5
1EF9
330
1A
100
AcDbEntity
  8
0
100
AcDbLine
 10
-30.89115511676193
 20
682.9410132294055
 30
0.0
 11
-30.25092691676201
 21
682.1780165294052
 31
0.0
  0
LINE
  5
1EFA
330
1A
100
AcDbEntity
  8
0
100
AcDbLine
 10
-31.32246391676182
 20
680.4954146294051
 30
0.0
 11
-30.32481371676187
 21
681.3327254294052
 31
0.0
  0
LINE
  5
1EFB
330
1A
100
AcDbEntity
  8
0
100
AcDbLine
 10
-30.32481371676187
 20
681.3327254294052
 30
0.0
 11
-29.68463501676144
 21
680.5698165294055
 31
0.0
  0
LINE
  5
1EFC
330
1A
100
AcDbEntity
  8
0
100
AcDbLine
 10
-29.86523431676216
 20
681.7184142294053
 30
0.0
 11
-29.22499451676214
 21
680.9555052294053
 31
0.0
  0
LINE
  5
1EFD
330
1A
100
AcDbEntity
  8
0
100
AcDbLine
 10
-29.86523431676216
 20
681.7184142294053
 30
0.0
 11
-28.86784351676198
 21
682.5555152294054
 31
0.0
  0
LINE
  5
1EFE
330
1A
100
AcDbEntity
  8
0
100
AcDbLine
 10
-23.73509591676139
 20
682.5555152294054
 30
0.0
 11
-23.09489431676212
 21
681.7924040294054
 31
0.0
  0
LINE
  5
1EFF
330
1A
100
AcDbEntity
  8
0
100
AcDbLine
 10
-24.09233461676178
 20
680.9555052294053
 30
0.0
 11
-23.09489431676212
 21
681.7924040294054
 31
0.0
  0
LINE
  5
1F00
330
1A
100
AcDbEntity
  8
0
100
AcDbLine
 10
-24.09233461676178
 20
680.9555052294053
 30
0.0
 11
-29.22499451676214
 21
680.9555052294053
 31
0.0
  0
LINE
  5
1F01
330
1A
100
AcDbEntity
  8
0
100
AcDbLine
 10
-23.73509591676139
 20
682.5555152294054
 30
0.0
 11
-28.86784351676198
 21
682.5555152294054
 31
0.0
  0
LINE
  5
1F02
330
1A
100
AcDbEntity
  8
0
100
AcDbLine
 10
-25.41020611132427
 20
673.0555057294053
 30
0.0
 11
-24.2381861113243
 21
671.6587161294054
 31
0.0
  0
LINE
  5
1F03
330
1A
100
AcDbEntity
  8
0
100
AcDbLine
 10
-24.9505694113239
 20
673.4412250294057
 30
0.0
 11
-23.77854561132409
 21
672.0444163294054
 31
0.0
  0
ARC
  5
1F04
330
1A
100
AcDbEntity
  8
0
100
AcDbCircle
 10
-30.5329058113237
 20
673.4555148294056
 30
0.0
 40
0.4
100
AcDbArc
 50
170.0001068
 51
270.0
  0
LINE
  5
1F05
330
1A
100
AcDbEntity
  8
0
100
AcDbLine
 10
-32.38740561132437
 20
674.4555148294056
 30
0.0
 11
-30.76270701132381
 21
674.4555148294056
 31
0.0
  0
LINE
  5
1F06
330
1A
100
AcDbEntity
  8
0
100
AcDbLine
 10
-32.49319861132409
 20
673.8555163294058
 30
0.0
 11
-30.8684962113237
 21
673.8555163294058
 31
0.0
  0
ARC
  5
1F07
330
1A
100
AcDbEntity
  8
0
100
AcDbCircle
 10
-25.0185892113239
 20
673.0555057294053
 30
0.0
 40
1.6
100
AcDbArc
 50
320.8066101
 51
350.0000916
  0
ARC
  5
1F08
330
1A
100
AcDbEntity
  8
0
100
AcDbCircle
 10
-25.0185892113239
 20
673.0555057294053
 30
0.0
 40
1.6
100
AcDbArc
 50
270.0
 51
299.192688
  0
ARC
  5
1F09
330
1A
100
AcDbEntity
  8
0
100
AcDbCircle
 10
-30.5329058113237
 20
673.4555148294056
 30
0.0
 40
2.0
100
AcDbArc
 50
170.0001068
 51
270.0
  0
LINE
  5
1F0A
330
1A
100
AcDbEntity
  8
0
100
AcDbLine
 10
-30.5329058113237
 20
673.0555057294053
 30
0.0
 11
-25.41020611132427
 21
673.0555057294053
 31
0.0
  0
LINE
  5
1F0B
330
1A
100
AcDbEntity
  8
0
100
AcDbLine
 10
-30.9268076113238
 20
673.5249156294056
 30
0.0
 11
-30.8684962113237
 21
673.8555163294058
 31
0.0
  0
LINE
  5
1F0C
330
1A
100
AcDbEntity
  8
0
100
AcDbLine
 10
-30.5329058113237
 20
671.4555148294055
 30
0.0
 11
-25.0185892113239
 21
671.4555148294055
 31
0.0
  0
LINE
  5
1F0D
330
1A
100
AcDbEntity
  8
0
100
AcDbLine
 10
-32.50250651132393
 20
673.8028049294056
 30
0.0
 11
-32.49319861132409
 21
673.8555163294058
 31
0.0
  0
ARC
  5
1F0E
330
1A
100
AcDbEntity
  8
0
100
AcDbCircle
 10
-38.5185892113239
 20
673.0555057294053
 30
0.0
 40
1.6
100
AcDbArc
 50
270.0
 51
299.192688
  0
ARC
  5
1F0F
330
1A
100
AcDbEntity
  8
0
100
AcDbCircle
 10
-38.5185892113239
 20
673.0555057294053
 30
0.0
 40
1.6
100
AcDbArc
 50
320.8066101
 51
350.0000916
  0
LINE
  5
1F10
330
1A
100
AcDbEntity
  8
0
100
AcDbLine
 10
-38.4505694113239
 20
673.4412250294057
 30
0.0
 11
-37.27854561132409
 21
672.0444163294054
 31
0.0
  0
LINE
  5
1F11
330
1A
100
AcDbEntity
  8
0
100
AcDbLine
 10
-38.91020611132427
 20
673.0555057294053
 30
0.0
 11
-37.7381861113243
 21
671.6587161294054
 31
0.0
  0
LINE
  5
1F12
330
1A
100
AcDbEntity
  8
0
100
AcDbLine
 10
-37.59233461676178
 20
680.9555052294053
 30
0.0
 11
-36.59489431676212
 21
681.7924040294054
 31
0.0
  0
LINE
  5
1F13
330
1A
100
AcDbEntity
  8
0
100
AcDbLine
 10
-37.2350959167614
 20
682.5555152294054
 30
0.0
 11
-36.59489431676212
 21
681.7924040294054
 31
0.0
  0
LINE
  5
1F14
330
1A
100
AcDbEntity
  8
0
100
AcDbLine
 10
-36.20924371676193
 20
681.3328131294055
 30
0.0
 11
-35.5689734167616
 21
680.5696143294052
 31
0.0
  0
LINE
  5
1F15
330
1A
100
AcDbEntity
  8
0
100
AcDbLine
 10
-37.20665351676217
 20
680.4959143294053
 30
0.0
 11
-36.20924371676193
 21
681.3328131294055
 31
0.0
  0
LINE
  5
1F16
330
1A
100
AcDbEntity
  8
0
100
AcDbLine
 10
-36.77548591676151
 20
682.9412154294053
 30
0.0
 11
-36.13525381676192
 21
682.1781157294052
 31
0.0
  0
LINE
  5
1F17
330
1A
100
AcDbEntity
  8
0
100
AcDbLine
 10
-36.13525381676192
 20
682.1781157294052
 30
0.0
 11
-35.13779441676144
 21
683.0150145294054
 31
0.0
  0
LINE
  5
1F18
330
1A
100
AcDbEntity
  8
0
100
AcDbLine
 10
-38.4505694113239
 20
673.4412250294057
 30
0.0
 11
-37.20665351050758
 21
680.4959143346531
 31
0.0
  0
LINE
  5
1F19
330
1A
100
AcDbEntity
  8
0
100
AcDbLine
 10
-36.94289801132419
 20
672.7777041294055
 30
0.0
 11
-35.56897342741178
 21
680.5696143421004
 31
0.0
  0
CIRCLE
  5
1F1A
330
1A
100
AcDbEntity
  8
0
100
AcDbCircle
 10
-34.78003851132399
 20
673.2555255294053
 30
0.0
 40
0.7
  0
LINE
  5
1F1E
330
1A
100
AcDbEntity
  8
0
100
AcDbLine
 10
-1.480097311324072
 20
663.6555156294056
 30
0.0
 11
1.319902688676108
 21
666.4555148294056
 31
0.0
  0
LINE
  5
1F1F
330
1A
100
AcDbEntity
  8
0
100
AcDbLine
 10
-4.280097311324254
 20
666.4555148294056
 30
0.0
 11
-1.480097311324072
 21
663.6555156294056
 31
0.0
  0
LINE
  5
1F20
330
1A
100
AcDbEntity
  8
0
100
AcDbLine
 10
-4.280097311324254
 20
666.4555148294056
 30
0.0
 11
1.319902688676108
 21
666.4555148294056
 31
0.0
  0
LINE
  5
1F21
330
1A
100
AcDbEntity
  8
0
100
AcDbLine
 10
2.049430588676102
 20
673.4412250294057
 30
0.0
 11
3.293346489492421
 21
680.4959143346531
 31
0.0
  0
LINE
  5
1F22
330
1A
100
AcDbEntity
  8
0
100
AcDbLine
 10
-3.762707011323811
 20
674.4555148294056
 30
0.0
 11
-2.684625572146444
 21
680.5698052741408
 31
0.0
  0
LINE
  5
1F23
330
1A
100
AcDbEntity
  8
0
100
AcDbLine
 10
-5.387405611324368
 20
674.4555148294056
 30
0.0
 11
-4.322463848107702
 21
680.4954146870258
 31
0.0
  0
LINE
  5
1F24
330
1A
100
AcDbEntity
  8
0
100
AcDbLine
 10
3.293346483237826
 20
680.4959143294053
 30
0.0
 11
4.290756283238067
 21
681.3328131294055
 31
0.0
  0
LINE
  5
1F25
330
1A
100
AcDbEntity
  8
0
100
AcDbLine
 10
-3.250926916762011
 20
682.1780165294052
 30
0.0
 11
-2.253463616761848
 21
683.0152167294053
 31
0.0
  0
LINE
  5
1F26
330
1A
100
AcDbEntity
  8
0
100
AcDbLine
 10
-3.891155116761922
 20
682.9410132294055
 30
0.0
 11
-3.250926916762011
 21
682.1780165294052
 31
0.0
  0
LINE
  5
1F27
330
1A
100
AcDbEntity
  8
0
100
AcDbLine
 10
-4.322463916761819
 20
680.4954146294051
 30
0.0
 11
-3.324813716761866
 21
681.3327254294052
 31
0.0
  0
LINE
  5
1F28
330
1A
100
AcDbEntity
  8
0
100
AcDbLine
 10
-3.324813716761866
 20
681.3327254294052
 30
0.0
 11
-2.684635016761433
 21
680.5698165294055
 31
0.0
  0
LINE
  5
1F29
330
1A
100
AcDbEntity
  8
0
100
AcDbLine
 10
-2.865234316762155
 20
681.7184142294053
 30
0.0
 11
-2.224994516762137
 21
680.9555052294053
 31
0.0
  0
LINE
  5
1F2A
330
1A
100
AcDbEntity
  8
0
100
AcDbLine
 10
-2.865234316762155
 20
681.7184142294053
 30
0.0
 11
-1.867843516761979
 21
682.5555152294054
 31
0.0
  0
LINE
  5
1F2B
330
1A
100
AcDbEntity
  8
0
100
AcDbLine
 10
3.264904083238604
 20
682.5555152294054
 30
0.0
 11
3.905105683237877
 21
681.7924040294054
 31
0.0
  0
LINE
  5
1F2C
330
1A
100
AcDbEntity
  8
0
100
AcDbLine
 10
2.907665383238224
 20
680.9555052294053
 30
0.0
 11
3.905105683237877
 21
681.7924040294054
 31
0.0
  0
LINE
  5
1F2D
330
1A
100
AcDbEntity
  8
0
100
AcDbLine
 10
2.907665383238224
 20
680.9555052294053
 30
0.0
 11
-2.224994516762137
 21
680.9555052294053
 31
0.0
  0
LINE
  5
1F2E
330
1A
100
AcDbEntity
  8
0
100
AcDbLine
 10
3.264904083238604
 20
682.5555152294054
 30
0.0
 11
-1.867843516761979
 21
682.5555152294054
 31
0.0
  0
LINE
  5
1F2F
330
1A
100
AcDbEntity
  8
0
100
AcDbLine
 10
1.589793888675728
 20
673.0555057294053
 30
0.0
 11
2.761813888675703
 21
671.6587161294054
 31
0.0
  0
LINE
  5
1F30
330
1A
100
AcDbEntity
  8
0
100
AcDbLine
 10
2.049430588676102
 20
673.4412250294057
 30
0.0
 11
3.221454388675908
 21
672.0444163294054
 31
0.0
  0
ARC
  5
1F31
330
1A
100
AcDbEntity
  8
0
100
AcDbCircle
 10
-3.532905811323701
 20
673.4555148294056
 30
0.0
 40
0.4
100
AcDbArc
 50
170.0001068
 51
270.0
  0
LINE
  5
1F32
330
1A
100
AcDbEntity
  8
0
100
AcDbLine
 10
-5.387405611324368
 20
674.4555148294056
 30
0.0
 11
-3.762707011323811
 21
674.4555148294056
 31
0.0
  0
LINE
  5
1F33
330
1A
100
AcDbEntity
  8
0
100
AcDbLine
 10
-5.493198611324089
 20
673.8555163294058
 30
0.0
 11
-3.868496211323702
 21
673.8555163294058
 31
0.0
  0
ARC
  5
1F34
330
1A
100
AcDbEntity
  8
0
100
AcDbCircle
 10
1.9814107886761
 20
673.0555057294053
 30
0.0
 40
1.6
100
AcDbArc
 50
320.8066101
 51
350.0000916
  0
ARC
  5
1F35
330
1A
100
AcDbEntity
  8
0
100
AcDbCircle
 10
1.9814107886761
 20
673.0555057294053
 30
0.0
 40
1.6
100
AcDbArc
 50
270.0
 51
299.192688
  0
ARC
  5
1F36
330
1A
100
AcDbEntity
  8
0
100
AcDbCircle
 10
-3.532905811323701
 20
673.4555148294056
 30
0.0
 40
2.0
100
AcDbArc
 50
170.0001068
 51
270.0
  0
LINE
  5
1F37
330
1A
100
AcDbEntity
  8
0
100
AcDbLine
 10
-3.532905811323701
 20
673.0555057294053
 30
0.0
 11
1.589793888675728
 21
673.0555057294053
 31
0.0
  0
LINE
  5
1F38
330
1A
100
AcDbEntity
  8
0
100
AcDbLine
 10
-3.926807611323795
 20
673.5249156294056
 30
0.0
 11
-3.868496211323702
 21
673.8555163294058
 31
0.0
  0
LINE
  5
1F39
330
1A
100
AcDbEntity
  8
0
100
AcDbLine
 10
-3.532905811323701
 20
671.4555148294055
 30
0.0
 11
1.9814107886761
 21
671.4555148294055
 31
0.0
  0
LINE
  5
1F3A
330
1A
100
AcDbEntity
  8
0
100
AcDbLine
 10
-5.502506511323929
 20
673.8028049294056
 30
0.0
 11
-5.493198611324089
 21
673.8555163294058
 31
0.0
  0
ARC
  5
1F3B
330
1A
100
AcDbEntity
  8
0
100
AcDbCircle
 10
-11.5185892113239
 20
673.0555057294053
 30
0.0
 40
1.6
100
AcDbArc
 50
270.0
 51
299.192688
  0
ARC
  5
1F3C
330
1A
100
AcDbEntity
  8
0
100
AcDbCircle
 10
-11.5185892113239
 20
673.0555057294053
 30
0.0
 40
1.6
100
AcDbArc
 50
320.8066101
 51
350.0000916
  0
LINE
  5
1F3D
330
1A
100
AcDbEntity
  8
0
100
AcDbLine
 10
-11.4505694113239
 20
673.4412250294057
 30
0.0
 11
-10.27854561132409
 21
672.0444163294054
 31
0.0
  0
LINE
  5
1F3E
330
1A
100
AcDbEntity
  8
0
100
AcDbLine
 10
-11.91020611132427
 20
673.0555057294053
 30
0.0
 11
-10.73818611132429
 21
671.6587161294054
 31
0.0
  0
LINE
  5
1F3F
330
1A
100
AcDbEntity
  8
0
100
AcDbLine
 10
-10.59233461676177
 20
680.9555052294053
 30
0.0
 11
-9.594894316762122
 21
681.7924040294054
 31
0.0
  0
LINE
  5
1F40
330
1A
100
AcDbEntity
  8
0
100
AcDbLine
 10
-10.23509591676139
 20
682.5555152294054
 30
0.0
 11
-9.594894316762122
 21
681.7924040294054
 31
0.0
  0
LINE
  5
1F41
330
1A
100
AcDbEntity
  8
0
100
AcDbLine
 10
-9.209243716761932
 20
681.3328131294055
 30
0.0
 11
-8.568973416761593
 21
680.5696143294052
 31
0.0
  0
LINE
  5
1F42
330
1A
100
AcDbEntity
  8
0
100
AcDbLine
 10
-10.20665351676217
 20
680.4959143294053
 30
0.0
 11
-9.209243716761932
 21
681.3328131294055
 31
0.0
  0
LINE
  5
1F43
330
1A
100
AcDbEntity
  8
0
100
AcDbLine
 10
-9.77548591676151
 20
682.9412154294053
 30
0.0
 11
-9.135253816761917
 21
682.1781157294052
 31
0.0
  0
LINE
  5
1F44
330
1A
100
AcDbEntity
  8
0
100
AcDbLine
 10
-9.135253816761917
 20
682.1781157294052
 30
0.0
 11
-8.137794416761437
 21
683.0150145294054
 31
0.0
  0
LINE
  5
1F45
330
1A
100
AcDbEntity
  8
0
100
AcDbLine
 10
-11.4505694113239
 20
673.4412250294057
 30
0.0
 11
-10.20665351050758
 21
680.4959143346531
 31
0.0
  0
LINE
  5
1F46
330
1A
100
AcDbEntity
  8
0
100
AcDbLine
 10
-9.942898011324189
 20
672.7777041294055
 30
0.0
 11
-8.568973427411776
 21
680.5696143421004
 31
0.0
  0
CIRCLE
  5
1F47
330
1A
100
AcDbEntity
  8
0
100
AcDbCircle
 10
-7.780038511323994
 20
673.2555255294053
 30
0.0
 40
0.7
  0
LINE
  5
1F4B
330
1A
100
AcDbEntity
  8
0
100
AcDbLine
 10
-46.00250651132393
 20
673.8028049294056
 30
0.0
 11
-45.99319861132409
 21
673.8555163294058
 31
0.0
  0
LINE
  5
1F4C
330
1A
100
AcDbEntity
  8
0
100
AcDbLine
 10
-44.42680761132379
 20
673.5249156294056
 30
0.0
 11
-44.3684962113237
 21
673.8555163294058
 31
0.0
  0
ARC
  5
1F4D
330
1A
100
AcDbEntity
  8
0
100
AcDbCircle
 10
-44.03290581132369
 20
673.4555148294056
 30
0.0
 40
2.0
100
AcDbArc
 50
170.0001068
 51
270.0
  0
LINE
  5
1F4E
330
1A
100
AcDbEntity
  8
0
100
AcDbLine
 10
-45.99319861132409
 20
673.8555163294058
 30
0.0
 11
-44.3684962113237
 21
673.8555163294058
 31
0.0
  0
LINE
  5
1F4F
330
1A
100
AcDbEntity
  8
0
100
AcDbLine
 10
-45.88740561132437
 20
674.4555148294056
 30
0.0
 11
-44.26270701132381
 21
674.4555148294056
 31
0.0
  0
ARC
  5
1F50
330
1A
100
AcDbEntity
  8
0
100
AcDbCircle
 10
-44.03290581132369
 20
673.4555148294056
 30
0.0
 40
0.4
100
AcDbArc
 50
170.0001068
 51
270.0
  0
LINE
  5
1F51
330
1A
100
AcDbEntity
  8
0
100
AcDbLine
 10
-43.36523431676215
 20
681.7184142294053
 30
0.0
 11
-42.36784351676198
 21
682.5555152294054
 31
0.0
  0
LINE
  5
1F52
330
1A
100
AcDbEntity
  8
0
100
AcDbLine
 10
-43.36523431676215
 20
681.7184142294053
 30
0.0
 11
-42.72499451676213
 21
680.9555052294053
 31
0.0
  0
LINE
  5
1F53
330
1A
100
AcDbEntity
  8
0
100
AcDbLine
 10
-43.82481371676187
 20
681.3327254294052
 30
0.0
 11
-43.18463501676143
 21
680.5698165294055
 31
0.0
  0
LINE
  5
1F54
330
1A
100
AcDbEntity
  8
0
100
AcDbLine
 10
-44.82246391676182
 20
680.4954146294051
 30
0.0
 11
-43.82481371676187
 21
681.3327254294052
 31
0.0
  0
LINE
  5
1F55
330
1A
100
AcDbEntity
  8
0
100
AcDbLine
 10
-44.39115511676192
 20
682.9410132294055
 30
0.0
 11
-43.75092691676201
 21
682.1780165294052
 31
0.0
  0
LINE
  5
1F56
330
1A
100
AcDbEntity
  8
0
100
AcDbLine
 10
-43.75092691676201
 20
682.1780165294052
 30
0.0
 11
-42.75346361676184
 21
683.0152167294053
 31
0.0
  0
LINE
  5
1F57
330
1A
100
AcDbEntity
  8
0
100
AcDbLine
 10
-45.88740561132437
 20
674.4555148294056
 30
0.0
 11
-44.8224638481077
 21
680.4954146870258
 31
0.0
  0
LINE
  5
1F58
330
1A
100
AcDbEntity
  8
0
100
AcDbLine
 10
-44.26270701132381
 20
674.4555148294056
 30
0.0
 11
-43.18462557214644
 21
680.5698052741408
 31
0.0
  0
LINE
  5
1F59
330
1A
100
AcDbEntity
  8
0
100
AcDbLine
 10
-44.78009731132425
 20
666.4555148294056
 30
0.0
 11
-41.98009731132407
 21
663.6555156294056
 31
0.0
  0
LINE
  5
1F5A
330
1A
100
AcDbEntity
  8
0
100
AcDbLine
 10
-55.48009731132407
 20
663.6555156294056
 30
0.0
 11
-52.68009731132389
 21
666.4555148294056
 31
0.0
  0
LINE
  5
1F5B
330
1A
100
AcDbEntity
  8
0
100
AcDbLine
 10
-58.28009731132425
 20
666.4555148294056
 30
0.0
 11
-55.48009731132407
 21
663.6555156294056
 31
0.0
  0
LINE
  5
1F5C
330
1A
100
AcDbEntity
  8
0
100
AcDbLine
 10
-58.28009731132425
 20
666.4555148294056
 30
0.0
 11
-52.68009731132389
 21
666.4555148294056
 31
0.0
  0
CIRCLE
  5
1F60
330
1A
100
AcDbEntity
  8
0
100
AcDbCircle
 10
-48.28003851132399
 20
673.2555255294053
 30
0.0
 40
0.7
  0
LINE
  5
1F61
330
1A
100
AcDbEntity
  8
0
100
AcDbLine
 10
-50.44289801132419
 20
672.7777041294055
 30
0.0
 11
-49.06897342741178
 21
680.5696143421004
 31
0.0
  0
LINE
  5
1F62
330
1A
100
AcDbEntity
  8
0
100
AcDbLine
 10
-51.95056941132389
 20
673.4412250294057
 30
0.0
 11
-50.70665351050758
 21
680.4959143346531
 31
0.0
  0
LINE
  5
1F63
330
1A
100
AcDbEntity
  8
0
100
AcDbLine
 10
-57.76270701132381
 20
674.4555148294056
 30
0.0
 11
-56.68462557214644
 21
680.5698052741408
 31
0.0
  0
LINE
  5
1F64
330
1A
100
AcDbEntity
  8
0
100
AcDbLine
 10
-59.38740561132437
 20
674.4555148294056
 30
0.0
 11
-58.3224638481077
 21
680.4954146870258
 31
0.0
  0
LINE
  5
1F65
330
1A
100
AcDbEntity
  8
0
100
AcDbLine
 10
-49.63525381676191
 20
682.1781157294052
 30
0.0
 11
-48.63779441676143
 21
683.0150145294054
 31
0.0
  0
LINE
  5
1F66
330
1A
100
AcDbEntity
  8
0
100
AcDbLine
 10
-50.27548591676151
 20
682.9412154294053
 30
0.0
 11
-49.63525381676191
 21
682.1781157294052
 31
0.0
  0
LINE
  5
1F67
330
1A
100
AcDbEntity
  8
0
100
AcDbLine
 10
-50.70665351676217
 20
680.4959143294053
 30
0.0
 11
-49.70924371676193
 21
681.3328131294055
 31
0.0
  0
LINE
  5
1F68
330
1A
100
AcDbEntity
  8
0
100
AcDbLine
 10
-49.70924371676193
 20
681.3328131294055
 30
0.0
 11
-49.0689734167616
 21
680.5696143294052
 31
0.0
  0
LINE
  5
1F69
330
1A
100
AcDbEntity
  8
0
100
AcDbLine
 10
-57.25092691676201
 20
682.1780165294052
 30
0.0
 11
-56.25346361676185
 21
683.0152167294053
 31
0.0
  0
LINE
  5
1F6A
330
1A
100
AcDbEntity
  8
0
100
AcDbLine
 10
-57.89115511676192
 20
682.9410132294055
 30
0.0
 11
-57.25092691676201
 21
682.1780165294052
 31
0.0
  0
LINE
  5
1F6B
330
1A
100
AcDbEntity
  8
0
100
AcDbLine
 10
-58.32246391676182
 20
680.4954146294051
 30
0.0
 11
-57.32481371676186
 21
681.3327254294052
 31
0.0
  0
LINE
  5
1F6C
330
1A
100
AcDbEntity
  8
0
100
AcDbLine
 10
-57.32481371676186
 20
681.3327254294052
 30
0.0
 11
-56.68463501676143
 21
680.5698165294055
 31
0.0
  0
LINE
  5
1F6D
330
1A
100
AcDbEntity
  8
0
100
AcDbLine
 10
-56.86523431676215
 20
681.7184142294053
 30
0.0
 11
-56.22499451676214
 21
680.9555052294053
 31
0.0
  0
LINE
  5
1F6E
330
1A
100
AcDbEntity
  8
0
100
AcDbLine
 10
-56.86523431676215
 20
681.7184142294053
 30
0.0
 11
-55.86784351676198
 21
682.5555152294054
 31
0.0
  0
LINE
  5
1F6F
330
1A
100
AcDbEntity
  8
0
100
AcDbLine
 10
-50.73509591676139
 20
682.5555152294054
 30
0.0
 11
-50.09489431676212
 21
681.7924040294054
 31
0.0
  0
LINE
  5
1F70
330
1A
100
AcDbEntity
  8
0
100
AcDbLine
 10
-51.09233461676177
 20
680.9555052294053
 30
0.0
 11
-50.09489431676212
 21
681.7924040294054
 31
0.0
  0
LINE
  5
1F71
330
1A
100
AcDbEntity
  8
0
100
AcDbLine
 10
-51.09233461676177
 20
680.9555052294053
 30
0.0
 11
-56.22499451676214
 21
680.9555052294053
 31
0.0
  0
LINE
  5
1F72
330
1A
100
AcDbEntity
  8
0
100
AcDbLine
 10
-50.73509591676139
 20
682.5555152294054
 30
0.0
 11
-55.86784351676198
 21
682.5555152294054
 31
0.0
  0
LINE
  5
1F73
330
1A
100
AcDbEntity
  8
0
100
AcDbLine
 10
-52.41020611132427
 20
673.0555057294053
 30
0.0
 11
-51.23818611132429
 21
671.6587161294054
 31
0.0
  0
LINE
  5
1F74
330
1A
100
AcDbEntity
  8
0
100
AcDbLine
 10
-51.95056941132389
 20
673.4412250294057
 30
0.0
 11
-50.77854561132409
 21
672.0444163294054
 31
0.0
  0
ARC
  5
1F75
330
1A
100
AcDbEntity
  8
0
100
AcDbCircle
 10
-57.5329058113237
 20
673.4555148294056
 30
0.0
 40
0.4
100
AcDbArc
 50
170.0001068
 51
270.0
  0
LINE
  5
1F76
330
1A
100
AcDbEntity
  8
0
100
AcDbLine
 10
-59.38740561132437
 20
674.4555148294056
 30
0.0
 11
-57.76270701132381
 21
674.4555148294056
 31
0.0
  0
LINE
  5
1F77
330
1A
100
AcDbEntity
  8
0
100
AcDbLine
 10
-59.49319861132408
 20
673.8555163294058
 30
0.0
 11
-57.8684962113237
 21
673.8555163294058
 31
0.0
  0
ARC
  5
1F78
330
1A
100
AcDbEntity
  8
0
100
AcDbCircle
 10
-52.0185892113239
 20
673.0555057294053
 30
0.0
 40
1.6
100
AcDbArc
 50
320.8066101
 51
350.0000916
  0
ARC
  5
1F79
330
1A
100
AcDbEntity
  8
0
100
AcDbCircle
 10
-52.0185892113239
 20
673.0555057294053
 30
0.0
 40
1.6
100
AcDbArc
 50
270.0
 51
299.192688
  0
ARC
  5
1F7A
330
1A
100
AcDbEntity
  8
0
100
AcDbCircle
 10
-57.5329058113237
 20
673.4555148294056
 30
0.0
 40
2.0
100
AcDbArc
 50
170.0001068
 51
270.0
  0
LINE
  5
1F7B
330
1A
100
AcDbEntity
  8
0
100
AcDbLine
 10
-57.5329058113237
 20
673.0555057294053
 30
0.0
 11
-52.41020611132427
 21
673.0555057294053
 31
0.0
  0
LINE
  5
1F7C
330
1A
100
AcDbEntity
  8
0
100
AcDbLine
 10
-57.9268076113238
 20
673.5249156294056
 30
0.0
 11
-57.8684962113237
 21
673.8555163294058
 31
0.0
  0
LINE
  5
1F7D
330
1A
100
AcDbEntity
  8
0
100
AcDbLine
 10
-57.5329058113237
 20
671.4555148294055
 30
0.0
 11
-52.0185892113239
 21
671.4555148294055
 31
0.0
  0
LINE
  5
1F7E
330
1A
100
AcDbEntity
  8
0
100
AcDbLine
 10
-59.50250651132392
 20
673.8028049294056
 30
0.0
 11
-59.49319861132408
 21
673.8555163294058
 31
0.0
  0
ARC
  5
1F7F
330
1A
100
AcDbEntity
  8
0
100
AcDbCircle
 10
-65.5185892113239
 20
673.0555057294053
 30
0.0
 40
1.6
100
AcDbArc
 50
320.8066101
 51
350.0000916
  0
LINE
  5
1F80
330
1A
100
AcDbEntity
  8
0
100
AcDbLine
 10
-64.59233461676177
 20
680.9555052294053
 30
0.0
 11
-63.59489431676212
 21
681.7924040294054
 31
0.0
  0
LINE
  5
1F81
330
1A
100
AcDbEntity
  8
0
100
AcDbLine
 10
-64.2350959167614
 20
682.5555152294054
 30
0.0
 11
-63.59489431676212
 21
681.7924040294054
 31
0.0
  0
LINE
  5
1F82
330
1A
100
AcDbEntity
  8
0
100
AcDbLine
 10
-63.20924371676193
 20
681.3328131294055
 30
0.0
 11
-62.56897341676159
 21
680.5696143294052
 31
0.0
  0
LINE
  5
1F83
330
1A
100
AcDbEntity
  8
0
100
AcDbLine
 10
-64.20665351676217
 20
680.4959143294053
 30
0.0
 11
-63.20924371676193
 21
681.3328131294055
 31
0.0
  0
LINE
  5
1F84
330
1A
100
AcDbEntity
  8
0
100
AcDbLine
 10
-63.77548591676151
 20
682.9412154294053
 30
0.0
 11
-63.13525381676192
 21
682.1781157294052
 31
0.0
  0
LINE
  5
1F85
330
1A
100
AcDbEntity
  8
0
100
AcDbLine
 10
-63.13525381676192
 20
682.1781157294052
 30
0.0
 11
-62.13779441676144
 21
683.0150145294054
 31
0.0
  0
LINE
  5
1F86
330
1A
100
AcDbEntity
  8
0
100
AcDbLine
 10
-63.94289801132419
 20
672.7777041294055
 30
0.0
 11
-62.56897342741178
 21
680.5696143421004
 31
0.0
  0
CIRCLE
  5
1F87
330
1A
100
AcDbEntity
  8
0
100
AcDbCircle
 10
-61.78003851132399
 20
673.2555255294053
 30
0.0
 40
0.7
  0
LINE
  5
1F8B
330
1A
100
AcDbEntity
  8
0
100
AcDbLine
 10
-44.03290581132369
 20
671.4555148294055
 30
0.0
 11
-38.5185892113239
 21
671.4555148294055
 31
0.0
  0
LINE
  5
1F8C
330
1A
100
AcDbEntity
  8
0
100
AcDbLine
 10
-44.03290581132369
 20
673.0555057294053
 30
0.0
 11
-38.91020611132427
 21
673.0555057294053
 31
0.0
  0
LINE
  5
1F8D
330
1A
100
AcDbEntity
  8
0
100
AcDbLine
 10
-37.2350959167614
 20
682.5555152294054
 30
0.0
 11
-42.36784351676198
 21
682.5555152294054
 31
0.0
  0
LINE
  5
1F8E
330
1A
100
AcDbEntity
  8
0
100
AcDbLine
 10
-37.59233461676178
 20
680.9555052294053
 30
0.0
 11
-42.72499451676213
 21
680.9555052294053
 31
0.0
  0
LINE
  5
1F8F
330
1A
100
AcDbEntity
  8
0
100
AcDbLine
 10
-44.78009731132425
 20
666.4555148294056
 30
0.0
 11
-39.18009731132389
 21
666.4555148294056
 31
0.0
  0
LINE
  5
1F90
330
1A
100
AcDbEntity
  8
0
100
AcDbLine
 10
-41.98009731132407
 20
663.6555156294056
 30
0.0
 11
-39.18009731132389
 21
666.4555148294056
 31
0.0
  0
LINE
  5
1F91
330
1A
100
AcDbEntity
  8
0
100
AcDbLine
 10
-73.00250651132393
 20
673.8028049294056
 30
0.0
 11
-72.99319861132409
 21
673.8555163294058
 31
0.0
  0
LINE
  5
1F92
330
1A
100
AcDbEntity
  8
0
100
AcDbLine
 10
-71.42680761132379
 20
673.5249156294056
 30
0.0
 11
-71.3684962113237
 21
673.8555163294058
 31
0.0
  0
ARC
  5
1F93
330
1A
100
AcDbEntity
  8
0
100
AcDbCircle
 10
-71.0329058113237
 20
673.4555148294056
 30
0.0
 40
2.0
100
AcDbArc
 50
170.0001068
 51
270.0
  0
LINE
  5
1F94
330
1A
100
AcDbEntity
  8
0
100
AcDbLine
 10
-72.99319861132409
 20
673.8555163294058
 30
0.0
 11
-71.3684962113237
 21
673.8555163294058
 31
0.0
  0
LINE
  5
1F95
330
1A
100
AcDbEntity
  8
0
100
AcDbLine
 10
-72.88740561132437
 20
674.4555148294056
 30
0.0
 11
-71.26270701132381
 21
674.4555148294056
 31
0.0
  0
ARC
  5
1F96
330
1A
100
AcDbEntity
  8
0
100
AcDbCircle
 10
-71.0329058113237
 20
673.4555148294056
 30
0.0
 40
0.4
100
AcDbArc
 50
170.0001068
 51
270.0
  0
LINE
  5
1F97
330
1A
100
AcDbEntity
  8
0
100
AcDbLine
 10
-70.36523431676215
 20
681.7184142294053
 30
0.0
 11
-69.36784351676198
 21
682.5555152294054
 31
0.0
  0
LINE
  5
1F98
330
1A
100
AcDbEntity
  8
0
100
AcDbLine
 10
-70.36523431676215
 20
681.7184142294053
 30
0.0
 11
-69.72499451676213
 21
680.9555052294053
 31
0.0
  0
LINE
  5
1F99
330
1A
100
AcDbEntity
  8
0
100
AcDbLine
 10
-70.82481371676187
 20
681.3327254294052
 30
0.0
 11
-70.18463501676143
 21
680.5698165294055
 31
0.0
  0
LINE
  5
1F9A
330
1A
100
AcDbEntity
  8
0
100
AcDbLine
 10
-71.82246391676182
 20
680.4954146294051
 30
0.0
 11
-70.82481371676187
 21
681.3327254294052
 31
0.0
  0
LINE
  5
1F9B
330
1A
100
AcDbEntity
  8
0
100
AcDbLine
 10
-71.39115511676192
 20
682.9410132294055
 30
0.0
 11
-70.75092691676201
 21
682.1780165294052
 31
0.0
  0
LINE
  5
1F9C
330
1A
100
AcDbEntity
  8
0
100
AcDbLine
 10
-70.75092691676201
 20
682.1780165294052
 30
0.0
 11
-69.75346361676185
 21
683.0152167294053
 31
0.0
  0
LINE
  5
1F9D
330
1A
100
AcDbEntity
  8
0
100
AcDbLine
 10
-72.88740561132437
 20
674.4555148294056
 30
0.0
 11
-71.8224638481077
 21
680.4954146870258
 31
0.0
  0
LINE
  5
1F9E
330
1A
100
AcDbEntity
  8
0
100
AcDbLine
 10
-71.26270701132381
 20
674.4555148294056
 30
0.0
 11
-70.18462557214644
 21
680.5698052741408
 31
0.0
  0
LINE
  5
1F9F
330
1A
100
AcDbEntity
  8
0
100
AcDbLine
 10
-71.78009731132426
 20
666.4555148294056
 30
0.0
 11
-66.18009731132389
 21
666.4555148294056
 31
0.0
  0
LINE
  5
1FA0
330
1A
100
AcDbEntity
  8
0
100
AcDbLine
 10
-71.78009731132426
 20
666.4555148294056
 30
0.0
 11
-68.98009731132408
 21
663.6555156294056
 31
0.0
  0
LINE
  5
1FA1
330
1A
100
AcDbEntity
  8
0
100
AcDbLine
 10
-68.98009731132408
 20
663.6555156294056
 30
0.0
 11
-66.18009731132389
 21
666.4555148294056
 31
0.0
  0
LINE
  5
1FA6
330
1A
100
AcDbEntity
  8
0
100
AcDbLine
 10
-71.0329058113237
 20
671.4555148294055
 30
0.0
 11
-65.5185892113239
 21
671.4555148294055
 31
0.0
  0
LINE
  5
1FA7
330
1A
100
AcDbEntity
  8
0
100
AcDbLine
 10
-71.0329058113237
 20
673.0555057294053
 30
0.0
 11
-65.91020611132427
 21
673.0555057294053
 31
0.0
  0
ARC
  5
1FA8
330
1A
100
AcDbEntity
  8
0
100
AcDbCircle
 10
-65.5185892113239
 20
673.0555057294053
 30
0.0
 40
1.6
100
AcDbArc
 50
270.0
 51
299.192688
  0
LINE
  5
1FA9
330
1A
100
AcDbEntity
  8
0
100
AcDbLine
 10
-65.4505694113239
 20
673.4412250294057
 30
0.0
 11
-64.27854561132409
 21
672.0444163294054
 31
0.0
  0
LINE
  5
1FAA
330
1A
100
AcDbEntity
  8
0
100
AcDbLine
 10
-65.91020611132427
 20
673.0555057294053
 30
0.0
 11
-64.73818611132429
 21
671.6587161294054
 31
0.0
  0
LINE
  5
1FAB
330
1A
100
AcDbEntity
  8
0
100
AcDbLine
 10
-65.4505694113239
 20
673.4412250294057
 30
0.0
 11
-64.20665351050757
 21
680.4959143346531
 31
0.0
  0
LINE
  5
1FAC
330
1A
100
AcDbEntity
  8
0
100
AcDbLine
 10
-64.2350959167614
 20
682.5555152294054
 30
0.0
 11
-69.36784351676198
 21
682.5555152294054
 31
0.0
  0
LINE
  5
1FAD
330
1A
100
AcDbEntity
  8
0
100
AcDbLine
 10
-64.59233461676177
 20
680.9555052294053
 30
0.0
 11
-69.72499451676213
 21
680.9555052294053
 31
0.0
  0
LINE
  5
1FAE
330
1A
100
AcDbEntity
  8
0
100
AcDbLine
 10
-15.75346363528644
 20
683.0152167138566
 30
0.0
 11
-14.6531260113241
 21
689.2555255294054
 31
0.0
  0
LINE
  5
1FAF
330
1A
100
AcDbEntity
  8
0
100
AcDbLine
 10
-17.3911550647179
 20
682.9410131673816
 30
0.0
 11
-16.27779791132417
 21
689.2555255294054
 31
0.0
  0
LINE
  5
1FB0
330
1A
100
AcDbEntity
  8
0
100
AcDbLine
 10
-21.63779439879983
 20
683.0150145444762
 30
0.0
 11
-20.4806368113239
 21
689.5777148294054
 31
0.0
  0
LINE
  5
1FB1
330
1A
100
AcDbEntity
  8
0
100
AcDbLine
 10
-23.27548592217846
 20
682.9412154358614
 30
0.0
 11
-21.77847691132393
 21
691.4312114294055
 31
0.0
  0
LINE
  5
1FB2
330
1A
100
AcDbEntity
  8
0
100
AcDbLine
 10
-30.89115506471791
 20
682.9410131673816
 30
0.0
 11
-29.77779791132417
 21
689.2555255294054
 31
0.0
  0
LINE
  5
1FB3
330
1A
100
AcDbEntity
  8
0
100
AcDbLine
 10
-29.25346363528644
 20
683.0152167138566
 30
0.0
 11
-28.1531260113241
 21
689.2555255294054
 31
0.0
  0
LINE
  5
1FB4
330
1A
100
AcDbEntity
  8
0
100
AcDbLine
 10
-36.77548592217846
 20
682.9412154358614
 30
0.0
 11
-35.27847691132393
 21
691.4312114294055
 31
0.0
  0
LINE
  5
1FB5
330
1A
100
AcDbEntity
  8
0
100
AcDbLine
 10
-35.13779439879983
 20
683.0150145444762
 30
0.0
 11
-33.9806368113239
 21
689.5777148294054
 31
0.0
  0
LINE
  5
1FB6
330
1A
100
AcDbEntity
  8
0
100
AcDbLine
 10
-3.891155064717906
 20
682.9410131673816
 30
0.0
 11
-2.777797911324171
 21
689.2555255294054
 31
0.0
  0
LINE
  5
1FB7
330
1A
100
AcDbEntity
  8
0
100
AcDbLine
 10
-2.253463635286436
 20
683.0152167138566
 30
0.0
 11
-1.153126011324104
 21
689.2555255294054
 31
0.0
  0
LINE
  5
1FB8
330
1A
100
AcDbEntity
  8
0
100
AcDbLine
 10
-9.775485922178461
 20
682.9412154358614
 30
0.0
 11
-8.278476911323934
 21
691.4312114294055
 31
0.0
  0
LINE
  5
1FB9
330
1A
100
AcDbEntity
  8
0
100
AcDbLine
 10
-8.137794398799826
 20
683.0150145444762
 30
0.0
 11
-6.980636811323904
 21
689.5777148294054
 31
0.0
  0
LINE
  5
1FBA
330
1A
100
AcDbEntity
  8
0
100
AcDbLine
 10
-42.75346363528643
 20
683.0152167138566
 30
0.0
 11
-41.6531260113241
 21
689.2555255294054
 31
0.0
  0
LINE
  5
1FBB
330
1A
100
AcDbEntity
  8
0
100
AcDbLine
 10
-44.3911550647179
 20
682.9410131673816
 30
0.0
 11
-43.27779791132416
 21
689.2555255294054
 31
0.0
  0
LINE
  5
1FBC
330
1A
100
AcDbEntity
  8
0
100
AcDbLine
 10
-48.63779439879983
 20
683.0150145444762
 30
0.0
 11
-47.4806368113239
 21
689.5777148294054
 31
0.0
  0
LINE
  5
1FBD
330
1A
100
AcDbEntity
  8
0
100
AcDbLine
 10
-50.27548592217846
 20
682.9412154358614
 30
0.0
 11
-48.77847691132394
 21
691.4312114294055
 31
0.0
  0
LINE
  5
1FBE
330
1A
100
AcDbEntity
  8
0
100
AcDbLine
 10
-57.89115506471791
 20
682.9410131673816
 30
0.0
 11
-56.77779791132417
 21
689.2555255294054
 31
0.0
  0
LINE
  5
1FBF
330
1A
100
AcDbEntity
  8
0
100
AcDbLine
 10
-56.25346363528644
 20
683.0152167138566
 30
0.0
 11
-55.15312601132411
 21
689.2555255294054
 31
0.0
  0
LINE
  5
1FC0
330
1A
100
AcDbEntity
  8
0
100
AcDbLine
 10
-63.77548592217846
 20
682.9412154358614
 30
0.0
 11
-62.27847691132393
 21
691.4312114294055
 31
0.0
  0
LINE
  5
1FC1
330
1A
100
AcDbEntity
  8
0
100
AcDbLine
 10
-62.13779439879982
 20
683.0150145444762
 30
0.0
 11
-60.98063681132391
 21
689.5777148294054
 31
0.0
  0
LINE
  5
1FC2
330
1A
100
AcDbEntity
  8
0
100
AcDbLine
 10
-69.75346363528643
 20
683.0152167138566
 30
0.0
 11
-68.6531260113241
 21
689.2555255294054
 31
0.0
  0
LINE
  5
1FC3
330
1A
100
AcDbEntity
  8
0
100
AcDbLine
 10
-71.39115506471791
 20
682.9410131673816
 30
0.0
 11
-70.27779791132417
 21
689.2555255294054
 31
0.0
  0
LINE
  5
1FC4
330
1A
100
AcDbEntity
  8
0
100
AcDbLine
 10
-1.047336811324214
 20
691.4555186294054
 30
0.0
 11
4.616542588675827
 21
691.4555186294054
 31
0.0
  0
LINE
  5
1FC5
330
1A
100
AcDbEntity
  8
0
100
AcDbLine
 10
-2.672016411323795
 20
689.8555125294055
 30
0.0
 11
4.334422888676442
 21
689.8555125294055
 31
0.0
  0
LINE
  5
1FC8
330
1A
100
AcDbEntity
  8
0
100
AcDbLine
 10
3.55710198867581
 20
672.7777041294055
 30
0.0
 11
4.931026572588223
 21
680.5696143421004
 31
0.0
  0
LINE
  5
1FC9
330
1A
100
AcDbEntity
  8
0
100
AcDbLine
 10
3.724514083238489
 20
682.9412154294053
 30
0.0
 11
4.364746183238082
 21
682.1781157294052
 31
0.0
  0
LINE
  5
1FCA
330
1A
100
AcDbEntity
  8
0
100
AcDbLine
 10
4.290756283238067
 20
681.3328131294055
 30
0.0
 11
4.931026583238406
 21
680.5696143294052
 31
0.0
  0
LINE
  5
1FCB
330
1A
100
AcDbEntity
  8
0
100
AcDbLine
 10
3.724514077821538
 20
682.9412154358614
 30
0.0
 11
5.221523088676065
 21
691.4312114294055
 31
0.0
  0
LINE
  5
1FCC
330
1A
100
AcDbEntity
  8
0
 48
0.5
100
AcDbLine
 10
76.41994401207682
 20
644.1555159294063
 30
0.0
 11
79.61994401207596
 21
644.1555159294056
 31
0.0
  0
LINE
  5
1FCD
330
1A
100
AcDbEntity
  8
0
 48
0.5
100
AcDbLine
 10
76.41994401207682
 20
628.1555159294056
 30
0.0
 11
79.61994401207596
 21
628.1555159294056
 31
0.0
  0
LINE
  5
1FCE
330
1A
100
AcDbEntity
  8
0
100
AcDbLine
 10
79.61994401207687
 20
636.1555159294056
 30
0.0
 11
79.61994401207687
 21
618.7135109904582
 31
0.0
  0
LINE
  5
1FCF
330
1A
100
AcDbEntity
  8
0
100
AcDbLine
 10
79.61994401207687
 20
636.1555159294056
 30
0.0
 11
79.61994401207687
 21
653.5975208683538
 31
0.0
  0
LINE
  5
1FD0
330
1A
100
AcDbEntity
  8
0
100
AcDbLine
 10
91.61994401207602
 20
636.1555159294056
 30
0.0
 11
91.61994401207602
 21
623.7135109904583
 31
0.0
  0
ARC
  5
1FD1
330
1A
100
AcDbEntity
  8
0
100
AcDbCircle
 10
86.61994401207602
 20
623.7135109904583
 30
0.0
 40
5.0
100
AcDbArc
 50
270.0
 51
0.000000000000007
  0
LINE
  5
1FD2
330
1A
100
AcDbEntity
  8
0
100
AcDbLine
 10
91.61994401207602
 20
636.1555159294056
 30
0.0
 11
91.61994401207602
 21
648.5975208683538
 31
0.0
  0
ARC
  5
1FD3
330
1A
100
AcDbEntity
  8
0
100
AcDbCircle
 10
86.61994401207602
 20
648.5975208683538
 30
0.0
 40
5.0
100
AcDbArc
 50
0.000000000000007
 51
90.00000000000003
  0
LINE
  5
1FD4
330
1A
100
AcDbEntity
  8
0
100
AcDbLine
 10
86.61994401207602
 20
618.7135109904582
 30
0.0
 11
79.61994401207687
 21
618.7135109904582
 31
0.0
  0
LINE
  5
1FD5
330
1A
100
AcDbEntity
  8
0
100
AcDbLine
 10
86.61994401207602
 20
653.5975208683538
 30
0.0
 11
79.61994401207687
 21
653.5975208683538
 31
0.0
  0
LINE
  5
1FD6
330
1A
100
AcDbEntity
  8
0
100
AcDbLine
 10
91.61994401207602
 20
629.6325926318394
 30
0.0
 11
79.61994401207642
 21
629.6325926318394
 31
0.0
  0
LINE
  5
1FD7
330
1A
100
AcDbEntity
  8
0
100
AcDbLine
 10
91.61994401207556
 20
642.6097415319881
 30
0.0
 11
79.61994401207642
 21
642.6097415319872
 31
0.0
  0
LINE
  5
1FD8
330
1A
100
AcDbEntity
  8
0
 48
0.25
100
AcDbLine
 10
75.21994401206524
 20
627.4744600384153
 30
0.0
 11
73.81994401206561
 21
628.2827504152806
 31
0.0
  0
ARC
  5
1FD9
330
1A
100
AcDbEntity
  8
0
 48
0.25
100
AcDbCircle
 10
74.8199440120656
 20
630.0148012228488
 30
0.0
 40
2.0
100
AcDbArc
 50
180.0
 51
239.9999999999983
  0
LINE
  5
1FDA
330
1A
100
AcDbEntity
  8
0
 48
0.25
100
AcDbLine
 10
76.41994401206597
 20
656.1555159294053
 30
0.0
 11
75.21994401206524
 21
656.1555159294053
 31
0.0
  0
LINE
  5
1FDB
330
1A
100
AcDbEntity
  8
0
 48
0.25
100
AcDbLine
 10
75.21994401206524
 20
651.3163821111126
 30
0.0
 11
73.81994401206561
 21
650.5080917342471
 31
0.0
  0
ARC
  5
1FDC
330
1A
100
AcDbEntity
  8
0
 48
0.25
100
AcDbCircle
 10
74.8199440120656
 20
648.7760409266781
 30
0.0
 40
2.0
100
AcDbArc
 50
119.9999999999996
 51
180.0
  0
LINE
  5
1FDD
330
1A
100
AcDbEntity
  8
0
 48
10.0
100
AcDbLine
 10
87.95896562488763
 20
636.1555159294054
 30
0.0
 11
58.55908318593304
 21
636.1555159294054
 31
0.0
  0
LINE
  5
1FDE
330
1A
100
AcDbEntity
  8
0
 48
0.25
100
AcDbLine
 10
68.31994401206561
 20
646.1555159294054
 30
0.0
 11
72.3199440120656
 21
646.1555159294054
 31
0.0
  0
LINE
  5
1FDF
330
1A
100
AcDbEntity
  8
0
 48
0.25
100
AcDbLine
 10
68.31994401206561
 20
626.1555159294053
 30
0.0
 11
72.3199440120656
 21
626.1555159294053
 31
0.0
  0
LINE
  5
1FE0
330
1A
100
AcDbEntity
  8
0
 48
0.25
100
AcDbLine
 10
72.3199440120656
 20
646.1555159294054
 30
0.0
 11
72.3199440120656
 21
636.1555159294054
 31
0.0
  0
LINE
  5
1FE1
330
1A
100
AcDbEntity
  8
0
 48
0.25
100
AcDbLine
 10
72.3199440120656
 20
626.1555159294053
 30
0.0
 11
72.3199440120656
 21
636.1555159294054
 31
0.0
  0
LINE
  5
1FE2
330
1A
100
AcDbEntity
  8
0
 48
0.25
100
AcDbLine
 10
72.3199440120656
 20
646.1555159294054
 30
0.0
 11
72.3199440120656
 21
636.1555159294054
 31
0.0
  0
LINE
  5
1FE3
330
1A
100
AcDbEntity
  8
0
 48
0.25
100
AcDbLine
 10
68.31994401206561
 20
646.1555159294054
 30
0.0
 11
68.31994401206561
 21
636.1555159294054
 31
0.0
  0
LINE
  5
1FE4
330
1A
100
AcDbEntity
  8
0
 48
0.25
100
AcDbLine
 10
68.31994401206561
 20
626.1555159294053
 30
0.0
 11
68.31994401206561
 21
636.1555159294054
 31
0.0
  0
ARC
  5
1FE5
330
1A
100
AcDbEntity
  8
0
 48
0.25
100
AcDbCircle
 10
33.31994401206856
 20
638.1555159294052
 30
0.0000000000001068
 40
2.0
100
AcDbArc
 50
0.0
 51
89.99999999999998
  0
POINT
  5
1FE6
330
1A
100
AcDbEntity
  8
0
100
AcDbPoint
 10
34.53485054779065
 20
639.7442267619534
 30
0.0000000000001068
  0
POINT
  5
1FE7
330
1A
100
AcDbEntity
  8
0
100
AcDbPoint
 10
35.31994401206811
 20
632.6555159294038
 30
0.0000000000000693
  0
POINT
  5
1FE8
330
1A
100
AcDbEntity
  8
0
100
AcDbPoint
 10
35.31994401206811
 20
637.1555159294038
 30
0.0000000000000693
  0
ARC
  5
1FEA
330
1A
100
AcDbEntity
  8
0
 48
0.25
100
AcDbCircle
 10
27.31994401206538
 20
698.4555159294044
 30
0.0
 40
8.0
100
AcDbArc
 50
0.0000000000001018
 51
90.0
  0
ARC
  5
1FEB
330
1A
100
AcDbEntity
  8
0
 48
0.25
100
AcDbCircle
 10
27.31994401206538
 20
698.4555159294044
 30
0.0
 40
10.0
100
AcDbArc
 50
0.0000000000001018
 51
90.0
  0
ARC
  5
1FEC
330
1A
100
AcDbEntity
  8
0
 48
0.25
100
AcDbCircle
 10
27.31994401206538
 20
649.155515929407
 30
0.0
 40
8.0
100
AcDbArc
 50
270.0000000000009
 51
0.0
  0
POINT
  5
1FED
330
1A
100
AcDbEntity
  8
0
 48
0.25
100
AcDbPoint
 10
25.67838146702155
 20
600.8069150245222
 30
0.0
  0
ARC
  5
1FEE
330
1A
100
AcDbEntity
  8
0
100
AcDbCircle
 10
25.31994401206788
 20
601.1555159294068
 30
0.0
 40
0.5
100
AcDbArc
 50
270.0
 51
0.0
  0
LINE
  5
1FEF
330
1A
100
AcDbEntity
  8
0
100
AcDbLine
 10
25.81994401206788
 20
601.1555159294068
 30
0.0
 11
25.81994401206788
 21
612.1555159294067
 31
0.0
  0
ARC
  5
1FF0
330
1A
100
AcDbEntity
  8
0
100
AcDbCircle
 10
25.31994401206788
 20
612.1555159294067
 30
0.0
 40
0.5
100
AcDbArc
 50
0.0
 51
90.0
  0
LINE
  5
1FF1
330
1A
100
AcDbEntity
  8
0
100
AcDbLine
 10
18.61988487206616
 20
673.7055193494046
 30
0.0
 11
18.61988487206616
 21
668.4056650694046
 31
0.0
  0
POINT
  5
1FF3
330
1A
100
AcDbEntity
  8
0
100
AcDbPoint
 10
33.31994401206856
 20
640.1555159294051
 30
0.0000000000000114
  0
POINT
  5
1FF4
330
1A
100
AcDbEntity
  8
0
100
AcDbPoint
 10
33.31994401206856
 20
625.1555159294049
 30
0.0000000000000108
  0
POINT
  5
1FF5
330
1A
100
AcDbEntity
  8
0
100
AcDbPoint
 10
33.31994401206856
 20
625.1555159294049
 30
0.0000000000000108
  0
ARC
  5
1FF6
330
1A
100
AcDbEntity
  8
0
 48
0.25
100
AcDbCircle
 10
67.5199440120652
 20
738.3555159294045
 30
0.0
 40
0.8
100
AcDbArc
 50
0.0000000000001018
 51
89.99999999999992
  0
ARC
  5
1FF7
330
1A
100
AcDbEntity
  8
0
100
AcDbCircle
 10
33.31994401206629
 20
622.1555159294069
 30
0.0
 40
2.0
100
AcDbArc
 50
359.999999999999
 51
90.00000000000049
  0
ARC
  5
1FF8
330
1A
100
AcDbEntity
  8
0
100
AcDbCircle
 10
33.31994401206629
 20
627.1555159294069
 30
0.0
 40
2.0
100
AcDbArc
 50
270.0000000000005
 51
359.9999999999939
  0
ARC
  5
1FF9
330
1A
100
AcDbEntity
  8
0
100
AcDbCircle
 10
33.31994401206811
 20
638.1555159294052
 30
0.0
 40
2.0
100
AcDbArc
 50
0.0
 51
90.00000000000049
  0
POINT
  5
1FFA
330
1A
100
AcDbEntity
  8
0
 48
0.25
100
AcDbPoint
 10
33.11994401206647
 20
624.155515929407
 30
0.0
  0
POINT
  5
1FFB
330
1A
100
AcDbEntity
  8
0
 48
0.25
100
AcDbPoint
 10
33.11994401205919
 20
624.1555293935083
 30
0.0
  0
LINE
  5
1FFC
330
1A
100
AcDbEntity
  8
0
 48
0.25
100
AcDbLine
 10
35.31994401206538
 20
638.1555159294052
 30
0.0
 11
35.31994401206538
 21
627.1555159294069
 31
0.0
  0
LINE
  5
1FFD
330
1A
100
AcDbEntity
  8
0
 48
0.25
100
AcDbLine
 10
35.31994401206538
 20
698.4555159294044
 30
0.0
 11
35.31994401206538
 21
649.155515929407
 31
0.0
  0
LINE
  5
1FFE
330
1A
100
AcDbEntity
  8
0
 48
0.25
100
AcDbLine
 10
35.01994401206588
 20
698.1555159294039
 30
0.0
 11
35.01994401206542
 21
649.4555159294064
 31
0.0
  0
ARC
  5
1FFF
330
1A
100
AcDbEntity
  8
0
 48
0.25
100
AcDbCircle
 10
27.01994401206565
 20
698.1555159294038
 30
0.0
 40
8.0
100
AcDbArc
 50
0.0
 51
90.0
  0
ARC
  5
2000
330
1A
100
AcDbEntity
  8
0
 48
0.25
100
AcDbCircle
 10
27.01994401206565
 20
649.4555159294062
 30
0.0
 40
8.0
100
AcDbArc
 50
270.0000000000009
 51
359.9999999999999
  0
POINT
  5
2001
330
1A
100
AcDbEntity
  8
0
 48
0.25
100
AcDbPoint
 10
32.67679826155785
 20
703.8123701788963
 30
0.0
  0
LINE
  5
2002
330
1A
100
AcDbEntity
  8
0
100
AcDbLine
 10
35.31994401206856
 20
638.1555159294052
 30
0.0000000000001068
 11
35.31994401206856
 21
627.1555159294049
 31
-0.0000000000003221
  0
POINT
  5
2003
330
1A
100
AcDbEntity
  8
0
100
AcDbPoint
 10
35.22782241490239
 20
626.555515929405
 30
-0.0000000000004897
  0
ARC
  5
2004
330
1A
100
AcDbEntity
  8
0
 48
0.25
100
AcDbCircle
 10
33.31994401206856
 20
627.1555159294049
 30
-0.0000000000004897
 40
2.0
100
AcDbArc
 50
270.0
 51
0.0
  0
DIMENSION
  5
2065
330
1A
100
AcDbEntity
  8
0
 48
0.25
100
AcDbDimension
  2
*D16
 10
692.0583480646524
 20
812.7181464666998
 30
0.0
 11
732.4583616030232
 21
812.7181464666998
 31
0.0
 70
   160
  1
(100)
 71
     5
 42
96.80002707674203
  3
AD-STANDARD
100
AcDbAlignedDimension
 13
788.8583751413944
 23
576.3561407841331
 33
0.0
 14
692.0583480646524
 24
708.4555159366423
 34
0.0
100
AcDbRotatedDimension
1001
ACAD
1000
DSTYLE
1002
{
1070
   287
1070
     1
1070
   287
1070
     1
1070
   287
1070
     1
1070
   287
1070
     1
1070
   287
1070
     1
1070
    40
1040
5.0
1070
   140
1040
2.799999999999999
1070
   271
1070
     3
1070
   272
1070
     8
1070
   289
1070
     1
1002
}
  0
LINE
  5
2066
330
1A
100
AcDbEntity
  8
0
 48
0.25
100
AcDbLine
 10
767.9185402975164
 20
551.4019020773611
 30
0.0
 11
748.3980405676289
 21
641.252210344816
 31
0.0
  0
LINE
  5
2067
330
1A
100
AcDbEntity
  8
0
 48
10.0
100
AcDbLine
 10
696.6115570467482
 20
539.4717957365872
 30
0.0
 11
715.324753365082
 21
625.6061919425061
 31
0.0
  0
LINE
  5
2068
330
1A
100
AcDbEntity
  8
0
 48
10.0
100
AcDbLine
 10
761.5051390825564
 20
539.471795736584
 30
0.0
 11
742.7919427642219
 21
625.6061919425061
 31
0.0
  0
LINE
  5
2069
330
1A
100
AcDbEntity
  8
0
 48
0.25
100
AcDbLine
 10
745.4454896378494
 20
551.2170319129087
 30
0.0
 11
733.9443671578493
 21
604.1551946552914
 31
0.0
  0
LINE
  5
206A
330
1A
100
AcDbEntity
  8
0
 48
10.0
100
AcDbLine
 10
744.2728450247078
 20
550.9622680786048
 30
0.0
 11
732.7717225447078
 21
603.9004308209874
 31
0.0
  0
LINE
  5
206B
330
1A
100
AcDbEntity
  8
0
 48
0.25
100
AcDbLine
 10
712.6712064220174
 20
551.2170318957702
 30
0.0
 11
724.1723287112765
 21
604.1551946552914
 31
0.0
  0
LINE
  5
206C
330
1A
100
AcDbEntity
  8
0
 48
10.0
100
AcDbLine
 10
713.843851036053
 20
550.9622680655789
 30
0.0
 11
725.344973325312
 21
603.9004308251001
 31
0.0
  0
LINE
  5
206D
330
1A
100
AcDbEntity
  8
0
 48
0.25
100
AcDbLine
 10
760.3324944689669
 20
539.217031904339
 30
0.0
 11
741.6343235184864
 21
625.2822683063534
 31
0.0
  0
LINE
  5
206E
330
1A
100
AcDbEntity
  8
0
 48
0.25
100
AcDbLine
 10
697.784201660337
 20
539.2170319043391
 30
0.0
 11
716.4823726108176
 21
625.2822683063534
 31
0.0
  0
LINE
  5
206F
330
1A
100
AcDbEntity
  8
0
 48
0.25
100
AcDbLine
 10
762.8583751413945
 20
613.6555159366452
 30
0.0
 11
762.8583751413945
 21
574.6931807563428
 31
0.0
  0
LINE
  5
2070
330
1A
100
AcDbEntity
  8
0
 48
0.25
100
AcDbLine
 10
694.058348064652
 20
723.1555159366422
 30
0.0
 11
694.0583480646524
 21
569.169862267615
 31
0.0
  0
DIMENSION
  5
2072
330
1A
100
AcDbEntity
  8
0
 48
0.25
100
AcDbDimension
  2
*D14
 10
662.7769683081443
 20
516.1555159366431
 30
0.0
 11
653.2769683081442
 21
627.6555159366428
 31
0.0
 70
    32
 71
     5
 42
222.9999999999991
  3
AD-STANDARD
100
AcDbAlignedDimension
 13
710.058348064652
 23
739.1555159366422
 33
0.0
 14
689.058348064652
 24
516.1555159366431
 34
0.0
 50
90.0
100
AcDbRotatedDimension
1001
ACAD
1000
DSTYLE
1002
{
1070
   287
1070
     1
1070
   287
1070
     1
1070
   287
1070
     1
1070
   287
1070
     1
1070
   287
1070
     1
1070
    40
1040
5.0
1070
   140
1040
2.799999999999999
1070
   271
1070
     3
1070
   272
1070
     8
1070
   289
1070
     1
1002
}
  0
LINE
  5
2073
330
1A
100
AcDbEntity
  8
0
 48
0.25
100
AcDbLine
 10
690.1981558317876
 20
551.4019020773615
 30
0.0
 11
709.718655561675
 21
641.252210344816
 31
0.0
  0
LINE
  5
2074
330
1A
100
AcDbEntity
  8
0
 48
0.25
100
AcDbLine
 10
769.058348064652
 20
516.1555159366431
 30
0.0
 11
689.058348064652
 21
516.1555159366431
 31
0.0
  0
LINE
  5
2075
330
1A
100
AcDbEntity
  8
0
 48
0.25
100
AcDbLine
 10
769.058348064652
 20
516.1555159366431
 30
0.0
 11
689.058348064652
 21
516.1555159366431
 31
0.0
  0
LINE
  5
2076
330
1A
100
AcDbEntity
  8
0
 48
10.0
100
AcDbLine
 10
756.058348064652
 20
519.7555159366431
 30
0.0
 11
746.058348064652
 21
519.7555159366431
 31
0.0
  0
LINE
  5
2077
330
1A
100
AcDbEntity
  8
0
 48
10.0
100
AcDbLine
 10
769.058348064652
 20
517.3555159366432
 30
0.0
 11
739.7511683876794
 21
517.3555159366432
 31
0.0
  0
LINE
  5
2079
330
1A
100
AcDbEntity
  8
0
 48
10.0
100
AcDbLine
 10
744.0583480646522
 20
531.9555159366404
 30
0.0
 11
755.446475245681
 21
531.9555159366399
 31
0.0
  0
LINE
  5
207A
330
1A
100
AcDbEntity
  8
0
 48
0.25
100
AcDbLine
 10
755.4464752456805
 20
533.1555159366421
 30
0.0
 11
744.058348064652
 21
533.1555159366422
 31
0.0
  0
ARC
  5
207D
330
1A
100
AcDbEntity
  8
0
 48
0.25
100
AcDbCircle
 10
751.058348064652
 20
523.1555159366422
 30
0.0
 40
6.200000000000318
100
AcDbArc
 50
0.000000000000007
 51
180.0000000000026
  0
ARC
  5
207E
330
1A
100
AcDbEntity
  8
0
 48
0.25
100
AcDbCircle
 10
751.058348064652
 20
523.1555159366422
 30
0.0
 40
5.000000000000317
100
AcDbArc
 50
0.000000000000007
 51
180.0000000000026
  0
LINE
  5
207F
330
1A
100
AcDbEntity
  8
0
100
AcDbLine
 10
689.058348064652
 20
516.1555159366431
 30
0.0
 11
689.058348064652
 21
540.7867424003927
 31
0.0
  0
LINE
  5
2080
330
1A
100
AcDbEntity
  8
0
 48
0.25
100
AcDbLine
 10
689.058348064652
 20
516.1555159366431
 30
0.0
 11
746.4433463730089
 21
516.1555159366431
 31
0.0
  0
LINE
  5
2081
330
1A
100
AcDbEntity
  8
0
 48
10.0
100
AcDbLine
 10
746.058348064652
 20
519.7555159366431
 30
0.0
 11
720.9058689260589
 21
519.7555159366431
 31
0.0
  0
LINE
  5
2082
330
1A
100
AcDbEntity
  8
0
 48
10.0
100
AcDbLine
 10
737.2108272032451
 20
518.555515936643
 30
0.0
 11
720.9058689260589
 21
518.5555159366432
 31
0.0
  0
ARC
  5
2083
330
1A
100
AcDbEntity
  8
0
 48
10.0
100
AcDbCircle
 10
720.9058689260589
 20
517.7555159366432
 30
0.0
 40
0.8
100
AcDbArc
 50
89.99999999999923
 51
149.999999999999
  0
LINE
  5
2084
330
1A
100
AcDbEntity
  8
0
 48
10.0
100
AcDbLine
 10
718.3655277416245
 20
517.355515936643
 30
0.0
 11
689.058348064652
 21
517.3555159366432
 31
0.0
  0
ARC
  5
2085
330
1A
100
AcDbEntity
  8
0
 48
10.0
100
AcDbCircle
 10
720.9058689260589
 20
517.7555159366431
 30
0.0
 40
2.0
100
AcDbArc
 50
90.0
 51
149.9999999999989
  0
LINE
  5
2086
330
1A
100
AcDbEntity
  8
0
 48
10.0
100
AcDbLine
 10
719.7511683876797
 20
519.7555159366431
 30
0.0
 11
712.058348064652
 21
519.7555159366431
 31
0.0
  0
LINE
  5
2087
330
1A
100
AcDbEntity
  8
0
 48
0.25
100
AcDbLine
 10
718.3655277416245
 20
517.355515936643
 30
0.0
 11
719.17381811849
 21
518.7555159366431
 31
0.0
  0
LINE
  5
2088
330
1A
100
AcDbEntity
  8
0
 48
0.25
100
AcDbLine
 10
719.058348064652
 20
516.1555159366431
 30
0.0
 11
720.2130486030313
 21
518.1555159366432
 31
0.0
  0
LINE
  5
2089
330
1A
100
AcDbEntity
  8
0
 48
0.25
100
AcDbLine
 10
702.058348064652
 20
516.1555159366431
 30
0.0
 11
702.058348064652
 21
521.1555159366431
 31
0.0
  0
LINE
  5
208A
330
1A
100
AcDbEntity
  8
0
 48
10.0
100
AcDbLine
 10
712.058348064652
 20
519.7555159366431
 30
0.0
 11
702.058348064652
 21
519.7555159366431
 31
0.0
  0
LINE
  5
208B
330
1A
100
AcDbEntity
  8
0
 48
10.0
100
AcDbLine
 10
695.9583480646507
 20
517.3555159366432
 30
0.0
 11
696.7666384415164
 21
518.7555159366431
 31
0.0
  0
ARC
  5
208C
330
1A
100
AcDbEntity
  8
0
 48
10.0
100
AcDbCircle
 10
698.498689249085
 20
517.7555159366431
 30
0.0
 40
2.0
100
AcDbArc
 50
90.0
 51
149.9999999999984
  0
LINE
  5
208D
330
1A
100
AcDbEntity
  8
0
 48
10.0
100
AcDbLine
 10
702.058348064652
 20
519.7555159366431
 30
0.0
 11
698.498689249085
 21
519.7555159366431
 31
0.0
  0
ARC
  5
2091
330
1A
100
AcDbEntity
  8
0
 48
0.25
100
AcDbCircle
 10
737.2108272032451
 20
517.7555159366429
 30
0.0
 40
0.8
100
AcDbArc
 50
30.00000000000099
 51
89.9999999999992
  0
LINE
  5
2092
330
1A
100
AcDbEntity
  8
0
 48
10.0
100
AcDbLine
 10
746.058348064652
 20
518.5555159366431
 30
0.0
 11
744.8583480646521
 21
518.555515936643
 31
0.0
  0
LINE
  5
2093
330
1A
100
AcDbEntity
  8
0
 48
0.25
100
AcDbLine
 10
739.058348064652
 20
516.1555159366431
 30
0.0
 11
737.9036475262727
 21
518.1555159366429
 31
0.0
  0
LINE
  5
2094
330
1A
100
AcDbEntity
  8
0
 48
0.25
100
AcDbLine
 10
739.7511683876794
 20
517.3555159366432
 30
0.0
 11
738.9428780108139
 21
518.7555159366431
 31
0.0
  0
ARC
  5
2095
330
1A
100
AcDbEntity
  8
0
 48
10.0
100
AcDbCircle
 10
737.2108272032451
 20
517.7555159366431
 30
0.0
 40
2.0
100
AcDbArc
 50
30.00000000000109
 51
90.0
  0
ARC
  5
2096
330
1A
100
AcDbEntity
  8
0
 48
0.25
100
AcDbCircle
 10
744.058348064652
 20
528.1555159366422
 30
0.0
 40
3.799999999999999
100
AcDbArc
 50
89.99999999999982
 51
180.0
  0
LINE
  5
2097
330
1A
100
AcDbEntity
  8
0
 48
0.25
100
AcDbLine
 10
740.258348064652
 20
528.1555159366422
 30
0.0
 11
740.258348064652
 21
517.3555159366433
 31
0.0
  0
ARC
  5
2098
330
1A
100
AcDbEntity
  8
0
 48
0.25
100
AcDbCircle
 10
744.058348064652
 20
528.1555159366422
 30
0.0
 40
5.0
100
AcDbArc
 50
89.99999999999982
 51
180.0
  0
LINE
  5
2099
330
1A
100
AcDbEntity
  8
0
 48
0.25
100
AcDbLine
 10
739.058348064652
 20
528.1555159366422
 30
0.0
 11
739.058348064652
 21
516.1555159366431
 31
0.0
  0
LINE
  5
209A
330
1A
100
AcDbEntity
  8
0
 48
10.0
100
AcDbLine
 10
744.8583480646521
 20
516.1555159366431
 30
0.0
 11
744.8583480646521
 21
523.1555159366422
 31
0.0
  0
LINE
  5
209B
330
1A
100
AcDbEntity
  8
0
 48
0.25
100
AcDbLine
 10
746.058348064652
 20
516.1555159366431
 30
0.0
 11
746.058348064652
 21
523.1555159366422
 31
0.0
  0
ARC
  5
209C
330
1A
100
AcDbEntity
  8
0
 48
0.25
100
AcDbCircle
 10
707.0583480646519
 20
523.1555159366428
 30
0.0
 40
6.200000000000318
100
AcDbArc
 50
359.9999999999973
 51
180.0
  0
ARC
  5
209D
330
1A
100
AcDbEntity
  8
0
 48
0.25
100
AcDbCircle
 10
714.058348064652
 20
528.1555159366422
 30
0.0
 40
3.799999999999999
100
AcDbArc
 50
0.0
 51
90.0
  0
LINE
  5
209E
330
1A
100
AcDbEntity
  8
0
 48
0.25
100
AcDbLine
 10
717.8583480646519
 20
528.1555159366422
 30
0.0
 11
717.8583480646519
 21
517.3555159366429
 31
0.0
  0
ARC
  5
209F
330
1A
100
AcDbEntity
  8
0
 48
0.25
100
AcDbCircle
 10
714.058348064652
 20
528.1555159366422
 30
0.0
 40
5.0
100
AcDbArc
 50
0.0
 51
90.0
  0
LINE
  5
20A0
330
1A
100
AcDbEntity
  8
0
 48
0.25
100
AcDbLine
 10
714.058348064652
 20
533.1555159366422
 30
0.0
 11
702.6702208836233
 21
533.1555159366422
 31
0.0
  0
LINE
  5
20A1
330
1A
100
AcDbEntity
  8
0
 48
0.25
100
AcDbLine
 10
719.058348064652
 20
528.1555159366422
 30
0.0
 11
719.058348064652
 21
516.1555159366431
 31
0.0
  0
ARC
  5
20A2
330
1A
100
AcDbEntity
  8
0
 48
10.0
100
AcDbCircle
 10
702.6702208836232
 20
538.1555159366431
 30
0.0
 40
6.2
100
AcDbArc
 50
167.742640486227
 51
269.9999999999966
  0
ARC
  5
20A3
330
1A
100
AcDbEntity
  8
0
 48
0.25
100
AcDbCircle
 10
702.6702208836233
 20
538.1555159366422
 30
0.0
 40
5.0
100
AcDbArc
 50
167.742640486227
 51
270.0
  0
ARC
  5
20A4
330
1A
100
AcDbEntity
  8
0
 48
0.25
100
AcDbCircle
 10
707.0583480646519
 20
523.1555159366428
 30
0.0
 40
5.000000000000317
100
AcDbArc
 50
359.9999999999973
 51
180.0
  0
LINE
  5
20A5
330
1A
100
AcDbEntity
  8
0
 48
0.25
100
AcDbLine
 10
712.058348064652
 20
516.1555159366431
 30
0.0
 11
712.058348064652
 21
523.1555159366422
 31
0.0
  0
LINE
  5
20A6
330
1A
100
AcDbEntity
  8
0
 48
0.25
100
AcDbLine
 10
702.058348064652
 20
516.1555159366431
 30
0.0
 11
702.058348064652
 21
523.1555159366422
 31
0.0
  0
LINE
  5
20A7
330
1A
100
AcDbEntity
  8
0
 48
10.0
100
AcDbLine
 10
713.2583480646518
 20
516.1555159366431
 30
0.0
 11
713.2583480646518
 21
523.1555159366422
 31
0.0
  0
LINE
  5
20A8
330
1A
100
AcDbEntity
  8
0
 48
10.0
100
AcDbLine
 10
700.8583480646522
 20
516.1555159366431
 30
0.0
 11
700.8583480646522
 21
523.1555159366422
 31
0.0
  0
LINE
  5
20A9
330
1A
100
AcDbEntity
  8
0
 48
10.0
100
AcDbLine
 10
702.6702208836231
 20
531.9555159366431
 30
0.0
 11
714.0583480646522
 21
531.9555159366424
 31
0.0
  0
LINE
  5
20AB
330
1A
100
AcDbEntity
  8
0
 48
0.25
100
AcDbLine
 10
740.5594704164251
 20
545.1555159366422
 30
0.0
 11
717.557225647166
 21
545.1555159366431
 31
0.0
  0
LINE
  5
20AC
330
1A
100
AcDbEntity
  8
0
 48
10.0
100
AcDbLine
 10
740.5594704164251
 20
546.3555159366429
 30
0.0
 11
717.557225647166
 21
546.3555159366429
 31
0.0
  0
ARC
  5
20AD
330
1A
100
AcDbEntity
  8
0
 48
0.25
100
AcDbCircle
 10
717.557225647166
 20
550.1555159366431
 30
0.0
 40
5.0
100
AcDbArc
 50
167.7426405867203
 51
269.9999999999999
  0
ARC
  5
20AE
330
1A
100
AcDbEntity
  8
0
 48
10.0
100
AcDbCircle
 10
717.557225647166
 20
550.1555159366431
 30
0.0
 40
3.799999999999999
100
AcDbArc
 50
167.7426405867203
 51
269.9999999999999
  0
ARC
  5
20AF
330
1A
100
AcDbEntity
  8
0
 48
10.0
100
AcDbCircle
 10
740.5594704164251
 20
550.1555159366422
 30
0.0
 40
3.799999999999999
100
AcDbArc
 50
270.0
 51
12.25735961426609
  0
ARC
  5
20B0
330
1A
100
AcDbEntity
  8
0
 48
0.25
100
AcDbCircle
 10
739.058348064652
 20
540.7867424003929
 30
0.0
 40
50.0
100
AcDbArc
 50
167.7426404862272
 51
180.0000000000001
  0
LINE
  5
20B1
330
1A
100
AcDbEntity
  8
0
100
AcDbLine
 10
769.058348064652
 20
516.1555159366431
 30
0.0
 11
769.058348064652
 21
540.7867424003923
 31
0.0
  0
LINE
  5
20B2
330
1A
100
AcDbEntity
  8
0
 48
0.25
100
AcDbLine
 10
756.058348064652
 20
516.1555159366431
 30
0.0
 11
756.058348064652
 21
521.1555159366431
 31
0.0
  0
LINE
  5
20B3
330
1A
100
AcDbEntity
  8
0
 48
0.25
100
AcDbLine
 10
756.058348064652
 20
516.1555159366431
 30
0.0
 11
756.058348064652
 21
523.1555159366422
 31
0.0
  0
LINE
  5
20B4
330
1A
100
AcDbEntity
  8
0
 48
10.0
100
AcDbLine
 10
757.2583480646518
 20
516.1555159366431
 30
0.0
 11
757.2583480646518
 21
523.1555159366422
 31
0.0
  0
LINE
  5
20B5
330
1A
100
AcDbEntity
  8
0
 48
10.0
100
AcDbLine
 10
762.1583480646542
 20
517.3555159366432
 30
0.0
 11
761.3500576877885
 21
518.7555159366431
 31
0.0
  0
ARC
  5
20B6
330
1A
100
AcDbEntity
  8
0
 48
10.0
100
AcDbCircle
 10
759.6180068802197
 20
517.7555159366431
 30
0.0
 40
2.0
100
AcDbArc
 50
30.00000000000155
 51
90.0
  0
LINE
  5
20B7
330
1A
100
AcDbEntity
  8
0
 48
10.0
100
AcDbLine
 10
759.6180068802197
 20
519.7555159366431
 30
0.0
 11
756.058348064652
 21
519.7555159366431
 31
0.0
  0
ARC
  5
20BA
330
1A
100
AcDbEntity
  8
0
 48
10.0
100
AcDbCircle
 10
755.4464752456813
 20
538.1555159366399
 30
0.0
 40
6.2
100
AcDbArc
 50
269.9999999999966
 51
12.25735951377292
  0
ARC
  5
20BB
330
1A
100
AcDbEntity
  8
0
 48
0.25
100
AcDbCircle
 10
755.4464752456805
 20
538.1555159366421
 30
0.0
 40
5.0
100
AcDbArc
 50
270.0
 51
12.25735951377292
  0
ARC
  5
20BC
330
1A
100
AcDbEntity
  8
0
 48
0.25
100
AcDbCircle
 10
783.8583751413945
 20
590.5061407841332
 30
0.0
 40
5.0
100
AcDbArc
 50
0.0
 51
90.0
  0
LINE
  5
20BD
330
1A
100
AcDbEntity
  8
0
 48
0.25
100
AcDbLine
 10
788.8583751413944
 20
584.2329755757081
 30
0.0
 11
775.8583751413945
 21
584.2329755757085
 31
0.0
  0
LINE
  5
20BE
330
1A
100
AcDbEntity
  8
0
 48
0.25
100
AcDbLine
 10
788.8583751413944
 20
587.8329755757085
 30
0.0
 11
775.8583751413945
 21
587.8329755757082
 31
0.0
  0
LINE
  5
20BF
330
1A
100
AcDbEntity
  8
0
 48
0.25
100
AcDbLine
 10
788.8583751413944
 20
585.2329755757081
 30
0.0
 11
775.8583751413945
 21
585.2329755757085
 31
0.0
  0
LINE
  5
20C0
330
1A
100
AcDbEntity
  8
0
 48
0.25
100
AcDbLine
 10
788.8583751413944
 20
586.8329755757084
 30
0.0
 11
775.8583751413945
 21
586.8329755757082
 31
0.0
  0
LINE
  5
20C1
330
1A
100
AcDbEntity
  8
0
 48
0.25
100
AcDbLine
 10
788.8583751413944
 20
568.479305992558
 30
0.0
 11
775.8583751413945
 21
568.4793059925576
 31
0.0
  0
LINE
  5
20C2
330
1A
100
AcDbEntity
  8
0
 48
0.25
100
AcDbLine
 10
770.8583751413945
 20
568.4793059925579
 30
0.0
 11
764.8583751413944
 21
568.4793059925576
 31
0.0
  0
LINE
  5
20C3
330
1A
100
AcDbEntity
  8
0
 48
0.25
100
AcDbLine
 10
770.8583751413945
 20
584.2329755757085
 30
0.0
 11
764.8583751413944
 21
584.2329755757083
 31
0.0
  0
LINE
  5
20C4
330
1A
100
AcDbEntity
  8
0
 48
0.25
100
AcDbLine
 10
770.8583751413945
 20
587.8329755757085
 30
0.0
 11
764.8583751413944
 21
587.8329755757091
 31
0.0
  0
LINE
  5
20C5
330
1A
100
AcDbEntity
  8
0
 48
0.25
100
AcDbLine
 10
770.8583751413945
 20
589.5561407841332
 30
0.0
 11
773.8583751413945
 21
589.5561407841332
 31
0.0
  0
LINE
  5
20C6
330
1A
100
AcDbEntity
  8
0
 48
0.25
100
AcDbLine
 10
770.8583751413945
 20
587.7561407841332
 30
0.0
 11
773.8583751413945
 21
587.7561407841332
 31
0.0
  0
LINE
  5
20C7
330
1A
100
AcDbEntity
  8
0
 48
0.25
100
AcDbLine
 10
762.8583751413945
 20
589.5561407841332
 30
0.0
 11
764.8583751413944
 21
589.5561407841332
 31
0.0
  0
LINE
  5
20C8
330
1A
100
AcDbEntity
  8
0
 48
0.25
100
AcDbLine
 10
762.8583751413945
 20
587.7561407841327
 30
0.0
 11
764.8583751413944
 21
587.7561407841327
 31
0.0
  0
LINE
  5
20C9
330
1A
100
AcDbEntity
  8
0
 48
0.25
100
AcDbLine
 10
783.8583751413945
 20
595.5061407841331
 30
0.0
 11
773.8583751413945
 21
595.506140784133
 31
0.0
  0
LINE
  5
20CA
330
1A
100
AcDbEntity
  8
0
 48
0.25
100
AcDbLine
 10
770.8583751413945
 20
595.5061407841327
 30
0.0
 11
764.8583751413944
 21
595.506140784133
 31
0.0
  0
LINE
  5
20CB
330
1A
100
AcDbEntity
  8
0
 48
0.25
100
AcDbLine
 10
764.8583751413944
 20
595.5061407841331
 30
0.0
 11
762.8583751413945
 21
595.506140784133
 31
0.0
  0
ARC
  5
20CC
330
1A
100
AcDbEntity
  8
0
 48
0.25
100
AcDbCircle
 10
719.058348064652
 20
540.7867424003923
 30
0.0
 40
50.0
100
AcDbArc
 50
0.0
 51
12.25735951377277
  0
LINE
  5
20CD
330
1A
100
AcDbEntity
  8
0
 48
0.25
100
AcDbLine
 10
770.8583751413945
 20
557.206140784133
 30
0.0
 11
766.6575358302808
 21
557.206140784133
 31
0.0
  0
ARC
  5
20CE
330
1A
100
AcDbEntity
  8
0
 48
0.25
100
AcDbCircle
 10
783.8583751413945
 20
562.206140784133
 30
0.0
 40
5.0
100
AcDbArc
 50
270.0
 51
359.9999999999998
  0
LINE
  5
20CF
330
1A
100
AcDbEntity
  8
0
 48
0.25
100
AcDbLine
 10
788.8583751413944
 20
565.8793059925577
 30
0.0
 11
775.8583751413945
 21
565.879305992558
 31
0.0
  0
LINE
  5
20D0
330
1A
100
AcDbEntity
  8
0
 48
0.25
100
AcDbLine
 10
788.8583751413944
 20
567.4793059925581
 30
0.0
 11
775.8583751413945
 21
567.4793059925576
 31
0.0
  0
LINE
  5
20D1
330
1A
100
AcDbEntity
  8
0
 48
0.25
100
AcDbLine
 10
788.8583751413944
 20
564.8793059925577
 30
0.0
 11
775.8583751413945
 21
564.8793059925579
 31
0.0
  0
LINE
  5
20D2
330
1A
100
AcDbEntity
  8
0
 48
0.25
100
AcDbLine
 10
770.8583751413945
 20
564.879305992557
 30
0.0
 11
764.8583751413944
 21
564.8793059925573
 31
0.0
  0
LINE
  5
20D3
330
1A
100
AcDbEntity
  8
0
 48
0.25
100
AcDbLine
 10
773.8583751413945
 20
557.206140784133
 30
0.0
 11
783.8583751413945
 21
557.206140784133
 31
0.0
  0
LINE
  5
20D4
330
1A
100
AcDbEntity
  8
0
 48
0.25
100
AcDbLine
 10
770.8583751413945
 20
564.9561407841325
 30
0.0
 11
773.8583751413945
 21
564.9561407841328
 31
0.0
  0
LINE
  5
20D5
330
1A
100
AcDbEntity
  8
0
 48
0.25
100
AcDbLine
 10
770.8583751413945
 20
563.1561407841326
 30
0.0
 11
773.8583751413945
 21
563.156140784133
 31
0.0
  0
LINE
  5
20D6
330
1A
100
AcDbEntity
  8
0
 48
0.25
100
AcDbLine
 10
764.8583751413944
 20
595.506140784133
 30
0.0
 11
764.8583751413944
 21
565.4874422239521
 31
0.0
  0
LINE
  5
20D7
330
1A
100
AcDbEntity
  8
0
 48
0.25
100
AcDbLine
 10
773.8583751413945
 20
595.5061407841331
 30
0.0
 11
773.8583751413945
 21
557.206140784133
 31
0.0
  0
LINE
  5
20D8
330
1A
100
AcDbEntity
  8
0
 48
0.25
100
AcDbLine
 10
770.8583751413945
 20
595.506140784133
 30
0.0
 11
770.858375141394
 21
557.206140784133
 31
0.0
  0
LINE
  5
20D9
330
1A
100
AcDbEntity
  8
0
 48
0.25
100
AcDbLine
 10
775.8583751413945
 20
595.5061407841331
 30
0.0
 11
775.8583751413945
 21
557.206140784133
 31
0.0
  0
LINE
  5
20DA
330
1A
100
AcDbEntity
  8
0
 48
0.25
100
AcDbLine
 10
764.8583751413944
 20
595.506140784133
 30
0.0
 11
764.858375141395
 21
565.4874422239527
 31
0.0
  0
LINE
  5
20DB
330
1A
100
AcDbEntity
  8
0
 48
0.25
100
AcDbLine
 10
788.8583751413944
 20
590.5061407841332
 30
0.0
 11
788.8583751413944
 21
562.206140784133
 31
0.0
  0
DIMENSION
  5
20DC
330
1A
100
AcDbEntity
  8
0
 48
0.25
100
AcDbDimension
  2
*D15
 10
754.0583751413943
 20
787.2267916736169
 30
0.0
 11
723.0583616030234
 21
787.2267916736169
 31
0.0
 70
   160
 71
     5
 42
62.00002707674184
  3
AD-STANDARD
100
AcDbAlignedDimension
 13
692.0583480646524
 23
706.4555159366423
 33
0.0
 14
754.0583751413943
 24
720.1555159366424
 34
0.0
100
AcDbRotatedDimension
1001
ACAD
1000
DSTYLE
1002
{
1070
   287
1070
     1
1070
   287
1070
     1
1070
   287
1070
     1
1070
   287
1070
     1
1070
   287
1070
     1
1070
    40
1040
5.0
1070
   140
1040
2.799999999999999
1070
   271
1070
     3
1070
   272
1070
     8
1070
   289
1070
     1
1002
}
  0
LINE
  5
20DD
330
1A
100
AcDbEntity
  8
0
 48
0.25
100
AcDbLine
 10
747.6601116030234
 20
739.1555159366419
 30
0.0
 11
753.2583751413945
 21
739.1555159366422
 31
0.0
  0
ARC
  5
20DE
330
1A
100
AcDbEntity
  8
0
100
AcDbCircle
 10
751.4063619650593
 20
627.4053002417472
 30
0.0
 40
10.0
100
AcDbArc
 50
191.7107337659977
 51
192.257359513773
  0
ARC
  5
20DF
330
1A
100
AcDbEntity
  8
0
100
AcDbCircle
 10
729.058348064652
 20
636.1555159366432
 30
0.0
 40
14.0
100
AcDbArc
 50
353.233103458584
 51
6.766896541416027
  0
ARC
  5
20E0
330
1A
100
AcDbEntity
  8
0
100
AcDbCircle
 10
729.058348064652
 20
636.1555159366432
 30
0.0
 40
14.0
100
AcDbArc
 50
173.233103458584
 51
186.766896541416
  0
ARC
  5
20E1
330
1A
100
AcDbEntity
  8
0
100
AcDbCircle
 10
706.7103341642447
 20
627.4053002417472
 30
0.0
 40
10.0
100
AcDbArc
 50
347.742640486227
 51
348.2892662340022
  0
ARC
  5
20E2
330
1A
100
AcDbEntity
  8
0
100
AcDbCircle
 10
729.058348064652
 20
636.1555159366432
 30
0.0
 40
14.0
100
AcDbArc
 50
53.23310345858357
 51
66.76689654141757
  0
ARC
  5
20E3
330
1A
100
AcDbEntity
  8
0
100
AcDbCircle
 10
729.058348064652
 20
636.1555159366432
 30
0.0
 40
14.0
100
AcDbArc
 50
113.2331034585824
 51
126.7668965414164
  0
ARC
  5
20E4
330
1A
100
AcDbEntity
  8
0
100
AcDbCircle
 10
751.8083480646525
 20
636.1555159366432
 30
0.0
 40
9.0
100
AcDbArc
 50
139.3698339427087
 51
220.6301660572912
  0
ARC
  5
20E5
330
1A
100
AcDbEntity
  8
0
100
AcDbCircle
 10
706.3083480646516
 20
636.1555159366432
 30
0.0
 40
9.0
100
AcDbArc
 50
319.3698339427088
 51
40.63016605729123
  0
CIRCLE
  5
20E6
330
1A
100
AcDbEntity
  8
0
100
AcDbCircle
 10
729.058348064652
 20
636.1555159366432
 30
0.0
 40
7.5
  0
ARC
  5
20E7
330
1A
100
AcDbEntity
  8
0
100
AcDbCircle
 10
713.8976337789378
 20
629.6437771253168
 30
0.0
 40
1.0
100
AcDbArc
 50
139.3698339427135
 51
203.2441994445381
  0
ARC
  5
20E8
330
1A
100
AcDbEntity
  8
0
100
AcDbCircle
 10
715.838659688377
 20
626.28182163136
 30
0.0
 40
1.0
100
AcDbArc
 50
216.7558005554599
 51
280.6301660573035
  0
ARC
  5
20E9
330
1A
100
AcDbEntity
  8
0
100
AcDbCircle
 10
727.1173221552126
 20
619.7700828200337
 30
0.0
 40
1.0
100
AcDbArc
 50
199.3698339427121
 51
263.2441994445489
  0
ARC
  5
20EA
330
1A
100
AcDbEntity
  8
0
100
AcDbCircle
 10
730.9993739740913
 20
619.7700828200337
 30
0.0
 40
1.0
100
AcDbArc
 50
276.7558005554511
 51
340.6301660572878
  0
ARC
  5
20EB
330
1A
100
AcDbEntity
  8
0
100
AcDbCircle
 10
742.2780364409269
 20
626.28182163136
 30
0.0
 40
1.0
100
AcDbArc
 50
259.3698339426965
 51
323.2441994445401
  0
ARC
  5
20EC
330
1A
100
AcDbEntity
  8
0
100
AcDbCircle
 10
744.2190623503663
 20
629.6437771253168
 30
0.0
 40
1.0
100
AcDbArc
 50
336.7558005554619
 51
40.63016605728651
  0
ARC
  5
20ED
330
1A
100
AcDbEntity
  8
0
100
AcDbCircle
 10
729.058348064652
 20
636.1555159366432
 30
0.0
 40
17.5
100
AcDbArc
 50
323.2441994445447
 51
336.7558005554554
  0
ARC
  5
20EE
330
1A
100
AcDbEntity
  8
0
100
AcDbCircle
 10
729.058348064652
 20
636.1555159366432
 30
0.0
 40
17.5
100
AcDbArc
 50
263.2441994445458
 51
276.7558005554542
  0
ARC
  5
20EF
330
1A
100
AcDbEntity
  8
0
100
AcDbCircle
 10
717.683348064652
 20
616.4534380005467
 30
0.0
 40
9.0
100
AcDbArc
 50
19.36983394270864
 51
100.6301660572919
  0
ARC
  5
20F0
330
1A
100
AcDbEntity
  8
0
100
AcDbCircle
 10
740.433348064652
 20
616.4534380005467
 30
0.0
 40
9.0
100
AcDbArc
 50
79.36983394270805
 51
160.6301660572913
  0
ARC
  5
20F1
330
1A
100
AcDbEntity
  8
0
100
AcDbCircle
 10
729.058348064652
 20
636.1555159366432
 30
0.0
 40
17.5
100
AcDbArc
 50
203.2441994445445
 51
216.7558005554553
  0
ARC
  5
20F2
330
1A
100
AcDbEntity
  8
0
100
AcDbCircle
 10
744.2190623503663
 20
642.6672547479694
 30
0.0
 40
1.0
100
AcDbArc
 50
319.3698339427135
 51
23.24419944453811
  0
ARC
  5
20F3
330
1A
100
AcDbEntity
  8
0
100
AcDbCircle
 10
742.2780364409269
 20
646.0292102419263
 30
0.0
 40
1.0
100
AcDbArc
 50
36.75580055545994
 51
100.6301660573035
  0
ARC
  5
20F4
330
1A
100
AcDbEntity
  8
0
100
AcDbCircle
 10
730.9993739740913
 20
652.5409490532525
 30
0.0
 40
1.0
100
AcDbArc
 50
19.36983394271218
 51
83.2441994445489
  0
ARC
  5
20F5
330
1A
100
AcDbEntity
  8
0
100
AcDbCircle
 10
727.1173221552126
 20
652.5409490532525
 30
0.0
 40
1.0
100
AcDbArc
 50
96.75580055545111
 51
160.6301660572878
  0
ARC
  5
20F6
330
1A
100
AcDbEntity
  8
0
100
AcDbCircle
 10
715.838659688377
 20
646.0292102419263
 30
0.0
 40
1.0
100
AcDbArc
 50
79.36983394269652
 51
143.24419944454
  0
ARC
  5
20F7
330
1A
100
AcDbEntity
  8
0
100
AcDbCircle
 10
713.8976337789378
 20
642.6672547479694
 30
0.0
 40
1.0
100
AcDbArc
 50
156.7558005554619
 51
220.6301660572865
  0
ARC
  5
20F8
330
1A
100
AcDbEntity
  8
0
100
AcDbCircle
 10
729.058348064652
 20
636.1555159366432
 30
0.0
 40
17.5
100
AcDbArc
 50
143.2441994445447
 51
156.7558005554554
  0
ARC
  5
20F9
330
1A
100
AcDbEntity
  8
0
100
AcDbCircle
 10
729.058348064652
 20
636.1555159366432
 30
0.0
 40
17.5
100
AcDbArc
 50
83.2441994445458
 51
96.7558005554542
  0
ARC
  5
20FA
330
1A
100
AcDbEntity
  8
0
100
AcDbCircle
 10
729.058348064652
 20
636.1555159366432
 30
0.0
 40
17.5
100
AcDbArc
 50
23.24419944454457
 51
36.7558005554553
  0
ARC
  5
20FB
330
1A
100
AcDbEntity
  8
0
100
AcDbCircle
 10
740.433348064652
 20
655.8575938727395
 30
0.0
 40
9.0
100
AcDbArc
 50
199.3698339427086
 51
280.6301660572919
  0
ARC
  5
20FC
330
1A
100
AcDbEntity
  8
0
100
AcDbCircle
 10
717.683348064652
 20
655.8575938727395
 30
0.0
 40
9.0
100
AcDbArc
 50
259.3698339427081
 51
340.6301660572913
  0
CIRCLE
  5
20FD
330
1A
100
AcDbEntity
  8
0
100
AcDbCircle
 10
729.058348064652
 20
636.1555159366432
 30
0.0
 40
5.0
  0
CIRCLE
  5
20FE
330
1A
100
AcDbEntity
  8
0
100
AcDbCircle
 10
729.058348064652
 20
636.1555159366432
 30
0.0
 40
4.5
  0
ARC
  5
20FF
330
1A
100
AcDbEntity
  8
0
 48
0.25
100
AcDbCircle
 10
729.0583479345624
 20
603.0936786875941
 30
0.0
 40
5.0
100
AcDbArc
 50
12.2573595137729
 51
167.7426404862271
  0
ARC
  5
2100
330
1A
100
AcDbEntity
  8
0
 48
10.0
100
AcDbCircle
 10
729.0583479345624
 20
603.0936786875941
 30
0.0
 40
3.799999999999999
100
AcDbArc
 50
12.2573595137729
 51
167.7426404862271
  0
INSERT
  5
2101
330
1A
100
AcDbEntity
  8
0
100
AcDbBlockReference
  2
CENT
 10
729.058348064652
 20
636.1555159366432
 30
0.0
 41
18.16529025593172
 42
-15.41627467497574
 43
18.16529025593172
  0
ARC
  5
2103
330
1A
100
AcDbEntity
  8
0
 48
0.25
100
AcDbCircle
 10
710.058348064652
 20
723.1555159366422
 30
0.0
 40
16.0
100
AcDbArc
 50
89.99999999999957
 51
180.0
  0
ARC
  5
2104
330
1A
100
AcDbEntity
  8
0
 48
0.25
100
AcDbCircle
 10
694.0583480646524
 20
626.155515936645
 30
0.0
 40
1.0
100
AcDbArc
 50
180.0
 51
270.0
  0
ARC
  5
2105
330
1A
100
AcDbEntity
  8
0
 48
0.25
100
AcDbCircle
 10
693.0583480646524
 20
641.155515936643
 30
0.0
 40
1.0
100
AcDbArc
 50
180.0
 51
269.9999999999999
  0
LINE
  5
2106
330
1A
100
AcDbEntity
  8
0
 48
0.25
100
AcDbLine
 10
693.0583480646524
 20
640.155515936643
 30
0.0
 11
693.0583480646524
 21
626.155515936645
 31
0.0
  0
ARC
  5
2107
330
1A
100
AcDbEntity
  8
0
 48
0.25
100
AcDbCircle
 10
694.0583480646524
 20
706.4555159366423
 30
0.0
 40
2.0
100
AcDbArc
 50
90.0
 51
180.0000000000001
  0
LINE
  5
2108
330
1A
100
AcDbEntity
  8
0
 48
0.25
100
AcDbLine
 10
694.0583480646524
 20
625.1555159366449
 30
0.0
 11
694.0583480646524
 21
625.1555159366449
 31
0.0
  0
LINE
  5
2109
330
1A
100
AcDbEntity
  8
0
 48
0.25
100
AcDbLine
 10
692.0583480646524
 20
706.4555159366423
 30
0.0
 11
692.0583480646524
 21
641.155515936643
 31
0.0
  0
LINE
  5
210A
330
1A
100
AcDbEntity
  8
0
 48
0.25
100
AcDbLine
 10
710.058348064652
 20
739.1555159366422
 30
0.0
 11
715.6566116030236
 21
739.1555159366419
 31
0.0
  0
ARC
  5
210B
330
1A
100
AcDbEntity
  8
0
 48
0.25
100
AcDbCircle
 10
729.058348064652
 20
636.1555159366432
 30
0.0
 40
20.0
100
AcDbArc
 50
14.76379178282896
 51
165.236208217171
  0
LINE
  5
210C
330
1A
100
AcDbEntity
  8
0
 48
0.25
100
AcDbLine
 10
747.6601116030234
 20
739.1555159366419
 30
0.0
 11
715.6601116030234
 21
739.1555159366419
 31
0.0
  0
ARC
  5
210D
330
1A
100
AcDbEntity
  8
0
 48
0.25
100
AcDbCircle
 10
767.8583751413943
 20
707.0555159366429
 30
0.0
 40
5.0
100
AcDbArc
 50
0.0000000000003632
 51
90.0
  0
LINE
  5
210E
330
1A
100
AcDbEntity
  8
0
 48
0.25
100
AcDbLine
 10
767.8583751413947
 20
712.0555159366428
 30
0.0
 11
767.8583751413943
 21
712.055515936643
 31
0.0
  0
LINE
  5
210F
330
1A
100
AcDbEntity
  8
0
100
AcDbLine
 10
772.858375141395
 20
688.4516409819253
 30
0.0
 11
772.8583751413943
 21
663.4096306874202
 31
0.0
  0
ARC
  5
2110
330
1A
100
AcDbEntity
  8
0
 48
0.25
100
AcDbCircle
 10
767.8583751413943
 20
663.4096306874204
 30
0.0
 40
5.0
100
AcDbArc
 50
270.0
 51
359.9999999999983
  0
LINE
  5
2111
330
1A
100
AcDbEntity
  8
0
 48
0.25
100
AcDbLine
 10
767.8583751413945
 20
658.4096306874203
 30
0.0
 11
767.8583751413943
 21
658.4096306874203
 31
0.0
  0
ARC
  5
2112
330
1A
100
AcDbEntity
  8
0
 48
0.25
100
AcDbCircle
 10
767.8583751413945
 20
653.4096306874204
 30
0.0
 40
5.0
100
AcDbArc
 50
90.0
 51
180.0
  0
LINE
  5
2113
330
1A
100
AcDbEntity
  8
0
100
AcDbLine
 10
772.8583751413943
 20
707.0555159366429
 30
0.0
 11
772.8583751413947
 21
688.4516409819253
 31
0.0
  0
ARC
  5
2114
330
1A
100
AcDbEntity
  8
0
 48
0.25
100
AcDbCircle
 10
767.8583751413947
 20
717.0555159366427
 30
0.0
 40
5.0
100
AcDbArc
 50
180.0000000000004
 51
270.0
  0
LINE
  5
2115
330
1A
100
AcDbEntity
  8
0
 48
0.25
100
AcDbLine
 10
762.8583751413945
 20
653.4096306874204
 30
0.0
 11
762.8583751413947
 21
717.0555159366427
 31
0.0
  0
POINT
  5
2117
330
1A
100
AcDbEntity
  8
0
100
AcDbPoint
 10
754.0583751413938
 20
736.6555159366392
 30
0.0
  0
ARC
  5
2118
330
1A
100
AcDbEntity
  8
0
 48
0.25
100
AcDbCircle
 10
753.2583751413941
 20
738.3555159366411
 30
0.0
 40
0.8
100
AcDbArc
 50
0.000000000000007
 51
89.99999999999959
  0
LINE
  5
2119
330
1A
100
AcDbEntity
  8
0
 48
0.25
100
AcDbLine
 10
754.0583751413943
 20
738.355515936642
 30
0.0
 11
754.0583751413943
 21
720.1555159366424
 31
0.0
  0
ARC
  5
211A
330
1A
100
AcDbEntity
  8
0
 48
0.25
100
AcDbCircle
 10
753.2583751413941
 20
738.355515936642
 30
0.0
 40
0.8
100
AcDbArc
 50
0.000000000000007
 51
89.99999999999962
  0
ARC
  5
211B
330
1A
100
AcDbEntity
  8
0
100
AcDbCircle
 10
756.5583751413948
 20
736.111802110298
 30
0.0
 40
0.5
100
AcDbArc
 50
0.0000000000108718
 51
89.0000000000278
  0
LINE
  5
211C
330
1A
100
AcDbEntity
  8
0
100
AcDbLine
 10
757.0583751413948
 20
735.1555159366393
 30
0.0
 11
757.0583751413948
 21
736.111802110298
 31
0.0
  0
LINE
  5
211D
330
1A
100
AcDbEntity
  8
0
 48
0.25
100
AcDbLine
 10
757.0583751413948
 20
735.0555159366423
 30
0.0
 11
762.0583751413947
 21
735.0555159366423
 31
0.0
  0
ARC
  5
211E
330
1A
100
AcDbEntity
  8
0
 48
0.25
100
AcDbCircle
 10
762.0583751413947
 20
734.2555159366424
 30
0.0
 40
0.8
100
AcDbArc
 50
0.000000000000007
 51
89.99999999999984
  0
LINE
  5
211F
330
1A
100
AcDbEntity
  8
0
100
AcDbLine
 10
754.0583751413938
 20
736.6555159366392
 30
0.0
 11
756.5671013446132
 21
736.6117259578762
 31
0.0
  0
LINE
  5
2120
330
1A
100
AcDbEntity
  8
0
 48
0.25
100
AcDbLine
 10
762.8583751413945
 20
661.4096306874202
 30
0.0
 11
762.8583751413945
 21
613.6555159366452
 31
0.0
  0
LINE
  5
2121
330
1A
100
AcDbEntity
  8
0
 48
0.25
100
AcDbLine
 10
757.0583751413952
 20
601.3898225002678
 30
0.0
 11
757.0583751413948
 21
735.0555159366423
 31
0.0
  0
LINE
  5
2122
330
1A
100
AcDbEntity
  8
0
 48
0.25
100
AcDbLine
 10
754.0583751413943
 20
720.1555159366424
 30
0.0
 11
754.0583751413943
 21
615.1984302988538
 31
0.0
  0
LINE
  5
2123
330
1A
100
AcDbEntity
  8
0
 48
0.25
100
AcDbLine
 10
762.8583751413945
 20
734.2555159366424
 30
0.0
 11
762.8583751413945
 21
661.4096306874204
 31
0.0
  0
ARC
  5
2194
330
1A
100
AcDbEntity
  8
0
 48
10.0
100
AcDbCircle
 10
729.058348064652
 20
636.1555159366432
 30
0.0
 40
102.9999999999988
100
AcDbArc
 50
342.1934475126908
 51
158.0128185706988
  0
LINE
  5
3CAB
330
1A
100
AcDbEntity
  8
0
100
AcDbLine
 10
64.31439529936679
 20
332.6765349252037
 30
0.0
 11
53.32550229830204
 21
332.6765349252037
 31
0.0
  0
LINE
  5
3CAC
330
1A
100
AcDbEntity
  8
0
100
AcDbLine
 10
-126.6744105289418
 20
332.6765349252037
 30
0.0
 11
-115.6855175278771
 21
332.6765349252037
 31
0.0
  0
LINE
  5
3CAD
330
1A
100
AcDbEntity
  8
0
100
AcDbLine
 10
-114.579964028409
 20
331.6765170681463
 30
0.0
 11
-114.079964028409
 21
332.1765170681463
 31
0.0
  0
LINE
  5
3CAE
330
1A
100
AcDbEntity
  8
0
100
AcDbLine
 10
-114.079964028409
 20
332.1765170681463
 30
0.0
 11
-114.079964028409
 21
332.6765349252164
 31
0.0
  0
LINE
  5
3CAF
330
1A
100
AcDbEntity
  8
0
100
AcDbLine
 10
-128.2799640284097
 20
332.1765170681472
 30
0.0
 11
-127.7799640284097
 21
331.6765170681472
 31
0.0
  0
LINE
  5
3CB0
330
1A
100
AcDbEntity
  8
0
100
AcDbLine
 10
-128.2799640284097
 20
332.1765170681472
 30
0.0
 11
-128.2799640284096
 21
332.6765349252168
 31
0.0
  0
LINE
  5
3CB1
330
1A
100
AcDbEntity
  8
0
100
AcDbLine
 10
-128.2799640284097
 20
332.1765170681472
 30
0.0
 11
-114.079964028409
 21
332.1765170681463
 31
0.0
  0
LINE
  5
3CB2
330
1A
100
AcDbEntity
  8
0
100
AcDbLine
 10
-127.7799640284097
 20
331.6765170681472
 30
0.0
 11
-114.579964028409
 21
331.6765170681463
 31
0.0
  0
LINE
  5
3CB3
330
1A
100
AcDbEntity
  8
0
100
AcDbLine
 10
65.41994879883484
 20
331.6765170681463
 30
0.0
 11
65.91994879883483
 21
332.1765170681463
 31
0.0
  0
LINE
  5
3CB4
330
1A
100
AcDbEntity
  8
0
100
AcDbLine
 10
65.91994879883483
 20
332.1765170681463
 30
0.0
 11
65.91994879883483
 21
332.6765349252055
 31
0.0
  0
LINE
  5
3CB5
330
1A
100
AcDbEntity
  8
0
100
AcDbLine
 10
51.71994879883411
 20
332.1765170681472
 30
0.0
 11
52.21994879883411
 21
331.6765170681472
 31
0.0
  0
LINE
  5
3CB6
330
1A
100
AcDbEntity
  8
0
100
AcDbLine
 10
51.71994879883411
 20
332.1765170681472
 30
0.0
 11
51.71994879883425
 21
332.6765349252103
 31
0.0
  0
LINE
  5
3CB7
330
1A
100
AcDbEntity
  8
0
100
AcDbLine
 10
51.71994879883411
 20
332.1765170681472
 30
0.0
 11
65.91994879883483
 21
332.1765170681463
 31
0.0
  0
LINE
  5
3CB8
330
1A
100
AcDbEntity
  8
0
100
AcDbLine
 10
52.21994879883411
 20
331.6765170681472
 30
0.0
 11
65.41994879883484
 21
331.6765170681463
 31
0.0
  0
INSERT
  5
3CB9
330
1A
100
AcDbEntity
  8
0
100
AcDbBlockReference
  2
NUT08_S2
 10
58.81994879883447
 20
331.6765170681467
 30
0.0
 50
180.0
  0
INSERT
  5
3CBA
330
1A
100
AcDbEntity
  8
0
100
AcDbBlockReference
  2
NUT08_S2
 10
-121.1799640284094
 20
331.6765170681467
 30
0.0
 50
180.0
  0
LINE
  5
3CBB
330
1A
100
AcDbEntity
  8
0
100
AcDbLine
 10
28.81994879883226
 20
313.1765170681461
 30
0.0
 11
88.81994879883203
 21
313.1765170681469
 31
0.0
  0
LINE
  5
3CBC
330
1A
100
AcDbEntity
  8
0
100
AcDbLine
 10
29.55395002652043
 20
319.1765158396665
 30
0.0
 11
43.66784613450161
 21
322.1765170681465
 31
0.0
  0
ARC
  5
3CBD
330
1A
100
AcDbEntity
  8
0
100
AcDbCircle
 10
32.83904577360275
 20
304.3113867822908
 30
0.0
 40
15.22412825367855
100
AcDbArc
 50
77.53263880813797
 51
102.4615338597479
  0
LINE
  5
3CBE
330
1A
100
AcDbEntity
  8
0
100
AcDbLine
 10
29.55392068083418
 20
319.1768512623976
 30
0.0
 11
28.82270462040267
 21
313.2215743525498
 31
0.0
  0
LINE
  5
3CBF
330
1A
100
AcDbEntity
  8
0
100
AcDbLine
 10
36.12568275827133
 20
319.1765170681465
 30
0.0
 11
35.38383590036554
 21
313.1765170681461
 31
0.0
  0
LINE
  5
3CC0
330
1A
100
AcDbEntity
  8
0
100
AcDbLine
 10
40.09166504910425
 20
313.1765170681461
 30
0.0
 11
40.34095822890165
 21
319.1765170681465
 31
0.0
  0
LINE
  5
3CC1
330
1A
100
AcDbEntity
  8
0
100
AcDbLine
 10
55.49101088309161
 20
313.1765170681465
 30
0.0
 11
55.83929892897984
 21
319.1765170681465
 31
0.0
  0
LINE
  5
3CC2
330
1A
100
AcDbEntity
  8
0
100
AcDbLine
 10
62.14888671457268
 20
313.1765170681465
 30
0.0
 11
61.80059866868444
 21
319.1765170681465
 31
0.0
  0
LINE
  5
3CC3
330
1A
100
AcDbEntity
  8
0
100
AcDbLine
 10
46.81994879883203
 20
322.1765170681465
 30
0.0
 11
48.81994879883203
 21
325.1765170681465
 31
0.0
  0
ARC
  5
3CC4
330
1A
100
AcDbEntity
  8
0
100
AcDbCircle
 10
38.23332049358672
 20
313.1691605930823
 30
0.0
 40
6.3663544232017
100
AcDbArc
 50
70.66694630462198
 51
109.333053695378
  0
ARC
  5
3CC5
330
1A
100
AcDbEntity
  8
0
100
AcDbCircle
 10
48.09012857894121
 20
235.7209403747229
 30
0.0
 40
83.81457464156119
100
AcDbArc
 50
84.69507829858246
 51
95.30492170141753
  0
ARC
  5
3CC6
330
1A
100
AcDbEntity
  8
0
100
AcDbCircle
 10
58.81994879883203
 20
306.9823051439493
 30
0.0
 40
12.55320987233475
100
AcDbArc
 50
76.26442995381307
 51
103.7355700461869
  0
ARC
  5
3CC7
330
1A
100
AcDbEntity
  8
0
100
AcDbCircle
 10
84.80085182406131
 20
304.3113867822908
 30
0.0
 40
15.22412825367855
100
AcDbArc
 50
77.53846614025204
 51
102.467361191862
  0
LINE
  5
3CC8
330
1A
100
AcDbEntity
  8
0
100
AcDbLine
 10
88.08594757114363
 20
319.1765158396665
 30
0.0
 11
73.97205146316244
 21
322.1765170681465
 31
0.0
  0
LINE
  5
3CC9
330
1A
100
AcDbEntity
  8
0
100
AcDbLine
 10
88.08597691682988
 20
319.1768512623976
 30
0.0
 11
88.81719297726139
 21
313.2215743525498
 31
0.0
  0
ARC
  5
3CCA
330
1A
100
AcDbEntity
  8
0
100
AcDbCircle
 10
79.40657710407734
 20
313.1691605930823
 30
0.0
 40
6.3663544232017
100
AcDbArc
 50
70.66694630462198
 51
109.333053695378
  0
LINE
  5
3CCB
330
1A
100
AcDbEntity
  8
0
100
AcDbLine
 10
70.81994879883203
 20
322.1765170681465
 30
0.0
 11
68.81994879883203
 21
325.1765170681465
 31
0.0
  0
LINE
  5
3CCC
330
1A
100
AcDbEntity
  8
0
100
AcDbLine
 10
77.54823254855981
 20
313.1765170681461
 30
0.0
 11
77.29893936876241
 21
319.1765170681465
 31
0.0
  0
LINE
  5
3CCD
330
1A
100
AcDbEntity
  8
0
100
AcDbLine
 10
81.51421483939273
 20
319.1765170681465
 30
0.0
 11
82.25606169729852
 21
313.1765170681461
 31
0.0
  0
LINE
  5
3CCE
330
1A
100
AcDbEntity
  8
0
100
AcDbLine
 10
43.66784613449911
 20
322.1765170681465
 30
0.0
 11
73.97205146315972
 21
322.1765170681465
 31
0.0
  0
LINE
  5
3CCF
330
1A
100
AcDbEntity
  8
0
100
AcDbLine
 10
48.81994879883226
 20
325.1765170681465
 30
0.0
 11
68.81994879883203
 21
325.176517068147
 31
0.0
  0
ARC
  5
3CD0
330
1A
100
AcDbEntity
  8
0
100
AcDbCircle
 10
69.54976901872194
 20
235.7209403747229
 30
0.0
 40
83.81457464156119
100
AcDbArc
 50
84.69507829858246
 51
95.30492170141753
  0
ARC
  5
3CD1
330
1A
100
AcDbEntity
  8
0
100
AcDbCircle
 10
58.81994879883203
 20
321.1765170681465
 30
0.0
 40
12.0
100
AcDbArc
 50
228.1896851042256
 51
311.8103148957744
  0
LINE
  5
3CD2
330
1A
100
AcDbEntity
  8
0
100
AcDbLine
 10
66.81994879883203
 20
313.1765170681469
 30
0.0
 11
66.81994879883203
 21
312.2322451581472
 31
0.0
  0
LINE
  5
3CD3
330
1A
100
AcDbEntity
  8
0
100
AcDbLine
 10
50.81994879883225
 20
313.1765170681461
 30
0.0
 11
50.81994879883203
 21
312.2322451581472
 31
0.0
  0
LINE
  5
3CD4
330
1A
100
AcDbEntity
  8
0
100
AcDbLine
 10
50.81994879883203
 20
312.2322451581472
 30
0.0
 11
66.81994879883226
 21
312.2322451581472
 31
0.0
  0
LINE
  5
3CD5
330
1A
100
AcDbEntity
  8
0
100
AcDbLine
 10
-151.179964028407
 20
313.1765170681461
 30
0.0
 11
-91.17996402840729
 21
313.1765170681469
 31
0.0
  0
LINE
  5
3CD6
330
1A
100
AcDbEntity
  8
0
100
AcDbLine
 10
-150.4459628007189
 20
319.1765158396665
 30
0.0
 11
-136.3320666927377
 21
322.1765170681465
 31
0.0
  0
ARC
  5
3CD7
330
1A
100
AcDbEntity
  8
0
100
AcDbCircle
 10
-147.1608670536365
 20
304.3113867822908
 30
0.0
 40
15.22412825367855
100
AcDbArc
 50
77.53263880813797
 51
102.4615338597479
  0
LINE
  5
3CD8
330
1A
100
AcDbEntity
  8
0
100
AcDbLine
 10
-150.4459921464051
 20
319.1768512623976
 30
0.0
 11
-151.1772082068366
 21
313.2215743525498
 31
0.0
  0
LINE
  5
3CD9
330
1A
100
AcDbEntity
  8
0
100
AcDbLine
 10
-143.874230068968
 20
319.1765170681465
 30
0.0
 11
-144.6160769268737
 21
313.1765170681461
 31
0.0
  0
LINE
  5
3CDA
330
1A
100
AcDbEntity
  8
0
100
AcDbLine
 10
-139.908247778135
 20
313.1765170681461
 30
0.0
 11
-139.6589545983376
 21
319.1765170681465
 31
0.0
  0
LINE
  5
3CDB
330
1A
100
AcDbEntity
  8
0
100
AcDbLine
 10
-124.5089019441477
 20
313.1765170681465
 30
0.0
 11
-124.1606138982594
 21
319.1765170681465
 31
0.0
  0
LINE
  5
3CDC
330
1A
100
AcDbEntity
  8
0
100
AcDbLine
 10
-117.8510261126666
 20
313.1765170681465
 30
0.0
 11
-118.1993141585548
 21
319.1765170681465
 31
0.0
  0
LINE
  5
3CDD
330
1A
100
AcDbEntity
  8
0
100
AcDbLine
 10
-133.1799640284073
 20
322.1765170681465
 30
0.0
 11
-131.1799640284073
 21
325.1765170681465
 31
0.0
  0
ARC
  5
3CDE
330
1A
100
AcDbEntity
  8
0
100
AcDbCircle
 10
-141.7665923336526
 20
313.1691605930823
 30
0.0
 40
6.3663544232017
100
AcDbArc
 50
70.66694630462198
 51
109.333053695378
  0
ARC
  5
3CDF
330
1A
100
AcDbEntity
  8
0
100
AcDbCircle
 10
-131.9097842482981
 20
235.7209403747229
 30
0.0
 40
83.81457464156119
100
AcDbArc
 50
84.69507829858246
 51
95.30492170141753
  0
ARC
  5
3CE0
330
1A
100
AcDbEntity
  8
0
100
AcDbCircle
 10
-121.1799640284073
 20
306.9823051439493
 30
0.0
 40
12.55320987233475
100
AcDbArc
 50
76.26442995381307
 51
103.7355700461869
  0
ARC
  5
3CE1
330
1A
100
AcDbEntity
  8
0
100
AcDbCircle
 10
-95.199061003178
 20
304.3113867822908
 30
0.0
 40
15.22412825367855
100
AcDbArc
 50
77.53846614025204
 51
102.467361191862
  0
LINE
  5
3CE2
330
1A
100
AcDbEntity
  8
0
100
AcDbLine
 10
-91.91396525609567
 20
319.1765158396665
 30
0.0
 11
-106.0278613640768
 21
322.1765170681465
 31
0.0
  0
LINE
  5
3CE3
330
1A
100
AcDbEntity
  8
0
100
AcDbLine
 10
-91.91393591040943
 20
319.1768512623976
 30
0.0
 11
-91.18271984997793
 21
313.2215743525498
 31
0.0
  0
ARC
  5
3CE4
330
1A
100
AcDbEntity
  8
0
100
AcDbCircle
 10
-100.593335723162
 20
313.1691605930823
 30
0.0
 40
6.3663544232017
100
AcDbArc
 50
70.66694630462198
 51
109.333053695378
  0
LINE
  5
3CE5
330
1A
100
AcDbEntity
  8
0
100
AcDbLine
 10
-109.1799640284073
 20
322.1765170681465
 30
0.0
 11
-111.1799640284073
 21
325.1765170681465
 31
0.0
  0
LINE
  5
3CE6
330
1A
100
AcDbEntity
  8
0
100
AcDbLine
 10
-102.4516802786795
 20
313.1765170681461
 30
0.0
 11
-102.7009734584769
 21
319.1765170681465
 31
0.0
  0
LINE
  5
3CE7
330
1A
100
AcDbEntity
  8
0
100
AcDbLine
 10
-98.48569798784659
 20
319.1765170681465
 30
0.0
 11
-97.7438511299408
 21
313.1765170681461
 31
0.0
  0
LINE
  5
3CE8
330
1A
100
AcDbEntity
  8
0
100
AcDbLine
 10
-136.3320666927402
 20
322.1765170681465
 30
0.0
 11
-106.0278613640796
 21
322.1765170681465
 31
0.0
  0
LINE
  5
3CE9
330
1A
100
AcDbEntity
  8
0
100
AcDbLine
 10
-131.179964028407
 20
325.1765170681465
 30
0.0
 11
-111.1799640284073
 21
325.176517068147
 31
0.0
  0
ARC
  5
3CEA
330
1A
100
AcDbEntity
  8
0
100
AcDbCircle
 10
-110.4501438085173
 20
235.7209403747229
 30
0.0
 40
83.81457464156119
100
AcDbArc
 50
84.69507829858246
 51
95.30492170141753
  0
ARC
  5
3CEB
330
1A
100
AcDbEntity
  8
0
100
AcDbCircle
 10
-121.1799640284073
 20
321.1765170681465
 30
0.0
 40
12.0
100
AcDbArc
 50
228.1896851042256
 51
311.8103148957744
  0
LINE
  5
3CEC
330
1A
100
AcDbEntity
  8
0
100
AcDbLine
 10
-113.1799640284073
 20
313.1765170681469
 30
0.0
 11
-113.1799640284073
 21
312.2322451581472
 31
0.0
  0
LINE
  5
3CED
330
1A
100
AcDbEntity
  8
0
100
AcDbLine
 10
-129.179964028407
 20
313.1765170681461
 30
0.0
 11
-129.1799640284073
 21
312.2322451581472
 31
0.0
  0
LINE
  5
3CEE
330
1A
100
AcDbEntity
  8
0
100
AcDbLine
 10
-129.1799640284073
 20
312.2322451581472
 30
0.0
 11
-113.179964028407
 21
312.2322451581472
 31
0.0
  0
LINE
  5
3D01
330
1A
100
AcDbEntity
  8
0
100
AcDbLine
 10
351.2453235926843
 20
332.6765349252009
 30
0.0
 11
365.4453235926849
 21
332.6765349252007
 31
0.0
  0
LINE
  5
3D02
330
1A
100
AcDbEntity
  8
0
100
AcDbLine
 10
545.4452364199225
 20
332.6765349252135
 30
0.0
 11
531.2452364199217
 21
332.6765349252009
 31
0.0
  0
LINE
  5
3D03
330
1A
100
AcDbEntity
  8
0
100
AcDbLine
 10
364.9453235926849
 20
331.6765170681433
 30
0.0
 11
365.4453235926849
 21
332.1765170681433
 31
0.0
  0
LINE
  5
3D04
330
1A
100
AcDbEntity
  8
0
100
AcDbLine
 10
365.4453235926849
 20
332.1765170681433
 30
0.0
 11
365.4453235926849
 21
332.6765349252064
 31
0.0
  0
LINE
  5
3D05
330
1A
100
AcDbEntity
  8
0
100
AcDbLine
 10
351.2453235926841
 20
332.1765170681442
 30
0.0
 11
351.7453235926841
 21
331.6765170681442
 31
0.0
  0
LINE
  5
3D06
330
1A
100
AcDbEntity
  8
0
100
AcDbLine
 10
351.2453235926841
 20
332.1765170681442
 30
0.0
 11
351.2453235926843
 21
332.6765349252016
 31
0.0
  0
LINE
  5
3D07
330
1A
100
AcDbEntity
  8
0
100
AcDbLine
 10
351.2453235926841
 20
332.1765170681442
 30
0.0
 11
365.4453235926849
 21
332.1765170681433
 31
0.0
  0
LINE
  5
3D08
330
1A
100
AcDbEntity
  8
0
100
AcDbLine
 10
351.7453235926841
 20
331.6765170681442
 30
0.0
 11
364.9453235926849
 21
331.6765170681433
 31
0.0
  0
LINE
  5
3D09
330
1A
100
AcDbEntity
  8
0
100
AcDbLine
 10
544.9452364199223
 20
331.6765170681433
 30
0.0
 11
545.4452364199223
 21
332.1765170681433
 31
0.0
  0
LINE
  5
3D0A
330
1A
100
AcDbEntity
  8
0
100
AcDbLine
 10
545.4452364199223
 20
332.1765170681433
 30
0.0
 11
545.4452364199225
 21
332.6765349252135
 31
0.0
  0
LINE
  5
3D0B
330
1A
100
AcDbEntity
  8
0
100
AcDbLine
 10
531.2452364199216
 20
332.1765170681442
 30
0.0
 11
531.7452364199216
 21
331.6765170681442
 31
0.0
  0
LINE
  5
3D0C
330
1A
100
AcDbEntity
  8
0
100
AcDbLine
 10
531.2452364199216
 20
332.1765170681442
 30
0.0
 11
531.2452364199217
 21
332.6765349252137
 31
0.0
  0
LINE
  5
3D0D
330
1A
100
AcDbEntity
  8
0
100
AcDbLine
 10
531.2452364199216
 20
332.1765170681442
 30
0.0
 11
545.4452364199223
 21
332.1765170681433
 31
0.0
  0
LINE
  5
3D0E
330
1A
100
AcDbEntity
  8
0
100
AcDbLine
 10
531.7452364199216
 20
331.6765170681442
 30
0.0
 11
544.9452364199223
 21
331.6765170681433
 31
0.0
  0
INSERT
  5
3D0F
330
1A
100
AcDbEntity
  8
0
100
AcDbBlockReference
  2
NUT08_S1
 10
358.3453235926836
 20
331.6765170681438
 30
0.0
 50
180.0
  0
INSERT
  5
3D10
330
1A
100
AcDbEntity
  8
0
100
AcDbBlockReference
  2
NUT08_S1
 10
538.345236419922
 20
331.6765170681438
 30
0.0
 50
180.0
  0
LINE
  5
3D11
330
1A
100
AcDbEntity
  8
0
100
AcDbLine
 10
508.3452364199231
 20
313.1765170681431
 30
0.0
 11
568.3452364199228
 21
313.176517068144
 31
0.0
  0
LINE
  5
3D12
330
1A
100
AcDbEntity
  8
0
100
AcDbLine
 10
509.0792376476112
 20
319.1765158396636
 30
0.0
 11
523.1931337555924
 21
322.1765170681436
 31
0.0
  0
ARC
  5
3D13
330
1A
100
AcDbEntity
  8
0
100
AcDbCircle
 10
512.3643333946936
 20
304.3113867822878
 30
0.0
 40
15.22412825367855
100
AcDbArc
 50
77.53263880813797
 51
102.4615338597479
  0
LINE
  5
3D14
330
1A
100
AcDbEntity
  8
0
100
AcDbLine
 10
509.079208301925
 20
319.1768512623946
 30
0.0
 11
508.3479922414936
 21
313.2215743525469
 31
0.0
  0
LINE
  5
3D15
330
1A
100
AcDbEntity
  8
0
100
AcDbLine
 10
515.6509703793622
 20
319.1765170681435
 30
0.0
 11
514.9091235214564
 21
313.1765170681431
 31
0.0
  0
LINE
  5
3D16
330
1A
100
AcDbEntity
  8
0
100
AcDbLine
 10
519.6169526701951
 20
313.1765170681431
 30
0.0
 11
519.8662458499925
 21
319.1765170681435
 31
0.0
  0
LINE
  5
3D17
330
1A
100
AcDbEntity
  8
0
100
AcDbLine
 10
535.0162985041825
 20
313.1765170681435
 30
0.0
 11
535.3645865500707
 21
319.1765170681435
 31
0.0
  0
LINE
  5
3D18
330
1A
100
AcDbEntity
  8
0
100
AcDbLine
 10
541.6741743356635
 20
313.1765170681435
 30
0.0
 11
541.3258862897753
 21
319.1765170681435
 31
0.0
  0
LINE
  5
3D19
330
1A
100
AcDbEntity
  8
0
100
AcDbLine
 10
526.3452364199229
 20
322.1765170681436
 30
0.0
 11
528.3452364199229
 21
325.1765170681435
 31
0.0
  0
ARC
  5
3D1A
330
1A
100
AcDbEntity
  8
0
100
AcDbCircle
 10
517.7586081146776
 20
313.1691605930793
 30
0.0
 40
6.3663544232017
100
AcDbArc
 50
70.66694630462198
 51
109.333053695378
  0
ARC
  5
3D1B
330
1A
100
AcDbEntity
  8
0
100
AcDbCircle
 10
527.615416200032
 20
235.7209403747199
 30
0.0
 40
83.81457464156119
100
AcDbArc
 50
84.69507829858246
 51
95.30492170141753
  0
ARC
  5
3D1C
330
1A
100
AcDbEntity
  8
0
100
AcDbCircle
 10
538.3452364199229
 20
306.9823051439464
 30
0.0
 40
12.55320987233475
100
AcDbArc
 50
76.26442995381307
 51
103.7355700461869
  0
ARC
  5
3D1D
330
1A
100
AcDbEntity
  8
0
100
AcDbCircle
 10
564.3261394451521
 20
304.3113867822878
 30
0.0
 40
15.22412825367855
100
AcDbArc
 50
77.53846614025204
 51
102.467361191862
  0
LINE
  5
3D1E
330
1A
100
AcDbEntity
  8
0
100
AcDbLine
 10
567.6112351922345
 20
319.1765158396636
 30
0.0
 11
553.4973390842533
 21
322.1765170681436
 31
0.0
  0
LINE
  5
3D1F
330
1A
100
AcDbEntity
  8
0
100
AcDbLine
 10
567.6112645379207
 20
319.1768512623946
 30
0.0
 11
568.3424805983523
 21
313.2215743525469
 31
0.0
  0
ARC
  5
3D20
330
1A
100
AcDbEntity
  8
0
100
AcDbCircle
 10
558.9318647251682
 20
313.1691605930793
 30
0.0
 40
6.3663544232017
100
AcDbArc
 50
70.66694630462198
 51
109.333053695378
  0
LINE
  5
3D21
330
1A
100
AcDbEntity
  8
0
100
AcDbLine
 10
550.3452364199229
 20
322.1765170681436
 30
0.0
 11
548.3452364199229
 21
325.1765170681435
 31
0.0
  0
LINE
  5
3D22
330
1A
100
AcDbEntity
  8
0
100
AcDbLine
 10
557.0735201696506
 20
313.1765170681431
 30
0.0
 11
556.8242269898532
 21
319.1765170681435
 31
0.0
  0
LINE
  5
3D23
330
1A
100
AcDbEntity
  8
0
100
AcDbLine
 10
561.0395024604835
 20
319.1765170681435
 30
0.0
 11
561.7813493183894
 21
313.1765170681431
 31
0.0
  0
LINE
  5
3D24
330
1A
100
AcDbEntity
  8
0
100
AcDbLine
 10
523.19313375559
 20
322.1765170681436
 30
0.0
 11
553.4973390842505
 21
322.1765170681436
 31
0.0
  0
LINE
  5
3D25
330
1A
100
AcDbEntity
  8
0
100
AcDbLine
 10
528.3452364199231
 20
325.1765170681435
 30
0.0
 11
548.3452364199229
 21
325.176517068144
 31
0.0
  0
ARC
  5
3D26
330
1A
100
AcDbEntity
  8
0
100
AcDbCircle
 10
549.0750566398128
 20
235.7209403747199
 30
0.0
 40
83.81457464156119
100
AcDbArc
 50
84.69507829858246
 51
95.30492170141753
  0
ARC
  5
3D27
330
1A
100
AcDbEntity
  8
0
100
AcDbCircle
 10
538.3452364199229
 20
321.1765170681435
 30
0.0
 40
12.0
100
AcDbArc
 50
228.1896851042244
 51
311.8103148957757
  0
LINE
  5
3D28
330
1A
100
AcDbEntity
  8
0
100
AcDbLine
 10
546.3452364199229
 20
313.176517068144
 30
0.0
 11
546.3452364199229
 21
312.2322451581442
 31
0.0
  0
LINE
  5
3D29
330
1A
100
AcDbEntity
  8
0
100
AcDbLine
 10
530.3452364199231
 20
313.1765170681431
 30
0.0
 11
530.3452364199229
 21
312.2322451581442
 31
0.0
  0
LINE
  5
3D2A
330
1A
100
AcDbEntity
  8
0
100
AcDbLine
 10
530.3452364199229
 20
312.2322451581442
 30
0.0
 11
546.3452364199231
 21
312.2322451581442
 31
0.0
  0
LINE
  5
3D2B
330
1A
100
AcDbEntity
  8
0
100
AcDbLine
 10
328.3453235926839
 20
313.1765170681431
 30
0.0
 11
388.3453235926836
 21
313.176517068144
 31
0.0
  0
LINE
  5
3D2C
330
1A
100
AcDbEntity
  8
0
100
AcDbLine
 10
329.079324820372
 20
319.1765158396636
 30
0.0
 11
343.1932209283532
 21
322.1765170681436
 31
0.0
  0
ARC
  5
3D2D
330
1A
100
AcDbEntity
  8
0
100
AcDbCircle
 10
332.3644205674544
 20
304.3113867822878
 30
0.0
 40
15.22412825367855
100
AcDbArc
 50
77.53263880813797
 51
102.4615338597479
  0
LINE
  5
3D2E
330
1A
100
AcDbEntity
  8
0
100
AcDbLine
 10
329.0792954746858
 20
319.1768512623946
 30
0.0
 11
328.3480794142543
 21
313.2215743525469
 31
0.0
  0
LINE
  5
3D2F
330
1A
100
AcDbEntity
  8
0
100
AcDbLine
 10
335.6510575521229
 20
319.1765170681435
 30
0.0
 11
334.9092106942172
 21
313.1765170681431
 31
0.0
  0
LINE
  5
3D30
330
1A
100
AcDbEntity
  8
0
100
AcDbLine
 10
339.6170398429559
 20
313.1765170681431
 30
0.0
 11
339.8663330227533
 21
319.1765170681435
 31
0.0
  0
LINE
  5
3D31
330
1A
100
AcDbEntity
  8
0
100
AcDbLine
 10
355.0163856769432
 20
313.1765170681435
 30
0.0
 11
355.3646737228314
 21
319.1765170681435
 31
0.0
  0
LINE
  5
3D32
330
1A
100
AcDbEntity
  8
0
100
AcDbLine
 10
361.6742615084242
 20
313.1765170681435
 30
0.0
 11
361.325973462536
 21
319.1765170681435
 31
0.0
  0
LINE
  5
3D33
330
1A
100
AcDbEntity
  8
0
100
AcDbLine
 10
346.3453235926836
 20
322.1765170681436
 30
0.0
 11
348.3453235926836
 21
325.1765170681435
 31
0.0
  0
ARC
  5
3D34
330
1A
100
AcDbEntity
  8
0
100
AcDbCircle
 10
337.7586952874383
 20
313.1691605930793
 30
0.0
 40
6.3663544232017
100
AcDbArc
 50
70.66694630462198
 51
109.333053695378
  0
ARC
  5
3D35
330
1A
100
AcDbEntity
  8
0
100
AcDbCircle
 10
347.6155033727928
 20
235.7209403747199
 30
0.0
 40
83.81457464156119
100
AcDbArc
 50
84.69507829858246
 51
95.30492170141753
  0
ARC
  5
3D36
330
1A
100
AcDbEntity
  8
0
100
AcDbCircle
 10
358.3453235926836
 20
306.9823051439464
 30
0.0
 40
12.55320987233475
100
AcDbArc
 50
76.26442995381307
 51
103.7355700461869
  0
ARC
  5
3D37
330
1A
100
AcDbEntity
  8
0
100
AcDbCircle
 10
384.3262266179129
 20
304.3113867822878
 30
0.0
 40
15.22412825367855
100
AcDbArc
 50
77.53846614025204
 51
102.467361191862
  0
LINE
  5
3D38
330
1A
100
AcDbEntity
  8
0
100
AcDbLine
 10
387.6113223649952
 20
319.1765158396636
 30
0.0
 11
373.497426257014
 21
322.1765170681436
 31
0.0
  0
LINE
  5
3D39
330
1A
100
AcDbEntity
  8
0
100
AcDbLine
 10
387.6113517106814
 20
319.1768512623946
 30
0.0
 11
388.342567771113
 21
313.2215743525469
 31
0.0
  0
ARC
  5
3D3A
330
1A
100
AcDbEntity
  8
0
100
AcDbCircle
 10
378.9319518979289
 20
313.1691605930793
 30
0.0
 40
6.3663544232017
100
AcDbArc
 50
70.66694630462198
 51
109.333053695378
  0
LINE
  5
3D3B
330
1A
100
AcDbEntity
  8
0
100
AcDbLine
 10
370.3453235926836
 20
322.1765170681436
 30
0.0
 11
368.3453235926836
 21
325.1765170681435
 31
0.0
  0
LINE
  5
3D3C
330
1A
100
AcDbEntity
  8
0
100
AcDbLine
 10
377.0736073424114
 20
313.1765170681431
 30
0.0
 11
376.824314162614
 21
319.1765170681435
 31
0.0
  0
LINE
  5
3D3D
330
1A
100
AcDbEntity
  8
0
100
AcDbLine
 10
381.0395896332443
 20
319.1765170681435
 30
0.0
 11
381.7814364911501
 21
313.1765170681431
 31
0.0
  0
LINE
  5
3D3E
330
1A
100
AcDbEntity
  8
0
100
AcDbLine
 10
343.1932209283508
 20
322.1765170681436
 30
0.0
 11
373.4974262570113
 21
322.1765170681436
 31
0.0
  0
LINE
  5
3D3F
330
1A
100
AcDbEntity
  8
0
100
AcDbLine
 10
348.3453235926838
 20
325.1765170681435
 30
0.0
 11
368.3453235926836
 21
325.176517068144
 31
0.0
  0
ARC
  5
3D40
330
1A
100
AcDbEntity
  8
0
100
AcDbCircle
 10
369.0751438125735
 20
235.7209403747199
 30
0.0
 40
83.81457464156119
100
AcDbArc
 50
84.69507829858246
 51
95.30492170141753
  0
ARC
  5
3D41
330
1A
100
AcDbEntity
  8
0
100
AcDbCircle
 10
358.3453235926836
 20
321.1765170681435
 30
0.0
 40
12.0
100
AcDbArc
 50
228.1896851042244
 51
311.8103148957757
  0
LINE
  5
3D42
330
1A
100
AcDbEntity
  8
0
100
AcDbLine
 10
366.3453235926836
 20
313.176517068144
 30
0.0
 11
366.3453235926836
 21
312.2322451581442
 31
0.0
  0
LINE
  5
3D43
330
1A
100
AcDbEntity
  8
0
100
AcDbLine
 10
350.3453235926838
 20
313.1765170681431
 30
0.0
 11
350.3453235926836
 21
312.2322451581442
 31
0.0
  0
LINE
  5
3D44
330
1A
100
AcDbEntity
  8
0
100
AcDbLine
 10
350.3453235926836
 20
312.2322451581442
 30
0.0
 11
366.3453235926838
 21
312.2322451581442
 31
0.0
  0
LINE
  5
4447
330
1A
100
AcDbEntity
  8
0
  6
Continuous
100
AcDbLine
 10
-75.18004528793506
 20
669.1555174294048
 30
0.0
 11
-75.18004528793506
 21
666.3555182294048
 31
0.0
  0
LINE
  5
4448
330
1A
100
AcDbEntity
  8
0
  6
Continuous
100
AcDbLine
 10
-81.18004528793505
 20
667.7555197294047
 30
0.0
 11
-75.18004528793506
 21
669.1555174294048
 31
0.0
  0
LINE
  5
4449
330
1A
100
AcDbEntity
  8
0
  6
Continuous
100
AcDbLine
 10
-81.18004528793505
 20
667.7555197294047
 30
0.0
 11
-75.18004528793506
 21
666.3555182294048
 31
0.0
  0
LINE
  5
444B
330
1A
100
AcDbEntity
  8
0
  6
Continuous
100
AcDbLine
 10
-75.18004528793506
 20
675.1555289294048
 30
0.0
 11
-75.18004528793506
 21
672.3555182294049
 31
0.0
  0
LINE
  5
444C
330
1A
100
AcDbEntity
  8
0
  6
Continuous
100
AcDbLine
 10
-81.18004528793505
 20
673.7555197294048
 30
0.0
 11
-75.18004528793506
 21
675.1555289294048
 31
0.0
  0
LINE
  5
444D
330
1A
100
AcDbEntity
  8
0
  6
Continuous
100
AcDbLine
 10
-81.18004528793505
 20
673.7555197294048
 30
0.0
 11
-75.18004528793506
 21
672.3555182294049
 31
0.0
  0
ARC
  5
4524
330
1A
100
AcDbEntity
  8
0
 48
0.25
100
AcDbCircle
 10
740.5594704164251
 20
550.1555159366431
 30
0.0
 40
5.0
100
AcDbArc
 50
270.0
 51
12.25735941327994
  0
VIEWPORT
  5
22
102
{ACAD_XDICTIONARY
360
45A3
102
}
330
17
100
AcDbEntity
 67
     1
  8
0
100
AcDbViewport
 10
212.5044382016294
 20
149.5058866362573
 30
0.0
 40
466.6482046482711
 41
267.1622978775979
 68
     1
 69
     1
 12
212.5044382016294
 22
149.5058866362573
 13
0.0
 23
0.0
 14
1.0
 24
1.0
 15
10.0
 25
10.0
 16
0.0
 26
0.0
 36
1.0
 17
0.0
 27
0.0
 37
0.0
 42
50.0
 43
0.0
 44
0.0
 45
267.1622978775979
 50
0.0
 51
0.0
 72
   100
 90
    32768
  1

281
     0
 71
     1
 74
     0
110
0.0
120
0.0
130
0.0
111
1.0
121
0.0
131
0.0
112
0.0
122
1.0
132
0.0
 79
     0
146
0.0
  0
VIEWPORT
  5
2B8
102
{ACAD_XDICTIONARY
360
455C
102
}
330
17
100
AcDbEntity
 67
     1
  8
DEFPOINTS
100
AcDbViewport
 10
212.5
 20
149.4999999999999
 30
0.0
 40
385.0
 41
264.9999999999999
 68
     2
 69
     2
 12
369.103088054487
 22
531.2928312660428
 13
0.0
 23
0.0
 14
1.0
 24
1.0
 15
0.0
 25
0.0
 16
0.0
 26
0.0
 36
1.0
 17
0.0
 27
0.0
 37
0.0
 42
50.0
 43
0.0
 44
0.0
 45
794.9999999282645
 50
0.0
 51
0.0
 72
   100
 90
    36864
  1

281
     0
 71
     1
 74
     0
110
0.0
120
0.0
130
0.0
111
1.0
121
0.0
131
0.0
112
0.0
122
1.0
132
0.0
 79
     0
146
0.0
  0
ENDSEC
  0
SECTION
  2
OBJECTS
  0
DICTIONARY
  5
C
330
0
100
AcDbDictionary
281
     1
  3
ACAD_COLOR
350
26FE
  3
ACAD_GROUP
350
D
  3
ACAD_LAYOUT
350
226A
  3
ACAD_MATERIAL
350
26D4
  3
ACAD_MLEADERSTYLE
350
2723
  3
ACAD_MLINESTYLE
350
E
  3
ACAD_PLOTSETTINGS
350
226B
  3
ACAD_PLOTSTYLENAME
350
2268
  3
ACAD_SCALELIST
350
2701
  3
ACAD_TABLESTYLE
350
26FF
  3
ACAD_VISUALSTYLE
350
26ED
  3
ACDB_RECOMPOSE_DATA
350
4074
  3
AcDbVariableDictionary
350
2612
  3
CONTENTDICTIONARY
350
234
  3
DWGPROPS
350
45A2
  0
DICTIONARY
  5
4076
330
8
100
AcDbDictionary
280
     1
281
     1
  0
DICTIONARY
  5
2730
330
2
100
AcDbDictionary
280
     1
281
     1
  3
ACAD_LAYERSTATES
360
2731
  0
DICTIONARY
  5
4166
330
F
100
AcDbDictionary
280
     1
281
     1
  3
ADSK_XREC_LAYER_RECONCILED
360
4167
  0
DICTIONARY
  5
416A
330
71
100
AcDbDictionary
280
     1
281
     1
  3
ADSK_XREC_LAYER_RECONCILED
360
416B
  0
DICTIONARY
  5
416C
330
73
100
AcDbDictionary
280
     1
281
     1
  3
ADSK_XREC_LAYER_RECONCILED
360
416D
  0
DICTIONARY
  5
416E
330
74
100
AcDbDictionary
280
     1
281
     1
  3
ADSK_XREC_LAYER_RECONCILED
360
416F
  0
DICTIONARY
  5
4170
330
244
100
AcDbDictionary
280
     1
281
     1
  3
ADSK_XREC_LAYER_RECONCILED
360
4171
  0
DICTIONARY
  5
2297
330
1A
100
AcDbDictionary
280
     1
281
     1
  3
ACAD_LAYOUTSELFREF
360
2641
  3
ACAD_SORTENTS
360
444A
  0
DICTIONARY
  5
2295
330
17
100
AcDbDictionary
280
     1
281
     1
  3
ACAD_LAYOUTSELFREF
360
2640
  0
DICTIONARY
  5
45A3
330
22
100
AcDbDictionary
280
     1
281
     1
  3
ACAD_XREC_ROUNDTRIP
360
45A4
  0
DICTIONARY
  5
455C
330
2B8
100
AcDbDictionary
280
     1
281
     1
  3
ACAD_XREC_ROUNDTRIP
360
45A5
  3
ASDK_XREC_ANNOTATION_SCALE_INFO
360
455D
  0
DICTIONARY
  5
26FE
102
{ACAD_REACTORS
330
C
102
}
330
C
100
AcDbDictionary
281
     1
  0
DICTIONARY
  5
D
102
{ACAD_REACTORS
330
C
102
}
330
C
100
AcDbDictionary
281
     1
  0
DICTIONARY
  5
226A
102
{ACAD_REACTORS
330
C
102
}
330
C
100
AcDbDictionary
281
     1
  3
Model
350
226C
  3
ﾚｲｱｳﾄ1
350
226D
  0
DICTIONARY
  5
26D4
102
{ACAD_REACTORS
330
C
102
}
330
C
100
AcDbDictionary
281
     1
  3
ByBlock
350
26DD
  3
ByLayer
350
26D5
  3
Global
350
26E5
  0
DICTIONARY
  5
2723
102
{ACAD_REACTORS
330
C
102
}
330
C
100
AcDbDictionary
281
     1
  3
Standard
350
2724
  0
DICTIONARY
  5
E
102
{ACAD_REACTORS
330
C
102
}
330
C
100
AcDbDictionary
281
     1
  3
STANDARD
350
13
  0
DICTIONARY
  5
226B
102
{ACAD_REACTORS
330
C
102
}
330
C
100
AcDbDictionary
281
     1
  0
ACDBDICTIONARYWDFLT
  5
2268
102
{ACAD_REACTORS
330
C
102
}
330
C
100
AcDbDictionary
281
     1
  3
Normal
350
2269
100
AcDbDictionaryWithDefault
340
2269
  0
DICTIONARY
  5
2701
102
{ACAD_REACTORS
330
C
102
}
330
C
100
AcDbDictionary
281
     1
  3
A0
350
2702
  3
A1
350
453B
  3
A2
350
453C
  3
A3
350
453D
  3
A4
350
453E
  3
A5
350
453F
  3
A6
350
4540
  3
A7
350
4541
  3
A8
350
4542
  3
A9
350
4543
  3
B0
350
4544
  3
B1
350
4545
  3
B2
350
4546
  3
B3
350
4547
  3
B4
350
4548
  3
B5
350
4549
  3
B6
350
454A
  3
B7
350
454B
  3
B8
350
454C
  3
B9
350
454D
  3
C0
350
454E
  3
C1
350
454F
  3
C2
350
4550
  3
C3
350
4551
  3
C4
350
4552
  3
C5
350
4553
  3
C6
350
4554
  3
C7
350
4555
  3
C8
350
4556
  3
C9
350
4557
  3
D0
350
4558
  3
D1
350
4559
  3
D2
350
455A
  3
D3
350
455B
  0
DICTIONARY
  5
26FF
102
{ACAD_REACTORS
330
C
102
}
330
C
100
AcDbDictionary
281
     1
  3
Standard
350
2700
  0
DICTIONARY
  5
26ED
102
{ACAD_REACTORS
330
C
102
}
330
C
100
AcDbDictionary
281
     1
  3
2dWireframe
350
26F3
  3
3D Hidden
350
26F5
  3
3dWireframe
350
26F4
  3
Basic
350
26F2
  3
Brighten
350
26F9
  3
ColorChange
350
26FD
  3
Conceptual
350
26F6
  3
Dim
350
26F8
  3
Facepattern
350
26FC
  3
Flat
350
26EE
  3
FlatWithEdges
350
26EF
  3
Gouraud
350
26F0
  3
GouraudWithEdges
350
26F1
  3
Linepattern
350
26FB
  3
Realistic
350
26F7
  3
Thicken
350
26FA
  0
XRECORD
  5
4074
102
{ACAD_REACTORS
330
C
102
}
330
C
100
AcDbXrecord
280
     1
 90
        1
330
2700
  0
DICTIONARY
  5
2612
102
{ACAD_REACTORS
330
C
102
}
330
C
100
AcDbDictionary
281
     1
  3
CANNOSCALE
350
40C6
  3
CMLEADERSTYLE
350
40C5
  3
CTABLESTYLE
350
40C4
  3
DIMASSOC
350
2613
  3
INDEXCTL
350
40C8
  3
PROJECTNAME
350
40DB
  3
SORTENTS
350
40C7
  0
DICTIONARY
  5
234
102
{ACAD_REACTORS
330
C
102
}
330
C
100
AcDbDictionary
281
     1
  0
XRECORD
  5
45A2
102
{ACAD_REACTORS
330
C
102
}
330
C
100
AcDbXrecord
280
     1
  1
DWGPROPS COOKIE
  2

  3

  4

  6

  7

  8
KOIKE-1345
  9

300
=
301
=
302
=
303
=
304
=
305
=
306
=
307
=
308
=
309
=
 40
0.5708009143518519
 41
2451414.480340509
 42
2458143.473643125
  1

 90
        0
  0
DICTIONARY
  5
2731
102
{ACAD_REACTORS
330
2730
102
}
330
2730
100
AcDbDictionary
281
     1
  0
XRECORD
  5
4167
102
{ACAD_REACTORS
330
4166
102
}
330
4166
100
AcDbXrecord
280
     1
290
     1
  0
XRECORD
  5
416B
102
{ACAD_REACTORS
330
416A
102
}
330
416A
100
AcDbXrecord
280
     1
290
     1
  0
XRECORD
  5
416D
102
{ACAD_REACTORS
330
416C
102
}
330
416C
100
AcDbXrecord
280
     1
290
     1
  0
XRECORD
  5
416F
102
{ACAD_REACTORS
330
416E
102
}
330
416E
100
AcDbXrecord
280
     1
290
     1
  0
XRECORD
  5
4171
102
{ACAD_REACTORS
330
4170
102
}
330
4170
100
AcDbXrecord
280
     1
290
     1
  0
XRECORD
  5
2641
102
{ACAD_REACTORS
330
2297
102
}
330
2297
100
AcDbXrecord
280
     1
340
1A
  0
SORTENTSTABLE
  5
444A
102
{ACAD_REACTORS
330
2297
102
}
330
2297
100
AcDbSortentsTable
330
1A
331
3D2B
  5
3D31
331
20DF
  5
20E5
331
3D27
  5
3D2D
331
3D23
  5
3D29
331
1FA7
  5
1FAD
331
20DB
  5
20E1
331
3CDC
  5
3CE2
331
20D7
  5
20DD
331
2065
  5
206B
331
2112
  5
2119
331
3CD8
  5
3CDE
331
1F9F
  5
1FA9
331
1FDE
  5
1FE4
331
20D3
  5
20D9
331
1FDA
  5
1FE0
331
209C
  5
20A2
331
1F9B
  5
1FA1
331
2098
  5
209E
331
1EA5
  5
1EAB
331
1EE4
  5
1EEA
331
1F1F
  5
1F25
331
1EA1
  5
1EA7
331
1EE0
  5
1EE6
331
936
  5
936
331
1F5A
  5
1F63
331
1F56
  5
1F5C
331
1E9D
  5
1EA3
331
1EDC
  5
1EE2
331
1F17
  5
1F20
331
995
  5
995
331
932
  5
932
331
1ED8
  5
1EDE
331
1F13
  5
1F19
331
1F52
  5
1F58
331
AA0
  5
AA0
331
991
  5
991
331
1E99
  5
1E9F
331
B18
  5
B18
331
98D
  5
98D
331
A98
  5
A98
331
1DBE
  5
1DC4
331
989
  5
989
331
1DBA
  5
1DC0
331
1DF5
  5
1DFB
331
1E34
  5
1E6C
331
1E30
  5
1E68
331
1DB6
  5
1DBC
331
1DF1
  5
1DF8
331
1E2C
  5
1E32
331
1DB2
  5
1DB8
331
444D
  5
1D99
331
1DED
  5
1DF4
331
4449
  5
1D94
331
1DE9
  5
1DEF
331
3D1F
  5
3D25
331
1E28
  5
1E2E
331
3D1B
  5
3D21
331
20CF
  5
20D5
331
210E
  5
2114
331
3CD4
  5
3CDA
331
3D17
  5
3D1D
331
3D13
  5
3D19
331
1FD6
  5
1FDC
331
20CB
  5
20D1
331
210A
  5
2110
331
1F97
  5
1F9D
331
3CD0
  5
3CD6
331
3CCC
  5
3CD2
331
20C7
  5
20CD
331
1F93
  5
1F99
331
1FD2
  5
1FD8
331
2106
  5
210C
331
2094
  5
209A
331
3CC8
  5
3CCE
331
1F8F
  5
1F95
331
1FCE
  5
1FD4
331
20C3
  5
20C9
331
208C
  5
2092
331
1F8B
  5
1F91
331
1FCA
  5
1FD0
331
2001
  5
2067
331
2088
  5
208E
331
1ED4
  5
1EDA
331
1F0F
  5
1F15
331
1F4E
  5
1F54
331
1E95
  5
1E9B
331
1ED0
  5
1ED6
331
1F0B
  5
1F11
331
1F46
  5
1F4F
331
1F07
  5
1F0D
331
1ECC
  5
1ED2
331
985
  5
985
331
902
  5
902
331
1E79
  5
1E95
331
1F42
  5
1F4B
331
1F03
  5
1F09
331
8FE
  5
8FE
331
1EC8
  5
1ECE
331
975
  5
975
331
971
  5
971
331
9B8
  5
9B8
331
1DAA
  5
1DB1
331
1DE5
  5
1DEB
331
1E24
  5
1E2A
331
1DA6
  5
1DAD
331
1DE1
  5
1DE7
331
1E20
  5
1E26
331
1E1C
  5
1E22
331
1DDD
  5
1DE3
331
1DA2
  5
1DA9
331
1E18
  5
1E1E
331
1DD9
  5
1DDF
331
3D0F
  5
3D15
331
3D0B
  5
3D11
331
3D07
  5
3D0D
331
20FE
  5
2105
331
3CC4
  5
3CCA
331
20BF
  5
20C5
331
3D42
  5
444B
331
3D03
  5
3D09
331
20BB
  5
20C1
331
20FA
  5
2100
331
1F87
  5
1F90
331
3CC0
  5
3CC6
331
3CBC
  5
3CC2
331
20F6
  5
20FC
331
1F83
  5
1F8C
331
1FC2
  5
1FCA
331
20B7
  5
20BD
331
1FFD
  5
2003
331
2084
  5
208A
331
3CB8
  5
3CBE
331
20B3
  5
20B9
331
1FBE
  5
1FC4
331
2080
  5
2086
331
1F7F
  5
1F85
331
1FF9
  5
1FFF
331
20F2
  5
20F8
331
1F7B
  5
1F81
331
1FF5
  5
1FFB
331
1FBA
  5
1FC0
331
1FF1
  5
1FF8
331
1EC4
  5
1ECA
331
1F3E
  5
1F44
331
1EFF
  5
1F05
331
1EC0
  5
1EC6
331
1E71
  5
1E78
331
1F3A
  5
1F40
331
1EFB
  5
1F01
331
1EBC
  5
1EC2
331
1F36
  5
1F3C
331
1EF7
  5
1EFD
331
96D
  5
96D
331
9B4
  5
9B4
331
1E6D
  5
1E73
331
1E69
  5
1E6F
331
1F32
  5
1F38
331
1EF3
  5
1EF9
331
969
  5
969
331
9B0
  5
9B0
331
1EB8
  5
1EBE
331
9AC
  5
9AC
331
965
  5
965
331
9A8
  5
9A8
331
1D9E
  5
1DA4
331
1D9A
  5
1DA0
331
1E14
  5
1E1A
331
AD0
  5
AD0
331
1DD5
  5
1DDB
331
1D96
  5
1D9D
331
1E10
  5
1E16
331
1DD1
  5
1DD7
331
1E0C
  5
1E12
331
1DCD
  5
1DD3
331
1E08
  5
1E0E
331
1DC9
  5
1DCF
331
3D3E
  5
3D44
331
3CEB
  5
3D03
331
3D3A
  5
3D40
331
3D36
  5
3D3C
331
3CE7
  5
3CED
331
20EE
  5
20F4
331
20AF
  5
20B5
331
3CB4
  5
3CBA
331
3D32
  5
3D38
331
3CE3
  5
3CE9
331
20EA
  5
20F0
331
1FB6
  5
1FBC
331
1F77
  5
1F7D
331
20AB
  5
20B1
331
3CB0
  5
3CB6
331
3CAC
  5
3CB2
331
20E6
  5
20EC
331
2121
  5
3CAD
331
1FB2
  5
1FB8
331
1F73
  5
1F79
331
20A7
  5
20AE
331
2074
  5
207A
331
1FED
  5
1FF4
331
20A3
  5
20A9
331
211D
  5
2123
331
1FAE
  5
1FB4
331
2070
  5
2077
331
1F6F
  5
1F75
331
20E2
  5
20E8
331
2119
  5
211F
331
1FAA
  5
1FB0
331
206C
  5
2073
331
1FE5
  5
1FEC
331
1F6B
  5
1F71
331
2068
  5
206E
331
1FE1
  5
1FE7
331
1EB4
  5
1EBA
331
1F2E
  5
1F34
331
1EB0
  5
1EB6
331
1EEF
  5
1EF5
331
1F2A
  5
1F30
331
1F26
  5
1F2C
331
1F65
  5
1F6B
331
9A4
  5
9A4
331
1EAC
  5
1EB2
331
1EEB
  5
1EF4
331
1F22
  5
1F28
331
1F61
  5
1F67
331
9A0
  5
9A0
331
1EA8
  5
1EAE
331
99C
  5
99C
331
939
  5
939
331
998
  5
998
331
1D8E
  5
1D8E
331
1D8A
  5
1D8A
331
1E04
  5
1E0A
331
1E67
  5
1E6D
331
1DC5
  5
1DCB
331
1E00
  5
1E06
331
1DFC
  5
1E02
331
1DC1
  5
1DC7
331
1DF8
  5
1DFE
331
3D2E
  5
3D34
331
3D2A
  5
3D30
331
20DE
  5
20E4
331
3D26
  5
3D2C
331
3CDF
  5
3CE5
331
3D22
  5
3D28
331
1FA6
  5
1FAC
331
20DA
  5
20E0
331
3CDB
  5
3CE1
331
20D6
  5
20DC
331
2115
  5
211C
331
2111
  5
2118
331
209F
  5
20A5
331
1F9E
  5
1FA8
331
1FDD
  5
1FE3
331
20D2
  5
20D8
331
1FD9
  5
1FDF
331
209B
  5
20A1
331
1F9A
  5
1FA0
331
1EE7
  5
1EF0
331
1EA4
  5
1EAA
331
1EE3
  5
1EE9
331
1F1E
  5
1F24
331
1F59
  5
1F62
331
1EA0
  5
1EA6
331
1EDF
  5
1EE5
331
1F1A
  5
1F23
331
935
  5
935
331
1F55
  5
1F5B
331
1E9C
  5
1EA2
331
1EDB
  5
1EE1
331
994
  5
994
331
1F16
  5
1F1F
331
1F12
  5
1F18
331
1F51
  5
1F57
331
990
  5
990
331
1E98
  5
1E9E
331
98C
  5
98C
331
909
  5
909
331
1DBD
  5
1DC3
331
988
  5
988
331
1DB9
  5
1DBF
331
1DF4
  5
1DFA
331
1E33
  5
1E6B
331
1E2F
  5
1E67
331
1DB5
  5
1DBB
331
1DF0
  5
1DF7
331
1DEC
  5
1DF3
331
1E2B
  5
1E31
331
1DB1
  5
1DB7
331
444C
  5
1D97
331
4448
  5
1D93
331
1DE8
  5
1DEE
331
3D1E
  5
3D24
331
3CD7
  5
3CDD
331
3D1A
  5
3D20
331
20CE
  5
20D4
331
210D
  5
2113
331
3CD3
  5
3CD9
331
3D16
  5
3D1C
331
3CCF
  5
3CD5
331
3D12
  5
3D18
331
1F96
  5
1F9C
331
1FD5
  5
1FDB
331
20CA
  5
20D0
331
2109
  5
210F
331
2097
  5
209D
331
3CCB
  5
3CD1
331
20C6
  5
20CC
331
1F92
  5
1F98
331
1FD1
  5
1FD7
331
2105
  5
210B
331
2093
  5
2099
331
2101
  5
2108
331
2194
  5
3CB0
331
1F8E
  5
1F94
331
1FCD
  5
1FD3
331
20C2
  5
20C8
331
1FC9
  5
1FCF
331
2004
  5
206A
331
208B
  5
2091
331
2000
  5
2066
331
1ED7
  5
1EDD
331
1E94
  5
1E9A
331
1ED3
  5
1ED9
331
1F0E
  5
1F14
331
1F4D
  5
1F53
331
1E90
  5
1E98
331
1ECF
  5
1ED5
331
A97
  5
A97
331
1F0A
  5
1F10
331
1F45
  5
1F4E
331
1F06
  5
1F0C
331
1ECB
  5
1ED1
331
984
  5
984
331
901
  5
901
331
1E78
  5
1E94
331
1F41
  5
1F47
331
1F02
  5
1F08
331
8FD
  5
8FD
331
B03
  5
B03
331
8F9
  5
8F9
331
AFF
  5
AFF
331
974
  5
974
331
AFB
  5
AFB
331
1DAD
  5
1DB4
331
970
  5
970
331
1E27
  5
1E2D
331
1DA9
  5
1DB0
331
1DE4
  5
1DEA
331
1E23
  5
1E29
331
1E1F
  5
1E25
331
1DA5
  5
1DAC
331
1DE0
  5
1DE6
331
1E1B
  5
1E21
331
1DDC
  5
1DE2
331
1DA1
  5
1DA8
331
1DD8
  5
1DDE
331
3D0E
  5
3D14
331
3D0A
  5
3D10
331
3CC7
  5
3CCD
331
3D06
  5
3D0C
331
20BE
  5
20C4
331
20FD
  5
2104
331
3CC3
  5
3CC9
331
3D41
  5
4449
331
3D02
  5
3D08
331
1FC5
  5
1FCD
331
20BA
  5
20C0
331
20F9
  5
20FF
331
3CBF
  5
3CC5
331
2087
  5
208D
331
1F86
  5
1F8F
331
3CBB
  5
3CC1
331
20F5
  5
20FB
331
1F82
  5
1F8B
331
1FC1
  5
1FC9
331
20B6
  5
20BC
331
1FFC
  5
2002
331
2083
  5
2089
331
20F1
  5
20F7
331
20B2
  5
20B8
331
1FBD
  5
1FC3
331
207F
  5
2085
331
1F7E
  5
1F84
331
1FF8
  5
1FFE
331
1F7A
  5
1F80
331
1FF4
  5
1FFA
331
1FB9
  5
1FBF
331
1FF0
  5
1FF7
331
1EC7
  5
1ECD
331
1EC3
  5
1EC9
331
1E74
  5
1E7B
331
1F3D
  5
1F43
331
1EFE
  5
1F04
331
1EBF
  5
1EC5
331
1E70
  5
1E77
331
1EFA
  5
1F00
331
9B7
  5
9B7
331
1F39
  5
1F3F
331
1EBB
  5
1EC1
331
1F35
  5
1F3B
331
1EF6
  5
1EFC
331
96C
  5
96C
331
9B3
  5
9B3
331
1E6C
  5
1E72
331
1E68
  5
1E6E
331
1F31
  5
1F37
331
1EF2
  5
1EF8
331
AE3
  5
AE3
331
968
  5
968
331
9AF
  5
9AF
331
F2D
  5
F2D
331
9AB
  5
9AB
331
1D9D
  5
1DA3
331
1E17
  5
1E1D
331
1D99
  5
1D9F
331
1E13
  5
1E19
331
1DD4
  5
1DDA
331
1D95
  5
1D9C
331
1DD0
  5
1DD6
331
1E0F
  5
1E15
331
1E0B
  5
1E11
331
1DCC
  5
1DD2
331
1DC8
  5
1DCE
331
3CEE
  5
3D06
331
3D3D
  5
3D43
331
3CEA
  5
3D02
331
3CB7
  5
3CBD
331
3D39
  5
3D3F
331
3D35
  5
3D3B
331
3CE6
  5
3CEC
331
20ED
  5
20F3
331
20AE
  5
20B4
331
3CB3
  5
3CB9
331
3D31
  5
3D37
331
1FB5
  5
1FBB
331
1F76
  5
1F7C
331
20E9
  5
20EF
331
2077
  5
207E
331
3CAF
  5
3CB5
331
3CE2
  5
3CE8
331
3CAB
  5
3CB1
331
20E5
  5
20EB
331
2120
  5
3CAC
331
1FB1
  5
1FB7
331
1F72
  5
1F78
331
20A6
  5
20AD
331
2073
  5
2079
331
1FEC
  5
1FF3
331
20A2
  5
20A8
331
211C
  5
2122
331
1FAD
  5
1FB3
331
206F
  5
2076
331
1FE8
  5
1FEF
331
1F6E
  5
1F74
331
20E1
  5
20E7
331
2118
  5
211E
331
1F6A
  5
1F70
331
206B
  5
2072
331
1FE4
  5
1FEB
331
1FA9
  5
1FAF
331
1FE0
  5
1FE6
331
1EB7
  5
1EBD
331
1EB3
  5
1EB9
331
1F2D
  5
1F33
331
1EAF
  5
1EB5
331
9A7
  5
9A7
331
1F29
  5
1F2F
331
1F25
  5
1F2B
331
1F64
  5
1F6A
331
9A3
  5
9A3
331
1EAB
  5
1EB1
331
1EEA
  5
1EF3
331
1F21
  5
1F27
331
1F60
  5
1F66
331
99F
  5
99F
331
ABA
  5
ABA
331
99B
  5
99B
331
938
  5
938
331
1E07
  5
1E0D
331
1D8D
  5
1D8D
331
1D89
  5
1D89
331
1E03
  5
1E09
331
1DC4
  5
1DCA
331
1DFF
  5
1E05
331
1DFB
  5
1E01
331
1DC0
  5
1DC6
331
3D2D
  5
3D33
331
3D29
  5
3D2F
331
3D25
  5
3D2B
331
20DD
  5
20E3
331
3CDE
  5
3CE4
331
3D21
  5
3D27
331
20D9
  5
20DF
331
2067
  5
206D
331
3CDA
  5
3CE0
331
1FA1
  5
1FAB
331
20D5
  5
20DB
331
2114
  5
211B
331
2110
  5
2117
331
209E
  5
20A4
331
1F9D
  5
1FA7
331
1FDC
  5
1FE2
331
20D1
  5
20D7
331
1FD8
  5
1FDE
331
209A
  5
20A0
331
1F99
  5
1F9F
331
1EE6
  5
1EEF
331
1EA7
  5
1EAD
331
1EA3
  5
1EA9
331
1EE2
  5
1EE8
331
1F5C
  5
1F65
331
1F58
  5
1F61
331
1E9F
  5
1EA5
331
1EDE
  5
1EE4
331
1F19
  5
1F22
331
997
  5
997
331
934
  5
934
331
1F15
  5
1F1E
331
1F54
  5
1F5A
331
993
  5
993
331
1E9B
  5
1EA1
331
1EDA
  5
1EE0
331
1F11
  5
1F17
331
1F50
  5
1F56
331
EF9
  5
EF9
331
98F
  5
98F
331
98B
  5
98B
331
A9A
  5
A9A
331
1DBC
  5
1DC2
331
1DF7
  5
1DFD
331
1DB8
  5
1DBE
331
1DF3
  5
1DF9
331
1E32
  5
1E6A
331
1E2E
  5
1E34
331
1575
  5
1575
331
1DB4
  5
1DBA
331
1DEF
  5
1DF6
331
1DEB
  5
1DF1
331
1E2A
  5
1E30
331
1DB0
  5
1DB6
331
444B
  5
1D96
331
4447
  5
1D90
331
3D1D
  5
3D23
331
3CD6
  5
3CDC
331
3D19
  5
3D1F
331
20CD
  5
20D3
331
210C
  5
2112
331
3CD2
  5
3CD8
331
3D15
  5
3D1B
331
3CCE
  5
3CD4
331
3D11
  5
3D17
331
1F95
  5
1F9B
331
1FD4
  5
1FDA
331
20C9
  5
20CF
331
2108
  5
210E
331
2096
  5
209C
331
3CCA
  5
3CD0
331
20C5
  5
20CB
331
2092
  5
2098
331
1F91
  5
1F97
331
1FD0
  5
1FD6
331
2104
  5
210A
331
2100
  5
2107
331
1F8D
  5
1F93
331
1FCC
  5
1FD2
331
20C1
  5
20C7
331
1FC8
  5
1FCE
331
2003
  5
2069
331
208A
  5
2090
331
1ED6
  5
1EDC
331
1E97
  5
1E9D
331
1E93
  5
1E99
331
1ED2
  5
1ED8
331
1F0D
  5
1F13
331
1F4C
  5
1F52
331
1ECE
  5
1ED4
331
987
  5
987
331
1F09
  5
1F0F
331
1ECA
  5
1ED0
331
1F44
  5
1F4D
331
900
  5
900
331
EB5
  5
EB5
331
1F05
  5
1F0B
331
1E7B
  5
1E97
331
1F40
  5
1F46
331
1F01
  5
1F07
331
8FC
  5
8FC
331
B02
  5
B02
331
973
  5
973
331
9BA
  5
9BA
331
8F8
  5
8F8
331
AFE
  5
AFE
331
1DAC
  5
1DB3
331
1DE7
  5
1DED
331
1E26
  5
1E2C
331
1DA8
  5
1DAF
331
1DE3
  5
1DE9
331
1E22
  5
1E28
331
1E1E
  5
1E24
331
1DDF
  5
1DE5
331
1DA4
  5
1DAB
331
1E1A
  5
1E20
331
1DDB
  5
1DE1
331
1DA0
  5
1DA6
331
3D0D
  5
3D13
331
3D09
  5
3D0F
331
3CC6
  5
3CCC
331
3D44
  5
444D
331
3D05
  5
3D0B
331
20BD
  5
20C3
331
20FC
  5
2103
331
3CC2
  5
3CC8
331
3D40
  5
4448
331
3CBE
  5
3CC4
331
3D01
  5
3D07
331
1F85
  5
1F8E
331
1FC4
  5
1FCC
331
20F8
  5
20FE
331
1FFF
  5
2065
331
2086
  5
208C
331
3CBA
  5
3CC0
331
20F4
  5
20FA
331
1F81
  5
1F87
331
1FC0
  5
1FC8
331
20B5
  5
20BB
331
1FFB
  5
2001
331
2082
  5
2088
331
20F0
  5
20F6
331
20B1
  5
20B7
331
1FBC
  5
1FC2
331
207E
  5
2084
331
1FF7
  5
1FFD
331
1F7D
  5
1F83
331
1FB8
  5
1FBE
331
1F79
  5
1F7F
331
207A
  5
2081
331
1FF3
  5
1FF9
331
1EC6
  5
1ECC
331
1E77
  5
1E93
331
1EC2
  5
1EC8
331
1E73
  5
1E7A
331
1F3C
  5
1F42
331
1EFD
  5
1F03
331
1EBE
  5
1EC4
331
1E6F
  5
1E76
331
1EF9
  5
1EFF
331
96F
  5
96F
331
9B6
  5
9B6
331
1F38
  5
1F3E
331
1EBA
  5
1EC0
331
1F34
  5
1F3A
331
1EF5
  5
1EFB
331
8F0
  5
8F0
331
AE6
  5
AE6
331
96B
  5
96B
331
9B2
  5
9B2
331
1E6B
  5
1E71
331
1F30
  5
1F36
331
9AE
  5
9AE
331
1EF1
  5
1EF7
331
967
  5
967
331
9AA
  5
9AA
331
1D9C
  5
1DA2
331
1E16
  5
1E1C
331
1DD7
  5
1DDD
331
F20
  5
F20
331
1E12
  5
1E18
331
1DD3
  5
1DD9
331
1E0E
  5
1E14
331
1DCF
  5
1DD5
331
1D94
  5
1D9B
331
1E0A
  5
1E10
331
1DCB
  5
1DD1
331
3CED
  5
3D05
331
3D3C
  5
3D42
331
3CE9
  5
3D01
331
3CB6
  5
3CBC
331
3D38
  5
3D3E
331
3D34
  5
3D3A
331
3CE5
  5
3CEB
331
20EC
  5
20F2
331
20AD
  5
20B3
331
3CB2
  5
3CB8
331
3D30
  5
3D36
331
20E8
  5
20EE
331
2123
  5
3CAF
331
1FB4
  5
1FBA
331
1F75
  5
1F7B
331
20A9
  5
20B0
331
2076
  5
207D
331
1FEF
  5
1FF6
331
3CAE
  5
3CB4
331
3CE1
  5
3CE7
331
20E4
  5
20EA
331
211F
  5
3CAB
331
1FB0
  5
1FB6
331
1F71
  5
1F77
331
20A5
  5
20AC
331
1FEB
  5
1FF1
331
2072
  5
2078
331
20E0
  5
20E6
331
20A1
  5
20A7
331
211B
  5
2121
331
1FAC
  5
1FB2
331
206E
  5
2075
331
1FE7
  5
1FEE
331
1F6D
  5
1F73
331
1F69
  5
1F6F
331
206A
  5
2070
331
1FE3
  5
1FEA
331
1FA8
  5
1FAE
331
1EB6
  5
1EBC
331
1EB2
  5
1EB8
331
1F2C
  5
1F32
331
1F67
  5
1F6D
331
1EAE
  5
1EB4
331
9A6
  5
9A6
331
1F28
  5
1F2E
331
1EE9
  5
1EF2
331
1F24
  5
1F2A
331
1F63
  5
1F69
331
9A2
  5
9A2
331
1EAA
  5
1EB0
331
1F20
  5
1F26
331
99E
  5
99E
331
AB9
  5
AB9
331
99A
  5
99A
331
1D8C
  5
1D8C
331
1E06
  5
1E0C
331
1D88
  5
1D88
331
1DC7
  5
1DCD
331
1E02
  5
1E08
331
1DC3
  5
1DC9
331
1DFE
  5
1E04
331
1DFA
  5
1E00
331
3D2C
  5
3D32
331
3D28
  5
3D2E
331
3D24
  5
3D2A
331
20DC
  5
20E2
331
3CDD
  5
3CE3
331
3D20
  5
3D26
331
20D8
  5
20DE
331
2066
  5
206C
331
2117
  5
211D
331
2113
  5
211A
331
3CD9
  5
3CDF
331
1FA0
  5
1FAA
331
1FDF
  5
1FE5
331
20D4
  5
20DA
331
209D
  5
20A3
331
1F9C
  5
1FA6
331
1FDB
  5
1FE1
331
20D0
  5
20D6
331
2099
  5
209F
331
1F98
  5
1F9E
331
1EE5
  5
1EEB
331
1EA6
  5
1EAC
331
1EA2
  5
1EA8
331
1EE1
  5
1EE7
331
937
  5
937
331
1F5B
  5
1F64
331
1F57
  5
1F60
331
1E9E
  5
1EA4
331
1EDD
  5
1EE3
331
1F18
  5
1F21
331
996
  5
996
331
933
  5
933
331
1F14
  5
1F1A
331
1F53
  5
1F59
331
992
  5
992
331
1E9A
  5
1EA0
331
1ED9
  5
1EDF
331
1F10
  5
1F16
331
90B
  5
90B
331
B19
  5
B19
331
98E
  5
98E
331
A99
  5
A99
331
1DBF
  5
1DC5
331
98A
  5
98A
331
B11
  5
B11
331
1DBB
  5
1DC1
331
1DF6
  5
1DFC
331
1DB7
  5
1DBD
331
1E31
  5
1E69
331
1E2D
  5
1E33
331
1574
  5
1574
331
1DB3
  5
1DB9
331
1DEE
  5
1DF5
331
1DEA
  5
1DF0
331
1E29
  5
1E2F
331
3D1C
  5
3D22
331
210F
  5
2115
331
3CD5
  5
3CDB
331
3D18
  5
3D1E
331
3D14
  5
3D1A
331
1FD7
  5
1FDD
331
20CC
  5
20D2
331
210B
  5
2111
331
3CD1
  5
3CD7
331
3CCD
  5
3CD3
331
3D10
  5
3D16
331
1F94
  5
1F9A
331
1FD3
  5
1FD9
331
20C8
  5
20CE
331
2107
  5
210D
331
2095
  5
209B
331
3CC9
  5
3CCF
331
2091
  5
2097
331
1F90
  5
1F96
331
1FCF
  5
1FD5
331
20C4
  5
20CA
331
2103
  5
2109
331
208D
  5
2093
331
1F8C
  5
1F92
331
1FCB
  5
1FD1
331
20C0
  5
20C6
331
2002
  5
2068
331
2089
  5
208F
331
1ED5
  5
1EDB
331
1F4F
  5
1F55
331
1E96
  5
1E9C
331
1ED1
  5
1ED7
331
1F0C
  5
1F12
331
907
  5
907
331
1F4B
  5
1F51
331
1F47
  5
1F50
331
1ECD
  5
1ED3
331
1F08
  5
1F0E
331
986
  5
986
331
903
  5
903
331
1E7A
  5
1E96
331
1F43
  5
1F4C
331
1F04
  5
1F0A
331
8FF
  5
8FF
331
1EC9
  5
1ECF
331
F47
  5
F47
331
1F00
  5
1F06
331
972
  5
972
331
9B9
  5
9B9
331
1DAF
  5
1DB5
331
1DAB
  5
1DB2
331
1DE6
  5
1DEC
331
1E25
  5
1E2B
331
1DE2
  5
1DE8
331
1E21
  5
1E27
331
1E1D
  5
1E23
331
1DDE
  5
1DE4
331
1DA3
  5
1DAA
331
1E19
  5
1E1F
331
1DDA
  5
1DE0
331
3D0C
  5
3D12
331
3D08
  5
3D0E
331
20FF
  5
2106
331
3CC5
  5
3CCB
331
3D43
  5
444C
331
3D04
  5
3D0A
331
20BC
  5
20C2
331
20FB
  5
2101
331
3CC1
  5
3CC7
331
3CBD
  5
3CC3
331
1F84
  5
1F8D
331
1FC3
  5
1FCB
331
20F7
  5
20FD
331
1FFE
  5
2004
331
2085
  5
208B
331
3CB9
  5
3CBF
331
20B4
  5
20BA
331
2081
  5
2087
331
1F80
  5
1F86
331
1FBF
  5
1FC5
331
1FFA
  5
2000
331
20F3
  5
20F9
331
20B0
  5
20B6
331
1FBB
  5
1FC1
331
207D
  5
2083
331
1FF6
  5
1FFC
331
1F7C
  5
1F82
331
1F78
  5
1F7E
331
2079
  5
2080
331
1EC5
  5
1ECB
331
1E76
  5
1E90
331
1F3F
  5
1F45
331
1EC1
  5
1EC7
331
1E72
  5
1E79
331
1F3B
  5
1F41
331
1EFC
  5
1F02
331
8F7
  5
8F7
331
1EBD
  5
1EC3
331
1F37
  5
1F3D
331
1EF8
  5
1EFE
331
96E
  5
96E
331
9B5
  5
9B5
331
1E6E
  5
1E74
331
1EB9
  5
1EBF
331
1F33
  5
1F39
331
1EF4
  5
1EFA
331
8EF
  5
8EF
331
96A
  5
96A
331
9B1
  5
9B1
331
1E6A
  5
1E70
331
9AD
  5
9AD
331
1EF0
  5
1EF6
331
966
  5
966
331
9A9
  5
9A9
331
1D9F
  5
1DA5
331
1D9B
  5
1DA1
331
1E15
  5
1E1B
331
AD1
  5
AD1
331
1DD6
  5
1DDC
331
1D97
  5
1D9E
331
1E11
  5
1E17
331
1DD2
  5
1DD8
331
1E0D
  5
1E13
331
1DCE
  5
1DD4
331
1D93
  5
1D9A
331
1E09
  5
1E0F
331
1DCA
  5
1DD0
331
3D3F
  5
4447
331
3CEC
  5
3D04
331
3D3B
  5
3D41
331
3CE8
  5
3CEE
331
20EF
  5
20F5
331
3CB5
  5
3CBB
331
3D37
  5
3D3D
331
3D33
  5
3D39
331
3CE4
  5
3CEA
331
20EB
  5
20F1
331
1FB7
  5
1FBD
331
20AC
  5
20B2
331
3CB1
  5
3CB7
331
3CAD
  5
3CB3
331
3CE0
  5
3CE6
331
20E7
  5
20ED
331
2122
  5
3CAE
331
1FB3
  5
1FB9
331
1F74
  5
1F7A
331
20A8
  5
20AF
331
2075
  5
207B
331
1FEE
  5
1FF5
331
20E3
  5
20E9
331
211E
  5
2194
331
1FAF
  5
1FB5
331
1FEA
  5
1FF0
331
1F70
  5
1F76
331
20A4
  5
20AB
331
20A0
  5
20A6
331
211A
  5
2120
331
1FAB
  5
1FB1
331
206D
  5
2074
331
1FE6
  5
1FED
331
1F6C
  5
1F72
331
1F68
  5
1F6E
331
2069
  5
206F
331
1FE2
  5
1FE8
331
1EB5
  5
1EBB
331
1F2F
  5
1F35
331
1EB1
  5
1EB7
331
1F2B
  5
1F31
331
1F66
  5
1F6C
331
1EAD
  5
1EB3
331
9A5
  5
9A5
331
1F27
  5
1F2D
331
1EE8
  5
1EF1
331
1F23
  5
1F29
331
1F62
  5
1F68
331
FEE
  5
FEE
331
9A1
  5
9A1
331
1EA9
  5
1EAF
331
99D
  5
99D
331
93A
  5
93A
331
AB8
  5
AB8
331
999
  5
999
331
1D8B
  5
1D8B
331
1E05
  5
1E0B
331
1D87
  5
1D87
331
1DC6
  5
1DCC
331
1E01
  5
1E07
331
1DFD
  5
1E03
331
1DC2
  5
1DC8
331
1DF9
  5
1DFF
331
3D2F
  5
3D35
  0
XRECORD
  5
2640
102
{ACAD_REACTORS
330
2295
102
}
330
2295
100
AcDbXrecord
280
     1
340
17
  0
XRECORD
  5
45A4
102
{ACAD_REACTORS
330
45A3
102
}
330
45A3
100
AcDbXrecord
280
     1
102
SHADEPLOT
 70
     0
  0
XRECORD
  5
45A5
102
{ACAD_REACTORS
330
455C
102
}
330
455C
100
AcDbXrecord
280
     1
102
SHADEPLOT
 70
     0
  0
XRECORD
  5
455D
102
{ACAD_REACTORS
330
455C
102
}
330
455C
100
AcDbXrecord
280
     1
 90
        1
340
453C
  0
LAYOUT
  5
226C
102
{ACAD_XDICTIONARY
360
45A6
102
}
102
{ACAD_REACTORS
330
226A
102
}
330
226A
100
AcDbPlotSettings
  1

  2
EPSON LP-8200
  4

  6

 40
0.0
 41
0.0
 42
0.0
 43
0.0
 44
0.0
 45
0.0
 46
0.0
 47
0.0
 48
0.0
 49
0.0
140
0.0
141
0.0
142
1.0
143
1.0
 70
  1712
 72
     0
 73
     0
 74
     0
  7
monochrome.ctb
 75
     0
147
1.0
148
0.0
149
0.0
100
AcDbLayout
  1
Model
 70
     1
 71
     0
 10
0.0
 20
0.0
 11
12.0
 21
9.0
 12
0.0
 22
0.0
 32
0.0
 14
0.0
 24
0.0
 34
0.0
 15
0.0
 25
0.0
 35
0.0
146
0.0
 13
0.0
 23
0.0
 33
0.0
 16
1.0
 26
0.0
 36
0.0
 17
0.0
 27
1.0
 37
0.0
 76
     0
330
1A
331
40D5
  0
LAYOUT
  5
226D
102
{ACAD_XDICTIONARY
360
2735
102
}
102
{ACAD_REACTORS
330
226A
102
}
330
226A
100
AcDbPlotSettings
  1

  2
RICOH IPSiO SP C820 RPCS
  4
A3
  6

 40
5.873749732971191
 41
5.873748779296875
 42
5.873748779296875
 43
5.873748779296875
 44
296.9259948730469
 45
419.9466552734374
 46
5.968231790539732
 47
11.42732578716504
 48
0.0
 49
0.0
140
0.0
141
0.0
142
1.0
143
1.0
 70
   676
 72
     1
 73
     1
 74
     1
  7
monochrome.ctb
 75
     0
147
1.0
148
-19.83218415360807
149
-8.909153466901216
100
AcDbLayout
  1
ﾚｲｱｳﾄ1
 70
     0
 71
     1
 10
2.531109587146147
 20
-2.932828056609707
 11
422.4777648605836
 21
293.9931668164372
 12
0.0
 22
0.0
 32
0.0
 14
19.97976082798436
 24
16.99332813661567
 34
-0.0015258207003583
 15
405.0291155752745
 25
282.018445135899
 35
0.0000000349246037
146
0.0
 13
0.0
 23
0.0
 33
0.0
 16
1.0
 26
0.0
 36
0.0
 17
0.0
 27
1.0
 37
0.0
 76
     0
330
17
331
22
1001
ACAD_PSEXT
1000
RICOH IPSiO SP C820 RPCS
1000
RICOH IPSiO SP C820 RPCS
1000
IP_172.16.140.60
1000
RPCS Driver (For Windows)
1070
     0
  0
MATERIAL
  5
26DD
102
{ACAD_XDICTIONARY
360
26DE
102
}
102
{ACAD_REACTORS
330
26D4
102
}
330
26D4
100
AcDbMaterial
  1
ByBlock
 72
     0
 43
0.0208333333333333
 43
0.0
 43
0.0
 43
0.0
 43
0.0
 43
0.0208333333333333
 43
0.0
 43
0.0
 43
0.0
 43
0.0
 43
1.0
 43
0.0
 43
0.0
 43
0.0
 43
0.0
 43
1.0
 77
     0
 47
0.0208333333333333
 47
0.0
 47
0.0
 47
0.0
 47
0.0
 47
0.0208333333333333
 47
0.0
 47
0.0
 47
0.0
 47
0.0
 47
1.0
 47
0.0
 47
0.0
 47
0.0
 47
0.0
 47
1.0
171
     0
 49
0.0208333333333333
 49
0.0
 49
0.0
 49
0.0
 49
0.0
 49
0.0208333333333333
 49
0.0
 49
0.0
 49
0.0
 49
0.0
 49
1.0
 49
0.0
 49
0.0
 49
0.0
 49
0.0
 49
1.0
175
     0
142
0.0208333333333333
142
0.0
142
0.0
142
0.0
142
0.0
142
0.0208333333333333
142
0.0
142
0.0
142
0.0
142
0.0
142
1.0
142
0.0
142
0.0
142
0.0
142
0.0
142
1.0
179
     0
144
0.0208333333333333
144
0.0
144
0.0
144
0.0
144
0.0
144
0.0208333333333333
144
0.0
144
0.0
144
0.0
144
0.0
144
1.0
144
0.0
144
0.0
144
0.0
144
0.0
144
1.0
147
0.0208333333333333
147
0.0
147
0.0
147
0.0
147
0.0
147
0.0208333333333333
147
0.0
147
0.0
147
0.0
147
0.0
147
1.0
147
0.0
147
0.0
147
0.0
147
0.0
147
1.0
  0
MATERIAL
  5
26D5
102
{ACAD_XDICTIONARY
360
26D6
102
}
102
{ACAD_REACTORS
330
26D4
102
}
330
26D4
100
AcDbMaterial
  1
ByLayer
 72
     0
 43
0.0208333333333333
 43
0.0
 43
0.0
 43
0.0
 43
0.0
 43
0.0208333333333333
 43
0.0
 43
0.0
 43
0.0
 43
0.0
 43
1.0
 43
0.0
 43
0.0
 43
0.0
 43
0.0
 43
1.0
 77
     0
 47
0.0208333333333333
 47
0.0
 47
0.0
 47
0.0
 47
0.0
 47
0.0208333333333333
 47
0.0
 47
0.0
 47
0.0
 47
0.0
 47
1.0
 47
0.0
 47
0.0
 47
0.0
 47
0.0
 47
1.0
171
     0
 49
0.0208333333333333
 49
0.0
 49
0.0
 49
0.0
 49
0.0
 49
0.0208333333333333
 49
0.0
 49
0.0
 49
0.0
 49
0.0
 49
1.0
 49
0.0
 49
0.0
 49
0.0
 49
0.0
 49
1.0
175
     0
142
0.0208333333333333
142
0.0
142
0.0
142
0.0
142
0.0
142
0.0208333333333333
142
0.0
142
0.0
142
0.0
142
0.0
142
1.0
142
0.0
142
0.0
142
0.0
142
0.0
142
1.0
179
     0
144
0.0208333333333333
144
0.0
144
0.0
144
0.0
144
0.0
144
0.0208333333333333
144
0.0
144
0.0
144
0.0
144
0.0
144
1.0
144
0.0
144
0.0
144
0.0
144
0.0
144
1.0
147
0.0208333333333333
147
0.0
147
0.0
147
0.0
147
0.0
147
0.0208333333333333
147
0.0
147
0.0
147
0.0
147
0.0
147
1.0
147
0.0
147
0.0
147
0.0
147
0.0
147
1.0
  0
MATERIAL
  5
26E5
102
{ACAD_XDICTIONARY
360
26E6
102
}
102
{ACAD_REACTORS
330
26D4
102
}
330
26D4
100
AcDbMaterial
  1
Global
 72
     0
 43
0.0208333333333333
 43
0.0
 43
0.0
 43
0.0
 43
0.0
 43
0.0208333333333333
 43
0.0
 43
0.0
 43
0.0
 43
0.0
 43
1.0
 43
0.0
 43
0.0
 43
0.0
 43
0.0
 43
1.0
 77
     0
 47
0.0208333333333333
 47
0.0
 47
0.0
 47
0.0
 47
0.0
 47
0.0208333333333333
 47
0.0
 47
0.0
 47
0.0
 47
0.0
 47
1.0
 47
0.0
 47
0.0
 47
0.0
 47
0.0
 47
1.0
171
     0
 49
0.0208333333333333
 49
0.0
 49
0.0
 49
0.0
 49
0.0
 49
0.0208333333333333
 49
0.0
 49
0.0
 49
0.0
 49
0.0
 49
1.0
 49
0.0
 49
0.0
 49
0.0
 49
0.0
 49
1.0
175
     0
142
0.0208333333333333
142
0.0
142
0.0
142
0.0
142
0.0
142
0.0208333333333333
142
0.0
142
0.0
142
0.0
142
0.0
142
1.0
142
0.0
142
0.0
142
0.0
142
0.0
142
1.0
179
     0
144
0.0208333333333333
144
0.0
144
0.0
144
0.0
144
0.0
144
0.0208333333333333
144
0.0
144
0.0
144
0.0
144
0.0
144
1.0
144
0.0
144
0.0
144
0.0
144
0.0
144
1.0
147
0.0208333333333333
147
0.0
147
0.0
147
0.0
147
0.0
147
0.0208333333333333
147
0.0
147
0.0
147
0.0
147
0.0
147
1.0
147
0.0
147
0.0
147
0.0
147
0.0
147
1.0
  0
MLEADERSTYLE
  5
2724
102
{ACAD_REACTORS
330
2723
102
}
330
2723
100
AcDbMLeaderStyle
170
     2
171
     1
172
     0
 90
        2
 40
0.0
 41
0.0
173
     1
 91
-1056964608
340
14
 92
       -2
290
     1
 42
2.0
291
     1
 43
0.36
  3
Standard
 44
4.0
300

342
10
174
     1
178
     6
175
     1
176
     0
 93
-1056964608
 45
4.0
292
     0
297
     0
 46
4.0
 94
-1056964608
 47
1.0
 49
1.0
140
1.0
293
     1
141
0.0
294
     1
177
     0
142
1.0
295
     0
296
     0
143
0.125
1001
ACAD
1000
AcRTDxfName
1000
MLEADERSTYLE
1001
ACAD_MLEADERVER
1070
     2
  0
MLINESTYLE
  5
13
102
{ACAD_REACTORS
330
E
102
}
330
E
100
AcDbMlineStyle
  2
STANDARD
 70
     0
  3

 62
     0
 51
90.0
 52
90.0
 71
     2
 49
0.5
 62
   256
  6
BYLAYER
 49
-0.5
 62
   256
  6
BYLAYER
  0
ACDBPLACEHOLDER
  5
2269
102
{ACAD_REACTORS
330
2268
102
}
330
2268
  0
SCALE
  5
2702
102
{ACAD_REACTORS
330
2701
102
}
330
2701
100
AcDbScale
 70
     0
300
1:1
140
1.0
141
1.0
290
     1
1001
ACAD
1000
AcRTDxfName
1000
SCALE
  0
SCALE
  5
453B
102
{ACAD_REACTORS
330
2701
102
}
330
2701
100
AcDbScale
 70
     0
300
1:2
140
1.0
141
2.0
290
     0
  0
SCALE
  5
453C
102
{ACAD_REACTORS
330
2701
102
}
330
2701
100
AcDbScale
 70
     0
300
1:3
140
1.0
141
3.0
290
     0
  0
SCALE
  5
453D
102
{ACAD_REACTORS
330
2701
102
}
330
2701
100
AcDbScale
 70
     0
300
1:4
140
1.0
141
4.0
290
     0
  0
SCALE
  5
453E
102
{ACAD_REACTORS
330
2701
102
}
330
2701
100
AcDbScale
 70
     0
300
1:5
140
1.0
141
5.0
290
     0
  0
SCALE
  5
453F
102
{ACAD_REACTORS
330
2701
102
}
330
2701
100
AcDbScale
 70
     0
300
1:8
140
1.0
141
8.0
290
     0
  0
SCALE
  5
4540
102
{ACAD_REACTORS
330
2701
102
}
330
2701
100
AcDbScale
 70
     0
300
1:10
140
1.0
141
10.0
290
     0
  0
SCALE
  5
4541
102
{ACAD_REACTORS
330
2701
102
}
330
2701
100
AcDbScale
 70
     0
300
1:16
140
1.0
141
16.0
290
     0
  0
SCALE
  5
4542
102
{ACAD_REACTORS
330
2701
102
}
330
2701
100
AcDbScale
 70
     0
300
1:20
140
1.0
141
20.0
290
     0
  0
SCALE
  5
4543
102
{ACAD_REACTORS
330
2701
102
}
330
2701
100
AcDbScale
 70
     0
300
1:30
140
1.0
141
30.0
290
     0
  0
SCALE
  5
4544
102
{ACAD_REACTORS
330
2701
102
}
330
2701
100
AcDbScale
 70
     0
300
1:40
140
1.0
141
40.0
290
     0
  0
SCALE
  5
4545
102
{ACAD_REACTORS
330
2701
102
}
330
2701
100
AcDbScale
 70
     0
300
1:50
140
1.0
141
50.0
290
     0
  0
SCALE
  5
4546
102
{ACAD_REACTORS
330
2701
102
}
330
2701
100
AcDbScale
 70
     0
300
1:100
140
1.0
141
100.0
290
     0
  0
SCALE
  5
4547
102
{ACAD_REACTORS
330
2701
102
}
330
2701
100
AcDbScale
 70
     0
300
2:1
140
2.0
141
1.0
290
     0
  0
SCALE
  5
4548
102
{ACAD_REACTORS
330
2701
102
}
330
2701
100
AcDbScale
 70
     0
300
4:1
140
4.0
141
1.0
290
     0
  0
SCALE
  5
4549
102
{ACAD_REACTORS
330
2701
102
}
330
2701
100
AcDbScale
 70
     0
300
8:1
140
8.0
141
1.0
290
     0
  0
SCALE
  5
454A
102
{ACAD_REACTORS
330
2701
102
}
330
2701
100
AcDbScale
 70
     0
300
10:1
140
10.0
141
1.0
290
     0
  0
SCALE
  5
454B
102
{ACAD_REACTORS
330
2701
102
}
330
2701
100
AcDbScale
 70
     0
300
100:1
140
100.0
141
1.0
290
     0
  0
SCALE
  5
454C
102
{ACAD_REACTORS
330
2701
102
}
330
2701
100
AcDbScale
 70
     0
300
1/128" = 1'-0"
140
0.0078125
141
12.0
290
     0
  0
SCALE
  5
454D
102
{ACAD_REACTORS
330
2701
102
}
330
2701
100
AcDbScale
 70
     0
300
1/64" = 1'-0"
140
0.015625
141
12.0
290
     0
  0
SCALE
  5
454E
102
{ACAD_REACTORS
330
2701
102
}
330
2701
100
AcDbScale
 70
     0
300
1/32" = 1'-0"
140
0.03125
141
12.0
290
     0
  0
SCALE
  5
454F
102
{ACAD_REACTORS
330
2701
102
}
330
2701
100
AcDbScale
 70
     0
300
1/16" = 1'-0"
140
0.0625
141
12.0
290
     0
  0
SCALE
  5
4550
102
{ACAD_REACTORS
330
2701
102
}
330
2701
100
AcDbScale
 70
     0
300
3/32" = 1'-0"
140
0.09375
141
12.0
290
     0
  0
SCALE
  5
4551
102
{ACAD_REACTORS
330
2701
102
}
330
2701
100
AcDbScale
 70
     0
300
1/8" = 1'-0"
140
0.125
141
12.0
290
     0
  0
SCALE
  5
4552
102
{ACAD_REACTORS
330
2701
102
}
330
2701
100
AcDbScale
 70
     0
300
3/16" = 1'-0"
140
0.1875
141
12.0
290
     0
  0
SCALE
  5
4553
102
{ACAD_REACTORS
330
2701
102
}
330
2701
100
AcDbScale
 70
     0
300
1/4" = 1'-0"
140
0.25
141
12.0
290
     0
  0
SCALE
  5
4554
102
{ACAD_REACTORS
330
2701
102
}
330
2701
100
AcDbScale
 70
     0
300
3/8" = 1'-0"
140
0.375
141
12.0
290
     0
  0
SCALE
  5
4555
102
{ACAD_REACTORS
330
2701
102
}
330
2701
100
AcDbScale
 70
     0
300
1/2" = 1'-0"
140
0.5
141
12.0
290
     0
  0
SCALE
  5
4556
102
{ACAD_REACTORS
330
2701
102
}
330
2701
100
AcDbScale
 70
     0
300
3/4" = 1'-0"
140
0.75
141
12.0
290
     0
  0
SCALE
  5
4557
102
{ACAD_REACTORS
330
2701
102
}
330
2701
100
AcDbScale
 70
     0
300
1" = 1'-0"
140
1.0
141
12.0
290
     0
  0
SCALE
  5
4558
102
{ACAD_REACTORS
330
2701
102
}
330
2701
100
AcDbScale
 70
     0
300
1-1/2" = 1'-0"
140
1.5
141
12.0
290
     0
  0
SCALE
  5
4559
102
{ACAD_REACTORS
330
2701
102
}
330
2701
100
AcDbScale
 70
     0
300
3" = 1'-0"
140
3.0
141
12.0
290
     0
  0
SCALE
  5
455A
102
{ACAD_REACTORS
330
2701
102
}
330
2701
100
AcDbScale
 70
     0
300
6" = 1'-0"
140
6.0
141
12.0
290
     0
  0
SCALE
  5
455B
102
{ACAD_REACTORS
330
2701
102
}
330
2701
100
AcDbScale
 70
     0
300
1'-0" = 1'-0"
140
12.0
141
12.0
290
     0
  0
TABLESTYLE
  5
2700
102
{ACAD_XDICTIONARY
360
4072
102
}
102
{ACAD_REACTORS
330
26FF
102
}
330
26FF
100
AcDbTableStyle
  3
Standard
 70
     0
 71
     0
 40
1.5
 41
1.5
280
     0
281
     0
  7
STANDARD
140
4.5
170
     2
 62
     0
 63
     7
283
     0
274
    -2
284
     1
 64
     0
275
    -2
285
     1
 65
     0
276
    -2
286
     1
 66
     0
277
    -2
287
     1
 67
     0
278
    -2
288
     1
 68
     0
279
    -2
289
     1
 69
     0
  7
STANDARD
140
6.0
170
     5
 62
     0
 63
     7
283
     0
274
    -2
284
     1
 64
     0
275
    -2
285
     1
 65
     0
276
    -2
286
     1
 66
     0
277
    -2
287
     1
 67
     0
278
    -2
288
     1
 68
     0
279
    -2
289
     1
 69
     0
  7
STANDARD
140
4.5
170
     5
 62
     0
 63
     7
283
     0
274
    -2
284
     1
 64
     0
275
    -2
285
     1
 65
     0
276
    -2
286
     1
 66
     0
277
    -2
287
     1
 67
     0
278
    -2
288
     1
 68
     0
279
    -2
289
     1
 69
     0
  0
VISUALSTYLE
  5
26F3
102
{ACAD_REACTORS
330
26ED
102
}
330
26ED
100
AcDbVisualStyle
  2
2dWireframe
 70
     4
 71
     0
 72
     2
 73
     0
 90
        0
 40
-0.6
 41
-30.0
 62
     5
 63
     7
 74
     1
 91
        4
 64
     7
 65
   257
 75
     1
175
     1
 42
1.0
 92
        0
 66
   257
 43
1.0
 76
     1
 77
     6
 78
     2
 67
     7
 79
     5
170
     0
171
     0
290
     0
174
     0
 93
        1
 44
0.0
173
     0
291
     0
 45
0.0
1001
ACAD
1000
AcRTDxfName
1000
VISUALSTYLE
1000
AcDbSavedByObjectVersion
1070
     0
  0
VISUALSTYLE
  5
26F5
102
{ACAD_REACTORS
330
26ED
102
}
330
26ED
100
AcDbVisualStyle
  2
3D Hidden
 70
     6
 71
     1
 72
     2
 73
     2
 90
        0
 40
-0.6
 41
-30.0
 62
     5
 63
     7
 74
     2
 91
        2
 64
     7
 65
   257
 75
     2
175
     1
 42
40.0
 92
        0
 66
   257
 43
1.0
 76
     1
 77
     6
 78
     2
 67
     7
 79
     3
170
     0
171
     0
290
     0
174
     0
 93
        1
 44
0.0
173
     0
291
     0
 45
0.0
1001
ACAD
1000
AcRTDxfName
1000
VISUALSTYLE
1000
AcDbSavedByObjectVersion
1070
     0
  0
VISUALSTYLE
  5
26F4
102
{ACAD_REACTORS
330
26ED
102
}
330
26ED
100
AcDbVisualStyle
  2
3dWireframe
 70
     5
 71
     0
 72
     2
 73
     0
 90
        0
 40
-0.6
 41
-30.0
 62
     5
 63
     7
 74
     1
 91
        4
 64
     7
 65
   257
 75
     1
175
     1
 42
1.0
 92
        0
 66
   257
 43
1.0
 76
     1
 77
     6
 78
     2
 67
     7
 79
     5
170
     0
171
     0
290
     0
174
     0
 93
        1
 44
0.0
173
     0
291
     0
 45
0.0
1001
ACAD
1000
AcRTDxfName
1000
VISUALSTYLE
1000
AcDbSavedByObjectVersion
1070
     0
  0
VISUALSTYLE
  5
26F2
102
{ACAD_REACTORS
330
26ED
102
}
330
26ED
100
AcDbVisualStyle
  2
Basic
 70
     7
 71
     1
 72
     0
 73
     1
 90
        0
 40
-0.6
 41
-30.0
 62
     5
 63
     7
 74
     0
 91
        4
 64
     7
 65
   257
 75
     1
175
     1
 42
1.0
 92
        8
 66
     7
 43
1.0
 76
     1
 77
     6
 78
     2
 67
     7
 79
     5
170
     0
171
     0
290
     0
174
     0
 93
        1
 44
0.0
173
     0
291
     1
 45
0.0
1001
ACAD
1000
AcRTDxfName
1000
VISUALSTYLE
1000
AcDbSavedByObjectVersion
1070
     0
  0
VISUALSTYLE
  5
26F9
102
{ACAD_REACTORS
330
26ED
102
}
330
26ED
100
AcDbVisualStyle
  2
Brighten
 70
    12
 71
     2
 72
     2
 73
     0
 90
        0
 40
-0.6
 41
-30.0
 62
     5
 63
     7
 74
     1
 91
        4
 64
     7
 65
   257
 75
     1
175
     1
 42
1.0
 92
        8
 66
     7
 43
1.0
 76
     1
 77
     6
 78
     2
 67
     7
 79
     5
170
     0
171
     0
290
     0
174
     0
 93
        1
 44
50.0
173
     0
291
     1
 45
0.0
1001
ACAD
1000
AcRTDxfName
1000
VISUALSTYLE
1000
AcDbSavedByObjectVersion
1070
     0
  0
VISUALSTYLE
  5
26FD
102
{ACAD_REACTORS
330
26ED
102
}
330
26ED
100
AcDbVisualStyle
  2
ColorChange
 70
    16
 71
     2
 72
     2
 73
     3
 90
        0
 40
-0.6
 41
-30.0
 62
     5
 63
     8
 74
     1
 91
        4
 64
     7
 65
   257
 75
     1
175
     1
 42
1.0
 92
        8
 66
     8
 43
1.0
 76
     1
 77
     6
 78
     2
 67
     7
 79
     5
170
     0
171
     0
290
     0
174
     0
 93
        1
 44
0.0
173
     0
291
     1
 45
0.0
1001
ACAD
1000
AcRTDxfName
1000
VISUALSTYLE
1000
AcDbSavedByObjectVersion
1070
     0
  0
VISUALSTYLE
  5
26F6
102
{ACAD_REACTORS
330
26ED
102
}
330
26ED
100
AcDbVisualStyle
  2
Conceptual
 70
     9
 71
     3
 72
     2
 73
     0
 90
        0
 40
-0.6
 41
-30.0
 62
     5
 63
     7
 74
     2
 91
        2
 64
     7
 65
   257
 75
     1
175
     1
 42
40.0
 92
        8
 66
     7
 43
1.0
 76
     1
 77
     6
 78
     2
 67
     7
 79
     3
170
     0
171
     0
290
     0
174
     0
 93
        1
 44
0.0
173
     0
291
     0
 45
0.0
1001
ACAD
1000
AcRTDxfName
1000
VISUALSTYLE
1000
AcDbSavedByObjectVersion
1070
     0
  0
VISUALSTYLE
  5
26F8
102
{ACAD_REACTORS
330
26ED
102
}
330
26ED
100
AcDbVisualStyle
  2
Dim
 70
    11
 71
     2
 72
     2
 73
     0
 90
        0
 40
-0.6
 41
-30.0
 62
     5
 63
     7
 74
     1
 91
        4
 64
     7
 65
   257
 75
     1
175
     1
 42
1.0
 92
        8
 66
     7
 43
1.0
 76
     1
 77
     6
 78
     2
 67
     7
 79
     5
170
     0
171
     0
290
     0
174
     0
 93
        1
 44
-50.0
173
     0
291
     1
 45
0.0
1001
ACAD
1000
AcRTDxfName
1000
VISUALSTYLE
1000
AcDbSavedByObjectVersion
1070
     0
  0
VISUALSTYLE
  5
26FC
102
{ACAD_REACTORS
330
26ED
102
}
330
26ED
100
AcDbVisualStyle
  2
Facepattern
 70
    15
 71
     2
 72
     2
 73
     0
 90
        0
 40
-0.6
 41
-30.0
 62
     5
 63
     7
 74
     1
 91
        4
 64
     7
 65
   257
 75
     1
175
     1
 42
1.0
 92
        8
 66
     7
 43
1.0
 76
     1
 77
     6
 78
     2
 67
     7
 79
     5
170
     0
171
     0
290
     0
174
     0
 93
        1
 44
0.0
173
     0
291
     1
 45
0.0
1001
ACAD
1000
AcRTDxfName
1000
VISUALSTYLE
1000
AcDbSavedByObjectVersion
1070
     0
  0
VISUALSTYLE
  5
26EE
102
{ACAD_REACTORS
330
26ED
102
}
330
26ED
100
AcDbVisualStyle
  2
Flat
 70
     0
 71
     2
 72
     1
 73
     1
 90
        2
 40
-0.6
 41
30.0
 62
     5
 63
     7
 74
     0
 91
        4
 64
     7
 65
   257
 75
     1
175
     1
 42
1.0
 92
        8
 66
     7
 43
1.0
 76
     1
 77
     6
 78
     2
 67
     7
 79
     5
170
     0
171
     0
290
     0
174
     0
 93
       13
 44
0.0
173
     0
291
     1
 45
0.0
1001
ACAD
1000
AcRTDxfName
1000
VISUALSTYLE
1000
AcDbSavedByObjectVersion
1070
     0
  0
VISUALSTYLE
  5
26EF
102
{ACAD_REACTORS
330
26ED
102
}
330
26ED
100
AcDbVisualStyle
  2
FlatWithEdges
 70
     1
 71
     2
 72
     1
 73
     1
 90
        2
 40
-0.6
 41
30.0
 62
     5
 63
     7
 74
     1
 91
        4
 64
     7
 65
   257
 75
     1
175
     1
 42
1.0
 92
        0
 66
   257
 43
1.0
 76
     1
 77
     6
 78
     2
 67
     7
 79
     5
170
     0
171
     0
290
     0
174
     0
 93
       13
 44
0.0
173
     0
291
     1
 45
0.0
1001
ACAD
1000
AcRTDxfName
1000
VISUALSTYLE
1000
AcDbSavedByObjectVersion
1070
     0
  0
VISUALSTYLE
  5
26F0
102
{ACAD_REACTORS
330
26ED
102
}
330
26ED
100
AcDbVisualStyle
  2
Gouraud
 70
     2
 71
     2
 72
     2
 73
     1
 90
        2
 40
-0.6
 41
30.0
 62
     5
 63
     7
 74
     0
 91
        4
 64
     7
 65
   257
 75
     1
175
     1
 42
1.0
 92
        0
 66
     7
 43
1.0
 76
     1
 77
     6
 78
     2
 67
     7
 79
     5
170
     0
171
     0
290
     0
174
     0
 93
       13
 44
0.0
173
     0
291
     1
 45
0.0
1001
ACAD
1000
AcRTDxfName
1000
VISUALSTYLE
1000
AcDbSavedByObjectVersion
1070
     0
  0
VISUALSTYLE
  5
26F1
102
{ACAD_REACTORS
330
26ED
102
}
330
26ED
100
AcDbVisualStyle
  2
GouraudWithEdges
 70
     3
 71
     2
 72
     2
 73
     1
 90
        2
 40
-0.6
 41
30.0
 62
     5
 63
     7
 74
     1
 91
        4
 64
     7
 65
   257
 75
     1
175
     1
 42
1.0
 92
        0
 66
   257
 43
1.0
 76
     1
 77
     6
 78
     2
 67
     7
 79
     5
170
     0
171
     0
290
     0
174
     0
 93
       13
 44
0.0
173
     0
291
     1
 45
0.0
1001
ACAD
1000
AcRTDxfName
1000
VISUALSTYLE
1000
AcDbSavedByObjectVersion
1070
     0
  0
VISUALSTYLE
  5
26FB
102
{ACAD_REACTORS
330
26ED
102
}
330
26ED
100
AcDbVisualStyle
  2
Linepattern
 70
    14
 71
     2
 72
     2
 73
     0
 90
        0
 40
-0.6
 41
-30.0
 62
     5
 63
     7
 74
     1
 91
        4
 64
     7
 65
   257
 75
     7
175
     7
 42
1.0
 92
        8
 66
     7
 43
1.0
 76
     1
 77
     6
 78
     2
 67
     7
 79
     5
170
     0
171
     0
290
     0
174
     0
 93
        1
 44
0.0
173
     0
291
     1
 45
0.0
1001
ACAD
1000
AcRTDxfName
1000
VISUALSTYLE
1000
AcDbSavedByObjectVersion
1070
     0
  0
VISUALSTYLE
  5
26F7
102
{ACAD_REACTORS
330
26ED
102
}
330
26ED
100
AcDbVisualStyle
  2
Realistic
 70
     8
 71
     2
 72
     2
 73
     0
 90
        0
 40
-0.6
 41
-30.0
 62
     5
 63
     7
 74
     1
 91
        0
 64
     7
 65
   257
 75
     1
175
     1
 42
1.0
 92
        8
 66
     8
 43
1.0
 76
     1
 77
     6
 78
     2
 67
     7
 79
     5
170
     0
171
     0
290
     0
174
     0
 93
       13
 44
0.0
173
     0
291
     0
 45
0.0
1001
ACAD
1000
AcRTDxfName
1000
VISUALSTYLE
1000
AcDbSavedByObjectVersion
1070
     0
  0
VISUALSTYLE
  5
26FA
102
{ACAD_REACTORS
330
26ED
102
}
330
26ED
100
AcDbVisualStyle
  2
Thicken
 70
    13
 71
     2
 72
     2
 73
     0
 90
        0
 40
-0.6
 41
-30.0
 62
     5
 63
     7
 74
     1
 91
        4
 64
     7
 65
   257
 75
     1
175
     1
 42
1.0
 92
       12
 66
     7
 43
1.0
 76
     1
 77
     6
 78
     2
 67
     7
 79
     5
170
     0
171
     0
290
     0
174
     0
 93
        1
 44
0.0
173
     0
291
     1
 45
0.0
1001
ACAD
1000
AcRTDxfName
1000
VISUALSTYLE
1000
AcDbSavedByObjectVersion
1070
     0
  0
DICTIONARYVAR
  5
40C6
102
{ACAD_REACTORS
330
2612
102
}
330
2612
100
DictionaryVariables
280
     0
  1
1:1
  0
DICTIONARYVAR
  5
40C5
102
{ACAD_REACTORS
330
2612
102
}
330
2612
100
DictionaryVariables
280
     0
  1
STANDARD
  0
DICTIONARYVAR
  5
40C4
102
{ACAD_REACTORS
330
2612
102
}
330
2612
100
DictionaryVariables
280
     0
  1
STANDARD
  0
DICTIONARYVAR
  5
2613
102
{ACAD_REACTORS
330
2612
102
}
330
2612
100
DictionaryVariables
280
     0
  1
1
  0
DICTIONARYVAR
  5
40C8
102
{ACAD_REACTORS
330
2612
102
}
330
2612
100
DictionaryVariables
280
     0
  1
0
  0
DICTIONARYVAR
  5
40DB
102
{ACAD_REACTORS
330
2612
102
}
330
2612
100
DictionaryVariables
280
     0
  1

  0
DICTIONARYVAR
  5
40C7
102
{ACAD_REACTORS
330
2612
102
}
330
2612
100
DictionaryVariables
280
     0
  1
127
  0
DICTIONARY
  5
45A6
330
226C
100
AcDbDictionary
280
     1
281
     1
  3
ACAD_XREC_ROUNDTRIP
360
45A7
  0
DICTIONARY
  5
2735
330
226D
100
AcDbDictionary
280
     1
281
     1
  3
ACAD_XREC_ROUNDTRIP
360
45A8
  3
ADSK_XREC_LAYOUTTHUMBNAIL
360
2736
  0
DICTIONARY
  5
26DE
330
26DD
100
AcDbDictionary
280
     1
281
     1
  3
ACAD_XREC_ROUNDTRIP
360
45AA
  3
BUMPTILE
360
26E0
  3
DIFFUSETILE
360
26DF
  3
OPACITYTILE
360
26E3
  3
REFLECTIONTILE
360
26E2
  3
REFRACTIONTILE
360
26E4
  3
SPECULARTILE
360
26E1
  0
DICTIONARY
  5
26D6
330
26D5
100
AcDbDictionary
280
     1
281
     1
  3
ACAD_XREC_ROUNDTRIP
360
45A9
  3
BUMPTILE
360
26D8
  3
DIFFUSETILE
360
26D7
  3
OPACITYTILE
360
26DB
  3
REFLECTIONTILE
360
26DA
  3
REFRACTIONTILE
360
26DC
  3
SPECULARTILE
360
26D9
  0
DICTIONARY
  5
26E6
330
26E5
100
AcDbDictionary
280
     1
281
     1
  3
ACAD_XREC_ROUNDTRIP
360
45AB
  3
BUMPTILE
360
26E8
  3
DIFFUSETILE
360
26E7
  3
OPACITYTILE
360
26EB
  3
REFLECTIONTILE
360
26EA
  3
REFRACTIONTILE
360
26EC
  3
SPECULARTILE
360
26E9
  0
DICTIONARY
  5
4072
330
2700
100
AcDbDictionary
280
     1
281
     1
  3
ACAD_ROUNDTRIP_2008_TABLESTYLE_CELLSTYLEMAP
360
45A1
  3
ACAD_XREC_ROUNDTRIP
360
45AC
  0
XRECORD
  5
45A7
102
{ACAD_REACTORS
330
45A6
102
}
330
45A6
100
AcDbXrecord
280
     1
102
SHADEPLOT
 70
     0
102
SHADEPLOTRESLEVEL
 70
     2
102
SHADEPLOTCUSTOMDPI
 70
   300
  0
XRECORD
  5
45A8
102
{ACAD_REACTORS
330
2735
102
}
330
2735
100
AcDbXrecord
280
     1
102
SHADEPLOT
 70
     0
102
SHADEPLOTRESLEVEL
 70
     2
102
SHADEPLOTCUSTOMDPI
 70
   300
  0
XRECORD
  5
2736
102
{ACAD_REACTORS
330
2735
102
}
330
2735
100
AcDbXrecord
280
     1
310
28000000B40000007F00000001000800000000004C590000000000000000000000010000000000000000000000000000FFFFFF000000000000000000000000000000000000000000000000000000000000000000330000006600000099000000CC000000FF00000000330000333300006633000099330000CC330000FF3300
310
0000660000336600006666000099660000CC660000FF66000000990000339900006699000099990000CC990000FF99000000CC000033CC000066CC000099CC0000CCCC0000FFCC000000FF000033FF000066FF000099FF0000CCFF0000FFFF000000003300330033006600330099003300CC003300FF003300003333003333
310
33006633330099333300CC333300FF33330000663300336633006666330099663300CC663300FF66330000993300339933006699330099993300CC993300FF99330000CC330033CC330066CC330099CC3300CCCC3300FFCC330000FF330033FF330066FF330099FF3300CCFF3300FFFF330000006600330066006600660099
310
006600CC006600FF00660000336600333366006633660099336600CC336600FF33660000666600336666006666660099666600CC666600FF66660000996600339966006699660099996600CC996600FF99660000CC660033CC660066CC660099CC6600CCCC6600FFCC660000FF660033FF660066FF660099FF6600CCFF6600
310
FFFF660000009900330099006600990099009900CC009900FF00990000339900333399006633990099339900CC339900FF33990000669900336699006666990099669900CC669900FF66990000999900339999006699990099999900CC999900FF99990000CC990033CC990066CC990099CC9900CCCC9900FFCC990000FF99
310
0033FF990066FF990099FF9900CCFF9900FFFF99000000CC003300CC006600CC009900CC00CC00CC00FF00CC000033CC003333CC006633CC009933CC00CC33CC00FF33CC000066CC003366CC006666CC009966CC00CC66CC00FF66CC000099CC003399CC006699CC009999CC00CC99CC00FF99CC0000CCCC0033CCCC0066CC
310
CC0099CCCC00CCCCCC00FFCCCC0000FFCC0033FFCC0066FFCC0099FFCC00CCFFCC00FFFFCC000000FF003300FF006600FF009900FF00CC00FF00FF00FF000033FF003333FF006633FF009933FF00CC33FF00FF33FF000066FF003366FF006666FF009966FF00CC66FF00FF66FF000099FF003399FF006699FF009999FF00CC
310
99FF00FF99FF0000CCFF0033CCFF0066CCFF0099CCFF00CCCCFF00FFCCFF0000FFFF0033FFFF0066FFFF0099FFFF00CCFFFF00FFFFFF00000000000D0D0D001A1A1A00282828003535350043434300505050005D5D5D006B6B6B00787878008686860093939300A1A1A100AEAEAE00BBBBBB00C9C9C900D6D6D600E4E4E400
310
F1F1F100FFFFFF0000000000000000000000000000000000000000000000000000000000000000000000000000000000F5F5F5F5F5F5F5F5F5F5F5F5F5F5F5F5F5F5F5F5F5F5F5F5F5F5F5F5F5F5F5F5F5F5F5F5F5F5F5F5F5F5F5F5F5F5F5F5F5F5F5F5F5F5F5F5F5F5F5F5F5F5F5F5F5F5F5F5F5F5F5F5F5F5F5F5F5F5F5
310
F5F5F5F5F5F5F5F5F5F5F5F5F5F5F5F5F5F5F5F5F5F5F5F5F5F5F5F5F5F5F5F5F5F5F5F5F5F5F5F5F5F5F5F5F5F5F5F5F5F5F5F5F5F5F5F5F5F5F5F5F5F5F5F5F5F5F5F5F5F5F5F5F5F5F5F5F5F5F5F5F5F5F5F5F5F5F5F5F5F5F5F5F5F5F5F5F5F5F5F5F5F5E2E2E2E2E2E2E2E2E2E2E2E2E2E2E2E2E2E2E2E2E2E2E2E2E2
310
E2E2E2E2E2E2E2E2E2E2E2E2E2E2E2E2E2E2E2E2E2E2E2E2E2E2E2E2E2E2E2E2E2E2E2E2E2E2E2E2E2E2E2E2E2E2E2E2E2E2E2E2E2E2E2E2E2E2E2E2E2E2E2E2E2E2E2E2E2E2E2E2E2E2E2E2E2E2E2E2E2E2E2E2E2E2E2E2E2E2E2E2E2E2E2E2E2E2E2E2E2E2E2E2E2E2E2E2E2E2E2E2E2E2E2E2E2E2E2E2E2E2E2E2E2E2E2
310
E2E2E2E2E2E2E2E2E2E2E2E2E2E2E2E2E2E2E2E2E2E2E2E2E2E2F5F5E2E2E2E2E2E2E2E2E2E2E2E2E2E2E2E2E2E2E2E2E2E2E2E2E2E2E2E2E2E2E2E2E2E2E2E2E2E2E2E2E2E2E2E2E2E2E2E2E2E2E2E2E2E2E2E2E2E2E2E2E2E2E2E2E2E2E2E2E2E2E2E2E2E2E2E2E2E2E2E2E2E2E2E2E2E2E2E2E2E2E2E2E2E2E2E2E2E2E2
310
E2E2E2E2E2E2E2E2E2E2E2E2E2E2E2E2E2E2E2E2E2E2E2E2E2E2E2E2E2E2E2E2E2E2E2E2E2E2E2E2E2E2E2E2E2E2E2E2E2E2E2E2E2E2E2E2E2E2E2E2E2E2E2E2E2E2E2E2E2E2E2E2E2E2E2E2E2E2E2F5F5E2E2F5F5F5F5F5F5F5F5E2E2E2E2E2E2E2E2E2F5F5F5F5F5F5F5F5F5F5F5F5F5F5F5F5E2E2E2E2E2E2E2E2E2F5F5
310
F5F5F5F5F5F5F5F5F5F5F5F5F5F5E2E2E2E2E2E2E2E2E2F5F5F5F5F5F5F5F5F5F5F5F5F5F5F5F5E2E2E2E2E2E2E2E2F5F5F5F5F5F5F5F5F5F5F5F5F5F5F5F5E2E2E2E2E2E2E2E2E2F5F5F5F5F5F5F5F5F5F5F5F5F5F5F5F5E2E2E2E2E2E2E2E2E2F5F5F5F5F5F5F5F5F5F5F5F5F5F5F5F5E2E2E2E2E2E2E2E2E2F5F5F5F5F5
310
F5F5F5E2E2F5F5E2E2F5E2E2E2E2E2E2E2E2E2E2E2E2E2E2E2E2E2E2E2E2E2E2E2E2E2E2E2E2E2E2E2E2E2E2E2E2E2E2E2E2E2E2E2E2E2E2E2E2E2E2E2E2E2E2E2E2E2E2E2E2E2E2E2E2E2E2E2E2E2E2E2E2E2E2E2E2E2E2E2E2E2E2E2E2E2E2E2E2E2E2E2E2E2E2E2E2E2E2E2E2E2E2E2E2E2E2E2E2E2E2E2E2E2E2E2E2E2
310
E2E2E2E2E2E2E2E2E2E2E2E2E2E2E2E2E2E2E2E2E2E2E2E2E2E2E2E2E2E2E2E2E2E2E2E2E2E2E2E2E2E2E2E2E2E2E2E2E2E2E2E2E2E2E2F5E2E2F5F5E2E2F5E2E2E2E2E2E2E2E2E2E2E2E2E2E2E2E2E2E2E2E2E2E2E2E2E2E2E2E2E2E2E2E2E2E2E2E2E2E2E2E2E2E2E2E2E2E2E2E2E2E2E2E2E2E2E2E2E2E2E2E2E2E2E2E2
310
E2E2E2E2E2E2E2E2E2E2E2E2E2E2E2E2E2E2E2E2E2E2E2E2E2E2E2E2E2E2E2E2E2E2E2E2E2E2E2E2E2E2E2E2E2E2E2E2E2E2E2E2E2E2E2E2E2E2E2E2E2E2E2E2E2E2E2E2E2E2E2E2E2E2E2E2E2E2E2E2E2E2E2E2E2E2E2E2E2E2E2E2E2E2E2E2E2E2E2E2E2E2E2E2E2E2E2E2F5E2E2F5F5E2E2F5E2E2E2E2E2E2E2E2E2E2E2
310
E2E2E2E2E2E2E2E2E2E2E2E2E2E2E2E2E2E2E2E2E2E2E2E2E2E2E2E2E2E2E2E2E2E2E2E2E2E2E2E2E2E2E2E2E2E2E2E2E2E2E2E2E2E2E2E2E2E2E2E2E2E2E2E2E2E2E2E2E2E2E2E2E2E2E2E2E2E2E2E2E2E2E2E2E2E2E2E2E2E2E2E2E2E2E2E2E2E2E2E2E2E2E2E2E2E2E2E2E2E2E2E2E2E2E2E2E2E2E2E2E2E2E2E2E2E2E2
310
E2E2E2E2E2E2E2E2E2E2E2E2E2E2E2E2E2E2E2E2E2E2E2E2E2E2E2E2E2E2E2E2E2E2F5E2E2F5F5E2E2F5E2E2E2E2E2E2E2E2E2E2E2E2E2E2E2E2E2E2E2E2E2E2E2E2E2E2E2E2E2E2E2E2E2E2E2E2E2E2E2E2E2E2E2E2E2E2E2E2E2E2E2E2E2E2E2E2E2E2E2E2E2E2E2E2E2E2E2E2E2E2E2E2E2E2E2E2E2E2E2E2E2E2E2E2E2
310
E2E2E2E2E2E2E2E2E2E2E2E2E2E2E2E2E2E2E2E2E2E2E2E2E2E2E2E2E2E2E2E2E2E2E2E2E2E2E2E2E2E2E2E2E2E2E2E2E2E2E2E2E2E2E2E2E2E2E2E2E2E2E2E2E2E2E2E2E2E2E2E2E2E2E2E2E2E2E2E2E2E2E2E2E2E2E2F5E2E2F5F5E2E2F5E2E2E2E2E2E2E2E2E2E2E2E2E2E2E2E2E2E2E2E2E2E2E2E2E2E2E2E2E2E2E2E2
310
E2E2E2E2E2E2E2E2E2E2E2E2E2E2E2E2E2E2E2E2E2E2E2E2E2E2E2E2E2E2E2E2E2E2E2E2E2E2E2E2E2E2E2E2E2E2E2E2E2E2E2E2E2E2E2E2E2E2E2E2E2E2E2E2E2E2E2E2E2E2E2E2E2E2E2E2E2E2E2E2E2E2E2E2E2E2E2E2E2E2E2E2E2E2E2E2E2E2E2E2E2E2E2E2E2E2E2E2E2E2E2E2E2E2E2E2E2E2E2E2E2E2E2E2E2E2E2
310
E2E2E2E2E2E2E2E2E2E2E2E2E2F5E2E2F5F5E2E2F5E2E2E2E2F5F5F5F5F5F5F5F5F5F5F5F5F5F5F5F5F5F5F5F5F5F5F5F5F5F5F5F5F5F5F5F5F5F5F5F5F5F5F5F5F5F5F5F5F5F5F5F5F5F5F5F5F5F5F5F5F5F5F5F5F5F5F5F5F5F5F5F5F5F5F5F5F5F5F5F5F5F5F5F5F5F5F5F5F5F5F5F5F5F5F5F5F5F5F5F5F5F5F5F5F5F5
310
F5F5F5F5F5F5F5F5F5F5F5F5F5F5F5F5F5F5F5F5F5F5F5F5F5F5F5F5F5F5F5F5F5F5F5F5F5F5F5F5F5F5F5F5F5F5F5F5F5F5F5F5F5F5F5F5F5F5F5F5F5F5E2E2E2E2F5E2E2F5F5E2E2F5E2E2E2E2F5E2E2E2E2E2E2E2E2E2E2E2E2E2E2E2E2E2E2E2E2E2E2E2E2E2E2E2E2E2E2E2E2E2E2E2E2E2E2E2E2E2E2E2E2E2E2E2E2
310
E2E2E2E2E2E2E2E2E2E2E2E2E2E2E2E2E2E2E2E2E2E2E2E2E2E2E2E2E2E2E2E2E2E2E2E2E2E2E2E2E2E2E2E2E2E2E2E2E2E2E2E2E2E2E2E2E2E2E2E2E2E2E2E2E2E2E2E2E2E2E2E2E2E2E2E2E2E2E2E2E2E2E2E2E2E2E2E2E2E2E2E2E2E2E2E2E2E2E2E2E2E2E2E2E2E2E2E2E2E2E2E2E2E2F5E2E2E2E2F5E2E2F5F5E2E2E2
310
E2E2E2E2F5E2E2E2E2E2E2E2E2E2E2E2E2E2E2E2E2E2E2E2E2E2E2E2E2E2E2E2E2E2E2E2E2E2E2E2E2E2E2E2E2E2E2E2E2E2E2E2E2E2E2E2E2E2E2E2E2E2E2E2E2E2E2E2E2E2E2E2E2E2E2E2E2E2E2E2E2E2E2E2E2E2E2E2E2E2E2E2E2E2E2E2E2E2E2E2E2E2E2E2E2E2E2E2E2E2E2E2E2E2E2E2E2E2E2E2E2E2E2E2E2E2E2
310
E2E2E2E2E2E2E2E2E2E2E2E2E2E2E2E2E2E2E2E2E2E2E2E2E2E2E2E2E2E2E2E2E2E2E2E2E2E2E2E2F5E2E2E2E2E2E2E2F5F5E2E2E2E2E2E2E2F5E2E2E2E2E2E2E2E2E2E2E2E2E2E2E2E2E2E2E2E2E2E2E2E2E2E2E2E2E2E2E2E2E2E2E2E2E2E2E2E2E2E2E2E2E2E2E2E2E2E2E2E2E2E2E2E2E2E2E2E2E2E2E2E2E2E2E2E2E2
310
E2E2E2E2E2E2E2E2E2E2E2E2E2E2E2E2E2E2E2E2E2E2E2E2E2E2E2E2E2E2E2E2E2E2E2E2E2E2E2E2E2E2E2E2E2E2E2E2E2E2E2E2E2E2E2E2E2E2E2E2E2E2E2E2E2E2E2E2E2E2E2E2E2E2E2E2E2E2E2E2E2E2E2E2E2E2E2E2E2E2E2E2E2F5E2E2E2E2E2E2E2F5F5E2E2E2E2E2E2E2F5E2E2E2E2E2E2E2E2E2E2E2E2E2E2E2E2
310
E2E2E2E2E2E2E2E2E2E2E2E2E2E2E2E2E2E2E2E2E2E2E2E2E2E2E2E2E2E2E2E2E2E2E2E2E2E2E2E2E2E2E2E2E2E2E2E2E2E2E2E2E2E2E2E2E2E2E2E2E2E2E2E2E2E2E2E2E2E2E2E2E2E2E2E2E2E2E2E2E2E2E2E2E2E2E2E2E2E2E2E2E2E2E2E2E2E2E2E2E2E2E2E2E2E2E2E2E2E2E2E2E2E2E2E2E2E2E2E2E2E2E2E2E2E2E2
310
E2E2E2E2E2E2E2E2E2E2E2E2E2E2E2E2E2E2E2F5E2E2E2E2E2E2E2F5F5E2E2E2E2E2E2E2F5E2E2E2E2E2E2E2E2E2E2E2E2E2E2E2E2E2E2E2E2E2E2E2E2E2E2E2E2E2E2E2E2E2E2E2E2E2E2E2E2E2E2E2E2E2E2E2E2E2E2E2E2E2E2E2E2E2E2E2E2E2E2E2E2E2E2E2E2E2E2E2E2E2E2E2E2E2E2E2E2E2E2E2E2E2E2E2E2E2E2
310
E2E2E2E2E2E2E2E2E2E2E2E2E2E2E2E2E2E2E2E2E2E2E2E2E2E2E2E2E2E2E2E2E2E2E2E2E2E2E2E2E2E2E2E2E2E2E2E2E2E2E2E2E2E2E2E2E2E2E2E2E2E2E2E2E2E2E2E2E2E2E2E2F5E2E2E2E2E2E2E2F5F5E2E2E2E2E2E2E2F5E2E2E2E2E2E2E2E2E2E2E2E2E2E2E2E2E2E2E2E2E2E2E2E2E2E2E2E2E2E2E2E2E2E2E2E2E2
310
E2E2E2E2E2E2E2E2E2E2E2E2E2E2E2E2E2E2E2E2E2E2E2E2E2E2E2E2E2E2E2E2E2E2E2E2E2E2E2E2E2E2E2E2E2E2E2E2E2E2E2E2E2E2E2E2E2E2E2E2E2E2E2E2E2E2E2E2E2E2E2E2E2E2E2E2E2E2E2E2E2E2E2E2E2E2E2E2E2E2E2E2E2E2E2E2E2E2E2E2E2E2E2E2E2E2E2E2E2E2E2E2E2E2E2E2E2E2E2E2E2E2E2E2E2F5E2
310
E2E2E2E2E2E2F5F5E2E2E2E2E2E2E2F5E2E2E2E2E2E2E2E2E2E2E2E2E2E2E2E2E2E2E2E2E2E2E2E2E2E2E2E2E2E2E2E2E2E2E2E2E2E2E2E2E2E2E2E2E2E2E2E2E2E2E2E2E2E2E2E2E2E2E2E2E2E2E2E2E2E2E2E2E2E2E2E2E2E2E2E2E2E2E2E2E2E2E2E2E2E2E2E2E2E2E2E2E2E2E2E2E2E2E2E2E2E2E2E2E2E2E2E2E2E2E2
310
E2E2E2E2E2E2E2E2E2E2E2E2E2E2E2E2E2E2E2E2E2E2E2E2E2E2E2E2E2E2E2E2E2E2E2E2E2E2E2E2E2E2E2E2E2E2E2E2E2E2E2F5E2E2E2E2E2E2E2F5F5E2E2E2E2E2E2E2F5E2E2E2E2E2E2E2E2E2E2E2E2E2E2E2E2E2E2E2E2E2E2E2E2E2E2E2E2E2E2E2E2E2E2E2E2E2E2E2E2E2E2E2E2E2E2E2E2E2E2E2E2E2E2E2E2E2E2
310
E2E2E2E2E2E2E2E2E2E2E2E2E2E2E2E2F0E2E2E2E2E2E2E2E2E2E2E2E2E2E2E2E2E2E2E2E2E2E2E2E2E2E2E2E2E2E2E2E2E2E2E2E2E2E2E2E2E2E2E2E2E2E2E2E2E2E2E2E2E2E2E2E2E2E2E2E2E2E2E2E2E2E2E2E2E2E2E2F0E2E2E2E2E2E2E2E2E2E2E2E2E2E2E2F5E2E2E2E2E2E2E2F5F5E2E2E2E2E2E2E2F5E2E2E2E2E2
310
E2E2E2E2E2E2E2E2E2E2E2E2E2E2E2E2E2E2E2E2E2E2E2E2E2E2E2E2E2E2E2E2E2E2E2E2E2E2E2E2E2E2E2E2E2E2E2E2E2E2E2E2E2E2E2E2E2E2E2E2E2E2E2E2E2E2E2E2E2F0E2F0E2E2E2E2E2E2E2E2E2E2E2E2E2E2E2E2E2E2E2E2E2E2E2E2E2E2E2E2E2E2E2E2E2E2E2E2E2E2E2E2E2E2E2E2E2E2E2E2E2E2E2E2E2E2E2
310
E2E2E2E2E2E2E2E2E2E2E2E2F0E2F0E2E2E2E2E2E2E2E2E2E2E2E2E2E2E2F5E2E2E2E2E2E2E2F5F5E2E2E2E2E2E2E2F5E2E2E2E2E2E2E2E2E2E2E2E2E2E2E2E2E2E2E2E2E2E2E2E2E2E2E2E2E2E2E2E2E2E2E2E2E2E2E2E2E2E2E2E2E2E2E2E2E2E2E2E2E2E2E2E2E2E2E2E2E2E2E2E2E2E2E2E2E2E2E2E2E2E2F5F0F0F0F0
310
F0F0F0F0F0F0F0F0F0F0F0F0F0F0F0F0F0F0F0F0F0F0F0F0F0F0F0F0DCDCDCDCDCDCDCF0F0F0F0F0F0F0F0F0F0F0F0F0F0F0F0F0F0F0F0F0F0F0F0F0F0F0F0F0F0F0F0F0E2E2E2E2E2E2E2E2E2E2E2E2E2E2E2F5E2E2E2E2E2E2E2F5F5E2E2F5E2E2E2E2F5E2E2E2E2E2E2E2E2E2E2E2E2E2E2E2E2E2E2E2E2E2E2E2E2E2E2
310
E2E2E2E2E2E2E2E2E2E2E2E2E2E2E2E2E2E2E2E2E2E2E2E2E2E2E2E2E2E2E2E2E2E2E2E2E2E2E2E2E2E2E2E2E2E2E2E2F0E2E2E2E2E2E2E2E2E2E2E2E2E2E2E2E2E2E2E2E2E2E2E2E2E2E2E2E2E2E2E2E2DCDCDCDCDCDCDCE2E2E2E2E2E2E2E2E2E2E2E2E2E2E2E2E2E2E2E2E2E2E2E2E2E2E2E2E2E2E2E2F0E2E2E2E2E2E2
310
E2E2E2E2E2E2E2E2E2F5E2E2E2E2F5E2E2F5F5E2E2F5E2E2E2E2F5E2E2E2E2E2E2E2E2E2E2E2E2E2E2E2E2E2E2E2E2E2E2E2E2E2E2E2E2E2E2E2E2E2E2E2E2E2E2E2E2E2E2E2E2E2E2E2E2E2E2E2E2E2E2E2E2E2E2E2E2E2E2E2E2E2E2E2E2E2E2E2E2E2E2F0E2E2E2E2E2E2E2E2E2E2E2E2E2E2E2E2E2E2E2E2E2E2E2E2E2
310
E2E2E2E2E2E2E2DCDCDCDCDCDCDCE2E2E2E2E2E2E2E2E2E2E2E2E2E2E2E2E2E2E2E2E2E2E2E2E2E2E2E2E2E2E2E2F0E2E2E2E2E2E2E2E2E2E2E2E2E2E2E2F5E2E2E2E2F5E2E2F5F5E2E2F5E2E2E2E2F5E2E2E2E2E2E2E2E2E2E2E2E2E2E2E2E2E2E2E2E2E2E2E2E2E2E2E2E2E2E2E2E2E2E2E2E2E2E2E2E2E2E2E2E2E2E2E2
310
E2E2E2E2E2E2E2E2E2E2E2E2E2E2E2E2E2E2E2E2E2E2E2E2E2E2E2F0E2E2E2E2E2E2E2E2E2E2E2E2E2E2E2E2E2E2E2E2E2E2E2E2E2E2E2E2E2E2E2E2E2E2E2E2E2E2E2E2E2E2E2E2E2E2E2E2E2E2E2E2E2E2E2E2E2E2E2E2E2E2E2E2E2E2E2E2E2E2E2F0E2E2E2E2E2E2E2E2E2E2E2E2E2E2E2F5E2E2E2E2F5E2E2F5F5E2E2
310
F5E2E2E2E2F5E2E2E2E2E2E2E2E2E2E2E2E2E2E2E2E2E2E2E2E2E2E2E2E2E2E2E2E2E2E2E2E2E2E2E2E2E2E2E2E2E2E2E2E2E2E2E2E2E2E2E2E2E2E2E2E2E2E2E2E2E2E2E2E2E2E2E2E2E2E2E2E2E2E2F0E2E2E2E2E2E2E2E2E2E2E2E2E2E2E2E2E2E2E2E2E2E2E2E2E2E2E2E2E2E2E2E2E2E2E2E2E2E2E2E2E2E2E2E2E2E2
310
E2E2E2E2E2E2E2E2E2E2E2E2E2E2E2E2E2E2E2E2E2E2E2E2E2F0E2E2E2E2E2E2E2E2E2E2E2E2E2E2E2F5E2E2E2E2F5E2E2F5F5E2E2F5E2E2E2E2F5E2E2E2E2E2E2E2E2E2E2E2F0E2E2E2E2E2E2E2E2E2E2E2E2E2E2E2E2E2E2E2E2E2E2E2E2E2F0E2E2E2E2E2E2E2E2E2E2E2E2E2E2E2E2E2E2E2E2E2E2E2E2E2E2E2E2E2E2
310
E2E2E2E2E2E2F0E2E2E2E2F0E2E2E2E2E2E2E2E2E2E2E2E2E2E2E2E2E2E2E2E2E2E2E2E2F0E2E2E2E2E2E2E2E2E2E2E2E2E2E2E2E2E2E2E2E2E2E2E2E2E2E2E2E2F0E2E2E2E2E2E2E2E2E2E2E2E2F0E2E2E2E2E2E2E2E2E2E2E2E2E2E2E2F5E2E2E2E2F5E2E2F5F5E2E2F5E2E2E2E2F5E2E2E2E2E2E2E2E2E2E2E2F0E2E2E2
310
E2E2E2E2E2E2E2E2E2E2E2E2E2E2E2E2E2E2E2E2E2E2F0E2E2E2E2E2E2E2E2E2E2E2E2E2E2E2E2E2E2E2E2E2E2E2E2E2E2E2E2E2E2E2E2E2E2E2E2F0E2E2E2E2F0E2E2E2E2E2E2E2E2E2E2E2E2E2E2E2E2E2E2E2E2E2E2E2E2F0E2E2E2E2E2E2E2E2E2E2E2E2E2E2E2E2E2E2E2E2E2E2E2E2E2E2E2E2F0E2E2E2E2E2E2E2E2
310
E2E2E2E2F0E2E2E2E2E2E2E2E2E2E2E2E2E2E2E2F5E2E2E2E2F5E2E2F5F5E2E2F5E2E2E2E2F5E2E2E2E2E2E2E2E2E2E2E2F0F0F0F0F0F0F0F0F0F0F0DCDCDCDCDCF0F0F0F0F0F0F0F0F0F0F5E2E2E2E2E2E2E2E2E2E2E2E2E2E2E2E2E2E2E2E2E2E2E2E2E2E2E2E2E2E2E2E2E2E2E2E2F5DCDCDCDCF0F0F0F0F0F0F0F0F0F0
310
F0DCDCDCDCF0F0F0F0F0F0F0F0F0F0F0F0F0F0F0F0F0F0F0F0F0F0F0DCDCDCDCF0F0F0F0F0F0F0F0F0F0F0F0F5E2E2E2E2E2E2E2E2E2E2E2E2F0E2E2E2E2E2E2E2E2E2E2E2E2E2E2E2F5E2E2E2E2F5E2E2F5F5E2E2F5E2E2E2E2F5E2E2E2E2E2E2E2E2E2E2E2F0E2E2E2E2E2E2E2E2E2E2DCDCDCDCDCE2E2E2E2E2E2E2E2E2
310
E2F0E2E2E2E2E2E2E2E2E2E2E2E2E2E2E2E2E2E2E2E2E2E2E2E2E2E2E2E2E2E2E2E2E2E2E2E2F0DCDCDCDCF0E2E2E2E2E2E2E2E2E2E2DCDCDCDCDCE2E2E2E2E2E2E2E2E2F0E2E2E2E2E2E2E2E2E2E2E2E2E2DCDCDCE2E2E2E2E2E2E2E2E2E2E2E2F0E2E2E2E2E2E2E2E2E2E2E2E2F0E2E2E2E2E2E2E2E2E2E2E2E2E2E2E2F5
310
E2E2E2E2F5E2E2F5F5E2E2F5E2E2E2E2F5E2E2E2E2E2E2E2E2E2E2E2F0E2E2E2E2E2E2E2E2E2E2DCDCDCDCDCE2E2E2E2E2E2E2E2E2E2F0E2E2E2E2E2E2E2E2E2E2E2E2E2E2E2E2E2E2E2E2E2E2E2E2E2E2E2E2E2E2E2E2E2E2E2E2F0DCDCDCDCF0E2E2E2E2E2E2E2E2E2E2DCDCDCDCDCE2E2E2E2E2E2E2E2E2F0E2E2E2E2E2
310
E2E2E2E2E2E2E2DCDCDCDCE2E2E2E2E2E2E2E2E2E2E2E2F0E2E2E2E2E2E2E2E2E2E2E2E2F0E2E2E2E2E2E2E2E2E2E2E2E2E2E2E2F5E2E2E2E2F5E2E2F5F5E2E2F5E2E2E2E2F5E2E2E2E2E2E2E2E2E2E2E2F0E2E2E2E2E2E2E2E2E2E2E2E2E2E2E2E2E2E2E2E2E2E2E2E2E2F0E2E2E2E2E2E2E2E2E2E2E2E2E2E2E2E2E2E2E2
310
E2E2E2E2E2E2E2E2E2E2E2E2E2E2E2E2E2F0E2E2E2E2F0E2E2E2E2E2E2E2E2E2E2E2E2E2E2E2E2E2E2E2E2E2E2E2E2F0E2E2E2E2E2E2E2E2E2E2E2E2E2E2E2E2E2E2E2E2E2E2E2E2E2E2E2E2F0E2E2E2E2E2E2E2E2E2E2E2E2F0E2E2E2E2E2E2E2E2E2E2E2E2E2E2E2F5E2E2E2E2F5E2E2F5F5E2E2F5E2E2E2E2F5E2E2E2E2
310
E2E2E2E2E2E2E2F0E2E2E2E2E2E2E2E2E2E2E2E2E2E2E2E2E2E2E2E2E2E2E2E2E2F0E2E2E2E2E2E2E2E2E2E2E2E2E2E2E2E2E2E2E2E2E2E2E2E2E2E2E2E2E2E2E2E2E2E2E2E2F0E2E2E2E2F0E2E2E2E2E2E2E2E2E2E2E2E2E2E2E2E2E2E2E2E2E2E2E2E2F0E2E2E2E2E2E2E2E2E2E2E2E2E2E2E2E2E2E2E2E2E2E2E2E2E2E2
310
E2E2F0E2E2E2E2E2E2E2E2E2E2E2E2F0E2E2E2E2E2E2E2E2E2E2E2E2E2E2E2F5E2E2E2E2F5E2E2F5F5E2E2F5E2E2E2E2F5E2E2E2E2E2E2E2E2E2E2E2F0E2E2E2E2E2E2E2E2E2E2E2E2E2E2E2E2E2E2E2E2E2E2E2E2E2F0E2E2E2E2E2E2E2E2E2E2E2E2E2E2E2E2E2E2E2E2E2E2E2E2E2E2E2E2E2E2E2E2E2E2E2E2F0E2E2E2
310
E2F0E2E2E2E2E2E2E2E2E2E2E2E2E2E2E2E2E2E2E2E2E2E2E2E2F0E2E2E2E2E2E2E2E2E2E2E2E2E2E2E2E2E2E2E2E2E2E2E2E2E2E2E2E2F0E2E2E2E2E2E2E2E2E2E2E2E2F0E2E2E2E2E2E2E2E2E2E2E2E2E2E2E2F5E2E2E2E2F5E2E2F5F5E2E2F5E2E2E2E2F5E2E2E2E2E2E2E2E2E2E2E2F0E2E2E2E2E2E2E2E2E2E2E2E2E2
310
E2E2E2E2E2E2E2E2E2E2E2E2F0E2E2E2E2E2E2E2E2E2E2E2E2E2E2E2E2E2E2E2E2E2E2E2E2E2E2E2E2E2E2E2E2E2E2E2E2F0E2E2E2E2F0E2E2E2E2E2E2E2E2E2E2E2E2E2E2E2E2E2E2E2E2E2E2E2E2F0E2E2E2E2E2E2E2E2E2E2E2E2E2E2E2E2E2E2E2E2E2E2E2E2E2E2E2E2F0E2E2E2E2E2E2E2E2E2E2E2E2F0E2E2E2E2E2
310
E2E2E2E2E2E2E2E2E2E2F5E2E2E2E2F5E2E2F5F5E2E2F5E2E2E2E2F5E2E2E2E2E2E2E2E2E2E2E2F0E2E2E2E2E2E2E2E2E2E2E2E2E2E2E2E2E2E2E2E2E2E2E2E2E2F0E2E2E2E2E2E2E2E2E2E2E2E2E2E2E2E2E2E2E2E2E2E2E2E2E2E2E2E2E2E2E2E2E2E2E2E2F0E2E2E2E2F0E2E2E2E2E2E2E2E2E2E2E2E2E2E2E2E2E2E2E2
310
E2E2E2E2E2F0E2E2E2E2E2E2E2E2E2E2E2E2E2E2E2E2E2E2E2E2E2E2E2E2E2E2E2E2F0E2E2E2E2E2E2E2E2E2E2E2E2F0E2E2E2E2E2E2E2E2E2E2E2E2E2E2E2F5E2E2E2E2F5E2E2F5F5E2E2F5E2E2E2E2F5E2E2E2E2E2E2E2F5F5F5F5F5F5F5F5F5E2E2E2E2E2E2E2E2E2E2E2E2E2E2E2E2F5F5F5F5F5F5F5F5F5F5E2E2E2E2
310
E2E2E2E2E2E2E2E2E2E2E2E2F0F0F0F0F0F0F0F0F0F0F0F0F0F0F0F0F0F5F5F5F5F5F5F5F5F5E2E2E2E2E2E2E2E2E2E2E2E2E2E2E2E2F5F5F5F5F5F5F5F5F5F5F0F0F0F0F0F0F0F0F0F0F0F0F0F0F0F0F0F0F0F0F0F5F5F5F5F5F0F0F0F0F0F0F0F0F0F0F0F0F0F0F0F0F0F0F0F0F0E2E2E2E2E2F5E2E2E2E2F5E2E2F5F5E2
310
E2E2E2E2E2E2F5E2E2E2E2E2E2E2F5F5F5F5F5F5F5F5F5E2E2E2F5F5F5F5F5F5F5F5F5F5F5F5F5F5F5F5F5F5F5F5F5F5F5E2E2E2E2E2E2E2E2E2E2E2E2E2E2E2E2E2F0F0E2E2E2E2E2E2E2E2E2E2E2E2E2F0F5F5F5F5F5F5F5F5F5F5F5F5F5F5F5F5F5F5F5F5F5F5E2E2E2F5F5F5F5F5F5F5F5F5F5E2E2E2E2E2E2E2E2E2E2
310
E2E2E2E2E2E2E2E2E2E2E2F5F5F5F5E2E2E2E2E2E2E2E2E2E2E2F0E2E2E2E2E2E2E2F0E2E2E2E2E2E2E2F5E2E2E2E2E2E2E2F5F5E2E2E2E2E2E2E2F5E2E2E2E2E2E2E2E2E2E2F5F5F5F5F5E2E2E2E2F5E2E2E2E2E2E2E2E2E2E2E2E2E2E2E2F5F5F5F5E2E2E2E2E2E2E2E2E2E2E2E2E2E2E2E2E2E2E2E2F0E2E2E2E2E2E2E2
310
E2E2E2E2E2E2E2F0E2E2E2F5F5F5E2E2E2E2E2E2E2E2E2E2E2E2E2E2E2E2F5E2E2E2E2F5F5F5F5F5F5F5F5F5F5F5F5F5F5F5F5F5F5F5F5F5F5F5F5F5F5F5F5F5F5F5F5F5F5F5E2E2E2E2E2E2E2E2E2F0E2E2E2E2E2E2E2F0E2E2E2E2E2E2E2F5E2E2E2E2E2E2E2F5F5E2E2E2E2E2E2E2F5E2E2E2E2E2E2E2E2F5F5F5F5F5F5
310
F5F5F5F5F5F5F5F5F5F5F5F5F5F5F5F5F5F5F5F5F5F5F5F5F5F5F5E2E2E2E2E2E2E2E2E2E2E2E2E2E2E2E2E2E2F0E2E2E2E2E2E2E2E2E2E2E2E2E2E2F0E2F5F5F5F0F5F5F5F5F5F5F5F5F5F5F5F5F5F5F5F5F5F5F5F5F5F5F5F5F5F5F5F5F5F5F5E2E2F5E2E2E2E2E2E2E2E2E2E2E2E2E2E2E2E2E2E2E2E2E2E2F5E2E2E2E2
310
E2E2E2E2E2F0E2E2E2E2E2E2E2F0E2E2E2E2E2E2E2F5E2E2E2E2E2E2E2F5F5E2E2E2E2E2E2E2F5E2E2E2E2E2E2E2E2F5E2E2E2E2E2E2E2E2E2E2E2E2E2E2E2E2E2E2E2E2E2E2E2E2E2E2E2E2E2E2E2F5E2E2E2E2E2E2E2E2E2E2E2E2E2E2E2E2E2E2F0E2E2E2E2E2E2E2E2E2E2E2E2E2E2F0F5E2E2E2E2E2E2E2E2E2E2E2E2
310
E2E2E2E2E2E2E2E2E2E2E2E2E2E2E2E2E2E2E2E2F5F5F5F5F5F5F5F5F5F5F5F5F5F5F5F5F5F5F5F5F5F5F5F5F5F5F5F5F5E2E2E2E2E2E2E2E2E2F0E2E2E2E2E2E2E2F0E2E2E2E2E2E2E2F5E2E2E2E2E2E2E2F5F5E2E2E2E2E2E2E2F5E2E2E2E2E2E2E2E2F5E2E2E2E2E2E2E2E2E2E2E2E2E2E2E2E2E2E2E2E2E2E2E2E2E2E2
310
E2E2E2E2E2F5E2E2E2E2E2E2E2E2E2E2E2E2E2E2E2E2DCDCDCE2E2E2E2E2E2E2E2E2E2E2E2E2E2F0F5E2E2E2E2E2E2E2E2E2E2E2E2E2E2E2E2E2E2E2E2E2E2E2E2E2E2E2E2E2E2E2E2F5F5E2E2E2E2E2E2E2E2E2E2E2E2E2E2E2E2E2E2F5E2E2E2E2E2F5E2E2E2E2E2E2E2E2E2E2E2F0E2E2E2E2E2E2E2F0E2E2E2E2E2E2E2
310
F5E2E2E2E2E2E2E2F5F5E2E2E2E2E2E2E2F5E2E2E2E2E2E2F5F5F5F5F5F5F5F5F5F5F5F5F5F5F5F5F5F5F5F5F5F5F5F5F5F5F5F5F5F5F5F5F5F5F5F5F5E2E2E2E2E2E2E2E2E2E2E2E2E2E2DCDCDCE2E2E2E2F0F0F0F0F0F0F0F0F0F0F5F5F5F5F5F5F5F5F5F5F5F5F5F5F5F5F5F5F5F5F5F5F5F5F5F5F5F5F5F5F5F5F5F5F5
310
F5E2E2E2E2E2E2E2E2E2E2E2E2E2E2E2E2E2E2F5E2E2E2E2E2F5E2E2E2E2E2E2E2E2E2E2E2F0E2E2E2E2E2E2E2F0E2E2E2E2E2E2E2F5E2E2E2E2E2E2E2F5F5E2E2E2E2E2E2E2F5E2E2E2E2E2E2F0E2E2E2E2E2E2E2E2E2E2E2E2E2E2E2E2E2E2E2E2E2E2E2E2E2E2E2E2E2E2E2E2E2E2E2F0E2E2E2E2E2E2E2E2E2E2E2E2E2
310
E2DCDCDCE2E2E2E2E2E2F0E2E2E2E2E2E2E2F5E2E2E2E2E2E2E2E2E2E2E2E2E2E2E2E2E2E2E2E2E2E2E2E2E2E2E2E2E2E2E2E2E2E2F5E2E2E2E2E2E2E2E2E2E2E2E2E2E2E2E2E2E2F5E2E2E2E2E2F5E2E2E2E2E2E2E2E2E2E2E2F0E2E2E2E2E2E2E2F0E2E2E2E2E2E2E2F5E2E2E2E2E2E2E2F5F5E2E2E2E2E2E2E2F5E2E2E2
310
E2E2E2F0E2E2E2E2E2E2E2E2E2E2E2E2E2E2E2E2E2E2E2E2E2E2E2E2E2E2E2E2E2E2E2E2E2E2E2F0E2E2E2E2E2E2E2E2E2E2E2E2E2E2E2DCF0E2E2E2E2E2E2F0E2E2E2E2E2E2E2F5E2E2E2E2E2E2E2E2E2E2E2E2E2E2E2E2E2E2E2E2E2E2E2E2E2E2E2E2E2E2E2E2E2E2F5E2E2E2E2E2E2E2E2E2E2E2E2E2E2E2E2E2E2F5E2
310
E2E2E2E2F5E2E2E2E2E2E2E2E2E2E2E2F0E2E2E2E2E2E2E2F0E2E2E2E2E2E2E2F5E2E2E2E2E2E2E2F5F5E2E2E2E2E2E2E2F5E2E2E2E2E2E2F0E2E2E2E2E2E2E2E2E2E2E2E2E2E2E2E2E2E2E2E2E2E2E2E2E2E2E2E2E2E2E2E2E2E2E2F0E2E2E2E2E2E2E2E2E2E2E2E2E2E2DCDCDCE2E2E2E2DCDCDCE2E2E2E2E2E2E2F5E2E2
310
E2E2E2E2E2E2E2E2E2E2E2E2E2E2E2E2E2E2E2E2E2E2E2E2E2E2E2E2E2E2E2E2F5E2E2E2E2E2E2E2E2E2E2E2E2E2E2E2E2E2E2F5E2E2E2E2E2F5E2E2E2E2E2E2E2E2E2E2E2F0E2E2E2E2E2E2E2F0E2E2E2E2E2E2E2F5E2E2E2E2E2E2E2F5F5E2E2F5E2E2E2E2F5E2E2E2E2E2E2F0E2E2E2E2E2E2E2E2E2E2E2E2E2E2E2E2E2
310
E2E2E2E2E2E2E2E2E2E2E2E2E2E2E2E2E2E2F0E2E2E2E2E2E2E2E2E2E2E2E2E2E2E2E2F0E2E2E2E2DCDCF0E2E2E2E2E2E2E2F5E2E2E2E2E2E2E2E2E2E2E2E2E2E2E2E2E2E2E2E2E2E2E2E2E2E2E2E2E2E2E2E2E2E2F5E2E2E2E2E2E2E2E2E2E2E2E2E2E2E2E2E2E2F5E2E2E2E2E2F5E2E2E2E2E2E2E2E2E2E2E2F0E2E2E2E2
310
E2E2E2F0E2E2E2E2E2E2E2F5E2E2E2E2F5E2E2F5F5E2E2F5E2E2E2E2F5E2E2E2E2E2E2F0E2E2E2E2E2E2E2E2E2E2E2E2E2E2E2E2E2E2E2E2E2E2E2E2E2E2E2E2E2E2E2E2E2E2E2F0E2E2E2E2E2E2E2E2E2E2E2E2E2E2E2E2F0E2E2E2E2DCDCDCE2E2E2E2E2E2E2F5E2E2E2E2E2E2E2E2E2E2E2E2E2E2E2E2E2E2E2E2E2E2E2
310
E2E2E2E2E2E2E2E2E2E2E2F5E2E2E2E2E2E2E2E2E2E2E2E2E2E2E2E2E2E2F5E2E2E2E2E2F5E2E2E2E2E2E2E2E2E2E2E2F0E2E2E2E2E2E2E2F0E2E2E2E2E2E2E2F5E2E2E2E2F5E2E2F5F5E2E2F5E2E2E2E2F5E2E2E2E2E2E2F0E2E2E2E2E2E2E2E2E2E2E2E2E2E2E2E2E2E2E2E2E2E2E2E2E2E2E2E2E2E2E2E2E2E2E2F0E2E2
310
E2E2E2E2E2E2E2E2E2E2E2E2E2E2F0E2E2E2E2E2E2F0E2E2E2E2E2E2E2F5E2E2E2E2E2E2E2E2E2E2E2E2E2E2E2E2E2E2E2E2E2E2E2E2E2E2E2E2E2E2E2E2E2E2F5E2E2E2E2E2E2E2E2E2E2E2E2E2E2E2E2E2E2F5E2E2E2E2E2F5E2E2E2E2E2E2E2E2E2E2E2F0E2E2E2E2E2E2E2F0E2E2E2E2E2E2E2F5E2E2E2E2F5E2E2F5F5
310
E2E2F5E2E2E2E2F5E2E2E2E2E2E2F0E2E2E2E2E2E2E2E2E2E2E2E2E2E2E2E2E2E2E2E2E2E2E2E2E2E2E2E2E2E2E2E2E2E2E2F0E2E2E2E2E2E2E2E2E2E2E2E2E2E2E2E2F0F0E2E2E2E2E2F0E2E2E2E2E2E2E2F5E2E2E2E2E2E2E2E2E2E2E2E2E2E2E2E2E2E2E2E2E2E2E2E2E2E2E2E2E2E2E2E2E2E2F5E2E2E2E2E2E2E2E2E2
310
E2E2E2E2E2E2E2E2E2F5E2E2E2E2E2F5E2E2E2E2E2E2E2E2E2E2E2F0E2E2E2E2E2E2E2F0E2E2E2E2E2E2E2F5E2E2E2E2F5E2E2F5F5E2E2F5E2E2E2E2F5E2E2E2E2E2E2F0F5F5F5F5F5F5F5F5F5F5F5F5F5F5F5F5F5F5F5F5F5F5F5F5F5F5F5F5F5F5F5F5F5F5F5F0E2E2E2E2E2E2E2E2E2E2E2E2E2E2E2F0F5F0F0F0F0F0F0
310
F5F0F0F0F0F0F0F0F0F5F5F5F5F5F5F5F5F5F5F5F5F5F5F5F5F5F5F5F5F5F5F5F5F5F5F5F5F5F5F5F5F5F5F0E2E2E2E2E2E2E2E2E2E2E2E2E2E2E2E2E2E2F5E2E2E2E2E2F5E2E2E2E2E2E2E2E2E2E2E2F0E2E2E2E2E2E2E2F0E2E2E2E2E2E2E2F5E2E2E2E2F5E2E2F5F5E2E2F5E2E2E2E2F5E2E2E2E2E2E2F0E2E2E2E2E2E2
310
E2E2E2E2E2E2E2E2F5E2E2E2E2E2F5E2E2E2E2E2E2E2E2E2E2E2E2E2E2F0E2E2E2E2E2E2E2E2E2E2E2E2E2E2E2E2E2E2E2E2E2E2E2E2E2E2E2E2E2E2E2F0E2E2E2E2E2E2E2E2E2E2E2E2E2E2E2E2E2E2E2E2E2E2E2E2E2E2E2E2E2E2E2E2E2E2F0E2E2E2E2E2E2E2E2E2E2E2E2E2E2E2E2E2E2F5E2E2E2E2E2F5E2E2E2E2E2
310
E2E2E2E2E2E2F0E2E2E2E2E2E2E2F0E2E2E2E2E2E2E2F5E2E2E2E2F5E2E2F5F5E2E2F5E2E2E2E2F5E2E2E2E2E2E2F0E2E2E2E2E2E2E2E2E2E2E2E2E2E2F0E2E2E2E2E2F0E2E2E2E2E2E2E2E2E2E2E2E2E2E2F0E2E2E2E2E2E2E2E2E2E2E2E2E2E2E2E2E2E2E2E2E2E2E2E2E2E2E2E2E2E2E2F0E2E2E2E2E2E2E2E2E2E2E2E2
310
E2E2E2E2E2E2E2E2E2E2E2E2E2E2E2E2E2E2E2E2E2E2F0E2E2E2E2E2E2E2E2E2E2E2E2E2E2E2E2E2E2F5E2E2E2E2E2F5E2E2E2E2E2E2E2E2E2E2E2F0E2E2E2E2E2E2E2F0E2E2E2E2E2E2E2F5E2E2E2E2F5E2E2F5F5E2E2F5E2E2E2E2F5E2E2E2E2E2E2F0E2E2E2E2E2E2E2E2E2E2E2E2E2E2F0DCF0DCDCDCF0E2E2E2E2E2E2
310
E2E2E2E2E2E2E2E2F0E2E2E2E2E2E2E2E2E2E2E2E2E2E2E2E2E2E2E2E2E2E2E2E2E2E2E2E2E2E2E2F0E2E2E2E2E2E2E2E2E2E2E2E2E2E2E2E2E2E2E2E2E2E2E2E2E2E2E2E2E2E2E2E2E2E2F0E2E2E2E2E2E2E2E2E2E2E2E2E2E2E2E2E2E2F5E2E2E2E2E2F5E2E2E2E2E2E2E2E2E2E2E2F0E2E2E2E2E2E2E2F0E2E2E2E2E2E2
310
E2F5E2E2E2E2F5E2E2F5F5E2E2F5E2E2E2E2F5E2E2E2E2E2E2F0E2E2E2E2E2E2E2E2E2E2E2E2E2E2F0DCDCDCDCDCF0E2E2E2E2E2E2E2E2E2E2E2E2E2E2F0E2E2E2E2E2E2E2E2E2E2E2E2E2E2E2E2E2E2E2E2E2E2E2E2E2E2E2E2E2E2E2F0E2E2E2E2E2E2E2E2E2E2E2E2E2E2E2E2E2E2E2E2E2E2E2E2E2E2E2E2E2E2E2E2E2
310
E2F0E2E2E2E2E2E2E2E2E2E2E2E2E2E2E2E2E2E2F5E2E2E2E2E2F5E2E2E2E2E2E2E2E2E2E2E2F0E2E2E2E2E2E2E2F0E2E2E2E2E2E2E2F5E2E2E2E2F5E2E2F5F5E2E2F5E2E2E2E2F5E2E2E2E2E2E2F0E2E2E2E2E2E2E2E2E2E2E2E2E2E2F0DCDCDCDCDCF0E2E2E2E2E2E2E2E2E2E2E2E2E2E2F0E2E2E2E2E2E2E2E2E2E2E2E2
310
E2E2E2E2E2E2E2E2E2E2E2E2E2E2E2E2E2E2E2F0E2E2E2E2E2E2E2E2E2E2E2E2E2E2E2E2E2E2E2E2E2E2E2E2E2E2E2E2E2E2E2E2E2E2F0E2E2E2E2E2E2E2E2E2E2E2E2E2E2E2E2E2E2F5E2E2E2E2E2F5E2E2E2E2E2E2E2E2E2E2E2F0E2E2E2E2E2E2E2F0E2E2E2E2E2E2E2F5E2E2E2E2F5E2E2F5F5E2E2F5E2E2E2E2F5E2E2
310
E2E2E2E2F0E2E2E2E2E2E2E2E2E2E2E2E2E2E2F5E2E2E2E2E2F5E2E2E2E2E2E2E2E2E2E2E2E2E2E2F0E2E2E2E2E2E2E2E2E2E2E2E2E2E2E2E2E2E2E2E2E2E2E2E2E2E2E2E2E2E2E2F0E2E2E2E2E2E2E2E2E2E2E2E2E2E2E2E2E2E2E2E2E2E2E2E2E2E2E2E2E2E2E2E2E2E2F0E2E2E2E2E2E2E2E2E2E2E2E2E2E2E2E2E2E2F5
310
E2E2E2E2E2F5E2E2E2E2E2E2E2E2E2E2E2F0E2E2E2E2E2E2E2F0E2E2E2E2E2E2E2F5E2E2E2E2F5E2E2F5F5E2E2F5E2E2E2E2F5E2E2E2E2E2E2F0F0F0F0F0F0F0F0F0F0F0F0F0F0F0F0F0F0F0F0F0F0F0F0F0F0F0F0F0F0F0F0F0F0F0F0F5E2E2E2E2E2E2E2E2E2E2E2E2E2E2E2E2E2E2E2E2E2E2E2E2E2E2E2E2E2E2E2F0F0
310
F0F0F0F0F0F0F0F0F0F0F0F0F0F0F0F0F0F0F0F0F0F0F0F0F0F0F0F0F0F0F0F0F0F5E2E2E2E2E2E2E2E2E2E2E2E2E2E2E2E2E2E2F5E2E2E2E2E2F5E2E2E2E2E2E2E2E2E2E2E2F0E2E2E2E2E2E2E2F0E2E2E2E2E2E2E2F5E2E2E2E2F5E2E2F5F5E2E2F5E2E2E2E2F5E2E2E2E2E2E2F0E2E2E2E2E2E2E2E2E2E2E2E2E2E2F5DC
310
DCDCDCDCF5E2E2E2E2E2E2E2E2E2E2E2E2E2E2F0E2E2E2E2E2E2E2E2E2E2E2E2E2E2E2E2E2E2E2E2E2E2E2E2E2E2E2E2E2E2E2F0F0F0E2E2E2E2E2E2E2E2E2E2E2E2E2DCDCDCDCDCE2E2E2E2E2E2E2E2E2E2E2E2E2F0F0E2E2E2E2E2E2E2E2E2E2E2E2E2E2E2E2E2E2F5E2E2E2E2E2F5E2E2E2E2E2E2E2E2E2E2E2F0E2E2E2
310
E2E2E2E2F0E2E2E2E2E2E2E2F5E2E2E2E2F5E2E2F5F5E2E2F5E2E2E2E2F5E2E2E2E2E2E2F0E2E2E2E2E2E2E2E2E2E2E2E2E2E2F5DCDCDCDCDCF5E2E2E2E2E2E2E2E2E2E2E2E2E2E2F0E2E2E2E2E2E2E2E2E2E2E2E2E2E2E2E2E2E2E2E2E2E2E2E2E2E2E2E2E2E2E2F0E2E2E2E2E2E2E2E2E2E2E2E2E2E2E2DCDCDCDCDCE2E2
310
E2E2E2E2E2E2E2E2E2E2E2E2F0E2E2E2E2E2E2E2E2E2E2E2E2E2E2E2E2E2E2F5E2E2E2E2E2F5E2E2E2E2E2E2E2E2E2E2E2F0E2E2E2E2E2E2E2F0E2E2E2E2E2E2E2F5E2E2E2E2F5E2E2F5F5E2E2F5E2E2E2E2F5E2E2E2E2E2E2E2E2E2E2E2E2E2E2E2E2E2E2E2E2E2F5E2E2E2E2E2F5E2E2E2E2E2E2E2E2E2E2E2E2E2E2E2E2
310
E2E2E2E2E2E2E2E2E2E2E2E2E2E2E2E2E2E2E2E2E2E2E2E2E2E2E2E2E2E2E2E2E2E2E2E2E2E2E2E2E2E2E2E2E2E2DCDCDCDCDCE2E2E2E2E2E2E2E2E2E2E2E2E2E2E2E2E2E2E2E2E2E2E2E2E2E2E2E2E2E2E2E2E2F5E2E2E2E2E2F5E2E2E2E2E2E2E2E2E2E2E2F0E2E2E2E2E2E2E2F0E2E2E2E2E2E2E2F5E2E2E2E2F5E2E2F5
310
F5E2E2E2E2E2E2E2F5E2E2E2E2E2E2E2E2E2E2E2E2E2E2E2E2E2E2E2E2E2F5E2E2E2E2E2F5E2E2E2E2E2E2E2E2E2E2E2E2E2E2E2E2E2E2E2E2E2E2E2E2E2E2E2E2E2E2E2E2E2E2E2E2E2E2E2E2E2E2E2E2E2E2E2E2E2E2E2E2E2E2E2E2E2E2E2E2E2E2E2E2E2E2E2E2E2E2E2E2E2E2E2E2E2E2E2E2E2E2E2E2E2E2E2E2E2E2
310
E2E2E2E2E2E2E2E2E2E2F5E2E2E2E2E2F5E2E2E2E2E2E2E2E2E2E2E2F0E2E2E2E2E2E2E2F0E2E2E2E2E2E2E2F5E2E2E2E2E2E2E2F5F5E2E2E2E2E2E2E2F5E2E2E2E2E2E2E2E2E2E2E2E2E2E2E2E2E2E2E2E2E2F5E2E2E2E2E2F5E2E2E2E2E2E2E2E2E2E2E2E2E2E2E2E2E2E2E2E2E2E2E2E2E2E2E2E2E2E2E2E2E2E2E2E2E2
310
E2E2E2E2E2E2E2E2E2E2E2E2E2E2E2E2E2E2E2E2E2E2E2E2E2E2E2E2E2E2E2E2E2E2E2E2E2E2E2E2E2E2E2E2E2E2E2E2E2E2E2E2E2E2E2E2E2E2E2E2E2E2E2F5E2E2E2E2E2F5E2E2E2E2E2E2E2E2E2E2E2F0E2E2E2E2E2E2E2F0E2E2E2E2E2E2E2F5E2E2E2E2E2E2E2F5F5E2E2E2E2E2E2E2F5E2E2E2E2E2E2E2E2E2E2E2E2
310
E2E2E2E2E2E2E2E2E2F5E2E2E2E2E2F5E2E2E2E2E2E2E2E2E2E2E2E2E2E2E2E2E2E2E2E2E2E2E2E2E2E2E2E2E2E2E2E2E2E2E2E2E2E2E2E2E2E2E2E2E2E2E2E2E2E2E2E2E2E2E2E2E2E2E2E2E2E2E2E2E2E2E2E2E2E2E2E2E2E2E2E2E2E2E2E2E2E2E2E2E2E2E2E2E2E2E2E2E2E2E2E2E2E2E2E2F5E2E2E2E2E2F5E2E2E2E2
310
E2E2E2E2E2E2E2F0E2E2E2E2E2DCDCDCE2E2E2E2E2E2E2F5E2E2E2E2E2E2E2F5F5E2E2E2E2E2E2E2F5E2E2E2E2E2E2E2E2E2E2E2E2E2E2E2E2E2E2E2E2E2F5E2E2E2E2E2F5E2E2E2E2E2E2E2E2E2E2E2E2E2E2E2E2E2E2E2E2E2E2E2E2E2E2E2E2E2E2E2E2E2E2E2E2E2E2E2E2E2E2E2E2E2E2E2E2E2E2E2E2E2E2E2E2E2E2
310
E2E2E2E2E2E2E2E2E2E2E2E2E2E2E2E2E2E2E2E2E2E2E2E2E2E2E2E2E2E2E2E2E2E2E2E2E2E2E2E2E2E2F5E2E2E2E2E2F5E2E2E2E2E2E2E2E2E2E2E2F0E2E2E2E2E2E2DCF0E2E2E2E2E2E2E2F5E2E2E2E2E2E2E2F5F5E2E2E2E2E2E2E2F5E2E2E2E2E2E2E2E2E2F5F5F5F5F5F5F5F5F5F5F5F5F5F5F5F5F5F5F5F5F5F5F5F5
310
F5F5F5F5F5F5F5E2E2E2E2E2E2E2E2E2E2E2E2E2E2E2E2E2E2E2E2E2E2E2E2E2E2E2E2E2E2E2E2E2E2E2E2E2E2E2E2E2E2E2E2E2E2E2E2E2E2E2E2E2E2E2E2E2E2E2E2E2E2E2E2E2E2E2E2E2E2E2E2E2E2E2E2E2E2E2E2E2F0F5F0F0F0F5F5F5F5F5F5F5F5F5F5F5F5E2E2E2E2E2E2E2E2F0E2E2E2E2E2DCDCDCE2E2E2E2E2
310
E2E2F5E2E2E2E2E2E2E2F5F5E2E2E2E2E2E2E2F5E2E2E2E2E2E2E2E2E2F5F5E2E2E2E2E2E2E2E2E2E2E2E2E2E2E2E2E2E2E2E2E2E2E2E2E2E2E2F5F5E2E2E2E2E2E2E2E2E2E2E2E2E2E2E2E2E2E2E2E2E2E2E2E2E2E2E2E2E2E2E2E2E2E2E2E2E2E2E2E2E2E2E2E2E2E2E2E2E2E2E2E2E2E2E2E2E2E2E2E2E2E2E2E2E2E2E2
310
E2E2E2E2E2E2E2E2E2E2E2E2E2E2E2F0E2E2E2F5F5F5F5F5E2E2F5F5F5E2F5E2E2E2E2E2E2E2E2F0E2E2E2E2E2DCDCDCE2E2E2E2E2E2E2F5E2E2E2E2E2E2E2F5F5E2E2E2E2E2E2E2F5E2E2E2E2E2E2E2E2E2F5F5F5F5F5F5F5F5F5F5F5F5F5F5F5F5F5F5F5F5F5F5F5F5F5F5F5F5F5F5F5F0F0F0F0F0F0F5F0F0E2E2E2E2E2
310
E2E2E2E2E2E2E2E2E2E2E2E2E2E2E2E2E2E2E2E2E2E2E2E2E2E2E2E2E2E2E2E2E2E2E2E2E2E2E2E2E2E2E2E2E2E2E2E2E2E2E2E2E2E2E2E2E2E2E2E2E2E2E2E2E2E2E2E2F0E2E2E2F5F5F5F5F5E2E2F5F5F5F5F5E2E2E2E2E2E2E2E2F0E2E2E2E2E2DCDCDCE2E2E2E2E2E2E2F5E2E2E2E2E2E2E2F5F5E2E2E2E2E2E2E2F5E2
310
E2E2E2E2E2E2E2E2F5F5E2E2E2E2E2E2E2E2E2E2E2E2E2E2E2E2E2E2E2E2E2E2E2E2E2E2E2F5F5E2E2E2E2E2E2F0F0E2E2E2E2E2E2E2E2E2E2E2E2E2E2E2E2E2E2E2E2E2E2E2E2E2E2E2E2E2E2E2E2E2E2E2E2E2E2E2E2E2E2E2E2E2E2E2E2E2E2E2E2E2E2E2E2E2E2E2E2E2E2E2E2E2E2E2E2E2E2E2E2E2E2F0E2E2E2F5F5
310
E2E2E2E2E2E2E2E2F5F5E2E2E2E2E2E2E2E2F0E2E2E2E2E2DCDCDCE2E2E2E2E2E2E2F5E2E2E2E2E2E2E2F5F5E2E2E2E2E2E2E2F5E2E2E2E2E2E2E2E2E2F5F5E2E2E2E2E2E2E2E2E2E2E2E2E2E2E2E2E2E2E2E2E2E2E2E2E2E2E2F5F5E2E2E2E2E2E2F0F0E2E2E2E2E2E2E2E2E2E2E2E2E2E2E2E2E2E2E2E2E2E2E2E2E2E2E2
310
E2E2E2E2E2E2E2E2E2E2E2E2E2E2E2E2E2E2E2E2E2E2E2E2E2E2E2E2E2E2E2E2E2E2E2E2E2E2E2E2E2E2E2E2E2E2E2F0E2E2E2F5F5E2F5F5F5F5F5F5E2F5F5E2E2E2E2E2E2E2E2F0E2E2E2E2E2DCDCDCE2E2E2E2E2E2E2F5E2E2E2E2E2E2E2F5F5E2E2F5E2E2E2E2F5E2E2E2E2E2E2E2E2E2F5F5F5F5F5F5F5F5F5F5F5F5F5
310
F5F5F5F5F5F5F5F5F5F5F5F5F5F5F5F5F5F5E2E2E2E2E2E2F0E2E2E2E2E2E2E2E2E2E2E2E2E2E2E2E2E2E2E2E2E2E2E2E2E2E2E2E2E2E2E2E2E2E2E2E2E2E2E2E2E2E2E2E2E2E2E2E2E2E2E2E2E2E2E2E2E2E2E2E2E2E2E2E2E2E2E2E2E2E2E2E2E2E2E2F0E2E2E2F5F5F5F5E2E2E2E2F5E2F5F5E2E2E2E2E2E2E2E2F0E2E2
310
E2E2E2E2E2F0E2E2E2E2E2E2E2F5E2E2E2E2F5E2E2F5F5E2E2F5E2E2E2E2F5E2E2E2E2E2E2E2E2E2F5F5E2E2E2E2E2E2E2E2E2E2E2E2E2E2E2E2E2E2E2E2E2E2E2E2E2E2E2F5F5E2E2E2E2E2E2F0E2E2E2E2E2E2E2E2E2E2E2E2E2E2E2E2E2E2E2E2E2E2E2E2E2E2E2E2E2E2E2E2E2E2E2E2E2E2E2E2E2E2E2E2E2E2E2E2E2
310
E2E2E2E2E2E2E2E2E2E2E2E2E2E2E2E2E2E2E2E2E2E2E2E2E2E2F0E2E2E2F5F5F5F5E2E2E2E2F5F5E2F5F5F5F5E2E2E2E2E2F0E2E2E2E2E2E2E2F0E2E2E2E2E2E2E2F5E2E2E2E2F5E2E2F5F5E2E2F5E2E2E2E2F5E2E2E2E2E2E2E2E2E2F5F5E2E2E2E2F5F5F5F5F5F5F5F5F5F5F5F5F5F5F5F5F5F5F5E2E2E2E2F5F5E2E2E2
310
E2E2E2F0E2E2E2E2E2E2E2E2E2E2E2E2E2E2E2E2E2E2E2E2E2E2E2E2E2E2E2E2E2E2E2E2E2E2E2E2E2E2E2E2E2E2E2E2E2E2E2E2E2E2E2E2E2E2E2E2E2E2E2E2E2E2E2E2E2E2E2E2E2E2E2E2E2E2E2F0E2E2E2F5E2F5E2F5E2E2F5E2F5F5F5F5F5F5E2E2E2E2E2F0E2E2E2E2E2E2E2F0E2E2E2E2E2E2E2F5E2E2E2E2F5E2E2
310
F5F5E2E2F5E2E2E2E2F5E2E2E2E2E2E2E2E2E2F5F5E2E2E2F5E2F5F5F5E2E2E2E2E2E2E2F5F5F5F5F5F5F5F5F5E2E2E2F5F5E2E2E2E2E2E2F0E2E2E2E2E2E2E2E2E2E2E2E2E2E2E2E2E2E2E2E2E2E2E2E2E2E2E2E2E2E2E2E2E2E2E2E2E2E2E2E2E2E2E2E2E2E2E2E2E2E2E2E2E2E2E2E2E2E2E2E2E2E2E2E2E2E2E2E2E2E2
310
E2E2E2E2E2F0E2E2E2F5F5F5E2F5E2E2F5E2F5F5F5F5E2F5E2E2E2E2E2F0E2E2E2E2E2E2E2F0E2E2E2E2E2E2E2F5E2E2E2E2F5E2E2F5F5E2E2F5E2E2E2E2F5E2E2E2E2E2E2E2E2E2F5F5E2E2E2F5E2F5E2F5E2E2E2E2E2E2E2F5E2F5F5F5E2F5F5F5E2E2E2F5F5E2E2E2E2E2E2F0E2E2E2E2E2E2E2E2E2E2E2E2E2E2E2E2E2
310
E2E2E2E2E2E2E2E2E2E2E2E2E2E2E2E2E2E2E2E2E2E2E2E2E2E2E2E2E2E2E2E2E2E2E2E2E2E2E2E2E2E2E2E2E2E2E2E2E2E2E2E2E2E2E2E2E2E2F0E2E2E2F5F5F5F5F5E2E2F5E2F5F5F5F5F5F5E2E2E2E2E2F0E2E2E2E2E2E2E2F0E2E2E2E2E2E2E2F5E2E2E2E2F5E2E2F5F5E2E2F5E2E2E2E2F5E2E2E2E2E2E2E2E2E2F5F5
310
E2E2E2F5E2F5F5F5E2E2E2E2E2E2E2F5F5F5F5F5F5F5F5F5E2E2E2F5F5E2E2E2E2E2E2F0E2E2E2E2E2E2E2E2E2E2E2E2E2E2E2E2E2E2E2E2E2E2E2E2E2E2E2E2E2E2E2E2E2E2E2E2E2E2E2E2E2E2E2E2E2E2E2E2E2E2E2E2E2E2E2E2E2E2E2E2E2E2E2E2E2E2E2E2E2E2E2E2E2E2E2F0E2E2E2F5F5F5F5F5E2E2F5F5E2F5F5
310
F5F5F5E2E2E2E2E2F0E2E2E2E2E2E2E2F0E2E2E2E2E2E2E2F5E2E2E2E2F5E2E2F5F5E2E2F5E2E2E2E2F5E2E2E2E2E2E2E2E2E2F5F5E2E2E2F5E2E2E2E2E2E2E2E2E2E2E2E2E2E2E2E2E2E2F5F5E2E2E2F5F5E2E2E2E2E2E2F0E2E2E2E2E2E2E2E2E2E2E2E2E2E2E2E2E2E2E2E2E2E2E2E2E2E2E2E2E2E2E2E2E2E2E2E2E2E2
310
E2E2E2E2E2E2E2E2E2E2E2E2E2E2E2E2E2E2E2E2E2E2E2E2E2E2E2E2E2E2E2E2E2E2E2E2E2F0E2E2E2F5F5F5F5E2F5F5E2F5E2F5F5F5F5F5E2E2E2E2E2F0E2E2E2E2E2E2E2F0E2E2E2E2E2E2E2F5E2E2E2E2F5E2E2F5F5E2E2F5E2E2E2E2F5E2E2E2E2E2E2E2E2E2F5F5E2E2E2F5E2F5F5F5E2F5F5F5F5F5F5F5F5F5F5F5F5
310
F5F5F5E2E2E2F5F5E2E2E2E2E2E2F0E2E2E2E2E2E2E2E2E2E2E2E2E2E2E2E2E2E2E2E2E2E2E2E2E2E2E2E2E2E2E2E2E2E2E2E2E2E2E2E2E2E2E2E2E2E2E2E2E2E2E2E2E2E2E2E2E2E2E2E2E2E2E2E2E2E2E2E2E2E2E2E2E2E2E2F0E2E2E2F5E2F5F5E2F5F5E2F5F5F5E2E2E2F0E2E2E2E2F5F0E2E2E2E2E2E2E2F0E2E2E2E2
310
E2E2E2F5E2E2E2E2F5E2E2F5F5E2E2F5E2E2E2E2F5E2E2E2E2E2E2E2E2E2F5F5E2E2E2F5E2F5F5F5E2F5F5F5F5F5F5F5F5F5F5F5F5F5F5F5E2E2E2F5F5E2E2E2E2E2E2F0E2E2E2E2E2E2E2E2E2E2E2E2E2E2E2E2E2E2E2E2E2E2E2E2E2E2E2E2E2E2E2E2E2E2E2E2E2E2E2E2E2E2E2E2E2E2E2E2E2E2E2E2E2E2E2E2E2E2E2
310
E2E2E2E2E2E2E2E2E2E2E2E2E2E2E2E2F0E2E2E2F5E2F5F5F5F5F5E2F5F5F5E2E2E2F0E2E2E2E2F5F0E2E2E2E2E2E2E2F0E2E2E2E2E2E2E2F5E2E2E2E2F5E2E2F5F5E2E2F5E2E2E2E2F5E2E2E2E2E2E2E2F5F5F5F5E2E2E2F5E2E2E2E2E2E2E2E2E2E2E2E2E2E2E2E2E2E2F5F5E2E2E2F5F5F5F5E2E2E2E2F0E2E2E2E2E2E2
310
E2E2E2E2E2E2E2E2E2E2E2E2E2E2E2E2E2E2E2E2E2E2E2E2E2E2E2E2E2E2E2E2E2E2E2E2E2E2E2E2E2E2E2E2E2E2E2E2E2E2E2E2E2E2E2E2E2E2E2E2E2E2E2E2E2E2E2DCDCDCE2E2E2F5E2F5F5F5F5F5F5E2F5F5E2E2E2F0E2E2E2E2E2F5E2E2E2E2E2E2E2F0E2E2E2E2E2E2E2F5E2E2E2E2F5E2E2F5F5E2E2F5E2E2E2E2F5
310
E2E2E2E2E2E2E2F5F5F5F5E2E2E2F5F5F5F5F5F5F5F5F5F5F5F5F5F5F5F5F5F5F5F5F5E2E2E2F5F5F5F5E2E2DCDCDCE2E2E2E2E2E2E2E2E2E2E2E2E2E2E2E2E2E2E2E2E2E2E2E2E2E2E2E2E2E2E2E2E2E2E2E2E2E2E2E2E2E2E2E2E2E2E2E2E2E2E2E2E2E2E2E2E2E2E2E2E2E2E2E2E2E2E2E2E2E2E2E2E2DCE2DCE2E2E2F5
310
E2F5F5F5E2F5F5E2F5F5E2E2E2F0E2E2E2E2E2F5E2E2E2E2E2E2E2F0E2E2E2E2E2E2E2F5E2E2E2E2F5E2E2F5F5E2E2F5E2E2E2E2F5E2E2E2E2E2E2E2F5F5F5F5E2E2E2F5E2E2E2E2E2E2E2E2E2E2E2E2E2E2E2E2E2E2F5F5E2E2E2F5F5F5F5E2E2DCDCDCE2E2E2E2E2E2E2E2E2E2E2E2E2E2E2E2E2E2E2E2E2E2E2E2E2E2E2
310
E2E2E2E2E2E2E2E2E2E2E2E2E2E2E2E2E2E2E2E2E2E2E2E2E2E2E2E2E2E2E2E2E2E2E2E2E2E2E2E2E2E2E2E2E2E2DCDCDCE2E2E2F5E2E2F5E2F0F5E2F5F5F5E2E2E2F0E2E2E2E2E2F5E2E2E2E2E2E2E2F0E2E2E2E2E2E2E2F5E2E2E2E2F5E2E2F5F5E2E2F5E2E2E2E2F5E2E2E2E2E2E2E2F5F5F5F5E2E2E2F5F5F5F5F5F5F5
310
F5F5F5F5F5F5F5F5F5F5F5F5F5F5E2E2F5F5F5F5F5E2E2DCDCDCE2E2E2E2E2E2E2E2E2E2E2E2E2E2E2E2E2E2E2E2E2E2E2E2E2E2E2E2E2E2E2E2E2E2E2E2E2E2E2E2E2E2E2E2E2E2E2E2E2E2E2E2E2E2E2E2E2E2E2E2E2E2E2E2E2E2E2E2E2E2E2E2E2DCDCDCE2E2E2F5E2E2F5F0F0F0F0F5F5F5E2E2E2F0E2E2E2E2E2F5E2
310
E2E2E2E2E2E2F0E2E2E2E2E2E2E2F5E2E2E2E2F5E2E2F5F5E2E2F5E2E2E2E2F5E2E2E2E2E2E2E2F5F5F5F5E2E2E2F5F5F5F5F5F5F5F5F5F5F5F5F5F5F5F5F5F5F5F5F5E2E2E2F5F5F5F5E2E2DCDCDCE2E2E2E2E2E2E2E2E2E2E2E2E2E2E2E2E2E2E2E2E2E2E2E2E2E2E2E2E2E2E2E2E2E2E2E2E2E2E2E2E2E2E2E2E2E2E2E2
310
E2E2E2E2E2E2E2E2E2E2E2E2E2E2E2E2E2E2E2E2E2E2E2E2E2DCDCF0E2E2E2F5E2E2F5F5F0F5F5F5F5F5E2E2E2F0E2E2E2E2E2F5E2E2E2E2E2E2E2F0E2E2E2E2E2E2E2F5E2E2E2E2F5E2E2F5F5E2E2F5E2E2E2E2F5E2E2E2E2E2E2E2F5F5F5F5E2E2E2F5F5E2E2E2E2E2E2E2E2E2E2E2E2E2E2E2E2E2F5F5E2E2E2F5F5F5F5
310
E2E2DCDCDCE2E2E2E2E2E2E2E2E2E2E2E2E2E2E2E2E2E2E2E2E2E2E2E2E2E2E2E2E2E2E2E2E2E2E2E2E2E2E2E2E2E2E2E2E2E2E2E2E2E2E2E2E2E2E2E2E2E2E2E2E2E2E2E2E2E2E2E2E2E2E2E2E2E2E2F0E2E2E2F5E2E2F5F5F5F5F5E2F5F5E2E2E2F0E2E2E2E2E2F5E2E2E2E2E2E2E2F0E2E2E2E2E2E2E2F5E2E2E2E2F5E2
310
E2F5F5E2E2E2E2E2E2E2F5E2E2E2E2E2E2E2E2E2F5F5E2E2E2F5F5E2E2E2E2E2E2E2E2E2E2E2E2E2E2E2E2E2F5F5E2E2E2F5F5E2E2E2E2E2E2F0E2E2E2E2E2E2E2E2E2E2E2E2E2E2E2E2E2E2E2E2E2E2E2E2E2E2E2E2E2E2E2E2E2E2E2E2E2E2E2E2E2E2E2E2E2E2E2E2E2E2E2E2E2E2E2E2E2E2E2E2E2E2E2E2E2E2E2E2E2
310
E2E2E2E2E2E2F0E2E2E2F5E2E2E2F5F5F5E2E2F5F5F5E2E2F0E2E2E2E2E2F5E2E2E2E2E2E2E2F0E2E2E2E2E2E2E2F5E2E2E2E2E2E2E2F5F5E2E2E2E2E2E2E2F5E2E2E2E2E2E2E2E2E2E2F5E2E2E2F5F5E2F5F5F5F5F5F5F5F5F5F5F5F5F5F5F5E2F5F5E2E2E2F5E2E2E2E2E2E2E2F0E2E2E2E2E2E2E2E2E2E2E2E2E2E2E2E2
310
E2E2E2E2E2E2E2E2E2E2E2E2E2E2E2E2E2E2E2E2E2E2E2E2E2E2E2E2E2E2E2E2E2E2E2E2E2E2E2E2E2E2E2E2E2E2E2E2E2E2E2E2E2E2E2E2E2E2E2F0E2E2E2F5E2E2E2E2E2E2E2E2F5F5E2F5E2F0E2E2E2E2F5E2E2E2E2E2E2E2E2F0E2E2E2E2E2E2E2F5E2E2E2E2E2E2E2F5F5E2E2E2E2E2E2E2F5E2E2E2E2E2E2E2E2E2E2
310
F5E2E2E2F5F5E2F5F5F5F5F5F5F5F5F5F5F5F5F5F5F5E2F5F5E2E2E2F5E2E2E2E2E2E2E2F0E2E2E2E2E2E2E2E2E2E2E2E2E2E2E2E2E2E2E2E2E2E2E2E2E2E2E2E2E2E2E2E2E2E2E2E2E2E2E2E2E2E2E2E2E2E2E2E2E2E2E2E2E2E2E2E2E2E2E2E2E2E2E2E2E2E2E2E2E2E2E2F5E2E2E2F0E2E2E2F5E2E2E2E2E2E2E2E2F5F5
310
E2F5E2F0E2E2E2E2F5E2E2E2E2E2E2E2E2F0E2E2E2E2E2E2E2F5E2E2E2E2E2E2E2F5F5E2E2E2E2E2E2E2F5E2E2E2E2E2E2E2E2E2E2F5E2E2E2F5F5E2E2F5F5F5F5F5F5F5F5F5F5F5F5E2E2E2F5F5E2E2E2F5E2E2E2E2E2E2E2F0E2E2E2E2E2E2E2E2E2E2E2E2E2E2E2E2E2E2E2E2E2E2E2E2E2E2E2E2E2E2E2E2E2E2E2E2E2
310
E2E2E2E2E2E2E2E2E2E2E2E2E2E2E2E2E2E2E2E2E2E2E2E2E2E2E2E2E2E2E2E2E2E2F5E2E2E2F0E2E2E2F5E2E2E2E2E2E2E2E2F5F5E2F5E2F0E2E2E2E2F5E2E2E2E2E2E2E2E2F0E2E2E2E2E2E2E2F5E2E2E2E2E2E2E2F5F5E2E2E2E2E2E2E2F5E2E2E2E2E2E2E2E2E2E2F5E2E2E2F5F5E2F5F5F5F5F5F5F5F5F5F5F5F5F5E2
310
E2E2F5F5E2E2E2F5E2E2E2E2E2E2E2F0E2E2E2E2E2E2E2E2E2E2E2E2E2E2E2E2E2E2E2E2E2E2E2E2E2E2E2E2E2E2E2E2E2E2E2E2E2E2E2E2E2E2E2E2E2E2E2E2E2E2E2E2E2E2E2E2E2E2E2E2E2E2E2E2E2E2E2E2E2E2E2E2F5E2E2F0E2E2E2F5E2E2E2E2E2E2E2E2F5F5E2F5E2F0E2E2E2F5E2E2E2E2E2E2E2E2E2F0E2E2E2
310
E2E2E2E2F5E2E2E2E2E2E2E2F5F5E2E2E2E2E2E2E2F5E2E2E2E2E2E2E2E2E2E2F5E2E2E2F5F5E2F5F5F5F5F5F5F5F5F5F5F5F5F5E2E2E2F5F5E2E2E2F5E2E2E2E2E2E2E2F0E2E2E2E2E2E2E2E2E2E2E2E2E2E2E2E2E2E2E2E2E2E2E2E2E2E2E2E2E2E2E2E2E2E2E2E2E2E2E2E2E2E2E2E2E2E2E2E2E2E2E2E2E2E2E2E2E2E2
310
E2E2E2E2E2E2E2E2E2E2E2E2E2E2F5E2E2F0E2E2E2F5E2E2E2E2E2E2E2E2F5F5E2F5E2F0E2E2E2F5E2E2E2E2E2E2E2E2E2F0E2E2E2E2E2E2E2F5E2E2E2E2E2E2E2F5F5E2E2E2E2E2E2E2F5E2E2E2E2E2E2E2E2E2E2F5E2E2E2F5F5E2E2E2E2E2E2E2E2E2E2E2E2E2E2E2E2E2F5F5E2E2E2F5E2E2E2E2E2E2E2F0E2E2E2E2E2
310
E2E2E2E2E2E2E2E2E2E2E2E2E2E2E2E2E2E2E2E2E2E2E2E2E2E2E2E2E2E2E2E2E2E2E2E2E2E2E2E2E2E2E2E2E2E2E2E2E2E2E2E2E2E2E2E2E2E2E2E2E2E2E2E2E2E2E2E2F5E2F0E2E2E2F5E2E2E2E2E2E2E2E2F5F5E2F5E2F0E2E2F5E2E2E2E2E2E2E2E2E2E2F0E2E2E2E2E2E2E2F5E2E2E2E2E2E2E2F5F5E2E2E2E2E2E2E2
310
F5E2E2E2E2E2E2E2E2E2E2F5E2E2E2E2F5F5F5F5F5F5F5F5F5F5F5F5F5F5F5F5F5F5F5E2E2E2E2F5E2E2E2E2E2E2E2F0E2E2E2E2E2E2E2E2E2E2E2E2E2E2E2E2E2E2E2E2E2E2E2E2E2E2E2E2E2E2E2E2E2E2E2E2E2E2E2E2E2E2E2E2E2E2E2E2E2E2E2E2E2E2E2E2E2E2E2E2E2E2E2E2E2E2E2E2E2E2E2E2E2E2F5F0E2E2E2
310
F5E2E2E2E2E2E2E2E2F5F5F5F5E2F0E2F5E2E2E2E2E2E2E2E2E2E2E2F0E2E2E2E2E2E2E2F5E2E2E2E2E2E2E2F5F5E2E2E2E2E2E2E2F5E2E2E2E2E2E2E2E2E2E2F5E2E2E2E2E2E2E2E2E2E2E2E2E2E2E2E2E2E2E2E2E2E2E2E2E2E2E2F5E2E2E2E2E2E2E2F0E2E2E2E2E2E2E2E2E2E2E2E2E2E2E2E2E2E2E2E2E2E2E2E2E2E2
310
E2E2E2E2E2E2E2E2E2E2E2E2E2E2E2E2E2E2E2E2E2E2E2E2E2E2E2E2E2E2E2E2E2E2E2E2E2E2E2E2E2E2E2E2E2E2E2E2E2F5F5E2E2F0E2E2E2E2E2E2E2E2F5F5F5E2E2F5F5E2E2E2E2E2E2E2E2E2E2E2E2F0E2E2E2E2E2E2E2F5E2E2E2E2E2E2E2F5F5E2E2F5E2E2E2E2F5E2E2E2E2E2E2E2E2E2E2F5F5F5F5F5F5F5F5F5F5
310
F5F5F5F5F5F5F5F5F5F5F5F5F5F5F5F5F5F5F5E2E2E2E2E2E2E2F0E2E2E2E2E2E2E2E2E2E2E2E2E2E2E2E2E2E2E2E2E2E2E2E2E2E2E2E2E2E2E2E2E2E2E2E2E2E2E2E2E2E2E2E2E2E2E2E2E2E2E2E2E2E2E2E2E2E2E2E2E2E2E2E2E2E2E2E2E2E2E2E2E2E2E2F0E2F5E2F5E2E2E2E2E2E2E2E2F5F5E2E2F5F0E2E2E2E2E2E2
310
E2E2E2E2E2E2E2F0E2E2E2E2E2E2E2F5E2E2E2E2F5E2E2F5F5E2E2F5E2E2E2E2F5E2E2E2E2E2E2E2E2E2E2F5E2E2E2E2E2E2E2E2E2E2E2E2E2E2E2E2E2E2E2E2E2E2E2E2E2E2E2F5E2E2E2E2E2E2E2F0F0E2E2E2E2E2E2E2E2E2E2E2E2E2E2E2E2E2E2E2E2E2E2E2E2E2E2E2E2E2E2E2E2E2E2E2E2E2E2E2E2E2E2E2E2E2E2
310
E2E2E2E2E2E2E2E2E2E2E2E2E2E2E2E2E2E2E2E2E2E2E2E2E2E2E2E2F0E2E2F5F5F5E2E2E2E2E2E2E2F5F5F5F5E2F0E2E2E2E2E2E2E2E2E2E2E2E2E2F0E2E2E2E2E2E2E2F5E2E2E2E2F5E2E2F5F5E2E2F5E2E2E2E2F5E2E2E2E2E2E2E2E2E2E2F5F5F5F5F5F5F5F5F5F5F5F5F5F5F5F5F5F5F5F5F5F5F5F5F5F5F5F5F5F0F0
310
F0F0F0F0F0F0F0F0E2E2E2E2E2E2E2E2E2E2E2E2E2E2E2E2E2E2E2E2E2E2E2E2E2E2E2E2E2E2E2E2E2E2E2E2E2E2E2E2E2E2E2E2E2E2E2E2E2E2E2E2E2E2E2E2E2E2E2E2E2E2E2E2E2E2E2E2E2E2E2E2F0F0F0F0F0F0F5F5F5F5F5F5F5F5F5F5F0F0F0F0F0F0F0F0F0F0F0F0F0F0F0F0F0F5F0F0E2E2E2E2E2F5E2E2E2E2F5
310
E2E2F5F5E2E2F5E2E2E2E2F5E2E2E2E2E2E2E2E2E2E2F0E2E2E2E2E2E2E2E2E2E2E2E2E2E2E2E2E2E2E2E2E2E2E2E2E2E2E2F0E2E2E2E2E2E2E2E2E2E2E2E2E2E2E2E2E2E2E2E2E2E2E2E2E2E2E2E2E2E2E2E2E2E2E2E2E2E2E2E2E2E2E2E2E2E2E2E2E2E2E2E2E2E2E2E2E2E2E2E2E2E2E2E2E2E2E2E2E2E2E2E2E2E2E2E2
310
E2E2E2E2E2E2E2E2E2E2E2F0E2E2E2E2E2E2E2E2F0E2E2E2E2F0E2E2E2E2E2E2E2E2E2E2E2E2E2E2E2E2E2E2E2E2E2F5E2E2E2E2F5E2E2F5F5E2E2F5E2E2E2E2F5E2E2E2E2E2E2E2E2E2E2F0E2E2E2E2E2E2E2E2E2E2E2E2E2E2E2E2E2E2E2E2E2E2E2E2E2E2E2F0E2E2E2E2E2E2E2E2E2E2E2E2E2E2E2E2E2E2E2E2E2E2E2
310
E2E2E2E2E2E2E2E2E2E2E2E2E2E2E2E2E2E2E2E2E2E2E2E2E2E2E2E2E2E2E2E2E2E2E2E2E2E2E2E2E2E2E2E2E2E2E2E2E2E2E2E2E2E2E2E2E2E2E2E2E2E2E2E2F0E2E2E2E2E2E2E2E2F0E2E2E2E2F0E2E2E2E2E2E2E2E2E2E2E2E2E2E2E2E2E2E2E2E2E2F5E2E2E2E2F5E2E2F5F5E2E2F5E2E2E2E2F5E2E2E2E2E2E2E2E2E2
310
E2F0E2E2E2E2E2E2E2E2E2E2E2E2E2E2E2E2E2E2E2E2E2E2E2E2E2E2E2F0E2E2E2E2E2E2E2E2E2E2E2E2E2E2E2E2E2E2E2E2E2E2E2E2E2E2E2E2E2E2E2E2E2E2E2E2E2E2E2E2E2E2E2E2E2E2E2E2E2E2E2E2E2E2E2E2E2E2E2E2E2E2E2E2E2E2E2E2E2E2E2E2E2E2E2E2E2E2E2E2E2E2E2E2E2E2E2F0E2E2E2E2E2E2E2E2F0
310
E2E2E2E2F0E2E2E2E2E2E2E2E2E2E2E2E2E2E2E2E2E2E2E2E2E2F5E2E2E2E2F5E2E2F5F5E2E2F5E2E2E2E2F5E2E2E2E2E2E2E2E2E2E2F0E2E2E2E2E2E2E2E2E2E2E2E2E2E2E2E2E2E2E2E2E2E2E2E2E2E2E2F0E2E2E2E2E2E2E2E2E2E2E2E2E2E2E2E2E2E2E2E2E2E2E2E2E2E2E2E2E2E2E2E2E2E2E2E2E2E2E2E2E2E2E2E2
310
E2E2E2E2E2E2E2E2E2E2E2E2E2E2E2E2E2E2E2E2E2E2E2E2E2E2E2E2E2E2E2E2E2E2E2E2E2E2E2E2E2E2E2F0E2E2E2E2E2E2E2E2F0E2E2E2E2F0E2E2E2E2E2E2E2E2E2E2E2E2E2E2E2E2E2E2E2E2E2F5E2E2E2E2F5E2E2F5F5E2E2F5E2E2E2E2F5E2E2E2E2E2E2E2E2E2E2F0E2E2E2E2E2E2E2E2E2E2E2E2E2E2E2E2E2E2E2
310
E2E2E2E2E2E2E2E2F0E2E2E2E2E2E2E2E2E2E2E2E2E2E2E2E2E2E2E2E2E2E2E2E2E2E2E2E2E2E2E2E2E2E2E2E2E2E2E2E2E2E2E2E2E2E2E2E2E2E2E2E2E2E2E2E2E2E2E2E2E2E2E2E2E2E2E2E2E2E2E2E2E2E2E2E2E2E2E2E2E2E2E2E2E2E2E2F0E2E2E2E2E2E2E2E2F0E2E2E2E2F0E2E2E2E2E2E2E2E2E2E2E2E2E2E2E2E2
310
E2E2E2E2E2F5E2E2E2E2F5E2E2F5F5E2E2F5E2E2E2E2F5E2E2E2E2E2E2E2E2E2E2F0E2E2E2E2E2E2E2E2E2E2E2E2E2E2E2E2E2E2E2E2E2E2E2E2E2E2E2F0E2E2E2E2E2E2E2E2E2E2E2E2E2E2E2E2E2E2E2E2E2E2E2E2E2E2E2E2E2E2E2E2E2E2E2E2E2E2E2E2E2E2E2E2E2E2E2E2E2E2E2E2E2E2E2E2E2E2E2E2E2E2E2E2E2
310
E2E2E2E2E2E2E2E2E2E2E2E2E2E2E2E2E2E2E2E2E2E2F0E2E2E2E2E2E2E2E2F0E2E2E2E2F0E2E2E2E2E2E2E2E2E2E2E2E2E2E2E2E2E2E2E2E2E2F5E2E2E2E2F5E2E2F5F5E2E2F5E2E2E2E2F5E2E2E2E2E2E2E2E2E2E2F5F0F0F0F0F0F0F0F0F0F0F0F0DCDCDCDCF0F0F0F0F0F0F0F0F0F0F0F0E2E2E2E2E2E2E2E2E2E2E2E2
310
E2E2E2E2E2E2E2E2E2E2E2E2E2E2E2E2E2E2E2E2E2E2E2E2E2E2E2E2E2E2E2E2E2E2E2E2E2E2E2E2E2E2E2E2E2E2E2E2E2E2E2E2E2E2E2E2E2E2E2E2E2E2E2E2E2E2E2E2E2E2E2E2E2E2E2F0F0F0F0F0F0F0F0F0F5E2E2E2E2F0E2E2E2E2E2E2E2E2E2E2E2E2E2E2E2E2E2E2E2E2E2F5E2E2E2E2F5E2E2F5F5E2E2F5E2E2E2
310
E2F5E2E2E2E2E2E2E2E2E2E2F0E2E2E2E2E2E2E2E2E2E2E2E2DCDCDCDCE2E2E2E2E2E2E2E2E2E2E2F0E2E2E2E2E2E2E2E2E2E2E2E2E2E2E2E2E2E2E2E2E2E2E2E2E2E2E2E2E2E2E2E2E2E2E2E2E2E2E2E2E2E2E2E2E2E2E2E2E2E2E2E2E2E2E2E2E2E2E2E2E2E2E2E2E2E2E2E2E2E2E2E2E2E2E2E2E2E2E2E2E2E2E2E2E2E2
310
E2F0E2E2DCDCDCDCE2E2F0E2E2E2E2F0E2E2E2E2E2E2E2E2E2E2E2E2E2E2E2E2E2E2E2E2E2F5E2E2E2E2F5E2E2F5F5E2E2F5E2E2E2E2F5E2E2E2E2E2E2E2E2E2E2E2E2E2E2E2E2E2E2E2E2E2E2DCDCDCDCDCE2E2E2E2E2E2E2E2E2E2E2E2E2E2E2E2E2E2E2E2E2E2E2E2E2E2E2E2E2E2E2E2E2E2E2E2E2E2E2E2E2E2E2E2E2
310
E2E2E2E2E2E2E2E2E2E2E2E2E2E2E2E2E2E2E2E2E2E2E2E2E2E2E2E2E2E2E2E2E2E2E2E2E2E2E2E2E2E2E2E2E2E2E2E2E2E2E2E2E2E2F0E2E2DCDCDCDCE2E2F0E2E2E2E2F0E2E2E2E2E2E2E2E2E2E2E2E2E2E2E2E2E2E2E2E2E2F5E2E2E2E2F5E2E2F5F5E2E2F5E2E2E2E2F5E2E2E2E2E2E2E2E2E2E2E2E2E2E2E2E2E2E2E2
310
E2E2E2E2E2E2E2E2E2E2E2E2E2E2E2E2E2E2E2E2E2E2E2E2E2E2E2E2E2E2E2E2E2E2E2E2E2E2E2E2E2E2E2E2E2E2E2E2E2E2E2E2E2E2E2E2E2E2E2E2E2E2E2E2E2E2E2E2E2E2E2E2E2E2E2E2E2E2E2E2E2E2E2E2E2E2E2E2E2E2E2E2E2E2E2E2E2E2E2E2E2E2E2E2E2E2E2F0E2F0E2DCDCE2E2E2E2E2E2F0E2F0E2E2E2E2E2
310
E2E2E2E2E2E2E2E2E2E2E2E2E2E2E2E2F5E2E2E2E2F5E2E2F5F5E2E2F5E2E2E2E2F5E2E2E2E2E2E2E2E2E2E2E2E2E2E2E2E2E2E2E2E2E2E2E2E2E2E2E2E2E2E2E2E2E2E2E2E2E2E2E2E2E2E2E2E2E2E2E2E2E2E2E2E2E2E2E2E2E2E2E2E2E2E2E2E2E2E2E2E2E2E2E2E2E2E2E2E2E2E2E2E2E2E2E2E2E2E2E2E2E2E2E2E2E2
310
E2E2E2E2E2E2E2E2E2E2E2E2E2E2E2E2E2E2E2E2E2E2E2E2E2E2E2E2E2E2E2E2E2F5F0F0DCF0F0F0F0DCF0F0F0F0F0F0E2E2E2E2E2E2E2E2E2E2E2E2E2E2E2E2E2E2E2E2E2F5E2E2E2E2F5E2E2F5F5E2E2F5E2E2E2E2F5E2E2E2E2E2E2E2E2E2E2E2E2E2E2E2E2E2E2E2E2E2E2E2E2E2E2E2E2E2E2E2E2E2E2E2E2E2E2E2E2
310
E2E2E2E2E2E2E2E2E2E2E2E2E2E2E2E2E2E2E2E2E2E2E2E2E2E2E2E2E2E2E2E2E2E2E2E2E2E2E2E2E2E2E2E2E2E2E2E2E2E2E2E2E2E2E2E2E2E2E2E2E2E2E2E2E2E2E2E2E2E2E2E2E2E2E2E2E2E2E2E2E2E2E2E2E2E2F0E2E2DCDCDCDCDCDCDCE2E2E2E2F0E2E2E2E2E2E2E2E2E2E2E2E2E2E2E2E2E2E2E2E2E2F5E2E2E2E2
310
F5E2E2F5F5E2E2E2E2E2E2E2F5E2E2E2E2E2E2E2E2E2E2E2E2E2E2E2E2E2E2E2E2E2E2E2E2E2E2E2E2E2E2E2E2E2E2E2E2E2E2E2E2E2E2E2E2E2E2E2E2E2E2E2E2E2E2E2E2E2E2E2E2E2E2E2E2E2E2E2E2E2E2E2E2E2E2E2E2E2E2E2E2E2E2E2E2E2E2E2E2E2E2E2E2E2E2E2E2E2E2E2E2E2E2E2E2E2E2E2E2E2E2E2E2E2E2
310
E2E2E2E2E2E2E2E2E2E2E2E2E2E2E2DCDCDCDCDCDCDCE2E2E2E2E2E2E2E2E2E2E2E2E2E2E2E2E2E2E2E2E2E2E2E2E2E2F5E2E2E2E2E2E2E2F5F5E2E2E2E2E2E2E2F5E2E2E2E2E2E2E2E2E2E2E2E2E2E2E2E2E2E2E2E2E2E2E2E2E2E2E2E2E2E2E2E2E2E2E2E2E2E2E2E2E2E2E2E2E2E2E2E2E2E2E2E2E2E2E2E2E2E2E2E2E2
310
E2E2E2E2E2E2E2E2E2E2E2E2E2E2E2E2E2E2E2E2E2E2E2E2E2E2E2E2E2E2E2E2E2E2E2E2E2E2E2E2E2E2E2E2E2E2E2E2E2E2E2E2E2E2E2E2E2E2E2E2E2E2E2E2E2E2E2E2DCDCDCDCDCDCDCE2E2E2E2E2E2E2E2E2E2E2E2E2E2E2E2E2E2E2E2E2E2E2E2E2E2F5E2E2E2E2E2E2E2F5F5E2E2E2E2E2E2E2F5E2E2E2E2E2E2E2E2
310
E2E2E2E2E2E2E2E2E2E2E2E2E2E2E2E2E2E2E2E2E2E2E2E2E2E2E2E2E2E2E2E2E2E2E2E2E2E2E2E2E2E2E2E2E2E2E2E2E2E2E2E2E2E2E2E2E2E2E2E2E2E2E2E2E2E2E2E2E2E2E2E2E2E2E2E2E2E2E2E2E2E2E2E2E2E2E2E2E2E2E2E2E2E2E2E2E2E2E2E2E2E2E2E2E2E2E2E2E2E2E2E2E2E2E2E2E2E2E2E2E2E2E2E2E2E2E2
310
E2E2E2E2E2E2E2E2E2E2E2E2E2E2E2E2E2E2E2E2E2E2E2E2E2E2E2F5E2E2E2E2E2E2E2F5F5E2E2E2E2E2E2E2F5E2E2E2E2E2E2E2E2E2E2E2E2E2E2E2E2E2E2E2E2E2E2E2E2E2E2E2E2E2E2E2E2E2E2E2E2E2E2E2E2E2E2E2E2E2E2E2E2E2E2E2E2E2E2E2E2E2E2E2E2E2E2E2E2E2E2E2E2E2E2E2E2E2E2E2E2E2E2E2E2E2E2
310
E2E2E2E2E2E2E2E2E2E2E2E2E2E2E2E2E2E2E2E2E2E2E2E2E2E2E2E2E2E2E2E2E2E2E2E2E2E2E2E2E2E2E2E2E2E2E2E2E2E2E2E2E2E2E2E2E2E2E2E2E2E2E2E2E2E2E2E2E2E2E2E2E2E2E2E2E2E2E2E2F5E2E2E2E2E2E2E2F5F5E2E2E2E2E2E2E2F5E2E2E2E2E2E2E2E2E2E2E2E2E2E2E2E2E2E2E2E2E2E2E2E2E2E2E2E2E2
310
E2E2E2E2E2E2E2E2E2E2E2E2E2E2E2E2E2E2E2E2E2E2E2E2E2E2E2E2E2E2E2E2E2E2E2E2E2E2E2E2E2E2E2E2E2E2E2E2E2E2E2E2E2E2E2E2E2E2E2E2E2E2E2E2E2E2E2E2E2E2E2E2E2E2E2E2E2E2E2E2E2E2E2E2E2E2E2E2E2E2E2E2E2E2E2E2E2E2E2E2E2E2E2E2E2E2E2E2E2E2E2E2E2E2E2E2E2E2E2E2E2E2E2E2E2E2E2
310
E2E2E2E2E2E2F5E2E2E2E2E2E2E2F5F5E2E2E2E2E2E2E2F5E2E2E2E2E2E2E2E2E2E2E2E2E2E2E2E2E2E2E2E2E2E2E2E2E2E2E2E2E2E2E2E2E2E2E2E2E2E2E2E2E2E2E2E2E2E2E2E2E2E2E2E2E2E2E2E2E2E2E2E2E2E2E2E2E2E2E2E2E2E2E2E2E2E2E2E2E2E2E2E2E2E2E2E2E2E2E2E2E2E2E2E2E2E2E2E2E2E2E2E2E2E2E2
310
E2E2E2E2E2E2E2E2E2E2E2E2E2E2E2E2E2E2E2E2E2E2E2E2E2E2E2E2E2E2E2E2E2E2E2E2E2E2E2E2E2E2E2E2E2E2E2E2E2E2E2E2E2E2E2E2E2E2E2F5E2E2E2E2E2E2E2F5F5E2E2E2E2E2E2E2F5E2E2E2E2E2E2E2E2E2E2E2E2E2E2E2E2E2E2E2E2E2E2E2E2E2E2E2E2E2E2E2E2E2E2E2E2E2E2E2E2E2E2E2E2E2E2E2E2E2E2
310
E2E2E2E2E2E2E2E2E2E2E2E2E2E2E2E2E2E2E2E2E2E2E2E2E2E2E2E2E2E2E2E2E2E2E2E2E2E2E2E2E2E2E2E2E2E2E2E2E2E2E2E2E2E2E2E2E2E2E2E2E2E2E2E2E2E2E2E2E2E2E2E2E2E2E2E2E2E2E2E2E2E2E2E2E2E2E2E2E2E2E2E2E2E2E2E2E2E2E2E2E2E2E2E2E2E2E2E2E2E2E2E2F5E2E2E2E2E2E2E2F5F5E2E2E2E2E2
310
E2E2F5E2E2E2E2E2E2E2E2E2E2E2E2E2E2E2E2E2E2E2E2E2E2E2E2E2E2E2E2E2E2E2E2E2E2E2E2E2E2E2E2E2E2E2E2E2E2E2E2E2E2E2E2E2E2E2E2E2E2E2E2E2E2E2E2E2E2E2E2E2E2E2E2E2E2E2E2E2E2E2E2E2E2E2E2E2E2E2E2E2E2E2E2E2E2E2E2E2E2E2E2E2E2E2E2E2E2E2E2E2E2E2E2E2E2E2E2E2E2E2E2E2E2E2E2
310
E2E2E2E2E2E2E2E2E2E2E2E2E2E2E2E2E2E2E2E2E2E2E2E2E2E2E2E2E2E2E2E2E2E2E2E2E2E2F5E2E2E2E2E2E2E2F5F5E2E2E2E2E2E2E2F5E2E2E2E2E2E2E2E2E2E2E2E2E2E2E2E2E2E2E2E2E2E2E2E2E2E2E2E2E2E2E2E2E2E2E2E2E2E2E2E2E2E2E2E2E2E2E2E2E2E2E2E2E2E2E2E2E2E2E2E2E2E2E2E2E2E2E2E2E2E2E2
310
E2E2E2E2E2E2E2E2E2E2E2E2E2E2E2E2E2E2E2E2E2E2E2E2E2E2E2E2E2E2E2E2E2E2E2E2E2E2E2E2E2E2E2E2E2E2E2E2E2E2E2E2E2E2E2E2E2E2E2E2E2E2E2E2E2E2E2E2E2E2E2E2E2E2E2E2E2E2E2E2E2E2E2E2E2E2E2E2E2E2E2F5E2E2E2E2E2E2E2F5F5E2E2F5E2E2E2E2F5E2E2E2E2E2E2E2E2E2E2E2E2E2E2E2E2E2E2
310
E2E2E2E2E2E2E2E2E2E2E2E2E2E2E2E2E2E2E2E2E2E2E2E2E2E2E2E2E2E2E2E2E2E2E2E2E2E2E2E2E2E2E2E2E2E2E2E2E2E2E2E2E2E2E2E2E2E2E2E2E2E2E2E2E2E2E2E2E2E2E2E2E2E2E2E2E2E2E2E2E2E2E2E2E2E2E2E2E2E2E2E2E2E2E2E2E2E2E2E2E2E2E2E2E2E2E2E2E2E2E2E2E2E2E2E2E2E2E2E2E2E2E2E2E2E2E2
310
E2E2E2E2E2E2E2E2E2E2E2E2E2E2E2E2E2F5E2E2E2E2F5E2E2F5F5E2E2F5E2E2E2E2F5E2E2E2E2E2E2E2E2E2E2E2E2E2E2E2E2E2E2E2E2E2E2E2E2E2E2E2E2E2E2E2E2E2E2E2E2E2E2E2E2E2E2E2E2E2E2E2E2E2E2E2E2E2E2E2E2E2E2E2E2E2E2E2E2E2E2E2E2E2E2E2E2E2E2E2E2E2E2E2E2E2E2E2E2E2E2E2E2E2E2E2E2
310
E2E2E2E2E2E2E2E2E2E2E2E2E2E2E2E2E2E2E2E2E2E2E2E2E2E2E2E2E2E2E2E2E2E2E2E2E2E2E2E2E2E2E2E2E2E2E2E2E2E2E2E2E2E2E2E2E2E2E2E2E2E2E2E2E2E2E2E2E2E2F5E2E2E2E2F5E2E2F5F5E2E2F5E2E2E2E2F5E2E2E2E2E2E2E2E2E2E2E2E2E2E2E2E2E2E2E2E2E2E2E2E2E2E2E2E2E2E2E2E2E2E2E2E2E2E2E2
310
E2E2E2E2E2E2E2E2E2E2E2E2E2E2E2E2E2E2E2E2E2E2E2E2E2E2E2E2E2E2E2E2E2E2E2E2E2E2E2E2E2E2E2E2E2E2E2E2E2E2E2E2E2E2E2E2E2E2E2E2E2E2E2E2E2E2E2E2E2E2E2E2E2E2E2E2E2E2E2E2E2E2E2E2E2E2E2E2E2E2E2E2E2E2E2E2E2E2E2E2E2E2E2E2E2E2E2E2E2E2E2E2E2E2E2E2E2E2E2E2E2E2E2F5E2E2E2
310
E2F5E2E2F5F5E2E2F5E2E2E2E2F5E2E2E2E2E2E2E2E2E2E2E2E2E2E2E2E2E2E2E2E2E2E2E2E2E2E2E2E2E2E2E2E2E2E2E2E2E2E2E2E2E2E2E2E2E2E2E2E2E2E2E2E2E2E2E2E2E2E2E2E2E2E2E2E2E2E2E2E2E2E2E2E2E2E2E2E2E2E2E2E2E2E2E2E2E2E2E2E2E2E2E2E2E2E2E2E2E2E2E2E2E2E2E2E2E2E2E2E2E2E2E2E2E2
310
E2E2E2E2E2E2E2E2E2E2E2E2E2E2E2E2E2E2E2E2E2E2E2E2E2E2E2E2E2E2E2E2E2E2E2E2E2E2E2E2E2E2E2E2E2E2E2E2E2F5E2E2E2E2F5E2E2F5F5E2E2F5E2E2E2E2F5E2E2E2E2E2E2E2E2E2E2E2E2E2E2E2E2E2E2E2E2E2E2E2E2E2E2E2E2E2E2E2E2E2E2E2E2E2E2E2E2E2E2E2E2E2E2E2E2E2E2E2E2E2E2E2E2E2E2E2E2
310
E2E2E2E2E2E2E2E2E2E2E2E2E2E2E2E2E2E2E2E2E2E2E2E2E2E2E2E2E2E2E2E2E2E2E2E2E2E2E2E2E2E2E2E2E2E2E2E2E2E2E2E2E2E2E2E2E2E2E2E2E2E2E2E2E2E2E2E2E2E2E2E2E2E2E2E2E2E2E2E2E2E2E2E2E2E2E2E2E2E2E2E2E2E2E2E2E2E2E2E2E2E2F5E2E2E2E2F5E2E2F5F5E2E2F5E2E2E2E2F5F5F5F5F5F5F5F5
310
F5F5F5F5F5F5F5F5F5F5F5F5F5F5F5F5F5F5F5F5F5F5F5F5F5F5F5F5F5F5F5F5F5F5F5F5F5F5F5F5F5F5F5F5F5F5F5F5F5F5F5F5F5F5F5F5F5F5F5F5F5F5F5F5F5F5F5F5F5F5F5F5F5F5F5F5F5F5F5F5F5F5F5F5F5F5F5F5F5F5F5F5F5F5F5F5F5F5F5F5F5F5F5F5F5F5F5F5F5F5F5F5F5F5F5F5F5F5F5F5F5F5F5F5F5F5F5
310
F5F5F5F5F5F5F5F5F5F5F5F5F5F5F5F5F5F5F5F5F5F5F5F5F5F5F5F5F5E2E2E2E2F5E2E2F5F5E2E2F5E2E2E2E2E2E2E2E2E2E2E2E2E2E2E2E2E2E2E2E2E2E2E2E2E2E2E2E2E2E2E2E2E2E2E2E2E2E2E2E2E2E2E2E2E2E2E2E2E2E2E2E2E2E2E2E2E2E2E2E2E2E2E2E2E2E2E2E2E2E2E2E2E2E2E2E2E2E2E2E2E2E2E2E2E2E2
310
E2E2E2E2E2E2E2E2E2E2E2E2E2E2E2E2E2E2E2E2E2E2E2E2E2E2E2E2E2E2E2E2E2E2E2E2E2E2E2E2E2E2E2E2E2E2E2E2E2E2E2E2E2E2E2E2E2E2E2E2E2E2E2E2E2E2E2E2E2E2E2E2E2E2E2E2E2E2E2E2E2E2E2E2E2E2F5E2E2F5F5E2E2F5F5F5F5F5F5F5F5E2E2E2E2E2E2E2E2E2F5F5F5F5F5F5F5F5F5F5F5F5F5F5F5F5E2
310
E2E2E2E2E2E2E2E2F5F5F5F5F5F5F5F5F5F5F5F5F5F5F5F5E2E2E2E2E2E2E2E2E2F5F5F5F5F5F5F5F5F5F5F5F5F5F5F5F5E2E2E2E2E2E2E2E2F5F5F5F5F5F5F5F5F5F5F5F5F5F5F5F5E2E2E2E2E2E2E2E2E2F5F5F5F5F5F5F5F5F5F5F5F5F5F5F5F5E2E2E2E2E2E2E2E2E2F5F5F5F5F5F5F5F5F5F5F5F5F5F5F5F5E2E2E2E2
310
E2E2E2E2E2F5F5F5F5F5F5F5F5E2E2F5F5E2E2E2E2E2E2E2E2E2E2E2E2E2E2E2E2E2E2E2E2E2E2E2E2E2E2E2E2E2E2E2E2E2E2E2E2E2E2E2E2E2E2E2E2E2E2E2E2E2E2E2E2E2E2E2E2E2E2E2E2E2E2E2E2E2E2E2E2E2E2E2E2E2E2E2E2E2E2E2E2E2E2E2E2E2E2E2E2E2E2E2E2E2E2E2E2E2E2E2E2E2E2E2E2E2E2E2E2E2E2
310
E2E2E2E2E2E2E2E2E2E2E2E2E2E2E2E2E2E2E2E2E2E2E2E2E2E2E2E2E2E2E2E2E2E2E2E2E2E2E2E2E2E2E2E2E2E2E2E2E2E2E2E2E2E2E2E2E2E2E2E2E2E2E2E2E2E2E2E2F5F5E2E2E2E2E2E2E2E2E2E2E2E2E2E2E2E2E2E2E2E2E2E2E2E2E2E2E2E2E2E2E2E2E2E2E2E2E2E2E2E2E2E2E2E2E2E2E2E2E2E2E2E2E2E2E2E2E2
310
E2E2E2E2E2E2E2E2E2E2E2E2E2E2E2E2E2E2E2E2E2E2E2E2E2E2E2E2E2E2E2E2E2E2E2E2E2E2E2E2E2E2E2E2E2E2E2E2E2E2E2E2E2E2E2E2E2E2E2E2E2E2E2E2E2E2E2E2E2E2E2E2E2E2E2E2E2E2E2E2E2E2E2E2E2E2E2E2E2E2E2E2E2E2E2E2E2E2E2E2E2E2E2E2E2E2E2E2E2E2E2E2E2E2E2E2E2E2E2E2E2F5F5F5F5F5F5
310
F5F5F5F5F5F5F5F5F5F5F5F5F5F5F5F5F5F5F5F5F5F5F5F5F5F5F5F5F5F5F5F5F5F5F5F5F5F5F5F5F5F5F5F5F5F5F5F5F5F5F5F5F5F5F5F5F5F5F5F5F5F5F5F5F5F5F5F5F5F5F5F5F5F5F5F5F5F5F5F5F5F5F5F5F5F5F5F5F5F5F5F5F5F5F5F5F5F5F5F5F5F5F5F5F5F5F5F5F5F5F5F5F5F5F5F5F5F5F5F5F5F5F5F5F5F5F5
310
F5F5F5F5F5F5F5F5F5F5F5F5F5F5F5F5F5F5F5F5F5F5F5F5F5F5F5F5F5F5F5F5F5F5F5F5F5F5F5F5F5F5F5F5F5F5F5F5
  0
XRECORD
  5
45AA
102
{ACAD_REACTORS
330
26DE
102
}
330
26DE
100
AcDbXrecord
280
     1
102
MATERIAL
148
0.0
149
0.0
149
0.0
 93
        0
 94
      127
282
     0
 72
     0
 77
     0
171
     0
175
     0
179
     0
273
     0
  0
XRECORD
  5
26E0
102
{ACAD_REACTORS
330
26DE
102
}
330
26DE
100
AcDbXrecord
280
     1
270
     1
271
     1
  0
XRECORD
  5
26DF
102
{ACAD_REACTORS
330
26DE
102
}
330
26DE
100
AcDbXrecord
280
     1
270
     1
271
     1
  0
XRECORD
  5
26E3
102
{ACAD_REACTORS
330
26DE
102
}
330
26DE
100
AcDbXrecord
280
     1
270
     1
271
     1
  0
XRECORD
  5
26E2
102
{ACAD_REACTORS
330
26DE
102
}
330
26DE
100
AcDbXrecord
280
     1
270
     1
271
     1
  0
XRECORD
  5
26E4
102
{ACAD_REACTORS
330
26DE
102
}
330
26DE
100
AcDbXrecord
280
     1
270
     1
271
     1
  0
XRECORD
  5
26E1
102
{ACAD_REACTORS
330
26DE
102
}
330
26DE
100
AcDbXrecord
280
     1
270
     1
271
     1
  0
XRECORD
  5
45A9
102
{ACAD_REACTORS
330
26D6
102
}
330
26D6
100
AcDbXrecord
280
     1
102
MATERIAL
148
0.0
149
0.0
149
0.0
 93
        0
 94
      127
282
     0
 72
     0
 77
     0
171
     0
175
     0
179
     0
273
     0
  0
XRECORD
  5
26D8
102
{ACAD_REACTORS
330
26D6
102
}
330
26D6
100
AcDbXrecord
280
     1
270
     1
271
     1
  0
XRECORD
  5
26D7
102
{ACAD_REACTORS
330
26D6
102
}
330
26D6
100
AcDbXrecord
280
     1
270
     1
271
     1
  0
XRECORD
  5
26DB
102
{ACAD_REACTORS
330
26D6
102
}
330
26D6
100
AcDbXrecord
280
     1
270
     1
271
     1
  0
XRECORD
  5
26DA
102
{ACAD_REACTORS
330
26D6
102
}
330
26D6
100
AcDbXrecord
280
     1
270
     1
271
     1
  0
XRECORD
  5
26DC
102
{ACAD_REACTORS
330
26D6
102
}
330
26D6
100
AcDbXrecord
280
     1
270
     1
271
     1
  0
XRECORD
  5
26D9
102
{ACAD_REACTORS
330
26D6
102
}
330
26D6
100
AcDbXrecord
280
     1
270
     1
271
     1
  0
XRECORD
  5
45AB
102
{ACAD_REACTORS
330
26E6
102
}
330
26E6
100
AcDbXrecord
280
     1
102
MATERIAL
148
0.0
149
0.0
149
0.0
 93
        0
 94
      127
282
     0
 72
     0
 77
     0
171
     0
175
     0
179
     0
273
     0
  0
XRECORD
  5
26E8
102
{ACAD_REACTORS
330
26E6
102
}
330
26E6
100
AcDbXrecord
280
     1
270
     1
271
     1
  0
XRECORD
  5
26E7
102
{ACAD_REACTORS
330
26E6
102
}
330
26E6
100
AcDbXrecord
280
     1
270
     1
271
     1
  0
XRECORD
  5
26EB
102
{ACAD_REACTORS
330
26E6
102
}
330
26E6
100
AcDbXrecord
280
     1
270
     1
271
     1
  0
XRECORD
  5
26EA
102
{ACAD_REACTORS
330
26E6
102
}
330
26E6
100
AcDbXrecord
280
     1
270
     1
271
     1
  0
XRECORD
  5
26EC
102
{ACAD_REACTORS
330
26E6
102
}
330
26E6
100
AcDbXrecord
280
     1
270
     1
271
     1
  0
XRECORD
  5
26E9
102
{ACAD_REACTORS
330
26E6
102
}
330
26E6
100
AcDbXrecord
280
     1
270
     1
271
     1
  0
CELLSTYLEMAP
  5
45A1
102
{ACAD_REACTORS
330
4072
102
}
330
4072
100
AcDbCellStyleMap
 90
        3
300
CELLSTYLE
  1
TABLEFORMAT_BEGIN
 90
        5
170
     1
 91
        0
 92
    32768
 62
   257
 93
        1
300
CONTENTFORMAT
  1
CONTENTFORMAT_BEGIN
 90
        0
 91
        0
 92
      512
 93
        0
300

 40
0.0
140
1.0
 94
        5
 62
     0
340
10
144
6.0
309
CONTENTFORMAT_END
171
     1
301
MARGIN
  1
CELLMARGIN_BEGIN
 40
1.5
 40
1.5
 40
1.5
 40
1.5
 40
0.18
 40
0.18
309
CELLMARGIN_END
 94
        6
 95
        1
302
GRIDFORMAT
  1
GRIDFORMAT_BEGIN
 90
        0
 91
        1
 62
     0
 92
       -2
340
0
 93
        0
 40
1.125
309
GRIDFORMAT_END
 95
        2
302
GRIDFORMAT
  1
GRIDFORMAT_BEGIN
 90
        0
 91
        1
 62
     0
 92
       -2
340
0
 93
        0
 40
1.125
309
GRIDFORMAT_END
 95
        4
302
GRIDFORMAT
  1
GRIDFORMAT_BEGIN
 90
        0
 91
        1
 62
     0
 92
       -2
340
0
 93
        0
 40
1.125
309
GRIDFORMAT_END
 95
        8
302
GRIDFORMAT
  1
GRIDFORMAT_BEGIN
 90
        0
 91
        1
 62
     0
 92
       -2
340
0
 93
        0
 40
1.125
309
GRIDFORMAT_END
 95
       16
302
GRIDFORMAT
  1
GRIDFORMAT_BEGIN
 90
        0
 91
        1
 62
     0
 92
       -2
340
0
 93
        0
 40
1.125
309
GRIDFORMAT_END
 95
       32
302
GRIDFORMAT
  1
GRIDFORMAT_BEGIN
 90
        0
 91
        1
 62
     0
 92
       -2
340
0
 93
        0
 40
1.125
309
GRIDFORMAT_END
309
TABLEFORMAT_END
  1
CELLSTYLE_BEGIN
 90
        1
 91
        1
300
_TITLE
309
CELLSTYLE_END
300
CELLSTYLE
  1
TABLEFORMAT_BEGIN
 90
        5
170
     1
 91
        0
 92
        0
 62
   257
 93
        1
300
CONTENTFORMAT
  1
CONTENTFORMAT_BEGIN
 90
        0
 91
        0
 92
      512
 93
        0
300

 40
0.0
140
1.0
 94
        5
 62
     0
340
10
144
4.5
309
CONTENTFORMAT_END
171
     1
301
MARGIN
  1
CELLMARGIN_BEGIN
 40
1.5
 40
1.5
 40
1.5
 40
1.5
 40
0.18
 40
0.18
309
CELLMARGIN_END
 94
        6
 95
        1
302
GRIDFORMAT
  1
GRIDFORMAT_BEGIN
 90
        0
 91
        1
 62
     0
 92
       -2
340
0
 93
        0
 40
1.125
309
GRIDFORMAT_END
 95
        2
302
GRIDFORMAT
  1
GRIDFORMAT_BEGIN
 90
        0
 91
        1
 62
     0
 92
       -2
340
0
 93
        0
 40
1.125
309
GRIDFORMAT_END
 95
        4
302
GRIDFORMAT
  1
GRIDFORMAT_BEGIN
 90
        0
 91
        1
 62
     0
 92
       -2
340
0
 93
        0
 40
1.125
309
GRIDFORMAT_END
 95
        8
302
GRIDFORMAT
  1
GRIDFORMAT_BEGIN
 90
        0
 91
        1
 62
     0
 92
       -2
340
0
 93
        0
 40
1.125
309
GRIDFORMAT_END
 95
       16
302
GRIDFORMAT
  1
GRIDFORMAT_BEGIN
 90
        0
 91
        1
 62
     0
 92
       -2
340
0
 93
        0
 40
1.125
309
GRIDFORMAT_END
 95
       32
302
GRIDFORMAT
  1
GRIDFORMAT_BEGIN
 90
        0
 91
        1
 62
     0
 92
       -2
340
0
 93
        0
 40
1.125
309
GRIDFORMAT_END
309
TABLEFORMAT_END
  1
CELLSTYLE_BEGIN
 90
        2
 91
        1
300
_HEADER
309
CELLSTYLE_END
300
CELLSTYLE
  1
TABLEFORMAT_BEGIN
 90
        5
170
     1
 91
        0
 92
        0
 62
   257
 93
        1
300
CONTENTFORMAT
  1
CONTENTFORMAT_BEGIN
 90
        0
 91
        0
 92
      512
 93
        0
300

 40
0.0
140
1.0
 94
        2
 62
     0
340
10
144
4.5
309
CONTENTFORMAT_END
171
     1
301
MARGIN
  1
CELLMARGIN_BEGIN
 40
1.5
 40
1.5
 40
1.5
 40
1.5
 40
0.18
 40
0.18
309
CELLMARGIN_END
 94
        6
 95
        1
302
GRIDFORMAT
  1
GRIDFORMAT_BEGIN
 90
        0
 91
        1
 62
     0
 92
       -2
340
0
 93
        0
 40
1.125
309
GRIDFORMAT_END
 95
        2
302
GRIDFORMAT
  1
GRIDFORMAT_BEGIN
 90
        0
 91
        1
 62
     0
 92
       -2
340
0
 93
        0
 40
1.125
309
GRIDFORMAT_END
 95
        4
302
GRIDFORMAT
  1
GRIDFORMAT_BEGIN
 90
        0
 91
        1
 62
     0
 92
       -2
340
0
 93
        0
 40
1.125
309
GRIDFORMAT_END
 95
        8
302
GRIDFORMAT
  1
GRIDFORMAT_BEGIN
 90
        0
 91
        1
 62
     0
 92
       -2
340
0
 93
        0
 40
1.125
309
GRIDFORMAT_END
 95
       16
302
GRIDFORMAT
  1
GRIDFORMAT_BEGIN
 90
        0
 91
        1
 62
     0
 92
       -2
340
0
 93
        0
 40
1.125
309
GRIDFORMAT_END
 95
       32
302
GRIDFORMAT
  1
GRIDFORMAT_BEGIN
 90
        0
 91
        1
 62
     0
 92
       -2
340
0
 93
        0
 40
1.125
309
GRIDFORMAT_END
309
TABLEFORMAT_END
  1
CELLSTYLE_BEGIN
 90
        3
 91
        2
300
_DATA
309
CELLSTYLE_END
  0
XRECORD
  5
45AC
102
{ACAD_REACTORS
330
4072
102
}
330
4072
100
AcDbXrecord
280
     1
102
ACAD_ROUNDTRIP_PRE2007_TABLESTYLE
 90
      512
 91
        0
  1

 92
      512
 93
        0
  2

 94
      512
 95
        0
  3

  0
ENDSEC
  0
EOF
