  0
SECTION
  2
HEADER
  9
$ACADVER
  1
AC1015
  9
$ACADMAINTVER
 70
    20
  9
$DWGCODEPAGE
  3
ANSI_932
  9
$INSBASE
 10
0.0
 20
0.0
 30
0.0
  9
$EXTMIN
 10
281.7185340079031
 20
364.9305524386202
 30
-0.0000000000029055
  9
$EXTMAX
 10
1686.198654978781
 20
1154.479556633724
 30
0.0000000000001068
  9
$LIMMIN
 10
0.0
 20
0.0
  9
$LIMMAX
 10
10000.0
 20
10000.0
  9
$ORTHOMODE
 70
     1
  9
$REGENMODE
 70
     1
  9
$FILLMODE
 70
     1
  9
$QTEXTMODE
 70
     0
  9
$MIRRTEXT
 70
     1
  9
$LTSCALE
 40
1.0
  9
$ATTMODE
 70
     1
  9
$TEXTSIZE
 40
2.5
  9
$TRACEWID
 40
1.0
  9
$TEXTSTYLE
  7
AD-STANDARD
  9
$CLAYER
  8
MEASURE
  9
$CELTYPE
  6
BYLAYER
  9
$CECOLOR
 62
   256
  9
$CELTSCALE
 40
1.0
  9
$DISPSILH
 70
     0
  9
$DIMSCALE
 40
5.0
  9
$DIMASZ
 40
2.5
  9
$DIMEXO
 40
1.0
  9
$DIMDLI
 40
0.38
  9
$DIMRND
 40
0.0
  9
$DIMDLE
 40
0.0
  9
$DIMEXE
 40
2.0
  9
$DIMTP
 40
0.0
  9
$DIMTM
 40
0.0
  9
$DIMTXT
 40
2.799999999999998
  9
$DIMCEN
 40
-2.0
  9
$DIMTSZ
 40
0.0
  9
$DIMTOL
 70
     0
  9
$DIMLIM
 70
     0
  9
$DIMTIH
 70
     0
  9
$DIMTOH
 70
     0
  9
$DIMSE1
 70
     0
  9
$DIMSE2
 70
     0
  9
$DIMTAD
 70
     1
  9
$DIMZIN
 70
     8
  9
$DIMBLK
  1

  9
$DIMASO
 70
     1
  9
$DIMSHO
 70
     1
  9
$DIMPOST
  1

  9
$DIMAPOST
  1

  9
$DIMALT
 70
     0
  9
$DIMALTD
 70
     2
  9
$DIMALTF
 40
25.4
  9
$DIMLFAC
 40
1.0
  9
$DIMTOFL
 70
     1
  9
$DIMTVP
 40
0.0
  9
$DIMTIX
 70
     0
  9
$DIMSOXD
 70
     0
  9
$DIMSAH
 70
     0
  9
$DIMBLK1
  1

  9
$DIMBLK2
  1

  9
$DIMSTYLE
  2
AD-STANDARD
  9
$DIMCLRD
 70
     9
  9
$DIMCLRE
 70
     9
  9
$DIMCLRT
 70
     2
  9
$DIMTFAC
 40
1.0
  9
$DIMGAP
 40
0.5
  9
$DIMJUST
 70
     0
  9
$DIMSD1
 70
     0
  9
$DIMSD2
 70
     0
  9
$DIMTOLJ
 70
     1
  9
$DIMTZIN
 70
     8
  9
$DIMALTZ
 70
     0
  9
$DIMALTTZ
 70
     0
  9
$DIMUPT
 70
     0
  9
$DIMDEC
 70
     8
  9
$DIMTDEC
 70
     8
  9
$DIMALTU
 70
     2
  9
$DIMALTTD
 70
     2
  9
$DIMTXSTY
  7
AD-STANDARD
  9
$DIMAUNIT
 70
     0
  9
$DIMADEC
 70
     0
  9
$DIMALTRND
 40
0.0
  9
$DIMAZIN
 70
     0
  9
$DIMDSEP
 70
    46
  9
$DIMATFIT
 70
     1
  9
$DIMFRAC
 70
     0
  9
$DIMLDRBLK
  1

  9
$DIMLUNIT
 70
     2
  9
$DIMLWD
 70
    -2
  9
$DIMLWE
 70
    -2
  9
$DIMTMOVE
 70
     0
  9
$LUNITS
 70
     2
  9
$LUPREC
 70
     4
  9
$SKETCHINC
 40
1.0
  9
$FILLETRAD
 40
0.0
  9
$AUNITS
 70
     0
  9
$AUPREC
 70
     0
  9
$MENU
  1
.
  9
$ELEVATION
 40
0.0
  9
$PELEVATION
 40
0.0
  9
$THICKNESS
 40
0.0
  9
$LIMCHECK
 70
     0
  9
$CHAMFERA
 40
0.0
  9
$CHAMFERB
 40
0.0
  9
$CHAMFERC
 40
673.4006734006732
  9
$CHAMFERD
 40
0.0
  9
$SKPOLY
 70
     0
  9
$TDCREATE
 40
2451414.498518056
  9
$TDUCREATE
 40
2451414.123518056
  9
$TDUPDATE
 40
2458205.438991944
  9
$TDUUPDATE
 40
2458205.063991945
  9
$TDINDWG
 40
0.5829102894
  9
$TDUSRTIMER
 40
0.5829085532
  9
$USRTIMER
 70
     1
  9
$ANGBASE
 50
0.0
  9
$ANGDIR
 70
     0
  9
$PDMODE
 70
     0
  9
$PDSIZE
 40
0.0
  9
$PLINEWID
 40
0.0
  9
$SPLFRAME
 70
     0
  9
$SPLINETYPE
 70
     6
  9
$SPLINESEGS
 70
     8
  9
$HANDSEED
  5
5210
  9
$SURFTAB1
 70
     6
  9
$SURFTAB2
 70
     6
  9
$SURFTYPE
 70
     6
  9
$SURFU
 70
     6
  9
$SURFV
 70
     6
  9
$UCSBASE
  2

  9
$UCSNAME
  2

  9
$UCSORG
 10
0.0
 20
0.0
 30
0.0
  9
$UCSXDIR
 10
1.0
 20
0.0
 30
0.0
  9
$UCSYDIR
 10
0.0
 20
1.0
 30
0.0
  9
$UCSORTHOREF
  2

  9
$UCSORTHOVIEW
 70
     0
  9
$UCSORGTOP
 10
0.0
 20
0.0
 30
0.0
  9
$UCSORGBOTTOM
 10
0.0
 20
0.0
 30
0.0
  9
$UCSORGLEFT
 10
0.0
 20
0.0
 30
0.0
  9
$UCSORGRIGHT
 10
0.0
 20
0.0
 30
0.0
  9
$UCSORGFRONT
 10
0.0
 20
0.0
 30
0.0
  9
$UCSORGBACK
 10
0.0
 20
0.0
 30
0.0
  9
$PUCSBASE
  2

  9
$PUCSNAME
  2

  9
$PUCSORG
 10
0.0
 20
0.0
 30
0.0
  9
$PUCSXDIR
 10
1.0
 20
0.0
 30
0.0
  9
$PUCSYDIR
 10
0.0
 20
1.0
 30
0.0
  9
$PUCSORTHOREF
  2

  9
$PUCSORTHOVIEW
 70
     0
  9
$PUCSORGTOP
 10
0.0
 20
0.0
 30
0.0
  9
$PUCSORGBOTTOM
 10
0.0
 20
0.0
 30
0.0
  9
$PUCSORGLEFT
 10
0.0
 20
0.0
 30
0.0
  9
$PUCSORGRIGHT
 10
0.0
 20
0.0
 30
0.0
  9
$PUCSORGFRONT
 10
0.0
 20
0.0
 30
0.0
  9
$PUCSORGBACK
 10
0.0
 20
0.0
 30
0.0
  9
$USERI1
 70
     0
  9
$USERI2
 70
     0
  9
$USERI3
 70
     0
  9
$USERI4
 70
     0
  9
$USERI5
 70
     0
  9
$USERR1
 40
0.0
  9
$USERR2
 40
0.0
  9
$USERR3
 40
0.0
  9
$USERR4
 40
0.0
  9
$USERR5
 40
0.0
  9
$WORLDVIEW
 70
     1
  9
$SHADEDGE
 70
     3
  9
$SHADEDIF
 70
    70
  9
$TILEMODE
 70
     0
  9
$MAXACTVP
 70
    16
  9
$PINSBASE
 10
0.0
 20
0.0
 30
0.0
  9
$PLIMCHECK
 70
     0
  9
$PEXTMIN
 10
19.97680521205063
 20
16.99835063704859
 30
-0.0015258207003583
  9
$PEXTMAX
 10
405.0109848588451
 20
282.0215439591978
 30
0.0000000349246037
  9
$PLIMMIN
 10
2.493894057559145
 20
1.009946606616209
  9
$PLIMMAX
 10
422.4938940575591
 20
298.0099466066162
  9
$UNITMODE
 70
     0
  9
$VISRETAIN
 70
     0
  9
$PLINEGEN
 70
     0
  9
$PSLTSCALE
 70
     0
  9
$TREEDEPTH
 70
  3020
  9
$CMLSTYLE
  2
STANDARD
  9
$CMLJUST
 70
     0
  9
$CMLSCALE
 40
1.0
  9
$PROXYGRAPHICS
 70
     1
  9
$MEASUREMENT
 70
     1
  9
$CELWEIGHT
370
    -1
  9
$ENDCAPS
280
     0
  9
$JOINSTYLE
280
     0
  9
$LWDISPLAY
290
     0
  9
$INSUNITS
 70
     0
  9
$HYPERLINKBASE
  1

  9
$STYLESHEET
  1

  9
$XEDIT
290
     1
  9
$CEPSNTYPE
380
     0
  9
$PSTYLEMODE
290
     1
  9
$FINGERPRINTGUID
  2
{11E8CC91-4B60-11D4-BACD-00E0292259DE}
  9
$VERSIONGUID
  2
{06A272FE-0119-49DB-8F9B-E25421A3F859}
  9
$EXTNAMES
290
     1
  9
$PSVPSCALE
 40
0.0
  9
$OLESTARTUP
290
     0
  0
ENDSEC
  0
SECTION
  2
CLASSES
  0
CLASS
  1
ACDBDICTIONARYWDFLT
  2
AcDbDictionaryWithDefault
  3
ObjectDBX Classes
 90
        0
280
     0
281
     0
  0
CLASS
  1
ACDBPLACEHOLDER
  2
AcDbPlaceHolder
  3
ObjectDBX Classes
 90
        0
280
     0
281
     0
  0
CLASS
  1
LAYOUT
  2
AcDbLayout
  3
ObjectDBX Classes
 90
        0
280
     0
281
     0
  0
CLASS
  1
DICTIONARYVAR
  2
AcDbDictionaryVar
  3
ObjectDBX Classes
 90
        0
280
     0
281
     0
  0
CLASS
  1
TABLESTYLE
  2
AcDbTableStyle
  3
ObjectDBX Classes
 90
     4095
280
     0
281
     0
  0
CLASS
  1
SORTENTSTABLE
  2
AcDbSortentsTable
  3
ObjectDBX Classes
 90
        0
280
     0
281
     0
  0
CLASS
  1
PLOTSETTINGS
  2
AcDbPlotSettings
  3
ObjectDBX Classes
 90
        0
280
     0
281
     0
  0
CLASS
  1
MATERIAL
  2
AcDbMaterial
  3
ObjectDBX Classes
 90
     1153
280
     0
281
     0
  0
CLASS
  1
VISUALSTYLE
  2
AcDbVisualStyle
  3
ObjectDBX Classes
 90
     4095
280
     0
281
     0
  0
CLASS
  1
SCALE
  2
AcDbScale
  3
ObjectDBX Classes
 90
     1153
280
     0
281
     0
  0
CLASS
  1
MLEADERSTYLE
  2
AcDbMLeaderStyle
  3
ACDB_MLEADERSTYLE_CLASS
 90
     4095
280
     0
281
     0
  0
CLASS
  1
CELLSTYLEMAP
  2
AcDbCellStyleMap
  3
ObjectDBX Classes
 90
     1152
280
     0
281
     0
  0
ENDSEC
  0
SECTION
  2
TABLES
  0
TABLE
  2
VPORT
  5
8
102
{ACAD_XDICTIONARY
360
3D6C
102
}
330
0
100
AcDbSymbolTable
 70
     1
  0
VPORT
  5
43FB
330
8
100
AcDbSymbolTableRecord
100
AcDbViewportTableRecord
  2
*Active
 70
     0
 10
0.0
 20
0.0
 11
1.0
 21
1.0
 12
983.8867373576922
 22
759.5825378778172
 13
0.0
 23
0.0
 14
1.0
 24
1.0
 15
0.0
 25
0.0
 16
0.0
 26
0.0
 36
1.0
 17
0.0
 27
0.0
 37
0.0
 40
796.0916315126405
 41
2.267707082833133
 42
50.0
 43
0.0
 44
0.0
 50
0.0
 51
0.0
 71
     0
 72
   100
 73
     1
 74
     0
 75
     0
 76
     0
 77
     0
 78
     1
281
     0
 65
     1
110
0.0
120
0.0
130
0.0
111
1.0
121
0.0
131
0.0
112
0.0
122
1.0
132
0.0
 79
     0
146
0.0
  0
ENDTAB
  0
TABLE
  2
LTYPE
  5
5
330
0
100
AcDbSymbolTable
 70
     2
  0
LTYPE
  5
14
330
5
100
AcDbSymbolTableRecord
100
AcDbLinetypeTableRecord
  2
BYBLOCK
 70
     0
  3

 72
    65
 73
     0
 40
0.0
  0
LTYPE
  5
15
330
5
100
AcDbSymbolTableRecord
100
AcDbLinetypeTableRecord
  2
BYLAYER
 70
     0
  3

 72
    65
 73
     0
 40
0.0
  0
LTYPE
  5
16
330
5
100
AcDbSymbolTableRecord
100
AcDbLinetypeTableRecord
  2
CONTINUOUS
 70
     0
  3
Solid line
 72
    65
 73
     0
 40
0.0
  0
LTYPE
  5
6E
330
5
100
AcDbSymbolTableRecord
100
AcDbLinetypeTableRecord
  2
CENTER
 70
     0
  3
____ _ ____ _ ____ _ ____ _ ____ _ ____ _ ____ 
 72
    65
 73
     4
 40
2.0
 49
1.25
 74
     0
 49
-0.25
 74
     0
 49
0.25
 74
     0
 49
-0.25
 74
     0
  0
ENDTAB
  0
TABLE
  2
LAYER
  5
2
102
{ACAD_XDICTIONARY
360
1E1B
102
}
330
0
100
AcDbSymbolTable
 70
     3
  0
LAYER
  5
F
102
{ACAD_XDICTIONARY
360
3D33
102
}
330
2
100
AcDbSymbolTableRecord
100
AcDbLayerTableRecord
  2
0
 70
     0
 62
     7
  6
CONTINUOUS
370
    -3
390
199A
  0
LAYER
  5
71
102
{ACAD_XDICTIONARY
360
3D37
102
}
330
2
100
AcDbSymbolTableRecord
100
AcDbLayerTableRecord
  2
MEASURE
 70
     0
 62
     9
  6
CONTINUOUS
370
    -3
390
199A
  0
LAYER
  5
72
330
2
100
AcDbSymbolTableRecord
100
AcDbLayerTableRecord
  2
DEFPOINTS
 70
     0
 62
     7
  6
CONTINUOUS
290
     0
370
    -3
390
199A
  0
ENDTAB
  0
TABLE
  2
STYLE
  5
3
330
0
100
AcDbSymbolTable
 70
     3
  0
STYLE
  5
10
330
3
100
AcDbSymbolTableRecord
100
AcDbTextStyleTableRecord
  2
STANDARD
 70
     0
 40
0.0
 41
0.8
 50
0.0
 71
     0
 42
84.17508417508415
  3
TXT
  4
bigfont.shx
  0
STYLE
  5
63
330
3
100
AcDbSymbolTableRecord
100
AcDbTextStyleTableRecord
  2
AD-STANDARD
 70
     0
 40
0.0
 41
0.8
 50
0.0
 71
     0
 42
2.5
  3
C:\Program Files\AutoCAD LT\romans.shx
  4
bigfont.shx
  0
ENDTAB
  0
TABLE
  2
VIEW
  5
6
330
0
100
AcDbSymbolTable
 70
     1
  0
ENDTAB
  0
TABLE
  2
UCS
  5
7
330
0
100
AcDbSymbolTable
 70
     0
  0
ENDTAB
  0
TABLE
  2
APPID
  5
9
330
0
100
AcDbSymbolTable
 70
     8
  0
APPID
  5
11
330
9
100
AcDbSymbolTableRecord
100
AcDbRegAppTableRecord
  2
ACAD
 70
     0
  0
APPID
  5
22A
330
9
100
AcDbSymbolTableRecord
100
AcDbRegAppTableRecord
  2
CONTENTTABDATA
 70
     0
  0
APPID
  5
22B
330
9
100
AcDbSymbolTableRecord
100
AcDbRegAppTableRecord
  2
CONTENTCURRENTTAB
 70
     0
  0
APPID
  5
232
330
9
100
AcDbSymbolTableRecord
100
AcDbRegAppTableRecord
  2
CONTENTBLOCKDESCRIPTION
 70
     0
  0
APPID
  5
233
330
9
100
AcDbSymbolTableRecord
100
AcDbRegAppTableRecord
  2
CONTENTBLOCKICON
 70
     0
  0
APPID
  5
1EBC
330
9
100
AcDbSymbolTableRecord
100
AcDbRegAppTableRecord
  2
ACAD_PSEXT
 70
     0
  0
APPID
  5
1FF1
330
9
100
AcDbSymbolTableRecord
100
AcDbRegAppTableRecord
  2
ACAD_MLEADERVER
 70
     0
  0
APPID
  5
2EE8
330
9
100
AcDbSymbolTableRecord
100
AcDbRegAppTableRecord
  2
ACAD_EXEMPT_FROM_CAD_STANDARDS
 70
     0
  0
ENDTAB
  0
TABLE
  2
DIMSTYLE
  5
A
330
0
100
AcDbSymbolTable
 70
     3
100
AcDbDimStyleTable
 71
     1
340
68
  0
DIMSTYLE
105
1D
330
A
100
AcDbSymbolTableRecord
100
AcDbDimStyleTableRecord
  2
STANDARD
 70
     0
340
10
  0
DIMSTYLE
105
68
102
{ACAD_REACTORS
330
4ED7
330
4ED8
330
4ED9
330
4EDA
330
4EDB
330
4EDC
330
4EDD
330
4EDE
330
4EDF
330
4EE0
330
4EE1
330
4EE2
330
4EE3
330
4EE4
330
4EE6
102
}
330
A
100
AcDbSymbolTableRecord
100
AcDbDimStyleTableRecord
  2
AD-STANDARD
 70
     0
 41
2.5
 42
1.0
 44
2.0
 73
     0
 74
     0
 77
     1
 78
     8
140
3.5
141
-2.0
147
0.5
172
     1
176
     9
177
     9
178
     2
284
     8
340
63
  0
ENDTAB
  0
TABLE
  2
BLOCK_RECORD
  5
1
330
0
100
AcDbSymbolTable
 70
    18
  0
BLOCK_RECORD
  5
1A
102
{ACAD_XDICTIONARY
360
19C8
102
}
330
1
100
AcDbSymbolTableRecord
100
AcDbBlockTableRecord
  2
*MODEL_SPACE
340
199D
  0
BLOCK_RECORD
  5
17
102
{ACAD_XDICTIONARY
360
19C6
102
}
330
1
100
AcDbSymbolTableRecord
100
AcDbBlockTableRecord
  2
*PAPER_SPACE
340
199E
  0
BLOCK_RECORD
  5
4A63
330
1
100
AcDbSymbolTableRecord
100
AcDbBlockTableRecord
  2
2
340
0
310
2800000020000000200000000100080000000000000400000000000000000000000000000000000000000000000080000080000000808000800000008000800080800000C0C0C000C0DCC000F0CAA6000020400000206000002080000020A0000020C0000020E00000400000004020000040400000406000004080000040A0
310
000040C0000040E00000600000006020000060400000606000006080000060A0000060C0000060E00000800000008020000080400000806000008080000080A0000080C0000080E00000A0000000A0200000A0400000A0600000A0800000A0A00000A0C00000A0E00000C0000000C0200000C0400000C0600000C0800000C0
310
A00000C0C00000C0E00000E0000000E0200000E0400000E0600000E0800000E0A00000E0C00000E0E00040000000400020004000400040006000400080004000A0004000C0004000E00040200000402020004020400040206000402080004020A0004020C0004020E000404000004040200040404000404060004040800040
310
40A0004040C0004040E00040600000406020004060400040606000406080004060A0004060C0004060E00040800000408020004080400040806000408080004080A0004080C0004080E00040A0000040A0200040A0400040A0600040A0800040A0A00040A0C00040A0E00040C0000040C0200040C0400040C0600040C08000
310
40C0A00040C0C00040C0E00040E0000040E0200040E0400040E0600040E0800040E0A00040E0C00040E0E00080000000800020008000400080006000800080008000A0008000C0008000E00080200000802020008020400080206000802080008020A0008020C0008020E00080400000804020008040400080406000804080
310
008040A0008040C0008040E00080600000806020008060400080606000806080008060A0008060C0008060E00080800000808020008080400080806000808080008080A0008080C0008080E00080A0000080A0200080A0400080A0600080A0800080A0A00080A0C00080A0E00080C0000080C0200080C0400080C0600080C0
310
800080C0A00080C0C00080C0E00080E0000080E0200080E0400080E0600080E0800080E0A00080E0C00080E0E000C0000000C0002000C0004000C0006000C0008000C000A000C000C000C000E000C0200000C0202000C0204000C0206000C0208000C020A000C020C000C020E000C0400000C0402000C0404000C0406000C0
310
408000C040A000C040C000C040E000C0600000C0602000C0604000C0606000C0608000C060A000C060C000C060E000C0800000C0802000C0804000C0806000C0808000C080A000C080C000C080E000C0A00000C0A02000C0A04000C0A06000C0A08000C0A0A000C0A0C000C0A0E000C0C00000C0C02000C0C04000C0C06000
310
C0C08000C0C0A000F0FBFF00A4A0A000808080000000FF0000FF000000FFFF00FF000000FF00FF00FFFF0000FFFFFF0000000000000000000000000000000000000000000000000000000000000000000000000000000000000000000000000000000000000000000000000000000000000000000000000000000000000000
310
00000000000000000000000000000000000000FFFFFFFFFFFFFFFFFFFFFFFFFFFFFFFFFFFFFFFFFFFFFFFFFFFFFF000000000000FFFFFFFFFFFFFFFFFFFFFFFFFFFFFFFFFFFFFFFFFFFF000000FF00000000FFFFFFFFFFFFFFFFFFFFFFFFFFFFFFFFFFFFFFFFFF000000FFFFFFFF00000000FF000000000000000000000000
310
00000000000000FF00000000FF00FF00000000FFFFFFFFFFFFFFFFFFFFFFFFFFFFFFFFFFFFFFFFFF00000000FFFFFF0000000000000000000000000000000000000000000000000000000000FF00FF0000000000000000000000000000000000000000000000000000000000FF00FF00000000000000000000000000000000
310
00000000000000000000000000FF00FF0000000000000000000000000000000000000000000000000000000000FF00FF0000000000000000000000000000000000000000000000000000000000FF00FF0000000000000000000000000000000000000000000000000000000000FFFFFF000000000000000000000000000000
310
0000000000000000000000000000FFFFFF0000000000000000000000000000000000000000000000000000000000FF00FF0000000000000000000000000000000000000000000000000000000000FF00FF0000000000000000000000000000000000000000000000000000000000FF00FF0000000000000000000000000000
310
0000000000000000000000000000FFFFFFFFFF000000000000000000000000000000000000000000000000000000FFFFFFFFFF000000000000000000000000000000000000000000000000000000FFFFFFFFFFFF0000000000000000000000000000000000000000000000000000FFFFFFFFFFFF0000000000000000000000
310
000000000000000000000000000000FFFFFFFFFFFF0000000000000000000000000000000000000000000000000000FFFFFFFF00000000000000000000000000000000000000000000000000000000FFFFFFFFFF000000000000000000000000000000000000000000000000000000FF00FFFFFF0000000000000000000000
310
00000000000000000000000000000000FF0000FFFF000000000000000000000000000000000000000000000000000000FF0000FFFF000000000000000000000000000000000000000000000000000000FFFFFFFF00000000000000000000000000000000000000000000000000000000000000000000000000000000000000
310
0000000000000000000000000000000000000000000000000000000000000000000000000000000000000000000000000000000000000000
102
{BLKREFS
331
4EE7
102
}
  0
BLOCK_RECORD
  5
4BF2
330
1
100
AcDbSymbolTableRecord
100
AcDbBlockTableRecord
  2
1
340
0
310
2800000020000000200000000100080000000000000400000000000000000000000000000000000000000000000080000080000000808000800000008000800080800000C0C0C000C0DCC000F0CAA6000020400000206000002080000020A0000020C0000020E00000400000004020000040400000406000004080000040A0
310
000040C0000040E00000600000006020000060400000606000006080000060A0000060C0000060E00000800000008020000080400000806000008080000080A0000080C0000080E00000A0000000A0200000A0400000A0600000A0800000A0A00000A0C00000A0E00000C0000000C0200000C0400000C0600000C0800000C0
310
A00000C0C00000C0E00000E0000000E0200000E0400000E0600000E0800000E0A00000E0C00000E0E00040000000400020004000400040006000400080004000A0004000C0004000E00040200000402020004020400040206000402080004020A0004020C0004020E000404000004040200040404000404060004040800040
310
40A0004040C0004040E00040600000406020004060400040606000406080004060A0004060C0004060E00040800000408020004080400040806000408080004080A0004080C0004080E00040A0000040A0200040A0400040A0600040A0800040A0A00040A0C00040A0E00040C0000040C0200040C0400040C0600040C08000
310
40C0A00040C0C00040C0E00040E0000040E0200040E0400040E0600040E0800040E0A00040E0C00040E0E00080000000800020008000400080006000800080008000A0008000C0008000E00080200000802020008020400080206000802080008020A0008020C0008020E00080400000804020008040400080406000804080
310
008040A0008040C0008040E00080600000806020008060400080606000806080008060A0008060C0008060E00080800000808020008080400080806000808080008080A0008080C0008080E00080A0000080A0200080A0400080A0600080A0800080A0A00080A0C00080A0E00080C0000080C0200080C0400080C0600080C0
310
800080C0A00080C0C00080C0E00080E0000080E0200080E0400080E0600080E0800080E0A00080E0C00080E0E000C0000000C0002000C0004000C0006000C0008000C000A000C000C000C000E000C0200000C0202000C0204000C0206000C0208000C020A000C020C000C020E000C0400000C0402000C0404000C0406000C0
310
408000C040A000C040C000C040E000C0600000C0602000C0604000C0606000C0608000C060A000C060C000C060E000C0800000C0802000C0804000C0806000C0808000C080A000C080C000C080E000C0A00000C0A02000C0A04000C0A06000C0A08000C0A0A000C0A0C000C0A0E000C0C00000C0C02000C0C04000C0C06000
310
C0C08000C0C0A000F0FBFF00A4A0A000808080000000FF0000FF000000FFFF00FF000000FF00FF00FFFF0000FFFFFF000000000000000000000000000000000000000000000000000000000000000000000000000000000000FFFF00000000000000000000FFFF0000000000000000000000000000000000FFFFFFFFFFFFFF
310
FFFFFFFFFFFFFFFFFF00000000000000000000000000000000FFFFFFFFFFFFFFFFFFFFFFFFFFFFFFFF000000000000000000000000000000FFFFFFFFFFFFFFFFFFFFFFFFFFFFFFFFFFFF0000000000000000000000000000FF00000000000000000000000000000000FF0000000000000000000000000000FF000000000000
310
00000000000000000000FF000000000000000000000000000000FFFFFFFFFFFFFFFFFFFFFFFFFFFFFFFF00000000000000000000000000000000000000000000FF0000FF00000000000000000000000000000000000000000000000000000000FF0000FF000000000000000000000000000000000000000000000000000000
310
00FF0000FF00000000000000000000000000000000000000000000000000000000FF0000FF00000000000000000000000000000000000000000000000000000000FF0000FF00000000000000000000000000000000000000000000000000000000FF0000FF0000000000000000000000000000000000000000000000000000
310
0000FF0000FF00000000000000000000000000000000000000000000000000000000FFFFFFFF00000000000000000000000000000000000000000000000000000000FFFFFFFF00000000000000000000000000000000000000000000000000000000FF0000FF00000000000000000000000000000000000000000000000000
310
FFFFFFFFFFFFFFFFFFFF000000000000000000000000000000000000000000FFFFFFFFFFFFFFFFFFFFFFFF0000000000000000000000000000000000000000FFFFFFFFFFFFFFFFFFFFFFFF0000000000000000000000000000000000000000FFFFFFFFFFFFFFFFFFFFFFFF0000000000000000000000000000000000000000
310
FFFFFFFFFF00FFFFFFFFFFFF0000000000000000000000000000000000000000FFFFFFFFFFFFFFFFFFFFFFFF00000000000000000000000000000000000000FFFFFFFFFFFFFFFFFFFFFFFFFFFF000000000000000000000000000000000000FFFFFFFFFFFFFFFFFFFFFFFFFFFF000000000000000000000000000000000000
310
0000FFFFFFFFFFFFFFFFFFFF00000000000000000000000000000000000000000000FFFFFFFFFFFFFF00FFFF00000000000000000000000000000000000000000000FFFFFFFFFFFFFFFFFFFF00000000000000000000000000000000000000000000FFFFFFFFFFFFFFFFFFFF00000000000000000000000000000000000000
310
000000FFFFFFFFFFFFFFFFFFFF00000000000000000000000000000000000000000000000000000000000000000000000000000000000000
102
{BLKREFS
331
4EE8
102
}
  0
BLOCK_RECORD
  5
4EE9
330
1
100
AcDbSymbolTableRecord
100
AcDbBlockTableRecord
  2
*D2
340
0
  0
BLOCK_RECORD
  5
4EF5
330
1
100
AcDbSymbolTableRecord
100
AcDbBlockTableRecord
  2
*D3
340
0
  0
BLOCK_RECORD
  5
4F01
330
1
100
AcDbSymbolTableRecord
100
AcDbBlockTableRecord
  2
*D4
340
0
  0
BLOCK_RECORD
  5
4F0D
330
1
100
AcDbSymbolTableRecord
100
AcDbBlockTableRecord
  2
*D5
340
0
  0
BLOCK_RECORD
  5
4F19
330
1
100
AcDbSymbolTableRecord
100
AcDbBlockTableRecord
  2
*D6
340
0
  0
BLOCK_RECORD
  5
4F25
330
1
100
AcDbSymbolTableRecord
100
AcDbBlockTableRecord
  2
*D7
340
0
  0
BLOCK_RECORD
  5
4F31
330
1
100
AcDbSymbolTableRecord
100
AcDbBlockTableRecord
  2
*D8
340
0
  0
BLOCK_RECORD
  5
4F3D
330
1
100
AcDbSymbolTableRecord
100
AcDbBlockTableRecord
  2
*D9
340
0
  0
BLOCK_RECORD
  5
4F49
330
1
100
AcDbSymbolTableRecord
100
AcDbBlockTableRecord
  2
*D10
340
0
  0
BLOCK_RECORD
  5
4F55
330
1
100
AcDbSymbolTableRecord
100
AcDbBlockTableRecord
  2
*D11
340
0
  0
BLOCK_RECORD
  5
4F61
330
1
100
AcDbSymbolTableRecord
100
AcDbBlockTableRecord
  2
*D12
340
0
  0
BLOCK_RECORD
  5
4F6D
330
1
100
AcDbSymbolTableRecord
100
AcDbBlockTableRecord
  2
*D13
340
0
  0
BLOCK_RECORD
  5
4F79
330
1
100
AcDbSymbolTableRecord
100
AcDbBlockTableRecord
  2
*D14
340
0
  0
BLOCK_RECORD
  5
4F85
330
1
100
AcDbSymbolTableRecord
100
AcDbBlockTableRecord
  2
*D15
340
0
  0
BLOCK_RECORD
  5
4F91
330
1
100
AcDbSymbolTableRecord
100
AcDbBlockTableRecord
  2
*D16
340
0
  0
ENDTAB
  0
ENDSEC
  0
SECTION
  2
BLOCKS
  0
BLOCK
  5
1B
330
1A
100
AcDbEntity
  8
0
100
AcDbBlockBegin
  2
*MODEL_SPACE
 70
     0
 10
0.0
 20
0.0
 30
0.0
  3
*MODEL_SPACE
  1

  0
ENDBLK
  5
1C
330
1A
100
AcDbEntity
  8
0
100
AcDbBlockEnd
  0
BLOCK
  5
18
330
17
100
AcDbEntity
 67
     1
  8
0
100
AcDbBlockBegin
  2
*PAPER_SPACE
 70
     0
 10
0.0
 20
0.0
 30
0.0
  3
*PAPER_SPACE
  1

  0
ENDBLK
  5
19
330
17
100
AcDbEntity
 67
     1
  8
0
100
AcDbBlockEnd
  0
BLOCK
  5
4A64
330
4A63
100
AcDbEntity
  8
0
100
AcDbBlockBegin
  2
2
 70
     0
 10
0.0
 20
0.0
 30
0.0
  3
2
  1

  0
LINE
  5
4A65
330
4A63
100
AcDbEntity
  8
0
 48
0.25
100
AcDbLine
 10
318.6500056616326
 20
121.0611667282483
 30
0.0
 11
318.6500056616326
 21
-6.000000000003978
 31
0.0
  0
LINE
  5
4A66
330
4A63
100
AcDbEntity
  8
0
 48
0.25
100
AcDbLine
 10
361.3500056616324
 20
131.9484672162234
 30
0.0
 11
361.3500056616329
 21
-6.000000000003864
 31
0.0
  0
LINE
  5
4A67
330
4A63
100
AcDbEntity
  8
0
100
AcDbLine
 10
186.4915720966673
 20
-72.5
 30
0.0
 11
-186.1666524004395
 21
-72.5
 31
0.0
  0
LINE
  5
4A68
330
4A63
100
AcDbEntity
  8
0
100
AcDbLine
 10
98.97949965869337
 20
-91.0
 30
0.0
 11
-98.97949965869337
 21
-91.0
 31
0.0
  0
LINE
  5
4A69
330
4A63
100
AcDbEntity
  8
0
100
AcDbLine
 10
91.45171406210286
 20
-78.0
 30
0.0
 11
5.851036327818292
 21
-78.0
 31
0.0
  0
LINE
  5
4A6A
330
4A63
100
AcDbEntity
  8
0
100
AcDbLine
 10
-212.0
 20
-55.0
 30
0.0
 11
212.0
 21
-55.0
 31
0.0
  0
LINE
  5
4A6B
330
4A63
100
AcDbEntity
  8
0
100
AcDbLine
 10
-200.5
 20
0.0
 30
0.0
 11
200.5
 21
0.0
 31
0.0
  0
ARC
  5
4A6C
330
4A63
100
AcDbEntity
  8
0
100
AcDbCircle
 10
-102.5076944895263
 20
-81.00000000000362
 30
0.0
 40
3.0
100
AcDbArc
 50
2.999999999998918
 51
90.0
  0
LINE
  5
4A6D
330
4A63
100
AcDbEntity
  8
0
100
AcDbLine
 10
-98.97949965870068
 20
-91.0
 30
0.0
 11
-141.783797640368
 21
-83.45244737554457
 31
0.0
  0
LINE
  5
4A6E
330
4A63
100
AcDbEntity
  8
0
100
AcDbLine
 10
-98.97949965870068
 20
-91.0
 30
0.0
 11
-144.5375521776238
 21
-82.9668861523818
 31
0.0
  0
LINE
  5
4A6F
330
4A63
100
AcDbEntity
  8
0
100
AcDbLine
 10
-193.305832140526
 20
-55.0
 30
0.0
 11
-188.068765433025
 21
-71.11803398875053
 31
0.0
  0
LINE
  5
4A70
330
4A63
100
AcDbEntity
  8
0
100
AcDbLine
 10
-102.507694489519
 20
-78.0
 30
0.0
 11
-154.9981637115415
 21
-78.00000000000728
 31
0.0
  0
LINE
  5
4A71
330
4A63
100
AcDbEntity
  8
0
100
AcDbLine
 10
-145.6814834742181
 20
-72.5
 30
0.0
 11
-145.6814834742181
 21
-76.5
 31
0.0
  0
LINE
  5
4A72
330
4A63
100
AcDbEntity
  8
0
100
AcDbLine
 10
-145.6814834742181
 20
-76.5
 30
0.0
 11
-157.1850454237764
 21
-76.50000000000352
 31
0.0
  0
ARC
  5
4A73
330
4A63
100
AcDbEntity
  8
0
100
AcDbCircle
 10
-186.1666524004395
 20
-70.50000000000363
 30
0.0
 40
2.0
100
AcDbArc
 50
197.9999999999974
 51
270.0
  0
LINE
  5
4A74
330
4A63
100
AcDbEntity
  8
0
100
AcDbLine
 10
-212.0
 20
-55.0
 30
0.0
 11
-212.0
 21
-11.5
 31
0.0
  0
ARC
  5
4A75
330
4A63
100
AcDbEntity
  8
0
100
AcDbCircle
 10
-200.5000000000073
 20
-11.50000000000364
 30
0.0
 40
11.5
100
AcDbArc
 50
90.0
 51
180.0
  0
ARC
  5
4A76
330
4A63
100
AcDbEntity
  8
0
100
AcDbCircle
 10
-151.5570848327042
 20
-78.68287331766623
 30
0.0
 40
3.0
100
AcDbArc
 50
200.0000000000015
 51
259.999999999995
  0
LINE
  5
4A77
330
4A63
100
AcDbEntity
  8
0
100
AcDbLine
 10
-154.3761626950654
 20
-79.70893374764273
 30
0.0
 11
-155.5441190629426
 21
-76.50000000000364
 31
0.0
  0
LINE
  5
4A78
330
4A63
100
AcDbEntity
  8
0
100
AcDbLine
 10
-144.5375521776236
 20
-82.96688615237929
 30
0.0
 11
-152.078029365708
 21
-81.63729657670774
 31
0.0
  0
LINE
  5
4A79
330
4A63
100
AcDbEntity
  8
0
100
AcDbLine
 10
2.852863846754189
 20
-80.89530150988867
 30
0.0
 11
2.5
 21
-91.0
 31
0.0
  0
LINE
  5
4A7A
330
4A63
100
AcDbEntity
  8
0
100
AcDbLine
 10
-2.852863846754189
 20
-80.89530150988867
 30
0.0
 11
-2.5
 21
-91.0
 31
0.0
  0
LINE
  5
4A7B
330
4A63
100
AcDbEntity
  8
0
100
AcDbLine
 10
-5.851036327818292
 20
-78.0
 30
0.0
 11
-91.45177732026786
 21
-78.0
 31
0.0
  0
LINE
  5
4A7C
330
4A63
100
AcDbEntity
  8
0
100
AcDbLine
 10
-20.0
 20
-72.5
 30
0.0
 11
-20.0
 21
-78.0
 31
0.0
  0
LINE
  5
4A7D
330
4A63
100
AcDbEntity
  8
0
100
AcDbLine
 10
-40.0
 20
-72.5
 30
0.0
 11
-40.0
 21
-78.0
 31
0.0
  0
ARC
  5
4A7E
330
4A63
100
AcDbEntity
  8
0
100
AcDbCircle
 10
5.851036327811017
 20
-81.00000000000362
 30
0.0
 40
3.0
100
AcDbArc
 50
90.0
 51
178.000000000003
  0
ARC
  5
4A7F
330
4A63
100
AcDbEntity
  8
0
100
AcDbCircle
 10
-5.851036327818292
 20
-81.00000000000362
 30
0.0
 40
3.0
100
AcDbArc
 50
1.999999999996988
 51
90.0
  0
LINE
  5
4A80
330
4A63
100
AcDbEntity
  8
0
100
AcDbLine
 10
-94.44766592452651
 20
-80.84299213127087
 30
0.0
 11
-94.97997215109354
 21
-91.0
 31
0.0
  0
LINE
  5
4A81
330
4A63
100
AcDbEntity
  8
0
100
AcDbLine
 10
-99.51180588525312
 20
-80.84299213127087
 30
0.0
 11
-98.97949965870068
 21
-91.0
 31
0.0
  0
ARC
  5
4A82
330
4A63
100
AcDbEntity
  8
0
100
AcDbCircle
 10
-91.45177732026786
 20
-81.00000000000362
 30
0.0
 40
3.0
100
AcDbArc
 50
90.0
 51
177.0000000000011
  0
LINE
  5
4A83
330
4A63
100
AcDbEntity
  8
0
100
AcDbLine
 10
-99.48594070818943
 20
-81.33652911034003
 30
0.0
 11
-94.47353110159749
 21
-81.33652911034003
 31
0.0
  0
LINE
  5
4A84
330
4A63
100
AcDbEntity
  8
0
100
AcDbLine
 10
-2.837455839428002
 20
-81.33652911034003
 30
0.0
 11
2.837455839428002
 21
-81.33652911034003
 31
0.0
  0
LINE
  5
4A85
330
4A63
100
AcDbEntity
  8
0
100
AcDbLine
 10
153.5977486351257
 20
-78.00000000001091
 30
0.0
 11
102.5081037237542
 21
-78.0
 31
0.0
  0
LINE
  5
4A86
330
4A63
100
AcDbEntity
  8
0
100
AcDbLine
 10
98.97949965870793
 20
-91.0
 30
0.0
 11
144.7728097388176
 21
-82.92540389692204
 31
0.0
  0
LINE
  5
4A87
330
4A63
100
AcDbEntity
  8
0
100
AcDbLine
 10
40.0
 20
-72.5
 30
0.0
 11
40.0
 21
-78.0
 31
0.0
  0
LINE
  5
4A88
330
4A63
100
AcDbEntity
  8
0
100
AcDbLine
 10
20.0
 20
-72.5
 30
0.0
 11
20.0
 21
-78.0
 31
0.0
  0
LINE
  5
4A89
330
4A63
100
AcDbEntity
  8
0
100
AcDbLine
 10
99.51221511948824
 20
-80.84299213127087
 30
0.0
 11
98.9799088929285
 21
-91.0
 31
0.0
  0
LINE
  5
4A8A
330
4A63
100
AcDbEntity
  8
0
100
AcDbLine
 10
94.44760266636876
 20
-80.84299213127087
 30
0.0
 11
94.9799088929285
 21
-91.0
 31
0.0
  0
ARC
  5
4A8B
330
4A63
100
AcDbEntity
  8
0
100
AcDbCircle
 10
102.5081037237542
 20
-81.00000000000362
 30
0.0
 40
3.0
100
AcDbArc
 50
90.0
 51
177.0000000000011
  0
ARC
  5
4A8C
330
4A63
100
AcDbEntity
  8
0
100
AcDbCircle
 10
91.45171406210286
 20
-81.00000000000362
 30
0.0
 40
3.0
100
AcDbArc
 50
2.999999999998918
 51
90.0
  0
LINE
  5
4A8D
330
4A63
100
AcDbEntity
  8
0
100
AcDbLine
 10
98.97949965869337
 20
-91.0
 30
0.0
 11
129.50845021649
 21
-85.61692232395579
 31
0.0
  0
LINE
  5
4A8E
330
4A63
100
AcDbEntity
  8
0
100
AcDbLine
 10
94.47346784343244
 20
-81.33652911034003
 30
0.0
 11
99.48634994242457
 21
-81.33652911034003
 31
0.0
  0
LINE
  5
4A8F
330
4A63
100
AcDbEntity
  8
0
100
AcDbLine
 10
145.6814834742181
 20
-72.5
 30
0.0
 11
145.6814834742181
 21
-76.5
 31
0.0
  0
LINE
  5
4A90
330
4A63
100
AcDbEntity
  8
0
100
AcDbLine
 10
145.6814834742181
 20
-76.5
 30
0.0
 11
157.1850454237837
 21
-76.5
 31
0.0
  0
LINE
  5
4A91
330
4A63
100
AcDbEntity
  8
0
100
AcDbLine
 10
194.3572943647596
 20
-55.00000000000728
 30
0.0
 11
189.3447416455528
 21
-70.4270509831258
 31
0.0
  0
ARC
  5
4A92
330
4A63
100
AcDbEntity
  8
0
100
AcDbCircle
 10
186.4915720966673
 20
-69.50000000000364
 30
0.0
 40
3.0
100
AcDbArc
 50
270.0
 51
342.0000000000026
  0
LINE
  5
4A93
330
4A63
100
AcDbEntity
  8
0
100
AcDbLine
 10
212.0
 20
-55.0
 30
0.0
 11
212.0
 21
-11.5
 31
0.0
  0
ARC
  5
4A94
330
4A63
100
AcDbEntity
  8
0
100
AcDbCircle
 10
200.4999999999927
 20
-11.50000000000364
 30
0.0
 40
11.5
100
AcDbArc
 50
0.0
 51
90.0
  0
LINE
  5
4A95
330
4A63
100
AcDbEntity
  8
0
100
AcDbLine
 10
186.4915720966673
 20
-72.5
 30
0.0
 11
218.8891401991859
 21
-82.12407912645721
 31
0.0
  0
ARC
  5
4A96
330
4A63
100
AcDbEntity
  8
0
100
AcDbCircle
 10
240.565555864021
 20
-80.200000000008
 30
0.0
 40
2.0
100
AcDbArc
 50
270.0
 51
358.0908475670058
  0
LINE
  5
4A97
330
4A63
100
AcDbEntity
  8
0
100
AcDbLine
 10
219.4349602383445
 20
-82.20000000000437
 30
0.0
 11
240.5655558640283
 21
-82.20000000000437
 31
0.0
  0
LINE
  5
4A98
330
4A63
100
AcDbEntity
  8
0
100
AcDbLine
 10
204.384128464415
 20
-55.0
 30
0.0
 11
204.6753536433607
 21
-63.33959798681461
 31
0.0
  0
ARC
  5
4A99
330
4A63
100
AcDbEntity
  8
0
100
AcDbCircle
 10
208.6729169514292
 20
-63.200000000008
 30
0.0
 40
4.0
100
AcDbArc
 50
181.999999999997
 51
270.0
  0
LINE
  5
4A9A
330
4A63
100
AcDbEntity
  8
0
100
AcDbLine
 10
208.6729169514365
 20
-67.20000000000435
 30
0.0
 11
243.0
 21
-67.20000000000435
 31
0.0
  0
LINE
  5
4A9B
330
4A63
100
AcDbEntity
  8
0
100
AcDbLine
 10
243.0
 20
-67.20000000000435
 30
0.0
 11
242.5644456779846
 21
-80.2666296604657
 31
0.0
  0
ARC
  5
4A9C
330
4A63
100
AcDbEntity
  8
0
100
AcDbCircle
 10
151.5570848327115
 20
-78.68287331766623
 30
0.0
 40
3.0
100
AcDbArc
 50
280.000000000005
 51
339.9999999999985
  0
LINE
  5
4A9D
330
4A63
100
AcDbEntity
  8
0
100
AcDbLine
 10
154.3761626950727
 20
-79.70893374764273
 30
0.0
 11
155.5441190629426
 21
-76.5
 31
0.0
  0
ARC
  5
4A9E
330
4A63
100
AcDbEntity
  8
0
100
AcDbCircle
 10
153.5977486351257
 20
-76.0
 30
0.0
 40
2.0
100
AcDbArc
 50
270.0
 51
339.9999999999985
  0
LINE
  5
4A9F
330
4A63
100
AcDbEntity
  8
0
100
AcDbLine
 10
144.7728097388176
 20
-82.92540389693042
 30
0.0
 11
152.0780293657153
 21
-81.63729657670774
 31
0.0
  0
LINE
  5
4AA0
330
4A63
100
AcDbEntity
  8
0
 48
0.25
100
AcDbLine
 10
318.6500056616326
 20
236.1005057492612
 30
0.0
 11
318.6500056616326
 21
126.0611667282482
 31
0.0
  0
LINE
  5
4AA1
330
4A63
100
AcDbEntity
  8
0
 48
0.25
100
AcDbLine
 10
361.3500056616322
 20
236.1005057492612
 30
0.0
 11
361.3500056616324
 21
136.9484672162234
 31
0.0
  0
SPLINE
  5
4AA2
330
4A63
100
AcDbEntity
  8
0
100
AcDbSpline
210
0.0
220
0.0
230
1.0
 70
     8
 71
     3
 72
    11
 73
     7
 74
     5
 42
0.0000000001
 43
0.0000000001
 44
0.0000000001
 40
0.0
 40
0.0
 40
0.0
 40
0.0
 40
14.04447813709409
 40
29.34954701111633
 40
42.65768563358507
 40
58.66521325127584
 40
58.66521325127584
 40
58.66521325127584
 40
58.66521325127584
 10
318.6500056616328
 20
126.0611667282492
 30
0.0
 10
320.3096896605384
 20
131.2635705611761
 30
0.0
 10
323.7780259756359
 20
142.1353305778067
 30
0.0
 10
341.0512647534422
 20
136.4951033084313
 30
0.0
 10
350.7395589081569
 20
119.8783350588384
 30
0.0
 10
357.6025420566844
 20
130.9195317267258
 30
0.0
 10
361.3500056616324
 20
136.9484672162234
 30
0.0
 11
318.6500056616328
 21
126.0611667282492
 31
0.0
 11
325.5562200376578
 21
138.2902946258427
 31
0.0
 11
340.3224188059164
 21
134.2648123969857
 31
0.0
 11
350.2560411200855
 21
125.4087578965727
 31
0.0
 11
361.3500056616324
 21
136.9484672162234
 31
0.0
  0
SPLINE
  5
4AA3
330
4A63
100
AcDbEntity
  8
0
100
AcDbSpline
210
0.0
220
0.0
230
1.0
 70
     8
 71
     3
 72
    11
 73
     7
 74
     5
 42
0.0000000001
 43
0.0000000001
 44
0.0000000001
 40
0.0
 40
0.0
 40
0.0
 40
0.0
 40
14.04447813709496
 40
29.3495470111172
 40
42.65768563358594
 40
58.66521325127671
 40
58.66521325127671
 40
58.66521325127671
 40
58.66521325127671
 10
318.6500056616326
 20
121.0611667282483
 30
0.0
 10
320.3096896605383
 20
126.2635705611756
 30
0.0
 10
323.7780259756356
 20
137.1353305778067
 30
0.0
 10
341.0512647534423
 20
131.4951033084313
 30
0.0
 10
350.7395589081567
 20
114.8783350588383
 30
0.0
 10
357.6025420566843
 20
125.9195317267258
 30
0.0
 10
361.3500056616324
 20
131.9484672162234
 30
0.0
 11
318.6500056616326
 21
121.0611667282483
 31
0.0
 11
325.5562200376578
 21
133.2902946258427
 31
0.0
 11
340.3224188059164
 21
129.2648123969857
 31
0.0
 11
350.2560411200855
 21
120.4087578965727
 31
0.0
 11
361.3500056616324
 21
131.9484672162234
 31
0.0
  0
LINE
  5
4AA4
330
4A63
100
AcDbEntity
  8
0
 48
0.25
100
AcDbLine
 10
305.0000056616325
 20
443.1005057492604
 30
0.0
 11
305.000005661633
 21
289.114852080233
 31
0.0
  0
LINE
  5
4AA5
330
4A63
100
AcDbEntity
  8
0
 48
0.25
100
AcDbLine
 10
303.000005661633
 20
426.4005057492603
 30
0.0
 11
303.000005661633
 21
361.1005057492612
 31
0.0
  0
LINE
  5
4AA6
330
4A63
100
AcDbEntity
  8
0
100
AcDbLine
 10
383.8000327383749
 20
427.0005057492611
 30
0.0
 11
383.8000327383754
 21
408.3966307945432
 31
0.0
  0
LINE
  5
4AA7
330
4A63
100
AcDbEntity
  8
0
 48
0.25
100
AcDbLine
 10
373.800032738375
 20
357.5546205000386
 30
0.0
 11
373.8000327383754
 21
437.0005057492608
 31
0.0
  0
LINE
  5
4AA8
330
4A63
100
AcDbEntity
  8
0
 48
0.25
100
AcDbLine
 10
368.0000327383757
 20
321.3348123128858
 30
0.0
 11
368.0000327383752
 21
455.0005057492604
 31
0.0
  0
LINE
  5
4AA9
330
4A63
100
AcDbEntity
  8
0
 48
0.25
100
AcDbLine
 10
365.0000327383748
 20
440.1005057492607
 30
0.0
 11
365.0000327383748
 21
335.1434201114722
 31
0.0
  0
LINE
  5
4AAA
330
4A63
100
AcDbEntity
  8
0
 48
0.25
100
AcDbLine
 10
373.800032738375
 20
454.2005057492606
 30
0.0
 11
373.800032738375
 21
365.5546205000385
 31
0.0
  0
LINE
  5
4AAB
330
4A63
100
AcDbEntity
  8
0
 48
0.25
100
AcDbLine
 10
378.8601978944968
 20
271.3468918899794
 30
0.0
 11
359.3396981646094
 21
361.197200157434
 31
0.0
  0
ARC
  5
4AAC
330
4A63
100
AcDbEntity
  8
0
 48
0.25
100
AcDbCircle
 10
366.3881328426612
 20
258.1005057492603
 30
0.0
 40
5.0
100
AcDbArc
 50
270.0
 51
12.25735951377297
  0
LINE
  5
4AAD
330
4A63
100
AcDbEntity
  8
0
 48
0.25
100
AcDbLine
 10
371.2741520659477
 20
259.1620217169571
 30
0.0
 11
352.5759811154669
 21
345.2272581189717
 31
0.0
  0
LINE
  5
4AAE
330
4A63
100
AcDbEntity
  8
0
 48
0.25
100
AcDbLine
 10
380.0000056616326
 20
236.1005057492612
 30
0.0
 11
300.0000056616325
 21
236.1005057492612
 31
0.0
  0
LINE
  5
4AAF
330
4A63
100
AcDbEntity
  8
0
 48
0.25
100
AcDbLine
 10
380.0000056616326
 20
236.1005057492612
 30
0.0
 11
300.0000056616325
 21
236.1005057492612
 31
0.0
  0
LINE
  5
4AB0
330
4A63
100
AcDbEntity
  8
0
 48
0.25
100
AcDbLine
 10
366.3881328426612
 20
253.1005057492603
 30
0.0
 11
355.0000056616326
 21
253.1005057492603
 31
0.0
  0
ARC
  5
4AB1
330
4A63
100
AcDbEntity
  8
0
 48
0.25
100
AcDbCircle
 10
362.0000056616325
 20
243.1005057492602
 30
0.0
 40
5.000000000000316
100
AcDbArc
 50
0.0
 51
180.0
  0
LINE
  5
4AB2
330
4A63
100
AcDbEntity
  8
0
 48
0.25
100
AcDbLine
 10
357.0000056616326
 20
236.1005057492612
 30
0.0
 11
357.0000056616326
 21
243.1005057492602
 31
0.0
  0
LINE
  5
4AB3
330
4A63
100
AcDbEntity
  8
0
 48
0.25
100
AcDbLine
 10
367.0000056616325
 20
236.1005057492612
 30
0.0
 11
367.0000056616325
 21
241.1005057492612
 31
0.0
  0
LINE
  5
4AB4
330
4A63
100
AcDbEntity
  8
0
 48
0.25
100
AcDbLine
 10
367.0000056616325
 20
236.1005057492612
 30
0.0
 11
367.0000056616325
 21
243.1005057492602
 31
0.0
  0
ARC
  5
4AB5
330
4A63
100
AcDbEntity
  8
0
100
AcDbCircle
 10
355.1607199473467
 20
349.5887669379349
 30
0.0
 40
1.0
100
AcDbArc
 50
336.7558005554619
 51
40.63016605728511
  0
ARC
  5
4AB6
330
4A63
100
AcDbEntity
  8
0
100
AcDbCircle
 10
355.1607199473467
 20
362.6122445605874
 30
0.0
 40
1.0
100
AcDbArc
 50
319.3698339427149
 51
23.24419944453811
  0
LINE
  5
4AB7
330
4A63
100
AcDbEntity
  8
0
 48
0.25
100
AcDbLine
 10
323.6128640189979
 20
271.1620217083882
 30
0.0
 11
335.1139863082569
 21
324.1001844679094
 31
0.0
  0
LINE
  5
4AB8
330
4A63
100
AcDbEntity
  8
0
 48
0.25
100
AcDbLine
 10
308.7258592573176
 20
259.1620217169573
 30
0.0
 11
327.4240302077981
 21
345.2272581189717
 31
0.0
  0
LINE
  5
4AB9
330
4A63
100
AcDbEntity
  8
0
 48
10.0
100
AcDbLine
 10
348.1524848002257
 20
238.5005057492612
 30
0.0
 11
331.8475265230395
 21
238.5005057492612
 31
0.0
  0
ARC
  5
4ABA
330
4A63
100
AcDbEntity
  8
0
 48
10.0
100
AcDbCircle
 10
331.8475265230395
 20
237.7005057492616
 30
0.0
 40
0.8
100
AcDbArc
 50
90.0
 51
150.0000000000027
  0
LINE
  5
4ABB
330
4A63
100
AcDbEntity
  8
0
 48
0.25
100
AcDbLine
 10
330.0000056616325
 20
236.1005057492612
 30
0.0
 11
331.154706200012
 21
238.1005057492614
 31
0.0
  0
LINE
  5
4ABC
330
4A63
100
AcDbEntity
  8
0
 48
0.25
100
AcDbLine
 10
313.0000056616325
 20
236.1005057492612
 30
0.0
 11
313.0000056616325
 21
241.1005057492612
 31
0.0
  0
ARC
  5
4ABD
330
4A63
100
AcDbEntity
  8
0
 48
0.25
100
AcDbCircle
 10
348.1524848002257
 20
237.7005057492611
 30
0.0
 40
0.8
100
AcDbArc
 50
29.99999999999729
 51
90.0
  0
LINE
  5
4ABE
330
4A63
100
AcDbEntity
  8
0
 48
0.25
100
AcDbLine
 10
350.0000056616325
 20
236.1005057492612
 30
0.0
 11
348.8453051232534
 21
238.1005057492612
 31
0.0
  0
LINE
  5
4ABF
330
4A63
100
AcDbEntity
  8
0
 48
0.25
100
AcDbLine
 10
350.0000056616325
 20
248.1005057492603
 30
0.0
 11
350.0000056616325
 21
236.1005057492612
 31
0.0
  0
ARC
  5
4AC0
330
4A63
100
AcDbEntity
  8
0
 48
0.25
100
AcDbCircle
 10
325.0000056616325
 20
248.1005057492603
 30
0.0
 40
5.0
100
AcDbArc
 50
0.0
 51
90.0
  0
LINE
  5
4AC1
330
4A63
100
AcDbEntity
  8
0
 48
0.25
100
AcDbLine
 10
325.0000056616325
 20
253.1005057492603
 30
0.0
 11
313.611878480604
 21
253.1005057492603
 31
0.0
  0
LINE
  5
4AC2
330
4A63
100
AcDbEntity
  8
0
 48
0.25
100
AcDbLine
 10
330.0000056616325
 20
248.1005057492603
 30
0.0
 11
330.0000056616325
 21
236.1005057492612
 31
0.0
  0
ARC
  5
4AC3
330
4A63
100
AcDbEntity
  8
0
 48
0.25
100
AcDbCircle
 10
313.611878480604
 20
258.1005057492603
 30
0.0
 40
5.0
100
AcDbArc
 50
167.742640486227
 51
270.0
  0
ARC
  5
4AC4
330
4A63
100
AcDbEntity
  8
0
 48
0.25
100
AcDbCircle
 10
318.0000056616325
 20
243.100505749261
 30
0.0
 40
5.000000000000316
100
AcDbArc
 50
0.0
 51
180.0
  0
LINE
  5
4AC5
330
4A63
100
AcDbEntity
  8
0
 48
0.25
100
AcDbLine
 10
323.0000056616325
 20
236.1005057492612
 30
0.0
 11
323.0000056616325
 21
243.1005057492602
 31
0.0
  0
LINE
  5
4AC6
330
4A63
100
AcDbEntity
  8
0
 48
0.25
100
AcDbLine
 10
313.0000056616325
 20
236.1005057492612
 30
0.0
 11
313.0000056616325
 21
243.1005057492602
 31
0.0
  0
LINE
  5
4AC7
330
4A63
100
AcDbEntity
  8
0
 48
0.25
100
AcDbLine
 10
351.5011280134056
 20
265.1005057492603
 30
0.0
 11
328.4988832441466
 21
265.1005057492612
 31
0.0
  0
ARC
  5
4AC8
330
4A63
100
AcDbEntity
  8
0
 48
0.25
100
AcDbCircle
 10
328.4988832441466
 20
270.1005057492612
 30
0.0
 40
5.0
100
AcDbArc
 50
167.7426405867204
 51
270.0
  0
ARC
  5
4AC9
330
4A63
100
AcDbEntity
  8
0
100
AcDbCircle
 10
362.3480195620398
 20
347.3502900543654
 30
0.0
 40
10.0
100
AcDbArc
 50
191.7107337660008
 51
192.2573595137729
  0
ARC
  5
4ACA
330
4A63
100
AcDbEntity
  8
0
100
AcDbCircle
 10
340.0000056616325
 20
356.1005057492612
 30
0.0
 40
14.0
100
AcDbArc
 50
353.2331034585819
 51
6.766896541418128
  0
ARC
  5
4ACB
330
4A63
100
AcDbEntity
  8
0
100
AcDbCircle
 10
340.0000056616325
 20
356.1005057492612
 30
0.0
 40
14.0
100
AcDbArc
 50
173.2331034585819
 51
186.766896541418
  0
ARC
  5
4ACC
330
4A63
100
AcDbEntity
  8
0
100
AcDbCircle
 10
317.6519917612252
 20
347.3502900543654
 30
0.0
 40
10.0
100
AcDbArc
 50
347.7426404862271
 51
348.2892662339992
  0
ARC
  5
4ACD
330
4A63
100
AcDbEntity
  8
0
100
AcDbCircle
 10
340.0000056616325
 20
356.1005057492612
 30
0.0
 40
14.0
100
AcDbArc
 50
53.23310345857985
 51
66.76689654141465
  0
ARC
  5
4ACE
330
4A63
100
AcDbEntity
  8
0
100
AcDbCircle
 10
340.0000056616325
 20
356.1005057492612
 30
0.0
 40
14.0
100
AcDbArc
 50
113.2331034585853
 51
126.7668965414201
  0
ARC
  5
4ACF
330
4A63
100
AcDbEntity
  8
0
100
AcDbCircle
 10
317.250005661632
 20
356.1005057492612
 30
0.0
 40
9.0
100
AcDbArc
 50
319.3698339427099
 51
40.63016605729006
  0
CIRCLE
  5
4AD0
330
4A63
100
AcDbEntity
  8
0
100
AcDbCircle
 10
340.0000056616325
 20
356.1005057492612
 30
0.0
 40
7.5
  0
ARC
  5
4AD1
330
4A63
100
AcDbEntity
  8
0
100
AcDbCircle
 10
324.8392913759183
 20
349.5887669379349
 30
0.0
 40
1.0
100
AcDbArc
 50
139.3698339427148
 51
203.2441994445381
  0
ARC
  5
4AD2
330
4A63
100
AcDbEntity
  8
0
100
AcDbCircle
 10
326.7803172853576
 20
346.226811443978
 30
0.0
 40
1.0
100
AcDbArc
 50
216.7558005554625
 51
280.6301660573059
  0
ARC
  5
4AD3
330
4A63
100
AcDbEntity
  8
0
100
AcDbCircle
 10
338.0589797521932
 20
339.7150726326517
 30
0.0
 40
1.0
100
AcDbArc
 50
199.3698339427165
 51
263.2441994445481
  0
ARC
  5
4AD4
330
4A63
100
AcDbEntity
  8
0
100
AcDbCircle
 10
341.9410315710718
 20
339.7150726326517
 30
0.0
 40
1.0
100
AcDbArc
 50
276.7558005554519
 51
340.6301660572836
  0
ARC
  5
4AD5
330
4A63
100
AcDbEntity
  8
0
100
AcDbCircle
 10
353.2196940379074
 20
346.226811443978
 30
0.0
 40
1.0
100
AcDbArc
 50
259.3698339426941
 51
323.2441994445375
  0
ARC
  5
4AD6
330
4A63
100
AcDbEntity
  8
0
100
AcDbCircle
 10
340.0000056616325
 20
356.1005057492612
 30
0.0
 40
17.5
100
AcDbArc
 50
263.2441994445481
 51
276.7558005554519
  0
ARC
  5
4AD7
330
4A63
100
AcDbEntity
  8
0
100
AcDbCircle
 10
328.6250056616325
 20
336.3984278131647
 30
0.0
 40
9.0
100
AcDbArc
 50
19.36983394270603
 51
100.6301660572931
  0
ARC
  5
4AD8
330
4A63
100
AcDbEntity
  8
0
100
AcDbCircle
 10
351.3750056616325
 20
336.3984278131647
 30
0.0
 40
9.0
100
AcDbArc
 50
79.3698339427069
 51
160.6301660572939
  0
ARC
  5
4AD9
330
4A63
100
AcDbEntity
  8
0
100
AcDbCircle
 10
340.0000056616325
 20
356.1005057492612
 30
0.0
 40
17.5
100
AcDbArc
 50
203.2441994445441
 51
216.7558005554573
  0
ARC
  5
4ADA
330
4A63
100
AcDbEntity
  8
0
100
AcDbCircle
 10
353.2196940379074
 20
365.9742000545443
 30
0.0
 40
1.0
100
AcDbArc
 50
36.75580055546252
 51
100.6301660573059
  0
ARC
  5
4ADB
330
4A63
100
AcDbEntity
  8
0
100
AcDbCircle
 10
341.9410315710718
 20
372.4859388658706
 30
0.0
 40
1.0
100
AcDbArc
 50
19.3698339427165
 51
83.24419944454811
  0
ARC
  5
4ADC
330
4A63
100
AcDbEntity
  8
0
100
AcDbCircle
 10
338.0589797521932
 20
372.4859388658706
 30
0.0
 40
1.0
100
AcDbArc
 50
96.75580055545188
 51
160.6301660572835
  0
ARC
  5
4ADD
330
4A63
100
AcDbEntity
  8
0
100
AcDbCircle
 10
326.7803172853576
 20
365.9742000545443
 30
0.0
 40
1.0
100
AcDbArc
 50
79.36983394269408
 51
143.2441994445374
  0
ARC
  5
4ADE
330
4A63
100
AcDbEntity
  8
0
100
AcDbCircle
 10
324.8392913759183
 20
362.6122445605874
 30
0.0
 40
1.0
100
AcDbArc
 50
156.7558005554619
 51
220.6301660572851
  0
ARC
  5
4ADF
330
4A63
100
AcDbEntity
  8
0
100
AcDbCircle
 10
340.0000056616325
 20
356.1005057492612
 30
0.0
 40
17.5
100
AcDbArc
 50
143.2441994445427
 51
156.7558005554559
  0
ARC
  5
4AE0
330
4A63
100
AcDbEntity
  8
0
100
AcDbCircle
 10
340.0000056616325
 20
356.1005057492612
 30
0.0
 40
17.5
100
AcDbArc
 50
83.24419944454811
 51
96.75580055545188
  0
ARC
  5
4AE1
330
4A63
100
AcDbEntity
  8
0
100
AcDbCircle
 10
351.3750056616325
 20
375.8025836853576
 30
0.0
 40
9.0
100
AcDbArc
 50
199.3698339427059
 51
280.6301660572931
  0
ARC
  5
4AE2
330
4A63
100
AcDbEntity
  8
0
100
AcDbCircle
 10
328.6250056616325
 20
375.8025836853576
 30
0.0
 40
9.0
100
AcDbArc
 50
259.3698339427069
 51
340.630166057294
  0
CIRCLE
  5
4AE3
330
4A63
100
AcDbEntity
  8
0
100
AcDbCircle
 10
340.0000056616325
 20
356.1005057492612
 30
0.0
 40
5.0
  0
CIRCLE
  5
4AE4
330
4A63
100
AcDbEntity
  8
0
100
AcDbCircle
 10
340.0000056616325
 20
356.1005057492612
 30
0.0
 40
4.5
  0
ARC
  5
4AE5
330
4A63
100
AcDbEntity
  8
0
 48
0.25
100
AcDbCircle
 10
340.0000055315429
 20
323.0386685002122
 30
0.0
 40
5.0
100
AcDbArc
 50
12.25735951377297
 51
167.742640486227
  0
ARC
  5
4AE6
330
4A63
100
AcDbEntity
  8
0
 48
0.25
100
AcDbCircle
 10
305.000005661633
 20
346.100505749263
 30
0.0
 40
1.0
100
AcDbArc
 50
180.0
 51
270.0
  0
ARC
  5
4AE7
330
4A63
100
AcDbEntity
  8
0
 48
0.25
100
AcDbCircle
 10
304.0000056616329
 20
361.1005057492612
 30
0.0
 40
1.0
100
AcDbArc
 50
180.0
 51
270.0
  0
LINE
  5
4AE8
330
4A63
100
AcDbEntity
  8
0
 48
0.25
100
AcDbLine
 10
304.0000056616329
 20
360.1005057492612
 30
0.0
 11
304.0000056616329
 21
346.100505749263
 31
0.0
  0
LINE
  5
4AE9
330
4A63
100
AcDbEntity
  8
0
 48
0.25
100
AcDbLine
 10
305.000005661633
 20
345.100505749263
 30
0.0
 11
305.000005661633
 21
345.100505749263
 31
0.0
  0
LINE
  5
4AEA
330
4A63
100
AcDbEntity
  8
0
100
AcDbLine
 10
318.6500056050706
 20
236.1005057420234
 30
0.0
 11
361.3500057181947
 21
236.1005057564991
 31
0.0
  0
LINE
  5
4AEB
330
4A63
100
AcDbEntity
  8
0
 48
0.25
100
AcDbLine
 10
356.3871472348298
 20
271.1620217255267
 30
0.0
 11
344.8860247548298
 21
324.1001844679094
 31
0.0
  0
ARC
  5
4AEC
330
4A63
100
AcDbEntity
  8
0
 48
0.25
100
AcDbCircle
 10
355.0000056616326
 20
248.1005057492603
 30
0.0
 40
5.0
100
AcDbArc
 50
90.0
 51
180.0
  0
ARC
  5
4AED
330
4A63
100
AcDbEntity
  8
0
100
AcDbCircle
 10
362.7500056616328
 20
356.1005057492612
 30
0.0
 40
9.0
100
AcDbArc
 50
139.3698339427099
 51
220.6301660572901
  0
ARC
  5
4AEE
330
4A63
100
AcDbEntity
  8
0
100
AcDbCircle
 10
340.0000056616325
 20
356.1005057492612
 30
0.0
 40
17.5
100
AcDbArc
 50
323.2441994445427
 51
336.7558005554558
  0
ARC
  5
4AEF
330
4A63
100
AcDbEntity
  8
0
100
AcDbCircle
 10
340.0000056616325
 20
356.1005057492612
 30
0.0
 40
17.5
100
AcDbArc
 50
23.2441994445441
 51
36.7558005554573
  0
ARC
  5
4AF0
330
4A63
100
AcDbEntity
  8
0
 48
0.25
100
AcDbCircle
 10
340.0000056616325
 20
356.1005057492612
 30
0.0
 40
20.0
100
AcDbArc
 50
14.76379178283055
 51
165.2362082171694
  0
LINE
  5
4AF1
330
4A63
100
AcDbEntity
  8
0
100
AcDbLine
 10
300.0000056616325
 20
236.1005057492612
 30
0.0
 11
300.0000056616325
 21
260.7317322130109
 31
0.0
  0
ARC
  5
4AF2
330
4A63
100
AcDbEntity
  8
0
 48
0.25
100
AcDbCircle
 10
350.0000056616325
 20
260.7317322130111
 30
0.0
 40
50.0
100
AcDbArc
 50
167.742640486227
 51
180.0
  0
LINE
  5
4AF3
330
4A63
100
AcDbEntity
  8
0
 48
0.25
100
AcDbLine
 10
301.1398134287681
 20
271.3468918899798
 30
0.0
 11
320.6603131586555
 21
361.197200157434
 31
0.0
  0
LINE
  5
4AF4
330
4A63
100
AcDbEntity
  8
0
 48
0.25
100
AcDbLine
 10
300.0000056616325
 20
236.1005057492612
 30
0.0
 11
357.3850039699894
 21
236.1005057492612
 31
0.0
  0
LINE
  5
4AF5
330
4A63
100
AcDbEntity
  8
0
 48
0.25
100
AcDbLine
 10
373.800032738375
 20
333.6005057492635
 30
0.0
 11
373.800032738375
 21
294.638170568961
 31
0.0
  0
LINE
  5
4AF6
330
4A63
100
AcDbEntity
  8
0
100
AcDbLine
 10
380.0000056616326
 20
236.1005057492612
 30
0.0
 11
380.0000056616326
 21
260.7317322130107
 31
0.0
  0
ARC
  5
4AF7
330
4A63
100
AcDbEntity
  8
0
 48
0.25
100
AcDbCircle
 10
394.800032738375
 20
310.4511305967512
 30
0.0
 40
5.0
100
AcDbArc
 50
0.0
 51
90.0
  0
LINE
  5
4AF8
330
4A63
100
AcDbEntity
  8
0
 48
0.25
100
AcDbLine
 10
399.800032738375
 20
304.1779653883263
 30
0.0
 11
386.800032738375
 21
304.1779653883268
 31
0.0
  0
LINE
  5
4AF9
330
4A63
100
AcDbEntity
  8
0
 48
0.25
100
AcDbLine
 10
399.800032738375
 20
307.7779653883267
 30
0.0
 11
386.800032738375
 21
307.7779653883263
 31
0.0
  0
LINE
  5
4AFA
330
4A63
100
AcDbEntity
  8
0
 48
0.25
100
AcDbLine
 10
399.800032738375
 20
305.1779653883264
 30
0.0
 11
386.800032738375
 21
305.1779653883268
 31
0.0
  0
LINE
  5
4AFB
330
4A63
100
AcDbEntity
  8
0
 48
0.25
100
AcDbLine
 10
399.800032738375
 20
306.7779653883267
 30
0.0
 11
386.800032738375
 21
306.7779653883263
 31
0.0
  0
LINE
  5
4AFC
330
4A63
100
AcDbEntity
  8
0
 48
0.25
100
AcDbLine
 10
399.800032738375
 20
288.4242958051764
 30
0.0
 11
386.800032738375
 21
288.4242958051759
 31
0.0
  0
LINE
  5
4AFD
330
4A63
100
AcDbEntity
  8
0
 48
0.25
100
AcDbLine
 10
381.800032738375
 20
288.4242958051759
 30
0.0
 11
375.800032738375
 21
288.4242958051759
 31
0.0
  0
LINE
  5
4AFE
330
4A63
100
AcDbEntity
  8
0
 48
0.25
100
AcDbLine
 10
381.800032738375
 20
304.1779653883268
 30
0.0
 11
375.800032738375
 21
304.1779653883263
 31
0.0
  0
LINE
  5
4AFF
330
4A63
100
AcDbEntity
  8
0
 48
0.25
100
AcDbLine
 10
381.800032738375
 20
307.7779653883267
 30
0.0
 11
375.800032738375
 21
307.7779653883272
 31
0.0
  0
LINE
  5
4B00
330
4A63
100
AcDbEntity
  8
0
 48
0.25
100
AcDbLine
 10
381.800032738375
 20
309.5011305967513
 30
0.0
 11
384.800032738375
 21
309.5011305967513
 31
0.0
  0
LINE
  5
4B01
330
4A63
100
AcDbEntity
  8
0
 48
0.25
100
AcDbLine
 10
381.800032738375
 20
307.7011305967512
 30
0.0
 11
384.800032738375
 21
307.7011305967512
 31
0.0
  0
LINE
  5
4B02
330
4A63
100
AcDbEntity
  8
0
 48
0.25
100
AcDbLine
 10
373.800032738375
 20
309.5011305967513
 30
0.0
 11
375.800032738375
 21
309.5011305967513
 31
0.0
  0
LINE
  5
4B03
330
4A63
100
AcDbEntity
  8
0
 48
0.25
100
AcDbLine
 10
373.800032738375
 20
307.7011305967508
 30
0.0
 11
375.800032738375
 21
307.7011305967508
 31
0.0
  0
LINE
  5
4B04
330
4A63
100
AcDbEntity
  8
0
 48
0.25
100
AcDbLine
 10
394.800032738375
 20
315.4511305967512
 30
0.0
 11
384.800032738375
 21
315.4511305967512
 31
0.0
  0
LINE
  5
4B05
330
4A63
100
AcDbEntity
  8
0
 48
0.25
100
AcDbLine
 10
381.800032738375
 20
315.4511305967508
 30
0.0
 11
375.800032738375
 21
315.4511305967512
 31
0.0
  0
LINE
  5
4B06
330
4A63
100
AcDbEntity
  8
0
 48
0.25
100
AcDbLine
 10
375.800032738375
 20
315.4511305967512
 30
0.0
 11
373.800032738375
 21
315.4511305967512
 31
0.0
  0
ARC
  5
4B07
330
4A63
100
AcDbEntity
  8
0
 48
0.25
100
AcDbCircle
 10
330.0000056616325
 20
260.7317322130107
 30
0.0
 40
50.0
100
AcDbArc
 50
0.0
 51
12.25735951377297
  0
LINE
  5
4B08
330
4A63
100
AcDbEntity
  8
0
 48
0.25
100
AcDbLine
 10
381.800032738375
 20
277.1511305967511
 30
0.0
 11
377.5991934272613
 21
277.1511305967511
 31
0.0
  0
ARC
  5
4B09
330
4A63
100
AcDbEntity
  8
0
 48
0.25
100
AcDbCircle
 10
394.800032738375
 20
282.151130596751
 30
0.0
 40
5.0
100
AcDbArc
 50
270.0
 51
0.0
  0
LINE
  5
4B0A
330
4A63
100
AcDbEntity
  8
0
 48
0.25
100
AcDbLine
 10
399.800032738375
 20
285.824295805176
 30
0.0
 11
386.800032738375
 21
285.824295805176
 31
0.0
  0
LINE
  5
4B0B
330
4A63
100
AcDbEntity
  8
0
 48
0.25
100
AcDbLine
 10
399.800032738375
 20
287.4242958051764
 30
0.0
 11
386.800032738375
 21
287.4242958051759
 31
0.0
  0
LINE
  5
4B0C
330
4A63
100
AcDbEntity
  8
0
 48
0.25
100
AcDbLine
 10
399.800032738375
 20
284.824295805176
 30
0.0
 11
386.800032738375
 21
284.824295805176
 31
0.0
  0
LINE
  5
4B0D
330
4A63
100
AcDbEntity
  8
0
 48
0.25
100
AcDbLine
 10
381.800032738375
 20
284.8242958051752
 30
0.0
 11
375.800032738375
 21
284.8242958051756
 31
0.0
  0
LINE
  5
4B0E
330
4A63
100
AcDbEntity
  8
0
 48
0.25
100
AcDbLine
 10
384.800032738375
 20
277.1511305967511
 30
0.0
 11
394.800032738375
 21
277.1511305967511
 31
0.0
  0
LINE
  5
4B0F
330
4A63
100
AcDbEntity
  8
0
 48
0.25
100
AcDbLine
 10
381.800032738375
 20
284.9011305967506
 30
0.0
 11
384.800032738375
 21
284.901130596751
 31
0.0
  0
LINE
  5
4B10
330
4A63
100
AcDbEntity
  8
0
 48
0.25
100
AcDbLine
 10
381.800032738375
 20
283.1011305967509
 30
0.0
 11
384.800032738375
 21
283.1011305967513
 31
0.0
  0
LINE
  5
4B11
330
4A63
100
AcDbEntity
  8
0
 48
0.25
100
AcDbLine
 10
375.800032738375
 20
315.4511305967512
 30
0.0
 11
375.800032738375
 21
285.4324320365703
 31
0.0
  0
LINE
  5
4B12
330
4A63
100
AcDbEntity
  8
0
 48
0.25
100
AcDbLine
 10
384.800032738375
 20
315.4511305967512
 30
0.0
 11
384.800032738375
 21
277.1511305967511
 31
0.0
  0
LINE
  5
4B13
330
4A63
100
AcDbEntity
  8
0
 48
0.25
100
AcDbLine
 10
381.800032738375
 20
315.4511305967512
 30
0.0
 11
381.8000327383744
 21
277.1511305967511
 31
0.0
  0
LINE
  5
4B14
330
4A63
100
AcDbEntity
  8
0
 48
0.25
100
AcDbLine
 10
386.800032738375
 20
315.4511305967512
 30
0.0
 11
386.800032738375
 21
277.1511305967511
 31
0.0
  0
LINE
  5
4B15
330
4A63
100
AcDbEntity
  8
0
 48
0.25
100
AcDbLine
 10
375.800032738375
 20
315.4511305967512
 30
0.0
 11
375.8000327383754
 21
285.4324320365709
 31
0.0
  0
LINE
  5
4B16
330
4A63
100
AcDbEntity
  8
0
 48
0.25
100
AcDbLine
 10
399.800032738375
 20
310.4511305967512
 30
0.0
 11
399.800032738375
 21
282.151130596751
 31
0.0
  0
LINE
  5
4B17
330
4A63
100
AcDbEntity
  8
0
100
AcDbLine
 10
383.8000327383754
 20
408.3966307945432
 30
0.0
 11
383.8000327383749
 21
367.5546205000385
 31
0.0
  0
ARC
  5
4B18
330
4A63
100
AcDbEntity
  8
0
 48
0.25
100
AcDbCircle
 10
378.800032738375
 20
367.5546205000385
 30
0.0
 40
5.0
100
AcDbArc
 50
270.0
 51
0.0
  0
LINE
  5
4B19
330
4A63
100
AcDbEntity
  8
0
 48
0.25
100
AcDbLine
 10
378.800032738375
 20
362.5546205000385
 30
0.0
 11
378.800032738375
 21
362.5546205000385
 31
0.0
  0
ARC
  5
4B1A
330
4A63
100
AcDbEntity
  8
0
 48
0.25
100
AcDbCircle
 10
378.800032738375
 20
357.5546205000386
 30
0.0
 40
5.0
100
AcDbArc
 50
90.0
 51
180.0
  0
LINE
  5
4B1B
330
4A63
100
AcDbEntity
  8
0
 48
0.25
100
AcDbLine
 10
373.800032738375
 20
365.5546205000385
 30
0.0
 11
373.800032738375
 21
333.6005057492635
 31
0.0
  0
LINE
  5
4B1C
330
4A63
100
AcDbEntity
  8
0
100
AcDbLine
 10
365.0000327383744
 20
456.6005057492576
 30
0.0
 11
367.5087589415937
 21
456.5567157704946
 31
0.0
  0
LINE
  5
4B1D
330
4A63
100
AcDbEntity
  8
0
 48
0.25
100
AcDbLine
 10
358.6017692000039
 20
459.1005057492603
 30
0.0
 11
364.2000327383751
 21
459.1005057492603
 31
0.0
  0
POINT
  5
4B1E
330
4A63
100
AcDbEntity
  8
0
100
AcDbPoint
 10
365.0000327383744
 20
456.6005057492576
 30
0.0
  0
ARC
  5
4B1F
330
4A63
100
AcDbEntity
  8
0
 48
0.25
100
AcDbCircle
 10
364.2000327383747
 20
458.3005057492592
 30
0.0
 40
0.8
100
AcDbArc
 50
0.0
 51
90.0
  0
LINE
  5
4B20
330
4A63
100
AcDbEntity
  8
0
 48
0.25
100
AcDbLine
 10
365.0000327383748
 20
458.30050574926
 30
0.0
 11
365.0000327383748
 21
440.1005057492607
 31
0.0
  0
ARC
  5
4B21
330
4A63
100
AcDbEntity
  8
0
 48
0.25
100
AcDbCircle
 10
364.2000327383747
 20
458.30050574926
 30
0.0
 40
0.8
100
AcDbArc
 50
0.0
 51
90.0
  0
ARC
  5
4B22
330
4A63
100
AcDbEntity
  8
0
 48
0.25
100
AcDbCircle
 10
305.000005661633
 20
426.4005057492603
 30
0.0
 40
2.0
100
AcDbArc
 50
90.0
 51
180.0
  0
LINE
  5
4B23
330
4A63
100
AcDbEntity
  8
0
 48
0.25
100
AcDbLine
 10
321.0000056616325
 20
459.1005057492603
 30
0.0
 11
326.5982692000041
 21
459.1005057492603
 31
0.0
  0
LINE
  5
4B24
330
4A63
100
AcDbEntity
  8
0
 48
0.25
100
AcDbLine
 10
358.6017692000039
 20
459.1005057492603
 30
0.0
 11
326.6017692000039
 21
459.1005057492603
 31
0.0
  0
ARC
  5
4B25
330
4A63
100
AcDbEntity
  8
0
 48
0.25
100
AcDbCircle
 10
321.0000056616325
 20
443.1005057492604
 30
0.0
 40
16.0
100
AcDbArc
 50
90.0
 51
180.0
  0
ARC
  5
4B26
330
4A63
100
AcDbEntity
  8
0
 48
0.25
100
AcDbCircle
 10
378.800032738375
 20
427.0005057492611
 30
0.0
 40
5.0
100
AcDbArc
 50
0.0
 51
90.0
  0
LINE
  5
4B27
330
4A63
100
AcDbEntity
  8
0
 48
0.25
100
AcDbLine
 10
378.8000327383754
 20
432.0005057492608
 30
0.0
 11
378.800032738375
 21
432.0005057492614
 31
0.0
  0
ARC
  5
4B28
330
4A63
100
AcDbEntity
  8
0
 48
0.25
100
AcDbCircle
 10
378.8000327383754
 20
437.0005057492608
 30
0.0
 40
5.0
100
AcDbArc
 50
180.0
 51
270.0
  0
ARC
  5
4B29
330
4A63
100
AcDbEntity
  8
0
100
AcDbCircle
 10
367.5000327383752
 20
456.0567919229161
 30
0.0
 40
0.5
100
AcDbArc
 50
0.0000000000130276
 51
89.0000000000243
  0
LINE
  5
4B2A
330
4A63
100
AcDbEntity
  8
0
100
AcDbLine
 10
368.0000327383752
 20
455.1005057492576
 30
0.0
 11
368.0000327383752
 21
456.0567919229161
 31
0.0
  0
LINE
  5
4B2B
330
4A63
100
AcDbEntity
  8
0
 48
0.25
100
AcDbLine
 10
368.0000327383752
 20
455.0005057492604
 30
0.0
 11
373.0000327383752
 21
455.0005057492604
 31
0.0
  0
ARC
  5
4B2C
330
4A63
100
AcDbEntity
  8
0
 48
0.25
100
AcDbCircle
 10
373.0000327383752
 20
454.2005057492606
 30
0.0
 40
0.8
100
AcDbArc
 50
0.0
 51
90.0
  0
LINE
  5
4B2D
330
4A63
100
AcDbEntity
  8
0
100
AcDbLine
 10
320.0000056616325
 20
236.1005057492612
 30
0.0
 11
360.0000056616323
 21
236.1005057492613
 31
0.0
  0
LINE
  5
4B2E
330
4A63
100
AcDbEntity
  8
0
100
AcDbLine
 10
-178.0
 20
-82.49999999999728
 30
0.0
 11
-156.0
 21
-82.49999999999728
 31
0.0
  0
ARC
  5
4B2F
330
4A63
100
AcDbEntity
  8
0
100
AcDbCircle
 10
-179.0
 20
-101.4999999999973
 30
0.0
 40
2.0
100
AcDbArc
 50
180.0
 51
270.0
  0
LINE
  5
4B30
330
4A63
100
AcDbEntity
  8
0
100
AcDbLine
 10
-178.0
 20
-82.49999999999728
 30
0.0
 11
-181.0
 21
-86.49999999999733
 31
0.0
  0
LINE
  5
4B31
330
4A63
100
AcDbEntity
  8
0
100
AcDbLine
 10
-195.0113564723
 20
-86.49999999999733
 30
0.0
 11
-203.5893841543
 21
-90.49999999999732
 31
0.0
  0
LINE
  5
4B32
330
4A63
100
AcDbEntity
  8
0
100
AcDbLine
 10
-181.0
 20
-98.49999999999731
 30
0.0
 11
-181.0
 21
-101.4999999999973
 31
0.0
  0
LINE
  5
4B33
330
4A63
100
AcDbEntity
  8
0
100
AcDbLine
 10
-181.0
 20
-101.4999999999973
 30
0.0
 11
-153.0
 21
-101.4999999999973
 31
0.0
  0
ARC
  5
4B34
330
4A63
100
AcDbEntity
  8
0
100
AcDbCircle
 10
-155.0
 20
-101.4999999999973
 30
0.0
 40
2.0
100
AcDbArc
 50
270.0
 51
0.0
  0
LINE
  5
4B35
330
4A63
100
AcDbEntity
  8
0
100
AcDbLine
 10
-153.0
 20
-86.49999999999733
 30
0.0
 11
-156.0
 21
-82.49999999999728
 31
0.0
  0
LINE
  5
4B36
330
4A63
100
AcDbEntity
  8
0
100
AcDbLine
 10
-130.4106158457
 20
-90.49999999999732
 30
0.0
 11
-138.9886435277
 21
-86.49999999999733
 31
0.0
  0
LINE
  5
4B37
330
4A63
100
AcDbEntity
  8
0
100
AcDbLine
 10
-203.5893841543
 20
-90.49999999999732
 30
0.0
 11
-205.0
 21
-98.49999999999731
 31
0.0
  0
LINE
  5
4B38
330
4A63
100
AcDbEntity
  8
0
100
AcDbLine
 10
-129.0
 20
-98.49999999999731
 30
0.0
 11
-130.4106158457
 21
-90.49999999999732
 31
0.0
  0
LINE
  5
4B39
330
4A63
100
AcDbEntity
  8
0
100
AcDbLine
 10
-153.0
 20
-101.4999999999973
 30
0.0
 11
-153.0
 21
-98.49999999999731
 31
0.0
  0
LINE
  5
4B3A
330
4A63
100
AcDbEntity
  8
0
100
AcDbLine
 10
-203.5893841543
 20
-90.49999999999732
 30
0.0
 11
-203.2757400568
 21
-90.49999999999732
 31
0.0
  0
LINE
  5
4B3B
330
4A63
100
AcDbEntity
  8
0
100
AcDbLine
 10
-130.4106158457
 20
-90.49999999999732
 30
0.0
 11
-130.7242599431999
 21
-90.49999999999732
 31
0.0
  0
LINE
  5
4B3C
330
4A63
100
AcDbEntity
  8
0
100
AcDbLine
 10
-197.433619873
 20
-98.49999999999731
 30
0.0
 11
-204.6101076964001
 21
-98.49999999999731
 31
0.0
  0
LINE
  5
4B3D
330
4A63
100
AcDbEntity
  8
0
100
AcDbLine
 10
-129.3898923036
 20
-98.49999999999731
 30
0.0
 11
-129.0
 21
-98.49999999999731
 31
0.0
  0
LINE
  5
4B3E
330
4A63
100
AcDbEntity
  8
0
100
AcDbLine
 10
-144.2448954864
 20
-98.49999999999731
 30
0.0
 11
-136.566380127
 21
-98.49999999999731
 31
0.0
  0
ARC
  5
4B3F
330
4A63
100
AcDbEntity
  8
0
100
AcDbCircle
 10
-180.5255071176
 20
-114.7494684422972
 30
0.0
 40
25.7781087156
100
AcDbArc
 50
70.16945679560278
 51
109.8305432043972
  0
SPLINE
  5
4B40
330
4A63
100
AcDbEntity
  8
0
100
AcDbSpline
210
0.0
220
0.0
230
1.0
 70
     8
 71
     3
 72
    14
 73
    10
 74
     0
 42
0.0000000001
 43
0.0000000001
 40
0.0
 40
0.0
 40
0.0
 40
0.0
 40
0.25
 40
0.25
 40
0.5
 40
0.5
 40
0.75
 40
0.75
 40
1.0
 40
1.0
 40
1.0
 40
1.0
 10
-196.0311853857274
 20
-90.49999999994776
 30
0.0
 10
-195.9903567347672
 20
-90.03181383075085
 30
0.0
 10
-196.1076358139492
 20
-89.65109031610149
 30
0.0
 10
-196.6866652488113
 20
-89.1200265377933
 30
0.0
 10
-197.1565203433796
 20
-88.97581844341178
 30
0.0
 10
-198.4110094891011
 20
-88.97567985391553
 30
0.0
 10
-199.2136915619056
 20
-89.11927895489242
 30
0.0
 10
-201.071030494249
 20
-89.65071757801359
 30
0.0
 10
-202.1179483415565
 20
-90.03176104552975
 30
0.0
 10
-203.2757400568327
 20
-90.49999999994776
 30
0.0
  0
LINE
  5
4B41
330
4A63
100
AcDbEntity
  8
0
100
AcDbLine
 10
-129.3898923036
 20
-98.49999999999731
 30
0.0
 11
-136.566380127
 21
-98.49999999999731
 31
0.0
  0
SPLINE
  5
4B42
330
4A63
100
AcDbEntity
  8
0
100
AcDbSpline
210
0.0
220
0.0
230
1.0
 70
     8
 71
     3
 72
    14
 73
    10
 74
     0
 42
0.0000000001
 43
0.0000000001
 40
0.0
 40
0.0
 40
0.0
 40
0.0
 40
0.2500000000000001
 40
0.2500000000000001
 40
0.5000000000000001
 40
0.5000000000000001
 40
0.75
 40
0.75
 40
1.0
 40
1.0
 40
1.0
 40
1.0
 10
-130.7242599431729
 20
-90.49999999994776
 30
0.0
 10
-131.8819211389975
 20
-90.03181383075085
 30
0.0
 10
-132.928070354362
 20
-89.65109031610149
 30
0.0
 10
-134.7832930006745
 20
-89.1200265377933
 30
0.0
 10
-135.5878845343375
 20
-88.97581844341178
 30
0.0
 10
-136.8426987334552
 20
-88.97567985391553
 30
0.0
 10
-137.3120948613427
 20
-89.11927895489242
 30
0.0
 10
-137.8923816733332
 20
-89.65071757801359
 30
0.0
 10
-138.0096478684272
 20
-90.03176104552975
 30
0.0
 10
-137.9688146142782
 20
-90.49999999994776
 30
0.0
  0
ARC
  5
4B43
330
4A63
100
AcDbEntity
  8
0
100
AcDbCircle
 10
-153.4744928824
 20
-114.7488843594972
 30
0.0
 40
25.7775592697
100
AcDbArc
 50
70.16901638119714
 51
109.8309836188028
  0
ARC
  5
4B44
330
4A63
100
AcDbEntity
  8
0
100
AcDbCircle
 10
-3236.0365122339
 20
-281.7885007810971
 30
0.0
 40
3097.2197332299
100
AcDbArc
 50
3.392654614601274
 51
3.540918781501575
  0
LINE
  5
4B45
330
4A63
100
AcDbEntity
  8
0
100
AcDbLine
 10
-144.2448954864
 20
-98.49999999999731
 30
0.0
 11
-161.5704697199
 21
-98.49999999999731
 31
0.0
  0
ARC
  5
4B46
330
4A63
100
AcDbEntity
  8
0
100
AcDbCircle
 10
-7861.637638713702
 20
1249.190930617303
 30
0.0
 40
7781.792472617199
100
AcDbArc
 50
350.0269374223027
 51
350.0867380565015
  0
LINE
  5
4B47
330
4A63
100
AcDbEntity
  8
0
100
AcDbLine
 10
-204.6101076964001
 20
-98.49999999999731
 30
0.0
 11
-203.2757400568
 21
-90.49999999999732
 31
0.0
  0
ARC
  5
4B48
330
4A63
100
AcDbEntity
  8
0
100
AcDbCircle
 10
-7773.313797475201
 20
-1369.364303771697
 30
0.0
 40
7748.8495111633
100
AcDbArc
 50
9.439544516697573
 51
9.499514528300291
  0
LINE
  5
4B49
330
4A63
100
AcDbEntity
  8
0
100
AcDbLine
 10
-189.7551045136
 20
-98.49999999999731
 30
0.0
 11
-189.2704581878
 21
-90.49999999999732
 31
0.0
  0
LINE
  5
4B4A
330
4A63
100
AcDbEntity
  8
0
100
AcDbLine
 10
-136.566380127
 20
-98.49999999999731
 30
0.0
 11
-137.9688146143001
 21
-90.49999999999732
 31
0.0
  0
LINE
  5
4B4B
330
4A63
100
AcDbEntity
  8
0
100
AcDbLine
 10
-137.9688146143001
 20
-90.49999999999732
 30
0.0
 11
-144.7295418122001
 21
-90.49999999999732
 31
0.0
  0
LINE
  5
4B4C
330
4A63
100
AcDbEntity
  8
0
100
AcDbLine
 10
-162.2194439526
 20
-90.49999999999732
 30
0.0
 11
-171.7805560474
 21
-90.49999999999732
 31
0.0
  0
LINE
  5
4B4D
330
4A63
100
AcDbEntity
  8
0
100
AcDbLine
 10
-189.2704581878
 20
-90.49999999999732
 30
0.0
 11
-196.0311853857
 21
-90.49999999999732
 31
0.0
  0
ARC
  5
4B4E
330
4A63
100
AcDbEntity
  8
0
100
AcDbCircle
 10
-3272.621210813301
 20
157.0193875966029
 30
0.0
 40
3110.7038774987
100
AcDbArc
 50
355.2883022971972
 51
355.4361376759022
  0
LINE
  5
4B4F
330
4A63
100
AcDbEntity
  8
0
100
AcDbLine
 10
-172.4295302801
 20
-98.49999999999731
 30
0.0
 11
-161.5704697199
 21
-98.49999999999731
 31
0.0
  0
LINE
  5
4B50
330
4A63
100
AcDbEntity
  8
0
100
AcDbLine
 10
-172.4295302801
 20
-98.49999999999731
 30
0.0
 11
-189.7551045136
 21
-98.49999999999731
 31
0.0
  0
LINE
  5
4B51
330
4A63
100
AcDbEntity
  8
0
100
AcDbLine
 10
-197.433619873
 20
-98.49999999999731
 30
0.0
 11
-189.7551045136
 21
-98.49999999999731
 31
0.0
  0
LINE
  5
4B52
330
4A63
100
AcDbEntity
  8
0
100
AcDbLine
 10
-205.0
 20
-98.49999999999731
 30
0.0
 11
-204.6101076964001
 21
-98.49999999999731
 31
0.0
  0
LINE
  5
4B53
330
4A63
100
AcDbEntity
  8
0
100
AcDbLine
 10
-195.0113564723
 20
-86.49999999999733
 30
0.0
 11
-138.9886435277
 21
-86.49999999999733
 31
0.0
  0
LINE
  5
4B54
330
4A63
100
AcDbEntity
  8
0
100
AcDbLine
 10
-179.0
 20
-103.4999999999973
 30
0.0
 11
-155.0
 21
-103.4999999999973
 31
0.0
  0
LINE
  5
4B55
330
4A63
100
AcDbEntity
  8
0
100
AcDbLine
 10
-161.5704697199
 20
-98.49999999999731
 30
0.0
 11
-162.2194439526
 21
-90.49999999999732
 31
0.0
  0
LINE
  5
4B56
330
4A63
100
AcDbEntity
  8
0
100
AcDbLine
 10
-175.9999999999963
 20
-74.49999999999725
 30
0.0
 11
-157.9999999999963
 21
-74.49999999999725
 31
0.0
  0
LINE
  5
4B57
330
4A63
100
AcDbEntity
  8
0
100
AcDbLine
 10
-175.9999999999963
 20
-72.49999999999726
 30
0.0
 11
-175.9999999999963
 21
-74.49999999999725
 31
0.0
  0
LINE
  5
4B58
330
4A63
100
AcDbEntity
  8
0
100
AcDbLine
 10
-157.9999999999963
 20
-72.49999999999726
 30
0.0
 11
-157.9999999999963
 21
-74.49999999999725
 31
0.0
  0
LINE
  5
4B59
330
4A63
100
AcDbEntity
  8
0
100
AcDbLine
 10
-175.9999999999963
 20
-72.50000000000274
 30
0.0
 11
-157.9999999999963
 21
-72.49999999999726
 31
0.0
  0
LINE
  5
4B5A
330
4A63
100
AcDbEntity
  8
0
100
AcDbLine
 10
-175.5
 20
-74.49999999999725
 30
0.0
 11
-158.5
 21
-74.49999999999725
 31
0.0
  0
ARC
  5
4B5B
330
4A63
100
AcDbEntity
  8
0
100
AcDbCircle
 10
-167.0
 20
-90.74081062144234
 30
0.0
 40
16.24081062144506
100
AcDbArc
 50
72.41204622600953
 51
107.5879537739904
  0
LINE
  5
4B5C
330
4A63
100
AcDbEntity
  8
0
100
AcDbLine
 10
-176.8149545762236
 20
-82.49999999999728
 30
0.0
 11
-157.1850454237764
 21
-82.49999999999728
 31
0.0
  0
ARC
  5
4B5D
330
4A63
100
AcDbEntity
  8
0
100
AcDbCircle
 10
-175.5
 20
-83.3795946892747
 30
0.0
 40
8.879594689277416
100
AcDbArc
 50
66.13507458395182
 51
90.0
  0
LINE
  5
4B5E
330
4A63
100
AcDbEntity
  8
0
100
AcDbLine
 10
-176.8149545762236
 20
-75.25918937855216
 30
0.0
 11
-176.8149545762236
 21
-82.49999999999728
 31
0.0
  0
LINE
  5
4B5F
330
4A63
100
AcDbEntity
  8
0
100
AcDbLine
 10
-175.5
 20
-74.49999999999725
 30
0.0
 11
-176.8149545762236
 21
-75.25918937855216
 31
0.0
  0
LINE
  5
4B60
330
4A63
100
AcDbEntity
  8
0
100
AcDbLine
 10
-171.9074772881118
 20
-75.25918937855216
 30
0.0
 11
-171.9074772881118
 21
-82.49999999999728
 31
0.0
  0
LINE
  5
4B61
330
4A63
100
AcDbEntity
  8
0
100
AcDbLine
 10
-162.092522711888
 20
-75.25918937855216
 30
0.0
 11
-162.092522711888
 21
-82.49999999999728
 31
0.0
  0
LINE
  5
4B62
330
4A63
100
AcDbEntity
  8
0
100
AcDbLine
 10
-157.1850454237764
 20
-75.25918937855216
 30
0.0
 11
-157.1850454237764
 21
-82.49999999999728
 31
0.0
  0
LINE
  5
4B63
330
4A63
100
AcDbEntity
  8
0
100
AcDbLine
 10
-162.092522711888
 20
-75.25918937855216
 30
0.0
 11
-162.092522711888
 21
-82.49999999999728
 31
0.0
  0
ARC
  5
4B64
330
4A63
100
AcDbEntity
  8
0
100
AcDbCircle
 10
-158.5
 20
-83.3795946892747
 30
0.0
 40
8.879594689277416
100
AcDbArc
 50
90.0
 51
113.8649254160482
  0
LINE
  5
4B65
330
4A63
100
AcDbEntity
  8
0
100
AcDbLine
 10
-158.5
 20
-74.49999999999725
 30
0.0
 11
-157.1850454237764
 21
-75.25918937855216
 31
0.0
  0
LINE
  5
4B66
330
4A63
100
AcDbEntity
  8
0
100
AcDbLine
 10
156.0000000000073
 20
-82.49999999999728
 30
0.0
 11
178.0000000000073
 21
-82.49999999999728
 31
0.0
  0
ARC
  5
4B67
330
4A63
100
AcDbEntity
  8
0
100
AcDbCircle
 10
155.0000000000073
 20
-101.4999999999973
 30
0.0
 40
2.0
100
AcDbArc
 50
180.0
 51
270.0
  0
LINE
  5
4B68
330
4A63
100
AcDbEntity
  8
0
100
AcDbLine
 10
156.0000000000073
 20
-82.49999999999728
 30
0.0
 11
153.0000000000073
 21
-86.49999999999733
 31
0.0
  0
LINE
  5
4B69
330
4A63
100
AcDbEntity
  8
0
100
AcDbLine
 10
138.9886435277071
 20
-86.49999999999733
 30
0.0
 11
130.4106158457073
 21
-90.49999999999732
 31
0.0
  0
LINE
  5
4B6A
330
4A63
100
AcDbEntity
  8
0
100
AcDbLine
 10
153.0000000000073
 20
-98.49999999999731
 30
0.0
 11
153.0000000000073
 21
-101.4999999999973
 31
0.0
  0
LINE
  5
4B6B
330
4A63
100
AcDbEntity
  8
0
100
AcDbLine
 10
153.0000000000073
 20
-101.4999999999973
 30
0.0
 11
181.0000000000073
 21
-101.4999999999973
 31
0.0
  0
ARC
  5
4B6C
330
4A63
100
AcDbEntity
  8
0
100
AcDbCircle
 10
179.0000000000073
 20
-101.4999999999973
 30
0.0
 40
2.0
100
AcDbArc
 50
270.0
 51
0.0
  0
LINE
  5
4B6D
330
4A63
100
AcDbEntity
  8
0
100
AcDbLine
 10
181.0000000000073
 20
-86.49999999999733
 30
0.0
 11
178.0000000000073
 21
-82.49999999999728
 31
0.0
  0
LINE
  5
4B6E
330
4A63
100
AcDbEntity
  8
0
100
AcDbLine
 10
203.5893841543074
 20
-90.49999999999732
 30
0.0
 11
195.0113564723074
 21
-86.49999999999733
 31
0.0
  0
LINE
  5
4B6F
330
4A63
100
AcDbEntity
  8
0
100
AcDbLine
 10
130.4106158457073
 20
-90.49999999999732
 30
0.0
 11
129.0000000000073
 21
-98.49999999999731
 31
0.0
  0
LINE
  5
4B70
330
4A63
100
AcDbEntity
  8
0
100
AcDbLine
 10
205.0000000000073
 20
-98.49999999999731
 30
0.0
 11
203.5893841543074
 21
-90.49999999999732
 31
0.0
  0
LINE
  5
4B71
330
4A63
100
AcDbEntity
  8
0
100
AcDbLine
 10
181.0000000000073
 20
-101.4999999999973
 30
0.0
 11
181.0000000000073
 21
-98.49999999999731
 31
0.0
  0
LINE
  5
4B72
330
4A63
100
AcDbEntity
  8
0
100
AcDbLine
 10
130.4106158457073
 20
-90.49999999999732
 30
0.0
 11
130.7242599432072
 21
-90.49999999999732
 31
0.0
  0
LINE
  5
4B73
330
4A63
100
AcDbEntity
  8
0
100
AcDbLine
 10
203.5893841543074
 20
-90.49999999999732
 30
0.0
 11
203.2757400568073
 21
-90.49999999999732
 31
0.0
  0
LINE
  5
4B74
330
4A63
100
AcDbEntity
  8
0
100
AcDbLine
 10
136.5663801270073
 20
-98.49999999999731
 30
0.0
 11
129.3898923036072
 21
-98.49999999999731
 31
0.0
  0
LINE
  5
4B75
330
4A63
100
AcDbEntity
  8
0
100
AcDbLine
 10
204.6101076964073
 20
-98.49999999999731
 30
0.0
 11
205.0000000000073
 21
-98.49999999999731
 31
0.0
  0
LINE
  5
4B76
330
4A63
100
AcDbEntity
  8
0
100
AcDbLine
 10
189.7551045136074
 20
-98.49999999999731
 30
0.0
 11
197.4336198730073
 21
-98.49999999999731
 31
0.0
  0
ARC
  5
4B77
330
4A63
100
AcDbEntity
  8
0
100
AcDbCircle
 10
153.4744928824073
 20
-114.7494684422972
 30
0.0
 40
25.7781087156
100
AcDbArc
 50
70.16945679560278
 51
109.8305432043972
  0
SPLINE
  5
4B78
330
4A63
100
AcDbEntity
  8
0
100
AcDbSpline
210
0.0
220
0.0
230
1.0
 70
     8
 71
     3
 72
    14
 73
    10
 74
     0
 42
0.0000000001
 43
0.0000000001
 40
0.0
 40
0.0
 40
0.0
 40
0.0
 40
0.25
 40
0.25
 40
0.5
 40
0.5
 40
0.75
 40
0.75
 40
1.0
 40
1.0
 40
1.0
 40
1.0
 10
137.9688146142798
 20
-90.49999999994776
 30
0.0
 10
138.0096432652399
 20
-90.03181383075085
 30
0.0
 10
137.8923641860581
 20
-89.65109031610149
 30
0.0
 10
137.3133347511959
 20
-89.1200265377933
 30
0.0
 10
136.8434796566275
 20
-88.97581844341178
 30
0.0
 10
135.5889905109061
 20
-88.97567985391553
 30
0.0
 10
134.7863084381015
 20
-89.11927895489242
 30
0.0
 10
132.9289695057582
 20
-89.65071757801359
 30
0.0
 10
131.8820516584508
 20
-90.03176104552975
 30
0.0
 10
130.7242599431747
 20
-90.49999999994776
 30
0.0
  0
LINE
  5
4B79
330
4A63
100
AcDbEntity
  8
0
100
AcDbLine
 10
204.6101076964073
 20
-98.49999999999731
 30
0.0
 11
197.4336198730073
 21
-98.49999999999731
 31
0.0
  0
SPLINE
  5
4B7A
330
4A63
100
AcDbEntity
  8
0
100
AcDbSpline
210
0.0
220
0.0
230
1.0
 70
     8
 71
     3
 72
    14
 73
    10
 74
     0
 42
0.0000000001
 43
0.0000000001
 40
0.0
 40
0.0
 40
0.0
 40
0.0
 40
0.2500000000000001
 40
0.2500000000000001
 40
0.5000000000000001
 40
0.5000000000000001
 40
0.75
 40
0.75
 40
1.0
 40
1.0
 40
1.0
 40
1.0
 10
203.2757400568343
 20
-90.49999999994776
 30
0.0
 10
202.1180788610097
 20
-90.03181383075085
 30
0.0
 10
201.0719296456453
 20
-89.65109031610149
 30
0.0
 10
199.2167069993327
 20
-89.1200265377933
 30
0.0
 10
198.4121154656698
 20
-88.97581844341178
 30
0.0
 10
197.1573012665522
 20
-88.97567985391553
 30
0.0
 10
196.6879051386645
 20
-89.11927895489242
 30
0.0
 10
196.107618326674
 20
-89.65071757801359
 30
0.0
 10
195.99035213158
 20
-90.03176104552975
 30
0.0
 10
196.031185385729
 20
-90.49999999994776
 30
0.0
  0
ARC
  5
4B7B
330
4A63
100
AcDbEntity
  8
0
100
AcDbCircle
 10
180.5255071176073
 20
-114.7488843594972
 30
0.0
 40
25.7775592697
100
AcDbArc
 50
70.16901638119714
 51
109.8309836188028
  0
ARC
  5
4B7C
330
4A63
100
AcDbEntity
  8
0
100
AcDbCircle
 10
-2902.036512233893
 20
-281.7885007810971
 30
0.0
 40
3097.2197332299
100
AcDbArc
 50
3.392654614601274
 51
3.540918781501575
  0
LINE
  5
4B7D
330
4A63
100
AcDbEntity
  8
0
100
AcDbLine
 10
189.7551045136074
 20
-98.49999999999731
 30
0.0
 11
172.4295302801072
 21
-98.49999999999731
 31
0.0
  0
ARC
  5
4B7E
330
4A63
100
AcDbEntity
  8
0
100
AcDbCircle
 10
-7527.637638713692
 20
1249.190930617303
 30
0.0
 40
7781.792472617199
100
AcDbArc
 50
350.0269374223027
 51
350.0867380565015
  0
LINE
  5
4B7F
330
4A63
100
AcDbEntity
  8
0
100
AcDbLine
 10
129.3898923036072
 20
-98.49999999999731
 30
0.0
 11
130.7242599432072
 21
-90.49999999999732
 31
0.0
  0
ARC
  5
4B80
330
4A63
100
AcDbEntity
  8
0
100
AcDbCircle
 10
-7439.313797475192
 20
-1369.364303771697
 30
0.0
 40
7748.8495111633
100
AcDbArc
 50
9.439544516697573
 51
9.499514528300291
  0
LINE
  5
4B81
330
4A63
100
AcDbEntity
  8
0
100
AcDbLine
 10
144.2448954864071
 20
-98.49999999999731
 30
0.0
 11
144.7295418122071
 21
-90.49999999999732
 31
0.0
  0
LINE
  5
4B82
330
4A63
100
AcDbEntity
  8
0
100
AcDbLine
 10
197.4336198730073
 20
-98.49999999999731
 30
0.0
 11
196.0311853857072
 21
-90.49999999999732
 31
0.0
  0
LINE
  5
4B83
330
4A63
100
AcDbEntity
  8
0
100
AcDbLine
 10
196.0311853857072
 20
-90.49999999999732
 30
0.0
 11
189.2704581878072
 21
-90.49999999999732
 31
0.0
  0
LINE
  5
4B84
330
4A63
100
AcDbEntity
  8
0
100
AcDbLine
 10
171.7805560474071
 20
-90.49999999999732
 30
0.0
 11
162.2194439526072
 21
-90.49999999999732
 31
0.0
  0
LINE
  5
4B85
330
4A63
100
AcDbEntity
  8
0
100
AcDbLine
 10
144.7295418122071
 20
-90.49999999999732
 30
0.0
 11
137.9688146143071
 21
-90.49999999999732
 31
0.0
  0
ARC
  5
4B86
330
4A63
100
AcDbEntity
  8
0
100
AcDbCircle
 10
-2938.621210813293
 20
157.0193875966029
 30
0.0
 40
3110.7038774987
100
AcDbArc
 50
355.2883022971972
 51
355.4361376759022
  0
LINE
  5
4B87
330
4A63
100
AcDbEntity
  8
0
100
AcDbLine
 10
161.5704697199071
 20
-98.49999999999731
 30
0.0
 11
172.4295302801072
 21
-98.49999999999731
 31
0.0
  0
LINE
  5
4B88
330
4A63
100
AcDbEntity
  8
0
100
AcDbLine
 10
161.5704697199071
 20
-98.49999999999731
 30
0.0
 11
144.2448954864071
 21
-98.49999999999731
 31
0.0
  0
LINE
  5
4B89
330
4A63
100
AcDbEntity
  8
0
100
AcDbLine
 10
136.5663801270073
 20
-98.49999999999731
 30
0.0
 11
144.2448954864071
 21
-98.49999999999731
 31
0.0
  0
LINE
  5
4B8A
330
4A63
100
AcDbEntity
  8
0
100
AcDbLine
 10
129.0000000000073
 20
-98.49999999999731
 30
0.0
 11
129.3898923036072
 21
-98.49999999999731
 31
0.0
  0
LINE
  5
4B8B
330
4A63
100
AcDbEntity
  8
0
100
AcDbLine
 10
138.9886435277071
 20
-86.49999999999733
 30
0.0
 11
195.0113564723074
 21
-86.49999999999733
 31
0.0
  0
LINE
  5
4B8C
330
4A63
100
AcDbEntity
  8
0
100
AcDbLine
 10
155.0000000000073
 20
-103.4999999999973
 30
0.0
 11
179.0000000000073
 21
-103.4999999999973
 31
0.0
  0
LINE
  5
4B8D
330
4A63
100
AcDbEntity
  8
0
100
AcDbLine
 10
172.4295302801072
 20
-98.49999999999731
 30
0.0
 11
171.7805560474071
 21
-90.49999999999732
 31
0.0
  0
LINE
  5
4B8E
330
4A63
100
AcDbEntity
  8
0
100
AcDbLine
 10
158.0000000000109
 20
-74.49999999999725
 30
0.0
 11
176.0000000000109
 21
-74.49999999999725
 31
0.0
  0
LINE
  5
4B8F
330
4A63
100
AcDbEntity
  8
0
100
AcDbLine
 10
158.0000000000109
 20
-72.49999999999726
 30
0.0
 11
158.0000000000109
 21
-74.49999999999725
 31
0.0
  0
LINE
  5
4B90
330
4A63
100
AcDbEntity
  8
0
100
AcDbLine
 10
176.0000000000109
 20
-72.49999999999726
 30
0.0
 11
176.0000000000109
 21
-74.49999999999725
 31
0.0
  0
LINE
  5
4B91
330
4A63
100
AcDbEntity
  8
0
100
AcDbLine
 10
158.0000000000109
 20
-72.50000000000274
 30
0.0
 11
176.0000000000109
 21
-72.49999999999726
 31
0.0
  0
LINE
  5
4B92
330
4A63
100
AcDbEntity
  8
0
100
AcDbLine
 10
158.5000000000072
 20
-74.49999999999725
 30
0.0
 11
175.5000000000071
 21
-74.49999999999725
 31
0.0
  0
ARC
  5
4B93
330
4A63
100
AcDbEntity
  8
0
100
AcDbCircle
 10
167.0000000000072
 20
-90.74081062144234
 30
0.0
 40
16.24081062144506
100
AcDbArc
 50
72.41204622600953
 51
107.5879537739904
  0
LINE
  5
4B94
330
4A63
100
AcDbEntity
  8
0
100
AcDbLine
 10
157.1850454237835
 20
-82.49999999999728
 30
0.0
 11
176.814954576231
 21
-82.49999999999728
 31
0.0
  0
ARC
  5
4B95
330
4A63
100
AcDbEntity
  8
0
100
AcDbCircle
 10
158.5000000000072
 20
-83.3795946892747
 30
0.0
 40
8.879594689277416
100
AcDbArc
 50
66.13507458395182
 51
90.0
  0
LINE
  5
4B96
330
4A63
100
AcDbEntity
  8
0
100
AcDbLine
 10
157.1850454237835
 20
-75.25918937855216
 30
0.0
 11
157.1850454237835
 21
-82.49999999999728
 31
0.0
  0
LINE
  5
4B97
330
4A63
100
AcDbEntity
  8
0
100
AcDbLine
 10
158.5000000000072
 20
-74.49999999999725
 30
0.0
 11
157.1850454237835
 21
-75.25918937855216
 31
0.0
  0
LINE
  5
4B98
330
4A63
100
AcDbEntity
  8
0
100
AcDbLine
 10
162.0925227118955
 20
-75.25918937855216
 30
0.0
 11
162.0925227118955
 21
-82.49999999999728
 31
0.0
  0
LINE
  5
4B99
330
4A63
100
AcDbEntity
  8
0
100
AcDbLine
 10
171.907477288119
 20
-75.25918937855216
 30
0.0
 11
171.907477288119
 21
-82.49999999999728
 31
0.0
  0
LINE
  5
4B9A
330
4A63
100
AcDbEntity
  8
0
100
AcDbLine
 10
176.814954576231
 20
-75.25918937855216
 30
0.0
 11
176.814954576231
 21
-82.49999999999728
 31
0.0
  0
LINE
  5
4B9B
330
4A63
100
AcDbEntity
  8
0
100
AcDbLine
 10
171.907477288119
 20
-75.25918937855216
 30
0.0
 11
171.907477288119
 21
-82.49999999999728
 31
0.0
  0
ARC
  5
4B9C
330
4A63
100
AcDbEntity
  8
0
100
AcDbCircle
 10
175.5000000000071
 20
-83.3795946892747
 30
0.0
 40
8.879594689277416
100
AcDbArc
 50
90.0
 51
113.8649254160482
  0
LINE
  5
4B9D
330
4A63
100
AcDbEntity
  8
0
100
AcDbLine
 10
175.5000000000071
 20
-74.49999999999725
 30
0.0
 11
176.814954576231
 21
-75.25918937855216
 31
0.0
  0
LINE
  5
4B9E
330
4A63
100
AcDbEntity
  8
0
100
AcDbLine
 10
369.2500000000054
 20
-103.4999999999918
 30
0.0
 11
338.7500000000018
 21
-103.5000000000063
 31
0.0
  0
LINE
  5
4B9F
330
4A63
100
AcDbEntity
  8
0
100
AcDbLine
 10
365.0000000000018
 20
-91.50000000000636
 30
0.0
 11
365.0000000000018
 21
-92.42526037201512
 31
0.0
  0
LINE
  5
4BA0
330
4A63
100
AcDbEntity
  8
0
100
AcDbLine
 10
369.7500000000055
 20
-96.38366349400076
 30
0.0
 11
369.7500000000055
 21
-102.9999999999918
 31
0.0
  0
LINE
  5
4BA1
330
4A63
100
AcDbEntity
  8
0
100
AcDbLine
 10
338.2500000000054
 20
-96.49999999999181
 30
0.0
 11
338.2500000000018
 21
-103.0000000000063
 31
0.0
  0
LINE
  5
4BA2
330
4A63
100
AcDbEntity
  8
0
100
AcDbLine
 10
363.0000000000018
 20
-89.50000000000637
 30
0.0
 11
345.0000000000018
 21
-89.50000000000637
 31
0.0
  0
LINE
  5
4BA3
330
4A63
100
AcDbEntity
  8
0
100
AcDbLine
 10
367.2235428646946
 20
-95.32303785088059
 30
0.0
 11
369.3794095225585
 21
-95.90070058085894
 31
0.0
  0
LINE
  5
4BA4
330
4A63
100
AcDbEntity
  8
0
100
AcDbLine
 10
369.5706280140275
 20
-96.00000000000635
 30
0.0
 11
338.7500000000055
 21
-95.99999999999182
 31
0.0
  0
ARC
  5
4BA5
330
4A63
100
AcDbEntity
  8
0
100
AcDbCircle
 10
368.0000000000018
 20
-92.42526037201512
 30
0.0
 40
3.0
100
AcDbArc
 50
180.0
 51
254.999999999925
  0
ARC
  5
4BA6
330
4A63
100
AcDbEntity
  8
0
100
AcDbCircle
 10
363.0000000000018
 20
-91.50000000000636
 30
0.0
 40
2.0
100
AcDbArc
 50
0.0
 51
90.0
  0
ARC
  5
4BA7
330
4A63
100
AcDbEntity
  8
0
100
AcDbCircle
 10
369.2500000000054
 20
-102.9999999999918
 30
0.0
 40
0.5
100
AcDbArc
 50
270.0
 51
0.0
  0
ARC
  5
4BA8
330
4A63
100
AcDbEntity
  8
0
100
AcDbCircle
 10
369.2500000000054
 20
-96.38366349400076
 30
0.0
 40
0.5
100
AcDbArc
 50
0.0
 51
74.99999999973535
  0
ARC
  5
4BA9
330
4A63
100
AcDbEntity
  8
0
100
AcDbCircle
 10
338.7500000000055
 20
-96.49999999999181
 30
0.0
 40
0.5
100
AcDbArc
 50
90.0
 51
180.0
  0
ARC
  5
4BAA
330
4A63
100
AcDbEntity
  8
0
100
AcDbCircle
 10
338.7500000000018
 20
-103.0000000000063
 30
0.0
 40
0.5
100
AcDbArc
 50
180.0
 51
270.0
  0
LINE
  5
4BAB
330
4A63
100
AcDbEntity
  8
0
100
AcDbLine
 10
340.7764571353092
 20
-95.32303785088059
 30
0.0
 11
338.6205904774452
 21
-95.90070058085894
 31
0.0
  0
LINE
  5
4BAC
330
4A63
100
AcDbEntity
  8
0
100
AcDbLine
 10
338.2499999999982
 20
-96.38366349400076
 30
0.0
 11
338.2499999999982
 21
-102.9999999999918
 31
0.0
  0
ARC
  5
4BAD
330
4A63
100
AcDbEntity
  8
0
100
AcDbCircle
 10
338.7499999999982
 20
-96.38366349400076
 30
0.0
 40
0.5
100
AcDbArc
 50
105.0000000002646
 51
180.0
  0
ARC
  5
4BAE
330
4A63
100
AcDbEntity
  8
0
100
AcDbCircle
 10
338.7499999999982
 20
-102.9999999999918
 30
0.0
 40
0.5
100
AcDbArc
 50
180.0
 51
270.0
  0
LINE
  5
4BAF
330
4A63
100
AcDbEntity
  8
0
100
AcDbLine
 10
343.0000000000018
 20
-91.50000000000636
 30
0.0
 11
343.0000000000018
 21
-92.42526037201512
 31
0.0
  0
ARC
  5
4BB0
330
4A63
100
AcDbEntity
  8
0
100
AcDbCircle
 10
345.0000000000018
 20
-91.50000000000636
 30
0.0
 40
2.0
100
AcDbArc
 50
90.0
 51
180.0
  0
ARC
  5
4BB1
330
4A63
100
AcDbEntity
  8
0
100
AcDbCircle
 10
340.0000000000018
 20
-92.42526037201512
 30
0.0
 40
3.0
100
AcDbArc
 50
285.000000000075
 51
0.0
  0
LINE
  5
4BB2
330
4A63
100
AcDbEntity
  8
0
100
AcDbLine
 10
357.9999999999764
 20
-89.49999999999182
 30
0.0
 11
357.9999999999759
 21
-86.00000000000392
 31
0.0
  0
LINE
  5
4BB3
330
4A63
100
AcDbEntity
  8
0
100
AcDbLine
 10
357.3234674999712
 20
-89.50000000000637
 30
0.0
 11
357.3234674999735
 21
-86.00000000000381
 31
0.0
  0
LINE
  5
4BB4
330
4A63
100
AcDbEntity
  8
0
100
AcDbLine
 10
349.9999999999795
 20
-86.00000000000392
 30
0.0
 11
349.99999999998
 21
-89.49999999999182
 31
0.0
  0
LINE
  5
4BB5
330
4A63
100
AcDbEntity
  8
0
100
AcDbLine
 10
350.6765324999851
 20
-89.49999999999182
 30
0.0
 11
350.6765324999849
 21
-86.00000000000392
 31
0.0
  0
LINE
  5
4BB6
330
4A63
100
AcDbEntity
  8
0
100
AcDbLine
 10
354.4000000000068
 20
-96.00000000000635
 30
0.0
 11
354.4000000000068
 21
-103.4999999999918
 31
0.0
  0
LINE
  5
4BB7
330
4A63
100
AcDbEntity
  8
0
100
AcDbLine
 10
353.600000000004
 20
-95.99999999999182
 30
0.0
 11
353.600000000004
 21
-103.5000000000063
 31
0.0
  0
LINE
  5
4BB8
330
4A63
100
AcDbEntity
  8
0
100
AcDbLine
 10
355.9000000000068
 20
-96.00000000000635
 30
0.0
 11
355.9000000000068
 21
-103.4999999999918
 31
0.0
  0
LINE
  5
4BB9
330
4A63
100
AcDbEntity
  8
0
100
AcDbLine
 10
355.100000000004
 20
-95.99999999999182
 30
0.0
 11
355.100000000004
 21
-103.5000000000063
 31
0.0
  0
LINE
  5
4BBA
330
4A63
100
AcDbEntity
  8
0
100
AcDbLine
 10
356.6000000000039
 20
-95.99999999999182
 30
0.0
 11
356.6000000000039
 21
-103.5000000000063
 31
0.0
  0
LINE
  5
4BBB
330
4A63
100
AcDbEntity
  8
0
100
AcDbLine
 10
357.4000000000069
 20
-96.00000000000635
 30
0.0
 11
357.4000000000069
 21
-103.4999999999918
 31
0.0
  0
LINE
  5
4BBC
330
4A63
100
AcDbEntity
  8
0
100
AcDbLine
 10
358.9000000000069
 20
-96.00000000000635
 30
0.0
 11
358.9000000000069
 21
-103.4999999999918
 31
0.0
  0
LINE
  5
4BBD
330
4A63
100
AcDbEntity
  8
0
100
AcDbLine
 10
358.1000000000039
 20
-95.99999999999182
 30
0.0
 11
358.1000000000039
 21
-103.5000000000063
 31
0.0
  0
LINE
  5
4BBE
330
4A63
100
AcDbEntity
  8
0
100
AcDbLine
 10
359.600000000004
 20
-95.99999999999182
 30
0.0
 11
359.600000000004
 21
-103.5000000000063
 31
0.0
  0
LINE
  5
4BBF
330
4A63
100
AcDbEntity
  8
0
100
AcDbLine
 10
360.4000000000068
 20
-96.00000000000635
 30
0.0
 11
360.4000000000068
 21
-103.4999999999918
 31
0.0
  0
LINE
  5
4BC0
330
4A63
100
AcDbEntity
  8
0
100
AcDbLine
 10
361.9000000000069
 20
-96.00000000000635
 30
0.0
 11
361.9000000000069
 21
-103.4999999999918
 31
0.0
  0
LINE
  5
4BC1
330
4A63
100
AcDbEntity
  8
0
100
AcDbLine
 10
361.100000000004
 20
-95.99999999999182
 30
0.0
 11
361.100000000004
 21
-103.5000000000063
 31
0.0
  0
LINE
  5
4BC2
330
4A63
100
AcDbEntity
  8
0
100
AcDbLine
 10
362.6000000000039
 20
-95.99999999999182
 30
0.0
 11
362.6000000000039
 21
-103.5000000000063
 31
0.0
  0
LINE
  5
4BC3
330
4A63
100
AcDbEntity
  8
0
100
AcDbLine
 10
363.4000000000069
 20
-96.00000000000635
 30
0.0
 11
363.4000000000069
 21
-103.4999999999918
 31
0.0
  0
LINE
  5
4BC4
330
4A63
100
AcDbEntity
  8
0
100
AcDbLine
 10
364.9000000000068
 20
-96.00000000000635
 30
0.0
 11
364.9000000000068
 21
-103.4999999999918
 31
0.0
  0
LINE
  5
4BC5
330
4A63
100
AcDbEntity
  8
0
100
AcDbLine
 10
364.1000000000039
 20
-95.99999999999182
 30
0.0
 11
364.1000000000039
 21
-103.5000000000063
 31
0.0
  0
LINE
  5
4BC6
330
4A63
100
AcDbEntity
  8
0
100
AcDbLine
 10
365.600000000004
 20
-95.99999999999182
 30
0.0
 11
365.600000000004
 21
-103.5000000000063
 31
0.0
  0
LINE
  5
4BC7
330
4A63
100
AcDbEntity
  8
0
100
AcDbLine
 10
366.4000000000068
 20
-96.00000000000635
 30
0.0
 11
366.4000000000068
 21
-103.4999999999918
 31
0.0
  0
LINE
  5
4BC8
330
4A63
100
AcDbEntity
  8
0
100
AcDbLine
 10
367.9000000000069
 20
-96.00000000000635
 30
0.0
 11
367.9000000000069
 21
-103.4999999999918
 31
0.0
  0
LINE
  5
4BC9
330
4A63
100
AcDbEntity
  8
0
100
AcDbLine
 10
367.1000000000039
 20
-95.99999999999182
 30
0.0
 11
367.1000000000039
 21
-103.5000000000063
 31
0.0
  0
LINE
  5
4BCA
330
4A63
100
AcDbEntity
  8
0
100
AcDbLine
 10
368.6000000000039
 20
-95.99999999999182
 30
0.0
 11
368.6000000000039
 21
-103.5000000000063
 31
0.0
  0
LINE
  5
4BCB
330
4A63
100
AcDbEntity
  8
0
100
AcDbLine
 10
369.4000000000069
 20
-96.00000000000635
 30
0.0
 11
369.4000000000069
 21
-103.4999999999918
 31
0.0
  0
LINE
  5
4BCC
330
4A63
100
AcDbEntity
  8
0
100
AcDbLine
 10
338.600000000004
 20
-96.00000000000635
 30
0.0
 11
338.600000000004
 21
-103.4999999999918
 31
0.0
  0
LINE
  5
4BCD
330
4A63
100
AcDbEntity
  8
0
100
AcDbLine
 10
339.4000000000068
 20
-95.99999999999182
 30
0.0
 11
339.4000000000068
 21
-103.5000000000063
 31
0.0
  0
LINE
  5
4BCE
330
4A63
100
AcDbEntity
  8
0
100
AcDbLine
 10
340.9000000000069
 20
-95.99999999999182
 30
0.0
 11
340.9000000000069
 21
-103.5000000000063
 31
0.0
  0
LINE
  5
4BCF
330
4A63
100
AcDbEntity
  8
0
100
AcDbLine
 10
340.100000000004
 20
-96.00000000000635
 30
0.0
 11
340.100000000004
 21
-103.4999999999918
 31
0.0
  0
LINE
  5
4BD0
330
4A63
100
AcDbEntity
  8
0
100
AcDbLine
 10
341.600000000004
 20
-96.00000000000635
 30
0.0
 11
341.600000000004
 21
-103.4999999999918
 31
0.0
  0
LINE
  5
4BD1
330
4A63
100
AcDbEntity
  8
0
100
AcDbLine
 10
342.4000000000069
 20
-95.99999999999182
 30
0.0
 11
342.4000000000069
 21
-103.5000000000063
 31
0.0
  0
LINE
  5
4BD2
330
4A63
100
AcDbEntity
  8
0
100
AcDbLine
 10
343.9000000000068
 20
-95.99999999999182
 30
0.0
 11
343.9000000000068
 21
-103.5000000000063
 31
0.0
  0
LINE
  5
4BD3
330
4A63
100
AcDbEntity
  8
0
100
AcDbLine
 10
343.100000000004
 20
-96.00000000000635
 30
0.0
 11
343.100000000004
 21
-103.4999999999918
 31
0.0
  0
LINE
  5
4BD4
330
4A63
100
AcDbEntity
  8
0
100
AcDbLine
 10
344.600000000004
 20
-96.00000000000635
 30
0.0
 11
344.600000000004
 21
-103.4999999999918
 31
0.0
  0
LINE
  5
4BD5
330
4A63
100
AcDbEntity
  8
0
100
AcDbLine
 10
345.4000000000069
 20
-95.99999999999182
 30
0.0
 11
345.4000000000069
 21
-103.5000000000063
 31
0.0
  0
LINE
  5
4BD6
330
4A63
100
AcDbEntity
  8
0
100
AcDbLine
 10
346.9000000000069
 20
-95.99999999999182
 30
0.0
 11
346.9000000000069
 21
-103.5000000000063
 31
0.0
  0
LINE
  5
4BD7
330
4A63
100
AcDbEntity
  8
0
100
AcDbLine
 10
346.1000000000039
 20
-96.00000000000635
 30
0.0
 11
346.1000000000039
 21
-103.4999999999918
 31
0.0
  0
LINE
  5
4BD8
330
4A63
100
AcDbEntity
  8
0
100
AcDbLine
 10
347.6000000000039
 20
-96.00000000000635
 30
0.0
 11
347.6000000000039
 21
-103.4999999999918
 31
0.0
  0
LINE
  5
4BD9
330
4A63
100
AcDbEntity
  8
0
100
AcDbLine
 10
348.4000000000069
 20
-95.99999999999182
 30
0.0
 11
348.4000000000069
 21
-103.5000000000063
 31
0.0
  0
LINE
  5
4BDA
330
4A63
100
AcDbEntity
  8
0
100
AcDbLine
 10
349.9000000000068
 20
-95.99999999999182
 30
0.0
 11
349.9000000000068
 21
-103.5000000000063
 31
0.0
  0
LINE
  5
4BDB
330
4A63
100
AcDbEntity
  8
0
100
AcDbLine
 10
349.100000000004
 20
-96.00000000000635
 30
0.0
 11
349.100000000004
 21
-103.4999999999918
 31
0.0
  0
LINE
  5
4BDC
330
4A63
100
AcDbEntity
  8
0
100
AcDbLine
 10
350.6000000000039
 20
-96.00000000000635
 30
0.0
 11
350.6000000000039
 21
-103.4999999999918
 31
0.0
  0
LINE
  5
4BDD
330
4A63
100
AcDbEntity
  8
0
100
AcDbLine
 10
351.4000000000069
 20
-95.99999999999182
 30
0.0
 11
351.4000000000069
 21
-103.5000000000063
 31
0.0
  0
LINE
  5
4BDE
330
4A63
100
AcDbEntity
  8
0
100
AcDbLine
 10
352.9000000000069
 20
-95.99999999999182
 30
0.0
 11
352.9000000000069
 21
-103.5000000000063
 31
0.0
  0
LINE
  5
4BDF
330
4A63
100
AcDbEntity
  8
0
100
AcDbLine
 10
352.1000000000039
 20
-96.00000000000635
 30
0.0
 11
352.1000000000039
 21
-103.4999999999918
 31
0.0
  0
LINE
  5
4BE0
330
4A63
100
AcDbEntity
  8
0
100
AcDbLine
 10
312.4325410945057
 20
-7.930201006591459
 30
0.0
 11
310.7898991456095
 21
-54.96931190837154
 31
0.0
  0
LINE
  5
4BE1
330
4A63
100
AcDbEntity
  8
0
100
AcDbLine
 10
314.4313227485436
 20
-6.000000000003864
 30
0.0
 11
368.5686311640711
 21
-6.000000000003864
 31
0.0
  0
LINE
  5
4BE2
330
4A63
100
AcDbEntity
  8
0
100
AcDbLine
 10
127.3359087567548
 20
-86.00000000000385
 30
0.0
 11
153.3750000000023
 21
-86.00000000000385
 31
0.0
  0
LINE
  5
4BE3
330
4A63
100
AcDbEntity
  8
0
100
AcDbLine
 10
180.6250000000123
 20
-86.00000000000385
 30
0.0
 11
369.5918293000068
 21
-86.00000000000385
 31
0.0
  0
LINE
  5
4BE4
330
4A63
100
AcDbEntity
  8
0
100
AcDbLine
 10
369.5918293000068
 20
-86.00000000000385
 30
0.0
 11
369.5918293000068
 21
-78.9743189126932
 31
0.0
  0
LINE
  5
4BE5
330
4A63
100
AcDbEntity
  8
0
100
AcDbLine
 10
340.0000000000036
 20
-50.00000000000387
 30
0.0
 11
370.1051450217093
 21
-50.00000000000387
 31
0.0
  0
ARC
  5
4BE6
330
4A63
100
AcDbEntity
  8
0
100
AcDbCircle
 10
370.5918293000068
 20
-78.9743189126932
 30
0.0
 40
1.0
100
AcDbArc
 50
96.49601425912589
 51
180.0
  0
LINE
  5
4BE7
330
4A63
100
AcDbEntity
  8
0
100
AcDbLine
 10
370.3666567964465
 20
-78.00000000000387
 30
0.0
 11
371.978773803301
 21
-78.00000000000387
 31
0.0
  0
ARC
  5
4BE8
330
4A63
100
AcDbEntity
  8
0
100
AcDbCircle
 10
314.4313227485436
 20
-8.000000000003865
 30
0.0
 40
2.0
100
AcDbArc
 50
90.0
 51
177.9999999997876
  0
LINE
  5
4BE9
330
4A63
100
AcDbEntity
  8
0
100
AcDbLine
 10
372.9781646303199
 20
-76.96510050329765
 30
0.0
 11
370.567412818109
 21
-7.930201006591459
 31
0.0
  0
ARC
  5
4BEA
330
4A63
100
AcDbEntity
  8
0
100
AcDbCircle
 10
371.978773803301
 20
-77.00000000000386
 30
0.0
 40
1.0
100
AcDbArc
 50
270.0
 51
2.000000000212266
  0
ARC
  5
4BEB
330
4A63
100
AcDbEntity
  8
0
100
AcDbCircle
 10
314.4313227485436
 20
-8.000000000003865
 30
0.0
 40
2.0
100
AcDbArc
 50
90.0
 51
177.9999999997876
  0
ARC
  5
4BEC
330
4A63
100
AcDbEntity
  8
0
100
AcDbCircle
 10
368.5686311640711
 20
-8.000000000003865
 30
0.0
 40
2.0
100
AcDbArc
 50
2.000000000212266
 51
90.0
  0
ARC
  5
4BED
330
4A63
100
AcDbEntity
  8
0
100
AcDbCircle
 10
370.1051450217093
 20
-52.00000000000386
 30
0.0
 40
2.0
100
AcDbArc
 50
2.000000000212266
 51
90.0
  0
LINE
  5
4BEE
330
4A63
100
AcDbEntity
  8
0
100
AcDbLine
 10
248.0863638552473
 20
-66.71080303469011
 30
0.0
 11
340.0000000000036
 21
-50.00726440114181
 31
0.0
  0
ARC
  5
4BEF
330
4A63
100
AcDbEntity
  8
0
100
AcDbCircle
 10
233.7821866459417
 20
11.99999999999613
 30
0.0
 40
80.0
100
AcDbArc
 50
276.6100223268318
 51
280.2999999997595
  0
ARC
  5
4BF0
330
4A63
100
AcDbEntity
  8
0
 48
0.25
100
AcDbCircle
 10
351.5011280134056
 20
270.1005057492612
 30
0.0
 40
5.0
100
AcDbArc
 50
270.0
 51
12.25735941327954
  0
ENDBLK
  5
4BF1
330
4A63
100
AcDbEntity
  8
0
100
AcDbBlockEnd
  0
BLOCK
  5
4BF3
330
4BF2
100
AcDbEntity
  8
0
100
AcDbBlockBegin
  2
1
 70
     0
 10
0.0
 20
0.0
 30
0.0
  3
1
  1

  0
LINE
  5
4BF4
330
4BF2
100
AcDbEntity
  8
0
100
AcDbLine
 10
-107.9981616369041
 20
-78.00000000000363
 30
0.0
 11
-57.52819483082571
 21
-78.0
 31
0.0
  0
LINE
  5
4BF5
330
4BF2
100
AcDbEntity
  8
0
100
AcDbLine
 10
-111.5
 20
-76.5
 30
0.0
 11
-97.67367277529416
 21
-76.5
 31
0.0
  0
LINE
  5
4BF6
330
4BF2
100
AcDbEntity
  8
0
100
AcDbLine
 10
-95.62839442767836
 20
-83.65978519884031
 30
0.0
 11
-104.9394654297576
 21
-82.01799216186556
 31
0.0
  0
LINE
  5
4BF7
330
4BF2
100
AcDbEntity
  8
0
100
AcDbLine
 10
-108.992189301076
 20
-72.5
 30
0.0
 11
111.0078106989239
 21
-72.5
 31
0.0
  0
LINE
  5
4BF8
330
4BF2
100
AcDbEntity
  8
0
100
AcDbLine
 10
-153.5
 20
0.0
 30
0.0
 11
153.5
 21
0.0
 31
0.0
  0
LINE
  5
4BF9
330
4BF2
100
AcDbEntity
  8
0
100
AcDbLine
 10
-165.0
 20
-55.0
 30
0.0
 11
165.0
 21
-55.0
 31
0.0
  0
ARC
  5
4BFA
330
4BF2
100
AcDbEntity
  8
0
100
AcDbCircle
 10
139.4915720966672
 20
-69.50000000000023
 30
0.0
 40
3.0
100
AcDbArc
 50
270.0
 51
342.0000000000015
  0
LINE
  5
4BFB
330
4BF2
100
AcDbEntity
  8
0
100
AcDbLine
 10
99.68929417314207
 20
-76.5
 30
0.0
 11
111.4999999999926
 21
-76.5
 31
0.0
  0
LINE
  5
4BFC
330
4BF2
100
AcDbEntity
  8
0
100
AcDbLine
 10
111.0078106989239
 20
-72.5
 30
0.0
 11
140.1744630993562
 21
-72.5
 31
0.0
  0
ARC
  5
4BFD
330
4BF2
100
AcDbEntity
  8
0
100
AcDbCircle
 10
129.0078106989239
 20
-76.00000000000021
 30
0.0
 40
2.0
100
AcDbArc
 50
345.5224878141914
 51
0.0
  0
LINE
  5
4BFE
330
4BF2
100
AcDbEntity
  8
0
100
AcDbLine
 10
131.007810698924
 20
-72.5
 30
0.0
 11
131.007810698924
 21
-76.0
 31
0.0
  0
LINE
  5
4BFF
330
4BF2
100
AcDbEntity
  8
0
100
AcDbLine
 10
128.5000000000072
 20
-76.49999999999272
 30
0.0
 11
130.9443023720305
 21
-76.49999999999636
 31
0.0
  0
LINE
  5
4C00
330
4BF2
100
AcDbEntity
  8
0
100
AcDbLine
 10
107.9981616369113
 20
-77.99999999999636
 30
0.0
 11
57.35884702673496
 21
-78.0
 31
0.0
  0
LINE
  5
4C01
330
4BF2
100
AcDbEntity
  8
0
100
AcDbLine
 10
99.54961109517164
 20
-72.5
 30
0.0
 11
99.68929417314207
 21
-76.5
 31
0.0
  0
ARC
  5
4C02
330
4BF2
100
AcDbEntity
  8
0
100
AcDbCircle
 10
57.52819483082554
 20
-81.0000000000002
 30
0.0
 40
3.0
100
AcDbArc
 50
90.0
 51
177.0000000000009
  0
LINE
  5
4C03
330
4BF2
100
AcDbEntity
  8
0
100
AcDbLine
 10
54.53230622655969
 20
-80.84299213127087
 30
0.0
 11
53.99999999999995
 21
-91.0
 31
0.0
  0
ARC
  5
4C04
330
4BF2
100
AcDbEntity
  8
0
100
AcDbCircle
 10
46.47180516917422
 20
-81.0000000000002
 30
0.0
 40
3.0
100
AcDbArc
 50
2.999999999999089
 51
90.0
  0
LINE
  5
4C05
330
4BF2
100
AcDbEntity
  8
0
100
AcDbLine
 10
49.46769377344019
 20
-80.84299213127451
 30
0.0
 11
49.99999999999993
 21
-91.0
 31
0.0
  0
LINE
  5
4C06
330
4BF2
100
AcDbEntity
  8
0
100
AcDbLine
 10
49.52346242499327
 20
-81.9071213945026
 30
0.0
 11
54.47653757499931
 21
-81.9071213945026
 31
0.0
  0
LINE
  5
4C07
330
4BF2
100
AcDbEntity
  8
0
100
AcDbLine
 10
53.99999999999995
 20
-91.0
 30
0.0
 11
99.39127562970448
 21
-82.99629341771492
 31
0.0
  0
LINE
  5
4C08
330
4BF2
100
AcDbEntity
  8
0
100
AcDbLine
 10
108.5441169882905
 20
-76.50000000004365
 30
0.0
 11
107.2375987591076
 21
-80.08962933284783
 31
0.0
  0
ARC
  5
4C09
330
4BF2
100
AcDbEntity
  8
0
100
AcDbCircle
 10
104.4185208967463
 20
-79.06356890287156
 30
0.0
 40
3.0
100
AcDbArc
 50
279.9999999999751
 51
339.9999999999757
  0
LINE
  5
4C0A
330
4BF2
100
AcDbEntity
  8
0
100
AcDbLine
 10
99.39127562970451
 20
-82.99628771775816
 30
0.0
 11
104.9394654297502
 21
-82.0179921619092
 31
0.0
  0
LINE
  5
4C0B
330
4BF2
100
AcDbEntity
  8
0
100
AcDbLine
 10
-54.00000000000005
 20
-91.0
 30
0.0
 11
1.007810698923947
 21
-91.0
 31
0.0
  0
LINE
  5
4C0C
330
4BF2
100
AcDbEntity
  8
0
100
AcDbLine
 10
-97.53407478848393
 20
-72.50243669192423
 30
0.0
 11
-97.67367277529416
 21
-76.5
 31
0.0
  0
ARC
  5
4C0D
330
4BF2
100
AcDbEntity
  8
0
100
AcDbCircle
 10
26.02819483082555
 20
-81.0000000000002
 30
0.0
 40
3.0
100
AcDbArc
 50
90.0
 51
177.0000000000009
  0
LINE
  5
4C0E
330
4BF2
100
AcDbEntity
  8
0
100
AcDbLine
 10
23.03230622655968
 20
-80.84299213127087
 30
0.0
 11
22.49999999999994
 21
-91.0
 31
0.0
  0
ARC
  5
4C0F
330
4BF2
100
AcDbEntity
  8
0
100
AcDbCircle
 10
14.97180516917422
 20
-81.0000000000002
 30
0.0
 40
3.0
100
AcDbArc
 50
2.999999999999089
 51
90.0
  0
LINE
  5
4C10
330
4BF2
100
AcDbEntity
  8
0
100
AcDbLine
 10
17.9676937734402
 20
-80.84299213127087
 30
0.0
 11
18.49999999999994
 21
-91.0
 31
0.0
  0
LINE
  5
4C11
330
4BF2
100
AcDbEntity
  8
0
100
AcDbLine
 10
-14.97180516917438
 20
-78.0
 30
0.0
 11
14.97180516917427
 21
-78.0
 31
0.0
  0
ARC
  5
4C12
330
4BF2
100
AcDbEntity
  8
0
100
AcDbCircle
 10
-14.97180516917444
 20
-81.0000000000002
 30
0.0
 40
3.0
100
AcDbArc
 50
90.0
 51
177.0000000000009
  0
LINE
  5
4C13
330
4BF2
100
AcDbEntity
  8
0
100
AcDbLine
 10
-17.96769377344032
 20
-80.84299213127087
 30
0.0
 11
-18.50000000000006
 21
-91.0
 31
0.0
  0
ARC
  5
4C14
330
4BF2
100
AcDbEntity
  8
0
100
AcDbCircle
 10
-26.02819483082579
 20
-81.0000000000002
 30
0.0
 40
3.0
100
AcDbArc
 50
2.999999999999089
 51
90.0
  0
LINE
  5
4C15
330
4BF2
100
AcDbEntity
  8
0
100
AcDbLine
 10
-23.0323062265598
 20
-80.84299213127087
 30
0.0
 11
-22.50000000000006
 21
-91.0
 31
0.0
  0
LINE
  5
4C16
330
4BF2
100
AcDbEntity
  8
0
100
AcDbLine
 10
-46.4718051691744
 20
-78.0
 30
0.0
 11
-26.02819483082573
 21
-78.0
 31
0.0
  0
ARC
  5
4C17
330
4BF2
100
AcDbEntity
  8
0
100
AcDbCircle
 10
-46.4718051691744
 20
-81.0000000000002
 30
0.0
 40
3.0
100
AcDbArc
 50
90.0
 51
177.0000000000009
  0
LINE
  5
4C18
330
4BF2
100
AcDbEntity
  8
0
100
AcDbLine
 10
-49.46769377344033
 20
-80.84299213127087
 30
0.0
 11
-50.00000000000007
 21
-91.0
 31
0.0
  0
ARC
  5
4C19
330
4BF2
100
AcDbEntity
  8
0
100
AcDbCircle
 10
-57.52819483082571
 20
-81.0000000000002
 30
0.0
 40
3.0
100
AcDbArc
 50
2.999999999999089
 51
90.0
  0
LINE
  5
4C1A
330
4BF2
100
AcDbEntity
  8
0
100
AcDbLine
 10
-54.53230622655979
 20
-80.84299213127087
 30
0.0
 11
-54.00000000000005
 21
-91.0
 31
0.0
  0
LINE
  5
4C1B
330
4BF2
100
AcDbEntity
  8
0
100
AcDbLine
 10
-54.00000000000005
 20
-91.0
 30
0.0
 11
-90.89513025029017
 21
-84.49439308010552
 31
0.0
  0
LINE
  5
4C1C
330
4BF2
100
AcDbEntity
  8
0
100
AcDbLine
 10
-54.47653757500671
 20
-81.9071213945026
 30
0.0
 11
-49.5234624249934
 21
-81.9071213945026
 31
0.0
  0
LINE
  5
4C1D
330
4BF2
100
AcDbEntity
  8
0
100
AcDbLine
 10
18.02346242499328
 20
-81.9071213945026
 30
0.0
 11
22.9765375750066
 21
-81.9071213945026
 31
0.0
  0
LINE
  5
4C1E
330
4BF2
100
AcDbEntity
  8
0
100
AcDbLine
 10
-22.97653757500672
 20
-81.9071213945026
 30
0.0
 11
-18.02346242499339
 21
-81.9071213945026
 31
0.0
  0
LINE
  5
4C1F
330
4BF2
100
AcDbEntity
  8
0
100
AcDbLine
 10
-54.00000000000005
 20
-90.99999429999659
 30
0.0
 11
-95.62839442767842
 21
-83.65978519882276
 31
0.0
  0
LINE
  5
4C20
330
4BF2
100
AcDbEntity
  8
0
100
AcDbLine
 10
1.007810698923947
 20
-91.0
 30
0.0
 11
53.99999999999995
 21
-91.0
 31
0.0
  0
LINE
  5
4C21
330
4BF2
100
AcDbEntity
  8
0
100
AcDbLine
 10
26.02819483082561
 20
-78.0
 30
0.0
 11
46.47180516917426
 21
-78.0
 31
0.0
  0
LINE
  5
4C22
330
4BF2
100
AcDbEntity
  8
0
 48
0.25
100
AcDbLine
 10
21.35000000000201
 20
168.6473664043994
 30
0.0
 11
21.35000000000292
 21
0.0
 31
0.0
  0
LINE
  5
4C23
330
4BF2
100
AcDbEntity
  8
0
 48
0.25
100
AcDbLine
 10
-21.3500000000019
 20
167.6710417767726
 30
0.0
 11
-21.35000000000258
 21
0.0
 31
0.0
  0
LINE
  5
4C24
330
4BF2
100
AcDbEntity
  8
0
100
AcDbLine
 10
147.3572943647523
 20
-55.0
 30
0.0
 11
142.3447416455528
 21
-70.4270509831258
 31
0.0
  0
ARC
  5
4C25
330
4BF2
100
AcDbEntity
  8
0
100
AcDbCircle
 10
153.5
 20
-11.49999999999659
 30
0.0
 40
11.5
100
AcDbArc
 50
0.0
 51
90.0
  0
LINE
  5
4C26
330
4BF2
100
AcDbEntity
  8
0
100
AcDbLine
 10
165.0
 20
-11.5
 30
0.0
 11
165.0
 21
-55.0
 31
0.0
  0
LINE
  5
4C27
330
4BF2
100
AcDbEntity
  8
0
 48
0.25
100
AcDbLine
 10
21.35000000000161
 20
236.1005057492612
 30
0.0
 11
21.35000000000201
 21
173.6473664043997
 31
0.0
  0
LINE
  5
4C28
330
4BF2
100
AcDbEntity
  8
0
 48
0.25
100
AcDbLine
 10
-21.35000000000145
 20
236.1005057492612
 30
0.0
 11
-21.3500000000019
 21
172.6710417767725
 31
0.0
  0
SPLINE
  5
4C29
330
4BF2
100
AcDbEntity
  8
0
100
AcDbSpline
210
0.0
220
0.0
230
1.0
 70
     8
 71
     3
 72
    11
 73
     7
 74
     5
 42
0.0000000001
 43
0.0000000001
 44
0.0000000001
 40
0.0
 40
0.0
 40
0.0
 40
0.0
 40
12.37753258719551
 40
24.41834840850304
 40
32.55227783838095
 40
45.63745531218385
 40
45.63745531218385
 40
45.63745531218385
 40
45.63745531218385
 10
-21.3500000000019
 20
167.6710417767724
 30
0.0
 10
-17.86194746083017
 20
169.7298712355876
 30
0.0
 10
-10.98073090424688
 20
173.7915220278503
 30
0.0
 10
1.347590617467243
 20
175.8650689604999
 30
0.0
 10
8.998300982308357
 20
166.020053585535
 30
0.0
 10
16.63851347047675
 20
167.6451926194653
 30
0.0
 10
21.35000000000201
 20
168.6473664043994
 30
0.0
 11
-21.3500000000019
 21
167.6710417767724
 31
0.0
 11
-10.27776469102269
 21
173.2035744888023
 31
0.0
 11
1.758652134460986
 21
173.5290213291051
 31
0.0
 11
8.264822526199111
 21
168.6473664043994
 31
0.0
 11
21.35000000000201
 21
168.6473664043994
 31
0.0
  0
SPLINE
  5
4C2A
330
4BF2
100
AcDbEntity
  8
0
100
AcDbSpline
210
0.0
220
0.0
230
1.0
 70
     8
 71
     3
 72
    11
 73
     7
 74
     5
 42
0.0000000001
 43
0.0000000001
 44
0.0000000001
 40
0.0
 40
0.0
 40
0.0
 40
0.0
 40
12.37753258719544
 40
24.41834840850297
 40
32.55227783838087
 40
45.63745531218377
 40
45.63745531218377
 40
45.63745531218377
 40
45.63745531218377
 10
-21.3500000000019
 20
172.6710417767725
 30
0.0
 10
-17.86194746083016
 20
174.7298712355877
 30
0.0
 10
-10.98073090424684
 20
178.7915220278502
 30
0.0
 10
1.347590617467242
 20
180.8650689604999
 30
0.0
 10
8.998300982308357
 20
171.020053585535
 30
0.0
 10
16.63851347047675
 20
172.6451926194655
 30
0.0
 10
21.35000000000201
 20
173.6473664043997
 30
0.0
 11
-21.3500000000019
 21
172.6710417767725
 31
0.0
 11
-10.27776469102269
 21
178.2035744888023
 31
0.0
 11
1.758652134460986
 21
178.5290213291052
 31
0.0
 11
8.264822526199111
 21
173.6473664043994
 31
0.0
 11
21.35000000000201
 21
173.6473664043997
 31
0.0
  0
ARC
  5
4C2B
330
4BF2
100
AcDbEntity
  8
0
100
AcDbCircle
 10
-139.4915720966674
 20
-69.5
 30
0.0
 40
3.0
100
AcDbArc
 50
197.9999999999984
 51
270.0
  0
LINE
  5
4C2C
330
4BF2
100
AcDbEntity
  8
0
100
AcDbLine
 10
-139.4915720966674
 20
-72.5
 30
0.0
 11
-108.992189301076
 21
-72.5
 31
0.0
  0
LINE
  5
4C2D
330
4BF2
100
AcDbEntity
  8
0
100
AcDbLine
 10
-128.5000000000073
 20
-76.49999999999272
 30
0.0
 11
-130.9443023720305
 21
-76.49999999999636
 31
0.0
  0
ARC
  5
4C2E
330
4BF2
100
AcDbEntity
  8
0
100
AcDbCircle
 10
-129.007810698924
 20
-76.0
 30
0.0
 40
2.0
100
AcDbArc
 50
180.0
 51
194.4775121858086
  0
LINE
  5
4C2F
330
4BF2
100
AcDbEntity
  8
0
100
AcDbLine
 10
-131.007810698924
 20
-72.5
 30
0.0
 11
-131.007810698924
 21
-76.0
 31
0.0
  0
LINE
  5
4C30
330
4BF2
100
AcDbEntity
  8
0
100
AcDbLine
 10
-139.4915720966674
 20
-72.4999942999966
 30
0.0
 11
-110.0
 21
-72.4999942999966
 31
0.0
  0
LINE
  5
4C31
330
4BF2
100
AcDbEntity
  8
0
100
AcDbLine
 10
-108.5441169882979
 20
-76.5
 30
0.0
 11
-107.237598759115
 21
-80.08962933280418
 31
0.0
  0
ARC
  5
4C32
330
4BF2
100
AcDbEntity
  8
0
100
AcDbCircle
 10
-104.4185208967538
 20
-79.06356890282769
 30
0.0
 40
3.0
100
AcDbArc
 50
199.9999999999964
 51
260.0000000000014
  0
LINE
  5
4C33
330
4BF2
100
AcDbEntity
  8
0
100
AcDbLine
 10
-147.3572943647596
 20
-55.0
 30
0.0
 11
-142.3447416455529
 21
-70.4270509831258
 31
0.0
  0
LINE
  5
4C34
330
4BF2
100
AcDbEntity
  8
0
100
AcDbLine
 10
-165.0
 20
-11.5
 30
0.0
 11
-165.0
 21
-55.0
 31
0.0
  0
ARC
  5
4C35
330
4BF2
100
AcDbEntity
  8
0
100
AcDbCircle
 10
-153.5
 20
-11.49999999999636
 30
0.0
 40
11.5
100
AcDbArc
 50
90.0
 51
180.0
  0
ARC
  5
4C36
330
4BF2
100
AcDbEntity
  8
0
 48
0.25
100
AcDbCircle
 10
-64.4999999999975
 20
358.1005057492611
 30
-0.0000000000029055
 40
2.0
100
AcDbArc
 50
90.0
 51
180.0
  0
POINT
  5
4C37
330
4BF2
100
AcDbEntity
  8
0
100
AcDbPoint
 10
66.40787840283678
 20
346.5005057492607
 30
-0.0000000000004897
  0
ARC
  5
4C38
330
4BF2
100
AcDbEntity
  8
0
 48
0.25
100
AcDbCircle
 10
64.50000000000295
 20
347.1005057492607
 30
-0.0000000000004897
 40
2.0
100
AcDbArc
 50
270.0
 51
0.0
  0
LINE
  5
4C39
330
4BF2
100
AcDbEntity
  8
0
100
AcDbLine
 10
66.50000000000296
 20
358.1005057492611
 30
0.0000000000001068
 11
66.50000000000296
 21
347.1005057492607
 31
-0.0000000000003221
  0
LINE
  5
4C3A
330
4BF2
100
AcDbEntity
  8
0
 48
0.25
100
AcDbLine
 10
-64.49999999999704
 20
345.1005057492606
 30
0.0
 11
64.50000000000295
 21
345.1005057492606
 31
0.0000000000000137
  0
LINE
  5
4C3B
330
4BF2
100
AcDbEntity
  8
0
 48
0.25
100
AcDbLine
 10
-64.4999999999975
 20
360.100505749261
 30
0.0
 11
64.50000000000295
 21
360.100505749261
 31
0.0000000000000137
  0
LINE
  5
4C3C
330
4BF2
100
AcDbEntity
  8
0
100
AcDbLine
 10
-99.49999999998841
 20
458.30050574926
 30
0.0
 11
-99.50000000000386
 21
253.9005057492631
 31
0.0
  0
ARC
  5
4C3D
330
4BF2
100
AcDbEntity
  8
0
 48
0.1
100
AcDbCircle
 10
-58.4999999999975
 20
418.4005057492603
 30
0.0
 40
8.0
100
AcDbArc
 50
90.0
 51
180.0
  0
ARC
  5
4C3E
330
4BF2
100
AcDbEntity
  8
0
 48
0.1
100
AcDbCircle
 10
-58.4999999999975
 20
418.4005057492603
 30
0.0
 40
10.0
100
AcDbArc
 50
90.0
 51
180.0
  0
ARC
  5
4C3F
330
4BF2
100
AcDbEntity
  8
0
 48
0.25
100
AcDbCircle
 10
-58.19999999999755
 20
418.10050574926
 30
0.0
 40
8.0
100
AcDbArc
 50
90.0
 51
180.0
  0
LINE
  5
4C40
330
4BF2
100
AcDbEntity
  8
0
 48
0.25
100
AcDbLine
 10
99.49999999999977
 20
458.3005057492605
 30
0.0
 11
99.50000000000024
 21
253.9005057492622
 31
0.0
  0
ARC
  5
4C41
330
4BF2
100
AcDbEntity
  8
0
 48
0.25
100
AcDbCircle
 10
58.49999999999977
 20
418.4005057492603
 30
0.0
 40
8.0
100
AcDbArc
 50
0.0
 51
90.0
  0
ARC
  5
4C42
330
4BF2
100
AcDbEntity
  8
0
 48
0.25
100
AcDbCircle
 10
58.49999999999977
 20
418.4005057492603
 30
0.0
 40
10.0
100
AcDbArc
 50
0.0
 51
90.0
  0
ARC
  5
4C43
330
4BF2
100
AcDbEntity
  8
0
 48
0.25
100
AcDbCircle
 10
58.20000000000003
 20
418.1005057492597
 30
0.0
 40
8.0
100
AcDbArc
 50
0.0
 51
90.0
  0
LINE
  5
4C44
330
4BF2
100
AcDbEntity
  8
0
100
AcDbLine
 10
-11.9919604233894
 20
409.8005023492612
 30
0.0
 11
-4.985521123389161
 21
409.8005023492612
 31
0.0
  0
LINE
  5
4C45
330
4BF2
100
AcDbEntity
  8
0
100
AcDbLine
 10
-10.36728082338982
 20
411.4005084492613
 30
0.0
 11
-4.703401423389777
 21
411.4005084492613
 31
0.0
  0
ARC
  5
4C46
330
4BF2
100
AcDbEntity
  8
0
100
AcDbCircle
 10
-7.338533223389504
 20
393.0004955492612
 30
0.0
 40
1.6
100
AcDbArc
 50
320.8066101000014
 51
350.0000916000027
  0
LINE
  5
4C47
330
4BF2
100
AcDbEntity
  8
0
100
AcDbLine
 10
-6.41227862882738
 20
400.900495049261
 30
0.0
 11
-5.414838328827726
 21
401.7373938492613
 31
0.0
  0
LINE
  5
4C48
330
4BF2
100
AcDbEntity
  8
0
100
AcDbLine
 10
-6.055039928827
 20
402.5005050492612
 30
0.0
 11
-5.414838328827726
 21
401.7373938492613
 31
0.0
  0
LINE
  5
4C49
330
4BF2
100
AcDbEntity
  8
0
100
AcDbLine
 10
-6.026597528827776
 20
400.4409041492611
 30
0.0
 11
-5.029187728827537
 21
401.2778029492613
 31
0.0
  0
LINE
  5
4C4A
330
4BF2
100
AcDbEntity
  8
0
100
AcDbLine
 10
8.500000000002271
 20
332.6005057492624
 30
0.0
 11
-6.499999999997726
 21
332.6005057492624
 31
0.0
  0
LINE
  5
4C4B
330
4BF2
100
AcDbEntity
  8
0
100
AcDbLine
 10
-6.499999999997726
 20
320.6005057492624
 30
0.0
 11
8.500000000002271
 21
320.6005057492624
 31
0.0
  0
LINE
  5
4C4C
330
4BF2
100
AcDbEntity
  8
0
100
AcDbLine
 10
19.99999999871227
 20
236.1005057492611
 30
0.0
 11
-19.99999999871238
 21
236.1005057492611
 31
0.0
  0
LINE
  5
4C4D
330
4BF2
100
AcDbEntity
  8
0
 48
0.25
100
AcDbLine
 10
-70.45965881556547
 20
239.7005057492605
 30
0.0
 11
0.0
 21
239.7005057492605
 31
0.0
  0
LINE
  5
4C4E
330
4BF2
100
AcDbEntity
  8
0
 48
0.25
100
AcDbLine
 10
-98.39999999999964
 20
237.3005057492609
 30
0.0
 11
0.0
 21
237.3005057492609
 31
0.0
  0
LINE
  5
4C4F
330
4BF2
100
AcDbEntity
  8
0
 48
0.25
100
AcDbLine
 10
-98.40000000000056
 20
236.1005057492611
 30
0.0
 11
0.0
 21
236.1005057492611
 31
0.0
  0
LINE
  5
4C50
330
4BF2
100
AcDbEntity
  8
0
100
AcDbLine
 10
-64.4999999999975
 20
344.1005057492611
 30
0.0
 11
64.50000000000068
 21
344.1005057492628
 31
0.0
  0
LINE
  5
4C51
330
4BF2
100
AcDbEntity
  8
0
100
AcDbLine
 10
-64.4999999999975
 20
345.100505749261
 30
0.0
 11
64.50000000000068
 21
345.1005057492628
 31
0.0
  0
LINE
  5
4C52
330
4BF2
100
AcDbEntity
  8
0
100
AcDbLine
 10
-64.4999999999975
 20
360.100505749261
 30
0.0
 11
64.5000000000025
 21
360.100505749261
 31
0.0
  0
LINE
  5
4C53
330
4BF2
100
AcDbEntity
  8
0
100
AcDbLine
 10
-58.49999999999704
 20
361.1005057492611
 30
0.0
 11
58.49999999999977
 21
361.1005057492628
 31
0.0
  0
LINE
  5
4C54
330
4BF2
100
AcDbEntity
  8
0
100
AcDbLine
 10
-58.19999999999663
 20
361.4005057492603
 30
0.0
 11
58.20000000000003
 21
361.4005057492621
 31
0.0
  0
LINE
  5
4C55
330
4BF2
100
AcDbEntity
  8
0
 48
0.25
100
AcDbLine
 10
-98.70000000000368
 20
269.1005057492633
 30
0.0
 11
98.70000000000004
 21
269.100505749262
 31
0.0
  0
LINE
  5
4C56
330
4BF2
100
AcDbEntity
  8
0
 48
0.25
100
AcDbLine
 10
-98.70000000000368
 20
253.1005057492633
 30
0.0
 11
98.70000000000004
 21
253.100505749262
 31
0.0
  0
LINE
  5
4C57
330
4BF2
100
AcDbEntity
  8
0
100
AcDbLine
 10
-58.4999999999975
 20
284.1005057492629
 30
0.0
 11
58.49999999999977
 21
284.1005057492629
 31
0.0
  0
LINE
  5
4C58
330
4BF2
100
AcDbEntity
  8
0
 48
0.25
100
AcDbLine
 10
-58.4999999999975
 20
286.1005057492629
 30
0.0
 11
58.49999999999977
 21
286.100505749262
 31
0.0
  0
LINE
  5
4C59
330
4BF2
100
AcDbEntity
  8
0
 48
0.25
100
AcDbLine
 10
-106.3999999999996
 20
371.2613719309683
 30
0.0
 11
-105.0
 21
370.4530815541028
 31
0.0
  0
LINE
  5
4C5A
330
4BF2
100
AcDbEntity
  8
0
 48
0.25
100
AcDbLine
 10
-106.3999999999996
 20
248.597562024108
 30
0.0
 11
-95.10294372515229
 21
237.3005057492607
 31
0.0
  0
ARC
  5
4C5B
330
4BF2
100
AcDbEntity
  8
0
 48
0.25
100
AcDbCircle
 10
-98.40000000000031
 20
245.3005057492611
 30
0.0
 40
9.199999999999999
100
AcDbArc
 50
180.0
 51
270.0
  0
ARC
  5
4C5C
330
4BF2
100
AcDbEntity
  8
0
 48
0.25
100
AcDbCircle
 10
-98.39999999999964
 20
245.3005057492609
 30
0.0
 40
8.0
100
AcDbArc
 50
180.0
 51
270.0
  0
LINE
  5
4C5D
330
4BF2
100
AcDbEntity
  8
0
 48
0.25
100
AcDbLine
 10
-106.3999999999996
 20
376.1005057492602
 30
0.0
 11
-106.3999999999996
 21
245.3005057492609
 31
0.0
  0
LINE
  5
4C5E
330
4BF2
100
AcDbEntity
  8
0
 48
0.25
100
AcDbLine
 10
-107.6000000000003
 20
376.1005057492602
 30
0.0
 11
-107.6000000000003
 21
245.3005057492613
 31
0.0
  0
LINE
  5
4C5F
330
4BF2
100
AcDbEntity
  8
0
 48
0.5
100
AcDbLine
 10
-107.6000000000003
 20
348.1005057492615
 30
0.0
 11
-110.7999999999995
 21
348.1005057492615
 31
0.0
  0
LINE
  5
4C60
330
4BF2
100
AcDbEntity
  8
0
 48
0.5
100
AcDbLine
 10
-107.6000000000003
 20
364.100505749262
 30
0.0
 11
-110.7999999999995
 21
364.1005057492614
 31
0.0
  0
LINE
  5
4C61
330
4BF2
100
AcDbEntity
  8
0
100
AcDbLine
 10
-117.7999999999995
 20
373.5425106882098
 30
0.0
 11
-110.8000000000004
 21
373.5425106882098
 31
0.0
  0
LINE
  5
4C62
330
4BF2
100
AcDbEntity
  8
0
100
AcDbLine
 10
-117.7999999999995
 20
338.6585008103142
 30
0.0
 11
-110.8000000000004
 21
338.6585008103142
 31
0.0
  0
LINE
  5
4C63
330
4BF2
100
AcDbEntity
  8
0
100
AcDbLine
 10
-110.8000000000004
 20
356.1005057492615
 30
0.0
 11
-110.8000000000004
 21
373.5425106882098
 31
0.0
  0
LINE
  5
4C64
330
4BF2
100
AcDbEntity
  8
0
100
AcDbLine
 10
-110.8000000000004
 20
356.1005057492615
 30
0.0
 11
-110.8000000000004
 21
338.6585008103142
 31
0.0
  0
LINE
  5
4C65
330
4BF2
100
AcDbEntity
  8
0
 48
0.25
100
AcDbLine
 10
-107.6000000000003
 20
376.1005057492611
 30
0.0
 11
-106.3999999999996
 21
376.1005057492611
 31
0.0
  0
LINE
  5
4C66
330
4BF2
100
AcDbEntity
  8
0
100
AcDbLine
 10
-122.7999999999995
 20
356.1005057492615
 30
0.0
 11
-122.7999999999995
 21
368.5425106882097
 31
0.0
  0
LINE
  5
4C67
330
4BF2
100
AcDbEntity
  8
0
100
AcDbLine
 10
-122.7999999999995
 20
356.1005057492615
 30
0.0
 11
-122.7999999999995
 21
343.6585008103142
 31
0.0
  0
LINE
  5
4C68
330
4BF2
100
AcDbEntity
  8
0
100
AcDbLine
 10
-122.7999999999991
 20
362.554731351844
 30
0.0
 11
-110.7999999999999
 21
362.5547313518431
 31
0.0
  0
LINE
  5
4C69
330
4BF2
100
AcDbEntity
  8
0
100
AcDbLine
 10
-122.7999999999995
 20
349.5775824516953
 30
0.0
 11
-110.7999999999999
 21
349.5775824516953
 31
0.0
  0
ARC
  5
4C6A
330
4BF2
100
AcDbEntity
  8
0
100
AcDbCircle
 10
-117.7999999999995
 20
368.5425106882097
 30
0.0
 40
5.0
100
AcDbArc
 50
90.0
 51
180.0
  0
ARC
  5
4C6B
330
4BF2
100
AcDbEntity
  8
0
100
AcDbCircle
 10
-117.7999999999995
 20
343.6585008103142
 30
0.0
 40
5.0
100
AcDbArc
 50
180.0
 51
270.0
  0
ARC
  5
4C6C
330
4BF2
100
AcDbEntity
  8
0
100
AcDbCircle
 10
-15.49999999999772
 20
321.1005057492624
 30
0.0
 40
0.5
100
AcDbArc
 50
270.0
 51
0.0
  0
LINE
  5
4C6D
330
4BF2
100
AcDbEntity
  8
0
100
AcDbLine
 10
-14.99999999999772
 20
321.1005057492624
 30
0.0
 11
-14.99999999999772
 21
332.1005057492623
 31
0.0
  0
ARC
  5
4C6E
330
4BF2
100
AcDbEntity
  8
0
100
AcDbCircle
 10
-15.49999999999772
 20
332.1005057492623
 30
0.0
 40
0.5
100
AcDbArc
 50
0.0
 51
90.0
  0
ARC
  5
4C6F
330
4BF2
100
AcDbEntity
  8
0
100
AcDbCircle
 10
-6.499999999997726
 20
332.1005057492623
 30
0.0
 40
0.5
100
AcDbArc
 50
90.0
 51
180.0
  0
ARC
  5
4C70
330
4BF2
100
AcDbEntity
  8
0
100
AcDbCircle
 10
-6.499999999997726
 20
321.1005057492624
 30
0.0
 40
0.5
100
AcDbArc
 50
180.0
 51
270.0
  0
LINE
  5
4C71
330
4BF2
100
AcDbEntity
  8
0
100
AcDbLine
 10
-6.999999999997726
 20
332.1005057492623
 30
0.0
 11
-6.999999999997726
 21
321.1005057492624
 31
0.0
  0
LINE
  5
4C72
330
4BF2
100
AcDbEntity
  8
0
100
AcDbLine
 10
-11.9919604233894
 20
409.8005023492612
 30
0.0
 11
-11.94297202338953
 21
410.0783038492611
 31
0.0
  0
LINE
  5
4C73
330
4BF2
100
AcDbEntity
  8
0
100
AcDbLine
 10
-12.09775342338912
 20
409.2005153492611
 30
0.0
 11
-10.47307002338971
 21
409.2005153492611
 31
0.0
  0
ARC
  5
4C74
330
4BF2
100
AcDbEntity
  8
0
100
AcDbCircle
 10
-10.36728082338982
 20
409.8005023492612
 30
0.0
 40
1.6
100
AcDbArc
 50
90.0
 51
170.0001068000011
  0
ARC
  5
4C75
330
4BF2
100
AcDbEntity
  8
0
100
AcDbCircle
 10
-17.87626062338972
 20
409.8005023492612
 30
0.0
 40
1.6
100
AcDbArc
 50
350.0000916000027
 51
80.00013730000009
  0
LINE
  5
4C76
330
4BF2
100
AcDbEntity
  8
0
100
AcDbLine
 10
-18.48552112338916
 20
409.8005023492612
 30
0.0
 11
-18.20340142338977
 21
411.4005084492613
 31
0.0
  0
ARC
  5
4C77
330
4BF2
100
AcDbEntity
  8
0
100
AcDbCircle
 10
-7.338533223389504
 20
393.0004955492612
 30
0.0
 40
1.6
100
AcDbArc
 50
270.0
 51
299.1926880000011
  0
LINE
  5
4C78
330
4BF2
100
AcDbEntity
  8
0
100
AcDbLine
 10
-7.270513423389502
 20
393.3862148492616
 30
0.0
 11
-6.098489623389696
 21
391.9894061492613
 31
0.0
  0
LINE
  5
4C79
330
4BF2
100
AcDbEntity
  8
0
100
AcDbLine
 10
-7.730150123389876
 20
393.0004955492612
 30
0.0
 11
-6.558130123389901
 21
391.6037059492613
 31
0.0
  0
LINE
  5
4C7A
330
4BF2
100
AcDbEntity
  8
0
100
AcDbLine
 10
-7.270513423389502
 20
393.3862148492616
 30
0.0
 11
-6.026597522573182
 21
400.4409041545089
 31
0.0
  0
LINE
  5
4C7B
330
4BF2
100
AcDbEntity
  8
0
100
AcDbLine
 10
-14.82245052338953
 20
393.7477947492615
 30
0.0
 11
-14.81314262338969
 21
393.8005061492617
 31
0.0
  0
LINE
  5
4C7C
330
4BF2
100
AcDbEntity
  8
0
100
AcDbLine
 10
-13.2467516233894
 20
393.4699054492615
 30
0.0
 11
-13.18844022338931
 21
393.8005061492617
 31
0.0
  0
ARC
  5
4C7D
330
4BF2
100
AcDbEntity
  8
0
100
AcDbCircle
 10
-12.8528498233893
 20
393.4005046492615
 30
0.0
 40
2.0
100
AcDbArc
 50
170.0001068000011
 51
270.0
  0
LINE
  5
4C7E
330
4BF2
100
AcDbEntity
  8
0
100
AcDbLine
 10
-14.81314262338969
 20
393.8005061492617
 30
0.0
 11
-13.18844022338931
 21
393.8005061492617
 31
0.0
  0
LINE
  5
4C7F
330
4BF2
100
AcDbEntity
  8
0
100
AcDbLine
 10
-14.70734962338997
 20
394.4005046492614
 30
0.0
 11
-13.08265102338941
 21
394.4005046492614
 31
0.0
  0
ARC
  5
4C80
330
4BF2
100
AcDbEntity
  8
0
100
AcDbCircle
 10
-12.8528498233893
 20
393.4005046492615
 30
0.0
 40
0.4
100
AcDbArc
 50
170.0001068000011
 51
270.0
  0
LINE
  5
4C81
330
4BF2
100
AcDbEntity
  8
0
100
AcDbLine
 10
-12.18517832882776
 20
401.663404049261
 30
0.0
 11
-11.18778752882758
 21
402.5005050492612
 31
0.0
  0
LINE
  5
4C82
330
4BF2
100
AcDbEntity
  8
0
100
AcDbLine
 10
-12.18517832882776
 20
401.663404049261
 30
0.0
 11
-11.54493852882774
 21
400.900495049261
 31
0.0
  0
LINE
  5
4C83
330
4BF2
100
AcDbEntity
  8
0
100
AcDbLine
 10
-12.64475772882747
 20
401.2777152492612
 30
0.0
 11
-12.00457902882704
 21
400.5148063492613
 31
0.0
  0
LINE
  5
4C84
330
4BF2
100
AcDbEntity
  8
0
100
AcDbLine
 10
-13.64240792882742
 20
400.4404044492611
 30
0.0
 11
-12.64475772882747
 21
401.2777152492612
 31
0.0
  0
LINE
  5
4C85
330
4BF2
100
AcDbEntity
  8
0
100
AcDbLine
 10
-13.21109912882753
 20
402.8860030492613
 30
0.0
 11
-12.57087092882761
 21
402.1230063492611
 31
0.0
  0
LINE
  5
4C86
330
4BF2
100
AcDbEntity
  8
0
100
AcDbLine
 10
-12.57087092882761
 20
402.1230063492611
 30
0.0
 11
-11.57340762882745
 21
402.9602065492611
 31
0.0
  0
LINE
  5
4C87
330
4BF2
100
AcDbEntity
  8
0
100
AcDbLine
 10
-14.70734962338997
 20
394.4005046492614
 30
0.0
 11
-13.64240786017331
 21
400.4404045068817
 31
0.0
  0
LINE
  5
4C88
330
4BF2
100
AcDbEntity
  8
0
100
AcDbLine
 10
-13.08265102338941
 20
394.4005046492614
 30
0.0
 11
-12.00456958421205
 21
400.5147950939966
 31
0.0
  0
LINE
  5
4C89
330
4BF2
100
AcDbEntity
  8
0
100
AcDbLine
 10
-13.60004132338986
 20
386.4005046492615
 30
0.0
 11
-10.80004132338967
 21
383.6005054492614
 31
0.0
  0
CIRCLE
  5
4C8A
330
4BF2
100
AcDbEntity
  8
0
100
AcDbCircle
 10
-17.0999825233896
 20
393.2005153492613
 30
0.0
 40
0.7
  0
LINE
  5
4C8B
330
4BF2
100
AcDbEntity
  8
0
100
AcDbLine
 10
-19.26284202338979
 20
392.7226939492615
 30
0.0
 11
-17.88891743947738
 21
400.5146041619561
 31
0.0
  0
LINE
  5
4C8C
330
4BF2
100
AcDbEntity
  8
0
100
AcDbLine
 10
-18.45519782882752
 20
402.123105549261
 30
0.0
 11
-17.45773842882704
 21
402.9600043492613
 31
0.0
  0
LINE
  5
4C8D
330
4BF2
100
AcDbEntity
  8
0
100
AcDbLine
 10
-19.09542992882711
 20
402.8862052492612
 30
0.0
 11
-18.45519782882752
 21
402.123105549261
 31
0.0
  0
LINE
  5
4C8E
330
4BF2
100
AcDbEntity
  8
0
100
AcDbLine
 10
-18.52918772882754
 20
401.2778029492613
 30
0.0
 11
-17.8889174288272
 21
400.514604149261
 31
0.0
  0
LINE
  5
4C8F
330
4BF2
100
AcDbEntity
  8
0
100
AcDbLine
 10
-12.8528498233893
 20
391.4005046492615
 30
0.0
 11
-7.338533223389504
 21
391.4005046492615
 31
0.0
  0
LINE
  5
4C90
330
4BF2
100
AcDbEntity
  8
0
100
AcDbLine
 10
-12.8528498233893
 20
393.0004955492612
 30
0.0
 11
-7.730150123389876
 21
393.0004955492612
 31
0.0
  0
LINE
  5
4C91
330
4BF2
100
AcDbEntity
  8
0
100
AcDbLine
 10
-6.055039928827
 20
402.5005050492612
 30
0.0
 11
-11.18778752882758
 21
402.5005050492612
 31
0.0
  0
LINE
  5
4C92
330
4BF2
100
AcDbEntity
  8
0
100
AcDbLine
 10
-6.41227862882738
 20
400.900495049261
 30
0.0
 11
-11.54493852882774
 21
400.900495049261
 31
0.0
  0
LINE
  5
4C93
330
4BF2
100
AcDbEntity
  8
0
100
AcDbLine
 10
-13.60004132338986
 20
386.4005046492615
 30
0.0
 11
-8.000041323389496
 21
386.4005046492615
 31
0.0
  0
LINE
  5
4C94
330
4BF2
100
AcDbEntity
  8
0
100
AcDbLine
 10
-10.80004132338967
 20
383.6005054492614
 30
0.0
 11
-8.000041323389496
 21
386.4005046492615
 31
0.0
  0
LINE
  5
4C95
330
4BF2
100
AcDbEntity
  8
0
100
AcDbLine
 10
-11.57340764735204
 20
402.9602065337123
 30
0.0
 11
-10.47307002338971
 21
409.2005153492611
 31
0.0
  0
LINE
  5
4C96
330
4BF2
100
AcDbEntity
  8
0
100
AcDbLine
 10
-13.21109907678351
 20
402.8860029872374
 30
0.0
 11
-12.09774192338977
 21
409.2005153492611
 31
0.0
  0
LINE
  5
4C97
330
4BF2
100
AcDbEntity
  8
0
100
AcDbLine
 10
-17.45773841086543
 20
402.9600043643321
 30
0.0
 11
-16.30058082338951
 21
409.5227046492611
 31
0.0
  0
LINE
  5
4C98
330
4BF2
100
AcDbEntity
  8
0
100
AcDbLine
 10
-19.09542993424406
 20
402.8862052557173
 30
0.0
 11
-17.59842092338954
 21
411.3762012492615
 31
0.0
  0
LINE
  5
4C99
330
4BF2
100
AcDbEntity
  8
0
100
AcDbLine
 10
-52.99999999997954
 20
295.1005057492624
 30
0.0
 11
-39.99999999997953
 21
295.1005057492624
 31
0.0
  0
LINE
  5
4C9A
330
4BF2
100
AcDbEntity
  8
0
100
AcDbLine
 10
-53.99999999997953
 20
296.1005057492624
 30
0.0
 11
-40.99999999997954
 21
296.1005057492624
 31
0.0
  0
LINE
  5
4C9B
330
4BF2
100
AcDbEntity
  8
0
100
AcDbLine
 10
-40.99999999997954
 20
311.1005057492624
 30
0.0
 11
-53.99999999997953
 21
311.1005057492624
 31
0.0
  0
LINE
  5
4C9C
330
4BF2
100
AcDbEntity
  8
0
100
AcDbLine
 10
-39.49999999999773
 20
332.6005057492624
 30
0.0
 11
-54.49999999999771
 21
332.6005057492624
 31
0.0
  0
LINE
  5
4C9D
330
4BF2
100
AcDbEntity
  8
0
100
AcDbLine
 10
-54.49999999999771
 20
320.6005057492624
 30
0.0
 11
-39.49999999999773
 21
320.6005057492624
 31
0.0
  0
LINE
  5
4C9E
330
4BF2
100
AcDbEntity
  8
0
100
AcDbLine
 10
-43.99998930000065
 20
389.1005072492608
 30
0.0
 11
-43.99998930000065
 21
386.3005080492608
 31
0.0
  0
LINE
  5
4C9F
330
4BF2
100
AcDbEntity
  8
0
100
AcDbLine
 10
-49.99998930000066
 20
387.7005095492607
 30
0.0
 11
-43.99998930000065
 21
389.1005072492608
 31
0.0
  0
LINE
  5
4CA0
330
4BF2
100
AcDbEntity
  8
0
100
AcDbLine
 10
-49.99998930000066
 20
387.7005095492607
 30
0.0
 11
-43.99998930000065
 21
386.3005080492608
 31
0.0
  0
LINE
  5
4CA1
330
4BF2
100
AcDbEntity
  8
0
100
AcDbLine
 10
-43.99998930000065
 20
395.1005187492607
 30
0.0
 11
-43.99998930000065
 21
392.3005080492608
 31
0.0
  0
LINE
  5
4CA2
330
4BF2
100
AcDbEntity
  8
0
100
AcDbLine
 10
-49.99998930000066
 20
393.7005095492607
 30
0.0
 11
-43.99998930000065
 21
395.1005187492607
 31
0.0
  0
LINE
  5
4CA3
330
4BF2
100
AcDbEntity
  8
0
100
AcDbLine
 10
-49.99998930000066
 20
393.7005095492607
 30
0.0
 11
-43.99998930000065
 21
392.3005080492608
 31
0.0
  0
CIRCLE
  5
4CA4
330
4BF2
100
AcDbEntity
  8
0
100
AcDbCircle
 10
-46.80000000000041
 20
410.7005057492604
 30
0.0
 40
3.099999899999998
  0
CIRCLE
  5
4CA5
330
4BF2
100
AcDbEntity
  8
0
100
AcDbCircle
 10
-46.80000000000041
 20
410.7005057492604
 30
0.0
 40
4.0
  0
LINE
  5
4CA6
330
4BF2
100
AcDbEntity
  8
0
 48
0.25
100
AcDbLine
 10
-66.49999999999749
 20
342.1005057492611
 30
0.0
 11
-66.49999999999749
 21
294.1005057492629
 31
0.0
  0
LINE
  5
4CA7
330
4BF2
100
AcDbEntity
  8
0
 48
0.25
100
AcDbLine
 10
-68.4999999999975
 20
418.4005057492603
 30
0.0
 11
-68.4999999999975
 21
294.1005057492629
 31
0.0
  0
LINE
  5
4CA8
330
4BF2
100
AcDbEntity
  8
0
 48
0.25
100
AcDbLine
 10
-97.50294372515236
 20
239.7005057492605
 30
0.0
 11
-70.45965881556547
 21
239.7005057492605
 31
0.0
  0
ARC
  5
4CA9
330
4BF2
100
AcDbEntity
  8
0
 48
0.25
100
AcDbCircle
 10
-88.45824574445122
 20
237.7005057492605
 30
0.0
 40
2.0
100
AcDbArc
 50
90.0
 51
149.9999999999994
  0
LINE
  5
4CAA
330
4BF2
100
AcDbEntity
  8
0
 48
0.25
100
AcDbLine
 10
-91.0012237554829
 20
237.2959386316241
 30
0.0
 11
-90.19029655202031
 21
238.7005057492605
 31
0.0
  0
ARC
  5
4CAB
330
4BF2
100
AcDbEntity
  8
0
 48
0.25
100
AcDbCircle
 10
-76.04175425554877
 20
237.7005057492605
 30
0.0
 40
2.0
100
AcDbArc
 50
30.00000000000055
 51
90.0
  0
LINE
  5
4CAC
330
4BF2
100
AcDbEntity
  8
0
 48
0.25
100
AcDbLine
 10
-73.49877624451711
 20
237.2959386316241
 30
0.0
 11
-74.30970344797971
 21
238.7005057492605
 31
0.0
  0
ARC
  5
4CAD
330
4BF2
100
AcDbEntity
  8
0
100
AcDbCircle
 10
-52.99999999997954
 20
296.1005057492624
 30
0.0
 40
1.0
100
AcDbArc
 50
180.0
 51
270.0
  0
ARC
  5
4CAE
330
4BF2
100
AcDbEntity
  8
0
100
AcDbCircle
 10
-53.99999999997953
 20
297.1005057492624
 30
0.0
 40
1.0
100
AcDbArc
 50
180.0
 51
270.0
  0
ARC
  5
4CAF
330
4BF2
100
AcDbEntity
  8
0
100
AcDbCircle
 10
-53.99999999997953
 20
310.1005057492624
 30
0.0
 40
1.0
100
AcDbArc
 50
90.0
 51
180.0
  0
LINE
  5
4CB0
330
4BF2
100
AcDbEntity
  8
0
100
AcDbLine
 10
-54.99999999997953
 20
310.1005057492624
 30
0.0
 11
-54.99999999997953
 21
297.1005057492624
 31
0.0
  0
ARC
  5
4CB1
330
4BF2
100
AcDbEntity
  8
0
 48
0.25
100
AcDbCircle
 10
-98.70000000000368
 20
253.9005057492631
 30
0.0
 40
0.8
100
AcDbArc
 50
179.9999999999935
 51
270.0
  0
ARC
  5
4CB2
330
4BF2
100
AcDbEntity
  8
0
 48
0.25
100
AcDbCircle
 10
-58.4999999999975
 20
294.1005057492629
 30
0.0
 40
10.0
100
AcDbArc
 50
180.0
 51
270.0
  0
ARC
  5
4CB3
330
4BF2
100
AcDbEntity
  8
0
 48
0.25
100
AcDbCircle
 10
-58.4999999999975
 20
294.1005057492629
 30
0.0
 40
8.0
100
AcDbArc
 50
180.0
 51
270.0
  0
ARC
  5
4CB4
330
4BF2
100
AcDbEntity
  8
0
100
AcDbCircle
 10
-54.49999999999771
 20
332.1005057492623
 30
0.0
 40
0.5
100
AcDbArc
 50
90.0
 51
180.0
  0
LINE
  5
4CB5
330
4BF2
100
AcDbEntity
  8
0
100
AcDbLine
 10
-54.99999999999772
 20
332.1005057492623
 30
0.0
 11
-54.99999999999772
 21
321.1005057492624
 31
0.0
  0
ARC
  5
4CB6
330
4BF2
100
AcDbEntity
  8
0
100
AcDbCircle
 10
-54.49999999999771
 20
321.1005057492624
 30
0.0
 40
0.5
100
AcDbArc
 50
180.0
 51
270.0
  0
LINE
  5
4CB7
330
4BF2
100
AcDbEntity
  8
0
 48
0.25
100
AcDbLine
 10
-99.49999999999613
 20
346.1005057492615
 30
0.0
 11
-99.49999999999613
 21
356.1005057492615
 31
0.0
  0
LINE
  5
4CB8
330
4BF2
100
AcDbEntity
  8
0
 48
0.25
100
AcDbLine
 10
-99.49999999999613
 20
366.1005057492614
 30
0.0
 11
-99.49999999999613
 21
356.1005057492615
 31
0.0
  0
LINE
  5
4CB9
330
4BF2
100
AcDbEntity
  8
0
 48
0.25
100
AcDbLine
 10
-66.49999999999704
 20
358.1005057492611
 30
0.0000000000000026
 11
-66.49999999999704
 21
347.1005057492607
 31
-0.000000000000003
  0
LINE
  5
4CBA
330
4BF2
100
AcDbEntity
  8
0
 48
0.25
100
AcDbLine
 10
-66.49999999999749
 20
358.1005057492611
 30
0.0
 11
-66.49999999999749
 21
347.1005057492611
 31
0.0
  0
ARC
  5
4CBB
330
4BF2
100
AcDbEntity
  8
0
100
AcDbCircle
 10
-64.4999999999975
 20
358.1005057492611
 30
0.0
 40
2.0
100
AcDbArc
 50
90.0
 51
180.0
  0
ARC
  5
4CBC
330
4BF2
100
AcDbEntity
  8
0
100
AcDbCircle
 10
-64.4999999999975
 20
347.1005057492611
 30
0.0
 40
2.0
100
AcDbArc
 50
180.0
 51
270.0
  0
ARC
  5
4CBD
330
4BF2
100
AcDbEntity
  8
0
100
AcDbCircle
 10
-64.4999999999975
 20
342.1005057492611
 30
0.0
 40
2.0
100
AcDbArc
 50
90.0
 51
180.0
  0
ARC
  5
4CBE
330
4BF2
100
AcDbEntity
  8
0
100
AcDbCircle
 10
-64.4999999999975
 20
342.1005057492611
 30
0.0
 40
2.0
100
AcDbArc
 50
90.0
 51
180.0
  0
LINE
  5
4CBF
330
4BF2
100
AcDbEntity
  8
0
 48
0.25
100
AcDbLine
 10
-66.49999999999749
 20
418.4005057492603
 30
0.0
 11
-66.49999999999749
 21
369.1005057492611
 31
0.0
  0
LINE
  5
4CC0
330
4BF2
100
AcDbEntity
  8
0
 48
0.25
100
AcDbLine
 10
-66.19999999999754
 20
418.1005057492598
 30
0.0
 11
-66.19999999999709
 21
369.4005057492603
 31
0.0
  0
ARC
  5
4CC1
330
4BF2
100
AcDbEntity
  8
0
 48
0.25
100
AcDbCircle
 10
-58.4999999999975
 20
369.1005057492611
 30
0.0
 40
8.0
100
AcDbArc
 50
180.0
 51
270.0
  0
ARC
  5
4CC2
330
4BF2
100
AcDbEntity
  8
0
 48
0.25
100
AcDbCircle
 10
-58.19999999999708
 20
369.4005057492603
 30
0.0
 40
8.0
100
AcDbArc
 50
180.0
 51
270.0
  0
ARC
  5
4CC3
330
4BF2
100
AcDbEntity
  8
0
 48
0.25
100
AcDbCircle
 10
-30.22708075567812
 20
237.7005057492605
 30
0.0
 40
2.0
100
AcDbArc
 50
90.0
 51
149.9999999999994
  0
LINE
  5
4CC4
330
4BF2
100
AcDbEntity
  8
0
 48
0.25
100
AcDbLine
 10
-32.77005876670978
 20
237.2959386316241
 30
0.0
 11
-31.95913156324718
 21
238.7005057492605
 31
0.0
  0
ARC
  5
4CC5
330
4BF2
100
AcDbEntity
  8
0
100
AcDbCircle
 10
-40.99999999997954
 20
297.1005057492624
 30
0.0
 40
1.0
100
AcDbArc
 50
270.0
 51
0.0
  0
ARC
  5
4CC6
330
4BF2
100
AcDbEntity
  8
0
100
AcDbCircle
 10
-39.99999999997953
 20
296.1005057492624
 30
0.0
 40
1.0
100
AcDbArc
 50
270.0
 51
0.0
  0
LINE
  5
4CC7
330
4BF2
100
AcDbEntity
  8
0
100
AcDbLine
 10
-38.99999999997954
 20
296.1005057492624
 30
0.0
 11
-38.99999999997954
 21
309.1005057492623
 31
0.0
  0
LINE
  5
4CC8
330
4BF2
100
AcDbEntity
  8
0
100
AcDbLine
 10
-39.99999999997953
 20
297.1005057492624
 30
0.0
 11
-39.99999999997953
 21
310.1005057492624
 31
0.0
  0
ARC
  5
4CC9
330
4BF2
100
AcDbEntity
  8
0
100
AcDbCircle
 10
-40.99999999997954
 20
310.1005057492624
 30
0.0
 40
1.0
100
AcDbArc
 50
0.0
 51
90.0
  0
ARC
  5
4CCA
330
4BF2
100
AcDbEntity
  8
0
100
AcDbCircle
 10
-39.99999999997953
 20
309.1005057492623
 30
0.0
 40
1.0
100
AcDbArc
 50
0.0
 51
90.0
  0
ARC
  5
4CCB
330
4BF2
100
AcDbEntity
  8
0
100
AcDbCircle
 10
-39.49999999999773
 20
321.1005057492624
 30
0.0
 40
0.5
100
AcDbArc
 50
270.0
 51
0.0
  0
LINE
  5
4CCC
330
4BF2
100
AcDbEntity
  8
0
100
AcDbLine
 10
-38.99999999999773
 20
321.1005057492624
 30
0.0
 11
-38.99999999999773
 21
332.1005057492623
 31
0.0
  0
ARC
  5
4CCD
330
4BF2
100
AcDbEntity
  8
0
100
AcDbCircle
 10
-39.49999999999773
 20
332.1005057492623
 30
0.0
 40
0.5
100
AcDbArc
 50
0.0
 51
90.0
  0
ARC
  5
4CCE
330
4BF2
100
AcDbEntity
  8
0
100
AcDbCircle
 10
-30.49999999999773
 20
321.1005057492624
 30
0.0
 40
0.5
100
AcDbArc
 50
180.0
 51
270.0
  0
LINE
  5
4CCF
330
4BF2
100
AcDbEntity
  8
0
100
AcDbLine
 10
-30.99999999999773
 20
332.1005057492623
 30
0.0
 11
-30.99999999999773
 21
321.1005057492624
 31
0.0
  0
ARC
  5
4CD0
330
4BF2
100
AcDbEntity
  8
0
100
AcDbCircle
 10
-30.49999999999773
 20
332.1005057492623
 30
0.0
 40
0.5
100
AcDbArc
 50
90.0
 51
180.0
  0
ARC
  5
4CD1
330
4BF2
100
AcDbEntity
  8
0
100
AcDbCircle
 10
-23.86728082338982
 20
409.8005023492612
 30
0.0
 40
1.6
100
AcDbArc
 50
90.0
 51
170.0001068000011
  0
LINE
  5
4CD2
330
4BF2
100
AcDbEntity
  8
0
100
AcDbLine
 10
-25.59775342338912
 20
409.2005153492611
 30
0.0
 11
-23.97307002338971
 21
409.2005153492611
 31
0.0
  0
LINE
  5
4CD3
330
4BF2
100
AcDbEntity
  8
0
100
AcDbLine
 10
-25.4919604233894
 20
409.8005023492612
 30
0.0
 11
-25.44297202338953
 21
410.0783038492611
 31
0.0
  0
LINE
  5
4CD4
330
4BF2
100
AcDbEntity
  8
0
100
AcDbLine
 10
-31.98552112338916
 20
409.8005023492612
 30
0.0
 11
-31.70340142338978
 21
411.4005084492613
 31
0.0
  0
ARC
  5
4CD5
330
4BF2
100
AcDbEntity
  8
0
100
AcDbCircle
 10
-31.37626062338973
 20
409.8005023492612
 30
0.0
 40
1.6
100
AcDbArc
 50
350.0000916000027
 51
80.00013730000009
  0
LINE
  5
4CD6
330
4BF2
100
AcDbEntity
  8
0
100
AcDbLine
 10
-38.99196042338939
 20
409.8005023492612
 30
0.0
 11
-38.94297202338953
 21
410.0783038492611
 31
0.0
  0
LINE
  5
4CD7
330
4BF2
100
AcDbEntity
  8
0
100
AcDbLine
 10
-39.09775342338912
 20
409.2005153492611
 30
0.0
 11
-37.47307002338971
 21
409.2005153492611
 31
0.0
  0
ARC
  5
4CD8
330
4BF2
100
AcDbEntity
  8
0
100
AcDbCircle
 10
-37.36728082338982
 20
409.8005023492612
 30
0.0
 40
1.6
100
AcDbArc
 50
90.0
 51
170.0001068000011
  0
LINE
  5
4CD9
330
4BF2
100
AcDbEntity
  8
0
100
AcDbLine
 10
-38.99196042338939
 20
409.8005023492612
 30
0.0
 11
-31.98552112338916
 21
409.8005023492612
 31
0.0
  0
LINE
  5
4CDA
330
4BF2
100
AcDbEntity
  8
0
100
AcDbLine
 10
-37.36728082338982
 20
411.4005084492613
 30
0.0
 11
-31.70340142338978
 21
411.4005084492613
 31
0.0
  0
LINE
  5
4CDB
330
4BF2
100
AcDbEntity
  8
0
100
AcDbLine
 10
-24.30004132338968
 20
383.6005054492614
 30
0.0
 11
-21.5000413233895
 21
386.4005046492615
 31
0.0
  0
LINE
  5
4CDC
330
4BF2
100
AcDbEntity
  8
0
100
AcDbLine
 10
-27.10004132338986
 20
386.4005046492615
 30
0.0
 11
-24.30004132338968
 21
383.6005054492614
 31
0.0
  0
LINE
  5
4CDD
330
4BF2
100
AcDbEntity
  8
0
100
AcDbLine
 10
-27.10004132338986
 20
386.4005046492615
 30
0.0
 11
-21.5000413233895
 21
386.4005046492615
 31
0.0
  0
LINE
  5
4CDE
330
4BF2
100
AcDbEntity
  8
0
100
AcDbLine
 10
-20.7705134233895
 20
393.3862148492616
 30
0.0
 11
-19.52659752257318
 21
400.4409041545089
 31
0.0
  0
LINE
  5
4CDF
330
4BF2
100
AcDbEntity
  8
0
100
AcDbLine
 10
-26.58265102338942
 20
394.4005046492614
 30
0.0
 11
-25.50456958421205
 21
400.5147950939966
 31
0.0
  0
LINE
  5
4CE0
330
4BF2
100
AcDbEntity
  8
0
100
AcDbLine
 10
-28.20734962338998
 20
394.4005046492614
 30
0.0
 11
-27.14240786017331
 21
400.4404045068817
 31
0.0
  0
LINE
  5
4CE1
330
4BF2
100
AcDbEntity
  8
0
100
AcDbLine
 10
-26.07087092882762
 20
402.1230063492611
 30
0.0
 11
-25.07340762882745
 21
402.9602065492611
 31
0.0
  0
LINE
  5
4CE2
330
4BF2
100
AcDbEntity
  8
0
100
AcDbLine
 10
-26.71109912882753
 20
402.8860030492613
 30
0.0
 11
-26.07087092882762
 21
402.1230063492611
 31
0.0
  0
LINE
  5
4CE3
330
4BF2
100
AcDbEntity
  8
0
100
AcDbLine
 10
-27.14240792882743
 20
400.4404044492611
 30
0.0
 11
-26.14475772882747
 21
401.2777152492612
 31
0.0
  0
LINE
  5
4CE4
330
4BF2
100
AcDbEntity
  8
0
100
AcDbLine
 10
-26.14475772882747
 20
401.2777152492612
 30
0.0
 11
-25.50457902882704
 21
400.5148063492613
 31
0.0
  0
LINE
  5
4CE5
330
4BF2
100
AcDbEntity
  8
0
100
AcDbLine
 10
-25.68517832882776
 20
401.663404049261
 30
0.0
 11
-25.04493852882774
 21
400.900495049261
 31
0.0
  0
LINE
  5
4CE6
330
4BF2
100
AcDbEntity
  8
0
100
AcDbLine
 10
-25.68517832882776
 20
401.663404049261
 30
0.0
 11
-24.68778752882759
 21
402.5005050492612
 31
0.0
  0
LINE
  5
4CE7
330
4BF2
100
AcDbEntity
  8
0
100
AcDbLine
 10
-19.91227862882738
 20
400.900495049261
 30
0.0
 11
-25.04493852882774
 21
400.900495049261
 31
0.0
  0
LINE
  5
4CE8
330
4BF2
100
AcDbEntity
  8
0
100
AcDbLine
 10
-19.555039928827
 20
402.5005050492612
 30
0.0
 11
-24.68778752882759
 21
402.5005050492612
 31
0.0
  0
LINE
  5
4CE9
330
4BF2
100
AcDbEntity
  8
0
100
AcDbLine
 10
-21.23015012338988
 20
393.0004955492612
 30
0.0
 11
-20.0581301233899
 21
391.6037059492613
 31
0.0
  0
LINE
  5
4CEA
330
4BF2
100
AcDbEntity
  8
0
100
AcDbLine
 10
-20.7705134233895
 20
393.3862148492616
 30
0.0
 11
-19.59848962338969
 21
391.9894061492613
 31
0.0
  0
ARC
  5
4CEB
330
4BF2
100
AcDbEntity
  8
0
100
AcDbCircle
 10
-26.35284982338931
 20
393.4005046492615
 30
0.0
 40
0.4
100
AcDbArc
 50
170.0001068000011
 51
270.0
  0
LINE
  5
4CEC
330
4BF2
100
AcDbEntity
  8
0
100
AcDbLine
 10
-28.20734962338998
 20
394.4005046492614
 30
0.0
 11
-26.58265102338942
 21
394.4005046492614
 31
0.0
  0
LINE
  5
4CED
330
4BF2
100
AcDbEntity
  8
0
100
AcDbLine
 10
-28.31314262338969
 20
393.8005061492617
 30
0.0
 11
-26.68844022338931
 21
393.8005061492617
 31
0.0
  0
ARC
  5
4CEE
330
4BF2
100
AcDbEntity
  8
0
100
AcDbCircle
 10
-20.83853322338951
 20
393.0004955492612
 30
0.0
 40
1.6
100
AcDbArc
 50
270.0
 51
299.1926880000011
  0
ARC
  5
4CEF
330
4BF2
100
AcDbEntity
  8
0
100
AcDbCircle
 10
-26.35284982338931
 20
393.4005046492615
 30
0.0
 40
2.0
100
AcDbArc
 50
170.0001068000011
 51
270.0
  0
LINE
  5
4CF0
330
4BF2
100
AcDbEntity
  8
0
100
AcDbLine
 10
-26.35284982338931
 20
393.0004955492612
 30
0.0
 11
-21.23015012338988
 21
393.0004955492612
 31
0.0
  0
LINE
  5
4CF1
330
4BF2
100
AcDbEntity
  8
0
100
AcDbLine
 10
-26.7467516233894
 20
393.4699054492615
 30
0.0
 11
-26.68844022338931
 21
393.8005061492617
 31
0.0
  0
LINE
  5
4CF2
330
4BF2
100
AcDbEntity
  8
0
100
AcDbLine
 10
-26.35284982338931
 20
391.4005046492615
 30
0.0
 11
-20.83853322338951
 21
391.4005046492615
 31
0.0
  0
LINE
  5
4CF3
330
4BF2
100
AcDbEntity
  8
0
100
AcDbLine
 10
-28.32245052338953
 20
393.7477947492615
 30
0.0
 11
-28.31314262338969
 21
393.8005061492617
 31
0.0
  0
ARC
  5
4CF4
330
4BF2
100
AcDbEntity
  8
0
100
AcDbCircle
 10
-34.33853322338951
 20
393.0004955492612
 30
0.0
 40
1.6
100
AcDbArc
 50
320.8066101000014
 51
350.0000916000027
  0
LINE
  5
4CF5
330
4BF2
100
AcDbEntity
  8
0
100
AcDbLine
 10
-33.41227862882738
 20
400.900495049261
 30
0.0
 11
-32.41483832882773
 21
401.7373938492613
 31
0.0
  0
LINE
  5
4CF6
330
4BF2
100
AcDbEntity
  8
0
100
AcDbLine
 10
-33.055039928827
 20
402.5005050492612
 30
0.0
 11
-32.41483832882773
 21
401.7373938492613
 31
0.0
  0
LINE
  5
4CF7
330
4BF2
100
AcDbEntity
  8
0
100
AcDbLine
 10
-32.02918772882754
 20
401.2778029492613
 30
0.0
 11
-31.3889174288272
 21
400.514604149261
 31
0.0
  0
LINE
  5
4CF8
330
4BF2
100
AcDbEntity
  8
0
100
AcDbLine
 10
-33.02659752882778
 20
400.4409041492611
 30
0.0
 11
-32.02918772882754
 21
401.2778029492613
 31
0.0
  0
LINE
  5
4CF9
330
4BF2
100
AcDbEntity
  8
0
100
AcDbLine
 10
-32.59542992882712
 20
402.8862052492612
 30
0.0
 11
-31.95519782882752
 21
402.123105549261
 31
0.0
  0
LINE
  5
4CFA
330
4BF2
100
AcDbEntity
  8
0
100
AcDbLine
 10
-31.95519782882752
 20
402.123105549261
 30
0.0
 11
-30.95773842882704
 21
402.9600043492613
 31
0.0
  0
LINE
  5
4CFB
330
4BF2
100
AcDbEntity
  8
0
100
AcDbLine
 10
-32.7628420233898
 20
392.7226939492615
 30
0.0
 11
-31.38891743947738
 21
400.5146041619561
 31
0.0
  0
CIRCLE
  5
4CFC
330
4BF2
100
AcDbEntity
  8
0
100
AcDbCircle
 10
-30.59998252338961
 20
393.2005153492613
 30
0.0
 40
0.7
  0
LINE
  5
4CFD
330
4BF2
100
AcDbEntity
  8
0
100
AcDbLine
 10
-41.82245052338952
 20
393.7477947492615
 30
0.0
 11
-41.81314262338968
 21
393.8005061492617
 31
0.0
  0
LINE
  5
4CFE
330
4BF2
100
AcDbEntity
  8
0
100
AcDbLine
 10
-40.24675162338939
 20
393.4699054492615
 30
0.0
 11
-40.18844022338931
 21
393.8005061492617
 31
0.0
  0
ARC
  5
4CFF
330
4BF2
100
AcDbEntity
  8
0
100
AcDbCircle
 10
-39.85284982338932
 20
393.4005046492615
 30
0.0
 40
2.0
100
AcDbArc
 50
170.0001068000011
 51
270.0
  0
LINE
  5
4D00
330
4BF2
100
AcDbEntity
  8
0
100
AcDbLine
 10
-41.81314262338968
 20
393.8005061492617
 30
0.0
 11
-40.18844022338931
 21
393.8005061492617
 31
0.0
  0
LINE
  5
4D01
330
4BF2
100
AcDbEntity
  8
0
100
AcDbLine
 10
-41.70734962338996
 20
394.4005046492614
 30
0.0
 11
-40.0826510233894
 21
394.4005046492614
 31
0.0
  0
ARC
  5
4D02
330
4BF2
100
AcDbEntity
  8
0
100
AcDbCircle
 10
-39.85284982338932
 20
393.4005046492615
 30
0.0
 40
0.4
100
AcDbArc
 50
170.0001068000011
 51
270.0
  0
LINE
  5
4D03
330
4BF2
100
AcDbEntity
  8
0
100
AcDbLine
 10
-39.18517832882776
 20
401.663404049261
 30
0.0
 11
-38.1877875288276
 21
402.5005050492612
 31
0.0
  0
LINE
  5
4D04
330
4BF2
100
AcDbEntity
  8
0
100
AcDbLine
 10
-39.18517832882776
 20
401.663404049261
 30
0.0
 11
-38.54493852882774
 21
400.900495049261
 31
0.0
  0
LINE
  5
4D05
330
4BF2
100
AcDbEntity
  8
0
100
AcDbLine
 10
-39.64475772882746
 20
401.2777152492612
 30
0.0
 11
-39.00457902882704
 21
400.5148063492613
 31
0.0
  0
LINE
  5
4D06
330
4BF2
100
AcDbEntity
  8
0
100
AcDbLine
 10
-40.64240792882742
 20
400.4404044492611
 30
0.0
 11
-39.64475772882746
 21
401.2777152492612
 31
0.0
  0
LINE
  5
4D07
330
4BF2
100
AcDbEntity
  8
0
100
AcDbLine
 10
-40.21109912882752
 20
402.8860030492613
 30
0.0
 11
-39.57087092882762
 21
402.1230063492611
 31
0.0
  0
LINE
  5
4D08
330
4BF2
100
AcDbEntity
  8
0
100
AcDbLine
 10
-39.57087092882762
 20
402.1230063492611
 30
0.0
 11
-38.57340762882746
 21
402.9602065492611
 31
0.0
  0
LINE
  5
4D09
330
4BF2
100
AcDbEntity
  8
0
100
AcDbLine
 10
-41.70734962338996
 20
394.4005046492614
 30
0.0
 11
-40.64240786017331
 21
400.4404045068817
 31
0.0
  0
LINE
  5
4D0A
330
4BF2
100
AcDbEntity
  8
0
100
AcDbLine
 10
-40.0826510233894
 20
394.4005046492614
 30
0.0
 11
-39.00456958421204
 21
400.5147950939966
 31
0.0
  0
LINE
  5
4D0B
330
4BF2
100
AcDbEntity
  8
0
100
AcDbLine
 10
-40.60004132338986
 20
386.4005046492615
 30
0.0
 11
-35.00004132338951
 21
386.4005046492615
 31
0.0
  0
LINE
  5
4D0C
330
4BF2
100
AcDbEntity
  8
0
100
AcDbLine
 10
-40.60004132338986
 20
386.4005046492615
 30
0.0
 11
-37.80004132338968
 21
383.6005054492614
 31
0.0
  0
LINE
  5
4D0D
330
4BF2
100
AcDbEntity
  8
0
100
AcDbLine
 10
-37.80004132338968
 20
383.6005054492614
 30
0.0
 11
-35.00004132338951
 21
386.4005046492615
 31
0.0
  0
LINE
  5
4D0E
330
4BF2
100
AcDbEntity
  8
0
100
AcDbLine
 10
-39.85284982338932
 20
391.4005046492615
 30
0.0
 11
-34.33853322338951
 21
391.4005046492615
 31
0.0
  0
LINE
  5
4D0F
330
4BF2
100
AcDbEntity
  8
0
100
AcDbLine
 10
-39.85284982338932
 20
393.0004955492612
 30
0.0
 11
-34.73015012338988
 21
393.0004955492612
 31
0.0
  0
ARC
  5
4D10
330
4BF2
100
AcDbEntity
  8
0
100
AcDbCircle
 10
-34.33853322338951
 20
393.0004955492612
 30
0.0
 40
1.6
100
AcDbArc
 50
270.0
 51
299.1926880000011
  0
LINE
  5
4D11
330
4BF2
100
AcDbEntity
  8
0
100
AcDbLine
 10
-34.27051342338951
 20
393.3862148492616
 30
0.0
 11
-33.0984896233897
 21
391.9894061492613
 31
0.0
  0
LINE
  5
4D12
330
4BF2
100
AcDbEntity
  8
0
100
AcDbLine
 10
-34.73015012338988
 20
393.0004955492612
 30
0.0
 11
-33.5581301233899
 21
391.6037059492613
 31
0.0
  0
LINE
  5
4D13
330
4BF2
100
AcDbEntity
  8
0
100
AcDbLine
 10
-34.27051342338951
 20
393.3862148492616
 30
0.0
 11
-33.02659752257318
 21
400.4409041545089
 31
0.0
  0
LINE
  5
4D14
330
4BF2
100
AcDbEntity
  8
0
100
AcDbLine
 10
-33.055039928827
 20
402.5005050492612
 30
0.0
 11
-38.1877875288276
 21
402.5005050492612
 31
0.0
  0
LINE
  5
4D15
330
4BF2
100
AcDbEntity
  8
0
100
AcDbLine
 10
-33.41227862882738
 20
400.900495049261
 30
0.0
 11
-38.54493852882774
 21
400.900495049261
 31
0.0
  0
LINE
  5
4D16
330
4BF2
100
AcDbEntity
  8
0
100
AcDbLine
 10
-26.71109907678351
 20
402.8860029872374
 30
0.0
 11
-25.59774192338978
 21
409.2005153492611
 31
0.0
  0
LINE
  5
4D17
330
4BF2
100
AcDbEntity
  8
0
100
AcDbLine
 10
-25.07340764735204
 20
402.9602065337123
 30
0.0
 11
-23.97307002338971
 21
409.2005153492611
 31
0.0
  0
LINE
  5
4D18
330
4BF2
100
AcDbEntity
  8
0
100
AcDbLine
 10
-32.59542993424407
 20
402.8862052557173
 30
0.0
 11
-31.09842092338954
 21
411.3762012492615
 31
0.0
  0
LINE
  5
4D19
330
4BF2
100
AcDbEntity
  8
0
100
AcDbLine
 10
-30.95773841086543
 20
402.9600043643321
 30
0.0
 11
-29.80058082338951
 21
409.5227046492611
 31
0.0
  0
LINE
  5
4D1A
330
4BF2
100
AcDbEntity
  8
0
100
AcDbLine
 10
-38.57340764735204
 20
402.9602065337123
 30
0.0
 11
-37.47307002338971
 21
409.2005153492611
 31
0.0
  0
LINE
  5
4D1B
330
4BF2
100
AcDbEntity
  8
0
100
AcDbLine
 10
-40.21109907678351
 20
402.8860029872374
 30
0.0
 11
-39.09774192338979
 21
409.2005153492611
 31
0.0
  0
LINE
  5
4D1C
330
4BF2
100
AcDbEntity
  8
0
100
AcDbLine
 10
-30.49999999999773
 20
320.6005057492624
 30
0.0
 11
-15.49999999999772
 21
320.6005057492624
 31
0.0
  0
LINE
  5
4D1D
330
4BF2
100
AcDbEntity
  8
0
100
AcDbLine
 10
-15.49999999999772
 20
332.6005057492624
 30
0.0
 11
-30.49999999999773
 21
332.6005057492624
 31
0.0
  0
LINE
  5
4D1E
330
4BF2
100
AcDbEntity
  8
0
100
AcDbLine
 10
-23.86728082338982
 20
411.4005084492613
 30
0.0
 11
-18.20340142338977
 21
411.4005084492613
 31
0.0
  0
LINE
  5
4D1F
330
4BF2
100
AcDbEntity
  8
0
100
AcDbLine
 10
-25.4919604233894
 20
409.8005023492612
 30
0.0
 11
-18.48552112338916
 21
409.8005023492612
 31
0.0
  0
LINE
  5
4D20
330
4BF2
100
AcDbEntity
  8
0
100
AcDbLine
 10
-19.52659752882778
 20
400.4409041492611
 30
0.0
 11
-18.52918772882754
 21
401.2778029492613
 31
0.0
  0
LINE
  5
4D21
330
4BF2
100
AcDbEntity
  8
0
100
AcDbLine
 10
-19.555039928827
 20
402.5005050492612
 30
0.0
 11
-18.91483832882773
 21
401.7373938492613
 31
0.0
  0
LINE
  5
4D22
330
4BF2
100
AcDbEntity
  8
0
100
AcDbLine
 10
-19.91227862882738
 20
400.900495049261
 30
0.0
 11
-18.91483832882773
 21
401.7373938492613
 31
0.0
  0
ARC
  5
4D23
330
4BF2
100
AcDbEntity
  8
0
100
AcDbCircle
 10
-20.83853322338951
 20
393.0004955492612
 30
0.0
 40
1.6
100
AcDbArc
 50
320.8066101000014
 51
350.0000916000027
  0
LINE
  5
4D24
330
4BF2
100
AcDbEntity
  8
0
 48
0.25
100
AcDbLine
 10
-104.0
 20
328.7740274465076
 30
0.0
 11
-104.0
 21
263.1005057492611
 31
0.0
  0
LINE
  5
4D25
330
4BF2
100
AcDbEntity
  8
0
 48
0.25
100
AcDbLine
 10
-104.0
 20
368.7210307465337
 30
0.0
 11
-104.0
 21
246.1975620241084
 31
0.0
  0
ARC
  5
4D26
330
4BF2
100
AcDbEntity
  8
0
 48
0.25
100
AcDbCircle
 10
-106.0
 20
368.7210307465337
 30
0.0
 40
2.0
100
AcDbArc
 50
0.0
 51
59.99999999999944
  0
LINE
  5
4D27
330
4BF2
100
AcDbEntity
  8
0
 48
0.25
100
AcDbLine
 10
-103.4999999999966
 20
366.1005057492614
 30
0.0
 11
-103.4999999999966
 21
356.1005057492615
 31
0.0
  0
LINE
  5
4D28
330
4BF2
100
AcDbEntity
  8
0
 48
0.25
100
AcDbLine
 10
-103.4999999999961
 20
346.1005057492615
 30
0.0
 11
-103.4999999999961
 21
356.1005057492615
 31
0.0
  0
LINE
  5
4D29
330
4BF2
100
AcDbEntity
  8
0
 48
0.25
100
AcDbLine
 10
-103.4999999999961
 20
366.1005057492614
 30
0.0
 11
-103.4999999999961
 21
356.1005057492615
 31
0.0
  0
LINE
  5
4D2A
330
4BF2
100
AcDbEntity
  8
0
 48
0.25
100
AcDbLine
 10
-99.49999999999613
 20
346.1005057492615
 30
0.0
 11
-103.4999999999961
 21
346.1005057492615
 31
0.0
  0
LINE
  5
4D2B
330
4BF2
100
AcDbEntity
  8
0
 48
0.25
100
AcDbLine
 10
-99.49999999999613
 20
366.1005057492614
 30
0.0
 11
-103.4999999999961
 21
366.1005057492614
 31
0.0
  0
LINE
  5
4D2C
330
4BF2
100
AcDbEntity
  8
0
 48
0.25
100
AcDbLine
 10
98.40000000000031
 20
236.1005057492611
 30
0.0
 11
0.0
 21
236.1005057492611
 31
0.0
  0
LINE
  5
4D2D
330
4BF2
100
AcDbEntity
  8
0
 48
0.25
100
AcDbLine
 10
98.39999999999964
 20
237.3005057492609
 30
0.0
 11
0.0
 21
237.3005057492609
 31
0.0
  0
LINE
  5
4D2E
330
4BF2
100
AcDbEntity
  8
0
 48
0.25
100
AcDbLine
 10
97.50294372515213
 20
239.7005057492605
 30
0.0
 11
70.45965881556547
 21
239.7005057492605
 31
0.0
  0
LINE
  5
4D2F
330
4BF2
100
AcDbEntity
  8
0
 48
0.25
100
AcDbLine
 10
91.0012237554829
 20
237.2959386316241
 30
0.0
 11
90.19029655202031
 21
238.7005057492605
 31
0.0
  0
ARC
  5
4D30
330
4BF2
100
AcDbEntity
  8
0
 48
0.25
100
AcDbCircle
 10
88.45824574445122
 20
237.7005057492605
 30
0.0
 40
2.0
100
AcDbArc
 50
30.00000000000055
 51
90.0
  0
LINE
  5
4D31
330
4BF2
100
AcDbEntity
  8
0
 48
0.25
100
AcDbLine
 10
66.49999999999977
 20
342.1005057492629
 30
0.0
 11
66.49999999999977
 21
294.100505749262
 31
0.0
  0
LINE
  5
4D32
330
4BF2
100
AcDbEntity
  8
0
 48
0.25
100
AcDbLine
 10
68.49999999999977
 20
418.4005057492603
 30
0.0
 11
68.49999999999977
 21
294.1005057492629
 31
0.0
  0
LINE
  5
4D33
330
4BF2
100
AcDbEntity
  8
0
 48
0.25
100
AcDbLine
 10
70.45965881556547
 20
239.7005057492605
 30
0.0
 11
0.0
 21
239.7005057492605
 31
0.0
  0
LINE
  5
4D34
330
4BF2
100
AcDbEntity
  8
0
100
AcDbLine
 10
43.00000000001317
 20
295.1005192133638
 30
0.0
 11
56.00000000001319
 21
295.1005192133638
 31
0.0
  0
LINE
  5
4D35
330
4BF2
100
AcDbEntity
  8
0
100
AcDbLine
 10
42.00000000001319
 20
296.1005192133638
 30
0.0
 11
55.00000000001318
 21
296.1005192133638
 31
0.0
  0
LINE
  5
4D36
330
4BF2
100
AcDbEntity
  8
0
100
AcDbLine
 10
55.00000000001318
 20
311.1005192133638
 30
0.0
 11
42.00000000001319
 21
311.1005192133638
 31
0.0
  0
ARC
  5
4D37
330
4BF2
100
AcDbEntity
  8
0
 48
0.25
100
AcDbCircle
 10
29.72708075567812
 20
237.7005057492605
 30
0.0
 40
2.0
100
AcDbArc
 50
30.00000000000055
 51
90.0
  0
LINE
  5
4D38
330
4BF2
100
AcDbEntity
  8
0
 48
0.25
100
AcDbLine
 10
32.27005876670978
 20
237.2959386316241
 30
0.0
 11
31.45913156324719
 21
238.7005057492605
 31
0.0
  0
ARC
  5
4D39
330
4BF2
100
AcDbEntity
  8
0
100
AcDbCircle
 10
43.00000000001317
 20
296.1005192133638
 30
0.0
 40
1.0
100
AcDbArc
 50
180.0
 51
270.0
  0
ARC
  5
4D3A
330
4BF2
100
AcDbEntity
  8
0
100
AcDbCircle
 10
42.00000000001319
 20
297.1005192133638
 30
0.0
 40
1.0
100
AcDbArc
 50
180.0
 51
270.0
  0
LINE
  5
4D3B
330
4BF2
100
AcDbEntity
  8
0
100
AcDbLine
 10
41.00000000001318
 20
310.1005192133638
 30
0.0
 11
41.00000000001318
 21
297.1005192133638
 31
0.0
  0
ARC
  5
4D3C
330
4BF2
100
AcDbEntity
  8
0
100
AcDbCircle
 10
42.00000000001319
 20
310.1005192133638
 30
0.0
 40
1.0
100
AcDbArc
 50
90.0
 51
180.0
  0
LINE
  5
4D3D
330
4BF2
100
AcDbEntity
  8
0
100
AcDbLine
 10
19.00000000000227
 20
295.1005326774687
 30
0.0
 11
32.00000000000227
 21
295.1005326774687
 31
0.0
  0
ARC
  5
4D3E
330
4BF2
100
AcDbEntity
  8
0
100
AcDbCircle
 10
32.00000000000227
 20
296.1005326774688
 30
0.0
 40
1.0
100
AcDbArc
 50
270.0
 51
0.0
  0
ARC
  5
4D3F
330
4BF2
100
AcDbEntity
  8
0
100
AcDbCircle
 10
31.00000000000227
 20
297.1005326774688
 30
0.0
 40
1.0
100
AcDbArc
 50
270.0
 51
0.0
  0
LINE
  5
4D40
330
4BF2
100
AcDbEntity
  8
0
100
AcDbLine
 10
18.00000000000227
 20
296.1005326774688
 30
0.0
 11
31.00000000000227
 21
296.1005326774688
 31
0.0
  0
ARC
  5
4D41
330
4BF2
100
AcDbEntity
  8
0
100
AcDbCircle
 10
19.00000000000227
 20
296.1005326774688
 30
0.0
 40
1.0
100
AcDbArc
 50
180.0
 51
270.0
  0
ARC
  5
4D42
330
4BF2
100
AcDbEntity
  8
0
100
AcDbCircle
 10
18.00000000000227
 20
297.1005326774688
 30
0.0
 40
1.0
100
AcDbArc
 50
180.0
 51
270.0
  0
LINE
  5
4D43
330
4BF2
100
AcDbEntity
  8
0
100
AcDbLine
 10
33.00000000000228
 20
296.1005326774688
 30
0.0
 11
33.00000000000228
 21
309.1005326774688
 31
0.0
  0
ARC
  5
4D44
330
4BF2
100
AcDbEntity
  8
0
100
AcDbCircle
 10
31.00000000000227
 20
310.1005326774688
 30
0.0
 40
1.0
100
AcDbArc
 50
0.0
 51
90.0
  0
ARC
  5
4D45
330
4BF2
100
AcDbEntity
  8
0
100
AcDbCircle
 10
32.00000000000227
 20
309.1005326774688
 30
0.0
 40
1.0
100
AcDbArc
 50
0.0
 51
90.0
  0
LINE
  5
4D46
330
4BF2
100
AcDbEntity
  8
0
100
AcDbLine
 10
32.00000000000227
 20
297.1005326774688
 30
0.0
 11
32.00000000000227
 21
310.1005326774688
 31
0.0
  0
LINE
  5
4D47
330
4BF2
100
AcDbEntity
  8
0
100
AcDbLine
 10
17.00000000000227
 20
310.1005326774688
 30
0.0
 11
17.00000000000227
 21
297.1005326774688
 31
0.0
  0
LINE
  5
4D48
330
4BF2
100
AcDbEntity
  8
0
100
AcDbLine
 10
31.00000000000227
 20
311.1005326774688
 30
0.0
 11
18.00000000000227
 21
311.1005326774688
 31
0.0
  0
ARC
  5
4D49
330
4BF2
100
AcDbEntity
  8
0
100
AcDbCircle
 10
18.00000000000227
 20
310.1005326774688
 30
0.0
 40
1.0
100
AcDbArc
 50
90.0
 51
180.0
  0
ARC
  5
4D4A
330
4BF2
100
AcDbEntity
  8
0
 48
0.25
100
AcDbCircle
 10
75.54175425554877
 20
237.7005057492605
 30
0.0
 40
2.0
100
AcDbArc
 50
90.0
 51
149.9999999999994
  0
LINE
  5
4D4B
330
4BF2
100
AcDbEntity
  8
0
 48
0.25
100
AcDbLine
 10
72.9987762445171
 20
237.2959386316241
 30
0.0
 11
73.80970344797971
 21
238.7005057492605
 31
0.0
  0
ARC
  5
4D4C
330
4BF2
100
AcDbEntity
  8
0
100
AcDbCircle
 10
55.00000000001318
 20
310.1005192133638
 30
0.0
 40
1.0
100
AcDbArc
 50
0.0
 51
90.0
  0
ARC
  5
4D4D
330
4BF2
100
AcDbEntity
  8
0
100
AcDbCircle
 10
56.00000000001319
 20
309.1005192133638
 30
0.0
 40
1.0
100
AcDbArc
 50
0.0
 51
90.0
  0
LINE
  5
4D4E
330
4BF2
100
AcDbEntity
  8
0
100
AcDbLine
 10
56.00000000001319
 20
297.1005192133638
 30
0.0
 11
56.00000000001319
 21
310.1005192133638
 31
0.0
  0
LINE
  5
4D4F
330
4BF2
100
AcDbEntity
  8
0
100
AcDbLine
 10
57.00000000001319
 20
296.1005192133638
 30
0.0
 11
57.00000000001319
 21
309.1005192133638
 31
0.0
  0
ARC
  5
4D50
330
4BF2
100
AcDbEntity
  8
0
100
AcDbCircle
 10
56.00000000001319
 20
296.1005192133638
 30
0.0
 40
1.0
100
AcDbArc
 50
270.0
 51
0.0
  0
ARC
  5
4D51
330
4BF2
100
AcDbEntity
  8
0
100
AcDbCircle
 10
55.00000000001318
 20
297.1005192133638
 30
0.0
 40
1.0
100
AcDbArc
 50
270.0
 51
0.0
  0
ARC
  5
4D52
330
4BF2
100
AcDbEntity
  8
0
100
AcDbCircle
 10
58.49999999999977
 20
294.1005057492629
 30
0.0
 40
10.0
100
AcDbArc
 50
270.0
 51
0.0
  0
ARC
  5
4D53
330
4BF2
100
AcDbEntity
  8
0
 48
0.25
100
AcDbCircle
 10
58.49999999999977
 20
294.100505749262
 30
0.0
 40
8.0
100
AcDbArc
 50
270.0
 51
0.0
  0
LINE
  5
4D54
330
4BF2
100
AcDbEntity
  8
0
100
AcDbLine
 10
56.50000000000226
 20
332.6005057492624
 30
0.0
 11
41.50000000000227
 21
332.6005057492624
 31
0.0
  0
LINE
  5
4D55
330
4BF2
100
AcDbEntity
  8
0
100
AcDbLine
 10
41.50000000000227
 20
320.6005057492624
 30
0.0
 11
56.50000000000226
 21
320.6005057492624
 31
0.0
  0
ELLIPSE
  5
4D56
330
4BF2
100
AcDbEntity
  8
0
100
AcDbEllipse
 10
47.29993433000049
 20
388.35065488926
 30
0.0
 11
2.499999669999998
 21
0.0
 31
0.0
210
0.0
220
0.0
230
1.0
 40
0.5600001
 41
-3.14159260717958
 42
0.0
  0
LINE
  5
4D57
330
4BF2
100
AcDbEntity
  8
0
100
AcDbLine
 10
48.19984551000084
 20
393.6505091692605
 30
0.0
 11
49.79994086000056
 21
393.6505091692605
 31
0.0
  0
ARC
  5
4D58
330
4BF2
100
AcDbEntity
  8
0
100
AcDbCircle
 10
41.50000000000227
 20
321.1005057492624
 30
0.0
 40
0.5
100
AcDbArc
 50
180.0
 51
270.0
  0
LINE
  5
4D59
330
4BF2
100
AcDbEntity
  8
0
100
AcDbLine
 10
41.00000000000227
 20
332.1005057492623
 30
0.0
 11
41.00000000000227
 21
321.1005057492624
 31
0.0
  0
ARC
  5
4D5A
330
4BF2
100
AcDbEntity
  8
0
100
AcDbCircle
 10
41.50000000000227
 20
332.1005057492623
 30
0.0
 40
0.5
100
AcDbArc
 50
90.0
 51
180.0
  0
POINT
  5
4D5B
330
4BF2
100
AcDbEntity
  8
0
 48
0.25
100
AcDbPoint
 10
41.00000000000227
 20
332.1005057492623
 30
0.0
  0
ARC
  5
4D5C
330
4BF2
100
AcDbEntity
  8
0
100
AcDbCircle
 10
36.12373937661028
 20
409.8005023492612
 30
0.0
 40
1.6
100
AcDbArc
 50
350.0000916000027
 51
80.00013730000009
  0
LINE
  5
4D5D
330
4BF2
100
AcDbEntity
  8
0
100
AcDbLine
 10
35.51447887661085
 20
409.8005023492612
 30
0.0
 11
35.79659857661023
 21
411.4005084492613
 31
0.0
  0
CIRCLE
  5
4D5E
330
4BF2
100
AcDbEntity
  8
0
100
AcDbCircle
 10
36.9000174766104
 20
393.2005153492613
 30
0.0
 40
0.7
  0
LINE
  5
4D5F
330
4BF2
100
AcDbEntity
  8
0
100
AcDbLine
 10
35.54480217117248
 20
402.123105549261
 30
0.0
 11
36.54226157117296
 21
402.9600043492613
 31
0.0
  0
LINE
  5
4D60
330
4BF2
100
AcDbEntity
  8
0
100
AcDbLine
 10
39.29997865000109
 20
395.9505057492604
 30
0.0
 11
40.89985770000089
 21
395.9505057492604
 31
0.0
  0
LINE
  5
4D61
330
4BF2
100
AcDbEntity
  8
0
100
AcDbLine
 10
44.3998497200007
 20
393.6505091692605
 30
0.0
 11
42.74726179000094
 21
391.9505103092605
 31
0.0
  0
LINE
  5
4D62
330
4BF2
100
AcDbEntity
  8
0
100
AcDbLine
 10
42.74726179000094
 20
391.9505103092605
 30
0.0
 11
44.60004384000035
 21
388.9505057492605
 31
0.0
  0
LINE
  5
4D63
330
4BF2
100
AcDbEntity
  8
0
100
AcDbLine
 10
44.60004384000035
 20
388.9505057492605
 30
0.0
 11
42.96160851000036
 21
388.9505057492605
 31
0.0
  0
LINE
  5
4D64
330
4BF2
100
AcDbEntity
  8
0
100
AcDbLine
 10
42.96160851000036
 20
388.9505057492605
 30
0.0
 11
41.74531763000027
 21
390.9200260992605
 31
0.0
  0
LINE
  5
4D65
330
4BF2
100
AcDbEntity
  8
0
100
AcDbLine
 10
40.89985770000089
 20
392.0503924692607
 30
0.0
 11
42.45553014000029
 21
393.6505091692605
 31
0.0
  0
LINE
  5
4D66
330
4BF2
100
AcDbEntity
  8
0
100
AcDbLine
 10
42.45553014000029
 20
393.6505091692605
 30
0.0
 11
44.3998497200007
 21
393.6505091692605
 31
0.0
  0
LINE
  5
4D67
330
4BF2
100
AcDbEntity
  8
0
100
AcDbLine
 10
41.74531763000027
 20
390.9200260992605
 30
0.0
 11
40.89985770000089
 21
390.050366679261
 31
0.0
  0
LINE
  5
4D68
330
4BF2
100
AcDbEntity
  8
0
100
AcDbLine
 10
40.89985770000089
 20
390.050366679261
 30
0.0
 11
40.89985770000089
 21
388.9505057492605
 31
0.0
  0
LINE
  5
4D69
330
4BF2
100
AcDbEntity
  8
0
100
AcDbLine
 10
40.89985770000089
 20
388.9505057492605
 30
0.0
 11
39.29997865000109
 21
388.9505057492605
 31
0.0
  0
LINE
  5
4D6A
330
4BF2
100
AcDbEntity
  8
0
100
AcDbLine
 10
39.29997865000109
 20
388.9505057492605
 30
0.0
 11
39.29997865000109
 21
395.9505057492604
 31
0.0
  0
LINE
  5
4D6B
330
4BF2
100
AcDbEntity
  8
0
100
AcDbLine
 10
40.89985770000089
 20
395.9505057492604
 30
0.0
 11
40.89985770000089
 21
392.0503924692607
 31
0.0
  0
ARC
  5
4D6C
330
4BF2
100
AcDbEntity
  8
0
100
AcDbCircle
 10
47.3997817700008
 20
388.3506548892605
 30
0.0
 40
0.7999999
100
AcDbArc
 50
180.0
 51
0.0
  0
ELLIPSE
  5
4D6D
330
4BF2
100
AcDbEntity
  8
0
100
AcDbEllipse
 10
46.74988706999989
 20
391.4505349592604
 30
0.0
 11
-0.00000014
 21
2.499999669999998
 31
0.0
210
0.0
220
0.0
230
0.9999999999999998
 40
0.8999998999999998
 41
-0.700302907179911
 42
3.841895599999979
  0
ELLIPSE
  5
4D6E
330
4BF2
100
AcDbEntity
  8
0
100
AcDbEllipse
 10
47.2498825100008
 20
391.4505349592604
 30
0.0
 11
0.0
 21
1.50000060000011
 31
0.0
210
0.0
220
0.0
230
1.0
 40
0.6666667000000385
 41
0.0
 42
6.283185307179585
  0
LINE
  5
4D6F
330
4BF2
100
AcDbEntity
  8
0
100
AcDbLine
 10
44.79992521000053
 20
388.3506548892605
 30
0.0
 11
46.59997444000032
 21
388.3506548892605
 31
0.0
  0
LINE
  5
4D70
330
4BF2
100
AcDbEntity
  8
0
100
AcDbLine
 10
48.19984551000084
 20
393.3621928192605
 30
0.0
 11
48.19984551000084
 21
393.6505091692605
 31
0.0
  0
LINE
  5
4D71
330
4BF2
100
AcDbEntity
  8
0
100
AcDbLine
 10
48.19984551000084
 20
388.3506548892605
 30
0.0
 11
48.19984551000084
 21
389.5388770292606
 31
0.0
  0
LINE
  5
4D72
330
4BF2
100
AcDbEntity
  8
0
100
AcDbLine
 10
36.54226158913457
 20
402.9600043643321
 30
0.0
 11
37.69941917661049
 21
409.5227046492611
 31
0.0
  0
ARC
  5
4D73
330
4BF2
100
AcDbEntity
  8
0
100
AcDbCircle
 10
8.500000000002271
 20
332.1005057492623
 30
0.0
 40
0.5
100
AcDbArc
 50
0.0
 51
90.0
  0
LINE
  5
4D74
330
4BF2
100
AcDbEntity
  8
0
100
AcDbLine
 10
9.000000000002273
 20
321.1005057492624
 30
0.0
 11
9.000000000002273
 21
332.1005057492623
 31
0.0
  0
ARC
  5
4D75
330
4BF2
100
AcDbEntity
  8
0
100
AcDbCircle
 10
8.500000000002271
 20
321.1005057492624
 30
0.0
 40
0.5
100
AcDbArc
 50
270.0
 51
0.0
  0
LINE
  5
4D76
330
4BF2
100
AcDbEntity
  8
0
100
AcDbLine
 10
33.00000000000228
 20
321.1005057492624
 30
0.0
 11
33.00000000000228
 21
332.1005057492623
 31
0.0
  0
ARC
  5
4D77
330
4BF2
100
AcDbEntity
  8
0
100
AcDbCircle
 10
32.50000000000227
 20
321.1005057492624
 30
0.0
 40
0.5
100
AcDbArc
 50
270.0
 51
0.0
  0
ARC
  5
4D78
330
4BF2
100
AcDbEntity
  8
0
100
AcDbCircle
 10
32.50000000000227
 20
332.1005057492623
 30
0.0
 40
0.5
100
AcDbArc
 50
0.0
 51
90.0
  0
LINE
  5
4D79
330
4BF2
100
AcDbEntity
  8
0
100
AcDbLine
 10
17.50000000000227
 20
320.6005057492624
 30
0.0
 11
32.50000000000227
 21
320.6005057492624
 31
0.0
  0
ARC
  5
4D7A
330
4BF2
100
AcDbEntity
  8
0
100
AcDbCircle
 10
17.50000000000227
 20
321.1005057492624
 30
0.0
 40
0.5
100
AcDbArc
 50
180.0
 51
270.0
  0
LINE
  5
4D7B
330
4BF2
100
AcDbEntity
  8
0
100
AcDbLine
 10
17.00000000000227
 20
332.1005057492623
 30
0.0
 11
17.00000000000227
 21
321.1005057492624
 31
0.0
  0
ARC
  5
4D7C
330
4BF2
100
AcDbEntity
  8
0
100
AcDbCircle
 10
17.50000000000227
 20
332.1005057492623
 30
0.0
 40
0.5
100
AcDbArc
 50
90.0
 51
180.0
  0
LINE
  5
4D7D
330
4BF2
100
AcDbEntity
  8
0
100
AcDbLine
 10
32.50000000000227
 20
332.6005057492624
 30
0.0
 11
17.50000000000227
 21
332.6005057492624
 31
0.0
  0
LINE
  5
4D7E
330
4BF2
100
AcDbEntity
  8
0
100
AcDbLine
 10
15.0080395766106
 20
409.8005023492612
 30
0.0
 11
22.01447887661084
 21
409.8005023492612
 31
0.0
  0
LINE
  5
4D7F
330
4BF2
100
AcDbEntity
  8
0
100
AcDbLine
 10
16.63271917661018
 20
411.4005084492613
 30
0.0
 11
22.29659857661022
 21
411.4005084492613
 31
0.0
  0
LINE
  5
4D80
330
4BF2
100
AcDbEntity
  8
0
100
AcDbLine
 10
15.0080395766106
 20
409.8005023492612
 30
0.0
 11
15.05702797661047
 21
410.0783038492611
 31
0.0
  0
LINE
  5
4D81
330
4BF2
100
AcDbEntity
  8
0
100
AcDbLine
 10
14.90224657661087
 20
409.2005153492611
 30
0.0
 11
16.52692997661029
 21
409.2005153492611
 31
0.0
  0
ARC
  5
4D82
330
4BF2
100
AcDbEntity
  8
0
100
AcDbCircle
 10
16.63271917661018
 20
409.8005023492612
 30
0.0
 40
1.6
100
AcDbArc
 50
90.0
 51
170.0001068000011
  0
LINE
  5
4D83
330
4BF2
100
AcDbEntity
  8
0
100
AcDbLine
 10
3.13271917661018
 20
411.4005084492613
 30
0.0
 11
8.796598576610223
 21
411.4005084492613
 31
0.0
  0
ARC
  5
4D84
330
4BF2
100
AcDbEntity
  8
0
100
AcDbCircle
 10
3.13271917661018
 20
409.8005023492612
 30
0.0
 40
1.6
100
AcDbArc
 50
90.0
 51
170.0001068000011
  0
ARC
  5
4D85
330
4BF2
100
AcDbEntity
  8
0
100
AcDbCircle
 10
9.123739376610272
 20
409.8005023492612
 30
0.0
 40
1.6
100
AcDbArc
 50
350.0000916000027
 51
80.00013730000009
  0
LINE
  5
4D86
330
4BF2
100
AcDbEntity
  8
0
100
AcDbLine
 10
1.402246576610877
 20
409.2005153492611
 30
0.0
 11
3.026929976610289
 21
409.2005153492611
 31
0.0
  0
LINE
  5
4D87
330
4BF2
100
AcDbEntity
  8
0
100
AcDbLine
 10
1.508039576610599
 20
409.8005023492612
 30
0.0
 11
8.514478876610837
 21
409.8005023492612
 31
0.0
  0
LINE
  5
4D88
330
4BF2
100
AcDbEntity
  8
0
100
AcDbLine
 10
8.514478876610837
 20
409.8005023492612
 30
0.0
 11
8.796598576610223
 21
411.4005084492613
 31
0.0
  0
LINE
  5
4D89
330
4BF2
100
AcDbEntity
  8
0
100
AcDbLine
 10
1.508039576610599
 20
409.8005023492612
 30
0.0
 11
1.55702797661047
 21
410.0783038492611
 31
0.0
  0
ARC
  5
4D8A
330
4BF2
100
AcDbEntity
  8
0
100
AcDbCircle
 10
30.13271917661018
 20
409.8005023492612
 30
0.0
 40
1.6
100
AcDbArc
 50
90.0
 51
170.0001068000011
  0
LINE
  5
4D8B
330
4BF2
100
AcDbEntity
  8
0
100
AcDbLine
 10
28.40224657661088
 20
409.2005153492611
 30
0.0
 11
30.02692997661029
 21
409.2005153492611
 31
0.0
  0
LINE
  5
4D8C
330
4BF2
100
AcDbEntity
  8
0
100
AcDbLine
 10
28.50803957661061
 20
409.8005023492612
 30
0.0
 11
28.55702797661047
 21
410.0783038492611
 31
0.0
  0
LINE
  5
4D8D
330
4BF2
100
AcDbEntity
  8
0
100
AcDbLine
 10
22.01447887661084
 20
409.8005023492612
 30
0.0
 11
22.29659857661022
 21
411.4005084492613
 31
0.0
  0
ARC
  5
4D8E
330
4BF2
100
AcDbEntity
  8
0
100
AcDbCircle
 10
22.62373937661028
 20
409.8005023492612
 30
0.0
 40
1.6
100
AcDbArc
 50
350.0000916000027
 51
80.00013730000009
  0
LINE
  5
4D8F
330
4BF2
100
AcDbEntity
  8
0
100
AcDbLine
 10
14.14715017661069
 20
391.4005046492615
 30
0.0
 11
19.66146677661049
 21
391.4005046492615
 31
0.0
  0
LINE
  5
4D90
330
4BF2
100
AcDbEntity
  8
0
100
AcDbLine
 10
14.14715017661069
 20
393.0004955492612
 30
0.0
 11
19.26984987661012
 21
393.0004955492612
 31
0.0
  0
LINE
  5
4D91
330
4BF2
100
AcDbEntity
  8
0
100
AcDbLine
 10
20.944960071173
 20
402.5005050492612
 30
0.0
 11
15.81221247117241
 21
402.5005050492612
 31
0.0
  0
LINE
  5
4D92
330
4BF2
100
AcDbEntity
  8
0
100
AcDbLine
 10
20.58772137117262
 20
400.900495049261
 30
0.0
 11
15.45506147117226
 21
400.900495049261
 31
0.0
  0
LINE
  5
4D93
330
4BF2
100
AcDbEntity
  8
0
100
AcDbLine
 10
13.39995867661014
 20
386.4005046492615
 30
0.0
 11
18.9999586766105
 21
386.4005046492615
 31
0.0
  0
LINE
  5
4D94
330
4BF2
100
AcDbEntity
  8
0
100
AcDbLine
 10
16.19995867661032
 20
383.6005054492614
 30
0.0
 11
18.9999586766105
 21
386.4005046492615
 31
0.0
  0
LINE
  5
4D95
330
4BF2
100
AcDbEntity
  8
0
100
AcDbLine
 10
12.17754947661046
 20
393.7477947492615
 30
0.0
 11
12.1868573766103
 21
393.8005061492617
 31
0.0
  0
LINE
  5
4D96
330
4BF2
100
AcDbEntity
  8
0
100
AcDbLine
 10
13.7532483766106
 20
393.4699054492615
 30
0.0
 11
13.81155977661069
 21
393.8005061492617
 31
0.0
  0
ARC
  5
4D97
330
4BF2
100
AcDbEntity
  8
0
100
AcDbCircle
 10
14.14715017661069
 20
393.4005046492615
 30
0.0
 40
2.0
100
AcDbArc
 50
170.0001068000011
 51
270.0
  0
LINE
  5
4D98
330
4BF2
100
AcDbEntity
  8
0
100
AcDbLine
 10
12.1868573766103
 20
393.8005061492617
 30
0.0
 11
13.81155977661069
 21
393.8005061492617
 31
0.0
  0
LINE
  5
4D99
330
4BF2
100
AcDbEntity
  8
0
100
AcDbLine
 10
12.29265037661003
 20
394.4005046492614
 30
0.0
 11
13.91734897661058
 21
394.4005046492614
 31
0.0
  0
ARC
  5
4D9A
330
4BF2
100
AcDbEntity
  8
0
100
AcDbCircle
 10
14.14715017661069
 20
393.4005046492615
 30
0.0
 40
0.4
100
AcDbArc
 50
170.0001068000011
 51
270.0
  0
LINE
  5
4D9B
330
4BF2
100
AcDbEntity
  8
0
100
AcDbLine
 10
14.81482167117224
 20
401.663404049261
 30
0.0
 11
15.81221247117241
 21
402.5005050492612
 31
0.0
  0
LINE
  5
4D9C
330
4BF2
100
AcDbEntity
  8
0
100
AcDbLine
 10
14.81482167117224
 20
401.663404049261
 30
0.0
 11
15.45506147117226
 21
400.900495049261
 31
0.0
  0
LINE
  5
4D9D
330
4BF2
100
AcDbEntity
  8
0
100
AcDbLine
 10
14.35524227117253
 20
401.2777152492612
 30
0.0
 11
14.99542097117296
 21
400.5148063492613
 31
0.0
  0
LINE
  5
4D9E
330
4BF2
100
AcDbEntity
  8
0
100
AcDbLine
 10
13.35759207117257
 20
400.4404044492611
 30
0.0
 11
14.35524227117253
 21
401.2777152492612
 31
0.0
  0
LINE
  5
4D9F
330
4BF2
100
AcDbEntity
  8
0
100
AcDbLine
 10
13.78890087117247
 20
402.8860030492613
 30
0.0
 11
14.42912907117238
 21
402.1230063492611
 31
0.0
  0
LINE
  5
4DA0
330
4BF2
100
AcDbEntity
  8
0
100
AcDbLine
 10
14.42912907117238
 20
402.1230063492611
 30
0.0
 11
15.42659237117254
 21
402.9602065492611
 31
0.0
  0
LINE
  5
4DA1
330
4BF2
100
AcDbEntity
  8
0
100
AcDbLine
 10
12.29265037661003
 20
394.4005046492614
 30
0.0
 11
13.35759213982669
 21
400.4404045068817
 31
0.0
  0
LINE
  5
4DA2
330
4BF2
100
AcDbEntity
  8
0
100
AcDbLine
 10
13.91734897661058
 20
394.4005046492614
 30
0.0
 11
14.99543041578795
 21
400.5147950939966
 31
0.0
  0
LINE
  5
4DA3
330
4BF2
100
AcDbEntity
  8
0
100
AcDbLine
 10
13.39995867661014
 20
386.4005046492615
 30
0.0
 11
16.19995867661032
 21
383.6005054492614
 31
0.0
  0
LINE
  5
4DA4
330
4BF2
100
AcDbEntity
  8
0
100
AcDbLine
 10
2.699958676610322
 20
383.6005054492614
 30
0.0
 11
5.499958676610503
 21
386.4005046492615
 31
0.0
  0
CIRCLE
  5
4DA5
330
4BF2
100
AcDbEntity
  8
0
100
AcDbCircle
 10
9.9000174766104
 20
393.2005153492613
 30
0.0
 40
0.7
  0
LINE
  5
4DA6
330
4BF2
100
AcDbEntity
  8
0
100
AcDbLine
 10
7.737157976610204
 20
392.7226939492615
 30
0.0
 11
9.111082560522616
 21
400.5146041619561
 31
0.0
  0
LINE
  5
4DA7
330
4BF2
100
AcDbEntity
  8
0
100
AcDbLine
 10
6.229486576610497
 20
393.3862148492616
 30
0.0
 11
7.473402477426816
 21
400.4409041545089
 31
0.0
  0
LINE
  5
4DA8
330
4BF2
100
AcDbEntity
  8
0
100
AcDbLine
 10
0.4173489766105832
 20
394.4005046492614
 30
0.0
 11
1.495430415787949
 21
400.5147950939966
 31
0.0
  0
LINE
  5
4DA9
330
4BF2
100
AcDbEntity
  8
0
100
AcDbLine
 10
8.544802171172477
 20
402.123105549261
 30
0.0
 11
9.542261571172957
 21
402.9600043492613
 31
0.0
  0
LINE
  5
4DAA
330
4BF2
100
AcDbEntity
  8
0
100
AcDbLine
 10
7.904570071172883
 20
402.8862052492612
 30
0.0
 11
8.544802171172477
 21
402.123105549261
 31
0.0
  0
LINE
  5
4DAB
330
4BF2
100
AcDbEntity
  8
0
100
AcDbLine
 10
7.473402471172222
 20
400.4409041492611
 30
0.0
 11
8.470812271172462
 21
401.2778029492613
 31
0.0
  0
LINE
  5
4DAC
330
4BF2
100
AcDbEntity
  8
0
100
AcDbLine
 10
8.470812271172462
 20
401.2778029492613
 30
0.0
 11
9.111082571172801
 21
400.514604149261
 31
0.0
  0
LINE
  5
4DAD
330
4BF2
100
AcDbEntity
  8
0
100
AcDbLine
 10
0.9291290711723831
 20
402.1230063492611
 30
0.0
 11
1.926592371172545
 21
402.9602065492611
 31
0.0
  0
LINE
  5
4DAE
330
4BF2
100
AcDbEntity
  8
0
100
AcDbLine
 10
0.2889008711724727
 20
402.8860030492613
 30
0.0
 11
0.9291290711723831
 21
402.1230063492611
 31
0.0
  0
LINE
  5
4DAF
330
4BF2
100
AcDbEntity
  8
0
100
AcDbLine
 10
0.8552422711725283
 20
401.2777152492612
 30
0.0
 11
1.49542097117296
 21
400.5148063492613
 31
0.0
  0
LINE
  5
4DB0
330
4BF2
100
AcDbEntity
  8
0
100
AcDbLine
 10
1.314821671172239
 20
401.663404049261
 30
0.0
 11
1.955061471172256
 21
400.900495049261
 31
0.0
  0
LINE
  5
4DB1
330
4BF2
100
AcDbEntity
  8
0
100
AcDbLine
 10
1.314821671172239
 20
401.663404049261
 30
0.0
 11
2.312212471172415
 21
402.5005050492612
 31
0.0
  0
LINE
  5
4DB2
330
4BF2
100
AcDbEntity
  8
0
100
AcDbLine
 10
7.444960071172999
 20
402.5005050492612
 30
0.0
 11
8.085161671172272
 21
401.7373938492613
 31
0.0
  0
LINE
  5
4DB3
330
4BF2
100
AcDbEntity
  8
0
100
AcDbLine
 10
7.087721371172619
 20
400.900495049261
 30
0.0
 11
8.085161671172272
 21
401.7373938492613
 31
0.0
  0
LINE
  5
4DB4
330
4BF2
100
AcDbEntity
  8
0
100
AcDbLine
 10
7.087721371172619
 20
400.900495049261
 30
0.0
 11
1.955061471172256
 21
400.900495049261
 31
0.0
  0
LINE
  5
4DB5
330
4BF2
100
AcDbEntity
  8
0
100
AcDbLine
 10
7.444960071172999
 20
402.5005050492612
 30
0.0
 11
2.312212471172415
 21
402.5005050492612
 31
0.0
  0
LINE
  5
4DB6
330
4BF2
100
AcDbEntity
  8
0
100
AcDbLine
 10
5.769849876610122
 20
393.0004955492612
 30
0.0
 11
6.941869876610097
 21
391.6037059492613
 31
0.0
  0
LINE
  5
4DB7
330
4BF2
100
AcDbEntity
  8
0
100
AcDbLine
 10
6.229486576610497
 20
393.3862148492616
 30
0.0
 11
7.401510376610302
 21
391.9894061492613
 31
0.0
  0
ARC
  5
4DB8
330
4BF2
100
AcDbEntity
  8
0
100
AcDbCircle
 10
0.647150176610694
 20
393.4005046492615
 30
0.0
 40
0.4
100
AcDbArc
 50
170.0001068000011
 51
270.0
  0
ARC
  5
4DB9
330
4BF2
100
AcDbEntity
  8
0
100
AcDbCircle
 10
6.161466776610494
 20
393.0004955492612
 30
0.0
 40
1.6
100
AcDbArc
 50
320.8066101000014
 51
350.0000916000027
  0
ARC
  5
4DBA
330
4BF2
100
AcDbEntity
  8
0
100
AcDbCircle
 10
6.161466776610494
 20
393.0004955492612
 30
0.0
 40
1.6
100
AcDbArc
 50
270.0
 51
299.1926880000011
  0
LINE
  5
4DBB
330
4BF2
100
AcDbEntity
  8
0
100
AcDbLine
 10
0.647150176610694
 20
393.0004955492612
 30
0.0
 11
5.769849876610122
 21
393.0004955492612
 31
0.0
  0
LINE
  5
4DBC
330
4BF2
100
AcDbEntity
  8
0
100
AcDbLine
 10
0.2532483766105997
 20
393.4699054492615
 30
0.0
 11
0.311559776610693
 21
393.8005061492617
 31
0.0
  0
LINE
  5
4DBD
330
4BF2
100
AcDbEntity
  8
0
100
AcDbLine
 10
0.647150176610694
 20
391.4005046492615
 30
0.0
 11
6.161466776610494
 21
391.4005046492615
 31
0.0
  0
LINE
  5
4DBE
330
4BF2
100
AcDbEntity
  8
0
100
AcDbLine
 10
29.69995867661032
 20
383.6005054492614
 30
0.0
 11
32.49995867661051
 21
386.4005046492615
 31
0.0
  0
LINE
  5
4DBF
330
4BF2
100
AcDbEntity
  8
0
100
AcDbLine
 10
26.89995867661014
 20
386.4005046492615
 30
0.0
 11
29.69995867661032
 21
383.6005054492614
 31
0.0
  0
LINE
  5
4DC0
330
4BF2
100
AcDbEntity
  8
0
100
AcDbLine
 10
26.89995867661014
 20
386.4005046492615
 30
0.0
 11
32.49995867661051
 21
386.4005046492615
 31
0.0
  0
LINE
  5
4DC1
330
4BF2
100
AcDbEntity
  8
0
100
AcDbLine
 10
33.2294865766105
 20
393.3862148492616
 30
0.0
 11
34.47340247742682
 21
400.4409041545089
 31
0.0
  0
LINE
  5
4DC2
330
4BF2
100
AcDbEntity
  8
0
100
AcDbLine
 10
27.41734897661058
 20
394.4005046492614
 30
0.0
 11
28.49543041578795
 21
400.5147950939966
 31
0.0
  0
LINE
  5
4DC3
330
4BF2
100
AcDbEntity
  8
0
100
AcDbLine
 10
25.79265037661003
 20
394.4005046492614
 30
0.0
 11
26.85759213982669
 21
400.4404045068817
 31
0.0
  0
LINE
  5
4DC4
330
4BF2
100
AcDbEntity
  8
0
100
AcDbLine
 10
34.47340247117222
 20
400.4409041492611
 30
0.0
 11
35.47081227117246
 21
401.2778029492613
 31
0.0
  0
LINE
  5
4DC5
330
4BF2
100
AcDbEntity
  8
0
100
AcDbLine
 10
27.92912907117238
 20
402.1230063492611
 30
0.0
 11
28.92659237117256
 21
402.9602065492611
 31
0.0
  0
LINE
  5
4DC6
330
4BF2
100
AcDbEntity
  8
0
100
AcDbLine
 10
27.28890087117247
 20
402.8860030492613
 30
0.0
 11
27.92912907117238
 21
402.1230063492611
 31
0.0
  0
LINE
  5
4DC7
330
4BF2
100
AcDbEntity
  8
0
100
AcDbLine
 10
26.85759207117258
 20
400.4404044492611
 30
0.0
 11
27.85524227117254
 21
401.2777152492612
 31
0.0
  0
LINE
  5
4DC8
330
4BF2
100
AcDbEntity
  8
0
100
AcDbLine
 10
27.85524227117254
 20
401.2777152492612
 30
0.0
 11
28.49542097117296
 21
400.5148063492613
 31
0.0
  0
LINE
  5
4DC9
330
4BF2
100
AcDbEntity
  8
0
100
AcDbLine
 10
28.31482167117224
 20
401.663404049261
 30
0.0
 11
28.95506147117226
 21
400.900495049261
 31
0.0
  0
LINE
  5
4DCA
330
4BF2
100
AcDbEntity
  8
0
100
AcDbLine
 10
28.31482167117224
 20
401.663404049261
 30
0.0
 11
29.31221247117242
 21
402.5005050492612
 31
0.0
  0
LINE
  5
4DCB
330
4BF2
100
AcDbEntity
  8
0
100
AcDbLine
 10
34.444960071173
 20
402.5005050492612
 30
0.0
 11
35.08516167117227
 21
401.7373938492613
 31
0.0
  0
LINE
  5
4DCC
330
4BF2
100
AcDbEntity
  8
0
100
AcDbLine
 10
34.08772137117262
 20
400.900495049261
 30
0.0
 11
35.08516167117227
 21
401.7373938492613
 31
0.0
  0
LINE
  5
4DCD
330
4BF2
100
AcDbEntity
  8
0
100
AcDbLine
 10
34.08772137117262
 20
400.900495049261
 30
0.0
 11
28.95506147117226
 21
400.900495049261
 31
0.0
  0
LINE
  5
4DCE
330
4BF2
100
AcDbEntity
  8
0
100
AcDbLine
 10
34.444960071173
 20
402.5005050492612
 30
0.0
 11
29.31221247117242
 21
402.5005050492612
 31
0.0
  0
LINE
  5
4DCF
330
4BF2
100
AcDbEntity
  8
0
100
AcDbLine
 10
32.76984987661013
 20
393.0004955492612
 30
0.0
 11
33.94186987661011
 21
391.6037059492613
 31
0.0
  0
LINE
  5
4DD0
330
4BF2
100
AcDbEntity
  8
0
100
AcDbLine
 10
33.2294865766105
 20
393.3862148492616
 30
0.0
 11
34.4015103766103
 21
391.9894061492613
 31
0.0
  0
ARC
  5
4DD1
330
4BF2
100
AcDbEntity
  8
0
100
AcDbCircle
 10
27.6471501766107
 20
393.4005046492615
 30
0.0
 40
0.4
100
AcDbArc
 50
170.0001068000011
 51
270.0
  0
LINE
  5
4DD2
330
4BF2
100
AcDbEntity
  8
0
100
AcDbLine
 10
25.79265037661003
 20
394.4005046492614
 30
0.0
 11
27.41734897661058
 21
394.4005046492614
 31
0.0
  0
LINE
  5
4DD3
330
4BF2
100
AcDbEntity
  8
0
100
AcDbLine
 10
25.68685737661031
 20
393.8005061492617
 30
0.0
 11
27.3115597766107
 21
393.8005061492617
 31
0.0
  0
ARC
  5
4DD4
330
4BF2
100
AcDbEntity
  8
0
100
AcDbCircle
 10
33.1614667766105
 20
393.0004955492612
 30
0.0
 40
1.6
100
AcDbArc
 50
320.8066101000014
 51
350.0000916000027
  0
ARC
  5
4DD5
330
4BF2
100
AcDbEntity
  8
0
100
AcDbCircle
 10
33.1614667766105
 20
393.0004955492612
 30
0.0
 40
1.6
100
AcDbArc
 50
270.0
 51
299.1926880000011
  0
ARC
  5
4DD6
330
4BF2
100
AcDbEntity
  8
0
100
AcDbCircle
 10
27.6471501766107
 20
393.4005046492615
 30
0.0
 40
2.0
100
AcDbArc
 50
170.0001068000011
 51
270.0
  0
LINE
  5
4DD7
330
4BF2
100
AcDbEntity
  8
0
100
AcDbLine
 10
27.6471501766107
 20
393.0004955492612
 30
0.0
 11
32.76984987661013
 21
393.0004955492612
 31
0.0
  0
LINE
  5
4DD8
330
4BF2
100
AcDbEntity
  8
0
100
AcDbLine
 10
27.25324837661061
 20
393.4699054492615
 30
0.0
 11
27.3115597766107
 21
393.8005061492617
 31
0.0
  0
LINE
  5
4DD9
330
4BF2
100
AcDbEntity
  8
0
100
AcDbLine
 10
27.6471501766107
 20
391.4005046492615
 30
0.0
 11
33.1614667766105
 21
391.4005046492615
 31
0.0
  0
LINE
  5
4DDA
330
4BF2
100
AcDbEntity
  8
0
100
AcDbLine
 10
25.67754947661047
 20
393.7477947492615
 30
0.0
 11
25.68685737661031
 21
393.8005061492617
 31
0.0
  0
ARC
  5
4DDB
330
4BF2
100
AcDbEntity
  8
0
100
AcDbCircle
 10
19.66146677661049
 20
393.0004955492612
 30
0.0
 40
1.6
100
AcDbArc
 50
270.0
 51
299.1926880000011
  0
ARC
  5
4DDC
330
4BF2
100
AcDbEntity
  8
0
100
AcDbCircle
 10
19.66146677661049
 20
393.0004955492612
 30
0.0
 40
1.6
100
AcDbArc
 50
320.8066101000014
 51
350.0000916000027
  0
LINE
  5
4DDD
330
4BF2
100
AcDbEntity
  8
0
100
AcDbLine
 10
19.72948657661049
 20
393.3862148492616
 30
0.0
 11
20.9015103766103
 21
391.9894061492613
 31
0.0
  0
LINE
  5
4DDE
330
4BF2
100
AcDbEntity
  8
0
100
AcDbLine
 10
19.26984987661012
 20
393.0004955492612
 30
0.0
 11
20.4418698766101
 21
391.6037059492613
 31
0.0
  0
LINE
  5
4DDF
330
4BF2
100
AcDbEntity
  8
0
100
AcDbLine
 10
20.58772137117262
 20
400.900495049261
 30
0.0
 11
21.58516167117227
 21
401.7373938492613
 31
0.0
  0
LINE
  5
4DE0
330
4BF2
100
AcDbEntity
  8
0
100
AcDbLine
 10
20.944960071173
 20
402.5005050492612
 30
0.0
 11
21.58516167117227
 21
401.7373938492613
 31
0.0
  0
LINE
  5
4DE1
330
4BF2
100
AcDbEntity
  8
0
100
AcDbLine
 10
21.97081227117246
 20
401.2778029492613
 30
0.0
 11
22.6110825711728
 21
400.514604149261
 31
0.0
  0
LINE
  5
4DE2
330
4BF2
100
AcDbEntity
  8
0
100
AcDbLine
 10
20.97340247117222
 20
400.4409041492611
 30
0.0
 11
21.97081227117246
 21
401.2778029492613
 31
0.0
  0
LINE
  5
4DE3
330
4BF2
100
AcDbEntity
  8
0
100
AcDbLine
 10
21.40457007117289
 20
402.8862052492612
 30
0.0
 11
22.04480217117248
 21
402.123105549261
 31
0.0
  0
LINE
  5
4DE4
330
4BF2
100
AcDbEntity
  8
0
100
AcDbLine
 10
22.04480217117248
 20
402.123105549261
 30
0.0
 11
23.04226157117296
 21
402.9600043492613
 31
0.0
  0
LINE
  5
4DE5
330
4BF2
100
AcDbEntity
  8
0
100
AcDbLine
 10
19.72948657661049
 20
393.3862148492616
 30
0.0
 11
20.97340247742682
 21
400.4409041545089
 31
0.0
  0
LINE
  5
4DE6
330
4BF2
100
AcDbEntity
  8
0
100
AcDbLine
 10
21.23715797661021
 20
392.7226939492615
 30
0.0
 11
22.61108256052262
 21
400.5146041619561
 31
0.0
  0
CIRCLE
  5
4DE7
330
4BF2
100
AcDbEntity
  8
0
100
AcDbCircle
 10
23.4000174766104
 20
393.2005153492613
 30
0.0
 40
0.7
  0
LINE
  5
4DE8
330
4BF2
100
AcDbEntity
  8
0
100
AcDbLine
 10
15.42659235264796
 20
402.9602065337123
 30
0.0
 11
16.52692997661029
 21
409.2005153492611
 31
0.0
  0
LINE
  5
4DE9
330
4BF2
100
AcDbEntity
  8
0
100
AcDbLine
 10
13.78890092321649
 20
402.8860029872374
 30
0.0
 11
14.90225807661022
 21
409.2005153492611
 31
0.0
  0
LINE
  5
4DEA
330
4BF2
100
AcDbEntity
  8
0
100
AcDbLine
 10
9.542261589134568
 20
402.9600043643321
 30
0.0
 11
10.69941917661049
 21
409.5227046492611
 31
0.0
  0
LINE
  5
4DEB
330
4BF2
100
AcDbEntity
  8
0
100
AcDbLine
 10
7.904570065755931
 20
402.8862052557173
 30
0.0
 11
9.401579076610461
 21
411.3762012492615
 31
0.0
  0
LINE
  5
4DEC
330
4BF2
100
AcDbEntity
  8
0
100
AcDbLine
 10
0.2889009232164881
 20
402.8860029872374
 30
0.0
 11
1.402258076610222
 21
409.2005153492611
 31
0.0
  0
LINE
  5
4DED
330
4BF2
100
AcDbEntity
  8
0
100
AcDbLine
 10
1.926592352647958
 20
402.9602065337123
 30
0.0
 11
3.026929976610289
 21
409.2005153492611
 31
0.0
  0
LINE
  5
4DEE
330
4BF2
100
AcDbEntity
  8
0
100
AcDbLine
 10
27.28890092321649
 20
402.8860029872374
 30
0.0
 11
28.40225807661023
 21
409.2005153492611
 31
0.0
  0
LINE
  5
4DEF
330
4BF2
100
AcDbEntity
  8
0
100
AcDbLine
 10
28.92659235264796
 20
402.9602065337123
 30
0.0
 11
30.02692997661029
 21
409.2005153492611
 31
0.0
  0
LINE
  5
4DF0
330
4BF2
100
AcDbEntity
  8
0
100
AcDbLine
 10
21.40457006575593
 20
402.8862052557173
 30
0.0
 11
22.90157907661046
 21
411.3762012492615
 31
0.0
  0
LINE
  5
4DF1
330
4BF2
100
AcDbEntity
  8
0
100
AcDbLine
 10
23.04226158913457
 20
402.9600043643321
 30
0.0
 11
24.19941917661049
 21
409.5227046492611
 31
0.0
  0
LINE
  5
4DF2
330
4BF2
100
AcDbEntity
  8
0
100
AcDbLine
 10
30.13271917661018
 20
411.4005084492613
 30
0.0
 11
35.79659857661023
 21
411.4005084492613
 31
0.0
  0
LINE
  5
4DF3
330
4BF2
100
AcDbEntity
  8
0
100
AcDbLine
 10
28.50803957661061
 20
409.8005023492612
 30
0.0
 11
35.51447887661085
 21
409.8005023492612
 31
0.0
  0
LINE
  5
4DF4
330
4BF2
100
AcDbEntity
  8
0
100
AcDbLine
 10
34.73715797661022
 20
392.7226939492615
 30
0.0
 11
36.11108256052262
 21
400.5146041619561
 31
0.0
  0
LINE
  5
4DF5
330
4BF2
100
AcDbEntity
  8
0
100
AcDbLine
 10
34.90457007117289
 20
402.8862052492612
 30
0.0
 11
35.54480217117248
 21
402.123105549261
 31
0.0
  0
LINE
  5
4DF6
330
4BF2
100
AcDbEntity
  8
0
100
AcDbLine
 10
35.47081227117246
 20
401.2778029492613
 30
0.0
 11
36.1110825711728
 21
400.514604149261
 31
0.0
  0
LINE
  5
4DF7
330
4BF2
100
AcDbEntity
  8
0
100
AcDbLine
 10
34.90457006575593
 20
402.8862052557173
 30
0.0
 11
36.40157907661046
 21
411.3762012492615
 31
0.0
  0
ARC
  5
4DF8
330
4BF2
100
AcDbEntity
  8
0
 48
0.25
100
AcDbCircle
 10
58.49999999999977
 20
369.1005057492628
 30
0.0
 40
8.0
100
AcDbArc
 50
270.0
 51
0.0
  0
POINT
  5
4DF9
330
4BF2
100
AcDbEntity
  8
0
 48
0.25
100
AcDbPoint
 10
56.85843745495595
 20
320.7519048443781
 30
0.0
  0
ARC
  5
4DFA
330
4BF2
100
AcDbEntity
  8
0
100
AcDbCircle
 10
56.50000000000226
 20
321.1005057492624
 30
0.0
 40
0.5
100
AcDbArc
 50
270.0
 51
0.0
  0
LINE
  5
4DFB
330
4BF2
100
AcDbEntity
  8
0
100
AcDbLine
 10
57.00000000000226
 20
321.1005057492624
 30
0.0
 11
57.00000000000226
 21
332.1005057492623
 31
0.0
  0
ARC
  5
4DFC
330
4BF2
100
AcDbEntity
  8
0
100
AcDbCircle
 10
56.50000000000226
 20
332.1005057492623
 30
0.0
 40
0.5
100
AcDbArc
 50
0.0
 51
90.0
  0
LINE
  5
4DFD
330
4BF2
100
AcDbEntity
  8
0
100
AcDbLine
 10
49.79994086000056
 20
393.6505091692605
 30
0.0
 11
49.79994086000056
 21
388.3506548892605
 31
0.0
  0
POINT
  5
4DFE
330
4BF2
100
AcDbEntity
  8
0
100
AcDbPoint
 10
64.50000000000295
 20
360.100505749261
 30
0.0000000000000114
  0
POINT
  5
4DFF
330
4BF2
100
AcDbEntity
  8
0
100
AcDbPoint
 10
64.50000000000295
 20
345.1005057492606
 30
0.0000000000000108
  0
POINT
  5
4E00
330
4BF2
100
AcDbEntity
  8
0
100
AcDbPoint
 10
64.50000000000295
 20
345.1005057492606
 30
0.0000000000000108
  0
ARC
  5
4E01
330
4BF2
100
AcDbEntity
  8
0
100
AcDbCircle
 10
64.50000000000068
 20
342.1005057492629
 30
0.0
 40
2.0
100
AcDbArc
 50
0.0
 51
90.0
  0
ARC
  5
4E02
330
4BF2
100
AcDbEntity
  8
0
100
AcDbCircle
 10
64.50000000000068
 20
347.1005057492628
 30
0.0
 40
2.0
100
AcDbArc
 50
270.0
 51
359.9999999999935
  0
ARC
  5
4E03
330
4BF2
100
AcDbEntity
  8
0
100
AcDbCircle
 10
64.5000000000025
 20
358.1005057492611
 30
0.0
 40
2.0
100
AcDbArc
 50
0.0
 51
90.0
  0
POINT
  5
4E04
330
4BF2
100
AcDbEntity
  8
0
 48
0.25
100
AcDbPoint
 10
64.30000000000086
 20
344.1005057492628
 30
0.0
  0
POINT
  5
4E05
330
4BF2
100
AcDbEntity
  8
0
 48
0.25
100
AcDbPoint
 10
64.29999999999359
 20
344.1005192133642
 30
0.0
  0
LINE
  5
4E06
330
4BF2
100
AcDbEntity
  8
0
 48
0.25
100
AcDbLine
 10
66.49999999999977
 20
358.1005057492611
 30
0.0
 11
66.49999999999977
 21
347.1005057492628
 31
0.0
  0
LINE
  5
4E07
330
4BF2
100
AcDbEntity
  8
0
 48
0.25
100
AcDbLine
 10
66.49999999999977
 20
418.4005057492603
 30
0.0
 11
66.49999999999977
 21
369.1005057492628
 31
0.0
  0
LINE
  5
4E08
330
4BF2
100
AcDbEntity
  8
0
 48
0.25
100
AcDbLine
 10
66.20000000000027
 20
418.1005057492597
 30
0.0
 11
66.19999999999982
 21
369.4005057492621
 31
0.0
  0
ARC
  5
4E09
330
4BF2
100
AcDbEntity
  8
0
 48
0.25
100
AcDbCircle
 10
58.20000000000003
 20
369.4005057492621
 30
0.0
 40
8.0
100
AcDbArc
 50
270.0
 51
0.0
  0
LINE
  5
4E0A
330
4BF2
100
AcDbEntity
  8
0
100
AcDbLine
 10
-4.985521123389161
 20
409.8005023492612
 30
0.0
 11
-4.703401423389777
 21
411.4005084492613
 31
0.0
  0
ARC
  5
4E0B
330
4BF2
100
AcDbEntity
  8
0
100
AcDbCircle
 10
-4.376260623389724
 20
409.8005023492612
 30
0.0
 40
1.6
100
AcDbArc
 50
350.0000916000027
 51
80.00013730000009
  0
LINE
  5
4E0C
330
4BF2
100
AcDbEntity
  8
0
100
AcDbLine
 10
-1.207349623389972
 20
394.4005046492614
 30
0.0
 11
-0.1424078601733072
 21
400.4404045068817
 31
0.0
  0
LINE
  5
4E0D
330
4BF2
100
AcDbEntity
  8
0
100
AcDbLine
 10
-1.322450523389534
 20
393.7477947492615
 30
0.0
 11
-1.313142623389694
 21
393.8005061492617
 31
0.0
  0
LINE
  5
4E0E
330
4BF2
100
AcDbEntity
  8
0
100
AcDbLine
 10
-5.029187728827537
 20
401.2778029492613
 30
0.0
 11
-4.388917428827197
 21
400.514604149261
 31
0.0
  0
LINE
  5
4E0F
330
4BF2
100
AcDbEntity
  8
0
100
AcDbLine
 10
-5.595429928827114
 20
402.8862052492612
 30
0.0
 11
-4.955197828827521
 21
402.123105549261
 31
0.0
  0
LINE
  5
4E10
330
4BF2
100
AcDbEntity
  8
0
100
AcDbLine
 10
-4.955197828827521
 20
402.123105549261
 30
0.0
 11
-3.957738428827041
 21
402.9600043492613
 31
0.0
  0
LINE
  5
4E11
330
4BF2
100
AcDbEntity
  8
0
100
AcDbLine
 10
-5.762842023389793
 20
392.7226939492615
 30
0.0
 11
-4.38891743947738
 21
400.5146041619561
 31
0.0
  0
CIRCLE
  5
4E12
330
4BF2
100
AcDbEntity
  8
0
100
AcDbCircle
 10
-3.599982523389598
 20
393.2005153492613
 30
0.0
 40
0.7
  0
LINE
  5
4E13
330
4BF2
100
AcDbEntity
  8
0
100
AcDbLine
 10
-5.595429934244066
 20
402.8862052557173
 30
0.0
 11
-4.098420923389538
 21
411.3762012492615
 31
0.0
  0
LINE
  5
4E14
330
4BF2
100
AcDbEntity
  8
0
100
AcDbLine
 10
-3.957738410865431
 20
402.9600043643321
 30
0.0
 11
-2.800580823389509
 21
409.5227046492611
 31
0.0
  0
LINE
  5
4E15
330
4BF2
100
AcDbEntity
  8
0
100
AcDbLine
 10
-0.1000413233898598
 20
386.4005046492615
 30
0.0
 11
2.699958676610322
 21
383.6005054492614
 31
0.0
  0
LINE
  5
4E16
330
4BF2
100
AcDbEntity
  8
0
100
AcDbLine
 10
-0.1000413233898598
 20
386.4005046492615
 30
0.0
 11
5.499958676610503
 21
386.4005046492615
 31
0.0
  0
LINE
  5
4E17
330
4BF2
100
AcDbEntity
  8
0
100
AcDbLine
 10
-0.1424079288274243
 20
400.4404044492611
 30
0.0
 11
0.8552422711725283
 21
401.2777152492612
 31
0.0
  0
LINE
  5
4E18
330
4BF2
100
AcDbEntity
  8
0
100
AcDbLine
 10
-1.207349623389972
 20
394.4005046492614
 30
0.0
 11
0.4173489766105832
 21
394.4005046492614
 31
0.0
  0
LINE
  5
4E19
330
4BF2
100
AcDbEntity
  8
0
100
AcDbLine
 10
-1.313142623389694
 20
393.8005061492617
 30
0.0
 11
0.311559776610693
 21
393.8005061492617
 31
0.0
  0
ARC
  5
4E1A
330
4BF2
100
AcDbEntity
  8
0
100
AcDbCircle
 10
0.647150176610694
 20
393.4005046492615
 30
0.0
 40
2.0
100
AcDbArc
 50
170.0001068000011
 51
270.0
  0
LINE
  5
4E1B
330
4BF2
100
AcDbEntity
  8
0
 48
0.25
100
AcDbLine
 10
104.0
 20
368.7210307465337
 30
0.0
 11
104.0
 21
246.1975620241086
 31
0.0
  0
LINE
  5
4E1C
330
4BF2
100
AcDbEntity
  8
0
 48
0.25
100
AcDbLine
 10
104.0
 20
328.7740274465076
 30
0.0
 11
104.0
 21
263.1005057492611
 31
0.0
  0
LINE
  5
4E1D
330
4BF2
100
AcDbEntity
  8
0
 48
0.25
100
AcDbLine
 10
107.6000000000003
 20
376.1005057492602
 30
0.0
 11
107.6000000000002
 21
245.3005057492613
 31
0.0
  0
LINE
  5
4E1E
330
4BF2
100
AcDbEntity
  8
0
 48
0.25
100
AcDbLine
 10
106.3999999999996
 20
376.1005057492602
 30
0.0
 11
106.3999999999996
 21
245.3005057492609
 31
0.0
  0
LINE
  5
4E1F
330
4BF2
100
AcDbEntity
  8
0
 48
0.5
100
AcDbLine
 10
107.6000000000111
 20
364.100505749262
 30
0.0
 11
110.8000000000103
 21
364.1005057492614
 31
0.0
  0
LINE
  5
4E20
330
4BF2
100
AcDbEntity
  8
0
 48
0.5
100
AcDbLine
 10
107.6000000000111
 20
348.1005057492615
 30
0.0
 11
110.8000000000103
 21
348.1005057492615
 31
0.0
  0
LINE
  5
4E21
330
4BF2
100
AcDbEntity
  8
0
100
AcDbLine
 10
110.8000000000112
 20
356.1005057492615
 30
0.0
 11
110.8000000000112
 21
338.6585008103142
 31
0.0
  0
LINE
  5
4E22
330
4BF2
100
AcDbEntity
  8
0
100
AcDbLine
 10
110.8000000000112
 20
356.1005057492615
 30
0.0
 11
110.8000000000112
 21
373.5425106882098
 31
0.0
  0
LINE
  5
4E23
330
4BF2
100
AcDbEntity
  8
0
100
AcDbLine
 10
122.8000000000104
 20
356.1005057492615
 30
0.0
 11
122.8000000000104
 21
343.6585008103142
 31
0.0
  0
ARC
  5
4E24
330
4BF2
100
AcDbEntity
  8
0
100
AcDbCircle
 10
117.8000000000104
 20
343.6585008103142
 30
0.0
 40
5.0
100
AcDbArc
 50
270.0
 51
0.0
  0
LINE
  5
4E25
330
4BF2
100
AcDbEntity
  8
0
100
AcDbLine
 10
122.8000000000104
 20
356.1005057492615
 30
0.0
 11
122.8000000000104
 21
368.5425106882097
 31
0.0
  0
ARC
  5
4E26
330
4BF2
100
AcDbEntity
  8
0
100
AcDbCircle
 10
117.8000000000104
 20
368.5425106882097
 30
0.0
 40
5.0
100
AcDbArc
 50
0.0
 51
90.0
  0
LINE
  5
4E27
330
4BF2
100
AcDbEntity
  8
0
100
AcDbLine
 10
117.8000000000104
 20
338.6585008103142
 30
0.0
 11
110.8000000000112
 21
338.6585008103142
 31
0.0
  0
LINE
  5
4E28
330
4BF2
100
AcDbEntity
  8
0
100
AcDbLine
 10
117.8000000000104
 20
373.5425106882098
 30
0.0
 11
110.8000000000112
 21
373.5425106882098
 31
0.0
  0
LINE
  5
4E29
330
4BF2
100
AcDbEntity
  8
0
100
AcDbLine
 10
122.8000000000104
 20
349.5775824516953
 30
0.0
 11
110.8000000000107
 21
349.5775824516953
 31
0.0
  0
LINE
  5
4E2A
330
4BF2
100
AcDbEntity
  8
0
100
AcDbLine
 10
122.8000000000099
 20
362.554731351844
 30
0.0
 11
110.8000000000107
 21
362.5547313518431
 31
0.0
  0
LINE
  5
4E2B
330
4BF2
100
AcDbEntity
  8
0
 48
0.25
100
AcDbLine
 10
106.3999999999996
 20
347.4194498582709
 30
0.0
 11
105.0
 21
348.2277402351363
 31
0.0
  0
ARC
  5
4E2C
330
4BF2
100
AcDbEntity
  8
0
 48
0.25
100
AcDbCircle
 10
106.0
 20
349.9597910427045
 30
0.0
 40
2.0
100
AcDbArc
 50
180.0
 51
239.9999999999995
  0
LINE
  5
4E2D
330
4BF2
100
AcDbEntity
  8
0
 48
0.25
100
AcDbLine
 10
107.6000000000003
 20
376.1005057492611
 30
0.0
 11
106.3999999999996
 21
376.1005057492611
 31
0.0
  0
LINE
  5
4E2E
330
4BF2
100
AcDbEntity
  8
0
 48
0.25
100
AcDbLine
 10
106.3999999999996
 20
371.2613719309683
 30
0.0
 11
105.0
 21
370.4530815541028
 31
0.0
  0
ARC
  5
4E2F
330
4BF2
100
AcDbEntity
  8
0
 48
0.25
100
AcDbCircle
 10
106.0
 20
368.7210307465337
 30
0.0
 40
2.0
100
AcDbArc
 50
120.0000000000005
 51
180.0
  0
LINE
  5
4E30
330
4BF2
100
AcDbEntity
  8
0
 48
0.25
100
AcDbLine
 10
103.5
 20
366.100505749261
 30
0.0
 11
103.5
 21
356.1005057492611
 31
0.0
  0
LINE
  5
4E31
330
4BF2
100
AcDbEntity
  8
0
 48
0.25
100
AcDbLine
 10
103.5
 20
346.1005057492611
 30
0.0
 11
103.5
 21
356.1005057492611
 31
0.0
  0
LINE
  5
4E32
330
4BF2
100
AcDbEntity
  8
0
 48
0.25
100
AcDbLine
 10
103.5
 20
366.100505749261
 30
0.0
 11
103.5
 21
356.1005057492611
 31
0.0
  0
ARC
  5
4E33
330
4BF2
100
AcDbEntity
  8
0
 48
0.25
100
AcDbCircle
 10
98.70000000000004
 20
253.9005057492622
 30
0.0
 40
0.8
100
AcDbArc
 50
270.0
 51
0.0
  0
LINE
  5
4E34
330
4BF2
100
AcDbEntity
  8
0
 48
0.25
100
AcDbLine
 10
99.50000000000001
 20
366.100505749261
 30
0.0
 11
99.50000000000001
 21
356.1005057492611
 31
0.0
  0
LINE
  5
4E35
330
4BF2
100
AcDbEntity
  8
0
 48
0.25
100
AcDbLine
 10
99.50000000000001
 20
346.1005057492611
 30
0.0
 11
99.50000000000001
 21
356.1005057492611
 31
0.0
  0
ARC
  5
4E36
330
4BF2
100
AcDbEntity
  8
0
 48
0.25
100
AcDbCircle
 10
98.39999999999964
 20
245.3005057492609
 30
0.0
 40
8.0
100
AcDbArc
 50
270.0
 51
0.0
  0
ARC
  5
4E37
330
4BF2
100
AcDbEntity
  8
0
 48
0.25
100
AcDbCircle
 10
98.40000000000031
 20
245.3005057492611
 30
0.0
 40
9.199999999999999
100
AcDbArc
 50
270.0
 51
0.0
  0
LINE
  5
4E38
330
4BF2
100
AcDbEntity
  8
0
 48
0.25
100
AcDbLine
 10
106.3999999999996
 20
248.597562024108
 30
0.0
 11
95.10294372515229
 21
237.3005057492607
 31
0.0
  0
LINE
  5
4E39
330
4BF2
100
AcDbEntity
  8
0
 48
0.25
100
AcDbLine
 10
99.50000000000001
 20
366.100505749261
 30
0.0
 11
103.5
 21
366.100505749261
 31
0.0
  0
LINE
  5
4E3A
330
4BF2
100
AcDbEntity
  8
0
 48
0.25
100
AcDbLine
 10
99.50000000000001
 20
346.1005057492611
 30
0.0
 11
103.5
 21
346.1005057492611
 31
0.0
  0
LINE
  5
4E3B
330
4BF2
100
AcDbEntity
  8
0
 48
0.1
100
AcDbLine
 10
-98.69999999998869
 20
443.1005057492601
 30
0.0
 11
98.69999999999961
 21
443.1005057492601
 31
0.0
  0
LINE
  5
4E3C
330
4BF2
100
AcDbEntity
  8
0
 48
0.1
100
AcDbLine
 10
-98.69999999998869
 20
459.1005057492601
 30
0.0
 11
98.69999999999961
 21
459.1005057492601
 31
0.0
  0
LINE
  5
4E3D
330
4BF2
100
AcDbEntity
  8
0
 48
0.1
100
AcDbLine
 10
-58.4999999999975
 20
426.4005057492603
 30
0.0
 11
58.49999999999977
 21
426.4005057492603
 31
0.0
  0
LINE
  5
4E3E
330
4BF2
100
AcDbEntity
  8
0
 48
0.1
100
AcDbLine
 10
-58.4999999999975
 20
428.4005057492603
 30
0.0
 11
58.49999999999977
 21
428.4005057492603
 31
0.0
  0
LINE
  5
4E3F
330
4BF2
100
AcDbEntity
  8
0
 48
0.1
100
AcDbLine
 10
-58.19999999999755
 20
426.10050574926
 30
0.0
 11
58.20000000000028
 21
426.1005057492597
 31
0.0
  0
ARC
  5
4E40
330
4BF2
100
AcDbEntity
  8
0
 48
0.1
100
AcDbCircle
 10
-98.69999999998869
 20
458.3005057492605
 30
0.0
 40
0.8
100
AcDbArc
 50
90.0
 51
179.9999999999935
  0
POINT
  5
4E41
330
4BF2
100
AcDbEntity
  8
0
 48
0.25
100
AcDbPoint
 10
63.85685424949224
 20
423.7573599987521
 30
0.0
  0
ARC
  5
4E42
330
4BF2
100
AcDbEntity
  8
0
 48
0.25
100
AcDbCircle
 10
98.69999999999961
 20
458.3005057492605
 30
0.0
 40
0.8
100
AcDbArc
 50
0.0
 51
90.0
  0
ARC
  5
4E43
330
4BF2
100
AcDbEntity
  8
0
 48
0.25
100
AcDbCircle
 10
-64.49999999999704
 20
347.1005057492607
 30
0.0000000000000438
 40
2.0
100
AcDbArc
 50
180.0
 51
270.0
  0
POINT
  5
4E44
330
4BF2
100
AcDbEntity
  8
0
100
AcDbPoint
 10
66.5000000000025
 20
352.6005057492597
 30
0.0000000000000693
  0
POINT
  5
4E45
330
4BF2
100
AcDbEntity
  8
0
100
AcDbPoint
 10
66.5000000000025
 20
357.1005057492597
 30
0.0000000000000693
  0
ARC
  5
4E46
330
4BF2
100
AcDbEntity
  8
0
 48
0.25
100
AcDbCircle
 10
64.50000000000295
 20
358.1005057492611
 30
0.0000000000001068
 40
2.0
100
AcDbArc
 50
0.0
 51
90.0
  0
POINT
  5
4E47
330
4BF2
100
AcDbEntity
  8
0
100
AcDbPoint
 10
65.71490653572505
 20
359.6892165818093
 30
0.0000000000001068
  0
LINE
  5
4E48
330
4BF2
100
AcDbEntity
  8
0
100
AcDbLine
 10
20.00000000000159
 20
236.1005057492611
 30
0.0
 11
-20.00000000000154
 21
236.1005057492611
 31
0.0
  0
LINE
  5
4E49
330
4BF2
100
AcDbEntity
  8
0
100
AcDbLine
 10
-128.4999999999927
 20
-74.49999999999739
 30
0.0
 11
-128.4999999999927
 21
-82.49999999999737
 31
0.0
  0
ARC
  5
4E4A
330
4BF2
100
AcDbEntity
  8
0
100
AcDbCircle
 10
-115.7499999999928
 20
-86.77550663839895
 30
0.0
 40
12.27550663840318
100
AcDbArc
 50
69.74384199960842
 51
110.2561580003916
  0
LINE
  5
4E4B
330
4BF2
100
AcDbEntity
  8
0
100
AcDbLine
 10
-128.4999999999927
 20
-74.49999999999739
 30
0.0
 11
-111.4999999999928
 21
-74.49999999999739
 31
0.0
  0
ARC
  5
4E4C
330
4BF2
100
AcDbEntity
  8
0
100
AcDbCircle
 10
-124.2499999999927
 20
-86.77550663839895
 30
0.0
 40
12.27550663840318
100
AcDbArc
 50
69.74384199960842
 51
110.2561580003916
  0
LINE
  5
4E4D
330
4BF2
100
AcDbEntity
  8
0
100
AcDbLine
 10
-128.4999999999927
 20
-82.49999999999737
 30
0.0
 11
-111.4999999999928
 21
-82.49999999999737
 31
0.0
  0
ARC
  5
4E4E
330
4BF2
100
AcDbEntity
  8
0
100
AcDbCircle
 10
-115.75
 20
-70.22449336159581
 30
0.0
 40
12.27550663840318
100
AcDbArc
 50
249.7438419996084
 51
290.2561580003915
  0
LINE
  5
4E4F
330
4BF2
100
AcDbEntity
  8
0
100
AcDbLine
 10
-128.5
 20
-82.49999999999737
 30
0.0
 11
-111.5
 21
-82.49999999999737
 31
0.0
  0
ARC
  5
4E50
330
4BF2
100
AcDbEntity
  8
0
100
AcDbCircle
 10
-124.25
 20
-70.22449336159581
 30
0.0
 40
12.27550663840318
100
AcDbArc
 50
249.7438419996084
 51
290.2561580003915
  0
LINE
  5
4E51
330
4BF2
100
AcDbEntity
  8
0
100
AcDbLine
 10
-111.4999999999928
 20
-74.49999999999739
 30
0.0
 11
-111.4999999999928
 21
-82.49999999999737
 31
0.0
  0
LINE
  5
4E52
330
4BF2
100
AcDbEntity
  8
0
100
AcDbLine
 10
-119.9999999999928
 20
-75.25918937855124
 30
0.0
 11
-119.9999999999855
 21
-81.74081062145083
 31
0.0
  0
LINE
  5
4E53
330
4BF2
100
AcDbEntity
  8
0
100
AcDbLine
 10
-127.9999999999928
 20
-82.49999999999737
 30
0.0
 11
-111.9999999999928
 21
-82.49999999999737
 31
0.0
  0
LINE
  5
4E54
330
4BF2
100
AcDbEntity
  8
0
100
AcDbLine
 10
-131.0
 20
-82.49999999999737
 30
0.0
 11
-109.0
 21
-82.49999999999737
 31
0.0
  0
ARC
  5
4E55
330
4BF2
100
AcDbEntity
  8
0
100
AcDbCircle
 10
-132.0
 20
-101.4999999999974
 30
0.0
 40
2.0
100
AcDbArc
 50
180.0
 51
270.0
  0
LINE
  5
4E56
330
4BF2
100
AcDbEntity
  8
0
100
AcDbLine
 10
-131.0
 20
-82.49999999999737
 30
0.0
 11
-134.0
 21
-86.49999999999739
 31
0.0
  0
LINE
  5
4E57
330
4BF2
100
AcDbEntity
  8
0
100
AcDbLine
 10
-148.0113564723001
 20
-86.49999999999739
 30
0.0
 11
-156.5893841543
 21
-90.49999999999739
 31
0.0
  0
LINE
  5
4E58
330
4BF2
100
AcDbEntity
  8
0
100
AcDbLine
 10
-134.0
 20
-98.49999999999738
 30
0.0
 11
-134.0
 21
-101.4999999999974
 31
0.0
  0
LINE
  5
4E59
330
4BF2
100
AcDbEntity
  8
0
100
AcDbLine
 10
-134.0
 20
-101.4999999999974
 30
0.0
 11
-106.0
 21
-101.4999999999974
 31
0.0
  0
ARC
  5
4E5A
330
4BF2
100
AcDbEntity
  8
0
100
AcDbCircle
 10
-108.0
 20
-101.4999999999974
 30
0.0
 40
2.0
100
AcDbArc
 50
270.0
 51
0.0
  0
LINE
  5
4E5B
330
4BF2
100
AcDbEntity
  8
0
100
AcDbLine
 10
-106.0
 20
-86.49999999999739
 30
0.0
 11
-109.0
 21
-82.49999999999737
 31
0.0
  0
LINE
  5
4E5C
330
4BF2
100
AcDbEntity
  8
0
100
AcDbLine
 10
-83.41061584570002
 20
-90.49999999999739
 30
0.0
 11
-91.9886435277001
 21
-86.49999999999739
 31
0.0
  0
LINE
  5
4E5D
330
4BF2
100
AcDbEntity
  8
0
100
AcDbLine
 10
-156.5893841543
 20
-90.49999999999739
 30
0.0
 11
-158.0
 21
-98.49999999999738
 31
0.0
  0
LINE
  5
4E5E
330
4BF2
100
AcDbEntity
  8
0
100
AcDbLine
 10
-82.00000000000008
 20
-98.49999999999738
 30
0.0
 11
-83.41061584570002
 21
-90.49999999999739
 31
0.0
  0
LINE
  5
4E5F
330
4BF2
100
AcDbEntity
  8
0
100
AcDbLine
 10
-106.0
 20
-101.4999999999974
 30
0.0
 11
-106.0
 21
-98.49999999999738
 31
0.0
  0
LINE
  5
4E60
330
4BF2
100
AcDbEntity
  8
0
100
AcDbLine
 10
-156.5893841543
 20
-90.49999999999739
 30
0.0
 11
-156.2757400568
 21
-90.49999999999739
 31
0.0
  0
LINE
  5
4E61
330
4BF2
100
AcDbEntity
  8
0
100
AcDbLine
 10
-83.41061584570002
 20
-90.49999999999739
 30
0.0
 11
-83.72425994320009
 21
-90.49999999999739
 31
0.0
  0
LINE
  5
4E62
330
4BF2
100
AcDbEntity
  8
0
100
AcDbLine
 10
-150.433619873
 20
-98.49999999999738
 30
0.0
 11
-157.6101076964001
 21
-98.49999999999738
 31
0.0
  0
LINE
  5
4E63
330
4BF2
100
AcDbEntity
  8
0
100
AcDbLine
 10
-82.38989230360004
 20
-98.49999999999738
 30
0.0
 11
-82.00000000000008
 21
-98.49999999999738
 31
0.0
  0
LINE
  5
4E64
330
4BF2
100
AcDbEntity
  8
0
100
AcDbLine
 10
-97.24489548640008
 20
-98.49999999999738
 30
0.0
 11
-89.56638012700006
 21
-98.49999999999738
 31
0.0
  0
ARC
  5
4E65
330
4BF2
100
AcDbEntity
  8
0
100
AcDbCircle
 10
-133.5255071176
 20
-114.7494684422973
 30
0.0
 40
25.7781087156
100
AcDbArc
 50
70.16945679559973
 51
109.8305432044002
  0
SPLINE
  5
4E66
330
4BF2
100
AcDbEntity
  8
0
100
AcDbSpline
210
0.0
220
0.0
230
1.0
 70
     8
 71
     3
 72
    14
 73
    10
 74
     0
 42
0.0000000001
 43
0.0000000001
 40
0.0
 40
0.0
 40
0.0
 40
0.0
 40
0.25
 40
0.25
 40
0.5
 40
0.5
 40
0.75
 40
0.75
 40
1.0
 40
1.0
 40
1.0
 40
1.0
 10
-149.0311853857275
 20
-90.49999999994779
 30
0.0
 10
-148.9903567347673
 20
-90.03181383075094
 30
0.0
 10
-149.1076358139491
 20
-89.65109031610154
 30
0.0
 10
-149.6866652488114
 20
-89.12002653779337
 30
0.0
 10
-150.1565203433797
 20
-88.97581844341187
 30
0.0
 10
-151.4110094891013
 20
-88.97567985391559
 30
0.0
 10
-152.2136915619058
 20
-89.11927895489247
 30
0.0
 10
-154.0710304942491
 20
-89.65071757801366
 30
0.0
 10
-155.1179483415564
 20
-90.03176104552983
 30
0.0
 10
-156.2757400568327
 20
-90.49999999994779
 30
0.0
  0
LINE
  5
4E67
330
4BF2
100
AcDbEntity
  8
0
100
AcDbLine
 10
-82.38989230360004
 20
-98.49999999999738
 30
0.0
 11
-89.56638012700006
 21
-98.49999999999738
 31
0.0
  0
SPLINE
  5
4E68
330
4BF2
100
AcDbEntity
  8
0
100
AcDbSpline
210
0.0
220
0.0
230
1.0
 70
     8
 71
     3
 72
    14
 73
    10
 74
     0
 42
0.0000000001
 43
0.0000000001
 40
0.0
 40
0.0
 40
0.0
 40
0.0
 40
0.2500000000000001
 40
0.2500000000000001
 40
0.5000000000000001
 40
0.5000000000000001
 40
0.75
 40
0.75
 40
1.0
 40
1.0
 40
1.0
 40
1.0
 10
-83.72425994317302
 20
-90.49999999994779
 30
0.0
 10
-84.8819211389976
 20
-90.03181383075094
 30
0.0
 10
-85.92807035436214
 20
-89.65109031610154
 30
0.0
 10
-87.78329300067458
 20
-89.12002653779337
 30
0.0
 10
-88.58788453433758
 20
-88.97581844341187
 30
0.0
 10
-89.84269873345523
 20
-88.97567985391559
 30
0.0
 10
-90.31209486134287
 20
-89.11927895489247
 30
0.0
 10
-90.89238167333338
 20
-89.65071757801366
 30
0.0
 10
-91.00964786842729
 20
-90.03176104552983
 30
0.0
 10
-90.9688146142783
 20
-90.49999999994779
 30
0.0
  0
ARC
  5
4E69
330
4BF2
100
AcDbEntity
  8
0
100
AcDbCircle
 10
-106.4744928824
 20
-114.7488843594973
 30
0.0
 40
25.7775592697
100
AcDbArc
 50
70.1690163812024
 51
109.8309836187975
  0
ARC
  5
4E6A
330
4BF2
100
AcDbEntity
  8
0
100
AcDbCircle
 10
-3189.036512233901
 20
-281.7885007810971
 30
0.0
 40
3097.2197332299
100
AcDbArc
 50
3.392654614601466
 51
3.540918781501373
  0
LINE
  5
4E6B
330
4BF2
100
AcDbEntity
  8
0
100
AcDbLine
 10
-97.24489548640008
 20
-98.49999999999738
 30
0.0
 11
-114.5704697199001
 21
-98.49999999999738
 31
0.0
  0
ARC
  5
4E6C
330
4BF2
100
AcDbEntity
  8
0
100
AcDbCircle
 10
-7814.637638713701
 20
1249.190930617303
 30
0.0
 40
7781.792472617199
100
AcDbArc
 50
350.0269374223015
 51
350.086738056502
  0
LINE
  5
4E6D
330
4BF2
100
AcDbEntity
  8
0
100
AcDbLine
 10
-157.6101076964001
 20
-98.49999999999738
 30
0.0
 11
-156.2757400568
 21
-90.49999999999739
 31
0.0
  0
ARC
  5
4E6E
330
4BF2
100
AcDbEntity
  8
0
100
AcDbCircle
 10
-7726.313797475201
 20
-1369.364303771697
 30
0.0
 40
7748.8495111633
100
AcDbArc
 50
9.43954451669864
 51
9.499514528300291
  0
LINE
  5
4E6F
330
4BF2
100
AcDbEntity
  8
0
100
AcDbLine
 10
-142.7551045136
 20
-98.49999999999738
 30
0.0
 11
-142.2704581878001
 21
-90.49999999999739
 31
0.0
  0
LINE
  5
4E70
330
4BF2
100
AcDbEntity
  8
0
100
AcDbLine
 10
-89.56638012700006
 20
-98.49999999999738
 30
0.0
 11
-90.96881461430006
 21
-90.49999999999739
 31
0.0
  0
LINE
  5
4E71
330
4BF2
100
AcDbEntity
  8
0
100
AcDbLine
 10
-90.96881461430006
 20
-90.49999999999739
 30
0.0
 11
-97.72954181220008
 21
-90.49999999999739
 31
0.0
  0
LINE
  5
4E72
330
4BF2
100
AcDbEntity
  8
0
100
AcDbLine
 10
-115.2194439526
 20
-90.49999999999739
 30
0.0
 11
-124.7805560474001
 21
-90.49999999999739
 31
0.0
  0
LINE
  5
4E73
330
4BF2
100
AcDbEntity
  8
0
100
AcDbLine
 10
-142.2704581878001
 20
-90.49999999999739
 30
0.0
 11
-149.0311853857001
 21
-90.49999999999739
 31
0.0
  0
ARC
  5
4E74
330
4BF2
100
AcDbEntity
  8
0
100
AcDbCircle
 10
-3225.621210813301
 20
157.0193875966029
 30
0.0
 40
3110.7038774987
100
AcDbArc
 50
355.2883022971971
 51
355.4361376759024
  0
LINE
  5
4E75
330
4BF2
100
AcDbEntity
  8
0
100
AcDbLine
 10
-125.4295302801
 20
-98.49999999999738
 30
0.0
 11
-114.5704697199001
 21
-98.49999999999738
 31
0.0
  0
LINE
  5
4E76
330
4BF2
100
AcDbEntity
  8
0
100
AcDbLine
 10
-125.4295302801
 20
-98.49999999999738
 30
0.0
 11
-142.7551045136
 21
-98.49999999999738
 31
0.0
  0
LINE
  5
4E77
330
4BF2
100
AcDbEntity
  8
0
100
AcDbLine
 10
-150.433619873
 20
-98.49999999999738
 30
0.0
 11
-142.7551045136
 21
-98.49999999999738
 31
0.0
  0
LINE
  5
4E78
330
4BF2
100
AcDbEntity
  8
0
100
AcDbLine
 10
-158.0
 20
-98.49999999999738
 30
0.0
 11
-157.6101076964001
 21
-98.49999999999738
 31
0.0
  0
LINE
  5
4E79
330
4BF2
100
AcDbEntity
  8
0
100
AcDbLine
 10
-148.0113564723001
 20
-86.49999999999739
 30
0.0
 11
-91.9886435277001
 21
-86.49999999999739
 31
0.0
  0
LINE
  5
4E7A
330
4BF2
100
AcDbEntity
  8
0
100
AcDbLine
 10
-132.0
 20
-103.4999999999974
 30
0.0
 11
-108.0
 21
-103.4999999999974
 31
0.0
  0
LINE
  5
4E7B
330
4BF2
100
AcDbEntity
  8
0
100
AcDbLine
 10
-114.5704697199001
 20
-98.49999999999738
 30
0.0
 11
-115.2194439526
 21
-90.49999999999739
 31
0.0
  0
LINE
  5
4E7C
330
4BF2
100
AcDbEntity
  8
0
100
AcDbLine
 10
-128.9999999999963
 20
-74.49999999999725
 30
0.0
 11
-110.9999999999963
 21
-74.49999999999725
 31
0.0
  0
LINE
  5
4E7D
330
4BF2
100
AcDbEntity
  8
0
100
AcDbLine
 10
-128.9999999999963
 20
-72.49999999999726
 30
0.0
 11
-128.9999999999963
 21
-74.49999999999725
 31
0.0
  0
LINE
  5
4E7E
330
4BF2
100
AcDbEntity
  8
0
100
AcDbLine
 10
-110.9999999999963
 20
-72.49999999999726
 30
0.0
 11
-110.9999999999963
 21
-74.49999999999725
 31
0.0
  0
LINE
  5
4E7F
330
4BF2
100
AcDbEntity
  8
0
100
AcDbLine
 10
-128.9999999999963
 20
-72.50000000000274
 30
0.0
 11
-110.9999999999963
 21
-72.49999999999726
 31
0.0
  0
LINE
  5
4E80
330
4BF2
100
AcDbEntity
  8
0
100
AcDbLine
 10
111.5000000000073
 20
-74.49999999999739
 30
0.0
 11
111.5000000000073
 21
-82.49999999999737
 31
0.0
  0
ARC
  5
4E81
330
4BF2
100
AcDbEntity
  8
0
100
AcDbCircle
 10
124.2500000000072
 20
-86.77550663839895
 30
0.0
 40
12.27550663840318
100
AcDbArc
 50
69.74384199960842
 51
110.2561580003916
  0
LINE
  5
4E82
330
4BF2
100
AcDbEntity
  8
0
100
AcDbLine
 10
111.5000000000073
 20
-74.49999999999739
 30
0.0
 11
128.5000000000072
 21
-74.49999999999739
 31
0.0
  0
ARC
  5
4E83
330
4BF2
100
AcDbEntity
  8
0
100
AcDbCircle
 10
115.7500000000073
 20
-86.77550663839895
 30
0.0
 40
12.27550663840318
100
AcDbArc
 50
69.74384199960842
 51
110.2561580003916
  0
LINE
  5
4E84
330
4BF2
100
AcDbEntity
  8
0
100
AcDbLine
 10
111.5000000000073
 20
-82.49999999999737
 30
0.0
 11
128.5000000000072
 21
-82.49999999999737
 31
0.0
  0
ARC
  5
4E85
330
4BF2
100
AcDbEntity
  8
0
100
AcDbCircle
 10
124.25
 20
-70.22449336159581
 30
0.0
 40
12.27550663840318
100
AcDbArc
 50
249.7438419996084
 51
290.2561580003915
  0
LINE
  5
4E86
330
4BF2
100
AcDbEntity
  8
0
100
AcDbLine
 10
111.5
 20
-82.49999999999737
 30
0.0
 11
128.5
 21
-82.49999999999737
 31
0.0
  0
ARC
  5
4E87
330
4BF2
100
AcDbEntity
  8
0
100
AcDbCircle
 10
115.75
 20
-70.22449336159581
 30
0.0
 40
12.27550663840318
100
AcDbArc
 50
249.7438419996084
 51
290.2561580003915
  0
LINE
  5
4E88
330
4BF2
100
AcDbEntity
  8
0
100
AcDbLine
 10
128.5000000000072
 20
-74.49999999999739
 30
0.0
 11
128.5000000000072
 21
-82.49999999999737
 31
0.0
  0
LINE
  5
4E89
330
4BF2
100
AcDbEntity
  8
0
100
AcDbLine
 10
120.0000000000073
 20
-75.25918937855124
 30
0.0
 11
120.0000000000145
 21
-81.74081062145083
 31
0.0
  0
LINE
  5
4E8A
330
4BF2
100
AcDbEntity
  8
0
100
AcDbLine
 10
112.0000000000072
 20
-82.49999999999737
 30
0.0
 11
128.0000000000073
 21
-82.49999999999737
 31
0.0
  0
LINE
  5
4E8B
330
4BF2
100
AcDbEntity
  8
0
100
AcDbLine
 10
109.0
 20
-82.49999999999737
 30
0.0
 11
131.0
 21
-82.49999999999737
 31
0.0
  0
ARC
  5
4E8C
330
4BF2
100
AcDbEntity
  8
0
100
AcDbCircle
 10
108.0
 20
-101.4999999999974
 30
0.0
 40
2.0
100
AcDbArc
 50
180.0
 51
270.0
  0
LINE
  5
4E8D
330
4BF2
100
AcDbEntity
  8
0
100
AcDbLine
 10
109.0
 20
-82.49999999999737
 30
0.0
 11
106.0
 21
-86.49999999999739
 31
0.0
  0
LINE
  5
4E8E
330
4BF2
100
AcDbEntity
  8
0
100
AcDbLine
 10
91.9886435277
 20
-86.49999999999739
 30
0.0
 11
83.41061584570002
 21
-90.49999999999739
 31
0.0
  0
LINE
  5
4E8F
330
4BF2
100
AcDbEntity
  8
0
100
AcDbLine
 10
106.0
 20
-98.49999999999738
 30
0.0
 11
106.0
 21
-101.4999999999974
 31
0.0
  0
LINE
  5
4E90
330
4BF2
100
AcDbEntity
  8
0
100
AcDbLine
 10
106.0
 20
-101.4999999999974
 30
0.0
 11
134.0
 21
-101.4999999999974
 31
0.0
  0
ARC
  5
4E91
330
4BF2
100
AcDbEntity
  8
0
100
AcDbCircle
 10
132.0
 20
-101.4999999999974
 30
0.0
 40
2.0
100
AcDbArc
 50
270.0
 51
0.0
  0
LINE
  5
4E92
330
4BF2
100
AcDbEntity
  8
0
100
AcDbLine
 10
134.0
 20
-86.49999999999739
 30
0.0
 11
131.0
 21
-82.49999999999737
 31
0.0
  0
LINE
  5
4E93
330
4BF2
100
AcDbEntity
  8
0
100
AcDbLine
 10
156.5893841542999
 20
-90.49999999999739
 30
0.0
 11
148.0113564723
 21
-86.49999999999739
 31
0.0
  0
LINE
  5
4E94
330
4BF2
100
AcDbEntity
  8
0
100
AcDbLine
 10
83.41061584570002
 20
-90.49999999999739
 30
0.0
 11
82.0
 21
-98.49999999999738
 31
0.0
  0
LINE
  5
4E95
330
4BF2
100
AcDbEntity
  8
0
100
AcDbLine
 10
158.0
 20
-98.49999999999738
 30
0.0
 11
156.5893841542999
 21
-90.49999999999739
 31
0.0
  0
LINE
  5
4E96
330
4BF2
100
AcDbEntity
  8
0
100
AcDbLine
 10
134.0
 20
-101.4999999999974
 30
0.0
 11
134.0
 21
-98.49999999999738
 31
0.0
  0
LINE
  5
4E97
330
4BF2
100
AcDbEntity
  8
0
100
AcDbLine
 10
83.41061584570002
 20
-90.49999999999739
 30
0.0
 11
83.72425994319995
 21
-90.49999999999739
 31
0.0
  0
LINE
  5
4E98
330
4BF2
100
AcDbEntity
  8
0
100
AcDbLine
 10
156.5893841542999
 20
-90.49999999999739
 30
0.0
 11
156.2757400568
 21
-90.49999999999739
 31
0.0
  0
LINE
  5
4E99
330
4BF2
100
AcDbEntity
  8
0
100
AcDbLine
 10
89.566380127
 20
-98.49999999999738
 30
0.0
 11
82.38989230359994
 21
-98.49999999999738
 31
0.0
  0
LINE
  5
4E9A
330
4BF2
100
AcDbEntity
  8
0
100
AcDbLine
 10
157.6101076963999
 20
-98.49999999999738
 30
0.0
 11
158.0
 21
-98.49999999999738
 31
0.0
  0
LINE
  5
4E9B
330
4BF2
100
AcDbEntity
  8
0
100
AcDbLine
 10
142.7551045136
 20
-98.49999999999738
 30
0.0
 11
150.433619873
 21
-98.49999999999738
 31
0.0
  0
ARC
  5
4E9C
330
4BF2
100
AcDbEntity
  8
0
100
AcDbCircle
 10
106.4744928824
 20
-114.7494684422973
 30
0.0
 40
25.7781087156
100
AcDbArc
 50
70.16945679559973
 51
109.8305432044002
  0
SPLINE
  5
4E9D
330
4BF2
100
AcDbEntity
  8
0
100
AcDbSpline
210
0.0
220
0.0
230
1.0
 70
     8
 71
     3
 72
    14
 73
    10
 74
     0
 42
0.0000000001
 43
0.0000000001
 40
0.0
 40
0.0
 40
0.0
 40
0.0
 40
0.25
 40
0.25
 40
0.5
 40
0.5
 40
0.75
 40
0.75
 40
1.0
 40
1.0
 40
1.0
 40
1.0
 10
90.96881461427257
 20
-90.49999999994779
 30
0.0
 10
91.00964326523271
 20
-90.03181383075094
 30
0.0
 10
90.89236418605088
 20
-89.65109031610154
 30
0.0
 10
90.31333475118868
 20
-89.12002653779337
 30
0.0
 10
89.84347965662037
 20
-88.97581844341187
 30
0.0
 10
88.58899051089878
 20
-88.97567985391559
 30
0.0
 10
87.7863084380942
 20
-89.11927895489247
 30
0.0
 10
85.92896950575095
 20
-89.65071757801366
 30
0.0
 10
84.88205165844357
 20
-90.03176104552983
 30
0.0
 10
83.72425994316733
 20
-90.49999999994779
 30
0.0
  0
LINE
  5
4E9E
330
4BF2
100
AcDbEntity
  8
0
100
AcDbLine
 10
157.6101076963999
 20
-98.49999999999738
 30
0.0
 11
150.433619873
 21
-98.49999999999738
 31
0.0
  0
SPLINE
  5
4E9F
330
4BF2
100
AcDbEntity
  8
0
100
AcDbSpline
210
0.0
220
0.0
230
1.0
 70
     8
 71
     3
 72
    14
 73
    10
 74
     0
 42
0.0000000001
 43
0.0000000001
 40
0.0
 40
0.0
 40
0.0
 40
0.0
 40
0.2500000000000001
 40
0.2500000000000001
 40
0.5000000000000001
 40
0.5000000000000001
 40
0.75
 40
0.75
 40
1.0
 40
1.0
 40
1.0
 40
1.0
 10
156.2757400568271
 20
-90.49999999994779
 30
0.0
 10
155.1180788610024
 20
-90.03181383075094
 30
0.0
 10
154.0719296456379
 20
-89.65109031610154
 30
0.0
 10
152.2167069993254
 20
-89.12002653779337
 30
0.0
 10
151.4121154656625
 20
-88.97581844341187
 30
0.0
 10
150.1573012665448
 20
-88.97567985391559
 30
0.0
 10
149.6879051386572
 20
-89.11927895489247
 30
0.0
 10
149.1076183266667
 20
-89.65071757801366
 30
0.0
 10
148.9903521315727
 20
-90.03176104552983
 30
0.0
 10
149.0311853857216
 20
-90.49999999994779
 30
0.0
  0
ARC
  5
4EA0
330
4BF2
100
AcDbEntity
  8
0
100
AcDbCircle
 10
133.5255071176
 20
-114.7488843594973
 30
0.0
 40
25.7775592697
100
AcDbArc
 50
70.1690163812024
 51
109.8309836187975
  0
ARC
  5
4EA1
330
4BF2
100
AcDbEntity
  8
0
100
AcDbCircle
 10
-2949.036512233901
 20
-281.7885007810971
 30
0.0
 40
3097.2197332299
100
AcDbArc
 50
3.392654614601466
 51
3.540918781501373
  0
LINE
  5
4EA2
330
4BF2
100
AcDbEntity
  8
0
100
AcDbLine
 10
142.7551045136
 20
-98.49999999999738
 30
0.0
 11
125.4295302800999
 21
-98.49999999999738
 31
0.0
  0
ARC
  5
4EA3
330
4BF2
100
AcDbEntity
  8
0
100
AcDbCircle
 10
-7574.6376387137
 20
1249.190930617303
 30
0.0
 40
7781.792472617199
100
AcDbArc
 50
350.0269374223015
 51
350.086738056502
  0
LINE
  5
4EA4
330
4BF2
100
AcDbEntity
  8
0
100
AcDbLine
 10
82.38989230359994
 20
-98.49999999999738
 30
0.0
 11
83.72425994319995
 21
-90.49999999999739
 31
0.0
  0
ARC
  5
4EA5
330
4BF2
100
AcDbEntity
  8
0
100
AcDbCircle
 10
-7486.313797475202
 20
-1369.364303771697
 30
0.0
 40
7748.8495111633
100
AcDbArc
 50
9.43954451669864
 51
9.499514528300291
  0
LINE
  5
4EA6
330
4BF2
100
AcDbEntity
  8
0
100
AcDbLine
 10
97.24489548639995
 20
-98.49999999999738
 30
0.0
 11
97.72954181219995
 21
-90.49999999999739
 31
0.0
  0
LINE
  5
4EA7
330
4BF2
100
AcDbEntity
  8
0
100
AcDbLine
 10
150.433619873
 20
-98.49999999999738
 30
0.0
 11
149.0311853856999
 21
-90.49999999999739
 31
0.0
  0
LINE
  5
4EA8
330
4BF2
100
AcDbEntity
  8
0
100
AcDbLine
 10
149.0311853856999
 20
-90.49999999999739
 30
0.0
 11
142.2704581877999
 21
-90.49999999999739
 31
0.0
  0
LINE
  5
4EA9
330
4BF2
100
AcDbEntity
  8
0
100
AcDbLine
 10
124.7805560473999
 20
-90.49999999999739
 30
0.0
 11
115.2194439526
 21
-90.49999999999739
 31
0.0
  0
LINE
  5
4EAA
330
4BF2
100
AcDbEntity
  8
0
100
AcDbLine
 10
97.72954181219995
 20
-90.49999999999739
 30
0.0
 11
90.96881461429994
 21
-90.49999999999739
 31
0.0
  0
ARC
  5
4EAB
330
4BF2
100
AcDbEntity
  8
0
100
AcDbCircle
 10
-2985.621210813301
 20
157.0193875966029
 30
0.0
 40
3110.7038774987
100
AcDbArc
 50
355.2883022971971
 51
355.4361376759024
  0
LINE
  5
4EAC
330
4BF2
100
AcDbEntity
  8
0
100
AcDbLine
 10
114.5704697198999
 20
-98.49999999999738
 30
0.0
 11
125.4295302800999
 21
-98.49999999999738
 31
0.0
  0
LINE
  5
4EAD
330
4BF2
100
AcDbEntity
  8
0
100
AcDbLine
 10
114.5704697198999
 20
-98.49999999999738
 30
0.0
 11
97.24489548639995
 21
-98.49999999999738
 31
0.0
  0
LINE
  5
4EAE
330
4BF2
100
AcDbEntity
  8
0
100
AcDbLine
 10
89.566380127
 20
-98.49999999999738
 30
0.0
 11
97.24489548639995
 21
-98.49999999999738
 31
0.0
  0
LINE
  5
4EAF
330
4BF2
100
AcDbEntity
  8
0
100
AcDbLine
 10
82.0
 20
-98.49999999999738
 30
0.0
 11
82.38989230359994
 21
-98.49999999999738
 31
0.0
  0
LINE
  5
4EB0
330
4BF2
100
AcDbEntity
  8
0
100
AcDbLine
 10
91.9886435277
 20
-86.49999999999739
 30
0.0
 11
148.0113564723
 21
-86.49999999999739
 31
0.0
  0
LINE
  5
4EB1
330
4BF2
100
AcDbEntity
  8
0
100
AcDbLine
 10
108.0
 20
-103.4999999999974
 30
0.0
 11
132.0
 21
-103.4999999999974
 31
0.0
  0
LINE
  5
4EB2
330
4BF2
100
AcDbEntity
  8
0
100
AcDbLine
 10
125.4295302800999
 20
-98.49999999999738
 30
0.0
 11
124.7805560473999
 21
-90.49999999999739
 31
0.0
  0
LINE
  5
4EB3
330
4BF2
100
AcDbEntity
  8
0
100
AcDbLine
 10
111.0000000000037
 20
-74.49999999999725
 30
0.0
 11
129.0000000000036
 21
-74.49999999999725
 31
0.0
  0
LINE
  5
4EB4
330
4BF2
100
AcDbEntity
  8
0
100
AcDbLine
 10
111.0000000000037
 20
-72.49999999999726
 30
0.0
 11
111.0000000000037
 21
-74.49999999999725
 31
0.0
  0
LINE
  5
4EB5
330
4BF2
100
AcDbEntity
  8
0
100
AcDbLine
 10
129.0000000000036
 20
-72.49999999999726
 30
0.0
 11
129.0000000000036
 21
-74.49999999999725
 31
0.0
  0
LINE
  5
4EB6
330
4BF2
100
AcDbEntity
  8
0
100
AcDbLine
 10
111.0000000000037
 20
-72.50000000000274
 30
0.0
 11
129.0000000000036
 21
-72.49999999999726
 31
0.0
  0
LINE
  5
4EB7
330
4BF2
100
AcDbEntity
  8
0
 48
0.25
100
AcDbLine
 10
-106.3999999999942
 20
347.4194498582709
 30
0.0
 11
-104.9999999999945
 21
348.2277402351363
 31
0.0
  0
ARC
  5
4EB8
330
4BF2
100
AcDbEntity
  8
0
 48
0.25
100
AcDbCircle
 10
-105.9999999999945
 20
349.9597910427045
 30
0.0
 40
2.0
100
AcDbArc
 50
300.0000000000005
 51
0.0
  0
ENDBLK
  5
4EB9
330
4BF2
100
AcDbEntity
  8
0
100
AcDbBlockEnd
  0
BLOCK
  5
4EEA
330
4EE9
100
AcDbEntity
  8
0
100
AcDbBlockBegin
  2
*D2
 70
     1
 10
0.0
 20
0.0
 30
0.0
  3
*D2
  1

  0
LINE
  5
50AC
330
4EE9
100
AcDbEntity
  8
MEASURE
 62
     9
370
    -2
100
AcDbLine
 10
326.7185340079032
 20
489.3998309107119
 30
0.0
 11
326.7185340079032
 21
407.0549891765969
 31
0.0
  0
LINE
  5
50AD
330
4EE9
100
AcDbEntity
  8
MEASURE
 62
     9
370
    -2
100
AcDbLine
 10
566.7185340079031
 20
489.3998309107119
 30
0.0
 11
566.7185340079031
 21
407.0549891765969
 31
0.0
  0
LINE
  5
50AE
330
4EE9
100
AcDbEntity
  8
MEASURE
 62
     9
370
    -2
100
AcDbLine
 10
339.2185340079032
 20
417.0549891765968
 30
0.0
 11
554.2185340079031
 21
417.0549891765968
 31
0.0
  0
SOLID
  5
50AF
330
4EE9
100
AcDbEntity
  8
MEASURE
 62
     9
100
AcDbTrace
 10
339.2185340079032
 20
419.1383225099301
 30
0.0
 11
339.2185340079032
 21
414.9716558432634
 31
0.0
 12
326.7185340079032
 22
417.0549891765968
 32
0.0
 13
326.7185340079032
 23
417.0549891765968
 33
0.0
  0
SOLID
  5
50B0
330
4EE9
100
AcDbEntity
  8
MEASURE
 62
     9
100
AcDbTrace
 10
554.2185340079031
 20
419.1383225099301
 30
0.0
 11
554.2185340079031
 21
414.9716558432634
 31
0.0
 12
566.7185340079031
 22
417.0549891765968
 32
0.0
 13
566.7185340079031
 23
417.0549891765968
 33
0.0
  0
MTEXT
  5
50B1
330
4EE9
100
AcDbEntity
  8
MEASURE
 62
     2
100
AcDbMText
 10
446.7185340079031
 20
426.5549891765969
 30
0.0
 40
14.0
 41
0.0
 71
     5
 72
     1
  1
\A1;240
  7
AD-STANDARD
 73
     1
 44
1.0
1001
ACAD
1000
MTEXTBEGIN
1070
    73
1070
     1
1070
    44
1040
1.0
1070
    74
1070
     0
1000
MTEXTEND
  0
POINT
  5
50B2
330
4EE9
100
AcDbEntity
  8
DEFPOINTS
 62
     0
100
AcDbPoint
 10
326.7185340079032
 20
494.399830910712
 30
0.0
  0
POINT
  5
50B3
330
4EE9
100
AcDbEntity
  8
DEFPOINTS
 62
     0
100
AcDbPoint
 10
566.7185340079031
 20
494.399830910712
 30
0.0
  0
POINT
  5
50B4
330
4EE9
100
AcDbEntity
  8
DEFPOINTS
 62
     0
100
AcDbPoint
 10
566.7185340079031
 20
417.0549891765968
 30
0.0
  0
ENDBLK
  5
4EEB
330
4EE9
100
AcDbEntity
  8
0
100
AcDbBlockEnd
  0
BLOCK
  5
4EF6
330
4EF5
100
AcDbEntity
  8
0
100
AcDbBlockBegin
  2
*D3
 70
     1
 10
0.0
 20
0.0
 30
0.0
  3
*D3
  1

  0
LINE
  5
50B5
330
4EF5
100
AcDbEntity
  8
MEASURE
 62
     9
370
    -2
100
AcDbLine
 10
281.7185340079031
 20
590.1497536877396
 30
0.0
 11
281.7185340079031
 21
693.9558723774901
 31
0.0
  0
LINE
  5
50B6
330
4EF5
100
AcDbEntity
  8
MEASURE
 62
     9
370
    -2
100
AcDbLine
 10
611.7185340079031
 20
590.1497536877396
 30
0.0
 11
611.7185340079031
 21
693.9558723774901
 31
0.0
  0
LINE
  5
50B7
330
4EF5
100
AcDbEntity
  8
MEASURE
 62
     9
370
    -2
100
AcDbLine
 10
294.2185340079031
 20
683.9558723774898
 30
0.0
 11
599.2185340079031
 21
683.9558723774898
 31
0.0
  0
SOLID
  5
50B8
330
4EF5
100
AcDbEntity
  8
MEASURE
 62
     9
100
AcDbTrace
 10
294.2185340079031
 20
686.0392057108232
 30
0.0
 11
294.2185340079031
 21
681.8725390441565
 31
0.0
 12
281.7185340079031
 22
683.9558723774898
 32
0.0
 13
281.7185340079031
 23
683.9558723774898
 33
0.0
  0
SOLID
  5
50B9
330
4EF5
100
AcDbEntity
  8
MEASURE
 62
     9
100
AcDbTrace
 10
599.2185340079031
 20
686.0392057108232
 30
0.0
 11
599.2185340079031
 21
681.8725390441565
 31
0.0
 12
611.7185340079031
 22
683.9558723774898
 32
0.0
 13
611.7185340079031
 23
683.9558723774898
 33
0.0
  0
MTEXT
  5
50BA
330
4EF5
100
AcDbEntity
  8
MEASURE
 62
     2
100
AcDbMText
 10
446.7185340079031
 20
693.4558723774899
 30
0.0
 40
14.0
 41
0.0
 71
     5
 72
     1
  1
\A1;330
  7
AD-STANDARD
 73
     1
 44
1.0
1001
ACAD
1000
MTEXTBEGIN
1070
    73
1070
     1
1070
    44
1040
1.0
1070
    74
1070
     0
1000
MTEXTEND
  0
POINT
  5
50BB
330
4EF5
100
AcDbEntity
  8
DEFPOINTS
 62
     0
100
AcDbPoint
 10
281.7185340079031
 20
585.1497536877396
 30
0.0
  0
POINT
  5
50BC
330
4EF5
100
AcDbEntity
  8
DEFPOINTS
 62
     0
100
AcDbPoint
 10
611.7185340079031
 20
585.1497536877396
 30
0.0
  0
POINT
  5
50BD
330
4EF5
100
AcDbEntity
  8
DEFPOINTS
 62
     0
100
AcDbPoint
 10
611.7185340079031
 20
683.9558723774898
 30
0.0
  0
ENDBLK
  5
4EF7
330
4EF5
100
AcDbEntity
  8
0
100
AcDbBlockEnd
  0
BLOCK
  5
4F02
330
4F01
100
AcDbEntity
  8
0
100
AcDbBlockBegin
  2
*D4
 70
     1
 10
0.0
 20
0.0
 30
0.0
  3
*D4
  1

  0
LINE
  5
50BE
330
4F01
100
AcDbEntity
  8
MEASURE
 62
     9
 48
0.25
370
    -2
100
AcDbLine
 10
550.4185340079029
 20
1055.750259437
 30
0.0
 11
615.5244866955419
 21
1055.750259437
 31
0.0
  0
LINE
  5
50BF
330
4F01
100
AcDbEntity
  8
MEASURE
 62
     9
 48
0.25
370
    -2
100
AcDbLine
 10
550.4185340079029
 20
849.7502594370017
 30
0.0
 11
615.5244866955419
 21
849.7502594370017
 31
0.0
  0
LINE
  5
50C0
330
4F01
100
AcDbEntity
  8
MEASURE
 62
     9
 48
0.25
370
    -2
100
AcDbLine
 10
605.5244866955419
 20
1043.250259437
 30
0.0
 11
605.5244866955419
 21
862.2502594370017
 31
0.0
  0
SOLID
  5
50C1
330
4F01
100
AcDbEntity
  8
MEASURE
 62
     9
 48
0.25
100
AcDbTrace
 10
603.4411533622085
 20
1043.250259437
 30
0.0
 11
607.6078200288752
 21
1043.250259437
 31
0.0
 12
605.5244866955419
 22
1055.750259437
 32
0.0
 13
605.5244866955419
 23
1055.750259437
 33
0.0
  0
SOLID
  5
50C2
330
4F01
100
AcDbEntity
  8
MEASURE
 62
     9
 48
0.25
100
AcDbTrace
 10
603.4411533622085
 20
862.2502594370017
 30
0.0
 11
607.6078200288752
 21
862.2502594370017
 31
0.0
 12
605.5244866955419
 22
849.7502594370017
 32
0.0
 13
605.5244866955419
 23
849.7502594370017
 33
0.0
  0
MTEXT
  5
50C3
330
4F01
100
AcDbEntity
  8
MEASURE
 62
     2
 48
0.25
100
AcDbMText
 10
596.0244866955417
 20
952.356999822734
 30
0.0
 40
14.0
 41
0.0
 71
     5
 72
     1
  1
\A1;206
  7
AD-STANDARD
 11
0.0000000000000001
 21
1.0
 31
0.0
 73
     1
 44
1.0
1001
ACAD
1000
MTEXTBEGIN
1070
    73
1070
     1
1070
    44
1040
1.0
1070
    74
1070
     0
1000
MTEXTEND
  0
POINT
  5
50C4
330
4F01
100
AcDbEntity
  8
DEFPOINTS
 62
     0
 48
0.25
100
AcDbPoint
 10
545.4185340079029
 20
1055.750259437
 30
0.0
  0
POINT
  5
50C5
330
4F01
100
AcDbEntity
  8
DEFPOINTS
 62
     0
 48
0.25
100
AcDbPoint
 10
545.4185340079029
 20
849.7502594370017
 30
0.0
  0
POINT
  5
50C6
330
4F01
100
AcDbEntity
  8
DEFPOINTS
 62
     0
 48
0.25
100
AcDbPoint
 10
605.5244866955419
 20
849.7502594370017
 30
0.0
  0
ENDBLK
  5
4F03
330
4F01
100
AcDbEntity
  8
0
100
AcDbBlockEnd
  0
BLOCK
  5
4F0E
330
4F0D
100
AcDbEntity
  8
0
100
AcDbBlockBegin
  2
*D5
 70
     1
 10
0.0
 20
0.0
 30
0.0
  3
*D5
  1

  0
LINE
  5
50C7
330
4F0D
100
AcDbEntity
  8
MEASURE
 62
     9
 48
0.25
370
    -2
100
AcDbLine
 10
546.2185340079031
 20
1059.950259437
 30
0.0
 11
546.2185340079031
 21
1112.036585004065
 31
0.0
  0
LINE
  5
50C8
330
4F0D
100
AcDbEntity
  8
MEASURE
 62
     9
 48
0.25
370
    -2
100
AcDbLine
 10
347.218534007915
 20
1059.950259436999
 30
0.0
 11
347.218534007915
 21
1112.036585004065
 31
0.0
  0
LINE
  5
50C9
330
4F0D
100
AcDbEntity
  8
MEASURE
 62
     9
 48
0.25
370
    -2
100
AcDbLine
 10
533.7185340079031
 20
1102.036585004065
 30
0.0
 11
359.718534007915
 21
1102.036585004065
 31
0.0
  0
SOLID
  5
50CA
330
4F0D
100
AcDbEntity
  8
MEASURE
 62
     9
 48
0.25
100
AcDbTrace
 10
533.7185340079031
 20
1104.119918337398
 30
0.0
 11
533.7185340079031
 21
1099.953251670732
 31
0.0
 12
546.2185340079031
 22
1102.036585004065
 32
0.0
 13
546.2185340079031
 23
1102.036585004065
 33
0.0
  0
SOLID
  5
50CB
330
4F0D
100
AcDbEntity
  8
MEASURE
 62
     9
 48
0.25
100
AcDbTrace
 10
359.718534007915
 20
1104.119918337398
 30
0.0
 11
359.718534007915
 21
1099.953251670732
 31
0.0
 12
347.218534007915
 22
1102.036585004065
 32
0.0
 13
347.218534007915
 23
1102.036585004065
 33
0.0
  0
MTEXT
  5
50CC
330
4F0D
100
AcDbEntity
  8
MEASURE
 62
     2
 48
0.25
100
AcDbMText
 10
449.7041163201161
 20
1111.536585004065
 30
0.0
 40
14.0
 41
0.0
 71
     5
 72
     1
  1
\A1;199
  7
AD-STANDARD
 73
     1
 44
1.0
1001
ACAD
1000
MTEXTBEGIN
1070
    73
1070
     1
1070
    44
1040
1.0
1070
    74
1070
     0
1000
MTEXTEND
  0
POINT
  5
50CD
330
4F0D
100
AcDbEntity
  8
DEFPOINTS
 62
     0
 48
0.25
100
AcDbPoint
 10
546.2185340079031
 20
1054.950259437
 30
0.0
  0
POINT
  5
50CE
330
4F0D
100
AcDbEntity
  8
DEFPOINTS
 62
     0
 48
0.25
100
AcDbPoint
 10
347.218534007915
 20
1054.950259436999
 30
0.0
  0
POINT
  5
50CF
330
4F0D
100
AcDbEntity
  8
DEFPOINTS
 62
     0
 48
0.25
100
AcDbPoint
 10
347.218534007915
 20
1102.036585004065
 30
0.0
  0
ENDBLK
  5
4F0F
330
4F0D
100
AcDbEntity
  8
0
100
AcDbBlockEnd
  0
BLOCK
  5
4F1A
330
4F19
100
AcDbEntity
  8
0
100
AcDbBlockBegin
  2
*D6
 70
     1
 10
0.0
 20
0.0
 30
0.0
  3
*D6
  1

  0
LINE
  5
50D0
330
4F19
100
AcDbEntity
  8
MEASURE
 62
     9
370
    -2
100
AcDbLine
 10
1303.532859918766
 20
493.1497536877421
 30
0.0
 11
1686.198654978781
 21
493.1497536877421
 31
0.0
  0
LINE
  5
50D1
330
4F19
100
AcDbEntity
  8
MEASURE
 62
     9
370
    -2
100
AcDbLine
 10
1488.732892657134
 20
1055.750259437
 30
0.0
 11
1686.198654978781
 21
1055.750259437
 31
0.0
  0
LINE
  5
50D2
330
4F19
100
AcDbEntity
  8
MEASURE
 62
     9
370
    -2
100
AcDbLine
 10
1676.198654978781
 20
505.6497536877421
 30
0.0
 11
1676.198654978781
 21
1043.250259437
 31
0.0
  0
SOLID
  5
50D3
330
4F19
100
AcDbEntity
  8
MEASURE
 62
     9
100
AcDbTrace
 10
1674.115321645448
 20
505.6497536877421
 30
0.0
 11
1678.281988312114
 21
505.6497536877421
 31
0.0
 12
1676.198654978781
 22
493.1497536877421
 32
0.0
 13
1676.198654978781
 23
493.1497536877421
 33
0.0
  0
SOLID
  5
50D4
330
4F19
100
AcDbEntity
  8
MEASURE
 62
     9
100
AcDbTrace
 10
1674.115321645448
 20
1043.250259437
 30
0.0
 11
1678.281988312114
 21
1043.250259437
 31
0.0
 12
1676.198654978781
 22
1055.750259437
 32
0.0
 13
1676.198654978781
 23
1055.750259437
 33
0.0
  0
MTEXT
  5
50D5
330
4F19
100
AcDbEntity
  8
MEASURE
 62
     2
100
AcDbMText
 10
1666.698654978781
 20
774.4500065623712
 30
0.0
 40
14.0
 41
0.0
 71
     5
 72
     1
  1
\A1;（752）
  7
AD-STANDARD
 11
0.0000000000000001
 21
1.0
 31
0.0
 73
     1
 44
1.0
1001
ACAD
1000
MTEXTBEGIN
1070
    73
1070
     1
1070
    44
1040
1.0
1070
    74
1070
     0
1000
MTEXTEND
  0
POINT
  5
50D6
330
4F19
100
AcDbEntity
  8
DEFPOINTS
 62
     0
100
AcDbPoint
 10
1298.532859918766
 20
493.1497536877421
 30
0.0
  0
POINT
  5
50D7
330
4F19
100
AcDbEntity
  8
DEFPOINTS
 62
     0
100
AcDbPoint
 10
1483.732892657134
 20
1055.750259437
 30
0.0
  0
POINT
  5
50D8
330
4F19
100
AcDbEntity
  8
DEFPOINTS
 62
     0
100
AcDbPoint
 10
1676.198654978781
 20
1055.750259437
 30
0.0
  0
ENDBLK
  5
4F1B
330
4F19
100
AcDbEntity
  8
0
100
AcDbBlockEnd
  0
BLOCK
  5
4F26
330
4F25
100
AcDbEntity
  8
0
100
AcDbBlockBegin
  2
*D7
 70
     1
 10
0.0
 20
0.0
 30
0.0
  3
*D7
  1

  0
LINE
  5
50D9
330
4F25
100
AcDbEntity
  8
MEASURE
 62
     9
370
    -2
100
AcDbLine
 10
902.5328599187593
 20
541.6497536877398
 30
0.0
 11
803.4845410117736
 21
541.6497536877398
 31
0.0
  0
LINE
  5
50DA
330
4F25
100
AcDbEntity
  8
MEASURE
 62
     9
370
    -2
100
AcDbLine
 10
914.0328599187521
 20
596.6497536877397
 30
0.0
 11
803.4845410117736
 21
596.6497536877397
 31
0.0
  0
LINE
  5
50DB
330
4F25
100
AcDbEntity
  8
MEASURE
 62
     9
370
    -2
100
AcDbLine
 10
813.4845410117737
 20
554.1497536877398
 30
0.0
 11
813.4845410117737
 21
584.1497536877397
 31
0.0
  0
SOLID
  5
50DC
330
4F25
100
AcDbEntity
  8
MEASURE
 62
     9
100
AcDbTrace
 10
811.4012076784403
 20
554.1497536877398
 30
0.0
 11
815.5678743451071
 21
554.1497536877398
 31
0.0
 12
813.4845410117737
 22
541.6497536877398
 32
0.0
 13
813.4845410117737
 23
541.6497536877398
 33
0.0
  0
SOLID
  5
50DD
330
4F25
100
AcDbEntity
  8
MEASURE
 62
     9
100
AcDbTrace
 10
811.4012076784403
 20
584.1497536877397
 30
0.0
 11
815.5678743451071
 21
584.1497536877397
 31
0.0
 12
813.4845410117737
 22
596.6497536877397
 32
0.0
 13
813.4845410117737
 23
596.6497536877397
 33
0.0
  0
MTEXT
  5
50DE
330
4F25
100
AcDbEntity
  8
MEASURE
 62
     2
100
AcDbMText
 10
803.9845410117735
 20
569.14975368774
 30
0.0
 40
14.0
 41
0.0
 71
     5
 72
     1
  1
\A1;55
  7
AD-STANDARD
 11
0.0000000000000001
 21
1.0
 31
0.0
 73
     1
 44
1.0
1001
ACAD
1000
MTEXTBEGIN
1070
    73
1070
     1
1070
    44
1040
1.0
1070
    74
1070
     0
1000
MTEXTEND
  0
POINT
  5
50DF
330
4F25
100
AcDbEntity
  8
DEFPOINTS
 62
     0
100
AcDbPoint
 10
907.5328599187592
 20
541.6497536877398
 30
0.0
  0
POINT
  5
50E0
330
4F25
100
AcDbEntity
  8
DEFPOINTS
 62
     0
100
AcDbPoint
 10
919.032859918752
 20
596.6497536877397
 30
0.0
  0
POINT
  5
50E1
330
4F25
100
AcDbEntity
  8
DEFPOINTS
 62
     0
100
AcDbPoint
 10
813.4845410117737
 20
596.6497536877397
 30
0.0
  0
ENDBLK
  5
4F27
330
4F25
100
AcDbEntity
  8
0
100
AcDbBlockEnd
  0
BLOCK
  5
4F32
330
4F31
100
AcDbEntity
  8
0
100
AcDbBlockBegin
  2
*D8
 70
     1
 10
0.0
 20
0.0
 30
0.0
  3
*D8
  1

  0
LINE
  5
50E2
330
4F31
100
AcDbEntity
  8
MEASURE
 62
     9
370
    -2
100
AcDbLine
 10
907.5328599187592
 20
536.6497536877398
 30
0.0
 11
907.5328599187592
 21
364.9305524386202
 31
0.0
  0
LINE
  5
50E3
330
4F31
100
AcDbEntity
  8
MEASURE
 62
     9
370
    -2
100
AcDbLine
 10
1562.53286558039
 20
947.750259437001
 30
0.0
 11
1562.53286558039
 21
364.9305524386202
 31
0.0
  0
LINE
  5
50E4
330
4F31
100
AcDbEntity
  8
MEASURE
 62
     9
370
    -2
100
AcDbLine
 10
920.0328599187592
 20
374.9305524386202
 30
0.0
 11
1550.03286558039
 21
374.9305524386202
 31
0.0
  0
SOLID
  5
50E5
330
4F31
100
AcDbEntity
  8
MEASURE
 62
     9
100
AcDbTrace
 10
920.0328599187592
 20
377.0138857719536
 30
0.0
 11
920.0328599187592
 21
372.8472191052869
 31
0.0
 12
907.5328599187592
 22
374.9305524386202
 32
0.0
 13
907.5328599187592
 23
374.9305524386202
 33
0.0
  0
SOLID
  5
50E6
330
4F31
100
AcDbEntity
  8
MEASURE
 62
     9
100
AcDbTrace
 10
1550.03286558039
 20
377.0138857719536
 30
0.0
 11
1550.03286558039
 21
372.8472191052869
 31
0.0
 12
1562.53286558039
 22
374.9305524386202
 32
0.0
 13
1562.53286558039
 23
374.9305524386202
 33
0.0
  0
MTEXT
  5
50E7
330
4F31
100
AcDbEntity
  8
MEASURE
 62
     2
100
AcDbMText
 10
1235.032862749575
 20
384.4305524386202
 30
0.0
 40
14.0
 41
0.0
 71
     5
 72
     1
  1
\A1;（655）
  7
AD-STANDARD
 73
     1
 44
1.0
1001
ACAD
1000
MTEXTBEGIN
1070
    73
1070
     1
1070
    44
1040
1.0
1070
    74
1070
     0
1000
MTEXTEND
  0
POINT
  5
50E8
330
4F31
100
AcDbEntity
  8
DEFPOINTS
 62
     0
100
AcDbPoint
 10
907.5328599187592
 20
541.6497536877398
 30
0.0
  0
POINT
  5
50E9
330
4F31
100
AcDbEntity
  8
DEFPOINTS
 62
     0
100
AcDbPoint
 10
1562.53286558039
 20
952.7502594370007
 30
0.0
  0
POINT
  5
50EA
330
4F31
100
AcDbEntity
  8
DEFPOINTS
 62
     0
100
AcDbPoint
 10
1562.53286558039
 20
374.9305524386202
 30
0.0
  0
ENDBLK
  5
4F33
330
4F31
100
AcDbEntity
  8
0
100
AcDbBlockEnd
  0
BLOCK
  5
4F3E
330
4F3D
100
AcDbEntity
  8
0
100
AcDbBlockBegin
  2
*D9
 70
     1
 10
0.0
 20
0.0
 30
0.0
  3
*D9
  1

  0
LINE
  5
51E9
330
4F3D
100
AcDbEntity
  8
MEASURE
 62
     9
370
    -2
100
AcDbLine
 10
935.5328599187593
 20
493.1497536877421
 30
0.0
 11
749.4716715786376
 21
493.1497536877421
 31
0.0
  0
LINE
  5
51EA
330
4F3D
100
AcDbEntity
  8
MEASURE
 62
     9
370
    -2
100
AcDbLine
 10
914.0328599187521
 20
596.6497536877397
 30
0.0
 11
749.4716715786376
 21
596.6497536877398
 31
0.0
  0
LINE
  5
51EB
330
4F3D
100
AcDbEntity
  8
MEASURE
 62
     9
370
    -2
100
AcDbLine
 10
759.4716715786375
 20
505.6497536877421
 30
0.0
 11
759.4716715786375
 21
584.1497536877398
 31
0.0
  0
SOLID
  5
51EC
330
4F3D
100
AcDbEntity
  8
MEASURE
 62
     9
100
AcDbTrace
 10
757.3883382453042
 20
505.6497536877421
 30
0.0
 11
761.5550049119709
 21
505.6497536877421
 31
0.0
 12
759.4716715786375
 22
493.1497536877421
 32
0.0
 13
759.4716715786375
 23
493.1497536877421
 33
0.0
  0
SOLID
  5
51ED
330
4F3D
100
AcDbEntity
  8
MEASURE
 62
     9
100
AcDbTrace
 10
757.3883382453042
 20
584.1497536877398
 30
0.0
 11
761.5550049119709
 21
584.1497536877398
 31
0.0
 12
759.4716715786375
 22
596.6497536877398
 32
0.0
 13
759.4716715786375
 23
596.6497536877398
 33
0.0
  0
MTEXT
  5
51EE
330
4F3D
100
AcDbEntity
  8
MEASURE
 62
     2
100
AcDbMText
 10
749.9716715786375
 20
544.8997536877412
 30
0.0
 40
13.99999999999999
 41
0.0
 71
     5
 72
     1
  1
\A1;105
  7
AD-STANDARD
 11
0.0000000000000001
 21
1.0
 31
0.0
 73
     1
 44
1.0
1001
ACAD
1000
MTEXTBEGIN
1070
    73
1070
     1
1070
    44
1040
1.0
1070
    74
1070
     0
1000
MTEXTEND
  0
POINT
  5
51EF
330
4F3D
100
AcDbEntity
  8
DEFPOINTS
 62
     0
100
AcDbPoint
 10
940.5328599187592
 20
493.1497536877421
 30
0.0
  0
POINT
  5
51F0
330
4F3D
100
AcDbEntity
  8
DEFPOINTS
 62
     0
100
AcDbPoint
 10
919.032859918752
 20
596.6497536877397
 30
0.0
  0
POINT
  5
51F1
330
4F3D
100
AcDbEntity
  8
DEFPOINTS
 62
     0
100
AcDbPoint
 10
759.4716715786375
 20
596.6497536877398
 30
0.0
  0
ENDBLK
  5
4F3F
330
4F3D
100
AcDbEntity
  8
0
100
AcDbBlockEnd
  0
BLOCK
  5
4F4A
330
4F49
100
AcDbEntity
  8
0
100
AcDbBlockBegin
  2
*D10
 70
     1
 10
0.0
 20
0.0
 30
0.0
  3
*D10
  1

  0
LINE
  5
50F4
330
4F49
100
AcDbEntity
  8
MEASURE
 62
     9
370
    -2
100
AcDbLine
 10
907.5328599187519
 20
590.1497536877363
 30
0.0
 11
907.5328599187519
 21
693.9558723774901
 31
0.0
  0
LINE
  5
50F5
330
4F49
100
AcDbEntity
  8
MEASURE
 62
     9
370
    -2
100
AcDbLine
 10
1331.532859918752
 20
590.1497536877363
 30
0.0
 11
1331.532859918752
 21
693.9558723774901
 31
0.0
  0
LINE
  5
50F6
330
4F49
100
AcDbEntity
  8
MEASURE
 62
     9
370
    -2
100
AcDbLine
 10
920.0328599187519
 20
683.9558723774899
 30
0.0
 11
1319.032859918752
 21
683.9558723774899
 31
0.0
  0
SOLID
  5
50F7
330
4F49
100
AcDbEntity
  8
MEASURE
 62
     9
100
AcDbTrace
 10
920.0328599187519
 20
686.0392057108233
 30
0.0
 11
920.0328599187519
 21
681.8725390441567
 31
0.0
 12
907.5328599187519
 22
683.9558723774899
 32
0.0
 13
907.5328599187519
 23
683.9558723774899
 33
0.0
  0
SOLID
  5
50F8
330
4F49
100
AcDbEntity
  8
MEASURE
 62
     9
100
AcDbTrace
 10
1319.032859918752
 20
686.0392057108233
 30
0.0
 11
1319.032859918752
 21
681.8725390441567
 31
0.0
 12
1331.532859918752
 22
683.9558723774899
 32
0.0
 13
1331.532859918752
 23
683.9558723774899
 33
0.0
  0
MTEXT
  5
50F9
330
4F49
100
AcDbEntity
  8
MEASURE
 62
     2
100
AcDbMText
 10
1119.532859918752
 20
693.4558723774901
 30
0.0
 40
14.0
 41
0.0
 71
     5
 72
     1
  1
\A1;424
  7
AD-STANDARD
 73
     1
 44
1.0
1001
ACAD
1000
MTEXTBEGIN
1070
    73
1070
     1
1070
    44
1040
1.0
1070
    74
1070
     0
1000
MTEXTEND
  0
POINT
  5
50FA
330
4F49
100
AcDbEntity
  8
DEFPOINTS
 62
     0
100
AcDbPoint
 10
907.5328599187519
 20
585.1497536877361
 30
0.0
  0
POINT
  5
50FB
330
4F49
100
AcDbEntity
  8
DEFPOINTS
 62
     0
100
AcDbPoint
 10
1331.532859918752
 20
585.1497536877361
 30
0.0
  0
POINT
  5
50FC
330
4F49
100
AcDbEntity
  8
DEFPOINTS
 62
     0
100
AcDbPoint
 10
1331.532859918752
 20
683.9558723774899
 30
0.0
  0
ENDBLK
  5
4F4B
330
4F49
100
AcDbEntity
  8
0
100
AcDbBlockEnd
  0
BLOCK
  5
4F56
330
4F55
100
AcDbEntity
  8
0
100
AcDbBlockBegin
  2
*D11
 70
     1
 10
0.0
 20
0.0
 30
0.0
  3
*D11
  1

  0
LINE
  5
50FD
330
4F55
100
AcDbEntity
  8
MEASURE
 62
     9
370
    -2
100
AcDbLine
 10
952.5328599187593
 20
492.1497536877303
 30
0.0
 11
952.5328599187593
 21
407.0549891765969
 31
0.0
  0
LINE
  5
50FE
330
4F55
100
AcDbEntity
  8
MEASURE
 62
     9
370
    -2
100
AcDbLine
 10
907.5328599187592
 20
536.6497536877398
 30
0.0
 11
907.5328599187592
 21
407.0549891765969
 31
0.0
  0
LINE
  5
50FF
330
4F55
100
AcDbEntity
  8
MEASURE
 62
     9
370
    -2
100
AcDbLine
 10
940.0328599187593
 20
417.0549891765969
 30
0.0
 11
920.0328599187592
 21
417.0549891765969
 31
0.0
  0
SOLID
  5
5100
330
4F55
100
AcDbEntity
  8
MEASURE
 62
     9
100
AcDbTrace
 10
940.0328599187593
 20
419.1383225099303
 30
0.0
 11
940.0328599187593
 21
414.9716558432636
 31
0.0
 12
952.5328599187593
 22
417.0549891765969
 32
0.0
 13
952.5328599187593
 23
417.0549891765969
 33
0.0
  0
SOLID
  5
5101
330
4F55
100
AcDbEntity
  8
MEASURE
 62
     9
100
AcDbTrace
 10
920.0328599187592
 20
419.1383225099303
 30
0.0
 11
920.0328599187592
 21
414.9716558432636
 31
0.0
 12
907.5328599187592
 22
417.0549891765969
 32
0.0
 13
907.5328599187592
 23
417.0549891765969
 33
0.0
  0
MTEXT
  5
5102
330
4F55
100
AcDbEntity
  8
MEASURE
 62
     2
100
AcDbMText
 10
930.0328599187592
 20
426.5549891765969
 30
0.0
 40
14.0
 41
0.0
 71
     5
 72
     1
  1
\A1;45
  7
AD-STANDARD
 73
     1
 44
1.0
1001
ACAD
1000
MTEXTBEGIN
1070
    73
1070
     1
1070
    44
1040
1.0
1070
    74
1070
     0
1000
MTEXTEND
  0
POINT
  5
5103
330
4F55
100
AcDbEntity
  8
DEFPOINTS
 62
     0
100
AcDbPoint
 10
952.5328599187593
 20
497.1497536877302
 30
0.0
  0
POINT
  5
5104
330
4F55
100
AcDbEntity
  8
DEFPOINTS
 62
     0
100
AcDbPoint
 10
907.5328599187592
 20
541.6497536877398
 30
0.0
  0
POINT
  5
5105
330
4F55
100
AcDbEntity
  8
DEFPOINTS
 62
     0
100
AcDbPoint
 10
907.5328599187592
 20
417.0549891765969
 30
0.0
  0
ENDBLK
  5
4F57
330
4F55
100
AcDbEntity
  8
0
100
AcDbBlockEnd
  0
BLOCK
  5
4F62
330
4F61
100
AcDbEntity
  8
0
100
AcDbBlockBegin
  2
*D12
 70
     1
 10
0.0
 20
0.0
 30
0.0
  3
*D12
  1

  0
LINE
  5
5106
330
4F61
100
AcDbEntity
  8
MEASURE
 62
     9
370
    -2
100
AcDbLine
 10
952.5328599187593
 20
488.1497536877421
 30
0.0
 11
952.5328599187593
 21
407.0549891765969
 31
0.0
  0
LINE
  5
5107
330
4F61
100
AcDbEntity
  8
MEASURE
 62
     9
370
    -2
100
AcDbLine
 10
1286.532859918766
 20
488.1497536877421
 30
0.0
 11
1286.532859918766
 21
407.0549891765969
 31
0.0
  0
LINE
  5
5108
330
4F61
100
AcDbEntity
  8
MEASURE
 62
     9
370
    -2
100
AcDbLine
 10
965.0328599187593
 20
417.0549891765969
 30
0.0
 11
1274.032859918766
 21
417.0549891765969
 31
0.0
  0
SOLID
  5
5109
330
4F61
100
AcDbEntity
  8
MEASURE
 62
     9
100
AcDbTrace
 10
965.0328599187593
 20
419.1383225099303
 30
0.0
 11
965.0328599187593
 21
414.9716558432636
 31
0.0
 12
952.5328599187593
 22
417.0549891765969
 32
0.0
 13
952.5328599187593
 23
417.0549891765969
 33
0.0
  0
SOLID
  5
510A
330
4F61
100
AcDbEntity
  8
MEASURE
 62
     9
100
AcDbTrace
 10
1274.032859918766
 20
419.1383225099303
 30
0.0
 11
1274.032859918766
 21
414.9716558432636
 31
0.0
 12
1286.532859918766
 22
417.0549891765969
 32
0.0
 13
1286.532859918766
 23
417.0549891765969
 33
0.0
  0
MTEXT
  5
510B
330
4F61
100
AcDbEntity
  8
MEASURE
 62
     2
100
AcDbMText
 10
1119.532859918763
 20
426.5549891765969
 30
0.0
 40
14.0
 41
0.0
 71
     5
 72
     1
  1
\A1;334
  7
AD-STANDARD
 73
     1
 44
1.0
1001
ACAD
1000
MTEXTBEGIN
1070
    73
1070
     1
1070
    44
1040
1.0
1070
    74
1070
     0
1000
MTEXTEND
  0
POINT
  5
510C
330
4F61
100
AcDbEntity
  8
DEFPOINTS
 62
     0
100
AcDbPoint
 10
952.5328599187593
 20
493.1497536877421
 30
0.0
  0
POINT
  5
510D
330
4F61
100
AcDbEntity
  8
DEFPOINTS
 62
     0
100
AcDbPoint
 10
1286.532859918766
 20
493.1497536877421
 30
0.0
  0
POINT
  5
510E
330
4F61
100
AcDbEntity
  8
DEFPOINTS
 62
     0
100
AcDbPoint
 10
1286.532859918766
 20
417.0549891765969
 30
0.0
  0
ENDBLK
  5
4F63
330
4F61
100
AcDbEntity
  8
0
100
AcDbBlockEnd
  0
BLOCK
  5
4F6E
330
4F6D
100
AcDbEntity
  8
0
100
AcDbBlockBegin
  2
*D13
 70
     1
 10
0.0
 20
0.0
 30
0.0
  3
*D13
  1

  0
LINE
  5
510F
330
4F6D
100
AcDbEntity
  8
MEASURE
 62
     9
370
    -2
100
AcDbLine
 10
1286.532859918766
 20
488.1497536877421
 30
0.0
 11
1286.532859918766
 21
407.0549891765969
 31
0.0
  0
LINE
  5
5110
330
4F6D
100
AcDbEntity
  8
MEASURE
 62
     9
370
    -2
100
AcDbLine
 10
1473.532859918761
 20
488.1497536877421
 30
0.0
 11
1473.532859918761
 21
407.0549891765969
 31
0.0
  0
LINE
  5
5111
330
4F6D
100
AcDbEntity
  8
MEASURE
 62
     9
370
    -2
100
AcDbLine
 10
1299.032859918766
 20
417.0549891765969
 30
0.0
 11
1461.032859918761
 21
417.0549891765969
 31
0.0
  0
SOLID
  5
5112
330
4F6D
100
AcDbEntity
  8
MEASURE
 62
     9
100
AcDbTrace
 10
1299.032859918766
 20
419.1383225099303
 30
0.0
 11
1299.032859918766
 21
414.9716558432636
 31
0.0
 12
1286.532859918766
 22
417.0549891765969
 32
0.0
 13
1286.532859918766
 23
417.0549891765969
 33
0.0
  0
SOLID
  5
5113
330
4F6D
100
AcDbEntity
  8
MEASURE
 62
     9
100
AcDbTrace
 10
1461.032859918761
 20
419.1383225099303
 30
0.0
 11
1461.032859918761
 21
414.9716558432636
 31
0.0
 12
1473.532859918761
 22
417.0549891765969
 32
0.0
 13
1473.532859918761
 23
417.0549891765969
 33
0.0
  0
MTEXT
  5
5114
330
4F6D
100
AcDbEntity
  8
MEASURE
 62
     2
100
AcDbMText
 10
1380.032859918763
 20
426.5549891765969
 30
0.0
 40
14.0
 41
0.0
 71
     5
 72
     1
  1
\A1;187
  7
AD-STANDARD
 73
     1
 44
1.0
1001
ACAD
1000
MTEXTBEGIN
1070
    73
1070
     1
1070
    44
1040
1.0
1070
    74
1070
     0
1000
MTEXTEND
  0
POINT
  5
5115
330
4F6D
100
AcDbEntity
  8
DEFPOINTS
 62
     0
100
AcDbPoint
 10
1286.532859918766
 20
493.1497536877421
 30
0.0
  0
POINT
  5
5116
330
4F6D
100
AcDbEntity
  8
DEFPOINTS
 62
     0
100
AcDbPoint
 10
1473.532859918761
 20
493.1497536877421
 30
0.0
  0
POINT
  5
5117
330
4F6D
100
AcDbEntity
  8
DEFPOINTS
 62
     0
100
AcDbPoint
 10
1473.532859918761
 20
417.0549891765969
 30
0.0
  0
ENDBLK
  5
4F6F
330
4F6D
100
AcDbEntity
  8
0
100
AcDbBlockEnd
  0
BLOCK
  5
4F7A
330
4F79
100
AcDbEntity
  8
0
100
AcDbBlockBegin
  2
*D14
 70
     1
 10
0.0
 20
0.0
 30
0.0
  3
*D14
  1

  0
LINE
  5
5118
330
4F79
100
AcDbEntity
  8
MEASURE
 62
     9
 48
0.25
370
    -2
100
AcDbLine
 10
1519.332892657134
 20
912.100884284491
 30
0.0
 11
1519.332892657134
 21
1139.312889967057
 31
0.0
  0
LINE
  5
5119
330
4F79
100
AcDbEntity
  8
MEASURE
 62
     9
 48
0.25
370
    -2
100
AcDbLine
 10
1422.532865580392
 20
1030.050259437
 30
0.0
 11
1422.532865580392
 21
1139.312889967057
 31
0.0
  0
LINE
  5
511A
330
4F79
100
AcDbEntity
  8
MEASURE
 62
     9
 48
0.25
370
    -2
100
AcDbLine
 10
1506.832892657134
 20
1129.312889967057
 30
0.0
 11
1435.032865580392
 21
1129.312889967057
 31
0.0
  0
SOLID
  5
511B
330
4F79
100
AcDbEntity
  8
MEASURE
 62
     9
 48
0.25
100
AcDbTrace
 10
1506.832892657134
 20
1131.396223300391
 30
0.0
 11
1506.832892657134
 21
1127.229556633724
 31
0.0
 12
1519.332892657134
 22
1129.312889967057
 32
0.0
 13
1519.332892657134
 23
1129.312889967057
 33
0.0
  0
SOLID
  5
511C
330
4F79
100
AcDbEntity
  8
MEASURE
 62
     9
 48
0.25
100
AcDbTrace
 10
1435.032865580392
 20
1131.396223300391
 30
0.0
 11
1435.032865580392
 21
1127.229556633724
 31
0.0
 12
1422.532865580392
 22
1129.312889967057
 32
0.0
 13
1422.532865580392
 23
1129.312889967057
 33
0.0
  0
MTEXT
  5
511D
330
4F79
100
AcDbEntity
  8
MEASURE
 62
     2
 48
0.25
100
AcDbMText
 10
1462.932879118763
 20
1142.479556633724
 30
0.0
 40
14.0
 41
0.0
 71
     5
 72
     1
  1
\A1;(100)
  7
AD-STANDARD
 73
     1
 44
1.0
1001
ACAD
1000
MTEXTBEGIN
1070
    73
1070
     1
1070
    44
1040
1.0
1070
    74
1070
     0
1000
MTEXTEND
  0
POINT
  5
511E
330
4F79
100
AcDbEntity
  8
DEFPOINTS
 62
     0
 48
0.25
100
AcDbPoint
 10
1519.332892657134
 20
907.1008842844912
 30
0.0
  0
POINT
  5
511F
330
4F79
100
AcDbEntity
  8
DEFPOINTS
 62
     0
 48
0.25
100
AcDbPoint
 10
1422.532865580392
 20
1025.050259437
 30
0.0
  0
POINT
  5
5120
330
4F79
100
AcDbEntity
  8
DEFPOINTS
 62
     0
 48
0.25
100
AcDbPoint
 10
1422.532865580392
 20
1129.312889967057
 30
0.0
  0
ENDBLK
  5
4F7B
330
4F79
100
AcDbEntity
  8
0
100
AcDbBlockEnd
  0
BLOCK
  5
4F86
330
4F85
100
AcDbEntity
  8
0
100
AcDbBlockBegin
  2
*D15
 70
     1
 10
0.0
 20
0.0
 30
0.0
  3
*D15
  1

  0
LINE
  5
5121
330
4F85
100
AcDbEntity
  8
MEASURE
 62
     9
 48
0.25
370
    -2
100
AcDbLine
 10
1435.532865580392
 20
1055.750259437
 30
0.0
 11
1383.251485823884
 21
1055.750259437
 31
0.0
  0
LINE
  5
5122
330
4F85
100
AcDbEntity
  8
MEASURE
 62
     9
 48
0.25
370
    -2
100
AcDbLine
 10
1414.532865580392
 20
832.7502594370011
 30
0.0
 11
1383.251485823884
 21
832.7502594370011
 31
0.0
  0
LINE
  5
5123
330
4F85
100
AcDbEntity
  8
MEASURE
 62
     9
 48
0.25
370
    -2
100
AcDbLine
 10
1393.251485823884
 20
1043.250259437
 30
0.0
 11
1393.251485823884
 21
845.2502594370011
 31
0.0
  0
SOLID
  5
5124
330
4F85
100
AcDbEntity
  8
MEASURE
 62
     9
 48
0.25
100
AcDbTrace
 10
1391.168152490551
 20
1043.250259437
 30
0.0
 11
1395.334819157217
 21
1043.250259437
 31
0.0
 12
1393.251485823884
 22
1055.750259437
 32
0.0
 13
1393.251485823884
 23
1055.750259437
 33
0.0
  0
SOLID
  5
5125
330
4F85
100
AcDbEntity
  8
MEASURE
 62
     9
 48
0.25
100
AcDbTrace
 10
1391.168152490551
 20
845.2502594370011
 30
0.0
 11
1395.334819157217
 21
845.2502594370011
 31
0.0
 12
1393.251485823884
 22
832.7502594370011
 32
0.0
 13
1393.251485823884
 23
832.7502594370011
 33
0.0
  0
MTEXT
  5
5126
330
4F85
100
AcDbEntity
  8
MEASURE
 62
     2
 48
0.25
100
AcDbMText
 10
1383.751485823884
 20
944.2502594370006
 30
0.0
 40
14.0
 41
0.0
 71
     5
 72
     1
  1
\A1;223
  7
AD-STANDARD
 11
0.0000000000000001
 21
1.0
 31
0.0
 73
     1
 44
1.0
1001
ACAD
1000
MTEXTBEGIN
1070
    73
1070
     1
1070
    44
1040
1.0
1070
    74
1070
     0
1000
MTEXTEND
  0
POINT
  5
5127
330
4F85
100
AcDbEntity
  8
DEFPOINTS
 62
     0
 48
0.25
100
AcDbPoint
 10
1440.532865580392
 20
1055.750259437
 30
0.0
  0
POINT
  5
5128
330
4F85
100
AcDbEntity
  8
DEFPOINTS
 62
     0
 48
0.25
100
AcDbPoint
 10
1419.532865580392
 20
832.7502594370011
 30
0.0
  0
POINT
  5
5129
330
4F85
100
AcDbEntity
  8
DEFPOINTS
 62
     0
 48
0.25
100
AcDbPoint
 10
1393.251485823884
 20
832.7502594370011
 30
0.0
  0
ENDBLK
  5
4F87
330
4F85
100
AcDbEntity
  8
0
100
AcDbBlockEnd
  0
BLOCK
  5
4F92
330
4F91
100
AcDbEntity
  8
0
100
AcDbBlockBegin
  2
*D16
 70
     1
 10
0.0
 20
0.0
 30
0.0
  3
*D16
  1

  0
LINE
  5
512A
330
4F91
100
AcDbEntity
  8
MEASURE
 62
     9
 48
0.25
370
    -2
100
AcDbLine
 10
1422.532865580392
 20
1028.050259437
 30
0.0
 11
1422.532865580392
 21
1113.821535173975
 31
0.0
  0
LINE
  5
512B
330
4F91
100
AcDbEntity
  8
MEASURE
 62
     9
 48
0.25
370
    -2
100
AcDbLine
 10
1484.532892657134
 20
1059.950259437
 30
0.0
 11
1484.532892657134
 21
1113.821535173975
 31
0.0
  0
LINE
  5
512C
330
4F91
100
AcDbEntity
  8
MEASURE
 62
     9
 48
0.25
370
    -2
100
AcDbLine
 10
1435.032865580392
 20
1103.821535173975
 30
0.0
 11
1472.032892657134
 21
1103.821535173975
 31
0.0
  0
SOLID
  5
512D
330
4F91
100
AcDbEntity
  8
MEASURE
 62
     9
 48
0.25
100
AcDbTrace
 10
1435.032865580392
 20
1105.904868507308
 30
0.0
 11
1435.032865580392
 21
1101.738201840641
 31
0.0
 12
1422.532865580392
 22
1103.821535173975
 32
0.0
 13
1422.532865580392
 23
1103.821535173975
 33
0.0
  0
SOLID
  5
512E
330
4F91
100
AcDbEntity
  8
MEASURE
 62
     9
 48
0.25
100
AcDbTrace
 10
1472.032892657134
 20
1105.904868507308
 30
0.0
 11
1472.032892657134
 21
1101.738201840641
 31
0.0
 12
1484.532892657134
 22
1103.821535173975
 32
0.0
 13
1484.532892657134
 23
1103.821535173975
 33
0.0
  0
MTEXT
  5
512F
330
4F91
100
AcDbEntity
  8
MEASURE
 62
     2
 48
0.25
100
AcDbMText
 10
1453.532879118763
 20
1113.321535173975
 30
0.0
 40
14.0
 41
0.0
 71
     5
 72
     1
  1
\A1;62
  7
AD-STANDARD
 73
     1
 44
1.0
1001
ACAD
1000
MTEXTBEGIN
1070
    73
1070
     1
1070
    44
1040
1.0
1070
    74
1070
     0
1000
MTEXTEND
  0
POINT
  5
5130
330
4F91
100
AcDbEntity
  8
DEFPOINTS
 62
     0
 48
0.25
100
AcDbPoint
 10
1422.532865580392
 20
1023.050259437
 30
0.0
  0
POINT
  5
5131
330
4F91
100
AcDbEntity
  8
DEFPOINTS
 62
     0
 48
0.25
100
AcDbPoint
 10
1484.532892657134
 20
1054.950259437
 30
0.0
  0
POINT
  5
5132
330
4F91
100
AcDbEntity
  8
DEFPOINTS
 62
     0
 48
0.25
100
AcDbPoint
 10
1484.532892657134
 20
1103.821535173975
 30
0.0
  0
ENDBLK
  5
4F93
330
4F91
100
AcDbEntity
  8
0
100
AcDbBlockEnd
  0
ENDSEC
  0
SECTION
  2
ENTITIES
  0
DIMENSION
  5
4ED7
330
1A
100
AcDbEntity
  8
MEASURE
100
AcDbDimension
  2
*D2
 10
566.7185340079031
 20
417.0549891765968
 30
0.0
 11
446.7185340079031
 21
426.5549891765969
 31
0.0
 70
    32
 71
     5
 42
240.0
  3
AD-STANDARD
100
AcDbAlignedDimension
 13
326.7185340079032
 23
494.399830910712
 33
0.0
 14
566.7185340079031
 24
494.399830910712
 34
0.0
100
AcDbRotatedDimension
1001
ACAD
1000
DSTYLE
1002
{
1070
   287
1070
     1
1070
   287
1070
     1
1070
   287
1070
     1
1070
   287
1070
     1
1070
    40
1040
5.0
1070
   140
1040
2.799999999999998
1070
   271
1070
     8
1070
   272
1070
     8
1070
   289
1070
     1
1002
}
  0
DIMENSION
  5
4ED8
330
1A
100
AcDbEntity
  8
MEASURE
100
AcDbDimension
  2
*D3
 10
611.7185340079031
 20
683.9558723774898
 30
0.0
 11
446.7185340079031
 21
693.4558723774899
 31
0.0
 70
    32
 71
     5
 42
330.0
  3
AD-STANDARD
100
AcDbAlignedDimension
 13
281.7185340079031
 23
585.1497536877396
 33
0.0
 14
611.7185340079031
 24
585.1497536877396
 34
0.0
100
AcDbRotatedDimension
1001
ACAD
1000
DSTYLE
1002
{
1070
   287
1070
     1
1070
   287
1070
     1
1070
   287
1070
     1
1070
   287
1070
     1
1070
    40
1040
5.0
1070
   140
1040
2.799999999999998
1070
   271
1070
     8
1070
   272
1070
     8
1070
   289
1070
     1
1002
}
  0
DIMENSION
  5
4ED9
330
1A
100
AcDbEntity
  8
MEASURE
 48
0.25
100
AcDbDimension
  2
*D4
 10
605.5244866955419
 20
849.7502594370017
 30
0.0
 11
605.5244866955417
 21
952.356999822734
 31
0.0
 70
   160
 71
     5
 42
205.9999999999982
  3
AD-STANDARD
100
AcDbAlignedDimension
 13
545.4185340079029
 23
1055.750259437
 33
0.0
 14
545.4185340079029
 24
849.7502594370017
 34
0.0
 50
90.0
100
AcDbRotatedDimension
1001
ACAD
1000
DSTYLE
1002
{
1070
   287
1070
     1
1070
   287
1070
     1
1070
   287
1070
     1
1070
   287
1070
     1
1070
    40
1040
5.0
1070
   140
1040
2.799999999999998
1070
   271
1070
     3
1070
   272
1070
     8
1070
   289
1070
     1
1002
}
  0
DIMENSION
  5
4EDA
330
1A
100
AcDbEntity
  8
MEASURE
 48
0.25
100
AcDbDimension
  2
*D5
 10
347.218534007915
 20
1102.036585004065
 30
0.0
 11
449.7041163201161
 21
1102.036585004065
 31
0.0
 70
   160
 71
     5
 42
198.9999999999882
  3
AD-STANDARD
100
AcDbAlignedDimension
 13
546.2185340079031
 23
1054.950259437
 33
0.0
 14
347.218534007915
 24
1054.950259436999
 34
0.0
100
AcDbRotatedDimension
1001
ACAD
1000
DSTYLE
1002
{
1070
   287
1070
     1
1070
   287
1070
     1
1070
   287
1070
     1
1070
   287
1070
     1
1070
    40
1040
5.0
1070
   140
1040
2.799999999999998
1070
   271
1070
     3
1070
   272
1070
     8
1070
   289
1070
     1
1002
}
  0
DIMENSION
  5
4EDB
330
1A
100
AcDbEntity
  8
MEASURE
100
AcDbDimension
  2
*D6
 10
1676.198654978781
 20
1055.750259437
 30
0.0
 11
1666.698654978781
 21
774.4500065623712
 31
0.0
 70
    32
  1
（752）
 71
     5
 42
562.6005057492576
  3
AD-STANDARD
100
AcDbAlignedDimension
 13
1298.532859918766
 23
493.1497536877421
 33
0.0
 14
1483.732892657134
 24
1055.750259437
 34
0.0
 50
90.0
100
AcDbRotatedDimension
1001
ACAD
1000
DSTYLE
1002
{
1070
   287
1070
     1
1070
   287
1070
     1
1070
   287
1070
     1
1070
   287
1070
     1
1070
    40
1040
5.0
1070
   140
1040
2.799999999999998
1070
   271
1070
     8
1070
   272
1070
     8
1070
   289
1070
     1
1002
}
  0
DIMENSION
  5
4EDC
330
1A
100
AcDbEntity
  8
MEASURE
100
AcDbDimension
  2
*D7
 10
813.4845410117737
 20
596.6497536877397
 30
0.0
 11
803.9845410117735
 21
569.14975368774
 31
0.0
 70
    32
 71
     5
 42
55.0
  3
AD-STANDARD
100
AcDbAlignedDimension
 13
907.5328599187592
 23
541.6497536877398
 33
0.0
 14
919.032859918752
 24
596.6497536877397
 34
0.0
 50
90.0
100
AcDbRotatedDimension
1001
ACAD
1000
DSTYLE
1002
{
1070
   287
1070
     1
1070
   287
1070
     1
1070
   287
1070
     1
1070
   287
1070
     1
1070
    40
1040
5.0
1070
   140
1040
2.799999999999998
1070
   271
1070
     8
1070
   272
1070
     8
1070
   289
1070
     1
1002
}
  0
DIMENSION
  5
4EDD
330
1A
100
AcDbEntity
  8
MEASURE
100
AcDbDimension
  2
*D8
 10
1562.53286558039
 20
374.9305524386202
 30
0.0
 11
1235.032862749575
 21
384.4305524386202
 31
0.0
 70
    32
  1
（655）
 71
     5
 42
655.0000056616307
  3
AD-STANDARD
100
AcDbAlignedDimension
 13
907.5328599187592
 23
541.6497536877398
 33
0.0
 14
1562.53286558039
 24
952.7502594370007
 34
0.0
100
AcDbRotatedDimension
1001
ACAD
1000
DSTYLE
1002
{
1070
   287
1070
     1
1070
   287
1070
     1
1070
   287
1070
     1
1070
   287
1070
     1
1070
    40
1040
5.0
1070
   140
1040
2.799999999999998
1070
   271
1070
     8
1070
   272
1070
     8
1070
   289
1070
     1
1002
}
  0
DIMENSION
  5
4EDE
330
1A
100
AcDbEntity
  8
MEASURE
100
AcDbDimension
  2
*D9
 10
759.4716715786375
 20
596.6497536877398
 30
0.0
 11
749.9716715786375
 21
544.8997536877412
 31
0.0
 70
    32
  1
105
 71
     5
 42
103.4999999999975
  3
AD-STANDARD
100
AcDbAlignedDimension
 13
940.5328599187592
 23
493.1497536877421
 33
0.0
 14
919.032859918752
 24
596.6497536877397
 34
0.0
 50
90.0
100
AcDbRotatedDimension
1001
ACAD
1000
DSTYLE
1002
{
1070
   287
1070
     1
1070
   287
1070
     1
1070
   287
1070
     1
1070
   287
1070
     1
1070
    40
1040
5.0
1070
   140
1040
2.799999999999998
1070
   271
1070
     8
1070
   272
1070
     8
1070
   289
1070
     1
1002
}
  0
DIMENSION
  5
4EDF
330
1A
100
AcDbEntity
  8
MEASURE
100
AcDbDimension
  2
*D10
 10
1331.532859918752
 20
683.9558723774899
 30
0.0
 11
1119.532859918752
 21
693.4558723774901
 31
0.0
 70
    32
 71
     5
 42
424.0
  3
AD-STANDARD
100
AcDbAlignedDimension
 13
907.5328599187519
 23
585.1497536877361
 33
0.0
 14
1331.532859918752
 24
585.1497536877361
 34
0.0
100
AcDbRotatedDimension
1001
ACAD
1000
DSTYLE
1002
{
1070
   287
1070
     1
1070
   287
1070
     1
1070
   287
1070
     1
1070
   287
1070
     1
1070
    40
1040
5.0
1070
   140
1040
2.799999999999998
1070
   271
1070
     8
1070
   272
1070
     8
1070
   289
1070
     1
1002
}
  0
DIMENSION
  5
4EE0
330
1A
100
AcDbEntity
  8
MEASURE
100
AcDbDimension
  2
*D11
 10
907.5328599187592
 20
417.0549891765969
 30
0.0
 11
930.0328599187592
 21
426.5549891765969
 31
0.0
 70
    32
 71
     5
 42
45.0
  3
AD-STANDARD
100
AcDbAlignedDimension
 13
952.5328599187593
 23
497.1497536877302
 33
0.0
 14
907.5328599187592
 24
541.6497536877398
 34
0.0
100
AcDbRotatedDimension
1001
ACAD
1000
DSTYLE
1002
{
1070
   287
1070
     1
1070
   287
1070
     1
1070
   287
1070
     1
1070
   287
1070
     1
1070
    40
1040
5.0
1070
   140
1040
2.799999999999998
1070
   271
1070
     8
1070
   272
1070
     8
1070
   289
1070
     1
1002
}
  0
DIMENSION
  5
4EE1
330
1A
100
AcDbEntity
  8
MEASURE
100
AcDbDimension
  2
*D12
 10
1286.532859918766
 20
417.0549891765969
 30
0.0
 11
1119.532859918763
 21
426.5549891765969
 31
0.0
 70
    32
 71
     5
 42
334.0000000000074
  3
AD-STANDARD
100
AcDbAlignedDimension
 13
952.5328599187593
 23
493.1497536877421
 33
0.0
 14
1286.532859918766
 24
493.1497536877421
 34
0.0
100
AcDbRotatedDimension
1001
ACAD
1000
DSTYLE
1002
{
1070
   287
1070
     1
1070
   287
1070
     1
1070
   287
1070
     1
1070
   287
1070
     1
1070
    40
1040
5.0
1070
   140
1040
2.799999999999998
1070
   271
1070
     8
1070
   272
1070
     8
1070
   289
1070
     1
1002
}
  0
DIMENSION
  5
4EE2
330
1A
100
AcDbEntity
  8
MEASURE
100
AcDbDimension
  2
*D13
 10
1473.532859918761
 20
417.0549891765969
 30
0.0
 11
1380.032859918763
 21
426.5549891765969
 31
0.0
 70
    32
 71
     5
 42
186.9999999999945
  3
AD-STANDARD
100
AcDbAlignedDimension
 13
1286.532859918766
 23
493.1497536877421
 33
0.0
 14
1473.532859918761
 24
493.1497536877421
 34
0.0
100
AcDbRotatedDimension
1001
ACAD
1000
DSTYLE
1002
{
1070
   287
1070
     1
1070
   287
1070
     1
1070
   287
1070
     1
1070
   287
1070
     1
1070
    40
1040
5.0
1070
   140
1040
2.799999999999998
1070
   271
1070
     8
1070
   272
1070
     8
1070
   289
1070
     1
1002
}
  0
DIMENSION
  5
4EE3
330
1A
100
AcDbEntity
  8
MEASURE
 48
0.25
100
AcDbDimension
  2
*D14
 10
1422.532865580392
 20
1129.312889967057
 30
0.0
 11
1462.932879118763
 21
1129.312889967057
 31
0.0
 70
   160
  1
(100)
 71
     5
 42
96.80002707674248
  3
AD-STANDARD
100
AcDbAlignedDimension
 13
1519.332892657134
 23
907.1008842844912
 33
0.0
 14
1422.532865580392
 24
1025.050259437
 34
0.0
100
AcDbRotatedDimension
1001
ACAD
1000
DSTYLE
1002
{
1070
   287
1070
     1
1070
   287
1070
     1
1070
   287
1070
     1
1070
   287
1070
     1
1070
    40
1040
5.0
1070
   140
1040
2.799999999999998
1070
   271
1070
     3
1070
   272
1070
     8
1070
   289
1070
     1
1002
}
  0
DIMENSION
  5
4EE4
330
1A
100
AcDbEntity
  8
MEASURE
 48
0.25
100
AcDbDimension
  2
*D15
 10
1393.251485823884
 20
832.7502594370011
 30
0.0
 11
1383.751485823884
 21
944.2502594370006
 31
0.0
 70
    32
 71
     5
 42
222.999999999999
  3
AD-STANDARD
100
AcDbAlignedDimension
 13
1440.532865580392
 23
1055.750259437
 33
0.0
 14
1419.532865580392
 24
832.7502594370011
 34
0.0
 50
90.0
100
AcDbRotatedDimension
1001
ACAD
1000
DSTYLE
1002
{
1070
   287
1070
     1
1070
   287
1070
     1
1070
   287
1070
     1
1070
   287
1070
     1
1070
    40
1040
5.0
1070
   140
1040
2.799999999999998
1070
   271
1070
     3
1070
   272
1070
     8
1070
   289
1070
     1
1002
}
  0
ARC
  5
4EE5
330
1A
100
AcDbEntity
  8
0
  6
CENTER
 48
10.0
100
AcDbCircle
 10
1459.532865580392
 20
952.7502594370007
 30
0.0
 40
102.9999999999985
100
AcDbArc
 50
342.1934475126861
 51
158.0128185707013
  0
DIMENSION
  5
4EE6
330
1A
100
AcDbEntity
  8
MEASURE
 48
0.25
100
AcDbDimension
  2
*D16
 10
1484.532892657134
 20
1103.821535173975
 30
0.0
 11
1453.532879118763
 21
1103.821535173975
 31
0.0
 70
   160
 71
     5
 42
62.00002707674229
  3
AD-STANDARD
100
AcDbAlignedDimension
 13
1422.532865580392
 23
1023.050259437
 33
0.0
 14
1484.532892657134
 24
1054.950259437
 34
0.0
100
AcDbRotatedDimension
1001
ACAD
1000
DSTYLE
1002
{
1070
   287
1070
     1
1070
   287
1070
     1
1070
   287
1070
     1
1070
   287
1070
     1
1070
    40
1040
5.0
1070
   140
1040
2.799999999999998
1070
   271
1070
     3
1070
   272
1070
     8
1070
   289
1070
     1
1002
}
  0
INSERT
  5
4EE7
330
1A
100
AcDbEntity
  8
0
100
AcDbBlockReference
  2
2
 10
1119.532859918759
 20
596.6497536877397
 30
0.0
  0
INSERT
  5
4EE8
330
1A
100
AcDbEntity
  8
0
100
AcDbBlockReference
  2
1
 10
446.7185340079031
 20
596.6497536877397
 30
0.0
  0
VIEWPORT
  5
22
102
{ACAD_XDICTIONARY
360
5207
102
}
330
17
100
AcDbEntity
 67
     1
  8
0
100
AcDbViewport
 10
212.493895035448
 20
149.5099472981232
 30
0.0
 40
605.3186774506254
 41
266.9298350007258
 68
     1
 69
     1
 12
212.493895035448
 22
149.5099472981232
 13
0.0
 23
0.0
 14
1.0
 24
1.0
 15
10.0
 25
10.0
 16
0.0
 26
0.0
 36
1.0
 17
0.0
 27
0.0
 37
0.0
 42
50.0
 43
0.0
 44
0.0
 45
266.9298350007258
 50
0.0
 51
0.0
 72
   100
 90
    32768
  1

281
     0
 71
     1
 74
     0
110
0.0
120
0.0
130
0.0
111
1.0
121
0.0
131
0.0
112
0.0
122
1.0
132
0.0
 79
     0
146
0.0
  0
VIEWPORT
  5
2B8
102
{ACAD_XDICTIONARY
360
490D
102
}
330
17
100
AcDbEntity
 67
     1
  8
DEFPOINTS
100
AcDbViewport
 10
212.5
 20
149.4999999999999
 30
0.0
 40
385.0
 41
264.9999999999999
 68
     2
 69
     2
 12
964.2779232847686
 22
778.7774099454617
 13
0.0
 23
0.0
 14
1.0
 24
1.0
 15
0.0
 25
0.0
 16
0.0
 26
0.0
 36
1.0
 17
0.0
 27
0.0
 37
0.0
 42
50.0
 43
0.0
 44
0.0
 45
1060.000001120688
 50
0.0
 51
0.0
 72
   100
 90
    36864
  1

281
     0
 71
     1
 74
     0
110
0.0
120
0.0
130
0.0
111
1.0
121
0.0
131
0.0
112
0.0
122
1.0
132
0.0
 79
     0
146
0.0
  0
ENDSEC
  0
SECTION
  2
OBJECTS
  0
DICTIONARY
  5
C
330
0
100
AcDbDictionary
281
     1
  3
ACAD_COLOR
350
1E04
  3
ACAD_GROUP
350
D
  3
ACAD_LAYOUT
350
199B
  3
ACAD_MATERIAL
350
1E03
  3
ACAD_MLEADERSTYLE
350
1FEF
  3
ACAD_MLINESTYLE
350
E
  3
ACAD_PLOTSETTINGS
350
199C
  3
ACAD_PLOTSTYLENAME
350
1999
  3
ACAD_SCALELIST
350
1FCD
  3
ACAD_TABLESTYLE
350
1E05
  3
ACAD_VISUALSTYLE
350
1FBC
  3
ACDB_RECOMPOSE_DATA
350
3D6A
  3
AcDbVariableDictionary
350
1E00
  3
CONTENTDICTIONARY
350
234
  3
DWGPROPS
350
5206
  0
DICTIONARY
  5
3D6C
330
8
100
AcDbDictionary
280
     1
281
     1
  0
DICTIONARY
  5
1E1B
330
2
100
AcDbDictionary
280
     1
281
     1
  3
ACAD_LAYERSTATES
360
1E1C
  0
DICTIONARY
  5
3D33
330
F
100
AcDbDictionary
280
     1
281
     1
  3
ADSK_XREC_LAYER_RECONCILED
360
3D34
  0
DICTIONARY
  5
3D37
330
71
100
AcDbDictionary
280
     1
281
     1
  3
ADSK_XREC_LAYER_RECONCILED
360
3D38
  0
DICTIONARY
  5
19C8
330
1A
100
AcDbDictionary
280
     1
281
     1
  3
ACAD_LAYOUTSELFREF
360
1D70
  3
ACAD_SORTENTS
360
1F19
  0
DICTIONARY
  5
19C6
330
17
100
AcDbDictionary
280
     1
281
     1
  3
ACAD_LAYOUTSELFREF
360
1D6F
  0
DICTIONARY
  5
5207
330
22
100
AcDbDictionary
280
     1
281
     1
  3
ACAD_XREC_ROUNDTRIP
360
5208
  0
DICTIONARY
  5
490D
330
2B8
100
AcDbDictionary
280
     1
281
     1
  3
ACAD_XREC_ROUNDTRIP
360
5209
  3
ASDK_XREC_ANNOTATION_SCALE_INFO
360
490E
  0
DICTIONARY
  5
1E04
102
{ACAD_REACTORS
330
C
102
}
330
C
100
AcDbDictionary
281
     1
  0
DICTIONARY
  5
D
102
{ACAD_REACTORS
330
C
102
}
330
C
100
AcDbDictionary
281
     1
  3
*A1
350
1E2A
  3
*A2
350
1F4A
  3
*A3
350
50AB
  0
DICTIONARY
  5
199B
102
{ACAD_REACTORS
330
C
102
}
330
C
100
AcDbDictionary
281
     1
  3
Model
350
199D
  3
ﾚｲｱｳﾄ1
350
199E
  0
DICTIONARY
  5
1E03
102
{ACAD_REACTORS
330
C
102
}
330
C
100
AcDbDictionary
281
     1
  3
ByBlock
350
1FAC
  3
ByLayer
350
1FA4
  3
Global
350
1FB4
  0
DICTIONARY
  5
1FEF
102
{ACAD_REACTORS
330
C
102
}
330
C
100
AcDbDictionary
281
     1
  3
Standard
350
1FF0
  0
DICTIONARY
  5
E
102
{ACAD_REACTORS
330
C
102
}
330
C
100
AcDbDictionary
281
     1
  3
STANDARD
350
13
  0
DICTIONARY
  5
199C
102
{ACAD_REACTORS
330
C
102
}
330
C
100
AcDbDictionary
281
     1
  3
【A3用紙】RICOH IPSiO CX8200 RPCS
350
1EBB
  0
ACDBDICTIONARYWDFLT
  5
1999
102
{ACAD_REACTORS
330
C
102
}
330
C
100
AcDbDictionary
281
     1
  3
Normal
350
199A
100
AcDbDictionaryWithDefault
340
199A
  0
DICTIONARY
  5
1FCD
102
{ACAD_REACTORS
330
C
102
}
330
C
100
AcDbDictionary
281
     1
  3
*A1
350
4EBC
  3
*A2
350
4EBD
  3
*A3
350
4EBE
  3
A0
350
1FCE
  3
A1
350
1FCF
  3
A2
350
1FD0
  3
A3
350
1FD1
  3
A4
350
1FD2
  3
A5
350
1FD3
  3
A6
350
1FD4
  3
A7
350
1FD5
  3
A8
350
1FD6
  3
A9
350
1FD7
  3
B0
350
1FD8
  3
B1
350
1FD9
  3
B2
350
1FDA
  3
B3
350
1FDB
  3
B4
350
1FDC
  3
B5
350
1FDD
  3
B6
350
1FDE
  3
B7
350
1FDF
  3
B8
350
1FE0
  3
B9
350
1FE1
  3
C0
350
1FE2
  3
C1
350
1FE3
  3
C2
350
1FE4
  3
C3
350
1FE5
  3
C4
350
1FE6
  3
C5
350
1FE7
  3
C6
350
1FE8
  3
C7
350
1FE9
  3
C8
350
1FEA
  3
C9
350
1FEB
  3
D0
350
1FEC
  3
D1
350
1FED
  3
D2
350
1FEE
  0
DICTIONARY
  5
1E05
102
{ACAD_REACTORS
330
C
102
}
330
C
100
AcDbDictionary
281
     1
  3
Standard
350
1E06
  0
DICTIONARY
  5
1FBC
102
{ACAD_REACTORS
330
C
102
}
330
C
100
AcDbDictionary
281
     1
  3
2dWireframe
350
1FC2
  3
3D Hidden
350
1FC4
  3
3dWireframe
350
1FC3
  3
Basic
350
1FC1
  3
Brighten
350
1FC8
  3
ColorChange
350
1FCC
  3
Conceptual
350
1FC5
  3
Dim
350
1FC7
  3
Facepattern
350
1FCB
  3
Flat
350
1FBD
  3
FlatWithEdges
350
1FBE
  3
Gouraud
350
1FBF
  3
GouraudWithEdges
350
1FC0
  3
Linepattern
350
1FCA
  3
Realistic
350
1FC6
  3
Thicken
350
1FC9
  0
XRECORD
  5
3D6A
102
{ACAD_REACTORS
330
C
102
}
330
C
100
AcDbXrecord
280
     1
 90
        1
330
1E06
  0
DICTIONARY
  5
1E00
102
{ACAD_REACTORS
330
C
102
}
330
C
100
AcDbDictionary
281
     1
  3
CANNOSCALE
350
3DA0
  3
CMLEADERSTYLE
350
3D9F
  3
CTABLESTYLE
350
1EC9
  3
DIMASSOC
350
1E01
  3
INDEXCTL
350
3DA2
  3
PROJECTNAME
350
1ECA
  3
SORTENTS
350
3DA1
  0
DICTIONARY
  5
234
102
{ACAD_REACTORS
330
C
102
}
330
C
100
AcDbDictionary
281
     1
  0
XRECORD
  5
5206
102
{ACAD_REACTORS
330
C
102
}
330
C
100
AcDbXrecord
280
     1
  1
DWGPROPS COOKIE
  2

  3

  4

  6

  7

  8
HAMANO-1047
  9

300
=
301
=
302
=
303
=
304
=
305
=
306
=
307
=
308
=
309
=
 40
0.5829101736111112
 41
2451414.498518056
 42
2458205.438991944
  1

 90
        0
  0
DICTIONARY
  5
1E1C
102
{ACAD_REACTORS
330
1E1B
102
}
330
1E1B
100
AcDbDictionary
281
     1
  0
XRECORD
  5
3D34
102
{ACAD_REACTORS
330
3D33
102
}
330
3D33
100
AcDbXrecord
280
     1
290
     1
  0
XRECORD
  5
3D38
102
{ACAD_REACTORS
330
3D37
102
}
330
3D37
100
AcDbXrecord
280
     1
290
     1
  0
XRECORD
  5
1D70
102
{ACAD_REACTORS
330
19C8
102
}
330
19C8
100
AcDbXrecord
280
     1
340
1A
  0
SORTENTSTABLE
  5
1F19
102
{ACAD_REACTORS
330
19C8
102
}
330
19C8
100
AcDbSortentsTable
330
1A
  0
XRECORD
  5
1D6F
102
{ACAD_REACTORS
330
19C6
102
}
330
19C6
100
AcDbXrecord
280
     1
340
17
  0
XRECORD
  5
5208
102
{ACAD_REACTORS
330
5207
102
}
330
5207
100
AcDbXrecord
280
     1
102
SHADEPLOT
 70
     0
  0
XRECORD
  5
5209
102
{ACAD_REACTORS
330
490D
102
}
330
490D
100
AcDbXrecord
280
     1
102
SHADEPLOT
 70
     0
  0
XRECORD
  5
490E
102
{ACAD_REACTORS
330
490D
102
}
330
490D
100
AcDbXrecord
280
     1
 90
        1
340
1FD0
  0
GROUP
  5
1E2A
102
{ACAD_REACTORS
330
D
102
}
330
D
100
AcDbGroup
300

 70
     1
 71
     1
  0
GROUP
  5
1F4A
102
{ACAD_REACTORS
330
D
102
}
330
D
100
AcDbGroup
300

 70
     1
 71
     1
  0
GROUP
  5
50AB
102
{ACAD_REACTORS
330
D
102
}
330
D
100
AcDbGroup
300

 70
     1
 71
     1
  0
LAYOUT
  5
199D
102
{ACAD_XDICTIONARY
360
520A
102
}
102
{ACAD_REACTORS
330
199B
102
}
330
199B
100
AcDbPlotSettings
  1

  2
EPSON LP-8200
  4

  6

 40
0.0
 41
0.0
 42
0.0
 43
0.0
 44
0.0
 45
0.0
 46
0.0
 47
0.0
 48
0.0
 49
0.0
140
0.0
141
0.0
142
1.0
143
1.0
 70
  1712
 72
     0
 73
     0
 74
     0
  7
monochrome.ctb
 75
     0
147
1.0
148
0.0
149
0.0
100
AcDbLayout
  1
Model
 70
     1
 71
     0
 10
0.0
 20
0.0
 11
12.0
 21
9.0
 12
0.0
 22
0.0
 32
0.0
 14
0.0
 24
0.0
 34
0.0
 15
0.0
 25
0.0
 35
0.0
146
0.0
 13
0.0
 23
0.0
 33
0.0
 16
1.0
 26
0.0
 36
0.0
 17
0.0
 27
1.0
 37
0.0
 76
     0
330
1A
331
43FB
  0
LAYOUT
  5
199E
102
{ACAD_XDICTIONARY
360
1ED6
102
}
102
{ACAD_REACTORS
330
199B
102
}
330
199B
100
AcDbPlotSettings
  1

  2
DWG To PDF.pc3
  4
ISO_expand_A3_(297.00_x_420.00_MM)
  6

 40
5.793749809265136
 41
10.79374980926513
 42
5.79376220703125
 43
10.79376220703125
 44
297.0
 45
420.0
 46
10.19368549221013
 47
6.69758631180116
 48
0.0
 49
0.0
140
0.0
141
0.0
142
1.0
143
1.0
 70
   692
 72
     1
 73
     1
 74
     1
  7
monochrome.ctb
 75
    16
147
1.0
148
-19.98524257639155
149
-16.99738190809148
100
AcDbLayout
  1
ﾚｲｱｳﾄ1
 70
     0
 71
     1
 10
2.493894057559145
 20
1.009946606616209
 11
422.4938940575591
 21
298.0099466066162
 12
0.0
 22
0.0
 32
0.0
 14
19.97680521205063
 24
16.99835063704859
 34
-0.0015258207003583
 15
405.0109848588451
 25
282.0215439591978
 35
0.0000000349246037
146
0.0
 13
0.0
 23
0.0
 33
0.0
 16
1.0
 26
0.0
 36
0.0
 17
0.0
 27
1.0
 37
0.0
 76
     0
330
17
331
22
1001
ACAD_PSEXT
1000
DWG To PDF.pc3
1000
PDF
1000
ファイル
1000

1070
     0
  0
MATERIAL
  5
1FAC
102
{ACAD_XDICTIONARY
360
1FAD
102
}
102
{ACAD_REACTORS
330
1E03
102
}
330
1E03
100
AcDbMaterial
  1
ByBlock
 72
     0
 43
0.0208333333333333
 43
0.0
 43
0.0
 43
0.0
 43
0.0
 43
0.0208333333333333
 43
0.0
 43
0.0
 43
0.0
 43
0.0
 43
1.0
 43
0.0
 43
0.0
 43
0.0
 43
0.0
 43
1.0
 77
     0
 47
0.0208333333333333
 47
0.0
 47
0.0
 47
0.0
 47
0.0
 47
0.0208333333333333
 47
0.0
 47
0.0
 47
0.0
 47
0.0
 47
1.0
 47
0.0
 47
0.0
 47
0.0
 47
0.0
 47
1.0
171
     0
 49
0.0208333333333333
 49
0.0
 49
0.0
 49
0.0
 49
0.0
 49
0.0208333333333333
 49
0.0
 49
0.0
 49
0.0
 49
0.0
 49
1.0
 49
0.0
 49
0.0
 49
0.0
 49
0.0
 49
1.0
175
     0
142
0.0208333333333333
142
0.0
142
0.0
142
0.0
142
0.0
142
0.0208333333333333
142
0.0
142
0.0
142
0.0
142
0.0
142
1.0
142
0.0
142
0.0
142
0.0
142
0.0
142
1.0
179
     0
144
0.0208333333333333
144
0.0
144
0.0
144
0.0
144
0.0
144
0.0208333333333333
144
0.0
144
0.0
144
0.0
144
0.0
144
1.0
144
0.0
144
0.0
144
0.0
144
0.0
144
1.0
147
0.0208333333333333
147
0.0
147
0.0
147
0.0
147
0.0
147
0.0208333333333333
147
0.0
147
0.0
147
0.0
147
0.0
147
1.0
147
0.0
147
0.0
147
0.0
147
0.0
147
1.0
  0
MATERIAL
  5
1FA4
102
{ACAD_XDICTIONARY
360
1FA5
102
}
102
{ACAD_REACTORS
330
1E03
102
}
330
1E03
100
AcDbMaterial
  1
ByLayer
 72
     0
 43
0.0208333333333333
 43
0.0
 43
0.0
 43
0.0
 43
0.0
 43
0.0208333333333333
 43
0.0
 43
0.0
 43
0.0
 43
0.0
 43
1.0
 43
0.0
 43
0.0
 43
0.0
 43
0.0
 43
1.0
 77
     0
 47
0.0208333333333333
 47
0.0
 47
0.0
 47
0.0
 47
0.0
 47
0.0208333333333333
 47
0.0
 47
0.0
 47
0.0
 47
0.0
 47
1.0
 47
0.0
 47
0.0
 47
0.0
 47
0.0
 47
1.0
171
     0
 49
0.0208333333333333
 49
0.0
 49
0.0
 49
0.0
 49
0.0
 49
0.0208333333333333
 49
0.0
 49
0.0
 49
0.0
 49
0.0
 49
1.0
 49
0.0
 49
0.0
 49
0.0
 49
0.0
 49
1.0
175
     0
142
0.0208333333333333
142
0.0
142
0.0
142
0.0
142
0.0
142
0.0208333333333333
142
0.0
142
0.0
142
0.0
142
0.0
142
1.0
142
0.0
142
0.0
142
0.0
142
0.0
142
1.0
179
     0
144
0.0208333333333333
144
0.0
144
0.0
144
0.0
144
0.0
144
0.0208333333333333
144
0.0
144
0.0
144
0.0
144
0.0
144
1.0
144
0.0
144
0.0
144
0.0
144
0.0
144
1.0
147
0.0208333333333333
147
0.0
147
0.0
147
0.0
147
0.0
147
0.0208333333333333
147
0.0
147
0.0
147
0.0
147
0.0
147
1.0
147
0.0
147
0.0
147
0.0
147
0.0
147
1.0
  0
MATERIAL
  5
1FB4
102
{ACAD_XDICTIONARY
360
1FB5
102
}
102
{ACAD_REACTORS
330
1E03
102
}
330
1E03
100
AcDbMaterial
  1
Global
 72
     0
 43
0.0208333333333333
 43
0.0
 43
0.0
 43
0.0
 43
0.0
 43
0.0208333333333333
 43
0.0
 43
0.0
 43
0.0
 43
0.0
 43
1.0
 43
0.0
 43
0.0
 43
0.0
 43
0.0
 43
1.0
 77
     0
 47
0.0208333333333333
 47
0.0
 47
0.0
 47
0.0
 47
0.0
 47
0.0208333333333333
 47
0.0
 47
0.0
 47
0.0
 47
0.0
 47
1.0
 47
0.0
 47
0.0
 47
0.0
 47
0.0
 47
1.0
171
     0
 49
0.0208333333333333
 49
0.0
 49
0.0
 49
0.0
 49
0.0
 49
0.0208333333333333
 49
0.0
 49
0.0
 49
0.0
 49
0.0
 49
1.0
 49
0.0
 49
0.0
 49
0.0
 49
0.0
 49
1.0
175
     0
142
0.0208333333333333
142
0.0
142
0.0
142
0.0
142
0.0
142
0.0208333333333333
142
0.0
142
0.0
142
0.0
142
0.0
142
1.0
142
0.0
142
0.0
142
0.0
142
0.0
142
1.0
179
     0
144
0.0208333333333333
144
0.0
144
0.0
144
0.0
144
0.0
144
0.0208333333333333
144
0.0
144
0.0
144
0.0
144
0.0
144
1.0
144
0.0
144
0.0
144
0.0
144
0.0
144
1.0
147
0.0208333333333333
147
0.0
147
0.0
147
0.0
147
0.0
147
0.0208333333333333
147
0.0
147
0.0
147
0.0
147
0.0
147
1.0
147
0.0
147
0.0
147
0.0
147
0.0
147
1.0
  0
MLEADERSTYLE
  5
1FF0
102
{ACAD_REACTORS
330
1FEF
102
}
330
1FEF
100
AcDbMLeaderStyle
170
     2
171
     1
172
     0
 90
        2
 40
0.0
 41
0.0
173
     1
 91
-1056964608
340
14
 92
       -2
290
     1
 42
2.0
291
     1
 43
0.36
  3
Standard
 44
4.0
300

342
10
174
     1
178
     6
175
     1
176
     0
 93
-1056964608
 45
4.0
292
     0
297
     0
 46
4.0
 94
-1056964608
 47
1.0
 49
1.0
140
1.0
293
     1
141
0.0
294
     1
177
     0
142
1.0
295
     0
296
     0
143
0.125
1001
ACAD
1000
AcRTDxfName
1000
MLEADERSTYLE
1001
ACAD_MLEADERVER
1070
     2
  0
MLINESTYLE
  5
13
102
{ACAD_REACTORS
330
E
102
}
330
E
100
AcDbMlineStyle
  2
STANDARD
 70
     0
  3

 62
     0
 51
90.0
 52
90.0
 71
     2
 49
0.5
 62
   256
  6
BYLAYER
 49
-0.5
 62
   256
  6
BYLAYER
  0
PLOTSETTINGS
  5
1EBB
102
{ACAD_XDICTIONARY
360
520E
102
}
102
{ACAD_REACTORS
330
199C
102
}
330
199C
100
AcDbPlotSettings
  1
【A3用紙】RICOH IPSiO CX8200 RPCS
  2
RICOH IPSiO CX8200 RPCS
  4
A3
  6

 40
5.873749732971191
 41
5.873747825622557
 42
5.873748779296875
 43
5.873748779296875
 44
296.9259948730469
 45
419.9466552734373
 46
0.0
 47
0.0
 48
0.0
 49
0.0
140
0.0
141
0.0
142
1.0
143
1.0
 70
   688
 72
     1
 73
     1
 74
     5
  7
monochrome.ctb
 75
    16
147
1.0
148
0.0
149
0.0
  0
ACDBPLACEHOLDER
  5
199A
102
{ACAD_REACTORS
330
1999
102
}
330
1999
  0
SCALE
  5
4EBC
102
{ACAD_REACTORS
330
1FCD
102
}
330
1FCD
100
AcDbScale
 70
     0
300
0.3-1
140
0.3
141
1.0
290
     0
1001
ACAD
1000
AcRTDxfName
1000
SCALE
1000
AcRTDxfName
1000
SCALE
1000
AcRTDxfName
1000
SCALE
1000
AcRTDxfName
1000
SCALE
1000
AcRTDxfName
1000
SCALE
1000
AcRTDxfName
1000
SCALE
  0
SCALE
  5
4EBD
102
{ACAD_REACTORS
330
1FCD
102
}
330
1FCD
100
AcDbScale
 70
     0
300
0.4
140
0.4
141
1.0
290
     0
1001
ACAD
1000
AcRTDxfName
1000
SCALE
1000
AcRTDxfName
1000
SCALE
1000
AcRTDxfName
1000
SCALE
1000
AcRTDxfName
1000
SCALE
1000
AcRTDxfName
1000
SCALE
1000
AcRTDxfName
1000
SCALE
  0
SCALE
  5
4EBE
102
{ACAD_REACTORS
330
1FCD
102
}
330
1FCD
100
AcDbScale
 70
     0
300
.35
140
0.35
141
1.0
290
     0
1001
ACAD
1000
AcRTDxfName
1000
SCALE
1000
AcRTDxfName
1000
SCALE
1000
AcRTDxfName
1000
SCALE
1000
AcRTDxfName
1000
SCALE
1000
AcRTDxfName
1000
SCALE
1000
AcRTDxfName
1000
SCALE
  0
SCALE
  5
1FCE
102
{ACAD_REACTORS
330
1FCD
102
}
330
1FCD
100
AcDbScale
 70
     0
300
1:1
140
1.0
141
1.0
290
     1
1001
ACAD
1000
AcRTDxfName
1000
SCALE
  0
SCALE
  5
1FCF
102
{ACAD_REACTORS
330
1FCD
102
}
330
1FCD
100
AcDbScale
 70
     0
300
1:2
140
1.0
141
2.0
290
     0
1001
ACAD
1000
AcRTDxfName
1000
SCALE
  0
SCALE
  5
1FD0
102
{ACAD_REACTORS
330
1FCD
102
}
330
1FCD
100
AcDbScale
 70
     0
300
1:4
140
1.0
141
4.0
290
     0
1001
ACAD
1000
AcRTDxfName
1000
SCALE
  0
SCALE
  5
1FD1
102
{ACAD_REACTORS
330
1FCD
102
}
330
1FCD
100
AcDbScale
 70
     0
300
1:5
140
1.0
141
5.0
290
     0
1001
ACAD
1000
AcRTDxfName
1000
SCALE
  0
SCALE
  5
1FD2
102
{ACAD_REACTORS
330
1FCD
102
}
330
1FCD
100
AcDbScale
 70
     0
300
1:8
140
1.0
141
8.0
290
     0
1001
ACAD
1000
AcRTDxfName
1000
SCALE
  0
SCALE
  5
1FD3
102
{ACAD_REACTORS
330
1FCD
102
}
330
1FCD
100
AcDbScale
 70
     0
300
1:10
140
1.0
141
10.0
290
     0
1001
ACAD
1000
AcRTDxfName
1000
SCALE
  0
SCALE
  5
1FD4
102
{ACAD_REACTORS
330
1FCD
102
}
330
1FCD
100
AcDbScale
 70
     0
300
1:16
140
1.0
141
16.0
290
     0
1001
ACAD
1000
AcRTDxfName
1000
SCALE
  0
SCALE
  5
1FD5
102
{ACAD_REACTORS
330
1FCD
102
}
330
1FCD
100
AcDbScale
 70
     0
300
1:20
140
1.0
141
20.0
290
     0
1001
ACAD
1000
AcRTDxfName
1000
SCALE
  0
SCALE
  5
1FD6
102
{ACAD_REACTORS
330
1FCD
102
}
330
1FCD
100
AcDbScale
 70
     0
300
1:30
140
1.0
141
30.0
290
     0
1001
ACAD
1000
AcRTDxfName
1000
SCALE
  0
SCALE
  5
1FD7
102
{ACAD_REACTORS
330
1FCD
102
}
330
1FCD
100
AcDbScale
 70
     0
300
1:40
140
1.0
141
40.0
290
     0
1001
ACAD
1000
AcRTDxfName
1000
SCALE
  0
SCALE
  5
1FD8
102
{ACAD_REACTORS
330
1FCD
102
}
330
1FCD
100
AcDbScale
 70
     0
300
1:50
140
1.0
141
50.0
290
     0
1001
ACAD
1000
AcRTDxfName
1000
SCALE
  0
SCALE
  5
1FD9
102
{ACAD_REACTORS
330
1FCD
102
}
330
1FCD
100
AcDbScale
 70
     0
300
1:100
140
1.0
141
100.0
290
     0
1001
ACAD
1000
AcRTDxfName
1000
SCALE
  0
SCALE
  5
1FDA
102
{ACAD_REACTORS
330
1FCD
102
}
330
1FCD
100
AcDbScale
 70
     0
300
2:1
140
2.0
141
1.0
290
     0
1001
ACAD
1000
AcRTDxfName
1000
SCALE
  0
SCALE
  5
1FDB
102
{ACAD_REACTORS
330
1FCD
102
}
330
1FCD
100
AcDbScale
 70
     0
300
4:1
140
4.0
141
1.0
290
     0
1001
ACAD
1000
AcRTDxfName
1000
SCALE
  0
SCALE
  5
1FDC
102
{ACAD_REACTORS
330
1FCD
102
}
330
1FCD
100
AcDbScale
 70
     0
300
8:1
140
8.0
141
1.0
290
     0
1001
ACAD
1000
AcRTDxfName
1000
SCALE
  0
SCALE
  5
1FDD
102
{ACAD_REACTORS
330
1FCD
102
}
330
1FCD
100
AcDbScale
 70
     0
300
10:1
140
10.0
141
1.0
290
     0
1001
ACAD
1000
AcRTDxfName
1000
SCALE
  0
SCALE
  5
1FDE
102
{ACAD_REACTORS
330
1FCD
102
}
330
1FCD
100
AcDbScale
 70
     0
300
100:1
140
100.0
141
1.0
290
     0
1001
ACAD
1000
AcRTDxfName
1000
SCALE
  0
SCALE
  5
1FDF
102
{ACAD_REACTORS
330
1FCD
102
}
330
1FCD
100
AcDbScale
 70
     0
300
1/128" = 1'-0"
140
0.0078125
141
12.0
290
     0
1001
ACAD
1000
AcRTDxfName
1000
SCALE
  0
SCALE
  5
1FE0
102
{ACAD_REACTORS
330
1FCD
102
}
330
1FCD
100
AcDbScale
 70
     0
300
1/64" = 1'-0"
140
0.015625
141
12.0
290
     0
1001
ACAD
1000
AcRTDxfName
1000
SCALE
  0
SCALE
  5
1FE1
102
{ACAD_REACTORS
330
1FCD
102
}
330
1FCD
100
AcDbScale
 70
     0
300
1/32" = 1'-0"
140
0.03125
141
12.0
290
     0
1001
ACAD
1000
AcRTDxfName
1000
SCALE
  0
SCALE
  5
1FE2
102
{ACAD_REACTORS
330
1FCD
102
}
330
1FCD
100
AcDbScale
 70
     0
300
1/16" = 1'-0"
140
0.0625
141
12.0
290
     0
1001
ACAD
1000
AcRTDxfName
1000
SCALE
  0
SCALE
  5
1FE3
102
{ACAD_REACTORS
330
1FCD
102
}
330
1FCD
100
AcDbScale
 70
     0
300
3/32" = 1'-0"
140
0.09375
141
12.0
290
     0
1001
ACAD
1000
AcRTDxfName
1000
SCALE
  0
SCALE
  5
1FE4
102
{ACAD_REACTORS
330
1FCD
102
}
330
1FCD
100
AcDbScale
 70
     0
300
1/8" = 1'-0"
140
0.125
141
12.0
290
     0
1001
ACAD
1000
AcRTDxfName
1000
SCALE
  0
SCALE
  5
1FE5
102
{ACAD_REACTORS
330
1FCD
102
}
330
1FCD
100
AcDbScale
 70
     0
300
3/16" = 1'-0"
140
0.1875
141
12.0
290
     0
1001
ACAD
1000
AcRTDxfName
1000
SCALE
  0
SCALE
  5
1FE6
102
{ACAD_REACTORS
330
1FCD
102
}
330
1FCD
100
AcDbScale
 70
     0
300
1/4" = 1'-0"
140
0.25
141
12.0
290
     0
1001
ACAD
1000
AcRTDxfName
1000
SCALE
  0
SCALE
  5
1FE7
102
{ACAD_REACTORS
330
1FCD
102
}
330
1FCD
100
AcDbScale
 70
     0
300
3/8" = 1'-0"
140
0.375
141
12.0
290
     0
1001
ACAD
1000
AcRTDxfName
1000
SCALE
  0
SCALE
  5
1FE8
102
{ACAD_REACTORS
330
1FCD
102
}
330
1FCD
100
AcDbScale
 70
     0
300
1/2" = 1'-0"
140
0.5
141
12.0
290
     0
1001
ACAD
1000
AcRTDxfName
1000
SCALE
  0
SCALE
  5
1FE9
102
{ACAD_REACTORS
330
1FCD
102
}
330
1FCD
100
AcDbScale
 70
     0
300
3/4" = 1'-0"
140
0.75
141
12.0
290
     0
1001
ACAD
1000
AcRTDxfName
1000
SCALE
  0
SCALE
  5
1FEA
102
{ACAD_REACTORS
330
1FCD
102
}
330
1FCD
100
AcDbScale
 70
     0
300
1" = 1'-0"
140
1.0
141
12.0
290
     0
1001
ACAD
1000
AcRTDxfName
1000
SCALE
  0
SCALE
  5
1FEB
102
{ACAD_REACTORS
330
1FCD
102
}
330
1FCD
100
AcDbScale
 70
     0
300
1-1/2" = 1'-0"
140
1.5
141
12.0
290
     0
1001
ACAD
1000
AcRTDxfName
1000
SCALE
  0
SCALE
  5
1FEC
102
{ACAD_REACTORS
330
1FCD
102
}
330
1FCD
100
AcDbScale
 70
     0
300
3" = 1'-0"
140
3.0
141
12.0
290
     0
1001
ACAD
1000
AcRTDxfName
1000
SCALE
  0
SCALE
  5
1FED
102
{ACAD_REACTORS
330
1FCD
102
}
330
1FCD
100
AcDbScale
 70
     0
300
6" = 1'-0"
140
6.0
141
12.0
290
     0
1001
ACAD
1000
AcRTDxfName
1000
SCALE
  0
SCALE
  5
1FEE
102
{ACAD_REACTORS
330
1FCD
102
}
330
1FCD
100
AcDbScale
 70
     0
300
1'-0" = 1'-0"
140
12.0
141
12.0
290
     0
1001
ACAD
1000
AcRTDxfName
1000
SCALE
  0
TABLESTYLE
  5
1E06
102
{ACAD_XDICTIONARY
360
3D68
102
}
102
{ACAD_REACTORS
330
1E05
102
}
330
1E05
100
AcDbTableStyle
  3
Standard
 70
     0
 71
     0
 40
1.5
 41
1.5
280
     0
281
     0
  7
STANDARD
140
4.5
170
     2
 62
     0
 63
     7
283
     0
274
    -2
284
     1
 64
     0
275
    -2
285
     1
 65
     0
276
    -2
286
     1
 66
     0
277
    -2
287
     1
 67
     0
278
    -2
288
     1
 68
     0
279
    -2
289
     1
 69
     0
  7
STANDARD
140
6.0
170
     5
 62
     0
 63
     7
283
     0
274
    -2
284
     1
 64
     0
275
    -2
285
     1
 65
     0
276
    -2
286
     1
 66
     0
277
    -2
287
     1
 67
     0
278
    -2
288
     1
 68
     0
279
    -2
289
     1
 69
     0
  7
STANDARD
140
4.5
170
     5
 62
     0
 63
     7
283
     0
274
    -2
284
     1
 64
     0
275
    -2
285
     1
 65
     0
276
    -2
286
     1
 66
     0
277
    -2
287
     1
 67
     0
278
    -2
288
     1
 68
     0
279
    -2
289
     1
 69
     0
  0
VISUALSTYLE
  5
1FC2
102
{ACAD_REACTORS
330
1FBC
102
}
330
1FBC
100
AcDbVisualStyle
  2
2dWireframe
 70
     4
 71
     0
 72
     2
 73
     0
 90
        0
 40
-0.6
 41
-30.0
 62
     5
 63
     7
 74
     1
 91
        4
 64
     7
 65
   257
 75
     1
175
     1
 42
1.0
 92
        0
 66
   257
 43
1.0
 76
     1
 77
     6
 78
     2
 67
     7
 79
     5
170
     0
171
     0
290
     0
174
     0
 93
        1
 44
0.0
173
     0
291
     0
 45
0.0
1001
ACAD
1000
AcRTDxfName
1000
VISUALSTYLE
1000
AcDbSavedByObjectVersion
1070
     0
1000
AcDbSavedByObjectVersion
1070
     0
1000
AcDbSavedByObjectVersion
1070
     0
  0
VISUALSTYLE
  5
1FC4
102
{ACAD_REACTORS
330
1FBC
102
}
330
1FBC
100
AcDbVisualStyle
  2
3D Hidden
 70
     6
 71
     1
 72
     2
 73
     2
 90
        0
 40
-0.6
 41
-30.0
 62
     5
 63
     7
 74
     2
 91
        2
 64
     7
 65
   257
 75
     2
175
     1
 42
40.0
 92
        0
 66
   257
 43
1.0
 76
     1
 77
     6
 78
     2
 67
     7
 79
     3
170
     0
171
     0
290
     0
174
     0
 93
        1
 44
0.0
173
     0
291
     0
 45
0.0
1001
ACAD
1000
AcRTDxfName
1000
VISUALSTYLE
1000
AcDbSavedByObjectVersion
1070
     0
1000
AcDbSavedByObjectVersion
1070
     0
1000
AcDbSavedByObjectVersion
1070
     0
  0
VISUALSTYLE
  5
1FC3
102
{ACAD_REACTORS
330
1FBC
102
}
330
1FBC
100
AcDbVisualStyle
  2
3dWireframe
 70
     5
 71
     0
 72
     2
 73
     0
 90
        0
 40
-0.6
 41
-30.0
 62
     5
 63
     7
 74
     1
 91
        4
 64
     7
 65
   257
 75
     1
175
     1
 42
1.0
 92
        0
 66
   257
 43
1.0
 76
     1
 77
     6
 78
     2
 67
     7
 79
     5
170
     0
171
     0
290
     0
174
     0
 93
        1
 44
0.0
173
     0
291
     0
 45
0.0
1001
ACAD
1000
AcRTDxfName
1000
VISUALSTYLE
1000
AcDbSavedByObjectVersion
1070
     0
1000
AcDbSavedByObjectVersion
1070
     0
1000
AcDbSavedByObjectVersion
1070
     0
  0
VISUALSTYLE
  5
1FC1
102
{ACAD_REACTORS
330
1FBC
102
}
330
1FBC
100
AcDbVisualStyle
  2
Basic
 70
     7
 71
     1
 72
     0
 73
     1
 90
        0
 40
-0.6
 41
-30.0
 62
     5
 63
     7
 74
     0
 91
        4
 64
     7
 65
   257
 75
     1
175
     1
 42
1.0
 92
        8
 66
     7
 43
1.0
 76
     1
 77
     6
 78
     2
 67
     7
 79
     5
170
     0
171
     0
290
     0
174
     0
 93
        1
 44
0.0
173
     0
291
     1
 45
0.0
1001
ACAD
1000
AcRTDxfName
1000
VISUALSTYLE
1000
AcDbSavedByObjectVersion
1070
     0
1000
AcDbSavedByObjectVersion
1070
     0
1000
AcDbSavedByObjectVersion
1070
     0
  0
VISUALSTYLE
  5
1FC8
102
{ACAD_REACTORS
330
1FBC
102
}
330
1FBC
100
AcDbVisualStyle
  2
Brighten
 70
    12
 71
     2
 72
     2
 73
     0
 90
        0
 40
-0.6
 41
-30.0
 62
     5
 63
     7
 74
     1
 91
        4
 64
     7
 65
   257
 75
     1
175
     1
 42
1.0
 92
        8
 66
     7
 43
1.0
 76
     1
 77
     6
 78
     2
 67
     7
 79
     5
170
     0
171
     0
290
     0
174
     0
 93
        1
 44
50.0
173
     0
291
     1
 45
0.0
1001
ACAD
1000
AcRTDxfName
1000
VISUALSTYLE
1000
AcDbSavedByObjectVersion
1070
     0
1000
AcDbSavedByObjectVersion
1070
     0
1000
AcDbSavedByObjectVersion
1070
     0
  0
VISUALSTYLE
  5
1FCC
102
{ACAD_REACTORS
330
1FBC
102
}
330
1FBC
100
AcDbVisualStyle
  2
ColorChange
 70
    16
 71
     2
 72
     2
 73
     3
 90
        0
 40
-0.6
 41
-30.0
 62
     5
 63
     8
 74
     1
 91
        4
 64
     7
 65
   257
 75
     1
175
     1
 42
1.0
 92
        8
 66
     8
 43
1.0
 76
     1
 77
     6
 78
     2
 67
     7
 79
     5
170
     0
171
     0
290
     0
174
     0
 93
        1
 44
0.0
173
     0
291
     1
 45
0.0
1001
ACAD
1000
AcRTDxfName
1000
VISUALSTYLE
1000
AcDbSavedByObjectVersion
1070
     0
1000
AcDbSavedByObjectVersion
1070
     0
1000
AcDbSavedByObjectVersion
1070
     0
  0
VISUALSTYLE
  5
1FC5
102
{ACAD_REACTORS
330
1FBC
102
}
330
1FBC
100
AcDbVisualStyle
  2
Conceptual
 70
     9
 71
     3
 72
     2
 73
     0
 90
        0
 40
-0.6
 41
-30.0
 62
     5
 63
     7
 74
     2
 91
        2
 64
     7
 65
   257
 75
     1
175
     1
 42
40.0
 92
        8
 66
     7
 43
1.0
 76
     1
 77
     6
 78
     2
 67
     7
 79
     3
170
     0
171
     0
290
     0
174
     0
 93
        1
 44
0.0
173
     0
291
     0
 45
0.0
1001
ACAD
1000
AcRTDxfName
1000
VISUALSTYLE
1000
AcDbSavedByObjectVersion
1070
     0
1000
AcDbSavedByObjectVersion
1070
     0
1000
AcDbSavedByObjectVersion
1070
     0
  0
VISUALSTYLE
  5
1FC7
102
{ACAD_REACTORS
330
1FBC
102
}
330
1FBC
100
AcDbVisualStyle
  2
Dim
 70
    11
 71
     2
 72
     2
 73
     0
 90
        0
 40
-0.6
 41
-30.0
 62
     5
 63
     7
 74
     1
 91
        4
 64
     7
 65
   257
 75
     1
175
     1
 42
1.0
 92
        8
 66
     7
 43
1.0
 76
     1
 77
     6
 78
     2
 67
     7
 79
     5
170
     0
171
     0
290
     0
174
     0
 93
        1
 44
-50.0
173
     0
291
     1
 45
0.0
1001
ACAD
1000
AcRTDxfName
1000
VISUALSTYLE
1000
AcDbSavedByObjectVersion
1070
     0
1000
AcDbSavedByObjectVersion
1070
     0
1000
AcDbSavedByObjectVersion
1070
     0
  0
VISUALSTYLE
  5
1FCB
102
{ACAD_REACTORS
330
1FBC
102
}
330
1FBC
100
AcDbVisualStyle
  2
Facepattern
 70
    15
 71
     2
 72
     2
 73
     0
 90
        0
 40
-0.6
 41
-30.0
 62
     5
 63
     7
 74
     1
 91
        4
 64
     7
 65
   257
 75
     1
175
     1
 42
1.0
 92
        8
 66
     7
 43
1.0
 76
     1
 77
     6
 78
     2
 67
     7
 79
     5
170
     0
171
     0
290
     0
174
     0
 93
        1
 44
0.0
173
     0
291
     1
 45
0.0
1001
ACAD
1000
AcRTDxfName
1000
VISUALSTYLE
1000
AcDbSavedByObjectVersion
1070
     0
1000
AcDbSavedByObjectVersion
1070
     0
1000
AcDbSavedByObjectVersion
1070
     0
  0
VISUALSTYLE
  5
1FBD
102
{ACAD_REACTORS
330
1FBC
102
}
330
1FBC
100
AcDbVisualStyle
  2
Flat
 70
     0
 71
     2
 72
     1
 73
     1
 90
        2
 40
-0.6
 41
30.0
 62
     5
 63
     7
 74
     0
 91
        4
 64
     7
 65
   257
 75
     1
175
     1
 42
1.0
 92
        8
 66
     7
 43
1.0
 76
     1
 77
     6
 78
     2
 67
     7
 79
     5
170
     0
171
     0
290
     0
174
     0
 93
       13
 44
0.0
173
     0
291
     1
 45
0.0
1001
ACAD
1000
AcRTDxfName
1000
VISUALSTYLE
1000
AcDbSavedByObjectVersion
1070
     0
1000
AcDbSavedByObjectVersion
1070
     0
1000
AcDbSavedByObjectVersion
1070
     0
  0
VISUALSTYLE
  5
1FBE
102
{ACAD_REACTORS
330
1FBC
102
}
330
1FBC
100
AcDbVisualStyle
  2
FlatWithEdges
 70
     1
 71
     2
 72
     1
 73
     1
 90
        2
 40
-0.6
 41
30.0
 62
     5
 63
     7
 74
     1
 91
        4
 64
     7
 65
   257
 75
     1
175
     1
 42
1.0
 92
        0
 66
   257
 43
1.0
 76
     1
 77
     6
 78
     2
 67
     7
 79
     5
170
     0
171
     0
290
     0
174
     0
 93
       13
 44
0.0
173
     0
291
     1
 45
0.0
1001
ACAD
1000
AcRTDxfName
1000
VISUALSTYLE
1000
AcDbSavedByObjectVersion
1070
     0
1000
AcDbSavedByObjectVersion
1070
     0
1000
AcDbSavedByObjectVersion
1070
     0
  0
VISUALSTYLE
  5
1FBF
102
{ACAD_REACTORS
330
1FBC
102
}
330
1FBC
100
AcDbVisualStyle
  2
Gouraud
 70
     2
 71
     2
 72
     2
 73
     1
 90
        2
 40
-0.6
 41
30.0
 62
     5
 63
     7
 74
     0
 91
        4
 64
     7
 65
   257
 75
     1
175
     1
 42
1.0
 92
        0
 66
     7
 43
1.0
 76
     1
 77
     6
 78
     2
 67
     7
 79
     5
170
     0
171
     0
290
     0
174
     0
 93
       13
 44
0.0
173
     0
291
     1
 45
0.0
1001
ACAD
1000
AcRTDxfName
1000
VISUALSTYLE
1000
AcDbSavedByObjectVersion
1070
     0
1000
AcDbSavedByObjectVersion
1070
     0
1000
AcDbSavedByObjectVersion
1070
     0
  0
VISUALSTYLE
  5
1FC0
102
{ACAD_REACTORS
330
1FBC
102
}
330
1FBC
100
AcDbVisualStyle
  2
GouraudWithEdges
 70
     3
 71
     2
 72
     2
 73
     1
 90
        2
 40
-0.6
 41
30.0
 62
     5
 63
     7
 74
     1
 91
        4
 64
     7
 65
   257
 75
     1
175
     1
 42
1.0
 92
        0
 66
   257
 43
1.0
 76
     1
 77
     6
 78
     2
 67
     7
 79
     5
170
     0
171
     0
290
     0
174
     0
 93
       13
 44
0.0
173
     0
291
     1
 45
0.0
1001
ACAD
1000
AcRTDxfName
1000
VISUALSTYLE
1000
AcDbSavedByObjectVersion
1070
     0
1000
AcDbSavedByObjectVersion
1070
     0
1000
AcDbSavedByObjectVersion
1070
     0
  0
VISUALSTYLE
  5
1FCA
102
{ACAD_REACTORS
330
1FBC
102
}
330
1FBC
100
AcDbVisualStyle
  2
Linepattern
 70
    14
 71
     2
 72
     2
 73
     0
 90
        0
 40
-0.6
 41
-30.0
 62
     5
 63
     7
 74
     1
 91
        4
 64
     7
 65
   257
 75
     7
175
     7
 42
1.0
 92
        8
 66
     7
 43
1.0
 76
     1
 77
     6
 78
     2
 67
     7
 79
     5
170
     0
171
     0
290
     0
174
     0
 93
        1
 44
0.0
173
     0
291
     1
 45
0.0
1001
ACAD
1000
AcRTDxfName
1000
VISUALSTYLE
1000
AcDbSavedByObjectVersion
1070
     0
1000
AcDbSavedByObjectVersion
1070
     0
1000
AcDbSavedByObjectVersion
1070
     0
  0
VISUALSTYLE
  5
1FC6
102
{ACAD_REACTORS
330
1FBC
102
}
330
1FBC
100
AcDbVisualStyle
  2
Realistic
 70
     8
 71
     2
 72
     2
 73
     0
 90
        0
 40
-0.6
 41
-30.0
 62
     5
 63
     7
 74
     1
 91
        0
 64
     7
 65
   257
 75
     1
175
     1
 42
1.0
 92
        8
 66
     8
 43
1.0
 76
     1
 77
     6
 78
     2
 67
     7
 79
     5
170
     0
171
     0
290
     0
174
     0
 93
       13
 44
0.0
173
     0
291
     0
 45
0.0
1001
ACAD
1000
AcRTDxfName
1000
VISUALSTYLE
1000
AcDbSavedByObjectVersion
1070
     0
1000
AcDbSavedByObjectVersion
1070
     0
1000
AcDbSavedByObjectVersion
1070
     0
  0
VISUALSTYLE
  5
1FC9
102
{ACAD_REACTORS
330
1FBC
102
}
330
1FBC
100
AcDbVisualStyle
  2
Thicken
 70
    13
 71
     2
 72
     2
 73
     0
 90
        0
 40
-0.6
 41
-30.0
 62
     5
 63
     7
 74
     1
 91
        4
 64
     7
 65
   257
 75
     1
175
     1
 42
1.0
 92
       12
 66
     7
 43
1.0
 76
     1
 77
     6
 78
     2
 67
     7
 79
     5
170
     0
171
     0
290
     0
174
     0
 93
        1
 44
0.0
173
     0
291
     1
 45
0.0
1001
ACAD
1000
AcRTDxfName
1000
VISUALSTYLE
1000
AcDbSavedByObjectVersion
1070
     0
1000
AcDbSavedByObjectVersion
1070
     0
1000
AcDbSavedByObjectVersion
1070
     0
  0
DICTIONARYVAR
  5
3DA0
102
{ACAD_REACTORS
330
1E00
102
}
330
1E00
100
DictionaryVariables
280
     0
  1
1:1
  0
DICTIONARYVAR
  5
3D9F
102
{ACAD_REACTORS
330
1E00
102
}
330
1E00
100
DictionaryVariables
280
     0
  1
STANDARD
  0
DICTIONARYVAR
  5
1EC9
102
{ACAD_REACTORS
330
1E00
102
}
330
1E00
100
DictionaryVariables
280
     0
  1
STANDARD
  0
DICTIONARYVAR
  5
1E01
102
{ACAD_REACTORS
330
1E00
102
}
330
1E00
100
DictionaryVariables
280
     0
  1
1
  0
DICTIONARYVAR
  5
3DA2
102
{ACAD_REACTORS
330
1E00
102
}
330
1E00
100
DictionaryVariables
280
     0
  1
0
  0
DICTIONARYVAR
  5
1ECA
102
{ACAD_REACTORS
330
1E00
102
}
330
1E00
100
DictionaryVariables
280
     0
  1

  0
DICTIONARYVAR
  5
3DA1
102
{ACAD_REACTORS
330
1E00
102
}
330
1E00
100
DictionaryVariables
280
     0
  1
127
  0
DICTIONARY
  5
520A
330
199D
100
AcDbDictionary
280
     1
281
     1
  3
ACAD_XREC_ROUNDTRIP
360
520B
  0
DICTIONARY
  5
1ED6
330
199E
100
AcDbDictionary
280
     1
281
     1
  3
ACAD_XREC_ROUNDTRIP
360
520C
  3
ADSK_XREC_LAYOUTTHUMBNAIL
360
1ED7
  0
DICTIONARY
  5
1FAD
330
1FAC
100
AcDbDictionary
280
     1
281
     1
  3
ACAD_XREC_ROUNDTRIP
360
4994
  3
BUMPTILE
360
1FAF
  3
DIFFUSETILE
360
1FAE
  3
OPACITYTILE
360
1FB2
  3
REFLECTIONTILE
360
1FB1
  3
REFRACTIONTILE
360
1FB3
  3
SPECULARTILE
360
1FB0
  0
DICTIONARY
  5
1FA5
330
1FA4
100
AcDbDictionary
280
     1
281
     1
  3
ACAD_XREC_ROUNDTRIP
360
4993
  3
BUMPTILE
360
1FA7
  3
DIFFUSETILE
360
1FA6
  3
OPACITYTILE
360
1FAA
  3
REFLECTIONTILE
360
1FA9
  3
REFRACTIONTILE
360
1FAB
  3
SPECULARTILE
360
1FA8
  0
DICTIONARY
  5
1FB5
330
1FB4
100
AcDbDictionary
280
     1
281
     1
  3
ACAD_XREC_ROUNDTRIP
360
4995
  3
BUMPTILE
360
1FB7
  3
DIFFUSETILE
360
1FB6
  3
OPACITYTILE
360
1FBA
  3
REFLECTIONTILE
360
1FB9
  3
REFRACTIONTILE
360
1FBB
  3
SPECULARTILE
360
1FB8
  0
DICTIONARY
  5
520E
330
1EBB
100
AcDbDictionary
280
     1
281
     1
  3
ACAD_XREC_ROUNDTRIP
360
520F
  0
DICTIONARY
  5
3D68
330
1E06
100
AcDbDictionary
280
     1
281
     1
  3
ACAD_ROUNDTRIP_2008_TABLESTYLE_CELLSTYLEMAP
360
5205
  3
ACAD_XREC_ROUNDTRIP
360
520D
  0
XRECORD
  5
520B
102
{ACAD_REACTORS
330
520A
102
}
330
520A
100
AcDbXrecord
280
     1
102
SHADEPLOT
 70
     0
102
SHADEPLOTRESLEVEL
 70
     2
102
SHADEPLOTCUSTOMDPI
 70
   300
  0
XRECORD
  5
520C
102
{ACAD_REACTORS
330
1ED6
102
}
330
1ED6
100
AcDbXrecord
280
     1
102
SHADEPLOT
 70
     0
102
SHADEPLOTRESLEVEL
 70
     2
102
SHADEPLOTCUSTOMDPI
 70
   300
  0
XRECORD
  5
1ED7
102
{ACAD_REACTORS
330
1ED6
102
}
330
1ED6
100
AcDbXrecord
280
     1
310
28000000B40000007F00000001000800000000004C590000000000000000000000010000000000000000000000FF0000000000000000000000000000000000000000000000000000000000000000000000000000330000006600000099000000CC000000FF00000000330000333300006633000099330000CC330000FF3300
310
0000660000336600006666000099660000CC660000FF66000000990000339900006699000099990000CC990000FF99000000CC000033CC000066CC000099CC0000CCCC0000FFCC000000FF000033FF000066FF000099FF0000CCFF0000FFFF000000003300330033006600330099003300CC003300FF003300003333003333
310
33006633330099333300CC333300FF33330000663300336633006666330099663300CC663300FF66330000993300339933006699330099993300CC993300FF99330000CC330033CC330066CC330099CC3300CCCC3300FFCC330000FF330033FF330066FF330099FF3300CCFF3300FFFF330000006600330066006600660099
310
006600CC006600FF00660000336600333366006633660099336600CC336600FF33660000666600336666006666660099666600CC666600FF66660000996600339966006699660099996600CC996600FF99660000CC660033CC660066CC660099CC6600CCCC6600FFCC660000FF660033FF660066FF660099FF6600CCFF6600
310
FFFF660000009900330099006600990099009900CC009900FF00990000339900333399006633990099339900CC339900FF33990000669900336699006666990099669900CC669900FF66990000999900339999006699990099999900CC999900FF99990000CC990033CC990066CC990099CC9900CCCC9900FFCC990000FF99
310
0033FF990066FF990099FF9900CCFF9900FFFF99000000CC003300CC006600CC009900CC00CC00CC00FF00CC000033CC003333CC006633CC009933CC00CC33CC00FF33CC000066CC003366CC006666CC009966CC00CC66CC00FF66CC000099CC003399CC006699CC009999CC00CC99CC00FF99CC0000CCCC0033CCCC0066CC
310
CC0099CCCC00CCCCCC00FFCCCC0000FFCC0033FFCC0066FFCC0099FFCC00CCFFCC00FFFFCC000000FF003300FF006600FF009900FF00CC00FF00FF00FF000033FF003333FF006633FF009933FF00CC33FF00FF33FF000066FF003366FF006666FF009966FF00CC66FF00FF66FF000099FF003399FF006699FF009999FF00CC
310
99FF00FF99FF0000CCFF0033CCFF0066CCFF0099CCFF00CCCCFF00FFCCFF0000FFFF0033FFFF0066FFFF0099FFFF00CCFFFF00FFFFFF00000000000D0D0D001A1A1A00282828003535350043434300505050005D5D5D006B6B6B00787878008686860093939300A1A1A100AEAEAE00BBBBBB00C9C9C900D6D6D600E4E4E400
310
F1F1F100FFFFFF0000000000000000000000000000000000000000000000000000000000000000000000000000000000F5F5F5F5F5F5F5F5F5F5F5F5F5F5F5F5F5F5F5F5F5F5F5F5F5F5F5F5F5F5F5F5F5F5F5F5F5F5F5F5F5F5F5F5F5F5F5F5F5F5F5F5F5F5F5F5F5F5F5F5F5F5F5F5F5F5F5F5F5F5F5F5F5F5F5F5F5F5F5
310
F5F5F5F5F5F5F5F5F5F5F5F5F5F5F5F5F5F5F5F5F5F5F5F5F5F5F5F5F5F5F5F5F5F5F5F5F5F5F5F5F5F5F5F5F5F5F5F5F5F5F5F5F5F5F5F5F5F5F5F5F5F5F5F5F5F5F5F5F5F5F5F5F5F5F5F5F5F5F5F5F5F5F5F5F5F5F5F5F5F5F5F5F5F5F5F5F5F5F5F5F5F5E2E2E2E2E2E2E2E2E2E2E2E2E2E2E2E2E2E2E2E2E2E2E2E2E2
310
E2E2E2E2E2E2E2E2E2E2E2E2E2E2E2E2E2E2E2E2E2E2E2E2E2E2E2E2E2E2E2E2E2E2E2E2E2E2E2E2E2E2E2E2E2E2E2E2E2E2E2E2E2E2E2E2E2E2E2E2E2E2E2E2E2E2E2E2E2E2E2E2E2E2E2E2E2E2E2E2E2E2E2E2E2E2E2E2E2E2E2E2E2E2E2E2E2E2E2E2E2E2E2E2E2E2E2E2E2E2E2E2E2E2E2E2E2E2E2E2E2E2E2E2E2E2E2
310
E2E2E2E2E2E2E2E2E2E2E2E2E2E2E2E2E2E2E2E2E2E2E2E2E2F5F5F5E2E2E2E2E2E2E2E2E2E2E2E2E2E2E2E2E2E2E2E2E2E2E2E2E2E2E2E2E2E2E2E2E2E2E2E2E2E2E2E2E2E2E2E2E2E2E2E2E2E2E2E2E2E2E2E2E2E2E2E2E2E2E2E2E2E2E2E2E2E2E2E2E2E2E2E2E2E2E2E2E2E2E2E2E2E2E2E2E2E2E2E2E2E2E2E2E2E2E2
310
E2E2E2E2E2E2E2E2E2E2E2E2E2E2E2E2E2E2E2E2E2E2E2E2E2E2E2E2E2E2E2E2E2E2E2E2E2E2E2E2E2E2E2E2E2E2E2E2E2E2E2E2E2E2E2E2E2E2E2E2E2E2E2E2E2E2E2E2E2E2E2E2E2E2E2E2E2E2F5F5F5E2E2E2F5F5F5F5F5F5F5F5E2E2E2E2E2E2E2E2E2F5F5F5F5F5F5F5F5F5F5F5F5F5F5F5F5E2E2E2E2E2E2E2E2F5F5
310
F5F5F5F5F5F5F5F5F5F5F5F5F5F5E2E2E2E2E2E2E2E2E2F5F5F5F5F5F5F5F5F5F5F5F5F5F5F5E2E2E2E2E2E2E2E2E2F5F5F5F5F5F5F5F5F5F5F5F5F5F5F5E2E2E2E2E2E2E2E2E2F5F5F5F5F5F5F5F5F5F5F5F5F5F5F5F5E2E2E2E2E2E2E2E2F5F5F5F5F5F5F5F5F5F5F5F5F5F5F5F5E2E2E2E2E2E2E2E2E2F5F5F5F5F5F5F5
310
F5E2E2E2F5F5F5E2E2E2F5E2E2E2E2E2E2E2E2E2E2E2E2E2E2E2E2E2E2E2E2E2E2E2E2E2E2E2E2E2E2E2E2E2E2E2E2E2E2E2E2E2E2E2E2E2E2E2E2E2E2E2E2E2E2E2E2E2E2E2E2E2E2E2E2E2E2E2E2E2E2E2E2E2E2E2E2E2E2E2E2E2E2E2E2E2E2E2E2E2E2E2E2E2E2E2E2E2E2E2E2E2E2E2E2E2E2E2E2E2E2E2E2E2E2E2E2
310
E2E2E2E2E2E2E2E2E2E2E2E2E2E2E2E2E2E2E2E2E2E2E2E2E2E2E2E2E2E2E2E2E2E2E2E2E2E2E2E2E2E2E2E2E2E2E2E2E2E2E2E2E2F5E2E2E2F5F5F5E2E2E2F5E2E2E2E2E2E2E2E2E2E2E2E2E2E2E2E2E2E2E2E2E2E2E2E2E2E2E2E2E2E2E2E2E2E2E2E2E2E2E2E2E2E2E2E2E2E2E2E2E2E2E2E2E2E2E2E2E2E2E2E2E2E2E2
310
E2E2E2E2E2E2E2E2E2E2E2E2E2E2E2E2E2E2E2E2E2E2E2E2E2E2E2E2E2E2E2E2E2E2E2E2E2E2E2E2E2E2E2E2E2E2E2E2E2E2E2E2E2E2E2E2E2E2E2E2E2E2E2E2E2E2E2E2E2E2E2E2E2E2E2E2E2E2E2E2E2E2E2E2E2E2E2E2E2E2E2E2E2E2E2E2E2E2E2E2E2E2E2E2E2E2F5E2E2E2F5F5F5E2E2E2F5E2E2E2E2E2E2E2E2E2E2
310
E2E2E2E2E2E2E2E2E2E2E2E2E2E2E2E2E2E2E2E2E2E2E2E2E2E2E2E2E2E2E2E2E2E2E2E2E2E2E2E2E2E2E2E2E2E2E2E2E2E2E2E2E2E2E2E2E2E2E2E2E2E2E2E2E2E2E2E2E2E2E2E2E2E2E2E2E2E2E2E2E2E2E2E2E2E2E2E2E2E2E2E2E2E2E2E2E2E2E2E2E2E2E2E2E2E2E2E2E2E2E2E2E2E2E2E2E2E2E2E2E2E2E2E2E2E2E2
310
E2E2E2E2E2E2E2E2E2E2E2E2E2E2E2E2E2E2E2E2E2E2E2E2E2E2E2E2E2E2E2E2F5E2E2E2F5F5F5E2E2E2F5E2E2F5F5F5F5F5F5F5F5F5F5F5F5F5F5F5F5F5F5F5F5F5F5F5F5F5F5F5F5F5F5F5F5F5F5F5F5F5F5F5F5F5F5F5F5F5F5F5F5F5F5F5F5F5F5F5F5F5F5F5F5F5F5F5F5F5F5F5F5F5F5F5F5F5F5F5F5F5F5F5F5F5F5
310
F5F5F5F5F5F5F5F5F5F5F5F5F5F5F5F5F5F5F5F5F5F5F5F5F5F5F5F5F5F5F5F5F5F5F5F5F5F5F5F5F5F5F5F5F5F5F5F5F5F5F5F5F5F5F5F5F5F5F5F5F5F5F5F5F5F5F5F5F5F5F5F5F5F5F5F5F5F5F5F5F5F5F5E2E2F5E2E2E2F5F5F5E2E2E2F5E2E2F5E2E2E2E2E2E2E2E2E2E2E2E2E2E2E2E2E2E2E2E2E2E2E2E2E2E2E2E2
310
E2E2E2E2E2E2E2E2E2E2E2E2E2E2E2E2E2E2E2E2E2E2E2E2E2E2E2E2E2E2E2E2E2E2E2E2E2E2E2E2E2E2E2E2E2E2E2E2E2E2E2E2E2E2E2E2E2E2E2E2E2E2E2E2E2E2E2E2E2E2E2E2E2E2E2E2E2E2E2E2E2E2E2E2E2E2E2E2E2E2E2E2E2E2E2E2E2E2E2E2E2E2E2E2E2E2E2E2E2E2E2E2E2E2E2E2E2E2E2E2E2E2E2E2E2E2E2
310
E2E2E2E2E2E2E2E2F5E2E2F5E2E2E2F5F5F5E2E2E2F5E2E2F5E2E2E2E2E2E2E2E2E2E2E2E2E2E2E2E2E2E2E2E2E2E2E2E2E2E2E2E2E2E2E2E2E2E2E2E2E2E2E2E2E2E2E2E2E2E2E2E2E2E2E2E2E2E2E2E2E2E2E2E2E2E2E2E2E2E2E2E2E2E2E2E2E2E2E2E2E2E2E2E2E2E2E2E2E2E2E2E2E2E2E2E2E2E2E2E2E2E2E2E2E2E2
310
E2E2E2E2E2E2E2E2E2E2E2E2E2E2E2E2E2E2E2E2E2E2E2E2E2E2E2E2E2E2E2E2E2E2E2E2E2E2E2E2E2E2E2E2E2E2E2E2E2E2E2E2E2E2E2E2E2E2E2E2E2F5E2E2F5E2E2E2F5F5F5E2E2E2F5E2E2F5E2E2E2E2E2E2E2E2E2E2E2E2E2E2E2E2E2E2E2E2E2E2E2E2E2E2E2E2E2E2E2E2E2E2E2E2E2E2E2E2E2E2E2E2E2E2E2E2E2
310
E2E2E2E2E2E2E2E2E2E2E2E2E2E2E2E2E2E2E2E2E2E2E2E2E2E2E2E2E2E2E2E2E2E2E2E2E2E2E2E2E2E2E2E2E2E2E2E2E2E2E2E2E2E2E2E2E2E2E2E2E2E2E2E2E2E2E2E2E2E2E2E2E2E2E2E2E2E2E2E2E2E2E2E2E2E2E2E2E2E2E2E2E2E2E2E2E2E2E2E2E2E2E2E2E2E2E2E2E2E2E2E2E2E2F5E2E2F5E2E2E2F5F5F5E2E2E2
310
E2E2E2F5E2E2E2E2E2E2E2E2E2E2E2E2E2E2E2E2E2E2E2E2E2E2E2E2E2E2E2E2E2E2E2E2E2E2E2E2E2E2E2E2E2E2E2E2E2E2E2E2E2E2E2E2E2E2E2E2E2E2E2E2E2E2E2E2E2E2E2E2E2E2E2E2E2E2E2E2E2E2E2E2E2E2E2E2E2E2E2E2E2E2E2E2E2E2E2E2E2E2E2E2E2E2E2E2E2E2E2E2E2E2E2E2E2E2E2E2E2E2E2E2E2E2E2
310
E2E2E2E2E2E2E2E2E2E2E2E2E2E2E2E2E2E2E2E2E2E2E2E2E2E2E2E2E2E2E2E2E2E2E2E2E2E2E2E2F5E2E2E2E2E2E2F5F5F5E2E2E2E2E2E2F5E2E2E2E2E2E2E2E2E2E2E2E2E2E2E2E2E2E2E2E2E2E2E2E2E2E2E2E2E2E2E2E2E2E2E2E2E2E2E2E2E2E2E2E2E2E2E2E2E2E2E2E2E2E2E2E2E2E2E2E2E2E2E2E2E2E2E2E2E2E2
310
E2E2E2E2E2E2E2E2E2E2E2E2E2E2E2E2E2E2E2E2E2E2E2E2E2E2E2E2E2E2E2E2E2E2E2E2E2E2E2E2E2E2E2E2E2E2E2E2E2E2E2E2E2E2E2E2E2E2E2E2E2E2E2E2E2E2E2E2E2E2E2E2E2E2E2E2E2E2E2E2E2E2E2E2E2E2E2E2E2E2E2E2E2F5E2E2E2E2E2E2F5F5F5E2E2E2E2E2E2F5E2E2E2E2E2E2E2E2E2E2E2E2E2E2E2E2E2
310
E2E2E2E2E2E2E2E2E2E2E2E2E2E2E2E2E2E2E2E2E2E2E2E2E2E2E2E2E2E2E2E2E2E2E2E2E2E2E2E2E2E2E2E2E2E2E2E2E2E2E2E2E2E2E2E2E2E2E2E2E2E2E2E2E2E2E2E2E2E2E2E2E2E2E2E2E2E2E2E2E2E2E2E2E2E2E2E2E2E2E2E2E2E2E2E2E2E2E2E2E2E2E2E2E2E2E2E2E2E2E2E2E2E2E2E2E2E2E2E2E2E2E2E2E2E2E2
310
E2E2E2E2E2E2E2E2E2E2E2E2E2E2E2E2E2E2E2F5E2E2E2E2E2E2F5F5F5E2E2E2E2E2E2F5E2E2E2E2E2E2E2E2E2E2E2E2E2E2E2E2E2E2E2E2E2E2E2E2E2E2E2E2E2E2E2E2E2E2E2E2E2E2E2E2E2E2E2E2E2E2E2E2E2E2E2E2E2E2E2E2E2E2E2E2E2E2E2E2E2E2E2E2E2E2E2E2E2E2E2E2E2E2E2E2E2E2E2E2E2E2E2E2E2E2E2
310
E2E2E2E2E2E2E2E2E2E2E2E2E2E2E2E2E2E2E2E2E2E2E2E2E2E2E2E2E2E2E2E2E2E2E2E2E2E2E2E2E2E2E2E2E2E2E2E2E2E2E2E2E2E2E2E2E2E2E2E2E2E2E2E2E2E2E2E2E2E2E2E2F5E2E2E2E2E2E2F5F5F5E2E2E2E2E2E2F5E2E2E2E2E2E2E2E2E2E2E2E2E2E2E2E2E2E2E2E2E2E2E2E2E2E2E2E2E2E2E2E2E2E2E2E2E2E2
310
E2E2E2E2E2E2E2E2E2E2E2E2E2E2E2E2E2E2E2E2E2E2E2E2E2E2E2E2E2E2E2E2E2E2E2E2E2E2E2E2E2E2E2E2E2E2E2E2E2E2E2E2E2E2E2E2E2E2E2E2E2E2E2E2E2E2E2E2E2E2E2E2E2E2E2E2E2E2E2E2E2E2E2E2E2E2E2E2E2E2E2E2E2E2E2E2E2E2E2E2E2E2E2E2E2E2E2E2E2E2E2E2E2E2E2E2E2E2E2E2E2E2E2E2E2F5E2
310
E2E2E2E2E2F5F5F5E2E2E2E2E2E2F5E2E2E2E2E2E2E2E2E2E2E2E2E2E2E2E2E2E2E2E2E2E2E2E2E2E2E2E2E2E2E2E2E2E2E2E2E2E2E2E2E2E2E2E2E2E2E2E2E2E2E2E2E2E2E2E2E2E2E2E2E2E2E2E2E2E2E2E2E2E2E2E2E2E2E2E2E2E2E2E2E2E2E2E2E2E2E2E2E2E2E2E2E2E2E2E2E2E2E2E2E2E2E2E2E2E2E2E2E2E2E2E2
310
E2E2E2E2E2E2E2E2E2E2E2E2E2E2E2E2E2E2E2E2E2E2E2E2E2E2E2E2E2E2E2E2E2E2E2E2E2E2E2E2E2E2E2E2E2E2E2E2E2E2E2F5E2E2E2E2E2E2F5F5F5E2E2E2E2E2E2F5E2E2E2E2E2E2E2E2E2E2E2E2E2E2E2E2E2E2E2E2E2E2E2E2E2E2E2E2E2E2E2E2E2E2E2E2E2E2E2E2E2E2E2E2E2E2E2E2E2E2E2E2E2E2E2E2E2E2E2
310
E2E2E2E2E2E2E2E2E2E2E2E2E2E2E2E2E2E2E2E2E2E2E2E2E2E2E2E2E2E2E2E2E2E2E2E2E2E2E2E2E2E2E2E2E2E2E2E2E2E2E2E2E2E2E2E2E2E2E2E2E2E2E2E2E2E2E2E2E2E2E2E2E2E2E2E2E2E2E2E2E2E2E2E2E2E2E2E2E2E2E2E2E2E2E2E2E2E2E2E2E2E2E2E2F5E2E2E2E2E2E2F5F5F5E2E2E2E2E2E2F5E2E2E2E2E2E2
310
E2E2E2E2E2E2E2E2E2E2E2E2E2E2E2E2E2E2E2E2E2E2E2E2E2E2E2E2E2E2E2E2E2E2E2E2E2E2E2E2E2E2E2E2E2E2E2E2E2E2E2E2E2E2E2E2E2E2E2E2E2E2E2E2E2E2E2E2E2E2E2E2E2E2E2E2E2E2E2E2E2E2E2E2E2E2E2E2E2E2E2E2E2E2E2E2E2E2E2E2E2E2E2E2E2E2E2E2E2E2E2E2E2E2E2E2E2E2E2E2E2E2E2E2E2E2E2
310
E2E2E2E2E2E2E2E2E2E2E2E2E2E2E2E2E2E2E2E2E2E2E2E2E2E2E2E2E2E2F5E2E2E2E2E2E2F5F5F5E2E2E2E2E2E2F5E2E2E2E2E2E2E2E2E2E2E2E2E2E2E2E2E2E2E2E2E2E2E2E2E2E2E2E2E2E2E2E2E2E2E2E2E2E2E2E2E2E2E2E2E2E2E2E2E2E2E2E2E2E2E2E2E2E2E2E2E2E2E2E2E2E2E2E2E2E2E2E2E2E2E2F0E2E2E2E2
310
E2E2E2E2E2E2E2E2E2E2E2E2E2E2E2E2E2E2E2E2E2E2E2E2E2E2E2E2E2E2E2E2E2E2E2E2E2E2E2E2E2E2E2E2E2E2E2E2E2E2E2E2E2E2E2E2E2E2E2E2E2E2E2E2E2F0E2E2E2E2E2E2E2E2E2E2E2E2E2E2E2E2E2F5E2E2E2E2E2E2F5F5F5E2E2E2F5E2E2F5E2E2E2E2E2E2E2E2E2E2E2E2E2E2E2E2E2E2E2E2E2E2E2E2E2E2E2
310
E2E2E2E2E2E2E2E2E2E2E2E2E2E2E2E2E2E2E2E2E2E2E2E2E2E2E2E2E2E2E2E2E2E2E2E2E2E2E2E2E2E2E2E2E2E2E2E2F0F0F0F0F0F0F0F0F0F0F0F0F0F0F0F0F0F0F0F0F0F0F0F0F0F0F0F0F0F0F0F0F0DCDCDCDCDCF0F0F0F0F0F0F0F0F0F0F0F0F0F0F0F0F0F0F0F0F0F0F0F0F0F0F0F0F0F0F0F0F0E2E2E2E2E2E2E2E2
310
E2E2E2E2E2E2E2E2E2F5E2E2F5E2E2E2F5F5F5E2E2E2F5E2E2F5E2E2E2E2E2E2E2E2E2E2E2E2E2E2E2E2E2E2E2E2E2E2E2E2E2E2E2E2E2E2E2E2E2E2E2E2E2E2E2E2E2E2E2E2E2E2E2E2E2E2E2E2E2E2E2E2E2E2E2E2E2E2E2E2E2E2E2E2E2E2E2E2E2E2E2F0E2E2E2E2E2E2E2E2E2E2E2E2E2E2E2E2E2E2E2E2E2E2E2E2E2
310
E2E2E2E2E2E2E2DCDCDCDCDCE2E2E2E2E2E2E2E2E2E2E2E2E2E2E2E2E2E2E2E2E2E2E2E2E2E2E2E2E2E2E2E2F0E2E2E2E2E2E2E2E2E2E2E2E2E2E2E2E2E2F5E2E2F5E2E2E2F5F5F5E2E2E2F5E2E2F5E2E2E2E2E2E2E2E2E2E2E2E2E2E2E2E2E2E2E2E2E2E2E2E2E2E2E2E2E2E2E2E2E2E2E2E2E2E2E2E2E2E2E2E2E2E2E2E2
310
E2E2E2E2E2E2E2E2E2E2E2E2E2E2E2E2E2E2E2E2E2E2E2E2E2E2E2F0E2E2E2E2E2E2E2E2E2E2E2E2E2E2E2E2E2E2E2E2E2E2E2E2E2E2E2E2E2E2E2E2DCDCDCDCDCE2E2E2E2E2E2E2E2E2E2E2E2E2E2E2E2E2E2E2E2E2E2E2E2E2E2E2E2E2E2E2E2F0E2E2E2E2E2E2E2E2E2E2E2E2E2E2E2E2E2F5E2E2F5E2E2E2F5F5F5E2E2
310
E2F5E2E2F5E2E2E2E2E2E2E2E2E2E2E2E2E2E2E2E2E2E2E2E2E2E2E2E2E2E2E2E2E2E2E2E2E2E2E2E2E2E2E2E2E2E2E2E2E2E2E2E2E2E2E2E2E2E2E2E2E2E2E2E2E2E2E2E2E2E2E2E2E2E2E2E2E2E2E2F0E2E2E2E2E2E2E2E2E2E2E2E2E2E2E2E2E2E2E2E2E2E2E2E2E2E2E2E2E2E2E2E2E2E2E2E2E2E2E2E2E2E2E2E2E2E2
310
E2E2E2E2E2E2E2E2E2E2E2E2E2E2E2E2E2E2E2E2E2E2E2F0E2E2E2E2E2E2E2E2E2E2E2E2E2E2E2E2E2F5E2E2F5E2E2E2F5F5F5E2E2E2F5E2E2F5E2E2E2E2E2E2E2E2E2E2E2E2E2F0F0E2E2E2E2E2E2E2E2E2E2E2E2E2E2E2E2E2E2E2E2E2E2F0E2F0E2E2E2E2E2E2E2E2E2E2E2E2E2E2E2E2E2E2E2E2E2E2E2E2E2E2E2E2E2
310
E2E2E2E2E2E2F0F0E2F0E2F0F0E2E2E2E2E2E2E2E2E2E2E2E2E2E2E2E2E2E2E2E2E2E2E2E2E2E2E2E2E2E2E2E2F0F0E2F0E2E2E2E2E2E2E2E2E2E2E2E2E2E2E2E2F0F0E2E2E2E2E2E2E2E2E2F0E2E2E2E2E2E2E2E2E2E2E2E2E2E2E2E2E2F5E2E2F5E2E2E2F5F5F5E2E2E2F5E2E2F5E2E2E2E2E2E2E2E2E2E2E2E2E2F0F0F0
310
F0F0F0F0F0F0F0F0DCDCDCDCF0F0F0F0F0F0F0F0F0F0F0F0E2E2E2E2E2E2E2E2E2E2E2E2E2E2E2E2E2E2E2E2E2E2E2E2E2E2E2E2E2E2E2E2E2E2E2F0DCDCDCF0F0F0F0F0F0F0F0F0F0F0F0F0F0F0F0F0DCDCDCDCF0F0F0F0F0F0F0F0F0F0F0F0F0F0F0F0F0F0F0F0F0F0F0F0DCDCDCF0F0F0F0F0F0F0F0F0E2E2E2E2E2E2E2
310
E2E2F0E2E2E2E2E2E2E2E2E2E2E2E2E2E2E2E2E2F5E2E2F5E2E2E2F5F5F5E2E2E2F5E2E2F5E2E2E2E2E2E2E2E2E2E2E2E2E2F0E2E2E2E2E2E2E2E2E2E2DCDCDCDCE2E2E2E2E2E2E2E2E2E2E2F0E2E2E2E2E2E2E2E2E2E2E2E2E2E2E2E2E2E2E2E2E2E2E2E2E2E2E2E2E2E2E2E2E2E2E2F0E2DCDCE2F0E2E2E2E2E2E2E2E2E2
310
E2E2E2E2E2E2DCDCDCDCE2E2E2E2E2E2E2E2E2E2E2E2E2E2E2F0E2E2E2E2E2E2E2E2DCDCDCDCE2E2E2E2E2E2E2F0E2E2E2E2E2E2E2E2E2F0E2E2E2E2E2E2E2E2E2E2E2E2E2E2E2E2E2F5E2E2F5E2E2E2F5F5F5E2E2E2F5E2E2F5E2E2E2E2E2E2E2E2E2E2E2E2E2F0E2E2E2E2E2E2E2E2E2E2E2E2E2E2E2E2E2E2E2E2E2E2E2
310
E2E2F0E2E2E2E2E2E2E2E2E2E2E2E2E2E2E2E2E2E2E2E2E2E2E2E2E2E2E2E2E2E2E2E2E2E2E2F0E2E2E2E2F0E2E2E2E2E2E2E2E2E2E2E2E2E2E2E2E2E2E2E2E2E2E2E2E2E2E2E2E2E2E2E2E2E2E2F0E2E2E2E2E2E2E2E2E2E2E2E2E2E2E2E2E2E2E2F0E2E2E2E2E2E2E2E2E2F0E2E2E2E2E2E2E2E2E2E2E2E2E2E2E2E2E2F5
310
E2E2F5E2E2E2F5F5F5E2E2E2F5E2E2F5E2E2E2E2E2E2E2E2E2E2E2E2E2F0E2E2E2E2E2E2E2E2E2E2E2E2E2E2E2E2E2E2E2E2E2E2E2E2E2F0E2E2E2E2E2E2E2E2E2E2E2E2E2E2E2E2E2E2E2E2E2E2E2E2E2E2E2E2E2E2E2E2E2E2E2F0E2E2E2E2F0E2E2E2E2E2E2E2E2E2E2E2E2E2E2E2E2E2E2E2E2E2E2E2E2E2E2E2E2E2E2
310
E2E2E2E2F0E2E2E2E2E2E2E2E2E2E2E2E2E2E2E2E2E2E2E2F0E2E2E2E2E2E2E2E2E2F0E2E2E2E2E2E2E2E2E2E2E2E2E2E2E2E2E2F5E2E2F5E2E2E2F5F5F5E2E2E2F5E2E2F5E2E2E2E2E2E2E2E2E2E2E2E2E2F0E2E2E2E2E2E2E2E2E2E2E2E2E2E2E2E2E2E2E2E2E2E2E2E2E2F0E2E2E2E2E2E2E2E2E2E2E2E2E2E2E2E2E2E2
310
E2E2E2E2E2E2E2E2E2E2E2E2E2E2E2E2E2F0E2E2E2E2F0E2E2E2E2E2E2E2E2E2E2E2E2E2E2E2E2E2E2E2E2E2E2E2E2E2E2E2E2E2E2E2E2E2E2F0E2E2E2E2E2E2E2E2E2E2E2E2E2E2E2E2E2E2E2F0E2E2E2E2E2E2E2E2E2F0E2E2E2E2E2E2E2E2E2E2E2E2E2E2E2E2E2F5E2E2F5E2E2E2F5F5F5E2E2E2F5E2E2F5E2E2E2E2E2
310
E2E2E2E2E2E2E2E2F0E2E2E2E2E2E2E2E2E2E2E2E2E2E2E2E2E2E2E2E2E2E2E2E2E2F0E2E2E2E2E2E2E2E2E2E2E2E2E2E2E2E2E2E2E2E2E2E2E2E2E2E2E2E2E2E2E2E2E2E2E2F0E2E2E2E2F0E2E2E2E2E2E2E2E2E2E2E2E2E2E2E2E2E2E2E2E2E2E2E2E2E2E2E2E2E2E2E2E2E2E2F0E2E2E2E2E2E2E2E2E2E2E2E2E2E2E2E2
310
E2E2E2F0E2E2E2E2E2E2E2E2E2F0E2E2E2E2E2E2E2E2E2E2E2E2E2E2E2E2E2F5E2E2F5E2E2E2F5F5F5E2E2E2F5E2E2F5E2E2E2E2E2E2E2E2E2E2E2E2E2F0E2E2E2E2E2E2E2E2E2E2E2E2E2E2E2E2E2E2E2E2E2E2E2E2E2F0E2E2E2E2E2E2E2E2E2E2E2E2E2E2E2E2E2E2E2E2E2E2E2E2E2E2E2E2E2E2E2E2E2E2E2F0E2E2E2
310
E2F0E2E2E2E2E2E2E2E2E2E2E2E2E2E2E2E2E2E2E2E2E2E2E2E2E2E2E2E2E2E2E2E2E2E2F0E2E2E2E2E2E2E2E2E2E2E2E2E2E2E2E2E2E2E2F0E2E2E2E2E2E2E2E2E2F0E2E2E2E2E2E2E2E2E2E2E2E2E2E2E2E2E2F5E2E2F5E2E2E2F5F5F5E2E2E2F5E2E2F5E2E2E2E2E2E2E2E2E2E2E2E2E2F0E2E2E2E2E2E2E2E2E2E2E2E2
310
E2E2E2E2E2E2E2E2E2E2E2E2E2F0E2E2E2E2E2E2E2E2E2E2E2E2E2E2E2E2E2E2E2E2E2E2E2E2E2E2E2E2E2E2E2E2E2E2E2F0E2E2E2E2F0E2E2E2E2E2E2E2E2E2E2E2E2E2E2E2E2E2E2E2E2E2E2E2E2E2E2E2E2E2E2E2E2E2E2F0E2E2E2E2E2E2E2E2E2E2E2E2E2E2E2E2E2E2E2F0E2E2E2E2E2E2E2E2E2F0E2E2E2E2E2E2E2
310
E2E2E2E2E2E2E2E2E2E2F5E2E2F5E2E2E2F5F5F5E2E2E2F5E2E2F5E2E2E2E2E2E2E2E2E2F5F5F5F5F5F5F5F5F5E2E2E2E2E2E2E2E2E2E2E2E2E2E2E2E2E2F5F5F5F5F5F5F5F5F5E2E2E2E2E2E2E2E2E2E2E2E2E2E2F0F0F0F0F0F0F0F0F0F0F0F0F0F0F0F0F0F0F5F5F5F5F5F5F5F5F5E2E2E2E2E2E2E2E2E2E2E2E2E2E2E2
310
E2E2E2E2E2E2E2E2E2E2E2F5F5F5F5F5F5F5F5F5F0F0F0F0F0F0F0F0F0F0F0F0F0F0F5F5F5F5F0F0F0F0F0F0F0F0F0F0F0F0F0F0F0F0F0F0F0F0F0E2E2E2E2F5E2E2F5E2E2E2F5F5F5E2E2E2F5E2E2F5E2E2E2E2E2E2E2E2E2F5F5F5F5F5F5F5F5F5E2F5F5F5F5F5F5F5F5F5F5F5F5F5F5F5E2F5F5F5F5F5F5F5F5E2E2E2E2
310
E2E2E2E2E2E2E2E2E2E2E2DCF0E2E2E2E2E2E2E2E2E2E2E2E2E2E2E2F0F5F5F5F5F5F5F5F5F5F5F5F5F5F5F5F5F5F5F5F5F5F5F5F5F5F5F5F5F5F5F5F5F5F5F5F5F5F5F5F5F5F5F5F5E2E2E2E2E2E2E2E2E2E2E2E2E2E2F5F5F5F5E2E2E2E2E2E2E2F0E2E2E2E2E2E2E2E2E2E2E2F0E2E2E2E2E2F5E2E2F5E2E2E2F5F5F5E2
310
E2E2E2E2E2F5E2E2E2E2E2E2E2E2E2E2F5F5F5F5F5F5F5F5F5F5F5F5F5F5F5F5F5F5F5F5F5F5F5F5F5F5F5F5F5F5F5F5F5E2E2E2E2E2E2E2E2E2E2E2E2E2E2DCDCDCE2E2E2E2E2E2E2E2E2E2E2E2E2E2E2F0E2F5F5F5F5F5F5F5F5F5F5F5F5F5F5F5F5F5F5F5F5F5F5F5F5F5F5F5F5F5F5F5F5F5F5F5F5F5F5F5F5F5F5F5F5
310
F5F5F5F5F5F5F5F5F5F5F5F5F5F5F5F5F5E2E2E2E2E2E2E2F0E2E2E2E2E2E2E2E2E2E2E2F0E2E2E2E2E2F5E2E2E2E2E2E2F5F5F5E2E2E2E2E2E2F5E2E2E2E2E2E2E2E2E2E2E2F5F5F5F5F5F5F5F5F5F5F5F5F5F5F5F5F5F5F5F5F5F5F5F5F5F5F5F5F5F5F5E2E2E2E2E2E2E2E2E2E2E2E2E2E2E2DCDCDCE2E2E2E2E2E2E2E2
310
E2E2E2E2E2E2E2F0E2F5F5F5F5F5F5F5F5F5F5F5F5F5F5F5F5F5F5F5F5F5F5F5F5F5F5F5F5F5F5F5F5F5F5F5F5F5F5F5F5F5F5F5E2E2E2F5E2E2E2E2E2E2E2E2E2E2E2E2E2F5E2E2E2E2E2E2E2F0E2E2E2E2E2E2E2E2E2E2E2F0E2E2E2E2E2F5E2E2E2E2E2E2F5F5F5E2E2E2E2E2E2F5E2E2E2E2E2E2E2E2E2E2E2F5E2E2E2
310
E2E2E2E2E2E2E2E2E2E2E2E2E2E2E2E2E2E2E2E2E2E2E2E2E2E2F5E2E2E2E2E2E2E2E2E2E2E2E2E2E2E2DCDCDCE2E2E2E2E2E2E2E2E2E2E2E2E2E2E2F0E2F5E2E2E2E2E2E2E2E2E2E2E2E2E2E2E2E2E2E2E2E2E2E2E2E2E2E2E2E2E2E2E2E2E2E2E2E2E2E2E2E2F5F5F5F5F5F5F5F5F5F5F5E2E2E2E2E2E2E2E2F5E2E2E2E2
310
E2E2E2F0E2E2E2E2E2E2E2E2E2E2E2F0E2E2E2E2E2F5E2E2E2E2E2E2F5F5F5E2E2E2E2E2E2F5E2E2E2E2E2E2E2E2F5F5F5F5F5F5F5F5F5F5F5F5F5F5F5F5F5F5F5F5F5F5F5F5F5F5F5F5F5F5F5F5F5F5F5F5E2E2E2E2E2E2E2E2E2E2E2E2E2E2DCF0E2E2E2E2F0F0F0F0F0F0F0F0F0F0F0F5F5F5F5F5F5F5F5F5F5F5F5F5F5
310
F5F5F5F5F5F5F5F5F5F5F5F5F5F5F5F5F5F5F5F5F5F5F5F5F5F5F5F5F5F5F5F5E2E2E2E2E2E2E2E2F5F5F5F5F5F5F5F5F5E2E2E2E2E2E2E2F0E2E2E2E2E2E2E2E2E2E2E2F0E2E2E2E2E2F5E2E2E2E2E2E2F5F5F5E2E2E2E2E2E2F5E2E2E2E2E2E2E2E2F5E2E2E2E2E2E2E2E2E2E2E2E2E2E2E2E2E2E2E2E2E2E2E2E2E2E2E2
310
E2E2E2E2E2E2E2F5E2E2E2E2E2E2E2E2E2E2E2E2E2DCDCDCE2E2E2E2E2F0E2E2E2E2E2E2E2E2E2F5E2E2E2E2E2E2E2E2E2E2E2E2E2E2E2E2E2E2E2E2E2E2E2E2E2E2E2E2E2E2E2E2E2E2E2E2E2E2E2E2E2E2E2E2F5E2E2E2E2E2E2E2E2E2E2F5E2E2E2E2E2F5E2E2E2E2E2E2E2F0E2E2E2E2E2E2E2E2E2E2E2F0E2E2E2E2E2
310
F5E2E2E2E2E2E2F5F5F5E2E2E2E2E2E2F5E2E2E2E2E2E2E2E2F5E2E2E2E2E2E2E2E2E2E2E2E2E2E2E2E2E2E2E2E2E2E2E2E2E2E2E2E2E2E2E2E2E2E2F5E2E2E2E2E2E2E2E2E2E2E2E2E2E2DCF0E2E2E2DCDCDCE2E2E2E2E2E2E2E2E2F5E2E2E2E2E2E2E2E2E2E2E2E2E2E2E2E2E2E2E2E2E2E2E2E2E2E2E2E2E2E2E2E2E2E2
310
E2E2E2E2E2E2E2E2E2E2F5E2E2E2E2E2E2E2E2E2E2F5E2E2E2E2E2F5E2E2E2E2E2E2E2F0E2E2E2E2E2E2E2E2E2E2E2F0E2E2E2E2E2F5E2E2E2E2E2E2F5F5F5E2E2E2E2E2E2F5E2E2E2E2E2E2E2E2F5E2E2E2E2E2E2E2E2E2E2E2E2E2E2E2E2E2E2E2E2E2E2E2E2E2E2E2E2E2E2E2E2E2E2F5E2E2E2E2E2E2E2E2E2E2E2E2E2
310
DCDCDCE2E2E2DCDCDCE2E2E2E2E2E2E2E2E2F5E2E2E2E2E2E2E2E2E2E2E2E2E2E2E2E2E2E2E2E2E2E2E2E2E2E2E2E2E2E2E2E2E2E2E2E2E2E2E2E2E2E2E2E2F5E2E2E2E2E2E2E2E2E2E2F5E2E2E2E2E2F5E2E2E2E2E2E2E2F0E2E2E2E2E2E2E2E2E2E2E2F0E2E2E2E2E2F5E2E2E2E2E2E2F5F5F5E2E2E2E2E2E2F5E2E2E2E2
310
E2E2E2E2F5E2E2E2E2E2E2E2E2E2E2E2E2E2E2E2E2E2E2E2E2E2E2E2E2E2E2E2E2E2E2E2E2E2E2F5E2E2E2E2E2E2E2E2E2E2E2E2E2DCDCDCE2E2E2DCDCDCE2E2E2E2E2E2E2E2E2F5E2E2E2E2E2E2E2E2E2E2E2E2E2E2E2E2E2E2E2E2E2E2E2E2E2E2E2E2E2E2E2E2E2E2E2E2E2E2E2E2E2E2E2E2F5E2E2E2E2E2E2E2E2E2E2
310
F5E2E2E2E2E2F5E2E2E2E2E2E2E2F0E2E2E2E2E2E2E2E2E2E2E2F0E2E2E2E2E2F5E2E2E2E2E2E2F5F5F5E2E2E2E2E2E2F5E2E2E2E2E2E2E2E2F5E2E2E2E2E2E2E2E2E2E2E2E2E2E2E2E2E2E2E2E2E2E2E2E2E2E2E2E2E2E2E2E2E2E2F5E2E2E2E2E2E2E2E2E2E2E2E2E2E2E2F0E2E2E2E2E2F0E2E2E2E2E2E2E2E2E2F5E2E2
310
E2E2E2E2E2E2E2E2E2E2E2E2E2E2E2E2E2E2E2E2E2E2E2E2E2E2E2E2E2E2E2E2E2E2E2E2E2E2E2E2E2E2F5E2E2E2E2E2E2E2E2E2E2F5F5F5F5F5F5F5E2E2E2E2E2E2E2F0E2E2E2E2E2E2E2E2E2E2E2F0E2E2E2E2E2F5E2E2E2E2E2E2F5F5F5E2E2E2F5E2E2F5E2E2E2E2E2E2E2E2F0F5F5F5F5F5F5F5F5F5F5F5F5F5F5F5F5
310
F5F5F5F5F5F5F5F5F5F5F5F5F5F5F5F5F5F5F5E2E2E2E2E2E2E2E2E2E2E2E2E2E2F0F0F0F0F0F0F0F0F0F0F0F0F0F0F0F0F0F0F5F5F5F5F5F5F5F5F5F5F5F5F5F5F5F5F5F5F5F5F5F5F5F5F5F5F5F5F5F5F5F5F5F5F5F5F5F5F5F5F5F5F5F5F5E2E2E2E2E2E2E2E2E2E2E2F5E2E2E2F5E2E2E2E2E2E2E2E2F0E2E2E2E2E2E2
310
E2E2E2E2E2F0E2E2E2E2E2F5E2E2F5E2E2E2F5F5F5E2E2E2F5E2E2F5E2E2E2E2E2E2E2E2F0E2E2E2E2E2E2E2E2E2E2E2E2E2E2F5E2E2E2E2F5E2E2E2E2E2E2E2E2E2E2E2E2E2E2F0E2E2E2E2E2E2E2E2E2E2E2E2E2E2E2E2E2E2E2E2E2E2E2E2E2E2E2E2E2E2E2F0E2E2E2E2E2E2E2E2E2E2E2E2E2E2E2E2E2E2E2E2E2E2E2
310
E2E2E2E2E2E2E2E2E2E2E2E2E2E2E2E2E2E2E2E2E2F0E2E2E2E2E2E2E2E2E2E2E2F5E2E2E2F5E2E2E2E2E2E2E2E2F0E2E2E2E2E2E2E2E2E2E2E2F0E2E2E2E2E2F5E2E2F5E2E2E2F5F5F5E2E2E2F5E2E2F5E2E2E2E2E2E2E2E2F0E2E2E2E2E2E2E2E2E2E2E2E2E2E2F5E2E2E2E2F5E2E2E2E2E2E2E2E2E2E2E2E2E2E2F0E2E2
310
E2E2E2E2E2E2E2E2E2E2E2E2E2E2E2E2E2E2E2E2E2E2E2E2E2E2E2E2E2F0E2E2E2E2E2E2E2E2E2E2E2E2E2E2E2E2E2E2E2E2E2E2E2E2E2E2E2E2E2E2E2E2E2E2E2E2E2E2E2E2E2E2E2E2F0E2E2E2E2E2E2E2E2E2E2E2F5E2E2E2F5E2E2E2E2E2E2E2E2F0E2E2E2E2E2E2E2E2E2E2E2F0E2E2E2E2E2F5E2E2F5E2E2E2F5F5F5
310
E2E2E2F5E2E2F5E2E2E2E2E2E2E2E2F0E2E2E2E2E2E2E2E2E2E2E2E2E2E2F5E2E2E2E2F5E2E2E2E2E2E2E2E2E2E2E2E2E2E2F0E2E2E2E2E2E2E2E2E2E2E2E2E2E2E2E2E2E2E2E2E2E2E2E2E2E2E2E2E2E2E2F0E2E2E2E2E2E2E2E2E2E2E2E2E2E2E2E2E2E2E2E2E2E2E2E2E2E2E2E2E2E2E2E2E2E2E2E2E2E2E2E2E2E2E2E2
310
F0E2E2E2E2E2E2E2E2E2E2E2F5E2E2E2F5E2E2E2E2E2E2E2E2F0E2E2E2E2E2E2E2E2E2E2E2F0E2E2E2E2E2F5E2E2F5E2E2E2F5F5F5E2E2E2F5E2E2F5E2E2E2E2E2E2E2E2F0E2E2E2E2E2E2E2E2E2E2E2E2E2E2F5E2E2E2E2F5E2E2E2E2E2E2E2E2E2E2E2E2E2E2F0E2E2E2E2E2E2E2E2E2E2E2E2E2E2E2E2E2E2E2E2E2E2E2
310
E2E2E2E2E2E2E2E2F0E2E2E2E2E2E2E2E2E2E2E2E2E2E2E2E2E2E2E2E2E2E2E2E2E2E2E2E2E2E2E2E2E2E2E2E2E2E2E2E2E2E2E2E2F0E2E2E2E2E2E2E2E2E2E2E2F5E2E2E2F5E2E2E2E2E2E2E2E2F0E2E2E2E2E2E2E2E2E2E2E2F0E2E2E2E2E2F5E2E2F5E2E2E2F5F5F5E2E2E2F5E2E2F5E2E2E2E2E2E2E2E2F0E2E2E2E2E2
310
E2E2E2E2E2E2E2E2E2F5E2E2E2E2F5E2E2E2E2E2E2E2E2E2E2E2E2E2E2F0E2E2E2E2E2E2E2E2E2E2E2E2E2E2E2E2E2E2E2E2E2E2E2E2E2E2E2E2E2E2E2F0E2E2E2E2E2E2E2E2E2E2E2E2E2E2E2E2E2E2E2E2E2E2E2E2E2E2E2E2E2E2E2E2E2E2E2E2E2E2E2E2E2E2E2E2F0E2E2E2E2E2E2E2E2E2E2E2F5E2E2E2F5E2E2E2E2
310
E2E2E2E2F0E2E2E2E2E2E2E2E2E2E2E2F0E2E2E2E2E2F5E2E2F5E2E2E2F5F5F5E2E2E2F5E2E2F5E2E2E2E2E2E2E2E2F0E2E2E2E2E2E2E2E2E2E2E2E2E2E2F5E2E2E2E2F5E2E2E2E2E2E2E2E2E2E2E2E2E2E2F0E2E2E2E2E2E2E2E2E2E2E2E2E2E2E2E2E2E2E2E2E2E2E2E2E2E2E2E2E2E2E2F0E2E2E2E2E2E2E2E2E2E2E2E2
310
E2E2E2E2E2E2E2E2E2E2E2E2E2E2E2E2E2E2E2E2E2E2E2E2E2E2E2E2E2E2E2E2F0E2E2E2E2E2E2E2E2E2E2E2F5E2E2E2F5E2E2E2E2E2E2E2E2F0E2E2E2E2E2E2E2E2E2E2E2F0E2E2E2E2E2F5E2E2F5E2E2E2F5F5F5E2E2E2F5E2E2F5E2E2E2E2E2E2E2E2F0E2E2E2E2E2E2E2E2E2E2E2E2E2E2F5E2E2E2E2F5E2E2E2E2E2E2
310
E2E2E2E2E2E2E2E2F0E2E2E2E2E2E2E2E2E2E2E2E2E2E2E2E2E2E2E2E2E2E2E2E2E2E2E2E2E2E2E2F0E2E2E2E2E2E2E2E2E2E2E2E2E2E2E2E2E2E2E2E2E2E2E2E2E2E2E2E2E2E2E2E2E2E2E2E2E2E2E2E2E2E2E2E2F0E2E2E2E2E2E2E2E2E2E2E2F5E2E2E2F5E2E2E2E2E2E2E2E2F0E2E2E2E2E2E2E2E2E2E2E2F0E2E2E2E2
310
E2F5E2E2F5E2E2E2F5F5F5E2E2E2F5E2E2F5E2E2E2E2E2E2E2E2F0E2E2E2E2E2E2E2E2E2E2E2E2E2E2F5E2E2E2E2F5E2E2E2E2E2E2E2E2E2E2E2E2E2E2F0E2E2E2E2E2E2E2E2E2E2E2E2E2E2E2E2E2E2E2E2E2E2E2E2E2E2E2E2E2E2E2F0E2E2E2E2E2E2E2E2E2E2E2E2E2E2E2E2E2E2E2E2E2E2E2E2E2E2E2E2E2E2E2E2E2
310
E2E2E2E2E2E2E2E2E2E2E2F0E2E2E2E2E2E2E2E2E2E2E2F5E2E2E2F5E2E2E2E2E2E2E2E2F0E2E2E2E2E2E2E2E2E2E2E2F0E2E2E2E2E2F5E2E2F5E2E2E2F5F5F5E2E2E2F5E2E2F5E2E2E2E2E2E2E2E2F0F0F0F0F0F0F0F0F0F0F0F0F0F0F0F5DCDCDCDCF5F0F0F0F0F0F0F0F0F0F0F0F0F0F0F0E2E2E2E2E2E2E2E2E2E2E2E2
310
E2E2E2E2E2E2E2E2E2E2E2E2E2E2E2E2E2E2E2F0F0F0F0F0F0F0F0F0F0F0F0F0F0F0F0F0F0F0F0F0F0DCDCDCF0F0F0F0F0F0F0F0F0F0F0F0F0F0F0F0F0F0F0F0F0E2E2E2E2E2E2E2E2E2E2E2F5E2E2E2F5E2E2E2E2E2E2E2E2F0E2E2E2E2E2E2E2E2E2E2E2F0E2E2E2E2E2F5E2E2F5E2E2E2F5F5F5E2E2E2F5E2E2F5E2E2E2
310
E2E2E2E2E2F0E2E2E2E2E2E2E2E2E2E2E2E2E2E2F5DCDCDCDCF5E2E2E2E2E2E2E2E2E2E2E2E2E2E2F0E2E2E2E2E2E2E2E2E2E2E2E2E2E2E2E2E2E2E2E2E2E2E2E2E2E2E2E2E2E2E2F0E2E2E2E2E2E2E2E2E2E2E2E2E2E2E2E2E2E2E2E2DCDCDCDCE2E2E2E2E2E2E2E2E2E2E2E2E2E2E2E2E2E2E2E2F0E2E2E2E2E2E2E2E2E2
310
E2E2F5E2E2E2F5E2E2E2E2E2E2E2E2F0E2E2E2E2E2E2E2E2E2E2E2F0E2E2E2E2E2F5E2E2F5E2E2E2F5F5F5E2E2E2F5E2E2F5E2E2E2E2E2E2E2E2E2E2E2E2E2E2E2E2E2E2E2E2E2E2E2F5DCDCDCDCF5E2E2E2E2E2E2E2E2E2E2E2E2E2E2E2E2E2E2E2E2E2E2E2E2E2E2E2E2E2E2E2E2E2E2E2E2E2E2E2E2E2E2E2E2E2E2E2E2
310
E2E2E2E2E2E2E2E2E2E2E2E2E2E2E2E2E2E2E2E2DCDCDCE2E2E2E2E2E2E2E2E2E2E2E2E2E2E2E2E2E2E2E2E2E2E2E2E2E2E2E2E2E2E2E2F5E2E2E2F5E2E2E2E2E2E2E2E2F0E2E2E2E2E2E2E2E2E2E2E2F0E2E2E2E2E2F5E2E2F5E2E2E2F5F5F5E2E2E2F5E2E2F5E2E2E2E2E2E2E2E2E2E2E2E2E2E2E2E2E2E2E2E2E2E2E2F5
310
E2E2E2E2F5E2E2E2E2E2E2E2E2E2E2E2E2E2E2E2E2E2E2E2E2E2E2E2E2E2E2E2E2E2E2E2E2E2E2E2E2E2E2E2E2E2E2E2E2E2E2E2E2E2E2E2E2E2E2E2E2E2E2E2E2E2E2E2E2E2E2E2E2E2E2E2E2E2E2E2E2E2E2E2E2E2E2E2E2E2E2E2E2E2E2E2E2E2E2E2E2E2E2E2E2E2E2E2F5E2E2F5F5E2E2E2E2E2E2E2E2F0E2E2E2E2E2
310
E2E2E2E2E2E2F0E2E2E2E2E2F5E2E2F5E2E2E2F5F5F5E2E2E2F5E2E2F5E2E2E2E2E2E2E2E2E2E2E2E2E2E2E2E2E2E2E2E2E2E2E2F5E2E2E2E2F5E2E2E2E2E2E2E2E2E2E2E2E2E2E2E2E2E2E2E2E2E2E2E2E2E2E2E2E2E2E2E2E2E2E2E2E2E2E2E2E2E2E2E2E2E2E2E2E2E2E2E2E2E2E2E2E2E2E2E2E2E2E2E2E2E2E2E2E2E2
310
E2E2E2E2E2E2E2E2E2E2E2E2E2E2E2E2E2E2E2E2E2E2E2E2E2E2E2E2E2E2E2E2E2E2F5E2F5F5F5E2E2E2E2E2E2E2E2F0E2E2E2E2E2E2E2E2E2E2E2F0E2E2E2E2E2F5E2E2F5E2E2E2F5F5F5E2E2E2F5E2E2F5E2E2E2E2E2E2E2E2E2E2E2E2E2E2E2E2E2E2E2E2E2E2E2F5E2E2E2E2F5E2E2E2E2E2E2E2E2E2E2E2E2E2E2E2E2
310
E2E2E2E2E2E2E2E2E2E2E2E2E2E2E2E2E2E2E2E2E2E2E2E2E2E2E2E2E2E2E2E2E2E2E2E2E2E2E2E2E2E2E2E2E2E2E2E2E2E2E2E2E2E2E2E2E2E2E2E2E2E2E2E2E2E2E2E2E2E2E2E2E2E2E2E2E2E2E2E2E2E2E2E2E2E2E2F5F5F5E2F5E2E2E2E2E2E2E2E2F0E2E2E2E2E2E2E2E2E2E2E2F0E2E2E2E2E2F5E2E2F5E2E2E2F5F5
310
F5E2E2E2E2E2E2F5E2E2E2E2E2E2E2E2E2E2E2E2E2E2E2E2E2E2E2E2E2E2E2F5E2E2E2E2F5E2E2E2E2E2E2E2E2E2E2E2E2E2E2E2E2E2E2E2E2E2E2E2E2E2E2E2E2E2E2E2E2E2E2E2E2E2E2E2E2E2E2E2E2E2E2E2E2E2E2E2E2E2E2E2E2E2E2E2E2E2E2E2E2E2E2E2E2E2E2E2E2E2E2E2E2E2E2E2E2E2E2E2E2E2E2E2E2E2E2
310
E2E2E2E2E2E2E2E2E2E2E2E2E2F5E2E2E2F5E2E2E2E2E2E2E2E2F0E2E2E2E2E2E2E2E2E2E2E2F0E2E2E2E2E2F5E2E2E2E2E2E2F5F5F5E2E2E2E2E2E2F5E2E2E2E2E2E2E2E2E2E2E2E2E2E2E2E2E2E2E2E2E2E2E2F5E2E2E2E2F5E2E2E2E2E2E2E2E2E2E2E2E2E2E2E2E2E2E2E2E2E2E2E2E2E2E2E2E2E2E2E2E2E2E2E2E2E2
310
E2E2E2E2E2E2E2E2E2E2E2E2E2E2E2E2E2E2E2E2E2E2E2E2E2E2E2E2E2E2E2E2E2E2E2E2E2E2E2E2E2E2E2E2E2E2E2E2E2E2E2E2E2E2E2E2E2E2E2E2E2E2E2E2E2E2F5E2E2E2F5E2E2E2E2E2E2E2E2F0E2E2E2E2E2E2E2E2E2DCDCDCE2E2E2E2E2F5E2E2E2E2E2E2F5F5F5E2E2E2E2E2E2F5E2E2E2E2E2E2E2E2E2E2E2E2E2
310
E2E2E2E2E2E2E2E2E2E2F5E2E2E2F5F5E2E2E2E2E2E2E2E2E2E2E2E2E2E2E2E2E2E2E2E2E2E2E2E2E2E2E2E2E2E2E2E2E2E2E2E2E2E2E2E2E2E2E2E2E2E2E2E2E2E2E2E2E2E2E2E2E2E2E2E2E2E2E2E2E2E2E2E2E2E2E2E2E2E2E2E2E2E2E2E2E2E2E2E2E2E2E2E2E2E2E2E2E2E2E2E2E2E2E2E2E2E2E2F5E2E2E2F5E2E2E2
310
E2E2E2E2E2F0E2E2E2E2E2E2E2E2E2DCE2DCE2E2E2E2E2F5E2E2E2E2E2E2F5F5F5E2E2E2E2E2E2F5E2E2E2E2E2E2E2E2E2E2E2E2E2E2E2E2E2E2E2E2E2E2E2F5F5F5F5F5F5E2E2E2E2E2E2E2E2E2E2E2E2E2E2E2E2E2E2E2E2E2E2E2E2E2E2E2E2E2E2E2E2E2E2E2E2E2E2E2E2E2E2E2E2E2E2E2E2E2E2E2E2E2E2E2E2E2E2
310
E2E2E2E2E2E2E2E2E2E2E2E2E2E2E2E2E2E2E2E2E2E2E2E2E2E2E2E2E2E2E2E2E2E2E2E2E2E2E2E2E2E2E2E2E2F5E2E2E2F5E2E2E2E2E2E2E2E2F0E2E2E2E2E2E2E2E2E2DCDCDCE2E2E2E2E2F5E2E2E2E2E2E2F5F5F5E2E2E2E2E2E2F5E2E2E2E2E2E2E2E2E2E2E2E2E2E2E2E2E2E2E2E2E2E2E2F5F5F5F5E2F5E2E2E2E2E2
310
E2E2E2E2E2E2E2E2E2E2E2E2E2E2E2E2E2E2E2E2E2E2E2E2E2E2E2E2E2E2E2E2E2E2E2E2E2E2E2E2E2E2E2E2E2E2E2E2E2E2E2E2E2E2E2E2E2E2E2E2E2E2E2E2E2E2E2E2E2E2E2E2E2E2E2E2E2E2E2E2E2E2E2E2E2E2E2E2E2E2E2E2E2E2E2E2E2E2F5E2E2E2F5E2E2E2E2E2E2E2E2F0E2E2E2E2E2E2E2E2E2DCDCDCE2E2E2
310
E2E2F5E2E2E2E2E2E2F5F5F5E2E2E2E2E2E2F5E2E2E2E2E2E2E2E2E2E2E2E2E2E2E2E2E2E2E2E2E2E2E2F5E2E2E2E2F5E2E2E2E2E2E2E2E2E2E2E2E2E2E2E2E2E2E2E2E2E2E2E2E2E2E2E2E2E2E2E2E2E2E2E2E2E2E2E2E2E2E2E2E2E2E2E2E2E2E2E2E2E2E2E2E2E2E2E2E2E2E2E2E2E2E2E2E2E2E2E2E2E2E2E2E2E2E2E2
310
E2E2E2E2E2E2E2E2E2E2E2E2E2E2E2E2E2E2E2E2E2E2E2E2F5E2E2E2F5E2E2E2E2E2E2E2E2F0E2E2E2E2E2E2E2E2E2DCDCDCE2E2E2E2E2F5E2E2E2E2E2E2F5F5F5E2E2E2E2E2E2F5E2E2E2E2E2E2E2E2E2E2E2E2E2E2E2E2E2E2E2E2E2E2E2F5E2E2E2E2F5E2E2E2E2E2E2E2E2E2E2E2E2E2E2E2E2E2E2E2E2E2E2E2E2E2E2
310
E2E2E2E2E2E2E2E2E2E2E2E2E2E2E2E2E2E2E2E2E2E2E2E2E2E2E2E2E2E2E2E2E2E2E2E2E2E2E2E2E2E2E2E2E2E2E2E2E2E2E2E2E2E2E2E2E2E2E2E2E2E2E2E2E2E2E2E2E2E2E2E2E2E2E2E2E2F5E2E2E2F5E2E2E2E2E2E2E2E2F0E2E2E2E2E2E2E2E2E2DCDCDCE2E2E2E2E2F5E2E2E2E2E2E2F5F5F5E2E2E2E2E2E2F5E2E2
310
E2E2E2E2E2E2E2E2E2E2E2E2E2E2E2E2E2E2E2E2E2F5E2E2E2E2F5E2E2E2E2E2E2E2E2E2E2E2E2E2E2E2E2E2E2E2E2E2E2E2E2E2E2E2E2E2E2E2E2E2E2E2E2E2E2E2E2E2E2E2E2E2E2E2E2E2E2E2E2E2E2E2E2E2E2E2E2E2E2E2E2E2E2E2E2E2E2E2E2E2E2E2E2E2E2E2E2E2E2E2E2E2E2E2E2E2E2E2E2E2E2E2E2E2E2E2E2
310
E2E2E2F5E2E2E2F5E2E2E2E2E2E2E2E2F0E2E2E2E2E2E2E2E2E2E2E2F0E2E2E2E2E2F5E2E2E2E2E2E2F5F5F5E2E2E2E2E2E2F5E2E2E2E2E2E2E2E2E2E2E2E2E2E2E2E2E2E2E2E2E2E2E2F5E2E2E2E2F5E2E2E2E2E2E2E2E2E2E2E2E2E2E2E2E2E2E2E2E2E2E2E2E2E2E2E2E2E2E2E2E2E2E2E2E2E2E2E2E2E2E2E2E2E2E2E2
310
E2E2E2E2E2E2E2E2E2E2E2E2E2E2E2E2E2E2E2E2E2E2E2E2E2E2E2E2E2E2E2E2E2E2E2E2E2E2E2E2E2E2E2E2E2E2E2E2E2E2E2E2E2E2E2E2F5E2E2E2F5E2E2E2E2E2E2E2E2F0E2E2E2E2E2E2E2E2E2E2E2F0E2E2E2E2E2F5E2E2E2E2E2E2F5F5F5E2E2E2F5E2E2F5E2E2E2E2E2E2E2E2E2E2E2E2E2E2E2E2E2E2E2E2E2E2E2
310
F5E2E2E2E2F5E2E2E2E2E2E2E2E2E2E2E2E2E2E2E2E2E2E2E2E2E2E2E2E2E2E2E2E2E2E2E2E2E2E2E2E2E2E2E2E2E2E2E2E2E2E2E2E2E2E2E2E2E2E2E2E2E2E2E2E2E2E2E2E2E2E2E2E2E2E2E2E2E2E2E2E2E2E2E2E2E2E2E2E2E2E2E2E2E2E2E2E2E2E2E2E2E2E2E2E2E2E2E2F5E2E2E2F5E2E2E2E2E2E2E2E2F0E2E2E2E2
310
E2E2E2E2E2E2E2F0E2E2E2E2E2F5E2E2F5E2E2E2F5F5F5E2E2E2F5E2E2F5E2E2E2E2E2E2E2E2E2E2E2E2E2E2E2F5F5F5F5F5F5F5F5F5F5F5F5F5F5F5F5F5F5F5F5F5F5F5E2E2E2E2E2E2E2E2E2E2E2E2E2E2E2E2E2E2E2E2E2E2E2E2E2E2E2E2E2E2E2E2E2E2E2E2E2E2E2E2E2E2E2E2E2E2E2E2E2E2E2E2E2E2E2E2E2E2E2
310
E2E2E2E2E2E2E2E2E2E2E2E2E2E2E2E2E2E2E2E2E2E2E2E2E2E2E2E2E2F0F0F0F0F5F5F5F5F5F5F5F5F5E2E2E2E2E2E2F0E2E2E2E2E2E2E2E2E2E2E2F0E2E2E2E2E2F5E2E2F5E2E2E2F5F5F5E2E2E2F5E2E2F5E2E2E2E2E2E2E2E2E2E2E2E2E2E2F5F5E2E2E2E2E2E2E2E2E2E2E2E2E2E2E2E2E2E2E2E2E2F5E2E2E2E2E2E2
310
E2E2E2E2E2E2E2E2E2E2E2E2E2E2E2E2E2E2E2E2E2E2E2E2E2E2E2E2E2E2E2E2E2E2E2E2E2E2E2E2E2E2E2E2E2E2E2E2E2E2E2E2E2E2E2E2E2E2E2E2E2E2E2E2E2E2E2E2E2E2E2E2E2E2E2E2E2E2E2E2E2E2E2F0E2E2F5F5F5F5E2F5F5F5F5E2E2E2E2E2E2F0E2E2E2E2E2E2E2E2E2E2E2F0E2E2E2E2E2F5E2E2F5E2E2E2F5
310
F5F5E2E2E2F5E2E2F5E2E2E2E2E2E2E2E2E2E2E2E2E2E2F5F5F5F5F5F5F5F5F5F5F5F5F5F5F5F5F5F5F5F5F5F5F5F5F0F0F0F0F0F0F0E2E2E2E2E2E2E2E2E2E2E2E2E2E2E2E2E2E2E2E2E2E2E2E2E2E2E2E2E2E2E2E2E2E2E2E2E2E2E2E2E2E2E2E2E2E2E2E2E2E2E2E2E2E2E2E2E2E2E2E2E2E2E2E2E2E2E2E2E2E2E2E2E2
310
E2E2E2E2E2E2E2E2E2F0E2E2F5F5F5E2E2F5F5F5F5E2E2E2E2E2E2F0E2E2E2E2E2E2E2E2E2E2E2F0E2E2E2E2E2F5E2E2F5E2E2E2F5F5F5E2E2E2F5E2E2F5E2E2E2E2E2E2E2E2E2E2E2E2E2E2F5F5F5F5F5F5F5F5F5F5F5F5F5F5F5F5F5F5F5F5F5F5F5F5E2E2E2E2F0F0E2E2E2E2E2E2E2E2E2E2E2E2E2E2E2E2E2E2E2E2E2
310
E2E2E2E2E2E2E2E2E2E2E2E2E2E2E2E2E2E2E2E2E2E2E2E2E2E2E2E2E2E2E2E2E2E2E2E2E2E2E2E2E2E2E2E2E2E2E2E2E2E2E2E2E2E2E2E2E2E2E2E2E2E2F0E2E2F5F5F5F5F5F5F5F5F5E2E2E2E2E2E2F0E2E2E2E2E2E2E2E2E2E2E2F0E2E2E2E2E2F5E2E2F5E2E2E2F5F5F5E2E2E2F5E2E2F5E2E2E2E2E2E2E2E2E2E2E2E2
310
E2E2F5F5E2E2E2E2E2E2E2E2E2E2E2E2E2E2E2E2E2E2E2E2F5F5E2E2E2E2E2F0E2E2E2E2E2E2E2E2E2E2E2E2E2E2E2E2E2E2E2E2E2E2E2E2E2E2E2E2E2E2E2E2E2E2E2E2E2E2E2E2E2E2E2E2E2E2E2E2E2E2E2E2E2E2E2E2E2E2E2E2E2E2E2E2E2E2E2E2E2E2E2E2E2E2E2E2E2E2E2E2E2E2E2F0E2E2F5F5F5E2E2E2F5F5F5
310
F5F5E2E2E2E2F0E2E2E2E2E2E2E2E2E2E2E2F0E2E2E2E2E2F5E2E2F5E2E2E2F5F5F5E2E2E2F5E2E2F5E2E2E2E2E2E2E2E2E2E2E2E2E2E2F5F5E2E2E2F5F5F5F5F5F5F5F5F5F5F5F5F5F5F5E2E2F5F5E2E2E2E2E2F0E2E2E2E2E2E2E2E2E2E2E2E2E2E2E2E2E2E2E2E2E2E2E2E2E2E2E2E2E2E2E2E2E2E2E2E2E2E2E2E2E2E2
310
E2E2E2E2E2E2E2E2E2E2E2E2E2E2E2E2E2E2E2E2E2E2E2E2E2E2E2E2E2E2E2E2E2E2E2E2E2E2E2E2E2F0E2E2F5E2F5E2E2F5F5E2F5F5F5E2E2E2E2F0E2E2E2E2E2E2E2E2E2E2E2F0E2E2E2E2E2F5E2E2F5E2E2E2F5F5F5E2E2E2F5E2E2F5E2E2E2E2E2E2E2E2E2E2E2E2E2E2F5F5E2E2F5F5F5F5F5E2E2E2E2E2F5F5F5F5F5
310
F5E2E2F5F5E2E2E2E2E2F0E2E2E2E2E2E2E2E2E2E2E2E2E2E2E2E2E2E2E2E2E2E2E2E2E2E2E2E2E2E2E2E2E2E2E2E2E2E2E2E2E2E2E2E2E2E2E2E2E2E2E2E2E2E2E2E2E2E2E2E2E2E2E2E2E2E2E2E2E2E2E2E2E2E2E2E2E2E2E2E2E2E2E2F0E2E2F5F5F5E2E2F5F5F5F5F5F5E2E2E2E2F0E2E2E2E2E2E2E2E2E2E2E2F0E2E2
310
E2E2E2F5E2E2F5E2E2E2F5F5F5E2E2E2F5E2E2F5E2E2E2E2E2E2E2E2E2E2E2E2E2E2F5F5E2E2F5F5F5E2F5E2E2E2E2E2F5F5F5E2F5F5E2E2F5F5E2E2E2E2E2F0E2E2E2E2E2E2E2E2E2E2E2E2E2E2E2E2E2E2E2E2E2E2E2E2E2E2E2E2E2E2E2E2E2E2E2E2E2E2E2E2E2E2E2E2E2E2E2E2E2E2E2E2E2E2E2E2E2E2E2E2E2E2E2
310
E2E2E2E2E2E2E2E2E2E2E2E2E2E2E2E2E2E2E2E2F0E2E2F5F5F5F5E2F5F5F5F5F5F5E2E2E2E2F0E2E2E2E2E2E2E2E2E2E2E2F0E2E2E2E2E2F5E2E2F5E2E2E2F5F5F5E2E2E2F5E2E2F5E2E2E2E2E2E2E2E2E2E2E2E2E2E2F5F5E2E2F5F5F5F5F5E2E2E2E2E2F5F5F5F5F5F5E2E2F5F5E2E2E2E2E2F0E2E2E2E2E2E2E2E2E2E2
310
E2E2E2E2E2E2E2E2E2E2E2E2E2E2E2E2E2E2E2E2E2E2E2E2E2E2E2E2E2E2E2E2E2E2E2E2E2E2E2E2E2E2E2E2E2E2E2E2E2E2E2E2E2E2E2E2E2E2E2E2E2E2E2E2E2E2E2E2E2E2E2E2E2F0E2E2F5F5F5F5F5E2F5F5F5F5F5E2E2E2E2F0E2E2E2E2E2E2E2E2E2E2E2F0E2E2E2E2E2F5E2E2F5E2E2E2F5F5F5E2E2E2F5E2E2F5E2
310
E2E2E2E2E2E2E2E2E2E2E2E2E2F5F5E2E2F5F5F5F5F5F5F5F5F5F5F5F5F5F5F5F5E2E2F5F5E2E2E2E2E2F0E2E2E2E2E2E2E2E2E2E2E2E2E2E2E2E2E2E2E2E2E2E2E2E2E2E2E2E2E2E2E2E2E2E2E2E2E2E2E2E2E2E2E2E2E2E2E2E2E2E2E2E2E2E2E2E2E2E2E2E2E2E2E2E2E2E2E2E2E2E2E2E2E2E2E2E2E2E2E2E2E2E2E2F0
310
E2E2F5F5E2F5F5F5E2F5E2E2F0E2E2E2F5F0E2E2E2E2E2E2E2E2E2E2E2F0E2E2E2E2E2F5E2E2F5E2E2E2F5F5F5E2E2E2F5E2E2F5E2E2E2E2E2E2E2E2E2E2E2E2E2E2F5F5E2E2F5F5F5F5F5F5F5F5F5F5F5F5F5F5F5F5E2E2F5F5E2E2E2E2E2F0E2E2E2E2E2E2E2E2E2E2E2E2E2E2E2E2E2E2E2E2E2E2E2E2E2E2E2E2E2E2E2
310
E2E2E2E2E2E2E2E2E2E2E2E2E2E2E2E2E2E2E2E2E2E2E2E2E2E2E2E2E2E2E2E2E2E2E2E2E2E2E2E2E2E2E2E2E2E2E2E2E2E2DCE2DCE2E2F5F5E2F5E2F5E2F5E2E2F0E2E2E2E2F5E2E2E2E2E2E2E2E2E2E2E2F0E2E2E2E2E2F5E2E2F5E2E2E2F5F5F5E2E2E2F5E2E2F5E2E2E2E2E2E2E2E2E2E2E2E2E2F5F5F5E2E2F5F5F5F5
310
F5F5F5F5F5F5F5F5F5F5F5F5E2E2F5F5F5F5E2DCDCF0E2E2E2E2E2E2E2E2E2E2E2E2E2E2E2E2E2E2E2E2E2E2E2E2E2E2E2E2E2E2E2E2E2E2E2E2E2E2E2E2E2E2E2E2E2E2E2E2E2E2E2E2E2E2E2E2E2E2E2E2E2E2E2E2E2E2E2E2E2E2E2E2E2E2E2E2E2E2E2E2E2DCDCDCE2E2F5E2F5F5F5F5F5F5E2E2F0E2E2E2E2F5E2E2E2
310
E2E2E2E2E2E2E2E2F0E2E2E2E2E2F5E2E2F5E2E2E2F5F5F5E2E2E2F5E2E2F5E2E2E2E2E2E2E2E2E2E2E2E2E2F5F5F5E2E2F5F5E2E2E2E2E2E2E2E2E2E2E2E2E2F5E2E2F5F5F5F5E2DCDCF0E2E2E2E2E2E2E2E2E2E2E2E2E2E2E2E2E2E2E2E2E2E2E2E2E2E2E2E2E2E2E2E2E2E2E2E2E2E2E2E2E2E2E2E2E2E2E2E2E2E2E2E2
310
E2E2E2E2E2E2E2E2E2E2E2E2E2E2E2E2E2E2E2E2E2E2E2E2E2E2E2E2E2DCDCDCE2E2F5E2F5F5F5F5F5F5E2E2F0E2E2E2E2F5E2E2E2E2E2E2E2E2E2E2E2F0E2E2E2E2E2F5E2E2F5E2E2E2F5F5F5E2E2E2F5E2E2F5E2E2E2E2E2E2E2E2E2E2E2E2E2F5F5F5E2E2F5F5F5F5F5F5F5F5F5F5F5F5F5F5F5F5E2E2F5F5F5F5E2DCDC
310
F0E2E2E2E2E2E2E2E2E2E2E2E2E2E2E2E2E2E2E2E2E2E2E2E2E2E2E2E2E2E2E2E2E2E2E2E2E2E2E2E2E2E2E2E2E2E2E2E2E2E2E2E2E2E2E2E2E2E2E2E2E2E2E2E2E2E2E2E2E2E2E2E2E2E2E2E2E2E2E2E2E2DCDCDCE2E2F5E2F5F5F5F5F5F5F5E2F0E2E2E2E2F5E2E2E2E2E2E2E2E2E2E2E2F0E2E2E2E2E2F5E2E2F5E2E2E2
310
F5F5F5E2E2E2E2E2E2F5E2E2E2E2E2E2E2E2E2E2E2E2E2F5F5F5E2E2F5F5E2E2E2E2E2E2E2E2E2E2E2E2E2F5E2E2F5F5F5F5E2DCDCF0E2E2E2E2E2E2E2E2E2E2E2E2E2E2E2E2E2E2E2E2E2E2E2E2E2E2E2E2E2E2E2E2E2E2E2E2E2E2E2E2E2E2E2E2E2E2E2E2E2E2E2E2E2E2E2E2E2E2E2E2E2E2E2E2E2E2E2E2E2E2E2E2E2
310
E2E2E2E2E2E2E2E2E2E2F0E2E2F5E2F5F5F5F5E2F5E2F5F0E2E2E2E2F5E2E2E2E2E2E2E2E2E2E2E2F0E2E2E2E2E2F5E2E2E2E2E2E2F5F5F5E2E2E2E2E2E2F5E2E2E2E2E2E2E2E2E2E2E2E2E2E2F5F5E2E2F5F5E2E2F5F5E2F5F5E2F5F5E2E2E2F5E2E2F5F5E2E2E2E2E2F0E2E2E2E2E2E2E2E2E2E2E2E2E2E2E2E2E2E2E2E2
310
E2E2E2E2E2E2E2E2E2E2E2E2E2E2E2E2E2E2E2E2E2E2E2E2E2E2E2E2E2E2E2E2E2E2E2E2E2E2E2E2E2E2E2E2E2E2E2E2E2E2E2E2E2E2E2E2E2E2E2E2E2E2E2F0E2E2F5E2E2E2E2E2E2F5E2F5F0E2E2E2F5F5E2E2E2E2E2E2E2E2E2E2E2F0E2E2E2E2E2F5E2E2E2E2E2E2F5F5F5E2E2E2E2E2E2F5E2E2E2E2E2E2E2E2E2E2E2
310
E2E2E2E2F5E2E2F5F5F5F5F5F5F5F5F5F5F5F5F5F5E2F5E2E2F5E2E2E2E2E2E2F0E2E2E2E2E2E2E2E2E2E2E2E2E2E2E2E2E2E2E2E2E2E2E2E2E2E2E2E2E2E2E2E2E2E2E2E2E2E2E2E2E2E2E2E2E2E2E2E2E2E2E2E2E2E2E2E2E2E2E2E2E2E2E2E2E2E2E2E2E2E2E2E2E2E2E2E2E2E2E2E2E2E2E2F0E2E2F5E2E2E2E2E2E2F5
310
E2F5F0E2E2E2F5E2E2E2E2E2E2E2E2E2E2E2E2F0E2E2E2E2E2F5E2E2E2E2E2E2F5F5F5E2E2E2E2E2E2F5E2E2E2E2E2E2E2E2E2E2E2E2E2E2E2F5E2E2F5F5E2F5F5F5F5F5F5F5F5F5F5E2E2F5E2E2F5E2E2E2E2E2E2F0E2E2E2E2E2E2E2E2E2E2E2E2E2E2E2E2E2E2E2E2E2E2E2E2E2E2E2E2E2E2E2E2E2E2E2E2E2E2E2E2E2
310
E2E2E2E2E2E2E2E2E2E2E2E2E2E2E2E2E2E2E2E2E2E2E2E2E2E2E2E2E2E2E2E2E2E2E2E2E2E2E2F5E2E2F0E2E2F5E2E2E2E2E2E2F5E2F5F0E2E2E2F5E2E2E2E2E2E2E2E2E2E2E2E2F0E2E2E2E2E2F5E2E2E2E2E2E2F5F5F5E2E2E2E2E2E2F5E2E2E2E2E2E2E2E2E2E2E2E2E2E2E2F5E2E2F5F5F5F5F5F5F5F5F5F5F5F5F5E2
310
E2F5E2E2F5E2E2E2E2E2E2F0E2E2E2E2E2E2E2E2E2E2E2E2E2E2E2E2E2E2E2E2E2E2E2E2E2E2E2E2E2E2E2E2E2E2E2E2E2E2E2E2E2E2E2E2E2E2E2E2E2E2E2E2E2E2E2E2E2E2E2E2E2E2E2E2E2E2E2E2E2E2E2E2E2E2E2E2E2E2E2E2F5F5E2F0E2E2F5E2E2E2E2E2E2F5E2F5F0E2E2F5E2E2E2E2E2E2E2E2E2E2E2E2E2F0E2
310
E2E2E2E2F5E2E2E2E2E2E2F5F5F5E2E2E2E2E2E2F5E2E2E2E2E2E2E2E2E2E2E2E2E2E2E2F5E2E2F5F5F5F5E2E2E2E2E2E2E2E2E2E2E2F5E2E2F5E2E2E2E2E2E2F0E2E2E2E2E2E2E2E2E2E2E2E2E2E2E2E2E2E2E2E2E2E2E2E2E2E2E2E2E2E2E2E2E2E2E2E2E2E2E2E2E2E2E2E2E2E2E2E2E2E2E2E2E2E2E2E2E2E2E2E2E2E2
310
E2E2E2E2E2E2E2E2E2E2E2E2E2E2E2E2E2E2E2F5E2F0E2E2F5E2E2E2E2E2E2F5E2F5F0E2F5F5E2E2E2E2E2E2E2E2E2E2E2E2E2F0E2E2E2E2E2F5E2E2E2E2E2E2F5F5F5E2E2E2E2E2E2F5E2E2E2E2E2E2E2E2E2E2E2E2E2E2E2F5E2E2E2F5F5F5F5F5F5F5F5F5F5F5F5F5F5F5E2E2F5E2E2E2E2E2E2F0E2E2E2E2E2E2E2E2E2
310
E2E2E2E2E2E2E2E2E2E2E2E2E2E2E2E2E2E2E2E2E2E2E2E2E2E2E2E2E2E2E2E2E2E2E2E2E2E2E2E2E2E2E2E2E2E2E2E2E2E2E2E2E2E2E2E2E2E2E2E2E2E2E2E2E2E2E2E2E2E2E2E2E2F5F0E2E2F5E2E2E2E2E2E2F5F5F5F0F5F5E2E2E2E2E2E2E2E2E2E2E2E2E2E2F0E2E2E2E2E2F5E2E2E2E2E2E2F5F5F5E2E2E2E2E2E2F5
310
E2E2E2E2E2E2E2E2E2E2E2E2E2E2E2F5E2E2E2E2E2E2E2E2E2E2E2E2E2E2E2E2E2E2E2E2F5E2E2E2E2E2E2F0E2E2E2E2E2E2E2E2E2E2E2E2E2E2E2E2E2E2E2E2E2E2E2E2E2E2E2E2E2E2E2E2E2E2E2E2E2E2E2E2E2E2E2E2E2E2E2E2E2E2E2E2E2E2E2E2E2E2E2E2E2E2E2E2E2E2E2E2E2E2E2E2E2E2E2E2E2E2E2E2E2E2E2
310
F5F5E2F5E2E2E2E2E2E2F5F5E2F0F5E2E2E2E2E2E2E2E2E2E2E2E2E2E2E2F0E2E2E2E2E2F5E2E2E2E2E2E2F5F5F5E2E2E2E2E2E2F5E2E2E2E2E2E2E2E2E2E2E2E2E2E2E2F5F5F5F5F5F5F5F5F5F5F5F5F5F5F5F5F5F5F5F5F5F5E2E2E2E2E2F0F0E2E2E2E2E2E2E2E2E2E2E2E2E2E2E2E2E2E2E2E2E2E2E2E2E2E2E2E2E2E2
310
E2E2E2E2E2E2E2E2E2E2E2E2E2E2E2E2E2E2E2E2E2E2E2E2E2E2E2E2E2E2E2E2E2E2E2E2E2E2E2E2E2E2E2E2E2E2E2E2E2E2E2E2E2F0F5F5F5E2E2E2E2E2E2F5E2F5F5E2E2E2E2E2E2E2E2E2E2E2E2E2E2E2E2F0E2E2E2E2E2F5E2E2E2E2E2E2F5F5F5E2E2E2F5E2E2F5E2E2E2E2E2E2E2E2E2E2E2E2E2E2E2F5F5F5F5F5F5
310
F5F5F5F5F5F5F5F5F5F5F5F5F5F5F5F5F0F0F0F0F0F0F0F0E2E2E2E2E2E2E2E2E2E2E2E2E2E2E2E2E2E2E2E2E2E2E2E2E2E2E2E2E2E2E2E2E2E2E2E2E2E2E2E2E2E2E2E2E2E2E2E2E2E2E2E2E2E2E2E2E2E2E2E2E2E2E2E2E2E2E2E2E2E2E2E2E2E2E2E2E2E2E2E2E2F0F0F0F0F5F5F5F5F5F5F5F5F5F0F0F0F0F0F0F0F0F0
310
F0F0F0F0F0F0F0F0F0F0F0E2E2E2E2F5E2E2F5E2E2E2F5F5F5E2E2E2F5E2E2F5E2E2E2E2E2E2E2E2E2E2E2E2E2E2E2F0E2E2E2E2E2E2E2E2E2E2E2E2E2E2E2E2E2E2E2E2F0E2E2E2E2E2E2E2E2E2E2E2E2E2E2E2E2E2E2E2E2E2E2E2E2E2E2E2E2E2E2E2E2E2E2E2E2E2E2E2E2E2E2E2E2E2E2E2E2E2E2E2E2E2E2E2E2E2E2
310
E2E2E2E2E2E2E2E2E2E2E2E2E2E2E2E2E2E2E2E2E2E2E2E2E2E2E2E2E2E2E2E2E2E2E2F0E2E2E2E2E2E2F0E2E2F0E2E2E2E2E2E2E2E2E2E2E2E2E2E2E2E2E2E2E2E2E2E2F5E2E2F5E2E2E2F5F5F5E2E2E2F5E2E2F5E2E2E2E2E2E2E2E2E2E2E2E2E2E2E2F0E2E2E2E2E2E2E2E2E2E2E2E2E2E2E2E2E2E2E2E2F0E2E2E2E2E2
310
E2E2E2E2E2E2E2E2E2E2E2E2E2E2E2E2E2E2E2E2E2E2E2E2E2E2E2E2E2E2E2E2E2E2E2E2E2E2E2E2E2E2E2E2E2E2E2E2E2E2E2E2E2E2E2E2E2E2E2E2E2E2E2E2E2E2E2E2E2E2E2E2E2E2E2E2E2E2E2E2E2E2E2E2E2E2E2E2F0E2E2E2E2E2E2F0E2E2F0E2E2E2E2E2E2E2E2E2E2E2E2E2E2E2E2E2E2E2E2E2E2F5E2E2F5E2E2
310
E2F5F5F5E2E2E2F5E2E2F5E2E2E2E2E2E2E2E2E2E2E2E2E2E2E2F0E2E2E2E2E2E2E2E2E2E2E2E2E2E2E2E2E2E2E2E2F0E2E2E2E2E2E2E2E2E2E2E2E2E2E2E2E2E2E2E2E2E2E2E2E2E2E2E2E2E2E2E2E2E2E2E2E2E2E2E2E2E2E2E2E2E2E2E2E2E2E2E2E2E2E2E2E2E2E2E2E2E2E2E2E2E2E2E2E2E2E2E2E2E2E2E2E2E2E2E2
310
E2E2E2E2E2E2E2E2E2E2E2E2E2E2F0E2E2E2E2E2E2F0E2E2F0E2E2E2E2E2E2E2E2E2E2E2E2E2E2E2E2E2E2E2E2E2E2F5E2E2F5E2E2E2F5F5F5E2E2E2F5E2E2F5E2E2E2E2E2E2E2E2E2E2E2E2E2E2E2F0E2E2E2E2E2E2E2E2E2E2E2E2E2E2E2E2E2E2E2E2F0E2E2E2E2E2E2E2E2E2E2E2E2E2E2E2E2E2E2E2E2E2E2E2E2E2E2
310
E2E2E2E2E2E2E2E2E2E2E2E2E2E2E2E2E2E2E2E2E2E2E2E2E2E2E2E2E2E2E2E2E2E2E2E2E2E2E2E2E2E2E2E2E2E2E2E2E2E2E2E2E2E2E2E2E2E2E2E2E2E2E2E2E2E2E2F0E2E2E2E2E2E2F0E2E2F0E2E2E2E2E2E2E2E2E2E2E2E2E2E2E2E2E2E2E2E2E2E2F5E2E2F5E2E2E2F5F5F5E2E2E2F5E2E2F5E2E2E2E2E2E2E2E2E2E2
310
E2E2E2E2E2F0F0F0F0F0F0F0F0F0F0F0F0F0F0F0F0F0F0F0F0F0F0E2E2E2E2E2E2E2E2E2E2E2E2E2E2E2E2E2E2E2E2E2E2E2E2E2E2E2E2E2E2E2E2E2E2E2E2E2E2E2E2E2E2E2E2E2E2E2E2E2E2E2E2E2E2E2E2E2E2E2E2E2E2E2E2E2E2E2E2E2E2E2E2E2E2E2E2E2E2E2E2E2E2E2E2E2E2E2E2E2E2E2E2E2F0F0F0F0F0F0F0
310
F0E2E2F0E2E2E2E2E2E2E2E2E2E2E2E2E2E2E2E2E2E2E2E2E2E2F5E2E2F5E2E2E2F5F5F5E2E2E2F5E2E2F5E2E2E2E2E2E2E2E2E2E2E2E2E2E2E2F0E2E2E2E2E2E2E2E2E2DCDCDCDCE2E2E2E2E2E2E2F0E2E2E2E2E2E2E2E2E2E2E2E2E2E2E2E2E2E2E2E2E2E2E2E2E2E2E2E2E2E2E2E2E2E2E2E2E2E2E2E2E2E2E2E2E2E2E2
310
E2E2E2E2E2E2E2E2E2E2E2E2E2E2E2E2E2E2E2E2E2E2E2E2E2E2E2E2E2E2E2E2E2E2E2E2E2E2E2E2E2E2E2E2E2E2F0F0DCDCDCF0F0F0E2E2F0E2E2E2E2E2E2E2E2E2E2E2E2E2E2E2E2E2E2E2E2E2E2F5E2E2F5E2E2E2F5F5F5E2E2E2F5E2E2F5E2E2E2E2E2E2E2E2E2E2E2E2E2E2E2E2E2E2E2E2E2E2E2E2E2DCDCDCDCE2E2
310
E2E2E2E2E2E2E2E2E2E2E2E2E2E2E2E2E2E2E2E2E2E2E2E2E2E2E2E2E2E2E2E2E2E2E2E2E2E2E2E2E2E2E2E2E2E2E2E2E2E2E2E2E2E2E2E2E2E2E2E2E2E2E2E2E2E2E2E2E2E2E2E2E2E2E2E2E2E2E2E2E2E2E2E2E2E2E2E2E2E2E2E2E2E2E2E2E2E2E2F0E2DCDCDCE2E2F0E2E2F0E2E2E2E2E2E2E2E2E2E2E2E2E2E2E2E2E2
310
E2E2E2E2E2F5E2E2F5E2E2E2F5F5F5E2E2E2F5E2E2F5E2E2E2E2E2E2E2E2E2E2E2E2E2E2E2E2E2E2E2E2E2E2E2E2E2E2E2E2E2E2E2E2E2E2E2E2E2E2E2E2E2E2E2E2E2E2E2E2E2E2E2E2E2E2E2E2E2E2E2E2E2E2E2E2E2E2E2E2E2E2E2E2E2E2E2E2E2E2E2E2E2E2E2E2E2E2E2E2E2E2E2E2E2E2E2E2E2E2E2E2E2E2E2E2E2
310
E2E2E2E2E2E2E2E2E2E2E2E2E2E2E2E2E2E2E2E2E2E2E2E2E2F0F0F0F0F0F0F0F0F0F0F0E2E2E2E2E2E2E2E2E2E2E2E2E2E2E2E2E2E2E2E2E2E2F5E2E2F5E2E2E2F5F5F5E2E2E2F5E2E2F5E2E2E2E2E2E2E2E2E2E2E2E2E2E2E2E2E2E2E2E2E2E2E2E2E2E2E2E2E2E2E2E2E2E2E2E2E2E2E2E2E2E2E2E2E2E2E2E2E2E2E2E2
310
E2E2E2E2E2E2E2E2E2E2E2E2E2E2E2E2E2E2E2E2E2E2E2E2E2E2E2E2E2E2E2E2E2E2E2E2E2E2E2E2E2E2E2E2E2E2E2E2E2E2E2E2E2E2E2E2E2E2E2E2E2E2E2E2E2E2E2E2E2E2E2E2E2E2E2E2E2E2F0E2DCDCDCDCDCE2E2E2F0E2E2E2E2E2E2E2E2E2E2E2E2E2E2E2E2E2E2E2E2E2E2F5E2E2F5E2E2E2F5F5F5E2E2E2F5E2E2
310
F5E2E2E2E2E2E2E2E2E2E2E2E2E2E2E2E2E2E2E2E2E2E2E2E2E2E2E2E2E2E2E2E2E2E2E2E2E2E2E2E2E2E2E2E2E2E2E2E2E2E2E2E2E2E2E2E2E2E2E2E2E2E2E2E2E2E2E2E2E2E2E2E2E2E2E2E2E2E2E2E2E2E2E2E2E2E2E2E2E2E2E2E2E2E2E2E2E2E2E2E2E2E2E2E2E2E2E2E2E2E2E2E2E2E2E2E2E2E2E2E2E2E2E2E2E2E2
310
E2E2E2E2E2E2DCDCDCDCDCE2E2E2E2E2E2E2E2E2E2E2E2E2E2E2E2E2E2E2E2E2E2E2E2E2E2F5E2E2F5E2E2E2F5F5F5E2E2E2F5E2E2F5E2E2E2E2E2E2E2E2E2E2E2E2E2E2E2E2E2E2E2E2E2E2E2E2E2E2E2E2E2E2E2E2E2E2E2E2E2E2E2E2E2E2E2E2E2E2E2E2E2E2E2E2E2E2E2E2E2E2E2E2E2E2E2E2E2E2E2E2E2E2E2E2E2
310
E2E2E2E2E2E2E2E2E2E2E2E2E2E2E2E2E2E2E2E2E2E2E2E2E2E2E2E2E2E2E2E2E2E2E2E2E2E2E2E2E2E2E2E2E2E2E2E2E2E2E2E2E2E2E2E2E2E2E2DCDCDCDCDCE2E2E2E2E2E2E2E2E2E2E2E2E2E2E2E2E2E2E2E2E2E2E2E2E2E2F5E2E2F5E2E2E2F5F5F5E2E2E2F5E2E2F5E2E2E2E2E2E2E2E2E2E2E2E2E2E2E2E2E2E2E2E2
310
E2E2E2E2E2E2E2E2E2E2E2E2E2E2E2E2E2E2E2E2E2E2E2E2E2E2E2E2E2E2E2E2E2E2E2E2E2E2E2E2E2E2E2E2E2E2E2E2E2E2E2E2E2E2E2E2E2E2E2E2E2E2E2E2E2E2E2E2E2E2E2E2E2E2E2E2E2E2E2E2E2E2E2E2E2E2E2E2E2E2E2E2E2E2E2E2E2E2E2E2E2E2E2E2E2E2E2E2E2E2E2E2E2E2E2E2E2E2E2E2E2E2E2E2E2E2E2
310
E2E2E2E2E2E2E2E2E2E2E2E2E2E2E2E2F5E2E2F5E2E2E2F5F5F5E2E2E2F5E2E2F5E2E2E2E2E2E2E2E2E2E2E2E2E2E2E2E2E2E2E2E2E2E2E2E2E2E2E2E2E2E2E2E2E2E2E2E2E2E2E2E2E2E2E2E2E2E2E2E2E2E2E2E2E2E2E2E2E2E2E2E2E2E2E2E2E2E2E2E2E2E2E2E2E2E2E2E2E2E2E2E2E2E2E2E2E2E2E2E2E2E2E2E2E2E2
310
E2E2E2E2E2E2E2E2E2E2E2E2E2E2E2E2E2E2E2E2E2E2E2E2E2E2E2E2E2E2E2E2E2E2E2E2E2E2E2E2E2E2E2E2E2E2E2E2E2E2E2E2E2E2E2E2E2E2E2E2E2E2E2E2E2E2E2E2E2F5E2E2F5E2E2E2F5F5F5E2E2E2F5E2E2F5E2E2E2E2E2E2E2E2E2E2E2E2E2E2E2E2E2E2E2E2E2E2E2E2E2E2E2E2E2E2E2E2E2E2E2E2E2E2E2E2E2
310
E2E2E2E2E2E2E2E2E2E2E2E2E2E2E2E2E2E2E2E2E2E2E2E2E2E2E2E2E2E2E2E2E2E2E2E2E2E2E2E2E2E2E2E2E2E2E2E2E2E2E2E2E2E2E2E2E2E2E2E2E2E2E2E2E2E2E2E2E2E2E2E2E2E2E2E2E2E2E2E2E2E2E2E2E2E2E2E2E2E2E2E2E2E2E2E2E2E2E2E2E2E2E2E2E2E2E2E2E2E2E2E2E2E2E2E2E2E2E2E2E2E2F5E2E2F5E2
310
E2E2F5F5F5E2E2E2E2E2E2F5E2E2E2E2E2E2E2E2E2E2E2E2E2E2E2E2E2E2E2E2E2E2E2E2E2E2E2E2E2E2E2E2E2E2E2E2E2E2E2E2E2E2E2E2E2E2E2E2E2E2E2E2E2E2E2E2E2E2E2E2E2E2E2E2E2E2E2E2E2E2E2E2E2E2E2E2E2E2E2E2E2E2E2E2E2E2E2E2E2E2E2E2E2E2E2E2E2E2E2E2E2E2E2E2E2E2E2E2E2E2E2E2E2E2E2
310
E2E2E2E2E2E2E2E2E2E2E2E2E2E2E2E2E2E2E2E2E2E2E2E2E2E2E2E2E2E2E2E2E2E2E2E2E2E2E2E2E2E2E2E2E2E2E2E2F5E2E2E2E2E2E2F5F5F5E2E2E2E2E2E2F5E2E2E2E2E2E2E2E2E2E2E2E2E2E2E2E2E2E2E2E2E2E2E2E2E2E2E2E2E2E2E2E2E2E2E2E2E2E2E2E2E2E2E2E2E2E2E2E2E2E2E2E2E2E2E2E2E2E2E2E2E2E2
310
E2E2E2E2E2E2E2E2E2E2E2E2E2E2E2E2E2E2E2E2E2E2E2E2E2E2E2E2E2E2E2E2E2E2E2E2E2E2E2E2E2E2E2E2E2E2E2E2E2E2E2E2E2E2E2E2E2E2E2E2E2E2E2E2E2E2E2E2E2E2E2E2E2E2E2E2E2E2E2E2E2E2E2E2E2E2E2E2E2E2E2E2E2E2E2E2E2E2E2E2E2F5E2E2E2E2E2E2F5F5F5E2E2E2E2E2E2F5E2E2E2E2E2E2E2E2E2
310
E2E2E2E2E2E2E2E2E2E2E2E2E2E2E2E2E2E2E2E2E2E2E2E2E2E2E2E2E2E2E2E2E2E2E2E2E2E2E2E2E2E2E2E2E2E2E2E2E2E2E2E2E2E2E2E2E2E2E2E2E2E2E2E2E2E2E2E2E2E2E2E2E2E2E2E2E2E2E2E2E2E2E2E2E2E2E2E2E2E2E2E2E2E2E2E2E2E2E2E2E2E2E2E2E2E2E2E2E2E2E2E2E2E2E2E2E2E2E2E2E2E2E2E2E2E2E2
310
E2E2E2E2E2E2E2E2E2E2E2E2E2E2E2E2E2E2E2E2E2E2E2E2E2E2E2F5E2E2E2E2E2E2F5F5F5E2E2E2E2E2E2F5E2E2E2E2E2E2E2E2E2E2E2E2E2E2E2E2E2E2E2E2E2E2E2E2E2E2E2E2E2E2E2E2E2E2E2E2E2E2E2E2E2E2E2E2E2E2E2E2E2E2E2E2E2E2E2E2E2E2E2E2E2E2E2E2E2E2E2E2E2E2E2E2E2E2E2E2E2E2E2E2E2E2E2
310
E2E2E2E2E2E2E2E2E2E2E2E2E2E2E2E2E2E2E2E2E2E2E2E2E2E2E2E2E2E2E2E2E2E2E2E2E2E2E2E2E2E2E2E2E2E2E2E2E2E2E2E2E2E2E2E2E2E2E2E2E2E2E2E2E2E2E2E2E2E2E2E2E2E2E2E2E2E2E2E2F5E2E2E2E2E2E2F5F5F5E2E2E2E2E2E2F5E2E2E2E2E2E2E2E2E2E2E2E2E2E2E2E2E2E2E2E2E2E2E2E2E2E2E2E2E2E2
310
E2E2E2E2E2E2E2E2E2E2E2E2E2E2E2E2E2E2E2E2E2E2E2E2E2E2E2E2E2E2E2E2E2E2E2E2E2E2E2E2E2E2E2E2E2E2E2E2E2E2E2E2E2E2E2E2E2E2E2E2E2E2E2E2E2E2E2E2E2E2E2E2E2E2E2E2E2E2E2E2E2E2E2E2E2E2E2E2E2E2E2E2E2E2E2E2E2E2E2E2E2E2E2E2E2E2E2E2E2E2E2E2E2E2E2E2E2E2E2E2E2E2E2E2E2E2E2
310
E2E2E2E2E2E2F5E2E2E2E2E2E2F5F5F5E2E2E2E2E2E2F5E2E2E2E2E2E2E2E2E2E2E2E2E2E2E2E2E2E2E2E2E2E2E2E2E2E2E2E2E2E2E2E2E2E2E2E2E2E2E2E2E2E2E2E2E2E2E2E2E2E2E2E2E2E2E2E2E2E2E2E2E2E2E2E2E2E2E2E2E2E2E2E2E2E2E2E2E2E2E2E2E2E2E2E2E2E2E2E2E2E2E2E2E2E2E2E2E2E2E2E2E2E2E2E2
310
E2E2E2E2E2E2E2E2E2E2E2E2E2E2E2E2E2E2E2E2E2E2E2E2E2E2E2E2E2E2E2E2E2E2E2E2E2E2E2E2E2E2E2E2E2E2E2E2E2E2E2E2E2E2E2E2E2E2E2F5E2E2E2E2E2E2F5F5F5E2E2E2E2E2E2F5E2E2E2E2E2E2E2E2E2E2E2E2E2E2E2E2E2E2E2E2E2E2E2E2E2E2E2E2E2E2E2E2E2E2E2E2E2E2E2E2E2E2E2E2E2E2E2E2E2E2E2
310
E2E2E2E2E2E2E2E2E2E2E2E2E2E2E2E2E2E2E2E2E2E2E2E2E2E2E2E2E2E2E2E2E2E2E2E2E2E2E2E2E2E2E2E2E2E2E2E2E2E2E2E2E2E2E2E2E2E2E2E2E2E2E2E2E2E2E2E2E2E2E2E2E2E2E2E2E2E2E2E2E2E2E2E2E2E2E2E2E2E2E2E2E2E2E2E2E2E2E2E2E2E2E2E2E2E2E2E2E2E2E2E2F5E2E2E2E2E2E2F5F5F5E2E2E2E2E2
310
E2F5E2E2E2E2E2E2E2E2E2E2E2E2E2E2E2E2E2E2E2E2E2E2E2E2E2E2E2E2E2E2E2E2E2E2E2E2E2E2E2E2E2E2E2E2E2E2E2E2E2E2E2E2E2E2E2E2E2E2E2E2E2E2E2E2E2E2E2E2E2E2E2E2E2E2E2E2E2E2E2E2E2E2E2E2E2E2E2E2E2E2E2E2E2E2E2E2E2E2E2E2E2E2E2E2E2E2E2E2E2E2E2E2E2E2E2E2E2E2E2E2E2E2E2E2E2
310
E2E2E2E2E2E2E2E2E2E2E2E2E2E2E2E2E2E2E2E2E2E2E2E2E2E2E2E2E2E2E2E2E2E2E2E2E2E2F5E2E2E2E2E2E2F5F5F5E2E2E2E2E2E2F5E2E2E2E2E2E2E2E2E2E2E2E2E2E2E2E2E2E2E2E2E2E2E2E2E2E2E2E2E2E2E2E2E2E2E2E2E2E2E2E2E2E2E2E2E2E2E2E2E2E2E2E2E2E2E2E2E2E2E2E2E2E2E2E2E2E2E2E2E2E2E2E2
310
E2E2E2E2E2E2E2E2E2E2E2E2E2E2E2E2E2E2E2E2E2E2E2E2E2E2E2E2E2E2E2E2E2E2E2E2E2E2E2E2E2E2E2E2E2E2E2E2E2E2E2E2E2E2E2E2E2E2E2E2E2E2E2E2E2E2E2E2E2E2E2E2E2E2E2E2E2E2E2E2E2E2E2E2E2E2E2E2E2E2E2F5E2E2E2E2E2E2F5F5F5E2E2E2F5E2E2F5E2E2E2E2E2E2E2E2E2E2E2E2E2E2E2E2E2E2E2
310
E2E2E2E2E2E2E2E2E2E2E2E2E2E2E2E2E2E2E2E2E2E2E2E2E2E2E2E2E2E2E2E2E2E2E2E2E2E2E2E2E2E2E2E2E2E2E2E2E2E2E2E2E2E2E2E2E2E2E2E2E2E2E2E2E2E2E2E2E2E2E2E2E2E2E2E2E2E2E2E2E2E2E2E2E2E2E2E2E2E2E2E2E2E2E2E2E2E2E2E2E2E2E2E2E2E2E2E2E2E2E2E2E2E2E2E2E2E2E2E2E2E2E2E2E2E2E2
310
E2E2E2E2E2E2E2E2E2E2E2E2E2E2E2E2E2F5E2E2F5E2E2E2F5F5F5E2E2E2F5E2E2F5E2E2E2E2E2E2E2E2E2E2E2E2E2E2E2E2E2E2E2E2E2E2E2E2E2E2E2E2E2E2E2E2E2E2E2E2E2E2E2E2E2E2E2E2E2E2E2E2E2E2E2E2E2E2E2E2E2E2E2E2E2E2E2E2E2E2E2E2E2E2E2E2E2E2E2E2E2E2E2E2E2E2E2E2E2E2E2E2E2E2E2E2E2
310
E2E2E2E2E2E2E2E2E2E2E2E2E2E2E2E2E2E2E2E2E2E2E2E2E2E2E2E2E2E2E2E2E2E2E2E2E2E2E2E2E2E2E2E2E2E2E2E2E2E2E2E2E2E2E2E2E2E2E2E2E2E2E2E2E2E2E2E2E2E2F5E2E2F5E2E2E2F5F5F5E2E2E2F5E2E2F5E2E2E2E2E2E2E2E2E2E2E2E2E2E2E2E2E2E2E2E2E2E2E2E2E2E2E2E2E2E2E2E2E2E2E2E2E2E2E2E2
310
E2E2E2E2E2E2E2E2E2E2E2E2E2E2E2E2E2E2E2E2E2E2E2E2E2E2E2E2E2E2E2E2E2E2E2E2E2E2E2E2E2E2E2E2E2E2E2E2E2E2E2E2E2E2E2E2E2E2E2E2E2E2E2E2E2E2E2E2E2E2E2E2E2E2E2E2E2E2E2E2E2E2E2E2E2E2E2E2E2E2E2E2E2E2E2E2E2E2E2E2E2E2E2E2E2E2E2E2E2E2E2E2E2E2E2E2E2E2E2E2E2E2E2F5E2E2F5
310
E2E2E2F5F5F5E2E2E2F5E2E2F5F5F5F5F5F5F5F5F5F5F5F5F5F5F5F5F5F5F5F5F5F5F5F5F5F5F5F5F5F5F5F5F5F5F5F5F5F5F5F5F5F5F5F5F5F5F5F5F5F5F5F5F5F5F5F5F5F5F5F5F5F5F5F5F5F5F5F5F5F5F5F5F5F5F5F5F5F5F5F5F5F5F5F5F5F5F5F5F5F5F5F5F5F5F5F5F5F5F5F5F5F5F5F5F5F5F5F5F5F5F5F5F5F5F5
310
F5F5F5F5F5F5F5F5F5F5F5F5F5F5F5F5F5F5F5F5F5F5F5F5F5F5F5F5F5F5F5F5F5F5F5F5F5F5F5F5F5F5F5F5F5F5F5F5F5F5E2E2F5E2E2E2F5F5F5E2E2E2F5E2E2E2E2E2E2E2E2E2E2E2E2E2E2E2E2E2E2E2E2E2E2E2E2E2E2E2E2E2E2E2E2E2E2E2E2E2E2E2E2E2E2E2E2E2E2E2E2E2E2E2E2E2E2E2E2E2E2E2E2E2E2E2E2
310
E2E2E2E2E2E2E2E2E2E2E2E2E2E2E2E2E2E2E2E2E2E2E2E2E2E2E2E2E2E2E2E2E2E2E2E2E2E2E2E2E2E2E2E2E2E2E2E2E2E2E2E2E2E2E2E2E2E2E2E2E2E2E2E2E2E2E2E2E2E2E2E2E2E2E2E2E2E2E2E2E2E2E2E2E2E2E2E2E2E2E2E2E2E2E2E2E2E2E2E2E2E2E2E2E2F5E2E2E2F5F5F5E2E2E2F5E2E2E2E2E2E2E2E2E2E2E2
310
E2E2E2E2E2E2E2E2E2E2E2E2E2E2E2E2E2E2E2E2E2E2E2E2E2E2E2E2E2E2E2E2E2E2E2E2E2E2E2E2E2E2E2E2E2E2E2E2E2E2E2E2E2E2E2E2E2E2E2E2E2E2E2E2E2E2E2E2E2E2E2E2E2E2E2E2E2E2E2E2E2E2E2E2E2E2E2E2E2E2E2E2E2E2E2E2E2E2E2E2E2E2E2E2E2E2E2E2E2E2E2E2E2E2E2E2E2E2E2E2E2E2E2E2E2E2E2
310
E2E2E2E2E2E2E2E2E2E2E2E2E2E2E2E2E2E2E2E2E2E2E2E2E2E2E2E2E2E2E2F5E2E2E2F5F5F5E2E2E2F5E2E2E2E2E2E2E2E2E2E2E2E2E2E2E2E2E2E2E2E2E2E2E2E2E2E2E2E2E2E2E2E2E2E2E2E2E2E2E2E2E2E2E2E2E2E2E2E2E2E2E2E2E2E2E2E2E2E2E2E2E2E2E2E2E2E2E2E2E2E2E2E2E2E2E2E2E2E2E2E2E2E2E2E2E2
310
E2E2E2E2E2E2E2E2E2E2E2E2E2E2E2E2E2E2E2E2E2E2E2E2E2E2E2E2E2E2E2E2E2E2E2E2E2E2E2E2E2E2E2E2E2E2E2E2E2E2E2E2E2E2E2E2E2E2E2E2E2E2E2E2E2E2E2E2E2E2E2E2E2E2E2E2E2E2E2E2E2E2E2E2F5E2E2E2F5F5F5E2E2E2F5F5F5F5F5F5F5F5E2E2E2E2E2E2E2E2E2F5F5F5F5F5F5F5F5F5F5F5F5F5F5F5F5
310
E2E2E2E2E2E2E2E2F5F5F5F5F5F5F5F5F5F5F5F5F5F5F5F5E2E2E2E2E2E2E2E2E2F5F5F5F5F5F5F5F5F5F5F5F5F5F5F5E2E2E2E2E2E2E2E2E2F5F5F5F5F5F5F5F5F5F5F5F5F5F5F5E2E2E2E2E2E2E2E2E2F5F5F5F5F5F5F5F5F5F5F5F5F5F5F5F5E2E2E2E2E2E2E2E2F5F5F5F5F5F5F5F5F5F5F5F5F5F5F5F5E2E2E2E2E2E2
310
E2E2E2F5F5F5F5F5F5F5F5E2E2E2F5F5F5E2E2E2E2E2E2E2E2E2E2E2E2E2E2E2E2E2E2E2E2E2E2E2E2E2E2E2E2E2E2E2E2E2E2E2E2E2E2E2E2E2E2E2E2E2E2E2E2E2E2E2E2E2E2E2E2E2E2E2E2E2E2E2E2E2E2E2E2E2E2E2E2E2E2E2E2E2E2E2E2E2E2E2E2E2E2E2E2E2E2E2E2E2E2E2E2E2E2E2E2E2E2E2E2E2E2E2E2E2E2
310
E2E2E2E2E2E2E2E2E2E2E2E2E2E2E2E2E2E2E2E2E2E2E2E2E2E2E2E2E2E2E2E2E2E2E2E2E2E2E2E2E2E2E2E2E2E2E2E2E2E2E2E2E2E2E2E2E2E2E2E2E2E2E2E2E2E2E2F5F5F5E2E2E2E2E2E2E2E2E2E2E2E2E2E2E2E2E2E2E2E2E2E2E2E2E2E2E2E2E2E2E2E2E2E2E2E2E2E2E2E2E2E2E2E2E2E2E2E2E2E2E2E2E2E2E2E2E2
310
E2E2E2E2E2E2E2E2E2E2E2E2E2E2E2E2E2E2E2E2E2E2E2E2E2E2E2E2E2E2E2E2E2E2E2E2E2E2E2E2E2E2E2E2E2E2E2E2E2E2E2E2E2E2E2E2E2E2E2E2E2E2E2E2E2E2E2E2E2E2E2E2E2E2E2E2E2E2E2E2E2E2E2E2E2E2E2E2E2E2E2E2E2E2E2E2E2E2E2E2E2E2E2E2E2E2E2E2E2E2E2E2E2E2E2E2E2E2E2E2F5EFF5F5F5F5F5
310
F5F5F5F5F5F5F5F5F5F5F5F5F5F5F5F5F5F5F5F5F5F5F5F5F5F5F5F5F5F5F5F5F5F5F5F5F5F5F5F5F5F5F5F5F5F5F5F5F5F5F5F5F5F5F5F5F5F5F5F5F5F5F5F5F5F5F5F5F5F5F5F5F5F5F5F5F5F5F5F5F5F5F5F5F5F5F5F5F5F5F5F5F5F5F5F5F5F5F5F5F5F5F5F5F5F5F5F5F5F5F5F5F5F5F5F5F5F5F5F5F5F5F5F5F5F5F5
310
F5F5F5F5F5F5F5F5F5F5F5F5F5F5F5F5F5F5F5F5F5F5F5F5F5F5F5F5F5F5F5F5F5F5F5F5F5F5F5F5F5F5F5F5F5F5F5EF
  0
XRECORD
  5
4994
102
{ACAD_REACTORS
330
1FAD
102
}
330
1FAD
100
AcDbXrecord
280
     1
102
MATERIAL
148
0.0
149
0.0
149
0.0
 93
        0
 94
      127
282
     0
 72
     0
 77
     0
171
     0
175
     0
179
     0
273
     0
  0
XRECORD
  5
1FAF
102
{ACAD_REACTORS
330
1FAD
102
}
330
1FAD
100
AcDbXrecord
280
     1
270
     1
271
     1
  0
XRECORD
  5
1FAE
102
{ACAD_REACTORS
330
1FAD
102
}
330
1FAD
100
AcDbXrecord
280
     1
270
     1
271
     1
  0
XRECORD
  5
1FB2
102
{ACAD_REACTORS
330
1FAD
102
}
330
1FAD
100
AcDbXrecord
280
     1
270
     1
271
     1
  0
XRECORD
  5
1FB1
102
{ACAD_REACTORS
330
1FAD
102
}
330
1FAD
100
AcDbXrecord
280
     1
270
     1
271
     1
  0
XRECORD
  5
1FB3
102
{ACAD_REACTORS
330
1FAD
102
}
330
1FAD
100
AcDbXrecord
280
     1
270
     1
271
     1
  0
XRECORD
  5
1FB0
102
{ACAD_REACTORS
330
1FAD
102
}
330
1FAD
100
AcDbXrecord
280
     1
270
     1
271
     1
  0
XRECORD
  5
4993
102
{ACAD_REACTORS
330
1FA5
102
}
330
1FA5
100
AcDbXrecord
280
     1
102
MATERIAL
148
0.0
149
0.0
149
0.0
 93
        0
 94
      127
282
     0
 72
     0
 77
     0
171
     0
175
     0
179
     0
273
     0
  0
XRECORD
  5
1FA7
102
{ACAD_REACTORS
330
1FA5
102
}
330
1FA5
100
AcDbXrecord
280
     1
270
     1
271
     1
  0
XRECORD
  5
1FA6
102
{ACAD_REACTORS
330
1FA5
102
}
330
1FA5
100
AcDbXrecord
280
     1
270
     1
271
     1
  0
XRECORD
  5
1FAA
102
{ACAD_REACTORS
330
1FA5
102
}
330
1FA5
100
AcDbXrecord
280
     1
270
     1
271
     1
  0
XRECORD
  5
1FA9
102
{ACAD_REACTORS
330
1FA5
102
}
330
1FA5
100
AcDbXrecord
280
     1
270
     1
271
     1
  0
XRECORD
  5
1FAB
102
{ACAD_REACTORS
330
1FA5
102
}
330
1FA5
100
AcDbXrecord
280
     1
270
     1
271
     1
  0
XRECORD
  5
1FA8
102
{ACAD_REACTORS
330
1FA5
102
}
330
1FA5
100
AcDbXrecord
280
     1
270
     1
271
     1
  0
XRECORD
  5
4995
102
{ACAD_REACTORS
330
1FB5
102
}
330
1FB5
100
AcDbXrecord
280
     1
102
MATERIAL
148
0.0
149
0.0
149
0.0
 93
        0
 94
      127
282
     0
 72
     0
 77
     0
171
     0
175
     0
179
     0
273
     0
  0
XRECORD
  5
1FB7
102
{ACAD_REACTORS
330
1FB5
102
}
330
1FB5
100
AcDbXrecord
280
     1
270
     1
271
     1
  0
XRECORD
  5
1FB6
102
{ACAD_REACTORS
330
1FB5
102
}
330
1FB5
100
AcDbXrecord
280
     1
270
     1
271
     1
  0
XRECORD
  5
1FBA
102
{ACAD_REACTORS
330
1FB5
102
}
330
1FB5
100
AcDbXrecord
280
     1
270
     1
271
     1
  0
XRECORD
  5
1FB9
102
{ACAD_REACTORS
330
1FB5
102
}
330
1FB5
100
AcDbXrecord
280
     1
270
     1
271
     1
  0
XRECORD
  5
1FBB
102
{ACAD_REACTORS
330
1FB5
102
}
330
1FB5
100
AcDbXrecord
280
     1
270
     1
271
     1
  0
XRECORD
  5
1FB8
102
{ACAD_REACTORS
330
1FB5
102
}
330
1FB5
100
AcDbXrecord
280
     1
270
     1
271
     1
  0
XRECORD
  5
520F
102
{ACAD_REACTORS
330
520E
102
}
330
520E
100
AcDbXrecord
280
     1
102
SHADEPLOT
 70
     0
102
SHADEPLOTRESLEVEL
 70
     2
102
SHADEPLOTCUSTOMDPI
 70
   300
  0
CELLSTYLEMAP
  5
5205
102
{ACAD_REACTORS
330
3D68
102
}
330
3D68
100
AcDbCellStyleMap
 90
        3
300
CELLSTYLE
  1
TABLEFORMAT_BEGIN
 90
        5
170
     1
 91
        0
 92
    32768
 62
   257
 93
        1
300
CONTENTFORMAT
  1
CONTENTFORMAT_BEGIN
 90
        0
 91
        0
 92
        4
 93
        0
300

 40
0.0
140
1.0
 94
        5
 62
     0
340
10
144
6.0
309
CONTENTFORMAT_END
171
     1
301
MARGIN
  1
CELLMARGIN_BEGIN
 40
1.5
 40
1.5
 40
1.5
 40
1.5
 40
0.18
 40
0.18
309
CELLMARGIN_END
 94
        6
 95
        1
302
GRIDFORMAT
  1
GRIDFORMAT_BEGIN
 90
        0
 91
        1
 62
     0
 92
       -2
340
0
 93
        0
 40
0.045
309
GRIDFORMAT_END
 95
        2
302
GRIDFORMAT
  1
GRIDFORMAT_BEGIN
 90
        0
 91
        1
 62
     0
 92
       -2
340
0
 93
        0
 40
0.045
309
GRIDFORMAT_END
 95
        4
302
GRIDFORMAT
  1
GRIDFORMAT_BEGIN
 90
        0
 91
        1
 62
     0
 92
       -2
340
0
 93
        0
 40
0.045
309
GRIDFORMAT_END
 95
        8
302
GRIDFORMAT
  1
GRIDFORMAT_BEGIN
 90
        0
 91
        1
 62
     0
 92
       -2
340
0
 93
        0
 40
0.045
309
GRIDFORMAT_END
 95
       16
302
GRIDFORMAT
  1
GRIDFORMAT_BEGIN
 90
        0
 91
        1
 62
     0
 92
       -2
340
0
 93
        0
 40
0.045
309
GRIDFORMAT_END
 95
       32
302
GRIDFORMAT
  1
GRIDFORMAT_BEGIN
 90
        0
 91
        1
 62
     0
 92
       -2
340
0
 93
        0
 40
0.045
309
GRIDFORMAT_END
309
TABLEFORMAT_END
  1
CELLSTYLE_BEGIN
 90
        1
 91
        1
300
_TITLE
309
CELLSTYLE_END
300
CELLSTYLE
  1
TABLEFORMAT_BEGIN
 90
        5
170
     1
 91
        0
 92
        0
 62
   257
 93
        1
300
CONTENTFORMAT
  1
CONTENTFORMAT_BEGIN
 90
        0
 91
        0
 92
        4
 93
        0
300

 40
0.0
140
1.0
 94
        5
 62
     0
340
10
144
4.5
309
CONTENTFORMAT_END
171
     1
301
MARGIN
  1
CELLMARGIN_BEGIN
 40
1.5
 40
1.5
 40
1.5
 40
1.5
 40
0.18
 40
0.18
309
CELLMARGIN_END
 94
        6
 95
        1
302
GRIDFORMAT
  1
GRIDFORMAT_BEGIN
 90
        0
 91
        1
 62
     0
 92
       -2
340
0
 93
        0
 40
0.045
309
GRIDFORMAT_END
 95
        2
302
GRIDFORMAT
  1
GRIDFORMAT_BEGIN
 90
        0
 91
        1
 62
     0
 92
       -2
340
0
 93
        0
 40
0.045
309
GRIDFORMAT_END
 95
        4
302
GRIDFORMAT
  1
GRIDFORMAT_BEGIN
 90
        0
 91
        1
 62
     0
 92
       -2
340
0
 93
        0
 40
0.045
309
GRIDFORMAT_END
 95
        8
302
GRIDFORMAT
  1
GRIDFORMAT_BEGIN
 90
        0
 91
        1
 62
     0
 92
       -2
340
0
 93
        0
 40
0.045
309
GRIDFORMAT_END
 95
       16
302
GRIDFORMAT
  1
GRIDFORMAT_BEGIN
 90
        0
 91
        1
 62
     0
 92
       -2
340
0
 93
        0
 40
0.045
309
GRIDFORMAT_END
 95
       32
302
GRIDFORMAT
  1
GRIDFORMAT_BEGIN
 90
        0
 91
        1
 62
     0
 92
       -2
340
0
 93
        0
 40
0.045
309
GRIDFORMAT_END
309
TABLEFORMAT_END
  1
CELLSTYLE_BEGIN
 90
        2
 91
        1
300
_HEADER
309
CELLSTYLE_END
300
CELLSTYLE
  1
TABLEFORMAT_BEGIN
 90
        5
170
     1
 91
        0
 92
        0
 62
   257
 93
        1
300
CONTENTFORMAT
  1
CONTENTFORMAT_BEGIN
 90
        0
 91
        0
 92
        4
 93
        0
300

 40
0.0
140
1.0
 94
        2
 62
     0
340
10
144
4.5
309
CONTENTFORMAT_END
171
     1
301
MARGIN
  1
CELLMARGIN_BEGIN
 40
1.5
 40
1.5
 40
1.5
 40
1.5
 40
0.18
 40
0.18
309
CELLMARGIN_END
 94
        6
 95
        1
302
GRIDFORMAT
  1
GRIDFORMAT_BEGIN
 90
        0
 91
        1
 62
     0
 92
       -2
340
0
 93
        0
 40
0.045
309
GRIDFORMAT_END
 95
        2
302
GRIDFORMAT
  1
GRIDFORMAT_BEGIN
 90
        0
 91
        1
 62
     0
 92
       -2
340
0
 93
        0
 40
0.045
309
GRIDFORMAT_END
 95
        4
302
GRIDFORMAT
  1
GRIDFORMAT_BEGIN
 90
        0
 91
        1
 62
     0
 92
       -2
340
0
 93
        0
 40
0.045
309
GRIDFORMAT_END
 95
        8
302
GRIDFORMAT
  1
GRIDFORMAT_BEGIN
 90
        0
 91
        1
 62
     0
 92
       -2
340
0
 93
        0
 40
0.045
309
GRIDFORMAT_END
 95
       16
302
GRIDFORMAT
  1
GRIDFORMAT_BEGIN
 90
        0
 91
        1
 62
     0
 92
       -2
340
0
 93
        0
 40
0.045
309
GRIDFORMAT_END
 95
       32
302
GRIDFORMAT
  1
GRIDFORMAT_BEGIN
 90
        0
 91
        1
 62
     0
 92
       -2
340
0
 93
        0
 40
0.045
309
GRIDFORMAT_END
309
TABLEFORMAT_END
  1
CELLSTYLE_BEGIN
 90
        3
 91
        2
300
_DATA
309
CELLSTYLE_END
  0
XRECORD
  5
520D
102
{ACAD_REACTORS
330
3D68
102
}
330
3D68
100
AcDbXrecord
280
     1
102
ACAD_ROUNDTRIP_PRE2007_TABLESTYLE
 90
        4
 91
        0
  1

 92
        4
 93
        0
  2

 94
        4
 95
        0
  3

  0
ENDSEC
  0
EOF
