  0
SECTION
  2
HEADER
  9
$ACADVER
  1
AC1015
  9
$ACADMAINTVER
 70
    20
  9
$DWGCODEPAGE
  3
ANSI_932
  9
$INSBASE
 10
0.0
 20
0.0
 30
0.0
  9
$EXTMIN
 10
812.5291724079437
 20
228.8109458829831
 30
-0.0000000000029055
  9
$EXTMAX
 10
2252.043562176194
 20
1069.24877826894
 30
0.0000000000001068
  9
$LIMMIN
 10
0.0
 20
0.0
  9
$LIMMAX
 10
10000.0
 20
10000.0
  9
$ORTHOMODE
 70
     1
  9
$REGENMODE
 70
     1
  9
$FILLMODE
 70
     1
  9
$QTEXTMODE
 70
     0
  9
$MIRRTEXT
 70
     1
  9
$LTSCALE
 40
1.0
  9
$ATTMODE
 70
     1
  9
$TEXTSIZE
 40
2.5
  9
$TRACEWID
 40
1.0
  9
$TEXTSTYLE
  7
AD-STANDARD
  9
$CLAYER
  8
0
  9
$CELTYPE
  6
BYLAYER
  9
$CECOLOR
 62
   256
  9
$CELTSCALE
 40
1.0
  9
$DISPSILH
 70
     0
  9
$DIMSCALE
 40
5.0
  9
$DIMASZ
 40
2.5
  9
$DIMEXO
 40
1.0
  9
$DIMDLI
 40
0.38
  9
$DIMRND
 40
0.0
  9
$DIMDLE
 40
0.0
  9
$DIMEXE
 40
2.0
  9
$DIMTP
 40
0.0
  9
$DIMTM
 40
0.0
  9
$DIMTXT
 40
2.799999999999998
  9
$DIMCEN
 40
-2.0
  9
$DIMTSZ
 40
0.0
  9
$DIMTOL
 70
     0
  9
$DIMLIM
 70
     0
  9
$DIMTIH
 70
     0
  9
$DIMTOH
 70
     0
  9
$DIMSE1
 70
     0
  9
$DIMSE2
 70
     0
  9
$DIMTAD
 70
     1
  9
$DIMZIN
 70
     8
  9
$DIMBLK
  1

  9
$DIMASO
 70
     1
  9
$DIMSHO
 70
     1
  9
$DIMPOST
  1

  9
$DIMAPOST
  1

  9
$DIMALT
 70
     0
  9
$DIMALTD
 70
     2
  9
$DIMALTF
 40
25.4
  9
$DIMLFAC
 40
1.0
  9
$DIMTOFL
 70
     1
  9
$DIMTVP
 40
0.0
  9
$DIMTIX
 70
     0
  9
$DIMSOXD
 70
     0
  9
$DIMSAH
 70
     0
  9
$DIMBLK1
  1

  9
$DIMBLK2
  1

  9
$DIMSTYLE
  2
AD-STANDARD
  9
$DIMCLRD
 70
     9
  9
$DIMCLRE
 70
     9
  9
$DIMCLRT
 70
     2
  9
$DIMTFAC
 40
1.0
  9
$DIMGAP
 40
0.5
  9
$DIMJUST
 70
     0
  9
$DIMSD1
 70
     0
  9
$DIMSD2
 70
     0
  9
$DIMTOLJ
 70
     1
  9
$DIMTZIN
 70
     8
  9
$DIMALTZ
 70
     0
  9
$DIMALTTZ
 70
     0
  9
$DIMUPT
 70
     0
  9
$DIMDEC
 70
     3
  9
$DIMTDEC
 70
     8
  9
$DIMALTU
 70
     2
  9
$DIMALTTD
 70
     2
  9
$DIMTXSTY
  7
AD-STANDARD
  9
$DIMAUNIT
 70
     0
  9
$DIMADEC
 70
     0
  9
$DIMALTRND
 40
0.0
  9
$DIMAZIN
 70
     0
  9
$DIMDSEP
 70
    46
  9
$DIMATFIT
 70
     1
  9
$DIMFRAC
 70
     0
  9
$DIMLDRBLK
  1

  9
$DIMLUNIT
 70
     2
  9
$DIMLWD
 70
    -2
  9
$DIMLWE
 70
    -2
  9
$DIMTMOVE
 70
     0
  9
$LUNITS
 70
     2
  9
$LUPREC
 70
     4
  9
$SKETCHINC
 40
1.0
  9
$FILLETRAD
 40
0.0
  9
$AUNITS
 70
     0
  9
$AUPREC
 70
     0
  9
$MENU
  1
.
  9
$ELEVATION
 40
0.0
  9
$PELEVATION
 40
0.0
  9
$THICKNESS
 40
0.0
  9
$LIMCHECK
 70
     0
  9
$CHAMFERA
 40
0.0
  9
$CHAMFERB
 40
0.0
  9
$CHAMFERC
 40
673.4006734006732
  9
$CHAMFERD
 40
0.0
  9
$SKPOLY
 70
     0
  9
$TDCREATE
 40
2451414.552377546
  9
$TDUCREATE
 40
2451414.177377547
  9
$TDUPDATE
 40
2458205.443318576
  9
$TDUUPDATE
 40
2458205.068318576
  9
$TDINDWG
 40
0.4653854977
  9
$TDUSRTIMER
 40
0.4653842245
  9
$USRTIMER
 70
     1
  9
$ANGBASE
 50
0.0
  9
$ANGDIR
 70
     0
  9
$PDMODE
 70
     0
  9
$PDSIZE
 40
0.0
  9
$PLINEWID
 40
0.0
  9
$SPLFRAME
 70
     0
  9
$SPLINETYPE
 70
     6
  9
$SPLINESEGS
 70
     8
  9
$HANDSEED
  5
64D5
  9
$SURFTAB1
 70
     6
  9
$SURFTAB2
 70
     6
  9
$SURFTYPE
 70
     6
  9
$SURFU
 70
     6
  9
$SURFV
 70
     6
  9
$UCSBASE
  2

  9
$UCSNAME
  2

  9
$UCSORG
 10
0.0
 20
0.0
 30
0.0
  9
$UCSXDIR
 10
1.0
 20
0.0
 30
0.0
  9
$UCSYDIR
 10
0.0
 20
1.0
 30
0.0
  9
$UCSORTHOREF
  2

  9
$UCSORTHOVIEW
 70
     0
  9
$UCSORGTOP
 10
0.0
 20
0.0
 30
0.0
  9
$UCSORGBOTTOM
 10
0.0
 20
0.0
 30
0.0
  9
$UCSORGLEFT
 10
0.0
 20
0.0
 30
0.0
  9
$UCSORGRIGHT
 10
0.0
 20
0.0
 30
0.0
  9
$UCSORGFRONT
 10
0.0
 20
0.0
 30
0.0
  9
$UCSORGBACK
 10
0.0
 20
0.0
 30
0.0
  9
$PUCSBASE
  2

  9
$PUCSNAME
  2

  9
$PUCSORG
 10
0.0
 20
0.0
 30
0.0
  9
$PUCSXDIR
 10
1.0
 20
0.0
 30
0.0
  9
$PUCSYDIR
 10
0.0
 20
1.0
 30
0.0
  9
$PUCSORTHOREF
  2

  9
$PUCSORTHOVIEW
 70
     0
  9
$PUCSORGTOP
 10
0.0
 20
0.0
 30
0.0
  9
$PUCSORGBOTTOM
 10
0.0
 20
0.0
 30
0.0
  9
$PUCSORGLEFT
 10
0.0
 20
0.0
 30
0.0
  9
$PUCSORGRIGHT
 10
0.0
 20
0.0
 30
0.0
  9
$PUCSORGFRONT
 10
0.0
 20
0.0
 30
0.0
  9
$PUCSORGBACK
 10
0.0
 20
0.0
 30
0.0
  9
$USERI1
 70
     0
  9
$USERI2
 70
     0
  9
$USERI3
 70
     0
  9
$USERI4
 70
     0
  9
$USERI5
 70
     0
  9
$USERR1
 40
0.0
  9
$USERR2
 40
0.0
  9
$USERR3
 40
0.0
  9
$USERR4
 40
0.0
  9
$USERR5
 40
0.0
  9
$WORLDVIEW
 70
     1
  9
$SHADEDGE
 70
     3
  9
$SHADEDIF
 70
    70
  9
$TILEMODE
 70
     0
  9
$MAXACTVP
 70
    16
  9
$PINSBASE
 10
0.0
 20
0.0
 30
0.0
  9
$PLIMCHECK
 70
     0
  9
$PEXTMIN
 10
19.97680521205063
 20
16.99835063704859
 30
-0.0015258207003583
  9
$PEXTMAX
 10
405.0109848588451
 20
282.0215439591978
 30
0.0000000349246037
  9
$PLIMMIN
 10
2.493894057559145
 20
1.009946606616209
  9
$PLIMMAX
 10
422.4938940575591
 20
298.0099466066162
  9
$UNITMODE
 70
     0
  9
$VISRETAIN
 70
     0
  9
$PLINEGEN
 70
     0
  9
$PSLTSCALE
 70
     0
  9
$TREEDEPTH
 70
  3020
  9
$CMLSTYLE
  2
STANDARD
  9
$CMLJUST
 70
     0
  9
$CMLSCALE
 40
1.0
  9
$PROXYGRAPHICS
 70
     1
  9
$MEASUREMENT
 70
     1
  9
$CELWEIGHT
370
    -1
  9
$ENDCAPS
280
     0
  9
$JOINSTYLE
280
     0
  9
$LWDISPLAY
290
     0
  9
$INSUNITS
 70
     0
  9
$HYPERLINKBASE
  1

  9
$STYLESHEET
  1

  9
$XEDIT
290
     1
  9
$CEPSNTYPE
380
     0
  9
$PSTYLEMODE
290
     1
  9
$FINGERPRINTGUID
  2
{B58872A4-4685-11D4-BACD-00E0292259DE}
  9
$VERSIONGUID
  2
{767DA070-C02D-4AE7-A562-B20FE9C06DD0}
  9
$EXTNAMES
290
     1
  9
$PSVPSCALE
 40
0.0
  9
$OLESTARTUP
290
     0
  0
ENDSEC
  0
SECTION
  2
CLASSES
  0
CLASS
  1
ACDBDICTIONARYWDFLT
  2
AcDbDictionaryWithDefault
  3
ObjectDBX Classes
 90
        0
280
     0
281
     0
  0
CLASS
  1
ACDBPLACEHOLDER
  2
AcDbPlaceHolder
  3
ObjectDBX Classes
 90
        0
280
     0
281
     0
  0
CLASS
  1
LAYOUT
  2
AcDbLayout
  3
ObjectDBX Classes
 90
        0
280
     0
281
     0
  0
CLASS
  1
DICTIONARYVAR
  2
AcDbDictionaryVar
  3
ObjectDBX Classes
 90
        0
280
     0
281
     0
  0
CLASS
  1
TABLESTYLE
  2
AcDbTableStyle
  3
ObjectDBX Classes
 90
     4095
280
     0
281
     0
  0
CLASS
  1
SORTENTSTABLE
  2
AcDbSortentsTable
  3
ObjectDBX Classes
 90
        0
280
     0
281
     0
  0
CLASS
  1
PLOTSETTINGS
  2
AcDbPlotSettings
  3
ObjectDBX Classes
 90
        0
280
     0
281
     0
  0
CLASS
  1
MATERIAL
  2
AcDbMaterial
  3
ObjectDBX Classes
 90
     1153
280
     0
281
     0
  0
CLASS
  1
VISUALSTYLE
  2
AcDbVisualStyle
  3
ObjectDBX Classes
 90
     4095
280
     0
281
     0
  0
CLASS
  1
SCALE
  2
AcDbScale
  3
ObjectDBX Classes
 90
     1153
280
     0
281
     0
  0
CLASS
  1
MLEADERSTYLE
  2
AcDbMLeaderStyle
  3
ACDB_MLEADERSTYLE_CLASS
 90
     4095
280
     0
281
     0
  0
CLASS
  1
CELLSTYLEMAP
  2
AcDbCellStyleMap
  3
ObjectDBX Classes
 90
     1152
280
     0
281
     0
  0
ENDSEC
  0
SECTION
  2
TABLES
  0
TABLE
  2
VPORT
  5
8
102
{ACAD_XDICTIONARY
360
583A
102
}
330
0
100
AcDbSymbolTable
 70
     1
  0
VPORT
  5
5882
330
8
100
AcDbSymbolTableRecord
100
AcDbViewportTableRecord
  2
*Active
 70
     0
 10
0.0
 20
0.0
 11
1.0
 21
1.0
 12
1532.440204793167
 22
648.9563170459059
 13
0.0
 23
0.0
 14
1.0
 24
1.0
 15
0.0
 25
0.0
 16
0.0
 26
0.0
 36
1.0
 17
0.0
 27
0.0
 37
0.0
 40
846.8078944988393
 41
2.267707082833133
 42
50.0
 43
0.0
 44
0.0
 50
0.0
 51
0.0
 71
     0
 72
   100
 73
     1
 74
     0
 75
     0
 76
     0
 77
     0
 78
     1
281
     0
 65
     1
110
0.0
120
0.0
130
0.0
111
1.0
121
0.0
131
0.0
112
0.0
122
1.0
132
0.0
 79
     0
146
0.0
  0
ENDTAB
  0
TABLE
  2
LTYPE
  5
5
330
0
100
AcDbSymbolTable
 70
     2
  0
LTYPE
  5
14
330
5
100
AcDbSymbolTableRecord
100
AcDbLinetypeTableRecord
  2
BYBLOCK
 70
     0
  3

 72
    65
 73
     0
 40
0.0
  0
LTYPE
  5
15
330
5
100
AcDbSymbolTableRecord
100
AcDbLinetypeTableRecord
  2
BYLAYER
 70
     0
  3

 72
    65
 73
     0
 40
0.0
  0
LTYPE
  5
16
330
5
100
AcDbSymbolTableRecord
100
AcDbLinetypeTableRecord
  2
CONTINUOUS
 70
     0
  3
Solid line
 72
    65
 73
     0
 40
0.0
  0
LTYPE
  5
6E
330
5
100
AcDbSymbolTableRecord
100
AcDbLinetypeTableRecord
  2
CENTER
 70
     0
  3
____ _ ____ _ ____ _ ____ _ ____ _ ____ _ ____ 
 72
    65
 73
     4
 40
2.0
 49
1.25
 74
     0
 49
-0.25
 74
     0
 49
0.25
 74
     0
 49
-0.25
 74
     0
  0
ENDTAB
  0
TABLE
  2
LAYER
  5
2
102
{ACAD_XDICTIONARY
360
26E6
102
}
330
0
100
AcDbSymbolTable
 70
     3
  0
LAYER
  5
F
102
{ACAD_XDICTIONARY
360
513D
102
}
330
2
100
AcDbSymbolTableRecord
100
AcDbLayerTableRecord
  2
0
 70
     0
 62
     7
  6
CONTINUOUS
370
    -3
390
1DE3
  0
LAYER
  5
72
330
2
100
AcDbSymbolTableRecord
100
AcDbLayerTableRecord
  2
DEFPOINTS
 70
     0
 62
     7
  6
CONTINUOUS
290
     0
370
    -3
390
1DE3
  0
LAYER
  5
6205
102
{ACAD_XDICTIONARY
360
6206
102
}
330
2
100
AcDbSymbolTableRecord
100
AcDbLayerTableRecord
  2
MEASURE
 70
     0
 62
     9
  6
CONTINUOUS
370
    -3
390
1DE3
  0
ENDTAB
  0
TABLE
  2
STYLE
  5
3
330
0
100
AcDbSymbolTable
 70
     3
  0
STYLE
  5
10
330
3
100
AcDbSymbolTableRecord
100
AcDbTextStyleTableRecord
  2
STANDARD
 70
     0
 40
0.0
 41
0.8
 50
0.0
 71
     0
 42
84.17508417508415
  3
TXT
  4
bigfont.shx
  0
STYLE
  5
63
330
3
100
AcDbSymbolTableRecord
100
AcDbTextStyleTableRecord
  2
AD-STANDARD
 70
     0
 40
0.0
 41
0.8
 50
0.0
 71
     0
 42
2.5
  3
C:\Program Files\AutoCAD LT\romans.shx
  4
bigfont.shx
  0
ENDTAB
  0
TABLE
  2
VIEW
  5
6
330
0
100
AcDbSymbolTable
 70
     1
  0
ENDTAB
  0
TABLE
  2
UCS
  5
7
330
0
100
AcDbSymbolTable
 70
     0
  0
ENDTAB
  0
TABLE
  2
APPID
  5
9
330
0
100
AcDbSymbolTable
 70
     8
  0
APPID
  5
11
330
9
100
AcDbSymbolTableRecord
100
AcDbRegAppTableRecord
  2
ACAD
 70
     0
  0
APPID
  5
22A
330
9
100
AcDbSymbolTableRecord
100
AcDbRegAppTableRecord
  2
CONTENTTABDATA
 70
     0
  0
APPID
  5
22B
330
9
100
AcDbSymbolTableRecord
100
AcDbRegAppTableRecord
  2
CONTENTCURRENTTAB
 70
     0
  0
APPID
  5
232
330
9
100
AcDbSymbolTableRecord
100
AcDbRegAppTableRecord
  2
CONTENTBLOCKDESCRIPTION
 70
     0
  0
APPID
  5
233
330
9
100
AcDbSymbolTableRecord
100
AcDbRegAppTableRecord
  2
CONTENTBLOCKICON
 70
     0
  0
APPID
  5
2786
330
9
100
AcDbSymbolTableRecord
100
AcDbRegAppTableRecord
  2
ACAD_PSEXT
 70
     0
  0
APPID
  5
2827
330
9
100
AcDbSymbolTableRecord
100
AcDbRegAppTableRecord
  2
ACAD_MLEADERVER
 70
     0
  0
APPID
  5
2837
330
9
100
AcDbSymbolTableRecord
100
AcDbRegAppTableRecord
  2
ACAD_EXEMPT_FROM_CAD_STANDARDS
 70
     0
  0
ENDTAB
  0
TABLE
  2
DIMSTYLE
  5
A
330
0
100
AcDbSymbolTable
 70
     3
100
AcDbDimStyleTable
 71
     1
340
68
  0
DIMSTYLE
105
1D
330
A
100
AcDbSymbolTableRecord
100
AcDbDimStyleTableRecord
  2
STANDARD
 70
     0
340
10
  0
DIMSTYLE
105
68
102
{ACAD_REACTORS
330
6224
330
6225
330
6226
330
6227
330
6228
330
6229
330
622A
330
622B
330
622C
330
622D
330
622E
330
622F
330
6230
330
6231
330
6233
102
}
330
A
100
AcDbSymbolTableRecord
100
AcDbDimStyleTableRecord
  2
AD-STANDARD
 70
     0
 41
2.5
 42
1.0
 44
2.0
 73
     0
 74
     0
 77
     1
 78
     8
140
3.5
141
-2.0
147
0.5
172
     1
176
     9
177
     9
178
     2
284
     8
340
63
  0
ENDTAB
  0
TABLE
  2
BLOCK_RECORD
  5
1
330
0
100
AcDbSymbolTable
 70
    18
  0
BLOCK_RECORD
  5
1A
102
{ACAD_XDICTIONARY
360
1E11
102
}
330
1
100
AcDbSymbolTableRecord
100
AcDbBlockTableRecord
  2
*MODEL_SPACE
340
1DE6
  0
BLOCK_RECORD
  5
17
102
{ACAD_XDICTIONARY
360
1E0F
102
}
330
1
100
AcDbSymbolTableRecord
100
AcDbBlockTableRecord
  2
*PAPER_SPACE
340
1DE7
  0
BLOCK_RECORD
  5
5DD0
330
1
100
AcDbSymbolTableRecord
100
AcDbBlockTableRecord
  2
1
340
0
310
2800000020000000200000000100080000000000000400000000000000000000000000000000000000000000000080000080000000808000800000008000800080800000C0C0C000C0DCC000F0CAA6000020400000206000002080000020A0000020C0000020E00000400000004020000040400000406000004080000040A0
310
000040C0000040E00000600000006020000060400000606000006080000060A0000060C0000060E00000800000008020000080400000806000008080000080A0000080C0000080E00000A0000000A0200000A0400000A0600000A0800000A0A00000A0C00000A0E00000C0000000C0200000C0400000C0600000C0800000C0
310
A00000C0C00000C0E00000E0000000E0200000E0400000E0600000E0800000E0A00000E0C00000E0E00040000000400020004000400040006000400080004000A0004000C0004000E00040200000402020004020400040206000402080004020A0004020C0004020E000404000004040200040404000404060004040800040
310
40A0004040C0004040E00040600000406020004060400040606000406080004060A0004060C0004060E00040800000408020004080400040806000408080004080A0004080C0004080E00040A0000040A0200040A0400040A0600040A0800040A0A00040A0C00040A0E00040C0000040C0200040C0400040C0600040C08000
310
40C0A00040C0C00040C0E00040E0000040E0200040E0400040E0600040E0800040E0A00040E0C00040E0E00080000000800020008000400080006000800080008000A0008000C0008000E00080200000802020008020400080206000802080008020A0008020C0008020E00080400000804020008040400080406000804080
310
008040A0008040C0008040E00080600000806020008060400080606000806080008060A0008060C0008060E00080800000808020008080400080806000808080008080A0008080C0008080E00080A0000080A0200080A0400080A0600080A0800080A0A00080A0C00080A0E00080C0000080C0200080C0400080C0600080C0
310
800080C0A00080C0C00080C0E00080E0000080E0200080E0400080E0600080E0800080E0A00080E0C00080E0E000C0000000C0002000C0004000C0006000C0008000C000A000C000C000C000E000C0200000C0202000C0204000C0206000C0208000C020A000C020C000C020E000C0400000C0402000C0404000C0406000C0
310
408000C040A000C040C000C040E000C0600000C0602000C0604000C0606000C0608000C060A000C060C000C060E000C0800000C0802000C0804000C0806000C0808000C080A000C080C000C080E000C0A00000C0A02000C0A04000C0A06000C0A08000C0A0A000C0A0C000C0A0E000C0C00000C0C02000C0C04000C0C06000
310
C0C08000C0C0A000F0FBFF00A4A0A000808080000000FF0000FF000000FFFF00FF000000FF00FF00FFFF0000FFFFFF0000000000000000000000000000000000000000000000000000000000000000000000000000000000FFFF000000000000000000000000FFFF000000000000000000000000000000FFFFFFFFFFFFFFFF
310
FFFFFFFFFFFFFFFFFFFF0000000000000000000000000000FFFFFFFFFFFFFFFFFFFFFFFFFFFFFFFFFFFF00000000000000000000000000FFFFFFFFFFFFFFFFFFFFFFFFFFFFFFFFFFFFFFFF000000000000000000000000FF000000000000000000000000000000000000FF000000000000000000000000FF00000000000000
310
0000000000000000000000FF000000000000000000000000FF000000000000000000000000000000000000FF00000000000000000000000000FFFFFFFFFFFFFFFFFFFFFFFFFFFFFFFFFFFF000000000000000000000000000000000000000000FF0000FF000000000000000000000000000000000000000000000000000000
310
00FF0000FF00000000000000000000000000000000000000000000000000000000FF0000FF00000000000000000000000000000000000000000000000000000000FF0000FF00000000000000000000000000000000000000000000000000000000FF0000FF0000000000000000000000000000000000000000000000000000
310
0000FF0000FF00000000000000000000000000000000000000000000000000000000FF0000FF00000000000000000000000000000000000000000000000000000000FFFFFFFF00000000000000000000000000000000000000000000000000000000FF0000FF00000000000000000000000000000000000000000000000000
310
000000FF0000FF000000000000000000000000000000000000000000000000FFFFFFFFFFFFFFFFFFFFFFFF0000000000000000000000000000000000000000FFFFFFFFFFFFFFFFFFFFFFFF0000000000000000000000000000000000000000FFFFFFFFFFFFFFFFFFFFFFFF0000000000000000000000000000000000000000
310
FFFFFFFFFF00FFFFFFFFFFFF0000000000000000000000000000000000000000FFFFFFFFFFFFFFFFFFFFFFFF0000000000000000000000000000000000000000FFFFFFFFFFFFFFFFFFFFFFFF0000000000000000000000000000000000000000FFFFFFFFFFFFFFFFFFFFFFFF00000000000000000000000000000000000000
310
00FFFFFFFFFFFFFFFFFFFFFFFF000000000000000000000000000000000000000000FFFFFFFFFFFFFF00FFFF00000000000000000000000000000000000000000000FFFFFFFFFFFFFFFFFFFF00000000000000000000000000000000000000000000FFFFFFFFFFFFFFFFFFFF00000000000000000000000000000000000000
310
000000FFFFFFFFFFFFFFFFFFFF00000000000000000000000000000000000000000000000000000000000000000000000000000000000000
102
{BLKREFS
331
6234
102
}
  0
BLOCK_RECORD
  5
607E
330
1
100
AcDbSymbolTableRecord
100
AcDbBlockTableRecord
  2
2
340
0
310
2800000020000000200000000100080000000000000400000000000000000000000000000000000000000000000080000080000000808000800000008000800080800000C0C0C000C0DCC000F0CAA6000020400000206000002080000020A0000020C0000020E00000400000004020000040400000406000004080000040A0
310
000040C0000040E00000600000006020000060400000606000006080000060A0000060C0000060E00000800000008020000080400000806000008080000080A0000080C0000080E00000A0000000A0200000A0400000A0600000A0800000A0A00000A0C00000A0E00000C0000000C0200000C0400000C0600000C0800000C0
310
A00000C0C00000C0E00000E0000000E0200000E0400000E0600000E0800000E0A00000E0C00000E0E00040000000400020004000400040006000400080004000A0004000C0004000E00040200000402020004020400040206000402080004020A0004020C0004020E000404000004040200040404000404060004040800040
310
40A0004040C0004040E00040600000406020004060400040606000406080004060A0004060C0004060E00040800000408020004080400040806000408080004080A0004080C0004080E00040A0000040A0200040A0400040A0600040A0800040A0A00040A0C00040A0E00040C0000040C0200040C0400040C0600040C08000
310
40C0A00040C0C00040C0E00040E0000040E0200040E0400040E0600040E0800040E0A00040E0C00040E0E00080000000800020008000400080006000800080008000A0008000C0008000E00080200000802020008020400080206000802080008020A0008020C0008020E00080400000804020008040400080406000804080
310
008040A0008040C0008040E00080600000806020008060400080606000806080008060A0008060C0008060E00080800000808020008080400080806000808080008080A0008080C0008080E00080A0000080A0200080A0400080A0600080A0800080A0A00080A0C00080A0E00080C0000080C0200080C0400080C0600080C0
310
800080C0A00080C0C00080C0E00080E0000080E0200080E0400080E0600080E0800080E0A00080E0C00080E0E000C0000000C0002000C0004000C0006000C0008000C000A000C000C000C000E000C0200000C0202000C0204000C0206000C0208000C020A000C020C000C020E000C0400000C0402000C0404000C0406000C0
310
408000C040A000C040C000C040E000C0600000C0602000C0604000C0606000C0608000C060A000C060C000C060E000C0800000C0802000C0804000C0806000C0808000C080A000C080C000C080E000C0A00000C0A02000C0A04000C0A06000C0A08000C0A0A000C0A0C000C0A0E000C0C00000C0C02000C0C04000C0C06000
310
C0C08000C0C0A000F0FBFF00A4A0A000808080000000FF0000FF000000FFFF00FF000000FF00FF00FFFF0000FFFFFF0000000000000000000000000000000000000000000000000000000000000000000000000000000000000000000000000000000000000000000000000000000000000000000000000000000000000000
310
000000000000000000000000000000000000000000000000000000000000000000000000000000000000000000000000000000FFFFFFFFFFFFFFFFFFFFFFFFFFFFFFFFFFFFFFFFFF00000000FFFF0000000000FFFFFFFFFFFFFFFFFFFFFFFFFFFFFFFFFFFFFFFFFFFFFFFFFFFFFFFF000000FFFFFFFFFFFFFFFFFFFFFFFFFF
310
FFFFFFFFFFFFFFFFFF0000FFFFFFFFFF000000FF0000000000000000000000000000000000000000FF000000FF00FF00000000FF0000000000000000000000000000000000000000FF000000FFFFFF0000000000FFFFFFFFFFFFFFFFFFFFFFFFFFFFFFFFFFFFFFFFFF000000FF00FF00000000000000000000000000000000
310
00000000000000000000000000FF00FF0000000000000000000000000000000000000000000000000000000000FF00FF0000000000000000000000000000000000000000000000000000000000FF00FF0000000000000000000000000000000000000000000000000000000000FF00FF000000000000000000000000000000
310
0000000000000000000000000000FFFFFF0000000000000000000000000000000000000000000000000000000000FFFFFF0000000000000000000000000000000000000000000000000000000000FF00FF0000000000000000000000000000000000000000000000000000000000FF00FF0000000000000000000000000000
310
000000000000000000000000000000FFFFFFFF00000000000000000000000000000000000000000000000000000000FFFFFFFF00000000000000000000000000000000000000000000000000000000FFFFFFFFFF000000000000000000000000000000000000000000000000000000FFFFFFFFFF0000000000000000000000
310
00000000000000000000000000000000FFFFFFFF00000000000000000000000000000000000000000000000000000000FFFFFFFF00000000000000000000000000000000000000000000000000000000FFFFFFFF00000000000000000000000000000000000000000000000000000000FF00FFFF0000000000000000000000
310
0000000000000000000000000000000000FF00FFFF00000000000000000000000000000000000000000000000000000000FFFFFFFF0000000000000000000000000000000000000000000000000000000000000000000000000000000000000000000000000000000000000000000000000000000000000000000000000000
310
0000000000000000000000000000000000000000000000000000000000000000000000000000000000000000000000000000000000000000
102
{BLKREFS
331
6235
102
}
  0
BLOCK_RECORD
  5
6236
330
1
100
AcDbSymbolTableRecord
100
AcDbBlockTableRecord
  2
*D2
340
0
  0
BLOCK_RECORD
  5
6242
330
1
100
AcDbSymbolTableRecord
100
AcDbBlockTableRecord
  2
*D3
340
0
  0
BLOCK_RECORD
  5
624E
330
1
100
AcDbSymbolTableRecord
100
AcDbBlockTableRecord
  2
*D4
340
0
  0
BLOCK_RECORD
  5
625A
330
1
100
AcDbSymbolTableRecord
100
AcDbBlockTableRecord
  2
*D5
340
0
  0
BLOCK_RECORD
  5
6266
330
1
100
AcDbSymbolTableRecord
100
AcDbBlockTableRecord
  2
*D6
340
0
  0
BLOCK_RECORD
  5
6272
330
1
100
AcDbSymbolTableRecord
100
AcDbBlockTableRecord
  2
*D7
340
0
  0
BLOCK_RECORD
  5
627E
330
1
100
AcDbSymbolTableRecord
100
AcDbBlockTableRecord
  2
*D8
340
0
  0
BLOCK_RECORD
  5
628A
330
1
100
AcDbSymbolTableRecord
100
AcDbBlockTableRecord
  2
*D9
340
0
  0
BLOCK_RECORD
  5
6296
330
1
100
AcDbSymbolTableRecord
100
AcDbBlockTableRecord
  2
*D10
340
0
  0
BLOCK_RECORD
  5
62A2
330
1
100
AcDbSymbolTableRecord
100
AcDbBlockTableRecord
  2
*D11
340
0
  0
BLOCK_RECORD
  5
62AE
330
1
100
AcDbSymbolTableRecord
100
AcDbBlockTableRecord
  2
*D12
340
0
  0
BLOCK_RECORD
  5
62BA
330
1
100
AcDbSymbolTableRecord
100
AcDbBlockTableRecord
  2
*D13
340
0
  0
BLOCK_RECORD
  5
62C6
330
1
100
AcDbSymbolTableRecord
100
AcDbBlockTableRecord
  2
*D14
340
0
  0
BLOCK_RECORD
  5
62D2
330
1
100
AcDbSymbolTableRecord
100
AcDbBlockTableRecord
  2
*D15
340
0
  0
BLOCK_RECORD
  5
62DE
330
1
100
AcDbSymbolTableRecord
100
AcDbBlockTableRecord
  2
*D16
340
0
  0
ENDTAB
  0
ENDSEC
  0
SECTION
  2
BLOCKS
  0
BLOCK
  5
1B
330
1A
100
AcDbEntity
  8
0
100
AcDbBlockBegin
  2
*MODEL_SPACE
 70
     0
 10
0.0
 20
0.0
 30
0.0
  3
*MODEL_SPACE
  1

  0
ENDBLK
  5
1C
330
1A
100
AcDbEntity
  8
0
100
AcDbBlockEnd
  0
BLOCK
  5
18
330
17
100
AcDbEntity
 67
     1
  8
0
100
AcDbBlockBegin
  2
*PAPER_SPACE
 70
     0
 10
0.0
 20
0.0
 30
0.0
  3
*PAPER_SPACE
  1

  0
ENDBLK
  5
19
330
17
100
AcDbEntity
 67
     1
  8
0
100
AcDbBlockEnd
  0
BLOCK
  5
5DD1
330
5DD0
100
AcDbEntity
  8
0
 62
     2
100
AcDbBlockBegin
  2
1
 70
     0
 10
0.0
 20
0.0
 30
0.0
  3
1
  1

  0
LINE
  5
5DD2
330
5DD0
100
AcDbEntity
  8
0
 48
0.25
100
AcDbLine
 10
-21.34999999871286
 20
239.6005693167869
 30
0.0
 11
-21.35000000000207
 21
172.6710417767725
 31
0.0
  0
LINE
  5
5DD3
330
5DD0
100
AcDbEntity
  8
0
 48
0.25
100
AcDbLine
 10
21.34999999871173
 20
239.6005693167869
 30
0.0
 11
21.35000000000184
 21
173.6473664043997
 31
0.0
  0
LINE
  5
5DD4
330
5DD0
100
AcDbEntity
  8
0
100
AcDbLine
 10
-112.9697284273811
 20
-115.5
 30
0.0
 11
112.9697284273663
 21
-115.5
 31
0.0
  0
LINE
  5
5DD5
330
5DD0
100
AcDbEntity
  8
0
100
AcDbLine
 10
-167.6360015999998
 20
-96.99969480000028
 30
0.0
 11
167.6360015999998
 21
-96.99969480000028
 31
0.0
  0
LINE
  5
5DD6
330
5DD0
100
AcDbEntity
  8
0
100
AcDbLine
 10
195.0
 20
-70.0
 30
0.0
 11
-195.0
 21
-70.0
 31
0.0
  0
LINE
  5
5DD7
330
5DD0
100
AcDbEntity
  8
0
100
AcDbLine
 10
183.5
 20
0.0
 30
0.0
 11
-183.5
 21
0.0
 31
0.0
  0
LINE
  5
5DD8
330
5DD0
100
AcDbEntity
  8
0
100
AcDbLine
 10
-55.0
 20
-103.9996948000002
 30
0.0
 11
-137.4519958
 21
-103.9996948000002
 31
0.0
  0
LINE
  5
5DD9
330
5DD0
100
AcDbEntity
  8
0
 48
0.25
100
AcDbLine
 10
21.35000000000184
 20
168.6473664043994
 30
0.0
 11
21.35000000000275
 21
0.0
 31
0.0
  0
LINE
  5
5DDA
330
5DD0
100
AcDbEntity
  8
0
 48
0.25
100
AcDbLine
 10
-21.35000000000207
 20
167.6710417767726
 30
0.0
 11
-21.35000000000275
 21
0.0
 31
0.0
  0
LINE
  5
5DDB
330
5DD0
100
AcDbEntity
  8
0
100
AcDbLine
 10
55.0
 20
-103.9996948000002
 30
0.0
 11
137.4519958
 21
-103.9996948000002
 31
0.0
  0
ARC
  5
5DDC
330
5DD0
100
AcDbEntity
  8
0
100
AcDbCircle
 10
183.5
 20
-11.50000000000011
 30
0.0
 40
11.5
100
AcDbArc
 50
0.0
 51
90.0
  0
LINE
  5
5DDD
330
5DD0
100
AcDbEntity
  8
0
100
AcDbLine
 10
195.0
 20
-11.5
 30
0.0
 11
195.0
 21
-70.0
 31
0.0
  0
LINE
  5
5DDE
330
5DD0
100
AcDbEntity
  8
0
100
AcDbLine
 10
140.0
 20
-96.99969480000028
 30
0.0
 11
135.6328471418519
 21
-108.9996032000056
 31
0.0
  0
ARC
  5
5DDF
330
5DD0
100
AcDbEntity
  8
0
100
AcDbCircle
 10
167.6360015999998
 20
-90.9996948000005
 30
0.0
 40
6.0
100
AcDbArc
 50
270.0
 51
343.3008118000064
  0
LINE
  5
5DE0
330
5DD0
100
AcDbEntity
  8
0
100
AcDbLine
 10
173.3739929000003
 20
-92.75299070000029
 30
0.0
 11
180.1999969000006
 21
-70.0
 31
0.0
  0
LINE
  5
5DE1
330
5DD0
100
AcDbEntity
  8
0
100
AcDbLine
 10
46.0
 20
-104.4996948000002
 30
0.0
 11
46.38391110000066
 21
-115.5
 31
0.0
  0
LINE
  5
5DE2
330
5DD0
100
AcDbEntity
  8
0
100
AcDbLine
 10
25.0
 20
-104.4996948000002
 30
0.0
 11
25.38390919999983
 21
-115.5
 31
0.0
  0
LINE
  5
5DE3
330
5DD0
100
AcDbEntity
  8
0
100
AcDbLine
 10
31.0
 20
-104.4996948000002
 30
0.0
 11
30.61551090000103
 21
-115.5
 31
0.0
  0
LINE
  5
5DE4
330
5DD0
100
AcDbEntity
  8
0
100
AcDbLine
 10
55.0
 20
-103.9996948000002
 30
0.0
 11
54.59801860000061
 21
-115.5
 31
0.0
  0
LINE
  5
5DE5
330
5DD0
100
AcDbEntity
  8
0
100
AcDbLine
 10
-46.0
 20
-104.4996948000002
 30
0.0
 11
-46.38388059999941
 21
-115.5
 31
0.0
  0
LINE
  5
5DE6
330
5DD0
100
AcDbEntity
  8
0
100
AcDbLine
 10
-55.0
 20
-103.9996948000002
 30
0.0
 11
-54.59798809999938
 21
-115.5
 31
0.0
  0
LINE
  5
5DE7
330
5DD0
100
AcDbEntity
  8
0
100
AcDbLine
 10
3.0
 20
-104.4996948000002
 30
0.0
 11
2.615509000000201
 21
-115.5
 31
0.0
  0
LINE
  5
5DE8
330
5DD0
100
AcDbEntity
  8
0
100
AcDbLine
 10
-3.0
 20
-104.4996948000002
 30
0.0
 11
-2.616089099999953
 21
-115.5
 31
0.0
  0
LINE
  5
5DE9
330
5DD0
100
AcDbEntity
  8
0
100
AcDbLine
 10
-25.0
 20
-104.4996948000002
 30
0.0
 11
-25.38388059999943
 21
-115.5
 31
0.0
  0
LINE
  5
5DEA
330
5DD0
100
AcDbEntity
  8
0
100
AcDbLine
 10
-31.0
 20
-104.4996948000002
 30
0.0
 11
-30.6154803999998
 21
-115.5
 31
0.0
  0
LINE
  5
5DEB
330
5DD0
100
AcDbEntity
  8
0
100
AcDbLine
 10
31.0
 20
-104.4996948000002
 30
0.0
 11
46.0
 21
-104.4996948000002
 31
0.0
  0
LINE
  5
5DEC
330
5DD0
100
AcDbEntity
  8
0
100
AcDbLine
 10
100.4520035000005
 20
-103.9996948000002
 30
0.0
 11
103.0
 21
-97.00048830000014
 31
0.0
  0
LINE
  5
5DED
330
5DD0
100
AcDbEntity
  8
0
100
AcDbLine
 10
-46.0
 20
-104.4996948000002
 30
0.0
 11
-31.0
 21
-104.4996948000002
 31
0.0
  0
LINE
  5
5DEE
330
5DD0
100
AcDbEntity
  8
0
100
AcDbLine
 10
-25.0
 20
-104.4996948000002
 30
0.0
 11
-3.0
 21
-104.4996948000002
 31
0.0
  0
LINE
  5
5DEF
330
5DD0
100
AcDbEntity
  8
0
100
AcDbLine
 10
3.0
 20
-104.4996948000002
 30
0.0
 11
25.0
 21
-104.4996948000002
 31
0.0
  0
SPLINE
  5
5DF0
330
5DD0
100
AcDbEntity
  8
0
100
AcDbSpline
210
0.0
220
0.0
230
1.0
 70
     8
 71
     3
 72
    11
 73
     7
 74
     5
 42
0.0000000001
 43
0.0000000001
 44
0.0000000001
 40
0.0
 40
0.0
 40
0.0
 40
0.0
 40
12.37753258718388
 40
24.41834840849142
 40
32.55227783836932
 40
45.63745531217222
 40
45.63745531217222
 40
45.63745531217222
 40
45.63745531217222
 10
-21.35000000000207
 20
172.6710417767984
 30
0.0
 10
-17.86194746082911
 20
174.7298712356027
 30
0.0
 10
-10.98073090424022
 20
178.7915220278459
 30
0.0
 10
1.347590617466662
 20
180.8650689605007
 30
0.0
 10
8.998300982308338
 20
171.0200535855347
 30
0.0
 10
16.63851347047663
 20
172.6451926194654
 30
0.0
 10
21.35000000000184
 20
173.6473664043997
 30
0.0
 11
-21.35000000000207
 21
172.6710417767984
 31
0.0
 11
-10.27776469102287
 21
178.2035744888023
 31
0.0
 11
1.758652134460817
 21
178.5290213291052
 31
0.0
 11
8.26482252619894
 21
173.6473664043994
 31
0.0
 11
21.35000000000184
 21
173.6473664043997
 31
0.0
  0
SPLINE
  5
5DF1
330
5DD0
100
AcDbEntity
  8
0
100
AcDbSpline
210
0.0
220
0.0
230
1.0
 70
     8
 71
     3
 72
    11
 73
     7
 74
     5
 42
0.0000000001
 43
0.0000000001
 44
0.0000000001
 40
0.0
 40
0.0
 40
0.0
 40
0.0
 40
12.37753258719546
 40
24.418348408503
 40
32.5522778383809
 40
45.6374553121838
 40
45.6374553121838
 40
45.6374553121838
 40
45.6374553121838
 10
-21.35000000000207
 20
167.6710417767725
 30
0.0
 10
-17.86194746083034
 20
169.7298712355876
 30
0.0
 10
-10.98073090424703
 20
173.7915220278503
 30
0.0
 10
1.34759061746707
 20
175.8650689604999
 30
0.0
 10
8.998300982308187
 20
166.020053585535
 30
0.0
 10
16.63851347047658
 20
167.6451926194655
 30
0.0
 10
21.35000000000184
 20
168.6473664043997
 30
0.0
 11
-21.35000000000207
 21
167.6710417767725
 31
0.0
 11
-10.27776469102287
 21
173.2035744888023
 31
0.0
 11
1.758652134460817
 21
173.5290213291051
 31
0.0
 11
8.26482252619894
 21
168.6473664043994
 31
0.0
 11
21.35000000000184
 21
168.6473664043997
 31
0.0
  0
LINE
  5
5DF2
330
5DD0
100
AcDbEntity
  8
0
100
AcDbLine
 10
-195.0
 20
-11.5
 30
0.0
 11
-195.0
 21
-70.0
 31
0.0
  0
ARC
  5
5DF3
330
5DD0
100
AcDbEntity
  8
0
100
AcDbCircle
 10
-183.5
 20
-11.50000000000011
 30
0.0
 40
11.5
100
AcDbArc
 50
90.0
 51
180.0
  0
ARC
  5
5DF4
330
5DD0
100
AcDbEntity
  8
0
100
AcDbCircle
 10
-167.6360015999998
 20
-90.9996948000005
 30
0.0
 40
6.0
100
AcDbArc
 50
196.6992035000067
 51
270.0
  0
LINE
  5
5DF5
330
5DD0
100
AcDbEntity
  8
0
100
AcDbLine
 10
-100.4520034999996
 20
-103.9996948000002
 30
0.0
 11
-103.0
 21
-97.00048830000014
 31
0.0
  0
LINE
  5
5DF6
330
5DD0
100
AcDbEntity
  8
0
100
AcDbLine
 10
-140.0
 20
-96.99969480000028
 30
0.0
 11
-136.3607892434893
 21
-106.9993896000005
 31
0.0
  0
LINE
  5
5DF7
330
5DD0
100
AcDbEntity
  8
0
100
AcDbLine
 10
-140.0
 20
-96.99969480000028
 30
0.0
 11
-135.6328471418505
 21
-108.9996032000053
 31
0.0
  0
LINE
  5
5DF8
330
5DD0
100
AcDbEntity
  8
0
100
AcDbLine
 10
-173.3739928999994
 20
-92.75299070000029
 30
0.0
 11
-180.1999968999989
 21
-70.0
 31
0.0
  0
LINE
  5
5DF9
330
5DD0
100
AcDbEntity
  8
0
100
AcDbLine
 10
-158.5000000000001
 20
-98.99960320000559
 30
0.0
 11
-158.5000000000001
 21
-106.9996032000056
 31
0.0
  0
ARC
  5
5DFA
330
5DD0
100
AcDbEntity
  8
0
100
AcDbCircle
 10
-145.7500000000001
 20
-111.2751098384071
 30
0.0
 40
12.27550663840318
100
AcDbArc
 50
69.74384199960424
 51
110.2561580003957
  0
LINE
  5
5DFB
330
5DD0
100
AcDbEntity
  8
0
100
AcDbLine
 10
-158.5000000000001
 20
-98.99960320000559
 30
0.0
 11
-141.5000000000001
 21
-98.99960320000559
 31
0.0
  0
ARC
  5
5DFC
330
5DD0
100
AcDbEntity
  8
0
100
AcDbCircle
 10
-154.2500000000001
 20
-111.2751098384071
 30
0.0
 40
12.27550663840318
100
AcDbArc
 50
69.74384199960424
 51
110.2561580003957
  0
LINE
  5
5DFD
330
5DD0
100
AcDbEntity
  8
0
100
AcDbLine
 10
-158.5000000000001
 20
-106.9996032000056
 30
0.0
 11
-141.5000000000001
 21
-106.9996032000056
 31
0.0
  0
ARC
  5
5DFE
330
5DD0
100
AcDbEntity
  8
0
100
AcDbCircle
 10
-145.7500000000074
 20
-94.72409656160404
 30
0.0
 40
12.27550663840318
100
AcDbArc
 50
249.7438419996043
 51
290.2561580003958
  0
LINE
  5
5DFF
330
5DD0
100
AcDbEntity
  8
0
100
AcDbLine
 10
-158.5000000000074
 20
-106.9996032000056
 30
0.0
 11
-141.5000000000074
 21
-106.9996032000056
 31
0.0
  0
ARC
  5
5E00
330
5DD0
100
AcDbEntity
  8
0
100
AcDbCircle
 10
-154.2500000000074
 20
-94.72409656160404
 30
0.0
 40
12.27550663840318
100
AcDbArc
 50
249.7438419996043
 51
290.2561580003958
  0
LINE
  5
5E01
330
5DD0
100
AcDbEntity
  8
0
100
AcDbLine
 10
-141.5000000000001
 20
-98.99960320000559
 30
0.0
 11
-141.5000000000001
 21
-106.9996032000056
 31
0.0
  0
LINE
  5
5E02
330
5DD0
100
AcDbEntity
  8
0
100
AcDbLine
 10
-150.0000000000001
 20
-99.75879257855943
 30
0.0
 11
-149.9999999999928
 21
-106.240413821459
 31
0.0
  0
LINE
  5
5E03
330
5DD0
100
AcDbEntity
  8
0
100
AcDbLine
 10
-158.0000000000001
 20
-106.9996032000056
 30
0.0
 11
-142.0
 21
-106.9996032000056
 31
0.0
  0
LINE
  5
5E04
330
5DD0
100
AcDbEntity
  8
0
100
AcDbLine
 10
-161.0000000000074
 20
-106.9996032000056
 30
0.0
 11
-139.0000000000074
 21
-106.9996032000056
 31
0.0
  0
ARC
  5
5E05
330
5DD0
100
AcDbEntity
  8
0
100
AcDbCircle
 10
-162.0000000000074
 20
-125.9996032000056
 30
0.0
 40
2.0
100
AcDbArc
 50
180.0
 51
270.0
  0
LINE
  5
5E06
330
5DD0
100
AcDbEntity
  8
0
100
AcDbLine
 10
-161.0000000000074
 20
-106.9996032000056
 30
0.0
 11
-164.0000000000074
 21
-110.9996032000056
 31
0.0
  0
LINE
  5
5E07
330
5DD0
100
AcDbEntity
  8
0
100
AcDbLine
 10
-178.0113564723074
 20
-110.9996032000056
 30
0.0
 11
-186.5893841543073
 21
-114.9996032000056
 31
0.0
  0
LINE
  5
5E08
330
5DD0
100
AcDbEntity
  8
0
100
AcDbLine
 10
-164.0000000000074
 20
-122.9996032000056
 30
0.0
 11
-164.0000000000074
 21
-125.9996032000056
 31
0.0
  0
LINE
  5
5E09
330
5DD0
100
AcDbEntity
  8
0
100
AcDbLine
 10
-164.0000000000074
 20
-125.9996032000056
 30
0.0
 11
-136.0000000000074
 21
-125.9996032000056
 31
0.0
  0
ARC
  5
5E0A
330
5DD0
100
AcDbEntity
  8
0
100
AcDbCircle
 10
-138.0000000000074
 20
-125.9996032000056
 30
0.0
 40
2.0
100
AcDbArc
 50
270.0
 51
0.0
  0
LINE
  5
5E0B
330
5DD0
100
AcDbEntity
  8
0
100
AcDbLine
 10
-136.0000000000074
 20
-110.9996032000056
 30
0.0
 11
-139.0000000000074
 21
-106.9996032000056
 31
0.0
  0
LINE
  5
5E0C
330
5DD0
100
AcDbEntity
  8
0
100
AcDbLine
 10
-113.4106158457074
 20
-114.9996032000056
 30
0.0
 11
-121.9886435277073
 21
-110.9996032000056
 31
0.0
  0
LINE
  5
5E0D
330
5DD0
100
AcDbEntity
  8
0
100
AcDbLine
 10
-186.5893841543073
 20
-114.9996032000056
 30
0.0
 11
-188.0000000000073
 21
-122.9996032000056
 31
0.0
  0
LINE
  5
5E0E
330
5DD0
100
AcDbEntity
  8
0
100
AcDbLine
 10
-112.0000000000074
 20
-122.9996032000056
 30
0.0
 11
-113.4106158457074
 21
-114.9996032000056
 31
0.0
  0
LINE
  5
5E0F
330
5DD0
100
AcDbEntity
  8
0
100
AcDbLine
 10
-136.0000000000074
 20
-125.9996032000056
 30
0.0
 11
-136.0000000000074
 21
-122.9996032000056
 31
0.0
  0
LINE
  5
5E10
330
5DD0
100
AcDbEntity
  8
0
100
AcDbLine
 10
-186.5893841543073
 20
-114.9996032000056
 30
0.0
 11
-186.2757400568074
 21
-114.9996032000056
 31
0.0
  0
LINE
  5
5E11
330
5DD0
100
AcDbEntity
  8
0
100
AcDbLine
 10
-113.4106158457074
 20
-114.9996032000056
 30
0.0
 11
-113.7242599432073
 21
-114.9996032000056
 31
0.0
  0
LINE
  5
5E12
330
5DD0
100
AcDbEntity
  8
0
100
AcDbLine
 10
-180.4336198730074
 20
-122.9996032000056
 30
0.0
 11
-187.6101076964074
 21
-122.9996032000056
 31
0.0
  0
LINE
  5
5E13
330
5DD0
100
AcDbEntity
  8
0
100
AcDbLine
 10
-112.3898923036074
 20
-122.9996032000056
 30
0.0
 11
-112.0000000000074
 21
-122.9996032000056
 31
0.0
  0
LINE
  5
5E14
330
5DD0
100
AcDbEntity
  8
0
100
AcDbLine
 10
-127.2448954864073
 20
-122.9996032000056
 30
0.0
 11
-119.5663801270074
 21
-122.9996032000056
 31
0.0
  0
ARC
  5
5E15
330
5DD0
100
AcDbEntity
  8
0
100
AcDbCircle
 10
-163.5255071176074
 20
-139.2490716423055
 30
0.0
 40
25.7781087156
100
AcDbArc
 50
70.16945679560278
 51
109.8305432043972
  0
SPLINE
  5
5E16
330
5DD0
100
AcDbEntity
  8
0
100
AcDbSpline
210
0.0
220
0.0
230
1.0
 70
     8
 71
     3
 72
    14
 73
    10
 74
     0
 42
0.0000000001
 43
0.0000000001
 40
0.0
 40
0.0
 40
0.0
 40
0.0
 40
0.25
 40
0.25
 40
0.5
 40
0.5
 40
0.75
 40
0.75
 40
1.0
 40
1.0
 40
1.0
 40
1.0
 10
-179.0311853857348
 20
-114.999603199956
 30
0.0
 10
-178.9903567347746
 20
-114.5314170307591
 30
0.0
 10
-179.1076358139564
 20
-114.1506935161097
 30
0.0
 10
-179.6866652488187
 20
-113.6196297378015
 30
0.0
 10
-180.156520343387
 20
-113.4754216434201
 30
0.0
 10
-181.4110094891086
 20
-113.4752830539238
 30
0.0
 10
-182.2136915619132
 20
-113.6188821549007
 30
0.0
 10
-184.0710304942564
 20
-114.1503207780218
 30
0.0
 10
-185.1179483415636
 20
-114.531364245538
 30
0.0
 10
-186.27574005684
 20
-114.999603199956
 30
0.0
  0
LINE
  5
5E17
330
5DD0
100
AcDbEntity
  8
0
100
AcDbLine
 10
-112.3898923036074
 20
-122.9996032000056
 30
0.0
 11
-119.5663801270074
 21
-122.9996032000056
 31
0.0
  0
SPLINE
  5
5E18
330
5DD0
100
AcDbEntity
  8
0
100
AcDbSpline
210
0.0
220
0.0
230
1.0
 70
     8
 71
     3
 72
    14
 73
    10
 74
     0
 42
0.0000000001
 43
0.0000000001
 40
0.0
 40
0.0
 40
0.0
 40
0.0
 40
0.2500000000000001
 40
0.2500000000000001
 40
0.5000000000000001
 40
0.5000000000000001
 40
0.75
 40
0.75
 40
1.0
 40
1.0
 40
1.0
 40
1.0
 10
-113.7242599431804
 20
-114.999603199956
 30
0.0
 10
-114.8819211390049
 20
-114.5314170307591
 30
0.0
 10
-115.9280703543695
 20
-114.1506935161097
 30
0.0
 10
-117.7832930006819
 20
-113.6196297378015
 30
0.0
 10
-118.5878845343449
 20
-113.4754216434201
 30
0.0
 10
-119.8426987334626
 20
-113.4752830539238
 30
0.0
 10
-120.3120948613502
 20
-113.6188821549007
 30
0.0
 10
-120.8923816733406
 20
-114.1503207780218
 30
0.0
 10
-121.0096478684346
 20
-114.531364245538
 30
0.0
 10
-120.9688146142856
 20
-114.999603199956
 30
0.0
  0
ARC
  5
5E19
330
5DD0
100
AcDbEntity
  8
0
100
AcDbCircle
 10
-136.4744928824074
 20
-139.2484875595055
 30
0.0
 40
25.7775592697
100
AcDbArc
 50
70.16901638119825
 51
109.8309836188017
  0
ARC
  5
5E1A
330
5DD0
100
AcDbEntity
  8
0
100
AcDbCircle
 10
-3219.036512233908
 20
-306.2881039811053
 30
0.0
 40
3097.2197332299
100
AcDbArc
 50
3.392654614601274
 51
3.540918781501575
  0
LINE
  5
5E1B
330
5DD0
100
AcDbEntity
  8
0
100
AcDbLine
 10
-127.2448954864073
 20
-122.9996032000056
 30
0.0
 11
-144.5704697199073
 21
-122.9996032000056
 31
0.0
  0
ARC
  5
5E1C
330
5DD0
100
AcDbEntity
  8
0
100
AcDbCircle
 10
-7844.63763871371
 20
1224.691327417295
 30
0.0
 40
7781.792472617199
100
AcDbArc
 50
350.0269374223015
 51
350.0867380565026
  0
LINE
  5
5E1D
330
5DD0
100
AcDbEntity
  8
0
100
AcDbLine
 10
-187.6101076964074
 20
-122.9996032000056
 30
0.0
 11
-186.2757400568074
 21
-114.9996032000056
 31
0.0
  0
ARC
  5
5E1E
330
5DD0
100
AcDbEntity
  8
0
100
AcDbCircle
 10
-7756.313797475207
 20
-1393.863906971705
 30
0.0
 40
7748.8495111633
100
AcDbArc
 50
9.43954451669864
 51
9.499514528300291
  0
LINE
  5
5E1F
330
5DD0
100
AcDbEntity
  8
0
100
AcDbLine
 10
-172.7551045136074
 20
-122.9996032000056
 30
0.0
 11
-172.2704581878073
 21
-114.9996032000056
 31
0.0
  0
LINE
  5
5E20
330
5DD0
100
AcDbEntity
  8
0
100
AcDbLine
 10
-119.5663801270074
 20
-122.9996032000056
 30
0.0
 11
-120.9688146143073
 21
-114.9996032000056
 31
0.0
  0
LINE
  5
5E21
330
5DD0
100
AcDbEntity
  8
0
100
AcDbLine
 10
-120.9688146143073
 20
-114.9996032000056
 30
0.0
 11
-127.7295418122073
 21
-114.9996032000056
 31
0.0
  0
LINE
  5
5E22
330
5DD0
100
AcDbEntity
  8
0
100
AcDbLine
 10
-145.2194439526074
 20
-114.9996032000056
 30
0.0
 11
-154.7805560474073
 21
-114.9996032000056
 31
0.0
  0
LINE
  5
5E23
330
5DD0
100
AcDbEntity
  8
0
100
AcDbLine
 10
-172.2704581878073
 20
-114.9996032000056
 30
0.0
 11
-179.0311853857074
 21
-114.9996032000056
 31
0.0
  0
ARC
  5
5E24
330
5DD0
100
AcDbEntity
  8
0
100
AcDbCircle
 10
-3255.621210813308
 20
132.5197843965947
 30
0.0
 40
3110.7038774987
100
AcDbArc
 50
355.2883022971967
 51
355.4361376759022
  0
LINE
  5
5E25
330
5DD0
100
AcDbEntity
  8
0
100
AcDbLine
 10
-155.4295302801074
 20
-122.9996032000056
 30
0.0
 11
-144.5704697199073
 21
-122.9996032000056
 31
0.0
  0
LINE
  5
5E26
330
5DD0
100
AcDbEntity
  8
0
100
AcDbLine
 10
-155.4295302801074
 20
-122.9996032000056
 30
0.0
 11
-172.7551045136074
 21
-122.9996032000056
 31
0.0
  0
LINE
  5
5E27
330
5DD0
100
AcDbEntity
  8
0
100
AcDbLine
 10
-180.4336198730074
 20
-122.9996032000056
 30
0.0
 11
-172.7551045136074
 21
-122.9996032000056
 31
0.0
  0
LINE
  5
5E28
330
5DD0
100
AcDbEntity
  8
0
100
AcDbLine
 10
-188.0000000000073
 20
-122.9996032000056
 30
0.0
 11
-187.6101076964074
 21
-122.9996032000056
 31
0.0
  0
LINE
  5
5E29
330
5DD0
100
AcDbEntity
  8
0
100
AcDbLine
 10
-178.0113564723074
 20
-110.9996032000056
 30
0.0
 11
-121.9886435277073
 21
-110.9996032000056
 31
0.0
  0
LINE
  5
5E2A
330
5DD0
100
AcDbEntity
  8
0
100
AcDbLine
 10
-162.0000000000074
 20
-127.9996032000056
 30
0.0
 11
-138.0000000000074
 21
-127.9996032000056
 31
0.0
  0
LINE
  5
5E2B
330
5DD0
100
AcDbEntity
  8
0
100
AcDbLine
 10
-144.5704697199073
 20
-122.9996032000056
 30
0.0
 11
-145.2194439526074
 21
-114.9996032000056
 31
0.0
  0
LINE
  5
5E2C
330
5DD0
100
AcDbEntity
  8
0
100
AcDbLine
 10
141.5
 20
-98.99960320000559
 30
0.0
 11
141.5
 21
-106.9996032000056
 31
0.0
  0
ARC
  5
5E2D
330
5DD0
100
AcDbEntity
  8
0
100
AcDbCircle
 10
154.25
 20
-111.2751098384071
 30
0.0
 40
12.27550663840318
100
AcDbArc
 50
69.74384199960424
 51
110.2561580003957
  0
LINE
  5
5E2E
330
5DD0
100
AcDbEntity
  8
0
100
AcDbLine
 10
141.5
 20
-98.99960320000559
 30
0.0
 11
158.5
 21
-98.99960320000559
 31
0.0
  0
ARC
  5
5E2F
330
5DD0
100
AcDbEntity
  8
0
100
AcDbCircle
 10
145.75
 20
-111.2751098384071
 30
0.0
 40
12.27550663840318
100
AcDbArc
 50
69.74384199960424
 51
110.2561580003957
  0
LINE
  5
5E30
330
5DD0
100
AcDbEntity
  8
0
100
AcDbLine
 10
141.5
 20
-106.9996032000056
 30
0.0
 11
158.5
 21
-106.9996032000056
 31
0.0
  0
ARC
  5
5E31
330
5DD0
100
AcDbEntity
  8
0
100
AcDbCircle
 10
154.2499999999927
 20
-94.72409656160404
 30
0.0
 40
12.27550663840318
100
AcDbArc
 50
249.7438419996043
 51
290.2561580003958
  0
LINE
  5
5E32
330
5DD0
100
AcDbEntity
  8
0
100
AcDbLine
 10
141.4999999999927
 20
-106.9996032000056
 30
0.0
 11
158.4999999999927
 21
-106.9996032000056
 31
0.0
  0
ARC
  5
5E33
330
5DD0
100
AcDbEntity
  8
0
100
AcDbCircle
 10
145.7499999999927
 20
-94.72409656160404
 30
0.0
 40
12.27550663840318
100
AcDbArc
 50
249.7438419996043
 51
290.2561580003958
  0
LINE
  5
5E34
330
5DD0
100
AcDbEntity
  8
0
100
AcDbLine
 10
158.5
 20
-98.99960320000559
 30
0.0
 11
158.5
 21
-106.9996032000056
 31
0.0
  0
LINE
  5
5E35
330
5DD0
100
AcDbEntity
  8
0
100
AcDbLine
 10
150.0
 20
-99.75879257855943
 30
0.0
 11
150.0000000000073
 21
-106.240413821459
 31
0.0
  0
LINE
  5
5E36
330
5DD0
100
AcDbEntity
  8
0
100
AcDbLine
 10
142.0
 20
-106.9996032000056
 30
0.0
 11
158.0
 21
-106.9996032000056
 31
0.0
  0
LINE
  5
5E37
330
5DD0
100
AcDbEntity
  8
0
100
AcDbLine
 10
138.9999999999927
 20
-106.9996032000056
 30
0.0
 11
160.9999999999927
 21
-106.9996032000056
 31
0.0
  0
ARC
  5
5E38
330
5DD0
100
AcDbEntity
  8
0
100
AcDbCircle
 10
137.9999999999927
 20
-125.9996032000056
 30
0.0
 40
2.0
100
AcDbArc
 50
180.0
 51
270.0
  0
LINE
  5
5E39
330
5DD0
100
AcDbEntity
  8
0
100
AcDbLine
 10
138.9999999999927
 20
-106.9996032000056
 30
0.0
 11
135.9999999999927
 21
-110.9996032000056
 31
0.0
  0
LINE
  5
5E3A
330
5DD0
100
AcDbEntity
  8
0
100
AcDbLine
 10
121.9886435276926
 20
-110.9996032000056
 30
0.0
 11
113.4106158456926
 21
-114.9996032000056
 31
0.0
  0
LINE
  5
5E3B
330
5DD0
100
AcDbEntity
  8
0
100
AcDbLine
 10
135.9999999999927
 20
-122.9996032000056
 30
0.0
 11
135.9999999999927
 21
-125.9996032000056
 31
0.0
  0
LINE
  5
5E3C
330
5DD0
100
AcDbEntity
  8
0
100
AcDbLine
 10
135.9999999999927
 20
-125.9996032000056
 30
0.0
 11
163.9999999999927
 21
-125.9996032000056
 31
0.0
  0
ARC
  5
5E3D
330
5DD0
100
AcDbEntity
  8
0
100
AcDbCircle
 10
161.9999999999927
 20
-125.9996032000056
 30
0.0
 40
2.0
100
AcDbArc
 50
270.0
 51
0.0
  0
LINE
  5
5E3E
330
5DD0
100
AcDbEntity
  8
0
100
AcDbLine
 10
163.9999999999927
 20
-110.9996032000056
 30
0.0
 11
160.9999999999927
 21
-106.9996032000056
 31
0.0
  0
LINE
  5
5E3F
330
5DD0
100
AcDbEntity
  8
0
100
AcDbLine
 10
186.5893841542926
 20
-114.9996032000056
 30
0.0
 11
178.0113564722926
 21
-110.9996032000056
 31
0.0
  0
LINE
  5
5E40
330
5DD0
100
AcDbEntity
  8
0
100
AcDbLine
 10
113.4106158456926
 20
-114.9996032000056
 30
0.0
 11
111.9999999999926
 21
-122.9996032000056
 31
0.0
  0
LINE
  5
5E41
330
5DD0
100
AcDbEntity
  8
0
100
AcDbLine
 10
187.9999999999926
 20
-122.9996032000056
 30
0.0
 11
186.5893841542926
 21
-114.9996032000056
 31
0.0
  0
LINE
  5
5E42
330
5DD0
100
AcDbEntity
  8
0
100
AcDbLine
 10
163.9999999999927
 20
-125.9996032000056
 30
0.0
 11
163.9999999999927
 21
-122.9996032000056
 31
0.0
  0
LINE
  5
5E43
330
5DD0
100
AcDbEntity
  8
0
100
AcDbLine
 10
113.4106158456926
 20
-114.9996032000056
 30
0.0
 11
113.7242599431925
 21
-114.9996032000056
 31
0.0
  0
LINE
  5
5E44
330
5DD0
100
AcDbEntity
  8
0
100
AcDbLine
 10
186.5893841542926
 20
-114.9996032000056
 30
0.0
 11
186.2757400567925
 21
-114.9996032000056
 31
0.0
  0
LINE
  5
5E45
330
5DD0
100
AcDbEntity
  8
0
100
AcDbLine
 10
119.5663801269926
 20
-122.9996032000056
 30
0.0
 11
112.3898923035925
 21
-122.9996032000056
 31
0.0
  0
LINE
  5
5E46
330
5DD0
100
AcDbEntity
  8
0
100
AcDbLine
 10
187.6101076963925
 20
-122.9996032000056
 30
0.0
 11
187.9999999999926
 21
-122.9996032000056
 31
0.0
  0
LINE
  5
5E47
330
5DD0
100
AcDbEntity
  8
0
100
AcDbLine
 10
172.7551045135926
 20
-122.9996032000056
 30
0.0
 11
180.4336198729925
 21
-122.9996032000056
 31
0.0
  0
ARC
  5
5E48
330
5DD0
100
AcDbEntity
  8
0
100
AcDbCircle
 10
136.4744928823925
 20
-139.2490716423055
 30
0.0
 40
25.7781087156
100
AcDbArc
 50
70.16945679560278
 51
109.8305432043972
  0
SPLINE
  5
5E49
330
5DD0
100
AcDbEntity
  8
0
100
AcDbSpline
210
0.0
220
0.0
230
1.0
 70
     8
 71
     3
 72
    14
 73
    10
 74
     0
 42
0.0000000001
 43
0.0000000001
 40
0.0
 40
0.0
 40
0.0
 40
0.0
 40
0.25
 40
0.25
 40
0.5
 40
0.5
 40
0.75
 40
0.75
 40
1.0
 40
1.0
 40
1.0
 40
1.0
 10
120.9688146142651
 20
-114.999603199956
 30
0.0
 10
121.0096432652253
 20
-114.5314170307591
 30
0.0
 10
120.8923641860435
 20
-114.1506935161097
 30
0.0
 10
120.3133347511813
 20
-113.6196297378015
 30
0.0
 10
119.843479656613
 20
-113.4754216434201
 30
0.0
 10
118.5889905108913
 20
-113.4752830539238
 30
0.0
 10
117.7863084380867
 20
-113.6188821549007
 30
0.0
 10
115.9289695057435
 20
-114.1503207780218
 30
0.0
 10
114.8820516584362
 20
-114.531364245538
 30
0.0
 10
113.7242599431599
 20
-114.999603199956
 30
0.0
  0
LINE
  5
5E4A
330
5DD0
100
AcDbEntity
  8
0
100
AcDbLine
 10
187.6101076963925
 20
-122.9996032000056
 30
0.0
 11
180.4336198729925
 21
-122.9996032000056
 31
0.0
  0
SPLINE
  5
5E4B
330
5DD0
100
AcDbEntity
  8
0
100
AcDbSpline
210
0.0
220
0.0
230
1.0
 70
     8
 71
     3
 72
    14
 73
    10
 74
     0
 42
0.0000000001
 43
0.0000000001
 40
0.0
 40
0.0
 40
0.0
 40
0.0
 40
0.2500000000000001
 40
0.2500000000000001
 40
0.5000000000000001
 40
0.5000000000000001
 40
0.75
 40
0.75
 40
1.0
 40
1.0
 40
1.0
 40
1.0
 10
186.2757400568196
 20
-114.999603199956
 30
0.0
 10
185.1180788609949
 20
-114.5314170307591
 30
0.0
 10
184.0719296456304
 20
-114.1506935161097
 30
0.0
 10
182.2167069993181
 20
-113.6196297378015
 30
0.0
 10
181.412115465655
 20
-113.4754216434201
 30
0.0
 10
180.1573012665374
 20
-113.4752830539238
 30
0.0
 10
179.6879051386497
 20
-113.6188821549007
 30
0.0
 10
179.1076183266593
 20
-114.1503207780218
 30
0.0
 10
178.9903521315655
 20
-114.531364245538
 30
0.0
 10
179.0311853857142
 20
-114.999603199956
 30
0.0
  0
ARC
  5
5E4C
330
5DD0
100
AcDbEntity
  8
0
100
AcDbCircle
 10
163.5255071175925
 20
-139.2484875595055
 30
0.0
 40
25.7775592697
100
AcDbArc
 50
70.16901638119825
 51
109.8309836188017
  0
ARC
  5
5E4D
330
5DD0
100
AcDbEntity
  8
0
100
AcDbCircle
 10
-2919.036512233907
 20
-306.2881039811053
 30
0.0
 40
3097.2197332299
100
AcDbArc
 50
3.392654614601274
 51
3.540918781501575
  0
LINE
  5
5E4E
330
5DD0
100
AcDbEntity
  8
0
100
AcDbLine
 10
172.7551045135926
 20
-122.9996032000056
 30
0.0
 11
155.4295302800926
 21
-122.9996032000056
 31
0.0
  0
ARC
  5
5E4F
330
5DD0
100
AcDbEntity
  8
0
100
AcDbCircle
 10
-7544.637638713709
 20
1224.691327417295
 30
0.0
 40
7781.792472617199
100
AcDbArc
 50
350.0269374223015
 51
350.0867380565026
  0
LINE
  5
5E50
330
5DD0
100
AcDbEntity
  8
0
100
AcDbLine
 10
112.3898923035925
 20
-122.9996032000056
 30
0.0
 11
113.7242599431925
 21
-114.9996032000056
 31
0.0
  0
ARC
  5
5E51
330
5DD0
100
AcDbEntity
  8
0
100
AcDbCircle
 10
-7456.313797475207
 20
-1393.863906971705
 30
0.0
 40
7748.8495111633
100
AcDbArc
 50
9.43954451669864
 51
9.499514528300291
  0
LINE
  5
5E52
330
5DD0
100
AcDbEntity
  8
0
100
AcDbLine
 10
127.2448954863925
 20
-122.9996032000056
 30
0.0
 11
127.7295418121925
 21
-114.9996032000056
 31
0.0
  0
LINE
  5
5E53
330
5DD0
100
AcDbEntity
  8
0
100
AcDbLine
 10
180.4336198729925
 20
-122.9996032000056
 30
0.0
 11
179.0311853856926
 21
-114.9996032000056
 31
0.0
  0
LINE
  5
5E54
330
5DD0
100
AcDbEntity
  8
0
100
AcDbLine
 10
179.0311853856926
 20
-114.9996032000056
 30
0.0
 11
172.2704581877926
 21
-114.9996032000056
 31
0.0
  0
LINE
  5
5E55
330
5DD0
100
AcDbEntity
  8
0
100
AcDbLine
 10
154.7805560473925
 20
-114.9996032000056
 30
0.0
 11
145.2194439525926
 21
-114.9996032000056
 31
0.0
  0
LINE
  5
5E56
330
5DD0
100
AcDbEntity
  8
0
100
AcDbLine
 10
127.7295418121925
 20
-114.9996032000056
 30
0.0
 11
120.9688146142925
 21
-114.9996032000056
 31
0.0
  0
ARC
  5
5E57
330
5DD0
100
AcDbEntity
  8
0
100
AcDbCircle
 10
-2955.621210813308
 20
132.5197843965947
 30
0.0
 40
3110.7038774987
100
AcDbArc
 50
355.2883022971967
 51
355.4361376759022
  0
LINE
  5
5E58
330
5DD0
100
AcDbEntity
  8
0
100
AcDbLine
 10
144.5704697198926
 20
-122.9996032000056
 30
0.0
 11
155.4295302800926
 21
-122.9996032000056
 31
0.0
  0
LINE
  5
5E59
330
5DD0
100
AcDbEntity
  8
0
100
AcDbLine
 10
144.5704697198926
 20
-122.9996032000056
 30
0.0
 11
127.2448954863925
 21
-122.9996032000056
 31
0.0
  0
LINE
  5
5E5A
330
5DD0
100
AcDbEntity
  8
0
100
AcDbLine
 10
119.5663801269926
 20
-122.9996032000056
 30
0.0
 11
127.2448954863925
 21
-122.9996032000056
 31
0.0
  0
LINE
  5
5E5B
330
5DD0
100
AcDbEntity
  8
0
100
AcDbLine
 10
111.9999999999926
 20
-122.9996032000056
 30
0.0
 11
112.3898923035925
 21
-122.9996032000056
 31
0.0
  0
LINE
  5
5E5C
330
5DD0
100
AcDbEntity
  8
0
100
AcDbLine
 10
121.9886435276926
 20
-110.9996032000056
 30
0.0
 11
178.0113564722926
 21
-110.9996032000056
 31
0.0
  0
LINE
  5
5E5D
330
5DD0
100
AcDbEntity
  8
0
100
AcDbLine
 10
137.9999999999927
 20
-127.9996032000056
 30
0.0
 11
161.9999999999927
 21
-127.9996032000056
 31
0.0
  0
LINE
  5
5E5E
330
5DD0
100
AcDbEntity
  8
0
100
AcDbLine
 10
155.4295302800926
 20
-122.9996032000056
 30
0.0
 11
154.7805560473925
 21
-114.9996032000056
 31
0.0
  0
LINE
  5
5E5F
330
5DD0
100
AcDbEntity
  8
0
100
AcDbLine
 10
-159.0000000000001
 20
-98.99969479999754
 30
0.0
 11
-141.0000000000001
 21
-98.99969479999754
 31
0.0
  0
LINE
  5
5E60
330
5DD0
100
AcDbEntity
  8
0
100
AcDbLine
 10
-159.0000000000001
 20
-96.99969479999754
 30
0.0
 11
-159.0000000000001
 21
-98.99969479999754
 31
0.0
  0
LINE
  5
5E61
330
5DD0
100
AcDbEntity
  8
0
100
AcDbLine
 10
-141.0000000000001
 20
-96.99969479999754
 30
0.0
 11
-141.0000000000001
 21
-98.99969479999754
 31
0.0
  0
LINE
  5
5E62
330
5DD0
100
AcDbEntity
  8
0
100
AcDbLine
 10
-159.0000000000001
 20
-96.999694800003
 30
0.0
 11
-141.0000000000001
 21
-96.99969479999754
 31
0.0
  0
LINE
  5
5E63
330
5DD0
100
AcDbEntity
  8
0
100
AcDbLine
 10
141.0
 20
-98.99969479999754
 30
0.0
 11
159.0
 21
-98.99969479999754
 31
0.0
  0
LINE
  5
5E64
330
5DD0
100
AcDbEntity
  8
0
100
AcDbLine
 10
141.0
 20
-96.99969479999754
 30
0.0
 11
141.0
 21
-98.99969479999754
 31
0.0
  0
LINE
  5
5E65
330
5DD0
100
AcDbEntity
  8
0
100
AcDbLine
 10
159.0
 20
-96.99969479999754
 30
0.0
 11
159.0
 21
-98.99969479999754
 31
0.0
  0
LINE
  5
5E66
330
5DD0
100
AcDbEntity
  8
0
100
AcDbLine
 10
141.0
 20
-96.999694800003
 30
0.0
 11
159.0
 21
-96.99969479999754
 31
0.0
  0
ARC
  5
5E67
330
5DD0
100
AcDbEntity
  8
0
 48
0.25
100
AcDbCircle
 10
-64.49999999999795
 20
361.600569316787
 30
-0.0000000000029055
 40
2.0
100
AcDbArc
 50
90.0
 51
180.0
  0
ARC
  5
5E68
330
5DD0
100
AcDbEntity
  8
0
 48
0.25
100
AcDbCircle
 10
64.5000000000025
 20
350.600569316787
 30
-0.0000000000004897
 40
2.0
100
AcDbArc
 50
270.0
 51
0.0
  0
POINT
  5
5E69
330
5DD0
100
AcDbEntity
  8
0
100
AcDbPoint
 10
66.40787840283633
 20
350.0005693167866
 30
-0.0000000000004897
  0
LINE
  5
5E6A
330
5DD0
100
AcDbEntity
  8
0
 48
0.1
100
AcDbLine
 10
-98.69999999998913
 20
462.6005693167861
 30
0.0
 11
98.69999999999912
 21
462.6005693167861
 31
0.0
  0
LINE
  5
5E6B
330
5DD0
100
AcDbEntity
  8
0
 48
0.1
100
AcDbLine
 10
-98.69999999998913
 20
446.600569316786
 30
0.0
 11
98.69999999999912
 21
446.600569316786
 31
0.0
  0
LINE
  5
5E6C
330
5DD0
100
AcDbEntity
  8
0
 48
0.25
100
AcDbLine
 10
-97.50294372515282
 20
243.2005693167864
 30
0.0
 11
-70.45965881556594
 21
243.2005693167864
 31
0.0
  0
LINE
  5
5E6D
330
5DD0
100
AcDbEntity
  8
0
 48
0.25
100
AcDbLine
 10
-98.40000000000099
 20
239.6005693167869
 30
0.0
 11
-0.0000000000004547
 21
239.6005693167869
 31
0.0
  0
LINE
  5
5E6E
330
5DD0
100
AcDbEntity
  8
0
 48
0.25
100
AcDbLine
 10
-98.4000000000001
 20
240.8005693167868
 30
0.0
 11
-0.0000000000004547
 21
240.8005693167868
 31
0.0
  0
LINE
  5
5E6F
330
5DD0
100
AcDbEntity
  8
0
 48
0.25
100
AcDbLine
 10
-98.70000000000414
 20
256.6005693167897
 30
0.0
 11
98.69999999999961
 21
256.6005693167879
 31
0.0
  0
LINE
  5
5E70
330
5DD0
100
AcDbEntity
  8
0
 48
0.25
100
AcDbLine
 10
-98.70000000000414
 20
272.6005693167897
 30
0.0
 11
98.69999999999961
 21
272.6005693167879
 31
0.0
  0
LINE
  5
5E71
330
5DD0
100
AcDbEntity
  8
0
 48
0.25
100
AcDbLine
 10
-104.0000000000004
 20
372.2210943140597
 30
0.0
 11
-104.0000000000004
 21
249.6976255916341
 31
0.0
  0
LINE
  5
5E72
330
5DD0
100
AcDbEntity
  8
0
 48
0.25
100
AcDbLine
 10
-104.0000000000004
 20
332.2740910140335
 30
0.0
 11
-104.0000000000004
 21
266.6005693167869
 31
0.0
  0
LINE
  5
5E73
330
5DD0
100
AcDbEntity
  8
0
 48
0.25
100
AcDbLine
 10
-107.6000000000008
 20
379.600569316786
 30
0.0
 11
-107.6000000000008
 21
248.8005693167877
 31
0.0
  0
LINE
  5
5E74
330
5DD0
100
AcDbEntity
  8
0
 48
0.25
100
AcDbLine
 10
-106.4000000000001
 20
379.600569316786
 30
0.0
 11
-106.4000000000001
 21
248.8005693167868
 31
0.0
  0
LINE
  5
5E75
330
5DD0
100
AcDbEntity
  8
0
100
AcDbLine
 10
-99.49999999998889
 20
461.8005693167858
 30
0.0
 11
-99.5000000000043
 21
257.400569316789
 31
0.0
  0
ARC
  5
5E76
330
5DD0
100
AcDbEntity
  8
0
 48
0.25
100
AcDbCircle
 10
-98.70000000000414
 20
257.400569316789
 30
0.0
 40
0.8
100
AcDbArc
 50
180.0
 51
270.0
  0
LINE
  5
5E77
330
5DD0
100
AcDbEntity
  8
0
 48
0.25
100
AcDbLine
 10
-91.00122375548336
 20
240.7960021991501
 30
0.0
 11
-90.19029655202075
 21
242.2005693167864
 31
0.0
  0
ARC
  5
5E78
330
5DD0
100
AcDbEntity
  8
0
 48
0.25
100
AcDbCircle
 10
-88.45824574445169
 20
241.2005693167864
 30
0.0
 40
2.0
100
AcDbArc
 50
90.0
 51
149.9999999999994
  0
ARC
  5
5E79
330
5DD0
100
AcDbEntity
  8
0
 48
0.25
100
AcDbCircle
 10
-98.4000000000001
 20
248.8005693167868
 30
0.0
 40
8.0
100
AcDbArc
 50
180.0
 51
270.0
  0
ARC
  5
5E7A
330
5DD0
100
AcDbEntity
  8
0
 48
0.25
100
AcDbCircle
 10
-98.40000000000079
 20
248.8005693167868
 30
0.0
 40
9.199999999999999
100
AcDbArc
 50
180.0
 51
270.0
  0
LINE
  5
5E7B
330
5DD0
100
AcDbEntity
  8
0
 48
0.25
100
AcDbLine
 10
-106.4000000000001
 20
252.0976255916337
 30
0.0
 11
-95.10294372515273
 21
240.8005693167868
 31
0.0
  0
ARC
  5
5E7C
330
5DD0
100
AcDbEntity
  8
0
 48
0.1
100
AcDbCircle
 10
-98.69999999998913
 20
461.8005693167868
 30
0.0
 40
0.8
100
AcDbArc
 50
90.0
 51
180.0
  0
LINE
  5
5E7D
330
5DD0
100
AcDbEntity
  8
0
 48
0.25
100
AcDbLine
 10
-99.4999999999966
 20
369.6005693167879
 30
0.0
 11
-103.4999999999966
 21
369.6005693167879
 31
0.0
  0
LINE
  5
5E7E
330
5DD0
100
AcDbEntity
  8
0
 48
0.25
100
AcDbLine
 10
-99.4999999999966
 20
349.6005693167879
 30
0.0
 11
-103.4999999999966
 21
349.6005693167879
 31
0.0
  0
LINE
  5
5E7F
330
5DD0
100
AcDbEntity
  8
0
 48
0.25
100
AcDbLine
 10
-103.4999999999966
 20
369.6005693167879
 30
0.0
 11
-103.4999999999966
 21
359.6005693167878
 31
0.0
  0
LINE
  5
5E80
330
5DD0
100
AcDbEntity
  8
0
 48
0.25
100
AcDbLine
 10
-103.4999999999966
 20
349.6005693167879
 30
0.0
 11
-103.4999999999966
 21
359.6005693167878
 31
0.0
  0
LINE
  5
5E81
330
5DD0
100
AcDbEntity
  8
0
 48
0.25
100
AcDbLine
 10
-103.499999999997
 20
369.6005693167879
 30
0.0
 11
-103.499999999997
 21
359.6005693167878
 31
0.0
  0
ARC
  5
5E82
330
5DD0
100
AcDbEntity
  8
0
 48
0.25
100
AcDbCircle
 10
-106.0000000000004
 20
372.2210943140597
 30
0.0
 40
2.0
100
AcDbArc
 50
0.0
 51
60.00000000000673
  0
LINE
  5
5E83
330
5DD0
100
AcDbEntity
  8
0
 48
0.25
100
AcDbLine
 10
-99.4999999999966
 20
369.6005693167879
 30
0.0
 11
-99.4999999999966
 21
359.6005693167878
 31
0.0
  0
LINE
  5
5E84
330
5DD0
100
AcDbEntity
  8
0
 48
0.25
100
AcDbLine
 10
-99.4999999999966
 20
349.6005693167879
 30
0.0
 11
-99.4999999999966
 21
359.6005693167878
 31
0.0
  0
LINE
  5
5E85
330
5DD0
100
AcDbEntity
  8
0
 48
0.25
100
AcDbLine
 10
-107.6000000000008
 20
379.600569316787
 30
0.0
 11
-106.4000000000001
 21
379.600569316787
 31
0.0
  0
LINE
  5
5E86
330
5DD0
100
AcDbEntity
  8
0
100
AcDbLine
 10
-110.8000000000008
 20
359.6005693167878
 30
0.0
 11
-110.8000000000008
 21
342.1585643778406
 31
0.0
  0
LINE
  5
5E87
330
5DD0
100
AcDbEntity
  8
0
100
AcDbLine
 10
-110.8000000000008
 20
359.6005693167878
 30
0.0
 11
-110.8000000000008
 21
377.0425742557362
 31
0.0
  0
LINE
  5
5E88
330
5DD0
100
AcDbEntity
  8
0
100
AcDbLine
 10
-117.7999999999999
 20
342.1585643778406
 30
0.0
 11
-110.8000000000008
 21
342.1585643778406
 31
0.0
  0
LINE
  5
5E89
330
5DD0
100
AcDbEntity
  8
0
100
AcDbLine
 10
-117.7999999999999
 20
377.0425742557362
 30
0.0
 11
-110.8000000000008
 21
377.0425742557362
 31
0.0
  0
LINE
  5
5E8A
330
5DD0
100
AcDbEntity
  8
0
 48
0.5
100
AcDbLine
 10
-107.6000000000008
 20
367.6005693167879
 30
0.0
 11
-110.7999999999999
 21
367.6005693167879
 31
0.0
  0
LINE
  5
5E8B
330
5DD0
100
AcDbEntity
  8
0
 48
0.5
100
AcDbLine
 10
-107.6000000000008
 20
351.6005693167879
 30
0.0
 11
-110.7999999999999
 21
351.6005693167879
 31
0.0
  0
LINE
  5
5E8C
330
5DD0
100
AcDbEntity
  8
0
 48
0.25
100
AcDbLine
 10
-106.4000000000001
 20
374.7614354984942
 30
0.0
 11
-105.0000000000004
 21
373.9531451216287
 31
0.0
  0
LINE
  5
5E8D
330
5DD0
100
AcDbEntity
  8
0
100
AcDbLine
 10
-122.7999999999999
 20
359.6005693167878
 30
0.0
 11
-122.7999999999999
 21
347.1585643778405
 31
0.0
  0
LINE
  5
5E8E
330
5DD0
100
AcDbEntity
  8
0
100
AcDbLine
 10
-122.7999999999999
 20
359.6005693167878
 30
0.0
 11
-122.7999999999999
 21
372.0425742557361
 31
0.0
  0
ARC
  5
5E8F
330
5DD0
100
AcDbEntity
  8
0
100
AcDbCircle
 10
-117.7999999999999
 20
347.1585643778405
 30
0.0
 40
5.0
100
AcDbArc
 50
180.0
 51
270.0
  0
ARC
  5
5E90
330
5DD0
100
AcDbEntity
  8
0
100
AcDbCircle
 10
-117.7999999999999
 20
372.0425742557361
 30
0.0
 40
5.0
100
AcDbArc
 50
90.0
 51
180.0
  0
LINE
  5
5E91
330
5DD0
100
AcDbEntity
  8
0
100
AcDbLine
 10
-122.7999999999999
 20
353.0776460192218
 30
0.0
 11
-110.8000000000004
 21
353.0776460192218
 31
0.0
  0
LINE
  5
5E92
330
5DD0
100
AcDbEntity
  8
0
100
AcDbLine
 10
-122.7999999999995
 20
366.0547949193703
 30
0.0
 11
-110.8000000000004
 21
366.0547949193693
 31
0.0
  0
LINE
  5
5E93
330
5DD0
100
AcDbEntity
  8
0
100
AcDbLine
 10
66.5000000000025
 20
361.600569316787
 30
0.0000000000001068
 11
66.5000000000025
 21
350.600569316787
 31
-0.0000000000003221
  0
LINE
  5
5E94
330
5DD0
100
AcDbEntity
  8
0
 48
0.25
100
AcDbLine
 10
-64.49999999999795
 20
363.600569316787
 30
0.0
 11
64.5000000000025
 21
363.600569316787
 31
0.0000000000000137
  0
LINE
  5
5E95
330
5DD0
100
AcDbEntity
  8
0
 48
0.25
100
AcDbLine
 10
-64.4999999999975
 20
348.600569316787
 30
0.0
 11
64.5000000000025
 21
348.600569316787
 31
0.0000000000000137
  0
LINE
  5
5E96
330
5DD0
100
AcDbEntity
  8
0
100
AcDbLine
 10
122.8000000000095
 20
366.0547949193703
 30
0.0
 11
110.8000000000102
 21
366.0547949193693
 31
0.0
  0
LINE
  5
5E97
330
5DD0
100
AcDbEntity
  8
0
100
AcDbLine
 10
122.8000000000099
 20
353.0776460192218
 30
0.0
 11
110.8000000000102
 21
353.0776460192218
 31
0.0
  0
LINE
  5
5E98
330
5DD0
100
AcDbEntity
  8
0
100
AcDbLine
 10
117.8000000000099
 20
377.0425742557362
 30
0.0
 11
110.8000000000106
 21
377.0425742557362
 31
0.0
  0
LINE
  5
5E99
330
5DD0
100
AcDbEntity
  8
0
100
AcDbLine
 10
117.8000000000099
 20
342.1585643778406
 30
0.0
 11
110.8000000000106
 21
342.1585643778406
 31
0.0
  0
LINE
  5
5E9A
330
5DD0
100
AcDbEntity
  8
0
 48
0.25
100
AcDbLine
 10
106.3999999999992
 20
379.600569316786
 30
0.0
 11
106.3999999999992
 21
248.8005693167868
 31
0.0
  0
LINE
  5
5E9B
330
5DD0
100
AcDbEntity
  8
0
 48
0.25
100
AcDbLine
 10
107.5999999999999
 20
379.600569316786
 30
0.0
 11
107.5999999999999
 21
248.8005693167877
 31
0.0
  0
LINE
  5
5E9C
330
5DD0
100
AcDbEntity
  8
0
 48
0.25
100
AcDbLine
 10
103.9999999999995
 20
332.2740910140335
 30
0.0
 11
103.9999999999995
 21
266.6005693167869
 31
0.0
  0
LINE
  5
5E9D
330
5DD0
100
AcDbEntity
  8
0
 48
0.25
100
AcDbLine
 10
103.9999999999995
 20
372.2210943140597
 30
0.0
 11
103.9999999999995
 21
249.6976255916349
 31
0.0
  0
LINE
  5
5E9E
330
5DD0
100
AcDbEntity
  8
0
100
AcDbLine
 10
57.00000000001272
 20
299.6005827808901
 30
0.0
 11
57.00000000001272
 21
312.6005827808902
 31
0.0
  0
LINE
  5
5E9F
330
5DD0
100
AcDbEntity
  8
0
100
AcDbLine
 10
56.00000000001272
 20
300.6005827808901
 30
0.0
 11
56.00000000001272
 21
313.6005827808901
 31
0.0
  0
LINE
  5
5EA0
330
5DD0
100
AcDbEntity
  8
0
100
AcDbLine
 10
17.00000000000182
 20
313.6005962449951
 30
0.0
 11
17.00000000000182
 21
300.6005962449951
 31
0.0
  0
LINE
  5
5EA1
330
5DD0
100
AcDbEntity
  8
0
100
AcDbLine
 10
32.00000000000182
 20
300.6005962449951
 30
0.0
 11
32.00000000000182
 21
313.6005962449951
 31
0.0
  0
LINE
  5
5EA2
330
5DD0
100
AcDbEntity
  8
0
100
AcDbLine
 10
33.00000000000182
 20
299.6005962449951
 30
0.0
 11
33.00000000000182
 21
312.6005962449951
 31
0.0
  0
LINE
  5
5EA3
330
5DD0
100
AcDbEntity
  8
0
100
AcDbLine
 10
41.00000000001272
 20
313.6005827808901
 30
0.0
 11
41.00000000001272
 21
300.6005827808901
 31
0.0
  0
LINE
  5
5EA4
330
5DD0
100
AcDbEntity
  8
0
 48
0.25
100
AcDbLine
 10
66.49999999999931
 20
345.6005693167888
 30
0.0
 11
66.49999999999931
 21
297.6005693167879
 31
0.0
  0
LINE
  5
5EA5
330
5DD0
100
AcDbEntity
  8
0
100
AcDbLine
 10
-39.99999999997999
 20
300.6005693167888
 30
0.0
 11
-39.99999999997999
 21
313.6005693167888
 31
0.0
  0
LINE
  5
5EA6
330
5DD0
100
AcDbEntity
  8
0
100
AcDbLine
 10
-38.99999999997999
 20
299.6005693167888
 30
0.0
 11
-38.99999999997999
 21
312.6005693167889
 31
0.0
  0
LINE
  5
5EA7
330
5DD0
100
AcDbEntity
  8
0
100
AcDbLine
 10
-54.99999999997999
 20
313.6005693167888
 30
0.0
 11
-54.99999999997999
 21
300.6005693167888
 31
0.0
  0
LINE
  5
5EA8
330
5DD0
100
AcDbEntity
  8
0
 48
0.25
100
AcDbLine
 10
-66.49999999999796
 20
345.6005693167869
 30
0.0
 11
-66.49999999999796
 21
297.6005693167888
 31
0.0
  0
LINE
  5
5EA9
330
5DD0
100
AcDbEntity
  8
0
 48
0.25
100
AcDbLine
 10
68.49999999999932
 20
421.9005693167861
 30
0.0
 11
68.49999999999932
 21
297.6005693167888
 31
0.0
  0
LINE
  5
5EAA
330
5DD0
100
AcDbEntity
  8
0
 48
0.25
100
AcDbLine
 10
-68.49999999999795
 20
421.9005693167861
 30
0.0
 11
-68.49999999999795
 21
297.6005693167888
 31
0.0
  0
LINE
  5
5EAB
330
5DD0
100
AcDbEntity
  8
0
 48
0.25
100
AcDbLine
 10
99.49999999999931
 20
461.8005693167868
 30
0.0
 11
99.49999999999977
 21
257.400569316788
 31
0.0
  0
LINE
  5
5EAC
330
5DD0
100
AcDbEntity
  8
0
 48
0.25
100
AcDbLine
 10
70.45965881556504
 20
243.2005693167864
 30
0.0
 11
-0.0000000000004547
 21
243.2005693167864
 31
0.0
  0
LINE
  5
5EAD
330
5DD0
100
AcDbEntity
  8
0
100
AcDbLine
 10
19.99999999871169
 20
239.6005693167869
 30
0.0
 11
-19.99999999871284
 21
239.6005693167869
 31
0.0
  0
LINE
  5
5EAE
330
5DD0
100
AcDbEntity
  8
0
 48
0.25
100
AcDbLine
 10
-58.49999999999795
 20
289.6005693167889
 30
0.0
 11
58.49999999999933
 21
289.6005693167879
 31
0.0
  0
LINE
  5
5EAF
330
5DD0
100
AcDbEntity
  8
0
100
AcDbLine
 10
-58.49999999999795
 20
287.6005693167888
 30
0.0
 11
58.49999999999933
 21
287.6005693167888
 31
0.0
  0
LINE
  5
5EB0
330
5DD0
100
AcDbEntity
  8
0
 48
0.25
100
AcDbLine
 10
98.39999999999918
 20
240.8005693167868
 30
0.0
 11
-0.0000000000004547
 21
240.8005693167868
 31
0.0
  0
LINE
  5
5EB1
330
5DD0
100
AcDbEntity
  8
0
 48
0.25
100
AcDbLine
 10
98.39999999999987
 20
239.6005693167869
 30
0.0
 11
-0.0000000000004547
 21
239.6005693167869
 31
0.0
  0
LINE
  5
5EB2
330
5DD0
100
AcDbEntity
  8
0
100
AcDbLine
 10
20.00000000000114
 20
239.6005693167869
 30
0.0
 11
-20.00000000000205
 21
239.6005693167869
 31
0.0
  0
ARC
  5
5EB3
330
5DD0
100
AcDbEntity
  8
0
100
AcDbCircle
 10
-39.99999999997999
 20
299.6005693167888
 30
0.0
 40
1.0
100
AcDbArc
 50
270.0
 51
0.0
  0
ARC
  5
5EB4
330
5DD0
100
AcDbEntity
  8
0
100
AcDbCircle
 10
-40.99999999997999
 20
300.6005693167888
 30
0.0
 40
1.0
100
AcDbArc
 50
270.0
 51
0.0
  0
LINE
  5
5EB5
330
5DD0
100
AcDbEntity
  8
0
 48
0.25
100
AcDbLine
 10
-32.77005876671024
 20
240.7960021991501
 30
0.0
 11
-31.95913156324764
 21
242.2005693167864
 31
0.0
  0
ARC
  5
5EB6
330
5DD0
100
AcDbEntity
  8
0
 48
0.25
100
AcDbCircle
 10
-30.22708075567857
 20
241.2005693167864
 30
0.0
 40
2.0
100
AcDbArc
 50
90.0
 51
149.9999999999994
  0
ARC
  5
5EB7
330
5DD0
100
AcDbEntity
  8
0
 48
0.25
100
AcDbCircle
 10
-58.49999999999795
 20
297.6005693167888
 30
0.0
 40
8.0
100
AcDbArc
 50
180.0
 51
270.0
  0
ARC
  5
5EB8
330
5DD0
100
AcDbEntity
  8
0
 48
0.25
100
AcDbCircle
 10
-58.49999999999795
 20
297.6005693167888
 30
0.0
 40
10.0
100
AcDbArc
 50
180.0
 51
270.0
  0
ARC
  5
5EB9
330
5DD0
100
AcDbEntity
  8
0
100
AcDbCircle
 10
-53.99999999997999
 20
300.6005693167888
 30
0.0
 40
1.0
100
AcDbArc
 50
180.0
 51
270.0
  0
ARC
  5
5EBA
330
5DD0
100
AcDbEntity
  8
0
100
AcDbCircle
 10
-52.99999999997999
 20
299.6005693167888
 30
0.0
 40
1.0
100
AcDbArc
 50
180.0
 51
270.0
  0
LINE
  5
5EBB
330
5DD0
100
AcDbEntity
  8
0
 48
0.25
100
AcDbLine
 10
-73.49877624451757
 20
240.7960021991501
 30
0.0
 11
-74.30970344798016
 21
242.2005693167864
 31
0.0
  0
ARC
  5
5EBC
330
5DD0
100
AcDbEntity
  8
0
 48
0.25
100
AcDbCircle
 10
-76.04175425554922
 20
241.2005693167864
 30
0.0
 40
2.0
100
AcDbArc
 50
30.00000000000055
 51
90.0
  0
LINE
  5
5EBD
330
5DD0
100
AcDbEntity
  8
0
100
AcDbLine
 10
-53.99999999997999
 20
299.6005693167888
 30
0.0
 11
-40.99999999997999
 21
299.6005693167888
 31
0.0
  0
LINE
  5
5EBE
330
5DD0
100
AcDbEntity
  8
0
100
AcDbLine
 10
-52.99999999997999
 20
298.6005693167888
 30
0.0
 11
-39.99999999997999
 21
298.6005693167888
 31
0.0
  0
LINE
  5
5EBF
330
5DD0
100
AcDbEntity
  8
0
 48
0.25
100
AcDbLine
 10
-70.45965881556594
 20
243.2005693167864
 30
0.0
 11
-0.0000000000004547
 21
243.2005693167864
 31
0.0
  0
LINE
  5
5EC0
330
5DD0
100
AcDbEntity
  8
0
 48
0.25
100
AcDbLine
 10
106.3999999999992
 20
252.0976255916337
 30
0.0
 11
95.10294372515181
 21
240.8005693167868
 31
0.0
  0
ARC
  5
5EC1
330
5DD0
100
AcDbEntity
  8
0
 48
0.25
100
AcDbCircle
 10
98.39999999999987
 20
248.8005693167868
 30
0.0
 40
9.199999999999999
100
AcDbArc
 50
270.0
 51
0.0
  0
ARC
  5
5EC2
330
5DD0
100
AcDbEntity
  8
0
 48
0.25
100
AcDbCircle
 10
98.39999999999918
 20
248.8005693167868
 30
0.0
 40
8.0
100
AcDbArc
 50
270.0
 51
0.0
  0
ARC
  5
5EC3
330
5DD0
100
AcDbEntity
  8
0
 48
0.25
100
AcDbCircle
 10
98.69999999999961
 20
257.400569316788
 30
0.0
 40
0.8
100
AcDbArc
 50
270.0
 51
0.0
  0
ARC
  5
5EC4
330
5DD0
100
AcDbEntity
  8
0
 48
0.25
100
AcDbCircle
 10
75.54175425554831
 20
241.2005693167864
 30
0.0
 40
2.0
100
AcDbArc
 50
90.0
 51
149.9999999999994
  0
ARC
  5
5EC5
330
5DD0
100
AcDbEntity
  8
0
 48
0.25
100
AcDbCircle
 10
88.45824574445078
 20
241.2005693167864
 30
0.0
 40
2.0
100
AcDbArc
 50
30.00000000000055
 51
90.0
  0
LINE
  5
5EC6
330
5DD0
100
AcDbEntity
  8
0
 48
0.25
100
AcDbLine
 10
91.00122375548243
 20
240.7960021991501
 30
0.0
 11
90.19029655201984
 21
242.2005693167864
 31
0.0
  0
ARC
  5
5EC7
330
5DD0
100
AcDbEntity
  8
0
 48
0.25
100
AcDbCircle
 10
58.49999999999933
 20
297.6005693167879
 30
0.0
 40
8.0
100
AcDbArc
 50
270.0
 51
0.0
  0
ARC
  5
5EC8
330
5DD0
100
AcDbEntity
  8
0
100
AcDbCircle
 10
58.49999999999933
 20
297.6005693167888
 30
0.0
 40
10.0
100
AcDbArc
 50
270.0
 51
0.0
  0
ARC
  5
5EC9
330
5DD0
100
AcDbEntity
  8
0
100
AcDbCircle
 10
55.00000000001271
 20
300.6005827808901
 30
0.0
 40
1.0
100
AcDbArc
 50
270.0
 51
0.0
  0
ARC
  5
5ECA
330
5DD0
100
AcDbEntity
  8
0
100
AcDbCircle
 10
56.00000000001272
 20
299.6005827808901
 30
0.0
 40
1.0
100
AcDbArc
 50
270.0
 51
0.0
  0
ARC
  5
5ECB
330
5DD0
100
AcDbEntity
  8
0
100
AcDbCircle
 10
18.00000000000182
 20
300.6005962449951
 30
0.0
 40
1.0
100
AcDbArc
 50
180.0
 51
270.0
  0
ARC
  5
5ECC
330
5DD0
100
AcDbEntity
  8
0
100
AcDbCircle
 10
19.00000000000182
 20
299.6005962449951
 30
0.0
 40
1.0
100
AcDbArc
 50
180.0
 51
270.0
  0
LINE
  5
5ECD
330
5DD0
100
AcDbEntity
  8
0
100
AcDbLine
 10
18.00000000000182
 20
299.6005962449951
 30
0.0
 11
31.00000000000183
 21
299.6005962449951
 31
0.0
  0
ARC
  5
5ECE
330
5DD0
100
AcDbEntity
  8
0
100
AcDbCircle
 10
31.00000000000183
 20
300.6005962449951
 30
0.0
 40
1.0
100
AcDbArc
 50
270.0
 51
0.0
  0
ARC
  5
5ECF
330
5DD0
100
AcDbEntity
  8
0
100
AcDbCircle
 10
32.00000000000182
 20
299.6005962449951
 30
0.0
 40
1.0
100
AcDbArc
 50
270.0
 51
0.0
  0
LINE
  5
5ED0
330
5DD0
100
AcDbEntity
  8
0
100
AcDbLine
 10
19.00000000000182
 20
298.6005962449951
 30
0.0
 11
32.00000000000182
 21
298.6005962449951
 31
0.0
  0
ARC
  5
5ED1
330
5DD0
100
AcDbEntity
  8
0
100
AcDbCircle
 10
42.00000000001272
 20
300.6005827808901
 30
0.0
 40
1.0
100
AcDbArc
 50
180.0
 51
270.0
  0
ARC
  5
5ED2
330
5DD0
100
AcDbEntity
  8
0
100
AcDbCircle
 10
43.00000000001271
 20
299.6005827808901
 30
0.0
 40
1.0
100
AcDbArc
 50
180.0
 51
270.0
  0
LINE
  5
5ED3
330
5DD0
100
AcDbEntity
  8
0
 48
0.25
100
AcDbLine
 10
32.27005876670933
 20
240.7960021991501
 30
0.0
 11
31.45913156324673
 21
242.2005693167864
 31
0.0
  0
ARC
  5
5ED4
330
5DD0
100
AcDbEntity
  8
0
 48
0.25
100
AcDbCircle
 10
29.72708075567766
 20
241.2005693167864
 30
0.0
 40
2.0
100
AcDbArc
 50
30.00000000000055
 51
90.0
  0
LINE
  5
5ED5
330
5DD0
100
AcDbEntity
  8
0
100
AcDbLine
 10
42.00000000001272
 20
299.6005827808901
 30
0.0
 11
55.00000000001271
 21
299.6005827808901
 31
0.0
  0
LINE
  5
5ED6
330
5DD0
100
AcDbEntity
  8
0
100
AcDbLine
 10
43.00000000001271
 20
298.6005827808901
 30
0.0
 11
56.00000000001272
 21
298.6005827808901
 31
0.0
  0
LINE
  5
5ED7
330
5DD0
100
AcDbEntity
  8
0
 48
0.25
100
AcDbLine
 10
72.99877624451664
 20
240.7960021991501
 30
0.0
 11
73.80970344797923
 21
242.2005693167864
 31
0.0
  0
LINE
  5
5ED8
330
5DD0
100
AcDbEntity
  8
0
 48
0.25
100
AcDbLine
 10
97.5029437251517
 20
243.2005693167864
 30
0.0
 11
70.45965881556504
 21
243.2005693167864
 31
0.0
  0
LINE
  5
5ED9
330
5DD0
100
AcDbEntity
  8
0
100
AcDbLine
 10
13.35759207117211
 20
403.9404680167868
 30
0.0
 11
14.35524227117207
 21
404.7777788167874
 31
0.0
  0
LINE
  5
5EDA
330
5DD0
100
AcDbEntity
  8
0
 48
0.1
100
AcDbLine
 10
-58.199999999998
 20
429.600569316786
 30
0.0
 11
58.19999999999982
 21
429.600569316786
 31
0.0
  0
LINE
  5
5EDB
330
5DD0
100
AcDbEntity
  8
0
 48
0.1
100
AcDbLine
 10
-58.49999999999795
 20
431.9005693167861
 30
0.0
 11
58.49999999999933
 21
431.9005693167861
 31
0.0
  0
LINE
  5
5EDC
330
5DD0
100
AcDbEntity
  8
0
 48
0.1
100
AcDbLine
 10
-58.49999999999795
 20
429.9005693167861
 30
0.0
 11
58.49999999999933
 21
429.9005693167861
 31
0.0
  0
LINE
  5
5EDD
330
5DD0
100
AcDbEntity
  8
0
100
AcDbLine
 10
13.39995867660968
 20
389.9005682167879
 30
0.0
 11
16.19995867660987
 21
387.1005690167874
 31
0.0
  0
LINE
  5
5EDE
330
5DD0
100
AcDbEntity
  8
0
100
AcDbLine
 10
12.29265037660957
 20
397.9005682167878
 30
0.0
 11
13.91734897661013
 21
397.9005682167878
 31
0.0
  0
LINE
  5
5EDF
330
5DD0
100
AcDbEntity
  8
0
100
AcDbLine
 10
12.18685737660985
 20
397.300569716788
 30
0.0
 11
13.81155977661024
 21
397.300569716788
 31
0.0
  0
ARC
  5
5EE0
330
5DD0
100
AcDbEntity
  8
0
100
AcDbCircle
 10
14.14715017661024
 20
396.9005682167879
 30
0.0
 40
2.0
100
AcDbArc
 50
170.0001067999947
 51
270.0
  0
LINE
  5
5EE1
330
5DD0
100
AcDbEntity
  8
0
100
AcDbLine
 10
13.39995867660968
 20
389.9005682167879
 30
0.0
 11
18.99995867661005
 21
389.9005682167879
 31
0.0
  0
LINE
  5
5EE2
330
5DD0
100
AcDbEntity
  8
0
100
AcDbLine
 10
-58.19999999999708
 20
364.9005693167862
 30
0.0
 11
58.19999999999959
 21
364.9005693167881
 31
0.0
  0
LINE
  5
5EE3
330
5DD0
100
AcDbEntity
  8
0
100
AcDbLine
 10
-58.4999999999975
 20
364.6005693167869
 30
0.0
 11
58.49999999999933
 21
364.6005693167888
 31
0.0
  0
LINE
  5
5EE4
330
5DD0
100
AcDbEntity
  8
0
100
AcDbLine
 10
-64.49999999999795
 20
363.600569316787
 30
0.0
 11
64.50000000000205
 21
363.600569316787
 31
0.0
  0
LINE
  5
5EE5
330
5DD0
100
AcDbEntity
  8
0
100
AcDbLine
 10
-64.49999999999795
 20
348.600569316787
 30
0.0
 11
64.50000000000023
 21
348.6005693167888
 31
0.0
  0
LINE
  5
5EE6
330
5DD0
100
AcDbEntity
  8
0
100
AcDbLine
 10
-64.49999999999795
 20
347.600569316787
 30
0.0
 11
64.50000000000023
 21
347.6005693167888
 31
0.0
  0
LINE
  5
5EE7
330
5DD0
100
AcDbEntity
  8
0
100
AcDbLine
 10
-0.142407928827879
 20
403.9404680167868
 30
0.0
 11
0.8552422711720737
 21
404.7777788167874
 31
0.0
  0
LINE
  5
5EE8
330
5DD0
100
AcDbEntity
  8
0
100
AcDbLine
 10
-3.957738410865886
 20
406.4600679318579
 30
0.0
 11
-2.800580823389964
 21
413.0227682167876
 31
0.0
  0
LINE
  5
5EE9
330
5DD0
100
AcDbEntity
  8
0
100
AcDbLine
 10
-5.595429934244521
 20
406.3862688232436
 30
0.0
 11
-4.098420923389993
 21
414.8762648167873
 31
0.0
  0
LINE
  5
5EEA
330
5DD0
100
AcDbEntity
  8
0
100
AcDbLine
 10
-4.955197828827976
 20
405.6231691167875
 30
0.0
 11
-3.957738428827497
 21
406.4600679167877
 31
0.0
  0
LINE
  5
5EEB
330
5DD0
100
AcDbEntity
  8
0
100
AcDbLine
 10
-5.59542992882757
 20
406.3862688167871
 30
0.0
 11
-4.955197828827976
 21
405.6231691167875
 31
0.0
  0
LINE
  5
5EEC
330
5DD0
100
AcDbEntity
  8
0
100
AcDbLine
 10
-5.029187728827992
 20
404.7778665167877
 30
0.0
 11
-4.388917428827653
 21
404.0146677167873
 31
0.0
  0
ARC
  5
5EED
330
5DD0
100
AcDbEntity
  8
0
100
AcDbCircle
 10
-4.37626062339018
 20
413.3005659167872
 30
0.0
 40
1.6
100
AcDbArc
 50
350.0000916000027
 51
80.00013729999631
  0
LINE
  5
5EEE
330
5DD0
100
AcDbEntity
  8
0
100
AcDbLine
 10
-4.985521123389617
 20
413.3005659167872
 30
0.0
 11
-4.703401423390231
 21
414.9005720167877
 31
0.0
  0
LINE
  5
5EEF
330
5DD0
100
AcDbEntity
  8
0
100
AcDbLine
 10
1.926592352647503
 20
406.4602701012388
 30
0.0
 11
3.026929976609835
 21
412.7005789167876
 31
0.0
  0
LINE
  5
5EF0
330
5DD0
100
AcDbEntity
  8
0
100
AcDbLine
 10
0.2889009232160333
 20
406.3860665547633
 30
0.0
 11
1.402258076609767
 21
412.7005789167876
 31
0.0
  0
LINE
  5
5EF1
330
5DD0
100
AcDbEntity
  8
0
100
AcDbLine
 10
7.904570065755477
 20
406.3862688232436
 30
0.0
 11
9.401579076610003
 21
414.8762648167873
 31
0.0
  0
LINE
  5
5EF2
330
5DD0
100
AcDbEntity
  8
0
100
AcDbLine
 10
9.542261589134113
 20
406.4600679318579
 30
0.0
 11
10.69941917661003
 21
413.0227682167876
 31
0.0
  0
LINE
  5
5EF3
330
5DD0
100
AcDbEntity
  8
0
100
AcDbLine
 10
7.444960071172545
 20
406.0005686167876
 30
0.0
 11
2.312212471171959
 21
406.0005686167876
 31
0.0
  0
LINE
  5
5EF4
330
5DD0
100
AcDbEntity
  8
0
100
AcDbLine
 10
7.087721371172164
 20
404.4005586167874
 30
0.0
 11
1.955061471171801
 21
404.4005586167874
 31
0.0
  0
LINE
  5
5EF5
330
5DD0
100
AcDbEntity
  8
0
100
AcDbLine
 10
7.087721371172164
 20
404.4005586167874
 30
0.0
 11
8.085161671171817
 21
405.2374574167877
 31
0.0
  0
LINE
  5
5EF6
330
5DD0
100
AcDbEntity
  8
0
100
AcDbLine
 10
7.444960071172545
 20
406.0005686167876
 30
0.0
 11
8.085161671171817
 21
405.2374574167877
 31
0.0
  0
LINE
  5
5EF7
330
5DD0
100
AcDbEntity
  8
0
100
AcDbLine
 10
1.314821671171784
 20
405.1634676167875
 30
0.0
 11
2.312212471171959
 21
406.0005686167876
 31
0.0
  0
LINE
  5
5EF8
330
5DD0
100
AcDbEntity
  8
0
100
AcDbLine
 10
1.314821671171784
 20
405.1634676167875
 30
0.0
 11
1.955061471171801
 21
404.4005586167874
 31
0.0
  0
LINE
  5
5EF9
330
5DD0
100
AcDbEntity
  8
0
100
AcDbLine
 10
0.8552422711720737
 20
404.7777788167874
 30
0.0
 11
1.495420971172506
 21
404.0148699167873
 31
0.0
  0
LINE
  5
5EFA
330
5DD0
100
AcDbEntity
  8
0
100
AcDbLine
 10
0.288900871172018
 20
406.3860666167872
 30
0.0
 11
0.9291290711719284
 21
405.623069916787
 31
0.0
  0
LINE
  5
5EFB
330
5DD0
100
AcDbEntity
  8
0
100
AcDbLine
 10
0.9291290711719284
 20
405.623069916787
 30
0.0
 11
1.92659237117209
 21
406.4602701167875
 31
0.0
  0
LINE
  5
5EFC
330
5DD0
100
AcDbEntity
  8
0
100
AcDbLine
 10
8.470812271172007
 20
404.7778665167877
 30
0.0
 11
9.111082571172346
 21
404.0146677167873
 31
0.0
  0
LINE
  5
5EFD
330
5DD0
100
AcDbEntity
  8
0
100
AcDbLine
 10
7.473402471171766
 20
403.9409677167874
 30
0.0
 11
8.470812271172007
 21
404.7778665167877
 31
0.0
  0
LINE
  5
5EFE
330
5DD0
100
AcDbEntity
  8
0
100
AcDbLine
 10
7.904570071172428
 20
406.3862688167871
 30
0.0
 11
8.544802171172023
 21
405.6231691167875
 31
0.0
  0
LINE
  5
5EFF
330
5DD0
100
AcDbEntity
  8
0
100
AcDbLine
 10
8.544802171172023
 20
405.6231691167875
 30
0.0
 11
9.542261571172501
 21
406.4600679167877
 31
0.0
  0
LINE
  5
5F00
330
5DD0
100
AcDbEntity
  8
0
100
AcDbLine
 10
1.508039576610143
 20
413.3005659167872
 30
0.0
 11
1.557027976610014
 21
413.5783674167877
 31
0.0
  0
LINE
  5
5F01
330
5DD0
100
AcDbEntity
  8
0
100
AcDbLine
 10
8.514478876610382
 20
413.3005659167872
 30
0.0
 11
8.796598576609767
 21
414.9005720167877
 31
0.0
  0
LINE
  5
5F02
330
5DD0
100
AcDbEntity
  8
0
100
AcDbLine
 10
1.508039576610143
 20
413.3005659167872
 30
0.0
 11
8.514478876610382
 21
413.3005659167872
 31
0.0
  0
LINE
  5
5F03
330
5DD0
100
AcDbEntity
  8
0
100
AcDbLine
 10
1.402246576610422
 20
412.7005789167876
 30
0.0
 11
3.026929976609835
 21
412.7005789167876
 31
0.0
  0
ARC
  5
5F04
330
5DD0
100
AcDbEntity
  8
0
100
AcDbCircle
 10
9.123739376609819
 20
413.3005659167872
 30
0.0
 40
1.6
100
AcDbArc
 50
350.0000916000027
 51
80.00013729999631
  0
ARC
  5
5F05
330
5DD0
100
AcDbEntity
  8
0
100
AcDbCircle
 10
3.132719176609725
 20
413.3005659167872
 30
0.0
 40
1.6
100
AcDbArc
 50
90.0
 51
170.0001067999947
  0
LINE
  5
5F06
330
5DD0
100
AcDbEntity
  8
0
100
AcDbLine
 10
3.132719176609725
 20
414.9005720167877
 30
0.0
 11
8.796598576609767
 21
414.9005720167877
 31
0.0
  0
LINE
  5
5F07
330
5DD0
100
AcDbEntity
  8
0
100
AcDbLine
 10
-19.91227862882783
 20
404.4005586167874
 30
0.0
 11
-18.91483832882818
 21
405.2374574167877
 31
0.0
  0
LINE
  5
5F08
330
5DD0
100
AcDbEntity
  8
0
100
AcDbLine
 10
-19.55503992882745
 20
406.0005686167876
 30
0.0
 11
-18.91483832882818
 21
405.2374574167877
 31
0.0
  0
LINE
  5
5F09
330
5DD0
100
AcDbEntity
  8
0
100
AcDbLine
 10
-19.52659752882823
 20
403.9409677167874
 30
0.0
 11
-18.52918772882799
 21
404.7778665167877
 31
0.0
  0
LINE
  5
5F0A
330
5DD0
100
AcDbEntity
  8
0
100
AcDbLine
 10
-23.86728082339027
 20
414.9005720167877
 30
0.0
 11
-18.20340142339023
 21
414.9005720167877
 31
0.0
  0
LINE
  5
5F0B
330
5DD0
100
AcDbEntity
  8
0
100
AcDbLine
 10
-19.09542993424452
 20
406.3862688232436
 30
0.0
 11
-17.59842092338999
 21
414.8762648167873
 31
0.0
  0
LINE
  5
5F0C
330
5DD0
100
AcDbEntity
  8
0
100
AcDbLine
 10
-17.45773841086588
 20
406.4600679318579
 30
0.0
 11
-16.30058082338996
 21
413.0227682167876
 31
0.0
  0
LINE
  5
5F0D
330
5DD0
100
AcDbEntity
  8
0
100
AcDbLine
 10
-13.21109907678396
 20
406.3860665547633
 30
0.0
 11
-12.09774192339023
 21
412.7005789167876
 31
0.0
  0
LINE
  5
5F0E
330
5DD0
100
AcDbEntity
  8
0
100
AcDbLine
 10
-11.57340764735249
 20
406.4602701012388
 30
0.0
 11
-10.47307002339016
 21
412.7005789167876
 31
0.0
  0
LINE
  5
5F0F
330
5DD0
100
AcDbEntity
  8
0
100
AcDbLine
 10
-6.412278628827833
 20
404.4005586167874
 30
0.0
 11
-11.54493852882819
 21
404.4005586167874
 31
0.0
  0
LINE
  5
5F10
330
5DD0
100
AcDbEntity
  8
0
100
AcDbLine
 10
-6.055039928827453
 20
406.0005686167876
 30
0.0
 11
-11.18778752882804
 21
406.0005686167876
 31
0.0
  0
LINE
  5
5F11
330
5DD0
100
AcDbEntity
  8
0
100
AcDbLine
 10
-18.52918772882799
 20
404.7778665167877
 30
0.0
 11
-17.88891742882764
 21
404.0146677167873
 31
0.0
  0
LINE
  5
5F12
330
5DD0
100
AcDbEntity
  8
0
100
AcDbLine
 10
-19.09542992882757
 20
406.3862688167871
 30
0.0
 11
-18.45519782882798
 21
405.6231691167875
 31
0.0
  0
LINE
  5
5F13
330
5DD0
100
AcDbEntity
  8
0
100
AcDbLine
 10
-18.45519782882798
 20
405.6231691167875
 30
0.0
 11
-17.4577384288275
 21
406.4600679167877
 31
0.0
  0
LINE
  5
5F14
330
5DD0
100
AcDbEntity
  8
0
100
AcDbLine
 10
-12.57087092882807
 20
405.623069916787
 30
0.0
 11
-11.57340762882791
 21
406.4602701167875
 31
0.0
  0
LINE
  5
5F15
330
5DD0
100
AcDbEntity
  8
0
100
AcDbLine
 10
-13.21109912882798
 20
406.3860666167872
 30
0.0
 11
-12.57087092882807
 21
405.623069916787
 31
0.0
  0
LINE
  5
5F16
330
5DD0
100
AcDbEntity
  8
0
100
AcDbLine
 10
-13.64240792882788
 20
403.9404680167868
 30
0.0
 11
-12.64475772882792
 21
404.7777788167874
 31
0.0
  0
LINE
  5
5F17
330
5DD0
100
AcDbEntity
  8
0
100
AcDbLine
 10
-12.64475772882792
 20
404.7777788167874
 30
0.0
 11
-12.00457902882749
 21
404.0148699167873
 31
0.0
  0
LINE
  5
5F18
330
5DD0
100
AcDbEntity
  8
0
100
AcDbLine
 10
-12.18517832882821
 20
405.1634676167875
 30
0.0
 11
-11.54493852882819
 21
404.4005586167874
 31
0.0
  0
LINE
  5
5F19
330
5DD0
100
AcDbEntity
  8
0
100
AcDbLine
 10
-12.18517832882821
 20
405.1634676167875
 30
0.0
 11
-11.18778752882804
 21
406.0005686167876
 31
0.0
  0
LINE
  5
5F1A
330
5DD0
100
AcDbEntity
  8
0
100
AcDbLine
 10
-18.48552112338962
 20
413.3005659167872
 30
0.0
 11
-18.20340142339023
 21
414.9005720167877
 31
0.0
  0
ARC
  5
5F1B
330
5DD0
100
AcDbEntity
  8
0
100
AcDbCircle
 10
-17.87626062339018
 20
413.3005659167872
 30
0.0
 40
1.6
100
AcDbArc
 50
350.0000916000027
 51
80.00013729999631
  0
ARC
  5
5F1C
330
5DD0
100
AcDbEntity
  8
0
100
AcDbCircle
 10
-10.36728082339027
 20
413.3005659167872
 30
0.0
 40
1.6
100
AcDbArc
 50
90.0
 51
170.0001067999947
  0
LINE
  5
5F1D
330
5DD0
100
AcDbEntity
  8
0
100
AcDbLine
 10
-12.09775342338957
 20
412.7005789167876
 30
0.0
 11
-10.47307002339016
 21
412.7005789167876
 31
0.0
  0
LINE
  5
5F1E
330
5DD0
100
AcDbEntity
  8
0
100
AcDbLine
 10
-11.99196042338985
 20
413.3005659167872
 30
0.0
 11
-11.94297202338998
 21
413.5783674167877
 31
0.0
  0
LINE
  5
5F1F
330
5DD0
100
AcDbEntity
  8
0
100
AcDbLine
 10
-6.026597528828232
 20
403.9409677167874
 30
0.0
 11
-5.029187728827992
 21
404.7778665167877
 31
0.0
  0
LINE
  5
5F20
330
5DD0
100
AcDbEntity
  8
0
100
AcDbLine
 10
-6.055039928827453
 20
406.0005686167876
 30
0.0
 11
-5.414838328828182
 21
405.2374574167877
 31
0.0
  0
LINE
  5
5F21
330
5DD0
100
AcDbEntity
  8
0
100
AcDbLine
 10
-6.412278628827833
 20
404.4005586167874
 30
0.0
 11
-5.414838328828182
 21
405.2374574167877
 31
0.0
  0
LINE
  5
5F22
330
5DD0
100
AcDbEntity
  8
0
100
AcDbLine
 10
-10.36728082339027
 20
414.9005720167877
 30
0.0
 11
-4.703401423390231
 21
414.9005720167877
 31
0.0
  0
LINE
  5
5F23
330
5DD0
100
AcDbEntity
  8
0
100
AcDbLine
 10
-11.99196042338985
 20
413.3005659167872
 30
0.0
 11
-4.985521123389617
 21
413.3005659167872
 31
0.0
  0
LINE
  5
5F24
330
5DD0
100
AcDbEntity
  8
0
100
AcDbLine
 10
-40.21109907678396
 20
406.3860665547633
 30
0.0
 11
-39.09774192339023
 21
412.7005789167876
 31
0.0
  0
LINE
  5
5F25
330
5DD0
100
AcDbEntity
  8
0
100
AcDbLine
 10
-38.5734076473525
 20
406.4602701012388
 30
0.0
 11
-37.47307002339017
 21
412.7005789167876
 31
0.0
  0
LINE
  5
5F26
330
5DD0
100
AcDbEntity
  8
0
100
AcDbLine
 10
-30.95773841086589
 20
406.4600679318579
 30
0.0
 11
-29.80058082338997
 21
413.0227682167876
 31
0.0
  0
LINE
  5
5F27
330
5DD0
100
AcDbEntity
  8
0
100
AcDbLine
 10
-32.59542993424452
 20
406.3862688232436
 30
0.0
 11
-31.09842092338999
 21
414.8762648167873
 31
0.0
  0
LINE
  5
5F28
330
5DD0
100
AcDbEntity
  8
0
100
AcDbLine
 10
-26.71109907678397
 20
406.3860665547633
 30
0.0
 11
-25.59774192339023
 21
412.7005789167876
 31
0.0
  0
LINE
  5
5F29
330
5DD0
100
AcDbEntity
  8
0
100
AcDbLine
 10
-33.41227862882784
 20
404.4005586167874
 30
0.0
 11
-38.5449385288282
 21
404.4005586167874
 31
0.0
  0
LINE
  5
5F2A
330
5DD0
100
AcDbEntity
  8
0
100
AcDbLine
 10
-33.05503992882746
 20
406.0005686167876
 30
0.0
 11
-38.18778752882804
 21
406.0005686167876
 31
0.0
  0
LINE
  5
5F2B
330
5DD0
100
AcDbEntity
  8
0
100
AcDbLine
 10
-39.57087092882807
 20
405.623069916787
 30
0.0
 11
-38.57340762882791
 21
406.4602701167875
 31
0.0
  0
LINE
  5
5F2C
330
5DD0
100
AcDbEntity
  8
0
100
AcDbLine
 10
-40.21109912882797
 20
406.3860666167872
 30
0.0
 11
-39.57087092882807
 21
405.623069916787
 31
0.0
  0
LINE
  5
5F2D
330
5DD0
100
AcDbEntity
  8
0
100
AcDbLine
 10
-40.64240792882786
 20
403.9404680167868
 30
0.0
 11
-39.64475772882792
 21
404.7777788167874
 31
0.0
  0
LINE
  5
5F2E
330
5DD0
100
AcDbEntity
  8
0
100
AcDbLine
 10
-39.64475772882792
 20
404.7777788167874
 30
0.0
 11
-39.00457902882749
 21
404.0148699167873
 31
0.0
  0
LINE
  5
5F2F
330
5DD0
100
AcDbEntity
  8
0
100
AcDbLine
 10
-39.18517832882822
 20
405.1634676167875
 30
0.0
 11
-38.5449385288282
 21
404.4005586167874
 31
0.0
  0
LINE
  5
5F30
330
5DD0
100
AcDbEntity
  8
0
100
AcDbLine
 10
-39.18517832882822
 20
405.1634676167875
 30
0.0
 11
-38.18778752882804
 21
406.0005686167876
 31
0.0
  0
LINE
  5
5F31
330
5DD0
100
AcDbEntity
  8
0
100
AcDbLine
 10
-31.95519782882798
 20
405.6231691167875
 30
0.0
 11
-30.9577384288275
 21
406.4600679167877
 31
0.0
  0
LINE
  5
5F32
330
5DD0
100
AcDbEntity
  8
0
100
AcDbLine
 10
-32.59542992882757
 20
406.3862688167871
 30
0.0
 11
-31.95519782882798
 21
405.6231691167875
 31
0.0
  0
LINE
  5
5F33
330
5DD0
100
AcDbEntity
  8
0
100
AcDbLine
 10
-33.02659752882823
 20
403.9409677167874
 30
0.0
 11
-32.02918772882799
 21
404.7778665167877
 31
0.0
  0
LINE
  5
5F34
330
5DD0
100
AcDbEntity
  8
0
100
AcDbLine
 10
-32.02918772882799
 20
404.7778665167877
 30
0.0
 11
-31.38891742882766
 21
404.0146677167873
 31
0.0
  0
LINE
  5
5F35
330
5DD0
100
AcDbEntity
  8
0
100
AcDbLine
 10
-33.05503992882746
 20
406.0005686167876
 30
0.0
 11
-32.41483832882817
 21
405.2374574167877
 31
0.0
  0
LINE
  5
5F36
330
5DD0
100
AcDbEntity
  8
0
100
AcDbLine
 10
-33.41227862882784
 20
404.4005586167874
 30
0.0
 11
-32.41483832882817
 21
405.2374574167877
 31
0.0
  0
LINE
  5
5F37
330
5DD0
100
AcDbEntity
  8
0
100
AcDbLine
 10
-25.68517832882822
 20
405.1634676167875
 30
0.0
 11
-24.68778752882804
 21
406.0005686167876
 31
0.0
  0
LINE
  5
5F38
330
5DD0
100
AcDbEntity
  8
0
100
AcDbLine
 10
-25.68517832882822
 20
405.1634676167875
 30
0.0
 11
-25.0449385288282
 21
404.4005586167874
 31
0.0
  0
LINE
  5
5F39
330
5DD0
100
AcDbEntity
  8
0
100
AcDbLine
 10
-26.14475772882793
 20
404.7777788167874
 30
0.0
 11
-25.5045790288275
 21
404.0148699167873
 31
0.0
  0
LINE
  5
5F3A
330
5DD0
100
AcDbEntity
  8
0
100
AcDbLine
 10
-27.14240792882788
 20
403.9404680167868
 30
0.0
 11
-26.14475772882793
 21
404.7777788167874
 31
0.0
  0
LINE
  5
5F3B
330
5DD0
100
AcDbEntity
  8
0
100
AcDbLine
 10
-26.71109912882798
 20
406.3860666167872
 30
0.0
 11
-26.07087092882807
 21
405.623069916787
 31
0.0
  0
LINE
  5
5F3C
330
5DD0
100
AcDbEntity
  8
0
100
AcDbLine
 10
-26.07087092882807
 20
405.623069916787
 30
0.0
 11
-25.07340762882791
 21
406.4602701167875
 31
0.0
  0
LINE
  5
5F3D
330
5DD0
100
AcDbEntity
  8
0
100
AcDbLine
 10
-37.36728082339027
 20
414.9005720167877
 30
0.0
 11
-31.70340142339024
 21
414.9005720167877
 31
0.0
  0
LINE
  5
5F3E
330
5DD0
100
AcDbEntity
  8
0
100
AcDbLine
 10
-38.99196042338985
 20
413.3005659167872
 30
0.0
 11
-31.98552112338962
 21
413.3005659167872
 31
0.0
  0
ARC
  5
5F3F
330
5DD0
100
AcDbEntity
  8
0
100
AcDbCircle
 10
-37.36728082339027
 20
413.3005659167872
 30
0.0
 40
1.6
100
AcDbArc
 50
90.0
 51
170.0001067999947
  0
LINE
  5
5F40
330
5DD0
100
AcDbEntity
  8
0
100
AcDbLine
 10
-39.09775342338958
 20
412.7005789167876
 30
0.0
 11
-37.47307002339017
 21
412.7005789167876
 31
0.0
  0
LINE
  5
5F41
330
5DD0
100
AcDbEntity
  8
0
100
AcDbLine
 10
-38.99196042338985
 20
413.3005659167872
 30
0.0
 11
-38.94297202338999
 21
413.5783674167877
 31
0.0
  0
ARC
  5
5F42
330
5DD0
100
AcDbEntity
  8
0
100
AcDbCircle
 10
-31.37626062339018
 20
413.3005659167872
 30
0.0
 40
1.6
100
AcDbArc
 50
350.0000916000027
 51
80.00013729999631
  0
LINE
  5
5F43
330
5DD0
100
AcDbEntity
  8
0
100
AcDbLine
 10
-31.98552112338962
 20
413.3005659167872
 30
0.0
 11
-31.70340142339024
 21
414.9005720167877
 31
0.0
  0
LINE
  5
5F44
330
5DD0
100
AcDbEntity
  8
0
100
AcDbLine
 10
-25.49196042338986
 20
413.3005659167872
 30
0.0
 11
-25.44297202338999
 21
413.5783674167877
 31
0.0
  0
CIRCLE
  5
5F45
330
5DD0
100
AcDbEntity
  8
0
100
AcDbCircle
 10
-46.80000000000085
 20
414.2005693167863
 30
0.0
 40
4.0
  0
CIRCLE
  5
5F46
330
5DD0
100
AcDbEntity
  8
0
100
AcDbCircle
 10
-46.80000000000085
 20
414.2005693167863
 30
0.0
 40
3.099999899999998
  0
ARC
  5
5F47
330
5DD0
100
AcDbEntity
  8
0
 48
0.25
100
AcDbCircle
 10
-58.199999999998
 20
421.600569316786
 30
0.0
 40
8.0
100
AcDbArc
 50
90.0
 51
180.0
  0
ARC
  5
5F48
330
5DD0
100
AcDbEntity
  8
0
 48
0.1
100
AcDbCircle
 10
-58.49999999999795
 20
421.9005693167861
 30
0.0
 40
10.0
100
AcDbArc
 50
90.0
 51
180.0
  0
ARC
  5
5F49
330
5DD0
100
AcDbEntity
  8
0
 48
0.1
100
AcDbCircle
 10
-58.49999999999795
 20
421.9005693167861
 30
0.0
 40
8.0
100
AcDbArc
 50
90.0
 51
180.0
  0
LINE
  5
5F4A
330
5DD0
100
AcDbEntity
  8
0
100
AcDbLine
 10
-25.49196042338986
 20
413.3005659167872
 30
0.0
 11
-18.48552112338962
 21
413.3005659167872
 31
0.0
  0
LINE
  5
5F4B
330
5DD0
100
AcDbEntity
  8
0
100
AcDbLine
 10
-25.0734076473525
 20
406.4602701012388
 30
0.0
 11
-23.97307002339017
 21
412.7005789167876
 31
0.0
  0
LINE
  5
5F4C
330
5DD0
100
AcDbEntity
  8
0
100
AcDbLine
 10
-19.55503992882745
 20
406.0005686167876
 30
0.0
 11
-24.68778752882804
 21
406.0005686167876
 31
0.0
  0
LINE
  5
5F4D
330
5DD0
100
AcDbEntity
  8
0
100
AcDbLine
 10
-19.91227862882783
 20
404.4005586167874
 30
0.0
 11
-25.0449385288282
 21
404.4005586167874
 31
0.0
  0
LINE
  5
5F4E
330
5DD0
100
AcDbEntity
  8
0
100
AcDbLine
 10
-25.59775342338958
 20
412.7005789167876
 30
0.0
 11
-23.97307002339017
 21
412.7005789167876
 31
0.0
  0
ARC
  5
5F4F
330
5DD0
100
AcDbEntity
  8
0
100
AcDbCircle
 10
-23.86728082339027
 20
413.3005659167872
 30
0.0
 40
1.6
100
AcDbArc
 50
90.0
 51
170.0001067999947
  0
ARC
  5
5F50
330
5DD0
100
AcDbEntity
  8
0
100
AcDbCircle
 10
0.6471501766102393
 20
396.9005682167879
 30
0.0
 40
2.0
100
AcDbArc
 50
170.0001067999947
 51
270.0
  0
LINE
  5
5F51
330
5DD0
100
AcDbEntity
  8
0
100
AcDbLine
 10
-1.313142623390149
 20
397.300569716788
 30
0.0
 11
0.3115597766102383
 21
397.300569716788
 31
0.0
  0
LINE
  5
5F52
330
5DD0
100
AcDbEntity
  8
0
100
AcDbLine
 10
-1.207349623390426
 20
397.9005682167878
 30
0.0
 11
0.4173489766101284
 21
397.9005682167878
 31
0.0
  0
LINE
  5
5F53
330
5DD0
100
AcDbEntity
  8
0
100
AcDbLine
 10
-0.1000413233903146
 20
389.9005682167879
 30
0.0
 11
5.499958676610049
 21
389.9005682167879
 31
0.0
  0
LINE
  5
5F54
330
5DD0
100
AcDbEntity
  8
0
100
AcDbLine
 10
-0.1000413233903146
 20
389.9005682167879
 30
0.0
 11
2.699958676609866
 21
387.1005690167874
 31
0.0
  0
CIRCLE
  5
5F55
330
5DD0
100
AcDbEntity
  8
0
100
AcDbCircle
 10
-3.599982523390053
 20
396.7005789167877
 30
0.0
 40
0.7
  0
LINE
  5
5F56
330
5DD0
100
AcDbEntity
  8
0
100
AcDbLine
 10
-1.322450523389989
 20
397.2478583167874
 30
0.0
 11
-1.313142623390149
 21
397.300569716788
 31
0.0
  0
LINE
  5
5F57
330
5DD0
100
AcDbEntity
  8
0
100
AcDbLine
 10
0.6471501766102393
 20
394.9005682167879
 30
0.0
 11
6.161466776610041
 21
394.9005682167879
 31
0.0
  0
LINE
  5
5F58
330
5DD0
100
AcDbEntity
  8
0
100
AcDbLine
 10
0.253248376610145
 20
396.9699690167879
 30
0.0
 11
0.3115597766102383
 21
397.300569716788
 31
0.0
  0
LINE
  5
5F59
330
5DD0
100
AcDbEntity
  8
0
100
AcDbLine
 10
0.6471501766102393
 20
396.5005591167872
 30
0.0
 11
5.769849876609669
 21
396.5005591167872
 31
0.0
  0
ARC
  5
5F5A
330
5DD0
100
AcDbEntity
  8
0
100
AcDbCircle
 10
6.161466776610041
 20
396.5005591167872
 30
0.0
 40
1.6
100
AcDbArc
 50
270.0
 51
299.1926880000011
  0
ARC
  5
5F5B
330
5DD0
100
AcDbEntity
  8
0
100
AcDbCircle
 10
6.161466776610041
 20
396.5005591167872
 30
0.0
 40
1.6
100
AcDbArc
 50
320.8066100999943
 51
350.0000916000027
  0
ARC
  5
5F5C
330
5DD0
100
AcDbEntity
  8
0
100
AcDbCircle
 10
0.6471501766102393
 20
396.9005682167879
 30
0.0
 40
0.4
100
AcDbArc
 50
170.0001067999947
 51
270.0
  0
LINE
  5
5F5D
330
5DD0
100
AcDbEntity
  8
0
100
AcDbLine
 10
6.229486576610042
 20
396.8862784167875
 30
0.0
 11
7.401510376609849
 21
395.4894697167872
 31
0.0
  0
LINE
  5
5F5E
330
5DD0
100
AcDbEntity
  8
0
100
AcDbLine
 10
5.769849876609669
 20
396.5005591167872
 30
0.0
 11
6.941869876609644
 21
395.1037695167877
 31
0.0
  0
CIRCLE
  5
5F5F
330
5DD0
100
AcDbEntity
  8
0
100
AcDbCircle
 10
9.900017476609944
 20
396.7005789167877
 30
0.0
 40
0.7
  0
LINE
  5
5F60
330
5DD0
100
AcDbEntity
  8
0
100
AcDbLine
 10
2.699958676609866
 20
387.1005690167874
 30
0.0
 11
5.499958676610049
 21
389.9005682167879
 31
0.0
  0
LINE
  5
5F61
330
5DD0
100
AcDbEntity
  8
0
100
AcDbLine
 10
12.17754947661001
 20
397.2478583167874
 30
0.0
 11
12.18685737660985
 21
397.300569716788
 31
0.0
  0
ARC
  5
5F62
330
5DD0
100
AcDbEntity
  8
0
100
AcDbCircle
 10
8.500000000001817
 20
324.6005693167888
 30
0.0
 40
0.5
100
AcDbArc
 50
270.0
 51
0.0
  0
LINE
  5
5F63
330
5DD0
100
AcDbEntity
  8
0
100
AcDbLine
 10
9.000000000001817
 20
324.6005693167888
 30
0.0
 11
9.000000000001817
 21
335.6005693167888
 31
0.0
  0
ARC
  5
5F64
330
5DD0
100
AcDbEntity
  8
0
100
AcDbCircle
 10
8.500000000001817
 20
335.6005693167888
 30
0.0
 40
0.5
100
AcDbArc
 50
0.0
 51
90.0
  0
ARC
  5
5F65
330
5DD0
100
AcDbEntity
  8
0
100
AcDbCircle
 10
-20.83853322338996
 20
396.5005591167872
 30
0.0
 40
1.6
100
AcDbArc
 50
320.8066100999943
 51
350.0000916000027
  0
ARC
  5
5F66
330
5DD0
100
AcDbEntity
  8
0
100
AcDbCircle
 10
-20.83853322338996
 20
396.5005591167872
 30
0.0
 40
1.6
100
AcDbArc
 50
270.0
 51
299.1926880000011
  0
LINE
  5
5F67
330
5DD0
100
AcDbEntity
  8
0
100
AcDbLine
 10
-20.77051342338996
 20
396.8862784167875
 30
0.0
 11
-19.59848962339014
 21
395.4894697167872
 31
0.0
  0
LINE
  5
5F68
330
5DD0
100
AcDbEntity
  8
0
100
AcDbLine
 10
-21.23015012339033
 20
396.5005591167872
 30
0.0
 11
-20.05813012339036
 21
395.1037695167877
 31
0.0
  0
LINE
  5
5F69
330
5DD0
100
AcDbEntity
  8
0
100
AcDbLine
 10
-10.80004132339013
 20
387.1005690167874
 30
0.0
 11
-8.000041323389948
 21
389.9005682167879
 31
0.0
  0
LINE
  5
5F6A
330
5DD0
100
AcDbEntity
  8
0
100
AcDbLine
 10
-13.60004132339031
 20
389.9005682167879
 30
0.0
 11
-8.000041323389948
 21
389.9005682167879
 31
0.0
  0
LINE
  5
5F6B
330
5DD0
100
AcDbEntity
  8
0
100
AcDbLine
 10
-12.85284982338976
 20
396.5005591167872
 30
0.0
 11
-7.73015012339033
 21
396.5005591167872
 31
0.0
  0
LINE
  5
5F6C
330
5DD0
100
AcDbEntity
  8
0
100
AcDbLine
 10
-12.85284982338976
 20
394.9005682167879
 30
0.0
 11
-7.338533223389957
 21
394.9005682167879
 31
0.0
  0
CIRCLE
  5
5F6D
330
5DD0
100
AcDbEntity
  8
0
100
AcDbCircle
 10
-17.09998252339005
 20
396.7005789167877
 30
0.0
 40
0.7
  0
LINE
  5
5F6E
330
5DD0
100
AcDbEntity
  8
0
100
AcDbLine
 10
-13.60004132339031
 20
389.9005682167879
 30
0.0
 11
-10.80004132339013
 21
387.1005690167874
 31
0.0
  0
ARC
  5
5F6F
330
5DD0
100
AcDbEntity
  8
0
100
AcDbCircle
 10
-12.85284982338976
 20
396.9005682167879
 30
0.0
 40
0.4
100
AcDbArc
 50
170.0001067999947
 51
270.0
  0
LINE
  5
5F70
330
5DD0
100
AcDbEntity
  8
0
100
AcDbLine
 10
-14.70734962339043
 20
397.9005682167878
 30
0.0
 11
-13.08265102338987
 21
397.9005682167878
 31
0.0
  0
LINE
  5
5F71
330
5DD0
100
AcDbEntity
  8
0
100
AcDbLine
 10
-14.81314262339015
 20
397.300569716788
 30
0.0
 11
-13.18844022338976
 21
397.300569716788
 31
0.0
  0
ARC
  5
5F72
330
5DD0
100
AcDbEntity
  8
0
100
AcDbCircle
 10
-12.85284982338976
 20
396.9005682167879
 30
0.0
 40
2.0
100
AcDbArc
 50
170.0001067999947
 51
270.0
  0
LINE
  5
5F73
330
5DD0
100
AcDbEntity
  8
0
100
AcDbLine
 10
-13.24675162338985
 20
396.9699690167879
 30
0.0
 11
-13.18844022338976
 21
397.300569716788
 31
0.0
  0
LINE
  5
5F74
330
5DD0
100
AcDbEntity
  8
0
100
AcDbLine
 10
-14.82245052338999
 20
397.2478583167874
 30
0.0
 11
-14.81314262339015
 21
397.300569716788
 31
0.0
  0
LINE
  5
5F75
330
5DD0
100
AcDbEntity
  8
0
100
AcDbLine
 10
-7.73015012339033
 20
396.5005591167872
 30
0.0
 11
-6.558130123390355
 21
395.1037695167877
 31
0.0
  0
LINE
  5
5F76
330
5DD0
100
AcDbEntity
  8
0
100
AcDbLine
 10
-7.270513423389957
 20
396.8862784167875
 30
0.0
 11
-6.098489623390149
 21
395.4894697167872
 31
0.0
  0
ARC
  5
5F77
330
5DD0
100
AcDbEntity
  8
0
100
AcDbCircle
 10
-7.338533223389957
 20
396.5005591167872
 30
0.0
 40
1.6
100
AcDbArc
 50
270.0
 51
299.1926880000011
  0
LINE
  5
5F78
330
5DD0
100
AcDbEntity
  8
0
100
AcDbLine
 10
-6.999999999998181
 20
335.6005693167888
 30
0.0
 11
-6.999999999998181
 21
324.6005693167888
 31
0.0
  0
ARC
  5
5F79
330
5DD0
100
AcDbEntity
  8
0
100
AcDbCircle
 10
-6.499999999998181
 20
324.6005693167888
 30
0.0
 40
0.5
100
AcDbArc
 50
180.0
 51
270.0
  0
ARC
  5
5F7A
330
5DD0
100
AcDbEntity
  8
0
100
AcDbCircle
 10
-6.499999999998181
 20
335.6005693167888
 30
0.0
 40
0.5
100
AcDbArc
 50
90.0
 51
180.0
  0
ARC
  5
5F7B
330
5DD0
100
AcDbEntity
  8
0
100
AcDbCircle
 10
-15.49999999999818
 20
335.6005693167888
 30
0.0
 40
0.5
100
AcDbArc
 50
0.0
 51
90.0
  0
LINE
  5
5F7C
330
5DD0
100
AcDbEntity
  8
0
100
AcDbLine
 10
-14.99999999999818
 20
324.6005693167888
 30
0.0
 11
-14.99999999999818
 21
335.6005693167888
 31
0.0
  0
ARC
  5
5F7D
330
5DD0
100
AcDbEntity
  8
0
100
AcDbCircle
 10
-15.49999999999818
 20
324.6005693167888
 30
0.0
 40
0.5
100
AcDbArc
 50
270.0
 51
0.0
  0
LINE
  5
5F7E
330
5DD0
100
AcDbEntity
  8
0
100
AcDbLine
 10
-6.499999999998181
 20
324.1005693167888
 30
0.0
 11
8.500000000001817
 21
324.1005693167888
 31
0.0
  0
LINE
  5
5F7F
330
5DD0
100
AcDbEntity
  8
0
100
AcDbLine
 10
8.500000000001817
 20
336.1005693167888
 30
0.0
 11
-6.499999999998181
 21
336.1005693167888
 31
0.0
  0
ARC
  5
5F80
330
5DD0
100
AcDbEntity
  8
0
100
AcDbCircle
 10
-7.338533223389957
 20
396.5005591167872
 30
0.0
 40
1.6
100
AcDbArc
 50
320.8066100999943
 51
350.0000916000027
  0
LINE
  5
5F81
330
5DD0
100
AcDbEntity
  8
0
100
AcDbLine
 10
-34.73015012339033
 20
396.5005591167872
 30
0.0
 11
-33.55813012339036
 21
395.1037695167877
 31
0.0
  0
LINE
  5
5F82
330
5DD0
100
AcDbEntity
  8
0
100
AcDbLine
 10
-34.27051342338996
 20
396.8862784167875
 30
0.0
 11
-33.09848962339015
 21
395.4894697167872
 31
0.0
  0
ARC
  5
5F83
330
5DD0
100
AcDbEntity
  8
0
100
AcDbCircle
 10
-34.33853322338996
 20
396.5005591167872
 30
0.0
 40
1.6
100
AcDbArc
 50
270.0
 51
299.1926880000011
  0
LINE
  5
5F84
330
5DD0
100
AcDbEntity
  8
0
100
AcDbLine
 10
-39.85284982338976
 20
396.5005591167872
 30
0.0
 11
-34.73015012339033
 21
396.5005591167872
 31
0.0
  0
LINE
  5
5F85
330
5DD0
100
AcDbEntity
  8
0
100
AcDbLine
 10
-39.85284982338976
 20
394.9005682167879
 30
0.0
 11
-34.33853322338996
 21
394.9005682167879
 31
0.0
  0
LINE
  5
5F86
330
5DD0
100
AcDbEntity
  8
0
100
AcDbLine
 10
-37.80004132339013
 20
387.1005690167874
 30
0.0
 11
-35.00004132338995
 21
389.9005682167879
 31
0.0
  0
LINE
  5
5F87
330
5DD0
100
AcDbEntity
  8
0
100
AcDbLine
 10
-40.60004132339031
 20
389.9005682167879
 30
0.0
 11
-37.80004132339013
 21
387.1005690167874
 31
0.0
  0
LINE
  5
5F88
330
5DD0
100
AcDbEntity
  8
0
100
AcDbLine
 10
-40.60004132339031
 20
389.9005682167879
 30
0.0
 11
-35.00004132338995
 21
389.9005682167879
 31
0.0
  0
ARC
  5
5F89
330
5DD0
100
AcDbEntity
  8
0
100
AcDbCircle
 10
-39.85284982338976
 20
396.9005682167879
 30
0.0
 40
0.4
100
AcDbArc
 50
170.0001067999947
 51
270.0
  0
LINE
  5
5F8A
330
5DD0
100
AcDbEntity
  8
0
100
AcDbLine
 10
-41.70734962339042
 20
397.9005682167878
 30
0.0
 11
-40.08265102338987
 21
397.9005682167878
 31
0.0
  0
LINE
  5
5F8B
330
5DD0
100
AcDbEntity
  8
0
100
AcDbLine
 10
-41.81314262339014
 20
397.300569716788
 30
0.0
 11
-40.18844022338976
 21
397.300569716788
 31
0.0
  0
ARC
  5
5F8C
330
5DD0
100
AcDbEntity
  8
0
100
AcDbCircle
 10
-39.85284982338976
 20
396.9005682167879
 30
0.0
 40
2.0
100
AcDbArc
 50
170.0001067999947
 51
270.0
  0
LINE
  5
5F8D
330
5DD0
100
AcDbEntity
  8
0
100
AcDbLine
 10
-40.24675162338986
 20
396.9699690167879
 30
0.0
 11
-40.18844022338976
 21
397.300569716788
 31
0.0
  0
LINE
  5
5F8E
330
5DD0
100
AcDbEntity
  8
0
100
AcDbLine
 10
-41.82245052338998
 20
397.2478583167874
 30
0.0
 11
-41.81314262339014
 21
397.300569716788
 31
0.0
  0
CIRCLE
  5
5F8F
330
5DD0
100
AcDbEntity
  8
0
100
AcDbCircle
 10
-30.59998252339005
 20
396.7005789167877
 30
0.0
 40
0.7
  0
ARC
  5
5F90
330
5DD0
100
AcDbEntity
  8
0
100
AcDbCircle
 10
-34.33853322338996
 20
396.5005591167872
 30
0.0
 40
1.6
100
AcDbArc
 50
320.8066100999943
 51
350.0000916000027
  0
LINE
  5
5F91
330
5DD0
100
AcDbEntity
  8
0
100
AcDbLine
 10
-28.32245052338999
 20
397.2478583167874
 30
0.0
 11
-28.31314262339015
 21
397.300569716788
 31
0.0
  0
LINE
  5
5F92
330
5DD0
100
AcDbEntity
  8
0
100
AcDbLine
 10
-26.74675162338985
 20
396.9699690167879
 30
0.0
 11
-26.68844022338977
 21
397.300569716788
 31
0.0
  0
ARC
  5
5F93
330
5DD0
100
AcDbEntity
  8
0
100
AcDbCircle
 10
-26.35284982338977
 20
396.9005682167879
 30
0.0
 40
2.0
100
AcDbArc
 50
170.0001067999947
 51
270.0
  0
LINE
  5
5F94
330
5DD0
100
AcDbEntity
  8
0
100
AcDbLine
 10
-28.31314262339015
 20
397.300569716788
 30
0.0
 11
-26.68844022338977
 21
397.300569716788
 31
0.0
  0
LINE
  5
5F95
330
5DD0
100
AcDbEntity
  8
0
100
AcDbLine
 10
-28.20734962339043
 20
397.9005682167878
 30
0.0
 11
-26.58265102338987
 21
397.9005682167878
 31
0.0
  0
ARC
  5
5F96
330
5DD0
100
AcDbEntity
  8
0
100
AcDbCircle
 10
-26.35284982338977
 20
396.9005682167879
 30
0.0
 40
0.4
100
AcDbArc
 50
170.0001067999947
 51
270.0
  0
LINE
  5
5F97
330
5DD0
100
AcDbEntity
  8
0
100
AcDbLine
 10
-27.10004132339032
 20
389.9005682167879
 30
0.0
 11
-24.30004132339013
 21
387.1005690167874
 31
0.0
  0
ARC
  5
5F98
330
5DD0
100
AcDbEntity
  8
0
100
AcDbCircle
 10
-30.49999999999818
 20
335.6005693167888
 30
0.0
 40
0.5
100
AcDbArc
 50
90.0
 51
180.0
  0
LINE
  5
5F99
330
5DD0
100
AcDbEntity
  8
0
100
AcDbLine
 10
-30.99999999999818
 20
335.6005693167888
 30
0.0
 11
-30.99999999999818
 21
324.6005693167888
 31
0.0
  0
ARC
  5
5F9A
330
5DD0
100
AcDbEntity
  8
0
100
AcDbCircle
 10
-30.49999999999818
 20
324.6005693167888
 30
0.0
 40
0.5
100
AcDbArc
 50
180.0
 51
270.0
  0
ARC
  5
5F9B
330
5DD0
100
AcDbEntity
  8
0
100
AcDbCircle
 10
-39.49999999999818
 20
335.6005693167888
 30
0.0
 40
0.5
100
AcDbArc
 50
0.0
 51
90.0
  0
LINE
  5
5F9C
330
5DD0
100
AcDbEntity
  8
0
100
AcDbLine
 10
-38.99999999999818
 20
324.6005693167888
 30
0.0
 11
-38.99999999999818
 21
335.6005693167888
 31
0.0
  0
ARC
  5
5F9D
330
5DD0
100
AcDbEntity
  8
0
100
AcDbCircle
 10
-39.49999999999818
 20
324.6005693167888
 30
0.0
 40
0.5
100
AcDbArc
 50
270.0
 51
0.0
  0
ARC
  5
5F9E
330
5DD0
100
AcDbEntity
  8
0
100
AcDbCircle
 10
-39.99999999997999
 20
312.6005693167889
 30
0.0
 40
1.0
100
AcDbArc
 50
0.0
 51
90.0
  0
ARC
  5
5F9F
330
5DD0
100
AcDbEntity
  8
0
100
AcDbCircle
 10
-40.99999999997999
 20
313.6005693167888
 30
0.0
 40
1.0
100
AcDbArc
 50
0.0
 51
90.0
  0
ARC
  5
5FA0
330
5DD0
100
AcDbEntity
  8
0
 48
0.25
100
AcDbCircle
 10
-58.19999999999755
 20
372.9005693167863
 30
0.0
 40
8.0
100
AcDbArc
 50
180.0
 51
270.0
  0
ARC
  5
5FA1
330
5DD0
100
AcDbEntity
  8
0
 48
0.25
100
AcDbCircle
 10
-58.49999999999795
 20
372.600569316787
 30
0.0
 40
8.0
100
AcDbArc
 50
180.0
 51
270.0
  0
ARC
  5
5FA2
330
5DD0
100
AcDbEntity
  8
0
100
AcDbCircle
 10
-64.49999999999795
 20
345.6005693167869
 30
0.0
 40
2.0
100
AcDbArc
 50
90.0
 51
180.0
  0
ARC
  5
5FA3
330
5DD0
100
AcDbEntity
  8
0
100
AcDbCircle
 10
-64.49999999999795
 20
345.6005693167869
 30
0.0
 40
2.0
100
AcDbArc
 50
90.0
 51
180.0
  0
ARC
  5
5FA4
330
5DD0
100
AcDbEntity
  8
0
100
AcDbCircle
 10
-64.49999999999795
 20
350.600569316787
 30
0.0
 40
2.0
100
AcDbArc
 50
180.0
 51
270.0
  0
ARC
  5
5FA5
330
5DD0
100
AcDbEntity
  8
0
100
AcDbCircle
 10
-64.49999999999795
 20
361.600569316787
 30
0.0
 40
2.0
100
AcDbArc
 50
90.0
 51
180.0
  0
LINE
  5
5FA6
330
5DD0
100
AcDbEntity
  8
0
 48
0.25
100
AcDbLine
 10
-66.49999999999796
 20
361.600569316787
 30
0.0
 11
-66.49999999999796
 21
350.600569316787
 31
0.0
  0
LINE
  5
5FA7
330
5DD0
100
AcDbEntity
  8
0
 48
0.25
100
AcDbLine
 10
-66.49999999999749
 20
361.600569316787
 30
0.0000000000000026
 11
-66.49999999999749
 21
350.600569316787
 31
-0.000000000000003
  0
ARC
  5
5FA8
330
5DD0
100
AcDbEntity
  8
0
100
AcDbCircle
 10
-54.49999999999818
 20
324.6005693167888
 30
0.0
 40
0.5
100
AcDbArc
 50
180.0
 51
270.0
  0
LINE
  5
5FA9
330
5DD0
100
AcDbEntity
  8
0
100
AcDbLine
 10
-54.99999999999818
 20
335.6005693167888
 30
0.0
 11
-54.99999999999818
 21
324.6005693167888
 31
0.0
  0
ARC
  5
5FAA
330
5DD0
100
AcDbEntity
  8
0
100
AcDbCircle
 10
-54.49999999999818
 20
335.6005693167888
 30
0.0
 40
0.5
100
AcDbArc
 50
90.0
 51
180.0
  0
ARC
  5
5FAB
330
5DD0
100
AcDbEntity
  8
0
100
AcDbCircle
 10
-53.99999999997999
 20
313.6005693167888
 30
0.0
 40
1.0
100
AcDbArc
 50
90.0
 51
180.0
  0
LINE
  5
5FAC
330
5DD0
100
AcDbEntity
  8
0
100
AcDbLine
 10
-43.99998930000106
 20
398.600582316787
 30
0.0
 11
-43.99998930000106
 21
395.8005716167871
 31
0.0
  0
LINE
  5
5FAD
330
5DD0
100
AcDbEntity
  8
0
100
AcDbLine
 10
-49.99998930000106
 20
397.200573116787
 30
0.0
 11
-43.99998930000106
 21
398.600582316787
 31
0.0
  0
LINE
  5
5FAE
330
5DD0
100
AcDbEntity
  8
0
100
AcDbLine
 10
-49.99998930000106
 20
397.200573116787
 30
0.0
 11
-43.99998930000106
 21
395.8005716167871
 31
0.0
  0
LINE
  5
5FAF
330
5DD0
100
AcDbEntity
  8
0
100
AcDbLine
 10
-43.99998930000106
 20
392.6005708167871
 30
0.0
 11
-43.99998930000106
 21
389.8005716167871
 31
0.0
  0
LINE
  5
5FB0
330
5DD0
100
AcDbEntity
  8
0
100
AcDbLine
 10
-49.99998930000106
 20
391.200573116787
 30
0.0
 11
-43.99998930000106
 21
392.6005708167871
 31
0.0
  0
LINE
  5
5FB1
330
5DD0
100
AcDbEntity
  8
0
100
AcDbLine
 10
-49.99998930000106
 20
391.200573116787
 30
0.0
 11
-43.99998930000106
 21
389.8005716167871
 31
0.0
  0
LINE
  5
5FB2
330
5DD0
100
AcDbEntity
  8
0
100
AcDbLine
 10
-54.49999999999818
 20
324.1005693167888
 30
0.0
 11
-39.49999999999818
 21
324.1005693167888
 31
0.0
  0
LINE
  5
5FB3
330
5DD0
100
AcDbEntity
  8
0
100
AcDbLine
 10
-39.49999999999818
 20
336.1005693167888
 30
0.0
 11
-54.49999999999818
 21
336.1005693167888
 31
0.0
  0
LINE
  5
5FB4
330
5DD0
100
AcDbEntity
  8
0
100
AcDbLine
 10
-40.99999999997999
 20
314.6005693167889
 30
0.0
 11
-53.99999999997999
 21
314.6005693167889
 31
0.0
  0
LINE
  5
5FB5
330
5DD0
100
AcDbEntity
  8
0
100
AcDbLine
 10
-15.49999999999818
 20
336.1005693167888
 30
0.0
 11
-30.49999999999818
 21
336.1005693167888
 31
0.0
  0
LINE
  5
5FB6
330
5DD0
100
AcDbEntity
  8
0
100
AcDbLine
 10
-30.49999999999818
 20
324.1005693167888
 30
0.0
 11
-15.49999999999818
 21
324.1005693167888
 31
0.0
  0
LINE
  5
5FB7
330
5DD0
100
AcDbEntity
  8
0
100
AcDbLine
 10
-26.35284982338977
 20
394.9005682167879
 30
0.0
 11
-20.83853322338996
 21
394.9005682167879
 31
0.0
  0
LINE
  5
5FB8
330
5DD0
100
AcDbEntity
  8
0
100
AcDbLine
 10
-26.35284982338977
 20
396.5005591167872
 30
0.0
 11
-21.23015012339033
 21
396.5005591167872
 31
0.0
  0
LINE
  5
5FB9
330
5DD0
100
AcDbEntity
  8
0
100
AcDbLine
 10
-27.10004132339032
 20
389.9005682167879
 30
0.0
 11
-21.50004132338995
 21
389.9005682167879
 31
0.0
  0
LINE
  5
5FBA
330
5DD0
100
AcDbEntity
  8
0
100
AcDbLine
 10
-24.30004132339013
 20
387.1005690167874
 30
0.0
 11
-21.50004132338995
 21
389.9005682167879
 31
0.0
  0
LINE
  5
5FBB
330
5DD0
100
AcDbEntity
  8
0
100
AcDbLine
 10
-34.27051342338996
 20
396.8862784167875
 30
0.0
 11
-33.02659752257365
 21
403.9409677220352
 31
0.0
  0
LINE
  5
5FBC
330
5DD0
100
AcDbEntity
  8
0
100
AcDbLine
 10
-40.08265102338987
 20
397.9005682167878
 30
0.0
 11
-39.0045695842125
 21
404.0148586615229
 31
0.0
  0
LINE
  5
5FBD
330
5DD0
100
AcDbEntity
  8
0
100
AcDbLine
 10
-41.70734962339042
 20
397.9005682167878
 30
0.0
 11
-40.64240786017376
 21
403.940468074408
 31
0.0
  0
LINE
  5
5FBE
330
5DD0
100
AcDbEntity
  8
0
100
AcDbLine
 10
-32.76284202339025
 20
396.2227575167879
 30
0.0
 11
-31.38891743947784
 21
404.0146677294822
 31
0.0
  0
LINE
  5
5FBF
330
5DD0
100
AcDbEntity
  8
0
100
AcDbLine
 10
-28.20734962339043
 20
397.9005682167878
 30
0.0
 11
-27.14240786017376
 21
403.940468074408
 31
0.0
  0
LINE
  5
5FC0
330
5DD0
100
AcDbEntity
  8
0
100
AcDbLine
 10
-26.58265102338987
 20
397.9005682167878
 30
0.0
 11
-25.5045695842125
 21
404.0148586615229
 31
0.0
  0
LINE
  5
5FC1
330
5DD0
100
AcDbEntity
  8
0
 48
0.25
100
AcDbLine
 10
-66.199999999998
 20
421.600569316786
 30
0.0
 11
-66.19999999999754
 21
372.9005693167863
 31
0.0
  0
LINE
  5
5FC2
330
5DD0
100
AcDbEntity
  8
0
 48
0.25
100
AcDbLine
 10
-66.49999999999796
 20
421.9005693167861
 30
0.0
 11
-66.49999999999796
 21
372.600569316787
 31
0.0
  0
LINE
  5
5FC3
330
5DD0
100
AcDbEntity
  8
0
100
AcDbLine
 10
-5.762842023390246
 20
396.2227575167879
 30
0.0
 11
-4.388917439477836
 21
404.0146677294822
 31
0.0
  0
LINE
  5
5FC4
330
5DD0
100
AcDbEntity
  8
0
100
AcDbLine
 10
-1.207349623390426
 20
397.9005682167878
 30
0.0
 11
-0.1424078601737619
 21
403.940468074408
 31
0.0
  0
LINE
  5
5FC5
330
5DD0
100
AcDbEntity
  8
0
100
AcDbLine
 10
0.4173489766101284
 20
397.9005682167878
 30
0.0
 11
1.495430415787495
 21
404.0148586615229
 31
0.0
  0
LINE
  5
5FC6
330
5DD0
100
AcDbEntity
  8
0
100
AcDbLine
 10
6.229486576610042
 20
396.8862784167875
 30
0.0
 11
7.47340247742636
 21
403.9409677220352
 31
0.0
  0
LINE
  5
5FC7
330
5DD0
100
AcDbEntity
  8
0
100
AcDbLine
 10
7.737157976609751
 20
396.2227575167879
 30
0.0
 11
9.111082560522163
 21
404.0146677294822
 31
0.0
  0
LINE
  5
5FC8
330
5DD0
100
AcDbEntity
  8
0
100
AcDbLine
 10
12.29265037660957
 20
397.9005682167878
 30
0.0
 11
13.35759213982624
 21
403.940468074408
 31
0.0
  0
LINE
  5
5FC9
330
5DD0
100
AcDbEntity
  8
0
100
AcDbLine
 10
-20.77051342338996
 20
396.8862784167875
 30
0.0
 11
-19.52659752257364
 21
403.9409677220352
 31
0.0
  0
LINE
  5
5FCA
330
5DD0
100
AcDbEntity
  8
0
100
AcDbLine
 10
-19.26284202339025
 20
396.2227575167879
 30
0.0
 11
-17.88891743947784
 21
404.0146677294822
 31
0.0
  0
LINE
  5
5FCB
330
5DD0
100
AcDbEntity
  8
0
100
AcDbLine
 10
-13.08265102338987
 20
397.9005682167878
 30
0.0
 11
-12.0045695842125
 21
404.0148586615229
 31
0.0
  0
LINE
  5
5FCC
330
5DD0
100
AcDbEntity
  8
0
100
AcDbLine
 10
-14.70734962339043
 20
397.9005682167878
 30
0.0
 11
-13.64240786017376
 21
403.940468074408
 31
0.0
  0
LINE
  5
5FCD
330
5DD0
100
AcDbEntity
  8
0
100
AcDbLine
 10
-7.270513423389957
 20
396.8862784167875
 30
0.0
 11
-6.026597522573638
 21
403.9409677220352
 31
0.0
  0
ARC
  5
5FCE
330
5DD0
100
AcDbEntity
  8
0
 48
0.25
100
AcDbCircle
 10
98.69999999999912
 20
461.8005693167868
 30
0.0
 40
0.8
100
AcDbArc
 50
0.0
 51
90.0
  0
POINT
  5
5FCF
330
5DD0
100
AcDbEntity
  8
0
 48
0.25
100
AcDbPoint
 10
63.85685424949179
 20
427.2574235662784
 30
0.0
  0
LINE
  5
5FD0
330
5DD0
100
AcDbEntity
  8
0
100
AcDbLine
 10
34.90457006575548
 20
406.3862688232436
 30
0.0
 11
36.40157907661001
 21
414.8762648167873
 31
0.0
  0
LINE
  5
5FD1
330
5DD0
100
AcDbEntity
  8
0
100
AcDbLine
 10
35.47081227117201
 20
404.7778665167877
 30
0.0
 11
36.11108257117236
 21
404.0146677167873
 31
0.0
  0
LINE
  5
5FD2
330
5DD0
100
AcDbEntity
  8
0
100
AcDbLine
 10
34.90457007117243
 20
406.3862688167871
 30
0.0
 11
35.54480217117202
 21
405.6231691167875
 31
0.0
  0
LINE
  5
5FD3
330
5DD0
100
AcDbEntity
  8
0
100
AcDbLine
 10
28.50803957661014
 20
413.3005659167872
 30
0.0
 11
35.51447887661038
 21
413.3005659167872
 31
0.0
  0
LINE
  5
5FD4
330
5DD0
100
AcDbEntity
  8
0
100
AcDbLine
 10
30.13271917660973
 20
414.9005720167877
 30
0.0
 11
35.79659857660978
 21
414.9005720167877
 31
0.0
  0
LINE
  5
5FD5
330
5DD0
100
AcDbEntity
  8
0
100
AcDbLine
 10
23.04226158913412
 20
406.4600679318579
 30
0.0
 11
24.19941917661004
 21
413.0227682167876
 31
0.0
  0
LINE
  5
5FD6
330
5DD0
100
AcDbEntity
  8
0
100
AcDbLine
 10
21.40457006575548
 20
406.3862688232436
 30
0.0
 11
22.90157907661001
 21
414.8762648167873
 31
0.0
  0
LINE
  5
5FD7
330
5DD0
100
AcDbEntity
  8
0
100
AcDbLine
 10
28.9265923526475
 20
406.4602701012388
 30
0.0
 11
30.02692997660984
 21
412.7005789167876
 31
0.0
  0
LINE
  5
5FD8
330
5DD0
100
AcDbEntity
  8
0
100
AcDbLine
 10
27.28890092321603
 20
406.3860665547633
 30
0.0
 11
28.40225807660977
 21
412.7005789167876
 31
0.0
  0
LINE
  5
5FD9
330
5DD0
100
AcDbEntity
  8
0
100
AcDbLine
 10
13.78890092321603
 20
406.3860665547633
 30
0.0
 11
14.90225807660977
 21
412.7005789167876
 31
0.0
  0
LINE
  5
5FDA
330
5DD0
100
AcDbEntity
  8
0
100
AcDbLine
 10
15.4265923526475
 20
406.4602701012388
 30
0.0
 11
16.52692997660983
 21
412.7005789167876
 31
0.0
  0
LINE
  5
5FDB
330
5DD0
100
AcDbEntity
  8
0
100
AcDbLine
 10
22.04480217117202
 20
405.6231691167875
 30
0.0
 11
23.0422615711725
 21
406.4600679167877
 31
0.0
  0
LINE
  5
5FDC
330
5DD0
100
AcDbEntity
  8
0
100
AcDbLine
 10
21.40457007117243
 20
406.3862688167871
 30
0.0
 11
22.04480217117202
 21
405.6231691167875
 31
0.0
  0
LINE
  5
5FDD
330
5DD0
100
AcDbEntity
  8
0
100
AcDbLine
 10
20.97340247117177
 20
403.9409677167874
 30
0.0
 11
21.97081227117201
 21
404.7778665167877
 31
0.0
  0
LINE
  5
5FDE
330
5DD0
100
AcDbEntity
  8
0
100
AcDbLine
 10
21.97081227117201
 20
404.7778665167877
 30
0.0
 11
22.61108257117236
 21
404.0146677167873
 31
0.0
  0
LINE
  5
5FDF
330
5DD0
100
AcDbEntity
  8
0
100
AcDbLine
 10
20.94496007117255
 20
406.0005686167876
 30
0.0
 11
21.58516167117182
 21
405.2374574167877
 31
0.0
  0
LINE
  5
5FE0
330
5DD0
100
AcDbEntity
  8
0
100
AcDbLine
 10
20.58772137117216
 20
404.4005586167874
 30
0.0
 11
21.58516167117182
 21
405.2374574167877
 31
0.0
  0
LINE
  5
5FE1
330
5DD0
100
AcDbEntity
  8
0
100
AcDbLine
 10
34.44496007117255
 20
406.0005686167876
 30
0.0
 11
29.31221247117196
 21
406.0005686167876
 31
0.0
  0
LINE
  5
5FE2
330
5DD0
100
AcDbEntity
  8
0
100
AcDbLine
 10
34.08772137117217
 20
404.4005586167874
 30
0.0
 11
28.9550614711718
 21
404.4005586167874
 31
0.0
  0
LINE
  5
5FE3
330
5DD0
100
AcDbEntity
  8
0
100
AcDbLine
 10
34.08772137117217
 20
404.4005586167874
 30
0.0
 11
35.08516167117182
 21
405.2374574167877
 31
0.0
  0
LINE
  5
5FE4
330
5DD0
100
AcDbEntity
  8
0
100
AcDbLine
 10
34.44496007117255
 20
406.0005686167876
 30
0.0
 11
35.08516167117182
 21
405.2374574167877
 31
0.0
  0
LINE
  5
5FE5
330
5DD0
100
AcDbEntity
  8
0
100
AcDbLine
 10
28.31482167117179
 20
405.1634676167875
 30
0.0
 11
29.31221247117196
 21
406.0005686167876
 31
0.0
  0
LINE
  5
5FE6
330
5DD0
100
AcDbEntity
  8
0
100
AcDbLine
 10
28.31482167117179
 20
405.1634676167875
 30
0.0
 11
28.9550614711718
 21
404.4005586167874
 31
0.0
  0
LINE
  5
5FE7
330
5DD0
100
AcDbEntity
  8
0
100
AcDbLine
 10
27.85524227117207
 20
404.7777788167874
 30
0.0
 11
28.49542097117252
 21
404.0148699167873
 31
0.0
  0
LINE
  5
5FE8
330
5DD0
100
AcDbEntity
  8
0
100
AcDbLine
 10
26.85759207117213
 20
403.9404680167868
 30
0.0
 11
27.85524227117207
 21
404.7777788167874
 31
0.0
  0
LINE
  5
5FE9
330
5DD0
100
AcDbEntity
  8
0
100
AcDbLine
 10
27.28890087117202
 20
406.3860666167872
 30
0.0
 11
27.92912907117193
 21
405.623069916787
 31
0.0
  0
LINE
  5
5FEA
330
5DD0
100
AcDbEntity
  8
0
100
AcDbLine
 10
27.92912907117193
 20
405.623069916787
 30
0.0
 11
28.92659237117209
 21
406.4602701167875
 31
0.0
  0
LINE
  5
5FEB
330
5DD0
100
AcDbEntity
  8
0
100
AcDbLine
 10
34.47340247117177
 20
403.9409677167874
 30
0.0
 11
35.47081227117201
 21
404.7778665167877
 31
0.0
  0
LINE
  5
5FEC
330
5DD0
100
AcDbEntity
  8
0
100
AcDbLine
 10
14.42912907117193
 20
405.623069916787
 30
0.0
 11
15.42659237117209
 21
406.4602701167875
 31
0.0
  0
LINE
  5
5FED
330
5DD0
100
AcDbEntity
  8
0
100
AcDbLine
 10
13.78890087117202
 20
406.3860666167872
 30
0.0
 11
14.42912907117193
 21
405.623069916787
 31
0.0
  0
LINE
  5
5FEE
330
5DD0
100
AcDbEntity
  8
0
100
AcDbLine
 10
14.35524227117207
 20
404.7777788167874
 30
0.0
 11
14.99542097117251
 21
404.0148699167873
 31
0.0
  0
LINE
  5
5FEF
330
5DD0
100
AcDbEntity
  8
0
100
AcDbLine
 10
14.81482167117178
 20
405.1634676167875
 30
0.0
 11
15.4550614711718
 21
404.4005586167874
 31
0.0
  0
LINE
  5
5FF0
330
5DD0
100
AcDbEntity
  8
0
100
AcDbLine
 10
14.81482167117178
 20
405.1634676167875
 30
0.0
 11
15.81221247117196
 21
406.0005686167876
 31
0.0
  0
LINE
  5
5FF1
330
5DD0
100
AcDbEntity
  8
0
100
AcDbLine
 10
20.58772137117216
 20
404.4005586167874
 30
0.0
 11
15.4550614711718
 21
404.4005586167874
 31
0.0
  0
LINE
  5
5FF2
330
5DD0
100
AcDbEntity
  8
0
100
AcDbLine
 10
20.94496007117255
 20
406.0005686167876
 30
0.0
 11
15.81221247117196
 21
406.0005686167876
 31
0.0
  0
ARC
  5
5FF3
330
5DD0
100
AcDbEntity
  8
0
100
AcDbCircle
 10
22.62373937660982
 20
413.3005659167872
 30
0.0
 40
1.6
100
AcDbArc
 50
350.0000916000027
 51
80.00013729999631
  0
LINE
  5
5FF4
330
5DD0
100
AcDbEntity
  8
0
100
AcDbLine
 10
22.01447887661038
 20
413.3005659167872
 30
0.0
 11
22.29659857660977
 21
414.9005720167877
 31
0.0
  0
LINE
  5
5FF5
330
5DD0
100
AcDbEntity
  8
0
100
AcDbLine
 10
28.50803957661014
 20
413.3005659167872
 30
0.0
 11
28.55702797661002
 21
413.5783674167877
 31
0.0
  0
LINE
  5
5FF6
330
5DD0
100
AcDbEntity
  8
0
100
AcDbLine
 10
28.40224657661043
 20
412.7005789167876
 30
0.0
 11
30.02692997660984
 21
412.7005789167876
 31
0.0
  0
ARC
  5
5FF7
330
5DD0
100
AcDbEntity
  8
0
100
AcDbCircle
 10
30.13271917660973
 20
413.3005659167872
 30
0.0
 40
1.6
100
AcDbArc
 50
90.0
 51
170.0001067999947
  0
ARC
  5
5FF8
330
5DD0
100
AcDbEntity
  8
0
100
AcDbCircle
 10
16.63271917660972
 20
413.3005659167872
 30
0.0
 40
1.6
100
AcDbArc
 50
90.0
 51
170.0001067999947
  0
LINE
  5
5FF9
330
5DD0
100
AcDbEntity
  8
0
100
AcDbLine
 10
14.90224657661042
 20
412.7005789167876
 30
0.0
 11
16.52692997660983
 21
412.7005789167876
 31
0.0
  0
LINE
  5
5FFA
330
5DD0
100
AcDbEntity
  8
0
100
AcDbLine
 10
15.00803957661014
 20
413.3005659167872
 30
0.0
 11
15.05702797661001
 21
413.5783674167877
 31
0.0
  0
LINE
  5
5FFB
330
5DD0
100
AcDbEntity
  8
0
100
AcDbLine
 10
16.63271917660972
 20
414.9005720167877
 30
0.0
 11
22.29659857660977
 21
414.9005720167877
 31
0.0
  0
LINE
  5
5FFC
330
5DD0
100
AcDbEntity
  8
0
100
AcDbLine
 10
15.00803957661014
 20
413.3005659167872
 30
0.0
 11
22.01447887661038
 21
413.3005659167872
 31
0.0
  0
LINE
  5
5FFD
330
5DD0
100
AcDbEntity
  8
0
100
AcDbLine
 10
36.54226158913412
 20
406.4600679318579
 30
0.0
 11
37.69941917661004
 21
413.0227682167876
 31
0.0
  0
LINE
  5
5FFE
330
5DD0
100
AcDbEntity
  8
0
100
AcDbLine
 10
35.54480217117202
 20
405.6231691167875
 30
0.0
 11
36.5422615711725
 21
406.4600679167877
 31
0.0
  0
LINE
  5
5FFF
330
5DD0
100
AcDbEntity
  8
0
100
AcDbLine
 10
35.51447887661038
 20
413.3005659167872
 30
0.0
 11
35.79659857660978
 21
414.9005720167877
 31
0.0
  0
ARC
  5
6000
330
5DD0
100
AcDbEntity
  8
0
100
AcDbCircle
 10
36.12373937660982
 20
413.3005659167872
 30
0.0
 40
1.6
100
AcDbArc
 50
350.0000916000027
 51
80.00013729999631
  0
ARC
  5
6001
330
5DD0
100
AcDbEntity
  8
0
 48
0.25
100
AcDbCircle
 10
58.19999999999959
 20
421.600569316786
 30
0.0
 40
8.0
100
AcDbArc
 50
0.0
 51
90.0
  0
ARC
  5
6002
330
5DD0
100
AcDbEntity
  8
0
 48
0.25
100
AcDbCircle
 10
58.49999999999933
 20
421.9005693167861
 30
0.0
 40
10.0
100
AcDbArc
 50
0.0
 51
90.0
  0
ARC
  5
6003
330
5DD0
100
AcDbEntity
  8
0
 48
0.25
100
AcDbCircle
 10
58.49999999999933
 20
421.9005693167861
 30
0.0
 40
8.0
100
AcDbArc
 50
0.0
 51
90.0
  0
LINE
  5
6004
330
5DD0
100
AcDbEntity
  8
0
 48
0.25
100
AcDbLine
 10
99.49999999999954
 20
349.600569316787
 30
0.0
 11
103.4999999999995
 21
349.600569316787
 31
0.0
  0
LINE
  5
6005
330
5DD0
100
AcDbEntity
  8
0
 48
0.25
100
AcDbLine
 10
99.49999999999954
 20
369.600569316787
 30
0.0
 11
103.4999999999995
 21
369.600569316787
 31
0.0
  0
LINE
  5
6006
330
5DD0
100
AcDbEntity
  8
0
 48
0.25
100
AcDbLine
 10
99.49999999999954
 20
349.600569316787
 30
0.0
 11
99.49999999999954
 21
359.600569316787
 31
0.0
  0
LINE
  5
6007
330
5DD0
100
AcDbEntity
  8
0
 48
0.25
100
AcDbLine
 10
99.49999999999954
 20
369.600569316787
 30
0.0
 11
99.49999999999954
 21
359.600569316787
 31
0.0
  0
LINE
  5
6008
330
5DD0
100
AcDbEntity
  8
0
 48
0.25
100
AcDbLine
 10
103.4999999999995
 20
369.600569316787
 30
0.0
 11
103.4999999999995
 21
359.600569316787
 31
0.0
  0
LINE
  5
6009
330
5DD0
100
AcDbEntity
  8
0
 48
0.25
100
AcDbLine
 10
103.4999999999995
 20
349.600569316787
 30
0.0
 11
103.4999999999995
 21
359.600569316787
 31
0.0
  0
LINE
  5
600A
330
5DD0
100
AcDbEntity
  8
0
 48
0.25
100
AcDbLine
 10
103.4999999999995
 20
369.600569316787
 30
0.0
 11
103.4999999999995
 21
359.600569316787
 31
0.0
  0
ARC
  5
600B
330
5DD0
100
AcDbEntity
  8
0
 48
0.25
100
AcDbCircle
 10
105.9999999999995
 20
372.2210943140597
 30
0.0
 40
2.0
100
AcDbArc
 50
119.9999999999933
 51
180.0
  0
LINE
  5
600C
330
5DD0
100
AcDbEntity
  8
0
 48
0.25
100
AcDbLine
 10
106.3999999999992
 20
374.7614354984942
 30
0.0
 11
104.9999999999995
 21
373.9531451216287
 31
0.0
  0
LINE
  5
600D
330
5DD0
100
AcDbEntity
  8
0
 48
0.25
100
AcDbLine
 10
107.5999999999999
 20
379.600569316787
 30
0.0
 11
106.3999999999992
 21
379.600569316787
 31
0.0
  0
ARC
  5
600E
330
5DD0
100
AcDbEntity
  8
0
 48
0.25
100
AcDbCircle
 10
105.9999999999995
 20
353.4598546102304
 30
0.0
 40
2.0
100
AcDbArc
 50
180.0
 51
240.0000000000068
  0
LINE
  5
600F
330
5DD0
100
AcDbEntity
  8
0
 48
0.25
100
AcDbLine
 10
106.3999999999992
 20
350.9195134257968
 30
0.0
 11
104.9999999999995
 21
351.7278038026623
 31
0.0
  0
LINE
  5
6010
330
5DD0
100
AcDbEntity
  8
0
100
AcDbLine
 10
110.8000000000106
 20
359.6005693167878
 30
0.0
 11
110.8000000000106
 21
377.0425742557362
 31
0.0
  0
LINE
  5
6011
330
5DD0
100
AcDbEntity
  8
0
100
AcDbLine
 10
110.8000000000106
 20
359.6005693167878
 30
0.0
 11
110.8000000000106
 21
342.1585643778406
 31
0.0
  0
LINE
  5
6012
330
5DD0
100
AcDbEntity
  8
0
 48
0.5
100
AcDbLine
 10
107.6000000000108
 20
351.6005693167879
 30
0.0
 11
110.8000000000097
 21
351.6005693167879
 31
0.0
  0
LINE
  5
6013
330
5DD0
100
AcDbEntity
  8
0
 48
0.5
100
AcDbLine
 10
107.6000000000108
 20
367.6005693167879
 30
0.0
 11
110.8000000000097
 21
367.6005693167879
 31
0.0
  0
ARC
  5
6014
330
5DD0
100
AcDbEntity
  8
0
 48
0.25
100
AcDbCircle
 10
58.19999999999959
 20
372.9005693167881
 30
0.0
 40
8.0
100
AcDbArc
 50
270.0
 51
0.0
  0
LINE
  5
6015
330
5DD0
100
AcDbEntity
  8
0
 48
0.25
100
AcDbLine
 10
66.49999999999931
 20
361.600569316787
 30
0.0
 11
66.49999999999931
 21
350.6005693167888
 31
0.0
  0
POINT
  5
6016
330
5DD0
100
AcDbEntity
  8
0
 48
0.25
100
AcDbPoint
 10
64.29999999999314
 20
347.6005827808901
 30
0.0
  0
POINT
  5
6017
330
5DD0
100
AcDbEntity
  8
0
 48
0.25
100
AcDbPoint
 10
64.30000000000041
 20
347.6005693167888
 30
0.0
  0
ARC
  5
6018
330
5DD0
100
AcDbEntity
  8
0
100
AcDbCircle
 10
64.50000000000205
 20
361.600569316787
 30
0.0
 40
2.0
100
AcDbArc
 50
0.0
 51
90.0
  0
ARC
  5
6019
330
5DD0
100
AcDbEntity
  8
0
100
AcDbCircle
 10
64.50000000000023
 20
350.6005693167888
 30
0.0
 40
2.0
100
AcDbArc
 50
270.0
 51
0.0
  0
ARC
  5
601A
330
5DD0
100
AcDbEntity
  8
0
100
AcDbCircle
 10
64.50000000000023
 20
345.6005693167888
 30
0.0
 40
2.0
100
AcDbArc
 50
0.0
 51
90.0
  0
POINT
  5
601B
330
5DD0
100
AcDbEntity
  8
0
100
AcDbPoint
 10
64.5000000000025
 20
348.600569316787
 30
0.0000000000000108
  0
POINT
  5
601C
330
5DD0
100
AcDbEntity
  8
0
100
AcDbPoint
 10
64.5000000000025
 20
348.600569316787
 30
0.0000000000000108
  0
POINT
  5
601D
330
5DD0
100
AcDbEntity
  8
0
100
AcDbPoint
 10
64.5000000000025
 20
363.600569316787
 30
0.0000000000000114
  0
LINE
  5
601E
330
5DD0
100
AcDbEntity
  8
0
100
AcDbLine
 10
49.79994086000011
 20
397.1505727367865
 30
0.0
 11
49.79994086000011
 21
391.8507184567868
 31
0.0
  0
ARC
  5
601F
330
5DD0
100
AcDbEntity
  8
0
100
AcDbCircle
 10
56.50000000000182
 20
335.6005693167888
 30
0.0
 40
0.5
100
AcDbArc
 50
0.0
 51
90.0
  0
LINE
  5
6020
330
5DD0
100
AcDbEntity
  8
0
100
AcDbLine
 10
57.00000000000182
 20
324.6005693167888
 30
0.0
 11
57.00000000000182
 21
335.6005693167888
 31
0.0
  0
ARC
  5
6021
330
5DD0
100
AcDbEntity
  8
0
100
AcDbCircle
 10
56.50000000000182
 20
324.6005693167888
 30
0.0
 40
0.5
100
AcDbArc
 50
270.0
 51
0.0
  0
POINT
  5
6022
330
5DD0
100
AcDbEntity
  8
0
 48
0.25
100
AcDbPoint
 10
56.85843745495549
 20
324.2519684119041
 30
0.0
  0
ARC
  5
6023
330
5DD0
100
AcDbEntity
  8
0
 48
0.25
100
AcDbCircle
 10
58.49999999999933
 20
372.6005693167888
 30
0.0
 40
8.0
100
AcDbArc
 50
270.0
 51
0.0
  0
CIRCLE
  5
6024
330
5DD0
100
AcDbEntity
  8
0
100
AcDbCircle
 10
23.40001747660995
 20
396.7005789167877
 30
0.0
 40
0.7
  0
LINE
  5
6025
330
5DD0
100
AcDbEntity
  8
0
100
AcDbLine
 10
19.26984987660967
 20
396.5005591167872
 30
0.0
 11
20.44186987660964
 21
395.1037695167877
 31
0.0
  0
LINE
  5
6026
330
5DD0
100
AcDbEntity
  8
0
100
AcDbLine
 10
19.72948657661004
 20
396.8862784167875
 30
0.0
 11
20.90151037660985
 21
395.4894697167872
 31
0.0
  0
ARC
  5
6027
330
5DD0
100
AcDbEntity
  8
0
100
AcDbCircle
 10
19.66146677661004
 20
396.5005591167872
 30
0.0
 40
1.6
100
AcDbArc
 50
320.8066100999943
 51
350.0000916000027
  0
ARC
  5
6028
330
5DD0
100
AcDbEntity
  8
0
100
AcDbCircle
 10
19.66146677661004
 20
396.5005591167872
 30
0.0
 40
1.6
100
AcDbArc
 50
270.0
 51
299.1926880000011
  0
LINE
  5
6029
330
5DD0
100
AcDbEntity
  8
0
100
AcDbLine
 10
25.67754947661001
 20
397.2478583167874
 30
0.0
 11
25.68685737660985
 21
397.300569716788
 31
0.0
  0
LINE
  5
602A
330
5DD0
100
AcDbEntity
  8
0
100
AcDbLine
 10
27.64715017661024
 20
394.9005682167879
 30
0.0
 11
33.16146677661004
 21
394.9005682167879
 31
0.0
  0
LINE
  5
602B
330
5DD0
100
AcDbEntity
  8
0
100
AcDbLine
 10
27.25324837661015
 20
396.9699690167879
 30
0.0
 11
27.31155977661023
 21
397.300569716788
 31
0.0
  0
LINE
  5
602C
330
5DD0
100
AcDbEntity
  8
0
100
AcDbLine
 10
27.64715017661024
 20
396.5005591167872
 30
0.0
 11
32.76984987660968
 21
396.5005591167872
 31
0.0
  0
ARC
  5
602D
330
5DD0
100
AcDbEntity
  8
0
100
AcDbCircle
 10
27.64715017661024
 20
396.9005682167879
 30
0.0
 40
2.0
100
AcDbArc
 50
170.0001067999947
 51
270.0
  0
ARC
  5
602E
330
5DD0
100
AcDbEntity
  8
0
100
AcDbCircle
 10
33.16146677661004
 20
396.5005591167872
 30
0.0
 40
1.6
100
AcDbArc
 50
270.0
 51
299.1926880000011
  0
ARC
  5
602F
330
5DD0
100
AcDbEntity
  8
0
100
AcDbCircle
 10
33.16146677661004
 20
396.5005591167872
 30
0.0
 40
1.6
100
AcDbArc
 50
320.8066100999943
 51
350.0000916000027
  0
LINE
  5
6030
330
5DD0
100
AcDbEntity
  8
0
100
AcDbLine
 10
25.68685737660985
 20
397.300569716788
 30
0.0
 11
27.31155977661023
 21
397.300569716788
 31
0.0
  0
LINE
  5
6031
330
5DD0
100
AcDbEntity
  8
0
100
AcDbLine
 10
25.79265037660957
 20
397.9005682167878
 30
0.0
 11
27.41734897661013
 21
397.9005682167878
 31
0.0
  0
ARC
  5
6032
330
5DD0
100
AcDbEntity
  8
0
100
AcDbCircle
 10
27.64715017661024
 20
396.9005682167879
 30
0.0
 40
0.4
100
AcDbArc
 50
170.0001067999947
 51
270.0
  0
LINE
  5
6033
330
5DD0
100
AcDbEntity
  8
0
100
AcDbLine
 10
33.22948657661005
 20
396.8862784167875
 30
0.0
 11
34.40151037660985
 21
395.4894697167872
 31
0.0
  0
LINE
  5
6034
330
5DD0
100
AcDbEntity
  8
0
100
AcDbLine
 10
32.76984987660968
 20
396.5005591167872
 30
0.0
 11
33.94186987660964
 21
395.1037695167877
 31
0.0
  0
LINE
  5
6035
330
5DD0
100
AcDbEntity
  8
0
100
AcDbLine
 10
26.89995867660968
 20
389.9005682167879
 30
0.0
 11
32.49995867661005
 21
389.9005682167879
 31
0.0
  0
LINE
  5
6036
330
5DD0
100
AcDbEntity
  8
0
100
AcDbLine
 10
26.89995867660968
 20
389.9005682167879
 30
0.0
 11
29.69995867660987
 21
387.1005690167874
 31
0.0
  0
LINE
  5
6037
330
5DD0
100
AcDbEntity
  8
0
100
AcDbLine
 10
29.69995867660987
 20
387.1005690167874
 30
0.0
 11
32.49995867661005
 21
389.9005682167879
 31
0.0
  0
ARC
  5
6038
330
5DD0
100
AcDbEntity
  8
0
100
AcDbCircle
 10
14.14715017661024
 20
396.9005682167879
 30
0.0
 40
0.4
100
AcDbArc
 50
170.0001067999947
 51
270.0
  0
LINE
  5
6039
330
5DD0
100
AcDbEntity
  8
0
100
AcDbLine
 10
13.75324837661014
 20
396.9699690167879
 30
0.0
 11
13.81155977661024
 21
397.300569716788
 31
0.0
  0
LINE
  5
603A
330
5DD0
100
AcDbEntity
  8
0
100
AcDbLine
 10
16.19995867660987
 20
387.1005690167874
 30
0.0
 11
18.99995867661005
 21
389.9005682167879
 31
0.0
  0
LINE
  5
603B
330
5DD0
100
AcDbEntity
  8
0
100
AcDbLine
 10
14.14715017661024
 20
396.5005591167872
 30
0.0
 11
19.26984987660967
 21
396.5005591167872
 31
0.0
  0
LINE
  5
603C
330
5DD0
100
AcDbEntity
  8
0
100
AcDbLine
 10
14.14715017661024
 20
394.9005682167879
 30
0.0
 11
19.66146677661004
 21
394.9005682167879
 31
0.0
  0
LINE
  5
603D
330
5DD0
100
AcDbEntity
  8
0
100
AcDbLine
 10
32.50000000000182
 20
336.1005693167888
 30
0.0
 11
17.50000000000182
 21
336.1005693167888
 31
0.0
  0
ARC
  5
603E
330
5DD0
100
AcDbEntity
  8
0
100
AcDbCircle
 10
17.50000000000182
 20
335.6005693167888
 30
0.0
 40
0.5
100
AcDbArc
 50
90.0
 51
180.0
  0
LINE
  5
603F
330
5DD0
100
AcDbEntity
  8
0
100
AcDbLine
 10
17.00000000000182
 20
335.6005693167888
 30
0.0
 11
17.00000000000182
 21
324.6005693167888
 31
0.0
  0
ARC
  5
6040
330
5DD0
100
AcDbEntity
  8
0
100
AcDbCircle
 10
17.50000000000182
 20
324.6005693167888
 30
0.0
 40
0.5
100
AcDbArc
 50
180.0
 51
270.0
  0
LINE
  5
6041
330
5DD0
100
AcDbEntity
  8
0
100
AcDbLine
 10
17.50000000000182
 20
324.1005693167888
 30
0.0
 11
32.50000000000182
 21
324.1005693167888
 31
0.0
  0
ARC
  5
6042
330
5DD0
100
AcDbEntity
  8
0
100
AcDbCircle
 10
32.50000000000182
 20
335.6005693167888
 30
0.0
 40
0.5
100
AcDbArc
 50
0.0
 51
90.0
  0
ARC
  5
6043
330
5DD0
100
AcDbEntity
  8
0
100
AcDbCircle
 10
32.50000000000182
 20
324.6005693167888
 30
0.0
 40
0.5
100
AcDbArc
 50
270.0
 51
0.0
  0
LINE
  5
6044
330
5DD0
100
AcDbEntity
  8
0
100
AcDbLine
 10
33.00000000000182
 20
324.6005693167888
 30
0.0
 11
33.00000000000182
 21
335.6005693167888
 31
0.0
  0
LINE
  5
6045
330
5DD0
100
AcDbEntity
  8
0
100
AcDbLine
 10
48.1998455100004
 20
391.8507184567868
 30
0.0
 11
48.1998455100004
 21
393.0389405967869
 31
0.0
  0
LINE
  5
6046
330
5DD0
100
AcDbEntity
  8
0
100
AcDbLine
 10
48.1998455100004
 20
396.8622563867863
 30
0.0
 11
48.1998455100004
 21
397.1505727367865
 31
0.0
  0
LINE
  5
6047
330
5DD0
100
AcDbEntity
  8
0
100
AcDbLine
 10
44.79992521000007
 20
391.8507184567868
 30
0.0
 11
46.59997443999985
 21
391.8507184567868
 31
0.0
  0
ELLIPSE
  5
6048
330
5DD0
100
AcDbEntity
  8
0
100
AcDbEllipse
 10
47.24988251000036
 20
394.9505985267867
 30
0.0
 11
0.0
 21
1.50000060000011
 31
0.0
210
0.0
220
0.0
230
1.0
 40
0.6666667000000385
 41
0.0
 42
6.283185307179585
  0
ELLIPSE
  5
6049
330
5DD0
100
AcDbEntity
  8
0
100
AcDbEllipse
 10
46.74988706999942
 20
394.9505985267867
 30
0.0
 11
-0.00000014
 21
2.499999669999998
 31
0.0
210
0.0
220
0.0
230
0.9999999999999998
 40
0.8999998999999998
 41
-0.700302907179911
 42
3.841895599999979
  0
ARC
  5
604A
330
5DD0
100
AcDbEntity
  8
0
100
AcDbCircle
 10
47.39978177000034
 20
391.8507184567868
 30
0.0
 40
0.7999999
100
AcDbArc
 50
180.0
 51
0.0
  0
LINE
  5
604B
330
5DD0
100
AcDbEntity
  8
0
100
AcDbLine
 10
40.89985770000043
 20
399.4505693167864
 30
0.0
 11
40.89985770000043
 21
395.550456036787
 31
0.0
  0
LINE
  5
604C
330
5DD0
100
AcDbEntity
  8
0
100
AcDbLine
 10
39.29997865000064
 20
392.4505693167863
 30
0.0
 11
39.29997865000064
 21
399.4505693167864
 31
0.0
  0
LINE
  5
604D
330
5DD0
100
AcDbEntity
  8
0
100
AcDbLine
 10
40.89985770000043
 20
392.4505693167863
 30
0.0
 11
39.29997865000064
 21
392.4505693167863
 31
0.0
  0
LINE
  5
604E
330
5DD0
100
AcDbEntity
  8
0
100
AcDbLine
 10
40.89985770000043
 20
393.5504302467868
 30
0.0
 11
40.89985770000043
 21
392.4505693167863
 31
0.0
  0
LINE
  5
604F
330
5DD0
100
AcDbEntity
  8
0
100
AcDbLine
 10
41.74531762999982
 20
394.4200896667869
 30
0.0
 11
40.89985770000043
 21
393.5504302467868
 31
0.0
  0
LINE
  5
6050
330
5DD0
100
AcDbEntity
  8
0
100
AcDbLine
 10
42.45553013999983
 20
397.1505727367865
 30
0.0
 11
44.39984972000025
 21
397.1505727367865
 31
0.0
  0
LINE
  5
6051
330
5DD0
100
AcDbEntity
  8
0
100
AcDbLine
 10
40.89985770000043
 20
395.550456036787
 30
0.0
 11
42.45553013999983
 21
397.1505727367865
 31
0.0
  0
LINE
  5
6052
330
5DD0
100
AcDbEntity
  8
0
100
AcDbLine
 10
42.9616085099999
 20
392.4505693167863
 30
0.0
 11
41.74531762999982
 21
394.4200896667869
 31
0.0
  0
LINE
  5
6053
330
5DD0
100
AcDbEntity
  8
0
100
AcDbLine
 10
44.60004383999989
 20
392.4505693167863
 30
0.0
 11
42.9616085099999
 21
392.4505693167863
 31
0.0
  0
LINE
  5
6054
330
5DD0
100
AcDbEntity
  8
0
100
AcDbLine
 10
42.74726179000049
 20
395.4505738767863
 30
0.0
 11
44.60004383999989
 21
392.4505693167863
 31
0.0
  0
LINE
  5
6055
330
5DD0
100
AcDbEntity
  8
0
100
AcDbLine
 10
44.39984972000025
 20
397.1505727367865
 30
0.0
 11
42.74726179000049
 21
395.4505738767863
 31
0.0
  0
LINE
  5
6056
330
5DD0
100
AcDbEntity
  8
0
100
AcDbLine
 10
39.29997865000064
 20
399.4505693167864
 30
0.0
 11
40.89985770000043
 21
399.4505693167864
 31
0.0
  0
CIRCLE
  5
6057
330
5DD0
100
AcDbEntity
  8
0
100
AcDbCircle
 10
36.90001747660995
 20
396.7005789167877
 30
0.0
 40
0.7
  0
POINT
  5
6058
330
5DD0
100
AcDbEntity
  8
0
 48
0.25
100
AcDbPoint
 10
41.00000000000181
 20
335.6005693167888
 30
0.0
  0
ARC
  5
6059
330
5DD0
100
AcDbEntity
  8
0
100
AcDbCircle
 10
41.50000000000182
 20
335.6005693167888
 30
0.0
 40
0.5
100
AcDbArc
 50
90.0
 51
180.0
  0
LINE
  5
605A
330
5DD0
100
AcDbEntity
  8
0
100
AcDbLine
 10
41.00000000000181
 20
335.6005693167888
 30
0.0
 11
41.00000000000181
 21
324.6005693167888
 31
0.0
  0
ARC
  5
605B
330
5DD0
100
AcDbEntity
  8
0
100
AcDbCircle
 10
41.50000000000182
 20
324.6005693167888
 30
0.0
 40
0.5
100
AcDbArc
 50
180.0
 51
270.0
  0
LINE
  5
605C
330
5DD0
100
AcDbEntity
  8
0
100
AcDbLine
 10
48.1998455100004
 20
397.1505727367865
 30
0.0
 11
49.79994086000011
 21
397.1505727367865
 31
0.0
  0
ELLIPSE
  5
605D
330
5DD0
100
AcDbEntity
  8
0
100
AcDbEllipse
 10
47.29993433000003
 20
391.8507184567859
 30
0.0
 11
2.499999669999998
 21
0.0
 31
0.0
210
0.0
220
0.0
230
1.0
 40
0.5600001
 41
-3.14159260717958
 42
0.0
  0
LINE
  5
605E
330
5DD0
100
AcDbEntity
  8
0
100
AcDbLine
 10
41.50000000000182
 20
324.1005693167888
 30
0.0
 11
56.50000000000182
 21
324.1005693167888
 31
0.0
  0
LINE
  5
605F
330
5DD0
100
AcDbEntity
  8
0
100
AcDbLine
 10
56.50000000000182
 20
336.1005693167888
 30
0.0
 11
41.50000000000182
 21
336.1005693167888
 31
0.0
  0
ARC
  5
6060
330
5DD0
100
AcDbEntity
  8
0
100
AcDbCircle
 10
56.00000000001272
 20
312.6005827808902
 30
0.0
 40
1.0
100
AcDbArc
 50
0.0
 51
90.0
  0
ARC
  5
6061
330
5DD0
100
AcDbEntity
  8
0
100
AcDbCircle
 10
55.00000000001271
 20
313.6005827808901
 30
0.0
 40
1.0
100
AcDbArc
 50
0.0
 51
90.0
  0
ARC
  5
6062
330
5DD0
100
AcDbEntity
  8
0
100
AcDbCircle
 10
18.00000000000182
 20
313.6005962449951
 30
0.0
 40
1.0
100
AcDbArc
 50
90.0
 51
180.0
  0
LINE
  5
6063
330
5DD0
100
AcDbEntity
  8
0
100
AcDbLine
 10
31.00000000000183
 20
314.6005962449951
 30
0.0
 11
18.00000000000182
 21
314.6005962449951
 31
0.0
  0
ARC
  5
6064
330
5DD0
100
AcDbEntity
  8
0
100
AcDbCircle
 10
32.00000000000182
 20
312.6005962449951
 30
0.0
 40
1.0
100
AcDbArc
 50
0.0
 51
90.0
  0
ARC
  5
6065
330
5DD0
100
AcDbEntity
  8
0
100
AcDbCircle
 10
31.00000000000183
 20
313.6005962449951
 30
0.0
 40
1.0
100
AcDbArc
 50
0.0
 51
90.0
  0
ARC
  5
6066
330
5DD0
100
AcDbEntity
  8
0
100
AcDbCircle
 10
42.00000000001272
 20
313.6005827808901
 30
0.0
 40
1.0
100
AcDbArc
 50
90.0
 51
180.0
  0
LINE
  5
6067
330
5DD0
100
AcDbEntity
  8
0
100
AcDbLine
 10
55.00000000001271
 20
314.6005827808902
 30
0.0
 11
42.00000000001272
 21
314.6005827808902
 31
0.0
  0
LINE
  5
6068
330
5DD0
100
AcDbEntity
  8
0
 48
0.25
100
AcDbLine
 10
66.19999999999982
 20
421.600569316786
 30
0.0
 11
66.19999999999937
 21
372.9005693167881
 31
0.0
  0
LINE
  5
6069
330
5DD0
100
AcDbEntity
  8
0
 48
0.25
100
AcDbLine
 10
66.49999999999931
 20
421.9005693167861
 30
0.0
 11
66.49999999999931
 21
372.6005693167888
 31
0.0
  0
LINE
  5
606A
330
5DD0
100
AcDbEntity
  8
0
100
AcDbLine
 10
34.73715797660975
 20
396.2227575167879
 30
0.0
 11
36.11108256052216
 21
404.0146677294822
 31
0.0
  0
LINE
  5
606B
330
5DD0
100
AcDbEntity
  8
0
100
AcDbLine
 10
21.23715797660975
 20
396.2227575167879
 30
0.0
 11
22.61108256052216
 21
404.0146677294822
 31
0.0
  0
LINE
  5
606C
330
5DD0
100
AcDbEntity
  8
0
100
AcDbLine
 10
19.72948657661004
 20
396.8862784167875
 30
0.0
 11
20.97340247742636
 21
403.9409677220352
 31
0.0
  0
LINE
  5
606D
330
5DD0
100
AcDbEntity
  8
0
100
AcDbLine
 10
25.79265037660957
 20
397.9005682167878
 30
0.0
 11
26.85759213982624
 21
403.940468074408
 31
0.0
  0
LINE
  5
606E
330
5DD0
100
AcDbEntity
  8
0
100
AcDbLine
 10
27.41734897661013
 20
397.9005682167878
 30
0.0
 11
28.4954304157875
 21
404.0148586615229
 31
0.0
  0
LINE
  5
606F
330
5DD0
100
AcDbEntity
  8
0
100
AcDbLine
 10
33.22948657661005
 20
396.8862784167875
 30
0.0
 11
34.47340247742636
 21
403.9409677220352
 31
0.0
  0
LINE
  5
6070
330
5DD0
100
AcDbEntity
  8
0
100
AcDbLine
 10
13.91734897661013
 20
397.9005682167878
 30
0.0
 11
14.99543041578749
 21
404.0148586615229
 31
0.0
  0
ARC
  5
6071
330
5DD0
100
AcDbEntity
  8
0
100
AcDbCircle
 10
117.8000000000099
 20
372.0425742557361
 30
0.0
 40
5.0
100
AcDbArc
 50
0.0
 51
90.0
  0
LINE
  5
6072
330
5DD0
100
AcDbEntity
  8
0
100
AcDbLine
 10
122.8000000000099
 20
359.6005693167878
 30
0.0
 11
122.8000000000099
 21
372.0425742557361
 31
0.0
  0
ARC
  5
6073
330
5DD0
100
AcDbEntity
  8
0
100
AcDbCircle
 10
117.8000000000099
 20
347.1585643778405
 30
0.0
 40
5.0
100
AcDbArc
 50
270.0
 51
0.0
  0
LINE
  5
6074
330
5DD0
100
AcDbEntity
  8
0
100
AcDbLine
 10
122.8000000000099
 20
359.6005693167878
 30
0.0
 11
122.8000000000099
 21
347.1585643778405
 31
0.0
  0
ARC
  5
6075
330
5DD0
100
AcDbEntity
  8
0
 48
0.25
100
AcDbCircle
 10
-64.4999999999975
 20
350.600569316787
 30
0.0000000000000438
 40
2.0
100
AcDbArc
 50
180.0
 51
270.0
  0
POINT
  5
6076
330
5DD0
100
AcDbEntity
  8
0
100
AcDbPoint
 10
66.50000000000204
 20
360.6005693167861
 30
0.0000000000000693
  0
POINT
  5
6077
330
5DD0
100
AcDbEntity
  8
0
100
AcDbPoint
 10
66.50000000000204
 20
356.1005693167861
 30
0.0000000000000693
  0
POINT
  5
6078
330
5DD0
100
AcDbEntity
  8
0
100
AcDbPoint
 10
65.71490653572459
 20
363.1892801493358
 30
0.0000000000001068
  0
ARC
  5
6079
330
5DD0
100
AcDbEntity
  8
0
 48
0.25
100
AcDbCircle
 10
64.5000000000025
 20
361.600569316787
 30
0.0000000000001068
 40
2.0
100
AcDbArc
 50
0.0
 51
90.0
  0
LINE
  5
607A
330
5DD0
100
AcDbEntity
  8
0
100
AcDbLine
 10
20.00000000000114
 20
239.6005693167869
 30
0.0
 11
-20.00000000000205
 21
239.6005693167869
 31
0.0
  0
ARC
  5
607B
330
5DD0
100
AcDbEntity
  8
0
 48
0.25
100
AcDbCircle
 10
-105.9999999999972
 20
353.4598546102304
 30
0.0
 40
2.0
100
AcDbArc
 50
300.0000000000005
 51
0.0
  0
LINE
  5
607C
330
5DD0
100
AcDbEntity
  8
0
 48
0.25
100
AcDbLine
 10
-106.3999999999969
 20
350.9195134257968
 30
0.0
 11
-104.9999999999972
 21
351.7278038026623
 31
0.0
  0
ENDBLK
  5
607D
330
5DD0
100
AcDbEntity
  8
0
 62
     2
100
AcDbBlockEnd
  0
BLOCK
  5
607F
330
607E
100
AcDbEntity
  8
0
 62
     2
100
AcDbBlockBegin
  2
2
 70
     0
 10
0.0
 20
0.0
 30
0.0
  3
2
  1

  0
LINE
  5
6080
330
607E
100
AcDbEntity
  8
0
100
AcDbLine
 10
-116.4968808339995
 20
-115.5
 30
0.0
 11
182.9776652454634
 21
-115.5
 31
0.0
  0
LINE
  5
6081
330
607E
100
AcDbEntity
  8
0
100
AcDbLine
 10
-118.4010544000002
 20
-104.0
 30
0.0
 11
-207.4523568016721
 21
-104.0000000000001
 31
0.0
  0
LINE
  5
6082
330
607E
100
AcDbEntity
  8
0
100
AcDbLine
 10
237.6359481999998
 20
-97.0
 30
0.0
 11
-237.6358565999999
 21
-97.0
 31
0.0
  0
LINE
  5
6083
330
607E
100
AcDbEntity
  8
0
100
AcDbLine
 10
-264.9999618000002
 20
-70.0
 30
0.0
 11
264.9999465999999
 21
-70.0
 31
0.0
  0
LINE
  5
6084
330
607E
100
AcDbEntity
  8
0
100
AcDbLine
 10
253.4999465999999
 20
0.0
 30
0.0
 11
-253.4999465999999
 21
0.0
 31
0.0
  0
ARC
  5
6085
330
607E
100
AcDbEntity
  8
0
100
AcDbCircle
 10
-253.4999465999999
 20
-11.5
 30
0.0
 40
11.5
100
AcDbArc
 50
90.0
 51
180.0
  0
LINE
  5
6086
330
607E
100
AcDbEntity
  8
0
100
AcDbLine
 10
-264.9999618000002
 20
-11.5
 30
0.0
 11
-264.9999618000002
 21
-70.0
 31
0.0
  0
ARC
  5
6087
330
607E
100
AcDbEntity
  8
0
100
AcDbCircle
 10
-237.6358565999999
 20
-91.0
 30
0.0
 40
6.0
100
AcDbArc
 50
196.6990966999949
 51
270.0
  0
LINE
  5
6088
330
607E
100
AcDbEntity
  8
0
100
AcDbLine
 10
-207.4523568016721
 20
-104.0000000000002
 30
0.0
 11
-209.9999465999999
 21
-97.0
 31
0.0
  0
LINE
  5
6089
330
607E
100
AcDbEntity
  8
0
100
AcDbLine
 10
-243.3828506
 20
-92.72409049999986
 30
0.0
 11
-250.1999587999999
 21
-70.0
 31
0.0
  0
LINE
  5
608A
330
607E
100
AcDbEntity
  8
0
100
AcDbLine
 10
77.99884799999927
 20
-104.5
 30
0.0
 11
143.9999465999999
 21
-104.5
 31
0.0
  0
LINE
  5
608B
330
607E
100
AcDbEntity
  8
0
100
AcDbLine
 10
-48.00005340000007
 20
-104.5
 30
0.0
 11
10.99994659999993
 21
-104.5
 31
0.0
  0
LINE
  5
608C
330
607E
100
AcDbEntity
  8
0
100
AcDbLine
 10
-56.00005340000007
 20
-104.5
 30
0.0
 11
-55.61699290000071
 21
-115.5
 31
0.0
  0
LINE
  5
608D
330
607E
100
AcDbEntity
  8
0
100
AcDbLine
 10
-48.00005340000007
 20
-104.5
 30
0.0
 11
-48.38494490000083
 21
-115.5
 31
0.0
  0
LINE
  5
608E
330
607E
100
AcDbEntity
  8
0
100
AcDbLine
 10
-118.0000534000001
 20
-104.0
 30
0.0
 11
-117.6040492228192
 21
-115.3566999523466
 31
0.0
  0
LINE
  5
608F
330
607E
100
AcDbEntity
  8
0
100
AcDbLine
 10
-109.0000534
 20
-104.5
 30
0.0
 11
-109.3849564000002
 21
-115.5
 31
0.0
  0
LINE
  5
6090
330
607E
100
AcDbEntity
  8
0
100
AcDbLine
 10
-108.6151504000008
 20
-104.5
 30
0.0
 11
-56.00005340000007
 21
-104.5
 31
0.0
  0
LINE
  5
6091
330
607E
100
AcDbEntity
  8
0
100
AcDbLine
 10
77.99884799999927
 20
-104.5
 30
0.0
 11
77.6138381999999
 21
-115.5
 31
0.0
  0
LINE
  5
6092
330
607E
100
AcDbEntity
  8
0
100
AcDbLine
 10
69.99884799999927
 20
-104.5
 30
0.0
 11
70.38275909999993
 21
-115.5
 31
0.0
  0
LINE
  5
6093
330
607E
100
AcDbEntity
  8
0
100
AcDbLine
 10
10.99994659999993
 20
-104.5
 30
0.0
 11
11.3830070999993
 21
-115.5
 31
0.0
  0
LINE
  5
6094
330
607E
100
AcDbEntity
  8
0
100
AcDbLine
 10
18.99994659999993
 20
-104.5
 30
0.0
 11
18.61505699999998
 21
-115.5
 31
0.0
  0
LINE
  5
6095
330
607E
100
AcDbEntity
  8
0
100
AcDbLine
 10
19.38483619999988
 20
-104.5
 30
0.0
 11
69.99884799999927
 21
-104.5
 31
0.0
  0
LINE
  5
6096
330
607E
100
AcDbEntity
  8
0
100
AcDbLine
 10
152.9999465999999
 20
-104.0
 30
0.0
 11
210.1850988237752
 21
-104.0
 31
0.0
  0
LINE
  5
6097
330
607E
100
AcDbEntity
  8
0
100
AcDbLine
 10
143.9999465999999
 20
-104.5
 30
0.0
 11
144.3838424999994
 21
-115.5
 31
0.0
  0
LINE
  5
6098
330
607E
100
AcDbEntity
  8
0
100
AcDbLine
 10
152.9999465999999
 20
-104.0
 30
0.0
 11
152.5974502999997
 21
-115.5
 31
0.0
  0
LINE
  5
6099
330
607E
100
AcDbEntity
  8
0
100
AcDbLine
 10
205.632302570885
 20
-109.0000916000049
 30
0.0
 11
207.4518509
 21
-104.0
 31
0.0
  0
ARC
  5
609A
330
607E
100
AcDbEntity
  8
0
100
AcDbCircle
 10
253.4999465999999
 20
-11.5
 30
0.0
 40
11.5
100
AcDbArc
 50
0.0
 51
90.0
  0
LINE
  5
609B
330
607E
100
AcDbEntity
  8
0
100
AcDbLine
 10
264.9999465999999
 20
-11.5
 30
0.0
 11
264.9999465999999
 21
-70.0
 31
0.0
  0
ARC
  5
609C
330
607E
100
AcDbEntity
  8
0
100
AcDbCircle
 10
237.6359481999998
 20
-91.0
 30
0.0
 40
6.0
100
AcDbArc
 50
270.0
 51
343.3010025000029
  0
LINE
  5
609D
330
607E
100
AcDbEntity
  8
0
100
AcDbLine
 10
243.3731128428924
 20
-92.75640025630364
 30
0.0
 11
250.1999434999998
 21
-70.0
 31
0.0
  0
LINE
  5
609E
330
607E
100
AcDbEntity
  8
0
100
AcDbLine
 10
229.8150079762227
 20
-104.0
 30
0.0
 11
237.7678452
 21
-104.0
 31
0.0
  0
LINE
  5
609F
330
607E
100
AcDbEntity
  8
0
 48
0.25
100
AcDbLine
 10
371.6499466000001
 20
126.5612545585154
 30
0.0
 11
371.6499466000001
 21
-30.50008888346429
 31
0.0
  0
LINE
  5
60A0
330
607E
100
AcDbEntity
  8
0
 48
0.25
100
AcDbLine
 10
414.3499465999999
 20
137.4485550464908
 30
0.0
 11
414.3499465999999
 21
-30.49983593207912
 31
0.0
  0
SPLINE
  5
60A1
330
607E
100
AcDbEntity
  8
0
100
AcDbSpline
210
0.0
220
0.0
230
1.0
 70
     8
 71
     3
 72
    11
 73
     7
 74
     5
 42
0.0000000001
 43
0.0000000001
 44
0.0000000001
 40
0.0
 40
0.0
 40
0.0
 40
0.0
 40
14.04447813709437
 40
29.34954701111675
 40
42.65768563358522
 40
58.66521325127621
 40
58.66521325127621
 40
58.66521325127621
 40
58.66521325127621
 10
371.6499466000001
 20
131.5612545585163
 30
0.0
 10
373.3096305989059
 20
136.7636583914433
 30
0.0
 10
376.7779669140038
 20
147.6354184080739
 30
0.0
 10
394.05120569181
 20
141.9951911386985
 30
0.0
 10
403.7394998465242
 20
125.3784228891055
 30
0.0
 10
410.6024829950518
 20
136.419619556993
 30
0.0
 10
414.3499465999999
 20
142.4485550464908
 30
0.0
 11
371.6499466000001
 21
131.5612545585163
 31
0.0
 11
378.5561609760255
 21
143.7903824561099
 31
0.0
 11
393.3223597442841
 21
139.7649002272528
 31
0.0
 11
403.255982058453
 21
130.9088457268399
 31
0.0
 11
414.3499465999999
 21
142.4485550464908
 31
0.0
  0
SPLINE
  5
60A2
330
607E
100
AcDbEntity
  8
0
100
AcDbSpline
210
0.0
220
0.0
230
1.0
 70
     8
 71
     3
 72
    11
 73
     7
 74
     5
 42
0.0000000001
 43
0.0000000001
 44
0.0000000001
 40
0.0
 40
0.0
 40
0.0
 40
0.0
 40
14.04447813709512
 40
29.3495470111175
 40
42.65768563358597
 40
58.66521325127696
 40
58.66521325127696
 40
58.66521325127696
 40
58.66521325127696
 10
371.6499466000001
 20
126.5612545585154
 30
0.0
 10
373.3096305989058
 20
131.7636583914428
 30
0.0
 10
376.7779669140033
 20
142.6354184080739
 30
0.0
 10
394.0512056918099
 20
136.9951911386985
 30
0.0
 10
403.7394998465243
 20
120.3784228891055
 30
0.0
 10
410.602482995052
 20
131.419619556993
 30
0.0
 10
414.3499465999999
 20
137.4485550464908
 30
0.0
 11
371.6499466000001
 21
126.5612545585154
 31
0.0
 11
378.5561609760255
 21
138.7903824561099
 31
0.0
 11
393.3223597442841
 21
134.7649002272528
 31
0.0
 11
403.255982058453
 21
125.9088457268399
 31
0.0
 11
414.3499465999999
 21
137.4485550464908
 31
0.0
  0
LINE
  5
60A3
330
607E
100
AcDbEntity
  8
0
 48
0.25
100
AcDbLine
 10
371.6499465434383
 20
239.6005693095503
 30
0.0
 11
371.6499466000001
 21
131.5612545585154
 31
0.0
  0
LINE
  5
60A4
330
607E
100
AcDbEntity
  8
0
 48
0.25
100
AcDbLine
 10
414.3499465999999
 20
239.6005693167872
 30
0.0
 11
414.3499465999999
 21
142.4485550464908
 31
0.0
  0
LINE
  5
60A5
330
607E
100
AcDbEntity
  8
0
100
AcDbLine
 10
235.8705392279871
 20
-110.4935843039866
 30
0.0
 11
421.4885361958861
 21
-110.4935843039866
 31
0.0
  0
LINE
  5
60A6
330
607E
100
AcDbEntity
  8
0
100
AcDbLine
 10
367.4313637218968
 20
-30.50011387401173
 30
0.0
 11
419.3382277834555
 21
-30.49980638190027
 31
0.0
  0
ARC
  5
60A7
330
607E
100
AcDbEntity
  8
0
100
AcDbCircle
 10
424.9645230861844
 20
-101.4999624071424
 30
0.0
 40
1.0
100
AcDbArc
 50
270.0
 51
2.000000000212266
  0
ARC
  5
60A8
330
607E
100
AcDbEntity
  8
0
100
AcDbCircle
 10
424.9788319138334
 20
-101.5000972999914
 30
0.0
 40
1.0
100
AcDbArc
 50
270.0
 51
2.000000000212266
  0
LINE
  5
60A9
330
607E
100
AcDbEntity
  8
0
100
AcDbLine
 10
425.9782180302884
 20
-101.4651978032852
 30
0.0
 11
423.5674662180774
 21
-32.43029830659362
 31
0.0
  0
ARC
  5
60AA
330
607E
100
AcDbEntity
  8
0
100
AcDbCircle
 10
423.5918826999716
 20
-103.4744162126953
 30
0.0
 40
1.0
100
AcDbArc
 50
96.49601425933592
 51
180.0
  0
LINE
  5
60AB
330
607E
100
AcDbEntity
  8
0
100
AcDbLine
 10
423.3667101964113
 20
-102.5000972999914
 30
0.0
 11
424.9788272032693
 21
-102.5000972999914
 31
0.0
  0
ARC
  5
60AC
330
607E
100
AcDbEntity
  8
0
100
AcDbCircle
 10
424.9788272032693
 20
-101.5000972999914
 30
0.0
 40
1.0
100
AcDbArc
 50
270.0
 51
2.000000000212266
  0
ARC
  5
60AD
330
607E
100
AcDbEntity
  8
0
100
AcDbCircle
 10
421.5686845640395
 20
-32.50009729999147
 30
0.0
 40
2.0
100
AcDbArc
 50
2.000000000212266
 51
90.0
  0
LINE
  5
60AE
330
607E
100
AcDbEntity
  8
0
100
AcDbLine
 10
365.4325944944742
 20
-32.43029830659362
 30
0.0
 11
363.7899525455744
 21
-79.46940920835912
 31
0.0
  0
LINE
  5
60AF
330
607E
100
AcDbEntity
  8
0
100
AcDbLine
 10
233.6254239749905
 20
-110.5000972999914
 30
0.0
 11
422.5918826999714
 21
-110.5000972999914
 31
0.0
  0
LINE
  5
60B0
330
607E
100
AcDbEntity
  8
0
100
AcDbLine
 10
295.9854433599401
 20
-92.13790440178035
 30
0.0
 11
393.0000533999722
 21
-74.50736170114395
 31
0.0
  0
LINE
  5
60B1
330
607E
100
AcDbEntity
  8
0
100
AcDbLine
 10
422.5918826999714
 20
-110.5000972999914
 30
0.0
 11
422.5918826999714
 21
-103.4744162126953
 31
0.0
  0
LINE
  5
60B2
330
607E
100
AcDbEntity
  8
0
100
AcDbLine
 10
367.4313761485121
 20
-30.50009729999147
 30
0.0
 11
421.5686845640395
 21
-30.50009729999147
 31
0.0
  0
ARC
  5
60B3
330
607E
100
AcDbEntity
  8
0
100
AcDbCircle
 10
367.4313761485121
 20
-32.50009729999147
 30
0.0
 40
2.0
100
AcDbArc
 50
90.0
 51
177.9999999997876
  0
LINE
  5
60B4
330
607E
100
AcDbEntity
  8
0
100
AcDbLine
 10
422.2499466000036
 20
-128.0000915999977
 30
0.0
 11
391.7499466000002
 21
-128.0000916000124
 31
0.0
  0
LINE
  5
60B5
330
607E
100
AcDbEntity
  8
0
100
AcDbLine
 10
417.9999466000001
 20
-116.0000916000124
 30
0.0
 11
417.9999466000001
 21
-116.9253519720212
 31
0.0
  0
LINE
  5
60B6
330
607E
100
AcDbEntity
  8
0
100
AcDbLine
 10
422.7499466000038
 20
-120.8837550940068
 30
0.0
 11
422.7499466000038
 21
-127.5000915999978
 31
0.0
  0
LINE
  5
60B7
330
607E
100
AcDbEntity
  8
0
100
AcDbLine
 10
391.2499466000038
 20
-121.0000915999978
 30
0.0
 11
391.2499466000002
 21
-127.5000916000124
 31
0.0
  0
LINE
  5
60B8
330
607E
100
AcDbEntity
  8
0
100
AcDbLine
 10
415.9999466000001
 20
-114.0000916000124
 30
0.0
 11
397.9999466000002
 21
-114.0000916000124
 31
0.0
  0
LINE
  5
60B9
330
607E
100
AcDbEntity
  8
0
100
AcDbLine
 10
420.2234894646927
 20
-119.8231294508866
 30
0.0
 11
422.3793561225567
 21
-120.400792180865
 31
0.0
  0
LINE
  5
60BA
330
607E
100
AcDbEntity
  8
0
100
AcDbLine
 10
422.5705746140258
 20
-120.5000916000124
 30
0.0
 11
391.7499466000038
 21
-120.5000915999978
 31
0.0
  0
ARC
  5
60BB
330
607E
100
AcDbEntity
  8
0
100
AcDbCircle
 10
420.9999466000001
 20
-116.9253519720212
 30
0.0
 40
3.0
100
AcDbArc
 50
180.0
 51
254.9999999998981
  0
ARC
  5
60BC
330
607E
100
AcDbEntity
  8
0
100
AcDbCircle
 10
415.9999466000001
 20
-116.0000916000124
 30
0.0
 40
2.0
100
AcDbArc
 50
0.0
 51
90.0
  0
ARC
  5
60BD
330
607E
100
AcDbEntity
  8
0
100
AcDbCircle
 10
422.2499466000036
 20
-127.5000915999978
 30
0.0
 40
0.5
100
AcDbArc
 50
270.0
 51
0.0
  0
ARC
  5
60BE
330
607E
100
AcDbEntity
  8
0
100
AcDbCircle
 10
422.2499466000036
 20
-120.8837550940068
 30
0.0
 40
0.5
100
AcDbArc
 50
0.0
 51
74.99999999968165
  0
ARC
  5
60BF
330
607E
100
AcDbEntity
  8
0
100
AcDbCircle
 10
391.7499466000038
 20
-121.0000915999978
 30
0.0
 40
0.5
100
AcDbArc
 50
90.0
 51
180.0
  0
ARC
  5
60C0
330
607E
100
AcDbEntity
  8
0
100
AcDbCircle
 10
391.7499466000002
 20
-127.5000916000124
 30
0.0
 40
0.5
100
AcDbArc
 50
180.0
 51
270.0
  0
LINE
  5
60C1
330
607E
100
AcDbEntity
  8
0
100
AcDbLine
 10
393.7764037353074
 20
-119.8231294508866
 30
0.0
 11
391.6205370774435
 21
-120.400792180865
 31
0.0
  0
LINE
  5
60C2
330
607E
100
AcDbEntity
  8
0
100
AcDbLine
 10
391.2499465999965
 20
-120.8837550940068
 30
0.0
 11
391.2499465999965
 21
-127.5000915999978
 31
0.0
  0
ARC
  5
60C3
330
607E
100
AcDbEntity
  8
0
100
AcDbCircle
 10
391.7499465999965
 20
-120.8837550940068
 30
0.0
 40
0.5
100
AcDbArc
 50
105.0000000003183
 51
180.0
  0
ARC
  5
60C4
330
607E
100
AcDbEntity
  8
0
100
AcDbCircle
 10
391.7499465999965
 20
-127.5000915999978
 30
0.0
 40
0.5
100
AcDbArc
 50
180.0
 51
270.0
  0
LINE
  5
60C5
330
607E
100
AcDbEntity
  8
0
100
AcDbLine
 10
395.9999466000001
 20
-116.0000916000124
 30
0.0
 11
395.9999466000001
 21
-116.9253519720212
 31
0.0
  0
ARC
  5
60C6
330
607E
100
AcDbEntity
  8
0
100
AcDbCircle
 10
397.9999466000002
 20
-116.0000916000124
 30
0.0
 40
2.0
100
AcDbArc
 50
90.0
 51
180.0
  0
ARC
  5
60C7
330
607E
100
AcDbEntity
  8
0
100
AcDbCircle
 10
392.9999466000002
 20
-116.9253519720212
 30
0.0
 40
3.0
100
AcDbArc
 50
285.0000000001019
 51
0.0
  0
LINE
  5
60C8
330
607E
100
AcDbEntity
  8
0
100
AcDbLine
 10
410.9999465999747
 20
-114.0000915999978
 30
0.0
 11
410.9999465999747
 21
-110.4935843039866
 31
0.0
  0
LINE
  5
60C9
330
607E
100
AcDbEntity
  8
0
100
AcDbLine
 10
410.3234140999694
 20
-114.0000916000124
 30
0.0
 11
410.3234140999718
 21
-110.4935843039866
 31
0.0
  0
LINE
  5
60CA
330
607E
100
AcDbEntity
  8
0
100
AcDbLine
 10
402.9999465999773
 20
-110.4935843039866
 30
0.0
 11
402.9999465999783
 21
-114.0000915999978
 31
0.0
  0
LINE
  5
60CB
330
607E
100
AcDbEntity
  8
0
100
AcDbLine
 10
403.6764790999834
 20
-114.0000915999978
 30
0.0
 11
403.6764790999825
 21
-110.4935843039866
 31
0.0
  0
LINE
  5
60CC
330
607E
100
AcDbEntity
  8
0
100
AcDbLine
 10
407.3999466000051
 20
-120.5000916000124
 30
0.0
 11
407.3999466000051
 21
-128.0000915999977
 31
0.0
  0
LINE
  5
60CD
330
607E
100
AcDbEntity
  8
0
100
AcDbLine
 10
406.5999466000023
 20
-120.5000915999978
 30
0.0
 11
406.5999466000023
 21
-128.0000916000124
 31
0.0
  0
LINE
  5
60CE
330
607E
100
AcDbEntity
  8
0
100
AcDbLine
 10
408.8999466000052
 20
-120.5000916000124
 30
0.0
 11
408.8999466000052
 21
-128.0000915999977
 31
0.0
  0
LINE
  5
60CF
330
607E
100
AcDbEntity
  8
0
100
AcDbLine
 10
408.0999466000022
 20
-120.5000915999978
 30
0.0
 11
408.0999466000022
 21
-128.0000916000124
 31
0.0
  0
LINE
  5
60D0
330
607E
100
AcDbEntity
  8
0
100
AcDbLine
 10
409.5999466000022
 20
-120.5000915999978
 30
0.0
 11
409.5999466000022
 21
-128.0000916000124
 31
0.0
  0
LINE
  5
60D1
330
607E
100
AcDbEntity
  8
0
100
AcDbLine
 10
410.3999466000051
 20
-120.5000916000124
 30
0.0
 11
410.3999466000051
 21
-128.0000915999977
 31
0.0
  0
LINE
  5
60D2
330
607E
100
AcDbEntity
  8
0
100
AcDbLine
 10
411.8999466000052
 20
-120.5000916000124
 30
0.0
 11
411.8999466000052
 21
-128.0000915999977
 31
0.0
  0
LINE
  5
60D3
330
607E
100
AcDbEntity
  8
0
100
AcDbLine
 10
411.0999466000023
 20
-120.5000915999978
 30
0.0
 11
411.0999466000023
 21
-128.0000916000124
 31
0.0
  0
LINE
  5
60D4
330
607E
100
AcDbEntity
  8
0
100
AcDbLine
 10
412.5999466000022
 20
-120.5000915999978
 30
0.0
 11
412.5999466000022
 21
-128.0000916000124
 31
0.0
  0
LINE
  5
60D5
330
607E
100
AcDbEntity
  8
0
100
AcDbLine
 10
413.3999466000052
 20
-120.5000916000124
 30
0.0
 11
413.3999466000052
 21
-128.0000915999977
 31
0.0
  0
LINE
  5
60D6
330
607E
100
AcDbEntity
  8
0
100
AcDbLine
 10
414.8999466000051
 20
-120.5000916000124
 30
0.0
 11
414.8999466000051
 21
-128.0000915999977
 31
0.0
  0
LINE
  5
60D7
330
607E
100
AcDbEntity
  8
0
100
AcDbLine
 10
414.0999466000023
 20
-120.5000915999978
 30
0.0
 11
414.0999466000023
 21
-128.0000916000124
 31
0.0
  0
LINE
  5
60D8
330
607E
100
AcDbEntity
  8
0
100
AcDbLine
 10
415.5999466000023
 20
-120.5000915999978
 30
0.0
 11
415.5999466000023
 21
-128.0000916000124
 31
0.0
  0
LINE
  5
60D9
330
607E
100
AcDbEntity
  8
0
100
AcDbLine
 10
416.3999466000052
 20
-120.5000916000124
 30
0.0
 11
416.3999466000052
 21
-128.0000915999977
 31
0.0
  0
LINE
  5
60DA
330
607E
100
AcDbEntity
  8
0
100
AcDbLine
 10
417.8999466000052
 20
-120.5000916000124
 30
0.0
 11
417.8999466000052
 21
-128.0000915999977
 31
0.0
  0
LINE
  5
60DB
330
607E
100
AcDbEntity
  8
0
100
AcDbLine
 10
417.0999466000022
 20
-120.5000915999978
 30
0.0
 11
417.0999466000022
 21
-128.0000916000124
 31
0.0
  0
LINE
  5
60DC
330
607E
100
AcDbEntity
  8
0
100
AcDbLine
 10
418.5999466000023
 20
-120.5000915999978
 30
0.0
 11
418.5999466000023
 21
-128.0000916000124
 31
0.0
  0
LINE
  5
60DD
330
607E
100
AcDbEntity
  8
0
100
AcDbLine
 10
419.3999466000051
 20
-120.5000916000124
 30
0.0
 11
419.3999466000051
 21
-128.0000915999977
 31
0.0
  0
LINE
  5
60DE
330
607E
100
AcDbEntity
  8
0
100
AcDbLine
 10
420.8999466000052
 20
-120.5000916000124
 30
0.0
 11
420.8999466000052
 21
-128.0000915999977
 31
0.0
  0
LINE
  5
60DF
330
607E
100
AcDbEntity
  8
0
100
AcDbLine
 10
420.0999466000022
 20
-120.5000915999978
 30
0.0
 11
420.0999466000022
 21
-128.0000916000124
 31
0.0
  0
LINE
  5
60E0
330
607E
100
AcDbEntity
  8
0
100
AcDbLine
 10
421.5999466000022
 20
-120.5000915999978
 30
0.0
 11
421.5999466000022
 21
-128.0000916000124
 31
0.0
  0
LINE
  5
60E1
330
607E
100
AcDbEntity
  8
0
100
AcDbLine
 10
422.3999466000051
 20
-120.5000916000124
 30
0.0
 11
422.3999466000051
 21
-128.0000915999977
 31
0.0
  0
LINE
  5
60E2
330
607E
100
AcDbEntity
  8
0
100
AcDbLine
 10
391.5999466000024
 20
-120.5000916000124
 30
0.0
 11
391.5999466000024
 21
-128.0000915999977
 31
0.0
  0
LINE
  5
60E3
330
607E
100
AcDbEntity
  8
0
100
AcDbLine
 10
392.3999466000054
 20
-120.5000915999978
 30
0.0
 11
392.3999466000054
 21
-128.0000916000124
 31
0.0
  0
LINE
  5
60E4
330
607E
100
AcDbEntity
  8
0
100
AcDbLine
 10
393.8999466000053
 20
-120.5000915999978
 30
0.0
 11
393.8999466000053
 21
-128.0000916000124
 31
0.0
  0
LINE
  5
60E5
330
607E
100
AcDbEntity
  8
0
100
AcDbLine
 10
393.0999466000023
 20
-120.5000916000124
 30
0.0
 11
393.0999466000023
 21
-128.0000915999977
 31
0.0
  0
LINE
  5
60E6
330
607E
100
AcDbEntity
  8
0
100
AcDbLine
 10
394.5999466000023
 20
-120.5000916000124
 30
0.0
 11
394.5999466000023
 21
-128.0000915999977
 31
0.0
  0
LINE
  5
60E7
330
607E
100
AcDbEntity
  8
0
100
AcDbLine
 10
395.3999466000054
 20
-120.5000915999978
 30
0.0
 11
395.3999466000054
 21
-128.0000916000124
 31
0.0
  0
LINE
  5
60E8
330
607E
100
AcDbEntity
  8
0
100
AcDbLine
 10
396.8999466000052
 20
-120.5000915999978
 30
0.0
 11
396.8999466000052
 21
-128.0000916000124
 31
0.0
  0
LINE
  5
60E9
330
607E
100
AcDbEntity
  8
0
100
AcDbLine
 10
396.0999466000023
 20
-120.5000916000124
 30
0.0
 11
396.0999466000023
 21
-128.0000915999977
 31
0.0
  0
LINE
  5
60EA
330
607E
100
AcDbEntity
  8
0
100
AcDbLine
 10
397.5999466000023
 20
-120.5000916000124
 30
0.0
 11
397.5999466000023
 21
-128.0000915999977
 31
0.0
  0
LINE
  5
60EB
330
607E
100
AcDbEntity
  8
0
100
AcDbLine
 10
398.3999466000054
 20
-120.5000915999978
 30
0.0
 11
398.3999466000054
 21
-128.0000916000124
 31
0.0
  0
LINE
  5
60EC
330
607E
100
AcDbEntity
  8
0
100
AcDbLine
 10
399.8999466000054
 20
-120.5000915999978
 30
0.0
 11
399.8999466000054
 21
-128.0000916000124
 31
0.0
  0
LINE
  5
60ED
330
607E
100
AcDbEntity
  8
0
100
AcDbLine
 10
399.0999466000023
 20
-120.5000916000124
 30
0.0
 11
399.0999466000023
 21
-128.0000915999977
 31
0.0
  0
LINE
  5
60EE
330
607E
100
AcDbEntity
  8
0
100
AcDbLine
 10
400.5999466000022
 20
-120.5000916000124
 30
0.0
 11
400.5999466000022
 21
-128.0000915999977
 31
0.0
  0
LINE
  5
60EF
330
607E
100
AcDbEntity
  8
0
100
AcDbLine
 10
401.3999466000051
 20
-120.5000915999978
 30
0.0
 11
401.3999466000051
 21
-128.0000916000124
 31
0.0
  0
LINE
  5
60F0
330
607E
100
AcDbEntity
  8
0
100
AcDbLine
 10
402.8999466000051
 20
-120.5000915999978
 30
0.0
 11
402.8999466000051
 21
-128.0000916000124
 31
0.0
  0
LINE
  5
60F1
330
607E
100
AcDbEntity
  8
0
100
AcDbLine
 10
402.0999466000023
 20
-120.5000916000124
 30
0.0
 11
402.0999466000023
 21
-128.0000915999977
 31
0.0
  0
LINE
  5
60F2
330
607E
100
AcDbEntity
  8
0
100
AcDbLine
 10
403.5999466000022
 20
-120.5000916000124
 30
0.0
 11
403.5999466000022
 21
-128.0000915999977
 31
0.0
  0
LINE
  5
60F3
330
607E
100
AcDbEntity
  8
0
100
AcDbLine
 10
404.3999466000052
 20
-120.5000915999978
 30
0.0
 11
404.3999466000052
 21
-128.0000916000124
 31
0.0
  0
LINE
  5
60F4
330
607E
100
AcDbEntity
  8
0
100
AcDbLine
 10
405.8999466000051
 20
-120.5000915999978
 30
0.0
 11
405.8999466000051
 21
-128.0000916000124
 31
0.0
  0
LINE
  5
60F5
330
607E
100
AcDbEntity
  8
0
100
AcDbLine
 10
405.0999466000022
 20
-120.5000916000124
 30
0.0
 11
405.0999466000022
 21
-128.0000915999977
 31
0.0
  0
LINE
  5
60F6
330
607E
100
AcDbEntity
  8
0
100
AcDbLine
 10
393.0000533999722
 20
-74.50009729999147
 30
0.0
 11
423.1051984216758
 21
-74.50009729999237
 31
0.0
  0
LINE
  5
60F7
330
607E
100
AcDbEntity
  8
0
100
AcDbLine
 10
-228.9999466000008
 20
-98.99999999999728
 30
0.0
 11
-210.9999466000008
 21
-98.99999999999728
 31
0.0
  0
LINE
  5
60F8
330
607E
100
AcDbEntity
  8
0
100
AcDbLine
 10
-228.9999466000008
 20
-96.99999999999727
 30
0.0
 11
-228.9999466000008
 21
-98.99999999999728
 31
0.0
  0
LINE
  5
60F9
330
607E
100
AcDbEntity
  8
0
100
AcDbLine
 10
-210.9999466000008
 20
-96.99999999999727
 30
0.0
 11
-210.9999466000008
 21
-98.99999999999728
 31
0.0
  0
LINE
  5
60FA
330
607E
100
AcDbEntity
  8
0
100
AcDbLine
 10
-228.9999466000008
 20
-97.00000000000272
 30
0.0
 11
-210.9999466000008
 21
-96.99999999999727
 31
0.0
  0
LINE
  5
60FB
330
607E
100
AcDbEntity
  8
0
100
AcDbLine
 10
211.0000533999992
 20
-98.99999999999728
 30
0.0
 11
229.0000533999992
 21
-98.99999999999728
 31
0.0
  0
LINE
  5
60FC
330
607E
100
AcDbEntity
  8
0
100
AcDbLine
 10
211.0000533999992
 20
-96.99999999999727
 30
0.0
 11
211.0000533999992
 21
-98.99999999999728
 31
0.0
  0
LINE
  5
60FD
330
607E
100
AcDbEntity
  8
0
100
AcDbLine
 10
229.0000533999992
 20
-96.99999999999727
 30
0.0
 11
229.0000533999992
 21
-98.99999999999728
 31
0.0
  0
LINE
  5
60FE
330
607E
100
AcDbEntity
  8
0
100
AcDbLine
 10
211.0000533999992
 20
-97.00000000000272
 30
0.0
 11
229.0000533999992
 21
-96.99999999999727
 31
0.0
  0
LINE
  5
60FF
330
607E
100
AcDbEntity
  8
0
 48
0.25
100
AcDbLine
 10
371.6499466000001
 20
239.6005693167881
 30
0.0
 11
371.6499466000001
 21
131.5612545585163
 31
0.0
  0
LINE
  5
6100
330
607E
100
AcDbEntity
  8
0
 48
0.25
100
AcDbLine
 10
414.3499465999999
 20
239.6005693167881
 30
0.0
 11
414.3499465999999
 21
142.4485550464915
 31
0.0
  0
LINE
  5
6101
330
607E
100
AcDbEntity
  8
0
 48
0.25
100
AcDbLine
 10
411.6017101383715
 20
462.6005693167871
 30
0.0
 11
417.1999736767427
 21
462.6005693167871
 31
0.0
  0
LINE
  5
6102
330
607E
100
AcDbEntity
  8
0
 48
0.25
100
AcDbLine
 10
419.3880737810288
 20
256.6005693167872
 30
0.0
 11
407.9999466000002
 21
256.6005693167872
 31
0.0
  0
ARC
  5
6103
330
607E
100
AcDbEntity
  8
0
 48
0.25
100
AcDbCircle
 10
414.9999466000001
 20
246.6005693167872
 30
0.0
 40
5.000000000000316
100
AcDbArc
 50
0.0
 51
180.0
  0
LINE
  5
6104
330
607E
100
AcDbEntity
  8
0
 48
0.25
100
AcDbLine
 10
432.9999466000002
 20
239.6005693167881
 30
0.0
 11
352.9999466000002
 21
239.6005693167881
 31
0.0
  0
LINE
  5
6105
330
607E
100
AcDbEntity
  8
0
 48
0.25
100
AcDbLine
 10
432.9999466000002
 20
239.6005693167881
 30
0.0
 11
352.9999466000002
 21
239.6005693167881
 31
0.0
  0
LINE
  5
6106
330
607E
100
AcDbEntity
  8
0
 48
0.25
100
AcDbLine
 10
431.8601388328645
 20
274.8469554575063
 30
0.0
 11
412.3396391029769
 21
364.697263724961
 31
0.0
  0
LINE
  5
6107
330
607E
100
AcDbEntity
  8
0
 48
0.25
100
AcDbLine
 10
424.2740930043153
 20
262.662085284484
 30
0.0
 11
405.5759220538345
 21
348.7273216864987
 31
0.0
  0
LINE
  5
6108
330
607E
100
AcDbEntity
  8
0
 48
0.25
100
AcDbLine
 10
357.9999466000002
 20
446.6005693167871
 30
0.0
 11
357.9999466000006
 21
292.61491564776
 31
0.0
  0
LINE
  5
6109
330
607E
100
AcDbEntity
  8
0
 48
0.25
100
AcDbLine
 10
376.6128049573656
 20
274.6620852759152
 30
0.0
 11
388.1139272466246
 21
327.6002480354364
 31
0.0
  0
LINE
  5
610A
330
607E
100
AcDbEntity
  8
0
 48
0.25
100
AcDbLine
 10
361.7258001956855
 20
262.6620852844844
 30
0.0
 11
380.4239711461658
 21
348.7273216864987
 31
0.0
  0
LINE
  5
610B
330
607E
100
AcDbEntity
  8
0
 48
0.25
100
AcDbLine
 10
409.3870881731974
 20
274.6620852930537
 30
0.0
 11
397.8859656931975
 21
327.6002480354364
 31
0.0
  0
LINE
  5
610C
330
607E
100
AcDbEntity
  8
0
 48
0.25
100
AcDbLine
 10
354.1397543671358
 20
274.8469554575067
 30
0.0
 11
373.6602540970232
 21
364.697263724961
 31
0.0
  0
LINE
  5
610D
330
607E
100
AcDbEntity
  8
0
 48
0.25
100
AcDbLine
 10
409.9999466000001
 20
239.6005693167881
 30
0.0
 11
409.9999466000001
 21
246.6005693167872
 31
0.0
  0
ARC
  5
610E
330
607E
100
AcDbEntity
  8
0
 48
0.25
100
AcDbCircle
 10
401.1524257385933
 20
241.200569316788
 30
0.0
 40
0.8
100
AcDbArc
 50
29.99999999999729
 51
90.0
  0
LINE
  5
610F
330
607E
100
AcDbEntity
  8
0
 48
0.25
100
AcDbLine
 10
402.9999466000001
 20
239.6005693167881
 30
0.0
 11
401.8452460616209
 21
241.6005693167881
 31
0.0
  0
LINE
  5
6110
330
607E
100
AcDbEntity
  8
0
 48
0.25
100
AcDbLine
 10
402.9999466000001
 20
251.6005693167872
 30
0.0
 11
402.9999466000001
 21
239.6005693167881
 31
0.0
  0
ARC
  5
6111
330
607E
100
AcDbEntity
  8
0
 48
0.25
100
AcDbCircle
 10
407.9999466000002
 20
251.6005693167872
 30
0.0
 40
5.0
100
AcDbArc
 50
90.0
 51
180.0
  0
ARC
  5
6112
330
607E
100
AcDbEntity
  8
0
 48
10.0
100
AcDbCircle
 10
384.8474674614074
 20
241.2005693167885
 30
0.0
 40
0.8
100
AcDbArc
 50
90.0
 51
150.0000000000027
  0
LINE
  5
6113
330
607E
100
AcDbEntity
  8
0
 48
0.25
100
AcDbLine
 10
382.9999466000002
 20
239.6005693167881
 30
0.0
 11
384.1546471383797
 21
241.6005693167881
 31
0.0
  0
LINE
  5
6114
330
607E
100
AcDbEntity
  8
0
 48
0.25
100
AcDbLine
 10
365.9999466000002
 20
239.6005693167881
 30
0.0
 11
365.9999466000002
 21
244.6005693167881
 31
0.0
  0
ARC
  5
6115
330
607E
100
AcDbEntity
  8
0
 48
0.25
100
AcDbCircle
 10
377.9999466000002
 20
251.6005693167872
 30
0.0
 40
5.0
100
AcDbArc
 50
0.0
 51
90.0
  0
LINE
  5
6116
330
607E
100
AcDbEntity
  8
0
 48
0.25
100
AcDbLine
 10
377.9999466000002
 20
256.6005693167872
 30
0.0
 11
366.6118194189714
 21
256.6005693167872
 31
0.0
  0
LINE
  5
6117
330
607E
100
AcDbEntity
  8
0
 48
0.25
100
AcDbLine
 10
382.9999466000002
 20
251.6005693167872
 30
0.0
 11
382.9999466000002
 21
239.6005693167881
 31
0.0
  0
ARC
  5
6118
330
607E
100
AcDbEntity
  8
0
 48
0.25
100
AcDbCircle
 10
366.6118194189714
 20
261.6005693167872
 30
0.0
 40
5.0
100
AcDbArc
 50
167.742640486227
 51
270.0
  0
ARC
  5
6119
330
607E
100
AcDbEntity
  8
0
 48
0.25
100
AcDbCircle
 10
370.9999466000001
 20
246.6005693167881
 30
0.0
 40
5.000000000000316
100
AcDbArc
 50
0.0
 51
180.0
  0
LINE
  5
611A
330
607E
100
AcDbEntity
  8
0
 48
0.25
100
AcDbLine
 10
375.9999466000002
 20
239.6005693167881
 30
0.0
 11
375.9999466000002
 21
246.6005693167872
 31
0.0
  0
LINE
  5
611B
330
607E
100
AcDbEntity
  8
0
 48
0.25
100
AcDbLine
 10
365.9999466000002
 20
239.6005693167881
 30
0.0
 11
365.9999466000002
 21
246.6005693167872
 31
0.0
  0
ARC
  5
611C
330
607E
100
AcDbEntity
  8
0
 48
0.25
100
AcDbCircle
 10
381.4988241825142
 20
273.6005693167881
 30
0.0
 40
5.0
100
AcDbArc
 50
167.7426405867204
 51
270.0
  0
LINE
  5
611D
330
607E
100
AcDbEntity
  8
0
100
AcDbLine
 10
352.9999466000002
 20
239.6005693167881
 30
0.0
 11
352.9999466000002
 21
264.2317957805381
 31
0.0
  0
ARC
  5
611E
330
607E
100
AcDbEntity
  8
0
 48
0.25
100
AcDbCircle
 10
402.9999466000001
 20
264.2317957805381
 30
0.0
 40
50.0
100
AcDbArc
 50
167.742640486227
 51
180.0
  0
LINE
  5
611F
330
607E
100
AcDbEntity
  8
0
 48
10.0
100
AcDbLine
 10
401.1524257385933
 20
242.0005693167882
 30
0.0
 11
384.8474674614074
 21
242.0005693167882
 31
0.0
  0
LINE
  5
6120
330
607E
100
AcDbEntity
  8
0
 48
0.25
100
AcDbLine
 10
404.5010689517733
 20
268.6005693167872
 30
0.0
 11
381.4988241825142
 21
268.6005693167881
 31
0.0
  0
LINE
  5
6121
330
607E
100
AcDbEntity
  8
0
100
AcDbLine
 10
371.6499465434383
 20
239.6005693095503
 30
0.0
 11
414.3499466565619
 21
239.6005693240259
 31
0.0
  0
LINE
  5
6122
330
607E
100
AcDbEntity
  8
0
 48
0.25
100
AcDbLine
 10
352.9999466000002
 20
239.6005693167881
 30
0.0
 11
410.3849449083569
 21
239.6005693167881
 31
0.0
  0
LINE
  5
6123
330
607E
100
AcDbEntity
  8
0
100
AcDbLine
 10
372.9999466000001
 20
239.6005693167881
 30
0.0
 11
412.9999466000001
 21
239.6005693167881
 31
0.0
  0
ARC
  5
6124
330
607E
100
AcDbEntity
  8
0
100
AcDbCircle
 10
408.1606608857143
 20
353.0888305054618
 30
0.0
 40
1.0
100
AcDbArc
 50
336.7558005554619
 51
40.63016605728511
  0
ARC
  5
6125
330
607E
100
AcDbEntity
  8
0
100
AcDbCircle
 10
408.1606608857143
 20
366.1123081281143
 30
0.0
 40
1.0
100
AcDbArc
 50
319.3698339427149
 51
23.24419944453811
  0
ARC
  5
6126
330
607E
100
AcDbEntity
  8
0
100
AcDbCircle
 10
415.3479605004074
 20
350.8503536218924
 30
0.0
 40
10.0
100
AcDbArc
 50
191.7107337659944
 51
192.2573595137729
  0
ARC
  5
6127
330
607E
100
AcDbEntity
  8
0
100
AcDbCircle
 10
392.9999466000002
 20
359.6005693167881
 30
0.0
 40
14.0
100
AcDbArc
 50
353.2331034585819
 51
6.766896541418128
  0
ARC
  5
6128
330
607E
100
AcDbEntity
  8
0
100
AcDbCircle
 10
392.9999466000002
 20
359.6005693167881
 30
0.0
 40
14.0
100
AcDbArc
 50
53.23310345859417
 51
66.76689654141465
  0
ARC
  5
6129
330
607E
100
AcDbEntity
  8
0
100
AcDbCircle
 10
391.0589206905608
 20
343.2151362001787
 30
0.0
 40
1.0
100
AcDbArc
 50
199.3698339427165
 51
263.2441994445481
  0
ARC
  5
612A
330
607E
100
AcDbEntity
  8
0
100
AcDbCircle
 10
394.9409725094395
 20
343.2151362001787
 30
0.0
 40
1.0
100
AcDbArc
 50
276.7558005554519
 51
340.6301660572836
  0
ARC
  5
612B
330
607E
100
AcDbEntity
  8
0
100
AcDbCircle
 10
406.219634976275
 20
349.726875011505
 30
0.0
 40
1.0
100
AcDbArc
 50
259.3698339426935
 51
323.2441994445427
  0
ARC
  5
612C
330
607E
100
AcDbEntity
  8
0
100
AcDbCircle
 10
392.9999466000002
 20
359.6005693167881
 30
0.0
 40
17.5
100
AcDbArc
 50
263.2441994445481
 51
276.7558005554519
  0
ARC
  5
612D
330
607E
100
AcDbEntity
  8
0
100
AcDbCircle
 10
404.3749466000001
 20
339.8984913806917
 30
0.0
 40
9.0
100
AcDbArc
 50
79.3698339427069
 51
160.6301660572835
  0
ARC
  5
612E
330
607E
100
AcDbEntity
  8
0
100
AcDbCircle
 10
406.219634976275
 20
369.4742636220713
 30
0.0
 40
1.0
100
AcDbArc
 50
36.7558005554573
 51
100.6301660573065
  0
ARC
  5
612F
330
607E
100
AcDbEntity
  8
0
100
AcDbCircle
 10
394.9409725094395
 20
375.9860024333975
 30
0.0
 40
1.0
100
AcDbArc
 50
19.3698339427165
 51
83.24419944454811
  0
ARC
  5
6130
330
607E
100
AcDbEntity
  8
0
100
AcDbCircle
 10
391.0589206905608
 20
375.9860024333975
 30
0.0
 40
1.0
100
AcDbArc
 50
96.75580055545188
 51
160.6301660572835
  0
ARC
  5
6131
330
607E
100
AcDbEntity
  8
0
100
AcDbCircle
 10
392.9999466000002
 20
359.6005693167881
 30
0.0
 40
17.5
100
AcDbArc
 50
83.24419944454811
 51
96.75580055545188
  0
ARC
  5
6132
330
607E
100
AcDbEntity
  8
0
100
AcDbCircle
 10
404.3749466000001
 20
379.3026472528845
 30
0.0
 40
9.0
100
AcDbArc
 50
199.3698339427165
 51
280.6301660572931
  0
ARC
  5
6133
330
607E
100
AcDbEntity
  8
0
100
AcDbCircle
 10
415.7499466000006
 20
359.6005693167881
 30
0.0
 40
9.0
100
AcDbArc
 50
139.3698339427148
 51
220.6301660572851
  0
ARC
  5
6134
330
607E
100
AcDbEntity
  8
0
100
AcDbCircle
 10
392.9999466000002
 20
359.6005693167881
 30
0.0
 40
17.5
100
AcDbArc
 50
323.2441994445427
 51
336.7558005554619
  0
ARC
  5
6135
330
607E
100
AcDbEntity
  8
0
100
AcDbCircle
 10
392.9999466000002
 20
359.6005693167881
 30
0.0
 40
17.5
100
AcDbArc
 50
23.24419944453811
 51
36.7558005554573
  0
LINE
  5
6136
330
607E
100
AcDbEntity
  8
0
 48
0.25
100
AcDbLine
 10
355.9999466000006
 20
429.9005693167873
 30
0.0
 11
355.9999466000006
 21
364.6005693167881
 31
0.0
  0
ARC
  5
6137
330
607E
100
AcDbEntity
  8
0
100
AcDbCircle
 10
392.9999466000002
 20
359.6005693167881
 30
0.0
 40
14.0
100
AcDbArc
 50
173.2331034585819
 51
186.766896541418
  0
ARC
  5
6138
330
607E
100
AcDbEntity
  8
0
100
AcDbCircle
 10
370.6519326995929
 20
350.8503536218924
 30
0.0
 40
10.0
100
AcDbArc
 50
347.7426404862271
 51
348.2892662340055
  0
ARC
  5
6139
330
607E
100
AcDbEntity
  8
0
100
AcDbCircle
 10
392.9999466000002
 20
359.6005693167881
 30
0.0
 40
14.0
100
AcDbArc
 50
113.2331034585853
 51
126.7668965414058
  0
ARC
  5
613A
330
607E
100
AcDbEntity
  8
0
100
AcDbCircle
 10
370.2499465999997
 20
359.6005693167881
 30
0.0
 40
9.0
100
AcDbArc
 50
319.3698339427149
 51
40.63016605728511
  0
ARC
  5
613B
330
607E
100
AcDbEntity
  8
0
100
AcDbCircle
 10
377.8392323142859
 20
353.0888305054618
 30
0.0
 40
1.0
100
AcDbArc
 50
139.3698339427148
 51
203.2441994445381
  0
ARC
  5
613C
330
607E
100
AcDbEntity
  8
0
100
AcDbCircle
 10
379.7802582237252
 20
349.726875011505
 30
0.0
 40
1.0
100
AcDbArc
 50
216.7558005554573
 51
280.6301660573065
  0
ARC
  5
613D
330
607E
100
AcDbEntity
  8
0
100
AcDbCircle
 10
392.9999466000002
 20
359.6005693167881
 30
0.0
 40
17.5
100
AcDbArc
 50
203.2441994445381
 51
216.7558005554573
  0
ARC
  5
613E
330
607E
100
AcDbEntity
  8
0
100
AcDbCircle
 10
379.7802582237252
 20
369.4742636220713
 30
0.0
 40
1.0
100
AcDbArc
 50
79.36983394269351
 51
143.2441994445427
  0
ARC
  5
613F
330
607E
100
AcDbEntity
  8
0
100
AcDbCircle
 10
377.8392323142859
 20
366.1123081281143
 30
0.0
 40
1.0
100
AcDbArc
 50
156.7558005554619
 51
220.6301660572851
  0
ARC
  5
6140
330
607E
100
AcDbEntity
  8
0
100
AcDbCircle
 10
392.9999466000002
 20
359.6005693167881
 30
0.0
 40
17.5
100
AcDbArc
 50
143.2441994445427
 51
156.7558005554619
  0
ARC
  5
6141
330
607E
100
AcDbEntity
  8
0
 48
0.25
100
AcDbCircle
 10
357.9999466000006
 20
349.6005693167898
 30
0.0
 40
1.0
100
AcDbArc
 50
180.0
 51
270.0
  0
ARC
  5
6142
330
607E
100
AcDbEntity
  8
0
 48
0.25
100
AcDbCircle
 10
356.9999466000006
 20
364.6005693167881
 30
0.0
 40
1.0
100
AcDbArc
 50
180.0
 51
270.0
  0
LINE
  5
6143
330
607E
100
AcDbEntity
  8
0
 48
0.25
100
AcDbLine
 10
356.9999466000006
 20
363.6005693167881
 30
0.0
 11
356.9999466000006
 21
349.6005693167898
 31
0.0
  0
LINE
  5
6144
330
607E
100
AcDbEntity
  8
0
 48
0.25
100
AcDbLine
 10
357.9999466000006
 20
348.6005693167899
 30
0.0
 11
357.9999466000006
 21
348.6005693167899
 31
0.0
  0
ARC
  5
6145
330
607E
100
AcDbEntity
  8
0
 48
0.25
100
AcDbCircle
 10
357.9999466000006
 20
429.9005693167873
 30
0.0
 40
2.0
100
AcDbArc
 50
90.0
 51
180.0
  0
LINE
  5
6146
330
607E
100
AcDbEntity
  8
0
 48
0.25
100
AcDbLine
 10
373.9999466000002
 20
462.6005693167871
 30
0.0
 11
379.5982101383718
 21
462.6005693167871
 31
0.0
  0
ARC
  5
6147
330
607E
100
AcDbEntity
  8
0
 48
0.25
100
AcDbCircle
 10
373.9999466000002
 20
446.6005693167871
 30
0.0
 40
16.0
100
AcDbArc
 50
90.0
 51
180.0
  0
CIRCLE
  5
6148
330
607E
100
AcDbEntity
  8
0
100
AcDbCircle
 10
392.9999466000002
 20
359.6005693167881
 30
0.0
 40
7.5
  0
ARC
  5
6149
330
607E
100
AcDbEntity
  8
0
100
AcDbCircle
 10
381.6249466000002
 20
339.8984913806917
 30
0.0
 40
9.0
100
AcDbArc
 50
19.3698339427165
 51
100.6301660572931
  0
ARC
  5
614A
330
607E
100
AcDbEntity
  8
0
100
AcDbCircle
 10
381.6249466000002
 20
379.3026472528845
 30
0.0
 40
9.0
100
AcDbArc
 50
259.3698339427069
 51
340.6301660572836
  0
CIRCLE
  5
614B
330
607E
100
AcDbEntity
  8
0
100
AcDbCircle
 10
392.9999466000002
 20
359.6005693167881
 30
0.0
 40
5.0
  0
CIRCLE
  5
614C
330
607E
100
AcDbEntity
  8
0
100
AcDbCircle
 10
392.9999466000002
 20
359.6005693167881
 30
0.0
 40
4.5
  0
ARC
  5
614D
330
607E
100
AcDbEntity
  8
0
 48
0.25
100
AcDbCircle
 10
392.9999464699106
 20
326.5387320677391
 30
0.0
 40
5.0
100
AcDbArc
 50
12.25735951377297
 51
167.742640486227
  0
ARC
  5
614E
330
607E
100
AcDbEntity
  8
0
 48
0.25
100
AcDbCircle
 10
392.9999466000002
 20
359.6005693167881
 30
0.0
 40
20.0
100
AcDbArc
 50
14.76379178282425
 51
165.2362082171757
  0
LINE
  5
614F
330
607E
100
AcDbEntity
  8
0
 48
0.25
100
AcDbLine
 10
411.6017101383715
 20
462.6005693167871
 30
0.0
 11
379.6017101383717
 21
462.6005693167871
 31
0.0
  0
LINE
  5
6150
330
607E
100
AcDbEntity
  8
0
 48
0.25
100
AcDbLine
 10
426.7999736767426
 20
337.1005693167904
 30
0.0
 11
426.7999736767426
 21
298.1382341364879
 31
0.0
  0
LINE
  5
6151
330
607E
100
AcDbEntity
  8
0
 48
0.25
100
AcDbLine
 10
428.7999736767426
 20
318.9511941642781
 30
0.0
 11
428.7999736767426
 21
288.9324956040973
 31
0.0
  0
LINE
  5
6152
330
607E
100
AcDbEntity
  8
0
 48
0.25
100
AcDbLine
 10
437.7999736767426
 20
318.9511941642781
 30
0.0
 11
437.7999736767426
 21
280.651194164278
 31
0.0
  0
LINE
  5
6153
330
607E
100
AcDbEntity
  8
0
 48
0.25
100
AcDbLine
 10
434.7999736767426
 20
318.9511941642781
 30
0.0
 11
434.7999736767421
 21
280.651194164278
 31
0.0
  0
LINE
  5
6154
330
607E
100
AcDbEntity
  8
0
 48
0.25
100
AcDbLine
 10
439.7999736767426
 20
318.9511941642781
 30
0.0
 11
439.7999736767426
 21
280.651194164278
 31
0.0
  0
LINE
  5
6155
330
607E
100
AcDbEntity
  8
0
 48
0.25
100
AcDbLine
 10
428.7999736767426
 20
318.9511941642781
 30
0.0
 11
428.7999736767431
 21
288.9324956040978
 31
0.0
  0
LINE
  5
6156
330
607E
100
AcDbEntity
  8
0
 48
0.25
100
AcDbLine
 10
452.7999736767426
 20
313.9511941642782
 30
0.0
 11
452.7999736767426
 21
285.6511941642779
 31
0.0
  0
ARC
  5
6157
330
607E
100
AcDbEntity
  8
0
 48
0.25
100
AcDbCircle
 10
419.3880737810288
 20
261.6005693167872
 30
0.0
 40
5.0
100
AcDbArc
 50
270.0
 51
12.25735951377297
  0
LINE
  5
6158
330
607E
100
AcDbEntity
  8
0
 48
0.25
100
AcDbLine
 10
419.9999466000001
 20
239.6005693167881
 30
0.0
 11
419.9999466000001
 21
244.6005693167881
 31
0.0
  0
LINE
  5
6159
330
607E
100
AcDbEntity
  8
0
 48
0.25
100
AcDbLine
 10
419.9999466000001
 20
239.6005693167881
 30
0.0
 11
419.9999466000001
 21
246.6005693167872
 31
0.0
  0
LINE
  5
615A
330
607E
100
AcDbEntity
  8
0
100
AcDbLine
 10
432.9999466000002
 20
239.6005693167881
 30
0.0
 11
432.9999466000002
 21
264.2317957805376
 31
0.0
  0
LINE
  5
615B
330
607E
100
AcDbEntity
  8
0
 48
0.25
100
AcDbLine
 10
452.7999736767426
 20
291.9243593727033
 30
0.0
 11
439.7999736767426
 21
291.9243593727028
 31
0.0
  0
LINE
  5
615C
330
607E
100
AcDbEntity
  8
0
 48
0.25
100
AcDbLine
 10
434.7999736767426
 20
291.9243593727028
 30
0.0
 11
428.7999736767426
 21
291.9243593727028
 31
0.0
  0
ARC
  5
615D
330
607E
100
AcDbEntity
  8
0
 48
0.25
100
AcDbCircle
 10
382.9999466000002
 20
264.2317957805376
 30
0.0
 40
50.0
100
AcDbArc
 50
0.0
 51
12.25735951377297
  0
LINE
  5
615E
330
607E
100
AcDbEntity
  8
0
 48
0.25
100
AcDbLine
 10
434.7999736767426
 20
280.651194164278
 30
0.0
 11
430.5991343656288
 21
280.651194164278
 31
0.0
  0
ARC
  5
615F
330
607E
100
AcDbEntity
  8
0
 48
0.25
100
AcDbCircle
 10
447.7999736767426
 20
285.6511941642779
 30
0.0
 40
5.0
100
AcDbArc
 50
270.0
 51
0.0
  0
LINE
  5
6160
330
607E
100
AcDbEntity
  8
0
 48
0.25
100
AcDbLine
 10
452.7999736767426
 20
289.3243593727029
 30
0.0
 11
439.7999736767426
 21
289.3243593727029
 31
0.0
  0
LINE
  5
6161
330
607E
100
AcDbEntity
  8
0
 48
0.25
100
AcDbLine
 10
452.7999736767426
 20
290.9243593727033
 30
0.0
 11
439.7999736767426
 21
290.9243593727028
 31
0.0
  0
LINE
  5
6162
330
607E
100
AcDbEntity
  8
0
 48
0.25
100
AcDbLine
 10
452.7999736767426
 20
288.324359372703
 30
0.0
 11
439.7999736767426
 21
288.324359372703
 31
0.0
  0
LINE
  5
6163
330
607E
100
AcDbEntity
  8
0
 48
0.25
100
AcDbLine
 10
434.7999736767426
 20
288.324359372702
 30
0.0
 11
428.7999736767426
 21
288.3243593727025
 31
0.0
  0
LINE
  5
6164
330
607E
100
AcDbEntity
  8
0
 48
0.25
100
AcDbLine
 10
437.7999736767426
 20
280.651194164278
 30
0.0
 11
447.7999736767426
 21
280.651194164278
 31
0.0
  0
LINE
  5
6165
330
607E
100
AcDbEntity
  8
0
 48
0.25
100
AcDbLine
 10
434.7999736767426
 20
288.4011941642775
 30
0.0
 11
437.7999736767426
 21
288.401194164278
 31
0.0
  0
LINE
  5
6166
330
607E
100
AcDbEntity
  8
0
 48
0.25
100
AcDbLine
 10
434.7999736767426
 20
286.6011941642778
 30
0.0
 11
437.7999736767426
 21
286.6011941642782
 31
0.0
  0
LINE
  5
6167
330
607E
100
AcDbEntity
  8
0
100
AcDbLine
 10
436.7999736767426
 20
430.500569316788
 30
0.0
 11
436.7999736767431
 21
411.8966943620703
 31
0.0
  0
LINE
  5
6168
330
607E
100
AcDbEntity
  8
0
 48
0.25
100
AcDbLine
 10
426.7999736767426
 20
360.8546840675654
 30
0.0
 11
426.799973676743
 21
440.5005693167877
 31
0.0
  0
LINE
  5
6169
330
607E
100
AcDbEntity
  8
0
 48
0.25
100
AcDbLine
 10
420.9999736767433
 20
324.8348758804127
 30
0.0
 11
420.9999736767428
 21
458.5005693167873
 31
0.0
  0
LINE
  5
616A
330
607E
100
AcDbEntity
  8
0
 48
0.25
100
AcDbLine
 10
417.9999736767424
 20
443.6005693167876
 30
0.0
 11
417.9999736767424
 21
338.643483678999
 31
0.0
  0
LINE
  5
616B
330
607E
100
AcDbEntity
  8
0
 48
0.25
100
AcDbLine
 10
426.7999736767426
 20
457.7005693167874
 30
0.0
 11
426.7999736767426
 21
368.8546840675654
 31
0.0
  0
ARC
  5
616C
330
607E
100
AcDbEntity
  8
0
 48
0.25
100
AcDbCircle
 10
447.7999736767426
 20
313.9511941642782
 30
0.0
 40
5.0
100
AcDbArc
 50
0.0
 51
90.0
  0
LINE
  5
616D
330
607E
100
AcDbEntity
  8
0
 48
0.25
100
AcDbLine
 10
452.7999736767426
 20
311.2780289558537
 30
0.0
 11
439.7999736767426
 21
311.2780289558532
 31
0.0
  0
LINE
  5
616E
330
607E
100
AcDbEntity
  8
0
 48
0.25
100
AcDbLine
 10
434.7999736767426
 20
311.2780289558537
 30
0.0
 11
428.7999736767426
 21
311.2780289558541
 31
0.0
  0
LINE
  5
616F
330
607E
100
AcDbEntity
  8
0
 48
0.25
100
AcDbLine
 10
434.7999736767426
 20
313.0011941642783
 30
0.0
 11
437.7999736767426
 21
313.0011941642783
 31
0.0
  0
LINE
  5
6170
330
607E
100
AcDbEntity
  8
0
 48
0.25
100
AcDbLine
 10
434.7999736767426
 20
311.2011941642781
 30
0.0
 11
437.7999736767426
 21
311.2011941642781
 31
0.0
  0
LINE
  5
6171
330
607E
100
AcDbEntity
  8
0
 48
0.25
100
AcDbLine
 10
426.7999736767426
 20
313.0011941642783
 30
0.0
 11
428.7999736767426
 21
313.0011941642783
 31
0.0
  0
LINE
  5
6172
330
607E
100
AcDbEntity
  8
0
 48
0.25
100
AcDbLine
 10
426.7999736767426
 20
311.2011941642777
 30
0.0
 11
428.7999736767426
 21
311.2011941642777
 31
0.0
  0
LINE
  5
6173
330
607E
100
AcDbEntity
  8
0
 48
0.25
100
AcDbLine
 10
447.7999736767426
 20
318.9511941642781
 30
0.0
 11
437.7999736767426
 21
318.9511941642781
 31
0.0
  0
LINE
  5
6174
330
607E
100
AcDbEntity
  8
0
 48
0.25
100
AcDbLine
 10
434.7999736767426
 20
318.9511941642777
 30
0.0
 11
428.7999736767426
 21
318.9511941642781
 31
0.0
  0
LINE
  5
6175
330
607E
100
AcDbEntity
  8
0
 48
0.25
100
AcDbLine
 10
428.7999736767426
 20
318.9511941642781
 30
0.0
 11
426.7999736767426
 21
318.9511941642781
 31
0.0
  0
LINE
  5
6176
330
607E
100
AcDbEntity
  8
0
100
AcDbLine
 10
436.7999736767431
 20
411.8966943620703
 30
0.0
 11
436.7999736767426
 21
370.8546840675654
 31
0.0
  0
ARC
  5
6177
330
607E
100
AcDbEntity
  8
0
 48
0.25
100
AcDbCircle
 10
431.7999736767426
 20
370.8546840675654
 30
0.0
 40
5.0
100
AcDbArc
 50
270.0
 51
0.0
  0
LINE
  5
6178
330
607E
100
AcDbEntity
  8
0
 48
0.25
100
AcDbLine
 10
431.7999736767426
 20
365.8546840675654
 30
0.0
 11
431.7999736767426
 21
365.8546840675654
 31
0.0
  0
ARC
  5
6179
330
607E
100
AcDbEntity
  8
0
 48
0.25
100
AcDbCircle
 10
431.7999736767426
 20
360.8546840675654
 30
0.0
 40
5.0
100
AcDbArc
 50
90.0
 51
180.0
  0
LINE
  5
617A
330
607E
100
AcDbEntity
  8
0
 48
0.25
100
AcDbLine
 10
426.7999736767426
 20
368.8546840675654
 30
0.0
 11
426.7999736767426
 21
337.1005693167904
 31
0.0
  0
LINE
  5
617B
330
607E
100
AcDbEntity
  8
0
100
AcDbLine
 10
417.9999736767419
 20
460.1005693167843
 30
0.0
 11
420.5086998799613
 21
460.0567793380213
 31
0.0
  0
POINT
  5
617C
330
607E
100
AcDbEntity
  8
0
100
AcDbPoint
 10
417.9999736767419
 20
460.1005693167843
 30
0.0
  0
ARC
  5
617D
330
607E
100
AcDbEntity
  8
0
 48
0.25
100
AcDbCircle
 10
417.1999736767421
 20
461.8005693167861
 30
0.0
 40
0.8
100
AcDbArc
 50
0.0
 51
90.0
  0
LINE
  5
617E
330
607E
100
AcDbEntity
  8
0
 48
0.25
100
AcDbLine
 10
417.9999736767424
 20
461.8005693167869
 30
0.0
 11
417.9999736767424
 21
443.6005693167876
 31
0.0
  0
ARC
  5
617F
330
607E
100
AcDbEntity
  8
0
 48
0.25
100
AcDbCircle
 10
417.1999736767421
 20
461.8005693167869
 30
0.0
 40
0.8
100
AcDbArc
 50
0.0
 51
90.0
  0
ARC
  5
6180
330
607E
100
AcDbEntity
  8
0
 48
0.25
100
AcDbCircle
 10
431.7999736767426
 20
430.500569316788
 30
0.0
 40
5.0
100
AcDbArc
 50
0.0
 51
90.0
  0
LINE
  5
6181
330
607E
100
AcDbEntity
  8
0
 48
0.25
100
AcDbLine
 10
431.7999736767431
 20
435.5005693167877
 30
0.0
 11
431.7999736767426
 21
435.500569316788
 31
0.0
  0
ARC
  5
6182
330
607E
100
AcDbEntity
  8
0
 48
0.25
100
AcDbCircle
 10
431.7999736767431
 20
440.5005693167877
 30
0.0
 40
5.0
100
AcDbArc
 50
180.0
 51
270.0
  0
ARC
  5
6183
330
607E
100
AcDbEntity
  8
0
100
AcDbCircle
 10
420.4999736767428
 20
459.556855490443
 30
0.0
 40
0.5
100
AcDbArc
 50
0.0000000000130276
 51
89.0000000000243
  0
LINE
  5
6184
330
607E
100
AcDbEntity
  8
0
100
AcDbLine
 10
420.9999736767428
 20
458.6005693167845
 30
0.0
 11
420.9999736767428
 21
459.556855490443
 31
0.0
  0
LINE
  5
6185
330
607E
100
AcDbEntity
  8
0
 48
0.25
100
AcDbLine
 10
420.9999736767428
 20
458.5005693167873
 30
0.0
 11
425.9999736767428
 21
458.5005693167873
 31
0.0
  0
ARC
  5
6186
330
607E
100
AcDbEntity
  8
0
 48
0.25
100
AcDbCircle
 10
425.9999736767428
 20
457.7005693167874
 30
0.0
 40
0.8
100
AcDbArc
 50
0.0
 51
90.0
  0
LINE
  5
6187
330
607E
100
AcDbEntity
  8
0
 48
0.25
100
AcDbLine
 10
452.7999736767426
 20
307.6780289558533
 30
0.0
 11
439.7999736767426
 21
307.6780289558537
 31
0.0
  0
LINE
  5
6188
330
607E
100
AcDbEntity
  8
0
 48
0.25
100
AcDbLine
 10
452.7999736767426
 20
308.6780289558533
 30
0.0
 11
439.7999736767426
 21
308.6780289558537
 31
0.0
  0
LINE
  5
6189
330
607E
100
AcDbEntity
  8
0
 48
0.25
100
AcDbLine
 10
452.7999736767426
 20
310.2780289558536
 30
0.0
 11
439.7999736767426
 21
310.2780289558532
 31
0.0
  0
LINE
  5
618A
330
607E
100
AcDbEntity
  8
0
 48
0.25
100
AcDbLine
 10
434.7999736767426
 20
307.6780289558537
 30
0.0
 11
428.7999736767426
 21
307.6780289558533
 31
0.0
  0
LINE
  5
618B
330
607E
100
AcDbEntity
  8
0
100
AcDbLine
 10
-230.9999466000008
 20
-106.9996032000026
 30
0.0
 11
-208.9999466000008
 21
-106.9996032000026
 31
0.0
  0
ARC
  5
618C
330
607E
100
AcDbEntity
  8
0
100
AcDbCircle
 10
-231.9999466000008
 20
-125.9996032000026
 30
0.0
 40
2.0
100
AcDbArc
 50
180.0
 51
270.0
  0
LINE
  5
618D
330
607E
100
AcDbEntity
  8
0
100
AcDbLine
 10
-230.9999466000008
 20
-106.9996032000026
 30
0.0
 11
-233.9999466000008
 21
-110.9996032000026
 31
0.0
  0
LINE
  5
618E
330
607E
100
AcDbEntity
  8
0
100
AcDbLine
 10
-248.0113030723014
 20
-110.9996032000026
 30
0.0
 11
-256.5893307543011
 21
-114.9996032000026
 31
0.0
  0
LINE
  5
618F
330
607E
100
AcDbEntity
  8
0
100
AcDbLine
 10
-233.9999466000008
 20
-122.9996032000026
 30
0.0
 11
-233.9999466000008
 21
-125.9996032000026
 31
0.0
  0
LINE
  5
6190
330
607E
100
AcDbEntity
  8
0
100
AcDbLine
 10
-233.9999466000008
 20
-125.9996032000026
 30
0.0
 11
-205.9999466000008
 21
-125.9996032000026
 31
0.0
  0
ARC
  5
6191
330
607E
100
AcDbEntity
  8
0
100
AcDbCircle
 10
-207.9999466000008
 20
-125.9996032000026
 30
0.0
 40
2.0
100
AcDbArc
 50
270.0
 51
0.0
  0
LINE
  5
6192
330
607E
100
AcDbEntity
  8
0
100
AcDbLine
 10
-205.9999466000008
 20
-110.9996032000026
 30
0.0
 11
-208.9999466000008
 21
-106.9996032000026
 31
0.0
  0
LINE
  5
6193
330
607E
100
AcDbEntity
  8
0
100
AcDbLine
 10
-183.4105624457015
 20
-114.9996032000026
 30
0.0
 11
-191.9885901277011
 21
-110.9996032000026
 31
0.0
  0
LINE
  5
6194
330
607E
100
AcDbEntity
  8
0
100
AcDbLine
 10
-256.5893307543011
 20
-114.9996032000026
 30
0.0
 11
-257.9999466000008
 21
-122.9996032000026
 31
0.0
  0
LINE
  5
6195
330
607E
100
AcDbEntity
  8
0
100
AcDbLine
 10
-181.9999466000008
 20
-122.9996032000026
 30
0.0
 11
-183.4105624457015
 21
-114.9996032000026
 31
0.0
  0
LINE
  5
6196
330
607E
100
AcDbEntity
  8
0
100
AcDbLine
 10
-205.9999466000008
 20
-125.9996032000026
 30
0.0
 11
-205.9999466000008
 21
-122.9996032000026
 31
0.0
  0
LINE
  5
6197
330
607E
100
AcDbEntity
  8
0
100
AcDbLine
 10
-256.5893307543011
 20
-114.9996032000026
 30
0.0
 11
-256.2756866568015
 21
-114.9996032000026
 31
0.0
  0
LINE
  5
6198
330
607E
100
AcDbEntity
  8
0
100
AcDbLine
 10
-183.4105624457015
 20
-114.9996032000026
 30
0.0
 11
-183.724206543201
 21
-114.9996032000026
 31
0.0
  0
LINE
  5
6199
330
607E
100
AcDbEntity
  8
0
100
AcDbLine
 10
-250.4335664730015
 20
-122.9996032000026
 30
0.0
 11
-257.6100542964014
 21
-122.9996032000026
 31
0.0
  0
LINE
  5
619A
330
607E
100
AcDbEntity
  8
0
100
AcDbLine
 10
-182.3898389036012
 20
-122.9996032000026
 30
0.0
 11
-181.9999466000008
 21
-122.9996032000026
 31
0.0
  0
LINE
  5
619B
330
607E
100
AcDbEntity
  8
0
100
AcDbLine
 10
-197.2448420864011
 20
-122.9996032000026
 30
0.0
 11
-189.566326727001
 21
-122.9996032000026
 31
0.0
  0
ARC
  5
619C
330
607E
100
AcDbEntity
  8
0
100
AcDbCircle
 10
-233.5254537176015
 20
-139.2490716423026
 30
0.0
 40
25.7781087156
100
AcDbArc
 50
70.16945679556271
 51
109.8305432044373
  0
SPLINE
  5
619D
330
607E
100
AcDbEntity
  8
0
100
AcDbSpline
210
0.0
220
0.0
230
1.0
 70
     8
 71
     3
 72
    14
 73
    10
 74
     0
 42
0.0000000001
 43
0.0000000001
 40
0.0
 40
0.0
 40
0.0
 40
0.0
 40
0.25
 40
0.25
 40
0.5
 40
0.5
 40
0.75
 40
0.75
 40
1.0
 40
1.0
 40
1.0
 40
1.0
 10
-249.0311319857283
 20
-114.9996031999535
 30
0.0
 10
-248.9903033347682
 20
-114.5314170307565
 30
0.0
 10
-249.1075824139507
 20
-114.1506935161069
 30
0.0
 10
-249.6866118488124
 20
-113.6196297377992
 30
0.0
 10
-250.156466943381
 20
-113.4754216434175
 30
0.0
 10
-251.4109560891029
 20
-113.475283053921
 30
0.0
 10
-252.2136381619075
 20
-113.6188821548976
 30
0.0
 10
-254.0709770942503
 20
-114.1503207780188
 30
0.0
 10
-255.117894941558
 20
-114.5313642455348
 30
0.0
 10
-256.2756866568343
 20
-114.9996031999535
 30
0.0
  0
LINE
  5
619E
330
607E
100
AcDbEntity
  8
0
100
AcDbLine
 10
-182.3898389036012
 20
-122.9996032000026
 30
0.0
 11
-189.566326727001
 21
-122.9996032000026
 31
0.0
  0
SPLINE
  5
619F
330
607E
100
AcDbEntity
  8
0
100
AcDbSpline
210
0.0
220
0.0
230
1.0
 70
     8
 71
     3
 72
    14
 73
    10
 74
     0
 42
0.0000000001
 43
0.0000000001
 40
0.0
 40
0.0
 40
0.0
 40
0.0
 40
0.2500000000000001
 40
0.2500000000000001
 40
0.5000000000000001
 40
0.5000000000000001
 40
0.75
 40
0.75
 40
1.0
 40
1.0
 40
1.0
 40
1.0
 10
-183.7242065431746
 20
-114.9996031999535
 30
0.0
 10
-184.8818677389989
 20
-114.5314170307565
 30
0.0
 10
-185.9280169543635
 20
-114.1506935161069
 30
0.0
 10
-187.783239600676
 20
-113.6196297377992
 30
0.0
 10
-188.5878311343385
 20
-113.4754216434175
 30
0.0
 10
-189.8426453334568
 20
-113.475283053921
 30
0.0
 10
-190.312041461344
 20
-113.6188821548976
 30
0.0
 10
-190.8923282733349
 20
-114.1503207780188
 30
0.0
 10
-191.009594468429
 20
-114.5313642455348
 30
0.0
 10
-190.9687612142796
 20
-114.9996031999535
 30
0.0
  0
ARC
  5
61A0
330
607E
100
AcDbEntity
  8
0
100
AcDbCircle
 10
-206.474439482401
 20
-139.2484875595028
 30
0.0
 40
25.7775592697
100
AcDbArc
 50
70.16901638119825
 51
109.8309836188017
  0
ARC
  5
61A1
330
607E
100
AcDbEntity
  8
0
100
AcDbCircle
 10
-3289.036458833901
 20
-306.2881039811027
 30
0.0
 40
3097.2197332299
100
AcDbArc
 50
3.392654614607776
 51
3.540918781475569
  0
LINE
  5
61A2
330
607E
100
AcDbEntity
  8
0
100
AcDbLine
 10
-197.2448420864011
 20
-122.9996032000026
 30
0.0
 11
-214.5704163199016
 21
-122.9996032000026
 31
0.0
  0
ARC
  5
61A3
330
607E
100
AcDbEntity
  8
0
100
AcDbCircle
 10
-7914.637585313703
 20
1224.691327417298
 30
0.0
 40
7781.792472617199
100
AcDbArc
 50
350.0269374223027
 51
350.0867380564887
  0
LINE
  5
61A4
330
607E
100
AcDbEntity
  8
0
100
AcDbLine
 10
-257.6100542964014
 20
-122.9996032000026
 30
0.0
 11
-256.2756866568015
 21
-114.9996032000026
 31
0.0
  0
ARC
  5
61A5
330
607E
100
AcDbEntity
  8
0
100
AcDbCircle
 10
-7826.313744075202
 20
-1393.863906971702
 30
0.0
 40
7748.8495111633
100
AcDbArc
 50
9.439544516678292
 51
9.499514528293866
  0
LINE
  5
61A6
330
607E
100
AcDbEntity
  8
0
100
AcDbLine
 10
-242.7550511136014
 20
-122.9996032000026
 30
0.0
 11
-242.2704047878014
 21
-114.9996032000026
 31
0.0
  0
LINE
  5
61A7
330
607E
100
AcDbEntity
  8
0
100
AcDbLine
 10
-189.566326727001
 20
-122.9996032000026
 30
0.0
 11
-190.9687612143016
 21
-114.9996032000026
 31
0.0
  0
LINE
  5
61A8
330
607E
100
AcDbEntity
  8
0
100
AcDbLine
 10
-190.9687612143016
 20
-114.9996032000026
 30
0.0
 11
-197.729488412201
 21
-114.9996032000026
 31
0.0
  0
LINE
  5
61A9
330
607E
100
AcDbEntity
  8
0
100
AcDbLine
 10
-215.219390552601
 20
-114.9996032000026
 30
0.0
 11
-224.7805026474016
 21
-114.9996032000026
 31
0.0
  0
LINE
  5
61AA
330
607E
100
AcDbEntity
  8
0
100
AcDbLine
 10
-242.2704047878014
 20
-114.9996032000026
 30
0.0
 11
-249.031131985701
 21
-114.9996032000026
 31
0.0
  0
ARC
  5
61AB
330
607E
100
AcDbEntity
  8
0
100
AcDbCircle
 10
-3325.621157413302
 20
132.519784396597
 30
0.0
 40
3110.7038774987
100
AcDbArc
 50
355.2883022972232
 51
355.4361376758957
  0
LINE
  5
61AC
330
607E
100
AcDbEntity
  8
0
100
AcDbLine
 10
-225.429476880101
 20
-122.9996032000026
 30
0.0
 11
-214.5704163199016
 21
-122.9996032000026
 31
0.0
  0
LINE
  5
61AD
330
607E
100
AcDbEntity
  8
0
100
AcDbLine
 10
-225.429476880101
 20
-122.9996032000026
 30
0.0
 11
-242.7550511136014
 21
-122.9996032000026
 31
0.0
  0
LINE
  5
61AE
330
607E
100
AcDbEntity
  8
0
100
AcDbLine
 10
-250.4335664730015
 20
-122.9996032000026
 30
0.0
 11
-242.7550511136014
 21
-122.9996032000026
 31
0.0
  0
LINE
  5
61AF
330
607E
100
AcDbEntity
  8
0
100
AcDbLine
 10
-257.9999466000008
 20
-122.9996032000026
 30
0.0
 11
-257.6100542964014
 21
-122.9996032000026
 31
0.0
  0
LINE
  5
61B0
330
607E
100
AcDbEntity
  8
0
100
AcDbLine
 10
-248.0113030723014
 20
-110.9996032000026
 30
0.0
 11
-191.9885901277011
 21
-110.9996032000026
 31
0.0
  0
LINE
  5
61B1
330
607E
100
AcDbEntity
  8
0
100
AcDbLine
 10
-231.9999466000008
 20
-127.9996032000026
 30
0.0
 11
-207.9999466000008
 21
-127.9996032000026
 31
0.0
  0
LINE
  5
61B2
330
607E
100
AcDbEntity
  8
0
100
AcDbLine
 10
-214.5704163199016
 20
-122.9996032000026
 30
0.0
 11
-215.219390552601
 21
-114.9996032000026
 31
0.0
  0
LINE
  5
61B3
330
607E
100
AcDbEntity
  8
0
100
AcDbLine
 10
-211.4999466000008
 20
-106.9999999999972
 30
0.0
 11
-228.4999466000008
 21
-106.9999999999972
 31
0.0
  0
ARC
  5
61B4
330
607E
100
AcDbEntity
  8
0
100
AcDbCircle
 10
-219.9999466000008
 20
-90.75918937855215
 30
0.0
 40
16.24081062144506
100
AcDbArc
 50
252.4120462260095
 51
287.5879537739905
  0
LINE
  5
61B5
330
607E
100
AcDbEntity
  8
0
100
AcDbLine
 10
-210.1849920237771
 20
-98.99999999999728
 30
0.0
 11
-229.8149011762246
 21
-98.99999999999728
 31
0.0
  0
ARC
  5
61B6
330
607E
100
AcDbEntity
  8
0
100
AcDbCircle
 10
-211.4999466000008
 20
-98.12040531071987
 30
0.0
 40
8.879594689277416
100
AcDbArc
 50
246.1350745839518
 51
270.0
  0
LINE
  5
61B7
330
607E
100
AcDbEntity
  8
0
100
AcDbLine
 10
-210.1849920237771
 20
-106.2408106214424
 30
0.0
 11
-210.1849920237771
 21
-98.99999999999728
 31
0.0
  0
LINE
  5
61B8
330
607E
100
AcDbEntity
  8
0
100
AcDbLine
 10
-211.4999466000008
 20
-106.9999999999972
 30
0.0
 11
-210.1849920237771
 21
-106.2408106214424
 31
0.0
  0
LINE
  5
61B9
330
607E
100
AcDbEntity
  8
0
100
AcDbLine
 10
-215.0924693118891
 20
-106.2408106214424
 30
0.0
 11
-215.0924693118891
 21
-98.99999999999728
 31
0.0
  0
LINE
  5
61BA
330
607E
100
AcDbEntity
  8
0
100
AcDbLine
 10
-224.9074238881126
 20
-106.2408106214424
 30
0.0
 11
-224.9074238881126
 21
-98.99999999999728
 31
0.0
  0
LINE
  5
61BB
330
607E
100
AcDbEntity
  8
0
100
AcDbLine
 10
-229.8149011762246
 20
-106.2408106214424
 30
0.0
 11
-229.8149011762246
 21
-98.99999999999728
 31
0.0
  0
LINE
  5
61BC
330
607E
100
AcDbEntity
  8
0
100
AcDbLine
 10
-224.9074238881126
 20
-106.2408106214424
 30
0.0
 11
-224.9074238881126
 21
-98.99999999999728
 31
0.0
  0
ARC
  5
61BD
330
607E
100
AcDbEntity
  8
0
100
AcDbCircle
 10
-228.4999466000008
 20
-98.12040531071987
 30
0.0
 40
8.879594689277416
100
AcDbArc
 50
270.0
 51
293.8649254160481
  0
LINE
  5
61BE
330
607E
100
AcDbEntity
  8
0
100
AcDbLine
 10
-228.4999466000008
 20
-106.9999999999972
 30
0.0
 11
-229.8149011762246
 21
-106.2408106214424
 31
0.0
  0
LINE
  5
61BF
330
607E
100
AcDbEntity
  8
0
100
AcDbLine
 10
209.0000533999992
 20
-106.9996032000026
 30
0.0
 11
231.0000533999992
 21
-106.9996032000026
 31
0.0
  0
ARC
  5
61C0
330
607E
100
AcDbEntity
  8
0
100
AcDbCircle
 10
208.0000533999992
 20
-125.9996032000026
 30
0.0
 40
2.0
100
AcDbArc
 50
180.0
 51
270.0
  0
LINE
  5
61C1
330
607E
100
AcDbEntity
  8
0
100
AcDbLine
 10
209.0000533999992
 20
-106.9996032000026
 30
0.0
 11
206.0000533999992
 21
-110.9996032000026
 31
0.0
  0
LINE
  5
61C2
330
607E
100
AcDbEntity
  8
0
100
AcDbLine
 10
191.9886969276985
 20
-110.9996032000026
 30
0.0
 11
183.4106692456989
 21
-114.9996032000026
 31
0.0
  0
LINE
  5
61C3
330
607E
100
AcDbEntity
  8
0
100
AcDbLine
 10
206.0000533999992
 20
-122.9996032000026
 30
0.0
 11
206.0000533999992
 21
-125.9996032000026
 31
0.0
  0
LINE
  5
61C4
330
607E
100
AcDbEntity
  8
0
100
AcDbLine
 10
206.0000533999992
 20
-125.9996032000026
 30
0.0
 11
234.0000533999992
 21
-125.9996032000026
 31
0.0
  0
ARC
  5
61C5
330
607E
100
AcDbEntity
  8
0
100
AcDbCircle
 10
232.0000533999992
 20
-125.9996032000026
 30
0.0
 40
2.0
100
AcDbArc
 50
270.0
 51
0.0
  0
LINE
  5
61C6
330
607E
100
AcDbEntity
  8
0
100
AcDbLine
 10
234.0000533999992
 20
-110.9996032000026
 30
0.0
 11
231.0000533999992
 21
-106.9996032000026
 31
0.0
  0
LINE
  5
61C7
330
607E
100
AcDbEntity
  8
0
100
AcDbLine
 10
256.5894375542985
 20
-114.9996032000026
 30
0.0
 11
248.0114098722988
 21
-110.9996032000026
 31
0.0
  0
LINE
  5
61C8
330
607E
100
AcDbEntity
  8
0
100
AcDbLine
 10
183.4106692456989
 20
-114.9996032000026
 30
0.0
 11
182.000053399999
 21
-122.9996032000026
 31
0.0
  0
LINE
  5
61C9
330
607E
100
AcDbEntity
  8
0
100
AcDbLine
 10
258.0000533999992
 20
-122.9996032000026
 30
0.0
 11
256.5894375542985
 21
-114.9996032000026
 31
0.0
  0
LINE
  5
61CA
330
607E
100
AcDbEntity
  8
0
100
AcDbLine
 10
234.0000533999992
 20
-125.9996032000026
 30
0.0
 11
234.0000533999992
 21
-122.9996032000026
 31
0.0
  0
LINE
  5
61CB
330
607E
100
AcDbEntity
  8
0
100
AcDbLine
 10
183.4106692456989
 20
-114.9996032000026
 30
0.0
 11
183.7243133431984
 21
-114.9996032000026
 31
0.0
  0
LINE
  5
61CC
330
607E
100
AcDbEntity
  8
0
100
AcDbLine
 10
256.5894375542985
 20
-114.9996032000026
 30
0.0
 11
256.275793456799
 21
-114.9996032000026
 31
0.0
  0
LINE
  5
61CD
330
607E
100
AcDbEntity
  8
0
100
AcDbLine
 10
189.5664335269985
 20
-122.9996032000026
 30
0.0
 11
182.3899457035986
 21
-122.9996032000026
 31
0.0
  0
LINE
  5
61CE
330
607E
100
AcDbEntity
  8
0
100
AcDbLine
 10
257.6101610963988
 20
-122.9996032000026
 30
0.0
 11
258.0000533999992
 21
-122.9996032000026
 31
0.0
  0
LINE
  5
61CF
330
607E
100
AcDbEntity
  8
0
100
AcDbLine
 10
242.7551579135989
 20
-122.9996032000026
 30
0.0
 11
250.4336732729989
 21
-122.9996032000026
 31
0.0
  0
ARC
  5
61D0
330
607E
100
AcDbEntity
  8
0
100
AcDbCircle
 10
206.4745462823985
 20
-139.2490716423026
 30
0.0
 40
25.7781087156
100
AcDbArc
 50
70.16945679556271
 51
109.8305432044373
  0
SPLINE
  5
61D1
330
607E
100
AcDbEntity
  8
0
100
AcDbSpline
210
0.0
220
0.0
230
1.0
 70
     8
 71
     3
 72
    14
 73
    10
 74
     0
 42
0.0000000001
 43
0.0000000001
 40
0.0
 40
0.0
 40
0.0
 40
0.0
 40
0.25
 40
0.25
 40
0.5
 40
0.5
 40
0.75
 40
0.75
 40
1.0
 40
1.0
 40
1.0
 40
1.0
 10
190.9688680142717
 20
-114.9996031999535
 30
0.0
 10
191.0096966652318
 20
-114.5314170307565
 30
0.0
 10
190.8924175860493
 20
-114.1506935161069
 30
0.0
 10
190.3133881511876
 20
-113.6196297377992
 30
0.0
 10
189.843533056619
 20
-113.4754216434175
 30
0.0
 10
188.5890439108971
 20
-113.475283053921
 30
0.0
 10
187.7863618380925
 20
-113.6188821548976
 30
0.0
 10
185.9290229057496
 20
-114.1503207780188
 30
0.0
 10
184.882105058442
 20
-114.5313642455348
 30
0.0
 10
183.7243133431657
 20
-114.9996031999535
 30
0.0
  0
LINE
  5
61D2
330
607E
100
AcDbEntity
  8
0
100
AcDbLine
 10
257.6101610963988
 20
-122.9996032000026
 30
0.0
 11
250.4336732729989
 21
-122.9996032000026
 31
0.0
  0
SPLINE
  5
61D3
330
607E
100
AcDbEntity
  8
0
100
AcDbSpline
210
0.0
220
0.0
230
1.0
 70
     8
 71
     3
 72
    14
 73
    10
 74
     0
 42
0.0000000001
 43
0.0000000001
 40
0.0
 40
0.0
 40
0.0
 40
0.0
 40
0.2500000000000001
 40
0.2500000000000001
 40
0.5000000000000001
 40
0.5000000000000001
 40
0.75
 40
0.75
 40
1.0
 40
1.0
 40
1.0
 40
1.0
 10
256.2757934568253
 20
-114.9996031999535
 30
0.0
 10
255.1181322610009
 20
-114.5314170307565
 30
0.0
 10
254.0719830456364
 20
-114.1506935161069
 30
0.0
 10
252.2167603993239
 20
-113.6196297377992
 30
0.0
 10
251.4121688656615
 20
-113.4754216434175
 30
0.0
 10
250.1573546665432
 20
-113.475283053921
 30
0.0
 10
249.6879585386559
 20
-113.6188821548976
 30
0.0
 10
249.1076717266651
 20
-114.1503207780188
 30
0.0
 10
248.990405531571
 20
-114.5313642455348
 30
0.0
 10
249.0312387857202
 20
-114.9996031999535
 30
0.0
  0
ARC
  5
61D4
330
607E
100
AcDbEntity
  8
0
100
AcDbCircle
 10
233.5255605175989
 20
-139.2484875595028
 30
0.0
 40
25.7775592697
100
AcDbArc
 50
70.16901638119714
 51
109.8309836188028
  0
ARC
  5
61D5
330
607E
100
AcDbEntity
  8
0
100
AcDbCircle
 10
-2849.036458833901
 20
-306.2881039811027
 30
0.0
 40
3097.2197332299
100
AcDbArc
 50
3.392654614607776
 51
3.540918781475569
  0
LINE
  5
61D6
330
607E
100
AcDbEntity
  8
0
100
AcDbLine
 10
242.7551579135989
 20
-122.9996032000026
 30
0.0
 11
225.4295836800984
 21
-122.9996032000026
 31
0.0
  0
ARC
  5
61D7
330
607E
100
AcDbEntity
  8
0
100
AcDbCircle
 10
-7474.637585313701
 20
1224.691327417298
 30
0.0
 40
7781.792472617199
100
AcDbArc
 50
350.0269374223027
 51
350.0867380564887
  0
LINE
  5
61D8
330
607E
100
AcDbEntity
  8
0
100
AcDbLine
 10
182.3899457035986
 20
-122.9996032000026
 30
0.0
 11
183.7243133431984
 21
-114.9996032000026
 31
0.0
  0
ARC
  5
61D9
330
607E
100
AcDbEntity
  8
0
100
AcDbCircle
 10
-7386.313744075201
 20
-1393.863906971702
 30
0.0
 40
7748.8495111633
100
AcDbArc
 50
9.439544516678292
 51
9.499514528293866
  0
LINE
  5
61DA
330
607E
100
AcDbEntity
  8
0
100
AcDbLine
 10
197.2449488863985
 20
-122.9996032000026
 30
0.0
 11
197.7295952121984
 21
-114.9996032000026
 31
0.0
  0
LINE
  5
61DB
330
607E
100
AcDbEntity
  8
0
100
AcDbLine
 10
250.4336732729989
 20
-122.9996032000026
 30
0.0
 11
249.0312387856984
 21
-114.9996032000026
 31
0.0
  0
LINE
  5
61DC
330
607E
100
AcDbEntity
  8
0
100
AcDbLine
 10
249.0312387856984
 20
-114.9996032000026
 30
0.0
 11
242.2705115877989
 21
-114.9996032000026
 31
0.0
  0
LINE
  5
61DD
330
607E
100
AcDbEntity
  8
0
100
AcDbLine
 10
224.780609447399
 20
-114.9996032000026
 30
0.0
 11
215.2194973525984
 21
-114.9996032000026
 31
0.0
  0
LINE
  5
61DE
330
607E
100
AcDbEntity
  8
0
100
AcDbLine
 10
197.7295952121984
 20
-114.9996032000026
 30
0.0
 11
190.968868014299
 21
-114.9996032000026
 31
0.0
  0
ARC
  5
61DF
330
607E
100
AcDbEntity
  8
0
100
AcDbCircle
 10
-2885.621157413302
 20
132.519784396597
 30
0.0
 40
3110.7038774987
100
AcDbArc
 50
355.2883022972232
 51
355.4361376758957
  0
LINE
  5
61E0
330
607E
100
AcDbEntity
  8
0
100
AcDbLine
 10
214.570523119899
 20
-122.9996032000026
 30
0.0
 11
225.4295836800984
 21
-122.9996032000026
 31
0.0
  0
LINE
  5
61E1
330
607E
100
AcDbEntity
  8
0
100
AcDbLine
 10
214.570523119899
 20
-122.9996032000026
 30
0.0
 11
197.2449488863985
 21
-122.9996032000026
 31
0.0
  0
LINE
  5
61E2
330
607E
100
AcDbEntity
  8
0
100
AcDbLine
 10
189.5664335269985
 20
-122.9996032000026
 30
0.0
 11
197.2449488863985
 21
-122.9996032000026
 31
0.0
  0
LINE
  5
61E3
330
607E
100
AcDbEntity
  8
0
100
AcDbLine
 10
182.000053399999
 20
-122.9996032000026
 30
0.0
 11
182.3899457035986
 21
-122.9996032000026
 31
0.0
  0
LINE
  5
61E4
330
607E
100
AcDbEntity
  8
0
100
AcDbLine
 10
191.9886969276985
 20
-110.9996032000026
 30
0.0
 11
248.0114098722988
 21
-110.9996032000026
 31
0.0
  0
LINE
  5
61E5
330
607E
100
AcDbEntity
  8
0
100
AcDbLine
 10
208.0000533999992
 20
-127.9996032000026
 30
0.0
 11
232.0000533999992
 21
-127.9996032000026
 31
0.0
  0
LINE
  5
61E6
330
607E
100
AcDbEntity
  8
0
100
AcDbLine
 10
225.4295836800984
 20
-122.9996032000026
 30
0.0
 11
224.780609447399
 21
-114.9996032000026
 31
0.0
  0
LINE
  5
61E7
330
607E
100
AcDbEntity
  8
0
100
AcDbLine
 10
228.5000533999991
 20
-106.9999999999972
 30
0.0
 11
211.5000533999991
 21
-106.9999999999972
 31
0.0
  0
ARC
  5
61E8
330
607E
100
AcDbEntity
  8
0
100
AcDbCircle
 10
220.0000533999991
 20
-90.75918937855215
 30
0.0
 40
16.24081062144506
100
AcDbArc
 50
252.4120462260095
 51
287.5879537739905
  0
LINE
  5
61E9
330
607E
100
AcDbEntity
  8
0
100
AcDbLine
 10
229.8150079762229
 20
-98.99999999999728
 30
0.0
 11
210.1850988237754
 21
-98.99999999999728
 31
0.0
  0
ARC
  5
61EA
330
607E
100
AcDbEntity
  8
0
100
AcDbCircle
 10
228.5000533999991
 20
-98.12040531071987
 30
0.0
 40
8.879594689277416
100
AcDbArc
 50
246.1350745839518
 51
270.0
  0
LINE
  5
61EB
330
607E
100
AcDbEntity
  8
0
100
AcDbLine
 10
229.8150079762229
 20
-106.2408106214424
 30
0.0
 11
229.8150079762229
 21
-98.99999999999728
 31
0.0
  0
LINE
  5
61EC
330
607E
100
AcDbEntity
  8
0
100
AcDbLine
 10
228.5000533999991
 20
-106.9999999999972
 30
0.0
 11
229.8150079762229
 21
-106.2408106214424
 31
0.0
  0
LINE
  5
61ED
330
607E
100
AcDbEntity
  8
0
100
AcDbLine
 10
224.9075306881109
 20
-106.2408106214424
 30
0.0
 11
224.9075306881109
 21
-98.99999999999728
 31
0.0
  0
LINE
  5
61EE
330
607E
100
AcDbEntity
  8
0
100
AcDbLine
 10
215.0925761118874
 20
-106.2408106214424
 30
0.0
 11
215.0925761118874
 21
-98.99999999999728
 31
0.0
  0
LINE
  5
61EF
330
607E
100
AcDbEntity
  8
0
100
AcDbLine
 10
210.1850988237754
 20
-106.2408106214424
 30
0.0
 11
210.1850988237754
 21
-98.99999999999728
 31
0.0
  0
LINE
  5
61F0
330
607E
100
AcDbEntity
  8
0
100
AcDbLine
 10
215.0925761118874
 20
-106.2408106214424
 30
0.0
 11
215.0925761118874
 21
-98.99999999999728
 31
0.0
  0
ARC
  5
61F1
330
607E
100
AcDbEntity
  8
0
100
AcDbCircle
 10
211.5000533999991
 20
-98.12040531071987
 30
0.0
 40
8.879594689277416
100
AcDbArc
 50
270.0
 51
293.8649254160481
  0
LINE
  5
61F2
330
607E
100
AcDbEntity
  8
0
100
AcDbLine
 10
211.5000533999991
 20
-106.9999999999972
 30
0.0
 11
210.1850988237754
 21
-106.2408106214424
 31
0.0
  0
ARC
  5
61F3
330
607E
100
AcDbEntity
  8
0
 48
0.25
100
AcDbCircle
 10
404.5010689517733
 20
273.6005693167881
 30
0.0
 40
5.0
100
AcDbArc
 50
270.0
 51
12.25735941327318
  0
LINE
  5
61F4
330
607E
100
AcDbEntity
  8
0
100
AcDbLine
 10
229.8150079762227
 20
-104.0
 30
0.0
 11
270.410053399999
 21
-103.9996032000024
 31
0.0
  0
LINE
  5
61F5
330
607E
100
AcDbEntity
  8
0
100
AcDbLine
 10
257.349274951478
 20
-70.0
 30
0.0
 11
257.972233584039
 21
-87.83920118681271
 31
0.0
  0
LINE
  5
61F6
330
607E
100
AcDbEntity
  8
0
100
AcDbLine
 10
261.9697968921155
 20
-91.69960320000269
 30
0.0
 11
273.0000533999992
 21
-91.69960320000246
 31
0.0
  0
ARC
  5
61F7
330
607E
100
AcDbEntity
  8
0
100
AcDbCircle
 10
261.9697968921155
 20
-87.69960320000269
 30
0.0
 40
4.0
100
AcDbArc
 50
181.999999999997
 51
270.0
  0
LINE
  5
61F8
330
607E
100
AcDbEntity
  8
0
100
AcDbLine
 10
273.0000533999992
 20
-91.69960320000246
 30
0.0
 11
273.0000533999994
 21
-91.49960320000239
 31
0.0
  0
ARC
  5
61F9
330
607E
100
AcDbEntity
  8
0
100
AcDbCircle
 10
273.5000533999994
 20
-91.49960320000264
 30
0.0
 40
0.5
100
AcDbArc
 50
90.0
 51
179.9999999999804
  0
LINE
  5
61FA
330
607E
100
AcDbEntity
  8
0
100
AcDbLine
 10
273.5000533999994
 20
-90.99960320000263
 30
0.0
 11
292.5000533999994
 21
-90.99960320000286
 31
0.0
  0
ARC
  5
61FB
330
607E
100
AcDbEntity
  8
0
100
AcDbCircle
 10
292.5000533999994
 20
-91.49960320000287
 30
0.0
 40
0.5
100
AcDbArc
 50
0.0
 51
90.0
  0
LINE
  5
61FC
330
607E
100
AcDbEntity
  8
0
100
AcDbLine
 10
293.0000533999992
 20
-91.69960320000246
 30
0.0
 11
293.0000533999994
 21
-91.49960320000287
 31
0.0
  0
LINE
  5
61FD
330
607E
100
AcDbEntity
  8
0
100
AcDbLine
 10
293.0000533999992
 20
-91.69960320000246
 30
0.0
 11
296.0000533999992
 21
-91.69960320000246
 31
0.0
  0
LINE
  5
61FE
330
607E
100
AcDbEntity
  8
0
100
AcDbLine
 10
296.0000533999992
 20
-91.69960320000246
 30
0.0
 11
295.5644990779831
 21
-104.7662328604674
 31
0.0
  0
ARC
  5
61FF
330
607E
100
AcDbEntity
  8
0
100
AcDbCircle
 10
293.5656092640247
 20
-104.6996032000022
 30
0.0
 40
2.0
100
AcDbArc
 50
270.0
 51
358.0908475670058
  0
LINE
  5
6200
330
607E
100
AcDbEntity
  8
0
100
AcDbLine
 10
272.4344975359731
 20
-106.6996032000024
 30
0.0
 11
293.5656092640247
 21
-106.6996032000022
 31
0.0
  0
ARC
  5
6201
330
607E
100
AcDbEntity
  8
0
100
AcDbCircle
 10
272.4344975359729
 20
-104.6996032000024
 30
0.0
 40
2.0
100
AcDbArc
 50
180.0
 51
270.0
  0
LINE
  5
6202
330
607E
100
AcDbEntity
  8
0
100
AcDbLine
 10
270.410053399999
 20
-103.9996032000024
 30
0.0
 11
270.4344975359729
 21
-104.6996032000024
 31
0.0
  0
LINE
  5
6203
330
607E
100
AcDbEntity
  8
0
100
AcDbLine
 10
-116.4968808339999
 20
-115.5
 30
0.0
 11
-205.3484665795092
 21
-104.0
 31
0.0
  0
ENDBLK
  5
6204
330
607E
100
AcDbEntity
  8
0
 62
     2
100
AcDbBlockEnd
  0
BLOCK
  5
6237
330
6236
100
AcDbEntity
  8
0
100
AcDbBlockBegin
  2
*D2
 70
     1
 10
0.0
 20
0.0
 30
0.0
  3
*D2
  1

  0
LINE
  5
63F8
330
6236
100
AcDbEntity
  8
MEASURE
 62
     9
370
    -2
100
AcDbLine
 10
857.5291724079365
 20
374.9193085554231
 30
0.0
 11
857.5291724079365
 21
290.805978229514
 31
0.0
  0
LINE
  5
63F9
330
6236
100
AcDbEntity
  8
MEASURE
 62
     9
370
    -2
100
AcDbLine
 10
1157.529172407936
 20
374.9193085554231
 30
0.0
 11
1157.529172407936
 21
290.805978229514
 31
0.0
  0
LINE
  5
63FA
330
6236
100
AcDbEntity
  8
MEASURE
 62
     9
370
    -2
100
AcDbLine
 10
870.0291724079365
 20
300.805978229514
 30
0.0
 11
1145.029172407936
 21
300.805978229514
 31
0.0
  0
SOLID
  5
63FB
330
6236
100
AcDbEntity
  8
MEASURE
 62
     9
100
AcDbTrace
 10
870.0291724079365
 20
302.8893115628473
 30
0.0
 11
870.0291724079365
 21
298.7226448961807
 31
0.0
 12
857.5291724079365
 22
300.805978229514
 32
0.0
 13
857.5291724079365
 23
300.805978229514
 33
0.0
  0
SOLID
  5
63FC
330
6236
100
AcDbEntity
  8
MEASURE
 62
     9
100
AcDbTrace
 10
1145.029172407936
 20
302.8893115628473
 30
0.0
 11
1145.029172407936
 21
298.7226448961807
 31
0.0
 12
1157.529172407936
 22
300.805978229514
 32
0.0
 13
1157.529172407936
 23
300.805978229514
 33
0.0
  0
MTEXT
  5
63FD
330
6236
100
AcDbEntity
  8
MEASURE
 62
     2
100
AcDbMText
 10
1007.529172407936
 20
310.305978229514
 30
0.0
 40
14.0
 41
0.0
 71
     5
 72
     1
  1
\A1;300
  7
AD-STANDARD
 73
     1
 44
1.0
1001
ACAD
1000
MTEXTBEGIN
1070
    73
1070
     1
1070
    44
1040
1.0
1070
    74
1070
     0
1000
MTEXTEND
  0
POINT
  5
63FE
330
6236
100
AcDbEntity
  8
DEFPOINTS
 62
     0
100
AcDbPoint
 10
857.5291724079365
 20
379.9193085554231
 30
0.0
  0
POINT
  5
63FF
330
6236
100
AcDbEntity
  8
DEFPOINTS
 62
     0
100
AcDbPoint
 10
1157.529172407936
 20
379.9193085554231
 30
0.0
  0
POINT
  5
6400
330
6236
100
AcDbEntity
  8
DEFPOINTS
 62
     0
100
AcDbPoint
 10
1157.529172407936
 20
300.805978229514
 30
0.0
  0
ENDBLK
  5
6238
330
6236
100
AcDbEntity
  8
0
100
AcDbBlockEnd
  0
BLOCK
  5
6243
330
6242
100
AcDbEntity
  8
0
100
AcDbBlockBegin
  2
*D3
 70
     1
 10
0.0
 20
0.0
 30
0.0
  3
*D3
  1

  0
LINE
  5
6401
330
6242
100
AcDbEntity
  8
MEASURE
 62
     9
370
    -2
100
AcDbLine
 10
812.5291724079437
 20
501.4189117554287
 30
0.0
 11
812.5291724079437
 21
626.1136158745257
 31
0.0
  0
LINE
  5
6402
330
6242
100
AcDbEntity
  8
MEASURE
 62
     9
370
    -2
100
AcDbLine
 10
1202.529172407944
 20
501.4189117554287
 30
0.0
 11
1202.529172407944
 21
626.1136158745257
 31
0.0
  0
LINE
  5
6403
330
6242
100
AcDbEntity
  8
MEASURE
 62
     9
370
    -2
100
AcDbLine
 10
825.0291724079437
 20
616.1136158745257
 30
0.0
 11
1190.029172407944
 21
616.1136158745257
 31
0.0
  0
SOLID
  5
6404
330
6242
100
AcDbEntity
  8
MEASURE
 62
     9
100
AcDbTrace
 10
825.0291724079437
 20
618.1969492078591
 30
0.0
 11
825.0291724079437
 21
614.0302825411922
 31
0.0
 12
812.5291724079437
 22
616.1136158745257
 32
0.0
 13
812.5291724079437
 23
616.1136158745257
 33
0.0
  0
SOLID
  5
6405
330
6242
100
AcDbEntity
  8
MEASURE
 62
     9
100
AcDbTrace
 10
1190.029172407944
 20
618.1969492078591
 30
0.0
 11
1190.029172407944
 21
614.0302825411922
 31
0.0
 12
1202.529172407944
 22
616.1136158745257
 32
0.0
 13
1202.529172407944
 23
616.1136158745257
 33
0.0
  0
MTEXT
  5
6406
330
6242
100
AcDbEntity
  8
MEASURE
 62
     2
100
AcDbMText
 10
1007.529172407944
 20
625.6136158745257
 30
0.0
 40
14.0
 41
0.0
 71
     5
 72
     1
  1
\A1;390
  7
AD-STANDARD
 73
     1
 44
1.0
1001
ACAD
1000
MTEXTBEGIN
1070
    73
1070
     1
1070
    44
1040
1.0
1070
    74
1070
     0
1000
MTEXTEND
  0
POINT
  5
6407
330
6242
100
AcDbEntity
  8
DEFPOINTS
 62
     0
100
AcDbPoint
 10
812.5291724079437
 20
496.4189117554287
 30
0.0
  0
POINT
  5
6408
330
6242
100
AcDbEntity
  8
DEFPOINTS
 62
     0
100
AcDbPoint
 10
1202.529172407944
 20
496.4189117554287
 30
0.0
  0
POINT
  5
6409
330
6242
100
AcDbEntity
  8
DEFPOINTS
 62
     0
100
AcDbPoint
 10
1202.529172407944
 20
616.1136158745257
 30
0.0
  0
ENDBLK
  5
6244
330
6242
100
AcDbEntity
  8
0
100
AcDbBlockEnd
  0
BLOCK
  5
624F
330
624E
100
AcDbEntity
  8
0
100
AcDbBlockBegin
  2
*D4
 70
     1
 10
0.0
 20
0.0
 30
0.0
  3
*D4
  1

  0
LINE
  5
640A
330
624E
100
AcDbEntity
  8
MEASURE
 62
     9
 48
0.25
370
    -2
100
AcDbLine
 10
1107.029172407943
 20
974.7194810722156
 30
0.0
 11
1107.029172407943
 21
1026.80580663928
 31
0.0
  0
LINE
  5
640B
330
624E
100
AcDbEntity
  8
MEASURE
 62
     9
 48
0.25
370
    -2
100
AcDbLine
 10
908.0291724079547
 20
974.7194810722147
 30
0.0
 11
908.0291724079547
 21
1026.80580663928
 31
0.0
  0
LINE
  5
640C
330
624E
100
AcDbEntity
  8
MEASURE
 62
     9
 48
0.25
370
    -2
100
AcDbLine
 10
1094.529172407943
 20
1016.80580663928
 30
0.0
 11
920.5291724079547
 21
1016.80580663928
 31
0.0
  0
SOLID
  5
640D
330
624E
100
AcDbEntity
  8
MEASURE
 62
     9
 48
0.25
100
AcDbTrace
 10
1094.529172407943
 20
1018.889139972613
 30
0.0
 11
1094.529172407943
 21
1014.722473305947
 31
0.0
 12
1107.029172407943
 22
1016.80580663928
 32
0.0
 13
1107.029172407943
 23
1016.80580663928
 33
0.0
  0
SOLID
  5
640E
330
624E
100
AcDbEntity
  8
MEASURE
 62
     9
 48
0.25
100
AcDbTrace
 10
920.5291724079547
 20
1018.889139972613
 30
0.0
 11
920.5291724079547
 21
1014.722473305947
 31
0.0
 12
908.0291724079547
 22
1016.80580663928
 32
0.0
 13
908.0291724079547
 23
1016.80580663928
 33
0.0
  0
MTEXT
  5
640F
330
624E
100
AcDbEntity
  8
MEASURE
 62
     2
 48
0.25
100
AcDbMText
 10
1010.514754720156
 20
1026.30580663928
 30
0.0
 40
14.0
 41
0.0
 71
     5
 72
     1
  1
\A1;199
  7
AD-STANDARD
 73
     1
 44
1.0
1001
ACAD
1000
MTEXTBEGIN
1070
    73
1070
     1
1070
    44
1040
1.0
1070
    74
1070
     0
1000
MTEXTEND
  0
POINT
  5
6410
330
624E
100
AcDbEntity
  8
DEFPOINTS
 62
     0
 48
0.25
100
AcDbPoint
 10
1107.029172407943
 20
969.7194810722155
 30
0.0
  0
POINT
  5
6411
330
624E
100
AcDbEntity
  8
DEFPOINTS
 62
     0
 48
0.25
100
AcDbPoint
 10
908.0291724079547
 20
969.7194810722146
 30
0.0
  0
POINT
  5
6412
330
624E
100
AcDbEntity
  8
DEFPOINTS
 62
     0
 48
0.25
100
AcDbPoint
 10
908.0291724079547
 20
1016.80580663928
 30
0.0
  0
ENDBLK
  5
6250
330
624E
100
AcDbEntity
  8
0
100
AcDbBlockEnd
  0
BLOCK
  5
625B
330
625A
100
AcDbEntity
  8
0
100
AcDbBlockBegin
  2
*D5
 70
     1
 10
0.0
 20
0.0
 30
0.0
  3
*D5
  1

  0
LINE
  5
6413
330
625A
100
AcDbEntity
  8
MEASURE
 62
     9
 48
0.25
370
    -2
100
AcDbLine
 10
1111.229172407943
 20
970.5194810722147
 30
0.0
 11
1176.335125095582
 21
970.5194810722147
 31
0.0
  0
LINE
  5
6414
330
625A
100
AcDbEntity
  8
MEASURE
 62
     9
 48
0.25
370
    -2
100
AcDbLine
 10
1111.229172407943
 20
764.5194810722166
 30
0.0
 11
1176.335125095582
 21
764.5194810722166
 31
0.0
  0
LINE
  5
6415
330
625A
100
AcDbEntity
  8
MEASURE
 62
     9
 48
0.25
370
    -2
100
AcDbLine
 10
1166.335125095582
 20
958.0194810722147
 30
0.0
 11
1166.335125095582
 21
777.0194810722166
 31
0.0
  0
SOLID
  5
6416
330
625A
100
AcDbEntity
  8
MEASURE
 62
     9
 48
0.25
100
AcDbTrace
 10
1164.251791762249
 20
958.0194810722147
 30
0.0
 11
1168.418458428915
 21
958.0194810722147
 31
0.0
 12
1166.335125095582
 22
970.5194810722147
 32
0.0
 13
1166.335125095582
 23
970.5194810722147
 33
0.0
  0
SOLID
  5
6417
330
625A
100
AcDbEntity
  8
MEASURE
 62
     9
 48
0.25
100
AcDbTrace
 10
1164.251791762249
 20
777.0194810722166
 30
0.0
 11
1168.418458428915
 21
777.0194810722166
 31
0.0
 12
1166.335125095582
 22
764.5194810722166
 32
0.0
 13
1166.335125095582
 23
764.5194810722166
 33
0.0
  0
MTEXT
  5
6418
330
625A
100
AcDbEntity
  8
MEASURE
 62
     2
 48
0.25
100
AcDbMText
 10
1156.835125095582
 20
867.126221457949
 30
0.0
 40
14.0
 41
0.0
 71
     5
 72
     1
  1
\A1;206
  7
AD-STANDARD
 11
0.0000000000000001
 21
1.0
 31
0.0
 73
     1
 44
1.0
1001
ACAD
1000
MTEXTBEGIN
1070
    73
1070
     1
1070
    44
1040
1.0
1070
    74
1070
     0
1000
MTEXTEND
  0
POINT
  5
6419
330
625A
100
AcDbEntity
  8
DEFPOINTS
 62
     0
 48
0.25
100
AcDbPoint
 10
1106.229172407942
 20
970.5194810722147
 30
0.0
  0
POINT
  5
641A
330
625A
100
AcDbEntity
  8
DEFPOINTS
 62
     0
 48
0.25
100
AcDbPoint
 10
1106.229172407943
 20
764.5194810722166
 30
0.0
  0
POINT
  5
641B
330
625A
100
AcDbEntity
  8
DEFPOINTS
 62
     0
 48
0.25
100
AcDbPoint
 10
1166.335125095582
 20
764.5194810722166
 30
0.0
  0
ENDBLK
  5
625C
330
625A
100
AcDbEntity
  8
0
100
AcDbBlockEnd
  0
BLOCK
  5
6267
330
6266
100
AcDbEntity
  8
0
100
AcDbBlockBegin
  2
*D6
 70
     1
 10
0.0
 20
0.0
 30
0.0
  3
*D6
  1

  0
LINE
  5
641C
330
6266
100
AcDbEntity
  8
MEASURE
 62
     9
370
    -2
100
AcDbLine
 10
1434.231508656055
 20
432.9189117554288
 30
0.0
 11
1434.231508656055
 21
228.8109458829832
 31
0.0
  0
LINE
  5
641D
330
6266
100
AcDbEntity
  8
MEASURE
 62
     9
370
    -2
100
AcDbLine
 10
2195.231417056054
 20
862.5194810722167
 30
0.0
 11
2195.231417056054
 21
228.8109458829831
 31
0.0
  0
LINE
  5
641E
330
6266
100
AcDbEntity
  8
MEASURE
 62
     9
370
    -2
100
AcDbLine
 10
1446.731508656054
 20
238.8109458829831
 30
0.0
 11
2182.731417056054
 21
238.8109458829831
 31
0.0
  0
SOLID
  5
641F
330
6266
100
AcDbEntity
  8
MEASURE
 62
     9
100
AcDbTrace
 10
1446.731508656054
 20
240.8942792163165
 30
0.0
 11
1446.731508656054
 21
236.7276125496498
 31
0.0
 12
1434.231508656055
 22
238.8109458829831
 32
0.0
 13
1434.231508656055
 23
238.8109458829831
 33
0.0
  0
SOLID
  5
6420
330
6266
100
AcDbEntity
  8
MEASURE
 62
     9
100
AcDbTrace
 10
2182.731417056054
 20
240.8942792163165
 30
0.0
 11
2182.731417056054
 21
236.7276125496498
 31
0.0
 12
2195.231417056054
 22
238.8109458829831
 32
0.0
 13
2195.231417056054
 23
238.8109458829831
 33
0.0
  0
MTEXT
  5
6421
330
6266
100
AcDbEntity
  8
MEASURE
 62
     2
100
AcDbMText
 10
1814.731462856054
 20
248.3109458829832
 30
0.0
 40
14.0
 41
0.0
 71
     5
 72
     1
  1
\A1;（761）
  7
AD-STANDARD
 73
     1
 44
1.0
1001
ACAD
1000
MTEXTBEGIN
1070
    73
1070
     1
1070
    44
1040
1.0
1070
    74
1070
     0
1000
MTEXTEND
  0
POINT
  5
6422
330
6266
100
AcDbEntity
  8
DEFPOINTS
 62
     0
100
AcDbPoint
 10
1434.231508656055
 20
437.9189117554288
 30
0.0
  0
POINT
  5
6423
330
6266
100
AcDbEntity
  8
DEFPOINTS
 62
     0
100
AcDbPoint
 10
2195.231417056054
 20
867.5194810722169
 30
0.0
  0
POINT
  5
6424
330
6266
100
AcDbEntity
  8
DEFPOINTS
 62
     0
100
AcDbPoint
 10
2195.231417056054
 20
238.8109458829831
 30
0.0
  0
ENDBLK
  5
6268
330
6266
100
AcDbEntity
  8
0
100
AcDbBlockEnd
  0
BLOCK
  5
6273
330
6272
100
AcDbEntity
  8
0
100
AcDbBlockBegin
  2
*D7
 70
     1
 10
0.0
 20
0.0
 30
0.0
  3
*D7
  1

  0
LINE
  5
6425
330
6272
100
AcDbEntity
  8
MEASURE
 62
     9
370
    -2
100
AcDbLine
 10
1936.239321156048
 20
379.9188201554239
 30
0.0
 11
2252.043562176194
 21
379.9188201554239
 31
0.0
  0
LINE
  5
6426
330
6272
100
AcDbEntity
  8
MEASURE
 62
     9
370
    -2
100
AcDbLine
 10
2121.431444132798
 20
970.519481072216
 30
0.0
 11
2252.043562176194
 21
970.519481072216
 31
0.0
  0
LINE
  5
6427
330
6272
100
AcDbEntity
  8
MEASURE
 62
     9
370
    -2
100
AcDbLine
 10
2242.043562176195
 20
392.4188201554239
 30
0.0
 11
2242.043562176195
 21
958.019481072216
 31
0.0
  0
SOLID
  5
6428
330
6272
100
AcDbEntity
  8
MEASURE
 62
     9
100
AcDbTrace
 10
2239.960228842861
 20
392.4188201554239
 30
0.0
 11
2244.126895509528
 21
392.4188201554239
 31
0.0
 12
2242.043562176195
 22
379.9188201554239
 32
0.0
 13
2242.043562176195
 23
379.9188201554239
 33
0.0
  0
SOLID
  5
6429
330
6272
100
AcDbEntity
  8
MEASURE
 62
     9
100
AcDbTrace
 10
2239.960228842861
 20
958.019481072216
 30
0.0
 11
2244.126895509528
 21
958.019481072216
 31
0.0
 12
2242.043562176195
 22
970.519481072216
 32
0.0
 13
2242.043562176195
 23
970.519481072216
 33
0.0
  0
MTEXT
  5
642A
330
6272
100
AcDbEntity
  8
MEASURE
 62
     2
100
AcDbMText
 10
2232.543562176195
 20
675.2191506138203
 30
0.0
 40
14.0
 41
0.0
 71
     5
 72
     1
  1
\A1;（752）
  7
AD-STANDARD
 11
0.0000000000000001
 21
1.0
 31
0.0
 73
     1
 44
1.0
1001
ACAD
1000
MTEXTBEGIN
1070
    73
1070
     1
1070
    44
1040
1.0
1070
    74
1070
     0
1000
MTEXTEND
  0
POINT
  5
642B
330
6272
100
AcDbEntity
  8
DEFPOINTS
 62
     0
100
AcDbPoint
 10
1931.239321156047
 20
379.9188201554239
 30
0.0
  0
POINT
  5
642C
330
6272
100
AcDbEntity
  8
DEFPOINTS
 62
     0
100
AcDbPoint
 10
2116.431444132798
 20
970.519481072216
 30
0.0
  0
POINT
  5
642D
330
6272
100
AcDbEntity
  8
DEFPOINTS
 62
     0
100
AcDbPoint
 10
2242.043562176195
 20
970.519481072216
 30
0.0
  0
ENDBLK
  5
6274
330
6272
100
AcDbEntity
  8
0
100
AcDbBlockEnd
  0
BLOCK
  5
627F
330
627E
100
AcDbEntity
  8
0
100
AcDbBlockBegin
  2
*D8
 70
     1
 10
0.0
 20
0.0
 30
0.0
  3
*D8
  1

  0
LINE
  5
642E
330
627E
100
AcDbEntity
  8
MEASURE
 62
     9
370
    -2
100
AcDbLine
 10
1434.231508656055
 20
501.4189117554288
 30
0.0
 11
1434.231508656055
 21
625.5746776534806
 31
0.0
  0
LINE
  5
642F
330
627E
100
AcDbEntity
  8
MEASURE
 62
     9
370
    -2
100
AcDbLine
 10
1964.231417056055
 20
501.4189117554288
 30
0.0
 11
1964.231417056055
 21
625.5746776534806
 31
0.0
  0
LINE
  5
6430
330
627E
100
AcDbEntity
  8
MEASURE
 62
     9
370
    -2
100
AcDbLine
 10
1446.731508656054
 20
615.5746776534806
 30
0.0
 11
1951.731417056055
 21
615.5746776534806
 31
0.0
  0
SOLID
  5
6431
330
627E
100
AcDbEntity
  8
MEASURE
 62
     9
100
AcDbTrace
 10
1446.731508656054
 20
617.658010986814
 30
0.0
 11
1446.731508656054
 21
613.4913443201472
 31
0.0
 12
1434.231508656055
 22
615.5746776534806
 32
0.0
 13
1434.231508656055
 23
615.5746776534806
 33
0.0
  0
SOLID
  5
6432
330
627E
100
AcDbEntity
  8
MEASURE
 62
     9
100
AcDbTrace
 10
1951.731417056055
 20
617.658010986814
 30
0.0
 11
1951.731417056055
 21
613.4913443201472
 31
0.0
 12
1964.231417056055
 22
615.5746776534806
 32
0.0
 13
1964.231417056055
 23
615.5746776534806
 33
0.0
  0
MTEXT
  5
6433
330
627E
100
AcDbEntity
  8
MEASURE
 62
     2
100
AcDbMText
 10
1699.231462856055
 20
625.0746776534806
 30
0.0
 40
14.0
 41
0.0
 71
     5
 72
     1
  1
\A1;530
  7
AD-STANDARD
 73
     1
 44
1.0
1001
ACAD
1000
MTEXTBEGIN
1070
    73
1070
     1
1070
    44
1040
1.0
1070
    74
1070
     0
1000
MTEXTEND
  0
POINT
  5
6434
330
627E
100
AcDbEntity
  8
DEFPOINTS
 62
     0
100
AcDbPoint
 10
1434.231508656055
 20
496.4189117554288
 30
0.0
  0
POINT
  5
6435
330
627E
100
AcDbEntity
  8
DEFPOINTS
 62
     0
100
AcDbPoint
 10
1964.231417056055
 20
496.4189117554288
 30
0.0
  0
POINT
  5
6436
330
627E
100
AcDbEntity
  8
DEFPOINTS
 62
     0
100
AcDbPoint
 10
1964.231417056055
 20
615.5746776534806
 30
0.0
  0
ENDBLK
  5
6280
330
627E
100
AcDbEntity
  8
0
100
AcDbBlockEnd
  0
BLOCK
  5
628B
330
628A
100
AcDbEntity
  8
0
100
AcDbBlockBegin
  2
*D9
 70
     1
 10
0.0
 20
0.0
 30
0.0
  3
*D9
  1

  0
LINE
  5
6437
330
628A
100
AcDbEntity
  8
MEASURE
 62
     9
370
    -2
100
AcDbLine
 10
1429.231508656054
 20
437.9189117554288
 30
0.0
 11
1328.212448411955
 21
437.9189117554288
 31
0.0
  0
LINE
  5
6438
330
628A
100
AcDbEntity
  8
MEASURE
 62
     9
370
    -2
100
AcDbLine
 10
1440.731523856055
 20
507.9189117554288
 30
0.0
 11
1328.212448411955
 21
507.9189117554288
 31
0.0
  0
LINE
  5
6439
330
628A
100
AcDbEntity
  8
MEASURE
 62
     9
370
    -2
100
AcDbLine
 10
1338.212448411955
 20
450.4189117554288
 30
0.0
 11
1338.212448411955
 21
495.4189117554288
 31
0.0
  0
SOLID
  5
643A
330
628A
100
AcDbEntity
  8
MEASURE
 62
     9
100
AcDbTrace
 10
1336.129115078622
 20
450.4189117554288
 30
0.0
 11
1340.295781745288
 21
450.4189117554288
 31
0.0
 12
1338.212448411955
 22
437.9189117554288
 32
0.0
 13
1338.212448411955
 23
437.9189117554288
 33
0.0
  0
SOLID
  5
643B
330
628A
100
AcDbEntity
  8
MEASURE
 62
     9
100
AcDbTrace
 10
1336.129115078622
 20
495.4189117554288
 30
0.0
 11
1340.295781745288
 21
495.4189117554288
 31
0.0
 12
1338.212448411955
 22
507.9189117554288
 32
0.0
 13
1338.212448411955
 23
507.9189117554288
 33
0.0
  0
MTEXT
  5
643C
330
628A
100
AcDbEntity
  8
MEASURE
 62
     2
100
AcDbMText
 10
1328.712448411955
 20
472.9189117554291
 30
0.0
 40
14.0
 41
0.0
 71
     5
 72
     1
  1
\A1;70
  7
AD-STANDARD
 11
0.0000000000000001
 21
1.0
 31
0.0
 73
     1
 44
1.0
1001
ACAD
1000
MTEXTBEGIN
1070
    73
1070
     1
1070
    44
1040
1.0
1070
    74
1070
     0
1000
MTEXTEND
  0
POINT
  5
643D
330
628A
100
AcDbEntity
  8
DEFPOINTS
 62
     0
100
AcDbPoint
 10
1434.231508656055
 20
437.9189117554288
 30
0.0
  0
POINT
  5
643E
330
628A
100
AcDbEntity
  8
DEFPOINTS
 62
     0
100
AcDbPoint
 10
1445.731523856055
 20
507.9189117554288
 30
0.0
  0
POINT
  5
643F
330
628A
100
AcDbEntity
  8
DEFPOINTS
 62
     0
100
AcDbPoint
 10
1338.212448411955
 20
507.9189117554288
 30
0.0
  0
ENDBLK
  5
628C
330
628A
100
AcDbEntity
  8
0
100
AcDbBlockEnd
  0
BLOCK
  5
6297
330
6296
100
AcDbEntity
  8
0
100
AcDbBlockBegin
  2
*D10
 70
     1
 10
0.0
 20
0.0
 30
0.0
  3
*D10
  1

  0
LINE
  5
64AE
330
6296
100
AcDbEntity
  8
MEASURE
 62
     9
370
    -2
100
AcDbLine
 10
1462.23150745695
 20
379.9193085554261
 30
0.0
 11
1278.307264450653
 21
379.9193085554262
 31
0.0
  0
LINE
  5
64AF
330
6296
100
AcDbEntity
  8
MEASURE
 62
     9
370
    -2
100
AcDbLine
 10
1440.731523856055
 20
507.9189117554288
 30
0.0
 11
1278.307264450653
 21
507.9189117554289
 31
0.0
  0
LINE
  5
64B0
330
6296
100
AcDbEntity
  8
MEASURE
 62
     9
370
    -2
100
AcDbLine
 10
1288.307264450653
 20
392.4193085554262
 30
0.0
 11
1288.307264450653
 21
495.4189117554289
 31
0.0
  0
SOLID
  5
64B1
330
6296
100
AcDbEntity
  8
MEASURE
 62
     9
100
AcDbTrace
 10
1286.22393111732
 20
392.4193085554262
 30
0.0
 11
1290.390597783986
 21
392.4193085554262
 31
0.0
 12
1288.307264450653
 22
379.9193085554262
 32
0.0
 13
1288.307264450653
 23
379.9193085554262
 33
0.0
  0
SOLID
  5
64B2
330
6296
100
AcDbEntity
  8
MEASURE
 62
     9
100
AcDbTrace
 10
1286.22393111732
 20
495.4189117554289
 30
0.0
 11
1290.390597783986
 21
495.4189117554289
 31
0.0
 12
1288.307264450653
 22
507.9189117554289
 32
0.0
 13
1288.307264450653
 23
507.9189117554289
 33
0.0
  0
MTEXT
  5
64B3
330
6296
100
AcDbEntity
  8
MEASURE
 62
     2
100
AcDbMText
 10
1278.807264450653
 20
443.9191101554277
 30
0.0
 40
13.99999999999999
 41
0.0
 71
     5
 72
     1
  1
\A1;129
  7
AD-STANDARD
 11
0.0000000000000001
 21
1.0
 31
0.0
 73
     1
 44
1.0
1001
ACAD
1000
MTEXTBEGIN
1070
    73
1070
     1
1070
    44
1040
1.0
1070
    74
1070
     0
1000
MTEXTEND
  0
POINT
  5
64B4
330
6296
100
AcDbEntity
  8
DEFPOINTS
 62
     0
100
AcDbPoint
 10
1467.23150745695
 20
379.9193085554261
 30
0.0
  0
POINT
  5
64B5
330
6296
100
AcDbEntity
  8
DEFPOINTS
 62
     0
100
AcDbPoint
 10
1445.731523856055
 20
507.9189117554288
 30
0.0
  0
POINT
  5
64B6
330
6296
100
AcDbEntity
  8
DEFPOINTS
 62
     0
100
AcDbPoint
 10
1288.307264450653
 20
507.9189117554289
 30
0.0
  0
ENDBLK
  5
6298
330
6296
100
AcDbEntity
  8
0
100
AcDbBlockEnd
  0
BLOCK
  5
62A3
330
62A2
100
AcDbEntity
  8
0
100
AcDbBlockBegin
  2
*D11
 70
     1
 10
0.0
 20
0.0
 30
0.0
  3
*D11
  1

  0
LINE
  5
6449
330
62A2
100
AcDbEntity
  8
MEASURE
 62
     9
370
    -2
100
AcDbLine
 10
1479.231523856054
 20
378.9188258554287
 30
0.0
 11
1479.231523856054
 21
290.8059782295141
 31
0.0
  0
LINE
  5
644A
330
62A2
100
AcDbEntity
  8
MEASURE
 62
     9
370
    -2
100
AcDbLine
 10
1434.231508656055
 20
432.9189117554288
 30
0.0
 11
1434.231508656055
 21
290.8059782295141
 31
0.0
  0
LINE
  5
644B
330
62A2
100
AcDbEntity
  8
MEASURE
 62
     9
370
    -2
100
AcDbLine
 10
1466.731523856054
 20
300.8059782295141
 30
0.0
 11
1446.731508656054
 21
300.8059782295141
 31
0.0
  0
SOLID
  5
644C
330
62A2
100
AcDbEntity
  8
MEASURE
 62
     9
100
AcDbTrace
 10
1466.731523856054
 20
302.8893115628473
 30
0.0
 11
1466.731523856054
 21
298.7226448961808
 31
0.0
 12
1479.231523856054
 22
300.8059782295141
 32
0.0
 13
1479.231523856054
 23
300.8059782295141
 33
0.0
  0
SOLID
  5
644D
330
62A2
100
AcDbEntity
  8
MEASURE
 62
     9
100
AcDbTrace
 10
1446.731508656054
 20
302.8893115628473
 30
0.0
 11
1446.731508656054
 21
298.7226448961808
 31
0.0
 12
1434.231508656055
 22
300.8059782295141
 32
0.0
 13
1434.231508656055
 23
300.8059782295141
 33
0.0
  0
MTEXT
  5
644E
330
62A2
100
AcDbEntity
  8
MEASURE
 62
     2
100
AcDbMText
 10
1456.731516256054
 20
310.3059782295141
 30
0.0
 40
14.0
 41
0.0
 71
     5
 72
     1
  1
\A1;45
  7
AD-STANDARD
 73
     1
 44
1.0
1001
ACAD
1000
MTEXTBEGIN
1070
    73
1070
     1
1070
    44
1040
1.0
1070
    74
1070
     0
1000
MTEXTEND
  0
POINT
  5
644F
330
62A2
100
AcDbEntity
  8
DEFPOINTS
 62
     0
100
AcDbPoint
 10
1479.231523856054
 20
383.9188258554287
 30
0.0
  0
POINT
  5
6450
330
62A2
100
AcDbEntity
  8
DEFPOINTS
 62
     0
100
AcDbPoint
 10
1434.231508656055
 20
437.9189117554288
 30
0.0
  0
POINT
  5
6451
330
62A2
100
AcDbEntity
  8
DEFPOINTS
 62
     0
100
AcDbPoint
 10
1434.231508656055
 20
300.8059782295141
 30
0.0
  0
ENDBLK
  5
62A4
330
62A2
100
AcDbEntity
  8
0
100
AcDbBlockEnd
  0
BLOCK
  5
62AF
330
62AE
100
AcDbEntity
  8
0
100
AcDbBlockBegin
  2
*D12
 70
     1
 10
0.0
 20
0.0
 30
0.0
  3
*D12
  1

  0
LINE
  5
6452
330
62AE
100
AcDbEntity
  8
MEASURE
 62
     9
370
    -2
100
AcDbLine
 10
1479.231523856054
 20
378.9188258554287
 30
0.0
 11
1479.231523856054
 21
290.8059782295141
 31
0.0
  0
LINE
  5
6453
330
62AE
100
AcDbEntity
  8
MEASURE
 62
     9
370
    -2
100
AcDbLine
 10
1919.231523856054
 20
378.9188258554287
 30
0.0
 11
1919.231523856054
 21
290.8059782295141
 31
0.0
  0
LINE
  5
6454
330
62AE
100
AcDbEntity
  8
MEASURE
 62
     9
370
    -2
100
AcDbLine
 10
1491.731523856054
 20
300.8059782295141
 30
0.0
 11
1906.731523856054
 21
300.8059782295141
 31
0.0
  0
SOLID
  5
6455
330
62AE
100
AcDbEntity
  8
MEASURE
 62
     9
100
AcDbTrace
 10
1491.731523856054
 20
302.8893115628473
 30
0.0
 11
1491.731523856054
 21
298.7226448961808
 31
0.0
 12
1479.231523856054
 22
300.8059782295141
 32
0.0
 13
1479.231523856054
 23
300.8059782295141
 33
0.0
  0
SOLID
  5
6456
330
62AE
100
AcDbEntity
  8
MEASURE
 62
     9
100
AcDbTrace
 10
1906.731523856054
 20
302.8893115628473
 30
0.0
 11
1906.731523856054
 21
298.7226448961808
 31
0.0
 12
1919.231523856054
 22
300.8059782295141
 32
0.0
 13
1919.231523856054
 23
300.8059782295141
 33
0.0
  0
MTEXT
  5
6457
330
62AE
100
AcDbEntity
  8
MEASURE
 62
     2
100
AcDbMText
 10
1699.231523856054
 20
310.3059782295141
 30
0.0
 40
14.0
 41
0.0
 71
     5
 72
     1
  1
\A1;440
  7
AD-STANDARD
 73
     1
 44
1.0
1001
ACAD
1000
MTEXTBEGIN
1070
    73
1070
     1
1070
    44
1040
1.0
1070
    74
1070
     0
1000
MTEXTEND
  0
POINT
  5
6458
330
62AE
100
AcDbEntity
  8
DEFPOINTS
 62
     0
100
AcDbPoint
 10
1479.231523856054
 20
383.9188258554287
 30
0.0
  0
POINT
  5
6459
330
62AE
100
AcDbEntity
  8
DEFPOINTS
 62
     0
100
AcDbPoint
 10
1919.231523856054
 20
383.9188258554287
 30
0.0
  0
POINT
  5
645A
330
62AE
100
AcDbEntity
  8
DEFPOINTS
 62
     0
100
AcDbPoint
 10
1919.231523856054
 20
300.8059782295141
 30
0.0
  0
ENDBLK
  5
62B0
330
62AE
100
AcDbEntity
  8
0
100
AcDbBlockEnd
  0
BLOCK
  5
62BB
330
62BA
100
AcDbEntity
  8
0
100
AcDbBlockBegin
  2
*D13
 70
     1
 10
0.0
 20
0.0
 30
0.0
  3
*D13
  1

  0
LINE
  5
645B
330
62BA
100
AcDbEntity
  8
MEASURE
 62
     9
370
    -2
100
AcDbLine
 10
1919.231523856054
 20
373.9188258554287
 30
0.0
 11
1919.231523856054
 21
290.8059782295141
 31
0.0
  0
LINE
  5
645C
330
62BA
100
AcDbEntity
  8
MEASURE
 62
     9
370
    -2
100
AcDbLine
 10
2106.231417056055
 20
378.3900116554292
 30
0.0
 11
2106.231417056055
 21
290.8059782295141
 31
0.0
  0
LINE
  5
645D
330
62BA
100
AcDbEntity
  8
MEASURE
 62
     9
370
    -2
100
AcDbLine
 10
1931.731523856054
 20
300.8059782295141
 30
0.0
 11
2093.731417056055
 21
300.8059782295141
 31
0.0
  0
SOLID
  5
645E
330
62BA
100
AcDbEntity
  8
MEASURE
 62
     9
100
AcDbTrace
 10
1931.731523856054
 20
302.8893115628473
 30
0.0
 11
1931.731523856054
 21
298.7226448961808
 31
0.0
 12
1919.231523856054
 22
300.8059782295141
 32
0.0
 13
1919.231523856054
 23
300.8059782295141
 33
0.0
  0
SOLID
  5
645F
330
62BA
100
AcDbEntity
  8
MEASURE
 62
     9
100
AcDbTrace
 10
2093.731417056055
 20
302.8893115628473
 30
0.0
 11
2093.731417056055
 21
298.7226448961808
 31
0.0
 12
2106.231417056055
 22
300.8059782295141
 32
0.0
 13
2106.231417056055
 23
300.8059782295141
 33
0.0
  0
MTEXT
  5
6460
330
62BA
100
AcDbEntity
  8
MEASURE
 62
     2
100
AcDbMText
 10
2012.731470456055
 20
310.3059782295141
 30
0.0
 40
14.0
 41
0.0
 71
     5
 72
     1
  1
\A1;187
  7
AD-STANDARD
 73
     1
 44
1.0
1001
ACAD
1000
MTEXTBEGIN
1070
    73
1070
     1
1070
    44
1040
1.0
1070
    74
1070
     0
1000
MTEXTEND
  0
POINT
  5
6461
330
62BA
100
AcDbEntity
  8
DEFPOINTS
 62
     0
100
AcDbPoint
 10
1919.231523856054
 20
378.9188258554287
 30
0.0
  0
POINT
  5
6462
330
62BA
100
AcDbEntity
  8
DEFPOINTS
 62
     0
100
AcDbPoint
 10
2106.231417056055
 20
383.3900116554291
 30
0.0
  0
POINT
  5
6463
330
62BA
100
AcDbEntity
  8
DEFPOINTS
 62
     0
100
AcDbPoint
 10
2106.231417056055
 20
300.8059782295141
 30
0.0
  0
ENDBLK
  5
62BC
330
62BA
100
AcDbEntity
  8
0
100
AcDbBlockEnd
  0
BLOCK
  5
62C7
330
62C6
100
AcDbEntity
  8
0
100
AcDbBlockBegin
  2
*D14
 70
     1
 10
0.0
 20
0.0
 30
0.0
  3
*D14
  1

  0
LINE
  5
6464
330
62C6
100
AcDbEntity
  8
MEASURE
 62
     9
 48
0.25
370
    -2
100
AcDbLine
 10
2152.031444132797
 20
812.7201059197068
 30
0.0
 11
2152.031444132797
 21
1054.082111602273
 31
0.0
  0
LINE
  5
6465
330
62C6
100
AcDbEntity
  8
MEASURE
 62
     9
 48
0.25
370
    -2
100
AcDbLine
 10
2055.231417056056
 20
944.8194810722162
 30
0.0
 11
2055.231417056056
 21
1054.082111602273
 31
0.0
  0
LINE
  5
6466
330
62C6
100
AcDbEntity
  8
MEASURE
 62
     9
 48
0.25
370
    -2
100
AcDbLine
 10
2139.531444132797
 20
1044.082111602273
 30
0.0
 11
2067.731417056056
 21
1044.082111602273
 31
0.0
  0
SOLID
  5
6467
330
62C6
100
AcDbEntity
  8
MEASURE
 62
     9
 48
0.25
100
AcDbTrace
 10
2139.531444132797
 20
1046.165444935607
 30
0.0
 11
2139.531444132797
 21
1041.99877826894
 31
0.0
 12
2152.031444132797
 22
1044.082111602273
 32
0.0
 13
2152.031444132797
 23
1044.082111602273
 33
0.0
  0
SOLID
  5
6468
330
62C6
100
AcDbEntity
  8
MEASURE
 62
     9
 48
0.25
100
AcDbTrace
 10
2067.731417056056
 20
1046.165444935607
 30
0.0
 11
2067.731417056056
 21
1041.99877826894
 31
0.0
 12
2055.231417056056
 22
1044.082111602273
 32
0.0
 13
2055.231417056056
 23
1044.082111602273
 33
0.0
  0
MTEXT
  5
6469
330
62C6
100
AcDbEntity
  8
MEASURE
 62
     2
 48
0.25
100
AcDbMText
 10
2095.631430594426
 20
1057.24877826894
 30
0.0
 40
14.0
 41
0.0
 71
     5
 72
     1
  1
\A1;(100)
  7
AD-STANDARD
 73
     1
 44
1.0
1001
ACAD
1000
MTEXTBEGIN
1070
    73
1070
     1
1070
    44
1040
1.0
1070
    74
1070
     0
1000
MTEXTEND
  0
POINT
  5
646A
330
62C6
100
AcDbEntity
  8
DEFPOINTS
 62
     0
 48
0.25
100
AcDbPoint
 10
2152.031444132797
 20
807.7201059197069
 30
0.0
  0
POINT
  5
646B
330
62C6
100
AcDbEntity
  8
DEFPOINTS
 62
     0
 48
0.25
100
AcDbPoint
 10
2055.231417056056
 20
939.8194810722159
 30
0.0
  0
POINT
  5
646C
330
62C6
100
AcDbEntity
  8
DEFPOINTS
 62
     0
 48
0.25
100
AcDbPoint
 10
2055.231417056056
 20
1044.082111602273
 30
0.0
  0
ENDBLK
  5
62C8
330
62C6
100
AcDbEntity
  8
0
100
AcDbBlockEnd
  0
BLOCK
  5
62D3
330
62D2
100
AcDbEntity
  8
0
100
AcDbBlockBegin
  2
*D15
 70
     1
 10
0.0
 20
0.0
 30
0.0
  3
*D15
  1

  0
LINE
  5
646D
330
62D2
100
AcDbEntity
  8
MEASURE
 62
     9
 48
0.25
370
    -2
100
AcDbLine
 10
2055.231417056056
 20
942.819481072216
 30
0.0
 11
2055.231417056056
 21
1028.59075680919
 31
0.0
  0
LINE
  5
646E
330
62D2
100
AcDbEntity
  8
MEASURE
 62
     9
 48
0.25
370
    -2
100
AcDbLine
 10
2117.231444132797
 20
974.7194810722158
 30
0.0
 11
2117.231444132797
 21
1028.59075680919
 31
0.0
  0
LINE
  5
646F
330
62D2
100
AcDbEntity
  8
MEASURE
 62
     9
 48
0.25
370
    -2
100
AcDbLine
 10
2067.731417056056
 20
1018.59075680919
 30
0.0
 11
2104.731444132797
 21
1018.59075680919
 31
0.0
  0
SOLID
  5
6470
330
62D2
100
AcDbEntity
  8
MEASURE
 62
     9
 48
0.25
100
AcDbTrace
 10
2067.731417056056
 20
1020.674090142524
 30
0.0
 11
2067.731417056056
 21
1016.507423475857
 31
0.0
 12
2055.231417056056
 22
1018.59075680919
 32
0.0
 13
2055.231417056056
 23
1018.59075680919
 33
0.0
  0
SOLID
  5
6471
330
62D2
100
AcDbEntity
  8
MEASURE
 62
     9
 48
0.25
100
AcDbTrace
 10
2104.731444132797
 20
1020.674090142524
 30
0.0
 11
2104.731444132797
 21
1016.507423475857
 31
0.0
 12
2117.231444132797
 22
1018.59075680919
 32
0.0
 13
2117.231444132797
 23
1018.59075680919
 33
0.0
  0
MTEXT
  5
6472
330
62D2
100
AcDbEntity
  8
MEASURE
 62
     2
 48
0.25
100
AcDbMText
 10
2086.231430594426
 20
1028.090756809191
 30
0.0
 40
14.0
 41
0.0
 71
     5
 72
     1
  1
\A1;62
  7
AD-STANDARD
 73
     1
 44
1.0
1001
ACAD
1000
MTEXTBEGIN
1070
    73
1070
     1
1070
    44
1040
1.0
1070
    74
1070
     0
1000
MTEXTEND
  0
POINT
  5
6473
330
62D2
100
AcDbEntity
  8
DEFPOINTS
 62
     0
 48
0.25
100
AcDbPoint
 10
2055.231417056056
 20
937.819481072216
 30
0.0
  0
POINT
  5
6474
330
62D2
100
AcDbEntity
  8
DEFPOINTS
 62
     0
 48
0.25
100
AcDbPoint
 10
2117.231444132797
 20
969.7194810722155
 30
0.0
  0
POINT
  5
6475
330
62D2
100
AcDbEntity
  8
DEFPOINTS
 62
     0
 48
0.25
100
AcDbPoint
 10
2117.231444132797
 20
1018.59075680919
 30
0.0
  0
ENDBLK
  5
62D4
330
62D2
100
AcDbEntity
  8
0
100
AcDbBlockEnd
  0
BLOCK
  5
62DF
330
62DE
100
AcDbEntity
  8
0
100
AcDbBlockBegin
  2
*D16
 70
     1
 10
0.0
 20
0.0
 30
0.0
  3
*D16
  1

  0
LINE
  5
6476
330
62DE
100
AcDbEntity
  8
MEASURE
 62
     9
 48
0.25
370
    -2
100
AcDbLine
 10
2068.231417056055
 20
970.519481072216
 30
0.0
 11
2015.950037299547
 21
970.519481072216
 31
0.0
  0
LINE
  5
6477
330
62DE
100
AcDbEntity
  8
MEASURE
 62
     9
 48
0.25
370
    -2
100
AcDbLine
 10
2047.231417056055
 20
747.5194810722167
 30
0.0
 11
2015.950037299547
 21
747.5194810722167
 31
0.0
  0
LINE
  5
6478
330
62DE
100
AcDbEntity
  8
MEASURE
 62
     9
 48
0.25
370
    -2
100
AcDbLine
 10
2025.950037299547
 20
958.019481072216
 30
0.0
 11
2025.950037299547
 21
760.0194810722167
 31
0.0
  0
SOLID
  5
6479
330
62DE
100
AcDbEntity
  8
MEASURE
 62
     9
 48
0.25
100
AcDbTrace
 10
2023.866703966214
 20
958.019481072216
 30
0.0
 11
2028.033370632881
 21
958.019481072216
 31
0.0
 12
2025.950037299547
 22
970.519481072216
 32
0.0
 13
2025.950037299547
 23
970.519481072216
 33
0.0
  0
SOLID
  5
647A
330
62DE
100
AcDbEntity
  8
MEASURE
 62
     9
 48
0.25
100
AcDbTrace
 10
2023.866703966214
 20
760.0194810722167
 30
0.0
 11
2028.033370632881
 21
760.0194810722167
 31
0.0
 12
2025.950037299547
 22
747.5194810722167
 32
0.0
 13
2025.950037299547
 23
747.5194810722167
 33
0.0
  0
MTEXT
  5
647B
330
62DE
100
AcDbEntity
  8
MEASURE
 62
     2
 48
0.25
100
AcDbMText
 10
2016.450037299547
 20
859.0194810722167
 30
0.0
 40
14.0
 41
0.0
 71
     5
 72
     1
  1
\A1;223
  7
AD-STANDARD
 11
0.0000000000000001
 21
1.0
 31
0.0
 73
     1
 44
1.0
1001
ACAD
1000
MTEXTBEGIN
1070
    73
1070
     1
1070
    44
1040
1.0
1070
    74
1070
     0
1000
MTEXTEND
  0
POINT
  5
647C
330
62DE
100
AcDbEntity
  8
DEFPOINTS
 62
     0
 48
0.25
100
AcDbPoint
 10
2073.231417056055
 20
970.519481072216
 30
0.0
  0
POINT
  5
647D
330
62DE
100
AcDbEntity
  8
DEFPOINTS
 62
     0
 48
0.25
100
AcDbPoint
 10
2052.231417056055
 20
747.5194810722167
 30
0.0
  0
POINT
  5
647E
330
62DE
100
AcDbEntity
  8
DEFPOINTS
 62
     0
 48
0.25
100
AcDbPoint
 10
2025.950037299547
 20
747.5194810722167
 30
0.0
  0
ENDBLK
  5
62E0
330
62DE
100
AcDbEntity
  8
0
100
AcDbBlockEnd
  0
ENDSEC
  0
SECTION
  2
ENTITIES
  0
DIMENSION
  5
6224
330
1A
100
AcDbEntity
  8
MEASURE
100
AcDbDimension
  2
*D2
 10
1157.529172407936
 20
300.805978229514
 30
0.0
 11
1007.529172407936
 21
310.305978229514
 31
0.0
 70
    32
 71
     5
 42
300.0
  3
AD-STANDARD
100
AcDbAlignedDimension
 13
857.5291724079365
 23
379.9193085554231
 33
0.0
 14
1157.529172407936
 24
379.9193085554231
 34
0.0
100
AcDbRotatedDimension
1001
ACAD
1000
DSTYLE
1002
{
1070
    40
1040
5.0
1070
   140
1040
2.799999999999998
1070
   271
1070
     3
1070
   272
1070
     8
1070
   289
1070
     1
1002
}
  0
DIMENSION
  5
6225
330
1A
100
AcDbEntity
  8
MEASURE
100
AcDbDimension
  2
*D3
 10
1202.529172407944
 20
616.1136158745257
 30
0.0
 11
1007.529172407944
 21
616.1136158745257
 31
0.0
 70
   160
 71
     5
 42
390.0
  3
AD-STANDARD
100
AcDbAlignedDimension
 13
812.5291724079437
 23
496.4189117554287
 33
0.0
 14
1202.529172407944
 24
496.4189117554287
 34
0.0
100
AcDbRotatedDimension
1001
ACAD
1000
DSTYLE
1002
{
1070
    40
1040
5.0
1070
   140
1040
2.799999999999998
1070
   271
1070
     3
1070
   272
1070
     8
1070
   289
1070
     1
1002
}
  0
DIMENSION
  5
6226
330
1A
100
AcDbEntity
  8
MEASURE
 48
0.25
100
AcDbDimension
  2
*D4
 10
908.0291724079547
 20
1016.80580663928
 30
0.0
 11
1010.514754720156
 21
1016.80580663928
 31
0.0
 70
   160
 71
     5
 42
198.9999999999882
  3
AD-STANDARD
100
AcDbAlignedDimension
 13
1107.029172407943
 23
969.7194810722155
 33
0.0
 14
908.0291724079547
 24
969.7194810722146
 34
0.0
100
AcDbRotatedDimension
1001
ACAD
1000
DSTYLE
1002
{
1070
   287
1070
     1
1070
   287
1070
     1
1070
   287
1070
     1
1070
   287
1070
     1
1070
   287
1070
     1
1070
    40
1040
5.0
1070
   140
1040
2.799999999999998
1070
   271
1070
     3
1070
   272
1070
     8
1070
   289
1070
     1
1002
}
  0
DIMENSION
  5
6227
330
1A
100
AcDbEntity
  8
MEASURE
 48
0.25
100
AcDbDimension
  2
*D5
 10
1166.335125095582
 20
764.5194810722166
 30
0.0
 11
1166.335125095582
 21
867.126221457949
 31
0.0
 70
   160
 71
     5
 42
205.9999999999982
  3
AD-STANDARD
100
AcDbAlignedDimension
 13
1106.229172407942
 23
970.5194810722147
 33
0.0
 14
1106.229172407943
 24
764.5194810722166
 34
0.0
 50
90.0
100
AcDbRotatedDimension
1001
ACAD
1000
DSTYLE
1002
{
1070
   287
1070
     1
1070
   287
1070
     1
1070
   287
1070
     1
1070
   287
1070
     1
1070
   287
1070
     1
1070
    40
1040
5.0
1070
   140
1040
2.799999999999998
1070
   271
1070
     3
1070
   272
1070
     8
1070
   289
1070
     1
1002
}
  0
DIMENSION
  5
6228
330
1A
100
AcDbEntity
  8
MEASURE
100
AcDbDimension
  2
*D6
 10
2195.231417056054
 20
238.8109458829831
 30
0.0
 11
1814.731462856054
 21
248.3109458829832
 31
0.0
 70
    32
  1
（761）
 71
     5
 42
760.9999083999992
  3
AD-STANDARD
100
AcDbAlignedDimension
 13
1434.231508656055
 23
437.9189117554288
 33
0.0
 14
2195.231417056054
 24
867.5194810722169
 34
0.0
100
AcDbRotatedDimension
1001
ACAD
1000
DSTYLE
1002
{
1070
    40
1040
5.0
1070
   140
1040
2.799999999999998
1070
   271
1070
     3
1070
   272
1070
     8
1070
   289
1070
     1
1002
}
  0
DIMENSION
  5
6229
330
1A
100
AcDbEntity
  8
MEASURE
100
AcDbDimension
  2
*D7
 10
2242.043562176195
 20
970.519481072216
 30
0.0
 11
2232.543562176195
 21
675.2191506138203
 31
0.0
 70
    32
  1
（752）
 71
     5
 42
590.6006609167921
  3
AD-STANDARD
100
AcDbAlignedDimension
 13
1931.239321156047
 23
379.9188201554239
 33
0.0
 14
2116.431444132798
 24
970.519481072216
 34
0.0
 50
90.0
100
AcDbRotatedDimension
1001
ACAD
1000
DSTYLE
1002
{
1070
    40
1040
5.0
1070
   140
1040
2.799999999999998
1070
   271
1070
     3
1070
   272
1070
     8
1070
   289
1070
     1
1002
}
  0
DIMENSION
  5
622A
330
1A
100
AcDbEntity
  8
MEASURE
100
AcDbDimension
  2
*D8
 10
1964.231417056055
 20
615.5746776534806
 30
0.0
 11
1699.231462856055
 21
625.0746776534806
 31
0.0
 70
    32
 71
     5
 42
529.9999084000002
  3
AD-STANDARD
100
AcDbAlignedDimension
 13
1434.231508656055
 23
496.4189117554288
 33
0.0
 14
1964.231417056055
 24
496.4189117554288
 34
0.0
100
AcDbRotatedDimension
1001
ACAD
1000
DSTYLE
1002
{
1070
    40
1040
5.0
1070
   140
1040
2.799999999999998
1070
   271
1070
     3
1070
   272
1070
     8
1070
   289
1070
     1
1002
}
  0
DIMENSION
  5
622B
330
1A
100
AcDbEntity
  8
MEASURE
100
AcDbDimension
  2
*D9
 10
1338.212448411955
 20
507.9189117554288
 30
0.0
 11
1328.712448411955
 21
472.9189117554291
 31
0.0
 70
    32
 71
     5
 42
70.0
  3
AD-STANDARD
100
AcDbAlignedDimension
 13
1434.231508656055
 23
437.9189117554288
 33
0.0
 14
1445.731523856055
 24
507.9189117554288
 34
0.0
 50
90.0
100
AcDbRotatedDimension
1001
ACAD
1000
DSTYLE
1002
{
1070
    40
1040
5.0
1070
   140
1040
2.799999999999998
1070
   271
1070
     3
1070
   272
1070
     8
1070
   289
1070
     1
1002
}
  0
DIMENSION
  5
622C
330
1A
100
AcDbEntity
  8
MEASURE
100
AcDbDimension
  2
*D10
 10
1288.307264450653
 20
507.9189117554289
 30
0.0
 11
1278.807264450653
 21
443.9191101554277
 31
0.0
 70
    32
  1
129
 71
     5
 42
127.9996032000027
  3
AD-STANDARD
100
AcDbAlignedDimension
 13
1467.23150745695
 23
379.9193085554261
 33
0.0
 14
1445.731523856055
 24
507.9189117554288
 34
0.0
 50
90.0
100
AcDbRotatedDimension
1001
ACAD
1000
DSTYLE
1002
{
1070
    40
1040
5.0
1070
   140
1040
2.799999999999998
1070
   271
1070
     3
1070
   272
1070
     8
1070
   289
1070
     1
1002
}
  0
DIMENSION
  5
622D
330
1A
100
AcDbEntity
  8
MEASURE
100
AcDbDimension
  2
*D11
 10
1434.231508656055
 20
300.8059782295141
 30
0.0
 11
1456.731516256054
 21
310.3059782295141
 31
0.0
 70
    32
 71
     5
 42
45.00001519999933
  3
AD-STANDARD
100
AcDbAlignedDimension
 13
1479.231523856054
 23
383.9188258554287
 33
0.0
 14
1434.231508656055
 24
437.9189117554288
 34
0.0
100
AcDbRotatedDimension
1001
ACAD
1000
DSTYLE
1002
{
1070
    40
1040
5.0
1070
   140
1040
2.799999999999998
1070
   271
1070
     3
1070
   272
1070
     8
1070
   289
1070
     1
1002
}
  0
DIMENSION
  5
622E
330
1A
100
AcDbEntity
  8
MEASURE
100
AcDbDimension
  2
*D12
 10
1919.231523856054
 20
300.8059782295141
 30
0.0
 11
1699.231523856054
 21
310.3059782295141
 31
0.0
 70
    32
 71
     5
 42
440.0
  3
AD-STANDARD
100
AcDbAlignedDimension
 13
1479.231523856054
 23
383.9188258554287
 33
0.0
 14
1919.231523856054
 24
383.9188258554287
 34
0.0
100
AcDbRotatedDimension
1001
ACAD
1000
DSTYLE
1002
{
1070
    40
1040
5.0
1070
   140
1040
2.799999999999998
1070
   271
1070
     3
1070
   272
1070
     8
1070
   289
1070
     1
1002
}
  0
DIMENSION
  5
622F
330
1A
100
AcDbEntity
  8
MEASURE
100
AcDbDimension
  2
*D13
 10
2106.231417056055
 20
300.8059782295141
 30
0.0
 11
2012.731470456055
 21
310.3059782295141
 31
0.0
 70
    32
 71
     5
 42
186.9998932000006
  3
AD-STANDARD
100
AcDbAlignedDimension
 13
1919.231523856054
 23
378.9188258554287
 33
0.0
 14
2106.231417056055
 24
383.3900116554291
 34
0.0
100
AcDbRotatedDimension
1001
ACAD
1000
DSTYLE
1002
{
1070
    40
1040
5.0
1070
   140
1040
2.799999999999998
1070
   271
1070
     3
1070
   272
1070
     8
1070
   289
1070
     1
1002
}
  0
DIMENSION
  5
6230
330
1A
100
AcDbEntity
  8
MEASURE
 48
0.25
100
AcDbDimension
  2
*D14
 10
2055.231417056056
 20
1044.082111602273
 30
0.0
 11
2095.631430594426
 21
1044.082111602273
 31
0.0
 70
   160
  1
(100)
 71
     5
 42
96.80002707674155
  3
AD-STANDARD
100
AcDbAlignedDimension
 13
2152.031444132797
 23
807.7201059197069
 33
0.0
 14
2055.231417056056
 24
939.8194810722159
 34
0.0
100
AcDbRotatedDimension
1001
ACAD
1000
DSTYLE
1002
{
1070
   287
1070
     1
1070
   287
1070
     1
1070
   287
1070
     1
1070
   287
1070
     1
1070
   287
1070
     1
1070
    40
1040
5.0
1070
   140
1040
2.799999999999998
1070
   271
1070
     3
1070
   272
1070
     8
1070
   289
1070
     1
1002
}
  0
DIMENSION
  5
6231
330
1A
100
AcDbEntity
  8
MEASURE
 48
0.25
100
AcDbDimension
  2
*D15
 10
2117.231444132797
 20
1018.59075680919
 30
0.0
 11
2086.231430594426
 21
1018.59075680919
 31
0.0
 70
   160
 71
     5
 42
62.00002707674139
  3
AD-STANDARD
100
AcDbAlignedDimension
 13
2055.231417056056
 23
937.819481072216
 33
0.0
 14
2117.231444132797
 24
969.7194810722155
 34
0.0
100
AcDbRotatedDimension
1001
ACAD
1000
DSTYLE
1002
{
1070
   287
1070
     1
1070
   287
1070
     1
1070
   287
1070
     1
1070
   287
1070
     1
1070
   287
1070
     1
1070
    40
1040
5.0
1070
   140
1040
2.799999999999998
1070
   271
1070
     3
1070
   272
1070
     8
1070
   289
1070
     1
1002
}
  0
ARC
  5
6232
330
1A
100
AcDbEntity
  8
0
  6
CENTER
 48
10.0
100
AcDbCircle
 10
2092.231417056055
 20
867.5194810722169
 30
0.0
 40
102.9999999999988
100
AcDbArc
 50
342.1934475126861
 51
158.0128185706962
  0
DIMENSION
  5
6233
330
1A
100
AcDbEntity
  8
MEASURE
 48
0.25
100
AcDbDimension
  2
*D16
 10
2025.950037299547
 20
747.5194810722167
 30
0.0
 11
2016.450037299547
 21
859.0194810722167
 31
0.0
 70
    32
 71
     5
 42
222.9999999999991
  3
AD-STANDARD
100
AcDbAlignedDimension
 13
2073.231417056055
 23
970.519481072216
 33
0.0
 14
2052.231417056055
 24
747.5194810722167
 34
0.0
 50
90.0
100
AcDbRotatedDimension
1001
ACAD
1000
DSTYLE
1002
{
1070
   287
1070
     1
1070
   287
1070
     1
1070
   287
1070
     1
1070
   287
1070
     1
1070
   287
1070
     1
1070
    40
1040
5.0
1070
   140
1040
2.799999999999998
1070
   271
1070
     3
1070
   272
1070
     8
1070
   289
1070
     1
1002
}
  0
INSERT
  5
6234
330
1A
100
AcDbEntity
  8
0
 62
     2
100
AcDbBlockReference
  2
1
 10
1007.529172407944
 20
507.9189117554287
 30
0.0
  0
INSERT
  5
6235
330
1A
100
AcDbEntity
  8
0
 62
     2
100
AcDbBlockReference
  2
2
 10
1699.231470456055
 20
507.9189117554287
 30
0.0
  0
VIEWPORT
  5
22
102
{ACAD_XDICTIONARY
360
64CC
102
}
330
17
100
AcDbEntity
 67
     1
  8
0
100
AcDbViewport
 10
212.4938950354479
 20
149.5099472981232
 30
0.0
 40
605.3186774506254
 41
266.9298350007258
 68
     1
 69
     1
 12
212.4938950354479
 22
149.5099472981232
 13
0.0
 23
0.0
 14
1.0
 24
1.0
 15
10.0
 25
10.0
 16
0.0
 26
0.0
 36
1.0
 17
0.0
 27
0.0
 37
0.0
 42
50.0
 43
0.0
 44
0.0
 45
266.9298350007258
 50
0.0
 51
0.0
 72
   100
 90
    32768
  1

281
     0
 71
     1
 74
     0
110
0.0
120
0.0
130
0.0
111
1.0
121
0.0
131
0.0
112
0.0
122
1.0
132
0.0
 79
     0
146
0.0
  0
VIEWPORT
  5
2B8
102
{ACAD_XDICTIONARY
360
5C7D
102
}
330
17
100
AcDbEntity
 67
     1
  8
DEFPOINTS
100
AcDbViewport
 10
212.5
 20
149.4999999999999
 30
0.0
 40
385.0
 41
264.9999999999999
 68
     2
 69
     2
 12
1536.089989972251
 22
642.746962477726
 13
0.0
 23
0.0
 14
1.0
 24
1.0
 15
0.0
 25
0.0
 16
0.0
 26
0.0
 36
1.0
 17
0.0
 27
0.0
 37
0.0
 42
50.0
 43
0.0
 44
0.0
 45
1060.000000710817
 50
0.0
 51
0.0
 72
   100
 90
    36864
  1

281
     0
 71
     1
 74
     0
110
0.0
120
0.0
130
0.0
111
1.0
121
0.0
131
0.0
112
0.0
122
1.0
132
0.0
 79
     0
146
0.0
  0
ENDSEC
  0
SECTION
  2
OBJECTS
  0
DICTIONARY
  5
C
330
0
100
AcDbDictionary
281
     1
  3
ACAD_COLOR
350
26D2
  3
ACAD_GROUP
350
D
  3
ACAD_LAYOUT
350
1DE4
  3
ACAD_MATERIAL
350
26D1
  3
ACAD_MLEADERSTYLE
350
2825
  3
ACAD_MLINESTYLE
350
E
  3
ACAD_PLOTSETTINGS
350
1DE5
  3
ACAD_PLOTSTYLENAME
350
1DE2
  3
ACAD_SCALELIST
350
2803
  3
ACAD_TABLESTYLE
350
26D3
  3
ACAD_VISUALSTYLE
350
27F2
  3
ACDB_RECOMPOSE_DATA
350
5838
  3
AcDbVariableDictionary
350
26CE
  3
CONTENTDICTIONARY
350
234
  3
DWGPROPS
350
64CB
  0
DICTIONARY
  5
583A
330
8
100
AcDbDictionary
280
     1
281
     1
  0
DICTIONARY
  5
26E6
330
2
100
AcDbDictionary
280
     1
281
     1
  3
ACAD_LAYERSTATES
360
26E7
  0
DICTIONARY
  5
513D
330
F
100
AcDbDictionary
280
     1
281
     1
  3
ADSK_XREC_LAYER_RECONCILED
360
513E
  0
DICTIONARY
  5
6206
330
6205
100
AcDbDictionary
280
     1
281
     1
  0
DICTIONARY
  5
1E11
330
1A
100
AcDbDictionary
280
     1
281
     1
  3
ACAD_LAYOUTSELFREF
360
263E
  3
ACAD_SORTENTS
360
2746
  0
DICTIONARY
  5
1E0F
330
17
100
AcDbDictionary
280
     1
281
     1
  3
ACAD_LAYOUTSELFREF
360
263D
  0
DICTIONARY
  5
64CC
330
22
100
AcDbDictionary
280
     1
281
     1
  3
ACAD_XREC_ROUNDTRIP
360
64CD
  0
DICTIONARY
  5
5C7D
330
2B8
100
AcDbDictionary
280
     1
281
     1
  3
ACAD_XREC_ROUNDTRIP
360
64CE
  3
ASDK_XREC_ANNOTATION_SCALE_INFO
360
5C7E
  0
DICTIONARY
  5
26D2
102
{ACAD_REACTORS
330
C
102
}
330
C
100
AcDbDictionary
281
     1
  0
DICTIONARY
  5
D
102
{ACAD_REACTORS
330
C
102
}
330
C
100
AcDbDictionary
281
     1
  3
*A1
350
26FE
  3
*A2
350
2700
  3
*A3
350
5D1B
  0
DICTIONARY
  5
1DE4
102
{ACAD_REACTORS
330
C
102
}
330
C
100
AcDbDictionary
281
     1
  3
Model
350
1DE6
  3
ﾚｲｱｳﾄ1
350
1DE7
  0
DICTIONARY
  5
26D1
102
{ACAD_REACTORS
330
C
102
}
330
C
100
AcDbDictionary
281
     1
  3
ByBlock
350
27E2
  3
ByLayer
350
27DA
  3
Global
350
27EA
  0
DICTIONARY
  5
2825
102
{ACAD_REACTORS
330
C
102
}
330
C
100
AcDbDictionary
281
     1
  3
Standard
350
2826
  0
DICTIONARY
  5
E
102
{ACAD_REACTORS
330
C
102
}
330
C
100
AcDbDictionary
281
     1
  3
STANDARD
350
13
  0
DICTIONARY
  5
1DE5
102
{ACAD_REACTORS
330
C
102
}
330
C
100
AcDbDictionary
281
     1
  3
【A3用紙】RICOH IPSiO CX8200 RPCS
350
2785
  0
ACDBDICTIONARYWDFLT
  5
1DE2
102
{ACAD_REACTORS
330
C
102
}
330
C
100
AcDbDictionary
281
     1
  3
Normal
350
1DE3
100
AcDbDictionaryWithDefault
340
1DE3
  0
DICTIONARY
  5
2803
102
{ACAD_REACTORS
330
C
102
}
330
C
100
AcDbDictionary
281
     1
  3
*A1
350
6209
  3
*A2
350
620A
  3
*A3
350
620B
  3
A0
350
2804
  3
A1
350
2805
  3
A2
350
2806
  3
A3
350
2807
  3
A4
350
2808
  3
A5
350
2809
  3
A6
350
280A
  3
A7
350
280B
  3
A8
350
280C
  3
A9
350
280D
  3
B0
350
280E
  3
B1
350
280F
  3
B2
350
2810
  3
B3
350
2811
  3
B4
350
2812
  3
B5
350
2813
  3
B6
350
2814
  3
B7
350
2815
  3
B8
350
2816
  3
B9
350
2817
  3
C0
350
2818
  3
C1
350
2819
  3
C2
350
281A
  3
C3
350
281B
  3
C4
350
281C
  3
C5
350
281D
  3
C6
350
281E
  3
C7
350
281F
  3
C8
350
2820
  3
C9
350
2821
  3
D0
350
2822
  3
D1
350
2823
  3
D2
350
2824
  0
DICTIONARY
  5
26D3
102
{ACAD_REACTORS
330
C
102
}
330
C
100
AcDbDictionary
281
     1
  3
Standard
350
26D4
  0
DICTIONARY
  5
27F2
102
{ACAD_REACTORS
330
C
102
}
330
C
100
AcDbDictionary
281
     1
  3
2dWireframe
350
27F8
  3
3D Hidden
350
27FA
  3
3dWireframe
350
27F9
  3
Basic
350
27F7
  3
Brighten
350
27FE
  3
ColorChange
350
2802
  3
Conceptual
350
27FB
  3
Dim
350
27FD
  3
Facepattern
350
2801
  3
Flat
350
27F3
  3
FlatWithEdges
350
27F4
  3
Gouraud
350
27F5
  3
GouraudWithEdges
350
27F6
  3
Linepattern
350
2800
  3
Realistic
350
27FC
  3
Thicken
350
27FF
  0
XRECORD
  5
5838
102
{ACAD_REACTORS
330
C
102
}
330
C
100
AcDbXrecord
280
     1
 90
        1
330
26D4
  0
DICTIONARY
  5
26CE
102
{ACAD_REACTORS
330
C
102
}
330
C
100
AcDbDictionary
281
     1
  3
CANNOSCALE
350
5873
  3
CMLEADERSTYLE
350
5872
  3
CTABLESTYLE
350
2792
  3
DIMASSOC
350
26CF
  3
INDEXCTL
350
5875
  3
PROJECTNAME
350
2793
  3
SORTENTS
350
5874
  0
DICTIONARY
  5
234
102
{ACAD_REACTORS
330
C
102
}
330
C
100
AcDbDictionary
281
     1
  0
XRECORD
  5
64CB
102
{ACAD_REACTORS
330
C
102
}
330
C
100
AcDbXrecord
280
     1
  1
DWGPROPS COOKIE
  2

  3

  4

  6

  7

  8
HAMANO-1047
  9

300
=
301
=
302
=
303
=
304
=
305
=
306
=
307
=
308
=
309
=
 40
0.4653853819444445
 41
2451414.552377546
 42
2458205.443318576
  1

 90
        0
  0
DICTIONARY
  5
26E7
102
{ACAD_REACTORS
330
26E6
102
}
330
26E6
100
AcDbDictionary
281
     1
  0
XRECORD
  5
513E
102
{ACAD_REACTORS
330
513D
102
}
330
513D
100
AcDbXrecord
280
     1
290
     1
  0
XRECORD
  5
263E
102
{ACAD_REACTORS
330
1E11
102
}
330
1E11
100
AcDbXrecord
280
     1
340
1A
  0
SORTENTSTABLE
  5
2746
102
{ACAD_REACTORS
330
1E11
102
}
330
1E11
100
AcDbSortentsTable
330
1A
  0
XRECORD
  5
263D
102
{ACAD_REACTORS
330
1E0F
102
}
330
1E0F
100
AcDbXrecord
280
     1
340
17
  0
XRECORD
  5
64CD
102
{ACAD_REACTORS
330
64CC
102
}
330
64CC
100
AcDbXrecord
280
     1
102
SHADEPLOT
 70
     0
  0
XRECORD
  5
64CE
102
{ACAD_REACTORS
330
5C7D
102
}
330
5C7D
100
AcDbXrecord
280
     1
102
SHADEPLOT
 70
     0
  0
XRECORD
  5
5C7E
102
{ACAD_REACTORS
330
5C7D
102
}
330
5C7D
100
AcDbXrecord
280
     1
 90
        1
340
2806
  0
GROUP
  5
26FE
102
{ACAD_REACTORS
330
D
102
}
330
D
100
AcDbGroup
300

 70
     1
 71
     1
  0
GROUP
  5
2700
102
{ACAD_REACTORS
330
D
102
}
330
D
100
AcDbGroup
300

 70
     1
 71
     1
  0
GROUP
  5
5D1B
102
{ACAD_REACTORS
330
D
102
}
330
D
100
AcDbGroup
300

 70
     1
 71
     1
  0
LAYOUT
  5
1DE6
102
{ACAD_XDICTIONARY
360
64CF
102
}
102
{ACAD_REACTORS
330
1DE4
102
}
330
1DE4
100
AcDbPlotSettings
  1

  2
EPSON LP-8200
  4

  6

 40
0.0
 41
0.0
 42
0.0
 43
0.0
 44
0.0
 45
0.0
 46
0.0
 47
0.0
 48
0.0
 49
0.0
140
0.0
141
0.0
142
1.0
143
1.0
 70
  1712
 72
     0
 73
     0
 74
     0
  7
monochrome.ctb
 75
     0
147
1.0
148
0.0
149
0.0
100
AcDbLayout
  1
Model
 70
     1
 71
     0
 10
0.0
 20
0.0
 11
12.0
 21
9.0
 12
0.0
 22
0.0
 32
0.0
 14
0.0
 24
0.0
 34
0.0
 15
0.0
 25
0.0
 35
0.0
146
0.0
 13
0.0
 23
0.0
 33
0.0
 16
1.0
 26
0.0
 36
0.0
 17
0.0
 27
1.0
 37
0.0
 76
     0
330
1A
331
5882
  0
LAYOUT
  5
1DE7
102
{ACAD_XDICTIONARY
360
26FB
102
}
102
{ACAD_REACTORS
330
1DE4
102
}
330
1DE4
100
AcDbPlotSettings
  1

  2
DWG To PDF.pc3
  4
ISO_expand_A3_(297.00_x_420.00_MM)
  6

 40
5.793749809265136
 41
10.79374980926513
 42
5.79376220703125
 43
10.79376220703125
 44
297.0
 45
420.0
 46
10.19368549221013
 47
6.69758631180116
 48
0.0
 49
0.0
140
0.0
141
0.0
142
1.0
143
1.0
 70
   692
 72
     1
 73
     1
 74
     1
  7
monochrome.ctb
 75
    16
147
1.0
148
-19.98524257639155
149
-16.99738190809148
100
AcDbLayout
  1
ﾚｲｱｳﾄ1
 70
     0
 71
     1
 10
2.493894057559145
 20
1.009946606616209
 11
422.4938940575591
 21
298.0099466066162
 12
0.0
 22
0.0
 32
0.0
 14
19.97680521205063
 24
16.99835063704859
 34
-0.0015258207003583
 15
405.0109848588451
 25
282.0215439591978
 35
0.0000000349246037
146
0.0
 13
0.0
 23
0.0
 33
0.0
 16
1.0
 26
0.0
 36
0.0
 17
0.0
 27
1.0
 37
0.0
 76
     0
330
17
331
22
1001
ACAD_PSEXT
1000
DWG To PDF.pc3
1000
PDF
1000
ファイル
1000

1070
     0
  0
MATERIAL
  5
27E2
102
{ACAD_XDICTIONARY
360
27E3
102
}
102
{ACAD_REACTORS
330
26D1
102
}
330
26D1
100
AcDbMaterial
  1
ByBlock
 72
     0
 43
0.0208333333333333
 43
0.0
 43
0.0
 43
0.0
 43
0.0
 43
0.0208333333333333
 43
0.0
 43
0.0
 43
0.0
 43
0.0
 43
1.0
 43
0.0
 43
0.0
 43
0.0
 43
0.0
 43
1.0
 77
     0
 47
0.0208333333333333
 47
0.0
 47
0.0
 47
0.0
 47
0.0
 47
0.0208333333333333
 47
0.0
 47
0.0
 47
0.0
 47
0.0
 47
1.0
 47
0.0
 47
0.0
 47
0.0
 47
0.0
 47
1.0
171
     0
 49
0.0208333333333333
 49
0.0
 49
0.0
 49
0.0
 49
0.0
 49
0.0208333333333333
 49
0.0
 49
0.0
 49
0.0
 49
0.0
 49
1.0
 49
0.0
 49
0.0
 49
0.0
 49
0.0
 49
1.0
175
     0
142
0.0208333333333333
142
0.0
142
0.0
142
0.0
142
0.0
142
0.0208333333333333
142
0.0
142
0.0
142
0.0
142
0.0
142
1.0
142
0.0
142
0.0
142
0.0
142
0.0
142
1.0
179
     0
144
0.0208333333333333
144
0.0
144
0.0
144
0.0
144
0.0
144
0.0208333333333333
144
0.0
144
0.0
144
0.0
144
0.0
144
1.0
144
0.0
144
0.0
144
0.0
144
0.0
144
1.0
147
0.0208333333333333
147
0.0
147
0.0
147
0.0
147
0.0
147
0.0208333333333333
147
0.0
147
0.0
147
0.0
147
0.0
147
1.0
147
0.0
147
0.0
147
0.0
147
0.0
147
1.0
  0
MATERIAL
  5
27DA
102
{ACAD_XDICTIONARY
360
27DB
102
}
102
{ACAD_REACTORS
330
26D1
102
}
330
26D1
100
AcDbMaterial
  1
ByLayer
 72
     0
 43
0.0208333333333333
 43
0.0
 43
0.0
 43
0.0
 43
0.0
 43
0.0208333333333333
 43
0.0
 43
0.0
 43
0.0
 43
0.0
 43
1.0
 43
0.0
 43
0.0
 43
0.0
 43
0.0
 43
1.0
 77
     0
 47
0.0208333333333333
 47
0.0
 47
0.0
 47
0.0
 47
0.0
 47
0.0208333333333333
 47
0.0
 47
0.0
 47
0.0
 47
0.0
 47
1.0
 47
0.0
 47
0.0
 47
0.0
 47
0.0
 47
1.0
171
     0
 49
0.0208333333333333
 49
0.0
 49
0.0
 49
0.0
 49
0.0
 49
0.0208333333333333
 49
0.0
 49
0.0
 49
0.0
 49
0.0
 49
1.0
 49
0.0
 49
0.0
 49
0.0
 49
0.0
 49
1.0
175
     0
142
0.0208333333333333
142
0.0
142
0.0
142
0.0
142
0.0
142
0.0208333333333333
142
0.0
142
0.0
142
0.0
142
0.0
142
1.0
142
0.0
142
0.0
142
0.0
142
0.0
142
1.0
179
     0
144
0.0208333333333333
144
0.0
144
0.0
144
0.0
144
0.0
144
0.0208333333333333
144
0.0
144
0.0
144
0.0
144
0.0
144
1.0
144
0.0
144
0.0
144
0.0
144
0.0
144
1.0
147
0.0208333333333333
147
0.0
147
0.0
147
0.0
147
0.0
147
0.0208333333333333
147
0.0
147
0.0
147
0.0
147
0.0
147
1.0
147
0.0
147
0.0
147
0.0
147
0.0
147
1.0
  0
MATERIAL
  5
27EA
102
{ACAD_XDICTIONARY
360
27EB
102
}
102
{ACAD_REACTORS
330
26D1
102
}
330
26D1
100
AcDbMaterial
  1
Global
 72
     0
 43
0.0208333333333333
 43
0.0
 43
0.0
 43
0.0
 43
0.0
 43
0.0208333333333333
 43
0.0
 43
0.0
 43
0.0
 43
0.0
 43
1.0
 43
0.0
 43
0.0
 43
0.0
 43
0.0
 43
1.0
 77
     0
 47
0.0208333333333333
 47
0.0
 47
0.0
 47
0.0
 47
0.0
 47
0.0208333333333333
 47
0.0
 47
0.0
 47
0.0
 47
0.0
 47
1.0
 47
0.0
 47
0.0
 47
0.0
 47
0.0
 47
1.0
171
     0
 49
0.0208333333333333
 49
0.0
 49
0.0
 49
0.0
 49
0.0
 49
0.0208333333333333
 49
0.0
 49
0.0
 49
0.0
 49
0.0
 49
1.0
 49
0.0
 49
0.0
 49
0.0
 49
0.0
 49
1.0
175
     0
142
0.0208333333333333
142
0.0
142
0.0
142
0.0
142
0.0
142
0.0208333333333333
142
0.0
142
0.0
142
0.0
142
0.0
142
1.0
142
0.0
142
0.0
142
0.0
142
0.0
142
1.0
179
     0
144
0.0208333333333333
144
0.0
144
0.0
144
0.0
144
0.0
144
0.0208333333333333
144
0.0
144
0.0
144
0.0
144
0.0
144
1.0
144
0.0
144
0.0
144
0.0
144
0.0
144
1.0
147
0.0208333333333333
147
0.0
147
0.0
147
0.0
147
0.0
147
0.0208333333333333
147
0.0
147
0.0
147
0.0
147
0.0
147
1.0
147
0.0
147
0.0
147
0.0
147
0.0
147
1.0
  0
MLEADERSTYLE
  5
2826
102
{ACAD_REACTORS
330
2825
102
}
330
2825
100
AcDbMLeaderStyle
170
     2
171
     1
172
     0
 90
        2
 40
0.0
 41
0.0
173
     1
 91
-1056964608
340
14
 92
       -2
290
     1
 42
2.0
291
     1
 43
0.36
  3
Standard
 44
4.0
300

342
10
174
     1
178
     6
175
     1
176
     0
 93
-1056964608
 45
4.0
292
     0
297
     0
 46
4.0
 94
-1056964608
 47
1.0
 49
1.0
140
1.0
293
     1
141
0.0
294
     1
177
     0
142
1.0
295
     0
296
     0
143
0.125
1001
ACAD
1000
AcRTDxfName
1000
MLEADERSTYLE
1001
ACAD_MLEADERVER
1070
     2
  0
MLINESTYLE
  5
13
102
{ACAD_REACTORS
330
E
102
}
330
E
100
AcDbMlineStyle
  2
STANDARD
 70
     0
  3

 62
     0
 51
90.0
 52
90.0
 71
     2
 49
0.5
 62
   256
  6
BYLAYER
 49
-0.5
 62
   256
  6
BYLAYER
  0
PLOTSETTINGS
  5
2785
102
{ACAD_XDICTIONARY
360
64D3
102
}
102
{ACAD_REACTORS
330
1DE5
102
}
330
1DE5
100
AcDbPlotSettings
  1
【A3用紙】RICOH IPSiO CX8200 RPCS
  2
RICOH IPSiO CX8200 RPCS
  4
A3
  6

 40
5.873749732971191
 41
5.873747825622557
 42
5.873748779296875
 43
5.873748779296875
 44
296.9259948730469
 45
419.9466552734373
 46
0.0
 47
0.0
 48
0.0
 49
0.0
140
0.0
141
0.0
142
1.0
143
1.0
 70
   688
 72
     1
 73
     1
 74
     5
  7
monochrome.ctb
 75
    16
147
1.0
148
0.0
149
0.0
  0
ACDBPLACEHOLDER
  5
1DE3
102
{ACAD_REACTORS
330
1DE2
102
}
330
1DE2
  0
SCALE
  5
6209
102
{ACAD_REACTORS
330
2803
102
}
330
2803
100
AcDbScale
 70
     0
300
0.3-1
140
0.3
141
1.0
290
     0
1001
ACAD
1000
AcRTDxfName
1000
SCALE
1000
AcRTDxfName
1000
SCALE
1000
AcRTDxfName
1000
SCALE
1000
AcRTDxfName
1000
SCALE
1000
AcRTDxfName
1000
SCALE
1000
AcRTDxfName
1000
SCALE
  0
SCALE
  5
620A
102
{ACAD_REACTORS
330
2803
102
}
330
2803
100
AcDbScale
 70
     0
300
0.4
140
0.4
141
1.0
290
     0
1001
ACAD
1000
AcRTDxfName
1000
SCALE
1000
AcRTDxfName
1000
SCALE
1000
AcRTDxfName
1000
SCALE
1000
AcRTDxfName
1000
SCALE
1000
AcRTDxfName
1000
SCALE
1000
AcRTDxfName
1000
SCALE
  0
SCALE
  5
620B
102
{ACAD_REACTORS
330
2803
102
}
330
2803
100
AcDbScale
 70
     0
300
.35
140
0.35
141
1.0
290
     0
1001
ACAD
1000
AcRTDxfName
1000
SCALE
1000
AcRTDxfName
1000
SCALE
1000
AcRTDxfName
1000
SCALE
1000
AcRTDxfName
1000
SCALE
1000
AcRTDxfName
1000
SCALE
1000
AcRTDxfName
1000
SCALE
  0
SCALE
  5
2804
102
{ACAD_REACTORS
330
2803
102
}
330
2803
100
AcDbScale
 70
     0
300
1:1
140
1.0
141
1.0
290
     1
1001
ACAD
1000
AcRTDxfName
1000
SCALE
  0
SCALE
  5
2805
102
{ACAD_REACTORS
330
2803
102
}
330
2803
100
AcDbScale
 70
     0
300
1:2
140
1.0
141
2.0
290
     0
1001
ACAD
1000
AcRTDxfName
1000
SCALE
  0
SCALE
  5
2806
102
{ACAD_REACTORS
330
2803
102
}
330
2803
100
AcDbScale
 70
     0
300
1:4
140
1.0
141
4.0
290
     0
1001
ACAD
1000
AcRTDxfName
1000
SCALE
  0
SCALE
  5
2807
102
{ACAD_REACTORS
330
2803
102
}
330
2803
100
AcDbScale
 70
     0
300
1:5
140
1.0
141
5.0
290
     0
1001
ACAD
1000
AcRTDxfName
1000
SCALE
  0
SCALE
  5
2808
102
{ACAD_REACTORS
330
2803
102
}
330
2803
100
AcDbScale
 70
     0
300
1:8
140
1.0
141
8.0
290
     0
1001
ACAD
1000
AcRTDxfName
1000
SCALE
  0
SCALE
  5
2809
102
{ACAD_REACTORS
330
2803
102
}
330
2803
100
AcDbScale
 70
     0
300
1:10
140
1.0
141
10.0
290
     0
1001
ACAD
1000
AcRTDxfName
1000
SCALE
  0
SCALE
  5
280A
102
{ACAD_REACTORS
330
2803
102
}
330
2803
100
AcDbScale
 70
     0
300
1:16
140
1.0
141
16.0
290
     0
1001
ACAD
1000
AcRTDxfName
1000
SCALE
  0
SCALE
  5
280B
102
{ACAD_REACTORS
330
2803
102
}
330
2803
100
AcDbScale
 70
     0
300
1:20
140
1.0
141
20.0
290
     0
1001
ACAD
1000
AcRTDxfName
1000
SCALE
  0
SCALE
  5
280C
102
{ACAD_REACTORS
330
2803
102
}
330
2803
100
AcDbScale
 70
     0
300
1:30
140
1.0
141
30.0
290
     0
1001
ACAD
1000
AcRTDxfName
1000
SCALE
  0
SCALE
  5
280D
102
{ACAD_REACTORS
330
2803
102
}
330
2803
100
AcDbScale
 70
     0
300
1:40
140
1.0
141
40.0
290
     0
1001
ACAD
1000
AcRTDxfName
1000
SCALE
  0
SCALE
  5
280E
102
{ACAD_REACTORS
330
2803
102
}
330
2803
100
AcDbScale
 70
     0
300
1:50
140
1.0
141
50.0
290
     0
1001
ACAD
1000
AcRTDxfName
1000
SCALE
  0
SCALE
  5
280F
102
{ACAD_REACTORS
330
2803
102
}
330
2803
100
AcDbScale
 70
     0
300
1:100
140
1.0
141
100.0
290
     0
1001
ACAD
1000
AcRTDxfName
1000
SCALE
  0
SCALE
  5
2810
102
{ACAD_REACTORS
330
2803
102
}
330
2803
100
AcDbScale
 70
     0
300
2:1
140
2.0
141
1.0
290
     0
1001
ACAD
1000
AcRTDxfName
1000
SCALE
  0
SCALE
  5
2811
102
{ACAD_REACTORS
330
2803
102
}
330
2803
100
AcDbScale
 70
     0
300
4:1
140
4.0
141
1.0
290
     0
1001
ACAD
1000
AcRTDxfName
1000
SCALE
  0
SCALE
  5
2812
102
{ACAD_REACTORS
330
2803
102
}
330
2803
100
AcDbScale
 70
     0
300
8:1
140
8.0
141
1.0
290
     0
1001
ACAD
1000
AcRTDxfName
1000
SCALE
  0
SCALE
  5
2813
102
{ACAD_REACTORS
330
2803
102
}
330
2803
100
AcDbScale
 70
     0
300
10:1
140
10.0
141
1.0
290
     0
1001
ACAD
1000
AcRTDxfName
1000
SCALE
  0
SCALE
  5
2814
102
{ACAD_REACTORS
330
2803
102
}
330
2803
100
AcDbScale
 70
     0
300
100:1
140
100.0
141
1.0
290
     0
1001
ACAD
1000
AcRTDxfName
1000
SCALE
  0
SCALE
  5
2815
102
{ACAD_REACTORS
330
2803
102
}
330
2803
100
AcDbScale
 70
     0
300
1/128" = 1'-0"
140
0.0078125
141
12.0
290
     0
1001
ACAD
1000
AcRTDxfName
1000
SCALE
  0
SCALE
  5
2816
102
{ACAD_REACTORS
330
2803
102
}
330
2803
100
AcDbScale
 70
     0
300
1/64" = 1'-0"
140
0.015625
141
12.0
290
     0
1001
ACAD
1000
AcRTDxfName
1000
SCALE
  0
SCALE
  5
2817
102
{ACAD_REACTORS
330
2803
102
}
330
2803
100
AcDbScale
 70
     0
300
1/32" = 1'-0"
140
0.03125
141
12.0
290
     0
1001
ACAD
1000
AcRTDxfName
1000
SCALE
  0
SCALE
  5
2818
102
{ACAD_REACTORS
330
2803
102
}
330
2803
100
AcDbScale
 70
     0
300
1/16" = 1'-0"
140
0.0625
141
12.0
290
     0
1001
ACAD
1000
AcRTDxfName
1000
SCALE
  0
SCALE
  5
2819
102
{ACAD_REACTORS
330
2803
102
}
330
2803
100
AcDbScale
 70
     0
300
3/32" = 1'-0"
140
0.09375
141
12.0
290
     0
1001
ACAD
1000
AcRTDxfName
1000
SCALE
  0
SCALE
  5
281A
102
{ACAD_REACTORS
330
2803
102
}
330
2803
100
AcDbScale
 70
     0
300
1/8" = 1'-0"
140
0.125
141
12.0
290
     0
1001
ACAD
1000
AcRTDxfName
1000
SCALE
  0
SCALE
  5
281B
102
{ACAD_REACTORS
330
2803
102
}
330
2803
100
AcDbScale
 70
     0
300
3/16" = 1'-0"
140
0.1875
141
12.0
290
     0
1001
ACAD
1000
AcRTDxfName
1000
SCALE
  0
SCALE
  5
281C
102
{ACAD_REACTORS
330
2803
102
}
330
2803
100
AcDbScale
 70
     0
300
1/4" = 1'-0"
140
0.25
141
12.0
290
     0
1001
ACAD
1000
AcRTDxfName
1000
SCALE
  0
SCALE
  5
281D
102
{ACAD_REACTORS
330
2803
102
}
330
2803
100
AcDbScale
 70
     0
300
3/8" = 1'-0"
140
0.375
141
12.0
290
     0
1001
ACAD
1000
AcRTDxfName
1000
SCALE
  0
SCALE
  5
281E
102
{ACAD_REACTORS
330
2803
102
}
330
2803
100
AcDbScale
 70
     0
300
1/2" = 1'-0"
140
0.5
141
12.0
290
     0
1001
ACAD
1000
AcRTDxfName
1000
SCALE
  0
SCALE
  5
281F
102
{ACAD_REACTORS
330
2803
102
}
330
2803
100
AcDbScale
 70
     0
300
3/4" = 1'-0"
140
0.75
141
12.0
290
     0
1001
ACAD
1000
AcRTDxfName
1000
SCALE
  0
SCALE
  5
2820
102
{ACAD_REACTORS
330
2803
102
}
330
2803
100
AcDbScale
 70
     0
300
1" = 1'-0"
140
1.0
141
12.0
290
     0
1001
ACAD
1000
AcRTDxfName
1000
SCALE
  0
SCALE
  5
2821
102
{ACAD_REACTORS
330
2803
102
}
330
2803
100
AcDbScale
 70
     0
300
1-1/2" = 1'-0"
140
1.5
141
12.0
290
     0
1001
ACAD
1000
AcRTDxfName
1000
SCALE
  0
SCALE
  5
2822
102
{ACAD_REACTORS
330
2803
102
}
330
2803
100
AcDbScale
 70
     0
300
3" = 1'-0"
140
3.0
141
12.0
290
     0
1001
ACAD
1000
AcRTDxfName
1000
SCALE
  0
SCALE
  5
2823
102
{ACAD_REACTORS
330
2803
102
}
330
2803
100
AcDbScale
 70
     0
300
6" = 1'-0"
140
6.0
141
12.0
290
     0
1001
ACAD
1000
AcRTDxfName
1000
SCALE
  0
SCALE
  5
2824
102
{ACAD_REACTORS
330
2803
102
}
330
2803
100
AcDbScale
 70
     0
300
1'-0" = 1'-0"
140
12.0
141
12.0
290
     0
1001
ACAD
1000
AcRTDxfName
1000
SCALE
  0
TABLESTYLE
  5
26D4
102
{ACAD_XDICTIONARY
360
5836
102
}
102
{ACAD_REACTORS
330
26D3
102
}
330
26D3
100
AcDbTableStyle
  3
Standard
 70
     0
 71
     0
 40
1.5
 41
1.5
280
     0
281
     0
  7
STANDARD
140
4.5
170
     2
 62
     0
 63
     7
283
     0
274
    -2
284
     1
 64
     0
275
    -2
285
     1
 65
     0
276
    -2
286
     1
 66
     0
277
    -2
287
     1
 67
     0
278
    -2
288
     1
 68
     0
279
    -2
289
     1
 69
     0
  7
STANDARD
140
6.0
170
     5
 62
     0
 63
     7
283
     0
274
    -2
284
     1
 64
     0
275
    -2
285
     1
 65
     0
276
    -2
286
     1
 66
     0
277
    -2
287
     1
 67
     0
278
    -2
288
     1
 68
     0
279
    -2
289
     1
 69
     0
  7
STANDARD
140
4.5
170
     5
 62
     0
 63
     7
283
     0
274
    -2
284
     1
 64
     0
275
    -2
285
     1
 65
     0
276
    -2
286
     1
 66
     0
277
    -2
287
     1
 67
     0
278
    -2
288
     1
 68
     0
279
    -2
289
     1
 69
     0
  0
VISUALSTYLE
  5
27F8
102
{ACAD_REACTORS
330
27F2
102
}
330
27F2
100
AcDbVisualStyle
  2
2dWireframe
 70
     4
 71
     0
 72
     2
 73
     0
 90
        0
 40
-0.6
 41
-30.0
 62
     5
 63
     7
 74
     1
 91
        4
 64
     7
 65
   257
 75
     1
175
     1
 42
1.0
 92
        0
 66
   257
 43
1.0
 76
     1
 77
     6
 78
     2
 67
     7
 79
     5
170
     0
171
     0
290
     0
174
     0
 93
        1
 44
0.0
173
     0
291
     0
 45
0.0
1001
ACAD
1000
AcRTDxfName
1000
VISUALSTYLE
1000
AcDbSavedByObjectVersion
1070
     0
1000
AcDbSavedByObjectVersion
1070
     0
1000
AcDbSavedByObjectVersion
1070
     0
  0
VISUALSTYLE
  5
27FA
102
{ACAD_REACTORS
330
27F2
102
}
330
27F2
100
AcDbVisualStyle
  2
3D Hidden
 70
     6
 71
     1
 72
     2
 73
     2
 90
        0
 40
-0.6
 41
-30.0
 62
     5
 63
     7
 74
     2
 91
        2
 64
     7
 65
   257
 75
     2
175
     1
 42
40.0
 92
        0
 66
   257
 43
1.0
 76
     1
 77
     6
 78
     2
 67
     7
 79
     3
170
     0
171
     0
290
     0
174
     0
 93
        1
 44
0.0
173
     0
291
     0
 45
0.0
1001
ACAD
1000
AcRTDxfName
1000
VISUALSTYLE
1000
AcDbSavedByObjectVersion
1070
     0
1000
AcDbSavedByObjectVersion
1070
     0
1000
AcDbSavedByObjectVersion
1070
     0
  0
VISUALSTYLE
  5
27F9
102
{ACAD_REACTORS
330
27F2
102
}
330
27F2
100
AcDbVisualStyle
  2
3dWireframe
 70
     5
 71
     0
 72
     2
 73
     0
 90
        0
 40
-0.6
 41
-30.0
 62
     5
 63
     7
 74
     1
 91
        4
 64
     7
 65
   257
 75
     1
175
     1
 42
1.0
 92
        0
 66
   257
 43
1.0
 76
     1
 77
     6
 78
     2
 67
     7
 79
     5
170
     0
171
     0
290
     0
174
     0
 93
        1
 44
0.0
173
     0
291
     0
 45
0.0
1001
ACAD
1000
AcRTDxfName
1000
VISUALSTYLE
1000
AcDbSavedByObjectVersion
1070
     0
1000
AcDbSavedByObjectVersion
1070
     0
1000
AcDbSavedByObjectVersion
1070
     0
  0
VISUALSTYLE
  5
27F7
102
{ACAD_REACTORS
330
27F2
102
}
330
27F2
100
AcDbVisualStyle
  2
Basic
 70
     7
 71
     1
 72
     0
 73
     1
 90
        0
 40
-0.6
 41
-30.0
 62
     5
 63
     7
 74
     0
 91
        4
 64
     7
 65
   257
 75
     1
175
     1
 42
1.0
 92
        8
 66
     7
 43
1.0
 76
     1
 77
     6
 78
     2
 67
     7
 79
     5
170
     0
171
     0
290
     0
174
     0
 93
        1
 44
0.0
173
     0
291
     1
 45
0.0
1001
ACAD
1000
AcRTDxfName
1000
VISUALSTYLE
1000
AcDbSavedByObjectVersion
1070
     0
1000
AcDbSavedByObjectVersion
1070
     0
1000
AcDbSavedByObjectVersion
1070
     0
  0
VISUALSTYLE
  5
27FE
102
{ACAD_REACTORS
330
27F2
102
}
330
27F2
100
AcDbVisualStyle
  2
Brighten
 70
    12
 71
     2
 72
     2
 73
     0
 90
        0
 40
-0.6
 41
-30.0
 62
     5
 63
     7
 74
     1
 91
        4
 64
     7
 65
   257
 75
     1
175
     1
 42
1.0
 92
        8
 66
     7
 43
1.0
 76
     1
 77
     6
 78
     2
 67
     7
 79
     5
170
     0
171
     0
290
     0
174
     0
 93
        1
 44
50.0
173
     0
291
     1
 45
0.0
1001
ACAD
1000
AcRTDxfName
1000
VISUALSTYLE
1000
AcDbSavedByObjectVersion
1070
     0
1000
AcDbSavedByObjectVersion
1070
     0
1000
AcDbSavedByObjectVersion
1070
     0
  0
VISUALSTYLE
  5
2802
102
{ACAD_REACTORS
330
27F2
102
}
330
27F2
100
AcDbVisualStyle
  2
ColorChange
 70
    16
 71
     2
 72
     2
 73
     3
 90
        0
 40
-0.6
 41
-30.0
 62
     5
 63
     8
 74
     1
 91
        4
 64
     7
 65
   257
 75
     1
175
     1
 42
1.0
 92
        8
 66
     8
 43
1.0
 76
     1
 77
     6
 78
     2
 67
     7
 79
     5
170
     0
171
     0
290
     0
174
     0
 93
        1
 44
0.0
173
     0
291
     1
 45
0.0
1001
ACAD
1000
AcRTDxfName
1000
VISUALSTYLE
1000
AcDbSavedByObjectVersion
1070
     0
1000
AcDbSavedByObjectVersion
1070
     0
1000
AcDbSavedByObjectVersion
1070
     0
  0
VISUALSTYLE
  5
27FB
102
{ACAD_REACTORS
330
27F2
102
}
330
27F2
100
AcDbVisualStyle
  2
Conceptual
 70
     9
 71
     3
 72
     2
 73
     0
 90
        0
 40
-0.6
 41
-30.0
 62
     5
 63
     7
 74
     2
 91
        2
 64
     7
 65
   257
 75
     1
175
     1
 42
40.0
 92
        8
 66
     7
 43
1.0
 76
     1
 77
     6
 78
     2
 67
     7
 79
     3
170
     0
171
     0
290
     0
174
     0
 93
        1
 44
0.0
173
     0
291
     0
 45
0.0
1001
ACAD
1000
AcRTDxfName
1000
VISUALSTYLE
1000
AcDbSavedByObjectVersion
1070
     0
1000
AcDbSavedByObjectVersion
1070
     0
1000
AcDbSavedByObjectVersion
1070
     0
  0
VISUALSTYLE
  5
27FD
102
{ACAD_REACTORS
330
27F2
102
}
330
27F2
100
AcDbVisualStyle
  2
Dim
 70
    11
 71
     2
 72
     2
 73
     0
 90
        0
 40
-0.6
 41
-30.0
 62
     5
 63
     7
 74
     1
 91
        4
 64
     7
 65
   257
 75
     1
175
     1
 42
1.0
 92
        8
 66
     7
 43
1.0
 76
     1
 77
     6
 78
     2
 67
     7
 79
     5
170
     0
171
     0
290
     0
174
     0
 93
        1
 44
-50.0
173
     0
291
     1
 45
0.0
1001
ACAD
1000
AcRTDxfName
1000
VISUALSTYLE
1000
AcDbSavedByObjectVersion
1070
     0
1000
AcDbSavedByObjectVersion
1070
     0
1000
AcDbSavedByObjectVersion
1070
     0
  0
VISUALSTYLE
  5
2801
102
{ACAD_REACTORS
330
27F2
102
}
330
27F2
100
AcDbVisualStyle
  2
Facepattern
 70
    15
 71
     2
 72
     2
 73
     0
 90
        0
 40
-0.6
 41
-30.0
 62
     5
 63
     7
 74
     1
 91
        4
 64
     7
 65
   257
 75
     1
175
     1
 42
1.0
 92
        8
 66
     7
 43
1.0
 76
     1
 77
     6
 78
     2
 67
     7
 79
     5
170
     0
171
     0
290
     0
174
     0
 93
        1
 44
0.0
173
     0
291
     1
 45
0.0
1001
ACAD
1000
AcRTDxfName
1000
VISUALSTYLE
1000
AcDbSavedByObjectVersion
1070
     0
1000
AcDbSavedByObjectVersion
1070
     0
1000
AcDbSavedByObjectVersion
1070
     0
  0
VISUALSTYLE
  5
27F3
102
{ACAD_REACTORS
330
27F2
102
}
330
27F2
100
AcDbVisualStyle
  2
Flat
 70
     0
 71
     2
 72
     1
 73
     1
 90
        2
 40
-0.6
 41
30.0
 62
     5
 63
     7
 74
     0
 91
        4
 64
     7
 65
   257
 75
     1
175
     1
 42
1.0
 92
        8
 66
     7
 43
1.0
 76
     1
 77
     6
 78
     2
 67
     7
 79
     5
170
     0
171
     0
290
     0
174
     0
 93
       13
 44
0.0
173
     0
291
     1
 45
0.0
1001
ACAD
1000
AcRTDxfName
1000
VISUALSTYLE
1000
AcDbSavedByObjectVersion
1070
     0
1000
AcDbSavedByObjectVersion
1070
     0
1000
AcDbSavedByObjectVersion
1070
     0
  0
VISUALSTYLE
  5
27F4
102
{ACAD_REACTORS
330
27F2
102
}
330
27F2
100
AcDbVisualStyle
  2
FlatWithEdges
 70
     1
 71
     2
 72
     1
 73
     1
 90
        2
 40
-0.6
 41
30.0
 62
     5
 63
     7
 74
     1
 91
        4
 64
     7
 65
   257
 75
     1
175
     1
 42
1.0
 92
        0
 66
   257
 43
1.0
 76
     1
 77
     6
 78
     2
 67
     7
 79
     5
170
     0
171
     0
290
     0
174
     0
 93
       13
 44
0.0
173
     0
291
     1
 45
0.0
1001
ACAD
1000
AcRTDxfName
1000
VISUALSTYLE
1000
AcDbSavedByObjectVersion
1070
     0
1000
AcDbSavedByObjectVersion
1070
     0
1000
AcDbSavedByObjectVersion
1070
     0
  0
VISUALSTYLE
  5
27F5
102
{ACAD_REACTORS
330
27F2
102
}
330
27F2
100
AcDbVisualStyle
  2
Gouraud
 70
     2
 71
     2
 72
     2
 73
     1
 90
        2
 40
-0.6
 41
30.0
 62
     5
 63
     7
 74
     0
 91
        4
 64
     7
 65
   257
 75
     1
175
     1
 42
1.0
 92
        0
 66
     7
 43
1.0
 76
     1
 77
     6
 78
     2
 67
     7
 79
     5
170
     0
171
     0
290
     0
174
     0
 93
       13
 44
0.0
173
     0
291
     1
 45
0.0
1001
ACAD
1000
AcRTDxfName
1000
VISUALSTYLE
1000
AcDbSavedByObjectVersion
1070
     0
1000
AcDbSavedByObjectVersion
1070
     0
1000
AcDbSavedByObjectVersion
1070
     0
  0
VISUALSTYLE
  5
27F6
102
{ACAD_REACTORS
330
27F2
102
}
330
27F2
100
AcDbVisualStyle
  2
GouraudWithEdges
 70
     3
 71
     2
 72
     2
 73
     1
 90
        2
 40
-0.6
 41
30.0
 62
     5
 63
     7
 74
     1
 91
        4
 64
     7
 65
   257
 75
     1
175
     1
 42
1.0
 92
        0
 66
   257
 43
1.0
 76
     1
 77
     6
 78
     2
 67
     7
 79
     5
170
     0
171
     0
290
     0
174
     0
 93
       13
 44
0.0
173
     0
291
     1
 45
0.0
1001
ACAD
1000
AcRTDxfName
1000
VISUALSTYLE
1000
AcDbSavedByObjectVersion
1070
     0
1000
AcDbSavedByObjectVersion
1070
     0
1000
AcDbSavedByObjectVersion
1070
     0
  0
VISUALSTYLE
  5
2800
102
{ACAD_REACTORS
330
27F2
102
}
330
27F2
100
AcDbVisualStyle
  2
Linepattern
 70
    14
 71
     2
 72
     2
 73
     0
 90
        0
 40
-0.6
 41
-30.0
 62
     5
 63
     7
 74
     1
 91
        4
 64
     7
 65
   257
 75
     7
175
     7
 42
1.0
 92
        8
 66
     7
 43
1.0
 76
     1
 77
     6
 78
     2
 67
     7
 79
     5
170
     0
171
     0
290
     0
174
     0
 93
        1
 44
0.0
173
     0
291
     1
 45
0.0
1001
ACAD
1000
AcRTDxfName
1000
VISUALSTYLE
1000
AcDbSavedByObjectVersion
1070
     0
1000
AcDbSavedByObjectVersion
1070
     0
1000
AcDbSavedByObjectVersion
1070
     0
  0
VISUALSTYLE
  5
27FC
102
{ACAD_REACTORS
330
27F2
102
}
330
27F2
100
AcDbVisualStyle
  2
Realistic
 70
     8
 71
     2
 72
     2
 73
     0
 90
        0
 40
-0.6
 41
-30.0
 62
     5
 63
     7
 74
     1
 91
        0
 64
     7
 65
   257
 75
     1
175
     1
 42
1.0
 92
        8
 66
     8
 43
1.0
 76
     1
 77
     6
 78
     2
 67
     7
 79
     5
170
     0
171
     0
290
     0
174
     0
 93
       13
 44
0.0
173
     0
291
     0
 45
0.0
1001
ACAD
1000
AcRTDxfName
1000
VISUALSTYLE
1000
AcDbSavedByObjectVersion
1070
     0
1000
AcDbSavedByObjectVersion
1070
     0
1000
AcDbSavedByObjectVersion
1070
     0
  0
VISUALSTYLE
  5
27FF
102
{ACAD_REACTORS
330
27F2
102
}
330
27F2
100
AcDbVisualStyle
  2
Thicken
 70
    13
 71
     2
 72
     2
 73
     0
 90
        0
 40
-0.6
 41
-30.0
 62
     5
 63
     7
 74
     1
 91
        4
 64
     7
 65
   257
 75
     1
175
     1
 42
1.0
 92
       12
 66
     7
 43
1.0
 76
     1
 77
     6
 78
     2
 67
     7
 79
     5
170
     0
171
     0
290
     0
174
     0
 93
        1
 44
0.0
173
     0
291
     1
 45
0.0
1001
ACAD
1000
AcRTDxfName
1000
VISUALSTYLE
1000
AcDbSavedByObjectVersion
1070
     0
1000
AcDbSavedByObjectVersion
1070
     0
1000
AcDbSavedByObjectVersion
1070
     0
  0
DICTIONARYVAR
  5
5873
102
{ACAD_REACTORS
330
26CE
102
}
330
26CE
100
DictionaryVariables
280
     0
  1
1:1
  0
DICTIONARYVAR
  5
5872
102
{ACAD_REACTORS
330
26CE
102
}
330
26CE
100
DictionaryVariables
280
     0
  1
STANDARD
  0
DICTIONARYVAR
  5
2792
102
{ACAD_REACTORS
330
26CE
102
}
330
26CE
100
DictionaryVariables
280
     0
  1
STANDARD
  0
DICTIONARYVAR
  5
26CF
102
{ACAD_REACTORS
330
26CE
102
}
330
26CE
100
DictionaryVariables
280
     0
  1
1
  0
DICTIONARYVAR
  5
5875
102
{ACAD_REACTORS
330
26CE
102
}
330
26CE
100
DictionaryVariables
280
     0
  1
0
  0
DICTIONARYVAR
  5
2793
102
{ACAD_REACTORS
330
26CE
102
}
330
26CE
100
DictionaryVariables
280
     0
  1

  0
DICTIONARYVAR
  5
5874
102
{ACAD_REACTORS
330
26CE
102
}
330
26CE
100
DictionaryVariables
280
     0
  1
127
  0
DICTIONARY
  5
64CF
330
1DE6
100
AcDbDictionary
280
     1
281
     1
  3
ACAD_XREC_ROUNDTRIP
360
64D0
  0
DICTIONARY
  5
26FB
330
1DE7
100
AcDbDictionary
280
     1
281
     1
  3
ACAD_XREC_ROUNDTRIP
360
64D1
  3
ADSK_XREC_LAYOUTTHUMBNAIL
360
26FC
  0
DICTIONARY
  5
27E3
330
27E2
100
AcDbDictionary
280
     1
281
     1
  3
ACAD_XREC_ROUNDTRIP
360
5D08
  3
BUMPTILE
360
27E5
  3
DIFFUSETILE
360
27E4
  3
OPACITYTILE
360
27E8
  3
REFLECTIONTILE
360
27E7
  3
REFRACTIONTILE
360
27E9
  3
SPECULARTILE
360
27E6
  0
DICTIONARY
  5
27DB
330
27DA
100
AcDbDictionary
280
     1
281
     1
  3
ACAD_XREC_ROUNDTRIP
360
5D07
  3
BUMPTILE
360
27DD
  3
DIFFUSETILE
360
27DC
  3
OPACITYTILE
360
27E0
  3
REFLECTIONTILE
360
27DF
  3
REFRACTIONTILE
360
27E1
  3
SPECULARTILE
360
27DE
  0
DICTIONARY
  5
27EB
330
27EA
100
AcDbDictionary
280
     1
281
     1
  3
ACAD_XREC_ROUNDTRIP
360
5D09
  3
BUMPTILE
360
27ED
  3
DIFFUSETILE
360
27EC
  3
OPACITYTILE
360
27F0
  3
REFLECTIONTILE
360
27EF
  3
REFRACTIONTILE
360
27F1
  3
SPECULARTILE
360
27EE
  0
DICTIONARY
  5
64D3
330
2785
100
AcDbDictionary
280
     1
281
     1
  3
ACAD_XREC_ROUNDTRIP
360
64D4
  0
DICTIONARY
  5
5836
330
26D4
100
AcDbDictionary
280
     1
281
     1
  3
ACAD_ROUNDTRIP_2008_TABLESTYLE_CELLSTYLEMAP
360
64CA
  3
ACAD_XREC_ROUNDTRIP
360
64D2
  0
XRECORD
  5
64D0
102
{ACAD_REACTORS
330
64CF
102
}
330
64CF
100
AcDbXrecord
280
     1
102
SHADEPLOT
 70
     0
102
SHADEPLOTRESLEVEL
 70
     2
102
SHADEPLOTCUSTOMDPI
 70
   300
  0
XRECORD
  5
64D1
102
{ACAD_REACTORS
330
26FB
102
}
330
26FB
100
AcDbXrecord
280
     1
102
SHADEPLOT
 70
     0
102
SHADEPLOTRESLEVEL
 70
     2
102
SHADEPLOTCUSTOMDPI
 70
   300
  0
XRECORD
  5
26FC
102
{ACAD_REACTORS
330
26FB
102
}
330
26FB
100
AcDbXrecord
280
     1
310
28000000B40000007F00000001000800000000004C590000000000000000000000010000000000000000000000FF0000000000000000000000000000000000000000000000000000000000000000000000000000330000006600000099000000CC000000FF00000000330000333300006633000099330000CC330000FF3300
310
0000660000336600006666000099660000CC660000FF66000000990000339900006699000099990000CC990000FF99000000CC000033CC000066CC000099CC0000CCCC0000FFCC000000FF000033FF000066FF000099FF0000CCFF0000FFFF000000003300330033006600330099003300CC003300FF003300003333003333
310
33006633330099333300CC333300FF33330000663300336633006666330099663300CC663300FF66330000993300339933006699330099993300CC993300FF99330000CC330033CC330066CC330099CC3300CCCC3300FFCC330000FF330033FF330066FF330099FF3300CCFF3300FFFF330000006600330066006600660099
310
006600CC006600FF00660000336600333366006633660099336600CC336600FF33660000666600336666006666660099666600CC666600FF66660000996600339966006699660099996600CC996600FF99660000CC660033CC660066CC660099CC6600CCCC6600FFCC660000FF660033FF660066FF660099FF6600CCFF6600
310
FFFF660000009900330099006600990099009900CC009900FF00990000339900333399006633990099339900CC339900FF33990000669900336699006666990099669900CC669900FF66990000999900339999006699990099999900CC999900FF99990000CC990033CC990066CC990099CC9900CCCC9900FFCC990000FF99
310
0033FF990066FF990099FF9900CCFF9900FFFF99000000CC003300CC006600CC009900CC00CC00CC00FF00CC000033CC003333CC006633CC009933CC00CC33CC00FF33CC000066CC003366CC006666CC009966CC00CC66CC00FF66CC000099CC003399CC006699CC009999CC00CC99CC00FF99CC0000CCCC0033CCCC0066CC
310
CC0099CCCC00CCCCCC00FFCCCC0000FFCC0033FFCC0066FFCC0099FFCC00CCFFCC00FFFFCC000000FF003300FF006600FF009900FF00CC00FF00FF00FF000033FF003333FF006633FF009933FF00CC33FF00FF33FF000066FF003366FF006666FF009966FF00CC66FF00FF66FF000099FF003399FF006699FF009999FF00CC
310
99FF00FF99FF0000CCFF0033CCFF0066CCFF0099CCFF00CCCCFF00FFCCFF0000FFFF0033FFFF0066FFFF0099FFFF00CCFFFF00FFFFFF00000000000D0D0D001A1A1A00282828003535350043434300505050005D5D5D006B6B6B00787878008686860093939300A1A1A100AEAEAE00BBBBBB00C9C9C900D6D6D600E4E4E400
310
F1F1F100FFFFFF0000000000000000000000000000000000000000000000000000000000000000000000000000000000F5F5F5F5F5F5F5F5F5F5F5F5F5F5F5F5F5F5F5F5F5F5F5F5F5F5F5F5F5F5F5F5F5F5F5F5F5F5F5F5F5F5F5F5F5F5F5F5F5F5F5F5F5F5F5F5F5F5F5F5F5F5F5F5F5F5F5F5F5F5F5F5F5F5F5F5F5F5F5
310
F5F5F5F5F5F5F5F5F5F5F5F5F5F5F5F5F5F5F5F5F5F5F5F5F5F5F5F5F5F5F5F5F5F5F5F5F5F5F5F5F5F5F5F5F5F5F5F5F5F5F5F5F5F5F5F5F5F5F5F5F5F5F5F5F5F5F5F5F5F5F5F5F5F5F5F5F5F5F5F5F5F5F5F5F5F5F5F5F5F5F5F5F5F5F5F5F5F5F5F5F5F5E2E2E2E2E2E2E2E2E2E2E2E2E2E2E2E2E2E2E2E2E2E2E2E2E2
310
E2E2E2E2E2E2E2E2E2E2E2E2E2E2E2E2E2E2E2E2E2E2E2E2E2E2E2E2E2E2E2E2E2E2E2E2E2E2E2E2E2E2E2E2E2E2E2E2E2E2E2E2E2E2E2E2E2E2E2E2E2E2E2E2E2E2E2E2E2E2E2E2E2E2E2E2E2E2E2E2E2E2E2E2E2E2E2E2E2E2E2E2E2E2E2E2E2E2E2E2E2E2E2E2E2E2E2E2E2E2E2E2E2E2E2E2E2E2E2E2E2E2E2E2E2E2E2
310
E2E2E2E2E2E2E2E2E2E2E2E2E2E2E2E2E2E2E2E2E2E2E2E2E2F5F5F5E2E2E2E2E2E2E2E2E2E2E2E2E2E2E2E2E2E2E2E2E2E2E2E2E2E2E2E2E2E2E2E2E2E2E2E2E2E2E2E2E2E2E2E2E2E2E2E2E2E2E2E2E2E2E2E2E2E2E2E2E2E2E2E2E2E2E2E2E2E2E2E2E2E2E2E2E2E2E2E2E2E2E2E2E2E2E2E2E2E2E2E2E2E2E2E2E2E2E2
310
E2E2E2E2E2E2E2E2E2E2E2E2E2E2E2E2E2E2E2E2E2E2E2E2E2E2E2E2E2E2E2E2E2E2E2E2E2E2E2E2E2E2E2E2E2E2E2E2E2E2E2E2E2E2E2E2E2E2E2E2E2E2E2E2E2E2E2E2E2E2E2E2E2E2E2E2E2E2F5F5F5E2E2E2F5F5F5F5F5F5F5F5E2E2E2E2E2E2E2E2E2F5F5F5F5F5F5F5F5F5F5F5F5F5F5F5F5E2E2E2E2E2E2E2E2F5F5
310
F5F5F5F5F5F5F5F5F5F5F5F5F5F5E2E2E2E2E2E2E2E2E2F5F5F5F5F5F5F5F5F5F5F5F5F5F5F5E2E2E2E2E2E2E2E2E2F5F5F5F5F5F5F5F5F5F5F5F5F5F5F5E2E2E2E2E2E2E2E2E2F5F5F5F5F5F5F5F5F5F5F5F5F5F5F5F5E2E2E2E2E2E2E2E2F5F5F5F5F5F5F5F5F5F5F5F5F5F5F5F5E2E2E2E2E2E2E2E2E2F5F5F5F5F5F5F5
310
F5E2E2E2F5F5F5E2E2E2F5E2E2E2E2E2E2E2E2E2E2E2E2E2E2E2E2E2E2E2E2E2E2E2E2E2E2E2E2E2E2E2E2E2E2E2E2E2E2E2E2E2E2E2E2E2E2E2E2E2E2E2E2E2E2E2E2E2E2E2E2E2E2E2E2E2E2E2E2E2E2E2E2E2E2E2E2E2E2E2E2E2E2E2E2E2E2E2E2E2E2E2E2E2E2E2E2E2E2E2E2E2E2E2E2E2E2E2E2E2E2E2E2E2E2E2E2
310
E2E2E2E2E2E2E2E2E2E2E2E2E2E2E2E2E2E2E2E2E2E2E2E2E2E2E2E2E2E2E2E2E2E2E2E2E2E2E2E2E2E2E2E2E2E2E2E2E2E2E2E2E2F5E2E2E2F5F5F5E2E2E2F5E2E2E2E2E2E2E2E2E2E2E2E2E2E2E2E2E2E2E2E2E2E2E2E2E2E2E2E2E2E2E2E2E2E2E2E2E2E2E2E2E2E2E2E2E2E2E2E2E2E2E2E2E2E2E2E2E2E2E2E2E2E2E2
310
E2E2E2E2E2E2E2E2E2E2E2E2E2E2E2E2E2E2E2E2E2E2E2E2E2E2E2E2E2E2E2E2E2E2E2E2E2E2E2E2E2E2E2E2E2E2E2E2E2E2E2E2E2E2E2E2E2E2E2E2E2E2E2E2E2E2E2E2E2E2E2E2E2E2E2E2E2E2E2E2E2E2E2E2E2E2E2E2E2E2E2E2E2E2E2E2E2E2E2E2E2E2E2E2E2E2F5E2E2E2F5F5F5E2E2E2F5E2E2E2E2E2E2E2E2E2E2
310
E2E2E2E2E2E2E2E2E2E2E2E2E2E2E2E2E2E2E2E2E2E2E2E2E2E2E2E2E2E2E2E2E2E2E2E2E2E2E2E2E2E2E2E2E2E2E2E2E2E2E2E2E2E2E2E2E2E2E2E2E2E2E2E2E2E2E2E2E2E2E2E2E2E2E2E2E2E2E2E2E2E2E2E2E2E2E2E2E2E2E2E2E2E2E2E2E2E2E2E2E2E2E2E2E2E2E2E2E2E2E2E2E2E2E2E2E2E2E2E2E2E2E2E2E2E2E2
310
E2E2E2E2E2E2E2E2E2E2E2E2E2E2E2E2E2E2E2E2E2E2E2E2E2E2E2E2E2E2E2E2F5E2E2E2F5F5F5E2E2E2F5E2E2F5F5F5F5F5F5F5F5F5F5F5F5F5F5F5F5F5F5F5F5F5F5F5F5F5F5F5F5F5F5F5F5F5F5F5F5F5F5F5F5F5F5F5F5F5F5F5F5F5F5F5F5F5F5F5F5F5F5F5F5F5F5F5F5F5F5F5F5F5F5F5F5F5F5F5F5F5F5F5F5F5F5
310
F5F5F5F5F5F5F5F5F5F5F5F5F5F5F5F5F5F5F5F5F5F5F5F5F5F5F5F5F5F5F5F5F5F5F5F5F5F5F5F5F5F5F5F5F5F5F5F5F5F5F5F5F5F5F5F5F5F5F5F5F5F5F5F5F5F5F5F5F5F5F5F5F5F5F5F5F5F5F5F5F5F5F5E2E2F5E2E2E2F5F5F5E2E2E2F5E2E2F5E2E2E2E2E2E2E2E2E2E2E2E2E2E2E2E2E2E2E2E2E2E2E2E2E2E2E2E2
310
E2E2E2E2E2E2E2E2E2E2E2E2E2E2E2E2E2E2E2E2E2E2E2E2E2E2E2E2E2E2E2E2E2E2E2E2E2E2E2E2E2E2E2E2E2E2E2E2E2E2E2E2E2E2E2E2E2E2E2E2E2E2E2E2E2E2E2E2E2E2E2E2E2E2E2E2E2E2E2E2E2E2E2E2E2E2E2E2E2E2E2E2E2E2E2E2E2E2E2E2E2E2E2E2E2E2E2E2E2E2E2E2E2E2E2E2E2E2E2E2E2E2E2E2E2E2E2
310
E2E2E2E2E2E2E2E2F5E2E2F5E2E2E2F5F5F5E2E2E2F5E2E2F5E2E2E2E2E2E2E2E2E2E2E2E2E2E2E2E2E2E2E2E2E2E2E2E2E2E2E2E2E2E2E2E2E2E2E2E2E2E2E2E2E2E2E2E2E2E2E2E2E2E2E2E2E2E2E2E2E2E2E2E2E2E2E2E2E2E2E2E2E2E2E2E2E2E2E2E2E2E2E2E2E2E2E2E2E2E2E2E2E2E2E2E2E2E2E2E2E2E2E2E2E2E2
310
E2E2E2E2E2E2E2E2E2E2E2E2E2E2E2E2E2E2E2E2E2E2E2E2E2E2E2E2E2E2E2E2E2E2E2E2E2E2E2E2E2E2E2E2E2E2E2E2E2E2E2E2E2E2E2E2E2E2E2E2E2F5E2E2F5E2E2E2F5F5F5E2E2E2F5E2E2F5E2E2E2E2E2E2E2E2E2E2E2E2E2E2E2E2E2E2E2E2E2E2E2E2E2E2E2E2E2E2E2E2E2E2E2E2E2E2E2E2E2E2E2E2E2E2E2E2E2
310
E2E2E2E2E2E2E2E2E2E2E2E2E2E2E2E2E2E2E2E2E2E2E2E2E2E2E2E2E2E2E2E2E2E2E2E2E2E2E2E2E2E2E2E2E2E2E2E2E2E2E2E2E2E2E2E2E2E2E2E2E2E2E2E2E2E2E2E2E2E2E2E2E2E2E2E2E2E2E2E2E2E2E2E2E2E2E2E2E2E2E2E2E2E2E2E2E2E2E2E2E2E2E2E2E2E2E2E2E2E2E2E2E2E2F5E2E2F5E2E2E2F5F5F5E2E2E2
310
E2E2E2F5E2E2E2E2E2E2E2E2E2E2E2E2E2E2E2E2E2E2E2E2E2E2E2E2E2E2E2E2E2E2E2E2E2E2E2E2E2E2E2E2E2E2E2E2E2E2E2E2E2E2E2E2E2E2E2E2E2E2E2E2E2E2E2E2E2E2E2E2E2E2E2E2E2E2E2E2E2E2E2E2E2E2E2E2E2E2E2E2E2E2E2E2E2E2E2E2E2E2E2E2E2E2E2E2E2E2E2E2E2E2E2E2E2E2E2E2E2E2E2E2E2E2E2
310
E2E2E2E2E2E2E2E2E2E2E2E2E2E2E2E2E2E2E2E2E2E2E2E2E2E2E2E2E2E2E2E2E2E2E2E2E2E2E2E2F5E2E2E2E2E2E2F5F5F5E2E2E2E2E2E2F5E2E2E2E2E2E2E2E2E2E2E2E2E2E2E2E2E2E2E2E2E2E2E2E2E2E2E2E2E2E2E2E2E2E2E2E2E2E2E2E2E2E2E2E2E2E2E2E2E2E2E2E2E2E2E2E2E2E2E2E2E2E2E2E2E2E2E2E2E2E2
310
E2E2E2E2E2E2E2E2E2E2E2E2E2E2E2E2E2E2E2E2E2E2E2E2E2E2E2E2E2E2E2E2E2E2E2E2E2E2E2E2E2E2E2E2E2E2E2E2E2E2E2E2E2E2E2E2E2E2E2E2E2E2E2E2E2E2E2E2E2E2E2E2E2E2E2E2E2E2E2E2E2E2E2E2E2E2E2E2E2E2E2E2E2F5E2E2E2E2E2E2F5F5F5E2E2E2E2E2E2F5E2E2E2E2E2E2E2E2E2E2E2E2E2E2E2E2E2
310
E2E2E2E2E2E2E2E2E2E2E2E2E2E2E2E2E2E2E2E2E2E2E2E2E2E2E2E2E2E2E2E2E2E2E2E2E2E2E2E2E2E2E2E2E2E2E2E2E2E2E2E2E2E2E2E2E2E2E2E2E2E2E2E2E2E2E2E2E2E2E2E2E2E2E2E2E2E2E2E2E2E2E2E2E2E2E2E2E2E2E2E2E2E2E2E2E2E2E2E2E2E2E2E2E2E2E2E2E2E2E2E2E2E2E2E2E2E2E2E2E2E2E2E2E2E2E2
310
E2E2E2E2E2E2E2E2E2E2E2E2E2E2E2E2E2E2E2F5E2E2E2E2E2E2F5F5F5E2E2E2E2E2E2F5E2E2E2E2E2E2E2E2E2E2E2E2E2E2E2E2E2E2E2E2E2E2E2E2E2E2E2E2E2E2E2E2E2E2E2E2E2E2E2E2E2E2E2E2E2E2E2E2E2E2E2E2E2E2E2E2E2E2E2E2E2E2E2E2E2E2E2E2E2E2E2E2E2E2E2E2E2E2E2E2E2E2E2E2E2E2E2E2E2E2E2
310
E2E2E2E2E2E2E2E2E2E2E2E2E2E2E2E2E2E2E2E2E2E2E2E2E2E2E2E2E2E2E2E2E2E2E2E2E2E2E2E2E2E2E2E2E2E2E2E2E2E2E2E2E2E2E2E2E2E2E2E2E2E2E2E2E2E2E2E2E2E2E2E2F5E2E2E2E2E2E2F5F5F5E2E2E2E2E2E2F5E2E2E2E2E2E2E2E2E2E2E2E2E2E2E2E2E2E2E2E2E2E2E2E2E2E2E2E2E2E2E2E2E2E2E2E2E2E2
310
E2E2E2E2E2E2E2E2E2E2E2E2E2E2E2E2E2E2E2E2E2E2E2E2E2E2E2E2E2E2E2E2E2E2E2E2E2E2E2E2E2E2E2E2E2E2E2E2E2E2E2E2E2E2E2E2E2E2E2E2E2E2E2E2E2E2E2E2E2E2E2E2E2E2E2E2E2E2E2E2E2E2E2E2E2E2E2E2E2E2E2E2E2E2E2E2E2E2E2E2E2E2E2E2E2E2E2E2E2E2E2E2E2E2E2E2E2E2E2E2E2E2E2E2E2F5E2
310
E2E2E2E2E2F5F5F5E2E2E2E2E2E2F5E2E2E2E2E2E2E2E2E2E2E2E2E2E2E2E2E2E2E2E2E2E2E2E2E2E2E2E2E2E2E2E2E2E2E2E2E2E2E2E2E2E2E2E2E2E2E2E2E2E2E2E2E2E2E2E2E2E2E2E2E2E2E2E2E2E2E2E2E2E2E2E2E2E2E2E2E2E2E2E2E2E2E2E2E2E2E2E2E2E2E2E2E2E2E2E2E2E2E2E2E2E2E2E2E2E2E2E2E2E2E2E2
310
E2E2E2E2E2E2E2E2E2E2E2E2E2E2E2E2E2E2E2E2E2E2E2E2E2E2E2E2E2E2E2E2E2E2E2E2E2E2E2E2E2E2E2E2E2E2E2E2E2E2E2F5E2E2E2E2E2E2F5F5F5E2E2E2E2E2E2F5E2E2E2E2E2E2E2E2E2E2E2E2E2E2E2E2E2E2E2E2E2E2E2E2E2E2E2E2E2E2E2E2E2E2E2E2E2E2E2E2E2E2E2E2E2E2E2E2E2E2E2E2E2E2E2E2E2E2E2
310
E2E2E2E2E2E2E2E2E2E2E2E2E2E2E2E2E2E2E2E2E2E2E2E2E2E2E2E2E2E2E2E2E2E2E2E2E2E2E2E2E2E2E2E2E2E2E2E2E2E2E2E2E2E2E2E2E2E2E2E2E2E2E2E2E2E2E2E2E2E2E2E2E2E2E2E2E2E2E2E2E2E2E2E2E2E2E2E2E2E2E2E2E2E2E2E2E2E2E2E2E2E2E2E2F5E2E2E2E2E2E2F5F5F5E2E2E2E2E2E2F5E2E2E2E2E2E2
310
E2E2E2E2E2E2E2E2E2E2E2E2E2E2E2E2E2E2E2E2E2E2E2E2E2E2E2E2E2E2E2E2E2E2E2E2E2E2E2E2E2E2E2E2E2E2E2E2E2E2E2E2E2E2E2E2E2E2E2E2E2E2E2E2E2E2E2E2E2E2E2E2E2E2E2E2E2E2E2E2E2E2E2E2E2E2E2E2E2E2E2E2E2E2E2E2E2E2E2E2E2E2E2E2E2E2E2E2E2E2E2E2E2E2E2E2E2E2E2E2E2E2E2E2E2E2E2
310
E2E2E2E2E2E2E2E2E2E2E2E2E2E2E2E2E2E2E2E2E2E2E2E2E2E2E2E2E2E2F5E2E2E2E2E2E2F5F5F5E2E2E2E2E2E2F5E2E2E2E2E2E2E2E2E2E2E2E2E2E2E2E2E2E2E2E2E2E2E2E2E2E2E2E2E2E2E2E2E2E2E2E2E2E2E2E2E2E2E2E2E2E2E2E2E2E2E2E2E2E2E2E2E2E2E2E2E2E2E2E2E2E2E2E2E2E2F0E2E2E2E2E2E2E2E2E2
310
E2E2E2E2E2E2E2E2E2E2E2E2E2E2E2E2E2E2E2E2E2E2E2E2E2E2E2E2E2E2E2E2E2E2E2E2E2E2E2E2E2E2E2E2E2E2E2E2E2E2E2E2E2E2E2E2E2E2E2E2E2E2E2E2E2E2E2E2E2E2E2F0E2E2E2E2E2E2E2E2E2E2E2F5E2E2E2E2E2E2F5F5F5E2E2E2F5E2E2F5E2E2E2E2E2E2E2E2E2E2E2E2E2E2E2E2E2E2E2E2E2E2E2E2E2E2E2
310
E2E2E2E2E2E2E2E2E2E2E2E2E2E2E2E2E2E2E2E2E2E2E2E2E2E2E2E2E2E2E2E2E2E2E2E2E2E2E2E2E2E2E2F0F0F0F0F0F0F0F0F0F0F0F0F0F0F0F0F0F0F0F0F0F0F0F0F0F0F0F0F0F0F0F0F0F0F0F0F0F0F0DCDCDCDCDCF0F0F0F0F0F0F0F0F0F0F0F0F0F0F0F0F0F0F0F0F0F0F0F0F0F0F0F0F0F0F0F0F0F0F0F0F0F0E2E2
310
E2E2E2E2E2E2E2E2E2F5E2E2F5E2E2E2F5F5F5E2E2E2F5E2E2F5E2E2E2E2E2E2E2E2E2E2E2E2E2E2E2E2E2E2E2E2E2E2E2E2E2E2E2E2E2E2E2E2E2E2E2E2E2E2E2E2E2E2E2E2E2E2E2E2E2E2E2E2E2E2E2E2E2E2E2E2E2E2E2E2E2E2E2E2E2E2F0E2E2E2E2E2E2E2E2E2E2E2E2E2E2E2E2E2E2E2E2E2E2E2E2E2E2E2E2E2E2
310
E2E2E2E2E2E2E2DCDCDCDCDCDCE2E2E2E2E2E2E2E2E2E2E2E2E2E2E2E2E2E2E2E2E2E2E2E2E2E2E2E2E2E2E2E2E2E2E2E2E2F0E2E2E2E2E2E2E2E2E2E2E2F5E2E2F5E2E2E2F5F5F5E2E2E2F5E2E2F5E2E2E2E2E2E2E2E2E2E2E2E2E2E2E2E2E2E2E2E2E2E2E2E2E2E2E2E2E2E2E2E2E2E2E2E2E2E2E2E2E2E2E2E2E2E2E2E2
310
E2E2E2E2E2E2E2E2E2E2E2E2E2E2E2E2E2E2E2E2E2E2F0E2E2E2E2E2E2E2E2E2E2E2E2E2E2E2E2E2E2E2E2E2E2E2E2E2E2E2E2E2E2E2E2E2E2E2E2E2E2DCDCDCDCDCE2E2E2E2E2E2E2E2E2E2E2E2E2E2E2E2E2E2E2E2E2E2E2E2E2E2E2E2E2E2E2E2E2E2E2E2E2F0E2E2E2E2E2E2E2E2E2E2E2F5E2E2F5E2E2E2F5F5F5E2E2
310
E2F5E2E2F5E2E2E2E2E2E2E2E2E2E2E2E2E2E2E2E2E2E2E2E2E2E2E2E2E2E2E2E2E2E2E2E2E2E2E2E2E2E2E2E2E2E2E2E2E2E2E2E2E2E2E2E2E2E2E2E2E2E2E2E2E2E2E2E2E2E2E2E2E2E2F0E2E2E2E2E2E2E2E2E2E2E2E2E2E2E2E2E2E2E2E2E2E2E2E2E2E2E2E2E2E2E2E2E2E2E2E2E2E2E2E2E2E2E2E2E2E2E2E2E2E2E2
310
E2E2E2E2E2E2E2E2E2E2E2E2E2E2E2E2E2E2E2E2E2E2E2E2E2E2E2E2E2F0E2E2E2E2E2E2E2E2E2E2E2F5E2E2F5E2E2E2F5F5F5E2E2E2F5E2E2F5E2E2E2E2E2E2E2E2E2E2E2E2E2E2E2E2E2E2E2E2E2E2E2E2E2E2E2E2E2E2E2E2E2E2E2E2E2E2E2E2E2E2E2E2E2E2E2E2E2E2E2E2E2E2E2E2E2E2E2E2E2E2E2E2E2E2E2E2E2
310
E2F0E2E2E2E2E2E2E2E2E2E2E2E2E2E2E2E2E2E2E2E2E2E2E2E2E2E2E2E2E2E2E2E2E2E2E2E2E2E2E2E2E2E2E2E2E2E2E2E2E2E2E2E2E2E2E2E2E2E2E2E2E2E2E2E2E2E2E2E2E2E2E2E2E2E2E2E2E2E2E2E2F0E2E2E2E2E2E2E2E2E2E2E2F5E2E2F5E2E2E2F5F5F5E2E2E2F5E2E2F5E2E2E2E2E2E2E2E2E2E2E2E2E2E2E2E2
310
E2E2E2E2E2E2E2E2E2E2E2E2E2E2E2E2E2E2E2E2E2E2E2E2E2E2E2E2E2E2E2E2E2E2E2E2E2E2E2E2E2E2E2E2E2E2E2E2E2E2E2E2E2E2F0E2E2E2E2E2E2E2E2E2E2E2E2E2E2E2E2E2E2E2E2E2E2E2E2E2E2E2E2E2E2E2E2E2E2E2E2E2E2E2E2E2E2E2E2E2E2E2E2E2E2E2E2E2E2E2E2E2E2E2E2E2E2E2E2E2E2E2E2E2E2E2E2
310
E2E2E2E2E2E2E2E2F0E2E2E2E2E2E2E2E2E2E2E2F5E2E2F5E2E2E2F5F5F5E2E2E2F5E2E2F5E2E2E2E2E2E2E2E2E2F0E2E2E2E2E2E2E2E2E2E2E2E2E2E2E2E2E2E2E2E2E2E2E2E2E2E2E2E2E2E2E2F0E2E2E2E2E2E2E2E2E2E2E2E2E2E2E2E2E2E2E2E2E2E2E2E2E2E2E2E2F0E2E2E2E2F0E2E2E2E2E2E2E2E2E2E2E2E2E2E2
310
E2E2E2E2E2E2E2E2E2E2E2E2E2E2E2E2E2E2E2E2E2E2E2E2E2E2E2E2E2E2E2E2F0E2E2E2E2E2E2E2E2E2E2E2E2E2E2E2E2E2E2E2F0E2E2E2E2E2E2E2E2F0E2E2E2E2E2E2E2E2E2E2E2F5E2E2F5E2E2E2F5F5F5E2E2E2F5E2E2F5E2E2E2E2E2E2E2E2E2F0F0F0F0F0F0F0F0F0F0F0F0F0F0DCDCDCDCF0F0F0F0F0F0F0F0F0F0
310
F0F0F0F0F0E2E2E2E2E2E2E2E2E2E2E2E2E2E2E2E2E2E2E2E2E2E2E2E2E2E2E2E2F0F0DCDCF0F0F0F0F0F0F0F0F0F0F0F0F0F0F0F0F0F0F0F0F0F0F0DCF0DCDCF0F0F0F0F0F0F0F0F0F0F0F0F0F0F0F0F0F0F0F0F0F0F0F0F0F0F0F0F0F0DCDCDCF0F0F0F0F0F0F0F0F0E2E2E2E2E2E2E2E2F0E2E2E2E2E2E2E2E2E2E2E2F5
310
E2E2F5E2E2E2F5F5F5E2E2E2F5E2E2F5E2E2E2E2E2E2E2E2E2F0E2E2E2E2E2E2E2E2E2E2E2E2E2DCDCDCDCE2E2E2E2E2E2E2E2E2E2E2E2E2E2F0E2E2E2E2E2E2E2E2E2E2E2E2E2E2E2E2E2E2E2E2E2E2E2E2E2E2E2E2F0E2DCDCE2F0E2E2E2E2E2E2E2E2E2E2E2E2E2E2E2E2E2E2E2E2E2DCDCDCDCE2E2E2E2E2E2E2E2E2E2
310
E2E2E2E2E2E2E2E2E2E2E2F0E2E2E2E2E2E2E2DCDCDCDCE2E2E2E2E2E2E2E2F0E2E2E2E2E2E2E2E2F0E2E2E2E2E2E2E2E2E2E2E2F5E2E2F5E2E2E2F5F5F5E2E2E2F5E2E2F5E2E2E2E2E2E2E2E2E2F0E2E2E2E2E2E2E2E2E2E2E2E2E2DCDCDCDCE2E2E2E2E2E2E2E2E2E2E2E2E2E2F0E2E2E2E2E2E2E2E2E2E2E2E2E2E2E2E2
310
E2E2E2E2E2E2E2E2E2E2E2E2F0E2DCDCE2F0E2E2E2E2E2E2E2E2E2E2E2E2E2E2E2E2E2E2E2E2E2DCE2DCDCE2E2E2E2E2E2E2E2E2E2E2E2E2E2E2E2E2E2E2E2E2F0E2E2E2E2E2E2E2E2DCDCDCE2E2E2E2E2E2E2E2F0E2E2E2E2E2E2E2E2F0E2E2E2E2E2E2E2E2E2E2E2F5E2E2F5E2E2E2F5F5F5E2E2E2F5E2E2F5E2E2E2E2E2
310
E2E2E2E2F0E2E2E2E2E2E2E2E2E2E2E2E2E2E2E2E2E2E2E2E2E2E2E2E2E2E2E2E2E2E2E2F0E2E2E2E2E2E2E2E2E2E2E2E2E2E2E2E2E2E2E2E2E2E2E2E2E2E2E2E2F0E2E2E2E2F0E2E2E2E2E2E2E2E2E2E2E2E2E2E2E2E2E2E2E2E2E2E2E2E2E2E2E2E2E2E2E2E2E2E2E2E2E2E2E2E2E2E2E2E2E2E2F0E2E2E2E2E2E2E2E2E2
310
E2E2E2E2E2E2E2E2E2E2F0E2E2E2E2E2E2E2E2F0E2E2E2E2E2E2E2E2E2E2E2F5E2E2F5E2E2E2F5F5F5E2E2E2F5E2E2F5E2E2E2E2E2E2E2E2E2F0E2E2E2E2E2E2E2E2E2E2E2E2E2E2E2E2E2E2E2E2E2E2E2E2E2E2E2E2E2E2E2F0E2E2E2E2E2E2E2E2E2E2E2E2E2E2E2E2E2E2E2E2E2E2E2E2E2E2E2E2F0E2E2E2E2F0E2E2E2
310
E2E2E2E2E2E2E2E2E2E2E2E2E2E2E2E2E2E2E2E2E2E2E2E2E2E2E2E2E2E2E2E2E2E2E2E2E2E2E2E2E2E2E2F0E2E2E2E2E2E2E2E2E2E2E2E2E2E2E2E2E2E2E2F0E2E2E2E2E2E2E2E2F0E2E2E2E2E2E2E2E2E2E2E2F5E2E2F5E2E2E2F5F5F5E2E2E2F5E2E2F5E2E2E2E2E2E2E2E2E2F0E2E2E2E2E2E2E2E2E2E2E2E2E2E2E2E2
310
E2E2E2E2E2E2E2E2E2E2E2E2E2E2E2F0E2E2E2E2E2E2E2E2E2E2E2E2E2E2E2E2E2E2E2E2E2E2E2E2E2E2E2E2F0E2E2E2E2F0E2E2E2E2E2E2E2E2E2E2E2E2E2E2E2E2E2E2E2E2E2E2E2E2E2E2E2E2E2E2E2E2E2E2E2E2E2E2E2E2E2E2E2E2E2E2F0E2E2E2E2E2E2E2E2E2E2E2E2E2E2E2E2E2E2E2F0E2E2E2E2E2E2E2E2F0E2
310
E2E2E2E2E2E2E2E2E2E2F5E2E2F5E2E2E2F5F5F5E2E2E2F5E2E2F5E2E2E2E2E2E2E2E2E2F0E2E2E2E2E2E2E2E2E2E2E2E2E2E2E2E2E2E2E2E2E2E2E2E2E2E2E2E2E2E2E2F0E2E2E2E2E2E2E2E2E2E2E2E2E2E2E2E2E2E2E2E2E2E2E2E2E2E2E2E2F0E2E2E2E2F0E2E2E2E2E2E2E2E2E2E2E2E2E2E2E2E2E2E2E2E2E2E2E2E2
310
E2E2E2E2E2E2E2E2E2E2E2E2E2E2E2E2E2E2E2E2E2E2F0E2E2E2E2E2E2E2E2E2E2E2E2E2E2E2E2E2E2E2F0E2E2E2E2E2E2E2E2F0E2E2E2E2E2E2E2E2E2E2E2F5E2E2F5E2E2E2F5F5F5E2E2E2F5E2E2F5E2E2E2E2E2E2E2E2E2F0E2E2E2E2E2E2E2E2E2E2E2E2E2E2E2E2E2E2E2E2E2E2E2E2E2E2E2E2E2E2E2F0E2E2E2E2E2
310
E2E2E2E2E2E2E2E2E2E2E2E2E2E2E2E2E2E2E2E2E2E2E2F0E2E2E2E2F0E2E2E2E2E2E2E2E2E2E2E2E2E2E2E2E2E2E2E2E2E2E2E2E2E2E2E2E2E2E2E2E2E2E2E2E2E2E2E2E2E2E2E2E2E2E2F0E2E2E2E2E2E2E2E2E2E2E2E2E2E2E2E2E2E2E2F0E2E2E2E2E2E2E2E2F0E2E2E2E2E2E2E2E2E2E2E2F5E2E2F5E2E2E2F5F5F5E2
310
E2E2E2E2E2F5E2E2E2E2E2E2E2F5F5F5F5E2E2E2E2E2E2E2E2E2E2E2E2E2E2E2E2E2E2E2E2E2E2E2E2E2E2E2E2F5F5F5F5E2E2E2E2E2E2E2E2E2E2F0F0F0F0F0F0F0F0F0F0F0F0F0F0F0F0F0F0F0F0F5F5F5F5E2E2E2E2E2E2E2E2E2E2E2E2E2E2E2E2E2E2E2E2E2E2E2E2E2E2E2E2E2E2E2E2E2E2E2E2E2E2E2E2E2E2E2F5
310
F5F5F5F0F0F0F0F0F0F0F0F0F0F0F0F0F0F0F0F5F5F5F5F5F0F0F0F0F0F0F0F0F0F0F0F0F0E2E2E2E2E2F5E2E2E2E2E2E2F5F5F5E2E2E2E2E2E2F5E2E2E2E2E2F5F5F5F5F5F5F5F5F5F5F5F5F5F5F5F5F5F5F5F5F5F5F5F5F5F5F5F5F5F5F5F5F5F5F5F5F5F5F5F5F5E2E2E2E2E2E2E2E2E2F0E2E2E2E2E2E2E2E2E2E2E2E2
310
E2E2F0F5F5F5F5F5F5F5F5F5E2E2E2E2F5F5F5F5F5F5F5F5F5F5F5F5F5F5F5F5F5F5F5F5F5F5F5F5F5F5F5F5F5F5F5F5F5F5F5F5F5F5F5F5F5F5F5E2E2E2E2E2E2E2E2E2E2E2E2E2F5F5F5F5F5E2E2E2E2E2E2F0E2E2E2E2F0F0E2E2E2E2E2F5E2E2E2E2E2E2F5F5F5E2E2E2E2E2E2F5E2E2E2E2E2F5F5F5F5F5F5F5F5F5E2
310
E2E2E2E2F5F5F5F5E2F5F5E2F5F5E2F5E2E2E2E2E2E2F5F5F5F5F5F5F5F5F5E2E2E2E2E2E2E2E2F0F0E2E2E2E2E2E2E2E2E2E2E2E2E2E2F0F5F5F5F5F5F5F5F5F5F5F5F5F5E2E2F5F5E2E2E2E2F5F5E2E2E2E2E2E2F5E2E2E2E2E2F5F5E2E2E2E2E2E2F5F5E2E2F5F5F5F5F5F5F5F5F5F5F5F5F5F5F5F5F5F5F5F5F5F5F5F5
310
F5F5E2E2E2E2E2E2E2F0E2E2E2E2F0E2E2E2E2E2E2F5E2E2E2E2E2E2F5F5F5E2E2E2E2E2E2F5E2E2E2E2E2E2E2F5F5F5F5F5F5F5F5F5F5F5F5F5F5F5F5F5F5F5F5F5F5F5F5F5F5F5F5F5F5F5F5F5F5F5F5E2E2E2E2E2E2E2E2E2E2E2E2F0E2E2E2E2E2E2E2E2E2E2E2E2E2E2F0E2E2F5F5F5F5F5F5F5F5F5F5F5F5F5F5F5F5
310
F5F5F5F5F5F5F5F5F5F5F5F5F5F5F5F5F5F5F5F5F5F5F5F5F5F5F5F5F5F5F5F5F5F5F5F5F5F5F5E2E2F5E2E2E2E2E2E2E2E2E2E2E2E2F5F5E2E2E2E2E2E2F0E2E2E2E2F0E2E2E2E2E2E2F5E2E2E2E2E2E2F5F5F5E2E2E2E2E2E2F5E2E2E2E2E2E2F5E2E2E2E2E2E2E2E2E2E2E2E2E2E2E2E2E2E2E2E2E2E2E2E2E2E2E2E2E2
310
E2E2E2E2E2E2E2F5E2E2E2E2E2E2E2E2E2E2E2F0E2E2E2E2E2E2E2E2E2E2E2E2E2E2F0E2F5F5E2E2E2E2E2E2E2E2E2E2E2E2E2E2E2E2E2E2E2E2E2E2E2E2E2E2E2E2E2E2E2E2E2E2E2E2E2E2E2E2E2E2E2E2E2E2E2E2E2E2F5E2F5F5F5F5F5F5F5E2E2E2E2E2E2E2E2E2E2E2F5E2E2E2E2E2E2F0E2E2E2E2F0E2E2E2E2E2E2
310
F5E2E2E2E2E2E2F5F5F5E2E2E2E2E2E2F5E2E2E2E2E2E2F5E2E2E2E2E2E2E2E2E2E2E2E2E2E2E2E2E2E2E2E2E2E2E2E2E2E2E2E2E2E2E2E2E2E2E2E2E2F5E2E2E2E2E2E2E2E2E2E2F0E2E2E2E2E2E2E2E2E2E2E2E2E2E2F0E2F5E2E2E2E2E2E2E2E2E2E2E2E2E2E2E2E2E2E2E2E2E2E2E2E2E2E2E2E2E2E2E2E2E2E2E2E2E2
310
E2E2E2E2E2E2E2E2E2E2E2E2E2E2E2F5F5E2E2E2E2E2E2F5F5F5F5F5E2E2E2E2E2E2F5E2E2E2E2E2E2F0E2E2E2E2F0E2E2E2E2E2E2F5E2E2E2E2E2E2F5F5F5E2E2E2E2E2E2F5E2E2E2E2F5F5F5F5F5F5F5F5F5F5F5F5F5F5F5F5F5F5F5F5F5F5F5F5F5F5F5F5F5F5F5F5F5F5F5F5F5F5F5F5F5F5E2E2E2E2E2E2E2DCDCF0E2
310
E2E2F0F0F0F0F0F0F0F0F0F0F0F5F5F5F5F5F5F5F5F5F5F5F5F5F5F5F5F5F5F5F5F5F5F5F5F5F5F5F5F5F5F5F5F5F5F5F5F5F5F5F5F5F5F5F5F5F5F5F5F5F5F5F5F5F5F5F5F5F5E2E2E2E2E2E2E2E2E2F5F5F5F5F5F5F5F5E2E2E2E2E2E2F0E2E2E2E2F0E2E2E2E2E2E2F5E2E2E2E2E2E2F5F5F5E2E2E2E2E2E2F5E2E2E2E2
310
F5E2E2E2E2E2E2E2E2E2E2E2E2E2E2E2E2E2E2E2E2E2E2E2E2E2E2E2E2E2E2E2E2E2E2E2E2E2E2E2E2F5E2E2E2E2E2E2E2DCDCF0E2E2E2E2F0E2E2E2E2E2E2E2E2E2F5E2E2E2E2E2E2E2E2E2E2E2E2E2E2E2E2E2E2E2E2E2E2E2E2E2E2E2E2E2E2E2E2E2E2E2E2E2E2E2E2E2E2E2E2E2E2E2E2E2E2E2E2E2E2E2E2F5E2E2E2
310
E2E2E2E2E2E2F5E2E2E2E2E2E2F5E2E2E2E2E2E2F0E2E2E2E2F0E2E2E2E2E2E2F5E2E2E2E2E2E2F5F5F5E2E2E2E2E2E2F5E2E2E2E2F5E2E2E2E2E2E2E2E2E2E2E2E2E2E2E2E2E2E2E2E2E2E2E2E2E2E2E2E2E2E2E2E2E2E2E2E2E2E2E2E2F5E2E2E2E2E2E2E2DCDCF0E2E2E2E2F0E2E2E2E2E2E2E2E2E2F5E2E2E2E2E2E2E2
310
E2E2E2E2E2E2E2E2E2E2E2E2E2E2E2E2E2E2E2E2E2E2E2E2E2E2E2E2E2E2E2E2E2E2E2E2E2E2E2E2E2E2E2E2E2E2E2E2E2F5E2E2E2E2E2E2E2E2E2F5E2E2E2E2E2E2F5E2E2E2E2E2E2F0E2E2E2E2F0E2E2E2E2E2E2F5E2E2E2E2E2E2F5F5F5E2E2E2F5E2E2F5E2E2E2E2F5E2E2E2E2E2E2E2E2E2E2E2E2E2E2E2E2E2E2E2E2
310
E2E2E2E2E2E2E2E2E2E2E2E2E2E2E2E2E2E2E2E2F5E2E2E2E2E2E2E2E2E2F0E2E2DCE2DCE2E2E2E2E2E2E2E2E2F5E2E2E2E2E2E2E2E2E2E2E2E2E2E2E2E2E2E2E2E2E2E2E2E2E2E2E2E2E2E2E2E2E2E2E2E2E2E2E2E2E2E2E2E2E2E2E2E2E2E2E2E2E2E2E2E2F5E2E2E2E2E2E2E2E2E2F5E2E2E2E2E2E2F5E2E2E2E2E2E2F0
310
E2E2E2E2F0E2E2E2E2E2E2F5E2E2F5E2E2E2F5F5F5E2E2E2F5E2E2F5E2E2E2E2F5E2E2E2E2E2E2E2E2E2E2E2E2E2E2E2E2E2E2E2E2E2E2E2E2E2E2E2E2E2E2E2E2E2E2E2E2E2E2E2E2F5E2E2E2E2E2E2E2E2E2F0E2E2DCDCDCE2E2E2E2E2E2E2E2E2F5E2E2E2E2E2E2E2E2E2E2E2E2E2E2E2E2E2E2E2E2E2E2E2E2E2E2E2E2
310
E2E2E2E2E2E2E2E2E2E2E2E2E2E2E2E2E2E2E2E2E2E2E2E2E2E2E2E2F5E2E2E2E2E2E2E2E2E2F5F5F5F5F5F5F5F5E2E2E2E2E2E2F0E2E2E2E2F0E2E2E2E2E2E2F5E2E2F5E2E2E2F5F5F5E2E2E2F5E2E2F5E2E2E2E2F5E2E2E2E2E2E2E2E2E2E2E2E2E2E2E2E2E2E2E2E2E2E2E2E2E2E2E2E2E2E2E2E2E2E2E2E2E2E2E2E2F5
310
E2E2E2E2E2E2E2E2E2F0E2E2DCDCDCE2E2E2E2E2E2E2E2E2F5E2E2E2E2E2E2E2E2E2E2E2E2E2E2E2E2E2E2E2E2E2E2E2E2E2E2E2E2E2E2E2E2E2E2E2E2E2E2E2E2E2E2E2E2E2E2E2E2E2E2E2E2E2E2E2E2F5E2E2E2E2E2E2E2E2E2E2F5E2E2E2E2F5E2E2E2E2E2E2E2F0E2E2E2E2F0E2E2E2E2E2E2F5E2E2F5E2E2E2F5F5F5
310
E2E2E2F5E2E2F5E2E2E2E2F5E2E2E2E2E2E2E2E2E2E2E2E2E2E2E2E2E2E2E2E2E2E2E2E2E2E2E2E2E2E2E2E2E2E2E2E2E2E2E2E2F5E2E2E2E2E2E2E2E2F0F0E2E2E2E2F0E2E2E2E2E2E2E2E2E2F5E2E2E2E2E2E2E2E2E2E2E2E2E2E2E2E2E2E2E2E2E2E2E2E2E2E2E2E2E2E2E2E2E2E2E2E2E2E2E2E2E2E2E2E2E2E2E2E2E2
310
E2E2E2E2E2E2E2F5E2E2E2E2E2E2E2E2E2E2F5E2E2E2E2F5E2E2E2E2E2E2E2F0E2E2E2E2F0E2E2E2E2E2E2F5E2E2F5E2E2E2F5F5F5E2E2E2F5E2E2F5E2E2E2E2F5E2E2E2E2E2E2E2E2E2E2E2E2E2E2E2E2E2E2E2E2E2E2E2E2E2E2E2E2E2E2E2E2E2E2E2E2E2E2E2E2F5E2E2E2E2E2E2E2E2E2F0E2E2E2E2F0E2E2E2E2E2E2
310
E2E2E2F5E2E2E2E2E2E2E2E2E2E2E2E2E2E2E2E2E2E2E2E2E2E2E2E2E2E2E2E2E2E2E2E2E2E2E2E2E2E2E2E2E2E2E2E2E2E2E2E2E2E2E2E2E2E2E2E2F5E2E2E2E2E2E2E2E2E2E2F5E2E2E2E2F5E2E2E2E2E2E2E2F0E2E2E2E2F0E2E2E2E2E2E2F5E2E2F5E2E2E2F5F5F5E2E2E2F5E2E2F5E2E2E2E2F5F5F5F5F5F5F5F5F5F5
310
F5F5F5F5F5F5F5F5F5F5F5F5F5F5F5F5F5F5F5F5F5F5F5F5F5F5F5F5F5F5F5F5E2E2E2E2E2E2E2F0F0F0F0F0F0F0F0F0F0F0F0F0F0F0F0F0F0F5F5F5F5F5F5F5F5F5F5F5F5F5F5F5F5F5F5F5F5F5F5F5F5F5F5F5F5F5F5F5F5F5F5F5F5F5F5F5F5F5F5F5F5F5F5F5F5F5F5F5F5F5F5F5F5F0E2E2E2E2E2E2E2E2E2E2F5E2E2
310
E2E2F5E2E2E2E2E2E2E2F0E2E2E2E2F0E2E2E2E2E2E2F5E2E2F5E2E2E2F5F5F5E2E2E2F5E2E2F5E2E2E2E2F0E2E2E2E2E2E2E2E2E2E2E2E2E2E2E2E2E2F5E2E2E2E2F5E2E2E2E2E2E2E2E2E2E2E2E2E2E2E2E2E2F0E2E2E2E2E2E2E2E2E2E2E2E2E2E2E2E2E2E2E2E2E2E2E2E2F0E2E2E2E2E2E2E2E2E2E2E2E2E2E2E2E2E2
310
E2E2E2E2E2E2E2E2E2E2E2E2E2E2E2E2E2E2E2E2E2E2E2E2E2E2E2E2E2E2E2E2E2E2E2E2E2E2E2F0E2E2E2E2E2E2E2E2E2E2F5E2E2E2E2F5E2E2E2E2E2E2E2F0E2E2E2E2F0E2E2E2E2E2E2F5E2E2F5E2E2E2F5F5F5E2E2E2F5E2E2F5E2E2E2E2F0E2E2E2E2E2E2E2E2E2E2E2E2E2E2E2E2E2F5E2E2E2E2F5E2E2E2E2E2E2E2
310
E2E2E2E2E2E2E2E2E2E2F0E2E2E2E2E2E2E2E2E2E2E2E2E2E2E2E2E2E2E2E2E2E2E2E2F0E2E2E2E2E2E2E2E2E2E2E2E2E2E2E2E2E2E2E2E2E2E2E2E2E2E2E2E2E2E2E2E2E2E2E2E2E2E2E2E2E2E2E2E2E2E2E2E2E2E2E2E2E2E2E2E2F0E2E2E2E2E2E2E2E2E2E2F5E2E2E2E2F5E2E2E2E2E2E2E2F0E2E2E2E2F0E2E2E2E2E2
310
E2F5E2E2F5E2E2E2F5F5F5E2E2E2F5E2E2F5E2E2E2E2F0E2E2E2E2E2E2E2E2E2E2E2E2E2E2E2E2E2F5E2E2E2E2F5E2E2E2E2E2E2E2E2E2E2E2E2E2E2E2E2E2F0E2E2E2E2E2E2E2E2E2E2E2E2E2E2E2E2E2E2E2E2E2E2E2E2F0E2E2E2E2E2E2E2E2E2E2E2E2E2E2E2E2E2E2E2E2E2E2E2E2E2E2E2E2E2E2E2E2E2E2E2E2E2E2
310
E2E2E2E2E2E2E2E2E2E2E2E2E2E2E2E2E2E2F0E2E2E2E2E2E2E2E2E2E2F5E2E2E2E2F5E2E2E2E2E2E2E2F0E2E2E2E2F0E2E2E2E2E2E2F5E2E2F5E2E2E2F5F5F5E2E2E2F5E2E2F5E2E2E2E2F0E2E2E2E2E2E2E2E2E2E2E2E2E2E2E2E2E2F5E2E2E2E2F5E2E2E2E2E2E2E2E2E2E2E2E2E2E2E2E2E2F0E2E2E2E2E2E2E2E2E2E2
310
E2E2E2E2E2E2E2E2E2E2E2E2E2E2F0E2E2E2E2E2E2E2E2E2E2E2E2E2E2E2E2E2E2E2E2E2E2E2E2E2E2E2E2E2E2E2E2E2E2E2E2E2E2E2E2E2E2E2E2E2E2E2E2E2E2E2E2E2E2E2E2F0E2E2E2E2E2E2E2E2E2E2F5E2E2E2E2F5E2E2E2E2E2E2E2F0E2E2E2E2F0E2E2E2E2E2E2F5E2E2F5E2E2E2F5F5F5E2E2E2F5E2E2F5E2E2E2
310
E2F0E2E2E2E2E2E2E2E2E2E2E2E2E2E2E2E2E2F5E2E2E2E2F5E2E2E2E2E2E2E2E2E2E2E2E2E2E2E2E2E2F0E2E2E2E2E2E2E2E2E2E2E2E2E2E2E2E2E2E2E2E2E2E2E2E2F0E2E2E2E2E2E2E2E2E2E2E2E2E2E2E2E2E2E2E2E2E2E2E2E2E2E2E2E2E2E2E2E2E2E2E2E2E2E2E2E2E2E2E2E2E2E2E2E2E2E2E2E2E2E2E2E2F0E2E2
310
E2E2E2E2E2E2E2E2F5E2E2E2E2F5E2E2E2E2E2E2E2F0E2E2E2E2F0E2E2E2E2E2E2F5E2E2F5E2E2E2F5F5F5E2E2E2F5E2E2F5E2E2E2E2F0E2E2E2E2E2E2E2E2E2E2E2E2E2E2E2E2E2F5E2E2E2E2F5E2E2E2E2E2E2E2E2E2E2E2E2E2E2E2E2E2F0E2E2E2E2E2E2E2E2E2E2E2E2E2E2E2E2E2E2E2E2E2E2E2E2F0E2E2E2E2E2E2
310
E2E2E2E2E2E2E2E2E2E2E2E2E2E2E2E2E2E2E2E2E2E2E2E2E2E2E2E2E2E2E2E2E2E2E2E2E2E2E2E2E2E2E2E2E2E2E2E2E2E2F0E2E2E2E2E2E2E2E2E2E2F5E2E2E2E2F5E2E2E2E2E2E2E2F0E2E2E2E2F0E2E2E2E2E2E2F5E2E2F5E2E2E2F5F5F5E2E2E2F5E2E2F5E2E2E2E2F0E2E2E2E2E2E2E2E2E2E2E2E2E2E2E2E2E2F5E2
310
E2E2E2F5E2E2E2E2E2E2E2E2E2E2E2E2E2E2E2E2E2F0E2E2E2E2E2E2E2E2E2E2E2E2E2E2E2E2E2E2E2E2E2E2E2E2F0E2E2E2E2E2E2E2E2E2E2E2E2E2E2E2E2E2E2E2E2E2E2E2E2E2E2E2E2E2E2E2E2E2E2E2E2E2E2E2E2E2E2E2E2E2E2E2E2E2E2E2E2E2E2E2E2F0E2E2E2E2E2E2E2E2E2E2F5E2E2E2E2F5E2E2E2E2E2E2E2
310
F0E2E2E2E2F0E2E2E2E2E2E2F5E2E2F5E2E2E2F5F5F5E2E2E2F5E2E2F5E2E2E2E2F0E2E2E2E2E2E2E2E2E2E2E2E2E2E2E2E2E2F5E2E2E2E2F5E2E2E2E2E2E2E2E2E2E2E2E2E2E2E2E2E2F0E2E2E2E2E2E2E2E2E2E2E2E2E2E2E2E2E2E2E2E2E2E2E2E2F0E2E2E2E2E2E2E2E2E2E2E2E2E2E2E2E2E2E2E2E2E2E2E2E2E2E2E2
310
E2E2E2E2E2E2E2E2E2E2E2E2E2E2E2E2E2E2E2E2E2E2E2E2E2E2E2E2E2F0E2E2E2E2E2E2E2E2E2E2F5E2E2E2E2F5E2E2E2E2E2E2E2F0E2E2E2E2F0E2E2E2E2E2E2F5E2E2F5E2E2E2F5F5F5E2E2E2F5E2E2F5E2E2E2E2F0E2E2E2E2E2E2E2E2E2E2E2E2E2E2E2E2E2F5E2E2E2E2F5E2E2E2E2E2E2E2E2E2E2E2E2E2E2E2E2E2
310
F0E2E2E2E2E2E2E2E2E2E2E2E2E2E2E2E2E2E2E2E2E2E2E2E2F0E2E2E2E2E2E2E2E2E2E2E2E2E2E2E2E2E2E2E2E2E2E2E2E2E2E2E2E2E2E2E2E2E2E2E2E2E2E2E2E2E2E2E2E2E2E2E2E2E2E2E2E2E2E2E2E2F0E2E2E2E2E2E2E2E2E2E2F5E2E2E2E2F5E2E2E2E2E2E2E2F0E2E2E2E2F0E2E2E2E2E2E2F5E2E2F5E2E2E2F5F5
310
F5E2E2E2E2E2E2F5E2E2E2E2F0E2E2E2E2E2E2E2E2E2E2E2E2E2E2E2E2E2F5E2E2E2E2F5E2E2E2E2E2E2E2E2E2E2E2E2E2E2E2E2E2F0E2E2E2E2E2E2E2E2E2E2E2E2E2E2E2E2E2E2E2E2E2E2E2E2F0E2E2E2E2E2E2E2E2E2E2E2E2E2E2E2E2E2E2E2E2E2E2E2E2E2E2E2E2E2E2E2E2E2E2E2E2E2E2E2E2E2E2E2E2E2E2E2E2
310
E2E2E2E2E2E2E2E2F0E2E2E2E2E2E2E2E2E2E2F5E2E2E2E2F5E2E2E2E2E2E2E2F0E2E2E2E2F0E2E2E2E2E2E2F5E2E2E2E2E2E2F5F5F5E2E2E2E2E2E2F5E2E2E2E2F0F0F0F0F0F0F0F0F0F0F0F0F0F0F0F0F0F0F5DCDCDCDCF5F0F0F0F0F0F0F0F0F0F0F0F0F0F0F0F0F0F0E2E2E2E2E2E2E2E2E2E2E2E2E2E2E2E2E2E2E2E2
310
E2E2E2E2F0F0F0F0F0F0F0F0F0F0F0F0F0F0F0F0F0F0F0F0F0F0F0F0F0F0F0DCDCDCDCF0F0F0F0F0F0F0F0F0F0F0F0F0F0F0F0F0F0F0F0F0F0F0F0F0F0F0E2E2E2E2E2E2E2E2E2E2F5E2E2E2E2F5E2E2E2E2E2E2E2F0E2E2E2E2F0E2E2E2E2E2E2F5E2E2E2E2E2E2F5F5F5E2E2E2E2E2E2F5E2E2E2E2F0E2E2E2E2E2E2E2E2
310
E2E2E2E2E2E2E2E2E2F5DCDCDCDCF5E2E2E2E2E2E2E2E2E2E2E2E2E2E2E2E2E2F0E2E2E2E2E2E2E2E2E2E2E2E2E2E2E2E2E2E2E2E2E2E2E2E2F0E2E2E2E2E2E2E2E2E2E2E2E2E2E2E2E2E2E2E2E2E2E2E2E2E2E2DCDCDCDCE2E2E2E2E2E2E2E2E2E2E2E2E2E2E2E2E2E2E2E2E2E2E2E2E2E2F0E2E2E2E2E2E2E2E2E2E2F5E2
310
E2E2E2F5E2E2E2E2E2E2E2F0E2E2E2E2F0E2E2E2E2E2E2F5E2E2E2E2E2E2F5F5F5E2E2E2E2E2E2F5E2E2E2E2E2E2E2E2E2E2E2E2E2E2E2E2E2E2E2E2E2E2F5DCDCDCDCF5E2E2E2E2E2E2E2E2E2E2E2E2E2E2E2E2E2E2E2E2E2E2E2E2E2E2E2E2E2E2E2E2E2E2E2E2E2E2E2E2E2E2E2E2E2E2E2E2E2E2E2E2E2E2E2E2E2E2E2
310
E2E2E2E2E2E2E2E2E2E2DCDCDCDCE2E2E2E2E2E2E2E2E2E2E2E2E2E2E2E2E2E2E2E2E2E2E2E2E2E2E2E2E2E2E2E2E2E2E2E2E2F5E2E2F5F5F5E2E2E2E2E2E2E2F0E2E2E2E2F0E2E2E2E2E2E2F5E2E2E2E2E2E2F5F5F5E2E2E2E2E2E2F5E2E2E2E2E2E2E2E2E2E2E2E2E2E2E2E2E2E2E2E2E2E2F5E2E2E2E2F5E2E2E2E2E2E2
310
E2E2E2E2E2E2E2E2E2E2E2E2E2E2E2E2E2E2E2E2E2E2E2E2E2E2E2E2E2E2E2E2E2E2E2E2E2E2E2E2E2E2E2E2E2E2E2E2E2E2E2E2E2E2E2E2E2E2E2E2E2E2E2E2E2E2E2E2E2E2E2E2E2E2E2E2E2E2E2E2E2E2E2E2E2E2E2E2E2E2E2E2E2E2E2E2E2E2E2E2E2E2E2E2F5F5F5F5F5F5E2E2E2E2E2E2E2F0E2E2E2E2F0E2E2E2E2
310
E2E2F5E2E2E2E2E2E2F5F5F5E2E2E2E2E2E2F5E2E2E2E2E2E2E2E2E2E2E2E2E2E2E2E2E2E2E2E2E2E2F5E2E2E2E2F5E2E2E2E2E2E2E2E2E2E2E2E2E2E2E2E2E2E2E2E2E2E2E2E2E2E2E2E2E2E2E2E2E2E2E2E2E2E2E2E2E2E2E2E2E2E2E2E2E2E2E2E2E2E2E2E2E2E2E2E2E2E2E2E2E2E2E2E2E2E2E2E2E2E2E2E2E2E2E2E2
310
E2E2E2E2E2E2E2E2E2E2E2E2E2E2E2E2E2E2E2E2E2E2E2E2E2E2E2E2E2E2F5F5F5E2E2F5E2E2E2E2E2E2E2F0E2E2E2DCDCE2E2E2E2E2E2F5E2E2E2E2E2E2F5F5F5E2E2E2E2E2E2F5E2E2E2E2E2E2E2E2E2E2E2E2E2E2E2E2E2E2E2E2E2E2F5E2E2E2E2F5E2E2E2E2E2E2E2E2E2E2E2E2E2E2E2E2E2E2E2E2E2E2E2E2E2E2E2
310
E2E2E2E2E2E2E2E2E2E2E2E2E2E2E2E2E2E2E2E2E2E2E2E2E2E2E2E2E2E2E2E2E2E2E2E2E2E2E2E2E2E2E2E2E2E2E2E2E2E2E2E2E2E2E2E2E2E2E2E2E2E2E2E2E2E2E2E2E2E2E2E2E2E2E2E2E2E2E2E2E2E2E2F5E2E2E2E2F5E2E2E2E2E2E2E2F0E2E2E2DCDCE2E2E2E2E2E2F5E2E2E2E2E2E2F5F5F5E2E2E2E2E2E2F5E2E2
310
E2E2E2E2E2E2E2E2E2E2E2E2E2E2E2E2E2E2E2E2F5E2E2E2F5F5E2E2E2E2E2E2E2E2E2E2E2E2E2E2E2E2E2E2E2E2E2E2E2E2E2E2E2E2E2E2E2E2E2E2E2E2E2E2E2E2E2E2E2E2E2E2E2E2E2E2E2E2E2E2E2E2E2E2E2E2E2E2E2E2E2E2E2E2E2E2E2E2E2E2E2E2E2E2E2E2E2E2E2E2E2E2E2E2E2E2E2E2E2E2E2E2E2E2E2E2E2
310
E2E2E2E2E2E2E2E2E2F5E2E2E2E2F5E2E2E2E2E2E2E2F0E2E2E2DCDCE2E2E2E2E2E2F5E2E2E2E2E2E2F5F5F5E2E2E2E2E2E2F5E2E2E2E2E2E2E2E2E2E2E2E2E2E2E2E2E2E2E2E2E2E2F5F5F5F5F5F5E2E2E2E2E2E2E2E2E2E2E2E2E2E2E2E2E2E2E2E2E2E2E2E2E2E2E2E2E2E2E2E2E2E2E2E2E2E2E2E2E2E2E2E2E2E2E2E2
310
E2E2E2E2E2E2E2E2E2E2E2E2E2E2E2E2E2E2E2E2E2E2E2E2E2E2E2E2E2E2E2E2E2E2E2E2E2E2E2E2E2E2E2E2E2E2E2E2E2E2E2E2E2E2E2E2E2E2E2E2E2E2F5E2E2E2E2F5E2E2E2E2E2E2E2F0E2E2E2DCDCE2E2E2E2E2E2F5E2E2E2E2E2E2F5F5F5E2E2E2F5E2E2F5E2E2E2E2E2E2E2E2E2E2E2E2E2E2E2E2E2E2E2E2E2E2F5
310
F5F5F5E2F5E2E2E2E2E2E2E2E2E2E2E2E2E2E2E2E2E2E2E2E2E2E2E2E2E2E2E2E2E2E2E2E2E2E2E2E2E2E2E2E2E2E2E2E2E2E2E2E2E2E2E2E2E2E2E2E2E2E2E2E2E2E2E2E2E2E2E2E2E2E2E2E2E2E2E2E2E2E2E2E2E2E2E2E2E2E2E2E2E2E2E2E2E2E2E2E2E2E2E2E2E2E2E2E2E2E2E2E2E2E2F5E2E2E2E2F5E2E2E2E2E2E2
310
E2F0E2E2E2DCDCE2E2E2E2E2E2F5E2E2F5E2E2E2F5F5F5E2E2E2F5E2E2F5E2E2E2E2E2E2E2E2E2E2E2E2E2E2E2E2E2E2E2E2E2E2F5E2E2E2E2F5E2E2E2E2E2E2E2E2E2E2E2E2E2E2E2E2E2E2E2E2E2E2E2E2E2E2E2E2E2E2E2E2E2E2E2E2E2E2E2E2E2E2E2E2E2E2E2E2E2E2E2E2E2E2E2E2E2E2E2E2E2E2E2E2E2E2E2E2E2
310
E2E2E2E2E2E2E2E2E2E2E2E2E2E2E2E2E2E2E2E2E2E2E2E2E2E2E2E2E2E2E2E2E2E2E2E2E2E2E2E2E2F5E2E2E2E2F5E2E2E2E2E2E2E2F0E2E2E2DCDCE2E2E2E2E2E2F5E2E2F5E2E2E2F5F5F5E2E2E2F5E2E2F5E2E2E2E2E2E2E2E2E2E2E2E2E2E2E2E2E2E2E2E2E2E2F5E2E2E2E2F5E2E2E2E2E2E2E2E2E2E2E2E2E2E2E2E2
310
E2E2E2E2E2E2E2E2E2E2E2E2E2E2E2E2E2E2E2E2E2E2E2E2E2E2E2E2E2E2E2E2E2E2E2E2E2E2E2E2E2E2E2E2E2E2E2E2E2E2E2E2E2E2E2E2E2E2E2E2E2E2E2E2E2E2E2E2E2E2E2E2E2E2E2E2E2E2E2E2E2E2E2E2E2E2E2E2E2E2E2E2E2E2F5E2E2E2E2F5E2E2E2E2E2E2E2F0E2E2E2E2F0E2E2E2E2E2E2F5E2E2F5E2E2E2F5
310
F5F5E2E2E2F5E2E2F5E2E2E2E2E2E2E2E2E2E2E2E2E2E2E2E2E2E2E2E2E2E2F5E2E2E2E2F5E2E2E2E2E2E2E2E2E2E2E2E2E2E2E2E2E2E2E2E2E2E2E2E2E2E2E2E2E2E2E2E2E2E2E2E2E2E2E2E2E2E2E2E2E2E2E2E2E2E2E2E2E2E2E2E2E2E2E2E2E2E2E2E2E2E2E2E2E2E2E2E2E2E2E2E2E2E2E2E2E2E2E2E2E2E2E2E2E2E2
310
E2E2E2E2E2E2E2E2E2E2E2E2E2E2E2E2E2E2E2E2F5E2E2E2E2F5E2E2E2E2E2E2E2F0E2E2E2E2F0E2E2E2E2E2E2F5E2E2F5E2E2E2F5F5F5E2E2E2F5E2E2F5E2E2E2E2E2E2E2E2E2E2E2E2E2E2E2E2E2E2E2E2E2E2F5E2E2E2E2F5E2E2E2E2E2E2E2E2E2E2E2E2E2E2E2E2E2E2E2E2E2E2E2E2E2E2E2E2E2E2E2E2E2E2E2E2E2
310
E2E2E2E2E2E2E2E2E2E2E2E2E2E2E2E2E2E2E2E2E2E2E2E2E2E2E2E2E2E2E2E2E2E2E2E2E2E2E2E2E2E2E2E2E2E2E2E2E2E2E2E2E2E2E2E2E2E2E2E2E2E2E2E2E2E2E2E2E2E2E2E2E2F5E2E2E2E2F5E2E2E2E2E2E2E2F0E2E2E2E2F0E2E2E2E2E2E2F5E2E2F5E2E2E2F5F5F5E2E2E2F5E2E2F5E2E2E2E2E2E2E2E2E2E2E2E2
310
E2E2E2E2E2E2E2E2E2E2F5E2E2E2E2F5E2E2E2E2E2E2E2E2E2E2E2E2E2E2E2E2E2E2E2E2E2E2E2E2E2E2E2E2E2E2E2E2E2E2E2E2E2E2E2E2E2E2E2E2E2E2E2E2E2E2E2E2E2E2E2E2E2E2E2E2E2E2E2E2E2E2E2E2E2E2E2E2E2E2E2E2E2E2E2E2E2E2E2E2E2E2E2E2E2E2E2E2E2E2E2E2E2E2E2E2E2E2E2E2E2E2E2E2E2E2F5
310
E2E2E2E2F5E2E2E2E2E2E2E2F0E2E2E2E2F0E2E2E2E2E2E2F5E2E2F5E2E2E2F5F5F5E2E2E2F5E2E2F5E2E2E2E2E2E2E2E2E2E2E2E2E2F5F5F5F5F5F5F5F5F5F5F5F5F5F5F5F5F5F5F5F5F5F5F5F5E2E2E2E2E2E2E2E2E2E2E2E2E2E2E2E2E2E2E2E2E2E2E2E2E2E2E2E2E2E2E2E2E2E2E2E2E2E2E2E2E2E2E2E2E2E2E2E2E2
310
E2E2E2E2E2E2E2E2E2E2E2E2E2E2E2E2E2E2E2E2E2E2E2E2E2E2E2E2E2E2E2E2E2E2E2E2E2E2E2E2E2E2E2E2E2E2F0F0F0F0F5F5F5F5F5F5F5F5F5F5E2E2E2E2E2F0E2E2E2E2F0E2E2E2E2E2E2F5E2E2F5E2E2E2F5F5F5E2E2E2F5E2E2F5E2E2E2E2E2E2E2E2E2E2E2E2E2F5F5E2E2E2E2E2E2E2E2E2E2E2E2E2E2E2E2E2E2
310
E2E2E2F5E2E2E2E2E2E2E2E2E2E2E2E2E2E2E2E2E2E2E2E2E2E2E2E2E2E2E2E2E2E2E2E2E2E2E2E2E2E2E2E2E2E2E2E2E2E2E2E2E2E2E2E2E2E2E2E2E2E2E2E2E2E2E2E2E2E2E2E2E2E2E2E2E2E2E2E2E2E2E2E2E2E2E2E2E2E2E2E2E2E2E2E2E2E2E2E2F0E2E2F5F5F5F5E2F5F5F5E2F5E2E2E2E2E2F0E2E2E2E2F0E2E2E2
310
E2E2E2F5E2E2F5E2E2E2F5F5F5E2E2E2F5E2E2F5E2E2E2E2E2E2E2E2E2E2E2E2E2F5F5F5F5F5F5F5F5F5F5F5F5F5F5F5F5F5F5F5F5F5F5F5F5F0F0F0F0F0F0F0E2E2E2E2E2E2E2E2E2E2E2E2E2E2E2E2E2E2E2E2E2E2E2E2E2E2E2E2E2E2E2E2E2E2E2E2E2E2E2E2E2E2E2E2E2E2E2E2E2E2E2E2E2E2E2E2E2E2E2E2E2E2E2
310
E2E2E2E2E2E2E2E2E2E2E2E2E2E2E2E2E2E2E2E2E2E2E2E2E2E2F0E2E2F5F5F5F5E2E2F5F5F5F5E2E2E2E2E2F0E2E2E2E2F0E2E2E2E2E2E2F5E2E2F5E2E2E2F5F5F5E2E2E2F5E2E2F5E2E2E2E2E2E2E2E2E2E2E2E2E2F5F5E2E2E2E2E2E2E2E2E2E2E2E2E2E2E2E2E2E2E2E2F5F5E2E2E2E2F0F0E2E2E2E2E2E2E2E2E2E2E2
310
E2E2E2E2E2E2E2E2E2E2E2E2E2E2E2E2E2E2E2E2E2E2E2E2E2E2E2E2E2E2E2E2E2E2E2E2E2E2E2E2E2E2E2E2E2E2E2E2E2E2E2E2E2E2E2E2E2E2E2E2E2E2E2E2E2E2E2E2E2E2E2E2E2E2E2E2E2E2E2F0E2E2F5F5E2F5F5F5F5E2F5F5E2E2E2E2E2F0E2E2E2E2F0E2E2E2E2E2E2F5E2E2F5E2E2E2F5F5F5E2E2E2F5E2E2F5E2
310
E2E2E2E2E2E2E2E2E2E2E2E2F5F5F5F5F5F5F5F5F5F5F5F5F5F5F5F5F5F5F5F5F5F5F5F5E2E2E2E2E2F0E2E2E2E2E2E2E2E2E2E2E2E2E2E2E2E2E2E2E2E2E2E2E2E2E2E2E2E2E2E2E2E2E2E2E2E2E2E2E2E2E2E2E2E2E2E2E2E2E2E2E2E2E2E2E2E2E2E2E2E2E2E2E2E2E2E2E2E2E2E2E2E2E2E2E2E2E2E2E2E2E2E2E2E2E2
310
E2E2E2E2E2F0E2E2F5F5E2F5E2E2F5E2F5F5F5E2E2E2E2F0E2E2E2E2F0E2E2E2E2E2E2F5E2E2F5E2E2E2F5F5F5E2E2E2F5E2E2F5E2E2E2E2E2E2E2E2E2E2E2E2E2F5F5E2E2E2F5F5F5F5F5F5F5F5F5F5F5F5F5F5F5E2E2F5F5E2E2E2E2E2F0E2E2E2E2E2E2E2E2E2E2E2E2E2E2E2E2E2E2E2E2E2E2E2E2E2E2E2E2E2E2E2E2
310
E2E2E2E2E2E2E2E2E2E2E2E2E2E2E2E2E2E2E2E2E2E2E2E2E2E2E2E2E2E2E2E2E2E2E2E2E2E2E2E2E2E2E2E2E2E2E2E2E2E2E2E2E2E2E2E2E2E2F0E2E2F5F5E2F5E2E2F5E2F5F5F5F5E2E2E2F0E2E2E2E2F0E2E2E2E2E2E2F5E2E2F5E2E2E2F5F5F5E2E2E2F5E2E2F5E2E2E2E2E2E2E2E2E2E2E2E2E2F5F5E2E2F5F5F5F5E2
310
E2E2E2E2F5F5F5F5F5F5F5E2E2F5F5E2E2E2E2E2F0E2E2E2E2E2E2E2E2E2E2E2E2E2E2E2E2E2E2E2E2E2E2E2E2E2E2E2E2E2E2E2E2E2E2E2E2E2E2E2E2E2E2E2E2E2E2E2E2E2E2E2E2E2E2E2E2E2E2E2E2E2E2E2E2E2E2E2E2E2E2E2E2E2E2E2E2E2E2E2E2E2E2E2E2E2E2E2E2E2E2F0E2E2F5F5F5F5E2E2F5F5F5F5F5F5E2
310
E2E2F0E2E2E2E2F0E2E2E2E2E2E2F5E2E2F5E2E2E2F5F5F5E2E2E2F5E2E2F5E2E2E2E2E2E2E2E2E2E2E2E2E2F5F5E2E2F5F5F5F5E2E2E2E2E2F5E2F5F5E2F5F5E2E2F5F5E2E2E2E2E2F0E2E2E2E2E2E2E2E2E2E2E2E2E2E2E2E2E2E2E2E2E2E2E2E2E2E2E2E2E2E2E2E2E2E2E2E2E2E2E2E2E2E2E2E2E2E2E2E2E2E2E2E2E2
310
E2E2E2E2E2E2E2E2E2E2E2E2E2E2E2E2E2E2E2E2E2E2E2E2E2E2E2E2E2E2E2E2E2E2E2E2E2F0E2E2E2F5F5E2F5F5E2F5F5F5F5F5E2E2E2F0E2E2E2E2F0E2E2E2E2E2E2F5E2E2F5E2E2E2F5F5F5E2E2E2F5E2E2F5E2E2E2E2E2E2E2E2E2E2E2E2E2F5F5E2E2F5F5F5F5E2E2E2E2E2F5F5F5F5F5F5F5E2E2F5F5E2E2E2E2E2F0
310
E2E2E2E2E2E2E2E2E2E2E2E2E2E2E2E2E2E2E2E2E2E2E2E2E2E2E2E2E2E2E2E2E2E2E2E2E2E2E2E2E2E2E2E2E2E2E2E2E2E2E2E2E2E2E2E2E2E2E2E2E2E2E2E2E2E2E2E2E2E2E2E2E2E2E2E2E2E2E2E2E2E2E2E2E2E2E2E2E2E2F0E2E2E2F5F5E2F5F5E2F5F5F5F5F5E2E2E2F0E2E2E2E2F0E2E2E2E2E2E2F5E2E2F5E2E2E2
310
F5F5F5E2E2E2E2E2E2F5E2E2E2E2E2E2E2E2E2E2E2E2E2F5F5E2E2F5F5F5F5F5F5F5F5F5F5F5F5F5F5F5F5E2E2F5F5E2E2E2E2E2F0E2E2E2E2E2E2E2E2E2E2E2E2E2E2E2E2E2E2E2E2E2E2E2E2E2E2E2E2E2E2E2E2E2E2E2E2E2E2E2E2E2E2E2E2E2E2E2E2E2E2E2E2E2E2E2E2E2E2E2E2E2E2E2E2E2E2E2E2E2E2E2E2E2E2
310
E2E2E2E2E2E2E2E2E2E2E2E2E2E2E2E2F0E2E2E2F5F5E2F5F5E2F5F5F5F5F0E2E2E2F5E2E2E2E2F0E2E2E2E2E2E2F5E2E2E2E2E2E2F5F5F5E2E2E2E2E2E2F5E2E2E2E2E2E2E2E2E2E2E2E2E2F5F5E2E2F5F5F5F5F5F5F5F5F5F5F5F5F5F5F5F5E2E2F5F5E2E2E2E2E2F0E2E2E2E2E2E2E2E2E2E2E2E2E2E2E2E2E2E2E2E2E2
310
E2E2E2E2E2E2E2E2E2E2E2E2E2E2E2E2E2E2E2E2E2E2E2E2E2E2E2E2E2E2E2E2E2E2E2E2E2E2E2E2E2E2E2E2E2E2E2E2E2E2E2E2E2E2E2E2E2E2E2E2E2E2E2E2E2E2E2E2DCDCE2E2E2F5E2F5F5F5F5F5F5E2E2F0E2E2E2F5E2E2E2E2F0E2E2E2E2E2E2F5E2E2E2E2E2E2F5F5F5E2E2E2E2E2E2F5E2E2E2E2E2E2E2E2E2E2E2
310
F5F5F5F5E2E2F5F5E2E2E2E2E2E2E2E2E2E2E2E2E2F5E2E2F5F5F5F5E2DCDCF0E2E2E2E2E2E2E2E2E2E2E2E2E2E2E2E2E2E2E2E2E2E2E2E2E2E2E2E2E2E2E2E2E2E2E2E2E2E2E2E2E2E2E2E2E2E2E2E2E2E2E2E2E2E2E2E2E2E2E2E2E2E2E2E2E2E2E2E2E2E2E2E2E2E2E2E2E2E2E2E2E2E2E2E2E2E2E2E2E2DCDCE2E2E2F5
310
F5F5F5F5F5F5F5E2E2F0E2E2E2F5E2E2E2E2F0E2E2E2E2E2E2F5E2E2E2E2E2E2F5F5F5E2E2E2E2E2E2F5E2E2E2E2E2E2E2E2E2E2E2F5F5F5F5E2E2F5F5F5F5F5F5F5F5F5F5F5F5F5F5F5F5E2E2F5F5F5F5E2DCDCF0E2E2E2E2E2E2E2E2E2E2E2E2E2E2E2E2E2E2E2E2E2E2E2E2E2E2E2E2E2E2E2E2E2E2E2E2E2E2E2E2E2E2
310
E2E2E2E2E2E2E2E2E2E2E2E2E2E2E2E2E2E2E2E2E2E2E2E2E2E2E2E2E2E2E2E2E2E2E2E2E2E2E2E2E2E2E2E2E2E2E2DCDCE2E2F5F5F5F5F5F5F5F5F5E2E2F0E2E2E2F5E2E2E2E2F0E2E2E2E2E2E2F5E2E2E2E2E2E2F5F5F5E2E2E2E2E2E2F5E2E2E2E2E2E2E2E2E2E2E2F5E2F5F5E2E2F5F5F5F5F5F5F5F5F5F5F5F5F5F5F5
310
F5E2E2F5F5E2F5E2DCDCF0E2E2E2E2E2E2E2E2E2E2E2E2E2E2E2E2E2E2E2E2E2E2E2E2E2E2E2E2E2E2E2E2E2E2E2E2E2E2E2E2E2E2E2E2E2E2E2E2E2E2E2E2E2E2E2E2E2E2E2E2E2E2E2E2E2E2E2E2E2E2E2E2E2E2E2E2E2E2E2E2E2E2E2E2E2E2E2E2E2DCDCE2E2F5F5F5F5F5F5F5F5F5E2E2F0E2E2E2F5E2E2E2E2F0E2E2
310
E2E2E2E2F5E2E2E2E2E2E2F5F5F5E2E2E2E2E2E2F5E2E2E2E2E2E2E2E2E2E2E2F5F5F5F5E2E2F5F5E2E2E2E2E2E2E2E2E2E2E2E2F5F5E2E2F5F5F5F5E2DCDCF0E2E2E2E2E2E2E2E2E2E2E2E2E2E2E2E2E2E2E2E2E2E2E2E2E2E2E2E2E2E2E2E2E2E2E2E2E2E2E2E2E2E2E2E2E2E2E2E2E2E2E2E2E2E2E2E2E2E2E2E2E2E2E2
310
E2E2E2E2E2E2E2E2E2E2E2E2E2E2E2E2E2E2E2E2E2E2E2E2E2E2E2F0E2E2F5F5E2F5F5F5F5F5F5F5E2F0E2E2E2F5E2E2E2E2F0E2E2E2E2E2E2F5E2E2E2E2E2E2F5F5F5E2E2E2E2E2E2F5E2E2E2E2E2E2E2E2E2E2E2E2F5F5F5E2E2F5F5E2E2E2E2E2E2E2E2E2E2E2E2E2F5E2E2F5F5F5F5E2E2E2F0E2E2E2E2E2E2E2E2E2E2
310
E2E2E2E2E2E2E2E2E2E2E2E2E2E2E2E2E2E2E2E2E2E2E2E2E2E2E2E2E2E2E2E2E2E2E2E2E2E2E2E2E2E2E2E2E2E2E2E2E2E2E2E2E2E2E2E2E2E2E2E2E2E2E2E2E2E2E2E2E2E2E2E2E2E2E2E2E2E2E2E2F0E2E2F5F5E2E2F5F5E2F5F5F5E2F0E2E2E2F5E2E2E2E2F0E2E2E2E2E2E2F5E2E2E2E2E2E2F5F5F5E2E2E2E2E2E2F5
310
E2E2E2E2E2E2E2E2E2E2E2E2E2E2F5E2E2F5F5F5F5F5F5F5F5F5F5F5F5F5F5E2F5E2E2F5E2E2E2E2E2E2F0E2E2E2E2E2E2E2E2E2E2E2E2E2E2E2E2E2E2E2E2E2E2E2E2E2E2E2E2E2E2E2E2E2E2E2E2E2E2E2E2E2E2E2E2E2E2E2E2E2E2E2E2E2E2E2E2E2E2E2E2E2E2E2E2E2E2E2E2E2E2E2E2E2E2E2E2E2E2E2E2E2E2E2E2
310
E2E2E2E2E2E2F0E2E2F5F5E2E2E2E2E2F5F5F5E2F0E2E2E2F5E2E2E2E2F0E2E2E2E2E2E2F5E2E2E2E2E2E2F5F5F5E2E2E2E2E2E2F5E2E2E2E2E2E2E2E2E2E2E2E2E2E2F5E2E2F5F5F5F5F5F5F5F5F5F5F5F5F5F5E2F5E2E2F5E2E2E2E2E2E2F0E2E2E2E2E2E2E2E2E2E2E2E2E2E2E2E2E2E2E2E2E2E2E2E2E2E2E2E2E2E2E2
310
E2E2E2E2E2E2E2E2E2E2E2E2E2E2E2E2E2E2E2E2E2E2E2E2E2E2E2E2E2E2E2E2E2E2E2E2E2E2E2E2E2E2E2E2E2E2E2E2E2E2E2E2E2E2E2E2F5E2E2F0E2E2F5F5E2E2E2E2E2F5F5F5E2F0E2E2F5F5E2E2E2E2F0E2E2E2E2E2E2F5E2E2E2E2E2E2F5F5F5E2E2E2F5E2E2F5E2E2E2E2E2E2E2E2E2E2E2E2E2E2F5E2E2F5F5F5F5
310
F5F5F5F5F5F5F5F5F5E2E2F5E2E2F5E2E2E2E2E2E2F0E2E2E2E2E2E2E2E2E2E2E2E2E2E2E2E2E2E2E2E2E2E2E2E2E2E2E2E2E2E2E2E2E2E2E2E2E2E2E2E2E2E2E2E2E2E2E2E2E2E2E2E2E2E2E2E2E2E2E2E2E2E2E2E2E2E2E2E2E2E2E2E2E2E2E2E2E2E2E2E2E2E2E2E2E2E2E2E2F5E2F0E2E2F5F5E2E2E2E2E2F5F5F5E2F0
310
E2E2F5E2E2E2E2E2F0E2E2E2E2E2E2F5E2E2F5E2E2E2F5F5F5E2E2E2F5E2E2F5E2E2E2E2E2E2E2E2E2E2E2E2E2E2F5E2E2F5F5F5F5F5F5F5F5F5F5F5F5F5E2E2F5E2E2F5E2E2E2E2E2E2F0E2E2E2E2E2E2E2E2E2E2E2E2E2E2E2E2E2E2E2E2E2E2E2E2E2E2E2E2E2E2E2E2E2E2E2E2E2E2E2E2E2E2E2E2E2E2E2E2E2E2E2E2
310
E2E2E2E2E2E2E2E2E2E2E2E2E2E2E2E2E2E2E2E2E2E2E2E2E2E2E2E2E2E2E2E2E2E2E2E2F5E2F0E2E2F5F5E2E2E2E2E2F5F5F5E2F0E2F5F5E2E2E2E2E2F0E2E2E2E2E2E2F5E2E2F5E2E2E2F5F5F5E2E2E2F5E2E2F5E2E2E2E2E2E2E2E2E2E2E2E2E2E2F5E2E2E2F5F5F5F5F5F5F5F5F5F5F5F5F5F5F5E2E2F5E2E2E2E2E2E2
310
F0E2E2E2E2E2E2E2E2E2E2E2E2E2E2E2E2E2E2E2E2E2E2E2E2E2E2E2E2E2E2E2E2E2E2E2E2E2E2E2E2E2E2E2E2E2E2E2E2E2E2E2E2E2E2E2E2E2E2E2E2E2E2E2E2E2E2E2E2E2E2E2E2E2E2E2E2E2E2E2E2E2E2E2E2E2E2E2E2E2F5F0E2E2F5F5E2E2E2E2E2F5F5F5E2F0E2F5E2E2E2E2E2E2F0E2E2E2E2E2E2F5E2E2F5E2E2
310
E2F5F5F5E2E2E2F5E2E2F5E2E2E2E2E2E2E2E2E2E2E2E2E2E2F5E2E2E2E2E2E2E2E2E2E2E2E2E2E2E2E2E2E2E2E2F5E2E2E2E2E2E2F0E2E2E2E2E2E2E2E2E2E2E2E2E2E2E2E2E2E2E2E2E2E2E2E2E2E2E2E2E2E2E2E2E2E2E2E2E2E2E2E2E2E2E2E2E2E2E2E2E2E2E2E2E2E2E2E2E2E2E2E2E2E2E2E2E2E2E2E2E2E2E2E2E2
310
E2E2E2E2E2E2E2E2E2E2E2E2E2E2E2E2E2F0F5E2F0F5E2E2E2E2E2F5F5F5E2F5F5E2E2E2E2E2E2E2F0E2E2E2E2E2E2F5E2E2F5E2E2E2F5F5F5E2E2E2F5E2E2F5E2E2E2E2E2E2E2E2E2E2E2E2E2E2F5F5F5F5F5F5F5F5F5F5F5F5F5F5F5F5F5F5F5F5F5F5E2E2E2E2E2F0F0E2E2E2E2E2E2E2E2E2E2E2E2E2E2E2E2E2E2E2E2
310
E2E2E2E2E2E2E2E2E2E2E2E2E2E2E2E2E2E2E2E2E2E2E2E2E2E2E2E2E2E2E2E2E2E2E2E2E2E2E2E2E2E2E2E2E2E2E2E2E2E2E2E2E2E2E2E2E2E2E2E2E2E2E2E2E2E2E2E2E2E2F0F5F5F0F5E2E2E2E2E2F5F5E2F5F0E2E2E2E2E2E2E2E2F0F0E2E2E2E2E2F5E2E2F5E2E2E2F5F5F5E2E2E2F5E2E2F5E2E2E2E2E2E2E2E2E2E2
310
E2E2E2E2F5E2E2E2E2E2E2E2E2E2E2E2E2E2E2E2E2E2E2E2E2F5E2E2E2E2E2E2F0E2E2E2E2E2E2E2E2E2E2E2E2E2E2E2E2E2E2E2E2E2E2E2E2E2E2E2E2E2E2E2E2E2E2E2E2E2E2E2E2E2E2E2E2E2E2E2E2E2E2E2E2E2E2E2E2E2E2E2E2E2E2E2E2E2E2E2E2E2E2E2E2E2E2E2E2E2E2E2E2E2E2E2E2E2E2E2E2E2E2F0E2F5F5
310
F5F5E2E2E2F5F5F5F5E2F0E2E2E2E2E2E2E2E2F0F0E2E2E2E2E2F5E2E2F5E2E2E2F5F5F5E2E2E2F5E2E2F5E2E2E2E2E2E2E2E2E2E2E2E2E2E2F5F5F5F5F5F5F5F5F5F5F5F5F5F5F5F5F5F5F5F5F5F5F0F0F0F0F0F0F0F0E2E2E2E2E2E2E2E2E2E2E2E2E2E2E2E2E2E2E2E2E2E2E2E2E2E2E2E2E2E2E2E2E2E2E2E2E2E2E2E2
310
E2E2E2E2E2E2E2E2E2E2E2E2E2E2E2E2E2E2E2E2E2E2E2E2E2E2E2E2E2E2E2E2E2E2E2E2E2E2E2E2E2E2E2E2E2E2E2E2F0F0F0F0F0F5F5F5F5F5F5F5F0F0F0F0F0F0F0F0F0F0F0F0F0F0E2E2E2E2E2F5E2E2F5E2E2E2F5F5F5E2E2E2F5E2E2F5E2E2E2E2E2E2E2E2E2E2E2E2E2E2F0E2E2E2E2E2E2E2E2E2E2E2E2E2E2E2E2
310
E2E2E2E2F0E2E2E2E2E2E2E2E2E2E2E2E2E2E2E2E2E2E2E2E2E2E2E2E2E2E2E2E2E2E2E2E2E2E2E2E2E2E2E2E2E2E2E2E2E2E2E2E2E2E2E2E2E2E2E2E2E2E2E2E2E2E2E2E2E2E2E2E2E2E2E2E2E2E2E2E2E2E2E2E2E2E2E2E2E2E2E2E2E2E2E2E2E2E2E2E2E2E2E2E2F0E2E2E2E2E2E2F0E2E2E2F0E2E2E2E2E2E2E2E2E2E2
310
E2E2E2E2E2F5E2E2F5E2E2E2F5F5F5E2E2E2F5E2E2F5E2E2E2E2E2E2E2E2E2E2E2E2E2E2F0E2E2E2E2E2E2E2E2E2E2E2E2E2E2E2E2E2E2E2E2F0E2E2E2E2E2E2E2E2E2E2E2E2E2E2E2E2E2E2E2E2E2E2E2E2E2E2E2E2E2E2E2E2E2E2E2E2E2E2E2E2E2E2E2E2E2E2E2E2E2E2E2E2E2E2E2E2E2E2E2E2E2E2E2E2E2E2E2E2E2
310
E2E2E2E2E2E2E2E2E2E2E2E2E2E2E2E2E2E2E2E2E2E2E2E2E2E2E2E2E2E2E2F0E2E2E2E2E2E2F0E2E2E2F0E2E2E2E2E2E2E2E2E2E2E2E2E2E2E2F5E2E2F5E2E2E2F5F5F5E2E2E2F5E2E2F5E2E2E2E2E2E2E2E2E2E2E2E2E2E2F0E2E2E2E2E2E2E2E2E2E2E2E2E2E2E2E2E2E2E2E2F0E2E2E2E2E2E2E2E2E2E2E2E2E2E2E2E2
310
E2E2E2E2E2E2E2E2E2E2E2E2E2E2E2E2E2E2E2E2E2E2E2E2E2E2E2E2E2E2E2E2E2E2E2E2E2E2E2E2E2E2E2E2E2E2E2E2E2E2E2E2E2E2E2E2E2E2E2E2E2E2E2E2E2E2E2E2E2E2E2E2E2E2E2E2E2E2E2E2E2E2E2E2F0E2E2E2E2E2E2F0E2E2E2F0E2E2E2E2E2E2E2E2E2E2E2E2E2E2E2F5E2E2F5E2E2E2F5F5F5E2E2E2F5E2E2
310
F5E2E2E2E2E2E2E2E2E2E2E2E2E2E2F0F0E2E2E2E2E2E2E2E2E2E2E2E2E2E2E2E2E2E2F0F0E2E2E2E2E2E2E2E2E2E2E2E2E2E2E2E2E2E2E2E2E2E2E2E2E2E2E2E2E2E2E2E2E2E2E2E2E2E2E2E2E2E2E2E2E2E2E2E2E2E2E2E2E2E2E2E2E2E2E2E2E2E2E2E2E2E2E2E2E2E2E2E2E2E2E2E2E2E2E2E2E2E2E2E2E2E2E2E2E2E2
310
E2E2E2E2E2E2E2E2E2E2F0E2E2E2E2E2E2F0E2E2E2F0E2E2E2E2E2E2E2E2E2E2E2E2E2E2E2F5E2E2F5E2E2E2F5F5F5E2E2E2F5E2E2F5E2E2E2E2E2E2E2E2E2E2E2E2E2E2F0F0F0F0F0F0F0F0F0F0DCDCDCF0F0F0F0F0F0F0F0F0E2E2E2E2E2E2E2E2E2E2E2E2E2E2E2E2E2E2E2E2E2E2E2E2E2E2E2E2E2E2E2E2E2E2E2E2E2
310
E2E2E2E2E2E2E2E2E2E2E2E2E2E2E2E2E2E2E2E2E2E2E2E2E2E2E2E2E2E2E2E2E2E2E2E2E2E2E2E2E2E2E2E2E2E2E2E2E2E2E2E2E2E2E2E2E2E2E2E2E2E2E2F0F0F0DCDCDCF0F0E2E2E2F0E2E2E2E2E2E2E2E2E2E2E2E2E2E2E2F5E2E2F5E2E2E2F5F5F5E2E2E2F5E2E2F5E2E2E2E2E2E2E2E2E2E2E2E2E2E2F0E2E2E2E2E2
310
E2E2E2DCDCDCDCE2E2E2E2E2E2E2E2F0E2E2E2E2E2E2E2E2E2E2E2E2E2E2E2E2E2E2E2E2E2E2E2E2E2E2E2E2E2E2E2E2E2E2E2E2E2E2E2E2E2E2E2E2E2E2E2E2E2E2E2E2E2E2E2E2E2E2E2E2E2E2E2E2E2E2E2E2E2E2E2E2E2E2E2E2E2E2E2E2E2E2E2E2E2E2E2E2E2E2E2E2E2E2E2E2E2E2E2E2F0E2E2DCDCDCE2F0E2E2E2
310
F0E2E2E2E2E2E2E2E2E2E2E2E2E2E2E2F5E2E2F5E2E2E2F5F5F5E2E2E2F5E2E2F5E2E2E2E2E2E2E2E2E2E2E2E2E2E2E2E2E2E2E2E2E2E2E2E2E2E2E2E2E2E2E2E2E2E2E2E2E2E2E2E2E2E2E2E2E2E2E2E2E2E2E2E2E2E2E2E2E2E2E2E2E2E2E2E2E2E2E2E2E2E2E2E2E2E2E2E2E2E2E2E2E2E2E2E2E2E2E2E2E2E2E2E2E2E2
310
E2E2E2E2E2E2E2E2E2E2E2E2E2E2E2E2E2E2E2E2E2E2E2E2E2E2E2E2E2E2E2E2E2E2E2E2E2E2E2E2E2E2F0E2F0DCDCE2E2E2E2F0E2F0E2E2E2E2E2E2E2E2E2E2E2E2E2E2E2F5E2E2F5E2E2E2F5F5F5E2E2E2F5E2E2F5E2E2E2E2E2E2E2E2E2E2E2E2E2E2E2E2E2E2E2E2E2E2E2E2E2E2E2E2E2E2E2E2E2E2E2E2E2E2E2E2E2
310
E2E2E2E2E2E2E2E2E2E2E2E2E2E2E2E2E2E2E2E2E2E2E2E2E2E2E2E2E2E2E2E2E2E2E2E2E2E2E2E2E2E2E2E2E2E2E2E2E2E2E2E2E2E2E2E2E2E2E2E2E2E2E2E2E2E2E2E2E2E2E2E2E2E2E2E2E2E2E2E2E2E2E2E2E2E2E2E2E2E2E2E2E2E2E2F0F0F0DCDCDCDCDCF0F0F0F0E2E2E2E2E2E2E2E2E2E2E2E2E2E2E2F5E2E2F5E2
310
E2E2F5F5F5E2E2E2E2E2E2F5E2E2E2E2E2E2E2E2E2E2E2E2E2E2E2E2E2E2E2E2E2E2E2E2E2E2E2E2E2E2E2E2E2E2E2E2E2E2E2E2E2E2E2E2E2E2E2E2E2E2E2E2E2E2E2E2E2E2E2E2E2E2E2E2E2E2E2E2E2E2E2E2E2E2E2E2E2E2E2E2E2E2E2E2E2E2E2E2E2E2E2E2E2E2E2E2E2E2E2E2E2E2E2E2E2E2E2E2E2E2E2E2E2E2E2
310
E2E2E2E2E2E2E2E2E2E2E2E2E2E2E2E2E2E2E2E2E2F0E2DCE2DCDCDCDCE2E2E2F0E2E2E2E2E2E2E2E2E2E2E2E2E2E2E2F5E2E2E2E2E2E2F5F5F5E2E2E2E2E2E2F5E2E2E2E2E2E2E2E2E2E2E2E2E2E2E2E2E2E2E2E2E2E2E2E2E2E2E2E2E2E2E2E2E2E2E2E2E2E2E2E2E2E2E2E2E2E2E2E2E2E2E2E2E2E2E2E2E2E2E2E2E2E2
310
E2E2E2E2E2E2E2E2E2E2E2E2E2E2E2E2E2E2E2E2E2E2E2E2E2E2E2E2E2E2E2E2E2E2E2E2E2E2E2E2E2E2E2E2E2E2E2E2E2E2E2E2E2E2E2E2E2E2E2E2E2E2E2E2E2E2E2E2E2E2E2E2E2E2E2E2DCDCDCDCDCDCE2E2E2E2E2E2E2E2E2E2E2E2E2E2E2E2E2E2E2F5E2E2E2E2E2E2F5F5F5E2E2E2E2E2E2F5E2E2E2E2E2E2E2E2E2
310
E2E2E2E2E2E2E2E2E2E2E2E2E2E2E2E2E2E2E2E2E2E2E2E2E2E2E2E2E2E2E2E2E2E2E2E2E2E2E2E2E2E2E2E2E2E2E2E2E2E2E2E2E2E2E2E2E2E2E2E2E2E2E2E2E2E2E2E2E2E2E2E2E2E2E2E2E2E2E2E2E2E2E2E2E2E2E2E2E2E2E2E2E2E2E2E2E2E2E2E2E2E2E2E2E2E2E2E2E2E2E2E2E2E2E2E2E2E2E2E2E2E2E2E2E2E2E2
310
E2E2E2E2E2E2E2E2E2E2E2E2E2E2E2E2E2E2E2E2E2E2E2E2E2E2E2F5E2E2E2E2E2E2F5F5F5E2E2E2E2E2E2F5E2E2E2E2E2E2E2E2E2E2E2E2E2E2E2E2E2E2E2E2E2E2E2E2E2E2E2E2E2E2E2E2E2E2E2E2E2E2E2E2E2E2E2E2E2E2E2E2E2E2E2E2E2E2E2E2E2E2E2E2E2E2E2E2E2E2E2E2E2E2E2E2E2E2E2E2E2E2E2E2E2E2E2
310
E2E2E2E2E2E2E2E2E2E2E2E2E2E2E2E2E2E2E2E2E2E2E2E2E2E2E2E2E2E2E2E2E2E2E2E2E2E2E2E2E2E2E2E2E2E2E2E2E2E2E2E2E2E2E2E2E2E2E2E2E2E2E2E2E2E2E2E2E2E2E2E2E2E2E2E2E2E2E2E2F5E2E2E2E2E2E2F5F5F5E2E2E2E2E2E2F5E2E2E2E2E2E2E2E2E2E2E2E2E2E2E2E2E2E2E2E2E2E2E2E2E2E2E2E2E2E2
310
E2E2E2E2E2E2E2E2E2E2E2E2E2E2E2E2E2E2E2E2E2E2E2E2E2E2E2E2E2E2E2E2E2E2E2E2E2E2E2E2E2E2E2E2E2E2E2E2E2E2E2E2E2E2E2E2E2E2E2E2E2E2E2E2E2E2E2E2E2E2E2E2E2E2E2E2E2E2E2E2E2E2E2E2E2E2E2E2E2E2E2E2E2E2E2E2E2E2E2E2E2E2E2E2E2E2E2E2E2E2E2E2E2E2E2E2E2E2E2E2E2E2E2E2E2E2E2
310
E2E2E2E2E2E2F5E2E2E2E2E2E2F5F5F5E2E2E2E2E2E2F5E2E2E2E2E2E2E2E2E2E2E2E2E2E2E2E2E2E2E2E2E2E2E2E2E2E2E2E2E2E2E2E2E2E2E2E2E2E2E2E2E2E2E2E2E2E2E2E2E2E2E2E2E2E2E2E2E2E2E2E2E2E2E2E2E2E2E2E2E2E2E2E2E2E2E2E2E2E2E2E2E2E2E2E2E2E2E2E2E2E2E2E2E2E2E2E2E2E2E2E2E2E2E2E2
310
E2E2E2E2E2E2E2E2E2E2E2E2E2E2E2E2E2E2E2E2E2E2E2E2E2E2E2E2E2E2E2E2E2E2E2E2E2E2E2E2E2E2E2E2E2E2E2E2E2E2E2E2E2E2E2E2E2E2E2F5E2E2E2E2E2E2F5F5F5E2E2E2E2E2E2F5E2E2E2E2E2E2E2E2E2E2E2E2E2E2E2E2E2E2E2E2E2E2E2E2E2E2E2E2E2E2E2E2E2E2E2E2E2E2E2E2E2E2E2E2E2E2E2E2E2E2E2
310
E2E2E2E2E2E2E2E2E2E2E2E2E2E2E2E2E2E2E2E2E2E2E2E2E2E2E2E2E2E2E2E2E2E2E2E2E2E2E2E2E2E2E2E2E2E2E2E2E2E2E2E2E2E2E2E2E2E2E2E2E2E2E2E2E2E2E2E2E2E2E2E2E2E2E2E2E2E2E2E2E2E2E2E2E2E2E2E2E2E2E2E2E2E2E2E2E2E2E2E2E2E2E2E2E2E2E2E2E2E2E2E2F5E2E2E2E2E2E2F5F5F5E2E2E2E2E2
310
E2F5E2E2E2E2E2E2E2E2E2E2E2E2E2E2E2E2E2E2E2E2E2E2E2E2E2E2E2E2E2E2E2E2E2E2E2E2E2E2E2E2E2E2E2E2E2E2E2E2E2E2E2E2E2E2E2E2E2E2E2E2E2E2E2E2E2E2E2E2E2E2E2E2E2E2E2E2E2E2E2E2E2E2E2E2E2E2E2E2E2E2E2E2E2E2E2E2E2E2E2E2E2E2E2E2E2E2E2E2E2E2E2E2E2E2E2E2E2E2E2E2E2E2E2E2E2
310
E2E2E2E2E2E2E2E2E2E2E2E2E2E2E2E2E2E2E2E2E2E2E2E2E2E2E2E2E2E2E2E2E2E2E2E2E2E2F5E2E2E2E2E2E2F5F5F5E2E2E2E2E2E2F5E2E2E2E2E2E2E2E2E2E2E2E2E2E2E2E2E2E2E2E2E2E2E2E2E2E2E2E2E2E2E2E2E2E2E2E2E2E2E2E2E2E2E2E2E2E2E2E2E2E2E2E2E2E2E2E2E2E2E2E2E2E2E2E2E2E2E2E2E2E2E2E2
310
E2E2E2E2E2E2E2E2E2E2E2E2E2E2E2E2E2E2E2E2E2E2E2E2E2E2E2E2E2E2E2E2E2E2E2E2E2E2E2E2E2E2E2E2E2E2E2E2E2E2E2E2E2E2E2E2E2E2E2E2E2E2E2E2E2E2E2E2E2E2E2E2E2E2E2E2E2E2E2E2E2E2E2E2E2E2E2E2E2E2E2F5E2E2E2E2E2E2F5F5F5E2E2E2F5E2E2F5E2E2E2E2E2E2E2E2E2E2E2E2E2E2E2E2E2E2E2
310
E2E2E2E2E2E2E2E2E2E2E2E2E2E2E2E2E2E2E2E2E2E2E2E2E2E2E2E2E2E2E2E2E2E2E2E2E2E2E2E2E2E2E2E2E2E2E2E2E2E2E2E2E2E2E2E2E2E2E2E2E2E2E2E2E2E2E2E2E2E2E2E2E2E2E2E2E2E2E2E2E2E2E2E2E2E2E2E2E2E2E2E2E2E2E2E2E2E2E2E2E2E2E2E2E2E2E2E2E2E2E2E2E2E2E2E2E2E2E2E2E2E2E2E2E2E2E2
310
E2E2E2E2E2E2E2E2E2E2E2E2E2E2E2E2E2F5E2E2F5E2E2E2F5F5F5E2E2E2F5E2E2F5E2E2E2E2E2E2E2E2E2E2E2E2E2E2E2E2E2E2E2E2E2E2E2E2E2E2E2E2E2E2E2E2E2E2E2E2E2E2E2E2E2E2E2E2E2E2E2E2E2E2E2E2E2E2E2E2E2E2E2E2E2E2E2E2E2E2E2E2E2E2E2E2E2E2E2E2E2E2E2E2E2E2E2E2E2E2E2E2E2E2E2E2E2
310
E2E2E2E2E2E2E2E2E2E2E2E2E2E2E2E2E2E2E2E2E2E2E2E2E2E2E2E2E2E2E2E2E2E2E2E2E2E2E2E2E2E2E2E2E2E2E2E2E2E2E2E2E2E2E2E2E2E2E2E2E2E2E2E2E2E2E2E2E2E2F5E2E2F5E2E2E2F5F5F5E2E2E2F5E2E2F5E2E2E2E2E2E2E2E2E2E2E2E2E2E2E2E2E2E2E2E2E2E2E2E2E2E2E2E2E2E2E2E2E2E2E2E2E2E2E2E2
310
E2E2E2E2E2E2E2E2E2E2E2E2E2E2E2E2E2E2E2E2E2E2E2E2E2E2E2E2E2E2E2E2E2E2E2E2E2E2E2E2E2E2E2E2E2E2E2E2E2E2E2E2E2E2E2E2E2E2E2E2E2E2E2E2E2E2E2E2E2E2E2E2E2E2E2E2E2E2E2E2E2E2E2E2E2E2E2E2E2E2E2E2E2E2E2E2E2E2E2E2E2E2E2E2E2E2E2E2E2E2E2E2E2E2E2E2E2E2E2E2E2E2E2F5E2E2F5
310
E2E2E2F5F5F5E2E2E2F5E2E2F5F5F5F5F5F5F5F5F5F5F5F5F5F5F5F5F5F5F5F5F5F5F5F5F5F5F5F5F5F5F5F5F5F5F5F5F5F5F5F5F5F5F5F5F5F5F5F5F5F5F5F5F5F5F5F5F5F5F5F5F5F5F5F5F5F5F5F5F5F5F5F5F5F5F5F5F5F5F5F5F5F5F5F5F5F5F5F5F5F5F5F5F5F5F5F5F5F5F5F5F5F5F5F5F5F5F5F5F5F5F5F5F5F5F5
310
F5F5F5F5F5F5F5F5F5F5F5F5F5F5F5F5F5F5F5F5F5F5F5F5F5F5F5F5F5F5F5F5F5F5F5F5F5F5F5F5F5F5F5F5F5F5F5F5F5F5E2E2F5E2E2E2F5F5F5E2E2E2F5E2E2E2E2E2E2E2E2E2E2E2E2E2E2E2E2E2E2E2E2E2E2E2E2E2E2E2E2E2E2E2E2E2E2E2E2E2E2E2E2E2E2E2E2E2E2E2E2E2E2E2E2E2E2E2E2E2E2E2E2E2E2E2E2
310
E2E2E2E2E2E2E2E2E2E2E2E2E2E2E2E2E2E2E2E2E2E2E2E2E2E2E2E2E2E2E2E2E2E2E2E2E2E2E2E2E2E2E2E2E2E2E2E2E2E2E2E2E2E2E2E2E2E2E2E2E2E2E2E2E2E2E2E2E2E2E2E2E2E2E2E2E2E2E2E2E2E2E2E2E2E2E2E2E2E2E2E2E2E2E2E2E2E2E2E2E2E2E2E2E2F5E2E2E2F5F5F5E2E2E2F5E2E2E2E2E2E2E2E2E2E2E2
310
E2E2E2E2E2E2E2E2E2E2E2E2E2E2E2E2E2E2E2E2E2E2E2E2E2E2E2E2E2E2E2E2E2E2E2E2E2E2E2E2E2E2E2E2E2E2E2E2E2E2E2E2E2E2E2E2E2E2E2E2E2E2E2E2E2E2E2E2E2E2E2E2E2E2E2E2E2E2E2E2E2E2E2E2E2E2E2E2E2E2E2E2E2E2E2E2E2E2E2E2E2E2E2E2E2E2E2E2E2E2E2E2E2E2E2E2E2E2E2E2E2E2E2E2E2E2E2
310
E2E2E2E2E2E2E2E2E2E2E2E2E2E2E2E2E2E2E2E2E2E2E2E2E2E2E2E2E2E2E2F5E2E2E2F5F5F5E2E2E2F5E2E2E2E2E2E2E2E2E2E2E2E2E2E2E2E2E2E2E2E2E2E2E2E2E2E2E2E2E2E2E2E2E2E2E2E2E2E2E2E2E2E2E2E2E2E2E2E2E2E2E2E2E2E2E2E2E2E2E2E2E2E2E2E2E2E2E2E2E2E2E2E2E2E2E2E2E2E2E2E2E2E2E2E2E2
310
E2E2E2E2E2E2E2E2E2E2E2E2E2E2E2E2E2E2E2E2E2E2E2E2E2E2E2E2E2E2E2E2E2E2E2E2E2E2E2E2E2E2E2E2E2E2E2E2E2E2E2E2E2E2E2E2E2E2E2E2E2E2E2E2E2E2E2E2E2E2E2E2E2E2E2E2E2E2E2E2E2E2E2E2F5E2E2E2F5F5F5E2E2E2F5F5F5F5F5F5F5F5E2E2E2E2E2E2E2E2E2F5F5F5F5F5F5F5F5F5F5F5F5F5F5F5F5
310
E2E2E2E2E2E2E2E2F5F5F5F5F5F5F5F5F5F5F5F5F5F5F5F5E2E2E2E2E2E2E2E2E2F5F5F5F5F5F5F5F5F5F5F5F5F5F5F5E2E2E2E2E2E2E2E2E2F5F5F5F5F5F5F5F5F5F5F5F5F5F5F5E2E2E2E2E2E2E2E2E2F5F5F5F5F5F5F5F5F5F5F5F5F5F5F5F5E2E2E2E2E2E2E2E2F5F5F5F5F5F5F5F5F5F5F5F5F5F5F5F5E2E2E2E2E2E2
310
E2E2E2F5F5F5F5F5F5F5F5E2E2E2F5F5F5E2E2E2E2E2E2E2E2E2E2E2E2E2E2E2E2E2E2E2E2E2E2E2E2E2E2E2E2E2E2E2E2E2E2E2E2E2E2E2E2E2E2E2E2E2E2E2E2E2E2E2E2E2E2E2E2E2E2E2E2E2E2E2E2E2E2E2E2E2E2E2E2E2E2E2E2E2E2E2E2E2E2E2E2E2E2E2E2E2E2E2E2E2E2E2E2E2E2E2E2E2E2E2E2E2E2E2E2E2E2
310
E2E2E2E2E2E2E2E2E2E2E2E2E2E2E2E2E2E2E2E2E2E2E2E2E2E2E2E2E2E2E2E2E2E2E2E2E2E2E2E2E2E2E2E2E2E2E2E2E2E2E2E2E2E2E2E2E2E2E2E2E2E2E2E2E2E2E2F5F5F5E2E2E2E2E2E2E2E2E2E2E2E2E2E2E2E2E2E2E2E2E2E2E2E2E2E2E2E2E2E2E2E2E2E2E2E2E2E2E2E2E2E2E2E2E2E2E2E2E2E2E2E2E2E2E2E2E2
310
E2E2E2E2E2E2E2E2E2E2E2E2E2E2E2E2E2E2E2E2E2E2E2E2E2E2E2E2E2E2E2E2E2E2E2E2E2E2E2E2E2E2E2E2E2E2E2E2E2E2E2E2E2E2E2E2E2E2E2E2E2E2E2E2E2E2E2E2E2E2E2E2E2E2E2E2E2E2E2E2E2E2E2E2E2E2E2E2E2E2E2E2E2E2E2E2E2E2E2E2E2E2E2E2E2E2E2E2E2E2E2E2E2E2E2E2E2E2E2E2F5EFF5F5F5F5F5
310
F5F5F5F5F5F5F5F5F5F5F5F5F5F5F5F5F5F5F5F5F5F5F5F5F5F5F5F5F5F5F5F5F5F5F5F5F5F5F5F5F5F5F5F5F5F5F5F5F5F5F5F5F5F5F5F5F5F5F5F5F5F5F5F5F5F5F5F5F5F5F5F5F5F5F5F5F5F5F5F5F5F5F5F5F5F5F5F5F5F5F5F5F5F5F5F5F5F5F5F5F5F5F5F5F5F5F5F5F5F5F5F5F5F5F5F5F5F5F5F5F5F5F5F5F5F5F5
310
F5F5F5F5F5F5F5F5F5F5F5F5F5F5F5F5F5F5F5F5F5F5F5F5F5F5F5F5F5F5F5F5F5F5F5F5F5F5F5F5F5F5F5F5F5F5F5EF
  0
XRECORD
  5
5D08
102
{ACAD_REACTORS
330
27E3
102
}
330
27E3
100
AcDbXrecord
280
     1
102
MATERIAL
148
0.0
149
0.0
149
0.0
 93
        0
 94
      127
282
     0
 72
     0
 77
     0
171
     0
175
     0
179
     0
273
     0
  0
XRECORD
  5
27E5
102
{ACAD_REACTORS
330
27E3
102
}
330
27E3
100
AcDbXrecord
280
     1
270
     1
271
     1
  0
XRECORD
  5
27E4
102
{ACAD_REACTORS
330
27E3
102
}
330
27E3
100
AcDbXrecord
280
     1
270
     1
271
     1
  0
XRECORD
  5
27E8
102
{ACAD_REACTORS
330
27E3
102
}
330
27E3
100
AcDbXrecord
280
     1
270
     1
271
     1
  0
XRECORD
  5
27E7
102
{ACAD_REACTORS
330
27E3
102
}
330
27E3
100
AcDbXrecord
280
     1
270
     1
271
     1
  0
XRECORD
  5
27E9
102
{ACAD_REACTORS
330
27E3
102
}
330
27E3
100
AcDbXrecord
280
     1
270
     1
271
     1
  0
XRECORD
  5
27E6
102
{ACAD_REACTORS
330
27E3
102
}
330
27E3
100
AcDbXrecord
280
     1
270
     1
271
     1
  0
XRECORD
  5
5D07
102
{ACAD_REACTORS
330
27DB
102
}
330
27DB
100
AcDbXrecord
280
     1
102
MATERIAL
148
0.0
149
0.0
149
0.0
 93
        0
 94
      127
282
     0
 72
     0
 77
     0
171
     0
175
     0
179
     0
273
     0
  0
XRECORD
  5
27DD
102
{ACAD_REACTORS
330
27DB
102
}
330
27DB
100
AcDbXrecord
280
     1
270
     1
271
     1
  0
XRECORD
  5
27DC
102
{ACAD_REACTORS
330
27DB
102
}
330
27DB
100
AcDbXrecord
280
     1
270
     1
271
     1
  0
XRECORD
  5
27E0
102
{ACAD_REACTORS
330
27DB
102
}
330
27DB
100
AcDbXrecord
280
     1
270
     1
271
     1
  0
XRECORD
  5
27DF
102
{ACAD_REACTORS
330
27DB
102
}
330
27DB
100
AcDbXrecord
280
     1
270
     1
271
     1
  0
XRECORD
  5
27E1
102
{ACAD_REACTORS
330
27DB
102
}
330
27DB
100
AcDbXrecord
280
     1
270
     1
271
     1
  0
XRECORD
  5
27DE
102
{ACAD_REACTORS
330
27DB
102
}
330
27DB
100
AcDbXrecord
280
     1
270
     1
271
     1
  0
XRECORD
  5
5D09
102
{ACAD_REACTORS
330
27EB
102
}
330
27EB
100
AcDbXrecord
280
     1
102
MATERIAL
148
0.0
149
0.0
149
0.0
 93
        0
 94
      127
282
     0
 72
     0
 77
     0
171
     0
175
     0
179
     0
273
     0
  0
XRECORD
  5
27ED
102
{ACAD_REACTORS
330
27EB
102
}
330
27EB
100
AcDbXrecord
280
     1
270
     1
271
     1
  0
XRECORD
  5
27EC
102
{ACAD_REACTORS
330
27EB
102
}
330
27EB
100
AcDbXrecord
280
     1
270
     1
271
     1
  0
XRECORD
  5
27F0
102
{ACAD_REACTORS
330
27EB
102
}
330
27EB
100
AcDbXrecord
280
     1
270
     1
271
     1
  0
XRECORD
  5
27EF
102
{ACAD_REACTORS
330
27EB
102
}
330
27EB
100
AcDbXrecord
280
     1
270
     1
271
     1
  0
XRECORD
  5
27F1
102
{ACAD_REACTORS
330
27EB
102
}
330
27EB
100
AcDbXrecord
280
     1
270
     1
271
     1
  0
XRECORD
  5
27EE
102
{ACAD_REACTORS
330
27EB
102
}
330
27EB
100
AcDbXrecord
280
     1
270
     1
271
     1
  0
XRECORD
  5
64D4
102
{ACAD_REACTORS
330
64D3
102
}
330
64D3
100
AcDbXrecord
280
     1
102
SHADEPLOT
 70
     0
102
SHADEPLOTRESLEVEL
 70
     2
102
SHADEPLOTCUSTOMDPI
 70
   300
  0
CELLSTYLEMAP
  5
64CA
102
{ACAD_REACTORS
330
5836
102
}
330
5836
100
AcDbCellStyleMap
 90
        3
300
CELLSTYLE
  1
TABLEFORMAT_BEGIN
 90
        5
170
     1
 91
        0
 92
    32768
 62
   257
 93
        1
300
CONTENTFORMAT
  1
CONTENTFORMAT_BEGIN
 90
        0
 91
        0
 92
        4
 93
        0
300

 40
0.0
140
1.0
 94
        5
 62
     0
340
10
144
6.0
309
CONTENTFORMAT_END
171
     1
301
MARGIN
  1
CELLMARGIN_BEGIN
 40
1.5
 40
1.5
 40
1.5
 40
1.5
 40
0.18
 40
0.18
309
CELLMARGIN_END
 94
        6
 95
        1
302
GRIDFORMAT
  1
GRIDFORMAT_BEGIN
 90
        0
 91
        1
 62
     0
 92
       -2
340
0
 93
        0
 40
0.045
309
GRIDFORMAT_END
 95
        2
302
GRIDFORMAT
  1
GRIDFORMAT_BEGIN
 90
        0
 91
        1
 62
     0
 92
       -2
340
0
 93
        0
 40
0.045
309
GRIDFORMAT_END
 95
        4
302
GRIDFORMAT
  1
GRIDFORMAT_BEGIN
 90
        0
 91
        1
 62
     0
 92
       -2
340
0
 93
        0
 40
0.045
309
GRIDFORMAT_END
 95
        8
302
GRIDFORMAT
  1
GRIDFORMAT_BEGIN
 90
        0
 91
        1
 62
     0
 92
       -2
340
0
 93
        0
 40
0.045
309
GRIDFORMAT_END
 95
       16
302
GRIDFORMAT
  1
GRIDFORMAT_BEGIN
 90
        0
 91
        1
 62
     0
 92
       -2
340
0
 93
        0
 40
0.045
309
GRIDFORMAT_END
 95
       32
302
GRIDFORMAT
  1
GRIDFORMAT_BEGIN
 90
        0
 91
        1
 62
     0
 92
       -2
340
0
 93
        0
 40
0.045
309
GRIDFORMAT_END
309
TABLEFORMAT_END
  1
CELLSTYLE_BEGIN
 90
        1
 91
        1
300
_TITLE
309
CELLSTYLE_END
300
CELLSTYLE
  1
TABLEFORMAT_BEGIN
 90
        5
170
     1
 91
        0
 92
        0
 62
   257
 93
        1
300
CONTENTFORMAT
  1
CONTENTFORMAT_BEGIN
 90
        0
 91
        0
 92
        4
 93
        0
300

 40
0.0
140
1.0
 94
        5
 62
     0
340
10
144
4.5
309
CONTENTFORMAT_END
171
     1
301
MARGIN
  1
CELLMARGIN_BEGIN
 40
1.5
 40
1.5
 40
1.5
 40
1.5
 40
0.18
 40
0.18
309
CELLMARGIN_END
 94
        6
 95
        1
302
GRIDFORMAT
  1
GRIDFORMAT_BEGIN
 90
        0
 91
        1
 62
     0
 92
       -2
340
0
 93
        0
 40
0.045
309
GRIDFORMAT_END
 95
        2
302
GRIDFORMAT
  1
GRIDFORMAT_BEGIN
 90
        0
 91
        1
 62
     0
 92
       -2
340
0
 93
        0
 40
0.045
309
GRIDFORMAT_END
 95
        4
302
GRIDFORMAT
  1
GRIDFORMAT_BEGIN
 90
        0
 91
        1
 62
     0
 92
       -2
340
0
 93
        0
 40
0.045
309
GRIDFORMAT_END
 95
        8
302
GRIDFORMAT
  1
GRIDFORMAT_BEGIN
 90
        0
 91
        1
 62
     0
 92
       -2
340
0
 93
        0
 40
0.045
309
GRIDFORMAT_END
 95
       16
302
GRIDFORMAT
  1
GRIDFORMAT_BEGIN
 90
        0
 91
        1
 62
     0
 92
       -2
340
0
 93
        0
 40
0.045
309
GRIDFORMAT_END
 95
       32
302
GRIDFORMAT
  1
GRIDFORMAT_BEGIN
 90
        0
 91
        1
 62
     0
 92
       -2
340
0
 93
        0
 40
0.045
309
GRIDFORMAT_END
309
TABLEFORMAT_END
  1
CELLSTYLE_BEGIN
 90
        2
 91
        1
300
_HEADER
309
CELLSTYLE_END
300
CELLSTYLE
  1
TABLEFORMAT_BEGIN
 90
        5
170
     1
 91
        0
 92
        0
 62
   257
 93
        1
300
CONTENTFORMAT
  1
CONTENTFORMAT_BEGIN
 90
        0
 91
        0
 92
        4
 93
        0
300

 40
0.0
140
1.0
 94
        2
 62
     0
340
10
144
4.5
309
CONTENTFORMAT_END
171
     1
301
MARGIN
  1
CELLMARGIN_BEGIN
 40
1.5
 40
1.5
 40
1.5
 40
1.5
 40
0.18
 40
0.18
309
CELLMARGIN_END
 94
        6
 95
        1
302
GRIDFORMAT
  1
GRIDFORMAT_BEGIN
 90
        0
 91
        1
 62
     0
 92
       -2
340
0
 93
        0
 40
0.045
309
GRIDFORMAT_END
 95
        2
302
GRIDFORMAT
  1
GRIDFORMAT_BEGIN
 90
        0
 91
        1
 62
     0
 92
       -2
340
0
 93
        0
 40
0.045
309
GRIDFORMAT_END
 95
        4
302
GRIDFORMAT
  1
GRIDFORMAT_BEGIN
 90
        0
 91
        1
 62
     0
 92
       -2
340
0
 93
        0
 40
0.045
309
GRIDFORMAT_END
 95
        8
302
GRIDFORMAT
  1
GRIDFORMAT_BEGIN
 90
        0
 91
        1
 62
     0
 92
       -2
340
0
 93
        0
 40
0.045
309
GRIDFORMAT_END
 95
       16
302
GRIDFORMAT
  1
GRIDFORMAT_BEGIN
 90
        0
 91
        1
 62
     0
 92
       -2
340
0
 93
        0
 40
0.045
309
GRIDFORMAT_END
 95
       32
302
GRIDFORMAT
  1
GRIDFORMAT_BEGIN
 90
        0
 91
        1
 62
     0
 92
       -2
340
0
 93
        0
 40
0.045
309
GRIDFORMAT_END
309
TABLEFORMAT_END
  1
CELLSTYLE_BEGIN
 90
        3
 91
        2
300
_DATA
309
CELLSTYLE_END
  0
XRECORD
  5
64D2
102
{ACAD_REACTORS
330
5836
102
}
330
5836
100
AcDbXrecord
280
     1
102
ACAD_ROUNDTRIP_PRE2007_TABLESTYLE
 90
        4
 91
        0
  1

 92
        4
 93
        0
  2

 94
        4
 95
        0
  3

  0
ENDSEC
  0
EOF
