  0
SECTION
  2
HEADER
  9
$ACADVER
  1
AC1015
  9
$ACADMAINTVER
 70
    20
  9
$DWGCODEPAGE
  3
ANSI_932
  9
$INSBASE
 10
0.0
 20
0.0
 30
0.0
  9
$EXTMIN
 10
-168.5966684297459
 20
217.1765170681332
 30
-179.3974879980674
  9
$EXTMAX
 10
864.9058530294997
 20
676.5362531737173
 30
0.0000000000901252
  9
$LIMMIN
 10
0.0
 20
0.0
  9
$LIMMAX
 10
10000.0
 20
10000.0
  9
$ORTHOMODE
 70
     1
  9
$REGENMODE
 70
     1
  9
$FILLMODE
 70
     1
  9
$QTEXTMODE
 70
     0
  9
$MIRRTEXT
 70
     1
  9
$LTSCALE
 40
1.0
  9
$ATTMODE
 70
     1
  9
$TEXTSIZE
 40
2.5
  9
$TRACEWID
 40
1.0
  9
$TEXTSTYLE
  7
AD-STANDARD
  9
$CLAYER
  8
MEASURE
  9
$CELTYPE
  6
BYLAYER
  9
$CECOLOR
 62
   256
  9
$CELTSCALE
 40
1.0
  9
$DISPSILH
 70
     0
  9
$DIMSCALE
 40
5.0
  9
$DIMASZ
 40
2.5
  9
$DIMEXO
 40
1.0
  9
$DIMDLI
 40
0.38
  9
$DIMRND
 40
0.0
  9
$DIMDLE
 40
0.0
  9
$DIMEXE
 40
2.0
  9
$DIMTP
 40
0.0
  9
$DIMTM
 40
0.0
  9
$DIMTXT
 40
2.799999999999999
  9
$DIMCEN
 40
-2.0
  9
$DIMTSZ
 40
0.0
  9
$DIMTOL
 70
     0
  9
$DIMLIM
 70
     0
  9
$DIMTIH
 70
     0
  9
$DIMTOH
 70
     0
  9
$DIMSE1
 70
     0
  9
$DIMSE2
 70
     0
  9
$DIMTAD
 70
     1
  9
$DIMZIN
 70
     8
  9
$DIMBLK
  1

  9
$DIMASO
 70
     1
  9
$DIMSHO
 70
     1
  9
$DIMPOST
  1

  9
$DIMAPOST
  1

  9
$DIMALT
 70
     0
  9
$DIMALTD
 70
     2
  9
$DIMALTF
 40
25.4
  9
$DIMLFAC
 40
1.0
  9
$DIMTOFL
 70
     1
  9
$DIMTVP
 40
0.0
  9
$DIMTIX
 70
     0
  9
$DIMSOXD
 70
     0
  9
$DIMSAH
 70
     0
  9
$DIMBLK1
  1

  9
$DIMBLK2
  1

  9
$DIMSTYLE
  2
AD-STANDARD
  9
$DIMCLRD
 70
     9
  9
$DIMCLRE
 70
     9
  9
$DIMCLRT
 70
     2
  9
$DIMTFAC
 40
1.0
  9
$DIMGAP
 40
0.5
  9
$DIMJUST
 70
     0
  9
$DIMSD1
 70
     0
  9
$DIMSD2
 70
     0
  9
$DIMTOLJ
 70
     1
  9
$DIMTZIN
 70
     8
  9
$DIMALTZ
 70
     0
  9
$DIMALTTZ
 70
     0
  9
$DIMUPT
 70
     0
  9
$DIMDEC
 70
     3
  9
$DIMTDEC
 70
     8
  9
$DIMALTU
 70
     2
  9
$DIMALTTD
 70
     2
  9
$DIMTXSTY
  7
AD-STANDARD
  9
$DIMAUNIT
 70
     0
  9
$DIMADEC
 70
     0
  9
$DIMALTRND
 40
0.0
  9
$DIMAZIN
 70
     0
  9
$DIMDSEP
 70
    46
  9
$DIMATFIT
 70
     1
  9
$DIMFRAC
 70
     0
  9
$DIMLDRBLK
  1

  9
$DIMLUNIT
 70
     2
  9
$DIMLWD
 70
    -2
  9
$DIMLWE
 70
    -2
  9
$DIMTMOVE
 70
     0
  9
$LUNITS
 70
     2
  9
$LUPREC
 70
     4
  9
$SKETCHINC
 40
1.0
  9
$FILLETRAD
 40
0.0
  9
$AUNITS
 70
     0
  9
$AUPREC
 70
     0
  9
$MENU
  1
.
  9
$ELEVATION
 40
0.0
  9
$PELEVATION
 40
0.0
  9
$THICKNESS
 40
0.0
  9
$LIMCHECK
 70
     0
  9
$CHAMFERA
 40
0.0
  9
$CHAMFERB
 40
0.0
  9
$CHAMFERC
 40
673.4006734006733
  9
$CHAMFERD
 40
0.0
  9
$SKPOLY
 70
     0
  9
$TDCREATE
 40
2451414.480340509
  9
$TDUCREATE
 40
2451414.105340509
  9
$TDUPDATE
 40
2456696.682964375
  9
$TDUUPDATE
 40
2456696.307964375
  9
$TDINDWG
 40
0.0928741782
  9
$TDUSRTIMER
 40
0.0928741782
  9
$USRTIMER
 70
     1
  9
$ANGBASE
 50
0.0
  9
$ANGDIR
 70
     0
  9
$PDMODE
 70
     0
  9
$PDSIZE
 40
0.0
  9
$PLINEWID
 40
0.0
  9
$SPLFRAME
 70
     0
  9
$SPLINETYPE
 70
     6
  9
$SPLINESEGS
 70
     8
  9
$HANDSEED
  5
786A
  9
$SURFTAB1
 70
     6
  9
$SURFTAB2
 70
     6
  9
$SURFTYPE
 70
     6
  9
$SURFU
 70
     6
  9
$SURFV
 70
     6
  9
$UCSBASE
  2

  9
$UCSNAME
  2

  9
$UCSORG
 10
0.0
 20
0.0
 30
0.0
  9
$UCSXDIR
 10
1.0
 20
0.0
 30
0.0
  9
$UCSYDIR
 10
0.0
 20
1.0
 30
0.0
  9
$UCSORTHOREF
  2

  9
$UCSORTHOVIEW
 70
     0
  9
$UCSORGTOP
 10
0.0
 20
0.0
 30
0.0
  9
$UCSORGBOTTOM
 10
0.0
 20
0.0
 30
0.0
  9
$UCSORGLEFT
 10
0.0
 20
0.0
 30
0.0
  9
$UCSORGRIGHT
 10
0.0
 20
0.0
 30
0.0
  9
$UCSORGFRONT
 10
0.0
 20
0.0
 30
0.0
  9
$UCSORGBACK
 10
0.0
 20
0.0
 30
0.0
  9
$PUCSBASE
  2

  9
$PUCSNAME
  2

  9
$PUCSORG
 10
0.0
 20
0.0
 30
0.0
  9
$PUCSXDIR
 10
1.0
 20
0.0
 30
0.0
  9
$PUCSYDIR
 10
0.0
 20
1.0
 30
0.0
  9
$PUCSORTHOREF
  2

  9
$PUCSORTHOVIEW
 70
     0
  9
$PUCSORGTOP
 10
0.0
 20
0.0
 30
0.0
  9
$PUCSORGBOTTOM
 10
0.0
 20
0.0
 30
0.0
  9
$PUCSORGLEFT
 10
0.0
 20
0.0
 30
0.0
  9
$PUCSORGRIGHT
 10
0.0
 20
0.0
 30
0.0
  9
$PUCSORGFRONT
 10
0.0
 20
0.0
 30
0.0
  9
$PUCSORGBACK
 10
0.0
 20
0.0
 30
0.0
  9
$USERI1
 70
     0
  9
$USERI2
 70
     0
  9
$USERI3
 70
     0
  9
$USERI4
 70
     0
  9
$USERI5
 70
     0
  9
$USERR1
 40
0.0
  9
$USERR2
 40
0.0
  9
$USERR3
 40
0.0
  9
$USERR4
 40
0.0
  9
$USERR5
 40
0.0
  9
$WORLDVIEW
 70
     1
  9
$SHADEDGE
 70
     3
  9
$SHADEDIF
 70
    70
  9
$TILEMODE
 70
     0
  9
$MAXACTVP
 70
    16
  9
$PINSBASE
 10
0.0
 20
0.0
 30
0.0
  9
$PLIMCHECK
 70
     0
  9
$PEXTMIN
 10
20.0
 20
17.0
 30
0.0
  9
$PEXTMAX
 10
405.0
 20
281.9999999999999
 30
0.0
  9
$PLIMMIN
 10
2.425847519093224
 20
0.9908818987146332
  9
$PLIMMAX
 10
422.5841727144056
 20
298.022711732699
  9
$UNITMODE
 70
     0
  9
$VISRETAIN
 70
     0
  9
$PLINEGEN
 70
     0
  9
$PSLTSCALE
 70
     0
  9
$TREEDEPTH
 70
  3020
  9
$CMLSTYLE
  2
STANDARD
  9
$CMLJUST
 70
     0
  9
$CMLSCALE
 40
1.0
  9
$PROXYGRAPHICS
 70
     1
  9
$MEASUREMENT
 70
     1
  9
$CELWEIGHT
370
    -1
  9
$ENDCAPS
280
     0
  9
$JOINSTYLE
280
     0
  9
$LWDISPLAY
290
     0
  9
$INSUNITS
 70
     0
  9
$HYPERLINKBASE
  1

  9
$STYLESHEET
  1

  9
$XEDIT
290
     1
  9
$CEPSNTYPE
380
     0
  9
$PSTYLEMODE
290
     1
  9
$FINGERPRINTGUID
  2
{73C7403E-EBBA-492A-83BC-6D624FC5B650}
  9
$VERSIONGUID
  2
{343DECB4-531A-48EC-B57F-8257605D6622}
  9
$EXTNAMES
290
     1
  9
$PSVPSCALE
 40
0.0
  9
$OLESTARTUP
290
     0
  0
ENDSEC
  0
SECTION
  2
CLASSES
  0
CLASS
  1
LWPOLYLINE
  2
AcDbPolyline
  3
ObjectDBX Classes
 90
        0
280
     0
281
     1
  0
CLASS
  1
ACDBDICTIONARYWDFLT
  2
AcDbDictionaryWithDefault
  3
ObjectDBX Classes
 90
        0
280
     0
281
     0
  0
CLASS
  1
MATERIAL
  2
AcDbMaterial
  3
ObjectDBX Classes
 90
        0
280
     0
281
     0
  0
CLASS
  1
VISUALSTYLE
  2
AcDbVisualStyle
  3
ObjectDBX Classes
 90
     4095
280
     0
281
     0
  0
CLASS
  1
TABLESTYLE
  2
AcDbTableStyle
  3
ObjectDBX Classes
 90
     2047
280
     0
281
     0
  0
CLASS
  1
SCALE
  2
AcDbScale
  3
ObjectDBX Classes
 90
     1153
280
     0
281
     0
  0
CLASS
  1
MLEADERSTYLE
  2
AcDbMLeaderStyle
  3
ACDB_MLEADERSTYLE_CLASS
 90
     4095
280
     0
281
     0
  0
CLASS
  1
CELLSTYLEMAP
  2
AcDbCellStyleMap
  3
ObjectDBX Classes
 90
     1152
280
     0
281
     0
  0
CLASS
  1
DICTIONARYVAR
  2
AcDbDictionaryVar
  3
ObjectDBX Classes
 90
        0
280
     0
281
     0
  0
CLASS
  1
SORTENTSTABLE
  2
AcDbSortentsTable
  3
ObjectDBX Classes
 90
        0
280
     0
281
     0
  0
CLASS
  1
ACDBPLACEHOLDER
  2
AcDbPlaceHolder
  3
ObjectDBX Classes
 90
        0
280
     0
281
     0
  0
CLASS
  1
LAYOUT
  2
AcDbLayout
  3
ObjectDBX Classes
 90
        0
280
     0
281
     0
  0
ENDSEC
  0
SECTION
  2
TABLES
  0
TABLE
  2
VPORT
  5
8
102
{ACAD_XDICTIONARY
360
7453
102
}
330
0
100
AcDbSymbolTable
 70
     1
  0
VPORT
  5
784D
330
8
100
AcDbSymbolTableRecord
100
AcDbViewportTableRecord
  2
*Active
 70
     0
 10
0.0
 20
0.0
 11
1.0
 21
1.0
 12
348.1653006763118
 22
446.7834860461935
 13
0.0
 23
0.0
 14
1.0
 24
1.0
 15
0.0
 25
0.0
 16
0.0
 26
0.0
 36
1.0
 17
0.0
 27
0.0
 37
0.0
 40
486.6082852901936
 41
2.133243606998654
 42
50.0
 43
0.0
 44
0.0
 50
0.0
 51
0.0
 71
     0
 72
   100
 73
     1
 74
     0
 75
     0
 76
     0
 77
     0
 78
     1
281
     0
 65
     1
110
0.0
120
0.0
130
0.0
111
1.0
121
0.0
131
0.0
112
0.0
122
1.0
132
0.0
 79
     0
146
0.0
  0
ENDTAB
  0
TABLE
  2
LTYPE
  5
5
330
0
100
AcDbSymbolTable
 70
     2
  0
LTYPE
  5
14
330
5
100
AcDbSymbolTableRecord
100
AcDbLinetypeTableRecord
  2
BYBLOCK
 70
     0
  3

 72
    65
 73
     0
 40
0.0
  0
LTYPE
  5
15
330
5
100
AcDbSymbolTableRecord
100
AcDbLinetypeTableRecord
  2
BYLAYER
 70
     0
  3

 72
    65
 73
     0
 40
0.0
  0
LTYPE
  5
16
330
5
100
AcDbSymbolTableRecord
100
AcDbLinetypeTableRecord
  2
CONTINUOUS
 70
     0
  3
Solid line
 72
    65
 73
     0
 40
0.0
  0
LTYPE
  5
6E
330
5
100
AcDbSymbolTableRecord
100
AcDbLinetypeTableRecord
  2
CENTER
 70
     0
  3
____ _ ____ _ ____ _ ____ _ ____ _ ____ _ ____ 
 72
    65
 73
     4
 40
2.0
 49
1.25
 74
     0
 49
-0.25
 74
     0
 49
0.25
 74
     0
 49
-0.25
 74
     0
  0
ENDTAB
  0
TABLE
  2
LAYER
  5
2
102
{ACAD_XDICTIONARY
360
116B
102
}
330
0
100
AcDbSymbolTable
 70
     5
  0
LAYER
  5
F
102
{ACAD_XDICTIONARY
360
70B1
102
}
330
2
100
AcDbSymbolTableRecord
100
AcDbLayerTableRecord
  2
0
 70
     0
 62
     7
  6
CONTINUOUS
370
    -3
390
1108
  0
LAYER
  5
71
102
{ACAD_XDICTIONARY
360
70B5
102
}
330
2
100
AcDbSymbolTableRecord
100
AcDbLayerTableRecord
  2
MEASURE
 70
     0
 62
     9
  6
CONTINUOUS
370
    -3
390
1108
  0
LAYER
  5
72
102
{ACAD_XDICTIONARY
360
7591
102
}
330
2
100
AcDbSymbolTableRecord
100
AcDbLayerTableRecord
  2
DEFPOINTS
 70
     0
 62
     7
  6
CONTINUOUS
290
     0
370
    -3
390
1108
  0
LAYER
  5
73
102
{ACAD_XDICTIONARY
360
70B7
102
}
330
2
100
AcDbSymbolTableRecord
100
AcDbLayerTableRecord
  2
NEJI
 70
     0
 62
     7
  6
CONTINUOUS
370
    -3
390
1108
  0
LAYER
  5
74
102
{ACAD_XDICTIONARY
360
70B9
102
}
330
2
100
AcDbSymbolTableRecord
100
AcDbLayerTableRecord
  2
CENTER
 70
     0
 62
     9
  6
CENTER
370
    -3
390
1108
  0
ENDTAB
  0
TABLE
  2
STYLE
  5
3
330
0
100
AcDbSymbolTable
 70
     2
  0
STYLE
  5
10
330
3
100
AcDbSymbolTableRecord
100
AcDbTextStyleTableRecord
  2
STANDARD
 70
     0
 40
0.0
 41
0.8
 50
0.0
 71
     0
 42
84.17508417508416
  3
TXT
  4
bigfont.shx
  0
STYLE
  5
63
330
3
100
AcDbSymbolTableRecord
100
AcDbTextStyleTableRecord
  2
AD-STANDARD
 70
     0
 40
0.0
 41
0.8
 50
0.0
 71
     0
 42
2.5
  3
C:\Program Files\AutoCAD LT\romans.shx
  4
bigfont.shx
  0
ENDTAB
  0
TABLE
  2
VIEW
  5
6
330
0
100
AcDbSymbolTable
 70
     0
  0
ENDTAB
  0
TABLE
  2
UCS
  5
7
330
0
100
AcDbSymbolTable
 70
     0
  0
ENDTAB
  0
TABLE
  2
APPID
  5
9
330
0
100
AcDbSymbolTable
 70
    10
  0
APPID
  5
11
330
9
100
AcDbSymbolTableRecord
100
AcDbRegAppTableRecord
  2
ACAD
 70
     0
  0
APPID
  5
22A
330
9
100
AcDbSymbolTableRecord
100
AcDbRegAppTableRecord
  2
CONTENTTABDATA
 70
     0
  0
APPID
  5
22B
330
9
100
AcDbSymbolTableRecord
100
AcDbRegAppTableRecord
  2
CONTENTCURRENTTAB
 70
     0
  0
APPID
  5
232
330
9
100
AcDbSymbolTableRecord
100
AcDbRegAppTableRecord
  2
CONTENTBLOCKDESCRIPTION
 70
     0
  0
APPID
  5
233
330
9
100
AcDbSymbolTableRecord
100
AcDbRegAppTableRecord
  2
CONTENTBLOCKICON
 70
     0
  0
APPID
  5
115A
330
9
100
AcDbSymbolTableRecord
100
AcDbRegAppTableRecord
  2
ACAD_MLEADERVER
 70
     0
  0
APPID
  5
1166
330
9
100
AcDbSymbolTableRecord
100
AcDbRegAppTableRecord
  2
ACAD_PSEXT
 70
     0
  0
APPID
  5
14EA
330
9
100
AcDbSymbolTableRecord
100
AcDbRegAppTableRecord
  2
ACAD_EXEMPT_FROM_CAD_STANDARDS
 70
     0
  0
APPID
  5
170B
330
9
100
AcDbSymbolTableRecord
100
AcDbRegAppTableRecord
  2
ACAD_NAV_VCDISPLAY
 70
     0
  0
APPID
  5
3C0D
330
9
100
AcDbSymbolTableRecord
100
AcDbRegAppTableRecord
  2
AcadAnnotative
 70
     0
  0
ENDTAB
  0
TABLE
  2
DIMSTYLE
  5
A
330
0
100
AcDbSymbolTable
 70
     2
100
AcDbDimStyleTable
 71
     1
340
68
  0
DIMSTYLE
105
1D
330
A
100
AcDbSymbolTableRecord
100
AcDbDimStyleTableRecord
  2
STANDARD
 70
     0
340
10
  0
DIMSTYLE
105
68
102
{ACAD_REACTORS
330
8EF
330
8F0
330
8F9
330
901
330
EB5
330
EF9
330
F2D
330
F47
330
FEE
330
F20
102
}
330
A
100
AcDbSymbolTableRecord
100
AcDbDimStyleTableRecord
  2
AD-STANDARD
 70
     0
 41
2.5
 42
1.0
 44
2.0
 73
     0
 74
     0
 77
     1
 78
     8
140
3.5
141
-2.0
147
0.5
172
     1
176
     9
177
     9
178
     2
284
     8
340
63
  0
ENDTAB
  0
TABLE
  2
BLOCK_RECORD
  5
1
330
0
100
AcDbSymbolTable
 70
    12
  0
BLOCK_RECORD
  5
1A
102
{ACAD_XDICTIONARY
360
71E9
102
}
330
1
100
AcDbSymbolTableRecord
100
AcDbBlockTableRecord
  2
*MODEL_SPACE
340
115D
  0
BLOCK_RECORD
  5
17
330
1
100
AcDbSymbolTableRecord
100
AcDbBlockTableRecord
  2
*PAPER_SPACE
340
115E
  0
BLOCK_RECORD
  5
DD7
330
1
100
AcDbSymbolTableRecord
100
AcDbBlockTableRecord
  2
*D0
340
0
  0
BLOCK_RECORD
  5
DE3
330
1
100
AcDbSymbolTableRecord
100
AcDbBlockTableRecord
  2
*D1
340
0
  0
BLOCK_RECORD
  5
DEF
330
1
100
AcDbSymbolTableRecord
100
AcDbBlockTableRecord
  2
*D2
340
0
  0
BLOCK_RECORD
  5
DFB
330
1
100
AcDbSymbolTableRecord
100
AcDbBlockTableRecord
  2
*D3
340
0
  0
BLOCK_RECORD
  5
EA9
330
1
100
AcDbSymbolTableRecord
100
AcDbBlockTableRecord
  2
*D4
340
0
  0
BLOCK_RECORD
  5
EED
330
1
100
AcDbSymbolTableRecord
100
AcDbBlockTableRecord
  2
*D5
340
0
  0
BLOCK_RECORD
  5
F14
330
1
100
AcDbSymbolTableRecord
100
AcDbBlockTableRecord
  2
*D6
340
0
  0
BLOCK_RECORD
  5
F21
330
1
100
AcDbSymbolTableRecord
100
AcDbBlockTableRecord
  2
*D7
340
0
  0
BLOCK_RECORD
  5
F3B
330
1
100
AcDbSymbolTableRecord
100
AcDbBlockTableRecord
  2
*D8
340
0
  0
BLOCK_RECORD
  5
FE2
330
1
100
AcDbSymbolTableRecord
100
AcDbBlockTableRecord
  2
*D9
340
0
  0
BLOCK_RECORD
  5
3C0E
330
1
100
AcDbSymbolTableRecord
100
AcDbBlockTableRecord
  2
NUT08_S1
340
0
102
{BLKREFS
331
726F
331
7270
102
}
  0
BLOCK_RECORD
  5
71B5
330
1
100
AcDbSymbolTableRecord
100
AcDbBlockTableRecord
  2
NUT08_S2
340
0
102
{BLKREFS
331
726B
331
726C
102
}
  0
ENDTAB
  0
ENDSEC
  0
SECTION
  2
BLOCKS
  0
BLOCK
  5
1B
330
1A
100
AcDbEntity
  8
0
100
AcDbBlockBegin
  2
*MODEL_SPACE
 70
     0
 10
0.0
 20
0.0
 30
0.0
  3
*MODEL_SPACE
  1

  0
ENDBLK
  5
1C
330
1A
100
AcDbEntity
  8
0
100
AcDbBlockEnd
  0
BLOCK
  5
18
330
17
100
AcDbEntity
 67
     1
  8
0
100
AcDbBlockBegin
  2
*PAPER_SPACE
 70
     0
 10
0.0
 20
0.0
 30
0.0
  3
*PAPER_SPACE
  1

  0
ENDBLK
  5
19
330
17
100
AcDbEntity
 67
     1
  8
0
100
AcDbBlockEnd
  0
BLOCK
  5
1098
330
DD7
100
AcDbEntity
  8
0
100
AcDbBlockBegin
  2
*D0
 70
     1
 10
0.0
 20
0.0
 30
0.0
  3
*D0
  1

  0
LINE
  5
770B
330
DD7
100
AcDbEntity
  8
MEASURE
 62
     9
370
    -2
100
AcDbLine
 10
800.9058530294996
 20
654.5955622269716
 30
0.0
 11
800.9058530294996
 21
217.1765170681332
 31
0.0
  0
LINE
  5
770C
330
DD7
100
AcDbEntity
  8
MEASURE
 62
     9
370
    -2
100
AcDbLine
 10
323.3452802065867
 20
348.1764420861209
 30
0.0
 11
323.3452802065867
 21
217.1765170681332
 31
0.0
  0
LINE
  5
770D
330
DD7
100
AcDbEntity
  8
MEASURE
 62
     9
370
    -2
100
AcDbLine
 10
790.9058530294997
 20
225.1765170681332
 30
0.0
 11
333.3452802065867
 21
225.1765170681332
 31
0.0
  0
SOLID
  5
770E
330
DD7
100
AcDbEntity
  8
MEASURE
 62
     9
100
AcDbTrace
 10
790.9058530294997
 20
226.8431837347999
 30
0.0
 11
790.9058530294997
 21
223.5098504014665
 31
0.0
 12
800.9058530294996
 22
225.1765170681332
 32
0.0
 13
800.9058530294996
 23
225.1765170681332
 33
0.0
  0
SOLID
  5
770F
330
DD7
100
AcDbEntity
  8
MEASURE
 62
     9
100
AcDbTrace
 10
333.3452802065867
 20
226.8431837347999
 30
0.0
 11
333.3452802065867
 21
223.5098504014665
 31
0.0
 12
323.3452802065867
 22
225.1765170681332
 32
0.0
 13
323.3452802065867
 23
225.1765170681332
 33
0.0
  0
MTEXT
  5
7710
330
DD7
100
AcDbEntity
  8
MEASURE
 62
     2
100
AcDbMText
 10
562.1255666180432
 20
234.1765170681332
 30
0.0
 40
14.0
 41
0.0
 71
     5
 72
     1
  1
\A1;（474）
  7
AD-STANDARD
 73
     1
 44
1.0
1001
ACAD
1000
MTEXTBEGIN
1070
    73
1070
     1
1070
    44
1040
1.0
1070
    74
1070
     0
1000
MTEXTEND
  0
POINT
  5
7711
330
DD7
100
AcDbEntity
  8
DEFPOINTS
 62
     0
100
AcDbPoint
 10
800.9058530294996
 20
658.5955622269716
 30
0.0
  0
POINT
  5
7712
330
DD7
100
AcDbEntity
  8
DEFPOINTS
 62
     0
100
AcDbPoint
 10
323.3452802065867
 20
352.1764420861209
 30
0.0
  0
POINT
  5
7713
330
DD7
100
AcDbEntity
  8
DEFPOINTS
 62
     0
100
AcDbPoint
 10
323.3452802065867
 20
225.1765170681332
 30
0.0
  0
ENDBLK
  5
10A2
330
DD7
100
AcDbEntity
  8
0
100
AcDbBlockEnd
  0
BLOCK
  5
10FA
330
DE3
100
AcDbEntity
  8
0
100
AcDbBlockBegin
  2
*D1
 70
     1
 10
0.0
 20
0.0
 30
0.0
  3
*D1
  1

  0
LINE
  5
7799
330
DE3
100
AcDbEntity
  8
MEASURE
 62
     9
370
    -2
100
AcDbLine
 10
542.3452364199238
 20
309.1765170681419
 30
0.0
 11
864.9058530294997
 21
309.1765170681418
 31
0.0
  0
LINE
  5
779A
330
DE3
100
AcDbEntity
  8
MEASURE
 62
     9
370
    -2
100
AcDbLine
 10
793.2784265334857
 20
676.4549223612966
 30
0.0
 11
864.9058530294997
 21
676.4549223612966
 31
0.0
  0
LINE
  5
779B
330
DE3
100
AcDbEntity
  8
MEASURE
 62
     9
370
    -2
100
AcDbLine
 10
856.9058530294997
 20
319.1765170681418
 30
0.0
 11
856.9058530294997
 21
666.4549223612966
 31
0.0
  0
SOLID
  5
779C
330
DE3
100
AcDbEntity
  8
MEASURE
 62
     9
100
AcDbTrace
 10
855.2391863628329
 20
319.1765170681418
 30
0.0
 11
858.5725196961663
 21
319.1765170681418
 31
0.0
 12
856.9058530294997
 22
309.1765170681418
 32
0.0
 13
856.9058530294997
 23
309.1765170681418
 33
0.0
  0
SOLID
  5
779D
330
DE3
100
AcDbEntity
  8
MEASURE
 62
     9
100
AcDbTrace
 10
855.2391863628329
 20
666.4549223612966
 30
0.0
 11
858.5725196961663
 21
666.4549223612966
 31
0.0
 12
856.9058530294997
 22
676.4549223612966
 32
0.0
 13
856.9058530294997
 23
676.4549223612966
 33
0.0
  0
MTEXT
  5
779E
330
DE3
100
AcDbEntity
  8
MEASURE
 62
     2
100
AcDbMText
 10
847.9058530294995
 20
492.8157197147193
 30
0.0
 40
14.0
 41
0.0
 71
     5
 72
     1
  1
\A1;（371）
  7
AD-STANDARD
 11
0.0000000000000001
 21
1.0
 31
0.0
 73
     1
 44
1.0
1001
ACAD
1000
MTEXTBEGIN
1070
    73
1070
     1
1070
    44
1040
1.0
1070
    74
1070
     0
1000
MTEXTEND
  0
POINT
  5
779F
330
DE3
100
AcDbEntity
  8
DEFPOINTS
 62
     0
100
AcDbPoint
 10
538.3452364199238
 20
309.1765170681419
 30
0.0
  0
POINT
  5
77A0
330
DE3
100
AcDbEntity
  8
DEFPOINTS
 62
     0
100
AcDbPoint
 10
789.2784265334857
 20
676.4549223612966
 30
0.0
  0
POINT
  5
77A1
330
DE3
100
AcDbEntity
  8
DEFPOINTS
 62
     0
100
AcDbPoint
 10
856.9058530294997
 20
676.4549223612966
 30
0.0
  0
ENDBLK
  5
1104
330
DE3
100
AcDbEntity
  8
0
100
AcDbBlockEnd
  0
BLOCK
  5
10D6
330
DEF
100
AcDbEntity
  8
0
100
AcDbBlockBegin
  2
*D2
 70
     1
 10
0.0
 20
0.0
 30
0.0
  3
*D2
  1

  0
LINE
  5
772F
330
DEF
100
AcDbEntity
  8
MEASURE
 62
     9
370
    -2
100
AcDbLine
 10
354.3453235926845
 20
309.1765170681419
 30
0.0
 11
231.345280206586
 21
309.1765170681419
 31
0.0
  0
LINE
  5
7730
330
DEF
100
AcDbEntity
  8
MEASURE
 62
     9
370
    -2
100
AcDbLine
 10
330.8452802065846
 20
412.1764420861154
 30
0.0
 11
231.345280206586
 21
412.1764420861154
 31
0.0
  0
LINE
  5
7731
330
DEF
100
AcDbEntity
  8
MEASURE
 62
     9
370
    -2
100
AcDbLine
 10
239.3452802065859
 20
319.1765170681419
 30
0.0
 11
239.345280206586
 21
402.1764420861154
 31
0.0
  0
SOLID
  5
7732
330
DEF
100
AcDbEntity
  8
MEASURE
 62
     9
100
AcDbTrace
 10
237.6786135399193
 20
319.1765170681419
 30
0.0
 11
241.0119468732526
 21
319.1765170681419
 31
0.0
 12
239.3452802065859
 22
309.1765170681419
 32
0.0
 13
239.3452802065859
 23
309.1765170681419
 33
0.0
  0
SOLID
  5
7733
330
DEF
100
AcDbEntity
  8
MEASURE
 62
     9
100
AcDbTrace
 10
237.6786135399193
 20
402.1764420861154
 30
0.0
 11
241.0119468732526
 21
402.1764420861154
 31
0.0
 12
239.345280206586
 22
412.1764420861154
 32
0.0
 13
239.345280206586
 23
412.1764420861154
 33
0.0
  0
MTEXT
  5
7734
330
DEF
100
AcDbEntity
  8
MEASURE
 62
     2
100
AcDbMText
 10
230.3452802065859
 20
360.6764795771287
 30
0.0
 40
14.0
 41
0.0
 71
     5
 72
     1
  1
\A1;104～114
  7
AD-STANDARD
 11
0.0000000000000001
 21
1.0
 31
0.0
 73
     1
 44
1.0
1001
ACAD
1000
MTEXTBEGIN
1070
    73
1070
     1
1070
    44
1040
1.0
1070
    74
1070
     0
1000
MTEXTEND
  0
POINT
  5
7735
330
DEF
100
AcDbEntity
  8
DEFPOINTS
 62
     0
100
AcDbPoint
 10
358.3453235926845
 20
309.1765170681419
 30
0.0
  0
POINT
  5
7736
330
DEF
100
AcDbEntity
  8
DEFPOINTS
 62
     0
100
AcDbPoint
 10
334.8452802065846
 20
412.1764420861154
 30
0.0
  0
POINT
  5
7737
330
DEF
100
AcDbEntity
  8
DEFPOINTS
 62
     0
100
AcDbPoint
 10
239.345280206586
 20
412.1764420861154
 30
0.0
  0
ENDBLK
  5
10E0
330
DEF
100
AcDbEntity
  8
0
100
AcDbBlockEnd
  0
BLOCK
  5
105F
330
DFB
100
AcDbEntity
  8
0
100
AcDbBlockBegin
  2
*D3
 70
     1
 10
0.0
 20
0.0
 30
0.0
  3
*D3
  1

  0
LINE
  5
771D
330
DFB
100
AcDbEntity
  8
MEASURE
 62
     9
370
    -2
100
AcDbLine
 10
319.3452802065867
 20
352.1764420861227
 30
0.0
 11
259.3452802065858
 21
352.1764420861227
 31
0.0
  0
LINE
  5
771E
330
DFB
100
AcDbEntity
  8
MEASURE
 62
     9
370
    -2
100
AcDbLine
 10
330.8452802065858
 20
412.1764420861163
 30
0.0
 11
259.3452802065858
 21
412.1764420861163
 31
0.0
  0
LINE
  5
771F
330
DFB
100
AcDbEntity
  8
MEASURE
 62
     9
370
    -2
100
AcDbLine
 10
267.3452802065857
 20
362.1764420861227
 30
0.0
 11
267.3452802065858
 21
402.1764420861163
 31
0.0
  0
SOLID
  5
7720
330
DFB
100
AcDbEntity
  8
MEASURE
 62
     9
100
AcDbTrace
 10
265.6786135399191
 20
362.1764420861227
 30
0.0
 11
269.0119468732524
 21
362.1764420861227
 31
0.0
 12
267.3452802065857
 22
352.1764420861227
 32
0.0
 13
267.3452802065857
 23
352.1764420861227
 33
0.0
  0
SOLID
  5
7721
330
DFB
100
AcDbEntity
  8
MEASURE
 62
     9
100
AcDbTrace
 10
265.6786135399191
 20
402.1764420861163
 30
0.0
 11
269.0119468732525
 21
402.1764420861163
 31
0.0
 12
267.3452802065858
 22
412.1764420861163
 32
0.0
 13
267.3452802065858
 23
412.1764420861163
 33
0.0
  0
MTEXT
  5
7722
330
DFB
100
AcDbEntity
  8
MEASURE
 62
     2
100
AcDbMText
 10
258.3452802065857
 20
382.1764420861196
 30
0.0
 40
14.0
 41
0.0
 71
     5
 72
     1
  1
\A1;60
  7
AD-STANDARD
 11
0.0000000000000001
 21
1.0
 31
0.0
 73
     1
 44
1.0
1001
ACAD
1000
MTEXTBEGIN
1070
    73
1070
     1
1070
    44
1040
1.0
1070
    74
1070
     0
1000
MTEXTEND
  0
POINT
  5
7723
330
DFB
100
AcDbEntity
  8
DEFPOINTS
 62
     0
100
AcDbPoint
 10
323.3452802065867
 20
352.1764420861227
 30
0.0
  0
POINT
  5
7724
330
DFB
100
AcDbEntity
  8
DEFPOINTS
 62
     0
100
AcDbPoint
 10
334.8452802065858
 20
412.1764420861163
 30
0.0
  0
POINT
  5
7725
330
DFB
100
AcDbEntity
  8
DEFPOINTS
 62
     0
100
AcDbPoint
 10
267.3452802065858
 20
412.1764420861163
 30
0.0
  0
ENDBLK
  5
1069
330
DFB
100
AcDbEntity
  8
0
100
AcDbBlockEnd
  0
BLOCK
  5
1049
330
EA9
100
AcDbEntity
  8
0
100
AcDbBlockBegin
  2
*D4
 70
     1
 10
0.0
 20
0.0
 30
0.0
  3
*D4
  1

  0
LINE
  5
77EC
330
EA9
100
AcDbEntity
  8
MEASURE
 62
     9
370
    -2
100
AcDbLine
 10
358.3453235926846
 20
305.1765170681419
 30
0.0
 11
358.3453235926846
 21
245.1765170681332
 31
0.0
  0
LINE
  5
77ED
330
EA9
100
AcDbEntity
  8
MEASURE
 62
     9
370
    -2
100
AcDbLine
 10
538.3452364199238
 20
305.1765170681419
 30
0.0
 11
538.3452364199238
 21
245.1765170681332
 31
0.0
  0
LINE
  5
77EE
330
EA9
100
AcDbEntity
  8
MEASURE
 62
     9
370
    -2
100
AcDbLine
 10
368.3453235926846
 20
253.1765170681332
 30
0.0
 11
528.3452364199238
 21
253.1765170681332
 31
0.0
  0
SOLID
  5
77EF
330
EA9
100
AcDbEntity
  8
MEASURE
 62
     9
100
AcDbTrace
 10
368.3453235926846
 20
254.8431837347998
 30
0.0
 11
368.3453235926846
 21
251.5098504014666
 31
0.0
 12
358.3453235926846
 22
253.1765170681332
 32
0.0
 13
358.3453235926846
 23
253.1765170681332
 33
0.0
  0
SOLID
  5
77F0
330
EA9
100
AcDbEntity
  8
MEASURE
 62
     9
100
AcDbTrace
 10
528.3452364199238
 20
254.8431837347998
 30
0.0
 11
528.3452364199238
 21
251.5098504014666
 31
0.0
 12
538.3452364199238
 22
253.1765170681332
 32
0.0
 13
538.3452364199238
 23
253.1765170681332
 33
0.0
  0
MTEXT
  5
77F1
330
EA9
100
AcDbEntity
  8
MEASURE
 62
     2
100
AcDbMText
 10
448.3452800063041
 20
262.1765170681332
 30
0.0
 40
14.0
 41
0.0
 71
     5
 72
     1
  1
\A1;180
  7
AD-STANDARD
 73
     1
 44
1.0
1001
ACAD
1000
MTEXTBEGIN
1070
    73
1070
     1
1070
    44
1040
1.0
1070
    74
1070
     0
1000
MTEXTEND
  0
POINT
  5
77F2
330
EA9
100
AcDbEntity
  8
DEFPOINTS
 62
     0
100
AcDbPoint
 10
358.3453235926846
 20
309.1765170681419
 30
0.0
  0
POINT
  5
77F3
330
EA9
100
AcDbEntity
  8
DEFPOINTS
 62
     0
100
AcDbPoint
 10
538.3452364199238
 20
309.1765170681419
 30
0.0
  0
POINT
  5
77F4
330
EA9
100
AcDbEntity
  8
DEFPOINTS
 62
     0
100
AcDbPoint
 10
538.3452364199238
 20
253.1765170681332
 30
0.0
  0
ENDBLK
  5
1053
330
EA9
100
AcDbEntity
  8
0
100
AcDbBlockEnd
  0
BLOCK
  5
FAE
330
EED
100
AcDbEntity
  8
0
100
AcDbBlockBegin
  2
*D5
 70
     1
 10
0.0
 20
0.0
 30
0.0
  3
*D5
  1

  0
LINE
  5
77E3
330
EED
100
AcDbEntity
  8
MEASURE
 62
     9
370
    -2
100
AcDbLine
 10
358.3453235926846
 20
305.1765170681419
 30
0.0
 11
358.3453235926846
 21
245.1765170681332
 31
0.0
  0
LINE
  5
77E4
330
EED
100
AcDbEntity
  8
MEASURE
 62
     9
370
    -2
100
AcDbLine
 10
323.3452802065867
 20
348.1764420861209
 30
0.0
 11
323.3452802065867
 21
245.1765170681332
 31
0.0
  0
LINE
  5
77E5
330
EED
100
AcDbEntity
  8
MEASURE
 62
     9
370
    -2
100
AcDbLine
 10
348.3453235926845
 20
253.1765170681332
 30
0.0
 11
333.3452802065867
 21
253.1765170681332
 31
0.0
  0
SOLID
  5
77E6
330
EED
100
AcDbEntity
  8
MEASURE
 62
     9
100
AcDbTrace
 10
348.3453235926845
 20
254.8431837347998
 30
0.0
 11
348.3453235926845
 21
251.5098504014666
 31
0.0
 12
358.3453235926846
 22
253.1765170681332
 32
0.0
 13
358.3453235926846
 23
253.1765170681332
 33
0.0
  0
SOLID
  5
77E7
330
EED
100
AcDbEntity
  8
MEASURE
 62
     9
100
AcDbTrace
 10
333.3452802065867
 20
254.8431837347998
 30
0.0
 11
333.3452802065867
 21
251.5098504014666
 31
0.0
 12
323.3452802065867
 22
253.1765170681332
 32
0.0
 13
323.3452802065867
 23
253.1765170681332
 33
0.0
  0
MTEXT
  5
77E8
330
EED
100
AcDbEntity
  8
MEASURE
 62
     2
100
AcDbMText
 10
340.8453018996356
 20
262.1765170681332
 30
0.0
 40
14.0
 41
0.0
 71
     5
 72
     1
  1
\A1;35
  7
AD-STANDARD
 73
     1
 44
1.0
1001
ACAD
1000
MTEXTBEGIN
1070
    73
1070
     1
1070
    44
1040
1.0
1070
    74
1070
     0
1000
MTEXTEND
  0
POINT
  5
77E9
330
EED
100
AcDbEntity
  8
DEFPOINTS
 62
     0
100
AcDbPoint
 10
358.3453235926846
 20
309.1765170681419
 30
0.0
  0
POINT
  5
77EA
330
EED
100
AcDbEntity
  8
DEFPOINTS
 62
     0
100
AcDbPoint
 10
323.3452802065867
 20
352.1764420861209
 30
0.0
  0
POINT
  5
77EB
330
EED
100
AcDbEntity
  8
DEFPOINTS
 62
     0
100
AcDbPoint
 10
323.3452802065867
 20
253.1765170681332
 30
0.0
  0
ENDBLK
  5
FB8
330
EED
100
AcDbEntity
  8
0
100
AcDbBlockEnd
  0
BLOCK
  5
1080
330
F14
100
AcDbEntity
  8
0
100
AcDbBlockBegin
  2
*D6
 70
     1
 10
0.0
 20
0.0
 30
0.0
  3
*D6
  1

  0
LINE
  5
77D1
330
F14
100
AcDbEntity
  8
MEASURE
 62
     9
370
    -2
100
AcDbLine
 10
-121.1799640284095
 20
305.1765170681333
 30
0.0
 11
-121.1799640284095
 21
245.1765170681332
 31
0.0
  0
LINE
  5
77D2
330
F14
100
AcDbEntity
  8
MEASURE
 62
     9
370
    -2
100
AcDbLine
 10
58.81994879882977
 20
305.1765170681333
 30
0.0
 11
58.81994879882977
 21
245.1765170681332
 31
0.0
  0
LINE
  5
77D3
330
F14
100
AcDbEntity
  8
MEASURE
 62
     9
370
    -2
100
AcDbLine
 10
-111.1799640284095
 20
253.1765170681332
 30
0.0
 11
48.81994879882977
 21
253.1765170681332
 31
0.0
  0
SOLID
  5
77D4
330
F14
100
AcDbEntity
  8
MEASURE
 62
     9
100
AcDbTrace
 10
-111.1799640284095
 20
254.8431837347998
 30
0.0
 11
-111.1799640284095
 21
251.5098504014666
 31
0.0
 12
-121.1799640284095
 22
253.1765170681332
 32
0.0
 13
-121.1799640284095
 23
253.1765170681332
 33
0.0
  0
SOLID
  5
77D5
330
F14
100
AcDbEntity
  8
MEASURE
 62
     9
100
AcDbTrace
 10
48.81994879882977
 20
254.8431837347998
 30
0.0
 11
48.81994879882977
 21
251.5098504014666
 31
0.0
 12
58.81994879882977
 22
253.1765170681332
 32
0.0
 13
58.81994879882977
 23
253.1765170681332
 33
0.0
  0
MTEXT
  5
77D6
330
F14
100
AcDbEntity
  8
MEASURE
 62
     2
100
AcDbMText
 10
-31.18000761478988
 20
262.1765170681332
 30
0.0
 40
14.0
 41
0.0
 71
     5
 72
     1
  1
\A1;180
  7
AD-STANDARD
 73
     1
 44
1.0
1001
ACAD
1000
MTEXTBEGIN
1070
    73
1070
     1
1070
    44
1040
1.0
1070
    74
1070
     0
1000
MTEXTEND
  0
POINT
  5
77D7
330
F14
100
AcDbEntity
  8
DEFPOINTS
 62
     0
100
AcDbPoint
 10
-121.1799640284095
 20
309.1765170681333
 30
0.0
  0
POINT
  5
77D8
330
F14
100
AcDbEntity
  8
DEFPOINTS
 62
     0
100
AcDbPoint
 10
58.81994879882977
 20
309.1765170681333
 30
0.0
  0
POINT
  5
77D9
330
F14
100
AcDbEntity
  8
DEFPOINTS
 62
     0
100
AcDbPoint
 10
58.81994879882977
 20
253.1765170681332
 30
0.0
  0
ENDBLK
  5
108A
330
F14
100
AcDbEntity
  8
0
100
AcDbBlockEnd
  0
BLOCK
  5
103E
330
F21
100
AcDbEntity
  8
0
100
AcDbBlockBegin
  2
*D7
 70
     1
 10
0.0
 20
0.0
 30
0.0
  3
*D7
  1

  0
LINE
  5
77F5
330
F21
100
AcDbEntity
  8
MEASURE
 62
     9
370
    -2
100
AcDbLine
 10
538.3452364199238
 20
305.1765170681419
 30
0.0
 11
538.3452364199238
 21
245.1765170681332
 31
0.0
  0
LINE
  5
77F6
330
F21
100
AcDbEntity
  8
MEASURE
 62
     9
370
    -2
100
AcDbLine
 10
739.3452364199236
 20
307.6765349251991
 30
0.0
 11
739.3452364199236
 21
245.1765170681332
 31
0.0
  0
LINE
  5
77F7
330
F21
100
AcDbEntity
  8
MEASURE
 62
     9
370
    -2
100
AcDbLine
 10
548.3452364199238
 20
253.1765170681332
 30
0.0
 11
729.3452364199237
 21
253.1765170681332
 31
0.0
  0
SOLID
  5
77F8
330
F21
100
AcDbEntity
  8
MEASURE
 62
     9
100
AcDbTrace
 10
548.3452364199238
 20
254.8431837347998
 30
0.0
 11
548.3452364199238
 21
251.5098504014666
 31
0.0
 12
538.3452364199238
 22
253.1765170681332
 32
0.0
 13
538.3452364199238
 23
253.1765170681332
 33
0.0
  0
SOLID
  5
77F9
330
F21
100
AcDbEntity
  8
MEASURE
 62
     9
100
AcDbTrace
 10
729.3452364199237
 20
254.8431837347998
 30
0.0
 11
729.3452364199237
 21
251.5098504014666
 31
0.0
 12
739.3452364199236
 22
253.1765170681332
 32
0.0
 13
739.3452364199236
 23
253.1765170681332
 33
0.0
  0
MTEXT
  5
77FA
330
F21
100
AcDbEntity
  8
MEASURE
 62
     2
100
AcDbMText
 10
638.8452364199238
 20
262.1765170681332
 30
0.0
 40
14.0
 41
0.0
 71
     5
 72
     1
  1
\A1;201
  7
AD-STANDARD
 73
     1
 44
1.0
1001
ACAD
1000
MTEXTBEGIN
1070
    73
1070
     1
1070
    44
1040
1.0
1070
    74
1070
     0
1000
MTEXTEND
  0
POINT
  5
77FB
330
F21
100
AcDbEntity
  8
DEFPOINTS
 62
     0
100
AcDbPoint
 10
538.3452364199238
 20
309.1765170681419
 30
0.0
  0
POINT
  5
77FC
330
F21
100
AcDbEntity
  8
DEFPOINTS
 62
     0
100
AcDbPoint
 10
739.3452364199236
 20
311.6765349251991
 30
0.0
  0
POINT
  5
77FD
330
F21
100
AcDbEntity
  8
DEFPOINTS
 62
     0
100
AcDbPoint
 10
739.3452364199236
 20
253.1765170681332
 30
0.0
  0
ENDBLK
  5
1048
330
F21
100
AcDbEntity
  8
0
100
AcDbBlockEnd
  0
BLOCK
  5
106A
330
F3B
100
AcDbEntity
  8
0
100
AcDbBlockBegin
  2
*D8
 70
     1
 10
0.0
 20
0.0
 30
0.0
  3
*D8
  1

  0
LINE
  5
774A
330
F3B
100
AcDbEntity
  8
MEASURE
 62
     9
370
    -2
100
AcDbLine
 10
323.3452802065858
 20
404.6764420861139
 30
0.0
 11
323.3452802065858
 21
476.176442086124
 31
0.0
  0
LINE
  5
774B
330
F3B
100
AcDbEntity
  8
MEASURE
 62
     9
370
    -2
100
AcDbLine
 10
573.3452798060215
 20
404.6764420861306
 30
0.0
 11
573.3452798060215
 21
476.176442086124
 31
0.0
  0
LINE
  5
774C
330
F3B
100
AcDbEntity
  8
MEASURE
 62
     9
370
    -2
100
AcDbLine
 10
333.3452802065858
 20
468.176442086124
 30
0.0
 11
563.3452798060216
 21
468.176442086124
 31
0.0
  0
SOLID
  5
774D
330
F3B
100
AcDbEntity
  8
MEASURE
 62
     9
100
AcDbTrace
 10
333.3452802065858
 20
469.8431087527906
 30
0.0
 11
333.3452802065858
 21
466.5097754194573
 31
0.0
 12
323.3452802065858
 22
468.176442086124
 32
0.0
 13
323.3452802065858
 23
468.176442086124
 33
0.0
  0
SOLID
  5
774E
330
F3B
100
AcDbEntity
  8
MEASURE
 62
     9
100
AcDbTrace
 10
563.3452798060216
 20
469.8431087527906
 30
0.0
 11
563.3452798060216
 21
466.5097754194573
 31
0.0
 12
573.3452798060215
 22
468.176442086124
 32
0.0
 13
573.3452798060215
 23
468.176442086124
 33
0.0
  0
MTEXT
  5
774F
330
F3B
100
AcDbEntity
  8
MEASURE
 62
     2
100
AcDbMText
 10
448.3452800063036
 20
477.176442086124
 30
0.0
 40
14.0
 41
0.0
 71
     5
 72
     1
  1
\A1;250
  7
AD-STANDARD
 73
     1
 44
1.0
1001
ACAD
1000
MTEXTBEGIN
1070
    73
1070
     1
1070
    44
1040
1.0
1070
    74
1070
     0
1000
MTEXTEND
  0
POINT
  5
7750
330
F3B
100
AcDbEntity
  8
DEFPOINTS
 62
     0
100
AcDbPoint
 10
323.3452802065858
 20
400.6764420861139
 30
0.0
  0
POINT
  5
7751
330
F3B
100
AcDbEntity
  8
DEFPOINTS
 62
     0
100
AcDbPoint
 10
573.3452798060215
 20
400.6764420861306
 30
0.0
  0
POINT
  5
7752
330
F3B
100
AcDbEntity
  8
DEFPOINTS
 62
     0
100
AcDbPoint
 10
573.3452798060215
 20
468.176442086124
 30
0.0
  0
ENDBLK
  5
1074
330
F3B
100
AcDbEntity
  8
0
100
AcDbBlockEnd
  0
BLOCK
  5
1075
330
FE2
100
AcDbEntity
  8
0
100
AcDbBlockBegin
  2
*D9
 70
     1
 10
0.0
 20
0.0
 30
0.0
  3
*D9
  1

  0
LINE
  5
77BF
330
FE2
100
AcDbEntity
  8
MEASURE
 62
     9
370
    -2
100
AcDbLine
 10
-156.1800074145081
 20
404.6764420861077
 30
0.0
 11
-156.1800074145081
 21
476.176442086124
 31
0.0
  0
LINE
  5
77C0
330
FE2
100
AcDbEntity
  8
MEASURE
 62
     9
370
    -2
100
AcDbLine
 10
93.81999218492774
 20
404.6764420861241
 30
0.0
 11
93.81999218492774
 21
476.176442086124
 31
0.0
  0
LINE
  5
77C1
330
FE2
100
AcDbEntity
  8
MEASURE
 62
     9
370
    -2
100
AcDbLine
 10
-146.1800074145081
 20
468.176442086124
 30
0.0
 11
83.81999218492774
 21
468.176442086124
 31
0.0
  0
SOLID
  5
77C2
330
FE2
100
AcDbEntity
  8
MEASURE
 62
     9
100
AcDbTrace
 10
-146.1800074145081
 20
469.8431087527906
 30
0.0
 11
-146.1800074145081
 21
466.5097754194573
 31
0.0
 12
-156.1800074145081
 22
468.176442086124
 32
0.0
 13
-156.1800074145081
 23
468.176442086124
 33
0.0
  0
SOLID
  5
77C3
330
FE2
100
AcDbEntity
  8
MEASURE
 62
     9
100
AcDbTrace
 10
83.81999218492774
 20
469.8431087527906
 30
0.0
 11
83.81999218492774
 21
466.5097754194573
 31
0.0
 12
93.81999218492774
 22
468.176442086124
 32
0.0
 13
93.81999218492774
 23
468.176442086124
 33
0.0
  0
MTEXT
  5
77C4
330
FE2
100
AcDbEntity
  8
MEASURE
 62
     2
100
AcDbMText
 10
-31.18000761479019
 20
477.176442086124
 30
0.0
 40
14.0
 41
0.0
 71
     5
 72
     1
  1
\A1;250
  7
AD-STANDARD
 73
     1
 44
1.0
1001
ACAD
1000
MTEXTBEGIN
1070
    73
1070
     1
1070
    44
1040
1.0
1070
    74
1070
     0
1000
MTEXTEND
  0
POINT
  5
77C5
330
FE2
100
AcDbEntity
  8
DEFPOINTS
 62
     0
100
AcDbPoint
 10
-156.1800074145081
 20
400.6764420861077
 30
0.0
  0
POINT
  5
77C6
330
FE2
100
AcDbEntity
  8
DEFPOINTS
 62
     0
100
AcDbPoint
 10
93.81999218492774
 20
400.6764420861241
 30
0.0
  0
POINT
  5
77C7
330
FE2
100
AcDbEntity
  8
DEFPOINTS
 62
     0
100
AcDbPoint
 10
93.81999218492774
 20
468.176442086124
 30
0.0
  0
ENDBLK
  5
107F
330
FE2
100
AcDbEntity
  8
0
100
AcDbBlockEnd
  0
BLOCK
  5
3C1B
330
3C0E
100
AcDbEntity
  8
0
100
AcDbBlockBegin
  2
NUT08_S1
 70
     0
 10
0.0
 20
0.0
 30
0.0
  3
NUT08_S1
  1

  0
LINE
  5
71A8
330
3C0E
100
AcDbEntity
  8
NEJI
100
AcDbLine
 10
-6.499999999999999
 20
6.499999999999999
 30
0.0
 11
6.499999999999998
 21
6.5
 31
0.0
  0
ARC
  5
71A9
330
3C0E
100
AcDbEntity
  8
NEJI
100
AcDbCircle
 10
0.0000000000000002
 20
-5.919443416399242
 30
0.0
 40
12.41944341639924
100
AcDbArc
 50
72.41204622600619
 51
107.5879537739937
  0
LINE
  5
71AA
330
3C0E
100
AcDbEntity
  8
NEJI
100
AcDbLine
 10
-7.505553499465135
 20
0.0
 30
0.0
 11
7.505553499465134
 21
0.0
 31
0.0
  0
LINE
  5
71AB
330
3C0E
100
AcDbEntity
  8
CENTER
100
AcDbLine
 10
0.0
 20
-1.22117484578974
 30
0.0
 11
0.0
 21
8.0
 31
0.0
  0
LINE
  5
71AC
330
3C0E
100
AcDbEntity
  8
NEJI
100
AcDbLine
 10
-3.75277674973257
 20
5.919443416399232
 30
0.0
 11
-3.752776749732569
 21
0.0
 31
0.0
  0
LINE
  5
71AD
330
3C0E
100
AcDbEntity
  8
NEJI
100
AcDbLine
 10
-7.505553499465135
 20
5.919443416399231
 30
0.0
 11
-7.505553499465135
 21
0.0
 31
0.0
  0
ARC
  5
71AE
330
3C0E
100
AcDbEntity
  8
NEJI
100
AcDbCircle
 10
-6.5
 20
-0.290278291800357
 30
0.0
 40
6.790278291800357
100
AcDbArc
 50
66.13507458395003
 51
90.0
  0
LINE
  5
71AF
330
3C0E
100
AcDbEntity
  8
NEJI
100
AcDbLine
 10
-6.499999999999999
 20
6.499999999999999
 30
0.0
 11
-7.505553499465135
 21
5.919443416399231
 31
0.0
  0
LINE
  5
71B0
330
3C0E
100
AcDbEntity
  8
NEJI
100
AcDbLine
 10
7.505553499465134
 20
5.919443416399232
 30
0.0
 11
7.505553499465134
 21
0.0
 31
0.0
  0
LINE
  5
71B1
330
3C0E
100
AcDbEntity
  8
NEJI
100
AcDbLine
 10
3.752776749732571
 20
5.919443416399232
 30
0.0
 11
3.75277674973257
 21
0.0
 31
0.0
  0
ARC
  5
71B2
330
3C0E
100
AcDbEntity
  8
NEJI
100
AcDbCircle
 10
6.5
 20
-0.290278291800357
 30
0.0
 40
6.790278291800357
100
AcDbArc
 50
90.0
 51
113.86492541605
  0
LINE
  5
71B3
330
3C0E
100
AcDbEntity
  8
NEJI
100
AcDbLine
 10
6.499999999999998
 20
6.5
 30
0.0
 11
7.505553499465134
 21
5.919443416399232
 31
0.0
  0
ENDBLK
  5
3C1C
330
3C0E
100
AcDbEntity
  8
0
100
AcDbBlockEnd
  0
BLOCK
  5
71BE
330
71B5
100
AcDbEntity
  8
0
100
AcDbBlockBegin
  2
NUT08_S2
 70
     0
 10
0.0
 20
0.0
 30
0.0
  3
NUT08_S2
  1

  0
ARC
  5
71B6
330
71B5
100
AcDbEntity
  8
NEJI
100
AcDbCircle
 10
3.249999999999998
 20
-2.887152135249497
 30
0.0
 40
9.387152135249497
100
AcDbArc
 50
69.74384199958365
 51
110.2561580004164
  0
LINE
  5
71B7
330
71B5
100
AcDbEntity
  8
NEJI
100
AcDbLine
 10
6.5
 20
0.0
 30
0.0
 11
-6.5
 21
0.0
 31
0.0
  0
LINE
  5
71B8
330
71B5
100
AcDbEntity
  8
NEJI
100
AcDbLine
 10
6.5
 20
6.499999999999999
 30
0.0
 11
-6.5
 21
6.499999999999998
 31
0.0
  0
LINE
  5
71B9
330
71B5
100
AcDbEntity
  8
CENTER
100
AcDbLine
 10
0.0
 20
-1.22117484578974
 30
0.0
 11
0.0
 21
7.340244009361525
 31
0.0
  0
LINE
  5
71BA
330
71B5
100
AcDbEntity
  8
NEJI
100
AcDbLine
 10
0.0
 20
5.919443416399232
 30
0.0
 11
0.0
 21
0.0
 31
0.0
  0
LINE
  5
71BB
330
71B5
100
AcDbEntity
  8
NEJI
100
AcDbLine
 10
-6.5
 20
6.499999999999998
 30
0.0
 11
-6.5
 21
0.0
 31
0.0
  0
ARC
  5
71BC
330
71B5
100
AcDbEntity
  8
NEJI
100
AcDbCircle
 10
-3.249999999999999
 20
-2.887152135249497
 30
0.0
 40
9.387152135249497
100
AcDbArc
 50
69.74384199958357
 51
110.2561580004163
  0
LINE
  5
71BD
330
71B5
100
AcDbEntity
  8
NEJI
100
AcDbLine
 10
6.5
 20
6.499999999999999
 30
0.0
 11
6.5
 21
0.0
 31
0.0
  0
ENDBLK
  5
71BF
330
71B5
100
AcDbEntity
  8
0
100
AcDbBlockEnd
  0
ENDSEC
  0
SECTION
  2
ENTITIES
  0
ARC
  5
89F
330
1A
100
AcDbEntity
  8
0
100
AcDbCircle
 10
-61.70395666555211
 20
-253.371746032927
 30
526.2308563500844
 40
30.0
210
0.0000000000000005
220
0.9205048534524403
230
0.3907311284892737
100
AcDbArc
 50
89.99985419520328
 51
172.7437708830956
  0
ARC
  5
8A0
330
1A
100
AcDbEntity
  8
0
100
AcDbCircle
 10
123.8972935250452
 20
-253.3717460329276
 30
526.2308563500838
 40
30.0
210
0.0000000000000003
220
0.9205048534524403
230
0.3907311284892737
100
AcDbArc
 50
7.256229116904334
 51
90.00014580479671
  0
ARC
  5
8A1
330
1A
100
AcDbEntity
  8
0
100
AcDbCircle
 10
78.59666842974633
 20
-383.9780897431842
 30
551.4762196409107
 40
82.0
210
0.0000000000000005
220
0.9205048534524403
230
0.3907311284892737
100
AcDbArc
 50
339.0751675723619
 51
19.6159791354064
  0
ARC
  5
8A2
330
1A
100
AcDbEntity
  8
0
 48
0.25
100
AcDbCircle
 10
78.34666842974633
 20
-383.9780897431842
 30
551.4762196409107
 40
82.0
210
0.0000000000000005
220
0.9205048534524403
230
0.3907311284892737
100
AcDbArc
 50
339.2940840833436
 51
19.39888991009711
  0
ARC
  5
8A3
330
1A
100
AcDbEntity
  8
0
100
AcDbCircle
 10
338.8531165280743
 20
-312.0991552544091
 30
551.4762196409107
 40
180.0
210
0.0000000000000005
220
0.9205048534524403
230
0.3907311284892737
100
AcDbArc
 50
181.0000000000023
 51
195.4393555178335
  0
ARC
  5
8A4
330
1A
100
AcDbEntity
  8
0
100
AcDbCircle
 10
338.8531165280743
 20
-312.0991552544091
 30
551.4762196409107
 40
184.0
210
0.0000000000000005
220
0.9205048534524403
230
0.3907311284892737
100
AcDbArc
 50
181.0000000000023
 51
195.4393555178335
  0
ARC
  5
8A5
330
1A
100
AcDbEntity
  8
0
100
AcDbCircle
 10
-276.6597874711113
 20
-312.0991552544139
 30
551.4762196409107
 40
180.0
210
0.0000000000000005
220
0.9205048534524403
230
0.3907311284892737
100
AcDbArc
 50
344.5606444821677
 51
358.9999999999988
  0
ARC
  5
8A6
330
1A
100
AcDbEntity
  8
0
100
AcDbCircle
 10
-276.6597874711113
 20
-312.0991552544139
 30
551.4762196409107
 40
184.0
210
0.0000000000000005
220
0.9205048534524403
230
0.3907311284892737
100
AcDbArc
 50
344.5606444821677
 51
358.9999999999988
  0
ARC
  5
8A7
330
1A
100
AcDbEntity
  8
0
100
AcDbCircle
 10
-276.6597874711113
 20
-310.1454996119678
 30
546.8736953736486
 40
180.0
210
0.0000000000000005
220
0.9205048534524403
230
0.3907311284892737
100
AcDbArc
 50
344.5606444821677
 51
358.9999999999988
  0
ARC
  5
8A8
330
1A
100
AcDbEntity
  8
0
100
AcDbCircle
 10
338.8531243306001
 20
-309.7547684834794
 30
545.9531905201962
 40
180.0
210
-0.0000000000000059
220
0.9205048534524403
230
0.3907311284892737
100
AcDbArc
 50
181.0000000000012
 51
195.4393555178323
  0
ARC
  5
8A9
330
1A
100
AcDbEntity
  8
0
100
AcDbCircle
 10
338.8531243306001
 20
-310.1454996119687
 30
546.8736953736485
 40
180.0
210
-0.0000000000000059
220
0.9205048534524403
230
0.3907311284892737
100
AcDbArc
 50
181.0000000000012
 51
195.4393555178323
  0
ARC
  5
8AA
330
1A
100
AcDbEntity
  8
0
100
AcDbCircle
 10
338.8531243306001
 20
-312.099155254415
 30
551.4762196409106
 40
180.0
210
-0.0000000000000059
220
0.9205048534524403
230
0.3907311284892737
100
AcDbArc
 50
181.0000000000012
 51
195.4393555178323
  0
LINE
  5
8AB
330
1A
100
AcDbEntity
  8
0
100
AcDbLine
 10
-0.5966684297463872
 20
661.7714059127095
 30
-147.640070553957
 11
-0.5966684297463872
 21
613.1253804157948
 31
-33.03721629912822
210
0.0000000000000005
220
0.9205048534524403
230
0.3907311284892737
  0
LINE
  5
8AC
330
1A
100
AcDbEntity
  8
0
100
AcDbLine
 10
-1.096668429746387
 20
661.7714059127104
 30
-147.6400705539588
 11
-1.096668429746387
 21
612.7346492873055
 31
-32.11671144567573
210
0.0000000000000005
220
0.9205048534524403
230
0.3907311284892737
  0
LINE
  5
8AD
330
1A
100
AcDbEntity
  8
0
100
AcDbLine
 10
-0.596660627217716
 20
612.7346492873055
 30
-32.11671144567505
 11
-0.596660627219535
 21
661.771405912709
 31
-147.6400705539563
210
0.0000000000000005
220
0.9205048534524403
230
0.3907311284892737
  0
ARC
  5
8AE
330
1A
100
AcDbEntity
  8
0
100
AcDbCircle
 10
-276.6597874711113
 20
-307.4103817125428
 30
540.4301613994818
 40
180.0
210
0.0000000000000005
220
0.9205048534524403
230
0.3907311284892737
100
AcDbArc
 50
344.5606444821677
 51
358.9999999999988
  0
ARC
  5
8AF
330
1A
100
AcDbEntity
  8
0
100
AcDbCircle
 10
-276.6597874711113
 20
-309.7547684834785
 30
545.9531905201963
 40
180.0
210
0.0000000000000005
220
0.9205048534524403
230
0.3907311284892737
100
AcDbArc
 50
344.5606444821677
 51
358.9999999999988
  0
ARC
  5
8B0
330
1A
100
AcDbEntity
  8
0
100
AcDbCircle
 10
338.8531243306001
 20
-307.4103817125437
 30
540.4301613994817
 40
180.0
210
-0.0000000000000059
220
0.9205048534524403
230
0.3907311284892737
100
AcDbArc
 50
181.0000000000012
 51
195.4393555178323
  0
LINE
  5
8B1
330
1A
100
AcDbEntity
  8
0
100
AcDbLine
 10
-4.596668429746387
 20
669.3906629182504
 30
-165.5899151962796
 11
-4.596668429746387
 21
646.5328919016276
 31
-111.7403812693119
210
0.0000000000000005
220
0.9205048534524403
230
0.3907311284892737
  0
LINE
  5
8B2
330
1A
100
AcDbEntity
  8
0
100
AcDbLine
 10
-4.846668429746387
 20
669.2929801361286
 30
-165.3597889829175
 11
-4.846668429746387
 21
646.6305746837504
 31
-111.9705074826759
210
0.0000000000000005
220
0.9205048534524403
230
0.3907311284892737
  0
ARC
  5
8B3
330
1A
100
AcDbEntity
  8
0
100
AcDbCircle
 10
-82.95406409815312
 20
-413.9780897431836
 30
551.4762196409107
 40
7.0
210
0.0000000000000005
220
0.9205048534524403
230
0.3907311284892737
100
AcDbArc
 50
204.2650859026864
 51
270.0
  0
ARC
  5
8B4
330
1A
100
AcDbEntity
  8
0
100
AcDbCircle
 10
-2.403331570254067
 20
-418.9780897431838
 30
551.4762196409107
 40
2.0
210
0.0000000000000005
220
0.9205048534524403
230
0.3907311284892737
100
AcDbArc
 50
270.0
 51
0.0
  0
ARC
  5
8B5
330
1A
100
AcDbEntity
  8
0
100
AcDbCircle
 10
-81.78681572336333
 20
-408.9780897431836
 30
551.4762196409107
 40
16.0
210
0.0000000000000005
220
0.9205048534524403
230
0.3907311284892737
100
AcDbArc
 50
200.9248324276372
 51
270.0
  0
ARC
  5
8B6
330
1A
100
AcDbEntity
  8
0
100
AcDbCircle
 10
11.59666842974587
 20
-413.9780897431839
 30
551.4762196409107
 40
7.0
210
0.0000000000000005
220
0.9205048534524403
230
0.3907311284892737
100
AcDbArc
 50
180.0
 51
270.0
  0
ARC
  5
8B7
330
1A
100
AcDbEntity
  8
0
100
AcDbCircle
 10
11.84666842974587
 20
-413.7280897431838
 30
551.4762196409107
 40
7.0
210
0.0000000000000005
220
0.9205048534524403
230
0.3907311284892737
100
AcDbArc
 50
180.0
 51
270.0
  0
ARC
  5
8B8
330
1A
100
AcDbEntity
  8
0
100
AcDbCircle
 10
143.9801525828553
 20
-408.9780897431839
 30
551.4762196409107
 40
16.0
210
0.0000000000000005
220
0.9205048534524403
230
0.3907311284892737
100
AcDbArc
 50
270.0
 51
339.0751675723628
  0
ARC
  5
8B9
330
1A
100
AcDbEntity
  8
0
100
AcDbCircle
 10
143.9801525828553
 20
-408.9780897431839
 30
551.4762196409107
 40
12.0
210
0.0000000000000005
220
0.9205048534524403
230
0.3907311284892737
100
AcDbArc
 50
270.0
 51
339.0751675723638
  0
ARC
  5
8BA
330
1A
100
AcDbEntity
  8
0
 48
0.25
100
AcDbCircle
 10
143.8251954443331
 20
-408.7280897431838
 30
551.4762196409107
 40
12.0
210
0.0000000000000005
220
0.9205048534524403
230
0.3907311284892737
100
AcDbArc
 50
270.0
 51
339.2940840833436
  0
ARC
  5
8BB
330
1A
100
AcDbEntity
  8
0
100
AcDbCircle
 10
-81.78681572336333
 20
-408.9780897431836
 30
551.4762196409107
 40
20.0
210
0.0000000000000005
220
0.9205048534524403
230
0.3907311284892737
100
AcDbArc
 50
200.9248324276372
 51
270.0
  0
ARC
  5
8BC
330
1A
100
AcDbEntity
  8
0
100
AcDbCircle
 10
143.9801525828553
 20
-408.9780897431839
 30
551.4762196409107
 40
20.0
210
0.0000000000000005
220
0.9205048534524403
230
0.3907311284892737
100
AcDbArc
 50
270.0
 51
339.0751675723628
  0
LINE
  5
8BD
330
1A
100
AcDbEntity
  8
0
100
AcDbLine
 10
81.78681572336381
 20
673.6887053316324
 30
-175.7154685842573
 11
-143.9801525828561
 21
673.6887053316329
 31
-175.7154685842574
  0
LINE
  5
8BE
330
1A
100
AcDbEntity
  8
0
100
AcDbLine
 10
-143.9801525828556
 20
675.2516298455902
 30
-179.3974879980674
 11
81.78681572336381
 21
675.2516298455896
 31
-179.3974879980662
210
0.0000000000000005
220
0.9205048534524403
230
0.3907311284892737
  0
LINE
  5
8BF
330
1A
100
AcDbEntity
  8
0
100
AcDbLine
 10
81.78681572338929
 20
675.2516298455896
 30
-179.3974879980662
 11
-143.9801525828811
 21
675.2516298455902
 31
-179.3974879980674
210
0.0000000000000005
220
0.9205048534524403
230
0.3907311284892737
  0
LINE
  5
8C0
330
1A
100
AcDbEntity
  8
0
100
AcDbLine
 10
-143.9801525828556
 20
672.125780817676
 30
-172.0334491704477
 11
-11.59666842974639
 21
672.1257808176753
 31
-172.0334491704468
210
0.0000000000000005
220
0.9205048534524403
230
0.3907311284892737
  0
LINE
  5
8C1
330
1A
100
AcDbEntity
  8
0
100
AcDbLine
 10
-143.825195444333
 20
672.0280980355537
 30
-171.8033229570846
 11
-11.84666842974638
 21
672.028098035553
 31
-171.8033229570844
210
0.0000000000000005
220
0.9205048534524403
230
0.3907311284892737
  0
LINE
  5
8C2
330
1A
100
AcDbEntity
  8
0
100
AcDbLine
 10
11.40333157024952
 20
568.6764006510127
 30
-179.3974879980669
 11
11.40333157024952
 21
571.6764006510127
 31
-179.3974879980669
  0
LINE
  5
8C3
330
1A
100
AcDbEntity
  8
0
100
AcDbLine
 10
46.40333157025543
 20
568.6763665947678
 30
-179.3974879980669
 11
46.40333157025543
 21
571.6763665947678
 31
-179.3974879980669
  0
LINE
  5
8C4
330
1A
100
AcDbEntity
  8
0
100
AcDbLine
 10
2.403331570254067
 20
672.1257808176753
 30
-172.0334491704468
 11
82.9540640981536
 21
672.1257808176753
 31
-172.0334491704468
210
0.0000000000000005
220
0.9205048534524403
230
0.3907311284892737
  0
LINE
  5
8C5
330
1A
100
AcDbEntity
  8
0
100
AcDbLine
 10
-73.59666842974047
 20
568.6764833590359
 30
-179.3974879980669
 11
-73.59666842974047
 21
571.6764833590359
 31
-179.3974879980669
  0
LINE
  5
8C6
330
1A
100
AcDbEntity
  8
0
100
AcDbLine
 10
-108.5966684297459
 20
568.676517415281
 30
-179.3974879980669
 11
-108.5966684297459
 21
571.676517415281
 31
-179.3974879980669
  0
ARC
  5
8C7
330
1A
100
AcDbEntity
  8
0
100
AcDbCircle
 10
78.59666842974633
 20
-383.9780897431842
 30
551.4762196409107
 40
90.0
210
0.0000000000000005
220
0.9205048534524403
230
0.3907311284892737
100
AcDbArc
 50
339.0751675723607
 51
15.43935551783416
  0
ARC
  5
8C8
330
1A
100
AcDbEntity
  8
0
100
AcDbCircle
 10
-17.25672771326978
 20
-383.8620988596071
 30
551.4762196409107
 40
89.14660385698349
210
0.0000000000000005
220
0.9205048534524403
230
0.3907311284892737
100
AcDbArc
 50
164.4864865151915
 51
191.3970563212888
  0
ARC
  5
8C9
330
1A
100
AcDbEntity
  8
0
100
AcDbCircle
 10
-17.24005597374113
 20
-383.8643633087171
 30
551.4762196409107
 40
85.16327726379186
210
0.0000000000000005
220
0.9205048534524403
230
0.3907311284892737
100
AcDbArc
 50
164.4845354435437
 51
191.7987439427779
  0
LINE
  5
8CA
330
1A
100
AcDbEntity
  8
0
 48
0.1
100
AcDbLine
 10
-15.59666842975093
 20
666.2648138903352
 30
-158.2258763686577
 11
-15.59666842975093
 21
647.9004508513392
 31
-114.962148256393
210
0.0000000000000005
220
0.9205048534524403
230
0.3907311284892737
  0
LINE
  5
8CB
330
1A
100
AcDbEntity
  8
0
 48
0.1
100
AcDbLine
 10
-140.5966684297505
 20
666.2648138903355
 30
-158.2258763686577
 11
-140.5966684297505
 21
647.9004508513394
 31
-114.9621482563932
210
0.0000000000000005
220
0.9205048534524403
230
0.3907311284892737
  0
ARC
  5
8CC
330
1A
100
AcDbEntity
  8
0
100
AcDbCircle
 10
78.59666842974633
 20
-383.9780897431842
 30
551.4762196409107
 40
86.0
210
0.0000000000000005
220
0.9205048534524403
230
0.3907311284892737
100
AcDbArc
 50
339.0751675723607
 51
15.43935551783416
  0
LINE
  5
8CD
330
1A
100
AcDbEntity
  8
0
 48
0.1
100
AcDbLine
 10
-140.5966684297505
 20
666.2648138903355
 30
-158.2258763686577
 11
-15.59666842975093
 21
666.2648138903352
 31
-158.2258763686577
210
0.0000000000000005
220
0.9205048534524403
230
0.3907311284892737
  0
ARC
  5
8CE
330
1A
100
AcDbEntity
  8
0
100
AcDbCircle
 10
-16.40333157025358
 20
-383.9780897431842
 30
551.4762196409107
 40
86.0
210
0.0000000000000005
220
0.9205048534524403
230
0.3907311284892737
100
AcDbArc
 50
192.0814698847062
 51
200.9248324276391
  0
ARC
  5
8CF
330
1A
100
AcDbEntity
  8
0
100
AcDbCircle
 10
-16.40333157025358
 20
-383.9780897431842
 30
551.4762196409107
 40
90.0
210
0.0000000000000005
220
0.9205048534524403
230
0.3907311284892737
100
AcDbArc
 50
191.5369590328148
 51
200.9248324276391
  0
ARC
  5
8D0
330
1A
100
AcDbEntity
  8
0
100
AcDbCircle
 10
-7.403331570254067
 20
-415.4780897431838
 30
551.4762196409107
 40
7.0
210
0.0000000000000005
220
0.9205048534524403
230
0.3907311284892737
100
AcDbArc
 50
0.0
 51
90.0
  0
ARC
  5
8D1
330
1A
100
AcDbEntity
  8
0
100
AcDbCircle
 10
-16.40333157025358
 20
-383.9780897431842
 30
551.4762196409107
 40
80.0
210
0.0000000000000005
220
0.9205048534524403
230
0.3907311284892737
100
AcDbArc
 50
199.8612529467867
 51
204.2650859026835
  0
LINE
  5
8D2
330
1A
100
AcDbEntity
  8
0
100
AcDbLine
 10
0.4033315702536129
 20
671.3443185606968
 30
-170.1924394635418
 11
0.4033315702536129
 21
669.9767596109843
 31
-166.9706724764582
210
0.0000000000000005
220
0.9205048534524403
230
0.3907311284892737
  0
LINE
  5
8D3
330
1A
100
AcDbEntity
  8
0
100
AcDbLine
 10
7.403331570253612
 20
667.2416417115593
 30
-160.5271385022913
 11
89.76374323758227
 21
667.2416417115593
 31
-160.5271385022913
210
0.0000000000000005
220
0.9205048534524403
230
0.3907311284892737
  0
ARC
  5
8D4
330
1A
100
AcDbEntity
  8
0
100
AcDbCircle
 10
-89.76374323758225
 20
-410.4780897431836
 30
551.4762196409107
 40
2.0
210
0.0000000000000005
220
0.9205048534524403
230
0.3907311284892737
100
AcDbArc
 50
90.0
 51
199.861252946807
  0
ARC
  5
8D5
330
1A
100
AcDbEntity
  8
0
100
AcDbCircle
 10
-6.403331570253612
 20
-394.478089743184
 30
551.4762196409107
 40
7.0
210
0.0000000000000005
220
0.9205048534524403
230
0.3907311284892737
100
AcDbArc
 50
270.0
 51
0.0
  0
ARC
  5
8D6
330
1A
100
AcDbEntity
  8
0
100
AcDbCircle
 10
-6.403339372780465
 20
-394.478089743183
 30
551.4762196409107
 40
7.0
210
0.0000000000000005
220
0.9205048534524403
230
0.3907311284892737
100
AcDbArc
 50
270.0
 51
0.0000000000007994
  0
ARC
  5
8D7
330
1A
100
AcDbEntity
  8
0
100
AcDbCircle
 10
-6.403331570253612
 20
-394.4780897431849
 30
551.4762196409107
 40
7.5
210
0.0000000000000005
220
0.9205048534524403
230
0.3907311284892737
100
AcDbArc
 50
269.9999999999989
 51
0.0
  0
ARC
  5
8D8
330
1A
100
AcDbEntity
  8
0
100
AcDbCircle
 10
-16.40333157025358
 20
-383.9780897431842
 30
551.4762196409107
 40
89.0
210
0.0000000000000005
220
0.9205048534524403
230
0.3907311284892737
100
AcDbArc
 50
191.3399134476776
 51
191.6683994964641
  0
LINE
  5
8D9
330
1A
100
AcDbEntity
  8
0
100
AcDbLine
 10
6.403331570254067
 20
664.7018893763795
 30
-154.5438569548521
 11
104.5849623104482
 21
664.7018893763791
 31
-154.5438569548503
210
0.0000000000000005
220
0.9205048534524403
230
0.3907311284892737
  0
LINE
  5
8DA
330
1A
100
AcDbEntity
  8
0
100
AcDbLine
 10
6.403331570253612
 20
664.5065238121344
 30
-154.0836045281241
 11
103.6658664864471
 21
664.5065238121344
 31
-154.0836045281241
210
0.0000000000000005
220
0.9205048534524403
230
0.3907311284892737
  0
LINE
  5
8DB
330
1A
100
AcDbEntity
  8
0
100
AcDbLine
 10
6.403339372780465
 20
664.506523812134
 30
-154.0836045281232
 11
104.6454789597756
 21
664.506523812134
 31
-154.0836045281232
210
0.0000000000000005
220
0.9205048534524403
230
0.3907311284892737
  0
LINE
  5
8DC
330
1A
100
AcDbEntity
  8
0
 48
0.1
100
AcDbLine
 10
-140.5966684297505
 20
647.9004508513394
 30
-114.9621482563932
 11
-15.59666842975093
 21
647.9004508513392
 31
-114.962148256393
210
0.0000000000000005
220
0.9205048534524403
230
0.3907311284892737
  0
ARC
  5
8DD
330
1A
100
AcDbEntity
  8
0
100
AcDbCircle
 10
-17.25672771326978
 20
-381.9084432171607
 30
546.8736953736486
 40
89.14660385698349
210
0.0000000000000005
220
0.9205048534524403
230
0.3907311284892737
100
AcDbArc
 50
164.4864865151915
 51
182.0582285817593
  0
ARC
  5
8DE
330
1A
100
AcDbEntity
  8
0
100
AcDbCircle
 10
-17.25672771326978
 20
-379.1733253177357
 30
540.4301613994818
 40
89.14660385698349
210
0.0000000000000005
220
0.9205048534524403
230
0.3907311284892737
100
AcDbArc
 50
164.4864865151915
 51
182.0582285817593
  0
ARC
  5
8DF
330
1A
100
AcDbEntity
  8
0
100
AcDbCircle
 10
-17.25672771326978
 20
-381.5177120886714
 30
545.9531905201963
 40
89.14660385698349
210
0.0000000000000005
220
0.9205048534524403
230
0.3907311284892737
100
AcDbArc
 50
164.4864865151915
 51
182.0582285817593
  0
LINE
  5
8E0
330
1A
100
AcDbEntity
  8
0
100
AcDbLine
 10
106.3458180370271
 20
656.3723989796933
 30
-134.9208072977123
 11
106.3458180370271
 21
644.3723989796933
 31
-134.9208072977123
  0
LINE
  5
8E1
330
1A
100
AcDbEntity
  8
0
100
AcDbLine
 10
-4.596618949234652
 20
650.4402031865204
 30
-120.9454298038363
 11
-4.596618949234652
 21
651.0262998792552
 31
-122.3261870840167
210
0.0000000000000005
220
0.9205048534524403
230
0.3907311284892737
  0
ARC
  5
8E2
330
1A
100
AcDbEntity
  8
0
100
AcDbCircle
 10
79.45006457275792
 20
-381.5177120886728
 30
545.9531905201962
 40
89.14660385698349
210
-0.0000000000000059
220
0.9205048534524403
230
0.3907311284892737
100
AcDbArc
 50
357.9417714182406
 51
15.51351348480848
  0
ARC
  5
8E3
330
1A
100
AcDbEntity
  8
0
100
AcDbCircle
 10
79.45006457275792
 20
-381.9084432171619
 30
546.8736953736485
 40
89.14660385698349
210
-0.0000000000000059
220
0.9205048534524403
230
0.3907311284892737
100
AcDbArc
 50
357.9417714182406
 51
15.51351348480848
  0
ARC
  5
8E4
330
1A
100
AcDbEntity
  8
0
100
AcDbCircle
 10
79.45006457275792
 20
-379.1733253177371
 30
540.4301613994817
 40
89.14660385698349
210
-0.0000000000000059
220
0.9205048534524403
230
0.3907311284892737
100
AcDbArc
 50
357.9417714182407
 51
15.51351348480848
  0
LINE
  5
8E5
330
1A
100
AcDbEntity
  8
0
100
AcDbLine
 10
-168.5391548965194
 20
656.3723989796926
 30
-134.9208072977123
 11
-168.5391548965194
 21
644.3723989796926
 31
-134.9208072977123
  0
DIMENSION
  5
8EF
330
1A
100
AcDbEntity
  8
MEASURE
100
AcDbDimension
  2
*D0
 10
323.3452802065867
 20
225.1765170681332
 30
0.0
 11
562.1255666180432
 21
234.1765170681332
 31
0.0
 70
    32
  1
（474）
 71
     5
 42
477.5605728229129
  3
AD-STANDARD
100
AcDbAlignedDimension
 13
800.9058530294996
 23
658.5955622269716
 33
0.0
 14
323.3452802065867
 24
352.1764420861209
 34
0.0
100
AcDbRotatedDimension
1001
ACAD
1000
DSTYLE
1002
{
1070
    40
1040
4.0
1070
   140
1040
3.5
1070
   271
1070
     3
1070
   272
1070
     8
1070
   289
1070
     1
1002
}
  0
DIMENSION
  5
8F0
330
1A
100
AcDbEntity
  8
MEASURE
100
AcDbDimension
  2
*D1
 10
856.9058530294997
 20
676.4549223612966
 30
0.0
 11
847.9058530294995
 21
492.8157197147193
 31
0.0
 70
    32
  1
（371）
 71
     5
 42
367.2784052931549
  3
AD-STANDARD
100
AcDbAlignedDimension
 13
538.3452364199238
 23
309.1765170681419
 33
0.0
 14
789.2784265334857
 24
676.4549223612966
 34
0.0
 50
90.0
100
AcDbRotatedDimension
1001
ACAD
1000
DSTYLE
1002
{
1070
    40
1040
4.0
1070
   140
1040
3.5
1070
   271
1070
     3
1070
   272
1070
     8
1070
   289
1070
     1
1002
}
  0
CIRCLE
  5
8F1
330
1A
100
AcDbEntity
  8
0
 48
0.25
100
AcDbCircle
 10
729.0583480875985
 20
503.555515940824
 30
0.0
 40
25.0
  0
CIRCLE
  5
8F2
330
1A
100
AcDbEntity
  8
0
 48
0.25
100
AcDbCircle
 10
729.0583480875985
 20
503.555515940824
 30
0.0
 40
24.5
  0
CIRCLE
  5
8F3
330
1A
100
AcDbEntity
  8
0
 48
0.25
100
AcDbCircle
 10
729.0583480875985
 20
503.555515940824
 30
0.0
 40
23.0
  0
LINE
  5
8F4
330
1A
100
AcDbEntity
  8
0
 48
0.25
100
AcDbLine
 10
761.9011247497492
 20
565.5554916780888
 30
0.0
 11
757.8002160208516
 21
487.3054916780829
 31
0.0
  0
LINE
  5
8F5
330
1A
100
AcDbEntity
  8
0
 48
0.25
100
AcDbLine
 10
761.0397943091975
 20
563.4508197655968
 30
0.0
 11
757.0098809268911
 21
486.5554916780829
 31
0.0
  0
CIRCLE
  5
8F6
330
1A
100
AcDbEntity
  8
0
100
AcDbCircle
 10
729.0583480875985
 20
503.555515940824
 30
0.0
 40
25.0
  0
LINE
  5
8F7
330
1A
100
AcDbEntity
  8
0
100
AcDbLine
 10
570.9090982992977
 20
343.5555158677699
 30
0.0
 11
750.4083480080899
 21
343.5555159486439
 31
0.0
  0
LINE
  5
8F8
330
1A
100
AcDbEntity
  8
0
100
AcDbLine
 10
599.833209250366
 20
328.5555158812444
 30
0.0
 11
759.0583480080895
 21
328.5555159511869
 31
0.0
  0
DIMENSION
  5
8F9
330
1A
100
AcDbEntity
  8
MEASURE
100
AcDbDimension
  2
*D2
 10
239.345280206586
 20
412.1764420861154
 30
0.0
 11
230.3452802065859
 21
360.6764795771287
 31
0.0
 70
    32
  1
104～114
 71
     5
 42
102.9999250179735
  3
AD-STANDARD
100
AcDbAlignedDimension
 13
358.3453235926845
 23
309.1765170681419
 33
0.0
 14
334.8452802065846
 24
412.1764420861154
 34
0.0
 50
90.0
100
AcDbRotatedDimension
1001
ACAD
1000
DSTYLE
1002
{
1070
    40
1040
4.0
1070
   140
1040
3.5
1070
   271
1070
     3
1070
   272
1070
     8
1070
   289
1070
     1
1002
}
  0
LINE
  5
8FC
330
1A
100
AcDbEntity
  8
0
100
AcDbLine
 10
369.5453506732438
 20
332.6765349252144
 30
0.0
 11
568.6270523901125
 21
332.6765349252116
 31
0.0
  0
LINE
  5
8FD
330
1A
100
AcDbEntity
  8
0
100
AcDbLine
 10
334.8452802065858
 20
412.1764420861163
 30
0.0
 11
561.8452798060216
 21
412.1764420861318
 31
0.0
  0
LINE
  5
8FE
330
1A
100
AcDbEntity
  8
0
100
AcDbLine
 10
360.0315712873999
 20
332.6765349252046
 30
0.0
 11
555.3452799204205
 21
332.6765349252119
 31
0.0
  0
LINE
  5
8FF
330
1A
100
AcDbEntity
  8
0
100
AcDbLine
 10
388.102530988187
 20
317.6765349252101
 30
0.0
 11
475.0315712874063
 21
317.6765349252101
 31
0.0
  0
LINE
  5
900
330
1A
100
AcDbEntity
  8
0
100
AcDbLine
 10
323.3452802065867
 20
352.1764420861209
 30
0.0
 11
573.3452798060215
 21
352.1764420861245
 31
0.0
  0
DIMENSION
  5
901
330
1A
100
AcDbEntity
  8
MEASURE
100
AcDbDimension
  2
*D3
 10
267.3452802065858
 20
412.1764420861163
 30
0.0
 11
258.3452802065857
 21
382.1764420861196
 31
0.0
 70
    32
 71
     5
 42
59.99999999999364
  3
AD-STANDARD
100
AcDbAlignedDimension
 13
323.3452802065867
 23
352.1764420861227
 33
0.0
 14
334.8452802065858
 24
412.1764420861163
 34
0.0
 50
90.0
100
AcDbRotatedDimension
1001
ACAD
1000
DSTYLE
1002
{
1070
    40
1040
4.0
1070
   140
1040
3.5
1070
   271
1070
     3
1070
   272
1070
     8
1070
   289
1070
     1
1002
}
  0
ARC
  5
902
330
1A
100
AcDbEntity
  8
0
100
AcDbCircle
 10
334.8452802065858
 20
400.6764420861154
 30
0.0
 40
11.5
100
AcDbArc
 50
90.00000000000609
 51
180.0000000000077
  0
ARC
  5
903
330
1A
100
AcDbEntity
  8
0
100
AcDbCircle
 10
341.3452796523743
 20
340.6765349252101
 30
0.0
 40
8.0
100
AcDbArc
 50
180.0
 51
270.0
  0
LINE
  5
907
330
1A
100
AcDbEntity
  8
0
100
AcDbLine
 10
333.3452796523743
 20
352.1764420861227
 30
0.0
 11
333.3452796523743
 21
340.6765349252101
 31
0.0
  0
LINE
  5
909
330
1A
100
AcDbEntity
  8
0
100
AcDbLine
 10
323.3452802065858
 20
400.6764420861145
 30
0.0
 11
323.3452802065867
 21
352.1764420861227
 31
0.0
  0
LINE
  5
90B
330
1A
100
AcDbEntity
  8
0
100
AcDbLine
 10
360.0315712873989
 20
332.6765349252009
 30
0.0
 11
341.3452796523752
 21
332.6765349251991
 31
0.0
  0
LINE
  5
90C
330
1A
100
AcDbEntity
  8
0
100
AcDbLine
 10
351.8453235926854
 20
332.6765349251991
 30
0.0
 11
364.8453235926854
 21
332.6765349251991
 31
0.0
  0
ARC
  5
932
330
1A
100
AcDbEntity
  8
0
100
AcDbCircle
 10
573.1511227061068
 20
340.8764861252168
 30
0.0
 40
5.0
100
AcDbArc
 50
185.0000000000001
 51
270.0
  0
ARC
  5
933
330
1A
100
AcDbEntity
  8
0
100
AcDbCircle
 10
568.6270523901125
 20
326.6765349252057
 30
0.0
 40
6.0
100
AcDbArc
 50
2.349097855641582
 51
90.0
  0
ARC
  5
934
330
1A
100
AcDbEntity
  8
0
100
AcDbCircle
 10
561.8452798060216
 20
400.6764420861308
 30
0.0
 40
11.5
100
AcDbArc
 50
359.9999999999984
 51
89.99999999999998
  0
LINE
  5
935
330
1A
100
AcDbEntity
  8
0
100
AcDbLine
 10
545.8507899193891
 20
328.5555158575316
 30
0.0
 11
574.5550183407933
 21
328.5555158701405
 31
0.0
  0
LINE
  5
936
330
1A
100
AcDbEntity
  8
0
100
AcDbLine
 10
567.1434054734686
 20
352.1764420861244
 30
0.0
 11
568.170149215648
 21
340.4407074114786
 31
0.0
  0
LINE
  5
937
330
1A
100
AcDbEntity
  8
0
100
AcDbLine
 10
563.3452799204206
 20
352.1764420861227
 30
0.0
 11
563.3452799204206
 21
340.6765349252119
 31
0.0
  0
ARC
  5
938
330
1A
100
AcDbEntity
  8
0
100
AcDbCircle
 10
555.3452799204205
 20
340.6765349252119
 30
0.0
 40
8.0
100
AcDbArc
 50
270.0
 51
0.0
  0
LINE
  5
939
330
1A
100
AcDbEntity
  8
0
100
AcDbLine
 10
519.0583480160295
 20
328.5555158457619
 30
0.0
 11
530.8396829204585
 21
328.5555158509378
 31
0.0
  0
LINE
  5
93A
330
1A
100
AcDbEntity
  8
0
100
AcDbLine
 10
519.0583480160295
 20
328.5555158457619
 30
0.0
 11
519.0583480160295
 21
332.6765349252109
 31
0.0
  0
LINE
  5
93B
330
1A
100
AcDbEntity
  8
0
100
AcDbLine
 10
544.8452364199229
 20
332.6765349251991
 30
0.0
 11
531.8452364199229
 21
332.6765349251991
 31
0.0
  0
LINE
  5
965
330
1A
100
AcDbEntity
  8
0
100
AcDbLine
 10
491.0021340358845
 20
330.3333891747016
 30
0.0
 11
480.6884255368978
 21
320.0196806757167
 31
0.0
  0
ARC
  5
966
330
1A
100
AcDbEntity
  8
0
100
AcDbCircle
 10
496.6589882853751
 20
324.67653492521
 30
0.0
 40
8.0
100
AcDbArc
 50
89.99999999999998
 51
135.0000000000032
  0
ARC
  5
967
330
1A
100
AcDbEntity
  8
0
100
AcDbCircle
 10
475.0315712874063
 20
325.67653492521
 30
0.0
 40
8.0
100
AcDbArc
 50
270.0
 51
314.9999999999938
  0
ARC
  5
968
330
1A
100
AcDbEntity
  8
0
100
AcDbCircle
 10
597.7745918838209
 20
326.6765349252207
 30
0.0
 40
2.0
100
AcDbArc
 50
270.0
 51
358.2418555684471
  0
ARC
  5
969
330
1A
100
AcDbEntity
  8
0
100
AcDbCircle
 10
599.6589914882158
 20
339.1765349252207
 30
0.0
 40
0.5
100
AcDbArc
 50
357.9835241760201
 51
90.0
  0
LINE
  5
96A
330
1A
100
AcDbEntity
  8
0
100
AcDbLine
 10
599.7736503633728
 20
326.6151737377238
 30
0.0
 11
600.158681863262
 21
339.1589414864914
 31
0.0
  0
ARC
  5
96B
330
1A
100
AcDbEntity
  8
0
100
AcDbCircle
 10
573.1511227061068
 20
340.8764861252155
 30
0.0
 40
2.0
100
AcDbArc
 50
184.9999999999999
 51
270.0
  0
LINE
  5
96C
330
1A
100
AcDbEntity
  8
0
100
AcDbLine
 10
570.1548649860983
 20
352.1764420861245
 30
0.0
 11
571.1587333099232
 21
340.7021746397202
 31
0.0
  0
LINE
  5
96D
330
1A
100
AcDbEntity
  8
0
100
AcDbLine
 10
574.6220102214374
 20
326.9224629647545
 30
0.0
 11
574.2546939827106
 21
335.8764861252168
 31
0.0
  0
ARC
  5
96E
330
1A
100
AcDbEntity
  8
0
100
AcDbCircle
 10
576.6337809360893
 20
326.6765349252207
 30
0.0
 40
2.0
100
AcDbArc
 50
182.3490978556428
 51
270.0
  0
LINE
  5
96F
330
1A
100
AcDbEntity
  8
0
100
AcDbLine
 10
574.635461658981
 20
326.5945589120377
 30
0.0
 11
574.6220102214374
 21
326.9224629647545
 31
0.0
  0
ARC
  5
970
330
1A
100
AcDbEntity
  8
0
100
AcDbCircle
 10
574.9486636827128
 20
338.8764861252173
 30
0.0
 40
0.8
100
AcDbArc
 50
90.0
 51
180.0000000001302
  0
LINE
  5
971
330
1A
100
AcDbEntity
  8
0
100
AcDbLine
 10
573.1511227061068
 20
338.8764861252155
 30
0.0
 11
574.1486636827126
 21
338.8764861252159
 31
0.0
  0
LINE
  5
972
330
1A
100
AcDbEntity
  8
0
100
AcDbLine
 10
573.1511227061068
 20
335.8764861252168
 30
0.0
 11
574.2546939827106
 21
335.8764861252173
 31
0.0
  0
LINE
  5
973
330
1A
100
AcDbEntity
  8
0
100
AcDbLine
 10
576.6337809360893
 20
324.6765349252207
 30
0.0
 11
597.7745918838209
 21
324.6765349252207
 31
0.0
  0
LINE
  5
974
330
1A
100
AcDbEntity
  8
0
100
AcDbLine
 10
574.9486636827119
 20
339.6765349252207
 30
0.0
 11
599.6589914882158
 21
339.6765349252207
 31
0.0
  0
LINE
  5
975
330
1A
100
AcDbEntity
  8
0
100
AcDbLine
 10
573.3452798060215
 20
400.6764420861318
 30
0.0
 11
573.3452798060262
 21
352.1764420861255
 31
0.0
  0
LINE
  5
978
330
1A
100
AcDbEntity
  8
0
 48
0.25
100
AcDbLine
 10
757.8002160208516
 20
487.3054916780825
 30
0.0
 11
757.0098809268902
 21
486.5554916780829
 31
0.0
  0
LINE
  5
979
330
1A
100
AcDbEntity
  8
0
 48
0.25
100
AcDbLine
 10
757.0098809268893
 20
486.5554916780829
 30
0.0
 11
747.3886283654938
 21
486.5554916780829
 31
0.0
  0
LINE
  5
97A
330
1A
100
AcDbEntity
  8
0
100
AcDbLine
 10
721.5869024443518
 20
478.2025150236504
 30
0.0
 11
736.5297937308469
 21
478.2025150236504
 31
0.0
  0
ELLIPSE
  5
97B
330
1A
100
AcDbEntity
  8
0
100
AcDbEllipse
 10
729.0583480875993
 20
478.2025150236504
 30
0.0
 11
-0.000000000000003
 21
11.60664886835366
 31
0.0
210
0.0
220
0.0
230
1.0
 40
0.6437211746466295
 41
1.570796326794896
 42
4.712388980384689
  0
LINE
  5
97C
330
1A
100
AcDbEntity
  8
0
100
AcDbLine
 10
709.0583480875993
 20
478.555515940824
 30
0.0
 11
707.7083480875999
 21
466.555515940824
 31
0.0
  0
LINE
  5
97D
330
1A
100
AcDbEntity
  8
0
100
AcDbLine
 10
721.5869024443527
 20
479.87736492971
 30
0.0
 11
721.5869024443527
 21
478.2025150236486
 31
0.0
  0
LINE
  5
97E
330
1A
100
AcDbEntity
  8
0
100
AcDbLine
 10
709.0583480875984
 20
488.555515940824
 30
0.0
 11
709.0583480875993
 21
478.555515940824
 31
0.0
  0
LINE
  5
97F
330
1A
100
AcDbEntity
  8
0
100
AcDbLine
 10
749.0583480875994
 20
478.555515940824
 30
0.0
 11
750.4083480875997
 21
466.555515940824
 31
0.0
  0
LINE
  5
980
330
1A
100
AcDbEntity
  8
0
100
AcDbLine
 10
736.5297937308469
 20
479.7622866211423
 30
0.0
 11
736.5297937308469
 21
478.2025150236504
 31
0.0
  0
LINE
  5
981
330
1A
100
AcDbEntity
  8
0
100
AcDbLine
 10
749.0583480875994
 20
486.6764901341257
 30
0.0
 11
749.0583480875994
 21
478.555515940824
 31
0.0
  0
LINE
  5
982
330
1A
100
AcDbEntity
  8
0
 48
0.005
100
AcDbLine
 10
756.0467061788285
 20
486.6764901341266
 30
0.0
 11
747.500107434711
 21
486.6764901341257
 31
0.0
  0
ARC
  5
983
330
1A
100
AcDbEntity
  8
0
 48
0.005
100
AcDbCircle
 10
756.0467061788285
 20
488.6764901341266
 30
0.0
 40
2.0
100
AcDbArc
 50
270.0
 51
356.9999999999997
  0
ARC
  5
984
330
1A
100
AcDbEntity
  8
0
100
AcDbCircle
 10
757.0583480080895
 20
341.555515951638
 30
0.0
 40
2.0
100
AcDbArc
 50
359.9999999999957
 51
90.00000002581492
  0
LINE
  5
985
330
1A
100
AcDbEntity
  8
0
100
AcDbLine
 10
759.0583480080895
 20
341.555515951638
 30
0.0
 11
759.0583480080886
 21
328.5555159511869
 31
0.0
  0
LINE
  5
986
330
1A
100
AcDbEntity
  8
0
100
AcDbLine
 10
750.408348008089
 20
343.5555159486421
 30
0.0
 11
757.0583480071881
 21
343.555515951638
 31
0.0
  0
LINE
  5
987
330
1A
100
AcDbEntity
  8
0
100
AcDbLine
 10
750.789211170857
 20
321.4713232247559
 30
0.0
 11
754.0583480078384
 21
317.6765349252173
 31
0.0
  0
LINE
  5
988
330
1A
100
AcDbEntity
  8
0
100
AcDbLine
 10
754.5583480078384
 20
317.6765349252173
 30
0.0
 11
723.5583480078394
 21
317.6765349252173
 31
0.0
  0
LINE
  5
989
330
1A
100
AcDbEntity
  8
0
100
AcDbLine
 10
755.0583480078385
 20
313.6765349252173
 30
0.0
 11
723.0583480078385
 21
313.6765349252173
 31
0.0
  0
LINE
  5
98A
330
1A
100
AcDbEntity
  8
0
100
AcDbLine
 10
753.0583480078385
 20
311.6765349252182
 30
0.0
 11
725.0583480078384
 21
311.6765349252173
 31
0.0
  0
LINE
  5
98B
330
1A
100
AcDbEntity
  8
0
100
AcDbLine
 10
738.490607462676
 20
317.6765349252173
 30
0.0
 11
738.490607462676
 21
313.6765349252173
 31
0.0
  0
LINE
  5
98C
330
1A
100
AcDbEntity
  8
0
100
AcDbLine
 10
736.5492571924151
 20
317.6765349252173
 30
0.0
 11
736.5492571924151
 21
313.6765349252173
 31
0.0
  0
LINE
  5
98D
330
1A
100
AcDbEntity
  8
0
100
AcDbLine
 10
733.5776015894007
 20
317.6765349252173
 30
0.0
 11
733.5776015894007
 21
313.6765349252173
 31
0.0
  0
LINE
  5
98E
330
1A
100
AcDbEntity
  8
0
100
AcDbLine
 10
732.5447715481214
 20
317.6765349252164
 30
0.0
 11
732.5447715481214
 21
313.6765349252173
 31
0.0
  0
LINE
  5
98F
330
1A
100
AcDbEntity
  8
0
100
AcDbLine
 10
730.8083480078384
 20
317.6765349252173
 30
0.0
 11
730.8083480078384
 21
313.6765349252173
 31
0.0
  0
LINE
  5
990
330
1A
100
AcDbEntity
  8
0
100
AcDbLine
 10
729.9356285548992
 20
317.6765349252173
 30
0.0
 11
729.9356285548992
 21
313.6765349252173
 31
0.0
  0
LINE
  5
991
330
1A
100
AcDbEntity
  8
0
100
AcDbLine
 10
728.3559542156336
 20
317.6765349252173
 30
0.0
 11
728.3559542156345
 21
313.6765349252173
 31
0.0
  0
LINE
  5
992
330
1A
100
AcDbEntity
  8
0
100
AcDbLine
 10
727.7251921774359
 20
317.6765349252173
 30
0.0
 11
727.7251921774359
 21
313.6765349252173
 31
0.0
  0
LINE
  5
993
330
1A
100
AcDbEntity
  8
0
100
AcDbLine
 10
726.3276015894016
 20
317.6765349252173
 30
0.0
 11
726.3276015894016
 21
313.6765349252173
 31
0.0
  0
LINE
  5
994
330
1A
100
AcDbEntity
  8
0
100
AcDbLine
 10
735.4385890882412
 20
317.6765349252173
 30
0.0
 11
735.4385890882412
 21
313.6765349252173
 31
0.0
  0
LINE
  5
995
330
1A
100
AcDbEntity
  8
0
100
AcDbLine
 10
723.8752077971985
 20
317.6765349252173
 30
0.0
 11
723.8752077971985
 21
313.6765349252173
 31
0.0
  0
LINE
  5
996
330
1A
100
AcDbEntity
  8
0
100
AcDbLine
 10
724.8119388720188
 20
317.6765349252164
 30
0.0
 11
724.8119388720197
 21
313.6765349252173
 31
0.0
  0
LINE
  5
997
330
1A
100
AcDbEntity
  8
0
100
AcDbLine
 10
751.7890944262753
 20
317.6765349252173
 30
0.0
 11
751.7890944262753
 21
313.6765349252173
 31
0.0
  0
LINE
  5
998
330
1A
100
AcDbEntity
  8
0
100
AcDbLine
 10
750.3915038382411
 20
317.6765349252173
 30
0.0
 11
750.3915038382411
 21
313.6765349252173
 31
0.0
  0
LINE
  5
999
330
1A
100
AcDbEntity
  8
0
100
AcDbLine
 10
749.7607418000434
 20
317.6765349252173
 30
0.0
 11
749.7607418000425
 21
313.6765349252173
 31
0.0
  0
LINE
  5
99A
330
1A
100
AcDbEntity
  8
0
100
AcDbLine
 10
748.1810674607777
 20
317.6765349252173
 30
0.0
 11
748.1810674607777
 21
313.6765349252173
 31
0.0
  0
LINE
  5
99B
330
1A
100
AcDbEntity
  8
0
100
AcDbLine
 10
747.3083480078384
 20
317.6765349252173
 30
0.0
 11
747.3083480078384
 21
313.6765349252173
 31
0.0
  0
LINE
  5
99C
330
1A
100
AcDbEntity
  8
0
100
AcDbLine
 10
745.5719244675556
 20
317.6765349252164
 30
0.0
 11
745.5719244675556
 21
313.6765349252173
 31
0.0
  0
LINE
  5
99D
330
1A
100
AcDbEntity
  8
0
100
AcDbLine
 10
744.5390944262762
 20
317.6765349252173
 30
0.0
 11
744.5390944262762
 21
313.6765349252173
 31
0.0
  0
LINE
  5
99E
330
1A
100
AcDbEntity
  8
0
100
AcDbLine
 10
742.6781069274356
 20
317.6765349252173
 30
0.0
 11
742.6781069274356
 21
313.6765349252173
 31
0.0
  0
LINE
  5
99F
330
1A
100
AcDbEntity
  8
0
100
AcDbLine
 10
739.626088553001
 20
317.6765349252173
 30
0.0
 11
739.626088553001
 21
313.6765349252173
 31
0.0
  0
LINE
  5
9A0
330
1A
100
AcDbEntity
  8
0
100
AcDbLine
 10
741.5674388232619
 20
317.6765349252173
 30
0.0
 11
741.5674388232619
 21
313.6765349252173
 31
0.0
  0
LINE
  5
9A1
330
1A
100
AcDbEntity
  8
0
100
AcDbLine
 10
735.0583480078385
 20
325.6765349252173
 30
0.0
 11
732.5583480078385
 21
325.6765349252173
 31
0.0
  0
LINE
  5
9A2
330
1A
100
AcDbEntity
  8
0
100
AcDbLine
 10
735.0583480078376
 20
325.6765349252173
 30
0.0
 11
735.0583480078376
 21
328.555515940644
 31
0.0
  0
LINE
  5
9A3
330
1A
100
AcDbEntity
  8
0
100
AcDbLine
 10
743.0583480078385
 20
328.5555159441583
 30
0.0
 11
743.0583480078385
 21
325.6765349252173
 31
0.0
  0
LINE
  5
9A4
330
1A
100
AcDbEntity
  8
0
100
AcDbLine
 10
735.7348805078381
 20
325.6765349252173
 30
0.0
 11
735.7348805078381
 21
328.5555159409414
 31
0.0
  0
LINE
  5
9A5
330
1A
100
AcDbEntity
  8
0
100
AcDbLine
 10
742.3818155078388
 20
325.6765349252173
 30
0.0
 11
742.3818155078388
 21
328.5555159438609
 31
0.0
  0
ARC
  5
9A6
330
1A
100
AcDbEntity
  8
0
100
AcDbCircle
 10
723.5583480078394
 20
317.1765349252173
 30
0.0
 40
0.5
100
AcDbArc
 50
89.99999999999998
 51
180.0
  0
ARC
  5
9A7
330
1A
100
AcDbEntity
  8
0
100
AcDbCircle
 10
726.6631210059886
 20
322.2187325434388
 30
0.0
 40
1.0
100
AcDbArc
 50
311.6335393365702
 51
345.9637565320622
  0
ARC
  5
9A8
330
1A
100
AcDbEntity
  8
0
100
AcDbCircle
 10
751.4535750096865
 20
322.2187325434398
 30
0.0
 40
1.0
100
AcDbArc
 50
194.0362434679226
 51
228.3664606634298
  0
ARC
  5
9A9
330
1A
100
AcDbEntity
  8
0
100
AcDbCircle
 10
748.7775716014348
 20
324.6765349252173
 30
0.0
 40
1.0
100
AcDbArc
 50
14.03624346792647
 51
89.99999999999998
  0
ARC
  5
9AA
330
1A
100
AcDbEntity
  8
0
100
AcDbCircle
 10
729.3391244142431
 20
324.6765349252173
 30
0.0
 40
1.0
100
AcDbArc
 50
89.99999999999998
 51
165.9637565320735
  0
ARC
  5
9AB
330
1A
100
AcDbEntity
  8
0
100
AcDbCircle
 10
725.0583480078384
 20
312.6765349252173
 30
0.0
 40
1.0
100
AcDbArc
 50
180.0
 51
270.0000000000017
  0
LINE
  5
9AC
330
1A
100
AcDbEntity
  8
0
100
AcDbLine
 10
724.0583480078385
 20
313.6765349252173
 30
0.0
 11
724.0583480078385
 21
312.6765349252173
 31
0.0
  0
LINE
  5
9AD
330
1A
100
AcDbEntity
  8
0
100
AcDbLine
 10
727.3274848448181
 20
321.471323224755
 30
0.0
 11
724.0583480078385
 21
317.6765349252173
 31
0.0
  0
LINE
  5
9AE
330
1A
100
AcDbEntity
  8
0
100
AcDbLine
 10
728.3689819140981
 20
324.9190705502533
 30
0.0
 11
727.6332635061335
 21
321.9761969184019
 31
0.0
  0
LINE
  5
9AF
330
1A
100
AcDbEntity
  8
0
100
AcDbLine
 10
749.7477141015797
 20
324.9190705502533
 30
0.0
 11
750.4834325095417
 21
321.9761969184038
 31
0.0
  0
LINE
  5
9B0
330
1A
100
AcDbEntity
  8
0
100
AcDbLine
 10
750.5583480078375
 20
321.6765349252173
 30
0.0
 11
727.5583480078385
 21
321.6765349252173
 31
0.0
  0
LINE
  5
9B1
330
1A
100
AcDbEntity
  8
0
100
AcDbLine
 10
723.0583480078394
 20
317.1765349252173
 30
0.0
 11
723.0583480078394
 21
313.6765349252173
 31
0.0
  0
LINE
  5
9B2
330
1A
100
AcDbEntity
  8
0
100
AcDbLine
 10
748.7775716014348
 20
325.6765349252173
 30
0.0
 11
729.3391244142431
 21
325.6765349252173
 31
0.0
  0
LINE
  5
9B3
330
1A
100
AcDbEntity
  8
0
100
AcDbLine
 10
753.3047571436582
 20
317.6765349252164
 30
0.0
 11
753.3047571436573
 21
313.6765349252173
 31
0.0
  0
LINE
  5
9B4
330
1A
100
AcDbEntity
  8
0
100
AcDbLine
 10
754.2414882184784
 20
317.6765349252173
 30
0.0
 11
754.2414882184784
 21
313.6765349252173
 31
0.0
  0
ARC
  5
9B5
330
1A
100
AcDbEntity
  8
0
100
AcDbCircle
 10
754.5583480078384
 20
317.1765349252173
 30
0.0
 40
0.5
100
AcDbArc
 50
0.0
 51
89.99999999999998
  0
ARC
  5
9B6
330
1A
100
AcDbEntity
  8
0
100
AcDbCircle
 10
753.0583480078385
 20
312.6765349252182
 30
0.0
 40
1.0
100
AcDbArc
 50
270.0
 51
0.0
  0
LINE
  5
9B7
330
1A
100
AcDbEntity
  8
0
100
AcDbLine
 10
754.0583480078384
 20
313.6765349252173
 30
0.0
 11
754.0583480078384
 21
312.6765349252182
 31
0.0
  0
LINE
  5
9B8
330
1A
100
AcDbEntity
  8
0
100
AcDbLine
 10
755.0583480078385
 20
317.1765349252173
 30
0.0
 11
755.0583480078385
 21
313.6765349252173
 31
0.0
  0
LINE
  5
9B9
330
1A
100
AcDbEntity
  8
0
100
AcDbLine
 10
707.7083480875999
 20
466.555515940824
 30
0.0
 11
707.7083480080901
 21
343.5555159294044
 31
0.0
  0
LINE
  5
9BA
330
1A
100
AcDbEntity
  8
0
100
AcDbLine
 10
750.4083480875997
 20
466.555515940824
 30
0.0
 11
750.408348008089
 21
343.5555159486421
 31
0.0
  0
ARC
  5
9ED
330
1A
100
AcDbEntity
  8
0
100
AcDbCircle
 10
127.0966684297479
 20
-298.9780897431827
 30
551.4762196409107
 40
20.0
210
0.0000000000000005
220
0.9205048534524403
230
0.3907311284892737
100
AcDbArc
 50
0.0
 51
90.0
  0
ARC
  5
9EE
330
1A
100
AcDbEntity
  8
0
100
AcDbCircle
 10
127.0966684297465
 20
-299.2280897431822
 30
551.4762196409107
 40
20.0
210
0.0000000000000005
220
0.9205048534524403
230
0.3907311284892737
100
AcDbArc
 50
0.0
 51
90.0
  0
ARC
  5
9EF
330
1A
100
AcDbEntity
  8
0
100
AcDbCircle
 10
126.8466684297465
 20
-299.4780897431823
 30
551.4762196409107
 40
20.0
210
0.0000000000000005
220
0.9205048534524403
230
0.3907311284892737
100
AcDbArc
 50
359.9999999999964
 51
90.00000000000088
  0
LINE
  5
9F0
330
1A
100
AcDbEntity
  8
0
100
AcDbLine
 10
-10.5966684297482
 20
635.5924203039283
 30
-85.96624537264348
 11
-10.5966684297482
 21
617.4234228291768
 31
-43.1627696871051
210
0.0000000000000005
220
0.9205048534524403
230
0.3907311284892737
  0
LINE
  5
9F1
330
1A
100
AcDbEntity
  8
0
100
AcDbLine
 10
-10.84666842974684
 20
635.5924203039283
 30
-85.96624537264395
 11
-10.84666842974684
 21
617.6187883934219
 31
-43.62302211383168
210
0.0000000000000005
220
0.9205048534524403
230
0.3907311284892737
  0
LINE
  5
9F2
330
1A
100
AcDbEntity
  8
0
100
AcDbLine
 10
-10.59666842974684
 20
635.6901030860505
 30
-86.19637158600722
 11
-10.59666842974684
 21
617.5211056112996
 31
-43.39289590046861
210
0.0000000000000005
220
0.9205048534524403
230
0.3907311284892737
  0
ARC
  5
9F3
330
1A
100
AcDbEntity
  8
0
100
AcDbCircle
 10
128.5475824297952
 20
-303.0965938299884
 30
551.4762196409107
 40
26.1185502118284
210
0.0000000000000005
220
0.9205048534524403
230
0.3907311284892737
100
AcDbArc
 50
0.2626104772850812
 51
89.89232088829099
  0
ARC
  5
9F4
330
1A
100
AcDbEntity
  8
0
100
AcDbCircle
 10
-66.47252784768577
 20
-302.9768022869847
 30
551.4762196409107
 40
26.0
210
0.0000000000000005
220
0.9205048534524403
230
0.3907311284892737
100
AcDbArc
 50
89.42981080968909
 51
179.9999999999964
  0
ARC
  5
9F5
330
1A
100
AcDbEntity
  8
0
100
AcDbCircle
 10
-66.39876953146128
 20
-298.9780897431836
 30
551.4762196409107
 40
30.0
210
0.0000000000000005
220
0.9205048534524403
230
0.3907311284892737
100
AcDbArc
 50
90.0
 51
178.9999999999897
  0
ARC
  5
9F6
330
1A
100
AcDbEntity
  8
0
100
AcDbCircle
 10
128.5966684297461
 20
-298.9780897431845
 30
551.4762196409107
 40
30.0
210
0.0000000000000005
220
0.9205048534524403
230
0.3907311284892737
100
AcDbArc
 50
0.0
 51
90.0
  0
ARC
  5
9F7
330
1A
100
AcDbEntity
  8
0
100
AcDbCircle
 10
-66.39876754272015
 20
-298.1965896079881
 30
549.6351206985188
 40
30.0
210
0.0000000000000005
220
0.9205048534524403
230
0.3907311284892737
100
AcDbArc
 50
89.99985419520392
 51
178.9999999999897
  0
ARC
  5
9F8
330
1A
100
AcDbEntity
  8
0
100
AcDbCircle
 10
128.5921044022087
 20
-298.1965896079891
 30
549.6351206985187
 40
30.0
210
-0.0000000000000059
220
0.9205048534524403
230
0.3907311284892737
100
AcDbArc
 50
1.000000000010224
 51
90.00014580479607
  0
ARC
  5
9F9
330
1A
100
AcDbEntity
  8
0
100
AcDbCircle
 10
128.5921034799984
 20
-297.8058573494152
 30
548.714613182754
 40
30.0
210
-0.0000000000000059
220
0.9205048534524403
230
0.3907311284892737
100
AcDbArc
 50
1.000000000010224
 51
90.00013523002955
  0
ARC
  5
9FA
330
1A
100
AcDbEntity
  8
0
100
AcDbCircle
 10
128.5921063909499
 20
-298.9780897431844
 30
551.4762196409106
 40
30.0
210
-0.0000000000000059
220
0.9205048534524403
230
0.3907311284892737
100
AcDbArc
 50
1.000000000010224
 51
90.0
  0
ARC
  5
9FB
330
1A
100
AcDbEntity
  8
0
100
AcDbCircle
 10
128.5921024135495
 20
-292.7263481132324
 30
536.7480393314695
 40
30.0
210
-0.0000000000000059
220
0.9205048534524403
230
0.3907311284892737
100
AcDbArc
 50
7.256229116904332
 51
90.00014580479671
  0
ARC
  5
9FC
330
1A
100
AcDbEntity
  8
0
100
AcDbCircle
 10
128.5921045847498
 20
-293.6023629597907
 30
538.8118009802302
 40
30.0
210
-0.0000000000000059
220
0.9205048534524403
230
0.3907311284892737
100
AcDbArc
 50
7.256229116904332
 51
90.00014580479671
  0
ARC
  5
9FD
330
1A
100
AcDbEntity
  8
0
100
AcDbCircle
 10
-66.39876772526164
 20
-293.6023629597899
 30
538.8118009802304
 40
30.0
210
0.0000000000000005
220
0.9205048534524403
230
0.3907311284892737
100
AcDbArc
 50
89.99985419520328
 51
172.7437708830956
  0
ARC
  5
9FE
330
1A
100
AcDbEntity
  8
0
100
AcDbCircle
 10
-66.39876555406087
 20
-292.7263481132316
 30
536.7480393314697
 40
30.0
210
0.0000000000000005
220
0.9205048534524403
230
0.3907311284892737
100
AcDbArc
 50
89.99985419520328
 51
172.7437708830956
  0
LINE
  5
9FF
330
1A
100
AcDbEntity
  8
0
100
AcDbLine
 10
96.15850226331851
 20
606.9759114591304
 30
-46.82020369889589
 11
96.68720234296234
 21
618.810847599347
 31
-74.70156600419797
210
0.0000000000000005
220
0.9205048534524403
230
0.3907311284892737
  0
ARC
  5
A00
330
1A
100
AcDbEntity
  8
0
100
AcDbCircle
 10
-66.39876662051026
 20
-297.8058573494143
 30
548.7146131827541
 40
30.0
210
0.0000000000000005
220
0.9205048534524403
230
0.3907311284892737
100
AcDbArc
 50
89.99986476997044
 51
178.9999999999897
  0
LINE
  5
A01
330
1A
100
AcDbEntity
  8
0
100
AcDbLine
 10
-158.3518391228108
 20
606.9759114591295
 30
-46.82020369889589
 11
-158.8805392024546
 21
618.8108475993463
 31
-74.70156600419797
210
-0.0000000000000059
220
0.9205048534524403
230
0.3907311284892737
  0
LINE
  5
A02
330
1A
100
AcDbEntity
  8
0
100
AcDbLine
 10
-146.8466684297445
 20
635.592420303928
 30
-85.96624537264302
 11
-146.8466684297464
 21
624.6519487062287
 31
-60.19210947597527
210
0.0000000000000005
220
0.9205048534524403
230
0.3907311284892737
  0
LINE
  5
A03
330
1A
100
AcDbEntity
  8
0
100
AcDbLine
 10
-147.0966684297459
 20
635.592420303928
 30
-85.96624537264302
 11
-147.0966684297477
 21
624.4565831419836
 31
-59.73185704924823
210
0.0000000000000005
220
0.9205048534524403
230
0.3907311284892737
  0
LINE
  5
A04
330
1A
100
AcDbEntity
  8
0
100
AcDbLine
 10
-147.0966684297446
 20
635.6901030860504
 30
-86.19637158600564
 11
-147.0966684297463
 21
624.5542659241059
 31
-59.96198326261084
210
0.0000000000000005
220
0.9205048534524403
230
0.3907311284892737
  0
LWPOLYLINE
  5
A05
330
1A
100
AcDbEntity
  8
0
100
AcDbPolyline
 90
        8
 70
     1
 43
0.0
 38
545.4498745548165
 10
36.09666842974685
 20
-325.0746141459677
 10
21.09666842974684
 20
-325.0746141459677
 42
0.4142135623730951
 10
19.09666842974685
 20
-327.074614145968
 10
19.09666842974685
 20
-335.0746141459677
 42
0.4142135623730951
 10
21.09666842974685
 20
-337.074614145968
 10
36.09666842974685
 20
-337.074614145968
 42
0.4142135623730951
 10
38.09666842974685
 20
-335.0746141459676
 10
38.09666842974685
 20
-327.074614145968
 42
0.4142135623730984
210
0.0000000000000005
220
0.9205048534524403
230
0.3907311284892737
  0
LINE
  5
A06
330
1A
100
AcDbEntity
  8
0
100
AcDbLine
 10
-145.0966684297477
 20
637.1553448178851
 30
-89.64826478645274
 11
-12.59666842974821
 21
637.1553448178854
 31
-89.64826478645342
210
0.0000000000000005
220
0.9205048534524403
230
0.3907311284892737
  0
LINE
  5
A07
330
1A
100
AcDbEntity
  8
0
100
AcDbLine
 10
-145.0966684297459
 20
636.3738825609066
 30
-87.80725507954777
 11
-12.59666842974821
 21
636.3738825609068
 31
-87.80725507954846
210
0.0000000000000005
220
0.9205048534524403
230
0.3907311284892737
  0
LINE
  5
A08
330
1A
100
AcDbEntity
  8
0
100
AcDbLine
 10
-144.8466684297445
 20
636.3738825609066
 30
-87.80725507954732
 11
-12.84666842974684
 21
636.3738825609068
 31
-87.8072550795489
210
0.0000000000000005
220
0.9205048534524403
230
0.3907311284892737
  0
LINE
  5
A09
330
1A
100
AcDbEntity
  8
0
100
AcDbLine
 10
-145.0966684297446
 20
636.4715653430289
 30
-88.0373812929106
 11
-12.59666842974684
 21
636.4715653430291
 31
-88.03738129291197
210
0.0000000000000005
220
0.9205048534524403
230
0.3907311284892737
  0
LINE
  5
A0A
330
1A
100
AcDbEntity
  8
0
100
AcDbLine
 10
-144.5341388088859
 20
643.7977740022029
 30
-105.2968472951443
 11
-11.59666842974639
 21
643.7977740022026
 31
-105.2968472951447
210
0.0000000000000005
220
0.9205048534524403
230
0.3907311284892737
  0
LINE
  5
A0B
330
1A
100
AcDbEntity
  8
0
100
AcDbLine
 10
-144.3727049607987
 20
643.8954567843252
 30
-105.5269735085073
 11
-11.84666842974638
 21
643.8954567843254
 31
-105.5269735085087
210
0.0000000000000005
220
0.9205048534524403
230
0.3907311284892737
  0
LINE
  5
A0C
330
1A
100
AcDbEntity
  8
0
100
AcDbLine
 10
-145.0966684297477
 20
643.0163117452243
 30
-103.4558375882393
 11
-12.59666842974638
 21
643.0163117452236
 31
-103.4558375882382
210
0.0000000000000005
220
0.9205048534524403
230
0.3907311284892737
  0
LINE
  5
A0D
330
1A
100
AcDbEntity
  8
0
100
AcDbLine
 10
-10.5966684297482
 20
637.936807074864
 30
-91.48927449335817
 11
-10.59666842974638
 21
642.234849488245
 31
-101.6148278813334
210
0.0000000000000005
220
0.9205048534524403
230
0.3907311284892737
  0
ARC
  5
A0E
330
1A
100
AcDbEntity
  8
0
 48
0.25
100
AcDbCircle
 10
-24.40333937278089
 20
-341.4780897431834
 30
551.4762196409107
 40
1.0
210
0.0000000000000005
220
0.9205048534524403
230
0.3907311284892737
100
AcDbArc
 50
270.0
 51
90.0
  0
ARC
  5
A0F
330
1A
100
AcDbEntity
  8
0
 48
0.25
100
AcDbCircle
 10
-87.59083937278134
 20
-341.4780897431831
 30
551.4762196409107
 40
1.0
210
0.0000000000000005
220
0.9205048534524403
230
0.3907311284892737
100
AcDbArc
 50
90.0
 51
270.0
  0
ARC
  5
A10
330
1A
100
AcDbEntity
  8
0
 48
0.25
100
AcDbCircle
 10
-87.90333937278134
 20
-348.4780897431834
 30
551.4762196409107
 40
1.0
210
0.0000000000000005
220
0.9205048534524403
230
0.3907311284892737
100
AcDbArc
 50
90.0
 51
270.0
  0
ARC
  5
A11
330
1A
100
AcDbEntity
  8
0
100
AcDbCircle
 10
11.59666842974633
 20
-355.4780897431843
 30
551.4762196409107
 40
7.0
210
0.0000000000000005
220
0.9205048534524403
230
0.3907311284892737
100
AcDbArc
 50
90.0
 51
180.0
  0
ARC
  5
A12
330
1A
100
AcDbEntity
  8
0
100
AcDbCircle
 10
11.84666842974633
 20
-355.7280897431843
 30
551.4762196409107
 40
7.0
210
0.0000000000000005
220
0.9205048534524403
230
0.3907311284892737
100
AcDbArc
 50
90.00000000000079
 51
180.0
  0
ARC
  5
A13
330
1A
100
AcDbEntity
  8
0
 48
0.25
100
AcDbCircle
 10
-24.40333937278089
 20
-348.4780897431834
 30
551.4762196409107
 40
1.0
210
0.0000000000000005
220
0.9205048534524403
230
0.3907311284892737
100
AcDbArc
 50
270.0
 51
90.0
  0
LINE
  5
A14
330
1A
100
AcDbEntity
  8
0
100
AcDbLine
 10
24.40333937278092
 20
644.1885051306919
 30
-106.2173521485963
 11
87.90333937278091
 21
644.1885051306919
 31
-106.2173521485963
210
0.0000000000000005
220
0.9205048534524403
230
0.3907311284892737
  0
LINE
  5
A15
330
1A
100
AcDbEntity
  8
0
100
AcDbLine
 10
24.40333937278092
 20
641.453387231267
 30
-99.77381817442939
 11
87.59083937278091
 21
641.453387231267
 31
-99.77381817442939
210
0.0000000000000005
220
0.9205048534524403
230
0.3907311284892737
  0
LINE
  5
A16
330
1A
100
AcDbEntity
  8
0
100
AcDbLine
 10
24.40333937278092
 20
643.4070428737133
 30
-104.3763424416916
 11
87.90333937278091
 21
643.4070428737133
 31
-104.3763424416916
210
0.0000000000000005
220
0.9205048534524403
230
0.3907311284892737
  0
ARC
  5
A17
330
1A
100
AcDbEntity
  8
0
100
AcDbCircle
 10
12.59666842974633
 20
-344.4780897431825
 30
551.4762196409107
 40
2.0
210
0.0000000000000005
220
0.9205048534524403
230
0.3907311284892737
100
AcDbArc
 50
180.0
 51
270.0000000000005
  0
ARC
  5
A18
330
1A
100
AcDbEntity
  8
0
 48
0.25
100
AcDbCircle
 10
-87.2783393727818
 20
-334.4780897431832
 30
551.4762196409107
 40
1.0
210
0.0000000000000005
220
0.9205048534524403
230
0.3907311284892737
100
AcDbArc
 50
90.0
 51
270.0
  0
ARC
  5
A19
330
1A
100
AcDbEntity
  8
0
 48
0.25
100
AcDbCircle
 10
-24.40333937278089
 20
-334.4780897431834
 30
551.4762196409107
 40
1.0
210
0.0000000000000005
220
0.9205048534524403
230
0.3907311284892737
100
AcDbArc
 50
270.0
 51
90.0
  0
LINE
  5
A1A
330
1A
100
AcDbEntity
  8
0
100
AcDbLine
 10
24.40333937278092
 20
638.718269331842
 30
-93.33028420026222
 11
87.27833937278138
 21
638.718269331842
 31
-93.33028420026222
210
0.0000000000000005
220
0.9205048534524403
230
0.3907311284892737
  0
LINE
  5
A1B
330
1A
100
AcDbEntity
  8
0
100
AcDbLine
 10
24.40333937278092
 20
640.6719249742884
 30
-97.93280846752443
 11
87.59083937278091
 21
640.6719249742884
 31
-97.93280846752443
210
0.0000000000000005
220
0.9205048534524403
230
0.3907311284892737
  0
LINE
  5
A1C
330
1A
100
AcDbEntity
  8
0
100
AcDbLine
 10
24.40333937278092
 20
635.2016891754385
 30
-85.04574051919032
 11
86.96583937278138
 21
635.2016891754385
 31
-85.04574051919032
210
0.0000000000000005
220
0.9205048534524403
230
0.3907311284892737
  0
LINE
  5
A1D
330
1A
100
AcDbEntity
  8
0
100
AcDbLine
 10
24.40333937278092
 20
635.9831514324171
 30
-86.88675022609528
 11
86.96583937278138
 21
635.9831514324171
 31
-86.88675022609528
210
0.0000000000000005
220
0.9205048534524403
230
0.3907311284892737
  0
ARC
  5
A1E
330
1A
100
AcDbEntity
  8
0
 48
0.25
100
AcDbCircle
 10
-86.9658393727818
 20
-327.4780897431832
 30
551.4762196409107
 40
1.0
210
0.0000000000000005
220
0.9205048534524403
230
0.3907311284892737
100
AcDbArc
 50
90.0
 51
270.0
  0
ARC
  5
A1F
330
1A
100
AcDbEntity
  8
0
100
AcDbCircle
 10
12.59666842974815
 20
-327.4780897431843
 30
551.4762196409107
 40
2.0
210
0.0000000000000005
220
0.9205048534524403
230
0.3907311284892737
100
AcDbArc
 50
179.9999999999989
 51
270.0000000000005
  0
ARC
  5
A20
330
1A
100
AcDbEntity
  8
0
100
AcDbCircle
 10
12.84666842974678
 20
-327.4780897431838
 30
551.4762196409107
 40
2.0
210
0.0000000000000005
220
0.9205048534524403
230
0.3907311284892737
100
AcDbArc
 50
180.0
 51
270.0000000000007
  0
ARC
  5
A21
330
1A
100
AcDbEntity
  8
0
100
AcDbCircle
 10
12.59666842974678
 20
-327.7280897431838
 30
551.4762196409107
 40
2.0
210
0.0000000000000005
220
0.9205048534524403
230
0.3907311284892737
100
AcDbArc
 50
179.9999999999989
 51
270.0000000000005
  0
ARC
  5
A22
330
1A
100
AcDbEntity
  8
0
 48
0.25
100
AcDbCircle
 10
-24.40333937278089
 20
-327.4780897431834
 30
551.4762196409107
 40
1.0
210
0.0000000000000005
220
0.9205048534524403
230
0.3907311284892737
100
AcDbArc
 50
270.0
 51
90.0
  0
LINE
  5
A23
330
1A
100
AcDbEntity
  8
0
100
AcDbLine
 10
24.40333937278092
 20
637.9368070748634
 30
-91.48927449335749
 11
87.27833937278138
 21
637.9368070748634
 31
-91.48927449335749
210
0.0000000000000005
220
0.9205048534524403
230
0.3907311284892737
  0
ARC
  5
A24
330
1A
100
AcDbEntity
  8
0
100
AcDbCircle
 10
12.59666842974815
 20
-333.4780897431843
 30
551.4762196409107
 40
2.0
210
0.0000000000000005
220
0.9205048534524403
230
0.3907311284892737
100
AcDbArc
 50
90.00000000000047
 51
179.9999999999939
  0
LINE
  5
A25
330
1A
100
AcDbEntity
  8
0
100
AcDbLine
 10
-147.0966684297477
 20
637.9368070748637
 30
-91.4892744933577
 11
-147.0966684297477
 21
642.2348494882458
 31
-101.6148278813343
210
0.0000000000000005
220
0.9205048534524403
230
0.3907311284892737
  0
ARC
  5
A26
330
1A
100
AcDbEntity
  8
0
100
AcDbCircle
 10
144.5341388088855
 20
-360.4780897431825
 30
551.4762196409107
 40
12.0
210
0.0000000000000005
220
0.9205048534524403
230
0.3907311284892737
100
AcDbArc
 50
19.61597913540472
 51
90.0
  0
ARC
  5
A27
330
1A
100
AcDbEntity
  8
0
 48
0.25
100
AcDbCircle
 10
144.3727049607988
 20
-360.7280897431825
 30
551.4762196409107
 40
12.0
210
0.0000000000000005
220
0.9205048534524403
230
0.3907311284892737
100
AcDbArc
 50
19.39888991009719
 51
90.00000000000072
  0
ARC
  5
A28
330
1A
100
AcDbEntity
  8
0
100
AcDbCircle
 10
145.0966684297473
 20
-344.4780897431825
 30
551.4762196409107
 40
2.0
210
0.0000000000000005
220
0.9205048534524403
230
0.3907311284892737
100
AcDbArc
 50
270.0000000000005
 51
0.0
  0
LWPOLYLINE
  5
A29
330
1A
100
AcDbEntity
  8
0
100
AcDbPolyline
 90
        8
 70
     1
 43
0.0
 38
545.4498745548161
 10
60.09666842974684
 20
-325.0746141459678
 10
45.09666842974684
 20
-325.0746141459679
 42
0.4142135623730951
 10
43.09666842974684
 20
-327.0746141459678
 10
43.09666842974684
 20
-335.0746141459679
 42
0.4142135623730951
 10
45.09666842974684
 20
-337.074614145968
 10
60.09666842974684
 20
-337.0746141459679
 42
0.4142135623730951
 10
62.09666842974685
 20
-335.0746141459677
 10
62.09666842974685
 20
-327.0746141459679
 42
0.4142135623730984
210
0.0000000000000005
220
0.9205048534524403
230
0.3907311284892737
  0
LWPOLYLINE
  5
A2A
330
1A
100
AcDbEntity
  8
0
100
AcDbPolyline
 90
        8
 70
     1
 43
0.0
 38
545.4498745548168
 10
108.0966684297468
 20
-325.0746141459679
 10
93.09666842974683
 20
-325.074614145968
 42
0.4142135623730951
 10
91.09666842974684
 20
-327.0746141459681
 10
91.09666842974686
 20
-335.0746141459681
 42
0.4142135623730951
 10
93.09666842974685
 20
-337.0746141459682
 10
108.0966684297468
 20
-337.0746141459681
 42
0.4142135623730951
 10
110.0966684297468
 20
-335.074614145968
 10
110.0966684297468
 20
-327.0746141459681
 42
0.4142135623730984
210
0.0000000000000005
220
0.9205048534524403
230
0.3907311284892737
  0
LWPOLYLINE
  5
A2B
330
1A
100
AcDbEntity
  8
0
100
AcDbPolyline
 90
        8
 70
     1
 43
0.0
 38
545.4498745548168
 10
84.09666842974685
 20
-325.074614145968
 10
69.09666842974684
 20
-325.0746141459678
 42
0.4142135623730951
 10
67.09666842974684
 20
-327.0746141459678
 10
67.09666842974685
 20
-335.074614145968
 42
0.4142135623730951
 10
69.09666842974686
 20
-337.0746141459679
 10
84.09666842974685
 20
-337.0746141459682
 42
0.4142135623730951
 10
86.09666842974686
 20
-335.0746141459681
 10
86.09666842974684
 20
-327.0746141459681
 42
0.4142135623730984
210
0.0000000000000005
220
0.9205048534524403
230
0.3907311284892737
  0
LWPOLYLINE
  5
A2C
330
1A
100
AcDbEntity
  8
0
100
AcDbPolyline
 90
        8
 70
     1
 43
0.0
 38
545.4498745548173
 10
132.0966684297468
 20
-324.9566144448134
 10
117.0966684297468
 20
-324.9566144448134
 42
0.4142135623730951
 10
115.0966684297468
 20
-326.956614444813
 10
115.0966684297468
 20
-334.9566144448132
 42
0.4142135623730951
 10
117.0966684297468
 20
-336.9566144448133
 10
132.0966684297468
 20
-336.9566144448136
 42
0.4142135623730951
 10
134.0966684297468
 20
-334.9566144448135
 10
134.0966684297468
 20
-326.9566144448134
 42
0.4142135623730984
210
0.0000000000000005
220
0.9205048534524403
230
0.3907311284892737
  0
ARC
  5
A2D
330
1A
100
AcDbEntity
  8
0
100
AcDbCircle
 10
145.0966684297455
 20
-327.4780897431825
 30
551.4762196409107
 40
2.0
210
0.0000000000000005
220
0.9205048534524403
230
0.3907311284892737
100
AcDbArc
 50
270.0000000000005
 51
359.9999999999988
  0
ARC
  5
A2E
330
1A
100
AcDbEntity
  8
0
100
AcDbCircle
 10
144.8466684297446
 20
-327.478089743182
 30
551.4762196409107
 40
2.0
210
0.0000000000000005
220
0.9205048534524403
230
0.3907311284892737
100
AcDbArc
 50
270.0000000000007
 51
359.9999999999964
  0
ARC
  5
A2F
330
1A
100
AcDbEntity
  8
0
100
AcDbCircle
 10
145.0966684297446
 20
-327.728089743182
 30
551.4762196409107
 40
2.0
210
0.0000000000000005
220
0.9205048534524403
230
0.3907311284892737
100
AcDbArc
 50
270.0000000000005
 51
359.9999999999988
  0
ARC
  5
A30
330
1A
100
AcDbEntity
  8
0
100
AcDbCircle
 10
145.0966684297473
 20
-333.4780897431825
 30
551.4762196409107
 40
2.0
210
0.0000000000000005
220
0.9205048534524403
230
0.3907311284892737
100
AcDbArc
 50
0.0
 51
90.00000000000047
  0
LWPOLYLINE
  5
A31
330
1A
100
AcDbEntity
  8
0
100
AcDbPolyline
 90
        8
 70
     1
 43
0.0
 38
545.4498745548168
 10
36.09666842974679
 20
-301.8386147436596
 10
21.09666842974679
 20
-301.8386147436596
 42
0.4142135623730951
 10
19.09666842974678
 20
-303.8386147436594
 10
19.09666842974684
 20
-311.8386147436592
 42
0.4142135623730951
 10
21.09666842974684
 20
-313.8386147436596
 10
36.09666842974684
 20
-313.8386147436596
 42
0.4142135623730951
 10
38.09666842974684
 20
-311.8386147436593
 10
38.09666842974678
 20
-303.8386147436594
 42
0.4142135623730984
210
0.0000000000000005
220
0.9205048534524403
230
0.3907311284892737
  0
LINE
  5
A32
330
1A
100
AcDbEntity
  8
0
100
AcDbLine
 10
92.45668935018192
 20
625.6644602937361
 30
-62.57743729482901
 11
92.68781156233671
 21
630.838124393196
 31
-74.76582610351944
210
0.0000000000000005
220
0.9205048534524403
230
0.3907311284892737
  0
LINE
  5
A33
330
1A
100
AcDbEntity
  8
0
100
AcDbLine
 10
96.39420038615391
 20
624.2520071881183
 30
-59.24990630434492
 11
96.68720234296234
 21
630.810847599347
 31
-74.70156600419797
210
0.0000000000000005
220
0.9205048534524403
230
0.3907311284892737
  0
LINE
  5
A34
330
1A
100
AcDbEntity
  8
0
100
AcDbLine
 10
96.68720234296143
 20
624.8108475993469
 30
-74.70156600419763
 11
96.39419747520197
 21
621.2519073539908
 31
-59.24990630434587
  0
LINE
  5
A35
330
1A
100
AcDbEntity
  8
0
100
AcDbLine
 10
96.68720234296143
 20
625.8108475993469
 30
-74.70156600419763
 11
96.39419839741186
 21
622.2519102462213
 31
-59.24990630434582
  0
LINE
  5
A36
330
1A
100
AcDbEntity
  8
0
100
AcDbLine
 10
24.40333937278092
 20
632.4665712760136
 30
-78.60220654502315
 11
86.65333937278138
 21
632.4665712760136
 31
-78.60220654502315
210
0.0000000000000005
220
0.9205048534524403
230
0.3907311284892737
  0
LINE
  5
A37
330
1A
100
AcDbEntity
  8
0
100
AcDbLine
 10
24.40333937278092
 20
633.2480335329921
 30
-80.44321625192813
 11
86.65333937278138
 21
633.2480335329921
 31
-80.44321625192813
210
0.0000000000000005
220
0.9205048534524403
230
0.3907311284892737
  0
ARC
  5
A38
330
1A
100
AcDbEntity
  8
0
 48
0.25
100
AcDbCircle
 10
-86.6533393727818
 20
-320.4780897431833
 30
551.4762196409107
 40
1.0
210
0.0000000000000005
220
0.9205048534524403
230
0.3907311284892737
100
AcDbArc
 50
90.0
 51
270.0
  0
ARC
  5
A39
330
1A
100
AcDbEntity
  8
0
 48
0.25
100
AcDbCircle
 10
-24.40333937278089
 20
-320.4780897431835
 30
551.4762196409107
 40
1.0
210
0.0000000000000005
220
0.9205048534524403
230
0.3907311284892737
100
AcDbArc
 50
270.0
 51
90.0
  0
LINE
  5
A3A
330
1A
100
AcDbEntity
  8
0
100
AcDbLine
 10
24.40333937278092
 20
629.7314533765886
 30
-72.15867257085621
 11
86.34083937278138
 21
629.7314533765886
 31
-72.15867257085621
210
0.0000000000000005
220
0.9205048534524403
230
0.3907311284892737
  0
LINE
  5
A3B
330
1A
100
AcDbEntity
  8
0
100
AcDbLine
 10
24.40333937278092
 20
630.5129156335672
 30
-73.99968227776096
 11
86.34083937278138
 21
630.5129156335672
 31
-73.99968227776096
210
0.0000000000000005
220
0.9205048534524403
230
0.3907311284892737
  0
ARC
  5
A3C
330
1A
100
AcDbEntity
  8
0
 48
0.25
100
AcDbCircle
 10
-86.3408393727818
 20
-313.4780897431832
 30
551.4762196409107
 40
1.0
210
0.0000000000000005
220
0.9205048534524403
230
0.3907311284892737
100
AcDbArc
 50
90.0
 51
270.0
  0
ARC
  5
A3D
330
1A
100
AcDbEntity
  8
0
 48
0.25
100
AcDbCircle
 10
-24.40333937278089
 20
-313.4780897431835
 30
551.4762196409107
 40
1.0
210
0.0000000000000005
220
0.9205048534524403
230
0.3907311284892737
100
AcDbArc
 50
270.0
 51
90.0
  0
LINE
  5
A3E
330
1A
100
AcDbEntity
  8
0
100
AcDbLine
 10
24.40333937278092
 20
626.9963354771637
 30
-65.71513859668904
 11
86.02833937278138
 21
626.9963354771637
 31
-65.71513859668904
210
0.0000000000000005
220
0.9205048534524403
230
0.3907311284892737
  0
LINE
  5
A3F
330
1A
100
AcDbEntity
  8
0
100
AcDbLine
 10
24.40333937278092
 20
627.7777977341422
 30
-67.55614830359402
 11
86.02833937278138
 21
627.7777977341422
 31
-67.55614830359402
210
0.0000000000000005
220
0.9205048534524403
230
0.3907311284892737
  0
ARC
  5
A40
330
1A
100
AcDbEntity
  8
0
 48
0.25
100
AcDbCircle
 10
-86.0283393727818
 20
-306.4780897431835
 30
551.4762196409107
 40
1.0
210
0.0000000000000005
220
0.9205048534524403
230
0.3907311284892737
100
AcDbArc
 50
90.0
 51
270.0
  0
ARC
  5
A41
330
1A
100
AcDbEntity
  8
0
 48
0.25
100
AcDbCircle
 10
-24.40333937278089
 20
-306.4780897431835
 30
551.4762196409107
 40
1.0
210
0.0000000000000005
220
0.9205048534524403
230
0.3907311284892737
100
AcDbArc
 50
270.0
 51
90.0
  0
LINE
  5
A42
330
1A
100
AcDbEntity
  8
0
100
AcDbLine
 10
24.40333937278092
 20
625.0426798347173
 30
-61.11261432942685
 11
85.71583937278138
 21
625.0426798347173
 31
-61.11261432942685
210
0.0000000000000005
220
0.9205048534524403
230
0.3907311284892737
  0
LINE
  5
A43
330
1A
100
AcDbEntity
  8
0
100
AcDbLine
 10
24.40333937278092
 20
624.2612175777387
 30
-59.27160462252188
 11
85.71583937278138
 21
624.2612175777387
 31
-59.27160462252188
210
0.0000000000000005
220
0.9205048534524403
230
0.3907311284892737
  0
ARC
  5
A44
330
1A
100
AcDbEntity
  8
0
 48
0.25
100
AcDbCircle
 10
-85.7158393727818
 20
-299.4780897431836
 30
551.4762196409107
 40
1.0
210
0.0000000000000005
220
0.9205048534524403
230
0.3907311284892737
100
AcDbArc
 50
90.0
 51
270.0
  0
ARC
  5
A45
330
1A
100
AcDbEntity
  8
0
 48
0.25
100
AcDbCircle
 10
-24.40333937278089
 20
-299.4780897431836
 30
551.4762196409107
 40
1.0
210
0.0000000000000005
220
0.9205048534524403
230
0.3907311284892737
100
AcDbArc
 50
270.0
 51
90.0
  0
LWPOLYLINE
  5
A46
330
1A
100
AcDbEntity
  8
0
100
AcDbPolyline
 90
        8
 70
     1
 43
0.0
 38
545.4498745548177
 10
132.0966684297468
 20
-301.9566144448134
 10
117.0966684297468
 20
-301.9566144448134
 42
0.4142135623730951
 10
115.0966684297468
 20
-303.9566144448134
 10
115.0966684297468
 20
-311.9566144448133
 42
0.4142135623730951
 10
117.0966684297468
 20
-313.9566144448137
 10
132.0966684297468
 20
-313.9566144448137
 42
0.4142135623730951
 10
134.0966684297468
 20
-311.9566144448137
 10
134.0966684297468
 20
-303.9566144448134
 42
0.4142135623730984
210
0.0000000000000005
220
0.9205048534524403
230
0.3907311284892737
  0
LWPOLYLINE
  5
A47
330
1A
100
AcDbEntity
  8
0
100
AcDbPolyline
 90
        8
 70
     1
 43
0.0
 38
545.4498745548177
 10
60.09666842974678
 20
-301.8386147436595
 10
45.09666842974678
 20
-301.8386147436596
 42
0.4142135623730951
 10
43.09666842974678
 20
-303.8386147436597
 10
43.09666842974684
 20
-311.8386147436596
 42
0.4142135623730951
 10
45.09666842974684
 20
-313.8386147436598
 10
60.09666842974684
 20
-313.8386147436598
 42
0.4142135623730951
 10
62.09666842974684
 20
-311.8386147436595
 10
62.09666842974678
 20
-303.8386147436598
 42
0.4142135623730984
210
0.0000000000000005
220
0.9205048534524403
230
0.3907311284892737
  0
LINE
  5
A48
330
1A
100
AcDbEntity
  8
0
100
AcDbLine
 10
-154.6658582965642
 20
626.0190357646384
 30
-63.41276475681685
 11
-154.8811406193003
 21
630.8381243931949
 31
-74.76582610351603
210
0.0000000000000005
220
0.9205048534524403
230
0.3907311284892737
  0
LINE
  5
A49
330
1A
100
AcDbEntity
  8
0
100
AcDbLine
 10
-158.5966684297459
 20
624.4565831419845
 30
-59.73185704924983
 11
-158.880531399926
 21
630.8108475993467
 31
-74.70156600419615
210
0.0000000000000005
220
0.9205048534524403
230
0.3907311284892737
  0
LINE
  5
A61
330
1A
100
AcDbEntity
  8
0
100
AcDbLine
 10
728.7787447094024
 20
638.4662168529457
 30
0.0
 11
652.5292021402647
 21
605.678913548209
 31
0.0
  0
LINE
  5
A62
330
1A
100
AcDbEntity
  8
0
100
AcDbLine
 10
660.2774542615016
 20
593.7712262752511
 30
0.0
 11
729.5064869645966
 21
623.5397103375953
 31
0.0
  0
LINE
  5
A63
330
1A
100
AcDbEntity
  8
0
100
AcDbLine
 10
655.3654995266943
 20
596.013210220738
 30
0.0
 11
725.3192821815046
 21
626.0933367623197
 31
0.0
  0
ARC
  5
A64
330
1A
100
AcDbEntity
  8
0
100
AcDbCircle
 10
688.1693554174271
 20
578.5554916781079
 30
0.0
 40
10.0
100
AcDbArc
 50
212.1483639605883
 51
270.0000000000021
  0
LINE
  5
A65
330
1A
100
AcDbEntity
  8
0
100
AcDbLine
 10
767.886492024686
 20
667.2563905224697
 30
0.0
 11
667.4392324052287
 21
624.0640688859047
 31
0.0
  0
LINE
  5
A66
330
1A
100
AcDbEntity
  8
0
100
AcDbLine
 10
772.2317972819582
 20
657.1510294590516
 30
0.0
 11
651.610532952779
 21
605.2838857973179
 31
0.0
  0
LINE
  5
A67
330
1A
100
AcDbEntity
  8
0
100
AcDbLine
 10
797.3518875471254
 20
667.0818433768813
 30
0.0
 11
652.7575684225976
 21
604.9062861530488
 31
0.0
  0
LINE
  5
A68
330
1A
100
AcDbEntity
  8
0
100
AcDbLine
 10
796.2366231534042
 20
666.3845734635079
 30
0.0
 11
652.9242298909239
 21
604.7602443606292
 31
0.0
  0
LINE
  5
A76
330
1A
100
AcDbEntity
  8
0
100
AcDbLine
 10
93.87562432765935
 20
603.7510851017962
 30
-43.11698143494022
 11
91.4344792266702
 21
581.8306779107704
 31
-8.751149680899985
  0
LINE
  5
A77
330
1A
100
AcDbEntity
  8
0
 48
0.25
100
AcDbLine
 10
91.46369337481065
 20
581.917725398034
 30
-24.12716443980396
 11
90.81288215712083
 21
601.644391679142
 31
-39.81419751634566
  0
LINE
  5
A78
330
1A
100
AcDbEntity
  8
0
100
AcDbLine
 10
-156.0689611871517
 20
603.7510851017955
 30
-43.11698143494022
 11
-153.627816086162
 21
581.8306779107688
 31
-8.751149680898734
  0
LINE
  5
A79
330
1A
100
AcDbEntity
  8
0
 48
0.25
100
AcDbLine
 10
-153.6570302343029
 20
581.9177253980342
 30
-24.12716443980393
 11
-153.0062190166131
 21
601.6443916791413
 31
-39.81419751634566
  0
LINE
  5
A7A
330
1A
100
AcDbEntity
  8
0
100
AcDbLine
 10
-126.8466684297464
 20
616.8373261364425
 30
-41.78201240692511
 11
-12.84666842974684
 21
616.8373261364433
 31
-41.78201240692693
210
0.0000000000000005
220
0.9205048534524403
230
0.3907311284892737
  0
LINE
  5
A7B
330
1A
100
AcDbEntity
  8
0
100
AcDbLine
 10
66.39869581423273
 20
609.7345494532435
 30
-32.11671144567591
 11
-128.758345736695
 21
609.7347294284934
 31
-32.11671144567591
  0
LINE
  5
A7C
330
1A
100
AcDbEntity
  8
0
100
AcDbLine
 10
-128.5966684297464
 20
615.8604983152201
 30
-39.48075027329629
 11
-1.096668429746387
 21
615.8604983152197
 31
-39.48075027329539
210
0.0000000000000005
220
0.9205048534524403
230
0.3907311284892737
  0
LINE
  5
A7D
330
1A
100
AcDbEntity
  8
0
100
AcDbLine
 10
-127.0966684297482
 20
616.6419605721978
 30
-41.32175998019945
 11
-12.59666842974821
 21
616.6419605721983
 31
-41.32175998020012
210
0.0000000000000005
220
0.9205048534524403
230
0.3907311284892737
  0
LINE
  5
A7E
330
1A
100
AcDbEntity
  8
0
100
AcDbLine
 10
-127.0966684297468
 20
616.7396433543205
 30
-41.55188619356296
 11
-12.59666842974684
 21
616.739643354321
 31
-41.55188619356387
210
0.0000000000000005
220
0.9205048534524403
230
0.3907311284892737
  0
LINE
  5
A7F
330
1A
100
AcDbEntity
  8
0
100
AcDbLine
 10
-128.5966684297464
 20
612.7346492873059
 30
-32.11671144567664
 11
-1.096668429746387
 21
612.7346492873055
 31
-32.11671144567573
210
0.0000000000000005
220
0.9205048534524403
230
0.3907311284892737
  0
LINE
  5
A80
330
1A
100
AcDbEntity
  8
0
100
AcDbLine
 10
28.00674189550955
 20
596.7345759418965
 30
-32.11671144567591
 11
-128.7629090197924
 21
596.7347277617252
 31
-32.11671144567591
  0
LINE
  5
A81
330
1A
100
AcDbEntity
  8
0
100
AcDbLine
 10
42.73322733801615
 20
598.976550382734
 30
-32.11671144567591
 11
-128.7628296551202
 21
598.9767164639995
 31
-32.11671144567591
  0
ARC
  5
A82
330
1A
100
AcDbEntity
  8
0
100
AcDbCircle
 10
12.59666842974815
 20
-280.9780897431845
 30
551.4762196409107
 40
2.0
210
0.0000000000000005
220
0.9205048534524403
230
0.3907311284892737
100
AcDbArc
 50
90.00000000000047
 51
179.9999999999988
  0
ARC
  5
A83
330
1A
100
AcDbEntity
  8
0
100
AcDbCircle
 10
12.84666842974678
 20
-281.4780897431841
 30
551.4762196409107
 40
2.0
210
0.0000000000000005
220
0.9205048534524403
230
0.3907311284892737
100
AcDbArc
 50
90.00000000000088
 51
180.0
  0
ARC
  5
A84
330
1A
100
AcDbEntity
  8
0
100
AcDbCircle
 10
12.59666842974678
 20
-281.228089743185
 30
551.4762196409107
 40
2.0
210
0.0000000000000005
220
0.9205048534524403
230
0.3907311284892737
100
AcDbArc
 50
90.00000000000047
 51
179.9999999999988
  0
LINE
  5
A85
330
1A
100
AcDbEntity
  8
0
100
AcDbLine
 10
24.40333937278092
 20
621.5260996783138
 30
-52.82807064835494
 11
85.40333937278182
 21
621.5260996783138
 31
-52.82807064835494
210
0.0000000000000005
220
0.9205048534524403
230
0.3907311284892737
  0
LINE
  5
A86
330
1A
100
AcDbEntity
  8
0
100
AcDbLine
 10
24.40333937278092
 20
622.3075619352924
 30
-54.66908035525968
 11
85.40333937278182
 21
622.3075619352924
 31
-54.66908035525968
210
0.0000000000000005
220
0.9205048534524403
230
0.3907311284892737
  0
ARC
  5
A87
330
1A
100
AcDbEntity
  8
0
 48
0.25
100
AcDbCircle
 10
-85.40333937278225
 20
-292.4780897431845
 30
551.4762196409107
 40
1.0
210
0.0000000000000005
220
0.9205048534524403
230
0.3907311284892737
100
AcDbArc
 50
90.0
 51
270.0
  0
ARC
  5
A88
330
1A
100
AcDbEntity
  8
0
 48
0.25
100
AcDbCircle
 10
-24.40333937278089
 20
-292.4780897431836
 30
551.4762196409107
 40
1.0
210
0.0000000000000005
220
0.9205048534524403
230
0.3907311284892737
100
AcDbArc
 50
270.0
 51
90.0
  0
LINE
  5
A89
330
1A
100
AcDbEntity
  8
0
100
AcDbLine
 10
-0.596660627217716
 20
615.8604983152192
 30
-39.48075027329448
 11
66.2137884714989
 21
615.8604983152192
 31
-39.48075027329448
210
0.0000000000000005
220
0.9205048534524403
230
0.3907311284892737
  0
LINE
  5
A8A
330
1A
100
AcDbEntity
  8
0
100
AcDbLine
 10
66.39868921084826
 20
596.7345377679232
 30
-32.11671144567591
 11
35.00674189550955
 21
596.73456898164
 31
-32.11671144567591
  0
LINE
  5
A8B
330
1A
100
AcDbEntity
  8
0
100
AcDbLine
 10
66.39869138204858
 20
598.9765266515457
 30
-32.11671144567591
 11
35.00674406670987
 21
598.9765578652625
 31
-32.11671144567591
  0
LINE
  5
A8C
330
1A
100
AcDbEntity
  8
0
 48
0.25
100
AcDbLine
 10
28.00674189550955
 20
597.4013105158499
 30
-32.11671144567591
 11
28.00674189550955
 21
590.2586922574689
 31
-32.11671144567591
  0
LINE
  5
A8D
330
1A
100
AcDbEntity
  8
0
 48
0.25
100
AcDbLine
 10
35.00674189550955
 20
597.4013105158499
 30
-32.11671144567591
 11
35.00674189550955
 21
590.2586922574698
 31
-32.11671144567591
  0
LINE
  5
A8E
330
1A
100
AcDbEntity
  8
0
 48
0.25
100
AcDbLine
 10
35.00674189550955
 20
597.4013105158499
 30
-32.11671144567591
 11
28.00674189550955
 21
597.4013105158499
 31
-32.11671144567591
  0
ELLIPSE
  5
A8F
330
1A
100
AcDbEntity
  8
0
 48
0.25
100
AcDbEllipse
 10
31.50674189550955
 20
590.2586922574698
 30
-32.11671144567591
 11
-0.0000000000000004
 21
-7.142618258379116
 31
0.0
210
0.0
220
0.0
230
1.0
 40
0.4900163880232709
 41
4.712388980384689
 42
7.853981633974482
  0
LINE
  5
A90
330
1A
100
AcDbEntity
  8
0
100
AcDbLine
 10
-0.596660627217716
 20
612.7346492873055
 30
-32.11671144567505
 11
66.39876953146131
 21
612.7346492873055
 31
-32.11671144567505
210
0.0000000000000005
220
0.9205048534524403
230
0.3907311284892737
  0
LINE
  5
A91
330
1A
100
AcDbEntity
  8
0
100
AcDbLine
 10
66.39869119950754
 20
610.7345523454839
 30
-32.11671144567591
 11
0.504523412488652
 21
610.7346178655314
 31
-32.11671144567591
  0
LINE
  5
A92
330
1A
100
AcDbEntity
  8
0
 48
0.25
100
AcDbLine
 10
0.504523412488652
 20
609.7345124673563
 30
-32.11671144567591
 11
0.504523412488652
 21
612.7346178655328
 31
-32.11671144567591
  0
LINE
  5
A93
330
1A
100
AcDbEntity
  8
0
100
AcDbLine
 10
-1.096668429746387
 20
613.1253804157948
 30
-33.03721629912822
 11
-0.5966684297463872
 21
613.1253804157948
 31
-33.03721629912822
210
0.0000000000000005
220
0.9205048534524403
230
0.3907311284892737
  0
ARC
  5
A94
330
1A
100
AcDbEntity
  8
0
100
AcDbCircle
 10
-21.18000761480107
 20
566.6764420860943
 30
-0.0000000000000142
 40
2.0
100
AcDbArc
 50
180.0
 51
270.0
  0
LINE
  5
A95
330
1A
100
AcDbEntity
  8
0
 48
0.25
100
AcDbLine
 10
-11.08000761480252
 20
505.0714915406443
 30
-0.0000000000000142
 11
-51.28000761480143
 21
505.0714915406443
 31
-0.0000000000000142
  0
LINE
  5
A96
330
1A
100
AcDbEntity
  8
0
 48
0.25
100
AcDbLine
 10
61.70388195672467
 20
571.6763517067879
 30
-0.0000000000001279
 11
-124.0638971863268
 21
571.6765324654445
 31
0.0000000000001279
  0
LINE
  5
A97
330
1A
100
AcDbEntity
  8
0
100
AcDbLine
 10
-144.680007414508
 20
412.1764420861086
 30
0.0
 11
82.31999218492774
 21
412.176442086124
 31
0.0
  0
LINE
  5
A98
330
1A
100
AcDbEntity
  8
0
100
AcDbLine
 10
29.06274140332738
 20
317.6765349252023
 30
0.0
 11
-57.86629889589182
 21
317.6765349252023
 31
0.0
  0
LINE
  5
A99
330
1A
100
AcDbEntity
  8
0
100
AcDbLine
 10
-156.1800074145071
 20
352.1764420861132
 30
0.0
 11
93.81999218492774
 21
352.1764420861168
 31
0.0
  0
LINE
  5
A9A
330
1A
100
AcDbEntity
  8
0
100
AcDbLine
 10
57.13370110411455
 20
332.6765349251969
 30
0.0
 11
-138.1800075289061
 21
332.6765349252042
 31
0.0
  0
LINE
  5
A9B
330
1A
100
AcDbEntity
  8
0
 48
0.25
100
AcDbLine
 10
-11.08000761480252
 20
518.0714915406438
 30
-0.0000000000000142
 11
-11.08000761480252
 21
477.0714915406438
 31
-0.0000000000000142
  0
LINE
  5
A9C
330
1A
100
AcDbEntity
  8
0
 48
0.25
100
AcDbLine
 10
-8.680007614801979
 20
473.271491540644
 30
-0.0000000000000142
 11
-8.680007614801979
 21
518.0714915406428
 31
-0.0000000000000142
  0
LINE
  5
A9D
330
1A
100
AcDbEntity
  8
0
 48
0.25
100
AcDbLine
 10
10.31999238519711
 20
474.2585067461373
 30
-0.0000000000000142
 11
10.31999238519802
 21
522.2844763351509
 31
-0.0000000000000142
  0
LINE
  5
A9E
330
1A
100
AcDbEntity
  8
0
 48
0.25
100
AcDbLine
 10
10.81999238519893
 20
475.7714915406436
 30
-0.0000000000000142
 11
10.81999238519802
 21
520.771491540644
 31
-0.0000000000000142
  0
LINE
  5
A9F
330
1A
100
AcDbEntity
  8
0
 48
0.25
100
AcDbLine
 10
-11.18000761480016
 20
505.0714915406443
 30
-0.0000000000000142
 11
-11.18000761479925
 21
431.1195516878547
 31
-0.0000000000000142
  0
LINE
  5
AA0
330
1A
100
AcDbEntity
  8
0
100
AcDbLine
 10
93.81999218492774
 20
400.6764420861241
 30
0.0
 11
93.81999218493229
 21
352.1764420861178
 31
0.0
  0
LINE
  5
AB8
330
1A
100
AcDbEntity
  8
0
100
AcDbLine
 10
57.13370110411545
 20
332.6765349251932
 30
0.0
 11
75.81999273913919
 21
332.6765349251914
 31
0.0
  0
ARC
  5
AB9
330
1A
100
AcDbEntity
  8
0
100
AcDbCircle
 10
75.81999273914011
 20
340.6765349252023
 30
0.0
 40
8.0
100
AcDbArc
 50
270.0
 51
0.0
  0
LINE
  5
ABA
330
1A
100
AcDbEntity
  8
0
100
AcDbLine
 10
83.81999273914017
 20
352.176442086115
 30
0.0
 11
83.81999273914017
 21
340.6765349252023
 31
0.0
  0
LINE
  5
ABB
330
1A
100
AcDbEntity
  8
0
100
AcDbLine
 10
64.31439529936454
 20
332.6765349251905
 30
0.0
 11
53.3255022982998
 21
332.6765349251905
 31
0.0
  0
ARC
  5
ACC
330
1A
100
AcDbEntity
  8
0
 48
0.25
100
AcDbCircle
 10
-13.08000761480252
 20
477.071491540644
 30
-0.0000000000000142
 40
2.0
100
AcDbArc
 50
341.8051276612387
 51
0.0
  0
LINE
  5
ACD
330
1A
100
AcDbEntity
  8
0
 48
0.25
100
AcDbLine
 10
9.833145726241127
 20
473.758679786461
 30
-0.0000000000000142
 11
-8.680007614801979
 21
473.271491540644
 31
-0.0000000000000142
  0
ARC
  5
ACE
330
1A
100
AcDbEntity
  8
0
 48
0.25
100
AcDbCircle
 10
10.31999238519893
 20
475.7714915406434
 30
-0.0000000000000142
 40
0.5
100
AcDbArc
 50
270.0
 51
0.0
  0
ARC
  5
ACF
330
1A
100
AcDbEntity
  8
0
 48
0.25
100
AcDbCircle
 10
9.81999238519711
 20
474.258506746137
 30
-0.0000000000000142
 40
0.5
100
AcDbArc
 50
271.5074357587749
 51
0.0
  0
ARC
  5
AD0
330
1A
100
AcDbEntity
  8
0
100
AcDbCircle
 10
82.31999218492768
 20
400.6764420861231
 30
0.0
 40
11.5
100
AcDbArc
 50
359.9999999999984
 51
90.0
  0
LINE
  5
AD1
330
1A
100
AcDbEntity
  8
0
100
AcDbLine
 10
-11.18005598922036
 20
412.1764420861167
 30
0.0
 11
-11.18005598922127
 21
469.2115899738014
 31
0.0
  0
LINE
  5
AD2
330
1A
100
AcDbEntity
  8
0
100
AcDbLine
 10
33.31999238519893
 20
564.6764420860945
 30
-0.0000000000000142
 11
-21.18000761480107
 21
564.6764420860945
 31
-0.0000000000000142
  0
LINE
  5
AD3
330
1A
100
AcDbEntity
  8
0
100
AcDbLine
 10
34.81999238519893
 20
566.1764420860945
 30
-0.0000000000000142
 11
34.81999238519893
 21
568.6763778657689
 31
-0.0000000000000142
  0
ARC
  5
AD4
330
1A
100
AcDbEntity
  8
0
100
AcDbCircle
 10
33.31999238519893
 20
566.1764420860943
 30
-0.0000000000000142
 40
1.5
100
AcDbArc
 50
270.0
 51
0.0
  0
LINE
  5
AD5
330
1A
100
AcDbEntity
  8
0
 48
0.25
100
AcDbLine
 10
46.40333157025543
 20
568.6763665947678
 30
-0.0000000000000995
 11
11.40333157024952
 21
568.6764006510127
 31
-0.0000000000000426
  0
LINE
  5
AD6
330
1A
100
AcDbEntity
  8
0
 48
0.25
100
AcDbLine
 10
8.81999238519802
 20
518.0714915406438
 30
-0.0000000000000142
 11
-11.08000761480252
 21
518.0714915406433
 31
-0.0000000000000142
  0
ARC
  5
AD7
330
1A
100
AcDbEntity
  8
0
 48
0.25
100
AcDbCircle
 10
9.81999238519802
 20
522.2844763351506
 30
-0.0000000000000142
 40
0.5
100
AcDbArc
 50
0.0
 51
88.49256424122506
  0
ARC
  5
AD8
330
1A
100
AcDbEntity
  8
0
 48
0.25
100
AcDbCircle
 10
10.31999238519802
 20
520.7714915406438
 30
-0.0000000000000142
 40
0.5
100
AcDbArc
 50
0.0
 51
90.0
  0
LINE
  5
AD9
330
1A
100
AcDbEntity
  8
0
 48
0.25
100
AcDbLine
 10
9.833145726242037
 20
522.7843032948271
 30
-0.0000000000000142
 11
9.310778813248361
 21
522.7980497925373
 31
-0.0000000000000142
  0
LINE
  5
ADA
330
1A
100
AcDbEntity
  8
0
 48
0.25
100
AcDbLine
 10
13.65925935043196
 20
564.6764420860945
 30
-0.0000000000000142
 11
8.81999238519802
 21
518.0714915406438
 31
-0.0000000000000142
  0
LINE
  5
ADB
330
1A
100
AcDbEntity
  8
0
 48
0.25
100
AcDbLine
 10
-4.240740649569033
 20
564.6764420860945
 30
-0.0000000000000142
 11
-9.080007614802525
 21
518.0714915406438
 31
-0.0000000000000142
  0
LINE
  5
ADE
330
1A
100
AcDbEntity
  8
0
 48
0.25
100
AcDbLine
 10
-51.18000761480288
 20
505.0714915406443
 30
-0.0000000000000142
 11
-51.18000761480335
 21
430.1432270602276
 31
-0.0000000000000142
  0
LINE
  5
ADF
330
1A
100
AcDbEntity
  8
0
 48
0.25
100
AcDbLine
 10
-51.28000761480143
 20
518.0714915406438
 30
-0.0000000000000142
 11
-51.28000761480143
 21
477.0714915406442
 31
-0.0000000000000142
  0
LINE
  5
AE0
330
1A
100
AcDbEntity
  8
0
 48
0.25
100
AcDbLine
 10
-53.68000761480198
 20
473.271491540644
 30
-0.0000000000000142
 11
-53.68000761480198
 21
518.0714915406443
 31
-0.0000000000000142
  0
LINE
  5
AE1
330
1A
100
AcDbEntity
  8
0
 48
0.25
100
AcDbLine
 10
-73.18000761480289
 20
475.7714915406436
 30
-0.0000000000000142
 11
-73.18000761480198
 21
520.771491540644
 31
-0.0000000000000142
  0
LINE
  5
AE2
330
1A
100
AcDbEntity
  8
0
 48
0.25
100
AcDbLine
 10
-72.68000761480107
 20
474.2585067461373
 30
-0.0000000000000142
 11
-72.68000761480198
 21
522.2844763351509
 31
-0.0000000000000142
  0
LINE
  5
AE3
330
1A
100
AcDbEntity
  8
0
100
AcDbLine
 10
-156.180007414508
 20
400.6764420861068
 30
0.0
 11
-156.1800074145071
 21
352.176442086115
 31
0.0
  0
LINE
  5
AE6
330
1A
100
AcDbEntity
  8
0
100
AcDbLine
 10
-73.83686164437
 20
330.3333891746938
 30
0.0
 11
-63.52315314538333
 21
320.019680675709
 31
0.0
  0
LINE
  5
AFB
330
1A
100
AcDbEntity
  8
0
100
AcDbLine
 10
-101.893075624515
 20
328.5555158457542
 30
0.0
 11
-114.6799640284103
 21
328.5555158513731
 31
0.0
  0
LINE
  5
AFE
330
1A
100
AcDbEntity
  8
0
100
AcDbLine
 10
-101.893075624515
 20
328.5555158457542
 30
0.0
 11
-101.893075624515
 21
332.6765349252033
 31
0.0
  0
ARC
  5
AFF
330
1A
100
AcDbEntity
  8
0
100
AcDbCircle
 10
-79.49371589386061
 20
324.6765349252023
 30
0.0
 40
8.0
100
AcDbArc
 50
44.9999999999968
 51
90.00000000000003
  0
ARC
  5
B02
330
1A
100
AcDbEntity
  8
0
100
AcDbCircle
 10
-138.1800075289062
 20
340.6765349252041
 30
0.0
 40
8.0
100
AcDbArc
 50
180.0
 51
270.0
  0
LINE
  5
B03
330
1A
100
AcDbEntity
  8
0
100
AcDbLine
 10
-146.1800075289061
 20
352.176442086115
 30
0.0
 11
-146.1800075289061
 21
340.6765349252041
 31
0.0
  0
LINE
  5
B04
330
1A
100
AcDbEntity
  8
0
100
AcDbLine
 10
-126.674410528944
 20
332.6765349251906
 30
0.0
 11
-115.6855175278793
 21
332.6765349251906
 31
0.0
  0
ARC
  5
B11
330
1A
100
AcDbEntity
  8
0
100
AcDbCircle
 10
-57.86629889589182
 20
325.6765349252023
 30
0.0
 40
8.0
100
AcDbArc
 50
225.0000000000063
 51
270.0
  0
LINE
  5
B14
330
1A
100
AcDbEntity
  8
0
 48
0.25
100
AcDbLine
 10
-72.19316095584509
 20
473.758679786461
 30
-0.0000000000000142
 11
-53.68000761480198
 21
473.271491540644
 31
-0.0000000000000142
  0
ARC
  5
B15
330
1A
100
AcDbEntity
  8
0
 48
0.25
100
AcDbCircle
 10
-49.28000761480143
 20
477.0714915406444
 30
-0.0000000000000142
 40
2.0
100
AcDbArc
 50
180.0
 51
198.1948723388026
  0
ARC
  5
B16
330
1A
100
AcDbEntity
  8
0
 48
0.25
100
AcDbCircle
 10
-72.18000761480107
 20
474.258506746137
 30
-0.0000000000000142
 40
0.5
100
AcDbArc
 50
180.0
 51
268.4925642412251
  0
ARC
  5
B17
330
1A
100
AcDbEntity
  8
0
 48
0.25
100
AcDbCircle
 10
-72.68000761480289
 20
475.7714915406434
 30
-0.0000000000000142
 40
0.5
100
AcDbArc
 50
180.0
 51
270.0
  0
LINE
  5
B18
330
1A
100
AcDbEntity
  8
0
100
AcDbLine
 10
-51.18005599882645
 20
412.1764420861159
 30
0.0
 11
-51.18005599229627
 21
469.2115899738023
 31
0.0
  0
ARC
  5
B19
330
1A
100
AcDbEntity
  8
0
100
AcDbCircle
 10
-144.6800074145081
 20
400.6764420861077
 30
0.0
 40
11.5
100
AcDbArc
 50
90.00000000000609
 51
180.0000000000077
  0
LINE
  5
B1A
330
1A
100
AcDbEntity
  8
0
100
AcDbLine
 10
-41.18000761480106
 20
564.6764420860945
 30
-0.0000000000000142
 11
-95.68000761480107
 21
564.6764420860945
 31
-0.0000000000000142
  0
ARC
  5
B1B
330
1A
100
AcDbEntity
  8
0
100
AcDbCircle
 10
-41.18000761480106
 20
566.6764420860943
 30
-0.0000000000000142
 40
2.0
100
AcDbArc
 50
270.0
 51
0.0
  0
LINE
  5
B1C
330
1A
100
AcDbEntity
  8
0
 48
0.25
100
AcDbLine
 10
-73.59666842974047
 20
568.6764833590359
 30
0.0000000000000426
 11
-108.5966684297459
 21
568.676517415281
 31
0.0000000000000995
  0
LINE
  5
B1D
330
1A
100
AcDbEntity
  8
0
100
AcDbLine
 10
-97.18000761480107
 20
566.1764420860945
 30
-0.0000000000000142
 11
-97.18000761480107
 21
568.676506306464
 31
-0.0000000000000142
  0
ARC
  5
B1E
330
1A
100
AcDbEntity
  8
0
100
AcDbCircle
 10
-95.68000761480107
 20
566.1764420860943
 30
-0.0000000000000142
 40
1.5
100
AcDbArc
 50
180.0
 51
270.0
  0
LINE
  5
B1F
330
1A
100
AcDbEntity
  8
0
 48
0.25
100
AcDbLine
 10
-51.28000761480143
 20
518.0714915406443
 30
-0.0000000000000142
 11
-71.18000761480288
 21
518.0714915406443
 31
-0.0000000000000142
  0
ARC
  5
B20
330
1A
100
AcDbEntity
  8
0
 48
0.25
100
AcDbCircle
 10
-72.68000761480198
 20
520.7714915406438
 30
-0.0000000000000142
 40
0.5
100
AcDbArc
 50
90.0
 51
180.0
  0
ARC
  5
B21
330
1A
100
AcDbEntity
  8
0
 48
0.25
100
AcDbCircle
 10
-72.18000761480197
 20
522.2844763351506
 30
-0.0000000000000142
 40
0.5
100
AcDbArc
 50
91.50743575877495
 51
180.0
  0
LINE
  5
B22
330
1A
100
AcDbEntity
  8
0
 48
0.25
100
AcDbLine
 10
-72.19316095584599
 20
522.7843032948271
 30
-0.0000000000000142
 11
-71.67079404285141
 21
522.7980497925377
 31
-0.0000000000000142
  0
LINE
  5
B23
330
1A
100
AcDbEntity
  8
0
 48
0.25
100
AcDbLine
 10
-26.18000761480198
 20
505.0714915406443
 30
-0.0000000000000142
 11
-26.18000761479971
 21
571.6764372209383
 31
-0.0000000000000142
  0
LINE
  5
B24
330
1A
100
AcDbEntity
  8
0
 48
0.25
100
AcDbLine
 10
-27.68000761480198
 20
505.0714915406443
 30
-0.0000000000000142
 11
-27.68000761479971
 21
571.6764386804918
 31
-0.0000000000000142
  0
LINE
  5
B25
330
1A
100
AcDbEntity
  8
0
 48
0.25
100
AcDbLine
 10
-30.43000761480198
 20
505.0714915406443
 30
-0.0000000000000142
 11
-30.43000761479971
 21
571.6764413563396
 31
-0.0000000000000142
  0
LINE
  5
B26
330
1A
100
AcDbEntity
  8
0
 48
0.25
100
AcDbLine
 10
-31.93000761480107
 20
505.0714915406443
 30
-0.0000000000000142
 11
-31.93000761480107
 21
571.6764428158929
 31
-0.0000000000000142
  0
LINE
  5
B27
330
1A
100
AcDbEntity
  8
0
 48
0.25
100
AcDbLine
 10
-34.68000761480107
 20
505.0714915406443
 30
-0.0000000000000142
 11
-34.68000761480107
 21
571.6764454917406
 31
-0.0000000000000142
  0
LINE
  5
B28
330
1A
100
AcDbEntity
  8
0
 48
0.25
100
AcDbLine
 10
-36.18000761480198
 20
505.0714915406443
 30
-0.0000000000000142
 11
-36.18000761480016
 21
571.676446951294
 31
-0.0000000000000142
  0
LINE
  5
B29
330
1A
100
AcDbEntity
  8
0
 48
0.25
100
AcDbLine
 10
-58.1192745800331
 20
564.6764420860945
 30
-0.0000000000000142
 11
-53.28000761480144
 21
518.0714915406443
 31
-0.0000000000000142
  0
LINE
  5
B2A
330
1A
100
AcDbEntity
  8
0
 48
0.25
100
AcDbLine
 10
-76.01927458003138
 20
564.6764420860945
 30
-0.0000000000000142
 11
-71.18000761480288
 21
518.0714915406443
 31
-0.0000000000000142
  0
LINE
  5
B48
330
1A
100
AcDbEntity
  8
0
100
AcDbLine
 10
653.5425409826047
 20
617.7696681905309
 30
0.0
 11
649.7921631115787
 21
608.3608254614119
 31
0.0
  0
LINE
  5
B49
330
1A
100
AcDbEntity
  8
0
100
AcDbLine
 10
652.8548534232823
 20
604.9481187033434
 30
0.0
 11
652.9242298909239
 21
604.7602443606315
 31
0.0
  0
LINE
  5
B4A
330
1A
100
AcDbEntity
  8
0
100
AcDbLine
 10
651.7997515815686
 20
605.3462754600377
 30
0.0
 11
651.7942667902998
 21
605.3628913474522
 31
0.0
  0
LINE
  5
B4B
330
1A
100
AcDbEntity
  8
0
100
AcDbLine
 10
650.6918637652252
 20
604.8888580466027
 30
0.0
 11
649.7714848140503
 21
607.6770977950327
 31
0.0
  0
ARC
  5
B4C
330
1A
100
AcDbEntity
  8
0
100
AcDbCircle
 10
650.7210871250326
 20
607.9905550504572
 30
0.0
 40
1.0
100
AcDbArc
 50
158.2677048101814
 51
198.2677048101134
  0
LINE
  5
B4D
330
1A
100
AcDbEntity
  8
0
100
AcDbLine
 10
651.610532952779
 20
605.2838857973179
 30
0.0
 11
650.6918637652252
 21
604.8888580466027
 31
0.0
  0
LINE
  5
B4E
330
1A
100
AcDbEntity
  8
0
100
AcDbLine
 10
651.7942667902953
 20
605.362891347464
 30
0.0
 11
652.1102889908324
 21
604.6279559973863
 31
0.0
  0
LINE
  5
B4F
330
1A
100
AcDbEntity
  8
0
100
AcDbLine
 10
652.7575684225985
 20
604.9062861530469
 30
0.0
 11
652.1144999912921
 21
604.6297667275839
 31
0.0
  0
LINE
  5
B50
330
1A
100
AcDbEntity
  8
0
100
AcDbLine
 10
651.0868915157634
 20
603.970188859309
 30
0.0
 11
655.6033454201833
 21
595.5708853597225
 31
0.0
  0
LINE
  5
B51
330
1A
100
AcDbEntity
  8
0
100
AcDbLine
 10
652.9242298909239
 20
604.7602443606301
 30
0.0
 11
651.0868915157634
 21
603.970188859309
 31
0.0
  0
LINE
  5
B52
330
1A
100
AcDbEntity
  8
0
 48
0.25
100
AcDbLine
 10
659.5121560998859
 20
593.7609714493773
 30
0.0
 11
656.1138194461801
 21
595.1155531924578
 31
0.0
  0
ARC
  5
B53
330
1A
100
AcDbEntity
  8
0
100
AcDbCircle
 10
656.4840898571356
 20
596.0444772059126
 30
0.0
 40
1.0
100
AcDbArc
 50
208.2677048100687
 51
248.2677048101215
  0
ARC
  5
B54
330
1A
100
AcDbEntity
  8
0
100
AcDbCircle
 10
659.8824265108405
 20
594.6898954628318
 30
0.0
 40
1.0
100
AcDbArc
 50
248.2677048101241
 51
293.2677048100661
  0
LINE
  5
B55
330
1A
100
AcDbEntity
  8
0
100
AcDbLine
 10
665.4089441501327
 20
595.9777669273635
 30
0.0
 11
679.7026248114543
 21
573.2343571331107
 31
0.0
  0
ARC
  5
B56
330
1A
100
AcDbEntity
  8
0
 48
0.25
100
AcDbCircle
 10
668.1188791302315
 20
624.3563169776607
 30
0.0
 40
1.0
100
AcDbArc
 50
23.26770481015119
 51
203.2677048101512
  0
LINE
  5
B57
330
1A
100
AcDbEntity
  8
0
 48
0.25
100
AcDbLine
 10
669.0375483178108
 20
624.7513447283218
 30
0.0
 11
667.2002099426522
 21
623.9612892269997
 31
0.0
  0
ARC
  5
B58
330
1A
100
AcDbEntity
  8
0
 48
0.25
100
AcDbCircle
 10
674.5495634432882
 20
627.1215112322875
 30
0.0
 40
1.0
100
AcDbArc
 50
23.26770481015119
 51
203.2677048101512
  0
LINE
  5
B59
330
1A
100
AcDbEntity
  8
0
 48
0.25
100
AcDbLine
 10
675.4682326308675
 20
627.5165389829485
 30
0.0
 11
673.6308942557079
 21
626.7264834816264
 31
0.0
  0
ARC
  5
B5A
330
1A
100
AcDbEntity
  8
0
100
AcDbCircle
 10
654.4714649960588
 20
617.3993977795762
 30
0.0
 40
1.0
100
AcDbArc
 50
113.2677048101516
 51
158.2677048101743
  0
LINE
  5
B5B
330
1A
100
AcDbEntity
  8
0
100
AcDbLine
 10
667.4392324052269
 20
624.0640688859084
 30
0.0
 11
654.0764372453987
 21
618.3180669671551
 31
0.0
  0
ARC
  5
B5C
330
1A
100
AcDbEntity
  8
0
 48
0.25
100
AcDbCircle
 10
680.9802477563439
 20
629.8867054869138
 30
0.0
 40
1.0
100
AcDbArc
 50
23.26770481015119
 51
203.2677048101512
  0
LINE
  5
B5D
330
1A
100
AcDbEntity
  8
0
 48
0.25
100
AcDbLine
 10
681.8989169439232
 20
630.2817332375752
 30
0.0
 11
680.0615785687646
 21
629.4916777362532
 31
0.0
  0
ARC
  5
BF9
330
1A
100
AcDbEntity
  8
0
100
AcDbCircle
 10
750.8084318275733
 20
663.178417998854
 30
0.0
 40
45.0
100
AcDbArc
 50
235.4986574455561
 51
351.0367521745763
  0
LINE
  5
BFA
330
1A
100
AcDbEntity
  8
0
 48
0.25
100
AcDbLine
 10
708.1274039523878
 20
516.5554916780829
 30
0.0
 11
706.534581869816
 21
516.5554916780829
 31
0.0
  0
LINE
  5
BFB
330
1A
100
AcDbEntity
  8
0
 48
0.25
100
AcDbLine
 10
706.5345818698151
 20
516.5554916780829
 30
0.0
 11
705.7442467758546
 21
517.3054916780829
 31
0.0
  0
LINE
  5
BFC
330
1A
100
AcDbEntity
  8
0
 48
0.25
100
AcDbLine
 10
741.0583480875985
 20
529.5554916780834
 30
0.0
 11
717.0583480875984
 21
529.5554916780834
 31
0.0
  0
LINE
  5
BFD
330
1A
100
AcDbEntity
  8
0
100
AcDbLine
 10
794.2044414822748
 20
674.5548531500753
 30
0.0
 11
797.6789337779019
 21
668.0932981524074
 31
0.0
  0
LINE
  5
BFE
330
1A
100
AcDbEntity
  8
0
100
AcDbLine
 10
789.2784265334867
 20
676.4549223612958
 30
0.0
 11
768.9888950497816
 21
667.7304238232627
 31
0.0
  0
LINE
  5
BFF
330
1A
100
AcDbEntity
  8
0
100
AcDbLine
 10
798.615976349236
 20
653.2567907729935
 30
0.0
 11
793.0366051433802
 21
586.8802713948753
 31
0.0
  0
LINE
  5
C00
330
1A
100
AcDbEntity
  8
0
 48
0.25
100
AcDbLine
 10
761.1500954902503
 20
565.5554916780874
 30
0.0
 11
761.0397943091975
 21
563.4508197655968
 31
0.0
  0
ARC
  5
C01
330
1A
100
AcDbEntity
  8
0
 48
0.25
100
AcDbCircle
 10
759.0425352396878
 20
563.5554916780829
 30
0.0
 40
2.0
100
AcDbArc
 50
270.0
 51
357.0000000000005
  0
LINE
  5
C02
330
1A
100
AcDbEntity
  8
0
100
AcDbLine
 10
770.2338480875978
 20
568.5554916781102
 30
0.0
 11
770.2338480876033
 21
565.5554916781029
 31
0.0
  0
LINE
  5
C03
330
1A
100
AcDbEntity
  8
0
 48
0.25
100
AcDbLine
 10
778.361837465156
 20
573.5554916781061
 30
0.0000000000000107
 11
778.3618374651564
 21
604.5554916781057
 31
0.0000000000000105
  0
ARC
  5
C04
330
1A
100
AcDbEntity
  8
0
100
AcDbCircle
 10
773.1068877092911
 20
588.5554916781088
 30
0.0
 40
20.0
100
AcDbArc
 50
270.0000000000007
 51
355.1952178742094
  0
LINE
  5
C05
330
1A
100
AcDbEntity
  8
0
100
AcDbLine
 10
798.0739615285629
 20
667.1746289648281
 30
0.0
 11
801.0632766033859
 21
658.1186557685014
 31
0.0
  0
ARC
  5
C06
330
1A
100
AcDbEntity
  8
0
100
AcDbCircle
 10
800.1136742924055
 20
657.8051985130796
 30
0.0
 40
1.0
100
AcDbArc
 50
338.2677048100303
 51
18.26770481006096
  0
LINE
  5
C07
330
1A
100
AcDbEntity
  8
0
100
AcDbLine
 10
798.615976349236
 20
653.2567907729935
 30
0.0
 11
799.154120299987
 21
653.4881926718135
 31
0.0
  0
ARC
  5
C08
330
1A
100
AcDbEntity
  8
0
100
AcDbCircle
 10
798.7590925493287
 20
654.406861859396
 30
0.0
 40
1.0
100
AcDbArc
 50
293.2677048100608
 51
338.2677048100327
  0
LINE
  5
C09
330
1A
100
AcDbEntity
  8
0
100
AcDbLine
 10
801.0425983058585
 20
657.4349281021214
 30
0.0
 11
799.6880165627799
 21
654.0365914484391
 31
0.0
  0
LINE
  5
C0A
330
1A
100
AcDbEntity
  8
0
100
AcDbLine
 10
796.1479885208691
 20
666.5641667955887
 30
0.0
 11
796.2366231534034
 21
666.3845734635096
 31
0.0
  0
LINE
  5
C0B
330
1A
100
AcDbEntity
  8
0
 48
0.25
100
AcDbLine
 10
797.0358653465964
 20
667.8167787269448
 30
0.0
 11
797.3518875471254
 21
667.0818433768813
 31
0.0
  0
LINE
  5
C0C
330
1A
100
AcDbEntity
  8
0
100
AcDbLine
 10
767.886492024686
 20
667.2563905224697
 30
0.0
 11
772.2317972819401
 21
657.1510294590934
 31
0.0
  0
LINE
  5
C0D
330
1A
100
AcDbEntity
  8
0
100
AcDbLine
 10
768.9888950497816
 20
667.7304238232627
 30
0.0
 11
773.6502225075792
 21
656.8901274098293
 31
0.0
  0
LINE
  5
C0E
330
1A
100
AcDbEntity
  8
0
100
AcDbLine
 10
768.4652536128623
 20
666.4167268850242
 30
0.0
 11
771.8229894934811
 21
658.6080387905976
 31
0.0
  0
LINE
  5
C0F
330
1A
100
AcDbEntity
  8
0
 48
0.25
100
AcDbLine
 10
771.639255655953
 20
658.5290332404602
 30
0.0
 11
771.8229894934811
 21
658.6080387905976
 31
0.0
  0
LINE
  5
C10
330
1A
100
AcDbEntity
  8
0
100
AcDbLine
 10
768.8602813635234
 20
665.4980576974467
 30
0.0
 11
768.6765475260044
 21
665.4190521473128
 31
0.0
  0
LINE
  5
C11
330
1A
100
AcDbEntity
  8
0
100
AcDbLine
 10
769.3343146643164
 20
664.3956546723511
 30
0.0
 11
769.1505808267956
 21
664.3166491222173
 31
0.0
  0
LINE
  5
C12
330
1A
100
AcDbEntity
  8
0
100
AcDbLine
 10
768.8997841385908
 20
665.4061907786863
 30
0.0
 11
768.71605030107
 21
665.3271852285524
 31
0.0
  0
LINE
  5
C13
330
1A
100
AcDbEntity
  8
0
100
AcDbLine
 10
767.886492024686
 20
667.2563905224697
 30
0.0
 11
768.71605030107
 21
665.3271852285524
 31
0.0
  0
LINE
  5
C14
330
1A
100
AcDbEntity
  8
0
100
AcDbLine
 10
769.3839228004417
 20
666.8117546356852
 30
0.0
 11
768.4652536128606
 21
666.4167268850233
 31
0.0
  0
LINE
  5
C15
330
1A
100
AcDbEntity
  8
0
100
AcDbLine
 10
768.4652536128623
 20
666.4167268850242
 30
0.0
 11
768.8602813635234
 21
665.4980576974448
 31
0.0
  0
LINE
  5
C16
330
1A
100
AcDbEntity
  8
0
100
AcDbLine
 10
797.6789337779019
 20
668.0932981524074
 30
0.0
 11
773.3342003070511
 21
657.6250627598929
 31
0.0
  0
LINE
  5
C17
330
1A
100
AcDbEntity
  8
0
100
AcDbLine
 10
795.2589135052958
 20
656.1673782315633
 30
0.0
 11
800.9058530294996
 21
658.5955622269716
 31
0.0
  0
LINE
  5
C18
330
1A
100
AcDbEntity
  8
0
100
AcDbLine
 10
794.2319307274747
 20
651.3716511556349
 30
0.0
 11
798.5833324447403
 21
653.2427538940601
 31
0.0
  0
LINE
  5
C19
330
1A
100
AcDbEntity
  8
0
100
AcDbLine
 10
798.0739615285629
 20
667.1746289648281
 30
0.0
 11
796.2366231534034
 21
666.3845734635096
 31
0.0
  0
LINE
  5
C1A
330
1A
100
AcDbEntity
  8
0
 48
0.25
100
AcDbLine
 10
790.0437246951023
 20
676.4651771871704
 30
0.0
 11
793.6939674562773
 21
675.0101853173382
 31
0.0
  0
ARC
  5
C1B
330
1A
100
AcDbEntity
  8
0
 48
0.25
100
AcDbCircle
 10
789.6734542841468
 20
675.5362531737173
 30
0.0
 40
1.0
100
AcDbArc
 50
68.26770481015238
 51
113.2677048101524
  0
ARC
  5
C1C
330
1A
100
AcDbEntity
  8
0
100
AcDbCircle
 10
793.3236970453227
 20
674.0812613038851
 30
0.0
 40
1.0
100
AcDbArc
 50
28.26770481015933
 51
68.26770481015238
  0
LINE
  5
C1D
330
1A
100
AcDbEntity
  8
0
 48
0.25
100
AcDbLine
 10
703.2155714254468
 20
565.5554916781011
 30
0.0
 11
705.7442467758537
 21
517.3054916780838
 31
0.0
  0
LINE
  5
C1E
330
1A
100
AcDbEntity
  8
0
 48
0.25
100
AcDbLine
 10
703.9666006849456
 20
565.5554916781007
 30
0.0
 11
706.5345818698142
 21
516.5554916780833
 31
0.0
  0
LINE
  5
C1F
330
1A
100
AcDbEntity
  8
0
 48
0.25
100
AcDbLine
 10
742.7353970246549
 20
561.5554916780829
 30
0.0
 11
741.0583480875985
 21
529.5554916780834
 31
0.0
  0
LINE
  5
C20
330
1A
100
AcDbEntity
  8
0
 48
0.25
100
AcDbLine
 10
715.381299150541
 20
561.5554916780829
 30
0.0
 11
717.0583480875984
 21
529.5554916780834
 31
0.0
  0
LINE
  5
C21
330
1A
100
AcDbEntity
  8
0
 48
0.25
100
AcDbLine
 10
751.2338480876024
 20
565.5554916780711
 30
0.0
 11
749.9438480875815
 21
568.5554916781057
 31
0.0
  0
LINE
  5
C22
330
1A
100
AcDbEntity
  8
0
100
AcDbLine
 10
696.2156096459803
 20
565.5554916781002
 30
0.0
 11
722.955045330792
 21
565.5554916781029
 31
0.0
  0
LINE
  5
C23
330
1A
100
AcDbEntity
  8
0
100
AcDbLine
 10
688.169355417428
 20
568.5554916781048
 30
0.0
 11
696.2156096459748
 21
568.5554916781052
 31
0.0
  0
LINE
  5
C24
330
1A
100
AcDbEntity
  8
0
 48
0.25
100
AcDbLine
 10
696.2156096459803
 20
565.5554916781002
 30
0.0
 11
694.9256096459721
 21
568.5554916781048
 31
0.0
  0
ARC
  5
C25
330
1A
100
AcDbEntity
  8
0
 48
0.25
100
AcDbCircle
 10
706.0741609355082
 20
563.5554916780829
 30
0.0
 40
2.0
100
AcDbArc
 50
183.0
 51
270.0
  0
LINE
  5
C26
330
1A
100
AcDbEntity
  8
0
100
AcDbLine
 10
722.955045330792
 20
565.5554916780233
 30
0.0
 11
722.9550453307865
 21
568.5554916780993
 31
0.0
  0
LINE
  5
C27
330
1A
100
AcDbEntity
  8
0
 48
0.25
100
AcDbLine
 10
741.0583480875985
 20
552.5554916780833
 30
0.0
 11
717.0583480875984
 21
552.5554916780833
 31
0.0
  0
LINE
  5
C28
330
1A
100
AcDbEntity
  8
0
 48
0.25
100
AcDbLine
 10
696.3618374651564
 20
604.5554916781066
 30
-0.0000000000000002
 11
696.3618374651564
 21
573.5554916781065
 31
0.0000000000000107
  0
ARC
  5
C29
330
1A
100
AcDbEntity
  8
0
 48
0.25
100
AcDbCircle
 10
687.4109320693996
 20
632.6518997415405
 30
0.0
 40
1.0
100
AcDbArc
 50
23.26770481015119
 51
203.2677048101512
  0
LINE
  5
C2A
330
1A
100
AcDbEntity
  8
0
 48
0.25
100
AcDbLine
 10
688.329601256979
 20
633.0469274922015
 30
0.0
 11
686.4922628818199
 21
632.2568719908795
 31
0.0
  0
ARC
  5
C2B
330
1A
100
AcDbEntity
  8
0
 48
0.25
100
AcDbCircle
 10
693.8416163824554
 20
635.4170939961668
 30
0.0
 40
1.0
100
AcDbArc
 50
23.26770481015119
 51
203.2677048101512
  0
LINE
  5
C2C
330
1A
100
AcDbEntity
  8
0
 48
0.25
100
AcDbLine
 10
694.7602855700343
 20
635.8121217468278
 30
0.0
 11
692.9229471948756
 21
635.0220662455062
 31
0.0
  0
ARC
  5
C2D
330
1A
100
AcDbEntity
  8
0
100
AcDbCircle
 10
733.9336415774905
 20
655.9222581912022
 30
0.0
 40
3.0
100
AcDbArc
 50
267.7769670164922
 51
293.2677048101524
  0
LINE
  5
C2E
330
1A
100
AcDbEntity
  8
0
 48
0.25
100
AcDbLine
 10
720.4830228222572
 20
646.872898765334
 30
0.0
 11
718.6456844470986
 21
646.0828432640119
 31
0.0
  0
ARC
  5
C2F
330
1A
100
AcDbEntity
  8
0
 48
0.25
100
AcDbCircle
 10
719.5643536346779
 20
646.4778710146729
 30
0.0
 40
1.0
100
AcDbArc
 50
23.26770481015119
 51
203.2677048101512
  0
LINE
  5
C30
330
1A
100
AcDbEntity
  8
0
 48
0.25
100
AcDbLine
 10
738.3604643358039
 20
641.4978251720985
 30
0.0
 11
738.281458785771
 21
641.6815590093825
 31
0.0
  0
ARC
  5
C31
330
1A
100
AcDbEntity
  8
0
 48
0.25
100
AcDbCircle
 10
700.2723006955111
 20
638.1822882507931
 30
0.0
 40
1.0
100
AcDbArc
 50
23.26770481015119
 51
203.2677048101512
  0
LINE
  5
C32
330
1A
100
AcDbEntity
  8
0
 48
0.25
100
AcDbLine
 10
701.1909698830905
 20
638.5773160014545
 30
0.0
 11
699.3536315079313
 21
637.7872605001325
 31
0.0
  0
ARC
  5
C33
330
1A
100
AcDbEntity
  8
0
 48
0.25
100
AcDbCircle
 10
706.7029850085664
 20
640.9474825054198
 30
0.0
 40
1.0
100
AcDbArc
 50
23.26770481015119
 51
203.2677048101512
  0
LINE
  5
C34
330
1A
100
AcDbEntity
  8
0
 48
0.25
100
AcDbLine
 10
707.6216541961457
 20
641.3425102560808
 30
0.0
 11
705.7843158209871
 21
640.5524547547592
 31
0.0
  0
ARC
  5
C35
330
1A
100
AcDbEntity
  8
0
 48
0.25
100
AcDbCircle
 10
713.1336693216221
 20
643.7126767600461
 30
0.0
 40
1.0
100
AcDbArc
 50
23.26770481015119
 51
203.2677048101512
  0
LINE
  5
C36
330
1A
100
AcDbEntity
  8
0
 48
0.25
100
AcDbLine
 10
714.0523385092015
 20
644.1077045107077
 30
0.0
 11
712.2150001340428
 21
643.3176490093856
 31
0.0
  0
LINE
  5
C37
330
1A
100
AcDbEntity
  8
0
 48
0.25
100
AcDbLine
 10
729.1737724600107
 20
637.5475476654892
 30
0.0
 11
729.0947669099778
 21
637.731281502773
 31
0.0
  0
LINE
  5
C38
330
1A
100
AcDbEntity
  8
0
100
AcDbLine
 10
696.3618374651564
 20
604.5554916781066
 30
0.0
 11
778.3618374651564
 21
604.5554916781057
 31
0.0
  0
LINE
  5
C39
330
1A
100
AcDbEntity
  8
0
100
AcDbLine
 10
751.2338480876024
 20
565.5554916780711
 30
0.0
 11
770.2338480876033
 21
565.5554916781029
 31
0.0
  0
LINE
  5
C3A
330
1A
100
AcDbEntity
  8
0
 48
0.25
100
AcDbLine
 10
762.0583480875985
 20
568.5554916780829
 30
0.0
 11
703.0583480875984
 21
568.5554916780829
 31
0.0
  0
LINE
  5
C3B
330
1A
100
AcDbEntity
  8
0
100
AcDbLine
 10
696.2156096459757
 20
568.5554916781048
 30
0.0
 11
773.1068877092921
 21
568.5554916781057
 31
0.0
  0
LINE
  5
C3C
330
1A
100
AcDbEntity
  8
0
 48
0.25
100
AcDbLine
 10
759.0425352396878
 20
561.5554916780829
 30
0.0
 11
706.0741609355082
 21
561.5554916780829
 31
0.0
  0
LINE
  5
C3D
330
1A
100
AcDbEntity
  8
0
100
AcDbLine
 10
696.2156096459721
 20
573.5554916781065
 30
0.0
 11
778.361837465156
 21
573.5554916781061
 31
0.0
  0
LINE
  5
C3E
330
1A
100
AcDbEntity
  8
0
 48
0.005
100
AcDbLine
 10
740.8752187584878
 20
529.6764901341275
 30
0.0
 11
717.6089276684515
 21
529.6764901341293
 31
0.0
  0
LINE
  5
C3F
330
1A
100
AcDbEntity
  8
0
 48
0.005
100
AcDbLine
 10
707.7783096426446
 20
516.6764901341266
 30
0.0
 11
705.9672777361875
 21
516.6764901341284
 31
0.0
  0
DIMENSION
  5
EB5
330
1A
100
AcDbEntity
  8
MEASURE
100
AcDbDimension
  2
*D4
 10
538.3452364199238
 20
253.1765170681332
 30
0.0
 11
448.3452800063041
 21
262.1765170681332
 31
0.0
 70
    32
 71
     5
 42
179.9999128272392
  3
AD-STANDARD
100
AcDbAlignedDimension
 13
358.3453235926846
 23
309.1765170681419
 33
0.0
 14
538.3452364199238
 24
309.1765170681419
 34
0.0
100
AcDbRotatedDimension
1001
ACAD
1000
DSTYLE
1002
{
1070
    40
1040
4.0
1070
   140
1040
3.5
1070
   271
1070
     3
1070
   272
1070
     8
1070
   289
1070
     1
1002
}
  0
DIMENSION
  5
EF9
330
1A
100
AcDbEntity
  8
MEASURE
100
AcDbDimension
  2
*D5
 10
323.3452802065867
 20
253.1765170681332
 30
0.0
 11
340.8453018996356
 21
262.1765170681332
 31
0.0
 70
    32
 71
     5
 42
35.00004338609784
  3
AD-STANDARD
100
AcDbAlignedDimension
 13
358.3453235926846
 23
309.1765170681419
 33
0.0
 14
323.3452802065867
 24
352.1764420861209
 34
0.0
100
AcDbRotatedDimension
1001
ACAD
1000
DSTYLE
1002
{
1070
    40
1040
4.0
1070
   140
1040
3.5
1070
   271
1070
     3
1070
   272
1070
     8
1070
   289
1070
     1
1002
}
  0
DIMENSION
  5
F20
330
1A
100
AcDbEntity
  8
MEASURE
100
AcDbDimension
  2
*D6
 10
58.81994879882977
 20
253.1765170681332
 30
0.0
 11
-31.18000761478988
 21
262.1765170681332
 31
0.0
 70
    32
 71
     5
 42
179.9999128272393
  3
AD-STANDARD
100
AcDbAlignedDimension
 13
-121.1799640284095
 23
309.1765170681333
 33
0.0
 14
58.81994879882977
 24
309.1765170681333
 34
0.0
 50
180.0
100
AcDbRotatedDimension
1001
ACAD
1000
DSTYLE
1002
{
1070
    40
1040
4.0
1070
   140
1040
3.5
1070
   271
1070
     3
1070
   272
1070
     8
1070
   289
1070
     1
1002
}
  0
DIMENSION
  5
F2D
330
1A
100
AcDbEntity
  8
MEASURE
100
AcDbDimension
  2
*D7
 10
739.3452364199236
 20
253.1765170681332
 30
0.0
 11
638.8452364199238
 21
262.1765170681332
 31
0.0
 70
    32
 71
     5
 42
200.9999999999999
  3
AD-STANDARD
100
AcDbAlignedDimension
 13
538.3452364199238
 23
309.1765170681419
 33
0.0
 14
739.3452364199236
 24
311.6765349251991
 34
0.0
100
AcDbRotatedDimension
1001
ACAD
1000
DSTYLE
1002
{
1070
    40
1040
4.0
1070
   140
1040
3.5
1070
   271
1070
     3
1070
   272
1070
     8
1070
   289
1070
     1
1002
}
  0
DIMENSION
  5
F47
330
1A
100
AcDbEntity
  8
MEASURE
100
AcDbDimension
  2
*D8
 10
573.3452798060215
 20
468.176442086124
 30
0.0
 11
448.3452800063036
 21
477.176442086124
 31
0.0
 70
    32
 71
     5
 42
249.9999995994358
  3
AD-STANDARD
100
AcDbAlignedDimension
 13
323.3452802065858
 23
400.6764420861139
 33
0.0
 14
573.3452798060215
 24
400.6764420861306
 34
0.0
100
AcDbRotatedDimension
1001
ACAD
1000
DSTYLE
1002
{
1070
    40
1040
4.0
1070
   140
1040
3.5
1070
   271
1070
     3
1070
   272
1070
     8
1070
   289
1070
     1
1002
}
  0
DIMENSION
  5
FEE
330
1A
100
AcDbEntity
  8
MEASURE
100
AcDbDimension
  2
*D9
 10
93.81999218492774
 20
468.176442086124
 30
0.0
 11
-31.18000761479019
 21
477.176442086124
 31
0.0
 70
    32
 71
     5
 42
249.9999995994358
  3
AD-STANDARD
100
AcDbAlignedDimension
 13
-156.1800074145081
 23
400.6764420861077
 33
0.0
 14
93.81999218492774
 24
400.6764420861241
 34
0.0
100
AcDbRotatedDimension
1001
ACAD
1000
DSTYLE
1002
{
1070
    40
1040
4.0
1070
   140
1040
3.5
1070
   271
1070
     3
1070
   272
1070
     8
1070
   289
1070
     1
1002
}
  0
LINE
  5
7253
330
1A
100
AcDbEntity
  8
0
100
AcDbLine
 10
-114.5799640284112
 20
331.6765170681331
 30
0.0
 11
-114.0799640284112
 21
332.1765170681331
 31
0.0
  0
LINE
  5
7254
330
1A
100
AcDbEntity
  8
0
100
AcDbLine
 10
-114.0799640284112
 20
332.1765170681331
 30
0.0
 11
-114.0799640284113
 21
332.6765349252033
 31
0.0
  0
LINE
  5
7255
330
1A
100
AcDbEntity
  8
0
100
AcDbLine
 10
-128.279964028412
 20
332.176517068134
 30
0.0
 11
-127.779964028412
 21
331.676517068134
 31
0.0
  0
LINE
  5
7256
330
1A
100
AcDbEntity
  8
0
100
AcDbLine
 10
-128.279964028412
 20
332.176517068134
 30
0.0
 11
-128.2799640284118
 21
332.6765349252038
 31
0.0
  0
LINE
  5
7257
330
1A
100
AcDbEntity
  8
0
100
AcDbLine
 10
-128.279964028412
 20
332.176517068134
 30
0.0
 11
-114.0799640284112
 21
332.1765170681331
 31
0.0
  0
LINE
  5
7258
330
1A
100
AcDbEntity
  8
0
100
AcDbLine
 10
-127.779964028412
 20
331.676517068134
 30
0.0
 11
-114.5799640284112
 21
331.6765170681331
 31
0.0
  0
LINE
  5
7259
330
1A
100
AcDbEntity
  8
0
100
AcDbLine
 10
65.41994879883259
 20
331.676517068133
 30
0.0
 11
65.91994879883259
 21
332.176517068133
 31
0.0
  0
LINE
  5
725A
330
1A
100
AcDbEntity
  8
0
100
AcDbLine
 10
65.91994879883259
 20
332.176517068133
 30
0.0
 11
65.91994879883259
 21
332.6765349251923
 31
0.0
  0
LINE
  5
725B
330
1A
100
AcDbEntity
  8
0
100
AcDbLine
 10
51.71994879883186
 20
332.1765170681339
 30
0.0
 11
52.21994879883187
 21
331.6765170681339
 31
0.0
  0
LINE
  5
725C
330
1A
100
AcDbEntity
  8
0
100
AcDbLine
 10
51.71994879883186
 20
332.1765170681339
 30
0.0
 11
51.71994879883201
 21
332.6765349251971
 31
0.0
  0
LINE
  5
725D
330
1A
100
AcDbEntity
  8
0
100
AcDbLine
 10
51.71994879883186
 20
332.1765170681339
 30
0.0
 11
65.91994879883259
 21
332.176517068133
 31
0.0
  0
LINE
  5
725E
330
1A
100
AcDbEntity
  8
0
100
AcDbLine
 10
52.21994879883187
 20
331.6765170681339
 30
0.0
 11
65.41994879883259
 21
331.676517068133
 31
0.0
  0
LINE
  5
725F
330
1A
100
AcDbEntity
  8
0
100
AcDbLine
 10
364.9453235926858
 20
331.6765170681417
 30
0.0
 11
365.4453235926858
 21
332.1765170681417
 31
0.0
  0
LINE
  5
7260
330
1A
100
AcDbEntity
  8
0
100
AcDbLine
 10
365.4453235926858
 20
332.1765170681417
 30
0.0
 11
365.4453235926858
 21
332.6765349252048
 31
0.0
  0
LINE
  5
7261
330
1A
100
AcDbEntity
  8
0
100
AcDbLine
 10
351.2453235926851
 20
332.1765170681426
 30
0.0
 11
351.7453235926851
 21
331.6765170681426
 31
0.0
  0
LINE
  5
7262
330
1A
100
AcDbEntity
  8
0
100
AcDbLine
 10
351.2453235926851
 20
332.1765170681426
 30
0.0
 11
351.2453235926852
 21
332.6765349252001
 31
0.0
  0
LINE
  5
7263
330
1A
100
AcDbEntity
  8
0
100
AcDbLine
 10
351.2453235926851
 20
332.1765170681426
 30
0.0
 11
365.4453235926858
 21
332.1765170681417
 31
0.0
  0
LINE
  5
7264
330
1A
100
AcDbEntity
  8
0
100
AcDbLine
 10
351.7453235926851
 20
331.6765170681426
 30
0.0
 11
364.9453235926858
 21
331.6765170681417
 31
0.0
  0
LINE
  5
7265
330
1A
100
AcDbEntity
  8
0
100
AcDbLine
 10
544.9452364199232
 20
331.6765170681417
 30
0.0
 11
545.4452364199233
 21
332.1765170681417
 31
0.0
  0
LINE
  5
7266
330
1A
100
AcDbEntity
  8
0
100
AcDbLine
 10
545.4452364199233
 20
332.1765170681417
 30
0.0
 11
545.4452364199234
 21
332.6765349252119
 31
0.0
  0
LINE
  5
7267
330
1A
100
AcDbEntity
  8
0
100
AcDbLine
 10
531.2452364199225
 20
332.1765170681426
 30
0.0
 11
531.7452364199225
 21
331.6765170681426
 31
0.0
  0
LINE
  5
7268
330
1A
100
AcDbEntity
  8
0
100
AcDbLine
 10
531.2452364199225
 20
332.1765170681426
 30
0.0
 11
531.2452364199226
 21
332.6765349252121
 31
0.0
  0
LINE
  5
7269
330
1A
100
AcDbEntity
  8
0
100
AcDbLine
 10
531.2452364199225
 20
332.1765170681426
 30
0.0
 11
545.4452364199233
 21
332.1765170681417
 31
0.0
  0
LINE
  5
726A
330
1A
100
AcDbEntity
  8
0
100
AcDbLine
 10
531.7452364199225
 20
331.6765170681426
 30
0.0
 11
544.9452364199232
 21
331.6765170681417
 31
0.0
  0
INSERT
  5
726B
330
1A
100
AcDbEntity
  8
0
100
AcDbBlockReference
  2
NUT08_S2
 10
58.81994879883222
 20
331.6765170681335
 30
0.0
 50
180.0
  0
INSERT
  5
726C
330
1A
100
AcDbEntity
  8
0
100
AcDbBlockReference
  2
NUT08_S2
 10
-121.1799640284116
 20
331.6765170681335
 30
0.0
 50
180.0
  0
INSERT
  5
726F
330
1A
100
AcDbEntity
  8
0
100
AcDbBlockReference
  2
NUT08_S1
 10
358.3453235926846
 20
331.6765170681421
 30
0.0
 50
180.0
  0
INSERT
  5
7270
330
1A
100
AcDbEntity
  8
0
100
AcDbBlockReference
  2
NUT08_S1
 10
538.3452364199229
 20
331.6765170681421
 30
0.0
 50
180.0
  0
LINE
  5
7288
102
{ACAD_REACTORS
330
72AA
102
}
330
1A
100
AcDbEntity
  8
0
100
AcDbLine
 10
508.345236419924
 20
313.1765170681414
 30
0.0
 11
568.3452364199238
 21
313.1765170681423
 31
0.0
  0
LINE
  5
7289
102
{ACAD_REACTORS
330
72AA
102
}
330
1A
100
AcDbEntity
  8
0
100
AcDbLine
 10
509.0792376476122
 20
319.176515839662
 30
0.0
 11
523.1931337555933
 21
322.1765170681419
 31
0.0
  0
ARC
  5
728A
102
{ACAD_REACTORS
330
72AA
102
}
330
1A
100
AcDbEntity
  8
0
100
AcDbCircle
 10
512.3643333946945
 20
304.3113867822862
 30
0.0
 40
15.22412825367855
100
AcDbArc
 50
77.53263880814097
 51
102.4615338597465
  0
LINE
  5
728B
102
{ACAD_REACTORS
330
72AA
102
}
330
1A
100
AcDbEntity
  8
0
100
AcDbLine
 10
509.0792083019259
 20
319.176851262393
 30
0.0
 11
508.3479922414944
 21
313.2215743525453
 31
0.0
  0
LINE
  5
728C
102
{ACAD_REACTORS
330
72AA
102
}
330
1A
100
AcDbEntity
  8
0
100
AcDbLine
 10
515.6509703793631
 20
319.1765170681419
 30
0.0
 11
514.9091235214573
 21
313.1765170681414
 31
0.0
  0
LINE
  5
728D
102
{ACAD_REACTORS
330
72AA
102
}
330
1A
100
AcDbEntity
  8
0
100
AcDbLine
 10
519.616952670196
 20
313.1765170681414
 30
0.0
 11
519.8662458499934
 21
319.1765170681419
 31
0.0
  0
LINE
  5
728E
102
{ACAD_REACTORS
330
72AA
102
}
330
1A
100
AcDbEntity
  8
0
100
AcDbLine
 10
535.0162985041833
 20
313.1765170681419
 30
0.0
 11
535.3645865500716
 21
319.1765170681419
 31
0.0
  0
LINE
  5
728F
102
{ACAD_REACTORS
330
72AA
102
}
330
1A
100
AcDbEntity
  8
0
100
AcDbLine
 10
541.6741743356644
 20
313.1765170681419
 30
0.0
 11
541.3258862897762
 21
319.1765170681419
 31
0.0
  0
LINE
  5
7290
102
{ACAD_REACTORS
330
72AA
102
}
330
1A
100
AcDbEntity
  8
0
100
AcDbLine
 10
526.3452364199237
 20
322.1765170681419
 30
0.0
 11
528.3452364199238
 21
325.1765170681419
 31
0.0
  0
ARC
  5
7291
102
{ACAD_REACTORS
330
72AA
102
}
330
1A
100
AcDbEntity
  8
0
100
AcDbCircle
 10
517.7586081146785
 20
313.1691605930777
 30
0.0
 40
6.3663544232017
100
AcDbArc
 50
70.66694630461829
 51
109.3330536953817
  0
ARC
  5
7292
102
{ACAD_REACTORS
330
72AA
102
}
330
1A
100
AcDbEntity
  8
0
100
AcDbCircle
 10
527.615416200033
 20
235.7209403747183
 30
0.0
 40
83.81457464156119
100
AcDbArc
 50
84.69507829858246
 51
95.30492170141753
  0
ARC
  5
7293
102
{ACAD_REACTORS
330
72AA
102
}
330
1A
100
AcDbEntity
  8
0
100
AcDbCircle
 10
538.3452364199238
 20
306.9823051439448
 30
0.0
 40
12.55320987233475
100
AcDbArc
 50
76.26442995381463
 51
103.7355700461853
  0
ARC
  5
7294
102
{ACAD_REACTORS
330
72AA
102
}
330
1A
100
AcDbEntity
  8
0
100
AcDbCircle
 10
564.326139445153
 20
304.3113867822862
 30
0.0
 40
15.22412825367855
100
AcDbArc
 50
77.53846614025353
 51
102.467361191859
  0
LINE
  5
7295
102
{ACAD_REACTORS
330
72AA
102
}
330
1A
100
AcDbEntity
  8
0
100
AcDbLine
 10
567.6112351922354
 20
319.176515839662
 30
0.0
 11
553.4973390842542
 21
322.1765170681419
 31
0.0
  0
LINE
  5
7296
102
{ACAD_REACTORS
330
72AA
102
}
330
1A
100
AcDbEntity
  8
0
100
AcDbLine
 10
567.6112645379216
 20
319.176851262393
 30
0.0
 11
568.3424805983531
 21
313.2215743525453
 31
0.0
  0
ARC
  5
7297
102
{ACAD_REACTORS
330
72AA
102
}
330
1A
100
AcDbEntity
  8
0
100
AcDbCircle
 10
558.9318647251691
 20
313.1691605930777
 30
0.0
 40
6.3663544232017
100
AcDbArc
 50
70.66694630461829
 51
109.3330536953817
  0
LINE
  5
7298
102
{ACAD_REACTORS
330
72AA
102
}
330
1A
100
AcDbEntity
  8
0
100
AcDbLine
 10
550.3452364199238
 20
322.1765170681419
 30
0.0
 11
548.3452364199238
 21
325.1765170681419
 31
0.0
  0
LINE
  5
7299
102
{ACAD_REACTORS
330
72AA
102
}
330
1A
100
AcDbEntity
  8
0
100
AcDbLine
 10
557.0735201696516
 20
313.1765170681414
 30
0.0
 11
556.8242269898542
 21
319.1765170681419
 31
0.0
  0
LINE
  5
729A
102
{ACAD_REACTORS
330
72AA
102
}
330
1A
100
AcDbEntity
  8
0
100
AcDbLine
 10
561.0395024604845
 20
319.1765170681419
 30
0.0
 11
561.7813493183903
 21
313.1765170681414
 31
0.0
  0
LINE
  5
729B
102
{ACAD_REACTORS
330
72AA
102
}
330
1A
100
AcDbEntity
  8
0
100
AcDbLine
 10
523.1931337555908
 20
322.1765170681419
 30
0.0
 11
553.4973390842515
 21
322.1765170681419
 31
0.0
  0
LINE
  5
729C
102
{ACAD_REACTORS
330
72AA
102
}
330
1A
100
AcDbEntity
  8
0
100
AcDbLine
 10
528.3452364199241
 20
325.1765170681419
 30
0.0
 11
548.3452364199238
 21
325.1765170681423
 31
0.0
  0
ARC
  5
729D
102
{ACAD_REACTORS
330
72AA
102
}
330
1A
100
AcDbEntity
  8
0
100
AcDbCircle
 10
549.0750566398137
 20
235.7209403747183
 30
0.0
 40
83.81457464156119
100
AcDbArc
 50
84.69507829858246
 51
95.30492170141753
  0
ARC
  5
729E
102
{ACAD_REACTORS
330
72AA
102
}
330
1A
100
AcDbEntity
  8
0
100
AcDbCircle
 10
538.3452364199238
 20
321.1765170681419
 30
0.0
 40
12.0
100
AcDbArc
 50
228.1896851042228
 51
311.8103148957772
  0
LINE
  5
729F
102
{ACAD_REACTORS
330
72AA
102
}
330
1A
100
AcDbEntity
  8
0
100
AcDbLine
 10
546.3452364199238
 20
313.1765170681423
 30
0.0
 11
546.3452364199238
 21
312.2322451581426
 31
0.0
  0
LINE
  5
72A0
102
{ACAD_REACTORS
330
72AA
102
}
330
1A
100
AcDbEntity
  8
0
100
AcDbLine
 10
530.345236419924
 20
313.1765170681414
 30
0.0
 11
530.3452364199237
 21
312.2322451581426
 31
0.0
  0
LINE
  5
72A1
102
{ACAD_REACTORS
330
72AA
102
}
330
1A
100
AcDbEntity
  8
0
100
AcDbLine
 10
530.3452364199237
 20
312.2322451581426
 30
0.0
 11
546.345236419924
 21
312.2322451581426
 31
0.0
  0
LINE
  5
72AB
102
{ACAD_REACTORS
330
72C5
102
}
330
1A
100
AcDbEntity
  8
0
100
AcDbLine
 10
328.3453235926848
 20
313.1765170681414
 30
0.0
 11
388.3453235926846
 21
313.1765170681423
 31
0.0
  0
LINE
  5
72AC
102
{ACAD_REACTORS
330
72C5
102
}
330
1A
100
AcDbEntity
  8
0
100
AcDbLine
 10
329.079324820373
 20
319.176515839662
 30
0.0
 11
343.1932209283541
 21
322.1765170681419
 31
0.0
  0
ARC
  5
72AD
102
{ACAD_REACTORS
330
72C5
102
}
330
1A
100
AcDbEntity
  8
0
100
AcDbCircle
 10
332.3644205674553
 20
304.3113867822862
 30
0.0
 40
15.22412825367855
100
AcDbArc
 50
77.53263880814086
 51
102.4615338597463
  0
LINE
  5
72AE
102
{ACAD_REACTORS
330
72C5
102
}
330
1A
100
AcDbEntity
  8
0
100
AcDbLine
 10
329.0792954746867
 20
319.176851262393
 30
0.0
 11
328.3480794142552
 21
313.2215743525453
 31
0.0
  0
LINE
  5
72AF
102
{ACAD_REACTORS
330
72C5
102
}
330
1A
100
AcDbEntity
  8
0
100
AcDbLine
 10
335.6510575521239
 20
319.1765170681419
 30
0.0
 11
334.9092106942181
 21
313.1765170681414
 31
0.0
  0
LINE
  5
72B0
102
{ACAD_REACTORS
330
72C5
102
}
330
1A
100
AcDbEntity
  8
0
100
AcDbLine
 10
339.6170398429568
 20
313.1765170681414
 30
0.0
 11
339.8663330227542
 21
319.1765170681419
 31
0.0
  0
LINE
  5
72B1
102
{ACAD_REACTORS
330
72C5
102
}
330
1A
100
AcDbEntity
  8
0
100
AcDbLine
 10
355.0163856769442
 20
313.1765170681419
 30
0.0
 11
355.3646737228324
 21
319.1765170681419
 31
0.0
  0
LINE
  5
72B2
102
{ACAD_REACTORS
330
72C5
102
}
330
1A
100
AcDbEntity
  8
0
100
AcDbLine
 10
361.6742615084252
 20
313.1765170681419
 30
0.0
 11
361.325973462537
 21
319.1765170681419
 31
0.0
  0
LINE
  5
72B3
102
{ACAD_REACTORS
330
72C5
102
}
330
1A
100
AcDbEntity
  8
0
100
AcDbLine
 10
346.3453235926845
 20
322.1765170681419
 30
0.0
 11
348.3453235926845
 21
325.1765170681419
 31
0.0
  0
ARC
  5
72B4
102
{ACAD_REACTORS
330
72C5
102
}
330
1A
100
AcDbEntity
  8
0
100
AcDbCircle
 10
337.7586952874393
 20
313.1691605930777
 30
0.0
 40
6.3663544232017
100
AcDbArc
 50
70.66694630461848
 51
109.3330536953815
  0
ARC
  5
72B5
102
{ACAD_REACTORS
330
72C5
102
}
330
1A
100
AcDbEntity
  8
0
100
AcDbCircle
 10
347.6155033727938
 20
235.7209403747183
 30
0.0
 40
83.81457464156119
100
AcDbArc
 50
84.69507829858233
 51
95.30492170141767
  0
ARC
  5
72B6
102
{ACAD_REACTORS
330
72C5
102
}
330
1A
100
AcDbEntity
  8
0
100
AcDbCircle
 10
358.3453235926846
 20
306.9823051439448
 30
0.0
 40
12.55320987233475
100
AcDbArc
 50
76.26442995381454
 51
103.7355700461854
  0
ARC
  5
72B7
102
{ACAD_REACTORS
330
72C5
102
}
330
1A
100
AcDbEntity
  8
0
100
AcDbCircle
 10
384.3262266179138
 20
304.3113867822862
 30
0.0
 40
15.22412825367855
100
AcDbArc
 50
77.53846614025367
 51
102.4673611918591
  0
LINE
  5
72B8
102
{ACAD_REACTORS
330
72C5
102
}
330
1A
100
AcDbEntity
  8
0
100
AcDbLine
 10
387.6113223649962
 20
319.176515839662
 30
0.0
 11
373.497426257015
 21
322.1765170681419
 31
0.0
  0
LINE
  5
72B9
102
{ACAD_REACTORS
330
72C5
102
}
330
1A
100
AcDbEntity
  8
0
100
AcDbLine
 10
387.6113517106824
 20
319.176851262393
 30
0.0
 11
388.3425677711139
 21
313.2215743525453
 31
0.0
  0
ARC
  5
72BA
102
{ACAD_REACTORS
330
72C5
102
}
330
1A
100
AcDbEntity
  8
0
100
AcDbCircle
 10
378.9319518979299
 20
313.1691605930777
 30
0.0
 40
6.3663544232017
100
AcDbArc
 50
70.66694630461848
 51
109.3330536953815
  0
LINE
  5
72BB
102
{ACAD_REACTORS
330
72C5
102
}
330
1A
100
AcDbEntity
  8
0
100
AcDbLine
 10
370.3453235926846
 20
322.1765170681419
 30
0.0
 11
368.3453235926846
 21
325.1765170681419
 31
0.0
  0
LINE
  5
72BC
102
{ACAD_REACTORS
330
72C5
102
}
330
1A
100
AcDbEntity
  8
0
100
AcDbLine
 10
377.0736073424123
 20
313.1765170681414
 30
0.0
 11
376.8243141626149
 21
319.1765170681419
 31
0.0
  0
LINE
  5
72BD
102
{ACAD_REACTORS
330
72C5
102
}
330
1A
100
AcDbEntity
  8
0
100
AcDbLine
 10
381.0395896332453
 20
319.1765170681419
 30
0.0
 11
381.7814364911511
 21
313.1765170681414
 31
0.0
  0
LINE
  5
72BE
102
{ACAD_REACTORS
330
72C5
102
}
330
1A
100
AcDbEntity
  8
0
100
AcDbLine
 10
343.1932209283516
 20
322.1765170681419
 30
0.0
 11
373.4974262570123
 21
322.1765170681419
 31
0.0
  0
LINE
  5
72BF
102
{ACAD_REACTORS
330
72C5
102
}
330
1A
100
AcDbEntity
  8
0
100
AcDbLine
 10
348.3453235926848
 20
325.1765170681419
 30
0.0
 11
368.3453235926846
 21
325.1765170681423
 31
0.0
  0
ARC
  5
72C0
102
{ACAD_REACTORS
330
72C5
102
}
330
1A
100
AcDbEntity
  8
0
100
AcDbCircle
 10
369.0751438125745
 20
235.7209403747183
 30
0.0
 40
83.81457464156119
100
AcDbArc
 50
84.69507829858233
 51
95.30492170141767
  0
ARC
  5
72C1
102
{ACAD_REACTORS
330
72C5
102
}
330
1A
100
AcDbEntity
  8
0
100
AcDbCircle
 10
358.3453235926846
 20
321.1765170681419
 30
0.0
 40
12.0
100
AcDbArc
 50
228.1896851042224
 51
311.8103148957775
  0
LINE
  5
72C2
102
{ACAD_REACTORS
330
72C5
102
}
330
1A
100
AcDbEntity
  8
0
100
AcDbLine
 10
366.3453235926846
 20
313.1765170681423
 30
0.0
 11
366.3453235926846
 21
312.2322451581426
 31
0.0
  0
LINE
  5
72C3
102
{ACAD_REACTORS
330
72C5
102
}
330
1A
100
AcDbEntity
  8
0
100
AcDbLine
 10
350.3453235926848
 20
313.1765170681414
 30
0.0
 11
350.3453235926845
 21
312.2322451581426
 31
0.0
  0
LINE
  5
72C4
102
{ACAD_REACTORS
330
72C5
102
}
330
1A
100
AcDbEntity
  8
0
100
AcDbLine
 10
350.3453235926845
 20
312.2322451581426
 30
0.0
 11
366.3453235926848
 21
312.2322451581426
 31
0.0
  0
LINE
  5
72CF
102
{ACAD_REACTORS
330
72E9
102
}
330
1A
100
AcDbEntity
  8
0
100
AcDbLine
 10
28.81994879883001
 20
313.1765170681328
 30
0.0
 11
88.81994879882979
 21
313.1765170681337
 31
0.0
  0
LINE
  5
72D0
102
{ACAD_REACTORS
330
72E9
102
}
330
1A
100
AcDbEntity
  8
0
100
AcDbLine
 10
29.55395002651818
 20
319.1765158396533
 30
0.0
 11
43.66784613449936
 21
322.1765170681333
 31
0.0
  0
ARC
  5
72D1
102
{ACAD_REACTORS
330
72E9
102
}
330
1A
100
AcDbEntity
  8
0
100
AcDbCircle
 10
32.8390457736005
 20
304.3113867822776
 30
0.0
 40
15.22412825367855
100
AcDbArc
 50
77.53263880814086
 51
102.4615338597463
  0
LINE
  5
72D2
102
{ACAD_REACTORS
330
72E9
102
}
330
1A
100
AcDbEntity
  8
0
100
AcDbLine
 10
29.55392068083193
 20
319.1768512623843
 30
0.0
 11
28.82270462040042
 21
313.2215743525366
 31
0.0
  0
LINE
  5
72D3
102
{ACAD_REACTORS
330
72E9
102
}
330
1A
100
AcDbEntity
  8
0
100
AcDbLine
 10
36.12568275826907
 20
319.1765170681332
 30
0.0
 11
35.38383590036329
 21
313.1765170681328
 31
0.0
  0
LINE
  5
72D4
102
{ACAD_REACTORS
330
72E9
102
}
330
1A
100
AcDbEntity
  8
0
100
AcDbLine
 10
40.091665049102
 20
313.1765170681328
 30
0.0
 11
40.3409582288994
 21
319.1765170681332
 31
0.0
  0
LINE
  5
72D5
102
{ACAD_REACTORS
330
72E9
102
}
330
1A
100
AcDbEntity
  8
0
100
AcDbLine
 10
55.49101088308935
 20
313.1765170681333
 30
0.0
 11
55.83929892897759
 21
319.1765170681332
 31
0.0
  0
LINE
  5
72D6
102
{ACAD_REACTORS
330
72E9
102
}
330
1A
100
AcDbEntity
  8
0
100
AcDbLine
 10
62.14888671457043
 20
313.1765170681333
 30
0.0
 11
61.80059866868219
 21
319.1765170681332
 31
0.0
  0
LINE
  5
72D7
102
{ACAD_REACTORS
330
72E9
102
}
330
1A
100
AcDbEntity
  8
0
100
AcDbLine
 10
46.81994879882977
 20
322.1765170681333
 30
0.0
 11
48.81994879882977
 21
325.1765170681332
 31
0.0
  0
ARC
  5
72D8
102
{ACAD_REACTORS
330
72E9
102
}
330
1A
100
AcDbEntity
  8
0
100
AcDbCircle
 10
38.23332049358447
 20
313.1691605930691
 30
0.0
 40
6.3663544232017
100
AcDbArc
 50
70.6669463046185
 51
109.3330536953815
  0
ARC
  5
72D9
102
{ACAD_REACTORS
330
72E9
102
}
330
1A
100
AcDbEntity
  8
0
100
AcDbCircle
 10
48.09012857893895
 20
235.7209403747096
 30
0.0
 40
83.81457464156119
100
AcDbArc
 50
84.69507829858233
 51
95.30492170141767
  0
ARC
  5
72DA
102
{ACAD_REACTORS
330
72E9
102
}
330
1A
100
AcDbEntity
  8
0
100
AcDbCircle
 10
58.81994879882977
 20
306.9823051439361
 30
0.0
 40
12.55320987233475
100
AcDbArc
 50
76.26442995381452
 51
103.7355700461854
  0
ARC
  5
72DB
102
{ACAD_REACTORS
330
72E9
102
}
330
1A
100
AcDbEntity
  8
0
100
AcDbCircle
 10
84.80085182405906
 20
304.3113867822776
 30
0.0
 40
15.22412825367855
100
AcDbArc
 50
77.53846614025369
 51
102.4673611918591
  0
LINE
  5
72DC
102
{ACAD_REACTORS
330
72E9
102
}
330
1A
100
AcDbEntity
  8
0
100
AcDbLine
 10
88.08594757114139
 20
319.1765158396533
 30
0.0
 11
73.9720514631602
 21
322.1765170681333
 31
0.0
  0
LINE
  5
72DD
102
{ACAD_REACTORS
330
72E9
102
}
330
1A
100
AcDbEntity
  8
0
100
AcDbLine
 10
88.08597691682763
 20
319.1768512623843
 30
0.0
 11
88.81719297725913
 21
313.2215743525366
 31
0.0
  0
ARC
  5
72DE
102
{ACAD_REACTORS
330
72E9
102
}
330
1A
100
AcDbEntity
  8
0
100
AcDbCircle
 10
79.4065771040751
 20
313.1691605930691
 30
0.0
 40
6.3663544232017
100
AcDbArc
 50
70.6669463046185
 51
109.3330536953815
  0
LINE
  5
72DF
102
{ACAD_REACTORS
330
72E9
102
}
330
1A
100
AcDbEntity
  8
0
100
AcDbLine
 10
70.81994879882978
 20
322.1765170681333
 30
0.0
 11
68.81994879882978
 21
325.1765170681332
 31
0.0
  0
LINE
  5
72E0
102
{ACAD_REACTORS
330
72E9
102
}
330
1A
100
AcDbEntity
  8
0
100
AcDbLine
 10
77.54823254855756
 20
313.1765170681328
 30
0.0
 11
77.29893936876016
 21
319.1765170681332
 31
0.0
  0
LINE
  5
72E1
102
{ACAD_REACTORS
330
72E9
102
}
330
1A
100
AcDbEntity
  8
0
100
AcDbLine
 10
81.51421483939049
 20
319.1765170681332
 30
0.0
 11
82.25606169729628
 21
313.1765170681328
 31
0.0
  0
LINE
  5
72E2
102
{ACAD_REACTORS
330
72E9
102
}
330
1A
100
AcDbEntity
  8
0
100
AcDbLine
 10
43.66784613449686
 20
322.1765170681333
 30
0.0
 11
73.97205146315747
 21
322.1765170681333
 31
0.0
  0
LINE
  5
72E3
102
{ACAD_REACTORS
330
72E9
102
}
330
1A
100
AcDbEntity
  8
0
100
AcDbLine
 10
48.81994879883
 20
325.1765170681332
 30
0.0
 11
68.81994879882978
 21
325.1765170681337
 31
0.0
  0
ARC
  5
72E4
102
{ACAD_REACTORS
330
72E9
102
}
330
1A
100
AcDbEntity
  8
0
100
AcDbCircle
 10
69.5497690187197
 20
235.7209403747096
 30
0.0
 40
83.81457464156119
100
AcDbArc
 50
84.69507829858233
 51
95.30492170141767
  0
ARC
  5
72E5
102
{ACAD_REACTORS
330
72E9
102
}
330
1A
100
AcDbEntity
  8
0
100
AcDbCircle
 10
58.81994879882977
 20
321.1765170681332
 30
0.0
 40
12.0
100
AcDbArc
 50
228.1896851042233
 51
311.8103148957767
  0
LINE
  5
72E6
102
{ACAD_REACTORS
330
72E9
102
}
330
1A
100
AcDbEntity
  8
0
100
AcDbLine
 10
66.81994879882978
 20
313.1765170681337
 30
0.0
 11
66.81994879882978
 21
312.2322451581339
 31
0.0
  0
LINE
  5
72E7
102
{ACAD_REACTORS
330
72E9
102
}
330
1A
100
AcDbEntity
  8
0
100
AcDbLine
 10
50.81994879883001
 20
313.1765170681328
 30
0.0
 11
50.81994879882977
 21
312.2322451581339
 31
0.0
  0
LINE
  5
72E8
102
{ACAD_REACTORS
330
72E9
102
}
330
1A
100
AcDbEntity
  8
0
100
AcDbLine
 10
50.81994879882977
 20
312.2322451581339
 30
0.0
 11
66.81994879883001
 21
312.2322451581339
 31
0.0
  0
LINE
  5
72F5
102
{ACAD_REACTORS
330
730F
102
}
330
1A
100
AcDbEntity
  8
0
100
AcDbLine
 10
-151.1799640284093
 20
313.1765170681328
 30
0.0
 11
-91.17996402840953
 21
313.1765170681337
 31
0.0
  0
LINE
  5
72F6
102
{ACAD_REACTORS
330
730F
102
}
330
1A
100
AcDbEntity
  8
0
100
AcDbLine
 10
-150.4459628007211
 20
319.1765158396533
 30
0.0
 11
-136.3320666927399
 21
322.1765170681333
 31
0.0
  0
ARC
  5
72F7
102
{ACAD_REACTORS
330
730F
102
}
330
1A
100
AcDbEntity
  8
0
100
AcDbCircle
 10
-147.1608670536388
 20
304.3113867822776
 30
0.0
 40
15.22412825367855
100
AcDbArc
 50
77.53263880814086
 51
102.4615338597463
  0
LINE
  5
72F8
102
{ACAD_REACTORS
330
730F
102
}
330
1A
100
AcDbEntity
  8
0
100
AcDbLine
 10
-150.4459921464073
 20
319.1768512623843
 30
0.0
 11
-151.1772082068389
 21
313.2215743525366
 31
0.0
  0
LINE
  5
72F9
102
{ACAD_REACTORS
330
730F
102
}
330
1A
100
AcDbEntity
  8
0
100
AcDbLine
 10
-143.8742300689702
 20
319.1765170681332
 30
0.0
 11
-144.616076926876
 21
313.1765170681328
 31
0.0
  0
LINE
  5
72FA
102
{ACAD_REACTORS
330
730F
102
}
330
1A
100
AcDbEntity
  8
0
100
AcDbLine
 10
-139.9082477781373
 20
313.1765170681328
 30
0.0
 11
-139.6589545983399
 21
319.1765170681332
 31
0.0
  0
LINE
  5
72FB
102
{ACAD_REACTORS
330
730F
102
}
330
1A
100
AcDbEntity
  8
0
100
AcDbLine
 10
-124.5089019441499
 20
313.1765170681333
 30
0.0
 11
-124.1606138982617
 21
319.1765170681332
 31
0.0
  0
LINE
  5
72FC
102
{ACAD_REACTORS
330
730F
102
}
330
1A
100
AcDbEntity
  8
0
100
AcDbLine
 10
-117.8510261126689
 20
313.1765170681333
 30
0.0
 11
-118.1993141585571
 21
319.1765170681332
 31
0.0
  0
LINE
  5
72FD
102
{ACAD_REACTORS
330
730F
102
}
330
1A
100
AcDbEntity
  8
0
100
AcDbLine
 10
-133.1799640284095
 20
322.1765170681333
 30
0.0
 11
-131.1799640284095
 21
325.1765170681332
 31
0.0
  0
ARC
  5
72FE
102
{ACAD_REACTORS
330
730F
102
}
330
1A
100
AcDbEntity
  8
0
100
AcDbCircle
 10
-141.7665923336548
 20
313.1691605930691
 30
0.0
 40
6.3663544232017
100
AcDbArc
 50
70.6669463046185
 51
109.3330536953815
  0
ARC
  5
72FF
102
{ACAD_REACTORS
330
730F
102
}
330
1A
100
AcDbEntity
  8
0
100
AcDbCircle
 10
-131.9097842483003
 20
235.7209403747096
 30
0.0
 40
83.81457464156119
100
AcDbArc
 50
84.69507829858233
 51
95.30492170141767
  0
ARC
  5
7300
102
{ACAD_REACTORS
330
730F
102
}
330
1A
100
AcDbEntity
  8
0
100
AcDbCircle
 10
-121.1799640284095
 20
306.9823051439361
 30
0.0
 40
12.55320987233475
100
AcDbArc
 50
76.26442995381452
 51
103.7355700461854
  0
ARC
  5
7301
102
{ACAD_REACTORS
330
730F
102
}
330
1A
100
AcDbEntity
  8
0
100
AcDbCircle
 10
-95.19906100318024
 20
304.3113867822776
 30
0.0
 40
15.22412825367855
100
AcDbArc
 50
77.53846614025369
 51
102.4673611918591
  0
LINE
  5
7302
102
{ACAD_REACTORS
330
730F
102
}
330
1A
100
AcDbEntity
  8
0
100
AcDbLine
 10
-91.91396525609793
 20
319.1765158396533
 30
0.0
 11
-106.0278613640791
 21
322.1765170681333
 31
0.0
  0
LINE
  5
7303
102
{ACAD_REACTORS
330
730F
102
}
330
1A
100
AcDbEntity
  8
0
100
AcDbLine
 10
-91.91393591041167
 20
319.1768512623843
 30
0.0
 11
-91.18271984998017
 21
313.2215743525366
 31
0.0
  0
ARC
  5
7304
102
{ACAD_REACTORS
330
730F
102
}
330
1A
100
AcDbEntity
  8
0
100
AcDbCircle
 10
-100.5933357231642
 20
313.1691605930691
 30
0.0
 40
6.3663544232017
100
AcDbArc
 50
70.6669463046185
 51
109.3330536953815
  0
LINE
  5
7305
102
{ACAD_REACTORS
330
730F
102
}
330
1A
100
AcDbEntity
  8
0
100
AcDbLine
 10
-109.1799640284095
 20
322.1765170681333
 30
0.0
 11
-111.1799640284095
 21
325.1765170681332
 31
0.0
  0
LINE
  5
7306
102
{ACAD_REACTORS
330
730F
102
}
330
1A
100
AcDbEntity
  8
0
100
AcDbLine
 10
-102.4516802786817
 20
313.1765170681328
 30
0.0
 11
-102.7009734584791
 21
319.1765170681332
 31
0.0
  0
LINE
  5
7307
102
{ACAD_REACTORS
330
730F
102
}
330
1A
100
AcDbEntity
  8
0
100
AcDbLine
 10
-98.48569798784883
 20
319.1765170681332
 30
0.0
 11
-97.74385112994304
 21
313.1765170681328
 31
0.0
  0
LINE
  5
7308
102
{ACAD_REACTORS
330
730F
102
}
330
1A
100
AcDbEntity
  8
0
100
AcDbLine
 10
-136.3320666927424
 20
322.1765170681333
 30
0.0
 11
-106.0278613640818
 21
322.1765170681333
 31
0.0
  0
LINE
  5
7309
102
{ACAD_REACTORS
330
730F
102
}
330
1A
100
AcDbEntity
  8
0
100
AcDbLine
 10
-131.1799640284093
 20
325.1765170681332
 30
0.0
 11
-111.1799640284095
 21
325.1765170681337
 31
0.0
  0
ARC
  5
730A
102
{ACAD_REACTORS
330
730F
102
}
330
1A
100
AcDbEntity
  8
0
100
AcDbCircle
 10
-110.4501438085196
 20
235.7209403747096
 30
0.0
 40
83.81457464156119
100
AcDbArc
 50
84.69507829858233
 51
95.30492170141767
  0
ARC
  5
730B
102
{ACAD_REACTORS
330
730F
102
}
330
1A
100
AcDbEntity
  8
0
100
AcDbCircle
 10
-121.1799640284095
 20
321.1765170681332
 30
0.0
 40
12.0
100
AcDbArc
 50
228.1896851042239
 51
311.8103148957761
  0
LINE
  5
730C
102
{ACAD_REACTORS
330
730F
102
}
330
1A
100
AcDbEntity
  8
0
100
AcDbLine
 10
-113.1799640284095
 20
313.1765170681337
 30
0.0
 11
-113.1799640284095
 21
312.2322451581339
 31
0.0
  0
LINE
  5
730D
102
{ACAD_REACTORS
330
730F
102
}
330
1A
100
AcDbEntity
  8
0
100
AcDbLine
 10
-129.1799640284093
 20
313.1765170681328
 30
0.0
 11
-129.1799640284095
 21
312.2322451581339
 31
0.0
  0
LINE
  5
730E
102
{ACAD_REACTORS
330
730F
102
}
330
1A
100
AcDbEntity
  8
0
100
AcDbLine
 10
-129.1799640284095
 20
312.2322451581339
 30
0.0
 11
-113.1799640284093
 21
312.2322451581339
 31
0.0
  0
VIEWPORT
  5
22
102
{ACAD_XDICTIONARY
360
758D
102
}
330
17
100
AcDbEntity
 67
     1
  8
0
100
AcDbViewport
 10
267.7013596636517
 20
149.5067968157068
 30
0.0
 40
670.4522133398072
 41
314.2876936980925
 68
     1
 69
     1
 12
267.7013596636517
 22
149.5067968157068
 13
0.0
 23
0.0
 14
1.0
 24
1.0
 15
10.0
 25
10.0
 16
0.0
 26
0.0
 36
1.0
 17
0.0
 27
0.0
 37
0.0
 42
50.0
 43
0.0
 44
0.0
 45
314.2876936980925
 50
0.0
 51
0.0
 72
   100
 90
    32768
  1

281
     0
 71
     1
 74
     0
110
0.0
120
0.0
130
0.0
111
1.0
121
0.0
131
0.0
112
0.0
122
1.0
132
0.0
 79
     0
146
0.0
  0
VIEWPORT
  5
2B8
102
{ACAD_XDICTIONARY
360
7599
102
}
330
17
100
AcDbEntity
 67
     1
  8
DEFPOINTS
100
AcDbViewport
 10
212.5
 20
149.4999999999999
 30
0.0
 40
385.0
 41
264.9999999999999
 68
     2
 69
     2
 12
347.870772528915
 22
447.1588314594209
 13
0.0
 23
0.0
 14
1.0
 24
1.0
 15
0.0
 25
0.0
 16
0.0
 26
0.0
 36
1.0
 17
0.0
 27
0.0
 37
0.0
 42
50.0
 43
0.0
 44
0.0
 45
1060.0
 50
0.0
 51
0.0
 72
   100
 90
    36864
  1

281
     0
 71
     1
 74
     0
110
0.0
120
0.0
130
0.0
111
1.0
121
0.0
131
0.0
112
0.0
122
1.0
132
0.0
 79
     0
146
0.0
  0
ENDSEC
  0
SECTION
  2
OBJECTS
  0
DICTIONARY
  5
C
330
0
100
AcDbDictionary
281
     1
  3
ACAD_COLOR
350
1133
  3
ACAD_GROUP
350
D
  3
ACAD_LAYOUT
350
115B
  3
ACAD_MATERIAL
350
1109
  3
ACAD_MLEADERSTYLE
350
1158
  3
ACAD_MLINESTYLE
350
E
  3
ACAD_PLOTSETTINGS
350
115C
  3
ACAD_PLOTSTYLENAME
350
1107
  3
ACAD_SCALELIST
350
1136
  3
ACAD_TABLESTYLE
350
1134
  3
ACAD_VISUALSTYLE
350
1122
  3
ACDB_RECOMPOSE_DATA
350
7451
  3
ACDBHEADERROUNDTRIPXREC
350
7866
  3
AcDbVariableDictionary
350
74D9
  3
CONTENTDICTIONARY
350
234
  3
DWGPROPS
350
7865
  0
DICTIONARY
  5
7453
330
8
100
AcDbDictionary
280
     1
281
     1
  3
ACAD_XREC_ROUNDTRIP
360
758B
  0
DICTIONARY
  5
116B
330
2
100
AcDbDictionary
280
     1
281
     1
  3
ACAD_LAYERSTATES
360
116C
  0
DICTIONARY
  5
70B1
330
F
100
AcDbDictionary
280
     1
281
     1
  3
ACAD_XREC_ROUNDTRIP
360
758C
  3
ADSK_XREC_LAYER_RECONCILED
360
70B2
  0
DICTIONARY
  5
70B5
330
71
100
AcDbDictionary
280
     1
281
     1
  3
ACAD_XREC_ROUNDTRIP
360
7590
  3
ADSK_XREC_LAYER_RECONCILED
360
70B6
  0
DICTIONARY
  5
7591
330
72
100
AcDbDictionary
280
     1
281
     1
  3
ACAD_XREC_ROUNDTRIP
360
7592
  0
DICTIONARY
  5
70B7
330
73
100
AcDbDictionary
280
     1
281
     1
  3
ACAD_XREC_ROUNDTRIP
360
7593
  3
ADSK_XREC_LAYER_RECONCILED
360
70B8
  0
DICTIONARY
  5
70B9
330
74
100
AcDbDictionary
280
     1
281
     1
  3
ACAD_XREC_ROUNDTRIP
360
7594
  3
ADSK_XREC_LAYER_RECONCILED
360
70BA
  0
DICTIONARY
  5
71E9
330
1A
100
AcDbDictionary
280
     1
281
     1
  3
ACAD_SORTENTS
360
71EA
  0
DICTIONARY
  5
758D
330
22
100
AcDbDictionary
280
     1
281
     1
  3
ACAD_XREC_ROUNDTRIP
360
758E
  0
DICTIONARY
  5
7599
330
2B8
100
AcDbDictionary
280
     1
281
     1
  3
ACAD_XREC_ROUNDTRIP
360
759A
  0
DICTIONARY
  5
1133
102
{ACAD_REACTORS
330
C
102
}
330
C
100
AcDbDictionary
281
     1
  0
DICTIONARY
  5
D
102
{ACAD_REACTORS
330
C
102
}
330
C
100
AcDbDictionary
281
     1
  3
*A1
350
394D
  3
*A10
350
3B72
  3
*A11
350
3E1E
  3
*A12
350
3E1F
  3
*A13
350
3E20
  3
*A2
350
7028
  3
*A3
350
72AA
  3
*A4
350
72C5
  3
*A5
350
72E9
  3
*A6
350
730F
  3
*A7
350
3958
  3
*A8
350
3A23
  3
*A9
350
3A24
  0
DICTIONARY
  5
115B
102
{ACAD_REACTORS
330
C
102
}
330
C
100
AcDbDictionary
281
     1
  3
Model
350
115D
  3
レイアウト1
350
115E
  0
DICTIONARY
  5
1109
102
{ACAD_REACTORS
330
C
102
}
330
C
100
AcDbDictionary
281
     1
  3
ByBlock
350
1112
  3
ByLayer
350
110A
  3
Global
350
111A
  0
DICTIONARY
  5
1158
102
{ACAD_REACTORS
330
C
102
}
330
C
100
AcDbDictionary
281
     1
  3
Standard
350
1159
  0
DICTIONARY
  5
E
102
{ACAD_REACTORS
330
C
102
}
330
C
100
AcDbDictionary
281
     1
  3
STANDARD
350
13
  0
DICTIONARY
  5
115C
102
{ACAD_REACTORS
330
C
102
}
330
C
100
AcDbDictionary
281
     1
  0
ACDBDICTIONARYWDFLT
  5
1107
102
{ACAD_REACTORS
330
C
102
}
330
C
100
AcDbDictionary
281
     1
  3
Normal
350
1108
100
AcDbDictionaryWithDefault
340
1108
  0
DICTIONARY
  5
1136
102
{ACAD_REACTORS
330
C
102
}
330
C
100
AcDbDictionary
281
     1
  3
A0
350
1137
  3
A1
350
1138
  3
A2
350
1139
  3
A3
350
113A
  3
A4
350
113B
  3
A5
350
113C
  3
A6
350
113D
  3
A7
350
113E
  3
A8
350
113F
  3
A9
350
1140
  3
B0
350
1141
  3
B1
350
1142
  3
B2
350
1143
  3
B3
350
1144
  3
B4
350
1145
  3
B5
350
1146
  3
B6
350
1147
  3
B7
350
1148
  3
B8
350
1149
  3
B9
350
114A
  3
C0
350
114B
  3
C1
350
114C
  3
C2
350
114D
  3
C3
350
114E
  3
C4
350
114F
  3
C5
350
1150
  3
C6
350
1151
  3
C7
350
1152
  3
C8
350
1153
  3
C9
350
1154
  3
D0
350
1155
  3
D1
350
1156
  3
D2
350
1157
  0
DICTIONARY
  5
1134
102
{ACAD_REACTORS
330
C
102
}
330
C
100
AcDbDictionary
281
     1
  3
Standard
350
1135
  0
DICTIONARY
  5
1122
102
{ACAD_REACTORS
330
C
102
}
330
C
100
AcDbDictionary
281
     1
  3
2dWireframe
350
1128
  3
3D Hidden
350
112A
  3
3dWireframe
350
1129
  3
Basic
350
1127
  3
Brighten
350
112E
  3
ColorChange
350
1132
  3
Conceptual
350
112B
  3
Dim
350
112D
  3
Facepattern
350
1131
  3
Flat
350
1123
  3
FlatWithEdges
350
1124
  3
Gouraud
350
1125
  3
GouraudWithEdges
350
1126
  3
Linepattern
350
1130
  3
Realistic
350
112C
  3
Thicken
350
112F
  0
XRECORD
  5
7451
102
{ACAD_REACTORS
330
C
102
}
330
C
100
AcDbXrecord
280
     1
 90
        1
330
1135
  0
DICTIONARY
  5
7866
102
{ACAD_REACTORS
330
C
102
}
330
C
100
AcDbDictionary
281
     1
  0
DICTIONARY
  5
74D9
102
{ACAD_REACTORS
330
C
102
}
330
C
100
AcDbDictionary
281
     1
  3
CANNOSCALE
350
74DC
  3
CMLEADERSTYLE
350
74DB
  3
CTABLESTYLE
350
74DA
  3
DIMASSOC
350
74DF
  3
INDEXCTL
350
74DE
  3
PROJECTNAME
350
75D6
  3
SORTENTS
350
74DD
  0
DICTIONARY
  5
234
102
{ACAD_REACTORS
330
C
102
}
330
C
100
AcDbDictionary
281
     1
  0
XRECORD
  5
7865
102
{ACAD_REACTORS
330
C
102
}
330
C
100
AcDbXrecord
280
     1
  1
DWGPROPS COOKIE
  2

  3

  4

  6

  7

  8
SIBASAKI-174
  9

300
=
301
=
302
=
303
=
304
=
305
=
306
=
307
=
308
=
309
=
 40
0.0928741782407407
 41
2451414.480340509
 42
2456696.682964375
  1

 90
        0
  0
XRECORD
  5
758B
102
{ACAD_REACTORS
330
7453
102
}
330
7453
100
AcDbXrecord
280
     1
102
VTR_0.000_0.000_1.000_1.000_VISUALSTYLE
340
1128
102
VTR_0.000_0.000_1.000_1.000_GRIDDISPLAY
 70
     3
102
VTR_0.000_0.000_1.000_1.000_GRIDMAJOR
 70
     5
102
VTR_0.000_0.000_1.000_1.000_DEFAULTLIGHTING
280
     1
102
VTR_0.000_0.000_1.000_1.000_DEFAULTLIGHTINGTYPE
 70
     1
102
VTR_0.000_0.000_1.000_1.000_BRIGHTNESS
141
0.0
102
VTR_0.000_0.000_1.000_1.000_CONTRAST
142
0.0
  0
DICTIONARY
  5
116C
102
{ACAD_REACTORS
330
116B
102
}
330
116B
100
AcDbDictionary
281
     1
  0
XRECORD
  5
758C
102
{ACAD_REACTORS
330
70B1
102
}
330
70B1
100
AcDbXrecord
280
     1
102
MATERIAL
340
111A
  0
XRECORD
  5
70B2
102
{ACAD_REACTORS
330
70B1
102
}
330
70B1
100
AcDbXrecord
280
     1
290
     1
  0
XRECORD
  5
7590
102
{ACAD_REACTORS
330
70B5
102
}
330
70B5
100
AcDbXrecord
280
     1
102
MATERIAL
340
111A
  0
XRECORD
  5
70B6
102
{ACAD_REACTORS
330
70B5
102
}
330
70B5
100
AcDbXrecord
280
     1
290
     1
  0
XRECORD
  5
7592
102
{ACAD_REACTORS
330
7591
102
}
330
7591
100
AcDbXrecord
280
     1
102
MATERIAL
340
111A
  0
XRECORD
  5
7593
102
{ACAD_REACTORS
330
70B7
102
}
330
70B7
100
AcDbXrecord
280
     1
102
MATERIAL
340
111A
  0
XRECORD
  5
70B8
102
{ACAD_REACTORS
330
70B7
102
}
330
70B7
100
AcDbXrecord
280
     1
290
     1
  0
XRECORD
  5
7594
102
{ACAD_REACTORS
330
70B9
102
}
330
70B9
100
AcDbXrecord
280
     1
102
MATERIAL
340
111A
  0
XRECORD
  5
70BA
102
{ACAD_REACTORS
330
70B9
102
}
330
70B9
100
AcDbXrecord
280
     1
290
     1
  0
SORTENTSTABLE
  5
71EA
102
{ACAD_REACTORS
330
71E9
102
}
330
71E9
100
AcDbSortentsTable
330
1A
331
C3A
  5
C3A
331
C1B
  5
C1B
331
BFC
  5
BFC
331
7297
  5
7296
331
7268
  5
7268
331
A89
  5
A89
331
AA0
  5
AA0
331
A05
  5
A05
331
A1C
  5
A1C
331
980
  5
980
331
8CC
  5
8CC
331
99F
  5
99F
331
A3B
  5
A3B
331
AD7
  5
AD7
331
C3B
  5
C3B
331
C1C
  5
C1C
331
BFD
  5
BFD
331
7298
  5
7297
331
7269
  5
7269
331
A8A
  5
A8A
331
AD8
  5
AD8
331
A06
  5
A06
331
A1D
  5
A1D
331
981
  5
981
331
90B
  5
90B
331
8CD
  5
8CD
331
9A0
  5
9A0
331
A3C
  5
A3C
331
C3C
  5
C3C
331
C1D
  5
C1D
331
BFE
  5
BFE
331
7299
  5
7298
331
726A
  5
726A
331
7253
  5
7253
331
A8B
  5
A8B
331
AD9
  5
AD9
331
A07
  5
A07
331
A1E
  5
A1E
331
90C
  5
90C
331
8CE
  5
8CE
331
982
  5
982
331
9A1
  5
9A1
331
A3D
  5
A3D
331
BFF
  5
BFF
331
C1E
  5
C1E
331
C3D
  5
C3D
331
B48
  5
B48
331
729A
  5
7299
331
726B
  5
726B
331
7254
  5
7254
331
A8C
  5
A8C
331
ADA
  5
ADA
331
983
  5
983
331
8CF
  5
8CF
331
9A2
  5
9A2
331
A1F
  5
A1F
331
A3E
  5
A3E
331
B11
  5
B11
331
C00
  5
C00
331
C1F
  5
C1F
331
C3E
  5
C3E
331
B49
  5
B49
331
729B
  5
729A
331
726C
  5
726C
331
7255
  5
7255
331
A8D
  5
A8D
331
ADB
  5
ADB
331
8EF
  5
8EF
331
984
  5
984
331
9A3
  5
9A3
331
A20
  5
A20
331
A3F
  5
A3F
331
C01
  5
C01
331
C20
  5
C20
331
C3F
  5
C3F
331
729C
  5
729B
331
B4A
  5
B4A
331
7256
  5
7256
331
A8E
  5
A8E
331
985
  5
985
331
9A4
  5
9A4
331
A21
  5
A21
331
A40
  5
A40
331
C02
  5
C02
331
C21
  5
C21
331
F2D
  5
F2D
331
B4B
  5
B4B
331
729D
  5
729C
331
7257
  5
7257
331
A8F
  5
A8F
331
B14
  5
B14
331
986
  5
986
331
9A5
  5
9A5
331
A22
  5
A22
331
A41
  5
A41
331
C03
  5
C03
331
C22
  5
C22
331
B4C
  5
B4C
331
729E
  5
729D
331
726F
  5
726F
331
ADE
  5
ADE
331
987
  5
987
331
9A6
  5
9A6
331
9ED
  5
9ED
331
A23
  5
A23
331
A42
  5
A42
331
B15
  5
B15
331
C04
  5
C04
331
C23
  5
C23
331
B4D
  5
B4D
331
729F
  5
729E
331
ADF
  5
ADF
331
7270
  5
7270
331
9A7
  5
9A7
331
9EE
  5
9EE
331
A24
  5
A24
331
A43
  5
A43
331
AB8
  5
AB8
331
B16
  5
B16
331
C05
  5
C05
331
C24
  5
C24
331
EF9
  5
EF9
331
B4E
  5
B4E
331
B17
  5
B17
331
72A0
  5
729F
331
9EF
  5
9EF
331
A25
  5
A25
331
A44
  5
A44
331
AB9
  5
AB9
331
AE0
  5
AE0
331
C06
  5
C06
331
C25
  5
C25
331
B4F
  5
B4F
331
72A1
  5
72A0
331
A26
  5
A26
331
A45
  5
A45
331
ABA
  5
ABA
331
AE1
  5
AE1
331
B18
  5
B18
331
C07
  5
C07
331
C26
  5
C26
331
A27
  5
A27
331
A46
  5
A46
331
ABB
  5
ABB
331
AE2
  5
AE2
331
B19
  5
B19
331
C27
  5
C27
331
A47
  5
A47
331
A76
  5
A76
331
AE3
  5
AE3
331
B1A
  5
B1A
331
A77
  5
A77
331
B1B
  5
B1B
331
B1C
  5
B1C
331
AE6
  5
AE6
331
B1D
  5
B1D
331
B1E
  5
B1E
331
B1F
  5
B1F
331
89F
  5
89F
331
8A0
  5
8A0
331
8A1
  5
8A1
331
8A2
  5
8A2
331
8A3
  5
8A3
331
8A4
  5
8A4
331
8A5
  5
8A5
331
8A6
  5
8A6
331
8A7
  5
8A7
331
8A8
  5
8A8
331
8A9
  5
8A9
331
8AA
  5
8AA
331
8AB
  5
8AB
331
8AC
  5
8AC
331
8AD
  5
8AD
331
8AE
  5
8AE
331
8AF
  5
8AF
331
8B0
  5
8B0
331
8D0
  5
8D0
331
8B1
  5
8B1
331
8F0
  5
8F0
331
8D1
  5
8D1
331
8B2
  5
8B2
331
8F1
  5
8F1
331
8D2
  5
8D2
331
8B3
  5
8B3
331
8F2
  5
8F2
331
8D3
  5
8D3
331
8B4
  5
8B4
331
968
  5
968
331
969
  5
969
331
988
  5
988
331
8F3
  5
8F3
331
8D4
  5
8D4
331
8B5
  5
8B5
331
932
  5
932
331
96A
  5
96A
331
989
  5
989
331
9A8
  5
9A8
331
8F4
  5
8F4
331
8D5
  5
8D5
331
8B6
  5
8B6
331
933
  5
933
331
96B
  5
96B
331
98A
  5
98A
331
9A9
  5
9A9
331
8B7
  5
8B7
331
8D6
  5
8D6
331
8F5
  5
8F5
331
934
  5
934
331
9F0
  5
9F0
331
B50
  5
B50
331
A08
  5
A08
331
96C
  5
96C
331
98B
  5
98B
331
9AA
  5
9AA
331
8B8
  5
8B8
331
8D7
  5
8D7
331
8F6
  5
8F6
331
935
  5
935
331
9F1
  5
9F1
331
B51
  5
B51
331
C08
  5
C08
331
A09
  5
A09
331
A28
  5
A28
331
96D
  5
96D
331
98C
  5
98C
331
9AB
  5
9AB
331
8B9
  5
8B9
331
8D8
  5
8D8
331
8F7
  5
8F7
331
936
  5
936
331
9F2
  5
9F2
331
B52
  5
B52
331
C09
  5
C09
331
C28
  5
C28
331
A0A
  5
A0A
331
A29
  5
A29
331
A48
  5
A48
331
96E
  5
96E
331
98D
  5
98D
331
9AC
  5
9AC
331
8BA
  5
8BA
331
8D9
  5
8D9
331
8F8
  5
8F8
331
937
  5
937
331
9F3
  5
9F3
331
B53
  5
B53
331
C0A
  5
C0A
331
C29
  5
C29
331
A0B
  5
A0B
331
A2A
  5
A2A
331
A49
  5
A49
331
96F
  5
96F
331
98E
  5
98E
331
9AD
  5
9AD
331
938
  5
938
331
9F4
  5
9F4
331
A78
  5
A78
331
8BB
  5
8BB
331
8DA
  5
8DA
331
8F9
  5
8F9
331
B54
  5
B54
331
C0B
  5
C0B
331
C2A
  5
C2A
331
7258
  5
7258
331
A90
  5
A90
331
A0C
  5
A0C
331
A2B
  5
A2B
331
98F
  5
98F
331
9AE
  5
9AE
331
9F5
  5
9F5
331
A79
  5
A79
331
939
  5
939
331
8BC
  5
8BC
331
8DB
  5
8DB
331
970
  5
970
331
B55
  5
B55
331
C0C
  5
C0C
331
C2B
  5
C2B
331
7288
  5
7272
331
7259
  5
7259
331
A91
  5
A91
331
A0D
  5
A0D
331
A2C
  5
A2C
331
9AF
  5
9AF
331
9F6
  5
9F6
331
A7A
  5
A7A
331
93A
  5
93A
331
8BD
  5
8BD
331
8DC
  5
8DC
331
971
  5
971
331
990
  5
990
331
B56
  5
B56
331
C0D
  5
C0D
331
C2C
  5
C2C
331
7289
  5
7288
331
725A
  5
725A
331
A92
  5
A92
331
A0E
  5
A0E
331
A2D
  5
A2D
331
9F7
  5
9F7
331
A7B
  5
A7B
331
93B
  5
93B
331
8BE
  5
8BE
331
8DD
  5
8DD
331
8FC
  5
8FC
331
972
  5
972
331
991
  5
991
331
9B0
  5
9B0
331
C2D
  5
C2D
331
C0E
  5
C0E
331
B57
  5
B57
331
728A
  5
7289
331
725B
  5
725B
331
A93
  5
A93
331
B20
  5
B20
331
A0F
  5
A0F
331
A2E
  5
A2E
331
9F8
  5
9F8
331
A7C
  5
A7C
331
973
  5
973
331
8BF
  5
8BF
331
8DE
  5
8DE
331
8FD
  5
8FD
331
992
  5
992
331
9B1
  5
9B1
331
C2E
  5
C2E
331
C0F
  5
C0F
331
B58
  5
B58
331
728B
  5
728A
331
725C
  5
725C
331
A94
  5
A94
331
B21
  5
B21
331
A2F
  5
A2F
331
A7D
  5
A7D
331
9F9
  5
9F9
331
A10
  5
A10
331
974
  5
974
331
8C0
  5
8C0
331
8DF
  5
8DF
331
8FE
  5
8FE
331
993
  5
993
331
9B2
  5
9B2
331
C2F
  5
C2F
331
C10
  5
C10
331
B59
  5
B59
331
728C
  5
728B
331
725D
  5
725D
331
A95
  5
A95
331
ACC
  5
ACC
331
AFB
  5
AFB
331
B22
  5
B22
331
A7E
  5
A7E
331
9FA
  5
9FA
331
A11
  5
A11
331
975
  5
975
331
8C1
  5
8C1
331
8E0
  5
8E0
331
8FF
  5
8FF
331
994
  5
994
331
9B3
  5
9B3
331
A30
  5
A30
331
C30
  5
C30
331
C11
  5
C11
331
B5A
  5
B5A
331
728D
  5
728C
331
725E
  5
725E
331
A96
  5
A96
331
ACD
  5
ACD
331
B23
  5
B23
331
A7F
  5
A7F
331
9FB
  5
9FB
331
A12
  5
A12
331
995
  5
995
331
8C2
  5
8C2
331
8E1
  5
8E1
331
900
  5
900
331
9B4
  5
9B4
331
A31
  5
A31
331
C31
  5
C31
331
C12
  5
C12
331
B5B
  5
B5B
331
728E
  5
728D
331
725F
  5
725F
331
A97
  5
A97
331
ACE
  5
ACE
331
B24
  5
B24
331
A80
  5
A80
331
9FC
  5
9FC
331
A13
  5
A13
331
996
  5
996
331
8C3
  5
8C3
331
8E2
  5
8E2
331
901
  5
901
331
9B5
  5
9B5
331
A32
  5
A32
331
A61
  5
A61
331
C32
  5
C32
331
C13
  5
C13
331
B5C
  5
B5C
331
728F
  5
728E
331
ACF
  5
ACF
331
AFE
  5
AFE
331
B25
  5
B25
331
7260
  5
7260
331
A81
  5
A81
331
A98
  5
A98
331
9FD
  5
9FD
331
A14
  5
A14
331
978
  5
978
331
8C4
  5
8C4
331
8E3
  5
8E3
331
902
  5
902
331
997
  5
997
331
9B6
  5
9B6
331
A33
  5
A33
331
A62
  5
A62
331
F47
  5
F47
331
FEE
  5
FEE
331
F20
  5
F20
331
C33
  5
C33
331
C14
  5
C14
331
B5D
  5
B5D
331
AFF
  5
AFF
331
B26
  5
B26
331
7290
  5
728F
331
7261
  5
7261
331
A82
  5
A82
331
A99
  5
A99
331
9FE
  5
9FE
331
A15
  5
A15
331
979
  5
979
331
8C5
  5
8C5
331
8E4
  5
8E4
331
903
  5
903
331
998
  5
998
331
9B7
  5
9B7
331
A34
  5
A34
331
A63
  5
A63
331
AD0
  5
AD0
331
C34
  5
C34
331
C15
  5
C15
331
B27
  5
B27
331
7291
  5
7290
331
7262
  5
7262
331
A83
  5
A83
331
A9A
  5
A9A
331
9FF
  5
9FF
331
A16
  5
A16
331
97A
  5
97A
331
8C6
  5
8C6
331
8E5
  5
8E5
331
999
  5
999
331
9B8
  5
9B8
331
A35
  5
A35
331
A64
  5
A64
331
AD1
  5
AD1
331
C35
  5
C35
331
C16
  5
C16
331
B28
  5
B28
331
7292
  5
7291
331
7263
  5
7263
331
A84
  5
A84
331
A9B
  5
A9B
331
A00
  5
A00
331
A17
  5
A17
331
97B
  5
97B
331
8C7
  5
8C7
331
99A
  5
99A
331
9B9
  5
9B9
331
A36
  5
A36
331
A65
  5
A65
331
AD2
  5
AD2
331
C36
  5
C36
331
C17
  5
C17
331
B29
  5
B29
331
7293
  5
7292
331
7264
  5
7264
331
A85
  5
A85
331
A9C
  5
A9C
331
A01
  5
A01
331
A18
  5
A18
331
965
  5
965
331
97C
  5
97C
331
8C8
  5
8C8
331
99B
  5
99B
331
9BA
  5
9BA
331
A37
  5
A37
331
A66
  5
A66
331
AD3
  5
AD3
331
B02
  5
B02
331
EB5
  5
EB5
331
C37
  5
C37
331
C18
  5
C18
331
BF9
  5
BF9
331
B2A
  5
B2A
331
7294
  5
7293
331
7265
  5
7265
331
A86
  5
A86
331
A9D
  5
A9D
331
A02
  5
A02
331
A19
  5
A19
331
966
  5
966
331
907
  5
907
331
8C9
  5
8C9
331
97D
  5
97D
331
99C
  5
99C
331
A38
  5
A38
331
A67
  5
A67
331
AD4
  5
AD4
331
B03
  5
B03
331
C38
  5
C38
331
C19
  5
C19
331
BFA
  5
BFA
331
7295
  5
7294
331
7266
  5
7266
331
A87
  5
A87
331
A9E
  5
A9E
331
A03
  5
A03
331
A1A
  5
A1A
331
99D
  5
99D
331
967
  5
967
331
8CA
  5
8CA
331
97E
  5
97E
331
A39
  5
A39
331
A68
  5
A68
331
AD5
  5
AD5
331
B04
  5
B04
331
C39
  5
C39
331
C1A
  5
C1A
331
BFB
  5
BFB
331
7296
  5
7295
331
7267
  5
7267
331
A88
  5
A88
331
A9F
  5
A9F
331
A04
  5
A04
331
A1B
  5
A1B
331
909
  5
909
331
8CB
  5
8CB
331
97F
  5
97F
331
99E
  5
99E
331
A3A
  5
A3A
331
AD6
  5
AD6
  0
XRECORD
  5
758E
102
{ACAD_REACTORS
330
758D
102
}
330
758D
100
AcDbXrecord
280
     1
102
VISUALSTYLE
340
1128
102
GRIDDISPLAY
 70
     0
102
GRIDMAJOR
 70
     5
102
DEFAULTLIGHTING
280
     1
102
DEFAULTLIGHTINGTYPE
 70
     1
102
BRIGHTNESS
141
0.0
102
CONTRAST
142
0.0
102
SHADEPLOT
 70
     0
  0
XRECORD
  5
759A
102
{ACAD_REACTORS
330
7599
102
}
330
7599
100
AcDbXrecord
280
     1
102
VISUALSTYLE
340
1128
102
GRIDDISPLAY
 70
     0
102
GRIDMAJOR
 70
     5
102
DEFAULTLIGHTING
280
     1
102
DEFAULTLIGHTINGTYPE
 70
     1
102
BRIGHTNESS
141
0.0
102
CONTRAST
142
0.0
102
SHADEPLOT
 70
     0
  0
GROUP
  5
394D
102
{ACAD_REACTORS
330
D
102
}
330
D
100
AcDbGroup
300

 70
     1
 71
     1
  0
GROUP
  5
3B72
102
{ACAD_REACTORS
330
D
102
}
330
D
100
AcDbGroup
300

 70
     1
 71
     1
  0
GROUP
  5
3E1E
102
{ACAD_REACTORS
330
D
102
}
330
D
100
AcDbGroup
300

 70
     1
 71
     1
  0
GROUP
  5
3E1F
102
{ACAD_REACTORS
330
D
102
}
330
D
100
AcDbGroup
300

 70
     1
 71
     1
  0
GROUP
  5
3E20
102
{ACAD_REACTORS
330
D
102
}
330
D
100
AcDbGroup
300

 70
     1
 71
     1
  0
GROUP
  5
7028
102
{ACAD_REACTORS
330
D
102
}
330
D
100
AcDbGroup
300

 70
     1
 71
     1
  0
GROUP
  5
72AA
102
{ACAD_REACTORS
330
D
102
}
330
D
100
AcDbGroup
300

 70
     1
 71
     1
340
72A1
340
72A0
340
729F
340
729E
340
729D
340
729C
340
729B
340
729A
340
7299
340
7298
340
7297
340
7296
340
7295
340
7294
340
7293
340
7292
340
7291
340
7290
340
728F
340
728E
340
728D
340
728C
340
728B
340
728A
340
7289
340
7288
  0
GROUP
  5
72C5
102
{ACAD_REACTORS
330
D
102
}
330
D
100
AcDbGroup
300

 70
     1
 71
     1
340
72C4
340
72C3
340
72C2
340
72C1
340
72C0
340
72BF
340
72BE
340
72BD
340
72BC
340
72BB
340
72BA
340
72B9
340
72B8
340
72B7
340
72B6
340
72B5
340
72B4
340
72B3
340
72B2
340
72B1
340
72B0
340
72AF
340
72AE
340
72AD
340
72AC
340
72AB
  0
GROUP
  5
72E9
102
{ACAD_REACTORS
330
D
102
}
330
D
100
AcDbGroup
300

 70
     1
 71
     1
340
72E8
340
72E7
340
72E6
340
72E5
340
72E4
340
72E3
340
72E2
340
72E1
340
72E0
340
72DF
340
72DE
340
72DD
340
72DC
340
72DB
340
72DA
340
72D9
340
72D8
340
72D7
340
72D6
340
72D5
340
72D4
340
72D3
340
72D2
340
72D1
340
72D0
340
72CF
  0
GROUP
  5
730F
102
{ACAD_REACTORS
330
D
102
}
330
D
100
AcDbGroup
300

 70
     1
 71
     1
340
730E
340
730D
340
730C
340
730B
340
730A
340
7309
340
7308
340
7307
340
7306
340
7305
340
7304
340
7303
340
7302
340
7301
340
7300
340
72FF
340
72FE
340
72FD
340
72FC
340
72FB
340
72FA
340
72F9
340
72F8
340
72F7
340
72F6
340
72F5
  0
GROUP
  5
3958
102
{ACAD_REACTORS
330
D
102
}
330
D
100
AcDbGroup
300

 70
     1
 71
     1
  0
GROUP
  5
3A23
102
{ACAD_REACTORS
330
D
102
}
330
D
100
AcDbGroup
300

 70
     1
 71
     1
  0
GROUP
  5
3A24
102
{ACAD_REACTORS
330
D
102
}
330
D
100
AcDbGroup
300

 70
     1
 71
     1
  0
LAYOUT
  5
115D
102
{ACAD_XDICTIONARY
360
7867
102
}
102
{ACAD_REACTORS
330
115B
102
}
330
115B
100
AcDbPlotSettings
  1

  2
RICOH IPSiO SP C820 RPCS
  4

  6

 40
0.0
 41
0.0
 42
0.0
 43
0.0
 44
0.0
 45
0.0
 46
0.0
 47
0.0
 48
0.0
 49
0.0
140
0.0
141
0.0
142
1.0
143
1.0
 70
  1712
 72
     0
 73
     0
 74
     0
  7

 75
     0
147
1.0
148
0.0
149
0.0
100
AcDbLayout
  1
Model
 70
     1
 71
     0
 10
0.0
 20
0.0
 11
12.0
 21
9.0
 12
0.0
 22
0.0
 32
0.0
 14
0.0
 24
0.0
 34
0.0
 15
0.0
 25
0.0
 35
0.0
146
0.0
 13
0.0
 23
0.0
 33
0.0
 16
1.0
 26
0.0
 36
0.0
 17
0.0
 27
1.0
 37
0.0
 76
     0
330
1A
  0
LAYOUT
  5
115E
102
{ACAD_XDICTIONARY
360
1170
102
}
102
{ACAD_REACTORS
330
115B
102
}
330
115B
100
AcDbPlotSettings
  1

  2
Adobe PDF
  4
A3
  6

 40
3.174999952316284
 41
3.174999952316284
 42
3.17498779296875
 43
3.17498779296875
 44
297.0318298339844
 45
420.1583251953125
 46
12.83379953496899
 47
14.38722876892217
 48
0.0
 49
0.0
140
0.0
141
0.0
142
1.0
143
1.0
 70
   692
 72
     1
 73
     1
 74
     1
  7
monochrome.ctb
 75
    16
147
1.0
148
-19.98806408098414
149
-16.99968138599991
100
AcDbLayout
  1
レイアウト1
 70
     0
 71
     1
 10
2.425847519093224
 20
0.9908818987146332
 11
422.5841727144056
 21
298.022711732699
 12
0.0
 22
0.0
 32
0.0
 14
20.0
 24
17.0
 34
0.0
 15
405.0
 25
281.9999999999999
 35
0.0
146
0.0
 13
0.0
 23
0.0
 33
0.0
 16
1.0
 26
0.0
 36
0.0
 17
0.0
 27
1.0
 37
0.0
 76
     0
330
17
331
22
1001
ACAD_PSEXT
1000
Adobe PDF
1000
Adobe PDF Converter
1000
Desktop
1000

1070
     0
  0
MATERIAL
  5
1112
102
{ACAD_XDICTIONARY
360
1113
102
}
102
{ACAD_REACTORS
330
1109
102
}
330
1109
100
AcDbMaterial
  1
ByBlock
 72
     0
 73
     2
 43
0.0208333333333333
 43
0.0
 43
0.0
 43
0.0
 43
0.0
 43
0.0208333333333333
 43
0.0
 43
0.0
 43
0.0
 43
0.0
 43
1.0
 43
0.0
 43
0.0
 43
0.0
 43
0.0
 43
1.0
 77
     0
 78
     2
 47
0.0208333333333333
 47
0.0
 47
0.0
 47
0.0
 47
0.0
 47
0.0208333333333333
 47
0.0
 47
0.0
 47
0.0
 47
0.0
 47
1.0
 47
0.0
 47
0.0
 47
0.0
 47
0.0
 47
1.0
171
     0
172
     2
 49
0.0208333333333333
 49
0.0
 49
0.0
 49
0.0
 49
0.0
 49
0.0208333333333333
 49
0.0
 49
0.0
 49
0.0
 49
0.0
 49
1.0
 49
0.0
 49
0.0
 49
0.0
 49
0.0
 49
1.0
175
     0
176
     2
142
0.0208333333333333
142
0.0
142
0.0
142
0.0
142
0.0
142
0.0208333333333333
142
0.0
142
0.0
142
0.0
142
0.0
142
1.0
142
0.0
142
0.0
142
0.0
142
0.0
142
1.0
179
     0
270
     2
144
0.0208333333333333
144
0.0
144
0.0
144
0.0
144
0.0
144
0.0208333333333333
144
0.0
144
0.0
144
0.0
144
0.0
144
1.0
144
0.0
144
0.0
144
0.0
144
0.0
144
1.0
274
     2
147
0.0208333333333333
147
0.0
147
0.0
147
0.0
147
0.0
147
0.0208333333333333
147
0.0
147
0.0
147
0.0
147
0.0
147
1.0
147
0.0
147
0.0
147
0.0
147
0.0
147
1.0
  0
MATERIAL
  5
110A
102
{ACAD_XDICTIONARY
360
110B
102
}
102
{ACAD_REACTORS
330
1109
102
}
330
1109
100
AcDbMaterial
  1
ByLayer
 72
     0
 73
     2
 43
0.0208333333333333
 43
0.0
 43
0.0
 43
0.0
 43
0.0
 43
0.0208333333333333
 43
0.0
 43
0.0
 43
0.0
 43
0.0
 43
1.0
 43
0.0
 43
0.0
 43
0.0
 43
0.0
 43
1.0
 77
     0
 78
     2
 47
0.0208333333333333
 47
0.0
 47
0.0
 47
0.0
 47
0.0
 47
0.0208333333333333
 47
0.0
 47
0.0
 47
0.0
 47
0.0
 47
1.0
 47
0.0
 47
0.0
 47
0.0
 47
0.0
 47
1.0
171
     0
172
     2
 49
0.0208333333333333
 49
0.0
 49
0.0
 49
0.0
 49
0.0
 49
0.0208333333333333
 49
0.0
 49
0.0
 49
0.0
 49
0.0
 49
1.0
 49
0.0
 49
0.0
 49
0.0
 49
0.0
 49
1.0
175
     0
176
     2
142
0.0208333333333333
142
0.0
142
0.0
142
0.0
142
0.0
142
0.0208333333333333
142
0.0
142
0.0
142
0.0
142
0.0
142
1.0
142
0.0
142
0.0
142
0.0
142
0.0
142
1.0
179
     0
270
     2
144
0.0208333333333333
144
0.0
144
0.0
144
0.0
144
0.0
144
0.0208333333333333
144
0.0
144
0.0
144
0.0
144
0.0
144
1.0
144
0.0
144
0.0
144
0.0
144
0.0
144
1.0
274
     2
147
0.0208333333333333
147
0.0
147
0.0
147
0.0
147
0.0
147
0.0208333333333333
147
0.0
147
0.0
147
0.0
147
0.0
147
1.0
147
0.0
147
0.0
147
0.0
147
0.0
147
1.0
  0
MATERIAL
  5
111A
102
{ACAD_XDICTIONARY
360
111B
102
}
102
{ACAD_REACTORS
330
1109
102
}
330
1109
100
AcDbMaterial
  1
Global
 72
     0
 73
     2
 43
0.0208333333333333
 43
0.0
 43
0.0
 43
0.0
 43
0.0
 43
0.0208333333333333
 43
0.0
 43
0.0
 43
0.0
 43
0.0
 43
1.0
 43
0.0
 43
0.0
 43
0.0
 43
0.0
 43
1.0
 77
     0
 78
     2
 47
0.0208333333333333
 47
0.0
 47
0.0
 47
0.0
 47
0.0
 47
0.0208333333333333
 47
0.0
 47
0.0
 47
0.0
 47
0.0
 47
1.0
 47
0.0
 47
0.0
 47
0.0
 47
0.0
 47
1.0
171
     0
172
     2
 49
0.0208333333333333
 49
0.0
 49
0.0
 49
0.0
 49
0.0
 49
0.0208333333333333
 49
0.0
 49
0.0
 49
0.0
 49
0.0
 49
1.0
 49
0.0
 49
0.0
 49
0.0
 49
0.0
 49
1.0
175
     0
176
     2
142
0.0208333333333333
142
0.0
142
0.0
142
0.0
142
0.0
142
0.0208333333333333
142
0.0
142
0.0
142
0.0
142
0.0
142
1.0
142
0.0
142
0.0
142
0.0
142
0.0
142
1.0
179
     0
270
     2
144
0.0208333333333333
144
0.0
144
0.0
144
0.0
144
0.0
144
0.0208333333333333
144
0.0
144
0.0
144
0.0
144
0.0
144
1.0
144
0.0
144
0.0
144
0.0
144
0.0
144
1.0
274
     2
147
0.0208333333333333
147
0.0
147
0.0
147
0.0
147
0.0
147
0.0208333333333333
147
0.0
147
0.0
147
0.0
147
0.0
147
1.0
147
0.0
147
0.0
147
0.0
147
0.0
147
1.0
  0
ACAD_PROXY_OBJECT
  5
1159
102
{ACAD_REACTORS
330
1158
102
}
330
1158
100
AcDbProxyObject
 90
      499
 91
      506
 95
   983063
 70
     0
 93
      618
310
40901902A4063FBFFFFFE000000000000002040AD7A3703D0AD73F4254DD185B99185C99000000000000000104090141901A00000000000004100000000000000041025764000000000000300FE5
340
14
340
0
340
10
340
0
 94
        0
1001
ACAD_MLEADERVER
1070
     2
1001
ACAD
1000
AcRTDxfName
1000
MLEADERSTYLE
1000
AcRTDxfName
1000
MLEADERSTYLE
1000
AcRTDxfName
1000
MLEADERSTYLE
1000
AcRTDxfName
1000
MLEADERSTYLE
1000
AcRTDxfName
1000
MLEADERSTYLE
1000
AcRTDxfName
1000
MLEADERSTYLE
1000
AcRTDxfName
1000
MLEADERSTYLE
1000
AcRTDxfName
1000
MLEADERSTYLE
1000
AcRTDxfName
1000
MLEADERSTYLE
1000
AcRTDxfName
1000
MLEADERSTYLE
1000
AcRTDxfName
1000
MLEADERSTYLE
  0
MLINESTYLE
  5
13
102
{ACAD_REACTORS
330
E
102
}
330
E
100
AcDbMlineStyle
  2
STANDARD
 70
     0
  3

 62
     0
 51
90.0
 52
90.0
 71
     2
 49
0.5
 62
   256
  6
BYLAYER
 49
-0.5
 62
   256
  6
BYLAYER
  0
ACDBPLACEHOLDER
  5
1108
102
{ACAD_REACTORS
330
1107
102
}
330
1107
  0
ACAD_PROXY_OBJECT
  5
1137
102
{ACAD_REACTORS
330
1136
102
}
330
1136
100
AcDbProxyObject
 90
      499
 91
      505
 95
   983063
 70
     0
 93
       49
310
904313A3100598
 94
        0
1001
ACAD
1000
AcRTDxfName
1000
SCALE
1000
AcRTDxfName
1000
SCALE
1000
AcRTDxfName
1000
SCALE
1000
AcRTDxfName
1000
SCALE
1000
AcRTDxfName
1000
SCALE
1000
AcRTDxfName
1000
SCALE
1000
AcRTDxfName
1000
SCALE
1000
AcRTDxfName
1000
SCALE
1000
AcRTDxfName
1000
SCALE
1000
AcRTDxfName
1000
SCALE
1000
AcRTDxfName
1000
SCALE
  0
ACAD_PROXY_OBJECT
  5
1138
102
{ACAD_REACTORS
330
1136
102
}
330
1136
100
AcDbProxyObject
 90
      499
 91
      505
 95
   983063
 70
     0
 93
      113
310
904313A32004000000000000004004
 94
        0
1001
ACAD
1000
AcRTDxfName
1000
SCALE
1000
AcRTDxfName
1000
SCALE
1000
AcRTDxfName
1000
SCALE
1000
AcRTDxfName
1000
SCALE
1000
AcRTDxfName
1000
SCALE
1000
AcRTDxfName
1000
SCALE
1000
AcRTDxfName
1000
SCALE
1000
AcRTDxfName
1000
SCALE
1000
AcRTDxfName
1000
SCALE
1000
AcRTDxfName
1000
SCALE
1000
AcRTDxfName
1000
SCALE
  0
ACAD_PROXY_OBJECT
  5
1139
102
{ACAD_REACTORS
330
1136
102
}
330
1136
100
AcDbProxyObject
 90
      499
 91
      505
 95
   983063
 70
     0
 93
      113
310
904313A34004000000000000104074
 94
        0
1001
ACAD
1000
AcRTDxfName
1000
SCALE
1000
AcRTDxfName
1000
SCALE
1000
AcRTDxfName
1000
SCALE
1000
AcRTDxfName
1000
SCALE
1000
AcRTDxfName
1000
SCALE
1000
AcRTDxfName
1000
SCALE
1000
AcRTDxfName
1000
SCALE
1000
AcRTDxfName
1000
SCALE
1000
AcRTDxfName
1000
SCALE
1000
AcRTDxfName
1000
SCALE
1000
AcRTDxfName
1000
SCALE
  0
ACAD_PROXY_OBJECT
  5
113A
102
{ACAD_REACTORS
330
1136
102
}
330
1136
100
AcDbProxyObject
 90
      499
 91
      505
 95
   983063
 70
     0
 93
      113
310
904313A35004000000000000144004
 94
        0
1001
ACAD
1000
AcRTDxfName
1000
SCALE
1000
AcRTDxfName
1000
SCALE
1000
AcRTDxfName
1000
SCALE
1000
AcRTDxfName
1000
SCALE
1000
AcRTDxfName
1000
SCALE
1000
AcRTDxfName
1000
SCALE
1000
AcRTDxfName
1000
SCALE
1000
AcRTDxfName
1000
SCALE
1000
AcRTDxfName
1000
SCALE
1000
AcRTDxfName
1000
SCALE
1000
AcRTDxfName
1000
SCALE
  0
ACAD_PROXY_OBJECT
  5
113B
102
{ACAD_REACTORS
330
1136
102
}
330
1136
100
AcDbProxyObject
 90
      499
 91
      505
 95
   983063
 70
     0
 93
      113
310
904313A38004000000000000204074
 94
        0
1001
ACAD
1000
AcRTDxfName
1000
SCALE
1000
AcRTDxfName
1000
SCALE
1000
AcRTDxfName
1000
SCALE
1000
AcRTDxfName
1000
SCALE
1000
AcRTDxfName
1000
SCALE
1000
AcRTDxfName
1000
SCALE
1000
AcRTDxfName
1000
SCALE
1000
AcRTDxfName
1000
SCALE
1000
AcRTDxfName
1000
SCALE
1000
AcRTDxfName
1000
SCALE
1000
AcRTDxfName
1000
SCALE
  0
ACAD_PROXY_OBJECT
  5
113C
102
{ACAD_REACTORS
330
1136
102
}
330
1136
100
AcDbProxyObject
 90
      499
 91
      505
 95
   983063
 70
     0
 93
      121
310
905313A3130004000000000000244009
 94
        0
1001
ACAD
1000
AcRTDxfName
1000
SCALE
1000
AcRTDxfName
1000
SCALE
1000
AcRTDxfName
1000
SCALE
1000
AcRTDxfName
1000
SCALE
1000
AcRTDxfName
1000
SCALE
1000
AcRTDxfName
1000
SCALE
1000
AcRTDxfName
1000
SCALE
1000
AcRTDxfName
1000
SCALE
1000
AcRTDxfName
1000
SCALE
1000
AcRTDxfName
1000
SCALE
1000
AcRTDxfName
1000
SCALE
  0
ACAD_PROXY_OBJECT
  5
113D
102
{ACAD_REACTORS
330
1136
102
}
330
1136
100
AcDbProxyObject
 90
      499
 91
      505
 95
   983063
 70
     0
 93
      121
310
905313A3136004000000000000304009
 94
        0
1001
ACAD
1000
AcRTDxfName
1000
SCALE
1000
AcRTDxfName
1000
SCALE
1000
AcRTDxfName
1000
SCALE
1000
AcRTDxfName
1000
SCALE
1000
AcRTDxfName
1000
SCALE
1000
AcRTDxfName
1000
SCALE
1000
AcRTDxfName
1000
SCALE
1000
AcRTDxfName
1000
SCALE
1000
AcRTDxfName
1000
SCALE
1000
AcRTDxfName
1000
SCALE
1000
AcRTDxfName
1000
SCALE
  0
ACAD_PROXY_OBJECT
  5
113E
102
{ACAD_REACTORS
330
1136
102
}
330
1136
100
AcDbProxyObject
 90
      499
 91
      505
 95
   983063
 70
     0
 93
      121
310
905313A3230004000000000000344009
 94
        0
1001
ACAD
1000
AcRTDxfName
1000
SCALE
1000
AcRTDxfName
1000
SCALE
1000
AcRTDxfName
1000
SCALE
1000
AcRTDxfName
1000
SCALE
1000
AcRTDxfName
1000
SCALE
1000
AcRTDxfName
1000
SCALE
1000
AcRTDxfName
1000
SCALE
1000
AcRTDxfName
1000
SCALE
1000
AcRTDxfName
1000
SCALE
1000
AcRTDxfName
1000
SCALE
1000
AcRTDxfName
1000
SCALE
  0
ACAD_PROXY_OBJECT
  5
113F
102
{ACAD_REACTORS
330
1136
102
}
330
1136
100
AcDbProxyObject
 90
      499
 91
      505
 95
   983063
 70
     0
 93
      121
310
905313A33300040000000000003E4009
 94
        0
1001
ACAD
1000
AcRTDxfName
1000
SCALE
1000
AcRTDxfName
1000
SCALE
1000
AcRTDxfName
1000
SCALE
1000
AcRTDxfName
1000
SCALE
1000
AcRTDxfName
1000
SCALE
1000
AcRTDxfName
1000
SCALE
1000
AcRTDxfName
1000
SCALE
1000
AcRTDxfName
1000
SCALE
1000
AcRTDxfName
1000
SCALE
1000
AcRTDxfName
1000
SCALE
1000
AcRTDxfName
1000
SCALE
  0
ACAD_PROXY_OBJECT
  5
1140
102
{ACAD_REACTORS
330
1136
102
}
330
1136
100
AcDbProxyObject
 90
      499
 91
      505
 95
   983063
 70
     0
 93
      121
310
905313A3430004000000000000444009
 94
        0
1001
ACAD
1000
AcRTDxfName
1000
SCALE
1000
AcRTDxfName
1000
SCALE
1000
AcRTDxfName
1000
SCALE
1000
AcRTDxfName
1000
SCALE
1000
AcRTDxfName
1000
SCALE
1000
AcRTDxfName
1000
SCALE
1000
AcRTDxfName
1000
SCALE
1000
AcRTDxfName
1000
SCALE
1000
AcRTDxfName
1000
SCALE
1000
AcRTDxfName
1000
SCALE
1000
AcRTDxfName
1000
SCALE
  0
ACAD_PROXY_OBJECT
  5
1141
102
{ACAD_REACTORS
330
1136
102
}
330
1136
100
AcDbProxyObject
 90
      499
 91
      505
 95
   983063
 70
     0
 93
      121
310
905313A3530004000000000000494009
 94
        0
1001
ACAD
1000
AcRTDxfName
1000
SCALE
1000
AcRTDxfName
1000
SCALE
1000
AcRTDxfName
1000
SCALE
1000
AcRTDxfName
1000
SCALE
1000
AcRTDxfName
1000
SCALE
1000
AcRTDxfName
1000
SCALE
1000
AcRTDxfName
1000
SCALE
1000
AcRTDxfName
1000
SCALE
1000
AcRTDxfName
1000
SCALE
1000
AcRTDxfName
1000
SCALE
1000
AcRTDxfName
1000
SCALE
  0
ACAD_PROXY_OBJECT
  5
1142
102
{ACAD_REACTORS
330
1136
102
}
330
1136
100
AcDbProxyObject
 90
      499
 91
      505
 95
   983063
 70
     0
 93
      129
310
906313A313030004000000000000594002
 94
        0
1001
ACAD
1000
AcRTDxfName
1000
SCALE
1000
AcRTDxfName
1000
SCALE
1000
AcRTDxfName
1000
SCALE
1000
AcRTDxfName
1000
SCALE
1000
AcRTDxfName
1000
SCALE
1000
AcRTDxfName
1000
SCALE
1000
AcRTDxfName
1000
SCALE
1000
AcRTDxfName
1000
SCALE
1000
AcRTDxfName
1000
SCALE
1000
AcRTDxfName
1000
SCALE
1000
AcRTDxfName
1000
SCALE
  0
ACAD_PROXY_OBJECT
  5
1143
102
{ACAD_REACTORS
330
1136
102
}
330
1136
100
AcDbProxyObject
 90
      499
 91
      505
 95
   983063
 70
     0
 93
      113
310
904323A31000000000000000010159
 94
        0
1001
ACAD
1000
AcRTDxfName
1000
SCALE
1000
AcRTDxfName
1000
SCALE
1000
AcRTDxfName
1000
SCALE
1000
AcRTDxfName
1000
SCALE
1000
AcRTDxfName
1000
SCALE
1000
AcRTDxfName
1000
SCALE
1000
AcRTDxfName
1000
SCALE
1000
AcRTDxfName
1000
SCALE
1000
AcRTDxfName
1000
SCALE
1000
AcRTDxfName
1000
SCALE
1000
AcRTDxfName
1000
SCALE
  0
ACAD_PROXY_OBJECT
  5
1144
102
{ACAD_REACTORS
330
1136
102
}
330
1136
100
AcDbProxyObject
 90
      499
 91
      505
 95
   983063
 70
     0
 93
      113
310
904343A31000000000000000410100
 94
        0
1001
ACAD
1000
AcRTDxfName
1000
SCALE
1000
AcRTDxfName
1000
SCALE
1000
AcRTDxfName
1000
SCALE
1000
AcRTDxfName
1000
SCALE
1000
AcRTDxfName
1000
SCALE
1000
AcRTDxfName
1000
SCALE
1000
AcRTDxfName
1000
SCALE
1000
AcRTDxfName
1000
SCALE
1000
AcRTDxfName
1000
SCALE
1000
AcRTDxfName
1000
SCALE
1000
AcRTDxfName
1000
SCALE
  0
ACAD_PROXY_OBJECT
  5
1145
102
{ACAD_REACTORS
330
1136
102
}
330
1136
100
AcDbProxyObject
 90
      499
 91
      505
 95
   983063
 70
     0
 93
      113
310
904383A31000000000000000810159
 94
        0
1001
ACAD
1000
AcRTDxfName
1000
SCALE
1000
AcRTDxfName
1000
SCALE
1000
AcRTDxfName
1000
SCALE
1000
AcRTDxfName
1000
SCALE
1000
AcRTDxfName
1000
SCALE
1000
AcRTDxfName
1000
SCALE
1000
AcRTDxfName
1000
SCALE
1000
AcRTDxfName
1000
SCALE
1000
AcRTDxfName
1000
SCALE
1000
AcRTDxfName
1000
SCALE
1000
AcRTDxfName
1000
SCALE
  0
ACAD_PROXY_OBJECT
  5
1146
102
{ACAD_REACTORS
330
1136
102
}
330
1136
100
AcDbProxyObject
 90
      499
 91
      505
 95
   983063
 70
     0
 93
      121
310
90531303A31000000000000000910100
 94
        0
1001
ACAD
1000
AcRTDxfName
1000
SCALE
1000
AcRTDxfName
1000
SCALE
1000
AcRTDxfName
1000
SCALE
1000
AcRTDxfName
1000
SCALE
1000
AcRTDxfName
1000
SCALE
1000
AcRTDxfName
1000
SCALE
1000
AcRTDxfName
1000
SCALE
1000
AcRTDxfName
1000
SCALE
1000
AcRTDxfName
1000
SCALE
1000
AcRTDxfName
1000
SCALE
1000
AcRTDxfName
1000
SCALE
  0
ACAD_PROXY_OBJECT
  5
1147
102
{ACAD_REACTORS
330
1136
102
}
330
1136
100
AcDbProxyObject
 90
      499
 91
      505
 95
   983063
 70
     0
 93
      129
310
9063130303A31000000000000001650102
 94
        0
1001
ACAD
1000
AcRTDxfName
1000
SCALE
1000
AcRTDxfName
1000
SCALE
1000
AcRTDxfName
1000
SCALE
1000
AcRTDxfName
1000
SCALE
1000
AcRTDxfName
1000
SCALE
1000
AcRTDxfName
1000
SCALE
1000
AcRTDxfName
1000
SCALE
1000
AcRTDxfName
1000
SCALE
1000
AcRTDxfName
1000
SCALE
1000
AcRTDxfName
1000
SCALE
1000
AcRTDxfName
1000
SCALE
  0
ACAD_PROXY_OBJECT
  5
1148
102
{ACAD_REACTORS
330
1136
102
}
330
1136
100
AcDbProxyObject
 90
      499
 91
      505
 95
   983063
 70
     0
 93
      265
310
90F312F31323822203D2031272D302200000000000000200FC000000000000284000
 94
        0
1001
ACAD
1000
AcRTDxfName
1000
SCALE
1000
AcRTDxfName
1000
SCALE
1000
AcRTDxfName
1000
SCALE
1000
AcRTDxfName
1000
SCALE
1000
AcRTDxfName
1000
SCALE
1000
AcRTDxfName
1000
SCALE
1000
AcRTDxfName
1000
SCALE
1000
AcRTDxfName
1000
SCALE
1000
AcRTDxfName
1000
SCALE
1000
AcRTDxfName
1000
SCALE
1000
AcRTDxfName
1000
SCALE
  0
ACAD_PROXY_OBJECT
  5
1149
102
{ACAD_REACTORS
330
1136
102
}
330
1136
100
AcDbProxyObject
 90
      499
 91
      505
 95
   983063
 70
     0
 93
      257
310
90E312F363422203D2031272D302200000000000000240FC000000000000284000
 94
        0
1001
ACAD
1000
AcRTDxfName
1000
SCALE
1000
AcRTDxfName
1000
SCALE
1000
AcRTDxfName
1000
SCALE
1000
AcRTDxfName
1000
SCALE
1000
AcRTDxfName
1000
SCALE
1000
AcRTDxfName
1000
SCALE
1000
AcRTDxfName
1000
SCALE
1000
AcRTDxfName
1000
SCALE
1000
AcRTDxfName
1000
SCALE
1000
AcRTDxfName
1000
SCALE
1000
AcRTDxfName
1000
SCALE
  0
ACAD_PROXY_OBJECT
  5
114A
102
{ACAD_REACTORS
330
1136
102
}
330
1136
100
AcDbProxyObject
 90
      499
 91
      505
 95
   983063
 70
     0
 93
      257
310
90E312F333222203D2031272D302200000000000000280FC000000000000284040
 94
        0
1001
ACAD
1000
AcRTDxfName
1000
SCALE
1000
AcRTDxfName
1000
SCALE
1000
AcRTDxfName
1000
SCALE
1000
AcRTDxfName
1000
SCALE
1000
AcRTDxfName
1000
SCALE
1000
AcRTDxfName
1000
SCALE
1000
AcRTDxfName
1000
SCALE
1000
AcRTDxfName
1000
SCALE
1000
AcRTDxfName
1000
SCALE
1000
AcRTDxfName
1000
SCALE
1000
AcRTDxfName
1000
SCALE
  0
ACAD_PROXY_OBJECT
  5
114B
102
{ACAD_REACTORS
330
1136
102
}
330
1136
100
AcDbProxyObject
 90
      499
 91
      505
 95
   983063
 70
     0
 93
      257
310
90E312F313622203D2031272D3022000000000000002C0FC000000000000284000
 94
        0
1001
ACAD
1000
AcRTDxfName
1000
SCALE
1000
AcRTDxfName
1000
SCALE
1000
AcRTDxfName
1000
SCALE
1000
AcRTDxfName
1000
SCALE
1000
AcRTDxfName
1000
SCALE
1000
AcRTDxfName
1000
SCALE
1000
AcRTDxfName
1000
SCALE
1000
AcRTDxfName
1000
SCALE
1000
AcRTDxfName
1000
SCALE
1000
AcRTDxfName
1000
SCALE
1000
AcRTDxfName
1000
SCALE
  0
ACAD_PROXY_OBJECT
  5
114C
102
{ACAD_REACTORS
330
1136
102
}
330
1136
100
AcDbProxyObject
 90
      499
 91
      505
 95
   983063
 70
     0
 93
      257
310
90E332F333222203D2031272D3022000000000000002E0FC000000000000284000
 94
        0
1001
ACAD
1000
AcRTDxfName
1000
SCALE
1000
AcRTDxfName
1000
SCALE
1000
AcRTDxfName
1000
SCALE
1000
AcRTDxfName
1000
SCALE
1000
AcRTDxfName
1000
SCALE
1000
AcRTDxfName
1000
SCALE
1000
AcRTDxfName
1000
SCALE
1000
AcRTDxfName
1000
SCALE
1000
AcRTDxfName
1000
SCALE
1000
AcRTDxfName
1000
SCALE
1000
AcRTDxfName
1000
SCALE
  0
ACAD_PROXY_OBJECT
  5
114D
102
{ACAD_REACTORS
330
1136
102
}
330
1136
100
AcDbProxyObject
 90
      499
 91
      505
 95
   983063
 70
     0
 93
      249
310
90D312F3822203D2031272D302200000000000000300FC000000000000284040
 94
        0
1001
ACAD
1000
AcRTDxfName
1000
SCALE
1000
AcRTDxfName
1000
SCALE
1000
AcRTDxfName
1000
SCALE
1000
AcRTDxfName
1000
SCALE
1000
AcRTDxfName
1000
SCALE
1000
AcRTDxfName
1000
SCALE
1000
AcRTDxfName
1000
SCALE
1000
AcRTDxfName
1000
SCALE
1000
AcRTDxfName
1000
SCALE
1000
AcRTDxfName
1000
SCALE
1000
AcRTDxfName
1000
SCALE
  0
ACAD_PROXY_OBJECT
  5
114E
102
{ACAD_REACTORS
330
1136
102
}
330
1136
100
AcDbProxyObject
 90
      499
 91
      505
 95
   983063
 70
     0
 93
      257
310
90E332F313622203D2031272D302200000000000000320FC000000000000284000
 94
        0
1001
ACAD
1000
AcRTDxfName
1000
SCALE
1000
AcRTDxfName
1000
SCALE
1000
AcRTDxfName
1000
SCALE
1000
AcRTDxfName
1000
SCALE
1000
AcRTDxfName
1000
SCALE
1000
AcRTDxfName
1000
SCALE
1000
AcRTDxfName
1000
SCALE
1000
AcRTDxfName
1000
SCALE
1000
AcRTDxfName
1000
SCALE
1000
AcRTDxfName
1000
SCALE
1000
AcRTDxfName
1000
SCALE
  0
ACAD_PROXY_OBJECT
  5
114F
102
{ACAD_REACTORS
330
1136
102
}
330
1136
100
AcDbProxyObject
 90
      499
 91
      505
 95
   983063
 70
     0
 93
      249
310
90D312F3422203D2031272D302200000000000000340FC000000000000284040
 94
        0
1001
ACAD
1000
AcRTDxfName
1000
SCALE
1000
AcRTDxfName
1000
SCALE
1000
AcRTDxfName
1000
SCALE
1000
AcRTDxfName
1000
SCALE
1000
AcRTDxfName
1000
SCALE
1000
AcRTDxfName
1000
SCALE
1000
AcRTDxfName
1000
SCALE
1000
AcRTDxfName
1000
SCALE
1000
AcRTDxfName
1000
SCALE
1000
AcRTDxfName
1000
SCALE
1000
AcRTDxfName
1000
SCALE
  0
ACAD_PROXY_OBJECT
  5
1150
102
{ACAD_REACTORS
330
1136
102
}
330
1136
100
AcDbProxyObject
 90
      499
 91
      505
 95
   983063
 70
     0
 93
      249
310
90D332F3822203D2031272D302200000000000000360FC000000000000284040
 94
        0
1001
ACAD
1000
AcRTDxfName
1000
SCALE
1000
AcRTDxfName
1000
SCALE
1000
AcRTDxfName
1000
SCALE
1000
AcRTDxfName
1000
SCALE
1000
AcRTDxfName
1000
SCALE
1000
AcRTDxfName
1000
SCALE
1000
AcRTDxfName
1000
SCALE
1000
AcRTDxfName
1000
SCALE
1000
AcRTDxfName
1000
SCALE
1000
AcRTDxfName
1000
SCALE
1000
AcRTDxfName
1000
SCALE
  0
ACAD_PROXY_OBJECT
  5
1151
102
{ACAD_REACTORS
330
1136
102
}
330
1136
100
AcDbProxyObject
 90
      499
 91
      505
 95
   983063
 70
     0
 93
      249
310
90D312F3222203D2031272D302200000000000000380FC000000000000284040
 94
        0
1001
ACAD
1000
AcRTDxfName
1000
SCALE
1000
AcRTDxfName
1000
SCALE
1000
AcRTDxfName
1000
SCALE
1000
AcRTDxfName
1000
SCALE
1000
AcRTDxfName
1000
SCALE
1000
AcRTDxfName
1000
SCALE
1000
AcRTDxfName
1000
SCALE
1000
AcRTDxfName
1000
SCALE
1000
AcRTDxfName
1000
SCALE
1000
AcRTDxfName
1000
SCALE
1000
AcRTDxfName
1000
SCALE
  0
ACAD_PROXY_OBJECT
  5
1152
102
{ACAD_REACTORS
330
1136
102
}
330
1136
100
AcDbProxyObject
 90
      499
 91
      505
 95
   983063
 70
     0
 93
      249
310
90D332F3422203D2031272D3022000000000000003A0FC000000000000284040
 94
        0
1001
ACAD
1000
AcRTDxfName
1000
SCALE
1000
AcRTDxfName
1000
SCALE
1000
AcRTDxfName
1000
SCALE
1000
AcRTDxfName
1000
SCALE
1000
AcRTDxfName
1000
SCALE
1000
AcRTDxfName
1000
SCALE
1000
AcRTDxfName
1000
SCALE
1000
AcRTDxfName
1000
SCALE
1000
AcRTDxfName
1000
SCALE
1000
AcRTDxfName
1000
SCALE
1000
AcRTDxfName
1000
SCALE
  0
ACAD_PROXY_OBJECT
  5
1153
102
{ACAD_REACTORS
330
1136
102
}
330
1136
100
AcDbProxyObject
 90
      499
 91
      505
 95
   983063
 70
     0
 93
      169
310
90B3122203D2031272D3022004000000000000284000
 94
        0
1001
ACAD
1000
AcRTDxfName
1000
SCALE
1000
AcRTDxfName
1000
SCALE
1000
AcRTDxfName
1000
SCALE
1000
AcRTDxfName
1000
SCALE
1000
AcRTDxfName
1000
SCALE
1000
AcRTDxfName
1000
SCALE
1000
AcRTDxfName
1000
SCALE
1000
AcRTDxfName
1000
SCALE
1000
AcRTDxfName
1000
SCALE
1000
AcRTDxfName
1000
SCALE
1000
AcRTDxfName
1000
SCALE
  0
ACAD_PROXY_OBJECT
  5
1154
102
{ACAD_REACTORS
330
1136
102
}
330
1136
100
AcDbProxyObject
 90
      499
 91
      505
 95
   983063
 70
     0
 93
      265
310
90F312D312F3222203D2031272D3022000000000000003E0FC00000000000028407B
 94
        0
1001
ACAD
1000
AcRTDxfName
1000
SCALE
1000
AcRTDxfName
1000
SCALE
1000
AcRTDxfName
1000
SCALE
1000
AcRTDxfName
1000
SCALE
1000
AcRTDxfName
1000
SCALE
1000
AcRTDxfName
1000
SCALE
1000
AcRTDxfName
1000
SCALE
1000
AcRTDxfName
1000
SCALE
1000
AcRTDxfName
1000
SCALE
1000
AcRTDxfName
1000
SCALE
1000
AcRTDxfName
1000
SCALE
  0
ACAD_PROXY_OBJECT
  5
1155
102
{ACAD_REACTORS
330
1136
102
}
330
1136
100
AcDbProxyObject
 90
      499
 91
      505
 95
   983063
 70
     0
 93
      233
310
90B3322203D2031272D30220000000000000002100000000000000284000
 94
        0
1001
ACAD
1000
AcRTDxfName
1000
SCALE
1000
AcRTDxfName
1000
SCALE
1000
AcRTDxfName
1000
SCALE
1000
AcRTDxfName
1000
SCALE
1000
AcRTDxfName
1000
SCALE
1000
AcRTDxfName
1000
SCALE
1000
AcRTDxfName
1000
SCALE
1000
AcRTDxfName
1000
SCALE
1000
AcRTDxfName
1000
SCALE
1000
AcRTDxfName
1000
SCALE
1000
AcRTDxfName
1000
SCALE
  0
ACAD_PROXY_OBJECT
  5
1156
102
{ACAD_REACTORS
330
1136
102
}
330
1136
100
AcDbProxyObject
 90
      499
 91
      505
 95
   983063
 70
     0
 93
      233
310
90B3622203D2031272D30220000000000000006100000000000000284000
 94
        0
1001
ACAD
1000
AcRTDxfName
1000
SCALE
1000
AcRTDxfName
1000
SCALE
1000
AcRTDxfName
1000
SCALE
1000
AcRTDxfName
1000
SCALE
1000
AcRTDxfName
1000
SCALE
1000
AcRTDxfName
1000
SCALE
1000
AcRTDxfName
1000
SCALE
1000
AcRTDxfName
1000
SCALE
1000
AcRTDxfName
1000
SCALE
1000
AcRTDxfName
1000
SCALE
1000
AcRTDxfName
1000
SCALE
  0
ACAD_PROXY_OBJECT
  5
1157
102
{ACAD_REACTORS
330
1136
102
}
330
1136
100
AcDbProxyObject
 90
      499
 91
      505
 95
   983063
 70
     0
 93
      257
310
90E31272D3022203D2031272D3022000000000000000A100000000000000284000
 94
        0
1001
ACAD
1000
AcRTDxfName
1000
SCALE
1000
AcRTDxfName
1000
SCALE
1000
AcRTDxfName
1000
SCALE
1000
AcRTDxfName
1000
SCALE
1000
AcRTDxfName
1000
SCALE
1000
AcRTDxfName
1000
SCALE
1000
AcRTDxfName
1000
SCALE
1000
AcRTDxfName
1000
SCALE
1000
AcRTDxfName
1000
SCALE
1000
AcRTDxfName
1000
SCALE
1000
AcRTDxfName
1000
SCALE
  0
TABLESTYLE
  5
1135
102
{ACAD_XDICTIONARY
360
744F
102
}
102
{ACAD_REACTORS
330
1134
102
}
330
1134
100
AcDbTableStyle
  3
Standard
 70
     0
 71
     0
 40
1.5
 41
1.5
280
     0
281
     0
  7
STANDARD
140
4.5
170
     2
 62
     0
 63
     7
283
     0
274
    -2
284
     1
 64
     0
275
    -2
285
     1
 65
     0
276
    -2
286
     1
 66
     0
277
    -2
287
     1
 67
     0
278
    -2
288
     1
 68
     0
279
    -2
289
     1
 69
     0
  7
STANDARD
140
6.0
170
     5
 62
     0
 63
     7
283
     0
274
    -2
284
     1
 64
     0
275
    -2
285
     1
 65
     0
276
    -2
286
     1
 66
     0
277
    -2
287
     1
 67
     0
278
    -2
288
     1
 68
     0
279
    -2
289
     1
 69
     0
  7
STANDARD
140
4.5
170
     5
 62
     0
 63
     7
283
     0
274
    -2
284
     1
 64
     0
275
    -2
285
     1
 65
     0
276
    -2
286
     1
 66
     0
277
    -2
287
     1
 67
     0
278
    -2
288
     1
 68
     0
279
    -2
289
     1
 69
     0
  0
ACAD_PROXY_OBJECT
  5
1128
102
{ACAD_REACTORS
330
1122
102
}
330
1122
100
AcDbProxyObject
 90
      499
 91
      503
 95
   983063
 70
     0
 93
      444
310
430C9915DA5C99599C985B59401049028333333333333E3BF0000000000000FB0107901411070040501600405405064090741402480A0344
 94
        0
1001
ACAD
1000
AcDbSavedByObjectVersion
1070
     0
1000
AcRTDxfName
1000
VISUALSTYLE
1000
AcRTDxfName
1000
VISUALSTYLE
1000
AcRTDxfName
1000
VISUALSTYLE
1000
AcRTDxfName
1000
VISUALSTYLE
1000
AcRTDxfName
1000
VISUALSTYLE
1000
AcRTDxfName
1000
VISUALSTYLE
1000
AcRTDxfName
1000
VISUALSTYLE
1000
AcRTDxfName
1000
VISUALSTYLE
1000
AcRTDxfName
1000
VISUALSTYLE
1000
AcRTDxfName
1000
VISUALSTYLE
1000
AcRTDxfName
1000
VISUALSTYLE
  0
ACAD_PROXY_OBJECT
  5
112A
102
{ACAD_REACTORS
330
1122
102
}
330
1122
100
AcDbProxyObject
 90
      499
 91
      503
 95
   983063
 70
     0
 93
      508
310
428CD108121A5919195B8010640502408333333333333E3BF0000000000000FB01079024090700405020000000000001110200405405064090740C02480A0342
 94
        0
1001
ACAD
1000
AcDbSavedByObjectVersion
1070
     0
1000
AcRTDxfName
1000
VISUALSTYLE
1000
AcRTDxfName
1000
VISUALSTYLE
1000
AcRTDxfName
1000
VISUALSTYLE
1000
AcRTDxfName
1000
VISUALSTYLE
1000
AcRTDxfName
1000
VISUALSTYLE
1000
AcRTDxfName
1000
VISUALSTYLE
1000
AcRTDxfName
1000
VISUALSTYLE
1000
AcRTDxfName
1000
VISUALSTYLE
1000
AcRTDxfName
1000
VISUALSTYLE
1000
AcRTDxfName
1000
VISUALSTYLE
1000
AcRTDxfName
1000
VISUALSTYLE
  0
ACAD_PROXY_OBJECT
  5
1129
102
{ACAD_REACTORS
330
1122
102
}
330
1122
100
AcDbProxyObject
 90
      499
 91
      503
 95
   983063
 70
     0
 93
      444
310
430CD915DA5C99599C985B59401059028333333333333E3BF0000000000000FB0107901411070040501600405405064090741402480A0340
 94
        0
1001
ACAD
1000
AcDbSavedByObjectVersion
1070
     0
1000
AcRTDxfName
1000
VISUALSTYLE
1000
AcRTDxfName
1000
VISUALSTYLE
1000
AcRTDxfName
1000
VISUALSTYLE
1000
AcRTDxfName
1000
VISUALSTYLE
1000
AcRTDxfName
1000
VISUALSTYLE
1000
AcRTDxfName
1000
VISUALSTYLE
1000
AcRTDxfName
1000
VISUALSTYLE
1000
AcRTDxfName
1000
VISUALSTYLE
1000
AcRTDxfName
1000
VISUALSTYLE
1000
AcRTDxfName
1000
VISUALSTYLE
1000
AcRTDxfName
1000
VISUALSTYLE
  0
ACAD_PROXY_OBJECT
  5
1127
102
{ACAD_REACTORS
330
1122
102
}
330
1122
100
AcDbProxyObject
 90
      499
 91
      503
 95
   983063
 70
     0
 93
      396
310
4190985CDA58C0107406404333333333333E3BF0000000000000FB0107A41107004050150841D405064090741402480A0358
 94
        0
1001
ACAD
1000
AcDbSavedByObjectVersion
1070
     0
1000
AcRTDxfName
1000
VISUALSTYLE
1000
AcRTDxfName
1000
VISUALSTYLE
1000
AcRTDxfName
1000
VISUALSTYLE
1000
AcRTDxfName
1000
VISUALSTYLE
1000
AcRTDxfName
1000
VISUALSTYLE
1000
AcRTDxfName
1000
VISUALSTYLE
1000
AcRTDxfName
1000
VISUALSTYLE
1000
AcRTDxfName
1000
VISUALSTYLE
1000
AcRTDxfName
1000
VISUALSTYLE
1000
AcRTDxfName
1000
VISUALSTYLE
1000
AcRTDxfName
1000
VISUALSTYLE
  0
ACAD_PROXY_OBJECT
  5
112E
102
{ACAD_REACTORS
330
1122
102
}
330
1122
100
AcDbProxyObject
 90
      499
 91
      503
 95
   983063
 70
     0
 93
      436
310
42509C9A59DA1D195B8010C409028333333333333E3BF0000000000000FB010790141107004050150841D405064090741402480A029956
 94
        0
1001
ACAD
1000
AcDbSavedByObjectVersion
1070
     0
1000
AcRTDxfName
1000
VISUALSTYLE
1000
AcRTDxfName
1000
VISUALSTYLE
1000
AcRTDxfName
1000
VISUALSTYLE
1000
AcRTDxfName
1000
VISUALSTYLE
1000
AcRTDxfName
1000
VISUALSTYLE
1000
AcRTDxfName
1000
VISUALSTYLE
1000
AcRTDxfName
1000
VISUALSTYLE
1000
AcRTDxfName
1000
VISUALSTYLE
1000
AcRTDxfName
1000
VISUALSTYLE
1000
AcRTDxfName
1000
VISUALSTYLE
1000
AcRTDxfName
1000
VISUALSTYLE
  0
ACAD_PROXY_OBJECT
  5
1132
102
{ACAD_REACTORS
330
1122
102
}
330
1122
100
AcDbProxyObject
 90
      499
 91
      503
 95
   983063
 70
     0
 93
      460
310
4310DBDB1BDC90DA185B99D9401104090240C333333333333E3BF0000000000000FB0108901411070040501508421405064090741402480A0354
 94
        0
1001
ACAD
1000
AcDbSavedByObjectVersion
1070
     0
1000
AcRTDxfName
1000
VISUALSTYLE
1000
AcRTDxfName
1000
VISUALSTYLE
1000
AcRTDxfName
1000
VISUALSTYLE
1000
AcRTDxfName
1000
VISUALSTYLE
1000
AcRTDxfName
1000
VISUALSTYLE
1000
AcRTDxfName
1000
VISUALSTYLE
1000
AcRTDxfName
1000
VISUALSTYLE
1000
AcRTDxfName
1000
VISUALSTYLE
1000
AcRTDxfName
1000
VISUALSTYLE
1000
AcRTDxfName
1000
VISUALSTYLE
1000
AcRTDxfName
1000
VISUALSTYLE
  0
ACAD_PROXY_OBJECT
  5
112B
102
{ACAD_REACTORS
330
1122
102
}
330
1122
100
AcDbProxyObject
 90
      499
 91
      503
 95
   983063
 70
     0
 93
      508
310
42D0DBDB98D95C1D1D585B0010940D028333333333333E3BF0000000000000FB0107902409070040501000000000000111010841D405064090740C02480A0340
 94
        0
1001
ACAD
1000
AcDbSavedByObjectVersion
1070
     0
1000
AcRTDxfName
1000
VISUALSTYLE
1000
AcRTDxfName
1000
VISUALSTYLE
1000
AcRTDxfName
1000
VISUALSTYLE
1000
AcRTDxfName
1000
VISUALSTYLE
1000
AcRTDxfName
1000
VISUALSTYLE
1000
AcRTDxfName
1000
VISUALSTYLE
1000
AcRTDxfName
1000
VISUALSTYLE
1000
AcRTDxfName
1000
VISUALSTYLE
1000
AcRTDxfName
1000
VISUALSTYLE
1000
AcRTDxfName
1000
VISUALSTYLE
1000
AcRTDxfName
1000
VISUALSTYLE
  0
ACAD_PROXY_OBJECT
  5
112D
102
{ACAD_REACTORS
330
1122
102
}
330
1122
100
AcDbProxyObject
 90
      499
 91
      503
 95
   983063
 70
     0
 93
      420
310
41111A5B4010B409028333333333333E3BF0000000000000FB010790141107004050150841D405064090741402480A02677FFFFFD4
 94
        0
1001
ACAD
1000
AcDbSavedByObjectVersion
1070
     0
1000
AcRTDxfName
1000
VISUALSTYLE
1000
AcRTDxfName
1000
VISUALSTYLE
1000
AcRTDxfName
1000
VISUALSTYLE
1000
AcRTDxfName
1000
VISUALSTYLE
1000
AcRTDxfName
1000
VISUALSTYLE
1000
AcRTDxfName
1000
VISUALSTYLE
1000
AcRTDxfName
1000
VISUALSTYLE
1000
AcRTDxfName
1000
VISUALSTYLE
1000
AcRTDxfName
1000
VISUALSTYLE
1000
AcRTDxfName
1000
VISUALSTYLE
1000
AcRTDxfName
1000
VISUALSTYLE
  0
ACAD_PROXY_OBJECT
  5
1131
102
{ACAD_REACTORS
330
1122
102
}
330
1122
100
AcDbProxyObject
 90
      499
 91
      503
 95
   983063
 70
     0
 93
      452
310
43119858D95C185D1D195C9B8010F409028333333333333E3BF0000000000000FB010790141107004050150841D405064090741402480A0350
 94
        0
1001
ACAD
1000
AcDbSavedByObjectVersion
1070
     0
1000
AcRTDxfName
1000
VISUALSTYLE
1000
AcRTDxfName
1000
VISUALSTYLE
1000
AcRTDxfName
1000
VISUALSTYLE
1000
AcRTDxfName
1000
VISUALSTYLE
1000
AcRTDxfName
1000
VISUALSTYLE
1000
AcRTDxfName
1000
VISUALSTYLE
1000
AcRTDxfName
1000
VISUALSTYLE
1000
AcRTDxfName
1000
VISUALSTYLE
1000
AcRTDxfName
1000
VISUALSTYLE
1000
AcRTDxfName
1000
VISUALSTYLE
1000
AcRTDxfName
1000
VISUALSTYLE
  0
ACAD_PROXY_OBJECT
  5
1123
102
{ACAD_REACTORS
330
1122
102
}
330
1122
100
AcDbProxyObject
 90
      499
 91
      503
 95
   983063
 70
     0
 93
      396
310
41519B185D00240901404333333333333E3BF0000000000000F9010740A41107004050150841D405064090741402480A1B55
 94
        0
1001
ACAD
1000
AcDbSavedByObjectVersion
1070
     0
1000
AcRTDxfName
1000
VISUALSTYLE
1000
AcRTDxfName
1000
VISUALSTYLE
1000
AcRTDxfName
1000
VISUALSTYLE
1000
AcRTDxfName
1000
VISUALSTYLE
1000
AcRTDxfName
1000
VISUALSTYLE
1000
AcRTDxfName
1000
VISUALSTYLE
1000
AcRTDxfName
1000
VISUALSTYLE
1000
AcRTDxfName
1000
VISUALSTYLE
1000
AcRTDxfName
1000
VISUALSTYLE
1000
AcRTDxfName
1000
VISUALSTYLE
1000
AcRTDxfName
1000
VISUALSTYLE
  0
ACAD_PROXY_OBJECT
  5
1124
102
{ACAD_REACTORS
330
1122
102
}
330
1122
100
AcDbProxyObject
 90
      499
 91
      503
 95
   983063
 70
     0
 93
      484
310
43919B185D15DA5D1A115919D95CC010140901404333333333333E3BF0000000000000F9010740901411070040501600405405064090741402480A1B50
 94
        0
1001
ACAD
1000
AcDbSavedByObjectVersion
1070
     0
1000
AcRTDxfName
1000
VISUALSTYLE
1000
AcRTDxfName
1000
VISUALSTYLE
1000
AcRTDxfName
1000
VISUALSTYLE
1000
AcRTDxfName
1000
VISUALSTYLE
1000
AcRTDxfName
1000
VISUALSTYLE
1000
AcRTDxfName
1000
VISUALSTYLE
1000
AcRTDxfName
1000
VISUALSTYLE
1000
AcRTDxfName
1000
VISUALSTYLE
1000
AcRTDxfName
1000
VISUALSTYLE
1000
AcRTDxfName
1000
VISUALSTYLE
1000
AcRTDxfName
1000
VISUALSTYLE
  0
ACAD_PROXY_OBJECT
  5
1125
102
{ACAD_REACTORS
330
1122
102
}
330
1122
100
AcDbProxyObject
 90
      499
 91
      503
 95
   983063
 70
     0
 93
      420
310
4211DBDD5C985D590010240902404333333333333E3BF0000000000000F9010740A411070040501641D405064090741402480A1B5C
 94
        0
1001
ACAD
1000
AcDbSavedByObjectVersion
1070
     0
1000
AcRTDxfName
1000
VISUALSTYLE
1000
AcRTDxfName
1000
VISUALSTYLE
1000
AcRTDxfName
1000
VISUALSTYLE
1000
AcRTDxfName
1000
VISUALSTYLE
1000
AcRTDxfName
1000
VISUALSTYLE
1000
AcRTDxfName
1000
VISUALSTYLE
1000
AcRTDxfName
1000
VISUALSTYLE
1000
AcRTDxfName
1000
VISUALSTYLE
1000
AcRTDxfName
1000
VISUALSTYLE
1000
AcRTDxfName
1000
VISUALSTYLE
1000
AcRTDxfName
1000
VISUALSTYLE
  0
ACAD_PROXY_OBJECT
  5
1126
102
{ACAD_REACTORS
330
1122
102
}
330
1122
100
AcDbProxyObject
 90
      499
 91
      503
 95
   983063
 70
     0
 93
      508
310
4451DBDD5C985D5915DA5D1A115919D95CC010340902404333333333333E3BF0000000000000F9010740901411070040501600405405064090741402480A1B50
 94
        0
1001
ACAD
1000
AcDbSavedByObjectVersion
1070
     0
1000
AcRTDxfName
1000
VISUALSTYLE
1000
AcRTDxfName
1000
VISUALSTYLE
1000
AcRTDxfName
1000
VISUALSTYLE
1000
AcRTDxfName
1000
VISUALSTYLE
1000
AcRTDxfName
1000
VISUALSTYLE
1000
AcRTDxfName
1000
VISUALSTYLE
1000
AcRTDxfName
1000
VISUALSTYLE
1000
AcRTDxfName
1000
VISUALSTYLE
1000
AcRTDxfName
1000
VISUALSTYLE
1000
AcRTDxfName
1000
VISUALSTYLE
1000
AcRTDxfName
1000
VISUALSTYLE
  0
ACAD_PROXY_OBJECT
  5
1130
102
{ACAD_REACTORS
330
1122
102
}
330
1122
100
AcDbProxyObject
 90
      499
 91
      503
 95
   983063
 70
     0
 93
      452
310
43131A5B995C185D1D195C9B8010E409028333333333333E3BF0000000000000FB010790141107004050750841D405064090741402483A0350
 94
        0
1001
ACAD
1000
AcDbSavedByObjectVersion
1070
     0
1000
AcRTDxfName
1000
VISUALSTYLE
1000
AcRTDxfName
1000
VISUALSTYLE
1000
AcRTDxfName
1000
VISUALSTYLE
1000
AcRTDxfName
1000
VISUALSTYLE
1000
AcRTDxfName
1000
VISUALSTYLE
1000
AcRTDxfName
1000
VISUALSTYLE
1000
AcRTDxfName
1000
VISUALSTYLE
1000
AcRTDxfName
1000
VISUALSTYLE
1000
AcRTDxfName
1000
VISUALSTYLE
1000
AcRTDxfName
1000
VISUALSTYLE
1000
AcRTDxfName
1000
VISUALSTYLE
  0
ACAD_PROXY_OBJECT
  5
112C
102
{ACAD_REACTORS
330
1122
102
}
330
1122
100
AcDbProxyObject
 90
      499
 91
      503
 95
   983063
 70
     0
 93
      428
310
429499585B1A5CDD1A58C0108409028333333333333E3BF0000000000000FB01079019070040501508421405064090741402480A1B45
 94
        0
1001
ACAD
1000
AcDbSavedByObjectVersion
1070
     0
1000
AcRTDxfName
1000
VISUALSTYLE
1000
AcRTDxfName
1000
VISUALSTYLE
1000
AcRTDxfName
1000
VISUALSTYLE
1000
AcRTDxfName
1000
VISUALSTYLE
1000
AcRTDxfName
1000
VISUALSTYLE
1000
AcRTDxfName
1000
VISUALSTYLE
1000
AcRTDxfName
1000
VISUALSTYLE
1000
AcRTDxfName
1000
VISUALSTYLE
1000
AcRTDxfName
1000
VISUALSTYLE
1000
AcRTDxfName
1000
VISUALSTYLE
1000
AcRTDxfName
1000
VISUALSTYLE
  0
ACAD_PROXY_OBJECT
  5
112F
102
{ACAD_REACTORS
330
1122
102
}
330
1122
100
AcDbProxyObject
 90
      499
 91
      503
 95
   983063
 70
     0
 93
      420
310
42151A1A58DAD95B8010D409028333333333333E3BF0000000000000FB010790141107004050150C41D405064090741402480A0354
 94
        0
1001
ACAD
1000
AcDbSavedByObjectVersion
1070
     0
1000
AcRTDxfName
1000
VISUALSTYLE
1000
AcRTDxfName
1000
VISUALSTYLE
1000
AcRTDxfName
1000
VISUALSTYLE
1000
AcRTDxfName
1000
VISUALSTYLE
1000
AcRTDxfName
1000
VISUALSTYLE
1000
AcRTDxfName
1000
VISUALSTYLE
1000
AcRTDxfName
1000
VISUALSTYLE
1000
AcRTDxfName
1000
VISUALSTYLE
1000
AcRTDxfName
1000
VISUALSTYLE
1000
AcRTDxfName
1000
VISUALSTYLE
1000
AcRTDxfName
1000
VISUALSTYLE
  0
DICTIONARYVAR
  5
74DC
102
{ACAD_REACTORS
330
74D9
102
}
330
74D9
100
DictionaryVariables
280
     0
  1
1:1
  0
DICTIONARYVAR
  5
74DB
102
{ACAD_REACTORS
330
74D9
102
}
330
74D9
100
DictionaryVariables
280
     0
  1
STANDARD
  0
DICTIONARYVAR
  5
74DA
102
{ACAD_REACTORS
330
74D9
102
}
330
74D9
100
DictionaryVariables
280
     0
  1
STANDARD
  0
DICTIONARYVAR
  5
74DF
102
{ACAD_REACTORS
330
74D9
102
}
330
74D9
100
DictionaryVariables
280
     0
  1
1
  0
DICTIONARYVAR
  5
74DE
102
{ACAD_REACTORS
330
74D9
102
}
330
74D9
100
DictionaryVariables
280
     0
  1
0
  0
DICTIONARYVAR
  5
75D6
102
{ACAD_REACTORS
330
74D9
102
}
330
74D9
100
DictionaryVariables
280
     0
  1

  0
DICTIONARYVAR
  5
74DD
102
{ACAD_REACTORS
330
74D9
102
}
330
74D9
100
DictionaryVariables
280
     0
  1
127
  0
DICTIONARY
  5
7867
330
115D
100
AcDbDictionary
280
     1
281
     1
  3
ACAD_XREC_ROUNDTRIP
360
7868
  0
DICTIONARY
  5
1170
330
115E
100
AcDbDictionary
280
     1
281
     1
  3
ACAD_XREC_ROUNDTRIP
360
7869
  3
ADSK_XREC_LAYOUTTHUMBNAIL
360
1171
  0
DICTIONARY
  5
1113
330
1112
100
AcDbDictionary
280
     1
281
     1
  3
ACAD_XREC_ROUNDTRIP
360
75AB
  3
BUMPTILE
360
1115
  3
DIFFUSETILE
360
1114
  3
OPACITYTILE
360
1118
  3
REFLECTIONTILE
360
1117
  3
REFRACTIONTILE
360
1119
  3
SPECULARTILE
360
1116
  0
DICTIONARY
  5
110B
330
110A
100
AcDbDictionary
280
     1
281
     1
  3
ACAD_XREC_ROUNDTRIP
360
75AA
  3
BUMPTILE
360
110D
  3
DIFFUSETILE
360
110C
  3
OPACITYTILE
360
1110
  3
REFLECTIONTILE
360
110F
  3
REFRACTIONTILE
360
1111
  3
SPECULARTILE
360
110E
  0
DICTIONARY
  5
111B
330
111A
100
AcDbDictionary
280
     1
281
     1
  3
ACAD_XREC_ROUNDTRIP
360
75AC
  3
BUMPTILE
360
111D
  3
DIFFUSETILE
360
111C
  3
OPACITYTILE
360
1120
  3
REFLECTIONTILE
360
111F
  3
REFRACTIONTILE
360
1121
  3
SPECULARTILE
360
111E
  0
DICTIONARY
  5
744F
330
1135
100
AcDbDictionary
280
     1
281
     1
  3
ACAD_ROUNDTRIP_2008_TABLESTYLE_CELLSTYLEMAP
360
7589
  3
ACAD_XREC_ROUNDTRIP
360
75AD
  0
XRECORD
  5
7868
102
{ACAD_REACTORS
330
7867
102
}
330
7867
100
AcDbXrecord
280
     1
102
SHADEPLOT
 70
     0
102
SHADEPLOTRESLEVEL
 70
     2
102
SHADEPLOTCUSTOMDPI
 70
   300
  0
XRECORD
  5
7869
102
{ACAD_REACTORS
330
1170
102
}
330
1170
100
AcDbXrecord
280
     1
102
SHADEPLOT
 70
     0
102
SHADEPLOTRESLEVEL
 70
     2
102
SHADEPLOTCUSTOMDPI
 70
   300
  0
XRECORD
  5
1171
102
{ACAD_REACTORS
330
1170
102
}
330
1170
100
AcDbXrecord
280
     1
310
28000000B40000007F00000001000800000000004C5900000000000000000000000100000000000000000000FFFFFF00000000000000000000000000000000000000000000000000000000000000000000000000330000006600000099000000CC000000FF00000000330000333300006633000099330000CC330000FF3300
310
0000660000336600006666000099660000CC660000FF66000000990000339900006699000099990000CC990000FF99000000CC000033CC000066CC000099CC0000CCCC0000FFCC000000FF000033FF000066FF000099FF0000CCFF0000FFFF000000003300330033006600330099003300CC003300FF003300003333003333
310
33006633330099333300CC333300FF33330000663300336633006666330099663300CC663300FF66330000993300339933006699330099993300CC993300FF99330000CC330033CC330066CC330099CC3300CCCC3300FFCC330000FF330033FF330066FF330099FF3300CCFF3300FFFF330000006600330066006600660099
310
006600CC006600FF00660000336600333366006633660099336600CC336600FF33660000666600336666006666660099666600CC666600FF66660000996600339966006699660099996600CC996600FF99660000CC660033CC660066CC660099CC6600CCCC6600FFCC660000FF660033FF660066FF660099FF6600CCFF6600
310
FFFF660000009900330099006600990099009900CC009900FF00990000339900333399006633990099339900CC339900FF33990000669900336699006666990099669900CC669900FF66990000999900339999006699990099999900CC999900FF99990000CC990033CC990066CC990099CC9900CCCC9900FFCC990000FF99
310
0033FF990066FF990099FF9900CCFF9900FFFF99000000CC003300CC006600CC009900CC00CC00CC00FF00CC000033CC003333CC006633CC009933CC00CC33CC00FF33CC000066CC003366CC006666CC009966CC00CC66CC00FF66CC000099CC003399CC006699CC009999CC00CC99CC00FF99CC0000CCCC0033CCCC0066CC
310
CC0099CCCC00CCCCCC00FFCCCC0000FFCC0033FFCC0066FFCC0099FFCC00CCFFCC00FFFFCC000000FF003300FF006600FF009900FF00CC00FF00FF00FF000033FF003333FF006633FF009933FF00CC33FF00FF33FF000066FF003366FF006666FF009966FF00CC66FF00FF66FF000099FF003399FF006699FF009999FF00CC
310
99FF00FF99FF0000CCFF0033CCFF0066CCFF0099CCFF00CCCCFF00FFCCFF0000FFFF0033FFFF0066FFFF0099FFFF00CCFFFF00FFFFFF00000000000D0D0D001A1A1A00282828003535350043434300505050005D5D5D006B6B6B00787878008686860093939300A1A1A100AEAEAE00BBBBBB00C9C9C900D6D6D600E4E4E400
310
F1F1F100FFFFFF0000000000000000000000000000000000000000000000000000000000000000000000000000000000F5F5F5F5F5F5F5F5F5F5F5F5F5F5F5F5F5F5F5F5F5F5F5F5F5F5F5F5F5F5F5F5F5F5F5F5F5F5F5F5F5F5F5F5F5F5F5F5F5F5F5F5F5F5F5F5F5F5F5F5F5F5F5F5F5F5F5F5F5F5F5F5F5F5F5F5F5F5F5
310
F5F5F5F5F5F5F5F5F5F5F5F5F5F5F5F5F5F5F5F5F5F5F5F5F5F5F5F5F5F5F5F5F5F5F5F5F5F5F5F5F5F5F5F5F5F5F5F5F5F5F5F5F5F5F5F5F5F5F5F5F5F5F5F5F5F5F5F5F5F5F5F5F5F5F5F5F5F5F5F5F5F5F5F5F5F5F5F5F5F5F5F5F5F5F5F5F5F5F5F5F5F5E2E2E2E2E2E2E2E2E2E2E2E2E2E2E2E2E2E2E2E2E2E2E2E2E2
310
E2E2E2E2E2E2E2E2E2E2E2E2E2E2E2E2E2E2E2E2E2E2E2E2E2E2E2E2E2E2E2E2E2E2E2E2E2E2E2E2E2E2E2E2E2E2E2E2E2E2E2E2E2E2E2E2E2E2E2E2E2E2E2E2E2E2E2E2E2E2E2E2E2E2E2E2E2E2E2E2E2E2E2E2E2E2E2E2E2E2E2E2E2E2E2E2E2E2E2E2E2E2E2E2E2E2E2E2E2E2E2E2E2E2E2E2E2E2E2E2E2E2E2E2E2E2E2
310
E2E2E2E2E2E2E2E2E2E2E2E2E2E2E2E2E2E2E2E2E2E2E2E2E2F5F5F5E2E2E2E2E2E2E2E2E2E2E2E2E2E2E2E2E2E2E2E2E2E2E2E2E2E2E2E2E2E2E2E2E2E2E2E2E2E2E2E2E2E2E2E2E2E2E2E2E2E2E2E2E2E2E2E2E2E2E2E2E2E2E2E2E2E2E2E2E2E2E2E2E2E2E2E2E2E2E2E2E2E2E2E2E2E2E2E2E2E2E2E2E2E2E2E2E2E2E2
310
E2E2E2E2E2E2E2E2E2E2E2E2E2E2E2E2E2E2E2E2E2E2E2E2E2E2E2E2E2E2E2E2E2E2E2E2E2E2E2E2E2E2E2E2E2E2E2E2E2E2E2E2E2E2E2E2E2E2E2E2E2E2E2E2E2E2E2E2E2E2E2E2E2E2E2E2E2E2F5F5F5E2E2E2E2E2E2E2E2E2E2E2E2E2E2E2E2E2E2E2E2E2E2E2E2E2E2E2E2E2E2E2E2E2E2E2E2E2E2E2E2E2E2E2E2E2E2
310
E2E2E2E2E2E2E2E2E2E2E2E2E2E2E2E2E2E2E2E2E2E2E2E2E2E2E2E2E2E2E2E2E2E2E2E2E2E2E2E2E2E2E2E2E2E2E2E2E2E2E2E2E2E2E2E2E2E2E2E2E2E2E2E2E2E2E2E2E2E2E2E2E2E2E2E2E2E2E2E2E2E2E2E2E2E2E2E2E2E2E2E2E2E2E2E2E2E2E2E2E2E2E2E2E2E2E2E2E2E2E2E2E2E2E2E2E2E2E2E2E2E2E2E2E2E2E2
310
E2E2E2E2F5F5F5E2E2E2F5F5F5F5F5F5F5F5E2E2E2E2E2E2E2E2E2F5F5F5F5F5F5F5F5F5F5F5F5F5F5F5F5E2E2E2E2E2E2E2E2F5F5F5F5F5F5F5F5F5F5F5F5F5F5F5F5E2E2E2E2E2E2E2E2E2F5F5F5F5F5F5F5F5F5F5F5F5F5F5F5E2E2E2E2E2E2E2E2E2F5F5F5F5F5F5F5F5F5F5F5F5F5F5F5E2E2E2E2E2E2E2E2E2F5F5F5
310
F5F5F5F5F5F5F5F5F5F5F5F5F5E2E2E2E2E2E2E2E2F5F5F5F5F5F5F5F5F5F5F5F5F5F5F5F5E2E2E2E2E2E2E2E2E2F5F5F5F5F5F5F5F5E2E2E2F5F5F5E2E2E2F5E2E2E2E2E2E2E2E2E2E2E2E2E2E2E2E2E2E2E2E2E2E2E2E2E2E2E2E2E2E2E2E2E2E2E2E2E2E2E2E2E2E2E2E2E2E2E2E2E2E2E2E2E2E2E2E2E2E2E2E2E2E2E2
310
E2E2E2E2E2E2E2E2E2E2E2E2E2E2E2E2E2E2E2E2E2E2E2E2E2E2E2E2E2E2E2E2E2E2E2E2E2E2E2E2E2E2E2E2E2E2E2E2E2E2E2E2E2E2E2E2E2E2E2E2E2E2E2E2E2E2E2E2E2E2E2E2E2E2E2E2E2E2E2E2E2E2E2E2E2E2E2E2E2E2E2E2E2E2E2E2E2E2E2E2E2E2E2E2E2E2F5E2E2E2F5F5F5E2E2E2F5E2E2E2E2E2E2E2E2E2E2
310
E2E2E2E2E2E2E2E2E2E2E2E2E2E2E2E2E2E2E2E2E2E2E2E2E2E2E2E2E2E2E2E2E2E2E2E2E2E2E2E2E2E2E2E2E2E2E2E2E2E2E2E2E2E2E2E2E2E2E2E2E2E2E2E2E2E2E2E2E2E2E2E2E2E2E2E2E2E2E2E2E2E2E2E2E2E2E2E2E2E2E2E2E2E2E2E2E2E2E2E2E2E2E2E2E2E2E2E2E2E2E2E2E2E2E2E2E2E2E2E2E2E2E2E2E2E2E2
310
E2E2E2E2E2E2E2E2E2E2E2E2E2E2E2E2E2E2E2E2E2E2E2E2E2E2E2E2E2E2E2E2F5E2E2E2F5F5F5E2E2E2F5F5F5F5F5F5F5F5F5F5F5F5F5F5F5F5F5F5F5F5F5F5F5F5F5F5F5F5F5F5F5F5F5F5F5F5F5F5F5F5F5F5F5F5F5F5F5F5F5F5F5F5F5F5F5F5F5F5F5F5F5F5F5F5F5F5F5F5F5F5F5F5F5F5F5F5F5F5F5F5F5F5F5F5F5
310
F5F5F5F5F5F5F5F5F5F5F5F5F5F5F5F5F5F5F5F5F5F5F5F5F5F5F5F5F5F5F5F5F5F5F5F5F5F5F5F5F5F5F5F5F5F5F5F5F5F5F5F5F5F5F5F5F5F5F5F5F5F5F5F5F5F5F5F5F5F5F5F5F5F5F5F5F5F5F5F5F5F5F5E2E2F5E2E2E2F5F5F5E2E2E2F5E2E2E2E2E2E2E2E2E2E2E2E2E2E2E2E2E2E2E2E2E2E2E2E2E2E2E2E2E2E2E2
310
E2E2E2E2E2E2E2E2E2E2E2E2E2E2E2E2E2E2E2E2E2E2E2E2E2E2E2E2E2E2E2E2E2E2E2E2E2E2E2E2E2E2E2E2E2E2E2E2E2E2E2E2E2E2E2E2E2E2E2E2E2E2E2E2E2E2E2E2E2E2E2E2E2E2E2E2E2E2E2E2E2E2E2E2E2E2E2E2E2E2E2E2E2E2E2E2E2E2E2E2E2E2E2E2E2E2E2E2E2E2E2E2E2E2E2E2E2E2E2E2E2E2E2E2E2E2E2
310
E2E2E2E2E2E2E2E2F5E2E2F5E2E2E2F5F5F5E2E2E2F5E2E2E2E2E2E2E2E2E2E2E2E2E2E2E2E2E2E2E2E2E2E2E2E2E2E2E2E2E2E2E2E2E2E2E2E2E2E2E2E2E2E2E2E2E2E2E2E2E2E2E2E2E2E2E2E2E2E2E2E2E2E2E2E2E2E2E2E2E2E2E2E2E2E2E2E2E2E2E2E2E2E2E2E2E2E2E2E2E2E2E2E2E2E2E2E2E2E2E2E2E2E2E2E2E2
310
E2E2E2E2E2E2E2E2E2E2E2E2E2E2E2E2E2E2E2E2E2E2E2E2E2E2E2E2E2E2E2E2E2E2E2E2E2E2E2E2E2E2E2E2E2E2E2E2E2E2E2E2E2E2E2E2E2E2E2E2E2F5E2E2F5E2E2E2F5F5F5E2E2E2F5E2E2E2E2E2E2E2E2E2E2E2E2E2E2E2E2E2E2E2E2E2E2E2E2E2E2E2E2E2E2E2E2E2E2E2E2E2E2E2E2E2E2E2E2E2E2E2E2E2E2E2E2
310
E2E2E2E2E2E2E2E2E2E2E2E2E2E2E2E2E2E2E2E2E2E2E2E2E2E2E2E2E2E2E2E2E2E2E2E2E2E2E2E2E2E2E2E2E2E2E2E2E2E2E2E2E2E2E2E2E2E2E2E2E2E2E2E2E2E2E2E2E2E2E2E2E2E2E2E2E2E2E2E2E2E2E2E2E2E2E2E2E2E2E2E2E2E2E2E2E2E2E2E2E2E2E2E2E2E2E2E2E2E2E2E2E2E2F5E2E2F5E2E2E2F5F5F5E2E2E2
310
F5E2E2E2E2E2E2E2E2E2E2E2E2E2E2E2E2E2E2E2E2E2E2E2E2E2E2E2E2E2E2E2E2E2E2E2E2E2E2E2E2E2E2E2E2E2E2E2E2E2E2E2E2E2E2E2E2E2E2E2E2E2E2E2E2E2E2E2E2E2E2E2E2E2E2E2E2E2E2E2E2E2E2E2E2E2E2E2E2E2E2E2E2E2E2E2E2E2E2E2E2E2E2E2E2E2E2E2E2E2E2E2E2E2E2E2E2E2E2E2E2E2E2E2E2E2E2
310
E2E2E2E2E2E2E2E2E2E2E2E2E2E2E2E2E2E2E2E2E2E2E2E2E2E2E2E2E2E2E2E2E2E2E2E2E2E2E2E2F5E2E2F5E2E2E2F5F5F5E2E2E2F5E2E2E2E2E2E2E2E2E2E2E2E2E2E2E2E2E2E2E2E2E2E2E2E2E2E2E2E2E2E2E2E2E2E2E2E2E2E2E2E2E2E2E2E2E2E2E2E2E2E2E2E2E2E2E2E2E2E2E2E2E2E2E2E2E2E2E2E2E2E2E2E2E2
310
E2E2E2E2E2E2E2E2E2E2E2E2E2E2E2E2E2E2E2E2E2E2E2E2E2E2E2E2E2E2E2E2E2E2E2E2E2E2E2E2E2E2E2E2E2E2E2E2E2E2E2E2E2E2E2E2E2E2E2E2E2E2E2E2E2E2E2E2E2E2E2E2E2E2E2E2E2E2E2E2E2E2E2E2E2E2E2E2E2E2E2E2E2F5E2E2E2E2E2E2F5F5F5E2E2E2F5E2E2E2E2E2E2E2E2E2E2E2E2E2E2E2E2E2E2E2E2
310
E2E2E2E2E2E2E2E2E2E2E2E2E2E2E2E2E2E2E2E2E2E2E2E2E2E2E2E2E2E2E2E2E2E2E2E2E2E2E2E2E2E2E2E2E2E2E2E2E2E2E2E2E2E2E2E2E2E2E2E2E2E2E2E2E2E2E2E2E2E2E2E2E2E2E2E2E2E2E2E2E2E2E2E2E2E2E2E2E2E2E2E2E2E2E2E2E2E2E2E2E2E2E2E2E2E2E2E2E2E2E2E2E2E2E2E2E2E2E2E2E2E2E2E2E2E2E2
310
E2E2E2E2E2E2E2E2E2E2E2E2E2E2E2E2E2E2E2F5E2E2E2E2E2E2F5F5F5E2E2E2F5E2E2E2E2E2E2E2E2E2E2E2E2E2E2E2E2E2E2E2E2E2E2E2E2E2E2E2E2E2E2E2E2E2E2E2E2E2E2E2E2E2E2E2E2E2E2E2E2E2E2E2E2E2E2E2E2E2E2E2E2E2E2E2E2E2E2E2E2E2E2E2E2E2E2E2E2E2E2E2E2E2E2E2E2E2E2E2E2E2E2E2E2E2E2
310
E2E2E2E2E2E2E2E2E2E2E2E2E2E2E2E2E2E2E2E2E2E2E2E2E2E2E2E2E2E2E2E2E2E2E2E2E2E2E2E2E2E2E2E2E2E2E2E2E2E2E2E2E2E2E2E2E2E2E2E2E2E2E2E2E2E2E2E2E2E2E2E2F5E2E2E2E2E2E2F5F5F5E2E2E2F5E2E2E2E2E2E2E2E2E2E2E2E2E2E2E2E2E2E2E2E2E2E2E2E2E2E2E2E2E2E2E2E2E2E2E2E2E2E2E2E2E2
310
E2E2E2E2E2E2E2E2E2E2E2E2E2E2E2E2E2E2E2E2E2E2E2E2E2E2E2E2E2E2E2E2E2E2E2E2E2E2E2E2E2E2E2E2E2E2E2E2E2E2E2E2E2E2E2E2E2E2E2E2E2E2E2E2E2E2E2E2E2E2E2E2E2E2E2E2E2E2E2E2E2E2E2E2E2E2E2E2E2E2E2E2E2E2E2E2E2E2E2E2E2E2E2E2E2E2E2E2E2E2E2E2E2E2E2E2E2E2E2E2E2E2E2E2E2F5E2
310
E2E2E2E2E2F5F5F5E2E2E2F5E2E2E2E2E2E2E2E2E2E2E2E2E2E2E2E2E2E2E2E2E2E2E2E2E2E2E2E2E2E2E2E2E2E2E2E2E2E2E2E2E2E2E2E2E2E2E2E2E2E2E2E2E2E2E2E2E2E2E2E2E2E2E2E2E2E2E2E2E2E2E2E2E2E2E2E2E2E2E2E2E2E2E2E2E2E2E2E2E2E2E2E2E2E2E2E2E2E2E2E2E2E2E2E2E2E2E2E2E2E2E2E2E2E2E2
310
E2E2E2E2E2E2E2E2E2E2E2E2E2E2E2E2E2E2E2E2E2E2E2E2E2E2E2E2E2E2E2E2E2E2E2E2E2E2E2E2E2E2E2E2E2E2E2E2E2E2E2F5E2E2E2E2E2E2F5F5F5E2E2E2F5E2E2E2E2E2E2E2E2E2E2E2E2E2E2E2E2E2E2E2E2E2E2E2E2E2E2E2E2E2E2E2E2E2E2E2E2E2E2E2E2E2E2E2E2E2E2E2E2E2E2E2E2E2E2E2E2E2E2E2E2E2E2
310
E2E2E2E2E2E2E2E2E2E2E2E2E2E2E2E2E2E2E2E2E2E2E2E2E2E2E2E2E2E2E2E2E2E2E2E2E2E2E2E2E2E2E2E2E2E2E2E2E2E2E2E2E2E2E2E2E2E2E2E2E2E2E2E2E2E2E2E2E2E2E2E2E2E2E2E2E2E2E2E2E2E2E2E2E2E2E2E2E2E2E2E2E2E2E2E2E2E2E2E2E2E2E2E2F5E2E2E2E2E2E2F5F5F5E2E2E2F5E2E2E2E2E2E2E2E2E2
310
E2E2E2E2E2E2E2E2E2E2E2E2E2E2E2E2E2E2E2E2E2E2E2E2E2E2E2E2E2E2E2E2E2E2E2E2E2E2E2E2E2E2E2E2E2E2E2E2E2E2E2E2E2E2E2E2E2E2E2E2E2E2E2E2E2E2E2E2E2E2E2E2E2E2E2E2E2E2E2E2E2E2E2E2E2E2E2E2E2E2E2E2E2E2E2E2E2E2E2E2E2E2E2E2E2E2E2E2E2E2E2E2E2E2E2E2E2E2E2E2E2E2E2E2E2E2E2
310
E2E2E2E2E2E2E2E2E2E2E2E2E2E2E2E2E2E2E2E2E2E2E2E2E2E2E2E2E2E2F5E2E2E2E2E2E2F5F5F5E2E2E2F5E2E2E2E2E2E2E2E2E2E2E2E2E2E2E2E2E2E2E2E2E2E2E2E2E2E2E2E2E2E2E2E2E2E2E2E2E2E2E2E2E2E2E2E2E2E2E2E2E2E2E2E2E2E2E2E2E2E2E2E2E2E2E2E2E2E2E2E2E2E2E2E2E2E2E2E2E2E2E2E2E2E2E2
310
E2E2E2E2E2E2E2E2E2E2E2E2E2E2E2E2E2E2E2E2E2E2E2E2E2E2E2E2E2E2E2E2E2E2E2E2E2E2E2E2E2E2E2E2E2E2E2E2E2E2E2E2E2E2E2E2E2E2E2E2E2E2E2E2E2E2E2E2E2E2E2E2E2E2E2E2E2E2E2E2E2E2E2F5E2E2E2E2E2E2F5F5F5E2E2E2F5E2E2E2E2E2E2E2E2E2E2E2E2E2E2E2E2E2E2E2E2E2E2E2E2E2E2E2E2E2E2
310
E2E2E2E2E2E2E2E2E2E2E2E2E2E2E2E2E2E2E2E2E2E2E2E2E2E2E2E2E2E2E2E2E2E2E2E2E2E2E2E2E2E2E2E2E2E2E2E2E2E2E2E2E2E2E2E2E2E2E2E2E2E2E2E2E2E2E2E2E2E2E2E2E2E2E2E2E2E2E2E2E2E2E2E2E2E2E2E2E2E2E2E2E2E2E2E2E2E2E2E2E2E2E2E2E2E2E2E2E2E2E2E2E2E2E2E2E2E2E2E2E2E2E2E2E2E2E2
310
E2E2E2E2E2E2E2E2E2F5E2E2E2E2E2E2F5F5F5E2E2E2F5E2E2E2E2E2E2E2E2E2E2E2E2E2E2E2E2E2E2E2E2E2E2E2E2E2E2E2E2E2E2E2E2E2E2E2E2E2E2E2E2E2E2E2E2E2E2E2E2E2E2E2E2E2E2E2E2E2E2E2E2E2E2E2E2E2E2E2E2E2E2E2E2E2E2E2E2E2E2E2E2E2E2E2E2E2E2E2E2E2E2E2E2E2E2E2E2E2E2E2E2E2E2E2E2
310
E2E2E2E2E2E2E2E2E2E2E2E2E2E2E2E2E2E2E2E2E2E2E2E2E2E2E2E2E2E2E2E2E2E2E2E2E2E2E2E2E2E2E2E2E2E2E2E2E2E2E2E2E2E2E2E2E2E2E2E2E2E2F5E2E2F5E2E2E2F5F5F5E2E2E2F5E2E2E2E2E2E2E2E2E2E2E2E2E2E2E2E2E2E2E2E2E2E2E2E2E2E2E2E2E2E2E2E2E2E2E2E2E2E2E2E2E2E2E2E2E2E2E2E2E2E2E2
310
E2E2E2E2E2E2E2E2E2E2E2E2E2E2E2E2E2E2E2E2E2E2E2E2E2E2E2E2E2E2E2E2E2E2E2E2E2E2E2E2E2E2E2E2E2E2E2E2E2E2E2E2E2E2E2E2E2E2E2E2E2E2E2E2E2E2E2E2E2E2E2E2E2E2E2E2E2E2E2E2E2E2E2E2E2E2E2E2E2E2E2E2E2E2E2E2E2E2E2E2E2E2E2E2E2E2E2E2E2E2E2E2E2E2E2F5E2E2F5E2E2E2F5F5F5E2E2
310
E2F5E2E2E2E2E2E2E2E2E2E2E2E2E2E2E2E2E2E2E2E2E2E2E2E2E2E2E2E2E2E2E2E2E2E2E2E2E2E2E2E2E2E2E2E2E2E2E2E2E2E2E2E2E2E2E2E2E2E2E2E2E2E2E2E2E2E2E2E2E2E2E2E2E2E2E2E2E2E2E2E2E2E2E2E2E2E2E2E2E2E2E2E2E2E2E2E2E2E2E2E2E2E2E2E2E2E2E2E2E2E2E2E2E2E2E2E2E2E2E2E2E2E2E2E2E2
310
E2E2E2E2E2E2E2E2E2E2E2E2E2E2E2E2E2E2E2E2E2E2E2E2E2E2E2E2E2E2E2E2E2E2E2E2E2E2E2E2E2F5E2E2F5E2E2E2F5F5F5E2E2E2F5E2E2E2E2E2E2E2E2E2E2E2E2E2E2E2E2E2E2E2E2E2E2E2E2E2E2E2E2E2E2E2E2E2E2E2E2E2E2E2E2E2E2E2E2E2E2E2E2E2E2E2E2E2E2E2E2E2E2E2E2E2E2E2E2E2E2E2E2E2E2E2E2
310
E2E2E2E2E2E2E2E2E2E2E2E2E2E2E2E2E2E2E2E2E2E2E2E2E2E2E2E2E2E2E2E2E2E2E2E2E2E2E2E2E2E2E2E2E2E2E2E2E2E2E2E2E2E2E2E2E2E2E2E2E2E2E2E2E2E2E2E2E2E2E2E2E2E2E2E2E2E2E2E2E2E2E2E2E2E2E2E2E2E2E2E2E2E2F5E2E2F5E2E2E2F5F5F5E2E2E2F5E2E2E2E2E2E2E2E2E2E2E2E2E2E2E2E2E2E2E2
310
E2E2E2E2E2E2E2E2E2E2E2E2E2E2E2E2E2E2E2E2E2E2E2E2E2E2E2E2E2E2E2E2E2E2E2E2E2E2E2E2E2E2E2E2E2E2E2E2E2E2E2E2E2E2E2E2E2E2E2E2E2E2E2E2E2E2E2E2E2E2E2E2E2E2E2E2E2E2E2E2E2E2E2E2E2E2E2E2E2E2E2E2E2E2E2E2E2E2E2E2E2E2E2E2E2E2E2E2E2E2E2E2E2E2E2E2E2E2E2E2E2E2E2E2E2E2E2
310
E2E2E2E2E2E2E2E2E2E2E2E2E2E2E2E2E2E2E2E2F5E2E2F5E2E2E2F5F5F5E2E2E2F5E2E2E2E2E2E2E2E2E2E2E2E2E2E2E2E2E2E2E2E2E2E2E2E2E2E2E2E2E2E2E2E2E2E2E2E2E2E2E2E2E2E2E2E2E2E2E2E2E2E2E2E2E2E2E2E2E2E2E2E2E2E2E2E2E2E2E2E2E2E2E2E2E2E2E2E2E2E2E2E2E2E2E2E2E2E2E2E2E2E2E2E2E2
310
E2E2E2E2E2E2E2E2E2E2E2E2E2E2E2E2E2E2E2E2E2E2E2E2E2E2E2E2E2E2E2E2E2E2E2E2E2E2E2E2E2E2E2E2E2E2E2E2E2E2E2E2E2E2E2E2E2E2E2E2E2E2E2E2E2E2E2E2E2E2E2E2E2F5E2E2F5E2E2E2F5F5F5E2E2E2F5E2E2E2E2E2E2E2E2E2E2E2E2E2E2E2E2E2E2E2E2E2E2E2E2E2E2E2E2E2E2E2E2E2E2E2E2E2E2E2E2
310
E2E2E2E2E2E2E2E2E2E2E2E2E2E2E2E2E2E2E2E2E2E2E2E2E2E2E2E2E2E2E2E2E2E2E2E2E2E2E2E2E2E2E2E2E2E2E2E2E2E2E2E2E2E2E2E2E2E2E2E2E2E2E2E2E2E2E2E2E2E2E2E2E2E2E2E2E2E2E2E2E2E2E2E2E2E2E2E2E2E2E2E2E2E2E2E2E2E2E2E2E2E2E2E2E2E2E2E2E2E2E2E2E2E2E2E2E2E2E2E2E2E2E2E2E2E2F5
310
E2E2F5E2E2E2F5F5F5E2E2E2F5E2E2E2E2E2E2E2E2E2E2E2E2E2E2E2E2E2E2E2E2E2E2E2E2E2E2E2E2E2E2E2E2E2E2E2E2E2E2E2E2E2E2E2E2E2E2E2E2E2E2E2E2E2E2E2E2E2E2E2E2E2E2E2E2E2E2E2E2E2E2E2E2E2E2E2E2E2E2E2E2E2E2E2E2E2E2E2E2E2E2E2E2E2E2E2E2E2E2E2E2E2E2E2E2E2E2E2E2E2E2E2E2E2E2
310
E2E2E2E2E2E2E2E2E2E2E2E2E2E2E2E2E2E2E2E2E2E2E2E2E2E2E2E2E2E2E2E2E2E2E2E2E2E2E2E2E2E2E2E2E2E2E2E2E2E2E2E2F5E2E2F5E2E2E2F5F5F5E2E2E2F5E2E2E2E2E2E2E2E2E2E2E2E2E2E2E2E2E2E2E2E2E2E2E2E2E2E2E2E2E2E2E2E2E2E2E2E2E2E2E2E2E2E2E2E2E2E2E2E2E2E2E2E2E2E2E2E2E2E2E2E2E2
310
E2E2E2E2E2E2E2E2E2E2E2E2E2E2E2E2E2E2E2E2E2E2E2E2E2E2E2E2E2E2E2E2E2E2E2E2E2E2E2E2E2E2E2E2E2E2E2E2E2E2E2E2E2E2E2E2E2E2E2E2E2E2E2E2E2E2E2E2E2E2E2E2E2E2E2E2E2E2E2E2E2E2E2E2E2E2E2E2E2E2E2E2E2E2E2E2E2E2E2E2E2E2E2E2E2F5E2E2F5E2E2E2F5F5F5E2E2E2F5E2E2E2E2E2E2E2E2
310
E2E2E2E2E2E2E2E2E2E2E2E2E2E2E2E2E2E2E2E2E2E2E2E2E2E2E2E2E2E2E2E2E2E2E2E2E2E2E2E2E2E2E2E2E2E2E2E2E2E2E2E2E2E2E2E2E2E2E2E2E2E2E2E2E2E2E2E2E2E2E2E2E2E2E2E2E2E2E2E2E2E2E2E2E2E2E2E2E2E2E2E2E2E2E2E2E2E2E2E2E2E2E2E2E2E2E2E2E2E2E2E2E2E2E2E2E2E2E2E2E2E2E2E2E2E2E2
310
E2E2E2E2E2E2E2E2E2E2E2E2E2E2E2E2E2E2E2E2E2E2E2E2E2E2E2E2E2E2E2F5E2E2F5E2E2E2F5F5F5E2E2E2F5E2E2E2E2E2E2E2E2E2E2E2E2E2E2E2E2E2E2E2E2E2E2E2E2E2E2E2E2E2E2E2E2E2E2E2E2E2E2E2E2E2E2E2E2E2E2E2E2E2E2E2E2E2E2E2E2E2E2E2E2E2E2E2E2E2E2E2E2E2E2E2E2E2E2E2E2E2E2E2E2E2E2
310
E2E2E2E2E2E2E2E2E2E2E2E2E2E2E2E2E2E2E2E2E2E2E2E2E2E2E2E2E2E2E2E2E2E2E2E2E2E2E2E2E2E2E2E2E2E2E2E2E2E2E2E2E2E2E2E2E2E2E2E2E2E2E2E2E2E2E2E2E2E2E2E2E2E2E2E2E2E2E2E2E2E2E2E2F5E2E2F5E2E2E2F5F5F5E2E2E2F5E2E2E2E2E2E2E2E2E2E2E2E2E2E2E2E2E2E2E2E2E2E2E2E2E2E2E2E2E2
310
E2E2E2E2E2E2E2E2E2E2E2E2E2E2E2E2E2E2E2E2E2E2E2E2E2E2E2E2E2E2E2E2E2E2E2E2E2E2E2E2E2E2E2E2E2E2E2E2E2E2E2E2E2E2E2E2E2E2E2E2E2E2E2E2E2E2E2E2E2E2E2E2E2E2E2E2E2E2E2E2E2E2E2E2E2E2E2E2E2E2E2E2E2E2E2E2E2E2E2E2E2E2E2E2E2E2E2E2E2E2E2E2E2E2E2E2E2E2E2E2E2E2E2E2E2E2E2
310
E2E2E2E2E2E2E2E2E2E2F5E2E2F5E2E2E2F5F5F5E2E2E2F5E2E2E2E2E2E2E2E2E2E2E2E2E2E2E2E2E2E2E2E2E2E2E2E2E2E2E2E2E2E2E2E2E2E2E2E2E2E2E2E2E2E2E2E2E2E2E2E2E2E2E2E2E2E2E2E2E2E2E2E2E2E2E2E2E2E2E2E2E2E2E2E2E2E2E2E2E2E2E2E2E2E2E2E2E2E2E2E2E2E2E2E2E2E2E2E2E2E2E2E2E2E2E2
310
E2E2E2E2E2E2E2E2E2E2E2E2E2E2E2E2E2E2E2E2E2E2E2E2E2E2E2E2E2E2E2E2E2E2E2E2E2E2E2E2E2E2E2E2E2E2E2E2E2E2E2E2E2E2E2E2E2E2E2E2E2E2E2F5E2E2F5E2E2E2F5F5F5E2E2E2F5E2E2E2E2E2E2E2E2E2E2E2E2E2E2E2E2E2E2E2E2E2E2E2E2E2E2E2E2E2E2E2E2E2E2E2E2E2E2E2E2E2E2E2E2E2E2E2E2E2E2
310
E2E2E2E2E2E2E2E2E2E2E2E2E2E2E2E2E2E2E2E2E2E2E2E2E2E2E2E2E2E2E2E2E2E2E2E2E2E2E2E2E2E2E2E2E2E2E2E2E2E2E2E2E2E2E2E2E2E2E2E2E2E2E2E2E2E2E2E2E2E2E2E2E2E2E2E2E2E2E2E2E2E2E2E2E2E2E2E2E2E2E2E2E2E2E2E2E2E2E2E2E2E2E2E2E2E2E2E2E2E2E2E2E2E2E2E2F5E2E2F5E2E2E2F5F5F5E2
310
E2E2F5E2E2E2E2E2E2E2E2E2E2E2E2E2E2E2E2E2E2E2E2E2E2E2E2E2E2E2E2E2E2E2E2E2E2E2E2E2E2E2E2E2E2E2E2E2E2E2E2E2E2E2E2E2E2E2E2E2E2E2E2E2E2E2E2E2E2E2E2E2E2E2E2E2E2E2E2E2E2E2E2E2E2E2E2E2E2E2E2E2E2E2E2E2E2E2E2E2E2E2E2E2E2E2E2E2E2E2E2E2E2E2E2E2E2E2E2E2E2E2E2E2E2E2E2
310
E2E2E2E2E2E2E2E2E2E2E2E2E2E2E2E2E2E2E2E2E2E2E2E2E2E2E2E2E2E2E2E2E2E2E2E2E2E2E2E2E2E2F5E2E2F5E2E2E2F5F5F5E2E2E2F5E2E2E2E2E2E2E2E2E2E2E2E2E2E2E2E2E2E2E2E2E2E2E2E2E2E2E2E2E2E2E2E2E2E2E2E2E2E2E2E2E2E2E2E2E2E2E2E2E2E2E2E2E2E2E2E2E2E2E2E2E2E2E2E2E2E2E2E2E2E2E2
310
E2E2E2E2E2E2E2E2E2E2E2E2E2E2E2E2E2E2E2E2E2E2E2E2E2E2E2E2E2E2E2E2E2E2E2E2E2E2E2E2E2E2E2E2E2E2E2E2E2E2E2E2E2E2E2E2E2E2E2E2E2E2E2E2E2E2E2E2E2E2E2E2E2E2E2E2E2E2E2E2E2E2E2E2E2E2E2E2E2E2E2E2E2E2E2F5E2E2E2E2E2E2F5F5F5E2E2E2F5E2E2E2E2E2E2E2E2E2E2E2E2E2E2E2E2E2E2
310
E2E2E2E2E2E2E2E2E2E2E2E2E2E2E2E2E2E2E2E2E2E2E2E2E2E2E2E2E2E2E2E2E2E2E2E2E2E2E2E2E2E2E2E2E2E2E2E2E2E2E2E2E2E2E2E2E2E2E2E2E2E2E2E2E2E2E2E2E2E2E2E2E2E2E2E2E2E2E2E2E2E2E2E2E2E2E2E2E2E2E2E2E2E2E2E2E2E2E2E2E2E2E2E2E2E2E2E2E2E2E2E2E2E2E2E2E2E2E2E2E2E2E2E2E2E2E2
310
E2E2E2E2E2E2E2E2E2E2E2E2E2E2E2E2E2E2E2E2E2F5E2E2E2E2E2E2F5F5F5E2E2E2F5E2E2E2E2E2E2E2E2E2E2E2E2E2E2E2E2E2E2E2E2E2E2E2E2E2E2E2E2E2E2E2E2E2E2E2E2E2E2E2E2E2E2E2E2E2E2E2E2E2E2E2E2E2E2E2E2E2E2E2E2E2E2E2E2E2E2E2E2E2E2E2E2E2E2E2E2E2E2E2E2E2E2E2E2E2E2E2E2E2E2E2E2
310
E2E2E2E2E2E2E2E2E2E2E2E2E2E2E2E2E2E2E2E2E2E2E2E2E2E2E2E2E2E2E2E2E2E2E2E2E2E2E2E2E2E2E2E2E2E2E2E2E2E2E2E2E2E2E2E2E2E2E2E2E2E2E2E2E2E2E2E2E2E2E2E2E2E2F5E2E2E2E2E2E2F5F5F5E2E2E2F5E2E2E2E2E2E2E2E2E2E2E2E2E2E2E2E2E2E2E2E2E2E2E2E2E2E2E2E2E2E2E2E2E2E2E2E2E2E2E2
310
E2E2E2E2E2E2E2E2E2E2E2E2E2E2E2E2E2E2E2E2E2E2E2E2E2E2E2E2E2E2E2E2E2E2E2E2E2E2E2E2E2E2E2E2E2E2E2E2E2E2E2E2E2E2E2E2E2E2E2E2E2E2E2E2E2E2E2E2E2E2E2E2E2E2E2E2E2E2E2E2E2E2E2E2E2E2E2E2E2E2E2E2E2E2E2E2E2E2E2E2E2E2E2E2E2E2E2E2E2E2E2E2E2E2E2E2E2E2E2E2E2E2E2E2E2E2E2
310
F5E2E2E2E2E2E2F5F5F5E2E2E2F5E2E2E2E2E2E2E2E2E2E2E2E2E2E2E2E2E2E2E2E2E2E2E2E2E2E2E2E2E2E2E2E2E2E2E2E2E2E2E2E2E2E2E2E2E2E2E2E2E2E2E2E2E2E2E2E2E2E2E2E2E2E2E2E2E2E2E2E2E2E2E2E2E2E2E2E2E2E2E2E2E2E2E2E2E2E2E2E2E2E2E2E2E2E2E2E2E2E2E2E2E2E2E2E2E2E2E2E2E2E2E2E2E2
310
E2E2E2E2E2E2E2E2E2E2E2E2E2E2E2E2E2E2E2E2E2E2E2E2E2E2E2E2E2E2E2E2E2E2E2E2E2E2E2E2E2E2E2E2E2E2E2E2E2E2E2E2E2F5E2E2E2E2E2E2F5F5F5E2E2E2F5E2E2E2E2E2E2E2E2E2E2E2E2E2E2E2E2E2E2E2E2E2E2E2E2E2E2E2E2E2E2E2E2E2E2E2E2E2E2E2E2E2E2E2E2E2E2E2E2E2E2E2E2E2E2E2E2E2E2E2E2
310
E2E2E2E2E2E2E2E2E2E2E2E2E2E2E2E2E2E2F0F0F0F0F0F0F0F0F0F0F0F0F0F0F0F0F0F0F0F0F0F0F0F0F0F0F0F0F0F0F0F0F0F0F0F0F0F0F0F0F0F0F0F0F0F0F0F0F0F0F0F0F0E2E2E2E2E2E2E2E2E2E2E2E2E2E2E2E2E2E2E2E2E2E2E2E2E2E2E2E2E2E2E2E2E2E2E2F5E2E2E2E2E2E2F5F5F5E2E2E2F5E2E2E2E2E2E2E2
310
E2E2E2E2E2E2E2E2E2E2E2E2E2E2E2E2E2E2E2E2E2E2E2E2E2E2E2E2E2E2E2E2E2E2E2E2E2E2E2E2E2E2E2E2E2E2E2E2E2E2E2E2E2E2E2E2E2E2E2E2E2E2E2E2E2E2E2E2E2E2E2F0F0E2E2E2E2E2E2E2E2E2E2E2E2E2E2E2E2E2E2E2E2E2DCDCDCDCDCDCE2E2E2E2E2E2E2E2E2E2E2E2E2E2E2E2E2E2E2E2E2F0F0F0E2E2E2
310
E2E2E2E2E2E2E2E2E2E2E2E2E2E2E2E2E2E2E2E2E2E2E2E2E2E2E2E2E2E2E2E2F5E2E2E2E2E2E2F5F5F5E2E2E2F5E2E2E2E2E2E2E2E2E2E2E2E2E2E2E2E2E2E2E2E2E2E2E2E2E2E2E2E2E2E2E2E2E2E2E2E2E2E2E2E2E2E2E2E2E2E2E2E2E2E2E2E2E2E2E2E2E2E2E2E2E2E2E2E2E2E2E2E2E2E2E2E2E2E2E2E2E2E2F0E2E2
310
E2E2E2E2E2E2E2E2E2E2E2E2E2E2E2E2E2E2E2E2DCDCDCDCDCDCE2E2E2E2E2E2E2E2E2E2E2E2E2E2E2E2E2E2E2E2E2E2E2F0E2E2E2E2E2E2E2E2E2E2E2E2E2E2E2E2E2E2E2E2E2E2E2E2E2E2E2E2E2E2E2E2E2E2E2F5E2E2E2E2E2E2F5F5F5E2E2E2F5E2E2E2E2E2E2E2E2E2E2E2E2E2E2E2E2E2E2E2E2E2E2E2E2E2E2E2E2
310
E2F0F0F0F0F0F0F0F0F0F0F0F0F0F0F0F0F0F0F0F0F0E2E2E2E2E2E2E2E2E2E2E2E2E2E2E2E2E2E2E2E2E2E2E2E2E2E2E2E2F0F0F0F0F0F0F0F0F0F0F0F0F0F0F0F0F0F0F0F0F0F0F0F0F0F0F0F0F0F0F0F0F0F0F0F0F0F0F0F0F0F0F0F0F0F0E2E2E2E2E2E2F0E2E2E2E2E2E2E2E2E2E2E2E2E2E2E2E2E2E2E2E2E2E2E2E2
310
E2E2E2E2E2E2E2E2E2E2E2F5E2E2F5E2E2E2F5F5F5E2E2E2F5E2E2E2E2E2E2E2E2E2E2E2E2E2E2E2E2E2E2E2E2E2E2E2E2E2E2E2E2E2F0F0E2E2E2E2E2E2E2DCDCDCDCE2E2E2E2E2E2F0F0E2E2E2E2E2E2E2E2E2E2E2E2E2E2E2E2E2E2E2E2E2E2E2E2E2E2E2E2F0DCDCDCF0F0E2E2E2E2E2E2DCDCDCDCE2E2E2E2E2E2F0F0
310
F0E2E2E2E2E2E2E2E2DCDCDCE2E2E2E2E2E2E2E2F0F0E2E2E2E2E2E2F0E2E2E2E2E2E2E2E2E2E2E2E2E2E2E2E2E2E2E2E2E2E2E2E2E2E2E2E2E2E2E2E2E2E2E2F5E2E2F5E2E2E2F5F5F5E2E2E2F5E2E2E2E2E2E2E2E2E2E2E2E2E2E2E2E2E2E2E2E2E2E2E2E2E2E2E2E2E2F0E2E2E2E2E2E2E2E2DCDCDCDCE2E2E2E2E2E2E2
310
F0E2E2E2E2E2E2E2E2E2E2E2E2E2E2E2E2E2E2E2E2E2E2E2E2E2E2E2E2F0DCDCF0E2E2E2E2E2E2E2E2DCDCDCDCE2E2E2E2E2E2E2F0E2E2E2E2E2E2E2E2E2DCDCDCE2E2E2E2E2E2E2E2E2F0E2E2E2E2E2E2F0E2E2E2E2E2E2E2E2E2E2E2E2E2E2E2E2E2E2E2E2E2E2E2E2E2E2E2E2E2E2E2E2E2E2E2F5E2E2F5E2E2E2F5F5F5
310
E2E2E2F5E2E2E2E2E2E2E2E2E2E2E2E2E2E2E2E2E2E2E2E2E2E2E2E2E2E2E2E2E2F0E2E2E2E2E2E2E2E2E2E2E2E2E2E2E2E2E2E2E2F0E2E2E2E2E2E2E2E2E2E2E2E2E2E2E2E2E2E2E2E2E2E2E2E2E2E2E2E2F0E2E2F0E2E2E2E2E2E2E2E2E2E2E2E2E2E2E2E2E2E2E2F0E2E2E2E2E2E2E2E2E2E2E2E2E2E2E2E2E2E2E2E2E2
310
F0E2E2E2E2E2E2F0E2E2E2E2E2E2E2E2E2E2E2E2E2E2E2E2E2E2E2E2E2E2E2E2E2E2E2E2E2E2E2E2E2E2E2F5E2E2F5E2E2E2F5F5F5E2E2E2F5E2E2E2E2E2E2E2E2E2E2E2E2E2E2E2E2E2E2E2E2E2E2E2E2E2E2E2E2E2F0E2E2E2E2E2E2E2E2E2E2E2E2E2E2E2E2E2E2E2F0E2E2E2E2E2E2E2E2E2E2E2E2E2E2E2E2E2E2E2E2
310
E2E2E2E2E2E2E2E2F0E2E2F0E2E2E2E2E2E2E2E2E2E2E2E2E2E2E2E2E2E2E2F0E2E2E2E2E2E2E2E2E2E2E2E2E2E2E2E2E2E2E2E2E2F0E2E2E2E2E2E2F0E2E2E2E2E2E2E2E2E2E2E2E2E2E2E2E2E2E2E2E2E2E2E2E2E2E2E2E2E2E2E2E2E2E2E2F5E2E2F5E2E2E2F5F5F5E2E2E2F5E2E2E2E2E2E2E2E2E2E2E2E2E2E2E2E2E2
310
E2E2E2E2E2E2E2E2E2E2E2E2F0E2E2E2E2E2E2E2E2E2E2E2E2E2E2E2E2E2E2E2F0E2E2E2E2E2E2E2E2E2E2E2E2E2E2E2E2E2E2E2E2E2E2E2E2E2E2E2E2F0E2E2F0E2E2E2E2E2E2E2E2E2E2E2E2E2E2E2E2E2E2E2F0E2E2E2E2E2E2E2E2E2E2E2E2E2E2E2E2E2E2E2E2E2F0E2E2E2E2E2E2F0E2E2E2E2E2E2E2E2E2E2E2E2E2
310
E2E2E2E2E2E2E2E2E2E2E2E2E2E2E2E2E2E2E2E2E2E2F5E2E2F5E2E2E2F5F5F5E2E2E2F5E2E2E2E2E2E2E2E2E2E2E2E2E2E2E2E2E2E2E2E2E2E2E2E2E2E2E2E2E2F0E2E2E2E2E2E2E2E2E2E2E2E2E2E2E2E2E2E2E2F0E2E2E2E2E2E2E2E2E2E2E2E2E2E2E2E2E2E2E2E2E2E2E2E2E2E2E2E2F0E2E2F0E2E2E2E2E2E2E2E2E2
310
E2E2E2E2E2E2E2E2E2E2F0E2E2E2E2E2E2E2E2E2E2E2E2E2E2E2E2E2E2E2E2E2F0E2E2E2E2E2E2F0E2E2E2E2E2E2E2E2E2E2E2E2E2E2E2E2E2E2E2E2E2E2E2E2E2E2E2E2E2E2E2E2E2E2E2F5E2E2F5E2E2E2F5F5F5E2E2E2F5E2E2E2E2E2E2E2E2E2E2E2E2E2E2E2E2E2E2E2E2E2E2E2E2E2E2F5F5F5F5F5F5F5F5E2E2F5F5
310
F5F5F5F5F5F5F5F5F5F5F5F5F5F5F5E2E2E2E2E2E2E2E2E2E2E2E2E2E2E2F0F0F0F0F0F0F0F0F0F0F5F5F5F5F5F5F5F5F5F5F5F5F5F5F5F5F5E2E2E2F5F5F5F5F5F5F5F0F0F0F0F0F0F0F0F0F0F0F0F0F0F0F0F5F5F0F5F5F0F0F0F0F0F0F0F0F0F0F0F0E2E2E2E2E2E2E2E2E2E2E2E2E2E2E2E2E2E2E2E2E2E2E2E2E2E2E2
310
E2F5E2E2F5E2E2E2F5F5F5E2E2E2F5E2E2E2E2E2E2E2E2E2E2E2E2E2E2E2E2E2E2E2E2E2E2E2E2E2E2F5F5F5F5F5F5F5F5E2E2F5E2E2E2E2E2E2E2E2E2F5F5F5F5F5F5F5E2E2E2E2E2E2E2E2E2E2E2E2E2E2DCDCF0E2E2E2E2E2E2E2E2F5F5F5F5F5F5F5F5E2E2E2E2E2E2E2E2E2F5E2E2F5F5F5F5F5F5F5F5F5F5F5E2E2E2
310
E2E2E2E2E2E2E2E2E2E2F5F5F5E2E2E2E2E2F0E2E2E2E2F0F0E2E2E2E2E2E2E2E2E2E2E2E2E2E2E2E2E2E2E2E2E2E2E2E2E2E2E2E2E2F5E2E2F5E2E2E2F5F5F5E2E2E2F5E2E2E2E2E2E2E2E2E2E2E2E2E2E2E2E2E2E2E2E2E2E2E2E2E2E2E2F5F5F5F5F5F5F5F5F5F5F5F5F5F5F5F5F5F5F5F5F5F5F5F5F5E2E2E2E2E2E2E2
310
E2E2E2E2E2E2E2E2DCDCF0E2E2E2E2E2E2E2E2F0F5F5F5F5F5F5F5F5F5F5F5F5F5F5F5F5F5F5F5F5F5F5F5F5F5F5F5E2E2F5F5F5F5F5F5F5F5F5F5F5F5F5F5F5F5F5F5E2E2E2E2F0E2E2E2E2E2F0E2E2E2E2E2E2E2E2E2E2E2E2E2E2E2E2E2E2E2E2E2E2E2E2E2E2E2E2E2F5E2E2F5E2E2E2F5F5F5E2E2E2F5E2E2E2E2E2E2
310
E2E2E2E2E2E2E2E2E2E2E2E2E2E2E2E2E2E2E2E2E2F5E2E2E2E2E2E2E2E2E2E2E2E2E2E2E2E2E2E2E2E2E2E2E2E2F5E2E2E2E2E2E2E2E2E2E2E2E2E2E2DCDCF0E2E2E2E2E2E2E2E2F0F5E2E2E2E2E2E2E2E2E2E2E2E2E2E2E2E2E2E2E2E2E2E2E2E2F5F5F5F5F5F5F5F5F5F5F5F5F5F5F5F5F5F5F5F5F5F5E2E2E2E2F0E2E2
310
E2E2E2F0E2E2E2E2E2E2E2E2E2E2E2E2E2E2E2E2E2E2E2E2E2E2E2E2E2E2E2E2E2F5E2E2F5E2E2E2F5F5F5E2E2E2F5E2E2E2E2E2E2E2E2E2E2E2E2E2E2E2E2E2E2E2E2E2E2E2E2E2E2F5F5F5F5F5F5F5F5F5F5F5F5F5F5F5F5F5F5F5F5F5F5F5F5F5F5F5F5E2E2E2E2E2E2E2E2E2E2E2E2E2DCDCF0E2F0F0F0F0F0F0F0F0F5
310
F5F5F5F5F5F5F5F5F5F5F5F5F5F5F5F5F5F5F5F5F5F5F5F5F5F5E2E2E2E2E2E2E2E2E2E2E2E2E2F5E2E2E2E2F5E2E2E2E2E2F0E2E2E2E2E2F0E2E2E2E2E2E2E2E2E2E2E2E2E2E2E2E2E2E2E2E2E2E2E2E2E2E2E2E2E2F5E2E2F5E2E2E2F5F5F5E2E2E2F5E2E2E2E2E2E2E2E2E2E2E2E2E2E2E2E2E2E2E2E2E2E2E2E2E2E2F5
310
E2E2E2E2E2E2E2E2E2E2E2E2E2E2E2E2E2E2E2E2E2E2E2E2E2E2F5E2E2E2E2E2E2E2E2E2E2E2E2E2DCDCF0E2F0F0E2E2E2E2E2F5E2E2E2E2E2E2E2E2E2E2E2E2E2E2E2E2E2E2E2E2E2E2E2E2E2E2F5E2E2E2E2E2E2E2E2E2E2E2E2E2F5E2E2E2E2F5E2E2E2E2E2F0E2E2E2E2E2F0E2E2E2E2E2E2E2E2E2E2E2E2E2E2E2E2E2
310
E2E2E2E2E2E2E2E2E2E2E2E2F5E2E2F5E2E2E2F5F5F5E2E2E2F5E2E2E2E2E2E2E2E2E2E2E2E2E2E2E2E2E2E2E2E2E2E2E2E2E2E2F5E2E2E2E2E2E2E2E2E2E2E2E2E2E2E2E2E2E2E2E2E2E2E2E2E2E2F5E2E2E2E2E2E2E2E2E2E2E2E2E2DCDCF0E2E2F0E2E2E2E2E2F5E2E2E2E2E2E2E2E2E2E2E2E2E2E2E2E2E2E2E2E2E2E2
310
E2E2E2E2F5E2E2E2E2E2E2E2E2E2E2E2E2E2F5E2E2E2E2F5E2E2E2E2E2F0E2E2E2E2E2F0E2E2E2E2E2E2E2E2E2E2E2E2E2E2E2E2E2E2E2E2E2E2E2E2E2E2E2E2E2F5E2E2F5E2E2E2F5F5F5E2E2E2F5E2E2E2E2E2E2E2E2E2E2E2E2E2E2E2E2E2E2E2E2E2E2E2E2E2E2F5E2E2E2E2E2E2E2E2E2E2E2E2E2E2E2E2E2E2E2E2E2
310
E2E2E2E2E2F5E2E2E2E2E2E2E2E2E2E2E2E2E2DCE2F0DCDCF0E2E2E2E2E2F5E2E2E2E2E2E2E2E2E2E2E2E2E2E2E2E2E2E2E2E2E2E2E2E2E2E2F5E2E2E2E2E2E2E2E2E2E2E2E2E2F5E2E2E2E2F5E2E2E2E2E2F0E2E2E2E2E2F0E2E2E2E2E2E2E2E2E2E2E2E2E2E2E2E2E2E2E2E2E2E2E2E2E2E2E2E2E2F5E2E2F5E2E2E2F5F5
310
F5E2E2E2F5E2E2E2E2E2E2E2E2E2E2E2E2E2E2E2E2E2E2E2E2E2E2E2E2E2E2F5E2E2E2E2E2E2E2E2E2E2E2E2E2E2E2E2E2E2E2E2E2E2E2E2E2E2F5E2E2E2E2E2E2E2E2E2E2E2E2E2DCDCF0DCDCF0E2E2E2E2E2F5E2E2E2E2E2E2E2E2E2E2E2E2E2E2E2E2E2E2E2E2E2E2E2E2E2E2F5E2E2E2E2E2E2E2E2E2E2E2E2E2F5E2E2
310
E2E2F5E2E2E2E2E2F0E2E2E2E2E2F0E2E2E2E2E2E2E2E2E2E2E2E2E2E2E2E2E2E2E2E2E2E2E2E2E2E2E2E2E2F5E2E2E2E2E2E2F5F5F5E2E2E2F5E2E2E2E2E2E2E2E2E2E2E2E2E2E2E2E2E2E2E2E2E2E2E2E2E2E2F0E2E2E2E2E2E2E2E2E2E2E2E2E2E2E2E2E2E2E2E2E2E2E2E2E2E2F0E2E2E2E2E2E2E2E2E2E2E2E2E2DCDC
310
F0E2E2F0E2E2E2E2E2F0E2E2E2E2E2E2E2E2E2E2E2E2E2E2E2E2E2E2E2E2E2E2E2E2E2E2F0E2E2E2E2E2E2E2E2E2E2E2E2E2F5E2E2E2E2F5E2E2E2E2E2F0E2E2E2E2E2F0E2E2E2E2E2E2E2E2E2E2E2E2E2E2E2E2E2E2E2E2E2E2E2E2E2E2E2E2E2F5E2E2E2E2E2E2F5F5F5E2E2E2F5E2E2E2E2E2E2E2E2E2E2E2E2E2E2E2E2
310
E2E2E2E2E2E2E2E2E2E2F0E2E2E2E2E2E2E2E2E2E2E2E2E2E2E2E2E2E2E2E2E2E2E2E2E2F5F0E2E2E2E2E2E2E2E2E2E2E2E2E2E2F0F0E2F0F0E2E2E2E2E2F0E2E2E2E2E2E2E2E2E2E2E2E2E2E2E2E2E2E2E2E2E2E2E2E2E2F5F0E2E2E2E2E2E2E2E2E2E2E2E2E2F5E2E2E2E2F5E2E2E2E2E2F0E2E2E2E2E2F0E2E2E2E2E2E2
310
E2E2E2E2E2E2E2E2E2E2E2E2E2E2E2E2E2E2E2E2E2E2E2F5E2E2E2E2E2E2F5F5F5E2E2E2F5E2E2E2E2E2E2E2E2E2E2E2E2E2E2E2E2E2E2E2E2E2E2E2E2E2E2F0F5F5F5F5F5F5F5F5F5F5F5F5F5F5F5F5F5F5F5F5F5F5F5F5F5E2F0E2E2E2E2E2E2E2E2E2E2E2E2E2E2F0F0F0F0F0F0F0F0F0F0F0F5F5F5F5F5F5F5F5F5F5F5
310
F5F5F5F5F5F5F5F5F5F5F5F5F5F5F5F0E2E2E2E2E2E2E2E2E2E2E2E2E2F5E2E2E2E2F5E2E2E2E2E2F0E2E2E2E2E2F0E2E2E2E2E2E2E2E2E2E2E2E2E2E2E2E2E2E2E2E2E2E2E2E2E2E2E2E2E2F5E2E2E2E2E2E2F5F5F5E2E2E2F5E2E2E2E2E2E2E2E2E2E2E2E2E2E2E2E2E2E2E2E2E2E2E2E2E2E2F0E2E2E2E2E2E2E2E2E2E2
310
F5E2E2E2F5E2E2E2E2E2E2E2E2E2E2E2F0E2E2E2E2E2E2E2E2E2E2E2E2E2E2E2E2E2E2E2E2E2E2E2E2F0E2E2E2E2E2E2E2E2E2E2E2E2E2E2E2E2E2E2E2E2E2E2E2E2E2E2F0E2E2E2E2E2E2E2E2E2E2E2E2E2F5E2E2E2E2F5E2E2E2E2E2F0E2E2E2E2E2F0E2E2E2E2E2E2E2E2E2E2E2E2E2E2E2E2E2E2E2E2E2E2E2E2E2E2E2
310
E2E2F5E2E2E2E2E2E2F5F5F5E2E2E2F5E2E2E2E2E2E2E2E2E2E2E2E2E2E2E2E2E2E2E2E2E2E2E2E2E2E2F0E2E2E2E2E2E2E2E2E2E2F5E2E2E2F5E2E2E2E2E2E2E2E2E2E2E2F0E2E2E2E2E2E2E2E2E2E2E2E2E2E2E2E2E2E2E2E2E2E2E2E2F0E2E2E2E2E2E2E2E2E2E2E2E2E2E2E2E2E2E2E2E2E2E2E2E2E2E2F0E2E2E2E2E2
310
E2E2E2E2E2E2E2E2F5E2E2E2E2F5E2E2E2E2E2F0E2E2E2E2E2F0E2E2E2E2E2E2E2E2E2E2E2E2E2E2E2E2E2E2E2E2E2E2E2E2E2E2E2E2E2F5E2E2E2E2E2E2F5F5F5E2E2E2F5E2E2E2E2E2E2E2E2E2E2E2E2E2E2E2E2E2E2E2E2E2E2E2E2E2E2F0E2E2E2E2E2E2E2E2E2E2F5E2E2E2F5E2E2E2E2E2E2E2E2E2E2E2F0E2E2E2E2
310
E2E2E2E2E2E2E2E2E2E2E2E2E2E2E2E2E2E2E2E2F0E2E2E2E2E2E2E2E2E2E2E2E2E2E2E2E2E2E2E2E2E2E2E2E2E2E2F0E2E2E2E2E2E2E2E2E2E2E2E2E2F5E2E2E2E2F5E2E2E2E2E2F0E2E2E2E2E2F0E2E2E2E2E2E2E2E2E2E2E2E2E2E2E2E2E2E2E2E2E2E2E2E2E2E2E2E2E2F5E2E2E2E2E2E2F5F5F5E2E2E2F5E2E2E2E2E2
310
E2E2E2E2E2E2E2E2E2E2E2E2E2E2E2E2E2E2E2E2E2F0E2E2E2E2E2E2E2E2E2E2F5E2E2E2F5E2E2E2E2E2E2E2E2E2E2E2F0E2E2E2E2E2E2E2E2E2E2E2E2E2E2E2E2E2E2E2E2E2E2E2E2F0E2E2E2E2E2E2E2E2E2E2E2E2E2E2E2E2E2E2E2E2E2E2E2E2E2E2F0E2E2E2E2E2E2E2E2E2E2E2E2E2F5E2E2E2E2F5E2E2E2E2E2F0E2
310
E2E2E2E2F0E2E2E2E2E2E2E2E2E2E2E2E2E2E2E2E2E2E2E2E2E2E2E2E2E2E2E2E2E2F5E2E2E2E2E2E2F5F5F5E2E2E2F5E2E2E2E2E2E2E2E2E2E2E2E2E2E2E2E2E2E2E2E2E2E2E2E2E2E2F0E2E2E2E2E2E2E2E2E2E2F5E2E2E2F5E2E2E2E2E2E2E2E2E2E2E2F0E2E2E2E2E2E2E2E2E2E2E2E2E2E2E2E2E2E2E2E2E2E2E2E2F0
310
E2E2E2E2E2E2E2E2E2E2E2E2E2E2E2E2E2E2E2E2E2E2E2E2E2E2F0E2E2E2E2E2E2E2E2E2E2E2E2E2F5E2E2E2E2F5E2E2E2E2E2F0E2E2E2E2E2F0E2E2E2E2E2E2E2E2E2E2E2E2E2E2E2E2E2E2E2E2E2E2E2E2E2E2E2E2E2F5E2E2E2E2E2E2F5F5F5E2E2E2F5E2E2E2E2E2E2E2E2E2E2E2E2E2E2E2E2E2E2E2E2E2E2E2E2E2E2
310
F0F0F0F0F0F0F0F0F0F0F0F0DCDCDCDCF0F0F0F0F0F0F0F0F0F0F0F0E2E2E2E2E2E2E2E2E2E2E2E2E2E2E2E2E2E2E2E2E2E2E2E2F0F0F0F0F0F0F0F0F0F0F0F0DCDCDCDCF0F0F0F0F0F0F0F0F0F0F0F0E2E2E2E2E2E2E2E2E2E2E2E2E2F5E2F5F5F5F5E2E2E2E2E2F0E2E2E2DCDCF0E2E2E2E2E2E2E2E2E2E2E2E2E2E2E2E2
310
E2E2E2E2E2E2E2E2E2E2E2E2E2F5E2E2F5E2E2E2F5F5F5E2E2E2F5E2E2E2E2E2E2E2E2E2E2E2E2E2E2E2E2E2E2E2E2E2E2E2E2E2E2F0E2E2E2E2E2E2E2E2F5E2F5DCDCDCDCF5E2F5E2E2E2E2E2E2E2E2F0E2E2E2E2E2E2E2E2E2E2E2E2E2E2E2E2E2E2E2E2E2E2E2E2F0E2E2E2E2E2E2E2E2E2E2E2DCDCDCDCE2E2E2E2E2E2
310
E2E2E2E2E2F0E2E2E2E2E2E2E2E2E2E2E2E2E2E2F5F5F5F5F5E2E2E2E2E2F0E2E2E2DCDCF0E2E2E2E2E2E2E2E2E2E2E2E2E2E2E2E2E2E2E2E2E2E2E2E2E2E2E2E2E2F5E2E2F5E2E2E2F5F5F5E2E2E2F5E2E2E2E2E2E2E2E2E2E2E2E2E2E2E2E2E2E2E2E2E2E2E2E2E2E2E2E2E2E2E2E2E2E2E2F5E2F5DCDCDCF5F5E2F5E2E2
310
E2E2E2E2E2E2E2E2E2E2E2E2E2E2E2E2E2E2E2E2E2E2E2E2E2E2E2E2E2E2E2E2E2E2E2E2E2E2E2E2E2E2E2DCDCDCE2E2E2E2E2E2E2E2E2E2E2E2E2E2E2E2E2E2E2E2E2E2E2E2E2E2F5F5F5E2F5F5F5E2E2E2E2F0E2E2E2DCDCF0E2E2E2E2E2E2E2E2E2E2E2E2E2E2E2E2E2E2E2E2E2E2E2E2E2E2E2E2E2F5E2E2F5E2E2E2F5
310
F5F5E2E2E2F5E2E2E2E2E2E2E2E2E2E2E2E2E2E2E2E2E2E2E2E2E2E2E2E2E2E2E2E2E2E2E2E2E2E2E2F5E2F5E2E2E2F5F5E2F5E2E2E2E2E2E2E2E2E2E2E2E2E2E2E2E2E2E2E2E2E2E2E2E2E2E2E2E2E2E2E2E2E2E2E2E2E2E2E2E2E2E2E2E2E2E2E2E2E2E2E2E2E2E2E2E2E2E2E2E2E2E2E2E2E2E2E2E2E2E2E2E2E2E2F5F5
310
E2E2E2F5F5E2E2E2E2F0E2E2E2DCDCF0E2E2E2E2E2E2E2E2E2E2E2E2E2E2E2E2E2E2E2E2E2E2E2E2E2E2E2E2E2F5E2E2F5E2E2E2F5F5F5E2E2E2F5E2E2E2E2E2E2E2E2E2E2E2E2E2E2E2E2E2E2E2E2E2E2E2E2E2E2E2E2E2E2E2E2E2E2E2F5E2F5F5F5F5F5F5E2F5E2E2E2E2E2E2E2E2E2E2E2E2E2E2E2E2E2E2E2E2E2E2E2
310
E2E2E2E2E2E2E2E2E2E2E2E2E2E2E2E2E2E2E2E2E2E2E2E2E2E2E2E2E2E2E2E2E2E2E2E2E2E2E2E2E2E2E2E2E2E2E2E2E2E2E2F5E2E2E2E2F5F5E2E2E2E2F0E2E2E2DCDCF0E2E2E2E2E2E2E2E2E2E2E2E2E2E2E2E2E2E2E2E2E2E2E2E2E2E2E2E2E2F5E2E2F5E2E2E2F5F5F5E2E2E2F5E2E2E2E2E2E2E2E2E2E2E2E2E2E2E2
310
E2E2E2E2E2E2E2E2E2E2E2E2E2E2E2E2E2E2E2E2F5F5F5E2F5F5F5F5F5F5E2E2E2E2E2E2E2E2E2E2E2E2E2E2E2E2E2E2E2E2E2E2E2E2E2E2E2E2E2E2E2E2E2E2E2E2E2E2E2E2E2E2E2E2E2E2E2E2E2E2E2E2E2E2E2E2E2E2E2E2E2E2E2E2E2E2E2E2E2E2E2E2E2E2F5F5E2E2E2F5F5E2E2E2E2F0E2E2E2DCDCF0E2E2E2E2E2
310
E2E2E2E2E2E2E2E2E2E2E2E2E2E2E2E2E2E2E2E2E2E2E2E2F5E2E2F5E2E2E2F5F5F5E2E2E2F5E2E2E2E2E2E2E2E2E2E2E2E2E2E2E2E2E2E2E2E2E2E2E2E2E2E2E2E2E2E2E2E2E2E2E2F5E2F5E2F5F5E2F5E2F5E2E2E2E2E2E2E2E2E2E2E2E2E2E2E2E2E2E2E2E2E2E2E2E2E2E2E2E2E2E2E2E2E2E2E2E2E2E2E2E2E2E2E2E2
310
E2E2E2E2E2E2E2E2E2E2E2E2E2E2E2E2E2E2E2E2E2E2E2E2E2E2E2E2E2E2F5F5F5F5F5F5F5E2E2E2E2F0E2E2E2E2E2F0E2E2E2E2E2E2E2E2E2E2E2E2E2E2E2E2E2E2E2E2E2E2E2E2E2E2E2E2E2F5E2E2F5E2E2E2F5F5F5E2E2E2F5E2E2E2E2E2E2E2E2E2E2E2E2E2E2E2E2E2E2E2E2E2E2E2E2E2E2E2E2E2E2E2E2E2E2E2F5
310
E2F5E2F5F5E2F5E2F5E2E2E2E2E2E2E2E2E2E2E2E2E2E2E2E2E2E2E2E2E2E2E2E2E2E2E2E2E2E2E2E2E2E2E2E2E2E2E2E2E2E2E2E2E2E2E2E2E2E2E2E2E2E2E2E2E2E2E2E2E2E2E2E2E2E2E2E2E2E2E2E2E2E2F5F5F5F5F5E2F5E2E2E2E2F0E2E2E2E2E2F0E2E2E2E2E2E2E2E2E2E2E2E2E2E2E2E2E2E2E2E2E2E2E2E2E2E2
310
E2E2E2F5E2E2F5E2E2E2F5F5F5E2E2E2F5E2E2E2E2E2E2E2E2E2E2E2E2E2E2E2E2E2E2E2E2E2E2E2E2E2E2E2E2E2E2E2E2E2E2F5E2F5E2E2F5F5E2F5E2F5E2E2E2E2E2E2E2E2E2E2E2E2E2E2E2E2E2E2E2E2E2E2E2E2E2E2E2E2E2E2E2E2E2E2E2E2E2E2E2E2E2E2E2E2E2E2E2E2E2E2E2E2E2E2E2E2E2E2E2E2E2E2E2E2E2
310
E2E2E2E2E2E2E2E2E2F5F5E2E2F5E2F5E2E2E2E2F0E2E2E2E2E2F0E2E2E2E2E2E2E2E2E2E2E2E2E2E2E2E2E2E2E2E2E2E2E2E2E2E2E2E2E2F5E2E2F5E2E2E2F5F5F5E2E2E2F5E2E2E2E2E2E2E2E2E2E2E2E2E2E2E2E2E2E2E2E2E2E2E2E2E2E2E2E2E2E2E2E2E2E2F5E2F5E2E2F5F5E2F5E2F5E2E2E2E2E2E2E2E2E2E2E2E2
310
E2E2E2E2E2E2E2E2E2E2E2E2E2E2E2E2E2E2E2E2E2E2E2E2E2E2E2E2E2E2E2E2E2E2E2E2E2E2E2E2E2E2E2E2E2E2E2E2E2E2E2E2E2E2E2E2E2E2E2E2E2E2F5F5F5F5F5E2F5E2E2E2E2F0E2E2E2E2E2F0E2E2E2E2E2E2E2E2E2E2E2E2E2E2E2E2E2E2E2E2E2E2E2E2E2E2E2E2E2F5E2E2F5E2E2E2F5F5F5E2E2E2F5E2E2E2E2
310
E2E2E2E2E2E2E2E2E2E2E2E2E2E2E2E2E2E2E2E2E2E2E2E2E2E2E2E2F5F5F5F5F5F5F5F5F5F5F5F5F5F5F5E2E2E2E2E2E2E2E2E2E2E2E2E2E2E2E2E2E2E2E2E2E2E2E2E2E2E2E2E2E2E2E2E2E2E2E2E2E2E2E2E2E2E2E2E2E2E2E2E2E2E2E2E2E2E2E2E2E2E2E2E2E2E2E2E2E2E2E2E2E2E2F5F5F5F5F5F5F5F5F5E2E2E2F0
310
E2E2E2E2E2F0E2E2E2E2E2E2E2E2E2E2E2E2E2E2E2E2E2E2E2E2E2E2E2E2E2E2E2E2E2F5E2E2F5E2E2E2F5F5F5E2E2E2F5E2E2E2E2E2E2E2E2E2E2E2E2E2E2E2E2E2E2E2E2E2E2E2E2E2E2E2F5F5F5F5F5F5F5F5F5F5F5F5F5F5F5F5F5F5F5F5F5F5F5F5F5E2E2E2E2E2E2E2E2E2E2E2E2E2E2E2E2E2E2E2E2E2E2E2E2E2E2
310
E2E2E2E2E2E2E2E2E2E2E2E2E2E2E2E2E2E2E2E2E2E2E2E2E2E2E2E2E2E2E2E2E2E2E2E2E2E2F5F5F5F5F5F5F5F5F5F5F5F5F5E2F0E2E2E2E2E2F0E2E2E2E2E2E2E2E2E2E2E2E2E2E2E2E2E2E2E2E2E2E2E2E2E2E2E2E2E2F5E2E2F5E2E2E2F5F5F5E2E2E2F5E2E2E2E2E2E2E2E2E2E2E2E2E2E2E2E2E2E2E2E2E2E2E2E2E2
310
E2F5F5E2E2E2E2E2E2E2E2E2E2E2E2E2E2E2E2E2E2F5E2E2E2E2E2F5E2E2E2E2E2E2E2E2E2E2E2E2E2E2E2E2E2E2E2E2E2E2E2E2E2E2E2E2E2E2E2E2E2E2E2E2E2E2E2E2E2E2E2E2E2E2E2E2E2E2E2E2E2E2E2E2E2E2E2E2E2E2E2F5E2F5E2E2E2E2E2E2E2E2F5F5E2F0E2E2E2E2E2F0E2E2E2E2E2E2E2E2E2E2E2E2E2E2E2
310
E2E2E2E2E2E2E2E2E2E2E2E2E2E2F5E2E2F5E2E2E2F5F5F5E2E2E2F5E2E2E2E2E2E2E2E2E2E2E2E2E2E2E2E2E2E2E2E2E2E2E2E2E2E2F5E2E2E2E2E2E2E2E2E2E2E2E2E2E2E2E2E2E2E2F5E2E2E2E2E2F5E2E2E2E2E2E2E2E2E2E2E2E2E2E2E2E2E2E2E2E2E2E2E2E2E2E2E2E2E2E2E2E2E2E2E2E2E2E2E2E2E2E2E2E2E2E2
310
E2E2E2E2E2E2E2E2E2E2E2E2E2E2E2F5F5E2E2F5E2E2E2E2E2E2E2E2F5E2F5F0E2E2E2E2E2F0E2E2E2E2E2E2E2E2E2E2E2E2E2E2E2E2E2E2E2E2E2E2E2E2E2E2E2E2E2F5E2E2F5E2E2E2F5F5F5E2E2E2F5E2E2E2E2E2E2E2E2E2E2E2E2E2E2E2E2E2E2E2E2E2E2E2E2E2E2F5F5F5F5F5F5F5F5F5F5F5F5F5F5F5F5F5F5F5F5
310
F5F5F5F5F5F5F5F5E2E2E2E2E2E2E2E2E2E2E2E2E2E2E2E2E2E2E2E2E2E2E2E2E2E2E2E2E2E2E2E2E2E2E2E2E2E2E2E2E2E2E2E2E2E2E2E2E2E2E2E2E2E2E2E2E2E2E2E2F5F5F5E2F5E2E2E2E2E2E2E2E2F5E2F5F0E2E2E2E2E2F0E2E2E2E2E2E2E2E2E2E2E2E2E2E2E2E2E2E2E2E2E2E2E2E2E2E2E2E2E2F5E2E2F5E2E2E2
310
F5F5F5E2E2E2F5E2E2E2E2E2E2E2E2E2E2E2E2E2E2E2E2E2E2E2E2E2E2E2E2E2F5F5F5F5F5F5F5F5F5F5F5F5F5F5F5F5F5F5F5F5F5F5F5F5F5F5F5F5F5E2E2E2E2E2E2E2E2E2E2E2E2E2E2E2E2E2E2E2E2E2E2E2E2E2E2E2E2E2E2E2E2E2E2E2E2E2E2E2E2E2E2E2E2E2E2E2E2E2E2E2E2E2E2E2E2E2E2E2F5F5E2F5F5F5F5
310
F5F5F5F5F5F5F5F5E2F5F0E2E2E2E2E2F0E2E2E2E2E2E2E2E2E2E2E2E2E2E2E2E2E2E2E2E2E2E2E2E2E2E2E2E2E2F5E2E2E2E2E2E2F5F5F5E2E2E2F5E2E2E2E2E2E2E2E2E2E2E2E2E2E2E2E2E2E2E2E2E2E2E2E2E2F5F5F5F5F5F5F5F5F5F5F5F5F5F5F5F5F5F5F5F5F5F5F5F5F5F5F5F5F5E2E2E2E2E2E2E2E2E2E2E2E2E2
310
E2E2E2E2E2E2E2E2E2E2E2E2E2E2E2E2E2E2E2E2E2E2E2E2E2E2E2E2E2E2E2E2E2E2E2E2E2E2E2E2E2E2E2E2E2E2E2F5F5F5F5F5F5F5E2E2F5F5E2E2E2E2F5F0E2E2E2E2E2F0E2E2E2E2E2E2E2E2E2E2E2E2E2E2E2E2E2E2E2E2E2E2E2E2E2E2E2E2E2F5E2E2E2E2E2E2F5F5F5E2E2E2F5E2E2E2E2E2E2E2E2E2E2E2E2E2E2
310
E2E2E2E2E2E2E2E2E2E2E2F5F5F5F5F5F5F5F5F5F5F5F5F5F5F5F5F5F5E2E2F5F5F5F5F5F5F5F5F5E2E2E2E2E2E2E2E2E2E2E2E2E2E2E2E2E2E2E2E2E2E2E2E2E2E2E2E2E2E2E2E2E2E2E2E2E2E2E2E2E2E2E2E2E2E2E2E2E2E2E2E2E2E2E2E2E2E2E2E2E2F5F5F5F5F5F5F5F5E2E2F5F5F5E2F5F0E2E2E2E2E2F0E2E2E2E2
310
E2E2E2E2E2E2E2E2E2E2E2E2E2E2E2E2E2E2E2E2E2E2E2E2E2F5E2E2E2E2E2E2F5F5F5E2E2E2F5E2E2E2E2E2E2E2E2E2E2E2E2E2E2E2E2E2E2E2E2E2E2E2E2E2F5F5F5F5F5F5F5F5F5F5F5F5F5F5F5F5F5F5E2E2F5F5F5F5F5F5F5F5F5F5E2E2E2E2E2E2E2E2E2E2E2E2E2E2E2E2E2E2E2E2E2E2E2E2E2E2E2E2E2E2E2E2E2
310
E2E2E2E2E2E2E2E2E2E2E2E2E2E2E2E2E2E2E2E2E2E2E2E2E2E2E2E2E2F5F5F5F5F5F5E2E2E2E2E2F5F5F0E2E2E2E2E2F0E2E2E2E2E2E2E2E2E2E2E2E2E2E2E2E2E2E2E2E2E2E2E2E2E2E2E2E2E2F5E2E2E2E2E2E2F5F5F5E2E2E2F5E2E2E2E2E2E2E2E2E2E2E2E2E2E2E2E2E2E2E2E2E2E2E2E2F5F5F5F5F5F5F5F5F5F5F5
310
F5F5F5F5F5F5F5F5E2E2F5F5F5F5F5F5F5F5F5F5E2E2E2E2E2E2E2E2E2E2E2E2E2E2E2E2E2E2E2E2E2E2E2E2E2E2E2E2E2E2E2E2E2E2E2E2E2E2E2E2E2E2E2E2E2E2E2E2E2E2E2E2E2E2E2E2E2E2E2E2E2E2E2E2F5F5F5E2F5F5F5E2E2F5F5F0E2E2E2E2E2F0E2E2E2E2E2E2E2E2E2E2E2E2E2E2E2E2E2E2E2E2E2E2E2E2E2
310
E2E2E2E2F5E2E2E2E2E2E2F5F5F5E2E2E2F5E2E2E2E2E2E2E2E2E2E2E2E2E2E2E2E2E2E2E2E2E2E2E2E2F5F5E2F5E2E2E2E2E2E2E2E2E2E2E2E2E2F5F5E2E2E2E2E2E2E2E2E2E2E2F5E2E2E2E2E2E2E2E2E2E2E2E2E2E2E2E2E2E2E2E2E2E2E2E2E2E2E2E2E2E2E2E2E2E2E2E2E2E2E2E2E2E2E2E2E2E2E2E2E2E2E2E2E2E2
310
E2E2E2E2E2E2E2E2E2E2E2E2E2F5F5F5F5F5F5E2F5F5E2E2E2E2E2F0E2E2E2E2E2E2E2E2E2E2E2E2E2E2E2E2E2E2E2E2E2E2E2E2E2E2E2E2E2F5E2E2E2E2E2E2F5F5F5E2E2E2F5E2E2E2E2E2E2E2E2E2E2E2E2E2E2E2E2E2E2E2E2E2E2E2E2F5F5E2F5F5F5F5F5F5F5F5F5F5F5F5F5F5F5F5F5F5F5F5F5F5F5F5F5F5F5F5E2
310
E2E2E2E2E2E2E2E2E2E2E2E2E2E2E2E2E2E2E2E2E2E2E2E2E2E2E2E2E2E2E2E2E2E2E2E2E2E2E2E2E2E2E2E2E2E2E2E2E2E2E2E2E2E2E2E2E2E2E2E2E2E2E2E2E2E2E2E2E2F5F5F5F5F5F5E2E2E2E2F0F0E2E2E2E2E2E2E2E2E2E2E2E2E2E2E2E2E2E2E2E2E2E2E2E2E2E2E2E2E2F5E2E2E2E2E2E2F5F5F5E2E2E2F5E2E2E2
310
E2E2E2E2E2E2E2E2E2E2E2E2E2E2E2E2E2E2E2E2E2E2F5F5F5F5F5F5F5F5F5F5F5F5F5F5F5F5F5F5F5F5F5F5F5F5F5F5F5F5F5E2E2E2E2E2E2E2E2E2E2E2E2E2E2E2E2E2E2E2E2E2E2E2E2E2E2E2E2E2E2E2E2E2E2E2E2E2E2E2E2E2E2E2E2E2E2E2E2E2E2E2E2E2E2E2E2E2E2E2E2E2E2E2E2E2E2E2E2E2E2E2E2F5F5F5F5
310
F0F0F0F0F0F0F0F0E2E2E2E2E2E2E2E2E2E2E2E2E2E2E2E2E2E2E2E2E2E2E2E2E2E2E2E2F5E2E2E2E2E2E2F5F5F5E2E2E2F5E2E2E2E2E2E2E2E2E2E2E2E2E2E2E2E2E2E2E2E2E2E2E2E2E2E2E2E2E2E2E2E2E2E2E2E2E2E2E2E2E2E2E2E2E2E2E2E2E2E2E2E2E2E2E2E2E2E2E2E2E2E2E2E2E2E2E2E2E2E2E2E2E2E2E2E2E2
310
E2E2E2E2E2E2E2E2E2E2E2E2E2E2E2E2E2E2E2E2E2E2E2E2E2E2E2E2E2E2E2E2E2E2E2E2E2E2E2E2E2E2E2E2E2E2E2E2E2E2E2E2E2E2E2E2E2E2E2E2E2E2E2E2E2E2E2E2E2E2E2E2E2E2E2E2E2E2E2E2E2E2E2E2E2E2E2E2E2F5E2E2F5E2E2E2F5F5F5E2E2E2F5E2E2E2E2E2E2E2E2E2E2E2E2E2E2E2E2E2E2E2E2E2E2E2E2
310
E2E2E2E2E2E2E2E2E2E2E2E2E2E2E2E2E2E2E2E2E2E2E2E2E2E2E2E2E2E2E2E2E2E2E2E2E2E2E2E2E2E2E2E2E2E2E2E2E2E2E2E2E2E2E2E2E2E2E2E2E2E2E2E2E2E2E2E2E2E2E2E2E2E2E2E2E2E2E2E2E2E2E2E2E2E2E2E2E2E2E2E2E2E2E2E2E2E2E2E2E2E2E2E2E2E2E2E2E2E2E2E2E2E2E2E2E2E2E2E2E2E2E2E2E2E2E2
310
E2E2E2E2E2E2E2E2E2E2E2E2E2E2E2F5E2E2F5E2E2E2F5F5F5E2E2E2F5E2E2E2E2E2E2E2E2E2E2E2E2E2E2E2E2E2E2E2E2E2E2E2E2E2E2E2E2E2E2E2E2E2E2E2E2E2E2E2E2E2E2E2E2E2E2E2E2E2E2E2E2E2E2E2E2E2E2E2E2E2E2E2E2E2E2E2E2E2E2E2E2E2E2E2E2E2E2E2E2E2E2E2E2E2E2E2E2E2E2E2E2E2E2E2E2E2E2
310
E2E2E2E2E2E2E2E2E2E2E2E2E2E2E2E2E2E2E2E2E2E2E2E2E2E2E2E2E2E2E2E2E2E2E2E2E2E2E2E2E2E2E2E2E2E2E2E2E2E2E2E2E2E2E2E2E2E2E2E2E2E2E2E2E2E2E2E2F5E2E2F5E2E2E2F5F5F5E2E2E2F5E2E2E2E2E2E2E2E2E2E2E2E2E2E2E2E2E2E2E2E2E2E2E2E2E2E2E2E2E2E2E2E2E2E2E2E2E2E2E2E2E2E2E2E2E2
310
E2E2E2E2E2E2E2E2E2E2E2E2E2E2E2E2E2E2E2E2E2E2E2E2E2E2E2E2E2E2E2E2E2E2E2E2E2E2E2E2E2E2E2E2E2E2E2E2E2E2E2E2E2E2E2E2E2E2E2E2E2E2E2E2E2E2E2E2E2E2E2E2E2E2E2E2E2E2E2E2E2E2E2E2E2E2E2E2E2E2E2E2E2E2E2E2E2E2E2E2E2E2E2E2E2E2E2E2E2E2E2E2E2E2E2E2E2E2E2E2E2F5E2E2F5E2E2
310
E2F5F5F5E2E2E2F5E2E2E2E2E2E2E2E2E2E2E2E2E2E2E2E2E2E2E2E2E2E2E2E2E2E2E2E2E2E2E2E2E2E2E2E2E2E2E2E2E2E2E2E2E2E2E2E2E2E2E2E2E2E2E2E2E2E2E2E2E2E2E2E2E2E2E2E2E2E2E2E2E2E2E2E2E2E2E2E2E2E2E2E2E2E2E2E2E2E2E2E2E2E2E2E2E2E2E2E2E2E2E2E2E2E2E2E2E2E2E2E2E2E2E2E2E2E2E2
310
E2E2E2E2E2E2E2E2E2E2E2E2E2E2E2E2E2E2E2E2E2E2E2E2E2E2E2E2E2E2E2E2E2E2E2E2E2E2E2E2E2E2E2E2E2E2E2F5E2E2F5E2E2E2F5F5F5E2E2E2F5E2E2E2E2E2E2E2E2E2E2E2E2E2E2E2E2E2E2E2E2E2E2E2E2E2E2E2E2E2E2E2E2E2E2E2E2E2E2E2E2E2E2E2E2E2E2E2E2E2E2E2E2E2E2E2E2E2E2E2E2E2E2E2E2E2E2
310
E2E2E2E2E2E2E2E2E2E2E2E2E2E2E2E2E2E2E2E2E2E2E2E2E2E2E2E2E2E2E2E2E2E2E2E2E2E2E2E2E2E2E2E2E2E2E2E2E2E2E2E2E2E2E2E2E2E2E2E2E2E2E2E2E2E2E2E2E2E2E2E2E2E2E2E2E2E2E2E2E2E2E2E2E2E2E2E2E2E2E2E2E2E2E2E2E2E2E2E2F5E2E2F5E2E2E2F5F5F5E2E2E2F5E2E2E2E2E2E2E2E2E2E2E2E2E2
310
E2E2E2E2E2E2E2E2E2E2E2E2E2E2E2E2E2E2E2E2E2E2E2E2E2E2E2E2E2E2E2E2E2E2E2E2E2E2E2E2E2E2E2E2E2E2E2E2E2E2E2E2E2E2E2E2E2E2E2E2E2E2E2E2E2E2E2E2E2E2E2E2E2E2E2E2E2E2E2E2E2E2E2E2E2E2E2E2E2E2E2E2E2E2E2E2E2E2E2E2E2E2E2E2E2E2E2E2E2E2E2E2E2E2E2E2E2E2E2E2E2E2E2E2E2E2E2
310
E2E2E2E2E2E2E2E2E2E2E2E2E2E2E2E2E2E2E2E2E2E2E2E2E2E2F5E2E2F5E2E2E2F5F5F5E2E2E2F5E2E2E2E2E2E2E2E2E2E2E2E2E2E2E2E2E2E2E2E2E2E2E2E2E2E2E2E2E2E2E2E2E2E2E2E2E2E2E2E2E2E2E2E2E2E2E2E2E2E2E2E2E2E2E2E2E2E2E2E2E2E2E2E2E2E2E2E2E2E2E2E2E2E2E2E2E2E2E2E2E2E2E2E2E2E2E2
310
E2E2E2E2E2E2E2E2E2E2E2E2E2E2E2E2E2E2E2E2E2E2E2E2E2E2E2E2E2E2E2E2E2E2E2E2E2E2E2E2E2E2E2E2E2E2E2E2E2E2E2E2E2E2E2E2E2E2E2E2E2E2E2E2E2E2E2E2E2E2E2E2E2E2E2E2E2E2E2F5E2E2F5E2E2E2F5F5F5E2E2E2F5E2E2E2E2E2E2E2E2E2E2E2E2E2E2E2E2E2E2E2E2E2E2E2E2E2E2E2E2E2E2E2E2E2E2
310
E2E2E2E2E2E2E2E2E2E2E2E2E2E2E2E2E2E2E2E2E2E2E2E2E2E2E2E2E2E2E2E2E2E2E2E2E2E2E2E2E2E2E2E2E2E2E2E2E2E2E2E2E2E2E2E2E2E2E2E2E2E2E2E2E2E2E2E2E2E2E2E2E2E2E2E2E2E2E2E2E2E2E2E2E2E2E2E2E2E2E2E2E2E2E2E2E2E2E2E2E2E2E2E2E2E2E2E2E2E2E2E2E2E2E2E2E2E2E2E2E2E2E2E2E2E2E2
310
E2E2E2E2E2F5E2E2F5E2E2E2F5F5F5E2E2E2F5E2E2E2E2E2E2E2E2E2E2E2E2E2E2E2E2E2E2E2E2E2E2E2E2E2E2E2E2E2E2E2E2E2E2E2E2E2E2E2E2E2E2E2E2E2E2E2E2E2E2E2E2E2E2E2E2E2E2E2E2E2E2E2E2E2E2E2E2E2E2E2E2E2E2E2E2E2E2E2E2E2E2E2E2E2E2E2E2E2E2E2E2E2E2E2E2E2E2E2E2E2E2E2E2E2E2E2E2
310
E2E2E2E2E2E2E2E2E2E2E2E2E2E2E2E2E2E2E2E2E2E2E2E2E2E2E2E2E2E2E2E2E2E2E2E2E2E2E2E2E2E2E2E2E2E2E2E2E2E2E2E2E2E2E2E2E2E2F5E2E2F5E2E2E2F5F5F5E2E2E2F5E2E2E2E2E2E2E2E2E2E2E2E2E2E2E2E2E2E2E2E2E2E2E2E2E2E2E2E2E2E2E2E2E2E2E2E2E2E2E2E2E2E2E2E2E2E2E2E2E2E2E2E2E2E2E2
310
E2E2E2E2E2E2E2E2E2E2E2E2E2E2E2E2E2E2E2E2E2E2E2E2E2E2E2E2E2E2E2E2E2E2E2E2E2E2E2E2E2E2E2E2E2E2E2E2E2E2E2E2E2E2E2E2E2E2E2E2E2E2E2E2E2E2E2E2E2E2E2E2E2E2E2E2E2E2E2E2E2E2E2E2E2E2E2E2E2E2E2E2E2E2E2E2E2E2E2E2E2E2E2E2E2E2E2E2E2E2E2F5E2E2F5E2E2E2F5F5F5E2E2E2F5E2E2
310
E2E2E2E2E2E2E2E2E2E2E2E2E2E2E2E2E2E2E2E2E2E2E2E2E2E2E2E2E2E2E2E2E2E2E2E2E2E2E2E2E2E2E2E2E2E2E2E2E2E2E2E2E2E2E2E2E2E2E2E2E2E2E2E2E2E2E2E2E2E2E2E2E2E2E2E2E2E2E2E2E2E2E2E2E2E2E2E2E2E2E2E2E2E2E2E2E2E2E2E2E2E2E2E2E2E2E2E2E2E2E2E2E2E2E2E2E2E2E2E2E2E2E2E2E2E2E2
310
E2E2E2E2E2E2E2E2E2E2E2E2E2E2E2E2E2E2E2E2E2E2E2E2E2E2E2E2E2E2E2E2E2E2E2E2E2F5E2E2F5E2E2E2F5F5F5E2E2E2F5E2E2E2E2E2E2E2E2E2E2E2E2E2E2E2E2E2E2E2E2E2E2E2E2E2E2E2E2E2E2E2E2E2E2E2E2E2E2E2E2E2E2E2E2E2E2E2E2E2E2E2E2E2E2E2E2E2E2E2E2E2E2E2E2E2E2E2E2E2E2E2E2E2E2E2E2
310
E2E2E2E2E2E2E2E2E2E2E2E2E2E2E2E2E2E2E2E2E2E2E2E2E2E2E2E2E2E2E2E2E2E2E2E2E2E2E2E2E2E2E2E2E2E2E2E2E2E2E2E2E2E2E2E2E2E2E2E2E2E2E2E2E2E2E2E2E2E2E2E2E2E2E2E2E2E2E2E2E2E2E2E2E2E2E2E2E2E2F5E2E2F5E2E2E2F5F5F5E2E2E2F5E2E2E2E2E2E2E2E2E2E2E2E2E2E2E2E2E2E2E2E2E2E2E2
310
E2E2E2E2E2E2E2E2E2E2E2E2E2E2E2E2E2E2E2E2E2E2E2E2E2E2E2E2E2E2E2E2E2E2E2E2E2E2E2E2E2E2E2E2E2E2E2E2E2E2E2E2E2E2E2E2E2E2E2E2E2E2E2E2E2E2E2E2E2E2E2E2E2E2E2E2E2E2E2E2E2E2E2E2E2E2E2E2E2E2E2E2E2E2E2E2E2E2E2E2E2E2E2E2E2E2E2E2E2E2E2E2E2E2E2E2E2E2E2E2E2E2E2E2E2E2E2
310
E2E2E2E2E2E2E2E2E2E2E2E2E2E2E2E2F5E2E2F5E2E2E2F5F5F5E2E2E2F5E2E2E2E2E2E2E2E2E2E2E2E2E2E2E2E2E2E2E2E2E2E2E2E2E2E2E2E2E2E2E2E2E2E2E2E2E2E2E2E2E2E2E2E2E2E2E2E2E2E2E2E2E2E2E2E2E2E2E2E2E2E2E2E2E2E2E2E2E2E2E2E2E2E2E2E2E2E2E2E2E2E2E2E2E2E2E2E2E2E2E2E2E2E2E2E2E2
310
E2E2E2E2E2E2E2E2E2E2E2E2E2E2E2E2E2E2E2E2E2E2E2E2E2E2E2E2E2E2E2E2E2E2E2E2E2E2E2E2E2E2E2E2E2E2E2E2E2E2E2E2E2E2E2E2E2E2E2E2E2E2E2E2E2E2E2E2E2F5E2E2F5E2E2E2F5F5F5E2E2E2F5E2E2E2E2E2E2E2E2E2E2E2E2E2E2E2E2E2E2E2E2E2E2E2E2E2E2E2E2E2E2E2E2E2E2E2E2E2E2E2E2E2E2E2E2
310
E2E2E2E2E2E2E2E2E2E2E2E2E2E2E2E2E2E2E2E2E2E2E2E2E2E2E2E2E2E2E2E2E2E2E2E2E2E2E2E2E2E2E2E2E2E2E2E2E2E2E2E2E2E2E2E2E2E2E2E2E2E2E2E2E2E2E2E2E2E2E2E2E2E2E2E2E2E2E2E2E2E2E2E2E2E2E2E2E2E2E2E2E2E2E2E2E2E2E2E2E2E2E2E2E2E2E2E2E2E2E2E2E2E2E2E2E2E2E2E2E2E2F5E2E2E2E2
310
E2E2F5F5F5E2E2E2F5E2E2E2E2E2E2E2E2E2E2E2E2E2E2E2E2E2E2E2E2E2E2E2E2E2E2E2E2E2E2E2E2E2E2E2E2E2E2E2E2E2E2E2E2E2E2E2E2E2E2E2E2E2E2E2E2E2E2E2E2E2E2E2E2E2E2E2E2E2E2E2E2E2E2E2E2E2E2E2E2E2E2E2E2E2E2E2E2E2E2E2E2E2E2E2E2E2E2E2E2E2E2E2E2E2E2E2E2E2E2E2E2E2E2E2E2E2E2
310
E2E2E2E2E2E2E2E2E2E2E2E2E2E2E2E2E2E2E2E2E2E2E2E2E2E2E2E2E2E2E2E2E2E2E2E2E2E2E2E2E2E2E2E2E2E2E2E2F5E2E2E2E2E2E2F5F5F5E2E2E2F5E2E2E2E2E2E2E2E2E2E2E2E2E2E2E2E2E2E2E2E2E2E2E2E2E2E2E2E2E2E2E2E2E2E2E2E2E2E2E2E2E2E2E2E2E2E2E2E2E2E2E2E2E2E2E2E2E2E2E2E2E2E2E2E2E2
310
E2E2E2E2E2E2E2E2E2E2E2E2E2E2E2E2E2E2E2E2E2E2E2E2E2E2E2E2E2E2E2E2E2E2E2E2E2E2E2E2E2E2E2E2E2E2E2E2E2E2E2E2E2E2E2E2E2E2E2E2E2E2E2E2E2E2E2E2E2E2E2E2E2E2E2E2E2E2E2E2E2E2E2E2E2E2E2E2E2E2E2E2E2E2E2E2E2E2E2E2E2F5E2E2E2E2E2E2F5F5F5E2E2E2F5E2E2E2E2E2E2E2E2E2E2E2E2
310
E2E2E2E2E2E2E2E2E2E2E2E2E2E2E2E2E2E2E2E2E2E2E2E2E2E2E2E2E2E2E2E2E2E2E2E2E2E2E2E2E2E2E2E2E2E2E2E2E2E2E2E2E2E2E2E2E2E2E2E2E2E2E2E2E2E2E2E2E2E2E2E2E2E2E2E2E2E2E2E2E2E2E2E2E2E2E2E2E2E2E2E2E2E2E2E2E2E2E2E2E2E2E2E2E2E2E2E2E2E2E2E2E2E2E2E2E2E2E2E2E2E2E2E2E2E2E2
310
E2E2E2E2E2E2E2E2E2E2E2E2E2E2E2E2E2E2E2E2E2E2E2E2E2E2E2F5E2E2E2E2E2E2F5F5F5E2E2E2F5E2E2E2E2E2E2E2E2E2E2E2E2E2E2E2E2E2E2E2E2E2E2E2E2E2E2E2E2E2E2E2E2E2E2E2E2E2E2E2E2E2E2E2E2E2E2E2E2E2E2E2E2E2E2E2E2E2E2E2E2E2E2E2E2E2E2E2E2E2E2E2E2E2E2E2E2E2E2E2E2E2E2E2E2E2E2
310
E2E2E2E2E2E2E2E2E2E2E2E2E2E2E2E2E2E2E2E2E2E2E2E2E2E2E2E2E2E2E2E2E2E2E2E2E2E2E2E2E2E2E2E2E2E2E2E2E2E2E2E2E2E2E2E2E2E2E2E2E2E2E2E2E2E2E2E2E2E2E2E2E2E2E2E2E2E2E2E2F5E2E2E2E2E2E2F5F5F5E2E2E2F5E2E2E2E2E2E2E2E2E2E2E2E2E2E2E2E2E2E2E2E2E2E2E2E2E2E2E2E2E2E2E2E2E2
310
E2E2E2E2E2E2E2E2E2E2E2E2E2E2E2E2E2E2E2E2E2E2E2E2E2E2E2E2E2E2E2E2E2E2E2E2E2E2E2E2E2E2E2E2E2E2E2E2E2E2E2E2E2E2E2E2E2E2E2E2E2E2E2E2E2E2E2E2E2E2E2E2E2E2E2E2E2E2E2E2E2E2E2E2E2E2E2E2E2E2E2E2E2E2E2E2E2E2E2E2E2E2E2E2E2E2E2E2E2E2E2E2E2E2E2E2E2E2E2E2E2E2E2E2E2E2E2
310
E2E2E2E2E2E2F5E2E2E2E2E2E2F5F5F5E2E2E2F5E2E2E2E2E2E2E2E2E2E2E2E2E2E2E2E2E2E2E2E2E2E2E2E2E2E2E2E2E2E2E2E2E2E2E2E2E2E2E2E2E2E2E2E2E2E2E2E2E2E2E2E2E2E2E2E2E2E2E2E2E2E2E2E2E2E2E2E2E2E2E2E2E2E2E2E2E2E2E2E2E2E2E2E2E2E2E2E2E2E2E2E2E2E2E2E2E2E2E2E2E2E2E2E2E2E2E2
310
E2E2E2E2E2E2E2E2E2E2E2E2E2E2E2E2E2E2E2E2E2E2E2E2E2E2E2E2E2E2E2E2E2E2E2E2E2E2E2E2E2E2E2E2E2E2E2E2E2E2E2E2E2E2E2E2E2E2E2F5E2E2E2E2E2E2F5F5F5E2E2E2F5E2E2E2E2E2E2E2E2E2E2E2E2E2E2E2E2E2E2E2E2E2E2E2E2E2E2E2E2E2E2E2E2E2E2E2E2E2E2E2E2E2E2E2E2E2E2E2E2E2E2E2E2E2E2
310
E2E2E2E2E2E2E2E2E2E2E2E2E2E2E2E2E2E2E2E2E2E2E2E2E2E2E2E2E2E2E2E2E2E2E2E2E2E2E2E2E2E2E2E2E2E2E2E2E2E2E2E2E2E2E2E2E2E2E2E2E2E2E2E2E2E2E2E2E2E2E2E2E2E2E2E2E2E2E2E2E2E2E2E2E2E2E2E2E2E2E2E2E2E2E2E2E2E2E2E2E2E2E2E2E2E2E2E2E2E2E2E2F5E2E2E2E2E2E2F5F5F5E2E2E2F5E2
310
E2E2E2E2E2E2E2E2E2E2E2E2E2E2E2E2E2E2E2E2E2E2E2E2E2E2E2E2E2E2E2E2E2E2E2E2E2E2E2E2E2E2E2E2E2E2E2E2E2E2E2E2E2E2E2E2E2E2E2E2E2E2E2E2E2E2E2E2E2E2E2E2E2E2E2E2E2E2E2E2E2E2E2E2E2E2E2E2E2E2E2E2E2E2E2E2E2E2E2E2E2E2E2E2E2E2E2E2E2E2E2E2E2E2E2E2E2E2E2E2E2E2E2E2E2E2E2
310
E2E2E2E2E2E2E2E2E2E2E2E2E2E2E2E2E2E2E2E2E2E2E2E2E2E2E2E2E2E2E2E2E2E2E2E2E2E2F5E2E2E2E2E2E2F5F5F5E2E2E2F5E2E2E2E2E2E2E2E2E2E2E2E2E2E2E2E2E2E2E2E2E2E2E2E2E2E2E2E2E2E2E2E2E2E2E2E2E2E2E2E2E2E2E2E2E2E2E2E2E2E2E2E2E2E2E2E2E2E2E2E2E2E2E2E2E2E2E2E2E2E2E2E2E2E2E2
310
E2E2E2E2E2E2E2E2E2E2E2E2E2E2E2E2E2E2E2E2E2E2E2E2E2E2E2E2E2E2E2E2E2E2E2E2E2E2E2E2E2E2E2E2E2E2E2E2E2E2E2E2E2E2E2E2E2E2E2E2E2E2E2E2E2E2E2E2E2E2E2E2E2E2E2E2E2E2E2E2E2E2E2E2E2E2E2E2E2E2E2F5E2E2F5E2E2E2F5F5F5E2E2E2F5E2E2E2E2E2E2E2E2E2E2E2E2E2E2E2E2E2E2E2E2E2E2
310
E2E2E2E2E2E2E2E2E2E2E2E2E2E2E2E2E2E2E2E2E2E2E2E2E2E2E2E2E2E2E2E2E2E2E2E2E2E2E2E2E2E2E2E2E2E2E2E2E2E2E2E2E2E2E2E2E2E2E2E2E2E2E2E2E2E2E2E2E2E2E2E2E2E2E2E2E2E2E2E2E2E2E2E2E2E2E2E2E2E2E2E2E2E2E2E2E2E2E2E2E2E2E2E2E2E2E2E2E2E2E2E2E2E2E2E2E2E2E2E2E2E2E2E2E2E2E2
310
E2E2E2E2E2E2E2E2E2E2E2E2E2E2E2E2E2F5E2E2F5E2E2E2F5F5F5E2E2E2F5E2E2E2E2E2E2E2E2E2E2E2E2E2E2E2E2E2E2E2E2E2E2E2E2E2E2E2E2E2E2E2E2E2E2E2E2E2E2E2E2E2E2E2E2E2E2E2E2E2E2E2E2E2E2E2E2E2E2E2E2E2E2E2E2E2E2E2E2E2E2E2E2E2E2E2E2E2E2E2E2E2E2E2E2E2E2E2E2E2E2E2E2E2E2E2E2
310
E2E2E2E2E2E2E2E2E2E2E2E2E2E2E2E2E2E2E2E2E2E2E2E2E2E2E2E2E2E2E2E2E2E2E2E2E2E2E2E2E2E2E2E2E2E2E2E2E2E2E2E2E2E2E2E2E2E2E2E2E2E2E2E2E2E2E2E2E2E2F5E2E2F5E2E2E2F5F5F5E2E2E2F5E2E2E2E2E2E2E2E2E2E2E2E2E2E2E2E2E2E2E2E2E2E2E2E2E2E2E2E2E2E2E2E2E2E2E2E2E2E2E2E2E2E2E2
310
E2E2E2E2E2E2E2E2E2E2E2E2E2E2E2E2E2E2E2E2E2E2E2E2E2E2E2E2E2E2E2E2E2E2E2E2E2E2E2E2E2E2E2E2E2E2E2E2E2E2E2E2E2E2E2E2E2E2E2E2E2E2E2E2E2E2E2E2E2E2E2E2E2E2E2E2E2E2E2E2E2E2E2E2E2E2E2E2E2E2E2E2E2E2E2E2E2E2E2E2E2E2E2E2E2E2E2E2E2E2E2E2E2E2E2E2E2E2E2E2E2E2E2F5E2E2F5
310
E2E2E2F5F5F5E2E2E2F5E2E2E2E2E2E2E2E2E2E2E2E2E2E2E2E2E2E2E2E2E2E2E2E2E2E2E2E2E2E2E2E2E2E2E2E2E2E2E2E2E2E2E2E2E2E2E2E2E2E2E2E2E2E2E2E2E2E2E2E2E2E2E2E2E2E2E2E2E2E2E2E2E2E2E2E2E2E2E2E2E2E2E2E2E2E2E2E2E2E2E2E2E2E2E2E2E2E2E2E2E2E2E2E2E2E2E2E2E2E2E2E2E2E2E2E2E2
310
E2E2E2E2E2E2E2E2E2E2E2E2E2E2E2E2E2E2E2E2E2E2E2E2E2E2E2E2E2E2E2E2E2E2E2E2E2E2E2E2E2E2E2E2E2E2E2E2E2F5E2E2F5E2E2E2F5F5F5E2E2E2F5E2E2E2E2E2E2E2E2E2E2E2E2E2E2E2E2E2E2E2E2E2E2E2E2E2E2E2E2E2E2E2E2E2E2E2E2E2E2E2E2E2E2E2E2E2E2E2E2E2E2E2E2E2E2E2E2E2E2E2E2E2E2E2E2
310
E2E2E2E2E2E2E2E2E2E2E2E2E2E2E2E2E2E2E2E2E2E2E2E2E2E2E2E2E2E2E2E2E2E2E2E2E2E2E2E2E2E2E2E2E2E2E2E2E2E2E2E2E2E2E2E2E2E2E2E2E2E2E2E2E2E2E2E2E2E2E2E2E2E2E2E2E2E2E2E2E2E2E2E2E2E2E2E2E2E2E2E2E2E2E2E2E2E2E2E2E2E2F5E2E2F5E2E2E2F5F5F5E2E2E2F5E2E2E2E2E2E2E2E2E2E2E2
310
E2E2E2E2E2E2E2E2E2E2E2E2E2E2E2E2E2E2E2E2E2E2E2E2E2E2E2E2E2E2E2E2E2E2E2E2E2E2E2E2E2E2E2E2E2E2E2E2E2E2E2E2E2E2E2E2E2E2E2E2E2E2E2E2E2E2E2E2E2E2E2E2E2E2E2E2E2E2E2E2E2E2E2E2E2E2E2E2E2E2E2E2E2E2E2E2E2E2E2E2E2E2E2E2E2E2E2E2E2E2E2E2E2E2E2E2E2E2E2E2E2E2E2E2E2E2E2
310
E2E2E2E2E2E2E2E2E2E2E2E2E2E2E2E2E2E2E2E2E2E2E2E2E2E2E2E2F5E2E2F5E2E2E2F5F5F5E2E2E2F5F5F5F5F5F5F5F5F5F5F5F5F5F5F5F5F5F5F5F5F5F5F5F5F5F5F5F5F5F5F5F5F5F5F5F5F5F5F5F5F5F5F5F5F5F5F5F5F5F5F5F5F5F5F5F5F5F5F5F5F5F5F5F5F5F5F5F5F5F5F5F5F5F5F5F5F5F5F5F5F5F5F5F5F5F5
310
F5F5F5F5F5F5F5F5F5F5F5F5F5F5F5F5F5F5F5F5F5F5F5F5F5F5F5F5F5F5F5F5F5F5F5F5F5F5F5F5F5F5F5F5F5F5F5F5F5F5F5F5F5F5F5F5F5F5F5F5F5F5F5F5F5F5F5F5F5F5F5F5F5F5F5F5F5F5F5F5F5F5F5F5F5E2E2E2F5F5F5E2E2E2E2E2E2E2E2E2E2E2E2E2E2E2E2E2E2E2E2E2E2E2E2E2E2E2E2E2E2E2E2E2E2E2E2
310
E2E2E2E2E2E2E2E2E2E2E2E2E2E2E2E2E2E2E2E2E2E2E2E2E2E2E2E2E2E2E2E2E2E2E2E2E2E2E2E2E2E2E2E2E2E2E2E2E2E2E2E2E2E2E2E2E2E2E2E2E2E2E2E2E2E2E2E2E2E2E2E2E2E2E2E2E2E2E2E2E2E2E2E2E2E2E2E2E2E2E2E2E2E2E2E2E2E2E2E2E2E2E2E2E2E2E2E2E2E2E2E2E2E2E2E2E2E2E2E2E2E2E2E2E2E2E2
310
E2E2E2E2E2E2E2E2E2E2E2E2E2E2F5F5F5E2E2E2E2E2E2E2E2E2E2E2E2E2E2E2E2E2E2E2E2E2E2E2E2E2E2E2E2E2E2E2E2E2E2E2E2E2E2E2E2E2E2E2E2E2E2E2E2E2E2E2E2E2E2E2E2E2E2E2E2E2E2E2E2E2E2E2E2E2E2E2E2E2E2E2E2E2E2E2E2E2E2E2E2E2E2E2E2E2E2E2E2E2E2E2E2E2E2E2E2E2E2E2E2E2E2E2E2E2E2
310
E2E2E2E2E2E2E2E2E2E2E2E2E2E2E2E2E2E2E2E2E2E2E2E2E2E2E2E2E2E2E2E2E2E2E2E2E2E2E2E2E2E2E2E2E2E2E2E2E2E2E2E2E2E2E2E2E2E2E2E2E2E2E2E2E2E2E2F5F5F5E2E2E2E2E2E2E2E2E2E2E2E2E2E2E2E2E2E2E2E2E2E2E2E2E2E2E2E2E2E2E2E2E2E2E2E2E2E2E2E2E2E2E2E2E2E2E2E2E2E2E2E2E2E2E2E2E2
310
E2E2E2E2E2E2E2E2E2E2E2E2E2E2E2E2E2E2E2E2E2E2E2E2E2E2E2E2E2E2E2E2E2E2E2E2E2E2E2E2E2E2E2E2E2E2E2E2E2E2E2E2E2E2E2E2E2E2E2E2E2E2E2E2E2E2E2E2E2E2E2E2E2E2E2E2E2E2E2E2E2E2E2E2E2E2E2E2E2E2E2E2E2E2E2E2E2E2E2E2E2E2E2E2E2E2E2E2E2E2E2E2E2E2E2E2E2E2E2E2F5EFF5F5F5F5F5
310
F5F5F5F5F5F5F5F5F5F5F5F5F5F5F5F5F5F5F5F5F5F5F5F5F5F5F5F5F5F5F5F5F5F5F5F5F5F5F5F5F5F5F5F5F5F5F5F5F5F5F5F5F5F5F5F5F5F5F5F5F5F5F5F5F5F5F5F5F5F5F5F5F5F5F5F5F5F5F5F5F5F5F5F5F5F5F5F5F5F5F5F5F5F5F5F5F5F5F5F5F5F5F5F5F5F5F5F5F5F5F5F5F5F5F5F5F5F5F5F5F5F5F5F5F5F5F5
310
F5F5F5F5F5F5F5F5F5F5F5F5F5F5F5F5F5F5F5F5F5F5F5F5F5F5F5F5F5F5F5F5F5F5F5F5F5F5F5F5F5F5F5F5F5F5F5EF
  0
XRECORD
  5
75AB
102
{ACAD_REACTORS
330
1113
102
}
330
1113
100
AcDbXrecord
280
     1
102
MATERIAL
148
0.0
149
0.0
149
0.0
 93
        0
 94
      127
282
     0
 72
     0
 77
     0
171
     0
175
     0
179
     0
273
     0
  0
XRECORD
  5
1115
102
{ACAD_REACTORS
330
1113
102
}
330
1113
100
AcDbXrecord
280
     1
270
     1
271
     1
  0
XRECORD
  5
1114
102
{ACAD_REACTORS
330
1113
102
}
330
1113
100
AcDbXrecord
280
     1
270
     1
271
     1
  0
XRECORD
  5
1118
102
{ACAD_REACTORS
330
1113
102
}
330
1113
100
AcDbXrecord
280
     1
270
     1
271
     1
  0
XRECORD
  5
1117
102
{ACAD_REACTORS
330
1113
102
}
330
1113
100
AcDbXrecord
280
     1
270
     1
271
     1
  0
XRECORD
  5
1119
102
{ACAD_REACTORS
330
1113
102
}
330
1113
100
AcDbXrecord
280
     1
270
     1
271
     1
  0
XRECORD
  5
1116
102
{ACAD_REACTORS
330
1113
102
}
330
1113
100
AcDbXrecord
280
     1
270
     1
271
     1
  0
XRECORD
  5
75AA
102
{ACAD_REACTORS
330
110B
102
}
330
110B
100
AcDbXrecord
280
     1
102
MATERIAL
148
0.0
149
0.0
149
0.0
 93
        0
 94
      127
282
     0
 72
     0
 77
     0
171
     0
175
     0
179
     0
273
     0
  0
XRECORD
  5
110D
102
{ACAD_REACTORS
330
110B
102
}
330
110B
100
AcDbXrecord
280
     1
270
     1
271
     1
  0
XRECORD
  5
110C
102
{ACAD_REACTORS
330
110B
102
}
330
110B
100
AcDbXrecord
280
     1
270
     1
271
     1
  0
XRECORD
  5
1110
102
{ACAD_REACTORS
330
110B
102
}
330
110B
100
AcDbXrecord
280
     1
270
     1
271
     1
  0
XRECORD
  5
110F
102
{ACAD_REACTORS
330
110B
102
}
330
110B
100
AcDbXrecord
280
     1
270
     1
271
     1
  0
XRECORD
  5
1111
102
{ACAD_REACTORS
330
110B
102
}
330
110B
100
AcDbXrecord
280
     1
270
     1
271
     1
  0
XRECORD
  5
110E
102
{ACAD_REACTORS
330
110B
102
}
330
110B
100
AcDbXrecord
280
     1
270
     1
271
     1
  0
XRECORD
  5
75AC
102
{ACAD_REACTORS
330
111B
102
}
330
111B
100
AcDbXrecord
280
     1
102
MATERIAL
148
0.0
149
0.0
149
0.0
 93
        0
 94
      127
282
     0
 72
     0
 77
     0
171
     0
175
     0
179
     0
273
     0
  0
XRECORD
  5
111D
102
{ACAD_REACTORS
330
111B
102
}
330
111B
100
AcDbXrecord
280
     1
270
     1
271
     1
  0
XRECORD
  5
111C
102
{ACAD_REACTORS
330
111B
102
}
330
111B
100
AcDbXrecord
280
     1
270
     1
271
     1
  0
XRECORD
  5
1120
102
{ACAD_REACTORS
330
111B
102
}
330
111B
100
AcDbXrecord
280
     1
270
     1
271
     1
  0
XRECORD
  5
111F
102
{ACAD_REACTORS
330
111B
102
}
330
111B
100
AcDbXrecord
280
     1
270
     1
271
     1
  0
XRECORD
  5
1121
102
{ACAD_REACTORS
330
111B
102
}
330
111B
100
AcDbXrecord
280
     1
270
     1
271
     1
  0
XRECORD
  5
111E
102
{ACAD_REACTORS
330
111B
102
}
330
111B
100
AcDbXrecord
280
     1
270
     1
271
     1
  0
ACAD_PROXY_OBJECT
  5
7589
102
{ACAD_REACTORS
330
744F
102
}
330
744F
100
AcDbProxyObject
 90
      499
 91
      507
 95
   983063
 70
     0
 93
     5304
310
40D054060020000020000003200101A000080002A5058000000C10000000000000006101010000000000003E0FC000000000000F83F0000000000003E0FC000000000000F83F000000000000049000000000000001240419019018000000C1003FBFFFFFE0000000000003C8FD029018000000C1003FBFFFFFE00000000000
310
03C8FD049018000000C1003FBFFFFFE0000000000003C8FD089018000000C1003FBFFFFFE0000000000003C8FD109018000000C1003FBFFFFFE0000000000003C8FD209018000000C1003FBFFFFFE0000000000003C8FD01405075F5449544C450041501A8000000C800406800020000A94160000003040000000000000012
310
40404000000000000F83F0000000000003E0FC000000000000F83F0000000000003E0FC0000000000001240000000000000049010640640600000030400FEFFFFFF8000000000000F23F40A40600000030400FEFFFFFF8000000000000F23F41240600000030400FEFFFFFF8000000000000F23F42240600000030400FEFFF
310
FFF8000000000000F23F44240600000030400FEFFFFFF8000000000000F23F48240600000030400FEFFFFFF8000000000000F23F409014217D2115051115480105406A0000003200101A000080002A5028000000C10000000000000004901010000000000003E0FC000000000000F83F0000000000003E0FC000000000000F
310
83F000000000000049000000000000001240419019018000000C1003FBFFFFFE0000000000003C8FD029018000000C1003FBFFFFFE0000000000003C8FD049018000000C1003FBFFFFFE0000000000003C8FD089018000000C1003FBFFFFFE0000000000003C8FD109018000000C1003FBFFFFFE0000000000003C8FD20901
310
8000000C1003FBFFFFFE0000000000003C8FD03409065F4441544100FF
340
10
340
0
340
0
340
0
340
0
340
0
340
0
340
10
340
0
340
0
340
0
340
0
340
0
340
0
340
10
340
0
340
0
340
0
340
0
340
0
340
0
 94
        0
1001
ACAD
1000
AcRTDxfName
1000
CELLSTYLEMAP
1000
AcRTDxfName
1000
CELLSTYLEMAP
1000
AcRTDxfName
1000
CELLSTYLEMAP
1000
AcRTDxfName
1000
CELLSTYLEMAP
1000
AcRTDxfName
1000
CELLSTYLEMAP
1000
AcRTDxfName
1000
CELLSTYLEMAP
1000
AcRTDxfName
1000
CELLSTYLEMAP
1000
AcRTDxfName
1000
CELLSTYLEMAP
1000
AcRTDxfName
1000
CELLSTYLEMAP
1000
AcRTDxfName
1000
CELLSTYLEMAP
1000
AcRTDxfName
1000
CELLSTYLEMAP
  0
XRECORD
  5
75AD
102
{ACAD_REACTORS
330
744F
102
}
330
744F
100
AcDbXrecord
280
     1
102
ACAD_ROUNDTRIP_PRE2007_TABLESTYLE
 90
      512
 91
        0
  1

 92
      512
 93
        0
  2

 94
      512
 95
        0
  3

  0
ENDSEC
  0
EOF
