  0
SECTION
  2
HEADER
  9
$ACADVER
  1
AC1015
  9
$ACADMAINTVER
 70
    20
  9
$DWGCODEPAGE
  3
ANSI_932
  9
$INSBASE
 10
0.0
 20
0.0
 30
0.0
  9
$EXTMIN
 10
231.7185340079031
 20
376.6497536877449
 30
-179.3974879980674
  9
$EXTMAX
 10
1611.588191785203
 20
1049.231072593513
 30
0.0000000000899263
  9
$LIMMIN
 10
0.0
 20
0.0
  9
$LIMMAX
 10
10000.0
 20
10000.0
  9
$ORTHOMODE
 70
     1
  9
$REGENMODE
 70
     1
  9
$FILLMODE
 70
     1
  9
$QTEXTMODE
 70
     0
  9
$MIRRTEXT
 70
     1
  9
$LTSCALE
 40
1.0
  9
$ATTMODE
 70
     1
  9
$TEXTSIZE
 40
2.5
  9
$TRACEWID
 40
1.0
  9
$TEXTSTYLE
  7
AD-STANDARD
  9
$CLAYER
  8
MEASURE
  9
$CELTYPE
  6
BYLAYER
  9
$CECOLOR
 62
   256
  9
$CELTSCALE
 40
1.0
  9
$DISPSILH
 70
     0
  9
$DIMSCALE
 40
5.0
  9
$DIMASZ
 40
2.5
  9
$DIMEXO
 40
1.0
  9
$DIMDLI
 40
0.38
  9
$DIMRND
 40
0.0
  9
$DIMDLE
 40
0.0
  9
$DIMEXE
 40
2.0
  9
$DIMTP
 40
0.0
  9
$DIMTM
 40
0.0
  9
$DIMTXT
 40
2.799999999999999
  9
$DIMCEN
 40
-2.0
  9
$DIMTSZ
 40
0.0
  9
$DIMTOL
 70
     0
  9
$DIMLIM
 70
     0
  9
$DIMTIH
 70
     0
  9
$DIMTOH
 70
     0
  9
$DIMSE1
 70
     0
  9
$DIMSE2
 70
     0
  9
$DIMTAD
 70
     1
  9
$DIMZIN
 70
     8
  9
$DIMBLK
  1

  9
$DIMASO
 70
     1
  9
$DIMSHO
 70
     1
  9
$DIMPOST
  1

  9
$DIMAPOST
  1

  9
$DIMALT
 70
     0
  9
$DIMALTD
 70
     2
  9
$DIMALTF
 40
25.4
  9
$DIMLFAC
 40
1.0
  9
$DIMTOFL
 70
     1
  9
$DIMTVP
 40
0.0
  9
$DIMTIX
 70
     0
  9
$DIMSOXD
 70
     0
  9
$DIMSAH
 70
     0
  9
$DIMBLK1
  1

  9
$DIMBLK2
  1

  9
$DIMSTYLE
  2
AD-STANDARD
  9
$DIMCLRD
 70
     9
  9
$DIMCLRE
 70
     9
  9
$DIMCLRT
 70
     2
  9
$DIMTFAC
 40
1.0
  9
$DIMGAP
 40
0.5
  9
$DIMJUST
 70
     0
  9
$DIMSD1
 70
     0
  9
$DIMSD2
 70
     0
  9
$DIMTOLJ
 70
     1
  9
$DIMTZIN
 70
     8
  9
$DIMALTZ
 70
     0
  9
$DIMALTTZ
 70
     0
  9
$DIMUPT
 70
     0
  9
$DIMDEC
 70
     8
  9
$DIMTDEC
 70
     8
  9
$DIMALTU
 70
     2
  9
$DIMALTTD
 70
     2
  9
$DIMTXSTY
  7
AD-STANDARD
  9
$DIMAUNIT
 70
     0
  9
$DIMADEC
 70
     0
  9
$DIMALTRND
 40
0.0
  9
$DIMAZIN
 70
     0
  9
$DIMDSEP
 70
    46
  9
$DIMATFIT
 70
     1
  9
$DIMFRAC
 70
     0
  9
$DIMLDRBLK
  1

  9
$DIMLUNIT
 70
     2
  9
$DIMLWD
 70
    -2
  9
$DIMLWE
 70
    -2
  9
$DIMTMOVE
 70
     0
  9
$LUNITS
 70
     2
  9
$LUPREC
 70
     4
  9
$SKETCHINC
 40
1.0
  9
$FILLETRAD
 40
0.0
  9
$AUNITS
 70
     0
  9
$AUPREC
 70
     0
  9
$MENU
  1
.
  9
$ELEVATION
 40
0.0
  9
$PELEVATION
 40
0.0
  9
$THICKNESS
 40
0.0
  9
$LIMCHECK
 70
     0
  9
$CHAMFERA
 40
0.0
  9
$CHAMFERB
 40
0.0
  9
$CHAMFERC
 40
673.4006734006733
  9
$CHAMFERD
 40
0.0
  9
$SKPOLY
 70
     0
  9
$TDCREATE
 40
2451414.498518056
  9
$TDUCREATE
 40
2451414.123518056
  9
$TDUPDATE
 40
2456696.683286713
  9
$TDUUPDATE
 40
2456696.308286713
  9
$TDINDWG
 40
0.1907923958
  9
$TDUSRTIMER
 40
0.1907923958
  9
$USRTIMER
 70
     1
  9
$ANGBASE
 50
0.0
  9
$ANGDIR
 70
     0
  9
$PDMODE
 70
     0
  9
$PDSIZE
 40
0.0
  9
$PLINEWID
 40
0.0
  9
$SPLFRAME
 70
     0
  9
$SPLINETYPE
 70
     6
  9
$SPLINESEGS
 70
     8
  9
$HANDSEED
  5
3335
  9
$SURFTAB1
 70
     6
  9
$SURFTAB2
 70
     6
  9
$SURFTYPE
 70
     6
  9
$SURFU
 70
     6
  9
$SURFV
 70
     6
  9
$UCSBASE
  2

  9
$UCSNAME
  2

  9
$UCSORG
 10
0.0
 20
0.0
 30
0.0
  9
$UCSXDIR
 10
1.0
 20
0.0
 30
0.0
  9
$UCSYDIR
 10
0.0
 20
1.0
 30
0.0
  9
$UCSORTHOREF
  2

  9
$UCSORTHOVIEW
 70
     0
  9
$UCSORGTOP
 10
0.0
 20
0.0
 30
0.0
  9
$UCSORGBOTTOM
 10
0.0
 20
0.0
 30
0.0
  9
$UCSORGLEFT
 10
0.0
 20
0.0
 30
0.0
  9
$UCSORGRIGHT
 10
0.0
 20
0.0
 30
0.0
  9
$UCSORGFRONT
 10
0.0
 20
0.0
 30
0.0
  9
$UCSORGBACK
 10
0.0
 20
0.0
 30
0.0
  9
$PUCSBASE
  2

  9
$PUCSNAME
  2

  9
$PUCSORG
 10
0.0
 20
0.0
 30
0.0
  9
$PUCSXDIR
 10
1.0
 20
0.0
 30
0.0
  9
$PUCSYDIR
 10
0.0
 20
1.0
 30
0.0
  9
$PUCSORTHOREF
  2

  9
$PUCSORTHOVIEW
 70
     0
  9
$PUCSORGTOP
 10
0.0
 20
0.0
 30
0.0
  9
$PUCSORGBOTTOM
 10
0.0
 20
0.0
 30
0.0
  9
$PUCSORGLEFT
 10
0.0
 20
0.0
 30
0.0
  9
$PUCSORGRIGHT
 10
0.0
 20
0.0
 30
0.0
  9
$PUCSORGFRONT
 10
0.0
 20
0.0
 30
0.0
  9
$PUCSORGBACK
 10
0.0
 20
0.0
 30
0.0
  9
$USERI1
 70
     0
  9
$USERI2
 70
     0
  9
$USERI3
 70
     0
  9
$USERI4
 70
     0
  9
$USERI5
 70
     0
  9
$USERR1
 40
0.0
  9
$USERR2
 40
0.0
  9
$USERR3
 40
0.0
  9
$USERR4
 40
0.0
  9
$USERR5
 40
0.0
  9
$WORLDVIEW
 70
     1
  9
$SHADEDGE
 70
     3
  9
$SHADEDIF
 70
    70
  9
$TILEMODE
 70
     0
  9
$MAXACTVP
 70
    16
  9
$PINSBASE
 10
0.0
 20
0.0
 30
0.0
  9
$PLIMCHECK
 70
     0
  9
$PEXTMIN
 10
20.0
 20
17.0
 30
0.0
  9
$PEXTMAX
 10
405.0
 20
281.9999999999999
 30
0.0
  9
$PLIMMIN
 10
2.420843982944916
 20
0.9840690143778942
  9
$PLIMMAX
 10
422.5791691782574
 20
298.0158988483623
  9
$UNITMODE
 70
     0
  9
$VISRETAIN
 70
     0
  9
$PLINEGEN
 70
     0
  9
$PSLTSCALE
 70
     0
  9
$TREEDEPTH
 70
  3020
  9
$CMLSTYLE
  2
STANDARD
  9
$CMLJUST
 70
     0
  9
$CMLSCALE
 40
1.0
  9
$PROXYGRAPHICS
 70
     1
  9
$MEASUREMENT
 70
     1
  9
$CELWEIGHT
370
    -1
  9
$ENDCAPS
280
     0
  9
$JOINSTYLE
280
     0
  9
$LWDISPLAY
290
     0
  9
$INSUNITS
 70
     0
  9
$HYPERLINKBASE
  1

  9
$STYLESHEET
  1

  9
$XEDIT
290
     1
  9
$CEPSNTYPE
380
     0
  9
$PSTYLEMODE
290
     1
  9
$FINGERPRINTGUID
  2
{20957ADD-DA86-4B88-AB94-5B9BDC1FB19C}
  9
$VERSIONGUID
  2
{3FBE0295-B377-49CA-B6B2-E848F6BB824E}
  9
$EXTNAMES
290
     1
  9
$PSVPSCALE
 40
0.0
  9
$OLESTARTUP
290
     0
  0
ENDSEC
  0
SECTION
  2
CLASSES
  0
CLASS
  1
LWPOLYLINE
  2
AcDbPolyline
  3
ObjectDBX Classes
 90
        0
280
     0
281
     1
  0
CLASS
  1
ACDBDICTIONARYWDFLT
  2
AcDbDictionaryWithDefault
  3
ObjectDBX Classes
 90
        0
280
     0
281
     0
  0
CLASS
  1
TABLESTYLE
  2
AcDbTableStyle
  3
ObjectDBX Classes
 90
     2047
280
     0
281
     0
  0
CLASS
  1
SORTENTSTABLE
  2
AcDbSortentsTable
  3
ObjectDBX Classes
 90
        0
280
     0
281
     0
  0
CLASS
  1
PLOTSETTINGS
  2
AcDbPlotSettings
  3
ObjectDBX Classes
 90
        0
280
     0
281
     0
  0
CLASS
  1
DICTIONARYVAR
  2
AcDbDictionaryVar
  3
ObjectDBX Classes
 90
        0
280
     0
281
     0
  0
CLASS
  1
ACDBPLACEHOLDER
  2
AcDbPlaceHolder
  3
ObjectDBX Classes
 90
        0
280
     0
281
     0
  0
CLASS
  1
LAYOUT
  2
AcDbLayout
  3
ObjectDBX Classes
 90
        0
280
     0
281
     0
  0
CLASS
  1
MATERIAL
  2
AcDbMaterial
  3
ObjectDBX Classes
 90
        0
280
     0
281
     0
  0
CLASS
  1
VISUALSTYLE
  2
AcDbVisualStyle
  3
ObjectDBX Classes
 90
     4095
280
     0
281
     0
  0
CLASS
  1
SCALE
  2
AcDbScale
  3
ObjectDBX Classes
 90
     1153
280
     0
281
     0
  0
CLASS
  1
MLEADERSTYLE
  2
AcDbMLeaderStyle
  3
ACDB_MLEADERSTYLE_CLASS
 90
     4095
280
     0
281
     0
  0
CLASS
  1
CELLSTYLEMAP
  2
AcDbCellStyleMap
  3
ObjectDBX Classes
 90
     1152
280
     0
281
     0
  0
ENDSEC
  0
SECTION
  2
TABLES
  0
TABLE
  2
VPORT
  5
8
102
{ACAD_XDICTIONARY
360
2FC2
102
}
330
0
100
AcDbSymbolTable
 70
     1
  0
VPORT
  5
3312
330
8
100
AcDbSymbolTableRecord
100
AcDbViewportTableRecord
  2
*Active
 70
     0
 10
0.0
 20
0.0
 11
1.0
 21
1.0
 12
921.707171855618
 22
713.0432311830154
 13
0.0
 23
0.0
 14
1.0
 24
1.0
 15
0.0
 25
0.0
 16
0.0
 26
0.0
 36
1.0
 17
0.0
 27
0.0
 37
0.0
 40
678.3393012077531
 41
2.133243606998654
 42
50.0
 43
0.0
 44
0.0
 50
0.0
 51
0.0
 71
     0
 72
   100
 73
     1
 74
     0
 75
     0
 76
     0
 77
     0
 78
     1
281
     0
 65
     1
110
0.0
120
0.0
130
0.0
111
1.0
121
0.0
131
0.0
112
0.0
122
1.0
132
0.0
 79
     0
146
0.0
  0
ENDTAB
  0
TABLE
  2
LTYPE
  5
5
330
0
100
AcDbSymbolTable
 70
     1
  0
LTYPE
  5
14
330
5
100
AcDbSymbolTableRecord
100
AcDbLinetypeTableRecord
  2
BYBLOCK
 70
     0
  3

 72
    65
 73
     0
 40
0.0
  0
LTYPE
  5
15
330
5
100
AcDbSymbolTableRecord
100
AcDbLinetypeTableRecord
  2
BYLAYER
 70
     0
  3

 72
    65
 73
     0
 40
0.0
  0
LTYPE
  5
16
330
5
100
AcDbSymbolTableRecord
100
AcDbLinetypeTableRecord
  2
CONTINUOUS
 70
     0
  3
Solid line
 72
    65
 73
     0
 40
0.0
  0
ENDTAB
  0
TABLE
  2
LAYER
  5
2
102
{ACAD_XDICTIONARY
360
12B7
102
}
330
0
100
AcDbSymbolTable
 70
     3
  0
LAYER
  5
F
102
{ACAD_XDICTIONARY
360
2F99
102
}
330
2
100
AcDbSymbolTableRecord
100
AcDbLayerTableRecord
  2
0
 70
     0
 62
     7
  6
CONTINUOUS
370
    -3
390
129B
  0
LAYER
  5
71
102
{ACAD_XDICTIONARY
360
2F9B
102
}
330
2
100
AcDbSymbolTableRecord
100
AcDbLayerTableRecord
  2
MEASURE
 70
     0
 62
     9
  6
CONTINUOUS
370
    13
390
129B
  0
LAYER
  5
72
102
{ACAD_XDICTIONARY
360
3083
102
}
330
2
100
AcDbSymbolTableRecord
100
AcDbLayerTableRecord
  2
DEFPOINTS
 70
     0
 62
     7
  6
CONTINUOUS
290
     0
370
    -3
390
129B
  0
ENDTAB
  0
TABLE
  2
STYLE
  5
3
330
0
100
AcDbSymbolTable
 70
     2
  0
STYLE
  5
10
330
3
100
AcDbSymbolTableRecord
100
AcDbTextStyleTableRecord
  2
STANDARD
 70
     0
 40
0.0
 41
0.8
 50
0.0
 71
     0
 42
84.17508417508416
  3
TXT
  4
bigfont.shx
  0
STYLE
  5
63
330
3
100
AcDbSymbolTableRecord
100
AcDbTextStyleTableRecord
  2
AD-STANDARD
 70
     0
 40
0.0
 41
0.8
 50
0.0
 71
     0
 42
2.5
  3
C:\Program Files\AutoCAD LT\romans.shx
  4
bigfont.shx
  0
ENDTAB
  0
TABLE
  2
VIEW
  5
6
330
0
100
AcDbSymbolTable
 70
     0
  0
ENDTAB
  0
TABLE
  2
UCS
  5
7
330
0
100
AcDbSymbolTable
 70
     0
  0
ENDTAB
  0
TABLE
  2
APPID
  5
9
330
0
100
AcDbSymbolTable
 70
     9
  0
APPID
  5
11
330
9
100
AcDbSymbolTableRecord
100
AcDbRegAppTableRecord
  2
ACAD
 70
     0
  0
APPID
  5
22A
330
9
100
AcDbSymbolTableRecord
100
AcDbRegAppTableRecord
  2
CONTENTTABDATA
 70
     0
  0
APPID
  5
22B
330
9
100
AcDbSymbolTableRecord
100
AcDbRegAppTableRecord
  2
CONTENTCURRENTTAB
 70
     0
  0
APPID
  5
232
330
9
100
AcDbSymbolTableRecord
100
AcDbRegAppTableRecord
  2
CONTENTBLOCKDESCRIPTION
 70
     0
  0
APPID
  5
233
330
9
100
AcDbSymbolTableRecord
100
AcDbRegAppTableRecord
  2
CONTENTBLOCKICON
 70
     0
  0
APPID
  5
12AB
330
9
100
AcDbSymbolTableRecord
100
AcDbRegAppTableRecord
  2
ACAD_PSEXT
 70
     0
  0
APPID
  5
17A8
330
9
100
AcDbSymbolTableRecord
100
AcDbRegAppTableRecord
  2
ACAD_MLEADERVER
 70
     0
  0
APPID
  5
24D9
330
9
100
AcDbSymbolTableRecord
100
AcDbRegAppTableRecord
  2
ACAD_EXEMPT_FROM_CAD_STANDARDS
 70
     0
  0
APPID
  5
2EE2
330
9
100
AcDbSymbolTableRecord
100
AcDbRegAppTableRecord
  2
AcadAnnotative
 70
     0
  0
ENDTAB
  0
TABLE
  2
DIMSTYLE
  5
A
330
0
100
AcDbSymbolTable
 70
     2
100
AcDbDimStyleTable
 71
     1
340
68
  0
DIMSTYLE
105
1D
330
A
100
AcDbSymbolTableRecord
100
AcDbDimStyleTableRecord
  2
STANDARD
 70
     0
340
10
  0
DIMSTYLE
105
68
102
{ACAD_REACTORS
330
A1F
330
A21
330
10F3
330
1100
330
A20
330
A29
330
11A6
330
11B3
330
11F2
330
2DA1
102
}
330
A
100
AcDbSymbolTableRecord
100
AcDbDimStyleTableRecord
  2
AD-STANDARD
 70
     0
 41
2.5
 42
1.0
 44
2.0
 73
     0
 74
     0
 77
     1
 78
     8
140
3.5
141
-2.0
147
0.5
172
     1
176
     9
177
     9
178
     2
284
     8
340
63
  0
ENDTAB
  0
TABLE
  2
BLOCK_RECORD
  5
1
330
0
100
AcDbSymbolTable
 70
    10
  0
BLOCK_RECORD
  5
1A
102
{ACAD_XDICTIONARY
360
131A
102
}
330
1
100
AcDbSymbolTableRecord
100
AcDbBlockTableRecord
  2
*MODEL_SPACE
340
12A2
  0
BLOCK_RECORD
  5
17
330
1
100
AcDbSymbolTableRecord
100
AcDbBlockTableRecord
  2
*PAPER_SPACE
340
12A3
  0
BLOCK_RECORD
  5
1040
330
1
100
AcDbSymbolTableRecord
100
AcDbBlockTableRecord
  2
*D0
340
0
  0
BLOCK_RECORD
  5
104C
330
1
100
AcDbSymbolTableRecord
100
AcDbBlockTableRecord
  2
*D1
340
0
  0
BLOCK_RECORD
  5
105A
330
1
100
AcDbSymbolTableRecord
100
AcDbBlockTableRecord
  2
*D2
340
0
  0
BLOCK_RECORD
  5
1066
330
1
100
AcDbSymbolTableRecord
100
AcDbBlockTableRecord
  2
*D3
340
0
  0
BLOCK_RECORD
  5
10E7
330
1
100
AcDbSymbolTableRecord
100
AcDbBlockTableRecord
  2
*D4
340
0
  0
BLOCK_RECORD
  5
10F4
330
1
100
AcDbSymbolTableRecord
100
AcDbBlockTableRecord
  2
*D5
340
0
  0
BLOCK_RECORD
  5
119A
330
1
100
AcDbSymbolTableRecord
100
AcDbBlockTableRecord
  2
*D6
340
0
  0
BLOCK_RECORD
  5
11A7
330
1
100
AcDbSymbolTableRecord
100
AcDbBlockTableRecord
  2
*D7
340
0
  0
BLOCK_RECORD
  5
11E6
330
1
100
AcDbSymbolTableRecord
100
AcDbBlockTableRecord
  2
*D8
340
0
  0
BLOCK_RECORD
  5
2DA2
330
1
100
AcDbSymbolTableRecord
100
AcDbBlockTableRecord
  2
*D9
340
0
  0
ENDTAB
  0
ENDSEC
  0
SECTION
  2
BLOCKS
  0
BLOCK
  5
1B
330
1A
100
AcDbEntity
  8
0
100
AcDbBlockBegin
  2
*MODEL_SPACE
 70
     0
 10
0.0
 20
0.0
 30
0.0
  3
*MODEL_SPACE
  1

  0
ENDBLK
  5
1C
330
1A
100
AcDbEntity
  8
0
100
AcDbBlockEnd
  0
BLOCK
  5
18
330
17
100
AcDbEntity
 67
     1
  8
0
100
AcDbBlockBegin
  2
*PAPER_SPACE
 70
     0
 10
0.0
 20
0.0
 30
0.0
  3
*PAPER_SPACE
  1

  0
ENDBLK
  5
19
330
17
100
AcDbEntity
 67
     1
  8
0
100
AcDbBlockEnd
  0
BLOCK
  5
1271
330
1040
100
AcDbEntity
  8
0
100
AcDbBlockBegin
  2
*D0
 70
     1
 10
0.0
 20
0.0
 30
0.0
  3
*D0
  1

  0
LINE
  5
31F5
330
1040
100
AcDbEntity
  8
MEASURE
 62
     9
370
    -2
100
AcDbLine
 10
1303.53285991876
 20
491.6497536877459
 30
0.0
 11
1611.588191785203
 21
491.6497536877458
 31
0.0
  0
LINE
  5
31F6
330
1040
100
AcDbEntity
  8
MEASURE
 62
     9
370
    -2
100
AcDbLine
 10
1525.5182421879
 20
1049.159996606966
 30
0.0
 11
1611.588191785203
 21
1049.159996606965
 31
0.0
  0
LINE
  5
31F7
330
1040
100
AcDbEntity
  8
MEASURE
 62
     9
370
    -2
100
AcDbLine
 10
1601.588191785203
 20
504.1497536877458
 30
0.0
 11
1601.588191785203
 21
1036.659996606965
 31
0.0
  0
SOLID
  5
31F8
330
1040
100
AcDbEntity
  8
MEASURE
 62
     9
100
AcDbTrace
 10
1599.504858451869
 20
504.1497536877458
 30
0.0
 11
1603.671525118536
 21
504.1497536877458
 31
0.0
 12
1601.588191785203
 22
491.6497536877458
 32
0.0
 13
1601.588191785203
 23
491.6497536877458
 33
0.0
  0
SOLID
  5
31F9
330
1040
100
AcDbEntity
  8
MEASURE
 62
     9
100
AcDbTrace
 10
1599.50485845187
 20
1036.659996606965
 30
0.0
 11
1603.671525118536
 21
1036.659996606965
 31
0.0
 12
1601.588191785203
 22
1049.159996606965
 32
0.0
 13
1601.588191785203
 23
1049.159996606965
 33
0.0
  0
MTEXT
  5
31FA
330
1040
100
AcDbEntity
  8
MEASURE
 62
     2
100
AcDbMText
 10
1590.338191785203
 20
770.4048751473559
 30
0.0
 40
17.5
 41
0.0
 71
     5
 72
     1
  1
\A1;（750）
  7
AD-STANDARD
 11
0.0000000000000001
 21
1.0
 31
0.0
 73
     1
 44
1.0
1001
ACAD
1000
MTEXTBEGIN
1070
    73
1070
     1
1070
    44
1040
1.0
1070
    74
1070
     0
1000
MTEXTEND
  0
POINT
  5
31FB
330
1040
100
AcDbEntity
  8
DEFPOINTS
 62
     0
100
AcDbPoint
 10
1298.532859918759
 20
491.6497536877459
 30
0.0
  0
POINT
  5
31FC
330
1040
100
AcDbEntity
  8
DEFPOINTS
 62
     0
100
AcDbPoint
 10
1520.5182421879
 20
1049.159996606966
 30
0.0
  0
POINT
  5
31FD
330
1040
100
AcDbEntity
  8
DEFPOINTS
 62
     0
100
AcDbPoint
 10
1601.588191785203
 20
1049.159996606965
 30
0.0
  0
ENDBLK
  5
127B
330
1040
100
AcDbEntity
  8
0
100
AcDbBlockEnd
  0
BLOCK
  5
1179
330
104C
100
AcDbEntity
  8
0
100
AcDbBlockBegin
  2
*D1
 70
     1
 10
0.0
 20
0.0
 30
0.0
  3
*D1
  1

  0
LINE
  5
31B4
330
104C
100
AcDbEntity
  8
MEASURE
 62
     9
370
    -2
100
AcDbLine
 10
902.5328599187597
 20
540.1497536877395
 30
0.0
 11
827.5328599187524
 21
540.1497536877395
 31
0.0
  0
LINE
  5
31B5
330
104C
100
AcDbEntity
  8
MEASURE
 62
     9
370
    -2
100
AcDbLine
 10
914.0328599187524
 20
595.1497536877395
 30
0.0
 11
827.5328599187524
 21
595.1497536877395
 31
0.0
  0
LINE
  5
31B6
330
104C
100
AcDbEntity
  8
MEASURE
 62
     9
370
    -2
100
AcDbLine
 10
837.5328599187524
 20
552.6497536877395
 30
0.0
 11
837.5328599187524
 21
582.6497536877395
 31
0.0
  0
SOLID
  5
31B7
330
104C
100
AcDbEntity
  8
MEASURE
 62
     9
100
AcDbTrace
 10
835.449526585419
 20
552.6497536877395
 30
0.0
 11
839.6161932520858
 21
552.6497536877395
 31
0.0
 12
837.5328599187524
 22
540.1497536877395
 32
0.0
 13
837.5328599187524
 23
540.1497536877395
 33
0.0
  0
SOLID
  5
31B8
330
104C
100
AcDbEntity
  8
MEASURE
 62
     9
100
AcDbTrace
 10
835.449526585419
 20
582.6497536877395
 30
0.0
 11
839.6161932520858
 21
582.6497536877395
 31
0.0
 12
837.5328599187524
 22
595.1497536877395
 32
0.0
 13
837.5328599187524
 23
595.1497536877395
 33
0.0
  0
MTEXT
  5
31B9
330
104C
100
AcDbEntity
  8
MEASURE
 62
     2
100
AcDbMText
 10
826.2828599187523
 20
567.6497536877397
 30
0.0
 40
17.5
 41
0.0
 71
     5
 72
     1
  1
\A1;55
  7
AD-STANDARD
 11
0.0000000000000001
 21
1.0
 31
0.0
 73
     1
 44
1.0
1001
ACAD
1000
MTEXTBEGIN
1070
    73
1070
     1
1070
    44
1040
1.0
1070
    74
1070
     0
1000
MTEXTEND
  0
POINT
  5
31BA
330
104C
100
AcDbEntity
  8
DEFPOINTS
 62
     0
100
AcDbPoint
 10
907.5328599187596
 20
540.1497536877395
 30
0.0
  0
POINT
  5
31BB
330
104C
100
AcDbEntity
  8
DEFPOINTS
 62
     0
100
AcDbPoint
 10
919.0328599187523
 20
595.1497536877395
 30
0.0
  0
POINT
  5
31BC
330
104C
100
AcDbEntity
  8
DEFPOINTS
 62
     0
100
AcDbPoint
 10
837.5328599187524
 20
595.1497536877395
 30
0.0
  0
ENDBLK
  5
1183
330
104C
100
AcDbEntity
  8
0
100
AcDbBlockEnd
  0
BLOCK
  5
1215
330
105A
100
AcDbEntity
  8
0
100
AcDbBlockBegin
  2
*D2
 70
     1
 10
0.0
 20
0.0
 30
0.0
  3
*D2
  1

  0
LINE
  5
316C
330
105A
100
AcDbEntity
  8
MEASURE
 62
     9
370
    -2
100
AcDbLine
 10
907.5328599187596
 20
535.1497536877396
 30
0.0
 11
907.5328599187596
 21
376.6497536877449
 31
0.0
  0
LINE
  5
316D
330
105A
100
AcDbEntity
  8
MEASURE
 62
     9
370
    -2
100
AcDbLine
 10
1531.588191785203
 20
1025.500017932875
 30
0.0
 11
1531.588191785203
 21
376.6497536877449
 31
0.0
  0
LINE
  5
316E
330
105A
100
AcDbEntity
  8
MEASURE
 62
     9
370
    -2
100
AcDbLine
 10
920.0328599187596
 20
386.6497536877449
 30
0.0
 11
1519.088191785203
 21
386.6497536877449
 31
0.0
  0
SOLID
  5
316F
330
105A
100
AcDbEntity
  8
MEASURE
 62
     9
100
AcDbTrace
 10
920.0328599187596
 20
388.7330870210782
 30
0.0
 11
920.0328599187596
 21
384.5664203544116
 31
0.0
 12
907.5328599187596
 22
386.6497536877449
 32
0.0
 13
907.5328599187596
 23
386.6497536877449
 33
0.0
  0
SOLID
  5
3170
330
105A
100
AcDbEntity
  8
MEASURE
 62
     9
100
AcDbTrace
 10
1519.088191785203
 20
388.7330870210782
 30
0.0
 11
1519.088191785203
 21
384.5664203544116
 31
0.0
 12
1531.588191785203
 22
386.6497536877449
 32
0.0
 13
1531.588191785203
 23
386.6497536877449
 33
0.0
  0
MTEXT
  5
3171
330
105A
100
AcDbEntity
  8
MEASURE
 62
     2
100
AcDbMText
 10
1219.560525851981
 20
397.8997536877449
 30
0.0
 40
17.5
 41
0.0
 71
     5
 72
     1
  1
\A1;（625）
  7
AD-STANDARD
 73
     1
 44
1.0
1001
ACAD
1000
MTEXTBEGIN
1070
    73
1070
     1
1070
    44
1040
1.0
1070
    74
1070
     0
1000
MTEXTEND
  0
POINT
  5
3172
330
105A
100
AcDbEntity
  8
DEFPOINTS
 62
     0
100
AcDbPoint
 10
907.5328599187596
 20
540.1497536877395
 30
0.0
  0
POINT
  5
3173
330
105A
100
AcDbEntity
  8
DEFPOINTS
 62
     0
100
AcDbPoint
 10
1531.588191785203
 20
1030.500017932875
 30
0.0
  0
POINT
  5
3174
330
105A
100
AcDbEntity
  8
DEFPOINTS
 62
     0
100
AcDbPoint
 10
1531.588191785203
 20
386.6497536877449
 30
0.0
  0
ENDBLK
  5
121F
330
105A
100
AcDbEntity
  8
0
100
AcDbBlockEnd
  0
BLOCK
  5
1284
330
1066
100
AcDbEntity
  8
0
100
AcDbBlockBegin
  2
*D3
 70
     1
 10
0.0
 20
0.0
 30
0.0
  3
*D3
  1

  0
LINE
  5
32D3
330
1066
100
AcDbEntity
  8
MEASURE
 62
     9
370
    -2
100
AcDbLine
 10
935.5328599187524
 20
491.6497536877449
 30
0.0
 11
792.5328599187523
 21
491.6497536877449
 31
0.0
  0
LINE
  5
32D4
330
1066
100
AcDbEntity
  8
MEASURE
 62
     9
370
    -2
100
AcDbLine
 10
914.0328599187524
 20
595.1497536877395
 30
0.0
 11
792.5328599187523
 21
595.1497536877395
 31
0.0
  0
LINE
  5
32D5
330
1066
100
AcDbEntity
  8
MEASURE
 62
     9
370
    -2
100
AcDbLine
 10
802.5328599187524
 20
504.1497536877449
 30
0.0
 11
802.5328599187524
 21
582.6497536877395
 31
0.0
  0
SOLID
  5
32D6
330
1066
100
AcDbEntity
  8
MEASURE
 62
     9
100
AcDbTrace
 10
800.449526585419
 20
504.1497536877449
 30
0.0
 11
804.6161932520856
 21
504.1497536877449
 31
0.0
 12
802.5328599187524
 22
491.6497536877449
 32
0.0
 13
802.5328599187524
 23
491.6497536877449
 33
0.0
  0
SOLID
  5
32D7
330
1066
100
AcDbEntity
  8
MEASURE
 62
     9
100
AcDbTrace
 10
800.449526585419
 20
582.6497536877395
 30
0.0
 11
804.6161932520856
 21
582.6497536877395
 31
0.0
 12
802.5328599187524
 22
595.1497536877395
 32
0.0
 13
802.5328599187524
 23
595.1497536877395
 33
0.0
  0
MTEXT
  5
32D8
330
1066
100
AcDbEntity
  8
MEASURE
 62
     2
100
AcDbMText
 10
791.2828599187522
 20
543.3997536877425
 30
0.0
 40
17.5
 41
0.0
 71
     5
 72
     1
  1
\A1;105～115
  7
AD-STANDARD
 11
0.0000000000000001
 21
1.0
 31
0.0
 73
     1
 44
1.0
1001
ACAD
1000
MTEXTBEGIN
1070
    73
1070
     1
1070
    44
1040
1.0
1070
    74
1070
     0
1000
MTEXTEND
  0
POINT
  5
32D9
330
1066
100
AcDbEntity
  8
DEFPOINTS
 62
     0
100
AcDbPoint
 10
940.5328599187523
 20
491.6497536877449
 30
0.0
  0
POINT
  5
32DA
330
1066
100
AcDbEntity
  8
DEFPOINTS
 62
     0
100
AcDbPoint
 10
919.0328599187523
 20
595.1497536877395
 30
0.0
  0
POINT
  5
32DB
330
1066
100
AcDbEntity
  8
DEFPOINTS
 62
     0
100
AcDbPoint
 10
802.5328599187524
 20
595.1497536877395
 30
0.0
  0
ENDBLK
  5
128E
330
1066
100
AcDbEntity
  8
0
100
AcDbBlockEnd
  0
BLOCK
  5
11CE
330
10E7
100
AcDbEntity
  8
0
100
AcDbBlockBegin
  2
*D4
 70
     1
 10
0.0
 20
0.0
 30
0.0
  3
*D4
  1

  0
LINE
  5
32AF
330
10E7
100
AcDbEntity
  8
MEASURE
 62
     9
370
    -2
100
AcDbLine
 10
276.7185340078958
 20
486.6497536877449
 30
0.0
 11
276.7185340078958
 21
411.6497536877449
 31
0.0
  0
LINE
  5
32B0
330
10E7
100
AcDbEntity
  8
MEASURE
 62
     9
370
    -2
100
AcDbLine
 10
516.7185340078958
 20
486.6497536877449
 30
0.0
 11
516.7185340078958
 21
411.6497536877449
 31
0.0
  0
LINE
  5
32B1
330
10E7
100
AcDbEntity
  8
MEASURE
 62
     9
370
    -2
100
AcDbLine
 10
289.2185340078958
 20
421.6497536877449
 30
0.0
 11
504.2185340078958
 21
421.6497536877449
 31
0.0
  0
SOLID
  5
32B2
330
10E7
100
AcDbEntity
  8
MEASURE
 62
     9
100
AcDbTrace
 10
289.2185340078958
 20
423.7330870210782
 30
0.0
 11
289.2185340078958
 21
419.5664203544116
 31
0.0
 12
276.7185340078958
 22
421.6497536877449
 32
0.0
 13
276.7185340078958
 23
421.6497536877449
 33
0.0
  0
SOLID
  5
32B3
330
10E7
100
AcDbEntity
  8
MEASURE
 62
     9
100
AcDbTrace
 10
504.2185340078958
 20
423.7330870210782
 30
0.0
 11
504.2185340078958
 21
419.5664203544116
 31
0.0
 12
516.7185340078958
 22
421.6497536877449
 32
0.0
 13
516.7185340078958
 23
421.6497536877449
 33
0.0
  0
MTEXT
  5
32B4
330
10E7
100
AcDbEntity
  8
MEASURE
 62
     2
100
AcDbMText
 10
396.7185340078959
 20
432.8997536877449
 30
0.0
 40
17.5
 41
0.0
 71
     5
 72
     1
  1
\A1;240
  7
AD-STANDARD
 73
     1
 44
1.0
1001
ACAD
1000
MTEXTBEGIN
1070
    73
1070
     1
1070
    44
1040
1.0
1070
    74
1070
     0
1000
MTEXTEND
  0
POINT
  5
32B5
330
10E7
100
AcDbEntity
  8
DEFPOINTS
 62
     0
100
AcDbPoint
 10
276.7185340078958
 20
491.6497536877449
 30
0.0
  0
POINT
  5
32B6
330
10E7
100
AcDbEntity
  8
DEFPOINTS
 62
     0
100
AcDbPoint
 10
516.7185340078958
 20
491.6497536877449
 30
0.0
  0
POINT
  5
32B7
330
10E7
100
AcDbEntity
  8
DEFPOINTS
 62
     0
100
AcDbPoint
 10
516.7185340078958
 20
421.6497536877449
 30
0.0
  0
ENDBLK
  5
11D8
330
10E7
100
AcDbEntity
  8
0
100
AcDbBlockEnd
  0
BLOCK
  5
10F5
330
10F4
100
AcDbEntity
  8
0
100
AcDbBlockBegin
  2
*D5
 70
     1
 10
0.0
 20
0.0
 30
0.0
  3
*D5
  1

  0
LINE
  5
3190
330
10F4
100
AcDbEntity
  8
MEASURE
 62
     9
370
    -2
100
AcDbLine
 10
907.5328599187523
 20
588.6497536877359
 30
0.0
 11
907.5328599187523
 21
675.1497536877395
 31
0.0
  0
LINE
  5
3191
330
10F4
100
AcDbEntity
  8
MEASURE
 62
     9
370
    -2
100
AcDbLine
 10
1331.532859918752
 20
588.6497536877359
 30
0.0
 11
1331.532859918752
 21
675.1497536877395
 31
0.0
  0
LINE
  5
3192
330
10F4
100
AcDbEntity
  8
MEASURE
 62
     9
370
    -2
100
AcDbLine
 10
920.0328599187523
 20
665.1497536877395
 30
0.0
 11
1319.032859918752
 21
665.1497536877395
 31
0.0
  0
SOLID
  5
3193
330
10F4
100
AcDbEntity
  8
MEASURE
 62
     9
100
AcDbTrace
 10
920.0328599187523
 20
667.2330870210729
 30
0.0
 11
920.0328599187523
 21
663.0664203544061
 31
0.0
 12
907.5328599187523
 22
665.1497536877395
 32
0.0
 13
907.5328599187523
 23
665.1497536877395
 33
0.0
  0
SOLID
  5
3194
330
10F4
100
AcDbEntity
  8
MEASURE
 62
     9
100
AcDbTrace
 10
1319.032859918752
 20
667.2330870210729
 30
0.0
 11
1319.032859918752
 21
663.0664203544061
 31
0.0
 12
1331.532859918752
 22
665.1497536877395
 32
0.0
 13
1331.532859918752
 23
665.1497536877395
 33
0.0
  0
MTEXT
  5
3195
330
10F4
100
AcDbEntity
  8
MEASURE
 62
     2
100
AcDbMText
 10
1119.532859918752
 20
676.3997536877395
 30
0.0
 40
17.5
 41
0.0
 71
     5
 72
     1
  1
\A1;424
  7
AD-STANDARD
 73
     1
 44
1.0
1001
ACAD
1000
MTEXTBEGIN
1070
    73
1070
     1
1070
    44
1040
1.0
1070
    74
1070
     0
1000
MTEXTEND
  0
POINT
  5
3196
330
10F4
100
AcDbEntity
  8
DEFPOINTS
 62
     0
100
AcDbPoint
 10
907.5328599187523
 20
583.6497536877359
 30
0.0
  0
POINT
  5
3197
330
10F4
100
AcDbEntity
  8
DEFPOINTS
 62
     0
100
AcDbPoint
 10
1331.532859918752
 20
583.6497536877359
 30
0.0
  0
POINT
  5
3198
330
10F4
100
AcDbEntity
  8
DEFPOINTS
 62
     0
100
AcDbPoint
 10
1331.532859918752
 20
665.1497536877395
 30
0.0
  0
ENDBLK
  5
10FF
330
10F4
100
AcDbEntity
  8
0
100
AcDbBlockEnd
  0
BLOCK
  5
119B
330
119A
100
AcDbEntity
  8
0
100
AcDbBlockBegin
  2
*D6
 70
     1
 10
0.0
 20
0.0
 30
0.0
  3
*D6
  1

  0
LINE
  5
32B8
330
119A
100
AcDbEntity
  8
MEASURE
 62
     9
370
    -2
100
AcDbLine
 10
952.5328599187524
 20
486.6497536877449
 30
0.0
 11
952.5328599187524
 21
411.6497536877449
 31
0.0
  0
LINE
  5
32B9
330
119A
100
AcDbEntity
  8
MEASURE
 62
     9
370
    -2
100
AcDbLine
 10
907.5328599187596
 20
535.1497536877396
 30
0.0
 11
907.5328599187596
 21
411.6497536877449
 31
0.0
  0
LINE
  5
32BA
330
119A
100
AcDbEntity
  8
MEASURE
 62
     9
370
    -2
100
AcDbLine
 10
940.0328599187524
 20
421.6497536877449
 30
0.0
 11
920.0328599187596
 21
421.6497536877449
 31
0.0
  0
SOLID
  5
32BB
330
119A
100
AcDbEntity
  8
MEASURE
 62
     9
100
AcDbTrace
 10
940.0328599187524
 20
423.7330870210782
 30
0.0
 11
940.0328599187524
 21
419.5664203544116
 31
0.0
 12
952.5328599187524
 22
421.6497536877449
 32
0.0
 13
952.5328599187524
 23
421.6497536877449
 33
0.0
  0
SOLID
  5
32BC
330
119A
100
AcDbEntity
  8
MEASURE
 62
     9
100
AcDbTrace
 10
920.0328599187596
 20
423.7330870210782
 30
0.0
 11
920.0328599187596
 21
419.5664203544116
 31
0.0
 12
907.5328599187596
 22
421.6497536877449
 32
0.0
 13
907.5328599187596
 23
421.6497536877449
 33
0.0
  0
MTEXT
  5
32BD
330
119A
100
AcDbEntity
  8
MEASURE
 62
     2
100
AcDbMText
 10
930.032859918756
 20
432.8997536877449
 30
0.0
 40
17.5
 41
0.0
 71
     5
 72
     1
  1
\A1;45
  7
AD-STANDARD
 73
     1
 44
1.0
1001
ACAD
1000
MTEXTBEGIN
1070
    73
1070
     1
1070
    44
1040
1.0
1070
    74
1070
     0
1000
MTEXTEND
  0
POINT
  5
32BE
330
119A
100
AcDbEntity
  8
DEFPOINTS
 62
     0
100
AcDbPoint
 10
952.5328599187524
 20
491.6497536877449
 30
0.0
  0
POINT
  5
32BF
330
119A
100
AcDbEntity
  8
DEFPOINTS
 62
     0
100
AcDbPoint
 10
907.5328599187596
 20
540.1497536877395
 30
0.0
  0
POINT
  5
32C0
330
119A
100
AcDbEntity
  8
DEFPOINTS
 62
     0
100
AcDbPoint
 10
907.5328599187596
 20
421.6497536877449
 30
0.0
  0
ENDBLK
  5
11A5
330
119A
100
AcDbEntity
  8
0
100
AcDbBlockEnd
  0
BLOCK
  5
11A8
330
11A7
100
AcDbEntity
  8
0
100
AcDbBlockBegin
  2
*D7
 70
     1
 10
0.0
 20
0.0
 30
0.0
  3
*D7
  1

  0
LINE
  5
32CA
330
11A7
100
AcDbEntity
  8
MEASURE
 62
     9
370
    -2
100
AcDbLine
 10
952.5328599187524
 20
486.6497536877449
 30
0.0
 11
952.5328599187524
 21
411.6497536877449
 31
0.0
  0
LINE
  5
32CB
330
11A7
100
AcDbEntity
  8
MEASURE
 62
     9
370
    -2
100
AcDbLine
 10
1286.532859918759
 20
486.6497536877459
 30
0.0
 11
1286.532859918759
 21
411.6497536877449
 31
0.0
  0
LINE
  5
32CC
330
11A7
100
AcDbEntity
  8
MEASURE
 62
     9
370
    -2
100
AcDbLine
 10
965.0328599187524
 20
421.6497536877449
 30
0.0
 11
1274.03285991876
 21
421.6497536877449
 31
0.0
  0
SOLID
  5
32CD
330
11A7
100
AcDbEntity
  8
MEASURE
 62
     9
100
AcDbTrace
 10
965.0328599187524
 20
423.7330870210782
 30
0.0
 11
965.0328599187524
 21
419.5664203544116
 31
0.0
 12
952.5328599187524
 22
421.6497536877449
 32
0.0
 13
952.5328599187524
 23
421.6497536877449
 33
0.0
  0
SOLID
  5
32CE
330
11A7
100
AcDbEntity
  8
MEASURE
 62
     9
100
AcDbTrace
 10
1274.03285991876
 20
423.7330870210782
 30
0.0
 11
1274.03285991876
 21
419.5664203544116
 31
0.0
 12
1286.532859918759
 22
421.6497536877449
 32
0.0
 13
1286.532859918759
 23
421.6497536877449
 33
0.0
  0
MTEXT
  5
32CF
330
11A7
100
AcDbEntity
  8
MEASURE
 62
     2
100
AcDbMText
 10
1119.532859918756
 20
432.8997536877449
 30
0.0
 40
17.5
 41
0.0
 71
     5
 72
     1
  1
\A1;334
  7
AD-STANDARD
 73
     1
 44
1.0
1001
ACAD
1000
MTEXTBEGIN
1070
    73
1070
     1
1070
    44
1040
1.0
1070
    74
1070
     0
1000
MTEXTEND
  0
POINT
  5
32D0
330
11A7
100
AcDbEntity
  8
DEFPOINTS
 62
     0
100
AcDbPoint
 10
952.5328599187524
 20
491.6497536877449
 30
0.0
  0
POINT
  5
32D1
330
11A7
100
AcDbEntity
  8
DEFPOINTS
 62
     0
100
AcDbPoint
 10
1286.532859918759
 20
491.6497536877459
 30
0.0
  0
POINT
  5
32D2
330
11A7
100
AcDbEntity
  8
DEFPOINTS
 62
     0
100
AcDbPoint
 10
1286.532859918759
 20
421.6497536877449
 30
0.0
  0
ENDBLK
  5
11B2
330
11A7
100
AcDbEntity
  8
0
100
AcDbBlockEnd
  0
BLOCK
  5
11E7
330
11E6
100
AcDbEntity
  8
0
100
AcDbBlockBegin
  2
*D8
 70
     1
 10
0.0
 20
0.0
 30
0.0
  3
*D8
  1

  0
LINE
  5
31A2
330
11E6
100
AcDbEntity
  8
MEASURE
 62
     9
370
    -2
100
AcDbLine
 10
231.7185340079031
 20
588.6497536877396
 30
0.0
 11
231.7185340079031
 21
675.1497536877395
 31
0.0
  0
LINE
  5
31A3
330
11E6
100
AcDbEntity
  8
MEASURE
 62
     9
370
    -2
100
AcDbLine
 10
561.7185340079031
 20
588.6497536877396
 30
0.0
 11
561.7185340079031
 21
675.1497536877395
 31
0.0
  0
LINE
  5
31A4
330
11E6
100
AcDbEntity
  8
MEASURE
 62
     9
370
    -2
100
AcDbLine
 10
244.2185340079031
 20
665.1497536877395
 30
0.0
 11
549.2185340079031
 21
665.1497536877395
 31
0.0
  0
SOLID
  5
31A5
330
11E6
100
AcDbEntity
  8
MEASURE
 62
     9
100
AcDbTrace
 10
244.2185340079031
 20
667.2330870210729
 30
0.0
 11
244.2185340079031
 21
663.0664203544061
 31
0.0
 12
231.7185340079031
 22
665.1497536877395
 32
0.0
 13
231.7185340079031
 23
665.1497536877395
 33
0.0
  0
SOLID
  5
31A6
330
11E6
100
AcDbEntity
  8
MEASURE
 62
     9
100
AcDbTrace
 10
549.2185340079031
 20
667.2330870210729
 30
0.0
 11
549.2185340079031
 21
663.0664203544061
 31
0.0
 12
561.7185340079031
 22
665.1497536877395
 32
0.0
 13
561.7185340079031
 23
665.1497536877395
 33
0.0
  0
MTEXT
  5
31A7
330
11E6
100
AcDbEntity
  8
MEASURE
 62
     2
100
AcDbMText
 10
396.7185340079031
 20
676.3997536877395
 30
0.0
 40
17.5
 41
0.0
 71
     5
 72
     1
  1
\A1;330
  7
AD-STANDARD
 73
     1
 44
1.0
1001
ACAD
1000
MTEXTBEGIN
1070
    73
1070
     1
1070
    44
1040
1.0
1070
    74
1070
     0
1000
MTEXTEND
  0
POINT
  5
31A8
330
11E6
100
AcDbEntity
  8
DEFPOINTS
 62
     0
100
AcDbPoint
 10
231.7185340079031
 20
583.6497536877395
 30
0.0
  0
POINT
  5
31A9
330
11E6
100
AcDbEntity
  8
DEFPOINTS
 62
     0
100
AcDbPoint
 10
561.7185340079031
 20
583.6497536877395
 30
0.0
  0
POINT
  5
31AA
330
11E6
100
AcDbEntity
  8
DEFPOINTS
 62
     0
100
AcDbPoint
 10
561.7185340079031
 20
665.1497536877395
 30
0.0
  0
ENDBLK
  5
11F1
330
11E6
100
AcDbEntity
  8
0
100
AcDbBlockEnd
  0
BLOCK
  5
2DA3
330
2DA2
100
AcDbEntity
  8
0
100
AcDbBlockBegin
  2
*D9
 70
     1
 10
0.0
 20
0.0
 30
0.0
  3
*D9
  1

  0
LINE
  5
32DC
330
2DA2
100
AcDbEntity
  8
MEASURE
 62
     9
370
    -2
100
AcDbLine
 10
1473.532859918763
 20
486.6497536877441
 30
0.0
 11
1473.532859918763
 21
411.6497536877449
 31
0.0
  0
LINE
  5
32DD
330
2DA2
100
AcDbEntity
  8
MEASURE
 62
     9
370
    -2
100
AcDbLine
 10
1286.532859918759
 20
486.6497536877459
 30
0.0
 11
1286.532859918759
 21
411.6497536877449
 31
0.0
  0
LINE
  5
32DE
330
2DA2
100
AcDbEntity
  8
MEASURE
 62
     9
370
    -2
100
AcDbLine
 10
1461.032859918763
 20
421.6497536877449
 30
0.0
 11
1299.032859918759
 21
421.6497536877449
 31
0.0
  0
SOLID
  5
32DF
330
2DA2
100
AcDbEntity
  8
MEASURE
 62
     9
100
AcDbTrace
 10
1461.032859918763
 20
423.7330870210782
 30
0.0
 11
1461.032859918763
 21
419.5664203544116
 31
0.0
 12
1473.532859918763
 22
421.6497536877449
 32
0.0
 13
1473.532859918763
 23
421.6497536877449
 33
0.0
  0
SOLID
  5
32E0
330
2DA2
100
AcDbEntity
  8
MEASURE
 62
     9
100
AcDbTrace
 10
1299.032859918759
 20
423.7330870210782
 30
0.0
 11
1299.032859918759
 21
419.5664203544116
 31
0.0
 12
1286.532859918759
 22
421.6497536877449
 32
0.0
 13
1286.532859918759
 23
421.6497536877449
 33
0.0
  0
MTEXT
  5
32E1
330
2DA2
100
AcDbEntity
  8
MEASURE
 62
     2
100
AcDbMText
 10
1380.032859918761
 20
432.8997536877449
 30
0.0
 40
17.5
 41
0.0
 71
     5
 72
     1
  1
\A1;187
  7
AD-STANDARD
 73
     1
 44
1.0
1001
ACAD
1000
MTEXTBEGIN
1070
    73
1070
     1
1070
    44
1040
1.0
1070
    74
1070
     0
1000
MTEXTEND
  0
POINT
  5
32E2
330
2DA2
100
AcDbEntity
  8
DEFPOINTS
 62
     0
100
AcDbPoint
 10
1473.532859918763
 20
491.6497536877441
 30
0.0
  0
POINT
  5
32E3
330
2DA2
100
AcDbEntity
  8
DEFPOINTS
 62
     0
100
AcDbPoint
 10
1286.532859918759
 20
491.6497536877459
 30
0.0
  0
POINT
  5
32E4
330
2DA2
100
AcDbEntity
  8
DEFPOINTS
 62
     0
100
AcDbPoint
 10
1286.532859918759
 20
421.6497536877449
 30
0.0
  0
ENDBLK
  5
2DA4
330
2DA2
100
AcDbEntity
  8
0
100
AcDbBlockEnd
  0
ENDSEC
  0
SECTION
  2
ENTITIES
  0
ARC
  5
9C7
330
1A
100
AcDbEntity
  8
0
100
AcDbCircle
 10
-489.6024982882569
 20
-397.77576093204
 30
866.4253964846079
 40
30.0
210
0.0000000000000005
220
0.9205048534524403
230
0.3907311284892737
100
AcDbArc
 50
89.99985419520328
 51
172.7437708830956
  0
ARC
  5
9C8
330
1A
100
AcDbEntity
  8
0
100
AcDbCircle
 10
-304.0012480976593
 20
-397.7757609320403
 30
866.4253964846075
 40
30.0
210
0.0000000000000003
220
0.9205048534524403
230
0.3907311284892737
100
AcDbArc
 50
7.256229116904334
 51
90.00014580479671
  0
ARC
  5
9D4
330
1A
100
AcDbEntity
  8
0
100
AcDbCircle
 10
-89.04542509463038
 20
-456.5031701535222
 30
891.6707597754344
 40
180.0
210
0.0000000000000005
220
0.9205048534524403
230
0.3907311284892737
100
AcDbArc
 50
181.0000000000023
 51
195.4393555178335
  0
ARC
  5
9D5
330
1A
100
AcDbEntity
  8
0
100
AcDbCircle
 10
-89.04542509463038
 20
-456.5031701535222
 30
891.6707597754344
 40
184.0
210
0.0000000000000005
220
0.9205048534524403
230
0.3907311284892737
100
AcDbArc
 50
181.0000000000023
 51
195.4393555178335
  0
ARC
  5
9D6
330
1A
100
AcDbEntity
  8
0
100
AcDbCircle
 10
-704.5583290938161
 20
-456.503170153527
 30
891.6707597754344
 40
180.0
210
0.0000000000000005
220
0.9205048534524403
230
0.3907311284892737
100
AcDbArc
 50
344.5606444821677
 51
358.9999999999988
  0
ARC
  5
9D7
330
1A
100
AcDbEntity
  8
0
100
AcDbCircle
 10
-704.5583290938161
 20
-456.503170153527
 30
891.6707597754344
 40
184.0
210
0.0000000000000005
220
0.9205048534524403
230
0.3907311284892737
100
AcDbArc
 50
344.5606444821677
 51
358.9999999999988
  0
ARC
  5
9D8
330
1A
100
AcDbEntity
  8
0
100
AcDbCircle
 10
-704.5583290938161
 20
-454.5495145110808
 30
887.0682355081722
 40
180.0
210
0.0000000000000005
220
0.9205048534524403
230
0.3907311284892737
100
AcDbArc
 50
344.5606444821677
 51
358.9999999999988
  0
ARC
  5
9D9
330
1A
100
AcDbEntity
  8
0
100
AcDbCircle
 10
-89.04541729210668
 20
-454.1587833825912
 30
886.1477306547172
 40
180.0
210
-0.0000000000000059
220
0.9205048534524403
230
0.3907311284892737
100
AcDbArc
 50
181.0000000000012
 51
195.4393555178323
  0
ARC
  5
9DA
330
1A
100
AcDbEntity
  8
0
100
AcDbCircle
 10
-89.04541729210668
 20
-454.5495145110804
 30
887.0682355081696
 40
180.0
210
-0.0000000000000059
220
0.9205048534524403
230
0.3907311284892737
100
AcDbArc
 50
181.0000000000012
 51
195.4393555178323
  0
ARC
  5
9DB
330
1A
100
AcDbEntity
  8
0
100
AcDbCircle
 10
-89.04541729210668
 20
-456.5031701535268
 30
891.6707597754317
 40
180.0
210
-0.0000000000000059
220
0.9205048534524403
230
0.3907311284892737
100
AcDbArc
 50
181.0000000000012
 51
195.4393555178323
  0
LINE
  5
9DC
330
1A
100
AcDbEntity
  8
0
100
AcDbLine
 10
427.3018731929583
 20
1031.345274924471
 30
-147.640070553957
 11
427.3018731929583
 21
982.6992494275568
 31
-33.03721629912822
210
0.0000000000000005
220
0.9205048534524403
230
0.3907311284892737
  0
LINE
  5
9DD
330
1A
100
AcDbEntity
  8
0
100
AcDbLine
 10
426.8018731929583
 20
1031.345274924472
 30
-147.6400705539588
 11
426.8018731929583
 21
982.3085182990675
 31
-32.11671144567573
210
0.0000000000000005
220
0.9205048534524403
230
0.3907311284892737
  0
LINE
  5
9DE
330
1A
100
AcDbEntity
  8
0
100
AcDbLine
 10
427.3018809954869
 20
982.3085182990675
 30
-32.11671144567505
 11
427.3018809954851
 21
1031.345274924471
 31
-147.6400705539563
210
0.0000000000000005
220
0.9205048534524403
230
0.3907311284892737
  0
ARC
  5
9DF
330
1A
100
AcDbEntity
  8
0
100
AcDbCircle
 10
-704.5583290938161
 20
-451.8143966116558
 30
880.6247015340053
 40
180.0
210
0.0000000000000005
220
0.9205048534524403
230
0.3907311284892737
100
AcDbArc
 50
344.5606444821677
 51
358.9999999999988
  0
ARC
  5
9E0
330
1A
100
AcDbEntity
  8
0
100
AcDbCircle
 10
-704.5583290938161
 20
-454.1587833825915
 30
886.1477306547199
 40
180.0
210
0.0000000000000005
220
0.9205048534524403
230
0.3907311284892737
100
AcDbArc
 50
344.5606444821677
 51
358.9999999999988
  0
ARC
  5
9E1
330
1A
100
AcDbEntity
  8
0
100
AcDbCircle
 10
-89.04541729210668
 20
-451.8143966116554
 30
880.6247015340026
 40
180.0
210
-0.0000000000000059
220
0.9205048534524403
230
0.3907311284892737
100
AcDbArc
 50
181.0000000000012
 51
195.4393555178323
  0
LINE
  5
9E2
330
1A
100
AcDbEntity
  8
0
100
AcDbLine
 10
423.3018731929583
 20
1038.964531930012
 30
-165.5899151962796
 11
423.3018731929583
 21
1016.10676091339
 31
-111.7403812693119
210
0.0000000000000005
220
0.9205048534524403
230
0.3907311284892737
  0
LINE
  5
9E3
330
1A
100
AcDbEntity
  8
0
100
AcDbLine
 10
423.0518731929582
 20
1038.86684914789
 30
-165.3597889829175
 11
423.0518731929582
 21
1016.204443695512
 31
-111.9705074826759
210
0.0000000000000005
220
0.9205048534524403
230
0.3907311284892737
  0
ARC
  5
9E4
330
1A
100
AcDbEntity
  8
0
100
AcDbCircle
 10
-349.3018731929585
 20
-528.3821046422973
 30
891.6707597754344
 40
82.0
210
0.0000000000000005
220
0.9205048534524403
230
0.3907311284892737
100
AcDbArc
 50
339.0751675723619
 51
19.6159791354064
  0
ARC
  5
9E5
330
1A
100
AcDbEntity
  8
0
 48
0.25
100
AcDbCircle
 10
-349.5518731929585
 20
-528.3821046422973
 30
891.6707597754344
 40
82.0
210
0.0000000000000005
220
0.9205048534524403
230
0.3907311284892737
100
AcDbArc
 50
339.2940840833436
 51
19.39888991009711
  0
ARC
  5
9E6
330
1A
100
AcDbEntity
  8
0
100
AcDbCircle
 10
-509.6853573460681
 20
-553.3821046422969
 30
891.6707597754344
 40
16.0
210
0.0000000000000005
220
0.9205048534524403
230
0.3907311284892737
100
AcDbArc
 50
200.9248324276372
 51
270.0
  0
ARC
  5
9E7
330
1A
100
AcDbEntity
  8
0
100
AcDbCircle
 10
-416.3018731929587
 20
-558.3821046422971
 30
891.6707597754344
 40
7.0
210
0.0000000000000005
220
0.9205048534524403
230
0.3907311284892737
100
AcDbArc
 50
180.0
 51
270.0
  0
ARC
  5
9E8
330
1A
100
AcDbEntity
  8
0
100
AcDbCircle
 10
-416.0518731929586
 20
-558.1321046422971
 30
891.6707597754344
 40
7.0
210
0.0000000000000005
220
0.9205048534524403
230
0.3907311284892737
100
AcDbArc
 50
180.0
 51
270.0
  0
ARC
  5
9E9
330
1A
100
AcDbEntity
  8
0
100
AcDbCircle
 10
-283.9183890398487
 20
-553.382104642297
 30
891.6707597754344
 40
16.0
210
0.0000000000000005
220
0.9205048534524403
230
0.3907311284892737
100
AcDbArc
 50
270.0
 51
339.0751675723628
  0
ARC
  5
9EA
330
1A
100
AcDbEntity
  8
0
100
AcDbCircle
 10
-283.9183890398487
 20
-553.382104642297
 30
891.6707597754344
 40
12.0
210
0.0000000000000005
220
0.9205048534524403
230
0.3907311284892737
100
AcDbArc
 50
270.0
 51
339.0751675723638
  0
ARC
  5
9EB
330
1A
100
AcDbEntity
  8
0
 48
0.25
100
AcDbCircle
 10
-284.0733461783713
 20
-553.1321046422971
 30
891.6707597754344
 40
12.0
210
0.0000000000000005
220
0.9205048534524403
230
0.3907311284892737
100
AcDbArc
 50
270.0
 51
339.2940840833436
  0
ARC
  5
9EC
330
1A
100
AcDbEntity
  8
0
100
AcDbCircle
 10
-509.6853573460681
 20
-553.3821046422969
 30
891.6707597754344
 40
20.0
210
0.0000000000000005
220
0.9205048534524403
230
0.3907311284892737
100
AcDbArc
 50
200.9248324276372
 51
270.0
  0
ARC
  5
9ED
330
1A
100
AcDbEntity
  8
0
100
AcDbCircle
 10
-283.9183890398487
 20
-553.382104642297
 30
891.6707597754344
 40
20.0
210
0.0000000000000005
220
0.9205048534524403
230
0.3907311284892737
100
AcDbArc
 50
270.0
 51
339.0751675723628
  0
ARC
  5
9EE
330
1A
100
AcDbEntity
  8
0
100
AcDbCircle
 10
-510.8526057208579
 20
-558.3821046422968
 30
891.6707597754344
 40
7.0
210
0.0000000000000005
220
0.9205048534524403
230
0.3907311284892737
100
AcDbArc
 50
204.2650859026864
 51
270.0
  0
ARC
  5
9EF
330
1A
100
AcDbEntity
  8
0
100
AcDbCircle
 10
-430.3018731929586
 20
-563.3821046422971
 30
891.6707597754344
 40
2.0
210
0.0000000000000005
220
0.9205048534524403
230
0.3907311284892737
100
AcDbArc
 50
270.0
 51
0.0
  0
LINE
  5
9F0
330
1A
100
AcDbEntity
  8
0
100
AcDbLine
 10
439.3018731929542
 20
938.2502696627748
 30
-179.3974879980669
 11
439.3018731929542
 21
941.2502696627749
 31
-179.3974879980669
  0
LINE
  5
9F1
330
1A
100
AcDbEntity
  8
0
100
AcDbLine
 10
354.3018731929642
 20
938.2503523707979
 30
-179.3974879980669
 11
354.3018731929642
 21
941.2503523707981
 31
-179.3974879980669
  0
LINE
  5
9F2
330
1A
100
AcDbEntity
  8
0
100
AcDbLine
 10
319.3018731929587
 20
938.2503864270431
 30
-179.3974879980669
 11
319.3018731929587
 21
941.2503864270432
 31
-179.3974879980669
  0
LINE
  5
9F3
330
1A
100
AcDbEntity
  8
0
100
AcDbLine
 10
474.3018731929601
 20
938.25023560653
 30
-179.3974879980669
 11
474.3018731929601
 21
941.2502356065299
 31
-179.3974879980669
  0
LINE
  5
9F4
330
1A
100
AcDbEntity
  8
0
100
AcDbLine
 10
283.918389039849
 20
1041.699649829438
 30
-172.0334491704477
 11
416.3018731929582
 21
1041.699649829437
 31
-172.0334491704468
210
0.0000000000000005
220
0.9205048534524403
230
0.3907311284892737
  0
LINE
  5
9F5
330
1A
100
AcDbEntity
  8
0
100
AcDbLine
 10
284.0733461783716
 20
1041.601967047316
 30
-171.8033229570846
 11
416.0518731929583
 21
1041.601967047315
 31
-171.8033229570844
210
0.0000000000000005
220
0.9205048534524403
230
0.3907311284892737
  0
LINE
  5
9F6
330
1A
100
AcDbEntity
  8
0
100
AcDbLine
 10
509.6853573460684
 20
1043.262574343394
 30
-175.7154685842573
 11
283.9183890398487
 21
1043.262574343395
 31
-175.7154685842574
  0
LINE
  5
9F7
330
1A
100
AcDbEntity
  8
0
100
AcDbLine
 10
283.918389039849
 20
1044.825498857352
 30
-179.3974879980674
 11
509.6853573460684
 21
1044.825498857351
 31
-179.3974879980662
210
0.0000000000000005
220
0.9205048534524403
230
0.3907311284892737
  0
LINE
  5
9F8
330
1A
100
AcDbEntity
  8
0
100
AcDbLine
 10
509.6853573460939
 20
1044.825498857351
 30
-179.3974879980662
 11
283.9183890398235
 21
1044.825498857352
 31
-179.3974879980674
210
0.0000000000000005
220
0.9205048534524403
230
0.3907311284892737
  0
LINE
  5
9F9
330
1A
100
AcDbEntity
  8
0
100
AcDbLine
 10
430.3018731929587
 20
1041.699649829437
 30
-172.0334491704468
 11
510.8526057208583
 21
1041.699649829437
 31
-172.0334491704468
210
0.0000000000000005
220
0.9205048534524403
230
0.3907311284892737
  0
LINE
  5
9FA
330
1A
100
AcDbEntity
  8
0
100
AcDbLine
 10
259.3593867261852
 20
1025.946267991455
 30
-134.9208072977123
 11
259.3593867261852
 21
1013.946267991455
 31
-134.9208072977123
  0
ARC
  5
9FB
330
1A
100
AcDbEntity
  8
0
100
AcDbCircle
 10
-349.3018731929585
 20
-528.3821046422973
 30
891.6707597754344
 40
90.0
210
0.0000000000000005
220
0.9205048534524403
230
0.3907311284892737
100
AcDbArc
 50
339.0751675723607
 51
15.43935551783416
  0
LINE
  5
9FC
330
1A
100
AcDbEntity
  8
0
100
AcDbLine
 10
534.2443596597318
 20
1025.946267991455
 30
-134.9208072977123
 11
534.2443596597318
 21
1013.946267991455
 31
-134.9208072977123
  0
ARC
  5
9FD
330
1A
100
AcDbEntity
  8
0
100
AcDbCircle
 10
-445.1552693359746
 20
-528.2661137587203
 30
891.6707597754344
 40
89.14660385698349
210
0.0000000000000005
220
0.9205048534524403
230
0.3907311284892737
100
AcDbArc
 50
164.4864865151915
 51
191.3970563212888
  0
ARC
  5
9FE
330
1A
100
AcDbEntity
  8
0
100
AcDbCircle
 10
-445.138597596446
 20
-528.2683782078303
 30
891.6707597754344
 40
85.16327726379186
210
0.0000000000000005
220
0.9205048534524403
230
0.3907311284892737
100
AcDbArc
 50
164.4845354435437
 51
191.7987439427779
  0
LINE
  5
9FF
330
1A
100
AcDbEntity
  8
0
 48
0.1
100
AcDbLine
 10
412.3018731929537
 20
1035.838682902097
 30
-158.2258763686577
 11
412.3018731929537
 21
1017.474319863101
 31
-114.962148256393
210
0.0000000000000005
220
0.9205048534524403
230
0.3907311284892737
  0
LINE
  5
A00
330
1A
100
AcDbEntity
  8
0
 48
0.1
100
AcDbLine
 10
287.3018731929542
 20
1035.838682902097
 30
-158.2258763686577
 11
287.3018731929542
 21
1017.474319863101
 31
-114.9621482563932
210
0.0000000000000005
220
0.9205048534524403
230
0.3907311284892737
  0
ARC
  5
A01
330
1A
100
AcDbEntity
  8
0
100
AcDbCircle
 10
-349.3018731929585
 20
-528.3821046422973
 30
891.6707597754344
 40
86.0
210
0.0000000000000005
220
0.9205048534524403
230
0.3907311284892737
100
AcDbArc
 50
339.0751675723607
 51
15.43935551783416
  0
LINE
  5
A02
330
1A
100
AcDbEntity
  8
0
 48
0.1
100
AcDbLine
 10
287.3018731929542
 20
1017.474319863101
 30
-114.9621482563932
 11
412.3018731929537
 21
1017.474319863101
 31
-114.962148256393
210
0.0000000000000005
220
0.9205048534524403
230
0.3907311284892737
  0
ARC
  5
A03
330
1A
100
AcDbEntity
  8
0
100
AcDbCircle
 10
-445.1552693359746
 20
-526.3124581162738
 30
887.0682355081722
 40
89.14660385698349
210
0.0000000000000005
220
0.9205048534524403
230
0.3907311284892737
100
AcDbArc
 50
164.4864865151915
 51
182.0582285817593
  0
ARC
  5
A04
330
1A
100
AcDbEntity
  8
0
100
AcDbCircle
 10
-445.1552693359746
 20
-523.5773402168488
 30
880.6247015340053
 40
89.14660385698349
210
0.0000000000000005
220
0.9205048534524403
230
0.3907311284892737
100
AcDbArc
 50
164.4864865151915
 51
182.0582285817593
  0
ARC
  5
A05
330
1A
100
AcDbEntity
  8
0
100
AcDbCircle
 10
-445.1552693359746
 20
-525.9217269877845
 30
886.1477306547199
 40
89.14660385698349
210
0.0000000000000005
220
0.9205048534524403
230
0.3907311284892737
100
AcDbArc
 50
164.4864865151915
 51
182.0582285817593
  0
LINE
  5
A06
330
1A
100
AcDbEntity
  8
0
100
AcDbLine
 10
423.3019226734699
 20
1020.014072198282
 30
-120.9454298038363
 11
423.3019226734699
 21
1020.600168891017
 31
-122.3261870840167
210
0.0000000000000005
220
0.9205048534524403
230
0.3907311284892737
  0
ARC
  5
A09
330
1A
100
AcDbEntity
  8
0
100
AcDbCircle
 10
-348.4484770499488
 20
-525.9217269877844
 30
886.1477306547172
 40
89.14660385698349
210
-0.0000000000000059
220
0.9205048534524403
230
0.3907311284892737
100
AcDbArc
 50
357.9417714182406
 51
15.51351348480848
  0
ARC
  5
A0A
330
1A
100
AcDbEntity
  8
0
100
AcDbCircle
 10
-348.4484770499488
 20
-526.3124581162735
 30
887.0682355081696
 40
89.14660385698349
210
-0.0000000000000059
220
0.9205048534524403
230
0.3907311284892737
100
AcDbArc
 50
357.9417714182406
 51
15.51351348480848
  0
ARC
  5
A0B
330
1A
100
AcDbEntity
  8
0
100
AcDbCircle
 10
-348.4484770499488
 20
-523.5773402168488
 30
880.6247015340026
 40
89.14660385698349
210
-0.0000000000000059
220
0.9205048534524403
230
0.3907311284892737
100
AcDbArc
 50
357.9417714182407
 51
15.51351348480848
  0
LINE
  5
A0C
330
1A
100
AcDbEntity
  8
0
 48
0.1
100
AcDbLine
 10
287.3018731929542
 20
1035.838682902097
 30
-158.2258763686577
 11
412.3018731929537
 21
1035.838682902097
 31
-158.2258763686577
210
0.0000000000000005
220
0.9205048534524403
230
0.3907311284892737
  0
ARC
  5
A0D
330
1A
100
AcDbEntity
  8
0
100
AcDbCircle
 10
-444.3018731929584
 20
-528.3821046422973
 30
891.6707597754344
 40
86.0
210
0.0000000000000005
220
0.9205048534524403
230
0.3907311284892737
100
AcDbArc
 50
192.0814698847062
 51
200.9248324276391
  0
ARC
  5
A0E
330
1A
100
AcDbEntity
  8
0
100
AcDbCircle
 10
-444.3018731929584
 20
-528.3821046422973
 30
891.6707597754344
 40
90.0
210
0.0000000000000005
220
0.9205048534524403
230
0.3907311284892737
100
AcDbArc
 50
191.5369590328148
 51
200.9248324276391
  0
LINE
  5
A0F
330
1A
100
AcDbEntity
  8
0
100
AcDbLine
 10
435.3018731929583
 20
1036.815510723321
 30
-160.5271385022913
 11
517.6622848602869
 21
1036.815510723321
 31
-160.5271385022913
210
0.0000000000000005
220
0.9205048534524403
230
0.3907311284892737
  0
ARC
  5
A10
330
1A
100
AcDbEntity
  8
0
100
AcDbCircle
 10
-444.3018731929584
 20
-528.3821046422973
 30
891.6707597754344
 40
80.0
210
0.0000000000000005
220
0.9205048534524403
230
0.3907311284892737
100
AcDbArc
 50
199.8612529467867
 51
204.2650859026835
  0
ARC
  5
A11
330
1A
100
AcDbEntity
  8
0
100
AcDbCircle
 10
-517.662284860287
 20
-554.8821046422968
 30
891.6707597754344
 40
2.0
210
0.0000000000000005
220
0.9205048534524403
230
0.3907311284892737
100
AcDbArc
 50
90.0
 51
199.861252946807
  0
ARC
  5
A12
330
1A
100
AcDbEntity
  8
0
100
AcDbCircle
 10
-435.3018731929586
 20
-559.8821046422971
 30
891.6707597754344
 40
7.0
210
0.0000000000000005
220
0.9205048534524403
230
0.3907311284892737
100
AcDbArc
 50
0.0
 51
90.0
  0
LINE
  5
A13
330
1A
100
AcDbEntity
  8
0
100
AcDbLine
 10
428.3018731929582
 20
1040.918187572459
 30
-170.1924394635418
 11
428.3018731929582
 21
1039.550628622746
 31
-166.9706724764582
210
0.0000000000000005
220
0.9205048534524403
230
0.3907311284892737
  0
LINE
  5
A14
330
1A
100
AcDbEntity
  8
0
100
AcDbLine
 10
434.3018731929587
 20
1034.275758388141
 30
-154.5438569548521
 11
532.4835039331528
 21
1034.275758388141
 31
-154.5438569548503
210
0.0000000000000005
220
0.9205048534524403
230
0.3907311284892737
  0
LINE
  5
A15
330
1A
100
AcDbEntity
  8
0
100
AcDbLine
 10
434.3018731929582
 20
1034.080392823896
 30
-154.0836045281241
 11
531.5644081091518
 21
1034.080392823896
 31
-154.0836045281241
210
0.0000000000000005
220
0.9205048534524403
230
0.3907311284892737
  0
LINE
  5
A16
330
1A
100
AcDbEntity
  8
0
100
AcDbLine
 10
434.3018809954851
 20
1034.080392823896
 30
-154.0836045281232
 11
532.5440205824802
 21
1034.080392823896
 31
-154.0836045281232
210
0.0000000000000005
220
0.9205048534524403
230
0.3907311284892737
  0
ARC
  5
A17
330
1A
100
AcDbEntity
  8
0
100
AcDbCircle
 10
-444.3018731929584
 20
-528.3821046422973
 30
891.6707597754344
 40
89.0
210
0.0000000000000005
220
0.9205048534524403
230
0.3907311284892737
100
AcDbArc
 50
191.3399134476776
 51
191.6683994964641
  0
ARC
  5
A18
330
1A
100
AcDbEntity
  8
0
100
AcDbCircle
 10
-434.3018731929584
 20
-538.8821046422971
 30
891.6707597754344
 40
7.0
210
0.0000000000000005
220
0.9205048534524403
230
0.3907311284892737
100
AcDbArc
 50
270.0
 51
0.0
  0
ARC
  5
A19
330
1A
100
AcDbEntity
  8
0
100
AcDbCircle
 10
-434.3018809954853
 20
-538.8821046422962
 30
891.6707597754344
 40
7.0
210
0.0000000000000005
220
0.9205048534524403
230
0.3907311284892737
100
AcDbArc
 50
270.0
 51
0.0000000000007994
  0
ARC
  5
A1A
330
1A
100
AcDbEntity
  8
0
100
AcDbCircle
 10
-434.3018731929584
 20
-538.882104642298
 30
891.6707597754344
 40
7.5
210
0.0000000000000005
220
0.9205048534524403
230
0.3907311284892737
100
AcDbArc
 50
269.9999999999989
 51
0.0
  0
DIMENSION
  5
A1F
330
1A
100
AcDbEntity
  8
MEASURE
100
AcDbDimension
  2
*D0
 10
1601.588191785203
 20
1049.159996606965
 30
0.0
 11
1590.338191785203
 21
770.4048751473559
 31
0.0
 70
    32
  1
（750）
 71
     5
 42
557.5102429192197
  3
AD-STANDARD
100
AcDbAlignedDimension
 13
1298.532859918759
 23
491.6497536877459
 33
0.0
 14
1520.5182421879
 24
1049.159996606966
 34
0.0
 50
90.0
100
AcDbRotatedDimension
1001
ACAD
1000
DSTYLE
1002
{
1070
    40
1040
5.0
1070
   140
1040
3.5
1070
   271
1070
     8
1070
   272
1070
     8
1070
   289
1070
     1
1002
}
  0
DIMENSION
  5
A20
330
1A
100
AcDbEntity
  8
MEASURE
100
AcDbDimension
  2
*D1
 10
837.5328599187524
 20
595.1497536877395
 30
0.0
 11
826.2828599187523
 21
567.6497536877397
 31
0.0
 70
    32
 71
     5
 42
55.0
  3
AD-STANDARD
100
AcDbAlignedDimension
 13
907.5328599187596
 23
540.1497536877395
 33
0.0
 14
919.0328599187523
 24
595.1497536877395
 34
0.0
 50
90.0
100
AcDbRotatedDimension
1001
ACAD
1000
DSTYLE
1002
{
1070
    40
1040
5.0
1070
   140
1040
3.5
1070
   271
1070
     8
1070
   272
1070
     8
1070
   289
1070
     1
1002
}
  0
DIMENSION
  5
A21
330
1A
100
AcDbEntity
  8
MEASURE
100
AcDbDimension
  2
*D2
 10
1531.588191785203
 20
386.6497536877449
 30
0.0
 11
1219.560525851981
 21
397.8997536877449
 31
0.0
 70
    32
  1
（625）
 71
     5
 42
624.0553318664433
  3
AD-STANDARD
100
AcDbAlignedDimension
 13
907.5328599187596
 23
540.1497536877395
 33
0.0
 14
1531.588191785203
 24
1030.500017932875
 34
0.0
100
AcDbRotatedDimension
1001
ACAD
1000
DSTYLE
1002
{
1070
    40
1040
5.0
1070
   140
1040
3.5
1070
   271
1070
     8
1070
   272
1070
     8
1070
   289
1070
     1
1002
}
  0
LINE
  5
A24
330
1A
100
AcDbEntity
  8
0
100
AcDbLine
 10
1306.024432015427
 20
522.6497536877396
 30
0.0
 11
933.3662075183202
 21
522.6497536877396
 31
0.0
  0
LINE
  5
A25
330
1A
100
AcDbEntity
  8
0
100
AcDbLine
 10
1218.512359577453
 20
504.1497536877395
 30
0.0
 11
1020.553360260066
 21
504.1497536877395
 31
0.0
  0
LINE
  5
A26
330
1A
100
AcDbEntity
  8
0
100
AcDbLine
 10
1210.984573980862
 20
517.1497536877395
 30
0.0
 11
1125.383896246578
 21
517.1497536877395
 31
0.0
  0
LINE
  5
A27
330
1A
100
AcDbEntity
  8
0
100
AcDbLine
 10
907.5328599187596
 20
540.1497536877395
 30
0.0
 11
1331.532859918759
 21
540.1497536877395
 31
0.0
  0
LINE
  5
A28
330
1A
100
AcDbEntity
  8
0
100
AcDbLine
 10
919.0328599187596
 20
595.1497536877395
 30
0.0
 11
1320.032859918759
 21
595.1497536877395
 31
0.0
  0
DIMENSION
  5
A29
330
1A
100
AcDbEntity
  8
MEASURE
100
AcDbDimension
  2
*D3
 10
802.5328599187524
 20
595.1497536877395
 30
0.0
 11
791.2828599187522
 21
543.3997536877425
 31
0.0
 70
    32
  1
105～115
 71
     5
 42
103.4999999999946
  3
AD-STANDARD
100
AcDbAlignedDimension
 13
940.5328599187523
 23
491.6497536877449
 33
0.0
 14
919.0328599187523
 24
595.1497536877395
 34
0.0
 50
90.0
100
AcDbRotatedDimension
1001
ACAD
1000
DSTYLE
1002
{
1070
    40
1040
5.0
1070
   140
1040
3.5
1070
   271
1070
     8
1070
   272
1070
     8
1070
   289
1070
     1
1002
}
  0
ARC
  5
A2C
330
1A
100
AcDbEntity
  8
0
100
AcDbCircle
 10
1017.025165429233
 20
514.1497536877359
 30
0.0
 40
3.0
100
AcDbArc
 50
2.999999999999896
 51
90.0
  0
LINE
  5
A2D
330
1A
100
AcDbEntity
  8
0
100
AcDbLine
 10
1020.553360260059
 20
504.1497536877395
 30
0.0
 11
977.7490622783917
 21
511.697306312195
 31
0.0
  0
LINE
  5
A2E
330
1A
100
AcDbEntity
  8
0
100
AcDbLine
 10
1020.553360260059
 20
504.1497536877395
 30
0.0
 11
974.2736502441346
 21
512.3101152229096
 31
0.0
  0
LINE
  5
A2F
330
1A
100
AcDbEntity
  8
0
100
AcDbLine
 10
926.2270277782336
 20
540.1497536877395
 30
0.0
 11
931.4640944857346
 21
524.031719698989
 31
0.0
  0
LINE
  5
A30
330
1A
100
AcDbEntity
  8
0
100
AcDbLine
 10
1017.02516542924
 20
517.1497536877395
 30
0.0
 11
964.534696207218
 21
517.1497536877323
 31
0.0
  0
LINE
  5
A31
330
1A
100
AcDbEntity
  8
0
100
AcDbLine
 10
973.8513764445414
 20
522.6497536877396
 30
0.0
 11
973.8513764445414
 21
518.6497536877396
 31
0.0
  0
LINE
  5
A32
330
1A
100
AcDbEntity
  8
0
100
AcDbLine
 10
973.8513764445414
 20
518.6497536877396
 30
0.0
 11
962.3478144949759
 21
518.649753687736
 31
0.0
  0
ARC
  5
A33
330
1A
100
AcDbEntity
  8
0
100
AcDbCircle
 10
933.3662075183202
 20
524.6497536877359
 30
0.0
 40
2.0
100
AcDbArc
 50
198.0000000000001
 51
270.0
  0
LINE
  5
A60
330
1A
100
AcDbEntity
  8
0
100
AcDbLine
 10
907.5328599187596
 20
540.1497536877395
 30
0.0
 11
907.5328599187596
 21
583.6497536877395
 31
0.0
  0
ARC
  5
A61
330
1A
100
AcDbEntity
  8
0
100
AcDbCircle
 10
919.0328599187523
 20
583.6497536877359
 30
0.0
 40
11.5
100
AcDbArc
 50
90.0
 51
180.0
  0
ARC
  5
A74
330
1A
100
AcDbEntity
  8
0
100
AcDbCircle
 10
967.9757750860554
 20
516.4668803700733
 30
0.0
 40
3.0
100
AcDbArc
 50
200.0000000000004
 51
259.9999999999998
  0
LINE
  5
A75
330
1A
100
AcDbEntity
  8
0
100
AcDbLine
 10
965.1566972236942
 20
515.4408199400968
 30
0.0
 11
963.988740855817
 21
518.6497536877359
 31
0.0
  0
LINE
  5
A76
330
1A
100
AcDbEntity
  8
0
100
AcDbLine
 10
974.2736502441347
 20
512.3101152229117
 30
0.0
 11
967.4548305530516
 21
513.5124571110318
 31
0.0
  0
LINE
  5
A77
330
1A
100
AcDbEntity
  8
0
100
AcDbLine
 10
1122.385723765514
 20
514.2544521778509
 30
0.0
 11
1122.032859918759
 21
504.1497536877395
 31
0.0
  0
LINE
  5
A78
330
1A
100
AcDbEntity
  8
0
100
AcDbLine
 10
1116.679996072005
 20
514.2544521778509
 30
0.0
 11
1117.03285991876
 21
504.1497536877395
 31
0.0
  0
LINE
  5
A79
330
1A
100
AcDbEntity
  8
0
100
AcDbLine
 10
1113.681823590941
 20
517.1497536877395
 30
0.0
 11
1028.081082598492
 21
517.1497536877395
 31
0.0
  0
LINE
  5
A7A
330
1A
100
AcDbEntity
  8
0
100
AcDbLine
 10
1099.532859918759
 20
522.6497536877396
 30
0.0
 11
1099.532859918759
 21
517.1497536877395
 31
0.0
  0
LINE
  5
A7B
330
1A
100
AcDbEntity
  8
0
100
AcDbLine
 10
1079.532859918759
 20
522.6497536877396
 30
0.0
 11
1079.532859918759
 21
517.1497536877395
 31
0.0
  0
ARC
  5
A7C
330
1A
100
AcDbEntity
  8
0
100
AcDbCircle
 10
1125.38389624657
 20
514.1497536877359
 30
0.0
 40
3.0
100
AcDbArc
 50
90.0
 51
178.0000000000004
  0
ARC
  5
A7D
330
1A
100
AcDbEntity
  8
0
100
AcDbCircle
 10
1113.681823590941
 20
514.1497536877359
 30
0.0
 40
3.0
100
AcDbArc
 50
2.000000000000035
 51
90.00000000000007
  0
LINE
  5
A7E
330
1A
100
AcDbEntity
  8
0
100
AcDbLine
 10
1025.085193994233
 20
514.3067615564687
 30
0.0
 11
1024.552887767666
 21
504.1497536877395
 31
0.0
  0
LINE
  5
A7F
330
1A
100
AcDbEntity
  8
0
100
AcDbLine
 10
1020.021054033506
 20
514.3067615564687
 30
0.0
 11
1020.553360260059
 21
504.1497536877395
 31
0.0
  0
ARC
  5
A80
330
1A
100
AcDbEntity
  8
0
100
AcDbCircle
 10
1028.081082598492
 20
514.1497536877359
 30
0.0
 40
3.0
100
AcDbArc
 50
90.00000000000007
 51
176.9999999999998
  0
LINE
  5
A81
330
1A
100
AcDbEntity
  8
0
100
AcDbLine
 10
1020.04691921057
 20
513.8132245773995
 30
0.0
 11
1025.059328817162
 21
513.8132245773995
 31
0.0
  0
LINE
  5
A82
330
1A
100
AcDbEntity
  8
0
100
AcDbLine
 10
1116.695404079331
 20
513.8132245773995
 30
0.0
 11
1122.370315758187
 21
513.8132245773995
 31
0.0
  0
LINE
  5
A85
330
1A
100
AcDbEntity
  8
0
100
AcDbLine
 10
1273.130608553885
 20
517.1497536877287
 30
0.0
 11
1222.040963642514
 21
517.1497536877395
 31
0.0
  0
LINE
  5
A89
330
1A
100
AcDbEntity
  8
0
100
AcDbLine
 10
1218.512359577468
 20
504.1497536877395
 30
0.0
 11
1263.460398917193
 21
512.0753057532842
 31
0.0
  0
LINE
  5
A8A
330
1A
100
AcDbEntity
  8
0
100
AcDbLine
 10
1159.532859918759
 20
522.6497536877396
 30
0.0
 11
1159.532859918759
 21
517.1497536877395
 31
0.0
  0
LINE
  5
A8B
330
1A
100
AcDbEntity
  8
0
100
AcDbLine
 10
1139.532859918759
 20
522.6497536877396
 30
0.0
 11
1139.532859918759
 21
517.1497536877395
 31
0.0
  0
LINE
  5
A8C
330
1A
100
AcDbEntity
  8
0
100
AcDbLine
 10
1219.045075038248
 20
514.3067615564687
 30
0.0
 11
1218.512768811688
 21
504.1497536877395
 31
0.0
  0
LINE
  5
A8D
330
1A
100
AcDbEntity
  8
0
100
AcDbLine
 10
1213.980462585128
 20
514.3067615564687
 30
0.0
 11
1214.512768811688
 21
504.1497536877395
 31
0.0
  0
ARC
  5
A8E
330
1A
100
AcDbEntity
  8
0
100
AcDbCircle
 10
1222.040963642514
 20
514.1497536877359
 30
0.0
 40
3.0
100
AcDbArc
 50
90.0
 51
176.9999999999998
  0
ARC
  5
A8F
330
1A
100
AcDbEntity
  8
0
100
AcDbCircle
 10
1210.984573980862
 20
514.1497536877359
 30
0.0
 40
3.0
100
AcDbArc
 50
3.00000000000015
 51
90.0
  0
LINE
  5
A90
330
1A
100
AcDbEntity
  8
0
100
AcDbLine
 10
1218.512359577453
 20
504.1497536877395
 30
0.0
 11
1249.041310135249
 21
509.5328313637837
 31
0.0
  0
LINE
  5
A91
330
1A
100
AcDbEntity
  8
0
100
AcDbLine
 10
1214.006327762192
 20
513.8132245773995
 30
0.0
 11
1219.019209861184
 21
513.8132245773995
 31
0.0
  0
LINE
  5
A96
330
1A
100
AcDbEntity
  8
0
100
AcDbLine
 10
1265.214343392978
 20
522.6497536877396
 30
0.0
 11
1265.214343392978
 21
518.6497536877396
 31
0.0
  0
LINE
  5
A97
330
1A
100
AcDbEntity
  8
0
100
AcDbLine
 10
1265.214343392978
 20
518.6497536877396
 30
0.0
 11
1276.717905342536
 21
518.6497536877396
 31
0.0
  0
LINE
  5
A98
330
1A
100
AcDbEntity
  8
0
100
AcDbLine
 10
1313.890154283519
 20
540.1497536877323
 30
0.0
 11
1308.877601564312
 21
524.7227027046137
 31
0.0
  0
ARC
  5
A99
330
1A
100
AcDbEntity
  8
0
100
AcDbCircle
 10
1306.024432015427
 20
525.6497536877359
 30
0.0
 40
3.0
100
AcDbArc
 50
270.0
 51
342.0000000000012
  0
LINE
  5
A9A
330
1A
100
AcDbEntity
  8
0
100
AcDbLine
 10
1331.532859918759
 20
540.1497536877395
 30
0.0
 11
1331.532859918759
 21
583.6497536877395
 31
0.0
  0
ARC
  5
A9B
330
1A
100
AcDbEntity
  8
0
100
AcDbCircle
 10
1320.032859918752
 20
583.6497536877359
 30
0.0
 40
11.5
100
AcDbArc
 50
359.9999999999999
 51
90.0
  0
LINE
  5
A9C
330
1A
100
AcDbEntity
  8
0
100
AcDbLine
 10
1306.024432015427
 20
522.6497536877396
 30
0.0
 11
1338.422000117945
 21
513.0256745612824
 31
0.0
  0
ARC
  5
A9D
330
1A
100
AcDbEntity
  8
0
100
AcDbCircle
 10
1360.09841578278
 20
514.9497536877316
 30
0.0
 40
2.0
100
AcDbArc
 50
269.9999999999999
 51
358.0908475670034
  0
LINE
  5
A9E
330
1A
100
AcDbEntity
  8
0
100
AcDbLine
 10
1338.967820157104
 20
512.9497536877352
 30
0.0
 11
1360.098415782788
 21
512.9497536877352
 31
0.0
  0
LINE
  5
A9F
330
1A
100
AcDbEntity
  8
0
100
AcDbLine
 10
1323.916988383174
 20
540.1497536877395
 30
0.0
 11
1324.20821356212
 21
531.8101557009249
 31
0.0
  0
ARC
  5
AA0
330
1A
100
AcDbEntity
  8
0
100
AcDbCircle
 10
1328.205776870189
 20
531.9497536877316
 30
0.0
 40
4.0
100
AcDbArc
 50
182.0000000000004
 51
270.0000000000004
  0
LINE
  5
AA1
330
1A
100
AcDbEntity
  8
0
100
AcDbLine
 10
1328.205776870196
 20
527.9497536877352
 30
0.0
 11
1362.53285991876
 21
527.9497536877352
 31
0.0
  0
LINE
  5
AA2
330
1A
100
AcDbEntity
  8
0
100
AcDbLine
 10
1362.53285991876
 20
527.9497536877352
 30
0.0
 11
1362.097305596744
 21
514.8831240272738
 31
0.0
  0
ARC
  5
ADB
330
1A
100
AcDbEntity
  8
0
100
AcDbCircle
 10
1271.089944751471
 20
516.4668803700733
 30
0.0
 40
3.0
100
AcDbArc
 50
280.0000000000002
 51
339.9999999999995
  0
LINE
  5
ADC
330
1A
100
AcDbEntity
  8
0
100
AcDbLine
 10
1273.909022613832
 20
515.4408199400968
 30
0.0
 11
1275.076978981702
 21
518.6497536877396
 31
0.0
  0
ARC
  5
ADD
330
1A
100
AcDbEntity
  8
0
100
AcDbCircle
 10
1273.130608553885
 20
519.1497536877395
 30
0.0
 40
2.0
100
AcDbArc
 50
270.0
 51
339.9999999999999
  0
LINE
  5
ADE
330
1A
100
AcDbEntity
  8
0
100
AcDbLine
 10
1263.460398917193
 20
512.0753057532761
 30
0.0
 11
1271.610889284475
 21
513.5124571110318
 31
0.0
  0
ARC
  5
B1E
330
1A
100
AcDbEntity
  8
0
100
AcDbCircle
 10
-300.8018731929567
 20
-443.3821046422957
 30
891.6707597754344
 40
20.0
210
0.0000000000000005
220
0.9205048534524403
230
0.3907311284892737
100
AcDbArc
 50
0.0
 51
90.0
  0
ARC
  5
B1F
330
1A
100
AcDbEntity
  8
0
100
AcDbCircle
 10
-300.801873192958
 20
-443.6321046422952
 30
891.6707597754344
 40
20.0
210
0.0000000000000005
220
0.9205048534524403
230
0.3907311284892737
100
AcDbArc
 50
0.0
 51
90.0
  0
ARC
  5
B20
330
1A
100
AcDbEntity
  8
0
100
AcDbCircle
 10
-301.051873192958
 20
-443.8821046422953
 30
891.6707597754344
 40
20.0
210
0.0000000000000005
220
0.9205048534524403
230
0.3907311284892737
100
AcDbArc
 50
359.9999999999964
 51
90.00000000000088
  0
LINE
  5
B21
330
1A
100
AcDbEntity
  8
0
100
AcDbLine
 10
417.3018731929564
 20
1005.16628931569
 30
-85.96624537264348
 11
417.3018731929564
 21
986.997291840939
 31
-43.1627696871051
210
0.0000000000000005
220
0.9205048534524403
230
0.3907311284892737
  0
LINE
  5
B22
330
1A
100
AcDbEntity
  8
0
100
AcDbLine
 10
417.0518731929578
 20
1005.16628931569
 30
-85.96624537264395
 11
417.0518731929578
 21
987.192657405184
 31
-43.62302211383168
210
0.0000000000000005
220
0.9205048534524403
230
0.3907311284892737
  0
LINE
  5
B23
330
1A
100
AcDbEntity
  8
0
100
AcDbLine
 10
417.3018731929578
 20
1005.263972097813
 30
-86.19637158600722
 11
417.3018731929578
 21
987.0949746230618
 31
-43.39289590046861
210
0.0000000000000005
220
0.9205048534524403
230
0.3907311284892737
  0
ARC
  5
B24
330
1A
100
AcDbEntity
  8
0
100
AcDbCircle
 10
-299.3509591929093
 20
-447.5006087291014
 30
891.6707597754344
 40
26.1185502118284
210
0.0000000000000005
220
0.9205048534524403
230
0.3907311284892737
100
AcDbArc
 50
0.2626104772850812
 51
89.89232088829099
  0
ARC
  5
B25
330
1A
100
AcDbEntity
  8
0
100
AcDbCircle
 10
-494.3710694703906
 20
-447.3808171860977
 30
891.6707597754344
 40
26.0
210
0.0000000000000005
220
0.9205048534524403
230
0.3907311284892737
100
AcDbArc
 50
89.42981080968909
 51
179.9999999999964
  0
ARC
  5
B26
330
1A
100
AcDbEntity
  8
0
100
AcDbCircle
 10
-494.2973111541661
 20
-443.3821046422966
 30
891.6707597754344
 40
30.0
210
0.0000000000000005
220
0.9205048534524403
230
0.3907311284892737
100
AcDbArc
 50
90.0
 51
178.9999999999897
  0
ARC
  5
B27
330
1A
100
AcDbEntity
  8
0
100
AcDbCircle
 10
-299.3018731929585
 20
-443.3821046422975
 30
891.6707597754344
 40
30.0
210
0.0000000000000005
220
0.9205048534524403
230
0.3907311284892737
100
AcDbArc
 50
0.0
 51
90.0
  0
ARC
  5
B28
330
1A
100
AcDbEntity
  8
0
100
AcDbCircle
 10
-494.297309165425
 20
-442.6006045071011
 30
889.8296608330424
 40
30.0
210
0.0000000000000005
220
0.9205048534524403
230
0.3907311284892737
100
AcDbArc
 50
89.99985419520392
 51
178.9999999999897
  0
ARC
  5
B29
330
1A
100
AcDbEntity
  8
0
100
AcDbCircle
 10
-299.3064372204985
 20
-442.6006045071009
 30
889.8296608330397
 40
30.0
210
-0.0000000000000059
220
0.9205048534524403
230
0.3907311284892737
100
AcDbArc
 50
1.000000000010224
 51
90.00014580479607
  0
ARC
  5
B2A
330
1A
100
AcDbEntity
  8
0
100
AcDbCircle
 10
-299.3064381427084
 20
-442.2098722485269
 30
888.909153317275
 40
30.0
210
-0.0000000000000059
220
0.9205048534524403
230
0.3907311284892737
100
AcDbArc
 50
1.000000000010224
 51
90.00013523002955
  0
ARC
  5
B2B
330
1A
100
AcDbEntity
  8
0
100
AcDbCircle
 10
-299.3064352317574
 20
-443.3821046422962
 30
891.6707597754317
 40
30.0
210
-0.0000000000000059
220
0.9205048534524403
230
0.3907311284892737
100
AcDbArc
 50
1.000000000010224
 51
90.0
  0
ARC
  5
B2C
330
1A
100
AcDbEntity
  8
0
100
AcDbCircle
 10
-299.3064392091578
 20
-437.1303630123442
 30
876.9425794659904
 40
30.0
210
-0.0000000000000059
220
0.9205048534524403
230
0.3907311284892737
100
AcDbArc
 50
7.256229116904332
 51
90.00014580479671
  0
ARC
  5
B2D
330
1A
100
AcDbEntity
  8
0
100
AcDbCircle
 10
-299.306437037957
 20
-438.0063778589025
 30
879.0063411147512
 40
30.0
210
-0.0000000000000059
220
0.9205048534524403
230
0.3907311284892737
100
AcDbArc
 50
7.256229116904332
 51
90.00014580479671
  0
ARC
  5
B2E
330
1A
100
AcDbEntity
  8
0
100
AcDbCircle
 10
-494.2973093479665
 20
-438.0063778589029
 30
879.0063411147539
 40
30.0
210
0.0000000000000005
220
0.9205048534524403
230
0.3907311284892737
100
AcDbArc
 50
89.99985419520328
 51
172.7437708830956
  0
ARC
  5
B2F
330
1A
100
AcDbEntity
  8
0
100
AcDbCircle
 10
-494.2973071767657
 20
-437.1303630123446
 30
876.9425794659932
 40
30.0
210
0.0000000000000005
220
0.9205048534524403
230
0.3907311284892737
100
AcDbArc
 50
89.99985419520328
 51
172.7437708830956
  0
LINE
  5
B30
330
1A
100
AcDbEntity
  8
0
100
AcDbLine
 10
524.0570438860231
 20
976.5497804708925
 30
-46.82020369889589
 11
524.585743965667
 21
988.384716611109
 31
-74.70156600419797
210
0.0000000000000005
220
0.9205048534524403
230
0.3907311284892737
  0
ARC
  5
B31
330
1A
100
AcDbEntity
  8
0
100
AcDbCircle
 10
-494.2973082432151
 20
-442.2098722485274
 30
888.9091533172775
 40
30.0
210
0.0000000000000005
220
0.9205048534524403
230
0.3907311284892737
100
AcDbArc
 50
89.99986476997044
 51
178.9999999999897
  0
LINE
  5
B32
330
1A
100
AcDbEntity
  8
0
100
AcDbLine
 10
269.5467024998939
 20
976.5497804708916
 30
-46.82020369889589
 11
269.01800242025
 21
988.3847166111083
 31
-74.70156600419797
210
-0.0000000000000059
220
0.9205048534524403
230
0.3907311284892737
  0
LINE
  5
B3D
330
1A
100
AcDbEntity
  8
0
100
AcDbLine
 10
282.8018731929569
 20
1006.729213829647
 30
-89.64826478645274
 11
415.3018731929564
 21
1006.729213829647
 31
-89.64826478645342
210
0.0000000000000005
220
0.9205048534524403
230
0.3907311284892737
  0
LINE
  5
B3E
330
1A
100
AcDbEntity
  8
0
100
AcDbLine
 10
282.8018731929587
 20
1005.947751572668
 30
-87.80725507954777
 11
415.3018731929564
 21
1005.947751572669
 31
-87.80725507954846
210
0.0000000000000005
220
0.9205048534524403
230
0.3907311284892737
  0
LINE
  5
B3F
330
1A
100
AcDbEntity
  8
0
100
AcDbLine
 10
283.0518731929601
 20
1005.947751572668
 30
-87.80725507954732
 11
415.0518731929578
 21
1005.947751572669
 31
-87.8072550795489
210
0.0000000000000005
220
0.9205048534524403
230
0.3907311284892737
  0
LINE
  5
B40
330
1A
100
AcDbEntity
  8
0
100
AcDbLine
 10
282.8018731929601
 20
1006.045434354791
 30
-88.0373812929106
 11
415.3018731929578
 21
1006.045434354791
 31
-88.03738129291197
210
0.0000000000000005
220
0.9205048534524403
230
0.3907311284892737
  0
LINE
  5
B41
330
1A
100
AcDbEntity
  8
0
100
AcDbLine
 10
283.3644028138187
 20
1013.371643013965
 30
-105.2968472951443
 11
416.3018731929582
 21
1013.371643013964
 31
-105.2968472951447
210
0.0000000000000005
220
0.9205048534524403
230
0.3907311284892737
  0
LINE
  5
B42
330
1A
100
AcDbEntity
  8
0
100
AcDbLine
 10
283.525836661906
 20
1013.469325796087
 30
-105.5269735085073
 11
416.0518731929583
 21
1013.469325796087
 31
-105.5269735085087
210
0.0000000000000005
220
0.9205048534524403
230
0.3907311284892737
  0
LINE
  5
B43
330
1A
100
AcDbEntity
  8
0
100
AcDbLine
 10
282.8018731929569
 20
1012.590180756986
 30
-103.4558375882393
 11
415.3018731929583
 21
1012.590180756986
 31
-103.4558375882382
210
0.0000000000000005
220
0.9205048534524403
230
0.3907311284892737
  0
LINE
  5
B44
330
1A
100
AcDbEntity
  8
0
100
AcDbLine
 10
417.3018731929564
 20
1007.510676086626
 30
-91.48927449335817
 11
417.3018731929582
 21
1011.808718500007
 31
-101.6148278813334
210
0.0000000000000005
220
0.9205048534524403
230
0.3907311284892737
  0
ARC
  5
B45
330
1A
100
AcDbEntity
  8
0
 48
0.25
100
AcDbCircle
 10
-452.3018809954857
 20
-485.8821046422965
 30
891.6707597754344
 40
1.0
210
0.0000000000000005
220
0.9205048534524403
230
0.3907311284892737
100
AcDbArc
 50
270.0
 51
90.0
  0
ARC
  5
B46
330
1A
100
AcDbEntity
  8
0
 48
0.25
100
AcDbCircle
 10
-515.4893809954861
 20
-485.8821046422963
 30
891.6707597754344
 40
1.0
210
0.0000000000000005
220
0.9205048534524403
230
0.3907311284892737
100
AcDbArc
 50
90.0
 51
270.0
  0
LINE
  5
B47
330
1A
100
AcDbEntity
  8
0
100
AcDbLine
 10
452.3018809954855
 20
1011.027256243029
 30
-99.77381817442939
 11
515.4893809954855
 21
1011.027256243029
 31
-99.77381817442939
210
0.0000000000000005
220
0.9205048534524403
230
0.3907311284892737
  0
LINE
  5
B48
330
1A
100
AcDbEntity
  8
0
100
AcDbLine
 10
452.3018809954855
 20
1012.980911885475
 30
-104.3763424416916
 11
515.8018809954856
 21
1012.980911885475
 31
-104.3763424416916
210
0.0000000000000005
220
0.9205048534524403
230
0.3907311284892737
  0
LINE
  5
B49
330
1A
100
AcDbEntity
  8
0
100
AcDbLine
 10
452.3018809954855
 20
1013.762374142454
 30
-106.2173521485963
 11
515.8018809954856
 21
1013.762374142454
 31
-106.2173521485963
210
0.0000000000000005
220
0.9205048534524403
230
0.3907311284892737
  0
ARC
  5
B4A
330
1A
100
AcDbEntity
  8
0
 48
0.25
100
AcDbCircle
 10
-515.8018809954861
 20
-492.8821046422966
 30
891.6707597754344
 40
1.0
210
0.0000000000000005
220
0.9205048534524403
230
0.3907311284892737
100
AcDbArc
 50
90.0
 51
270.0
  0
ARC
  5
B4B
330
1A
100
AcDbEntity
  8
0
100
AcDbCircle
 10
-416.3018731929584
 20
-499.8821046422974
 30
891.6707597754344
 40
7.0
210
0.0000000000000005
220
0.9205048534524403
230
0.3907311284892737
100
AcDbArc
 50
90.0
 51
180.0
  0
ARC
  5
B4C
330
1A
100
AcDbEntity
  8
0
100
AcDbCircle
 10
-416.0518731929584
 20
-500.1321046422974
 30
891.6707597754344
 40
7.0
210
0.0000000000000005
220
0.9205048534524403
230
0.3907311284892737
100
AcDbArc
 50
90.00000000000079
 51
180.0
  0
ARC
  5
B4D
330
1A
100
AcDbEntity
  8
0
 48
0.25
100
AcDbCircle
 10
-452.3018809954857
 20
-492.8821046422966
 30
891.6707597754344
 40
1.0
210
0.0000000000000005
220
0.9205048534524403
230
0.3907311284892737
100
AcDbArc
 50
270.0
 51
90.0
  0
ARC
  5
B4E
330
1A
100
AcDbEntity
  8
0
100
AcDbCircle
 10
-415.3018731929584
 20
-488.8821046422956
 30
891.6707597754344
 40
2.0
210
0.0000000000000005
220
0.9205048534524403
230
0.3907311284892737
100
AcDbArc
 50
180.0
 51
270.0000000000005
  0
LINE
  5
B4F
330
1A
100
AcDbEntity
  8
0
100
AcDbLine
 10
452.3018809954855
 20
1004.7755581872
 30
-85.04574051919032
 11
514.864380995486
 21
1004.7755581872
 31
-85.04574051919032
210
0.0000000000000005
220
0.9205048534524403
230
0.3907311284892737
  0
LINE
  5
B50
330
1A
100
AcDbEntity
  8
0
100
AcDbLine
 10
452.3018809954855
 20
1005.557020444179
 30
-86.88675022609528
 11
514.864380995486
 21
1005.557020444179
 31
-86.88675022609528
210
0.0000000000000005
220
0.9205048534524403
230
0.3907311284892737
  0
LINE
  5
B51
330
1A
100
AcDbEntity
  8
0
100
AcDbLine
 10
452.3018809954855
 20
1007.510676086625
 30
-91.48927449335749
 11
515.176880995486
 21
1007.510676086625
 31
-91.48927449335749
210
0.0000000000000005
220
0.9205048534524403
230
0.3907311284892737
  0
LINE
  5
B52
330
1A
100
AcDbEntity
  8
0
100
AcDbLine
 10
452.3018809954855
 20
1008.292138343604
 30
-93.33028420026222
 11
515.176880995486
 21
1008.292138343604
 31
-93.33028420026222
210
0.0000000000000005
220
0.9205048534524403
230
0.3907311284892737
  0
LINE
  5
B53
330
1A
100
AcDbEntity
  8
0
100
AcDbLine
 10
452.3018809954855
 20
1010.24579398605
 30
-97.93280846752443
 11
515.4893809954855
 21
1010.24579398605
 31
-97.93280846752443
210
0.0000000000000005
220
0.9205048534524403
230
0.3907311284892737
  0
ARC
  5
B54
330
1A
100
AcDbEntity
  8
0
 48
0.25
100
AcDbCircle
 10
-515.1768809954866
 20
-478.8821046422963
 30
891.6707597754344
 40
1.0
210
0.0000000000000005
220
0.9205048534524403
230
0.3907311284892737
100
AcDbArc
 50
90.0
 51
270.0
  0
ARC
  5
B55
330
1A
100
AcDbEntity
  8
0
 48
0.25
100
AcDbCircle
 10
-514.8643809954866
 20
-471.8821046422963
 30
891.6707597754344
 40
1.0
210
0.0000000000000005
220
0.9205048534524403
230
0.3907311284892737
100
AcDbArc
 50
90.0
 51
270.0
  0
LWPOLYLINE
  5
B56
330
1A
100
AcDbEntity
  8
0
100
AcDbPolyline
 90
        8
 70
     1
 43
0.0
 38
885.6444146893405
 10
-319.8018731929575
 20
-469.4786290450809
 10
-334.8018731929573
 20
-469.4786290450808
 42
0.4142135623730951
 10
-336.8018731929573
 20
-471.4786290450807
 10
-336.8018731929573
 20
-479.4786290450807
 42
0.4142135623730951
 10
-334.8018731929573
 20
-481.4786290450809
 10
-319.8018731929575
 20
-481.4786290450809
 42
0.4142135623730951
 10
-317.8018731929575
 20
-479.4786290450808
 10
-317.8018731929575
 20
-471.4786290450807
 42
0.4142135623730984
210
0.0000000000000005
220
0.9205048534524403
230
0.3907311284892737
  0
LWPOLYLINE
  5
B57
330
1A
100
AcDbEntity
  8
0
100
AcDbPolyline
 90
        8
 70
     1
 43
0.0
 38
885.6444146893407
 10
-391.8018731929573
 20
-469.4786290450806
 10
-406.8018731929573
 20
-469.4786290450806
 42
0.4142135623730951
 10
-408.8018731929572
 20
-471.4786290450809
 10
-408.8018731929572
 20
-479.4786290450807
 42
0.4142135623730951
 10
-406.8018731929573
 20
-481.4786290450809
 10
-391.8018731929576
 20
-481.4786290450809
 42
0.4142135623730951
 10
-389.8018731929576
 20
-479.4786290450806
 10
-389.8018731929573
 20
-471.4786290450809
 42
0.4142135623730984
210
0.0000000000000005
220
0.9205048534524403
230
0.3907311284892737
  0
LWPOLYLINE
  5
B58
330
1A
100
AcDbEntity
  8
0
100
AcDbPolyline
 90
        8
 70
     1
 43
0.0
 38
885.6444146893405
 10
-343.8018731929573
 20
-469.4786290450808
 10
-358.8018731929573
 20
-469.4786290450807
 42
0.4142135623730951
 10
-360.8018731929573
 20
-471.4786290450808
 10
-360.8018731929573
 20
-479.4786290450808
 42
0.4142135623730951
 10
-358.8018731929573
 20
-481.4786290450808
 10
-343.8018731929576
 20
-481.4786290450809
 42
0.4142135623730951
 10
-341.8018731929576
 20
-479.4786290450812
 10
-341.8018731929573
 20
-471.478629045081
 42
0.4142135623730984
210
0.0000000000000005
220
0.9205048534524403
230
0.3907311284892737
  0
LWPOLYLINE
  5
B59
330
1A
100
AcDbEntity
  8
0
100
AcDbPolyline
 90
        8
 70
     1
 43
0.0
 38
885.6444146893405
 10
-367.8018731929573
 20
-469.4786290450806
 10
-382.8018731929573
 20
-469.4786290450806
 42
0.4142135623730951
 10
-384.8018731929573
 20
-471.4786290450808
 10
-384.8018731929573
 20
-479.4786290450805
 42
0.4142135623730951
 10
-382.8018731929573
 20
-481.4786290450808
 10
-367.8018731929575
 20
-481.4786290450808
 42
0.4142135623730951
 10
-365.8018731929575
 20
-479.4786290450805
 10
-365.8018731929573
 20
-471.4786290450808
 42
0.4142135623730984
210
0.0000000000000005
220
0.9205048534524403
230
0.3907311284892737
  0
LWPOLYLINE
  5
B5A
330
1A
100
AcDbEntity
  8
0
100
AcDbPolyline
 90
        8
 70
     1
 43
0.0
 38
885.644414689341
 10
-295.8018731929576
 20
-469.3606293439265
 10
-310.8018731929576
 20
-469.3606293439265
 42
0.4142135623730951
 10
-312.8018731929576
 20
-471.3606293439259
 10
-312.8018731929576
 20
-479.3606293439262
 42
0.4142135623730951
 10
-310.8018731929576
 20
-481.3606293439263
 10
-295.8018731929576
 20
-481.3606293439263
 42
0.4142135623730951
 10
-293.8018731929576
 20
-479.3606293439263
 10
-293.8018731929576
 20
-471.3606293439261
 42
0.4142135623730984
210
0.0000000000000005
220
0.9205048534524403
230
0.3907311284892737
  0
ARC
  5
B5B
330
1A
100
AcDbEntity
  8
0
 48
0.25
100
AcDbCircle
 10
-452.3018809954857
 20
-478.8821046422965
 30
891.6707597754344
 40
1.0
210
0.0000000000000005
220
0.9205048534524403
230
0.3907311284892737
100
AcDbArc
 50
270.0
 51
90.0
  0
ARC
  5
B5C
330
1A
100
AcDbEntity
  8
0
100
AcDbCircle
 10
-415.3018731929566
 20
-477.8821046422974
 30
891.6707597754344
 40
2.0
210
0.0000000000000005
220
0.9205048534524403
230
0.3907311284892737
100
AcDbArc
 50
90.00000000000047
 51
179.9999999999939
  0
ARC
  5
B5D
330
1A
100
AcDbEntity
  8
0
100
AcDbCircle
 10
-415.3018731929566
 20
-471.8821046422974
 30
891.6707597754344
 40
2.0
210
0.0000000000000005
220
0.9205048534524403
230
0.3907311284892737
100
AcDbArc
 50
179.9999999999989
 51
270.0000000000005
  0
ARC
  5
B5E
330
1A
100
AcDbEntity
  8
0
100
AcDbCircle
 10
-415.0518731929579
 20
-471.882104642297
 30
891.6707597754344
 40
2.0
210
0.0000000000000005
220
0.9205048534524403
230
0.3907311284892737
100
AcDbArc
 50
180.0
 51
270.0000000000007
  0
ARC
  5
B5F
330
1A
100
AcDbEntity
  8
0
100
AcDbCircle
 10
-415.301873192958
 20
-472.132104642297
 30
891.6707597754344
 40
2.0
210
0.0000000000000005
220
0.9205048534524403
230
0.3907311284892737
100
AcDbArc
 50
179.9999999999989
 51
270.0000000000005
  0
ARC
  5
B60
330
1A
100
AcDbEntity
  8
0
 48
0.25
100
AcDbCircle
 10
-452.3018809954857
 20
-471.8821046422966
 30
891.6707597754344
 40
1.0
210
0.0000000000000005
220
0.9205048534524403
230
0.3907311284892737
100
AcDbArc
 50
270.0
 51
90.0
  0
LINE
  5
B61
330
1A
100
AcDbEntity
  8
0
100
AcDbLine
 10
520.3552309728865
 20
995.2383293054982
 30
-62.57743729482901
 11
520.5863531850414
 21
1000.411993404958
 31
-74.76582610351944
210
0.0000000000000005
220
0.9205048534524403
230
0.3907311284892737
  0
LINE
  5
B62
330
1A
100
AcDbEntity
  8
0
100
AcDbLine
 10
524.2927420088586
 20
993.8258761998804
 30
-59.24990630434492
 11
524.585743965667
 21
1000.384716611109
 31
-74.70156600419797
210
0.0000000000000005
220
0.9205048534524403
230
0.3907311284892737
  0
LINE
  5
B63
330
1A
100
AcDbEntity
  8
0
100
AcDbLine
 10
524.5857439656661
 20
994.384716611109
 30
-74.70156600419763
 11
524.2927390979066
 21
990.8257763657529
 31
-59.24990630434587
  0
LINE
  5
B64
330
1A
100
AcDbEntity
  8
0
100
AcDbLine
 10
524.5857439656661
 20
995.384716611109
 30
-74.70156600419763
 11
524.2927400201165
 21
991.8257792579835
 31
-59.24990630434582
  0
LWPOLYLINE
  5
B65
330
1A
100
AcDbEntity
  8
0
100
AcDbPolyline
 90
        8
 70
     1
 43
0.0
 38
885.644414689341
 10
-391.8018731929576
 20
-446.2426296427723
 10
-406.8018731929575
 20
-446.2426296427724
 42
0.4142135623730951
 10
-408.8018731929575
 20
-448.2426296427724
 10
-408.8018731929575
 20
-456.242629642772
 42
0.4142135623730951
 10
-406.8018731929575
 20
-458.2426296427724
 10
-391.8018731929578
 20
-458.2426296427724
 42
0.4142135623730951
 10
-389.8018731929578
 20
-456.242629642772
 10
-389.8018731929576
 20
-448.2426296427724
 42
0.4142135623730984
210
0.0000000000000005
220
0.9205048534524403
230
0.3907311284892737
  0
LWPOLYLINE
  5
B66
330
1A
100
AcDbEntity
  8
0
100
AcDbPolyline
 90
        8
 70
     1
 43
0.0
 38
885.644414689341
 10
-367.8018731929575
 20
-446.2426296427723
 10
-382.8018731929575
 20
-446.2426296427723
 42
0.4142135623730951
 10
-384.8018731929575
 20
-448.2426296427725
 10
-384.8018731929575
 20
-456.2426296427723
 42
0.4142135623730951
 10
-382.8018731929575
 20
-458.2426296427726
 10
-367.8018731929578
 20
-458.2426296427726
 42
0.4142135623730951
 10
-365.8018731929578
 20
-456.2426296427723
 10
-365.8018731929575
 20
-448.2426296427727
 42
0.4142135623730984
210
0.0000000000000005
220
0.9205048534524403
230
0.3907311284892737
  0
LWPOLYLINE
  5
B67
330
1A
100
AcDbEntity
  8
0
100
AcDbPolyline
 90
        8
 70
     1
 43
0.0
 38
885.644414689341
 10
-295.8018731929578
 20
-446.3606293439261
 10
-310.8018731929578
 20
-446.3606293439261
 42
0.4142135623730951
 10
-312.8018731929578
 20
-448.3606293439263
 10
-312.8018731929578
 20
-456.3606293439259
 42
0.4142135623730951
 10
-310.8018731929578
 20
-458.3606293439264
 10
-295.8018731929578
 20
-458.3606293439264
 42
0.4142135623730951
 10
-293.8018731929578
 20
-456.3606293439264
 10
-293.8018731929578
 20
-448.3606293439263
 42
0.4142135623730984
210
0.0000000000000005
220
0.9205048534524403
230
0.3907311284892737
  0
LINE
  5
B68
330
1A
100
AcDbEntity
  8
0
100
AcDbLine
 10
452.3018809954855
 20
999.3053223883507
 30
-72.15867257085621
 11
514.239380995486
 21
999.3053223883507
 31
-72.15867257085621
210
0.0000000000000005
220
0.9205048534524403
230
0.3907311284892737
  0
LINE
  5
B69
330
1A
100
AcDbEntity
  8
0
100
AcDbLine
 10
452.3018809954855
 20
1000.086784645329
 30
-73.99968227776096
 11
514.239380995486
 21
1000.086784645329
 31
-73.99968227776096
210
0.0000000000000005
220
0.9205048534524403
230
0.3907311284892737
  0
LINE
  5
B6A
330
1A
100
AcDbEntity
  8
0
100
AcDbLine
 10
452.3018809954855
 20
1002.040440287776
 30
-78.60220654502315
 11
514.551880995486
 21
1002.040440287776
 31
-78.60220654502315
210
0.0000000000000005
220
0.9205048534524403
230
0.3907311284892737
  0
LINE
  5
B6B
330
1A
100
AcDbEntity
  8
0
100
AcDbLine
 10
452.3018809954855
 20
1002.821902544754
 30
-80.44321625192813
 11
514.551880995486
 21
1002.821902544754
 31
-80.44321625192813
210
0.0000000000000005
220
0.9205048534524403
230
0.3907311284892737
  0
ARC
  5
B6C
330
1A
100
AcDbEntity
  8
0
 48
0.25
100
AcDbCircle
 10
-514.5518809954865
 20
-464.8821046422963
 30
891.6707597754344
 40
1.0
210
0.0000000000000005
220
0.9205048534524403
230
0.3907311284892737
100
AcDbArc
 50
90.0
 51
270.0
  0
ARC
  5
B6D
330
1A
100
AcDbEntity
  8
0
 48
0.25
100
AcDbCircle
 10
-514.2393809954866
 20
-457.8821046422963
 30
891.6707597754344
 40
1.0
210
0.0000000000000005
220
0.9205048534524403
230
0.3907311284892737
100
AcDbArc
 50
90.0
 51
270.0
  0
ARC
  5
B6E
330
1A
100
AcDbEntity
  8
0
 48
0.25
100
AcDbCircle
 10
-452.3018809954857
 20
-464.8821046422965
 30
891.6707597754344
 40
1.0
210
0.0000000000000005
220
0.9205048534524403
230
0.3907311284892737
100
AcDbArc
 50
270.0
 51
90.0
  0
ARC
  5
B6F
330
1A
100
AcDbEntity
  8
0
 48
0.25
100
AcDbCircle
 10
-452.3018809954857
 20
-457.8821046422965
 30
891.6707597754344
 40
1.0
210
0.0000000000000005
220
0.9205048534524403
230
0.3907311284892737
100
AcDbArc
 50
270.0
 51
90.0
  0
LINE
  5
B70
330
1A
100
AcDbEntity
  8
0
100
AcDbLine
 10
452.3018809954855
 20
994.6165488464794
 30
-61.11261432942685
 11
513.614380995486
 21
994.6165488464794
 31
-61.11261432942685
210
0.0000000000000005
220
0.9205048534524403
230
0.3907311284892737
  0
LINE
  5
B71
330
1A
100
AcDbEntity
  8
0
100
AcDbLine
 10
452.3018809954855
 20
996.5702044889258
 30
-65.71513859668904
 11
513.926880995486
 21
996.5702044889258
 31
-65.71513859668904
210
0.0000000000000005
220
0.9205048534524403
230
0.3907311284892737
  0
LINE
  5
B72
330
1A
100
AcDbEntity
  8
0
100
AcDbLine
 10
452.3018809954855
 20
993.8350865895008
 30
-59.27160462252188
 11
513.614380995486
 21
993.8350865895008
 31
-59.27160462252188
210
0.0000000000000005
220
0.9205048534524403
230
0.3907311284892737
  0
LINE
  5
B73
330
1A
100
AcDbEntity
  8
0
100
AcDbLine
 10
452.3018809954855
 20
997.3516667459044
 30
-67.55614830359402
 11
513.926880995486
 21
997.3516667459044
 31
-67.55614830359402
210
0.0000000000000005
220
0.9205048534524403
230
0.3907311284892737
  0
ARC
  5
B74
330
1A
100
AcDbEntity
  8
0
 48
0.25
100
AcDbCircle
 10
-513.9268809954866
 20
-450.8821046422965
 30
891.6707597754344
 40
1.0
210
0.0000000000000005
220
0.9205048534524403
230
0.3907311284892737
100
AcDbArc
 50
90.0
 51
270.0
  0
ARC
  5
B75
330
1A
100
AcDbEntity
  8
0
 48
0.25
100
AcDbCircle
 10
-513.6143809954866
 20
-443.8821046422966
 30
891.6707597754344
 40
1.0
210
0.0000000000000005
220
0.9205048534524403
230
0.3907311284892737
100
AcDbArc
 50
90.0
 51
270.0
  0
ARC
  5
B76
330
1A
100
AcDbEntity
  8
0
 48
0.25
100
AcDbCircle
 10
-452.3018809954857
 20
-450.8821046422965
 30
891.6707597754344
 40
1.0
210
0.0000000000000005
220
0.9205048534524403
230
0.3907311284892737
100
AcDbArc
 50
270.0
 51
90.0
  0
ARC
  5
B77
330
1A
100
AcDbEntity
  8
0
 48
0.25
100
AcDbCircle
 10
-452.3018809954857
 20
-443.8821046422966
 30
891.6707597754344
 40
1.0
210
0.0000000000000005
220
0.9205048534524403
230
0.3907311284892737
100
AcDbArc
 50
270.0
 51
90.0
  0
LINE
  5
B78
330
1A
100
AcDbEntity
  8
0
100
AcDbLine
 10
281.0518731929601
 20
1005.16628931569
 30
-85.96624537264302
 11
281.0518731929583
 21
994.2258177179908
 31
-60.19210947597527
210
0.0000000000000005
220
0.9205048534524403
230
0.3907311284892737
  0
LINE
  5
B79
330
1A
100
AcDbEntity
  8
0
100
AcDbLine
 10
280.8018731929587
 20
1005.16628931569
 30
-85.96624537264302
 11
280.8018731929569
 21
994.0304521537457
 31
-59.73185704924823
210
0.0000000000000005
220
0.9205048534524403
230
0.3907311284892737
  0
LINE
  5
B7A
330
1A
100
AcDbEntity
  8
0
100
AcDbLine
 10
280.8018731929601
 20
1005.263972097812
 30
-86.19637158600564
 11
280.8018731929583
 21
994.128134935868
 31
-59.96198326261084
210
0.0000000000000005
220
0.9205048534524403
230
0.3907311284892737
  0
LINE
  5
B7B
330
1A
100
AcDbEntity
  8
0
100
AcDbLine
 10
280.8018731929569
 20
1007.510676086626
 30
-91.4892744933577
 11
280.8018731929569
 21
1011.808718500008
 31
-101.6148278813343
210
0.0000000000000005
220
0.9205048534524403
230
0.3907311284892737
  0
ARC
  5
B7C
330
1A
100
AcDbEntity
  8
0
100
AcDbCircle
 10
-283.3644028138185
 20
-504.8821046422957
 30
891.6707597754344
 40
12.0
210
0.0000000000000005
220
0.9205048534524403
230
0.3907311284892737
100
AcDbArc
 50
19.61597913540472
 51
90.0
  0
ARC
  5
B7D
330
1A
100
AcDbEntity
  8
0
 48
0.25
100
AcDbCircle
 10
-283.5258366619056
 20
-505.1321046422956
 30
891.6707597754344
 40
12.0
210
0.0000000000000005
220
0.9205048534524403
230
0.3907311284892737
100
AcDbArc
 50
19.39888991009719
 51
90.00000000000072
  0
ARC
  5
B7E
330
1A
100
AcDbEntity
  8
0
100
AcDbCircle
 10
-282.8018731929566
 20
-488.8821046422956
 30
891.6707597754344
 40
2.0
210
0.0000000000000005
220
0.9205048534524403
230
0.3907311284892737
100
AcDbArc
 50
270.0000000000005
 51
0.0
  0
ARC
  5
B7F
330
1A
100
AcDbEntity
  8
0
100
AcDbCircle
 10
-282.8018731929566
 20
-477.8821046422956
 30
891.6707597754344
 40
2.0
210
0.0000000000000005
220
0.9205048534524403
230
0.3907311284892737
100
AcDbArc
 50
0.0
 51
90.00000000000047
  0
ARC
  5
B80
330
1A
100
AcDbEntity
  8
0
100
AcDbCircle
 10
-282.8018731929585
 20
-471.8821046422956
 30
891.6707597754344
 40
2.0
210
0.0000000000000005
220
0.9205048534524403
230
0.3907311284892737
100
AcDbArc
 50
270.0000000000005
 51
359.9999999999988
  0
ARC
  5
B81
330
1A
100
AcDbEntity
  8
0
100
AcDbCircle
 10
-283.0518731929598
 20
-471.8821046422951
 30
891.6707597754344
 40
2.0
210
0.0000000000000005
220
0.9205048534524403
230
0.3907311284892737
100
AcDbArc
 50
270.0000000000007
 51
359.9999999999964
  0
ARC
  5
B82
330
1A
100
AcDbEntity
  8
0
100
AcDbCircle
 10
-282.8018731929598
 20
-472.1321046422952
 30
891.6707597754344
 40
2.0
210
0.0000000000000005
220
0.9205048534524403
230
0.3907311284892737
100
AcDbArc
 50
270.0000000000005
 51
359.9999999999988
  0
LINE
  5
B83
330
1A
100
AcDbEntity
  8
0
100
AcDbLine
 10
273.2326833261404
 20
995.5929047764005
 30
-63.41276475681685
 11
273.0174010034043
 21
1000.411993404957
 31
-74.76582610351603
210
0.0000000000000005
220
0.9205048534524403
230
0.3907311284892737
  0
LINE
  5
B84
330
1A
100
AcDbEntity
  8
0
100
AcDbLine
 10
269.3018731929587
 20
994.0304521537466
 30
-59.73185704924983
 11
269.0180102227787
 21
1000.384716611109
 31
-74.70156600419615
210
0.0000000000000005
220
0.9205048534524403
230
0.3907311284892737
  0
LINE
  5
BF3
330
1A
100
AcDbEntity
  8
0
100
AcDbLine
 10
288.720372370999
 20
517.1497536877359
 30
0.0
 11
339.1903391770774
 21
517.1497536877395
 31
0.0
  0
LINE
  5
BF4
330
1A
100
AcDbEntity
  8
0
100
AcDbLine
 10
287.7263447068271
 20
518.6497536877396
 30
0.0
 11
299.044861232609
 21
518.6497536877396
 31
0.0
  0
LINE
  5
BF8
330
1A
100
AcDbEntity
  8
0
100
AcDbLine
 10
296.4391426066204
 20
512.310064742547
 30
0.0
 11
291.7790685781455
 21
513.131761525874
 31
0.0
  0
LINE
  5
BF9
330
1A
100
AcDbEntity
  8
0
100
AcDbLine
 10
287.7263447068271
 20
522.6497536877396
 30
0.0
 11
507.726344706827
 21
522.6497536877396
 31
0.0
  0
LINE
  5
BFA
330
1A
100
AcDbEntity
  8
0
100
AcDbLine
 10
243.2185340079031
 20
595.1497536877395
 30
0.0
 11
550.2185340079031
 21
595.1497536877395
 31
0.0
  0
LINE
  5
BFB
330
1A
100
AcDbEntity
  8
0
100
AcDbLine
 10
231.7185340079031
 20
540.1497536877395
 30
0.0
 11
561.7185340079031
 21
540.1497536877395
 31
0.0
  0
LINE
  5
BFC
330
1A
100
AcDbEntity
  8
0
100
AcDbLine
 10
521.774165950364
 20
973.3249541135583
 30
-43.11698143494022
 11
519.3330208493748
 21
951.4045469225324
 31
-8.751149680899985
  0
LINE
  5
BFD
330
1A
100
AcDbEntity
  8
0
 48
0.25
100
AcDbLine
 10
519.3622349975153
 20
951.491594409796
 30
-24.12716443980396
 11
518.7114237798255
 21
971.218260690904
 31
-39.81419751634566
  0
ARC
  5
BFE
330
1A
100
AcDbEntity
  8
0
100
AcDbCircle
 10
-415.3018731929566
 20
-425.3821046422975
 30
891.6707597754344
 40
2.0
210
0.0000000000000005
220
0.9205048534524403
230
0.3907311284892737
100
AcDbArc
 50
90.00000000000047
 51
179.9999999999988
  0
ARC
  5
BFF
330
1A
100
AcDbEntity
  8
0
100
AcDbCircle
 10
-415.0518731929579
 20
-425.8821046422971
 30
891.6707597754344
 40
2.0
210
0.0000000000000005
220
0.9205048534524403
230
0.3907311284892737
100
AcDbArc
 50
90.00000000000088
 51
180.0
  0
ARC
  5
C00
330
1A
100
AcDbEntity
  8
0
100
AcDbCircle
 10
-415.301873192958
 20
-425.632104642298
 30
891.6707597754344
 40
2.0
210
0.0000000000000005
220
0.9205048534524403
230
0.3907311284892737
100
AcDbArc
 50
90.00000000000047
 51
179.9999999999988
  0
LINE
  5
C01
330
1A
100
AcDbEntity
  8
0
100
AcDbLine
 10
452.3018809954855
 20
991.0999686900758
 30
-52.82807064835494
 11
513.3018809954864
 21
991.0999686900758
 31
-52.82807064835494
210
0.0000000000000005
220
0.9205048534524403
230
0.3907311284892737
  0
LINE
  5
C02
330
1A
100
AcDbEntity
  8
0
100
AcDbLine
 10
452.3018809954855
 20
991.8814309470544
 30
-54.66908035525968
 11
513.3018809954864
 21
991.8814309470544
 31
-54.66908035525968
210
0.0000000000000005
220
0.9205048534524403
230
0.3907311284892737
  0
ARC
  5
C03
330
1A
100
AcDbEntity
  8
0
 48
0.25
100
AcDbCircle
 10
-513.3018809954871
 20
-436.8821046422976
 30
891.6707597754344
 40
1.0
210
0.0000000000000005
220
0.9205048534524403
230
0.3907311284892737
100
AcDbArc
 50
90.0
 51
270.0
  0
ARC
  5
C04
330
1A
100
AcDbEntity
  8
0
 48
0.25
100
AcDbCircle
 10
-452.3018809954857
 20
-436.8821046422966
 30
891.6707597754344
 40
1.0
210
0.0000000000000005
220
0.9205048534524403
230
0.3907311284892737
100
AcDbArc
 50
270.0
 51
90.0
  0
LINE
  5
C05
330
1A
100
AcDbEntity
  8
0
100
AcDbLine
 10
301.0518731929583
 20
986.4111951482046
 30
-41.78201240692511
 11
415.0518731929578
 21
986.4111951482055
 31
-41.78201240692693
210
0.0000000000000005
220
0.9205048534524403
230
0.3907311284892737
  0
LINE
  5
C06
330
1A
100
AcDbEntity
  8
0
100
AcDbLine
 10
299.3018731929583
 20
985.4343673269822
 30
-39.48075027329629
 11
426.8018731929583
 21
985.4343673269818
 31
-39.48075027329539
210
0.0000000000000005
220
0.9205048534524403
230
0.3907311284892737
  0
LINE
  5
C07
330
1A
100
AcDbEntity
  8
0
100
AcDbLine
 10
300.8018731929565
 20
986.2158295839599
 30
-41.32175998019945
 11
415.3018731929564
 21
986.2158295839604
 31
-41.32175998020012
210
0.0000000000000005
220
0.9205048534524403
230
0.3907311284892737
  0
LINE
  5
C08
330
1A
100
AcDbEntity
  8
0
100
AcDbLine
 10
300.8018731929578
 20
986.3135123660827
 30
-41.55188619356296
 11
415.3018731929578
 21
986.3135123660832
 31
-41.55188619356387
210
0.0000000000000005
220
0.9205048534524403
230
0.3907311284892737
  0
LINE
  5
C09
330
1A
100
AcDbEntity
  8
0
100
AcDbLine
 10
427.3018809954869
 20
985.4343673269813
 30
-39.48075027329448
 11
494.1123300942035
 21
985.4343673269813
 31
-39.48075027329448
210
0.0000000000000005
220
0.9205048534524403
230
0.3907311284892737
  0
LINE
  5
C0A
330
1A
100
AcDbEntity
  8
0
100
AcDbLine
 10
299.3018731929583
 20
982.3085182990681
 30
-32.11671144567664
 11
426.8018731929583
 21
982.3085182990675
 31
-32.11671144567573
210
0.0000000000000005
220
0.9205048534524403
230
0.3907311284892737
  0
LINE
  5
C0B
330
1A
100
AcDbEntity
  8
0
100
AcDbLine
 10
455.9052835182142
 20
966.3084449536587
 30
-32.11671144567591
 11
299.1356326029122
 21
966.3085967734874
 31
-32.11671144567591
  0
LINE
  5
C0C
330
1A
100
AcDbEntity
  8
0
 48
0.25
100
AcDbLine
 10
428.4030650351933
 20
979.3083814791184
 30
-32.11671144567591
 11
428.4030650351933
 21
982.3084868772948
 31
-32.11671144567591
  0
LINE
  5
C0D
330
1A
100
AcDbEntity
  8
0
 48
0.25
100
AcDbLine
 10
455.9052835182142
 20
966.975179527612
 30
-32.11671144567591
 11
455.9052835182142
 21
959.832561269231
 31
-32.11671144567591
  0
LINE
  5
C0E
330
1A
100
AcDbEntity
  8
0
 48
0.25
100
AcDbLine
 10
462.9052835182142
 20
966.975179527612
 30
-32.11671144567591
 11
462.9052835182142
 21
959.8325612692319
 31
-32.11671144567591
  0
LINE
  5
C0F
330
1A
100
AcDbEntity
  8
0
 48
0.25
100
AcDbLine
 10
462.9052835182142
 20
966.975179527612
 30
-32.11671144567591
 11
455.9052835182142
 21
966.975179527612
 31
-32.11671144567591
  0
LINE
  5
C10
330
1A
100
AcDbEntity
  8
0
100
AcDbLine
 10
426.8018731929583
 20
982.6992494275568
 30
-33.03721629912822
 11
427.3018731929583
 21
982.6992494275568
 31
-33.03721629912822
210
0.0000000000000005
220
0.9205048534524403
230
0.3907311284892737
  0
ELLIPSE
  5
C11
330
1A
100
AcDbEntity
  8
0
 48
0.25
100
AcDbEllipse
 10
459.4052835182142
 20
959.8325612692319
 30
-32.11671144567591
 11
0.0
 21
-7.142618258379116
 31
0.0
210
0.0
220
0.0
230
1.0
 40
0.4900163880232709
 41
4.712388980384689
 42
7.853981633974482
  0
LINE
  5
C12
330
1A
100
AcDbEntity
  8
0
100
AcDbLine
 10
470.6317689607208
 20
968.5504193944963
 30
-32.11671144567591
 11
299.1357119675845
 21
968.5505854757616
 31
-32.11671144567591
  0
LINE
  5
C13
330
1A
100
AcDbEntity
  8
0
100
AcDbLine
 10
494.2972374369373
 20
979.3084184650055
 30
-32.11671144567591
 11
299.1401958860097
 21
979.3085984402555
 31
-32.11671144567591
  0
LINE
  5
C14
330
1A
100
AcDbEntity
  8
0
100
AcDbLine
 10
494.2972308335529
 20
966.3084067796853
 30
-32.11671144567591
 11
462.9052835182142
 21
966.3084379934021
 31
-32.11671144567591
  0
LINE
  5
C15
330
1A
100
AcDbEntity
  8
0
100
AcDbLine
 10
494.2972330047532
 20
968.5503956633079
 30
-32.11671144567591
 11
462.9052856894145
 21
968.5504268770246
 31
-32.11671144567591
  0
LINE
  5
C16
330
1A
100
AcDbEntity
  8
0
100
AcDbLine
 10
427.3018809954869
 20
982.3085182990675
 30
-32.11671144567505
 11
494.2973111541659
 21
982.3085182990675
 31
-32.11671144567505
210
0.0000000000000005
220
0.9205048534524403
230
0.3907311284892737
  0
LINE
  5
C17
330
1A
100
AcDbEntity
  8
0
100
AcDbLine
 10
494.2972328222122
 20
980.3084213572461
 30
-32.11671144567591
 11
428.4030650351933
 21
980.3084868772934
 31
-32.11671144567591
  0
ARC
  5
C18
330
1A
100
AcDbEntity
  8
0
100
AcDbCircle
 10
536.2101061045704
 20
525.6497536877393
 30
0.0
 40
3.0
100
AcDbArc
 50
269.9999999999999
 51
341.9999999999999
  0
LINE
  5
C76
330
1A
100
AcDbEntity
  8
0
100
AcDbLine
 10
496.4078281810452
 20
518.6497536877396
 30
0.0
 11
508.2185340078957
 21
518.6497536877396
 31
0.0
  0
LINE
  5
C7D
330
1A
100
AcDbEntity
  8
0
100
AcDbLine
 10
507.726344706827
 20
522.6497536877396
 30
0.0
 11
536.8929971072593
 21
522.6497536877396
 31
0.0
  0
ARC
  5
C7E
330
1A
100
AcDbEntity
  8
0
100
AcDbCircle
 10
525.726344706827
 20
519.1497536877393
 30
0.0
 40
2.0
100
AcDbArc
 50
345.522487814191
 51
0.0
  0
LINE
  5
C7F
330
1A
100
AcDbEntity
  8
0
100
AcDbLine
 10
527.7263447068271
 20
522.6497536877396
 30
0.0
 11
527.7263447068271
 21
519.1497536877395
 31
0.0
  0
LINE
  5
CA1
330
1A
100
AcDbEntity
  8
0
100
AcDbLine
 10
525.2185340079104
 20
518.6497536877468
 30
0.0
 11
527.6628363799336
 21
518.6497536877432
 31
0.0
  0
LINE
  5
CC4
330
1A
100
AcDbEntity
  8
0
100
AcDbLine
 10
504.7166956448144
 20
517.1497536877431
 30
0.0
 11
454.077381034638
 21
517.1497536877395
 31
0.0
  0
LINE
  5
CC5
330
1A
100
AcDbEntity
  8
0
100
AcDbLine
 10
496.2681451030747
 20
522.6497536877396
 30
0.0
 11
496.4078281810452
 21
518.6497536877396
 31
0.0
  0
ARC
  5
CC6
330
1A
100
AcDbEntity
  8
0
100
AcDbCircle
 10
454.2467288387286
 20
514.1497536877393
 30
0.0
 40
3.0
100
AcDbArc
 50
89.99999999999984
 51
176.9999999999983
  0
LINE
  5
CC7
330
1A
100
AcDbEntity
  8
0
100
AcDbLine
 10
451.2508402344628
 20
514.3067615564687
 30
0.0
 11
450.7185340079031
 21
504.1497536877395
 31
0.0
  0
ARC
  5
CC8
330
1A
100
AcDbEntity
  8
0
100
AcDbCircle
 10
443.1903391770773
 20
514.1497536877393
 30
0.0
 40
3.0
100
AcDbArc
 50
2.999999999997191
 51
90.0
  0
LINE
  5
CC9
330
1A
100
AcDbEntity
  8
0
100
AcDbLine
 10
446.1862277813433
 20
514.3067615564651
 30
0.0
 11
446.7185340079031
 21
504.1497536877395
 31
0.0
  0
LINE
  5
CCA
330
1A
100
AcDbEntity
  8
0
100
AcDbLine
 10
446.2419964328964
 20
513.2426322932369
 30
0.0
 11
451.1950715829025
 21
513.2426322932369
 31
0.0
  0
LINE
  5
CCB
330
1A
100
AcDbEntity
  8
0
100
AcDbLine
 10
450.7185340079031
 20
504.1497536877395
 30
0.0
 11
494.1889414920547
 21
511.8147593895804
 31
0.0
  0
LINE
  5
CD5
330
1A
100
AcDbEntity
  8
0
100
AcDbLine
 10
505.2626509961937
 20
518.6497536876959
 30
0.0
 11
503.9561327670107
 21
515.0601243548917
 31
0.0
  0
ARC
  5
CD6
330
1A
100
AcDbEntity
  8
0
100
AcDbCircle
 10
501.1370549046495
 20
516.0861847848679
 30
0.0
 40
3.0
100
AcDbArc
 50
279.9999999999768
 51
339.9999999999772
  0
LINE
  5
CD7
330
1A
100
AcDbEntity
  8
0
100
AcDbLine
 10
494.1889414920547
 20
511.8147650895337
 30
0.0
 11
501.6579994376534
 21
513.1317615258303
 31
0.0
  0
LINE
  5
CD8
330
1A
100
AcDbEntity
  8
0
100
AcDbLine
 10
342.7185340079031
 20
504.1497536877395
 30
0.0
 11
397.7263447068271
 21
504.1497536877395
 31
0.0
  0
LINE
  5
CD9
330
1A
100
AcDbEntity
  8
0
100
AcDbLine
 10
299.1844592194192
 20
522.6473169958153
 30
0.0
 11
299.044861232609
 21
518.6497536877396
 31
0.0
  0
ARC
  5
CDA
330
1A
100
AcDbEntity
  8
0
100
AcDbCircle
 10
422.7467288387287
 20
514.1497536877393
 30
0.0
 40
3.0
100
AcDbArc
 50
90.0
 51
176.9999999999983
  0
LINE
  5
CDB
330
1A
100
AcDbEntity
  8
0
100
AcDbLine
 10
419.7508402344628
 20
514.3067615564687
 30
0.0
 11
419.218534007903
 21
504.1497536877395
 31
0.0
  0
ARC
  5
CDC
330
1A
100
AcDbEntity
  8
0
100
AcDbCircle
 10
411.6903391770773
 20
514.1497536877393
 30
0.0
 40
3.0
100
AcDbArc
 50
3.000000000001667
 51
90.0
  0
LINE
  5
CDD
330
1A
100
AcDbEntity
  8
0
100
AcDbLine
 10
414.6862277813433
 20
514.3067615564687
 30
0.0
 11
415.218534007903
 21
504.1497536877395
 31
0.0
  0
LINE
  5
CDE
330
1A
100
AcDbEntity
  8
0
100
AcDbLine
 10
381.7467288387287
 20
517.1497536877395
 30
0.0
 11
411.6903391770774
 21
517.1497536877395
 31
0.0
  0
ARC
  5
CDF
330
1A
100
AcDbEntity
  8
0
100
AcDbCircle
 10
381.7467288387287
 20
514.1497536877393
 30
0.0
 40
3.0
100
AcDbArc
 50
90.0
 51
176.9999999999981
  0
LINE
  5
CE0
330
1A
100
AcDbEntity
  8
0
100
AcDbLine
 10
378.7508402344628
 20
514.3067615564687
 30
0.0
 11
378.2185340079031
 21
504.1497536877395
 31
0.0
  0
ARC
  5
CE1
330
1A
100
AcDbEntity
  8
0
100
AcDbCircle
 10
370.6903391770774
 20
514.1497536877393
 30
0.0
 40
3.0
100
AcDbArc
 50
3.000000000001667
 51
90.0
  0
LINE
  5
CE2
330
1A
100
AcDbEntity
  8
0
100
AcDbLine
 10
373.6862277813433
 20
514.3067615564687
 30
0.0
 11
374.2185340079031
 21
504.1497536877395
 31
0.0
  0
LINE
  5
CE3
330
1A
100
AcDbEntity
  8
0
100
AcDbLine
 10
350.2467288387288
 20
517.1497536877395
 30
0.0
 11
370.6903391770774
 21
517.1497536877395
 31
0.0
  0
ARC
  5
CE4
330
1A
100
AcDbEntity
  8
0
100
AcDbCircle
 10
350.2467288387288
 20
514.1497536877393
 30
0.0
 40
3.0
100
AcDbArc
 50
90.0
 51
176.9999999999986
  0
LINE
  5
CE5
330
1A
100
AcDbEntity
  8
0
100
AcDbLine
 10
347.2508402344628
 20
514.3067615564687
 30
0.0
 11
346.7185340079031
 21
504.1497536877395
 31
0.0
  0
ARC
  5
CE6
330
1A
100
AcDbEntity
  8
0
100
AcDbCircle
 10
339.1903391770774
 20
514.1497536877393
 30
0.0
 40
3.0
100
AcDbArc
 50
3.000000000001667
 51
90.0
  0
LINE
  5
CE7
330
1A
100
AcDbEntity
  8
0
100
AcDbLine
 10
342.1862277813433
 20
514.3067615564687
 30
0.0
 11
342.7185340079031
 21
504.1497536877395
 31
0.0
  0
LINE
  5
CE8
330
1A
100
AcDbEntity
  8
0
100
AcDbLine
 10
342.7185340079031
 20
504.1497536877395
 30
0.0
 11
305.823403757613
 21
510.6553606076341
 31
0.0
  0
LINE
  5
CE9
330
1A
100
AcDbEntity
  8
0
100
AcDbLine
 10
342.2419964328964
 20
513.2426322932369
 30
0.0
 11
347.1950715829097
 21
513.2426322932369
 31
0.0
  0
LINE
  5
CEA
330
1A
100
AcDbEntity
  8
0
100
AcDbLine
 10
414.7419964328964
 20
513.2426322932369
 30
0.0
 11
419.6950715829097
 21
513.2426322932369
 31
0.0
  0
LINE
  5
CEB
330
1A
100
AcDbEntity
  8
0
100
AcDbLine
 10
373.7419964328964
 20
513.2426322932369
 30
0.0
 11
378.6950715829097
 21
513.2426322932369
 31
0.0
  0
LINE
  5
CF4
330
1A
100
AcDbEntity
  8
0
100
AcDbLine
 10
342.7185340079031
 20
504.1497593877429
 30
0.0
 11
296.4391426066204
 21
512.3100647425568
 31
0.0
  0
LINE
  5
CF5
330
1A
100
AcDbEntity
  8
0
100
AcDbLine
 10
397.7263447068271
 20
504.1497536877395
 30
0.0
 11
450.7185340079031
 21
504.1497536877395
 31
0.0
  0
LINE
  5
CF6
330
1A
100
AcDbEntity
  8
0
100
AcDbLine
 10
422.7467288387287
 20
517.1497536877395
 30
0.0
 11
443.1903391770774
 21
517.1497536877395
 31
0.0
  0
LINE
  5
CF7
330
1A
100
AcDbEntity
  8
0
 48
0.25
100
AcDbLine
 10
416.7185340079051
 20
795.6934206996166
 30
-0.0000000000000142
 11
416.718534007906
 21
595.1497536877395
 31
0.0
  0
LINE
  5
CF8
330
1A
100
AcDbEntity
  8
0
 48
0.25
100
AcDbLine
 10
376.7185340079013
 20
794.7170960719898
 30
-0.0000000000000142
 11
376.7185340079006
 21
595.1497536877395
 31
0.0
  0
LINE
  5
CF9
330
1A
100
AcDbEntity
  8
0
100
AcDbLine
 10
544.0758283726554
 20
540.1497536877395
 30
0.0
 11
539.063275653456
 21
524.7227027046137
 31
0.0
  0
ARC
  5
CFA
330
1A
100
AcDbEntity
  8
0
100
AcDbCircle
 10
550.2185340079031
 20
583.649753687743
 30
0.0
 40
11.5
100
AcDbArc
 50
0.0
 51
90.00000000000003
  0
LINE
  5
CFB
330
1A
100
AcDbEntity
  8
0
100
AcDbLine
 10
561.7185340079031
 20
583.6497536877395
 30
0.0
 11
561.7185340079031
 21
540.1497536877395
 31
0.0
  0
LINE
  5
CFC
330
1A
100
AcDbEntity
  8
0
 48
0.25
100
AcDbLine
 10
441.5578009731366
 20
934.2503110978567
 30
-0.0000000000000142
 11
436.7185340079027
 21
887.6453605524059
 31
-0.0000000000000142
  0
LINE
  5
CFD
330
1A
100
AcDbEntity
  8
0
 48
0.25
100
AcDbLine
 10
423.6578009731356
 20
934.2503110978567
 30
-0.0000000000000142
 11
418.8185340079021
 21
887.6453605524059
 31
-0.0000000000000142
  0
LINE
  5
CFE
330
1A
100
AcDbEntity
  8
0
 48
0.25
100
AcDbLine
 10
401.7185340079026
 20
874.6453605524063
 30
-0.0000000000000142
 11
401.7185340079049
 21
941.2503062327004
 31
-0.0000000000000142
  0
LINE
  5
CFF
330
1A
100
AcDbEntity
  8
0
 48
0.25
100
AcDbLine
 10
400.2185340079027
 20
874.6453605524063
 30
-0.0000000000000142
 11
400.218534007905
 21
941.250307692254
 31
-0.0000000000000142
  0
LINE
  5
D00
330
1A
100
AcDbEntity
  8
0
 48
0.25
100
AcDbLine
 10
397.4685340079027
 20
874.6453605524063
 30
-0.0000000000000142
 11
397.468534007905
 21
941.2503103681016
 31
-0.0000000000000142
  0
LINE
  5
D01
330
1A
100
AcDbEntity
  8
0
 48
0.25
100
AcDbLine
 10
395.9685340079036
 20
874.6453605524063
 30
-0.0000000000000142
 11
395.9685340079036
 21
941.250311827655
 31
-0.0000000000000142
  0
LINE
  5
D02
330
1A
100
AcDbEntity
  8
0
 48
0.25
100
AcDbLine
 10
393.2185340079036
 20
874.6453605524063
 30
-0.0000000000000142
 11
393.2185340079036
 21
941.2503145035028
 31
-0.0000000000000142
  0
LINE
  5
D03
330
1A
100
AcDbEntity
  8
0
 48
0.25
100
AcDbLine
 10
391.7185340079027
 20
874.6453605524063
 30
-0.0000000000000142
 11
391.7185340079045
 21
941.2503159630562
 31
-0.0000000000000142
  0
LINE
  5
D04
330
1A
100
AcDbEntity
  8
0
 48
0.25
100
AcDbLine
 10
369.7792670426716
 20
934.2503110978567
 30
-0.0000000000000142
 11
374.6185340079033
 21
887.6453605524064
 31
-0.0000000000000142
  0
LINE
  5
D05
330
1A
100
AcDbEntity
  8
0
 48
0.25
100
AcDbLine
 10
351.8792670426733
 20
934.2503110978567
 30
-0.0000000000000142
 11
356.7185340079018
 21
887.6453605524064
 31
-0.0000000000000142
  0
LINE
  5
D06
330
1A
100
AcDbEntity
  8
0
 48
0.25
100
AcDbLine
 10
416.8185340079021
 20
874.6453605524063
 30
-0.0000000000000142
 11
376.6185340079033
 21
874.6453605524063
 31
-0.0000000000000142
  0
ARC
  5
D07
330
1A
100
AcDbEntity
  8
0
 48
0.25
100
AcDbCircle
 10
414.8185340079021
 20
846.6453605524062
 30
-0.0000000000000142
 40
2.0
100
AcDbArc
 50
341.8051276612387
 51
0.0
  0
LINE
  5
D08
330
1A
100
AcDbEntity
  8
0
 48
0.25
100
AcDbLine
 10
416.8185340079021
 20
887.6453605524059
 30
-0.0000000000000142
 11
416.8185340079021
 21
846.6453605524058
 31
-0.0000000000000142
  0
LINE
  5
D09
330
1A
100
AcDbEntity
  8
0
 48
0.25
100
AcDbLine
 10
419.2185340079026
 20
842.8453605524062
 30
-0.0000000000000142
 11
419.2185340079026
 21
887.645360552405
 31
-0.0000000000000142
  0
LINE
  5
D0A
330
1A
100
AcDbEntity
  8
0
 48
0.25
100
AcDbLine
 10
438.2185340079018
 20
843.8323757578993
 30
-0.0000000000000142
 11
438.2185340079026
 21
891.858345346913
 31
-0.0000000000000142
  0
LINE
  5
D0B
330
1A
100
AcDbEntity
  8
0
 48
0.25
100
AcDbLine
 10
438.7185340079035
 20
845.3453605524057
 30
-0.0000000000000142
 11
438.7185340079026
 21
890.3453605524061
 31
-0.0000000000000142
  0
LINE
  5
D0C
330
1A
100
AcDbEntity
  8
0
 48
0.25
100
AcDbLine
 10
437.7316873489458
 20
843.332548798223
 30
-0.0000000000000142
 11
419.2185340079026
 21
842.8453605524062
 31
-0.0000000000000142
  0
ARC
  5
D0D
330
1A
100
AcDbEntity
  8
0
 48
0.25
100
AcDbCircle
 10
438.2185340079035
 20
845.3453605524055
 30
-0.0000000000000142
 40
0.5
100
AcDbArc
 50
270.0
 51
0.0
  0
ARC
  5
D0E
330
1A
100
AcDbEntity
  8
0
 48
0.25
100
AcDbCircle
 10
437.7185340079018
 20
843.8323757578992
 30
-0.0000000000000142
 40
0.5
100
AcDbArc
 50
271.5074357587749
 51
0.0
  0
LINE
  5
D0F
330
1A
100
AcDbEntity
  8
0
 48
0.25
100
AcDbLine
 10
436.7185340079027
 20
887.6453605524059
 30
-0.0000000000000142
 11
416.8185340079021
 21
887.6453605524055
 31
-0.0000000000000142
  0
ARC
  5
D10
330
1A
100
AcDbEntity
  8
0
 48
0.25
100
AcDbCircle
 10
437.7185340079027
 20
891.8583453469127
 30
-0.0000000000000142
 40
0.5
100
AcDbArc
 50
0.0
 51
88.49256424122506
  0
ARC
  5
D11
330
1A
100
AcDbEntity
  8
0
 48
0.25
100
AcDbCircle
 10
438.2185340079026
 20
890.345360552406
 30
-0.0000000000000142
 40
0.5
100
AcDbArc
 50
0.0
 51
90.0
  0
LINE
  5
D12
330
1A
100
AcDbEntity
  8
0
 48
0.25
100
AcDbLine
 10
437.7316873489466
 20
892.3581723065892
 30
-0.0000000000000142
 11
437.209320435953
 21
892.3719188042994
 31
-0.0000000000000142
  0
LINE
  5
D13
330
1A
100
AcDbEntity
  8
0
 48
0.25
100
AcDbLine
 10
416.7185340079047
 20
874.6453605524063
 30
-0.0000000000000142
 11
416.7185340079051
 21
800.6934206996168
 31
-0.0000000000000142
  0
LINE
  5
D14
330
1A
100
AcDbEntity
  8
0
 48
0.25
100
AcDbLine
 10
376.7185340079018
 20
874.6453605524063
 30
-0.0000000000000142
 11
376.7185340079013
 21
799.7170960719897
 31
-0.0000000000000142
  0
LINE
  5
D15
330
1A
100
AcDbEntity
  8
0
 48
0.25
100
AcDbLine
 10
376.6185340079033
 20
887.6453605524059
 30
-0.0000000000000142
 11
376.6185340079033
 21
846.6453605524064
 31
-0.0000000000000142
  0
LINE
  5
D16
330
1A
100
AcDbEntity
  8
0
 48
0.25
100
AcDbLine
 10
354.7185340079018
 20
845.3453605524057
 30
-0.0000000000000142
 11
354.7185340079027
 21
890.3453605524061
 31
-0.0000000000000142
  0
LINE
  5
D17
330
1A
100
AcDbEntity
  8
0
 48
0.25
100
AcDbLine
 10
355.2185340079036
 20
843.8323757578993
 30
-0.0000000000000142
 11
355.2185340079027
 21
891.858345346913
 31
-0.0000000000000142
  0
LINE
  5
D18
330
1A
100
AcDbEntity
  8
0
 48
0.25
100
AcDbLine
 10
374.2185340079027
 20
842.8453605524062
 30
-0.0000000000000142
 11
374.2185340079027
 21
887.6453605524064
 31
-0.0000000000000142
  0
ARC
  5
D19
330
1A
100
AcDbEntity
  8
0
 48
0.25
100
AcDbCircle
 10
378.6185340079033
 20
846.6453605524066
 30
-0.0000000000000142
 40
2.0
100
AcDbArc
 50
180.0
 51
198.1948723388026
  0
ARC
  5
D1A
330
1A
100
AcDbEntity
  8
0
 48
0.25
100
AcDbCircle
 10
355.7185340079036
 20
843.8323757578992
 30
-0.0000000000000142
 40
0.5
100
AcDbArc
 50
180.0
 51
268.4925642412251
  0
LINE
  5
D1B
330
1A
100
AcDbEntity
  8
0
 48
0.25
100
AcDbLine
 10
355.7053806668596
 20
843.332548798223
 30
-0.0000000000000142
 11
374.2185340079027
 21
842.8453605524062
 31
-0.0000000000000142
  0
ARC
  5
D1C
330
1A
100
AcDbEntity
  8
0
 48
0.25
100
AcDbCircle
 10
355.2185340079018
 20
845.3453605524055
 30
-0.0000000000000142
 40
0.5
100
AcDbArc
 50
180.0
 51
270.0
  0
LINE
  5
D1D
330
1A
100
AcDbEntity
  8
0
 48
0.25
100
AcDbLine
 10
376.6185340079033
 20
887.6453605524064
 30
-0.0000000000000142
 11
356.7185340079018
 21
887.6453605524064
 31
-0.0000000000000142
  0
ARC
  5
D1E
330
1A
100
AcDbEntity
  8
0
 48
0.25
100
AcDbCircle
 10
355.2185340079027
 20
890.345360552406
 30
-0.0000000000000142
 40
0.5
100
AcDbArc
 50
90.0
 51
180.0
  0
ARC
  5
D1F
330
1A
100
AcDbEntity
  8
0
 48
0.25
100
AcDbCircle
 10
355.7185340079027
 20
891.8583453469127
 30
-0.0000000000000142
 40
0.5
100
AcDbArc
 50
91.50743575877495
 51
180.0
  0
LINE
  5
D20
330
1A
100
AcDbEntity
  8
0
 48
0.25
100
AcDbLine
 10
355.7053806668587
 20
892.3581723065892
 30
-0.0000000000000142
 11
356.2277475798532
 21
892.3719188042998
 31
-0.0000000000000142
  0
SPLINE
  5
D21
330
1A
100
AcDbEntity
  8
0
100
AcDbSpline
210
0.0
220
0.0
230
1.0
 70
     8
 71
     3
 72
    11
 73
     7
 74
     5
 42
0.0000000001
 43
0.0000000001
 44
0.0000000001
 40
0.0
 40
0.0
 40
0.0
 40
0.0
 40
11.18618691122456
 40
23.22700273253209
 40
31.36093216241002
 40
43.09610963621334
 40
43.09610963621334
 40
43.09610963621334
 40
43.09610963621334
 10
376.7185340079009
 20
794.7170960719895
 30
-0.0000000000000142
 10
379.7586395251121
 20
796.7899188618668
 30
-0.0000000000000142
 10
386.071115770668
 20
801.0939288866078
 30
-0.0000000000000142
 10
398.0981094331167
 20
802.9121533483436
 30
-0.0000000000000142
 10
405.3658425834453
 20
793.3788502781229
 30
-0.0000000000000142
 10
412.5030976740179
 20
794.8339835945894
 30
-0.0000000000000142
 10
416.7185340079056
 20
795.6934206996168
 30
-0.0000000000000142
 11
376.7185340079009
 21
794.7170960719895
 31
-0.0000000000000142
 11
386.4407693168805
 21
800.2496287840195
 31
-0.0000000000000142
 11
398.4771861423642
 21
800.5750756243223
 31
-0.0000000000000142
 11
404.9833565341023
 21
795.6934206996166
 31
-0.0000000000000142
 11
416.7185340079056
 21
795.6934206996168
 31
-0.0000000000000142
  0
SPLINE
  5
D22
330
1A
100
AcDbEntity
  8
0
100
AcDbSpline
210
0.0
220
0.0
230
1.0
 70
     8
 71
     3
 72
    11
 73
     7
 74
     5
 42
0.0000000001
 43
0.0000000001
 44
0.0000000001
 40
0.0
 40
0.0
 40
0.0
 40
0.0
 40
11.18618691122456
 40
23.22700273253209
 40
31.36093216241002
 40
43.09610963621334
 40
43.09610963621334
 40
43.09610963621334
 40
43.09610963621334
 10
376.7185340079009
 20
799.7170960719895
 30
-0.0000000000000142
 10
379.7586395251121
 20
801.7899188618669
 30
-0.0000000000000142
 10
386.071115770668
 20
806.0939288866077
 30
-0.0000000000000142
 10
398.0981094331167
 20
807.9121533483435
 30
-0.0000000000000142
 10
405.3658425834453
 20
798.3788502781231
 30
-0.0000000000000142
 10
412.5030976740179
 20
799.8339835945894
 30
-0.0000000000000142
 10
416.7185340079056
 20
800.6934206996168
 30
-0.0000000000000142
 11
376.7185340079009
 21
799.7170960719895
 31
-0.0000000000000142
 11
386.4407693168805
 21
805.2496287840195
 31
-0.0000000000000142
 11
398.4771861423642
 21
805.5750756243224
 31
-0.0000000000000142
 11
404.9833565341023
 21
800.6934206996165
 31
-0.0000000000000142
 11
416.7185340079056
 21
800.6934206996168
 31
-0.0000000000000142
  0
LINE
  5
D23
330
1A
100
AcDbEntity
  8
0
100
AcDbLine
 10
461.2185340079036
 20
934.2503110978567
 30
-0.0000000000000142
 11
406.7185340079036
 21
934.2503110978567
 31
-0.0000000000000142
  0
LINE
  5
D24
330
1A
100
AcDbEntity
  8
0
100
AcDbLine
 10
462.7185340079035
 20
935.7503110978566
 30
-0.0000000000000142
 11
462.7185340079035
 21
938.250246877531
 31
-0.0000000000000142
  0
ARC
  5
D25
330
1A
100
AcDbEntity
  8
0
100
AcDbCircle
 10
461.2185340079036
 20
935.7503110978564
 30
-0.0000000000000142
 40
1.5
100
AcDbArc
 50
270.0
 51
0.0
  0
LINE
  5
D26
330
1A
100
AcDbEntity
  8
0
 48
0.25
100
AcDbLine
 10
354.3018731929642
 20
938.2503523707979
 30
0.0000000000000426
 11
319.3018731929587
 21
938.2503864270431
 31
0.0000000000000995
  0
LINE
  5
D27
330
1A
100
AcDbEntity
  8
0
100
AcDbLine
 10
386.7185340079036
 20
934.2503110978567
 30
-0.0000000000000142
 11
332.2185340079036
 21
934.2503110978567
 31
-0.0000000000000142
  0
LINE
  5
D28
330
1A
100
AcDbEntity
  8
0
100
AcDbLine
 10
330.7185340079036
 20
935.7503110978566
 30
-0.0000000000000142
 11
330.7185340079036
 21
938.2503753182261
 31
-0.0000000000000142
  0
ARC
  5
D29
330
1A
100
AcDbEntity
  8
0
100
AcDbCircle
 10
332.2185340079038
 20
935.7503110978564
 30
-0.0000000000000142
 40
1.5
100
AcDbArc
 50
180.0
 51
270.0
  0
ARC
  5
D2A
330
1A
100
AcDbEntity
  8
0
100
AcDbCircle
 10
386.7185340079036
 20
936.2503110978563
 30
-0.0000000000000142
 40
2.0
100
AcDbArc
 50
270.0
 51
0.0
  0
ARC
  5
D2B
330
1A
100
AcDbEntity
  8
0
100
AcDbCircle
 10
406.7185340079038
 20
936.2503110978563
 30
-0.0000000000000142
 40
2.0
100
AcDbArc
 50
180.0
 51
270.0
  0
LINE
  5
D2C
330
1A
100
AcDbEntity
  8
0
 48
0.25
100
AcDbLine
 10
489.6024235794293
 20
941.25022071855
 30
-0.0000000000001279
 11
303.8346444363778
 21
941.2504014772066
 31
0.0000000000001279
  0
LINE
  5
D2D
330
1A
100
AcDbEntity
  8
0
 48
0.25
100
AcDbLine
 10
474.3018731929601
 20
938.25023560653
 30
-0.0000000000000995
 11
439.3018731929542
 21
938.2502696627748
 31
-0.0000000000000426
  0
LINE
  5
D2E
330
1A
100
AcDbEntity
  8
0
100
AcDbLine
 10
271.829580435553
 20
973.3249541135576
 30
-43.11698143494022
 11
274.2707255365426
 21
951.4045469225308
 31
-8.751149680898734
  0
LINE
  5
D2F
330
1A
100
AcDbEntity
  8
0
 48
0.25
100
AcDbLine
 10
274.2415113884017
 20
951.4915944097962
 30
-24.12716443980393
 11
274.8923226060915
 21
971.2182606909035
 31
-39.81419751634566
  0
ARC
  5
D30
330
1A
100
AcDbEntity
  8
0
100
AcDbCircle
 10
257.2269619112357
 20
525.6497536877396
 30
0.0
 40
3.0
100
AcDbArc
 50
198.0000000000001
 51
270.0000000000001
  0
LINE
  5
D36
330
1A
100
AcDbEntity
  8
0
100
AcDbLine
 10
257.2269619112357
 20
522.6497536877396
 30
0.0
 11
287.7263447068271
 21
522.6497536877396
 31
0.0
  0
LINE
  5
D37
330
1A
100
AcDbEntity
  8
0
100
AcDbLine
 10
285.2185340079031
 20
518.6497536877359
 30
0.0
 11
287.7263447068271
 21
518.6497536877396
 31
0.0
  0
LINE
  5
D5A
330
1A
100
AcDbEntity
  8
0
100
AcDbLine
 10
268.2185340078958
 20
518.6497536877468
 30
0.0
 11
265.7742316358726
 21
518.6497536877432
 31
0.0
  0
ARC
  5
D5B
330
1A
100
AcDbEntity
  8
0
100
AcDbCircle
 10
267.7107233089791
 20
519.1497536877395
 30
0.0
 40
2.0
100
AcDbArc
 50
180.0
 51
194.477512185809
  0
LINE
  5
D5C
330
1A
100
AcDbEntity
  8
0
100
AcDbLine
 10
265.7107233089791
 20
522.6497536877396
 30
0.0
 11
265.7107233089791
 21
519.1497536877395
 31
0.0
  0
LINE
  5
D5D
330
1A
100
AcDbEntity
  8
0
100
AcDbLine
 10
257.2269619112357
 20
522.649759387743
 30
0.0
 11
286.7185340079031
 21
522.649759387743
 31
0.0
  0
LINE
  5
D5E
330
1A
100
AcDbEntity
  8
0
100
AcDbLine
 10
288.1744170196052
 20
518.6497536877396
 30
0.0
 11
289.4809352487882
 21
515.0601243549354
 31
0.0
  0
ARC
  5
D5F
330
1A
100
AcDbEntity
  8
0
100
AcDbCircle
 10
292.3000131111493
 20
516.0861847849118
 30
0.0
 40
3.0
100
AcDbArc
 50
199.9999999999995
 51
260.0
  0
LINE
  5
D60
330
1A
100
AcDbEntity
  8
0
100
AcDbLine
 10
249.3612396431435
 20
540.1497536877395
 30
0.0
 11
254.3737923623502
 21
524.7227027046137
 31
0.0
  0
LINE
  5
D61
330
1A
100
AcDbEntity
  8
0
100
AcDbLine
 10
231.7185340079031
 20
583.6497536877395
 30
0.0
 11
231.7185340079031
 21
540.1497536877395
 31
0.0
  0
ARC
  5
D62
330
1A
100
AcDbEntity
  8
0
100
AcDbCircle
 10
243.2185340079031
 20
583.6497536877431
 30
0.0
 40
11.5
100
AcDbArc
 50
90.00000000000003
 51
179.9999999999999
  0
DIMENSION
  5
10F3
330
1A
100
AcDbEntity
  8
MEASURE
100
AcDbDimension
  2
*D4
 10
516.7185340078958
 20
421.6497536877449
 30
0.0
 11
396.7185340078959
 21
432.8997536877449
 31
0.0
 70
    32
 71
     5
 42
240.0000000000001
  3
AD-STANDARD
100
AcDbAlignedDimension
 13
276.7185340078958
 23
491.6497536877449
 33
0.0
 14
516.7185340078958
 24
491.6497536877449
 34
0.0
100
AcDbRotatedDimension
1001
ACAD
1000
DSTYLE
1002
{
1070
    40
1040
5.0
1070
   140
1040
3.5
1070
   271
1070
     8
1070
   272
1070
     8
1070
   289
1070
     1
1002
}
  0
DIMENSION
  5
1100
330
1A
100
AcDbEntity
  8
MEASURE
100
AcDbDimension
  2
*D5
 10
1331.532859918752
 20
665.1497536877395
 30
0.0
 11
1119.532859918752
 21
676.3997536877395
 31
0.0
 70
    32
 71
     5
 42
424.0
  3
AD-STANDARD
100
AcDbAlignedDimension
 13
907.5328599187523
 23
583.6497536877359
 33
0.0
 14
1331.532859918752
 24
583.6497536877359
 34
0.0
100
AcDbRotatedDimension
1001
ACAD
1000
DSTYLE
1002
{
1070
    40
1040
5.0
1070
   140
1040
3.5
1070
   271
1070
     8
1070
   272
1070
     8
1070
   289
1070
     1
1002
}
  0
DIMENSION
  5
11A6
330
1A
100
AcDbEntity
  8
MEASURE
100
AcDbDimension
  2
*D6
 10
907.5328599187596
 20
421.6497536877449
 30
0.0
 11
930.032859918756
 21
432.8997536877449
 31
0.0
 70
    32
 71
     5
 42
44.99999999999272
  3
AD-STANDARD
100
AcDbAlignedDimension
 13
952.5328599187524
 23
491.6497536877449
 33
0.0
 14
907.5328599187596
 24
540.1497536877395
 34
0.0
100
AcDbRotatedDimension
1001
ACAD
1000
DSTYLE
1002
{
1070
    40
1040
5.0
1070
   140
1040
3.5
1070
   271
1070
     8
1070
   272
1070
     8
1070
   289
1070
     1
1002
}
  0
DIMENSION
  5
11B3
330
1A
100
AcDbEntity
  8
MEASURE
100
AcDbDimension
  2
*D7
 10
1286.532859918759
 20
421.6497536877449
 30
0.0
 11
1119.532859918756
 21
432.8997536877449
 31
0.0
 70
    32
 71
     5
 42
334.0000000000073
  3
AD-STANDARD
100
AcDbAlignedDimension
 13
952.5328599187524
 23
491.6497536877449
 33
0.0
 14
1286.532859918759
 24
491.6497536877459
 34
0.0
100
AcDbRotatedDimension
1001
ACAD
1000
DSTYLE
1002
{
1070
    40
1040
5.0
1070
   140
1040
3.5
1070
   271
1070
     8
1070
   272
1070
     8
1070
   289
1070
     1
1002
}
  0
DIMENSION
  5
11F2
330
1A
100
AcDbEntity
  8
MEASURE
100
AcDbDimension
  2
*D8
 10
561.7185340079031
 20
665.1497536877395
 30
0.0
 11
396.7185340079031
 21
665.1497536877395
 31
0.0
 70
   160
 71
     5
 42
330.0000000000001
  3
AD-STANDARD
100
AcDbAlignedDimension
 13
231.7185340079031
 23
583.6497536877395
 33
0.0
 14
561.7185340079031
 24
583.6497536877395
 34
0.0
100
AcDbRotatedDimension
1001
ACAD
1000
DSTYLE
1002
{
1070
    40
1040
5.0
1070
   140
1040
3.5
1070
   271
1070
     8
1070
   272
1070
     8
1070
   289
1070
     1
1002
}
  0
LINE
  5
1681
330
1A
100
AcDbEntity
  8
0
 48
0.25
100
AcDbLine
 10
1412.373434436721
 20
1002.97655265737
 30
0.0
 11
1410.536096061562
 21
1002.186497156048
 31
0.0
  0
ARC
  5
1682
330
1A
100
AcDbEntity
  8
0
 48
0.25
100
AcDbCircle
 10
1411.454765249141
 20
1002.581524906709
 30
0.0
 40
1.0
100
AcDbArc
 50
23.26770481015198
 51
203.267704810152
  0
LINE
  5
1683
330
1A
100
AcDbEntity
  8
0
100
AcDbLine
 10
1459.2532622022
 20
1011.161036272741
 30
0.0
 11
1383.003719633062
 21
978.3737329680045
 31
0.0
  0
LINE
  5
1684
330
1A
100
AcDbEntity
  8
0
100
AcDbLine
 10
1385.840017019492
 20
968.7080296405335
 30
0.0
 11
1455.793799674302
 21
998.7881561821151
 31
0.0
  0
LINE
  5
1685
330
1A
100
AcDbEntity
  8
0
100
AcDbLine
 10
1390.751971754299
 20
966.4660456950466
 30
0.0
 11
1459.981004457394
 21
996.2345297573907
 31
0.0
  0
LINE
  5
1686
330
1A
100
AcDbEntity
  8
0
100
AcDbLine
 10
1498.361009517483
 20
1039.951209942265
 30
0.0
 11
1397.913749898026
 21
996.7588883057002
 31
0.0
  0
LINE
  5
1687
330
1A
100
AcDbEntity
  8
0
100
AcDbLine
 10
1502.706314774756
 20
1029.845848878847
 30
0.0
 11
1382.085050445576
 21
977.9787052171133
 31
0.0
  0
ARC
  5
1688
330
1A
100
AcDbEntity
  8
0
100
AcDbCircle
 10
1418.643872910225
 20
951.2503110979034
 30
0.0
 40
10.0
100
AcDbArc
 50
212.1483639605937
 51
270.0
  0
LINE
  5
1689
330
1A
100
AcDbEntity
  8
0
100
AcDbLine
 10
1526.711140646202
 20
1039.079392883303
 30
0.0
 11
1383.398747383721
 21
977.4550637804246
 31
0.0
  0
LINE
  5
168A
330
1A
100
AcDbEntity
  8
0
100
AcDbLine
 10
1527.826405039923
 20
1039.776662796676
 30
0.0
 11
1383.232085915395
 21
977.6011055728442
 31
0.0
  0
LINE
  5
168D
330
1A
100
AcDbEntity
  8
0
 48
0.25
100
AcDbLine
 10
1405.942750123665
 20
1000.211358402744
 30
0.0
 11
1404.105411748505
 21
999.4213029014217
 31
0.0
  0
ARC
  5
168E
330
1A
100
AcDbEntity
  8
0
 48
0.25
100
AcDbCircle
 10
1405.024080936086
 20
999.8163306520828
 30
0.0
 40
1.0
100
AcDbArc
 50
23.26770481015198
 51
203.267704810152
  0
LINE
  5
168F
330
1A
100
AcDbEntity
  8
0
 48
0.25
100
AcDbLine
 10
1399.512065810608
 20
997.446164148117
 30
0.0
 11
1397.67472743545
 21
996.6561086467953
 31
0.0
  0
ARC
  5
1690
330
1A
100
AcDbEntity
  8
0
 48
0.25
100
AcDbCircle
 10
1398.593396623029
 20
997.0511363974559
 30
0.0
 40
1.0
100
AcDbArc
 50
23.26770481015198
 51
203.267704810152
  0
ARC
  5
1691
330
1A
100
AcDbEntity
  8
0
100
AcDbCircle
 10
1390.356944003638
 20
967.3847148826272
 30
0.0
 40
1.0
100
AcDbArc
 50
248.2677048101244
 51
293.267704810072
  0
ARC
  5
1692
330
1A
100
AcDbEntity
  8
0
100
AcDbCircle
 10
1386.958607349933
 20
968.739296625708
 30
0.0
 40
1.0
100
AcDbArc
 50
208.2677048100713
 51
248.2677048101232
  0
LINE
  5
1693
330
1A
100
AcDbEntity
  8
0
 48
0.25
100
AcDbLine
 10
1389.986673592683
 20
966.4557908691728
 30
0.0
 11
1386.588336938977
 21
967.8103726122532
 31
0.0
  0
LINE
  5
1694
330
1A
100
AcDbEntity
  8
0
100
AcDbLine
 10
1383.398747383721
 20
977.4550637804255
 30
0.0
 11
1381.561409008561
 21
976.6650082791043
 31
0.0
  0
LINE
  5
1695
330
1A
100
AcDbEntity
  8
0
100
AcDbLine
 10
1381.561409008561
 20
976.6650082791043
 30
0.0
 11
1386.077862912981
 21
968.265704779518
 31
0.0
  0
ARC
  5
1696
330
1A
100
AcDbEntity
  8
0
100
AcDbCircle
 10
1384.945982488856
 20
990.0942171993717
 30
0.0
 40
1.0
100
AcDbArc
 50
113.2677048101579
 51
158.2677048101782
  0
LINE
  5
1697
330
1A
100
AcDbEntity
  8
0
100
AcDbLine
 10
1397.913749898024
 20
996.7588883057038
 30
0.0
 11
1384.550954738196
 21
991.0128863869505
 31
0.0
  0
LINE
  5
1698
330
1A
100
AcDbEntity
  8
0
100
AcDbLine
 10
1383.232085915396
 20
977.6011055728423
 30
0.0
 11
1382.58901748409
 21
977.3245861473794
 31
0.0
  0
LINE
  5
1699
330
1A
100
AcDbEntity
  8
0
100
AcDbLine
 10
1382.268784283093
 20
978.0577107672595
 30
0.0
 11
1382.58480648363
 21
977.3227754171818
 31
0.0
  0
LINE
  5
169A
330
1A
100
AcDbEntity
  8
0
100
AcDbLine
 10
1382.085050445576
 20
977.9787052171133
 30
0.0
 11
1381.166381258023
 21
977.5836774663982
 31
0.0
  0
ARC
  5
169B
330
1A
100
AcDbEntity
  8
0
100
AcDbCircle
 10
1381.19560461783
 20
980.6853744702527
 30
0.0
 40
1.0
100
AcDbArc
 50
158.2677048101812
 51
198.2677048101147
  0
LINE
  5
169C
330
1A
100
AcDbEntity
  8
0
100
AcDbLine
 10
1381.166381258023
 20
977.5836774663982
 30
0.0
 11
1380.246002306848
 21
980.3719172148282
 31
0.0
  0
LINE
  5
169D
330
1A
100
AcDbEntity
  8
0
100
AcDbLine
 10
1382.274269074366
 20
978.0410948798332
 30
0.0
 11
1382.268784283097
 21
978.0577107672476
 31
0.0
  0
LINE
  5
169E
330
1A
100
AcDbEntity
  8
0
100
AcDbLine
 10
1384.017058475402
 20
990.4644876103262
 30
0.0
 11
1380.266680604376
 21
981.0556448812073
 31
0.0
  0
LINE
  5
169F
330
1A
100
AcDbEntity
  8
0
100
AcDbLine
 10
1383.32937091608
 20
977.6429381231388
 30
0.0
 11
1383.398747383721
 21
977.4550637804269
 31
0.0
  0
LINE
  5
16A0
330
1A
100
AcDbEntity
  8
0
100
AcDbLine
 10
1395.88346164293
 20
968.672586347159
 30
0.0
 11
1410.177142304252
 21
945.929176552906
 31
0.0
  0
LINE
  5
16A1
330
1A
100
AcDbEntity
  8
0
 48
0.25
100
AcDbLine
 10
1439.532865580396
 20
746.2109963396065
 30
0.0
 11
1439.532865580396
 21
591.1497536877393
 31
0.0
  0
LINE
  5
16A2
330
1A
100
AcDbEntity
  8
0
 48
0.25
100
AcDbLine
 10
1479.532865580396
 20
757.098296827582
 30
0.0
 11
1479.532865580396
 21
591.1497536877393
 31
0.0
  0
LINE
  5
16AE
330
1A
100
AcDbEntity
  8
0
 48
0.25
100
AcDbLine
 10
1491.514311801995
 20
936.1456391853922
 30
0.0
 11
1487.484398419688
 21
859.2503110978784
 31
0.0
  0
LINE
  5
16AF
330
1A
100
AcDbEntity
  8
0
 48
0.25
100
AcDbLine
 10
1492.375642242547
 20
938.2503110978843
 30
0.0
 11
1488.274733513649
 21
860.0003110978784
 31
0.0
  0
CIRCLE
  5
16B0
330
1A
100
AcDbEntity
  8
0
 48
0.25
100
AcDbCircle
 10
1459.532865580396
 20
876.2503353606195
 30
0.0
 40
23.0
  0
CIRCLE
  5
16B1
330
1A
100
AcDbEntity
  8
0
 48
0.25
100
AcDbCircle
 10
1459.532865580396
 20
876.2503353606195
 30
0.0
 40
24.5
  0
CIRCLE
  5
16B2
330
1A
100
AcDbEntity
  8
0
 48
0.25
100
AcDbCircle
 10
1459.532865580396
 20
876.2503353606195
 30
0.0
 40
25.0
  0
SPLINE
  5
16B3
330
1A
100
AcDbEntity
  8
0
100
AcDbSpline
210
0.0
220
0.0
230
1.0
 70
     8
 71
     3
 72
    11
 73
     7
 74
     5
 42
0.0000000001
 43
0.0000000001
 44
0.0000000001
 40
0.0
 40
0.0
 40
0.0
 40
0.0
 40
13.43216614429898
 40
28.73723501832129
 40
42.04537364078992
 40
57.14867580187309
 40
57.14867580187309
 40
57.14867580187309
 40
57.14867580187309
 10
1439.532865580396
 20
751.2109963396075
 30
0.0
 10
1440.698946194113
 20
756.3793078348204
 30
0.0
 10
1443.193698886026
 20
767.4365699688852
 30
0.0
 10
1460.625714743007
 20
761.6768100347188
 30
0.0
 10
1470.215318968015
 20
745.0689391849447
 30
0.0
 10
1476.298887568258
 20
756.187667080484
 30
0.0
 10
1479.532865580396
 20
762.0982968275826
 30
0.0
 11
1439.532865580396
 21
751.2109963396075
 31
0.0
 11
1445.089079956421
 21
763.440124237201
 31
0.0
 11
1459.85527872468
 21
759.414642008344
 31
0.0
 11
1469.788901038849
 21
750.5585875079311
 31
0.0
 11
1479.532865580396
 21
762.0982968275826
 31
0.0
  0
SPLINE
  5
16B4
330
1A
100
AcDbEntity
  8
0
100
AcDbSpline
210
0.0
220
0.0
230
1.0
 70
     8
 71
     3
 72
    11
 73
     7
 74
     5
 42
0.0000000001
 43
0.0000000001
 44
0.0000000001
 40
0.0
 40
0.0
 40
0.0
 40
0.0
 40
13.43216614429898
 40
28.73723501832129
 40
42.04537364078992
 40
57.14867580187309
 40
57.14867580187309
 40
57.14867580187309
 40
57.14867580187309
 10
1439.532865580396
 20
746.2109963396074
 30
0.0
 10
1440.698946194113
 20
751.3793078348204
 30
0.0
 10
1443.193698886026
 20
762.4365699688853
 30
0.0
 10
1460.625714743007
 20
756.6768100347186
 30
0.0
 10
1470.215318968015
 20
740.0689391849448
 30
0.0
 10
1476.298887568258
 20
751.1876670804841
 30
0.0
 10
1479.532865580396
 20
757.0982968275826
 30
0.0
 11
1439.532865580396
 21
746.2109963396074
 31
0.0
 11
1445.089079956421
 21
758.4401242372011
 31
0.0
 11
1459.85527872468
 21
754.414642008344
 31
0.0
 11
1469.788901038849
 21
745.558587507931
 31
0.0
 11
1479.532865580396
 21
757.0982968275826
 31
0.0
  0
LINE
  5
16B5
330
1A
100
AcDbEntity
  8
0
 48
0.25
100
AcDbLine
 10
1488.274733513649
 20
860.0003110978779
 30
0.0
 11
1487.484398419687
 21
859.2503110978784
 31
0.0
  0
LINE
  5
16B6
330
1A
100
AcDbEntity
  8
0
 48
0.25
100
AcDbLine
 10
1487.484398419687
 20
859.2503110978784
 30
0.0
 11
1477.863145858291
 21
859.2503110978784
 31
0.0
  0
LINE
  5
16B7
330
1A
100
AcDbEntity
  8
0
 48
0.25
100
AcDbLine
 10
1439.532865580396
 20
861.2503353606195
 30
0.0
 11
1439.532865580396
 21
751.2109963396065
 31
0.0
  0
LINE
  5
16B8
330
1A
100
AcDbEntity
  8
0
 48
0.25
100
AcDbLine
 10
1479.532865580396
 20
859.2503110978784
 30
0.0
 11
1479.532865580396
 21
762.098296827582
 31
0.0
  0
LINE
  5
16B9
330
1A
100
AcDbEntity
  8
0
100
AcDbLine
 10
1524.706448220272
 20
1024.06647057543
 30
0.0
 11
1529.057849937538
 21
1025.937573313855
 31
0.0
  0
LINE
  5
16BA
330
1A
100
AcDbEntity
  8
0
100
AcDbLine
 10
1529.090493842033
 20
1025.951610192789
 30
0.0
 11
1523.511122636178
 21
959.5750908146706
 31
0.0
  0
LINE
  5
16BB
330
1A
100
AcDbEntity
  8
0
100
AcDbLine
 10
1525.733430998093
 20
1028.862197651359
 30
0.0
 11
1531.380370522297
 21
1031.290381646767
 31
0.0
  0
LINE
  5
16BC
330
1A
100
AcDbEntity
  8
0
100
AcDbLine
 10
1528.54847902136
 20
1039.869448384623
 30
0.0
 11
1526.711140646201
 21
1039.079392883305
 31
0.0
  0
ARC
  5
16BD
330
1A
100
AcDbEntity
  8
0
100
AcDbCircle
 10
1481.282949320371
 20
1035.873237418649
 30
0.0
 40
45.0
100
AcDbArc
 50
235.498657445557
 51
351.0367521745758
  0
ARC
  5
16BE
330
1A
100
AcDbEntity
  8
0
 48
0.25
100
AcDbCircle
 10
1450.038871127475
 20
1019.172690434468
 30
0.0
 40
1.0
100
AcDbArc
 50
23.26770481015198
 51
203.267704810152
  0
LINE
  5
16BF
330
1A
100
AcDbEntity
  8
0
 48
0.25
100
AcDbLine
 10
1450.957540315054
 20
1019.567718185129
 30
0.0
 11
1449.120201939896
 21
1018.777662683807
 31
0.0
  0
LINE
  5
16C0
330
1A
100
AcDbEntity
  8
0
 48
0.25
100
AcDbLine
 10
1444.526856001999
 20
1016.802523930503
 30
0.0
 11
1442.68951762684
 21
1016.012468429181
 31
0.0
  0
ARC
  5
16C1
330
1A
100
AcDbEntity
  8
0
 48
0.25
100
AcDbCircle
 10
1443.60818681442
 20
1016.407496179842
 30
0.0
 40
1.0
100
AcDbArc
 50
23.26770481015198
 51
203.267704810152
  0
LINE
  5
16C2
330
1A
100
AcDbEntity
  8
0
 48
0.25
100
AcDbLine
 10
1438.096171688943
 20
1014.037329675876
 30
0.0
 11
1436.258833313784
 21
1013.247274174554
 31
0.0
  0
ARC
  5
16C3
330
1A
100
AcDbEntity
  8
0
 48
0.25
100
AcDbCircle
 10
1437.177502501364
 20
1013.642301925215
 30
0.0
 40
1.0
100
AcDbArc
 50
23.26770481015198
 51
203.267704810152
  0
LINE
  5
16C4
330
1A
100
AcDbEntity
  8
0
 48
0.25
100
AcDbLine
 10
1431.665487375888
 20
1011.27213542125
 30
0.0
 11
1429.828149000729
 21
1010.482079919928
 31
0.0
  0
LINE
  5
16C5
330
1A
100
AcDbEntity
  8
0
 48
0.25
100
AcDbLine
 10
1418.804118749776
 20
1005.741746911997
 30
0.0
 11
1416.966780374617
 21
1004.951691410675
 31
0.0
  0
ARC
  5
16C6
330
1A
100
AcDbEntity
  8
0
 48
0.25
100
AcDbCircle
 10
1417.885449562197
 20
1005.346719161336
 30
0.0
 40
1.0
100
AcDbArc
 50
23.26770481015198
 51
203.267704810152
  0
LINE
  5
16C7
330
1A
100
AcDbEntity
  8
0
 48
0.25
100
AcDbLine
 10
1425.234803062832
 20
1008.506941166623
 30
0.0
 11
1423.397464687673
 21
1007.716885665301
 31
0.0
  0
ARC
  5
16C8
330
1A
100
AcDbEntity
  8
0
 48
0.25
100
AcDbCircle
 10
1424.316133875253
 20
1008.111913415962
 30
0.0
 40
1.0
100
AcDbArc
 50
23.26770481015198
 51
203.267704810152
  0
ARC
  5
16C9
330
1A
100
AcDbEntity
  8
0
 48
0.25
100
AcDbCircle
 10
1430.746818188308
 20
1010.877107670589
 30
0.0
 40
1.0
100
AcDbArc
 50
23.26770481015198
 51
203.267704810152
  0
LINE
  5
16CA
330
1A
100
AcDbEntity
  8
0
 48
0.25
100
AcDbLine
 10
1426.836354957954
 20
977.2503110979018
 30
-0.0000000000000002
 11
1426.836354957954
 21
946.2503110979023
 31
0.0000000000000107
  0
LINE
  5
16CB
330
1A
100
AcDbEntity
  8
0
100
AcDbLine
 10
1426.690127138769
 20
946.2503110979021
 30
0.0
 11
1508.836354957953
 21
946.2503110979014
 31
0.0
  0
LINE
  5
16CC
330
1A
100
AcDbEntity
  8
0
 48
0.25
100
AcDbLine
 10
1508.836354957953
 20
946.2503110979014
 30
0.0000000000000107
 11
1508.836354957954
 21
977.2503110979011
 31
0.0000000000000105
  0
LINE
  5
16CD
330
1A
100
AcDbEntity
  8
0
100
AcDbLine
 10
1426.836354957954
 20
977.2503110979018
 30
0.0
 11
1508.836354957954
 21
977.2503110979011
 31
0.0
  0
LINE
  5
16CE
330
1A
100
AcDbEntity
  8
0
100
AcDbLine
 10
1524.678958975072
 20
1047.24967256987
 30
0.0
 11
1528.153451270699
 21
1040.788117572202
 31
0.0
  0
LINE
  5
16CF
330
1A
100
AcDbEntity
  8
0
 48
0.25
100
AcDbLine
 10
1527.510382839394
 20
1040.51159814674
 30
0.0
 11
1527.826405039923
 21
1039.776662796676
 31
0.0
  0
LINE
  5
16D0
330
1A
100
AcDbEntity
  8
0
100
AcDbLine
 10
1526.622506013667
 20
1039.258986215384
 30
0.0
 11
1526.711140646201
 21
1039.079392883305
 31
0.0
  0
ARC
  5
16D1
330
1A
100
AcDbEntity
  8
0
100
AcDbCircle
 10
1523.79821453812
 20
1046.77608072368
 30
0.0
 40
1.0
100
AcDbArc
 50
28.26770481015869
 51
68.26770481015223
  0
ARC
  5
16D2
330
1A
100
AcDbEntity
  8
0
 48
0.25
100
AcDbCircle
 10
1520.147971776944
 20
1048.231072593512
 30
0.0
 40
1.0
100
AcDbArc
 50
68.26770481015223
 51
113.2677048101579
  0
LINE
  5
16D3
330
1A
100
AcDbEntity
  8
0
 48
0.25
100
AcDbLine
 10
1520.5182421879
 20
1049.159996606966
 30
0.0
 11
1524.168484949075
 21
1047.705004737133
 31
0.0
  0
LINE
  5
16D4
330
1A
100
AcDbEntity
  8
0
 48
0.25
100
AcDbLine
 10
1434.441118177743
 20
938.250311097896
 30
0.0
 11
1437.009099362612
 21
889.2503110978788
 31
0.0
  0
LINE
  5
16D5
330
1A
100
AcDbEntity
  8
0
 48
0.25
100
AcDbLine
 10
1445.855816643338
 20
934.2503110978784
 30
0.0
 11
1447.532865580396
 21
902.2503110978787
 31
0.0
  0
LINE
  5
16D6
330
1A
100
AcDbEntity
  8
0
 48
0.25
100
AcDbLine
 10
1473.209914517452
 20
934.2503110978784
 30
0.0
 11
1471.532865580396
 21
902.2503110978787
 31
0.0
  0
LINE
  5
16D7
330
1A
100
AcDbEntity
  8
0
 48
0.25
100
AcDbLine
 10
1433.690088918244
 20
938.2503110978962
 30
0.0
 11
1436.218764268651
 21
890.0003110978792
 31
0.0
  0
LINE
  5
16D8
330
1A
100
AcDbEntity
  8
0
 48
0.25
100
AcDbLine
 10
1438.601921445185
 20
889.2503110978783
 30
0.0
 11
1437.009099362613
 21
889.2503110978783
 31
0.0
  0
LINE
  5
16D9
330
1A
100
AcDbEntity
  8
0
 48
0.25
100
AcDbLine
 10
1437.009099362613
 20
889.2503110978783
 30
0.0
 11
1436.218764268652
 21
890.0003110978783
 31
0.0
  0
LINE
  5
16DA
330
1A
100
AcDbEntity
  8
0
 48
0.25
100
AcDbLine
 10
1471.532865580396
 20
902.2503110978787
 30
0.0
 11
1447.532865580396
 21
902.2503110978787
 31
0.0
  0
LINE
  5
16DB
330
1A
100
AcDbEntity
  8
0
 48
0.25
100
AcDbLine
 10
1489.517052732485
 20
934.2503110978784
 30
0.0
 11
1436.548678428305
 21
934.2503110978784
 31
0.0
  0
LINE
  5
16DC
330
1A
100
AcDbEntity
  8
0
100
AcDbLine
 10
1426.690127138778
 20
938.2503110978957
 30
0.0
 11
1453.429562823589
 21
938.2503110978984
 31
0.0
  0
LINE
  5
16DD
330
1A
100
AcDbEntity
  8
0
100
AcDbLine
 10
1426.690127138773
 20
941.2503110979001
 30
0.0
 11
1503.581405202089
 21
941.2503110979011
 31
0.0
  0
LINE
  5
16DE
330
1A
100
AcDbEntity
  8
0
 48
0.25
100
AcDbLine
 10
1492.532865580396
 20
941.2503110978784
 30
0.0
 11
1433.532865580396
 21
941.2503110978784
 31
0.0
  0
ARC
  5
16DF
330
1A
100
AcDbEntity
  8
0
 48
0.25
100
AcDbCircle
 10
1436.548678428305
 20
936.2503110978783
 30
0.0
 40
2.0
100
AcDbArc
 50
182.9999999999989
 51
270.0
  0
LINE
  5
16E0
330
1A
100
AcDbEntity
  8
0
 48
0.25
100
AcDbLine
 10
1426.690127138778
 20
938.2503110978957
 30
0.0
 11
1425.400127138769
 21
941.2503110979001
 31
0.0
  0
LINE
  5
16E1
330
1A
100
AcDbEntity
  8
0
100
AcDbLine
 10
1418.643872910226
 20
941.2503110979001
 30
0.0
 11
1426.690127138772
 21
941.2503110979006
 31
0.0
  0
LINE
  5
16E2
330
1A
100
AcDbEntity
  8
0
 48
0.25
100
AcDbLine
 10
1471.532865580396
 20
925.2503110978787
 30
0.0
 11
1447.532865580396
 21
925.2503110978787
 31
0.0
  0
LINE
  5
16E3
330
1A
100
AcDbEntity
  8
0
100
AcDbLine
 10
1498.93977110566
 20
1039.111546304819
 30
0.0
 11
1499.334798856321
 21
1038.19287711724
 31
0.0
  0
LINE
  5
16E4
330
1A
100
AcDbEntity
  8
0
100
AcDbLine
 10
1499.858440293239
 20
1039.50657405548
 30
0.0
 11
1498.939771105658
 21
1039.111546304818
 31
0.0
  0
LINE
  5
16E5
330
1A
100
AcDbEntity
  8
0
100
AcDbLine
 10
1498.361009517483
 20
1039.951209942265
 30
0.0
 11
1499.190567793867
 21
1038.022004648348
 31
0.0
  0
ARC
  5
16E6
330
1A
100
AcDbEntity
  8
0
100
AcDbCircle
 10
1464.408159070288
 20
1028.617077610997
 30
0.0
 40
3.0
100
AcDbArc
 50
267.7769670164903
 51
293.2677048101579
  0
LINE
  5
16E7
330
1A
100
AcDbEntity
  8
0
100
AcDbLine
 10
1499.374301631388
 20
1038.101010198481
 30
0.0
 11
1499.190567793867
 21
1038.022004648348
 31
0.0
  0
LINE
  5
16E8
330
1A
100
AcDbEntity
  8
0
100
AcDbLine
 10
1499.808832157114
 20
1037.090474092146
 30
0.0
 11
1499.625098319593
 21
1037.011468542012
 31
0.0
  0
LINE
  5
16E9
330
1A
100
AcDbEntity
  8
0
100
AcDbLine
 10
1499.334798856321
 20
1038.192877117242
 30
0.0
 11
1499.151065018802
 21
1038.113871567108
 31
0.0
  0
LINE
  5
16EA
330
1A
100
AcDbEntity
  8
0
 48
0.25
100
AcDbLine
 10
1502.113773148751
 20
1031.223852660255
 30
0.0
 11
1502.297506986278
 21
1031.302858210393
 31
0.0
  0
LINE
  5
16EB
330
1A
100
AcDbEntity
  8
0
100
AcDbLine
 10
1498.93977110566
 20
1039.111546304819
 30
0.0
 11
1502.297506986278
 21
1031.302858210393
 31
0.0
  0
LINE
  5
16EC
330
1A
100
AcDbEntity
  8
0
100
AcDbLine
 10
1499.463412542579
 20
1040.425243243058
 30
0.0
 11
1504.124740000376
 21
1029.584946829624
 31
0.0
  0
LINE
  5
16ED
330
1A
100
AcDbEntity
  8
0
100
AcDbLine
 10
1498.361009517483
 20
1039.951209942265
 30
0.0
 11
1502.706314774737
 21
1029.845848878889
 31
0.0
  0
LINE
  5
16EE
330
1A
100
AcDbEntity
  8
0
 48
0.25
100
AcDbLine
 10
1468.834981828601
 20
1014.192644591894
 30
0.0
 11
1468.755976278568
 21
1014.376378429178
 31
0.0
  0
LINE
  5
16EF
330
1A
100
AcDbEntity
  8
0
 48
0.25
100
AcDbLine
 10
1459.648289952808
 20
1010.242367085284
 30
0.0
 11
1459.569284402775
 21
1010.426100922568
 31
0.0
  0
LINE
  5
16F0
330
1A
100
AcDbEntity
  8
0
 48
0.25
100
AcDbLine
 10
1481.7083655804
 20
938.2503110978666
 30
0.0
 11
1480.418365580379
 21
941.2503110979011
 31
0.0
  0
LINE
  5
16F1
330
1A
100
AcDbEntity
  8
0
100
AcDbLine
 10
1453.429562823589
 20
938.2503110978188
 30
0.0
 11
1453.429562823584
 21
941.2503110978947
 31
0.0
  0
LINE
  5
16F2
330
1A
100
AcDbEntity
  8
0
100
AcDbLine
 10
1500.708365580395
 20
941.2503110979056
 30
0.0
 11
1500.708365580401
 21
938.2503110978984
 31
0.0
  0
LINE
  5
16F3
330
1A
100
AcDbEntity
  8
0
100
AcDbLine
 10
1481.7083655804
 20
938.2503110978666
 30
0.0
 11
1500.708365580401
 21
938.2503110978984
 31
0.0
  0
ARC
  5
16F4
330
1A
100
AcDbEntity
  8
0
 48
0.25
100
AcDbCircle
 10
1489.517052732485
 20
936.2503110978783
 30
0.0
 40
2.0
100
AcDbArc
 50
270.0
 51
357.0000000000011
  0
LINE
  5
16F5
330
1A
100
AcDbEntity
  8
0
 48
0.25
100
AcDbLine
 10
1491.624612983048
 20
938.2503110978831
 30
0.0
 11
1491.514311801995
 21
936.1456391853922
 31
0.0
  0
LINE
  5
16F6
330
1A
100
AcDbEntity
  8
0
100
AcDbLine
 10
1519.752944026284
 20
1049.149741781091
 30
0.0
 11
1499.463412542579
 21
1040.425243243058
 31
0.0
  0
LINE
  5
16F7
330
1A
100
AcDbEntity
  8
0
100
AcDbLine
 10
1528.153451270699
 20
1040.788117572202
 30
0.0
 11
1503.808717799848
 21
1030.319882179688
 31
0.0
  0
ARC
  5
16F8
330
1A
100
AcDbEntity
  8
0
100
AcDbCircle
 10
1503.581405202089
 20
961.2503110979043
 30
0.0
 40
20.0
100
AcDbArc
 50
270.0
 51
355.1952178742094
  0
LINE
  5
16F9
330
1A
100
AcDbEntity
  8
0
100
AcDbLine
 10
1531.517115798656
 20
1030.129747521916
 30
0.0
 11
1530.162534055577
 21
1026.731410868234
 31
0.0
  0
ARC
  5
16FA
330
1A
100
AcDbEntity
  8
0
100
AcDbCircle
 10
1529.233610042126
 20
1027.101681279191
 30
0.0
 40
1.0
100
AcDbArc
 50
293.2677048100587
 51
338.2677048100379
  0
LINE
  5
16FB
330
1A
100
AcDbEntity
  8
0
100
AcDbLine
 10
1529.090493842033
 20
1025.951610192789
 30
0.0
 11
1529.628637792784
 21
1026.183012091609
 31
0.0
  0
ARC
  5
16FC
330
1A
100
AcDbEntity
  8
0
100
AcDbCircle
 10
1530.588191785203
 20
1030.500017932875
 30
0.0
 40
1.0
100
AcDbArc
 50
338.267704810024
 51
18.26770481006109
  0
LINE
  5
16FD
330
1A
100
AcDbEntity
  8
0
100
AcDbLine
 10
1528.54847902136
 20
1039.869448384623
 30
0.0
 11
1531.537794096183
 21
1030.813475188296
 31
0.0
  0
LINE
  5
2537
330
1A
100
AcDbEntity
  8
0
100
AcDbLine
 10
1488.782859918765
 20
491.6497536877513
 30
0.0
 11
1458.282859918761
 21
491.6497536877368
 31
0.0
  0
LINE
  5
2538
330
1A
100
AcDbEntity
  8
0
100
AcDbLine
 10
1484.532859918761
 20
503.6497536877369
 30
0.0
 11
1484.532859918761
 21
502.724493315728
 31
0.0
  0
LINE
  5
2539
330
1A
100
AcDbEntity
  8
0
100
AcDbLine
 10
1489.282859918765
 20
498.7660901937424
 30
0.0
 11
1489.282859918765
 21
492.1497536877514
 31
0.0
  0
LINE
  5
253A
330
1A
100
AcDbEntity
  8
0
100
AcDbLine
 10
1457.782859918765
 20
498.6497536877513
 30
0.0
 11
1457.782859918761
 21
492.1497536877368
 31
0.0
  0
LINE
  5
253B
330
1A
100
AcDbEntity
  8
0
100
AcDbLine
 10
1482.532859918761
 20
505.6497536877368
 30
0.0
 11
1464.532859918761
 21
505.6497536877368
 31
0.0
  0
LINE
  5
253C
330
1A
100
AcDbEntity
  8
0
100
AcDbLine
 10
1486.756402783454
 20
499.8267158368626
 30
0.0
 11
1488.912269441318
 21
499.2490531068843
 31
0.0
  0
LINE
  5
253D
330
1A
100
AcDbEntity
  8
0
100
AcDbLine
 10
1489.103487932787
 20
499.1497536877368
 30
0.0
 11
1458.282859918765
 21
499.1497536877513
 31
0.0
  0
ARC
  5
253E
330
1A
100
AcDbEntity
  8
0
100
AcDbCircle
 10
1487.532859918761
 20
502.724493315728
 30
0.0
 40
3.0
100
AcDbArc
 50
180.0
 51
254.9999999999245
  0
ARC
  5
253F
330
1A
100
AcDbEntity
  8
0
100
AcDbCircle
 10
1482.532859918761
 20
503.6497536877369
 30
0.0
 40
2.0
100
AcDbArc
 50
0.0
 51
90.0
  0
ARC
  5
2540
330
1A
100
AcDbEntity
  8
0
100
AcDbCircle
 10
1488.782859918765
 20
492.1497536877514
 30
0.0
 40
0.5
100
AcDbArc
 50
270.0
 51
0.0
  0
ARC
  5
2541
330
1A
100
AcDbEntity
  8
0
100
AcDbCircle
 10
1488.782859918765
 20
498.7660901937424
 30
0.0
 40
0.5
100
AcDbArc
 50
0.0
 51
74.99999999973564
  0
ARC
  5
2542
330
1A
100
AcDbEntity
  8
0
100
AcDbCircle
 10
1458.282859918765
 20
498.6497536877513
 30
0.0
 40
0.5
100
AcDbArc
 50
90.0
 51
180.0
  0
ARC
  5
2543
330
1A
100
AcDbEntity
  8
0
100
AcDbCircle
 10
1458.282859918761
 20
492.1497536877368
 30
0.0
 40
0.5
100
AcDbArc
 50
180.0
 51
270.0
  0
LINE
  5
2544
330
1A
100
AcDbEntity
  8
0
100
AcDbLine
 10
1460.309317054069
 20
499.8267158368626
 30
0.0
 11
1458.153450396205
 21
499.2490531068843
 31
0.0
  0
LINE
  5
2545
330
1A
100
AcDbEntity
  8
0
100
AcDbLine
 10
1457.782859918758
 20
498.7660901937424
 30
0.0
 11
1457.782859918758
 21
492.1497536877514
 31
0.0
  0
ARC
  5
2546
330
1A
100
AcDbEntity
  8
0
100
AcDbCircle
 10
1458.282859918758
 20
498.7660901937424
 30
0.0
 40
0.5
100
AcDbArc
 50
105.0000000002643
 51
180.0
  0
ARC
  5
2547
330
1A
100
AcDbEntity
  8
0
100
AcDbCircle
 10
1458.282859918758
 20
492.1497536877514
 30
0.0
 40
0.5
100
AcDbArc
 50
180.0
 51
270.0
  0
LINE
  5
2548
330
1A
100
AcDbEntity
  8
0
100
AcDbLine
 10
1462.532859918761
 20
503.6497536877369
 30
0.0
 11
1462.532859918761
 21
502.724493315728
 31
0.0
  0
ARC
  5
2549
330
1A
100
AcDbEntity
  8
0
100
AcDbCircle
 10
1464.532859918761
 20
503.6497536877369
 30
0.0
 40
2.0
100
AcDbArc
 50
90.0
 51
180.0
  0
ARC
  5
254A
330
1A
100
AcDbEntity
  8
0
100
AcDbCircle
 10
1459.532859918761
 20
502.724493315728
 30
0.0
 40
3.0
100
AcDbArc
 50
285.0000000000754
 51
0.0
  0
LINE
  5
254B
330
1A
100
AcDbEntity
  8
0
100
AcDbLine
 10
1477.532859918736
 20
505.6497536877514
 30
0.0
 11
1477.532859918735
 21
511.1497536877394
 31
0.0
  0
LINE
  5
254C
330
1A
100
AcDbEntity
  8
0
100
AcDbLine
 10
1476.856327418731
 20
505.6497536877368
 30
0.0
 11
1476.856327418734
 21
511.1497536877394
 31
0.0
  0
LINE
  5
254D
330
1A
100
AcDbEntity
  8
0
100
AcDbLine
 10
1469.532859918739
 20
511.1497536877394
 30
0.0
 11
1469.53285991874
 21
505.6497536877514
 31
0.0
  0
LINE
  5
254E
330
1A
100
AcDbEntity
  8
0
100
AcDbLine
 10
1470.209392418745
 20
505.6497536877514
 30
0.0
 11
1470.209392418744
 21
511.1497536877394
 31
0.0
  0
LINE
  5
254F
330
1A
100
AcDbEntity
  8
0
100
AcDbLine
 10
1473.932859918766
 20
499.1497536877368
 30
0.0
 11
1473.932859918766
 21
491.6497536877513
 31
0.0
  0
LINE
  5
2550
330
1A
100
AcDbEntity
  8
0
100
AcDbLine
 10
1473.132859918763
 20
499.1497536877513
 30
0.0
 11
1473.132859918763
 21
491.6497536877368
 31
0.0
  0
LINE
  5
2551
330
1A
100
AcDbEntity
  8
0
100
AcDbLine
 10
1475.432859918766
 20
499.1497536877368
 30
0.0
 11
1475.432859918766
 21
491.6497536877513
 31
0.0
  0
LINE
  5
2552
330
1A
100
AcDbEntity
  8
0
100
AcDbLine
 10
1474.632859918763
 20
499.1497536877513
 30
0.0
 11
1474.632859918763
 21
491.6497536877368
 31
0.0
  0
LINE
  5
2553
330
1A
100
AcDbEntity
  8
0
100
AcDbLine
 10
1476.132859918763
 20
499.1497536877513
 30
0.0
 11
1476.132859918763
 21
491.6497536877368
 31
0.0
  0
LINE
  5
2554
330
1A
100
AcDbEntity
  8
0
100
AcDbLine
 10
1476.932859918766
 20
499.1497536877368
 30
0.0
 11
1476.932859918766
 21
491.6497536877513
 31
0.0
  0
LINE
  5
2555
330
1A
100
AcDbEntity
  8
0
100
AcDbLine
 10
1478.432859918766
 20
499.1497536877368
 30
0.0
 11
1478.432859918766
 21
491.6497536877513
 31
0.0
  0
LINE
  5
2556
330
1A
100
AcDbEntity
  8
0
100
AcDbLine
 10
1477.632859918763
 20
499.1497536877513
 30
0.0
 11
1477.632859918763
 21
491.6497536877368
 31
0.0
  0
LINE
  5
2557
330
1A
100
AcDbEntity
  8
0
100
AcDbLine
 10
1479.132859918763
 20
499.1497536877513
 30
0.0
 11
1479.132859918763
 21
491.6497536877368
 31
0.0
  0
LINE
  5
2558
330
1A
100
AcDbEntity
  8
0
100
AcDbLine
 10
1479.932859918766
 20
499.1497536877368
 30
0.0
 11
1479.932859918766
 21
491.6497536877513
 31
0.0
  0
LINE
  5
2559
330
1A
100
AcDbEntity
  8
0
100
AcDbLine
 10
1481.432859918766
 20
499.1497536877368
 30
0.0
 11
1481.432859918766
 21
491.6497536877513
 31
0.0
  0
LINE
  5
255A
330
1A
100
AcDbEntity
  8
0
100
AcDbLine
 10
1480.632859918763
 20
499.1497536877513
 30
0.0
 11
1480.632859918763
 21
491.6497536877368
 31
0.0
  0
LINE
  5
255B
330
1A
100
AcDbEntity
  8
0
100
AcDbLine
 10
1482.132859918763
 20
499.1497536877513
 30
0.0
 11
1482.132859918763
 21
491.6497536877368
 31
0.0
  0
LINE
  5
255C
330
1A
100
AcDbEntity
  8
0
100
AcDbLine
 10
1482.932859918766
 20
499.1497536877368
 30
0.0
 11
1482.932859918766
 21
491.6497536877513
 31
0.0
  0
LINE
  5
255D
330
1A
100
AcDbEntity
  8
0
100
AcDbLine
 10
1484.432859918766
 20
499.1497536877368
 30
0.0
 11
1484.432859918766
 21
491.6497536877513
 31
0.0
  0
LINE
  5
255E
330
1A
100
AcDbEntity
  8
0
100
AcDbLine
 10
1483.632859918763
 20
499.1497536877513
 30
0.0
 11
1483.632859918763
 21
491.6497536877368
 31
0.0
  0
LINE
  5
255F
330
1A
100
AcDbEntity
  8
0
100
AcDbLine
 10
1485.132859918764
 20
499.1497536877513
 30
0.0
 11
1485.132859918764
 21
491.6497536877368
 31
0.0
  0
LINE
  5
2560
330
1A
100
AcDbEntity
  8
0
100
AcDbLine
 10
1485.932859918766
 20
499.1497536877368
 30
0.0
 11
1485.932859918766
 21
491.6497536877513
 31
0.0
  0
LINE
  5
2561
330
1A
100
AcDbEntity
  8
0
100
AcDbLine
 10
1487.432859918766
 20
499.1497536877368
 30
0.0
 11
1487.432859918766
 21
491.6497536877513
 31
0.0
  0
LINE
  5
2562
330
1A
100
AcDbEntity
  8
0
100
AcDbLine
 10
1486.632859918764
 20
499.1497536877513
 30
0.0
 11
1486.632859918764
 21
491.6497536877368
 31
0.0
  0
LINE
  5
2563
330
1A
100
AcDbEntity
  8
0
100
AcDbLine
 10
1488.132859918763
 20
499.1497536877513
 30
0.0
 11
1488.132859918763
 21
491.6497536877368
 31
0.0
  0
LINE
  5
2564
330
1A
100
AcDbEntity
  8
0
100
AcDbLine
 10
1488.932859918766
 20
499.1497536877368
 30
0.0
 11
1488.932859918766
 21
491.6497536877513
 31
0.0
  0
LINE
  5
2565
330
1A
100
AcDbEntity
  8
0
100
AcDbLine
 10
1458.132859918763
 20
499.1497536877368
 30
0.0
 11
1458.132859918763
 21
491.6497536877513
 31
0.0
  0
LINE
  5
2566
330
1A
100
AcDbEntity
  8
0
100
AcDbLine
 10
1458.932859918767
 20
499.1497536877513
 30
0.0
 11
1458.932859918767
 21
491.6497536877368
 31
0.0
  0
LINE
  5
2567
330
1A
100
AcDbEntity
  8
0
100
AcDbLine
 10
1460.432859918766
 20
499.1497536877513
 30
0.0
 11
1460.432859918766
 21
491.6497536877368
 31
0.0
  0
LINE
  5
2568
330
1A
100
AcDbEntity
  8
0
100
AcDbLine
 10
1459.632859918763
 20
499.1497536877368
 30
0.0
 11
1459.632859918763
 21
491.6497536877513
 31
0.0
  0
LINE
  5
2569
330
1A
100
AcDbEntity
  8
0
100
AcDbLine
 10
1461.132859918764
 20
499.1497536877368
 30
0.0
 11
1461.132859918764
 21
491.6497536877513
 31
0.0
  0
LINE
  5
256A
330
1A
100
AcDbEntity
  8
0
100
AcDbLine
 10
1461.932859918766
 20
499.1497536877513
 30
0.0
 11
1461.932859918766
 21
491.6497536877368
 31
0.0
  0
LINE
  5
256B
330
1A
100
AcDbEntity
  8
0
100
AcDbLine
 10
1463.432859918766
 20
499.1497536877513
 30
0.0
 11
1463.432859918766
 21
491.6497536877368
 31
0.0
  0
LINE
  5
256C
330
1A
100
AcDbEntity
  8
0
100
AcDbLine
 10
1462.632859918764
 20
499.1497536877368
 30
0.0
 11
1462.632859918764
 21
491.6497536877513
 31
0.0
  0
LINE
  5
256D
330
1A
100
AcDbEntity
  8
0
100
AcDbLine
 10
1464.132859918763
 20
499.1497536877368
 30
0.0
 11
1464.132859918763
 21
491.6497536877513
 31
0.0
  0
LINE
  5
256E
330
1A
100
AcDbEntity
  8
0
100
AcDbLine
 10
1464.932859918766
 20
499.1497536877513
 30
0.0
 11
1464.932859918766
 21
491.6497536877368
 31
0.0
  0
LINE
  5
256F
330
1A
100
AcDbEntity
  8
0
100
AcDbLine
 10
1466.432859918766
 20
499.1497536877513
 30
0.0
 11
1466.432859918766
 21
491.6497536877368
 31
0.0
  0
LINE
  5
2570
330
1A
100
AcDbEntity
  8
0
100
AcDbLine
 10
1465.632859918764
 20
499.1497536877368
 30
0.0
 11
1465.632859918764
 21
491.6497536877513
 31
0.0
  0
LINE
  5
2571
330
1A
100
AcDbEntity
  8
0
100
AcDbLine
 10
1467.132859918764
 20
499.1497536877368
 30
0.0
 11
1467.132859918764
 21
491.6497536877513
 31
0.0
  0
LINE
  5
2572
330
1A
100
AcDbEntity
  8
0
100
AcDbLine
 10
1467.932859918766
 20
499.1497536877513
 30
0.0
 11
1467.932859918766
 21
491.6497536877368
 31
0.0
  0
LINE
  5
2573
330
1A
100
AcDbEntity
  8
0
100
AcDbLine
 10
1469.432859918766
 20
499.1497536877513
 30
0.0
 11
1469.432859918766
 21
491.6497536877368
 31
0.0
  0
LINE
  5
2574
330
1A
100
AcDbEntity
  8
0
100
AcDbLine
 10
1468.632859918763
 20
499.1497536877368
 30
0.0
 11
1468.632859918763
 21
491.6497536877513
 31
0.0
  0
LINE
  5
2575
330
1A
100
AcDbEntity
  8
0
100
AcDbLine
 10
1470.132859918764
 20
499.1497536877368
 30
0.0
 11
1470.132859918764
 21
491.6497536877513
 31
0.0
  0
LINE
  5
2576
330
1A
100
AcDbEntity
  8
0
100
AcDbLine
 10
1470.932859918766
 20
499.1497536877513
 30
0.0
 11
1470.932859918766
 21
491.6497536877368
 31
0.0
  0
LINE
  5
2577
330
1A
100
AcDbEntity
  8
0
100
AcDbLine
 10
1472.432859918767
 20
499.1497536877513
 30
0.0
 11
1472.432859918767
 21
491.6497536877368
 31
0.0
  0
LINE
  5
2578
330
1A
100
AcDbEntity
  8
0
100
AcDbLine
 10
1471.632859918764
 20
499.1497536877368
 30
0.0
 11
1471.632859918764
 21
491.6497536877513
 31
0.0
  0
LINE
  5
257B
330
1A
100
AcDbEntity
  8
0
100
AcDbLine
 10
943.532859918756
 20
520.6497536877448
 30
0.0
 11
961.5328599187559
 21
520.6497536877448
 31
0.0
  0
LINE
  5
257C
330
1A
100
AcDbEntity
  8
0
100
AcDbLine
 10
943.532859918756
 20
522.6497536877449
 30
0.0
 11
943.532859918756
 21
520.6497536877448
 31
0.0
  0
LINE
  5
257E
330
1A
100
AcDbEntity
  8
0
100
AcDbLine
 10
961.5328599187559
 20
522.6497536877449
 30
0.0
 11
961.5328599187559
 21
520.6497536877448
 31
0.0
  0
LINE
  5
257F
330
1A
100
AcDbEntity
  8
0
100
AcDbLine
 10
943.532859918756
 20
522.6497536877396
 30
0.0
 11
961.5328599187559
 21
522.6497536877449
 31
0.0
  0
LINE
  5
2582
330
1A
100
AcDbEntity
  8
0
100
AcDbLine
 10
1277.532859918763
 20
520.6497536877459
 30
0.0
 11
1295.532859918763
 21
520.6497536877459
 31
0.0
  0
LINE
  5
2583
330
1A
100
AcDbEntity
  8
0
100
AcDbLine
 10
1277.532859918763
 20
522.6497536877459
 30
0.0
 11
1277.532859918763
 21
520.6497536877459
 31
0.0
  0
LINE
  5
2585
330
1A
100
AcDbEntity
  8
0
100
AcDbLine
 10
1295.532859918763
 20
522.6497536877459
 30
0.0
 11
1295.532859918763
 21
520.6497536877459
 31
0.0
  0
LINE
  5
2586
330
1A
100
AcDbEntity
  8
0
100
AcDbLine
 10
1277.532859918763
 20
522.6497536877396
 30
0.0
 11
1295.532859918763
 21
522.6497536877459
 31
0.0
  0
LINE
  5
2D8D
330
1A
100
AcDbEntity
  8
0
100
AcDbLine
 10
1431.965401013265
 20
589.2195526811518
 30
0.0
 11
1430.322759064369
 21
542.1804417793716
 31
0.0
  0
LINE
  5
2D8E
330
1A
100
AcDbEntity
  8
0
100
AcDbLine
 10
1433.964182667303
 20
591.1497536877393
 30
0.0
 11
1488.10149108283
 21
591.1497536877393
 31
0.0
  0
LINE
  5
2D8F
330
1A
100
AcDbEntity
  8
0
100
AcDbLine
 10
1325.349205498764
 20
529.1497536877393
 30
0.0
 11
1353.315046564701
 21
529.1497536877393
 31
0.0
  0
LINE
  5
2D90
330
1A
100
AcDbEntity
  8
0
100
AcDbLine
 10
1258.211332314763
 20
511.1497536877393
 30
0.0
 11
1274.407859918755
 21
511.1497536877394
 31
0.0
  0
LINE
  5
2D91
330
1A
100
AcDbEntity
  8
0
100
AcDbLine
 10
1489.124689218766
 20
511.1497536877394
 30
0.0
 11
1489.124689218766
 21
518.17543477505
 31
0.0
  0
LINE
  5
2D95
330
1A
100
AcDbEntity
  8
0
100
AcDbLine
 10
1459.532859918763
 20
547.1497536877393
 30
0.0
 11
1489.638004940469
 21
547.1497536877393
 31
0.0
  0
ARC
  5
2D96
330
1A
100
AcDbEntity
  8
0
100
AcDbCircle
 10
1490.124689218766
 20
518.17543477505
 30
0.0
 40
1.0
100
AcDbArc
 50
96.49601425912592
 51
180.0
  0
LINE
  5
2D97
330
1A
100
AcDbEntity
  8
0
100
AcDbLine
 10
1489.899516715206
 20
519.1497536877393
 30
0.0
 11
1491.51163372206
 21
519.1497536877393
 31
0.0
  0
ARC
  5
2D98
330
1A
100
AcDbEntity
  8
0
100
AcDbCircle
 10
1433.964182667303
 20
589.1497536877393
 30
0.0
 40
2.0
100
AcDbArc
 50
90.0
 51
177.9999999997878
  0
LINE
  5
2D99
330
1A
100
AcDbEntity
  8
0
100
AcDbLine
 10
1492.511024549079
 20
520.1846531844455
 30
0.0
 11
1490.100272736868
 21
589.2195526811518
 31
0.0
  0
ARC
  5
2D9A
330
1A
100
AcDbEntity
  8
0
100
AcDbCircle
 10
1491.51163372206
 20
520.1497536877393
 30
0.0
 40
1.0
100
AcDbArc
 50
270.0
 51
2.000000000212218
  0
ARC
  5
2D9B
330
1A
100
AcDbEntity
  8
0
100
AcDbCircle
 10
1433.964182667303
 20
589.1497536877393
 30
0.0
 40
2.0
100
AcDbArc
 50
90.0
 51
177.9999999997878
  0
ARC
  5
2D9C
330
1A
100
AcDbEntity
  8
0
100
AcDbCircle
 10
1488.10149108283
 20
589.1497536877393
 30
0.0
 40
2.0
100
AcDbArc
 50
2.000000000212218
 51
90.0
  0
ARC
  5
2D9D
330
1A
100
AcDbEntity
  8
0
100
AcDbCircle
 10
1489.638004940469
 20
545.1497536877393
 30
0.0
 40
2.0
100
AcDbArc
 50
2.000000000212218
 51
90.0
  0
LINE
  5
2D9E
330
1A
100
AcDbEntity
  8
0
100
AcDbLine
 10
1367.619223774007
 20
530.438950653053
 30
0.0
 11
1459.532859918763
 21
547.1424892866013
 31
0.0
  0
ARC
  5
2D9F
330
1A
100
AcDbEntity
  8
0
100
AcDbCircle
 10
1353.315046564701
 20
609.1497536877393
 30
0.0
 40
80.0
100
AcDbArc
 50
270.0
 51
280.2999999997598
  0
LINE
  5
2DA0
330
1A
100
AcDbEntity
  8
0
100
AcDbLine
 10
1298.657859918765
 20
511.1497536877394
 30
0.0
 11
1489.124689218766
 21
511.1497536877394
 31
0.0
  0
DIMENSION
  5
2DA1
330
1A
100
AcDbEntity
  8
MEASURE
100
AcDbDimension
  2
*D9
 10
1286.532859918759
 20
421.6497536877449
 30
0.0
 11
1380.032859918761
 21
432.8997536877449
 31
0.0
 70
    32
 71
     5
 42
187.0000000000036
  3
AD-STANDARD
100
AcDbAlignedDimension
 13
1473.532859918763
 23
491.6497536877441
 33
0.0
 14
1286.532859918759
 24
491.6497536877459
 34
0.0
100
AcDbRotatedDimension
1001
ACAD
1000
DSTYLE
1002
{
1070
    40
1040
5.0
1070
   140
1040
3.5
1070
   271
1070
     8
1070
   272
1070
     8
1070
   289
1070
     1
1002
}
  0
LINE
  5
2E85
330
1A
100
AcDbEntity
  8
0
100
AcDbLine
 10
941.5328599187523
 20
512.6497536877449
 30
0.0
 11
963.5328599187523
 21
512.6497536877449
 31
0.0
  0
ARC
  5
2E86
330
1A
100
AcDbEntity
  8
0
100
AcDbCircle
 10
940.5328599187523
 20
493.6497536877449
 30
0.0
 40
2.0
100
AcDbArc
 50
180.0
 51
270.0
  0
LINE
  5
2E87
330
1A
100
AcDbEntity
  8
0
100
AcDbLine
 10
941.5328599187523
 20
512.6497536877449
 30
0.0
 11
938.5328599187523
 21
508.6497536877449
 31
0.0
  0
LINE
  5
2E88
330
1A
100
AcDbEntity
  8
0
100
AcDbLine
 10
924.5215034464523
 20
508.6497536877449
 30
0.0
 11
915.9434757644524
 21
504.6497536877449
 31
0.0
  0
LINE
  5
2E89
330
1A
100
AcDbEntity
  8
0
100
AcDbLine
 10
938.5328599187523
 20
496.6497536877449
 30
0.0
 11
938.5328599187523
 21
493.6497536877449
 31
0.0
  0
LINE
  5
2E8A
330
1A
100
AcDbEntity
  8
0
100
AcDbLine
 10
938.5328599187523
 20
493.6497536877449
 30
0.0
 11
966.5328599187523
 21
493.6497536877449
 31
0.0
  0
ARC
  5
2E8B
330
1A
100
AcDbEntity
  8
0
100
AcDbCircle
 10
964.5328599187523
 20
493.6497536877449
 30
0.0
 40
2.0
100
AcDbArc
 50
270.0
 51
0.0
  0
LINE
  5
2E8C
330
1A
100
AcDbEntity
  8
0
100
AcDbLine
 10
966.5328599187523
 20
508.6497536877449
 30
0.0
 11
963.5328599187523
 21
512.6497536877449
 31
0.0
  0
LINE
  5
2E8D
330
1A
100
AcDbEntity
  8
0
100
AcDbLine
 10
989.1222440730523
 20
504.6497536877449
 30
0.0
 11
980.5442163910523
 21
508.6497536877449
 31
0.0
  0
LINE
  5
2E8E
330
1A
100
AcDbEntity
  8
0
100
AcDbLine
 10
915.9434757644524
 20
504.6497536877449
 30
0.0
 11
914.5328599187523
 21
496.6497536877449
 31
0.0
  0
LINE
  5
2E8F
330
1A
100
AcDbEntity
  8
0
100
AcDbLine
 10
990.5328599187523
 20
496.6497536877449
 30
0.0
 11
989.1222440730523
 21
504.6497536877449
 31
0.0
  0
LINE
  5
2E90
330
1A
100
AcDbEntity
  8
0
100
AcDbLine
 10
966.5328599187523
 20
493.6497536877449
 30
0.0
 11
966.5328599187523
 21
496.6497536877449
 31
0.0
  0
LINE
  5
2E91
330
1A
100
AcDbEntity
  8
0
100
AcDbLine
 10
915.9434757644524
 20
504.6497536877449
 30
0.0
 11
916.2571198619524
 21
504.6497536877449
 31
0.0
  0
LINE
  5
2E92
330
1A
100
AcDbEntity
  8
0
100
AcDbLine
 10
989.1222440730523
 20
504.6497536877449
 30
0.0
 11
988.8085999755524
 21
504.6497536877449
 31
0.0
  0
LINE
  5
2E93
330
1A
100
AcDbEntity
  8
0
100
AcDbLine
 10
922.0992400457523
 20
496.6497536877449
 30
0.0
 11
914.9227522223522
 21
496.6497536877449
 31
0.0
  0
LINE
  5
2E94
330
1A
100
AcDbEntity
  8
0
100
AcDbLine
 10
990.1429676151522
 20
496.6497536877449
 30
0.0
 11
990.5328599187523
 21
496.6497536877449
 31
0.0
  0
LINE
  5
2E95
330
1A
100
AcDbEntity
  8
0
100
AcDbLine
 10
975.2879644323524
 20
496.6497536877449
 30
0.0
 11
982.9664797917523
 21
496.6497536877449
 31
0.0
  0
ARC
  5
2E96
330
1A
100
AcDbEntity
  8
0
100
AcDbCircle
 10
939.0073528011523
 20
480.4002852454449
 30
0.0
 40
25.7781087156
100
AcDbArc
 50
70.169456795603
 51
109.830543204397
  0
SPLINE
  5
2E97
330
1A
100
AcDbEntity
  8
0
100
AcDbSpline
210
0.0
220
0.0
230
1.0
 70
     8
 71
     3
 72
    14
 73
    10
 74
     0
 42
0.0000000001
 43
0.0000000001
 40
0.0
 40
0.0
 40
0.0
 40
0.0
 40
0.25
 40
0.25
 40
0.5
 40
0.5
 40
0.75
 40
0.75
 40
1.0
 40
1.0
 40
1.0
 40
1.0
 10
923.5016745330248
 20
504.6497536877945
 30
0.0
 10
923.542503183985
 20
505.1179398569913
 30
0.0
 10
923.4252241048032
 20
505.4986633716407
 30
0.0
 10
922.8461946699409
 20
506.0297271499489
 30
0.0
 10
922.3763395753728
 20
506.1739352443304
 30
0.0
 10
921.1218504296512
 20
506.1740738338267
 30
0.0
 10
920.3191683568466
 20
506.0304747328498
 30
0.0
 10
918.4618294245034
 20
505.4990361097286
 30
0.0
 10
917.4149115771959
 20
505.1179926422125
 30
0.0
 10
916.2571198619197
 20
504.6497536877945
 30
0.0
  0
LINE
  5
2E98
330
1A
100
AcDbEntity
  8
0
100
AcDbLine
 10
990.1429676151522
 20
496.6497536877449
 30
0.0
 11
982.9664797917523
 21
496.6497536877449
 31
0.0
  0
SPLINE
  5
2E99
330
1A
100
AcDbEntity
  8
0
100
AcDbSpline
210
0.0
220
0.0
230
1.0
 70
     8
 71
     3
 72
    14
 73
    10
 74
     0
 42
0.0000000001
 43
0.0000000001
 40
0.0
 40
0.0
 40
0.0
 40
0.0
 40
0.2500000000000001
 40
0.2500000000000001
 40
0.5000000000000001
 40
0.5000000000000001
 40
0.75
 40
0.75
 40
1.0
 40
1.0
 40
1.0
 40
1.0
 10
988.8085999755794
 20
504.6497536877945
 30
0.0
 10
987.6509387797549
 20
505.1179398569913
 30
0.0
 10
986.6047895643903
 20
505.4986633716407
 30
0.0
 10
984.7495669180778
 20
506.0297271499489
 30
0.0
 10
983.9449753844148
 20
506.1739352443304
 30
0.0
 10
982.6901611852971
 20
506.1740738338267
 30
0.0
 10
982.2207650574096
 20
506.0304747328498
 30
0.0
 10
981.640478245419
 20
505.4990361097286
 30
0.0
 10
981.5232120503251
 20
505.1179926422125
 30
0.0
 10
981.5640453044741
 20
504.6497536877945
 30
0.0
  0
ARC
  5
2E9A
330
1A
100
AcDbEntity
  8
0
100
AcDbCircle
 10
966.0583670363523
 20
480.4008693282449
 30
0.0
 40
25.7775592697
100
AcDbArc
 50
70.16901638119836
 51
109.8309836188016
  0
ARC
  5
2E9B
330
1A
100
AcDbEntity
  8
0
100
AcDbCircle
 10
-2116.503652315147
 20
313.3612529066452
 30
0.0
 40
3097.2197332299
100
AcDbArc
 50
3.39265461460141
 51
3.540918781501431
  0
LINE
  5
2E9C
330
1A
100
AcDbEntity
  8
0
100
AcDbLine
 10
975.2879644323524
 20
496.6497536877449
 30
0.0
 11
957.9623901988522
 21
496.6497536877449
 31
0.0
  0
ARC
  5
2E9D
330
1A
100
AcDbEntity
  8
0
100
AcDbCircle
 10
-6742.104778794949
 20
1844.340684305046
 30
0.0
 40
7781.792472617199
100
AcDbArc
 50
350.0269374223015
 51
350.0867380565021
  0
LINE
  5
2E9E
330
1A
100
AcDbEntity
  8
0
100
AcDbLine
 10
914.9227522223522
 20
496.6497536877449
 30
0.0
 11
916.2571198619524
 21
504.6497536877449
 31
0.0
  0
ARC
  5
2E9F
330
1A
100
AcDbEntity
  8
0
100
AcDbCircle
 10
-6653.780937556447
 20
-774.2145500839545
 30
0.0
 40
7748.8495111633
100
AcDbArc
 50
9.439544516698461
 51
9.499514528300421
  0
LINE
  5
2EA0
330
1A
100
AcDbEntity
  8
0
100
AcDbLine
 10
929.7777554051522
 20
496.6497536877449
 30
0.0
 11
930.2624017309524
 21
504.6497536877449
 31
0.0
  0
LINE
  5
2EA1
330
1A
100
AcDbEntity
  8
0
100
AcDbLine
 10
982.9664797917523
 20
496.6497536877449
 30
0.0
 11
981.5640453044522
 21
504.6497536877449
 31
0.0
  0
LINE
  5
2EA2
330
1A
100
AcDbEntity
  8
0
100
AcDbLine
 10
981.5640453044522
 20
504.6497536877449
 30
0.0
 11
974.8033181065522
 21
504.6497536877449
 31
0.0
  0
LINE
  5
2EA3
330
1A
100
AcDbEntity
  8
0
100
AcDbLine
 10
957.3134159661522
 20
504.6497536877449
 30
0.0
 11
947.7523038713522
 21
504.6497536877449
 31
0.0
  0
LINE
  5
2EA4
330
1A
100
AcDbEntity
  8
0
100
AcDbLine
 10
930.2624017309524
 20
504.6497536877449
 30
0.0
 11
923.5016745330524
 21
504.6497536877449
 31
0.0
  0
ARC
  5
2EA5
330
1A
100
AcDbEntity
  8
0
100
AcDbCircle
 10
-2153.088350894548
 20
752.1691412843452
 30
0.0
 40
3110.7038774987
100
AcDbArc
 50
355.2883022971969
 51
355.4361376759024
  0
LINE
  5
2EA6
330
1A
100
AcDbEntity
  8
0
100
AcDbLine
 10
947.1033296386522
 20
496.6497536877449
 30
0.0
 11
957.9623901988522
 21
496.6497536877449
 31
0.0
  0
LINE
  5
2EA7
330
1A
100
AcDbEntity
  8
0
100
AcDbLine
 10
947.1033296386522
 20
496.6497536877449
 30
0.0
 11
929.7777554051522
 21
496.6497536877449
 31
0.0
  0
LINE
  5
2EA8
330
1A
100
AcDbEntity
  8
0
100
AcDbLine
 10
922.0992400457523
 20
496.6497536877449
 30
0.0
 11
929.7777554051522
 21
496.6497536877449
 31
0.0
  0
LINE
  5
2EA9
330
1A
100
AcDbEntity
  8
0
100
AcDbLine
 10
914.5328599187523
 20
496.6497536877449
 30
0.0
 11
914.9227522223522
 21
496.6497536877449
 31
0.0
  0
LINE
  5
2EAA
330
1A
100
AcDbEntity
  8
0
100
AcDbLine
 10
924.5215034464523
 20
508.6497536877449
 30
0.0
 11
980.5442163910523
 21
508.6497536877449
 31
0.0
  0
LINE
  5
2EAB
330
1A
100
AcDbEntity
  8
0
100
AcDbLine
 10
940.5328599187523
 20
491.6497536877449
 30
0.0
 11
964.5328599187523
 21
491.6497536877449
 31
0.0
  0
LINE
  5
2EAC
330
1A
100
AcDbEntity
  8
0
100
AcDbLine
 10
957.9623901988522
 20
496.6497536877449
 30
0.0
 11
957.3134159661522
 21
504.6497536877449
 31
0.0
  0
LINE
  5
2EB8
330
1A
100
AcDbEntity
  8
0
100
AcDbLine
 10
1275.532859918759
 20
512.6497536877459
 30
0.0
 11
1297.532859918759
 21
512.6497536877459
 31
0.0
  0
ARC
  5
2EB9
330
1A
100
AcDbEntity
  8
0
100
AcDbCircle
 10
1274.532859918759
 20
493.6497536877459
 30
0.0
 40
2.0
100
AcDbArc
 50
180.0
 51
270.0
  0
LINE
  5
2EBA
330
1A
100
AcDbEntity
  8
0
100
AcDbLine
 10
1275.532859918759
 20
512.6497536877459
 30
0.0
 11
1272.532859918759
 21
508.6497536877459
 31
0.0
  0
LINE
  5
2EBB
330
1A
100
AcDbEntity
  8
0
100
AcDbLine
 10
1258.52150344646
 20
508.6497536877459
 30
0.0
 11
1249.94347576446
 21
504.6497536877459
 31
0.0
  0
LINE
  5
2EBC
330
1A
100
AcDbEntity
  8
0
100
AcDbLine
 10
1272.532859918759
 20
496.6497536877459
 30
0.0
 11
1272.532859918759
 21
493.6497536877459
 31
0.0
  0
LINE
  5
2EBD
330
1A
100
AcDbEntity
  8
0
100
AcDbLine
 10
1272.532859918759
 20
493.6497536877459
 30
0.0
 11
1300.532859918759
 21
493.6497536877459
 31
0.0
  0
ARC
  5
2EBE
330
1A
100
AcDbEntity
  8
0
100
AcDbCircle
 10
1298.532859918759
 20
493.6497536877459
 30
0.0
 40
2.0
100
AcDbArc
 50
270.0
 51
0.0
  0
LINE
  5
2EBF
330
1A
100
AcDbEntity
  8
0
100
AcDbLine
 10
1300.532859918759
 20
508.6497536877459
 30
0.0
 11
1297.532859918759
 21
512.6497536877459
 31
0.0
  0
LINE
  5
2EC0
330
1A
100
AcDbEntity
  8
0
100
AcDbLine
 10
1323.12224407306
 20
504.6497536877459
 30
0.0
 11
1314.54421639106
 21
508.6497536877459
 31
0.0
  0
LINE
  5
2EC1
330
1A
100
AcDbEntity
  8
0
100
AcDbLine
 10
1249.94347576446
 20
504.6497536877459
 30
0.0
 11
1248.532859918759
 21
496.6497536877459
 31
0.0
  0
LINE
  5
2EC2
330
1A
100
AcDbEntity
  8
0
100
AcDbLine
 10
1324.53285991876
 20
496.6497536877459
 30
0.0
 11
1323.12224407306
 21
504.6497536877459
 31
0.0
  0
LINE
  5
2EC3
330
1A
100
AcDbEntity
  8
0
100
AcDbLine
 10
1300.532859918759
 20
493.6497536877459
 30
0.0
 11
1300.532859918759
 21
496.6497536877459
 31
0.0
  0
LINE
  5
2EC4
330
1A
100
AcDbEntity
  8
0
100
AcDbLine
 10
1249.94347576446
 20
504.6497536877459
 30
0.0
 11
1250.25711986196
 21
504.6497536877459
 31
0.0
  0
LINE
  5
2EC5
330
1A
100
AcDbEntity
  8
0
100
AcDbLine
 10
1323.12224407306
 20
504.6497536877459
 30
0.0
 11
1322.80859997556
 21
504.6497536877459
 31
0.0
  0
LINE
  5
2EC6
330
1A
100
AcDbEntity
  8
0
100
AcDbLine
 10
1256.09924004576
 20
496.6497536877459
 30
0.0
 11
1248.92275222236
 21
496.6497536877459
 31
0.0
  0
LINE
  5
2EC7
330
1A
100
AcDbEntity
  8
0
100
AcDbLine
 10
1324.142967615159
 20
496.6497536877459
 30
0.0
 11
1324.53285991876
 21
496.6497536877459
 31
0.0
  0
LINE
  5
2EC8
330
1A
100
AcDbEntity
  8
0
100
AcDbLine
 10
1309.28796443236
 20
496.6497536877459
 30
0.0
 11
1316.96647979176
 21
496.6497536877459
 31
0.0
  0
ARC
  5
2EC9
330
1A
100
AcDbEntity
  8
0
100
AcDbCircle
 10
1273.00735280116
 20
480.4002852454459
 30
0.0
 40
25.7781087156
100
AcDbArc
 50
70.169456795603
 51
109.830543204397
  0
SPLINE
  5
2ECA
330
1A
100
AcDbEntity
  8
0
100
AcDbSpline
210
0.0
220
0.0
230
1.0
 70
     8
 71
     3
 72
    14
 73
    10
 74
     0
 42
0.0000000001
 43
0.0000000001
 40
0.0
 40
0.0
 40
0.0
 40
0.0
 40
0.25
 40
0.25
 40
0.5
 40
0.5
 40
0.75
 40
0.75
 40
1.0
 40
1.0
 40
1.0
 40
1.0
 10
1257.501674533032
 20
504.6497536877954
 30
0.0
 10
1257.542503183992
 20
505.1179398569924
 30
0.0
 10
1257.42522410481
 20
505.4986633716417
 30
0.0
 10
1256.846194669948
 20
506.0297271499499
 30
0.0
 10
1256.37633957538
 20
506.1739352443314
 30
0.0
 10
1255.121850429658
 20
506.1740738338277
 30
0.0
 10
1254.319168356854
 20
506.0304747328508
 30
0.0
 10
1252.461829424511
 20
505.4990361097297
 30
0.0
 10
1251.414911577203
 20
505.1179926422134
 30
0.0
 10
1250.257119861927
 20
504.6497536877954
 30
0.0
  0
LINE
  5
2ECB
330
1A
100
AcDbEntity
  8
0
100
AcDbLine
 10
1324.142967615159
 20
496.6497536877459
 30
0.0
 11
1316.96647979176
 21
496.6497536877459
 31
0.0
  0
SPLINE
  5
2ECC
330
1A
100
AcDbEntity
  8
0
100
AcDbSpline
210
0.0
220
0.0
230
1.0
 70
     8
 71
     3
 72
    14
 73
    10
 74
     0
 42
0.0000000001
 43
0.0000000001
 40
0.0
 40
0.0
 40
0.0
 40
0.0
 40
0.2500000000000001
 40
0.2500000000000001
 40
0.5000000000000001
 40
0.5000000000000001
 40
0.75
 40
0.75
 40
1.0
 40
1.0
 40
1.0
 40
1.0
 10
1322.808599975586
 20
504.6497536877954
 30
0.0
 10
1321.650938779762
 20
505.1179398569924
 30
0.0
 10
1320.604789564397
 20
505.4986633716417
 30
0.0
 10
1318.749566918085
 20
506.0297271499499
 30
0.0
 10
1317.944975384422
 20
506.1739352443314
 30
0.0
 10
1316.690161185304
 20
506.1740738338277
 30
0.0
 10
1316.220765057417
 20
506.0304747328508
 30
0.0
 10
1315.640478245426
 20
505.4990361097297
 30
0.0
 10
1315.523212050332
 20
505.1179926422134
 30
0.0
 10
1315.564045304481
 20
504.6497536877954
 30
0.0
  0
ARC
  5
2ECD
330
1A
100
AcDbEntity
  8
0
100
AcDbCircle
 10
1300.05836703636
 20
480.400869328246
 30
0.0
 40
25.7775592697
100
AcDbArc
 50
70.16901638119836
 51
109.8309836188016
  0
ARC
  5
2ECE
330
1A
100
AcDbEntity
  8
0
100
AcDbCircle
 10
-1782.50365231514
 20
313.3612529066462
 30
0.0
 40
3097.2197332299
100
AcDbArc
 50
3.39265461460141
 51
3.540918781501431
  0
LINE
  5
2ECF
330
1A
100
AcDbEntity
  8
0
100
AcDbLine
 10
1309.28796443236
 20
496.6497536877459
 30
0.0
 11
1291.96239019886
 21
496.6497536877459
 31
0.0
  0
ARC
  5
2ED0
330
1A
100
AcDbEntity
  8
0
100
AcDbCircle
 10
-6408.104778794942
 20
1844.340684305047
 30
0.0
 40
7781.792472617199
100
AcDbArc
 50
350.0269374223032
 51
350.086738056502
  0
LINE
  5
2ED1
330
1A
100
AcDbEntity
  8
0
100
AcDbLine
 10
1248.92275222236
 20
496.6497536877459
 30
0.0
 11
1250.25711986196
 21
504.6497536877459
 31
0.0
  0
ARC
  5
2ED2
330
1A
100
AcDbEntity
  8
0
100
AcDbCircle
 10
-6319.780937556441
 20
-774.2145500839535
 30
0.0
 40
7748.8495111633
100
AcDbArc
 50
9.439544516696825
 51
9.499514528300421
  0
LINE
  5
2ED3
330
1A
100
AcDbEntity
  8
0
100
AcDbLine
 10
1263.77775540516
 20
496.6497536877459
 30
0.0
 11
1264.26240173096
 21
504.6497536877459
 31
0.0
  0
LINE
  5
2ED4
330
1A
100
AcDbEntity
  8
0
100
AcDbLine
 10
1316.96647979176
 20
496.6497536877459
 30
0.0
 11
1315.56404530446
 21
504.6497536877459
 31
0.0
  0
LINE
  5
2ED5
330
1A
100
AcDbEntity
  8
0
100
AcDbLine
 10
1315.56404530446
 20
504.6497536877459
 30
0.0
 11
1308.80331810656
 21
504.6497536877459
 31
0.0
  0
LINE
  5
2ED6
330
1A
100
AcDbEntity
  8
0
100
AcDbLine
 10
1291.31341596616
 20
504.6497536877459
 30
0.0
 11
1281.75230387136
 21
504.6497536877459
 31
0.0
  0
LINE
  5
2ED7
330
1A
100
AcDbEntity
  8
0
100
AcDbLine
 10
1264.26240173096
 20
504.6497536877459
 30
0.0
 11
1257.50167453306
 21
504.6497536877459
 31
0.0
  0
ARC
  5
2ED8
330
1A
100
AcDbEntity
  8
0
100
AcDbCircle
 10
-1819.08835089454
 20
752.1691412843462
 30
0.0
 40
3110.7038774987
100
AcDbArc
 50
355.2883022971969
 51
355.4361376759024
  0
LINE
  5
2ED9
330
1A
100
AcDbEntity
  8
0
100
AcDbLine
 10
1281.10332963866
 20
496.6497536877459
 30
0.0
 11
1291.96239019886
 21
496.6497536877459
 31
0.0
  0
LINE
  5
2EDA
330
1A
100
AcDbEntity
  8
0
100
AcDbLine
 10
1281.10332963866
 20
496.6497536877459
 30
0.0
 11
1263.77775540516
 21
496.6497536877459
 31
0.0
  0
LINE
  5
2EDB
330
1A
100
AcDbEntity
  8
0
100
AcDbLine
 10
1256.09924004576
 20
496.6497536877459
 30
0.0
 11
1263.77775540516
 21
496.6497536877459
 31
0.0
  0
LINE
  5
2EDC
330
1A
100
AcDbEntity
  8
0
100
AcDbLine
 10
1248.532859918759
 20
496.6497536877459
 30
0.0
 11
1248.92275222236
 21
496.6497536877459
 31
0.0
  0
LINE
  5
2EDD
330
1A
100
AcDbEntity
  8
0
100
AcDbLine
 10
1258.52150344646
 20
508.6497536877459
 30
0.0
 11
1314.54421639106
 21
508.6497536877459
 31
0.0
  0
LINE
  5
2EDE
330
1A
100
AcDbEntity
  8
0
100
AcDbLine
 10
1274.532859918759
 20
491.6497536877459
 30
0.0
 11
1298.532859918759
 21
491.6497536877459
 31
0.0
  0
LINE
  5
2EDF
330
1A
100
AcDbEntity
  8
0
100
AcDbLine
 10
1291.96239019886
 20
496.6497536877459
 30
0.0
 11
1291.31341596616
 21
504.6497536877459
 31
0.0
  0
LINE
  5
2F0E
330
1A
100
AcDbEntity
  8
0
100
AcDbLine
 10
507.7185340078995
 20
520.6497536877448
 30
0.0
 11
525.7185340078994
 21
520.6497536877448
 31
0.0
  0
LINE
  5
2F0F
330
1A
100
AcDbEntity
  8
0
100
AcDbLine
 10
507.7185340078995
 20
522.6497536877449
 30
0.0
 11
507.7185340078995
 21
520.6497536877448
 31
0.0
  0
LINE
  5
2F10
330
1A
100
AcDbEntity
  8
0
100
AcDbLine
 10
525.7185340078994
 20
522.6497536877449
 30
0.0
 11
525.7185340078994
 21
520.6497536877448
 31
0.0
  0
LINE
  5
2F11
330
1A
100
AcDbEntity
  8
0
100
AcDbLine
 10
507.7185340078995
 20
522.6497536877396
 30
0.0
 11
525.7185340078994
 21
522.6497536877449
 31
0.0
  0
LINE
  5
2F12
330
1A
100
AcDbEntity
  8
0
100
AcDbLine
 10
267.7185340078995
 20
520.6497536877448
 30
0.0
 11
285.7185340078995
 21
520.6497536877448
 31
0.0
  0
LINE
  5
2F13
330
1A
100
AcDbEntity
  8
0
100
AcDbLine
 10
267.7185340078995
 20
522.6497536877449
 30
0.0
 11
267.7185340078995
 21
520.6497536877448
 31
0.0
  0
LINE
  5
2F14
330
1A
100
AcDbEntity
  8
0
100
AcDbLine
 10
285.7185340078995
 20
522.6497536877449
 30
0.0
 11
285.7185340078995
 21
520.6497536877448
 31
0.0
  0
LINE
  5
2F15
330
1A
100
AcDbEntity
  8
0
100
AcDbLine
 10
267.7185340078995
 20
522.6497536877396
 30
0.0
 11
285.7185340078995
 21
522.6497536877449
 31
0.0
  0
LINE
  5
3212
330
1A
100
AcDbEntity
  8
0
 62
     7
100
AcDbLine
 10
268.2185340079031
 20
520.6497536877448
 30
0.0
 11
268.2185340079031
 21
512.6497536877449
 31
0.0
  0
ARC
  5
3213
330
1A
100
AcDbEntity
  8
0
100
AcDbCircle
 10
280.9685340079031
 20
508.3742470493433
 30
0.0
 40
12.27550663840318
100
AcDbArc
 50
69.7438419996073
 51
110.2561580003927
  0
LINE
  5
3214
330
1A
100
AcDbEntity
  8
0
 62
     7
100
AcDbLine
 10
268.2185340079031
 20
520.6497536877448
 30
0.0
 11
285.2185340079031
 21
520.6497536877448
 31
0.0
  0
ARC
  5
3215
330
1A
100
AcDbEntity
  8
0
100
AcDbCircle
 10
272.4685340079031
 20
508.3742470493433
 30
0.0
 40
12.27550663840318
100
AcDbArc
 50
69.7438419996073
 51
110.2561580003927
  0
LINE
  5
3216
330
1A
100
AcDbEntity
  8
0
100
AcDbLine
 10
268.2185340079031
 20
512.6497536877449
 30
0.0
 11
285.2185340079031
 21
512.6497536877449
 31
0.0
  0
ARC
  5
3217
330
1A
100
AcDbEntity
  8
0
100
AcDbCircle
 10
280.9685340078958
 20
524.9252603261465
 30
0.0
 40
12.27550663840318
100
AcDbArc
 50
249.7438419996072
 51
290.2561580003927
  0
LINE
  5
3218
330
1A
100
AcDbEntity
  8
0
100
AcDbLine
 10
268.2185340078958
 20
512.6497536877449
 30
0.0
 11
285.2185340078958
 21
512.6497536877449
 31
0.0
  0
ARC
  5
3219
330
1A
100
AcDbEntity
  8
0
100
AcDbCircle
 10
272.4685340078958
 20
524.9252603261465
 30
0.0
 40
12.27550663840318
100
AcDbArc
 50
249.7438419996072
 51
290.2561580003927
  0
LINE
  5
321A
330
1A
100
AcDbEntity
  8
0
 62
     7
100
AcDbLine
 10
285.2185340079031
 20
520.6497536877448
 30
0.0
 11
285.2185340079031
 21
512.6497536877449
 31
0.0
  0
LINE
  5
321B
330
1A
100
AcDbEntity
  8
0
100
AcDbLine
 10
276.7185340079031
 20
519.8905643091911
 30
0.0
 11
276.7185340079103
 21
513.4089430662915
 31
0.0
  0
LINE
  5
321C
330
1A
100
AcDbEntity
  8
0
100
AcDbLine
 10
268.7185340079031
 20
512.6497536877449
 30
0.0
 11
284.7185340079031
 21
512.6497536877449
 31
0.0
  0
LINE
  5
321D
330
1A
100
AcDbEntity
  8
0
100
AcDbLine
 10
265.7185340078958
 20
512.6497536877449
 30
0.0
 11
287.7185340078958
 21
512.6497536877449
 31
0.0
  0
ARC
  5
321E
330
1A
100
AcDbEntity
  8
0
100
AcDbCircle
 10
264.7185340078958
 20
493.6497536877449
 30
0.0
 40
2.0
100
AcDbArc
 50
180.0
 51
270.0
  0
LINE
  5
321F
330
1A
100
AcDbEntity
  8
0
100
AcDbLine
 10
265.7185340078958
 20
512.6497536877449
 30
0.0
 11
262.7185340078958
 21
508.6497536877449
 31
0.0
  0
LINE
  5
3220
330
1A
100
AcDbEntity
  8
0
100
AcDbLine
 10
248.7071775355958
 20
508.6497536877449
 30
0.0
 11
240.1291498535958
 21
504.6497536877449
 31
0.0
  0
LINE
  5
3221
330
1A
100
AcDbEntity
  8
0
100
AcDbLine
 10
262.7185340078958
 20
496.6497536877449
 30
0.0
 11
262.7185340078958
 21
493.6497536877449
 31
0.0
  0
LINE
  5
3222
330
1A
100
AcDbEntity
  8
0
100
AcDbLine
 10
262.7185340078958
 20
493.6497536877449
 30
0.0
 11
290.7185340078958
 21
493.6497536877449
 31
0.0
  0
ARC
  5
3223
330
1A
100
AcDbEntity
  8
0
100
AcDbCircle
 10
288.7185340078958
 20
493.6497536877449
 30
0.0
 40
2.0
100
AcDbArc
 50
270.0
 51
0.0
  0
LINE
  5
3224
330
1A
100
AcDbEntity
  8
0
100
AcDbLine
 10
290.7185340078958
 20
508.6497536877449
 30
0.0
 11
287.7185340078958
 21
512.6497536877449
 31
0.0
  0
LINE
  5
3225
330
1A
100
AcDbEntity
  8
0
100
AcDbLine
 10
313.3079181621959
 20
504.6497536877449
 30
0.0
 11
304.7298904801958
 21
508.6497536877449
 31
0.0
  0
LINE
  5
3226
330
1A
100
AcDbEntity
  8
0
100
AcDbLine
 10
240.1291498535958
 20
504.6497536877449
 30
0.0
 11
238.7185340078958
 21
496.6497536877449
 31
0.0
  0
LINE
  5
3227
330
1A
100
AcDbEntity
  8
0
100
AcDbLine
 10
314.7185340078958
 20
496.6497536877449
 30
0.0
 11
313.3079181621959
 21
504.6497536877449
 31
0.0
  0
LINE
  5
3228
330
1A
100
AcDbEntity
  8
0
100
AcDbLine
 10
290.7185340078958
 20
493.6497536877449
 30
0.0
 11
290.7185340078958
 21
496.6497536877449
 31
0.0
  0
LINE
  5
3229
330
1A
100
AcDbEntity
  8
0
100
AcDbLine
 10
240.1291498535958
 20
504.6497536877449
 30
0.0
 11
240.4427939510958
 21
504.6497536877449
 31
0.0
  0
LINE
  5
322A
330
1A
100
AcDbEntity
  8
0
100
AcDbLine
 10
313.3079181621959
 20
504.6497536877449
 30
0.0
 11
312.9942740646958
 21
504.6497536877449
 31
0.0
  0
LINE
  5
322B
330
1A
100
AcDbEntity
  8
0
100
AcDbLine
 10
246.2849141348958
 20
496.6497536877449
 30
0.0
 11
239.1084263114958
 21
496.6497536877449
 31
0.0
  0
LINE
  5
322C
330
1A
100
AcDbEntity
  8
0
100
AcDbLine
 10
314.3286417042958
 20
496.6497536877449
 30
0.0
 11
314.7185340078958
 21
496.6497536877449
 31
0.0
  0
LINE
  5
322D
330
1A
100
AcDbEntity
  8
0
100
AcDbLine
 10
299.4736385214958
 20
496.6497536877449
 30
0.0
 11
307.1521538808958
 21
496.6497536877449
 31
0.0
  0
ARC
  5
322E
330
1A
100
AcDbEntity
  8
0
100
AcDbCircle
 10
263.1930268902958
 20
480.4002852454449
 30
0.0
 40
25.7781087156
100
AcDbArc
 50
70.16945679559973
 51
109.8305432044002
  0
SPLINE
  5
322F
330
1A
100
AcDbEntity
  8
0
100
AcDbSpline
210
0.0
220
0.0
230
1.0
 70
     8
 71
     3
 72
    14
 73
    10
 74
     0
 42
0.0000000001
 43
0.0000000001
 40
0.0
 40
0.0
 40
0.0
 40
0.0
 40
0.25
 40
0.25
 40
0.5
 40
0.5
 40
0.75
 40
0.75
 40
1.0
 40
1.0
 40
1.0
 40
1.0
 10
247.6873486221684
 20
504.6497536877945
 30
0.0
 10
247.7281772731285
 20
505.1179398569913
 30
0.0
 10
247.6108981939467
 20
505.4986633716407
 30
0.0
 10
247.0318687590845
 20
506.0297271499489
 30
0.0
 10
246.5620136645162
 20
506.1739352443304
 30
0.0
 10
245.3075245187946
 20
506.1740738338267
 30
0.0
 10
244.50484244599
 20
506.0304747328498
 30
0.0
 10
242.6475035136468
 20
505.4990361097286
 30
0.0
 10
241.6005856663394
 20
505.1179926422125
 30
0.0
 10
240.4427939510632
 20
504.6497536877945
 30
0.0
  0
LINE
  5
3230
330
1A
100
AcDbEntity
  8
0
100
AcDbLine
 10
314.3286417042958
 20
496.6497536877449
 30
0.0
 11
307.1521538808958
 21
496.6497536877449
 31
0.0
  0
SPLINE
  5
3231
330
1A
100
AcDbEntity
  8
0
100
AcDbSpline
210
0.0
220
0.0
230
1.0
 70
     8
 71
     3
 72
    14
 73
    10
 74
     0
 42
0.0000000001
 43
0.0000000001
 40
0.0
 40
0.0
 40
0.0
 40
0.0
 40
0.2500000000000001
 40
0.2500000000000001
 40
0.5000000000000001
 40
0.5000000000000001
 40
0.75
 40
0.75
 40
1.0
 40
1.0
 40
1.0
 40
1.0
 10
312.9942740647229
 20
504.6497536877945
 30
0.0
 10
311.8366128688983
 20
505.1179398569913
 30
0.0
 10
310.7904636535337
 20
505.4986633716407
 30
0.0
 10
308.9352410072213
 20
506.0297271499489
 30
0.0
 10
308.1306494735583
 20
506.1739352443304
 30
0.0
 10
306.8758352744406
 20
506.1740738338267
 30
0.0
 10
306.406439146553
 20
506.0304747328498
 30
0.0
 10
305.8261523345625
 20
505.4990361097286
 30
0.0
 10
305.7088861394686
 20
505.1179926422125
 30
0.0
 10
305.7497193936176
 20
504.6497536877945
 30
0.0
  0
ARC
  5
3232
330
1A
100
AcDbEntity
  8
0
100
AcDbCircle
 10
290.2440411254958
 20
480.4008693282449
 30
0.0
 40
25.7775592697
100
AcDbArc
 50
70.1690163812013
 51
109.8309836187987
  0
ARC
  5
3233
330
1A
100
AcDbEntity
  8
0
100
AcDbCircle
 10
-2792.317978226004
 20
313.3612529066451
 30
0.0
 40
3097.2197332299
100
AcDbArc
 50
3.392654614601371
 51
3.540918781501474
  0
LINE
  5
3234
330
1A
100
AcDbEntity
  8
0
100
AcDbLine
 10
299.4736385214958
 20
496.6497536877449
 30
0.0
 11
282.1480642879958
 21
496.6497536877449
 31
0.0
  0
ARC
  5
3235
330
1A
100
AcDbEntity
  8
0
100
AcDbCircle
 10
-7417.919104705806
 20
1844.340684305046
 30
0.0
 40
7781.792472617199
100
AcDbArc
 50
350.0269374223015
 51
350.086738056502
  0
LINE
  5
3236
330
1A
100
AcDbEntity
  8
0
100
AcDbLine
 10
239.1084263114958
 20
496.6497536877449
 30
0.0
 11
240.4427939510958
 21
504.6497536877449
 31
0.0
  0
ARC
  5
3237
330
1A
100
AcDbEntity
  8
0
100
AcDbCircle
 10
-7329.595263467306
 20
-774.2145500839547
 30
0.0
 40
7748.8495111633
100
AcDbArc
 50
9.439544516698372
 51
9.499514528300293
  0
LINE
  5
3238
330
1A
100
AcDbEntity
  8
0
100
AcDbLine
 10
253.9634294942958
 20
496.6497536877449
 30
0.0
 11
254.4480758200958
 21
504.6497536877449
 31
0.0
  0
LINE
  5
3239
330
1A
100
AcDbEntity
  8
0
100
AcDbLine
 10
307.1521538808958
 20
496.6497536877449
 30
0.0
 11
305.7497193935958
 21
504.6497536877449
 31
0.0
  0
LINE
  5
323A
330
1A
100
AcDbEntity
  8
0
100
AcDbLine
 10
305.7497193935958
 20
504.6497536877449
 30
0.0
 11
298.9889921956958
 21
504.6497536877449
 31
0.0
  0
LINE
  5
323B
330
1A
100
AcDbEntity
  8
0
100
AcDbLine
 10
281.4990900552958
 20
504.6497536877449
 30
0.0
 11
271.9379779604958
 21
504.6497536877449
 31
0.0
  0
LINE
  5
323C
330
1A
100
AcDbEntity
  8
0
100
AcDbLine
 10
254.4480758200958
 20
504.6497536877449
 30
0.0
 11
247.6873486221958
 21
504.6497536877449
 31
0.0
  0
ARC
  5
323D
330
1A
100
AcDbEntity
  8
0
100
AcDbCircle
 10
-2828.902676805405
 20
752.1691412843452
 30
0.0
 40
3110.7038774987
100
AcDbArc
 50
355.288302297197
 51
355.4361376759024
  0
LINE
  5
323E
330
1A
100
AcDbEntity
  8
0
100
AcDbLine
 10
271.2890037277958
 20
496.6497536877449
 30
0.0
 11
282.1480642879958
 21
496.6497536877449
 31
0.0
  0
LINE
  5
323F
330
1A
100
AcDbEntity
  8
0
100
AcDbLine
 10
271.2890037277958
 20
496.6497536877449
 30
0.0
 11
253.9634294942958
 21
496.6497536877449
 31
0.0
  0
LINE
  5
3240
330
1A
100
AcDbEntity
  8
0
100
AcDbLine
 10
246.2849141348958
 20
496.6497536877449
 30
0.0
 11
253.9634294942958
 21
496.6497536877449
 31
0.0
  0
LINE
  5
3241
330
1A
100
AcDbEntity
  8
0
100
AcDbLine
 10
238.7185340078958
 20
496.6497536877449
 30
0.0
 11
239.1084263114958
 21
496.6497536877449
 31
0.0
  0
LINE
  5
3242
330
1A
100
AcDbEntity
  8
0
100
AcDbLine
 10
248.7071775355958
 20
508.6497536877449
 30
0.0
 11
304.7298904801958
 21
508.6497536877449
 31
0.0
  0
LINE
  5
3243
330
1A
100
AcDbEntity
  8
0
100
AcDbLine
 10
264.7185340078958
 20
491.6497536877449
 30
0.0
 11
288.7185340078958
 21
491.6497536877449
 31
0.0
  0
LINE
  5
3244
330
1A
100
AcDbEntity
  8
0
100
AcDbLine
 10
282.1480642879958
 20
496.6497536877449
 30
0.0
 11
281.4990900552958
 21
504.6497536877449
 31
0.0
  0
LINE
  5
3245
330
1A
100
AcDbEntity
  8
0
 62
     7
100
AcDbLine
 10
508.2185340079031
 20
520.6497536877448
 30
0.0
 11
508.2185340079031
 21
512.6497536877449
 31
0.0
  0
ARC
  5
3246
330
1A
100
AcDbEntity
  8
0
100
AcDbCircle
 10
520.9685340079031
 20
508.3742470493433
 30
0.0
 40
12.27550663840318
100
AcDbArc
 50
69.7438419996073
 51
110.2561580003927
  0
LINE
  5
3247
330
1A
100
AcDbEntity
  8
0
 62
     7
100
AcDbLine
 10
508.2185340079031
 20
520.6497536877448
 30
0.0
 11
525.2185340079031
 21
520.6497536877448
 31
0.0
  0
ARC
  5
3248
330
1A
100
AcDbEntity
  8
0
100
AcDbCircle
 10
512.4685340079031
 20
508.3742470493433
 30
0.0
 40
12.27550663840318
100
AcDbArc
 50
69.7438419996073
 51
110.2561580003927
  0
LINE
  5
3249
330
1A
100
AcDbEntity
  8
0
100
AcDbLine
 10
508.2185340079031
 20
512.6497536877449
 30
0.0
 11
525.2185340079031
 21
512.6497536877449
 31
0.0
  0
ARC
  5
324A
330
1A
100
AcDbEntity
  8
0
100
AcDbCircle
 10
520.9685340078959
 20
524.9252603261465
 30
0.0
 40
12.27550663840318
100
AcDbArc
 50
249.7438419996072
 51
290.2561580003927
  0
LINE
  5
324B
330
1A
100
AcDbEntity
  8
0
100
AcDbLine
 10
508.2185340078958
 20
512.6497536877449
 30
0.0
 11
525.2185340078958
 21
512.6497536877449
 31
0.0
  0
ARC
  5
324C
330
1A
100
AcDbEntity
  8
0
100
AcDbCircle
 10
512.4685340078959
 20
524.9252603261465
 30
0.0
 40
12.27550663840318
100
AcDbArc
 50
249.7438419996072
 51
290.2561580003927
  0
LINE
  5
324D
330
1A
100
AcDbEntity
  8
0
 62
     7
100
AcDbLine
 10
525.2185340079031
 20
520.6497536877448
 30
0.0
 11
525.2185340079031
 21
512.6497536877449
 31
0.0
  0
LINE
  5
324E
330
1A
100
AcDbEntity
  8
0
100
AcDbLine
 10
516.7185340079031
 20
519.8905643091911
 30
0.0
 11
516.7185340079104
 21
513.4089430662915
 31
0.0
  0
LINE
  5
324F
330
1A
100
AcDbEntity
  8
0
100
AcDbLine
 10
508.7185340079031
 20
512.6497536877449
 30
0.0
 11
524.7185340079031
 21
512.6497536877449
 31
0.0
  0
LINE
  5
3250
330
1A
100
AcDbEntity
  8
0
100
AcDbLine
 10
505.7185340078958
 20
512.6497536877449
 30
0.0
 11
527.7185340078959
 21
512.6497536877449
 31
0.0
  0
ARC
  5
3251
330
1A
100
AcDbEntity
  8
0
100
AcDbCircle
 10
504.7185340078958
 20
493.6497536877449
 30
0.0
 40
2.0
100
AcDbArc
 50
180.0
 51
270.0
  0
LINE
  5
3252
330
1A
100
AcDbEntity
  8
0
100
AcDbLine
 10
505.7185340078958
 20
512.6497536877449
 30
0.0
 11
502.7185340078959
 21
508.6497536877449
 31
0.0
  0
LINE
  5
3253
330
1A
100
AcDbEntity
  8
0
100
AcDbLine
 10
488.7071775355958
 20
508.6497536877449
 30
0.0
 11
480.1291498535959
 21
504.6497536877449
 31
0.0
  0
LINE
  5
3254
330
1A
100
AcDbEntity
  8
0
100
AcDbLine
 10
502.7185340078959
 20
496.6497536877449
 30
0.0
 11
502.7185340078959
 21
493.6497536877449
 31
0.0
  0
LINE
  5
3255
330
1A
100
AcDbEntity
  8
0
100
AcDbLine
 10
502.7185340078959
 20
493.6497536877449
 30
0.0
 11
530.7185340078958
 21
493.6497536877449
 31
0.0
  0
ARC
  5
3256
330
1A
100
AcDbEntity
  8
0
100
AcDbCircle
 10
528.7185340078958
 20
493.6497536877449
 30
0.0
 40
2.0
100
AcDbArc
 50
270.0
 51
0.0
  0
LINE
  5
3257
330
1A
100
AcDbEntity
  8
0
100
AcDbLine
 10
530.7185340078958
 20
508.6497536877449
 30
0.0
 11
527.7185340078959
 21
512.6497536877449
 31
0.0
  0
LINE
  5
3258
330
1A
100
AcDbEntity
  8
0
100
AcDbLine
 10
553.3079181621958
 20
504.6497536877449
 30
0.0
 11
544.7298904801958
 21
508.6497536877449
 31
0.0
  0
LINE
  5
3259
330
1A
100
AcDbEntity
  8
0
100
AcDbLine
 10
480.1291498535959
 20
504.6497536877449
 30
0.0
 11
478.7185340078958
 21
496.6497536877449
 31
0.0
  0
LINE
  5
325A
330
1A
100
AcDbEntity
  8
0
100
AcDbLine
 10
554.7185340078958
 20
496.6497536877449
 30
0.0
 11
553.3079181621958
 21
504.6497536877449
 31
0.0
  0
LINE
  5
325B
330
1A
100
AcDbEntity
  8
0
100
AcDbLine
 10
530.7185340078958
 20
493.6497536877449
 30
0.0
 11
530.7185340078958
 21
496.6497536877449
 31
0.0
  0
LINE
  5
325C
330
1A
100
AcDbEntity
  8
0
100
AcDbLine
 10
480.1291498535959
 20
504.6497536877449
 30
0.0
 11
480.4427939510958
 21
504.6497536877449
 31
0.0
  0
LINE
  5
325D
330
1A
100
AcDbEntity
  8
0
100
AcDbLine
 10
553.3079181621958
 20
504.6497536877449
 30
0.0
 11
552.9942740646959
 21
504.6497536877449
 31
0.0
  0
LINE
  5
325E
330
1A
100
AcDbEntity
  8
0
100
AcDbLine
 10
486.2849141348958
 20
496.6497536877449
 30
0.0
 11
479.1084263114957
 21
496.6497536877449
 31
0.0
  0
LINE
  5
325F
330
1A
100
AcDbEntity
  8
0
100
AcDbLine
 10
554.3286417042958
 20
496.6497536877449
 30
0.0
 11
554.7185340078958
 21
496.6497536877449
 31
0.0
  0
LINE
  5
3260
330
1A
100
AcDbEntity
  8
0
100
AcDbLine
 10
539.4736385214959
 20
496.6497536877449
 30
0.0
 11
547.1521538808958
 21
496.6497536877449
 31
0.0
  0
ARC
  5
3261
330
1A
100
AcDbEntity
  8
0
100
AcDbCircle
 10
503.1930268902958
 20
480.4002852454449
 30
0.0
 40
25.7781087156
100
AcDbArc
 50
70.16945679559973
 51
109.8305432044002
  0
SPLINE
  5
3262
330
1A
100
AcDbEntity
  8
0
100
AcDbSpline
210
0.0
220
0.0
230
1.0
 70
     8
 71
     3
 72
    14
 73
    10
 74
     0
 42
0.0000000001
 43
0.0000000001
 40
0.0
 40
0.0
 40
0.0
 40
0.0
 40
0.25
 40
0.25
 40
0.5
 40
0.5
 40
0.75
 40
0.75
 40
1.0
 40
1.0
 40
1.0
 40
1.0
 10
487.6873486221684
 20
504.6497536877945
 30
0.0
 10
487.7281772731286
 20
505.1179398569913
 30
0.0
 10
487.6108981939467
 20
505.4986633716407
 30
0.0
 10
487.0318687590845
 20
506.0297271499489
 30
0.0
 10
486.5620136645162
 20
506.1739352443304
 30
0.0
 10
485.3075245187946
 20
506.1740738338267
 30
0.0
 10
484.50484244599
 20
506.0304747328498
 30
0.0
 10
482.6475035136468
 20
505.4990361097286
 30
0.0
 10
481.6005856663394
 20
505.1179926422125
 30
0.0
 10
480.4427939510632
 20
504.6497536877945
 30
0.0
  0
LINE
  5
3263
330
1A
100
AcDbEntity
  8
0
100
AcDbLine
 10
554.3286417042958
 20
496.6497536877449
 30
0.0
 11
547.1521538808958
 21
496.6497536877449
 31
0.0
  0
SPLINE
  5
3264
330
1A
100
AcDbEntity
  8
0
100
AcDbSpline
210
0.0
220
0.0
230
1.0
 70
     8
 71
     3
 72
    14
 73
    10
 74
     0
 42
0.0000000001
 43
0.0000000001
 40
0.0
 40
0.0
 40
0.0
 40
0.0
 40
0.2500000000000001
 40
0.2500000000000001
 40
0.5000000000000001
 40
0.5000000000000001
 40
0.75
 40
0.75
 40
1.0
 40
1.0
 40
1.0
 40
1.0
 10
552.9942740647229
 20
504.6497536877945
 30
0.0
 10
551.8366128688983
 20
505.1179398569913
 30
0.0
 10
550.7904636535338
 20
505.4986633716407
 30
0.0
 10
548.9352410072212
 20
506.0297271499489
 30
0.0
 10
548.1306494735584
 20
506.1739352443304
 30
0.0
 10
546.8758352744406
 20
506.1740738338267
 30
0.0
 10
546.4064391465531
 20
506.0304747328498
 30
0.0
 10
545.8261523345625
 20
505.4990361097286
 30
0.0
 10
545.7088861394686
 20
505.1179926422125
 30
0.0
 10
545.7497193936176
 20
504.6497536877945
 30
0.0
  0
ARC
  5
3265
330
1A
100
AcDbEntity
  8
0
100
AcDbCircle
 10
530.2440411254958
 20
480.4008693282449
 30
0.0
 40
25.7775592697
100
AcDbArc
 50
70.1690163812013
 51
109.8309836187987
  0
ARC
  5
3266
330
1A
100
AcDbEntity
  8
0
100
AcDbCircle
 10
-2552.317978226004
 20
313.3612529066451
 30
0.0
 40
3097.2197332299
100
AcDbArc
 50
3.392654614601467
 51
3.540918781501374
  0
LINE
  5
3267
330
1A
100
AcDbEntity
  8
0
100
AcDbLine
 10
539.4736385214959
 20
496.6497536877449
 30
0.0
 11
522.1480642879957
 21
496.6497536877449
 31
0.0
  0
ARC
  5
3268
330
1A
100
AcDbEntity
  8
0
100
AcDbCircle
 10
-7177.919104705805
 20
1844.340684305046
 30
0.0
 40
7781.792472617199
100
AcDbArc
 50
350.0269374223015
 51
350.086738056502
  0
LINE
  5
3269
330
1A
100
AcDbEntity
  8
0
100
AcDbLine
 10
479.1084263114957
 20
496.6497536877449
 30
0.0
 11
480.4427939510958
 21
504.6497536877449
 31
0.0
  0
ARC
  5
326A
330
1A
100
AcDbEntity
  8
0
100
AcDbCircle
 10
-7089.595263467305
 20
-774.2145500839547
 30
0.0
 40
7748.8495111633
100
AcDbArc
 50
9.439544516698639
 51
9.499514528300293
  0
LINE
  5
326B
330
1A
100
AcDbEntity
  8
0
100
AcDbLine
 10
493.9634294942958
 20
496.6497536877449
 30
0.0
 11
494.4480758200958
 21
504.6497536877449
 31
0.0
  0
LINE
  5
326C
330
1A
100
AcDbEntity
  8
0
100
AcDbLine
 10
547.1521538808958
 20
496.6497536877449
 30
0.0
 11
545.7497193935958
 21
504.6497536877449
 31
0.0
  0
LINE
  5
326D
330
1A
100
AcDbEntity
  8
0
100
AcDbLine
 10
545.7497193935958
 20
504.6497536877449
 30
0.0
 11
538.9889921956958
 21
504.6497536877449
 31
0.0
  0
LINE
  5
326E
330
1A
100
AcDbEntity
  8
0
100
AcDbLine
 10
521.4990900552958
 20
504.6497536877449
 30
0.0
 11
511.9379779604958
 21
504.6497536877449
 31
0.0
  0
LINE
  5
326F
330
1A
100
AcDbEntity
  8
0
100
AcDbLine
 10
494.4480758200958
 20
504.6497536877449
 30
0.0
 11
487.6873486221958
 21
504.6497536877449
 31
0.0
  0
ARC
  5
3270
330
1A
100
AcDbEntity
  8
0
100
AcDbCircle
 10
-2588.902676805405
 20
752.1691412843452
 30
0.0
 40
3110.7038774987
100
AcDbArc
 50
355.288302297197
 51
355.4361376759024
  0
LINE
  5
3271
330
1A
100
AcDbEntity
  8
0
100
AcDbLine
 10
511.2890037277958
 20
496.6497536877449
 30
0.0
 11
522.1480642879957
 21
496.6497536877449
 31
0.0
  0
LINE
  5
3272
330
1A
100
AcDbEntity
  8
0
100
AcDbLine
 10
511.2890037277958
 20
496.6497536877449
 30
0.0
 11
493.9634294942958
 21
496.6497536877449
 31
0.0
  0
LINE
  5
3273
330
1A
100
AcDbEntity
  8
0
100
AcDbLine
 10
486.2849141348958
 20
496.6497536877449
 30
0.0
 11
493.9634294942958
 21
496.6497536877449
 31
0.0
  0
LINE
  5
3274
330
1A
100
AcDbEntity
  8
0
100
AcDbLine
 10
478.7185340078958
 20
496.6497536877449
 30
0.0
 11
479.1084263114957
 21
496.6497536877449
 31
0.0
  0
LINE
  5
3275
330
1A
100
AcDbEntity
  8
0
100
AcDbLine
 10
488.7071775355958
 20
508.6497536877449
 30
0.0
 11
544.7298904801958
 21
508.6497536877449
 31
0.0
  0
LINE
  5
3276
330
1A
100
AcDbEntity
  8
0
100
AcDbLine
 10
504.7185340078958
 20
491.6497536877449
 30
0.0
 11
528.7185340078958
 21
491.6497536877449
 31
0.0
  0
LINE
  5
3277
330
1A
100
AcDbEntity
  8
0
100
AcDbLine
 10
522.1480642879957
 20
496.6497536877449
 30
0.0
 11
521.4990900552958
 21
504.6497536877449
 31
0.0
  0
LINE
  5
3278
330
1A
100
AcDbEntity
  8
0
100
AcDbLine
 10
944.0328599187523
 20
520.6497536877448
 30
0.0
 11
961.0328599187523
 21
520.6497536877448
 31
0.0
  0
ARC
  5
3279
330
1A
100
AcDbEntity
  8
0
100
AcDbCircle
 10
952.5328599187524
 20
504.4089430662999
 30
0.0
 40
16.24081062144507
100
AcDbArc
 50
72.41204622600953
 51
107.5879537739904
  0
LINE
  5
327A
330
1A
100
AcDbEntity
  8
0
100
AcDbLine
 10
942.7179053425287
 20
512.6497536877449
 30
0.0
 11
962.3478144949759
 21
512.6497536877449
 31
0.0
  0
ARC
  5
327C
330
1A
100
AcDbEntity
  8
0
100
AcDbCircle
 10
944.0328599187523
 20
511.7701589984674
 30
0.0
 40
8.879594689277416
100
AcDbArc
 50
66.13507458395182
 51
90.0
  0
LINE
  5
327D
330
1A
100
AcDbEntity
  8
0
100
AcDbLine
 10
942.7179053425287
 20
519.89056430919
 30
0.0
 11
942.7179053425287
 21
512.6497536877449
 31
0.0
  0
LINE
  5
327E
330
1A
100
AcDbEntity
  8
0
100
AcDbLine
 10
944.0328599187523
 20
520.6497536877448
 30
0.0
 11
942.7179053425287
 21
519.89056430919
 31
0.0
  0
LINE
  5
327F
330
1A
100
AcDbEntity
  8
0
100
AcDbLine
 10
947.6253826306404
 20
519.89056430919
 30
0.0
 11
947.6253826306404
 21
512.6497536877449
 31
0.0
  0
LINE
  5
3280
330
1A
100
AcDbEntity
  8
0
100
AcDbLine
 10
957.4403372068642
 20
519.89056430919
 30
0.0
 11
957.4403372068642
 21
512.6497536877449
 31
0.0
  0
LINE
  5
3281
330
1A
100
AcDbEntity
  8
0
100
AcDbLine
 10
962.3478144949759
 20
519.89056430919
 30
0.0
 11
962.3478144949759
 21
512.6497536877449
 31
0.0
  0
LINE
  5
3282
330
1A
100
AcDbEntity
  8
0
100
AcDbLine
 10
957.4403372068642
 20
519.89056430919
 30
0.0
 11
957.4403372068642
 21
512.6497536877449
 31
0.0
  0
ARC
  5
3283
330
1A
100
AcDbEntity
  8
0
100
AcDbCircle
 10
961.0328599187523
 20
511.7701589984674
 30
0.0
 40
8.879594689277416
100
AcDbArc
 50
90.0
 51
113.8649254160482
  0
LINE
  5
3284
330
1A
100
AcDbEntity
  8
0
100
AcDbLine
 10
961.0328599187523
 20
520.6497536877448
 30
0.0
 11
962.3478144949759
 21
519.89056430919
 31
0.0
  0
LINE
  5
3285
330
1A
100
AcDbEntity
  8
0
100
AcDbLine
 10
1278.03285991876
 20
520.6497536877459
 30
0.0
 11
1295.032859918759
 21
520.6497536877459
 31
0.0
  0
ARC
  5
3286
330
1A
100
AcDbEntity
  8
0
100
AcDbCircle
 10
1286.532859918759
 20
504.4089430663008
 30
0.0
 40
16.24081062144507
100
AcDbArc
 50
72.41204622600953
 51
107.5879537739904
  0
LINE
  5
3287
330
1A
100
AcDbEntity
  8
0
100
AcDbLine
 10
1276.717905342536
 20
512.6497536877459
 30
0.0
 11
1296.347814494983
 21
512.6497536877459
 31
0.0
  0
ARC
  5
3289
330
1A
100
AcDbEntity
  8
0
100
AcDbCircle
 10
1278.03285991876
 20
511.7701589984685
 30
0.0
 40
8.879594689277416
100
AcDbArc
 50
66.13507458395182
 51
90.0
  0
LINE
  5
328A
330
1A
100
AcDbEntity
  8
0
100
AcDbLine
 10
1276.717905342536
 20
519.8905643091911
 30
0.0
 11
1276.717905342536
 21
512.6497536877459
 31
0.0
  0
LINE
  5
328B
330
1A
100
AcDbEntity
  8
0
100
AcDbLine
 10
1278.03285991876
 20
520.6497536877459
 30
0.0
 11
1276.717905342536
 21
519.8905643091911
 31
0.0
  0
LINE
  5
328C
330
1A
100
AcDbEntity
  8
0
100
AcDbLine
 10
1281.625382630648
 20
519.8905643091911
 30
0.0
 11
1281.625382630648
 21
512.6497536877459
 31
0.0
  0
LINE
  5
328D
330
1A
100
AcDbEntity
  8
0
100
AcDbLine
 10
1291.440337206871
 20
519.8905643091911
 30
0.0
 11
1291.440337206871
 21
512.6497536877459
 31
0.0
  0
LINE
  5
328E
330
1A
100
AcDbEntity
  8
0
100
AcDbLine
 10
1296.347814494983
 20
519.8905643091911
 30
0.0
 11
1296.347814494983
 21
512.6497536877459
 31
0.0
  0
LINE
  5
328F
330
1A
100
AcDbEntity
  8
0
100
AcDbLine
 10
1291.440337206871
 20
519.8905643091911
 30
0.0
 11
1291.440337206871
 21
512.6497536877459
 31
0.0
  0
ARC
  5
3290
330
1A
100
AcDbEntity
  8
0
100
AcDbCircle
 10
1295.032859918759
 20
511.7701589984685
 30
0.0
 40
8.879594689277416
100
AcDbArc
 50
90.0
 51
113.8649254160482
  0
LINE
  5
3291
330
1A
100
AcDbEntity
  8
0
100
AcDbLine
 10
1295.032859918759
 20
520.6497536877459
 30
0.0
 11
1296.347814494983
 21
519.8905643091911
 31
0.0
  0
VIEWPORT
  5
22
102
{ACAD_XDICTIONARY
360
3080
102
}
330
17
100
AcDbEntity
 67
     1
  8
0
100
AcDbViewport
 10
322.8976266895506
 20
149.4999839313701
 30
0.0
 40
670.5119873198416
 41
314.3157139297428
 68
     1
 69
     1
 12
322.8976266895506
 22
149.4999839313701
 13
0.0
 23
0.0
 14
1.0
 24
1.0
 15
10.0
 25
10.0
 16
0.0
 26
0.0
 36
1.0
 17
0.0
 27
0.0
 37
0.0
 42
50.0
 43
0.0
 44
0.0
 45
314.3157139297428
 50
0.0
 51
0.0
 72
   100
 90
    32768
  1

281
     0
 71
     1
 74
     0
110
0.0
120
0.0
130
0.0
111
1.0
121
0.0
131
0.0
112
0.0
122
1.0
132
0.0
 79
     0
146
0.0
  0
VIEWPORT
  5
2B8
102
{ACAD_XDICTIONARY
360
3088
102
}
330
17
100
AcDbEntity
 67
     1
  8
DEFPOINTS
100
AcDbViewport
 10
212.5
 20
149.4999999999999
 30
0.0
 40
385.0
 41
264.9999999999999
 68
     2
 69
     2
 12
921.707171855618
 22
713.0432311830154
 13
0.0
 23
0.0
 14
1.0
 24
1.0
 15
0.0
 25
0.0
 16
0.0
 26
0.0
 36
1.0
 17
0.0
 27
0.0
 37
0.0
 42
50.0
 43
0.0
 44
0.0
 45
1324.999999999999
 50
0.0
 51
0.0
 72
   100
 90
    36864
  1

281
     0
 71
     1
 74
     0
110
0.0
120
0.0
130
0.0
111
1.0
121
0.0
131
0.0
112
0.0
122
1.0
132
0.0
 79
     0
146
0.0
  0
ENDSEC
  0
SECTION
  2
OBJECTS
  0
DICTIONARY
  5
C
330
0
100
AcDbDictionary
281
     1
  3
ACAD_COLOR
350
129D
  3
ACAD_GROUP
350
D
  3
ACAD_LAYOUT
350
12A0
  3
ACAD_MATERIAL
350
129C
  3
ACAD_MLEADERSTYLE
350
17A6
  3
ACAD_MLINESTYLE
350
E
  3
ACAD_PLOTSETTINGS
350
12A1
  3
ACAD_PLOTSTYLENAME
350
129A
  3
ACAD_SCALELIST
350
1784
  3
ACAD_TABLESTYLE
350
129E
  3
ACAD_VISUALSTYLE
350
1773
  3
ACDB_RECOMPOSE_DATA
350
2FC0
  3
ACDBHEADERROUNDTRIPXREC
350
332F
  3
AcDbVariableDictionary
350
1350
  3
CONTENTDICTIONARY
350
234
  3
DWGPROPS
350
332E
  0
DICTIONARY
  5
2FC2
330
8
100
AcDbDictionary
280
     1
281
     1
  3
ACAD_XREC_ROUNDTRIP
360
307E
  0
DICTIONARY
  5
12B7
330
2
100
AcDbDictionary
280
     1
281
     1
  3
ACAD_LAYERFILTERS
360
2F3C
  3
ACAD_LAYERSTATES
360
12B8
  3
ACLYDICTIONARY
360
2F3B
  0
DICTIONARY
  5
2F99
330
F
100
AcDbDictionary
280
     1
281
     1
  3
ACAD_XREC_ROUNDTRIP
360
307F
  3
ADSK_XREC_LAYER_RECONCILED
360
2F9A
  0
DICTIONARY
  5
2F9B
330
71
100
AcDbDictionary
280
     1
281
     1
  3
ACAD_XREC_ROUNDTRIP
360
3082
  3
ADSK_XREC_LAYER_RECONCILED
360
2F9C
  0
DICTIONARY
  5
3083
330
72
100
AcDbDictionary
280
     1
281
     1
  3
ACAD_XREC_ROUNDTRIP
360
3084
  0
DICTIONARY
  5
131A
330
1A
100
AcDbDictionary
280
     1
281
     1
  3
ACAD_SORTENTS
360
131B
  0
DICTIONARY
  5
3080
330
22
100
AcDbDictionary
280
     1
281
     1
  3
ACAD_XREC_ROUNDTRIP
360
3081
  0
DICTIONARY
  5
3088
330
2B8
100
AcDbDictionary
280
     1
281
     1
  3
ACAD_XREC_ROUNDTRIP
360
3089
  0
DICTIONARY
  5
129D
102
{ACAD_REACTORS
330
C
102
}
330
C
100
AcDbDictionary
281
     1
  0
DICTIONARY
  5
D
102
{ACAD_REACTORS
330
C
102
}
330
C
100
AcDbDictionary
281
     1
  3
*A1
350
131F
  3
*A2
350
167C
  0
DICTIONARY
  5
12A0
102
{ACAD_REACTORS
330
C
102
}
330
C
100
AcDbDictionary
281
     1
  3
Model
350
12A2
  3
レイアウト1
350
12A3
  0
DICTIONARY
  5
129C
102
{ACAD_REACTORS
330
C
102
}
330
C
100
AcDbDictionary
281
     1
  3
ByBlock
350
1763
  3
ByLayer
350
175B
  3
Global
350
176B
  0
DICTIONARY
  5
17A6
102
{ACAD_REACTORS
330
C
102
}
330
C
100
AcDbDictionary
281
     1
  3
Standard
350
17A7
  0
DICTIONARY
  5
E
102
{ACAD_REACTORS
330
C
102
}
330
C
100
AcDbDictionary
281
     1
  3
STANDARD
350
13
  0
DICTIONARY
  5
12A1
102
{ACAD_REACTORS
330
C
102
}
330
C
100
AcDbDictionary
281
     1
  3
【A3用紙】RICOH IPSiO CX8200 RPCS
350
134F
  0
ACDBDICTIONARYWDFLT
  5
129A
102
{ACAD_REACTORS
330
C
102
}
330
C
100
AcDbDictionary
281
     1
  3
Normal
350
129B
100
AcDbDictionaryWithDefault
340
129B
  0
DICTIONARY
  5
1784
102
{ACAD_REACTORS
330
C
102
}
330
C
100
AcDbDictionary
281
     1
  3
A0
350
1785
  3
A1
350
1786
  3
A2
350
1787
  3
A3
350
1788
  3
A4
350
1789
  3
A5
350
178A
  3
A6
350
178B
  3
A7
350
178C
  3
A8
350
178D
  3
A9
350
178E
  3
B0
350
178F
  3
B1
350
1790
  3
B2
350
1791
  3
B3
350
1792
  3
B4
350
1793
  3
B5
350
1794
  3
B6
350
1795
  3
B7
350
1796
  3
B8
350
1797
  3
B9
350
1798
  3
C0
350
1799
  3
C1
350
179A
  3
C2
350
179B
  3
C3
350
179C
  3
C4
350
179D
  3
C5
350
179E
  3
C6
350
179F
  3
C7
350
17A0
  3
C8
350
17A1
  3
C9
350
17A2
  3
D0
350
17A3
  3
D1
350
17A4
  3
D2
350
17A5
  0
DICTIONARY
  5
129E
102
{ACAD_REACTORS
330
C
102
}
330
C
100
AcDbDictionary
281
     1
  3
Standard
350
129F
  0
DICTIONARY
  5
1773
102
{ACAD_REACTORS
330
C
102
}
330
C
100
AcDbDictionary
281
     1
  3
2dWireframe
350
1779
  3
3D Hidden
350
177B
  3
3dWireframe
350
177A
  3
Basic
350
1778
  3
Brighten
350
177F
  3
ColorChange
350
1783
  3
Conceptual
350
177C
  3
Dim
350
177E
  3
Facepattern
350
1782
  3
Flat
350
1774
  3
FlatWithEdges
350
1775
  3
Gouraud
350
1776
  3
GouraudWithEdges
350
1777
  3
Linepattern
350
1781
  3
Realistic
350
177D
  3
Thicken
350
1780
  0
XRECORD
  5
2FC0
102
{ACAD_REACTORS
330
C
102
}
330
C
100
AcDbXrecord
280
     1
 90
        1
330
129F
  0
DICTIONARY
  5
332F
102
{ACAD_REACTORS
330
C
102
}
330
C
100
AcDbDictionary
281
     1
  0
DICTIONARY
  5
1350
102
{ACAD_REACTORS
330
C
102
}
330
C
100
AcDbDictionary
281
     1
  3
CANNOSCALE
350
2FEE
  3
CMLEADERSTYLE
350
2FED
  3
CTABLESTYLE
350
1351
  3
DIMASSOC
350
135D
  3
INDEXCTL
350
2FF0
  3
PROJECTNAME
350
135E
  3
SORTENTS
350
2FEF
  0
DICTIONARY
  5
234
102
{ACAD_REACTORS
330
C
102
}
330
C
100
AcDbDictionary
281
     1
  0
XRECORD
  5
332E
102
{ACAD_REACTORS
330
C
102
}
330
C
100
AcDbXrecord
280
     1
  1
DWGPROPS COOKIE
  2

  3

  4

  6

  7

  8
SIBASAKI-174
  9

300
=
301
=
302
=
303
=
304
=
305
=
306
=
307
=
308
=
309
=
 40
0.1907922800925926
 41
2451414.498518056
 42
2456696.683286713
  1

 90
        0
  0
XRECORD
  5
307E
102
{ACAD_REACTORS
330
2FC2
102
}
330
2FC2
100
AcDbXrecord
280
     1
102
VTR_0.000_0.000_1.000_1.000_VISUALSTYLE
340
1779
102
VTR_0.000_0.000_1.000_1.000_GRIDDISPLAY
 70
     3
102
VTR_0.000_0.000_1.000_1.000_GRIDMAJOR
 70
     5
102
VTR_0.000_0.000_1.000_1.000_DEFAULTLIGHTING
280
     1
102
VTR_0.000_0.000_1.000_1.000_DEFAULTLIGHTINGTYPE
 70
     1
102
VTR_0.000_0.000_1.000_1.000_BRIGHTNESS
141
0.0
102
VTR_0.000_0.000_1.000_1.000_CONTRAST
142
0.0
  0
DICTIONARY
  5
2F3C
102
{ACAD_REACTORS
330
12B7
102
}
330
12B7
100
AcDbDictionary
281
     1
  0
DICTIONARY
  5
12B8
102
{ACAD_REACTORS
330
12B7
102
}
330
12B7
100
AcDbDictionary
281
     1
  0
DICTIONARY
  5
2F3B
102
{ACAD_REACTORS
330
12B7
102
}
330
12B7
100
AcDbDictionary
281
     1
1001
ACAD
1000
<All
  0
XRECORD
  5
307F
102
{ACAD_REACTORS
330
2F99
102
}
330
2F99
100
AcDbXrecord
280
     1
102
MATERIAL
340
176B
  0
XRECORD
  5
2F9A
102
{ACAD_REACTORS
330
2F99
102
}
330
2F99
100
AcDbXrecord
280
     1
290
     1
  0
XRECORD
  5
3082
102
{ACAD_REACTORS
330
2F9B
102
}
330
2F9B
100
AcDbXrecord
280
     1
102
MATERIAL
340
176B
  0
XRECORD
  5
2F9C
102
{ACAD_REACTORS
330
2F9B
102
}
330
2F9B
100
AcDbXrecord
280
     1
290
     1
  0
XRECORD
  5
3084
102
{ACAD_REACTORS
330
3083
102
}
330
3083
100
AcDbXrecord
280
     1
102
MATERIAL
340
176B
  0
SORTENTSTABLE
  5
131B
102
{ACAD_REACTORS
330
131A
102
}
330
131A
100
AcDbSortentsTable
330
1A
331
16E4
  5
1EAC
331
16AF
  5
1E77
331
D03
  5
D03
331
16B6
  5
1E7E
331
16EB
  5
1EB3
331
C10
  5
C10
331
A91
  5
A91
331
A2C
  5
A2C
331
9EF
  5
9EF
331
B6B
  5
B6B
331
D0A
  5
D0A
331
325D
  5
16EE
331
3264
  5
16F6
331
323B
  5
16CB
331
2EA9
  5
1E2A
331
255F
  5
2E9C
331
D26
  5
D26
331
16D1
  5
1E99
331
169C
  5
1E6F
331
D2D
  5
D2D
331
A12
  5
A12
331
A7F
  5
A7F
331
B59
  5
B59
331
A19
  5
A19
331
9DC
  5
9DC
331
3287
  5
327E
331
324A
  5
16DB
331
3221
  5
169A
331
2E8F
  5
1E10
331
2ED4
  5
1E4A
331
3228
  5
16A1
331
2582
  5
2EBA
331
2545
  5
2E82
331
16BF
  5
1E87
331
1682
  5
1E57
331
16F4
  5
1EBC
331
A9A
  5
A9A
331
B3F
  5
B3F
331
B74
  5
B74
331
CD6
  5
CD6
331
D13
  5
D13
331
9FF
  5
9FF
331
AA1
  5
AA1
331
326D
  5
1DFB
331
2F0F
  5
328A
331
2EBA
  5
1E30
331
2D9D
  5
2ED2
331
2568
  5
2EA5
331
16DA
  5
1EA2
331
D36
  5
D36
331
CC4
  5
CC4
331
CF9
  5
CF9
331
BFF
  5
BFF
331
B25
  5
B25
331
B61
  5
B61
331
9E5
  5
9E5
331
B2C
  5
B2C
331
3253
  5
16E4
331
3290
  5
3287
331
2EDD
  5
1E53
331
3231
  5
16B5
331
2E98
  5
1E19
331
254E
  5
2E8B
331
2555
  5
2E92
331
16FD
  5
1EC5
331
D1C
  5
D1C
331
CDF
  5
CDF
331
B7D
  5
B7D
331
1692
  5
1E65
331
B4F
  5
B4F
331
B84
  5
B84
331
A75
  5
A75
331
3276
  5
1E04
331
3240
  5
16D0
331
3217
  5
1690
331
2EC3
  5
1E39
331
2ECA
  5
1E40
331
2E85
  5
1E06
331
2578
  5
2EB5
331
253B
  5
2E77
331
16AE
  5
1E76
331
16E3
  5
1EAB
331
D5F
  5
D5F
331
D02
  5
D02
331
16B5
  5
1E7D
331
16EA
  5
1EB2
331
D09
  5
D09
331
B6A
  5
B6A
331
C0F
  5
C0F
331
9EE
  5
9EE
331
A90
  5
A90
331
325C
  5
16ED
331
3263
  5
16F5
331
323A
  5
16BE
331
2EA8
  5
1E29
331
255E
  5
2E9B
331
D25
  5
D25
331
16D0
  5
1E98
331
169B
  5
1E6E
331
D2C
  5
D2C
331
A7E
  5
A7E
331
B58
  5
B58
331
A11
  5
A11
331
327F
  5
3275
331
9DB
  5
9DB
331
A18
  5
A18
331
3286
  5
327D
331
3249
  5
16DA
331
3220
  5
1699
331
2E8E
  5
1E0F
331
2ED3
  5
1E49
331
2544
  5
2E81
331
9C8
  5
9C8
331
16F3
  5
1EBB
331
1681
  5
1E56
331
16BE
  5
1E86
331
CD5
  5
CD5
331
D12
  5
D12
331
C18
  5
C18
331
9F7
  5
9F7
331
A99
  5
A99
331
B3E
  5
B3E
331
B73
  5
B73
331
9FE
  5
9FE
331
AA0
  5
AA0
331
326C
  5
1DFA
331
2F0E
  5
3289
331
2EB9
  5
1E2F
331
2D9C
  5
2ED1
331
2567
  5
2EA4
331
16D9
  5
1EA1
331
CF8
  5
CF8
331
BFE
  5
BFE
331
B24
  5
B24
331
B60
  5
B60
331
9E4
  5
9E4
331
A21
  5
A21
331
B2B
  5
B2B
331
328F
  5
3286
331
3252
  5
16E3
331
2E97
  5
1E18
331
2EDC
  5
1E52
331
3230
  5
16B4
331
254D
  5
2E8A
331
2554
  5
2E91
331
16FC
  5
1EC4
331
168A
  5
1E5F
331
16C7
  5
1E8F
331
D1B
  5
D1B
331
B47
  5
B47
331
B7C
  5
B7C
331
CDE
  5
CDE
331
1691
  5
1E64
331
B4E
  5
B4E
331
B83
  5
B83
331
A74
  5
A74
331
3275
  5
1E03
331
3216
  5
168F
331
2EC2
  5
1E38
331
2EC9
  5
1E3F
331
2577
  5
2EB4
331
253A
  5
2E76
331
16E2
  5
1EAA
331
C07
  5
C07
331
D01
  5
D01
331
D5E
  5
D5E
331
10F3
  5
10F3
331
16B4
  5
1E7C
331
16E9
  5
1EB1
331
D08
  5
D08
331
C0E
  5
C0E
331
A8F
  5
A8F
331
B69
  5
B69
331
CCB
  5
CCB
331
9ED
  5
9ED
331
325B
  5
16EC
331
3262
  5
16F4
331
3239
  5
16BD
331
2EA7
  5
1E28
331
255D
  5
2E9A
331
D24
  5
D24
331
CE7
  5
CE7
331
16CF
  5
1E97
331
169A
  5
1E6D
331
D2B
  5
D2B
331
BF4
  5
BF4
331
CA1
  5
CA1
331
B57
  5
B57
331
A7D
  5
A7D
331
A10
  5
A10
331
327E
  5
3274
331
9DA
  5
9DA
331
3248
  5
16D9
331
321F
  5
1698
331
3285
  5
327C
331
2E8D
  5
1E0E
331
2ED2
  5
1E48
331
2543
  5
2E80
331
9C7
  5
9C7
331
16F2
  5
1EBA
331
16BD
  5
1E85
331
D11
  5
D11
331
C17
  5
C17
331
B72
  5
B72
331
A33
  5
A33
331
9F6
  5
9F6
331
A98
  5
A98
331
B3D
  5
B3D
331
9FD
  5
9FD
331
326B
  5
16FD
331
2EB8
  5
1E2E
331
2D9B
  5
2ED0
331
2566
  5
2EA3
331
16D8
  5
1EA0
331
CF7
  5
CF7
331
BFD
  5
BFD
331
B23
  5
B23
331
11A6
  5
11A6
331
B2A
  5
B2A
331
A20
  5
A20
331
9E3
  5
9E3
331
A85
  5
A85
331
3251
  5
16E2
331
328E
  5
3285
331
2E96
  5
1E17
331
2EDB
  5
1E51
331
322F
  5
16B3
331
254C
  5
2E89
331
2553
  5
2E90
331
16C6
  5
1E8E
331
16FB
  5
1EC3
331
1689
  5
1E5E
331
D1A
  5
D1A
331
CDD
  5
CDD
331
B46
  5
B46
331
B7B
  5
B7B
331
1690
  5
1E63
331
A06
  5
A06
331
B4D
  5
B4D
331
B82
  5
B82
331
3274
  5
1E02
331
3215
  5
168E
331
2EC1
  5
1E37
331
256F
  5
2EAC
331
2EC8
  5
1E3E
331
2576
  5
2EB3
331
2539
  5
2E75
331
16E1
  5
1EA9
331
D00
  5
D00
331
C06
  5
C06
331
D5D
  5
D5D
331
16B3
  5
1E7B
331
16E8
  5
1EB0
331
C0D
  5
C0D
331
A8E
  5
A8E
331
B68
  5
B68
331
CCA
  5
CCA
331
9EC
  5
9EC
331
A29
  5
A29
331
325A
  5
16EB
331
3261
  5
16F2
331
2E9F
  5
1E20
331
3238
  5
16BC
331
2EA6
  5
1E27
331
2D91
  5
2EC9
331
255C
  5
2E99
331
D23
  5
D23
331
CE6
  5
CE6
331
16CE
  5
1E96
331
1699
  5
1E6C
331
D2A
  5
D2A
331
BF3
  5
BF3
331
B56
  5
B56
331
A7C
  5
A7C
331
A0F
  5
A0F
331
327D
  5
3273
331
9D9
  5
9D9
331
3247
  5
16D8
331
321E
  5
1697
331
3284
  5
327A
331
2E8C
  5
1E0D
331
2ED1
  5
1E47
331
257F
  5
2EB9
331
2542
  5
2E7F
331
16F1
  5
1EB9
331
16BC
  5
1E84
331
D10
  5
D10
331
C16
  5
C16
331
9F5
  5
9F5
331
A32
  5
A32
331
A97
  5
A97
331
B71
  5
B71
331
A61
  5
A61
331
9FC
  5
9FC
331
326A
  5
16FC
331
2D9A
  5
2ECF
331
2565
  5
2EA2
331
16D7
  5
1E9F
331
16A2
  5
1E75
331
CF6
  5
CF6
331
B5F
  5
B5F
331
B22
  5
B22
331
BFC
  5
BFC
331
B29
  5
B29
331
A1F
  5
A1F
331
9E2
  5
9E2
331
3250
  5
16E1
331
3227
  5
16A0
331
328D
  5
3284
331
2E95
  5
1E16
331
2EDA
  5
1E50
331
322E
  5
16B2
331
254B
  5
2E88
331
2552
  5
2E8F
331
16C5
  5
1E8D
331
16FA
  5
1EC2
331
1688
  5
1E5D
331
D19
  5
D19
331
CDC
  5
CDC
331
B45
  5
B45
331
B7A
  5
B7A
331
B4C
  5
B4C
331
A05
  5
A05
331
B81
  5
B81
331
3273
  5
1E01
331
2F15
  5
3290
331
3214
  5
168D
331
2EC0
  5
1E36
331
256E
  5
2EAB
331
2575
  5
2EB2
331
2538
  5
2E74
331
16E0
  5
1EA8
331
CFF
  5
CFF
331
C05
  5
C05
331
D5C
  5
D5C
331
16B2
  5
1E7A
331
C0C
  5
C0C
331
B32
  5
B32
331
A8D
  5
A8D
331
B67
  5
B67
331
CC9
  5
CC9
331
9EB
  5
9EB
331
A28
  5
A28
331
3259
  5
16EA
331
3260
  5
16F1
331
3237
  5
16BB
331
2E9E
  5
1E1F
331
2D90
  5
2EC1
331
255B
  5
2E98
331
2EA5
  5
1E26
331
D22
  5
D22
331
CE5
  5
CE5
331
16CD
  5
1E95
331
1698
  5
1E6B
331
D29
  5
D29
331
C7F
  5
C7F
331
B55
  5
B55
331
A7B
  5
A7B
331
A0E
  5
A0E
331
327C
  5
3272
331
9D8
  5
9D8
331
3283
  5
3279
331
321D
  5
1696
331
3246
  5
16D7
331
2ED0
  5
1E46
331
257E
  5
2EB8
331
2541
  5
2E7E
331
2E8B
  5
1E0C
331
16F0
  5
1EB8
331
16BB
  5
1E83
331
D0F
  5
D0F
331
C15
  5
C15
331
9F4
  5
9F4
331
A31
  5
A31
331
A96
  5
A96
331
B70
  5
B70
331
A60
  5
A60
331
9FB
  5
9FB
331
3269
  5
16FB
331
2D99
  5
2ECE
331
2564
  5
2EA1
331
16D6
  5
1E9E
331
16A1
  5
1E74
331
11F2
  5
11F2
331
CF5
  5
CF5
331
B5E
  5
B5E
331
B21
  5
B21
331
A17
  5
A17
331
BFB
  5
BFB
331
B28
  5
B28
331
9E1
  5
9E1
331
328C
  5
3283
331
3226
  5
169F
331
324F
  5
16E0
331
2ED9
  5
1E4F
331
322D
  5
16B1
331
254A
  5
2E87
331
2E94
  5
1E15
331
2551
  5
2E8E
331
16C4
  5
1E8C
331
16F9
  5
1EC1
331
1687
  5
1E5C
331
D18
  5
D18
331
CDB
  5
CDB
331
A9F
  5
A9F
331
B44
  5
B44
331
B79
  5
B79
331
B4B
  5
B4B
331
A04
  5
A04
331
B80
  5
B80
331
3272
  5
1E00
331
3213
  5
168A
331
256D
  5
2EAA
331
2EBF
  5
1E35
331
2F14
  5
328F
331
2574
  5
2EB1
331
2537
  5
2E71
331
16DF
  5
1EA7
331
CFE
  5
CFE
331
C04
  5
C04
331
D5B
  5
D5B
331
16B1
  5
1E79
331
C0B
  5
C0B
331
B31
  5
B31
331
A27
  5
A27
331
A8C
  5
A8C
331
B66
  5
B66
331
CC8
  5
CC8
331
9EA
  5
9EA
331
3258
  5
16E9
331
3236
  5
16BA
331
2E9D
  5
1E1E
331
2D8F
  5
2EC0
331
255A
  5
2E97
331
2EA4
  5
1E25
331
9D7
  5
9D7
331
D21
  5
D21
331
CE4
  5
CE4
331
16CC
  5
1E94
331
1697
  5
1E6A
331
D28
  5
D28
331
CEB
  5
CEB
331
C7E
  5
C7E
331
B54
  5
B54
331
A7A
  5
A7A
331
A0D
  5
A0D
331
3282
  5
3278
331
321C
  5
1695
331
3245
  5
16D6
331
2ECF
  5
1E45
331
2540
  5
2E7D
331
2E8A
  5
1E0B
331
D07
  5
D07
331
16EF
  5
1EB7
331
16BA
  5
1E82
331
D0E
  5
D0E
331
C14
  5
C14
331
B6F
  5
B6F
331
A30
  5
A30
331
9F3
  5
9F3
331
1100
  5
1100
331
9FA
  5
9FA
331
323F
  5
16CF
331
3268
  5
16FA
331
2D98
  5
2ECD
331
2563
  5
2EA0
331
16D5
  5
1E9D
331
16A0
  5
1E73
331
CF4
  5
CF4
331
B5D
  5
B5D
331
B20
  5
B20
331
A16
  5
A16
331
BFA
  5
BFA
331
9E0
  5
9E0
331
A82
  5
A82
331
328B
  5
3282
331
3225
  5
169E
331
324E
  5
16DF
331
2586
  5
2EBD
331
2549
  5
2E86
331
2E93
  5
1E14
331
2ED8
  5
1E4E
331
322C
  5
16B0
331
2550
  5
2E8D
331
16C3
  5
1E8B
331
16F8
  5
1EC0
331
1686
  5
1E5B
331
D17
  5
D17
331
CDA
  5
CDA
331
B78
  5
B78
331
B43
  5
B43
331
A9E
  5
A9E
331
B4A
  5
B4A
331
A03
  5
A03
331
3271
  5
1DFF
331
2DA1
  5
2ED5
331
256C
  5
2EA9
331
2EBE
  5
1E34
331
2F13
  5
328E
331
3212
  5
1321
331
2573
  5
2EB0
331
16DE
  5
1EA6
331
CFD
  5
CFD
331
C03
  5
C03
331
D5A
  5
D5A
331
16B0
  5
1E78
331
C0A
  5
C0A
331
B30
  5
B30
331
A26
  5
A26
331
A8B
  5
A8B
331
B65
  5
B65
331
9E9
  5
9E9
331
3257
  5
16E8
331
2E9C
  5
1E1D
331
3235
  5
16B9
331
2D8E
  5
2EBF
331
2559
  5
2E96
331
2EA3
  5
1E24
331
9D6
  5
9D6
331
168F
  5
1E62
331
D20
  5
D20
331
CE3
  5
CE3
331
C76
  5
C76
331
16CB
  5
1E93
331
1696
  5
1E69
331
CEA
  5
CEA
331
C7D
  5
C7D
331
ADE
  5
ADE
331
B53
  5
B53
331
A79
  5
A79
331
A0C
  5
A0C
331
327A
  5
3270
331
3281
  5
3277
331
321B
  5
1694
331
3244
  5
16D4
331
2EC7
  5
1E3D
331
2ECE
  5
1E44
331
257C
  5
2EB7
331
253F
  5
2E7C
331
2E89
  5
1E0A
331
16E7
  5
1EAF
331
D06
  5
D06
331
16EE
  5
1EB6
331
16B9
  5
1E81
331
D0D
  5
D0D
331
C13
  5
C13
331
B6E
  5
B6E
331
A2F
  5
A2F
331
9F2
  5
9F2
331
D62
  5
D62
331
9F9
  5
9F9
331
323E
  5
16CE
331
3267
  5
16F9
331
2EAC
  5
1E2D
331
2D97
  5
2ECC
331
2562
  5
2E9F
331
16D4
  5
1E9C
331
169F
  5
1E72
331
B5C
  5
B5C
331
B1F
  5
B1F
331
A15
  5
A15
331
BF9
  5
BF9
331
D30
  5
D30
331
9DF
  5
9DF
331
A81
  5
A81
331
328A
  5
3281
331
3224
  5
169D
331
324D
  5
16DE
331
2ED7
  5
1E4D
331
2E92
  5
1E13
331
322B
  5
16AF
331
2585
  5
2EBC
331
2548
  5
2E85
331
16F7
  5
1EBF
331
16C2
  5
1E8A
331
1685
  5
1E5A
331
D16
  5
D16
331
CD9
  5
CD9
331
B77
  5
B77
331
B42
  5
B42
331
A9D
  5
A9D
331
A02
  5
A02
331
B49
  5
B49
331
3270
  5
1DFE
331
2EBD
  5
1E33
331
2F12
  5
328D
331
2DA0
  5
2EC8
331
256B
  5
2EA8
331
2572
  5
2EAF
331
16DD
  5
1EA5
331
CC7
  5
CC7
331
CFC
  5
CFC
331
C02
  5
C02
331
C09
  5
C09
331
B2F
  5
B2F
331
A25
  5
A25
331
A8A
  5
A8A
331
B64
  5
B64
331
9E8
  5
9E8
331
3256
  5
16E7
331
3234
  5
16B8
331
2E9B
  5
1E1C
331
2EA2
  5
1E23
331
2D8D
  5
2EBE
331
2558
  5
2E95
331
9D5
  5
9D5
331
168E
  5
1E61
331
CE2
  5
CE2
331
D1F
  5
D1F
331
16CA
  5
1E92
331
1695
  5
1E68
331
CE9
  5
CE9
331
ADD
  5
ADD
331
B52
  5
B52
331
A78
  5
A78
331
A0B
  5
A0B
331
3279
  5
326F
331
3280
  5
3276
331
321A
  5
1693
331
3243
  5
16D3
331
2EC6
  5
1E3C
331
2ECD
  5
1E43
331
2E88
  5
1E09
331
257B
  5
2EB6
331
253E
  5
2E7B
331
16E6
  5
1EAE
331
D05
  5
D05
331
16ED
  5
1EB5
331
16B8
  5
1E80
331
D0C
  5
D0C
331
C12
  5
C12
331
B6D
  5
B6D
331
A2E
  5
A2E
331
9F1
  5
9F1
331
D61
  5
D61
331
325F
  5
16F0
331
9F8
  5
9F8
331
323D
  5
16CD
331
3266
  5
16F8
331
2EAB
  5
1E2C
331
2D96
  5
2ECB
331
2561
  5
2E9E
331
169E
  5
1E71
331
16D3
  5
1E9B
331
B5B
  5
B5B
331
B1E
  5
B1E
331
A14
  5
A14
331
BF8
  5
BF8
331
D2F
  5
D2F
331
9DE
  5
9DE
331
A80
  5
A80
331
3289
  5
3280
331
3223
  5
169C
331
324C
  5
16DD
331
2ED6
  5
1E4C
331
2E91
  5
1E12
331
322A
  5
16AE
331
2547
  5
2E84
331
16F6
  5
1EBE
331
16C1
  5
1E89
331
1684
  5
1E59
331
CD8
  5
CD8
331
B76
  5
B76
331
B41
  5
B41
331
A9C
  5
A9C
331
D15
  5
D15
331
A01
  5
A01
331
B48
  5
B48
331
326F
  5
1DFD
331
2EBC
  5
1E32
331
2F11
  5
328C
331
2D9F
  5
2ED4
331
256A
  5
2EA7
331
2571
  5
2EAE
331
16DC
  5
1EA4
331
CC6
  5
CC6
331
CFB
  5
CFB
331
C01
  5
C01
331
B27
  5
B27
331
C08
  5
C08
331
B2E
  5
B2E
331
A24
  5
A24
331
9E7
  5
9E7
331
A89
  5
A89
331
B63
  5
B63
331
3255
  5
16E6
331
2EDF
  5
1E55
331
3233
  5
16B7
331
2E9A
  5
1E1B
331
2EA1
  5
1E22
331
2557
  5
2E94
331
9D4
  5
9D4
331
168D
  5
1E60
331
CE1
  5
CE1
331
B7F
  5
B7F
331
D1E
  5
D1E
331
1694
  5
1E67
331
16C9
  5
1E91
331
B51
  5
B51
331
CE8
  5
CE8
331
A77
  5
A77
331
A0A
  5
A0A
331
ADC
  5
ADC
331
3278
  5
326E
331
3242
  5
16D2
331
2EC5
  5
1E3B
331
3219
  5
1692
331
2ECC
  5
1E42
331
2E87
  5
1E08
331
253D
  5
2E7A
331
16E5
  5
1EAD
331
D04
  5
D04
331
16B7
  5
1E7F
331
16EC
  5
1EB4
331
11B3
  5
11B3
331
D0B
  5
D0B
331
C11
  5
C11
331
A2D
  5
A2D
331
9F0
  5
9F0
331
B6C
  5
B6C
331
D60
  5
D60
331
325E
  5
16EF
331
3265
  5
16F7
331
323C
  5
16CC
331
2EAA
  5
1E2B
331
2560
  5
2E9D
331
2D95
  5
2ECA
331
D27
  5
D27
331
16D2
  5
1E9A
331
169D
  5
1E70
331
D2E
  5
D2E
331
A13
  5
A13
331
B5A
  5
B5A
331
A1A
  5
A1A
331
9DD
  5
9DD
331
324B
  5
16DC
331
3222
  5
169B
331
2ED5
  5
1E4B
331
2E90
  5
1E11
331
3229
  5
16A2
331
2546
  5
2E83
331
2583
  5
2EBB
331
16F5
  5
1EBD
331
16C0
  5
1E88
331
1683
  5
1E58
331
B75
  5
B75
331
B40
  5
B40
331
A9B
  5
A9B
331
CD7
  5
CD7
331
D14
  5
D14
331
A00
  5
A00
331
AA2
  5
AA2
331
326E
  5
1DFC
331
2EBB
  5
1E31
331
2F10
  5
328B
331
2569
  5
2EA6
331
2D9E
  5
2ED3
331
2570
  5
2EAD
331
16DB
  5
1EA3
331
CFA
  5
CFA
331
D37
  5
D37
331
C00
  5
C00
331
B26
  5
B26
331
CC5
  5
CC5
331
B2D
  5
B2D
331
9E6
  5
9E6
331
B62
  5
B62
331
3254
  5
16E5
331
3291
  5
3288
331
2EDE
  5
1E54
331
3232
  5
16B6
331
2E99
  5
1E1A
331
254F
  5
2E8C
331
2EA0
  5
1E21
331
2556
  5
2E93
331
D1D
  5
D1D
331
CE0
  5
CE0
331
B7E
  5
B7E
331
1693
  5
1E66
331
16C8
  5
1E90
331
ADB
  5
ADB
331
B50
  5
B50
331
A09
  5
A09
331
A76
  5
A76
331
3277
  5
1E05
331
3241
  5
16D1
331
2EC4
  5
1E3A
331
3218
  5
1691
331
2ECB
  5
1E41
331
2E86
  5
1E07
331
253C
  5
2E79
  0
XRECORD
  5
3081
102
{ACAD_REACTORS
330
3080
102
}
330
3080
100
AcDbXrecord
280
     1
102
VISUALSTYLE
340
1779
102
GRIDDISPLAY
 70
     0
102
GRIDMAJOR
 70
     5
102
DEFAULTLIGHTING
280
     1
102
DEFAULTLIGHTINGTYPE
 70
     1
102
BRIGHTNESS
141
0.0
102
CONTRAST
142
0.0
102
SHADEPLOT
 70
     0
  0
XRECORD
  5
3089
102
{ACAD_REACTORS
330
3088
102
}
330
3088
100
AcDbXrecord
280
     1
102
VISUALSTYLE
340
1779
102
GRIDDISPLAY
 70
     0
102
GRIDMAJOR
 70
     5
102
DEFAULTLIGHTING
280
     1
102
DEFAULTLIGHTINGTYPE
 70
     1
102
BRIGHTNESS
141
0.0
102
CONTRAST
142
0.0
102
SHADEPLOT
 70
     0
  0
GROUP
  5
131F
102
{ACAD_REACTORS
330
D
102
}
330
D
100
AcDbGroup
300

 70
     1
 71
     1
  0
GROUP
  5
167C
102
{ACAD_REACTORS
330
D
102
}
330
D
100
AcDbGroup
300

 70
     1
 71
     1
  0
LAYOUT
  5
12A2
102
{ACAD_XDICTIONARY
360
3330
102
}
102
{ACAD_REACTORS
330
12A0
102
}
330
12A0
100
AcDbPlotSettings
  1

  2
RICOH IPSiO CX8200 RPCS
  4

  6

 40
0.0
 41
0.0
 42
0.0
 43
0.0
 44
0.0
 45
0.0
 46
0.0
 47
0.0
 48
0.0
 49
0.0
140
0.0
141
0.0
142
1.0
143
1.0
 70
  1712
 72
     0
 73
     0
 74
     0
  7
monochrome.ctb
 75
     0
147
1.0
148
0.0
149
0.0
100
AcDbLayout
  1
Model
 70
     1
 71
     0
 10
0.0
 20
0.0
 11
12.0
 21
9.0
 12
0.0
 22
0.0
 32
0.0
 14
0.0
 24
0.0
 34
0.0
 15
0.0
 25
0.0
 35
0.0
146
0.0
 13
0.0
 23
0.0
 33
0.0
 16
1.0
 26
0.0
 36
0.0
 17
0.0
 27
1.0
 37
0.0
 76
     0
330
1A
  0
LAYOUT
  5
12A3
102
{ACAD_XDICTIONARY
360
136A
102
}
102
{ACAD_REACTORS
330
12A0
102
}
330
12A0
100
AcDbPlotSettings
  1

  2
Adobe PDF
  4
A3
  6

 40
3.174999952316284
 41
3.174999952316284
 42
3.17498779296875
 43
3.17498779296875
 44
297.0318298339844
 45
420.1583251953125
 46
12.828362544708
 47
14.37949135136864
 48
20.00000000000003
 49
9.999999999999943
140
404.9999999999998
141
281.9999999999999
142
1.0
143
1.0
 70
   692
 72
     1
 73
     1
 74
     1
  7
monochrome.ctb
 75
    16
147
1.0
148
-19.97532312728231
149
-16.98743151140218
100
AcDbLayout
  1
レイアウト1
 70
     0
 71
     1
 10
2.420843982944916
 20
0.9840690143778942
 11
422.5791691782574
 21
298.0158988483623
 12
0.0
 22
0.0
 32
0.0
 14
20.0
 24
17.0
 34
0.0
 15
405.0
 25
281.9999999999999
 35
0.0
146
0.0
 13
0.0
 23
0.0
 33
0.0
 16
1.0
 26
0.0
 36
0.0
 17
0.0
 27
1.0
 37
0.0
 76
     0
330
17
331
22
1001
ACAD_PSEXT
1000
Adobe PDF
1000
Adobe PDF Converter
1000
Desktop
1000

1070
     0
  0
MATERIAL
  5
1763
102
{ACAD_XDICTIONARY
360
1764
102
}
102
{ACAD_REACTORS
330
129C
102
}
330
129C
100
AcDbMaterial
  1
ByBlock
 72
     0
 73
     2
 43
0.0208333333333333
 43
0.0
 43
0.0
 43
0.0
 43
0.0
 43
0.0208333333333333
 43
0.0
 43
0.0
 43
0.0
 43
0.0
 43
1.0
 43
0.0
 43
0.0
 43
0.0
 43
0.0
 43
1.0
 77
     0
 78
     2
 47
0.0208333333333333
 47
0.0
 47
0.0
 47
0.0
 47
0.0
 47
0.0208333333333333
 47
0.0
 47
0.0
 47
0.0
 47
0.0
 47
1.0
 47
0.0
 47
0.0
 47
0.0
 47
0.0
 47
1.0
171
     0
172
     2
 49
0.0208333333333333
 49
0.0
 49
0.0
 49
0.0
 49
0.0
 49
0.0208333333333333
 49
0.0
 49
0.0
 49
0.0
 49
0.0
 49
1.0
 49
0.0
 49
0.0
 49
0.0
 49
0.0
 49
1.0
175
     0
176
     2
142
0.0208333333333333
142
0.0
142
0.0
142
0.0
142
0.0
142
0.0208333333333333
142
0.0
142
0.0
142
0.0
142
0.0
142
1.0
142
0.0
142
0.0
142
0.0
142
0.0
142
1.0
179
     0
270
     2
144
0.0208333333333333
144
0.0
144
0.0
144
0.0
144
0.0
144
0.0208333333333333
144
0.0
144
0.0
144
0.0
144
0.0
144
1.0
144
0.0
144
0.0
144
0.0
144
0.0
144
1.0
274
     2
147
0.0208333333333333
147
0.0
147
0.0
147
0.0
147
0.0
147
0.0208333333333333
147
0.0
147
0.0
147
0.0
147
0.0
147
1.0
147
0.0
147
0.0
147
0.0
147
0.0
147
1.0
  0
MATERIAL
  5
175B
102
{ACAD_XDICTIONARY
360
175C
102
}
102
{ACAD_REACTORS
330
129C
102
}
330
129C
100
AcDbMaterial
  1
ByLayer
 72
     0
 73
     2
 43
0.0208333333333333
 43
0.0
 43
0.0
 43
0.0
 43
0.0
 43
0.0208333333333333
 43
0.0
 43
0.0
 43
0.0
 43
0.0
 43
1.0
 43
0.0
 43
0.0
 43
0.0
 43
0.0
 43
1.0
 77
     0
 78
     2
 47
0.0208333333333333
 47
0.0
 47
0.0
 47
0.0
 47
0.0
 47
0.0208333333333333
 47
0.0
 47
0.0
 47
0.0
 47
0.0
 47
1.0
 47
0.0
 47
0.0
 47
0.0
 47
0.0
 47
1.0
171
     0
172
     2
 49
0.0208333333333333
 49
0.0
 49
0.0
 49
0.0
 49
0.0
 49
0.0208333333333333
 49
0.0
 49
0.0
 49
0.0
 49
0.0
 49
1.0
 49
0.0
 49
0.0
 49
0.0
 49
0.0
 49
1.0
175
     0
176
     2
142
0.0208333333333333
142
0.0
142
0.0
142
0.0
142
0.0
142
0.0208333333333333
142
0.0
142
0.0
142
0.0
142
0.0
142
1.0
142
0.0
142
0.0
142
0.0
142
0.0
142
1.0
179
     0
270
     2
144
0.0208333333333333
144
0.0
144
0.0
144
0.0
144
0.0
144
0.0208333333333333
144
0.0
144
0.0
144
0.0
144
0.0
144
1.0
144
0.0
144
0.0
144
0.0
144
0.0
144
1.0
274
     2
147
0.0208333333333333
147
0.0
147
0.0
147
0.0
147
0.0
147
0.0208333333333333
147
0.0
147
0.0
147
0.0
147
0.0
147
1.0
147
0.0
147
0.0
147
0.0
147
0.0
147
1.0
  0
MATERIAL
  5
176B
102
{ACAD_XDICTIONARY
360
176C
102
}
102
{ACAD_REACTORS
330
129C
102
}
330
129C
100
AcDbMaterial
  1
Global
 72
     0
 73
     2
 43
0.0208333333333333
 43
0.0
 43
0.0
 43
0.0
 43
0.0
 43
0.0208333333333333
 43
0.0
 43
0.0
 43
0.0
 43
0.0
 43
1.0
 43
0.0
 43
0.0
 43
0.0
 43
0.0
 43
1.0
 77
     0
 78
     2
 47
0.0208333333333333
 47
0.0
 47
0.0
 47
0.0
 47
0.0
 47
0.0208333333333333
 47
0.0
 47
0.0
 47
0.0
 47
0.0
 47
1.0
 47
0.0
 47
0.0
 47
0.0
 47
0.0
 47
1.0
171
     0
172
     2
 49
0.0208333333333333
 49
0.0
 49
0.0
 49
0.0
 49
0.0
 49
0.0208333333333333
 49
0.0
 49
0.0
 49
0.0
 49
0.0
 49
1.0
 49
0.0
 49
0.0
 49
0.0
 49
0.0
 49
1.0
175
     0
176
     2
142
0.0208333333333333
142
0.0
142
0.0
142
0.0
142
0.0
142
0.0208333333333333
142
0.0
142
0.0
142
0.0
142
0.0
142
1.0
142
0.0
142
0.0
142
0.0
142
0.0
142
1.0
179
     0
270
     2
144
0.0208333333333333
144
0.0
144
0.0
144
0.0
144
0.0
144
0.0208333333333333
144
0.0
144
0.0
144
0.0
144
0.0
144
1.0
144
0.0
144
0.0
144
0.0
144
0.0
144
1.0
274
     2
147
0.0208333333333333
147
0.0
147
0.0
147
0.0
147
0.0
147
0.0208333333333333
147
0.0
147
0.0
147
0.0
147
0.0
147
1.0
147
0.0
147
0.0
147
0.0
147
0.0
147
1.0
  0
ACAD_PROXY_OBJECT
  5
17A7
102
{ACAD_REACTORS
330
17A6
102
}
330
17A6
100
AcDbProxyObject
 90
      499
 91
      511
 95
   983063
 70
     0
 93
      618
310
40901902A4063FBFFFFFE000000000000002040AD7A3703D0AD73F4254DD185B99185C99000000000000000104090141901A00000000000004100000000000000041025764000000000000300FC0
340
14
340
0
340
10
340
0
 94
        0
1001
ACAD_MLEADERVER
1070
     2
1001
ACAD
1000
AcRTDxfName
1000
MLEADERSTYLE
1000
AcRTDxfName
1000
MLEADERSTYLE
1000
AcRTDxfName
1000
MLEADERSTYLE
1000
AcRTDxfName
1000
MLEADERSTYLE
1000
AcRTDxfName
1000
MLEADERSTYLE
1000
AcRTDxfName
1000
MLEADERSTYLE
1000
AcRTDxfName
1000
MLEADERSTYLE
1000
AcRTDxfName
1000
MLEADERSTYLE
1000
AcRTDxfName
1000
MLEADERSTYLE
  0
MLINESTYLE
  5
13
102
{ACAD_REACTORS
330
E
102
}
330
E
100
AcDbMlineStyle
  2
STANDARD
 70
     0
  3

 62
     0
 51
90.0
 52
90.0
 71
     2
 49
0.5
 62
   256
  6
BYLAYER
 49
-0.5
 62
   256
  6
BYLAYER
  0
PLOTSETTINGS
  5
134F
102
{ACAD_XDICTIONARY
360
3333
102
}
102
{ACAD_REACTORS
330
12A1
102
}
330
12A1
100
AcDbPlotSettings
  1
【A3用紙】RICOH IPSiO CX8200 RPCS
  2
RICOH IPSiO CX8200 RPCS
  4
A3
  6

 40
5.873749732971191
 41
5.873747825622558
 42
5.873748779296875
 43
5.873748779296875
 44
296.9259948730469
 45
419.9466552734374
 46
0.0
 47
0.0
 48
0.0
 49
0.0
140
0.0
141
0.0
142
1.0
143
1.0
 70
   688
 72
     1
 73
     1
 74
     5
  7
monochrome.ctb
 75
    16
147
1.0
148
0.0
149
0.0
  0
ACDBPLACEHOLDER
  5
129B
102
{ACAD_REACTORS
330
129A
102
}
330
129A
  0
ACAD_PROXY_OBJECT
  5
1785
102
{ACAD_REACTORS
330
1784
102
}
330
1784
100
AcDbProxyObject
 90
      499
 91
      510
 95
   983063
 70
     0
 93
       49
310
904313A3100598
 94
        0
1001
ACAD
1000
AcRTDxfName
1000
SCALE
1000
AcRTDxfName
1000
SCALE
1000
AcRTDxfName
1000
SCALE
1000
AcRTDxfName
1000
SCALE
1000
AcRTDxfName
1000
SCALE
1000
AcRTDxfName
1000
SCALE
1000
AcRTDxfName
1000
SCALE
1000
AcRTDxfName
1000
SCALE
1000
AcRTDxfName
1000
SCALE
  0
ACAD_PROXY_OBJECT
  5
1786
102
{ACAD_REACTORS
330
1784
102
}
330
1784
100
AcDbProxyObject
 90
      499
 91
      510
 95
   983063
 70
     0
 93
      113
310
904313A32004000000000000004004
 94
        0
1001
ACAD
1000
AcRTDxfName
1000
SCALE
1000
AcRTDxfName
1000
SCALE
1000
AcRTDxfName
1000
SCALE
1000
AcRTDxfName
1000
SCALE
1000
AcRTDxfName
1000
SCALE
1000
AcRTDxfName
1000
SCALE
1000
AcRTDxfName
1000
SCALE
1000
AcRTDxfName
1000
SCALE
1000
AcRTDxfName
1000
SCALE
  0
ACAD_PROXY_OBJECT
  5
1787
102
{ACAD_REACTORS
330
1784
102
}
330
1784
100
AcDbProxyObject
 90
      499
 91
      510
 95
   983063
 70
     0
 93
      113
310
904313A34004000000000000104074
 94
        0
1001
ACAD
1000
AcRTDxfName
1000
SCALE
1000
AcRTDxfName
1000
SCALE
1000
AcRTDxfName
1000
SCALE
1000
AcRTDxfName
1000
SCALE
1000
AcRTDxfName
1000
SCALE
1000
AcRTDxfName
1000
SCALE
1000
AcRTDxfName
1000
SCALE
1000
AcRTDxfName
1000
SCALE
1000
AcRTDxfName
1000
SCALE
  0
ACAD_PROXY_OBJECT
  5
1788
102
{ACAD_REACTORS
330
1784
102
}
330
1784
100
AcDbProxyObject
 90
      499
 91
      510
 95
   983063
 70
     0
 93
      113
310
904313A35004000000000000144004
 94
        0
1001
ACAD
1000
AcRTDxfName
1000
SCALE
1000
AcRTDxfName
1000
SCALE
1000
AcRTDxfName
1000
SCALE
1000
AcRTDxfName
1000
SCALE
1000
AcRTDxfName
1000
SCALE
1000
AcRTDxfName
1000
SCALE
1000
AcRTDxfName
1000
SCALE
1000
AcRTDxfName
1000
SCALE
1000
AcRTDxfName
1000
SCALE
  0
ACAD_PROXY_OBJECT
  5
1789
102
{ACAD_REACTORS
330
1784
102
}
330
1784
100
AcDbProxyObject
 90
      499
 91
      510
 95
   983063
 70
     0
 93
      113
310
904313A38004000000000000204074
 94
        0
1001
ACAD
1000
AcRTDxfName
1000
SCALE
1000
AcRTDxfName
1000
SCALE
1000
AcRTDxfName
1000
SCALE
1000
AcRTDxfName
1000
SCALE
1000
AcRTDxfName
1000
SCALE
1000
AcRTDxfName
1000
SCALE
1000
AcRTDxfName
1000
SCALE
1000
AcRTDxfName
1000
SCALE
1000
AcRTDxfName
1000
SCALE
  0
ACAD_PROXY_OBJECT
  5
178A
102
{ACAD_REACTORS
330
1784
102
}
330
1784
100
AcDbProxyObject
 90
      499
 91
      510
 95
   983063
 70
     0
 93
      121
310
905313A3130004000000000000244009
 94
        0
1001
ACAD
1000
AcRTDxfName
1000
SCALE
1000
AcRTDxfName
1000
SCALE
1000
AcRTDxfName
1000
SCALE
1000
AcRTDxfName
1000
SCALE
1000
AcRTDxfName
1000
SCALE
1000
AcRTDxfName
1000
SCALE
1000
AcRTDxfName
1000
SCALE
1000
AcRTDxfName
1000
SCALE
1000
AcRTDxfName
1000
SCALE
  0
ACAD_PROXY_OBJECT
  5
178B
102
{ACAD_REACTORS
330
1784
102
}
330
1784
100
AcDbProxyObject
 90
      499
 91
      510
 95
   983063
 70
     0
 93
      121
310
905313A3136004000000000000304009
 94
        0
1001
ACAD
1000
AcRTDxfName
1000
SCALE
1000
AcRTDxfName
1000
SCALE
1000
AcRTDxfName
1000
SCALE
1000
AcRTDxfName
1000
SCALE
1000
AcRTDxfName
1000
SCALE
1000
AcRTDxfName
1000
SCALE
1000
AcRTDxfName
1000
SCALE
1000
AcRTDxfName
1000
SCALE
1000
AcRTDxfName
1000
SCALE
  0
ACAD_PROXY_OBJECT
  5
178C
102
{ACAD_REACTORS
330
1784
102
}
330
1784
100
AcDbProxyObject
 90
      499
 91
      510
 95
   983063
 70
     0
 93
      121
310
905313A3230004000000000000344009
 94
        0
1001
ACAD
1000
AcRTDxfName
1000
SCALE
1000
AcRTDxfName
1000
SCALE
1000
AcRTDxfName
1000
SCALE
1000
AcRTDxfName
1000
SCALE
1000
AcRTDxfName
1000
SCALE
1000
AcRTDxfName
1000
SCALE
1000
AcRTDxfName
1000
SCALE
1000
AcRTDxfName
1000
SCALE
1000
AcRTDxfName
1000
SCALE
  0
ACAD_PROXY_OBJECT
  5
178D
102
{ACAD_REACTORS
330
1784
102
}
330
1784
100
AcDbProxyObject
 90
      499
 91
      510
 95
   983063
 70
     0
 93
      121
310
905313A33300040000000000003E4009
 94
        0
1001
ACAD
1000
AcRTDxfName
1000
SCALE
1000
AcRTDxfName
1000
SCALE
1000
AcRTDxfName
1000
SCALE
1000
AcRTDxfName
1000
SCALE
1000
AcRTDxfName
1000
SCALE
1000
AcRTDxfName
1000
SCALE
1000
AcRTDxfName
1000
SCALE
1000
AcRTDxfName
1000
SCALE
1000
AcRTDxfName
1000
SCALE
  0
ACAD_PROXY_OBJECT
  5
178E
102
{ACAD_REACTORS
330
1784
102
}
330
1784
100
AcDbProxyObject
 90
      499
 91
      510
 95
   983063
 70
     0
 93
      121
310
905313A3430004000000000000444009
 94
        0
1001
ACAD
1000
AcRTDxfName
1000
SCALE
1000
AcRTDxfName
1000
SCALE
1000
AcRTDxfName
1000
SCALE
1000
AcRTDxfName
1000
SCALE
1000
AcRTDxfName
1000
SCALE
1000
AcRTDxfName
1000
SCALE
1000
AcRTDxfName
1000
SCALE
1000
AcRTDxfName
1000
SCALE
1000
AcRTDxfName
1000
SCALE
  0
ACAD_PROXY_OBJECT
  5
178F
102
{ACAD_REACTORS
330
1784
102
}
330
1784
100
AcDbProxyObject
 90
      499
 91
      510
 95
   983063
 70
     0
 93
      121
310
905313A3530004000000000000494062
 94
        0
1001
ACAD
1000
AcRTDxfName
1000
SCALE
1000
AcRTDxfName
1000
SCALE
1000
AcRTDxfName
1000
SCALE
1000
AcRTDxfName
1000
SCALE
1000
AcRTDxfName
1000
SCALE
1000
AcRTDxfName
1000
SCALE
1000
AcRTDxfName
1000
SCALE
1000
AcRTDxfName
1000
SCALE
1000
AcRTDxfName
1000
SCALE
  0
ACAD_PROXY_OBJECT
  5
1790
102
{ACAD_REACTORS
330
1784
102
}
330
1784
100
AcDbProxyObject
 90
      499
 91
      510
 95
   983063
 70
     0
 93
      129
310
906313A313030004000000000000594002
 94
        0
1001
ACAD
1000
AcRTDxfName
1000
SCALE
1000
AcRTDxfName
1000
SCALE
1000
AcRTDxfName
1000
SCALE
1000
AcRTDxfName
1000
SCALE
1000
AcRTDxfName
1000
SCALE
1000
AcRTDxfName
1000
SCALE
1000
AcRTDxfName
1000
SCALE
1000
AcRTDxfName
1000
SCALE
1000
AcRTDxfName
1000
SCALE
  0
ACAD_PROXY_OBJECT
  5
1791
102
{ACAD_REACTORS
330
1784
102
}
330
1784
100
AcDbProxyObject
 90
      499
 91
      510
 95
   983063
 70
     0
 93
      113
310
904323A31000000000000000010140
 94
        0
1001
ACAD
1000
AcRTDxfName
1000
SCALE
1000
AcRTDxfName
1000
SCALE
1000
AcRTDxfName
1000
SCALE
1000
AcRTDxfName
1000
SCALE
1000
AcRTDxfName
1000
SCALE
1000
AcRTDxfName
1000
SCALE
1000
AcRTDxfName
1000
SCALE
1000
AcRTDxfName
1000
SCALE
1000
AcRTDxfName
1000
SCALE
  0
ACAD_PROXY_OBJECT
  5
1792
102
{ACAD_REACTORS
330
1784
102
}
330
1784
100
AcDbProxyObject
 90
      499
 91
      510
 95
   983063
 70
     0
 93
      113
310
904343A31000000000000000410159
 94
        0
1001
ACAD
1000
AcRTDxfName
1000
SCALE
1000
AcRTDxfName
1000
SCALE
1000
AcRTDxfName
1000
SCALE
1000
AcRTDxfName
1000
SCALE
1000
AcRTDxfName
1000
SCALE
1000
AcRTDxfName
1000
SCALE
1000
AcRTDxfName
1000
SCALE
1000
AcRTDxfName
1000
SCALE
1000
AcRTDxfName
1000
SCALE
  0
ACAD_PROXY_OBJECT
  5
1793
102
{ACAD_REACTORS
330
1784
102
}
330
1784
100
AcDbProxyObject
 90
      499
 91
      510
 95
   983063
 70
     0
 93
      113
310
904383A31000000000000000810140
 94
        0
1001
ACAD
1000
AcRTDxfName
1000
SCALE
1000
AcRTDxfName
1000
SCALE
1000
AcRTDxfName
1000
SCALE
1000
AcRTDxfName
1000
SCALE
1000
AcRTDxfName
1000
SCALE
1000
AcRTDxfName
1000
SCALE
1000
AcRTDxfName
1000
SCALE
1000
AcRTDxfName
1000
SCALE
1000
AcRTDxfName
1000
SCALE
  0
ACAD_PROXY_OBJECT
  5
1794
102
{ACAD_REACTORS
330
1784
102
}
330
1784
100
AcDbProxyObject
 90
      499
 91
      510
 95
   983063
 70
     0
 93
      121
310
90531303A31000000000000000910140
 94
        0
1001
ACAD
1000
AcRTDxfName
1000
SCALE
1000
AcRTDxfName
1000
SCALE
1000
AcRTDxfName
1000
SCALE
1000
AcRTDxfName
1000
SCALE
1000
AcRTDxfName
1000
SCALE
1000
AcRTDxfName
1000
SCALE
1000
AcRTDxfName
1000
SCALE
1000
AcRTDxfName
1000
SCALE
1000
AcRTDxfName
1000
SCALE
  0
ACAD_PROXY_OBJECT
  5
1795
102
{ACAD_REACTORS
330
1784
102
}
330
1784
100
AcDbProxyObject
 90
      499
 91
      510
 95
   983063
 70
     0
 93
      129
310
9063130303A31000000000000001650162
 94
        0
1001
ACAD
1000
AcRTDxfName
1000
SCALE
1000
AcRTDxfName
1000
SCALE
1000
AcRTDxfName
1000
SCALE
1000
AcRTDxfName
1000
SCALE
1000
AcRTDxfName
1000
SCALE
1000
AcRTDxfName
1000
SCALE
1000
AcRTDxfName
1000
SCALE
1000
AcRTDxfName
1000
SCALE
1000
AcRTDxfName
1000
SCALE
  0
ACAD_PROXY_OBJECT
  5
1796
102
{ACAD_REACTORS
330
1784
102
}
330
1784
100
AcDbProxyObject
 90
      499
 91
      510
 95
   983063
 70
     0
 93
      265
310
90F312F31323822203D2031272D302200000000000000200FC000000000000284001
 94
        0
1001
ACAD
1000
AcRTDxfName
1000
SCALE
1000
AcRTDxfName
1000
SCALE
1000
AcRTDxfName
1000
SCALE
1000
AcRTDxfName
1000
SCALE
1000
AcRTDxfName
1000
SCALE
1000
AcRTDxfName
1000
SCALE
1000
AcRTDxfName
1000
SCALE
1000
AcRTDxfName
1000
SCALE
1000
AcRTDxfName
1000
SCALE
  0
ACAD_PROXY_OBJECT
  5
1797
102
{ACAD_REACTORS
330
1784
102
}
330
1784
100
AcDbProxyObject
 90
      499
 91
      510
 95
   983063
 70
     0
 93
      257
310
90E312F363422203D2031272D302200000000000000240FC000000000000284062
 94
        0
1001
ACAD
1000
AcRTDxfName
1000
SCALE
1000
AcRTDxfName
1000
SCALE
1000
AcRTDxfName
1000
SCALE
1000
AcRTDxfName
1000
SCALE
1000
AcRTDxfName
1000
SCALE
1000
AcRTDxfName
1000
SCALE
1000
AcRTDxfName
1000
SCALE
1000
AcRTDxfName
1000
SCALE
1000
AcRTDxfName
1000
SCALE
  0
ACAD_PROXY_OBJECT
  5
1798
102
{ACAD_REACTORS
330
1784
102
}
330
1784
100
AcDbProxyObject
 90
      499
 91
      510
 95
   983063
 70
     0
 93
      257
310
90E312F333222203D2031272D302200000000000000280FC000000000000284040
 94
        0
1001
ACAD
1000
AcRTDxfName
1000
SCALE
1000
AcRTDxfName
1000
SCALE
1000
AcRTDxfName
1000
SCALE
1000
AcRTDxfName
1000
SCALE
1000
AcRTDxfName
1000
SCALE
1000
AcRTDxfName
1000
SCALE
1000
AcRTDxfName
1000
SCALE
1000
AcRTDxfName
1000
SCALE
1000
AcRTDxfName
1000
SCALE
  0
ACAD_PROXY_OBJECT
  5
1799
102
{ACAD_REACTORS
330
1784
102
}
330
1784
100
AcDbProxyObject
 90
      499
 91
      510
 95
   983063
 70
     0
 93
      257
310
90E312F313622203D2031272D3022000000000000002C0FC000000000000284062
 94
        0
1001
ACAD
1000
AcRTDxfName
1000
SCALE
1000
AcRTDxfName
1000
SCALE
1000
AcRTDxfName
1000
SCALE
1000
AcRTDxfName
1000
SCALE
1000
AcRTDxfName
1000
SCALE
1000
AcRTDxfName
1000
SCALE
1000
AcRTDxfName
1000
SCALE
1000
AcRTDxfName
1000
SCALE
1000
AcRTDxfName
1000
SCALE
  0
ACAD_PROXY_OBJECT
  5
179A
102
{ACAD_REACTORS
330
1784
102
}
330
1784
100
AcDbProxyObject
 90
      499
 91
      510
 95
   983063
 70
     0
 93
      257
310
90E332F333222203D2031272D3022000000000000002E0FC000000000000284062
 94
        0
1001
ACAD
1000
AcRTDxfName
1000
SCALE
1000
AcRTDxfName
1000
SCALE
1000
AcRTDxfName
1000
SCALE
1000
AcRTDxfName
1000
SCALE
1000
AcRTDxfName
1000
SCALE
1000
AcRTDxfName
1000
SCALE
1000
AcRTDxfName
1000
SCALE
1000
AcRTDxfName
1000
SCALE
1000
AcRTDxfName
1000
SCALE
  0
ACAD_PROXY_OBJECT
  5
179B
102
{ACAD_REACTORS
330
1784
102
}
330
1784
100
AcDbProxyObject
 90
      499
 91
      510
 95
   983063
 70
     0
 93
      249
310
90D312F3822203D2031272D302200000000000000300FC000000000000284000
 94
        0
1001
ACAD
1000
AcRTDxfName
1000
SCALE
1000
AcRTDxfName
1000
SCALE
1000
AcRTDxfName
1000
SCALE
1000
AcRTDxfName
1000
SCALE
1000
AcRTDxfName
1000
SCALE
1000
AcRTDxfName
1000
SCALE
1000
AcRTDxfName
1000
SCALE
1000
AcRTDxfName
1000
SCALE
1000
AcRTDxfName
1000
SCALE
  0
ACAD_PROXY_OBJECT
  5
179C
102
{ACAD_REACTORS
330
1784
102
}
330
1784
100
AcDbProxyObject
 90
      499
 91
      510
 95
   983063
 70
     0
 93
      257
310
90E332F313622203D2031272D302200000000000000320FC000000000000284000
 94
        0
1001
ACAD
1000
AcRTDxfName
1000
SCALE
1000
AcRTDxfName
1000
SCALE
1000
AcRTDxfName
1000
SCALE
1000
AcRTDxfName
1000
SCALE
1000
AcRTDxfName
1000
SCALE
1000
AcRTDxfName
1000
SCALE
1000
AcRTDxfName
1000
SCALE
1000
AcRTDxfName
1000
SCALE
1000
AcRTDxfName
1000
SCALE
  0
ACAD_PROXY_OBJECT
  5
179D
102
{ACAD_REACTORS
330
1784
102
}
330
1784
100
AcDbProxyObject
 90
      499
 91
      510
 95
   983063
 70
     0
 93
      249
310
90D312F3422203D2031272D302200000000000000340FC000000000000284000
 94
        0
1001
ACAD
1000
AcRTDxfName
1000
SCALE
1000
AcRTDxfName
1000
SCALE
1000
AcRTDxfName
1000
SCALE
1000
AcRTDxfName
1000
SCALE
1000
AcRTDxfName
1000
SCALE
1000
AcRTDxfName
1000
SCALE
1000
AcRTDxfName
1000
SCALE
1000
AcRTDxfName
1000
SCALE
1000
AcRTDxfName
1000
SCALE
  0
ACAD_PROXY_OBJECT
  5
179E
102
{ACAD_REACTORS
330
1784
102
}
330
1784
100
AcDbProxyObject
 90
      499
 91
      510
 95
   983063
 70
     0
 93
      249
310
90D332F3822203D2031272D302200000000000000360FC000000000000284040
 94
        0
1001
ACAD
1000
AcRTDxfName
1000
SCALE
1000
AcRTDxfName
1000
SCALE
1000
AcRTDxfName
1000
SCALE
1000
AcRTDxfName
1000
SCALE
1000
AcRTDxfName
1000
SCALE
1000
AcRTDxfName
1000
SCALE
1000
AcRTDxfName
1000
SCALE
1000
AcRTDxfName
1000
SCALE
1000
AcRTDxfName
1000
SCALE
  0
ACAD_PROXY_OBJECT
  5
179F
102
{ACAD_REACTORS
330
1784
102
}
330
1784
100
AcDbProxyObject
 90
      499
 91
      510
 95
   983063
 70
     0
 93
      249
310
90D312F3222203D2031272D302200000000000000380FC000000000000284000
 94
        0
1001
ACAD
1000
AcRTDxfName
1000
SCALE
1000
AcRTDxfName
1000
SCALE
1000
AcRTDxfName
1000
SCALE
1000
AcRTDxfName
1000
SCALE
1000
AcRTDxfName
1000
SCALE
1000
AcRTDxfName
1000
SCALE
1000
AcRTDxfName
1000
SCALE
1000
AcRTDxfName
1000
SCALE
1000
AcRTDxfName
1000
SCALE
  0
ACAD_PROXY_OBJECT
  5
17A0
102
{ACAD_REACTORS
330
1784
102
}
330
1784
100
AcDbProxyObject
 90
      499
 91
      510
 95
   983063
 70
     0
 93
      249
310
90D332F3422203D2031272D3022000000000000003A0FC000000000000284040
 94
        0
1001
ACAD
1000
AcRTDxfName
1000
SCALE
1000
AcRTDxfName
1000
SCALE
1000
AcRTDxfName
1000
SCALE
1000
AcRTDxfName
1000
SCALE
1000
AcRTDxfName
1000
SCALE
1000
AcRTDxfName
1000
SCALE
1000
AcRTDxfName
1000
SCALE
1000
AcRTDxfName
1000
SCALE
1000
AcRTDxfName
1000
SCALE
  0
ACAD_PROXY_OBJECT
  5
17A1
102
{ACAD_REACTORS
330
1784
102
}
330
1784
100
AcDbProxyObject
 90
      499
 91
      510
 95
   983063
 70
     0
 93
      169
310
90B3122203D2031272D3022004000000000000284000
 94
        0
1001
ACAD
1000
AcRTDxfName
1000
SCALE
1000
AcRTDxfName
1000
SCALE
1000
AcRTDxfName
1000
SCALE
1000
AcRTDxfName
1000
SCALE
1000
AcRTDxfName
1000
SCALE
1000
AcRTDxfName
1000
SCALE
1000
AcRTDxfName
1000
SCALE
1000
AcRTDxfName
1000
SCALE
1000
AcRTDxfName
1000
SCALE
  0
ACAD_PROXY_OBJECT
  5
17A2
102
{ACAD_REACTORS
330
1784
102
}
330
1784
100
AcDbProxyObject
 90
      499
 91
      510
 95
   983063
 70
     0
 93
      265
310
90F312D312F3222203D2031272D3022000000000000003E0FC000000000000284000
 94
        0
1001
ACAD
1000
AcRTDxfName
1000
SCALE
1000
AcRTDxfName
1000
SCALE
1000
AcRTDxfName
1000
SCALE
1000
AcRTDxfName
1000
SCALE
1000
AcRTDxfName
1000
SCALE
1000
AcRTDxfName
1000
SCALE
1000
AcRTDxfName
1000
SCALE
1000
AcRTDxfName
1000
SCALE
1000
AcRTDxfName
1000
SCALE
  0
ACAD_PROXY_OBJECT
  5
17A3
102
{ACAD_REACTORS
330
1784
102
}
330
1784
100
AcDbProxyObject
 90
      499
 91
      510
 95
   983063
 70
     0
 93
      233
310
90B3322203D2031272D30220000000000000002100000000000000284000
 94
        0
1001
ACAD
1000
AcRTDxfName
1000
SCALE
1000
AcRTDxfName
1000
SCALE
1000
AcRTDxfName
1000
SCALE
1000
AcRTDxfName
1000
SCALE
1000
AcRTDxfName
1000
SCALE
1000
AcRTDxfName
1000
SCALE
1000
AcRTDxfName
1000
SCALE
1000
AcRTDxfName
1000
SCALE
1000
AcRTDxfName
1000
SCALE
  0
ACAD_PROXY_OBJECT
  5
17A4
102
{ACAD_REACTORS
330
1784
102
}
330
1784
100
AcDbProxyObject
 90
      499
 91
      510
 95
   983063
 70
     0
 93
      233
310
90B3622203D2031272D30220000000000000006100000000000000284000
 94
        0
1001
ACAD
1000
AcRTDxfName
1000
SCALE
1000
AcRTDxfName
1000
SCALE
1000
AcRTDxfName
1000
SCALE
1000
AcRTDxfName
1000
SCALE
1000
AcRTDxfName
1000
SCALE
1000
AcRTDxfName
1000
SCALE
1000
AcRTDxfName
1000
SCALE
1000
AcRTDxfName
1000
SCALE
1000
AcRTDxfName
1000
SCALE
  0
ACAD_PROXY_OBJECT
  5
17A5
102
{ACAD_REACTORS
330
1784
102
}
330
1784
100
AcDbProxyObject
 90
      499
 91
      510
 95
   983063
 70
     0
 93
      257
310
90E31272D3022203D2031272D3022000000000000000A100000000000000284040
 94
        0
1001
ACAD
1000
AcRTDxfName
1000
SCALE
1000
AcRTDxfName
1000
SCALE
1000
AcRTDxfName
1000
SCALE
1000
AcRTDxfName
1000
SCALE
1000
AcRTDxfName
1000
SCALE
1000
AcRTDxfName
1000
SCALE
1000
AcRTDxfName
1000
SCALE
1000
AcRTDxfName
1000
SCALE
1000
AcRTDxfName
1000
SCALE
  0
TABLESTYLE
  5
129F
102
{ACAD_XDICTIONARY
360
2FBE
102
}
102
{ACAD_REACTORS
330
129E
102
}
330
129E
100
AcDbTableStyle
  3
Standard
 70
     0
 71
     0
 40
1.5
 41
1.5
280
     0
281
     0
  7
STANDARD
140
4.5
170
     2
 62
     0
 63
     7
283
     0
274
    -2
284
     1
 64
     0
275
    -2
285
     1
 65
     0
276
    -2
286
     1
 66
     0
277
    -2
287
     1
 67
     0
278
    -2
288
     1
 68
     0
279
    -2
289
     1
 69
     0
  7
STANDARD
140
6.0
170
     5
 62
     0
 63
     7
283
     0
274
    -2
284
     1
 64
     0
275
    -2
285
     1
 65
     0
276
    -2
286
     1
 66
     0
277
    -2
287
     1
 67
     0
278
    -2
288
     1
 68
     0
279
    -2
289
     1
 69
     0
  7
STANDARD
140
4.5
170
     5
 62
     0
 63
     7
283
     0
274
    -2
284
     1
 64
     0
275
    -2
285
     1
 65
     0
276
    -2
286
     1
 66
     0
277
    -2
287
     1
 67
     0
278
    -2
288
     1
 68
     0
279
    -2
289
     1
 69
     0
  0
ACAD_PROXY_OBJECT
  5
1779
102
{ACAD_REACTORS
330
1773
102
}
330
1773
100
AcDbProxyObject
 90
      499
 91
      509
 95
   983063
 70
     0
 93
      444
310
430C9915DA5C99599C985B59401049028333333333333E3BF0000000000000FB0107901411070040501600405405064090741402480A034A
 94
        0
1001
ACAD
1000
AcDbSavedByObjectVersion
1070
     0
1000
AcRTDxfName
1000
VISUALSTYLE
1000
AcRTDxfName
1000
VISUALSTYLE
1000
AcRTDxfName
1000
VISUALSTYLE
1000
AcRTDxfName
1000
VISUALSTYLE
1000
AcRTDxfName
1000
VISUALSTYLE
1000
AcRTDxfName
1000
VISUALSTYLE
1000
AcRTDxfName
1000
VISUALSTYLE
1000
AcRTDxfName
1000
VISUALSTYLE
1000
AcRTDxfName
1000
VISUALSTYLE
  0
ACAD_PROXY_OBJECT
  5
177B
102
{ACAD_REACTORS
330
1773
102
}
330
1773
100
AcDbProxyObject
 90
      499
 91
      509
 95
   983063
 70
     0
 93
      508
310
428CD108121A5919195B8010640502408333333333333E3BF0000000000000FB01079024090700405020000000000001110200405405064090740C02480A0342
 94
        0
1001
ACAD
1000
AcDbSavedByObjectVersion
1070
     0
1000
AcRTDxfName
1000
VISUALSTYLE
1000
AcRTDxfName
1000
VISUALSTYLE
1000
AcRTDxfName
1000
VISUALSTYLE
1000
AcRTDxfName
1000
VISUALSTYLE
1000
AcRTDxfName
1000
VISUALSTYLE
1000
AcRTDxfName
1000
VISUALSTYLE
1000
AcRTDxfName
1000
VISUALSTYLE
1000
AcRTDxfName
1000
VISUALSTYLE
1000
AcRTDxfName
1000
VISUALSTYLE
  0
ACAD_PROXY_OBJECT
  5
177A
102
{ACAD_REACTORS
330
1773
102
}
330
1773
100
AcDbProxyObject
 90
      499
 91
      509
 95
   983063
 70
     0
 93
      444
310
430CD915DA5C99599C985B59401059028333333333333E3BF0000000000000FB0107901411070040501600405405064090741402480A0340
 94
        0
1001
ACAD
1000
AcDbSavedByObjectVersion
1070
     0
1000
AcRTDxfName
1000
VISUALSTYLE
1000
AcRTDxfName
1000
VISUALSTYLE
1000
AcRTDxfName
1000
VISUALSTYLE
1000
AcRTDxfName
1000
VISUALSTYLE
1000
AcRTDxfName
1000
VISUALSTYLE
1000
AcRTDxfName
1000
VISUALSTYLE
1000
AcRTDxfName
1000
VISUALSTYLE
1000
AcRTDxfName
1000
VISUALSTYLE
1000
AcRTDxfName
1000
VISUALSTYLE
  0
ACAD_PROXY_OBJECT
  5
1778
102
{ACAD_REACTORS
330
1773
102
}
330
1773
100
AcDbProxyObject
 90
      499
 91
      509
 95
   983063
 70
     0
 93
      396
310
4190985CDA58C0107406404333333333333E3BF0000000000000FB0107A41107004050150841D405064090741402480A0358
 94
        0
1001
ACAD
1000
AcDbSavedByObjectVersion
1070
     0
1000
AcRTDxfName
1000
VISUALSTYLE
1000
AcRTDxfName
1000
VISUALSTYLE
1000
AcRTDxfName
1000
VISUALSTYLE
1000
AcRTDxfName
1000
VISUALSTYLE
1000
AcRTDxfName
1000
VISUALSTYLE
1000
AcRTDxfName
1000
VISUALSTYLE
1000
AcRTDxfName
1000
VISUALSTYLE
1000
AcRTDxfName
1000
VISUALSTYLE
1000
AcRTDxfName
1000
VISUALSTYLE
  0
ACAD_PROXY_OBJECT
  5
177F
102
{ACAD_REACTORS
330
1773
102
}
330
1773
100
AcDbProxyObject
 90
      499
 91
      509
 95
   983063
 70
     0
 93
      436
310
42509C9A59DA1D195B8010C409028333333333333E3BF0000000000000FB010790141107004050150841D405064090741402480A029956
 94
        0
1001
ACAD
1000
AcDbSavedByObjectVersion
1070
     0
1000
AcRTDxfName
1000
VISUALSTYLE
1000
AcRTDxfName
1000
VISUALSTYLE
1000
AcRTDxfName
1000
VISUALSTYLE
1000
AcRTDxfName
1000
VISUALSTYLE
1000
AcRTDxfName
1000
VISUALSTYLE
1000
AcRTDxfName
1000
VISUALSTYLE
1000
AcRTDxfName
1000
VISUALSTYLE
1000
AcRTDxfName
1000
VISUALSTYLE
1000
AcRTDxfName
1000
VISUALSTYLE
  0
ACAD_PROXY_OBJECT
  5
1783
102
{ACAD_REACTORS
330
1773
102
}
330
1773
100
AcDbProxyObject
 90
      499
 91
      509
 95
   983063
 70
     0
 93
      460
310
4310DBDB1BDC90DA185B99D9401104090240C333333333333E3BF0000000000000FB0108901411070040501508421405064090741402480A0354
 94
        0
1001
ACAD
1000
AcDbSavedByObjectVersion
1070
     0
1000
AcRTDxfName
1000
VISUALSTYLE
1000
AcRTDxfName
1000
VISUALSTYLE
1000
AcRTDxfName
1000
VISUALSTYLE
1000
AcRTDxfName
1000
VISUALSTYLE
1000
AcRTDxfName
1000
VISUALSTYLE
1000
AcRTDxfName
1000
VISUALSTYLE
1000
AcRTDxfName
1000
VISUALSTYLE
1000
AcRTDxfName
1000
VISUALSTYLE
1000
AcRTDxfName
1000
VISUALSTYLE
  0
ACAD_PROXY_OBJECT
  5
177C
102
{ACAD_REACTORS
330
1773
102
}
330
1773
100
AcDbProxyObject
 90
      499
 91
      509
 95
   983063
 70
     0
 93
      508
310
42D0DBDB98D95C1D1D585B0010940D028333333333333E3BF0000000000000FB0107902409070040501000000000000111010841D405064090740C02480A0342
 94
        0
1001
ACAD
1000
AcDbSavedByObjectVersion
1070
     0
1000
AcRTDxfName
1000
VISUALSTYLE
1000
AcRTDxfName
1000
VISUALSTYLE
1000
AcRTDxfName
1000
VISUALSTYLE
1000
AcRTDxfName
1000
VISUALSTYLE
1000
AcRTDxfName
1000
VISUALSTYLE
1000
AcRTDxfName
1000
VISUALSTYLE
1000
AcRTDxfName
1000
VISUALSTYLE
1000
AcRTDxfName
1000
VISUALSTYLE
1000
AcRTDxfName
1000
VISUALSTYLE
  0
ACAD_PROXY_OBJECT
  5
177E
102
{ACAD_REACTORS
330
1773
102
}
330
1773
100
AcDbProxyObject
 90
      499
 91
      509
 95
   983063
 70
     0
 93
      420
310
41111A5B4010B409028333333333333E3BF0000000000000FB010790141107004050150841D405064090741402480A02677FFFFFD4
 94
        0
1001
ACAD
1000
AcDbSavedByObjectVersion
1070
     0
1000
AcRTDxfName
1000
VISUALSTYLE
1000
AcRTDxfName
1000
VISUALSTYLE
1000
AcRTDxfName
1000
VISUALSTYLE
1000
AcRTDxfName
1000
VISUALSTYLE
1000
AcRTDxfName
1000
VISUALSTYLE
1000
AcRTDxfName
1000
VISUALSTYLE
1000
AcRTDxfName
1000
VISUALSTYLE
1000
AcRTDxfName
1000
VISUALSTYLE
1000
AcRTDxfName
1000
VISUALSTYLE
  0
ACAD_PROXY_OBJECT
  5
1782
102
{ACAD_REACTORS
330
1773
102
}
330
1773
100
AcDbProxyObject
 90
      499
 91
      509
 95
   983063
 70
     0
 93
      452
310
43119858D95C185D1D195C9B8010F409028333333333333E3BF0000000000000FB010790141107004050150841D405064090741402480A0350
 94
        0
1001
ACAD
1000
AcDbSavedByObjectVersion
1070
     0
1000
AcRTDxfName
1000
VISUALSTYLE
1000
AcRTDxfName
1000
VISUALSTYLE
1000
AcRTDxfName
1000
VISUALSTYLE
1000
AcRTDxfName
1000
VISUALSTYLE
1000
AcRTDxfName
1000
VISUALSTYLE
1000
AcRTDxfName
1000
VISUALSTYLE
1000
AcRTDxfName
1000
VISUALSTYLE
1000
AcRTDxfName
1000
VISUALSTYLE
1000
AcRTDxfName
1000
VISUALSTYLE
  0
ACAD_PROXY_OBJECT
  5
1774
102
{ACAD_REACTORS
330
1773
102
}
330
1773
100
AcDbProxyObject
 90
      499
 91
      509
 95
   983063
 70
     0
 93
      396
310
41519B185D00240901404333333333333E3BF0000000000000F9010740A41107004050150841D405064090741402480A1B55
 94
        0
1001
ACAD
1000
AcDbSavedByObjectVersion
1070
     0
1000
AcRTDxfName
1000
VISUALSTYLE
1000
AcRTDxfName
1000
VISUALSTYLE
1000
AcRTDxfName
1000
VISUALSTYLE
1000
AcRTDxfName
1000
VISUALSTYLE
1000
AcRTDxfName
1000
VISUALSTYLE
1000
AcRTDxfName
1000
VISUALSTYLE
1000
AcRTDxfName
1000
VISUALSTYLE
1000
AcRTDxfName
1000
VISUALSTYLE
1000
AcRTDxfName
1000
VISUALSTYLE
  0
ACAD_PROXY_OBJECT
  5
1775
102
{ACAD_REACTORS
330
1773
102
}
330
1773
100
AcDbProxyObject
 90
      499
 91
      509
 95
   983063
 70
     0
 93
      484
310
43919B185D15DA5D1A115919D95CC010140901404333333333333E3BF0000000000000F9010740901411070040501600405405064090741402480A1B55
 94
        0
1001
ACAD
1000
AcDbSavedByObjectVersion
1070
     0
1000
AcRTDxfName
1000
VISUALSTYLE
1000
AcRTDxfName
1000
VISUALSTYLE
1000
AcRTDxfName
1000
VISUALSTYLE
1000
AcRTDxfName
1000
VISUALSTYLE
1000
AcRTDxfName
1000
VISUALSTYLE
1000
AcRTDxfName
1000
VISUALSTYLE
1000
AcRTDxfName
1000
VISUALSTYLE
1000
AcRTDxfName
1000
VISUALSTYLE
1000
AcRTDxfName
1000
VISUALSTYLE
  0
ACAD_PROXY_OBJECT
  5
1776
102
{ACAD_REACTORS
330
1773
102
}
330
1773
100
AcDbProxyObject
 90
      499
 91
      509
 95
   983063
 70
     0
 93
      420
310
4211DBDD5C985D590010240902404333333333333E3BF0000000000000F9010740A411070040501641D405064090741402480A1B5C
 94
        0
1001
ACAD
1000
AcDbSavedByObjectVersion
1070
     0
1000
AcRTDxfName
1000
VISUALSTYLE
1000
AcRTDxfName
1000
VISUALSTYLE
1000
AcRTDxfName
1000
VISUALSTYLE
1000
AcRTDxfName
1000
VISUALSTYLE
1000
AcRTDxfName
1000
VISUALSTYLE
1000
AcRTDxfName
1000
VISUALSTYLE
1000
AcRTDxfName
1000
VISUALSTYLE
1000
AcRTDxfName
1000
VISUALSTYLE
1000
AcRTDxfName
1000
VISUALSTYLE
  0
ACAD_PROXY_OBJECT
  5
1777
102
{ACAD_REACTORS
330
1773
102
}
330
1773
100
AcDbProxyObject
 90
      499
 91
      509
 95
   983063
 70
     0
 93
      508
310
4451DBDD5C985D5915DA5D1A115919D95CC010340902404333333333333E3BF0000000000000F9010740901411070040501600405405064090741402480A1B52
 94
        0
1001
ACAD
1000
AcDbSavedByObjectVersion
1070
     0
1000
AcRTDxfName
1000
VISUALSTYLE
1000
AcRTDxfName
1000
VISUALSTYLE
1000
AcRTDxfName
1000
VISUALSTYLE
1000
AcRTDxfName
1000
VISUALSTYLE
1000
AcRTDxfName
1000
VISUALSTYLE
1000
AcRTDxfName
1000
VISUALSTYLE
1000
AcRTDxfName
1000
VISUALSTYLE
1000
AcRTDxfName
1000
VISUALSTYLE
1000
AcRTDxfName
1000
VISUALSTYLE
  0
ACAD_PROXY_OBJECT
  5
1781
102
{ACAD_REACTORS
330
1773
102
}
330
1773
100
AcDbProxyObject
 90
      499
 91
      509
 95
   983063
 70
     0
 93
      452
310
43131A5B995C185D1D195C9B8010E409028333333333333E3BF0000000000000FB010790141107004050750841D405064090741402483A0350
 94
        0
1001
ACAD
1000
AcDbSavedByObjectVersion
1070
     0
1000
AcRTDxfName
1000
VISUALSTYLE
1000
AcRTDxfName
1000
VISUALSTYLE
1000
AcRTDxfName
1000
VISUALSTYLE
1000
AcRTDxfName
1000
VISUALSTYLE
1000
AcRTDxfName
1000
VISUALSTYLE
1000
AcRTDxfName
1000
VISUALSTYLE
1000
AcRTDxfName
1000
VISUALSTYLE
1000
AcRTDxfName
1000
VISUALSTYLE
1000
AcRTDxfName
1000
VISUALSTYLE
  0
ACAD_PROXY_OBJECT
  5
177D
102
{ACAD_REACTORS
330
1773
102
}
330
1773
100
AcDbProxyObject
 90
      499
 91
      509
 95
   983063
 70
     0
 93
      428
310
429499585B1A5CDD1A58C0108409028333333333333E3BF0000000000000FB01079019070040501508421405064090741402480A1B45
 94
        0
1001
ACAD
1000
AcDbSavedByObjectVersion
1070
     0
1000
AcRTDxfName
1000
VISUALSTYLE
1000
AcRTDxfName
1000
VISUALSTYLE
1000
AcRTDxfName
1000
VISUALSTYLE
1000
AcRTDxfName
1000
VISUALSTYLE
1000
AcRTDxfName
1000
VISUALSTYLE
1000
AcRTDxfName
1000
VISUALSTYLE
1000
AcRTDxfName
1000
VISUALSTYLE
1000
AcRTDxfName
1000
VISUALSTYLE
1000
AcRTDxfName
1000
VISUALSTYLE
  0
ACAD_PROXY_OBJECT
  5
1780
102
{ACAD_REACTORS
330
1773
102
}
330
1773
100
AcDbProxyObject
 90
      499
 91
      509
 95
   983063
 70
     0
 93
      420
310
42151A1A58DAD95B8010D409028333333333333E3BF0000000000000FB010790141107004050150C41D405064090741402480A0354
 94
        0
1001
ACAD
1000
AcDbSavedByObjectVersion
1070
     0
1000
AcRTDxfName
1000
VISUALSTYLE
1000
AcRTDxfName
1000
VISUALSTYLE
1000
AcRTDxfName
1000
VISUALSTYLE
1000
AcRTDxfName
1000
VISUALSTYLE
1000
AcRTDxfName
1000
VISUALSTYLE
1000
AcRTDxfName
1000
VISUALSTYLE
1000
AcRTDxfName
1000
VISUALSTYLE
1000
AcRTDxfName
1000
VISUALSTYLE
1000
AcRTDxfName
1000
VISUALSTYLE
  0
DICTIONARYVAR
  5
2FEE
102
{ACAD_REACTORS
330
1350
102
}
330
1350
100
DictionaryVariables
280
     0
  1
1:1
  0
DICTIONARYVAR
  5
2FED
102
{ACAD_REACTORS
330
1350
102
}
330
1350
100
DictionaryVariables
280
     0
  1
STANDARD
  0
DICTIONARYVAR
  5
1351
102
{ACAD_REACTORS
330
1350
102
}
330
1350
100
DictionaryVariables
280
     0
  1
STANDARD
  0
DICTIONARYVAR
  5
135D
102
{ACAD_REACTORS
330
1350
102
}
330
1350
100
DictionaryVariables
280
     0
  1
1
  0
DICTIONARYVAR
  5
2FF0
102
{ACAD_REACTORS
330
1350
102
}
330
1350
100
DictionaryVariables
280
     0
  1
0
  0
DICTIONARYVAR
  5
135E
102
{ACAD_REACTORS
330
1350
102
}
330
1350
100
DictionaryVariables
280
     0
  1

  0
DICTIONARYVAR
  5
2FEF
102
{ACAD_REACTORS
330
1350
102
}
330
1350
100
DictionaryVariables
280
     0
  1
127
  0
DICTIONARY
  5
3330
330
12A2
100
AcDbDictionary
280
     1
281
     1
  3
ACAD_XREC_ROUNDTRIP
360
3331
  0
DICTIONARY
  5
136A
330
12A3
100
AcDbDictionary
280
     1
281
     1
  3
ACAD_XREC_ROUNDTRIP
360
3332
  3
ADSK_XREC_LAYOUTTHUMBNAIL
360
136B
  0
DICTIONARY
  5
1764
330
1763
100
AcDbDictionary
280
     1
281
     1
  3
ACAD_XREC_ROUNDTRIP
360
3097
  3
BUMPTILE
360
1766
  3
DIFFUSETILE
360
1765
  3
OPACITYTILE
360
1769
  3
REFLECTIONTILE
360
1768
  3
REFRACTIONTILE
360
176A
  3
SPECULARTILE
360
1767
  0
DICTIONARY
  5
175C
330
175B
100
AcDbDictionary
280
     1
281
     1
  3
ACAD_XREC_ROUNDTRIP
360
3096
  3
BUMPTILE
360
175E
  3
DIFFUSETILE
360
175D
  3
OPACITYTILE
360
1761
  3
REFLECTIONTILE
360
1760
  3
REFRACTIONTILE
360
1762
  3
SPECULARTILE
360
175F
  0
DICTIONARY
  5
176C
330
176B
100
AcDbDictionary
280
     1
281
     1
  3
ACAD_XREC_ROUNDTRIP
360
3098
  3
BUMPTILE
360
176E
  3
DIFFUSETILE
360
176D
  3
OPACITYTILE
360
1771
  3
REFLECTIONTILE
360
1770
  3
REFRACTIONTILE
360
1772
  3
SPECULARTILE
360
176F
  0
DICTIONARY
  5
3333
330
134F
100
AcDbDictionary
280
     1
281
     1
  3
ACAD_XREC_ROUNDTRIP
360
3334
  0
DICTIONARY
  5
2FBE
330
129F
100
AcDbDictionary
280
     1
281
     1
  3
ACAD_ROUNDTRIP_2008_TABLESTYLE_CELLSTYLEMAP
360
307C
  3
ACAD_XREC_ROUNDTRIP
360
3090
  0
XRECORD
  5
3331
102
{ACAD_REACTORS
330
3330
102
}
330
3330
100
AcDbXrecord
280
     1
102
SHADEPLOT
 70
     0
102
SHADEPLOTRESLEVEL
 70
     2
102
SHADEPLOTCUSTOMDPI
 70
   300
  0
XRECORD
  5
3332
102
{ACAD_REACTORS
330
136A
102
}
330
136A
100
AcDbXrecord
280
     1
102
SHADEPLOT
 70
     0
102
SHADEPLOTRESLEVEL
 70
     2
102
SHADEPLOTCUSTOMDPI
 70
   300
  0
XRECORD
  5
136B
102
{ACAD_REACTORS
330
136A
102
}
330
136A
100
AcDbXrecord
280
     1
310
28000000B40000007F00000001000800000000004C5900000000000000000000000100000000000000000000FFFFFF00000000000000000000000000000000000000000000000000000000000000000000000000330000006600000099000000CC000000FF00000000330000333300006633000099330000CC330000FF3300
310
0000660000336600006666000099660000CC660000FF66000000990000339900006699000099990000CC990000FF99000000CC000033CC000066CC000099CC0000CCCC0000FFCC000000FF000033FF000066FF000099FF0000CCFF0000FFFF000000003300330033006600330099003300CC003300FF003300003333003333
310
33006633330099333300CC333300FF33330000663300336633006666330099663300CC663300FF66330000993300339933006699330099993300CC993300FF99330000CC330033CC330066CC330099CC3300CCCC3300FFCC330000FF330033FF330066FF330099FF3300CCFF3300FFFF330000006600330066006600660099
310
006600CC006600FF00660000336600333366006633660099336600CC336600FF33660000666600336666006666660099666600CC666600FF66660000996600339966006699660099996600CC996600FF99660000CC660033CC660066CC660099CC6600CCCC6600FFCC660000FF660033FF660066FF660099FF6600CCFF6600
310
FFFF660000009900330099006600990099009900CC009900FF00990000339900333399006633990099339900CC339900FF33990000669900336699006666990099669900CC669900FF66990000999900339999006699990099999900CC999900FF99990000CC990033CC990066CC990099CC9900CCCC9900FFCC990000FF99
310
0033FF990066FF990099FF9900CCFF9900FFFF99000000CC003300CC006600CC009900CC00CC00CC00FF00CC000033CC003333CC006633CC009933CC00CC33CC00FF33CC000066CC003366CC006666CC009966CC00CC66CC00FF66CC000099CC003399CC006699CC009999CC00CC99CC00FF99CC0000CCCC0033CCCC0066CC
310
CC0099CCCC00CCCCCC00FFCCCC0000FFCC0033FFCC0066FFCC0099FFCC00CCFFCC00FFFFCC000000FF003300FF006600FF009900FF00CC00FF00FF00FF000033FF003333FF006633FF009933FF00CC33FF00FF33FF000066FF003366FF006666FF009966FF00CC66FF00FF66FF000099FF003399FF006699FF009999FF00CC
310
99FF00FF99FF0000CCFF0033CCFF0066CCFF0099CCFF00CCCCFF00FFCCFF0000FFFF0033FFFF0066FFFF0099FFFF00CCFFFF00FFFFFF00000000000D0D0D001A1A1A00282828003535350043434300505050005D5D5D006B6B6B00787878008686860093939300A1A1A100AEAEAE00BBBBBB00C9C9C900D6D6D600E4E4E400
310
F1F1F100FFFFFF0000000000000000000000000000000000000000000000000000000000000000000000000000000000F5F5F5F5F5F5F5F5F5F5F5F5F5F5F5F5F5F5F5F5F5F5F5F5F5F5F5F5F5F5F5F5F5F5F5F5F5F5F5F5F5F5F5F5F5F5F5F5F5F5F5F5F5F5F5F5F5F5F5F5F5F5F5F5F5F5F5F5F5F5F5F5F5F5F5F5F5F5F5
310
F5F5F5F5F5F5F5F5F5F5F5F5F5F5F5F5F5F5F5F5F5F5F5F5F5F5F5F5F5F5F5F5F5F5F5F5F5F5F5F5F5F5F5F5F5F5F5F5F5F5F5F5F5F5F5F5F5F5F5F5F5F5F5F5F5F5F5F5F5F5F5F5F5F5F5F5F5F5F5F5F5F5F5F5F5F5F5F5F5F5F5F5F5F5F5F5F5F5F5F5F5F5F5F5F5F5F5F5F5F5F5E2E2E2E2E2E2E2E2E2F5F5F5F5F5F5F5
310
F5F5F5F5F5F5F5F5F5E2E2E2E2E2E2E2E2E2F5F5F5F5F5F5F5F5F5F5F5F5F5F5F5F5E2E2E2E2E2E2E2E2E2F5F5F5F5F5F5F5F5F5F5F5F5F5F5F5F5E2E2E2E2E2E2E2E2E2F5F5F5F5F5F5F5F5F5F5F5F5F5F5F5F5E2E2E2E2E2E2E2E2E2F5F5F5F5F5F5F5F5F5F5F5F5F5F5F5F5E2E2E2E2E2E2E2E2E2F5F5F5F5F5F5F5F5F5
310
F5F5F5F5F5F5F5E2E2E2E2E2E2E2E2E2F5F5F5F5F5F5F5F5F5F5F5F5F5E2E2E2E2E2E2E2E2E2E2E2E2E2E2E2E2E2E2E2E2E2E2E2E2E2E2E2E2E2E2E2E2E2E2E2E2E2E2E2E2E2E2E2E2E2E2E2E2E2E2E2E2E2E2E2E2E2E2E2E2E2E2E2E2E2E2E2E2E2E2E2E2E2E2E2E2E2E2E2E2E2E2E2E2E2E2E2E2E2E2E2E2E2E2E2E2E2E2
310
E2E2E2E2E2E2E2E2E2E2E2E2E2E2E2E2E2E2E2E2E2E2E2E2E2E2E2E2E2E2E2E2E2E2E2E2E2E2E2E2E2E2E2E2E2E2E2E2E2E2E2E2E2E2E2E2E2E2E2E2E2E2E2E2E2E2E2E2E2E2E2E2E2E2E2E2E2F5F5F5F5F5E2E2E2E2E2E2E2E2E2E2E2E2E2E2E2E2E2E2E2E2E2E2E2E2E2E2E2E2E2E2E2E2E2E2E2E2E2E2E2E2E2E2E2E2E2
310
E2E2E2E2E2E2E2E2E2E2E2E2E2E2E2E2E2E2E2E2E2E2E2E2E2E2E2E2E2E2E2E2E2E2E2E2E2E2E2E2E2E2E2E2E2E2E2E2E2E2E2E2E2E2E2E2E2E2E2E2E2E2E2E2E2E2E2E2E2E2E2E2E2E2E2E2E2E2E2E2E2E2E2E2E2E2E2E2E2E2E2E2E2E2E2E2E2E2E2E2E2E2E2E2E2E2E2E2E2E2E2E2E2E2E2E2E2E2E2E2E2E2E2E2E2E2E2
310
E2E2E2F5F5F5F5F5E2E2E2E2E2E2E2E2E2E2E2E2E2E2E2E2E2E2E2E2E2E2E2E2E2E2E2E2E2E2E2E2E2E2E2E2E2E2E2E2E2E2E2E2E2E2E2E2E2E2E2E2E2E2E2E2E2E2E2E2E2E2E2E2E2E2E2E2E2E2E2E2E2E2E2E2E2E2E2E2E2E2E2E2E2E2E2E2E2E2E2E2E2E2E2E2E2E2E2E2E2E2E2E2E2E2E2E2E2E2E2E2E2E2E2E2E2E2E2
310
E2E2E2E2E2E2E2E2E2E2E2E2E2E2E2E2E2E2E2E2E2E2E2E2E2E2E2E2E2E2E2E2E2E2E2E2E2E2E2E2E2E2E2E2E2E2E2E2E2E2E2E2E2E2E2E2F5F5F5F5F5E2E2E2E2E2E2E2E2E2E2E2E2E2E2E2E2E2E2E2E2E2E2E2E2E2E2E2E2E2E2E2E2E2E2E2E2E2E2E2E2E2E2E2E2E2E2E2E2E2E2E2E2E2E2E2E2E2E2E2E2E2E2E2E2E2E2
310
E2E2E2E2E2E2E2E2E2E2E2E2E2E2E2E2E2E2E2E2E2E2E2E2E2E2E2E2E2E2E2E2E2E2E2E2E2E2E2E2E2E2E2E2E2E2E2E2E2E2E2E2E2E2E2E2E2E2E2E2E2E2E2E2E2E2E2E2E2E2E2E2E2E2E2E2E2E2E2E2E2E2E2E2E2E2E2E2E2E2E2E2E2E2E2E2E2E2E2E2E2E2E2E2E2E2E2E2E2F5F5F5F5F5E2E2E2E2E2E2E2E2E2E2E2E2E2
310
E2E2E2E2E2E2E2E2E2E2E2E2E2E2E2E2E2E2E2E2E2E2E2E2E2E2E2E2E2E2E2E2E2E2E2E2E2E2E2E2E2E2E2E2E2E2E2E2E2E2E2E2E2E2E2E2E2E2E2E2E2E2E2E2E2E2E2E2E2E2E2E2E2E2E2E2E2E2E2E2E2E2E2E2E2E2E2E2E2E2E2E2E2E2E2E2E2E2E2E2E2E2E2E2E2E2E2E2E2E2E2E2E2E2E2E2E2E2E2E2E2E2E2E2E2E2E2
310
E2E2E2E2E2E2E2E2E2E2E2E2E2E2E2E2E2E2E2E2E2E2E2E2E2E2E2E2E2E2E2E2E2E2E2F5F5F5F5F5E2E2E2E2E2F5F5F5F5F5F5F5F5F5F5F5F5F5F5F5F5F5F5F5F5F5F5F5F5F5F5F5F5F5F5F5F5F5F5F5F5F5F5F5F5F5F5F5F5F5F5F5F5F5F5F5F5F5F5F5F5F5F5F5F5F5F5F5F5F5F5F5F5F5F5F5F5F5F5F5F5F5F5F5F5F5F5
310
F5F5F5F5F5F5F5F5F5F5F5F5F5F5F5F5F5F5F5F5F5F5F5F5F5F5F5F5F5F5F5F5F5F5F5F5F5F5F5F5F5F5F5F5F5F5F5F5F5F5F5F5F5F5F5F5F5F5F5F5F5F5F5F5F5F5F5F5F5F5F5F5F5F5F5F5F5F5F5F5F5F5F5E2E2E2E2E2F5F5F5F5F5E2E2E2E2E2F5E2E2E2E2E2E2E2E2E2E2E2E2E2E2E2E2E2E2E2E2E2E2E2E2E2E2E2E2
310
E2E2E2E2E2E2E2E2E2E2E2E2E2E2E2E2E2E2E2E2E2E2E2E2E2E2E2E2E2E2E2E2E2E2E2E2E2E2E2E2E2E2E2E2E2E2E2E2E2E2E2E2E2E2E2E2E2E2E2E2E2E2E2E2E2E2E2E2E2E2E2E2E2E2E2E2E2E2E2E2E2E2E2E2E2E2E2E2E2E2E2E2E2E2E2E2E2E2E2E2E2E2E2E2E2E2E2E2E2E2E2E2E2E2E2E2E2E2E2E2E2E2E2E2E2E2E2
310
E2E2E2E2E2E2E2E2F5E2E2E2E2E2F5F5F5F5E2E2E2E2E2E2F5E2E2E2E2E2E2E2E2E2E2E2E2E2E2E2E2E2E2E2E2E2E2E2E2E2E2E2E2E2E2E2E2E2E2E2E2E2E2E2E2E2E2E2E2E2E2E2E2E2E2E2E2E2E2E2E2E2E2E2E2E2E2E2E2E2E2E2E2E2E2E2E2E2E2E2E2E2E2E2E2E2E2E2E2E2E2E2E2E2E2E2E2E2E2E2E2E2E2E2E2E2E2
310
E2E2E2E2E2E2E2E2E2E2E2E2E2E2E2E2E2E2E2E2E2E2E2E2E2E2E2E2E2E2E2E2E2E2E2E2E2E2E2E2E2E2E2E2E2E2E2E2E2E2E2E2E2E2E2E2E2E2E2E2E2F5E2E2E2E2E2E2F5F5F5E2E2E2E2E2E2F5E2E2E2E2E2E2E2E2E2E2E2E2E2E2E2E2E2E2E2E2E2E2E2E2E2E2E2E2E2E2E2E2E2E2E2E2E2E2E2E2E2E2E2E2E2E2E2E2E2
310
E2E2E2E2E2E2E2E2E2E2E2E2E2E2E2E2E2E2E2E2E2E2E2E2E2E2E2E2E2E2E2E2E2E2E2E2E2E2E2E2E2E2E2E2E2E2E2E2E2E2E2E2E2E2E2E2E2E2E2E2E2E2E2E2E2E2E2E2E2E2E2E2E2E2E2E2E2E2E2E2E2E2E2E2E2E2E2E2E2E2E2E2E2E2E2E2E2E2E2E2E2E2E2E2E2E2E2E2E2E2E2E2E2E2F5E2E2E2E2E2E2F5F5F5E2E2E2
310
E2E2E2F5E2E2E2E2E2E2E2E2E2E2E2E2E2E2E2E2E2E2E2E2E2E2E2E2E2E2E2E2E2E2E2E2E2E2E2E2E2E2E2E2E2E2E2E2E2E2E2E2E2E2E2E2E2E2E2E2E2E2E2E2E2E2E2E2E2E2E2E2E2E2E2E2E2E2E2E2E2E2E2E2E2E2E2E2E2E2E2E2E2E2E2E2E2E2E2E2E2E2E2E2E2E2E2E2E2E2E2E2E2E2E2E2E2E2E2E2E2E2E2E2E2E2E2
310
E2E2E2E2E2E2E2E2E2E2E2E2E2E2E2E2E2E2E2E2E2E2E2E2E2E2E2E2E2E2E2E2E2E2E2E2E2E2E2E2F5E2E2E2E2E2E2F5F5F5E2E2E2E2E2E2F5E2E2E2E2E2E2E2E2E2E2E2E2E2E2E2E2E2E2E2E2E2E2E2E2E2E2E2E2E2E2E2E2E2E2E2E2E2E2E2E2E2E2E2E2E2E2E2E2E2E2E2E2E2E2E2E2E2E2E2E2E2E2E2E2E2E2E2E2E2E2
310
E2E2E2E2E2E2E2E2E2E2E2E2E2E2E2E2E2E2E2E2E2E2E2E2E2E2E2E2E2E2E2E2E2E2E2E2E2E2E2E2E2E2E2E2E2E2E2E2E2E2E2E2E2E2E2E2E2E2E2E2E2E2E2E2E2E2E2E2E2E2E2E2E2E2E2E2E2E2E2E2E2E2E2E2E2E2E2E2E2E2E2E2E2F5E2E2E2E2E2E2F5F5F5E2E2E2E2E2E2F5E2E2E2E2E2E2E2E2E2E2E2E2E2E2E2E2E2
310
E2E2E2E2E2E2E2E2E2E2E2E2E2E2E2E2E2E2E2E2E2E2E2E2E2E2E2E2E2E2E2E2E2E2E2E2E2E2E2E2E2E2E2E2E2E2E2E2E2E2E2E2E2E2E2E2E2E2E2E2E2E2E2E2E2E2E2E2E2E2E2E2E2E2E2E2E2E2E2E2E2E2E2E2E2E2E2E2E2E2E2E2E2E2E2E2E2E2E2E2E2E2E2E2E2E2E2E2E2E2E2E2E2E2E2E2E2E2E2E2E2E2E2E2E2E2E2
310
E2E2E2E2E2E2E2E2E2E2E2E2E2E2E2E2E2E2E2F5E2E2E2E2E2E2F5F5F5E2E2E2E2E2E2F5E2E2E2E2E2E2E2E2E2E2E2E2E2E2E2E2E2E2E2E2E2E2E2E2E2E2E2E2E2E2E2E2E2E2E2E2E2E2E2E2E2E2E2E2E2E2E2E2E2E2E2E2E2E2E2E2E2E2E2E2E2E2E2E2E2E2E2E2E2E2E2E2E2E2E2E2E2E2E2E2E2E2E2E2E2E2E2E2E2E2E2
310
E2E2E2E2E2E2E2E2E2E2E2E2E2E2E2E2E2E2E2E2E2E2E2E2E2E2E2E2E2E2E2E2E2E2E2E2E2E2E2E2E2E2E2E2E2E2E2E2E2E2E2E2E2E2E2E2E2E2E2E2E2E2E2E2E2E2E2E2E2E2E2E2F5E2E2E2E2E2E2F5F5F5E2E2E2E2E2E2F5E2E2E2E2E2E2E2E2E2E2E2E2E2E2E2E2E2E2E2E2E2E2E2E2E2E2E2E2E2E2E2E2E2E2E2E2E2E2
310
E2E2E2E2E2E2E2E2E2E2E2E2E2E2E2E2E2E2E2E2E2E2E2E2E2E2E2E2E2E2E2E2E2E2E2E2E2E2E2E2E2E2E2E2E2E2E2E2E2E2E2E2E2E2E2E2E2E2E2E2E2E2E2E2E2E2E2E2E2E2E2E2E2E2E2E2E2E2E2E2E2E2E2E2E2E2E2E2E2E2E2E2E2E2E2E2E2E2E2E2E2E2E2E2E2E2E2E2E2E2E2E2E2E2E2E2E2E2E2E2E2E2E2E2E2F5E2
310
E2E2E2E2E2F5F5F5E2E2E2E2E2E2F5E2E2E2E2E2E2E2E2E2E2E2E2E2E2E2E2E2E2E2E2E2E2E2E2E2E2E2E2E2E2E2E2E2E2E2E2E2E2E2E2E2E2E2E2E2E2E2E2E2E2E2E2E2E2E2E2E2E2E2E2E2E2E2E2E2E2E2E2E2E2E2E2E2E2E2E2E2E2E2E2E2E2E2E2E2E2E2E2E2E2E2E2E2E2E2E2E2E2E2E2E2E2E2E2E2E2E2E2E2E2E2E2
310
E2E2E2E2E2E2E2E2E2E2E2E2E2E2E2E2E2E2E2E2E2E2E2E2E2E2E2E2E2E2E2E2E2E2E2E2E2E2E2E2E2E2E2E2E2E2E2E2E2E2E2F5E2E2E2E2E2E2F5F5F5E2E2E2E2E2E2F5E2E2E2E2E2E2E2E2E2E2E2E2E2E2E2E2E2E2E2E2E2E2E2E2E2E2E2E2E2E2E2E2E2E2E2E2E2E2E2E2E2E2E2E2E2E2E2E2E2E2E2E2E2E2E2E2E2E2E2
310
E2E2E2E2E2E2E2E2E2E2E2E2E2E2E2E2E2E2E2E2E2E2E2E2E2E2E2E2E2E2E2E2E2E2E2E2E2E2E2E2E2E2E2E2E2E2E2E2E2E2E2E2E2E2E2E2E2E2E2E2E2E2E2E2E2E2E2E2E2E2E2E2E2E2E2E2E2E2E2E2E2E2E2E2E2E2E2E2E2E2E2E2E2E2E2E2E2E2E2E2E2E2E2E2F5E2E2E2E2E2E2F5F5F5F5E2E2E2E2E2F5E2E2E2E2E2E2
310
E2E2E2E2E2E2E2E2E2E2E2E2E2E2E2E2E2E2E2E2E2E2E2E2E2E2E2E2E2E2E2E2E2E2E2E2E2E2E2E2E2E2E2E2E2E2E2E2E2E2E2E2E2E2E2E2E2E2E2E2E2E2E2E2E2E2E2E2E2E2E2E2E2E2E2E2E2E2E2E2E2E2E2E2E2E2E2E2E2E2E2E2E2E2E2E2E2E2E2E2E2E2E2E2E2E2E2E2E2E2E2E2E2E2E2E2E2E2E2E2E2E2E2E2E2E2E2
310
E2E2E2E2E2E2E2E2E2E2E2E2E2E2E2E2E2E2E2E2E2E2E2E2E2E2E2E2E2E2F5E2E2E2E2E2F5F5F5F5F5E2E2E2E2E2F5E2E2E2E2E2E2E2E2E2E2E2E2E2E2E2E2E2E2E2E2E2E2E2E2E2E2E2E2E2E2E2E2E2E2E2E2E2E2E2E2E2E2E2E2E2E2E2E2E2E2E2E2E2E2E2E2E2E2E2E2E2E2E2E2E2E2E2E2E2E2E2E2E2E2E2E2E2E2E2E2
310
E2E2E2E2E2E2E2E2E2E2E2E2E2E2E2E2E2E2E2E2E2E2E2E2E2E2E2E2E2E2E2E2E2E2E2E2E2E2E2E2E2E2E2E2E2E2E2E2E2E2E2E2E2E2E2E2E2E2E2E2E2E2E2E2E2E2E2E2E2E2E2E2E2E2E2E2E2E2E2E2E2E2E2F5E2E2E2E2E2F5F5F5F5F5E2E2E2E2E2F5E2E2E2E2E2E2E2E2E2E2E2E2E2E2E2E2E2E2E2E2E2E2E2E2E2E2E2
310
E2E2E2E2E2E2E2E2E2E2E2E2E2E2E2E2E2E2E2E2E2E2E2E2E2E2E2E2E2E2E2E2E2E2E2E2E2E2E2E2E2E2E2E2E2E2E2E2E2E2E2E2E2E2E2E2E2E2E2E2E2E2E2E2E2E2E2E2E2E2E2E2E2E2E2E2E2E2E2E2E2E2E2E2E2E2E2E2E2E2E2E2E2E2E2E2E2E2E2E2E2E2E2E2E2E2E2E2E2E2E2E2E2E2E2E2E2E2E2E2E2E2E2E2E2E2E2
310
E2E2E2E2E2E2E2E2E2F5E2E2E2E2E2F5F5F5F5F5E2E2E2E2E2F5E2E2E2E2E2E2E2E2E2E2E2E2E2E2E2E2E2E2E2E2E2E2E2E2E2E2E2E2E2E2E2E2E2E2E2E2E2E2E2E2E2E2E2E2E2E2E2E2E2E2E2E2E2E2E2E2E2E2E2E2E2E2E2E2E2E2E2E2E2E2E2E2E2E2E2E2E2E2E2E2E2E2E2E2E2E2E2E2E2E2E2E2E2E2E2E2E2E2E2E2E2
310
E2E2E2E2E2E2E2E2E2E2E2E2E2E2E2E2E2E2E2E2E2E2E2E2E2E2E2E2E2E2E2E2E2E2E2E2E2E2E2E2E2E2E2E2E2E2E2E2E2E2E2E2E2E2E2E2E2E2E2E2E2E2F5E2E2E2E2E2F5F5F5F5F5E2E2E2E2E2F5E2E2E2E2E2E2E2E2E2E2E2E2E2E2E2E2E2E2E2E2E2E2E2E2E2E2E2E2E2E2E2E2E2E2E2E2E2E2E2E2E2E2E2E2E2E2E2E2
310
E2E2E2E2E2E2E2E2E2E2E2E2E2E2E2E2E2E2E2E2E2E2E2E2E2E2E2E2E2E2E2E2E2E2E2E2E2E2E2E2E2E2E2E2E2E2E2E2E2E2E2E2E2E2E2E2E2E2E2E2E2E2E2E2E2E2E2E2E2E2E2E2E2E2E2E2E2E2E2E2E2E2E2E2E2E2E2E2E2E2E2E2E2E2E2E2E2E2E2E2E2E2E2E2E2E2E2E2E2E2E2E2E2E2E2F5E2E2E2E2E2F5F5F5F5F5E2
310
E2E2E2E2F5E2E2E2E2E2E2E2E2E2E2E2E2E2E2E2E2E2E2E2E2E2E2E2E2E2E2E2E2E2E2E2E2E2E2E2E2E2E2E2E2E2E2E2E2E2E2E2E2E2E2E2E2E2E2E2E2E2E2E2E2E2E2E2E2E2E2E2E2E2E2E2E2E2E2E2E2E2E2E2E2E2E2E2E2E2E2E2E2E2E2E2E2E2E2E2E2E2E2E2E2E2E2E2E2E2E2E2E2E2E2E2E2E2E2E2E2E2E2E2E2E2E2
310
E2E2E2E2E2E2E2E2E2E2E2E2E2E2E2E2E2E2E2E2E2E2E2E2E2E2E2E2E2E2E2E2E2E2E2E2E2E2E2E2E2F5E2E2E2E2E2F5F5F5F5F5E2E2E2E2E2F5E2E2E2E2E2E2E2E2E2E2E2E2E2E2E2E2E2E2E2E2E2E2E2E2E2E2E2E2E2E2E2E2E2E2E2E2E2E2E2E2E2E2E2E2E2E2E2E2E2E2E2E2E2E2E2E2E2E2E2E2E2E2E2E2E2E2E2E2E2
310
E2E2E2E2E2E2E2E2E2E2E2E2E2E2E2E2E2E2E2E2E2E2E2E2E2E2E2E2E2E2E2E2E2E2E2E2E2E2E2E2E2E2E2E2E2E2E2E2E2E2E2E2E2E2E2E2E2E2E2E2E2E2E2E2E2E2E2E2E2E2E2E2E2E2E2E2E2E2E2E2E2E2E2E2E2E2E2E2E2E2E2E2E2E2F5E2E2E2E2E2F5F5F5F5F5E2E2E2E2E2F5E2E2E2E2E2E2E2E2E2E2E2E2E2E2E2E2
310
E2E2E2E2E2E2E2E2E2E2E2E2E2E2E2E2E2E2E2E2E2E2E2E2E2E2E2E2E2E2E2E2E2E2E2E2E2E2E2E2E2E2E2E2E2E2E2E2E2E2E2E2E2E2E2E2E2E2E2E2E2E2E2E2E2E2E2E2E2E2E2E2E2E2E2E2E2E2E2E2E2E2E2E2E2E2E2E2E2E2E2E2E2E2E2E2E2E2E2E2E2E2E2E2E2E2E2E2E2E2E2E2E2E2E2E2E2E2E2E2E2E2E2E2E2E2E2
310
E2E2E2E2E2E2E2E2E2E2E2E2E2E2E2E2E2E2E2E2F5E2E2E2E2E2F5F5F5F5F5E2E2E2E2E2F5E2E2E2E2E2E2E2E2E2E2E2E2E2E2E2E2E2E2E2E2E2E2E2E2E2E2E2E2E2E2E2E2E2E2E2E2E2E2E2E2E2E2E2E2E2E2E2E2E2E2E2E2E2E2E2E2E2E2E2E2E2E2E2E2E2E2E2E2E2E2E2E2E2E2E2E2E2E2E2E2E2E2E2E2E2E2E2E2E2E2
310
E2E2E2E2E2E2E2E2E2E2E2E2E2E2E2E2E2E2E2E2E2E2E2E2E2E2E2E2E2E2E2E2E2E2E2E2E2E2E2E2E2E2E2E2E2E2E2E2E2E2E2E2E2E2E2E2E2E2E2E2E2E2E2E2E2E2E2E2E2E2E2E2E2F5E2E2E2E2E2F5F5F5F5F5E2E2E2E2E2F5E2E2E2E2E2E2E2E2E2E2E2E2E2E2E2E2E2E2E2E2E2E2E2E2E2E2E2E2E2E2E2E2E2E2E2E2E2
310
E2E2E2E2E2E2E2E2E2E2E2E2E2E2E2E2E2E2E2E2E2E2E2E2E2E2E2E2E2E2E2E2E2E2E2E2E2E2E2E2E2E2E2E2E2E2E2E2E2E2E2E2E2E2E2E2E2E2E2E2E2E2E2E2E2E2E2E2E2E2E2E2E2E2E2E2E2E2E2E2E2E2E2E2E2E2E2E2E2E2E2E2E2E2E2E2E2E2E2E2E2E2E2E2E2E2E2E2E2E2E2E2E2E2E2E2E2E2E2E2E2E2E2E2E2E2F5
310
E2E2E2E2E2F5F5F5F5F5E2E2E2E2E2F5E2E2E2E2E2E2E2E2E2E2E2E2E2E2E2E2E2E2E2E2E2E2E2E2E2E2E2E2E2E2E2E2E2E2E2E2E2E2E2E2E2E2E2E2E2E2E2E2E2E2E2E2E2E2E2E2E2E2E2E2E2E2E2E2E2E2E2E2E2E2E2E2E2E2E2E2E2E2E2E2E2E2E2E2E2E2E2E2E2E2E2E2E2E2E2E2E2E2E2E2E2E2E2E2E2E2E2E2E2E2E2
310
E2E2E2E2E2E2E2E2E2E2E2E2E2E2E2E2E2E2E2E2E2E2E2E2E2E2E2E2E2E2E2E2E2E2E2E2E2E2E2E2E2E2E2E2E2E2E2E2E2E2E2E2F5E2E2E2E2E2F5F5F5F5F5E2E2E2E2E2F5E2E2E2E2E2E2E2E2E2E2E2E2E2E2E2E2E2E2E2E2E2E2E2E2E2E2E2E2E2E2E2E2E2E2E2E2E2E2E2E2E2E2E2E2E2E2E2E2E2E2E2E2E2E2E2E2E2E2
310
E2E2E2E2E2E2E2E2E2E2E2E2E2E2E2E2E2E2E2E2E2E2E2E2E2E2E2E2E2E2E2E2E2E2E2E2E2E2E2E2E2E2E2E2E2E2E2E2E2E2E2E2E2E2E2E2E2E2E2E2E2E2E2E2E2E2E2E2E2E2E2E2E2E2E2E2E2E2E2E2E2E2E2E2E2E2E2E2E2E2E2E2E2E2E2E2E2E2E2E2E2E2E2E2E2F5E2E2E2E2E2F5F5F5F5F5E2E2E2E2E2F5E2E2E2E2E2
310
E2E2E2E2E2E2E2E2E2E2E2E2E2E2E2E2E2E2E2E2E2E2E2E2E2E2E2E2E2E2E2E2E2E2E2E2E2E2E2E2E2E2E2E2E2E2E2E2E2E2E2E2E2E2E2E2E2E2E2E2E2E2E2E2E2E2E2E2E2E2E2E2E2E2E2E2E2E2E2E2E2E2E2E2E2E2E2E2E2E2E2E2E2E2E2E2E2E2E2E2E2E2E2E2E2E2E2E2E2E2E2E2E2E2E2E2E2E2E2E2E2E2E2E2E2E2E2
310
E2E2E2E2E2E2E2E2E2E2E2E2E2E2E2E2E2E2E2E2E2E2E2E2E2E2E2E2E2E2E2F5E2E2E2E2E2F5F5F5F5F5E2E2E2E2E2F5E2E2E2E2E2E2E2E2E2E2E2E2E2E2E2E2E2E2E2E2E2E2E2E2E2E2E2E2E2E2E2E2E2E2E2E2E2E2E2E2E2E2E2E2E2E2E2E2E2E2E2E2E2E2E2E2E2E2E2E2E2E2E2E2E2E2E2E2E2E2E2E2E2E2E2E2E2E2E2
310
E2E2E2E2E2E2E2E2E2E2E2E2E2E2E2E2E2E2E2E2E2E2E2E2E2E2E2E2E2E2E2E2E2E2E2E2E2E2E2E2E2E2E2E2E2E2E2E2E2E2E2E2E2E2E2E2E2E2E2E2E2E2E2E2E2E2E2E2E2E2E2E2E2E2E2E2E2E2E2E2E2E2E2E2F5E2E2E2E2E2F5F5F5F5F5E2E2E2E2E2F5E2E2E2E2E2E2E2E2E2E2E2E2E2E2E2E2E2E2E2E2E2E2E2E2E2E2
310
E2E2E2E2E2E2E2E2E2E2E2E2E2E2E2E2E2E2E2E2E2E2E2E2E2E2E2E2E2E2E2E2E2E2E2E2E2E2E2E2E2E2E2E2E2E2E2E2E2E2E2E2E2E2E2E2E2E2E2E2E2E2E2E2E2E2E2E2E2E2E2E2E2E2E2E2E2E2E2E2E2E2E2E2E2E2E2E2E2E2E2E2E2E2E2E2E2E2E2E2E2E2E2E2E2E2E2E2E2E2E2E2E2E2E2E2E2E2E2E2E2E2E2E2E2E2E2
310
E2E2E2E2E2E2E2E2E2E2F5E2E2E2E2E2F5F5F5F5F5E2E2E2E2E2F5E2E2E2E2E2E2E2E2E2E2E2E2E2E2E2E2E2E2E2E2E2E2E2E2E2E2E2E2E2E2E2E2E2E2E2E2E2E2E2E2E2E2E2E2E2E2E2E2E2E2E2E2E2E2E2E2E2E2E2E2E2E2E2E2E2E2E2E2E2E2E2E2E2E2E2E2E2E2E2E2E2E2E2E2E2E2E2E2E2E2E2E2E2E2E2E2E2E2E2E2
310
E2E2E2E2E2E2E2E2E2E2E2E2E2E2E2E2E2E2E2E2E2E2E2E2E2E2E2E2E2E2E2E2E2E2E2E2E2E2E2E2E2E2E2E2E2E2E2E2E2E2E2E2E2E2E2E2E2E2E2E2E2E2E2F5E2E2E2E2E2F5F5F5F5E2E2E2E2E2E2F5E2E2E2E2E2E2E2E2E2E2E2E2E2E2E2E2E2E2E2E2E2E2E2E2E2E2E2E2E2E2E2E2E2E2E2E2E2E2E2E2E2E2E2E2E2E2E2
310
E2E2E2E2E2E2E2E2E2E2E2E2E2E2E2E2E2E2E2E2E2E2E2E2E2E2E2E2E2E2E2E2E2E2E2E2E2E2E2E2E2E2E2E2E2E2E2E2E2E2E2E2E2E2E2E2E2E2E2E2E2E2E2E2E2E2E2E2E2E2E2E2E2E2E2E2E2E2E2E2E2E2E2E2E2E2E2E2E2E2E2E2E2E2E2E2E2E2E2E2E2E2E2E2E2E2E2E2E2E2E2E2E2E2E2E2F5E2E2E2E2E2E2F5F5F5E2
310
E2E2E2E2E2F5E2E2E2E2E2E2E2E2E2E2E2E2E2E2E2E2E2E2E2E2E2E2E2E2E2E2E2E2E2E2E2E2E2E2E2E2E2E2E2E2E2E2E2E2E2E2E2E2E2E2E2E2E2E2E2E2E2E2E2E2E2E2E2E2E2E2E2E2E2E2E2E2E2E2E2E2E2E2E2E2E2E2E2E2E2E2E2E2E2E2E2E2E2E2E2E2E2E2E2E2E2E2E2E2E2E2E2E2E2E2E2E2E2E2E2E2E2E2E2E2E2
310
E2E2E2E2E2E2E2E2E2E2E2E2E2E2E2E2E2E2E2E2E2E2E2E2E2E2E2E2E2E2E2E2E2E2E2E2E2E2E2E2E2E2F5E2E2E2E2E2E2F5F5F5E2E2E2E2E2E2F5E2E2E2E2E2E2E2E2E2E2E2E2E2E2E2E2E2E2E2E2E2E2E2E2E2E2E2E2E2E2E2E2E2E2E2E2E2E2E2E2E2E2E2E2E2E2E2E2E2E2E2E2E2E2E2E2E2E2E2E2E2E2E2E2E2E2E2E2
310
E2E2E2E2E2E2E2E2E2E2E2E2E2E2E2E2E2E2E2E2E2E2E2E2E2E2E2E2E2E2E2E2E2E2E2E2E2E2E2E2E2E2E2E2E2E2E2E2E2E2E2E2E2E2E2E2E2E2E2E2E2E2E2E2E2E2E2E2E2E2E2E2E2E2E2E2E2E2E2E2E2E2E2E2E2E2E2E2E2E2E2E2E2E2E2F5E2E2E2E2E2E2F5F5F5E2E2E2E2E2E2F5E2E2E2E2E2E2E2E2E2E2E2E2E2E2E2
310
E2E2E2E2E2E2E2E2E2E2E2E2E2E2E2E2E2E2E2E2E2E2E2E2E2E2E2E2E2E2E2E2E2E2E2E2E2E2E2E2E2E2E2E2E2E2E2E2E2E2E2E2E2E2E2E2E2E2E2E2E2E2E2E2E2E2E2E2E2E2E2E2E2E2E2E2E2E2E2E2E2E2E2E2E2E2E2E2E2E2E2E2E2E2E2E2E2E2E2E2E2E2E2E2E2E2E2E2E2E2E2E2E2E2E2E2E2E2E2E2E2E2E2E2E2E2E2
310
E2E2E2E2E2E2E2E2E2E2E2E2E2E2E2E2E2E2E2E2E2F5E2E2E2E2E2E2F5F5F5E2E2E2E2E2E2F5E2E2E2E2E2E2E2E2E2E2E2E2E2E2E2E2E2E2E2E2E2E2E2E2E2E2E2E2E2E2E2E2E2E2E2E2E2E2E2E2E2E2E2E2E2E2E2E2E2E2E2E2E2E2E2E2E2E2E2E2E2E2E2E2E2E2E2E2E2E2E2E2E2E2E2E2E2E2E2E2E2E2E2E2E2E2E2E2E2
310
E2E2E2E2E2E2E2E2E2E2E2E2E2E2E2E2E2E2E2E2E2E2E2E2E2E2E2E2E2E2E2E2E2E2E2E2E2E2E2E2E2E2E2E2E2E2E2E2E2E2E2E2E2E2E2E2E2E2E2E2E2E2E2E2E2E2E2E2E2E2E2E2E2E2F5E2E2E2E2E2E2F5F5F5E2E2E2E2E2E2F5E2E2E2E2E2E2E2E2E2E2E2E2E2E2E2E2E2E2E2E2E2E2E2E2E2E2E2E2E2E2E2E2E2E2E2E2
310
E2E2E2E2E2E2E2E2E2E2E2E2E2E2E2E2E2E2E2E2E2E2E2E2E2E2E2E2E2E2E2E2E2E2E2E2E2E2E2E2E2E2E2E2E2E2E2E2E2E2E2E2E2E2E2E2E2E2E2E2E2E2E2E2E2E2E2E2E2E2E2E2E2E2E2E2E2E2E2E2E2E2E2E2E2E2E2E2E2E2E2E2E2E2E2E2E2E2E2E2E2E2E2E2E2E2E2E2E2E2E2E2E2E2E2E2E2E2E2E2E2E2E2E2E2E2E2
310
F5E2E2E2E2E2E2F5F5F5E2E2E2E2E2E2F5E2E2E2E2E2E2E2E2E2E2E2E2E2E2E2E2E2E2E2E2E2E2E2E2E2E2E2E2E2E2E2E2E2E2E2E2E2E2E2E2E2E2E2E2E2E2E2E2E2E2E2E2E2E2E2E2E2E2E2E2E2E2E2E2E2E2E2E2E2E2E2E2E2E2E2E2E2E2E2E2E2E2E2E2E2E2E2E2E2E2E2E2E2E2E2E2E2E2E2E2E2E2E2E2E2E2E2E2E2E2
310
E2E2E2E2E2E2E2E2E2E2E2E2E2E2E2E2E2E2E2E2E2E2E2E2E2E2E2E2E2E2E2E2E2E2E2E2E2E2E2E2E2E2E2E2E2E2E2E2E2E2E2E2E2F5E2E2E2E2E2E2F5F5F5E2E2E2E2E2E2F5E2E2E2E2E2E2E2E2E2E2E2E2E2E2E2E2E2E2E2E2E2E2E2E2E2E2E2E2E2E2E2E2E2E2E2E2E2E2E2E2E2E2E2E2E2E2E2E2E2E2E2E2E2E2E2E2E2
310
E2E2E2E2E2E2E2E2E2E2E2E2E2E2E2E2E2E2E2E2E2E2E2F0E2E2E2E2E2E2E2E2E2E2E2E2E2E2E2E2E2E2E2E2E2E2E2E2E2E2E2E2E2E2E2E2E2E2E2E2E2E2E2E2E2E2E2E2E2E2E2E2E2E2E2F0E2E2E2E2E2E2E2E2E2E2E2E2E2E2E2E2E2E2E2E2E2E2E2E2E2E2E2E2E2E2F5E2E2E2E2E2E2F5F5F5E2E2E2E2E2E2F5E2E2E2E2
310
E2E2E2E2E2E2E2E2E2E2E2E2E2E2E2E2E2E2E2E2E2E2E2E2E2E2E2E2E2E2E2E2E2E2E2E2E2E2E2E2E2E2E2E2E2E2E2E2E2E2E2E2E2E2E2E2E2E2E2E2E2E2E2E2E2E2E2E2E2E2E2E2E2E2E2E2F0F0F0F0F0F0F0F0F0F0F0F0F0F0F0F0F0F0F0F0F0F0F0F0DCDCDCDCDCF0F0F0F0F0F0F0F0F0F0F0F0F0F0F0F0F0F0F0F0F0F0
310
F0F0E2E2E2E2E2E2E2E2E2E2E2E2E2E2E2E2E2E2E2E2E2E2E2E2E2E2E2E2E2E2F5E2E2E2E2E2E2F5F5F5F5E2E2E2E2E2F5E2E2E2E2E2E2E2E2E2E2E2E2E2E2E2E2E2E2E2E2E2E2E2E2E2E2E2E2E2E2E2E2E2E2E2E2E2E2E2E2E2E2E2E2E2E2E2E2E2E2E2E2E2E2E2E2E2E2E2E2E2E2E2E2E2E2E2E2E2E2E2E2E2E2E2E2E2E2
310
E2E2F0E2E2E2E2E2E2E2E2E2E2E2E2E2E2E2E2E2E2E2E2E2E2E2DCDCDCDCDCE2E2E2E2E2E2E2E2E2E2E2E2E2E2E2E2E2E2E2E2E2E2E2F0E2E2E2E2E2E2E2E2E2E2E2E2E2E2E2E2E2E2E2E2E2E2E2E2E2E2E2E2E2E2F5E2E2E2E2E2F5F5F5F5F5E2E2E2E2E2F5E2E2E2E2E2E2E2E2E2E2E2E2E2E2E2E2E2E2E2E2E2E2E2E2E2
310
E2F0F0E2E2E2E2E2E2E2E2E2E2E2E2E2E2E2E2E2E2F0F0E2E2E2E2E2E2E2E2E2E2E2E2E2E2E2E2E2E2E2E2E2E2E2E2E2E2E2E2E2E2E2E2F0F0F0F0F0E2E2E2E2E2E2E2E2E2E2E2E2E2E2E2E2E2E2E2E2E2E2E2E2E2F0E2F0F0E2E2E2E2E2E2E2E2E2E2E2E2F0F0E2E2E2E2F0E2E2E2E2E2E2E2E2E2E2E2E2E2E2E2E2E2E2E2
310
E2E2E2E2E2E2E2E2E2E2E2F5E2E2E2E2E2F5F5F5F5F5E2E2E2E2E2F5E2E2E2E2E2E2E2E2E2E2E2E2E2E2E2E2E2E2E2E2E2E2E2E2E2E2F0F0F0F0F0F0F0F0F0DCDCDCDCF0F0F0F0F0F0F0F0F0E2E2E2E2E2E2E2E2E2E2E2E2E2E2E2E2E2E2E2E2E2E2E2E2E2E2E2E2E2E2E2E2F0DCDCF0F0F0F0F0F0F0F0F0F0F0F0F0DCDCDC
310
DCF0F0F0F0F0F0F0F0F0F0F0F0F0F0F0F0F0F0DCDCDCF0F0F0F0F0F0F0E2E2E2E2F0E2E2E2E2E2E2E2E2E2E2E2E2E2E2E2E2E2E2E2E2E2E2E2E2E2E2E2E2E2E2F5E2E2E2E2E2F5F5F5F5F5E2E2E2E2E2F5E2E2E2E2E2E2E2E2E2E2E2E2E2E2E2E2E2E2E2E2E2E2E2E2E2E2F0E2E2E2E2E2E2E2E2DCDCDCDCE2E2E2E2E2E2E2
310
E2F0E2E2E2E2E2E2E2E2E2E2E2E2E2E2E2E2E2E2E2E2E2E2E2E2E2E2E2E2E2E2E2E2F0DCDCF0E2E2E2E2E2E2E2E2E2E2E2E2DCDCDCDCE2E2E2E2E2E2E2E2E2E2E2E2F0E2E2E2E2E2DCDCDCDCE2E2E2E2E2F0E2E2E2E2F0E2E2E2E2E2E2E2E2E2E2E2E2E2E2E2E2E2E2E2E2E2E2E2E2E2E2E2E2E2E2F5E2E2E2E2E2F5F5F5F5
310
F5E2E2E2E2E2F5E2E2E2E2E2E2E2E2E2E2E2E2E2E2E2E2E2E2E2E2E2E2E2E2E2E2F0E2E2E2E2E2E2E2E2E2E2E2E2E2E2E2E2E2E2E2E2F0E2E2E2E2E2E2E2E2E2E2E2E2E2E2E2E2E2E2E2E2E2E2E2E2E2E2E2E2E2E2E2E2F0E2E2F0E2E2E2E2E2E2E2E2E2E2E2E2E2E2E2E2E2E2E2E2E2E2E2E2E2E2E2E2F0E2E2E2E2E2E2E2
310
E2E2E2E2E2E2E2F0E2E2E2E2F0E2E2E2E2E2E2E2E2E2E2E2E2E2E2E2E2E2E2E2E2E2E2E2E2E2E2E2E2E2E2F5E2E2E2E2E2F5F5F5F5F5E2E2E2E2E2F5E2E2E2E2E2E2E2E2E2E2E2E2E2E2E2E2E2E2E2E2E2E2E2E2E2E2F0E2E2E2E2E2E2E2E2E2E2E2E2E2E2E2E2E2E2E2E2F0E2E2E2E2E2E2E2E2E2E2E2E2E2E2E2E2E2E2E2
310
E2E2E2E2E2E2E2E2E2E2E2E2E2F0E2E2F0E2E2E2E2E2E2E2E2E2E2E2E2E2E2E2E2E2E2E2E2E2E2E2E2E2E2E2E2F0E2E2E2E2E2E2E2E2E2E2E2E2E2E2F0E2E2E2E2F0E2E2E2E2E2E2E2E2E2E2E2E2E2E2E2E2E2E2E2E2E2E2E2E2E2E2E2E2E2E2F5E2E2E2E2E2F5F5F5F5F5E2E2E2E2E2F5E2E2E2E2E2E2E2E2E2E2E2E2E2E2
310
E2E2E2E2E2E2E2E2E2E2E2E2F0E2E2E2E2E2E2E2E2E2E2E2E2E2E2E2E2E2E2E2E2F0E2E2E2E2E2E2E2E2E2E2E2E2E2E2E2E2E2E2E2E2E2E2E2E2E2E2E2E2E2E2E2E2F0E2E2F0E2E2E2E2E2E2E2E2E2E2E2E2E2E2E2E2E2E2E2E2E2E2E2E2E2E2E2E2F0E2E2E2E2E2E2E2E2E2E2E2E2E2E2F0E2E2E2E2F0E2E2E2E2E2E2E2E2
310
E2E2E2E2E2E2E2E2E2E2E2E2E2E2E2E2E2E2E2E2E2E2F5E2E2E2E2E2F5F5F5F5F5E2E2E2E2E2F5E2E2E2E2E2E2E2E2E2E2E2E2E2E2E2E2E2E2E2E2E2E2E2E2E2E2F0E2E2E2E2E2E2E2E2E2E2E2E2E2E2E2E2E2E2E2E2F0E2E2E2E2E2E2E2E2E2E2E2E2E2E2E2E2E2E2E2E2E2E2E2E2E2E2E2E2E2E2E2E2F0E2E2F0E2E2E2E2
310
E2E2E2E2E2E2E2E2E2E2E2E2E2E2E2E2E2E2E2E2E2E2E2E2F0E2E2E2E2E2E2E2E2E2E2E2E2E2E2F0E2E2E2E2F0E2E2E2E2E2E2E2E2E2E2E2E2E2E2E2E2E2E2E2E2E2E2E2E2E2E2E2E2E2E2F5E2E2E2E2E2F5F5F5F5F5E2E2E2E2E2F5E2E2E2E2E2E2E2E2E2E2E2E2E2E2E2E2E2E2E2E2E2E2E2F5F5F5F5F5F5F5F5E2E2E2E2
310
E2E2E2E2E2E2E2E2F5F5F5F5F5F5F5F5E2E2E2E2E2E2E2E2E2E2E2E2E2E2E2E2E2E2DCDCF0F0F0F0F0F0F0F0F0F5F5F5F5F5F5F5F5E2E2E2E2E2E2E2E2E2E2E2E2E2E2E2E2E2E2E2E2F5F5F5F5F0F5F5F5F0F0F0F0F0F0F0F0F0F0F5F0F5F5F0F0F0F0F0F0F0F0F0F0E2E2E2E2E2E2E2E2E2E2E2E2E2E2E2E2E2E2E2E2E2E2
310
E2F5E2E2E2E2E2F5F5F5F5F5E2E2E2E2E2F5E2E2E2E2E2E2E2E2E2E2E2E2E2E2E2E2E2E2E2E2E2E2E2F5F5F5F5F5F5F5F5F5F5F5F5F5F5F5F5F5F5F5F5F5F5F5F5F5F5F5F5E2E2E2E2E2E2E2E2E2E2E2E2E2E2E2E2E2E2DCDCF0E2E2E2E2E2E2E2E2F5F5F5F5F5F5F5F5F5F5F5F5F5F5F5F5F5F5F5F5F5F5F5F5F5F5F5F5F5
310
F5F5F5F5F5F5F5F5F5F5F5F5F5F5F5F5F5F5F5F5F5E2E2F0E2E2E2E2E2F0E2E2E2E2E2E2E2E2E2E2E2E2E2E2E2E2E2E2E2E2E2E2E2E2F5E2E2E2E2E2F5F5F5F5F5E2E2E2E2E2F5E2E2E2E2E2E2E2E2E2E2E2E2E2E2E2E2E2E2E2E2E2E2E2E2F5F5F5F5F5F5F5F5F5F5F5F5F5F5F5F5F5F5F5F5F5F5F5F5F5E2E2E2E2E2E2E2
310
E2E2E2E2E2E2E2E2E2E2E2E2E2DCDCF0E2E2E2E2E2E2E2E2F0E2F5F5F5F5F5F5F5F5F5F5F5F5F5F5F5F5F5F5F5F5F5F5F5F5F5F5F5F5F5F5F5F5F5E2E2E2F5E2E2E2E2E2E2E2E2E2E2F5E2E2F0E2E2E2E2E2F0E2E2E2E2E2E2E2E2E2E2E2E2E2E2E2E2E2E2E2E2E2E2E2E2F5E2E2E2E2E2F5F5F5F5F5E2E2E2E2E2F5E2E2E2
310
E2E2E2E2E2E2E2E2E2E2E2E2E2E2E2E2E2E2E2E2E2F5E2E2E2E2E2E2E2E2E2E2E2E2E2E2E2E2E2E2E2E2E2E2E2E2F5E2E2E2E2E2E2E2E2E2E2E2E2E2E2E2E2E2E2E2DCDCF0E2E2E2E2E2E2E2E2F0E2F5E2E2E2E2E2E2E2E2E2E2E2E2E2E2E2E2E2E2E2E2E2E2E2E2E2E2E2E2E2E2E2F5F5F5F5F5F5F5F5E2E2E2E2E2E2E2F5
310
E2E2F0E2E2E2E2E2F0E2E2E2E2E2E2E2E2E2E2E2E2E2E2E2E2E2E2E2E2E2E2E2E2F5E2E2E2E2E2F5F5F5F5F5E2E2E2E2E2F5E2E2E2E2E2E2E2E2E2E2E2E2E2E2E2E2E2E2E2E2E2E2E2F5F5F5F5F5F5F5F5F5F5F5F5F5F5F5F5F5F5F5F5F5F5F5F5F5F5F5F5E2E2E2E2E2E2E2E2E2E2E2E2E2E2E2E2E2E2E2DCF0E2F0F0F0F0
310
F0F0F0F0F5F5F5F5F5F5F5F5F5F5F5F5F5F5F5F5F5F5F5F5F5F5F5F5F5F5F5F5F5F5F5F5F5F5F5E2E2E2E2E2E2F5F5F5F5F5F5F5F5E2E2F0E2E2E2E2E2F0E2E2E2E2E2E2E2E2E2E2E2E2E2E2E2E2E2E2E2E2E2E2E2E2F5E2E2E2E2E2F5F5F5F5F5E2E2E2E2E2F5E2E2E2E2E2E2E2E2E2E2E2E2E2E2E2E2E2E2E2E2E2E2E2F5
310
E2E2E2E2E2E2E2E2E2E2E2E2E2E2E2E2E2E2E2E2E2E2E2E2E2E2F5E2E2E2E2E2E2E2E2E2E2E2E2E2E2E2E2E2E2DCDCF0DCDCF0E2E2E2E2E2F5E2E2E2E2E2E2E2E2E2E2E2E2E2E2E2E2E2E2E2E2E2E2E2E2E2E2E2E2E2E2E2E2E2E2F5E2E2E2E2E2E2E2E2F5E2E2E2E2F5E2E2F0E2E2E2E2E2F0E2E2E2E2E2E2E2E2E2E2E2E2
310
E2E2E2E2E2E2E2E2E2E2E2E2F5E2E2E2E2E2F5F5F5F5F5E2E2E2E2E2F5E2E2E2E2E2E2E2E2E2E2E2E2E2E2E2E2E2E2E2E2E2E2E2F5E2E2E2E2E2E2E2E2E2E2E2E2E2E2E2E2E2E2E2E2E2E2E2E2E2E2F5E2E2E2E2E2E2E2E2E2E2E2E2E2E2E2E2E2E2DCDCF0DCDCF0E2E2E2E2E2F5E2E2E2E2E2E2E2E2E2E2E2E2E2E2E2E2E2
310
E2E2E2E2E2E2E2E2E2E2E2E2E2E2E2E2E2F5E2E2E2E2E2E2E2E2F5E2E2E2E2F5E2E2F0E2E2E2E2E2F0E2E2E2E2E2E2E2E2E2E2E2E2E2E2E2E2E2E2E2E2E2E2E2E2F5E2E2E2E2E2F5F5F5F5F5E2E2E2E2E2F5E2E2E2E2E2E2E2E2E2E2E2E2E2E2E2E2E2E2E2E2E2E2E2F0E2E2E2E2E2E2E2E2E2E2E2E2E2E2E2E2E2E2E2E2E2
310
E2E2E2E2E2F0E2E2E2E2E2E2E2E2E2E2E2E2E2E2E2E2E2E2DCDCF0DCDCF0E2E2E2E2E2F0E2E2E2E2E2E2E2E2E2E2E2E2E2E2E2E2E2E2E2E2E2E2E2E2E2E2E2E2E2E2E2E2E2E2F0E2E2E2E2E2E2E2E2F5E2E2E2E2F5E2E2F0E2E2E2E2E2F0E2E2E2E2E2E2E2E2E2E2E2E2E2E2E2E2E2E2E2E2E2E2E2E2F5E2E2E2E2E2F5F5F5
310
F5E2E2E2E2E2E2F5E2E2E2E2E2E2E2E2E2E2E2E2E2E2E2E2E2E2E2E2E2E2E2F0F5F5F5F5F5F5F5F5F5F5F5F5F5F5F5F5F5F5F5F5F5F5F5F5F5F5F0E2E2E2E2E2E2E2E2E2E2E2E2E2E2E2E2E2E2DCDCF0F0F0F0F0F0F0F0F0F0F5F5F5F5F5F5F5F5F5F5F5F5F5F5F5F5F5F5F5F5F5F5F5F5F5F5F5F5F5F5F5F5F5F5F0E2E2E2
310
E2E2E2E2E2F5F5F5F5F5F5E2E2F0E2E2E2E2E2F0E2E2E2E2E2E2E2E2E2E2E2E2E2E2E2E2E2E2E2E2E2E2E2E2F5E2E2E2E2E2E2F5F5F5E2E2E2E2E2E2F5E2E2E2E2E2E2E2E2E2E2E2E2E2E2E2E2E2E2E2E2E2E2E2F0E2E2E2E2E2E2E2E2E2E2E2F5E2E2F5E2E2E2E2E2E2E2E2E2E2E2F0E2E2E2E2E2E2E2E2E2E2E2E2E2E2E2
310
E2E2E2E2E2E2E2E2E2E2E2E2E2E2F0E2E2E2E2E2E2E2E2E2E2E2E2E2E2E2E2E2E2E2E2E2E2E2E2E2E2E2E2E2E2E2E2E2E2F0E2E2E2E2E2E2E2E2F5E2E2E2F5E2E2E2F0E2E2E2E2E2F0E2E2E2E2E2E2E2E2E2E2E2E2E2E2E2E2E2E2E2E2E2E2E2E2F5E2E2E2E2E2E2F5F5F5E2E2E2E2E2E2F5E2E2E2E2E2E2E2E2E2E2E2E2E2
310
E2E2E2E2E2E2E2E2E2E2F0E2E2E2E2E2E2E2E2E2E2E2F5E2E2F5E2E2E2E2E2E2E2E2E2E2E2F0E2E2E2E2E2E2E2E2E2E2E2E2E2E2E2E2E2E2E2E2E2E2E2E2E2E2E2E2E2F0E2E2E2E2E2E2E2E2E2E2E2E2E2E2E2E2E2E2E2E2E2E2E2E2E2E2E2E2E2E2E2E2E2E2F0E2E2E2E2E2E2E2E2F5E2E2E2F5E2E2E2F0E2E2E2E2E2F0E2
310
E2E2E2E2E2E2E2E2E2E2E2E2E2E2E2E2E2E2E2E2E2E2E2F5E2E2E2E2E2E2F5F5F5E2E2E2E2E2E2F5E2E2E2E2E2E2E2E2E2E2E2E2E2E2E2E2E2E2E2E2E2E2E2F0E2E2E2E2E2E2E2E2E2E2E2F5E2E2F5E2E2E2E2E2E2E2E2E2E2E2F0E2E2E2E2E2E2E2E2E2E2E2E2E2E2E2E2E2E2E2E2E2E2E2E2E2E2E2E2E2F0E2E2E2E2E2E2
310
E2E2E2E2E2E2E2E2E2E2E2E2E2E2E2E2E2E2E2E2E2E2E2E2E2E2E2E2F0E2E2E2E2E2E2E2E2F5E2E2E2F5E2E2E2F0E2E2E2E2E2F0E2E2E2E2E2E2E2E2E2E2E2E2E2E2E2E2E2E2E2E2E2E2E2E2F5E2E2E2E2E2E2F5F5F5E2E2E2E2E2E2F5E2E2E2E2E2E2E2E2E2E2E2E2E2E2E2E2E2E2E2E2E2E2E2F0E2E2E2E2E2E2E2E2E2E2
310
E2F5E2E2F5E2E2E2E2E2E2E2E2E2E2E2F0E2E2E2E2E2E2E2E2E2E2E2E2E2E2E2E2E2E2E2E2E2E2E2E2E2E2E2E2E2F0E2E2E2E2E2E2E2E2E2E2E2E2E2E2E2E2E2E2E2E2E2E2E2E2E2E2E2E2E2E2E2E2E2E2F0E2E2E2E2E2E2E2E2F5E2E2E2F5E2E2E2F0E2E2E2E2E2F0E2E2E2E2E2E2E2E2E2E2E2E2E2E2E2E2E2E2E2E2E2E2
310
E2E2F5E2E2E2E2E2E2F5F5F5E2E2E2E2E2E2F5E2E2E2E2E2E2E2E2E2E2E2E2E2E2E2E2E2E2E2E2E2E2E2F0E2E2E2E2E2E2E2E2E2E2E2F5E2E2F5E2E2E2E2E2E2E2E2E2E2E2F0E2E2E2E2E2E2E2E2E2E2E2E2E2E2E2E2E2E2E2E2E2E2E2E2E2E2E2E2E2F0E2E2E2E2E2E2E2E2E2E2E2E2E2E2E2E2E2E2E2E2E2E2E2E2E2E2E2
310
E2E2E2E2E2E2E2F0E2E2E2E2E2E2E2E2F5E2E2E2F5E2E2E2F0E2E2E2E2E2F0E2E2E2E2E2E2E2E2E2E2E2E2E2E2E2E2E2E2E2E2E2E2E2E2F5E2E2E2E2E2E2F5F5F5E2E2E2E2E2E2F5E2E2E2E2E2E2E2E2E2E2E2E2E2E2E2E2E2E2E2E2E2E2E2F0F0F0F0F0F0F0F0F0F0F0F0F0F0F0F0F0F0F0F0F0F0F0F0F0F0F0F0E2E2E2E2
310
E2E2E2E2E2E2E2E2E2E2E2E2E2E2E2E2E2E2E2E2E2E2E2E2E2F0F0F0F0F0F0F0F0F0F0F0F0F0F0F0F0F0F0F0F0F0F0F0F0F0F0F0F0F0F0F0F0F0F0F0F0E2E2E2E2E2E2E2E2F5E2E2E2F5E2E2E2F0E2E2E2E2E2F0E2E2E2E2E2E2E2E2E2E2E2E2E2E2E2E2E2E2E2E2E2E2E2E2F5E2E2E2E2E2E2F5F5F5E2E2E2E2E2E2F5E2E2
310
E2E2E2E2E2E2E2E2E2E2E2E2E2E2E2E2E2E2E2E2E2F0E2E2E2E2E2E2E2E2E2E2E2DCDCDCDCE2E2E2E2E2E2E2E2E2E2E2F0E2E2E2E2E2E2E2E2E2E2E2E2E2E2E2E2E2E2E2E2E2E2E2E2E2E2E2E2E2F0E2E2E2E2E2E2E2E2E2E2E2E2E2E2E2DCDCDCDCE2E2E2E2E2E2E2E2E2E2E2E2E2E2E2F0E2E2E2E2E2E2E2E2F5E2E2E2F5
310
E2E2E2F0E2E2E2E2E2F0E2E2E2E2E2E2E2E2E2E2E2E2E2E2E2E2E2E2E2E2E2E2E2E2F5E2E2E2E2E2E2F5F5F5E2E2E2E2E2E2F5E2E2E2E2E2E2E2E2E2E2E2E2E2E2E2E2E2E2E2E2E2E2E2E2E2E2E2E2E2E2E2E2E2E2E2DCDCDCDCE2E2E2E2E2E2E2E2E2E2E2E2E2E2E2E2E2E2E2E2E2E2E2E2E2E2E2E2E2E2E2E2E2E2E2E2E2
310
E2E2E2E2E2E2E2E2E2E2E2E2E2E2E2E2E2E2E2E2DCDCDCDCE2E2E2E2E2E2E2E2E2E2E2E2E2E2E2E2E2E2E2E2E2E2E2E2F5E2E2E2F5E2E2E2F0E2E2E2E2E2F0E2E2E2E2E2E2E2E2E2E2E2E2E2E2E2E2E2E2E2E2E2E2E2E2F5E2E2E2E2E2E2F5F5F5F5E2E2E2E2E2F5E2E2E2E2E2E2E2E2E2E2E2E2E2E2E2E2E2E2E2E2E2E2E2
310
E2E2E2E2E2E2E2E2E2E2E2E2F5E2E2F5E2E2E2E2E2E2E2E2E2E2E2E2E2E2E2E2E2E2E2E2E2E2E2E2E2E2E2E2E2E2E2E2E2E2E2E2E2E2E2E2E2E2E2E2E2E2E2E2E2E2E2E2E2E2E2E2E2E2E2E2E2E2E2E2E2E2E2E2E2E2E2E2E2E2E2E2E2E2E2E2E2E2E2E2E2F5E2E2E2F5E2E2E2F0E2E2E2E2E2F0E2E2E2E2E2E2E2E2E2E2E2
310
E2E2E2E2E2E2E2E2E2E2E2E2E2F5E2E2E2E2E2F5F5F5F5F5E2E2E2E2E2F5E2E2E2E2E2E2E2E2E2E2E2E2E2E2E2E2E2E2E2E2E2E2E2E2E2E2E2E2E2E2E2E2E2E2E2F5E2E2F5E2E2E2E2E2E2E2E2E2E2E2E2E2E2E2E2E2E2E2E2E2E2E2E2E2E2E2E2E2E2E2E2E2E2E2E2E2E2E2E2E2E2E2E2E2E2E2E2E2E2E2E2E2E2E2E2E2E2
310
E2E2E2E2E2E2E2E2E2E2E2E2E2E2E2E2E2E2E2E2E2E2E2E2E2E2E2F5E2E2E2F5E2E2E2F0E2E2E2E2E2F0E2E2E2E2E2E2E2E2E2E2E2E2E2E2E2E2E2E2E2E2E2E2E2E2F5E2E2E2E2E2F5F5F5F5F5E2E2E2E2E2F5E2E2E2E2E2E2E2E2E2E2E2E2E2E2E2E2E2E2E2E2E2E2E2E2E2E2E2E2E2E2E2E2E2E2E2F5E2E2F5E2E2E2E2E2
310
E2E2E2E2E2E2E2E2E2E2E2E2E2E2E2E2E2E2E2E2E2E2E2E2E2E2E2E2E2E2E2E2E2E2E2E2E2E2E2E2E2E2E2E2E2E2E2E2E2E2E2E2E2E2E2E2E2E2E2E2E2E2E2E2E2E2E2E2E2E2E2E2E2E2E2E2E2E2E2E2F5E2E2E2F5E2E2E2F0E2E2E2E2E2F0E2E2E2E2E2E2E2E2E2E2E2E2E2E2E2E2E2E2E2E2E2E2E2E2F5E2E2E2E2E2F5F5
310
F5F5F5E2E2E2E2E2F5E2E2E2E2E2E2E2E2E2E2E2E2E2E2E2E2E2E2E2E2E2E2E2E2E2E2E2E2E2E2E2E2E2E2E2F5E2E2F5E2E2E2E2E2E2E2E2E2E2E2E2E2E2E2E2E2E2E2E2E2E2E2E2E2E2E2E2E2E2E2E2E2E2E2E2E2E2E2E2E2E2E2E2E2E2E2E2E2E2E2E2E2E2E2E2E2E2E2E2E2E2E2E2E2E2E2E2E2E2E2E2E2E2E2E2E2E2E2
310
E2E2E2E2E2E2F5E2E2E2F5E2E2E2F0E2E2E2E2E2F0E2E2E2E2E2E2E2E2E2E2E2E2E2E2E2E2E2E2E2E2E2E2E2E2F5E2E2E2E2E2F5F5F5F5F5E2E2E2E2E2F5E2E2E2E2E2E2E2E2E2E2E2E2E2E2E2E2E2E2E2E2E2E2E2E2E2E2E2E2E2E2E2E2E2E2E2F5E2E2F5E2E2E2E2E2E2E2E2E2E2E2E2E2E2E2E2E2E2E2E2E2E2E2E2E2E2
310
E2E2E2E2E2E2E2E2E2E2E2E2E2E2E2E2E2E2E2E2E2E2E2E2E2E2E2E2E2E2E2E2E2E2E2E2E2E2E2E2E2E2E2E2E2E2E2E2E2E2E2E2E2E2E2E2E2E2E2F5E2E2F5F5E2E2E2F0E2E2E2DCDCDCE2E2E2E2E2E2E2E2E2E2E2E2E2E2E2E2E2E2E2E2E2E2E2E2F5E2E2E2E2E2F5F5F5F5F5E2E2E2E2E2F5E2E2E2E2E2E2E2E2E2E2E2E2
310
E2E2E2E2E2E2E2E2E2E2E2E2E2E2E2E2E2E2E2E2E2E2E2F5E2E2F5E2E2E2E2E2E2E2E2E2E2E2E2E2E2E2E2E2E2E2E2E2E2E2E2E2E2E2E2E2E2E2E2E2E2E2E2E2E2E2E2E2E2E2E2E2E2E2E2E2E2E2E2E2E2E2E2E2E2E2E2E2E2E2E2E2E2E2E2E2E2E2E2E2E2E2E2E2E2E2E2E2E2E2E2E2F5F5F5F5F5E2E2E2F0E2E2E2DCE2DC
310
E2E2E2E2E2E2E2E2E2E2E2E2E2E2E2E2E2E2E2E2E2E2E2E2F5E2E2E2E2E2F5F5F5F5F5E2E2E2E2E2F5E2E2E2E2E2E2E2E2E2E2E2E2E2E2E2E2E2E2E2E2E2E2E2E2E2E2E2E2E2E2E2E2E2E2E2F5E2E2F5E2E2E2E2E2E2E2E2E2E2E2E2E2E2E2E2E2E2E2E2E2E2E2E2E2E2E2E2E2E2E2E2E2E2E2E2E2E2E2E2E2E2E2E2E2E2E2
310
E2E2E2E2E2E2E2E2E2E2E2E2E2E2E2E2E2E2E2E2E2E2E2E2E2E2E2E2E2E2E2E2E2E2E2E2E2E2F5F5F5E2F5E2E2E2F0E2E2E2DCDCDCE2E2E2E2E2E2E2E2E2E2E2E2E2E2E2E2E2E2E2E2E2E2E2E2F5E2E2E2E2E2F5F5F5F5F5E2E2E2E2E2F5E2E2E2E2E2E2E2E2E2E2E2E2E2E2E2E2E2E2E2E2E2E2E2E2E2E2E2E2E2E2E2E2E2
310
E2E2F5E2E2F5E2E2E2E2E2E2E2E2E2E2E2E2E2E2E2E2E2E2E2E2E2E2E2E2E2E2E2E2E2E2E2E2E2E2E2E2E2E2E2E2E2E2E2E2E2E2E2E2E2E2E2E2E2E2E2E2E2E2E2E2E2E2E2E2E2E2E2E2E2E2E2E2E2E2E2E2E2E2E2E2E2E2E2E2E2F5E2E2E2F5E2E2E2F0E2E2E2DCDCDCE2E2E2E2E2E2E2E2E2E2E2E2E2E2E2E2E2E2E2E2E2
310
E2E2E2F5E2E2E2E2E2F5F5F5F5F5E2E2E2E2E2F5E2E2E2E2E2E2E2E2E2E2E2E2E2E2E2E2E2E2E2E2E2E2E2E2E2E2E2E2E2E2E2E2E2E2E2F5E2F5F5E2E2E2E2E2E2E2E2E2E2E2E2E2E2E2E2E2E2E2E2E2E2E2E2E2E2E2E2E2E2E2E2E2E2E2E2E2E2E2E2E2E2E2E2E2E2E2E2E2E2E2E2E2E2E2E2E2E2E2E2E2E2E2E2E2E2E2E2
310
E2E2E2E2E2E2E2E2E2E2E2E2E2E2E2E2E2F5E2E2E2F5E2E2E2F0E2E2E2DCDCDCE2E2E2E2E2E2E2E2E2E2E2E2E2E2E2E2E2E2E2E2E2E2E2E2F5E2E2E2E2E2F5F5F5F5F5E2E2E2E2E2F5E2E2E2E2E2E2E2E2E2E2E2E2E2E2E2E2E2E2E2E2E2E2E2E2E2E2E2E2E2E2E2E2E2E2E2F5F5F5F5E2E2E2E2E2E2E2E2E2E2E2E2E2E2E2
310
E2E2E2E2E2E2E2E2E2E2E2E2E2E2E2E2E2E2E2E2E2E2E2E2E2E2E2E2E2E2E2E2E2E2E2E2E2E2E2E2E2E2E2E2E2E2E2E2E2E2E2E2E2E2E2E2E2E2E2E2E2E2E2E2E2E2E2E2E2E2F5E2E2E2F5E2E2E2F0E2E2E2E2DCDCE2E2E2E2E2E2E2E2E2E2E2E2E2E2E2E2E2E2E2E2E2E2E2E2F5E2E2E2E2E2F5F5F5F5F5E2E2E2E2E2F5E2
310
E2E2E2E2E2E2E2E2E2E2E2E2E2E2E2E2E2E2E2E2E2E2E2E2E2E2E2E2E2E2E2E2E2E2F5E2E2F5E2E2E2E2E2E2E2E2E2E2E2E2E2E2E2E2E2E2E2E2E2E2E2E2E2E2E2E2E2E2E2E2E2E2E2E2E2E2E2E2E2E2E2E2E2E2E2E2E2E2E2E2E2E2E2E2E2E2E2E2E2E2E2E2E2E2E2E2E2E2E2E2E2E2E2E2E2E2E2E2E2E2E2E2E2F5E2E2E2
310
F5E2E2E2F0E2E2E2E2E2F0E2E2E2E2E2E2E2E2E2E2E2E2E2E2E2E2E2E2E2E2E2E2E2E2F5E2E2E2E2E2F5F5F5F5F5E2E2E2E2E2F5E2E2E2E2E2E2E2E2E2E2E2E2E2E2E2E2E2E2E2E2E2E2E2E2E2E2E2E2E2E2E2E2E2E2E2F5E2E2F5E2E2E2E2E2E2E2E2E2E2E2E2E2E2E2E2E2E2E2E2E2E2E2E2E2E2E2E2E2E2E2E2E2E2E2E2
310
E2E2E2E2E2E2E2E2E2E2E2E2E2E2E2E2E2E2E2E2E2E2E2E2E2E2E2E2E2E2E2E2E2E2E2E2E2E2E2E2E2E2E2E2E2E2E2E2E2F5E2E2E2F5E2E2E2F0E2E2E2E2E2F0E2E2E2E2E2E2E2E2E2E2E2E2E2E2E2E2E2E2E2E2E2E2E2E2F5E2E2E2E2E2F5F5F5F5F5E2E2E2E2E2F5E2E2E2E2E2E2E2E2E2E2E2E2E2E2E2E2E2E2E2E2E2E2
310
E2E2E2E2E2E2E2E2E2E2E2F5F5F5E2E2F5F5F5E2E2E2E2E2E2E2E2E2E2E2E2E2E2E2E2E2E2E2E2E2E2E2E2E2E2E2E2E2E2E2E2E2E2E2E2E2E2E2E2E2E2E2E2E2E2E2E2E2E2E2E2E2E2E2E2E2E2E2E2E2E2E2E2E2E2E2E2E2E2E2E2E2E2E2E2E2E2E2E2E2E2E2F5E2E2E2F5E2E2E2F0E2E2E2E2E2F0E2E2E2E2E2E2E2E2E2E2
310
E2E2E2E2E2E2E2E2E2E2E2E2E2E2F5E2E2E2E2E2F5F5F5F5F5E2E2E2E2E2F5E2E2E2E2E2E2E2E2E2E2E2E2E2E2E2E2E2E2E2E2E2E2E2E2E2E2E2E2E2E2E2E2E2F5E2F5E2E2F5E2F5E2E2E2E2E2E2E2E2E2E2E2E2E2E2E2E2E2E2E2E2E2E2E2E2E2E2E2E2E2E2E2E2E2E2E2E2E2E2E2E2E2E2E2E2E2E2E2E2E2E2E2E2E2E2E2
310
E2E2E2E2E2E2E2E2E2E2E2E2E2E2E2E2E2E2E2E2E2E2E2E2E2E2E2E2F5F5F5F5F5E2E2E2F0E2E2E2E2E2F0E2E2E2E2E2E2E2E2E2E2E2E2E2E2E2E2E2E2E2E2E2E2E2E2F5E2E2E2E2E2F5F5F5F5F5E2E2E2E2E2F5E2E2E2E2E2E2E2E2E2E2E2E2E2E2E2E2E2E2E2E2E2E2E2E2E2E2E2E2E2E2E2E2E2F5E2F5E2E2F5E2F5E2E2
310
E2E2E2E2E2E2E2E2E2E2E2E2E2E2E2E2E2E2E2E2E2E2E2E2E2E2E2E2E2E2E2E2E2E2E2E2E2E2E2E2E2E2E2E2E2E2E2E2E2E2E2E2E2E2E2E2E2E2E2E2E2E2E2E2E2E2E2E2E2E2E2E2E2E2E2E2E2E2E2E2E2F5F5E2F5F5F5E2E2F0E2E2E2E2E2F0E2E2E2E2E2E2E2E2E2E2E2E2E2E2E2E2E2E2E2E2E2E2E2E2F5E2E2E2E2E2F5
310
F5F5F5F5E2E2E2E2E2F5E2E2E2E2E2E2E2E2E2E2E2E2E2E2E2E2E2E2E2E2E2E2E2E2E2E2E2E2E2E2E2E2E2F5E2F5F5F5F5E2F5E2E2E2E2E2E2E2E2E2E2E2E2E2E2E2E2E2E2E2E2E2E2E2E2E2E2E2E2E2E2E2E2E2E2E2E2E2E2E2E2E2E2E2E2E2E2E2E2E2E2E2E2E2E2E2E2E2E2E2E2E2E2E2E2E2E2E2E2E2E2E2E2E2E2E2E2
310
E2E2E2E2E2E2E2F5E2E2E2F5F5E2E2F0E2E2E2E2E2F0E2E2E2E2E2E2E2E2E2E2E2E2E2E2E2E2E2E2E2E2E2E2E2E2F5E2E2E2E2E2F5F5F5F5E2E2E2E2E2E2F5E2E2E2E2E2E2E2E2E2E2E2E2E2E2E2E2E2E2E2E2E2E2E2E2E2E2E2E2E2E2E2E2E2F5F5F5F5F5F5F5F5E2E2E2E2E2E2E2E2E2E2E2E2E2E2E2E2E2E2E2E2E2E2E2
310
E2E2E2E2E2E2E2E2E2E2E2E2E2E2E2E2E2E2E2E2E2E2E2E2E2E2E2E2E2E2E2E2E2E2E2E2E2E2E2E2E2E2E2E2E2E2E2E2E2E2E2E2E2E2E2E2E2E2E2E2F5E2E2E2F5F5E2E2F0E2E2E2E2E2F0E2E2E2E2E2E2E2E2E2E2E2E2E2E2E2E2E2E2E2E2E2E2E2E2F5E2E2E2E2E2E2F5F5F5E2E2E2E2E2E2F5E2E2E2E2E2E2E2E2E2E2E2
310
E2E2E2E2E2E2E2E2E2E2E2E2E2E2E2E2E2E2E2E2E2E2F5E2F5F5F5F5E2F5E2E2E2E2E2E2E2E2E2E2E2E2E2E2E2E2E2E2E2E2E2E2E2E2E2E2E2E2E2E2E2E2E2E2E2E2E2E2E2E2E2E2E2E2E2E2E2E2E2E2E2E2E2E2E2E2E2E2E2E2E2E2E2E2E2E2E2E2E2E2E2E2E2E2E2E2E2E2E2E2E2E2E2F5F5F5F5F5F5E2E2F0E2E2E2E2E2
310
F0E2E2E2E2E2E2E2E2E2E2E2E2E2E2E2E2E2E2E2E2E2E2E2E2F5E2E2E2E2E2E2F5F5F5E2E2E2E2E2E2F5E2E2E2E2E2E2E2E2E2E2E2E2E2E2E2E2E2E2E2E2E2E2E2E2E2E2E2E2E2E2E2E2E2F5E2F5F5F5E2F5F5E2E2E2E2E2E2E2E2E2E2E2E2E2E2E2E2E2E2E2E2E2E2E2E2E2E2E2E2E2E2E2E2E2E2E2E2E2E2E2E2E2E2E2E2
310
E2E2E2E2E2E2E2E2E2E2E2E2E2E2E2E2E2E2E2E2E2E2E2E2E2E2E2E2E2E2E2E2E2E2E2E2E2E2E2F5F5E2F5E2F5E2E2F0E2E2E2E2E2F0E2E2E2E2E2E2E2E2E2E2E2E2E2E2E2E2E2E2E2E2E2E2E2E2F5E2E2E2E2E2E2F5F5F5E2E2E2E2E2E2F5E2E2E2E2E2E2E2E2E2E2E2E2E2E2E2E2E2E2E2E2E2E2E2E2E2E2E2E2E2E2E2E2
310
E2F5F5E2F5F5E2F5F5E2E2E2E2E2E2E2E2E2E2E2E2E2E2E2E2E2E2E2E2E2E2E2E2E2E2E2E2E2E2E2E2E2E2E2E2E2E2E2E2E2E2E2E2E2E2E2E2E2E2E2E2E2E2E2E2E2E2E2E2E2E2E2E2E2E2E2E2E2E2E2E2E2E2E2E2E2E2E2E2E2E2E2F5F5F5F5E2F5E2E2F0E2E2E2E2E2F0E2E2E2E2E2E2E2E2E2E2E2E2E2E2E2E2E2E2E2E2
310
E2E2E2E2F5E2E2E2E2E2E2F5F5F5E2E2E2E2E2E2F5E2E2E2E2E2E2E2E2E2E2E2E2E2E2E2E2E2E2E2E2E2E2E2E2E2E2E2E2E2E2F5F5F5F5F5F5F5F5F5F5F5F5F5F5E2E2E2E2E2E2E2E2E2E2E2E2E2E2E2E2E2E2E2E2E2E2E2E2E2E2E2E2E2E2E2E2E2E2E2E2E2E2E2E2E2E2E2E2E2E2E2E2E2E2E2E2E2E2E2E2E2E2E2E2E2E2
310
E2E2E2E2E2E2E2E2E2E2E2E2E2E2E2E2E2F5F5F5F5F5F5F5F5E2F0E2E2E2E2E2F0E2E2E2E2E2E2E2E2E2E2E2E2E2E2E2E2E2E2E2E2E2E2E2E2F5E2E2E2E2E2E2F5F5F5E2E2E2E2E2E2F5E2E2E2E2E2E2E2E2E2E2E2E2E2E2E2E2E2E2E2E2E2E2E2E2E2E2F5F5F5F5F5F5F5F5F5F5F5F5F5F5F5F5F5F5F5F5F5F5E2E2E2E2E2
310
E2E2E2E2E2E2E2E2E2E2E2E2E2E2E2E2E2E2E2E2E2E2E2E2E2E2E2E2E2E2E2E2E2E2E2E2E2E2E2E2E2E2E2E2E2E2E2E2E2E2E2E2E2E2E2E2E2E2E2E2E2E2E2E2E2E2E2E2E2F5F5F5F5F5F5F5F5F5F5F0E2E2E2E2E2F0E2E2E2E2E2E2E2E2E2E2E2E2E2E2E2E2E2E2E2E2E2E2E2E2F5E2E2E2E2E2E2F5F5F5E2E2E2E2E2E2F5
310
E2E2E2E2E2E2E2E2E2E2E2E2E2E2E2E2E2E2E2E2E2E2E2E2E2E2F5E2E2E2E2E2E2E2E2E2E2E2E2E2E2F5F5E2E2E2E2F5E2E2E2E2E2E2E2E2E2E2E2E2E2E2E2E2E2E2E2E2E2E2E2E2E2E2E2E2E2E2E2E2E2E2E2E2E2E2E2E2E2E2E2E2E2E2E2E2E2E2E2E2E2E2E2E2E2E2E2E2E2E2E2E2E2E2E2E2E2E2E2E2E2E2F5F5E2E2E2
310
E2E2E2F5E2F5E2E2E2E2E2F0E2E2E2E2E2E2E2E2E2E2E2E2E2E2E2E2E2E2E2E2E2E2E2E2F5E2E2E2E2E2E2F5F5F5E2E2E2E2E2E2F5E2E2E2E2E2E2E2E2E2E2E2E2E2E2E2E2E2E2E2E2E2E2E2E2E2E2F5F5F5F5F5F5F5F5F5F5F5F5F5F5F5F5F5F5F5F5F5F5E2E2E2E2E2E2E2E2E2E2E2E2E2E2E2E2E2E2E2E2E2E2E2E2E2E2
310
E2E2E2E2E2E2E2E2E2E2E2E2E2E2E2E2E2E2E2E2E2E2E2E2E2E2E2E2E2E2E2E2E2E2E2E2E2E2E2E2E2E2E2E2E2E2F5F5E2F5E2E2E2E2E2E2F5E2F5E2E2E2E2E2F0E2E2E2E2E2E2E2E2E2E2E2E2E2E2E2E2E2E2E2E2E2E2E2E2F5E2E2E2E2E2E2F5F5F5E2E2E2E2E2E2F5E2E2E2E2E2E2E2E2E2E2E2E2E2E2E2E2E2E2E2E2E2
310
E2E2E2E2E2F5F5F5F5F5F5F5F5F5F5F5F5F5F5F5F5F5F5F5F5F5F5E2E2E2E2E2E2E2E2E2E2E2E2E2E2E2E2E2E2E2E2E2E2E2E2E2E2E2E2E2E2E2E2E2E2E2E2E2E2E2E2E2E2E2E2E2E2E2E2E2E2E2E2E2E2E2E2E2E2E2E2E2E2E2E2E2E2E2E2E2E2E2F5F5F5F5F5F5F5F5F5F5F5F5E2F5E2E2E2E2E2F0E2E2E2E2E2E2E2E2E2
310
E2E2E2E2E2E2E2E2E2E2E2E2E2E2E2F5E2E2E2E2E2E2F5F5F5F5E2E2E2E2E2F5E2E2E2E2E2E2E2E2E2E2E2E2E2E2E2E2E2E2E2E2E2E2E2E2E2E2F5F5F5F5F5F5F5F5F5F5F5F5F5F5E2F5F5F5F5F5F5F5E2E2E2E2E2E2E2E2E2E2E2E2E2E2E2E2E2E2E2E2E2E2E2E2E2E2E2E2E2E2E2E2E2E2E2E2E2E2E2E2E2E2E2E2E2E2E2
310
E2E2E2E2E2E2E2E2E2E2E2E2E2E2E2E2E2E2E2E2E2E2E2E2E2F5F5F5F5F5F5F5F5F5F5E2E2F5E2E2E2E2E2F0E2E2E2E2E2E2E2E2E2E2E2E2E2E2E2E2E2E2E2E2E2E2E2E2F5E2E2E2E2E2F5F5F5F5F5E2E2E2E2E2F5E2E2E2E2E2E2E2E2E2E2E2E2E2E2E2E2E2E2E2E2E2E2E2E2E2F5F5F5F5F5F5F5F5F5F5F5F5F5F5F5E2F5
310
F5F5F5F5F5F5F5E2E2E2E2E2E2E2E2E2E2E2E2E2E2E2E2E2E2E2E2E2E2E2E2E2E2E2E2E2E2E2E2E2E2E2E2E2E2E2E2E2E2E2E2E2E2E2E2E2E2E2E2E2E2E2E2E2E2E2E2E2E2E2E2E2E2E2E2E2E2E2E2F5F5F5F5F5F5E2E2E2F5E2F5E2E2E2E2E2F0E2E2E2E2E2E2E2E2E2E2E2E2E2E2E2E2E2E2E2E2E2E2E2E2F5E2E2E2E2E2
310
F5F5F5F5F5E2E2E2E2E2F5E2E2E2E2E2E2E2E2E2E2E2E2E2E2E2E2E2E2E2E2E2E2E2E2E2F5F5F5F5F5F5F5F5F5F5F5F5F5F5F5E2F5F5F5F5F5F5F5F5E2E2E2E2E2E2E2E2E2E2E2E2E2E2E2E2E2E2E2E2E2E2E2E2E2E2E2E2E2E2E2E2E2E2E2E2E2E2E2E2E2E2E2E2E2E2E2E2E2E2E2E2E2E2E2E2E2E2E2E2E2E2E2E2E2E2E2
310
E2E2E2E2E2E2E2E2F5F5F5F5F5E2E2F5F5E2E2E2E2E2F0E2E2E2E2E2E2E2E2E2E2E2E2E2E2E2E2E2E2E2E2E2E2E2E2F5E2E2E2E2E2F5F5F5F5F5E2E2E2E2E2F5E2E2E2E2E2E2E2E2E2E2E2E2E2E2E2E2E2E2E2E2E2E2E2E2E2F5F5F5E2E2E2E2E2E2E2E2E2E2F5F5E2E2E2E2E2E2E2E2F5E2E2E2E2E2E2E2E2E2E2E2E2E2E2
310
E2E2E2E2E2E2E2E2E2E2E2E2E2E2E2E2E2E2E2E2E2E2E2E2E2E2E2E2E2E2E2E2E2E2E2E2E2E2E2E2E2E2E2E2E2E2E2E2E2E2E2E2E2E2E2E2E2E2E2E2E2E2E2F5F5E2F5F5E2F5E2E2E2E2E2F0E2E2E2E2E2E2E2E2E2E2E2E2E2E2E2E2E2E2E2E2E2E2E2E2F5E2E2E2E2E2F5F5F5F5F5E2E2E2E2E2F5E2E2E2E2E2E2E2E2E2E2
310
E2E2E2E2E2E2E2E2E2E2E2E2E2E2E2F5F5F5F5F5F5F5F5F5F5F5F5F5F5F5F5F5F5F5F5F5F5F5F5E2E2E2E2E2E2E2E2E2E2E2E2E2E2E2E2E2E2E2E2E2E2E2E2E2E2E2E2E2E2E2E2E2E2E2E2E2E2E2E2E2E2E2E2E2E2E2E2E2E2E2E2E2E2E2E2E2E2E2E2E2E2E2E2E2E2E2E2E2E2E2E2E2E2E2E2E2E2E2F5F5F5F5F5E2E2E2E2
310
E2F0E2E2E2E2E2E2E2E2E2E2E2E2E2E2E2E2E2E2E2E2E2E2E2E2F5E2E2E2E2E2F5F5F5F5F5E2E2E2E2E2F5E2E2E2E2E2E2E2E2E2E2E2E2E2E2E2E2E2E2E2E2E2E2E2E2E2E2E2E2E2E2E2E2E2E2E2E2E2E2E2E2E2E2E2E2E2E2E2E2E2E2E2E2E2E2E2E2E2E2E2E2E2E2E2E2E2E2E2E2E2E2E2E2E2E2E2E2E2E2E2E2E2E2E2E2
310
E2E2E2E2E2E2E2E2E2E2E2E2E2E2E2E2E2E2E2E2E2E2E2E2E2E2E2E2E2E2E2E2E2E2E2E2E2E2E2E2E2E2E2E2E2E2F5F5F5F0F0F0F0F0F0F0E2E2E2E2E2E2E2E2E2E2E2E2E2E2E2E2E2E2E2E2E2E2E2F5E2E2E2E2E2F5F5F5F5F5E2E2E2E2E2F5E2E2E2E2E2E2E2E2E2E2E2E2E2E2E2E2E2E2E2E2E2E2E2E2E2E2E2E2E2E2E2
310
E2E2E2E2E2E2E2E2E2E2E2E2E2E2E2E2E2E2E2E2E2E2E2E2E2E2E2E2E2E2E2E2E2E2E2E2E2E2E2E2E2E2E2E2E2E2E2E2E2E2E2E2E2E2E2E2E2E2E2E2E2E2E2E2E2E2E2E2E2E2E2E2E2E2E2E2E2E2E2E2E2E2E2E2E2E2E2E2E2E2E2E2E2E2E2E2E2E2E2E2E2E2E2E2E2E2E2E2E2E2E2E2E2E2E2E2E2E2E2E2E2E2E2E2E2E2E2
310
E2E2E2E2E2F5E2E2E2E2E2F5F5F5F5F5E2E2E2E2E2F5E2E2E2E2E2E2E2E2E2E2E2E2E2E2E2E2E2E2E2E2E2E2E2E2E2E2E2E2E2E2E2E2E2E2E2E2E2E2E2E2E2E2E2E2E2E2E2E2E2E2E2E2E2E2E2E2E2E2E2E2E2E2E2E2E2E2E2E2E2E2E2E2E2E2E2E2E2E2E2E2E2E2E2E2E2E2E2E2E2E2E2E2E2E2E2E2E2E2E2E2E2E2E2E2E2
310
E2E2E2E2E2E2E2E2E2E2E2E2E2E2E2E2E2E2E2E2E2E2E2E2E2E2E2E2E2E2E2E2E2E2E2E2E2E2E2E2E2E2E2E2E2E2E2E2E2E2E2E2E2E2E2E2E2E2F5E2E2E2E2E2F5F5F5F5F5E2E2E2E2E2F5E2E2E2E2E2E2E2E2E2E2E2E2E2E2E2E2E2E2E2E2E2E2E2E2E2E2E2E2E2E2E2E2E2E2E2E2E2E2E2E2E2E2E2E2E2E2E2E2E2E2E2E2
310
E2E2E2E2E2E2E2E2E2E2E2E2E2E2E2E2E2E2E2E2E2E2E2E2E2E2E2E2E2E2E2E2E2E2E2E2E2E2E2E2E2E2E2E2E2E2E2E2E2E2E2E2E2E2E2E2E2E2E2E2E2E2E2E2E2E2E2E2E2E2E2E2E2E2E2E2E2E2E2E2E2E2E2E2E2E2E2E2E2E2E2E2E2E2E2E2E2E2E2E2E2E2E2E2E2E2E2E2E2E2E2F5E2E2E2E2E2F5F5F5F5F5E2E2E2E2E2
310
F5E2E2E2E2E2E2E2E2E2E2E2E2E2E2E2E2E2E2E2E2E2E2E2E2E2E2E2E2E2E2E2E2E2E2E2E2E2E2E2E2E2E2E2E2E2E2E2E2E2E2E2E2E2E2E2E2E2E2E2E2E2E2E2E2E2E2E2E2E2E2E2E2E2E2E2E2E2E2E2E2E2E2E2E2E2E2E2E2E2E2E2E2E2E2E2E2E2E2E2E2E2E2E2E2E2E2E2E2E2E2E2E2E2E2E2E2E2E2E2E2E2E2E2E2E2E2
310
E2E2E2E2E2E2E2E2E2E2E2E2E2E2E2E2E2E2E2E2E2E2E2E2E2E2E2E2E2E2E2E2E2E2E2E2E2F5E2E2E2E2E2F5F5F5F5F5E2E2E2E2E2F5E2E2E2E2E2E2E2E2E2E2E2E2E2E2E2E2E2E2E2E2E2E2E2E2E2E2E2E2E2E2E2E2E2E2E2E2E2E2E2E2E2E2E2E2E2E2E2E2E2E2E2E2E2E2E2E2E2E2E2E2E2E2E2E2E2E2E2E2E2E2E2E2E2
310
E2E2E2E2E2E2E2E2E2E2E2E2E2E2E2E2E2E2E2E2E2E2E2E2E2E2E2E2E2E2E2E2E2E2E2E2E2E2E2E2E2E2E2E2E2E2E2E2E2E2E2E2E2E2E2E2E2E2E2E2E2E2E2E2E2E2E2E2E2E2E2E2E2E2E2E2E2E2E2E2E2E2E2E2E2E2E2E2E2E2F5E2E2E2E2E2F5F5F5F5F5E2E2E2E2E2F5E2E2E2E2E2E2E2E2E2E2E2E2E2E2E2E2E2E2E2E2
310
E2E2E2E2E2E2E2E2E2E2E2E2E2E2E2E2E2E2E2E2E2E2E2E2E2E2E2E2E2E2E2E2E2E2E2E2E2E2E2E2E2E2E2E2E2E2E2E2E2E2E2E2E2E2E2E2E2E2E2E2E2E2E2E2E2E2E2E2E2E2E2E2E2E2E2E2E2E2E2E2E2E2E2E2E2E2E2E2E2E2E2E2E2E2E2E2E2E2E2E2E2E2E2E2E2E2E2E2E2E2E2E2E2E2E2E2E2E2E2E2E2E2E2E2E2E2E2
310
E2E2E2E2E2E2E2E2E2E2E2E2E2E2E2E2F5E2E2E2E2E2F5F5F5F5F5E2E2E2E2E2F5E2E2E2E2E2E2E2E2E2E2E2E2E2E2E2E2E2E2E2E2E2E2E2E2E2E2E2E2E2E2E2E2E2E2E2E2E2E2E2E2E2E2E2E2E2E2E2E2E2E2E2E2E2E2E2E2E2E2E2E2E2E2E2E2E2E2E2E2E2E2E2E2E2E2E2E2E2E2E2E2E2E2E2E2E2E2E2E2E2E2E2E2E2E2
310
E2E2E2E2E2E2E2E2E2E2E2E2E2E2E2E2E2E2E2E2E2E2E2E2E2E2E2E2E2E2E2E2E2E2E2E2E2E2E2E2E2E2E2E2E2E2E2E2E2E2E2E2E2E2E2E2E2E2E2E2E2E2E2E2E2E2E2E2E2F5E2E2E2E2E2F5F5F5F5F5E2E2E2E2E2F5E2E2E2E2E2E2E2E2E2E2E2E2E2E2E2E2E2E2E2E2E2E2E2E2E2E2E2E2E2E2E2E2E2E2E2E2E2E2E2E2E2
310
E2E2E2E2E2E2E2E2E2E2E2E2E2E2E2E2E2E2E2E2E2E2E2E2E2E2E2E2E2E2E2E2E2E2E2E2E2E2E2E2E2E2E2E2E2E2E2E2E2E2E2E2E2E2E2E2E2E2E2E2E2E2E2E2E2E2E2E2E2E2E2E2E2E2E2E2E2E2E2E2E2E2E2E2E2E2E2E2E2E2E2E2E2E2E2E2E2E2E2E2E2E2E2E2E2E2E2E2E2E2E2E2E2E2E2E2E2E2E2E2E2E2F5E2E2E2E2
310
E2F5F5F5F5F5E2E2E2E2E2F5E2E2E2E2E2E2E2E2E2E2E2E2E2E2E2E2E2E2E2E2E2E2E2E2E2E2E2E2E2E2E2E2E2E2E2E2E2E2E2E2E2E2E2E2E2E2E2E2E2E2E2E2E2E2E2E2E2E2E2E2E2E2E2E2E2E2E2E2E2E2E2E2E2E2E2E2E2E2E2E2E2E2E2E2E2E2E2E2E2E2E2E2E2E2E2E2E2E2E2E2E2E2E2E2E2E2E2E2E2E2E2E2E2E2E2
310
E2E2E2E2E2E2E2E2E2E2E2E2E2E2E2E2E2E2E2E2E2E2E2E2E2E2E2E2E2E2E2E2E2E2E2E2E2E2E2E2E2E2E2E2E2E2E2E2F5E2E2E2E2E2F5F5F5F5F5E2E2E2E2E2F5E2E2E2E2E2E2E2E2E2E2E2E2E2E2E2E2E2E2E2E2E2E2E2E2E2E2E2E2E2E2E2E2E2E2E2E2E2E2E2E2E2E2E2E2E2E2E2E2E2E2E2E2E2E2E2E2E2E2E2E2E2E2
310
E2E2E2E2E2E2E2E2E2E2E2E2E2E2E2E2E2E2E2E2E2E2E2E2E2E2E2E2E2E2E2E2E2E2E2E2E2E2E2E2E2E2E2E2E2E2E2E2E2E2E2E2E2E2E2E2E2E2E2E2E2E2E2E2E2E2E2E2E2E2E2E2E2E2E2E2E2E2E2E2E2E2E2E2E2E2E2E2E2E2E2E2E2E2E2E2E2E2E2E2E2F5E2E2E2E2E2F5F5F5F5E2E2E2E2E2E2F5E2E2E2E2E2E2E2E2E2
310
E2E2E2E2E2E2E2E2E2E2E2E2E2E2E2E2E2E2E2E2E2E2E2E2E2E2E2E2E2E2E2E2E2E2E2E2E2E2E2E2E2E2E2E2E2E2E2E2E2E2E2E2E2E2E2E2E2E2E2E2E2E2E2E2E2E2E2E2E2E2E2E2E2E2E2E2E2E2E2E2E2E2E2E2E2E2E2E2E2E2E2E2E2E2E2E2E2E2E2E2E2E2E2E2E2E2E2E2E2E2E2E2E2E2E2E2E2E2E2E2E2E2E2E2E2E2E2
310
E2E2E2E2E2E2E2E2E2E2E2E2E2E2E2E2E2E2E2E2E2E2E2E2E2E2E2F5E2E2E2E2E2E2F5F5F5E2E2E2E2E2E2F5E2E2E2E2E2E2E2E2E2E2E2E2E2E2E2E2E2E2E2E2E2E2E2E2E2E2E2E2E2E2E2E2E2E2E2E2E2E2E2E2E2E2E2E2E2E2E2E2E2E2E2E2E2E2E2E2E2E2E2E2E2E2E2E2E2E2E2E2E2E2E2E2E2E2E2E2E2E2E2E2E2E2E2
310
E2E2E2E2E2E2E2E2E2E2E2E2E2E2E2E2E2E2E2E2E2E2E2E2E2E2E2E2E2E2E2E2E2E2E2E2E2E2E2E2E2E2E2E2E2E2E2E2E2E2E2E2E2E2E2E2E2E2E2E2E2E2E2E2E2E2E2E2E2E2E2E2E2E2E2E2E2E2E2E2F5E2E2E2E2E2E2F5F5F5E2E2E2E2E2E2F5E2E2E2E2E2E2E2E2E2E2E2E2E2E2E2E2E2E2E2E2E2E2E2E2E2E2E2E2E2E2
310
E2E2E2E2E2E2E2E2E2E2E2E2E2E2E2E2E2E2E2E2E2E2E2E2E2E2E2E2E2E2E2E2E2E2E2E2E2E2E2E2E2E2E2E2E2E2E2E2E2E2E2E2E2E2E2E2E2E2E2E2E2E2E2E2E2E2E2E2E2E2E2E2E2E2E2E2E2E2E2E2E2E2E2E2E2E2E2E2E2E2E2E2E2E2E2E2E2E2E2E2E2E2E2E2E2E2E2E2E2E2E2E2E2E2E2E2E2E2E2E2E2E2E2E2E2E2E2
310
E2E2E2E2E2E2F5E2E2E2E2E2E2F5F5F5E2E2E2E2E2E2F5E2E2E2E2E2E2E2E2E2E2E2E2E2E2E2E2E2E2E2E2E2E2E2E2E2E2E2E2E2E2E2E2E2E2E2E2E2E2E2E2E2E2E2E2E2E2E2E2E2E2E2E2E2E2E2E2E2E2E2E2E2E2E2E2E2E2E2E2E2E2E2E2E2E2E2E2E2E2E2E2E2E2E2E2E2E2E2E2E2E2E2E2E2E2E2E2E2E2E2E2E2E2E2E2
310
E2E2E2E2E2E2E2E2E2E2E2E2E2E2E2E2E2E2E2E2E2E2E2E2E2E2E2E2E2E2E2E2E2E2E2E2E2E2E2E2E2E2E2E2E2E2E2E2E2E2E2E2E2E2E2E2E2E2E2F5E2E2E2E2E2E2F5F5F5E2E2E2E2E2E2F5E2E2E2E2E2E2E2E2E2E2E2E2E2E2E2E2E2E2E2E2E2E2E2E2E2E2E2E2E2E2E2E2E2E2E2E2E2E2E2E2E2E2E2E2E2E2E2E2E2E2E2
310
E2E2E2E2E2E2E2E2E2E2E2E2E2E2E2E2E2E2E2E2E2E2E2E2E2E2E2E2E2E2E2E2E2E2E2E2E2E2E2E2E2E2E2E2E2E2E2E2E2E2E2E2E2E2E2E2E2E2E2E2E2E2E2E2E2E2E2E2E2E2E2E2E2E2E2E2E2E2E2E2E2E2E2E2E2E2E2E2E2E2E2E2E2E2E2E2E2E2E2E2E2E2E2E2E2E2E2E2E2E2E2E2F5E2E2E2E2E2E2F5F5F5E2E2E2E2E2
310
E2F5E2E2E2E2E2E2E2E2E2E2E2E2E2E2E2E2E2E2E2E2E2E2E2E2E2E2E2E2E2E2E2E2E2E2E2E2E2E2E2E2E2E2E2E2E2E2E2E2E2E2E2E2E2E2E2E2E2E2E2E2E2E2E2E2E2E2E2E2E2E2E2E2E2E2E2E2E2E2E2E2E2E2E2E2E2E2E2E2E2E2E2E2E2E2E2E2E2E2E2E2E2E2E2E2E2E2E2E2E2E2E2E2E2E2E2E2E2E2E2E2E2E2E2E2E2
310
E2E2E2E2E2E2E2E2E2E2E2E2E2E2E2E2E2E2E2E2E2E2E2E2E2E2E2E2E2E2E2E2E2E2E2E2E2E2F5E2E2E2E2E2E2F5F5F5E2E2E2E2E2E2F5E2E2E2E2E2E2E2E2E2E2E2E2E2E2E2E2E2E2E2E2E2E2E2E2E2E2E2E2E2E2E2E2E2E2E2E2E2E2E2E2E2E2E2E2E2E2E2E2E2E2E2E2E2E2E2E2E2E2E2E2E2E2E2E2E2E2E2E2E2E2E2E2
310
E2E2E2E2E2E2E2E2E2E2E2E2E2E2E2E2E2E2E2E2E2E2E2E2E2E2E2E2E2E2E2E2E2E2E2E2E2E2E2E2E2E2E2E2E2E2E2E2E2E2E2E2E2E2E2E2E2E2E2E2E2E2E2E2E2E2E2E2E2E2E2E2E2E2E2E2E2E2E2E2E2E2E2E2E2E2E2E2E2E2E2F5E2E2E2E2E2E2F5F5F5E2E2E2E2E2E2F5E2E2E2E2E2E2E2E2E2E2E2E2E2E2E2E2E2E2E2
310
E2E2E2E2E2E2E2E2E2E2E2E2E2E2E2E2E2E2E2E2E2E2E2E2E2E2E2E2E2E2E2E2E2E2E2E2E2E2E2E2E2E2E2E2E2E2E2E2E2E2E2E2E2E2E2E2E2E2E2E2E2E2E2E2E2E2E2E2E2E2E2E2E2E2E2E2E2E2E2E2E2E2E2E2E2E2E2E2E2E2E2E2E2E2E2E2E2E2E2E2E2E2E2E2E2E2E2E2E2E2E2E2E2E2E2E2E2E2E2E2E2E2E2E2E2E2E2
310
E2E2E2E2E2E2E2E2E2E2E2E2E2E2E2E2E2F5E2E2E2E2E2E2F5F5F5E2E2E2E2E2E2F5E2E2E2E2E2E2E2E2E2E2E2E2E2E2E2E2E2E2E2E2E2E2E2E2E2E2E2E2E2E2E2E2E2E2E2E2E2E2E2E2E2E2E2E2E2E2E2E2E2E2E2E2E2E2E2E2E2E2E2E2E2E2E2E2E2E2E2E2E2E2E2E2E2E2E2E2E2E2E2E2E2E2E2E2E2E2E2E2E2E2E2E2E2
310
E2E2E2E2E2E2E2E2E2E2E2E2E2E2E2E2E2E2E2E2E2E2E2E2E2E2E2E2E2E2E2E2E2E2E2E2E2E2E2E2E2E2E2E2E2E2E2E2E2E2E2E2E2E2E2E2E2E2E2E2E2E2E2E2E2E2E2E2E2E2F5E2E2E2E2E2E2F5F5F5F5E2E2E2E2E2F5E2E2E2E2E2E2E2E2E2E2E2E2E2E2E2E2E2E2E2E2E2E2E2E2E2E2E2E2E2E2E2E2E2E2E2E2E2E2E2E2
310
E2E2E2E2E2E2E2E2E2E2E2E2E2E2E2E2E2E2E2E2E2E2E2E2E2E2E2E2E2E2E2E2E2E2E2E2E2E2E2E2E2E2E2E2E2E2E2E2E2E2E2E2E2E2E2E2E2E2E2E2E2E2E2E2E2E2E2E2E2E2E2E2E2E2E2E2E2E2E2E2E2E2E2E2E2E2E2E2E2E2E2E2E2E2E2E2E2E2E2E2E2E2E2E2E2E2E2E2E2E2E2E2E2E2E2E2E2E2E2E2E2E2E2F5E2E2E2
310
E2E2F5F5F5F5F5E2E2E2E2E2F5F5F5F5F5F5F5F5F5F5F5F5F5F5F5F5F5F5F5F5F5F5F5F5F5F5F5F5F5F5F5F5F5F5F5F5F5F5F5F5F5F5F5F5F5F5F5F5F5F5F5F5F5F5F5F5F5F5F5F5F5F5F5F5F5F5F5F5F5F5F5F5F5F5F5F5F5F5F5F5F5F5F5F5F5F5F5F5F5F5F5F5F5F5F5F5F5F5F5F5F5F5F5F5F5F5F5F5F5F5F5F5F5F5F5
310
F5F5F5F5F5F5F5F5F5F5F5F5F5F5F5F5F5F5F5F5F5F5F5F5F5F5F5F5F5F5F5F5F5F5F5F5F5F5F5F5F5F5F5F5F5F5F5F5F5F5E2E2E2E2E2F5F5F5F5F5E2E2E2E2E2E2E2E2E2E2E2E2E2E2E2E2E2E2E2E2E2E2E2E2E2E2E2E2E2E2E2E2E2E2E2E2E2E2E2E2E2E2E2E2E2E2E2E2E2E2E2E2E2E2E2E2E2E2E2E2E2E2E2E2E2E2E2
310
E2E2E2E2E2E2E2E2E2E2E2E2E2E2E2E2E2E2E2E2E2E2E2E2E2E2E2E2E2E2E2E2E2E2E2E2E2E2E2E2E2E2E2E2E2E2E2E2E2E2E2E2E2E2E2E2E2E2E2E2E2E2E2E2E2E2E2E2E2E2E2E2E2E2E2E2E2E2E2E2E2E2E2E2E2E2E2E2E2E2E2E2E2E2E2E2E2E2E2E2E2E2E2E2E2E2E2E2F5F5F5F5F5E2E2E2E2E2E2E2E2E2E2E2E2E2E2
310
E2E2E2E2E2E2E2E2E2E2E2E2E2E2E2E2E2E2E2E2E2E2E2E2E2E2E2E2E2E2E2E2E2E2E2E2E2E2E2E2E2E2E2E2E2E2E2E2E2E2E2E2E2E2E2E2E2E2E2E2E2E2E2E2E2E2E2E2E2E2E2E2E2E2E2E2E2E2E2E2E2E2E2E2E2E2E2E2E2E2E2E2E2E2E2E2E2E2E2E2E2E2E2E2E2E2E2E2E2E2E2E2E2E2E2E2E2E2E2E2E2E2E2E2E2E2E2
310
E2E2E2E2E2E2E2E2E2E2E2E2E2E2E2E2E2E2E2E2E2E2E2E2E2E2E2E2E2E2E2E2E2E2F5F5F5F5F5E2E2E2E2E2E2E2E2E2E2E2E2E2E2E2E2E2E2E2E2E2E2E2E2E2E2E2E2E2E2E2E2E2E2E2E2E2E2E2E2E2E2E2E2E2E2E2E2E2E2E2E2E2E2E2E2E2E2E2E2E2E2E2E2E2E2E2E2E2E2E2E2E2E2E2E2E2E2E2E2E2E2E2E2E2E2E2E2
310
E2E2E2E2E2E2E2E2E2E2E2E2E2E2E2E2E2E2E2E2E2E2E2E2E2E2E2E2E2E2E2E2E2E2E2E2E2E2E2E2E2E2E2E2E2E2E2E2E2E2E2E2E2E2E2E2E2E2E2E2E2E2E2E2E2E2E2E2E2E2E2E2E2E2E2E2E2E2E2E2E2E2E2E2E2E2E2F5F5F5F5F5E2E2E2E2E2E2E2E2E2E2E2E2E2E2E2E2E2E2E2E2E2E2E2E2E2E2E2E2E2E2E2E2E2E2E2
310
E2E2E2E2E2E2E2E2E2E2E2E2E2E2E2E2E2E2E2E2E2E2E2E2E2E2E2E2E2E2E2E2E2E2E2E2E2E2E2E2E2E2E2E2E2E2E2E2E2E2E2E2E2E2E2E2E2E2E2E2E2E2E2E2E2E2E2E2E2E2E2E2E2E2E2E2E2E2E2E2E2E2E2E2E2E2E2E2E2E2E2E2E2E2E2E2E2E2E2E2E2E2E2E2E2E2E2E2E2E2E2E2E2E2E2E2E2E2E2E2E2E2E2E2E2E2E2
310
E2E2E2E2E2E2E2E2E2E2E2E2E2F5F5F5F5F5E2E2E2E2E2E2E2E2E2E2E2E2E2E2E2E2E2E2E2E2E2E2E2E2E2E2E2E2E2E2E2E2E2E2E2E2E2E2E2E2E2E2E2E2E2E2E2E2E2E2E2E2E2E2E2E2E2E2E2E2E2E2E2E2E2E2E2E2E2E2E2E2E2E2E2E2E2E2E2E2E2E2E2E2E2E2E2E2E2E2E2E2E2E2E2E2E2E2E2E2E2E2E2E2E2E2E2E2E2
310
E2E2E2E2E2E2E2E2E2E2E2E2E2E2E2E2E2E2E2E2E2E2E2E2E2E2E2E2E2E2E2E2E2E2E2E2E2E2E2E2E2E2E2E2E2E2E2E2E2E2E2E2E2E2E2E2E2E2E2E2E2E2E2E2E2E2F5F5F5F5F5F5F5F5F5F5F5F5F5E2E2E2E2E2E2E2E2E2F5F5F5F5F5F5F5F5F5F5F5F5F5F5F5F5E2E2E2E2E2E2E2E2E2F5F5F5F5F5F5F5F5F5F5F5F5F5F5
310
F5F5E2E2E2E2E2E2E2E2E2F5F5F5F5F5F5F5F5F5F5F5F5F5F5F5F5E2E2E2E2E2E2E2E2E2F5F5F5F5F5F5F5F5F5F5F5F5F5F5F5F5E2E2E2E2E2E2E2E2E2F5F5F5F5F5F5F5F5F5F5F5F5F5F5F5F5E2E2E2E2E2E2E2E2E2F5F5F5F5F5F5F5F5F5F5F5F5F5F5F5F5E2E2E2E2E2E2E2E2E2F5F5F5F5F5F5F5F5F5F5EFF5F5F5F5F5
310
F5F5F5F5F5F5F5F5F5F5F5F5F5F5F5F5F5F5F5F5F5F5F5F5F5F5F5F5F5F5F5F5F5F5F5F5F5F5F5F5F5F5F5F5F5F5F5F5F5F5F5F5F5F5F5F5F5F5F5F5F5F5F5F5F5F5F5F5F5F5F5F5F5F5F5F5F5F5F5F5F5F5F5F5F5F5F5F5F5F5F5F5F5F5F5F5F5F5F5F5F5F5F5F5F5F5F5F5F5F5F5F5F5F5F5F5F5F5F5F5F5F5F5F5F5F5F5
310
F5F5F5F5F5F5F5F5F5F5F5F5F5F5F5F5F5F5F5F5F5F5F5F5F5F5F5F5F5F5F5F5F5F5F5F5F5F5F5F5F5F5F5F5F5F5F5EF
  0
XRECORD
  5
3097
102
{ACAD_REACTORS
330
1764
102
}
330
1764
100
AcDbXrecord
280
     1
102
MATERIAL
148
0.0
149
0.0
149
0.0
 93
        0
 94
      127
282
     0
 72
     0
 77
     0
171
     0
175
     0
179
     0
273
     0
  0
XRECORD
  5
1766
102
{ACAD_REACTORS
330
1764
102
}
330
1764
100
AcDbXrecord
280
     1
270
     1
271
     1
  0
XRECORD
  5
1765
102
{ACAD_REACTORS
330
1764
102
}
330
1764
100
AcDbXrecord
280
     1
270
     1
271
     1
  0
XRECORD
  5
1769
102
{ACAD_REACTORS
330
1764
102
}
330
1764
100
AcDbXrecord
280
     1
270
     1
271
     1
  0
XRECORD
  5
1768
102
{ACAD_REACTORS
330
1764
102
}
330
1764
100
AcDbXrecord
280
     1
270
     1
271
     1
  0
XRECORD
  5
176A
102
{ACAD_REACTORS
330
1764
102
}
330
1764
100
AcDbXrecord
280
     1
270
     1
271
     1
  0
XRECORD
  5
1767
102
{ACAD_REACTORS
330
1764
102
}
330
1764
100
AcDbXrecord
280
     1
270
     1
271
     1
  0
XRECORD
  5
3096
102
{ACAD_REACTORS
330
175C
102
}
330
175C
100
AcDbXrecord
280
     1
102
MATERIAL
148
0.0
149
0.0
149
0.0
 93
        0
 94
      127
282
     0
 72
     0
 77
     0
171
     0
175
     0
179
     0
273
     0
  0
XRECORD
  5
175E
102
{ACAD_REACTORS
330
175C
102
}
330
175C
100
AcDbXrecord
280
     1
270
     1
271
     1
  0
XRECORD
  5
175D
102
{ACAD_REACTORS
330
175C
102
}
330
175C
100
AcDbXrecord
280
     1
270
     1
271
     1
  0
XRECORD
  5
1761
102
{ACAD_REACTORS
330
175C
102
}
330
175C
100
AcDbXrecord
280
     1
270
     1
271
     1
  0
XRECORD
  5
1760
102
{ACAD_REACTORS
330
175C
102
}
330
175C
100
AcDbXrecord
280
     1
270
     1
271
     1
  0
XRECORD
  5
1762
102
{ACAD_REACTORS
330
175C
102
}
330
175C
100
AcDbXrecord
280
     1
270
     1
271
     1
  0
XRECORD
  5
175F
102
{ACAD_REACTORS
330
175C
102
}
330
175C
100
AcDbXrecord
280
     1
270
     1
271
     1
  0
XRECORD
  5
3098
102
{ACAD_REACTORS
330
176C
102
}
330
176C
100
AcDbXrecord
280
     1
102
MATERIAL
148
0.0
149
0.0
149
0.0
 93
        0
 94
      127
282
     0
 72
     0
 77
     0
171
     0
175
     0
179
     0
273
     0
  0
XRECORD
  5
176E
102
{ACAD_REACTORS
330
176C
102
}
330
176C
100
AcDbXrecord
280
     1
270
     1
271
     1
  0
XRECORD
  5
176D
102
{ACAD_REACTORS
330
176C
102
}
330
176C
100
AcDbXrecord
280
     1
270
     1
271
     1
  0
XRECORD
  5
1771
102
{ACAD_REACTORS
330
176C
102
}
330
176C
100
AcDbXrecord
280
     1
270
     1
271
     1
  0
XRECORD
  5
1770
102
{ACAD_REACTORS
330
176C
102
}
330
176C
100
AcDbXrecord
280
     1
270
     1
271
     1
  0
XRECORD
  5
1772
102
{ACAD_REACTORS
330
176C
102
}
330
176C
100
AcDbXrecord
280
     1
270
     1
271
     1
  0
XRECORD
  5
176F
102
{ACAD_REACTORS
330
176C
102
}
330
176C
100
AcDbXrecord
280
     1
270
     1
271
     1
  0
XRECORD
  5
3334
102
{ACAD_REACTORS
330
3333
102
}
330
3333
100
AcDbXrecord
280
     1
102
SHADEPLOT
 70
     0
102
SHADEPLOTRESLEVEL
 70
     2
102
SHADEPLOTCUSTOMDPI
 70
   300
  0
ACAD_PROXY_OBJECT
  5
307C
102
{ACAD_REACTORS
330
2FBE
102
}
330
2FBE
100
AcDbProxyObject
 90
      499
 91
      512
 95
   983063
 70
     0
 93
     5232
310
40D054060020000020000003200101A412A5058000000C10000000000000006101010000000000003E0FC000000000000F83F0000000000003E0FC000000000000F83F02B5E8DC0F42B1CFC0AD7A3703D0AC73F419019018000000C1003FBFFFFFE02B5E8DC0F42A9CFD029018000000C1003FBFFFFFE02B5E8DC0F42A9CFD
310
049018000000C1003FBFFFFFE02B5E8DC0F42A9CFD089018000000C1003FBFFFFFE02B5E8DC0F42A9CFD109018000000C1003FBFFFFFE02B5E8DC0F42A9CFD209018000000C1003FBFFFFFE02B5E8DC0F42A9CFD01405075F5449544C450041501A8000000C800406904A94160000003040000000000000012404040000000
310
00000F83F0000000000003E0FC000000000000F83F0000000000003E0FC0AD7A3703D0AC73F02B5E8DC0F42B1CFD0640640600000030400FEFFFFFF80AD7A3703D0AA73F40A40600000030400FEFFFFFF80AD7A3703D0AA73F41240600000030400FEFFFFFF80AD7A3703D0AA73F42240600000030400FEFFFFFF80AD7A370
310
3D0AA73F44240600000030400FEFFFFFF80AD7A3703D0AA73F48240600000030400FEFFFFFF80AD7A3703D0AA73F409014217D2115051115480105406A0000003200101A412A5028000000C10000000000000004901010000000000003E0FC000000000000F83F0000000000003E0FC000000000000F83F02B5E8DC0F42B1C
310
FC0AD7A3703D0AC73F419019018000000C1003FBFFFFFE02B5E8DC0F42A9CFD029018000000C1003FBFFFFFE02B5E8DC0F42A9CFD049018000000C1003FBFFFFFE02B5E8DC0F42A9CFD089018000000C1003FBFFFFFE02B5E8DC0F42A9CFD109018000000C1003FBFFFFFE02B5E8DC0F42A9CFD209018000000C1003FBFFFF
310
FE02B5E8DC0F42A9CFD03409065F444154410000
340
10
340
0
340
0
340
0
340
0
340
0
340
0
340
10
340
0
340
0
340
0
340
0
340
0
340
0
340
10
340
0
340
0
340
0
340
0
340
0
340
0
 94
        0
1001
ACAD
1000
AcRTDxfName
1000
CELLSTYLEMAP
1000
AcRTDxfName
1000
CELLSTYLEMAP
1000
AcRTDxfName
1000
CELLSTYLEMAP
1000
AcRTDxfName
1000
CELLSTYLEMAP
1000
AcRTDxfName
1000
CELLSTYLEMAP
1000
AcRTDxfName
1000
CELLSTYLEMAP
1000
AcRTDxfName
1000
CELLSTYLEMAP
1000
AcRTDxfName
1000
CELLSTYLEMAP
1000
AcRTDxfName
1000
CELLSTYLEMAP
  0
XRECORD
  5
3090
102
{ACAD_REACTORS
330
2FBE
102
}
330
2FBE
100
AcDbXrecord
280
     1
102
ACAD_ROUNDTRIP_PRE2007_TABLESTYLE
 90
        4
 91
        0
  1

 92
        4
 93
        0
  2

 94
        4
 95
        0
  3

  0
ENDSEC
  0
EOF
