  0
SECTION
  2
HEADER
  9
$ACADVER
  1
AC1015
  9
$ACADMAINTVER
 70
    20
  9
$DWGCODEPAGE
  3
ANSI_932
  9
$INSBASE
 10
0.0
 20
0.0
 30
0.0
  9
$EXTMIN
 10
699.4124358590234
 20
313.5781716431018
 30
-179.3974879980674
  9
$EXTMAX
 10
2244.286743260863
 20
986.1591056555289
 30
0.0000000000899263
  9
$LIMMIN
 10
0.0
 20
0.0
  9
$LIMMAX
 10
10000.0
 20
10000.0
  9
$ORTHOMODE
 70
     1
  9
$REGENMODE
 70
     1
  9
$FILLMODE
 70
     1
  9
$QTEXTMODE
 70
     0
  9
$MIRRTEXT
 70
     1
  9
$LTSCALE
 40
1.0
  9
$ATTMODE
 70
     1
  9
$TEXTSIZE
 40
2.5
  9
$TRACEWID
 40
1.0
  9
$TEXTSTYLE
  7
AD-STANDARD
  9
$CLAYER
  8
MEASURE
  9
$CELTYPE
  6
BYLAYER
  9
$CECOLOR
 62
   256
  9
$CELTSCALE
 40
1.0
  9
$DISPSILH
 70
     0
  9
$DIMSCALE
 40
5.0
  9
$DIMASZ
 40
2.5
  9
$DIMEXO
 40
1.0
  9
$DIMDLI
 40
0.38
  9
$DIMRND
 40
0.0
  9
$DIMDLE
 40
0.0
  9
$DIMEXE
 40
2.0
  9
$DIMTP
 40
0.0
  9
$DIMTM
 40
0.0
  9
$DIMTXT
 40
2.799999999999999
  9
$DIMCEN
 40
-2.0
  9
$DIMTSZ
 40
0.0
  9
$DIMTOL
 70
     0
  9
$DIMLIM
 70
     0
  9
$DIMTIH
 70
     0
  9
$DIMTOH
 70
     0
  9
$DIMSE1
 70
     0
  9
$DIMSE2
 70
     0
  9
$DIMTAD
 70
     1
  9
$DIMZIN
 70
     8
  9
$DIMBLK
  1

  9
$DIMASO
 70
     1
  9
$DIMSHO
 70
     1
  9
$DIMPOST
  1

  9
$DIMAPOST
  1

  9
$DIMALT
 70
     0
  9
$DIMALTD
 70
     2
  9
$DIMALTF
 40
25.4
  9
$DIMLFAC
 40
1.0
  9
$DIMTOFL
 70
     1
  9
$DIMTVP
 40
0.0
  9
$DIMTIX
 70
     0
  9
$DIMSOXD
 70
     0
  9
$DIMSAH
 70
     0
  9
$DIMBLK1
  1

  9
$DIMBLK2
  1

  9
$DIMSTYLE
  2
AD-STANDARD
  9
$DIMCLRD
 70
     9
  9
$DIMCLRE
 70
     9
  9
$DIMCLRT
 70
     2
  9
$DIMTFAC
 40
1.0
  9
$DIMGAP
 40
0.5
  9
$DIMJUST
 70
     0
  9
$DIMSD1
 70
     0
  9
$DIMSD2
 70
     0
  9
$DIMTOLJ
 70
     1
  9
$DIMTZIN
 70
     8
  9
$DIMALTZ
 70
     0
  9
$DIMALTTZ
 70
     0
  9
$DIMUPT
 70
     0
  9
$DIMDEC
 70
     3
  9
$DIMTDEC
 70
     8
  9
$DIMALTU
 70
     2
  9
$DIMALTTD
 70
     2
  9
$DIMTXSTY
  7
AD-STANDARD
  9
$DIMAUNIT
 70
     0
  9
$DIMADEC
 70
     0
  9
$DIMALTRND
 40
0.0
  9
$DIMAZIN
 70
     0
  9
$DIMDSEP
 70
    46
  9
$DIMATFIT
 70
     1
  9
$DIMFRAC
 70
     0
  9
$DIMLDRBLK
  1

  9
$DIMLUNIT
 70
     2
  9
$DIMLWD
 70
    -2
  9
$DIMLWE
 70
    -2
  9
$DIMTMOVE
 70
     0
  9
$LUNITS
 70
     2
  9
$LUPREC
 70
     4
  9
$SKETCHINC
 40
1.0
  9
$FILLETRAD
 40
0.0
  9
$AUNITS
 70
     0
  9
$AUPREC
 70
     0
  9
$MENU
  1
.
  9
$ELEVATION
 40
0.0
  9
$PELEVATION
 40
0.0
  9
$THICKNESS
 40
0.0
  9
$LIMCHECK
 70
     0
  9
$CHAMFERA
 40
0.0
  9
$CHAMFERB
 40
0.0
  9
$CHAMFERC
 40
673.4006734006733
  9
$CHAMFERD
 40
0.0
  9
$SKPOLY
 70
     0
  9
$TDCREATE
 40
2451414.552377546
  9
$TDUCREATE
 40
2451414.177377547
  9
$TDUPDATE
 40
2456696.683596435
  9
$TDUUPDATE
 40
2456696.308596435
  9
$TDINDWG
 40
0.2298626389
  9
$TDUSRTIMER
 40
0.2298626389
  9
$USRTIMER
 70
     1
  9
$ANGBASE
 50
0.0
  9
$ANGDIR
 70
     0
  9
$PDMODE
 70
     0
  9
$PDSIZE
 40
0.0
  9
$PLINEWID
 40
0.0
  9
$SPLFRAME
 70
     0
  9
$SPLINETYPE
 70
     6
  9
$SPLINESEGS
 70
     8
  9
$HANDSEED
  5
6F37
  9
$SURFTAB1
 70
     6
  9
$SURFTAB2
 70
     6
  9
$SURFTYPE
 70
     6
  9
$SURFU
 70
     6
  9
$SURFV
 70
     6
  9
$UCSBASE
  2

  9
$UCSNAME
  2

  9
$UCSORG
 10
0.0
 20
0.0
 30
0.0
  9
$UCSXDIR
 10
1.0
 20
0.0
 30
0.0
  9
$UCSYDIR
 10
0.0
 20
1.0
 30
0.0
  9
$UCSORTHOREF
  2

  9
$UCSORTHOVIEW
 70
     0
  9
$UCSORGTOP
 10
0.0
 20
0.0
 30
0.0
  9
$UCSORGBOTTOM
 10
0.0
 20
0.0
 30
0.0
  9
$UCSORGLEFT
 10
0.0
 20
0.0
 30
0.0
  9
$UCSORGRIGHT
 10
0.0
 20
0.0
 30
0.0
  9
$UCSORGFRONT
 10
0.0
 20
0.0
 30
0.0
  9
$UCSORGBACK
 10
0.0
 20
0.0
 30
0.0
  9
$PUCSBASE
  2

  9
$PUCSNAME
  2

  9
$PUCSORG
 10
0.0
 20
0.0
 30
0.0
  9
$PUCSXDIR
 10
1.0
 20
0.0
 30
0.0
  9
$PUCSYDIR
 10
0.0
 20
1.0
 30
0.0
  9
$PUCSORTHOREF
  2

  9
$PUCSORTHOVIEW
 70
     0
  9
$PUCSORGTOP
 10
0.0
 20
0.0
 30
0.0
  9
$PUCSORGBOTTOM
 10
0.0
 20
0.0
 30
0.0
  9
$PUCSORGLEFT
 10
0.0
 20
0.0
 30
0.0
  9
$PUCSORGRIGHT
 10
0.0
 20
0.0
 30
0.0
  9
$PUCSORGFRONT
 10
0.0
 20
0.0
 30
0.0
  9
$PUCSORGBACK
 10
0.0
 20
0.0
 30
0.0
  9
$USERI1
 70
     0
  9
$USERI2
 70
     0
  9
$USERI3
 70
     0
  9
$USERI4
 70
     0
  9
$USERI5
 70
     0
  9
$USERR1
 40
0.0
  9
$USERR2
 40
0.0
  9
$USERR3
 40
0.0
  9
$USERR4
 40
0.0
  9
$USERR5
 40
0.0
  9
$WORLDVIEW
 70
     1
  9
$SHADEDGE
 70
     3
  9
$SHADEDIF
 70
    70
  9
$TILEMODE
 70
     0
  9
$MAXACTVP
 70
    16
  9
$PINSBASE
 10
0.0
 20
0.0
 30
0.0
  9
$PLIMCHECK
 70
     0
  9
$PEXTMIN
 10
20.0
 20
17.0
 30
0.0
  9
$PEXTMAX
 10
405.0
 20
281.9999999999999
 30
0.0
  9
$PLIMMIN
 10
2.420843982944916
 20
0.9840690143778942
  9
$PLIMMAX
 10
422.5791691782574
 20
298.0158988483623
  9
$UNITMODE
 70
     0
  9
$VISRETAIN
 70
     0
  9
$PLINEGEN
 70
     0
  9
$PSLTSCALE
 70
     0
  9
$TREEDEPTH
 70
  3020
  9
$CMLSTYLE
  2
STANDARD
  9
$CMLJUST
 70
     0
  9
$CMLSCALE
 40
1.0
  9
$PROXYGRAPHICS
 70
     1
  9
$MEASUREMENT
 70
     1
  9
$CELWEIGHT
370
    -1
  9
$ENDCAPS
280
     0
  9
$JOINSTYLE
280
     0
  9
$LWDISPLAY
290
     0
  9
$INSUNITS
 70
     0
  9
$HYPERLINKBASE
  1

  9
$STYLESHEET
  1

  9
$XEDIT
290
     1
  9
$CEPSNTYPE
380
     0
  9
$PSTYLEMODE
290
     1
  9
$FINGERPRINTGUID
  2
{2F91A818-3945-4392-A69E-0A4F2A5A0459}
  9
$VERSIONGUID
  2
{E44E81E8-0BAF-444E-BE27-74B44758A1E9}
  9
$EXTNAMES
290
     1
  9
$PSVPSCALE
 40
0.0
  9
$OLESTARTUP
290
     0
  0
ENDSEC
  0
SECTION
  2
CLASSES
  0
CLASS
  1
LWPOLYLINE
  2
AcDbPolyline
  3
ObjectDBX Classes
 90
        0
280
     0
281
     1
  0
CLASS
  1
ACDBDICTIONARYWDFLT
  2
AcDbDictionaryWithDefault
  3
ObjectDBX Classes
 90
        0
280
     0
281
     0
  0
CLASS
  1
TABLESTYLE
  2
AcDbTableStyle
  3
ObjectDBX Classes
 90
     2047
280
     0
281
     0
  0
CLASS
  1
SORTENTSTABLE
  2
AcDbSortentsTable
  3
ObjectDBX Classes
 90
        0
280
     0
281
     0
  0
CLASS
  1
PLOTSETTINGS
  2
AcDbPlotSettings
  3
ObjectDBX Classes
 90
        0
280
     0
281
     0
  0
CLASS
  1
DICTIONARYVAR
  2
AcDbDictionaryVar
  3
ObjectDBX Classes
 90
        0
280
     0
281
     0
  0
CLASS
  1
ACDBPLACEHOLDER
  2
AcDbPlaceHolder
  3
ObjectDBX Classes
 90
        0
280
     0
281
     0
  0
CLASS
  1
LAYOUT
  2
AcDbLayout
  3
ObjectDBX Classes
 90
        0
280
     0
281
     0
  0
CLASS
  1
MATERIAL
  2
AcDbMaterial
  3
ObjectDBX Classes
 90
        0
280
     0
281
     0
  0
CLASS
  1
VISUALSTYLE
  2
AcDbVisualStyle
  3
ObjectDBX Classes
 90
     4095
280
     0
281
     0
  0
CLASS
  1
SCALE
  2
AcDbScale
  3
ObjectDBX Classes
 90
     1153
280
     0
281
     0
  0
CLASS
  1
MLEADERSTYLE
  2
AcDbMLeaderStyle
  3
ACDB_MLEADERSTYLE_CLASS
 90
     4095
280
     0
281
     0
  0
CLASS
  1
CELLSTYLEMAP
  2
AcDbCellStyleMap
  3
ObjectDBX Classes
 90
     1152
280
     0
281
     0
  0
ENDSEC
  0
SECTION
  2
TABLES
  0
TABLE
  2
VPORT
  5
8
102
{ACAD_XDICTIONARY
360
4E12
102
}
330
0
100
AcDbSymbolTable
 70
     1
  0
VPORT
  5
6F14
330
8
100
AcDbSymbolTableRecord
100
AcDbViewportTableRecord
  2
*Active
 70
     0
 10
0.0
 20
0.0
 11
1.0
 21
1.0
 12
1471.534706708737
 22
650.0066926454874
 13
0.0
 23
0.0
 14
1.0
 24
1.0
 15
0.0
 25
0.0
 16
0.0
 26
0.0
 36
1.0
 17
0.0
 27
0.0
 37
0.0
 40
727.3005442355358
 41
2.133243606998654
 42
50.0
 43
0.0
 44
0.0
 50
0.0
 51
0.0
 71
     0
 72
   100
 73
     1
 74
     0
 75
     0
 76
     0
 77
     0
 78
     1
281
     0
 65
     1
110
0.0
120
0.0
130
0.0
111
1.0
121
0.0
131
0.0
112
0.0
122
1.0
132
0.0
 79
     0
146
0.0
  0
ENDTAB
  0
TABLE
  2
LTYPE
  5
5
330
0
100
AcDbSymbolTable
 70
     1
  0
LTYPE
  5
14
330
5
100
AcDbSymbolTableRecord
100
AcDbLinetypeTableRecord
  2
BYBLOCK
 70
     0
  3

 72
    65
 73
     0
 40
0.0
  0
LTYPE
  5
15
330
5
100
AcDbSymbolTableRecord
100
AcDbLinetypeTableRecord
  2
BYLAYER
 70
     0
  3

 72
    65
 73
     0
 40
0.0
  0
LTYPE
  5
16
330
5
100
AcDbSymbolTableRecord
100
AcDbLinetypeTableRecord
  2
CONTINUOUS
 70
     0
  3
Solid line
 72
    65
 73
     0
 40
0.0
  0
ENDTAB
  0
TABLE
  2
LAYER
  5
2
102
{ACAD_XDICTIONARY
360
16F4
102
}
330
0
100
AcDbSymbolTable
 70
     3
  0
LAYER
  5
F
102
{ACAD_XDICTIONARY
360
6487
102
}
330
2
100
AcDbSymbolTableRecord
100
AcDbLayerTableRecord
  2
0
 70
     0
 62
     7
  6
CONTINUOUS
370
    -3
390
16DA
  0
LAYER
  5
71
102
{ACAD_XDICTIONARY
360
6489
102
}
330
2
100
AcDbSymbolTableRecord
100
AcDbLayerTableRecord
  2
MEASURE
 70
     0
 62
     9
  6
CONTINUOUS
370
    -3
390
16DA
  0
LAYER
  5
72
102
{ACAD_XDICTIONARY
360
6C5F
102
}
330
2
100
AcDbSymbolTableRecord
100
AcDbLayerTableRecord
  2
DEFPOINTS
 70
     0
 62
     7
  6
CONTINUOUS
290
     0
370
    -3
390
16DA
  0
ENDTAB
  0
TABLE
  2
STYLE
  5
3
330
0
100
AcDbSymbolTable
 70
     2
  0
STYLE
  5
10
330
3
100
AcDbSymbolTableRecord
100
AcDbTextStyleTableRecord
  2
STANDARD
 70
     0
 40
0.0
 41
0.8
 50
0.0
 71
     0
 42
84.17508417508416
  3
TXT
  4
bigfont.shx
  0
STYLE
  5
63
330
3
100
AcDbSymbolTableRecord
100
AcDbTextStyleTableRecord
  2
AD-STANDARD
 70
     0
 40
0.0
 41
0.8
 50
0.0
 71
     0
 42
2.5
  3
C:\Program Files\AutoCAD LT\romans.shx
  4
bigfont.shx
  0
ENDTAB
  0
TABLE
  2
VIEW
  5
6
330
0
100
AcDbSymbolTable
 70
     0
  0
ENDTAB
  0
TABLE
  2
UCS
  5
7
330
0
100
AcDbSymbolTable
 70
     0
  0
ENDTAB
  0
TABLE
  2
APPID
  5
9
330
0
100
AcDbSymbolTable
 70
     8
  0
APPID
  5
11
330
9
100
AcDbSymbolTableRecord
100
AcDbRegAppTableRecord
  2
ACAD
 70
     0
  0
APPID
  5
22A
330
9
100
AcDbSymbolTableRecord
100
AcDbRegAppTableRecord
  2
CONTENTTABDATA
 70
     0
  0
APPID
  5
22B
330
9
100
AcDbSymbolTableRecord
100
AcDbRegAppTableRecord
  2
CONTENTCURRENTTAB
 70
     0
  0
APPID
  5
232
330
9
100
AcDbSymbolTableRecord
100
AcDbRegAppTableRecord
  2
CONTENTBLOCKDESCRIPTION
 70
     0
  0
APPID
  5
233
330
9
100
AcDbSymbolTableRecord
100
AcDbRegAppTableRecord
  2
CONTENTBLOCKICON
 70
     0
  0
APPID
  5
16E9
330
9
100
AcDbSymbolTableRecord
100
AcDbRegAppTableRecord
  2
ACAD_PSEXT
 70
     0
  0
APPID
  5
1860
330
9
100
AcDbSymbolTableRecord
100
AcDbRegAppTableRecord
  2
ACAD_MLEADERVER
 70
     0
  0
APPID
  5
1DF8
330
9
100
AcDbSymbolTableRecord
100
AcDbRegAppTableRecord
  2
ACAD_EXEMPT_FROM_CAD_STANDARDS
 70
     0
  0
ENDTAB
  0
TABLE
  2
DIMSTYLE
  5
A
330
0
100
AcDbSymbolTable
 70
     2
100
AcDbDimStyleTable
 71
     1
340
68
  0
DIMSTYLE
105
1D
330
A
100
AcDbSymbolTableRecord
100
AcDbDimStyleTableRecord
  2
STANDARD
 70
     0
340
10
  0
DIMSTYLE
105
68
102
{ACAD_REACTORS
330
CC0
330
1085
330
12B2
330
131B
330
1328
330
1335
330
1342
330
1381
330
138E
330
6D51
102
}
330
A
100
AcDbSymbolTableRecord
100
AcDbDimStyleTableRecord
  2
AD-STANDARD
 70
     0
 41
2.5
 42
1.0
 44
2.0
 73
     0
 74
     0
 77
     1
 78
     8
140
3.5
141
-2.0
147
0.5
172
     1
176
     9
177
     9
178
     2
284
     8
340
63
  0
ENDTAB
  0
TABLE
  2
BLOCK_RECORD
  5
1
330
0
100
AcDbSymbolTable
 70
    10
  0
BLOCK_RECORD
  5
1A
102
{ACAD_XDICTIONARY
360
1780
102
}
330
1
100
AcDbSymbolTableRecord
100
AcDbBlockTableRecord
  2
*MODEL_SPACE
340
16E1
  0
BLOCK_RECORD
  5
17
330
1
100
AcDbSymbolTableRecord
100
AcDbBlockTableRecord
  2
*PAPER_SPACE
340
16E2
  0
BLOCK_RECORD
  5
121B
330
1
100
AcDbSymbolTableRecord
100
AcDbBlockTableRecord
  2
*D0
340
0
  0
BLOCK_RECORD
  5
1257
330
1
100
AcDbSymbolTableRecord
100
AcDbBlockTableRecord
  2
*D1
340
0
  0
BLOCK_RECORD
  5
12A6
330
1
100
AcDbSymbolTableRecord
100
AcDbBlockTableRecord
  2
*D2
340
0
  0
BLOCK_RECORD
  5
130F
330
1
100
AcDbSymbolTableRecord
100
AcDbBlockTableRecord
  2
*D3
340
0
  0
BLOCK_RECORD
  5
131C
330
1
100
AcDbSymbolTableRecord
100
AcDbBlockTableRecord
  2
*D4
340
0
  0
BLOCK_RECORD
  5
1329
330
1
100
AcDbSymbolTableRecord
100
AcDbBlockTableRecord
  2
*D5
340
0
  0
BLOCK_RECORD
  5
1336
330
1
100
AcDbSymbolTableRecord
100
AcDbBlockTableRecord
  2
*D6
340
0
  0
BLOCK_RECORD
  5
1375
330
1
100
AcDbSymbolTableRecord
100
AcDbBlockTableRecord
  2
*D7
340
0
  0
BLOCK_RECORD
  5
1382
330
1
100
AcDbSymbolTableRecord
100
AcDbBlockTableRecord
  2
*D8
340
0
  0
BLOCK_RECORD
  5
6D52
330
1
100
AcDbSymbolTableRecord
100
AcDbBlockTableRecord
  2
*D9
340
0
  0
ENDTAB
  0
ENDSEC
  0
SECTION
  2
BLOCKS
  0
BLOCK
  5
1B
330
1A
100
AcDbEntity
  8
0
100
AcDbBlockBegin
  2
*MODEL_SPACE
 70
     0
 10
0.0
 20
0.0
 30
0.0
  3
*MODEL_SPACE
  1

  0
ENDBLK
  5
1C
330
1A
100
AcDbEntity
  8
0
100
AcDbBlockEnd
  0
BLOCK
  5
18
330
17
100
AcDbEntity
 67
     1
  8
0
100
AcDbBlockBegin
  2
*PAPER_SPACE
 70
     0
 10
0.0
 20
0.0
 30
0.0
  3
*PAPER_SPACE
  1

  0
ENDBLK
  5
19
330
17
100
AcDbEntity
 67
     1
  8
0
100
AcDbBlockEnd
  0
BLOCK
  5
13F3
330
121B
100
AcDbEntity
  8
0
100
AcDbBlockBegin
  2
*D0
 70
     1
 10
0.0
 20
0.0
 30
0.0
  3
*D0
  1

  0
LINE
  5
6DA6
330
121B
100
AcDbEntity
  8
MEASURE
 62
     9
370
    -2
100
AcDbLine
 10
1434.231508656055
 20
481.5777748431073
 30
0.0
 11
1434.231508656055
 21
313.5781716431018
 31
0.0
  0
LINE
  5
6DA7
330
121B
100
AcDbEntity
  8
MEASURE
 62
     9
370
    -2
100
AcDbLine
 10
2164.286743260863
 20
962.4280509948912
 30
0.0
 11
2164.286743260863
 21
313.5781716431018
 31
0.0
  0
LINE
  5
6DA8
330
121B
100
AcDbEntity
  8
MEASURE
 62
     9
370
    -2
100
AcDbLine
 10
1446.731508656055
 20
323.5781716431018
 30
0.0
 11
2151.786743260863
 21
323.5781716431018
 31
0.0
  0
SOLID
  5
6DA9
330
121B
100
AcDbEntity
  8
MEASURE
 62
     9
100
AcDbTrace
 10
1446.731508656055
 20
325.6615049764351
 30
0.0
 11
1446.731508656055
 21
321.4948383097685
 31
0.0
 12
1434.231508656055
 22
323.5781716431018
 32
0.0
 13
1434.231508656055
 23
323.5781716431018
 33
0.0
  0
SOLID
  5
6DAA
330
121B
100
AcDbEntity
  8
MEASURE
 62
     9
100
AcDbTrace
 10
2151.786743260863
 20
325.6615049764351
 30
0.0
 11
2151.786743260863
 21
321.4948383097685
 31
0.0
 12
2164.286743260863
 22
323.5781716431018
 32
0.0
 13
2164.286743260863
 23
323.5781716431018
 33
0.0
  0
MTEXT
  5
6DAB
330
121B
100
AcDbEntity
  8
MEASURE
 62
     2
100
AcDbMText
 10
1799.259125958459
 20
334.8281716431018
 30
0.0
 40
17.5
 41
0.0
 71
     5
 72
     1
  1
\A1;（730）
  7
AD-STANDARD
 73
     1
 44
1.0
1001
ACAD
1000
MTEXTBEGIN
1070
    73
1070
     1
1070
    44
1040
1.0
1070
    74
1070
     0
1000
MTEXTEND
  0
POINT
  5
6DAC
330
121B
100
AcDbEntity
  8
DEFPOINTS
 62
     0
100
AcDbPoint
 10
1434.231508656055
 20
486.5777748431074
 30
0.0
  0
POINT
  5
6DAD
330
121B
100
AcDbEntity
  8
DEFPOINTS
 62
     0
100
AcDbPoint
 10
2164.286743260863
 20
967.4280509948912
 30
0.0
  0
POINT
  5
6DAE
330
121B
100
AcDbEntity
  8
DEFPOINTS
 62
     0
100
AcDbPoint
 10
2164.286743260863
 20
323.5781716431018
 30
0.0
  0
ENDBLK
  5
13FD
330
121B
100
AcDbEntity
  8
0
100
AcDbBlockEnd
  0
BLOCK
  5
16A3
330
1257
100
AcDbEntity
  8
0
100
AcDbBlockBegin
  2
*D1
 70
     1
 10
0.0
 20
0.0
 30
0.0
  3
*D1
  1

  0
LINE
  5
6EB1
330
1257
100
AcDbEntity
  8
MEASURE
 62
     9
370
    -2
100
AcDbLine
 10
1936.239321156048
 20
428.5776832431024
 30
0.0
 11
2244.286743260863
 21
428.5776832431023
 31
0.0
  0
LINE
  5
6EB2
330
1257
100
AcDbEntity
  8
MEASURE
 62
     9
370
    -2
100
AcDbLine
 10
2157.846523252604
 20
986.1591056555289
 30
0.0
 11
2244.286743260863
 21
986.1591056555289
 31
0.0
  0
LINE
  5
6EB3
330
1257
100
AcDbEntity
  8
MEASURE
 62
     9
370
    -2
100
AcDbLine
 10
2234.286743260863
 20
441.0776832431023
 30
0.0
 11
2234.286743260863
 21
973.6591056555289
 31
0.0
  0
SOLID
  5
6EB4
330
1257
100
AcDbEntity
  8
MEASURE
 62
     9
100
AcDbTrace
 10
2232.203409927529
 20
441.0776832431023
 30
0.0
 11
2236.370076594196
 21
441.0776832431023
 31
0.0
 12
2234.286743260863
 22
428.5776832431023
 32
0.0
 13
2234.286743260863
 23
428.5776832431023
 33
0.0
  0
SOLID
  5
6EB5
330
1257
100
AcDbEntity
  8
MEASURE
 62
     9
100
AcDbTrace
 10
2232.203409927529
 20
973.6591056555289
 30
0.0
 11
2236.370076594196
 21
973.6591056555289
 31
0.0
 12
2234.286743260863
 22
986.1591056555289
 32
0.0
 13
2234.286743260863
 23
986.1591056555289
 33
0.0
  0
MTEXT
  5
6EB6
330
1257
100
AcDbEntity
  8
MEASURE
 62
     2
100
AcDbMText
 10
2223.036743260863
 20
707.368394449316
 30
0.0
 40
17.5
 41
0.0
 71
     5
 72
     1
  1
\A1;（750）
  7
AD-STANDARD
 11
0.0000000000000001
 21
1.0
 31
0.0
 73
     1
 44
1.0
1001
ACAD
1000
MTEXTBEGIN
1070
    73
1070
     1
1070
    44
1040
1.0
1070
    74
1070
     0
1000
MTEXTEND
  0
POINT
  5
6EB7
330
1257
100
AcDbEntity
  8
DEFPOINTS
 62
     0
100
AcDbPoint
 10
1931.239321156048
 20
428.5776832431024
 30
0.0
  0
POINT
  5
6EB8
330
1257
100
AcDbEntity
  8
DEFPOINTS
 62
     0
100
AcDbPoint
 10
2152.846523252604
 20
986.1591056555289
 30
0.0
  0
POINT
  5
6EB9
330
1257
100
AcDbEntity
  8
DEFPOINTS
 62
     0
100
AcDbPoint
 10
2234.286743260863
 20
986.1591056555289
 30
0.0
  0
ENDBLK
  5
16AD
330
1257
100
AcDbEntity
  8
0
100
AcDbBlockEnd
  0
BLOCK
  5
12D6
330
12A6
100
AcDbEntity
  8
0
100
AcDbBlockBegin
  2
*D2
 70
     1
 10
0.0
 20
0.0
 30
0.0
  3
*D2
  1

  0
LINE
  5
6DAF
330
12A6
100
AcDbEntity
  8
MEASURE
 62
     9
370
    -2
100
AcDbLine
 10
1434.231508656055
 20
550.0777748431073
 30
0.0
 11
1434.231508656055
 21
636.5777748431074
 31
0.0
  0
LINE
  5
6DB0
330
12A6
100
AcDbEntity
  8
MEASURE
 62
     9
370
    -2
100
AcDbLine
 10
1964.231417056056
 20
550.0777748431073
 30
0.0
 11
1964.231417056056
 21
636.5777748431074
 31
0.0
  0
LINE
  5
6DB1
330
12A6
100
AcDbEntity
  8
MEASURE
 62
     9
370
    -2
100
AcDbLine
 10
1446.731508656055
 20
626.5777748431073
 30
0.0
 11
1951.731417056056
 21
626.5777748431073
 31
0.0
  0
SOLID
  5
6DB2
330
12A6
100
AcDbEntity
  8
MEASURE
 62
     9
100
AcDbTrace
 10
1446.731508656055
 20
628.6611081764407
 30
0.0
 11
1446.731508656055
 21
624.494441509774
 31
0.0
 12
1434.231508656055
 22
626.5777748431073
 32
0.0
 13
1434.231508656055
 23
626.5777748431073
 33
0.0
  0
SOLID
  5
6DB3
330
12A6
100
AcDbEntity
  8
MEASURE
 62
     9
100
AcDbTrace
 10
1951.731417056056
 20
628.6611081764407
 30
0.0
 11
1951.731417056056
 21
624.494441509774
 31
0.0
 12
1964.231417056056
 22
626.5777748431073
 32
0.0
 13
1964.231417056056
 23
626.5777748431073
 33
0.0
  0
MTEXT
  5
6DB4
330
12A6
100
AcDbEntity
  8
MEASURE
 62
     2
100
AcDbMText
 10
1699.231462856056
 20
637.8277748431074
 30
0.0
 40
17.5
 41
0.0
 71
     5
 72
     1
  1
\A1;530
  7
AD-STANDARD
 73
     1
 44
1.0
1001
ACAD
1000
MTEXTBEGIN
1070
    73
1070
     1
1070
    44
1040
1.0
1070
    74
1070
     0
1000
MTEXTEND
  0
POINT
  5
6DB5
330
12A6
100
AcDbEntity
  8
DEFPOINTS
 62
     0
100
AcDbPoint
 10
1434.231508656055
 20
545.0777748431073
 30
0.0
  0
POINT
  5
6DB6
330
12A6
100
AcDbEntity
  8
DEFPOINTS
 62
     0
100
AcDbPoint
 10
1964.231417056056
 20
545.0777748431073
 30
0.0
  0
POINT
  5
6DB7
330
12A6
100
AcDbEntity
  8
DEFPOINTS
 62
     0
100
AcDbPoint
 10
1964.231417056056
 20
626.5777748431073
 30
0.0
  0
ENDBLK
  5
12E0
330
12A6
100
AcDbEntity
  8
0
100
AcDbBlockEnd
  0
BLOCK
  5
1310
330
130F
100
AcDbEntity
  8
0
100
AcDbBlockBegin
  2
*D3
 70
     1
 10
0.0
 20
0.0
 30
0.0
  3
*D3
  1

  0
LINE
  5
6DC1
330
130F
100
AcDbEntity
  8
MEASURE
 62
     9
370
    -2
100
AcDbLine
 10
1429.231508656055
 20
486.5777748431074
 30
0.0
 11
1354.231508656055
 21
486.5777748431074
 31
0.0
  0
LINE
  5
6DC2
330
130F
100
AcDbEntity
  8
MEASURE
 62
     9
370
    -2
100
AcDbLine
 10
1440.731523856056
 20
556.5777748431073
 30
0.0
 11
1354.231508656055
 21
556.5777748431073
 31
0.0
  0
LINE
  5
6DC3
330
130F
100
AcDbEntity
  8
MEASURE
 62
     9
370
    -2
100
AcDbLine
 10
1364.231508656055
 20
499.0777748431074
 30
0.0
 11
1364.231508656056
 21
544.0777748431073
 31
0.0
  0
SOLID
  5
6DC4
330
130F
100
AcDbEntity
  8
MEASURE
 62
     9
100
AcDbTrace
 10
1362.148175322722
 20
499.0777748431074
 30
0.0
 11
1366.314841989388
 21
499.0777748431074
 31
0.0
 12
1364.231508656055
 22
486.5777748431074
 32
0.0
 13
1364.231508656055
 23
486.5777748431074
 33
0.0
  0
SOLID
  5
6DC5
330
130F
100
AcDbEntity
  8
MEASURE
 62
     9
100
AcDbTrace
 10
1362.148175322722
 20
544.0777748431073
 30
0.0
 11
1366.314841989389
 21
544.0777748431073
 31
0.0
 12
1364.231508656056
 22
556.5777748431073
 32
0.0
 13
1364.231508656056
 23
556.5777748431073
 33
0.0
  0
MTEXT
  5
6DC6
330
130F
100
AcDbEntity
  8
MEASURE
 62
     2
100
AcDbMText
 10
1352.981508656055
 20
521.5777748431076
 30
0.0
 40
17.5
 41
0.0
 71
     5
 72
     1
  1
\A1;70
  7
AD-STANDARD
 11
0.0000000000000001
 21
1.0
 31
0.0
 73
     1
 44
1.0
1001
ACAD
1000
MTEXTBEGIN
1070
    73
1070
     1
1070
    44
1040
1.0
1070
    74
1070
     0
1000
MTEXTEND
  0
POINT
  5
6DC7
330
130F
100
AcDbEntity
  8
DEFPOINTS
 62
     0
100
AcDbPoint
 10
1434.231508656055
 20
486.5777748431074
 30
0.0
  0
POINT
  5
6DC8
330
130F
100
AcDbEntity
  8
DEFPOINTS
 62
     0
100
AcDbPoint
 10
1445.731523856056
 20
556.5777748431073
 30
0.0
  0
POINT
  5
6DC9
330
130F
100
AcDbEntity
  8
DEFPOINTS
 62
     0
100
AcDbPoint
 10
1364.231508656056
 20
556.5777748431073
 30
0.0
  0
ENDBLK
  5
131A
330
130F
100
AcDbEntity
  8
0
100
AcDbBlockEnd
  0
BLOCK
  5
16B6
330
131C
100
AcDbEntity
  8
0
100
AcDbBlockBegin
  2
*D4
 70
     1
 10
0.0
 20
0.0
 30
0.0
  3
*D4
  1

  0
LINE
  5
6E02
330
131C
100
AcDbEntity
  8
MEASURE
 62
     9
370
    -2
100
AcDbLine
 10
1462.231523856055
 20
428.5781716431046
 30
0.0
 11
1319.231508656055
 21
428.5781716431047
 31
0.0
  0
LINE
  5
6E03
330
131C
100
AcDbEntity
  8
MEASURE
 62
     9
370
    -2
100
AcDbLine
 10
1440.731523856056
 20
556.5777748431073
 30
0.0
 11
1319.231508656055
 21
556.5777748431073
 31
0.0
  0
LINE
  5
6E04
330
131C
100
AcDbEntity
  8
MEASURE
 62
     9
370
    -2
100
AcDbLine
 10
1329.231508656055
 20
441.0781716431047
 30
0.0
 11
1329.231508656055
 21
544.0777748431073
 31
0.0
  0
SOLID
  5
6E05
330
131C
100
AcDbEntity
  8
MEASURE
 62
     9
100
AcDbTrace
 10
1327.148175322722
 20
441.0781716431047
 30
0.0
 11
1331.314841989388
 21
441.0781716431047
 31
0.0
 12
1329.231508656055
 22
428.5781716431047
 32
0.0
 13
1329.231508656055
 23
428.5781716431047
 33
0.0
  0
SOLID
  5
6E06
330
131C
100
AcDbEntity
  8
MEASURE
 62
     9
100
AcDbTrace
 10
1327.148175322722
 20
544.0777748431073
 30
0.0
 11
1331.314841989389
 21
544.0777748431073
 31
0.0
 12
1329.231508656055
 22
556.5777748431073
 32
0.0
 13
1329.231508656055
 23
556.5777748431073
 33
0.0
  0
MTEXT
  5
6E07
330
131C
100
AcDbEntity
  8
MEASURE
 62
     2
100
AcDbMText
 10
1317.981508656055
 20
492.5779732431063
 30
0.0
 40
17.5
 41
0.0
 71
     5
 72
     1
  1
\A1;129～139
  7
AD-STANDARD
 11
0.0000000000000001
 21
1.0
 31
0.0
 73
     1
 44
1.0
1001
ACAD
1000
MTEXTBEGIN
1070
    73
1070
     1
1070
    44
1040
1.0
1070
    74
1070
     0
1000
MTEXTEND
  0
POINT
  5
6E08
330
131C
100
AcDbEntity
  8
DEFPOINTS
 62
     0
100
AcDbPoint
 10
1467.231523856055
 20
428.5781716431046
 30
0.0
  0
POINT
  5
6E09
330
131C
100
AcDbEntity
  8
DEFPOINTS
 62
     0
100
AcDbPoint
 10
1445.731523856056
 20
556.5777748431073
 30
0.0
  0
POINT
  5
6E0A
330
131C
100
AcDbEntity
  8
DEFPOINTS
 62
     0
100
AcDbPoint
 10
1329.231508656055
 20
556.5777748431073
 30
0.0
  0
ENDBLK
  5
16C0
330
131C
100
AcDbEntity
  8
0
100
AcDbBlockEnd
  0
BLOCK
  5
132A
330
1329
100
AcDbEntity
  8
0
100
AcDbBlockBegin
  2
*D5
 70
     1
 10
0.0
 20
0.0
 30
0.0
  3
*D5
  1

  0
LINE
  5
6E8E
330
1329
100
AcDbEntity
  8
MEASURE
 62
     9
370
    -2
100
AcDbLine
 10
744.4124358590159
 20
423.5781716431018
 30
0.0
 11
744.4124358590159
 21
348.5781716431018
 31
0.0
  0
LINE
  5
6E8F
330
1329
100
AcDbEntity
  8
MEASURE
 62
     9
370
    -2
100
AcDbLine
 10
1044.412435859016
 20
423.5781716431017
 30
0.0
 11
1044.412435859016
 21
348.5781716431018
 31
0.0
  0
LINE
  5
6E90
330
1329
100
AcDbEntity
  8
MEASURE
 62
     9
370
    -2
100
AcDbLine
 10
756.9124358590159
 20
358.5781716431018
 30
0.0
 11
1031.912435859016
 21
358.5781716431018
 31
0.0
  0
SOLID
  5
6E91
330
1329
100
AcDbEntity
  8
MEASURE
 62
     9
100
AcDbTrace
 10
756.9124358590159
 20
360.6615049764351
 30
0.0
 11
756.9124358590159
 21
356.4948383097684
 31
0.0
 12
744.4124358590159
 22
358.5781716431018
 32
0.0
 13
744.4124358590159
 23
358.5781716431018
 33
0.0
  0
SOLID
  5
6E92
330
1329
100
AcDbEntity
  8
MEASURE
 62
     9
100
AcDbTrace
 10
1031.912435859016
 20
360.6615049764351
 30
0.0
 11
1031.912435859016
 21
356.4948383097684
 31
0.0
 12
1044.412435859016
 22
358.5781716431018
 32
0.0
 13
1044.412435859016
 23
358.5781716431018
 33
0.0
  0
MTEXT
  5
6E93
330
1329
100
AcDbEntity
  8
MEASURE
 62
     2
100
AcDbMText
 10
894.412435859016
 20
369.8281716431018
 30
0.0
 40
17.5
 41
0.0
 71
     5
 72
     1
  1
\A1;300
  7
AD-STANDARD
 73
     1
 44
1.0
1001
ACAD
1000
MTEXTBEGIN
1070
    73
1070
     1
1070
    44
1040
1.0
1070
    74
1070
     0
1000
MTEXTEND
  0
POINT
  5
6E94
330
1329
100
AcDbEntity
  8
DEFPOINTS
 62
     0
100
AcDbPoint
 10
744.4124358590159
 20
428.5781716431018
 30
0.0
  0
POINT
  5
6E95
330
1329
100
AcDbEntity
  8
DEFPOINTS
 62
     0
100
AcDbPoint
 10
1044.412435859016
 20
428.5781716431017
 30
0.0
  0
POINT
  5
6E96
330
1329
100
AcDbEntity
  8
DEFPOINTS
 62
     0
100
AcDbPoint
 10
1044.412435859016
 20
358.5781716431018
 30
0.0
  0
ENDBLK
  5
1334
330
1329
100
AcDbEntity
  8
0
100
AcDbBlockEnd
  0
BLOCK
  5
1337
330
1336
100
AcDbEntity
  8
0
100
AcDbBlockBegin
  2
*D6
 70
     1
 10
0.0
 20
0.0
 30
0.0
  3
*D6
  1

  0
LINE
  5
6EBA
330
1336
100
AcDbEntity
  8
MEASURE
 62
     9
370
    -2
100
AcDbLine
 10
1479.231523856055
 20
423.5781716431047
 30
0.0
 11
1479.231523856055
 21
348.5781716431018
 31
0.0
  0
LINE
  5
6EBB
330
1336
100
AcDbEntity
  8
MEASURE
 62
     9
370
    -2
100
AcDbLine
 10
1434.231508656055
 20
481.5777748431073
 30
0.0
 11
1434.231508656055
 21
348.5781716431018
 31
0.0
  0
LINE
  5
6EBC
330
1336
100
AcDbEntity
  8
MEASURE
 62
     9
370
    -2
100
AcDbLine
 10
1466.731523856055
 20
358.5781716431018
 30
0.0
 11
1446.731508656055
 21
358.5781716431018
 31
0.0
  0
SOLID
  5
6EBD
330
1336
100
AcDbEntity
  8
MEASURE
 62
     9
100
AcDbTrace
 10
1466.731523856055
 20
360.6615049764351
 30
0.0
 11
1466.731523856055
 21
356.4948383097684
 31
0.0
 12
1479.231523856055
 22
358.5781716431018
 32
0.0
 13
1479.231523856055
 23
358.5781716431018
 33
0.0
  0
SOLID
  5
6EBE
330
1336
100
AcDbEntity
  8
MEASURE
 62
     9
100
AcDbTrace
 10
1446.731508656055
 20
360.6615049764351
 30
0.0
 11
1446.731508656055
 21
356.4948383097684
 31
0.0
 12
1434.231508656055
 22
358.5781716431018
 32
0.0
 13
1434.231508656055
 23
358.5781716431018
 33
0.0
  0
MTEXT
  5
6EBF
330
1336
100
AcDbEntity
  8
MEASURE
 62
     2
100
AcDbMText
 10
1456.731516256055
 20
369.8281716431018
 30
0.0
 40
17.5
 41
0.0
 71
     5
 72
     1
  1
\A1;45
  7
AD-STANDARD
 73
     1
 44
1.0
1001
ACAD
1000
MTEXTBEGIN
1070
    73
1070
     1
1070
    44
1040
1.0
1070
    74
1070
     0
1000
MTEXTEND
  0
POINT
  5
6EC0
330
1336
100
AcDbEntity
  8
DEFPOINTS
 62
     0
100
AcDbPoint
 10
1479.231523856055
 20
428.5781716431046
 30
0.0
  0
POINT
  5
6EC1
330
1336
100
AcDbEntity
  8
DEFPOINTS
 62
     0
100
AcDbPoint
 10
1434.231508656055
 20
486.5777748431074
 30
0.0
  0
POINT
  5
6EC2
330
1336
100
AcDbEntity
  8
DEFPOINTS
 62
     0
100
AcDbPoint
 10
1434.231508656055
 20
358.5781716431018
 30
0.0
  0
ENDBLK
  5
1341
330
1336
100
AcDbEntity
  8
0
100
AcDbBlockEnd
  0
BLOCK
  5
1376
330
1375
100
AcDbEntity
  8
0
100
AcDbBlockBegin
  2
*D7
 70
     1
 10
0.0
 20
0.0
 30
0.0
  3
*D7
  1

  0
LINE
  5
6ED5
330
1375
100
AcDbEntity
  8
MEASURE
 62
     9
370
    -2
100
AcDbLine
 10
1479.231523856055
 20
423.5781716431047
 30
0.0
 11
1479.231523856055
 21
348.5781716431018
 31
0.0
  0
LINE
  5
6ED6
330
1375
100
AcDbEntity
  8
MEASURE
 62
     9
370
    -2
100
AcDbLine
 10
1919.231523856055
 20
423.5781716431047
 30
0.0
 11
1919.231523856055
 21
348.5781716431018
 31
0.0
  0
LINE
  5
6ED7
330
1375
100
AcDbEntity
  8
MEASURE
 62
     9
370
    -2
100
AcDbLine
 10
1491.731523856055
 20
358.5781716431018
 30
0.0
 11
1906.731523856055
 21
358.5781716431018
 31
0.0
  0
SOLID
  5
6ED8
330
1375
100
AcDbEntity
  8
MEASURE
 62
     9
100
AcDbTrace
 10
1491.731523856055
 20
360.6615049764351
 30
0.0
 11
1491.731523856055
 21
356.4948383097684
 31
0.0
 12
1479.231523856055
 22
358.5781716431018
 32
0.0
 13
1479.231523856055
 23
358.5781716431018
 33
0.0
  0
SOLID
  5
6ED9
330
1375
100
AcDbEntity
  8
MEASURE
 62
     9
100
AcDbTrace
 10
1906.731523856055
 20
360.6615049764351
 30
0.0
 11
1906.731523856055
 21
356.4948383097684
 31
0.0
 12
1919.231523856055
 22
358.5781716431018
 32
0.0
 13
1919.231523856055
 23
358.5781716431018
 33
0.0
  0
MTEXT
  5
6EDA
330
1375
100
AcDbEntity
  8
MEASURE
 62
     2
100
AcDbMText
 10
1699.231523856055
 20
369.8281716431018
 30
0.0
 40
17.5
 41
0.0
 71
     5
 72
     1
  1
\A1;440
  7
AD-STANDARD
 73
     1
 44
1.0
1001
ACAD
1000
MTEXTBEGIN
1070
    73
1070
     1
1070
    44
1040
1.0
1070
    74
1070
     0
1000
MTEXTEND
  0
POINT
  5
6EDB
330
1375
100
AcDbEntity
  8
DEFPOINTS
 62
     0
100
AcDbPoint
 10
1479.231523856055
 20
428.5781716431046
 30
0.0
  0
POINT
  5
6EDC
330
1375
100
AcDbEntity
  8
DEFPOINTS
 62
     0
100
AcDbPoint
 10
1919.231523856055
 20
428.5781716431046
 30
0.0
  0
POINT
  5
6EDD
330
1375
100
AcDbEntity
  8
DEFPOINTS
 62
     0
100
AcDbPoint
 10
1919.231523856055
 20
358.5781716431018
 30
0.0
  0
ENDBLK
  5
1380
330
1375
100
AcDbEntity
  8
0
100
AcDbBlockEnd
  0
BLOCK
  5
1383
330
1382
100
AcDbEntity
  8
0
100
AcDbBlockBegin
  2
*D8
 70
     1
 10
0.0
 20
0.0
 30
0.0
  3
*D8
  1

  0
LINE
  5
6EDE
330
1382
100
AcDbEntity
  8
MEASURE
 62
     9
370
    -2
100
AcDbLine
 10
1919.231523856055
 20
423.5781716431047
 30
0.0
 11
1919.231523856055
 21
348.5781716431018
 31
0.0
  0
LINE
  5
6EDF
330
1382
100
AcDbEntity
  8
MEASURE
 62
     9
370
    -2
100
AcDbLine
 10
2106.231417056058
 20
423.5776832431022
 30
0.0
 11
2106.231417056058
 21
348.5781716431018
 31
0.0
  0
LINE
  5
6EE0
330
1382
100
AcDbEntity
  8
MEASURE
 62
     9
370
    -2
100
AcDbLine
 10
1931.731523856055
 20
358.5781716431018
 30
0.0
 11
2093.731417056058
 21
358.5781716431018
 31
0.0
  0
SOLID
  5
6EE1
330
1382
100
AcDbEntity
  8
MEASURE
 62
     9
100
AcDbTrace
 10
1931.731523856055
 20
360.6615049764351
 30
0.0
 11
1931.731523856055
 21
356.4948383097684
 31
0.0
 12
1919.231523856055
 22
358.5781716431018
 32
0.0
 13
1919.231523856055
 23
358.5781716431018
 33
0.0
  0
SOLID
  5
6EE2
330
1382
100
AcDbEntity
  8
MEASURE
 62
     9
100
AcDbTrace
 10
2093.731417056058
 20
360.6615049764351
 30
0.0
 11
2093.731417056058
 21
356.4948383097684
 31
0.0
 12
2106.231417056058
 22
358.5781716431018
 32
0.0
 13
2106.231417056058
 23
358.5781716431018
 33
0.0
  0
MTEXT
  5
6EE3
330
1382
100
AcDbEntity
  8
MEASURE
 62
     2
100
AcDbMText
 10
2012.731470456056
 20
369.8281716431018
 30
0.0
 40
17.5
 41
0.0
 71
     5
 72
     1
  1
\A1;187
  7
AD-STANDARD
 73
     1
 44
1.0
1001
ACAD
1000
MTEXTBEGIN
1070
    73
1070
     1
1070
    44
1040
1.0
1070
    74
1070
     0
1000
MTEXTEND
  0
POINT
  5
6EE4
330
1382
100
AcDbEntity
  8
DEFPOINTS
 62
     0
100
AcDbPoint
 10
1919.231523856055
 20
428.5781716431046
 30
0.0
  0
POINT
  5
6EE5
330
1382
100
AcDbEntity
  8
DEFPOINTS
 62
     0
100
AcDbPoint
 10
2106.231417056058
 20
428.5776832431022
 30
0.0
  0
POINT
  5
6EE6
330
1382
100
AcDbEntity
  8
DEFPOINTS
 62
     0
100
AcDbPoint
 10
2106.231417056058
 20
358.5781716431018
 30
0.0
  0
ENDBLK
  5
138D
330
1382
100
AcDbEntity
  8
0
100
AcDbBlockEnd
  0
BLOCK
  5
6D5C
330
6D52
100
AcDbEntity
  8
0
100
AcDbBlockBegin
  2
*D9
 70
     1
 10
0.0
 20
0.0
 30
0.0
  3
*D9
  1

  0
LINE
  5
6D67
330
6D52
100
AcDbEntity
  8
MEASURE
 62
     9
370
    -2
100
AcDbLine
 10
699.4124358590234
 20
550.0777748431072
 30
0.0
 11
699.4124358590234
 21
636.5777748431074
 31
0.0
  0
LINE
  5
6D68
330
6D52
100
AcDbEntity
  8
MEASURE
 62
     9
370
    -2
100
AcDbLine
 10
1089.412435859023
 20
550.0777748431072
 30
0.0
 11
1089.412435859023
 21
636.5777748431074
 31
0.0
  0
LINE
  5
6D69
330
6D52
100
AcDbEntity
  8
MEASURE
 62
     9
370
    -2
100
AcDbLine
 10
711.9124358590234
 20
626.5777748431073
 30
0.0
 11
1076.912435859023
 21
626.5777748431073
 31
0.0
  0
SOLID
  5
6D6A
330
6D52
100
AcDbEntity
  8
MEASURE
 62
     9
100
AcDbTrace
 10
711.9124358590234
 20
628.6611081764407
 30
0.0
 11
711.9124358590234
 21
624.494441509774
 31
0.0
 12
699.4124358590234
 22
626.5777748431073
 32
0.0
 13
699.4124358590234
 23
626.5777748431073
 33
0.0
  0
SOLID
  5
6D6B
330
6D52
100
AcDbEntity
  8
MEASURE
 62
     9
100
AcDbTrace
 10
1076.912435859023
 20
628.6611081764407
 30
0.0
 11
1076.912435859023
 21
624.494441509774
 31
0.0
 12
1089.412435859023
 22
626.5777748431073
 32
0.0
 13
1089.412435859023
 23
626.5777748431073
 33
0.0
  0
MTEXT
  5
6D6C
330
6D52
100
AcDbEntity
  8
MEASURE
 62
     2
100
AcDbMText
 10
894.4124358590233
 20
637.8277748431074
 30
0.0
 40
17.5
 41
0.0
 71
     5
 72
     1
  1
\A1;390
  7
AD-STANDARD
 73
     1
 44
1.0
1001
ACAD
1000
MTEXTBEGIN
1070
    73
1070
     1
1070
    44
1040
1.0
1070
    74
1070
     0
1000
MTEXTEND
  0
POINT
  5
6D6D
330
6D52
100
AcDbEntity
  8
DEFPOINTS
 62
     0
100
AcDbPoint
 10
699.4124358590234
 20
545.0777748431072
 30
0.0
  0
POINT
  5
6D6E
330
6D52
100
AcDbEntity
  8
DEFPOINTS
 62
     0
100
AcDbPoint
 10
1089.412435859023
 20
545.0777748431072
 30
0.0
  0
POINT
  5
6D6F
330
6D52
100
AcDbEntity
  8
DEFPOINTS
 62
     0
100
AcDbPoint
 10
1089.412435859023
 20
626.5777748431073
 30
0.0
  0
ENDBLK
  5
6D5D
330
6D52
100
AcDbEntity
  8
0
100
AcDbBlockEnd
  0
ENDSEC
  0
SECTION
  2
ENTITIES
  0
ARC
  5
AC2
330
1A
100
AcDbEntity
  8
0
100
AcDbCircle
 10
-987.2964001393777
 20
-370.2416105790198
 30
801.5590032344981
 40
30.0
210
0.0000000000000005
220
0.9205048534524403
230
0.3907311284892737
100
AcDbArc
 50
89.99985419520328
 51
172.7437708830956
  0
ARC
  5
AC3
330
1A
100
AcDbEntity
  8
0
100
AcDbCircle
 10
-801.6951499487786
 20
-370.2416105790204
 30
801.5590032344977
 40
30.0
210
0.0000000000000003
220
0.9205048534524403
230
0.3907311284892737
100
AcDbArc
 50
7.256229116904334
 51
90.00014580479671
  0
ARC
  5
C79
330
1A
100
AcDbEntity
  8
0
100
AcDbCircle
 10
-586.7393269457507
 20
-428.969019800502
 30
826.8043665253244
 40
180.0
210
0.0000000000000005
220
0.9205048534524403
230
0.3907311284892737
100
AcDbArc
 50
181.0000000000023
 51
195.4393555178335
  0
ARC
  5
C7A
330
1A
100
AcDbEntity
  8
0
100
AcDbCircle
 10
-586.7393269457507
 20
-428.969019800502
 30
826.8043665253244
 40
184.0
210
0.0000000000000005
220
0.9205048534524403
230
0.3907311284892737
100
AcDbArc
 50
181.0000000000023
 51
195.4393555178335
  0
ARC
  5
C7B
330
1A
100
AcDbEntity
  8
0
100
AcDbCircle
 10
-1202.252230944936
 20
-428.9690198005068
 30
826.8043665253244
 40
180.0
210
0.0000000000000005
220
0.9205048534524403
230
0.3907311284892737
100
AcDbArc
 50
344.5606444821677
 51
358.9999999999988
  0
ARC
  5
C7C
330
1A
100
AcDbEntity
  8
0
100
AcDbCircle
 10
-1202.252230944936
 20
-428.9690198005068
 30
826.8043665253244
 40
184.0
210
0.0000000000000005
220
0.9205048534524403
230
0.3907311284892737
100
AcDbArc
 50
344.5606444821677
 51
358.9999999999988
  0
ARC
  5
C7D
330
1A
100
AcDbEntity
  8
0
100
AcDbCircle
 10
-1202.252230944936
 20
-427.0153641580606
 30
822.2018422580623
 40
180.0
210
0.0000000000000005
220
0.9205048534524403
230
0.3907311284892737
100
AcDbArc
 50
344.5606444821677
 51
358.9999999999988
  0
ARC
  5
C7E
330
1A
100
AcDbEntity
  8
0
100
AcDbCircle
 10
-586.7393191432263
 20
-426.6246330295695
 30
821.2813374046044
 40
180.0
210
-0.0000000000000059
220
0.9205048534524403
230
0.3907311284892737
100
AcDbArc
 50
181.0000000000012
 51
195.4393555178323
  0
ARC
  5
C7F
330
1A
100
AcDbEntity
  8
0
100
AcDbCircle
 10
-586.7393191432263
 20
-427.0153641580588
 30
822.2018422580566
 40
180.0
210
-0.0000000000000059
220
0.9205048534524403
230
0.3907311284892737
100
AcDbArc
 50
181.0000000000012
 51
195.4393555178323
  0
ARC
  5
C80
330
1A
100
AcDbEntity
  8
0
100
AcDbCircle
 10
-586.7393191432263
 20
-428.9690198005052
 30
826.8043665253188
 40
180.0
210
-0.0000000000000059
220
0.9205048534524403
230
0.3907311284892737
100
AcDbArc
 50
181.0000000000012
 51
195.4393555178323
  0
LINE
  5
C81
330
1A
100
AcDbEntity
  8
0
100
AcDbLine
 10
920.9957750440784
 20
968.4962524779027
 30
-165.5899151962796
 11
920.9957750440782
 21
945.63848146128
 31
-111.7403812693119
210
0.0000000000000005
220
0.9205048534524403
230
0.3907311284892737
  0
LINE
  5
C82
330
1A
100
AcDbEntity
  8
0
100
AcDbLine
 10
920.7457750440784
 20
968.3985696957808
 30
-165.3597889829175
 11
920.7457750440783
 21
945.7361642434028
 31
-111.9705074826759
210
0.0000000000000005
220
0.9205048534524403
230
0.3907311284892737
  0
LINE
  5
C83
330
1A
100
AcDbEntity
  8
0
100
AcDbLine
 10
924.9957750440783
 20
960.8769954723618
 30
-147.640070553957
 11
924.9957750440783
 21
912.230969975447
 31
-33.0372162991282
210
0.0000000000000005
220
0.9205048534524403
230
0.3907311284892737
  0
LINE
  5
C84
330
1A
100
AcDbEntity
  8
0
100
AcDbLine
 10
924.4957750440784
 20
960.8769954723626
 30
-147.6400705539588
 11
924.4957750440782
 21
911.8402388469577
 31
-32.11671144567572
210
0.0000000000000005
220
0.9205048534524403
230
0.3907311284892737
  0
LINE
  5
C85
330
1A
100
AcDbEntity
  8
0
100
AcDbLine
 10
924.9957828466069
 20
911.8402388469577
 30
-32.11671144567504
 11
924.9957828466053
 21
960.8769954723614
 31
-147.6400705539563
210
0.0000000000000005
220
0.9205048534524403
230
0.3907311284892737
  0
ARC
  5
C86
330
1A
100
AcDbEntity
  8
0
100
AcDbCircle
 10
-846.9957750440785
 20
-500.8479542892771
 30
826.8043665253244
 40
82.0
210
0.0000000000000005
220
0.9205048534524403
230
0.3907311284892737
100
AcDbArc
 50
339.0751675723619
 51
19.6159791354064
  0
ARC
  5
C87
330
1A
100
AcDbEntity
  8
0
 48
0.25
100
AcDbCircle
 10
-847.2457750440785
 20
-500.8479542892771
 30
826.8043665253244
 40
82.0
210
0.0000000000000005
220
0.9205048534524403
230
0.3907311284892737
100
AcDbArc
 50
339.2940840833436
 51
19.39888991009711
  0
ARC
  5
C88
330
1A
100
AcDbEntity
  8
0
100
AcDbCircle
 10
-1202.252230944936
 20
-424.2802462586356
 30
815.7583082838954
 40
180.0
210
0.0000000000000005
220
0.9205048534524403
230
0.3907311284892737
100
AcDbArc
 50
344.5606444821677
 51
358.9999999999988
  0
ARC
  5
C89
330
1A
100
AcDbEntity
  8
0
100
AcDbCircle
 10
-1202.252230944936
 20
-426.6246330295714
 30
821.2813374046099
 40
180.0
210
0.0000000000000005
220
0.9205048534524403
230
0.3907311284892737
100
AcDbArc
 50
344.5606444821677
 51
358.9999999999988
  0
ARC
  5
C8A
330
1A
100
AcDbEntity
  8
0
100
AcDbCircle
 10
-586.7393191432263
 20
-424.2802462586339
 30
815.7583082838897
 40
180.0
210
-0.0000000000000059
220
0.9205048534524403
230
0.3907311284892737
100
AcDbArc
 50
181.0000000000012
 51
195.4393555178323
  0
ARC
  5
C8B
330
1A
100
AcDbEntity
  8
0
100
AcDbCircle
 10
-927.9957750440789
 20
-535.847954289277
 30
826.8043665253244
 40
2.0
210
0.0000000000000005
220
0.9205048534524403
230
0.3907311284892737
100
AcDbArc
 50
270.0
 51
0.0
  0
ARC
  5
C8C
330
1A
100
AcDbEntity
  8
0
100
AcDbCircle
 10
-1008.546507571979
 20
-530.8479542892768
 30
826.8043665253244
 40
7.0
210
0.0000000000000005
220
0.9205048534524403
230
0.3907311284892737
100
AcDbArc
 50
204.2650859026864
 51
270.0
  0
ARC
  5
C8D
330
1A
100
AcDbEntity
  8
0
100
AcDbCircle
 10
-1007.379259197189
 20
-525.8479542892768
 30
826.8043665253244
 40
16.0
210
0.0000000000000005
220
0.9205048534524403
230
0.3907311284892737
100
AcDbArc
 50
200.9248324276372
 51
270.0
  0
ARC
  5
C8E
330
1A
100
AcDbEntity
  8
0
100
AcDbCircle
 10
-913.9957750440789
 20
-530.847954289277
 30
826.8043665253244
 40
7.0
210
0.0000000000000005
220
0.9205048534524403
230
0.3907311284892737
100
AcDbArc
 50
180.0
 51
270.0
  0
ARC
  5
C8F
330
1A
100
AcDbEntity
  8
0
100
AcDbCircle
 10
-913.7457750440789
 20
-530.597954289277
 30
826.8043665253244
 40
7.0
210
0.0000000000000005
220
0.9205048534524403
230
0.3907311284892737
100
AcDbArc
 50
180.0
 51
270.0
  0
ARC
  5
C90
330
1A
100
AcDbEntity
  8
0
100
AcDbCircle
 10
-781.6122908909692
 20
-525.847954289277
 30
826.8043665253244
 40
16.0
210
0.0000000000000005
220
0.9205048534524403
230
0.3907311284892737
100
AcDbArc
 50
270.0
 51
339.0751675723628
  0
ARC
  5
C91
330
1A
100
AcDbEntity
  8
0
100
AcDbCircle
 10
-781.6122908909692
 20
-525.847954289277
 30
826.8043665253244
 40
12.0
210
0.0000000000000005
220
0.9205048534524403
230
0.3907311284892737
100
AcDbArc
 50
270.0
 51
339.0751675723638
  0
ARC
  5
C92
330
1A
100
AcDbEntity
  8
0
 48
0.25
100
AcDbCircle
 10
-781.7672480294918
 20
-525.597954289277
 30
826.8043665253244
 40
12.0
210
0.0000000000000005
220
0.9205048534524403
230
0.3907311284892737
100
AcDbArc
 50
270.0
 51
339.2940840833436
  0
ARC
  5
C93
330
1A
100
AcDbEntity
  8
0
100
AcDbCircle
 10
-1007.379259197189
 20
-525.8479542892768
 30
826.8043665253244
 40
20.0
210
0.0000000000000005
220
0.9205048534524403
230
0.3907311284892737
100
AcDbArc
 50
200.9248324276372
 51
270.0
  0
ARC
  5
C94
330
1A
100
AcDbEntity
  8
0
100
AcDbCircle
 10
-781.6122908909692
 20
-525.847954289277
 30
826.8043665253244
 40
20.0
210
0.0000000000000005
220
0.9205048534524403
230
0.3907311284892737
100
AcDbArc
 50
270.0
 51
339.0751675723628
  0
LINE
  5
C95
330
1A
100
AcDbEntity
  8
0
100
AcDbLine
 10
1007.379259197188
 20
972.7942948912849
 30
-175.7154685842573
 11
781.6122908909688
 21
972.7942948912852
 31
-175.7154685842574
  0
LINE
  5
C96
330
1A
100
AcDbEntity
  8
0
100
AcDbLine
 10
781.6122908909691
 20
971.2313703773284
 30
-172.0334491704477
 11
913.9957750440784
 21
971.2313703773277
 31
-172.0334491704468
210
0.0000000000000005
220
0.9205048534524403
230
0.3907311284892737
  0
LINE
  5
C97
330
1A
100
AcDbEntity
  8
0
100
AcDbLine
 10
781.7672480294917
 20
971.133687595206
 30
-171.8033229570846
 11
913.7457750440784
 21
971.1336875952055
 31
-171.8033229570844
210
0.0000000000000005
220
0.9205048534524403
230
0.3907311284892737
  0
LINE
  5
C98
330
1A
100
AcDbEntity
  8
0
100
AcDbLine
 10
781.6122908909691
 20
974.3572194052426
 30
-179.3974879980674
 11
1007.379259197188
 21
974.3572194052418
 31
-179.3974879980662
210
0.0000000000000005
220
0.9205048534524403
230
0.3907311284892737
  0
LINE
  5
C99
330
1A
100
AcDbEntity
  8
0
100
AcDbLine
 10
1007.379259197214
 20
974.3572194052418
 30
-179.3974879980662
 11
781.6122908909436
 21
974.3572194052426
 31
-179.3974879980674
210
0.0000000000000005
220
0.9205048534524403
230
0.3907311284892737
  0
LINE
  5
C9A
330
1A
100
AcDbEntity
  8
0
100
AcDbLine
 10
851.9957750440841
 20
867.7820729186883
 30
-179.3974879980669
 11
851.9957750440841
 21
870.7820729186883
 31
-179.3974879980669
  0
LINE
  5
C9B
330
1A
100
AcDbEntity
  8
0
100
AcDbLine
 10
936.9957750440741
 20
867.781990210665
 30
-179.3974879980669
 11
936.9957750440741
 21
870.7819902106651
 31
-179.3974879980669
  0
LINE
  5
C9C
330
1A
100
AcDbEntity
  8
0
100
AcDbLine
 10
971.9957750440801
 20
867.7819561544202
 30
-179.3974879980669
 11
971.9957750440801
 21
870.7819561544202
 31
-179.3974879980669
  0
LINE
  5
C9D
330
1A
100
AcDbEntity
  8
0
100
AcDbLine
 10
816.9957750440786
 20
867.7821069749334
 30
-179.3974879980669
 11
816.9957750440786
 21
870.7821069749334
 31
-179.3974879980669
  0
LINE
  5
C9E
330
1A
100
AcDbEntity
  8
0
100
AcDbLine
 10
927.9957750440788
 20
971.2313703773277
 30
-172.0334491704468
 11
1008.546507571978
 21
971.2313703773277
 31
-172.0334491704468
210
0.0000000000000005
220
0.9205048534524403
230
0.3907311284892737
  0
LINE
  5
C9F
330
1A
100
AcDbEntity
  8
0
 48
0.1
100
AcDbLine
 10
784.9957750440743
 20
965.3704034499879
 30
-158.2258763686577
 11
909.9957750440738
 21
965.3704034499876
 31
-158.2258763686577
210
0.0000000000000005
220
0.9205048534524403
230
0.3907311284892737
  0
LINE
  5
CA0
330
1A
100
AcDbEntity
  8
0
 48
0.1
100
AcDbLine
 10
784.9957750440743
 20
947.0060404109917
 30
-114.9621482563932
 11
909.9957750440738
 21
947.0060404109915
 31
-114.962148256393
210
0.0000000000000005
220
0.9205048534524403
230
0.3907311284892737
  0
ARC
  5
CA1
330
1A
100
AcDbEntity
  8
0
100
AcDbCircle
 10
-942.8491711870949
 20
-500.7319634057001
 30
826.8043665253244
 40
89.14660385698349
210
0.0000000000000005
220
0.9205048534524403
230
0.3907311284892737
100
AcDbArc
 50
164.4864865151915
 51
191.3970563212888
  0
ARC
  5
CA2
330
1A
100
AcDbEntity
  8
0
100
AcDbCircle
 10
-942.8324994475662
 20
-500.7342278548101
 30
826.8043665253244
 40
85.16327726379186
210
0.0000000000000005
220
0.9205048534524403
230
0.3907311284892737
100
AcDbArc
 50
164.4845354435437
 51
191.7987439427779
  0
LINE
  5
CA3
330
1A
100
AcDbEntity
  8
0
 48
0.1
100
AcDbLine
 10
909.9957750440738
 20
965.3704034499876
 30
-158.2258763686577
 11
909.9957750440738
 21
947.0060404109915
 31
-114.962148256393
210
0.0000000000000005
220
0.9205048534524403
230
0.3907311284892737
  0
ARC
  5
CA4
330
1A
100
AcDbEntity
  8
0
100
AcDbCircle
 10
-941.9957750440786
 20
-500.8479542892771
 30
826.8043665253244
 40
86.0
210
0.0000000000000005
220
0.9205048534524403
230
0.3907311284892737
100
AcDbArc
 50
192.0814698847062
 51
200.9248324276391
  0
ARC
  5
CA5
330
1A
100
AcDbEntity
  8
0
100
AcDbCircle
 10
-941.9957750440786
 20
-500.8479542892771
 30
826.8043665253244
 40
90.0
210
0.0000000000000005
220
0.9205048534524403
230
0.3907311284892737
100
AcDbArc
 50
191.5369590328148
 51
200.9248324276391
  0
LINE
  5
CA6
330
1A
100
AcDbEntity
  8
0
100
AcDbLine
 10
932.9957750440783
 20
966.3472312712118
 30
-160.5271385022913
 11
1015.356186711407
 21
966.3472312712118
 31
-160.5271385022913
210
0.0000000000000005
220
0.9205048534524403
230
0.3907311284892737
  0
ARC
  5
CA7
330
1A
100
AcDbEntity
  8
0
100
AcDbCircle
 10
-941.9957750440786
 20
-500.8479542892771
 30
826.8043665253244
 40
80.0
210
0.0000000000000005
220
0.9205048534524403
230
0.3907311284892737
100
AcDbArc
 50
199.8612529467867
 51
204.2650859026835
  0
ARC
  5
CA8
330
1A
100
AcDbEntity
  8
0
100
AcDbCircle
 10
-1015.356186711408
 20
-527.3479542892768
 30
826.8043665253244
 40
2.0
210
0.0000000000000005
220
0.9205048534524403
230
0.3907311284892737
100
AcDbArc
 50
90.0
 51
199.861252946807
  0
ARC
  5
CA9
330
1A
100
AcDbEntity
  8
0
100
AcDbCircle
 10
-932.9957750440792
 20
-532.347954289277
 30
826.8043665253244
 40
7.0
210
0.0000000000000005
220
0.9205048534524403
230
0.3907311284892737
100
AcDbArc
 50
0.0
 51
90.0
  0
LINE
  5
CAA
330
1A
100
AcDbEntity
  8
0
100
AcDbLine
 10
925.9957750440785
 20
970.4499081203492
 30
-170.1924394635418
 11
925.9957750440785
 21
969.0823491706366
 31
-166.9706724764582
210
0.0000000000000005
220
0.9205048534524403
230
0.3907311284892737
  0
LINE
  5
CAB
330
1A
100
AcDbEntity
  8
0
100
AcDbLine
 10
931.9957750440783
 20
963.6121133717868
 30
-154.0836045281241
 11
1029.258309960272
 21
963.6121133717868
 31
-154.0836045281241
210
0.0000000000000005
220
0.9205048534524403
230
0.3907311284892737
  0
LINE
  5
CAC
330
1A
100
AcDbEntity
  8
0
100
AcDbLine
 10
931.9957828466053
 20
963.6121133717862
 30
-154.0836045281232
 11
1030.2379224336
 21
963.6121133717862
 31
-154.0836045281232
210
0.0000000000000005
220
0.9205048534524403
230
0.3907311284892737
  0
LINE
  5
CAD
330
1A
100
AcDbEntity
  8
0
100
AcDbLine
 10
931.9957750440789
 20
963.8074789360318
 30
-154.5438569548521
 11
1030.177405784273
 21
963.8074789360315
 31
-154.5438569548503
210
0.0000000000000005
220
0.9205048534524403
230
0.3907311284892737
  0
ARC
  5
CAE
330
1A
100
AcDbEntity
  8
0
100
AcDbCircle
 10
-941.9957750440786
 20
-500.8479542892771
 30
826.8043665253244
 40
89.0
210
0.0000000000000005
220
0.9205048534524403
230
0.3907311284892737
100
AcDbArc
 50
191.3399134476776
 51
191.6683994964641
  0
ARC
  5
CAF
330
1A
100
AcDbEntity
  8
0
100
AcDbCircle
 10
-931.9957750440787
 20
-511.347954289277
 30
826.8043665253244
 40
7.0
210
0.0000000000000005
220
0.9205048534524403
230
0.3907311284892737
100
AcDbArc
 50
270.0
 51
0.0
  0
ARC
  5
CB0
330
1A
100
AcDbEntity
  8
0
100
AcDbCircle
 10
-931.9957828466057
 20
-511.3479542892761
 30
826.8043665253244
 40
7.0
210
0.0000000000000005
220
0.9205048534524403
230
0.3907311284892737
100
AcDbArc
 50
270.0
 51
0.0000000000007994
  0
ARC
  5
CB1
330
1A
100
AcDbEntity
  8
0
100
AcDbCircle
 10
-931.9957750440787
 20
-511.347954289278
 30
826.8043665253244
 40
7.5
210
0.0000000000000005
220
0.9205048534524403
230
0.3907311284892737
100
AcDbArc
 50
269.9999999999989
 51
0.0
  0
ARC
  5
CB2
330
1A
100
AcDbEntity
  8
0
100
AcDbCircle
 10
-942.8491711870949
 20
-498.7783077632537
 30
822.2018422580623
 40
89.14660385698349
210
0.0000000000000005
220
0.9205048534524403
230
0.3907311284892737
100
AcDbArc
 50
164.4864865151915
 51
182.0582285817593
  0
ARC
  5
CB3
330
1A
100
AcDbEntity
  8
0
100
AcDbCircle
 10
-942.8491711870949
 20
-496.0431898638288
 30
815.7583082838954
 40
89.14660385698349
210
0.0000000000000005
220
0.9205048534524403
230
0.3907311284892737
100
AcDbArc
 50
164.4864865151915
 51
182.0582285817593
  0
ARC
  5
CB4
330
1A
100
AcDbEntity
  8
0
100
AcDbCircle
 10
-942.8491711870949
 20
-498.3875766347644
 30
821.2813374046099
 40
89.14660385698349
210
0.0000000000000005
220
0.9205048534524403
230
0.3907311284892737
100
AcDbArc
 50
164.4864865151915
 51
182.0582285817593
  0
LINE
  5
CB5
330
1A
100
AcDbEntity
  8
0
100
AcDbLine
 10
1031.938261510852
 20
955.4779885393456
 30
-134.9208072977123
 11
1031.938261510852
 21
943.4779885393457
 31
-134.9208072977123
  0
LINE
  5
CB6
330
1A
100
AcDbEntity
  8
0
100
AcDbLine
 10
920.9958245245902
 20
949.5457927461727
 30
-120.9454298038363
 11
920.9958245245902
 21
950.1318894389076
 31
-122.3261870840167
210
0.0000000000000005
220
0.9205048534524403
230
0.3907311284892737
  0
ARC
  5
CB7
330
1A
100
AcDbEntity
  8
0
100
AcDbCircle
 10
-846.9957750440785
 20
-500.8479542892771
 30
826.8043665253244
 40
90.0
210
0.0000000000000005
220
0.9205048534524403
230
0.3907311284892737
100
AcDbArc
 50
339.0751675723607
 51
15.43935551783416
  0
ARC
  5
CB8
330
1A
100
AcDbEntity
  8
0
100
AcDbCircle
 10
-846.9957750440785
 20
-500.8479542892771
 30
826.8043665253244
 40
86.0
210
0.0000000000000005
220
0.9205048534524403
230
0.3907311284892737
100
AcDbArc
 50
339.0751675723607
 51
15.43935551783416
  0
LINE
  5
CB9
330
1A
100
AcDbEntity
  8
0
 48
0.1
100
AcDbLine
 10
784.9957750440743
 20
965.3704034499879
 30
-158.2258763686577
 11
784.9957750440743
 21
947.0060404109917
 31
-114.9621482563932
210
0.0000000000000005
220
0.9205048534524403
230
0.3907311284892737
  0
ARC
  5
CBA
330
1A
100
AcDbEntity
  8
0
100
AcDbCircle
 10
-846.1423789010682
 20
-498.387576634763
 30
821.2813374046044
 40
89.14660385698349
210
-0.0000000000000059
220
0.9205048534524403
230
0.3907311284892737
100
AcDbArc
 50
357.9417714182406
 51
15.51351348480848
  0
ARC
  5
CBB
330
1A
100
AcDbEntity
  8
0
100
AcDbCircle
 10
-846.1423789010682
 20
-498.778307763252
 30
822.2018422580566
 40
89.14660385698349
210
-0.0000000000000059
220
0.9205048534524403
230
0.3907311284892737
100
AcDbArc
 50
357.9417714182406
 51
15.51351348480848
  0
ARC
  5
CBC
330
1A
100
AcDbEntity
  8
0
100
AcDbCircle
 10
-846.1423789010682
 20
-496.0431898638272
 30
815.7583082838897
 40
89.14660385698349
210
-0.0000000000000059
220
0.9205048534524403
230
0.3907311284892737
100
AcDbArc
 50
357.9417714182407
 51
15.51351348480848
  0
LINE
  5
CBD
330
1A
100
AcDbEntity
  8
0
100
AcDbLine
 10
757.0532885773054
 20
955.477988539345
 30
-134.9208072977123
 11
757.0532885773052
 21
943.4779885393449
 31
-134.9208072977123
  0
DIMENSION
  5
CC0
330
1A
100
AcDbEntity
  8
MEASURE
100
AcDbDimension
  2
*D0
 10
2164.286743260863
 20
323.5781716431018
 30
0.0
 11
1799.259125958459
 21
334.8281716431018
 31
0.0
 70
    32
  1
（730）
 71
     5
 42
730.055234604807
  3
AD-STANDARD
100
AcDbAlignedDimension
 13
1434.231508656055
 23
486.5777748431074
 33
0.0
 14
2164.286743260863
 24
967.4280509948912
 34
0.0
100
AcDbRotatedDimension
1001
ACAD
1000
DSTYLE
1002
{
1070
    40
1040
5.0
1070
   140
1040
3.5
1070
   271
1070
     3
1070
   272
1070
     8
1070
   289
1070
     1
1002
}
  0
LINE
  5
CC2
330
1A
100
AcDbEntity
  8
0
 48
0.25
100
AcDbLine
 10
2045.071985912381
 20
939.9045857193867
 30
0.0
 11
2043.234647537222
 21
939.1145302180648
 31
0.0
  0
ARC
  5
CC3
330
1A
100
AcDbEntity
  8
0
 48
0.25
100
AcDbCircle
 10
2044.153316724802
 20
939.5095579687254
 30
0.0
 40
1.0
100
AcDbArc
 50
23.26770481015119
 51
203.2677048101512
  0
LINE
  5
CC4
330
1A
100
AcDbEntity
  8
0
100
AcDbLine
 10
2091.95181367786
 20
948.0890693347573
 30
0.0
 11
2015.702271108722
 21
915.3017660300205
 31
0.0
  0
LINE
  5
CC5
330
1A
100
AcDbEntity
  8
0
100
AcDbLine
 10
2018.538568495152
 20
905.6360627025496
 30
0.0
 11
2088.492351149962
 21
935.7161892441313
 31
0.0
  0
LINE
  5
CC6
330
1A
100
AcDbEntity
  8
0
100
AcDbLine
 10
2023.450523229959
 20
903.3940787570626
 30
0.0
 11
2092.679555933054
 21
933.1625628194069
 31
0.0
  0
LINE
  5
CC7
330
1A
100
AcDbEntity
  8
0
100
AcDbLine
 10
2131.059560993143
 20
976.8792430042813
 30
0.0
 11
2030.612301373686
 21
933.6869213677164
 31
0.0
  0
LINE
  5
CC8
330
1A
100
AcDbEntity
  8
0
100
AcDbLine
 10
2135.404866250416
 20
966.7738819408633
 30
0.0
 11
2014.783601921236
 21
914.9067382791296
 31
0.0
  0
ARC
  5
CC9
330
1A
100
AcDbEntity
  8
0
100
AcDbCircle
 10
2051.342424385885
 20
888.1783441599194
 30
0.0
 40
10.0
100
AcDbArc
 50
212.1483639605882
 51
270.0000000000021
  0
LINE
  5
CCA
330
1A
100
AcDbEntity
  8
0
100
AcDbLine
 10
2159.409692121862
 20
976.0074259453194
 30
0.0
 11
2016.097298859381
 21
914.3830968424408
 31
0.0
  0
LINE
  5
CCB
330
1A
100
AcDbEntity
  8
0
100
AcDbLine
 10
2160.524956515583
 20
976.7046958586929
 30
0.0
 11
2015.930637391055
 21
914.5291386348603
 31
0.0
  0
LINE
  5
CDF
330
1A
100
AcDbEntity
  8
0
100
AcDbLine
 10
1516.261692911481
 20
441.0777748431073
 30
0.0
 11
1882.209135701519
 21
441.0777748431073
 31
0.0
  0
LINE
  5
CE0
330
1A
100
AcDbEntity
  8
0
100
AcDbLine
 10
1580.830416056056
 20
452.5777748431074
 30
0.0
 11
1491.528322556056
 21
452.5777748431074
 31
0.0
  0
LINE
  5
CE1
330
1A
100
AcDbEntity
  8
0
100
AcDbLine
 10
1969.625826256055
 20
459.5777748431073
 30
0.0
 11
1461.595613856056
 21
459.5777748431073
 31
0.0
  0
LINE
  5
CE2
330
1A
100
AcDbEntity
  8
0
100
AcDbLine
 10
1434.231508656055
 20
486.5777748431074
 30
0.0
 11
1964.231417056056
 21
486.5777748431074
 31
0.0
  0
LINE
  5
CE3
330
1A
100
AcDbEntity
  8
0
100
AcDbLine
 10
1952.731417056056
 20
556.5777748431073
 30
0.0
 11
1445.731523856056
 21
556.5777748431073
 31
0.0
  0
ARC
  5
CE6
330
1A
100
AcDbEntity
  8
0
100
AcDbCircle
 10
1445.731523856056
 20
545.0777748431073
 30
0.0
 40
11.5
100
AcDbArc
 50
90.0
 51
180.0
  0
LINE
  5
CE7
330
1A
100
AcDbEntity
  8
0
100
AcDbLine
 10
1434.231508656055
 20
545.0777748431073
 30
0.0
 11
1434.231508656055
 21
486.5777748431074
 31
0.0
  0
ARC
  5
CE9
330
1A
100
AcDbEntity
  8
0
100
AcDbCircle
 10
1461.595613856056
 20
465.5777748431074
 30
0.0
 40
6.0
100
AcDbArc
 50
196.6990966999999
 51
270.0
  0
LINE
  5
CF4
330
1A
100
AcDbEntity
  8
0
100
AcDbLine
 10
1493.59885399022
 20
447.5776832431116
 30
0.0
 11
1489.231523856056
 21
459.5777748431073
 31
0.0
  0
LINE
  5
D04
330
1A
100
AcDbEntity
  8
0
100
AcDbLine
 10
1455.848619856056
 20
463.8536843431075
 30
0.0
 11
1449.031511656056
 21
486.5777748431074
 31
0.0
  0
LINE
  5
D05
330
1A
100
AcDbEntity
  8
0
100
AcDbLine
 10
1777.230318456055
 20
452.0777748431073
 30
0.0
 11
1843.231417056056
 21
452.0777748431073
 31
0.0
  0
LINE
  5
D06
330
1A
100
AcDbEntity
  8
0
100
AcDbLine
 10
1651.231417056056
 20
452.0777748431073
 30
0.0
 11
1710.231417056055
 21
452.0777748431073
 31
0.0
  0
LINE
  5
D07
330
1A
100
AcDbEntity
  8
0
100
AcDbLine
 10
1643.231417056056
 20
452.0777748431073
 30
0.0
 11
1643.614477556055
 21
441.0777748431073
 31
0.0
  0
LINE
  5
D08
330
1A
100
AcDbEntity
  8
0
100
AcDbLine
 10
1651.231417056056
 20
452.0777748431073
 30
0.0
 11
1650.846525556055
 21
441.0777748431073
 31
0.0
  0
LINE
  5
D09
330
1A
100
AcDbEntity
  8
0
100
AcDbLine
 10
1581.231417056056
 20
452.5777748431074
 30
0.0
 11
1581.632418056055
 21
441.0777748431073
 31
0.0
  0
LINE
  5
D0A
330
1A
100
AcDbEntity
  8
0
100
AcDbLine
 10
1590.231417056056
 20
452.0777748431073
 30
0.0
 11
1589.846514056056
 21
441.0777748431073
 31
0.0
  0
LINE
  5
D0B
330
1A
100
AcDbEntity
  8
0
100
AcDbLine
 10
1590.616320056055
 20
452.0777748431073
 30
0.0
 11
1643.231417056056
 21
452.0777748431073
 31
0.0
  0
LINE
  5
D0C
330
1A
100
AcDbEntity
  8
0
100
AcDbLine
 10
1777.230318456055
 20
452.0777748431073
 30
0.0
 11
1776.845308656056
 21
441.0777748431073
 31
0.0
  0
LINE
  5
D0D
330
1A
100
AcDbEntity
  8
0
100
AcDbLine
 10
1769.230318456055
 20
452.0777748431073
 30
0.0
 11
1769.614229556056
 21
441.0777748431073
 31
0.0
  0
LINE
  5
D0E
330
1A
100
AcDbEntity
  8
0
100
AcDbLine
 10
1710.231417056055
 20
452.0777748431073
 30
0.0
 11
1710.614477556055
 21
441.0777748431073
 31
0.0
  0
LINE
  5
D0F
330
1A
100
AcDbEntity
  8
0
100
AcDbLine
 10
1718.231417056056
 20
452.0777748431073
 30
0.0
 11
1717.846527456056
 21
441.0777748431073
 31
0.0
  0
LINE
  5
D10
330
1A
100
AcDbEntity
  8
0
100
AcDbLine
 10
1718.616306656056
 20
452.0777748431073
 30
0.0
 11
1769.230318456055
 21
452.0777748431073
 31
0.0
  0
LINE
  5
D11
330
1A
100
AcDbEntity
  8
0
100
AcDbLine
 10
1852.231417056056
 20
452.5777748431074
 30
0.0
 11
1909.416569279831
 21
452.5777748431072
 31
0.0
  0
LINE
  5
D16
330
1A
100
AcDbEntity
  8
0
100
AcDbLine
 10
1843.231417056056
 20
452.0777748431073
 30
0.0
 11
1843.615312956055
 21
441.0777748431073
 31
0.0
  0
LINE
  5
D17
330
1A
100
AcDbEntity
  8
0
100
AcDbLine
 10
1852.231417056056
 20
452.5777748431074
 30
0.0
 11
1851.828920756055
 21
441.0777748431073
 31
0.0
  0
LINE
  5
D18
330
1A
100
AcDbEntity
  8
0
100
AcDbLine
 10
1904.863773026941
 20
447.5776832431024
 30
0.0
 11
1906.683321356055
 21
452.5777748431074
 31
0.0
  0
ARC
  5
D1B
330
1A
100
AcDbEntity
  8
0
100
AcDbCircle
 10
1952.731417056056
 20
545.0777748431073
 30
0.0
 40
11.5
100
AcDbArc
 50
0.0
 51
90.0
  0
LINE
  5
D1C
330
1A
100
AcDbEntity
  8
0
100
AcDbLine
 10
1964.231417056056
 20
545.0777748431073
 30
0.0
 11
1964.231417056056
 21
486.5777748431074
 31
0.0
  0
LINE
  5
D1D
330
1A
100
AcDbEntity
  8
0
100
AcDbLine
 10
1994.799410256055
 20
458.5078896431073
 30
0.0
 11
1995.231417056056
 21
470.7777871431071
 31
0.0
  0
ARC
  5
D1E
330
1A
100
AcDbEntity
  8
0
100
AcDbCircle
 10
1992.800417256056
 20
458.5777748431073
 30
0.0
 40
2.0
100
AcDbArc
 50
270.0
 51
357.9833679
  0
ARC
  5
D1F
330
1A
100
AcDbEntity
  8
0
100
AcDbCircle
 10
1971.662325256056
 20
458.5777748431073
 30
0.0
 40
2.0
100
AcDbArc
 50
182.0168152
 51
270.0
  0
LINE
  5
D20
330
1A
100
AcDbEntity
  8
0
100
AcDbLine
 10
1969.663423856055
 20
458.5078896431073
 30
0.0
 11
1969.625826256055
 21
459.5777748431073
 31
0.0
  0
LINE
  5
D21
330
1A
100
AcDbEntity
  8
0
100
AcDbLine
 10
1971.662325256056
 20
456.5777748431073
 30
0.0
 11
1992.800417256056
 21
456.5777748431073
 31
0.0
  0
ARC
  5
D22
330
1A
100
AcDbEntity
  8
0
100
AcDbCircle
 10
1936.867418656056
 20
465.5777748431074
 30
0.0
 40
6.0
100
AcDbArc
 50
270.0
 51
343.3010024999999
  0
ARC
  5
D23
330
1A
100
AcDbEntity
  8
0
100
AcDbCircle
 10
1936.999315656056
 20
455.5777748431073
 30
0.0
 40
3.0
100
AcDbArc
 50
270.0
 51
343.3003998
  0
ARC
  5
D24
330
1A
100
AcDbEntity
  8
0
100
AcDbCircle
 10
1994.431429256056
 20
470.7777871431071
 30
0.0
 40
0.8
100
AcDbArc
 50
0.0
 51
90.0
  0
LINE
  5
D25
330
1A
100
AcDbEntity
  8
0
100
AcDbLine
 10
1960.749330856055
 20
470.7777871431071
 30
0.0
 11
1969.231417056056
 21
470.7777871431071
 31
0.0
  0
ARC
  5
D26
330
1A
100
AcDbEntity
  8
0
100
AcDbCircle
 10
1970.031313256055
 20
470.7777871431071
 30
0.0
 40
0.8
100
AcDbArc
 50
90.0
 51
180.0
  0
ARC
  5
D27
330
1A
100
AcDbEntity
  8
0
100
AcDbCircle
 10
1960.749330856055
 20
474.7777871431071
 30
0.0
 40
4.0
100
AcDbArc
 50
181.9966125000002
 51
270.0
  0
LINE
  5
D28
330
1A
100
AcDbEntity
  8
0
100
AcDbLine
 10
1970.031313256055
 20
471.5777748431073
 30
0.0
 11
1994.431429256056
 21
471.5777748431073
 31
0.0
  0
LINE
  5
D29
330
1A
100
AcDbEntity
  8
0
100
AcDbLine
 10
1939.872911856055
 20
454.7156838431074
 30
0.0
 11
1949.431413956055
 21
486.5777748431074
 31
0.0
  0
LINE
  5
D2A
330
1A
100
AcDbEntity
  8
0
100
AcDbLine
 10
1956.336122856055
 20
486.5777748431074
 30
0.0
 11
1956.752413156056
 21
474.6388710431074
 31
0.0
  0
LINE
  5
D3F
330
1A
100
AcDbEntity
  8
0
100
AcDbLine
 10
1929.046478432278
 20
452.5777748431074
 30
0.0
 11
1936.999315656056
 21
452.5777748431074
 31
0.0
  0
ARC
  5
D40
330
1A
100
AcDbEntity
  8
0
100
AcDbCircle
 10
-798.4957750440766
 20
-415.8479542892754
 30
826.8043665253244
 40
20.0
210
0.0000000000000005
220
0.9205048534524403
230
0.3907311284892737
100
AcDbArc
 50
0.0
 51
90.0
  0
ARC
  5
D41
330
1A
100
AcDbEntity
  8
0
100
AcDbCircle
 10
-798.4957750440781
 20
-416.097954289275
 30
826.8043665253244
 40
20.0
210
0.0000000000000005
220
0.9205048534524403
230
0.3907311284892737
100
AcDbArc
 50
0.0
 51
90.0
  0
ARC
  5
D42
330
1A
100
AcDbEntity
  8
0
100
AcDbCircle
 10
-798.745775044078
 20
-416.347954289275
 30
826.8043665253244
 40
20.0
210
0.0000000000000005
220
0.9205048534524403
230
0.3907311284892737
100
AcDbArc
 50
359.9999999999964
 51
90.00000000000088
  0
LINE
  5
D43
330
1A
100
AcDbEntity
  8
0
100
AcDbLine
 10
914.9957750440764
 20
934.6980098635807
 30
-85.96624537264347
 11
914.9957750440764
 21
916.5290123888292
 31
-43.16276968710508
210
0.0000000000000005
220
0.9205048534524403
230
0.3907311284892737
  0
LINE
  5
D44
330
1A
100
AcDbEntity
  8
0
100
AcDbLine
 10
914.7457750440779
 20
934.6980098635807
 30
-85.96624537264393
 11
914.7457750440779
 21
916.7243779530743
 31
-43.62302211383166
210
0.0000000000000005
220
0.9205048534524403
230
0.3907311284892737
  0
LINE
  5
D45
330
1A
100
AcDbEntity
  8
0
100
AcDbLine
 10
914.9957750440778
 20
934.795692645703
 30
-86.19637158600722
 11
914.9957750440778
 21
916.626695170952
 31
-43.3928959004686
210
0.0000000000000005
220
0.9205048534524403
230
0.3907311284892737
  0
ARC
  5
D46
330
1A
100
AcDbEntity
  8
0
100
AcDbCircle
 10
-797.0448610440294
 20
-419.9664583760813
 30
826.8043665253244
 40
26.1185502118284
210
0.0000000000000005
220
0.9205048534524403
230
0.3907311284892737
100
AcDbArc
 50
0.2626104772850812
 51
89.89232088829099
  0
ARC
  5
D47
330
1A
100
AcDbEntity
  8
0
100
AcDbCircle
 10
-992.0649713215109
 20
-419.8466668330774
 30
826.8043665253244
 40
26.0
210
0.0000000000000005
220
0.9205048534524403
230
0.3907311284892737
100
AcDbArc
 50
89.42981080968909
 51
179.9999999999964
  0
ARC
  5
D48
330
1A
100
AcDbEntity
  8
0
100
AcDbCircle
 10
-991.9912130052864
 20
-415.8479542892764
 30
826.8043665253244
 40
30.0
210
0.0000000000000005
220
0.9205048534524403
230
0.3907311284892737
100
AcDbArc
 50
90.0
 51
178.9999999999897
  0
ARC
  5
D49
330
1A
100
AcDbEntity
  8
0
100
AcDbCircle
 10
-796.9957750440785
 20
-415.8479542892773
 30
826.8043665253244
 40
30.0
210
0.0000000000000005
220
0.9205048534524403
230
0.3907311284892737
100
AcDbArc
 50
0.0
 51
90.0
  0
ARC
  5
D4A
330
1A
100
AcDbEntity
  8
0
100
AcDbCircle
 10
-991.9912110165453
 20
-415.0664541540808
 30
824.9632675829325
 40
30.0
210
0.0000000000000005
220
0.9205048534524403
230
0.3907311284892737
100
AcDbArc
 50
89.99985419520392
 51
178.9999999999897
  0
ARC
  5
D4B
330
1A
100
AcDbEntity
  8
0
100
AcDbCircle
 10
-797.0003390716178
 20
-415.0664541540792
 30
824.9632675829269
 40
30.0
210
-0.0000000000000059
220
0.9205048534524403
230
0.3907311284892737
100
AcDbArc
 50
1.000000000010224
 51
90.00014580479607
  0
ARC
  5
D4C
330
1A
100
AcDbEntity
  8
0
100
AcDbCircle
 10
-797.0003399938278
 20
-414.6757218955053
 30
824.0427600671623
 40
30.0
210
-0.0000000000000059
220
0.9205048534524403
230
0.3907311284892737
100
AcDbArc
 50
1.000000000010224
 51
90.00013523002955
  0
ARC
  5
D4D
330
1A
100
AcDbEntity
  8
0
100
AcDbCircle
 10
-797.0003370828767
 20
-415.8479542892745
 30
826.8043665253188
 40
30.0
210
-0.0000000000000059
220
0.9205048534524403
230
0.3907311284892737
100
AcDbArc
 50
1.000000000010224
 51
90.0
  0
ARC
  5
D4E
330
1A
100
AcDbEntity
  8
0
100
AcDbCircle
 10
-797.0003410602771
 20
-409.5962126593225
 30
812.0761862158776
 40
30.0
210
-0.0000000000000059
220
0.9205048534524403
230
0.3907311284892737
100
AcDbArc
 50
7.256229116904332
 51
90.00014580479671
  0
ARC
  5
D4F
330
1A
100
AcDbEntity
  8
0
100
AcDbCircle
 10
-797.0003388890765
 20
-410.4722275058809
 30
814.1399478646384
 40
30.0
210
-0.0000000000000059
220
0.9205048534524403
230
0.3907311284892737
100
AcDbArc
 50
7.256229116904332
 51
90.00014580479671
  0
ARC
  5
D50
330
1A
100
AcDbEntity
  8
0
100
AcDbCircle
 10
-991.9912111990868
 20
-410.4722275058827
 30
814.1399478646439
 40
30.0
210
0.0000000000000005
220
0.9205048534524403
230
0.3907311284892737
100
AcDbArc
 50
89.99985419520328
 51
172.7437708830956
  0
ARC
  5
D51
330
1A
100
AcDbEntity
  8
0
100
AcDbCircle
 10
-991.991209027886
 20
-409.5962126593244
 30
812.0761862158833
 40
30.0
210
0.0000000000000005
220
0.9205048534524403
230
0.3907311284892737
100
AcDbArc
 50
89.99985419520328
 51
172.7437708830956
  0
LINE
  5
D52
330
1A
100
AcDbEntity
  8
0
100
AcDbLine
 10
1021.750945737143
 20
906.0815010187827
 30
-46.82020369889587
 11
1022.279645816787
 21
917.9164371589992
 31
-74.70156600419795
210
0.0000000000000005
220
0.9205048534524403
230
0.3907311284892737
  0
ARC
  5
D53
330
1A
100
AcDbEntity
  8
0
100
AcDbCircle
 10
-991.9912100943355
 20
-414.6757218955071
 30
824.0427600671676
 40
30.0
210
0.0000000000000005
220
0.9205048534524403
230
0.3907311284892737
100
AcDbArc
 50
89.99986476997044
 51
178.9999999999897
  0
LINE
  5
D54
330
1A
100
AcDbEntity
  8
0
100
AcDbLine
 10
767.2406043510139
 20
906.0815010187818
 30
-46.82020369889587
 11
766.71190427137
 21
917.9164371589987
 31
-74.70156600419795
210
-0.0000000000000059
220
0.9205048534524403
230
0.3907311284892737
  0
LWPOLYLINE
  5
D55
330
1A
100
AcDbEntity
  8
0
100
AcDbPolyline
 90
        8
 70
     1
 43
0.0
 38
820.7780214392318
 10
-793.4957750440776
 20
-418.8264789909061
 10
-808.4957750440775
 20
-418.8264789909061
 42
0.4142135623730951
 10
-810.4957750440776
 20
-420.8264789909062
 10
-810.4957750440776
 20
-428.8264789909058
 42
0.4142135623730951
 10
-808.4957750440775
 20
-430.8264789909061
 10
-793.4957750440776
 20
-430.8264789909061
 42
0.4142135623730951
 10
-791.4957750440776
 20
-428.8264789909063
 10
-791.4957750440776
 20
-420.8264789909062
 42
0.4142135623730984
210
0.0000000000000005
220
0.9205048534524403
230
0.3907311284892737
  0
LWPOLYLINE
  5
D56
330
1A
100
AcDbEntity
  8
0
100
AcDbPolyline
 90
        8
 70
     1
 43
0.0
 38
820.7780214392309
 10
-793.4957750440776
 20
-441.8264789909062
 10
-808.4957750440775
 20
-441.8264789909062
 42
0.4142135623730951
 10
-810.4957750440776
 20
-443.8264789909053
 10
-810.4957750440776
 20
-451.826478990906
 42
0.4142135623730951
 10
-808.4957750440777
 20
-453.8264789909058
 10
-793.4957750440777
 20
-453.826478990906
 42
0.4142135623730951
 10
-791.4957750440777
 20
-451.826478990906
 10
-791.4957750440776
 20
-443.826478990906
 42
0.4142135623730984
210
0.0000000000000005
220
0.9205048534524403
230
0.3907311284892737
  0
LINE
  5
D57
330
1A
100
AcDbEntity
  8
0
100
AcDbLine
 10
780.4957750440769
 20
936.2609343775375
 30
-89.64826478645273
 11
912.9957750440764
 21
936.2609343775377
 31
-89.6482647864534
210
0.0000000000000005
220
0.9205048534524403
230
0.3907311284892737
  0
LINE
  5
D58
330
1A
100
AcDbEntity
  8
0
100
AcDbLine
 10
780.4957750440787
 20
935.4794721205589
 30
-87.80725507954775
 11
912.9957750440764
 21
935.4794721205591
 31
-87.80725507954844
210
0.0000000000000005
220
0.9205048534524403
230
0.3907311284892737
  0
LINE
  5
D59
330
1A
100
AcDbEntity
  8
0
100
AcDbLine
 10
780.7457750440801
 20
935.4794721205589
 30
-87.80725507954731
 11
912.7457750440779
 21
935.4794721205591
 31
-87.80725507954889
210
0.0000000000000005
220
0.9205048534524403
230
0.3907311284892737
  0
LINE
  5
D5A
330
1A
100
AcDbEntity
  8
0
100
AcDbLine
 10
780.49577504408
 20
935.5771549026812
 30
-88.0373812929106
 11
912.9957750440778
 21
935.5771549026815
 31
-88.03738129291195
210
0.0000000000000005
220
0.9205048534524403
230
0.3907311284892737
  0
LINE
  5
D5B
330
1A
100
AcDbEntity
  8
0
100
AcDbLine
 10
781.0583046649387
 20
942.9033635618552
 30
-105.2968472951443
 11
913.9957750440784
 21
942.903363561855
 31
-105.2968472951447
210
0.0000000000000005
220
0.9205048534524403
230
0.3907311284892737
  0
LINE
  5
D5C
330
1A
100
AcDbEntity
  8
0
100
AcDbLine
 10
781.2197385130259
 20
943.0010463439776
 30
-105.5269735085073
 11
913.7457750440782
 21
943.0010463439778
 31
-105.5269735085087
210
0.0000000000000005
220
0.9205048534524403
230
0.3907311284892737
  0
LINE
  5
D5D
330
1A
100
AcDbEntity
  8
0
100
AcDbLine
 10
780.4957750440769
 20
942.1219013048768
 30
-103.4558375882393
 11
912.9957750440782
 21
942.121901304876
 31
-103.4558375882381
210
0.0000000000000005
220
0.9205048534524403
230
0.3907311284892737
  0
ARC
  5
D5E
330
1A
100
AcDbEntity
  8
0
 48
0.25
100
AcDbCircle
 10
-1013.183282846606
 20
-458.347954289276
 30
826.8043665253244
 40
1.0
210
0.0000000000000005
220
0.9205048534524403
230
0.3907311284892737
100
AcDbArc
 50
90.0
 51
270.0
  0
ARC
  5
D5F
330
1A
100
AcDbEntity
  8
0
 48
0.25
100
AcDbCircle
 10
-949.995782846606
 20
-458.3479542892763
 30
826.8043665253244
 40
1.0
210
0.0000000000000005
220
0.9205048534524403
230
0.3907311284892737
100
AcDbArc
 50
270.0
 51
90.0
  0
LINE
  5
D60
330
1A
100
AcDbEntity
  8
0
100
AcDbLine
 10
914.9957750440764
 20
937.0423966345162
 30
-91.48927449335815
 11
914.9957750440783
 21
941.3404390478975
 31
-101.6148278813334
210
0.0000000000000005
220
0.9205048534524403
230
0.3907311284892737
  0
LINE
  5
D61
330
1A
100
AcDbEntity
  8
0
100
AcDbLine
 10
949.9957828466056
 20
943.2940946903443
 30
-106.2173521485963
 11
1013.495782846606
 21
943.2940946903443
 31
-106.2173521485963
210
0.0000000000000005
220
0.9205048534524403
230
0.3907311284892737
  0
LINE
  5
D62
330
1A
100
AcDbEntity
  8
0
100
AcDbLine
 10
949.9957828466056
 20
942.5126324333657
 30
-104.3763424416916
 11
1013.495782846606
 21
942.5126324333657
 31
-104.3763424416916
210
0.0000000000000005
220
0.9205048534524403
230
0.3907311284892737
  0
LINE
  5
D63
330
1A
100
AcDbEntity
  8
0
100
AcDbLine
 10
949.9957828466056
 20
940.5589767909193
 30
-99.77381817442939
 11
1013.183282846605
 21
940.5589767909193
 31
-99.77381817442939
210
0.0000000000000005
220
0.9205048534524403
230
0.3907311284892737
  0
ARC
  5
D64
330
1A
100
AcDbEntity
  8
0
 48
0.25
100
AcDbCircle
 10
-1013.495782846606
 20
-465.3479542892762
 30
826.8043665253244
 40
1.0
210
0.0000000000000005
220
0.9205048534524403
230
0.3907311284892737
100
AcDbArc
 50
90.0
 51
270.0
  0
ARC
  5
D65
330
1A
100
AcDbEntity
  8
0
 48
0.25
100
AcDbCircle
 10
-949.995782846606
 20
-465.3479542892762
 30
826.8043665253244
 40
1.0
210
0.0000000000000005
220
0.9205048534524403
230
0.3907311284892737
100
AcDbArc
 50
270.0
 51
90.0
  0
ARC
  5
D66
330
1A
100
AcDbEntity
  8
0
100
AcDbCircle
 10
-913.9957750440785
 20
-472.3479542892771
 30
826.8043665253244
 40
7.0
210
0.0000000000000005
220
0.9205048534524403
230
0.3907311284892737
100
AcDbArc
 50
90.0
 51
180.0
  0
ARC
  5
D67
330
1A
100
AcDbEntity
  8
0
100
AcDbCircle
 10
-913.7457750440786
 20
-472.5979542892772
 30
826.8043665253244
 40
7.0
210
0.0000000000000005
220
0.9205048534524403
230
0.3907311284892737
100
AcDbArc
 50
90.00000000000079
 51
180.0
  0
ARC
  5
D68
330
1A
100
AcDbEntity
  8
0
100
AcDbCircle
 10
-912.9957750440786
 20
-461.3479542892753
 30
826.8043665253244
 40
2.0
210
0.0000000000000005
220
0.9205048534524403
230
0.3907311284892737
100
AcDbArc
 50
180.0
 51
270.0000000000005
  0
LINE
  5
D69
330
1A
100
AcDbEntity
  8
0
100
AcDbLine
 10
949.9957828466056
 20
935.0887409920694
 30
-86.88675022609528
 11
1012.558282846606
 21
935.0887409920694
 31
-86.88675022609528
210
0.0000000000000005
220
0.9205048534524403
230
0.3907311284892737
  0
LINE
  5
D6A
330
1A
100
AcDbEntity
  8
0
100
AcDbLine
 10
949.9957828466056
 20
934.3072787350909
 30
-85.0457405191903
 11
1012.558282846606
 21
934.3072787350909
 31
-85.0457405191903
210
0.0000000000000005
220
0.9205048534524403
230
0.3907311284892737
  0
LINE
  5
D6B
330
1A
100
AcDbEntity
  8
0
100
AcDbLine
 10
949.9957828466056
 20
939.7775145339407
 30
-97.93280846752441
 11
1013.183282846605
 21
939.7775145339407
 31
-97.93280846752441
210
0.0000000000000005
220
0.9205048534524403
230
0.3907311284892737
  0
LINE
  5
D6C
330
1A
100
AcDbEntity
  8
0
100
AcDbLine
 10
949.9957828466056
 20
937.8238588914944
 30
-93.33028420026222
 11
1012.870782846606
 21
937.8238588914944
 31
-93.33028420026222
210
0.0000000000000005
220
0.9205048534524403
230
0.3907311284892737
  0
LINE
  5
D6D
330
1A
100
AcDbEntity
  8
0
100
AcDbLine
 10
949.9957828466056
 20
937.0423966345159
 30
-91.48927449335747
 11
1012.870782846606
 21
937.0423966345159
 31
-91.48927449335747
210
0.0000000000000005
220
0.9205048534524403
230
0.3907311284892737
  0
ARC
  5
D6E
330
1A
100
AcDbEntity
  8
0
 48
0.25
100
AcDbCircle
 10
-1012.870782846607
 20
-451.347954289276
 30
826.8043665253244
 40
1.0
210
0.0000000000000005
220
0.9205048534524403
230
0.3907311284892737
100
AcDbArc
 50
90.0
 51
270.0
  0
ARC
  5
D6F
330
1A
100
AcDbEntity
  8
0
 48
0.25
100
AcDbCircle
 10
-1012.558282846607
 20
-444.347954289276
 30
826.8043665253244
 40
1.0
210
0.0000000000000005
220
0.9205048534524403
230
0.3907311284892737
100
AcDbArc
 50
90.0
 51
270.0
  0
LWPOLYLINE
  5
D70
330
1A
100
AcDbEntity
  8
0
100
AcDbPolyline
 90
        8
 70
     1
 43
0.0
 38
820.7780214392304
 10
-817.4957750440777
 20
-441.9444786920604
 10
-832.4957750440773
 20
-441.9444786920604
 42
0.4142135623730951
 10
-834.4957750440773
 20
-443.9444786920605
 10
-834.4957750440775
 20
-451.9444786920607
 42
0.4142135623730951
 10
-832.4957750440775
 20
-453.9444786920606
 10
-817.4957750440777
 20
-453.9444786920606
 42
0.4142135623730951
 10
-815.4957750440777
 20
-451.9444786920607
 10
-815.4957750440775
 20
-443.9444786920605
 42
0.4142135623730984
210
0.0000000000000005
220
0.9205048534524403
230
0.3907311284892737
  0
LWPOLYLINE
  5
D71
330
1A
100
AcDbEntity
  8
0
100
AcDbPolyline
 90
        8
 70
     1
 43
0.0
 38
820.7780214392306
 10
-889.4957750440774
 20
-441.9444786920602
 10
-904.4957750440774
 20
-441.9444786920602
 42
0.4142135623730951
 10
-906.4957750440774
 20
-443.9444786920606
 10
-906.4957750440775
 20
-451.9444786920604
 42
0.4142135623730951
 10
-904.4957750440774
 20
-453.9444786920604
 10
-889.4957750440777
 20
-453.9444786920606
 42
0.4142135623730951
 10
-887.4957750440778
 20
-451.9444786920604
 10
-887.4957750440774
 20
-443.9444786920606
 42
0.4142135623730984
210
0.0000000000000005
220
0.9205048534524403
230
0.3907311284892737
  0
LWPOLYLINE
  5
D72
330
1A
100
AcDbEntity
  8
0
100
AcDbPolyline
 90
        8
 70
     1
 43
0.0
 38
820.7780214392306
 10
-841.4957750440773
 20
-441.9444786920605
 10
-856.4957750440774
 20
-441.9444786920605
 42
0.4142135623730951
 10
-858.4957750440773
 20
-443.9444786920605
 10
-858.4957750440775
 20
-451.9444786920607
 42
0.4142135623730951
 10
-856.4957750440775
 20
-453.9444786920607
 10
-841.4957750440777
 20
-453.9444786920608
 42
0.4142135623730951
 10
-839.4957750440777
 20
-451.9444786920607
 10
-839.4957750440774
 20
-443.9444786920605
 42
0.4142135623730984
210
0.0000000000000005
220
0.9205048534524403
230
0.3907311284892737
  0
LWPOLYLINE
  5
D73
330
1A
100
AcDbEntity
  8
0
100
AcDbPolyline
 90
        8
 70
     1
 43
0.0
 38
820.7780214392306
 10
-865.4957750440773
 20
-441.9444786920605
 10
-880.4957750440774
 20
-441.9444786920603
 42
0.4142135623730951
 10
-882.4957750440773
 20
-443.9444786920605
 10
-882.4957750440775
 20
-451.9444786920604
 42
0.4142135623730951
 10
-880.4957750440776
 20
-453.9444786920606
 10
-865.4957750440777
 20
-453.9444786920607
 42
0.4142135623730951
 10
-863.4957750440777
 20
-451.9444786920605
 10
-863.4957750440774
 20
-443.9444786920604
 42
0.4142135623730984
210
0.0000000000000005
220
0.9205048534524403
230
0.3907311284892737
  0
ARC
  5
D74
330
1A
100
AcDbEntity
  8
0
 48
0.25
100
AcDbCircle
 10
-949.995782846606
 20
-451.3479542892762
 30
826.8043665253244
 40
1.0
210
0.0000000000000005
220
0.9205048534524403
230
0.3907311284892737
100
AcDbArc
 50
270.0
 51
90.0
  0
ARC
  5
D75
330
1A
100
AcDbEntity
  8
0
100
AcDbCircle
 10
-912.9957750440766
 20
-444.3479542892772
 30
826.8043665253244
 40
2.0
210
0.0000000000000005
220
0.9205048534524403
230
0.3907311284892737
100
AcDbArc
 50
179.9999999999989
 51
270.0000000000005
  0
ARC
  5
D76
330
1A
100
AcDbEntity
  8
0
100
AcDbCircle
 10
-912.7457750440781
 20
-444.3479542892767
 30
826.8043665253244
 40
2.0
210
0.0000000000000005
220
0.9205048534524403
230
0.3907311284892737
100
AcDbArc
 50
180.0
 51
270.0000000000007
  0
ARC
  5
D77
330
1A
100
AcDbEntity
  8
0
100
AcDbCircle
 10
-912.995775044078
 20
-444.5979542892767
 30
826.8043665253244
 40
2.0
210
0.0000000000000005
220
0.9205048534524403
230
0.3907311284892737
100
AcDbArc
 50
179.9999999999989
 51
270.0000000000005
  0
ARC
  5
D78
330
1A
100
AcDbEntity
  8
0
 48
0.25
100
AcDbCircle
 10
-949.995782846606
 20
-444.3479542892762
 30
826.8043665253244
 40
1.0
210
0.0000000000000005
220
0.9205048534524403
230
0.3907311284892737
100
AcDbArc
 50
270.0
 51
90.0
  0
ARC
  5
D79
330
1A
100
AcDbEntity
  8
0
100
AcDbCircle
 10
-912.9957750440766
 20
-450.3479542892772
 30
826.8043665253244
 40
2.0
210
0.0000000000000005
220
0.9205048534524403
230
0.3907311284892737
100
AcDbArc
 50
90.00000000000047
 51
179.9999999999939
  0
LINE
  5
D7A
330
1A
100
AcDbEntity
  8
0
100
AcDbLine
 10
1018.049132824006
 20
924.7700498533884
 30
-62.577437294829
 11
1018.280255036161
 21
929.9437139528484
 31
-74.76582610351943
210
0.0000000000000005
220
0.9205048534524403
230
0.3907311284892737
  0
LINE
  5
D7B
330
1A
100
AcDbEntity
  8
0
100
AcDbLine
 10
1021.986643859978
 20
923.3575967477706
 30
-59.2499063043449
 11
1022.279645816787
 21
929.9164371589993
 31
-74.70156600419795
210
0.0000000000000005
220
0.9205048534524403
230
0.3907311284892737
  0
LINE
  5
D7C
330
1A
100
AcDbEntity
  8
0
100
AcDbLine
 10
1022.279645816786
 20
923.9164371589993
 30
-74.70156600419762
 11
1021.986640949027
 21
920.3574969136433
 31
-59.24990630434585
  0
LINE
  5
D7D
330
1A
100
AcDbEntity
  8
0
100
AcDbLine
 10
1022.279645816786
 20
924.9164371589992
 30
-74.70156600419762
 11
1021.986641871236
 21
921.3574998058737
 31
-59.24990630434582
  0
LWPOLYLINE
  5
D7E
330
1A
100
AcDbEntity
  8
0
100
AcDbPolyline
 90
        8
 70
     1
 43
0.0
 38
820.7780214392309
 10
-889.4957750440774
 20
-418.7084792897521
 10
-904.4957750440774
 20
-418.708479289752
 42
0.4142135623730951
 10
-906.4957750440774
 20
-420.7084792897521
 10
-906.4957750440774
 20
-428.7084792897518
 42
0.4142135623730951
 10
-904.4957750440774
 20
-430.7084792897521
 10
-889.4957750440775
 20
-430.7084792897521
 42
0.4142135623730951
 10
-887.4957750440776
 20
-428.7084792897518
 10
-887.4957750440774
 20
-420.7084792897521
 42
0.4142135623730984
210
0.0000000000000005
220
0.9205048534524403
230
0.3907311284892737
  0
LWPOLYLINE
  5
D7F
330
1A
100
AcDbEntity
  8
0
100
AcDbPolyline
 90
        8
 70
     1
 43
0.0
 38
820.7780214392307
 10
-865.4957750440773
 20
-418.708479289752
 10
-880.4957750440774
 20
-418.708479289752
 42
0.4142135623730951
 10
-882.4957750440773
 20
-420.708479289752
 10
-882.4957750440773
 20
-428.7084792897522
 42
0.4142135623730951
 10
-880.4957750440774
 20
-430.7084792897525
 10
-865.4957750440775
 20
-430.7084792897525
 42
0.4142135623730951
 10
-863.4957750440776
 20
-428.7084792897522
 10
-863.4957750440774
 20
-420.7084792897522
 42
0.4142135623730984
210
0.0000000000000005
220
0.9205048534524403
230
0.3907311284892737
  0
LINE
  5
D80
330
1A
100
AcDbEntity
  8
0
100
AcDbLine
 10
949.9957828466056
 20
932.3536230926444
 30
-80.44321625192811
 11
1012.245782846606
 21
932.3536230926444
 31
-80.44321625192811
210
0.0000000000000005
220
0.9205048534524403
230
0.3907311284892737
  0
LINE
  5
D81
330
1A
100
AcDbEntity
  8
0
100
AcDbLine
 10
949.9957828466056
 20
931.5721608356659
 30
-78.60220654502313
 11
1012.245782846606
 21
931.5721608356659
 31
-78.60220654502313
210
0.0000000000000005
220
0.9205048534524403
230
0.3907311284892737
  0
LINE
  5
D82
330
1A
100
AcDbEntity
  8
0
100
AcDbLine
 10
949.9957828466056
 20
929.6185051932196
 30
-73.99968227776094
 11
1011.933282846606
 21
929.6185051932196
 31
-73.99968227776094
210
0.0000000000000005
220
0.9205048534524403
230
0.3907311284892737
  0
LINE
  5
D83
330
1A
100
AcDbEntity
  8
0
100
AcDbLine
 10
949.9957828466056
 20
928.837042936241
 30
-72.15867257085619
 11
1011.933282846606
 21
928.837042936241
 31
-72.15867257085619
210
0.0000000000000005
220
0.9205048534524403
230
0.3907311284892737
  0
ARC
  5
D84
330
1A
100
AcDbEntity
  8
0
 48
0.25
100
AcDbCircle
 10
-1012.245782846607
 20
-437.347954289276
 30
826.8043665253244
 40
1.0
210
0.0000000000000005
220
0.9205048534524403
230
0.3907311284892737
100
AcDbArc
 50
90.0
 51
270.0
  0
ARC
  5
D85
330
1A
100
AcDbEntity
  8
0
 48
0.25
100
AcDbCircle
 10
-1011.933282846607
 20
-430.3479542892762
 30
826.8043665253244
 40
1.0
210
0.0000000000000005
220
0.9205048534524403
230
0.3907311284892737
100
AcDbArc
 50
90.0
 51
270.0
  0
ARC
  5
D86
330
1A
100
AcDbEntity
  8
0
 48
0.25
100
AcDbCircle
 10
-949.995782846606
 20
-437.3479542892763
 30
826.8043665253244
 40
1.0
210
0.0000000000000005
220
0.9205048534524403
230
0.3907311284892737
100
AcDbArc
 50
270.0
 51
90.0
  0
ARC
  5
D87
330
1A
100
AcDbEntity
  8
0
 48
0.25
100
AcDbCircle
 10
-949.995782846606
 20
-430.3479542892763
 30
826.8043665253244
 40
1.0
210
0.0000000000000005
220
0.9205048534524403
230
0.3907311284892737
100
AcDbArc
 50
270.0
 51
90.0
  0
LINE
  5
D88
330
1A
100
AcDbEntity
  8
0
100
AcDbLine
 10
949.9957828466056
 20
923.366807137391
 30
-59.27160462252186
 11
1011.308282846606
 21
923.366807137391
 31
-59.27160462252186
210
0.0000000000000005
220
0.9205048534524403
230
0.3907311284892737
  0
LINE
  5
D89
330
1A
100
AcDbEntity
  8
0
100
AcDbLine
 10
949.9957828466056
 20
926.8833872937946
 30
-67.556148303594
 11
1011.620782846606
 21
926.8833872937946
 31
-67.556148303594
210
0.0000000000000005
220
0.9205048534524403
230
0.3907311284892737
  0
LINE
  5
D8A
330
1A
100
AcDbEntity
  8
0
100
AcDbLine
 10
949.9957828466056
 20
926.101925036816
 30
-65.71513859668903
 11
1011.620782846606
 21
926.101925036816
 31
-65.71513859668903
210
0.0000000000000005
220
0.9205048534524403
230
0.3907311284892737
  0
LINE
  5
D8B
330
1A
100
AcDbEntity
  8
0
100
AcDbLine
 10
949.9957828466056
 20
924.1482693943696
 30
-61.11261432942683
 11
1011.308282846606
 21
924.1482693943696
 31
-61.11261432942683
210
0.0000000000000005
220
0.9205048534524403
230
0.3907311284892737
  0
ARC
  5
D8C
330
1A
100
AcDbEntity
  8
0
 48
0.25
100
AcDbCircle
 10
-1011.620782846607
 20
-423.3479542892764
 30
826.8043665253244
 40
1.0
210
0.0000000000000005
220
0.9205048534524403
230
0.3907311284892737
100
AcDbArc
 50
90.0
 51
270.0
  0
ARC
  5
D8D
330
1A
100
AcDbEntity
  8
0
 48
0.25
100
AcDbCircle
 10
-1011.308282846607
 20
-416.3479542892764
 30
826.8043665253244
 40
1.0
210
0.0000000000000005
220
0.9205048534524403
230
0.3907311284892737
100
AcDbArc
 50
90.0
 51
270.0
  0
ARC
  5
D8E
330
1A
100
AcDbEntity
  8
0
 48
0.25
100
AcDbCircle
 10
-949.995782846606
 20
-423.3479542892764
 30
826.8043665253244
 40
1.0
210
0.0000000000000005
220
0.9205048534524403
230
0.3907311284892737
100
AcDbArc
 50
270.0
 51
90.0
  0
ARC
  5
D8F
330
1A
100
AcDbEntity
  8
0
 48
0.25
100
AcDbCircle
 10
-949.995782846606
 20
-416.3479542892764
 30
826.8043665253244
 40
1.0
210
0.0000000000000005
220
0.9205048534524403
230
0.3907311284892737
100
AcDbArc
 50
270.0
 51
90.0
  0
LINE
  5
D90
330
1A
100
AcDbEntity
  8
0
100
AcDbLine
 10
778.7457750440801
 20
934.6980098635803
 30
-85.96624537264302
 11
778.7457750440783
 21
923.757538265881
 31
-60.19210947597525
210
0.0000000000000005
220
0.9205048534524403
230
0.3907311284892737
  0
LINE
  5
D91
330
1A
100
AcDbEntity
  8
0
100
AcDbLine
 10
778.4957750440788
 20
934.6980098635803
 30
-85.96624537264302
 11
778.4957750440769
 21
923.562172701636
 31
-59.73185704924822
210
0.0000000000000005
220
0.9205048534524403
230
0.3907311284892737
  0
LINE
  5
D92
330
1A
100
AcDbEntity
  8
0
100
AcDbLine
 10
778.4957750440801
 20
934.7956926457028
 30
-86.19637158600562
 11
778.4957750440782
 21
923.6598554837582
 31
-59.96198326261083
210
0.0000000000000005
220
0.9205048534524403
230
0.3907311284892737
  0
LINE
  5
D93
330
1A
100
AcDbEntity
  8
0
100
AcDbLine
 10
778.4957750440769
 20
937.042396634516
 30
-91.4892744933577
 11
778.4957750440769
 21
941.3404390478982
 31
-101.6148278813343
210
0.0000000000000005
220
0.9205048534524403
230
0.3907311284892737
  0
ARC
  5
D94
330
1A
100
AcDbEntity
  8
0
100
AcDbCircle
 10
-781.058304664939
 20
-477.3479542892753
 30
826.8043665253244
 40
12.0
210
0.0000000000000005
220
0.9205048534524403
230
0.3907311284892737
100
AcDbArc
 50
19.61597913540472
 51
90.0
  0
ARC
  5
D95
330
1A
100
AcDbEntity
  8
0
 48
0.25
100
AcDbCircle
 10
-781.2197385130262
 20
-477.5979542892754
 30
826.8043665253244
 40
12.0
210
0.0000000000000005
220
0.9205048534524403
230
0.3907311284892737
100
AcDbArc
 50
19.39888991009719
 51
90.00000000000072
  0
ARC
  5
D96
330
1A
100
AcDbEntity
  8
0
100
AcDbCircle
 10
-780.4957750440771
 20
-461.3479542892753
 30
826.8043665253244
 40
2.0
210
0.0000000000000005
220
0.9205048534524403
230
0.3907311284892737
100
AcDbArc
 50
270.0000000000005
 51
0.0
  0
ARC
  5
D97
330
1A
100
AcDbEntity
  8
0
100
AcDbCircle
 10
-780.495775044079
 20
-444.3479542892753
 30
826.8043665253244
 40
2.0
210
0.0000000000000005
220
0.9205048534524403
230
0.3907311284892737
100
AcDbArc
 50
270.0000000000005
 51
359.9999999999988
  0
ARC
  5
D98
330
1A
100
AcDbEntity
  8
0
100
AcDbCircle
 10
-780.7457750440804
 20
-444.3479542892749
 30
826.8043665253244
 40
2.0
210
0.0000000000000005
220
0.9205048534524403
230
0.3907311284892737
100
AcDbArc
 50
270.0000000000007
 51
359.9999999999964
  0
ARC
  5
D99
330
1A
100
AcDbEntity
  8
0
100
AcDbCircle
 10
-780.4957750440803
 20
-444.5979542892749
 30
826.8043665253244
 40
2.0
210
0.0000000000000005
220
0.9205048534524403
230
0.3907311284892737
100
AcDbArc
 50
270.0000000000005
 51
359.9999999999988
  0
ARC
  5
D9A
330
1A
100
AcDbEntity
  8
0
100
AcDbCircle
 10
-780.4957750440771
 20
-450.3479542892754
 30
826.8043665253244
 40
2.0
210
0.0000000000000005
220
0.9205048534524403
230
0.3907311284892737
100
AcDbArc
 50
0.0
 51
90.00000000000047
  0
LINE
  5
D9B
330
1A
100
AcDbEntity
  8
0
100
AcDbLine
 10
770.9265851772604
 20
925.1246253242907
 30
-63.41276475681684
 11
770.7113028545243
 21
929.9437139528473
 31
-74.76582610351602
210
0.0000000000000005
220
0.9205048534524403
230
0.3907311284892737
  0
LINE
  5
D9C
330
1A
100
AcDbEntity
  8
0
100
AcDbLine
 10
766.9957750440787
 20
923.5621727016368
 30
-59.73185704924981
 11
766.7119120738987
 21
929.9164371589991
 31
-74.70156600419613
210
0.0000000000000005
220
0.9205048534524403
230
0.3907311284892737
  0
LINE
  5
D9D
330
1A
100
AcDbEntity
  8
0
 48
0.25
100
AcDbLine
 10
914.5124358590221
 20
817.1770811002961
 30
0.0
 11
914.5124358590221
 21
776.1770811002961
 31
0.0
  0
LINE
  5
D9E
330
1A
100
AcDbEntity
  8
0
 48
0.25
100
AcDbLine
 10
916.9124358590227
 20
772.3770811002964
 30
0.0
 11
916.9124358590227
 21
817.1770811002952
 31
0.0
  0
LINE
  5
D9F
330
1A
100
AcDbEntity
  8
0
 48
0.25
100
AcDbLine
 10
935.9124358590218
 20
773.3640963057896
 30
0.0
 11
935.9124358590227
 21
821.3900658948032
 31
0.0
  0
LINE
  5
DA0
330
1A
100
AcDbEntity
  8
0
 48
0.25
100
AcDbLine
 10
936.4124358590236
 20
774.877081100296
 30
0.0
 11
936.4124358590228
 21
819.8770811002964
 31
0.0
  0
LINE
  5
DA1
330
1A
100
AcDbEntity
  8
0
 48
0.25
100
AcDbLine
 10
874.3124358590232
 20
817.1770811002961
 30
0.0
 11
874.3124358590232
 21
776.1770811002966
 31
0.0
  0
LINE
  5
DA2
330
1A
100
AcDbEntity
  8
0
 48
0.25
100
AcDbLine
 10
852.4124358590217
 20
774.877081100296
 30
0.0
 11
852.4124358590226
 21
819.8770811002964
 31
0.0
  0
LINE
  5
DA3
330
1A
100
AcDbEntity
  8
0
 48
0.25
100
AcDbLine
 10
852.9124358590236
 20
773.3640963057896
 30
0.0
 11
852.9124358590227
 21
821.3900658948032
 31
0.0
  0
LINE
  5
DA4
330
1A
100
AcDbEntity
  8
0
 48
0.25
100
AcDbLine
 10
871.9124358590226
 20
772.3770811002964
 30
0.0
 11
871.9124358590226
 21
817.1770811002966
 31
0.0
  0
LINE
  5
DA5
330
1A
100
AcDbEntity
  8
0
 48
0.25
100
AcDbLine
 10
874.4124358590218
 20
804.1770811002965
 30
0.0
 11
874.4124358590212
 21
729.24881661988
 31
0.0
  0
LINE
  5
DA6
330
1A
100
AcDbEntity
  8
0
 48
0.25
100
AcDbLine
 10
914.4124358590246
 20
804.1770811002965
 30
0.0
 11
914.4124358590252
 21
730.2251412475071
 31
0.0
  0
LINE
  5
DB2
330
1A
100
AcDbEntity
  8
0
100
AcDbLine
 10
781.4427074316422
 20
441.0777748431073
 30
0.0
 11
1007.38216428639
 21
441.0777748431073
 31
0.0
  0
LINE
  5
DB3
330
1A
100
AcDbEntity
  8
0
100
AcDbLine
 10
726.7764342590234
 20
459.5780800431071
 30
0.0
 11
1062.048437459023
 21
459.5780800431071
 31
0.0
  0
LINE
  5
DB4
330
1A
100
AcDbEntity
  8
0
100
AcDbLine
 10
1089.412435859023
 20
486.5777748431074
 30
0.0
 11
699.4124358590234
 21
486.5777748431074
 31
0.0
  0
LINE
  5
DB5
330
1A
100
AcDbEntity
  8
0
100
AcDbLine
 10
1077.912435859023
 20
556.5777748431073
 30
0.0
 11
710.9124358590234
 21
556.5777748431073
 31
0.0
  0
LINE
  5
DB6
330
1A
100
AcDbEntity
  8
0
100
AcDbLine
 10
839.4124358590234
 20
452.5780800431071
 30
0.0
 11
756.9604400590232
 21
452.5780800431071
 31
0.0
  0
LINE
  5
E87
330
1A
100
AcDbEntity
  8
0
 48
0.25
100
AcDbLine
 10
914.4124358590252
 20
725.2251412475068
 30
0.0
 11
914.4124358590261
 21
556.5777748431073
 31
0.0
  0
LINE
  5
E88
330
1A
100
AcDbEntity
  8
0
 48
0.25
100
AcDbLine
 10
874.4124358590212
 20
724.24881661988
 30
0.0
 11
874.4124358590207
 21
556.5777748431073
 31
0.0
  0
LINE
  5
E8F
330
1A
100
AcDbEntity
  8
0
100
AcDbLine
 10
949.4124358590234
 20
452.5780800431071
 30
0.0
 11
1031.864431659023
 21
452.578080043107
 31
0.0
  0
ARC
  5
ED1
330
1A
100
AcDbEntity
  8
0
100
AcDbCircle
 10
1077.912435859023
 20
545.0777748431072
 30
0.0
 40
11.5
100
AcDbArc
 50
0.0
 51
90.0
  0
LINE
  5
ED2
330
1A
100
AcDbEntity
  8
0
100
AcDbLine
 10
1089.412435859023
 20
545.0777748431073
 30
0.0
 11
1089.412435859023
 21
486.5777748431074
 31
0.0
  0
LINE
  5
ED3
330
1A
100
AcDbEntity
  8
0
100
AcDbLine
 10
1034.412435859023
 20
459.5780800431071
 30
0.0
 11
1030.045283000875
 21
447.5781716431018
 31
0.0
  0
ARC
  5
ED4
330
1A
100
AcDbEntity
  8
0
100
AcDbCircle
 10
1062.048437459023
 20
465.5780800431069
 30
0.0
 40
6.0
100
AcDbArc
 50
270.0
 51
343.3008118000001
  0
LINE
  5
EEB
330
1A
100
AcDbEntity
  8
0
100
AcDbLine
 10
1067.786428759023
 20
463.8247841431071
 30
0.0
 11
1074.612432759024
 21
486.5777748431074
 31
0.0
  0
LINE
  5
EEC
330
1A
100
AcDbEntity
  8
0
100
AcDbLine
 10
940.4124358590234
 20
452.0780800431071
 30
0.0
 11
940.796346959024
 21
441.0777748431073
 31
0.0
  0
LINE
  5
EED
330
1A
100
AcDbEntity
  8
0
100
AcDbLine
 10
919.4124358590233
 20
452.0780800431071
 30
0.0
 11
919.7963450590233
 21
441.0777748431073
 31
0.0
  0
LINE
  5
EEE
330
1A
100
AcDbEntity
  8
0
100
AcDbLine
 10
925.4124358590233
 20
452.0780800431071
 30
0.0
 11
925.0279467590244
 21
441.0777748431073
 31
0.0
  0
LINE
  5
EEF
330
1A
100
AcDbEntity
  8
0
100
AcDbLine
 10
949.4124358590234
 20
452.5780800431071
 30
0.0
 11
949.010454459024
 21
441.0777748431073
 31
0.0
  0
LINE
  5
EF0
330
1A
100
AcDbEntity
  8
0
100
AcDbLine
 10
848.4124358590234
 20
452.0780800431071
 30
0.0
 11
848.028555259024
 21
441.0777748431073
 31
0.0
  0
LINE
  5
EF1
330
1A
100
AcDbEntity
  8
0
100
AcDbLine
 10
839.4124358590234
 20
452.5780800431071
 30
0.0
 11
839.8144477590239
 21
441.0777748431073
 31
0.0
  0
LINE
  5
EF2
330
1A
100
AcDbEntity
  8
0
100
AcDbLine
 10
897.4124358590234
 20
452.0780800431071
 30
0.0
 11
897.0279448590236
 21
441.0777748431073
 31
0.0
  0
LINE
  5
EF3
330
1A
100
AcDbEntity
  8
0
100
AcDbLine
 10
891.4124358590234
 20
452.0780800431071
 30
0.0
 11
891.7963467590235
 21
441.0777748431073
 31
0.0
  0
LINE
  5
EF4
330
1A
100
AcDbEntity
  8
0
100
AcDbLine
 10
869.4124358590233
 20
452.0780800431071
 30
0.0
 11
869.0285552590239
 21
441.0777748431073
 31
0.0
  0
LINE
  5
EF5
330
1A
100
AcDbEntity
  8
0
100
AcDbLine
 10
863.4124358590234
 20
452.0780800431071
 30
0.0
 11
863.7969554590236
 21
441.0777748431073
 31
0.0
  0
LINE
  5
EF9
330
1A
100
AcDbEntity
  8
0
100
AcDbLine
 10
925.4124358590233
 20
452.0780800431071
 30
0.0
 11
940.4124358590234
 21
452.0780800431071
 31
0.0
  0
LINE
  5
EFA
330
1A
100
AcDbEntity
  8
0
100
AcDbLine
 10
994.8644393590239
 20
452.578080043107
 30
0.0
 11
997.4124358590234
 21
459.5772865431071
 31
0.0
  0
LINE
  5
EFB
330
1A
100
AcDbEntity
  8
0
100
AcDbLine
 10
848.4124358590234
 20
452.0780800431071
 30
0.0
 11
863.4124358590234
 21
452.0780800431071
 31
0.0
  0
LINE
  5
EFC
330
1A
100
AcDbEntity
  8
0
100
AcDbLine
 10
869.4124358590233
 20
452.0780800431071
 30
0.0
 11
891.4124358590234
 21
452.0780800431071
 31
0.0
  0
LINE
  5
EFD
330
1A
100
AcDbEntity
  8
0
100
AcDbLine
 10
897.4124358590234
 20
452.0780800431071
 30
0.0
 11
919.4124358590233
 21
452.0780800431071
 31
0.0
  0
SPLINE
  5
EFE
330
1A
100
AcDbEntity
  8
0
100
AcDbSpline
210
0.0
220
0.0
230
1.0
 70
     8
 71
     3
 72
    11
 73
     7
 74
     5
 42
0.0000000001
 43
0.0000000001
 44
0.0000000001
 40
0.0
 40
0.0
 40
0.0
 40
0.0
 40
11.18618691122456
 40
23.22700273253209
 40
31.36093216241002
 40
43.09610963621334
 40
43.09610963621334
 40
43.09610963621334
 40
43.09610963621334
 10
874.4124358590209
 20
729.2488166198798
 30
0.0
 10
877.452541376232
 20
731.321639409757
 30
0.0
 10
883.7650176217879
 20
735.625649434498
 30
0.0
 10
895.7920112842369
 20
737.4438738962338
 30
0.0
 10
903.0597444345652
 20
727.9105708260132
 30
0.0
 10
910.1969995251378
 20
729.3657041424796
 30
0.0
 10
914.4124358590257
 20
730.2251412475071
 30
0.0
 11
874.4124358590209
 21
729.2488166198798
 31
0.0
 11
884.1346711680005
 21
734.7813493319097
 31
0.0
 11
896.1710879934841
 21
735.1067961722126
 31
0.0
 11
902.6772583852222
 21
730.2251412475068
 31
0.0
 11
914.4124358590257
 21
730.2251412475071
 31
0.0
  0
SPLINE
  5
EFF
330
1A
100
AcDbEntity
  8
0
100
AcDbSpline
210
0.0
220
0.0
230
1.0
 70
     8
 71
     3
 72
    11
 73
     7
 74
     5
 42
0.0000000001
 43
0.0000000001
 44
0.0000000001
 40
0.0
 40
0.0
 40
0.0
 40
0.0
 40
11.18618691122456
 40
23.22700273253209
 40
31.36093216241002
 40
43.09610963621334
 40
43.09610963621334
 40
43.09610963621334
 40
43.09610963621334
 10
874.4124358590209
 20
724.2488166198797
 30
0.0
 10
877.452541376232
 20
726.321639409757
 30
0.0
 10
883.7650176217879
 20
730.6256494344979
 30
0.0
 10
895.7920112842369
 20
732.4438738962336
 30
0.0
 10
903.0597444345652
 20
722.9105708260131
 30
0.0
 10
910.1969995251378
 20
724.3657041424797
 30
0.0
 10
914.4124358590257
 20
725.225141247507
 30
0.0
 11
874.4124358590209
 21
724.2488166198797
 31
0.0
 11
884.1346711680005
 21
729.7813493319097
 31
0.0
 11
896.1710879934841
 21
730.1067961722126
 31
0.0
 11
902.6772583852222
 21
725.2251412475068
 31
0.0
 11
914.4124358590257
 21
725.225141247507
 31
0.0
  0
LINE
  5
F00
330
1A
100
AcDbEntity
  8
0
 48
0.25
100
AcDbLine
 10
935.4255892000658
 20
772.8642693461133
 30
0.0
 11
916.9124358590227
 21
772.3770811002964
 31
0.0
  0
ARC
  5
F01
330
1A
100
AcDbEntity
  8
0
 48
0.25
100
AcDbCircle
 10
912.5124358590221
 20
776.1770811002965
 30
0.0
 40
2.0
100
AcDbArc
 50
341.8051276612387
 51
0.0
  0
ARC
  5
F02
330
1A
100
AcDbEntity
  8
0
 48
0.25
100
AcDbCircle
 10
935.9124358590236
 20
774.8770811002958
 30
0.0
 40
0.5
100
AcDbArc
 50
270.0
 51
0.0
  0
ARC
  5
F03
330
1A
100
AcDbEntity
  8
0
 48
0.25
100
AcDbCircle
 10
935.4124358590217
 20
773.3640963057895
 30
0.0
 40
0.5
100
AcDbArc
 50
271.5074357587749
 51
0.0
  0
ARC
  5
F04
330
1A
100
AcDbEntity
  8
0
 48
0.25
100
AcDbCircle
 10
876.3124358590232
 20
776.1770811002969
 30
0.0
 40
2.0
100
AcDbArc
 50
180.0
 51
198.1948723388026
  0
ARC
  5
F05
330
1A
100
AcDbEntity
  8
0
 48
0.25
100
AcDbCircle
 10
853.4124358590236
 20
773.3640963057895
 30
0.0
 40
0.5
100
AcDbArc
 50
180.0
 51
268.4925642412251
  0
LINE
  5
F06
330
1A
100
AcDbEntity
  8
0
 48
0.25
100
AcDbLine
 10
853.3992825179796
 20
772.8642693461133
 30
0.0
 11
871.9124358590226
 21
772.3770811002964
 31
0.0
  0
ARC
  5
F07
330
1A
100
AcDbEntity
  8
0
 48
0.25
100
AcDbCircle
 10
852.9124358590218
 20
774.8770811002958
 30
0.0
 40
0.5
100
AcDbArc
 50
180.0
 51
270.0
  0
LINE
  5
FE1
330
1A
100
AcDbEntity
  8
0
100
AcDbLine
 10
699.4124358590234
 20
545.0777748431073
 30
0.0
 11
699.4124358590234
 21
486.5777748431074
 31
0.0
  0
ARC
  5
FE2
330
1A
100
AcDbEntity
  8
0
100
AcDbCircle
 10
710.9124358590234
 20
545.0777748431072
 30
0.0
 40
11.5
100
AcDbArc
 50
90.0
 51
180.0
  0
ARC
  5
FE3
330
1A
100
AcDbEntity
  8
0
100
AcDbCircle
 10
726.7764342590234
 20
465.5780800431069
 30
0.0
 40
6.0
100
AcDbArc
 50
196.6992035
 51
270.0
  0
LINE
  5
FE4
330
1A
100
AcDbEntity
  8
0
100
AcDbLine
 10
793.9604323590238
 20
452.5780800431071
 30
0.0
 11
791.4124358590234
 21
459.5772865431072
 31
0.0
  0
LINE
  5
FE5
330
1A
100
AcDbEntity
  8
0
100
AcDbLine
 10
754.4124358590234
 20
459.5780800431071
 30
0.0
 11
758.0516466155341
 21
449.5783852431069
 31
0.0
  0
LINE
  5
FE6
330
1A
100
AcDbEntity
  8
0
100
AcDbLine
 10
754.4124358590234
 20
459.5780800431071
 30
0.0
 11
758.7795887171728
 21
447.5781716431018
 31
0.0
  0
LINE
  5
FFD
330
1A
100
AcDbEntity
  8
0
100
AcDbLine
 10
721.038442959024
 20
463.8247841431071
 30
0.0
 11
714.2124389590244
 21
486.5777748431074
 31
0.0
  0
LINE
  5
FFF
330
1A
100
AcDbEntity
  8
0
100
AcDbLine
 10
796.9957750440783
 20
911.8402388469583
 30
-32.11671144567663
 11
924.4957750440782
 21
911.8402388469577
 31
-32.11671144567572
210
0.0000000000000005
220
0.9205048534524403
230
0.3907311284892737
  0
LINE
  5
1000
330
1A
100
AcDbEntity
  8
0
100
AcDbLine
 10
968.3256708118408
 20
898.0821399423865
 30
-32.11671144567589
 11
796.8296138187045
 21
898.0823060236518
 31
-32.11671144567589
  0
LINE
  5
1001
330
1A
100
AcDbEntity
  8
0
100
AcDbLine
 10
953.5991853693342
 20
895.8401655015489
 30
-32.11671144567589
 11
796.8295344540322
 21
895.8403173213776
 31
-32.11671144567589
  0
LINE
  5
1002
330
1A
100
AcDbEntity
  8
0
100
AcDbLine
 10
991.9911392880575
 20
908.8401390128959
 30
-32.11671144567589
 11
796.8340977371297
 21
908.8403189881457
 31
-32.11671144567589
  0
LINE
  5
1003
330
1A
100
AcDbEntity
  8
0
100
AcDbLine
 10
796.9957750440783
 20
914.9660878748726
 30
-39.48075027329628
 11
924.4957750440782
 21
914.966087874872
 31
-39.48075027329537
210
0.0000000000000005
220
0.9205048534524403
230
0.3907311284892737
  0
LINE
  5
1004
330
1A
100
AcDbEntity
  8
0
100
AcDbLine
 10
798.4957750440765
 20
915.7475501318501
 30
-41.32175998019943
 11
912.9957750440764
 21
915.7475501318506
 31
-41.32175998020011
210
0.0000000000000005
220
0.9205048534524403
230
0.3907311284892737
  0
LINE
  5
1005
330
1A
100
AcDbEntity
  8
0
100
AcDbLine
 10
798.7457750440783
 20
915.9429156960948
 30
-41.7820124069251
 11
912.7457750440779
 21
915.9429156960957
 31
-41.78201240692692
210
0.0000000000000005
220
0.9205048534524403
230
0.3907311284892737
  0
LINE
  5
1006
330
1A
100
AcDbEntity
  8
0
100
AcDbLine
 10
798.4957750440778
 20
915.8452329139729
 30
-41.55188619356295
 11
912.9957750440778
 21
915.8452329139734
 31
-41.55188619356386
210
0.0000000000000005
220
0.9205048534524403
230
0.3907311284892737
  0
LINE
  5
1007
330
1A
100
AcDbEntity
  8
0
 48
0.25
100
AcDbLine
 10
987.2963254305494
 20
870.7819412664402
 30
-0.0000000000001137
 11
801.5285462874979
 21
870.7821220250968
 31
0.0000000000001421
  0
LINE
  5
1010
330
1A
100
AcDbEntity
  8
0
 48
0.25
100
AcDbLine
 10
1017.056136848635
 20
881.0233149576863
 30
-24.12716443980395
 11
1016.405325630945
 21
900.7499812387944
 31
-39.81419751634565
  0
LINE
  5
1011
330
1A
100
AcDbEntity
  8
0
100
AcDbLine
 10
1019.468067801484
 20
902.8566746614485
 30
-43.11698143494021
 11
1017.026922700495
 21
880.9362674704228
 31
-8.75114968089997
  0
ARC
  5
1014
330
1A
100
AcDbEntity
  8
0
100
AcDbCircle
 10
-912.9957750440766
 20
-397.8479542892773
 30
826.8043665253244
 40
2.0
210
0.0000000000000005
220
0.9205048534524403
230
0.3907311284892737
100
AcDbArc
 50
90.00000000000047
 51
179.9999999999988
  0
ARC
  5
1015
330
1A
100
AcDbEntity
  8
0
100
AcDbCircle
 10
-912.7457750440781
 20
-398.3479542892768
 30
826.8043665253244
 40
2.0
210
0.0000000000000005
220
0.9205048534524403
230
0.3907311284892737
100
AcDbArc
 50
90.00000000000088
 51
180.0
  0
ARC
  5
1016
330
1A
100
AcDbEntity
  8
0
100
AcDbCircle
 10
-912.995775044078
 20
-398.0979542892778
 30
826.8043665253244
 40
2.0
210
0.0000000000000005
220
0.9205048534524403
230
0.3907311284892737
100
AcDbArc
 50
90.00000000000047
 51
179.9999999999988
  0
LINE
  5
1017
330
1A
100
AcDbEntity
  8
0
100
AcDbLine
 10
949.9957828466056
 20
921.4131514949446
 30
-54.66908035525967
 11
1010.995782846606
 21
921.4131514949446
 31
-54.66908035525967
210
0.0000000000000005
220
0.9205048534524403
230
0.3907311284892737
  0
LINE
  5
1018
330
1A
100
AcDbEntity
  8
0
100
AcDbLine
 10
949.9957828466056
 20
920.631689237966
 30
-52.82807064835492
 11
1010.995782846606
 21
920.631689237966
 31
-52.82807064835492
210
0.0000000000000005
220
0.9205048534524403
230
0.3907311284892737
  0
ARC
  5
1019
330
1A
100
AcDbEntity
  8
0
 48
0.25
100
AcDbCircle
 10
-1010.995782846607
 20
-409.3479542892772
 30
826.8043665253244
 40
1.0
210
0.0000000000000005
220
0.9205048534524403
230
0.3907311284892737
100
AcDbArc
 50
90.0
 51
270.0
  0
ARC
  5
101A
330
1A
100
AcDbEntity
  8
0
 48
0.25
100
AcDbCircle
 10
-949.995782846606
 20
-409.3479542892763
 30
826.8043665253244
 40
1.0
210
0.0000000000000005
220
0.9205048534524403
230
0.3907311284892737
100
AcDbArc
 50
270.0
 51
90.0
  0
LINE
  5
101B
330
1A
100
AcDbEntity
  8
0
100
AcDbLine
 10
924.9957828466069
 20
914.9660878748717
 30
-39.48075027329446
 11
991.8062319453236
 21
914.9660878748717
 31
-39.48075027329446
210
0.0000000000000005
220
0.9205048534524403
230
0.3907311284892737
  0
LINE
  5
101C
330
1A
100
AcDbEntity
  8
0
 48
0.25
100
AcDbLine
 10
953.5991853693342
 20
896.5069000755022
 30
-32.11671144567589
 11
953.5991853693342
 21
889.3642818171214
 31
-32.11671144567589
  0
LINE
  5
101D
330
1A
100
AcDbEntity
  8
0
 48
0.25
100
AcDbLine
 10
960.5991853693343
 20
896.5069000755022
 30
-32.11671144567589
 11
960.5991853693343
 21
889.3642818171223
 31
-32.11671144567589
  0
LINE
  5
101E
330
1A
100
AcDbEntity
  8
0
 48
0.25
100
AcDbLine
 10
960.5991853693343
 20
896.5069000755022
 30
-32.11671144567589
 11
953.5991853693342
 21
896.5069000755022
 31
-32.11671144567589
  0
ELLIPSE
  5
101F
330
1A
100
AcDbEntity
  8
0
 48
0.25
100
AcDbEllipse
 10
957.0991853693342
 20
889.3642818171223
 30
-32.11671144567589
 11
-0.0000000000000004
 21
-7.142618258379116
 31
0.0
210
0.0
220
0.0
230
1.0
 40
0.4900163880232709
 41
4.712388980384689
 42
7.853981633974482
  0
LINE
  5
1020
330
1A
100
AcDbEntity
  8
0
100
AcDbLine
 10
991.991132684673
 20
895.8401273275756
 30
-32.11671144567589
 11
960.5991853693343
 21
895.8401585412923
 31
-32.11671144567589
  0
LINE
  5
1021
330
1A
100
AcDbEntity
  8
0
100
AcDbLine
 10
991.9911348558732
 20
898.0821162111981
 30
-32.11671144567589
 11
960.5991875405345
 21
898.0821474249149
 31
-32.11671144567589
  0
LINE
  5
1022
330
1A
100
AcDbEntity
  8
0
100
AcDbLine
 10
924.4957750440782
 20
912.230969975447
 30
-33.0372162991282
 11
924.9957750440783
 21
912.230969975447
 31
-33.0372162991282
210
0.0000000000000005
220
0.9205048534524403
230
0.3907311284892737
  0
LINE
  5
1023
330
1A
100
AcDbEntity
  8
0
100
AcDbLine
 10
924.9957828466069
 20
911.8402388469577
 30
-32.11671144567504
 11
991.991213005286
 21
911.8402388469577
 31
-32.11671144567504
210
0.0000000000000005
220
0.9205048534524403
230
0.3907311284892737
  0
LINE
  5
1024
330
1A
100
AcDbEntity
  8
0
 48
0.25
100
AcDbLine
 10
926.0969668863133
 20
908.8401020270087
 30
-32.11671144567589
 11
926.0969668863133
 21
911.840207425185
 31
-32.11671144567589
  0
LINE
  5
1025
330
1A
100
AcDbEntity
  8
0
100
AcDbLine
 10
991.9911346733321
 20
909.8401419051363
 30
-32.11671144567589
 11
926.0969668863133
 21
909.8402074251836
 31
-32.11671144567589
  0
ARC
  5
1028
330
1A
100
AcDbEntity
  8
0
100
AcDbCircle
 10
904.4124358590238
 20
865.7820316457467
 30
0.0
 40
2.0
100
AcDbArc
 50
180.0
 51
270.0
  0
ARC
  5
1029
330
1A
100
AcDbEntity
  8
0
100
AcDbCircle
 10
884.4124358590235
 20
865.7820316457467
 30
0.0
 40
2.0
100
AcDbArc
 50
270.0
 51
0.0
  0
LINE
  5
102A
330
1A
100
AcDbEntity
  8
0
100
AcDbLine
 10
884.4124358590235
 20
863.7820316457469
 30
0.0
 11
829.9124358590235
 21
863.7820316457469
 31
0.0
  0
ARC
  5
102B
330
1A
100
AcDbEntity
  8
0
100
AcDbCircle
 10
958.9124358590236
 20
865.2820316457468
 30
0.0
 40
1.5
100
AcDbArc
 50
270.0
 51
0.0
  0
ARC
  5
102C
330
1A
100
AcDbEntity
  8
0
100
AcDbCircle
 10
829.9124358590239
 20
865.2820316457468
 30
0.0
 40
1.5
100
AcDbArc
 50
180.0
 51
270.0
  0
LINE
  5
102D
330
1A
100
AcDbEntity
  8
0
100
AcDbLine
 10
960.4124358590237
 20
865.2820316457468
 30
0.0
 11
960.4124358590237
 21
867.7819674254212
 31
0.0
  0
LINE
  5
102E
330
1A
100
AcDbEntity
  8
0
100
AcDbLine
 10
828.4124358590236
 20
865.2820316457468
 30
0.0
 11
828.4124358590236
 21
867.7820958661163
 31
0.0
  0
LINE
  5
102F
330
1A
100
AcDbEntity
  8
0
100
AcDbLine
 10
958.9124358590236
 20
863.7820316457469
 30
0.0
 11
904.4124358590236
 21
863.7820316457469
 31
0.0
  0
LINE
  5
1030
330
1A
100
AcDbEntity
  8
0
 48
0.25
100
AcDbLine
 10
971.9957750440801
 20
867.7819561544202
 30
-0.0000000000000853
 11
936.9957750440741
 21
867.781990210665
 31
-0.0000000000000284
  0
LINE
  5
1031
330
1A
100
AcDbEntity
  8
0
 48
0.25
100
AcDbLine
 10
851.9957750440841
 20
867.7820729186883
 30
0.0000000000000568
 11
816.9957750440786
 21
867.7821069749334
 31
0.0000000000001137
  0
LINE
  5
1032
330
1A
100
AcDbEntity
  8
0
 48
0.25
100
AcDbLine
 10
934.4124358590226
 20
817.1770811002961
 30
0.0
 11
914.5124358590221
 21
817.1770811002957
 31
0.0
  0
LINE
  5
1033
330
1A
100
AcDbEntity
  8
0
 48
0.25
100
AcDbLine
 10
921.3517028242556
 20
863.7820316457469
 30
0.0
 11
916.5124358590221
 21
817.1770811002961
 31
0.0
  0
LINE
  5
1034
330
1A
100
AcDbEntity
  8
0
 48
0.25
100
AcDbLine
 10
939.2517028242567
 20
863.7820316457469
 30
0.0
 11
934.4124358590226
 21
817.1770811002961
 31
0.0
  0
ARC
  5
1035
330
1A
100
AcDbEntity
  8
0
 48
0.25
100
AcDbCircle
 10
935.4124358590226
 20
821.3900658948031
 30
0.0
 40
0.5
100
AcDbArc
 50
0.0
 51
88.49256424122506
  0
ARC
  5
1036
330
1A
100
AcDbEntity
  8
0
 48
0.25
100
AcDbCircle
 10
935.9124358590227
 20
819.8770811002964
 30
0.0
 40
0.5
100
AcDbArc
 50
0.0
 51
90.0
  0
LINE
  5
1037
330
1A
100
AcDbEntity
  8
0
 48
0.25
100
AcDbLine
 10
935.4255892000667
 20
821.8898928544795
 30
0.0
 11
934.903222287073
 21
821.9036393521896
 31
0.0
  0
LINE
  5
1038
330
1A
100
AcDbEntity
  8
0
 48
0.25
100
AcDbLine
 10
899.4124358590227
 20
804.1770811002965
 30
0.0
 11
899.412435859025
 21
870.7820267805907
 31
0.0
  0
LINE
  5
1039
330
1A
100
AcDbEntity
  8
0
 48
0.25
100
AcDbLine
 10
897.9124358590226
 20
804.1770811002965
 30
0.0
 11
897.9124358590249
 21
870.7820282401442
 31
0.0
  0
LINE
  5
103A
330
1A
100
AcDbEntity
  8
0
 48
0.25
100
AcDbLine
 10
895.1624358590226
 20
804.1770811002965
 30
0.0
 11
895.1624358590249
 21
870.782030915992
 31
0.0
  0
LINE
  5
103B
330
1A
100
AcDbEntity
  8
0
 48
0.25
100
AcDbLine
 10
893.6624358590236
 20
804.1770811002965
 30
0.0
 11
893.6624358590236
 21
870.7820323755452
 31
0.0
  0
LINE
  5
103C
330
1A
100
AcDbEntity
  8
0
 48
0.25
100
AcDbLine
 10
890.9124358590236
 20
804.1770811002965
 30
0.0
 11
890.9124358590236
 21
870.782035051393
 31
0.0
  0
LINE
  5
103D
330
1A
100
AcDbEntity
  8
0
 48
0.25
100
AcDbLine
 10
889.4124358590227
 20
804.1770811002965
 30
0.0
 11
889.4124358590245
 21
870.7820365109464
 31
0.0
  0
LINE
  5
103E
330
1A
100
AcDbEntity
  8
0
 48
0.25
100
AcDbLine
 10
849.5731688937933
 20
863.7820316457469
 30
0.0
 11
854.4124358590218
 21
817.1770811002966
 31
0.0
  0
LINE
  5
103F
330
1A
100
AcDbEntity
  8
0
 48
0.25
100
AcDbLine
 10
867.4731688937916
 20
863.7820316457469
 30
0.0
 11
872.3124358590233
 21
817.1770811002966
 31
0.0
  0
LINE
  5
1040
330
1A
100
AcDbEntity
  8
0
 48
0.25
100
AcDbLine
 10
874.3124358590232
 20
817.1770811002966
 30
0.0
 11
854.4124358590218
 21
817.1770811002966
 31
0.0
  0
ARC
  5
1041
330
1A
100
AcDbEntity
  8
0
 48
0.25
100
AcDbCircle
 10
852.9124358590227
 20
819.8770811002964
 30
0.0
 40
0.5
100
AcDbArc
 50
90.0
 51
180.0
  0
ARC
  5
1042
330
1A
100
AcDbEntity
  8
0
 48
0.25
100
AcDbCircle
 10
853.4124358590227
 20
821.3900658948031
 30
0.0
 40
0.5
100
AcDbArc
 50
91.50743575877495
 51
180.0
  0
LINE
  5
1043
330
1A
100
AcDbEntity
  8
0
 48
0.25
100
AcDbLine
 10
853.3992825179787
 20
821.8898928544795
 30
0.0
 11
853.9216494309732
 21
821.90363935219
 31
0.0
  0
LINE
  5
1044
330
1A
100
AcDbEntity
  8
0
 48
0.25
100
AcDbLine
 10
914.5124358590221
 20
804.1770811002965
 30
0.0
 11
874.3124358590232
 21
804.1770811002965
 31
0.0
  0
LINE
  5
1046
330
1A
100
AcDbEntity
  8
0
 48
0.25
100
AcDbLine
 10
2038.641301599325
 20
937.1393914647601
 30
0.0
 11
2036.803963224166
 21
936.3493359634379
 31
0.0
  0
ARC
  5
1047
330
1A
100
AcDbEntity
  8
0
 48
0.25
100
AcDbCircle
 10
2037.722632411746
 20
936.744363714099
 30
0.0
 40
1.0
100
AcDbArc
 50
23.26770481015119
 51
203.2677048101512
  0
LINE
  5
1048
330
1A
100
AcDbEntity
  8
0
 48
0.25
100
AcDbLine
 10
2032.210617286268
 20
934.3741972101332
 30
0.0
 11
2030.37327891111
 21
933.5841417088115
 31
0.0
  0
ARC
  5
1049
330
1A
100
AcDbEntity
  8
0
 48
0.25
100
AcDbCircle
 10
2031.291948098689
 20
933.9791694594721
 30
0.0
 40
1.0
100
AcDbArc
 50
23.26770481015119
 51
203.2677048101512
  0
ARC
  5
104A
330
1A
100
AcDbEntity
  8
0
100
AcDbCircle
 10
2023.055495479298
 20
904.3127479446434
 30
0.0
 40
1.0
100
AcDbArc
 50
248.2677048101241
 51
293.2677048100661
  0
ARC
  5
104B
330
1A
100
AcDbEntity
  8
0
100
AcDbCircle
 10
2019.657158825593
 20
905.6673296877242
 30
0.0
 40
1.0
100
AcDbArc
 50
208.2677048100687
 51
248.2677048101217
  0
LINE
  5
104C
330
1A
100
AcDbEntity
  8
0
 48
0.25
100
AcDbLine
 10
2022.685225068343
 20
903.383823931189
 30
0.0
 11
2019.286888414637
 21
904.7384056742695
 31
0.0
  0
LINE
  5
104D
330
1A
100
AcDbEntity
  8
0
100
AcDbLine
 10
2016.097298859381
 20
914.3830968424417
 30
0.0
 11
2014.259960484221
 21
913.5930413411205
 31
0.0
  0
LINE
  5
104E
330
1A
100
AcDbEntity
  8
0
100
AcDbLine
 10
2014.259960484221
 20
913.5930413411205
 30
0.0
 11
2018.776414388641
 21
905.1937378415342
 31
0.0
  0
ARC
  5
104F
330
1A
100
AcDbEntity
  8
0
100
AcDbCircle
 10
2017.644533964516
 20
927.0222502613878
 30
0.0
 40
1.0
100
AcDbArc
 50
113.2677048101516
 51
158.2677048101743
  0
LINE
  5
1050
330
1A
100
AcDbEntity
  8
0
100
AcDbLine
 10
2030.612301373684
 20
933.68692136772
 30
0.0
 11
2017.249506213856
 21
927.9409194489668
 31
0.0
  0
LINE
  5
1051
330
1A
100
AcDbEntity
  8
0
100
AcDbLine
 10
2015.930637391056
 20
914.5291386348585
 30
0.0
 11
2015.287568959749
 21
914.2526192093955
 31
0.0
  0
LINE
  5
1052
330
1A
100
AcDbEntity
  8
0
100
AcDbLine
 10
2014.967335758753
 20
914.9857438292755
 30
0.0
 11
2015.28335795929
 21
914.250808479198
 31
0.0
  0
LINE
  5
1053
330
1A
100
AcDbEntity
  8
0
100
AcDbLine
 10
2014.783601921236
 20
914.9067382791296
 30
0.0
 11
2013.864932733683
 21
914.5117105284143
 31
0.0
  0
ARC
  5
1054
330
1A
100
AcDbEntity
  8
0
100
AcDbCircle
 10
2013.89415609349
 20
917.6134075322689
 30
0.0
 40
1.0
100
AcDbArc
 50
158.2677048101814
 51
198.2677048101134
  0
LINE
  5
1055
330
1A
100
AcDbEntity
  8
0
100
AcDbLine
 10
2013.864932733683
 20
914.5117105284143
 30
0.0
 11
2012.944553782508
 21
917.2999502768444
 31
0.0
  0
LINE
  5
1056
330
1A
100
AcDbEntity
  8
0
100
AcDbLine
 10
2014.972820550026
 20
914.9691279418494
 30
0.0
 11
2014.967335758757
 21
914.9857438292638
 31
0.0
  0
LINE
  5
1057
330
1A
100
AcDbEntity
  8
0
100
AcDbLine
 10
2016.715609951062
 20
927.3925206723424
 30
0.0
 11
2012.965232080036
 21
917.9836779432234
 31
0.0
  0
LINE
  5
1058
330
1A
100
AcDbEntity
  8
0
100
AcDbLine
 10
2016.02792239174
 20
914.570971185155
 30
0.0
 11
2016.097298859381
 21
914.3830968424431
 31
0.0
  0
LINE
  5
1059
330
1A
100
AcDbEntity
  8
0
100
AcDbLine
 10
2028.58201311859
 20
905.600619409175
 30
0.0
 11
2042.875693779912
 21
882.8572096149223
 31
0.0
  0
LINE
  5
1078
330
1A
100
AcDbEntity
  8
0
100
AcDbLine
 10
769.523482286673
 20
902.8566746614478
 30
-43.11698143494021
 11
771.9646273876626
 21
880.9362674704212
 31
-8.75114968089872
  0
LINE
  5
1079
330
1A
100
AcDbEntity
  8
0
 48
0.25
100
AcDbLine
 10
771.9354132395217
 20
881.0233149576866
 30
-24.12716443980392
 11
772.5862244572115
 21
900.7499812387937
 31
-39.81419751634565
  0
DIMENSION
  5
1085
330
1A
100
AcDbEntity
  8
MEASURE
100
AcDbDimension
  2
*D1
 10
2234.286743260863
 20
986.1591056555289
 30
0.0
 11
2223.036743260863
 21
707.368394449316
 31
0.0
 70
    32
  1
（750）
 71
     5
 42
557.5814224124265
  3
AD-STANDARD
100
AcDbAlignedDimension
 13
1931.239321156048
 23
428.5776832431024
 33
0.0
 14
2152.846523252604
 24
986.1591056555289
 34
0.0
 50
90.0
100
AcDbRotatedDimension
1001
ACAD
1000
DSTYLE
1002
{
1070
    40
1040
5.0
1070
   140
1040
3.5
1070
   271
1070
     3
1070
   272
1070
     8
1070
   289
1070
     1
1002
}
  0
LINE
  5
1086
330
1A
100
AcDbEntity
  8
0
 48
0.25
100
AcDbLine
 10
2072.231417056056
 20
683.1390294016228
 30
0.0
 11
2072.231417056056
 21
527.0777117286952
 31
0.0
  0
LINE
  5
1087
330
1A
100
AcDbEntity
  8
0
 48
0.25
100
AcDbLine
 10
2112.231417056056
 20
694.0263298895981
 30
0.0
 11
2112.231417056056
 21
527.0779486854962
 31
0.0
  0
LINE
  5
10ED
330
1A
100
AcDbEntity
  8
0
 48
0.25
100
AcDbLine
 10
2124.212863277655
 20
873.0736722474084
 30
0.0
 11
2120.182949895348
 21
796.1783441598945
 31
0.0
  0
LINE
  5
10EE
330
1A
100
AcDbEntity
  8
0
 48
0.25
100
AcDbLine
 10
2125.074193718207
 20
875.1783441599004
 30
0.0
 11
2120.973284989309
 21
796.9283441598945
 31
0.0
  0
CIRCLE
  5
10EF
330
1A
100
AcDbEntity
  8
0
 48
0.25
100
AcDbCircle
 10
2092.231417056056
 20
813.1783684226357
 30
0.0
 40
23.0
  0
CIRCLE
  5
10F0
330
1A
100
AcDbEntity
  8
0
 48
0.25
100
AcDbCircle
 10
2092.231417056056
 20
813.1783684226357
 30
0.0
 40
24.5
  0
CIRCLE
  5
10F1
330
1A
100
AcDbEntity
  8
0
 48
0.25
100
AcDbCircle
 10
2092.231417056056
 20
813.1783684226357
 30
0.0
 40
25.0
  0
SPLINE
  5
10F2
330
1A
100
AcDbEntity
  8
0
100
AcDbSpline
210
0.0
220
0.0
230
1.0
 70
     8
 71
     3
 72
    11
 73
     7
 74
     5
 42
0.0000000001
 43
0.0000000001
 44
0.0000000001
 40
0.0
 40
0.0
 40
0.0
 40
0.0
 40
13.43216614429898
 40
28.73723501832129
 40
42.04537364078992
 40
57.14867580187309
 40
57.14867580187309
 40
57.14867580187309
 40
57.14867580187309
 10
2072.231417056056
 20
688.1390294016236
 30
0.0
 10
2073.397497669774
 20
693.3073408968366
 30
0.0
 10
2075.892250361686
 20
704.3646030309014
 30
0.0
 10
2093.324266218667
 20
698.604843096735
 30
0.0
 10
2102.913870443675
 20
681.9969722469608
 30
0.0
 10
2108.997439043919
 20
693.1157001425003
 30
0.0
 10
2112.231417056056
 20
699.0263298895988
 30
0.0
 11
2072.231417056056
 21
688.1390294016236
 31
0.0
 11
2077.787631432081
 21
700.3681572992173
 31
0.0
 11
2092.55383020034
 21
696.3426750703602
 31
0.0
 11
2102.487452514509
 21
687.4866205699472
 31
0.0
 11
2112.231417056056
 21
699.0263298895988
 31
0.0
  0
SPLINE
  5
10F3
330
1A
100
AcDbEntity
  8
0
100
AcDbSpline
210
0.0
220
0.0
230
1.0
 70
     8
 71
     3
 72
    11
 73
     7
 74
     5
 42
0.0000000001
 43
0.0000000001
 44
0.0000000001
 40
0.0
 40
0.0
 40
0.0
 40
0.0
 40
13.43216614429898
 40
28.73723501832129
 40
42.04537364078992
 40
57.14867580187309
 40
57.14867580187309
 40
57.14867580187309
 40
57.14867580187309
 10
2072.231417056056
 20
683.1390294016236
 30
0.0
 10
2073.397497669774
 20
688.3073408968366
 30
0.0
 10
2075.892250361686
 20
699.3646030309014
 30
0.0
 10
2093.324266218667
 20
693.6048430967349
 30
0.0
 10
2102.913870443675
 20
676.9969722469611
 30
0.0
 10
2108.997439043919
 20
688.1157001425004
 30
0.0
 10
2112.231417056056
 20
694.0263298895988
 30
0.0
 11
2072.231417056056
 21
683.1390294016236
 31
0.0
 11
2077.787631432081
 21
695.3681572992173
 31
0.0
 11
2092.55383020034
 21
691.3426750703601
 31
0.0
 11
2102.487452514509
 21
682.4866205699472
 31
0.0
 11
2112.231417056056
 21
694.0263298895988
 31
0.0
  0
LINE
  5
10F4
330
1A
100
AcDbEntity
  8
0
 48
0.25
100
AcDbLine
 10
2120.973284989309
 20
796.9283441598941
 30
0.0
 11
2120.182949895347
 21
796.1783441598945
 31
0.0
  0
LINE
  5
10F5
330
1A
100
AcDbEntity
  8
0
 48
0.25
100
AcDbLine
 10
2120.182949895347
 20
796.1783441598945
 30
0.0
 11
2110.561697333951
 21
796.1783441598945
 31
0.0
  0
LINE
  5
10F6
330
1A
100
AcDbEntity
  8
0
 48
0.25
100
AcDbLine
 10
2072.231417056056
 20
798.1783684226357
 30
0.0
 11
2072.231417056056
 21
688.1390294016227
 31
0.0
  0
LINE
  5
10F7
330
1A
100
AcDbEntity
  8
0
 48
0.25
100
AcDbLine
 10
2112.231417056056
 20
796.1783441598945
 30
0.0
 11
2112.231417056056
 21
699.0263298895982
 31
0.0
  0
LINE
  5
10F8
330
1A
100
AcDbEntity
  8
0
100
AcDbLine
 10
2157.404999695932
 20
960.9945036374465
 30
0.0
 11
2161.756401413198
 21
962.8656063758716
 31
0.0
  0
LINE
  5
10F9
330
1A
100
AcDbEntity
  8
0
100
AcDbLine
 10
2161.789045317693
 20
962.8796432548051
 30
0.0
 11
2156.209674111838
 21
896.5031238766869
 31
0.0
  0
LINE
  5
10FA
330
1A
100
AcDbEntity
  8
0
100
AcDbLine
 10
2158.431982473753
 20
965.7902307133749
 30
0.0
 11
2164.078921997957
 21
968.2184147087832
 31
0.0
  0
LINE
  5
10FB
330
1A
100
AcDbEntity
  8
0
100
AcDbLine
 10
2161.24703049702
 20
976.7974814466397
 30
0.0
 11
2159.409692121861
 21
976.0074259453213
 31
0.0
  0
ARC
  5
10FC
330
1A
100
AcDbEntity
  8
0
100
AcDbCircle
 10
2113.981500796031
 20
972.8012704806657
 30
0.0
 40
45.0
100
AcDbArc
 50
235.4986574455561
 51
351.0367521745763
  0
ARC
  5
10FD
330
1A
100
AcDbEntity
  8
0
 48
0.25
100
AcDbCircle
 10
2082.737422603135
 20
956.1007234964844
 30
0.0
 40
1.0
100
AcDbArc
 50
23.26770481015119
 51
203.2677048101512
  0
LINE
  5
10FE
330
1A
100
AcDbEntity
  8
0
 48
0.25
100
AcDbLine
 10
2083.656091790714
 20
956.4957512471455
 30
0.0
 11
2081.818753415556
 21
955.7056957458238
 31
0.0
  0
LINE
  5
10FF
330
1A
100
AcDbEntity
  8
0
 48
0.25
100
AcDbLine
 10
2077.225407477659
 20
953.7305569925191
 30
0.0
 11
2075.3880691025
 21
952.9405014911972
 31
0.0
  0
ARC
  5
1100
330
1A
100
AcDbEntity
  8
0
 48
0.25
100
AcDbCircle
 10
2076.30673829008
 20
953.3355292418578
 30
0.0
 40
1.0
100
AcDbArc
 50
23.26770481015119
 51
203.2677048101512
  0
LINE
  5
1101
330
1A
100
AcDbEntity
  8
0
 48
0.25
100
AcDbLine
 10
2070.794723164603
 20
950.9653627378925
 30
0.0
 11
2068.957384789444
 21
950.1753072365707
 31
0.0
  0
ARC
  5
1102
330
1A
100
AcDbEntity
  8
0
 48
0.25
100
AcDbCircle
 10
2069.876053977024
 20
950.5703349872314
 30
0.0
 40
1.0
100
AcDbArc
 50
23.26770481015119
 51
203.2677048101512
  0
LINE
  5
1103
330
1A
100
AcDbEntity
  8
0
 48
0.25
100
AcDbLine
 10
2064.364038851548
 20
948.2001684832662
 30
0.0
 11
2062.526700476389
 21
947.4101129819443
 31
0.0
  0
LINE
  5
1104
330
1A
100
AcDbEntity
  8
0
 48
0.25
100
AcDbLine
 10
2051.502670225437
 20
942.669779974013
 30
0.0
 11
2049.665331850277
 21
941.8797244726912
 31
0.0
  0
ARC
  5
1105
330
1A
100
AcDbEntity
  8
0
 48
0.25
100
AcDbCircle
 10
2050.584001037857
 20
942.2747522233519
 30
0.0
 40
1.0
100
AcDbArc
 50
23.26770481015119
 51
203.2677048101512
  0
LINE
  5
1106
330
1A
100
AcDbEntity
  8
0
 48
0.25
100
AcDbLine
 10
2057.933354538492
 20
945.4349742286396
 30
0.0
 11
2056.096016163333
 21
944.6449187273177
 31
0.0
  0
ARC
  5
1107
330
1A
100
AcDbEntity
  8
0
 48
0.25
100
AcDbCircle
 10
2057.014685350913
 20
945.0399464779785
 30
0.0
 40
1.0
100
AcDbArc
 50
23.26770481015119
 51
203.2677048101512
  0
ARC
  5
1108
330
1A
100
AcDbEntity
  8
0
 48
0.25
100
AcDbCircle
 10
2063.445369663968
 20
947.8051407326049
 30
0.0
 40
1.0
100
AcDbArc
 50
23.26770481015119
 51
203.2677048101512
  0
LINE
  5
1109
330
1A
100
AcDbEntity
  8
0
 48
0.25
100
AcDbLine
 10
2059.534906433614
 20
914.178344159918
 30
-0.0000000000000002
 11
2059.534906433614
 21
883.1783441599183
 31
0.0000000000000107
  0
LINE
  5
110A
330
1A
100
AcDbEntity
  8
0
100
AcDbLine
 10
2059.38867861443
 20
883.1783441599183
 30
0.0
 11
2141.534906433613
 21
883.1783441599176
 31
0.0
  0
LINE
  5
110B
330
1A
100
AcDbEntity
  8
0
 48
0.25
100
AcDbLine
 10
2141.534906433613
 20
883.1783441599176
 30
0.0000000000000107
 11
2141.534906433614
 21
914.1783441599173
 31
0.0000000000000105
  0
LINE
  5
110C
330
1A
100
AcDbEntity
  8
0
100
AcDbLine
 10
2059.534906433614
 20
914.178344159918
 30
0.0
 11
2141.534906433614
 21
914.1783441599173
 31
0.0
  0
LINE
  5
110D
330
1A
100
AcDbEntity
  8
0
100
AcDbLine
 10
2157.377510450732
 20
984.177705631887
 30
0.0
 11
2160.852002746359
 21
977.716150634219
 31
0.0
  0
LINE
  5
110E
330
1A
100
AcDbEntity
  8
0
 48
0.25
100
AcDbLine
 10
2160.208934315054
 20
977.4396312087565
 30
0.0
 11
2160.524956515583
 21
976.7046958586929
 31
0.0
  0
LINE
  5
110F
330
1A
100
AcDbEntity
  8
0
100
AcDbLine
 10
2159.321057489327
 20
976.1870192774004
 30
0.0
 11
2159.409692121861
 21
976.0074259453213
 31
0.0
  0
ARC
  5
1110
330
1A
100
AcDbEntity
  8
0
100
AcDbCircle
 10
2156.49676601378
 20
983.7041137856967
 30
0.0
 40
1.0
100
AcDbArc
 50
28.26770481015933
 51
68.2677048101523
  0
ARC
  5
1111
330
1A
100
AcDbEntity
  8
0
 48
0.25
100
AcDbCircle
 10
2152.846523252604
 20
985.1591056555289
 30
0.0
 40
1.0
100
AcDbArc
 50
68.2677048101523
 51
113.2677048101523
  0
LINE
  5
1112
330
1A
100
AcDbEntity
  8
0
 48
0.25
100
AcDbLine
 10
2153.21679366356
 20
986.0880296689821
 30
0.0
 11
2156.867036424735
 21
984.6330377991499
 31
0.0
  0
LINE
  5
1113
330
1A
100
AcDbEntity
  8
0
 48
0.25
100
AcDbLine
 10
2067.139669653403
 20
875.1783441599123
 30
0.0
 11
2069.707650838271
 21
826.178344159895
 31
0.0
  0
LINE
  5
1114
330
1A
100
AcDbEntity
  8
0
 48
0.25
100
AcDbLine
 10
2078.554368118998
 20
871.1783441598946
 30
0.0
 11
2080.231417056056
 21
839.1783441598949
 31
0.0
  0
LINE
  5
1115
330
1A
100
AcDbEntity
  8
0
 48
0.25
100
AcDbLine
 10
2105.908465993112
 20
871.1783441598946
 30
0.0
 11
2104.231417056056
 21
839.1783441598949
 31
0.0
  0
LINE
  5
1116
330
1A
100
AcDbEntity
  8
0
 48
0.25
100
AcDbLine
 10
2066.388640393904
 20
875.1783441599124
 30
0.0
 11
2068.917315744311
 21
826.9283441598954
 31
0.0
  0
LINE
  5
1117
330
1A
100
AcDbEntity
  8
0
 48
0.25
100
AcDbLine
 10
2071.300472920845
 20
826.1783441598945
 30
0.0
 11
2069.707650838273
 21
826.1783441598945
 31
0.0
  0
LINE
  5
1118
330
1A
100
AcDbEntity
  8
0
 48
0.25
100
AcDbLine
 10
2069.707650838273
 20
826.1783441598945
 30
0.0
 11
2068.917315744312
 21
826.9283441598945
 31
0.0
  0
LINE
  5
1119
330
1A
100
AcDbEntity
  8
0
 48
0.25
100
AcDbLine
 10
2104.231417056056
 20
839.1783441598949
 30
0.0
 11
2080.231417056056
 21
839.1783441598949
 31
0.0
  0
LINE
  5
111A
330
1A
100
AcDbEntity
  8
0
 48
0.25
100
AcDbLine
 10
2122.215604208145
 20
871.1783441598946
 30
0.0
 11
2069.247229903965
 21
871.1783441598946
 31
0.0
  0
LINE
  5
111B
330
1A
100
AcDbEntity
  8
0
100
AcDbLine
 10
2059.388678614438
 20
875.1783441599117
 30
0.0
 11
2086.128114299249
 21
875.1783441599146
 31
0.0
  0
LINE
  5
111C
330
1A
100
AcDbEntity
  8
0
100
AcDbLine
 10
2059.388678614433
 20
878.1783441599163
 30
0.0
 11
2136.279956677749
 21
878.1783441599172
 31
0.0
  0
LINE
  5
111D
330
1A
100
AcDbEntity
  8
0
 48
0.25
100
AcDbLine
 10
2125.231417056056
 20
878.1783441598944
 30
0.0
 11
2066.231417056056
 21
878.1783441598944
 31
0.0
  0
ARC
  5
111E
330
1A
100
AcDbEntity
  8
0
 48
0.25
100
AcDbCircle
 10
2069.247229903965
 20
873.1783441598945
 30
0.0
 40
2.0
100
AcDbArc
 50
183.0
 51
270.0
  0
LINE
  5
111F
330
1A
100
AcDbEntity
  8
0
 48
0.25
100
AcDbLine
 10
2059.388678614438
 20
875.1783441599117
 30
0.0
 11
2058.098678614429
 21
878.1783441599163
 31
0.0
  0
LINE
  5
1120
330
1A
100
AcDbEntity
  8
0
100
AcDbLine
 10
2051.342424385885
 20
878.1783441599163
 30
0.0
 11
2059.388678614432
 21
878.1783441599168
 31
0.0
  0
LINE
  5
1121
330
1A
100
AcDbEntity
  8
0
 48
0.25
100
AcDbLine
 10
2104.231417056056
 20
862.178344159895
 30
0.0
 11
2080.231417056056
 21
862.178344159895
 31
0.0
  0
LINE
  5
1122
330
1A
100
AcDbEntity
  8
0
100
AcDbLine
 10
2131.63832258132
 20
976.0395793668358
 30
0.0
 11
2132.033350331981
 21
975.1209101792564
 31
0.0
  0
LINE
  5
1123
330
1A
100
AcDbEntity
  8
0
100
AcDbLine
 10
2132.556991768899
 20
976.4346071174967
 30
0.0
 11
2131.638322581318
 21
976.0395793668349
 31
0.0
  0
LINE
  5
1124
330
1A
100
AcDbEntity
  8
0
100
AcDbLine
 10
2131.059560993143
 20
976.8792430042813
 30
0.0
 11
2131.889119269527
 21
974.9500377103641
 31
0.0
  0
ARC
  5
1125
330
1A
100
AcDbEntity
  8
0
100
AcDbCircle
 10
2097.106710545948
 20
965.5451106730138
 30
0.0
 40
3.0
100
AcDbArc
 50
267.7769670164922
 51
293.2677048101524
  0
LINE
  5
1126
330
1A
100
AcDbEntity
  8
0
100
AcDbLine
 10
2132.072853107048
 20
975.0290432604979
 30
0.0
 11
2131.889119269527
 21
974.9500377103641
 31
0.0
  0
LINE
  5
1127
330
1A
100
AcDbEntity
  8
0
100
AcDbLine
 10
2132.507383632774
 20
974.0185071541628
 30
0.0
 11
2132.323649795253
 21
973.9395016040289
 31
0.0
  0
LINE
  5
1128
330
1A
100
AcDbEntity
  8
0
100
AcDbLine
 10
2132.033350331981
 20
975.1209101792582
 30
0.0
 11
2131.849616494462
 21
975.0419046291245
 31
0.0
  0
LINE
  5
1129
330
1A
100
AcDbEntity
  8
0
 48
0.25
100
AcDbLine
 10
2134.812324624411
 20
968.1518857222718
 30
0.0
 11
2134.996058461938
 21
968.2308912724092
 31
0.0
  0
LINE
  5
112A
330
1A
100
AcDbEntity
  8
0
100
AcDbLine
 10
2131.63832258132
 20
976.0395793668358
 30
0.0
 11
2134.996058461938
 21
968.2308912724092
 31
0.0
  0
LINE
  5
112B
330
1A
100
AcDbEntity
  8
0
100
AcDbLine
 10
2132.161964018239
 20
977.3532763050743
 30
0.0
 11
2136.823291476037
 21
966.5129798916408
 31
0.0
  0
LINE
  5
112C
330
1A
100
AcDbEntity
  8
0
100
AcDbLine
 10
2131.059560993143
 20
976.8792430042813
 30
0.0
 11
2135.404866250397
 21
966.773881940905
 31
0.0
  0
LINE
  5
112D
330
1A
100
AcDbEntity
  8
0
 48
0.25
100
AcDbLine
 10
2101.533533304261
 20
951.1206776539102
 30
0.0
 11
2101.454527754228
 21
951.304411491194
 31
0.0
  0
LINE
  5
112E
330
1A
100
AcDbEntity
  8
0
 48
0.25
100
AcDbLine
 10
2092.346841428468
 20
947.1704001473009
 30
0.0
 11
2092.267835878435
 21
947.3541339845846
 31
0.0
  0
LINE
  5
112F
330
1A
100
AcDbEntity
  8
0
 48
0.25
100
AcDbLine
 10
2114.40691705606
 20
875.1783441598828
 30
0.0
 11
2113.116917056039
 21
878.1783441599172
 31
0.0
  0
LINE
  5
1130
330
1A
100
AcDbEntity
  8
0
100
AcDbLine
 10
2086.128114299249
 20
875.178344159835
 30
0.0
 11
2086.128114299244
 21
878.178344159911
 31
0.0
  0
LINE
  5
1131
330
1A
100
AcDbEntity
  8
0
100
AcDbLine
 10
2133.406917056055
 20
878.1783441599218
 30
0.0
 11
2133.406917056061
 21
875.1783441599146
 31
0.0
  0
LINE
  5
1132
330
1A
100
AcDbEntity
  8
0
100
AcDbLine
 10
2114.40691705606
 20
875.1783441598828
 30
0.0
 11
2133.406917056061
 21
875.1783441599146
 31
0.0
  0
ARC
  5
1133
330
1A
100
AcDbEntity
  8
0
 48
0.25
100
AcDbCircle
 10
2122.215604208145
 20
873.1783441598945
 30
0.0
 40
2.0
100
AcDbArc
 50
270.0
 51
357.0000000000005
  0
LINE
  5
1134
330
1A
100
AcDbEntity
  8
0
 48
0.25
100
AcDbLine
 10
2124.323164458708
 20
875.1783441598993
 30
0.0
 11
2124.212863277655
 21
873.0736722474084
 31
0.0
  0
LINE
  5
1135
330
1A
100
AcDbEntity
  8
0
100
AcDbLine
 10
2152.451495501944
 20
986.0777748431074
 30
0.0
 11
2132.161964018239
 21
977.3532763050743
 31
0.0
  0
LINE
  5
1136
330
1A
100
AcDbEntity
  8
0
100
AcDbLine
 10
2160.852002746359
 20
977.716150634219
 30
0.0
 11
2136.507269275508
 21
967.2479152417045
 31
0.0
  0
ARC
  5
1137
330
1A
100
AcDbEntity
  8
0
100
AcDbCircle
 10
2136.279956677749
 20
898.1783441599205
 30
0.0
 40
20.0
100
AcDbArc
 50
270.0000000000008
 51
355.1952178742094
  0
LINE
  5
1138
330
1A
100
AcDbEntity
  8
0
100
AcDbLine
 10
2164.215667274316
 20
967.0577805839329
 30
0.0
 11
2162.861085531238
 21
963.6594439302507
 31
0.0
  0
ARC
  5
1139
330
1A
100
AcDbEntity
  8
0
100
AcDbCircle
 10
2161.932161517786
 20
964.0297143412077
 30
0.0
 40
1.0
100
AcDbArc
 50
293.2677048100607
 51
338.2677048100327
  0
LINE
  5
113A
330
1A
100
AcDbEntity
  8
0
100
AcDbLine
 10
2161.789045317693
 20
962.8796432548051
 30
0.0
 11
2162.327189268444
 21
963.1110451536251
 31
0.0
  0
ARC
  5
113B
330
1A
100
AcDbEntity
  8
0
100
AcDbCircle
 10
2163.286743260863
 20
967.4280509948912
 30
0.0
 40
1.0
100
AcDbArc
 50
338.2677048100303
 51
18.26770481006096
  0
LINE
  5
113C
330
1A
100
AcDbEntity
  8
0
100
AcDbLine
 10
2161.24703049702
 20
976.7974814466397
 30
0.0
 11
2164.236345571843
 21
967.7415082503129
 31
0.0
  0
DIMENSION
  5
12B2
330
1A
100
AcDbEntity
  8
MEASURE
100
AcDbDimension
  2
*D2
 10
1964.231417056056
 20
626.5777748431073
 30
0.0
 11
1699.231462856056
 21
637.8277748431074
 31
0.0
 70
    32
 71
     5
 42
529.9999084000001
  3
AD-STANDARD
100
AcDbAlignedDimension
 13
1434.231508656055
 23
545.0777748431073
 33
0.0
 14
1964.231417056056
 24
545.0777748431073
 34
0.0
100
AcDbRotatedDimension
1001
ACAD
1000
DSTYLE
1002
{
1070
    40
1040
5.0
1070
   140
1040
3.5
1070
   271
1070
     3
1070
   272
1070
     8
1070
   289
1070
     1
1002
}
  0
DIMENSION
  5
131B
330
1A
100
AcDbEntity
  8
MEASURE
100
AcDbDimension
  2
*D3
 10
1364.231508656056
 20
556.5777748431073
 30
0.0
 11
1352.981508656055
 21
521.5777748431076
 31
0.0
 70
    32
 71
     5
 42
70.0
  3
AD-STANDARD
100
AcDbAlignedDimension
 13
1434.231508656055
 23
486.5777748431074
 33
0.0
 14
1445.731523856056
 24
556.5777748431073
 34
0.0
 50
90.0
100
AcDbRotatedDimension
1001
ACAD
1000
DSTYLE
1002
{
1070
    40
1040
5.0
1070
   140
1040
3.5
1070
   271
1070
     3
1070
   272
1070
     8
1070
   289
1070
     1
1002
}
  0
DIMENSION
  5
1328
330
1A
100
AcDbEntity
  8
MEASURE
100
AcDbDimension
  2
*D4
 10
1329.231508656055
 20
556.5777748431073
 30
0.0
 11
1317.981508656055
 21
492.5779732431063
 31
0.0
 70
    32
  1
129～139
 71
     5
 42
127.9996032000026
  3
AD-STANDARD
100
AcDbAlignedDimension
 13
1467.231523856055
 23
428.5781716431046
 33
0.0
 14
1445.731523856056
 24
556.5777748431073
 34
0.0
 50
90.0
100
AcDbRotatedDimension
1001
ACAD
1000
DSTYLE
1002
{
1070
    40
1040
5.0
1070
   140
1040
3.5
1070
   271
1070
     3
1070
   272
1070
     8
1070
   289
1070
     1
1002
}
  0
DIMENSION
  5
1335
330
1A
100
AcDbEntity
  8
MEASURE
100
AcDbDimension
  2
*D5
 10
1044.412435859016
 20
358.5781716431018
 30
0.0
 11
894.412435859016
 21
369.8281716431018
 31
0.0
 70
    32
 71
     5
 42
300.0000000000001
  3
AD-STANDARD
100
AcDbAlignedDimension
 13
744.4124358590159
 23
428.5781716431018
 33
0.0
 14
1044.412435859016
 24
428.5781716431017
 34
0.0
100
AcDbRotatedDimension
1001
ACAD
1000
DSTYLE
1002
{
1070
    40
1040
5.0
1070
   140
1040
3.5
1070
   271
1070
     3
1070
   272
1070
     8
1070
   289
1070
     1
1002
}
  0
DIMENSION
  5
1342
330
1A
100
AcDbEntity
  8
MEASURE
100
AcDbDimension
  2
*D6
 10
1434.231508656055
 20
358.5781716431018
 30
0.0
 11
1456.731516256055
 21
369.8281716431018
 31
0.0
 70
    32
 71
     5
 42
45.00001519999933
  3
AD-STANDARD
100
AcDbAlignedDimension
 13
1479.231523856055
 23
428.5781716431046
 33
0.0
 14
1434.231508656055
 24
486.5777748431074
 34
0.0
100
AcDbRotatedDimension
1001
ACAD
1000
DSTYLE
1002
{
1070
    40
1040
5.0
1070
   140
1040
3.5
1070
   271
1070
     3
1070
   272
1070
     8
1070
   289
1070
     1
1002
}
  0
DIMENSION
  5
1381
330
1A
100
AcDbEntity
  8
MEASURE
100
AcDbDimension
  2
*D7
 10
1919.231523856055
 20
358.5781716431018
 30
0.0
 11
1699.231523856055
 21
369.8281716431018
 31
0.0
 70
    32
 71
     5
 42
440.0
  3
AD-STANDARD
100
AcDbAlignedDimension
 13
1479.231523856055
 23
428.5781716431046
 33
0.0
 14
1919.231523856055
 24
428.5781716431046
 34
0.0
100
AcDbRotatedDimension
1001
ACAD
1000
DSTYLE
1002
{
1070
    40
1040
5.0
1070
   140
1040
3.5
1070
   271
1070
     3
1070
   272
1070
     8
1070
   289
1070
     1
1002
}
  0
DIMENSION
  5
138E
330
1A
100
AcDbEntity
  8
MEASURE
100
AcDbDimension
  2
*D8
 10
2106.231417056058
 20
358.5781716431018
 30
0.0
 11
2012.731470456056
 21
369.8281716431018
 31
0.0
 70
    32
 71
     5
 42
186.9998932000026
  3
AD-STANDARD
100
AcDbAlignedDimension
 13
1919.231523856055
 23
428.5781716431046
 33
0.0
 14
2106.231417056058
 24
428.5776832431022
 34
0.0
100
AcDbRotatedDimension
1001
ACAD
1000
DSTYLE
1002
{
1070
    40
1040
5.0
1070
   140
1040
3.5
1070
   271
1070
     3
1070
   272
1070
     8
1070
   289
1070
     1
1002
}
  0
LINE
  5
6263
330
1A
100
AcDbEntity
  8
0
100
AcDbLine
 10
1932.102009684043
 20
447.0841905391207
 30
0.0
 11
2117.720006651942
 21
447.0841905391207
 31
0.0
  0
LINE
  5
6264
330
1A
100
AcDbEntity
  8
0
100
AcDbLine
 10
2063.662834177952
 20
527.0776609690956
 30
0.0
 11
2115.569698239511
 21
527.0779684612071
 31
0.0
  0
ARC
  5
6265
330
1A
100
AcDbEntity
  8
0
100
AcDbCircle
 10
2121.19599354224
 20
456.0778124359648
 30
0.0
 40
1.0
100
AcDbArc
 50
270.0
 51
2.00000000021232
  0
ARC
  5
6266
330
1A
100
AcDbEntity
  8
0
100
AcDbCircle
 10
2121.210302369889
 20
456.0776775431158
 30
0.0
 40
1.0
100
AcDbArc
 50
270.0
 51
2.00000000021232
  0
LINE
  5
6268
330
1A
100
AcDbEntity
  8
0
100
AcDbLine
 10
2122.209688486344
 20
456.112577039822
 30
0.0
 11
2119.798936674133
 21
525.1474765365137
 31
0.0
  0
ARC
  5
6269
330
1A
100
AcDbEntity
  8
0
100
AcDbCircle
 10
2119.823353156027
 20
454.1033586304119
 30
0.0
 40
1.0
100
AcDbArc
 50
96.49601425933596
 51
180.0
  0
LINE
  5
626A
330
1A
100
AcDbEntity
  8
0
100
AcDbLine
 10
2119.598180652467
 20
455.0776775431158
 30
0.0
 11
2121.210297659325
 21
455.0776775431158
 31
0.0
  0
ARC
  5
626B
330
1A
100
AcDbEntity
  8
0
100
AcDbCircle
 10
2121.210297659325
 20
456.0776775431158
 30
0.0
 40
1.0
100
AcDbArc
 50
270.0
 51
2.00000000021232
  0
ARC
  5
626C
330
1A
100
AcDbEntity
  8
0
100
AcDbCircle
 10
2117.800155020095
 20
525.0776775431159
 30
0.0
 40
2.0
100
AcDbArc
 50
2.00000000021232
 51
90.0
  0
LINE
  5
626D
330
1A
100
AcDbEntity
  8
0
100
AcDbLine
 10
2061.66406495053
 20
525.1474765365137
 30
0.0
 11
2060.02142300163
 21
478.1083656347481
 31
0.0
  0
LINE
  5
626E
330
1A
100
AcDbEntity
  8
0
100
AcDbLine
 10
1932.106894431046
 20
447.0776775431158
 30
0.0
 11
2118.823353156027
 21
447.0776775431158
 31
0.0
  0
LINE
  5
626F
330
1A
100
AcDbEntity
  8
0
100
AcDbLine
 10
1997.317887711271
 20
466.3668745084295
 30
0.0
 11
2089.231523856028
 21
483.0704131419633
 31
0.0
  0
ARC
  5
6270
330
1A
100
AcDbEntity
  8
0
100
AcDbCircle
 10
1983.013710501962
 20
545.0776775431158
 30
0.0
 40
80.0
100
AcDbArc
 50
278.4695016428266
 51
280.2999999999718
  0
LINE
  5
6271
330
1A
100
AcDbEntity
  8
0
100
AcDbLine
 10
2118.823353156027
 20
447.0776775431158
 30
0.0
 11
2118.823353156027
 21
454.1033586304119
 31
0.0
  0
LINE
  5
6272
330
1A
100
AcDbEntity
  8
0
100
AcDbLine
 10
2063.662846604568
 20
527.0776775431158
 30
0.0
 11
2117.800155020095
 21
527.0776775431158
 31
0.0
  0
ARC
  5
6273
330
1A
100
AcDbEntity
  8
0
100
AcDbCircle
 10
2063.662846604568
 20
525.0776775431159
 30
0.0
 40
2.0
100
AcDbArc
 50
90.0
 51
177.9999999997877
  0
LINE
  5
6275
330
1A
100
AcDbEntity
  8
0
100
AcDbLine
 10
2121.48141705606
 20
428.5776832431094
 30
0.0
 11
2090.981417056056
 21
428.5776832430949
 31
0.0
  0
LINE
  5
6276
330
1A
100
AcDbEntity
  8
0
100
AcDbLine
 10
2117.231417056056
 20
440.5776832430949
 30
0.0
 11
2117.231417056056
 21
439.6524228710862
 31
0.0
  0
LINE
  5
6277
330
1A
100
AcDbEntity
  8
0
100
AcDbLine
 10
2121.981417056059
 20
435.6940197491005
 30
0.0
 11
2121.981417056059
 21
429.0776832431094
 31
0.0
  0
LINE
  5
6278
330
1A
100
AcDbEntity
  8
0
100
AcDbLine
 10
2090.481417056059
 20
435.5776832431095
 30
0.0
 11
2090.481417056056
 21
429.0776832430949
 31
0.0
  0
LINE
  5
6279
330
1A
100
AcDbEntity
  8
0
100
AcDbLine
 10
2115.231417056056
 20
442.5776832430949
 30
0.0
 11
2097.231417056056
 21
442.5776832430949
 31
0.0
  0
LINE
  5
627A
330
1A
100
AcDbEntity
  8
0
100
AcDbLine
 10
2119.454959920748
 20
436.7546453922207
 30
0.0
 11
2121.610826578613
 21
436.1769826622423
 31
0.0
  0
LINE
  5
627B
330
1A
100
AcDbEntity
  8
0
100
AcDbLine
 10
2121.802045070082
 20
436.0776832430949
 30
0.0
 11
2090.98141705606
 21
436.0776832431095
 31
0.0
  0
ARC
  5
627C
330
1A
100
AcDbEntity
  8
0
100
AcDbCircle
 10
2120.231417056056
 20
439.6524228710862
 30
0.0
 40
3.0
100
AcDbArc
 50
180.0
 51
254.9999999998976
  0
ARC
  5
627D
330
1A
100
AcDbEntity
  8
0
100
AcDbCircle
 10
2115.231417056056
 20
440.5776832430949
 30
0.0
 40
2.0
100
AcDbArc
 50
0.0
 51
90.0
  0
ARC
  5
627E
330
1A
100
AcDbEntity
  8
0
100
AcDbCircle
 10
2121.48141705606
 20
429.0776832431094
 30
0.0
 40
0.5
100
AcDbArc
 50
270.0
 51
0.0
  0
ARC
  5
627F
330
1A
100
AcDbEntity
  8
0
100
AcDbCircle
 10
2121.48141705606
 20
435.6940197491005
 30
0.0
 40
0.5
100
AcDbArc
 50
0.0
 51
74.99999999968185
  0
ARC
  5
6280
330
1A
100
AcDbEntity
  8
0
100
AcDbCircle
 10
2090.98141705606
 20
435.5776832431095
 30
0.0
 40
0.5
100
AcDbArc
 50
90.0
 51
180.0
  0
ARC
  5
6281
330
1A
100
AcDbEntity
  8
0
100
AcDbCircle
 10
2090.981417056056
 20
429.0776832430949
 30
0.0
 40
0.5
100
AcDbArc
 50
180.0
 51
270.0
  0
LINE
  5
6282
330
1A
100
AcDbEntity
  8
0
100
AcDbLine
 10
2093.007874191363
 20
436.7546453922207
 30
0.0
 11
2090.852007533499
 21
436.1769826622423
 31
0.0
  0
LINE
  5
6283
330
1A
100
AcDbEntity
  8
0
100
AcDbLine
 10
2090.481417056052
 20
435.6940197491005
 30
0.0
 11
2090.481417056052
 21
429.0776832431094
 31
0.0
  0
ARC
  5
6284
330
1A
100
AcDbEntity
  8
0
100
AcDbCircle
 10
2090.981417056053
 20
435.6940197491005
 30
0.0
 40
0.5
100
AcDbArc
 50
105.0000000003181
 51
180.0
  0
ARC
  5
6285
330
1A
100
AcDbEntity
  8
0
100
AcDbCircle
 10
2090.981417056053
 20
429.0776832431094
 30
0.0
 40
0.5
100
AcDbArc
 50
180.0
 51
270.0
  0
LINE
  5
6286
330
1A
100
AcDbEntity
  8
0
100
AcDbLine
 10
2095.231417056056
 20
440.5776832430949
 30
0.0
 11
2095.231417056056
 21
439.6524228710862
 31
0.0
  0
ARC
  5
6287
330
1A
100
AcDbEntity
  8
0
100
AcDbCircle
 10
2097.231417056056
 20
440.5776832430949
 30
0.0
 40
2.0
100
AcDbArc
 50
90.0
 51
180.0
  0
ARC
  5
6288
330
1A
100
AcDbEntity
  8
0
100
AcDbCircle
 10
2092.231417056056
 20
439.6524228710862
 30
0.0
 40
3.0
100
AcDbArc
 50
285.0000000001024
 51
0.0
  0
LINE
  5
6289
330
1A
100
AcDbEntity
  8
0
100
AcDbLine
 10
2110.23141705603
 20
442.5776832431095
 30
0.0
 11
2110.23141705603
 21
447.0841905391207
 31
0.0
  0
LINE
  5
628A
330
1A
100
AcDbEntity
  8
0
100
AcDbLine
 10
2109.554884556025
 20
442.5776832430949
 30
0.0
 11
2109.554884556029
 21
447.0841905391207
 31
0.0
  0
LINE
  5
628B
330
1A
100
AcDbEntity
  8
0
100
AcDbLine
 10
2102.231417056033
 20
447.0841905391207
 30
0.0
 11
2102.231417056034
 21
442.5776832431095
 31
0.0
  0
LINE
  5
628C
330
1A
100
AcDbEntity
  8
0
100
AcDbLine
 10
2102.907949556039
 20
442.5776832431095
 30
0.0
 11
2102.907949556038
 21
447.0841905391207
 31
0.0
  0
LINE
  5
628D
330
1A
100
AcDbEntity
  8
0
100
AcDbLine
 10
2106.631417056061
 20
436.0776832430949
 30
0.0
 11
2106.631417056061
 21
428.5776832431094
 31
0.0
  0
LINE
  5
628E
330
1A
100
AcDbEntity
  8
0
100
AcDbLine
 10
2105.831417056058
 20
436.0776832431095
 30
0.0
 11
2105.831417056058
 21
428.5776832430949
 31
0.0
  0
LINE
  5
628F
330
1A
100
AcDbEntity
  8
0
100
AcDbLine
 10
2108.131417056061
 20
436.0776832430949
 30
0.0
 11
2108.131417056061
 21
428.5776832431094
 31
0.0
  0
LINE
  5
6290
330
1A
100
AcDbEntity
  8
0
100
AcDbLine
 10
2107.331417056058
 20
436.0776832431095
 30
0.0
 11
2107.331417056058
 21
428.5776832430949
 31
0.0
  0
LINE
  5
6291
330
1A
100
AcDbEntity
  8
0
100
AcDbLine
 10
2108.831417056058
 20
436.0776832431095
 30
0.0
 11
2108.831417056058
 21
428.5776832430949
 31
0.0
  0
LINE
  5
6292
330
1A
100
AcDbEntity
  8
0
100
AcDbLine
 10
2109.631417056061
 20
436.0776832430949
 30
0.0
 11
2109.631417056061
 21
428.5776832431094
 31
0.0
  0
LINE
  5
6293
330
1A
100
AcDbEntity
  8
0
100
AcDbLine
 10
2111.131417056061
 20
436.0776832430949
 30
0.0
 11
2111.131417056061
 21
428.5776832431094
 31
0.0
  0
LINE
  5
6294
330
1A
100
AcDbEntity
  8
0
100
AcDbLine
 10
2110.331417056058
 20
436.0776832431095
 30
0.0
 11
2110.331417056058
 21
428.5776832430949
 31
0.0
  0
LINE
  5
6295
330
1A
100
AcDbEntity
  8
0
100
AcDbLine
 10
2111.831417056058
 20
436.0776832431095
 30
0.0
 11
2111.831417056058
 21
428.5776832430949
 31
0.0
  0
LINE
  5
6296
330
1A
100
AcDbEntity
  8
0
100
AcDbLine
 10
2112.631417056061
 20
436.0776832430949
 30
0.0
 11
2112.631417056061
 21
428.5776832431094
 31
0.0
  0
LINE
  5
6297
330
1A
100
AcDbEntity
  8
0
100
AcDbLine
 10
2114.131417056061
 20
436.0776832430949
 30
0.0
 11
2114.131417056061
 21
428.5776832431094
 31
0.0
  0
LINE
  5
6298
330
1A
100
AcDbEntity
  8
0
100
AcDbLine
 10
2113.331417056058
 20
436.0776832431095
 30
0.0
 11
2113.331417056058
 21
428.5776832430949
 31
0.0
  0
LINE
  5
6299
330
1A
100
AcDbEntity
  8
0
100
AcDbLine
 10
2114.831417056058
 20
436.0776832431095
 30
0.0
 11
2114.831417056058
 21
428.5776832430949
 31
0.0
  0
LINE
  5
629A
330
1A
100
AcDbEntity
  8
0
100
AcDbLine
 10
2115.631417056061
 20
436.0776832430949
 30
0.0
 11
2115.631417056061
 21
428.5776832431094
 31
0.0
  0
LINE
  5
629B
330
1A
100
AcDbEntity
  8
0
100
AcDbLine
 10
2117.131417056061
 20
436.0776832430949
 30
0.0
 11
2117.131417056061
 21
428.5776832431094
 31
0.0
  0
LINE
  5
629C
330
1A
100
AcDbEntity
  8
0
100
AcDbLine
 10
2116.331417056058
 20
436.0776832431095
 30
0.0
 11
2116.331417056058
 21
428.5776832430949
 31
0.0
  0
LINE
  5
629D
330
1A
100
AcDbEntity
  8
0
100
AcDbLine
 10
2117.831417056058
 20
436.0776832431095
 30
0.0
 11
2117.831417056058
 21
428.5776832430949
 31
0.0
  0
LINE
  5
629E
330
1A
100
AcDbEntity
  8
0
100
AcDbLine
 10
2118.631417056061
 20
436.0776832430949
 30
0.0
 11
2118.631417056061
 21
428.5776832431094
 31
0.0
  0
LINE
  5
629F
330
1A
100
AcDbEntity
  8
0
100
AcDbLine
 10
2120.131417056061
 20
436.0776832430949
 30
0.0
 11
2120.131417056061
 21
428.5776832431094
 31
0.0
  0
LINE
  5
62A0
330
1A
100
AcDbEntity
  8
0
100
AcDbLine
 10
2119.331417056058
 20
436.0776832431095
 30
0.0
 11
2119.331417056058
 21
428.5776832430949
 31
0.0
  0
LINE
  5
62A1
330
1A
100
AcDbEntity
  8
0
100
AcDbLine
 10
2120.831417056058
 20
436.0776832431095
 30
0.0
 11
2120.831417056058
 21
428.5776832430949
 31
0.0
  0
LINE
  5
62A2
330
1A
100
AcDbEntity
  8
0
100
AcDbLine
 10
2121.631417056061
 20
436.0776832430949
 30
0.0
 11
2121.631417056061
 21
428.5776832431094
 31
0.0
  0
LINE
  5
62A3
330
1A
100
AcDbEntity
  8
0
100
AcDbLine
 10
2090.831417056058
 20
436.0776832430949
 30
0.0
 11
2090.831417056058
 21
428.5776832431094
 31
0.0
  0
LINE
  5
62A4
330
1A
100
AcDbEntity
  8
0
100
AcDbLine
 10
2091.631417056061
 20
436.0776832431095
 30
0.0
 11
2091.631417056061
 21
428.5776832430949
 31
0.0
  0
LINE
  5
62A5
330
1A
100
AcDbEntity
  8
0
100
AcDbLine
 10
2093.131417056061
 20
436.0776832431095
 30
0.0
 11
2093.131417056061
 21
428.5776832430949
 31
0.0
  0
LINE
  5
62A6
330
1A
100
AcDbEntity
  8
0
100
AcDbLine
 10
2092.331417056058
 20
436.0776832430949
 30
0.0
 11
2092.331417056058
 21
428.5776832431094
 31
0.0
  0
LINE
  5
62A7
330
1A
100
AcDbEntity
  8
0
100
AcDbLine
 10
2093.831417056058
 20
436.0776832430949
 30
0.0
 11
2093.831417056058
 21
428.5776832431094
 31
0.0
  0
LINE
  5
62A8
330
1A
100
AcDbEntity
  8
0
100
AcDbLine
 10
2094.631417056061
 20
436.0776832431095
 30
0.0
 11
2094.631417056061
 21
428.5776832430949
 31
0.0
  0
LINE
  5
62A9
330
1A
100
AcDbEntity
  8
0
100
AcDbLine
 10
2096.131417056061
 20
436.0776832431095
 30
0.0
 11
2096.131417056061
 21
428.5776832430949
 31
0.0
  0
LINE
  5
62AA
330
1A
100
AcDbEntity
  8
0
100
AcDbLine
 10
2095.331417056058
 20
436.0776832430949
 30
0.0
 11
2095.331417056058
 21
428.5776832431094
 31
0.0
  0
LINE
  5
62AB
330
1A
100
AcDbEntity
  8
0
100
AcDbLine
 10
2096.831417056058
 20
436.0776832430949
 30
0.0
 11
2096.831417056058
 21
428.5776832431094
 31
0.0
  0
LINE
  5
62AC
330
1A
100
AcDbEntity
  8
0
100
AcDbLine
 10
2097.631417056061
 20
436.0776832431095
 30
0.0
 11
2097.631417056061
 21
428.5776832430949
 31
0.0
  0
LINE
  5
62AD
330
1A
100
AcDbEntity
  8
0
100
AcDbLine
 10
2099.131417056061
 20
436.0776832431095
 30
0.0
 11
2099.131417056061
 21
428.5776832430949
 31
0.0
  0
LINE
  5
62AE
330
1A
100
AcDbEntity
  8
0
100
AcDbLine
 10
2098.331417056058
 20
436.0776832430949
 30
0.0
 11
2098.331417056058
 21
428.5776832431094
 31
0.0
  0
LINE
  5
62AF
330
1A
100
AcDbEntity
  8
0
100
AcDbLine
 10
2099.831417056058
 20
436.0776832430949
 30
0.0
 11
2099.831417056058
 21
428.5776832431094
 31
0.0
  0
LINE
  5
62B0
330
1A
100
AcDbEntity
  8
0
100
AcDbLine
 10
2100.631417056061
 20
436.0776832431095
 30
0.0
 11
2100.631417056061
 21
428.5776832430949
 31
0.0
  0
LINE
  5
62B1
330
1A
100
AcDbEntity
  8
0
100
AcDbLine
 10
2102.131417056061
 20
436.0776832431095
 30
0.0
 11
2102.131417056061
 21
428.5776832430949
 31
0.0
  0
LINE
  5
62B2
330
1A
100
AcDbEntity
  8
0
100
AcDbLine
 10
2101.331417056058
 20
436.0776832430949
 30
0.0
 11
2101.331417056058
 21
428.5776832431094
 31
0.0
  0
LINE
  5
62B3
330
1A
100
AcDbEntity
  8
0
100
AcDbLine
 10
2102.831417056058
 20
436.0776832430949
 30
0.0
 11
2102.831417056058
 21
428.5776832431094
 31
0.0
  0
LINE
  5
62B4
330
1A
100
AcDbEntity
  8
0
100
AcDbLine
 10
2103.631417056061
 20
436.0776832431095
 30
0.0
 11
2103.631417056061
 21
428.5776832430949
 31
0.0
  0
LINE
  5
62B5
330
1A
100
AcDbEntity
  8
0
100
AcDbLine
 10
2105.131417056061
 20
436.0776832431095
 30
0.0
 11
2105.131417056061
 21
428.5776832430949
 31
0.0
  0
LINE
  5
62B6
330
1A
100
AcDbEntity
  8
0
100
AcDbLine
 10
2104.331417056058
 20
436.0776832430949
 30
0.0
 11
2104.331417056058
 21
428.5776832431094
 31
0.0
  0
LINE
  5
641F
330
1A
100
AcDbEntity
  8
0
100
AcDbLine
 10
2089.231523856028
 20
483.0776775431158
 30
0.0
 11
2119.336668877732
 21
483.0776775431149
 31
0.0
  0
LINE
  5
6448
330
1A
100
AcDbEntity
  8
0
100
AcDbLine
 10
1470.231523856055
 20
457.5777748431099
 30
0.0
 11
1488.231523856055
 21
457.5777748431099
 31
0.0
  0
LINE
  5
6449
330
1A
100
AcDbEntity
  8
0
100
AcDbLine
 10
1470.231523856055
 20
459.57777484311
 30
0.0
 11
1470.231523856055
 21
457.5777748431099
 31
0.0
  0
LINE
  5
644A
330
1A
100
AcDbEntity
  8
0
100
AcDbLine
 10
1488.231523856055
 20
459.57777484311
 30
0.0
 11
1488.231523856055
 21
457.5777748431099
 31
0.0
  0
LINE
  5
644B
330
1A
100
AcDbEntity
  8
0
100
AcDbLine
 10
1470.231523856055
 20
459.5777748431046
 30
0.0
 11
1488.231523856055
 21
459.57777484311
 31
0.0
  0
LINE
  5
644C
330
1A
100
AcDbEntity
  8
0
100
AcDbLine
 10
1910.231523856055
 20
457.5777748431099
 30
0.0
 11
1928.231523856055
 21
457.5777748431099
 31
0.0
  0
LINE
  5
644D
330
1A
100
AcDbEntity
  8
0
100
AcDbLine
 10
1910.231523856055
 20
459.57777484311
 30
0.0
 11
1910.231523856055
 21
457.5777748431099
 31
0.0
  0
LINE
  5
644E
330
1A
100
AcDbEntity
  8
0
100
AcDbLine
 10
1928.231523856055
 20
459.57777484311
 30
0.0
 11
1928.231523856055
 21
457.5777748431099
 31
0.0
  0
LINE
  5
644F
330
1A
100
AcDbEntity
  8
0
100
AcDbLine
 10
1910.231523856055
 20
459.5777748431046
 30
0.0
 11
1928.231523856055
 21
459.57777484311
 31
0.0
  0
LINE
  5
6454
330
1A
100
AcDbEntity
  8
0
100
AcDbLine
 10
735.4124358590232
 20
457.5780800431097
 30
0.0
 11
753.4124358590233
 21
457.5780800431097
 31
0.0
  0
LINE
  5
6455
330
1A
100
AcDbEntity
  8
0
100
AcDbLine
 10
735.4124358590232
 20
459.5780800431097
 30
0.0
 11
735.4124358590232
 21
457.5780800431097
 31
0.0
  0
LINE
  5
6456
330
1A
100
AcDbEntity
  8
0
100
AcDbLine
 10
753.4124358590233
 20
459.5780800431097
 30
0.0
 11
753.4124358590233
 21
457.5780800431097
 31
0.0
  0
LINE
  5
6457
330
1A
100
AcDbEntity
  8
0
100
AcDbLine
 10
735.4124358590232
 20
459.5780800431044
 30
0.0
 11
753.4124358590233
 21
459.5780800431097
 31
0.0
  0
LINE
  5
6458
330
1A
100
AcDbEntity
  8
0
100
AcDbLine
 10
1035.412435859023
 20
457.5780800431097
 30
0.0
 11
1053.412435859023
 21
457.5780800431097
 31
0.0
  0
LINE
  5
6459
330
1A
100
AcDbEntity
  8
0
100
AcDbLine
 10
1035.412435859023
 20
459.5780800431096
 30
0.0
 11
1035.412435859023
 21
457.5780800431097
 31
0.0
  0
LINE
  5
645A
330
1A
100
AcDbEntity
  8
0
100
AcDbLine
 10
1053.412435859023
 20
459.5780800431096
 30
0.0
 11
1053.412435859023
 21
457.5780800431097
 31
0.0
  0
LINE
  5
645B
330
1A
100
AcDbEntity
  8
0
100
AcDbLine
 10
1035.412435859023
 20
459.5780800431043
 30
0.0
 11
1053.412435859023
 21
459.5780800431096
 31
0.0
  0
LINE
  5
6C06
330
1A
100
AcDbEntity
  8
0
100
AcDbLine
 10
1468.231523856055
 20
449.5781716431046
 30
0.0
 11
1490.231523856055
 21
449.5781716431046
 31
0.0
  0
ARC
  5
6C07
330
1A
100
AcDbEntity
  8
0
100
AcDbCircle
 10
1467.231523856055
 20
430.5781716431047
 30
0.0
 40
2.0
100
AcDbArc
 50
180.0
 51
270.0
  0
LINE
  5
6C08
330
1A
100
AcDbEntity
  8
0
100
AcDbLine
 10
1468.231523856055
 20
449.5781716431046
 30
0.0
 11
1465.231523856055
 21
445.5781716431046
 31
0.0
  0
LINE
  5
6C09
330
1A
100
AcDbEntity
  8
0
100
AcDbLine
 10
1451.220167383754
 20
445.5781716431046
 30
0.0
 11
1442.642139701755
 21
441.5781716431047
 31
0.0
  0
LINE
  5
6C0A
330
1A
100
AcDbEntity
  8
0
100
AcDbLine
 10
1465.231523856055
 20
433.5781716431047
 30
0.0
 11
1465.231523856055
 21
430.5781716431047
 31
0.0
  0
LINE
  5
6C0B
330
1A
100
AcDbEntity
  8
0
100
AcDbLine
 10
1465.231523856055
 20
430.5781716431047
 30
0.0
 11
1493.231523856055
 21
430.5781716431047
 31
0.0
  0
ARC
  5
6C0C
330
1A
100
AcDbEntity
  8
0
100
AcDbCircle
 10
1491.231523856055
 20
430.5781716431047
 30
0.0
 40
2.0
100
AcDbArc
 50
270.0
 51
0.0
  0
LINE
  5
6C0D
330
1A
100
AcDbEntity
  8
0
100
AcDbLine
 10
1493.231523856055
 20
445.5781716431046
 30
0.0
 11
1490.231523856055
 21
449.5781716431046
 31
0.0
  0
LINE
  5
6C0E
330
1A
100
AcDbEntity
  8
0
100
AcDbLine
 10
1515.820908010354
 20
441.5781716431047
 30
0.0
 11
1507.242880328355
 21
445.5781716431046
 31
0.0
  0
LINE
  5
6C0F
330
1A
100
AcDbEntity
  8
0
100
AcDbLine
 10
1442.642139701755
 20
441.5781716431047
 30
0.0
 11
1441.231523856055
 21
433.5781716431047
 31
0.0
  0
LINE
  5
6C10
330
1A
100
AcDbEntity
  8
0
100
AcDbLine
 10
1517.231523856055
 20
433.5781716431047
 30
0.0
 11
1515.820908010354
 21
441.5781716431047
 31
0.0
  0
LINE
  5
6C11
330
1A
100
AcDbEntity
  8
0
100
AcDbLine
 10
1493.231523856055
 20
430.5781716431047
 30
0.0
 11
1493.231523856055
 21
433.5781716431047
 31
0.0
  0
LINE
  5
6C12
330
1A
100
AcDbEntity
  8
0
100
AcDbLine
 10
1442.642139701755
 20
441.5781716431047
 30
0.0
 11
1442.955783799254
 21
441.5781716431047
 31
0.0
  0
LINE
  5
6C13
330
1A
100
AcDbEntity
  8
0
100
AcDbLine
 10
1515.820908010354
 20
441.5781716431047
 30
0.0
 11
1515.507263912855
 21
441.5781716431047
 31
0.0
  0
LINE
  5
6C14
330
1A
100
AcDbEntity
  8
0
100
AcDbLine
 10
1448.797903983054
 20
433.5781716431047
 30
0.0
 11
1441.621416159654
 21
433.5781716431047
 31
0.0
  0
LINE
  5
6C15
330
1A
100
AcDbEntity
  8
0
100
AcDbLine
 10
1516.841631552454
 20
433.5781716431047
 30
0.0
 11
1517.231523856055
 21
433.5781716431047
 31
0.0
  0
LINE
  5
6C16
330
1A
100
AcDbEntity
  8
0
100
AcDbLine
 10
1501.986628369655
 20
433.5781716431047
 30
0.0
 11
1509.665143729055
 21
433.5781716431047
 31
0.0
  0
ARC
  5
6C17
330
1A
100
AcDbEntity
  8
0
100
AcDbCircle
 10
1465.706016738454
 20
417.3287032008047
 30
0.0
 40
25.7781087156
100
AcDbArc
 50
70.16945679556773
 51
109.8305432044323
  0
SPLINE
  5
6C18
330
1A
100
AcDbEntity
  8
0
100
AcDbSpline
210
0.0
220
0.0
230
1.0
 70
     8
 71
     3
 72
    14
 73
    10
 74
     0
 42
0.0000000001
 43
0.0000000001
 40
0.0
 40
0.0
 40
0.0
 40
0.0
 40
0.25
 40
0.25
 40
0.5
 40
0.5
 40
0.75
 40
0.75
 40
1.0
 40
1.0
 40
1.0
 40
1.0
 10
1450.200338470327
 20
441.5781716431538
 30
0.0
 10
1450.241167121287
 20
442.0463578123508
 30
0.0
 10
1450.123888042105
 20
442.4270813270005
 30
0.0
 10
1449.544858607243
 20
442.9581451053081
 30
0.0
 10
1449.075003512675
 20
443.1023531996897
 30
0.0
 10
1447.820514366953
 20
443.1024917891863
 30
0.0
 10
1447.017832294148
 20
442.9588926882097
 30
0.0
 10
1445.160493361805
 20
442.4274540650885
 30
0.0
 10
1444.113575514498
 20
442.0464105975725
 30
0.0
 10
1442.955783799221
 20
441.5781716431538
 30
0.0
  0
LINE
  5
6C19
330
1A
100
AcDbEntity
  8
0
100
AcDbLine
 10
1516.841631552454
 20
433.5781716431047
 30
0.0
 11
1509.665143729055
 21
433.5781716431047
 31
0.0
  0
SPLINE
  5
6C1A
330
1A
100
AcDbEntity
  8
0
100
AcDbSpline
210
0.0
220
0.0
230
1.0
 70
     8
 71
     3
 72
    14
 73
    10
 74
     0
 42
0.0000000001
 43
0.0000000001
 40
0.0
 40
0.0
 40
0.0
 40
0.0
 40
0.2500000000000001
 40
0.2500000000000001
 40
0.5000000000000001
 40
0.5000000000000001
 40
0.75
 40
0.75
 40
1.0
 40
1.0
 40
1.0
 40
1.0
 10
1515.507263912881
 20
441.5781716431538
 30
0.0
 10
1514.349602717057
 20
442.0463578123508
 30
0.0
 10
1513.303453501692
 20
442.4270813270005
 30
0.0
 10
1511.44823085538
 20
442.9581451053081
 30
0.0
 10
1510.643639321717
 20
443.1023531996897
 30
0.0
 10
1509.388825122599
 20
443.1024917891863
 30
0.0
 10
1508.919428994712
 20
442.9588926882097
 30
0.0
 10
1508.339142182721
 20
442.4274540650885
 30
0.0
 10
1508.221875987627
 20
442.0464105975725
 30
0.0
 10
1508.262709241776
 20
441.5781716431538
 30
0.0
  0
ARC
  5
6C1B
330
1A
100
AcDbEntity
  8
0
100
AcDbCircle
 10
1492.757030973655
 20
417.3292872836046
 30
0.0
 40
25.7775592697
100
AcDbArc
 50
70.16901638119321
 51
109.8309836188068
  0
ARC
  5
6C1C
330
1A
100
AcDbEntity
  8
0
100
AcDbCircle
 10
-1589.804988377845
 20
250.2896708620046
 30
0.0
 40
3097.2197332299
100
AcDbArc
 50
3.39265461460797
 51
3.540918781475368
  0
LINE
  5
6C1D
330
1A
100
AcDbEntity
  8
0
100
AcDbLine
 10
1501.986628369655
 20
433.5781716431047
 30
0.0
 11
1484.661054136154
 21
433.5781716431047
 31
0.0
  0
ARC
  5
6C1E
330
1A
100
AcDbEntity
  8
0
100
AcDbCircle
 10
-6215.406114857646
 20
1781.269102260406
 30
0.0
 40
7781.792472617199
100
AcDbArc
 50
350.0269374223019
 51
350.0867380564889
  0
LINE
  5
6C1F
330
1A
100
AcDbEntity
  8
0
100
AcDbLine
 10
1441.621416159654
 20
433.5781716431047
 30
0.0
 11
1442.955783799254
 21
441.5781716431047
 31
0.0
  0
ARC
  5
6C20
330
1A
100
AcDbEntity
  8
0
100
AcDbCircle
 10
-6127.082273619146
 20
-837.2861321285949
 30
0.0
 40
7748.8495111633
100
AcDbArc
 50
9.439544516678562
 51
9.499514528293868
  0
LINE
  5
6C21
330
1A
100
AcDbEntity
  8
0
100
AcDbLine
 10
1456.476419342454
 20
433.5781716431047
 30
0.0
 11
1456.961065668254
 21
441.5781716431047
 31
0.0
  0
LINE
  5
6C22
330
1A
100
AcDbEntity
  8
0
100
AcDbLine
 10
1509.665143729055
 20
433.5781716431047
 30
0.0
 11
1508.262709241754
 21
441.5781716431047
 31
0.0
  0
LINE
  5
6C23
330
1A
100
AcDbEntity
  8
0
100
AcDbLine
 10
1508.262709241754
 20
441.5781716431047
 30
0.0
 11
1501.501982043855
 21
441.5781716431047
 31
0.0
  0
LINE
  5
6C24
330
1A
100
AcDbEntity
  8
0
100
AcDbLine
 10
1484.012079903455
 20
441.5781716431047
 30
0.0
 11
1474.450967808654
 21
441.5781716431047
 31
0.0
  0
LINE
  5
6C25
330
1A
100
AcDbEntity
  8
0
100
AcDbLine
 10
1456.961065668254
 20
441.5781716431047
 30
0.0
 11
1450.200338470355
 21
441.5781716431047
 31
0.0
  0
ARC
  5
6C26
330
1A
100
AcDbEntity
  8
0
100
AcDbCircle
 10
-1626.389686957246
 20
689.0975592397044
 30
0.0
 40
3110.7038774987
100
AcDbArc
 50
355.2883022972231
 51
355.4361376758958
  0
LINE
  5
6C27
330
1A
100
AcDbEntity
  8
0
100
AcDbLine
 10
1473.801993575955
 20
433.5781716431047
 30
0.0
 11
1484.661054136154
 21
433.5781716431047
 31
0.0
  0
LINE
  5
6C28
330
1A
100
AcDbEntity
  8
0
100
AcDbLine
 10
1473.801993575955
 20
433.5781716431047
 30
0.0
 11
1456.476419342454
 21
433.5781716431047
 31
0.0
  0
LINE
  5
6C29
330
1A
100
AcDbEntity
  8
0
100
AcDbLine
 10
1448.797903983054
 20
433.5781716431047
 30
0.0
 11
1456.476419342454
 21
433.5781716431047
 31
0.0
  0
LINE
  5
6C2A
330
1A
100
AcDbEntity
  8
0
100
AcDbLine
 10
1441.231523856055
 20
433.5781716431047
 30
0.0
 11
1441.621416159654
 21
433.5781716431047
 31
0.0
  0
LINE
  5
6C2B
330
1A
100
AcDbEntity
  8
0
100
AcDbLine
 10
1451.220167383754
 20
445.5781716431046
 30
0.0
 11
1507.242880328355
 21
445.5781716431046
 31
0.0
  0
LINE
  5
6C2C
330
1A
100
AcDbEntity
  8
0
100
AcDbLine
 10
1467.231523856055
 20
428.5781716431046
 30
0.0
 11
1491.231523856055
 21
428.5781716431046
 31
0.0
  0
LINE
  5
6C2D
330
1A
100
AcDbEntity
  8
0
100
AcDbLine
 10
1484.661054136154
 20
433.5781716431047
 30
0.0
 11
1484.012079903455
 21
441.5781716431047
 31
0.0
  0
LINE
  5
6C2F
330
1A
100
AcDbEntity
  8
0
100
AcDbLine
 10
1908.231523856055
 20
449.5781716431046
 30
0.0
 11
1930.231523856055
 21
449.5781716431046
 31
0.0
  0
ARC
  5
6C30
330
1A
100
AcDbEntity
  8
0
100
AcDbCircle
 10
1907.231523856055
 20
430.5781716431047
 30
0.0
 40
2.0
100
AcDbArc
 50
180.0
 51
270.0
  0
LINE
  5
6C31
330
1A
100
AcDbEntity
  8
0
100
AcDbLine
 10
1908.231523856055
 20
449.5781716431046
 30
0.0
 11
1905.231523856055
 21
445.5781716431046
 31
0.0
  0
LINE
  5
6C32
330
1A
100
AcDbEntity
  8
0
100
AcDbLine
 10
1891.220167383754
 20
445.5781716431046
 30
0.0
 11
1882.642139701754
 21
441.5781716431047
 31
0.0
  0
LINE
  5
6C33
330
1A
100
AcDbEntity
  8
0
100
AcDbLine
 10
1905.231523856055
 20
433.5781716431047
 30
0.0
 11
1905.231523856055
 21
430.5781716431047
 31
0.0
  0
LINE
  5
6C34
330
1A
100
AcDbEntity
  8
0
100
AcDbLine
 10
1905.231523856055
 20
430.5781716431047
 30
0.0
 11
1933.231523856055
 21
430.5781716431047
 31
0.0
  0
ARC
  5
6C35
330
1A
100
AcDbEntity
  8
0
100
AcDbCircle
 10
1931.231523856055
 20
430.5781716431047
 30
0.0
 40
2.0
100
AcDbArc
 50
270.0
 51
0.0
  0
LINE
  5
6C36
330
1A
100
AcDbEntity
  8
0
100
AcDbLine
 10
1933.231523856055
 20
445.5781716431046
 30
0.0
 11
1930.231523856055
 21
449.5781716431046
 31
0.0
  0
LINE
  5
6C37
330
1A
100
AcDbEntity
  8
0
100
AcDbLine
 10
1955.820908010354
 20
441.5781716431047
 30
0.0
 11
1947.242880328354
 21
445.5781716431046
 31
0.0
  0
LINE
  5
6C38
330
1A
100
AcDbEntity
  8
0
100
AcDbLine
 10
1882.642139701754
 20
441.5781716431047
 30
0.0
 11
1881.231523856055
 21
433.5781716431047
 31
0.0
  0
LINE
  5
6C39
330
1A
100
AcDbEntity
  8
0
100
AcDbLine
 10
1957.231523856055
 20
433.5781716431047
 30
0.0
 11
1955.820908010354
 21
441.5781716431047
 31
0.0
  0
LINE
  5
6C3A
330
1A
100
AcDbEntity
  8
0
100
AcDbLine
 10
1933.231523856055
 20
430.5781716431047
 30
0.0
 11
1933.231523856055
 21
433.5781716431047
 31
0.0
  0
LINE
  5
6C3B
330
1A
100
AcDbEntity
  8
0
100
AcDbLine
 10
1882.642139701754
 20
441.5781716431047
 30
0.0
 11
1882.955783799254
 21
441.5781716431047
 31
0.0
  0
LINE
  5
6C3C
330
1A
100
AcDbEntity
  8
0
100
AcDbLine
 10
1955.820908010354
 20
441.5781716431047
 30
0.0
 11
1955.507263912855
 21
441.5781716431047
 31
0.0
  0
LINE
  5
6C3D
330
1A
100
AcDbEntity
  8
0
100
AcDbLine
 10
1888.797903983054
 20
433.5781716431047
 30
0.0
 11
1881.621416159654
 21
433.5781716431047
 31
0.0
  0
LINE
  5
6C3E
330
1A
100
AcDbEntity
  8
0
100
AcDbLine
 10
1956.841631552455
 20
433.5781716431047
 30
0.0
 11
1957.231523856055
 21
433.5781716431047
 31
0.0
  0
LINE
  5
6C3F
330
1A
100
AcDbEntity
  8
0
100
AcDbLine
 10
1941.986628369654
 20
433.5781716431047
 30
0.0
 11
1949.665143729055
 21
433.5781716431047
 31
0.0
  0
ARC
  5
6C40
330
1A
100
AcDbEntity
  8
0
100
AcDbCircle
 10
1905.706016738454
 20
417.3287032008047
 30
0.0
 40
25.7781087156
100
AcDbArc
 50
70.16945679556773
 51
109.8305432044323
  0
SPLINE
  5
6C41
330
1A
100
AcDbEntity
  8
0
100
AcDbSpline
210
0.0
220
0.0
230
1.0
 70
     8
 71
     3
 72
    14
 73
    10
 74
     0
 42
0.0000000001
 43
0.0000000001
 40
0.0
 40
0.0
 40
0.0
 40
0.0
 40
0.25
 40
0.25
 40
0.5
 40
0.5
 40
0.75
 40
0.75
 40
1.0
 40
1.0
 40
1.0
 40
1.0
 10
1890.200338470327
 20
441.5781716431538
 30
0.0
 10
1890.241167121288
 20
442.0463578123508
 30
0.0
 10
1890.123888042105
 20
442.4270813270005
 30
0.0
 10
1889.544858607243
 20
442.9581451053081
 30
0.0
 10
1889.075003512675
 20
443.1023531996897
 30
0.0
 10
1887.820514366953
 20
443.1024917891863
 30
0.0
 10
1887.017832294148
 20
442.9588926882097
 30
0.0
 10
1885.160493361805
 20
442.4274540650885
 30
0.0
 10
1884.113575514498
 20
442.0464105975725
 30
0.0
 10
1882.955783799221
 20
441.5781716431538
 30
0.0
  0
LINE
  5
6C42
330
1A
100
AcDbEntity
  8
0
100
AcDbLine
 10
1956.841631552455
 20
433.5781716431047
 30
0.0
 11
1949.665143729055
 21
433.5781716431047
 31
0.0
  0
SPLINE
  5
6C43
330
1A
100
AcDbEntity
  8
0
100
AcDbSpline
210
0.0
220
0.0
230
1.0
 70
     8
 71
     3
 72
    14
 73
    10
 74
     0
 42
0.0000000001
 43
0.0000000001
 40
0.0
 40
0.0
 40
0.0
 40
0.0
 40
0.2500000000000001
 40
0.2500000000000001
 40
0.5000000000000001
 40
0.5000000000000001
 40
0.75
 40
0.75
 40
1.0
 40
1.0
 40
1.0
 40
1.0
 10
1955.507263912881
 20
441.5781716431538
 30
0.0
 10
1954.349602717057
 20
442.0463578123508
 30
0.0
 10
1953.303453501692
 20
442.4270813270005
 30
0.0
 10
1951.44823085538
 20
442.9581451053081
 30
0.0
 10
1950.643639321717
 20
443.1023531996897
 30
0.0
 10
1949.388825122599
 20
443.1024917891863
 30
0.0
 10
1948.919428994711
 20
442.9588926882097
 30
0.0
 10
1948.339142182721
 20
442.4274540650885
 30
0.0
 10
1948.221875987627
 20
442.0464105975725
 30
0.0
 10
1948.262709241776
 20
441.5781716431538
 30
0.0
  0
ARC
  5
6C44
330
1A
100
AcDbEntity
  8
0
100
AcDbCircle
 10
1932.757030973655
 20
417.3292872836046
 30
0.0
 40
25.7775592697
100
AcDbArc
 50
70.16901638119321
 51
109.8309836188068
  0
ARC
  5
6C45
330
1A
100
AcDbEntity
  8
0
100
AcDbCircle
 10
-1149.804988377845
 20
250.2896708620046
 30
0.0
 40
3097.2197332299
100
AcDbArc
 50
3.39265461460797
 51
3.540918781475368
  0
LINE
  5
6C46
330
1A
100
AcDbEntity
  8
0
100
AcDbLine
 10
1941.986628369654
 20
433.5781716431047
 30
0.0
 11
1924.661054136154
 21
433.5781716431047
 31
0.0
  0
ARC
  5
6C47
330
1A
100
AcDbEntity
  8
0
100
AcDbCircle
 10
-5775.406114857645
 20
1781.269102260406
 30
0.0
 40
7781.792472617199
100
AcDbArc
 50
350.0269374223019
 51
350.0867380564889
  0
LINE
  5
6C48
330
1A
100
AcDbEntity
  8
0
100
AcDbLine
 10
1881.621416159654
 20
433.5781716431047
 30
0.0
 11
1882.955783799254
 21
441.5781716431047
 31
0.0
  0
ARC
  5
6C49
330
1A
100
AcDbEntity
  8
0
100
AcDbCircle
 10
-5687.082273619146
 20
-837.2861321285949
 30
0.0
 40
7748.8495111633
100
AcDbArc
 50
9.439544516678562
 51
9.499514528293868
  0
LINE
  5
6C4A
330
1A
100
AcDbEntity
  8
0
100
AcDbLine
 10
1896.476419342454
 20
433.5781716431047
 30
0.0
 11
1896.961065668254
 21
441.5781716431047
 31
0.0
  0
LINE
  5
6C4B
330
1A
100
AcDbEntity
  8
0
100
AcDbLine
 10
1949.665143729055
 20
433.5781716431047
 30
0.0
 11
1948.262709241754
 21
441.5781716431047
 31
0.0
  0
LINE
  5
6C4C
330
1A
100
AcDbEntity
  8
0
100
AcDbLine
 10
1948.262709241754
 20
441.5781716431047
 30
0.0
 11
1941.501982043855
 21
441.5781716431047
 31
0.0
  0
LINE
  5
6C4D
330
1A
100
AcDbEntity
  8
0
100
AcDbLine
 10
1924.012079903455
 20
441.5781716431047
 30
0.0
 11
1914.450967808654
 21
441.5781716431047
 31
0.0
  0
LINE
  5
6C4E
330
1A
100
AcDbEntity
  8
0
100
AcDbLine
 10
1896.961065668254
 20
441.5781716431047
 30
0.0
 11
1890.200338470355
 21
441.5781716431047
 31
0.0
  0
ARC
  5
6C4F
330
1A
100
AcDbEntity
  8
0
100
AcDbCircle
 10
-1186.389686957246
 20
689.0975592397044
 30
0.0
 40
3110.7038774987
100
AcDbArc
 50
355.2883022972231
 51
355.4361376758958
  0
LINE
  5
6C50
330
1A
100
AcDbEntity
  8
0
100
AcDbLine
 10
1913.801993575955
 20
433.5781716431047
 30
0.0
 11
1924.661054136154
 21
433.5781716431047
 31
0.0
  0
LINE
  5
6C51
330
1A
100
AcDbEntity
  8
0
100
AcDbLine
 10
1913.801993575955
 20
433.5781716431047
 30
0.0
 11
1896.476419342454
 21
433.5781716431047
 31
0.0
  0
LINE
  5
6C52
330
1A
100
AcDbEntity
  8
0
100
AcDbLine
 10
1888.797903983054
 20
433.5781716431047
 30
0.0
 11
1896.476419342454
 21
433.5781716431047
 31
0.0
  0
LINE
  5
6C53
330
1A
100
AcDbEntity
  8
0
100
AcDbLine
 10
1881.231523856055
 20
433.5781716431047
 30
0.0
 11
1881.621416159654
 21
433.5781716431047
 31
0.0
  0
LINE
  5
6C54
330
1A
100
AcDbEntity
  8
0
100
AcDbLine
 10
1891.220167383754
 20
445.5781716431046
 30
0.0
 11
1947.242880328354
 21
445.5781716431046
 31
0.0
  0
LINE
  5
6C55
330
1A
100
AcDbEntity
  8
0
100
AcDbLine
 10
1907.231523856055
 20
428.5781716431046
 30
0.0
 11
1931.231523856055
 21
428.5781716431046
 31
0.0
  0
LINE
  5
6C56
330
1A
100
AcDbEntity
  8
0
100
AcDbLine
 10
1924.661054136154
 20
433.5781716431047
 30
0.0
 11
1924.012079903455
 21
441.5781716431047
 31
0.0
  0
DIMENSION
  5
6D51
330
1A
100
AcDbEntity
  8
MEASURE
100
AcDbDimension
  2
*D9
 10
1089.412435859023
 20
626.5777748431073
 30
0.0
 11
894.4124358590233
 21
637.8277748431074
 31
0.0
 70
    32
 71
     5
 42
390.0
  3
AD-STANDARD
100
AcDbAlignedDimension
 13
699.4124358590234
 23
545.0777748431072
 33
0.0
 14
1089.412435859023
 24
545.0777748431072
 34
0.0
100
AcDbRotatedDimension
1001
ACAD
1000
DSTYLE
1002
{
1070
    40
1040
5.0
1070
   140
1040
3.5
1070
   271
1070
     3
1070
   272
1070
     8
1070
   289
1070
     1
1002
}
  0
LINE
  5
6E1F
330
1A
100
AcDbEntity
  8
0
100
AcDbLine
 10
735.9124358590232
 20
457.5781716431018
 30
0.0
 11
735.9124358590232
 21
449.5781716431018
 31
0.0
  0
ARC
  5
6E20
330
1A
100
AcDbEntity
  8
0
100
AcDbCircle
 10
748.6624358590233
 20
445.3026650047003
 30
0.0
 40
12.27550663840318
100
AcDbArc
 50
69.74384199960424
 51
110.2561580003957
  0
LINE
  5
6E21
330
1A
100
AcDbEntity
  8
0
100
AcDbLine
 10
735.9124358590232
 20
457.5781716431018
 30
0.0
 11
752.9124358590232
 21
457.5781716431018
 31
0.0
  0
ARC
  5
6E22
330
1A
100
AcDbEntity
  8
0
100
AcDbCircle
 10
740.1624358590233
 20
445.3026650047003
 30
0.0
 40
12.27550663840318
100
AcDbArc
 50
69.74384199960424
 51
110.2561580003957
  0
LINE
  5
6E23
330
1A
100
AcDbEntity
  8
0
100
AcDbLine
 10
735.9124358590232
 20
449.5781716431018
 30
0.0
 11
752.9124358590232
 21
449.5781716431018
 31
0.0
  0
ARC
  5
6E24
330
1A
100
AcDbEntity
  8
0
100
AcDbCircle
 10
748.662435859016
 20
461.8536782815034
 30
0.0
 40
12.27550663840318
100
AcDbArc
 50
249.7438419996043
 51
290.2561580003958
  0
LINE
  5
6E25
330
1A
100
AcDbEntity
  8
0
100
AcDbLine
 10
735.9124358590159
 20
449.5781716431018
 30
0.0
 11
752.9124358590159
 21
449.5781716431018
 31
0.0
  0
ARC
  5
6E26
330
1A
100
AcDbEntity
  8
0
100
AcDbCircle
 10
740.162435859016
 20
461.8536782815034
 30
0.0
 40
12.27550663840318
100
AcDbArc
 50
249.7438419996043
 51
290.2561580003958
  0
LINE
  5
6E27
330
1A
100
AcDbEntity
  8
0
100
AcDbLine
 10
752.9124358590232
 20
457.5781716431018
 30
0.0
 11
752.9124358590232
 21
449.5781716431018
 31
0.0
  0
LINE
  5
6E28
330
1A
100
AcDbEntity
  8
0
100
AcDbLine
 10
744.4124358590232
 20
456.818982264548
 30
0.0
 11
744.4124358590305
 21
450.3373610216484
 31
0.0
  0
LINE
  5
6E29
330
1A
100
AcDbEntity
  8
0
100
AcDbLine
 10
736.4124358590232
 20
449.5781716431018
 30
0.0
 11
752.4124358590232
 21
449.5781716431018
 31
0.0
  0
LINE
  5
6E2A
330
1A
100
AcDbEntity
  8
0
100
AcDbLine
 10
733.412435859016
 20
449.5781716431018
 30
0.0
 11
755.412435859016
 21
449.5781716431018
 31
0.0
  0
ARC
  5
6E2B
330
1A
100
AcDbEntity
  8
0
100
AcDbCircle
 10
732.412435859016
 20
430.5781716431019
 30
0.0
 40
2.0
100
AcDbArc
 50
180.0
 51
270.0
  0
LINE
  5
6E2C
330
1A
100
AcDbEntity
  8
0
100
AcDbLine
 10
733.412435859016
 20
449.5781716431018
 30
0.0
 11
730.412435859016
 21
445.5781716431018
 31
0.0
  0
LINE
  5
6E2D
330
1A
100
AcDbEntity
  8
0
100
AcDbLine
 10
716.4010793867159
 20
445.5781716431018
 30
0.0
 11
707.823051704716
 21
441.5781716431019
 31
0.0
  0
LINE
  5
6E2E
330
1A
100
AcDbEntity
  8
0
100
AcDbLine
 10
730.412435859016
 20
433.5781716431019
 30
0.0
 11
730.412435859016
 21
430.5781716431019
 31
0.0
  0
LINE
  5
6E2F
330
1A
100
AcDbEntity
  8
0
100
AcDbLine
 10
730.412435859016
 20
430.5781716431019
 30
0.0
 11
758.412435859016
 21
430.5781716431019
 31
0.0
  0
ARC
  5
6E30
330
1A
100
AcDbEntity
  8
0
100
AcDbCircle
 10
756.4124358590159
 20
430.5781716431019
 30
0.0
 40
2.0
100
AcDbArc
 50
270.0
 51
0.0
  0
LINE
  5
6E31
330
1A
100
AcDbEntity
  8
0
100
AcDbLine
 10
758.412435859016
 20
445.5781716431018
 30
0.0
 11
755.412435859016
 21
449.5781716431018
 31
0.0
  0
LINE
  5
6E32
330
1A
100
AcDbEntity
  8
0
100
AcDbLine
 10
781.001820013316
 20
441.5781716431019
 30
0.0
 11
772.423792331316
 21
445.5781716431018
 31
0.0
  0
LINE
  5
6E33
330
1A
100
AcDbEntity
  8
0
100
AcDbLine
 10
707.823051704716
 20
441.5781716431019
 30
0.0
 11
706.4124358590159
 21
433.5781716431019
 31
0.0
  0
LINE
  5
6E34
330
1A
100
AcDbEntity
  8
0
100
AcDbLine
 10
782.412435859016
 20
433.5781716431019
 30
0.0
 11
781.001820013316
 21
441.5781716431019
 31
0.0
  0
LINE
  5
6E35
330
1A
100
AcDbEntity
  8
0
100
AcDbLine
 10
758.412435859016
 20
430.5781716431019
 30
0.0
 11
758.412435859016
 21
433.5781716431019
 31
0.0
  0
LINE
  5
6E36
330
1A
100
AcDbEntity
  8
0
100
AcDbLine
 10
707.823051704716
 20
441.5781716431019
 30
0.0
 11
708.1366958022159
 21
441.5781716431019
 31
0.0
  0
LINE
  5
6E37
330
1A
100
AcDbEntity
  8
0
100
AcDbLine
 10
781.001820013316
 20
441.5781716431019
 30
0.0
 11
780.688175915816
 21
441.5781716431019
 31
0.0
  0
LINE
  5
6E38
330
1A
100
AcDbEntity
  8
0
100
AcDbLine
 10
713.978815986016
 20
433.5781716431019
 30
0.0
 11
706.8023281626159
 21
433.5781716431019
 31
0.0
  0
LINE
  5
6E39
330
1A
100
AcDbEntity
  8
0
100
AcDbLine
 10
782.0225435554159
 20
433.5781716431019
 30
0.0
 11
782.412435859016
 21
433.5781716431019
 31
0.0
  0
LINE
  5
6E3A
330
1A
100
AcDbEntity
  8
0
100
AcDbLine
 10
767.167540372616
 20
433.5781716431019
 30
0.0
 11
774.846055732016
 21
433.5781716431019
 31
0.0
  0
ARC
  5
6E3B
330
1A
100
AcDbEntity
  8
0
100
AcDbCircle
 10
730.886928741416
 20
417.3287032008018
 30
0.0
 40
25.7781087156
100
AcDbArc
 50
70.16945679560278
 51
109.8305432043972
  0
SPLINE
  5
6E3C
330
1A
100
AcDbEntity
  8
0
100
AcDbSpline
210
0.0
220
0.0
230
1.0
 70
     8
 71
     3
 72
    14
 73
    10
 74
     0
 42
0.0000000001
 43
0.0000000001
 40
0.0
 40
0.0
 40
0.0
 40
0.0
 40
0.25
 40
0.25
 40
0.5
 40
0.5
 40
0.75
 40
0.75
 40
1.0
 40
1.0
 40
1.0
 40
1.0
 10
715.3812504732885
 20
441.5781716431514
 30
0.0
 10
715.4220791242487
 20
442.0463578123483
 30
0.0
 10
715.3048000450669
 20
442.4270813269977
 30
0.0
 10
714.7257706102046
 20
442.9581451053059
 30
0.0
 10
714.2559155156363
 20
443.1023531996873
 30
0.0
 10
713.0014263699147
 20
443.1024917891837
 30
0.0
 10
712.1987442971101
 20
442.9588926882067
 30
0.0
 10
710.3414053647669
 20
442.4274540650856
 30
0.0
 10
709.2944875174596
 20
442.0464105975694
 30
0.0
 10
708.1366958021833
 20
441.5781716431514
 30
0.0
  0
LINE
  5
6E3D
330
1A
100
AcDbEntity
  8
0
100
AcDbLine
 10
782.0225435554159
 20
433.5781716431019
 30
0.0
 11
774.846055732016
 21
433.5781716431019
 31
0.0
  0
SPLINE
  5
6E3E
330
1A
100
AcDbEntity
  8
0
100
AcDbSpline
210
0.0
220
0.0
230
1.0
 70
     8
 71
     3
 72
    14
 73
    10
 74
     0
 42
0.0000000001
 43
0.0000000001
 40
0.0
 40
0.0
 40
0.0
 40
0.0
 40
0.2500000000000001
 40
0.2500000000000001
 40
0.5000000000000001
 40
0.5000000000000001
 40
0.75
 40
0.75
 40
1.0
 40
1.0
 40
1.0
 40
1.0
 10
780.688175915843
 20
441.5781716431514
 30
0.0
 10
779.5305147200184
 20
442.0463578123483
 30
0.0
 10
778.4843655046538
 20
442.4270813269977
 30
0.0
 10
776.6291428583414
 20
442.9581451053059
 30
0.0
 10
775.8245513246785
 20
443.1023531996873
 30
0.0
 10
774.5697371255608
 20
443.1024917891837
 30
0.0
 10
774.1003409976731
 20
442.9588926882067
 30
0.0
 10
773.5200541856827
 20
442.4274540650856
 30
0.0
 10
773.4027879905887
 20
442.0464105975694
 30
0.0
 10
773.4436212447377
 20
441.5781716431514
 30
0.0
  0
ARC
  5
6E3F
330
1A
100
AcDbEntity
  8
0
100
AcDbCircle
 10
757.9379429766159
 20
417.3292872836019
 30
0.0
 40
25.7775592697
100
AcDbArc
 50
70.16901638119825
 51
109.8309836188017
  0
ARC
  5
6E40
330
1A
100
AcDbEntity
  8
0
100
AcDbCircle
 10
-2324.624076374884
 20
250.2896708620021
 30
0.0
 40
3097.2197332299
100
AcDbArc
 50
3.392654614601274
 51
3.540918781501575
  0
LINE
  5
6E41
330
1A
100
AcDbEntity
  8
0
100
AcDbLine
 10
767.167540372616
 20
433.5781716431019
 30
0.0
 11
749.841966139116
 21
433.5781716431019
 31
0.0
  0
ARC
  5
6E42
330
1A
100
AcDbEntity
  8
0
100
AcDbCircle
 10
-6950.225202854685
 20
1781.269102260402
 30
0.0
 40
7781.792472617199
100
AcDbArc
 50
350.0269374223015
 51
350.0867380565026
  0
LINE
  5
6E43
330
1A
100
AcDbEntity
  8
0
100
AcDbLine
 10
706.8023281626159
 20
433.5781716431019
 30
0.0
 11
708.1366958022159
 21
441.5781716431019
 31
0.0
  0
ARC
  5
6E44
330
1A
100
AcDbEntity
  8
0
100
AcDbCircle
 10
-6861.901361616185
 20
-837.2861321285977
 30
0.0
 40
7748.8495111633
100
AcDbArc
 50
9.439544516698639
 51
9.499514528300293
  0
LINE
  5
6E45
330
1A
100
AcDbEntity
  8
0
100
AcDbLine
 10
721.6573313454159
 20
433.5781716431019
 30
0.0
 11
722.1419776712159
 21
441.5781716431019
 31
0.0
  0
LINE
  5
6E46
330
1A
100
AcDbEntity
  8
0
100
AcDbLine
 10
774.846055732016
 20
433.5781716431019
 30
0.0
 11
773.443621244716
 21
441.5781716431019
 31
0.0
  0
LINE
  5
6E47
330
1A
100
AcDbEntity
  8
0
100
AcDbLine
 10
773.443621244716
 20
441.5781716431019
 30
0.0
 11
766.682894046816
 21
441.5781716431019
 31
0.0
  0
LINE
  5
6E48
330
1A
100
AcDbEntity
  8
0
100
AcDbLine
 10
749.1929919064159
 20
441.5781716431019
 30
0.0
 11
739.631879811616
 21
441.5781716431019
 31
0.0
  0
LINE
  5
6E49
330
1A
100
AcDbEntity
  8
0
100
AcDbLine
 10
722.1419776712159
 20
441.5781716431019
 30
0.0
 11
715.3812504733159
 21
441.5781716431019
 31
0.0
  0
ARC
  5
6E4A
330
1A
100
AcDbEntity
  8
0
100
AcDbCircle
 10
-2361.208774954285
 20
689.0975592397021
 30
0.0
 40
3110.7038774987
100
AcDbArc
 50
355.2883022971967
 51
355.4361376759022
  0
LINE
  5
6E4B
330
1A
100
AcDbEntity
  8
0
100
AcDbLine
 10
738.9829055789159
 20
433.5781716431019
 30
0.0
 11
749.841966139116
 21
433.5781716431019
 31
0.0
  0
LINE
  5
6E4C
330
1A
100
AcDbEntity
  8
0
100
AcDbLine
 10
738.9829055789159
 20
433.5781716431019
 30
0.0
 11
721.6573313454159
 21
433.5781716431019
 31
0.0
  0
LINE
  5
6E4D
330
1A
100
AcDbEntity
  8
0
100
AcDbLine
 10
713.978815986016
 20
433.5781716431019
 30
0.0
 11
721.6573313454159
 21
433.5781716431019
 31
0.0
  0
LINE
  5
6E4E
330
1A
100
AcDbEntity
  8
0
100
AcDbLine
 10
706.4124358590159
 20
433.5781716431019
 30
0.0
 11
706.8023281626159
 21
433.5781716431019
 31
0.0
  0
LINE
  5
6E4F
330
1A
100
AcDbEntity
  8
0
100
AcDbLine
 10
716.4010793867159
 20
445.5781716431018
 30
0.0
 11
772.423792331316
 21
445.5781716431018
 31
0.0
  0
LINE
  5
6E50
330
1A
100
AcDbEntity
  8
0
100
AcDbLine
 10
732.412435859016
 20
428.5781716431018
 30
0.0
 11
756.4124358590159
 21
428.5781716431018
 31
0.0
  0
LINE
  5
6E51
330
1A
100
AcDbEntity
  8
0
100
AcDbLine
 10
749.841966139116
 20
433.5781716431019
 30
0.0
 11
749.1929919064159
 21
441.5781716431019
 31
0.0
  0
LINE
  5
6E52
330
1A
100
AcDbEntity
  8
0
100
AcDbLine
 10
1035.912435859023
 20
457.5781716431017
 30
0.0
 11
1035.912435859023
 21
449.5781716431017
 31
0.0
  0
ARC
  5
6E53
330
1A
100
AcDbEntity
  8
0
100
AcDbCircle
 10
1048.662435859023
 20
445.3026650047002
 30
0.0
 40
12.27550663840318
100
AcDbArc
 50
69.74384199960424
 51
110.2561580003957
  0
LINE
  5
6E54
330
1A
100
AcDbEntity
  8
0
100
AcDbLine
 10
1035.912435859023
 20
457.5781716431017
 30
0.0
 11
1052.912435859023
 21
457.5781716431017
 31
0.0
  0
ARC
  5
6E55
330
1A
100
AcDbEntity
  8
0
100
AcDbCircle
 10
1040.162435859023
 20
445.3026650047002
 30
0.0
 40
12.27550663840318
100
AcDbArc
 50
69.74384199960424
 51
110.2561580003957
  0
LINE
  5
6E56
330
1A
100
AcDbEntity
  8
0
100
AcDbLine
 10
1035.912435859023
 20
449.5781716431017
 30
0.0
 11
1052.912435859023
 21
449.5781716431017
 31
0.0
  0
ARC
  5
6E57
330
1A
100
AcDbEntity
  8
0
100
AcDbCircle
 10
1048.662435859016
 20
461.8536782815033
 30
0.0
 40
12.27550663840318
100
AcDbArc
 50
249.7438419996043
 51
290.2561580003958
  0
LINE
  5
6E58
330
1A
100
AcDbEntity
  8
0
100
AcDbLine
 10
1035.912435859016
 20
449.5781716431017
 30
0.0
 11
1052.912435859016
 21
449.5781716431017
 31
0.0
  0
ARC
  5
6E59
330
1A
100
AcDbEntity
  8
0
100
AcDbCircle
 10
1040.162435859016
 20
461.8536782815033
 30
0.0
 40
12.27550663840318
100
AcDbArc
 50
249.7438419996043
 51
290.2561580003958
  0
LINE
  5
6E5A
330
1A
100
AcDbEntity
  8
0
100
AcDbLine
 10
1052.912435859023
 20
457.5781716431017
 30
0.0
 11
1052.912435859023
 21
449.5781716431017
 31
0.0
  0
LINE
  5
6E5B
330
1A
100
AcDbEntity
  8
0
100
AcDbLine
 10
1044.412435859023
 20
456.8189822645479
 30
0.0
 11
1044.41243585903
 21
450.3373610216483
 31
0.0
  0
LINE
  5
6E5C
330
1A
100
AcDbEntity
  8
0
100
AcDbLine
 10
1036.412435859023
 20
449.5781716431017
 30
0.0
 11
1052.412435859023
 21
449.5781716431017
 31
0.0
  0
LINE
  5
6E5D
330
1A
100
AcDbEntity
  8
0
100
AcDbLine
 10
1033.412435859016
 20
449.5781716431017
 30
0.0
 11
1055.412435859016
 21
449.5781716431017
 31
0.0
  0
ARC
  5
6E5E
330
1A
100
AcDbEntity
  8
0
100
AcDbCircle
 10
1032.412435859016
 20
430.5781716431018
 30
0.0
 40
2.0
100
AcDbArc
 50
180.0
 51
270.0
  0
LINE
  5
6E5F
330
1A
100
AcDbEntity
  8
0
100
AcDbLine
 10
1033.412435859016
 20
449.5781716431017
 30
0.0
 11
1030.412435859016
 21
445.5781716431017
 31
0.0
  0
LINE
  5
6E60
330
1A
100
AcDbEntity
  8
0
100
AcDbLine
 10
1016.401079386716
 20
445.5781716431017
 30
0.0
 11
1007.823051704716
 21
441.5781716431017
 31
0.0
  0
LINE
  5
6E61
330
1A
100
AcDbEntity
  8
0
100
AcDbLine
 10
1030.412435859016
 20
433.5781716431017
 30
0.0
 11
1030.412435859016
 21
430.5781716431018
 31
0.0
  0
LINE
  5
6E62
330
1A
100
AcDbEntity
  8
0
100
AcDbLine
 10
1030.412435859016
 20
430.5781716431018
 30
0.0
 11
1058.412435859016
 21
430.5781716431018
 31
0.0
  0
ARC
  5
6E63
330
1A
100
AcDbEntity
  8
0
100
AcDbCircle
 10
1056.412435859016
 20
430.5781716431018
 30
0.0
 40
2.0
100
AcDbArc
 50
270.0
 51
0.0
  0
LINE
  5
6E64
330
1A
100
AcDbEntity
  8
0
100
AcDbLine
 10
1058.412435859016
 20
445.5781716431017
 30
0.0
 11
1055.412435859016
 21
449.5781716431017
 31
0.0
  0
LINE
  5
6E65
330
1A
100
AcDbEntity
  8
0
100
AcDbLine
 10
1081.001820013316
 20
441.5781716431017
 30
0.0
 11
1072.423792331316
 21
445.5781716431017
 31
0.0
  0
LINE
  5
6E66
330
1A
100
AcDbEntity
  8
0
100
AcDbLine
 10
1007.823051704716
 20
441.5781716431017
 30
0.0
 11
1006.412435859016
 21
433.5781716431017
 31
0.0
  0
LINE
  5
6E67
330
1A
100
AcDbEntity
  8
0
100
AcDbLine
 10
1082.412435859016
 20
433.5781716431017
 30
0.0
 11
1081.001820013316
 21
441.5781716431017
 31
0.0
  0
LINE
  5
6E68
330
1A
100
AcDbEntity
  8
0
100
AcDbLine
 10
1058.412435859016
 20
430.5781716431018
 30
0.0
 11
1058.412435859016
 21
433.5781716431017
 31
0.0
  0
LINE
  5
6E69
330
1A
100
AcDbEntity
  8
0
100
AcDbLine
 10
1007.823051704716
 20
441.5781716431017
 30
0.0
 11
1008.136695802216
 21
441.5781716431017
 31
0.0
  0
LINE
  5
6E6A
330
1A
100
AcDbEntity
  8
0
100
AcDbLine
 10
1081.001820013316
 20
441.5781716431017
 30
0.0
 11
1080.688175915816
 21
441.5781716431017
 31
0.0
  0
LINE
  5
6E6B
330
1A
100
AcDbEntity
  8
0
100
AcDbLine
 10
1013.978815986016
 20
433.5781716431017
 30
0.0
 11
1006.802328162616
 21
433.5781716431017
 31
0.0
  0
LINE
  5
6E6C
330
1A
100
AcDbEntity
  8
0
100
AcDbLine
 10
1082.022543555416
 20
433.5781716431017
 30
0.0
 11
1082.412435859016
 21
433.5781716431017
 31
0.0
  0
LINE
  5
6E6D
330
1A
100
AcDbEntity
  8
0
100
AcDbLine
 10
1067.167540372616
 20
433.5781716431017
 30
0.0
 11
1074.846055732016
 21
433.5781716431017
 31
0.0
  0
ARC
  5
6E6E
330
1A
100
AcDbEntity
  8
0
100
AcDbCircle
 10
1030.886928741416
 20
417.3287032008017
 30
0.0
 40
25.7781087156
100
AcDbArc
 50
70.16945679560278
 51
109.8305432043972
  0
SPLINE
  5
6E6F
330
1A
100
AcDbEntity
  8
0
100
AcDbSpline
210
0.0
220
0.0
230
1.0
 70
     8
 71
     3
 72
    14
 73
    10
 74
     0
 42
0.0000000001
 43
0.0000000001
 40
0.0
 40
0.0
 40
0.0
 40
0.0
 40
0.25
 40
0.25
 40
0.5
 40
0.5
 40
0.75
 40
0.75
 40
1.0
 40
1.0
 40
1.0
 40
1.0
 10
1015.381250473288
 20
441.5781716431513
 30
0.0
 10
1015.422079124248
 20
442.0463578123482
 30
0.0
 10
1015.304800045067
 20
442.4270813269976
 30
0.0
 10
1014.725770610205
 20
442.9581451053057
 30
0.0
 10
1014.255915515636
 20
443.1023531996872
 30
0.0
 10
1013.001426369914
 20
443.1024917891835
 30
0.0
 10
1012.19874429711
 20
442.9588926882066
 30
0.0
 10
1010.341405364767
 20
442.4274540650855
 30
0.0
 10
1009.294487517459
 20
442.0464105975693
 30
0.0
 10
1008.136695802183
 20
441.5781716431513
 30
0.0
  0
LINE
  5
6E70
330
1A
100
AcDbEntity
  8
0
100
AcDbLine
 10
1082.022543555416
 20
433.5781716431017
 30
0.0
 11
1074.846055732016
 21
433.5781716431017
 31
0.0
  0
SPLINE
  5
6E71
330
1A
100
AcDbEntity
  8
0
100
AcDbSpline
210
0.0
220
0.0
230
1.0
 70
     8
 71
     3
 72
    14
 73
    10
 74
     0
 42
0.0000000001
 43
0.0000000001
 40
0.0
 40
0.0
 40
0.0
 40
0.0
 40
0.2500000000000001
 40
0.2500000000000001
 40
0.5000000000000001
 40
0.5000000000000001
 40
0.75
 40
0.75
 40
1.0
 40
1.0
 40
1.0
 40
1.0
 10
1080.688175915843
 20
441.5781716431513
 30
0.0
 10
1079.530514720018
 20
442.0463578123482
 30
0.0
 10
1078.484365504654
 20
442.4270813269976
 30
0.0
 10
1076.629142858341
 20
442.9581451053057
 30
0.0
 10
1075.824551324678
 20
443.1023531996872
 30
0.0
 10
1074.56973712556
 20
443.1024917891835
 30
0.0
 10
1074.100340997673
 20
442.9588926882066
 30
0.0
 10
1073.520054185682
 20
442.4274540650855
 30
0.0
 10
1073.402787990589
 20
442.0464105975693
 30
0.0
 10
1073.443621244737
 20
441.5781716431513
 30
0.0
  0
ARC
  5
6E72
330
1A
100
AcDbEntity
  8
0
100
AcDbCircle
 10
1057.937942976616
 20
417.3292872836018
 30
0.0
 40
25.7775592697
100
AcDbArc
 50
70.16901638119825
 51
109.8309836188017
  0
ARC
  5
6E73
330
1A
100
AcDbEntity
  8
0
100
AcDbCircle
 10
-2024.624076374884
 20
250.289670862002
 30
0.0
 40
3097.2197332299
100
AcDbArc
 50
3.392654614601274
 51
3.540918781501575
  0
LINE
  5
6E74
330
1A
100
AcDbEntity
  8
0
100
AcDbLine
 10
1067.167540372616
 20
433.5781716431017
 30
0.0
 11
1049.841966139116
 21
433.5781716431017
 31
0.0
  0
ARC
  5
6E75
330
1A
100
AcDbEntity
  8
0
100
AcDbCircle
 10
-6650.225202854684
 20
1781.269102260402
 30
0.0
 40
7781.792472617199
100
AcDbArc
 50
350.0269374223015
 51
350.0867380565026
  0
LINE
  5
6E76
330
1A
100
AcDbEntity
  8
0
100
AcDbLine
 10
1006.802328162616
 20
433.5781716431017
 30
0.0
 11
1008.136695802216
 21
441.5781716431017
 31
0.0
  0
ARC
  5
6E77
330
1A
100
AcDbEntity
  8
0
100
AcDbCircle
 10
-6561.901361616185
 20
-837.2861321285977
 30
0.0
 40
7748.8495111633
100
AcDbArc
 50
9.439544516698639
 51
9.499514528300293
  0
LINE
  5
6E78
330
1A
100
AcDbEntity
  8
0
100
AcDbLine
 10
1021.657331345416
 20
433.5781716431017
 30
0.0
 11
1022.141977671216
 21
441.5781716431017
 31
0.0
  0
LINE
  5
6E79
330
1A
100
AcDbEntity
  8
0
100
AcDbLine
 10
1074.846055732016
 20
433.5781716431017
 30
0.0
 11
1073.443621244716
 21
441.5781716431017
 31
0.0
  0
LINE
  5
6E7A
330
1A
100
AcDbEntity
  8
0
100
AcDbLine
 10
1073.443621244716
 20
441.5781716431017
 30
0.0
 11
1066.682894046816
 21
441.5781716431017
 31
0.0
  0
LINE
  5
6E7B
330
1A
100
AcDbEntity
  8
0
100
AcDbLine
 10
1049.192991906416
 20
441.5781716431017
 30
0.0
 11
1039.631879811616
 21
441.5781716431017
 31
0.0
  0
LINE
  5
6E7C
330
1A
100
AcDbEntity
  8
0
100
AcDbLine
 10
1022.141977671216
 20
441.5781716431017
 30
0.0
 11
1015.381250473316
 21
441.5781716431017
 31
0.0
  0
ARC
  5
6E7D
330
1A
100
AcDbEntity
  8
0
100
AcDbCircle
 10
-2061.208774954284
 20
689.0975592397019
 30
0.0
 40
3110.7038774987
100
AcDbArc
 50
355.2883022971967
 51
355.4361376759022
  0
LINE
  5
6E7E
330
1A
100
AcDbEntity
  8
0
100
AcDbLine
 10
1038.982905578916
 20
433.5781716431017
 30
0.0
 11
1049.841966139116
 21
433.5781716431017
 31
0.0
  0
LINE
  5
6E7F
330
1A
100
AcDbEntity
  8
0
100
AcDbLine
 10
1038.982905578916
 20
433.5781716431017
 30
0.0
 11
1021.657331345416
 21
433.5781716431017
 31
0.0
  0
LINE
  5
6E80
330
1A
100
AcDbEntity
  8
0
100
AcDbLine
 10
1013.978815986016
 20
433.5781716431017
 30
0.0
 11
1021.657331345416
 21
433.5781716431017
 31
0.0
  0
LINE
  5
6E81
330
1A
100
AcDbEntity
  8
0
100
AcDbLine
 10
1006.412435859016
 20
433.5781716431017
 30
0.0
 11
1006.802328162616
 21
433.5781716431017
 31
0.0
  0
LINE
  5
6E82
330
1A
100
AcDbEntity
  8
0
100
AcDbLine
 10
1016.401079386716
 20
445.5781716431017
 30
0.0
 11
1072.423792331316
 21
445.5781716431017
 31
0.0
  0
LINE
  5
6E83
330
1A
100
AcDbEntity
  8
0
100
AcDbLine
 10
1032.412435859016
 20
428.5781716431017
 30
0.0
 11
1056.412435859016
 21
428.5781716431017
 31
0.0
  0
LINE
  5
6E84
330
1A
100
AcDbEntity
  8
0
100
AcDbLine
 10
1049.841966139116
 20
433.5781716431017
 30
0.0
 11
1049.192991906416
 21
441.5781716431017
 31
0.0
  0
LINE
  5
6E97
330
1A
100
AcDbEntity
  8
0
100
AcDbLine
 10
1487.731523856055
 20
449.5777748431101
 30
0.0
 11
1470.731523856055
 21
449.5777748431101
 31
0.0
  0
ARC
  5
6E98
330
1A
100
AcDbEntity
  8
0
100
AcDbCircle
 10
1479.231523856055
 20
465.8185854645551
 30
0.0
 40
16.24081062144507
100
AcDbArc
 50
252.4120462260086
 51
287.5879537739915
  0
LINE
  5
6E99
330
1A
100
AcDbEntity
  8
0
100
AcDbLine
 10
1489.046478432278
 20
457.57777484311
 30
0.0
 11
1469.416569279831
 21
457.57777484311
 31
0.0
  0
ARC
  5
6E9B
330
1A
100
AcDbEntity
  8
0
100
AcDbCircle
 10
1487.731523856055
 20
458.4573695323875
 30
0.0
 40
8.879594689277416
100
AcDbArc
 50
246.1350745839518
 51
270.0
  0
LINE
  5
6E9C
330
1A
100
AcDbEntity
  8
0
100
AcDbLine
 10
1489.046478432278
 20
450.3369642216648
 30
0.0
 11
1489.046478432278
 21
457.57777484311
 31
0.0
  0
LINE
  5
6E9D
330
1A
100
AcDbEntity
  8
0
100
AcDbLine
 10
1487.731523856055
 20
449.5777748431101
 30
0.0
 11
1489.046478432278
 21
450.3369642216648
 31
0.0
  0
LINE
  5
6E9E
330
1A
100
AcDbEntity
  8
0
100
AcDbLine
 10
1484.139001144167
 20
450.3369642216648
 30
0.0
 11
1484.139001144167
 21
457.57777484311
 31
0.0
  0
LINE
  5
6E9F
330
1A
100
AcDbEntity
  8
0
100
AcDbLine
 10
1474.324046567943
 20
450.3369642216649
 30
0.0
 11
1474.324046567943
 21
457.57777484311
 31
0.0
  0
LINE
  5
6EA0
330
1A
100
AcDbEntity
  8
0
100
AcDbLine
 10
1469.416569279831
 20
450.3369642216648
 30
0.0
 11
1469.416569279831
 21
457.57777484311
 31
0.0
  0
LINE
  5
6EA1
330
1A
100
AcDbEntity
  8
0
100
AcDbLine
 10
1474.324046567943
 20
450.3369642216649
 30
0.0
 11
1474.324046567943
 21
457.57777484311
 31
0.0
  0
ARC
  5
6EA2
330
1A
100
AcDbEntity
  8
0
100
AcDbCircle
 10
1470.731523856055
 20
458.4573695323875
 30
0.0
 40
8.879594689277416
100
AcDbArc
 50
270.0
 51
293.8649254160481
  0
LINE
  5
6EA3
330
1A
100
AcDbEntity
  8
0
100
AcDbLine
 10
1470.731523856055
 20
449.5777748431101
 30
0.0
 11
1469.416569279831
 21
450.3369642216648
 31
0.0
  0
LINE
  5
6EA4
330
1A
100
AcDbEntity
  8
0
100
AcDbLine
 10
1927.731523856055
 20
449.5777748431101
 30
0.0
 11
1910.731523856055
 21
449.5777748431101
 31
0.0
  0
ARC
  5
6EA5
330
1A
100
AcDbEntity
  8
0
100
AcDbCircle
 10
1919.231523856055
 20
465.8185854645551
 30
0.0
 40
16.24081062144507
100
AcDbArc
 50
252.4120462260086
 51
287.5879537739915
  0
LINE
  5
6EA6
330
1A
100
AcDbEntity
  8
0
100
AcDbLine
 10
1929.046478432278
 20
457.57777484311
 30
0.0
 11
1909.416569279831
 21
457.57777484311
 31
0.0
  0
ARC
  5
6EA8
330
1A
100
AcDbEntity
  8
0
100
AcDbCircle
 10
1927.731523856055
 20
458.4573695323875
 30
0.0
 40
8.879594689277416
100
AcDbArc
 50
246.1350745839518
 51
270.0
  0
LINE
  5
6EA9
330
1A
100
AcDbEntity
  8
0
100
AcDbLine
 10
1929.046478432278
 20
450.3369642216648
 30
0.0
 11
1929.046478432278
 21
457.57777484311
 31
0.0
  0
LINE
  5
6EAA
330
1A
100
AcDbEntity
  8
0
100
AcDbLine
 10
1927.731523856055
 20
449.5777748431101
 30
0.0
 11
1929.046478432278
 21
450.3369642216648
 31
0.0
  0
LINE
  5
6EAB
330
1A
100
AcDbEntity
  8
0
100
AcDbLine
 10
1924.139001144166
 20
450.3369642216648
 30
0.0
 11
1924.139001144166
 21
457.57777484311
 31
0.0
  0
LINE
  5
6EAC
330
1A
100
AcDbEntity
  8
0
100
AcDbLine
 10
1914.324046567943
 20
450.3369642216649
 30
0.0
 11
1914.324046567943
 21
457.57777484311
 31
0.0
  0
LINE
  5
6EAD
330
1A
100
AcDbEntity
  8
0
100
AcDbLine
 10
1909.416569279831
 20
450.3369642216648
 30
0.0
 11
1909.416569279831
 21
457.57777484311
 31
0.0
  0
LINE
  5
6EAE
330
1A
100
AcDbEntity
  8
0
100
AcDbLine
 10
1914.324046567943
 20
450.3369642216649
 30
0.0
 11
1914.324046567943
 21
457.57777484311
 31
0.0
  0
ARC
  5
6EAF
330
1A
100
AcDbEntity
  8
0
100
AcDbCircle
 10
1910.731523856055
 20
458.4573695323875
 30
0.0
 40
8.879594689277416
100
AcDbArc
 50
270.0
 51
293.8649254160481
  0
LINE
  5
6EB0
330
1A
100
AcDbEntity
  8
0
100
AcDbLine
 10
1910.731523856055
 20
449.5777748431101
 30
0.0
 11
1909.416569279831
 21
450.3369642216648
 31
0.0
  0
VIEWPORT
  5
22
102
{ACAD_XDICTIONARY
360
6C5C
102
}
330
17
100
AcDbEntity
 67
     1
  8
0
100
AcDbViewport
 10
322.8976266895506
 20
149.4999839313701
 30
0.0
 40
670.5119873198416
 41
314.3157139297428
 68
     1
 69
     1
 12
322.8976266895506
 22
149.4999839313701
 13
0.0
 23
0.0
 14
1.0
 24
1.0
 15
10.0
 25
10.0
 16
0.0
 26
0.0
 36
1.0
 17
0.0
 27
0.0
 37
0.0
 42
50.0
 43
0.0
 44
0.0
 45
314.3157139297428
 50
0.0
 51
0.0
 72
   100
 90
    32768
  1

281
     0
 71
     1
 74
     0
110
0.0
120
0.0
130
0.0
111
1.0
121
0.0
131
0.0
112
0.0
122
1.0
132
0.0
 79
     0
146
0.0
  0
VIEWPORT
  5
2B8
102
{ACAD_XDICTIONARY
360
6C64
102
}
330
17
100
AcDbEntity
 67
     1
  8
DEFPOINTS
100
AcDbViewport
 10
212.5
 20
149.4999999999999
 30
0.0
 40
385.0
 41
264.9999999999999
 68
     2
 69
     2
 12
1472.167987926126
 22
649.7192564999203
 13
0.0
 23
0.0
 14
1.0
 24
1.0
 15
0.0
 25
0.0
 16
0.0
 26
0.0
 36
1.0
 17
0.0
 27
0.0
 37
0.0
 42
50.0
 43
0.0
 44
0.0
 45
1324.999999999999
 50
0.0
 51
0.0
 72
   100
 90
    36864
  1

281
     0
 71
     1
 74
     0
110
0.0
120
0.0
130
0.0
111
1.0
121
0.0
131
0.0
112
0.0
122
1.0
132
0.0
 79
     0
146
0.0
  0
ENDSEC
  0
SECTION
  2
OBJECTS
  0
DICTIONARY
  5
C
330
0
100
AcDbDictionary
281
     1
  3
ACAD_COLOR
350
16DC
  3
ACAD_GROUP
350
D
  3
ACAD_LAYOUT
350
16DF
  3
ACAD_MATERIAL
350
16DB
  3
ACAD_MLEADERSTYLE
350
185E
  3
ACAD_MLINESTYLE
350
E
  3
ACAD_PLOTSETTINGS
350
16E0
  3
ACAD_PLOTSTYLENAME
350
16D9
  3
ACAD_SCALELIST
350
183C
  3
ACAD_TABLESTYLE
350
16DD
  3
ACAD_VISUALSTYLE
350
182B
  3
ACDB_RECOMPOSE_DATA
350
4E10
  3
ACDBHEADERROUNDTRIPXREC
350
6F31
  3
AcDbVariableDictionary
350
17B1
  3
CONTENTDICTIONARY
350
234
  3
DWGPROPS
350
6F30
  0
DICTIONARY
  5
4E12
330
8
100
AcDbDictionary
280
     1
281
     1
  3
ACAD_XREC_ROUNDTRIP
360
6C5A
  0
DICTIONARY
  5
16F4
330
2
100
AcDbDictionary
280
     1
281
     1
  3
ACAD_LAYERSTATES
360
16F5
  0
DICTIONARY
  5
6487
330
F
100
AcDbDictionary
280
     1
281
     1
  3
ACAD_XREC_ROUNDTRIP
360
6C5B
  3
ADSK_XREC_LAYER_RECONCILED
360
6488
  0
DICTIONARY
  5
6489
330
71
100
AcDbDictionary
280
     1
281
     1
  3
ACAD_XREC_ROUNDTRIP
360
6C5E
  3
ADSK_XREC_LAYER_RECONCILED
360
648A
  0
DICTIONARY
  5
6C5F
330
72
100
AcDbDictionary
280
     1
281
     1
  3
ACAD_XREC_ROUNDTRIP
360
6C60
  0
DICTIONARY
  5
1780
330
1A
100
AcDbDictionary
280
     1
281
     1
  3
ACAD_SORTENTS
360
1781
  0
DICTIONARY
  5
6C5C
330
22
100
AcDbDictionary
280
     1
281
     1
  3
ACAD_XREC_ROUNDTRIP
360
6C5D
  0
DICTIONARY
  5
6C64
330
2B8
100
AcDbDictionary
280
     1
281
     1
  3
ACAD_XREC_ROUNDTRIP
360
6C65
  0
DICTIONARY
  5
16DC
102
{ACAD_REACTORS
330
C
102
}
330
C
100
AcDbDictionary
281
     1
  0
DICTIONARY
  5
D
102
{ACAD_REACTORS
330
C
102
}
330
C
100
AcDbDictionary
281
     1
  3
*A1
350
16FA
  3
*A2
350
16FC
  0
DICTIONARY
  5
16DF
102
{ACAD_REACTORS
330
C
102
}
330
C
100
AcDbDictionary
281
     1
  3
Model
350
16E1
  3
レイアウト1
350
16E2
  0
DICTIONARY
  5
16DB
102
{ACAD_REACTORS
330
C
102
}
330
C
100
AcDbDictionary
281
     1
  3
ByBlock
350
181B
  3
ByLayer
350
1813
  3
Global
350
1823
  0
DICTIONARY
  5
185E
102
{ACAD_REACTORS
330
C
102
}
330
C
100
AcDbDictionary
281
     1
  3
Standard
350
185F
  0
DICTIONARY
  5
E
102
{ACAD_REACTORS
330
C
102
}
330
C
100
AcDbDictionary
281
     1
  3
STANDARD
350
13
  0
DICTIONARY
  5
16E0
102
{ACAD_REACTORS
330
C
102
}
330
C
100
AcDbDictionary
281
     1
  3
【A3用紙】RICOH IPSiO CX8200 RPCS
350
17A6
  0
ACDBDICTIONARYWDFLT
  5
16D9
102
{ACAD_REACTORS
330
C
102
}
330
C
100
AcDbDictionary
281
     1
  3
Normal
350
16DA
100
AcDbDictionaryWithDefault
340
16DA
  0
DICTIONARY
  5
183C
102
{ACAD_REACTORS
330
C
102
}
330
C
100
AcDbDictionary
281
     1
  3
A0
350
183D
  3
A1
350
183E
  3
A2
350
183F
  3
A3
350
1840
  3
A4
350
1841
  3
A5
350
1842
  3
A6
350
1843
  3
A7
350
1844
  3
A8
350
1845
  3
A9
350
1846
  3
B0
350
1847
  3
B1
350
1848
  3
B2
350
1849
  3
B3
350
184A
  3
B4
350
184B
  3
B5
350
184C
  3
B6
350
184D
  3
B7
350
184E
  3
B8
350
184F
  3
B9
350
1850
  3
C0
350
1851
  3
C1
350
1852
  3
C2
350
1853
  3
C3
350
1854
  3
C4
350
1855
  3
C5
350
1856
  3
C6
350
1857
  3
C7
350
1858
  3
C8
350
1859
  3
C9
350
185A
  3
D0
350
185B
  3
D1
350
185C
  3
D2
350
185D
  0
DICTIONARY
  5
16DD
102
{ACAD_REACTORS
330
C
102
}
330
C
100
AcDbDictionary
281
     1
  3
Standard
350
16DE
  0
DICTIONARY
  5
182B
102
{ACAD_REACTORS
330
C
102
}
330
C
100
AcDbDictionary
281
     1
  3
2dWireframe
350
1831
  3
3D Hidden
350
1833
  3
3dWireframe
350
1832
  3
Basic
350
1830
  3
Brighten
350
1837
  3
ColorChange
350
183B
  3
Conceptual
350
1834
  3
Dim
350
1836
  3
Facepattern
350
183A
  3
Flat
350
182C
  3
FlatWithEdges
350
182D
  3
Gouraud
350
182E
  3
GouraudWithEdges
350
182F
  3
Linepattern
350
1839
  3
Realistic
350
1835
  3
Thicken
350
1838
  0
XRECORD
  5
4E10
102
{ACAD_REACTORS
330
C
102
}
330
C
100
AcDbXrecord
280
     1
 90
        1
330
16DE
  0
DICTIONARY
  5
6F31
102
{ACAD_REACTORS
330
C
102
}
330
C
100
AcDbDictionary
281
     1
  0
DICTIONARY
  5
17B1
102
{ACAD_REACTORS
330
C
102
}
330
C
100
AcDbDictionary
281
     1
  3
CANNOSCALE
350
4E5B
  3
CMLEADERSTYLE
350
4E5A
  3
CTABLESTYLE
350
17B2
  3
DIMASSOC
350
17B3
  3
INDEXCTL
350
4E5D
  3
PROJECTNAME
350
17B4
  3
SORTENTS
350
4E5C
  0
DICTIONARY
  5
234
102
{ACAD_REACTORS
330
C
102
}
330
C
100
AcDbDictionary
281
     1
  0
XRECORD
  5
6F30
102
{ACAD_REACTORS
330
C
102
}
330
C
100
AcDbXrecord
280
     1
  1
DWGPROPS COOKIE
  2

  3

  4

  6

  7

  8
SIBASAKI-174
  9

300
=
301
=
302
=
303
=
304
=
305
=
306
=
307
=
308
=
309
=
 40
0.2298625231481481
 41
2451414.552377546
 42
2456696.683596435
  1

 90
        0
  0
XRECORD
  5
6C5A
102
{ACAD_REACTORS
330
4E12
102
}
330
4E12
100
AcDbXrecord
280
     1
102
VTR_0.000_0.000_1.000_1.000_VISUALSTYLE
340
1831
102
VTR_0.000_0.000_1.000_1.000_GRIDDISPLAY
 70
     3
102
VTR_0.000_0.000_1.000_1.000_GRIDMAJOR
 70
     5
102
VTR_0.000_0.000_1.000_1.000_DEFAULTLIGHTING
280
     1
102
VTR_0.000_0.000_1.000_1.000_DEFAULTLIGHTINGTYPE
 70
     1
102
VTR_0.000_0.000_1.000_1.000_BRIGHTNESS
141
0.0
102
VTR_0.000_0.000_1.000_1.000_CONTRAST
142
0.0
  0
DICTIONARY
  5
16F5
102
{ACAD_REACTORS
330
16F4
102
}
330
16F4
100
AcDbDictionary
281
     1
  0
XRECORD
  5
6C5B
102
{ACAD_REACTORS
330
6487
102
}
330
6487
100
AcDbXrecord
280
     1
102
MATERIAL
340
1823
  0
XRECORD
  5
6488
102
{ACAD_REACTORS
330
6487
102
}
330
6487
100
AcDbXrecord
280
     1
290
     1
  0
XRECORD
  5
6C5E
102
{ACAD_REACTORS
330
6489
102
}
330
6489
100
AcDbXrecord
280
     1
102
MATERIAL
340
1823
  0
XRECORD
  5
648A
102
{ACAD_REACTORS
330
6489
102
}
330
6489
100
AcDbXrecord
280
     1
290
     1
  0
XRECORD
  5
6C60
102
{ACAD_REACTORS
330
6C5F
102
}
330
6C5F
100
AcDbXrecord
280
     1
102
MATERIAL
340
1823
  0
SORTENTSTABLE
  5
1781
102
{ACAD_REACTORS
330
1780
102
}
330
1780
100
AcDbSortentsTable
330
1A
331
110A
  5
110A
331
1113
  5
1113
331
1130
  5
1130
331
111C
  5
111C
331
1139
  5
1139
331
1328
  5
1328
331
1125
  5
1125
331
1342
  5
1342
331
6275
  5
6C11
331
6292
  5
6C2E
331
C89
  5
C89
331
627E
  5
6C1A
331
629B
  5
6C37
331
CAF
  5
CAF
331
C92
  5
C92
331
626A
  5
6C07
331
6287
  5
6C23
331
62A4
  5
6C40
331
D59
  5
D59
331
CB8
  5
CB8
331
C9B
  5
C9B
331
D17
  5
D17
331
62AB
  5
6C47
331
D7F
  5
D7F
331
D94
  5
D94
331
D62
  5
D62
331
D45
  5
D45
331
D0B
  5
D0B
331
CE6
  5
CE6
331
CA4
  5
CA4
331
D20
  5
D20
331
6C23
  5
6E4F
331
6C38
  5
6E71
331
6C06
  5
6E32
331
6459
  5
6E2B
331
62B4
  5
6C50
331
1019
  5
1019
331
D88
  5
D88
331
D9D
  5
D9D
331
D6B
  5
D6B
331
D29
  5
D29
331
D4E
  5
D4E
331
C81
  5
C81
331
6C0F
  5
6E3B
331
6C2C
  5
6E58
331
6C41
  5
6E7A
331
10F1
  5
10F1
331
103F
  5
103F
331
1005
  5
1005
331
1022
  5
1022
331
F00
  5
F00
331
ED3
  5
ED3
331
D74
  5
D74
331
DA6
  5
DA6
331
D57
  5
D57
331
6C35
  5
6E6E
331
6C18
  5
6E44
331
6C4A
  5
6E83
331
644E
  5
6E20
331
6E38
  5
1C1E
331
10FA
  5
10FA
331
1048
  5
1048
331
FE1
  5
FE1
331
1016
  5
1016
331
102B
  5
102B
331
EEC
  5
EEC
331
6E41
  5
1C27
331
6C53
  5
6E9E
331
6E24
  5
1C0A
331
6E5E
  5
1C45
331
6E73
  5
1C61
331
1103
  5
1103
331
1086
  5
1086
331
1051
  5
1051
331
1034
  5
1034
331
6E99
  5
6E5D
331
6E67
  5
1C4E
331
6E4A
  5
1C30
331
6E2D
  5
1C13
331
6E7C
  5
1C6A
331
10EF
  5
10EF
331
6EA2
  5
6E66
331
6E53
  5
1C3A
331
6E36
  5
1C1C
331
6EAB
  5
6EAA
331
1109
  5
1109
331
1112
  5
1112
331
112F
  5
112F
331
111B
  5
111B
331
1138
  5
1138
331
1124
  5
1124
331
138E
  5
138E
331
6291
  5
6C2D
331
C88
  5
C88
331
627D
  5
6C19
331
629A
  5
6C36
331
CCB
  5
CCB
331
CAE
  5
CAE
331
C91
  5
C91
331
6269
  5
6C06
331
6286
  5
6C22
331
62A3
  5
6C3F
331
D16
  5
D16
331
C9A
  5
C9A
331
CB7
  5
CB7
331
D58
  5
D58
331
628F
  5
6C2B
331
62AA
  5
6C46
331
D7E
  5
D7E
331
D93
  5
D93
331
D44
  5
D44
331
D0A
  5
D0A
331
CC0
  5
CC0
331
CA3
  5
CA3
331
D1F
  5
D1F
331
D61
  5
D61
331
6C22
  5
6E4E
331
6458
  5
6E2A
331
62B3
  5
6C4F
331
D87
  5
D87
331
D9C
  5
D9C
331
D6A
  5
D6A
331
D4D
  5
D4D
331
D28
  5
D28
331
1018
  5
1018
331
C80
  5
C80
331
6C40
  5
6E79
331
6C2B
  5
6E57
331
6C0E
  5
6E3A
331
10F0
  5
10F0
331
103E
  5
103E
331
1004
  5
1004
331
EFF
  5
EFF
331
D73
  5
D73
331
DA5
  5
DA5
331
D56
  5
D56
331
ED2
  5
ED2
331
1021
  5
1021
331
6C49
  5
6E82
331
6C34
  5
6E6D
331
644D
  5
6E1F
331
6C17
  5
6E43
331
10F9
  5
10F9
331
1015
  5
1015
331
102A
  5
102A
331
EEB
  5
EEB
331
DB6
  5
DB6
331
1047
  5
1047
331
6E40
  5
1C26
331
6C52
  5
6E9D
331
6E23
  5
1C09
331
6E5D
  5
1C44
331
6E72
  5
1C60
331
1102
  5
1102
331
1050
  5
1050
331
1033
  5
1033
331
1085
  5
1085
331
6E98
  5
6E5C
331
6E66
  5
1C4D
331
6E2C
  5
1C12
331
6E49
  5
1C2F
331
6E7B
  5
1C69
331
10EE
  5
10EE
331
6EA1
  5
6E65
331
6E6F
  5
1C5D
331
6E35
  5
1C1B
331
6E52
  5
1C39
331
6E84
  5
1C72
331
6EAA
  5
6EA9
331
1108
  5
1108
331
1111
  5
1111
331
112E
  5
112E
331
111A
  5
111A
331
1137
  5
1137
331
1123
  5
1123
331
6273
  5
6C10
331
6290
  5
6C2C
331
627C
  5
6C18
331
6299
  5
6C35
331
CAD
  5
CAD
331
C90
  5
C90
331
CCA
  5
CCA
331
6268
  5
6582
331
6285
  5
6C21
331
62A2
  5
6C3E
331
CB6
  5
CB6
331
C99
  5
C99
331
628E
  5
6C2A
331
62A9
  5
6C45
331
D7D
  5
D7D
331
D92
  5
D92
331
D60
  5
D60
331
D43
  5
D43
331
D09
  5
D09
331
CA2
  5
CA2
331
D1E
  5
D1E
331
6C21
  5
6E4D
331
6457
  5
6E29
331
62B2
  5
6C4E
331
E88
  5
E88
331
D86
  5
D86
331
D9B
  5
D9B
331
D69
  5
D69
331
D27
  5
D27
331
D4C
  5
D4C
331
EF5
  5
EF5
331
C7F
  5
C7F
331
6C3F
  5
6E78
331
6D51
  5
6EB0
331
6C0D
  5
6E39
331
6C2A
  5
6E56
331
103D
  5
103D
331
1003
  5
1003
331
EFE
  5
EFE
331
ED1
  5
ED1
331
D72
  5
D72
331
D8F
  5
D8F
331
DA4
  5
DA4
331
D55
  5
D55
331
1020
  5
1020
331
6C33
  5
6E6C
331
644C
  5
6D51
331
6C16
  5
6E42
331
6C48
  5
6E81
331
10F8
  5
10F8
331
1046
  5
1046
331
1014
  5
1014
331
1029
  5
1029
331
F07
  5
F07
331
DB5
  5
DB5
331
6E22
  5
1C08
331
6E3F
  5
1C25
331
6E5C
  5
1C43
331
6E71
  5
1C5F
331
6C1F
  5
6E4B
331
6C51
  5
6E9C
331
1101
  5
1101
331
104F
  5
104F
331
1032
  5
1032
331
6E97
  5
6E5B
331
6E65
  5
1C4C
331
6E48
  5
1C2E
331
6E2B
  5
1C11
331
6E7A
  5
1C68
331
10ED
  5
10ED
331
6EA0
  5
6E64
331
6E6E
  5
1C5C
331
6E51
  5
1C37
331
6E34
  5
1C1A
331
6E83
  5
1C71
331
6EA9
  5
6EA8
331
1110
  5
1110
331
112D
  5
112D
331
1119
  5
1119
331
1136
  5
1136
331
1122
  5
1122
331
6272
  5
6C0F
331
627B
  5
6C17
331
6298
  5
6C34
331
CC9
  5
CC9
331
CAC
  5
CAC
331
C8F
  5
C8F
331
6284
  5
6C20
331
62A1
  5
6C3D
331
C98
  5
C98
331
CB5
  5
CB5
331
628D
  5
6C29
331
62A8
  5
6C44
331
D7C
  5
D7C
331
D91
  5
D91
331
D5F
  5
D5F
331
D42
  5
D42
331
D08
  5
D08
331
D1D
  5
D1D
331
CA1
  5
CA1
331
CE3
  5
CE3
331
6456
  5
6E28
331
62B1
  5
6C4D
331
6C20
  5
6E4C
331
EF4
  5
EF4
331
E87
  5
E87
331
D85
  5
D85
331
D68
  5
D68
331
D4B
  5
D4B
331
D26
  5
D26
331
CC7
  5
CC7
331
D9A
  5
D9A
331
C7E
  5
C7E
331
6C3E
  5
6E77
331
6C29
  5
6E55
331
6C0C
  5
6E38
331
1059
  5
1059
331
103C
  5
103C
331
1002
  5
1002
331
D71
  5
D71
331
D8E
  5
D8E
331
DA3
  5
DA3
331
D54
  5
D54
331
EFD
  5
EFD
331
101F
  5
101F
331
C87
  5
C87
331
6C47
  5
6E80
331
6C32
  5
6E6B
331
644B
  5
6C57
331
6C15
  5
6E41
331
10F7
  5
10F7
331
1028
  5
1028
331
DB4
  5
DB4
331
F06
  5
F06
331
6E5B
  5
1C42
331
6E21
  5
1C07
331
6E3E
  5
1C24
331
6E70
  5
1C5E
331
6C1E
  5
6E4A
331
6C50
  5
6E9B
331
1100
  5
1100
331
104E
  5
104E
331
1031
  5
1031
331
6E64
  5
1C4B
331
6E2A
  5
1C10
331
6E47
  5
1C2D
331
6E79
  5
1C67
331
1057
  5
1057
331
6E9F
  5
6E63
331
6E50
  5
1C36
331
6E33
  5
1C19
331
6E6D
  5
1C5B
331
6E82
  5
1C70
331
6EA8
  5
6EA7
331
112C
  5
112C
331
110F
  5
110F
331
1135
  5
1135
331
1118
  5
1118
331
1121
  5
1121
331
6271
  5
6C0E
331
627A
  5
6C16
331
6297
  5
6C33
331
CAB
  5
CAB
331
C8E
  5
C8E
331
CC8
  5
CC8
331
6266
  5
6513
331
6283
  5
6C1F
331
62A0
  5
6C3C
331
CB4
  5
CB4
331
C97
  5
C97
331
626F
  5
6C0C
331
628C
  5
6C28
331
D7B
  5
D7B
331
D90
  5
D90
331
D5E
  5
D5E
331
D41
  5
D41
331
D07
  5
D07
331
CE2
  5
CE2
331
CBD
  5
CBD
331
CA0
  5
CA0
331
D1C
  5
D1C
331
6455
  5
6E27
331
62B0
  5
6C4C
331
D84
  5
D84
331
D99
  5
D99
331
D4A
  5
D4A
331
D25
  5
D25
331
CC6
  5
CC6
331
D67
  5
D67
331
EF3
  5
EF3
331
C7D
  5
C7D
331
6C0B
  5
6E37
331
6C28
  5
6E54
331
6C3D
  5
6E76
331
1058
  5
1058
331
103B
  5
103B
331
1001
  5
1001
331
EFC
  5
EFC
331
E8F
  5
E8F
331
D8D
  5
D8D
331
DA2
  5
DA2
331
101E
  5
101E
331
D53
  5
D53
331
D70
  5
D70
331
C86
  5
C86
331
6C14
  5
6E40
331
6C31
  5
6E6A
331
644A
  5
6C56
331
6C46
  5
6E7F
331
10F6
  5
10F6
331
1079
  5
1079
331
1044
  5
1044
331
F05
  5
F05
331
DB3
  5
DB3
331
6E3D
  5
1C23
331
6E5A
  5
1C41
331
6C1D
  5
6E49
331
6C4F
  5
6E9A
331
6E20
  5
1C06
331
10FF
  5
10FF
331
104D
  5
104D
331
1030
  5
1030
331
FE6
  5
FE6
331
6E78
  5
1C66
331
6E63
  5
1C4A
331
6E46
  5
1C2C
331
6E29
  5
1C0F
331
1056
  5
1056
331
6E81
  5
1C6F
331
6E9E
  5
6E62
331
6E6C
  5
1C53
331
6E4F
  5
1C35
331
6E32
  5
1C18
331
112B
  5
112B
331
110E
  5
110E
331
1134
  5
1134
331
1117
  5
1117
331
131B
  5
131B
331
12B2
  5
12B2
331
1120
  5
1120
331
1381
  5
1381
331
1335
  5
1335
331
6270
  5
6C0D
331
6296
  5
6C32
331
6279
  5
6C15
331
CAA
  5
CAA
331
C8D
  5
C8D
331
6265
  5
6506
331
6282
  5
6C1E
331
629F
  5
6C3B
331
C96
  5
C96
331
CB3
  5
CB3
331
626E
  5
6C0B
331
628B
  5
6C27
331
D7A
  5
D7A
331
D5D
  5
D5D
331
D40
  5
D40
331
D06
  5
D06
331
D1B
  5
D1B
331
CBC
  5
CBC
331
C9F
  5
C9F
331
CE1
  5
CE1
331
AC3
  5
AC3
331
6454
  5
6E26
331
62AF
  5
6C4B
331
EF2
  5
EF2
331
D83
  5
D83
331
D66
  5
D66
331
D49
  5
D49
331
D0F
  5
D0F
331
CC5
  5
CC5
331
D24
  5
D24
331
D98
  5
D98
331
C7C
  5
C7C
331
6C0A
  5
6E36
331
6C27
  5
6E53
331
6C3C
  5
6E75
331
1000
  5
1000
331
101D
  5
101D
331
D8C
  5
D8C
331
DA1
  5
DA1
331
D6F
  5
D6F
331
D52
  5
D52
331
EFB
  5
EFB
331
103A
  5
103A
331
C85
  5
C85
331
6C13
  5
6E3F
331
6C30
  5
6E69
331
6449
  5
6C55
331
6C45
  5
6E7E
331
10F5
  5
10F5
331
1078
  5
1078
331
1011
  5
1011
331
DB2
  5
DB2
331
F04
  5
F04
331
1043
  5
1043
331
6E59
  5
1C40
331
6E3C
  5
1C22
331
6E1F
  5
1744
331
6C1C
  5
6E48
331
6C4E
  5
6E99
331
10FE
  5
10FE
331
104C
  5
104C
331
102F
  5
102F
331
FE5
  5
FE5
331
6E77
  5
1C65
331
6E45
  5
1C2B
331
6E28
  5
1C0E
331
6E62
  5
1C49
331
1107
  5
1107
331
1055
  5
1055
331
6E9D
  5
6E61
331
6E4E
  5
1C34
331
6E31
  5
1C17
331
6E6B
  5
1C52
331
6E80
  5
1C6E
331
6E57
  5
1C3E
331
6EA6
  5
6EA5
331
6EAF
  5
6EAE
331
112A
  5
112A
331
110D
  5
110D
331
1133
  5
1133
331
1116
  5
1116
331
113C
  5
113C
331
111F
  5
111F
331
6278
  5
6C14
331
6295
  5
6C31
331
CA9
  5
CA9
331
C8C
  5
C8C
331
6264
  5
647A
331
6281
  5
6C1D
331
629E
  5
6C3A
331
D11
  5
D11
331
CB2
  5
CB2
331
C95
  5
C95
331
CF4
  5
CF4
331
626D
  5
6C0A
331
628A
  5
6C26
331
62A7
  5
6C43
331
D5C
  5
D5C
331
D3F
  5
D3F
331
D79
  5
D79
331
CE0
  5
CE0
331
CBB
  5
CBB
331
C9E
  5
C9E
331
D05
  5
D05
331
AC2
  5
AC2
331
62AE
  5
6C4A
331
D97
  5
D97
331
EF1
  5
EF1
331
D48
  5
D48
331
D23
  5
D23
331
D65
  5
D65
331
D82
  5
D82
331
CC4
  5
CC4
331
CA7
  5
CA7
331
CE9
  5
CE9
331
D0E
  5
D0E
331
C7B
  5
C7B
331
6C09
  5
6E35
331
6C26
  5
6E52
331
6C3B
  5
6E74
331
1039
  5
1039
331
101C
  5
101C
331
EFA
  5
EFA
331
DA0
  5
DA0
331
FFF
  5
FFF
331
D6E
  5
D6E
331
D51
  5
D51
331
D8B
  5
D8B
331
C84
  5
C84
331
6C2F
  5
6E68
331
6C12
  5
6E3E
331
6448
  5
6C54
331
6C44
  5
6E7D
331
10F4
  5
10F4
331
1042
  5
1042
331
1025
  5
1025
331
F03
  5
F03
331
D77
  5
D77
331
1010
  5
1010
331
6C1B
  5
6E47
331
6C4D
  5
6E98
331
6E3B
  5
1C21
331
6E58
  5
1C3F
331
10FD
  5
10FD
331
102E
  5
102E
331
104B
  5
104B
331
EEF
  5
EEF
331
FE4
  5
FE4
331
6E76
  5
1C64
331
6E61
  5
1C48
331
6E44
  5
1C2A
331
6C56
  5
6EA1
331
6E27
  5
1C0D
331
6EB0
  5
6EAF
331
1106
  5
1106
331
1054
  5
1054
331
1037
  5
1037
331
6E7F
  5
1C6D
331
6E9C
  5
6E60
331
6E6A
  5
1C51
331
6E4D
  5
1C33
331
6E30
  5
1C16
331
6EA5
  5
6EA4
331
6E56
  5
1C3D
331
6EAE
  5
6EAD
331
110C
  5
110C
331
1129
  5
1129
331
1115
  5
1115
331
1132
  5
1132
331
111E
  5
111E
331
113B
  5
113B
331
1127
  5
1127
331
6277
  5
6C13
331
6294
  5
6C30
331
CA8
  5
CA8
331
C8B
  5
C8B
331
6263
  5
645B
331
6280
  5
6C1C
331
629D
  5
6C39
331
D10
  5
D10
331
C94
  5
C94
331
CB1
  5
CB1
331
626C
  5
6C09
331
6289
  5
6C25
331
62A6
  5
6C42
331
D78
  5
D78
331
D04
  5
D04
331
D5B
  5
D5B
331
CBA
  5
CBA
331
C9D
  5
C9D
331
CDF
  5
CDF
331
62AD
  5
6C49
331
EF0
  5
EF0
331
D81
  5
D81
331
D64
  5
D64
331
D47
  5
D47
331
D0D
  5
D0D
331
CC3
  5
CC3
331
CA6
  5
CA6
331
D22
  5
D22
331
D96
  5
D96
331
C7A
  5
C7A
331
6C08
  5
6E34
331
6C25
  5
6E51
331
6C3A
  5
6E73
331
645B
  5
6E2D
331
62B6
  5
6C52
331
101B
  5
101B
331
D8A
  5
D8A
331
D9F
  5
D9F
331
D6D
  5
D6D
331
D50
  5
D50
331
EF9
  5
EF9
331
1038
  5
1038
331
C83
  5
C83
331
6C11
  5
6E3D
331
641F
  5
6C53
331
6C43
  5
6E7C
331
10F3
  5
10F3
331
1041
  5
1041
331
1007
  5
1007
331
1024
  5
1024
331
D76
  5
D76
331
F02
  5
F02
331
6C37
  5
6E70
331
6C1A
  5
6E46
331
6C4C
  5
6E97
331
6E3A
  5
1C20
331
10FC
  5
10FC
331
104A
  5
104A
331
FE3
  5
FE3
331
102D
  5
102D
331
EEE
  5
EEE
331
6C55
  5
6EA0
331
6E26
  5
1C0C
331
6E43
  5
1C29
331
6E60
  5
1C47
331
6E75
  5
1C63
331
1105
  5
1105
331
1053
  5
1053
331
1036
  5
1036
331
6E9B
  5
6E5F
331
6E2F
  5
1C15
331
6E4C
  5
1C32
331
6E69
  5
1C50
331
6E7E
  5
1C6C
331
6E55
  5
1C3C
331
6EA4
  5
6EA3
331
6EAD
  5
6EAC
331
110B
  5
110B
331
1128
  5
1128
331
1114
  5
1114
331
1131
  5
1131
331
111D
  5
111D
331
113A
  5
113A
331
1126
  5
1126
331
6276
  5
6C12
331
6293
  5
6C2F
331
C8A
  5
C8A
331
627F
  5
6C1B
331
629C
  5
6C38
331
CB0
  5
CB0
331
C93
  5
C93
331
626B
  5
6C08
331
6288
  5
6C24
331
62A5
  5
6C41
331
D18
  5
D18
331
CB9
  5
CB9
331
C9C
  5
C9C
331
D5A
  5
D5A
331
62AC
  5
6C48
331
D80
  5
D80
331
D95
  5
D95
331
D46
  5
D46
331
D0C
  5
D0C
331
D21
  5
D21
331
CC2
  5
CC2
331
CA5
  5
CA5
331
CE7
  5
CE7
331
D63
  5
D63
331
C79
  5
C79
331
6C24
  5
6E50
331
6C39
  5
6E72
331
6C07
  5
6E33
331
645A
  5
6E2C
331
62B5
  5
6C51
331
FFD
  5
FFD
331
D89
  5
D89
331
D9E
  5
D9E
331
D6C
  5
D6C
331
D4F
  5
D4F
331
D2A
  5
D2A
331
101A
  5
101A
331
C82
  5
C82
331
6C2D
  5
6E59
331
6C10
  5
6E3C
331
6C42
  5
6E7B
331
10F2
  5
10F2
331
1040
  5
1040
331
1006
  5
1006
331
F01
  5
F01
331
D75
  5
D75
331
ED4
  5
ED4
331
1023
  5
1023
331
6C36
  5
6E6F
331
6C19
  5
6E45
331
6C4B
  5
6E84
331
644F
  5
6E21
331
6E39
  5
1C1F
331
10FB
  5
10FB
331
FE2
  5
FE2
331
1017
  5
1017
331
102C
  5
102C
331
EED
  5
EED
331
1049
  5
1049
331
6E42
  5
1C28
331
6C54
  5
6E9F
331
6E25
  5
1C0B
331
6E5F
  5
1C46
331
6E74
  5
1C62
331
1104
  5
1104
331
1052
  5
1052
331
1035
  5
1035
331
1087
  5
1087
331
6E68
  5
1C4F
331
6E2E
  5
1C14
331
6E4B
  5
1C31
331
6E7D
  5
1C6B
331
6EA3
  5
6E67
331
6E37
  5
1C1D
331
6E54
  5
1C3B
331
6EAC
  5
6EAB
  0
XRECORD
  5
6C5D
102
{ACAD_REACTORS
330
6C5C
102
}
330
6C5C
100
AcDbXrecord
280
     1
102
VISUALSTYLE
340
1831
102
GRIDDISPLAY
 70
     0
102
GRIDMAJOR
 70
     5
102
DEFAULTLIGHTING
280
     1
102
DEFAULTLIGHTINGTYPE
 70
     1
102
BRIGHTNESS
141
0.0
102
CONTRAST
142
0.0
102
SHADEPLOT
 70
     0
  0
XRECORD
  5
6C65
102
{ACAD_REACTORS
330
6C64
102
}
330
6C64
100
AcDbXrecord
280
     1
102
VISUALSTYLE
340
1831
102
GRIDDISPLAY
 70
     0
102
GRIDMAJOR
 70
     5
102
DEFAULTLIGHTING
280
     1
102
DEFAULTLIGHTINGTYPE
 70
     1
102
BRIGHTNESS
141
0.0
102
CONTRAST
142
0.0
102
SHADEPLOT
 70
     0
  0
GROUP
  5
16FA
102
{ACAD_REACTORS
330
D
102
}
330
D
100
AcDbGroup
300

 70
     1
 71
     1
  0
GROUP
  5
16FC
102
{ACAD_REACTORS
330
D
102
}
330
D
100
AcDbGroup
300

 70
     1
 71
     1
  0
LAYOUT
  5
16E1
102
{ACAD_XDICTIONARY
360
6F32
102
}
102
{ACAD_REACTORS
330
16DF
102
}
330
16DF
100
AcDbPlotSettings
  1

  2
RICOH IPSiO CX8200 RPCS
  4

  6

 40
0.0
 41
0.0
 42
0.0
 43
0.0
 44
0.0
 45
0.0
 46
0.0
 47
0.0
 48
0.0
 49
0.0
140
0.0
141
0.0
142
1.0
143
1.0
 70
  1712
 72
     0
 73
     0
 74
     0
  7
monochrome.ctb
 75
     0
147
1.0
148
0.0
149
0.0
100
AcDbLayout
  1
Model
 70
     1
 71
     0
 10
0.0
 20
0.0
 11
12.0
 21
9.0
 12
0.0
 22
0.0
 32
0.0
 14
0.0
 24
0.0
 34
0.0
 15
0.0
 25
0.0
 35
0.0
146
0.0
 13
0.0
 23
0.0
 33
0.0
 16
1.0
 26
0.0
 36
0.0
 17
0.0
 27
1.0
 37
0.0
 76
     0
330
1A
  0
LAYOUT
  5
16E2
102
{ACAD_XDICTIONARY
360
16F7
102
}
102
{ACAD_REACTORS
330
16DF
102
}
330
16DF
100
AcDbPlotSettings
  1

  2
Adobe PDF
  4
A3
  6

 40
3.174999952316284
 41
3.174999952316284
 42
3.17498779296875
 43
3.17498779296875
 44
297.0318298339844
 45
420.1583251953125
 46
12.828362544708
 47
14.37949135136864
 48
20.00000000000003
 49
9.999999999999943
140
404.9999999999998
141
281.9999999999999
142
1.0
143
1.0
 70
   692
 72
     1
 73
     1
 74
     1
  7
monochrome.ctb
 75
    16
147
1.0
148
-19.97532312728231
149
-16.98743151140218
100
AcDbLayout
  1
レイアウト1
 70
     0
 71
     1
 10
2.420843982944916
 20
0.9840690143778942
 11
422.5791691782574
 21
298.0158988483623
 12
0.0
 22
0.0
 32
0.0
 14
20.0
 24
17.0
 34
0.0
 15
405.0
 25
281.9999999999999
 35
0.0
146
0.0
 13
0.0
 23
0.0
 33
0.0
 16
1.0
 26
0.0
 36
0.0
 17
0.0
 27
1.0
 37
0.0
 76
     0
330
17
331
22
1001
ACAD_PSEXT
1000
Adobe PDF
1000
Adobe PDF Converter
1000
Desktop
1000

1070
     0
  0
MATERIAL
  5
181B
102
{ACAD_XDICTIONARY
360
181C
102
}
102
{ACAD_REACTORS
330
16DB
102
}
330
16DB
100
AcDbMaterial
  1
ByBlock
 72
     0
 73
     2
 43
0.0208333333333333
 43
0.0
 43
0.0
 43
0.0
 43
0.0
 43
0.0208333333333333
 43
0.0
 43
0.0
 43
0.0
 43
0.0
 43
1.0
 43
0.0
 43
0.0
 43
0.0
 43
0.0
 43
1.0
 77
     0
 78
     2
 47
0.0208333333333333
 47
0.0
 47
0.0
 47
0.0
 47
0.0
 47
0.0208333333333333
 47
0.0
 47
0.0
 47
0.0
 47
0.0
 47
1.0
 47
0.0
 47
0.0
 47
0.0
 47
0.0
 47
1.0
171
     0
172
     2
 49
0.0208333333333333
 49
0.0
 49
0.0
 49
0.0
 49
0.0
 49
0.0208333333333333
 49
0.0
 49
0.0
 49
0.0
 49
0.0
 49
1.0
 49
0.0
 49
0.0
 49
0.0
 49
0.0
 49
1.0
175
     0
176
     2
142
0.0208333333333333
142
0.0
142
0.0
142
0.0
142
0.0
142
0.0208333333333333
142
0.0
142
0.0
142
0.0
142
0.0
142
1.0
142
0.0
142
0.0
142
0.0
142
0.0
142
1.0
179
     0
270
     2
144
0.0208333333333333
144
0.0
144
0.0
144
0.0
144
0.0
144
0.0208333333333333
144
0.0
144
0.0
144
0.0
144
0.0
144
1.0
144
0.0
144
0.0
144
0.0
144
0.0
144
1.0
274
     2
147
0.0208333333333333
147
0.0
147
0.0
147
0.0
147
0.0
147
0.0208333333333333
147
0.0
147
0.0
147
0.0
147
0.0
147
1.0
147
0.0
147
0.0
147
0.0
147
0.0
147
1.0
  0
MATERIAL
  5
1813
102
{ACAD_XDICTIONARY
360
1814
102
}
102
{ACAD_REACTORS
330
16DB
102
}
330
16DB
100
AcDbMaterial
  1
ByLayer
 72
     0
 73
     2
 43
0.0208333333333333
 43
0.0
 43
0.0
 43
0.0
 43
0.0
 43
0.0208333333333333
 43
0.0
 43
0.0
 43
0.0
 43
0.0
 43
1.0
 43
0.0
 43
0.0
 43
0.0
 43
0.0
 43
1.0
 77
     0
 78
     2
 47
0.0208333333333333
 47
0.0
 47
0.0
 47
0.0
 47
0.0
 47
0.0208333333333333
 47
0.0
 47
0.0
 47
0.0
 47
0.0
 47
1.0
 47
0.0
 47
0.0
 47
0.0
 47
0.0
 47
1.0
171
     0
172
     2
 49
0.0208333333333333
 49
0.0
 49
0.0
 49
0.0
 49
0.0
 49
0.0208333333333333
 49
0.0
 49
0.0
 49
0.0
 49
0.0
 49
1.0
 49
0.0
 49
0.0
 49
0.0
 49
0.0
 49
1.0
175
     0
176
     2
142
0.0208333333333333
142
0.0
142
0.0
142
0.0
142
0.0
142
0.0208333333333333
142
0.0
142
0.0
142
0.0
142
0.0
142
1.0
142
0.0
142
0.0
142
0.0
142
0.0
142
1.0
179
     0
270
     2
144
0.0208333333333333
144
0.0
144
0.0
144
0.0
144
0.0
144
0.0208333333333333
144
0.0
144
0.0
144
0.0
144
0.0
144
1.0
144
0.0
144
0.0
144
0.0
144
0.0
144
1.0
274
     2
147
0.0208333333333333
147
0.0
147
0.0
147
0.0
147
0.0
147
0.0208333333333333
147
0.0
147
0.0
147
0.0
147
0.0
147
1.0
147
0.0
147
0.0
147
0.0
147
0.0
147
1.0
  0
MATERIAL
  5
1823
102
{ACAD_XDICTIONARY
360
1824
102
}
102
{ACAD_REACTORS
330
16DB
102
}
330
16DB
100
AcDbMaterial
  1
Global
 72
     0
 73
     2
 43
0.0208333333333333
 43
0.0
 43
0.0
 43
0.0
 43
0.0
 43
0.0208333333333333
 43
0.0
 43
0.0
 43
0.0
 43
0.0
 43
1.0
 43
0.0
 43
0.0
 43
0.0
 43
0.0
 43
1.0
 77
     0
 78
     2
 47
0.0208333333333333
 47
0.0
 47
0.0
 47
0.0
 47
0.0
 47
0.0208333333333333
 47
0.0
 47
0.0
 47
0.0
 47
0.0
 47
1.0
 47
0.0
 47
0.0
 47
0.0
 47
0.0
 47
1.0
171
     0
172
     2
 49
0.0208333333333333
 49
0.0
 49
0.0
 49
0.0
 49
0.0
 49
0.0208333333333333
 49
0.0
 49
0.0
 49
0.0
 49
0.0
 49
1.0
 49
0.0
 49
0.0
 49
0.0
 49
0.0
 49
1.0
175
     0
176
     2
142
0.0208333333333333
142
0.0
142
0.0
142
0.0
142
0.0
142
0.0208333333333333
142
0.0
142
0.0
142
0.0
142
0.0
142
1.0
142
0.0
142
0.0
142
0.0
142
0.0
142
1.0
179
     0
270
     2
144
0.0208333333333333
144
0.0
144
0.0
144
0.0
144
0.0
144
0.0208333333333333
144
0.0
144
0.0
144
0.0
144
0.0
144
1.0
144
0.0
144
0.0
144
0.0
144
0.0
144
1.0
274
     2
147
0.0208333333333333
147
0.0
147
0.0
147
0.0
147
0.0
147
0.0208333333333333
147
0.0
147
0.0
147
0.0
147
0.0
147
1.0
147
0.0
147
0.0
147
0.0
147
0.0
147
1.0
  0
ACAD_PROXY_OBJECT
  5
185F
102
{ACAD_REACTORS
330
185E
102
}
330
185E
100
AcDbProxyObject
 90
      499
 91
      511
 95
   983063
 70
     0
 93
      618
310
40901902A4063FBFFFFFE000000000000002040AD7A3703D0AD73F4254DD185B99185C99000000000000000104090141901A00000000000004100000000000000041025764000000000000300FC0
340
14
340
0
340
10
340
0
 94
        0
1001
ACAD_MLEADERVER
1070
     2
1001
ACAD
1000
AcRTDxfName
1000
MLEADERSTYLE
1000
AcRTDxfName
1000
MLEADERSTYLE
1000
AcRTDxfName
1000
MLEADERSTYLE
1000
AcRTDxfName
1000
MLEADERSTYLE
1000
AcRTDxfName
1000
MLEADERSTYLE
1000
AcRTDxfName
1000
MLEADERSTYLE
1000
AcRTDxfName
1000
MLEADERSTYLE
1000
AcRTDxfName
1000
MLEADERSTYLE
  0
MLINESTYLE
  5
13
102
{ACAD_REACTORS
330
E
102
}
330
E
100
AcDbMlineStyle
  2
STANDARD
 70
     0
  3

 62
     0
 51
90.0
 52
90.0
 71
     2
 49
0.5
 62
   256
  6
BYLAYER
 49
-0.5
 62
   256
  6
BYLAYER
  0
PLOTSETTINGS
  5
17A6
102
{ACAD_XDICTIONARY
360
6F35
102
}
102
{ACAD_REACTORS
330
16E0
102
}
330
16E0
100
AcDbPlotSettings
  1
【A3用紙】RICOH IPSiO CX8200 RPCS
  2
RICOH IPSiO CX8200 RPCS
  4
A3
  6

 40
5.873749732971191
 41
5.873747825622558
 42
5.873748779296875
 43
5.873748779296875
 44
296.9259948730469
 45
419.9466552734374
 46
0.0
 47
0.0
 48
0.0
 49
0.0
140
0.0
141
0.0
142
1.0
143
1.0
 70
   688
 72
     1
 73
     1
 74
     5
  7
monochrome.ctb
 75
    16
147
1.0
148
0.0
149
0.0
  0
ACDBPLACEHOLDER
  5
16DA
102
{ACAD_REACTORS
330
16D9
102
}
330
16D9
  0
ACAD_PROXY_OBJECT
  5
183D
102
{ACAD_REACTORS
330
183C
102
}
330
183C
100
AcDbProxyObject
 90
      499
 91
      510
 95
   983063
 70
     0
 93
       49
310
904313A3100598
 94
        0
1001
ACAD
1000
AcRTDxfName
1000
SCALE
1000
AcRTDxfName
1000
SCALE
1000
AcRTDxfName
1000
SCALE
1000
AcRTDxfName
1000
SCALE
1000
AcRTDxfName
1000
SCALE
1000
AcRTDxfName
1000
SCALE
1000
AcRTDxfName
1000
SCALE
1000
AcRTDxfName
1000
SCALE
  0
ACAD_PROXY_OBJECT
  5
183E
102
{ACAD_REACTORS
330
183C
102
}
330
183C
100
AcDbProxyObject
 90
      499
 91
      510
 95
   983063
 70
     0
 93
      113
310
904313A32004000000000000004004
 94
        0
1001
ACAD
1000
AcRTDxfName
1000
SCALE
1000
AcRTDxfName
1000
SCALE
1000
AcRTDxfName
1000
SCALE
1000
AcRTDxfName
1000
SCALE
1000
AcRTDxfName
1000
SCALE
1000
AcRTDxfName
1000
SCALE
1000
AcRTDxfName
1000
SCALE
1000
AcRTDxfName
1000
SCALE
  0
ACAD_PROXY_OBJECT
  5
183F
102
{ACAD_REACTORS
330
183C
102
}
330
183C
100
AcDbProxyObject
 90
      499
 91
      510
 95
   983063
 70
     0
 93
      113
310
904313A34004000000000000104074
 94
        0
1001
ACAD
1000
AcRTDxfName
1000
SCALE
1000
AcRTDxfName
1000
SCALE
1000
AcRTDxfName
1000
SCALE
1000
AcRTDxfName
1000
SCALE
1000
AcRTDxfName
1000
SCALE
1000
AcRTDxfName
1000
SCALE
1000
AcRTDxfName
1000
SCALE
1000
AcRTDxfName
1000
SCALE
  0
ACAD_PROXY_OBJECT
  5
1840
102
{ACAD_REACTORS
330
183C
102
}
330
183C
100
AcDbProxyObject
 90
      499
 91
      510
 95
   983063
 70
     0
 93
      113
310
904313A35004000000000000144004
 94
        0
1001
ACAD
1000
AcRTDxfName
1000
SCALE
1000
AcRTDxfName
1000
SCALE
1000
AcRTDxfName
1000
SCALE
1000
AcRTDxfName
1000
SCALE
1000
AcRTDxfName
1000
SCALE
1000
AcRTDxfName
1000
SCALE
1000
AcRTDxfName
1000
SCALE
1000
AcRTDxfName
1000
SCALE
  0
ACAD_PROXY_OBJECT
  5
1841
102
{ACAD_REACTORS
330
183C
102
}
330
183C
100
AcDbProxyObject
 90
      499
 91
      510
 95
   983063
 70
     0
 93
      113
310
904313A38004000000000000204074
 94
        0
1001
ACAD
1000
AcRTDxfName
1000
SCALE
1000
AcRTDxfName
1000
SCALE
1000
AcRTDxfName
1000
SCALE
1000
AcRTDxfName
1000
SCALE
1000
AcRTDxfName
1000
SCALE
1000
AcRTDxfName
1000
SCALE
1000
AcRTDxfName
1000
SCALE
1000
AcRTDxfName
1000
SCALE
  0
ACAD_PROXY_OBJECT
  5
1842
102
{ACAD_REACTORS
330
183C
102
}
330
183C
100
AcDbProxyObject
 90
      499
 91
      510
 95
   983063
 70
     0
 93
      121
310
905313A3130004000000000000244009
 94
        0
1001
ACAD
1000
AcRTDxfName
1000
SCALE
1000
AcRTDxfName
1000
SCALE
1000
AcRTDxfName
1000
SCALE
1000
AcRTDxfName
1000
SCALE
1000
AcRTDxfName
1000
SCALE
1000
AcRTDxfName
1000
SCALE
1000
AcRTDxfName
1000
SCALE
1000
AcRTDxfName
1000
SCALE
  0
ACAD_PROXY_OBJECT
  5
1843
102
{ACAD_REACTORS
330
183C
102
}
330
183C
100
AcDbProxyObject
 90
      499
 91
      510
 95
   983063
 70
     0
 93
      121
310
905313A3136004000000000000304009
 94
        0
1001
ACAD
1000
AcRTDxfName
1000
SCALE
1000
AcRTDxfName
1000
SCALE
1000
AcRTDxfName
1000
SCALE
1000
AcRTDxfName
1000
SCALE
1000
AcRTDxfName
1000
SCALE
1000
AcRTDxfName
1000
SCALE
1000
AcRTDxfName
1000
SCALE
1000
AcRTDxfName
1000
SCALE
  0
ACAD_PROXY_OBJECT
  5
1844
102
{ACAD_REACTORS
330
183C
102
}
330
183C
100
AcDbProxyObject
 90
      499
 91
      510
 95
   983063
 70
     0
 93
      121
310
905313A3230004000000000000344009
 94
        0
1001
ACAD
1000
AcRTDxfName
1000
SCALE
1000
AcRTDxfName
1000
SCALE
1000
AcRTDxfName
1000
SCALE
1000
AcRTDxfName
1000
SCALE
1000
AcRTDxfName
1000
SCALE
1000
AcRTDxfName
1000
SCALE
1000
AcRTDxfName
1000
SCALE
1000
AcRTDxfName
1000
SCALE
  0
ACAD_PROXY_OBJECT
  5
1845
102
{ACAD_REACTORS
330
183C
102
}
330
183C
100
AcDbProxyObject
 90
      499
 91
      510
 95
   983063
 70
     0
 93
      121
310
905313A33300040000000000003E4009
 94
        0
1001
ACAD
1000
AcRTDxfName
1000
SCALE
1000
AcRTDxfName
1000
SCALE
1000
AcRTDxfName
1000
SCALE
1000
AcRTDxfName
1000
SCALE
1000
AcRTDxfName
1000
SCALE
1000
AcRTDxfName
1000
SCALE
1000
AcRTDxfName
1000
SCALE
1000
AcRTDxfName
1000
SCALE
  0
ACAD_PROXY_OBJECT
  5
1846
102
{ACAD_REACTORS
330
183C
102
}
330
183C
100
AcDbProxyObject
 90
      499
 91
      510
 95
   983063
 70
     0
 93
      121
310
905313A3430004000000000000444009
 94
        0
1001
ACAD
1000
AcRTDxfName
1000
SCALE
1000
AcRTDxfName
1000
SCALE
1000
AcRTDxfName
1000
SCALE
1000
AcRTDxfName
1000
SCALE
1000
AcRTDxfName
1000
SCALE
1000
AcRTDxfName
1000
SCALE
1000
AcRTDxfName
1000
SCALE
1000
AcRTDxfName
1000
SCALE
  0
ACAD_PROXY_OBJECT
  5
1847
102
{ACAD_REACTORS
330
183C
102
}
330
183C
100
AcDbProxyObject
 90
      499
 91
      510
 95
   983063
 70
     0
 93
      121
310
905313A3530004000000000000494009
 94
        0
1001
ACAD
1000
AcRTDxfName
1000
SCALE
1000
AcRTDxfName
1000
SCALE
1000
AcRTDxfName
1000
SCALE
1000
AcRTDxfName
1000
SCALE
1000
AcRTDxfName
1000
SCALE
1000
AcRTDxfName
1000
SCALE
1000
AcRTDxfName
1000
SCALE
1000
AcRTDxfName
1000
SCALE
  0
ACAD_PROXY_OBJECT
  5
1848
102
{ACAD_REACTORS
330
183C
102
}
330
183C
100
AcDbProxyObject
 90
      499
 91
      510
 95
   983063
 70
     0
 93
      129
310
906313A313030004000000000000594002
 94
        0
1001
ACAD
1000
AcRTDxfName
1000
SCALE
1000
AcRTDxfName
1000
SCALE
1000
AcRTDxfName
1000
SCALE
1000
AcRTDxfName
1000
SCALE
1000
AcRTDxfName
1000
SCALE
1000
AcRTDxfName
1000
SCALE
1000
AcRTDxfName
1000
SCALE
1000
AcRTDxfName
1000
SCALE
  0
ACAD_PROXY_OBJECT
  5
1849
102
{ACAD_REACTORS
330
183C
102
}
330
183C
100
AcDbProxyObject
 90
      499
 91
      510
 95
   983063
 70
     0
 93
      113
310
904323A31000000000000000010140
 94
        0
1001
ACAD
1000
AcRTDxfName
1000
SCALE
1000
AcRTDxfName
1000
SCALE
1000
AcRTDxfName
1000
SCALE
1000
AcRTDxfName
1000
SCALE
1000
AcRTDxfName
1000
SCALE
1000
AcRTDxfName
1000
SCALE
1000
AcRTDxfName
1000
SCALE
1000
AcRTDxfName
1000
SCALE
  0
ACAD_PROXY_OBJECT
  5
184A
102
{ACAD_REACTORS
330
183C
102
}
330
183C
100
AcDbProxyObject
 90
      499
 91
      510
 95
   983063
 70
     0
 93
      113
310
904343A31000000000000000410159
 94
        0
1001
ACAD
1000
AcRTDxfName
1000
SCALE
1000
AcRTDxfName
1000
SCALE
1000
AcRTDxfName
1000
SCALE
1000
AcRTDxfName
1000
SCALE
1000
AcRTDxfName
1000
SCALE
1000
AcRTDxfName
1000
SCALE
1000
AcRTDxfName
1000
SCALE
1000
AcRTDxfName
1000
SCALE
  0
ACAD_PROXY_OBJECT
  5
184B
102
{ACAD_REACTORS
330
183C
102
}
330
183C
100
AcDbProxyObject
 90
      499
 91
      510
 95
   983063
 70
     0
 93
      113
310
904383A31000000000000000810140
 94
        0
1001
ACAD
1000
AcRTDxfName
1000
SCALE
1000
AcRTDxfName
1000
SCALE
1000
AcRTDxfName
1000
SCALE
1000
AcRTDxfName
1000
SCALE
1000
AcRTDxfName
1000
SCALE
1000
AcRTDxfName
1000
SCALE
1000
AcRTDxfName
1000
SCALE
1000
AcRTDxfName
1000
SCALE
  0
ACAD_PROXY_OBJECT
  5
184C
102
{ACAD_REACTORS
330
183C
102
}
330
183C
100
AcDbProxyObject
 90
      499
 91
      510
 95
   983063
 70
     0
 93
      121
310
90531303A31000000000000000910140
 94
        0
1001
ACAD
1000
AcRTDxfName
1000
SCALE
1000
AcRTDxfName
1000
SCALE
1000
AcRTDxfName
1000
SCALE
1000
AcRTDxfName
1000
SCALE
1000
AcRTDxfName
1000
SCALE
1000
AcRTDxfName
1000
SCALE
1000
AcRTDxfName
1000
SCALE
1000
AcRTDxfName
1000
SCALE
  0
ACAD_PROXY_OBJECT
  5
184D
102
{ACAD_REACTORS
330
183C
102
}
330
183C
100
AcDbProxyObject
 90
      499
 91
      510
 95
   983063
 70
     0
 93
      129
310
9063130303A31000000000000001650102
 94
        0
1001
ACAD
1000
AcRTDxfName
1000
SCALE
1000
AcRTDxfName
1000
SCALE
1000
AcRTDxfName
1000
SCALE
1000
AcRTDxfName
1000
SCALE
1000
AcRTDxfName
1000
SCALE
1000
AcRTDxfName
1000
SCALE
1000
AcRTDxfName
1000
SCALE
1000
AcRTDxfName
1000
SCALE
  0
ACAD_PROXY_OBJECT
  5
184E
102
{ACAD_REACTORS
330
183C
102
}
330
183C
100
AcDbProxyObject
 90
      499
 91
      510
 95
   983063
 70
     0
 93
      265
310
90F312F31323822203D2031272D302200000000000000200FC00000000000028407B
 94
        0
1001
ACAD
1000
AcRTDxfName
1000
SCALE
1000
AcRTDxfName
1000
SCALE
1000
AcRTDxfName
1000
SCALE
1000
AcRTDxfName
1000
SCALE
1000
AcRTDxfName
1000
SCALE
1000
AcRTDxfName
1000
SCALE
1000
AcRTDxfName
1000
SCALE
1000
AcRTDxfName
1000
SCALE
  0
ACAD_PROXY_OBJECT
  5
184F
102
{ACAD_REACTORS
330
183C
102
}
330
183C
100
AcDbProxyObject
 90
      499
 91
      510
 95
   983063
 70
     0
 93
      257
310
90E312F363422203D2031272D302200000000000000240FC00000000000028407B
 94
        0
1001
ACAD
1000
AcRTDxfName
1000
SCALE
1000
AcRTDxfName
1000
SCALE
1000
AcRTDxfName
1000
SCALE
1000
AcRTDxfName
1000
SCALE
1000
AcRTDxfName
1000
SCALE
1000
AcRTDxfName
1000
SCALE
1000
AcRTDxfName
1000
SCALE
1000
AcRTDxfName
1000
SCALE
  0
ACAD_PROXY_OBJECT
  5
1850
102
{ACAD_REACTORS
330
183C
102
}
330
183C
100
AcDbProxyObject
 90
      499
 91
      510
 95
   983063
 70
     0
 93
      257
310
90E312F333222203D2031272D302200000000000000280FC000000000000284040
 94
        0
1001
ACAD
1000
AcRTDxfName
1000
SCALE
1000
AcRTDxfName
1000
SCALE
1000
AcRTDxfName
1000
SCALE
1000
AcRTDxfName
1000
SCALE
1000
AcRTDxfName
1000
SCALE
1000
AcRTDxfName
1000
SCALE
1000
AcRTDxfName
1000
SCALE
1000
AcRTDxfName
1000
SCALE
  0
ACAD_PROXY_OBJECT
  5
1851
102
{ACAD_REACTORS
330
183C
102
}
330
183C
100
AcDbProxyObject
 90
      499
 91
      510
 95
   983063
 70
     0
 93
      257
310
90E312F313622203D2031272D3022000000000000002C0FC00000000000028407B
 94
        0
1001
ACAD
1000
AcRTDxfName
1000
SCALE
1000
AcRTDxfName
1000
SCALE
1000
AcRTDxfName
1000
SCALE
1000
AcRTDxfName
1000
SCALE
1000
AcRTDxfName
1000
SCALE
1000
AcRTDxfName
1000
SCALE
1000
AcRTDxfName
1000
SCALE
1000
AcRTDxfName
1000
SCALE
  0
ACAD_PROXY_OBJECT
  5
1852
102
{ACAD_REACTORS
330
183C
102
}
330
183C
100
AcDbProxyObject
 90
      499
 91
      510
 95
   983063
 70
     0
 93
      257
310
90E332F333222203D2031272D3022000000000000002E0FC000000000000284000
 94
        0
1001
ACAD
1000
AcRTDxfName
1000
SCALE
1000
AcRTDxfName
1000
SCALE
1000
AcRTDxfName
1000
SCALE
1000
AcRTDxfName
1000
SCALE
1000
AcRTDxfName
1000
SCALE
1000
AcRTDxfName
1000
SCALE
1000
AcRTDxfName
1000
SCALE
1000
AcRTDxfName
1000
SCALE
  0
ACAD_PROXY_OBJECT
  5
1853
102
{ACAD_REACTORS
330
183C
102
}
330
183C
100
AcDbProxyObject
 90
      499
 91
      510
 95
   983063
 70
     0
 93
      249
310
90D312F3822203D2031272D302200000000000000300FC000000000000284000
 94
        0
1001
ACAD
1000
AcRTDxfName
1000
SCALE
1000
AcRTDxfName
1000
SCALE
1000
AcRTDxfName
1000
SCALE
1000
AcRTDxfName
1000
SCALE
1000
AcRTDxfName
1000
SCALE
1000
AcRTDxfName
1000
SCALE
1000
AcRTDxfName
1000
SCALE
1000
AcRTDxfName
1000
SCALE
  0
ACAD_PROXY_OBJECT
  5
1854
102
{ACAD_REACTORS
330
183C
102
}
330
183C
100
AcDbProxyObject
 90
      499
 91
      510
 95
   983063
 70
     0
 93
      257
310
90E332F313622203D2031272D302200000000000000320FC000000000000284000
 94
        0
1001
ACAD
1000
AcRTDxfName
1000
SCALE
1000
AcRTDxfName
1000
SCALE
1000
AcRTDxfName
1000
SCALE
1000
AcRTDxfName
1000
SCALE
1000
AcRTDxfName
1000
SCALE
1000
AcRTDxfName
1000
SCALE
1000
AcRTDxfName
1000
SCALE
1000
AcRTDxfName
1000
SCALE
  0
ACAD_PROXY_OBJECT
  5
1855
102
{ACAD_REACTORS
330
183C
102
}
330
183C
100
AcDbProxyObject
 90
      499
 91
      510
 95
   983063
 70
     0
 93
      249
310
90D312F3422203D2031272D302200000000000000340FC000000000000284000
 94
        0
1001
ACAD
1000
AcRTDxfName
1000
SCALE
1000
AcRTDxfName
1000
SCALE
1000
AcRTDxfName
1000
SCALE
1000
AcRTDxfName
1000
SCALE
1000
AcRTDxfName
1000
SCALE
1000
AcRTDxfName
1000
SCALE
1000
AcRTDxfName
1000
SCALE
1000
AcRTDxfName
1000
SCALE
  0
ACAD_PROXY_OBJECT
  5
1856
102
{ACAD_REACTORS
330
183C
102
}
330
183C
100
AcDbProxyObject
 90
      499
 91
      510
 95
   983063
 70
     0
 93
      249
310
90D332F3822203D2031272D302200000000000000360FC000000000000284040
 94
        0
1001
ACAD
1000
AcRTDxfName
1000
SCALE
1000
AcRTDxfName
1000
SCALE
1000
AcRTDxfName
1000
SCALE
1000
AcRTDxfName
1000
SCALE
1000
AcRTDxfName
1000
SCALE
1000
AcRTDxfName
1000
SCALE
1000
AcRTDxfName
1000
SCALE
1000
AcRTDxfName
1000
SCALE
  0
ACAD_PROXY_OBJECT
  5
1857
102
{ACAD_REACTORS
330
183C
102
}
330
183C
100
AcDbProxyObject
 90
      499
 91
      510
 95
   983063
 70
     0
 93
      249
310
90D312F3222203D2031272D302200000000000000380FC000000000000284000
 94
        0
1001
ACAD
1000
AcRTDxfName
1000
SCALE
1000
AcRTDxfName
1000
SCALE
1000
AcRTDxfName
1000
SCALE
1000
AcRTDxfName
1000
SCALE
1000
AcRTDxfName
1000
SCALE
1000
AcRTDxfName
1000
SCALE
1000
AcRTDxfName
1000
SCALE
1000
AcRTDxfName
1000
SCALE
  0
ACAD_PROXY_OBJECT
  5
1858
102
{ACAD_REACTORS
330
183C
102
}
330
183C
100
AcDbProxyObject
 90
      499
 91
      510
 95
   983063
 70
     0
 93
      249
310
90D332F3422203D2031272D3022000000000000003A0FC000000000000284040
 94
        0
1001
ACAD
1000
AcRTDxfName
1000
SCALE
1000
AcRTDxfName
1000
SCALE
1000
AcRTDxfName
1000
SCALE
1000
AcRTDxfName
1000
SCALE
1000
AcRTDxfName
1000
SCALE
1000
AcRTDxfName
1000
SCALE
1000
AcRTDxfName
1000
SCALE
1000
AcRTDxfName
1000
SCALE
  0
ACAD_PROXY_OBJECT
  5
1859
102
{ACAD_REACTORS
330
183C
102
}
330
183C
100
AcDbProxyObject
 90
      499
 91
      510
 95
   983063
 70
     0
 93
      169
310
90B3122203D2031272D3022004000000000000284000
 94
        0
1001
ACAD
1000
AcRTDxfName
1000
SCALE
1000
AcRTDxfName
1000
SCALE
1000
AcRTDxfName
1000
SCALE
1000
AcRTDxfName
1000
SCALE
1000
AcRTDxfName
1000
SCALE
1000
AcRTDxfName
1000
SCALE
1000
AcRTDxfName
1000
SCALE
1000
AcRTDxfName
1000
SCALE
  0
ACAD_PROXY_OBJECT
  5
185A
102
{ACAD_REACTORS
330
183C
102
}
330
183C
100
AcDbProxyObject
 90
      499
 91
      510
 95
   983063
 70
     0
 93
      265
310
90F312D312F3222203D2031272D3022000000000000003E0FC000000000000284000
 94
        0
1001
ACAD
1000
AcRTDxfName
1000
SCALE
1000
AcRTDxfName
1000
SCALE
1000
AcRTDxfName
1000
SCALE
1000
AcRTDxfName
1000
SCALE
1000
AcRTDxfName
1000
SCALE
1000
AcRTDxfName
1000
SCALE
1000
AcRTDxfName
1000
SCALE
1000
AcRTDxfName
1000
SCALE
  0
ACAD_PROXY_OBJECT
  5
185B
102
{ACAD_REACTORS
330
183C
102
}
330
183C
100
AcDbProxyObject
 90
      499
 91
      510
 95
   983063
 70
     0
 93
      233
310
90B3322203D2031272D30220000000000000002100000000000000284028
 94
        0
1001
ACAD
1000
AcRTDxfName
1000
SCALE
1000
AcRTDxfName
1000
SCALE
1000
AcRTDxfName
1000
SCALE
1000
AcRTDxfName
1000
SCALE
1000
AcRTDxfName
1000
SCALE
1000
AcRTDxfName
1000
SCALE
1000
AcRTDxfName
1000
SCALE
1000
AcRTDxfName
1000
SCALE
  0
ACAD_PROXY_OBJECT
  5
185C
102
{ACAD_REACTORS
330
183C
102
}
330
183C
100
AcDbProxyObject
 90
      499
 91
      510
 95
   983063
 70
     0
 93
      233
310
90B3622203D2031272D30220000000000000006100000000000000284000
 94
        0
1001
ACAD
1000
AcRTDxfName
1000
SCALE
1000
AcRTDxfName
1000
SCALE
1000
AcRTDxfName
1000
SCALE
1000
AcRTDxfName
1000
SCALE
1000
AcRTDxfName
1000
SCALE
1000
AcRTDxfName
1000
SCALE
1000
AcRTDxfName
1000
SCALE
1000
AcRTDxfName
1000
SCALE
  0
ACAD_PROXY_OBJECT
  5
185D
102
{ACAD_REACTORS
330
183C
102
}
330
183C
100
AcDbProxyObject
 90
      499
 91
      510
 95
   983063
 70
     0
 93
      257
310
90E31272D3022203D2031272D3022000000000000000A100000000000000284000
 94
        0
1001
ACAD
1000
AcRTDxfName
1000
SCALE
1000
AcRTDxfName
1000
SCALE
1000
AcRTDxfName
1000
SCALE
1000
AcRTDxfName
1000
SCALE
1000
AcRTDxfName
1000
SCALE
1000
AcRTDxfName
1000
SCALE
1000
AcRTDxfName
1000
SCALE
1000
AcRTDxfName
1000
SCALE
  0
TABLESTYLE
  5
16DE
102
{ACAD_XDICTIONARY
360
4E0E
102
}
102
{ACAD_REACTORS
330
16DD
102
}
330
16DD
100
AcDbTableStyle
  3
Standard
 70
     0
 71
     0
 40
1.5
 41
1.5
280
     0
281
     0
  7
STANDARD
140
4.5
170
     2
 62
     0
 63
     7
283
     0
274
    -2
284
     1
 64
     0
275
    -2
285
     1
 65
     0
276
    -2
286
     1
 66
     0
277
    -2
287
     1
 67
     0
278
    -2
288
     1
 68
     0
279
    -2
289
     1
 69
     0
  7
STANDARD
140
6.0
170
     5
 62
     0
 63
     7
283
     0
274
    -2
284
     1
 64
     0
275
    -2
285
     1
 65
     0
276
    -2
286
     1
 66
     0
277
    -2
287
     1
 67
     0
278
    -2
288
     1
 68
     0
279
    -2
289
     1
 69
     0
  7
STANDARD
140
4.5
170
     5
 62
     0
 63
     7
283
     0
274
    -2
284
     1
 64
     0
275
    -2
285
     1
 65
     0
276
    -2
286
     1
 66
     0
277
    -2
287
     1
 67
     0
278
    -2
288
     1
 68
     0
279
    -2
289
     1
 69
     0
  0
ACAD_PROXY_OBJECT
  5
1831
102
{ACAD_REACTORS
330
182B
102
}
330
182B
100
AcDbProxyObject
 90
      499
 91
      509
 95
   983063
 70
     0
 93
      444
310
430C9915DA5C99599C985B59401049028333333333333E3BF0000000000000FB0107901411070040501600405405064090741402480A0345
 94
        0
1001
ACAD
1000
AcDbSavedByObjectVersion
1070
     0
1000
AcRTDxfName
1000
VISUALSTYLE
1000
AcRTDxfName
1000
VISUALSTYLE
1000
AcRTDxfName
1000
VISUALSTYLE
1000
AcRTDxfName
1000
VISUALSTYLE
1000
AcRTDxfName
1000
VISUALSTYLE
1000
AcRTDxfName
1000
VISUALSTYLE
1000
AcRTDxfName
1000
VISUALSTYLE
1000
AcRTDxfName
1000
VISUALSTYLE
  0
ACAD_PROXY_OBJECT
  5
1833
102
{ACAD_REACTORS
330
182B
102
}
330
182B
100
AcDbProxyObject
 90
      499
 91
      509
 95
   983063
 70
     0
 93
      508
310
428CD108121A5919195B8010640502408333333333333E3BF0000000000000FB01079024090700405020000000000001110200405405064090740C02480A0342
 94
        0
1001
ACAD
1000
AcDbSavedByObjectVersion
1070
     0
1000
AcRTDxfName
1000
VISUALSTYLE
1000
AcRTDxfName
1000
VISUALSTYLE
1000
AcRTDxfName
1000
VISUALSTYLE
1000
AcRTDxfName
1000
VISUALSTYLE
1000
AcRTDxfName
1000
VISUALSTYLE
1000
AcRTDxfName
1000
VISUALSTYLE
1000
AcRTDxfName
1000
VISUALSTYLE
1000
AcRTDxfName
1000
VISUALSTYLE
  0
ACAD_PROXY_OBJECT
  5
1832
102
{ACAD_REACTORS
330
182B
102
}
330
182B
100
AcDbProxyObject
 90
      499
 91
      509
 95
   983063
 70
     0
 93
      444
310
430CD915DA5C99599C985B59401059028333333333333E3BF0000000000000FB0107901411070040501600405405064090741402480A0340
 94
        0
1001
ACAD
1000
AcDbSavedByObjectVersion
1070
     0
1000
AcRTDxfName
1000
VISUALSTYLE
1000
AcRTDxfName
1000
VISUALSTYLE
1000
AcRTDxfName
1000
VISUALSTYLE
1000
AcRTDxfName
1000
VISUALSTYLE
1000
AcRTDxfName
1000
VISUALSTYLE
1000
AcRTDxfName
1000
VISUALSTYLE
1000
AcRTDxfName
1000
VISUALSTYLE
1000
AcRTDxfName
1000
VISUALSTYLE
  0
ACAD_PROXY_OBJECT
  5
1830
102
{ACAD_REACTORS
330
182B
102
}
330
182B
100
AcDbProxyObject
 90
      499
 91
      509
 95
   983063
 70
     0
 93
      396
310
4190985CDA58C0107406404333333333333E3BF0000000000000FB0107A41107004050150841D405064090741402480A0358
 94
        0
1001
ACAD
1000
AcDbSavedByObjectVersion
1070
     0
1000
AcRTDxfName
1000
VISUALSTYLE
1000
AcRTDxfName
1000
VISUALSTYLE
1000
AcRTDxfName
1000
VISUALSTYLE
1000
AcRTDxfName
1000
VISUALSTYLE
1000
AcRTDxfName
1000
VISUALSTYLE
1000
AcRTDxfName
1000
VISUALSTYLE
1000
AcRTDxfName
1000
VISUALSTYLE
1000
AcRTDxfName
1000
VISUALSTYLE
  0
ACAD_PROXY_OBJECT
  5
1837
102
{ACAD_REACTORS
330
182B
102
}
330
182B
100
AcDbProxyObject
 90
      499
 91
      509
 95
   983063
 70
     0
 93
      436
310
42509C9A59DA1D195B8010C409028333333333333E3BF0000000000000FB010790141107004050150841D405064090741402480A029956
 94
        0
1001
ACAD
1000
AcDbSavedByObjectVersion
1070
     0
1000
AcRTDxfName
1000
VISUALSTYLE
1000
AcRTDxfName
1000
VISUALSTYLE
1000
AcRTDxfName
1000
VISUALSTYLE
1000
AcRTDxfName
1000
VISUALSTYLE
1000
AcRTDxfName
1000
VISUALSTYLE
1000
AcRTDxfName
1000
VISUALSTYLE
1000
AcRTDxfName
1000
VISUALSTYLE
1000
AcRTDxfName
1000
VISUALSTYLE
  0
ACAD_PROXY_OBJECT
  5
183B
102
{ACAD_REACTORS
330
182B
102
}
330
182B
100
AcDbProxyObject
 90
      499
 91
      509
 95
   983063
 70
     0
 93
      460
310
4310DBDB1BDC90DA185B99D9401104090240C333333333333E3BF0000000000000FB0108901411070040501508421405064090741402480A0352
 94
        0
1001
ACAD
1000
AcDbSavedByObjectVersion
1070
     0
1000
AcRTDxfName
1000
VISUALSTYLE
1000
AcRTDxfName
1000
VISUALSTYLE
1000
AcRTDxfName
1000
VISUALSTYLE
1000
AcRTDxfName
1000
VISUALSTYLE
1000
AcRTDxfName
1000
VISUALSTYLE
1000
AcRTDxfName
1000
VISUALSTYLE
1000
AcRTDxfName
1000
VISUALSTYLE
1000
AcRTDxfName
1000
VISUALSTYLE
  0
ACAD_PROXY_OBJECT
  5
1834
102
{ACAD_REACTORS
330
182B
102
}
330
182B
100
AcDbProxyObject
 90
      499
 91
      509
 95
   983063
 70
     0
 93
      508
310
42D0DBDB98D95C1D1D585B0010940D028333333333333E3BF0000000000000FB0107902409070040501000000000000111010841D405064090740C02480A0342
 94
        0
1001
ACAD
1000
AcDbSavedByObjectVersion
1070
     0
1000
AcRTDxfName
1000
VISUALSTYLE
1000
AcRTDxfName
1000
VISUALSTYLE
1000
AcRTDxfName
1000
VISUALSTYLE
1000
AcRTDxfName
1000
VISUALSTYLE
1000
AcRTDxfName
1000
VISUALSTYLE
1000
AcRTDxfName
1000
VISUALSTYLE
1000
AcRTDxfName
1000
VISUALSTYLE
1000
AcRTDxfName
1000
VISUALSTYLE
  0
ACAD_PROXY_OBJECT
  5
1836
102
{ACAD_REACTORS
330
182B
102
}
330
182B
100
AcDbProxyObject
 90
      499
 91
      509
 95
   983063
 70
     0
 93
      420
310
41111A5B4010B409028333333333333E3BF0000000000000FB010790141107004050150841D405064090741402480A02677FFFFFD4
 94
        0
1001
ACAD
1000
AcDbSavedByObjectVersion
1070
     0
1000
AcRTDxfName
1000
VISUALSTYLE
1000
AcRTDxfName
1000
VISUALSTYLE
1000
AcRTDxfName
1000
VISUALSTYLE
1000
AcRTDxfName
1000
VISUALSTYLE
1000
AcRTDxfName
1000
VISUALSTYLE
1000
AcRTDxfName
1000
VISUALSTYLE
1000
AcRTDxfName
1000
VISUALSTYLE
1000
AcRTDxfName
1000
VISUALSTYLE
  0
ACAD_PROXY_OBJECT
  5
183A
102
{ACAD_REACTORS
330
182B
102
}
330
182B
100
AcDbProxyObject
 90
      499
 91
      509
 95
   983063
 70
     0
 93
      452
310
43119858D95C185D1D195C9B8010F409028333333333333E3BF0000000000000FB010790141107004050150841D405064090741402480A0350
 94
        0
1001
ACAD
1000
AcDbSavedByObjectVersion
1070
     0
1000
AcRTDxfName
1000
VISUALSTYLE
1000
AcRTDxfName
1000
VISUALSTYLE
1000
AcRTDxfName
1000
VISUALSTYLE
1000
AcRTDxfName
1000
VISUALSTYLE
1000
AcRTDxfName
1000
VISUALSTYLE
1000
AcRTDxfName
1000
VISUALSTYLE
1000
AcRTDxfName
1000
VISUALSTYLE
1000
AcRTDxfName
1000
VISUALSTYLE
  0
ACAD_PROXY_OBJECT
  5
182C
102
{ACAD_REACTORS
330
182B
102
}
330
182B
100
AcDbProxyObject
 90
      499
 91
      509
 95
   983063
 70
     0
 93
      396
310
41519B185D00240901404333333333333E3BF0000000000000F9010740A41107004050150841D405064090741402480A1B55
 94
        0
1001
ACAD
1000
AcDbSavedByObjectVersion
1070
     0
1000
AcRTDxfName
1000
VISUALSTYLE
1000
AcRTDxfName
1000
VISUALSTYLE
1000
AcRTDxfName
1000
VISUALSTYLE
1000
AcRTDxfName
1000
VISUALSTYLE
1000
AcRTDxfName
1000
VISUALSTYLE
1000
AcRTDxfName
1000
VISUALSTYLE
1000
AcRTDxfName
1000
VISUALSTYLE
1000
AcRTDxfName
1000
VISUALSTYLE
  0
ACAD_PROXY_OBJECT
  5
182D
102
{ACAD_REACTORS
330
182B
102
}
330
182B
100
AcDbProxyObject
 90
      499
 91
      509
 95
   983063
 70
     0
 93
      484
310
43919B185D15DA5D1A115919D95CC010140901404333333333333E3BF0000000000000F9010740901411070040501600405405064090741402480A1B52
 94
        0
1001
ACAD
1000
AcDbSavedByObjectVersion
1070
     0
1000
AcRTDxfName
1000
VISUALSTYLE
1000
AcRTDxfName
1000
VISUALSTYLE
1000
AcRTDxfName
1000
VISUALSTYLE
1000
AcRTDxfName
1000
VISUALSTYLE
1000
AcRTDxfName
1000
VISUALSTYLE
1000
AcRTDxfName
1000
VISUALSTYLE
1000
AcRTDxfName
1000
VISUALSTYLE
1000
AcRTDxfName
1000
VISUALSTYLE
  0
ACAD_PROXY_OBJECT
  5
182E
102
{ACAD_REACTORS
330
182B
102
}
330
182B
100
AcDbProxyObject
 90
      499
 91
      509
 95
   983063
 70
     0
 93
      420
310
4211DBDD5C985D590010240902404333333333333E3BF0000000000000F9010740A411070040501641D405064090741402480A1B5C
 94
        0
1001
ACAD
1000
AcDbSavedByObjectVersion
1070
     0
1000
AcRTDxfName
1000
VISUALSTYLE
1000
AcRTDxfName
1000
VISUALSTYLE
1000
AcRTDxfName
1000
VISUALSTYLE
1000
AcRTDxfName
1000
VISUALSTYLE
1000
AcRTDxfName
1000
VISUALSTYLE
1000
AcRTDxfName
1000
VISUALSTYLE
1000
AcRTDxfName
1000
VISUALSTYLE
1000
AcRTDxfName
1000
VISUALSTYLE
  0
ACAD_PROXY_OBJECT
  5
182F
102
{ACAD_REACTORS
330
182B
102
}
330
182B
100
AcDbProxyObject
 90
      499
 91
      509
 95
   983063
 70
     0
 93
      508
310
4451DBDD5C985D5915DA5D1A115919D95CC010340902404333333333333E3BF0000000000000F9010740901411070040501600405405064090741402480A1B52
 94
        0
1001
ACAD
1000
AcDbSavedByObjectVersion
1070
     0
1000
AcRTDxfName
1000
VISUALSTYLE
1000
AcRTDxfName
1000
VISUALSTYLE
1000
AcRTDxfName
1000
VISUALSTYLE
1000
AcRTDxfName
1000
VISUALSTYLE
1000
AcRTDxfName
1000
VISUALSTYLE
1000
AcRTDxfName
1000
VISUALSTYLE
1000
AcRTDxfName
1000
VISUALSTYLE
1000
AcRTDxfName
1000
VISUALSTYLE
  0
ACAD_PROXY_OBJECT
  5
1839
102
{ACAD_REACTORS
330
182B
102
}
330
182B
100
AcDbProxyObject
 90
      499
 91
      509
 95
   983063
 70
     0
 93
      452
310
43131A5B995C185D1D195C9B8010E409028333333333333E3BF0000000000000FB010790141107004050750841D405064090741402483A0352
 94
        0
1001
ACAD
1000
AcDbSavedByObjectVersion
1070
     0
1000
AcRTDxfName
1000
VISUALSTYLE
1000
AcRTDxfName
1000
VISUALSTYLE
1000
AcRTDxfName
1000
VISUALSTYLE
1000
AcRTDxfName
1000
VISUALSTYLE
1000
AcRTDxfName
1000
VISUALSTYLE
1000
AcRTDxfName
1000
VISUALSTYLE
1000
AcRTDxfName
1000
VISUALSTYLE
1000
AcRTDxfName
1000
VISUALSTYLE
  0
ACAD_PROXY_OBJECT
  5
1835
102
{ACAD_REACTORS
330
182B
102
}
330
182B
100
AcDbProxyObject
 90
      499
 91
      509
 95
   983063
 70
     0
 93
      428
310
429499585B1A5CDD1A58C0108409028333333333333E3BF0000000000000FB01079019070040501508421405064090741402480A1B45
 94
        0
1001
ACAD
1000
AcDbSavedByObjectVersion
1070
     0
1000
AcRTDxfName
1000
VISUALSTYLE
1000
AcRTDxfName
1000
VISUALSTYLE
1000
AcRTDxfName
1000
VISUALSTYLE
1000
AcRTDxfName
1000
VISUALSTYLE
1000
AcRTDxfName
1000
VISUALSTYLE
1000
AcRTDxfName
1000
VISUALSTYLE
1000
AcRTDxfName
1000
VISUALSTYLE
1000
AcRTDxfName
1000
VISUALSTYLE
  0
ACAD_PROXY_OBJECT
  5
1838
102
{ACAD_REACTORS
330
182B
102
}
330
182B
100
AcDbProxyObject
 90
      499
 91
      509
 95
   983063
 70
     0
 93
      420
310
42151A1A58DAD95B8010D409028333333333333E3BF0000000000000FB010790141107004050150C41D405064090741402480A0352
 94
        0
1001
ACAD
1000
AcDbSavedByObjectVersion
1070
     0
1000
AcRTDxfName
1000
VISUALSTYLE
1000
AcRTDxfName
1000
VISUALSTYLE
1000
AcRTDxfName
1000
VISUALSTYLE
1000
AcRTDxfName
1000
VISUALSTYLE
1000
AcRTDxfName
1000
VISUALSTYLE
1000
AcRTDxfName
1000
VISUALSTYLE
1000
AcRTDxfName
1000
VISUALSTYLE
1000
AcRTDxfName
1000
VISUALSTYLE
  0
DICTIONARYVAR
  5
4E5B
102
{ACAD_REACTORS
330
17B1
102
}
330
17B1
100
DictionaryVariables
280
     0
  1
1:1
  0
DICTIONARYVAR
  5
4E5A
102
{ACAD_REACTORS
330
17B1
102
}
330
17B1
100
DictionaryVariables
280
     0
  1
STANDARD
  0
DICTIONARYVAR
  5
17B2
102
{ACAD_REACTORS
330
17B1
102
}
330
17B1
100
DictionaryVariables
280
     0
  1
STANDARD
  0
DICTIONARYVAR
  5
17B3
102
{ACAD_REACTORS
330
17B1
102
}
330
17B1
100
DictionaryVariables
280
     0
  1
1
  0
DICTIONARYVAR
  5
4E5D
102
{ACAD_REACTORS
330
17B1
102
}
330
17B1
100
DictionaryVariables
280
     0
  1
0
  0
DICTIONARYVAR
  5
17B4
102
{ACAD_REACTORS
330
17B1
102
}
330
17B1
100
DictionaryVariables
280
     0
  1

  0
DICTIONARYVAR
  5
4E5C
102
{ACAD_REACTORS
330
17B1
102
}
330
17B1
100
DictionaryVariables
280
     0
  1
127
  0
DICTIONARY
  5
6F32
330
16E1
100
AcDbDictionary
280
     1
281
     1
  3
ACAD_XREC_ROUNDTRIP
360
6F33
  0
DICTIONARY
  5
16F7
330
16E2
100
AcDbDictionary
280
     1
281
     1
  3
ACAD_XREC_ROUNDTRIP
360
6F34
  3
ADSK_XREC_LAYOUTTHUMBNAIL
360
16F8
  0
DICTIONARY
  5
181C
330
181B
100
AcDbDictionary
280
     1
281
     1
  3
ACAD_XREC_ROUNDTRIP
360
6C77
  3
BUMPTILE
360
181E
  3
DIFFUSETILE
360
181D
  3
OPACITYTILE
360
1821
  3
REFLECTIONTILE
360
1820
  3
REFRACTIONTILE
360
1822
  3
SPECULARTILE
360
181F
  0
DICTIONARY
  5
1814
330
1813
100
AcDbDictionary
280
     1
281
     1
  3
ACAD_XREC_ROUNDTRIP
360
6C76
  3
BUMPTILE
360
1816
  3
DIFFUSETILE
360
1815
  3
OPACITYTILE
360
1819
  3
REFLECTIONTILE
360
1818
  3
REFRACTIONTILE
360
181A
  3
SPECULARTILE
360
1817
  0
DICTIONARY
  5
1824
330
1823
100
AcDbDictionary
280
     1
281
     1
  3
ACAD_XREC_ROUNDTRIP
360
6C78
  3
BUMPTILE
360
1826
  3
DIFFUSETILE
360
1825
  3
OPACITYTILE
360
1829
  3
REFLECTIONTILE
360
1828
  3
REFRACTIONTILE
360
182A
  3
SPECULARTILE
360
1827
  0
DICTIONARY
  5
6F35
330
17A6
100
AcDbDictionary
280
     1
281
     1
  3
ACAD_XREC_ROUNDTRIP
360
6F36
  0
DICTIONARY
  5
4E0E
330
16DE
100
AcDbDictionary
280
     1
281
     1
  3
ACAD_ROUNDTRIP_2008_TABLESTYLE_CELLSTYLEMAP
360
6C58
  3
ACAD_XREC_ROUNDTRIP
360
6C70
  0
XRECORD
  5
6F33
102
{ACAD_REACTORS
330
6F32
102
}
330
6F32
100
AcDbXrecord
280
     1
102
SHADEPLOT
 70
     0
102
SHADEPLOTRESLEVEL
 70
     2
102
SHADEPLOTCUSTOMDPI
 70
   300
  0
XRECORD
  5
6F34
102
{ACAD_REACTORS
330
16F7
102
}
330
16F7
100
AcDbXrecord
280
     1
102
SHADEPLOT
 70
     0
102
SHADEPLOTRESLEVEL
 70
     2
102
SHADEPLOTCUSTOMDPI
 70
   300
  0
XRECORD
  5
16F8
102
{ACAD_REACTORS
330
16F7
102
}
330
16F7
100
AcDbXrecord
280
     1
310
28000000B40000007F00000001000800000000004C5900000000000000000000000100000000000000000000FFFFFF00000000000000000000000000000000000000000000000000000000000000000000000000330000006600000099000000CC000000FF00000000330000333300006633000099330000CC330000FF3300
310
0000660000336600006666000099660000CC660000FF66000000990000339900006699000099990000CC990000FF99000000CC000033CC000066CC000099CC0000CCCC0000FFCC000000FF000033FF000066FF000099FF0000CCFF0000FFFF000000003300330033006600330099003300CC003300FF003300003333003333
310
33006633330099333300CC333300FF33330000663300336633006666330099663300CC663300FF66330000993300339933006699330099993300CC993300FF99330000CC330033CC330066CC330099CC3300CCCC3300FFCC330000FF330033FF330066FF330099FF3300CCFF3300FFFF330000006600330066006600660099
310
006600CC006600FF00660000336600333366006633660099336600CC336600FF33660000666600336666006666660099666600CC666600FF66660000996600339966006699660099996600CC996600FF99660000CC660033CC660066CC660099CC6600CCCC6600FFCC660000FF660033FF660066FF660099FF6600CCFF6600
310
FFFF660000009900330099006600990099009900CC009900FF00990000339900333399006633990099339900CC339900FF33990000669900336699006666990099669900CC669900FF66990000999900339999006699990099999900CC999900FF99990000CC990033CC990066CC990099CC9900CCCC9900FFCC990000FF99
310
0033FF990066FF990099FF9900CCFF9900FFFF99000000CC003300CC006600CC009900CC00CC00CC00FF00CC000033CC003333CC006633CC009933CC00CC33CC00FF33CC000066CC003366CC006666CC009966CC00CC66CC00FF66CC000099CC003399CC006699CC009999CC00CC99CC00FF99CC0000CCCC0033CCCC0066CC
310
CC0099CCCC00CCCCCC00FFCCCC0000FFCC0033FFCC0066FFCC0099FFCC00CCFFCC00FFFFCC000000FF003300FF006600FF009900FF00CC00FF00FF00FF000033FF003333FF006633FF009933FF00CC33FF00FF33FF000066FF003366FF006666FF009966FF00CC66FF00FF66FF000099FF003399FF006699FF009999FF00CC
310
99FF00FF99FF0000CCFF0033CCFF0066CCFF0099CCFF00CCCCFF00FFCCFF0000FFFF0033FFFF0066FFFF0099FFFF00CCFFFF00FFFFFF00000000000D0D0D001A1A1A00282828003535350043434300505050005D5D5D006B6B6B00787878008686860093939300A1A1A100AEAEAE00BBBBBB00C9C9C900D6D6D600E4E4E400
310
F1F1F100FFFFFF0000000000000000000000000000000000000000000000000000000000000000000000000000000000F5F5F5F5F5F5F5F5F5F5F5F5F5F5F5F5F5F5F5F5F5F5F5F5F5F5F5F5F5F5F5F5F5F5F5F5F5F5F5F5F5F5F5F5F5F5F5F5F5F5F5F5F5F5F5F5F5F5F5F5F5F5F5F5F5F5F5F5F5F5F5F5F5F5F5F5F5F5F5
310
F5F5F5F5F5F5F5F5F5F5F5F5F5F5F5F5F5F5F5F5F5F5F5F5F5F5F5F5F5F5F5F5F5F5F5F5F5F5F5F5F5F5F5F5F5F5F5F5F5F5F5F5F5F5F5F5F5F5F5F5F5F5F5F5F5F5F5F5F5F5F5F5F5F5F5F5F5F5F5F5F5F5F5F5F5F5F5F5F5F5F5F5F5F5F5F5F5F5F5F5F5F5F5F5F5F5F5F5F5F5F5E2E2E2E2E2E2E2E2E2F5F5F5F5F5F5F5
310
F5F5F5F5F5F5F5F5F5E2E2E2E2E2E2E2E2E2F5F5F5F5F5F5F5F5F5F5F5F5F5F5F5F5E2E2E2E2E2E2E2E2E2F5F5F5F5F5F5F5F5F5F5F5F5F5F5F5F5E2E2E2E2E2E2E2E2E2F5F5F5F5F5F5F5F5F5F5F5F5F5F5F5F5E2E2E2E2E2E2E2E2E2F5F5F5F5F5F5F5F5F5F5F5F5F5F5F5F5E2E2E2E2E2E2E2E2E2F5F5F5F5F5F5F5F5F5
310
F5F5F5F5F5F5F5E2E2E2E2E2E2E2E2E2F5F5F5F5F5F5F5F5F5F5F5F5F5E2E2E2E2E2E2E2E2E2E2E2E2E2E2E2E2E2E2E2E2E2E2E2E2E2E2E2E2E2E2E2E2E2E2E2E2E2E2E2E2E2E2E2E2E2E2E2E2E2E2E2E2E2E2E2E2E2E2E2E2E2E2E2E2E2E2E2E2E2E2E2E2E2E2E2E2E2E2E2E2E2E2E2E2E2E2E2E2E2E2E2E2E2E2E2E2E2E2
310
E2E2E2E2E2E2E2E2E2E2E2E2E2E2E2E2E2E2E2E2E2E2E2E2E2E2E2E2E2E2E2E2E2E2E2E2E2E2E2E2E2E2E2E2E2E2E2E2E2E2E2E2E2E2E2E2E2E2E2E2E2E2E2E2E2E2E2E2E2E2E2E2E2E2E2E2E2F5F5F5F5F5E2E2E2E2E2E2E2E2E2E2E2E2E2E2E2E2E2E2E2E2E2E2E2E2E2E2E2E2E2E2E2E2E2E2E2E2E2E2E2E2E2E2E2E2E2
310
E2E2E2E2E2E2E2E2E2E2E2E2E2E2E2E2E2E2E2E2E2E2E2E2E2E2E2E2E2E2E2E2E2E2E2E2E2E2E2E2E2E2E2E2E2E2E2E2E2E2E2E2E2E2E2E2E2E2E2E2E2E2E2E2E2E2E2E2E2E2E2E2E2E2E2E2E2E2E2E2E2E2E2E2E2E2E2E2E2E2E2E2E2E2E2E2E2E2E2E2E2E2E2E2E2E2E2E2E2E2E2E2E2E2E2E2E2E2E2E2E2E2E2E2E2E2E2
310
E2E2E2F5F5F5F5F5E2E2E2E2E2E2E2E2E2E2E2E2E2E2E2E2E2E2E2E2E2E2E2E2E2E2E2E2E2E2E2E2E2E2E2E2E2E2E2E2E2E2E2E2E2E2E2E2E2E2E2E2E2E2E2E2E2E2E2E2E2E2E2E2E2E2E2E2E2E2E2E2E2E2E2E2E2E2E2E2E2E2E2E2E2E2E2E2E2E2E2E2E2E2E2E2E2E2E2E2E2E2E2E2E2E2E2E2E2E2E2E2E2E2E2E2E2E2E2
310
E2E2E2E2E2E2E2E2E2E2E2E2E2E2E2E2E2E2E2E2E2E2E2E2E2E2E2E2E2E2E2E2E2E2E2E2E2E2E2E2E2E2E2E2E2E2E2E2E2E2E2E2E2E2E2E2F5F5F5F5F5E2E2E2E2E2E2E2E2E2E2E2E2E2E2E2E2E2E2E2E2E2E2E2E2E2E2E2E2E2E2E2E2E2E2E2E2E2E2E2E2E2E2E2E2E2E2E2E2E2E2E2E2E2E2E2E2E2E2E2E2E2E2E2E2E2E2
310
E2E2E2E2E2E2E2E2E2E2E2E2E2E2E2E2E2E2E2E2E2E2E2E2E2E2E2E2E2E2E2E2E2E2E2E2E2E2E2E2E2E2E2E2E2E2E2E2E2E2E2E2E2E2E2E2E2E2E2E2E2E2E2E2E2E2E2E2E2E2E2E2E2E2E2E2E2E2E2E2E2E2E2E2E2E2E2E2E2E2E2E2E2E2E2E2E2E2E2E2E2E2E2E2E2E2E2E2E2F5F5F5F5F5E2E2E2E2E2E2E2E2E2E2E2E2E2
310
E2E2E2E2E2E2E2E2E2E2E2E2E2E2E2E2E2E2E2E2E2E2E2E2E2E2E2E2E2E2E2E2E2E2E2E2E2E2E2E2E2E2E2E2E2E2E2E2E2E2E2E2E2E2E2E2E2E2E2E2E2E2E2E2E2E2E2E2E2E2E2E2E2E2E2E2E2E2E2E2E2E2E2E2E2E2E2E2E2E2E2E2E2E2E2E2E2E2E2E2E2E2E2E2E2E2E2E2E2E2E2E2E2E2E2E2E2E2E2E2E2E2E2E2E2E2E2
310
E2E2E2E2E2E2E2E2E2E2E2E2E2E2E2E2E2E2E2E2E2E2E2E2E2E2E2E2E2E2E2E2E2E2E2F5F5F5F5F5E2E2E2E2E2F5F5F5F5F5F5F5F5F5F5F5F5F5F5F5F5F5F5F5F5F5F5F5F5F5F5F5F5F5F5F5F5F5F5F5F5F5F5F5F5F5F5F5F5F5F5F5F5F5F5F5F5F5F5F5F5F5F5F5F5F5F5F5F5F5F5F5F5F5F5F5F5F5F5F5F5F5F5F5F5F5F5
310
F5F5F5F5F5F5F5F5F5F5F5F5F5F5F5F5F5F5F5F5F5F5F5F5F5F5F5F5F5F5F5F5F5F5F5F5F5F5F5F5F5F5F5F5F5F5F5F5F5F5F5F5F5F5F5F5F5F5F5F5F5F5F5F5F5F5F5F5F5F5F5F5F5F5F5F5F5F5F5F5F5F5F5E2E2E2E2E2F5F5F5F5F5E2E2E2E2E2F5E2E2E2E2E2E2E2E2E2E2E2E2E2E2E2E2E2E2E2E2E2E2E2E2E2E2E2E2
310
E2E2E2E2E2E2E2E2E2E2E2E2E2E2E2E2E2E2E2E2E2E2E2E2E2E2E2E2E2E2E2E2E2E2E2E2E2E2E2E2E2E2E2E2E2E2E2E2E2E2E2E2E2E2E2E2E2E2E2E2E2E2E2E2E2E2E2E2E2E2E2E2E2E2E2E2E2E2E2E2E2E2E2E2E2E2E2E2E2E2E2E2E2E2E2E2E2E2E2E2E2E2E2E2E2E2E2E2E2E2E2E2E2E2E2E2E2E2E2E2E2E2E2E2E2E2E2
310
E2E2E2E2E2E2E2E2F5E2E2E2E2E2F5F5F5F5E2E2E2E2E2E2F5E2E2E2E2E2E2E2E2E2E2E2E2E2E2E2E2E2E2E2E2E2E2E2E2E2E2E2E2E2E2E2E2E2E2E2E2E2E2E2E2E2E2E2E2E2E2E2E2E2E2E2E2E2E2E2E2E2E2E2E2E2E2E2E2E2E2E2E2E2E2E2E2E2E2E2E2E2E2E2E2E2E2E2E2E2E2E2E2E2E2E2E2E2E2E2E2E2E2E2E2E2E2
310
E2E2E2E2E2E2E2E2E2E2E2E2E2E2E2E2E2E2E2E2E2E2E2E2E2E2E2E2E2E2E2E2E2E2E2E2E2E2E2E2E2E2E2E2E2E2E2E2E2E2E2E2E2E2E2E2E2E2E2E2E2F5E2E2E2E2E2E2F5F5F5E2E2E2E2E2E2F5E2E2E2E2E2E2E2E2E2E2E2E2E2E2E2E2E2E2E2E2E2E2E2E2E2E2E2E2E2E2E2E2E2E2E2E2E2E2E2E2E2E2E2E2E2E2E2E2E2
310
E2E2E2E2E2E2E2E2E2E2E2E2E2E2E2E2E2E2E2E2E2E2E2E2E2E2E2E2E2E2E2E2E2E2E2E2E2E2E2E2E2E2E2E2E2E2E2E2E2E2E2E2E2E2E2E2E2E2E2E2E2E2E2E2E2E2E2E2E2E2E2E2E2E2E2E2E2E2E2E2E2E2E2E2E2E2E2E2E2E2E2E2E2E2E2E2E2E2E2E2E2E2E2E2E2E2E2E2E2E2E2E2E2E2F5E2E2E2E2E2E2F5F5F5E2E2E2
310
E2E2E2F5E2E2E2E2E2E2E2E2E2E2E2E2E2E2E2E2E2E2E2E2E2E2E2E2E2E2E2E2E2E2E2E2E2E2E2E2E2E2E2E2E2E2E2E2E2E2E2E2E2E2E2E2E2E2E2E2E2E2E2E2E2E2E2E2E2E2E2E2E2E2E2E2E2E2E2E2E2E2E2E2E2E2E2E2E2E2E2E2E2E2E2E2E2E2E2E2E2E2E2E2E2E2E2E2E2E2E2E2E2E2E2E2E2E2E2E2E2E2E2E2E2E2E2
310
E2E2E2E2E2E2E2E2E2E2E2E2E2E2E2E2E2E2E2E2E2E2E2E2E2E2E2E2E2E2E2E2E2E2E2E2E2E2E2E2F5E2E2E2E2E2E2F5F5F5E2E2E2E2E2E2F5E2E2E2E2E2E2E2E2E2E2E2E2E2E2E2E2E2E2E2E2E2E2E2E2E2E2E2E2E2E2E2E2E2E2E2E2E2E2E2E2E2E2E2E2E2E2E2E2E2E2E2E2E2E2E2E2E2E2E2E2E2E2E2E2E2E2E2E2E2E2
310
E2E2E2E2E2E2E2E2E2E2E2E2E2E2E2E2E2E2E2E2E2E2E2E2E2E2E2E2E2E2E2E2E2E2E2E2E2E2E2E2E2E2E2E2E2E2E2E2E2E2E2E2E2E2E2E2E2E2E2E2E2E2E2E2E2E2E2E2E2E2E2E2E2E2E2E2E2E2E2E2E2E2E2E2E2E2E2E2E2E2E2E2E2F5E2E2E2E2E2E2F5F5F5E2E2E2E2E2E2F5E2E2E2E2E2E2E2E2E2E2E2E2E2E2E2E2E2
310
E2E2E2E2E2E2E2E2E2E2E2E2E2E2E2E2E2E2E2E2E2E2E2E2E2E2E2E2E2E2E2E2E2E2E2E2E2E2E2E2E2E2E2E2E2E2E2E2E2E2E2E2E2E2E2E2E2E2E2E2E2E2E2E2E2E2E2E2E2E2E2E2E2E2E2E2E2E2E2E2E2E2E2E2E2E2E2E2E2E2E2E2E2E2E2E2E2E2E2E2E2E2E2E2E2E2E2E2E2E2E2E2E2E2E2E2E2E2E2E2E2E2E2E2E2E2E2
310
E2E2E2E2E2E2E2E2E2E2E2E2E2E2E2E2E2E2E2F5E2E2E2E2E2E2F5F5F5E2E2E2E2E2E2F5E2E2E2E2E2E2E2E2E2E2E2E2E2E2E2E2E2E2E2E2E2E2E2E2E2E2E2E2E2E2E2E2E2E2E2E2E2E2E2E2E2E2E2E2E2E2E2E2E2E2E2E2E2E2E2E2E2E2E2E2E2E2E2E2E2E2E2E2E2E2E2E2E2E2E2E2E2E2E2E2E2E2E2E2E2E2E2E2E2E2E2
310
E2E2E2E2E2E2E2E2E2E2E2E2E2E2E2E2E2E2E2E2E2E2E2E2E2E2E2E2E2E2E2E2E2E2E2E2E2E2E2E2E2E2E2E2E2E2E2E2E2E2E2E2E2E2E2E2E2E2E2E2E2E2E2E2E2E2E2E2E2E2E2E2F5E2E2E2E2E2E2F5F5F5E2E2E2E2E2E2F5E2E2E2E2E2E2E2E2E2E2E2E2E2E2E2E2E2E2E2E2E2E2E2E2E2E2E2E2E2E2E2E2E2E2E2E2E2E2
310
E2E2E2E2E2E2E2E2E2E2E2E2E2E2E2E2E2E2E2E2E2E2E2E2E2E2E2E2E2E2E2E2E2E2E2E2E2E2E2E2E2E2E2E2E2E2E2E2E2E2E2E2E2E2E2E2E2E2E2E2E2E2E2E2E2E2E2E2E2E2E2E2E2E2E2E2E2E2E2E2E2E2E2E2E2E2E2E2E2E2E2E2E2E2E2E2E2E2E2E2E2E2E2E2E2E2E2E2E2E2E2E2E2E2E2E2E2E2E2E2E2E2E2E2E2F5E2
310
E2E2E2E2E2F5F5F5E2E2E2E2E2E2F5E2E2E2E2E2E2E2E2E2E2E2E2E2E2E2E2E2E2E2E2E2E2E2E2E2E2E2E2E2E2E2E2E2E2E2E2E2E2E2E2E2E2E2E2E2E2E2E2E2E2E2E2E2E2E2E2E2E2E2E2E2E2E2E2E2E2E2E2E2E2E2E2E2E2E2E2E2E2E2E2E2E2E2E2E2E2E2E2E2E2E2E2E2E2E2E2E2E2E2E2E2E2E2E2E2E2E2E2E2E2E2E2
310
E2E2E2E2E2E2E2E2E2E2E2E2E2E2E2E2E2E2E2E2E2E2E2E2E2E2E2E2E2E2E2E2E2E2E2E2E2E2E2E2E2E2E2E2E2E2E2E2E2E2E2F5E2E2E2E2E2E2F5F5F5E2E2E2E2E2E2F5E2E2E2E2E2E2E2E2E2E2E2E2E2E2E2E2E2E2E2E2E2E2E2E2E2E2E2E2E2E2E2E2E2E2E2E2E2E2E2E2E2E2E2E2E2E2E2E2E2E2E2E2E2E2E2E2E2E2E2
310
E2E2E2E2E2E2E2E2E2E2E2E2E2E2E2E2E2E2E2E2E2E2E2E2E2E2E2E2E2E2E2E2E2E2E2E2E2E2E2E2E2E2E2E2E2E2E2E2E2E2E2E2E2E2E2E2E2E2E2E2E2E2E2E2E2E2E2E2E2E2E2E2E2E2E2E2E2E2E2E2E2E2E2E2E2E2E2E2E2E2E2E2E2E2E2E2E2E2E2E2E2E2E2E2F5E2E2E2E2E2E2F5F5F5F5E2E2E2E2E2F5E2E2E2E2E2E2
310
E2E2E2E2E2E2E2E2E2E2E2E2E2E2E2E2E2E2E2E2E2E2E2E2E2E2E2E2E2E2E2E2E2E2E2E2E2E2E2E2E2E2E2E2E2E2E2E2E2E2E2E2E2E2E2E2E2E2E2E2E2E2E2E2E2E2E2E2E2E2E2E2E2E2E2E2E2E2E2E2E2E2E2E2E2E2E2E2E2E2E2E2E2E2E2E2E2E2E2E2E2E2E2E2E2E2E2E2E2E2E2E2E2E2E2E2E2E2E2E2E2E2E2E2E2E2E2
310
E2E2E2E2E2E2E2E2E2E2E2E2E2E2E2E2E2E2E2E2E2E2E2E2E2E2E2E2E2E2F5E2E2E2E2E2F5F5F5F5F5E2E2E2E2E2F5E2E2E2E2E2E2E2E2E2E2E2E2E2E2E2E2E2E2E2E2E2E2E2E2E2E2E2E2E2E2E2E2E2E2E2E2E2E2E2E2E2E2E2E2E2E2E2E2E2E2E2E2E2E2E2E2E2E2E2E2E2E2E2E2E2E2E2E2E2E2E2E2E2E2E2E2E2E2E2E2
310
E2E2E2E2E2E2E2E2E2E2E2E2E2E2E2E2E2E2E2E2E2E2E2E2E2E2E2E2E2E2E2E2E2E2E2E2E2E2E2E2E2E2E2E2E2E2E2E2E2E2E2E2E2E2E2E2E2E2E2E2E2E2E2E2E2E2E2E2E2E2E2E2E2E2E2E2E2E2E2E2E2E2E2F5E2E2E2E2E2F5F5F5F5F5E2E2E2E2E2F5E2E2E2E2E2E2E2E2E2E2E2E2E2E2E2E2E2E2E2E2E2E2E2E2E2E2E2
310
E2E2E2E2E2E2E2E2E2E2E2E2E2E2E2E2E2E2E2E2E2E2E2E2E2E2E2E2E2E2E2E2E2E2E2E2E2E2E2E2E2E2E2E2E2E2E2E2E2E2E2E2E2E2E2E2E2E2E2E2E2E2E2E2E2E2E2E2E2E2E2E2E2E2E2E2E2E2E2E2E2E2E2E2E2E2E2E2E2E2E2E2E2E2E2E2E2E2E2E2E2E2E2E2E2E2E2E2E2E2E2E2E2E2E2E2E2E2E2E2E2E2E2E2E2E2E2
310
E2E2E2E2E2E2E2E2E2F5E2E2E2E2E2F5F5F5F5F5E2E2E2E2E2F5E2E2E2E2E2E2E2E2E2E2E2E2E2E2E2E2E2E2E2E2E2E2E2E2E2E2E2E2E2E2E2E2E2E2E2E2E2E2E2E2E2E2E2E2E2E2E2E2E2E2E2E2E2E2E2E2E2E2E2E2E2E2E2E2E2E2E2E2E2E2E2E2E2E2E2E2E2E2E2E2E2E2E2E2E2E2E2E2E2E2E2E2E2E2E2E2E2E2E2E2E2
310
E2E2E2E2E2E2E2E2E2E2E2E2E2E2E2E2E2E2E2E2E2E2E2E2E2E2E2E2E2E2E2E2E2E2E2E2E2E2E2E2E2E2E2E2E2E2E2E2E2E2E2E2E2E2E2E2E2E2E2E2E2E2F5E2E2E2E2E2F5F5F5F5F5E2E2E2E2E2F5E2E2E2E2E2E2E2E2E2E2E2E2E2E2E2E2E2E2E2E2E2E2E2E2E2E2E2E2E2E2E2E2E2E2E2E2E2E2E2E2E2E2E2E2E2E2E2E2
310
E2E2E2E2E2E2E2E2E2E2E2E2E2E2E2E2E2E2E2E2E2E2E2E2E2E2E2E2E2E2E2E2E2E2E2E2E2E2E2E2E2E2E2E2E2E2E2E2E2E2E2E2E2E2E2E2E2E2E2E2E2E2E2E2E2E2E2E2E2E2E2E2E2E2E2E2E2E2E2E2E2E2E2E2E2E2E2E2E2E2E2E2E2E2E2E2E2E2E2E2E2E2E2E2E2E2E2E2E2E2E2E2E2E2E2F5E2E2E2E2E2F5F5F5F5F5E2
310
E2E2E2E2F5E2E2E2E2E2E2E2E2E2E2E2E2E2E2E2E2E2E2E2E2E2E2E2E2E2E2E2E2E2E2E2E2E2E2E2E2E2E2E2E2E2E2E2E2E2E2E2E2E2E2E2E2E2E2E2E2E2E2E2E2E2E2E2E2E2E2E2E2E2E2E2E2E2E2E2E2E2E2E2E2E2E2E2E2E2E2E2E2E2E2E2E2E2E2E2E2E2E2E2E2E2E2E2E2E2E2E2E2E2E2E2E2E2E2E2E2E2E2E2E2E2E2
310
E2E2E2E2E2E2E2E2E2E2E2E2E2E2E2E2E2E2E2E2E2E2E2E2E2E2E2E2E2E2E2E2E2E2E2E2E2E2E2E2E2F5E2E2E2E2E2F5F5F5F5F5E2E2E2E2E2F5E2E2E2E2E2E2E2E2E2E2E2E2E2E2E2E2E2E2E2E2E2E2E2E2E2E2E2E2E2E2E2E2E2E2E2E2E2E2E2E2E2E2E2E2E2E2E2E2E2E2E2E2E2E2E2E2E2E2E2E2E2E2E2E2E2E2E2E2E2
310
E2E2E2E2E2E2E2E2E2E2E2E2E2E2E2E2E2E2E2E2E2E2E2E2E2E2E2E2E2E2E2E2E2E2E2E2E2E2E2E2E2E2E2E2E2E2E2E2E2E2E2E2E2E2E2E2E2E2E2E2E2E2E2E2E2E2E2E2E2E2E2E2E2E2E2E2E2E2E2E2E2E2E2E2E2E2E2E2E2E2E2E2E2E2F5E2E2E2E2E2F5F5F5F5F5E2E2E2E2E2F5E2E2E2E2E2E2E2E2E2E2E2E2E2E2E2E2
310
E2E2E2E2E2E2E2E2E2E2E2E2E2E2E2E2E2E2E2E2E2E2E2E2E2E2E2E2E2E2E2E2E2E2E2E2E2E2E2E2E2E2E2E2E2E2E2E2E2E2E2E2E2E2E2E2E2E2E2E2E2E2E2E2E2E2E2E2E2E2E2E2E2E2E2E2E2E2E2E2E2E2E2E2E2E2E2E2E2E2E2E2E2E2E2E2E2E2E2E2E2E2E2E2E2E2E2E2E2E2E2E2E2E2E2E2E2E2E2E2E2E2E2E2E2E2E2
310
E2E2E2E2E2E2E2E2E2E2E2E2E2E2E2E2E2E2E2E2F5E2E2E2E2E2F5F5F5F5F5E2E2E2E2E2F5E2E2E2E2E2E2E2E2E2E2E2E2E2E2E2E2E2E2E2E2E2E2E2E2E2E2E2E2E2E2E2E2E2E2E2E2E2E2E2E2E2E2E2E2E2E2E2E2E2E2E2E2E2E2E2E2E2E2E2E2E2E2E2E2E2E2E2E2E2E2E2E2E2E2E2E2E2E2E2E2E2E2E2E2E2E2E2E2E2E2
310
E2E2E2E2E2E2E2E2E2E2E2E2E2E2E2E2E2E2E2E2E2E2E2E2E2E2E2E2E2E2E2E2E2E2E2E2E2E2E2E2E2E2E2E2E2E2E2E2E2E2E2E2E2E2E2E2E2E2E2E2E2E2E2E2E2E2E2E2E2E2E2E2E2F5E2E2E2E2E2F5F5F5F5F5E2E2E2E2E2F5E2E2E2E2E2E2E2E2E2E2E2E2E2E2E2E2E2E2E2E2E2E2E2E2E2E2E2E2E2E2E2E2E2E2E2E2E2
310
E2E2E2E2E2E2E2E2E2E2E2E2E2E2E2E2E2E2E2E2E2E2E2E2E2E2E2E2E2E2E2E2E2E2E2E2E2E2E2E2E2E2E2E2E2E2E2E2E2E2E2E2E2E2E2E2E2E2E2E2E2E2E2E2E2E2E2E2E2E2E2E2E2E2E2E2E2E2E2E2E2E2E2E2E2E2E2E2E2E2E2E2E2E2E2E2E2E2E2E2E2E2E2E2E2E2E2E2E2E2E2E2E2E2E2E2E2E2E2E2E2E2E2E2E2E2F5
310
E2E2E2E2E2F5F5F5F5F5E2E2E2E2E2F5E2E2E2E2E2E2E2E2E2E2E2E2E2E2E2E2E2E2E2E2E2E2E2E2E2E2E2E2E2E2E2E2E2E2E2E2E2E2E2E2E2E2E2E2E2E2E2E2E2E2E2E2E2E2E2E2E2E2E2E2E2E2E2E2E2E2E2E2E2E2E2E2E2E2E2E2E2E2E2E2E2E2E2E2E2E2E2E2E2E2E2E2E2E2E2E2E2E2E2E2E2E2E2E2E2E2E2E2E2E2E2
310
E2E2E2E2E2E2E2E2E2E2E2E2E2E2E2E2E2E2E2E2E2E2E2E2E2E2E2E2E2E2E2E2E2E2E2E2E2E2E2E2E2E2E2E2E2E2E2E2E2E2E2E2F5E2E2E2E2E2F5F5F5F5F5E2E2E2E2E2F5E2E2E2E2E2E2E2E2E2E2E2E2E2E2E2E2E2E2E2E2E2E2E2E2E2E2E2E2E2E2E2E2E2E2E2E2E2E2E2E2E2E2E2E2E2E2E2E2E2E2E2E2E2E2E2E2E2E2
310
E2E2E2E2E2E2E2E2E2E2E2E2E2E2E2E2E2E2E2E2E2E2E2E2E2E2E2E2E2E2E2E2E2E2E2E2E2E2E2E2E2E2E2E2E2E2E2E2E2E2E2E2E2E2E2E2E2E2E2E2E2E2E2E2E2E2E2E2E2E2E2E2E2E2E2E2E2E2E2E2E2E2E2E2E2E2E2E2E2E2E2E2E2E2E2E2E2E2E2E2E2E2E2E2E2F5E2E2E2E2E2F5F5F5F5F5E2E2E2E2E2F5E2E2E2E2E2
310
E2E2E2E2E2E2E2E2E2E2E2E2E2E2E2E2E2E2E2E2E2E2E2E2E2E2E2E2E2E2E2E2E2E2E2E2E2E2E2E2E2E2E2E2E2E2E2E2E2E2E2E2E2E2E2E2E2E2E2E2E2E2E2E2E2E2E2E2E2E2E2E2E2E2E2E2E2E2E2E2E2E2E2E2E2E2E2E2E2E2E2E2E2E2E2E2E2E2E2E2E2E2E2E2E2E2E2E2E2E2E2E2E2E2E2E2E2E2E2E2E2E2E2E2E2E2E2
310
E2E2E2E2E2E2E2E2E2E2E2E2E2E2E2E2E2E2E2E2E2E2E2E2E2E2E2E2E2E2E2F5E2E2E2E2E2F5F5F5F5F5E2E2E2E2E2F5E2E2E2E2E2E2E2E2E2E2E2E2E2E2E2E2E2E2E2E2E2E2E2E2E2E2E2E2E2E2E2E2E2E2E2E2E2E2E2E2E2E2E2E2E2E2E2E2E2E2E2E2E2E2E2E2E2E2E2E2E2E2E2E2E2E2E2E2E2E2E2E2E2E2E2E2E2E2E2
310
E2E2E2E2E2E2E2E2E2E2E2E2E2E2E2E2E2E2E2E2E2E2E2E2E2E2E2E2E2E2E2E2E2E2E2E2E2E2E2E2E2E2E2E2E2E2E2E2E2E2E2E2E2E2E2E2E2E2E2E2E2E2E2E2E2E2E2E2E2E2E2E2E2E2E2E2E2E2E2E2E2E2E2E2F5E2E2E2E2E2F5F5F5F5F5E2E2E2E2E2F5E2E2E2E2E2E2E2E2E2E2E2E2E2E2E2E2E2E2E2E2E2E2E2E2E2E2
310
E2E2E2E2E2E2E2E2E2E2E2E2E2E2E2E2E2E2E2E2E2E2E2E2E2E2E2E2E2E2E2E2E2E2E2E2E2E2E2E2E2E2E2E2E2E2E2E2E2E2E2E2E2E2E2E2E2E2E2E2E2E2E2E2E2E2E2E2E2E2E2E2E2E2E2E2E2E2E2E2E2E2E2E2E2E2E2E2E2E2E2E2E2E2E2E2E2E2E2E2E2E2E2E2E2E2E2E2E2E2E2E2E2E2E2E2E2E2E2E2E2E2E2E2E2E2E2
310
E2E2E2E2E2E2E2E2E2E2F5E2E2E2E2E2F5F5F5F5F5E2E2E2E2E2F5E2E2E2E2E2E2E2E2E2E2E2E2E2E2E2E2E2E2E2E2E2E2E2E2E2E2E2E2E2E2E2E2E2E2E2E2E2E2E2E2E2E2E2E2E2E2E2E2E2E2E2E2E2E2E2E2E2E2E2E2E2E2E2E2E2E2E2E2E2E2E2E2E2E2E2E2E2E2E2E2E2E2E2E2E2E2E2E2E2E2E2E2E2E2E2E2E2E2E2E2
310
E2E2E2E2E2E2E2E2E2E2E2E2E2E2E2E2E2E2E2E2E2E2E2E2E2E2E2E2E2E2E2E2E2E2E2E2E2E2E2E2E2E2E2E2E2E2E2E2E2E2E2E2E2E2E2E2E2E2E2E2E2E2E2F5E2E2E2E2E2F5F5F5F5E2E2E2E2E2E2F5E2E2E2E2E2E2E2E2E2E2E2E2E2E2E2E2E2E2E2E2E2E2E2E2E2E2E2E2E2E2E2E2E2E2E2E2E2E2E2E2E2E2E2E2E2E2E2
310
E2E2E2E2E2E2E2E2E2E2E2E2E2E2E2E2E2E2E2E2E2E2E2E2E2E2E2E2E2E2E2E2E2E2E2E2E2E2E2E2E2E2E2E2E2E2E2E2E2E2E2E2E2E2E2E2E2E2E2E2E2E2E2E2E2E2E2E2E2E2E2E2E2E2E2E2E2E2E2E2E2E2E2E2E2E2E2E2E2E2E2E2E2E2E2E2E2E2E2E2E2E2E2E2E2E2E2E2E2E2E2E2E2E2E2E2F5E2E2E2E2E2E2F5F5F5E2
310
E2E2E2E2E2F5E2E2E2E2E2E2E2E2E2E2E2E2E2E2E2E2E2E2E2E2E2E2E2E2E2E2E2E2E2E2E2E2E2E2E2E2E2E2E2E2E2E2E2E2E2E2E2E2E2E2E2E2E2E2E2E2E2E2E2E2E2E2E2E2E2E2E2E2E2E2E2E2E2E2E2E2E2E2E2E2E2E2E2E2E2E2E2E2E2E2E2E2E2E2E2E2E2E2E2E2E2E2E2E2E2E2E2E2E2E2E2E2E2E2E2E2E2E2E2E2E2
310
E2E2E2E2E2E2E2E2E2E2E2E2E2E2E2E2E2E2E2E2E2E2E2E2E2E2E2E2E2E2E2E2E2E2E2E2E2E2E2E2E2E2F5E2E2E2E2E2E2F5F5F5E2E2E2E2E2E2F5E2E2E2E2E2E2E2E2E2E2E2E2E2E2E2E2E2E2E2E2E2E2E2E2E2E2E2E2E2E2E2E2E2E2E2E2E2E2E2E2E2E2E2E2E2E2E2E2E2E2E2E2E2E2E2E2E2E2E2E2E2E2E2E2E2E2E2E2
310
E2E2E2E2E2E2E2E2E2E2E2E2E2E2E2E2E2E2E2E2E2E2E2E2E2E2E2E2E2E2E2E2E2E2E2E2E2E2E2E2E2E2E2E2E2E2E2E2E2E2E2E2E2E2E2E2E2E2E2E2E2E2E2E2E2E2E2E2E2E2E2E2E2E2E2E2E2E2E2E2E2E2E2E2E2E2E2E2E2E2E2E2E2E2E2F5E2E2E2E2E2E2F5F5F5E2E2E2E2E2E2F5E2E2E2E2E2E2E2E2E2E2E2E2E2E2E2
310
E2E2E2E2E2E2E2E2E2E2E2E2E2E2E2E2E2E2E2E2E2E2E2E2E2E2E2E2E2E2E2E2E2E2E2E2E2E2E2E2E2E2E2E2E2E2E2E2E2E2E2E2E2E2E2E2E2E2E2E2E2E2E2E2E2E2E2E2E2E2E2E2E2E2E2E2E2E2E2E2E2E2E2E2E2E2E2E2E2E2E2E2E2E2E2E2E2E2E2E2E2E2E2E2E2E2E2E2E2E2E2E2E2E2E2E2E2E2E2E2E2E2E2E2E2E2E2
310
E2E2E2E2E2E2E2E2E2E2E2E2E2E2E2E2E2E2E2E2E2F5E2E2E2E2E2E2F5F5F5E2E2E2E2E2E2F5E2E2E2E2E2E2E2E2E2E2E2E2E2E2E2E2E2E2E2E2E2E2E2E2E2E2E2E2E2E2E2E2E2E2E2E2E2E2E2E2E2E2E2E2E2E2E2E2E2E2E2E2E2E2E2E2E2E2E2E2E2E2E2E2E2E2E2E2E2E2E2E2E2E2E2E2E2F0E2E2E2E2E2E2E2E2E2E2E2
310
E2E2E2E2E2E2E2E2E2E2E2E2E2E2E2E2E2E2E2E2E2E2E2E2E2E2E2E2E2E2E2E2E2E2E2E2E2E2E2E2E2E2E2E2E2E2E2E2E2F0E2E2E2E2E2E2E2E2E2E2E2E2E2E2E2E2E2E2E2E2E2E2E2E2F5E2E2E2E2E2E2F5F5F5E2E2E2E2E2E2F5E2E2E2E2E2E2E2E2E2E2E2E2E2E2E2E2E2E2E2E2E2E2E2E2E2E2E2E2E2E2E2E2E2E2E2E2
310
E2E2E2E2E2E2E2E2E2E2E2E2E2E2E2E2E2E2E2E2E2E2E2E2E2E2E2E2E2E2E2E2E2E2E2E2E2E2E2E2E2F0F0F0F0F0F0F0F0F0F0F0F0F0F0F0F0F0F0F0F0F0F0F0F0F0F0F0F0F0DCDCDCDCDCF0F0F0F0F0F0F0F0F0F0F0F0F0F0F0F0F0F0F0F0F0F0F0F0F0F0F0F0E2E2E2E2E2E2E2E2E2E2E2E2E2E2E2E2E2E2E2E2E2E2E2E2
310
F5E2E2E2E2E2E2F5F5F5E2E2E2E2E2E2F5E2E2E2E2E2E2E2E2E2E2E2E2E2E2E2E2E2E2E2E2E2E2E2E2E2E2E2E2E2E2E2E2E2E2E2E2E2E2E2E2E2E2E2E2E2E2E2E2E2E2E2E2E2E2E2E2E2E2E2E2E2E2E2E2E2E2E2E2E2E2E2E2E2E2E2E2E2F0E2E2E2E2E2E2E2E2E2E2E2E2E2E2E2E2E2E2E2E2E2E2E2E2E2E2E2DCE2DCDCDC
310
DCE2E2E2E2E2E2E2E2E2E2E2E2E2E2E2E2E2E2E2E2E2E2E2E2E2E2E2F0E2E2E2E2E2E2E2E2E2E2E2E2E2E2E2E2E2E2E2E2E2E2E2E2F5E2E2E2E2E2E2F5F5F5E2E2E2E2E2E2F5E2E2E2E2E2E2E2E2E2E2E2E2E2E2E2E2E2E2E2F0E2E2E2E2E2E2E2E2E2E2E2E2E2E2E2E2E2E2E2E2E2E2E2E2F0E2E2E2E2E2E2E2E2E2E2E2E2
310
E2E2E2E2E2E2E2E2E2E2E2E2E2E2E2E2E2E2E2E2F0E2E2F0E2E2E2E2E2E2E2E2E2E2E2E2E2E2E2E2E2E2E2E2E2E2E2E2DCDCDCDCDCDCE2E2E2E2E2E2E2F0E2E2E2E2E2E2E2E2E2E2E2E2E2E2F0E2E2E2E2F0E2E2E2E2E2E2E2E2E2E2E2E2E2E2E2E2E2E2E2E2E2E2E2E2F5E2E2E2E2E2E2F5F5F5E2E2E2E2E2E2F5E2E2E2E2
310
E2E2E2E2E2E2E2E2E2E2E2E2E2E2E2F0F0F0F0F0F0F0F0F0F0F0DCDCDCDCF0F0F0F0F0F0F0F0F0F0F0E2E2E2E2E2E2E2E2E2E2E2E2E2E2E2E2E2E2E2E2E2E2E2E2E2E2E2E2E2E2E2E2F0DCDCF0F0F0F0F0F0F0F0F0F0F0F0F0F0F0F0F0F0DCDCDCF0F0F0F0F0F0F0F0F0F0F0F0F0F0F0F0F0F0F0F0F0F0F0DCDCDCF0F0F0F0
310
F0F0F0E2E2E2E2F0E2E2E2E2E2E2E2E2E2E2E2E2E2E2E2E2E2E2E2E2E2E2E2E2F5E2E2E2E2E2E2F5F5F5F5E2E2E2E2E2F5E2E2E2E2E2E2E2E2E2E2E2E2E2E2E2E2E2E2E2F0E2E2E2E2E2E2E2E2E2E2DCDCDCDCE2E2E2E2E2E2E2E2E2E2F0E2E2E2E2E2E2E2E2E2E2E2E2E2E2E2E2E2E2E2E2E2E2E2E2E2E2E2E2E2E2E2E2F0
310
DCDCF0E2E2E2E2E2E2E2E2E2E2E2E2E2E2E2E2E2DCDCDCDCE2E2E2E2E2E2E2E2E2E2E2E2E2E2E2E2F0E2E2E2E2E2DCDCDCDCE2E2E2E2E2F0E2E2E2E2F0E2E2E2E2E2E2E2E2E2E2E2E2E2E2E2E2E2E2E2E2E2E2E2E2F5E2E2E2E2E2F5F5F5F5F5E2E2E2E2E2F5E2E2E2E2E2E2E2E2E2E2E2E2E2E2E2E2E2E2E2F0E2E2E2E2E2
310
E2E2E2E2E2DCDCDCDCE2E2E2E2E2E2E2E2E2E2F0E2E2E2E2E2E2E2E2E2E2E2E2E2E2E2E2E2E2E2E2E2E2E2E2E2E2E2E2E2E2E2E2F0DCDCF0E2E2E2E2E2E2E2E2E2E2E2E2E2E2E2E2E2DCDCDCDCE2E2E2E2E2E2E2E2E2E2E2E2E2E2E2E2F0E2E2E2E2E2DCDCDCDCE2E2E2E2E2F0E2E2E2E2F0E2E2E2E2E2E2E2E2E2E2E2E2E2
310
E2E2E2E2E2E2E2E2E2E2E2F5E2E2E2E2E2F5F5F5F5F5E2E2E2E2E2F5E2E2E2E2E2E2E2E2E2E2E2E2E2E2E2E2E2E2E2F0E2E2E2E2E2E2E2E2E2E2E2E2E2E2E2E2E2E2E2E2E2E2E2E2F0E2E2E2E2E2E2E2E2E2E2E2E2E2E2E2E2E2E2E2E2E2E2E2E2E2E2E2E2E2E2E2E2F0E2E2F0E2E2E2E2E2E2E2E2E2E2E2E2E2E2E2E2E2E2
310
E2E2E2E2E2E2E2E2E2E2E2E2E2E2E2E2E2E2E2F0E2E2E2E2E2E2E2E2E2E2E2E2E2E2F0E2E2E2E2F0E2E2E2E2E2E2E2E2E2E2E2E2E2E2E2E2E2E2E2E2E2E2E2E2F5E2E2E2E2E2F5F5F5F5F5E2E2E2E2E2F5E2E2E2E2E2E2E2E2E2E2E2E2E2E2E2E2E2E2E2F0E2E2E2E2E2E2E2E2E2E2E2E2E2E2E2E2E2E2E2E2E2E2E2E2F0E2
310
E2E2E2E2E2E2E2E2E2E2E2E2E2E2E2E2E2E2E2E2E2E2E2E2E2E2E2E2E2E2E2F0E2E2F0E2E2E2E2E2E2E2E2E2E2E2E2E2E2E2E2E2E2E2E2E2E2E2E2E2E2E2E2E2E2E2E2E2E2E2E2E2F0E2E2E2E2E2E2E2E2E2E2E2E2E2E2F0E2E2E2E2F0E2E2E2E2E2E2E2E2E2E2E2E2E2E2E2E2E2E2E2E2E2E2E2E2F5E2E2E2E2E2F5F5F5F5
310
F5E2E2E2E2E2F5E2E2E2E2E2E2E2E2E2E2E2E2E2E2E2E2E2E2E2F0E2E2E2E2E2E2E2E2E2E2E2E2E2E2E2E2E2E2E2E2E2E2E2E2F0E2E2E2E2E2E2E2E2E2E2E2E2E2E2E2E2E2E2E2E2E2E2E2E2E2E2E2E2E2E2E2E2F0E2E2F0E2E2E2E2E2E2E2E2E2E2E2E2E2E2E2E2E2E2E2E2E2E2E2E2E2E2E2E2E2E2E2E2E2E2E2E2E2F0E2
310
E2E2E2E2E2E2E2E2E2E2E2E2E2F0E2E2E2E2F0E2E2E2E2E2E2E2E2E2E2E2E2E2E2E2E2E2E2E2E2E2E2E2E2F5E2E2E2E2E2F5F5F5F5F5E2E2E2E2E2F5E2E2E2E2E2E2E2E2E2E2E2E2E2E2E2F5F5F5F5F5F5F5F5E2E2E2E2E2E2E2E2E2E2E2E2E2E2E2E2E2E2F5F5F5F5F5F5F5E2E2E2E2E2E2E2E2E2E2E2E2E2E2E2E2E2E2E2
310
F0F0F0F0F0F0F0F0F0F0F5F5F5F5F5F5F5F5E2E2E2E2E2E2E2E2E2E2E2E2E2E2E2E2E2E2E2E2E2E2E2E2E2E2E2E2E2F5F5F5F5F5F5F5F5F0F0F0F0F0F0F0F0F0F0F5F5F5F5F0F0F0F0F0F0F0F0F0F0E2E2E2E2E2E2E2E2E2E2E2E2E2E2E2E2E2F5E2E2E2E2E2F5F5F5F5F5E2E2E2E2E2F5E2E2E2E2E2E2E2E2E2E2E2E2E2E2
310
E2F5F5F5F5F5F5F5F5F5F5F5F5F5F5F5F5F5F5F5F5F5F5F5F5F5F5F5F5F5F5F5F5F5E2E2E2E2E2E2E2E2E2E2E2E2E2E2E2E2E2E2E2E2F0E2E2E2E2E2E2E2E2F5F5F5F5F5F5F5F5F5F5F5F5F5F5F5F5F5F5F5F5F5F5F5F5F5F5F5F5F5F5F5F5F5F5F5F5F5F5F5F5F5F5F5F5F5E2E2E2E2E2E2E2E2E2E2F5F5F5F5E2E2F0E2E2
310
E2E2E2F0E2E2E2E2E2E2E2E2E2E2E2E2E2E2E2E2E2E2F5E2E2E2E2E2F5F5F5F5F5E2E2E2E2E2F5E2E2E2E2E2E2E2E2E2E2E2E2E2E2E2E2F5F5F5F5F5F5F5F5F5F5F5F5F5F5F5F5F5F5F5F5F5F5F5F5F5F5F5F5F5F5F5E2E2E2E2E2E2E2E2E2E2E2E2E2E2E2E2E2E2E2DCDCDCE2E2E2E2E2E2E2E2F0F5F5F5F5F5F5F5F5F5F5
310
F5F5F5F5F5F5F5F5F5F5F5F5F5F5F5F5F5F5F5F5F5F5F5F5F5F5F5F5F5F5F5F5F5F5F5F5F5F5F5F5F5F5F5F5F5F5F5F5E2E2F0E2E2E2E2E2F0E2E2E2E2E2E2E2E2E2E2E2E2E2E2E2E2E2E2F5E2E2E2E2E2F5F5F5F5F5E2E2E2E2E2F5E2E2E2E2E2E2E2E2E2E2E2E2E2E2E2E2E2F5F5F5F5F5F5F5F5F5F5F5F5F5F5F5F5F5F5
310
F5F5F5F5F5F5F5F5F5F5F5F5E2E2E2E2E2E2E2E2E2E2E2E2E2E2E2E2E2E2E2DCDCDCE2E2E2E2E2E2E2E2F0E2F5F5F5F5F5F5F5F5F5F5F5F5F5F5F5F5F5F5F5F5F5F5F5F5F5F5F5F5F5F5F5F5F5F5F5F5F5F5F5F5F5F5F5F5E2F5F5E2E2E2E2E2E2E2E2E2F5E2E2F0E2E2E2E2E2F0E2E2E2E2E2E2E2E2E2E2E2E2E2E2E2E2E2
310
E2F5E2E2E2E2E2F5F5F5F5F5E2E2E2E2E2F5E2E2E2E2E2E2E2E2E2E2E2E2E2E2E2E2E2F5E2E2E2E2E2E2E2E2E2E2E2E2E2E2E2E2E2E2E2E2E2E2E2E2E2E2E2E2F5E2E2E2E2E2E2E2E2E2E2E2E2E2E2E2E2E2E2E2DCDCDCE2E2E2E2E2E2E2E2F0E2F5E2E2E2E2E2E2E2E2E2E2E2E2E2E2E2E2E2E2E2E2E2E2E2E2E2E2E2E2E2
310
E2E2E2E2E2E2E2E2E2E2E2F5F5F5F5F5E2F5F5F5F5E2E2E2E2E2F5E2E2F0E2E2E2E2E2F0E2E2E2E2E2E2E2E2E2E2E2E2E2E2E2E2E2E2F5E2E2E2E2E2F5F5F5F5F5E2E2E2E2E2F5E2E2E2E2E2E2E2E2E2E2E2E2E2E2E2F5F5F5F5F5F5F5F5F5F5F5F5F5F5F5F5F5F5F5F5F5F5F5F5F5F5F5F5F5F5F5F5F5F5E2E2E2E2E2E2E2
310
E2E2E2E2E2E2E2E2E2E2E2DCF0E2F0F0F0F0F0F0F0F0F5F5F5F5F5F5F5F5F5F5F5F5F5F5F5F5F5F5F5F5F5F5F5F5F5F5F5F5F5F5F5F5F5F5F5F5F5F5F5F5F5F5F5F5E2E2E2E2E2E2E2F5F5F5F5F5F5F5E2E2F0E2E2E2E2E2F0E2E2E2E2E2E2E2E2E2E2E2E2E2E2E2E2E2E2F5E2E2E2E2E2F5F5F5F5F5E2E2E2E2E2F5E2E2E2
310
E2E2E2E2E2E2E2E2E2E2E2E2F5E2E2E2E2E2E2E2E2E2E2E2E2E2E2E2E2E2E2E2E2E2E2E2E2E2E2E2E2E2E2E2E2F5E2E2E2E2E2E2E2E2E2E2E2E2E2E2E2E2E2DCDCF0E2E2F0E2E2E2E2E2F5E2E2E2E2E2E2E2E2E2E2E2E2E2E2E2E2E2E2E2E2E2E2E2E2E2E2E2E2E2E2E2E2E2E2E2E2E2E2E2E2E2E2E2F5E2E2E2E2E2E2E2E2
310
F5E2E2E2E2F5E2E2F0E2E2E2E2E2F0E2E2E2E2E2E2E2E2E2E2E2E2E2E2E2E2E2E2F5E2E2E2E2E2F5F5F5F5F5E2E2E2E2E2F5E2E2E2E2E2E2E2E2E2E2E2E2E2E2E2F5E2E2E2E2E2E2E2E2E2E2E2E2E2E2E2E2E2E2E2E2E2E2E2E2E2E2E2E2E2E2E2E2F5E2E2E2E2E2E2E2E2E2E2E2E2E2E2E2E2E2DCDCDCDCE2DCE2E2E2E2E2
310
F5E2E2E2E2E2E2E2E2E2E2E2E2E2E2E2E2E2E2E2E2E2E2E2E2E2E2E2E2E2E2E2E2E2E2E2E2E2E2E2E2E2E2E2F5E2E2E2E2E2E2E2E2F5E2E2E2E2F5E2E2F0E2E2E2E2E2F0E2E2E2E2E2E2E2E2E2E2E2E2E2E2E2E2E2E2F5E2E2E2E2E2F5F5F5F5F5E2E2E2E2E2F5E2E2E2E2E2E2E2E2E2E2E2E2E2E2E2F5E2E2E2E2E2E2E2E2
310
E2E2E2E2E2E2E2E2E2E2E2E2E2E2E2E2E2E2E2E2E2E2E2E2F5E2E2E2E2E2E2E2E2E2E2E2E2E2E2E2E2E2DCDCDCDCDCDCE2E2E2E2E2F5E2E2E2E2E2E2E2E2E2E2E2E2E2E2E2E2E2E2E2E2E2E2E2E2E2E2E2E2E2E2E2E2E2E2E2E2E2E2E2E2E2E2E2F5E2E2E2E2E2E2E2E2F5F5F5F5F5F5E2E2F0E2E2E2E2E2F0E2E2E2E2E2E2
310
E2E2E2E2E2E2E2E2E2E2E2E2F5E2E2E2E2E2F5F5F5F5F5E2E2E2E2E2F5E2E2E2E2E2E2E2E2E2E2E2E2E2E2E2F5E2E2E2E2E2E2E2E2E2E2E2E2E2E2E2E2E2E2E2E2E2E2E2E2E2E2E2E2E2E2E2E2F5E2E2E2E2E2E2E2E2E2E2E2E2E2E2E2E2E2DCDCDCDCDCDCE2E2E2E2E2F5E2E2E2E2E2E2E2E2E2E2E2E2E2E2E2E2E2E2E2E2
310
E2E2E2E2E2E2E2E2E2E2E2E2E2E2E2E2E2E2E2E2E2E2E2F5E2E2E2E2E2E2E2E2E2F5E2E2F5E2E2E2F0E2E2E2E2E2F0E2E2E2E2E2E2E2E2E2E2E2E2E2E2E2E2E2E2F5E2E2E2E2E2F5F5F5F5F5E2E2E2E2E2F5E2E2E2E2E2E2E2E2E2E2E2E2E2E2E2F0E2E2E2E2E2E2E2E2E2E2E2E2E2E2E2E2E2E2E2E2E2E2E2E2E2E2E2E2E2
310
E2E2E2F0E2E2E2E2E2E2E2E2E2E2E2E2E2E2E2E2E2E2E2F0E2E2F0E2E2E2E2E2F0E2E2E2E2E2E2E2E2E2E2E2E2E2E2E2E2E2E2E2E2E2E2E2E2E2E2E2E2E2E2E2E2E2E2E2E2E2E2E2E2E2E2E2F0E2E2E2E2E2E2E2E2E2F5E2E2F5E2E2E2F0E2E2E2E2E2F0E2E2E2E2E2E2E2E2E2E2E2E2E2E2E2E2E2E2F5E2E2E2E2E2F5F5F5
310
F5E2E2E2E2E2E2F5E2E2E2E2E2E2E2E2E2E2E2E2E2E2E2F0F5F5F5F5F5F5F5F5F5F5F5F5F5F5F5F5F5F5F5F5F5F5F5F5F5F5F5F5F5F5F5F5F0E2E2E2E2E2E2E2E2E2E2E2E2E2E2E2E2E2E2F0F0F0F0F0F0F0F0F0F0F0F0F5F5F5F5F5F5F5F5F5F5F5F5F5F5F5F5F5F5F5F5F5F5F5F5F5F5F5F5F5F5F5F5F5F5F5F5F5F5F5F5
310
F5F5F0E2E2E2E2E2E2E2E2E2F5E2E2F5E2E2E2F0E2E2E2E2E2F0E2E2E2E2E2E2E2E2E2E2E2E2E2E2E2E2E2E2F5E2E2E2E2E2E2F5F5F5E2E2E2E2E2E2F5E2E2E2E2E2E2E2E2E2E2E2E2E2E2E2F0E2E2E2E2E2E2E2E2E2E2E2E2E2F5E2E2E2F5E2E2E2E2E2E2E2E2E2E2E2E2E2E2F0E2E2E2E2E2E2E2E2E2E2E2E2E2E2E2E2E2
310
E2E2E2E2E2E2E2E2E2E2E2F0E2E2E2E2E2E2E2E2E2E2E2E2E2E2E2E2E2E2E2E2E2E2E2E2E2E2E2E2E2E2E2E2E2E2E2E2E2E2E2E2E2E2E2F0E2E2E2E2E2E2E2E2E2F5E2E2F5E2E2E2F0E2E2E2E2E2F0E2E2E2E2E2E2E2E2E2E2E2E2E2E2E2E2E2E2F5E2E2E2E2E2E2F5F5F5E2E2E2E2E2E2F5E2E2E2E2E2E2E2E2E2E2E2E2E2
310
E2E2F0E2E2E2E2E2E2E2E2E2E2E2E2E2F5E2E2E2F5E2E2E2E2E2E2E2E2E2E2E2E2E2E2F0E2E2E2E2E2E2E2E2E2E2E2E2E2E2E2E2E2E2E2E2E2E2E2E2E2E2E2E2F0E2E2E2E2E2E2E2E2E2E2E2E2E2E2E2E2E2E2E2E2E2E2E2E2E2E2E2E2E2E2E2E2E2E2E2E2E2E2E2E2E2E2E2F0E2E2E2E2E2E2E2E2E2F5E2E2F5E2E2E2F0E2
310
E2E2E2E2F0E2E2E2E2E2E2E2E2E2E2E2E2E2E2E2E2E2E2F5E2E2E2E2E2E2F5F5F5E2E2E2E2E2E2F5E2E2E2E2E2E2E2E2E2E2E2E2E2E2E2F0E2E2E2E2E2E2E2E2E2E2E2E2E2F5E2E2E2F5E2E2E2E2E2E2E2E2E2E2E2E2E2E2F0E2E2E2E2E2E2E2E2E2E2E2E2E2E2E2E2E2E2E2E2E2E2E2E2E2E2E2E2F0E2E2E2E2E2E2E2E2E2
310
E2E2E2E2E2E2E2E2E2E2E2E2E2E2E2E2E2E2E2E2E2E2E2E2E2E2E2E2E2E2E2E2E2E2F0E2E2E2E2E2E2E2E2E2F5E2E2F5E2E2E2F0E2E2E2E2E2F0E2E2E2E2E2E2E2E2E2E2E2E2E2E2E2E2E2E2F5E2E2E2E2E2E2F5F5F5E2E2E2E2E2E2F5E2E2E2E2E2E2E2E2E2E2E2E2E2E2E2F0E2E2E2E2E2E2E2E2E2E2E2E2E2F5E2E2E2F5
310
E2E2E2E2E2E2E2E2E2E2E2E2E2E2F0E2E2E2E2E2E2E2E2E2E2E2E2E2E2E2E2E2E2E2E2E2E2E2E2E2E2E2E2F0E2E2E2E2E2E2E2E2E2E2E2E2E2E2E2E2E2E2E2E2E2E2E2E2E2E2E2E2E2E2E2E2E2E2E2E2E2E2E2E2E2E2E2F0E2E2E2E2E2E2E2E2E2F5E2E2F5E2E2E2F0E2E2E2E2E2F0E2E2E2E2E2E2E2E2E2E2E2E2E2E2E2E2
310
E2E2F5E2E2E2E2E2E2F5F5F5E2E2E2E2E2E2F5E2E2E2E2E2E2E2E2E2E2E2E2E2E2E2F0E2E2E2E2E2E2E2E2E2E2E2E2E2F5E2E2E2F5E2E2E2E2E2E2E2E2E2E2E2E2E2E2F0E2E2E2E2E2E2E2E2E2E2E2E2E2E2E2E2E2E2E2E2E2E2E2E2E2E2E2E2F0E2E2E2E2E2E2E2E2E2E2E2E2E2E2E2E2E2E2E2E2E2E2E2E2E2E2E2E2E2E2
310
E2E2E2E2E2E2E2E2E2E2E2E2E2F0E2E2E2E2E2E2E2E2E2F5E2E2F5E2E2E2F0E2E2E2E2E2F0E2E2E2E2E2E2E2E2E2E2E2E2E2E2E2E2E2E2F5E2E2E2E2E2E2F5F5F5E2E2E2E2E2E2F5E2E2E2E2E2E2E2E2E2E2E2E2E2E2E2F0F0F0F0F0F0F0F0F0F0F0F0F0F0F0DCDCDCDCF0F0F0F0F0F0F0F0F0F0F0F0F0F0F0E2E2E2E2E2E2
310
E2E2E2E2E2E2E2E2E2E2E2E2E2E2E2E2E2E2E2E2E2E2F0F0F0F0F0F0F0F0F0F0F0F0F0F0F0F0F0F0F0F0F0DCDCDCDCF0F0F0F0F0F0F0F0F0F0F0F0F0F0F0F0F0F0F0F0E2E2E2E2E2E2E2E2E2F5E2E2F5E2E2E2F0E2E2E2E2E2F0E2E2E2E2E2E2E2E2E2E2E2E2E2E2E2E2E2E2F5E2E2E2E2E2E2F5F5F5E2E2E2E2E2E2F5E2E2
310
E2E2E2E2E2E2E2E2E2E2E2E2E2F0E2E2E2E2E2E2E2E2E2E2E2E2E2F5DCDCDCDCE2E2E2E2E2E2E2E2E2E2E2E2E2E2F0E2E2E2E2E2E2E2E2E2E2E2E2E2E2E2E2E2E2E2E2E2E2E2E2E2E2E2E2F0E2E2E2E2E2E2E2E2E2E2E2E2E2E2E2E2E2E2E2E2DCDCDCDCE2E2E2E2E2E2E2E2E2E2E2E2E2E2E2E2E2E2E2F0E2E2E2E2E2E2E2
310
E2E2F5E2E2F5E2E2E2F0E2E2E2E2E2F0E2E2E2E2E2E2E2E2E2E2E2E2E2E2E2E2E2E2F5E2E2E2E2E2E2F5F5F5E2E2E2E2E2E2F5E2E2E2E2E2E2E2E2E2E2E2E2E2E2E2E2E2E2E2E2E2E2E2E2E2E2E2E2E2F5DCDCDCF5E2E2E2E2E2E2E2E2E2E2E2E2E2E2E2E2E2E2E2E2E2E2E2E2E2E2E2E2E2E2E2E2E2E2E2E2E2E2E2E2E2E2
310
E2E2E2E2E2E2E2E2E2E2E2E2E2E2E2E2E2E2E2E2E2E2DCDCDCE2E2E2E2E2E2E2E2E2E2E2E2E2E2E2E2E2E2E2E2E2E2E2E2E2E2E2E2E2E2F5E2E2F5E2E2E2F0E2E2E2E2E2F0E2E2E2E2E2E2E2E2E2E2E2E2E2E2E2E2E2E2F5E2E2E2E2E2E2F5F5F5F5E2E2E2E2E2F5E2E2E2E2E2E2E2E2E2E2E2E2E2E2E2E2E2E2E2E2E2E2E2
310
E2E2E2E2E2E2F5E2E2E2F5E2E2E2E2E2E2E2E2E2E2E2E2E2E2E2E2E2E2E2E2E2E2E2E2E2E2E2E2E2E2E2E2E2E2E2E2E2E2E2E2E2E2E2E2E2E2E2E2E2E2E2E2E2E2E2E2E2E2E2E2E2E2E2E2E2E2E2E2E2E2E2E2E2E2E2E2E2E2E2E2E2E2E2E2E2E2E2E2E2E2E2E2E2E2E2E2E2F5E2E2F5E2E2E2F0E2E2E2E2E2F0E2E2E2E2E2
310
E2E2E2E2E2E2E2E2E2E2E2E2E2F5E2E2E2E2E2F5F5F5F5F5E2E2E2E2E2F5E2E2E2E2E2E2E2E2E2E2E2E2E2E2E2E2E2E2E2E2E2E2E2E2E2E2E2E2E2F5E2E2E2F5E2E2E2E2E2E2E2E2E2E2E2E2E2E2E2E2E2E2E2E2E2E2E2E2E2E2E2E2E2E2E2E2E2E2E2E2E2E2E2E2E2E2E2E2E2E2E2E2E2E2E2E2E2E2E2E2E2E2E2E2E2E2E2
310
E2E2E2E2E2E2E2E2E2E2E2E2E2E2E2E2E2E2E2E2E2E2E2E2E2E2E2E2E2E2E2E2E2E2F5E2E2F5E2E2E2F0E2E2E2E2E2F0E2E2E2E2E2E2E2E2E2E2E2E2E2E2E2E2E2E2F5E2E2E2E2E2F5F5F5F5F5E2E2E2E2E2F5E2E2E2E2E2E2E2E2E2E2E2E2E2E2E2E2E2E2E2E2E2E2E2E2E2E2E2E2E2F5E2E2E2F5E2E2E2E2E2E2E2E2E2E2
310
E2E2E2E2E2E2E2E2E2E2E2E2E2E2E2E2E2E2E2E2E2E2E2E2E2E2E2E2E2E2E2E2E2E2E2E2E2E2E2E2E2E2E2E2E2E2E2E2E2E2E2E2E2E2E2E2E2E2E2E2E2E2E2E2E2E2E2E2E2E2E2E2E2E2E2E2E2E2E2E2E2E2E2E2E2E2E2F5F5F5F5E2E2E2F0E2E2E2DCDCDCE2E2E2E2E2E2E2E2E2E2E2E2E2E2E2E2E2E2F5E2E2E2E2E2F5F5
310
F5F5F5E2E2E2E2E2F5E2E2E2E2E2E2E2E2E2E2E2E2E2E2E2E2E2E2E2E2E2E2E2E2E2E2E2E2E2F5E2E2E2F5E2E2E2E2E2E2E2E2E2E2E2E2E2E2E2E2E2E2E2E2E2E2E2E2E2E2E2E2E2E2E2E2E2E2E2E2E2E2E2E2E2E2E2E2E2E2E2E2E2E2E2E2E2E2E2E2E2E2E2E2E2E2E2E2E2E2E2E2E2E2E2E2E2E2E2E2E2E2E2E2E2E2E2E2
310
E2E2E2E2E2E2E2E2E2E2E2E2E2F5F5E2F5E2E2E2F0E2E2E2DCDCDCE2E2E2E2E2E2E2E2E2E2E2E2E2E2E2E2E2E2F5E2E2E2E2E2F5F5F5F5F5E2E2E2E2E2F5E2E2E2E2E2E2E2E2E2E2E2E2E2E2E2E2E2E2E2E2E2E2E2E2E2E2E2E2E2F5E2E2E2F5E2E2E2E2E2E2E2E2E2E2E2E2E2E2E2E2E2E2E2E2E2E2E2E2E2E2E2E2E2E2E2
310
E2E2E2E2E2E2E2E2E2E2E2E2E2E2E2E2E2E2E2E2E2E2E2E2E2E2E2E2E2E2E2E2E2E2E2E2E2E2E2E2E2E2E2E2E2E2E2E2E2E2E2E2E2E2E2E2E2E2E2E2E2E2E2E2E2E2F5E2E2F5E2E2E2F0E2E2E2DCDCDCE2E2E2E2E2E2E2E2E2E2E2E2E2E2E2E2E2E2F5E2E2E2E2E2F5F5F5F5F5E2E2E2E2E2F5E2E2E2E2E2E2E2E2E2E2E2E2
310
E2E2E2E2E2E2E2E2E2E2E2E2E2E2E2E2E2F5E2E2F5F5E2E2E2E2E2E2E2E2E2E2E2E2E2E2E2E2E2E2E2E2E2E2E2E2E2E2E2E2E2E2E2E2E2E2E2E2E2E2E2E2E2E2E2E2E2E2E2E2E2E2E2E2E2E2E2E2E2E2E2E2E2E2E2E2E2E2E2E2E2E2E2E2E2E2E2E2E2E2E2E2E2E2E2E2E2E2E2E2E2E2E2E2E2E2E2E2E2F5E2E2F5E2E2E2F0
310
E2E2E2DCDCDCE2E2E2E2E2E2E2E2E2E2E2E2E2E2E2E2E2E2F5E2E2E2E2E2F5F5F5F5F5E2E2E2E2E2F5E2E2E2E2E2E2E2E2E2E2E2E2E2E2E2E2E2E2E2E2E2E2E2E2E2E2E2E2E2F5F5F5F5F5E2E2E2E2E2E2E2E2E2E2E2E2E2E2E2E2E2E2E2E2E2E2E2E2E2E2E2E2E2E2E2E2E2E2E2E2E2E2E2E2E2E2E2E2E2E2E2E2E2E2E2E2
310
E2E2E2E2E2E2E2E2E2E2E2E2E2E2E2E2E2E2E2E2E2E2E2E2E2E2E2E2E2E2E2E2E2E2E2E2E2E2E2E2E2E2E2E2E2F5E2E2F5E2E2E2F0E2E2E2DCDCDCE2E2E2E2E2E2E2E2E2E2E2E2E2E2E2E2E2E2F5E2E2E2E2E2F5F5F5F5F5E2E2E2E2E2F5E2E2E2E2E2E2E2E2E2E2E2E2E2E2E2E2E2E2E2E2E2E2E2E2E2E2E2E2E2F5E2E2E2
310
F5E2E2E2E2E2E2E2E2E2E2E2E2E2E2E2E2E2E2E2E2E2E2E2E2E2E2E2E2E2E2E2E2E2E2E2E2E2E2E2E2E2E2E2E2E2E2E2E2E2E2E2E2E2E2E2E2E2E2E2E2E2E2E2E2E2E2E2E2E2E2E2E2E2E2E2E2E2E2E2E2E2E2E2E2E2E2E2E2E2E2E2E2E2E2E2E2E2F5E2E2F5E2E2E2F0E2E2E2E2E2F0E2E2E2E2E2E2E2E2E2E2E2E2E2E2E2
310
E2E2E2F5E2E2E2E2E2F5F5F5F5F5E2E2E2E2E2F5E2E2E2E2E2E2E2E2E2E2E2E2E2E2E2E2E2E2E2E2E2E2E2E2E2E2E2E2E2F5E2E2E2F5E2E2E2E2E2E2E2E2E2E2E2E2E2E2E2E2E2E2E2E2E2E2E2E2E2E2E2E2E2E2E2E2E2E2E2E2E2E2E2E2E2E2E2E2E2E2E2E2E2E2E2E2E2E2E2E2E2E2E2E2E2E2E2E2E2E2E2E2E2E2E2E2E2
310
E2E2E2E2E2E2E2E2E2E2E2E2E2E2E2E2E2E2E2E2E2E2E2E2F5E2E2F5E2E2E2F0E2E2E2E2E2F0E2E2E2E2E2E2E2E2E2E2E2E2E2E2E2E2E2E2F5E2E2E2E2E2F5F5F5F5F5E2E2E2E2E2F5E2E2E2E2E2E2E2E2E2E2E2E2E2E2E2E2E2E2E2E2E2E2E2E2E2E2E2E2F5F5E2E2E2F5F5F5E2E2E2E2E2E2E2E2E2E2E2E2E2E2E2E2E2E2
310
E2E2E2E2E2E2E2E2E2E2E2E2E2E2E2E2E2E2E2E2E2E2E2E2E2E2E2E2E2E2E2E2E2E2E2E2E2E2E2E2E2E2E2E2E2E2E2E2E2E2E2E2E2E2E2E2E2E2E2E2E2E2E2E2E2E2E2E2E2E2E2E2E2E2E2E2E2F5E2E2F5E2E2E2F0E2E2E2E2E2F0E2E2E2E2E2E2E2E2E2E2E2E2E2E2E2E2E2E2F5E2E2E2E2E2F5F5F5F5F5E2E2E2E2E2F5E2
310
E2E2E2E2E2E2E2E2E2E2E2E2E2E2E2E2E2E2E2E2E2E2E2E2E2E2E2F5F5E2E2E2F5E2F5E2E2E2E2E2E2E2E2E2E2E2E2E2E2E2E2E2E2E2E2E2E2E2E2E2E2E2E2E2E2E2E2E2E2E2E2E2E2E2E2E2E2E2E2E2E2E2E2E2E2E2E2E2E2E2E2E2E2E2E2E2E2E2E2E2E2E2E2E2E2E2E2E2E2E2E2E2E2E2E2E2E2E2E2E2E2E2E2E2E2E2E2
310
E2E2E2F5E2E2F5E2E2E2F0E2E2E2E2E2F0E2E2E2E2E2E2E2E2E2E2E2E2E2E2E2E2E2E2F5E2E2E2E2E2F5F5F5F5F5E2E2E2E2E2F5E2E2E2E2E2E2E2E2E2E2E2E2E2E2E2E2E2E2E2E2E2E2E2E2E2E2E2E2F5F5E2E2E2F5E2F5E2E2E2E2E2E2E2E2E2E2E2E2E2E2E2E2E2E2E2E2E2E2E2E2E2E2E2E2E2E2E2E2E2E2E2E2E2E2E2
310
E2E2E2E2E2E2E2E2E2E2E2E2E2E2E2E2E2E2E2E2E2E2E2E2E2E2E2E2E2E2E2E2E2E2E2E2E2E2E2E2E2E2E2E2E2E2E2E2E2E2E2E2E2E2E2E2F5F5F5F5F5E2E2F0E2E2E2E2E2F0E2E2E2E2E2E2E2E2E2E2E2E2E2E2E2E2E2E2F5E2E2E2E2E2F5F5F5F5F5E2E2E2E2E2F5E2E2E2E2E2E2E2E2E2E2E2E2E2E2E2E2E2E2E2E2E2E2
310
E2E2E2E2E2E2F5F5F5F5F5F5E2F5E2E2E2E2E2E2E2E2E2E2E2E2E2E2E2E2E2E2E2E2E2E2E2E2E2E2E2E2E2E2E2E2E2E2E2E2E2E2E2E2E2E2E2E2E2E2E2E2E2E2E2E2E2E2E2E2E2E2E2E2E2E2E2E2E2E2E2E2E2E2E2E2E2E2E2E2E2E2E2E2E2E2E2E2E2E2E2E2E2E2E2E2E2E2F5F5E2E2F5F5E2E2F0E2E2E2E2E2F0E2E2E2E2
310
E2E2E2E2E2E2E2E2E2E2E2E2E2E2F5E2E2E2E2E2F5F5F5F5F5E2E2E2E2E2F5E2E2E2E2E2E2E2E2E2E2E2E2E2E2E2E2E2E2E2E2E2E2E2E2E2E2E2E2F5F5E2F5F5F5F5F5E2E2E2E2E2E2E2E2E2E2E2E2E2E2E2E2E2E2E2E2E2E2E2E2E2E2E2E2E2E2E2E2E2E2E2E2E2E2E2E2E2E2E2E2E2E2E2E2E2E2E2E2E2E2E2E2E2E2E2E2
310
E2E2E2E2E2E2E2E2E2E2E2E2E2E2E2E2E2E2E2E2E2E2E2E2E2E2E2E2E2E2E2E2E2E2F5E2E2E2F5F5E2E2F0E2E2E2E2E2F0E2E2E2E2E2E2E2E2E2E2E2E2E2E2E2E2E2E2F5E2E2E2E2E2F5F5F5F5F5E2E2E2E2E2F5E2E2E2E2E2E2E2E2E2E2E2E2E2E2E2E2E2E2E2E2E2E2E2E2E2E2E2E2F5F5E2F5F5F5E2F5E2E2E2E2E2E2E2
310
E2E2E2E2E2E2E2E2E2E2E2E2E2E2E2E2E2E2E2E2E2E2E2E2E2E2E2E2E2E2E2E2E2E2E2E2E2E2E2E2E2E2E2E2E2E2E2E2E2E2E2E2E2E2E2E2E2E2E2E2E2E2E2E2E2E2E2E2E2E2E2E2E2E2E2E2E2E2E2E2E2E2E2E2E2E2E2F5F5E2F5F5F5E2E2F0E2E2E2E2E2F0E2E2E2E2E2E2E2E2E2E2E2E2E2E2E2E2E2E2F5E2E2E2E2E2F5
310
F5F5F5F5E2E2E2E2E2F5E2E2E2E2E2E2E2E2E2E2E2E2E2E2E2E2E2E2E2E2E2E2E2E2E2E2E2E2F5F5E2F5F5F5E2F5E2E2E2E2E2E2E2E2E2E2E2E2E2E2E2E2E2E2E2E2E2E2E2E2E2E2E2E2E2E2E2E2E2E2E2E2E2E2E2E2E2E2E2E2E2E2E2E2E2E2E2E2E2E2E2E2E2E2E2E2E2E2E2E2E2E2E2E2E2E2E2E2E2E2E2E2E2E2E2E2E2
310
E2E2E2E2E2E2E2E2E2E2E2E2E2F5F5F5F5E2F5E2E2F0E2E2E2E2E2F0E2E2E2E2E2E2E2E2E2E2E2E2E2E2E2E2E2E2F5E2E2E2E2E2F5F5F5F5E2E2E2E2E2E2F5E2E2E2E2E2E2E2E2E2E2E2E2E2E2E2E2E2E2E2E2E2E2E2E2E2E2E2F5E2F5E2F5F5F5E2F5E2E2E2E2E2E2E2E2E2E2E2E2E2E2E2E2E2E2E2E2E2E2E2E2E2E2E2E2
310
E2E2E2E2E2E2E2E2E2E2E2E2E2E2E2E2E2E2E2E2E2E2E2E2E2E2E2E2E2E2E2E2E2E2E2E2E2E2E2E2E2E2E2E2E2E2E2E2E2E2E2E2E2E2E2E2E2E2E2E2E2E2E2E2E2E2F5F5E2F5E2F5E2E2F0E2E2E2E2E2F0E2E2E2E2E2E2E2E2E2E2E2E2E2E2E2E2E2E2F5E2E2E2E2E2E2F5F5F5E2E2E2E2E2E2F5E2E2E2E2E2E2E2E2E2E2E2
310
E2E2E2E2E2E2E2E2E2E2E2E2E2E2F5F5F5F5F5F5F5F5F5F5F5F5F5F5E2E2E2E2E2E2E2E2E2E2E2E2E2E2E2E2E2E2E2E2E2E2E2E2E2E2E2E2E2E2E2E2E2E2E2E2E2E2E2E2E2E2E2E2E2E2E2E2E2E2E2E2E2E2E2E2E2E2E2E2E2E2E2E2E2E2E2E2E2E2E2E2E2E2E2E2E2E2E2E2E2E2E2E2E2E2E2E2E2E2E2F5F5F5F5E2F5E2E2
310
F0E2E2E2E2E2F0E2E2E2E2E2E2E2E2E2E2E2E2E2E2E2E2E2E2F5E2E2E2E2E2E2F5F5F5E2E2E2E2E2E2F5E2E2E2E2E2E2E2E2E2E2E2E2E2E2E2E2E2E2E2E2E2F5F5F5F5F5F5F5F5F5F5F5F5F5F5F5F5F5F5F5F5F5F5E2E2E2E2E2E2E2E2E2E2E2E2E2E2E2E2E2E2E2E2E2E2E2E2E2E2E2E2E2E2E2E2E2E2E2E2E2E2E2E2E2E2
310
E2E2E2E2E2E2E2E2E2E2E2E2E2E2E2E2E2E2E2E2E2E2E2E2E2E2E2E2E2E2E2E2E2E2E2E2E2E2E2E2E2E2E2E2F5F5F5F5F5F5F5F5F5F0E2E2E2E2E2F0E2E2E2E2E2E2E2E2E2E2E2E2E2E2E2E2E2E2F5E2E2E2E2E2E2F5F5F5E2E2E2E2E2E2F5E2E2E2E2E2E2E2E2E2E2E2E2E2E2E2E2E2E2E2E2E2F5E2E2E2E2E2E2E2E2E2E2
310
E2E2E2E2F5F5E2E2E2E2F5E2E2E2E2E2E2E2E2E2E2E2E2E2E2E2E2E2E2E2E2E2E2E2E2E2E2E2E2E2E2E2E2E2E2E2E2E2E2E2E2E2E2E2E2E2E2E2E2E2E2E2E2E2E2E2E2E2E2E2E2E2E2E2E2E2E2E2E2E2E2E2E2E2E2E2E2E2E2E2E2E2E2E2E2E2F5F5F5F5F5F5F5F5F5F5F0E2E2E2E2E2F0E2E2E2E2E2E2E2E2E2E2E2E2E2E2
310
E2E2E2E2F5E2E2E2E2E2E2F5F5F5E2E2E2E2E2E2F5E2E2E2E2E2E2E2E2E2E2E2E2E2E2E2E2E2E2E2E2E2F5F5F5F5F5F5F5F5F5F5F5F5F5F5F5F5F5F5F5F5F5F5E2E2E2E2E2E2E2E2E2E2E2E2E2E2E2E2E2E2E2E2E2E2E2E2E2E2E2E2E2E2E2E2E2E2E2E2E2E2E2E2E2E2E2E2E2E2E2E2E2E2E2E2E2E2E2E2E2E2E2E2E2E2E2
310
E2E2E2E2E2E2E2E2E2E2E2E2E2E2E2E2E2E2E2E2F5E2F5F5E2E2E2E2E2E2F5E2F5E2E2E2E2E2F0E2E2E2E2E2E2E2E2E2E2E2E2E2E2E2E2E2E2F5E2E2E2E2E2E2F5F5F5E2E2E2E2E2E2F5E2E2E2E2E2E2E2E2E2E2E2E2E2E2E2E2E2E2E2E2F5F5F5F5F5F5F5F5F5F5F5F5F5F5F5F5F5F5F5F5F5F5F5E2E2E2E2E2E2E2E2E2E2
310
E2E2E2E2E2E2E2E2E2E2E2E2E2E2E2E2E2E2E2E2E2E2E2E2E2E2E2E2E2E2E2E2E2E2E2E2E2E2E2E2E2E2E2E2E2E2E2E2E2E2E2E2E2E2E2E2E2E2E2E2E2E2E2E2E2E2E2E2E2E2E2E2E2F5F5F5F5F5F5F5F5F5F5F5E2F5E2E2E2E2E2F0E2E2E2E2E2E2E2E2E2E2E2E2E2E2E2E2E2E2F5E2E2E2E2E2E2F5F5F5E2E2E2E2E2E2F5
310
E2E2E2E2E2E2E2E2E2E2E2E2E2E2E2E2E2E2E2E2F5F5F5F5F5F5F5F5F5F5F5F5F5F5F5E2F5F5F5F5F5F5F5E2E2E2E2E2E2E2E2E2E2E2E2E2E2E2E2E2E2E2E2E2E2E2E2E2E2E2E2E2E2E2E2E2E2E2E2E2E2E2E2E2E2E2E2E2E2E2E2E2E2E2E2E2E2E2E2E2E2E2E2E2E2E2E2E2E2E2E2E2E2E2E2E2E2E2E2E2E2E2E2E2E2E2F5
310
F5F5F5F5E2E2F5F5F5E2E2F5E2E2E2E2E2F0E2E2E2E2E2E2E2E2E2E2E2E2E2E2E2E2E2E2F5E2E2E2E2E2E2F5F5F5E2E2E2E2E2E2F5E2E2E2E2E2E2E2E2E2E2E2E2E2E2E2E2E2E2E2E2F5F5F5F5F5F5F5F5F5F5F5F5F5F5F5E2F5F5F5F5F5F5F5E2E2E2E2E2E2E2E2E2E2E2E2E2E2E2E2E2E2E2E2E2E2E2E2E2E2E2E2E2E2E2
310
E2E2E2E2E2E2E2E2E2E2E2E2E2E2E2E2E2E2E2E2E2E2E2E2E2E2E2E2E2E2E2E2E2E2E2E2E2E2E2E2E2E2E2E2E2E2E2E2E2E2E2E2E2F5F5F5F5F5F5E2E2E2F5E2F5E2E2E2E2E2F0E2E2E2E2E2E2E2E2E2E2E2E2E2E2E2E2E2E2F5E2E2E2E2E2E2F5F5F5E2E2E2E2E2E2F5E2E2E2E2E2E2E2E2E2E2E2E2E2E2E2E2E2E2E2E2F5
310
F5F5F5F5F5F5F5F5F5F5F5F5F5F5E2F5F5F5F5F5F5F5F5E2E2E2E2E2E2E2E2E2E2E2E2E2E2E2E2E2E2E2E2E2E2E2E2E2E2E2E2E2E2E2E2E2E2E2E2E2E2E2E2E2E2E2E2E2E2E2E2E2E2E2E2E2E2E2E2E2E2E2E2E2E2E2E2E2E2E2E2E2E2E2E2E2E2E2E2E2E2E2E2E2E2E2E2F5F5F5F5F5F5F5E2E2F5F5E2E2E2E2E2F0E2E2E2
310
E2E2E2E2E2E2E2E2E2E2E2E2E2E2E2F5E2E2E2E2E2E2F5F5F5F5E2E2E2E2E2F5E2E2E2E2E2E2E2E2E2E2E2E2E2E2E2E2E2E2E2E2F5E2F5E2E2E2E2E2E2E2E2E2F5F5F5F5F5F5F5F5F5F5F5F5E2E2E2E2E2E2E2E2E2E2E2E2E2E2E2E2E2E2E2E2E2E2E2E2E2E2E2E2E2E2E2E2E2E2E2E2E2E2E2E2E2E2E2E2E2E2E2E2E2E2E2
310
E2E2E2E2E2E2E2E2E2E2E2E2E2E2E2E2E2E2E2E2E2E2E2E2E2E2E2E2E2E2E2E2E2E2E2F5F5E2F5F5F5F5E2F5E2E2E2E2E2F0E2E2E2E2E2E2E2E2E2E2E2E2E2E2E2E2E2E2F5E2E2E2E2E2F5F5F5F5F5E2E2E2E2E2F5E2E2E2E2E2E2E2E2E2E2E2E2E2E2E2E2E2E2E2E2F5F5F5F5F5F5F5F5F5F5F5F5F5F5F5F5F5F5F5F5F5F5
310
F5E2E2E2E2E2E2E2E2E2E2E2E2E2E2E2E2E2E2E2E2E2E2E2E2E2E2E2E2E2E2E2E2E2E2E2E2E2E2E2E2E2E2E2E2E2E2E2E2E2E2E2E2E2E2E2E2E2E2E2E2E2E2E2E2E2E2E2E2E2E2E2E2E2E2E2E2E2E2E2E2E2E2E2E2E2E2E2E2E2F5F5E2F5F5F5F5E2E2E2E2E2F0E2E2E2E2E2E2E2E2E2E2E2E2E2E2E2E2E2E2F5E2E2E2E2E2
310
F5F5F5F5F5E2E2E2E2E2F5E2E2E2E2E2E2E2E2E2E2E2E2E2E2E2E2E2E2E2E2E2E2E2E2E2E2E2E2E2E2E2E2E2E2E2E2E2E2E2E2E2E2E2E2E2E2E2E2E2E2E2E2E2E2E2E2E2E2E2E2E2E2E2E2E2E2E2E2E2E2E2E2E2E2E2E2E2E2E2E2E2E2E2E2E2E2E2E2E2E2E2E2E2E2E2E2E2E2E2E2E2E2E2E2E2E2E2E2E2E2E2E2E2E2E2E2
310
E2E2E2E2E2E2E2E2E2E2E2E2E2E2E2E2E2E2F5F5F5F5F5F0F0F0F0F0F0F0E2E2E2E2E2E2E2E2E2E2E2E2E2E2E2E2E2F5E2E2E2E2E2F5F5F5F5F5E2E2E2E2E2F5E2E2E2E2E2E2E2E2E2E2E2E2E2E2E2E2E2E2E2E2E2E2E2E2E2E2E2E2E2E2E2E2E2E2E2E2E2E2E2E2E2E2E2E2E2E2E2E2E2E2E2E2E2E2E2E2E2E2E2E2E2E2E2
310
E2E2E2E2E2E2E2E2E2E2E2E2E2E2E2E2E2E2E2E2E2E2E2E2E2E2E2E2E2E2E2E2E2E2E2E2E2E2E2E2E2E2E2E2E2E2E2E2E2E2E2E2E2E2E2E2E2E2E2E2E2E2E2E2E2E2E2E2E2E2E2E2E2E2E2E2E2E2E2E2E2E2E2E2E2E2E2E2E2E2E2E2E2E2E2E2E2E2E2E2F5E2E2E2E2E2F5F5F5F5F5E2E2E2E2E2F5E2E2E2E2E2E2E2E2E2E2
310
E2E2E2E2E2E2E2E2E2E2E2E2E2E2E2E2E2E2E2E2E2E2E2E2E2E2E2E2E2E2E2E2E2E2E2E2E2E2E2E2E2E2E2E2E2E2E2E2E2E2E2E2E2E2E2E2E2E2E2E2E2E2E2E2E2E2E2E2E2E2E2E2E2E2E2E2E2E2E2E2E2E2E2E2E2E2E2E2E2E2E2E2E2E2E2E2E2E2E2E2E2E2E2E2E2E2E2E2E2E2E2E2E2E2E2E2E2E2E2E2E2E2E2E2E2E2E2
310
E2E2E2E2E2E2E2E2E2E2E2E2E2E2E2E2E2E2E2E2E2E2E2E2E2E2F5E2E2E2E2E2F5F5F5F5F5E2E2E2E2E2F5E2E2E2E2E2E2E2E2E2E2E2E2E2E2E2E2E2E2E2E2E2E2E2E2E2E2E2E2E2E2E2E2E2E2E2E2E2E2E2E2E2E2E2E2E2E2E2E2E2E2E2E2E2E2E2E2E2E2E2E2E2E2E2E2E2E2E2E2E2E2E2E2E2E2E2E2E2E2E2E2E2E2E2E2
310
E2E2E2E2E2E2E2E2E2E2E2E2E2E2E2E2E2E2E2E2E2E2E2E2E2E2E2E2E2E2E2E2E2E2E2E2E2E2E2E2E2E2E2E2E2E2E2E2E2E2E2E2E2E2E2E2E2E2E2E2E2E2E2E2E2E2E2E2E2E2E2E2E2E2E2E2E2E2E2F5E2E2E2E2E2F5F5F5F5F5E2E2E2E2E2F5E2E2E2E2E2E2E2E2E2E2E2E2E2E2E2E2E2E2E2E2E2E2E2E2E2E2E2E2E2E2E2
310
E2E2E2E2E2E2E2E2E2E2E2E2E2E2E2E2E2E2E2E2E2E2E2E2E2E2E2E2E2E2E2E2E2E2E2E2E2E2E2E2E2E2E2E2E2E2E2E2E2E2E2E2E2E2E2E2E2E2E2E2E2E2E2E2E2E2E2E2E2E2E2E2E2E2E2E2E2E2E2E2E2E2E2E2E2E2E2E2E2E2E2E2E2E2E2E2E2E2E2E2E2E2E2E2E2E2E2E2E2E2E2E2E2E2E2E2E2E2E2E2E2E2E2E2E2E2E2
310
E2E2E2E2E2F5E2E2E2E2E2F5F5F5F5F5E2E2E2E2E2F5E2E2E2E2E2E2E2E2E2E2E2E2E2E2E2E2E2E2E2E2E2E2E2E2E2E2E2E2E2E2E2E2E2E2E2E2E2E2E2E2E2E2E2E2E2E2E2E2E2E2E2E2E2E2E2E2E2E2E2E2E2E2E2E2E2E2E2E2E2E2E2E2E2E2E2E2E2E2E2E2E2E2E2E2E2E2E2E2E2E2E2E2E2E2E2E2E2E2E2E2E2E2E2E2E2
310
E2E2E2E2E2E2E2E2E2E2E2E2E2E2E2E2E2E2E2E2E2E2E2E2E2E2E2E2E2E2E2E2E2E2E2E2E2E2E2E2E2E2E2E2E2E2E2E2E2E2E2E2E2E2E2E2E2E2F5E2E2E2E2E2F5F5F5F5F5E2E2E2E2E2F5E2E2E2E2E2E2E2E2E2E2E2E2E2E2E2E2E2E2E2E2E2E2E2E2E2E2E2E2E2E2E2E2E2E2E2E2E2E2E2E2E2E2E2E2E2E2E2E2E2E2E2E2
310
E2E2E2E2E2E2E2E2E2E2E2E2E2E2E2E2E2E2E2E2E2E2E2E2E2E2E2E2E2E2E2E2E2E2E2E2E2E2E2E2E2E2E2E2E2E2E2E2E2E2E2E2E2E2E2E2E2E2E2E2E2E2E2E2E2E2E2E2E2E2E2E2E2E2E2E2E2E2E2E2E2E2E2E2E2E2E2E2E2E2E2E2E2E2E2E2E2E2E2E2E2E2E2E2E2E2E2E2E2E2E2F5E2E2E2E2E2F5F5F5F5F5E2E2E2E2E2
310
F5E2E2E2E2E2E2E2E2E2E2E2E2E2E2E2E2E2E2E2E2E2E2E2E2E2E2E2E2E2E2E2E2E2E2E2E2E2E2E2E2E2E2E2E2E2E2E2E2E2E2E2E2E2E2E2E2E2E2E2E2E2E2E2E2E2E2E2E2E2E2E2E2E2E2E2E2E2E2E2E2E2E2E2E2E2E2E2E2E2E2E2E2E2E2E2E2E2E2E2E2E2E2E2E2E2E2E2E2E2E2E2E2E2E2E2E2E2E2E2E2E2E2E2E2E2E2
310
E2E2E2E2E2E2E2E2E2E2E2E2E2E2E2E2E2E2E2E2E2E2E2E2E2E2E2E2E2E2E2E2E2E2E2E2E2F5E2E2E2E2E2F5F5F5F5F5E2E2E2E2E2F5E2E2E2E2E2E2E2E2E2E2E2E2E2E2E2E2E2E2E2E2E2E2E2E2E2E2E2E2E2E2E2E2E2E2E2E2E2E2E2E2E2E2E2E2E2E2E2E2E2E2E2E2E2E2E2E2E2E2E2E2E2E2E2E2E2E2E2E2E2E2E2E2E2
310
E2E2E2E2E2E2E2E2E2E2E2E2E2E2E2E2E2E2E2E2E2E2E2E2E2E2E2E2E2E2E2E2E2E2E2E2E2E2E2E2E2E2E2E2E2E2E2E2E2E2E2E2E2E2E2E2E2E2E2E2E2E2E2E2E2E2E2E2E2E2E2E2E2E2E2E2E2E2E2E2E2E2E2E2E2E2E2E2E2E2F5E2E2E2E2E2F5F5F5F5F5E2E2E2E2E2F5E2E2E2E2E2E2E2E2E2E2E2E2E2E2E2E2E2E2E2E2
310
E2E2E2E2E2E2E2E2E2E2E2E2E2E2E2E2E2E2E2E2E2E2E2E2E2E2E2E2E2E2E2E2E2E2E2E2E2E2E2E2E2E2E2E2E2E2E2E2E2E2E2E2E2E2E2E2E2E2E2E2E2E2E2E2E2E2E2E2E2E2E2E2E2E2E2E2E2E2E2E2E2E2E2E2E2E2E2E2E2E2E2E2E2E2E2E2E2E2E2E2E2E2E2E2E2E2E2E2E2E2E2E2E2E2E2E2E2E2E2E2E2E2E2E2E2E2E2
310
E2E2E2E2E2E2E2E2E2E2E2E2E2E2E2E2F5E2E2E2E2E2F5F5F5F5F5E2E2E2E2E2F5E2E2E2E2E2E2E2E2E2E2E2E2E2E2E2E2E2E2E2E2E2E2E2E2E2E2E2E2E2E2E2E2E2E2E2E2E2E2E2E2E2E2E2E2E2E2E2E2E2E2E2E2E2E2E2E2E2E2E2E2E2E2E2E2E2E2E2E2E2E2E2E2E2E2E2E2E2E2E2E2E2E2E2E2E2E2E2E2E2E2E2E2E2E2
310
E2E2E2E2E2E2E2E2E2E2E2E2E2E2E2E2E2E2E2E2E2E2E2E2E2E2E2E2E2E2E2E2E2E2E2E2E2E2E2E2E2E2E2E2E2E2E2E2E2E2E2E2E2E2E2E2E2E2E2E2E2E2E2E2E2E2E2E2E2F5E2E2E2E2E2F5F5F5F5F5E2E2E2E2E2F5E2E2E2E2E2E2E2E2E2E2E2E2E2E2E2E2E2E2E2E2E2E2E2E2E2E2E2E2E2E2E2E2E2E2E2E2E2E2E2E2E2
310
E2E2E2E2E2E2E2E2E2E2E2E2E2E2E2E2E2E2E2E2E2E2E2E2E2E2E2E2E2E2E2E2E2E2E2E2E2E2E2E2E2E2E2E2E2E2E2E2E2E2E2E2E2E2E2E2E2E2E2E2E2E2E2E2E2E2E2E2E2E2E2E2E2E2E2E2E2E2E2E2E2E2E2E2E2E2E2E2E2E2E2E2E2E2E2E2E2E2E2E2E2E2E2E2E2E2E2E2E2E2E2E2E2E2E2E2E2E2E2E2E2E2F5E2E2E2E2
310
E2F5F5F5F5F5E2E2E2E2E2F5E2E2E2E2E2E2E2E2E2E2E2E2E2E2E2E2E2E2E2E2E2E2E2E2E2E2E2E2E2E2E2E2E2E2E2E2E2E2E2E2E2E2E2E2E2E2E2E2E2E2E2E2E2E2E2E2E2E2E2E2E2E2E2E2E2E2E2E2E2E2E2E2E2E2E2E2E2E2E2E2E2E2E2E2E2E2E2E2E2E2E2E2E2E2E2E2E2E2E2E2E2E2E2E2E2E2E2E2E2E2E2E2E2E2E2
310
E2E2E2E2E2E2E2E2E2E2E2E2E2E2E2E2E2E2E2E2E2E2E2E2E2E2E2E2E2E2E2E2E2E2E2E2E2E2E2E2E2E2E2E2E2E2E2E2F5E2E2E2E2E2F5F5F5F5F5E2E2E2E2E2F5E2E2E2E2E2E2E2E2E2E2E2E2E2E2E2E2E2E2E2E2E2E2E2E2E2E2E2E2E2E2E2E2E2E2E2E2E2E2E2E2E2E2E2E2E2E2E2E2E2E2E2E2E2E2E2E2E2E2E2E2E2E2
310
E2E2E2E2E2E2E2E2E2E2E2E2E2E2E2E2E2E2E2E2E2E2E2E2E2E2E2E2E2E2E2E2E2E2E2E2E2E2E2E2E2E2E2E2E2E2E2E2E2E2E2E2E2E2E2E2E2E2E2E2E2E2E2E2E2E2E2E2E2E2E2E2E2E2E2E2E2E2E2E2E2E2E2E2E2E2E2E2E2E2E2E2E2E2E2E2E2E2E2E2E2F5E2E2E2E2E2F5F5F5F5E2E2E2E2E2E2F5E2E2E2E2E2E2E2E2E2
310
E2E2E2E2E2E2E2E2E2E2E2E2E2E2E2E2E2E2E2E2E2E2E2E2E2E2E2E2E2E2E2E2E2E2E2E2E2E2E2E2E2E2E2E2E2E2E2E2E2E2E2E2E2E2E2E2E2E2E2E2E2E2E2E2E2E2E2E2E2E2E2E2E2E2E2E2E2E2E2E2E2E2E2E2E2E2E2E2E2E2E2E2E2E2E2E2E2E2E2E2E2E2E2E2E2E2E2E2E2E2E2E2E2E2E2E2E2E2E2E2E2E2E2E2E2E2E2
310
E2E2E2E2E2E2E2E2E2E2E2E2E2E2E2E2E2E2E2E2E2E2E2E2E2E2E2F5E2E2E2E2E2E2F5F5F5E2E2E2E2E2E2F5E2E2E2E2E2E2E2E2E2E2E2E2E2E2E2E2E2E2E2E2E2E2E2E2E2E2E2E2E2E2E2E2E2E2E2E2E2E2E2E2E2E2E2E2E2E2E2E2E2E2E2E2E2E2E2E2E2E2E2E2E2E2E2E2E2E2E2E2E2E2E2E2E2E2E2E2E2E2E2E2E2E2E2
310
E2E2E2E2E2E2E2E2E2E2E2E2E2E2E2E2E2E2E2E2E2E2E2E2E2E2E2E2E2E2E2E2E2E2E2E2E2E2E2E2E2E2E2E2E2E2E2E2E2E2E2E2E2E2E2E2E2E2E2E2E2E2E2E2E2E2E2E2E2E2E2E2E2E2E2E2E2E2E2E2F5E2E2E2E2E2E2F5F5F5E2E2E2E2E2E2F5E2E2E2E2E2E2E2E2E2E2E2E2E2E2E2E2E2E2E2E2E2E2E2E2E2E2E2E2E2E2
310
E2E2E2E2E2E2E2E2E2E2E2E2E2E2E2E2E2E2E2E2E2E2E2E2E2E2E2E2E2E2E2E2E2E2E2E2E2E2E2E2E2E2E2E2E2E2E2E2E2E2E2E2E2E2E2E2E2E2E2E2E2E2E2E2E2E2E2E2E2E2E2E2E2E2E2E2E2E2E2E2E2E2E2E2E2E2E2E2E2E2E2E2E2E2E2E2E2E2E2E2E2E2E2E2E2E2E2E2E2E2E2E2E2E2E2E2E2E2E2E2E2E2E2E2E2E2E2
310
E2E2E2E2E2E2F5E2E2E2E2E2E2F5F5F5E2E2E2E2E2E2F5E2E2E2E2E2E2E2E2E2E2E2E2E2E2E2E2E2E2E2E2E2E2E2E2E2E2E2E2E2E2E2E2E2E2E2E2E2E2E2E2E2E2E2E2E2E2E2E2E2E2E2E2E2E2E2E2E2E2E2E2E2E2E2E2E2E2E2E2E2E2E2E2E2E2E2E2E2E2E2E2E2E2E2E2E2E2E2E2E2E2E2E2E2E2E2E2E2E2E2E2E2E2E2E2
310
E2E2E2E2E2E2E2E2E2E2E2E2E2E2E2E2E2E2E2E2E2E2E2E2E2E2E2E2E2E2E2E2E2E2E2E2E2E2E2E2E2E2E2E2E2E2E2E2E2E2E2E2E2E2E2E2E2E2E2F5E2E2E2E2E2E2F5F5F5E2E2E2E2E2E2F5E2E2E2E2E2E2E2E2E2E2E2E2E2E2E2E2E2E2E2E2E2E2E2E2E2E2E2E2E2E2E2E2E2E2E2E2E2E2E2E2E2E2E2E2E2E2E2E2E2E2E2
310
E2E2E2E2E2E2E2E2E2E2E2E2E2E2E2E2E2E2E2E2E2E2E2E2E2E2E2E2E2E2E2E2E2E2E2E2E2E2E2E2E2E2E2E2E2E2E2E2E2E2E2E2E2E2E2E2E2E2E2E2E2E2E2E2E2E2E2E2E2E2E2E2E2E2E2E2E2E2E2E2E2E2E2E2E2E2E2E2E2E2E2E2E2E2E2E2E2E2E2E2E2E2E2E2E2E2E2E2E2E2E2E2F5E2E2E2E2E2E2F5F5F5E2E2E2E2E2
310
E2F5E2E2E2E2E2E2E2E2E2E2E2E2E2E2E2E2E2E2E2E2E2E2E2E2E2E2E2E2E2E2E2E2E2E2E2E2E2E2E2E2E2E2E2E2E2E2E2E2E2E2E2E2E2E2E2E2E2E2E2E2E2E2E2E2E2E2E2E2E2E2E2E2E2E2E2E2E2E2E2E2E2E2E2E2E2E2E2E2E2E2E2E2E2E2E2E2E2E2E2E2E2E2E2E2E2E2E2E2E2E2E2E2E2E2E2E2E2E2E2E2E2E2E2E2E2
310
E2E2E2E2E2E2E2E2E2E2E2E2E2E2E2E2E2E2E2E2E2E2E2E2E2E2E2E2E2E2E2E2E2E2E2E2E2E2F5E2E2E2E2E2E2F5F5F5E2E2E2E2E2E2F5E2E2E2E2E2E2E2E2E2E2E2E2E2E2E2E2E2E2E2E2E2E2E2E2E2E2E2E2E2E2E2E2E2E2E2E2E2E2E2E2E2E2E2E2E2E2E2E2E2E2E2E2E2E2E2E2E2E2E2E2E2E2E2E2E2E2E2E2E2E2E2E2
310
E2E2E2E2E2E2E2E2E2E2E2E2E2E2E2E2E2E2E2E2E2E2E2E2E2E2E2E2E2E2E2E2E2E2E2E2E2E2E2E2E2E2E2E2E2E2E2E2E2E2E2E2E2E2E2E2E2E2E2E2E2E2E2E2E2E2E2E2E2E2E2E2E2E2E2E2E2E2E2E2E2E2E2E2E2E2E2E2E2E2E2F5E2E2E2E2E2E2F5F5F5E2E2E2E2E2E2F5E2E2E2E2E2E2E2E2E2E2E2E2E2E2E2E2E2E2E2
310
E2E2E2E2E2E2E2E2E2E2E2E2E2E2E2E2E2E2E2E2E2E2E2E2E2E2E2E2E2E2E2E2E2E2E2E2E2E2E2E2E2E2E2E2E2E2E2E2E2E2E2E2E2E2E2E2E2E2E2E2E2E2E2E2E2E2E2E2E2E2E2E2E2E2E2E2E2E2E2E2E2E2E2E2E2E2E2E2E2E2E2E2E2E2E2E2E2E2E2E2E2E2E2E2E2E2E2E2E2E2E2E2E2E2E2E2E2E2E2E2E2E2E2E2E2E2E2
310
E2E2E2E2E2E2E2E2E2E2E2E2E2E2E2E2E2F5E2E2E2E2E2E2F5F5F5E2E2E2E2E2E2F5E2E2E2E2E2E2E2E2E2E2E2E2E2E2E2E2E2E2E2E2E2E2E2E2E2E2E2E2E2E2E2E2E2E2E2E2E2E2E2E2E2E2E2E2E2E2E2E2E2E2E2E2E2E2E2E2E2E2E2E2E2E2E2E2E2E2E2E2E2E2E2E2E2E2E2E2E2E2E2E2E2E2E2E2E2E2E2E2E2E2E2E2E2
310
E2E2E2E2E2E2E2E2E2E2E2E2E2E2E2E2E2E2E2E2E2E2E2E2E2E2E2E2E2E2E2E2E2E2E2E2E2E2E2E2E2E2E2E2E2E2E2E2E2E2E2E2E2E2E2E2E2E2E2E2E2E2E2E2E2E2E2E2E2E2F5E2E2E2E2E2E2F5F5F5F5E2E2E2E2E2F5E2E2E2E2E2E2E2E2E2E2E2E2E2E2E2E2E2E2E2E2E2E2E2E2E2E2E2E2E2E2E2E2E2E2E2E2E2E2E2E2
310
E2E2E2E2E2E2E2E2E2E2E2E2E2E2E2E2E2E2E2E2E2E2E2E2E2E2E2E2E2E2E2E2E2E2E2E2E2E2E2E2E2E2E2E2E2E2E2E2E2E2E2E2E2E2E2E2E2E2E2E2E2E2E2E2E2E2E2E2E2E2E2E2E2E2E2E2E2E2E2E2E2E2E2E2E2E2E2E2E2E2E2E2E2E2E2E2E2E2E2E2E2E2E2E2E2E2E2E2E2E2E2E2E2E2E2E2E2E2E2E2E2E2E2F5E2E2E2
310
E2E2F5F5F5F5F5E2E2E2E2E2F5F5F5F5F5F5F5F5F5F5F5F5F5F5F5F5F5F5F5F5F5F5F5F5F5F5F5F5F5F5F5F5F5F5F5F5F5F5F5F5F5F5F5F5F5F5F5F5F5F5F5F5F5F5F5F5F5F5F5F5F5F5F5F5F5F5F5F5F5F5F5F5F5F5F5F5F5F5F5F5F5F5F5F5F5F5F5F5F5F5F5F5F5F5F5F5F5F5F5F5F5F5F5F5F5F5F5F5F5F5F5F5F5F5F5
310
F5F5F5F5F5F5F5F5F5F5F5F5F5F5F5F5F5F5F5F5F5F5F5F5F5F5F5F5F5F5F5F5F5F5F5F5F5F5F5F5F5F5F5F5F5F5F5F5F5F5E2E2E2E2E2F5F5F5F5F5E2E2E2E2E2E2E2E2E2E2E2E2E2E2E2E2E2E2E2E2E2E2E2E2E2E2E2E2E2E2E2E2E2E2E2E2E2E2E2E2E2E2E2E2E2E2E2E2E2E2E2E2E2E2E2E2E2E2E2E2E2E2E2E2E2E2E2
310
E2E2E2E2E2E2E2E2E2E2E2E2E2E2E2E2E2E2E2E2E2E2E2E2E2E2E2E2E2E2E2E2E2E2E2E2E2E2E2E2E2E2E2E2E2E2E2E2E2E2E2E2E2E2E2E2E2E2E2E2E2E2E2E2E2E2E2E2E2E2E2E2E2E2E2E2E2E2E2E2E2E2E2E2E2E2E2E2E2E2E2E2E2E2E2E2E2E2E2E2E2E2E2E2E2E2E2E2F5F5F5F5F5E2E2E2E2E2E2E2E2E2E2E2E2E2E2
310
E2E2E2E2E2E2E2E2E2E2E2E2E2E2E2E2E2E2E2E2E2E2E2E2E2E2E2E2E2E2E2E2E2E2E2E2E2E2E2E2E2E2E2E2E2E2E2E2E2E2E2E2E2E2E2E2E2E2E2E2E2E2E2E2E2E2E2E2E2E2E2E2E2E2E2E2E2E2E2E2E2E2E2E2E2E2E2E2E2E2E2E2E2E2E2E2E2E2E2E2E2E2E2E2E2E2E2E2E2E2E2E2E2E2E2E2E2E2E2E2E2E2E2E2E2E2E2
310
E2E2E2E2E2E2E2E2E2E2E2E2E2E2E2E2E2E2E2E2E2E2E2E2E2E2E2E2E2E2E2E2E2E2F5F5F5F5F5E2E2E2E2E2E2E2E2E2E2E2E2E2E2E2E2E2E2E2E2E2E2E2E2E2E2E2E2E2E2E2E2E2E2E2E2E2E2E2E2E2E2E2E2E2E2E2E2E2E2E2E2E2E2E2E2E2E2E2E2E2E2E2E2E2E2E2E2E2E2E2E2E2E2E2E2E2E2E2E2E2E2E2E2E2E2E2E2
310
E2E2E2E2E2E2E2E2E2E2E2E2E2E2E2E2E2E2E2E2E2E2E2E2E2E2E2E2E2E2E2E2E2E2E2E2E2E2E2E2E2E2E2E2E2E2E2E2E2E2E2E2E2E2E2E2E2E2E2E2E2E2E2E2E2E2E2E2E2E2E2E2E2E2E2E2E2E2E2E2E2E2E2E2E2E2E2F5F5F5F5F5E2E2E2E2E2E2E2E2E2E2E2E2E2E2E2E2E2E2E2E2E2E2E2E2E2E2E2E2E2E2E2E2E2E2E2
310
E2E2E2E2E2E2E2E2E2E2E2E2E2E2E2E2E2E2E2E2E2E2E2E2E2E2E2E2E2E2E2E2E2E2E2E2E2E2E2E2E2E2E2E2E2E2E2E2E2E2E2E2E2E2E2E2E2E2E2E2E2E2E2E2E2E2E2E2E2E2E2E2E2E2E2E2E2E2E2E2E2E2E2E2E2E2E2E2E2E2E2E2E2E2E2E2E2E2E2E2E2E2E2E2E2E2E2E2E2E2E2E2E2E2E2E2E2E2E2E2E2E2E2E2E2E2E2
310
E2E2E2E2E2E2E2E2E2E2E2E2E2F5F5F5F5F5E2E2E2E2E2E2E2E2E2E2E2E2E2E2E2E2E2E2E2E2E2E2E2E2E2E2E2E2E2E2E2E2E2E2E2E2E2E2E2E2E2E2E2E2E2E2E2E2E2E2E2E2E2E2E2E2E2E2E2E2E2E2E2E2E2E2E2E2E2E2E2E2E2E2E2E2E2E2E2E2E2E2E2E2E2E2E2E2E2E2E2E2E2E2E2E2E2E2E2E2E2E2E2E2E2E2E2E2E2
310
E2E2E2E2E2E2E2E2E2E2E2E2E2E2E2E2E2E2E2E2E2E2E2E2E2E2E2E2E2E2E2E2E2E2E2E2E2E2E2E2E2E2E2E2E2E2E2E2E2E2E2E2E2E2E2E2E2E2E2E2E2E2E2E2E2E2F5F5F5F5F5F5F5F5F5F5F5F5F5E2E2E2E2E2E2E2E2E2F5F5F5F5F5F5F5F5F5F5F5F5F5F5F5F5E2E2E2E2E2E2E2E2E2F5F5F5F5F5F5F5F5F5F5F5F5F5F5
310
F5F5E2E2E2E2E2E2E2E2E2F5F5F5F5F5F5F5F5F5F5F5F5F5F5F5F5E2E2E2E2E2E2E2E2E2F5F5F5F5F5F5F5F5F5F5F5F5F5F5F5F5E2E2E2E2E2E2E2E2E2F5F5F5F5F5F5F5F5F5F5F5F5F5F5F5F5E2E2E2E2E2E2E2E2E2F5F5F5F5F5F5F5F5F5F5F5F5F5F5F5F5E2E2E2E2E2E2E2E2E2F5F5F5F5F5F5F5F5F5F5EFF5F5F5F5F5
310
F5F5F5F5F5F5F5F5F5F5F5F5F5F5F5F5F5F5F5F5F5F5F5F5F5F5F5F5F5F5F5F5F5F5F5F5F5F5F5F5F5F5F5F5F5F5F5F5F5F5F5F5F5F5F5F5F5F5F5F5F5F5F5F5F5F5F5F5F5F5F5F5F5F5F5F5F5F5F5F5F5F5F5F5F5F5F5F5F5F5F5F5F5F5F5F5F5F5F5F5F5F5F5F5F5F5F5F5F5F5F5F5F5F5F5F5F5F5F5F5F5F5F5F5F5F5F5
310
F5F5F5F5F5F5F5F5F5F5F5F5F5F5F5F5F5F5F5F5F5F5F5F5F5F5F5F5F5F5F5F5F5F5F5F5F5F5F5F5F5F5F5F5F5F5F5EF
  0
XRECORD
  5
6C77
102
{ACAD_REACTORS
330
181C
102
}
330
181C
100
AcDbXrecord
280
     1
102
MATERIAL
148
0.0
149
0.0
149
0.0
 93
        0
 94
      127
282
     0
 72
     0
 77
     0
171
     0
175
     0
179
     0
273
     0
  0
XRECORD
  5
181E
102
{ACAD_REACTORS
330
181C
102
}
330
181C
100
AcDbXrecord
280
     1
270
     1
271
     1
  0
XRECORD
  5
181D
102
{ACAD_REACTORS
330
181C
102
}
330
181C
100
AcDbXrecord
280
     1
270
     1
271
     1
  0
XRECORD
  5
1821
102
{ACAD_REACTORS
330
181C
102
}
330
181C
100
AcDbXrecord
280
     1
270
     1
271
     1
  0
XRECORD
  5
1820
102
{ACAD_REACTORS
330
181C
102
}
330
181C
100
AcDbXrecord
280
     1
270
     1
271
     1
  0
XRECORD
  5
1822
102
{ACAD_REACTORS
330
181C
102
}
330
181C
100
AcDbXrecord
280
     1
270
     1
271
     1
  0
XRECORD
  5
181F
102
{ACAD_REACTORS
330
181C
102
}
330
181C
100
AcDbXrecord
280
     1
270
     1
271
     1
  0
XRECORD
  5
6C76
102
{ACAD_REACTORS
330
1814
102
}
330
1814
100
AcDbXrecord
280
     1
102
MATERIAL
148
0.0
149
0.0
149
0.0
 93
        0
 94
      127
282
     0
 72
     0
 77
     0
171
     0
175
     0
179
     0
273
     0
  0
XRECORD
  5
1816
102
{ACAD_REACTORS
330
1814
102
}
330
1814
100
AcDbXrecord
280
     1
270
     1
271
     1
  0
XRECORD
  5
1815
102
{ACAD_REACTORS
330
1814
102
}
330
1814
100
AcDbXrecord
280
     1
270
     1
271
     1
  0
XRECORD
  5
1819
102
{ACAD_REACTORS
330
1814
102
}
330
1814
100
AcDbXrecord
280
     1
270
     1
271
     1
  0
XRECORD
  5
1818
102
{ACAD_REACTORS
330
1814
102
}
330
1814
100
AcDbXrecord
280
     1
270
     1
271
     1
  0
XRECORD
  5
181A
102
{ACAD_REACTORS
330
1814
102
}
330
1814
100
AcDbXrecord
280
     1
270
     1
271
     1
  0
XRECORD
  5
1817
102
{ACAD_REACTORS
330
1814
102
}
330
1814
100
AcDbXrecord
280
     1
270
     1
271
     1
  0
XRECORD
  5
6C78
102
{ACAD_REACTORS
330
1824
102
}
330
1824
100
AcDbXrecord
280
     1
102
MATERIAL
148
0.0
149
0.0
149
0.0
 93
        0
 94
      127
282
     0
 72
     0
 77
     0
171
     0
175
     0
179
     0
273
     0
  0
XRECORD
  5
1826
102
{ACAD_REACTORS
330
1824
102
}
330
1824
100
AcDbXrecord
280
     1
270
     1
271
     1
  0
XRECORD
  5
1825
102
{ACAD_REACTORS
330
1824
102
}
330
1824
100
AcDbXrecord
280
     1
270
     1
271
     1
  0
XRECORD
  5
1829
102
{ACAD_REACTORS
330
1824
102
}
330
1824
100
AcDbXrecord
280
     1
270
     1
271
     1
  0
XRECORD
  5
1828
102
{ACAD_REACTORS
330
1824
102
}
330
1824
100
AcDbXrecord
280
     1
270
     1
271
     1
  0
XRECORD
  5
182A
102
{ACAD_REACTORS
330
1824
102
}
330
1824
100
AcDbXrecord
280
     1
270
     1
271
     1
  0
XRECORD
  5
1827
102
{ACAD_REACTORS
330
1824
102
}
330
1824
100
AcDbXrecord
280
     1
270
     1
271
     1
  0
XRECORD
  5
6F36
102
{ACAD_REACTORS
330
6F35
102
}
330
6F35
100
AcDbXrecord
280
     1
102
SHADEPLOT
 70
     0
102
SHADEPLOTRESLEVEL
 70
     2
102
SHADEPLOTCUSTOMDPI
 70
   300
  0
ACAD_PROXY_OBJECT
  5
6C58
102
{ACAD_REACTORS
330
4E0E
102
}
330
4E0E
100
AcDbProxyObject
 90
      499
 91
      512
 95
   983063
 70
     0
 93
     5232
310
40D054060020000020000003200101A412A5058000000C10000000000000006101010000000000003E0FC000000000000F83F0000000000003E0FC000000000000F83F02B5E8DC0F42B1CFC0AD7A3703D0AC73F419019018000000C1003FBFFFFFE02B5E8DC0F42A9CFD029018000000C1003FBFFFFFE02B5E8DC0F42A9CFD
310
049018000000C1003FBFFFFFE02B5E8DC0F42A9CFD089018000000C1003FBFFFFFE02B5E8DC0F42A9CFD109018000000C1003FBFFFFFE02B5E8DC0F42A9CFD209018000000C1003FBFFFFFE02B5E8DC0F42A9CFD01405075F5449544C450041501A8000000C800406904A94160000003040000000000000012404040000000
310
00000F83F0000000000003E0FC000000000000F83F0000000000003E0FC0AD7A3703D0AC73F02B5E8DC0F42B1CFD0640640600000030400FEFFFFFF80AD7A3703D0AA73F40A40600000030400FEFFFFFF80AD7A3703D0AA73F41240600000030400FEFFFFFF80AD7A3703D0AA73F42240600000030400FEFFFFFF80AD7A370
310
3D0AA73F44240600000030400FEFFFFFF80AD7A3703D0AA73F48240600000030400FEFFFFFF80AD7A3703D0AA73F409014217D2115051115480105406A0000003200101A412A5028000000C10000000000000004901010000000000003E0FC000000000000F83F0000000000003E0FC000000000000F83F02B5E8DC0F42B1C
310
FC0AD7A3703D0AC73F419019018000000C1003FBFFFFFE02B5E8DC0F42A9CFD029018000000C1003FBFFFFFE02B5E8DC0F42A9CFD049018000000C1003FBFFFFFE02B5E8DC0F42A9CFD089018000000C1003FBFFFFFE02B5E8DC0F42A9CFD109018000000C1003FBFFFFFE02B5E8DC0F42A9CFD209018000000C1003FBFFFF
310
FE02B5E8DC0F42A9CFD03409065F444154410000
340
10
340
0
340
0
340
0
340
0
340
0
340
0
340
10
340
0
340
0
340
0
340
0
340
0
340
0
340
10
340
0
340
0
340
0
340
0
340
0
340
0
 94
        0
1001
ACAD
1000
AcRTDxfName
1000
CELLSTYLEMAP
1000
AcRTDxfName
1000
CELLSTYLEMAP
1000
AcRTDxfName
1000
CELLSTYLEMAP
1000
AcRTDxfName
1000
CELLSTYLEMAP
1000
AcRTDxfName
1000
CELLSTYLEMAP
1000
AcRTDxfName
1000
CELLSTYLEMAP
1000
AcRTDxfName
1000
CELLSTYLEMAP
1000
AcRTDxfName
1000
CELLSTYLEMAP
  0
XRECORD
  5
6C70
102
{ACAD_REACTORS
330
4E0E
102
}
330
4E0E
100
AcDbXrecord
280
     1
102
ACAD_ROUNDTRIP_PRE2007_TABLESTYLE
 90
        4
 91
        0
  1

 92
        4
 93
        0
  2

 94
        4
 95
        0
  3

  0
ENDSEC
  0
EOF
