  0
SECTION
  2
HEADER
  9
$ACADVER
  1
AC1015
  9
$ACADMAINTVER
 70
    20
  9
$DWGCODEPAGE
  3
ANSI_932
  9
$INSBASE
 10
0.0
 20
0.0
 30
0.0
  9
$EXTMIN
 10
-84.32261658377319
 20
-41.33061887895382
 30
-0.0000000000112498
  9
$EXTMAX
 10
487.3475020141959
 20
233.688267228983
 30
0.0000000000002956
  9
$LIMMIN
 10
0.0
 20
0.0
  9
$LIMMAX
 10
10000.0
 20
10000.0
  9
$ORTHOMODE
 70
     1
  9
$REGENMODE
 70
     1
  9
$FILLMODE
 70
     1
  9
$QTEXTMODE
 70
     0
  9
$MIRRTEXT
 70
     1
  9
$LTSCALE
 40
10.0
  9
$ATTMODE
 70
     1
  9
$TEXTSIZE
 40
84.17508417508416
  9
$TRACEWID
 40
1.0
  9
$TEXTSTYLE
  7
STANDARD
  9
$CLAYER
  8
0
  9
$CELTYPE
  6
BYLAYER
  9
$CECOLOR
 62
   256
  9
$CELTSCALE
 40
1.0
  9
$DISPSILH
 70
     0
  9
$DIMSCALE
 40
1.0
  9
$DIMASZ
 40
0.18
  9
$DIMEXO
 40
0.0625
  9
$DIMDLI
 40
0.38
  9
$DIMRND
 40
0.0
  9
$DIMDLE
 40
0.0
  9
$DIMEXE
 40
0.18
  9
$DIMTP
 40
0.0
  9
$DIMTM
 40
0.0
  9
$DIMTXT
 40
0.18
  9
$DIMCEN
 40
0.09
  9
$DIMTSZ
 40
0.0
  9
$DIMTOL
 70
     0
  9
$DIMLIM
 70
     0
  9
$DIMTIH
 70
     1
  9
$DIMTOH
 70
     1
  9
$DIMSE1
 70
     0
  9
$DIMSE2
 70
     0
  9
$DIMTAD
 70
     0
  9
$DIMZIN
 70
     0
  9
$DIMBLK
  1

  9
$DIMASO
 70
     1
  9
$DIMSHO
 70
     1
  9
$DIMPOST
  1

  9
$DIMAPOST
  1

  9
$DIMALT
 70
     0
  9
$DIMALTD
 70
     2
  9
$DIMALTF
 40
25.4
  9
$DIMLFAC
 40
1.0
  9
$DIMTOFL
 70
     0
  9
$DIMTVP
 40
0.0
  9
$DIMTIX
 70
     0
  9
$DIMSOXD
 70
     0
  9
$DIMSAH
 70
     0
  9
$DIMBLK1
  1

  9
$DIMBLK2
  1

  9
$DIMSTYLE
  2
STANDARD
  9
$DIMCLRD
 70
     0
  9
$DIMCLRE
 70
     0
  9
$DIMCLRT
 70
     0
  9
$DIMTFAC
 40
1.0
  9
$DIMGAP
 40
0.09
  9
$DIMJUST
 70
     0
  9
$DIMSD1
 70
     0
  9
$DIMSD2
 70
     0
  9
$DIMTOLJ
 70
     1
  9
$DIMTZIN
 70
     0
  9
$DIMALTZ
 70
     0
  9
$DIMALTTZ
 70
     0
  9
$DIMUPT
 70
     0
  9
$DIMDEC
 70
     4
  9
$DIMTDEC
 70
     4
  9
$DIMALTU
 70
     2
  9
$DIMALTTD
 70
     2
  9
$DIMTXSTY
  7
STANDARD
  9
$DIMAUNIT
 70
     0
  9
$DIMADEC
 70
     0
  9
$DIMALTRND
 40
0.0
  9
$DIMAZIN
 70
     0
  9
$DIMDSEP
 70
    46
  9
$DIMATFIT
 70
     3
  9
$DIMFRAC
 70
     0
  9
$DIMLDRBLK
  1

  9
$DIMLUNIT
 70
     2
  9
$DIMLWD
 70
    -2
  9
$DIMLWE
 70
    -2
  9
$DIMTMOVE
 70
     0
  9
$LUNITS
 70
     2
  9
$LUPREC
 70
     4
  9
$SKETCHINC
 40
1.0
  9
$FILLETRAD
 40
0.0
  9
$AUNITS
 70
     0
  9
$AUPREC
 70
     0
  9
$MENU
  1
.
  9
$ELEVATION
 40
0.0
  9
$PELEVATION
 40
0.0
  9
$THICKNESS
 40
0.0
  9
$LIMCHECK
 70
     0
  9
$CHAMFERA
 40
0.0
  9
$CHAMFERB
 40
0.0
  9
$CHAMFERC
 40
673.4006734006733
  9
$CHAMFERD
 40
0.0
  9
$SKPOLY
 70
     0
  9
$TDCREATE
 40
2453202.476360000
  9
$TDUCREATE
 40
2453202.101360000
  9
$TDUPDATE
 40
2459614.394274653
  9
$TDUUPDATE
 40
2459614.019274653
  9
$TDINDWG
 40
0.1745898032
  9
$TDUSRTIMER
 40
0.1745896296
  9
$USRTIMER
 70
     1
  9
$ANGBASE
 50
0.0
  9
$ANGDIR
 70
     0
  9
$PDMODE
 70
     0
  9
$PDSIZE
 40
0.0
  9
$PLINEWID
 40
0.0
  9
$SPLFRAME
 70
     0
  9
$SPLINETYPE
 70
     6
  9
$SPLINESEGS
 70
     8
  9
$HANDSEED
  5
21E7
  9
$SURFTAB1
 70
     6
  9
$SURFTAB2
 70
     6
  9
$SURFTYPE
 70
     6
  9
$SURFU
 70
     6
  9
$SURFV
 70
     6
  9
$UCSBASE
  2

  9
$UCSNAME
  2

  9
$UCSORG
 10
0.0
 20
0.0
 30
0.0
  9
$UCSXDIR
 10
1.0
 20
0.0
 30
0.0
  9
$UCSYDIR
 10
0.0
 20
1.0
 30
0.0
  9
$UCSORTHOREF
  2

  9
$UCSORTHOVIEW
 70
     0
  9
$UCSORGTOP
 10
0.0
 20
0.0
 30
0.0
  9
$UCSORGBOTTOM
 10
0.0
 20
0.0
 30
0.0
  9
$UCSORGLEFT
 10
0.0
 20
0.0
 30
0.0
  9
$UCSORGRIGHT
 10
0.0
 20
0.0
 30
0.0
  9
$UCSORGFRONT
 10
0.0
 20
0.0
 30
0.0
  9
$UCSORGBACK
 10
0.0
 20
0.0
 30
0.0
  9
$PUCSBASE
  2

  9
$PUCSNAME
  2

  9
$PUCSORG
 10
0.0
 20
0.0
 30
0.0
  9
$PUCSXDIR
 10
1.0
 20
0.0
 30
0.0
  9
$PUCSYDIR
 10
0.0
 20
1.0
 30
0.0
  9
$PUCSORTHOREF
  2

  9
$PUCSORTHOVIEW
 70
     0
  9
$PUCSORGTOP
 10
0.0
 20
0.0
 30
0.0
  9
$PUCSORGBOTTOM
 10
0.0
 20
0.0
 30
0.0
  9
$PUCSORGLEFT
 10
0.0
 20
0.0
 30
0.0
  9
$PUCSORGRIGHT
 10
0.0
 20
0.0
 30
0.0
  9
$PUCSORGFRONT
 10
0.0
 20
0.0
 30
0.0
  9
$PUCSORGBACK
 10
0.0
 20
0.0
 30
0.0
  9
$USERI1
 70
     0
  9
$USERI2
 70
     0
  9
$USERI3
 70
     0
  9
$USERI4
 70
     0
  9
$USERI5
 70
     0
  9
$USERR1
 40
0.0
  9
$USERR2
 40
0.0
  9
$USERR3
 40
0.0
  9
$USERR4
 40
0.0
  9
$USERR5
 40
0.0
  9
$WORLDVIEW
 70
     1
  9
$SHADEDGE
 70
     3
  9
$SHADEDIF
 70
    70
  9
$TILEMODE
 70
     1
  9
$MAXACTVP
 70
    16
  9
$PINSBASE
 10
0.0
 20
0.0
 30
0.0
  9
$PLIMCHECK
 70
     0
  9
$PEXTMIN
 10
20.0
 20
17.0
 30
0.0
  9
$PEXTMAX
 10
405.0
 20
281.9999999999999
 30
0.0
  9
$PLIMMIN
 10
-0.0066564884951461
 20
-3.05577639081483
  9
$PLIMMAX
 10
420.1516687068173
 20
293.9760534431695
  9
$UNITMODE
 70
     0
  9
$VISRETAIN
 70
     0
  9
$PLINEGEN
 70
     0
  9
$PSLTSCALE
 70
     1
  9
$TREEDEPTH
 70
  3020
  9
$CMLSTYLE
  2
STANDARD
  9
$CMLJUST
 70
     0
  9
$CMLSCALE
 40
1.0
  9
$PROXYGRAPHICS
 70
     1
  9
$MEASUREMENT
 70
     1
  9
$CELWEIGHT
370
    -1
  9
$ENDCAPS
280
     0
  9
$JOINSTYLE
280
     0
  9
$LWDISPLAY
290
     0
  9
$INSUNITS
 70
     0
  9
$HYPERLINKBASE
  1

  9
$STYLESHEET
  1

  9
$XEDIT
290
     1
  9
$CEPSNTYPE
380
     0
  9
$PSTYLEMODE
290
     1
  9
$FINGERPRINTGUID
  2
{8ACAE060-96A8-11D3-AA4A-00A0247712C1}
  9
$VERSIONGUID
  2
{20F49A08-3ECE-4771-A9BE-C0F9572D84B8}
  9
$EXTNAMES
290
     1
  9
$PSVPSCALE
 40
0.0
  9
$OLESTARTUP
290
     0
  0
ENDSEC
  0
SECTION
  2
CLASSES
  0
CLASS
  1
ACDBDICTIONARYWDFLT
  2
AcDbDictionaryWithDefault
  3
ObjectDBX Classes
 90
        0
280
     0
281
     0
  0
CLASS
  1
ACDBPLACEHOLDER
  2
AcDbPlaceHolder
  3
ObjectDBX Classes
 90
        0
280
     0
281
     0
  0
CLASS
  1
LAYOUT
  2
AcDbLayout
  3
ObjectDBX Classes
 90
        0
280
     0
281
     0
  0
CLASS
  1
PLOTSETTINGS
  2
AcDbPlotSettings
  3
ObjectDBX Classes
 90
        0
280
     0
281
     0
  0
CLASS
  1
MATERIAL
  2
AcDbMaterial
  3
ObjectDBX Classes
 90
     1153
280
     0
281
     0
  0
CLASS
  1
VISUALSTYLE
  2
AcDbVisualStyle
  3
ObjectDBX Classes
 90
     4095
280
     0
281
     0
  0
CLASS
  1
TABLESTYLE
  2
AcDbTableStyle
  3
ObjectDBX Classes
 90
     4095
280
     0
281
     0
  0
CLASS
  1
SCALE
  2
AcDbScale
  3
ObjectDBX Classes
 90
     1153
280
     0
281
     0
  0
CLASS
  1
MLEADERSTYLE
  2
AcDbMLeaderStyle
  3
ACDB_MLEADERSTYLE_CLASS
 90
     4095
280
     0
281
     0
  0
CLASS
  1
SORTENTSTABLE
  2
AcDbSortentsTable
  3
ObjectDBX Classes
 90
        0
280
     0
281
     0
  0
CLASS
  1
CELLSTYLEMAP
  2
AcDbCellStyleMap
  3
ObjectDBX Classes
 90
     1152
280
     0
281
     0
  0
CLASS
  1
DICTIONARYVAR
  2
AcDbDictionaryVar
  3
ObjectDBX Classes
 90
        0
280
     0
281
     0
  0
ENDSEC
  0
SECTION
  2
TABLES
  0
TABLE
  2
VPORT
  5
8
330
0
100
AcDbSymbolTable
 70
     1
  0
VPORT
  5
1F7E
330
8
100
AcDbSymbolTableRecord
100
AcDbViewportTableRecord
  2
*Active
 70
     0
 10
0.0
 20
0.0
 11
1.0
 21
1.0
 12
201.5124427152113
 22
96.1788241750146
 13
0.0
 23
0.0
 14
168.0
 24
168.0
 15
0.0
 25
0.0
 16
0.0
 26
0.0
 36
1.0
 17
0.0
 27
0.0
 37
0.0
 40
350.3358892985943
 41
1.638095238095238
 42
50.0
 43
0.0
 44
0.0
 50
0.0
 51
0.0
 71
     0
 72
   100
 73
     1
 74
     0
 75
     0
 76
     0
 77
     0
 78
     1
281
     0
 65
     1
110
0.0
120
0.0
130
0.0
111
1.0
121
0.0
131
0.0
112
0.0
122
1.0
132
0.0
 79
     0
146
0.0
  0
ENDTAB
  0
TABLE
  2
LTYPE
  5
5
330
0
100
AcDbSymbolTable
 70
     2
  0
LTYPE
  5
14
330
5
100
AcDbSymbolTableRecord
100
AcDbLinetypeTableRecord
  2
BYBLOCK
 70
     0
  3

 72
    65
 73
     0
 40
0.0
  0
LTYPE
  5
15
330
5
100
AcDbSymbolTableRecord
100
AcDbLinetypeTableRecord
  2
BYLAYER
 70
     0
  3

 72
    65
 73
     0
 40
0.0
  0
LTYPE
  5
16
330
5
100
AcDbSymbolTableRecord
100
AcDbLinetypeTableRecord
  2
CONTINUOUS
 70
     0
  3
Solid line
 72
    65
 73
     0
 40
0.0
  0
ENDTAB
  0
TABLE
  2
LAYER
  5
2
102
{ACAD_XDICTIONARY
360
2086
102
}
330
0
100
AcDbSymbolTable
 70
    19
  0
LAYER
  5
F
102
{ACAD_XDICTIONARY
360
21A9
102
}
330
2
100
AcDbSymbolTableRecord
100
AcDbLayerTableRecord
  2
0
 70
     0
 62
     7
  6
CONTINUOUS
370
    -3
390
2C1
  0
LAYER
  5
71
102
{ACAD_XDICTIONARY
360
21AB
102
}
330
2
100
AcDbSymbolTableRecord
100
AcDbLayerTableRecord
  2
MEASURE
 70
     0
 62
     9
  6
CONTINUOUS
370
    -3
390
2C1
  0
LAYER
  5
72
330
2
100
AcDbSymbolTableRecord
100
AcDbLayerTableRecord
  2
DEFPOINTS
 70
     0
 62
     7
  6
CONTINUOUS
290
     0
370
    -3
390
2C1
  0
ENDTAB
  0
TABLE
  2
STYLE
  5
3
330
0
100
AcDbSymbolTable
 70
     3
  0
STYLE
  5
10
330
3
100
AcDbSymbolTableRecord
100
AcDbTextStyleTableRecord
  2
STANDARD
 70
     0
 40
0.0
 41
0.8
 50
0.0
 71
     0
 42
84.17508417508416
  3
TXT
  4
bigfont.shx
  0
STYLE
  5
63
330
3
100
AcDbSymbolTableRecord
100
AcDbTextStyleTableRecord
  2
AD-STANDARD
 70
     0
 40
0.0
 41
0.8
 50
0.0
 71
     0
 42
3.5
  3
C:\Program Files\AutoCAD LT\romans.shx
  4
bigfont.shx
  0
ENDTAB
  0
TABLE
  2
VIEW
  5
6
330
0
100
AcDbSymbolTable
 70
     3
  0
ENDTAB
  0
TABLE
  2
UCS
  5
7
330
0
100
AcDbSymbolTable
 70
     0
  0
ENDTAB
  0
TABLE
  2
APPID
  5
9
330
0
100
AcDbSymbolTable
 70
     6
  0
APPID
  5
11
330
9
100
AcDbSymbolTableRecord
100
AcDbRegAppTableRecord
  2
ACAD
 70
     0
  0
APPID
  5
22A
330
9
100
AcDbSymbolTableRecord
100
AcDbRegAppTableRecord
  2
CONTENTTABDATA
 70
     0
  0
APPID
  5
22B
330
9
100
AcDbSymbolTableRecord
100
AcDbRegAppTableRecord
  2
CONTENTCURRENTTAB
 70
     0
  0
APPID
  5
232
330
9
100
AcDbSymbolTableRecord
100
AcDbRegAppTableRecord
  2
CONTENTBLOCKDESCRIPTION
 70
     0
  0
APPID
  5
233
330
9
100
AcDbSymbolTableRecord
100
AcDbRegAppTableRecord
  2
CONTENTBLOCKICON
 70
     0
  0
APPID
  5
207A
330
9
100
AcDbSymbolTableRecord
100
AcDbRegAppTableRecord
  2
ACAD_MLEADERVER
 70
     0
  0
ENDTAB
  0
TABLE
  2
DIMSTYLE
  5
A
330
0
100
AcDbSymbolTable
 70
     3
100
AcDbDimStyleTable
 71
     2
340
68
340
1D
  0
DIMSTYLE
105
1D
330
A
100
AcDbSymbolTableRecord
100
AcDbDimStyleTableRecord
  2
STANDARD
 70
     0
340
10
  0
DIMSTYLE
105
68
102
{ACAD_REACTORS
330
17DF
330
17E0
330
17E1
330
1813
330
1D7B
330
2166
102
}
330
A
100
AcDbSymbolTableRecord
100
AcDbDimStyleTableRecord
  2
AD-STANDARD
 70
     0
 41
5.0
 42
2.0
 44
4.0
 73
     0
 74
     0
 77
     1
 78
     8
140
7.0
141
-2.0
147
1.0
172
     1
176
     9
177
     9
178
     2
284
     8
340
63
  0
ENDTAB
  0
TABLE
  2
BLOCK_RECORD
  5
1
330
0
100
AcDbSymbolTable
 70
    21
  0
BLOCK_RECORD
  5
1A
102
{ACAD_XDICTIONARY
360
1FA7
102
}
330
1
100
AcDbSymbolTableRecord
100
AcDbBlockTableRecord
  2
*MODEL_SPACE
340
2C4
  0
BLOCK_RECORD
  5
17
102
{ACAD_XDICTIONARY
360
1FA5
102
}
330
1
100
AcDbSymbolTableRecord
100
AcDbBlockTableRecord
  2
*PAPER_SPACE
340
2C5
  0
BLOCK_RECORD
  5
18F1
330
1
100
AcDbSymbolTableRecord
100
AcDbBlockTableRecord
  2
*D11
340
0
  0
BLOCK_RECORD
  5
18FD
330
1
100
AcDbSymbolTableRecord
100
AcDbBlockTableRecord
  2
*D12
340
0
  0
BLOCK_RECORD
  5
1909
330
1
100
AcDbSymbolTableRecord
100
AcDbBlockTableRecord
  2
*D13
340
0
  0
BLOCK_RECORD
  5
1921
330
1
100
AcDbSymbolTableRecord
100
AcDbBlockTableRecord
  2
*D15
340
0
  0
BLOCK_RECORD
  5
2167
330
1
100
AcDbSymbolTableRecord
100
AcDbBlockTableRecord
  2
*D20
340
0
  0
ENDTAB
  0
ENDSEC
  0
SECTION
  2
BLOCKS
  0
BLOCK
  5
1B
330
1A
100
AcDbEntity
  8
0
100
AcDbBlockBegin
  2
*MODEL_SPACE
 70
     0
 10
0.0
 20
0.0
 30
0.0
  3
*MODEL_SPACE
  1

  0
ENDBLK
  5
1C
330
1A
100
AcDbEntity
  8
0
100
AcDbBlockEnd
  0
BLOCK
  5
18
330
17
100
AcDbEntity
 67
     1
  8
0
100
AcDbBlockBegin
  2
*PAPER_SPACE
 70
     0
 10
0.0
 20
0.0
 30
0.0
  3
*PAPER_SPACE
  1

  0
ENDBLK
  5
19
330
17
100
AcDbEntity
 67
     1
  8
0
100
AcDbBlockEnd
  0
BLOCK
  5
18FB
330
18F1
100
AcDbEntity
  8
0
100
AcDbBlockBegin
  2
*D11
 70
     1
 10
0.0
 20
0.0
 30
0.0
  3
*D11
  1

  0
LINE
  5
20B2
330
18F1
100
AcDbEntity
  8
MEASURE
 62
     9
370
    -2
100
AcDbLine
 10
277.7907835842752
 20
-40.68681971553226
 30
0.0
 11
326.5407835842789
 21
-40.68681971553227
 31
0.0
  0
LINE
  5
20B3
330
18F1
100
AcDbEntity
  8
MEASURE
 62
     9
370
    -2
100
AcDbLine
 10
288.0918190176812
 20
10.31318028446745
 30
0.0
 11
326.5407835842789
 21
10.31318028446744
 31
0.0
  0
LINE
  5
20B4
330
18F1
100
AcDbEntity
  8
MEASURE
 62
     9
370
    -2
100
AcDbLine
 10
322.5407835842789
 20
-35.68681971553227
 30
0.0
 11
322.5407835842789
 21
5.313180284467439
 31
0.0
  0
SOLID
  5
20B5
330
18F1
100
AcDbEntity
  8
MEASURE
 62
     9
100
AcDbTrace
 10
321.7074502509456
 20
-35.68681971553227
 30
0.0
 11
323.3741169176122
 21
-35.68681971553227
 31
0.0
 12
322.5407835842789
 22
-40.68681971553227
 32
0.0
 13
322.5407835842789
 23
-40.68681971553227
 33
0.0
  0
SOLID
  5
20B6
330
18F1
100
AcDbEntity
  8
MEASURE
 62
     9
100
AcDbTrace
 10
321.7074502509456
 20
5.31318028446744
 30
0.0
 11
323.3741169176122
 21
5.313180284467439
 31
0.0
 12
322.5407835842789
 22
10.31318028446744
 32
0.0
 13
322.5407835842789
 23
10.31318028446744
 33
0.0
  0
MTEXT
  5
20B7
330
18F1
100
AcDbEntity
  8
MEASURE
 62
     2
100
AcDbMText
 10
318.0407835842789
 20
-15.18681971553236
 30
0.0
 40
7.0
 41
0.0
 71
     5
 72
     1
  1
\A1;51
  7
AD-STANDARD
 11
0.0000000000000001
 21
1.0
 31
0.0
 73
     1
 44
1.0
1001
ACAD
1000
MTEXTBEGIN
1070
    73
1070
     1
1070
    44
1040
1.0
1070
    74
1070
     0
1000
MTEXTEND
  0
POINT
  5
20B8
330
18F1
100
AcDbEntity
  8
DEFPOINTS
 62
     0
100
AcDbPoint
 10
275.7907835842752
 20
-40.68681971553226
 30
0.0
  0
POINT
  5
20B9
330
18F1
100
AcDbEntity
  8
DEFPOINTS
 62
     0
100
AcDbPoint
 10
286.0918190176812
 20
10.31318028446745
 30
0.0
  0
POINT
  5
20BA
330
18F1
100
AcDbEntity
  8
DEFPOINTS
 62
     0
100
AcDbPoint
 10
322.5407835842789
 20
10.31318028446744
 30
0.0
  0
ENDBLK
  5
18FC
330
18F1
100
AcDbEntity
  8
0
100
AcDbBlockEnd
  0
BLOCK
  5
1907
330
18FD
100
AcDbEntity
  8
0
100
AcDbBlockBegin
  2
*D12
 70
     1
 10
0.0
 20
0.0
 30
0.0
  3
*D12
  1

  0
LINE
  5
20E8
330
18FD
100
AcDbEntity
  8
MEASURE
 62
     9
370
    -2
100
AcDbLine
 10
297.6571331870634
 20
182.9628481506586
 30
0.0
 11
340.5407835842789
 21
182.9628481506586
 31
0.0
  0
LINE
  5
20E9
330
18FD
100
AcDbEntity
  8
MEASURE
 62
     9
370
    -2
100
AcDbLine
 10
297.6571331870644
 20
52.96284815065892
 30
0.0
 11
340.5407835842789
 21
52.9628481506589
 31
0.0
  0
LINE
  5
20EA
330
18FD
100
AcDbEntity
  8
MEASURE
 62
     9
370
    -2
100
AcDbLine
 10
336.5407835842789
 20
177.9628481506586
 30
0.0
 11
336.5407835842789
 21
57.9628481506589
 31
0.0
  0
SOLID
  5
20EB
330
18FD
100
AcDbEntity
  8
MEASURE
 62
     9
100
AcDbTrace
 10
335.7074502509456
 20
177.9628481506586
 30
0.0
 11
337.3741169176122
 21
177.9628481506586
 31
0.0
 12
336.5407835842789
 22
182.9628481506586
 32
0.0
 13
336.5407835842789
 23
182.9628481506586
 33
0.0
  0
SOLID
  5
20EC
330
18FD
100
AcDbEntity
  8
MEASURE
 62
     9
100
AcDbTrace
 10
335.7074502509456
 20
57.96284815065891
 30
0.0
 11
337.3741169176122
 21
57.9628481506589
 31
0.0
 12
336.5407835842789
 22
52.9628481506589
 32
0.0
 13
336.5407835842789
 23
52.9628481506589
 33
0.0
  0
MTEXT
  5
20ED
330
18FD
100
AcDbEntity
  8
MEASURE
 62
     2
100
AcDbMText
 10
332.0407835842789
 20
117.9628481506588
 30
0.0
 40
7.0
 41
0.0
 71
     5
 72
     1
  1
\A1;130
  7
AD-STANDARD
 11
0.0000000000000001
 21
1.0
 31
0.0
 73
     1
 44
1.0
1001
ACAD
1000
MTEXTBEGIN
1070
    73
1070
     1
1070
    44
1040
1.0
1070
    74
1070
     0
1000
MTEXTEND
  0
POINT
  5
20EE
330
18FD
100
AcDbEntity
  8
DEFPOINTS
 62
     0
100
AcDbPoint
 10
295.6571331870634
 20
182.9628481506586
 30
0.0
  0
POINT
  5
20EF
330
18FD
100
AcDbEntity
  8
DEFPOINTS
 62
     0
100
AcDbPoint
 10
295.6571331870644
 20
52.96284815065892
 30
0.0
  0
POINT
  5
20F0
330
18FD
100
AcDbEntity
  8
DEFPOINTS
 62
     0
100
AcDbPoint
 10
336.5407835842789
 20
52.9628481506589
 30
0.0
  0
ENDBLK
  5
1908
330
18FD
100
AcDbEntity
  8
0
100
AcDbBlockEnd
  0
BLOCK
  5
1913
330
1909
100
AcDbEntity
  8
0
100
AcDbBlockBegin
  2
*D13
 70
     1
 10
0.0
 20
0.0
 30
0.0
  3
*D13
  1

  0
LINE
  5
20DF
330
1909
100
AcDbEntity
  8
MEASURE
 62
     9
370
    -2
100
AcDbLine
 10
241.1571331870966
 20
180.9628481506331
 30
0.0
 11
326.5407835842789
 21
180.9628481506331
 31
0.0
  0
LINE
  5
20E0
330
1909
100
AcDbEntity
  8
MEASURE
 62
     9
370
    -2
100
AcDbLine
 10
241.1571331870966
 20
54.96284815063321
 30
0.0
 11
326.5407835842789
 21
54.96284815063319
 31
0.0
  0
LINE
  5
20E1
330
1909
100
AcDbEntity
  8
MEASURE
 62
     9
370
    -2
100
AcDbLine
 10
322.5407835842789
 20
175.9628481506331
 30
0.0
 11
322.5407835842789
 21
59.96284815063319
 31
0.0
  0
SOLID
  5
20E2
330
1909
100
AcDbEntity
  8
MEASURE
 62
     9
100
AcDbTrace
 10
321.7074502509456
 20
175.9628481506331
 30
0.0
 11
323.3741169176123
 21
175.9628481506331
 31
0.0
 12
322.5407835842789
 22
180.9628481506331
 32
0.0
 13
322.5407835842789
 23
180.9628481506331
 33
0.0
  0
SOLID
  5
20E3
330
1909
100
AcDbEntity
  8
MEASURE
 62
     9
100
AcDbTrace
 10
321.7074502509456
 20
59.96284815063319
 30
0.0
 11
323.3741169176122
 21
59.96284815063319
 31
0.0
 12
322.5407835842789
 22
54.96284815063319
 32
0.0
 13
322.5407835842789
 23
54.96284815063319
 33
0.0
  0
MTEXT
  5
20E4
330
1909
100
AcDbEntity
  8
MEASURE
 62
     2
100
AcDbMText
 10
318.0407835842789
 20
117.9628481506332
 30
0.0
 40
7.0
 41
0.0
 71
     5
 72
     1
  1
\A1;126
  7
AD-STANDARD
 11
0.0000000000000001
 21
1.0
 31
0.0
 73
     1
 44
1.0
1001
ACAD
1000
MTEXTBEGIN
1070
    73
1070
     1
1070
    44
1040
1.0
1070
    74
1070
     0
1000
MTEXTEND
  0
POINT
  5
20E5
330
1909
100
AcDbEntity
  8
DEFPOINTS
 62
     0
100
AcDbPoint
 10
239.1571331870967
 20
180.9628481506331
 30
0.0
  0
POINT
  5
20E6
330
1909
100
AcDbEntity
  8
DEFPOINTS
 62
     0
100
AcDbPoint
 10
239.1571331870967
 20
54.96284815063322
 30
0.0
  0
POINT
  5
20E7
330
1909
100
AcDbEntity
  8
DEFPOINTS
 62
     0
100
AcDbPoint
 10
322.5407835842789
 20
54.96284815063319
 30
0.0
  0
ENDBLK
  5
1914
330
1909
100
AcDbEntity
  8
0
100
AcDbBlockEnd
  0
BLOCK
  5
192B
330
1921
100
AcDbEntity
  8
0
100
AcDbBlockBegin
  2
*D15
 70
     1
 10
0.0
 20
0.0
 30
0.0
  3
*D15
  1

  0
LINE
  5
218F
330
1921
100
AcDbEntity
  8
MEASURE
 62
     9
370
    -2
100
AcDbLine
 10
158.1571331870971
 20
119.9628481506332
 30
0.0
 11
158.1571331870971
 21
214.9628481506586
 31
0.0
  0
LINE
  5
2190
330
1921
100
AcDbEntity
  8
MEASURE
 62
     9
370
    -2
100
AcDbLine
 10
288.1571331870971
 20
119.9628481506332
 30
0.0
 11
288.1571331870971
 21
214.9628481506586
 31
0.0
  0
LINE
  5
2191
330
1921
100
AcDbEntity
  8
MEASURE
 62
     9
370
    -2
100
AcDbLine
 10
163.157133187097
 20
210.9628481506586
 30
0.0
 11
283.1571331870971
 21
210.9628481506586
 31
0.0
  0
SOLID
  5
2192
330
1921
100
AcDbEntity
  8
MEASURE
 62
     9
100
AcDbTrace
 10
163.157133187097
 20
211.796181483992
 30
0.0
 11
163.157133187097
 21
210.1295148173253
 31
0.0
 12
158.1571331870971
 22
210.9628481506586
 32
0.0
 13
158.1571331870971
 23
210.9628481506586
 33
0.0
  0
SOLID
  5
2193
330
1921
100
AcDbEntity
  8
MEASURE
 62
     9
100
AcDbTrace
 10
283.1571331870971
 20
211.796181483992
 30
0.0
 11
283.1571331870971
 21
210.1295148173253
 31
0.0
 12
288.1571331870971
 22
210.9628481506586
 32
0.0
 13
288.1571331870971
 23
210.9628481506586
 33
0.0
  0
MTEXT
  5
2194
330
1921
100
AcDbEntity
  8
MEASURE
 62
     2
100
AcDbMText
 10
223.1571331870971
 20
215.4628481506586
 30
0.0
 40
7.0
 41
0.0
 71
     5
 72
     1
  1
\A1;φ130
  7
AD-STANDARD
 73
     1
 44
1.0
1001
ACAD
1000
MTEXTBEGIN
1070
    73
1070
     1
1070
    44
1040
1.0
1070
    74
1070
     0
1000
MTEXTEND
  0
POINT
  5
2195
330
1921
100
AcDbEntity
  8
DEFPOINTS
 62
     0
100
AcDbPoint
 10
158.1571331870971
 20
117.9628481506332
 30
0.0
  0
POINT
  5
2196
330
1921
100
AcDbEntity
  8
DEFPOINTS
 62
     0
100
AcDbPoint
 10
288.1571331870971
 20
117.9628481506332
 30
0.0
  0
POINT
  5
2197
330
1921
100
AcDbEntity
  8
DEFPOINTS
 62
     0
100
AcDbPoint
 10
288.1571331870971
 20
210.9628481506586
 30
0.0
  0
ENDBLK
  5
192C
330
1921
100
AcDbEntity
  8
0
100
AcDbBlockEnd
  0
BLOCK
  5
2168
330
2167
100
AcDbEntity
  8
0
100
AcDbBlockBegin
  2
*D20
 70
     1
 10
0.0
 20
0.0
 30
0.0
  3
*D20
  1

  0
LINE
  5
2198
330
2167
100
AcDbEntity
  8
MEASURE
 62
     9
370
    -2
100
AcDbLine
 10
103.6571331870652
 20
169.056846365057
 30
0.0
 11
103.6571331870652
 21
228.9628481506586
 31
0.0
  0
LINE
  5
2199
330
2167
100
AcDbEntity
  8
MEASURE
 62
     9
370
    -2
100
AcDbLine
 10
295.6571331870634
 20
184.9628481506586
 30
0.0
 11
295.6571331870634
 21
228.9628481506586
 31
0.0
  0
LINE
  5
219A
330
2167
100
AcDbEntity
  8
MEASURE
 62
     9
370
    -2
100
AcDbLine
 10
108.6571331870652
 20
224.9628481506587
 30
0.0
 11
290.6571331870635
 21
224.9628481506587
 31
0.0
  0
SOLID
  5
219B
330
2167
100
AcDbEntity
  8
MEASURE
 62
     9
100
AcDbTrace
 10
108.6571331870652
 20
225.796181483992
 30
0.0
 11
108.6571331870652
 21
224.1295148173253
 31
0.0
 12
103.6571331870652
 22
224.9628481506587
 32
0.0
 13
103.6571331870652
 23
224.9628481506587
 33
0.0
  0
SOLID
  5
219C
330
2167
100
AcDbEntity
  8
MEASURE
 62
     9
100
AcDbTrace
 10
290.6571331870635
 20
225.796181483992
 30
0.0
 11
290.6571331870635
 21
224.1295148173253
 31
0.0
 12
295.6571331870634
 22
224.9628481506587
 32
0.0
 13
295.6571331870634
 23
224.9628481506587
 33
0.0
  0
MTEXT
  5
219D
330
2167
100
AcDbEntity
  8
MEASURE
 62
     2
100
AcDbMText
 10
199.6571331870643
 20
229.4628481506586
 30
0.0
 40
7.0
 41
0.0
 71
     5
 72
     1
  1
\A1;192
  7
AD-STANDARD
 73
     1
 44
1.0
1001
ACAD
1000
MTEXTBEGIN
1070
    73
1070
     1
1070
    44
1040
1.0
1070
    74
1070
     0
1000
MTEXTEND
  0
POINT
  5
219E
330
2167
100
AcDbEntity
  8
DEFPOINTS
 62
     0
100
AcDbPoint
 10
103.6571331870652
 20
167.056846365057
 30
0.0
  0
POINT
  5
219F
330
2167
100
AcDbEntity
  8
DEFPOINTS
 62
     0
100
AcDbPoint
 10
295.6571331870634
 20
182.9628481506586
 30
0.0
  0
POINT
  5
21A0
330
2167
100
AcDbEntity
  8
DEFPOINTS
 62
     0
100
AcDbPoint
 10
295.6571331870634
 20
224.9628481506587
 30
0.0
  0
ENDBLK
  5
2169
330
2167
100
AcDbEntity
  8
0
100
AcDbBlockEnd
  0
ENDSEC
  0
SECTION
  2
ENTITIES
  0
MTEXT
  5
3AD
330
1A
100
AcDbEntity
  8
0
100
AcDbMText
 10
115.2929324332508
 20
130.8759996587505
 30
0.0
 40
3.5
 41
45.7425
 71
     1
 72
     5
  1

  7
AD-STANDARD
 73
     1
 44
1.0
1001
ACAD
1000
MTEXTBEGIN
1070
    73
1070
     1
1070
    44
1040
1.0
1070
    74
1070
     0
1000
MTEXTEND
  0
ELLIPSE
  5
17DB
330
1A
100
AcDbEntity
  8
0
100
AcDbEllipse
 10
124.0480332528038
 20
76.44850562255564
 30
0.0
 11
2.458780928473939
 21
-9.176295349746148
 31
0.0
210
0.0
220
0.0
230
1.0
 40
0.7894736842105265
 41
0.0
 42
6.283185307179581
  0
ELLIPSE
  5
17DC
330
1A
100
AcDbEntity
  8
0
100
AcDbEllipse
 10
144.048033252802
 20
76.44850562255564
 30
0.0
 11
2.070552360820159
 21
-7.727406610312548
 31
0.0
210
0.0
220
0.0
230
1.0
 40
0.75
 41
0.0
 42
6.283185307179586
  0
ELLIPSE
  5
17DD
330
1A
100
AcDbEntity
  8
0
100
AcDbEllipse
 10
134.0480332528029
 20
91.44850562255564
 30
0.0
 11
1.941142838268898
 21
-7.244443697168014
 31
0.0
210
0.0
220
0.0
230
1.0
 40
0.7333333333333333
 41
0.0
 42
6.283185307179586
  0
DIMENSION
  5
17DF
330
1A
100
AcDbEntity
  8
MEASURE
100
AcDbDimension
  2
*D11
 10
322.5407835842789
 20
10.31318028446744
 30
0.0
 11
318.0407835842789
 21
-15.18681971553236
 31
0.0
 70
    32
 71
     5
 42
50.99999999999972
  3
AD-STANDARD
100
AcDbAlignedDimension
 13
275.7907835842752
 23
-40.68681971553226
 33
0.0
 14
286.0918190176812
 24
10.31318028446745
 34
0.0
 50
90.0
100
AcDbRotatedDimension
  0
DIMENSION
  5
17E0
330
1A
100
AcDbEntity
  8
MEASURE
100
AcDbDimension
  2
*D12
 10
336.5407835842789
 20
52.9628481506589
 30
0.0
 11
332.0407835842789
 21
117.9628481506588
 31
0.0
 70
    32
 71
     5
 42
129.9999999999997
  3
AD-STANDARD
100
AcDbAlignedDimension
 13
295.6571331870634
 23
182.9628481506586
 33
0.0
 14
295.6571331870644
 24
52.96284815065892
 34
0.0
 50
90.0
100
AcDbRotatedDimension
  0
DIMENSION
  5
17E1
330
1A
100
AcDbEntity
  8
MEASURE
100
AcDbDimension
  2
*D13
 10
322.5407835842789
 20
54.96284815063319
 30
0.0
 11
318.0407835842789
 21
117.9628481506332
 31
0.0
 70
    32
 71
     5
 42
125.9999999999999
  3
AD-STANDARD
100
AcDbAlignedDimension
 13
239.1571331870967
 23
180.9628481506331
 33
0.0
 14
239.1571331870967
 24
54.96284815063322
 34
0.0
 50
90.0
100
AcDbRotatedDimension
  0
ARC
  5
17E2
330
1A
100
AcDbEntity
  8
0
100
AcDbCircle
 10
231.7907357370789
 20
117.962848150659
 30
0.0
 40
75.0
100
AcDbArc
 50
141.3481781287934
 51
218.6518218712065
  0
LINE
  5
17E3
330
1A
100
AcDbEntity
  8
0
100
AcDbLine
 10
123.7851101535395
 20
104.212848150659
 30
0.0
 11
123.7851101535395
 21
162.2128481506591
 31
0.0
  0
LINE
  5
17E4
330
1A
100
AcDbEntity
  8
0
100
AcDbLine
 10
146.2851101535395
 20
104.212848150659
 30
0.0
 11
146.2851101535395
 21
162.2128481506591
 31
0.0
  0
LINE
  5
17E5
330
1A
100
AcDbEntity
  8
0
100
AcDbLine
 10
126.7851101535395
 20
105.712848150659
 30
0.0
 11
126.7851101535395
 21
160.7128481506591
 31
0.0
  0
LINE
  5
17E6
330
1A
100
AcDbEntity
  8
0
100
AcDbLine
 10
143.2851101535395
 20
105.712848150659
 30
0.0
 11
143.2851101535395
 21
160.7128481506591
 31
0.0
  0
LINE
  5
17E8
330
1A
100
AcDbEntity
  8
0
100
AcDbLine
 10
295.6571331870644
 20
52.96284815065892
 30
0.0
 11
295.6571331870634
 21
182.9628481506586
 31
0.0
  0
LINE
  5
17E9
330
1A
100
AcDbEntity
  8
0
100
AcDbLine
 10
109.1571331870643
 20
71.37323266671192
 30
0.0
 11
109.1571331870648
 21
164.5524636346061
 31
0.0
  0
LINE
  5
17EA
330
1A
100
AcDbEntity
  8
0
100
AcDbLine
 10
103.6571331870652
 20
167.0568463650568
 30
0.0
 11
103.6571331870634
 21
68.86884993626117
 31
0.0
  0
LINE
  5
17EF
330
1A
100
AcDbEntity
  8
0
100
AcDbLine
 10
109.0407835842797
 20
-38.68681971553227
 30
0.0
 11
158.7470831874761
 21
-38.68681971553227
 31
0.0
  0
LINE
  5
17F0
330
1A
100
AcDbEntity
  8
0
100
AcDbLine
 10
107.2601417130281
 20
-12.83925582515329
 30
0.0
 11
148.9709213997148
 21
-3.209563568451159
 31
0.0
  0
LINE
  5
17F1
330
1A
100
AcDbEntity
  8
0
100
AcDbLine
 10
142.7851101535395
 20
105.212848150659
 30
0.0
 11
127.2851101535395
 21
105.212848150659
 31
0.0
  0
LINE
  5
17F2
330
1A
100
AcDbEntity
  8
0
100
AcDbLine
 10
144.2851101535396
 20
102.212848150659
 30
0.0
 11
125.7851101535395
 21
102.212848150659
 31
0.0
  0
ARC
  5
17F3
330
1A
100
AcDbEntity
  8
0
100
AcDbCircle
 10
153.6571331870657
 20
302.9628481506532
 30
0.0
 40
245.0
100
AcDbArc
 50
261.7691181067092
 51
270.0
  0
ARC
  5
17F4
330
1A
100
AcDbEntity
  8
0
100
AcDbCircle
 10
153.6571331870657
 20
302.9628481506532
 30
0.0
 40
250.0
100
AcDbArc
 50
261.0183493430483
 51
270.0
  0
ARC
  5
17F5
330
1A
100
AcDbEntity
  8
0
100
AcDbCircle
 10
117.7907707573522
 20
-39.6853498953133
 30
0.0
 40
1.0
100
AcDbArc
 50
270.0
 51
0.0
  0
LINE
  5
17F6
330
1A
100
AcDbEntity
  8
0
100
AcDbLine
 10
110.2907707573522
 20
-40.68534989531329
 30
0.0
 11
117.7907707573522
 21
-40.68534989531329
 31
0.0
  0
LINE
  5
17F7
330
1A
100
AcDbEntity
  8
0
100
AcDbLine
 10
118.7907707573522
 20
-38.6853498953133
 30
0.0
 11
118.7907707573522
 21
-39.6853498953133
 31
0.0
  0
LINE
  5
17F8
330
1A
100
AcDbEntity
  8
0
100
AcDbLine
 10
109.2907707573522
 20
-38.6853498953133
 30
0.0
 11
109.2907707573522
 21
-39.6853498953133
 31
0.0
  0
ARC
  5
17F9
330
1A
100
AcDbEntity
  8
0
100
AcDbCircle
 10
110.2907707573522
 20
-39.6853498953133
 30
0.0
 40
1.0
100
AcDbArc
 50
180.0
 51
270.0
  0
LINE
  5
17FA
330
1A
100
AcDbEntity
  8
0
100
AcDbLine
 10
137.340783584274
 20
-39.18681971553204
 30
0.0
 11
126.7407835842746
 21
-39.18681971553204
 31
0.0
  0
LINE
  5
17FB
330
1A
100
AcDbEntity
  8
0
100
AcDbLine
 10
137.340783584274
 20
-39.18681971553204
 30
0.0
 11
137.3407835842745
 21
-38.68681971553204
 31
0.0
  0
LINE
  5
17FC
330
1A
100
AcDbEntity
  8
0
100
AcDbLine
 10
126.7407835842746
 20
-39.18681971553204
 30
0.0
 11
126.7407835842746
 21
-38.68681971553204
 31
0.0
  0
LINE
  5
17FD
330
1A
100
AcDbEntity
  8
0
100
AcDbLine
 10
137.340783584274
 20
-39.18681971553295
 30
0.0
 11
126.7407835842746
 21
-39.18681971553295
 31
0.0
  0
LINE
  5
17FE
330
1A
100
AcDbEntity
  8
0
100
AcDbLine
 10
137.340783584274
 20
-39.18681971553295
 30
0.0
 11
137.3407835842749
 21
-38.68681971553249
 31
0.0
  0
LINE
  5
17FF
330
1A
100
AcDbEntity
  8
0
100
AcDbLine
 10
126.7407835842746
 20
-39.18681971553295
 30
0.0
 11
126.7407835842746
 21
-38.68681971553249
 31
0.0
  0
ARC
  5
1800
330
1A
100
AcDbEntity
  8
0
100
AcDbCircle
 10
108.3848969847472
 20
-17.7111061490796
 30
0.0
 40
5.0
100
AcDbArc
 50
102.9999999999974
 51
176.9999999999944
  0
LINE
  5
1801
330
1A
100
AcDbEntity
  8
0
100
AcDbLine
 10
102.5407835842784
 20
-33.68681971553227
 30
0.0
 11
115.5407835842784
 21
-38.68681971553227
 31
0.0
  0
LINE
  5
1802
330
1A
100
AcDbEntity
  8
0
100
AcDbLine
 10
109.0407835842797
 20
-38.68681971553249
 30
0.0
 11
109.0407835842807
 21
-36.18681971553295
 31
0.0
  0
LINE
  5
1803
330
1A
100
AcDbEntity
  8
0
100
AcDbLine
 10
103.3917493109743
 20
-17.44942636786484
 30
0.0
 11
102.5407835842784
 21
-33.68681971553227
 31
0.0
  0
ARC
  5
1807
330
1A
100
AcDbEntity
  8
0
100
AcDbCircle
 10
116.6571331870652
 20
68.86884993626072
 30
0.0
 40
13.0
100
AcDbArc
 50
180.0
 51
261.0183493430483
  0
ARC
  5
180F
330
1A
100
AcDbEntity
  8
0
100
AcDbCircle
 10
120.1571331870643
 20
71.37323266671192
 30
0.0
 40
11.0
100
AcDbArc
 50
180.0
 51
261.7691181067092
  0
ARC
  5
1811
330
1A
100
AcDbEntity
  8
0
100
AcDbCircle
 10
127.2851101535395
 20
105.7128481506589
 30
0.0
 40
0.5
100
AcDbArc
 50
180.0
 51
270.0
  0
ARC
  5
1812
330
1A
100
AcDbEntity
  8
0
100
AcDbCircle
 10
125.7851101535395
 20
104.2128481506589
 30
0.0
 40
2.0
100
AcDbArc
 50
180.0
 51
270.0
  0
DIMENSION
  5
1813
330
1A
100
AcDbEntity
  8
MEASURE
100
AcDbDimension
  2
*D15
 10
288.1571331870971
 20
210.9628481506586
 30
0.0
 11
223.1571331870971
 21
215.4628481506586
 31
0.0
 70
    32
  1
φ<>
 71
     5
 42
130.0
  3
AD-STANDARD
100
AcDbAlignedDimension
 13
158.1571331870971
 23
117.9628481506332
 33
0.0
 14
288.1571331870971
 24
117.9628481506332
 34
0.0
100
AcDbRotatedDimension
  0
LINE
  5
1814
330
1A
100
AcDbEntity
  8
0
100
AcDbLine
 10
219.0407835842811
 20
9.313180284467506
 30
0.0
 11
206.0407835842811
 21
10.3131802844675
 31
0.0
  0
LINE
  5
1815
330
1A
100
AcDbEntity
  8
0
100
AcDbLine
 10
222.040783584373
 20
2.313180284466199
 30
0.0
 11
156.6215213501314
 21
2.313180284467506
 31
0.0
  0
LINE
  5
1816
330
1A
100
AcDbEntity
  8
0
100
AcDbLine
 10
252.6161772875485
 20
-36.98490007673175
 30
0.0
 11
211.0407835842789
 21
-36.62537378864048
 31
0.0
  0
ARC
  5
1817
330
1A
100
AcDbEntity
  8
0
100
AcDbCircle
 10
209.5407835842789
 20
-250.686819715532
 30
0.0
 40
218.0
100
AcDbArc
 50
76.52632208309376
 51
103.4736779169062
  0
ARC
  5
1818
330
1A
100
AcDbEntity
  8
0
100
AcDbCircle
 10
206.2907835842752
 20
601.8829348990339
 30
0.0
 40
602.4989869810249
100
AcDbArc
 50
268.5020533536029
 51
274.497946646412
  0
LINE
  5
1819
330
1A
100
AcDbEntity
  8
0
100
AcDbLine
 10
151.0580495130948
 20
-2.944047336452769
 30
0.0
 11
294.5407835842789
 21
0.8131802844677338
 31
0.0
  0
LINE
  5
181A
330
1A
100
AcDbEntity
  8
0
100
AcDbLine
 10
190.5407835842789
 20
1.813180284466369
 30
0.0
 11
253.5407835842789
 21
1.813180284466369
 31
0.0
  0
LINE
  5
181B
330
1A
100
AcDbEntity
  8
0
100
AcDbLine
 10
158.7470831875184
 20
-38.68681971552232
 30
0.0
 11
182.839813617315
 21
-38.68681971553158
 31
0.0
  0
LINE
  5
181C
330
1A
100
AcDbEntity
  8
0
100
AcDbLine
 10
191.5679469086276
 20
-36.83460338780813
 30
0.0
 11
189.541153042016
 21
-36.45763306766665
 31
0.0
  0
LINE
  5
181D
330
1A
100
AcDbEntity
  8
0
100
AcDbLine
 10
191.5679469086276
 20
-36.83460338780813
 30
0.0
 11
191.6289954481617
 21
-37.83273818622936
 31
0.0
  0
LINE
  5
181E
330
1A
100
AcDbEntity
  8
0
100
AcDbLine
 10
179.0407835842784
 20
-34.83096503468264
 30
0.0
 11
179.0407835842784
 21
-36.68681971553204
 31
0.0
  0
LINE
  5
181F
330
1A
100
AcDbEntity
  8
0
100
AcDbLine
 10
179.0407835842779
 20
-35.18681971553204
 30
0.0
 11
181.2398136173165
 21
-35.18681971553159
 31
0.0
  0
LINE
  5
1820
330
1A
100
AcDbEntity
  8
0
100
AcDbLine
 10
187.2346278659215
 20
-36.59870619087931
 30
0.0
 11
189.5411530420156
 21
-36.45763306766665
 31
0.0
  0
LINE
  5
1821
330
1A
100
AcDbEntity
  8
0
 48
0.5
100
AcDbLine
 10
181.2398136173165
 20
-35.18681971553164
 30
0.0
 11
181.3473583107547
 21
-34.51760180663038
 31
0.0
  0
LINE
  5
1822
330
1A
100
AcDbEntity
  8
0
100
AcDbLine
 10
185.839813617315
 20
-38.18681971553159
 30
0.0
 11
191.6289954481617
 21
-37.83273818622936
 31
0.0
  0
LINE
  5
1823
330
1A
100
AcDbEntity
  8
0
100
AcDbLine
 10
187.234627865922
 20
-36.59870619087977
 30
0.0
 11
189.5411530420156
 21
-36.4576330676671
 31
0.0
  0
LINE
  5
1824
330
1A
100
AcDbEntity
  8
0
100
AcDbLine
 10
191.5679469086281
 20
-36.83460338780859
 30
0.0
 11
191.6289954481622
 21
-37.83273818622982
 31
0.0
  0
LINE
  5
1825
330
1A
100
AcDbEntity
  8
0
100
AcDbLine
 10
191.5679469086281
 20
-36.83460338780859
 30
0.0
 11
189.5411530420165
 21
-36.4576330676671
 31
0.0
  0
LINE
  5
1826
330
1A
100
AcDbEntity
  8
0
100
AcDbLine
 10
187.234627865922
 20
-36.59870619087977
 30
0.0
 11
186.7533547432817
 21
-33.88107005280628
 31
0.0
  0
LINE
  5
1827
330
1A
100
AcDbEntity
  8
0
100
AcDbLine
 10
179.0407835842784
 20
-34.83096503468264
 30
0.0
 11
179.0407835842784
 21
-37.68681971553249
 31
0.0
  0
LINE
  5
1828
330
1A
100
AcDbEntity
  8
0
100
AcDbLine
 10
179.0407835842784
 20
-35.18681971553249
 30
0.0
 11
181.1713564408169
 21
-35.18681971553249
 31
0.0
  0
LINE
  5
1829
330
1A
100
AcDbEntity
  8
0
100
AcDbLine
 10
185.839813617315
 20
-38.1868197155325
 30
0.0
 11
191.6289954481622
 21
-37.83273818622982
 31
0.0
  0
LINE
  5
182A
330
1A
100
AcDbEntity
  8
0
100
AcDbLine
 10
185.839813617315
 20
-38.1868197155325
 30
0.0
 11
185.3396843304663
 21
-34.03431731847431
 31
0.0
  0
LINE
  5
182B
330
1A
100
AcDbEntity
  8
0
100
AcDbLine
 10
182.839813617315
 20
-38.68681971553272
 30
0.0
 11
183.1300261602527
 21
-34.29256865444384
 31
0.0
  0
ARC
  5
182C
330
1A
100
AcDbEntity
  8
0
100
AcDbCircle
 10
178.0407835842784
 20
-37.68681971553249
 30
0.0
 40
1.0
100
AcDbArc
 50
270.0
 51
0.0
  0
LINE
  5
182D
330
1A
100
AcDbEntity
  8
0
100
AcDbLine
 10
202.5179688645853
 20
-32.79996817691156
 30
0.0
 11
211.0407835842789
 21
-36.62537378864048
 31
0.0
  0
LINE
  5
182E
330
1A
100
AcDbEntity
  8
0
100
AcDbLine
 10
189.0407835842788
 20
-34.986819715532
 30
0.0
 11
190.2055203747559
 21
-33.54597234540122
 31
0.0
  0
LINE
  5
182F
330
1A
100
AcDbEntity
  8
0
100
AcDbLine
 10
189.0407835842793
 20
-33.65283620142875
 30
0.0
 11
189.0407835842793
 21
-35.986819715532
 31
0.0
  0
LINE
  5
1830
330
1A
100
AcDbEntity
  8
0
100
AcDbLine
 10
187.0407835842797
 20
-33.85105237075098
 30
0.0
 11
187.0407835842797
 21
-35.986819715532
 31
0.0
  0
LINE
  5
1831
330
1A
100
AcDbEntity
  8
0
100
AcDbLine
 10
187.0407835842788
 20
-35.986819715532
 30
0.0
 11
189.0407835842788
 21
-35.986819715532
 31
0.0
  0
LINE
  5
1832
330
1A
100
AcDbEntity
  8
0
100
AcDbLine
 10
187.0407835842884
 20
-35.98681971553268
 30
0.0
 11
187.0407835842884
 21
-34.98681971553267
 31
0.0
  0
LINE
  5
1833
330
1A
100
AcDbEntity
  8
0
100
AcDbLine
 10
206.0407835842811
 20
10.3131802844675
 30
0.0
 11
157.9897481511102
 21
10.3131802844675
 31
0.0
  0
LINE
  5
1834
330
1A
100
AcDbEntity
  8
0
100
AcDbLine
 10
190.5407835842793
 20
-0.4101555587276664
 30
0.0
 11
160.2407835842782
 21
-1.203588982273942
 31
0.0
  0
LINE
  5
1835
330
1A
100
AcDbEntity
  8
0
100
AcDbLine
 10
160.2407835842787
 20
-1.203588982273942
 30
0.0
 11
208.2892822189133
 21
-1.445394765510201
 31
0.0
  0
LINE
  5
1836
330
1A
100
AcDbEntity
  8
0
100
AcDbLine
 10
156.6215213501314
 20
2.313180284467506
 30
0.0
 11
156.9911186163558
 21
9.365516240710547
 31
0.0
  0
ARC
  5
1837
330
1A
100
AcDbEntity
  8
0
100
AcDbCircle
 10
157.9897481511102
 20
9.313180284467506
 30
0.0
 40
1.0
100
AcDbArc
 50
90.0
 51
176.9999999999944
  0
ARC
  5
1838
330
1A
100
AcDbEntity
  8
0
100
AcDbCircle
 10
151.3329074703256
 20
-13.44044924869607
 30
0.0
 40
10.5
100
AcDbArc
 50
91.49999999998966
 51
102.9999999999974
  0
LINE
  5
1839
330
1A
100
AcDbEntity
  8
0
100
AcDbLine
 10
158.7407835842787
 20
-2.742867864627697
 30
0.0
 11
160.2407835842787
 21
-1.203588982273942
 31
0.0
  0
ARC
  5
183A
330
1A
100
AcDbEntity
  8
0
100
AcDbCircle
 10
214.6407835842797
 20
7.813180284467506
 30
0.0
 40
6.0
100
AcDbArc
 50
246.4435356909162
 51
270.0
  0
LINE
  5
183B
330
1A
100
AcDbEntity
  8
0
100
AcDbLine
 10
214.640783584397
 20
1.813180284467506
 30
0.0
 11
216.5407835843957
 21
1.813180284467506
 31
0.0
  0
LINE
  5
183C
330
1A
100
AcDbEntity
  8
0
100
AcDbLine
 10
199.399703728327
 20
1.313180284467279
 30
0.0
 11
199.3997037283275
 21
-0.5766424433636815
 31
0.0
  0
LINE
  5
183D
330
1A
100
AcDbEntity
  8
0
100
AcDbLine
 10
200.1341362254275
 20
1.313180284467279
 30
0.0
 11
200.1341362254275
 21
-0.5845953517341798
 31
0.0
  0
LINE
  5
183E
330
1A
100
AcDbEntity
  8
0
100
AcDbLine
 10
190.5407835842789
 20
1.813180284467279
 30
0.0
 11
190.5407835842784
 21
-0.4101555587276664
 31
0.0
  0
LINE
  5
183F
330
1A
100
AcDbEntity
  8
0
100
AcDbLine
 10
190.9144223540888
 20
1.313180284467279
 30
0.0
 11
190.9144223540888
 21
-0.4198102619689337
 31
0.0
  0
LINE
  5
1840
330
1A
100
AcDbEntity
  8
0
100
AcDbLine
 10
185.7907835842634
 20
1.813180284467279
 30
0.0
 11
185.7907835842616
 21
-0.5345386861818327
 31
0.0
  0
LINE
  5
1841
330
1A
100
AcDbEntity
  8
0
100
AcDbLine
 10
183.2907835842634
 20
1.813180284467279
 30
0.0
 11
183.2907835842643
 21
-0.6000034901044558
 31
0.0
  0
LINE
  5
1842
330
1A
100
AcDbEntity
  8
0
100
AcDbLine
 10
184.0407835842634
 20
1.813180284467279
 30
0.0
 11
184.0407835842625
 21
-0.5803640489275779
 31
0.0
  0
LINE
  5
1843
330
1A
100
AcDbEntity
  8
0
100
AcDbLine
 10
185.0407835842634
 20
1.813180284467279
 30
0.0
 11
185.0407835842634
 21
-0.5541781273587106
 31
0.0
  0
LINE
  5
1844
330
1A
100
AcDbEntity
  8
0
100
AcDbLine
 10
183.2907835842634
 20
1.813180284467279
 30
0.0
 11
185.7907835842634
 21
1.813180284467279
 31
0.0
  0
ARC
  5
1845
330
1A
100
AcDbEntity
  8
0
100
AcDbCircle
 10
191.4144223540888
 20
1.313180284467279
 30
0.0
 40
0.5
100
AcDbArc
 50
90.0
 51
180.0
  0
LINE
  5
1846
330
1A
100
AcDbEntity
  8
0
100
AcDbLine
 10
294.5407835842789
 20
2.313180284467733
 30
0.0
 11
294.5407835842789
 21
-38.68681971553227
 31
0.0
  0
ARC
  5
1847
330
1A
100
AcDbEntity
  8
0
100
AcDbCircle
 10
267.2907835842752
 20
-40.18681971553227
 30
0.0
 40
0.5
100
AcDbArc
 50
180.0
 51
270.0
  0
LINE
  5
1848
330
1A
100
AcDbEntity
  8
0
100
AcDbLine
 10
266.7907835842752
 20
-38.68681971553227
 30
0.0
 11
266.7907835842752
 21
-40.18681971553227
 31
0.0
  0
ARC
  5
1849
330
1A
100
AcDbEntity
  8
0
100
AcDbCircle
 10
275.7907835842752
 20
-40.18681971553227
 30
0.0
 40
0.5
100
AcDbArc
 50
270.0
 51
0.0
  0
LINE
  5
184A
330
1A
100
AcDbEntity
  8
0
100
AcDbLine
 10
267.2907835842752
 20
-40.68681971553226
 30
0.0
 11
275.7907835842752
 21
-40.68681971553226
 31
0.0
  0
LINE
  5
184B
330
1A
100
AcDbEntity
  8
0
100
AcDbLine
 10
276.2907835842753
 20
-38.68681971553227
 30
0.0
 11
276.2907835842753
 21
-40.18681971553227
 31
0.0
  0
LINE
  5
184C
330
1A
100
AcDbEntity
  8
0
100
AcDbLine
 10
283.4407835842794
 20
-39.18681971553226
 30
0.0
 11
294.0407835842798
 21
-39.18681971553226
 31
0.0
  0
LINE
  5
184D
330
1A
100
AcDbEntity
  8
0
100
AcDbLine
 10
283.4407835842794
 20
-38.68681971553227
 30
0.0
 11
282.9407835842794
 21
-38.68681971553227
 31
0.0
  0
LINE
  5
184E
330
1A
100
AcDbEntity
  8
0
100
AcDbLine
 10
283.4407835842794
 20
-38.68681971553227
 30
0.0
 11
283.4407835842794
 21
-39.18681971553226
 31
0.0
  0
LINE
  5
184F
330
1A
100
AcDbEntity
  8
0
100
AcDbLine
 10
294.0407835842798
 20
-38.68681971553227
 30
0.0
 11
294.0407835842798
 21
-39.18681971553226
 31
0.0
  0
LINE
  5
1850
330
1A
100
AcDbEntity
  8
0
100
AcDbLine
 10
260.3344839810806
 20
-38.68681971553227
 30
0.0
 11
294.540783584278
 21
-38.68681971553227
 31
0.0
  0
LINE
  5
1851
330
1A
100
AcDbEntity
  8
0
100
AcDbLine
 10
222.0407835843748
 20
2.313180284466142
 30
0.0
 11
287.3290263704525
 21
4.813180284466824
 31
0.0
  0
LINE
  5
1852
330
1A
100
AcDbEntity
  8
0
100
AcDbLine
 10
286.0918190176812
 20
10.3131802844675
 30
0.0
 11
238.0407835842829
 21
10.3131802844675
 31
0.0
  0
LINE
  5
1853
330
1A
100
AcDbEntity
  8
0
100
AcDbLine
 10
294.5407835842789
 20
2.313180284467733
 30
0.0
 11
253.5407835842789
 21
1.239557500130985
 31
0.0
  0
ARC
  5
1854
330
1A
100
AcDbEntity
  8
0
100
AcDbCircle
 10
229.4407835843954
 20
7.813180284467506
 30
0.0
 40
6.0
100
AcDbArc
 50
269.9999999988796
 51
301.8729904264674
  0
LINE
  5
1855
330
1A
100
AcDbEntity
  8
0
100
AcDbLine
 10
226.5407835843957
 20
1.813180284467506
 30
0.0
 11
229.4407835843954
 21
1.813180284467506
 31
0.0
  0
LINE
  5
1856
330
1A
100
AcDbEntity
  8
0
100
AcDbLine
 10
249.5407835843957
 20
2.313180284467506
 30
0.0
 11
248.5407835843948
 21
2.313180284467506
 31
0.0
  0
LINE
  5
1857
330
1A
100
AcDbEntity
  8
0
100
AcDbLine
 10
248.5407835843944
 20
3.327911224876658
 30
0.0
 11
248.5407835843948
 21
2.313180284467279
 31
0.0
  0
LINE
  5
1858
330
1A
100
AcDbEntity
  8
0
100
AcDbLine
 10
249.5407835843957
 20
3.366202958477089
 30
0.0
 11
249.5407835843957
 21
2.313180284467506
 31
0.0
  0
LINE
  5
1859
330
1A
100
AcDbEntity
  8
0
100
AcDbLine
 10
222.5407835843957
 20
1.813180284467051
 30
0.0
 11
225.5407835843957
 21
1.813180284467506
 31
0.0
  0
LINE
  5
185A
330
1A
100
AcDbEntity
  8
0
100
AcDbLine
 10
217.5407835843957
 20
1.813180284467961
 30
0.0
 11
221.5407835843966
 21
1.813180284467506
 31
0.0
  0
LINE
  5
185B
330
1A
100
AcDbEntity
  8
0
100
AcDbLine
 10
219.0407835842811
 20
9.313180284467506
 30
0.0
 11
225.0407835842811
 21
9.313180284467506
 31
0.0
  0
LINE
  5
185C
330
1A
100
AcDbEntity
  8
0
100
AcDbLine
 10
225.0407835842811
 20
9.313180284467506
 30
0.0
 11
238.0407835842811
 21
10.3131802844675
 31
0.0
  0
ARC
  5
185D
330
1A
100
AcDbEntity
  8
0
100
AcDbCircle
 10
245.1818634401889
 20
1.313180284466369
 30
0.0
 40
0.5
100
AcDbArc
 50
90.0
 51
179.999999999987
  0
LINE
  5
185E
330
1A
100
AcDbEntity
  8
0
100
AcDbLine
 10
244.6818634401889
 20
1.313180284466369
 30
0.0
 11
244.6818634401889
 21
0.6083268365796073
 31
0.0
  0
ARC
  5
185F
330
1A
100
AcDbEntity
  8
0
100
AcDbCircle
 10
244.4474309430893
 20
1.313180284466369
 30
0.0
 40
0.5
100
AcDbArc
 50
90.0
 51
180.0
  0
LINE
  5
1860
330
1A
100
AcDbEntity
  8
0
100
AcDbLine
 10
243.9474309430893
 20
1.313180284466369
 30
0.0
 11
243.9474309430889
 21
0.5618840261617777
 31
0.0
  0
ARC
  5
1861
330
1A
100
AcDbEntity
  8
0
100
AcDbCircle
 10
252.667144814428
 20
1.313180284466369
 30
0.0
 40
0.5
100
AcDbArc
 50
0.0
 51
90.0
  0
LINE
  5
1862
330
1A
100
AcDbEntity
  8
0
100
AcDbLine
 10
253.167144814428
 20
1.313180284466369
 30
0.0
 11
253.1671448144275
 21
1.210281891606399
 31
0.0
  0
LINE
  5
1863
330
1A
100
AcDbEntity
  8
0
100
AcDbLine
 10
253.5407835842789
 20
1.813180284466369
 30
0.0
 11
253.5407835842789
 21
1.239557500131212
 31
0.0
  0
LINE
  5
1864
330
1A
100
AcDbEntity
  8
0
100
AcDbLine
 10
217.0407835842716
 20
1.313180284467279
 30
0.0
 11
217.0407835842716
 21
-0.5201417972603224
 31
0.0
  0
ARC
  5
1865
330
1A
100
AcDbEntity
  8
0
100
AcDbCircle
 10
217.5407835842716
 20
1.313180284467279
 30
0.0
 40
0.5
100
AcDbArc
 50
90.0
 51
180.0
  0
LINE
  5
1866
330
1A
100
AcDbEntity
  8
0
100
AcDbLine
 10
227.0407835842716
 20
1.313180284467279
 30
0.0
 11
227.0407835842716
 21
-0.2586321872795736
 31
0.0
  0
ARC
  5
1867
330
1A
100
AcDbEntity
  8
0
100
AcDbCircle
 10
226.5407835842716
 20
1.313180284467279
 30
0.0
 40
0.5
100
AcDbArc
 50
0.0
 51
90.0
  0
LINE
  5
1868
330
1A
100
AcDbEntity
  8
0
100
AcDbLine
 10
287.3290263704525
 20
4.813180284467733
 30
0.0
 11
287.0904485524357
 21
9.365516240710093
 31
0.0
  0
ARC
  5
1869
330
1A
100
AcDbEntity
  8
0
100
AcDbCircle
 10
286.0918190176812
 20
9.313180284467506
 30
0.0
 40
1.0
100
AcDbArc
 50
3.000000000005594
 51
90.0
  0
LINE
  5
186A
330
1A
100
AcDbEntity
  8
0
100
AcDbLine
 10
258.2907835842761
 20
1.813180284466369
 30
0.0
 11
260.7907835842762
 21
1.813180284466369
 31
0.0
  0
LINE
  5
186B
330
1A
100
AcDbEntity
  8
0
100
AcDbLine
 10
258.2907835842761
 20
1.813180284466369
 30
0.0
 11
258.302539277789
 21
1.364248461253026
 31
0.0
  0
LINE
  5
186C
330
1A
100
AcDbEntity
  8
0
100
AcDbLine
 10
260.7907835842762
 20
1.813180284466369
 30
0.0
 11
260.7907835842762
 21
1.429405431507774
 31
0.0
  0
LINE
  5
186D
330
1A
100
AcDbEntity
  8
0
100
AcDbLine
 10
259.0407835842762
 20
1.813180284466369
 30
0.0
 11
259.0407835842762
 21
1.383580068761574
 31
0.0
  0
LINE
  5
186E
330
1A
100
AcDbEntity
  8
0
100
AcDbLine
 10
260.0407835842761
 20
1.813180284466369
 30
0.0
 11
260.0407835842761
 21
1.409765990330896
 31
0.0
  0
LINE
  5
186F
330
1A
100
AcDbEntity
  8
0
100
AcDbLine
 10
153.6571331870657
 20
52.96284815065892
 30
0.0
 11
295.6571331870634
 21
52.96284815065892
 31
0.0
  0
LINE
  5
1870
330
1A
100
AcDbEntity
  8
0
100
AcDbLine
 10
154.8851101535395
 20
91.57276508143016
 30
0.0
 11
154.8851101535395
 21
61.4628481506609
 31
0.0
  0
ARC
  5
1871
330
1A
100
AcDbEntity
  8
0
100
AcDbCircle
 10
231.7907357370789
 20
118.207277578162
 30
0.0
 40
77.5
100
AcDbArc
 50
199.5740773083575
 51
218.0155107063981
  0
ARC
  5
1872
330
1A
100
AcDbEntity
  8
0
100
AcDbCircle
 10
171.6571331870639
 20
69.86971096501853
 30
0.0
 40
2.0
100
AcDbArc
 50
359.9999999999902
 51
38.6518218712111
  0
LINE
  5
1874
330
1A
100
AcDbEntity
  8
0
100
AcDbLine
 10
160.9354529814011
 20
81.46284815066044
 30
0.0
 11
160.9354529814006
 21
61.46284815066045
 31
0.0
  0
ARC
  5
1875
330
1A
100
AcDbEntity
  8
0
100
AcDbCircle
 10
156.8851101535394
 20
61.4628481506609
 30
0.0
 40
2.0
100
AcDbArc
 50
180.0
 51
270.0
  0
ARC
  5
1876
330
1A
100
AcDbEntity
  8
0
100
AcDbCircle
 10
169.1571331870643
 20
69.24523277193682
 30
0.0
 40
2.0
100
AcDbArc
 50
359.9999999999902
 51
38.01551070639815
  0
LINE
  5
1877
330
1A
100
AcDbEntity
  8
0
100
AcDbLine
 10
171.1571331870643
 20
69.24523277193649
 30
0.0
 11
171.1571331870629
 21
61.46284815065931
 31
0.0
  0
ARC
  5
1878
330
1A
100
AcDbEntity
  8
0
100
AcDbCircle
 10
169.157133187063
 20
61.46284815065965
 30
0.0
 40
2.0
100
AcDbArc
 50
270.0
 51
359.9999999999902
  0
LINE
  5
1879
330
1A
100
AcDbEntity
  8
0
100
AcDbLine
 10
156.8851101535394
 20
59.4628481506609
 30
0.0
 11
169.157133187063
 21
59.46284815065965
 31
0.0
  0
LINE
  5
187C
330
1A
100
AcDbEntity
  8
0
100
AcDbLine
 10
173.6571331870639
 20
69.86971096501818
 30
0.0
 11
173.6571331870625
 21
60.96284815065846
 31
0.0
  0
ARC
  5
187D
330
1A
100
AcDbEntity
  8
0
100
AcDbCircle
 10
170.6571331870625
 20
60.96284815065891
 30
0.0
 40
3.0
100
AcDbArc
 50
270.0
 51
359.999999999987
  0
LINE
  5
187E
330
1A
100
AcDbEntity
  8
0
100
AcDbLine
 10
153.6571331870629
 20
57.96284815065618
 30
0.0
 11
170.657133187063
 21
57.96284815065845
 31
0.0
  0
ARC
  5
187F
330
1A
100
AcDbEntity
  8
0
100
AcDbCircle
 10
156.885110153539
 20
91.57276508143016
 30
0.0
 40
2.0
100
AcDbArc
 50
19.57407730836059
 51
180.0
  0
ARC
  5
1880
330
1A
100
AcDbEntity
  8
0
100
AcDbCircle
 10
144.2851101535396
 20
104.2128481506589
 30
0.0
 40
2.0
100
AcDbArc
 50
270.0
 51
0.0
  0
ARC
  5
1881
330
1A
100
AcDbEntity
  8
0
100
AcDbCircle
 10
142.7851101535395
 20
105.7128481506589
 30
0.0
 40
0.5
100
AcDbArc
 50
270.0
 51
0.0
  0
LINE
  5
1882
330
1A
100
AcDbEntity
  8
0
100
AcDbLine
 10
288.523987642079
 20
117.9628481506761
 30
0.0
 11
295.6571331870644
 21
117.9628481506584
 31
0.0
  0
LINE
  5
1884
330
1A
100
AcDbEntity
  8
0
100
AcDbLine
 10
144.2851101535396
 20
164.2128481506591
 30
0.0
 11
125.7851101535395
 21
164.2128481506591
 31
0.0
  0
LINE
  5
1885
330
1A
100
AcDbEntity
  8
0
100
AcDbLine
 10
142.7851101535395
 20
161.2128481506591
 30
0.0
 11
127.2851101535395
 21
161.2128481506591
 31
0.0
  0
ARC
  5
1887
330
1A
100
AcDbEntity
  8
0
100
AcDbCircle
 10
153.6571331870652
 20
-67.03715184933585
 30
0.0
 40
250.0
100
AcDbArc
 50
90.0
 51
98.98165065695168
  0
ARC
  5
1888
330
1A
100
AcDbEntity
  8
0
100
AcDbCircle
 10
153.6571331870652
 20
-67.03715184933585
 30
0.0
 40
245.0
100
AcDbArc
 50
90.0
 51
98.23088189329084
  0
ARC
  5
1889
330
1A
100
AcDbEntity
  8
0
100
AcDbCircle
 10
116.6571331870652
 20
167.0568463650568
 30
0.0
 40
13.0
100
AcDbArc
 50
98.98165065695168
 51
180.0
  0
ARC
  5
188A
330
1A
100
AcDbEntity
  8
0
100
AcDbCircle
 10
120.1571331870648
 20
164.5524636346061
 30
0.0
 40
11.0
100
AcDbArc
 50
98.23088189329084
 51
180.0
  0
ARC
  5
188E
330
1A
100
AcDbEntity
  8
0
100
AcDbCircle
 10
127.2851101535395
 20
160.7128481506591
 30
0.0
 40
0.5
100
AcDbArc
 50
90.0
 51
180.0
  0
ARC
  5
188F
330
1A
100
AcDbEntity
  8
0
100
AcDbCircle
 10
125.7851101535395
 20
162.2128481506591
 30
0.0
 40
2.0
100
AcDbArc
 50
90.0
 51
180.0
  0
LINE
  5
1890
330
1A
100
AcDbEntity
  8
0
100
AcDbLine
 10
295.6571331870634
 20
182.9628481506586
 30
0.0
 11
153.6571331870652
 21
182.9628481506586
 31
0.0
  0
LINE
  5
1891
330
1A
100
AcDbEntity
  8
0
100
AcDbLine
 10
171.1571331870643
 20
166.6804635293814
 30
0.0
 11
171.1571331870629
 21
174.4628481506586
 31
0.0
  0
LINE
  5
1893
330
1A
100
AcDbEntity
  8
0
100
AcDbLine
 10
160.9354529814011
 20
154.4628481506575
 30
0.0
 11
160.9354529814006
 21
174.4628481506575
 31
0.0
  0
LINE
  5
1894
330
1A
100
AcDbEntity
  8
0
100
AcDbLine
 10
154.8851101535395
 20
144.3529312198878
 30
0.0
 11
154.8851101535395
 21
174.462848150657
 31
0.0
  0
LINE
  5
1895
330
1A
100
AcDbEntity
  8
0
100
AcDbLine
 10
173.6571331870643
 20
166.0559853363002
 30
0.0
 11
173.657133187063
 21
174.9628481506595
 31
0.0
  0
ARC
  5
1896
330
1A
100
AcDbEntity
  8
0
100
AcDbCircle
 10
171.6571331870643
 20
166.0559853362999
 30
0.0
 40
2.0
100
AcDbArc
 50
321.3481781287889
 51
0.0000000000097707
  0
ARC
  5
1897
330
1A
100
AcDbEntity
  8
0
100
AcDbCircle
 10
156.885110153539
 20
144.3529312198878
 30
0.0
 40
2.0
100
AcDbArc
 50
180.0
 51
340.4259226916394
  0
ARC
  5
1898
330
1A
100
AcDbEntity
  8
0
100
AcDbCircle
 10
169.1571331870643
 20
166.6804635293811
 30
0.0
 40
2.0
100
AcDbArc
 50
321.9844892936019
 51
0.0000000000097707
  0
ARC
  5
1899
330
1A
100
AcDbEntity
  8
0
100
AcDbCircle
 10
231.7907357370789
 20
117.7184187231559
 30
0.0
 40
77.5
100
AcDbArc
 50
141.9844892936018
 51
160.4259226916425
  0
ARC
  5
189A
330
1A
100
AcDbEntity
  8
0
100
AcDbCircle
 10
144.2851101535396
 20
162.2128481506591
 30
0.0
 40
2.0
100
AcDbArc
 50
0.0
 51
90.0
  0
ARC
  5
189B
330
1A
100
AcDbEntity
  8
0
100
AcDbCircle
 10
142.7851101535395
 20
160.7128481506591
 30
0.0
 40
0.5
100
AcDbArc
 50
0.0
 51
90.0
  0
ARC
  5
189C
330
1A
100
AcDbEntity
  8
0
100
AcDbCircle
 10
169.157133187063
 20
174.4628481506583
 30
0.0
 40
2.0
100
AcDbArc
 50
0.0000000000097707
 51
90.0
  0
ARC
  5
189D
330
1A
100
AcDbEntity
  8
0
100
AcDbCircle
 10
156.8851101535394
 20
174.462848150657
 30
0.0
 40
2.0
100
AcDbArc
 50
90.0
 51
180.0
  0
LINE
  5
189E
330
1A
100
AcDbEntity
  8
0
100
AcDbLine
 10
156.8851101535394
 20
176.462848150657
 30
0.0
 11
169.157133187063
 21
176.4628481506583
 31
0.0
  0
ARC
  5
189F
330
1A
100
AcDbEntity
  8
0
100
AcDbCircle
 10
170.657133187063
 20
174.9628481506586
 30
0.0
 40
3.0
100
AcDbArc
 50
0.0
 51
90.0
  0
LINE
  5
18A0
330
1A
100
AcDbEntity
  8
0
100
AcDbLine
 10
153.6571331870648
 20
177.9628481506568
 30
0.0
 11
170.657133187063
 21
177.9628481506586
 31
0.0
  0
LINE
  5
18A2
330
1A
100
AcDbEntity
  8
0
100
AcDbLine
 10
363.7572778405022
 20
-38.68681971552317
 30
0.0
 11
480.7572778405014
 21
-38.68681971552272
 31
0.0
  0
LINE
  5
18A3
330
1A
100
AcDbEntity
  8
0
100
AcDbLine
 10
369.7572778405024
 20
-38.18681971552226
 30
0.0
 11
474.757277840503
 21
-38.18681971552363
 31
0.0
  0
LINE
  5
18A4
330
1A
100
AcDbEntity
  8
0
100
AcDbLine
 10
422.2572778404994
 20
1.813038028531053
 30
0.0
 11
474.8407497977943
 21
0.558611137691031
 31
0.0
  0
LINE
  5
18A5
330
1A
100
AcDbEntity
  8
0
100
AcDbLine
 10
422.257277840503
 20
2.313180284476374
 30
0.0
 11
483.3346593205162
 21
0.8561234014154308
 31
0.0
  0
LINE
  5
18A6
330
1A
100
AcDbEntity
  8
0
100
AcDbLine
 10
450.2572778405003
 20
2.613180284441995
 30
0.0
 11
394.2572778405023
 21
2.613180284469279
 31
0.0
  0
LINE
  5
18A7
330
1A
100
AcDbEntity
  8
0
100
AcDbLine
 10
483.9414588188057
 20
10.31318028446904
 30
0.0
 11
360.573096862198
 21
10.3131802844691
 31
0.0
  0
LINE
  5
18A8
330
1A
100
AcDbEntity
  8
0
100
AcDbLine
 10
485.3096856197848
 20
2.313180284469041
 30
0.0
 11
359.2048700612188
 21
2.313180284470007
 31
0.0
  0
LINE
  5
18A9
330
1A
100
AcDbEntity
  8
0
100
AcDbLine
 10
422.2572778405018
 20
4.813180284469098
 30
0.0
 11
485.2572778405018
 21
2.313180284469041
 31
0.0
  0
LINE
  5
18AA
330
1A
100
AcDbEntity
  8
0
100
AcDbLine
 10
390.9004603999524
 20
1.813180284475009
 30
0.0
 11
401.2981161940952
 21
1.813180284474555
 31
0.0
  0
LINE
  5
18AB
330
1A
100
AcDbEntity
  8
0
100
AcDbLine
 10
422.2572778404994
 20
1.813038028531053
 30
0.0
 11
369.6738058832116
 21
0.558611137691031
 31
0.0
  0
LINE
  5
18AC
330
1A
100
AcDbEntity
  8
0
100
AcDbLine
 10
422.257277840503
 20
2.313180284476374
 30
0.0
 11
361.1798963604901
 21
0.8561234014150329
 31
0.0
  0
LINE
  5
18AD
330
1A
100
AcDbEntity
  8
0
100
AcDbLine
 10
359.2572778405018
 20
2.313180284470007
 30
0.0
 11
422.2572778405018
 21
4.813180284469098
 31
0.0
  0
LINE
  5
18AE
330
1A
100
AcDbEntity
  8
0
100
AcDbLine
 10
366.2572778405029
 20
-2.940393353924747
 30
0.0
 11
366.2572778405029
 21
-34.68681971552226
 31
0.0
  0
LINE
  5
18AF
330
1A
100
AcDbEntity
  8
0
100
AcDbLine
 10
357.2572778405028
 20
-38.68681971552362
 30
0.0
 11
359.2303355522904
 21
-1.038635824164913
 31
0.0
  0
LINE
  5
18B0
330
1A
100
AcDbEntity
  8
0
100
AcDbLine
 10
390.9004603999524
 20
1.813180284475009
 30
0.0
 11
390.9004603999524
 21
1.5651346810873
 31
0.0
  0
ARC
  5
18B1
330
1A
100
AcDbEntity
  8
0
100
AcDbCircle
 10
361.2275946217996
 20
-1.14330773665101
 30
0.0
 40
2.0
100
AcDbArc
 50
91.36658410030946
 51
176.9999999999944
  0
ARC
  5
18B2
330
1A
100
AcDbEntity
  8
0
100
AcDbCircle
 10
369.7572778405028
 20
-2.940393353924761
 30
0.0
 40
3.5
100
AcDbArc
 50
91.36658410030946
 51
180.0
  0
LINE
  5
18B3
330
1A
100
AcDbEntity
  8
0
100
AcDbLine
 10
359.5744673274434
 20
9.365516240712139
 30
0.0
 11
359.2048700612188
 21
2.313180284470007
 31
0.0
  0
ARC
  5
18B4
330
1A
100
AcDbEntity
  8
0
100
AcDbCircle
 10
360.5730968621979
 20
9.313180284469083
 30
0.0
 40
1.0
100
AcDbArc
 50
89.99999999999998
 51
176.9999999999944
  0
LINE
  5
18B9
330
1A
100
AcDbEntity
  8
0
100
AcDbLine
 10
386.9572778405004
 20
-39.18681971552499
 30
0.0
 11
385.7572778405004
 21
-39.18681971552454
 31
0.0
  0
LINE
  5
18BA
330
1A
100
AcDbEntity
  8
0
100
AcDbLine
 10
363.7572778405022
 20
-37.68681971552363
 30
0.0
 11
363.7572778405022
 21
-38.68681971552317
 31
0.0
  0
LINE
  5
18BB
330
1A
100
AcDbEntity
  8
0
100
AcDbLine
 10
359.7607087054976
 20
-38.68681971552317
 30
0.0
 11
359.8131164847805
 21
-37.68681971552363
 31
0.0
  0
LINE
  5
18BC
330
1A
100
AcDbEntity
  8
0
100
AcDbLine
 10
357.2572778405028
 20
-38.68681971552317
 30
0.0
 11
359.7607087054976
 21
-38.68681971552317
 31
0.0
  0
ARC
  5
18BD
330
1A
100
AcDbEntity
  8
0
100
AcDbCircle
 10
369.7572778405028
 20
-34.68681971552227
 30
0.0
 40
4.0
100
AcDbArc
 50
228.5903778907683
 51
270.0
  0
LINE
  5
18BE
330
1A
100
AcDbEntity
  8
0
100
AcDbLine
 10
359.8131164847805
 20
-37.68681971552363
 30
0.0
 11
367.1115265294397
 21
-37.68681971552317
 31
0.0
  0
ARC
  5
18BF
330
1A
100
AcDbEntity
  8
0
100
AcDbCircle
 10
369.7572778405028
 20
-34.68681971552227
 30
0.0
 40
3.5
100
AcDbArc
 50
180.0
 51
270.0
  0
LINE
  5
18C2
330
1A
100
AcDbEntity
  8
0
100
AcDbLine
 10
386.9572778405004
 20
-39.18681971552499
 30
0.0
 11
386.9572778405004
 21
-38.68681971552272
 31
0.0
  0
LINE
  5
18C3
330
1A
100
AcDbEntity
  8
0
100
AcDbLine
 10
385.7572778405004
 20
-39.18681971552454
 30
0.0
 11
385.7572778405004
 21
-38.68681971552272
 31
0.0
  0
LINE
  5
18C4
330
1A
100
AcDbEntity
  8
0
100
AcDbLine
 10
429.6572778405032
 20
1.813180284469098
 30
0.0
 11
429.6572778405032
 21
2.61318028446837
 31
0.0
  0
LINE
  5
18C5
330
1A
100
AcDbEntity
  8
0
100
AcDbLine
 10
414.8572778405021
 20
1.813180284469098
 30
0.0
 11
414.8572778405021
 21
2.613180284469279
 31
0.0
  0
LINE
  5
18C6
330
1A
100
AcDbEntity
  8
0
100
AcDbLine
 10
394.2572778405034
 20
3.702069173358694
 30
0.0
 11
394.257277840502
 21
2.613180284469279
 31
0.0
  0
LINE
  5
18C7
330
1A
100
AcDbEntity
  8
0
100
AcDbLine
 10
414.8572778405021
 20
1.813180284469098
 30
0.0
 11
429.6572778405032
 21
1.813180284469098
 31
0.0
  0
LINE
  5
18CC
330
1A
100
AcDbEntity
  8
0
100
AcDbLine
 10
413.5572778405007
 20
-39.18681971552408
 30
0.0
 11
414.7572778405008
 21
-39.18681971552363
 31
0.0
  0
LINE
  5
18CE
330
1A
100
AcDbEntity
  8
0
100
AcDbLine
 10
413.5572778405007
 20
-39.18681971552408
 30
0.0
 11
413.5572778405007
 21
-38.68681971552272
 31
0.0
  0
LINE
  5
18CF
330
1A
100
AcDbEntity
  8
0
100
AcDbLine
 10
414.7572778405008
 20
-39.18681971552363
 30
0.0
 11
414.757277840501
 21
-38.68681971552317
 31
0.0
  0
ARC
  5
18D1
330
1A
100
AcDbEntity
  8
0
100
AcDbCircle
 10
474.757277840503
 20
-34.68681971552366
 30
0.0
 40
4.0
100
AcDbArc
 50
270.0
 51
311.4096221092697
  0
ARC
  5
18D2
330
1A
100
AcDbEntity
  8
0
100
AcDbCircle
 10
474.757277840503
 20
-34.68681971552366
 30
0.0
 40
3.5
100
AcDbArc
 50
270.0
 51
0.0
  0
ARC
  5
18D3
330
1A
100
AcDbEntity
  8
0
100
AcDbCircle
 10
474.757277840503
 20
-2.940393353924775
 30
0.0
 40
3.5
100
AcDbArc
 50
0.0
 51
88.63341589969051
  0
LINE
  5
18D4
330
1A
100
AcDbEntity
  8
0
100
AcDbLine
 10
453.614095281053
 20
1.813180284474555
 30
0.0
 11
453.614095281053
 21
1.5651346810873
 31
0.0
  0
LINE
  5
18D5
330
1A
100
AcDbEntity
  8
0
100
AcDbLine
 10
443.2164394869261
 20
1.813180284474555
 30
0.0
 11
453.614095281053
 21
1.813180284474555
 31
0.0
  0
LINE
  5
18D6
330
1A
100
AcDbEntity
  8
0
100
AcDbLine
 10
450.2572778404991
 20
3.702069173353237
 30
0.0
 11
450.2572778405003
 21
2.613180284464732
 31
0.0
  0
LINE
  5
18D7
330
1A
100
AcDbEntity
  8
0
100
AcDbLine
 10
446.8193469461538
 20
3.813180284472736
 30
0.0
 11
447.2251493269856
 21
3.822391733418015
 31
0.0
  0
LINE
  5
18DE
330
1A
100
AcDbEntity
  8
0
100
AcDbLine
 10
478.257277840503
 20
-2.940393353924747
 30
0.0
 11
478.257277840503
 21
-34.68681971552363
 31
0.0
  0
LINE
  5
18DF
330
1A
100
AcDbEntity
  8
0
100
AcDbLine
 10
487.257277840503
 20
-38.68681971552368
 30
0.0
 11
485.2842201287159
 21
-1.038635824164515
 31
0.0
  0
ARC
  5
18E0
330
1A
100
AcDbEntity
  8
0
100
AcDbCircle
 10
483.2869610592071
 20
-1.143307736650569
 30
0.0
 40
2.0
100
AcDbArc
 50
3.000000000005576
 51
88.63341589969051
  0
LINE
  5
18E1
330
1A
100
AcDbEntity
  8
0
100
AcDbLine
 10
484.9400883535603
 20
9.365516240712082
 30
0.0
 11
485.3096856197848
 21
2.313180284469041
 31
0.0
  0
ARC
  5
18E2
330
1A
100
AcDbEntity
  8
0
100
AcDbCircle
 10
483.9414588188057
 20
9.313180284469069
 30
0.0
 40
1.0
100
AcDbArc
 50
3.000000000005576
 51
89.99999999999998
  0
ARC
  5
18E3
330
1A
100
AcDbEntity
  8
0
100
AcDbCircle
 10
479.288951062547
 20
-36.68681971552365
 30
0.0
 40
1.0
100
AcDbArc
 50
270.0
 51
358.156215361959
  0
LINE
  5
18E4
330
1A
100
AcDbEntity
  8
0
100
AcDbLine
 10
477.4030291515675
 20
-37.68681971552363
 30
0.0
 11
479.288951062547
 21
-37.68681971552363
 31
0.0
  0
ARC
  5
18E5
330
1A
100
AcDbEntity
  8
0
100
AcDbCircle
 10
481.2572778405021
 20
-31.48681971552384
 30
0.0
 40
0.8
100
AcDbArc
 50
1.843784638040986
 51
178.156215361959
  0
ARC
  5
18E6
330
1A
100
AcDbEntity
  8
0
100
AcDbCircle
 10
482.2572778405021
 20
-36.18681971552366
 30
0.0
 40
0.2
100
AcDbArc
 50
105.8076074068074
 51
257.8799618691476
  0
ARC
  5
18E7
330
1A
100
AcDbEntity
  8
0
100
AcDbCircle
 10
483.2256046184577
 20
-36.68681971552365
 30
0.0
 40
1.0
100
AcDbArc
 50
181.843784638041
 51
270.0
  0
LINE
  5
18E8
330
1A
100
AcDbEntity
  8
0
100
AcDbLine
 10
480.2884333274034
 20
-36.71899427437168
 30
0.0
 11
480.2992699428324
 21
-36.38236168887445
 31
0.0
  0
ARC
  5
18E9
330
1A
100
AcDbEntity
  8
0
100
AcDbCircle
 10
480.257277840502
 20
-36.18681971552366
 30
0.0
 40
0.2
100
AcDbArc
 50
282.1200381308405
 51
74.19239259313171
  0
LINE
  5
18EA
330
1A
100
AcDbEntity
  8
0
100
AcDbLine
 10
484.7538469755078
 20
-38.68681971552368
 30
0.0
 11
484.7014391962249
 21
-37.68681971552368
 31
0.0
  0
LINE
  5
18EB
330
1A
100
AcDbEntity
  8
0
100
AcDbLine
 10
483.2256046184577
 20
-37.68681971552368
 30
0.0
 11
484.7014391962249
 21
-37.68681971552368
 31
0.0
  0
LINE
  5
18EC
330
1A
100
AcDbEntity
  8
0
100
AcDbLine
 10
482.2261223536008
 20
-36.71899427437129
 30
0.0
 11
482.2152857381717
 21
-36.38236168887451
 31
0.0
  0
LINE
  5
18ED
330
1A
100
AcDbEntity
  8
0
100
AcDbLine
 10
480.7572778405014
 20
-38.68681971552272
 30
0.0
 11
480.7572778405014
 21
-30.86231991568459
 31
0.0
  0
LINE
  5
18EE
330
1A
100
AcDbEntity
  8
0
100
AcDbLine
 10
480.3117594410161
 20
-35.99438334888376
 30
0.0
 11
480.4576920286169
 21
-31.46108006844546
 31
0.0
  0
LINE
  5
18EF
330
1A
100
AcDbEntity
  8
0
100
AcDbLine
 10
482.2027962399885
 20
-35.99438334888382
 30
0.0
 11
482.0568636523873
 21
-31.46108006844551
 31
0.0
  0
LINE
  5
18F0
330
1A
100
AcDbEntity
  8
0
100
AcDbLine
 10
484.7538469755078
 20
-38.68681971552368
 30
0.0
 11
487.257277840503
 21
-38.68681971552368
 31
0.0
  0
LINE
  5
1A51
330
1A
100
AcDbEntity
  8
0
100
AcDbLine
 10
42.51534737833032
 20
10.31318028446909
 30
0.0
 11
-80.85301457827744
 21
10.31318028446915
 31
0.0
  0
LINE
  5
1A52
330
1A
100
AcDbEntity
  8
0
100
AcDbLine
 10
43.88357417930939
 20
2.31318028446909
 30
0.0
 11
-82.22124137925664
 21
2.313180284470057
 31
0.0
  0
ARC
  5
1A53
330
1A
100
AcDbEntity
  8
0
100
AcDbCircle
 10
-80.85301457827752
 20
9.313180284469133
 30
0.0
 40
1.0
100
AcDbArc
 50
89.99999999999998
 51
176.9999999999944
  0
LINE
  5
1A54
330
1A
100
AcDbEntity
  8
0
100
AcDbLine
 10
-81.85164411303208
 20
9.365516240712189
 30
0.0
 11
-82.22124137925664
 21
2.313180284470057
 31
0.0
  0
ARC
  5
1A55
330
1A
100
AcDbEntity
  8
0
100
AcDbCircle
 10
42.51534737833032
 20
9.313180284469119
 30
0.0
 40
1.0
100
AcDbArc
 50
3.000000000005576
 51
89.99999999999998
  0
LINE
  5
1A56
330
1A
100
AcDbEntity
  8
0
100
AcDbLine
 10
43.51397691308494
 20
9.365516240712132
 30
0.0
 11
43.88357417930939
 21
2.31318028446909
 31
0.0
  0
LINE
  5
1A58
330
1A
100
AcDbEntity
  8
0
100
AcDbLine
 10
373.5072778405022
 20
-38.68681971552314
 30
0.0
 11
373.5072778405022
 21
-40.18681971553227
 31
0.0
  0
LINE
  5
1A59
330
1A
100
AcDbEntity
  8
0
100
AcDbLine
 10
364.5072778405022
 20
-40.68681971553226
 30
0.0
 11
373.0072778405022
 21
-40.68681971553226
 31
0.0
  0
ARC
  5
1A5A
330
1A
100
AcDbEntity
  8
0
100
AcDbCircle
 10
373.0072778405022
 20
-40.18681971553227
 30
0.0
 40
0.5
100
AcDbArc
 50
270.0
 51
0.0
  0
LINE
  5
1A5B
330
1A
100
AcDbEntity
  8
0
100
AcDbLine
 10
364.0072778405022
 20
-38.68681971553227
 30
0.0
 11
364.0072778405022
 21
-40.18681971553227
 31
0.0
  0
ARC
  5
1A5C
330
1A
100
AcDbEntity
  8
0
100
AcDbCircle
 10
364.5072778405022
 20
-40.18681971553227
 30
0.0
 40
0.5
100
AcDbArc
 50
180.0
 51
270.0
  0
LINE
  5
1A5D
330
1A
100
AcDbEntity
  8
0
100
AcDbLine
 10
38.38116640002283
 20
-38.68681971552336
 30
0.0
 11
38.38116640002283
 21
-40.18681971552335
 31
0.0
  0
LINE
  5
1A5E
330
1A
100
AcDbEntity
  8
0
100
AcDbLine
 10
29.38116640002284
 20
-40.68681971552336
 30
0.0
 11
37.88116640002284
 21
-40.68681971552336
 31
0.0
  0
ARC
  5
1A5F
330
1A
100
AcDbEntity
  8
0
100
AcDbCircle
 10
37.88116640002284
 20
-40.18681971552335
 30
0.0
 40
0.5
100
AcDbArc
 50
270.0
 51
0.0
  0
LINE
  5
1A60
330
1A
100
AcDbEntity
  8
0
100
AcDbLine
 10
28.88116640002284
 20
-38.68681971552336
 30
0.0
 11
28.88116640002284
 21
-40.18681971552335
 31
0.0
  0
ARC
  5
1A61
330
1A
100
AcDbEntity
  8
0
100
AcDbCircle
 10
29.38116640002284
 20
-40.18681971552335
 30
0.0
 40
0.5
100
AcDbArc
 50
180.0
 51
270.0
  0
ELLIPSE
  5
1A62
330
1A
100
AcDbEntity
  8
0
100
AcDbEllipse
 10
-65.75844908392138
 20
-10.48304841624415
 30
0.0
 11
-10.88669132616155
 21
0.0000000000000007
 31
0.0
210
0.0
220
0.0
230
-1.0
 40
0.1998754228421459
 41
4.712388980384689
 42
6.217245676988344
  0
ELLIPSE
  5
1A63
330
1A
100
AcDbEntity
  8
0
100
AcDbEllipse
 10
-68.26283181437189
 20
-13.9578210868942
 30
0.0
 11
11.8837735773361
 21
-0.0250748369406686
 31
0.0
210
0.0
220
0.0
230
-1.0
 40
0.2938125457269147
 41
1.556575140930117
 42
3.018040472407693
  0
ELLIPSE
  5
1A64
330
1A
100
AcDbEntity
  8
0
100
AcDbEllipse
 10
-68.26283181437189
 20
-38.68681971553699
 30
0.0
 11
-13.15585463458814
 21
0.0000000000000008
 31
0.0
210
0.0
220
0.0
230
-1.0
 40
0.3800589272906592
 41
6.283185307179586
 42
7.853981633974482
  0
ELLIPSE
  5
1A65
330
1A
100
AcDbEntity
  8
0
100
AcDbEllipse
 10
-68.26283181437189
 20
-38.68681971553699
 30
0.0
 11
-10.62776161468787
 21
0.0000000000000007
 31
0.0
210
0.0
220
0.0
230
-1.0
 40
0.3817923055879775
 41
6.283185307179586
 42
7.853981633974482
  0
ELLIPSE
  5
1A68
330
1A
100
AcDbEntity
  8
0
100
AcDbEllipse
 10
29.9251646144236
 20
-38.686819715537
 30
0.0
 11
10.62776161468787
 21
-0.0000000000000007
 31
0.0
210
0.0
220
0.0
230
1.0
 40
0.3817923055879775
 41
6.283185307179586
 42
7.853981633974482
  0
ELLIPSE
  5
1A69
330
1A
100
AcDbEntity
  8
0
100
AcDbEllipse
 10
29.9251646144236
 20
-38.686819715537
 30
0.0
 11
13.15585463458814
 21
-0.0000000000000008
 31
0.0
210
0.0
220
0.0
230
1.0
 40
0.3800589272906592
 41
6.283185307179586
 42
7.853981633974482
  0
ELLIPSE
  5
1A6A
330
1A
100
AcDbEntity
  8
0
100
AcDbEllipse
 10
29.9251646144236
 20
-13.95782108689421
 30
0.0
 11
-11.8837735773361
 21
-0.0250748369406672
 31
0.0
210
0.0
220
0.0
230
1.0
 40
0.2938125457269147
 41
1.556575140930117
 42
3.018040472407693
  0
ELLIPSE
  5
1A6B
330
1A
100
AcDbEntity
  8
0
100
AcDbEllipse
 10
27.42078188397331
 20
-10.48304841624416
 30
0.0
 11
10.88669132616155
 21
-0.0000000000000007
 31
0.0
210
0.0
220
0.0
230
1.0
 40
0.1998754228421459
 41
4.712388980384689
 42
6.217245676988344
  0
LINE
  5
1A6D
330
1A
100
AcDbEntity
  8
0
100
AcDbLine
 10
-19.16883359997415
 20
-1.203588982265252
 30
0.0
 11
40.83116640002858
 21
-1.438808970473687
 31
0.0
  0
LINE
  5
1A6E
330
1A
100
AcDbEntity
  8
0
100
AcDbLine
 10
19.58116640004859
 20
1.389533389665999
 30
0.0
 11
41.90844450690282
 21
0.8573392969444881
 31
0.0
  0
LINE
  5
1A6F
330
1A
100
AcDbEntity
  8
0
100
AcDbLine
 10
40.83116640002858
 20
-2.38150214696428
 30
0.0
 11
26.81401813235029
 21
-2.38150214696428
 31
0.0
  0
LINE
  5
1A72
330
1A
100
AcDbEntity
  8
0
100
AcDbLine
 10
-76.96883359997729
 20
-38.68681971552335
 30
0.0
 11
38.63116640002285
 21
-38.68681971552336
 31
0.0
  0
ARC
  5
1A73
330
1A
100
AcDbEntity
  8
0
100
AcDbCircle
 10
-19.70747265341084
 20
1402.997805533053
 30
0.0
 40
1405.7407765931
100
AcDbArc
 50
267.5317771050261
 51
272.4682228949739
  0
LINE
  5
1A74
330
1A
100
AcDbEntity
  8
0
100
AcDbLine
 10
45.83116640002676
 20
-38.68681971554155
 30
0.0
 11
43.85804501547069
 21
-1.037420875329857
 31
0.0
  0
LINE
  5
1A75
330
1A
100
AcDbEntity
  8
0
100
AcDbLine
 10
38.63116640002285
 20
-36.35961318517705
 30
0.0
 11
38.63116640002285
 21
-38.68681971552972
 31
0.0
  0
LINE
  5
1A76
330
1A
100
AcDbEntity
  8
0
100
AcDbLine
 10
40.55292622911146
 20
-38.686819715537
 30
0.0
 11
45.83116640002676
 21
-38.68681971554155
 31
0.0
  0
ARC
  5
1A77
330
1A
100
AcDbEntity
  8
0
100
AcDbCircle
 10
14.73089892663406
 20
1.424873898234878
 30
0.0
 40
26.457015711506
100
AcDbArc
 50
332.9025712307374
 51
350.5802942481829
  0
ARC
  5
1A78
330
1A
100
AcDbEntity
  8
0
100
AcDbCircle
 10
18.955785086701
 20
-3.736481966532878
 30
0.0
 40
25.12177502625684
100
AcDbArc
 50
334.9752532027023
 51
357.5571546309638
  0
ARC
  5
1A79
330
1A
100
AcDbEntity
  8
0
100
AcDbCircle
 10
39.51322111579624
 20
-14.83925582514506
 30
0.0
 40
2.0
100
AcDbArc
 50
3.000000000005594
 51
90.0
  0
LINE
  5
1A7A
330
1A
100
AcDbEntity
  8
0
100
AcDbLine
 10
40.83116640002858
 20
-2.38150214696428
 30
0.0
 11
40.83116640002858
 21
-2.905220578348448
 31
0.0
  0
ARC
  5
1A7C
330
1A
100
AcDbEntity
  8
0
100
AcDbCircle
 10
42.06145865414568
 20
-4.971156162175006
 30
0.0
 40
2.0
100
AcDbArc
 50
3.000000000005594
 51
88.63455355477722
  0
ARC
  5
1A7D
330
1A
100
AcDbEntity
  8
0
100
AcDbCircle
 10
41.86078594596155
 20
-1.14209278781594
 30
0.0
 40
2.0
100
AcDbArc
 50
3.000000000005594
 51
88.63455355477722
  0
ARC
  5
1A82
330
1A
100
AcDbEntity
  8
0
100
AcDbCircle
 10
-19.16883359997398
 20
2688.973551358335
 30
0.0
 40
2691.747842328837
100
AcDbArc
 50
269.0211744758193
 51
270.9788255241806
  0
LINE
  5
1A84
330
1A
100
AcDbEntity
  8
0
100
AcDbLine
 10
-65.75844908392138
 20
-12.65903044841227
 30
0.0
 11
27.42078188397308
 21
-12.65903044841228
 31
0.0
  0
LINE
  5
1A85
330
1A
100
AcDbEntity
  8
0
100
AcDbLine
 10
28.63116640002285
 20
-38.18681971552245
 30
0.0
 11
-66.96883359997752
 21
-38.18681971552381
 31
0.0
  0
LINE
  5
1A86
330
1A
100
AcDbEntity
  8
0
100
AcDbLine
 10
28.63116640002285
 20
-36.48681971552309
 30
0.0
 11
-66.96883359997752
 21
-36.48681971552308
 31
0.0
  0
LINE
  5
1A87
330
1A
100
AcDbEntity
  8
0
100
AcDbLine
 10
29.9251646144236
 20
-17.44942636785639
 30
0.0
 11
-68.10120271472657
 21
-17.44942636785638
 31
0.0
  0
LINE
  5
1A88
330
1A
100
AcDbEntity
  8
0
100
AcDbLine
 10
-68.26283181437189
 20
-34.62922210542568
 30
0.0
 11
29.9251646144236
 21
-34.62922210542568
 31
0.0
  0
LINE
  5
1A89
330
1A
100
AcDbEntity
  8
0
100
AcDbLine
 10
-68.26283181437189
 20
-33.68681971552335
 30
0.0
 11
29.9251646144236
 21
-33.68681971552336
 31
0.0
  0
LINE
  5
1A8A
330
1A
100
AcDbEntity
  8
0
100
AcDbLine
 10
-19.16883359997415
 20
-1.203588982265252
 30
0.0
 11
-80.24611170685068
 21
-1.438808970474134
 31
0.0
  0
LINE
  5
1A8B
330
1A
100
AcDbEntity
  8
0
100
AcDbLine
 10
-80.24611170685044
 20
0.8573392969444952
 30
0.0
 11
-57.91883359999506
 21
1.389533389666006
 31
0.0
  0
LINE
  5
1A8D
330
1A
100
AcDbEntity
  8
0
100
AcDbLine
 10
28.63116640002285
 20
-34.6954888954558
 30
0.0
 11
28.63116640002285
 21
-38.68681971552336
 31
0.0
  0
ARC
  5
1A93
330
1A
100
AcDbEntity
  8
0
100
AcDbCircle
 10
-19.16883359997381
 20
-1911.085290717479
 30
0.0
 40
1910.67513515876
100
AcDbArc
 50
89.05965492353052
 51
90.94034507646949
  0
LINE
  5
1A94
330
1A
100
AcDbEntity
  8
0
100
AcDbLine
 10
-50.52565104052415
 20
1.813180284396615
 30
0.0
 11
12.18798384057653
 21
1.813180284448904
 31
0.0
  0
LINE
  5
1A99
330
1A
100
AcDbEntity
  8
0
100
AcDbLine
 10
-19.16883359997415
 20
2.313180284476651
 30
0.0
 11
1.807797307661203
 21
1.813180284439809
 31
0.0
  0
ARC
  5
1A9F
330
1A
100
AcDbEntity
  8
0
100
AcDbCircle
 10
11.45752763022314
 20
1.313180284397517
 30
0.0
 40
0.5
100
AcDbArc
 50
0.0
 51
89.9999999999544
  0
LINE
  5
1AA0
330
1A
100
AcDbEntity
  8
0
100
AcDbLine
 10
11.95752763022314
 20
1.313180284397517
 30
0.0
 11
11.95752763022314
 21
-0.6637085135632646
 31
0.0
  0
LINE
  5
1AA1
330
1A
100
AcDbEntity
  8
0
100
AcDbLine
 10
12.18798384057653
 20
1.813180284448449
 30
0.0
 11
12.18798384057653
 21
-0.6674772238063582
 31
0.0
  0
LINE
  5
1AA2
330
1A
100
AcDbEntity
  8
0
100
AcDbLine
 10
17.08116640004859
 20
1.813180284396608
 30
0.0
 11
19.58116640004859
 21
1.813180284396608
 31
0.0
  0
LINE
  5
1AA5
330
1A
100
AcDbEntity
  8
0
100
AcDbLine
 10
17.08116640004859
 20
-0.6674772238063582
 30
0.0
 11
19.58116640004859
 21
-0.6674772238063582
 31
0.0
  0
LINE
  5
1AA6
330
1A
100
AcDbEntity
  8
0
100
AcDbLine
 10
19.58116640004859
 20
1.813180284396608
 30
0.0
 11
19.58116640004859
 21
-0.6674772238063582
 31
0.0
  0
LINE
  5
1AA7
330
1A
100
AcDbEntity
  8
0
100
AcDbLine
 10
17.08116640004859
 20
1.813180284396608
 30
0.0
 11
17.08116640004859
 21
-0.6674772238063582
 31
0.0
  0
LINE
  5
1AA8
330
1A
100
AcDbEntity
  8
0
100
AcDbLine
 10
18.83116640004859
 20
-0.6674772238063582
 30
0.0
 11
18.83116640004859
 21
1.813180284396608
 31
0.0
  0
LINE
  5
1AA9
330
1A
100
AcDbEntity
  8
0
100
AcDbLine
 10
17.83116640004859
 20
-0.6674772238063582
 30
0.0
 11
17.83116640004859
 21
1.813180284396608
 31
0.0
  0
LINE
  5
1AAA
330
1A
100
AcDbEntity
  8
0
100
AcDbLine
 10
12.18798384057653
 20
1.565757650667606
 30
0.0
 11
17.08116640004859
 21
1.449123511911935
 31
0.0
  0
ARC
  5
1AAE
330
1A
100
AcDbEntity
  8
0
100
AcDbCircle
 10
3.972246255984501
 20
1.313180284403884
 30
0.0
 40
0.5
100
AcDbArc
 50
89.9999999999544
 51
180.0
  0
ARC
  5
1AAF
330
1A
100
AcDbEntity
  8
0
100
AcDbCircle
 10
3.263418262850692
 20
1.313180284403884
 30
0.0
 40
0.5
100
AcDbArc
 50
89.9999999999544
 51
180.0
  0
LINE
  5
1AB2
330
1A
100
AcDbEntity
  8
0
100
AcDbLine
 10
2.763418262850692
 20
1.313180284403884
 30
0.0
 11
2.763418262850692
 21
-0.5360376381001828
 31
0.0
  0
LINE
  5
1AB3
330
1A
100
AcDbEntity
  8
0
100
AcDbLine
 10
3.472246255984501
 20
1.313180284403884
 30
0.0
 11
3.472246255984501
 21
-0.5443061749067369
 31
0.0
  0
LINE
  5
1AB4
330
1A
100
AcDbEntity
  8
0
100
AcDbLine
 10
-40.1454645090781
 20
1.813180284405255
 30
0.0
 11
-19.16883359997415
 21
2.313180284476651
 31
0.0
  0
ARC
  5
1AB5
330
1A
100
AcDbEntity
  8
0
100
AcDbCircle
 10
-24.66883359998347
 20
1.313180284418898
 30
0.0
 40
0.5
100
AcDbArc
 50
90.00000000004559
 51
180.0
  0
LINE
  5
1AB6
330
1A
100
AcDbEntity
  8
0
100
AcDbLine
 10
-25.16883359998348
 20
1.313180284418898
 30
0.0
 11
-25.16883359998348
 21
-0.4125107486154107
 31
0.0
  0
ARC
  5
1AB7
330
1A
100
AcDbEntity
  8
0
100
AcDbCircle
 10
-13.66883359998347
 20
1.313180284426628
 30
0.0
 40
0.5
100
AcDbArc
 50
0.0
 51
90.00000000004559
  0
LINE
  5
1AB8
330
1A
100
AcDbEntity
  8
0
100
AcDbLine
 10
-13.16883359998347
 20
1.313180284426628
 30
0.0
 11
-13.16883359998347
 21
-0.4125107486154107
 31
0.0
  0
LINE
  5
1AB9
330
1A
100
AcDbEntity
  8
0
100
AcDbLine
 10
-13.16883359998347
 20
-0.4125107486154107
 30
0.0
 11
-25.16883359998348
 21
-0.4125107486154107
 31
0.0
  0
LINE
  5
1ABA
330
1A
100
AcDbEntity
  8
0
100
AcDbLine
 10
-55.41883359999506
 20
1.81318028439707
 30
0.0
 11
-57.91883359999506
 21
1.81318028439707
 31
0.0
  0
LINE
  5
1ABB
330
1A
100
AcDbEntity
  8
0
100
AcDbLine
 10
-55.41883359999506
 20
-0.6674772238063511
 30
0.0
 11
-57.91883359999506
 21
-0.6674772238063511
 31
0.0
  0
LINE
  5
1ABC
330
1A
100
AcDbEntity
  8
0
100
AcDbLine
 10
-56.16883359999507
 20
-0.6674772238063511
 30
0.0
 11
-56.16883359999507
 21
1.81318028439707
 31
0.0
  0
LINE
  5
1ABD
330
1A
100
AcDbEntity
  8
0
100
AcDbLine
 10
-57.16883359999506
 20
-0.6674772238063511
 30
0.0
 11
-57.16883359999506
 21
1.81318028439707
 31
0.0
  0
LINE
  5
1ABE
330
1A
100
AcDbEntity
  8
0
100
AcDbLine
 10
-57.91883359999506
 20
1.81318028439707
 30
0.0
 11
-57.91883359999506
 21
-0.6674772238063511
 31
0.0
  0
LINE
  5
1ABF
330
1A
100
AcDbEntity
  8
0
100
AcDbLine
 10
-55.41883359999506
 20
1.81318028439707
 30
0.0
 11
-55.41883359999506
 21
-0.6674772238063511
 31
0.0
  0
ARC
  5
1AC0
330
1A
100
AcDbEntity
  8
0
100
AcDbCircle
 10
-49.7951948301694
 20
1.313180284397525
 30
0.0
 40
0.5
100
AcDbArc
 50
90.00000000004559
 51
180.0
  0
LINE
  5
1AC1
330
1A
100
AcDbEntity
  8
0
100
AcDbLine
 10
-50.52565104052415
 20
1.813180284396615
 30
0.0
 11
-50.52565104052415
 21
-0.6674772238063511
 31
0.0
  0
LINE
  5
1AC2
330
1A
100
AcDbEntity
  8
0
100
AcDbLine
 10
-50.29519483016939
 20
1.313180284397525
 30
0.0
 11
-50.29519483016939
 21
-0.6637085135632575
 31
0.0
  0
LINE
  5
1AC3
330
1A
100
AcDbEntity
  8
0
100
AcDbLine
 10
-55.41883359999506
 20
1.449123511911942
 30
0.0
 11
-50.52565104052415
 21
1.565757650667613
 31
0.0
  0
ARC
  5
1AC4
330
1A
100
AcDbEntity
  8
0
100
AcDbCircle
 10
-42.30991345593098
 20
1.313180284404346
 30
0.0
 40
0.5
100
AcDbArc
 50
0.0
 51
90.00000000004559
  0
ARC
  5
1AC5
330
1A
100
AcDbEntity
  8
0
100
AcDbCircle
 10
-41.60108546279717
 20
1.313180284404346
 30
0.0
 40
0.5
100
AcDbArc
 50
0.0
 51
90.00000000004559
  0
LINE
  5
1AC8
330
1A
100
AcDbEntity
  8
0
100
AcDbLine
 10
-41.80991345593098
 20
1.313180284404346
 30
0.0
 11
-41.80991345593098
 21
-0.544306174906275
 31
0.0
  0
LINE
  5
1AC9
330
1A
100
AcDbEntity
  8
0
100
AcDbLine
 10
-41.10108546279717
 20
1.313180284404346
 30
0.0
 11
-41.10108546279717
 21
-0.5360376381001757
 31
0.0
  0
LINE
  5
1ACA
330
1A
100
AcDbEntity
  8
0
100
AcDbLine
 10
-84.16883359997505
 20
-38.68681971554154
 30
0.0
 11
-82.19571221541889
 21
-1.03742087532985
 31
0.0
  0
LINE
  5
1ACB
330
1A
100
AcDbEntity
  8
0
100
AcDbLine
 10
-84.16883359997505
 20
-38.68681971554154
 30
0.0
 11
-78.89059342905953
 21
-38.68681971553699
 31
0.0
  0
LINE
  5
1ACC
330
1A
100
AcDbEntity
  8
0
100
AcDbLine
 10
-76.96883359997729
 20
-36.35961318518069
 30
0.0
 11
-76.96883359997729
 21
-38.68681971562521
 31
0.0
  0
LINE
  5
1ACE
330
1A
100
AcDbEntity
  8
0
100
AcDbLine
 10
-66.96883359997729
 20
-34.69548889554947
 30
0.0
 11
-66.96883359997729
 21
-38.68681971561703
 31
0.0
  0
ARC
  5
1AD3
330
1A
100
AcDbEntity
  8
0
100
AcDbCircle
 10
-53.06856612658235
 20
1.424873898234885
 30
0.0
 40
26.457015711506
100
AcDbArc
 50
189.419705751817
 51
207.0974287692626
  0
ARC
  5
1AD4
330
1A
100
AcDbEntity
  8
0
100
AcDbCircle
 10
-57.2934522866493
 20
-3.736481966532871
 30
0.0
 40
25.12177502625684
100
AcDbArc
 50
182.4428453690362
 51
205.0247467972977
  0
ARC
  5
1AD5
330
1A
100
AcDbEntity
  8
0
100
AcDbCircle
 10
-77.85088831574431
 20
-14.83925582514505
 30
0.0
 40
2.0
100
AcDbArc
 50
90.0
 51
176.9999999999944
  0
ARC
  5
1AD6
330
1A
100
AcDbEntity
  8
0
100
AcDbCircle
 10
-80.39912585409398
 20
-4.971156162174999
 30
0.0
 40
2.0
100
AcDbArc
 50
91.36544644522279
 51
176.9999999999944
  0
LINE
  5
1AD7
330
1A
100
AcDbEntity
  8
0
100
AcDbLine
 10
-79.16883359997687
 20
-2.381502146964272
 30
0.0
 11
-79.16883359997687
 21
-2.905220578348441
 31
0.0
  0
ARC
  5
1AD8
330
1A
100
AcDbEntity
  8
0
100
AcDbCircle
 10
-80.19845314590963
 20
-1.142092787815933
 30
0.0
 40
2.0
100
AcDbArc
 50
91.36544644522279
 51
176.9999999999944
  0
LINE
  5
1ADD
330
1A
100
AcDbEntity
  8
0
100
AcDbLine
 10
-79.16883359997687
 20
-2.381502146964272
 30
0.0
 11
-65.15168533229836
 21
-2.381502146964272
 31
0.0
  0
ARC
  5
1AE2
330
1A
100
AcDbEntity
  8
0
100
AcDbCircle
 10
-67.7188335999773
 20
-40.18681971552335
 30
0.0
 40
0.5
100
AcDbArc
 50
270.0
 51
0.0
  0
LINE
  5
1AE3
330
1A
100
AcDbEntity
  8
0
100
AcDbLine
 10
-76.2188335999773
 20
-40.68681971552335
 30
0.0
 11
-67.7188335999773
 21
-40.68681971552335
 31
0.0
  0
LINE
  5
1AE4
330
1A
100
AcDbEntity
  8
0
100
AcDbLine
 10
-67.2188335999773
 20
-38.68681971552335
 30
0.0
 11
-67.2188335999773
 21
-40.18681971552335
 31
0.0
  0
ARC
  5
1AE5
330
1A
100
AcDbEntity
  8
0
100
AcDbCircle
 10
-76.2188335999773
 20
-40.18681971552335
 30
0.0
 40
0.5
100
AcDbArc
 50
180.0
 51
270.0
  0
LINE
  5
1AE6
330
1A
100
AcDbEntity
  8
0
100
AcDbLine
 10
-76.7188335999773
 20
-38.68681971552335
 30
0.0
 11
-76.7188335999773
 21
-40.18681971552335
 31
0.0
  0
ARC
  5
1AE7
330
1A
100
AcDbEntity
  8
0
100
AcDbCircle
 10
480.0072778405014
 20
-40.18681971552335
 30
0.0
 40
0.5
100
AcDbArc
 50
270.0
 51
0.0
  0
LINE
  5
1AE8
330
1A
100
AcDbEntity
  8
0
100
AcDbLine
 10
471.5072778405014
 20
-40.68681971552336
 30
0.0
 11
480.0072778405014
 21
-40.68681971552336
 31
0.0
  0
LINE
  5
1AE9
330
1A
100
AcDbEntity
  8
0
100
AcDbLine
 10
480.5072778405014
 20
-38.68681971552336
 30
0.0
 11
480.5072778405014
 21
-40.18681971552335
 31
0.0
  0
ARC
  5
1AEA
330
1A
100
AcDbEntity
  8
0
100
AcDbCircle
 10
471.5072778405014
 20
-40.18681971552335
 30
0.0
 40
0.5
100
AcDbArc
 50
180.0
 51
270.0
  0
LINE
  5
1AEB
330
1A
100
AcDbEntity
  8
0
100
AcDbLine
 10
471.0072778405014
 20
-38.68681971552275
 30
0.0
 11
471.0072778405014
 21
-40.18681971552335
 31
0.0
  0
ARC
  5
20F7
330
1A
100
AcDbEntity
  8
0
100
AcDbCircle
 10
165.1562391336501
 20
163.3010983275363
 30
0.0
 40
2.001941469374841
100
AcDbArc
 50
180.0
 51
0.0
  0
ARC
  5
20F8
330
1A
100
AcDbEntity
  8
0
100
AcDbCircle
 10
165.7972048683376
 20
163.6027331781613
 30
0.0
 40
0.6005825965624524
100
AcDbArc
 50
280.8415498999963
 51
0.0
  0
ARC
  5
20F9
330
1A
100
AcDbEntity
  8
0
100
AcDbCircle
 10
165.1562391336501
 20
166.9430341472235
 30
0.0
 40
4.003801281249682
100
AcDbArc
 50
259.1517943999999
 51
280.8481598000028
  0
ARC
  5
20FA
330
1A
100
AcDbEntity
  8
0
100
AcDbCircle
 10
164.5152733989626
 20
163.6027331781613
 30
0.0
 40
0.6005825965624524
100
AcDbArc
 50
180.0
 51
259.1583862000025
  0
LINE
  5
20FB
330
1A
100
AcDbEntity
  8
0
100
AcDbLine
 10
163.9148024695878
 20
163.6027331781613
 30
0.0
 11
163.9148024695878
 21
164.6221422097237
 31
0.0
  0
LINE
  5
20FC
330
1A
100
AcDbEntity
  8
0
100
AcDbLine
 10
166.3976757977126
 20
164.6221422097237
 30
0.0
 11
166.3976757977126
 21
163.6027331781613
 31
0.0
  0
LINE
  5
20FD
330
1A
100
AcDbEntity
  8
0
100
AcDbLine
 10
163.9148024695878
 20
164.6221422097237
 30
0.0
 11
166.3976757977126
 21
164.6221422097237
 31
0.0
  0
LINE
  5
20FE
330
1A
100
AcDbEntity
  8
0
100
AcDbLine
 10
163.1537399958378
 20
166.9430341472235
 30
0.0
 11
163.1537399958378
 21
163.3010983275363
 31
0.0
  0
LINE
  5
20FF
330
1A
100
AcDbEntity
  8
0
100
AcDbLine
 10
167.1587382714625
 20
163.3010983275363
 30
0.0
 11
167.1587382714625
 21
166.9430341472235
 31
0.0
  0
LINE
  5
2100
330
1A
100
AcDbEntity
  8
0
100
AcDbLine
 10
167.1587382714625
 20
166.9430341472235
 30
0.0
 11
166.3976757977126
 21
166.9430341472235
 31
0.0
  0
LINE
  5
2101
330
1A
100
AcDbEntity
  8
0
100
AcDbLine
 10
166.3976757977126
 20
166.9430341472235
 30
0.0
 11
166.3976757977126
 21
166.2224622234735
 31
0.0
  0
LINE
  5
2102
330
1A
100
AcDbEntity
  8
0
100
AcDbLine
 10
163.9148024695878
 20
166.672123681911
 30
0.0
 11
163.9148024695878
 21
166.9430341472235
 31
0.0
  0
LINE
  5
2103
330
1A
100
AcDbEntity
  8
0
100
AcDbLine
 10
163.9148024695878
 20
166.9430341472235
 30
0.0
 11
163.1537399958378
 21
166.9430341472235
 31
0.0
  0
LINE
  5
2104
330
1A
100
AcDbEntity
  8
0
100
AcDbLine
 10
166.3976757977126
 20
166.2224622234735
 30
0.0
 11
165.2470193561501
 21
166.2224622234735
 31
0.0
  0
LINE
  5
2105
330
1A
100
AcDbEntity
  8
0
100
AcDbLine
 10
167.1587382714625
 20
168.2752308697234
 30
0.0
 11
165.2470193561501
 21
166.2224622234735
 31
0.0
  0
LINE
  5
2106
330
1A
100
AcDbEntity
  8
0
100
AcDbLine
 10
163.9148024695878
 20
166.672123681911
 30
0.0
 11
166.1812394233376
 21
169.1075168172233
 31
0.0
  0
LINE
  5
2107
330
1A
100
AcDbEntity
  8
0
100
AcDbLine
 10
163.9148024695878
 20
170.7078564665982
 30
0.0
 11
163.9148024695878
 21
171.1882253725356
 31
0.0
  0
LINE
  5
2108
330
1A
100
AcDbEntity
  8
0
100
AcDbLine
 10
163.9148024695878
 20
171.1882253725356
 30
0.0
 11
163.1537399958378
 21
171.1882253725356
 31
0.0
  0
LINE
  5
2109
330
1A
100
AcDbEntity
  8
0
100
AcDbLine
 10
163.1537399958378
 20
171.1882253725356
 30
0.0
 11
163.1537399958378
 21
168.6243639634733
 31
0.0
  0
LINE
  5
210A
330
1A
100
AcDbEntity
  8
0
100
AcDbLine
 10
163.1537399958378
 20
168.6243639634733
 30
0.0
 11
163.9148024695878
 21
168.6243639634733
 31
0.0
  0
LINE
  5
210B
330
1A
100
AcDbEntity
  8
0
100
AcDbLine
 10
163.9148024695878
 20
168.6243639634733
 30
0.0
 11
163.9148024695878
 21
169.1075168172233
 31
0.0
  0
LINE
  5
210C
330
1A
100
AcDbEntity
  8
0
100
AcDbLine
 10
163.9148024695878
 20
169.1075168172233
 30
0.0
 11
166.1812394233376
 21
169.1075168172233
 31
0.0
  0
LINE
  5
210D
330
1A
100
AcDbEntity
  8
0
100
AcDbLine
 10
164.3951766599002
 20
170.7078564665982
 30
0.0
 11
163.9148024695878
 21
170.7078564665982
 31
0.0
  0
LINE
  5
210E
330
1A
100
AcDbEntity
  8
0
100
AcDbLine
 10
165.1562391336501
 20
170.7078564665982
 30
0.0
 11
166.1812394233376
 21
170.7078564665982
 31
0.0
  0
LINE
  5
210F
330
1A
100
AcDbEntity
  8
0
100
AcDbLine
 10
165.1562391336501
 20
171.5513149178481
 30
0.0
 11
166.1812394233376
 21
170.7078564665982
 31
0.0
  0
LINE
  5
2110
330
1A
100
AcDbEntity
  8
0
100
AcDbLine
 10
165.1562391336501
 20
170.7078564665982
 30
0.0
 11
165.1562391336501
 21
171.5513149178481
 31
0.0
  0
LINE
  5
2111
330
1A
100
AcDbEntity
  8
0
100
AcDbLine
 10
164.3951766599002
 20
172.1769073209731
 30
0.0
 11
164.3951766599002
 21
170.7078564665982
 31
0.0
  0
LINE
  5
2112
330
1A
100
AcDbEntity
  8
0
100
AcDbLine
 10
163.9148024695878
 20
172.590259421598
 30
0.0
 11
164.3951766599002
 21
172.1769073209731
 31
0.0
  0
LINE
  5
2113
330
1A
100
AcDbEntity
  8
0
100
AcDbLine
 10
163.9148024695878
 20
172.1098735778481
 30
0.0
 11
163.9148024695878
 21
172.590259421598
 31
0.0
  0
LINE
  5
2114
330
1A
100
AcDbEntity
  8
0
100
AcDbLine
 10
163.1537399958378
 20
172.1098735778481
 30
0.0
 11
163.9148024695878
 21
172.1098735778481
 31
0.0
  0
LINE
  5
2115
330
1A
100
AcDbEntity
  8
0
100
AcDbLine
 10
163.1537399958378
 20
174.7128481506604
 30
0.0
 11
163.1537399958378
 21
172.1098735778481
 31
0.0
  0
LINE
  5
2116
330
1A
100
AcDbEntity
  8
0
100
AcDbLine
 10
163.9148024695878
 20
174.7128481506604
 30
0.0
 11
163.1537399958378
 21
174.7128481506604
 31
0.0
  0
LINE
  5
2117
330
1A
100
AcDbEntity
  8
0
100
AcDbLine
 10
163.9148024695878
 20
174.2324763522229
 30
0.0
 11
163.9148024695878
 21
174.7128481506604
 31
0.0
  0
LINE
  5
2118
330
1A
100
AcDbEntity
  8
0
100
AcDbLine
 10
166.3976757977126
 20
172.1880792406606
 30
0.0
 11
163.9148024695878
 21
174.2324763522229
 31
0.0
  0
LINE
  5
2119
330
1A
100
AcDbEntity
  8
0
100
AcDbLine
 10
166.3976757977126
 20
172.590259421598
 30
0.0
 11
166.3976757977126
 21
172.1880792406606
 31
0.0
  0
LINE
  5
211A
330
1A
100
AcDbEntity
  8
0
100
AcDbLine
 10
167.1587382714625
 20
172.590259421598
 30
0.0
 11
166.3976757977126
 21
172.590259421598
 31
0.0
  0
LINE
  5
211B
330
1A
100
AcDbEntity
  8
0
100
AcDbLine
 10
167.1587382714625
 20
172.590259421598
 30
0.0
 11
167.1587382714625
 21
168.2752308697234
 31
0.0
  0
ARC
  5
2143
330
1A
100
AcDbEntity
  8
0
100
AcDbCircle
 10
223.1571331870971
 20
117.9628481506332
 30
0.0
 40
65.36685445498187
100
AcDbArc
 50
104.2500326978069
 51
255.7499673021931
  0
ARC
  5
2144
330
1A
100
AcDbEntity
  8
0
100
AcDbCircle
 10
223.1571331870971
 20
117.9628481506332
 30
0.0
 40
65.0
100
AcDbArc
 50
104.2500326978069
 51
255.7499673021931
  0
ARC
  5
2145
330
1A
100
AcDbEntity
  8
0
100
AcDbCircle
 10
223.1571331870971
 20
117.9628481506332
 30
0.0
 40
50.0
100
AcDbArc
 50
108.6629248849506
 51
251.3370751150494
  0
ARC
  5
2146
330
1A
100
AcDbEntity
  8
0
100
AcDbCircle
 10
223.1571331870971
 20
117.9628481506332
 30
0.0
 40
65.36685445498187
100
AcDbArc
 50
284.2500326978069
 51
75.7499673021931
  0
ARC
  5
2147
330
1A
100
AcDbEntity
  8
0
100
AcDbCircle
 10
223.1571331870971
 20
117.9628481506332
 30
0.0
 40
65.0
100
AcDbArc
 50
284.2500326978069
 51
75.7499673021931
  0
ARC
  5
2148
330
1A
100
AcDbEntity
  8
0
100
AcDbCircle
 10
223.1571331870971
 20
117.9628481506332
 30
0.0
 40
50.0
100
AcDbArc
 50
288.6629248849506
 51
71.33707511504936
  0
LINE
  5
2149
330
1A
100
AcDbEntity
  8
0
100
AcDbLine
 10
220.1571331870971
 20
158.8121647503843
 30
0.0
 11
220.1571331870971
 21
180.9628481506332
 31
0.0
  0
LINE
  5
214A
330
1A
100
AcDbEntity
  8
0
100
AcDbLine
 10
226.1571331870971
 20
158.8121647503843
 30
0.0
 11
226.1571331870971
 21
180.9628481506332
 31
0.0
  0
LINE
  5
214B
330
1A
100
AcDbEntity
  8
0
100
AcDbLine
 10
220.1571331870971
 20
162.8627367919206
 30
0.0
 11
220.1571331870971
 21
180.9628481506332
 31
0.0
  0
LINE
  5
214C
330
1A
100
AcDbEntity
  8
0
100
AcDbLine
 10
226.1571331870971
 20
162.8627367919206
 30
0.0
 11
226.1571331870971
 21
180.9628481506332
 31
0.0
  0
LINE
  5
214D
330
1A
100
AcDbEntity
  8
0
100
AcDbLine
 10
207.1571331870934
 20
165.33372527994
 30
0.0
 11
220.1571331870971
 21
158.8121647503843
 31
0.0
  0
LINE
  5
214E
330
1A
100
AcDbEntity
  8
0
100
AcDbLine
 10
239.1571331870971
 20
165.3337252799414
 30
0.0
 11
226.1571331870971
 21
158.8121647503843
 31
0.0
  0
CIRCLE
  5
214F
330
1A
100
AcDbEntity
  8
0
100
AcDbCircle
 10
223.1571331870964
 20
117.9628481506327
 30
0.0
 40
12.0
  0
LINE
  5
2150
330
1A
100
AcDbEntity
  8
0
100
AcDbLine
 10
220.1571331870971
 20
77.11353155088167
 30
0.0
 11
220.1571331870971
 21
54.96284815063322
 31
0.0
  0
LINE
  5
2151
330
1A
100
AcDbEntity
  8
0
100
AcDbLine
 10
226.1571331870971
 20
77.11353155088167
 30
0.0
 11
226.1571331870971
 21
54.96284815063322
 31
0.0
  0
LINE
  5
2152
330
1A
100
AcDbEntity
  8
0
100
AcDbLine
 10
207.1571331870934
 20
70.59197102132642
 30
0.0
 11
220.1571331870971
 21
77.11353155088167
 31
0.0
  0
LINE
  5
2153
330
1A
100
AcDbEntity
  8
0
100
AcDbLine
 10
239.1571331870971
 20
70.59197102132507
 30
0.0
 11
226.1571331870971
 21
77.11353155088167
 31
0.0
  0
LINE
  5
2154
330
1A
100
AcDbEntity
  8
0
100
AcDbLine
 10
207.066830552021
 20
54.60728152503619
 30
0.0
 11
239.2474358221732
 21
54.60728152503619
 31
0.0
  0
LINE
  5
2155
330
1A
100
AcDbEntity
  8
0
100
AcDbLine
 10
207.1571331870966
 20
54.96284815063322
 30
0.0
 11
239.1571331870971
 21
54.96284815063322
 31
0.0
  0
LINE
  5
2156
330
1A
100
AcDbEntity
  8
0
100
AcDbLine
 10
207.1571331870934
 20
54.96284815063413
 30
0.0
 11
207.1571331870934
 21
70.59197102132642
 31
0.0
  0
LINE
  5
2157
330
1A
100
AcDbEntity
  8
0
100
AcDbLine
 10
239.1571331870967
 20
54.96284815063322
 30
0.0
 11
239.1571331870971
 21
70.59197102132507
 31
0.0
  0
LINE
  5
2158
330
1A
100
AcDbEntity
  8
0
100
AcDbLine
 10
226.1571331870971
 20
77.11353155088167
 30
0.0
 11
220.1571331870971
 21
77.11353155088167
 31
0.0
  0
LINE
  5
2159
330
1A
100
AcDbEntity
  8
0
100
AcDbLine
 10
226.1571331870971
 20
158.8121647503843
 30
0.0
 11
220.1571331870971
 21
158.8121647503843
 31
0.0
  0
LINE
  5
215A
330
1A
100
AcDbEntity
  8
0
100
AcDbLine
 10
207.066830552021
 20
181.3184147762298
 30
0.0
 11
239.2474358221732
 21
181.3184147762298
 31
0.0
  0
LINE
  5
215B
330
1A
100
AcDbEntity
  8
0
100
AcDbLine
 10
207.1571331870966
 20
180.9628481506332
 30
0.0
 11
239.1571331870971
 21
180.9628481506332
 31
0.0
  0
LINE
  5
215C
330
1A
100
AcDbEntity
  8
0
100
AcDbLine
 10
207.1571331870934
 20
180.9628481506323
 30
0.0
 11
207.1571331870934
 21
165.33372527994
 31
0.0
  0
LINE
  5
215D
330
1A
100
AcDbEntity
  8
0
100
AcDbLine
 10
239.1571331870967
 20
180.9628481506332
 30
0.0
 11
239.1571331870971
 21
165.3337252799414
 31
0.0
  0
DIMENSION
  5
2166
330
1A
100
AcDbEntity
  8
MEASURE
100
AcDbDimension
  2
*D20
 10
295.6571331870634
 20
224.9628481506587
 30
0.0
 11
199.6571331870643
 21
229.4628481506586
 31
0.0
 70
    32
 71
     5
 42
191.9999999999982
  3
AD-STANDARD
100
AcDbAlignedDimension
 13
103.6571331870652
 23
167.056846365057
 33
0.0
 14
295.6571331870634
 24
182.9628481506586
 34
0.0
100
AcDbRotatedDimension
  0
VIEWPORT
  5
22
102
{ACAD_XDICTIONARY
360
21D8
102
}
330
17
100
AcDbEntity
 67
     1
  8
0
100
AcDbViewport
 10
212.4927000797566
 20
149.5052580598521
 30
0.0
 40
436.896182825388
 41
266.7098790503823
 68
     1
 69
     1
 12
212.4927000797566
 22
149.5052580598521
 13
0.0
 23
0.0
 14
1.0
 24
1.0
 15
10.0
 25
10.0
 16
0.0
 26
0.0
 36
1.0
 17
0.0
 27
0.0
 37
0.0
 42
50.0
 43
0.0
 44
0.0
 45
266.7098790503823
 50
0.0
 51
0.0
 72
   100
 90
    32768
  1

281
     0
 71
     1
 74
     0
110
0.0
120
0.0
130
0.0
111
1.0
121
0.0
131
0.0
112
0.0
122
1.0
132
0.0
 79
     0
146
0.0
  0
VIEWPORT
  5
399
102
{ACAD_XDICTIONARY
360
21E1
102
}
330
17
100
AcDbEntity
 67
     1
  8
DEFPOINTS
100
AcDbViewport
 10
212.5
 20
149.4999999999999
 30
0.0
 40
385.0
 41
264.9999999999999
 68
     2
 69
     2
 12
201.4267446355043
 22
96.0980095421819
 13
0.0
 23
0.0
 14
168.0
 24
168.0
 15
0.0
 25
0.0
 16
0.0
 26
0.0
 36
1.0
 17
0.0
 27
0.0
 37
0.0
 42
50.0
 43
0.0
 44
0.0
 45
395.73953651657
 50
0.0
 51
0.0
 72
   100
 90
    36864
  1

281
     0
 71
     1
 74
     0
110
0.0
120
0.0
130
0.0
111
1.0
121
0.0
131
0.0
112
0.0
122
1.0
132
0.0
 79
     0
146
0.0
  0
ENDSEC
  0
SECTION
  2
OBJECTS
  0
DICTIONARY
  5
C
330
0
100
AcDbDictionary
281
     1
  3
ACAD_COLOR
350
2053
  3
ACAD_GROUP
350
D
  3
ACAD_LAYOUT
350
2C2
  3
ACAD_MATERIAL
350
2029
  3
ACAD_MLEADERSTYLE
350
2078
  3
ACAD_MLINESTYLE
350
E
  3
ACAD_PLOTSETTINGS
350
2C3
  3
ACAD_PLOTSTYLENAME
350
2C0
  3
ACAD_SCALELIST
350
2056
  3
ACAD_TABLESTYLE
350
2054
  3
ACAD_VISUALSTYLE
350
2042
  3
AcadDim
350
2CE
  3
ACDB_RECOMPOSE_DATA
350
21D6
  3
AcDbVariableDictionary
350
21CD
  3
CONTENTDICTIONARY
350
234
  3
DWGPROPS
350
21D7
  0
DICTIONARY
  5
2086
330
2
100
AcDbDictionary
280
     1
281
     1
  3
ACAD_LAYERSTATES
360
2087
  0
DICTIONARY
  5
21A9
330
F
100
AcDbDictionary
280
     1
281
     1
  3
ADSK_XREC_LAYER_RECONCILED
360
21AA
  0
DICTIONARY
  5
21AB
330
71
100
AcDbDictionary
280
     1
281
     1
  3
ADSK_XREC_LAYER_RECONCILED
360
21AC
  0
DICTIONARY
  5
1FA7
330
1A
100
AcDbDictionary
280
     1
281
     1
  3
ACAD_LAYOUTSELFREF
360
1FA8
  3
ACAD_SORTENTS
360
211C
  0
DICTIONARY
  5
1FA5
330
17
100
AcDbDictionary
280
     1
281
     1
  3
ACAD_LAYOUTSELFREF
360
1FA6
  0
DICTIONARY
  5
21D8
330
22
100
AcDbDictionary
280
     1
281
     1
  3
ACAD_XREC_ROUNDTRIP
360
21D9
  0
DICTIONARY
  5
21E1
330
399
100
AcDbDictionary
280
     1
281
     1
  3
ACAD_XREC_ROUNDTRIP
360
21E2
  0
DICTIONARY
  5
2053
102
{ACAD_REACTORS
330
C
102
}
330
C
100
AcDbDictionary
281
     1
  0
DICTIONARY
  5
D
102
{ACAD_REACTORS
330
C
102
}
330
C
100
AcDbDictionary
281
     1
  0
DICTIONARY
  5
2C2
102
{ACAD_REACTORS
330
C
102
}
330
C
100
AcDbDictionary
281
     1
  3
Model
350
2C4
  3
ﾚｲｱｳﾄ1
350
2C5
  0
DICTIONARY
  5
2029
102
{ACAD_REACTORS
330
C
102
}
330
C
100
AcDbDictionary
281
     1
  3
ByBlock
350
2032
  3
ByLayer
350
202A
  3
Global
350
203A
  0
DICTIONARY
  5
2078
102
{ACAD_REACTORS
330
C
102
}
330
C
100
AcDbDictionary
281
     1
  3
Standard
350
2079
  0
DICTIONARY
  5
E
102
{ACAD_REACTORS
330
C
102
}
330
C
100
AcDbDictionary
281
     1
  3
STANDARD
350
13
  0
DICTIONARY
  5
2C3
102
{ACAD_REACTORS
330
C
102
}
330
C
100
AcDbDictionary
281
     1
  3
A3form
350
2DD
  0
ACDBDICTIONARYWDFLT
  5
2C0
102
{ACAD_REACTORS
330
C
102
}
330
C
100
AcDbDictionary
281
     1
  3
Normal
350
2C1
100
AcDbDictionaryWithDefault
340
2C1
  0
DICTIONARY
  5
2056
102
{ACAD_REACTORS
330
C
102
}
330
C
100
AcDbDictionary
281
     1
  3
A0
350
2057
  3
A1
350
2058
  3
A2
350
2059
  3
A3
350
205A
  3
A4
350
205B
  3
A5
350
205C
  3
A6
350
205D
  3
A7
350
205E
  3
A8
350
205F
  3
A9
350
2060
  3
B0
350
2061
  3
B1
350
2062
  3
B2
350
2063
  3
B3
350
2064
  3
B4
350
2065
  3
B5
350
2066
  3
B6
350
2067
  3
B7
350
2068
  3
B8
350
2069
  3
B9
350
206A
  3
C0
350
206B
  3
C1
350
206C
  3
C2
350
206D
  3
C3
350
206E
  3
C4
350
206F
  3
C5
350
2070
  3
C6
350
2071
  3
C7
350
2072
  3
C8
350
2073
  3
C9
350
2074
  3
D0
350
2075
  3
D1
350
2076
  3
D2
350
2077
  0
DICTIONARY
  5
2054
102
{ACAD_REACTORS
330
C
102
}
330
C
100
AcDbDictionary
281
     1
  3
Standard
350
2055
  0
DICTIONARY
  5
2042
102
{ACAD_REACTORS
330
C
102
}
330
C
100
AcDbDictionary
281
     1
  3
2dWireframe
350
2048
  3
3D Hidden
350
204A
  3
3dWireframe
350
2049
  3
Basic
350
2047
  3
Brighten
350
204E
  3
ColorChange
350
2052
  3
Conceptual
350
204B
  3
Dim
350
204D
  3
Facepattern
350
2051
  3
Flat
350
2043
  3
FlatWithEdges
350
2044
  3
Gouraud
350
2045
  3
GouraudWithEdges
350
2046
  3
Linepattern
350
2050
  3
Realistic
350
204C
  3
Thicken
350
204F
  0
XRECORD
  5
2CE
102
{ACAD_REACTORS
330
C
102
}
330
C
100
AcDbXrecord
280
     1
 90
   990106
  3

 60
     0
 61
     0
 62
     4
 63
     4
 64
     1
 65
     0
 66
     0
 67
     3
 68
     1
 69
     0
 70
     0
 71
     0
 72
     0
 40
0.0
170
     2
340
1D7C
  0
XRECORD
  5
21D6
102
{ACAD_REACTORS
330
C
102
}
330
C
100
AcDbXrecord
280
     1
 90
        1
330
2055
  0
DICTIONARY
  5
21CD
102
{ACAD_REACTORS
330
C
102
}
330
C
100
AcDbDictionary
281
     1
  3
CANNOSCALE
350
21D0
  3
CMLEADERSTYLE
350
21CF
  3
CTABLESTYLE
350
21CE
  3
DIMASSOC
350
21D3
  3
INDEXCTL
350
21D2
  3
SORTENTS
350
21D1
  0
DICTIONARY
  5
234
102
{ACAD_REACTORS
330
C
102
}
330
C
100
AcDbDictionary
281
     1
  0
XRECORD
  5
21D7
102
{ACAD_REACTORS
330
C
102
}
330
C
100
AcDbXrecord
280
     1
  1
DWGPROPS COOKIE
  2

  3

  4

  6

  7

  8
KOIKE-1345
  9

300
=
301
=
302
=
303
=
304
=
305
=
306
=
307
=
308
=
309
=
 40
0.1745896296296296
 41
2453202.47636
 42
2459614.394274653
  1

 90
        0
  0
DICTIONARY
  5
2087
102
{ACAD_REACTORS
330
2086
102
}
330
2086
100
AcDbDictionary
281
     1
  0
XRECORD
  5
21AA
102
{ACAD_REACTORS
330
21A9
102
}
330
21A9
100
AcDbXrecord
280
     1
290
     1
  0
XRECORD
  5
21AC
102
{ACAD_REACTORS
330
21AB
102
}
330
21AB
100
AcDbXrecord
280
     1
290
     1
  0
XRECORD
  5
1FA8
102
{ACAD_REACTORS
330
1FA7
102
}
330
1FA7
100
AcDbXrecord
280
     1
340
1A
  0
SORTENTSTABLE
  5
211C
102
{ACAD_REACTORS
330
1FA7
102
}
330
1FA7
100
AcDbSortentsTable
330
1A
331
1AD8
  5
2152
331
18EB
  5
1AE2
331
1A69
  5
2108
331
1840
  5
1885
331
181E
  5
185F
331
17FC
  5
1848
331
1A8B
  5
2122
331
185A
  5
18A5
331
187C
  5
18CF
331
189E
  5
1A82
331
1AE9
  5
215B
331
214F
  5
182B
331
1A7A
  5
2116
331
182F
  5
1870
331
1ABE
  5
213F
331
186B
  5
18BA
331
210B
  5
1A5C
331
18AF
  5
1AA2
331
18E9
  5
1AD8
331
1A89
  5
2120
331
1858
  5
18A3
331
183E
  5
1882
331
181C
  5
185D
331
17FA
  5
1846
331
2109
  5
1A5A
331
189C
  5
1A7C
331
1AE7
  5
2159
331
18BE
  5
1AB4
331
214D
  5
1829
331
1A5E
  5
20FF
331
182D
  5
186E
331
1A78
  5
2114
331
184F
  5
1899
331
17E9
  5
181C
331
1ABC
  5
213D
331
211A
  5
1A6E
331
18AD
  5
1AA0
331
1869
  5
18B4
331
1A65
  5
2106
331
183C
  5
1880
331
181A
  5
185B
331
17F8
  5
1844
331
1A87
  5
211E
331
1856
  5
18A0
331
1AA9
  5
212F
331
1878
  5
18CC
331
1ACB
  5
214A
331
189A
  5
1A79
331
1AE5
  5
2157
331
18BC
  5
1AB2
331
214B
  5
1827
331
18D6
  5
1AC4
331
1A5C
  5
20FD
331
1A76
  5
2112
331
184D
  5
1897
331
182B
  5
186C
331
2118
  5
1A6B
331
1867
  5
18B2
331
1ABA
  5
213B
331
1889
  5
18E1
331
18AB
  5
1A99
331
18E7
  5
1AD6
331
215C
  5
1838
331
20FE
  5
18EE
331
2107
  5
1A58
331
1A63
  5
2104
331
183A
  5
187E
331
1818
  5
1859
331
1A85
  5
211B
331
1854
  5
189E
331
1AA7
  5
212D
331
1876
  5
18C6
331
1AC9
  5
2148
331
1898
  5
1A77
331
1AE3
  5
2155
331
18BA
  5
1AAE
331
2149
  5
1825
331
18D4
  5
1AC2
331
1A5A
  5
20FB
331
1829
  5
186A
331
1807
  5
1850
331
1A74
  5
2110
331
184B
  5
1895
331
17E5
  5
1819
331
2105
  5
1A55
331
2116
  5
1A69
331
1865
  5
18B0
331
1AB8
  5
2139
331
1887
  5
18DF
331
18A9
  5
1A93
331
18E5
  5
1AD4
331
215A
  5
1836
331
17F6
  5
1842
331
20FC
  5
18EC
331
1A61
  5
2102
331
1838
  5
187C
331
2103
  5
1A53
331
1852
  5
189C
331
1AA5
  5
212B
331
1874
  5
18C4
331
1896
  5
1A75
331
18D2
  5
1AC0
331
2147
  5
1823
331
1A58
  5
20F9
331
1827
  5
1868
331
1A72
  5
210E
331
1849
  5
1893
331
17E3
  5
1817
331
1A94
  5
2125
331
1863
  5
18AE
331
2114
  5
1A65
331
1AB6
  5
2137
331
18A7
  5
1A8B
331
18E3
  5
1ACE
331
2158
  5
1834
331
1816
  5
1857
331
17F4
  5
1840
331
1885
  5
18DE
331
20FA
  5
18EA
331
2101
  5
1A51
331
1850
  5
189A
331
1872
  5
18C3
331
1AC5
  5
2146
331
1894
  5
1A73
331
2145
  5
1821
331
1A56
  5
20F8
331
1825
  5
1866
331
1803
  5
184F
331
20F8
  5
18E8
331
1847
  5
1890
331
17E1
  5
1815
331
1AB4
  5
2135
331
2112
  5
1A63
331
1AD6
  5
2150
331
18A5
  5
1A89
331
18E1
  5
1ACB
331
18C7
  5
1ABB
331
2156
  5
1832
331
1836
  5
1878
331
1814
  5
1855
331
17F2
  5
183E
331
1861
  5
18AC
331
1AA1
  5
2129
331
1870
  5
18BF
331
1AC3
  5
2144
331
1ADD
  5
2153
331
18B4
  5
1AA9
331
2143
  5
181F
331
18F0
  5
1AE7
331
1A54
  5
1AEB
331
1823
  5
1864
331
1801
  5
184D
331
17DF
  5
1813
331
18CE
  5
1ABD
331
1A6E
  5
210C
331
2110
  5
1A61
331
185F
  5
18AA
331
1AB2
  5
2133
331
1881
  5
18D5
331
1AD4
  5
214E
331
18A3
  5
1A87
331
18DF
  5
1AC9
331
18C5
  5
1AB9
331
2154
  5
1830
331
1834
  5
1876
331
1812
  5
1853
331
17F0
  5
183C
331
1845
  5
188E
331
1AC1
  5
2142
331
1890
  5
18E5
331
18CC
  5
1ABC
331
18B2
  5
1AA7
331
18EE
  5
1AE5
331
1A52
  5
1AE9
331
1821
  5
1862
331
17FF
  5
184B
331
210E
  5
1A5F
331
185D
  5
18A8
331
1843
  5
1889
331
18C3
  5
1AB7
331
2152
  5
182E
331
1A7D
  5
2118
331
1832
  5
1874
331
1A9F
  5
2127
331
186E
  5
18BD
331
187F
  5
18D3
331
17DD
  5
17DD
331
18B0
  5
1AA5
331
18EC
  5
1AE3
331
1A6A
  5
2109
331
1841
  5
1887
331
181F
  5
1860
331
17FD
  5
1849
331
210C
  5
1A5D
331
185B
  5
18A6
331
1AAE
  5
2131
331
189F
  5
1A84
331
1AEA
  5
215C
331
2150
  5
182C
331
186C
  5
18BB
331
1830
  5
1871
331
187D
  5
18D1
331
1ABF
  5
2140
331
188E
  5
18E3
331
17DB
  5
17DB
331
18EA
  5
1ADD
331
1A68
  5
2107
331
183F
  5
1884
331
181D
  5
185E
331
17FB
  5
1847
331
1A8A
  5
2121
331
1859
  5
18A4
331
1ACE
  5
214C
331
189D
  5
1A7D
331
1AE8
  5
215A
331
18BF
  5
1AB5
331
214E
  5
182A
331
1A79
  5
2115
331
1A5F
  5
2100
331
182E
  5
186F
331
1ABD
  5
213E
331
211B
  5
1A6F
331
186A
  5
18B9
331
17EA
  5
181D
331
210A
  5
1A5B
331
18AE
  5
1AA1
331
18E8
  5
1AD7
331
183D
  5
1881
331
181B
  5
185C
331
17F9
  5
1845
331
1A88
  5
211F
331
1857
  5
18A2
331
2108
  5
1A59
331
1AAA
  5
2130
331
1879
  5
18CE
331
1ACC
  5
214B
331
189B
  5
1A7A
331
1AE6
  5
2158
331
18BD
  5
1AB3
331
214C
  5
1828
331
18D7
  5
1AC5
331
1A5D
  5
20FE
331
182C
  5
186D
331
1A77
  5
2113
331
184E
  5
1898
331
17E8
  5
181B
331
1A99
  5
2126
331
1868
  5
18B3
331
2119
  5
1A6D
331
1ABB
  5
213C
331
18AC
  5
1A9F
331
215D
  5
1839
331
188A
  5
18E2
331
20FF
  5
18EF
331
3AD
  5
3AD
331
1A64
  5
2105
331
183B
  5
187F
331
1819
  5
185A
331
1A86
  5
211D
331
1855
  5
189F
331
1AA8
  5
212E
331
1877
  5
18C7
331
1ACA
  5
2149
331
1899
  5
1A78
331
1AE4
  5
2156
331
18BB
  5
1AAF
331
214A
  5
1826
331
18D5
  5
1AC3
331
1A5B
  5
20FC
331
182A
  5
186B
331
1A75
  5
2111
331
184C
  5
1896
331
17E6
  5
181A
331
2106
  5
1A56
331
2117
  5
1A6A
331
1866
  5
18B1
331
1AB9
  5
213A
331
1888
  5
18E0
331
18AA
  5
1A94
331
18E6
  5
1AD5
331
215B
  5
1837
331
17F7
  5
1843
331
20FD
  5
18ED
331
1A62
  5
2103
331
1839
  5
187D
331
1A84
  5
211A
331
1853
  5
189D
331
2104
  5
1A54
331
1AA6
  5
212C
331
1AC8
  5
2147
331
1897
  5
1A76
331
1AE2
  5
2154
331
18B9
  5
1AAA
331
2148
  5
1824
331
18D3
  5
1AC1
331
1A59
  5
20FA
331
1828
  5
1869
331
1A73
  5
210F
331
184A
  5
1894
331
17E4
  5
1818
331
1875
  5
18C5
331
1AB7
  5
2138
331
2115
  5
1A68
331
1864
  5
18AF
331
18A8
  5
1A8D
331
18E4
  5
1AD3
331
2159
  5
1835
331
1817
  5
1858
331
17F5
  5
1841
331
20FB
  5
18EB
331
1A60
  5
2101
331
1A82
  5
2119
331
1851
  5
189B
331
2102
  5
1A52
331
1895
  5
1A74
331
18D1
  5
1ABF
331
2146
  5
1822
331
20F9
  5
18E9
331
1848
  5
1891
331
1826
  5
1867
331
1A93
  5
2124
331
1862
  5
18AD
331
17E2
  5
1816
331
1AB5
  5
2136
331
1884
  5
18D7
331
1AD7
  5
2151
331
18A6
  5
1A8A
331
18E2
  5
1ACC
331
2157
  5
1833
331
1837
  5
1879
331
1815
  5
1856
331
17F3
  5
183F
331
2113
  5
1A64
331
2100
  5
18F0
331
1AA2
  5
212A
331
1871
  5
18C2
331
1AC4
  5
2145
331
1893
  5
1A72
331
18CF
  5
1ABE
331
2144
  5
1820
331
1A55
  5
20F7
331
1824
  5
1865
331
1802
  5
184E
331
1A6F
  5
210D
331
1846
  5
188F
331
17E0
  5
1814
331
2111
  5
1A62
331
1860
  5
18AB
331
1AB3
  5
2134
331
1882
  5
18D6
331
1AD5
  5
214F
331
18A4
  5
1A88
331
18E0
  5
1ACA
331
18C6
  5
1ABA
331
2155
  5
1831
331
1835
  5
1877
331
1813
  5
1854
331
17F1
  5
183D
331
20F7
  5
18E7
331
1AA0
  5
2128
331
1AC2
  5
2143
331
1891
  5
18E6
331
18EF
  5
1AE6
331
18B3
  5
1AA8
331
1A53
  5
1AEA
331
1822
  5
1863
331
1A6D
  5
210B
331
1844
  5
188A
331
210F
  5
1A60
331
1880
  5
18D4
331
1AD3
  5
214D
331
18A2
  5
1A86
331
18DE
  5
1AC8
331
18C4
  5
1AB8
331
2153
  5
182F
331
186F
  5
18BE
331
1833
  5
1875
331
1811
  5
1852
331
17EF
  5
183B
331
185E
  5
18A9
331
1800
  5
184C
331
1AC0
  5
2141
331
18B1
  5
1AA6
331
18ED
  5
1AE4
331
1A51
  5
1AE8
331
1820
  5
1861
331
17FE
  5
184A
331
1A6B
  5
210A
331
1842
  5
1888
331
1A8D
  5
2123
331
210D
  5
1A5E
331
1AAF
  5
2132
331
18A0
  5
1A85
331
1AEB
  5
215D
331
18C2
  5
1AB6
331
2151
  5
182D
331
1A7C
  5
2117
331
1831
  5
1872
331
180F
  5
1851
331
186D
  5
18BC
331
187E
  5
18D2
331
188F
  5
18E4
331
185C
  5
18A7
331
17DC
  5
17DC
  0
XRECORD
  5
1FA6
102
{ACAD_REACTORS
330
1FA5
102
}
330
1FA5
100
AcDbXrecord
280
     1
340
17
  0
XRECORD
  5
21D9
102
{ACAD_REACTORS
330
21D8
102
}
330
21D8
100
AcDbXrecord
280
     1
102
SHADEPLOT
 70
     0
  0
XRECORD
  5
21E2
102
{ACAD_REACTORS
330
21E1
102
}
330
21E1
100
AcDbXrecord
280
     1
102
SHADEPLOT
 70
     0
  0
LAYOUT
  5
2C4
102
{ACAD_XDICTIONARY
360
21DA
102
}
102
{ACAD_REACTORS
330
2C2
102
}
330
2C2
100
AcDbPlotSettings
  1

  2
Laser Wind 2080W
  4

  6

 40
0.0
 41
0.0
 42
0.0
 43
0.0
 44
0.0
 45
0.0
 46
0.0
 47
0.0
 48
0.0
 49
0.0
140
0.0
141
0.0
142
1.0
143
1.0
 70
  1712
 72
     0
 73
     0
 74
     0
  7

 75
     0
147
1.0
148
0.0
149
0.0
100
AcDbLayout
  1
Model
 70
     1
 71
     0
 10
0.0
 20
0.0
 11
12.0
 21
9.0
 12
0.0
 22
0.0
 32
0.0
 14
0.0
 24
0.0
 34
0.0
 15
0.0
 25
0.0
 35
0.0
146
0.0
 13
0.0
 23
0.0
 33
0.0
 16
1.0
 26
0.0
 36
0.0
 17
0.0
 27
1.0
 37
0.0
 76
     0
330
1A
331
1F7E
  0
LAYOUT
  5
2C5
102
{ACAD_XDICTIONARY
360
208B
102
}
102
{ACAD_REACTORS
330
2C2
102
}
330
2C2
100
AcDbPlotSettings
  1

  2
\\Adj-dv01-sv1\Canon LBP5700 LIPS
  4
A3
  6

 40
5.873749732971191
 41
5.873747825622558
 42
5.873748779296875
 43
5.873748779296875
 44
296.9259948730469
 45
419.9466552734374
 46
5.91
 47
9.009999999999999
 48
0.0
 49
0.0
140
0.0
141
0.0
142
1.0
143
1.0
 70
   692
 72
     1
 73
     1
 74
     1
  7
aclt.ctb
 75
    16
147
1.0
148
-14.98251327409787
149
-8.787244507366494
100
AcDbLayout
  1
ﾚｲｱｳﾄ1
 70
     1
 71
     1
 10
-0.0066564884951461
 20
-3.05577639081483
 11
420.1516687068173
 21
293.9760534431695
 12
0.0
 22
0.0
 32
0.0
 14
20.0
 24
17.0
 34
0.0
 15
405.0
 25
281.9999999999999
 35
0.0
146
0.0
 13
0.0
 23
0.0
 33
0.0
 16
1.0
 26
0.0
 36
0.0
 17
0.0
 27
1.0
 37
0.0
 76
     0
330
17
331
22
  0
MATERIAL
  5
2032
102
{ACAD_XDICTIONARY
360
2033
102
}
102
{ACAD_REACTORS
330
2029
102
}
330
2029
100
AcDbMaterial
  1
ByBlock
 72
     0
 43
0.0208333333333333
 43
0.0
 43
0.0
 43
0.0
 43
0.0
 43
0.0208333333333333
 43
0.0
 43
0.0
 43
0.0
 43
0.0
 43
1.0
 43
0.0
 43
0.0
 43
0.0
 43
0.0
 43
1.0
 77
     0
 47
0.0208333333333333
 47
0.0
 47
0.0
 47
0.0
 47
0.0
 47
0.0208333333333333
 47
0.0
 47
0.0
 47
0.0
 47
0.0
 47
1.0
 47
0.0
 47
0.0
 47
0.0
 47
0.0
 47
1.0
171
     0
 49
0.0208333333333333
 49
0.0
 49
0.0
 49
0.0
 49
0.0
 49
0.0208333333333333
 49
0.0
 49
0.0
 49
0.0
 49
0.0
 49
1.0
 49
0.0
 49
0.0
 49
0.0
 49
0.0
 49
1.0
175
     0
142
0.0208333333333333
142
0.0
142
0.0
142
0.0
142
0.0
142
0.0208333333333333
142
0.0
142
0.0
142
0.0
142
0.0
142
1.0
142
0.0
142
0.0
142
0.0
142
0.0
142
1.0
179
     0
144
0.0208333333333333
144
0.0
144
0.0
144
0.0
144
0.0
144
0.0208333333333333
144
0.0
144
0.0
144
0.0
144
0.0
144
1.0
144
0.0
144
0.0
144
0.0
144
0.0
144
1.0
147
0.0208333333333333
147
0.0
147
0.0
147
0.0
147
0.0
147
0.0208333333333333
147
0.0
147
0.0
147
0.0
147
0.0
147
1.0
147
0.0
147
0.0
147
0.0
147
0.0
147
1.0
  0
MATERIAL
  5
202A
102
{ACAD_XDICTIONARY
360
202B
102
}
102
{ACAD_REACTORS
330
2029
102
}
330
2029
100
AcDbMaterial
  1
ByLayer
 72
     0
 43
0.0208333333333333
 43
0.0
 43
0.0
 43
0.0
 43
0.0
 43
0.0208333333333333
 43
0.0
 43
0.0
 43
0.0
 43
0.0
 43
1.0
 43
0.0
 43
0.0
 43
0.0
 43
0.0
 43
1.0
 77
     0
 47
0.0208333333333333
 47
0.0
 47
0.0
 47
0.0
 47
0.0
 47
0.0208333333333333
 47
0.0
 47
0.0
 47
0.0
 47
0.0
 47
1.0
 47
0.0
 47
0.0
 47
0.0
 47
0.0
 47
1.0
171
     0
 49
0.0208333333333333
 49
0.0
 49
0.0
 49
0.0
 49
0.0
 49
0.0208333333333333
 49
0.0
 49
0.0
 49
0.0
 49
0.0
 49
1.0
 49
0.0
 49
0.0
 49
0.0
 49
0.0
 49
1.0
175
     0
142
0.0208333333333333
142
0.0
142
0.0
142
0.0
142
0.0
142
0.0208333333333333
142
0.0
142
0.0
142
0.0
142
0.0
142
1.0
142
0.0
142
0.0
142
0.0
142
0.0
142
1.0
179
     0
144
0.0208333333333333
144
0.0
144
0.0
144
0.0
144
0.0
144
0.0208333333333333
144
0.0
144
0.0
144
0.0
144
0.0
144
1.0
144
0.0
144
0.0
144
0.0
144
0.0
144
1.0
147
0.0208333333333333
147
0.0
147
0.0
147
0.0
147
0.0
147
0.0208333333333333
147
0.0
147
0.0
147
0.0
147
0.0
147
1.0
147
0.0
147
0.0
147
0.0
147
0.0
147
1.0
  0
MATERIAL
  5
203A
102
{ACAD_XDICTIONARY
360
203B
102
}
102
{ACAD_REACTORS
330
2029
102
}
330
2029
100
AcDbMaterial
  1
Global
 72
     0
 43
0.0208333333333333
 43
0.0
 43
0.0
 43
0.0
 43
0.0
 43
0.0208333333333333
 43
0.0
 43
0.0
 43
0.0
 43
0.0
 43
1.0
 43
0.0
 43
0.0
 43
0.0
 43
0.0
 43
1.0
 77
     0
 47
0.0208333333333333
 47
0.0
 47
0.0
 47
0.0
 47
0.0
 47
0.0208333333333333
 47
0.0
 47
0.0
 47
0.0
 47
0.0
 47
1.0
 47
0.0
 47
0.0
 47
0.0
 47
0.0
 47
1.0
171
     0
 49
0.0208333333333333
 49
0.0
 49
0.0
 49
0.0
 49
0.0
 49
0.0208333333333333
 49
0.0
 49
0.0
 49
0.0
 49
0.0
 49
1.0
 49
0.0
 49
0.0
 49
0.0
 49
0.0
 49
1.0
175
     0
142
0.0208333333333333
142
0.0
142
0.0
142
0.0
142
0.0
142
0.0208333333333333
142
0.0
142
0.0
142
0.0
142
0.0
142
1.0
142
0.0
142
0.0
142
0.0
142
0.0
142
1.0
179
     0
144
0.0208333333333333
144
0.0
144
0.0
144
0.0
144
0.0
144
0.0208333333333333
144
0.0
144
0.0
144
0.0
144
0.0
144
1.0
144
0.0
144
0.0
144
0.0
144
0.0
144
1.0
147
0.0208333333333333
147
0.0
147
0.0
147
0.0
147
0.0
147
0.0208333333333333
147
0.0
147
0.0
147
0.0
147
0.0
147
1.0
147
0.0
147
0.0
147
0.0
147
0.0
147
1.0
  0
MLEADERSTYLE
  5
2079
102
{ACAD_REACTORS
330
2078
102
}
330
2078
100
AcDbMLeaderStyle
170
     2
171
     1
172
     0
 90
        2
 40
0.0
 41
0.0
173
     1
 91
-1056964608
340
14
 92
       -2
290
     1
 42
2.0
291
     1
 43
0.36
  3
Standard
 44
4.0
300

342
10
174
     1
178
     6
175
     1
176
     0
 93
-1056964608
 45
4.0
292
     0
297
     0
 46
4.0
 94
-1056964608
 47
1.0
 49
1.0
140
1.0
293
     1
141
0.0
294
     1
177
     0
142
1.0
295
     0
296
     0
143
0.125
1001
ACAD_MLEADERVER
1070
     2
  0
MLINESTYLE
  5
13
102
{ACAD_REACTORS
330
E
102
}
330
E
100
AcDbMlineStyle
  2
STANDARD
 70
     0
  3

 62
     0
 51
90.0
 52
90.0
 71
     2
 49
0.5
 62
   256
  6
BYLAYER
 49
-0.5
 62
   256
  6
BYLAYER
  0
PLOTSETTINGS
  5
2DD
102
{ACAD_XDICTIONARY
360
21DD
102
}
102
{ACAD_REACTORS
330
2C3
102
}
330
2C3
100
AcDbPlotSettings
  1
A3form
  2
Laser Wind 2080W
  4
A3
  6

 40
4.773083209991455
 41
4.773059368133544
 42
4.7730712890625
 43
4.7730712890625
 44
297.0106506347656
 45
419.9889831542968
 46
0.0
 47
0.0
 48
0.0
 49
0.0
140
0.0
141
0.0
142
1.0
143
1.000041778052157
 70
   688
 72
     1
 73
     1
 74
     2
  7
monochrome.ctb
 75
     0
147
0.9999582236931756
148
0.0
149
0.0
  0
ACDBPLACEHOLDER
  5
2C1
102
{ACAD_REACTORS
330
2C0
102
}
330
2C0
  0
SCALE
  5
2057
102
{ACAD_REACTORS
330
2056
102
}
330
2056
100
AcDbScale
 70
     0
300
1:1
140
1.0
141
1.0
290
     1
  0
SCALE
  5
2058
102
{ACAD_REACTORS
330
2056
102
}
330
2056
100
AcDbScale
 70
     0
300
1:2
140
1.0
141
2.0
290
     0
  0
SCALE
  5
2059
102
{ACAD_REACTORS
330
2056
102
}
330
2056
100
AcDbScale
 70
     0
300
1:4
140
1.0
141
4.0
290
     0
  0
SCALE
  5
205A
102
{ACAD_REACTORS
330
2056
102
}
330
2056
100
AcDbScale
 70
     0
300
1:5
140
1.0
141
5.0
290
     0
  0
SCALE
  5
205B
102
{ACAD_REACTORS
330
2056
102
}
330
2056
100
AcDbScale
 70
     0
300
1:8
140
1.0
141
8.0
290
     0
  0
SCALE
  5
205C
102
{ACAD_REACTORS
330
2056
102
}
330
2056
100
AcDbScale
 70
     0
300
1:10
140
1.0
141
10.0
290
     0
  0
SCALE
  5
205D
102
{ACAD_REACTORS
330
2056
102
}
330
2056
100
AcDbScale
 70
     0
300
1:16
140
1.0
141
16.0
290
     0
  0
SCALE
  5
205E
102
{ACAD_REACTORS
330
2056
102
}
330
2056
100
AcDbScale
 70
     0
300
1:20
140
1.0
141
20.0
290
     0
  0
SCALE
  5
205F
102
{ACAD_REACTORS
330
2056
102
}
330
2056
100
AcDbScale
 70
     0
300
1:30
140
1.0
141
30.0
290
     0
  0
SCALE
  5
2060
102
{ACAD_REACTORS
330
2056
102
}
330
2056
100
AcDbScale
 70
     0
300
1:40
140
1.0
141
40.0
290
     0
  0
SCALE
  5
2061
102
{ACAD_REACTORS
330
2056
102
}
330
2056
100
AcDbScale
 70
     0
300
1:50
140
1.0
141
50.0
290
     0
  0
SCALE
  5
2062
102
{ACAD_REACTORS
330
2056
102
}
330
2056
100
AcDbScale
 70
     0
300
1:100
140
1.0
141
100.0
290
     0
  0
SCALE
  5
2063
102
{ACAD_REACTORS
330
2056
102
}
330
2056
100
AcDbScale
 70
     0
300
2:1
140
2.0
141
1.0
290
     0
  0
SCALE
  5
2064
102
{ACAD_REACTORS
330
2056
102
}
330
2056
100
AcDbScale
 70
     0
300
4:1
140
4.0
141
1.0
290
     0
  0
SCALE
  5
2065
102
{ACAD_REACTORS
330
2056
102
}
330
2056
100
AcDbScale
 70
     0
300
8:1
140
8.0
141
1.0
290
     0
  0
SCALE
  5
2066
102
{ACAD_REACTORS
330
2056
102
}
330
2056
100
AcDbScale
 70
     0
300
10:1
140
10.0
141
1.0
290
     0
  0
SCALE
  5
2067
102
{ACAD_REACTORS
330
2056
102
}
330
2056
100
AcDbScale
 70
     0
300
100:1
140
100.0
141
1.0
290
     0
  0
SCALE
  5
2068
102
{ACAD_REACTORS
330
2056
102
}
330
2056
100
AcDbScale
 70
     0
300
1/128" = 1'-0"
140
0.0078125
141
12.0
290
     0
  0
SCALE
  5
2069
102
{ACAD_REACTORS
330
2056
102
}
330
2056
100
AcDbScale
 70
     0
300
1/64" = 1'-0"
140
0.015625
141
12.0
290
     0
  0
SCALE
  5
206A
102
{ACAD_REACTORS
330
2056
102
}
330
2056
100
AcDbScale
 70
     0
300
1/32" = 1'-0"
140
0.03125
141
12.0
290
     0
  0
SCALE
  5
206B
102
{ACAD_REACTORS
330
2056
102
}
330
2056
100
AcDbScale
 70
     0
300
1/16" = 1'-0"
140
0.0625
141
12.0
290
     0
  0
SCALE
  5
206C
102
{ACAD_REACTORS
330
2056
102
}
330
2056
100
AcDbScale
 70
     0
300
3/32" = 1'-0"
140
0.09375
141
12.0
290
     0
  0
SCALE
  5
206D
102
{ACAD_REACTORS
330
2056
102
}
330
2056
100
AcDbScale
 70
     0
300
1/8" = 1'-0"
140
0.125
141
12.0
290
     0
  0
SCALE
  5
206E
102
{ACAD_REACTORS
330
2056
102
}
330
2056
100
AcDbScale
 70
     0
300
3/16" = 1'-0"
140
0.1875
141
12.0
290
     0
  0
SCALE
  5
206F
102
{ACAD_REACTORS
330
2056
102
}
330
2056
100
AcDbScale
 70
     0
300
1/4" = 1'-0"
140
0.25
141
12.0
290
     0
  0
SCALE
  5
2070
102
{ACAD_REACTORS
330
2056
102
}
330
2056
100
AcDbScale
 70
     0
300
3/8" = 1'-0"
140
0.375
141
12.0
290
     0
  0
SCALE
  5
2071
102
{ACAD_REACTORS
330
2056
102
}
330
2056
100
AcDbScale
 70
     0
300
1/2" = 1'-0"
140
0.5
141
12.0
290
     0
  0
SCALE
  5
2072
102
{ACAD_REACTORS
330
2056
102
}
330
2056
100
AcDbScale
 70
     0
300
3/4" = 1'-0"
140
0.75
141
12.0
290
     0
  0
SCALE
  5
2073
102
{ACAD_REACTORS
330
2056
102
}
330
2056
100
AcDbScale
 70
     0
300
1" = 1'-0"
140
1.0
141
12.0
290
     0
  0
SCALE
  5
2074
102
{ACAD_REACTORS
330
2056
102
}
330
2056
100
AcDbScale
 70
     0
300
1-1/2" = 1'-0"
140
1.5
141
12.0
290
     0
  0
SCALE
  5
2075
102
{ACAD_REACTORS
330
2056
102
}
330
2056
100
AcDbScale
 70
     0
300
3" = 1'-0"
140
3.0
141
12.0
290
     0
  0
SCALE
  5
2076
102
{ACAD_REACTORS
330
2056
102
}
330
2056
100
AcDbScale
 70
     0
300
6" = 1'-0"
140
6.0
141
12.0
290
     0
  0
SCALE
  5
2077
102
{ACAD_REACTORS
330
2056
102
}
330
2056
100
AcDbScale
 70
     0
300
1'-0" = 1'-0"
140
12.0
141
12.0
290
     0
  0
TABLESTYLE
  5
2055
102
{ACAD_XDICTIONARY
360
21D4
102
}
102
{ACAD_REACTORS
330
2054
102
}
330
2054
100
AcDbTableStyle
  3
Standard
 70
     0
 71
     0
 40
1.5
 41
1.5
280
     0
281
     0
  7
STANDARD
140
4.5
170
     2
 62
     0
 63
     7
283
     0
274
    -2
284
     1
 64
     0
275
    -2
285
     1
 65
     0
276
    -2
286
     1
 66
     0
277
    -2
287
     1
 67
     0
278
    -2
288
     1
 68
     0
279
    -2
289
     1
 69
     0
  7
STANDARD
140
6.0
170
     5
 62
     0
 63
     7
283
     0
274
    -2
284
     1
 64
     0
275
    -2
285
     1
 65
     0
276
    -2
286
     1
 66
     0
277
    -2
287
     1
 67
     0
278
    -2
288
     1
 68
     0
279
    -2
289
     1
 69
     0
  7
STANDARD
140
4.5
170
     5
 62
     0
 63
     7
283
     0
274
    -2
284
     1
 64
     0
275
    -2
285
     1
 65
     0
276
    -2
286
     1
 66
     0
277
    -2
287
     1
 67
     0
278
    -2
288
     1
 68
     0
279
    -2
289
     1
 69
     0
  0
VISUALSTYLE
  5
2048
102
{ACAD_REACTORS
330
2042
102
}
330
2042
100
AcDbVisualStyle
  2
2dWireframe
 70
     4
 71
     0
 72
     2
 73
     0
 90
        0
 40
-0.6
 41
-30.0
 62
     5
 63
     7
 74
     1
 91
        4
 64
     7
 65
   257
 75
     1
175
     1
 42
1.0
 92
        0
 66
   257
 43
1.0
 76
     1
 77
     6
 78
     2
 67
     7
 79
     5
170
     0
171
     0
290
     0
174
     0
 93
        1
 44
0.0
173
     0
291
     0
 45
0.0
1001
ACAD
1000
AcDbSavedByObjectVersion
1070
     0
  0
VISUALSTYLE
  5
204A
102
{ACAD_REACTORS
330
2042
102
}
330
2042
100
AcDbVisualStyle
  2
3D Hidden
 70
     6
 71
     1
 72
     2
 73
     2
 90
        0
 40
-0.6
 41
-30.0
 62
     5
 63
     7
 74
     2
 91
        2
 64
     7
 65
   257
 75
     2
175
     1
 42
40.0
 92
        0
 66
   257
 43
1.0
 76
     1
 77
     6
 78
     2
 67
     7
 79
     3
170
     0
171
     0
290
     0
174
     0
 93
        1
 44
0.0
173
     0
291
     0
 45
0.0
1001
ACAD
1000
AcDbSavedByObjectVersion
1070
     0
  0
VISUALSTYLE
  5
2049
102
{ACAD_REACTORS
330
2042
102
}
330
2042
100
AcDbVisualStyle
  2
3dWireframe
 70
     5
 71
     0
 72
     2
 73
     0
 90
        0
 40
-0.6
 41
-30.0
 62
     5
 63
     7
 74
     1
 91
        4
 64
     7
 65
   257
 75
     1
175
     1
 42
1.0
 92
        0
 66
   257
 43
1.0
 76
     1
 77
     6
 78
     2
 67
     7
 79
     5
170
     0
171
     0
290
     0
174
     0
 93
        1
 44
0.0
173
     0
291
     0
 45
0.0
1001
ACAD
1000
AcDbSavedByObjectVersion
1070
     0
  0
VISUALSTYLE
  5
2047
102
{ACAD_REACTORS
330
2042
102
}
330
2042
100
AcDbVisualStyle
  2
Basic
 70
     7
 71
     1
 72
     0
 73
     1
 90
        0
 40
-0.6
 41
-30.0
 62
     5
 63
     7
 74
     0
 91
        4
 64
     7
 65
   257
 75
     1
175
     1
 42
1.0
 92
        8
 66
     7
 43
1.0
 76
     1
 77
     6
 78
     2
 67
     7
 79
     5
170
     0
171
     0
290
     0
174
     0
 93
        1
 44
0.0
173
     0
291
     1
 45
0.0
1001
ACAD
1000
AcDbSavedByObjectVersion
1070
     0
  0
VISUALSTYLE
  5
204E
102
{ACAD_REACTORS
330
2042
102
}
330
2042
100
AcDbVisualStyle
  2
Brighten
 70
    12
 71
     2
 72
     2
 73
     0
 90
        0
 40
-0.6
 41
-30.0
 62
     5
 63
     7
 74
     1
 91
        4
 64
     7
 65
   257
 75
     1
175
     1
 42
1.0
 92
        8
 66
     7
 43
1.0
 76
     1
 77
     6
 78
     2
 67
     7
 79
     5
170
     0
171
     0
290
     0
174
     0
 93
        1
 44
50.0
173
     0
291
     1
 45
0.0
1001
ACAD
1000
AcDbSavedByObjectVersion
1070
     0
  0
VISUALSTYLE
  5
2052
102
{ACAD_REACTORS
330
2042
102
}
330
2042
100
AcDbVisualStyle
  2
ColorChange
 70
    16
 71
     2
 72
     2
 73
     3
 90
        0
 40
-0.6
 41
-30.0
 62
     5
 63
     8
 74
     1
 91
        4
 64
     7
 65
   257
 75
     1
175
     1
 42
1.0
 92
        8
 66
     8
 43
1.0
 76
     1
 77
     6
 78
     2
 67
     7
 79
     5
170
     0
171
     0
290
     0
174
     0
 93
        1
 44
0.0
173
     0
291
     1
 45
0.0
1001
ACAD
1000
AcDbSavedByObjectVersion
1070
     0
  0
VISUALSTYLE
  5
204B
102
{ACAD_REACTORS
330
2042
102
}
330
2042
100
AcDbVisualStyle
  2
Conceptual
 70
     9
 71
     3
 72
     2
 73
     0
 90
        0
 40
-0.6
 41
-30.0
 62
     5
 63
     7
 74
     2
 91
        2
 64
     7
 65
   257
 75
     1
175
     1
 42
40.0
 92
        8
 66
     7
 43
1.0
 76
     1
 77
     6
 78
     2
 67
     7
 79
     3
170
     0
171
     0
290
     0
174
     0
 93
        1
 44
0.0
173
     0
291
     0
 45
0.0
1001
ACAD
1000
AcDbSavedByObjectVersion
1070
     0
  0
VISUALSTYLE
  5
204D
102
{ACAD_REACTORS
330
2042
102
}
330
2042
100
AcDbVisualStyle
  2
Dim
 70
    11
 71
     2
 72
     2
 73
     0
 90
        0
 40
-0.6
 41
-30.0
 62
     5
 63
     7
 74
     1
 91
        4
 64
     7
 65
   257
 75
     1
175
     1
 42
1.0
 92
        8
 66
     7
 43
1.0
 76
     1
 77
     6
 78
     2
 67
     7
 79
     5
170
     0
171
     0
290
     0
174
     0
 93
        1
 44
-50.0
173
     0
291
     1
 45
0.0
1001
ACAD
1000
AcDbSavedByObjectVersion
1070
     0
  0
VISUALSTYLE
  5
2051
102
{ACAD_REACTORS
330
2042
102
}
330
2042
100
AcDbVisualStyle
  2
Facepattern
 70
    15
 71
     2
 72
     2
 73
     0
 90
        0
 40
-0.6
 41
-30.0
 62
     5
 63
     7
 74
     1
 91
        4
 64
     7
 65
   257
 75
     1
175
     1
 42
1.0
 92
        8
 66
     7
 43
1.0
 76
     1
 77
     6
 78
     2
 67
     7
 79
     5
170
     0
171
     0
290
     0
174
     0
 93
        1
 44
0.0
173
     0
291
     1
 45
0.0
1001
ACAD
1000
AcDbSavedByObjectVersion
1070
     0
  0
VISUALSTYLE
  5
2043
102
{ACAD_REACTORS
330
2042
102
}
330
2042
100
AcDbVisualStyle
  2
Flat
 70
     0
 71
     2
 72
     1
 73
     1
 90
        2
 40
-0.6
 41
30.0
 62
     5
 63
     7
 74
     0
 91
        4
 64
     7
 65
   257
 75
     1
175
     1
 42
1.0
 92
        8
 66
     7
 43
1.0
 76
     1
 77
     6
 78
     2
 67
     7
 79
     5
170
     0
171
     0
290
     0
174
     0
 93
       13
 44
0.0
173
     0
291
     1
 45
0.0
1001
ACAD
1000
AcDbSavedByObjectVersion
1070
     0
  0
VISUALSTYLE
  5
2044
102
{ACAD_REACTORS
330
2042
102
}
330
2042
100
AcDbVisualStyle
  2
FlatWithEdges
 70
     1
 71
     2
 72
     1
 73
     1
 90
        2
 40
-0.6
 41
30.0
 62
     5
 63
     7
 74
     1
 91
        4
 64
     7
 65
   257
 75
     1
175
     1
 42
1.0
 92
        0
 66
   257
 43
1.0
 76
     1
 77
     6
 78
     2
 67
     7
 79
     5
170
     0
171
     0
290
     0
174
     0
 93
       13
 44
0.0
173
     0
291
     1
 45
0.0
1001
ACAD
1000
AcDbSavedByObjectVersion
1070
     0
  0
VISUALSTYLE
  5
2045
102
{ACAD_REACTORS
330
2042
102
}
330
2042
100
AcDbVisualStyle
  2
Gouraud
 70
     2
 71
     2
 72
     2
 73
     1
 90
        2
 40
-0.6
 41
30.0
 62
     5
 63
     7
 74
     0
 91
        4
 64
     7
 65
   257
 75
     1
175
     1
 42
1.0
 92
        0
 66
     7
 43
1.0
 76
     1
 77
     6
 78
     2
 67
     7
 79
     5
170
     0
171
     0
290
     0
174
     0
 93
       13
 44
0.0
173
     0
291
     1
 45
0.0
1001
ACAD
1000
AcDbSavedByObjectVersion
1070
     0
  0
VISUALSTYLE
  5
2046
102
{ACAD_REACTORS
330
2042
102
}
330
2042
100
AcDbVisualStyle
  2
GouraudWithEdges
 70
     3
 71
     2
 72
     2
 73
     1
 90
        2
 40
-0.6
 41
30.0
 62
     5
 63
     7
 74
     1
 91
        4
 64
     7
 65
   257
 75
     1
175
     1
 42
1.0
 92
        0
 66
   257
 43
1.0
 76
     1
 77
     6
 78
     2
 67
     7
 79
     5
170
     0
171
     0
290
     0
174
     0
 93
       13
 44
0.0
173
     0
291
     1
 45
0.0
1001
ACAD
1000
AcDbSavedByObjectVersion
1070
     0
  0
VISUALSTYLE
  5
2050
102
{ACAD_REACTORS
330
2042
102
}
330
2042
100
AcDbVisualStyle
  2
Linepattern
 70
    14
 71
     2
 72
     2
 73
     0
 90
        0
 40
-0.6
 41
-30.0
 62
     5
 63
     7
 74
     1
 91
        4
 64
     7
 65
   257
 75
     7
175
     7
 42
1.0
 92
        8
 66
     7
 43
1.0
 76
     1
 77
     6
 78
     2
 67
     7
 79
     5
170
     0
171
     0
290
     0
174
     0
 93
        1
 44
0.0
173
     0
291
     1
 45
0.0
1001
ACAD
1000
AcDbSavedByObjectVersion
1070
     0
  0
VISUALSTYLE
  5
204C
102
{ACAD_REACTORS
330
2042
102
}
330
2042
100
AcDbVisualStyle
  2
Realistic
 70
     8
 71
     2
 72
     2
 73
     0
 90
        0
 40
-0.6
 41
-30.0
 62
     5
 63
     7
 74
     1
 91
        0
 64
     7
 65
   257
 75
     1
175
     1
 42
1.0
 92
        8
 66
     8
 43
1.0
 76
     1
 77
     6
 78
     2
 67
     7
 79
     5
170
     0
171
     0
290
     0
174
     0
 93
       13
 44
0.0
173
     0
291
     0
 45
0.0
1001
ACAD
1000
AcDbSavedByObjectVersion
1070
     0
  0
VISUALSTYLE
  5
204F
102
{ACAD_REACTORS
330
2042
102
}
330
2042
100
AcDbVisualStyle
  2
Thicken
 70
    13
 71
     2
 72
     2
 73
     0
 90
        0
 40
-0.6
 41
-30.0
 62
     5
 63
     7
 74
     1
 91
        4
 64
     7
 65
   257
 75
     1
175
     1
 42
1.0
 92
       12
 66
     7
 43
1.0
 76
     1
 77
     6
 78
     2
 67
     7
 79
     5
170
     0
171
     0
290
     0
174
     0
 93
        1
 44
0.0
173
     0
291
     1
 45
0.0
1001
ACAD
1000
AcDbSavedByObjectVersion
1070
     0
  0
DICTIONARYVAR
  5
21D0
102
{ACAD_REACTORS
330
21CD
102
}
330
21CD
100
DictionaryVariables
280
     0
  1
1:1
  0
DICTIONARYVAR
  5
21CF
102
{ACAD_REACTORS
330
21CD
102
}
330
21CD
100
DictionaryVariables
280
     0
  1
STANDARD
  0
DICTIONARYVAR
  5
21CE
102
{ACAD_REACTORS
330
21CD
102
}
330
21CD
100
DictionaryVariables
280
     0
  1
STANDARD
  0
DICTIONARYVAR
  5
21D3
102
{ACAD_REACTORS
330
21CD
102
}
330
21CD
100
DictionaryVariables
280
     0
  1
1
  0
DICTIONARYVAR
  5
21D2
102
{ACAD_REACTORS
330
21CD
102
}
330
21CD
100
DictionaryVariables
280
     0
  1
0
  0
DICTIONARYVAR
  5
21D1
102
{ACAD_REACTORS
330
21CD
102
}
330
21CD
100
DictionaryVariables
280
     0
  1
127
  0
DICTIONARY
  5
21DA
330
2C4
100
AcDbDictionary
280
     1
281
     1
  3
ACAD_XREC_ROUNDTRIP
360
21DB
  0
DICTIONARY
  5
208B
330
2C5
100
AcDbDictionary
280
     1
281
     1
  3
ACAD_XREC_ROUNDTRIP
360
21DC
  3
ADSK_XREC_LAYOUTTHUMBNAIL
360
208C
  0
DICTIONARY
  5
2033
330
2032
100
AcDbDictionary
280
     1
281
     1
  3
ACAD_XREC_ROUNDTRIP
360
21E4
  3
BUMPTILE
360
2035
  3
DIFFUSETILE
360
2034
  3
OPACITYTILE
360
2038
  3
REFLECTIONTILE
360
2037
  3
REFRACTIONTILE
360
2039
  3
SPECULARTILE
360
2036
  0
DICTIONARY
  5
202B
330
202A
100
AcDbDictionary
280
     1
281
     1
  3
ACAD_XREC_ROUNDTRIP
360
21E3
  3
BUMPTILE
360
202D
  3
DIFFUSETILE
360
202C
  3
OPACITYTILE
360
2030
  3
REFLECTIONTILE
360
202F
  3
REFRACTIONTILE
360
2031
  3
SPECULARTILE
360
202E
  0
DICTIONARY
  5
203B
330
203A
100
AcDbDictionary
280
     1
281
     1
  3
ACAD_XREC_ROUNDTRIP
360
21E5
  3
BUMPTILE
360
203D
  3
DIFFUSETILE
360
203C
  3
OPACITYTILE
360
2040
  3
REFLECTIONTILE
360
203F
  3
REFRACTIONTILE
360
2041
  3
SPECULARTILE
360
203E
  0
DICTIONARY
  5
21DD
330
2DD
100
AcDbDictionary
280
     1
281
     1
  3
ACAD_XREC_ROUNDTRIP
360
21DE
  0
DICTIONARY
  5
21D4
330
2055
100
AcDbDictionary
280
     1
281
     1
  3
ACAD_ROUNDTRIP_2008_TABLESTYLE_CELLSTYLEMAP
360
21D5
  3
ACAD_XREC_ROUNDTRIP
360
21E6
  0
XRECORD
  5
21DB
102
{ACAD_REACTORS
330
21DA
102
}
330
21DA
100
AcDbXrecord
280
     1
102
SHADEPLOT
 70
     0
102
SHADEPLOTRESLEVEL
 70
     2
102
SHADEPLOTCUSTOMDPI
 70
   300
  0
XRECORD
  5
21DC
102
{ACAD_REACTORS
330
208B
102
}
330
208B
100
AcDbXrecord
280
     1
102
SHADEPLOT
 70
     0
102
SHADEPLOTRESLEVEL
 70
     2
102
SHADEPLOTCUSTOMDPI
 70
   300
  0
XRECORD
  5
208C
102
{ACAD_REACTORS
330
208B
102
}
330
208B
100
AcDbXrecord
280
     1
310
28000000B40000007F00000001000800000000004C590000000000000000000000010000000000000000000000000000FFFFFF000000000000000000000000000000000000000000000000000000000000000000330000006600000099000000CC000000FF00000000330000333300006633000099330000CC330000FF3300
310
0000660000336600006666000099660000CC660000FF66000000990000339900006699000099990000CC990000FF99000000CC000033CC000066CC000099CC0000CCCC0000FFCC000000FF000033FF000066FF000099FF0000CCFF0000FFFF000000003300330033006600330099003300CC003300FF003300003333003333
310
33006633330099333300CC333300FF33330000663300336633006666330099663300CC663300FF66330000993300339933006699330099993300CC993300FF99330000CC330033CC330066CC330099CC3300CCCC3300FFCC330000FF330033FF330066FF330099FF3300CCFF3300FFFF330000006600330066006600660099
310
006600CC006600FF00660000336600333366006633660099336600CC336600FF33660000666600336666006666660099666600CC666600FF66660000996600339966006699660099996600CC996600FF99660000CC660033CC660066CC660099CC6600CCCC6600FFCC660000FF660033FF660066FF660099FF6600CCFF6600
310
FFFF660000009900330099006600990099009900CC009900FF00990000339900333399006633990099339900CC339900FF33990000669900336699006666990099669900CC669900FF66990000999900339999006699990099999900CC999900FF99990000CC990033CC990066CC990099CC9900CCCC9900FFCC990000FF99
310
0033FF990066FF990099FF9900CCFF9900FFFF99000000CC003300CC006600CC009900CC00CC00CC00FF00CC000033CC003333CC006633CC009933CC00CC33CC00FF33CC000066CC003366CC006666CC009966CC00CC66CC00FF66CC000099CC003399CC006699CC009999CC00CC99CC00FF99CC0000CCCC0033CCCC0066CC
310
CC0099CCCC00CCCCCC00FFCCCC0000FFCC0033FFCC0066FFCC0099FFCC00CCFFCC00FFFFCC000000FF003300FF006600FF009900FF00CC00FF00FF00FF000033FF003333FF006633FF009933FF00CC33FF00FF33FF000066FF003366FF006666FF009966FF00CC66FF00FF66FF000099FF003399FF006699FF009999FF00CC
310
99FF00FF99FF0000CCFF0033CCFF0066CCFF0099CCFF00CCCCFF00FFCCFF0000FFFF0033FFFF0066FFFF0099FFFF00CCFFFF00FFFFFF00000000000D0D0D001A1A1A00282828003535350043434300505050005D5D5D006B6B6B00787878008686860093939300A1A1A100AEAEAE00BBBBBB00C9C9C900D6D6D600E4E4E400
310
F1F1F100FFFFFF0000000000000000000000000000000000000000000000000000000000000000000000000000000000F5F5F5F5F5F5F5F5F5F5F5F5F5F5F5F5F5F5F5F5F5F5F5F5F5F5F5F5F5F5F5F5F5F5F5F5F5F5F5F5F5F5F5F5F5F5F5F5F5F5F5F5F5F5F5F5F5F5F5F5F5F5F5F5F5F5F5F5F5F5F5F5F5F5F5F5F5F5F5
310
F5F5F5F5F5F5F5F5F5F5F5F5F5F5F5F5F5F5F5F5F5F5F5F5F5F5F5F5F5F5F5F5F5F5F5F5F5F5F5F5F5F5F5F5F5F5F5F5F5F5F5F5F5F5F5F5F5F5F5F5F5F5F5F5F5F5F5F5F5F5F5F5F5F5F5F5F5F5F5F5F5F5F5F5F5F5F5F5F5F5F5F5F5F5F5F5F5F5F5F5F5F5E2E2E2E2E2E2E2E2E2E2E2E2E2E2E2E2E2E2E2E2E2E2E2E2E2
310
E2E2E2E2E2E2E2E2E2E2E2E2E2E2E2E2E2E2E2E2E2E2E2E2E2E2E2E2E2E2E2E2E2E2E2E2E2E2E2E2E2E2E2E2E2E2E2E2E2E2E2E2E2E2E2E2E2E2E2E2E2E2E2E2E2E2E2E2E2E2E2E2E2E2E2E2E2E2E2E2E2E2E2E2E2E2E2E2E2E2E2E2E2E2E2E2E2E2E2E2E2E2E2E2E2E2E2E2E2E2E2E2E2E2E2E2E2E2E2E2E2E2E2E2E2E2E2
310
E2E2E2E2E2E2E2E2E2E2E2E2E2E2E2E2E2E2E2E2E2E2E2E2E2F5F5F5E2E2E2E2E2E2E2E2E2E2E2E2E2E2E2E2E2E2E2E2E2E2E2E2E2E2E2E2E2E2E2E2E2E2E2E2E2E2E2E2E2E2E2E2E2E2E2E2E2E2E2E2E2E2E2E2E2E2E2E2E2E2E2E2E2E2E2E2E2E2E2E2E2E2E2E2E2E2E2E2E2E2E2E2E2E2E2E2E2E2E2E2E2E2E2E2E2E2E2
310
E2E2E2E2E2E2E2E2E2E2E2E2E2E2E2E2E2E2E2E2E2E2E2E2E2E2E2E2E2E2E2E2E2E2E2E2E2E2E2E2E2E2E2E2E2E2E2E2E2E2E2E2E2E2E2E2E2E2E2E2E2E2E2E2E2E2E2E2E2E2E2E2E2E2E2E2E2E2F5F5F5E2E2F5F5F5F5F5F5F5F5E2E2E2E2E2E2E2E2E2F5F5F5F5F5F5F5F5F5F5F5F5F5F5F5F5E2E2E2E2E2E2E2E2E2F5F5
310
F5F5F5F5F5F5F5F5F5F5F5F5F5F5E2E2E2E2E2E2E2E2F5F5F5F5F5F5F5F5F5F5F5F5F5F5F5F5E2E2E2E2E2E2E2E2E2F5F5F5F5F5F5F5F5F5F5F5F5F5F5F5F5E2E2E2E2E2E2E2E2F5F5F5F5F5F5F5F5F5F5F5F5F5F5F5F5E2E2E2E2E2E2E2E2E2F5F5F5F5F5F5F5F5F5F5F5F5F5F5F5F5E2E2E2E2E2E2E2E2E2F5F5F5F5F5F5
310
F5F5E2E2F5F5F5E2E2F5E2E2E2E2E2E2E2E2E2E2E2E2E2E2E2E2E2E2E2E2E2E2E2E2E2E2E2E2E2E2E2E2E2E2E2E2E2E2E2E2E2E2E2E2E2E2E2E2E2E2E2E2E2E2E2E2E2E2E2E2E2E2E2E2E2E2E2E2E2E2E2E2E2E2E2E2E2E2E2E2E2E2E2E2E2E2E2E2E2E2E2E2E2E2E2E2E2E2E2E2E2E2E2E2E2E2E2E2E2E2E2E2E2E2E2E2E2
310
E2E2E2E2E2E2E2E2E2E2E2E2E2E2E2E2E2E2E2E2E2E2E2E2E2E2E2E2E2E2E2E2E2E2E2E2E2E2E2E2E2E2E2E2E2E2E2E2E2E2E2E2E2E2F5E2E2F5F5F5E2E2F5E2E2E2E2E2E2E2E2E2E2E2E2E2E2E2E2E2E2E2E2E2E2E2E2E2E2E2E2E2E2E2E2E2E2E2E2E2E2E2E2E2E2E2E2E2E2E2E2E2E2E2E2E2E2E2E2E2E2E2E2E2E2E2E2
310
E2E2E2E2E2E2E2E2E2E2E2E2E2E2E2E2E2E2E2E2E2E2E2E2E2E2E2E2E2E2E2E2E2E2E2E2E2E2E2E2E2E2E2E2E2E2E2E2E2E2E2E2E2E2E2E2E2E2E2E2E2E2E2E2E2E2E2E2E2E2E2E2E2E2E2E2E2E2E2E2E2E2E2E2E2E2E2E2E2E2E2E2E2E2E2E2E2E2E2E2E2E2E2E2E2E2E2F5E2E2F5F5F5E2E2F5E2E2E2E2E2E2E2E2E2E2E2
310
E2E2E2E2E2E2E2E2E2E2E2E2E2E2E2E2E2E2E2E2E2E2E2E2E2E2E2E2E2E2E2E2E2E2E2E2E2E2E2E2E2E2E2E2E2E2E2E2E2E2E2E2E2E2E2E2E2E2E2E2E2E2E2E2E2E2E2E2E2E2E2E2E2E2E2E2E2E2E2E2E2E2E2E2E2E2E2E2E2E2E2E2E2E2E2E2E2E2E2E2E2E2E2E2E2E2E2E2E2E2E2E2E2E2E2E2E2E2E2E2E2E2E2E2E2E2E2
310
E2E2E2E2E2E2E2E2E2E2E2E2E2E2E2E2E2E2E2E2E2E2E2E2E2E2E2E2E2E2E2E2E2F5E2E2F5F5F5E2E2F5E2E2E2E2E2E2E2E2E2E2E2E2E2E2E2E2E2E2E2E2E2E2E2E2E2E2E2E2E2E2E2E2E2E2E2E2E2E2E2E2E2E2E2E2E2E2E2E2E2E2E2E2E2E2E2E2E2E2E2E2E2E2E2E2E2E2E2E2E2E2E2E2E2E2E2E2E2E2E2E2E2E2E2E2E2
310
E2E2E2E2E2E2E2E2E2E2E2E2E2E2E2E2E2E2E2E2E2E2E2E2E2E2E2E2E2E2E2E2E2E2E2E2E2E2E2E2E2E2E2E2E2E2E2E2E2E2E2E2E2E2E2E2E2E2E2E2E2E2E2E2E2E2E2E2E2E2E2E2E2E2E2E2E2E2E2E2E2E2E2E2E2E2F5E2E2F5F5F5E2E2F5E2E2E2E2E2E2E2E2E2E2E2E2E2E2E2E2E2E2E2E2E2E2E2E2E2E2E2E2E2E2E2E2
310
E2E2E2E2E2E2E2E2E2E2E2E2E2E2E2E2E2E2E2E2E2E2E2E2E2E2E2E2E2E2E2E2E2E2E2E2E2E2E2E2E2E2E2E2E2E2E2E2E2E2E2E2E2E2E2E2E2E2E2E2E2E2E2E2E2E2E2E2E2E2E2E2E2E2E2E2E2E2E2E2E2E2E2E2E2E2E2E2E2E2E2E2E2E2E2E2E2E2E2E2E2E2E2E2E2E2E2E2E2E2E2E2E2E2E2E2E2E2E2E2E2E2E2E2E2E2E2
310
E2E2E2E2E2E2E2E2E2E2E2E2F5E2E2F5F5F5E2E2F5E2E2E2E2E2F5F5F5F5F5F5F5F5F5F5F5F5F5F5F5F5F5F5F5F5F5F5F5F5F5F5F5F5F5F5F5F5F5F5F5F5F5F5F5F5F5F5F5F5F5F5F5F5F5F5F5F5F5F5F5F5F5F5F5F5F5F5F5F5F5F5F5F5F5F5F5F5F5F5F5F5F5F5F5F5F5F5F5F5F5F5F5F5F5F5F5F5F5F5F5F5F5F5F5F5F5
310
F5F5F5F5F5F5F5F5F5F5F5F5F5F5F5F5F5F5F5F5F5F5F5F5F5F5F5F5F5F5F5F5F5F5F5F5F5F5F5F5F5F5F5F5F5F5F5F5F5F5F5F5F5F5F5F5F5F5F5F5F5F5E2E2E2F5E2E2F5F5F5E2E2F5E2E2E2E2E2F5E2E2E2E2E2E2E2E2E2E2E2E2E2E2E2E2E2E2E2E2E2E2E2E2E2E2E2E2E2E2E2E2E2E2E2E2E2E2E2E2E2E2E2E2E2E2E2
310
E2E2E2E2E2E2E2E2E2E2E2E2E2E2E2E2E2E2E2E2E2E2E2E2E2E2E2E2E2E2E2E2E2E2E2E2E2E2E2E2E2E2E2E2E2E2E2E2E2E2E2E2E2E2E2E2E2E2E2E2E2E2E2E2E2E2E2E2E2E2E2E2E2E2E2E2E2E2E2E2E2E2E2E2E2E2E2E2E2E2E2E2E2E2E2E2E2E2E2E2E2E2E2E2E2E2E2E2E2E2E2E2E2E2F5E2E2E2F5E2E2F5F5F5E2E2E2
310
E2E2E2E2E2F5E2E2E2E2E2E2E2E2E2E2E2E2E2E2E2E2E2E2E2E2E2E2E2E2E2E2E2E2E2E2E2E2E2E2E2E2E2E2E2E2E2E2E2E2E2E2E2E2E2E2E2E2E2E2E2E2E2E2E2E2E2E2E2E2E2E2E2E2E2E2E2E2E2E2E2E2E2E2E2E2E2E2E2E2E2E2E2E2E2E2E2E2E2E2E2E2E2E2E2E2E2E2E2E2E2E2E2E2E2E2E2E2E2E2E2E2E2E2E2E2E2
310
E2E2E2E2E2E2E2E2E2E2E2E2E2E2E2E2E2E2E2E2E2E2E2E2E2E2E2E2E2E2E2E2E2E2E2E2E2E2E2E2F5E2E2E2E2E2E2F5F5F5E2E2E2E2E2E2E2E2F5E2E2E2E2E2E2E2E2E2E2E2E2E2E2E2E2E2E2E2E2E2E2E2E2E2E2E2E2E2E2E2E2E2E2E2E2E2E2E2E2E2E2E2E2E2E2E2E2E2E2E2E2E2E2E2E2E2E2E2E2E2E2E2E2E2E2E2E2
310
E2E2E2E2E2E2E2E2E2E2E2E2E2E2E2E2E2E2E2E2E2E2E2E2E2E2E2E2E2E2E2E2E2E2E2E2E2E2E2E2E2E2E2E2E2E2E2E2E2E2E2E2E2E2E2E2E2E2E2E2E2E2E2E2E2E2E2E2E2E2E2E2E2E2E2E2E2E2E2E2E2E2E2E2E2E2E2E2E2E2E2E2E2F5E2E2E2E2E2E2F5F5F5E2E2E2E2E2E2E2E2F5E2E2E2E2E2E2E2E2E2E2E2E2E2E2E2
310
E2E2E2E2E2E2E2E2E2E2E2E2E2E2E2E2E2E2E2E2E2E2E2E2E2E2E2E2E2E2E2E2E2E2E2E2E2E2E2E2E2E2E2E2E2E2E2E2E2E2E2E2E2E2E2E2E2E2E2E2E2E2E2E2E2E2E2E2E2E2E2E2E2E2E2E2E2E2E2E2E2E2E2E2E2E2E2E2E2E2E2E2E2E2E2E2E2E2E2E2E2E2E2E2E2E2E2E2E2E2E2E2E2E2E2E2E2E2E2E2E2E2E2E2E2E2E2
310
E2E2E2E2E2E2E2E2E2E2E2E2E2E2E2E2E2E2E2F5E2E2E2E2E2E2F5F5F5E2E2E2E2E2E2E2E2F5E2E2E2E2E2E2E2E2E2E2E2E2E2E2E2E2E2E2E2E2E2E2E2E2E2E2E2E2E2E2E2E2E2E2E2E2E2E2E2E2E2E2E2E2E2E2E2E2E2E2E2E2E2E2E2E2E2E2E2E2E2E2E2E2E2E2E2E2E2E2E2E2E2E2E2E2E2E2E2E2E2E2E2E2E2E2E2E2E2
310
E2E2E2E2E2E2E2E2E2E2E2E2E2E2E2E2E2E2E2E2E2E2E2E2E2E2E2E2E2E2E2E2E2E2E2E2E2E2E2E2E2E2E2E2E2E2E2E2E2E2E2E2E2E2E2E2E2E2E2E2E2E2E2E2E2E2E2E2E2E2E2E2F5E2E2E2E2E2E2F5F5F5E2E2E2E2E2E2E2E2F5E2E2E2E2E2E2E2E2E2E2E2E2E2E2E2E2E2E2E2E2E2E2E2E2E2E2E2E2E2E2E2E2E2E2E2E2
310
E2E2E2E2E2E2E2E2E2E2E2E2E2E2E2E2E2E2E2E2E2E2E2E2E2E2E2E2E2E2E2E2E2E2E2E2E2E2E2E2E2E2E2E2E2E2E2E2E2E2E2E2E2E2E2E2E2E2E2E2E2E2E2E2E2E2E2E2E2E2E2E2E2E2E2E2E2E2E2E2E2E2E2E2E2E2E2E2E2E2E2E2E2E2E2E2E2E2E2E2E2E2E2E2E2E2E2E2E2E2E2E2E2E2E2E2E2E2E2E2E2E2E2E2E2F5E2
310
E2E2E2E2E2F5F5F5E2E2E2E2E2E2E2E2F5E2E2E2E2E2E2E2E2E2E2E2E2E2E2E2E2E2E2E2E2E2E2E2E2E2E2E2E2E2E2E2E2E2E2E2E2E2E2E2E2E2E2E2E2E2E2E2E2E2E2E2E2E2E2E2E2E2E2E2E2E2E2E2E2E2E2E2E2E2E2E2E2E2E2E2E2E2E2E2E2E2E2E2E2E2E2E2E2E2E2E2E2E2E2E2E2E2E2E2E2E2E2E2E2E2E2E2E2E2E2
310
E2E2E2E2E2E2E2E2E2E2E2E2E2E2E2E2E2E2E2E2E2E2E2E2E2E2E2E2E2E2E2E2E2E2E2E2E2E2E2E2E2E2E2E2E2E2E2E2E2E2E2F5E2E2E2E2E2E2F5F5F5E2E2E2E2E2E2E2E2F5E2E2E2E2E2E2E2E2E2E2E2E2E2E2E2E2E2E2E2E2E2E2E2E2E2E2E2E2E2E2E2E2E2E2E2E2E2E2E2E2E2E2E2E2E2E2E2E2E2E2E2E2E2E2E2E2E2
310
E2E2E2E2E2E2E2E2E2E2E2E2E2E2E2E2E2E2E2E2E2E2E2E2E2E2E2E2E2E2E2E2E2E2E2E2E2E2E2E2E2E2E2E2E2E2E2E2E2E2E2E2E2E2E2E2E2E2E2E2E2E2E2E2E2E2E2E2E2E2E2E2E2E2E2E2E2E2E2E2E2E2E2E2E2E2E2E2E2E2E2E2E2E2E2E2E2E2E2E2E2E2E2E2F5E2E2E2E2E2E2F5F5F5E2E2E2E2E2E2E2E2F5E2E2E2E2
310
E2E2E2E2E2E2E2E2E2E2E2E2E2E2E2E2E2E2E2E2E2E2E2E2E2E2E2E2E2E2E2E2E2E2E2E2E2E2E2E2E2E2E2E2E2E2E2E2E2E2E2E2E2E2E2E2E2E2E2E2E2E2E2E2E2E2E2E2E2E2E2E2E2E2E2E2E2E2E2E2E2E2E2E2E2E2E2E2E2E2E2E2E2E2E2E2E2E2E2E2E2E2E2E2E2E2E2E2E2E2E2E2E2E2E2E2E2E2E2E2E2E2E2E2E2E2E2
310
E2E2E2E2E2E2E2E2E2E2E2E2E2E2E2E2E2E2E2E2E2E2E2E2E2E2E2E2E2E2F5E2E2E2E2E2E2F5F5F5E2E2E2E2E2E2E2E2F5E2E2E2E2E2E2E2E2E2E2E2E2E2E2E2E2E2E2E2E2E2E2E2E2E2E2E2E2E2E2E2E2E2E2E2E2E2E2E2E2E2E2E2E2E2E2E2E2E2E2E2E2E2E2E2E2E2E2E2E2E2E2E2E2E2E2E2E2E2E2E2E2E2E2E2E2E2E2
310
E2E2E2E2E2E2E2E2E2E2E2E2E2E2E2E2E2E2E2E2E2E2E2E2E2E2E2E2E2E2E2E2E2E2E2E2E2E2E2E2E2E2E2E2E2E2E2E2E2E2E2E2E2E2E2E2E2E2E2E2E2E2E2E2E2E2E2E2E2E2E2E2E2E2E2E2E2E2E2E2E2E2E2F5E2E2E2E2E2E2F5F5F5E2E2F5E2E2E2E2E2F5E2E2E2E2E2E2E2E2E2E2E2E2E2E2E2E2E2E2E2E2E2E2E2E2E2
310
E2E2E2E2E2E2E2E2E2E2E2E2E2E2E2E2E2E2E2E2E2E2E2E2E2E2E2E2E2E2E2E2E2E2E2E2E2E2E2E2E2E2E2E2E2E2E2E2E2E2E2E2E2E2E2E2E2E2E2E2E2E2E2E2E2E2E2E2E2E2E2E2E2E2E2E2E2E2E2E2E2E2E2E2E2E2E2E2E2E2E2E2E2E2E2E2E2E2E2E2E2E2E2E2E2E2E2E2E2E2E2E2E2E2E2E2E2E2E2E2E2E2E2E2E2E2E2
310
E2E2E2E2E2E2E2E2E2F5E2E2E2F5E2E2F5F5F5E2E2F5E2E2E2E2E2F5E2E2E2E2E2E2E2E2E2E2E2E2E2E2E2E2E2E2E2E2E2E2E2E2E2E2E2E2E2E2E2E2E2E2E2E2E2E2E2E2E2E2E2E2E2E2E2E2E2E2E2E2E2E2E2E2E2E2E2E2E2E2E2E2E2E2E2E2E2E2E2E2E2E2E2E2E2E2E2E2E2E2E2E2E2E2E2E2E2E2E2E2E2E2E2E2E2E2E2
310
E2E2E2E2E2E2E2E2E2E2E2E2E2E2E2E2E2E2E2E2E2E2E2E2E2E2E2E2E2E2E2E2E2E2E2E2E2E2E2E2E2E2E2E2E2E2E2E2E2E2E2E2E2E2E2E2E2E2E2E2E2E2F5E2E2E2F5E2E2F5F5F5E2E2F5E2E2E2E2E2F5E2E2E2E2E2E2E2E2E2E2E2E2E2E2E2E2E2E2E2E2E2E2E2E2E2E2E2E2E2E2E2E2E2E2E2E2E2E2E2E2E2E2E2E2E2E2
310
E2E2E2E2E2E2E2E2E2E2E2E2E2E2E2E2E2E2E2E2E2E2E2E2E2E2E2E2E2E2E2E2E2E2E2E2E2E2E2E2E2E2E2E2E2E2E2E2E2E2E2E2E2E2E2E2E2E2E2E2E2E2E2E2E2E2E2E2E2E2E2E2E2E2E2E2E2E2E2E2E2E2E2E2E2E2E2E2E2E2E2E2E2E2E2E2E2E2E2E2E2E2E2E2E2E2E2E2E2E2E2E2E2E2E2F5E2E2E2F5E2E2F5F5F5E2E2
310
F5E2E2E2E2E2F5E2E2E2E2E2E2E2E2E2E2E2E2E2E2E2E2E2E2E2E2E2E2E2E2E2E2E2E2E2E2E2E2E2E2E2E2E2E2E2E2E2E2E2E2E2E2E2E2E2E2E2E2E2E2E2E2E2E2E2E2E2E2E2E2E2E2E2E2E2E2E2E2E2E2E2E2E2E2E2E2E2E2E2E2E2E2E2E2E2E2E2E2E2E2E2E2E2E2E2E2E2E2E2E2E2E2E2E2E2E2E2E2E2E2E2E2E2E2E2E2
310
E2E2E2E2E2E2E2E2E2E2E2E2E2E2E2E2E2E2E2E2E2E2E2E2E2E2E2E2E2E2E2E2E2E2E2E2E2E2E2E2E2F5E2E2E2F5E2E2F5F5F5E2E2F5E2E2E2E2E2F5E2E2E2E2E2E2E2E2E2E2E2E2E2E2E2E2E2E2E2E2E2E2E2E2E2E2E2E2E2E2E2E2E2E2E2E2E2E2E2E2E2E2E2E2E2E2E2E2E2E2E2E2E2E2E2E2E2E2E2E2E2E2E2E2E2E2E2
310
E2E2E2E2E2E2E2E2E2E2E2E2E2E2E2E2E2E2E2E2E2E2E2E2E2E2E2E2E2E2E2E2E2E2E2E2E2E2E2E2E2E2E2E2E2E2E2E2E2E2E2E2E2E2E2E2E2E2E2E2E2E2E2E2E2E2E2E2E2E2E2E2E2E2E2E2E2E2E2E2E2E2E2E2E2E2E2E2E2E2E2E2E2E2F5E2E2E2F5E2E2F5F5F5E2E2F5E2E2E2E2E2F5E2E2E2E2E2E2E2E2E2E2E2E2E2E2
310
E2E2E2E2E2E2E2E2E2E2E2E2E2E2E2E2E2E2E2E2E2E2E2E2E2E2E2E2E2E2E2E2E2E2E2E2E2E2E2E2E2E2E2E2E2E2E2E2E2E2E2E2E2E2E2E2E2E2E2E2E2E2E2E2E2E2E2E2E2E2E2E2E2E2E2E2E2E2E2E2E2E2E2E2E2E2E2E2E2E2E2E2E2E2E2E2E2E2E2E2E2E2E2E2E2E2E2E2E2E2E2E2E2E2E2E2E2E2E2E2E2E2E2E2E2E2E2
310
E2E2E2E2E2E2E2E2E2E2E2E2E2E2E2E2E2E2E2E2F5E2E2E2F5E2E2F5F5F5E2E2F5E2E2E2E2E2F5E2F5F5F5F5E2E2E2E2E2E2E2E2E2E2E2E2E2E2E2E2E2E2E2E2E2E2E2E2E2E2F5F5F5F5E2E2E2E2E2E2E2E2E2E2E2E2E2E2E2E2E2E2E2F5F5F5F5E2E2E2E2E2E2E2E2E2E2E2E2E2E2E2E2E2E2E2E2E2E2E2E2E2E2E2E2E2E2
310
E2E2E2E2E2E2E2E2E2E2F5F5F5F5F0F0F0F0F0F0F0F0F0F0F0F0F0F0E2E2E2E2E2E2E2E2E2E2F5F5F5F5E2E2E2E2E2E2E2E2E2E2E2E2E2E2E2E2E2E2E2E2E2E2E2E2E2E2F5F5F5F5E2F5E2E2E2F5E2E2F5F5F5E2E2F5E2E2E2E2E2F5F5F5F5F5F5F5F5F5F5F5F5F5F5F5F5F5F5F5F5F5F5F5F5F5F5F5F5F5F5F5F5F5F5F5F5
310
F5F5E2E2E2E2E2E2E2E2E2E2E2E2E2E2E2E2E2F5F5F5F5F5F5F5F5F5F5F5F5F5F5F5F5F5F5F5F5F5F5F5F5E2E2E2E2F5F5F5F5F5F5F5F5F5F5F5F5F5F5F5F5F5F5F5F5F5F5F5F5F5E2E2E2E2E2E2E2F0E2E2E2E2E2E2E2E2E2F5F5F5F5F5F5F5F5F5F5F5F5F5F5F5F5F5F5F5F5F5F5F5F5F5F5F5F5F5F5F5F5F5F5F5F5F5F5
310
E2E2E2F5E2E2F5F5F5E2E2F5E2E2E2E2E2F5E2F5F5F5F5F5F5F5F5F5F5F5F5F5F5F5F5F5F5F5F5F5F5F5F5F5F5F5F5F5F5F5F5F5F5F5F5E2E2E2E2E2E2E2E2E2E2E2E2E2E2E2F5F5F5E2E2E2E2E2E2E2E2E2E2E2E2E2E2E2E2F5F5F5F5F5F5F5F5F5F5F5F5F5F5F5F5F5F5F5F5F5F5F5F5E2E2E2E2E2E2E2E2E2E2E2F5E2E2
310
E2E2E2E2E2F0E2E2E2E2E2E2E2E2E2F5E2E2F5E2E2E2E2E2E2E2E2E2E2E2E2E2E2E2E2E2E2E2E2E2E2E2E2E2E2E2E2E2E2F5F5E2F5E2E2E2F5E2E2F5F5F5E2E2F5E2E2E2E2E2F5E2E2E2E2E2E2E2E2E2E2E2E2E2E2E2E2E2E2E2E2E2E2E2E2E2E2E2E2E2E2E2E2E2E2E2E2F5E2E2E2E2E2E2E2E2E2E2E2E2E2E2E2F5E2E2E2
310
E2E2E2E2E2E2E2E2E2E2E2E2E2E2E2E2E2E2E2E2E2E2E2E2E2E2E2E2E2E2E2E2E2E2E2E2E2E2E2E2E2E2E2E2E2E2E2E2E2E2F5E2E2E2E2E2E2E2F0E2E2E2E2E2E2E2E2E2F5E2E2F5E2E2E2E2E2E2E2E2E2E2E2E2E2E2E2E2E2E2E2E2E2E2E2E2E2E2E2E2E2E2F5F5E2F5E2E2E2F5E2E2F5F5F5E2E2F5E2E2E2E2E2F5E2E2E2
310
E2E2E2E2E2E2E2E2E2E2E2E2E2E2E2E2E2E2E2E2E2E2E2E2E2E2E2E2E2E2E2E2E2F5E2E2E2E2E2E2E2E2E2E2E2E2E2E2E2F5E2E2E2E2E2E2E2E2E2E2E2E2E2E2E2E2E2E2E2E2E2E2E2E2E2E2E2E2E2E2E2E2E2E2E2E2E2E2E2E2E2E2E2E2E2E2E2E2E2E2E2E2E2F5E2E2E2E2E2E2E2F0E2E2E2E2E2E2E2E2E2F5E2E2F5E2E2
310
E2E2E2E2E2E2E2E2E2E2E2E2E2E2E2E2E2E2E2E2E2E2E2E2E2E2E2E2F5E2E2F5E2E2E2F5E2E2F5F5F5E2E2F5E2E2E2E2E2F5E2E2E2E2E2E2E2E2E2E2E2E2E2E2E2E2E2E2E2E2E2E2E2E2E2E2E2E2E2E2E2E2E2E2E2E2F5E2E2E2E2E2E2E2E2E2E2E2E2E2E2E2F5E2E2E2E2E2E2E2E2E2E2E2E2E2E2E2E2E2E2E2E2E2E2E2E2
310
E2E2E2E2E2E2E2E2E2E2E2E2E2E2E2E2E2E2E2E2E2E2E2E2E2E2E2E2E2F5E2E2E2E2E2E2E2F0E2E2E2E2E2E2E2E2E2F5E2E2F5E2E2E2E2E2E2E2E2E2E2E2E2E2E2E2E2E2E2E2E2E2E2E2E2E2E2E2E2E2E2F5E2E2F5E2E2E2F5E2E2F5F5F5E2E2F5E2E2E2E2E2F5E2E2E2E2E2E2E2E2E2E2E2E2E2E2E2E2E2E2E2E2E2E2E2E2
310
E2E2E2E2E2E2E2E2E2E2E2E2F5E2E2E2E2E2E2E2E2E2E2E2E2E2E2E2F5E2E2E2E2E2E2E2E2E2E2E2E2E2E2E2E2E2E2E2E2E2E2E2E2E2E2E2E2E2E2E2E2E2E2E2E2E2E2E2E2E2E2E2E2E2E2E2E2E2E2E2E2E2F5E2E2E2E2E2E2DCDCE2E2E2E2E2E2E2E2E2F5E2E2F5E2E2E2E2E2E2E2E2E2E2E2E2E2E2E2E2E2E2E2E2E2E2E2
310
E2E2E2E2E2E2E2F5E2E2F5E2E2E2F5E2E2F5F5F5E2E2F5E2E2E2E2E2F5F5F5F5F5F5F5F5F5F5F5F5F5F5F5F5F5F5F5F5F5F5F5F5F5F5F5F5F5F5F5F5F5F5F5F5F5F5E2E2E2E2E2E2E2E2E2E2E2E2E2E2E2F5E2E2E2E2E2E2E2E2E2E2E2E2E2E2E2E2E2E2E2E2E2E2E2E2E2E2E2E2E2E2E2E2E2E2E2E2E2E2E2E2E2E2E2E2E2
310
E2E2E2E2E2E2E2E2F5E2E2E2E2E2DCDCDCE2E2E2E2E2E2E2E2E2E2F5E2F5E2E2E2E2E2E2E2E2E2E2E2E2E2E2E2E2E2E2E2E2E2E2E2E2E2E2E2E2E2E2F5E2F5F5E2E2E2F5E2E2F5F5F5E2E2F5E2E2E2E2E2F5F5F5F5F5F5F5F5F5F5F5F5F5F5F5F5F5F5F5F5F5F5F5F5F5F5F5F5F5F5F5F5F5F5F5F5F5F5E2E2E2E2E2E2E2E2
310
E2E2E2E2E2E2E2E2F5F5E2E2E2E2E2E2E2E2E2E2E2E2E2E2E2E2E2E2E2E2E2E2E2E2E2E2E2E2E2E2E2E2E2E2E2E2E2E2E2E2E2E2E2E2E2E2E2E2E2E2E2F5E2E2E2E2E2DCDCDCE2E2E2E2E2E2E2E2E2E2F5E2F5E2E2E2E2E2E2E2E2E2E2E2E2E2E2E2E2E2E2E2E2E2E2E2E2E2E2E2E2E2E2F5E2F5F5E2E2E2F5E2E2F5F5F5E2
310
E2E2E2E2E2E2E2F5F5F5F5E2E2E2E2E2E2E2E2E2E2E2E2E2E2E2E2E2E2E2E2E2E2E2E2E2E2E2E2E2E2E2F5E2F5E2E2E2E2E2E2E2E2E2E2E2E2E2E2E2E2E2E2F5F5F5F5E2E2E2E2E2E2E2E2E2E2E2E2E2E2E2E2E2E2E2E2E2E2E2E2E2E2E2E2E2E2E2E2E2E2E2E2E2E2E2E2E2E2E2E2E2E2E2F5E2E2E2E2E2E2E2F0E2E2E2E2
310
E2E2E2E2E2E2F5E2F5E2E2E2E2E2E2E2E2E2E2E2E2E2E2E2E2E2E2E2E2E2E2E2E2E2E2E2E2E2E2F5E2F5F5E2E2E2E2E2E2F5F5F5E2E2E2E2E2E2E2E2F5F5E2F5E2E2E2E2E2E2E2E2E2E2E2E2E2E2E2E2E2E2E2E2E2E2E2E2E2E2E2E2E2E2E2E2F5F5E2E2E2E2E2E2E2E2E2E2E2E2E2E2E2E2E2E2E2E2E2E2F5F5F5F5E2E2E2
310
E2E2E2E2E2E2E2E2E2E2E2E2E2E2E2E2E2E2E2E2E2E2E2E2E2E2E2E2E2E2E2E2E2E2E2E2E2E2E2E2F5E2E2E2E2E2E2E2F0E2E2E2E2E2E2E2E2E2E2F5E2F5E2E2E2E2E2E2E2E2E2E2E2E2E2E2E2E2E2E2E2E2E2E2E2E2E2E2E2E2E2E2F5E2F5F5E2E2E2E2E2E2F5F5F5E2E2E2E2E2E2E2E2F5F5F5F5F5F5F5F5F5F5F5F5F5F5
310
F5F5F5F5F5F5F5F5F5F5F5F5F5F5F5F5F5F5F5F5F5F5F5F5E2E2E2E2E2E2E2E2E2E2E2E2E2E2E2E2E2E2E2E2E2E2E2E2E2E2F5F5F5F5F5F5F5F5F5F5F5F5F5F5F5F5F5F5F5F5F5F5F5E2E2E2E2E2E2E2E2E2E2E2E2E2E2E2E2E2E2E2E2F5E2E2E2E2E2E2E2F0E2E2E2E2E2E2E2E2E2E2F5E2F5E2E2E2E2E2E2E2E2E2E2E2E2
310
E2E2E2E2E2E2E2E2E2E2E2E2E2E2E2E2E2E2F5E2F5F5E2E2E2E2E2E2F5F5F5E2E2E2E2E2E2E2E2F5F5F5F5F5F5F5F5F5F5F5F5F5F5F5F5F5F5F5F5F5F5F5F5F5F5F5F5F5F5F5F5F5F5F5F5F5F5E2E2E2E2E2E2E2E2E2E2E2E2E2E2E2E2E2E2E2E2E2E2E2E2E2E2E2E2E2E2F5F5F5F5F5F5F5F5F5F5F5F5F5F5F5F5F5F5F5F5
310
F5F5F5F5F5F5F5F5F5F5F5F5F5F5F5F5F5F5F5F5E2E2E2E2E2E2E2F0E2E2E2E2E2E2E2E2E2E2F5F5F5F5F5F5F5F5F5F5F5F5F5F5F5F5F5F5F5F5F5F5F5F5F5F5F5F5F5F5F5F5F5F5F5F5F5E2E2E2E2E2E2F5F5F5E2E2E2E2E2E2E2E2F5F5E2E2E2E2E2E2E2E2E2E2E2E2E2E2E2E2E2E2E2E2E2E2E2E2E2E2E2E2E2E2E2E2E2
310
E2E2F5E2E2E2E2E2E2E2E2E2E2E2E2E2E2E2E2E2E2E2E2E2E2E2E2E2E2E2E2E2E2F5E2E2E2E2E2E2E2E2E2E2E2E2E2E2E2E2E2E2E2E2E2F5E2E2E2F5F5F5F5F5F5F5F5F5F5F5F5E2E2E2E2E2E2E2E2E2F0E2E2E2E2E2E2E2E2E2E2F5E2E2E2E2E2E2E2E2F5F5F5F5F5F5F5F5F5F5F5F5F5F5F5F5F5F5E2E2E2E2E2E2E2E2F5
310
F5E2E2E2E2E2E2F5F5F5E2E2E2E2E2E2E2E2F5F5E2E2E2E2E2E2E2E2E2E2E2E2E2E2E2E2E2E2E2E2E2E2E2E2E2E2E2E2E2E2E2E2E2E2F5E2E2E2E2E2E2E2E2E2E2E2E2E2E2E2E2E2E2E2E2E2E2E2E2E2E2E2E2E2E2E2F5E2E2E2E2E2E2E2E2E2E2E2E2E2E2E2E2F5F5F5F5F5E2E2E2E2E2E2E2E2E2E2E2E2E2E2E2F5E2E2E2
310
E2E2E2E2E2E2F0E2E2E2E2E2E2E2E2E2E2F5E2E2E2E2E2E2E2E2E2E2E2E2E2E2E2E2E2E2E2E2E2E2E2E2E2E2E2E2E2E2E2E2E2E2F5F5E2E2E2E2E2E2F5F5F5E2E2E2E2E2E2E2E2F5F5F5F5F5F5F5F5F5F5F5F5F5F5F5F5F5F5F5F5F5F5F5F5F5F5F5F5F5F5F5F5F5F5F5F5F5E2E2E2E2E2E2E2E2E2E2E2E2E2E2E2E2E2E2E2
310
E2E2E2E2E2E2E2E2E2E2E2E2E2F5F5F5F5F5F5F5F5F5F5F5F5F5F5F5F5E2E2E2E2E2F5F5F5F5F5F5F5F5F5F5F5F5F5F5F5F5F0F0F0F0F0F0F0F0F0F0F0E2E2E2E2E2E2E2E2E2F5F5F5F5F5F5F5F5F5F5F5F5F5F5F5F5F5F5F5F5F5F5F5F5F5F5F5F5F5F5F5F5F5F5F5F5F5E2E2E2E2E2E2F5F5F5E2E2E2E2E2E2E2E2F5E2E2
310
E2E2E2E2E2E2E2E2E2E2E2E2E2E2E2E2E2E2E2E2E2E2E2E2E2E2E2E2E2E2E2E2E2E2E2E2E2E2E2E2E2E2E2E2E2E2E2E2E2E2E2E2E2E2E2E2E2E2E2E2E2E2E2E2E2E2E2E2E2E2E2E2E2E2E2E2E2E2E2E2E2E2E2E2E2E2E2E2E2E2E2E2E2E2E2E2E2E2E2E2E2E2E2E2E2E2E2E2E2E2E2E2E2E2E2E2E2E2E2E2E2E2E2E2E2E2E2
310
E2E2E2E2E2E2E2E2E2E2E2E2E2E2E2E2E2E2E2E2E2E2E2E2E2E2E2E2E2E2E2E2F5E2E2E2E2E2E2F5F5F5E2E2E2E2E2E2E2E2F5E2E2E2E2E2E2E2E2E2E2E2E2E2E2E2E2E2E2E2E2E2E2E2E2E2E2E2E2E2E2E2E2E2E2E2E2E2E2E2E2E2E2E2E2E2E2E2E2E2E2E2E2E2E2E2E2E2E2E2E2E2E2E2E2E2E2E2E2E2E2E2E2E2E2E2E2
310
E2E2E2E2E2E2E2E2E2E2E2E2E2E2E2E2E2E2E2E2E2E2E2E2E2E2E2E2E2E2E2E2E2E2E2E2E2E2E2E2E2E2E2E2E2E2E2E2E2E2E2E2E2E2E2E2E2E2E2E2E2E2E2E2E2E2E2E2E2E2E2E2E2E2E2E2E2E2E2E2E2E2E2E2E2F5E2E2E2E2E2E2F5F5F5E2E2F5E2E2E2E2E2F5E2E2E2E2E2E2E2E2E2E2E2E2E2E2E2E2E2E2E2E2E2E2E2
310
E2E2E2E2E2E2E2E2E2E2E2E2E2E2E2E2E2E2E2E2E2E2E2E2E2E2E2E2E2E2E2E2E2E2E2E2E2E2E2E2E2E2E2E2E2E2E2E2E2E2E2E2E2E2E2E2E2E2E2E2E2E2E2E2E2E2E2E2E2E2E2E2E2E2E2E2E2E2E2E2E2E2E2E2E2E2E2E2E2E2E2E2E2E2E2E2E2E2E2E2E2E2E2E2E2E2E2E2E2E2E2E2E2E2E2E2E2E2E2E2E2E2E2E2E2E2E2
310
E2E2E2E2E2E2E2E2E2E2E2F5E2E2E2F5E2E2F5F5F5E2E2F5E2E2E2E2E2F5E2E2E2E2E2E2E2E2E2E2E2E2E2E2E2E2E2E2E2E2E2E2E2E2E2E2E2E2E2E2E2E2E2E2E2E2E2E2E2E2E2E2E2E2E2E2E2E2E2E2E2E2E2E2E2E2E2E2E2E2E2E2E2E2E2E2E2E2E2E2E2E2E2E2E2E2E2E2E2E2E2E2E2E2E2E2E2E2E2E2E2E2E2E2E2E2E2
310
E2E2E2E2E2E2E2E2E2E2E2E2E2E2E2E2E2E2E2E2E2E2E2E2E2E2E2E2E2E2E2E2E2E2E2E2E2E2E2E2E2E2E2E2E2E2E2E2E2E2E2E2E2E2E2E2E2E2E2E2E2E2E2E2F5E2E2E2F5E2E2F5F5F5E2E2F5E2E2E2E2E2F5E2E2E2E2E2E2E2E2E2E2E2E2E2E2E2E2E2E2E2E2E2E2E2E2E2E2E2E2E2E2E2E2E2E2E2E2E2E2E2E2E2E2E2E2
310
E2E2E2E2E2E2E2E2E2E2E2E2E2E2E2E2E2E2E2E2E2E2E2E2E2E2E2E2E2E2E2E2E2E2E2E2E2E2E2E2E2E2E2E2E2E2E2E2E2E2E2E2E2E2E2E2E2E2E2E2E2E2E2E2E2E2E2E2E2E2E2E2E2E2E2E2E2E2E2E2E2E2E2E2E2E2E2E2E2E2E2E2E2E2E2E2E2E2E2E2E2E2E2E2E2E2E2E2E2E2E2E2E2E2E2E2E2F5E2E2E2F5E2E2F5F5F5
310
E2E2F5E2E2E2E2E2F5E2E2E2E2E2E2E2E2E2E2E2E2E2E2E2E2E2E2E2E2E2E2E2E2E2E2E2E2E2E2E2E2E2E2E2E2E2E2E2E2E2E2E2E2E2E2E2E2E2E2E2E2E2E2E2E2E2E2E2E2E2E2E2E2E2E2E2E2E2E2E2E2E2E2E2E2E2E2E2E2E2E2E2E2E2E2E2E2E2E2E2E2E2E2E2E2E2E2E2E2E2E2E2E2E2E2E2E2E2E2E2E2E2E2E2E2E2E2
310
E2E2E2E2E2E2E2E2E2E2E2E2E2E2E2E2E2E2E2E2E2E2E2E2E2E2E2E2E2E2E2E2E2E2E2E2E2E2E2E2E2E2E2F5E2E2E2F5E2E2F5F5F5E2E2F5E2E2E2E2E2F5E2E2E2E2E2E2E2E2E2E2E2E2E2E2E2E2E2E2E2E2E2E2E2E2E2E2E2E2E2E2E2E2E2E2E2E2E2E2E2E2E2E2E2E2E2E2E2E2E2E2E2E2E2E2E2E2E2E2E2E2E2E2E2E2E2
310
E2E2E2E2E2E2E2E2E2E2E2E2E2E2E2E2E2E2E2E2E2E2E2E2E2E2E2E2E2E2E2E2E2E2E2E2E2E2E2E2E2E2E2E2E2E2E2E2E2E2E2E2E2E2E2E2E2E2E2E2E2E2E2E2E2E2E2E2E2E2E2E2E2E2E2E2E2E2E2E2E2E2E2E2E2E2E2E2E2E2E2E2E2E2E2E2F5E2E2E2F5E2E2F5F5F5E2E2F5E2E2E2E2E2F5E2E2E2E2E2E2E2E2E2E2E2E2
310
E2E2E2E2E2E2E2E2E2E2E2E2E2E2E2E2E2E2E2E2E2E2E2E2E2E2E2E2E2E2E2E2E2E2E2E2E2E2E2E2E2E2E2E2E2E2E2E2E2E2E2E2E2E2E2E2E2E2E2E2E2E2E2E2E2E2E2E2E2E2E2E2E2E2E2E2E2E2E2E2E2E2E2E2E2E2E2E2E2E2E2E2E2E2E2E2E2E2E2E2E2E2E2E2E2E2E2E2E2E2E2E2E2E2E2E2E2E2E2E2E2E2E2E2E2E2E2
310
E2E2E2E2E2E2E2E2E2E2E2E2E2E2E2E2E2E2E2E2E2E2F5E2E2E2F5E2E2F5F5F5E2E2F5E2E2E2E2E2F5E2E2E2E2E2E2E2E2E2E2E2E2E2E2E2E2E2E2E2E2E2E2E2E2E2E2E2E2E2E2E2E2E2E2E2E2E2E2E2E2E2E2E2E2E2E2E2E2E2E2E2E2E2E2E2E2E2E2E2E2E2E2E2E2E2E2E2E2E2E2E2E2E2E2E2E2E2E2E2E2E2E2E2E2E2E2
310
E2E2E2E2E2E2E2E2E2E2E2E2E2E2E2E2E2E2E2E2E2E2E2E2E2E2E2E2E2E2E2E2E2E2E2E2E2E2E2E2E2E2E2E2E2E2E2E2E2E2E2E2E2E2E2E2E2E2E2E2E2E2E2E2E2E2E2E2E2E2E2E2E2E2E2F5E2E2E2F5E2E2F5F5F5E2E2F5E2E2E2E2E2F5E2E2E2E2E2E2E2E2E2E2E2E2E2E2E2E2E2E2E2E2E2E2E2E2E2E2E2E2E2E2E2E2E2
310
E2E2E2E2E2E2E2E2E2E2E2E2E2E2E2E2E2E2E2E2E2E2E2E2E2E2E2E2E2E2E2E2E2E2E2E2E2E2E2E2E2E2E2E2E2E2E2E2E2E2E2E2E2E2E2E2E2E2E2E2E2E2E2E2E2E2E2E2E2E2E2E2E2E2E2E2E2E2E2E2E2E2E2E2E2E2E2E2E2E2E2E2E2E2E2E2E2E2E2E2E2E2E2E2E2E2E2E2E2E2E2E2E2E2E2E2E2E2E2E2E2E2E2E2E2E2E2
310
E2F5E2E2E2F5E2E2F5F5F5E2E2F5E2E2E2E2E2F5E2E2E2E2E2E2E2E2E2E2E2E2E2E2E2E2E2E2E2E2E2E2E2E2E2E2E2E2E2E2E2E2E2E2E2E2E2E2E2E2E2E2E2E2E2E2E2E2E2E2E2E2E2E2E2E2E2E2E2E2E2E2E2E2E2E2E2E2E2E2E2E2E2E2E2E2E2E2E2E2E2E2E2E2E2E2E2E2E2E2E2E2E2E2E2E2E2E2E2E2E2E2E2E2E2E2E2
310
E2E2E2E2E2E2E2E2E2E2E2E2E2E2E2E2E2E2E2E2E2E2E2E2E2E2E2E2E2E2E2E2E2E2E2E2E2E2E2E2E2E2E2E2E2E2E2E2E2E2E2E2E2E2F5E2E2E2F5E2E2F5F5F5E2E2F5E2E2E2E2E2F5E2E2E2E2E2E2E2E2E2E2E2E2E2E2E2E2E2E2E2E2E2E2E2E2E2E2E2E2E2E2E2E2E2E2E2E2E2E2E2E2E2E2E2E2E2E2E2E2E2E2E2E2E2E2
310
E2E2E2E2E2F5F5F5F5F5F5F5F5F5F5F5F5F5F5F5F5F5F5F5F5F5F5F5F5F5F5F5F5F5F5F5F5F5F5F5F5F5F5F5F5F5F5F5F5F5F5F5F5F5F0F0F0F0F0F0F0F0F0F0F0F0E2E2E2E2E2E2E2E2E2E2E2E2E2E2E2E2E2E2E2E2E2E2E2E2E2E2E2E2E2E2E2E2E2E2E2E2E2E2E2E2E2F5E2E2E2F5E2E2F5F5F5E2E2F5E2E2E2E2E2F5E2
310
E2E2E2E2E2E2E2E2E2E2E2E2E2E2E2E2E2E2E2E2E2E2E2E2E2E2E2E2E2E2E2E2E2E2E2E2E2E2E2E2E2E2E2E2E2E2E2E2E2E2E2E2E2F5F5F5F5F5E2F5F5F5F5F5F5F5F5F5F5F5F5F5E2E2E2E2E2E2F5F5E2F5E2E2F5E2F5E2E2E2F5E2F5F5E2E2E2E2E2E2E2E2E2E2E2E2F5E2E2E2E2E2E2F0E2E2E2F0E2E2E2E2E2E2E2E2E2
310
E2E2E2E2E2E2E2E2E2E2E2E2E2E2E2E2E2E2E2E2E2E2E2E2E2E2E2E2E2E2E2E2E2F5E2E2E2F5E2E2F5F5F5E2E2F5E2E2E2E2E2F5E2E2E2E2E2E2E2E2E2E2E2E2E2E2E2E2E2E2E2E2E2E2E2E2E2E2E2E2E2E2E2E2E2E2E2E2E2E2E2E2E2E2E2E2E2E2E2E2E2E2E2E2E2F5E2E2F5F5F5F5E2E2E2E2E2E2E2F5F5F5F5F5F5E2E2
310
E2E2F5F5E2E2E2F5E2E2F5E2F5E2E2E2F5E2E2E2F5F5E2E2E2E2E2E2E2E2E2E2F5E2E2E2E2E2E2F0E2E2E2F0E2E2E2E2E2E2E2E2E2E2E2E2E2E2E2E2E2E2E2E2E2E2E2E2E2E2E2E2E2E2E2E2E2E2E2E2E2E2E2E2E2E2F5E2E2E2F5E2E2F5F5F5E2E2F5E2E2E2E2E2F5E2E2E2E2E2E2E2E2E2E2E2E2E2E2E2E2E2E2E2E2E2E2
310
E2E2E2E2E2E2E2E2E2E2E2E2E2E2E2E2E2E2E2E2E2E2E2E2E2E2E2E2E2E2E2F5E2F5E2E2E2E2E2E2E2E2E2E2E2F5E2F5E2F5F5E2E2E2F5E2E2E2E2E2F5E2E2F5E2F5E2E2E2F5E2E2E2E2E2F5E2E2E2E2E2E2E2E2E2F5E2E2E2E2E2E2F0E2E2E2F0E2E2E2E2E2E2E2E2E2E2E2E2E2E2E2E2E2E2E2E2E2E2E2E2E2E2E2E2E2E2
310
E2E2E2E2E2E2E2E2E2E2E2E2F5E2E2E2F5E2E2F5F5F5E2E2F5E2E2E2E2E2F5E2E2E2E2E2E2E2E2E2E2E2E2E2E2E2E2E2E2E2E2E2E2E2E2E2E2E2E2E2E2E2E2E2E2E2E2E2E2E2E2E2E2E2E2E2E2E2E2E2E2E2E2F5E2F5E2E2F5F5F5F5E2E2F5F5F5E2F5E2F5E2F5F5E2F5F5E2E2E2E2E2E2F5E2E2F5E2F5E2E2E2F5E2E2E2E2
310
E2E2F5E2E2E2E2E2E2E2E2F5E2E2E2E2E2E2F0E2E2E2F0E2E2E2E2E2E2E2E2E2E2E2E2E2E2E2E2E2E2E2E2E2E2E2E2E2E2E2E2E2E2E2E2E2E2E2E2E2E2E2E2E2E2F5E2E2E2F5E2E2F5F5F5E2E2F5E2E2E2E2E2F5E2E2E2E2E2E2E2E2E2E2E2E2E2E2E2E2E2E2E2E2E2E2E2E2E2E2E2E2E2E2E2E2E2E2E2E2E2E2E2E2E2E2E2
310
E2E2E2E2E2E2E2E2E2F5E2F5E2F5F5E2E2F5E2F5F5E2F5E2F5E2F5E2F5F5F5E2E2E2E2E2E2E2F5F5E2E2F5E2F5E2E2E2F5E2E2E2E2E2E2E2F5E2E2E2E2E2E2E2F5E2E2E2E2E2E2F0E2E2E2F0E2E2E2E2E2E2E2E2E2E2E2E2E2E2E2E2E2E2E2E2E2E2E2E2E2E2E2E2E2E2E2E2E2E2E2E2E2E2E2E2E2E2F5E2E2E2F5E2E2F5F5
310
F5E2E2E2E2E2E2E2E2F5E2E2E2E2E2E2E2E2E2E2E2E2E2E2E2E2E2E2E2E2E2E2E2E2E2E2E2E2E2E2E2E2E2E2E2E2E2E2E2E2E2E2E2E2E2E2E2E2E2E2E2E2F5E2F5E2F5E2E2E2F5E2F5E2E2E2F5F5E2F5F5F5F5E2E2E2E2E2E2F5F5E2E2F5F5F5E2F5E2F5F5E2F5F5E2E2E2E2E2E2F5E2E2E2E2E2E2F5E2E2E2E2E2E2F0E2E2
310
E2F0E2E2E2E2E2E2E2E2E2E2E2E2E2E2E2E2E2E2E2E2E2E2E2E2E2E2E2E2E2E2E2E2E2E2E2E2E2E2E2E2E2E2F5E2E2E2E2E2E2F5F5F5E2E2E2E2E2E2E2E2F5E2E2E2E2E2E2E2E2E2E2E2E2E2E2E2E2E2E2E2E2E2E2E2E2E2E2E2E2E2E2E2E2E2E2E2E2E2E2E2E2E2E2E2E2E2E2E2E2E2E2E2E2F5E2F5E2F5E2E2E2F5E2F5E2
310
E2F5F5F5E2F5F5F5F5E2E2E2E2F5F5E2E2E2E2E2E2F5F5F5F5E2E2E2E2E2F5F5E2E2E2E2F5F5E2E2E2E2E2F5E2E2E2E2E2E2F0E2E2E2F0E2E2E2E2E2E2E2E2E2E2E2E2E2E2E2E2E2E2E2E2E2E2E2E2E2E2E2E2E2E2E2E2E2E2E2E2E2E2E2E2E2E2F5E2E2E2E2E2E2F5F5F5E2E2E2E2E2E2E2E2F5E2E2E2E2E2E2E2E2E2E2E2
310
E2E2E2E2E2E2E2E2E2E2E2E2E2E2E2E2E2E2E2E2E2E2E2E2E2E2E2E2E2E2E2E2E2E2E2E2E2E2E2E2E2F5E2F5E2F5F5E2F5F5E2F5F5F5F5E2F5E2F5F5F5E2E2E2E2F5E2E2E2E2E2E2E2E2E2E2E2E2E2E2E2E2E2E2E2F5E2E2E2E2F5F5E2E2E2E2F5E2E2E2E2E2E2F0E2E2E2F0E2E2E2E2E2E2E2E2E2E2E2E2E2E2E2E2E2E2E2
310
E2E2E2E2E2E2E2E2E2E2E2E2E2E2E2E2E2E2E2E2E2E2E2F5E2E2E2E2E2E2F5F5F5E2E2E2E2E2E2E2E2F5E2E2E2E2E2E2E2E2E2E2E2E2E2E2E2E2E2E2E2E2E2E2E2E2E2E2E2E2E2E2E2E2E2E2E2E2E2E2E2E2E2E2E2E2E2E2E2E2E2E2E2E2F5E2F5E2E2F5F5F5F5F5F5F5F5E2E2F5E2F5F5F5E2E2E2F5E2E2E2E2E2E2E2E2E2
310
E2E2E2E2E2E2E2E2E2E2E2E2F5E2E2E2E2F5E2E2E2E2F5E2E2E2E2E2E2F0E2E2E2F0E2E2E2E2E2E2E2E2E2E2E2E2E2E2E2E2E2E2E2E2E2E2E2E2E2E2E2E2E2E2E2E2E2E2E2E2E2E2E2E2E2E2F5E2E2E2E2E2E2F5F5F5E2E2E2E2E2E2E2E2F5E2E2E2E2E2E2E2E2E2E2E2E2E2E2E2E2E2E2E2E2E2E2E2E2E2E2E2E2E2E2E2E2
310
E2E2E2E2E2E2E2E2E2E2E2E2E2E2E2E2E2E2E2E2F5E2F5E2E2E2E2F5F5E2F5F5E2E2E2F5F5F5F5E2E2E2E2F5E2E2E2E2E2E2E2E2E2E2E2E2E2E2E2E2E2E2E2E2E2E2F5E2E2E2E2F5E2E2E2F5E2E2E2E2E2E2F0E2E2E2F0E2E2E2E2E2E2E2E2E2E2E2E2E2E2E2E2E2E2E2E2E2E2E2E2E2E2E2E2E2E2E2E2E2E2E2E2E2E2E2E2
310
E2E2F5E2E2E2E2E2E2F5F5F5E2E2E2E2E2E2E2E2F5E2E2E2E2E2E2E2E2E2E2E2E2E2E2E2E2E2E2E2E2E2E2E2E2E2E2E2E2E2E2E2E2E2E2E2E2E2E2E2E2E2E2E2E2E2E2E2E2E2E2E2E2F5E2F5E2E2E2E2F5E2E2F5F5E2E2E2F5F5F5E2E2E2E2F5E2E2E2E2E2E2E2E2E2E2E2E2E2E2E2E2E2E2E2E2E2E2E2F5E2E2E2E2F5E2E2
310
E2F5E2E2E2E2E2E2F0E2E2E2F0E2E2E2E2E2E2E2E2E2E2E2E2E2E2E2E2E2E2E2E2E2E2E2E2E2E2E2E2E2E2E2E2E2E2E2E2E2E2E2E2E2E2F5E2E2E2E2E2E2F5F5F5E2E2E2E2E2E2E2E2F5E2E2E2E2E2E2E2E2E2E2E2E2E2E2E2E2E2E2E2E2E2E2E2E2E2E2E2E2E2E2E2E2E2E2E2E2E2E2E2E2E2E2E2E2E2E2E2E2E2E2E2E2F5
310
E2F5E2E2E2E2F5F5E2F5E2E2E2E2E2F5F5E2E2E2E2F5E2E2E2E2E2E2E2E2E2E2E2E2E2E2E2E2E2E2E2E2E2E2E2E2F5E2E2E2E2F5E2E2F5E2E2E2E2E2E2F0E2E2E2F0E2E2E2E2E2E2E2E2E2E2E2E2E2E2E2E2E2E2E2E2E2E2E2E2E2E2E2E2E2E2E2E2E2E2E2E2E2E2E2E2E2E2F5E2E2E2E2E2E2F5F5F5E2E2E2E2E2E2E2E2F5
310
E2E2E2E2E2E2E2E2E2E2E2E2E2E2E2E2E2E2E2E2E2E2E2E2E2E2E2E2E2E2E2E2E2E2E2E2E2E2E2E2E2E2E2E2E2E2E2E2E2E2E2E2F5E2F5E2E2E2E2E2F5F5E2E2E2E2E2E2F5F5E2E2E2E2F5E2E2E2E2E2E2E2E2E2E2E2E2E2E2E2E2E2E2E2E2E2E2E2E2E2F5E2E2E2F5E2E2F5E2E2E2E2E2E2F0E2E2E2F0E2E2E2E2E2E2E2E2
310
E2E2E2E2E2E2E2E2E2E2E2E2E2E2E2E2E2E2E2E2E2E2E2E2E2E2E2E2E2E2E2E2E2E2F5E2E2E2E2E2E2F5F5F5E2E2E2E2E2E2E2E2F5E2E2E2E2E2E2E2E2E2E2E2E2E2E2E2E2E2E2E2E2E2E2E2E2E2E2E2E2E2E2E2E2E2E2E2E2E2E2E2E2E2E2E2E2E2E2E2E2E2E2E2E2F5E2F5E2E2E2F5F5F5F5F5F5F5E2E2E2F5E2E2E2E2F5
310
E2E2E2E2E2E2E2E2E2E2E2E2E2E2E2E2E2E2E2E2E2E2E2E2E2E2F5E2E2E2F5E2E2F5E2E2E2E2E2E2F0E2E2E2F0E2E2E2E2E2E2E2E2E2E2E2E2E2E2E2E2E2E2E2E2E2E2E2E2E2E2E2E2E2E2E2E2E2E2E2E2E2E2E2E2E2E2F5E2E2E2E2E2E2F5F5F5E2E2F5E2E2E2E2E2F5E2E2E2E2E2E2E2E2E2E2E2E2E2E2E2E2E2E2E2E2E2
310
E2E2E2E2E2E2E2E2E2E2E2E2E2E2E2E2E2E2E2E2E2E2E2E2E2E2E2E2E2E2E2F5E2F5E2E2E2F5F5F5F5F5F5F5E2E2E2F5E2E2E2E2F5E2E2E2E2E2E2E2E2E2E2E2F5F5F5E2E2E2E2E2E2E2E2E2E2E2E2F5E2E2E2F5F5E2F5E2E2E2E2E2E2F0E2E2E2F0E2E2E2E2E2E2E2E2E2E2E2E2E2E2E2E2E2E2E2E2E2E2E2E2E2E2E2E2E2
310
E2E2E2E2E2E2E2E2E2E2E2E2E2F5E2E2E2F5E2E2F5F5F5E2E2F5E2E2E2E2E2F5E2E2E2E2E2E2E2E2E2E2E2E2E2E2E2E2E2E2E2E2E2E2E2E2E2E2E2E2E2E2E2E2E2E2E2E2E2E2E2E2E2E2E2E2E2E2E2E2E2E2E2E2F5E2F5E2E2E2F5F5E2E2E2E2F5E2E2E2F5E2E2E2F5E2E2E2E2E2E2E2E2E2E2E2F5E2E2E2F5F5E2E2E2E2E2
310
E2E2E2E2E2F5E2E2E2F5F5E2F5E2E2E2E2DCE2F0E2DCE2F0E2E2E2E2E2E2E2E2E2E2E2E2E2E2E2E2E2E2E2E2E2E2E2E2E2E2E2E2E2E2E2E2E2E2E2E2E2E2E2E2E2E2F5E2E2E2F5E2E2F5F5F5E2E2F5E2E2E2E2E2F5E2E2E2E2E2E2E2E2E2E2E2E2E2E2E2E2E2E2E2E2E2E2E2E2E2E2E2E2E2E2E2E2E2E2E2E2E2E2E2E2E2E2
310
E2E2E2E2E2E2E2E2E2E2F5E2F5E2E2E2F5F5E2E2E2E2F5E2E2F5F5E2E2E2F5E2E2E2E2E2E2E2E2E2E2F5E2E2E2E2E2F5E2E2E2E2E2E2E2E2E2E2F5E2E2E2F5F5E2F5E2E2E2E2DCDCDCE2DCDCDCE2E2E2E2E2E2E2E2E2E2E2E2E2E2E2E2E2E2E2E2E2E2E2E2E2E2E2E2E2E2E2E2E2E2E2E2E2E2E2E2E2E2F5E2E2E2F5E2E2F5
310
F5F5E2E2F5E2E2E2E2E2F5E2E2E2E2E2E2E2E2E2E2E2E2E2E2E2E2E2E2E2E2E2E2E2E2E2E2E2E2E2E2E2E2E2E2E2E2E2E2E2E2E2E2E2E2E2E2E2E2E2E2E2E2F5E2F5E2E2E2F5F5E2E2E2E2F5E2E2F5F0E2E2E2F5E2E2E2E2E2E2E2E2E2E2F5E2E2E2E2E2E2F5E2E2E2E2E2E2E2E2E2F5E2E2E2F0F5F5F5E2E2E2E2DCDCDCE2
310
DCDCDCE2E2E2E2E2E2E2E2E2E2E2E2E2E2E2E2E2E2E2E2E2E2E2E2E2E2E2E2E2E2E2E2E2E2E2E2E2E2E2E2E2E2F5E2E2E2F5E2E2F5F5F5E2E2F5E2E2E2E2E2F5E2E2E2E2E2E2E2E2E2E2E2E2E2E2E2E2E2E2E2E2E2E2E2E2E2E2E2E2E2E2E2E2E2E2E2E2E2E2E2E2E2E2E2E2E2E2E2E2E2E2E2E2F5E2F5E2E2E2F5F5E2E2E2
310
E2F5E2E2F5F0E2E2E2F5E2E2E2E2E2E2E2E2E2E2F5E2E2E2E2E2E2F5E2E2E2E2E2E2E2E2E2F5E2E2E2F0F5E2F5E2E2E2E2DCDCDCE2DCDCDCE2E2E2E2E2E2E2E2E2E2E2E2E2E2E2E2E2E2E2E2E2E2E2E2E2E2E2E2E2E2E2E2E2E2E2E2E2E2E2E2E2E2F5E2E2E2F5E2E2F5F5F5E2E2F5E2E2E2E2E2F5E2E2E2E2E2E2E2E2E2E2
310
E2E2E2E2E2E2E2E2E2E2E2E2E2E2E2E2E2E2E2E2E2E2E2E2E2E2E2E2E2E2E2E2E2E2E2E2E2E2E2E2E2E2F5E2F5E2E2E2F5F5E2E2E2E2F5E2E2E2F0E2E2E2F5E2E2E2E2E2E2E2E2E2E2F5E2E2E2E2E2F5E2E2E2E2E2E2E2E2E2E2F5E2E2E2F0F5E2F5E2E2E2E2DCDCDCE2DCDCDCE2E2E2E2E2E2E2E2E2E2E2E2E2E2E2E2E2E2
310
E2E2E2E2E2E2E2E2E2E2E2E2E2E2E2E2E2E2E2E2E2E2E2E2F5E2E2E2F5E2E2F5F5F5E2E2F5E2E2E2E2E2F5E2E2E2E2E2E2E2E2E2E2E2E2E2E2E2E2E2E2E2E2E2E2E2E2E2E2E2E2E2E2E2E2E2E2E2E2E2E2E2E2E2E2E2E2E2E2E2E2E2E2E2E2F5E2F5E2E2E2F5F5E2E2E2E2F5E2E2E2F0E2E2E2E2F5E2E2E2E2E2E2E2E2E2E2
310
F5F5E2F5F5F5E2E2E2E2E2E2E2E2E2E2F5E2E2E2F0F5E2F5E2E2E2E2E2E2F0E2E2E2F0E2E2E2E2E2E2E2E2E2E2E2E2E2E2E2E2E2E2E2E2E2E2E2E2E2E2E2E2E2E2E2E2E2E2E2E2E2E2E2E2E2E2F5E2E2E2F5E2E2F5F5F5E2E2F5E2E2E2E2E2F5E2E2E2E2E2E2E2E2E2E2E2E2E2E2E2E2E2E2E2E2E2E2E2E2E2E2E2E2E2E2E2
310
E2E2E2E2E2E2E2E2E2E2E2E2E2E2E2E2E2E2E2E2E2F5E2F5E2E2E2F5F5E2E2E2E2F5E2E2E2F0E2E2E2E2F5E2E2E2E2E2E2E2E2E2E2E2E2F5E2E2E2E2E2E2E2E2E2E2E2E2E2F5E2E2E2F0E2E2F5E2E2E2E2E2E2F0E2E2E2F0E2E2E2E2E2E2E2E2E2E2E2E2E2E2E2E2E2E2E2E2E2E2E2E2E2E2E2E2E2E2E2E2E2E2E2E2E2E2E2
310
E2E2E2F5E2E2E2F5E2E2F5F5F5E2E2F5E2E2E2E2E2F5E2E2E2E2E2E2E2E2E2E2E2E2E2E2E2E2E2E2E2E2E2E2E2E2E2E2E2E2E2E2E2E2E2E2E2E2E2E2E2E2E2E2E2E2E2E2E2E2E2E2E2E2F5E2F5E2E2E2F5F5E2E2E2E2F5E2E2E2F0E2E2E2E2F5E2E2E2E2E2E2E2E2E2E2E2E2E2E2E2E2E2E2E2E2E2E2E2E2E2E2F5E2E2E2F0
310
E2E2F5E2E2E2E2E2E2F0E2E2E2F0E2E2E2E2E2E2E2E2E2E2E2E2E2E2E2E2E2E2E2E2E2E2E2E2E2E2E2E2E2E2E2E2E2E2E2E2E2E2E2E2E2E2F5E2E2E2F5E2E2F5F5F5E2E2F5E2E2E2E2E2F5E2E2E2E2E2E2E2E2E2E2E2E2E2E2E2E2E2E2E2E2E2E2E2E2E2E2E2E2E2E2E2E2E2E2E2E2E2E2E2E2E2E2E2E2E2E2E2E2E2E2E2E2
310
F5E2F5E2E2E2F5F5E2E2E2E2F5E2E2E2F0F5E2E2E2E2F5E2E2E2E2E2E2E2E2E2E2E2E2E2E2E2E2E2E2E2E2E2E2E2E2F5E2E2E2E2F0E2E2F5E2E2E2E2E2E2F0E2E2E2F0E2E2E2E2E2E2E2E2E2E2E2E2E2E2E2E2E2E2E2E2E2E2E2E2E2E2E2E2E2E2E2E2E2E2E2E2E2E2E2E2E2E2F5E2E2E2F5E2E2F5F5F5E2E2F5E2E2E2E2E2
310
F5E2E2E2E2E2E2E2E2E2E2E2E2E2E2E2E2E2E2E2E2E2E2E2E2E2E2E2E2E2E2E2E2E2E2E2E2E2E2E2E2E2E2E2E2E2E2E2E2E2E2E2E2F5E2F5E2E2E2F5F5E2E2E2E2F5E2E2F5F5F5E2E2E2E2F5E2E2E2E2E2E2E2E2E2E2E2E2E2E2E2E2E2E2E2E2E2E2E2E2F5E2E2E2F5F0E2E2F5E2E2E2E2E2E2F0E2E2E2F0E2E2E2E2E2E2E2
310
E2E2E2E2E2E2E2E2E2E2E2E2E2E2E2E2E2E2E2E2E2E2E2E2E2E2E2E2E2E2E2E2E2E2E2F5E2E2E2F5E2E2F5F5F5E2E2F5E2E2E2E2E2F5E2E2E2E2E2E2E2E2E2E2E2E2E2E2E2E2E2E2E2E2E2E2E2E2E2E2E2E2E2E2E2E2E2E2E2E2E2E2E2E2E2E2E2E2E2E2E2E2E2E2E2E2F5E2F5E2E2E2F5F5E2E2E2E2F5E2E2F5F5F5F5E2E2
310
E2E2F5E2E2E2E2E2E2E2E2E2E2E2E2E2E2E2E2E2E2E2E2E2E2F5E2E2E2E2F5F0E2E2F5E2E2E2E2E2E2F0E2E2E2F0E2E2E2E2E2E2E2E2E2E2E2E2E2E2E2E2E2E2E2E2E2E2E2E2E2E2E2E2E2E2E2E2E2E2E2E2E2E2E2E2E2E2F5E2E2E2F5E2E2F5F5F5E2E2F5E2E2E2E2E2F5E2E2E2E2E2E2E2E2E2E2E2E2E2E2E2E2E2E2E2E2
310
E2E2E2E2E2E2E2E2E2E2E2E2E2E2E2E2E2E2E2E2E2E2E2E2E2E2E2E2E2E2E2E2F5E2F5E2E2E2F5F5E2E2E2E2F5E2E2F5F5E2F5E2E2E2E2F5E2E2E2E2E2E2E2E2E2E2E2E2E2E2E2E2E2E2E2E2E2F5E2E2E2E2F5E2F0E2E2F5E2E2E2E2E2E2F0E2E2E2F0E2E2E2E2E2E2E2E2E2E2E2E2E2E2E2E2E2E2E2E2E2E2E2E2E2E2E2E2
310
E2E2E2E2E2E2E2E2E2E2E2E2E2E2F5E2E2E2F5E2E2F5F5F5E2E2F5E2E2E2E2E2F5E2E2E2E2E2E2E2E2E2E2E2E2E2E2E2E2E2E2E2E2E2E2E2E2E2E2E2E2E2E2E2E2E2E2E2E2E2E2E2E2E2E2E2E2E2E2E2E2E2E2E2E2F5E2F5E2E2E2F5F5E2E2E2E2F5E2E2F5F0F5F5F5E2E2E2E2F5E2E2E2E2E2E2E2E2E2E2E2E2E2E2E2E2E2
310
E2E2F5E2E2E2E2E2F5E2F0E2E2F5E2E2E2E2E2E2F0E2E2E2F0E2E2E2E2E2E2E2E2E2E2E2E2E2E2E2E2E2E2E2E2E2E2E2E2E2E2E2E2E2E2E2E2E2E2E2E2E2E2E2E2E2E2F5E2E2E2F5E2E2F5F5F5E2E2F5E2E2E2E2E2F5E2E2E2E2E2E2E2E2E2E2E2E2E2E2E2E2E2E2E2E2E2E2E2E2E2E2E2E2E2E2E2E2E2E2E2E2E2E2E2E2E2
310
E2E2E2E2E2E2E2E2E2E2E2F5E2F5E2E2E2F5F5E2E2E2E2F5E2E2F5F0F5F5F5E2E2E2E2E2F5E2E2E2E2E2E2E2E2E2E2E2E2E2E2E2E2E2F5E2E2E2E2E2F5E2E2F0E2E2F5E2E2E2E2E2E2F0E2E2E2F0E2E2E2E2E2E2E2E2E2E2E2E2E2E2E2E2E2E2E2E2E2E2E2E2E2E2E2E2E2E2E2E2E2E2E2E2E2E2E2E2E2E2F5E2E2E2F5E2E2
310
F5F5F5E2E2E2E2E2E2E2E2F5E2E2E2E2E2E2E2E2E2E2E2E2E2E2E2E2E2E2E2E2E2E2E2E2E2E2E2E2E2E2E2E2E2E2E2E2E2E2E2E2E2E2E2E2E2E2E2E2E2E2E2E2F5E2F5E2E2E2F5F5F5F5F5F5F5E2E2F5F0F5F5F5F5E2E2E2E2E2F5E2E2E2E2E2E2F5F5F5E2E2E2E2E2E2F5E2E2E2E2E2F5E2E2E2F0E2E2F5E2E2E2E2E2E2F0
310
E2E2E2F0E2E2E2E2E2E2E2E2E2E2E2E2E2E2E2E2E2E2E2E2E2E2E2E2E2E2E2E2E2E2E2E2E2E2E2E2E2E2E2E2E2E2F5E2E2E2E2E2E2F5F5F5E2E2E2E2E2E2E2E2F5E2E2E2E2E2E2E2E2E2E2E2E2E2E2E2E2E2E2E2E2E2E2E2E2E2E2E2E2E2E2E2E2E2E2E2E2E2E2E2E2E2E2E2E2E2E2E2E2E2E2E2E2F5E2F5E2E2E2F5F5F5F5
310
F5F5F5E2E2F5F0F5F5E2F5F5E2E2E2E2E2F5F5E2E2F5F5F5E2F5F5F5E2E2E2F5E2E2E2E2E2F5E2E2E2E2F0E2E2F5E2E2E2E2E2E2F0E2E2E2F0E2E2E2E2E2E2E2E2E2E2E2E2E2E2E2E2E2E2E2E2E2E2E2E2E2E2E2E2E2E2E2E2E2E2E2E2E2E2E2E2E2E2F5E2E2E2E2E2E2F5F5F5E2E2E2E2E2E2E2E2F5E2E2E2E2E2E2E2E2E2
310
E2E2E2E2E2E2E2E2E2E2E2E2E2E2E2E2E2E2E2E2E2E2E2E2E2E2E2E2E2E2E2E2E2E2E2E2E2E2E2E2E2E2E2F0E2F5E2E2E2E2E2E2E2E2E2E2E2E2F5F0F5F5F5F5E2F5F5E2E2E2E2E2F5F5E2E2F5E2F5E2E2F5F5F5E2E2E2E2E2F5E2E2E2E2E2F0E2E2F5E2E2E2E2E2E2F0E2E2E2F0E2E2E2E2E2E2E2E2E2E2E2E2E2E2E2E2E2
310
E2E2E2E2E2E2E2E2E2E2E2E2E2E2E2E2E2E2E2E2E2E2E2E2E2F5E2E2E2E2E2E2F5F5F5E2E2E2E2E2E2E2E2F5E2E2E2E2E2E2E2E2E2E2E2E2E2E2E2E2E2E2E2E2E2E2E2E2E2E2E2E2E2E2E2E2E2E2E2E2E2E2E2E2E2E2E2E2E2E2E2E2E2E2E2E2F0F5F5F5E2E2E2E2E2E2E2E2E2E2E2F5F0F5F5F5F5E2E2E2F5E2E2E2E2E2F5
310
E2E2F5E2F5E2E2E2F5E2E2E2E2E2F5E2E2E2E2E2E2F0E2E2F5E2E2E2E2E2E2F0E2E2E2F0E2E2E2E2E2E2E2E2E2E2E2E2E2E2E2E2E2E2E2E2E2E2E2E2E2E2E2E2E2E2E2E2E2E2E2E2E2E2E2E2E2E2F5E2E2E2E2E2E2F5F5F5E2E2E2E2E2E2E2E2F5E2E2E2E2E2E2E2E2E2E2E2E2E2E2E2E2E2E2E2E2E2E2E2E2E2E2E2E2E2E2
310
E2E2E2E2E2E2E2E2E2E2E2E2E2E2E2E2E2E2E2E2E2E2F0F5E2E2F5E2E2E2E2E2E2E2E2E2E2F5F0F5F5F5F5E2E2E2E2F5F5E2E2E2F5E2E2F5E2F5E2E2E2F5E2E2E2F5F5E2E2E2E2E2E2E2F0E2E2F5E2E2E2E2E2E2F0E2E2E2F0E2E2E2E2E2E2E2E2E2E2E2E2E2E2E2E2E2E2E2E2E2E2E2E2E2E2E2E2E2E2E2E2E2E2E2E2E2E2
310
E2E2E2E2F5E2E2E2E2E2E2F5F5F5E2E2E2E2E2E2E2E2F5E2E2E2E2E2E2E2E2E2E2E2E2E2E2E2E2E2E2E2E2E2E2E2E2E2E2E2E2E2E2E2E2E2E2E2E2E2E2E2E2E2E2E2E2E2E2E2E2E2E2E2E2F0F5F5E2E2F5F5F5F5F5F5F5F5F5F5F5F5F5F5F5F5E2E2E2E2E2E2F5F5E2F5E2E2F5E2F5E2E2E2F5E2F5F5E2E2E2E2E2E2E2E2E2
310
F0E2E2F5E2E2E2E2E2E2F0E2E2E2F0E2E2E2E2E2E2E2E2E2E2E2E2E2E2E2E2E2E2E2E2E2E2E2E2E2E2E2E2E2E2E2E2E2E2E2E2E2E2E2E2E2E2F5E2E2E2E2E2E2F5F5F5E2E2E2E2E2E2E2E2F5E2E2E2E2E2E2E2E2E2E2E2E2E2E2E2E2E2E2E2E2E2E2E2E2E2E2E2E2E2E2E2E2E2E2E2E2E2E2E2E2E2E2E2E2E2E2E2E2E2E2E2
310
E2F0E2E2F5F5F5F5F5F5F5F5F5E2E2E2E2F0E2E2E2E2E2E2E2E2E2E2E2E2F5F5F5F5F5F5F5F5F5F5F5F5F0F0F0F0F0F0F0F0F0F0F0F0F0F0F5F0F0F0F0F0F0F0F0E2E2F0E2E2E2E2E2E2E2E2E2E2E2E2E2E2E2E2E2E2E2E2E2E2E2E2E2E2E2E2E2E2E2E2E2E2E2E2E2E2E2E2E2E2F5E2E2E2E2E2E2F5F5F5E2E2E2E2E2E2E2
310
E2F5E2E2E2E2E2E2E2E2E2E2E2E2E2E2E2E2E2E2E2E2E2E2E2E2E2E2E2E2E2E2E2E2E2E2E2E2E2E2E2E2E2E2E2E2E2E2E2E2E2E2E2E2F0E2E2E2E2E2E2E2E2E2E2E2F5F5F5F5F5F5F5F5F5F5F5F5F5F5F5F5F5F5F5F5F5F5F5F5F5F5F5F5F5F5F5F5F5F5F5F5F5F5F5F5F5F5F5F0F0F0F0F0F0F0F0F0F0F0F0F0E2E2E2E2E2
310
E2E2E2E2E2E2E2E2E2E2E2E2E2E2E2E2E2E2E2E2E2E2E2E2E2E2E2E2E2E2E2E2E2E2E2E2F5E2E2E2E2E2E2F5F5F5E2E2E2E2E2E2E2E2F5E2E2E2E2E2E2E2E2E2E2E2E2E2E2E2E2E2E2E2E2E2E2E2E2E2E2E2E2E2E2E2E2E2E2E2E2E2E2E2E2E2E2E2E2E2E2E2E2E2E2E2E2F0E2E2E2E2E2E2E2E2E2E2E2E2E2E2E2F0E2E2E2
310
E2E2E2E2E2E2E2E2E2E2E2E2E2E2E2E2E2E2E2E2E2E2E2E2E2E2E2E2E2E2E2E2F0E2E2F0E2E2E2E2E2E2E2E2E2E2E2E2E2E2E2E2E2E2E2E2E2E2E2E2E2E2E2E2E2E2E2E2E2E2E2E2E2E2E2E2E2E2E2E2E2E2E2E2E2E2E2E2E2F5E2E2E2E2E2E2F5F5F5E2E2F5E2E2E2E2E2F5E2E2E2E2E2E2E2E2E2E2E2E2E2E2E2E2E2E2E2
310
E2E2E2E2E2E2E2E2E2E2E2E2E2E2E2E2E2E2E2E2E2E2E2E2E2E2E2E2E2E2E2E2E2F0E2E2E2E2E2E2E2E2E2E2E2E2E2E2E2F0E2E2E2E2E2E2E2E2E2E2E2E2E2E2E2E2E2E2E2E2E2E2E2E2E2E2E2E2E2E2E2E2E2E2E2F0E2E2F0E2E2E2E2E2E2E2E2E2E2E2E2E2E2E2E2E2E2E2E2E2E2E2E2E2E2E2E2E2E2E2E2E2E2E2E2E2E2
310
E2E2E2E2E2E2E2E2E2E2E2E2E2E2E2F5E2E2E2F5E2E2F5F5F5E2E2F5E2E2E2E2E2F5E2E2E2E2E2E2E2E2E2E2E2E2E2E2E2E2E2E2E2E2E2E2E2E2E2E2E2E2E2E2E2E2E2E2E2E2E2E2E2E2E2E2E2E2E2E2E2E2E2E2E2E2F0E2E2E2E2E2E2E2E2E2E2E2E2E2E2E2F0E2E2E2E2E2E2E2E2E2E2E2E2E2E2E2E2E2E2E2E2E2E2E2E2
310
E2E2E2E2E2E2E2E2E2E2E2F0E2E2F0E2E2E2E2E2E2E2E2E2E2E2E2E2E2E2E2E2E2E2E2E2E2E2E2E2E2E2E2E2E2E2E2E2E2E2E2E2E2E2E2E2E2E2E2E2E2E2E2E2E2E2E2E2F5E2E2E2F5E2E2F5F5F5E2E2F5E2E2E2E2E2F5E2E2E2E2E2E2E2E2E2E2E2E2E2E2E2E2E2E2E2E2E2E2E2E2E2E2E2E2E2E2E2E2E2E2E2E2E2E2E2E2
310
E2E2E2E2E2E2E2E2E2E2E2E2F0E2E2E2E2E2E2E2E2E2E2E2E2E2E2E2F0E2E2E2E2E2E2E2E2E2E2E2E2E2E2E2E2E2E2E2E2E2E2E2E2E2E2E2E2E2E2E2E2E2E2E2F0E2E2F0E2E2E2E2E2E2E2E2E2E2E2E2E2E2E2E2E2E2E2E2E2E2E2E2E2E2E2E2E2E2E2E2E2E2E2E2E2E2E2E2E2E2E2E2E2E2E2E2E2E2E2E2E2F5E2E2E2F5E2
310
E2F5F5F5E2E2F5E2E2E2E2E2F5E2E2E2E2E2E2E2E2E2E2E2E2E2E2E2E2E2E2E2E2E2E2E2E2E2E2E2E2E2E2E2E2E2E2E2E2E2E2E2E2E2E2E2E2E2E2E2E2E2E2E2E2F0E2E2E2E2E2E2E2E2E2E2E2E2E2E2E2F0E2E2E2E2E2E2E2E2E2E2E2E2E2E2E2E2E2E2E2E2E2E2E2E2E2E2E2E2E2E2E2E2E2E2E2F0E2E2F0E2E2E2E2E2E2
310
E2E2E2E2E2E2E2E2E2E2E2E2E2E2E2E2E2E2E2E2E2E2E2E2E2E2E2E2E2E2E2E2E2E2E2E2E2E2E2E2E2E2E2E2E2E2E2F5E2E2E2F5E2E2F5F5F5E2E2F5E2E2E2E2E2F5E2E2E2E2E2E2E2E2E2E2E2E2E2E2E2E2E2E2E2E2E2E2E2E2E2E2E2E2E2E2E2E2E2E2E2E2E2E2E2E2E2E2E2E2E2E2E2E2E2E2E2E2F0E2E2E2E2E2E2E2E2
310
E2E2E2E2E2E2E2F0E2E2E2E2E2E2E2E2E2E2E2E2E2E2E2E2E2E2E2E2E2E2E2E2E2E2E2E2E2E2E2E2E2E2E2F0E2E2F0E2E2E2E2E2E2E2E2E2E2E2E2E2E2E2E2E2E2E2E2E2E2E2E2E2E2E2E2E2E2E2E2E2E2E2E2E2E2E2E2E2E2E2E2E2E2E2E2E2E2E2E2E2F5E2E2E2F5E2E2F5F5F5E2E2F5E2E2E2E2E2F5E2E2E2E2E2E2E2E2
310
E2E2E2E2E2E2E2E2E2E2E2E2E2E2E2E2E2E2E2E2E2E2E2E2E2E2E2E2E2E2E2E2E2E2E2E2E2E2E2E2E2E2E2E2F0E2E2E2E2E2E2E2E2E2E2E2E2E2E2E2F0F0E2E2E2E2E2E2E2E2E2E2E2E2E2E2E2E2E2E2E2E2E2E2E2E2E2E2E2E2E2E2E2E2E2F0F0E2E2F0E2E2E2E2E2E2E2E2E2E2E2E2E2E2E2E2E2E2E2E2E2E2E2E2E2E2E2
310
E2E2E2E2E2E2E2E2E2E2E2E2E2E2E2E2E2E2E2E2E2E2E2E2E2E2F5E2E2E2F5E2E2F5F5F5E2E2F5E2E2E2E2E2F5E2E2E2E2E2E2E2E2E2E2E2E2E2E2E2E2E2E2E2E2E2E2E2E2E2E2E2E2E2E2E2E2E2E2E2E2E2E2E2E2E2E2E2E2E2E2E2E2E2E2E2E2F0E2E2E2E2E2E2E2E2E2E2E2E2E2E2E2F0F0F0F0F0F0F0F0F0F0F0F0F0F0
310
F0DCDCF0DCDCDCDCF0F0F0F0F0F0F0F0F0F0F0F0F0F0F0E2E2F0E2E2E2E2E2E2E2E2E2E2E2E2E2E2E2E2E2E2E2E2E2E2E2E2E2E2E2E2E2E2E2E2E2E2E2E2E2E2E2E2E2E2E2E2E2E2E2E2E2E2E2E2E2F5E2E2E2F5E2E2F5F5F5E2E2F5E2E2E2E2E2F5E2E2E2E2E2E2E2E2E2E2E2E2E2E2E2E2E2E2E2E2E2E2E2E2E2E2E2E2E2
310
E2E2E2E2E2E2E2E2E2E2E2E2E2E2E2E2E2E2E2E2E2E2E2F0E2E2E2E2E2E2E2E2E2E2E2E2E2E2E2F0E2E2E2E2E2E2E2E2E2E2E2E2E2E2DCDCDCDCDCDCDCE2E2E2E2E2E2E2E2E2E2E2E2E2E2F0E2E2F0E2E2E2E2E2E2E2E2E2E2E2E2E2E2E2E2E2E2E2E2E2E2E2E2E2E2E2E2E2E2E2E2E2E2E2E2E2E2E2E2E2E2E2E2E2E2E2E2
310
E2E2E2E2E2F5E2E2E2F5E2E2F5F5F5E2E2F5E2E2E2E2E2F5E2E2E2E2E2E2E2E2E2E2E2E2E2E2E2E2E2E2E2E2E2E2E2E2E2E2E2E2E2E2E2E2E2E2E2E2E2E2E2E2E2E2E2E2E2E2E2E2E2E2E2E2F0E2E2E2E2E2E2E2E2E2E2E2E2E2E2E2E2E2E2E2E2E2E2E2E2E2E2E2E2E2E2E2DCDCDCDCDCDCE2E2E2E2E2E2E2E2E2E2E2E2E2
310
E2E2E2E2F0E2E2E2E2E2E2E2E2E2E2E2E2E2E2E2E2E2E2E2E2E2E2E2E2E2E2E2E2E2E2E2E2E2E2E2E2E2E2E2E2E2E2E2E2E2E2E2E2E2E2E2E2E2F5E2E2E2F5E2E2F5F5F5E2E2F5E2E2E2E2E2F5E2E2E2E2E2E2E2E2E2E2E2E2E2E2E2E2E2E2E2E2E2E2E2E2E2E2E2E2E2E2E2E2E2E2E2E2E2E2E2E2E2E2E2E2E2E2E2E2E2E2
310
E2E2F0E2F0E2E2E2E2E2E2E2E2E2E2E2E2E2E2E2E2E2E2E2E2E2E2E2E2E2E2E2E2E2E2E2E2E2E2E2E2E2E2E2E2E2E2E2E2E2E2E2E2E2E2F0E2F0E2E2E2E2E2E2E2E2E2E2E2E2E2E2E2E2E2E2E2E2E2E2E2E2E2E2E2E2E2E2E2E2E2E2E2E2E2E2E2E2E2E2E2E2E2E2E2E2E2E2E2E2E2F5E2E2E2F5E2E2F5F5F5E2E2F5E2E2E2
310
E2E2F5E2E2E2E2E2E2E2E2E2E2E2E2E2E2E2E2E2E2E2E2E2E2E2E2E2E2E2E2E2E2E2E2E2E2E2E2E2E2E2E2E2E2E2E2E2E2E2E2E2E2E2E2F0F0F0F0F0F0F0F0F0F0F0F0F0F0F0F0F0F0F0F0F0F0F0F0F0F0DCDCDCDCF0F0F0F0F0F0F0F0F0F0F0F0F0F0F0F0F0F0F0F0F0F0F0F0F0F0E2E2E2E2E2E2E2E2E2E2E2E2E2E2E2E2
310
E2E2E2E2E2E2E2E2E2E2E2E2E2E2E2E2E2E2E2E2E2E2E2E2E2E2E2E2E2E2E2E2E2E2E2E2E2F5E2E2E2F5E2E2F5F5F5E2E2F5E2E2E2E2E2F5E2E2E2E2E2E2E2E2E2E2E2E2E2E2E2E2E2E2E2E2E2E2E2E2E2E2E2E2E2E2E2E2E2E2E2E2E2E2E2E2E2E2E2E2E2E2E2E2E2E2E2E2F0E2E2E2E2E2E2E2E2E2E2E2E2E2E2E2E2E2E2
310
E2E2E2E2E2E2E2DCDCDCDCE2E2E2E2E2E2E2E2E2E2E2E2E2E2E2E2E2E2E2E2E2E2E2E2E2F0E2E2E2E2E2E2E2E2E2E2E2E2E2E2E2E2E2E2E2E2E2E2E2E2E2E2E2E2E2E2E2E2E2E2E2E2E2E2E2E2E2E2E2E2E2E2E2E2E2E2E2E2E2F5E2E2E2F5E2E2F5F5F5E2E2F5E2E2E2E2E2F5E2E2E2E2E2E2E2E2E2E2E2E2E2E2E2E2E2E2
310
E2E2E2E2E2E2E2E2E2E2E2E2E2E2E2E2E2E2E2E2E2E2E2E2E2E2E2E2E2E2E2E2E2E2E2E2E2E2E2E2E2E2E2E2E2E2E2E2E2E2E2E2E2E2E2E2E2E2E2E2DCDCDCDCE2E2E2E2E2E2E2E2E2E2E2E2E2E2E2E2E2E2E2E2E2E2E2E2E2E2E2E2E2E2E2E2E2E2E2E2E2E2E2E2E2E2E2E2E2E2E2E2E2E2E2E2E2E2E2E2E2E2E2E2E2E2E2
310
E2E2E2E2E2E2E2E2E2E2E2E2E2E2E2E2F5E2E2E2F5E2E2F5F5F5E2E2F5E2E2E2E2E2F5E2E2E2E2E2E2E2E2E2E2E2E2E2E2E2E2E2E2E2E2E2E2E2E2E2E2E2E2E2E2E2E2E2E2E2E2E2E2E2E2E2E2E2E2E2E2E2E2E2E2E2E2E2E2E2E2E2E2E2E2E2E2E2E2E2E2E2E2E2E2E2E2E2E2E2E2E2E2E2E2E2E2E2E2E2E2E2E2E2E2E2E2
310
E2E2E2E2E2E2E2E2E2E2E2E2E2E2E2E2E2E2E2E2E2E2E2E2E2E2E2E2E2E2E2E2E2E2E2E2E2E2E2E2E2E2E2E2E2E2E2E2E2E2E2E2E2E2E2E2E2E2E2E2E2E2E2E2E2E2E2E2E2F5E2E2E2F5E2E2F5F5F5E2E2F5E2E2E2E2E2F5E2E2E2E2E2E2E2E2E2E2E2E2E2E2E2E2E2E2E2E2E2E2E2E2E2E2E2E2E2E2E2E2E2E2E2E2E2E2E2
310
E2E2E2E2E2E2E2E2E2E2E2E2E2E2E2E2E2E2E2E2E2E2E2E2E2E2E2E2E2E2E2E2E2E2E2E2E2E2E2E2E2E2E2E2E2E2E2E2E2E2E2E2E2E2E2E2E2E2E2E2E2E2E2E2E2E2E2E2E2E2E2E2E2E2E2E2E2E2E2E2E2E2E2E2E2E2E2E2E2E2E2E2E2E2E2E2E2E2E2E2E2E2E2E2E2E2E2E2E2E2E2E2E2E2E2E2E2E2E2E2E2E2F5E2E2E2F5
310
E2E2F5F5F5E2E2E2E2E2E2E2E2F5E2E2E2E2E2E2E2E2E2E2E2E2E2E2E2E2E2E2E2E2E2E2E2E2E2E2E2E2E2E2E2E2E2E2E2E2E2E2E2E2E2E2E2E2E2E2E2E2E2E2E2E2E2E2E2E2E2E2E2E2E2E2E2E2E2E2E2E2E2E2E2E2E2E2E2E2E2E2E2E2E2E2E2E2E2E2E2E2E2E2E2E2E2E2E2E2E2E2E2E2E2E2E2E2E2E2E2E2E2E2E2E2E2
310
E2E2E2E2E2E2E2E2E2E2E2E2E2E2E2E2E2E2E2E2E2E2E2E2E2E2E2E2E2E2E2E2E2E2E2E2E2E2E2E2E2E2E2E2E2E2E2E2F5E2E2E2E2E2E2F5F5F5E2E2E2E2E2E2E2E2F5E2E2E2E2E2E2E2E2E2E2E2E2E2E2E2E2E2E2E2E2E2E2E2E2E2E2E2E2E2E2E2E2E2E2E2E2E2E2E2E2E2E2E2E2E2E2E2E2E2E2E2E2E2E2E2E2E2E2E2E2
310
E2E2E2E2E2E2E2E2E2E2E2E2E2E2E2E2E2E2E2E2E2E2E2E2E2E2E2E2E2E2E2E2E2E2E2E2E2E2E2E2E2E2E2E2E2E2E2E2E2E2E2E2E2E2E2E2E2E2E2E2E2E2E2E2E2E2E2E2E2E2E2E2E2E2E2E2E2E2E2E2E2E2E2E2E2E2E2E2E2E2E2E2E2E2E2E2E2E2E2E2E2F5E2E2E2E2E2E2F5F5F5E2E2E2E2E2E2E2E2F5E2E2E2E2E2E2E2
310
E2E2E2E2E2E2E2E2E2E2E2E2E2E2E2E2E2E2E2E2E2E2E2E2E2E2E2E2E2E2E2E2E2E2E2E2E2E2E2E2E2E2E2E2E2E2E2E2E2E2E2E2E2E2E2E2E2E2E2E2E2E2E2E2E2E2E2E2E2E2E2E2E2E2E2E2E2E2E2E2E2E2E2E2E2E2E2E2E2E2E2E2E2E2E2E2E2E2E2E2E2E2E2E2E2E2E2E2E2E2E2E2E2E2E2E2E2E2E2E2E2E2E2E2E2E2E2
310
E2E2E2E2E2E2E2E2E2E2E2E2E2E2E2E2E2E2E2E2E2E2E2E2E2E2E2F5E2E2E2E2E2E2F5F5F5E2E2E2E2E2E2E2E2F5E2E2E2E2E2E2E2E2E2E2E2E2E2E2E2E2E2E2E2E2E2E2E2E2E2E2E2E2E2E2E2E2E2E2E2E2E2E2E2E2E2E2E2E2E2E2E2E2E2E2E2E2E2E2E2E2E2E2E2E2E2E2E2E2E2E2E2E2E2E2E2E2E2E2E2E2E2E2E2E2E2
310
E2E2E2E2E2E2E2E2E2E2E2E2E2E2E2E2E2E2E2E2E2E2E2E2E2E2E2E2E2E2E2E2E2E2E2E2E2E2E2E2E2E2E2E2E2E2E2E2E2E2E2E2E2E2E2E2E2E2E2E2E2E2E2E2E2E2E2E2E2E2E2E2E2E2E2E2E2E2E2E2F5E2E2E2E2E2E2F5F5F5E2E2E2E2E2E2E2E2F5E2E2E2E2E2E2E2E2E2E2E2E2E2E2E2E2E2E2E2E2E2E2E2E2E2E2E2E2
310
E2E2E2E2E2E2E2E2E2E2E2E2E2E2E2E2E2E2E2E2E2E2E2E2E2E2E2E2E2E2E2E2E2E2E2E2E2E2E2E2E2E2E2E2E2E2E2E2E2E2E2E2E2E2E2E2E2E2E2E2E2E2E2E2E2E2E2E2E2E2E2E2E2E2E2E2E2E2E2E2E2E2E2E2E2E2E2E2E2E2E2E2E2E2E2E2E2E2E2E2E2E2E2E2E2E2E2E2E2E2E2E2E2E2E2E2E2E2E2E2E2E2E2E2E2E2E2
310
E2E2E2E2E2E2F5E2E2E2E2E2E2F5F5F5E2E2E2E2E2E2E2E2F5E2E2E2E2E2E2E2E2E2E2E2E2E2E2E2E2E2E2E2E2E2E2E2E2E2E2E2E2E2E2E2E2E2E2E2E2E2E2E2E2E2E2E2E2E2E2E2E2E2E2E2E2E2E2E2E2E2E2E2E2E2E2E2E2E2E2E2E2E2E2E2E2E2E2E2E2E2E2E2E2E2E2E2E2E2E2E2E2E2E2E2E2E2E2E2E2E2E2E2E2E2E2
310
E2E2E2E2E2E2E2E2E2E2E2E2E2E2E2E2E2E2E2E2E2E2E2E2E2E2E2E2E2E2E2E2E2E2E2E2E2E2E2E2E2E2E2E2E2E2E2E2E2E2E2E2E2E2E2E2E2E2E2F5E2E2E2E2E2E2F5F5F5E2E2E2E2E2E2E2E2F5E2E2E2E2E2E2E2E2E2E2E2E2E2E2E2E2E2E2E2E2E2E2E2E2E2E2E2E2E2E2E2E2E2E2E2E2E2E2E2E2E2E2E2E2E2E2E2E2E2
310
E2E2E2E2E2E2E2E2E2E2E2E2E2E2E2E2E2E2E2E2E2E2E2E2E2E2E2E2E2E2E2E2E2E2E2E2E2E2E2E2E2E2E2E2E2E2E2E2E2E2E2E2E2E2E2E2E2E2E2E2E2E2E2E2E2E2E2E2E2E2E2E2E2E2E2E2E2E2E2E2E2E2E2E2E2E2E2E2E2E2E2E2E2E2E2E2E2E2E2E2E2E2E2E2E2E2E2E2E2E2E2E2F5E2E2E2E2E2E2F5F5F5E2E2E2E2E2
310
E2E2E2F5E2E2E2E2E2E2E2E2E2E2E2E2E2E2E2E2E2E2E2E2E2E2E2E2E2E2E2E2E2E2E2E2E2E2E2E2E2E2E2E2E2E2E2E2E2E2E2E2E2E2E2E2E2E2E2E2E2E2E2E2E2E2E2E2E2E2E2E2E2E2E2E2E2E2E2E2E2E2E2E2E2E2E2E2E2E2E2E2E2E2E2E2E2E2E2E2E2E2E2E2E2E2E2E2E2E2E2E2E2E2E2E2E2E2E2E2E2E2E2E2E2E2E2
310
E2E2E2E2E2E2E2E2E2E2E2E2E2E2E2E2E2E2E2E2E2E2E2E2E2E2E2E2E2E2E2E2E2E2E2E2E2E2F5E2E2E2E2E2E2F5F5F5E2E2E2E2E2E2E2E2F5E2E2E2E2E2E2E2E2E2E2E2E2E2E2E2E2E2E2E2E2E2E2E2E2E2E2E2E2E2E2E2E2E2E2E2E2E2E2E2E2E2E2E2E2E2E2E2E2E2E2E2E2E2E2E2E2E2E2E2E2E2E2E2E2E2E2E2E2E2E2
310
E2E2E2E2E2E2E2E2E2E2E2E2E2E2E2E2E2E2E2E2E2E2E2E2E2E2E2E2E2E2E2E2E2E2E2E2E2E2E2E2E2E2E2E2E2E2E2E2E2E2E2E2E2E2E2E2E2E2E2E2E2E2E2E2E2E2E2E2E2E2E2E2E2E2E2E2E2E2E2E2E2E2E2E2E2E2E2E2E2E2E2F5E2E2E2E2E2E2F5F5F5E2E2F5E2E2E2E2E2F5E2E2E2E2E2E2E2E2E2E2E2E2E2E2E2E2E2
310
E2E2E2E2E2E2E2E2E2E2E2E2E2E2E2E2E2E2E2E2E2E2E2E2E2E2E2E2E2E2E2E2E2E2E2E2E2E2E2E2E2E2E2E2E2E2E2E2E2E2E2E2E2E2E2E2E2E2E2E2E2E2E2E2E2E2E2E2E2E2E2E2E2E2E2E2E2E2E2E2E2E2E2E2E2E2E2E2E2E2E2E2E2E2E2E2E2E2E2E2E2E2E2E2E2E2E2E2E2E2E2E2E2E2E2E2E2E2E2E2E2E2E2E2E2E2E2
310
E2E2E2E2E2E2E2E2E2E2E2E2E2E2E2E2E2F5E2E2E2F5E2E2F5F5F5E2E2F5E2E2E2E2E2F5E2E2E2E2E2E2E2E2E2E2E2E2E2E2E2E2E2E2E2E2E2E2E2E2E2E2E2E2E2E2E2E2E2E2E2E2E2E2E2E2E2E2E2E2E2E2E2E2E2E2E2E2E2E2E2E2E2E2E2E2E2E2E2E2E2E2E2E2E2E2E2E2E2E2E2E2E2E2E2E2E2E2E2E2E2E2E2E2E2E2E2
310
E2E2E2E2E2E2E2E2E2E2E2E2E2E2E2E2E2E2E2E2E2E2E2E2E2E2E2E2E2E2E2E2E2E2E2E2E2E2E2E2E2E2E2E2E2E2E2E2E2E2E2E2E2E2E2E2E2E2E2E2E2E2E2E2E2E2E2E2E2E2F5E2E2E2F5E2E2F5F5F5E2E2F5E2E2E2E2E2F5E2E2E2E2E2E2E2E2E2E2E2E2E2E2E2E2E2E2E2E2E2E2E2E2E2E2E2E2E2E2E2E2E2E2E2E2E2E2
310
E2E2E2E2E2E2E2E2E2E2E2E2E2E2E2E2E2E2E2E2E2E2E2E2E2E2E2E2E2E2E2E2E2E2E2E2E2E2E2E2E2E2E2E2E2E2E2E2E2E2E2E2E2E2E2E2E2E2E2E2E2E2E2E2E2E2E2E2E2E2E2E2E2E2E2E2E2E2E2E2E2E2E2E2E2E2E2E2E2E2E2E2E2E2E2E2E2E2E2E2E2E2E2E2E2E2E2E2E2E2E2E2E2E2E2E2E2E2E2E2E2E2E2F5E2E2E2
310
F5E2E2F5F5F5E2E2F5E2E2E2E2E2F5E2E2E2E2E2E2E2E2E2E2E2E2E2E2E2E2E2E2E2E2E2E2E2E2E2E2E2E2E2E2E2E2E2E2E2E2E2E2E2E2E2E2E2E2E2E2E2E2E2E2E2E2E2E2E2E2E2E2E2E2E2E2E2E2E2E2E2E2E2E2E2E2E2E2E2E2E2E2E2E2E2E2E2E2E2E2E2E2E2E2E2E2E2E2E2E2E2E2E2E2E2E2E2E2E2E2E2E2E2E2E2E2
310
E2E2E2E2E2E2E2E2E2E2E2E2E2E2E2E2E2E2E2E2E2E2E2E2E2E2E2E2E2E2E2E2E2E2E2E2E2E2E2E2E2E2E2E2E2E2E2E2E2F5E2E2E2F5E2E2F5F5F5E2E2F5E2E2E2E2E2F5E2E2E2E2E2E2E2E2E2E2E2E2E2E2E2E2E2E2E2E2E2E2E2E2E2E2E2E2E2E2E2E2E2E2E2E2E2E2E2E2E2E2E2E2E2E2E2E2E2E2E2E2E2E2E2E2E2E2E2
310
E2E2E2E2E2E2E2E2E2E2E2E2E2E2E2E2E2E2E2E2E2E2E2E2E2E2E2E2E2E2E2E2E2E2E2E2E2E2E2E2E2E2E2E2E2E2E2E2E2E2E2E2E2E2E2E2E2E2E2E2E2E2E2E2E2E2E2E2E2E2E2E2E2E2E2E2E2E2E2E2E2E2E2E2E2E2E2E2E2E2E2E2E2E2E2E2E2E2E2E2E2E2F5E2E2E2F5E2E2F5F5F5E2E2F5E2E2E2E2E2F5F5F5F5F5F5F5
310
F5F5F5F5F5F5F5F5F5F5F5F5F5F5F5F5F5F5F5F5F5F5F5F5F5F5F5F5F5F5F5F5F5F5F5F5F5F5F5F5F5F5F5F5F5F5F5F5F5F5F5F5F5F5F5F5F5F5F5F5F5F5F5F5F5F5F5F5F5F5F5F5F5F5F5F5F5F5F5F5F5F5F5F5F5F5F5F5F5F5F5F5F5F5F5F5F5F5F5F5F5F5F5F5F5F5F5F5F5F5F5F5F5F5F5F5F5F5F5F5F5F5F5F5F5F5F5
310
F5F5F5F5F5F5F5F5F5F5F5F5F5F5F5F5F5F5F5F5F5F5F5F5F5F5F5F5F5E2E2E2F5E2E2F5F5F5E2E2F5E2E2E2E2E2E2E2E2E2E2E2E2E2E2E2E2E2E2E2E2E2E2E2E2E2E2E2E2E2E2E2E2E2E2E2E2E2E2E2E2E2E2E2E2E2E2E2E2E2E2E2E2E2E2E2E2E2E2E2E2E2E2E2E2E2E2E2E2E2E2E2E2E2E2E2E2E2E2E2E2E2E2E2E2E2E2
310
E2E2E2E2E2E2E2E2E2E2E2E2E2E2E2E2E2E2E2E2E2E2E2E2E2E2E2E2E2E2E2E2E2E2E2E2E2E2E2E2E2E2E2E2E2E2E2E2E2E2E2E2E2E2E2E2E2E2E2E2E2E2E2E2E2E2E2E2E2E2E2E2E2E2E2E2E2E2E2E2E2E2E2E2E2F5E2E2F5F5F5E2E2F5F5F5F5F5F5F5F5E2E2E2E2E2E2E2E2E2F5F5F5F5F5F5F5F5F5F5F5F5F5F5F5F5E2
310
E2E2E2E2E2E2E2E2F5F5F5F5F5F5F5F5F5F5F5F5F5F5F5F5E2E2E2E2E2E2E2E2F5F5F5F5F5F5F5F5F5F5F5F5F5F5F5F5E2E2E2E2E2E2E2E2E2F5F5F5F5F5F5F5F5F5F5F5F5F5F5F5F5E2E2E2E2E2E2E2E2F5F5F5F5F5F5F5F5F5F5F5F5F5F5F5F5E2E2E2E2E2E2E2E2E2F5F5F5F5F5F5F5F5F5F5F5F5F5F5F5F5E2E2E2E2E2
310
E2E2E2E2F5F5F5F5F5F5F5F5E2E2F5F5F5E2E2E2E2E2E2E2E2E2E2E2E2E2E2E2E2E2E2E2E2E2E2E2E2E2E2E2E2E2E2E2E2E2E2E2E2E2E2E2E2E2E2E2E2E2E2E2E2E2E2E2E2E2E2E2E2E2E2E2E2E2E2E2E2E2E2E2E2E2E2E2E2E2E2E2E2E2E2E2E2E2E2E2E2E2E2E2E2E2E2E2E2E2E2E2E2E2E2E2E2E2E2E2E2E2E2E2E2E2E2
310
E2E2E2E2E2E2E2E2E2E2E2E2E2E2E2E2E2E2E2E2E2E2E2E2E2E2E2E2E2E2E2E2E2E2E2E2E2E2E2E2E2E2E2E2E2E2E2E2E2E2E2E2E2E2E2E2E2E2E2E2E2E2E2E2E2E2E2F5F5F5E2E2E2E2E2E2E2E2E2E2E2E2E2E2E2E2E2E2E2E2E2E2E2E2E2E2E2E2E2E2E2E2E2E2E2E2E2E2E2E2E2E2E2E2E2E2E2E2E2E2E2E2E2E2E2E2E2
310
E2E2E2E2E2E2E2E2E2E2E2E2E2E2E2E2E2E2E2E2E2E2E2E2E2E2E2E2E2E2E2E2E2E2E2E2E2E2E2E2E2E2E2E2E2E2E2E2E2E2E2E2E2E2E2E2E2E2E2E2E2E2E2E2E2E2E2E2E2E2E2E2E2E2E2E2E2E2E2E2E2E2E2E2E2E2E2E2E2E2E2E2E2E2E2E2E2E2E2E2E2E2E2E2E2E2E2E2E2E2E2E2E2E2E2E2E2E2E2E2F5EFF5F5F5F5F5
310
F5F5F5F5F5F5F5F5F5F5F5F5F5F5F5F5F5F5F5F5F5F5F5F5F5F5F5F5F5F5F5F5F5F5F5F5F5F5F5F5F5F5F5F5F5F5F5F5F5F5F5F5F5F5F5F5F5F5F5F5F5F5F5F5F5F5F5F5F5F5F5F5F5F5F5F5F5F5F5F5F5F5F5F5F5F5F5F5F5F5F5F5F5F5F5F5F5F5F5F5F5F5F5F5F5F5F5F5F5F5F5F5F5F5F5F5F5F5F5F5F5F5F5F5F5F5F5
310
F5F5F5F5F5F5F5F5F5F5F5F5F5F5F5F5F5F5F5F5F5F5F5F5F5F5F5F5F5F5F5F5F5F5F5F5F5F5F5F5F5F5F5F5F5F5F5EF
  0
XRECORD
  5
21E4
102
{ACAD_REACTORS
330
2033
102
}
330
2033
100
AcDbXrecord
280
     1
102
MATERIAL
148
0.0
149
0.0
149
0.0
 93
        0
 94
      127
282
     0
 72
     0
 77
     0
171
     0
175
     0
179
     0
273
     0
  0
XRECORD
  5
2035
102
{ACAD_REACTORS
330
2033
102
}
330
2033
100
AcDbXrecord
280
     1
270
     1
271
     1
  0
XRECORD
  5
2034
102
{ACAD_REACTORS
330
2033
102
}
330
2033
100
AcDbXrecord
280
     1
270
     1
271
     1
  0
XRECORD
  5
2038
102
{ACAD_REACTORS
330
2033
102
}
330
2033
100
AcDbXrecord
280
     1
270
     1
271
     1
  0
XRECORD
  5
2037
102
{ACAD_REACTORS
330
2033
102
}
330
2033
100
AcDbXrecord
280
     1
270
     1
271
     1
  0
XRECORD
  5
2039
102
{ACAD_REACTORS
330
2033
102
}
330
2033
100
AcDbXrecord
280
     1
270
     1
271
     1
  0
XRECORD
  5
2036
102
{ACAD_REACTORS
330
2033
102
}
330
2033
100
AcDbXrecord
280
     1
270
     1
271
     1
  0
XRECORD
  5
21E3
102
{ACAD_REACTORS
330
202B
102
}
330
202B
100
AcDbXrecord
280
     1
102
MATERIAL
148
0.0
149
0.0
149
0.0
 93
        0
 94
      127
282
     0
 72
     0
 77
     0
171
     0
175
     0
179
     0
273
     0
  0
XRECORD
  5
202D
102
{ACAD_REACTORS
330
202B
102
}
330
202B
100
AcDbXrecord
280
     1
270
     1
271
     1
  0
XRECORD
  5
202C
102
{ACAD_REACTORS
330
202B
102
}
330
202B
100
AcDbXrecord
280
     1
270
     1
271
     1
  0
XRECORD
  5
2030
102
{ACAD_REACTORS
330
202B
102
}
330
202B
100
AcDbXrecord
280
     1
270
     1
271
     1
  0
XRECORD
  5
202F
102
{ACAD_REACTORS
330
202B
102
}
330
202B
100
AcDbXrecord
280
     1
270
     1
271
     1
  0
XRECORD
  5
2031
102
{ACAD_REACTORS
330
202B
102
}
330
202B
100
AcDbXrecord
280
     1
270
     1
271
     1
  0
XRECORD
  5
202E
102
{ACAD_REACTORS
330
202B
102
}
330
202B
100
AcDbXrecord
280
     1
270
     1
271
     1
  0
XRECORD
  5
21E5
102
{ACAD_REACTORS
330
203B
102
}
330
203B
100
AcDbXrecord
280
     1
102
MATERIAL
148
0.0
149
0.0
149
0.0
 93
        0
 94
      127
282
     0
 72
     0
 77
     0
171
     0
175
     0
179
     0
273
     0
  0
XRECORD
  5
203D
102
{ACAD_REACTORS
330
203B
102
}
330
203B
100
AcDbXrecord
280
     1
270
     1
271
     1
  0
XRECORD
  5
203C
102
{ACAD_REACTORS
330
203B
102
}
330
203B
100
AcDbXrecord
280
     1
270
     1
271
     1
  0
XRECORD
  5
2040
102
{ACAD_REACTORS
330
203B
102
}
330
203B
100
AcDbXrecord
280
     1
270
     1
271
     1
  0
XRECORD
  5
203F
102
{ACAD_REACTORS
330
203B
102
}
330
203B
100
AcDbXrecord
280
     1
270
     1
271
     1
  0
XRECORD
  5
2041
102
{ACAD_REACTORS
330
203B
102
}
330
203B
100
AcDbXrecord
280
     1
270
     1
271
     1
  0
XRECORD
  5
203E
102
{ACAD_REACTORS
330
203B
102
}
330
203B
100
AcDbXrecord
280
     1
270
     1
271
     1
  0
XRECORD
  5
21DE
102
{ACAD_REACTORS
330
21DD
102
}
330
21DD
100
AcDbXrecord
280
     1
102
SHADEPLOT
 70
     0
102
SHADEPLOTRESLEVEL
 70
     2
102
SHADEPLOTCUSTOMDPI
 70
   300
  0
CELLSTYLEMAP
  5
21D5
102
{ACAD_REACTORS
330
21D4
102
}
330
21D4
100
AcDbCellStyleMap
 90
        3
300
CELLSTYLE
  1
TABLEFORMAT_BEGIN
 90
        5
170
     1
 91
        0
 92
    32768
 62
   257
 93
        1
300
CONTENTFORMAT
  1
CONTENTFORMAT_BEGIN
 90
        0
 91
        0
 92
      512
 93
        0
300

 40
0.0
140
1.0
 94
        5
 62
     0
340
10
144
6.0
309
CONTENTFORMAT_END
171
     1
301
MARGIN
  1
CELLMARGIN_BEGIN
 40
1.5
 40
1.5
 40
1.5
 40
1.5
 40
4.5
 40
4.5
309
CELLMARGIN_END
 94
        6
 95
        1
302
GRIDFORMAT
  1
GRIDFORMAT_BEGIN
 90
        0
 91
        1
 62
     0
 92
       -2
340
0
 93
        0
 40
1.125
309
GRIDFORMAT_END
 95
        2
302
GRIDFORMAT
  1
GRIDFORMAT_BEGIN
 90
        0
 91
        1
 62
     0
 92
       -2
340
0
 93
        0
 40
1.125
309
GRIDFORMAT_END
 95
        4
302
GRIDFORMAT
  1
GRIDFORMAT_BEGIN
 90
        0
 91
        1
 62
     0
 92
       -2
340
0
 93
        0
 40
1.125
309
GRIDFORMAT_END
 95
        8
302
GRIDFORMAT
  1
GRIDFORMAT_BEGIN
 90
        0
 91
        1
 62
     0
 92
       -2
340
0
 93
        0
 40
1.125
309
GRIDFORMAT_END
 95
       16
302
GRIDFORMAT
  1
GRIDFORMAT_BEGIN
 90
        0
 91
        1
 62
     0
 92
       -2
340
0
 93
        0
 40
1.125
309
GRIDFORMAT_END
 95
       32
302
GRIDFORMAT
  1
GRIDFORMAT_BEGIN
 90
        0
 91
        1
 62
     0
 92
       -2
340
0
 93
        0
 40
1.125
309
GRIDFORMAT_END
309
TABLEFORMAT_END
  1
CELLSTYLE_BEGIN
 90
        1
 91
        1
300
_TITLE
309
CELLSTYLE_END
300
CELLSTYLE
  1
TABLEFORMAT_BEGIN
 90
        5
170
     1
 91
        0
 92
        0
 62
   257
 93
        1
300
CONTENTFORMAT
  1
CONTENTFORMAT_BEGIN
 90
        0
 91
        0
 92
      512
 93
        0
300

 40
0.0
140
1.0
 94
        5
 62
     0
340
10
144
4.5
309
CONTENTFORMAT_END
171
     1
301
MARGIN
  1
CELLMARGIN_BEGIN
 40
1.5
 40
1.5
 40
1.5
 40
1.5
 40
4.5
 40
4.5
309
CELLMARGIN_END
 94
        6
 95
        1
302
GRIDFORMAT
  1
GRIDFORMAT_BEGIN
 90
        0
 91
        1
 62
     0
 92
       -2
340
0
 93
        0
 40
1.125
309
GRIDFORMAT_END
 95
        2
302
GRIDFORMAT
  1
GRIDFORMAT_BEGIN
 90
        0
 91
        1
 62
     0
 92
       -2
340
0
 93
        0
 40
1.125
309
GRIDFORMAT_END
 95
        4
302
GRIDFORMAT
  1
GRIDFORMAT_BEGIN
 90
        0
 91
        1
 62
     0
 92
       -2
340
0
 93
        0
 40
1.125
309
GRIDFORMAT_END
 95
        8
302
GRIDFORMAT
  1
GRIDFORMAT_BEGIN
 90
        0
 91
        1
 62
     0
 92
       -2
340
0
 93
        0
 40
1.125
309
GRIDFORMAT_END
 95
       16
302
GRIDFORMAT
  1
GRIDFORMAT_BEGIN
 90
        0
 91
        1
 62
     0
 92
       -2
340
0
 93
        0
 40
1.125
309
GRIDFORMAT_END
 95
       32
302
GRIDFORMAT
  1
GRIDFORMAT_BEGIN
 90
        0
 91
        1
 62
     0
 92
       -2
340
0
 93
        0
 40
1.125
309
GRIDFORMAT_END
309
TABLEFORMAT_END
  1
CELLSTYLE_BEGIN
 90
        2
 91
        1
300
_HEADER
309
CELLSTYLE_END
300
CELLSTYLE
  1
TABLEFORMAT_BEGIN
 90
        5
170
     1
 91
        0
 92
        0
 62
   257
 93
        1
300
CONTENTFORMAT
  1
CONTENTFORMAT_BEGIN
 90
        0
 91
        0
 92
      512
 93
        0
300

 40
0.0
140
1.0
 94
        2
 62
     0
340
10
144
4.5
309
CONTENTFORMAT_END
171
     1
301
MARGIN
  1
CELLMARGIN_BEGIN
 40
1.5
 40
1.5
 40
1.5
 40
1.5
 40
4.5
 40
4.5
309
CELLMARGIN_END
 94
        6
 95
        1
302
GRIDFORMAT
  1
GRIDFORMAT_BEGIN
 90
        0
 91
        1
 62
     0
 92
       -2
340
0
 93
        0
 40
1.125
309
GRIDFORMAT_END
 95
        2
302
GRIDFORMAT
  1
GRIDFORMAT_BEGIN
 90
        0
 91
        1
 62
     0
 92
       -2
340
0
 93
        0
 40
1.125
309
GRIDFORMAT_END
 95
        4
302
GRIDFORMAT
  1
GRIDFORMAT_BEGIN
 90
        0
 91
        1
 62
     0
 92
       -2
340
0
 93
        0
 40
1.125
309
GRIDFORMAT_END
 95
        8
302
GRIDFORMAT
  1
GRIDFORMAT_BEGIN
 90
        0
 91
        1
 62
     0
 92
       -2
340
0
 93
        0
 40
1.125
309
GRIDFORMAT_END
 95
       16
302
GRIDFORMAT
  1
GRIDFORMAT_BEGIN
 90
        0
 91
        1
 62
     0
 92
       -2
340
0
 93
        0
 40
1.125
309
GRIDFORMAT_END
 95
       32
302
GRIDFORMAT
  1
GRIDFORMAT_BEGIN
 90
        0
 91
        1
 62
     0
 92
       -2
340
0
 93
        0
 40
1.125
309
GRIDFORMAT_END
309
TABLEFORMAT_END
  1
CELLSTYLE_BEGIN
 90
        3
 91
        2
300
_DATA
309
CELLSTYLE_END
  0
XRECORD
  5
21E6
102
{ACAD_REACTORS
330
21D4
102
}
330
21D4
100
AcDbXrecord
280
     1
102
ACAD_ROUNDTRIP_PRE2007_TABLESTYLE
 90
      512
 91
        0
  1

 92
      512
 93
        0
  2

 94
      512
 95
        0
  3

  0
ENDSEC
  0
EOF
